999
DXF file: Z:\Entwicklung\5_Service\1_Maßblätter\4_Schloss\b_2189_0008_bd01.dxf
999
Pro/ENGINEER 2014320 by Parametric Technology Corporation
  0
SECTION
  2
HEADER
  9
$ACADVER
  1
AC1021
  9
$DWGCODEPAGE
  3
ANSI_1252
  9
$EXTMAX
 10
594.0
 20
420.0
 30
0.0
  9
$EXTMIN
 10
0.0
 20
0.0
 30
0.0
  9
$LIMMIN
 10
0.0
 20
0.0
  9
$LIMMAX
 10
594.0
 20
420.0
  9
$VIEWCTR
 10
297.0
 20
210.0
  9
$VIEWSIZE
 40
420.0
  9
$CLAYER
  8
0
  9
$LTSCALE
 40
32.67
  9
$CELTYPE
  6
BYLAYER
  9
$DIMSCALE
 40
1.0
  9
$DIMASZ
 40
3.5
  9
$DIMEXO
 40
0.0
  9
$DIMDLI
 40
22.572
  9
$DIMEXE
 40
1.0
  9
$DIMCEN
 40
5.346
  9
$DIMLFAC
 40
1.0
  9
$DIMBLK
  1
_FILLED
  9
$DIMTXT
 40
2.5
  9
$DIMTOL
 70
1
  9
$DIMLIM
 70
0
  9
$DIMTFAC
 40
1.0
  9
$DIMTP
 40
0.001
  9
$DIMTM
 40
0.001
  9
$DIMGAP
 40
0.625
  9
$DIMDSEP
 70
46
  9
$PDMODE
 70
3
  9
$PDSIZE
 40
2.0
  9
$HANDSEED
  5
67B
  9
$TILEMODE
 70
1
  9
$MEASUREMENT
 70
1
  9
$INSUNITS
 70
4
  0
ENDSEC
  0
SECTION
  2
CLASSES
  0
CLASS
  1
ACDBDICTIONARYWDFLT
  2
AcDbDictionaryWithDefault
  3
AutoCAD 2000
 90
0
 91
1
280
0
281
0
  0
CLASS
  1
ACDBPLACEHOLDER
  2
AcDbPlaceHolder
  3
AutoCAD 2000
 90
0
 91
1
280
0
281
0
  0
CLASS
  1
LAYOUT
  2
AcDbLayout
  3
AutoCAD 2000
 90
0
 91
0
280
0
281
0
  0
ENDSEC
  0
SECTION
  2
TABLES
  0
TABLE
  2
VPORT
  5
8
100
AcDbSymbolTable
 70
2
  0
VPORT
  5
1F4
100
AcDbSymbolTableRecord
100
AcDbViewportTableRecord
  2
*ACTIVE
 70
0
 10
0.0
 20
0.0
 11
1.0
 21
1.0
 12
297.0
 22
210.0
 13
0.0
 23
0.0
 14
1.0
 24
1.0
 15
0.0
 25
0.0
 16
0.0
 26
0.0
 36
1.0
 17
0.0
 27
0.0
 37
0.0
 40
420.0
 41
1.4142857143
 42
50.0
 43
0.0
 44
0.0
 50
0.0
 51
0.0
 71
0
 72
100
 73
1
 74
1
 75
0
 76
0
 77
0
 78
0
  0
ENDTAB
  0
TABLE
  2
LTYPE
  5
5
100
AcDbSymbolTable
 70
6
  0
LTYPE
  5
14
100
AcDbSymbolTableRecord
100
AcDbLinetypeTableRecord
  2
BYBLOCK
 70
0
  3

 72
65
 73
0
 40
0.0
  0
LTYPE
  5
15
100
AcDbSymbolTableRecord
100
AcDbLinetypeTableRecord
  2
BYLAYER
 70
0
  3

 72
65
 73
0
 40
0.0
  0
LTYPE
  5
16
100
AcDbSymbolTableRecord
100
AcDbLinetypeTableRecord
  2
CONTINUOUS
 70
64
  3
Solid line
 72
65
 73
0
 40
0.0
  0
LTYPE
  5
1F5
100
AcDbSymbolTableRecord
100
AcDbLinetypeTableRecord
  2
CENTER
 70
64
  3
____ _ ____ _ ____ _ ____ _ ____ _ ____ _ ____
 72
65
 73
4
 40
0.6
 49
0.375
 74
0
 49
-0.075
 74
0
 49
0.075
 74
0
 49
-0.075
 74
0
  0
LTYPE
  5
1F6
100
AcDbSymbolTableRecord
100
AcDbLinetypeTableRecord
  2
HIDDEN
 70
64
  3
- - - - - - - - - - - - - - - - - - - -
 72
65
 73
2
 40
0.2
 49
0.1
 74
0
 49
-0.1
 74
0
  0
LTYPE
  5
1F7
100
AcDbSymbolTableRecord
100
AcDbLinetypeTableRecord
  2
PHANTOM
 70
64
  3
_____ _ _ _____ _ _ _____ _ _ _____
 72
65
 73
6
 40
0.8
 49
0.45
 74
0
 49
-0.05
 74
0
 49
0.1
 74
0
 49
-0.05
 74
0
 49
0.1
 74
0
 49
-0.05
 74
0
  0
LTYPE
  5
1F8
100
AcDbSymbolTableRecord
100
AcDbLinetypeTableRecord
  2
DOT
 70
64
  3
. . . . . . . . . . . . . . . . . . . .
 72
65
 73
2
 40
0.2
 49
0.1
 74
0
 49
-0.1
 74
0
  0
LTYPE
  5
1F9
100
AcDbSymbolTableRecord
100
AcDbLinetypeTableRecord
  2
DASHED
 70
64
  3
- - - - - - - - - - - - - - - - - - - -
 72
65
 73
2
 40
0.2
 49
0.1
 74
0
 49
-0.1
 74
0
  0
ENDTAB
  0
TABLE
  2
LAYER
  5
2
100
AcDbSymbolTable
 70
36
  0
LAYER
  5
10
100
AcDbSymbolTableRecord
100
AcDbLayerTableRecord
  2
0
 70
0
 62
7
  6
CONTINUOUS
370
-3
390
F
  0
LAYER
  5
1FA
100
AcDbSymbolTableRecord
100
AcDbLayerTableRecord
  2
DEFAULT_1
 70
0
 62
7
  6
CENTER
370
-3
390
F
  0
LAYER
  5
1FB
100
AcDbSymbolTableRecord
100
AcDbLayerTableRecord
  2
DEFAULT_2
 70
0
 62
8
  6
HIDDEN
370
-3
390
F
  0
LAYER
  5
1FC
100
AcDbSymbolTableRecord
100
AcDbLayerTableRecord
  2
DEFAULT_3
 70
0
 62
7
  6
PHANTOM
370
-3
390
F
  0
LAYER
  5
1FD
100
AcDbSymbolTableRecord
100
AcDbLayerTableRecord
  2
ACHSEN
 70
0
 62
7
  6
CONTINUOUS
370
-3
390
F
  0
LAYER
  5
1FE
100
AcDbSymbolTableRecord
100
AcDbLayerTableRecord
  2
AXIS
 70
0
 62
7
  6
CONTINUOUS
370
-3
390
F
  0
LAYER
  5
1FF
100
AcDbSymbolTableRecord
100
AcDbLayerTableRecord
  2
COORDSYS
 70
0
 62
7
  6
CONTINUOUS
370
-3
390
F
  0
LAYER
  5
200
100
AcDbSymbolTableRecord
100
AcDbLayerTableRecord
  2
CURVES
 70
0
 62
7
  6
CONTINUOUS
370
-3
390
F
  0
LAYER
  5
201
100
AcDbSymbolTableRecord
100
AcDbLayerTableRecord
  2
EBENEN
 70
0
 62
7
  6
CONTINUOUS
370
-3
390
F
  0
LAYER
  5
202
100
AcDbSymbolTableRecord
100
AcDbLayerTableRecord
  2
GEWINDE
 70
0
 62
7
  6
CONTINUOUS
370
-3
390
F
  0
LAYER
  5
203
100
AcDbSymbolTableRecord
100
AcDbLayerTableRecord
  2
HIDDEN
 70
0
 62
7
  6
CONTINUOUS
370
-3
390
F
  0
LAYER
  5
204
100
AcDbSymbolTableRecord
100
AcDbLayerTableRecord
  2
KURVEN
 70
0
 62
7
  6
CONTINUOUS
370
-3
390
F
  0
LAYER
  5
205
100
AcDbSymbolTableRecord
100
AcDbLayerTableRecord
  2
PLANES
 70
0
 62
7
  6
CONTINUOUS
370
-3
390
F
  0
LAYER
  5
206
100
AcDbSymbolTableRecord
100
AcDbLayerTableRecord
  2
POINTS
 70
0
 62
7
  6
CONTINUOUS
370
-3
390
F
  0
LAYER
  5
207
100
AcDbSymbolTableRecord
100
AcDbLayerTableRecord
  2
S-ACHSEN
 70
0
 62
7
  6
CONTINUOUS
370
-3
390
F
  0
LAYER
  5
208
100
AcDbSymbolTableRecord
100
AcDbLayerTableRecord
  2
S-AXIS
 70
0
 62
7
  6
CONTINUOUS
370
-3
390
F
  0
LAYER
  5
209
100
AcDbSymbolTableRecord
100
AcDbLayerTableRecord
  2
S-BG-EBENEN
 70
0
 62
7
  6
CONTINUOUS
370
-3
390
F
  0
LAYER
  5
20A
100
AcDbSymbolTableRecord
100
AcDbLayerTableRecord
  2
S-BG-KOORDSYS
 70
0
 62
7
  6
CONTINUOUS
370
-3
390
F
  0
LAYER
  5
20B
100
AcDbSymbolTableRecord
100
AcDbLayerTableRecord
  2
S-COORDSYS
 70
0
 62
7
  6
CONTINUOUS
370
-3
390
F
  0
LAYER
  5
20C
100
AcDbSymbolTableRecord
100
AcDbLayerTableRecord
  2
S-EBENEN
 70
0
 62
7
  6
CONTINUOUS
370
-3
390
F
  0
LAYER
  5
20D
100
AcDbSymbolTableRecord
100
AcDbLayerTableRecord
  2
S-KOORDSYS
 70
0
 62
7
  6
CONTINUOUS
370
-3
390
F
  0
LAYER
  5
20E
100
AcDbSymbolTableRecord
100
AcDbLayerTableRecord
  2
S-PLANES
 70
0
 62
7
  6
CONTINUOUS
370
-3
390
F
  0
LAYER
  5
20F
100
AcDbSymbolTableRecord
100
AcDbLayerTableRecord
  2
THREADS
 70
0
 62
7
  6
CONTINUOUS
370
-3
390
F
  0
LAYER
  5
210
100
AcDbSymbolTableRecord
100
AcDbLayerTableRecord
  2
XSEC_DATUMS
 70
0
 62
7
  6
CONTINUOUS
370
-3
390
F
  0
LAYER
  5
211
100
AcDbSymbolTableRecord
100
AcDbLayerTableRecord
  2
GU_BKS_BL0
 70
0
 62
7
  6
CONTINUOUS
370
-3
390
F
  0
LAYER
  5
212
100
AcDbSymbolTableRecord
100
AcDbLayerTableRecord
  2
X23015008_BL1
 70
0
 62
7
  6
CONTINUOUS
370
-3
390
F
  0
LAYER
  5
213
100
AcDbSymbolTableRecord
100
AcDbLayerTableRecord
  2
X23219003_BL2
 70
0
 62
7
  6
CONTINUOUS
370
-3
390
F
  0
LAYER
  5
214
100
AcDbSymbolTableRecord
100
AcDbLayerTableRecord
  2
X23100000_BL3
 70
0
 62
7
  6
CONTINUOUS
370
-3
390
F
  0
LAYER
  5
215
100
AcDbSymbolTableRecord
100
AcDbLayerTableRecord
  2
X23983006_BL4
 70
0
 62
7
  6
CONTINUOUS
370
-3
390
F
  0
LAYER
  5
216
100
AcDbSymbolTableRecord
100
AcDbLayerTableRecord
  2
X00539000_BL5
 70
0
 62
7
  6
CONTINUOUS
370
-3
390
F
  0
LAYER
  5
217
100
AcDbSymbolTableRecord
100
AcDbLayerTableRecord
  2
X23982005_BL6
 70
0
 62
7
  6
CONTINUOUS
370
-3
390
F
  0
LAYER
  5
218
100
AcDbSymbolTableRecord
100
AcDbLayerTableRecord
  2
X23524005_BL7
 70
0
 62
7
  6
CONTINUOUS
370
-3
390
F
  0
LAYER
  5
219
100
AcDbSymbolTableRecord
100
AcDbLayerTableRecord
  2
X23590000_BL8
 70
0
 62
7
  6
CONTINUOUS
370
-3
390
F
  0
LAYER
  5
21A
100
AcDbSymbolTableRecord
100
AcDbLayerTableRecord
  2
X00539000_BL9
 70
0
 62
7
  6
CONTINUOUS
370
-3
390
F
  0
LAYER
  5
21B
100
AcDbSymbolTableRecord
100
AcDbLayerTableRecord
  2
X23988000_BL10
 70
0
 62
7
  6
CONTINUOUS
370
-3
390
F
  0
LAYER
  5
21C
100
AcDbSymbolTableRecord
100
AcDbLayerTableRecord
  2
X00200000_BL11
 70
0
 62
7
  6
CONTINUOUS
370
-3
390
F
  0
LAYER
  5
21D
100
AcDbSymbolTableRecord
100
AcDbLayerTableRecord
  2
X02304000_GEN_BL12
 70
0
 62
7
  6
CONTINUOUS
370
-3
390
F
  0
LAYER
  5
21E
100
AcDbSymbolTableRecord
100
AcDbLayerTableRecord
  2
X00200000_BL13
 70
0
 62
7
  6
CONTINUOUS
370
-3
390
F
  0
LAYER
  5
21F
100
AcDbSymbolTableRecord
100
AcDbLayerTableRecord
  2
X00200000_BL14
 70
0
 62
7
  6
CONTINUOUS
370
-3
390
F
  0
LAYER
  5
220
100
AcDbSymbolTableRecord
100
AcDbLayerTableRecord
  2
X00308000_BL15
 70
0
 62
7
  6
CONTINUOUS
370
-3
390
F
  0
LAYER
  5
221
100
AcDbSymbolTableRecord
100
AcDbLayerTableRecord
  2
X02304010_BL16
 70
0
 62
7
  6
CONTINUOUS
370
-3
390
F
  0
LAYER
  5
222
100
AcDbSymbolTableRecord
100
AcDbLayerTableRecord
  2
X00200000_BL17
 70
0
 62
7
  6
CONTINUOUS
370
-3
390
F
  0
LAYER
  5
223
100
AcDbSymbolTableRecord
100
AcDbLayerTableRecord
  2
X00200000_BL18
 70
0
 62
7
  6
CONTINUOUS
370
-3
390
F
  0
ENDTAB
  0
TABLE
  2
STYLE
  5
3
100
AcDbSymbolTable
 70
1
  0
STYLE
  5
11
100
AcDbSymbolTableRecord
100
AcDbTextStyleTableRecord
  2
STANDARD
 70
0
 40
0.0
 41
0.8
 50
0.0
 71
0
 42
0.2
  3
txt
  4

  0
STYLE
  5
224
100
AcDbSymbolTableRecord
100
AcDbTextStyleTableRecord
  2
TEXTSTYLE_1
 70
0
 40
0.0
 41
0.8
 50
0.0
 71
0
 42
0.2
  3
gdt
  4

  0
STYLE
  5
225
100
AcDbSymbolTableRecord
100
AcDbTextStyleTableRecord
  2
TEXTSTYLE_2
 70
0
 40
0.0
 41
1.0
 50
0.0
 71
0
 42
0.2
  3
swisscl.ttf
  4

  0
STYLE
  5
226
100
AcDbSymbolTableRecord
100
AcDbTextStyleTableRecord
  2
TEXTSTYLE_3
 70
0
 40
0.0
 41
1.0
 50
0.0
 71
0
 42
0.2
  3
swisscl.ttf
  4

  0
ENDTAB
  0
TABLE
  2
VIEW
  5
6
100
AcDbSymbolTable
 70
0
  0
ENDTAB
  0
TABLE
  2
UCS
  5
7
100
AcDbSymbolTable
 70
0
  0
ENDTAB
  0
TABLE
  2
APPID
  5
9
100
AcDbSymbolTable
 70
1
  0
APPID
  5
227
100
AcDbSymbolTableRecord
100
AcDbRegAppTableRecord
  2
ACAD
 70
0
  0
ENDTAB
  0
TABLE
  2
BLOCK_RECORD
  5
1
100
AcDbSymbolTable
 70
0
  0
BLOCK_RECORD
  5
228
100
AcDbSymbolTableRecord
100
AcDbBlockTableRecord
  2
*Model_Space
  0
BLOCK_RECORD
  5
229
100
AcDbSymbolTableRecord
100
AcDbBlockTableRecord
  2
*Paper_Space
  0
BLOCK_RECORD
  5
22A
100
AcDbSymbolTableRecord
100
AcDbBlockTableRecord
  2
_FILLED
  0
BLOCK_RECORD
  5
22B
100
AcDbSymbolTableRecord
100
AcDbBlockTableRecord
  2
*D0
  0
BLOCK_RECORD
  5
22C
100
AcDbSymbolTableRecord
100
AcDbBlockTableRecord
  2
*D1
  0
BLOCK_RECORD
  5
22D
100
AcDbSymbolTableRecord
100
AcDbBlockTableRecord
  2
*D2
  0
BLOCK_RECORD
  5
22E
100
AcDbSymbolTableRecord
100
AcDbBlockTableRecord
  2
*D3
  0
BLOCK_RECORD
  5
22F
100
AcDbSymbolTableRecord
100
AcDbBlockTableRecord
  2
*D4
  0
BLOCK_RECORD
  5
230
100
AcDbSymbolTableRecord
100
AcDbBlockTableRecord
  2
*D5
  0
BLOCK_RECORD
  5
231
100
AcDbSymbolTableRecord
100
AcDbBlockTableRecord
  2
*D6
  0
BLOCK_RECORD
  5
232
100
AcDbSymbolTableRecord
100
AcDbBlockTableRecord
  2
*D7
  0
BLOCK_RECORD
  5
233
100
AcDbSymbolTableRecord
100
AcDbBlockTableRecord
  2
*D8
  0
BLOCK_RECORD
  5
234
100
AcDbSymbolTableRecord
100
AcDbBlockTableRecord
  2
*D9
  0
BLOCK_RECORD
  5
235
100
AcDbSymbolTableRecord
100
AcDbBlockTableRecord
  2
*D10
  0
BLOCK_RECORD
  5
236
100
AcDbSymbolTableRecord
100
AcDbBlockTableRecord
  2
*D11
  0
BLOCK_RECORD
  5
237
100
AcDbSymbolTableRecord
100
AcDbBlockTableRecord
  2
*D12
  0
BLOCK_RECORD
  5
238
100
AcDbSymbolTableRecord
100
AcDbBlockTableRecord
  2
*D13
  0
BLOCK_RECORD
  5
239
100
AcDbSymbolTableRecord
100
AcDbBlockTableRecord
  2
*D14
  0
BLOCK_RECORD
  5
23A
100
AcDbSymbolTableRecord
100
AcDbBlockTableRecord
  2
*D15
  0
BLOCK_RECORD
  5
23B
100
AcDbSymbolTableRecord
100
AcDbBlockTableRecord
  2
*D16
  0
BLOCK_RECORD
  5
23C
100
AcDbSymbolTableRecord
100
AcDbBlockTableRecord
  2
*D17
  0
BLOCK_RECORD
  5
23D
100
AcDbSymbolTableRecord
100
AcDbBlockTableRecord
  2
*D18
  0
BLOCK_RECORD
  5
23E
100
AcDbSymbolTableRecord
100
AcDbBlockTableRecord
  2
*D19
  0
BLOCK_RECORD
  5
23F
100
AcDbSymbolTableRecord
100
AcDbBlockTableRecord
  2
*D20
  0
BLOCK_RECORD
  5
240
100
AcDbSymbolTableRecord
100
AcDbBlockTableRecord
  2
*D21
  0
BLOCK_RECORD
  5
241
100
AcDbSymbolTableRecord
100
AcDbBlockTableRecord
  2
*D22
  0
BLOCK_RECORD
  5
242
100
AcDbSymbolTableRecord
100
AcDbBlockTableRecord
  2
*D23
  0
BLOCK_RECORD
  5
243
100
AcDbSymbolTableRecord
100
AcDbBlockTableRecord
  2
*D24
  0
BLOCK_RECORD
  5
244
100
AcDbSymbolTableRecord
100
AcDbBlockTableRecord
  2
*D25
  0
BLOCK_RECORD
  5
245
100
AcDbSymbolTableRecord
100
AcDbBlockTableRecord
  2
*D26
  0
BLOCK_RECORD
  5
246
100
AcDbSymbolTableRecord
100
AcDbBlockTableRecord
  2
*D27
  0
BLOCK_RECORD
  5
247
100
AcDbSymbolTableRecord
100
AcDbBlockTableRecord
  2
*D28
  0
BLOCK_RECORD
  5
248
100
AcDbSymbolTableRecord
100
AcDbBlockTableRecord
  2
*D29
  0
BLOCK_RECORD
  5
249
100
AcDbSymbolTableRecord
100
AcDbBlockTableRecord
  2
GU_BKS_BL0
  0
BLOCK_RECORD
  5
24A
100
AcDbSymbolTableRecord
100
AcDbBlockTableRecord
  2
X23015008_BL1
  0
BLOCK_RECORD
  5
24B
100
AcDbSymbolTableRecord
100
AcDbBlockTableRecord
  2
X23219003_BL2
  0
BLOCK_RECORD
  5
24C
100
AcDbSymbolTableRecord
100
AcDbBlockTableRecord
  2
X23100000_BL3
  0
BLOCK_RECORD
  5
24D
100
AcDbSymbolTableRecord
100
AcDbBlockTableRecord
  2
X23983006_BL4
  0
BLOCK_RECORD
  5
24E
100
AcDbSymbolTableRecord
100
AcDbBlockTableRecord
  2
X00539000_BL5
  0
BLOCK_RECORD
  5
24F
100
AcDbSymbolTableRecord
100
AcDbBlockTableRecord
  2
X23982005_BL6
  0
BLOCK_RECORD
  5
250
100
AcDbSymbolTableRecord
100
AcDbBlockTableRecord
  2
X23524005_BL7
  0
BLOCK_RECORD
  5
251
100
AcDbSymbolTableRecord
100
AcDbBlockTableRecord
  2
X23590000_BL8
  0
BLOCK_RECORD
  5
252
100
AcDbSymbolTableRecord
100
AcDbBlockTableRecord
  2
X00539000_BL9
  0
BLOCK_RECORD
  5
253
100
AcDbSymbolTableRecord
100
AcDbBlockTableRecord
  2
X23988000_BL10
  0
BLOCK_RECORD
  5
254
100
AcDbSymbolTableRecord
100
AcDbBlockTableRecord
  2
X00200000_BL11
  0
BLOCK_RECORD
  5
255
100
AcDbSymbolTableRecord
100
AcDbBlockTableRecord
  2
X02304000_GEN_BL12
  0
BLOCK_RECORD
  5
256
100
AcDbSymbolTableRecord
100
AcDbBlockTableRecord
  2
X00200000_BL13
  0
BLOCK_RECORD
  5
257
100
AcDbSymbolTableRecord
100
AcDbBlockTableRecord
  2
X00200000_BL14
  0
BLOCK_RECORD
  5
258
100
AcDbSymbolTableRecord
100
AcDbBlockTableRecord
  2
X00308000_BL15
  0
BLOCK_RECORD
  5
259
100
AcDbSymbolTableRecord
100
AcDbBlockTableRecord
  2
X02304010_BL16
  0
BLOCK_RECORD
  5
25A
100
AcDbSymbolTableRecord
100
AcDbBlockTableRecord
  2
X00200000_BL17
  0
BLOCK_RECORD
  5
25B
100
AcDbSymbolTableRecord
100
AcDbBlockTableRecord
  2
X00200000_BL18
  0
ENDTAB
  0
TABLE
  2
DIMSTYLE
  5
A
100
AcDbSymbolTable
 70
1
100
AcDbDimStyleTable
 71
0
  0
DIMSTYLE
105
25C
100
AcDbSymbolTableRecord
100
AcDbDimStyleTableRecord
  2
STANDARD
 70
0
  3

  4

 40
1.0
 41
3.5
 42
0.0
 43
0.38
 44
1.0
 45
0.0
 46
0.0
 47
0.001
 48
0.001
140
2.5
141
0.09
142
0.0
143
25.4
144
1.0
145
0.0
146
1.0
147
0.625
 71
1.0
 72
0.0
 73
0
 74
0
 75
0
 76
0
 77
1
 78
8
170
0
171
2
172
0
173
0
174
0
175
0
176
0
177
0
178
5
270
2
271
3
272
3
273
2
274
2
275
0
280
0
281
0
282
0
283
1
284
8
285
0
286
0
287
3
288
0
340
11
278
46
341
22A
342
22A
343
22A
344
22A
  0
DIMSTYLE
105
25D
100
AcDbSymbolTableRecord
100
AcDbDimStyleTableRecord
  2
DIMSTYLE_1
 70
0
  3

  4

 40
1.0
 41
3.5
 42
0.0
 43
0.38
 44
1.0
 45
0.0
 46
0.0
 47
0.5
 48
0.5
140
4.0
141
0.09
142
0.0
143
25.4
144
1.0
145
0.0
146
1.0
147
0.625
 71
0.0
 72
0.0
 73
0
 74
0
 75
0
 76
0
 77
1
 78
8
170
0
171
2
172
0
173
0
174
0
175
0
176
0
177
0
178
5
270
2
271
2
272
2
273
2
274
2
275
0
280
0
281
0
282
0
283
1
284
8
285
0
286
0
287
3
288
0
340
226
278
46
341
22A
342
22A
343
22A
344
22A
  0
DIMSTYLE
105
25E
100
AcDbSymbolTableRecord
100
AcDbDimStyleTableRecord
  2
DIMSTYLE_2
 70
0
  3

  4

 40
1.0
 41
3.5
 42
0.0
 43
0.38
 44
1.0
 45
0.0
 46
0.0
 47
0.2
 48
0.2
140
4.0
141
0.09
142
0.0
143
25.4
144
1.0
145
0.0
146
1.0
147
1.0
 71
0.0
 72
0.0
 73
0
 74
0
 75
0
 76
0
 77
1
 78
8
170
0
171
2
172
0
173
0
174
0
175
0
176
0
177
0
178
5
270
2
271
3
272
3
273
2
274
2
275
0
280
0
281
0
282
0
283
1
284
8
285
0
286
0
287
3
288
0
340
226
278
46
341
22A
342
22A
343
22A
344
22A
  0
DIMSTYLE
105
25F
100
AcDbSymbolTableRecord
100
AcDbDimStyleTableRecord
  2
DIMSTYLE_3
 70
0
  3

  4

 40
1.0
 41
3.5
 42
0.0
 43
0.38
 44
1.0
 45
0.0
 46
0.0
 47
0.1
 48
0.1
140
4.0
141
0.09
142
0.0
143
25.4
144
1.0
145
0.0
146
1.0
147
1.0
 71
0.0
 72
0.0
 73
0
 74
0
 75
0
 76
0
 77
1
 78
8
170
0
171
2
172
0
173
0
174
0
175
0
176
0
177
0
178
5
270
2
271
3
272
3
273
2
274
2
275
0
280
0
281
0
282
0
283
1
284
8
285
0
286
0
287
3
288
0
340
226
278
46
341
22A
342
22A
343
22A
344
22A
  0
DIMSTYLE
105
260
100
AcDbSymbolTableRecord
100
AcDbDimStyleTableRecord
  2
DIMSTYLE_4
 70
0
  3

  4

 40
1.0
 41
3.5
 42
0.0
 43
0.38
 44
1.0
 45
0.0
 46
0.0
 47
0.3
 48
0.3
140
4.0
141
0.09
142
0.0
143
25.4
144
1.0
145
0.0
146
1.0
147
1.0
 71
0.0
 72
0.0
 73
0
 74
0
 75
0
 76
0
 77
1
 78
8
170
0
171
2
172
0
173
0
174
0
175
0
176
0
177
0
178
5
270
2
271
3
272
3
273
2
274
2
275
0
280
0
281
0
282
0
283
1
284
8
285
0
286
0
287
3
288
0
340
226
278
46
341
22A
342
22A
343
22A
344
22A
  0
DIMSTYLE
105
261
100
AcDbSymbolTableRecord
100
AcDbDimStyleTableRecord
  2
DIMSTYLE_5
 70
0
  3

  4

 40
1.0
 41
3.5
 42
0.0
 43
0.38
 44
1.0
 45
0.0
 46
0.0
 47
0.3
 48
0.3
140
4.0
141
0.09
142
0.0
143
25.4
144
1.0
145
0.0
146
1.0
147
1.0
 71
0.0
 72
0.0
 73
0
 74
0
 75
0
 76
0
 77
1
 78
8
170
0
171
2
172
0
173
0
174
0
175
0
176
0
177
0
178
5
270
2
271
0
272
0
273
2
274
2
275
0
280
0
281
0
282
0
283
1
284
8
285
0
286
0
287
3
288
0
340
226
278
46
341
22A
342
22A
343
22A
344
22A
  0
DIMSTYLE
105
262
100
AcDbSymbolTableRecord
100
AcDbDimStyleTableRecord
  2
DIMSTYLE_6
 70
0
  3

  4

 40
1.0
 41
3.5
 42
0.0
 43
0.38
 44
1.0
 45
0.0
 46
0.0
 47
0.5
 48
0.5
140
4.0
141
0.09
142
0.0
143
25.4
144
1.0
145
0.0
146
1.0
147
1.0
 71
0.0
 72
0.0
 73
0
 74
0
 75
0
 76
0
 77
1
 78
8
170
0
171
2
172
0
173
0
174
0
175
0
176
0
177
0
178
5
270
2
271
0
272
0
273
2
274
2
275
0
280
0
281
0
282
0
283
1
284
8
285
0
286
0
287
3
288
0
340
226
278
46
341
22A
342
22A
343
22A
344
22A
  0
DIMSTYLE
105
263
100
AcDbSymbolTableRecord
100
AcDbDimStyleTableRecord
  2
DIMSTYLE_7
 70
0
  3

  4

 40
1.0
 41
3.5
 42
0.0
 43
0.38
 44
1.0
 45
0.0
 46
0.0
 47
0.2
 48
0.2
140
4.0
141
0.09
142
0.0
143
25.4
144
1.0
145
0.0
146
1.0
147
1.0
 71
0.0
 72
0.0
 73
0
 74
0
 75
0
 76
0
 77
1
 78
8
170
0
171
2
172
0
173
0
174
0
175
0
176
0
177
0
178
5
270
2
271
0
272
0
273
2
274
2
275
0
280
0
281
0
282
0
283
1
284
8
285
0
286
0
287
3
288
0
340
226
278
46
341
22A
342
22A
343
22A
344
22A
  0
DIMSTYLE
105
264
100
AcDbSymbolTableRecord
100
AcDbDimStyleTableRecord
  2
DIMSTYLE_8
 70
0
  3

  4

 40
1.0
 41
3.5
 42
0.0
 43
0.38
 44
1.0
 45
0.0
 46
0.0
 47
0.5
 48
0.5
140
4.0
141
0.09
142
0.0
143
25.4
144
1.0
145
0.0
146
1.0
147
1.0
 71
0.0
 72
0.0
 73
0
 74
0
 75
0
 76
0
 77
1
 78
8
170
0
171
2
172
0
173
0
174
0
175
0
176
0
177
0
178
5
270
2
271
3
272
3
273
2
274
2
275
0
280
0
281
0
282
0
283
1
284
8
285
0
286
0
287
3
288
0
340
226
278
46
341
22A
342
22A
343
22A
344
22A
  0
DIMSTYLE
105
265
100
AcDbSymbolTableRecord
100
AcDbDimStyleTableRecord
  2
DIMSTYLE_9
 70
0
  3

  4

 40
1.0
 41
3.5
 42
0.0
 43
0.38
 44
1.0
 45
0.0
 46
0.0
 47
0.1
 48
0.1
140
4.0
141
0.09
142
0.0
143
25.4
144
1.0
145
0.0
146
1.0
147
1.0
 71
0.0
 72
0.0
 73
0
 74
0
 75
0
 76
0
 77
1
 78
8
170
0
171
2
172
0
173
0
174
0
175
0
176
0
177
0
178
5
270
2
271
0
272
0
273
2
274
2
275
0
280
0
281
0
282
0
283
1
284
8
285
0
286
0
287
3
288
0
340
226
278
46
341
22A
342
22A
343
22A
344
22A
  0
ENDTAB
  0
ENDSEC
  0
SECTION
  2
BLOCKS
  0
BLOCK
  5
20
100
AcDbEntity
  8
0
100
AcDbBlockBegin
  2
*Model_Space
 70
0
 10
0.0
 20
0.0
 30
0.0
  3
*Model_Space
  1

  0
ENDBLK
  5
21
100
AcDbEntity
  8
0
100
AcDbBlockEnd
  0
BLOCK
  5
1C
100
AcDbEntity
  8
0
100
AcDbBlockBegin
  2
*Paper_Space
 70
0
 10
0.0
 20
0.0
 30
0.0
  3
*Paper_Space
  1

  0
ENDBLK
  5
1D
100
AcDbEntity
  8
0
100
AcDbBlockEnd
  0
BLOCK
  5
266
100
AcDbEntity
  8
GU_BKS_BL0
100
AcDbBlockBegin
  2
GU_BKS_BL0
 70
64
 10
35.2519626576
 20
16.716496874
  3
GU_BKS_BL0
  1

  0
LINE
  5
267
100
AcDbEntity
  8
GU_BKS_BL0
100
AcDbLine
 62
2
  6
CONTINUOUS
 10
41.3300478587
 20
12.5799277126
 11
39.8888614661
 21
15.0761357678
  0
LINE
  5
268
100
AcDbEntity
  8
GU_BKS_BL0
100
AcDbLine
 62
2
  6
CONTINUOUS
 10
40.7336501053
 20
16.0699189231
 11
42.7485974701
 21
12.5799277126
  0
LINE
  5
269
100
AcDbEntity
  8
GU_BKS_BL0
100
AcDbLine
 62
2
  6
CONTINUOUS
 10
31.6337966842
 20
11.935935789
 11
29.6683670955
 21
16.6809025579
  0
LINE
  5
26A
100
AcDbEntity
  8
GU_BKS_BL0
100
AcDbLine
 62
2
  6
CONTINUOUS
 10
32.8978474701
 20
18.3356777126
 11
32.8978474701
 21
12.5799277126
  0
LINE
  5
26B
100
AcDbEntity
  8
GU_BKS_BL0
100
AcDbLine
 62
2
  6
CONTINUOUS
 10
34.0580974701
 20
17.2891777126
 11
34.0580974701
 21
16.0151777126
  0
LINE
  5
26C
100
AcDbEntity
  8
GU_BKS_BL0
100
AcDbLine
 62
2
  6
CONTINUOUS
 10
34.0580974701
 20
15.0141777126
 11
34.0580974701
 21
13.6491777126
  0
LINE
  5
26D
100
AcDbEntity
  8
GU_BKS_BL0
100
AcDbLine
 62
2
  6
CONTINUOUS
 10
38.0165974701
 20
12.5799277126
 11
38.0165974701
 21
18.3356777126
  0
LINE
  5
26E
100
AcDbEntity
  8
GU_BKS_BL0
100
AcDbLine
 62
2
  6
CONTINUOUS
 10
39.2450974701
 20
18.3356777126
 11
39.2450974701
 21
16.0655668252
  0
LINE
  5
26F
100
AcDbEntity
  8
GU_BKS_BL0
100
AcDbLine
 62
2
  6
CONTINUOUS
 10
39.2450974701
 20
14.3089277129
 11
39.2450974701
 21
12.5799277126
  0
LINE
  5
270
100
AcDbEntity
  8
GU_BKS_BL0
100
AcDbLine
 62
2
  6
CONTINUOUS
 10
41.5626167011
 20
32.2963160354
 11
41.5626167011
 21
28.9298400419
  0
LINE
  5
271
100
AcDbEntity
  8
GU_BKS_BL0
100
AcDbLine
 62
2
  6
CONTINUOUS
 10
41.5626167011
 20
27.1400679947
 11
41.5626167011
 21
26.6713181729
  0
LINE
  5
272
100
AcDbEntity
  8
GU_BKS_BL0
100
AcDbLine
 62
2
  6
CONTINUOUS
 10
43.1269571586
 20
16.6976777126
 11
43.1269571586
 21
16.3791777126
  0
LINE
  5
273
100
AcDbEntity
  8
GU_BKS_BL0
100
AcDbLine
 62
2
  6
CONTINUOUS
 10
43.77852495
 20
26.6713181729
 11
43.77852495
 21
32.2963160354
  0
LINE
  5
274
100
AcDbEntity
  8
GU_BKS_BL0
100
AcDbLine
 62
2
  6
CONTINUOUS
 10
45.6876151336
 20
32.2963160354
 11
45.6876151336
 21
26.6713181729
  0
LINE
  5
275
100
AcDbEntity
  8
GU_BKS_BL0
100
AcDbLine
 62
2
  6
CONTINUOUS
 10
47.1393474701
 20
14.1951777126
 11
47.1393474701
 21
14.5136777126
  0
LINE
  5
276
100
AcDbEntity
  8
GU_BKS_BL0
100
AcDbLine
 62
2
  6
CONTINUOUS
 10
47.9035233825
 20
26.6713181729
 11
47.9035233825
 21
32.2963160354
  0
LINE
  5
277
100
AcDbEntity
  8
GU_BKS_BL0
100
AcDbLine
 62
2
  6
CONTINUOUS
 10
47.1986678814
 20
11.3741777126
 11
32.4745270589
 21
11.3741777126
  0
LINE
  5
278
100
AcDbEntity
  8
GU_BKS_BL0
100
AcDbLine
 62
2
  6
CONTINUOUS
 10
42.7485974701
 20
12.5799277126
 11
41.3300478587
 21
12.5799277126
  0
LINE
  5
279
100
AcDbEntity
  8
GU_BKS_BL0
100
AcDbLine
 62
2
  6
CONTINUOUS
 10
39.2450974701
 20
12.5799277126
 11
38.0165974701
 21
12.5799277126
  0
LINE
  5
27A
100
AcDbEntity
  8
GU_BKS_BL0
100
AcDbLine
 62
2
  6
CONTINUOUS
 10
32.8978474701
 20
12.5799277126
 11
35.4458474701
 21
12.5799277126
  0
LINE
  5
27B
100
AcDbEntity
  8
GU_BKS_BL0
100
AcDbLine
 62
2
  6
CONTINUOUS
 10
34.0580974701
 20
13.6491777126
 11
35.2410974701
 21
13.6491777126
  0
LINE
  5
27C
100
AcDbEntity
  8
GU_BKS_BL0
100
AcDbLine
 62
2
  6
CONTINUOUS
 10
34.0580974701
 20
15.0141777126
 11
35.2410974701
 21
15.0141777124
  0
LINE
  5
27D
100
AcDbEntity
  8
GU_BKS_BL0
100
AcDbLine
 62
2
  6
CONTINUOUS
 10
34.0580974701
 20
16.0151777126
 11
35.2410974701
 21
16.0151777126
  0
LINE
  5
27E
100
AcDbEntity
  8
GU_BKS_BL0
100
AcDbLine
 62
2
  6
CONTINUOUS
 10
34.0580974701
 20
17.2891777126
 11
35.2410974701
 21
17.2891777126
  0
LINE
  5
27F
100
AcDbEntity
  8
GU_BKS_BL0
100
AcDbLine
 62
2
  6
CONTINUOUS
 10
35.4162724701
 20
18.3356777126
 11
32.8978474701
 21
18.3356777126
  0
LINE
  5
280
100
AcDbEntity
  8
GU_BKS_BL0
100
AcDbLine
 62
2
  6
CONTINUOUS
 10
38.0165974701
 20
18.3356777126
 11
39.2450974701
 21
18.3356777126
  0
LINE
  5
281
100
AcDbEntity
  8
GU_BKS_BL0
100
AcDbLine
 62
2
  6
CONTINUOUS
 10
41.1499466787
 20
18.3356777126
 11
42.6348474701
 21
18.3356777126
  0
LINE
  5
282
100
AcDbEntity
  8
GU_BKS_BL0
100
AcDbLine
 62
2
  6
CONTINUOUS
 10
35.3410281563
 20
27.1400679947
 11
37.3572876089
 21
27.1400679947
  0
LINE
  5
283
100
AcDbEntity
  8
GU_BKS_BL0
100
AcDbLine
 62
2
  6
CONTINUOUS
 10
40.063809379
 20
27.1400679947
 11
41.5626167011
 21
27.1400679947
  0
LINE
  5
284
100
AcDbEntity
  8
GU_BKS_BL0
100
AcDbLine
 62
2
  6
CONTINUOUS
 10
41.5626167011
 20
28.9298400419
 11
40.063809379
 21
28.9298400419
  0
LINE
  5
285
100
AcDbEntity
  8
GU_BKS_BL0
100
AcDbLine
 62
2
  6
CONTINUOUS
 10
39.6659215055
 20
28.9298400419
 11
35.3410281563
 21
28.9298400419
  0
LINE
  5
286
100
AcDbEntity
  8
GU_BKS_BL0
100
AcDbLine
 62
2
  6
CONTINUOUS
 10
47.9035233825
 20
32.2963160354
 11
45.6876151336
 21
32.2963160354
  0
LINE
  5
287
100
AcDbEntity
  8
GU_BKS_BL0
100
AcDbLine
 62
2
  6
CONTINUOUS
 10
43.77852495
 20
32.2963160354
 11
41.5626167011
 21
32.2963160354
  0
LINE
  5
288
100
AcDbEntity
  8
GU_BKS_BL0
100
AcDbLine
 62
2
  6
CONTINUOUS
 10
50.0048278448
 20
16.6809025581
 11
48.0393982561
 21
11.935935789
  0
LINE
  5
289
100
AcDbEntity
  8
GU_BKS_BL0
100
AcDbLine
 62
2
  6
CONTINUOUS
 10
39.2450974701
 20
16.0655668252
 11
41.1499466787
 21
18.3356777126
  0
LINE
  5
28A
100
AcDbEntity
  8
GU_BKS_BL0
100
AcDbLine
 62
2
  6
CONTINUOUS
 10
39.8888614661
 20
15.0761357678
 11
39.2450974701
 21
14.3089277129
  0
LINE
  5
28B
100
AcDbEntity
  8
GU_BKS_BL0
100
AcDbLine
 62
2
  6
CONTINUOUS
 10
40.7336501053
 20
16.0699189231
 11
42.6348474701
 21
18.3356777126
  0
LINE
  5
28C
100
AcDbEntity
  8
GU_BKS_BL0
100
AcDbLine
 62
2
  6
CONTINUOUS
 10
46.2272764721
 20
16.8775591203
 11
47.0322838267
 21
17.6825664749
  0
LINE
  5
28D
100
AcDbEntity
  8
GU_BKS_BL0
100
AcDbLine
 62
2
  6
CONTINUOUS
 10
43.6429393352
 20
14.1323551908
 11
42.8434701327
 21
13.3328859886
  0
LINE
  5
28E
100
AcDbEntity
  8
GU_BKS_BL0
100
AcDbLine
 62
2
  6
CONTINUOUS
 10
37.1215846749
 20
29.352496534
 11
38.9030804649
 21
30.6707340739
  0
ARC
  5
28F
100
AcDbEntity
  8
GU_BKS_BL0
100
AcDbCircle
 62
2
  6
CONTINUOUS
 10
49.2238388542
 20
43.0479871438
 40
27.3
100
AcDbArc
 50
260.6058710662
 51
262.9334764059
  0
ARC
  5
290
100
AcDbEntity
  8
GU_BKS_BL0
100
AcDbCircle
 62
2
  6
CONTINUOUS
 10
39.8365974704
 20
1.1366777126
 40
19.3375
100
AcDbArc
 50
59.5907609466
 51
120.4092390534
  0
ARC
  5
291
100
AcDbEntity
  8
GU_BKS_BL0
100
AcDbCircle
 62
2
  6
CONTINUOUS
 10
35.3410281563
 20
28.0349540183
 40
4.8068163552
100
AcDbArc
 50
349.2706340045
 51
10.7293659955
  0
ARC
  5
292
100
AcDbEntity
  8
GU_BKS_BL0
100
AcDbCircle
 62
2
  6
CONTINUOUS
 10
45.6541972771
 20
19.4211508848
 40
4.55
100
AcDbArc
 50
247.2438347843
 51
266.8254700933
  0
ARC
  5
293
100
AcDbEntity
  8
GU_BKS_BL0
100
AcDbCircle
 62
2
  6
CONTINUOUS
 10
35.2558009159
 20
28.0349540183
 40
4.49999829
100
AcDbArc
 50
35.8545159817
 51
11.4705154501
  0
ARC
  5
294
100
AcDbEntity
  8
GU_BKS_BL0
100
AcDbCircle
 62
2
  6
CONTINUOUS
 10
44.7330700418
 20
26.6713181729
 40
3.1704533407
100
AcDbArc
 50
180.0
 51
360.0
  0
ARC
  5
295
100
AcDbEntity
  8
GU_BKS_BL0
100
AcDbCircle
 62
2
  6
CONTINUOUS
 10
45.0707241318
 20
15.4691777124
 40
2.9575
100
AcDbArc
 50
48.451846615
 51
100.9424988997
  0
ARC
  5
296
100
AcDbEntity
  8
GU_BKS_BL0
100
AcDbCircle
 62
2
  6
CONTINUOUS
 10
44.8887241318
 20
15.4691777124
 40
2.9575
100
AcDbArc
 50
226.2472071
 51
301.9527464003
  0
ARC
  5
297
100
AcDbEntity
  8
GU_BKS_BL0
100
AcDbCircle
 62
2
  6
CONTINUOUS
 10
35.2558009159
 20
28.0349540183
 40
2.2840900411
100
AcDbArc
 50
35.2282226131
 51
336.934010569
  0
ARC
  5
298
100
AcDbEntity
  8
GU_BKS_BL0
100
AcDbCircle
 62
2
  6
CONTINUOUS
 10
44.9780974701
 20
15.6966777126
 40
2.0566361364
100
AcDbArc
 50
229.5190554785
 51
285.5050441823
  0
ARC
  5
299
100
AcDbEntity
  8
GU_BKS_BL0
100
AcDbCircle
 62
2
  6
CONTINUOUS
 10
44.8332071586
 20
16.6976777124
 40
1.70625
100
AcDbArc
 50
100.9424988902
 51
179.9999999968
  0
ARC
  5
29A
100
AcDbEntity
  8
GU_BKS_BL0
100
AcDbCircle
 62
2
  6
CONTINUOUS
 10
35.4458474701
 20
14.2179277126
 40
1.638
100
AcDbArc
 50
270.0
 51
52.7307871646
  0
ARC
  5
29B
100
AcDbEntity
  8
GU_BKS_BL0
100
AcDbCircle
 62
2
  6
CONTINUOUS
 10
35.4162724701
 20
16.7431777126
 40
1.5925
100
AcDbArc
 50
309.898835778
 51
90.0
  0
ARC
  5
29C
100
AcDbEntity
  8
GU_BKS_BL0
100
AcDbCircle
 62
2
  6
CONTINUOUS
 10
45.1484948791
 20
15.8331777124
 40
1.5015
100
AcDbArc
 50
44.071756165
 51
108.1948723417
  0
ARC
  5
29D
100
AcDbEntity
  8
GU_BKS_BL0
100
AcDbCircle
 62
2
  6
CONTINUOUS
 10
45.6833474701
 20
14.1951777121
 40
1.456
100
AcDbArc
 50
301.9527464052
 51
360.0
  0
ARC
  5
29E
100
AcDbEntity
  8
GU_BKS_BL0
100
AcDbCircle
 62
2
  6
CONTINUOUS
 10
45.6866319974
 20
14.5136777126
 40
1.4527154728
100
AcDbArc
 50
0.0
 51
82.9334763962
  0
ARC
  5
29F
100
AcDbEntity
  8
GU_BKS_BL0
100
AcDbCircle
 62
2
  6
CONTINUOUS
 10
44.3782071586
 20
16.3791777126
 40
1.25125
100
AcDbArc
 50
180.0
 51
247.243834782
  0
ARC
  5
2A0
100
AcDbEntity
  8
GU_BKS_BL0
100
AcDbCircle
 62
2
  6
CONTINUOUS
 10
44.7330700418
 20
26.6713181729
 40
0.9545450918
100
AcDbArc
 50
180.0
 51
360.0
  0
ARC
  5
2A1
100
AcDbEntity
  8
GU_BKS_BL0
100
AcDbCircle
 62
2
  6
CONTINUOUS
 10
32.4745270589
 20
12.2841777126
 40
0.91
100
AcDbArc
 50
202.5
 51
270.0
  0
ARC
  5
2A2
100
AcDbEntity
  8
GU_BKS_BL0
100
AcDbCircle
 62
2
  6
CONTINUOUS
 10
47.1986678814
 20
12.2841777126
 40
0.91
100
AcDbArc
 50
270.0
 51
337.5
  0
ARC
  5
2A3
100
AcDbEntity
  8
GU_BKS_BL0
100
AcDbCircle
 62
2
  6
CONTINUOUS
 10
49.1640974701
 20
17.0291444815
 40
0.91
100
AcDbArc
 50
337.500000009
 51
59.5907609348
  0
ARC
  5
2A4
100
AcDbEntity
  8
GU_BKS_BL0
100
AcDbCircle
 62
2
  6
CONTINUOUS
 10
30.5090974701
 20
17.0291444815
 40
0.91
100
AcDbArc
 50
120.4092390532
 51
202.5
  0
ARC
  5
2A5
100
AcDbEntity
  8
GU_BKS_BL0
100
AcDbCircle
 62
2
  6
CONTINUOUS
 10
35.3410281563
 20
28.0349540183
 40
0.8948860236
100
AcDbArc
 50
90.0
 51
270.0
  0
ARC
  5
2A6
100
AcDbEntity
  8
GU_BKS_BL0
100
AcDbCircle
 62
2
  6
CONTINUOUS
 10
35.2638474701
 20
14.3316777126
 40
0.6828790613
100
AcDbArc
 50
268.090847567
 51
91.909152433
  0
ARC
  5
2A7
100
AcDbEntity
  8
GU_BKS_BL0
100
AcDbCircle
 62
2
  6
CONTINUOUS
 10
35.2410974701
 20
16.6521777126
 40
0.637
100
AcDbArc
 50
270.0000000001
 51
89.9999999999
  0
ARC
  5
2A8
100
AcDbEntity
  8
GU_BKS_BL0
100
AcDbCircle
 62
2
  6
CONTINUOUS
 10
45.3693974701
 20
14.2861777126
 40
0.592865
100
AcDbArc
 50
285.5050441988
 51
86.8254700827
  0
ARC
  5
2A9
100
AcDbEntity
  8
GU_BKS_BL0
100
AcDbCircle
 62
2
  6
CONTINUOUS
 10
44.8643474701
 20
16.6976777124
 40
0.5915
100
AcDbArc
 50
108.1948723388
 51
260.6058710483
  0
ENDBLK
  5
2AA
100
AcDbEntity
  8
0
  6
BYBLOCK
 62
0
100
AcDbBlockEnd
  0
BLOCK
  5
2AB
100
AcDbEntity
  8
X23015008_BL1
100
AcDbBlockBegin
  2
X23015008_BL1
 70
64
 10
297.5716390579
 20
199.9490611388
  3
X23015008_BL1
  1

  0
LINE
  5
2AC
100
AcDbEntity
  8
X23015008_BL1
100
AcDbLine
 62
7
  6
CONTINUOUS
 10
175.6319525935
 20
123.4066538534
 11
178.6319525935
 21
123.4066538534
  0
LINE
  5
2AD
100
AcDbEntity
  8
X23015008_BL1
100
AcDbLine
 62
7
  6
CONTINUOUS
 10
175.6319525935
 20
123.4066538534
 11
175.6319525935
 21
358.4066538534
  0
LINE
  5
2AE
100
AcDbEntity
  8
X23015008_BL1
100
AcDbLine
 62
7
  6
CONTINUOUS
 10
178.6319525935
 20
123.4066538534
 11
178.6319525935
 21
123.4567794823
  0
LINE
  5
2AF
100
AcDbEntity
  8
X23015008_BL1
100
AcDbLine
 62
7
  6
CONTINUOUS
 10
178.6319525935
 20
358.3565282245
 11
178.6319525935
 21
358.4066538534
  0
LINE
  5
2B0
100
AcDbEntity
  8
X23015008_BL1
100
AcDbLine
 62
7
  6
CONTINUOUS
 10
187.6319525935
 20
133.4066538534
 11
187.6319525935
 21
348.4066538534
  0
LINE
  5
2B1
100
AcDbEntity
  8
X23015008_BL1
100
AcDbLine
 62
7
  6
CONTINUOUS
 10
175.6319525935
 20
358.4066538534
 11
178.6319525935
 21
358.4066538534
  0
LINE
  5
2B2
100
AcDbEntity
  8
X23015008_BL1
100
AcDbLine
 62
7
  6
CONTINUOUS
 10
417.5113255222
 20
123.4066538534
 11
427.5113255222
 21
123.4066538534
  0
LINE
  5
2B3
100
AcDbEntity
  8
X23015008_BL1
100
AcDbLine
 62
7
  6
CENTER
 10
415.0113255222
 20
136.4066538534
 11
404.7113255222
 21
136.4066538534
  0
LINE
  5
2B4
100
AcDbEntity
  8
X23015008_BL1
100
AcDbLine
 62
7
  6
CENTER
 10
415.0113255222
 20
136.4066538534
 11
425.3113255222
 21
136.4066538534
  0
LINE
  5
2B5
100
AcDbEntity
  8
X23015008_BL1
100
AcDbLine
 62
7
  6
CONTINUOUS
 10
407.5113255222
 20
133.4066538534
 11
407.5113255222
 21
348.4066538534
  0
LINE
  5
2B6
100
AcDbEntity
  8
X23015008_BL1
100
AcDbLine
 62
7
  6
CONTINUOUS
 10
410.5113255222
 20
308.9066538534
 11
410.5113255222
 21
262.9066538534
  0
LINE
  5
2B7
100
AcDbEntity
  8
X23015008_BL1
100
AcDbLine
 62
7
  6
CENTER
 10
415.0113255222
 20
345.4066538534
 11
415.0113255222
 21
335.1066538534
  0
LINE
  5
2B8
100
AcDbEntity
  8
X23015008_BL1
100
AcDbLine
 62
7
  6
CENTER
 10
415.0113255222
 20
136.4066538534
 11
415.0113255222
 21
126.1066538534
  0
LINE
  5
2B9
100
AcDbEntity
  8
X23015008_BL1
100
AcDbLine
 62
7
  6
CENTER
 10
415.0113255222
 20
136.4066538534
 11
415.0113255222
 21
146.7066538534
  0
LINE
  5
2BA
100
AcDbEntity
  8
X23015008_BL1
100
AcDbLine
 62
7
  6
CENTER
 10
415.0113255222
 20
345.4066538534
 11
415.0113255222
 21
355.7066538534
  0
LINE
  5
2BB
100
AcDbEntity
  8
X23015008_BL1
100
AcDbLine
 62
7
  6
CONTINUOUS
 10
424.5113255222
 20
262.9066538534
 11
424.5113255222
 21
272.5743622274
  0
LINE
  5
2BC
100
AcDbEntity
  8
X23015008_BL1
100
AcDbLine
 62
7
  6
CONTINUOUS
 10
424.5113255222
 20
299.2389454794
 11
424.5113255222
 21
308.9066538534
  0
LINE
  5
2BD
100
AcDbEntity
  8
X23015008_BL1
100
AcDbLine
 62
7
  6
CONTINUOUS
 10
427.5113255222
 20
123.4066538534
 11
427.5113255222
 21
358.4066538534
  0
LINE
  5
2BE
100
AcDbEntity
  8
X23015008_BL1
100
AcDbLine
 62
7
  6
CONTINUOUS
 10
412.0113255222
 20
261.4066538534
 11
423.0113255222
 21
261.4066538534
  0
LINE
  5
2BF
100
AcDbEntity
  8
X23015008_BL1
100
AcDbLine
 62
7
  6
CONTINUOUS
 10
423.0113255222
 20
310.4066538534
 11
412.0113255222
 21
310.4066538534
  0
LINE
  5
2C0
100
AcDbEntity
  8
X23015008_BL1
100
AcDbLine
 62
7
  6
CENTER
 10
415.0113255222
 20
345.4066538534
 11
404.7113255222
 21
345.4066538534
  0
LINE
  5
2C1
100
AcDbEntity
  8
X23015008_BL1
100
AcDbLine
 62
7
  6
CENTER
 10
415.0113255222
 20
345.4066538534
 11
425.3113255222
 21
345.4066538534
  0
LINE
  5
2C2
100
AcDbEntity
  8
X23015008_BL1
100
AcDbLine
 62
7
  6
CONTINUOUS
 10
417.5113255222
 20
358.4066538534
 11
427.5113255222
 21
358.4066538534
  0
LINE
  5
2C3
100
AcDbEntity
  8
X23015008_BL1
100
AcDbLine
 62
7
  6
CONTINUOUS
 10
175.6319525935
 20
41.4914684242
 11
175.6319525935
 21
61.4914684242
  0
LINE
  5
2C4
100
AcDbEntity
  8
X23015008_BL1
100
AcDbLine
 62
9
  6
CONTINUOUS
 10
177.6319525935
 20
41.4914684242
 11
177.6319525935
 21
44.4914684242
  0
LINE
  5
2C5
100
AcDbEntity
  8
X23015008_BL1
100
AcDbLine
 62
7
  6
CONTINUOUS
 10
178.6319525935
 20
44.4914684242
 11
178.6319525935
 21
61.4914684242
  0
LINE
  5
2C6
100
AcDbEntity
  8
X23015008_BL1
100
AcDbLine
 62
7
  6
CONTINUOUS
 10
187.6319525935
 20
41.4914684242
 11
187.6319525935
 21
44.4914684242
  0
LINE
  5
2C7
100
AcDbEntity
  8
X23015008_BL1
100
AcDbLine
 62
7
  6
CONTINUOUS
 10
175.6319525935
 20
41.4914684242
 11
187.6319525935
 21
41.4914684242
  0
LINE
  5
2C8
100
AcDbEntity
  8
X23015008_BL1
100
AcDbLine
 62
7
  6
CONTINUOUS
 10
177.6319525935
 20
44.4914684242
 11
187.6319525935
 21
44.4914684242
  0
LINE
  5
2C9
100
AcDbEntity
  8
X23015008_BL1
100
AcDbLine
 62
9
  6
CONTINUOUS
 10
178.6319525935
 20
51.4914684242
 11
175.6319525935
 21
51.4914684242
  0
LINE
  5
2CA
100
AcDbEntity
  8
X23015008_BL1
100
AcDbLine
 62
7
  6
CONTINUOUS
 10
178.6319525935
 20
61.4914684242
 11
175.6319525935
 21
61.4914684242
  0
ARC
  5
2CB
100
AcDbEntity
  8
X23015008_BL1
100
AcDbCircle
 62
7
  6
CONTINUOUS
 10
177.6319525935
 20
133.4066538534
 40
10.0
100
AcDbArc
 50
270.0
 51
360.0
  0
ARC
  5
2CC
100
AcDbEntity
  8
X23015008_BL1
100
AcDbCircle
 62
7
  6
CONTINUOUS
 10
177.6319525935
 20
348.4066538534
 40
10.0
100
AcDbArc
 50
0.0
 51
90.0
  0
ARC
  5
2CD
100
AcDbEntity
  8
X23015008_BL1
100
AcDbCircle
 62
7
  6
CONTINUOUS
 10
483.0113255222
 20
285.9066538534
 40
60.0
100
AcDbArc
 50
167.161431859
 51
192.838568141
  0
ARC
  5
2CE
100
AcDbEntity
  8
X23015008_BL1
100
AcDbCircle
 62
7
  6
CONTINUOUS
 10
417.5113255222
 20
133.4066538534
 40
10.0
100
AcDbArc
 50
180.0
 51
270.0
  0
ARC
  5
2CF
100
AcDbEntity
  8
X23015008_BL1
100
AcDbCircle
 62
7
  6
CONTINUOUS
 10
417.5113255222
 20
348.4066538534
 40
10.0
100
AcDbArc
 50
90.0
 51
180.0
  0
CIRCLE
  5
2D0
100
AcDbEntity
  8
X23015008_BL1
100
AcDbCircle
 62
7
  6
CONTINUOUS
 10
415.0113255222
 20
136.4066538534
 40
5.3
  0
CIRCLE
  5
2D1
100
AcDbEntity
  8
X23015008_BL1
100
AcDbCircle
 62
7
  6
CONTINUOUS
 10
415.0113255222
 20
345.4066538534
 40
5.3
  0
CIRCLE
  5
2D2
100
AcDbEntity
  8
X23015008_BL1
100
AcDbCircle
 62
7
  6
CONTINUOUS
 10
415.0113255222
 20
345.4066538534
 40
3.0
  0
CIRCLE
  5
2D3
100
AcDbEntity
  8
X23015008_BL1
100
AcDbCircle
 62
7
  6
CONTINUOUS
 10
415.0113255222
 20
136.4066538534
 40
3.0
  0
ARC
  5
2D4
100
AcDbEntity
  8
X23015008_BL1
100
AcDbCircle
 62
7
  6
CONTINUOUS
 10
412.0113255222
 20
262.9066538534
 40
1.5
100
AcDbArc
 50
180.0
 51
270.0
  0
ARC
  5
2D5
100
AcDbEntity
  8
X23015008_BL1
100
AcDbCircle
 62
7
  6
CONTINUOUS
 10
412.0113255222
 20
308.9066538534
 40
1.5
100
AcDbArc
 50
90.0
 51
180.0
  0
ARC
  5
2D6
100
AcDbEntity
  8
X23015008_BL1
100
AcDbCircle
 62
7
  6
CONTINUOUS
 10
423.0113255222
 20
308.9066538534
 40
1.5
100
AcDbArc
 50
0.0
 51
90.0
  0
ARC
  5
2D7
100
AcDbEntity
  8
X23015008_BL1
100
AcDbCircle
 62
7
  6
CONTINUOUS
 10
423.0113255222
 20
262.9066538534
 40
1.5
100
AcDbArc
 50
270.0
 51
360.0
  0
ENDBLK
  5
2D8
100
AcDbEntity
  8
0
  6
BYBLOCK
 62
0
100
AcDbBlockEnd
  0
BLOCK
  5
2D9
100
AcDbEntity
  8
X23219003_BL2
100
AcDbBlockBegin
  2
X23219003_BL2
 70
64
 10
298.6539399762
 20
184.5967602205
  3
X23219003_BL2
  1

  0
LINE
  5
2DA
100
AcDbEntity
  8
X23219003_BL2
100
AcDbLine
 62
3
  6
CONTINUOUS
 10
265.0819525935
 20
158.3566538534
 11
244.3819525935
 21
158.3566538534
  0
LINE
  5
2DB
100
AcDbEntity
  8
X23219003_BL2
100
AcDbLine
 62
3
  6
CONTINUOUS
 10
237.3819525935
 20
158.3566538534
 11
221.8819525935
 21
158.3566538534
  0
LINE
  5
2DC
100
AcDbEntity
  8
X23219003_BL2
100
AcDbLine
 62
3
  6
CONTINUOUS
 10
189.8819525935
 20
158.3566538534
 11
187.6319525935
 21
158.3566538534
  0
LINE
  5
2DD
100
AcDbEntity
  8
X23219003_BL2
100
AcDbLine
 62
7
  6
CONTINUOUS
 10
265.0819525935
 20
160.1066538534
 11
244.3819525935
 21
160.1066538534
  0
LINE
  5
2DE
100
AcDbEntity
  8
X23219003_BL2
100
AcDbLine
 62
7
  6
CONTINUOUS
 10
237.3819525935
 20
160.1066538534
 11
221.8819525935
 21
160.1066538534
  0
LINE
  5
2DF
100
AcDbEntity
  8
X23219003_BL2
100
AcDbLine
 62
7
  6
CONTINUOUS
 10
189.8819525935
 20
160.1066538534
 11
187.6319525935
 21
160.1066538534
  0
LINE
  5
2E0
100
AcDbEntity
  8
X23219003_BL2
100
AcDbLine
 62
9
  6
CONTINUOUS
 10
265.3157336973
 20
160.6066538534
 11
244.3819525935
 21
160.6066538534
  0
LINE
  5
2E1
100
AcDbEntity
  8
X23219003_BL2
100
AcDbLine
 62
9
  6
CONTINUOUS
 10
237.3819525935
 20
160.6066538534
 11
220.9355179688
 21
160.6066538534
  0
LINE
  5
2E2
100
AcDbEntity
  8
X23219003_BL2
100
AcDbLine
 62
9
  6
CONTINUOUS
 10
190.8283872182
 20
160.6066538534
 11
187.6319525935
 21
160.6066538534
  0
LINE
  5
2E3
100
AcDbEntity
  8
X23219003_BL2
100
AcDbLine
 62
7
  6
CONTINUOUS
 10
273.8819525935
 20
167.1066538534
 11
272.1319525935
 21
167.1066538534
  0
LINE
  5
2E4
100
AcDbEntity
  8
X23219003_BL2
100
AcDbLine
 62
7
  6
CONTINUOUS
 10
189.8819525935
 20
323.4166538534
 11
189.8819525935
 21
321.6666538534
  0
LINE
  5
2E5
100
AcDbEntity
  8
X23219003_BL2
100
AcDbLine
 62
7
  6
CONTINUOUS
 10
189.8819525935
 20
158.3566538534
 11
189.8819525935
 21
160.1066538534
  0
LINE
  5
2E6
100
AcDbEntity
  8
X23219003_BL2
100
AcDbLine
 62
7
  6
CONTINUOUS
 10
266.7309523983
 20
323.1329751993
 11
265.4927426272
 21
321.8963117193
  0
LINE
  5
2E7
100
AcDbEntity
  8
X23219003_BL2
100
AcDbLine
 62
7
  6
CONTINUOUS
 10
266.739245665
 20
158.6471411836
 11
265.501808798
 21
159.8845780507
  0
LINE
  5
2E8
100
AcDbEntity
  8
X23219003_BL2
100
AcDbLine
 62
7
  6
CONTINUOUS
 10
273.5856014015
 20
316.269755325
 11
272.3473916304
 21
315.0330918451
  0
LINE
  5
2E9
100
AcDbEntity
  8
X23219003_BL2
100
AcDbLine
 62
7
  6
CONTINUOUS
 10
198.8819525935
 20
217.4066538534
 11
200.6569525935
 21
217.4066538534
  0
LINE
  5
2EA
100
AcDbEntity
  8
X23219003_BL2
100
AcDbLine
 62
7
  6
CONTINUOUS
 10
273.5981801038
 20
165.5060756224
 11
272.3607432367
 21
166.7435124895
  0
LINE
  5
2EB
100
AcDbEntity
  8
X23219003_BL2
100
AcDbLine
 62
7
  6
CONTINUOUS
 10
221.8819525935
 20
323.4166538534
 11
221.8819525935
 21
321.6666538534
  0
LINE
  5
2EC
100
AcDbEntity
  8
X23219003_BL2
100
AcDbLine
 62
7
  6
CONTINUOUS
 10
221.8819525935
 20
158.3566538534
 11
221.8819525935
 21
160.1066538534
  0
LINE
  5
2ED
100
AcDbEntity
  8
X23219003_BL2
100
AcDbLine
 62
7
  6
CONTINUOUS
 10
225.6819525935
 20
272.3066538534
 11
225.6819525935
 21
272.3566538534
  0
LINE
  5
2EE
100
AcDbEntity
  8
X23219003_BL2
100
AcDbLine
 62
7
  6
CONTINUOUS
 10
225.6819525935
 20
274.3566538534
 11
225.6819525935
 21
274.4066538534
  0
LINE
  5
2EF
100
AcDbEntity
  8
X23219003_BL2
100
AcDbLine
 62
7
  6
CONTINUOUS
 10
229.8819525935
 20
274.4066538534
 11
229.8819525935
 21
274.3566538534
  0
LINE
  5
2F0
100
AcDbEntity
  8
X23219003_BL2
100
AcDbLine
 62
7
  6
CONTINUOUS
 10
229.8819525935
 20
272.3566538534
 11
229.8819525935
 21
272.3066538534
  0
LINE
  5
2F1
100
AcDbEntity
  8
X23219003_BL2
100
AcDbLine
 62
7
  6
CONTINUOUS
 10
237.3819525935
 20
158.3566538534
 11
237.3819525935
 21
161.4066538534
  0
LINE
  5
2F2
100
AcDbEntity
  8
X23219003_BL2
100
AcDbLine
 62
7
  6
CONTINUOUS
 10
240.2819525935
 20
191.8066538534
 11
240.2819525935
 21
191.9066538534
  0
LINE
  5
2F3
100
AcDbEntity
  8
X23219003_BL2
100
AcDbLine
 62
7
  6
CONTINUOUS
 10
244.3819525935
 20
158.3566538534
 11
244.3819525935
 21
161.4066538534
  0
LINE
  5
2F4
100
AcDbEntity
  8
X23219003_BL2
100
AcDbLine
 62
7
  6
CONTINUOUS
 10
244.6819525935
 20
191.9066538534
 11
244.6819525935
 21
191.8066538534
  0
LINE
  5
2F5
100
AcDbEntity
  8
X23219003_BL2
100
AcDbLine
 62
7
  6
CENTER
 10
282.3457143418
 20
260.4066538534
 11
174.0819525935
 21
260.4066538534
  0
LINE
  5
2F6
100
AcDbEntity
  8
X23219003_BL2
100
AcDbLine
 62
7
  6
CONTINUOUS
 10
265.0819525935
 20
158.3566538534
 11
265.0819525935
 21
160.1066538534
  0
LINE
  5
2F7
100
AcDbEntity
  8
X23219003_BL2
100
AcDbLine
 62
7
  6
CONTINUOUS
 10
265.1319525935
 20
323.4166538534
 11
265.1319525935
 21
321.6666538534
  0
LINE
  5
2F8
100
AcDbEntity
  8
X23219003_BL2
100
AcDbLine
 62
9
  6
CONTINUOUS
 10
271.6319525935
 20
166.9207111408
 11
271.6319525935
 21
314.841029296
  0
LINE
  5
2F9
100
AcDbEntity
  8
X23219003_BL2
100
AcDbLine
 62
7
  6
CONTINUOUS
 10
272.1319525935
 20
314.6566538534
 11
272.1319525935
 21
167.1066538534
  0
LINE
  5
2FA
100
AcDbEntity
  8
X23219003_BL2
100
AcDbLine
 62
3
  6
CONTINUOUS
 10
273.8819525935
 20
314.6566538534
 11
273.8819525935
 21
167.1066538534
  0
LINE
  5
2FB
100
AcDbEntity
  8
X23219003_BL2
100
AcDbLine
 62
7
  6
CONTINUOUS
 10
273.8819525935
 20
314.6566538534
 11
272.1319525935
 21
314.6566538534
  0
LINE
  5
2FC
100
AcDbEntity
  8
X23219003_BL2
100
AcDbLine
 62
9
  6
CONTINUOUS
 10
271.588679729
 20
166.6785557629
 11
265.5606850988
 21
160.6505611328
  0
LINE
  5
2FD
100
AcDbEntity
  8
X23219003_BL2
100
AcDbLine
 62
9
  6
CONTINUOUS
 10
265.2819525935
 20
321.1666538534
 11
220.8680560364
 21
321.1666538534
  0
LINE
  5
2FE
100
AcDbEntity
  8
X23219003_BL2
100
AcDbLine
 62
9
  6
CONTINUOUS
 10
190.8958491507
 20
321.1666538534
 11
187.6319525935
 21
321.1666538534
  0
LINE
  5
2FF
100
AcDbEntity
  8
X23219003_BL2
100
AcDbLine
 62
7
  6
CONTINUOUS
 10
187.6319525935
 20
321.6666538534
 11
189.8819525935
 21
321.6666538534
  0
LINE
  5
300
100
AcDbEntity
  8
X23219003_BL2
100
AcDbLine
 62
7
  6
CONTINUOUS
 10
221.8819525935
 20
321.6666538534
 11
265.1319525935
 21
321.6666538534
  0
LINE
  5
301
100
AcDbEntity
  8
X23219003_BL2
100
AcDbLine
 62
3
  6
CONTINUOUS
 10
187.6319525935
 20
323.4166538534
 11
189.8819525935
 21
323.4166538534
  0
LINE
  5
302
100
AcDbEntity
  8
X23219003_BL2
100
AcDbLine
 62
3
  6
CONTINUOUS
 10
221.8819525935
 20
323.4166538534
 11
265.1319525935
 21
323.4166538534
  0
LINE
  5
303
100
AcDbEntity
  8
X23219003_BL2
100
AcDbLine
 62
9
  6
CONTINUOUS
 10
271.5881863524
 20
315.0856974201
 11
265.5688381964
 21
321.1125720092
  0
LINE
  5
304
100
AcDbEntity
  8
X23219003_BL2
100
AcDbLine
 62
7
  6
CONTINUOUS
 10
265.501808798
 20
159.8845780507
 11
272.3607432367
 21
166.7435124895
  0
LINE
  5
305
100
AcDbEntity
  8
X23219003_BL2
100
AcDbLine
 62
3
  6
CONTINUOUS
 10
266.739245665
 20
158.6471411836
 11
273.5981801038
 21
165.5060756224
  0
LINE
  5
306
100
AcDbEntity
  8
X23219003_BL2
100
AcDbLine
 62
7
  6
CONTINUOUS
 10
272.3473916304
 20
315.0330918451
 11
265.4927426272
 21
321.8963117193
  0
LINE
  5
307
100
AcDbEntity
  8
X23219003_BL2
100
AcDbLine
 62
3
  6
CONTINUOUS
 10
273.5856014015
 20
316.269755325
 11
266.7309523983
 21
323.1329751993
  0
LINE
  5
308
100
AcDbEntity
  8
X23219003_BL2
100
AcDbLine
 62
7
  6
CONTINUOUS
 10
411.1363255222
 20
310.1220921785
 11
411.1363255222
 21
261.6912155283
  0
LINE
  5
309
100
AcDbEntity
  8
X23219003_BL2
100
AcDbLine
 62
9
  6
CONTINUOUS
 10
411.5363255222
 20
269.6566538534
 11
411.5363255222
 21
261.4850269612
  0
LINE
  5
30A
100
AcDbEntity
  8
X23219003_BL2
100
AcDbLine
 62
9
  6
CONTINUOUS
 10
411.6363255222
 20
269.6566538534
 11
411.6363255222
 21
272.3566538534
  0
LINE
  5
30B
100
AcDbEntity
  8
X23219003_BL2
100
AcDbLine
 62
9
  6
CONTINUOUS
 10
411.6363255222
 20
274.3566538534
 11
411.6363255222
 21
275.4066538534
  0
LINE
  5
30C
100
AcDbEntity
  8
X23219003_BL2
100
AcDbLine
 62
9
  6
CONTINUOUS
 10
411.6363255222
 20
282.4066538534
 11
411.6363255222
 21
302.7070578977
  0
LINE
  5
30D
100
AcDbEntity
  8
X23219003_BL2
100
AcDbLine
 62
7
  6
CONTINUOUS
 10
412.5363255222
 20
269.6566538534
 11
412.5363255222
 21
261.4066538534
  0
LINE
  5
30E
100
AcDbEntity
  8
X23219003_BL2
100
AcDbLine
 62
7
  6
CONTINUOUS
 10
423.2259273588
 20
310.4066538534
 11
423.2259273588
 21
290.8862999112
  0
LINE
  5
30F
100
AcDbEntity
  8
X23219003_BL2
100
AcDbLine
 62
7
  6
CONTINUOUS
 10
423.2259273588
 20
280.9270077956
 11
423.2259273588
 21
261.4066538534
  0
LINE
  5
310
100
AcDbEntity
  8
X23219003_BL2
100
AcDbLine
 62
7
  6
CONTINUOUS
 10
411.1363255222
 20
262.4066538534
 11
410.5974912951
 21
262.4066538534
  0
LINE
  5
311
100
AcDbEntity
  8
X23219003_BL2
100
AcDbLine
 62
7
  6
CONTINUOUS
 10
411.5363255222
 20
269.6566538534
 11
412.5363255222
 21
269.6566538534
  0
LINE
  5
312
100
AcDbEntity
  8
X23219003_BL2
100
AcDbLine
 62
7
  6
CONTINUOUS
 10
410.5113255222
 20
287.4066538534
 11
411.1363255222
 21
287.4066538534
  0
LINE
  5
313
100
AcDbEntity
  8
X23219003_BL2
100
AcDbLine
 62
9
  6
CONTINUOUS
 10
410.5113255222
 20
290.4066538534
 11
411.1363255222
 21
290.4066538534
  0
LINE
  5
314
100
AcDbEntity
  8
X23219003_BL2
100
AcDbLine
 62
9
  6
CONTINUOUS
 10
410.5113255222
 20
308.4066538534
 11
411.1363255222
 21
308.4066538534
  0
LINE
  5
315
100
AcDbEntity
  8
X23219003_BL2
100
AcDbLine
 62
3
  6
CONTINUOUS
 10
179.0819525935
 20
59.6164684242
 11
179.0819525935
 21
45.7868665876
  0
LINE
  5
316
100
AcDbEntity
  8
X23219003_BL2
100
AcDbLine
 62
3
  6
CONTINUOUS
 10
189.8819525935
 20
45.7868665876
 11
189.8819525935
 21
57.2868665876
  0
LINE
  5
317
100
AcDbEntity
  8
X23219003_BL2
100
AcDbLine
 62
7
  6
CONTINUOUS
 10
190.8958491507
 20
57.8664684242
 11
190.8958491507
 21
59.6164684242
  0
LINE
  5
318
100
AcDbEntity
  8
X23219003_BL2
100
AcDbLine
 62
9
  6
CONTINUOUS
 10
191.8819525935
 20
59.6164684242
 11
191.8819525935
 21
57.8664684242
  0
LINE
  5
319
100
AcDbEntity
  8
X23219003_BL2
100
AcDbLine
 62
9
  6
CONTINUOUS
 10
219.8819525935
 20
59.6164684242
 11
219.8819525935
 21
57.8664684242
  0
LINE
  5
31A
100
AcDbEntity
  8
X23219003_BL2
100
AcDbLine
 62
7
  6
CONTINUOUS
 10
220.8680560364
 20
57.8664684242
 11
220.8680560364
 21
59.6164684242
  0
LINE
  5
31B
100
AcDbEntity
  8
X23219003_BL2
100
AcDbLine
 62
7
  6
CONTINUOUS
 10
273.8819525935
 20
45.7768665876
 11
272.1319525935
 21
45.7768665876
  0
LINE
  5
31C
100
AcDbEntity
  8
X23219003_BL2
100
AcDbLine
 62
3
  6
CONTINUOUS
 10
179.0819525935
 20
45.7868665876
 11
189.8819525935
 21
45.7868665876
  0
LINE
  5
31D
100
AcDbEntity
  8
X23219003_BL2
100
AcDbLine
 62
3
  6
CONTINUOUS
 10
221.8819525935
 20
45.7868665876
 11
265.1319525935
 21
45.7868665876
  0
LINE
  5
31E
100
AcDbEntity
  8
X23219003_BL2
100
AcDbLine
 62
3
  6
CONTINUOUS
 10
273.5856014015
 20
45.8268665876
 11
266.7309523983
 21
45.8268665876
  0
LINE
  5
31F
100
AcDbEntity
  8
X23219003_BL2
100
AcDbLine
 62
7
  6
CONTINUOUS
 10
266.7309523983
 20
45.8268665876
 11
265.4927426272
 21
45.8268665876
  0
LINE
  5
320
100
AcDbEntity
  8
X23219003_BL2
100
AcDbLine
 62
3
  6
CONTINUOUS
 10
221.8819525935
 20
45.7868665876
 11
221.8819525935
 21
57.2868665876
  0
LINE
  5
321
100
AcDbEntity
  8
X23219003_BL2
100
AcDbLine
 62
7
  6
CONTINUOUS
 10
273.8819525935
 20
56.1889522173
 11
273.5856014015
 21
56.1889522173
  0
LINE
  5
322
100
AcDbEntity
  8
X23219003_BL2
100
AcDbLine
 62
7
  6
CONTINUOUS
 10
266.7309523983
 20
56.4194218228
 11
265.4927426272
 21
56.4194218228
  0
LINE
  5
323
100
AcDbEntity
  8
X23219003_BL2
100
AcDbLine
 62
9
  6
CONTINUOUS
 10
264.2182327246
 20
57.3664684242
 11
221.8803678526
 21
57.3664684242
  0
LINE
  5
324
100
AcDbEntity
  8
X23219003_BL2
100
AcDbLine
 62
9
  6
CONTINUOUS
 10
189.8835373345
 20
57.3664684242
 11
179.0819525935
 21
57.3664684242
  0
LINE
  5
325
100
AcDbEntity
  8
X23219003_BL2
100
AcDbLine
 62
7
  6
CONTINUOUS
 10
266.2387927299
 20
57.3664684242
 11
267.477002501
 21
57.3664684242
  0
LINE
  5
326
100
AcDbEntity
  8
X23219003_BL2
100
AcDbLine
 62
9
  6
CONTINUOUS
 10
267.477002501
 20
57.3664684242
 11
272.8569382924
 21
57.3664684242
  0
LINE
  5
327
100
AcDbEntity
  8
X23219003_BL2
100
AcDbLine
 62
7
  6
CONTINUOUS
 10
272.8569382924
 20
57.3664684242
 11
273.8819525935
 21
57.3664684242
  0
LINE
  5
328
100
AcDbEntity
  8
X23219003_BL2
100
AcDbLine
 62
7
  6
CONTINUOUS
 10
265.5688381964
 20
57.8664684242
 11
265.2819525935
 21
57.8664684242
  0
LINE
  5
329
100
AcDbEntity
  8
X23219003_BL2
100
AcDbLine
 62
7
  6
CONTINUOUS
 10
220.8680560364
 20
57.8664684242
 11
190.8958491507
 21
57.8664684242
  0
LINE
  5
32A
100
AcDbEntity
  8
X23219003_BL2
100
AcDbLine
 62
3
  6
CONTINUOUS
 10
271.5881863524
 20
59.6164684242
 11
179.0819525935
 21
59.6164684242
  0
LINE
  5
32B
100
AcDbEntity
  8
X23219003_BL2
100
AcDbLine
 62
3
  6
CONTINUOUS
 10
265.1319525935
 20
45.7868665876
 11
265.1319525935
 21
56.199386858
  0
LINE
  5
32C
100
AcDbEntity
  8
X23219003_BL2
100
AcDbLine
 62
7
  6
CONTINUOUS
 10
265.2819525935
 20
57.8664684242
 11
265.2819525935
 21
59.6164684242
  0
LINE
  5
32D
100
AcDbEntity
  8
X23219003_BL2
100
AcDbLine
 62
7
  6
CONTINUOUS
 10
265.4927426272
 20
45.8268665876
 11
265.4927426272
 21
56.4194218228
  0
LINE
  5
32E
100
AcDbEntity
  8
X23219003_BL2
100
AcDbLine
 62
7
  6
CONTINUOUS
 10
265.5688381964
 20
57.8664684242
 11
265.5688381964
 21
59.6164684242
  0
LINE
  5
32F
100
AcDbEntity
  8
X23219003_BL2
100
AcDbLine
 62
3
  6
CONTINUOUS
 10
266.7309523983
 20
45.8268665876
 11
266.7309523983
 21
56.4194218228
  0
LINE
  5
330
100
AcDbEntity
  8
X23219003_BL2
100
AcDbLine
 62
3
  6
CONTINUOUS
 10
273.5856014015
 20
56.4194218228
 11
273.5856014015
 21
45.8268665876
  0
LINE
  5
331
100
AcDbEntity
  8
X23219003_BL2
100
AcDbLine
 62
3
  6
CONTINUOUS
 10
273.8819525935
 20
45.7768665876
 11
273.8819525935
 21
57.3664684242
  0
ARC
  5
332
100
AcDbEntity
  8
X23219003_BL2
100
AcDbCircle
 62
7
  6
CONTINUOUS
 10
191.8819525935
 20
158.9066538534
 40
2.0
100
AcDbArc
 50
90.0
 51
121.7883306171
  0
ARC
  5
333
100
AcDbEntity
  8
X23219003_BL2
100
AcDbCircle
 62
7
  6
CONTINUOUS
 10
219.8819525935
 20
158.9066538534
 40
2.0
100
AcDbArc
 50
58.2116693829
 51
90.0
  0
ARC
  5
334
100
AcDbEntity
  8
X23219003_BL2
100
AcDbCircle
 62
7
  6
CONTINUOUS
 10
219.8819525935
 20
322.9066538534
 40
2.0
100
AcDbArc
 50
270.0
 51
299.5413605001
  0
ARC
  5
335
100
AcDbEntity
  8
X23219003_BL2
100
AcDbCircle
 62
7
  6
CONTINUOUS
 10
191.8819525935
 20
322.9066538534
 40
2.0
100
AcDbArc
 50
240.4586394999
 51
270.0
  0
ARC
  5
336
100
AcDbEntity
  8
X23219003_BL2
100
AcDbCircle
 62
7
  6
CONTINUOUS
 10
240.8819525935
 20
161.4066538534
 40
3.5
100
AcDbArc
 50
0.0
 51
7.4536784613
  0
ARC
  5
337
100
AcDbEntity
  8
X23219003_BL2
100
AcDbCircle
 62
3
  6
CONTINUOUS
 10
266.7313405511
 20
158.8456573593
 40
2.2906296318
100
AcDbArc
 50
143.8174325235
 51
146.5687252386
  0
ARC
  5
338
100
AcDbEntity
  8
X23219003_BL2
100
AcDbCircle
 62
7
  6
CONTINUOUS
 10
265.7019525935
 20
159.1572281174
 40
1.5
100
AcDbArc
 50
95.4040295449
 51
104.9205430081
  0
ARC
  5
339
100
AcDbEntity
  8
X23219003_BL2
100
AcDbCircle
 62
7
  6
CONTINUOUS
 10
273.0819525935
 20
166.5366538534
 40
1.5
100
AcDbArc
 50
165.164888418
 51
174.5716289162
  0
ARC
  5
33A
100
AcDbEntity
  8
X23219003_BL2
100
AcDbCircle
 62
7
  6
CONTINUOUS
 10
273.0819525935
 20
315.2266538534
 40
1.5004020459
100
AcDbArc
 50
185.3906458074
 51
194.8929658811
  0
ARC
  5
33B
100
AcDbEntity
  8
X23219003_BL2
100
AcDbCircle
 62
7
  6
CONTINUOUS
 10
265.7019525935
 20
322.6066538534
 40
1.5
100
AcDbArc
 50
253.7397952917
 51
264.9087070144
  0
ARC
  5
33C
100
AcDbEntity
  8
X23219003_BL2
100
AcDbCircle
 62
7
  6
CONTINUOUS
 10
411.5363255222
 20
270.0566538534
 40
0.4
100
AcDbArc
 50
180.0
 51
270.0
  0
ARC
  5
33D
100
AcDbEntity
  8
X23219003_BL2
100
AcDbCircle
 62
3
  6
CONTINUOUS
 10
219.8819525935
 20
57.2868665876
 40
2.0
100
AcDbArc
 50
0.0
 51
2.2810271441
  0
ARC
  5
33E
100
AcDbEntity
  8
X23219003_BL2
100
AcDbCircle
 62
3
  6
CONTINUOUS
 10
191.8819525935
 20
57.2868665876
 40
2.0
100
AcDbArc
 50
177.7189728559
 51
180.0
  0
ARC
  5
33F
100
AcDbEntity
  8
X23219003_BL2
100
AcDbCircle
 62
7
  6
CONTINUOUS
 10
221.4170064317
 20
57.3252142116
 40
0.4652401421
100
AcDbArc
 50
15.5217395098
 51
26.0169367063
  0
ARC
  5
340
100
AcDbEntity
  8
X23219003_BL2
100
AcDbCircle
 62
3
  6
CONTINUOUS
 10
270.8837676931
 20
57.8320997686
 40
6.6817788773
100
AcDbArc
 50
180.001966537
 51
183.9959944344
  0
ARC
  5
341
100
AcDbEntity
  8
X23219003_BL2
100
AcDbCircle
 62
3
  6
CONTINUOUS
 10
271.6319525935
 20
57.3664684242
 40
2.25
100
AcDbArc
 50
0.0
 51
90.0
  0
ARC
  5
342
100
AcDbEntity
  8
X23219003_BL2
100
AcDbCircle
 62
3
  6
CONTINUOUS
 10
265.7019525935
 20
57.5868665876
 40
1.5
100
AcDbArc
 50
188.449179391
 51
247.6663173422
  0
SPLINE
  5
343
100
AcDbEntity
  8
X23219003_BL2
100
AcDbSpline
 62
7
  6
CONTINUOUS
 70
0
 71
3
 72
12
 73
8
 74
0
 42
0.0000001
 43
0.0000001
 44
0.0000000001
 40
0.0
 40
0.0
 40
0.0
 40
0.0
 40
0.2802254749
 40
0.5570742005
 40
0.81450334
 40
0.9214919735
 40
1.0
 40
1.0
 40
1.0
 40
1.0
 10
271.588679729
 20
166.6785557629
 30
0.0
 10
271.5615184817
 20
166.6165292081
 30
0.0
 10
271.5144564508
 20
166.4898888687
 30
0.0
 10
271.471967763
 20
166.2973346301
 30
0.0
 10
271.465090983
 20
166.140435748
 30
0.0
 10
271.4846360838
 20
166.0353519324
 30
0.0
 10
271.5044011501
 20
165.9930125727
 30
0.0
 10
271.5179171917
 20
165.9797011419
 30
0.0
  0
SPLINE
  5
344
100
AcDbEntity
  8
X23219003_BL2
100
AcDbSpline
 62
7
  6
CONTINUOUS
 70
0
 71
3
 72
12
 73
8
 74
0
 42
0.0000001
 43
0.0000001
 44
0.0000000001
 40
0.0
 40
0.0
 40
0.0
 40
0.0
 40
0.2802416269
 40
0.557104132
 40
0.8145365235
 40
0.9215159777
 40
1.0
 40
1.0
 40
1.0
 40
1.0
 10
271.5881863524
 20
315.0856974201
 30
0.0
 10
271.5610594849
 20
315.1477548784
 30
0.0
 10
271.5140703197
 20
315.274452381
 30
0.0
 10
271.471694532
 20
315.4670719953
 30
0.0
 10
271.464917141
 20
315.6240000989
 30
0.0
 10
271.4845167337
 20
315.7290835221
 30
0.0
 10
271.5043058514
 20
315.771410584
 30
0.0
 10
271.517827422
 20
315.7847123724
 30
0.0
  0
SPLINE
  5
345
100
AcDbEntity
  8
X23219003_BL2
100
AcDbSpline
 62
7
  6
CONTINUOUS
 70
0
 71
3
 72
12
 73
8
 74
0
 42
0.0000001
 43
0.0000001
 44
0.0000000001
 40
0.0
 40
0.0
 40
0.0
 40
0.0
 40
0.0790120146
 40
0.1860578747
 40
0.4432778979
 40
0.7199339554
 40
1.0
 40
1.0
 40
1.0
 40
1.0
 10
266.2614135093
 20
321.0457197864
 30
0.0
 10
266.2481440484
 20
321.0322411724
 30
0.0
 10
266.2062018645
 20
321.0124171245
 30
0.0
 10
266.1021124975
 20
320.992395331
 30
0.0
 10
265.9467217315
 20
320.9985498628
 30
0.0
 10
265.7559205641
 20
321.0398145783
 30
0.0
 10
265.6303558709
 20
321.0859179907
 30
0.0
 10
265.5688381964
 20
321.1125720092
 30
0.0
  0
SPLINE
  5
346
100
AcDbEntity
  8
X23219003_BL2
100
AcDbSpline
 62
7
  6
CONTINUOUS
 70
0
 71
3
 72
16
 73
12
 74
0
 42
0.0000001
 43
0.0000001
 44
0.0000000001
 40
0.0
 40
0.0
 40
0.0
 40
0.0
 40
0.0118308686
 40
0.0402848207
 40
0.0825770526
 40
0.1355067576
 40
0.2614645006
 40
0.4021380452
 40
0.5492575326
 40
0.6988351371
 40
1.0
 40
1.0
 40
1.0
 40
1.0
 10
189.8823447083
 20
160.1066538534
 30
0.0
 10
189.8865911802
 20
160.1066538534
 30
0.0
 10
189.8977662773
 20
160.1186901062
 30
0.0
 10
189.921797602
 20
160.133715707
 30
0.0
 10
189.9565877871
 20
160.1624390678
 30
0.0
 10
190.0198359528
 20
160.2098610965
 30
0.0
 10
190.1131349288
 20
160.2770103242
 30
0.0
 10
190.2392782598
 20
160.3554771317
 30
0.0
 10
190.3776407063
 20
160.4298892363
 30
0.0
 10
190.5720923225
 20
160.5207985874
 30
0.0
 10
190.7246550151
 20
160.5762447366
 30
0.0
 10
190.8283872182
 20
160.6066538534
 30
0.0
  0
SPLINE
  5
347
100
AcDbEntity
  8
X23219003_BL2
100
AcDbSpline
 62
7
  6
CONTINUOUS
 70
0
 71
3
 72
11
 73
7
 74
0
 42
0.0000001
 43
0.0000001
 44
0.0000000001
 40
0.0
 40
0.0
 40
0.0
 40
0.0
 40
0.1261869879
 40
0.3598777416
 40
0.6608121738
 40
1.0
 40
1.0
 40
1.0
 40
1.0
 10
272.121838111
 20
313.7265855123
 30
0.0
 10
272.1101110523
 20
313.7264644468
 30
0.0
 10
272.0813472773
 20
313.7500445064
 30
0.0
 10
272.0391372408
 20
313.791371351
 30
0.0
 10
271.9876793104
 20
313.8556993931
 30
0.0
 10
271.9539909499
 20
313.9044535691
 30
0.0
 10
271.9369631669
 20
313.9309828293
 30
0.0
  0
SPLINE
  5
348
100
AcDbEntity
  8
X23219003_BL2
100
AcDbSpline
 62
7
  6
CONTINUOUS
 70
0
 71
3
 72
9
 73
5
 74
0
 42
0.0000001
 43
0.0000001
 44
0.0000000001
 40
0.0
 40
0.0
 40
0.0
 40
0.0
 40
0.2440914466
 40
1.0
 40
1.0
 40
1.0
 40
1.0
 10
271.9369631669
 20
313.9309828293
 30
0.0
 10
271.8945741764
 20
313.9970248123
 30
0.0
 10
271.7425102155
 20
314.2813706787
 30
0.0
 10
271.6622855275
 20
314.5999054832
 30
0.0
 10
271.6319525935
 20
314.841029296
 30
0.0
  0
SPLINE
  5
349
100
AcDbEntity
  8
X23219003_BL2
100
AcDbSpline
 62
7
  6
CONTINUOUS
 70
0
 71
3
 72
16
 73
12
 74
0
 42
0.0000001
 43
0.0000001
 44
0.0000000001
 40
0.0
 40
0.0
 40
0.0
 40
0.0
 40
0.3011648629
 40
0.4507424674
 40
0.5978619548
 40
0.7385354994
 40
0.8644932424
 40
0.9174229474
 40
0.9597151793
 40
0.9881691314
 40
1.0
 40
1.0
 40
1.0
 40
1.0
 10
220.9355179688
 20
160.6066538534
 30
0.0
 10
221.039250172
 20
160.5762447366
 30
0.0
 10
221.1918128645
 20
160.5207985874
 30
0.0
 10
221.3862644808
 20
160.4298892363
 30
0.0
 10
221.5246269272
 20
160.3554771317
 30
0.0
 10
221.6507702582
 20
160.2770103242
 30
0.0
 10
221.7440692343
 20
160.2098610965
 30
0.0
 10
221.8073173999
 20
160.1624390678
 30
0.0
 10
221.8421075851
 20
160.133715707
 30
0.0
 10
221.8661389097
 20
160.1186901062
 30
0.0
 10
221.8773140068
 20
160.1066538534
 30
0.0
 10
221.8815604787
 20
160.1066538534
 30
0.0
  0
SPLINE
  5
34A
100
AcDbEntity
  8
X23219003_BL2
100
AcDbSpline
 62
7
  6
CONTINUOUS
 70
0
 71
3
 72
15
 73
11
 74
0
 42
0.0000001
 43
0.0000001
 44
0.0000000001
 40
0.0
 40
0.0
 40
0.0
 40
0.0
 40
0.2812713346
 40
0.5613080843
 40
0.6987525884
 40
0.8290741788
 40
0.887989734
 40
0.9391285676
 40
0.9779841079
 40
1.0
 40
1.0
 40
1.0
 40
1.0
 10
265.2819525935
 20
321.1666538534
 30
0.0
 10
265.1692735239
 20
321.1821994605
 30
0.0
 10
264.9459645561
 20
321.2264654169
 30
0.0
 10
264.6780427274
 20
321.3203817129
 30
0.0
 10
264.4801537684
 20
321.4204274336
 30
0.0
 10
264.3682420448
 20
321.4914413515
 30
0.0
 10
264.2915148624
 20
321.5508626415
 30
0.0
 10
264.2462526192
 20
321.591488599
 30
0.0
 10
264.2167715601
 20
321.6243373863
 30
0.0
 10
264.2021262634
 20
321.6467078411
 30
0.0
 10
264.2022465651
 20
321.6556102747
 30
0.0
  0
SPLINE
  5
34B
100
AcDbEntity
  8
X23219003_BL2
100
AcDbSpline
 62
7
  6
CONTINUOUS
 70
0
 71
3
 72
16
 73
12
 74
0
 42
0.0000001
 43
0.0000001
 44
0.0000000001
 40
0.0
 40
0.0
 40
0.0
 40
0.0
 40
0.0146238357
 40
0.0455092757
 40
0.0896126529
 40
0.1437012585
 40
0.2702862274
 40
0.4100907298
 40
0.5555720886
 40
0.703158355
 40
1.0
 40
1.0
 40
1.0
 40
1.0
 10
221.8803678526
 20
321.6666538534
 30
0.0
 10
221.8748321769
 20
321.6666538534
 30
0.0
 10
221.8599845173
 20
321.6551590057
 30
0.0
 10
221.8319541073
 20
321.6380814148
 30
0.0
 10
221.7922041435
 20
321.6087298128
 30
0.0
 10
221.7228347542
 20
321.5599053979
 30
0.0
 10
221.6221079086
 20
321.4919423888
 30
0.0
 10
221.487551656
 20
321.4130624941
 30
0.0
 10
221.3411827086
 20
321.3391462533
 30
0.0
 10
221.1365436193
 20
321.2496199678
 30
0.0
 10
220.9765897477
 20
321.1957486629
 30
0.0
 10
220.8680560364
 20
321.1666538534
 30
0.0
  0
SPLINE
  5
34C
100
AcDbEntity
  8
X23219003_BL2
100
AcDbSpline
 62
7
  6
CONTINUOUS
 70
0
 71
3
 72
16
 73
12
 74
0
 42
0.0000001
 43
0.0000001
 44
0.0000000001
 40
0.0
 40
0.0
 40
0.0
 40
0.0
 40
0.296841645
 40
0.4444279114
 40
0.5899092702
 40
0.7297137726
 40
0.8562987415
 40
0.9103873471
 40
0.9544907243
 40
0.9853761643
 40
1.0
 40
1.0
 40
1.0
 40
1.0
 10
190.8958491507
 20
321.1666538534
 30
0.0
 10
190.7873154393
 20
321.1957486629
 30
0.0
 10
190.6273615678
 20
321.2496199678
 30
0.0
 10
190.4227224785
 20
321.3391462533
 30
0.0
 10
190.2763535311
 20
321.4130624941
 30
0.0
 10
190.1417972785
 20
321.4919423888
 30
0.0
 10
190.0410704328
 20
321.5599053979
 30
0.0
 10
189.9717010436
 20
321.6087298128
 30
0.0
 10
189.9319510797
 20
321.6380814148
 30
0.0
 10
189.9039206698
 20
321.6551590057
 30
0.0
 10
189.8890730102
 20
321.6666538534
 30
0.0
 10
189.8835373345
 20
321.6666538534
 30
0.0
  0
SPLINE
  5
34D
100
AcDbEntity
  8
X23219003_BL2
100
AcDbSpline
 62
7
  6
CONTINUOUS
 70
0
 71
3
 72
15
 73
11
 74
0
 42
0.0000001
 43
0.0000001
 44
0.0000000001
 40
0.0
 40
0.0
 40
0.0
 40
0.0
 40
0.2809369227
 40
0.5607417504
 40
0.6982299407
 40
0.8288277462
 40
0.8879832703
 40
0.9394252854
 40
0.9783670106
 40
1.0
 40
1.0
 40
1.0
 40
1.0
 10
265.3157336973
 20
160.6066538534
 30
0.0
 10
265.2000742333
 20
160.5920759066
 30
0.0
 10
264.9706661806
 20
160.5492745373
 30
0.0
 10
264.6949647922
 20
160.4558294137
 30
0.0
 10
264.4908796582
 20
160.3551679375
 30
0.0
 10
264.3751538927
 20
160.2832677497
 30
0.0
 10
264.2955580327
 20
160.2229106392
 30
0.0
 10
264.2483754921
 20
160.1815895546
 30
0.0
 10
264.2177727586
 20
160.1483645796
 30
0.0
 10
264.2021889546
 20
160.1257960872
 30
0.0
 10
264.2022838047
 20
160.1168199959
 30
0.0
  0
SPLINE
  5
34E
100
AcDbEntity
  8
X23219003_BL2
100
AcDbSpline
 62
7
  6
CONTINUOUS
 70
0
 71
3
 72
9
 73
5
 74
0
 42
0.0000001
 43
0.0000001
 44
0.0000000001
 40
0.0
 40
0.0
 40
0.0
 40
0.0
 40
0.4155459521
 40
1.0
 40
1.0
 40
1.0
 40
1.0
 10
266.259132236
 20
160.7210386886
 30
0.0
 10
266.2378169801
 20
160.7426842568
 30
0.0
 10
266.1628558348
 20
160.7655438218
 30
0.0
 10
266.0910790963
 20
160.7701805783
 30
0.0
 10
266.0483573687
 20
160.7695134152
 30
0.0
  0
SPLINE
  5
34F
100
AcDbEntity
  8
X23219003_BL2
100
AcDbSpline
 62
7
  6
CONTINUOUS
 70
0
 71
3
 72
9
 73
5
 74
0
 42
0.0000001
 43
0.0000001
 44
0.0000000001
 40
0.0
 40
0.0
 40
0.0
 40
0.0
 40
0.2429142101
 40
1.0
 40
1.0
 40
1.0
 40
1.0
 10
266.0483573687
 20
160.7695134152
 30
0.0
 10
266.0075590988
 20
160.7688762898
 30
0.0
 10
265.8398391265
 20
160.7536173553
 30
0.0
 10
265.6771913886
 20
160.7015381581
 30
0.0
 10
265.5606850988
 20
160.6505611328
 30
0.0
  0
SPLINE
  5
350
100
AcDbEntity
  8
X23219003_BL2
100
AcDbSpline
 62
7
  6
CONTINUOUS
 70
0
 71
3
 72
11
 73
7
 74
0
 42
0.0000001
 43
0.0000001
 44
0.0000000001
 40
0.0
 40
0.0
 40
0.0
 40
0.0
 40
0.1261869281
 40
0.3599142413
 40
0.6608543427
 40
1.0
 40
1.0
 40
1.0
 40
1.0
 10
272.1218372544
 20
168.0363189185
 30
0.0
 10
272.1100969166
 20
168.0364399056
 30
0.0
 10
272.0813048731
 20
168.0128155797
 30
0.0
 10
272.0390581952
 20
167.9714296973
 30
0.0
 10
271.9875614996
 20
167.9070114406
 30
0.0
 10
271.9538532253
 20
167.8581939062
 30
0.0
 10
271.936817505
 20
167.8316319784
 30
0.0
  0
SPLINE
  5
351
100
AcDbEntity
  8
X23219003_BL2
100
AcDbSpline
 62
7
  6
CONTINUOUS
 70
0
 71
3
 72
9
 73
5
 74
0
 42
0.0000001
 43
0.0000001
 44
0.0000000001
 40
0.0
 40
0.0
 40
0.0
 40
0.0
 40
0.2441099996
 40
1.0
 40
1.0
 40
1.0
 40
1.0
 10
271.936817505
 20
167.8316319784
 30
0.0
 10
271.8944135351
 20
167.765516125
 30
0.0
 10
271.7423324163
 20
167.4808789632
 30
0.0
 10
271.6621881658
 20
167.1620418268
 30
0.0
 10
271.6319525935
 20
166.9207111408
 30
0.0
  0
SPLINE
  5
352
100
AcDbEntity
  8
X23219003_BL2
100
AcDbSpline
 62
3
  6
CONTINUOUS
 70
0
 71
3
 72
8
 73
4
 74
0
 42
0.0000001
 43
0.0000001
 44
0.0000000001
 40
0.0
 40
0.0
 40
0.0
 40
0.0
 40
1.0
 40
1.0
 40
1.0
 40
1.0
 10
271.588679729
 20
166.6785557629
 30
0.0
 10
271.637324064
 20
166.5017551023
 30
0.0
 10
271.7037442153
 20
166.3295592871
 30
0.0
 10
271.7798678346
 20
166.1627362086
 30
0.0
  0
SPLINE
  5
353
100
AcDbEntity
  8
X23219003_BL2
100
AcDbSpline
 62
3
  6
CONTINUOUS
 70
0
 71
3
 72
8
 73
4
 74
0
 42
0.0000001
 43
0.0000001
 44
0.0000000001
 40
0.0
 40
0.0
 40
0.0
 40
0.0
 40
1.0
 40
1.0
 40
1.0
 40
1.0
 10
266.082882501
 20
321.3053406701
 30
0.0
 10
265.916619296
 20
321.2288842746
 30
0.0
 10
265.7450346572
 20
321.162007229
 30
0.0
 10
265.5688381964
 20
321.1125720092
 30
0.0
  0
SPLINE
  5
354
100
AcDbEntity
  8
X23219003_BL2
100
AcDbSpline
 62
3
  6
CONTINUOUS
 70
0
 71
3
 72
8
 73
4
 74
0
 42
0.0000001
 43
0.0000001
 44
0.0000000001
 40
0.0
 40
0.0
 40
0.0
 40
0.0
 40
1.0
 40
1.0
 40
1.0
 40
1.0
 10
265.3157336973
 20
160.6066538534
 30
0.0
 10
265.1430431079
 20
160.508705673
 30
0.0
 10
264.9997816713
 20
160.3581306134
 30
0.0
 10
264.88248182
 20
160.1979537405
 30
0.0
  0
SPLINE
  5
355
100
AcDbEntity
  8
X23219003_BL2
100
AcDbSpline
 62
3
  6
CONTINUOUS
 70
0
 71
3
 72
8
 73
4
 74
0
 42
0.0000001
 43
0.0000001
 44
0.0000000001
 40
0.0
 40
0.0
 40
0.0
 40
0.0
 40
1.0
 40
1.0
 40
1.0
 40
1.0
 10
272.1309516038
 20
167.4181092529
 30
0.0
 10
272.0762265055
 20
167.381888311
 30
0.0
 10
272.0228806663
 20
167.3434307468
 30
0.0
 10
271.9716769053
 20
167.3023823866
 30
0.0
  0
SPLINE
  5
356
100
AcDbEntity
  8
X23219003_BL2
100
AcDbSpline
 62
3
  6
CONTINUOUS
 70
0
 71
3
 72
8
 73
4
 74
0
 42
0.0000001
 43
0.0000001
 44
0.0000000001
 40
0.0
 40
0.0
 40
0.0
 40
0.0
 40
1.0
 40
1.0
 40
1.0
 40
1.0
 10
271.9716769053
 20
167.3023823866
 30
0.0
 10
271.8387860725
 20
167.1958482049
 30
0.0
 10
271.7156002214
 20
167.0690775106
 30
0.0
 10
271.6319525935
 20
166.9207111408
 30
0.0
  0
SPLINE
  5
357
100
AcDbEntity
  8
X23219003_BL2
100
AcDbSpline
 62
3
  6
CONTINUOUS
 70
0
 71
3
 72
8
 73
4
 74
0
 42
0.0000001
 43
0.0000001
 44
0.0000000001
 40
0.0
 40
0.0
 40
0.0
 40
0.0
 40
1.0
 40
1.0
 40
1.0
 40
1.0
 10
272.1309555889
 20
314.3445112503
 30
0.0
 10
272.0761611996
 20
314.3807506888
 30
0.0
 10
272.0227468327
 20
314.4192296146
 30
0.0
 10
271.971475083
 20
314.4603018641
 30
0.0
  0
SPLINE
  5
358
100
AcDbEntity
  8
X23219003_BL2
100
AcDbSpline
 62
3
  6
CONTINUOUS
 70
0
 71
3
 72
8
 73
4
 74
0
 42
0.0000001
 43
0.0000001
 44
0.0000000001
 40
0.0
 40
0.0
 40
0.0
 40
0.0
 40
1.0
 40
1.0
 40
1.0
 40
1.0
 10
271.971475083
 20
314.4603018641
 30
0.0
 10
271.8387637796
 20
314.5666128794
 30
0.0
 10
271.7157210925
 20
314.6930524038
 30
0.0
 10
271.6319525935
 20
314.841029296
 30
0.0
  0
SPLINE
  5
359
100
AcDbEntity
  8
X23219003_BL2
100
AcDbSpline
 62
3
  6
CONTINUOUS
 70
0
 71
3
 72
21
 73
17
 74
0
 42
0.0000001
 43
0.0000001
 44
0.0000000001
 40
0.0
 40
0.0
 40
0.0
 40
0.0
 40
0.1882695114
 40
0.3718133608
 40
0.5436442909
 40
0.696741132
 40
0.7640383139
 40
0.824122031
 40
0.8762742826
 40
0.919859723
 40
0.9543942459
 40
0.9794219455
 40
0.9882756767
 40
0.9946626284
 40
0.9985669292
 40
1.0
 40
1.0
 40
1.0
 40
1.0
 10
220.9355179688
 20
160.6066538534
 30
0.0
 10
221.0285352871
 20
160.4839476459
 30
0.0
 10
221.1912722881
 20
160.225583804
 30
0.0
 10
221.385648717
 20
159.8252192128
 30
0.0
 10
221.5400010725
 20
159.4387923307
 30
0.0
 10
221.6448696618
 20
159.1355544515
 30
0.0
 10
221.7144494644
 20
158.9169684546
 30
0.0
 10
221.7572017504
 20
158.7764863705
 30
0.0
 10
221.7931889638
 20
158.6542572389
 30
0.0
 10
221.8227083991
 20
158.5518135419
 30
0.0
 10
221.8459621551
 20
158.4709075115
 30
0.0
 10
221.8613518667
 20
158.4167192268
 30
0.0
 10
221.8710716723
 20
158.3857805041
 30
0.0
 10
221.8754986365
 20
158.3698761737
 30
0.0
 10
221.8792600782
 20
158.3626121179
 30
0.0
 10
221.8803884329
 20
158.3566538534
 30
0.0
 10
221.8815604787
 20
158.3566538534
 30
0.0
  0
SPLINE
  5
35A
100
AcDbEntity
  8
X23219003_BL2
100
AcDbSpline
 62
3
  6
CONTINUOUS
 70
0
 71
3
 72
21
 73
17
 74
0
 42
0.0000001
 43
0.0000001
 44
0.0000000001
 40
0.0
 40
0.0
 40
0.0
 40
0.0
 40
0.0014330708
 40
0.0053373716
 40
0.0117243233
 40
0.0205780545
 40
0.0456057541
 40
0.080140277
 40
0.1237257174
 40
0.175877969
 40
0.2359616861
 40
0.303258868
 40
0.4563557091
 40
0.6281866392
 40
0.8117304886
 40
1.0
 40
1.0
 40
1.0
 40
1.0
 10
189.8823447083
 20
158.3566538534
 30
0.0
 10
189.8835167541
 20
158.3566538534
 30
0.0
 10
189.8846451088
 20
158.3626121179
 30
0.0
 10
189.8884065506
 20
158.3698761737
 30
0.0
 10
189.8928335147
 20
158.3857805041
 30
0.0
 10
189.9025533204
 20
158.4167192268
 30
0.0
 10
189.917943032
 20
158.4709075115
 30
0.0
 10
189.9411967879
 20
158.5518135419
 30
0.0
 10
189.9707162233
 20
158.6542572389
 30
0.0
 10
190.0067034367
 20
158.7764863705
 30
0.0
 10
190.0494557227
 20
158.9169684546
 30
0.0
 10
190.1190355253
 20
159.1355544515
 30
0.0
 10
190.2239041146
 20
159.4387923307
 30
0.0
 10
190.3782564701
 20
159.8252192128
 30
0.0
 10
190.572632899
 20
160.225583804
 30
0.0
 10
190.7353698999
 20
160.4839476459
 30
0.0
 10
190.8283872182
 20
160.6066538534
 30
0.0
  0
SPLINE
  5
35B
100
AcDbEntity
  8
X23219003_BL2
100
AcDbSpline
 62
3
  6
CONTINUOUS
 70
0
 71
3
 72
8
 73
4
 74
0
 42
0.0000001
 43
0.0000001
 44
0.0000000001
 40
0.0
 40
0.0
 40
0.0
 40
0.0
 40
1.0
 40
1.0
 40
1.0
 40
1.0
 10
266.0763803019
 20
160.4592483398
 30
0.0
 10
265.9095970888
 20
160.5354005016
 30
0.0
 10
265.7374441348
 20
160.6018575897
 30
0.0
 10
265.5606850988
 20
160.6505611328
 30
0.0
  0
SPLINE
  5
35C
100
AcDbEntity
  8
X23219003_BL2
100
AcDbSpline
 62
3
  6
CONTINUOUS
 70
0
 71
3
 72
8
 73
4
 74
0
 42
0.0000001
 43
0.0000001
 44
0.0000000001
 40
0.0
 40
0.0
 40
0.0
 40
0.0
 40
1.0
 40
1.0
 40
1.0
 40
1.0
 10
271.5881863524
 20
315.0856974201
 30
0.0
 10
271.636946283
 20
315.2624659975
 30
0.0
 10
271.7034730853
 20
315.4346196215
 30
0.0
 10
271.7796978119
 20
315.601396274
 30
0.0
  0
SPLINE
  5
35D
100
AcDbEntity
  8
X23219003_BL2
100
AcDbSpline
 62
3
  6
CONTINUOUS
 70
0
 71
3
 72
20
 73
16
 74
0
 42
0.0000001
 43
0.0000001
 44
0.0000000001
 40
0.0
 40
0.0
 40
0.0
 40
0.0
 40
0.0017040978
 40
0.0057854918
 40
0.021321335
 40
0.0466167678
 40
0.0813992348
 40
0.1252078086
 40
0.1775504363
 40
0.23778411
 40
0.3051785512
 40
0.458276413
 40
0.629786506
 40
0.8126653248
 40
1.0
 40
1.0
 40
1.0
 40
1.0
 10
221.8803678526
 20
323.4166538534
 30
0.0
 10
221.8789581892
 20
323.4166538534
 30
0.0
 10
221.8762614551
 20
323.4112614134
 30
0.0
 10
221.8690629048
 20
323.3969447333
 30
0.0
 10
221.8566941073
 20
323.3601079417
 30
0.0
 10
221.837284223
 20
323.3016692935
 30
0.0
 10
221.8116132106
 20
323.2192135473
 30
0.0
 10
221.7793474696
 20
323.1159880123
 30
0.0
 10
221.7404782496
 20
322.9925416223
 30
0.0
 10
221.6946096753
 20
322.850924754
 30
0.0
 10
221.620373278
 20
322.6308747062
 30
0.0
 10
221.5090710196
 20
322.326225164
 30
0.0
 10
221.3456475664
 20
321.9392155357
 30
0.0
 10
221.1398346323
 20
321.540591261
 30
0.0
 10
220.9669556142
 20
321.2859586254
 30
0.0
 10
220.8680560364
 20
321.1666538534
 30
0.0
  0
SPLINE
  5
35E
100
AcDbEntity
  8
X23219003_BL2
100
AcDbSpline
 62
3
  6
CONTINUOUS
 70
0
 71
3
 72
8
 73
4
 74
0
 42
0.0000001
 43
0.0000001
 44
0.0000000001
 40
0.0
 40
0.0
 40
0.0
 40
0.0
 40
1.0
 40
1.0
 40
1.0
 40
1.0
 10
265.2819525935
 20
321.1666538534
 30
0.0
 10
265.1424521669
 20
321.2532607516
 30
0.0
 10
265.0233427265
 20
321.3737975694
 30
0.0
 10
264.922197129
 20
321.5031447454
 30
0.0
  0
SPLINE
  5
35F
100
AcDbEntity
  8
X23219003_BL2
100
AcDbSpline
 62
3
  6
CONTINUOUS
 70
0
 71
3
 72
8
 73
4
 74
0
 42
0.0000001
 43
0.0000001
 44
0.0000000001
 40
0.0
 40
0.0
 40
0.0
 40
0.0
 40
1.0
 40
1.0
 40
1.0
 40
1.0
 10
264.922197129
 20
321.5031447454
 30
0.0
 10
264.8812477187
 20
321.5555117363
 30
0.0
 10
264.8428917384
 20
321.6099708867
 30
0.0
 10
264.8067908703
 20
321.6657909841
 30
0.0
  0
SPLINE
  5
360
100
AcDbEntity
  8
X23219003_BL2
100
AcDbSpline
 62
3
  6
CONTINUOUS
 70
0
 71
3
 72
20
 73
16
 74
0
 42
0.0000001
 43
0.0000001
 44
0.0000000001
 40
0.0
 40
0.0
 40
0.0
 40
0.0
 40
0.1873346752
 40
0.370213494
 40
0.541723587
 40
0.6948214488
 40
0.76221589
 40
0.8224495637
 40
0.8747921914
 40
0.9186007652
 40
0.9533832322
 40
0.978678665
 40
0.9942145082
 40
0.9982959022
 40
1.0
 40
1.0
 40
1.0
 40
1.0
 10
190.8958491507
 20
321.1666538534
 30
0.0
 10
190.7969495729
 20
321.2859586254
 30
0.0
 10
190.6240705548
 20
321.540591261
 30
0.0
 10
190.4182576207
 20
321.9392155357
 30
0.0
 10
190.2548341675
 20
322.326225164
 30
0.0
 10
190.1435319091
 20
322.6308747062
 30
0.0
 10
190.0692955118
 20
322.850924754
 30
0.0
 10
190.0234269375
 20
322.9925416223
 30
0.0
 10
189.9845577175
 20
323.1159880123
 30
0.0
 10
189.9522919764
 20
323.2192135473
 30
0.0
 10
189.9266209641
 20
323.3016692935
 30
0.0
 10
189.9072110798
 20
323.3601079417
 30
0.0
 10
189.8948422822
 20
323.3969447333
 30
0.0
 10
189.887643732
 20
323.4112614134
 30
0.0
 10
189.8849469979
 20
323.4166538534
 30
0.0
 10
189.8835373345
 20
323.4166538534
 30
0.0
  0
SPLINE
  5
361
100
AcDbEntity
  8
X23219003_BL2
100
AcDbSpline
 62
7
  6
CONTINUOUS
 70
0
 71
3
 72
9
 73
5
 74
0
 42
0.0000001
 43
0.0000001
 44
0.0000000001
 40
0.0
 40
0.0
 40
0.0
 40
0.0
 40
0.2559939015
 40
1.0
 40
1.0
 40
1.0
 40
1.0
 10
265.2819525935
 20
57.8664684242
 30
0.0
 10
265.2293790897
 20
57.8664684242
 30
0.0
 10
265.0241611269
 20
57.8655861453
 30
0.0
 10
264.8177770874
 20
57.8611093222
 30
0.0
 10
264.666652063
 20
57.8385695889
 30
0.0
  0
SPLINE
  5
362
100
AcDbEntity
  8
X23219003_BL2
100
AcDbSpline
 62
7
  6
CONTINUOUS
 70
0
 71
3
 72
11
 73
7
 74
0
 42
0.0000001
 43
0.0000001
 44
0.0000000001
 40
0.0
 40
0.0
 40
0.0
 40
0.0
 40
0.2556589633
 40
0.5023228733
 40
0.7447627196
 40
1.0
 40
1.0
 40
1.0
 40
1.0
 10
264.666652063
 20
57.8385695889
 30
0.0
 10
264.6167354778
 20
57.8311247166
 30
0.0
 10
264.5191846113
 20
57.8119250714
 30
0.0
 10
264.3804804154
 20
57.7599490548
 30
0.0
 10
264.2609066343
 20
57.668983708
 30
0.0
 10
264.2159511768
 20
57.5755761863
 30
0.0
 10
264.2070290342
 20
57.5259869578
 30
0.0
  0
SPLINE
  5
363
100
AcDbEntity
  8
X23219003_BL2
100
AcDbSpline
 62
7
  6
CONTINUOUS
 70
0
 71
3
 72
11
 73
7
 74
0
 42
0.0000001
 43
0.0000001
 44
0.0000000001
 40
0.0
 40
0.0
 40
0.0
 40
0.0
 40
0.2582075443
 40
0.50513537
 40
0.7434832208
 40
1.0
 40
1.0
 40
1.0
 40
1.0
 10
190.8958491507
 20
57.8664684242
 30
0.0
 10
190.7892367598
 20
57.8664684242
 30
0.0
 10
190.5804536302
 20
57.8616070611
 30
0.0
 10
190.2755849628
 20
57.8170690384
 30
0.0
 10
189.9903957846
 20
57.6760387454
 30
0.0
 10
189.8924248393
 20
57.4720091641
 30
0.0
 10
189.8835373345
 20
57.3664684242
 30
0.0
  0
SPLINE
  5
364
100
AcDbEntity
  8
X23219003_BL2
100
AcDbSpline
 62
7
  6
CONTINUOUS
 70
0
 71
3
 72
11
 73
7
 74
0
 42
0.0000001
 43
0.0000001
 44
0.0000000001
 40
0.0
 40
0.0
 40
0.0
 40
0.0
 40
0.2467811139
 40
0.4883044171
 40
0.7392732519
 40
1.0
 40
1.0
 40
1.0
 40
1.0
 10
221.8351011959
 20
57.5292856645
 30
0.0
 10
221.796269821
 20
57.6086432379
 30
0.0
 10
221.6673632936
 20
57.7426861985
 30
0.0
 10
221.4130133717
 20
57.8301766026
 30
0.0
 10
221.1447406591
 20
57.8629843342
 30
0.0
 10
220.9613973773
 20
57.8664684242
 30
0.0
 10
220.8680560364
 20
57.8664684242
 30
0.0
  0
SPLINE
  5
365
100
AcDbEntity
  8
X23219003_BL2
100
AcDbSpline
 62
7
  6
CONTINUOUS
 70
0
 71
3
 72
9
 73
5
 74
0
 42
0.0000001
 43
0.0000001
 44
0.0000000001
 40
0.0
 40
0.0
 40
0.0
 40
0.0
 40
0.4592136751
 40
1.0
 40
1.0
 40
1.0
 40
1.0
 10
265.4927426272
 20
56.4194218228
 30
0.0
 10
265.6724539369
 20
56.4813238164
 30
0.0
 10
266.0140771906
 20
56.7592592526
 30
0.0
 10
266.183339074
 20
57.1496087114
 30
0.0
 10
266.2387927299
 20
57.3664684242
 30
0.0
  0
SPLINE
  5
366
100
AcDbEntity
  8
X23219003_BL2
100
AcDbSpline
 62
7
  6
CONTINUOUS
 70
0
 71
3
 72
12
 73
8
 74
0
 42
0.0000001
 43
0.0000001
 44
0.0000000001
 40
0.0
 40
0.0
 40
0.0
 40
0.0
 40
0.1189270491
 40
0.2406614306
 40
0.4933305685
 40
0.7523336963
 40
1.0
 40
1.0
 40
1.0
 40
1.0
 10
266.2387927299
 20
57.3664684242
 30
0.0
 10
266.2579733288
 20
57.4019488235
 30
0.0
 10
266.2857769309
 20
57.4812169536
 30
0.0
 10
266.2627231604
 20
57.6549527311
 30
0.0
 10
266.0781471604
 20
57.8061112233
 30
0.0
 10
265.8250969432
 20
57.8587778506
 30
0.0
 10
265.6528319976
 20
57.8664684242
 30
0.0
 10
265.5688381964
 20
57.8664684242
 30
0.0
  0
SPLINE
  5
367
100
AcDbEntity
  8
X23219003_BL2
100
AcDbSpline
 62
3
  6
CONTINUOUS
 70
0
 71
3
 72
9
 73
5
 74
0
 42
0.0000001
 43
0.0000001
 44
0.0000000001
 40
0.0
 40
0.0
 40
0.0
 40
0.0
 40
0.1984038439
 40
1.0
 40
1.0
 40
1.0
 40
1.0
 10
271.5881863524
 20
59.6164684242
 30
0.0
 10
271.6023342445
 20
59.6164684242
 30
0.0
 10
271.6735915121
 20
59.6091156628
 30
0.0
 10
271.7411805657
 20
59.5809723954
 30
0.0
 10
271.7915724104
 20
59.5539908499
 30
0.0
  0
SPLINE
  5
368
100
AcDbEntity
  8
X23219003_BL2
100
AcDbSpline
 62
3
  6
CONTINUOUS
 70
0
 71
3
 72
9
 73
5
 74
0
 42
0.0000001
 43
0.0000001
 44
0.0000000001
 40
0.0
 40
0.0
 40
0.0
 40
0.0
 40
0.219103451
 40
1.0
 40
1.0
 40
1.0
 40
1.0
 10
271.7915724104
 20
59.5539908499
 30
0.0
 10
271.8133453171
 20
59.5423328788
 30
0.0
 10
271.9100646684
 20
59.4841891804
 30
0.0
 10
271.9963210907
 20
59.40973694
 30
0.0
 10
272.0581293072
 20
59.3470643904
 30
0.0
  0
SPLINE
  5
369
100
AcDbEntity
  8
X23219003_BL2
100
AcDbSpline
 62
3
  6
CONTINUOUS
 70
0
 71
3
 72
10
 73
6
 74
0
 42
0.0000001
 43
0.0000001
 44
0.0000000001
 40
0.0
 40
0.0
 40
0.0
 40
0.0
 40
0.2056429737
 40
0.4503919535
 40
1.0
 40
1.0
 40
1.0
 40
1.0
 10
272.0581293072
 20
59.3470643904
 30
0.0
 10
272.1623926569
 20
59.2413430102
 30
0.0
 10
272.3593193218
 20
58.9785920055
 30
0.0
 10
272.679992695
 20
58.3289223525
 30
0.0
 10
272.8102910379
 20
57.7605636672
 30
0.0
 10
272.8569382924
 20
57.3664684242
 30
0.0
  0
SPLINE
  5
36A
100
AcDbEntity
  8
X23219003_BL2
100
AcDbSpline
 62
3
  6
CONTINUOUS
 70
0
 71
3
 72
9
 73
5
 74
0
 42
0.0000001
 43
0.0000001
 44
0.0000000001
 40
0.0
 40
0.0
 40
0.0
 40
0.0
 40
0.5400539942
 40
1.0
 40
1.0
 40
1.0
 40
1.0
 10
272.8569382924
 20
57.3664684242
 30
0.0
 10
272.9109970666
 20
57.1519072446
 30
0.0
 10
273.0764041997
 20
56.7651049837
 30
0.0
 10
273.409021323
 20
56.485232928
 30
0.0
 10
273.5856014015
 20
56.4194218228
 30
0.0
  0
SPLINE
  5
36B
100
AcDbEntity
  8
X23219003_BL2
100
AcDbSpline
 62
3
  6
CONTINUOUS
 70
0
 71
3
 72
14
 73
10
 74
0
 42
0.0000001
 43
0.0000001
 44
0.0000000001
 40
0.0
 40
0.0
 40
0.0
 40
0.0
 40
0.3325597121
 40
0.4816281042
 40
0.6122583537
 40
0.7223809197
 40
0.815151631
 40
0.9019639803
 40
1.0
 40
1.0
 40
1.0
 40
1.0
 10
221.8803678526
 20
57.3664684242
 30
0.0
 10
221.8747062876
 20
57.6690129491
 30
0.0
 10
221.8464941207
 20
58.1077270661
 30
0.0
 10
221.7522603278
 20
58.657305017
 30
0.0
 10
221.6572450203
 20
59.0000349902
 30
0.0
 10
221.5307274411
 20
59.277750656
 30
0.0
 10
221.3597743604
 20
59.4854554879
 30
0.0
 10
221.1278554489
 20
59.602721239
 30
0.0
 10
220.9572594267
 20
59.6164684242
 30
0.0
 10
220.8680560364
 20
59.6164684242
 30
0.0
  0
SPLINE
  5
36C
100
AcDbEntity
  8
X23219003_BL2
100
AcDbSpline
 62
3
  6
CONTINUOUS
 70
0
 71
3
 72
14
 73
10
 74
0
 42
0.0000001
 43
0.0000001
 44
0.0000000001
 40
0.0
 40
0.0
 40
0.0
 40
0.0
 40
0.1297024217
 40
0.2313745366
 40
0.3239647693
 40
0.4248166185
 40
0.5428969442
 40
0.6799946255
 40
1.0
 40
1.0
 40
1.0
 40
1.0
 10
265.2819525935
 20
59.6164684242
 30
0.0
 10
265.1776625947
 20
59.6164684242
 30
0.0
 10
264.991283029
 20
59.6133066484
 30
0.0
 10
264.7341328212
 20
59.5477205813
 30
0.0
 10
264.5406778349
 20
59.3996928734
 30
0.0
 10
264.4061907493
 20
59.1841940544
 30
0.0
 10
264.3114425708
 20
58.9126936259
 30
0.0
 10
264.2214277037
 20
58.4581297308
 30
0.0
 10
264.2020036054
 20
58.0891775796
 30
0.0
 10
264.2019888197
 20
57.8318704329
 30
0.0
  0
SPLINE
  5
36D
100
AcDbEntity
  8
X23219003_BL2
100
AcDbSpline
 62
3
  6
CONTINUOUS
 70
0
 71
3
 72
14
 73
10
 74
0
 42
0.0000001
 43
0.0000001
 44
0.0000000001
 40
0.0
 40
0.0
 40
0.0
 40
0.0
 40
0.0980360197
 40
0.184848369
 40
0.2776190803
 40
0.3877416463
 40
0.5183718958
 40
0.6674402879
 40
1.0
 40
1.0
 40
1.0
 40
1.0
 10
190.8958491507
 20
59.6164684242
 30
0.0
 10
190.8066457604
 20
59.6164684242
 30
0.0
 10
190.6360497381
 20
59.602721239
 30
0.0
 10
190.4041308267
 20
59.4854554879
 30
0.0
 10
190.233177746
 20
59.277750656
 30
0.0
 10
190.1066601668
 20
59.0000349902
 30
0.0
 10
190.0116448593
 20
58.657305017
 30
0.0
 10
189.9174110664
 20
58.1077270661
 30
0.0
 10
189.8891988995
 20
57.6690129491
 30
0.0
 10
189.8835373345
 20
57.3664684242
 30
0.0
  0
SPLINE
  5
36E
100
AcDbEntity
  8
X23219003_BL2
100
AcDbSpline
 62
3
  6
CONTINUOUS
 70
0
 71
3
 72
9
 73
5
 74
0
 42
0.0000001
 43
0.0000001
 44
0.0000000001
 40
0.0
 40
0.0
 40
0.0
 40
0.0
 40
0.4592136751
 40
1.0
 40
1.0
 40
1.0
 40
1.0
 10
266.7309523983
 20
56.4194218228
 30
0.0
 10
266.910663708
 20
56.4813238164
 30
0.0
 10
267.2522869617
 20
56.7592592526
 30
0.0
 10
267.4215488452
 20
57.1496087114
 30
0.0
 10
267.477002501
 20
57.3664684242
 30
0.0
  0
SPLINE
  5
36F
100
AcDbEntity
  8
X23219003_BL2
100
AcDbSpline
 62
3
  6
CONTINUOUS
 70
0
 71
3
 72
11
 73
7
 74
0
 42
0.0000001
 43
0.0000001
 44
0.0000000001
 40
0.0
 40
0.0
 40
0.0
 40
0.0
 40
0.2628587552
 40
0.5123613662
 40
0.7517973201
 40
1.0
 40
1.0
 40
1.0
 40
1.0
 10
267.477002501
 20
57.3664684242
 30
0.0
 10
267.5119630074
 20
57.6574842195
 30
0.0
 10
267.4726791251
 20
58.2440394189
 30
0.0
 10
267.0854289383
 20
59.0160447061
 30
0.0
 10
266.4012478344
 20
59.5278282207
 30
0.0
 10
265.8456037402
 20
59.6164684242
 30
0.0
 10
265.5688381964
 20
59.6164684242
 30
0.0
  0
ENDBLK
  5
370
100
AcDbEntity
  8
0
  6
BYBLOCK
 62
0
100
AcDbBlockEnd
  0
BLOCK
  5
371
100
AcDbEntity
  8
X23100000_BL3
100
AcDbBlockBegin
  2
X23100000_BL3
 70
64
 10
300.9086448355
 20
185.8615611388
  3
X23100000_BL3
  1

  0
LINE
  5
372
100
AcDbEntity
  8
X23100000_BL3
100
AcDbLine
 62
7
  6
CONTINUOUS
 10
264.3819525935
 20
160.9066538534
 11
245.3540885485
 21
160.9066538534
  0
LINE
  5
373
100
AcDbEntity
  8
X23100000_BL3
100
AcDbLine
 62
7
  6
CONTINUOUS
 10
236.4098166385
 20
160.9066538534
 11
187.6319525935
 21
160.9066538534
  0
LINE
  5
374
100
AcDbEntity
  8
X23100000_BL3
100
AcDbLine
 62
7
  6
CENTER
 10
240.8819525935
 20
161.4066538534
 11
235.8818525935
 21
161.4066538534
  0
LINE
  5
375
100
AcDbEntity
  8
X23100000_BL3
100
AcDbLine
 62
7
  6
CENTER
 10
240.8819525935
 20
161.4066538534
 11
245.8820525935
 21
161.4066538534
  0
LINE
  5
376
100
AcDbEntity
  8
X23100000_BL3
100
AcDbLine
 62
7
  6
CONTINUOUS
 10
187.6319525935
 20
177.4066538534
 11
193.6569525935
 21
177.4066538534
  0
LINE
  5
377
100
AcDbEntity
  8
X23100000_BL3
100
AcDbLine
 62
7
  6
CONTINUOUS
 10
244.9819525935
 20
191.8066538534
 11
239.8819525935
 21
191.8066538534
  0
LINE
  5
378
100
AcDbEntity
  8
X23100000_BL3
100
AcDbLine
 62
7
  6
CONTINUOUS
 10
239.8819525935
 20
193.9066538534
 11
244.9819525935
 21
193.9066538534
  0
LINE
  5
379
100
AcDbEntity
  8
X23100000_BL3
100
AcDbLine
 62
7
  6
CENTER
 10
240.8819525935
 20
199.4066538534
 11
232.3819525935
 21
199.4066538534
  0
LINE
  5
37A
100
AcDbEntity
  8
X23100000_BL3
100
AcDbLine
 62
7
  6
CENTER
 10
240.8819525935
 20
199.4066538534
 11
249.3819525935
 21
199.4066538534
  0
LINE
  5
37B
100
AcDbEntity
  8
X23100000_BL3
100
AcDbLine
 62
7
  6
CONTINUOUS
 10
195.6569525935
 20
308.4066538534
 11
195.6569525935
 21
262.4066538534
  0
LINE
  5
37C
100
AcDbEntity
  8
X23100000_BL3
100
AcDbLine
 62
7
  6
CONTINUOUS
 10
195.6569525935
 20
226.9066538534
 11
195.6569525935
 21
220.4066538534
  0
LINE
  5
37D
100
AcDbEntity
  8
X23100000_BL3
100
AcDbLine
 62
7
  6
CONTINUOUS
 10
195.6569525935
 20
215.4066538534
 11
195.6569525935
 21
179.4066538534
  0
LINE
  5
37E
100
AcDbEntity
  8
X23100000_BL3
100
AcDbLine
 62
7
  6
CONTINUOUS
 10
200.9569525935
 20
215.4066538534
 11
195.6569525935
 21
215.4066538534
  0
LINE
  5
37F
100
AcDbEntity
  8
X23100000_BL3
100
AcDbLine
 62
7
  6
CONTINUOUS
 10
200.6569525935
 20
220.4066538534
 11
200.6569525935
 21
215.4066538534
  0
LINE
  5
380
100
AcDbEntity
  8
X23100000_BL3
100
AcDbLine
 62
9
  6
CONTINUOUS
 10
200.9569525935
 20
220.4066538534
 11
200.9569525935
 21
215.4066538534
  0
LINE
  5
381
100
AcDbEntity
  8
X23100000_BL3
100
AcDbLine
 62
7
  6
CONTINUOUS
 10
208.7569525935
 20
166.9066538534
 11
208.7569525935
 21
188.4066538534
  0
LINE
  5
382
100
AcDbEntity
  8
X23100000_BL3
100
AcDbLine
 62
9
  6
CONTINUOUS
 10
200.9569525935
 20
220.4066538534
 11
200.6569525935
 21
220.4066538534
  0
LINE
  5
383
100
AcDbEntity
  8
X23100000_BL3
100
AcDbLine
 62
7
  6
CONTINUOUS
 10
195.6569525935
 20
220.4066538534
 11
196.6569525935
 21
220.4066538534
  0
LINE
  5
384
100
AcDbEntity
  8
X23100000_BL3
100
AcDbLine
 62
7
  6
CONTINUOUS
 10
212.8819525935
 20
203.9066538534
 11
212.8819525935
 21
224.9066538534
  0
LINE
  5
385
100
AcDbEntity
  8
X23100000_BL3
100
AcDbLine
 62
7
  6
CONTINUOUS
 10
215.0069525935
 20
188.4066538534
 11
215.0069525935
 21
166.9066538534
  0
LINE
  5
386
100
AcDbEntity
  8
X23100000_BL3
100
AcDbLine
 62
7
  6
CONTINUOUS
 10
187.6319525935
 20
228.9066538534
 11
193.6569525935
 21
228.9066538534
  0
LINE
  5
387
100
AcDbEntity
  8
X23100000_BL3
100
AcDbLine
 62
7
  6
CONTINUOUS
 10
218.8819525935
 20
224.9066538534
 11
218.8819525935
 21
203.9066538534
  0
LINE
  5
388
100
AcDbEntity
  8
X23100000_BL3
100
AcDbLine
 62
7
  6
CONTINUOUS
 10
225.2819525935
 20
272.3066538534
 11
225.2819525935
 21
274.4066538534
  0
LINE
  5
389
100
AcDbEntity
  8
X23100000_BL3
100
AcDbLine
 62
7
  6
CENTER
 10
240.8819525935
 20
238.9066538534
 11
235.8818525935
 21
238.9066538534
  0
LINE
  5
38A
100
AcDbEntity
  8
X23100000_BL3
100
AcDbLine
 62
7
  6
CENTER
 10
240.8819525935
 20
238.9066538534
 11
245.8820525935
 21
238.9066538534
  0
LINE
  5
38B
100
AcDbEntity
  8
X23100000_BL3
100
AcDbLine
 62
7
  6
CENTER
 10
240.8819525935
 20
241.4066538534
 11
235.8818525935
 21
241.4066538534
  0
LINE
  5
38C
100
AcDbEntity
  8
X23100000_BL3
100
AcDbLine
 62
7
  6
CENTER
 10
240.8819525935
 20
241.4066538534
 11
245.8820525935
 21
241.4066538534
  0
LINE
  5
38D
100
AcDbEntity
  8
X23100000_BL3
100
AcDbLine
 62
7
  6
CONTINUOUS
 10
230.3819525935
 20
274.4066538534
 11
230.3819525935
 21
272.3066538534
  0
LINE
  5
38E
100
AcDbEntity
  8
X23100000_BL3
100
AcDbLine
 62
7
  6
CONTINUOUS
 10
237.3819525935
 20
238.9066538534
 11
237.3819525935
 21
241.4066538534
  0
LINE
  5
38F
100
AcDbEntity
  8
X23100000_BL3
100
AcDbLine
 62
7
  6
CONTINUOUS
 10
237.3819525935
 20
278.6566538534
 11
237.3819525935
 21
281.1566538534
  0
LINE
  5
390
100
AcDbEntity
  8
X23100000_BL3
100
AcDbLine
 62
7
  6
CONTINUOUS
 10
239.8819525935
 20
191.8066538534
 11
239.8819525935
 21
193.9066538534
  0
LINE
  5
391
100
AcDbEntity
  8
X23100000_BL3
100
AcDbLine
 62
7
  6
CENTER
 10
240.8819525935
 20
325.9066538534
 11
240.8819525935
 21
296.2899471335
  0
LINE
  5
392
100
AcDbEntity
  8
X23100000_BL3
100
AcDbLine
 62
7
  6
CENTER
 10
240.8819525935
 20
286.1983508632
 11
240.8819525935
 21
231.2988439287
  0
LINE
  5
393
100
AcDbEntity
  8
X23100000_BL3
100
AcDbLine
 62
7
  6
CENTER
 10
240.8819525935
 20
281.1566538534
 11
240.8819525935
 21
276.1565538534
  0
LINE
  5
394
100
AcDbEntity
  8
X23100000_BL3
100
AcDbLine
 62
7
  6
CENTER
 10
240.8819525935
 20
276.1565538534
 11
240.8819525935
 21
273.6565538534
  0
LINE
  5
395
100
AcDbEntity
  8
X23100000_BL3
100
AcDbLine
 62
7
  6
CENTER
 10
240.8819525935
 20
241.4066538534
 11
240.8819525935
 21
236.4065538534
  0
LINE
  5
396
100
AcDbEntity
  8
X23100000_BL3
100
AcDbLine
 62
7
  6
CENTER
 10
240.8819525935
 20
236.4065538534
 11
240.8819525935
 21
233.9065538534
  0
LINE
  5
397
100
AcDbEntity
  8
X23100000_BL3
100
AcDbLine
 62
7
  6
CENTER
 10
240.8819525935
 20
221.8188595536
 11
240.8819525935
 21
186.727959632
  0
LINE
  5
398
100
AcDbEntity
  8
X23100000_BL3
100
AcDbLine
 62
7
  6
CENTER
 10
240.8819525935
 20
199.4066538534
 11
240.8819525935
 21
190.9066538534
  0
LINE
  5
399
100
AcDbEntity
  8
X23100000_BL3
100
AcDbLine
 62
7
  6
CENTER
 10
240.8819525935
 20
177.3336009222
 11
240.8819525935
 21
155.9066538534
  0
LINE
  5
39A
100
AcDbEntity
  8
X23100000_BL3
100
AcDbLine
 62
7
  6
CENTER
 10
240.8819525935
 20
161.4066538534
 11
240.8819525935
 21
156.4065538534
  0
LINE
  5
39B
100
AcDbEntity
  8
X23100000_BL3
100
AcDbLine
 62
7
  6
CENTER
 10
240.8819525935
 20
161.4066538534
 11
240.8819525935
 21
166.4067538534
  0
LINE
  5
39C
100
AcDbEntity
  8
X23100000_BL3
100
AcDbLine
 62
7
  6
CENTER
 10
240.8819525935
 20
199.4066538534
 11
240.8819525935
 21
207.9066538534
  0
LINE
  5
39D
100
AcDbEntity
  8
X23100000_BL3
100
AcDbLine
 62
7
  6
CENTER
 10
240.8819525935
 20
241.4066538534
 11
240.8819525935
 21
243.9067538534
  0
LINE
  5
39E
100
AcDbEntity
  8
X23100000_BL3
100
AcDbLine
 62
7
  6
CENTER
 10
240.8819525935
 20
243.9067538534
 11
240.8819525935
 21
246.4067538534
  0
LINE
  5
39F
100
AcDbEntity
  8
X23100000_BL3
100
AcDbLine
 62
7
  6
CENTER
 10
240.8819525935
 20
281.1566538534
 11
240.8819525935
 21
283.6567538534
  0
LINE
  5
3A0
100
AcDbEntity
  8
X23100000_BL3
100
AcDbLine
 62
7
  6
CENTER
 10
240.8819525935
 20
283.6567538534
 11
240.8819525935
 21
286.1567538534
  0
LINE
  5
3A1
100
AcDbEntity
  8
X23100000_BL3
100
AcDbLine
 62
7
  6
CONTINUOUS
 10
244.3819525935
 20
281.1566538534
 11
244.3819525935
 21
278.6566538534
  0
LINE
  5
3A2
100
AcDbEntity
  8
X23100000_BL3
100
AcDbLine
 62
7
  6
CONTINUOUS
 10
244.3819525935
 20
241.4066538534
 11
244.3819525935
 21
238.9066538534
  0
LINE
  5
3A3
100
AcDbEntity
  8
X23100000_BL3
100
AcDbLine
 62
7
  6
CONTINUOUS
 10
244.7569525935
 20
294.8066538534
 11
244.7569525935
 21
315.7066538534
  0
LINE
  5
3A4
100
AcDbEntity
  8
X23100000_BL3
100
AcDbLine
 62
7
  6
CONTINUOUS
 10
244.9819525935
 20
193.9066538534
 11
244.9819525935
 21
191.8066538534
  0
LINE
  5
3A5
100
AcDbEntity
  8
X23100000_BL3
100
AcDbLine
 62
7
  6
CONTINUOUS
 10
251.0069525935
 20
315.7066538534
 11
251.0069525935
 21
294.8066538534
  0
LINE
  5
3A6
100
AcDbEntity
  8
X23100000_BL3
100
AcDbLine
 62
7
  6
CONTINUOUS
 10
187.6319525935
 20
260.4066538534
 11
193.6569525935
 21
260.4066538534
  0
LINE
  5
3A7
100
AcDbEntity
  8
X23100000_BL3
100
AcDbLine
 62
7
  6
CONTINUOUS
 10
230.3819525935
 20
272.3066538534
 11
225.2819525935
 21
272.3066538534
  0
LINE
  5
3A8
100
AcDbEntity
  8
X23100000_BL3
100
AcDbLine
 62
7
  6
CONTINUOUS
 10
225.2819525935
 20
274.4066538534
 11
230.3819525935
 21
274.4066538534
  0
LINE
  5
3A9
100
AcDbEntity
  8
X23100000_BL3
100
AcDbLine
 62
7
  6
CONTINUOUS
 10
262.7569525935
 20
211.0066538534
 11
262.7569525935
 21
231.4066538534
  0
LINE
  5
3AA
100
AcDbEntity
  8
X23100000_BL3
100
AcDbLine
 62
7
  6
CENTER
 10
240.8819525935
 20
278.6566538534
 11
235.8818525935
 21
278.6566538534
  0
LINE
  5
3AB
100
AcDbEntity
  8
X23100000_BL3
100
AcDbLine
 62
7
  6
CENTER
 10
240.8819525935
 20
278.6566538534
 11
245.8820525935
 21
278.6566538534
  0
LINE
  5
3AC
100
AcDbEntity
  8
X23100000_BL3
100
AcDbLine
 62
7
  6
CENTER
 10
240.8819525935
 20
281.1566538534
 11
235.8818525935
 21
281.1566538534
  0
LINE
  5
3AD
100
AcDbEntity
  8
X23100000_BL3
100
AcDbLine
 62
7
  6
CENTER
 10
240.8819525935
 20
281.1566538534
 11
245.8820525935
 21
281.1566538534
  0
LINE
  5
3AE
100
AcDbEntity
  8
X23100000_BL3
100
AcDbLine
 62
7
  6
CONTINUOUS
 10
269.0069525935
 20
231.4066538534
 11
269.0069525935
 21
211.0066538534
  0
LINE
  5
3AF
100
AcDbEntity
  8
X23100000_BL3
100
AcDbLine
 62
7
  6
CONTINUOUS
 10
271.3819525935
 20
313.9066538534
 11
271.3819525935
 21
167.9066538534
  0
LINE
  5
3B0
100
AcDbEntity
  8
X23100000_BL3
100
AcDbLine
 62
7
  6
CONTINUOUS
 10
187.6319525935
 20
310.4066538534
 11
193.6569525935
 21
310.4066538534
  0
LINE
  5
3B1
100
AcDbEntity
  8
X23100000_BL3
100
AcDbLine
 62
7
  6
CONTINUOUS
 10
271.3819525935
 20
167.9066538534
 11
264.3819525935
 21
160.9066538534
  0
LINE
  5
3B2
100
AcDbEntity
  8
X23100000_BL3
100
AcDbLine
 62
7
  6
CONTINUOUS
 10
187.6319525935
 20
320.9066538534
 11
264.3819525935
 21
320.9066538534
  0
LINE
  5
3B3
100
AcDbEntity
  8
X23100000_BL3
100
AcDbLine
 62
7
  6
CONTINUOUS
 10
264.3819525935
 20
320.9066538534
 11
271.3819525935
 21
313.9066538534
  0
LINE
  5
3B4
100
AcDbEntity
  8
X23100000_BL3
100
AcDbLine
 62
3
  6
CONTINUOUS
 10
421.4363255222
 20
310.4066538534
 11
421.4363255222
 21
261.4066538534
  0
LINE
  5
3B5
100
AcDbEntity
  8
X23100000_BL3
100
AcDbLine
 62
7
  6
CONTINUOUS
 10
423.1863255222
 20
310.3959948334
 11
423.1863255222
 21
290.2983683552
  0
LINE
  5
3B6
100
AcDbEntity
  8
X23100000_BL3
100
AcDbLine
 62
7
  6
CONTINUOUS
 10
423.1863255222
 20
281.5149393516
 11
423.1863255222
 21
261.4173128734
  0
LINE
  5
3B7
100
AcDbEntity
  8
X23100000_BL3
100
AcDbLine
 62
9
  6
CONTINUOUS
 10
421.4363255222
 20
262.4066538534
 11
423.1863255222
 21
262.4066538534
  0
LINE
  5
3B8
100
AcDbEntity
  8
X23100000_BL3
100
AcDbLine
 62
9
  6
CONTINUOUS
 10
421.4363255222
 20
308.4066538534
 11
423.1863255222
 21
308.4066538534
  0
LINE
  5
3B9
100
AcDbEntity
  8
X23100000_BL3
100
AcDbLine
 62
7
  6
CONTINUOUS
 10
178.6569525935
 20
57.5456720974
 11
178.6569525935
 21
48.5664684242
  0
LINE
  5
3BA
100
AcDbEntity
  8
X23100000_BL3
100
AcDbLine
 62
7
  6
CONTINUOUS
 10
189.8819525935
 20
45.8164684242
 11
221.8819525935
 21
45.8164684242
  0
LINE
  5
3BB
100
AcDbEntity
  8
X23100000_BL3
100
AcDbLine
 62
7
  6
CONTINUOUS
 10
265.1319525935
 20
45.8164684242
 11
265.4927426272
 21
45.8164684242
  0
LINE
  5
3BC
100
AcDbEntity
  8
X23100000_BL3
100
AcDbLine
 62
3
  6
CONTINUOUS
 10
189.8819525935
 20
47.5664684242
 11
221.8819525935
 21
47.5664684242
  0
LINE
  5
3BD
100
AcDbEntity
  8
X23100000_BL3
100
AcDbLine
 62
3
  6
CONTINUOUS
 10
265.1319525935
 20
47.5664684242
 11
265.4927426272
 21
47.5664684242
  0
LINE
  5
3BE
100
AcDbEntity
  8
X23100000_BL3
100
AcDbLine
 62
9
  6
CONTINUOUS
 10
178.6569525935
 20
48.5664684242
 11
179.0819525935
 21
48.5664684242
  0
LINE
  5
3BF
100
AcDbEntity
  8
X23100000_BL3
100
AcDbLine
 62
7
  6
CONTINUOUS
 10
179.0819525935
 20
57.5456720974
 11
178.6569525935
 21
57.5456720974
  0
ARC
  5
3C0
100
AcDbEntity
  8
X23100000_BL3
100
AcDbCircle
 62
7
  6
CONTINUOUS
 10
186.6819525935
 20
164.9066538534
 40
2.125
100
AcDbArc
 50
296.57224425
 51
63.42775575
  0
ARC
  5
3C1
100
AcDbEntity
  8
X23100000_BL3
100
AcDbCircle
 62
7
  6
CONTINUOUS
 10
193.6569525935
 20
179.4066538534
 40
2.0
100
AcDbArc
 50
270.0
 51
360.0
  0
ARC
  5
3C2
100
AcDbEntity
  8
X23100000_BL3
100
AcDbCircle
 62
9
  6
CONTINUOUS
 10
198.6569525935
 20
220.4066538534
 40
2.3
100
AcDbArc
 50
0.0
 51
180.0
  0
ARC
  5
3C3
100
AcDbEntity
  8
X23100000_BL3
100
AcDbCircle
 62
7
  6
CONTINUOUS
 10
198.6569525935
 20
220.4066538534
 40
2.0
100
AcDbArc
 50
0.0
 51
180.0
  0
ARC
  5
3C4
100
AcDbEntity
  8
X23100000_BL3
100
AcDbCircle
 62
7
  6
CONTINUOUS
 10
193.6569525935
 20
226.9066538534
 40
2.0
100
AcDbArc
 50
0.0
 51
90.0
  0
ARC
  5
3C5
100
AcDbEntity
  8
X23100000_BL3
100
AcDbCircle
 62
7
  6
CONTINUOUS
 10
211.8819525935
 20
166.9066538534
 40
3.125
100
AcDbArc
 50
180.0
 51
360.0
  0
ARC
  5
3C6
100
AcDbEntity
  8
X23100000_BL3
100
AcDbCircle
 62
7
  6
CONTINUOUS
 10
211.8819525935
 20
188.4066538534
 40
3.125
100
AcDbArc
 50
0.0
 51
180.0
  0
ARC
  5
3C7
100
AcDbEntity
  8
X23100000_BL3
100
AcDbCircle
 62
7
  6
CONTINUOUS
 10
215.8819525935
 20
203.9066538534
 40
3.0
100
AcDbArc
 50
180.0
 51
360.0
  0
ARC
  5
3C8
100
AcDbEntity
  8
X23100000_BL3
100
AcDbCircle
 62
7
  6
CONTINUOUS
 10
215.8819525935
 20
224.9066538534
 40
3.0
100
AcDbArc
 50
0.0
 51
180.0
  0
ARC
  5
3C9
100
AcDbEntity
  8
X23100000_BL3
100
AcDbCircle
 62
7
  6
CONTINUOUS
 10
185.6319525935
 20
315.4066538534
 40
2.125
100
AcDbArc
 50
340.5428074428
 51
19.4571925572
  0
ARC
  5
3CA
100
AcDbEntity
  8
X23100000_BL3
100
AcDbCircle
 62
7
  6
CONTINUOUS
 10
185.6319525935
 20
243.9066538534
 40
2.125
100
AcDbArc
 50
340.5428074428
 51
19.4571925572
  0
ARC
  5
3CB
100
AcDbEntity
  8
X23100000_BL3
100
AcDbCircle
 62
7
  6
CONTINUOUS
 10
193.6569525935
 20
308.4066538534
 40
2.0
100
AcDbArc
 50
0.0
 51
90.0
  0
ARC
  5
3CC
100
AcDbEntity
  8
X23100000_BL3
100
AcDbCircle
 62
7
  6
CONTINUOUS
 10
193.6569525935
 20
262.4066538534
 40
2.0
100
AcDbArc
 50
270.0
 51
360.0
  0
CIRCLE
  5
3CD
100
AcDbEntity
  8
X23100000_BL3
100
AcDbCircle
 62
7
  6
CONTINUOUS
 10
198.8819525935
 20
289.9066538534
 40
1.5
  0
ARC
  5
3CE
100
AcDbEntity
  8
X23100000_BL3
100
AcDbCircle
 62
7
  6
CONTINUOUS
 10
240.8819525935
 20
161.4066538534
 40
3.5
100
AcDbArc
 50
6.3793702084
 51
173.6206297916
  0
CIRCLE
  5
3CF
100
AcDbEntity
  8
X23100000_BL3
100
AcDbCircle
 62
7
  6
CONTINUOUS
 10
230.3819525935
 20
188.4066538534
 40
1.5
  0
ARC
  5
3D0
100
AcDbEntity
  8
X23100000_BL3
100
AcDbCircle
 62
7
  6
CONTINUOUS
 10
236.4098166385
 20
161.9066538534
 40
1.0
100
AcDbArc
 50
270.0
 51
353.6206297916
  0
ARC
  5
3D1
100
AcDbEntity
  8
X23100000_BL3
100
AcDbCircle
 62
7
  6
CONTINUOUS
 10
245.3540885485
 20
161.9066538534
 40
1.0
100
AcDbArc
 50
186.3793702084
 51
270.0
  0
CIRCLE
  5
3D2
100
AcDbEntity
  8
X23100000_BL3
100
AcDbCircle
 62
7
  6
CONTINUOUS
 10
240.8819525935
 20
199.4066538534
 40
3.5
  0
ARC
  5
3D3
100
AcDbEntity
  8
X23100000_BL3
100
AcDbCircle
 62
7
  6
CONTINUOUS
 10
240.8819525935
 20
238.9066538534
 40
3.5
100
AcDbArc
 50
180.0
 51
360.0
  0
CIRCLE
  5
3D4
100
AcDbEntity
  8
X23100000_BL3
100
AcDbCircle
 62
7
  6
CONTINUOUS
 10
240.8819525935
 20
214.3066538534
 40
2.125
  0
ARC
  5
3D5
100
AcDbEntity
  8
X23100000_BL3
100
AcDbCircle
 62
7
  6
CONTINUOUS
 10
265.8819525935
 20
231.4066538534
 40
3.125
100
AcDbArc
 50
0.0
 51
180.0
  0
ARC
  5
3D6
100
AcDbEntity
  8
X23100000_BL3
100
AcDbCircle
 62
7
  6
CONTINUOUS
 10
265.8819525935
 20
211.0066538534
 40
3.125
100
AcDbArc
 50
180.0
 51
360.0
  0
CIRCLE
  5
3D7
100
AcDbEntity
  8
X23100000_BL3
100
AcDbCircle
 62
9
  6
CONTINUOUS
 10
240.8819525935
 20
260.4066538534
 40
9.65
  0
CIRCLE
  5
3D8
100
AcDbEntity
  8
X23100000_BL3
100
AcDbCircle
 62
7
  6
CONTINUOUS
 10
240.8819525935
 20
260.4066538534
 40
7.5
  0
ARC
  5
3D9
100
AcDbEntity
  8
X23100000_BL3
100
AcDbCircle
 62
7
  6
CONTINUOUS
 10
240.8819525935
 20
281.1566538534
 40
3.5
100
AcDbArc
 50
0.0
 51
180.0
  0
ARC
  5
3DA
100
AcDbEntity
  8
X23100000_BL3
100
AcDbCircle
 62
7
  6
CONTINUOUS
 10
240.8819525935
 20
278.6566538534
 40
3.5
100
AcDbArc
 50
180.0
 51
360.0
  0
ARC
  5
3DB
100
AcDbEntity
  8
X23100000_BL3
100
AcDbCircle
 62
7
  6
CONTINUOUS
 10
240.8819525935
 20
241.4066538534
 40
3.5
100
AcDbArc
 50
0.0
 51
180.0
  0
CIRCLE
  5
3DC
100
AcDbEntity
  8
X23100000_BL3
100
AcDbCircle
 62
7
  6
CONTINUOUS
 10
252.8819525935
 20
278.9066538534
 40
2.125
  0
ARC
  5
3DD
100
AcDbEntity
  8
X23100000_BL3
100
AcDbCircle
 62
7
  6
CONTINUOUS
 10
247.8819525935
 20
315.7066538534
 40
3.125
100
AcDbArc
 50
0.0
 51
180.0
  0
ARC
  5
3DE
100
AcDbEntity
  8
X23100000_BL3
100
AcDbCircle
 62
7
  6
CONTINUOUS
 10
247.8819525935
 20
294.8066538534
 40
3.125
100
AcDbArc
 50
180.0
 51
360.0
  0
ARC
  5
3DF
100
AcDbEntity
  8
X23100000_BL3
100
AcDbCircle
 62
7
  6
CONTINUOUS
 10
181.4069525935
 20
48.5664684242
 40
2.75
100
AcDbArc
 50
180.0
 51
212.1055060657
  0
ARC
  5
3E0
100
AcDbEntity
  8
X23100000_BL3
100
AcDbCircle
 62
7
  6
CONTINUOUS
 10
179.9569525935
 20
52.5664684242
 40
2.5
100
AcDbArc
 50
121.3322514976
 51
122.0321728092
  0
ARC
  5
3E1
100
AcDbEntity
  8
X23100000_BL3
100
AcDbCircle
 62
7
  6
CONTINUOUS
 10
179.9569525935
 20
52.5664684242
 40
2.5
100
AcDbArc
 50
237.9678271908
 51
238.6677485024
  0
ENDBLK
  5
3E2
100
AcDbEntity
  8
0
  6
BYBLOCK
 62
0
100
AcDbBlockEnd
  0
BLOCK
  5
3E3
100
AcDbEntity
  8
X23983006_BL4
100
AcDbBlockBegin
  2
X23983006_BL4
 70
64
 10
204.8819525935
 20
126.2027713861
  3
X23983006_BL4
  1

  0
LINE
  5
3E4
100
AcDbEntity
  8
X23983006_BL4
100
AcDbLine
 62
9
  6
CONTINUOUS
 10
215.0069525935
 20
172.4066538534
 11
210.8399924851
 21
172.4066538534
  0
LINE
  5
3E5
100
AcDbEntity
  8
X23983006_BL4
100
AcDbLine
 62
7
  6
CONTINUOUS
 10
215.0069525935
 20
173.4066538534
 11
210.3819525935
 21
173.4066538534
  0
LINE
  5
3E6
100
AcDbEntity
  8
X23983006_BL4
100
AcDbLine
 62
9
  6
CONTINUOUS
 10
210.3819525935
 20
173.9066538534
 11
215.0069525935
 21
173.9066538534
  0
LINE
  5
3E7
100
AcDbEntity
  8
X23983006_BL4
100
AcDbLine
 62
9
  6
CONTINUOUS
 10
208.8810739229
 20
170.0779162252
 11
209.1786944041
 21
169.7633974671
  0
LINE
  5
3E8
100
AcDbEntity
  8
X23983006_BL4
100
AcDbLine
 62
9
  6
CONTINUOUS
 10
210.1088175852
 20
170.8964119999
 11
210.2846731776
 21
170.5007166494
  0
LWPOLYLINE
  5
3E9
100
AcDbEntity
  8
X23983006_BL4
100
AcDbPolyline
 62
7
  6
CONTINUOUS
 90
22
 70
0
 10
218.8819525935
 20
205.9066538534
 10
218.1868664177
 20
205.9067073989
 10
218.1715860467
 20
205.9069570633
 10
218.1570228362
 20
205.9074216582
 10
218.1430008476
 20
205.9080804063
 10
218.1295443326
 20
205.9088981511
 10
218.1165724108
 20
205.9098522428
 10
218.104220999
 20
205.9109102615
 10
218.0926014662
 20
205.912040996
 10
218.0817088833
 20
205.9132257576
 10
218.0717042581
 20
205.9144285321
 10
218.0621970939
 20
205.9156808747
 10
218.0527945539
 20
205.9170164721
 10
218.0437220699
 20
205.9183868275
 10
218.0350110973
 20
205.9197724747
 10
218.0268377638
 20
205.9211331983
 10
218.0193783737
 20
205.9224280249
 10
218.0126467255
 20
205.9236447433
 10
218.0068402021
 20
205.9247384268
 10
218.0015701819
 20
205.9257718789
 10
217.9964998237
 20
205.9268003875
 10
217.9917183762
 20
205.9277978323
  0
LINE
  5
3EA
100
AcDbEntity
  8
X23983006_BL4
100
AcDbLine
 62
7
  6
CONTINUOUS
 10
217.9917183762
 20
205.9277978323
 11
217.9828693733
 21
205.929701419
  0
LINE
  5
3EB
100
AcDbEntity
  8
X23983006_BL4
100
AcDbLine
 62
7
  6
CONTINUOUS
 10
217.9828693733
 20
205.929701419
 11
217.9672823651
 21
205.9331313873
  0
LINE
  5
3EC
100
AcDbEntity
  8
X23983006_BL4
100
AcDbLine
 62
7
  6
CONTINUOUS
 10
217.0074272671
 20
206.5504937311
 11
217.4237166503
 21
206.1342043478
  0
LINE
  5
3ED
100
AcDbEntity
  8
X23983006_BL4
100
AcDbLine
 62
7
  6
CONTINUOUS
 10
217.4890593747
 20
206.1995470722
 11
216.1748473477
 21
207.5137590992
  0
LINE
  5
3EE
100
AcDbEntity
  8
X23983006_BL4
100
AcDbLine
 62
7
  6
CENTER
 10
205.8819525935
 20
141.8488791586
 11
205.8819525935
 21
164.04204388
  0
LINE
  5
3EF
100
AcDbEntity
  8
X23983006_BL4
100
AcDbLine
 62
7
  6
CONTINUOUS
 10
209.8819525935
 20
172.9066538534
 11
209.8819525935
 21
190.8030572654
  0
LINE
  5
3F0
100
AcDbEntity
  8
X23983006_BL4
100
AcDbLine
 62
9
  6
CONTINUOUS
 10
210.3819525935
 20
173.4066538534
 11
210.3819525935
 21
191.1387634951
  0
LINE
  5
3F1
100
AcDbEntity
  8
X23983006_BL4
100
AcDbLine
 62
9
  6
CONTINUOUS
 10
217.944898258
 20
205.8435353648
 11
217.9661534066
 21
205.9334662378
  0
LINE
  5
3F2
100
AcDbEntity
  8
X23983006_BL4
100
AcDbLine
 62
9
  6
CONTINUOUS
 10
216.8557212555
 20
206.6463367793
 11
216.8866694023
 21
206.7334089072
  0
LINE
  5
3F3
100
AcDbEntity
  8
X23983006_BL4
100
AcDbLine
 62
9
  6
CONTINUOUS
 10
217.0727699914
 20
206.6158364555
 11
217.0074272671
 21
206.5504937311
  0
LINE
  5
3F4
100
AcDbEntity
  8
X23983006_BL4
100
AcDbLine
 62
9
  6
CONTINUOUS
 10
217.4890593747
 20
206.1995470722
 11
217.4237166503
 21
206.1342043478
  0
LINE
  5
3F5
100
AcDbEntity
  8
X23983006_BL4
100
AcDbLine
 62
9
  6
CONTINUOUS
 10
218.2449859196
 20
205.7549161453
 11
218.1721977451
 21
205.6979843887
  0
LINE
  5
3F6
100
AcDbEntity
  8
X23983006_BL4
100
AcDbLine
 62
7
  6
CONTINUOUS
 10
190.8819525935
 20
48.5664684242
 11
190.8819525935
 21
56.3664684242
  0
LINE
  5
3F7
100
AcDbEntity
  8
X23983006_BL4
100
AcDbLine
 62
9
  6
CONTINUOUS
 10
191.8819525935
 20
47.5664684242
 11
191.8819525935
 21
57.3664684242
  0
LINE
  5
3F8
100
AcDbEntity
  8
X23983006_BL4
100
AcDbLine
 62
7
  6
CENTER
 10
205.8819525935
 20
52.4664684242
 11
205.8819525935
 21
44.8664684242
  0
LINE
  5
3F9
100
AcDbEntity
  8
X23983006_BL4
100
AcDbLine
 62
7
  6
CENTER
 10
205.8819525935
 20
52.4664684242
 11
205.8819525935
 21
60.0664684242
  0
LINE
  5
3FA
100
AcDbEntity
  8
X23983006_BL4
100
AcDbLine
 62
9
  6
CONTINUOUS
 10
190.8819525935
 20
48.5664684242
 11
193.8206209211
 21
48.5664684242
  0
LINE
  5
3FB
100
AcDbEntity
  8
X23983006_BL4
100
AcDbLine
 62
7
  6
CENTER
 10
205.8819525935
 20
52.4664684242
 11
198.2819525935
 21
52.4664684242
  0
LINE
  5
3FC
100
AcDbEntity
  8
X23983006_BL4
100
AcDbLine
 62
7
  6
CENTER
 10
205.8819525935
 20
52.4664684242
 11
213.4819525935
 21
52.4664684242
  0
LINE
  5
3FD
100
AcDbEntity
  8
X23983006_BL4
100
AcDbLine
 62
9
  6
CONTINUOUS
 10
190.8819525935
 20
56.3664684242
 11
193.8182214044
 21
56.3664726493
  0
LINE
  5
3FE
100
AcDbEntity
  8
X23983006_BL4
100
AcDbLine
 62
7
  6
CONTINUOUS
 10
191.8819525935
 20
57.3664684242
 11
196.7819525935
 21
57.3664684242
  0
ARC
  5
3FF
100
AcDbEntity
  8
X23983006_BL4
100
AcDbCircle
 62
9
  6
CONTINUOUS
 10
211.8819525935
 20
166.9066538534
 40
4.3660254038
100
AcDbArc
 50
44.2414492917
 51
113.9626011151
  0
ARC
  5
400
100
AcDbEntity
  8
X23983006_BL4
100
AcDbCircle
 62
9
  6
CONTINUOUS
 10
211.8819525935
 20
166.9066538534
 40
4.3660254038
100
AcDbArc
 50
133.4189262928
 51
135.7818046797
  0
ARC
  5
401
100
AcDbEntity
  8
X23983006_BL4
100
AcDbCircle
 62
9
  6
CONTINUOUS
 10
211.8819525935
 20
166.9066538534
 40
3.9330125409
100
AcDbArc
 50
133.4187353691
 51
142.699062062
  0
ARC
  5
402
100
AcDbEntity
  8
X23983006_BL4
100
AcDbCircle
 62
9
  6
CONTINUOUS
 10
211.8819525935
 20
166.9066538534
 40
3.9330117053
100
AcDbArc
 50
37.3016915377
 51
113.9613996828
  0
ARC
  5
403
100
AcDbEntity
  8
X23983006_BL4
100
AcDbCircle
 62
9
  6
CONTINUOUS
 10
207.8819525935
 20
172.9066538534
 40
3.0
100
AcDbArc
 50
286.9653451368
 51
289.4531795094
  0
ARC
  5
404
100
AcDbEntity
  8
X23983006_BL4
100
AcDbCircle
 62
9
  6
CONTINUOUS
 10
207.8819525935
 20
172.9066538534
 40
3.0
100
AcDbArc
 50
317.925185455
 51
350.4059317731
  0
CIRCLE
  5
405
100
AcDbEntity
  8
X23983006_BL4
100
AcDbCircle
 62
7
  6
CONTINUOUS
 10
211.8819525935
 20
166.9066538534
 40
2.9984292272
  0
ARC
  5
406
100
AcDbEntity
  8
X23983006_BL4
100
AcDbCircle
 62
7
  6
CONTINUOUS
 10
207.8819525935
 20
172.9066538534
 40
2.0
100
AcDbArc
 50
295.9511490278
 51
359.9995454535
  0
ARC
  5
407
100
AcDbEntity
  8
X23983006_BL4
100
AcDbCircle
 62
7
  6
CONTINUOUS
 10
210.3819525935
 20
172.9066538534
 40
0.5
100
AcDbArc
 50
89.9982809982
 51
180.0
  0
ARC
  5
408
100
AcDbEntity
  8
X23983006_BL4
100
AcDbCircle
 62
9
  6
CONTINUOUS
 10
213.8819525935
 20
181.0566538534
 40
3.3660233441
100
AcDbArc
 50
70.4457389288
 51
289.5542638914
  0
ARC
  5
409
100
AcDbEntity
  8
X23983006_BL4
100
AcDbCircle
 62
9
  6
CONTINUOUS
 10
213.8819525935
 20
189.0566538534
 40
3.3660233441
100
AcDbArc
 50
133.1595644076
 51
289.5542638914
  0
ARC
  5
40A
100
AcDbEntity
  8
X23983006_BL4
100
AcDbCircle
 62
9
  6
CONTINUOUS
 10
213.8819525935
 20
189.0566538534
 40
2.933012475
100
AcDbArc
 50
123.338317628
 51
292.5779061116
  0
ARC
  5
40B
100
AcDbEntity
  8
X23983006_BL4
100
AcDbCircle
 62
9
  6
CONTINUOUS
 10
213.8819525935
 20
181.0566538534
 40
2.933012475
100
AcDbArc
 50
67.4220895357
 51
292.5779061116
  0
ARC
  5
40C
100
AcDbEntity
  8
X23983006_BL4
100
AcDbCircle
 62
7
  6
CONTINUOUS
 10
213.8819525935
 20
189.0566538534
 40
2.0
100
AcDbArc
 50
98.7665302557
 51
304.3125663311
  0
ARC
  5
40D
100
AcDbEntity
  8
X23983006_BL4
100
AcDbCircle
 62
7
  6
CONTINUOUS
 10
213.8819525935
 20
181.0566538534
 40
2.0
100
AcDbArc
 50
55.6890653156
 51
304.3125663311
  0
ARC
  5
40E
100
AcDbEntity
  8
X23983006_BL4
100
AcDbCircle
 62
9
  6
CONTINUOUS
 10
213.8819525935
 20
189.0566538534
 40
1.499997966
100
AcDbArc
 50
78.9175185038
 51
318.6201600956
  0
ARC
  5
40F
100
AcDbEntity
  8
X23983006_BL4
100
AcDbCircle
 62
9
  6
CONTINUOUS
 10
213.8819525935
 20
181.0566538534
 40
1.499997966
100
AcDbArc
 50
41.3866666089
 51
318.6201600956
  0
ARC
  5
410
100
AcDbEntity
  8
X23983006_BL4
100
AcDbCircle
 62
7
  6
CONTINUOUS
 10
215.8819525935
 20
203.9066538534
 40
3.0
100
AcDbArc
 50
1.6299519551
 51
38.0309774942
  0
ARC
  5
411
100
AcDbEntity
  8
X23983006_BL4
100
AcDbCircle
 62
7
  6
CONTINUOUS
 10
215.8819525935
 20
203.9066538534
 40
3.0
100
AcDbArc
 50
70.4332021888
 51
179.6328528223
  0
ARC
  5
412
100
AcDbEntity
  8
X23983006_BL4
100
AcDbCircle
 62
7
  6
CONTINUOUS
 10
215.8819525935
 20
203.9066538534
 40
2.907591433
100
AcDbArc
 50
70.4332021888
 51
38.0309774942
  0
ARC
  5
413
100
AcDbEntity
  8
X23983006_BL4
100
AcDbCircle
 62
7
  6
CONTINUOUS
 10
218.1961661559
 20
206.9066538534
 40
1.092408567
100
AcDbArc
 50
225.0
 51
256.7021776471
  0
ARC
  5
414
100
AcDbEntity
  8
X23983006_BL4
100
AcDbCircle
 62
7
  6
CONTINUOUS
 10
218.1961661559
 20
206.9066538534
 40
1.0
100
AcDbArc
 50
256.7788906436
 51
270.0
  0
ARC
  5
415
100
AcDbEntity
  8
X23983006_BL4
100
AcDbCircle
 62
7
  6
CONTINUOUS
 10
218.1961661559
 20
206.9066538534
 40
1.0
100
AcDbArc
 50
225.0
 51
256.7021776471
  0
ARC
  5
416
100
AcDbEntity
  8
X23983006_BL4
100
AcDbCircle
 62
7
  6
CONTINUOUS
 10
215.4677390312
 20
206.8066538534
 40
1.0
100
AcDbArc
 50
44.9998755925
 51
47.0896983197
  0
ARC
  5
417
100
AcDbEntity
  8
X23983006_BL4
100
AcDbCircle
 62
7
  6
CONTINUOUS
 10
216.7192166009
 20
206.2622830649
 40
0.5
100
AcDbArc
 50
45.0
 51
70.4332021888
  0
ARC
  5
418
100
AcDbEntity
  8
X23983006_BL4
100
AcDbCircle
 62
7
  6
CONTINUOUS
 10
217.851147032
 20
205.44687243
 40
0.5
100
AcDbArc
 50
38.0309774942
 51
76.7021776471
  0
ARC
  5
419
100
AcDbEntity
  8
X23983006_BL4
100
AcDbCircle
 62
7
  6
CONTINUOUS
 10
216.7192166009
 20
206.2622830649
 40
0.407591433
100
AcDbArc
 50
45.0
 51
70.4332021888
  0
ARC
  5
41A
100
AcDbEntity
  8
X23983006_BL4
100
AcDbCircle
 62
7
  6
CONTINUOUS
 10
217.851147032
 20
205.44687243
 40
0.407591433
100
AcDbArc
 50
38.0309774942
 51
76.7021776471
  0
ARC
  5
41B
100
AcDbEntity
  8
X23983006_BL4
100
AcDbCircle
 62
9
  6
CONTINUOUS
 10
218.1891141818
 20
205.6468720767
 40
0.2606733537
100
AcDbArc
 50
64.7527232549
 51
73.9266050849
  0
ARC
  5
41C
100
AcDbEntity
  8
X23983006_BL4
100
AcDbCircle
 62
7
  6
CONTINUOUS
 10
191.8819525935
 20
48.5664684242
 40
1.0
100
AcDbArc
 50
180.0
 51
270.0
  0
ARC
  5
41D
100
AcDbEntity
  8
X23983006_BL4
100
AcDbCircle
 62
7
  6
CONTINUOUS
 10
191.8819525935
 20
56.3664684242
 40
1.0
100
AcDbArc
 50
90.0
 51
180.0
  0
SPLINE
  5
41E
100
AcDbEntity
  8
X23983006_BL4
100
AcDbSpline
 62
9
  6
CONTINUOUS
 70
0
 71
3
 72
11
 73
7
 74
0
 42
0.0000001
 43
0.0000001
 44
0.0000000001
 40
0.0
 40
0.0
 40
0.0
 40
0.0
 40
0.2499786696
 40
0.5000044003
 40
0.7500298416
 40
1.0
 40
1.0
 40
1.0
 40
1.0
 10
209.1786944041
 20
169.7633974671
 30
0.0
 10
209.2594427191
 20
169.8398094884
 30
0.0
 10
209.430150627
 20
169.982975858
 30
0.0
 10
209.7017385794
 20
170.1769851428
 30
0.0
 10
209.9852788738
 20
170.3530591381
 30
0.0
 10
210.1830861502
 20
170.4555688713
 30
0.0
 10
210.2846731769
 20
170.500716649
 30
0.0
  0
SPLINE
  5
41F
100
AcDbEntity
  8
X23983006_BL4
100
AcDbSpline
 62
9
  6
CONTINUOUS
 70
0
 71
3
 72
15
 73
11
 74
0
 42
0.0000001
 43
0.0000001
 44
0.0000000001
 40
0.0
 40
0.0
 40
0.0
 40
0.0
 40
0.2433439413
 40
0.3654756713
 40
0.488142458
 40
0.6117419768
 40
0.7370285216
 40
0.8655656729
 40
0.9321294716
 40
1.0
 40
1.0
 40
1.0
 40
1.0
 10
209.8819525935
 20
172.9066538534
 30
0.0
 10
209.8819565572
 20
173.0047308281
 30
0.0
 10
209.8926133067
 20
173.1523987391
 30
0.0
 10
209.930353032
 20
173.3456755264
 30
0.0
 10
209.9722529279
 20
173.4883768515
 30
0.0
 10
210.0306932748
 20
173.6267679729
 30
0.0
 10
210.110882094
 20
173.7567076717
 30
0.0
 10
210.2042034821
 20
173.8497782815
 30
0.0
 10
210.30007085
 20
173.8974852163
 30
0.0
 10
210.3545981585
 20
173.9066580004
 30
0.0
 10
210.3819525935
 20
173.9066538534
 30
0.0
  0
SPLINE
  5
420
100
AcDbEntity
  8
X23983006_BL4
100
AcDbSpline
 62
9
  6
CONTINUOUS
 70
0
 71
3
 72
13
 73
9
 74
0
 42
0.0000001
 43
0.0000001
 44
0.0000000001
 40
0.0
 40
0.0
 40
0.0
 40
0.0
 40
0.020719134
 40
0.0815201622
 40
0.1786486144
 40
0.3066456712
 40
0.6296468392
 40
1.0
 40
1.0
 40
1.0
 40
1.0
 10
209.8819525935
 20
172.9066379867
 30
0.0
 10
209.8890121694
 20
172.9041857052
 30
0.0
 10
209.9160160141
 20
172.8924702099
 30
0.0
 10
209.9758287432
 20
172.8685496575
 30
0.0
 10
210.0702446717
 20
172.8269755619
 30
0.0
 10
210.249715616
 20
172.7440162242
 30
0.0
 10
210.5124040675
 20
172.6066406252
 30
0.0
 10
210.7277209127
 20
172.4790439431
 30
0.0
 10
210.8399924851
 20
172.4066538534
 30
0.0
  0
SPLINE
  5
421
100
AcDbEntity
  8
X23983006_BL4
100
AcDbSpline
 62
9
  6
CONTINUOUS
 70
0
 71
3
 72
8
 73
4
 74
0
 42
0.0000001
 43
0.0000001
 44
0.0000000001
 40
0.0
 40
0.0
 40
0.0
 40
0.0
 40
1.0
 40
1.0
 40
1.0
 40
1.0
 10
215.8190006809
 20
207.2831264698
 30
0.0
 10
215.764495976
 20
207.3091274096
 30
0.0
 10
215.7051431753
 20
207.3257528585
 30
0.0
 10
215.6455188113
 20
207.335331321
 30
0.0
  0
SPLINE
  5
422
100
AcDbEntity
  8
X23983006_BL4
100
AcDbSpline
 62
9
  6
CONTINUOUS
 70
0
 71
3
 72
15
 73
11
 74
0
 42
0.0000001
 43
0.0000001
 44
0.0000000001
 40
0.0
 40
0.0
 40
0.0
 40
0.0
 40
0.0072777316
 40
0.0251983169
 40
0.0759147222
 40
0.1343321406
 40
0.1960489838
 40
0.4558494481
 40
0.7250648946
 40
1.0
 40
1.0
 40
1.0
 40
1.0
 10
216.8866694023
 20
206.7334089072
 30
0.0
 10
216.8893153823
 20
206.7321874744
 30
0.0
 10
216.8695200016
 20
206.7431941013
 30
0.0
 10
216.8558217961
 20
206.7521164982
 30
0.0
 10
216.802616937
 20
206.7826498855
 30
0.0
 10
216.7467827351
 20
206.814693772
 30
0.0
 10
216.612102835
 20
206.8898818984
 30
0.0
 10
216.4043217089
 20
206.9994818643
 30
0.0
 10
216.1149816852
 20
207.142128018
 30
0.0
 10
215.9183680301
 20
207.2357235889
 30
0.0
 10
215.8190006809
 20
207.2831264698
 30
0.0
  0
SPLINE
  5
423
100
AcDbEntity
  8
X23983006_BL4
100
AcDbSpline
 62
9
  6
CONTINUOUS
 70
0
 71
3
 72
15
 73
11
 74
0
 42
0.0000001
 43
0.0000001
 44
0.0000000001
 40
0.0
 40
0.0
 40
0.0
 40
0.0
 40
0.3211854262
 40
0.6218122794
 40
0.7582424724
 40
0.8775346349
 40
0.9267557322
 40
0.9654354577
 40
0.9907796852
 40
1.0
 40
1.0
 40
1.0
 40
1.0
 10
218.5075635569
 20
205.6084917949
 30
0.0
 10
218.4778567386
 20
205.6209902589
 30
0.0
 10
218.4215269833
 20
205.6480313917
 30
0.0
 10
218.3552658694
 20
205.6854924763
 30
0.0
 10
218.3076083002
 20
205.7145633805
 30
0.0
 10
218.2817132821
 20
205.7308832174
 30
0.0
 10
218.264323483
 20
205.7422564046
 30
0.0
 10
218.2546872301
 20
205.7483255129
 30
0.0
 10
218.2487984497
 20
205.7526663209
 30
0.0
 10
218.2456319207
 20
205.7542538156
 30
0.0
 10
218.2449859196
 20
205.7549161453
 30
0.0
  0
SPLINE
  5
424
100
AcDbEntity
  8
X23983006_BL4
100
AcDbSpline
 62
9
  6
CONTINUOUS
 70
0
 71
3
 72
9
 73
5
 74
0
 42
0.0000001
 43
0.0000001
 44
0.0000000001
 40
0.0
 40
0.0
 40
0.0
 40
0.0
 40
0.2621615517
 40
1.0
 40
1.0
 40
1.0
 40
1.0
 10
218.8817122586
 20
205.4622896844
 30
0.0
 10
218.8486560317
 20
205.4741101573
 30
0.0
 10
218.7229429941
 20
205.5202556434
 30
0.0
 10
218.5986246106
 20
205.5701495724
 30
0.0
 10
218.5075635569
 20
205.6084917949
 30
0.0
  0
SPLINE
  5
425
100
AcDbEntity
  8
X23983006_BL4
100
AcDbSpline
 62
9
  6
CONTINUOUS
 70
0
 71
3
 72
11
 73
7
 74
0
 42
0.0000001
 43
0.0000001
 44
0.0000000001
 40
0.0
 40
0.0
 40
0.0
 40
0.0
 40
0.2501152209
 40
0.5000247306
 40
0.7499402553
 40
1.0
 40
1.0
 40
1.0
 40
1.0
 10
208.8810739229
 20
170.0779162252
 30
0.0
 10
208.9425902826
 20
170.1902577858
 30
0.0
 10
209.0882359196
 20
170.4035934874
 30
0.0
 10
209.3776220954
 20
170.6631406119
 30
0.0
 10
209.7284745874
 20
170.8305459065
 30
0.0
 10
209.9814190991
 20
170.8827090114
 30
0.0
 10
210.1087387214
 20
170.8963957213
 30
0.0
  0
SPLINE
  5
426
100
AcDbEntity
  8
X23983006_BL4
100
AcDbSpline
 62
9
  6
CONTINUOUS
 70
0
 71
3
 72
22
 73
18
 74
0
 42
0.0000001
 43
0.0000001
 44
0.0000000001
 40
0.0
 40
0.0
 40
0.0
 40
0.0
 40
0.1862423656
 40
0.3670251253
 40
0.5363695964
 40
0.6885612427
 40
0.7562672052
 40
0.817303033
 40
0.8708448733
 40
0.9160769937
 40
0.9522327933
 40
0.9666725113
 40
0.9785677439
 40
0.98787399
 40
0.9945653082
 40
0.9986158477
 40
1.0
 40
1.0
 40
1.0
 40
1.0
 10
210.8399924851
 20
172.4066538534
 30
0.0
 10
210.8130603883
 20
172.4694138186
 30
0.0
 10
210.7602735017
 20
172.5932175123
 30
0.0
 10
210.6812888093
 20
172.7733532079
 30
0.0
 10
210.6050559257
 20
172.9410409543
 30
0.0
 10
210.5449263174
 20
173.0704933642
 30
0.0
 10
210.5008202305
 20
173.1635922152
 30
0.0
 10
210.4719046106
 20
173.2238569984
 30
0.0
 10
210.4463096346
 20
173.2765755183
 30
0.0
 10
210.4245146071
 20
173.3209910577
 30
0.0
 10
210.4088886642
 20
173.3524751994
 30
0.0
 10
210.3987079226
 20
173.3729893927
 30
0.0
 10
210.3927994217
 20
173.3846800514
 30
0.0
 10
210.3884281397
 20
173.3938446907
 30
0.0
 10
210.3847021808
 20
173.4003955211
 30
0.0
 10
210.3835172993
 20
173.4044294446
 30
0.0
 10
210.3818099735
 20
173.4061667376
 30
0.0
 10
210.3819525935
 20
173.4066538534
 30
0.0
  0
SPLINE
  5
427
100
AcDbEntity
  8
X23983006_BL4
100
AcDbSpline
 62
9
  6
CONTINUOUS
 70
0
 71
3
 72
9
 73
5
 74
0
 42
0.0000001
 43
0.0000001
 44
0.0000000001
 40
0.0
 40
0.0
 40
0.0
 40
0.0
 40
0.2678899233
 40
1.0
 40
1.0
 40
1.0
 40
1.0
 10
218.5075602655
 20
205.6084896619
 30
0.0
 10
218.501082087
 20
205.6300582778
 30
0.0
 10
218.4726669498
 20
205.7090641155
 30
0.0
 10
218.4264761484
 20
205.7829913394
 30
0.0
 10
218.3820239536
 20
205.8255574551
 30
0.0
  0
SPLINE
  5
428
100
AcDbEntity
  8
X23983006_BL4
100
AcDbSpline
 62
9
  6
CONTINUOUS
 70
0
 71
3
 72
9
 73
5
 74
0
 42
0.0000001
 43
0.0000001
 44
0.0000000001
 40
0.0
 40
0.0
 40
0.0
 40
0.0
 40
0.2596804173
 40
1.0
 40
1.0
 40
1.0
 40
1.0
 10
218.3820239536
 20
205.8255574551
 30
0.0
 10
218.3757764175
 20
205.8315399121
 30
0.0
 10
218.3509154943
 20
205.8537079747
 30
0.0
 10
218.3226126934
 20
205.8721483332
 30
0.0
 10
218.3002980797
 20
205.8826447175
 30
0.0
  0
SPLINE
  5
429
100
AcDbEntity
  8
X23983006_BL4
100
AcDbSpline
 62
9
  6
CONTINUOUS
 70
0
 71
3
 72
8
 73
4
 74
0
 42
0.0000001
 43
0.0000001
 44
0.0000000001
 40
0.0
 40
0.0
 40
0.0
 40
0.0
 40
1.0
 40
1.0
 40
1.0
 40
1.0
 10
218.2612864194
 20
205.8973551408
 30
0.0
 10
218.2402084264
 20
205.9034002717
 30
0.0
 10
218.2180938828
 20
205.9066692163
 30
0.0
 10
218.1961661516
 20
205.9066706815
 30
0.0
  0
SPLINE
  5
42A
100
AcDbEntity
  8
X23983006_BL4
100
AcDbSpline
 62
9
  6
CONTINUOUS
 70
0
 71
3
 72
14
 73
10
 74
0
 42
0.0000001
 43
0.0000001
 44
0.0000000001
 40
0.0
 40
0.0
 40
0.0
 40
0.0
 40
0.376937139
 40
0.5429368517
 40
0.6873112042
 40
0.8063063831
 40
0.8974270909
 40
0.9600595925
 40
1.0
 40
1.0
 40
1.0
 40
1.0
 10
215.8190006799
 20
207.2831265217
 30
0.0
 10
215.8588480397
 20
207.3205667988
 30
0.0
 10
215.9178595326
 20
207.3728596933
 30
0.0
 10
215.9964211613
 20
207.4342895768
 30
0.0
 10
216.0474223605
 20
207.470100062
 30
0.0
 10
216.0913876961
 20
207.4968602915
 30
0.0
 10
216.1274789503
 20
207.5134778094
 30
0.0
 10
216.1544949876
 20
207.5212769185
 30
0.0
 10
216.1707236206
 20
207.5178318376
 30
0.0
 10
216.1748198324
 20
207.5137346502
 30
0.0
  0
ENDBLK
  5
42B
100
AcDbEntity
  8
0
  6
BYBLOCK
 62
0
100
AcDbBlockEnd
  0
BLOCK
  5
42C
100
AcDbEntity
  8
X00539000_BL5
100
AcDbBlockBegin
  2
X00539000_BL5
 70
64
 10
242.4319525935
 20
126.7615611388
  3
X00539000_BL5
  1

  0
LINE
  5
42D
100
AcDbEntity
  8
X00539000_BL5
100
AcDbLine
 62
7
  6
CONTINUOUS
 10
239.8819525935
 20
191.9066538534
 11
244.9819525935
 21
191.9066538534
  0
LINE
  5
42E
100
AcDbEntity
  8
X00539000_BL5
100
AcDbLine
 62
7
  6
CONTINUOUS
 10
240.8819525935
 20
191.9066538534
 11
240.8819525935
 21
191.8066538534
  0
LINE
  5
42F
100
AcDbEntity
  8
X00539000_BL5
100
AcDbLine
 62
7
  6
CONTINUOUS
 10
243.8819525935
 20
191.9066538534
 11
243.8819525935
 21
191.8066538534
  0
LINE
  5
430
100
AcDbEntity
  8
X00539000_BL5
100
AcDbLine
 62
7
  6
CONTINUOUS
 10
244.8819525935
 20
191.9066538534
 11
244.8819525935
 21
193.9066538534
  0
LINE
  5
431
100
AcDbEntity
  8
X00539000_BL5
100
AcDbLine
 62
3
  6
CONTINUOUS
 10
244.3819525935
 20
60.0664684242
 11
240.3819525935
 21
60.0664684242
  0
LINE
  5
432
100
AcDbEntity
  8
X00539000_BL5
100
AcDbLine
 62
3
  6
CONTINUOUS
 10
240.3819525935
 20
60.0664684242
 11
240.3819525935
 21
59.6164684242
  0
LINE
  5
433
100
AcDbEntity
  8
X00539000_BL5
100
AcDbLine
 62
3
  6
CONTINUOUS
 10
244.3819525935
 20
59.6164684242
 11
244.3819525935
 21
60.0664684242
  0
ENDBLK
  5
434
100
AcDbEntity
  8
0
  6
BYBLOCK
 62
0
100
AcDbBlockEnd
  0
BLOCK
  5
435
100
AcDbEntity
  8
X23982005_BL6
100
AcDbBlockBegin
  2
X23982005_BL6
 70
64
 10
309.1091390579
 20
192.8564862884
  3
X23982005_BL6
  1

  0
LINE
  5
436
100
AcDbEntity
  8
X23982005_BL6
100
AcDbLine
 62
7
  6
CENTER
 10
205.8819525935
 20
308.8066538534
 11
205.8819525935
 21
340.3465041526
  0
LINE
  5
437
100
AcDbEntity
  8
X23982005_BL6
100
AcDbLine
 62
7
  6
CONTINUOUS
 10
262.8819525935
 20
231.1066538534
 11
262.8819525935
 21
232.2797716092
  0
LINE
  5
438
100
AcDbEntity
  8
X23982005_BL6
100
AcDbLine
 62
9
  6
CONTINUOUS
 10
263.8819525935
 20
233.3427218309
 11
263.8819525935
 21
233.8030572654
  0
LINE
  5
439
100
AcDbEntity
  8
X23982005_BL6
100
AcDbLine
 62
9
  6
CONTINUOUS
 10
267.8819525935
 20
233.8030572654
 11
267.8819525935
 21
233.3427218309
  0
LINE
  5
43A
100
AcDbEntity
  8
X23982005_BL6
100
AcDbLine
 62
7
  6
CONTINUOUS
 10
268.8819525935
 20
232.2797716092
 11
268.8819525935
 21
231.1066538534
  0
LINE
  5
43B
100
AcDbEntity
  8
X23982005_BL6
100
AcDbLine
 62
7
  6
CONTINUOUS
 10
251.0069525935
 20
305.2105000073
 11
244.7569525935
 21
308.0951153919
  0
LINE
  5
43C
100
AcDbEntity
  8
X23982005_BL6
100
AcDbLine
 62
9
  6
CONTINUOUS
 10
251.0069525935
 20
305.7611854328
 11
244.7569525935
 21
308.6458008174
  0
LINE
  5
43D
100
AcDbEntity
  8
X23982005_BL6
100
AcDbLine
 62
9
  6
CONTINUOUS
 10
420.229218741
 20
308.8264365097
 11
420.9363255222
 21
309.1527934857
  0
LINE
  5
43E
100
AcDbEntity
  8
X23982005_BL6
100
AcDbLine
 62
7
  6
CONTINUOUS
 10
420.4387478256
 20
308.8264365078
 11
421.1458546109
 21
309.1527934857
  0
LWPOLYLINE
  5
43F
100
AcDbEntity
  8
X23982005_BL6
100
AcDbPolyline
 62
7
  6
CONTINUOUS
 90
5
 70
0
 10
420.3848593258
 20
308.7970387244
 10
420.3817546026
 20
308.7936442275
 10
420.3954560066
 20
308.8033244503
 10
420.4285614036
 20
308.8215870291
 10
420.4386389164
 20
308.8263700653
  0
LINE
  5
440
100
AcDbEntity
  8
X23982005_BL6
100
AcDbLine
 62
7
  6
CONTINUOUS
 10
411.6363255222
 20
302.7070578977
 11
411.6363255222
 21
310.3571473229
  0
LINE
  5
441
100
AcDbEntity
  8
X23982005_BL6
100
AcDbLine
 62
9
  6
CONTINUOUS
 10
412.1363255222
 20
302.2530782055
 11
412.1363255222
 21
310.4066538534
  0
LINE
  5
442
100
AcDbEntity
  8
X23982005_BL6
100
AcDbLine
 62
9
  6
CONTINUOUS
 10
412.2956563062
 20
301.8870919519
 11
412.2956563051
 21
301.8551259773
  0
LINE
  5
443
100
AcDbEntity
  8
X23982005_BL6
100
AcDbLine
 62
7
  6
CONTINUOUS
 10
413.2863255222
 20
310.4066538534
 11
413.2863255222
 21
297.4066538534
  0
LINE
  5
444
100
AcDbEntity
  8
X23982005_BL6
100
AcDbLine
 62
7
  6
CONTINUOUS
 10
413.9363255222
 20
261.4066538534
 11
413.9363255222
 21
270.0066538534
  0
LINE
  5
445
100
AcDbEntity
  8
X23982005_BL6
100
AcDbLine
 62
9
  6
CONTINUOUS
 10
414.4363255222
 20
270.5066538534
 11
414.4363255222
 21
267.0509048125
  0
LINE
  5
446
100
AcDbEntity
  8
X23982005_BL6
100
AcDbLine
 62
7
  6
CONTINUOUS
 10
418.4363255222
 20
296.8066538534
 11
418.4363255222
 21
292.9066538534
  0
LINE
  5
447
100
AcDbEntity
  8
X23982005_BL6
100
AcDbLine
 62
7
  6
CONTINUOUS
 10
418.4363255222
 20
286.9066538534
 11
418.4363255222
 21
282.4066538534
  0
LINE
  5
448
100
AcDbEntity
  8
X23982005_BL6
100
AcDbLine
 62
7
  6
CONTINUOUS
 10
418.4363255222
 20
275.4066538534
 11
418.4363255222
 21
274.4066538534
  0
LINE
  5
449
100
AcDbEntity
  8
X23982005_BL6
100
AcDbLine
 62
9
  6
CONTINUOUS
 10
419.4363255222
 20
296.8632259047
 11
419.4363255222
 21
292.9066538534
  0
LINE
  5
44A
100
AcDbEntity
  8
X23982005_BL6
100
AcDbLine
 62
9
  6
CONTINUOUS
 10
419.4363255222
 20
286.9066538534
 11
419.4363255222
 21
282.4066538534
  0
LINE
  5
44B
100
AcDbEntity
  8
X23982005_BL6
100
AcDbLine
 62
9
  6
CONTINUOUS
 10
419.4363255222
 20
275.4066538534
 11
419.4363255222
 21
274.4066538534
  0
LINE
  5
44C
100
AcDbEntity
  8
X23982005_BL6
100
AcDbLine
 62
7
  6
CONTINUOUS
 10
419.7863255222
 20
310.4066538534
 11
419.7863255222
 21
297.4066538534
  0
LINE
  5
44D
100
AcDbEntity
  8
X23982005_BL6
100
AcDbLine
 62
9
  6
CONTINUOUS
 10
419.9363255222
 20
304.9989473318
 11
419.9363255222
 21
308.5000795338
  0
LINE
  5
44E
100
AcDbEntity
  8
X23982005_BL6
100
AcDbLine
 62
9
  6
CONTINUOUS
 10
420.4363255222
 20
274.4066538534
 11
420.4363255222
 21
275.4066538534
  0
LINE
  5
44F
100
AcDbEntity
  8
X23982005_BL6
100
AcDbLine
 62
9
  6
CONTINUOUS
 10
420.4363255222
 20
282.4066538534
 11
420.4363255222
 21
286.9066538534
  0
LINE
  5
450
100
AcDbEntity
  8
X23982005_BL6
100
AcDbLine
 62
9
  6
CONTINUOUS
 10
420.4363255222
 20
292.9066538534
 11
420.4363255222
 21
301.8870919519
  0
LINE
  5
451
100
AcDbEntity
  8
X23982005_BL6
100
AcDbLine
 62
7
  6
CONTINUOUS
 10
420.4363255222
 20
305.4529270241
 11
420.4363255222
 21
308.8264365078
  0
LINE
  5
452
100
AcDbEntity
  8
X23982005_BL6
100
AcDbLine
 62
9
  6
CONTINUOUS
 10
420.5827721316
 20
308.8929092644
 11
420.5827721316
 21
305.1265700481
  0
LINE
  5
453
100
AcDbEntity
  8
X23982005_BL6
100
AcDbLine
 62
9
  6
CONTINUOUS
 10
420.9363255222
 20
301.8409381058
 11
420.9363255222
 21
304.34623338
  0
LINE
  5
454
100
AcDbEntity
  8
X23982005_BL6
100
AcDbLine
 62
9
  6
CONTINUOUS
 10
420.9363255222
 20
309.1527934857
 11
420.9363255222
 21
310.4066538534
  0
LINE
  5
455
100
AcDbEntity
  8
X23982005_BL6
100
AcDbLine
 62
9
  6
CONTINUOUS
 10
421.2898789128
 20
309.2542716883
 11
421.2898789128
 21
304.8002130722
  0
LINE
  5
456
100
AcDbEntity
  8
X23982005_BL6
100
AcDbLine
 62
9
  6
CONTINUOUS
 10
414.8363255222
 20
267.0306487939
 11
414.4669943425
 21
267.0306487939
  0
LINE
  5
457
100
AcDbEntity
  8
X23982005_BL6
100
AcDbLine
 62
9
  6
CONTINUOUS
 10
414.8363255222
 20
270.1494414631
 11
414.4363255222
 21
270.1494414631
  0
LINE
  5
458
100
AcDbEntity
  8
X23982005_BL6
100
AcDbLine
 62
7
  6
CONTINUOUS
 10
414.4363255222
 20
270.5066538534
 11
414.8363255222
 21
270.5066538534
  0
LINE
  5
459
100
AcDbEntity
  8
X23982005_BL6
100
AcDbLine
 62
7
  6
CONTINUOUS
 10
419.1863053108
 20
296.8066538534
 11
413.88652693
 21
296.8066538534
  0
LINE
  5
45A
100
AcDbEntity
  8
X23982005_BL6
100
AcDbLine
 62
9
  6
CONTINUOUS
 10
419.7863255143
 20
297.4066538534
 11
413.2863255302
 21
297.4066538534
  0
LINE
  5
45B
100
AcDbEntity
  8
X23982005_BL6
100
AcDbLine
 62
9
  6
CONTINUOUS
 10
420.4363255222
 20
301.6147041366
 11
419.7863255222
 21
301.6147041366
  0
LINE
  5
45C
100
AcDbEntity
  8
X23982005_BL6
100
AcDbLine
 62
9
  6
CONTINUOUS
 10
420.4363255222
 20
301.8870919519
 11
419.7863255222
 21
301.8870919519
  0
LINE
  5
45D
100
AcDbEntity
  8
X23982005_BL6
100
AcDbLine
 62
9
  6
CONTINUOUS
 10
413.2863255222
 20
301.8870919519
 11
412.2956563023
 21
301.8870919519
  0
LINE
  5
45E
100
AcDbEntity
  8
X23982005_BL6
100
AcDbLine
 62
9
  6
CONTINUOUS
 10
421.4363255222
 20
304.8002130722
 11
421.2898789128
 21
304.8002130722
  0
LINE
  5
45F
100
AcDbEntity
  8
X23982005_BL6
100
AcDbLine
 62
7
  6
CONTINUOUS
 10
412.5317970589
 20
301.7125360023
 11
413.2863255222
 21
301.6332318652
  0
LINE
  5
460
100
AcDbEntity
  8
X23982005_BL6
100
AcDbLine
 62
9
  6
CONTINUOUS
 10
420.9363255222
 20
304.34623338
 11
420.229218741
 21
304.6725903559
  0
LINE
  5
461
100
AcDbEntity
  8
X23982005_BL6
100
AcDbLine
 62
9
  6
CONTINUOUS
 10
421.2898789128
 20
304.8002130722
 11
420.5827721316
 21
305.1265700481
  0
LINE
  5
462
100
AcDbEntity
  8
X23982005_BL6
100
AcDbLine
 62
9
  6
CONTINUOUS
 10
196.7819525935
 20
48.5664684242
 11
196.7819525935
 21
47.5664684242
  0
LINE
  5
463
100
AcDbEntity
  8
X23982005_BL6
100
AcDbLine
 62
9
  6
CONTINUOUS
 10
196.7819525935
 20
56.3664684242
 11
196.7819525936
 21
57.3664684242
  0
LINE
  5
464
100
AcDbEntity
  8
X23982005_BL6
100
AcDbLine
 62
7
  6
CONTINUOUS
 10
268.2819525935
 20
45.3664684242
 11
263.4819525935
 21
45.3664684242
  0
LINE
  5
465
100
AcDbEntity
  8
X23982005_BL6
100
AcDbLine
 62
7
  6
CONTINUOUS
 10
203.1369568102
 20
47.7004430204
 11
208.6269483769
 21
47.7004430204
  0
LINE
  5
466
100
AcDbEntity
  8
X23982005_BL6
100
AcDbLine
 62
9
  6
CONTINUOUS
 10
196.7819525935
 20
48.5664684242
 11
202.0038087076
 21
48.5664684242
  0
LINE
  5
467
100
AcDbEntity
  8
X23982005_BL6
100
AcDbLine
 62
9
  6
CONTINUOUS
 10
209.7600964795
 20
48.5664684242
 11
221.8819525935
 21
48.5664684242
  0
LINE
  5
468
100
AcDbEntity
  8
X23982005_BL6
100
AcDbLine
 62
9
  6
CONTINUOUS
 10
265.1319525935
 20
48.5664684242
 11
265.4927426272
 21
48.5664684242
  0
LINE
  5
469
100
AcDbEntity
  8
X23982005_BL6
100
AcDbLine
 62
9
  6
CONTINUOUS
 10
265.4927426272
 20
56.3664684242
 11
264.8338758349
 21
56.3664684242
  0
LINE
  5
46A
100
AcDbEntity
  8
X23982005_BL6
100
AcDbLine
 62
9
  6
CONTINUOUS
 10
221.8819525935
 20
56.3664684242
 11
209.7600964795
 21
56.3664684242
  0
LINE
  5
46B
100
AcDbEntity
  8
X23982005_BL6
100
AcDbLine
 62
9
  6
CONTINUOUS
 10
202.0038087076
 20
56.3664684242
 11
196.7819525935
 21
56.3664684242
  0
LINE
  5
46C
100
AcDbEntity
  8
X23982005_BL6
100
AcDbLine
 62
7
  6
CONTINUOUS
 10
208.6269483769
 20
57.232493828
 11
203.1369568102
 21
57.232493828
  0
LINE
  5
46D
100
AcDbEntity
  8
X23982005_BL6
100
AcDbLine
 62
7
  6
CONTINUOUS
 10
266.2387927299
 20
57.3664684242
 11
264.2182327246
 21
57.3664684242
  0
LINE
  5
46E
100
AcDbEntity
  8
X23982005_BL6
100
AcDbLine
 62
7
  6
CONTINUOUS
 10
221.8819525935
 20
57.3664684242
 11
196.7819525935
 21
57.3664684242
  0
CIRCLE
  5
46F
100
AcDbEntity
  8
X23982005_BL6
100
AcDbCircle
 62
7
  6
CONTINUOUS
 10
265.8819525935
 20
231.1066538534
 40
3.0
  0
CIRCLE
  5
470
100
AcDbEntity
  8
X23982005_BL6
100
AcDbCircle
 62
9
  6
CONTINUOUS
 10
265.8819525935
 20
231.1066538534
 40
2.3999951937
  0
ARC
  5
471
100
AcDbEntity
  8
X23982005_BL6
100
AcDbCircle
 62
9
  6
CONTINUOUS
 10
247.8819525935
 20
315.7066538534
 40
3.5999930288
100
AcDbArc
 50
209.6147780408
 51
330.3868437236
  0
CIRCLE
  5
472
100
AcDbEntity
  8
X23982005_BL6
100
AcDbCircle
 62
7
  6
CONTINUOUS
 10
247.8819525935
 20
315.7066538534
 40
3.0
  0
CIRCLE
  5
473
100
AcDbEntity
  8
X23982005_BL6
100
AcDbCircle
 62
7
  6
CONTINUOUS
 10
247.8819525935
 20
315.7066538534
 40
2.9835334842
  0
ARC
  5
474
100
AcDbEntity
  8
X23982005_BL6
100
AcDbCircle
 62
9
  6
CONTINUOUS
 10
412.6353914714
 20
303.1877764946
 40
1.3768743259
100
AcDbArc
 50
265.9461026693
 51
266.9926727551
  0
ARC
  5
475
100
AcDbEntity
  8
X23982005_BL6
100
AcDbCircle
 62
7
  6
CONTINUOUS
 10
412.6363255222
 20
302.7070578977
 40
1.0
100
AcDbArc
 50
180.0
 51
264.0
  0
ARC
  5
476
100
AcDbEntity
  8
X23982005_BL6
100
AcDbCircle
 62
9
  6
CONTINUOUS
 10
412.4289016678
 20
302.624903924
 40
0.7812325163
100
AcDbArc
 50
251.0838247642
 51
260.1797507539
  0
ARC
  5
477
100
AcDbEntity
  8
X23982005_BL6
100
AcDbCircle
 62
9
  6
CONTINUOUS
 10
412.3630273443
 20
302.5809638856
 40
0.6990835219
100
AcDbArc
 50
209.8039434987
 51
224.9909414033
  0
ARC
  5
478
100
AcDbEntity
  8
X23982005_BL6
100
AcDbCircle
 62
9
  6
CONTINUOUS
 10
412.3568666881
 20
302.5769053527
 40
0.6917206532
100
AcDbArc
 50
205.0044312146
 51
209.7658693154
  0
ARC
  5
479
100
AcDbEntity
  8
X23982005_BL6
100
AcDbCircle
 62
7
  6
CONTINUOUS
 10
413.8863255222
 20
297.4066538534
 40
0.6
100
AcDbArc
 50
180.0
 51
270.0019297172
  0
ARC
  5
47A
100
AcDbEntity
  8
X23982005_BL6
100
AcDbCircle
 62
7
  6
CONTINUOUS
 10
419.1863255222
 20
297.4066538534
 40
0.6
100
AcDbArc
 50
269.9980702828
 51
360.0
  0
ARC
  5
47B
100
AcDbEntity
  8
X23982005_BL6
100
AcDbCircle
 62
9
  6
CONTINUOUS
 10
412.6391408273
 20
302.2534883493
 40
0.5028154724
100
AcDbArc
 50
180.0467358607
 51
196.7408222462
  0
ARC
  5
47C
100
AcDbEntity
  8
X23982005_BL6
100
AcDbCircle
 62
7
  6
CONTINUOUS
 10
414.4363255222
 20
270.0066538534
 40
0.5
100
AcDbArc
 50
90.0
 51
180.0
  0
ARC
  5
47D
100
AcDbEntity
  8
X23982005_BL6
100
AcDbCircle
 62
7
  6
CONTINUOUS
 10
420.9364822355
 20
309.6066729077
 40
0.4998432967
100
AcDbArc
 50
294.7636468407
 51
0.0114937281
  0
ARC
  5
47E
100
AcDbEntity
  8
X23982005_BL6
100
AcDbCircle
 62
9
  6
CONTINUOUS
 10
412.6359724457
 20
302.2527622352
 40
0.4995296123
100
AcDbArc
 50
196.7817897999
 51
227.0567833918
  0
ARC
  5
47F
100
AcDbEntity
  8
X23982005_BL6
100
AcDbCircle
 62
7
  6
CONTINUOUS
 10
205.8819525935
 20
52.4664684242
 40
5.5
100
AcDbArc
 50
119.9398225416
 51
240.0601774584
  0
ARC
  5
480
100
AcDbEntity
  8
X23982005_BL6
100
AcDbCircle
 62
7
  6
CONTINUOUS
 10
205.8819525935
 20
52.4664684242
 40
5.5
100
AcDbArc
 50
299.9398225416
 51
60.0601774584
  0
ARC
  5
481
100
AcDbEntity
  8
X23982005_BL6
100
AcDbCircle
 62
7
  6
CONTINUOUS
 10
196.7819525935
 20
52.4664684242
 40
4.9
100
AcDbArc
 50
89.9999999998
 51
269.9999999999
  0
ARC
  5
482
100
AcDbEntity
  8
X23982005_BL6
100
AcDbCircle
 62
9
  6
CONTINUOUS
 10
196.7819525935
 20
52.4664684242
 40
3.8999965436
100
AcDbArc
 50
90.0
 51
270.0
  0
CIRCLE
  5
483
100
AcDbEntity
  8
X23982005_BL6
100
AcDbCircle
 62
7
  6
CONTINUOUS
 10
205.8819525935
 20
52.4664684242
 40
2.8
  0
ARC
  5
484
100
AcDbEntity
  8
X23982005_BL6
100
AcDbCircle
 62
2
  6
CONTINUOUS
 10
205.8819525935
 20
52.4664684242
 40
2.5
100
AcDbArc
 50
255.0
 51
195.0
  0
CIRCLE
  5
485
100
AcDbEntity
  8
X23982005_BL6
100
AcDbCircle
 62
7
  6
CONTINUOUS
 10
205.8819525935
 20
52.4664684242
 40
2.2
  0
ARC
  5
486
100
AcDbEntity
  8
X23982005_BL6
100
AcDbCircle
 62
7
  6
CONTINUOUS
 10
268.2819525935
 20
45.9664684242
 40
0.6
100
AcDbArc
 50
270.0
 51
346.4963567882
  0
ARC
  5
487
100
AcDbEntity
  8
X23982005_BL6
100
AcDbCircle
 62
7
  6
CONTINUOUS
 10
263.4819525935
 20
45.9664684242
 40
0.6
100
AcDbArc
 50
197.5016660122
 51
270.0
  0
SPLINE
  5
488
100
AcDbEntity
  8
X23982005_BL6
100
AcDbSpline
 62
9
  6
CONTINUOUS
 70
0
 71
3
 72
9
 73
5
 74
0
 42
0.0000001
 43
0.0000001
 44
0.0000000001
 40
0.0
 40
0.0
 40
0.0
 40
0.0
 40
0.499520178
 40
1.0
 40
1.0
 40
1.0
 40
1.0
 10
411.7299244667
 20
302.2846398962
 30
0.0
 10
411.7728462806
 20
302.1925150027
 30
0.0
 10
411.8979863492
 20
302.0240256715
 30
0.0
 10
412.0793056224
 20
301.9188633368
 30
0.0
 10
412.1756381984
 20
301.8858627482
 30
0.0
  0
SPLINE
  5
489
100
AcDbEntity
  8
X23982005_BL6
100
AcDbSpline
 62
9
  6
CONTINUOUS
 70
0
 71
3
 72
9
 73
5
 74
0
 42
0.0000001
 43
0.0000001
 44
0.0000000001
 40
0.0
 40
0.0
 40
0.0
 40
0.0
 40
0.5581534696
 40
1.0
 40
1.0
 40
1.0
 40
1.0
 10
412.2956563311
 20
301.8551260702
 30
0.0
 10
412.2716931082
 20
301.839737569
 30
0.0
 10
412.224388295
 20
301.8167602561
 30
0.0
 10
412.1693480452
 20
301.8224973015
 30
0.0
 10
412.14965303
 20
301.8334680928
 30
0.0
  0
SPLINE
  5
48A
100
AcDbEntity
  8
X23982005_BL6
100
AcDbSpline
 62
9
  6
CONTINUOUS
 70
0
 71
3
 72
10
 73
6
 74
0
 42
0.0000001
 43
0.0000001
 44
0.0000000001
 40
0.0
 40
0.0
 40
0.0
 40
0.0
 40
0.29120446
 40
0.5633999465
 40
1.0
 40
1.0
 40
1.0
 40
1.0
 10
414.4363255222
 20
270.1494414631
 30
0.0
 10
414.3798601662
 20
270.1494414664
 30
0.0
 10
414.2697383327
 20
270.1371248406
 30
0.0
 10
414.087239991
 20
270.0750829669
 30
0.0
 10
413.9710411853
 20
269.9716094517
 30
0.0
 10
413.9459991617
 20
269.8907399991
 30
0.0
  0
SPLINE
  5
48B
100
AcDbEntity
  8
X23982005_BL6
100
AcDbSpline
 62
9
  6
CONTINUOUS
 70
0
 71
3
 72
8
 73
4
 74
0
 42
0.0000001
 43
0.0000001
 44
0.0000000001
 40
0.0
 40
0.0
 40
0.0
 40
0.0
 40
1.0
 40
1.0
 40
1.0
 40
1.0
 10
413.9459991617
 20
269.8907399991
 30
0.0
 10
413.9397444917
 20
269.870541482
 30
0.0
 10
413.9363255222
 20
269.8491924209
 30
0.0
 10
413.9363255222
 20
269.8280476582
 30
0.0
  0
SPLINE
  5
48C
100
AcDbEntity
  8
X23982005_BL6
100
AcDbSpline
 62
9
  6
CONTINUOUS
 70
0
 71
3
 72
9
 73
5
 74
0
 42
0.0000001
 43
0.0000001
 44
0.0000000001
 40
0.0
 40
0.0
 40
0.0
 40
0.0
 40
0.2442825874
 40
1.0
 40
1.0
 40
1.0
 40
1.0
 10
412.2956563051
 20
301.8551259773
 30
0.0
 10
412.3149587267
 20
301.8497598148
 30
0.0
 10
412.394583597
 20
301.830003026
 30
0.0
 10
412.4762297465
 20
301.8187298029
 30
0.0
 10
412.5380535652
 20
301.8143471221
 30
0.0
  0
SPLINE
  5
48D
100
AcDbEntity
  8
X23982005_BL6
100
AcDbSpline
 62
9
  6
CONTINUOUS
 70
0
 71
3
 72
11
 73
7
 74
0
 42
0.0000001
 43
0.0000001
 44
0.0000000001
 40
0.0
 40
0.0
 40
0.0
 40
0.0
 40
0.4099454152
 40
0.7194458007
 40
0.9156552446
 40
1.0
 40
1.0
 40
1.0
 40
1.0
 10
412.5631555767
 20
301.8128319901
 30
0.0
 10
412.5604885386
 20
301.7985161588
 30
0.0
 10
412.5555944758
 20
301.7738143003
 30
0.0
 10
412.5471464082
 20
301.7411120813
 30
0.0
 10
412.5411621797
 20
301.7234248307
 30
0.0
 10
412.5347726065
 20
301.7121839427
 30
0.0
 10
412.5317913391
 20
301.7124817803
 30
0.0
  0
LINE
  5
48E
100
AcDbEntity
  8
X23982005_BL6
100
AcDbLine
 62
9
  6
CONTINUOUS
 10
412.5631555979
 20
301.8127983538
 11
413.286221211
 21
301.7747577739
  0
SPLINE
  5
48F
100
AcDbEntity
  8
X23982005_BL6
100
AcDbSpline
 62
9
  6
CONTINUOUS
 70
0
 71
3
 72
8
 73
4
 74
0
 42
0.0000001
 43
0.0000001
 44
0.0000000001
 40
0.0
 40
0.0
 40
0.0
 40
0.0
 40
1.0
 40
1.0
 40
1.0
 40
1.0
 10
412.2956563062
 20
301.8870921723
 30
0.0
 10
412.2175147849
 20
301.8937741046
 30
0.0
 10
412.1394385255
 20
301.9145213773
 30
0.0
 10
412.0682371023
 20
301.9474015066
 30
0.0
  0
SPLINE
  5
490
100
AcDbEntity
  8
X23982005_BL6
100
AcDbSpline
 62
9
  6
CONTINUOUS
 70
0
 71
3
 72
8
 73
4
 74
0
 42
0.0000001
 43
0.0000001
 44
0.0000000001
 40
0.0
 40
0.0
 40
0.0
 40
0.0
 40
1.0
 40
1.0
 40
1.0
 40
1.0
 10
412.0682371023
 20
301.9474015066
 30
0.0
 10
411.9945716925
 20
301.981419481
 30
0.0
 10
411.9260151421
 20
302.0293577014
 30
0.0
 10
411.8686224974
 20
302.086715347
 30
0.0
  0
SPLINE
  5
491
100
AcDbEntity
  8
X23982005_BL6
100
AcDbSpline
 62
9
  6
CONTINUOUS
 70
0
 71
3
 72
12
 73
8
 74
0
 42
0.0000001
 43
0.0000001
 44
0.0000000001
 40
0.0
 40
0.0
 40
0.0
 40
0.0
 40
0.101724997
 40
0.1808041313
 40
0.2844843146
 40
0.5775523847
 40
1.0
 40
1.0
 40
1.0
 40
1.0
 10
421.4363255222
 20
301.8958008174
 30
0.0
 10
421.4362604472
 20
301.8776222301
 30
0.0
 10
421.4109938556
 20
301.8487579938
 30
0.0
 10
421.3659950369
 20
301.8273120466
 30
0.0
 10
421.2834974429
 20
301.8032408067
 30
0.0
 10
421.135918649
 20
301.7963858863
 30
0.0
 10
421.0084775601
 20
301.8187274475
 30
0.0
 10
420.9363255222
 20
301.8409381058
 30
0.0
  0
SPLINE
  5
492
100
AcDbEntity
  8
X23982005_BL6
100
AcDbSpline
 62
7
  6
CONTINUOUS
 70
0
 71
3
 72
9
 73
5
 74
0
 42
0.0000001
 43
0.0000001
 44
0.0000000001
 40
0.0
 40
0.0
 40
0.0
 40
0.0
 40
0.2570378871
 40
1.0
 40
1.0
 40
1.0
 40
1.0
 10
414.8365103041
 20
266.7797489101
 30
0.0
 10
414.8052239626
 20
266.8017884802
 30
0.0
 10
414.6833413634
 20
266.8872840693
 30
0.0
 10
414.5604427146
 20
266.9714563891
 30
0.0
 10
414.4669943425
 20
267.0306487939
 30
0.0
  0
SPLINE
  5
493
100
AcDbEntity
  8
X23982005_BL6
100
AcDbSpline
 62
9
  6
CONTINUOUS
 70
0
 71
3
 72
11
 73
7
 74
0
 42
0.0000001
 43
0.0000001
 44
0.0000000001
 40
0.0
 40
0.0
 40
0.0
 40
0.0
 40
0.1855162011
 40
0.3993539822
 40
0.6665114156
 40
1.0
 40
1.0
 40
1.0
 40
1.0
 10
421.4363255222
 20
301.8958007933
 30
0.0
 10
421.4362671692
 20
301.8469294158
 30
0.0
 10
421.4061040432
 20
301.7402381622
 30
0.0
 10
421.2767982417
 20
301.6122189231
 30
0.0
 10
421.0693389361
 20
301.5375576778
 30
0.0
 10
420.9061653222
 20
301.5472229122
 30
0.0
 10
420.8209409068
 20
301.5685502904
 30
0.0
  0
SPLINE
  5
494
100
AcDbEntity
  8
X23982005_BL6
100
AcDbSpline
 62
9
  6
CONTINUOUS
 70
0
 71
3
 72
9
 73
5
 74
0
 42
0.0000001
 43
0.0000001
 44
0.0000000001
 40
0.0
 40
0.0
 40
0.0
 40
0.0
 40
0.2418210426
 40
1.0
 40
1.0
 40
1.0
 40
1.0
 10
420.8209409068
 20
301.5685502904
 30
0.0
 10
420.7906075418
 20
301.5761411786
 30
0.0
 10
420.6641566239
 20
301.6033704319
 30
0.0
 10
420.5343620946
 20
301.6147300577
 30
0.0
 10
420.4363255222
 20
301.6147041366
 30
0.0
  0
SPLINE
  5
495
100
AcDbEntity
  8
X23982005_BL6
100
AcDbSpline
 62
9
  6
CONTINUOUS
 70
0
 71
3
 72
9
 73
5
 74
0
 42
0.0000001
 43
0.0000001
 44
0.0000000001
 40
0.0
 40
0.0
 40
0.0
 40
0.0
 40
0.4315315485
 40
1.0
 40
1.0
 40
1.0
 40
1.0
 10
420.9363255199
 20
301.8409255602
 30
0.0
 10
420.9045673752
 20
301.8119350339
 30
0.0
 10
420.8563357076
 20
301.7204020367
 30
0.0
 10
420.830091527
 20
301.6244502244
 30
0.0
 10
420.8209309289
 20
301.5685502926
 30
0.0
  0
SPLINE
  5
496
100
AcDbEntity
  8
X23982005_BL6
100
AcDbSpline
 62
9
  6
CONTINUOUS
 70
0
 71
3
 72
9
 73
5
 74
0
 42
0.0000001
 43
0.0000001
 44
0.0000000001
 40
0.0
 40
0.0
 40
0.0
 40
0.0
 40
0.24157451
 40
1.0
 40
1.0
 40
1.0
 40
1.0
 10
420.9363255222
 20
301.8409381058
 30
0.0
 10
420.896587549
 20
301.8485880835
 30
0.0
 10
420.7312765185
 20
301.8759081896
 30
0.0
 10
420.5633740122
 20
301.887133261
 30
0.0
 10
420.4363255222
 20
301.8870919519
 30
0.0
  0
SPLINE
  5
497
100
AcDbEntity
  8
X23982005_BL6
100
AcDbSpline
 62
9
  6
CONTINUOUS
 70
0
 71
3
 72
8
 73
4
 74
0
 42
0.0000001
 43
0.0000001
 44
0.0000000001
 40
0.0
 40
0.0
 40
0.0
 40
0.0
 40
1.0
 40
1.0
 40
1.0
 40
1.0
 10
411.6363255222
 20
302.7070578977
 30
0.0
 10
411.6363255222
 20
302.6477743319
 30
0.0
 10
411.6498110509
 20
302.5872775994
 30
0.0
 10
411.674385756
 20
302.5333273905
 30
0.0
  0
SPLINE
  5
498
100
AcDbEntity
  8
X23982005_BL6
100
AcDbSpline
 62
9
  6
CONTINUOUS
 70
0
 71
3
 72
9
 73
5
 74
0
 42
0.0000001
 43
0.0000001
 44
0.0000000001
 40
0.0
 40
0.0
 40
0.0
 40
0.0
 40
0.4879254566
 40
1.0
 40
1.0
 40
1.0
 40
1.0
 10
411.674385756
 20
302.5333273905
 30
0.0
 10
411.7123263874
 20
302.4500342244
 30
0.0
 10
411.8486180321
 20
302.3029078292
 30
0.0
 10
412.0402682462
 20
302.2530782055
 30
0.0
 10
412.1363255222
 20
302.2530782055
 30
0.0
  0
SPLINE
  5
499
100
AcDbEntity
  8
X23982005_BL6
100
AcDbSpline
 62
9
  6
CONTINUOUS
 70
0
 71
3
 72
8
 73
4
 74
0
 42
0.0000001
 43
0.0000001
 44
0.0000000001
 40
0.0
 40
0.0
 40
0.0
 40
0.0
 40
1.0
 40
1.0
 40
1.0
 40
1.0
 10
420.9363255222
 20
309.1527934857
 30
0.0
 10
421.0310525542
 20
309.1527934857
 30
0.0
 10
421.1292142165
 20
309.1787204093
 30
0.0
 10
421.2105904937
 20
309.2272086768
 30
0.0
  0
SPLINE
  5
49A
100
AcDbEntity
  8
X23982005_BL6
100
AcDbSpline
 62
9
  6
CONTINUOUS
 70
0
 71
3
 72
9
 73
5
 74
0
 42
0.0000001
 43
0.0000001
 44
0.0000000001
 40
0.0
 40
0.0
 40
0.0
 40
0.0
 40
0.2566851477
 40
1.0
 40
1.0
 40
1.0
 40
1.0
 10
421.2105904937
 20
309.2272086768
 30
0.0
 10
421.2311420712
 20
309.239454388
 30
0.0
 10
421.3078134236
 20
309.2925705957
 30
0.0
 10
421.3687854278
 20
309.3688521483
 30
0.0
 10
421.3976994508
 20
309.4318075009
 30
0.0
  0
SPLINE
  5
49B
100
AcDbEntity
  8
X23982005_BL6
100
AcDbSpline
 62
9
  6
CONTINUOUS
 70
0
 71
3
 72
8
 73
4
 74
0
 42
0.0000001
 43
0.0000001
 44
0.0000000001
 40
0.0
 40
0.0
 40
0.0
 40
0.0
 40
1.0
 40
1.0
 40
1.0
 40
1.0
 10
421.3976994508
 20
309.4318075009
 30
0.0
 10
421.422627024
 20
309.4860830391
 30
0.0
 10
421.4363255222
 20
309.5470469865
 30
0.0
 10
421.4363255222
 20
309.6067731779
 30
0.0
  0
SPLINE
  5
49C
100
AcDbEntity
  8
X23982005_BL6
100
AcDbSpline
 62
9
  6
CONTINUOUS
 70
0
 71
3
 72
9
 73
5
 74
0
 42
0.0000001
 43
0.0000001
 44
0.0000000001
 40
0.0
 40
0.0
 40
0.0
 40
0.0
 40
0.5222847409
 40
1.0
 40
1.0
 40
1.0
 40
1.0
 10
420.9363255222
 20
309.1527934857
 30
0.0
 10
420.9711190703
 20
309.1395549649
 30
0.0
 10
421.042466861
 20
309.1239281
 30
0.0
 10
421.1149378218
 20
309.1385257258
 30
0.0
 10
421.145854908
 20
309.1527928421
 30
0.0
  0
SPLINE
  5
49D
100
AcDbEntity
  8
X23982005_BL6
100
AcDbSpline
 62
9
  6
CONTINUOUS
 70
0
 71
3
 72
9
 73
5
 74
0
 42
0.0000001
 43
0.0000001
 44
0.0000000001
 40
0.0
 40
0.0
 40
0.0
 40
0.0
 40
0.5215907861
 40
1.0
 40
1.0
 40
1.0
 40
1.0
 10
420.229218741
 20
308.8264365097
 30
0.0
 10
420.2639398941
 20
308.8132255329
 30
0.0
 10
420.3352264424
 20
308.7977729592
 30
0.0
 10
420.407696959
 20
308.812100377
 30
0.0
 10
420.4386301399
 20
308.8263893781
 30
0.0
  0
SPLINE
  5
49E
100
AcDbEntity
  8
X23982005_BL6
100
AcDbSpline
 62
9
  6
CONTINUOUS
 70
0
 71
3
 72
9
 73
5
 74
0
 42
0.0000001
 43
0.0000001
 44
0.0000000001
 40
0.0
 40
0.0
 40
0.0
 40
0.0
 40
0.5130436464
 40
1.0
 40
1.0
 40
1.0
 40
1.0
 10
419.9363255222
 20
308.5000795338
 30
0.0
 10
420.0377523494
 20
308.5000795316
 30
0.0
 10
420.2404209134
 20
308.5556219778
 30
0.0
 10
420.3771386862
 20
308.7194463203
 30
0.0
 10
420.4103761511
 20
308.8097960908
 30
0.0
  0
SPLINE
  5
49F
100
AcDbEntity
  8
X23982005_BL6
100
AcDbSpline
 62
9
  6
CONTINUOUS
 70
0
 71
3
 72
11
 73
7
 74
0
 42
0.0000001
 43
0.0000001
 44
0.0000000001
 40
0.0
 40
0.0
 40
0.0
 40
0.0
 40
0.1967535519
 40
0.4191758464
 40
0.6843936959
 40
1.0
 40
1.0
 40
1.0
 40
1.0
 10
419.9363255222
 20
308.5000795338
 30
0.0
 10
419.9363141788
 20
308.5302787785
 30
0.0
 10
419.950903301
 20
308.5951155108
 30
0.0
 10
420.0113525959
 20
308.6831639973
 30
0.0
 10
420.1066475099
 20
308.763012416
 30
0.0
 10
420.1852310817
 20
308.806146556
 30
0.0
 10
420.229218741
 20
308.8264365097
 30
0.0
  0
SPLINE
  5
4A0
100
AcDbEntity
  8
X23982005_BL6
100
AcDbSpline
 62
9
  6
CONTINUOUS
 70
0
 71
3
 72
11
 73
7
 74
0
 42
0.0000001
 43
0.0000001
 44
0.0000000001
 40
0.0
 40
0.0
 40
0.0
 40
0.0
 40
0.2610309599
 40
0.5157416217
 40
0.7612364122
 40
1.0
 40
1.0
 40
1.0
 40
1.0
 10
419.9363255222
 20
304.9989473318
 30
0.0
 10
420.0011379427
 20
304.9989473311
 30
0.0
 10
420.1304072838
 20
305.0218547411
 30
0.0
 10
420.2962934854
 20
305.1211735589
 30
0.0
 10
420.4093384079
 20
305.2719348079
 30
0.0
 10
420.4363255222
 20
305.3936434584
 30
0.0
 10
420.4363255222
 20
305.4529270241
 30
0.0
  0
SPLINE
  5
4A1
100
AcDbEntity
  8
X23982005_BL6
100
AcDbSpline
 62
9
  6
CONTINUOUS
 70
0
 71
3
 72
9
 73
5
 74
0
 42
0.0000001
 43
0.0000001
 44
0.0000000001
 40
0.0
 40
0.0
 40
0.0
 40
0.0
 40
0.2267590609
 40
1.0
 40
1.0
 40
1.0
 40
1.0
 10
420.229218741
 20
304.6725903559
 30
0.0
 10
420.2707563473
 20
304.6883949092
 30
0.0
 10
420.4408254702
 20
304.7908142172
 30
0.0
 10
420.5486951256
 20
304.9789027407
 30
0.0
 10
420.5827721338
 20
305.1265700471
 30
0.0
  0
SPLINE
  5
4A2
100
AcDbEntity
  8
X23982005_BL6
100
AcDbSpline
 62
9
  6
CONTINUOUS
 70
0
 71
3
 72
9
 73
5
 74
0
 42
0.0000001
 43
0.0000001
 44
0.0000000001
 40
0.0
 40
0.0
 40
0.0
 40
0.0
 40
0.5220036073
 40
1.0
 40
1.0
 40
1.0
 40
1.0
 10
420.5827721316
 20
305.1265700481
 30
0.0
 10
420.535972073
 20
305.1696390121
 30
0.0
 10
420.4620300329
 20
305.2716565696
 30
0.0
 10
420.4363285522
 20
305.3946871938
 30
0.0
 10
420.4363255222
 20
305.4529270241
 30
0.0
  0
SPLINE
  5
4A3
100
AcDbEntity
  8
X23982005_BL6
100
AcDbSpline
 62
9
  6
CONTINUOUS
 70
0
 71
3
 72
11
 73
7
 74
0
 42
0.0000001
 43
0.0000001
 44
0.0000000001
 40
0.0
 40
0.0
 40
0.0
 40
0.0
 40
0.3156622577
 40
0.5808466583
 40
0.803232331
 40
1.0
 40
1.0
 40
1.0
 40
1.0
 10
420.229218741
 20
304.6725903559
 30
0.0
 10
420.1852157436
 20
304.6928661761
 30
0.0
 10
420.1066168547
 20
304.7359835546
 30
0.0
 10
420.0113481621
 20
304.8158663487
 30
0.0
 10
419.9509463998
 20
304.9039258547
 30
0.0
 10
419.9363270873
 20
304.9687462776
 30
0.0
 10
419.9363255222
 20
304.9989473318
 30
0.0
  0
SPLINE
  5
4A4
100
AcDbEntity
  8
X23982005_BL6
100
AcDbSpline
 62
9
  6
CONTINUOUS
 70
0
 71
3
 72
9
 73
5
 74
0
 42
0.0000001
 43
0.0000001
 44
0.0000000001
 40
0.0
 40
0.0
 40
0.0
 40
0.0
 40
0.2268868383
 40
1.0
 40
1.0
 40
1.0
 40
1.0
 10
420.9363255222
 20
304.34623338
 30
0.0
 10
420.9778888063
 20
304.3620477027
 30
0.0
 10
421.1480442179
 20
304.4643518248
 30
0.0
 10
421.2558056143
 20
304.6525621122
 30
0.0
 10
421.2898789128
 20
304.8002130722
 30
0.0
  0
SPLINE
  5
4A5
100
AcDbEntity
  8
X23982005_BL6
100
AcDbSpline
 62
9
  6
CONTINUOUS
 70
0
 71
3
 72
11
 73
7
 74
0
 42
0.0000001
 43
0.0000001
 44
0.0000000001
 40
0.0
 40
0.0
 40
0.0
 40
0.0
 40
0.2610260064
 40
0.5157417656
 40
0.7612412727
 40
1.0
 40
1.0
 40
1.0
 40
1.0
 10
420.9363255222
 20
304.34623338
 30
0.0
 10
421.0011367244
 20
304.34623338
 30
0.0
 10
421.1304061406
 20
304.3691400492
 30
0.0
 10
421.2962937305
 20
304.4684593488
 30
0.0
 10
421.4093393395
 20
304.6192220253
 30
0.0
 10
421.4363255222
 20
304.7409307028
 30
0.0
 10
421.4363255222
 20
304.8002130722
 30
0.0
  0
SPLINE
  5
4A6
100
AcDbEntity
  8
X23982005_BL6
100
AcDbSpline
 62
7
  6
CONTINUOUS
 70
0
 71
3
 72
14
 73
10
 74
0
 42
0.0000001
 43
0.0000001
 44
0.0000000001
 40
0.0
 40
0.0
 40
0.0
 40
0.0
 40
0.027751762
 40
0.0823965031
 40
0.1677985966
 40
0.2833791194
 40
0.4275729964
 40
0.5976504191
 40
1.0
 40
1.0
 40
1.0
 40
1.0
 10
413.9363255222
 20
267.3051317853
 30
0.0
 10
413.9363255222
 20
267.2999158335
 30
0.0
 10
413.949933965
 20
267.287772377
 30
0.0
 10
413.9773965455
 20
267.2756850324
 30
0.0
 10
414.0226849158
 20
267.2574246623
 30
0.0
 10
414.0830242978
 20
267.2344998329
 30
0.0
 10
414.157917905
 20
267.2038172981
 30
0.0
 10
414.280268987
 20
267.1476114415
 30
0.0
 10
414.3740263231
 20
267.0937703532
 30
0.0
 10
414.4363255222
 20
267.0509048125
 30
0.0
  0
ELLIPSE
  5
4A7
100
AcDbEntity
  8
X23982005_BL6
100
AcDbEllipse
 62
7
  6
CONTINUOUS
 10
414.9363255222
 20
268.0829936988
 30
0.0
 11
0.0
 21
1.1917535926
 31
0.0
 40
0.8390996312
 41
-3.6651914292
 42
-3.6301258572
  0
ENDBLK
  5
4A8
100
AcDbEntity
  8
0
  6
BYBLOCK
 62
0
100
AcDbBlockEnd
  0
BLOCK
  5
4A9
100
AcDbEntity
  8
X23524005_BL7
100
AcDbBlockBegin
  2
X23524005_BL7
 70
64
 10
316.0091390579
 20
244.0391247246
  3
X23524005_BL7
  1

  0
LINE
  5
4AA
100
AcDbEntity
  8
X23524005_BL7
100
AcDbLine
 62
7
  6
CONTINUOUS
 10
213.6819525935
 20
212.6715955957
 11
213.6819525935
 21
219.292440291
  0
LINE
  5
4AB
100
AcDbEntity
  8
X23524005_BL7
100
AcDbLine
 62
7
  6
CONTINUOUS
 10
213.9748458123
 20
219.9995470722
 11
218.8819525935
 21
224.9066538534
  0
LINE
  5
4AC
100
AcDbEntity
  8
X23524005_BL7
100
AcDbLine
 62
7
  6
CONTINUOUS
 10
414.8363255222
 20
261.4066538534
 11
414.8363255222
 21
272.3566538534
  0
LINE
  5
4AD
100
AcDbEntity
  8
X23524005_BL7
100
AcDbLine
 62
7
  6
CONTINUOUS
 10
414.8363255222
 20
275.3566538534
 11
414.8363255222
 21
275.4066538534
  0
LINE
  5
4AE
100
AcDbEntity
  8
X23524005_BL7
100
AcDbLine
 62
7
  6
CONTINUOUS
 10
418.3363255222
 20
261.4066538534
 11
418.3363255222
 21
266.9683968997
  0
LINE
  5
4AF
100
AcDbEntity
  8
X23524005_BL7
100
AcDbLine
 62
7
  6
CONTINUOUS
 10
418.3363255222
 20
274.4066538534
 11
418.3363255222
 21
275.4066538534
  0
LINE
  5
4B0
100
AcDbEntity
  8
X23524005_BL7
100
AcDbLine
 62
7
  6
CONTINUOUS
 10
418.3363255222
 20
275.4066538534
 11
414.8363255222
 21
275.4066538534
  0
ARC
  5
4B1
100
AcDbEntity
  8
X23524005_BL7
100
AcDbCircle
 62
7
  6
CONTINUOUS
 10
214.6819525935
 20
219.292440291
 40
1.0
100
AcDbArc
 50
135.0
 51
180.0
  0
ENDBLK
  5
4B2
100
AcDbEntity
  8
0
  6
BYBLOCK
 62
0
100
AcDbBlockEnd
  0
BLOCK
  5
4B3
100
AcDbEntity
  8
X23590000_BL8
100
AcDbBlockBegin
  2
X23590000_BL8
 70
64
 10
327.4591390579
 20
263.7066538534
  3
X23590000_BL8
  1

  0
LINE
  5
4B4
100
AcDbEntity
  8
X23590000_BL8
100
AcDbLine
 62
7
  6
CONTINUOUS
 10
245.8819525935
 20
265.4066538534
 11
245.3526632717
 21
264.8773645315
  0
LINE
  5
4B5
100
AcDbEntity
  8
X23590000_BL8
100
AcDbLine
 62
7
  6
CONTINUOUS
 10
236.4112419154
 20
255.9359431753
 11
235.8819525935
 21
255.4066538534
  0
LINE
  5
4B6
100
AcDbEntity
  8
X23590000_BL8
100
AcDbLine
 62
7
  6
CONTINUOUS
 10
235.8819525935
 20
265.4066538534
 11
235.8819525935
 21
255.4066538534
  0
LINE
  5
4B7
100
AcDbEntity
  8
X23590000_BL8
100
AcDbLine
 62
7
  6
CONTINUOUS
 10
236.3819525935
 20
264.8066538534
 11
236.3819525935
 21
256.0066538534
  0
LINE
  5
4B8
100
AcDbEntity
  8
X23590000_BL8
100
AcDbLine
 62
7
  6
CONTINUOUS
 10
235.8819525935
 20
255.4066538534
 11
245.8819525935
 21
255.4066538534
  0
LINE
  5
4B9
100
AcDbEntity
  8
X23590000_BL8
100
AcDbLine
 62
7
  6
CONTINUOUS
 10
236.4819525935
 20
255.9066538534
 11
245.2819525935
 21
255.9066538534
  0
LINE
  5
4BA
100
AcDbEntity
  8
X23590000_BL8
100
AcDbLine
 62
7
  6
CONTINUOUS
 10
245.3819525935
 20
256.0066538534
 11
245.3819525935
 21
264.8066538534
  0
LINE
  5
4BB
100
AcDbEntity
  8
X23590000_BL8
100
AcDbLine
 62
7
  6
CONTINUOUS
 10
245.8819525935
 20
255.4066538534
 11
245.8819525935
 21
265.4066538534
  0
LINE
  5
4BC
100
AcDbEntity
  8
X23590000_BL8
100
AcDbLine
 62
7
  6
CONTINUOUS
 10
245.2819525935
 20
264.9066538534
 11
236.4819525935
 21
264.9066538534
  0
LINE
  5
4BD
100
AcDbEntity
  8
X23590000_BL8
100
AcDbLine
 62
7
  6
CONTINUOUS
 10
245.8819525935
 20
265.4066538534
 11
235.8819525935
 21
265.4066538534
  0
LINE
  5
4BE
100
AcDbEntity
  8
X23590000_BL8
100
AcDbLine
 62
7
  6
CONTINUOUS
 10
245.3526632717
 20
255.9359431753
 11
245.8819525935
 21
255.4066538534
  0
LINE
  5
4BF
100
AcDbEntity
  8
X23590000_BL8
100
AcDbLine
 62
7
  6
CONTINUOUS
 10
236.4112419154
 20
264.8773645315
 11
235.8819525935
 21
265.4066538534
  0
LINE
  5
4C0
100
AcDbEntity
  8
X23590000_BL8
100
AcDbLine
 62
7
  6
CONTINUOUS
 10
418.3363255222
 20
272.3566538534
 11
418.3363255222
 21
266.9683968997
  0
LINE
  5
4C1
100
AcDbEntity
  8
X23590000_BL8
100
AcDbLine
 62
9
  6
CONTINUOUS
 10
418.3363255222
 20
263.5124823946
 11
421.4363255222
 21
263.5124823946
  0
LINE
  5
4C2
100
AcDbEntity
  8
X23590000_BL8
100
AcDbLine
 62
7
  6
CONTINUOUS
 10
418.3363255222
 20
270.4778725846
 11
421.4363255222
 21
270.4778725846
  0
LINE
  5
4C3
100
AcDbEntity
  8
X23590000_BL8
100
AcDbLine
 62
7
  6
CONTINUOUS
 10
417.7363255222
 20
274.4066538534
 11
421.4363255222
 21
274.4066538534
  0
CIRCLE
  5
4C4
100
AcDbEntity
  8
X23590000_BL8
100
AcDbCircle
 62
7
  6
CONTINUOUS
 10
240.8819525935
 20
260.4066538534
 40
7.4
  0
ARC
  5
4C5
100
AcDbEntity
  8
X23590000_BL8
100
AcDbCircle
 62
7
  6
CONTINUOUS
 10
245.2819525935
 20
264.8066538534
 40
0.1
100
AcDbArc
 50
0.0000000001
 51
90.0
  0
ARC
  5
4C6
100
AcDbEntity
  8
X23590000_BL8
100
AcDbCircle
 62
7
  6
CONTINUOUS
 10
236.4819525935
 20
264.8066538534
 40
0.1
100
AcDbArc
 50
90.0
 51
179.9999999999
  0
ARC
  5
4C7
100
AcDbEntity
  8
X23590000_BL8
100
AcDbCircle
 62
7
  6
CONTINUOUS
 10
236.4819525935
 20
256.0066538534
 40
0.1
100
AcDbArc
 50
179.9999999999
 51
270.0
  0
ARC
  5
4C8
100
AcDbEntity
  8
X23590000_BL8
100
AcDbCircle
 62
7
  6
CONTINUOUS
 10
245.2819525935
 20
256.0066538534
 40
0.1
100
AcDbArc
 50
270.0
 51
360.0
  0
ENDBLK
  5
4C9
100
AcDbEntity
  8
0
  6
BYBLOCK
 62
0
100
AcDbBlockEnd
  0
BLOCK
  5
4CA
100
AcDbEntity
  8
X00539000_BL9
100
AcDbBlockBegin
  2
X00539000_BL9
 70
64
 10
323.3591390579
 20
167.4865611388
  3
X00539000_BL9
  1

  0
LINE
  5
4CB
100
AcDbEntity
  8
X00539000_BL9
100
AcDbLine
 62
7
  6
CONTINUOUS
 10
226.2819525935
 20
274.3566538534
 11
226.2819525935
 21
274.4066538534
  0
LINE
  5
4CC
100
AcDbEntity
  8
X00539000_BL9
100
AcDbLine
 62
7
  6
CONTINUOUS
 10
229.2819525935
 20
274.3566538534
 11
229.2819525935
 21
274.4066538534
  0
LINE
  5
4CD
100
AcDbEntity
  8
X00539000_BL9
100
AcDbLine
 62
7
  6
CONTINUOUS
 10
230.2819525935
 20
274.3566538534
 11
230.2819525935
 21
272.3566538534
  0
LINE
  5
4CE
100
AcDbEntity
  8
X00539000_BL9
100
AcDbLine
 62
3
  6
CONTINUOUS
 10
230.3819525935
 20
272.3566538534
 11
225.2819525935
 21
272.3566538534
  0
LINE
  5
4CF
100
AcDbEntity
  8
X00539000_BL9
100
AcDbLine
 62
7
  6
CONTINUOUS
 10
230.3819525935
 20
274.3566538534
 11
225.2819525935
 21
274.3566538534
  0
LINE
  5
4D0
100
AcDbEntity
  8
X00539000_BL9
100
AcDbLine
 62
7
  6
CONTINUOUS
 10
411.3363255222
 20
272.3566538534
 11
411.3363255222
 21
274.3566538534
  0
LINE
  5
4D1
100
AcDbEntity
  8
X00539000_BL9
100
AcDbLine
 62
7
  6
CONTINUOUS
 10
414.7363255222
 20
274.3566538534
 11
414.7363255222
 21
275.3566538534
  0
LINE
  5
4D2
100
AcDbEntity
  8
X00539000_BL9
100
AcDbLine
 62
7
  6
CONTINUOUS
 10
417.7363255222
 20
274.3566538534
 11
417.7363255222
 21
275.3566538534
  0
LINE
  5
4D3
100
AcDbEntity
  8
X00539000_BL9
100
AcDbLine
 62
3
  6
CONTINUOUS
 10
421.4363255222
 20
272.3566538534
 11
411.1363255222
 21
272.3566538534
  0
LINE
  5
4D4
100
AcDbEntity
  8
X00539000_BL9
100
AcDbLine
 62
7
  6
CONTINUOUS
 10
421.4363255222
 20
274.3566538534
 11
411.1363255222
 21
274.3566538534
  0
LINE
  5
4D5
100
AcDbEntity
  8
X00539000_BL9
100
AcDbLine
 62
7
  6
CONTINUOUS
 10
414.7363255222
 20
275.3566538534
 11
417.7363255222
 21
275.3566538534
  0
LINE
  5
4D6
100
AcDbEntity
  8
X00539000_BL9
100
AcDbLine
 62
7
  6
CONTINUOUS
 10
225.7819525935
 20
59.6164684242
 11
225.7819525935
 21
60.0664684242
  0
LINE
  5
4D7
100
AcDbEntity
  8
X00539000_BL9
100
AcDbLine
 62
7
  6
CONTINUOUS
 10
229.7819525935
 20
60.0664684242
 11
229.7819525935
 21
59.6164684242
  0
LINE
  5
4D8
100
AcDbEntity
  8
X00539000_BL9
100
AcDbLine
 62
7
  6
CONTINUOUS
 10
225.7819525935
 20
60.0664684242
 11
229.7819525935
 21
60.0664684242
  0
ENDBLK
  5
4D9
100
AcDbEntity
  8
0
  6
BYBLOCK
 62
0
100
AcDbBlockEnd
  0
BLOCK
  5
4DA
100
AcDbEntity
  8
X23988000_BL10
100
AcDbBlockBegin
  2
X23988000_BL10
 70
64
 10
240.6753001074
 20
216.2734071484
  3
X23988000_BL10
  1

  0
LINE
  5
4DB
100
AcDbEntity
  8
X23988000_BL10
100
AcDbLine
 62
7
  6
CONTINUOUS
 10
215.7218538986
 20
213.8382163843
 11
218.8819525935
 21
215.1164165934
  0
LINE
  5
4DC
100
AcDbEntity
  8
X23988000_BL10
100
AcDbLine
 62
7
  6
CONTINUOUS
 10
262.7569525935
 20
226.6065347266
 11
267.3345041267
 21
228.4580678247
  0
LINE
  5
4DD
100
AcDbEntity
  8
X23988000_BL10
100
AcDbLine
 62
7
  6
CONTINUOUS
 10
217.2763903788
 20
207.9947656631
 11
214.4952784225
 21
206.8698584285
  0
LINE
  5
4DE
100
AcDbEntity
  8
X23988000_BL10
100
AcDbLine
 62
7
  6
CONTINUOUS
 10
267.3502439563
 20
222.2079439804
 11
262.7569525935
 21
220.3500444187
  0
ARC
  5
4DF
100
AcDbEntity
  8
X23988000_BL10
100
AcDbCircle
 62
7
  6
CONTINUOUS
 10
219.0965756025
 20
205.4948805154
 40
9.0
100
AcDbArc
 50
112.022401695
 51
133.707222311
  0
ARC
  5
4E0
100
AcDbEntity
  8
X23988000_BL10
100
AcDbCircle
 62
7
  6
CONTINUOUS
 10
215.6201856572
 20
204.0887464722
 40
3.0
100
AcDbArc
 50
112.022401695
 51
156.0981722244
  0
ARC
  5
4E1
100
AcDbEntity
  8
X23988000_BL10
100
AcDbCircle
 62
7
  6
CONTINUOUS
 10
218.4012976134
 20
205.2136537068
 40
3.0
100
AcDbArc
 50
80.7755990032
 51
112.022401695
  0
ARC
  5
4E2
100
AcDbEntity
  8
X23988000_BL10
100
AcDbCircle
 62
7
  6
CONTINUOUS
 10
240.8819525935
 20
214.3066538534
 40
30.0
100
AcDbArc
 50
21.8314154097
 51
28.1456005613
  0
ARC
  5
4E3
100
AcDbEntity
  8
X23988000_BL10
100
AcDbCircle
 62
7
  6
CONTINUOUS
 10
266.4128212608
 20
224.5255372773
 40
2.5
100
AcDbArc
 50
292.022401695
 51
22.022401695
  0
ENDBLK
  5
4E4
100
AcDbEntity
  8
0
  6
BYBLOCK
 62
0
100
AcDbBlockEnd
  0
BLOCK
  5
4E5
100
AcDbEntity
  8
X00200000_BL11
100
AcDbBlockBegin
  2
X00200000_BL11
 70
64
 10
336.1216390579
 20
278.9066538534
  3
X00200000_BL11
  1

  0
LINE
  5
4E6
100
AcDbEntity
  8
X00200000_BL11
100
AcDbLine
 62
7
  6
CONTINUOUS
 10
411.1363255222
 20
282.1179787188
 11
411.6363255222
 21
282.4066538534
  0
LINE
  5
4E7
100
AcDbEntity
  8
X00200000_BL11
100
AcDbLine
 62
7
  6
CONTINUOUS
 10
411.6363255222
 20
275.4066538534
 11
411.6363255222
 21
282.4066538534
  0
LINE
  5
4E8
100
AcDbEntity
  8
X00200000_BL11
100
AcDbLine
 62
7
  6
CONTINUOUS
 10
411.1363255222
 20
275.695328988
 11
411.6363255222
 21
275.4066538534
  0
LINE
  5
4E9
100
AcDbEntity
  8
X00200000_BL11
100
AcDbLine
 62
7
  6
CONTINUOUS
 10
411.6363255222
 20
275.4066538534
 11
414.8363255222
 21
275.4066538534
  0
LINE
  5
4EA
100
AcDbEntity
  8
X00200000_BL11
100
AcDbLine
 62
7
  6
CONTINUOUS
 10
418.3363255222
 20
275.4066538534
 11
421.4363255222
 21
275.4066538534
  0
LINE
  5
4EB
100
AcDbEntity
  8
X00200000_BL11
100
AcDbLine
 62
7
  6
CONTINUOUS
 10
411.6363255222
 20
282.4066538534
 11
421.4363255222
 21
282.4066538534
  0
CIRCLE
  5
4EC
100
AcDbEntity
  8
X00200000_BL11
100
AcDbCircle
 62
7
  6
CONTINUOUS
 10
252.8819525935
 20
278.9066538534
 40
2.075
  0
ENDBLK
  5
4ED
100
AcDbEntity
  8
0
  6
BYBLOCK
 62
0
100
AcDbBlockEnd
  0
BLOCK
  5
4EE
100
AcDbEntity
  8
X02304000_GEN_BL12
100
AcDbBlockBegin
  2
X02304000_GEN_BL12
 70
64
 10
308.6591390579
 20
170.2365611388
  3
X02304000_GEN_BL12
  1

  0
LINE
  5
4EF
100
AcDbEntity
  8
X02304000_GEN_BL12
100
AcDbLine
 62
7
  6
CONTINUOUS
 10
413.5363255222
 20
292.9066538534
 11
413.5363255222
 21
286.9066538534
  0
LINE
  5
4F0
100
AcDbEntity
  8
X02304000_GEN_BL12
100
AcDbLine
 62
7
  6
CONTINUOUS
 10
413.5363255222
 20
286.9066538534
 11
421.4363255222
 21
286.9066538534
  0
LINE
  5
4F1
100
AcDbEntity
  8
X02304000_GEN_BL12
100
AcDbLine
 62
7
  6
CONTINUOUS
 10
413.5363255222
 20
292.9066538534
 11
421.4363255222
 21
292.9066538534
  0
LINE
  5
4F2
100
AcDbEntity
  8
X02304000_GEN_BL12
100
AcDbLine
 62
7
  6
CONTINUOUS
 10
195.8819525935
 20
47.651385419
 11
195.8819525935
 21
47.5664684242
  0
CIRCLE
  5
4F3
100
AcDbEntity
  8
X02304000_GEN_BL12
100
AcDbCircle
 62
7
  6
CONTINUOUS
 10
198.8819525935
 20
289.9066538534
 40
1.45
  0
ENDBLK
  5
4F4
100
AcDbEntity
  8
0
  6
BYBLOCK
 62
0
100
AcDbBlockEnd
  0
BLOCK
  5
4F5
100
AcDbEntity
  8
X00200000_BL13
100
AcDbBlockBegin
  2
X00200000_BL13
 70
64
 10
185.6319525935
 20
180.3119346037
  3
X00200000_BL13
  1

  0
LINE
  5
4F6
100
AcDbEntity
  8
X00200000_BL13
100
AcDbLine
 62
7
  6
CONTINUOUS
 10
183.5569525935
 20
45.7868665876
 11
183.5569525935
 21
44.6664684242
  0
LINE
  5
4F7
100
AcDbEntity
  8
X00200000_BL13
100
AcDbLine
 62
7
  6
CONTINUOUS
 10
187.7069525935
 20
45.7868665876
 11
187.7069525935
 21
44.6664684242
  0
LINE
  5
4F8
100
AcDbEntity
  8
X00200000_BL13
100
AcDbLine
 62
7
  6
CONTINUOUS
 10
187.7069525935
 20
44.6664684242
 11
183.5569525935
 21
44.6664684242
  0
ARC
  5
4F9
100
AcDbEntity
  8
X00200000_BL13
100
AcDbCircle
 62
7
  6
CONTINUOUS
 10
185.6319525935
 20
315.4066538534
 40
2.075
100
AcDbArc
 50
344.6080769413
 51
15.3919230587
  0
ENDBLK
  5
4FA
100
AcDbEntity
  8
0
  6
BYBLOCK
 62
0
100
AcDbBlockEnd
  0
BLOCK
  5
4FB
100
AcDbEntity
  8
X00200000_BL14
100
AcDbBlockBegin
  2
X00200000_BL14
 70
64
 10
188.9074827975
 20
105.7086659458
  3
X00200000_BL14
  1

  0
LINE
  5
4FC
100
AcDbEntity
  8
X00200000_BL14
100
AcDbLine
 62
7
  6
CONTINUOUS
 10
188.7569525935
 20
45.7868665876
 11
188.7569525935
 21
44.6664684242
  0
LINE
  5
4FD
100
AcDbEntity
  8
X00200000_BL14
100
AcDbLine
 62
7
  6
CONTINUOUS
 10
190.1819525935
 20
57.3664684242
 11
190.1819525935
 21
47.5664684242
  0
LINE
  5
4FE
100
AcDbEntity
  8
X00200000_BL14
100
AcDbLine
 62
7
  6
CONTINUOUS
 10
190.0178945715
 20
57.6506252539
 11
190.1819525935
 21
57.3664684242
  0
LINE
  5
4FF
100
AcDbEntity
  8
X00200000_BL14
100
AcDbLine
 62
7
  6
CONTINUOUS
 10
188.7569525935
 20
44.6664684242
 11
187.7069525935
 21
44.6664684242
  0
LINE
  5
500
100
AcDbEntity
  8
X00200000_BL14
100
AcDbLine
 62
7
  6
CONTINUOUS
 10
190.1819525935
 20
57.3664684242
 11
189.8835373345
 21
57.3664684242
  0
ARC
  5
501
100
AcDbEntity
  8
X00200000_BL14
100
AcDbCircle
 62
7
  6
CONTINUOUS
 10
186.6819525935
 20
164.9066538534
 40
2.075
100
AcDbArc
 50
297.2801949879
 51
62.7198050121
  0
ENDBLK
  5
502
100
AcDbEntity
  8
0
  6
BYBLOCK
 62
0
100
AcDbBlockEnd
  0
BLOCK
  5
503
100
AcDbEntity
  8
X00308000_BL15
100
AcDbBlockBegin
  2
X00308000_BL15
 70
64
 10
230.3819525935
 20
124.7115611388
  3
X00308000_BL15
  1

  0
LINE
  5
504
100
AcDbEntity
  8
X00308000_BL15
100
AcDbLine
 62
7
  6
CONTINUOUS
 10
231.4919525935
 20
60.0664684242
 11
229.7819525935
 21
60.0664684242
  0
LINE
  5
505
100
AcDbEntity
  8
X00308000_BL15
100
AcDbLine
 62
7
  6
CONTINUOUS
 10
231.4919525935
 20
60.0664684242
 11
231.7517602147
 21
59.6164684242
  0
CIRCLE
  5
506
100
AcDbEntity
  8
X00308000_BL15
100
AcDbCircle
 62
7
  6
CONTINUOUS
 10
230.3819525935
 20
188.4066538534
 40
1.4
  0
ENDBLK
  5
507
100
AcDbEntity
  8
0
  6
BYBLOCK
 62
0
100
AcDbBlockEnd
  0
BLOCK
  5
508
100
AcDbEntity
  8
X02304010_BL16
100
AcDbBlockBegin
  2
X02304010_BL16
 70
64
 10
198.8819525935
 20
219.9225545827
  3
X02304010_BL16
  1

  0
ARC
  5
509
100
AcDbEntity
  8
X02304010_BL16
100
AcDbCircle
 62
7
  6
CONTINUOUS
 10
198.8819525935
 20
220.4066538534
 40
3.0
100
AcDbArc
 50
180.0
 51
306.2866519207
  0
CIRCLE
  5
50A
100
AcDbEntity
  8
X02304010_BL16
100
AcDbCircle
 62
7
  6
CONTINUOUS
 10
198.8819525935
 20
220.4066538534
 40
1.45
  0
ENDBLK
  5
50B
100
AcDbEntity
  8
0
  6
BYBLOCK
 62
0
100
AcDbBlockEnd
  0
BLOCK
  5
50C
100
AcDbEntity
  8
X00200000_BL17
100
AcDbBlockBegin
  2
X00200000_BL17
 70
64
 10
187.6325282156
 20
243.9066538534
  3
X00200000_BL17
  1

  0
ARC
  5
50D
100
AcDbEntity
  8
X00200000_BL17
100
AcDbCircle
 62
7
  6
CONTINUOUS
 10
185.6319525935
 20
243.9066538534
 40
2.075
100
AcDbArc
 50
344.6080769413
 51
15.3919230587
  0
ENDBLK
  5
50E
100
AcDbEntity
  8
0
  6
BYBLOCK
 62
0
100
AcDbBlockEnd
  0
BLOCK
  5
50F
100
AcDbEntity
  8
X00200000_BL18
100
AcDbBlockBegin
  2
X00200000_BL18
 70
64
 10
240.8819525935
 20
214.3066538534
  3
X00200000_BL18
  1

  0
CIRCLE
  5
510
100
AcDbEntity
  8
X00200000_BL18
100
AcDbCircle
 62
7
  6
CONTINUOUS
 10
240.8819525935
 20
214.3066538534
 40
2.075
  0
ENDBLK
  5
511
100
AcDbEntity
  8
0
  6
BYBLOCK
 62
0
100
AcDbBlockEnd
  0
BLOCK
  5
512
100
AcDbEntity
  8
0
100
AcDbBlockBegin
  2
_FILLED
 70
64
 10
0.0
 20
0.0
  3
_FILLED
  1

  0
SOLID
  5
513
100
AcDbEntity
  8
0
  6
BYBLOCK
 62
0
100
AcDbTrace
 10
0.0
 20
0.0
 11
-1.0
 21
0.1428571429
 12
-1.0
 22
-0.1428571429
 13
-1.0
 23
-0.1428571429
  0
ENDBLK
  5
514
100
AcDbEntity
  8
0
  6
BYBLOCK
 62
0
100
AcDbBlockEnd
  0
BLOCK
  5
515
100
AcDbEntity
  8
0
100
AcDbBlockBegin
 62
2
  6
CONTINUOUS
  2
*D0
 70
65
 10
0.0
 20
0.0
  3
*D0
  1

  0
MTEXT
  5
516
100
AcDbEntity
  8
0
100
AcDbMText
 62
5
  6
CONTINUOUS
  7
TEXTSTYLE_3
 71
2
 72
1
 10
275.4254458698
 20
250.4902626806
 30
0.0
 11
0.2759254076
 21
0.9611790517
 31
0.0
 44
0.9
  1
40\Fgdt;{\Fgdt;~}\P\Fswisscl.ttf;Drehwinkel
 40
4.0
 41
21.1182795699
  0
LINE
  5
517
100
AcDbEntity
  8
0
100
AcDbLine
 62
2
  6
CONTINUOUS
 10
240.412633695
 20
260.8004591681
 11
279.9032349186
 21
227.6639102464
  0
LINE
  5
518
100
AcDbEntity
  8
0
100
AcDbLine
 62
2
  6
CONTINUOUS
 10
282.3457143418
 20
260.4066538534
 11
291.8206189797
 21
260.4066538534
  0
ARC
  5
519
100
AcDbEntity
  8
0
100
AcDbCircle
 62
2
  6
CONTINUOUS
 10
240.8819525935
 20
260.4066538534
 40
49.9386663862
100
AcDbArc
 50
320.0
 51
340.0
  0
ARC
  5
51A
100
AcDbEntity
  8
0
100
AcDbCircle
 62
2
  6
CONTINUOUS
 10
240.8819525935
 20
260.4066538534
 40
49.9386663862
100
AcDbArc
 50
340.0
 51
360.0
  0
SOLID
  5
51B
100
AcDbEntity
  8
0
100
AcDbTrace
 62
2
  6
CONTINUOUS
 10
280.8975820577
 20
231.3728063794
 11
279.1371904755
 21
228.3066978561
 12
281.685676781
 22
230.7572523955
 13
281.685676781
 23
230.7572523955
  0
SOLID
  5
51C
100
AcDbEntity
  8
0
100
AcDbTrace
 62
2
  6
CONTINUOUS
 10
291.1976866577
 20
256.8912847453
 11
290.8206189797
 21
260.4066538534
 12
290.1983006003
 22
256.9263205598
 13
290.1983006003
 23
256.9263205598
  0
ENDBLK
  5
51D
100
AcDbEntity
  8
0
  6
BYBLOCK
 62
0
100
AcDbBlockEnd
  0
BLOCK
  5
51E
100
AcDbEntity
  8
0
100
AcDbBlockBegin
 62
2
  6
CONTINUOUS
  2
*D1
 70
65
 10
0.0
 20
0.0
  3
*D1
  1

  0
MTEXT
  5
51F
100
AcDbEntity
  8
0
100
AcDbMText
 62
5
  6
CONTINUOUS
  7
TEXTSTYLE_3
 71
2
 72
1
 10
303.8819525935
 20
270.7816538534
 30
0.0
 11
0.0
 21
1.0
 31
0.0
 44
0.9
  1
20.75
 40
4.0
 41
11.2974910394
  0
LINE
  5
520
100
AcDbEntity
  8
0
100
AcDbLine
 62
2
  6
CONTINUOUS
 10
245.8820525935
 20
281.1566538534
 11
309.8819525935
 21
281.1566538534
  0
LINE
  5
521
100
AcDbEntity
  8
0
100
AcDbLine
 62
2
  6
CONTINUOUS
 10
292.2208445632
 20
260.4066538534
 11
309.8819525935
 21
260.4066538534
  0
LINE
  5
522
100
AcDbEntity
  8
0
100
AcDbLine
 62
2
  6
CONTINUOUS
 10
308.8819525935
 20
281.1566538534
 11
308.8819525935
 21
270.7816538534
  0
LINE
  5
523
100
AcDbEntity
  8
0
100
AcDbLine
 62
2
  6
CONTINUOUS
 10
308.8819525935
 20
260.4066538534
 11
308.8819525935
 21
270.7816538534
  0
INSERT
  5
524
100
AcDbEntity
  8
0
100
AcDbBlockReference
 62
2
  6
CONTINUOUS
  2
_FILLED
 10
308.8819525935
 20
281.1566538534
 41
3.5
 42
3.5
 43
3.5
 50
90.0
  0
INSERT
  5
525
100
AcDbEntity
  8
0
100
AcDbBlockReference
 62
2
  6
CONTINUOUS
  2
_FILLED
 10
308.8819525935
 20
260.4066538534
 41
3.5
 42
3.5
 43
3.5
 50
270.0
  0
ENDBLK
  5
526
100
AcDbEntity
  8
0
  6
BYBLOCK
 62
0
100
AcDbBlockEnd
  0
BLOCK
  5
527
100
AcDbEntity
  8
0
100
AcDbBlockBegin
 62
2
  6
CONTINUOUS
  2
*D2
 70
65
 10
0.0
 20
0.0
  3
*D2
  1

  0
MTEXT
  5
528
100
AcDbEntity
  8
0
100
AcDbMText
 62
5
  6
CONTINUOUS
  7
TEXTSTYLE_3
 71
1
 72
1
 10
293.8819525935
 20
286.4502179913
 30
0.0
 11
0.0
 21
1.0
 31
0.0
 44
0.9
  1
2.5
 40
4.0
 41
6.2795698925
  0
LINE
  5
529
100
AcDbEntity
  8
0
100
AcDbLine
 62
2
  6
CONTINUOUS
 10
245.8820525935
 20
278.6566538534
 11
299.8819525935
 21
278.6566538534
  0
LINE
  5
52A
100
AcDbEntity
  8
0
100
AcDbLine
 62
2
  6
CONTINUOUS
 10
245.8820525935
 20
281.1566538534
 11
299.8819525935
 21
281.1566538534
  0
LINE
  5
52B
100
AcDbEntity
  8
0
100
AcDbLine
 62
2
  6
CONTINUOUS
 10
298.8819525935
 20
278.6566538534
 11
298.8819525935
 21
273.6566538534
  0
LINE
  5
52C
100
AcDbEntity
  8
0
100
AcDbLine
 62
2
  6
CONTINUOUS
 10
298.8819525935
 20
273.6566538534
 11
298.8819525935
 21
279.9066538534
  0
LINE
  5
52D
100
AcDbEntity
  8
0
100
AcDbLine
 62
2
  6
CONTINUOUS
 10
298.8819525935
 20
281.1566538534
 11
298.8819525935
 21
292.7297878838
  0
LINE
  5
52E
100
AcDbEntity
  8
0
100
AcDbLine
 62
2
  6
CONTINUOUS
 10
298.8819525935
 20
292.7297878838
 11
298.8819525935
 21
279.9066538534
  0
INSERT
  5
52F
100
AcDbEntity
  8
0
100
AcDbBlockReference
 62
2
  6
CONTINUOUS
  2
_FILLED
 10
298.8819525935
 20
278.6566538534
 41
3.5
 42
3.5
 43
3.5
 50
90.0
  0
INSERT
  5
530
100
AcDbEntity
  8
0
100
AcDbBlockReference
 62
2
  6
CONTINUOUS
  2
_FILLED
 10
298.8819525935
 20
281.1566538534
 41
3.5
 42
3.5
 43
3.5
 50
270.0
  0
ENDBLK
  5
531
100
AcDbEntity
  8
0
  6
BYBLOCK
 62
0
100
AcDbBlockEnd
  0
BLOCK
  5
532
100
AcDbEntity
  8
0
100
AcDbBlockBegin
 62
2
  6
CONTINUOUS
  2
*D3
 70
65
 10
0.0
 20
0.0
  3
*D3
  1

  0
MTEXT
  5
533
100
AcDbEntity
  8
0
100
AcDbMText
 62
5
  6
CONTINUOUS
  7
TEXTSTYLE_3
 71
2
 72
1
 10
303.8819525935
 20
249.6566538534
 30
0.0
 11
0.0
 21
1.0
 31
0.0
 44
0.9
  1
21.5
 40
4.0
 41
8.7885304659
  0
LINE
  5
534
100
AcDbEntity
  8
0
100
AcDbLine
 62
2
  6
CONTINUOUS
 10
245.8820525935
 20
238.9066538534
 11
263.192504424
 21
238.9066538534
  0
LINE
  5
535
100
AcDbEntity
  8
0
100
AcDbLine
 62
2
  6
CONTINUOUS
 10
267.9283436913
 20
238.9066538534
 11
276.2311639373
 21
238.9066538534
  0
LINE
  5
536
100
AcDbEntity
  8
0
100
AcDbLine
 62
2
  6
CONTINUOUS
 10
287.2492389674
 20
238.9066538534
 11
309.8819525935
 21
238.9066538534
  0
LINE
  5
537
100
AcDbEntity
  8
0
100
AcDbLine
 62
2
  6
CONTINUOUS
 10
293.0819941116
 20
260.4066538534
 11
309.8819525935
 21
260.4066538534
  0
LINE
  5
538
100
AcDbEntity
  8
0
100
AcDbLine
 62
2
  6
CONTINUOUS
 10
308.8819525935
 20
238.9066538534
 11
308.8819525935
 21
249.6566538534
  0
LINE
  5
539
100
AcDbEntity
  8
0
100
AcDbLine
 62
2
  6
CONTINUOUS
 10
308.8819525935
 20
260.4066538534
 11
308.8819525935
 21
249.6566538534
  0
INSERT
  5
53A
100
AcDbEntity
  8
0
100
AcDbBlockReference
 62
2
  6
CONTINUOUS
  2
_FILLED
 10
308.8819525935
 20
238.9066538534
 41
3.5
 42
3.5
 43
3.5
 50
270.0
  0
INSERT
  5
53B
100
AcDbEntity
  8
0
100
AcDbBlockReference
 62
2
  6
CONTINUOUS
  2
_FILLED
 10
308.8819525935
 20
260.4066538534
 41
3.5
 42
3.5
 43
3.5
 50
90.0
  0
ENDBLK
  5
53C
100
AcDbEntity
  8
0
  6
BYBLOCK
 62
0
100
AcDbBlockEnd
  0
BLOCK
  5
53D
100
AcDbEntity
  8
0
100
AcDbBlockBegin
 62
2
  6
CONTINUOUS
  2
*D4
 70
65
 10
0.0
 20
0.0
  3
*D4
  1

  0
MTEXT
  5
53E
100
AcDbEntity
  8
0
100
AcDbMText
 62
5
  6
CONTINUOUS
  7
TEXTSTYLE_3
 71
3
 72
1
 10
293.8819525935
 20
233.7150174254
 30
0.0
 11
0.0
 21
1.0
 31
0.0
 44
0.9
  1
2.5
 40
4.0
 41
6.2795698925
  0
LINE
  5
53F
100
AcDbEntity
  8
0
100
AcDbLine
 62
2
  6
CONTINUOUS
 10
291.51626766
 20
238.9066538534
 11
299.8819525935
 21
238.9066538534
  0
LINE
  5
540
100
AcDbEntity
  8
0
100
AcDbLine
 62
2
  6
CONTINUOUS
 10
245.8820525935
 20
241.4066538534
 11
262.0327070524
 21
241.4066538534
  0
LINE
  5
541
100
AcDbEntity
  8
0
100
AcDbLine
 62
2
  6
CONTINUOUS
 10
265.2221498242
 20
241.4066538534
 11
277.6809106518
 21
241.4066538534
  0
LINE
  5
542
100
AcDbEntity
  8
0
100
AcDbLine
 62
2
  6
CONTINUOUS
 10
288.6023359009
 20
241.4066538534
 11
299.8819525935
 21
241.4066538534
  0
LINE
  5
543
100
AcDbEntity
  8
0
100
AcDbLine
 62
2
  6
CONTINUOUS
 10
298.8819525935
 20
238.9066538534
 11
298.8819525935
 21
227.4354475329
  0
LINE
  5
544
100
AcDbEntity
  8
0
100
AcDbLine
 62
2
  6
CONTINUOUS
 10
298.8819525935
 20
227.4354475329
 11
298.8819525935
 21
240.1566538534
  0
LINE
  5
545
100
AcDbEntity
  8
0
100
AcDbLine
 62
2
  6
CONTINUOUS
 10
298.8819525935
 20
241.4066538534
 11
298.8819525935
 21
246.4066538534
  0
LINE
  5
546
100
AcDbEntity
  8
0
100
AcDbLine
 62
2
  6
CONTINUOUS
 10
298.8819525935
 20
246.4066538534
 11
298.8819525935
 21
240.1566538534
  0
INSERT
  5
547
100
AcDbEntity
  8
0
100
AcDbBlockReference
 62
2
  6
CONTINUOUS
  2
_FILLED
 10
298.8819525935
 20
238.9066538534
 41
3.5
 42
3.5
 43
3.5
 50
90.0
  0
INSERT
  5
548
100
AcDbEntity
  8
0
100
AcDbBlockReference
 62
2
  6
CONTINUOUS
  2
_FILLED
 10
298.8819525935
 20
241.4066538534
 41
3.5
 42
3.5
 43
3.5
 50
270.0
  0
ENDBLK
  5
549
100
AcDbEntity
  8
0
  6
BYBLOCK
 62
0
100
AcDbBlockEnd
  0
BLOCK
  5
54A
100
AcDbEntity
  8
0
100
AcDbBlockBegin
 62
2
  6
CONTINUOUS
  2
*D5
 70
65
 10
0.0
 20
0.0
  3
*D5
  1

  0
MTEXT
  5
54B
100
AcDbEntity
  8
0
100
AcDbMText
 62
5
  6
CONTINUOUS
  7
TEXTSTYLE_3
 71
2
 72
1
 10
240.8819525935
 20
229.4418112152
 30
0.0
 11
1.0
 21
0.0
 31
0.0
 44
0.9
  1
7
 40
4.0
 41
2.5089605735
  0
LINE
  5
54C
100
AcDbEntity
  8
0
100
AcDbLine
 62
2
  6
CONTINUOUS
 10
237.3819525935
 20
238.9066538534
 11
237.3819525935
 21
223.4418112152
  0
LINE
  5
54D
100
AcDbEntity
  8
0
100
AcDbLine
 62
2
  6
CONTINUOUS
 10
244.3819525935
 20
238.9066538534
 11
244.3819525935
 21
223.4418112152
  0
LINE
  5
54E
100
AcDbEntity
  8
0
100
AcDbLine
 62
2
  6
CONTINUOUS
 10
237.3819525935
 20
224.4418112152
 11
232.3819525935
 21
224.4418112152
  0
LINE
  5
54F
100
AcDbEntity
  8
0
100
AcDbLine
 62
2
  6
CONTINUOUS
 10
232.3819525935
 20
224.4418112152
 11
240.8819525935
 21
224.4418112152
  0
LINE
  5
550
100
AcDbEntity
  8
0
100
AcDbLine
 62
2
  6
CONTINUOUS
 10
244.3819525935
 20
224.4418112152
 11
249.3819525935
 21
224.4418112152
  0
LINE
  5
551
100
AcDbEntity
  8
0
100
AcDbLine
 62
2
  6
CONTINUOUS
 10
249.3819525935
 20
224.4418112152
 11
240.8819525935
 21
224.4418112152
  0
INSERT
  5
552
100
AcDbEntity
  8
0
100
AcDbBlockReference
 62
2
  6
CONTINUOUS
  2
_FILLED
 10
237.3819525935
 20
224.4418112152
 41
3.5
 42
3.5
 43
3.5
  0
INSERT
  5
553
100
AcDbEntity
  8
0
100
AcDbBlockReference
 62
2
  6
CONTINUOUS
  2
_FILLED
 10
244.3819525935
 20
224.4418112152
 41
3.5
 42
3.5
 43
3.5
 50
180.0
  0
ENDBLK
  5
554
100
AcDbEntity
  8
0
  6
BYBLOCK
 62
0
100
AcDbBlockEnd
  0
BLOCK
  5
555
100
AcDbEntity
  8
0
100
AcDbBlockBegin
 62
2
  6
CONTINUOUS
  2
*D6
 70
65
 10
0.0
 20
0.0
  3
*D6
  1

  0
MTEXT
  5
556
100
AcDbEntity
  8
0
100
AcDbMText
 62
5
  6
CONTINUOUS
  7
TEXTSTYLE_3
 71
2
 72
1
 10
313.8819525935
 20
229.9066538534
 30
0.0
 11
0.0
 21
1.0
 31
0.0
 44
0.9
  1
61
 40
4.0
 41
5.017921147
  0
LINE
  5
557
100
AcDbEntity
  8
0
100
AcDbLine
 62
2
  6
CONTINUOUS
 10
292.4557035309
 20
260.4066538534
 11
319.8819525935
 21
260.4066538534
  0
LINE
  5
558
100
AcDbEntity
  8
0
100
AcDbLine
 62
2
  6
CONTINUOUS
 10
249.3819525935
 20
199.4066538534
 11
319.8819525935
 21
199.4066538534
  0
LINE
  5
559
100
AcDbEntity
  8
0
100
AcDbLine
 62
2
  6
CONTINUOUS
 10
318.8819525935
 20
260.4066538534
 11
318.8819525935
 21
229.9066538534
  0
LINE
  5
55A
100
AcDbEntity
  8
0
100
AcDbLine
 62
2
  6
CONTINUOUS
 10
318.8819525935
 20
199.4066538534
 11
318.8819525935
 21
229.9066538534
  0
INSERT
  5
55B
100
AcDbEntity
  8
0
100
AcDbBlockReference
 62
2
  6
CONTINUOUS
  2
_FILLED
 10
318.8819525935
 20
260.4066538534
 41
3.5
 42
3.5
 43
3.5
 50
90.0
  0
INSERT
  5
55C
100
AcDbEntity
  8
0
100
AcDbBlockReference
 62
2
  6
CONTINUOUS
  2
_FILLED
 10
318.8819525935
 20
199.4066538534
 41
3.5
 42
3.5
 43
3.5
 50
270.0
  0
ENDBLK
  5
55D
100
AcDbEntity
  8
0
  6
BYBLOCK
 62
0
100
AcDbBlockEnd
  0
BLOCK
  5
55E
100
AcDbEntity
  8
0
100
AcDbBlockBegin
 62
2
  6
CONTINUOUS
  2
*D7
 70
65
 10
0.0
 20
0.0
  3
*D7
  1

  0
MTEXT
  5
55F
100
AcDbEntity
  8
0
100
AcDbMText
 62
5
  6
CONTINUOUS
  7
TEXTSTYLE_3
 71
2
 72
1
 10
313.8819525935
 20
180.4066538534
 30
0.0
 11
0.0
 21
1.0
 31
0.0
 44
0.9
  1
38
 40
4.0
 41
5.017921147
  0
LINE
  5
560
100
AcDbEntity
  8
0
100
AcDbLine
 62
2
  6
CONTINUOUS
 10
249.3819525935
 20
199.4066538534
 11
319.8819525935
 21
199.4066538534
  0
LINE
  5
561
100
AcDbEntity
  8
0
100
AcDbLine
 62
2
  6
CONTINUOUS
 10
245.8820525935
 20
161.4066538534
 11
319.8819525935
 21
161.4066538534
  0
LINE
  5
562
100
AcDbEntity
  8
0
100
AcDbLine
 62
2
  6
CONTINUOUS
 10
318.8819525935
 20
199.4066538534
 11
318.8819525935
 21
180.4066538534
  0
LINE
  5
563
100
AcDbEntity
  8
0
100
AcDbLine
 62
2
  6
CONTINUOUS
 10
318.8819525935
 20
161.4066538534
 11
318.8819525935
 21
180.4066538534
  0
INSERT
  5
564
100
AcDbEntity
  8
0
100
AcDbBlockReference
 62
2
  6
CONTINUOUS
  2
_FILLED
 10
318.8819525935
 20
199.4066538534
 41
3.5
 42
3.5
 43
3.5
 50
90.0
  0
INSERT
  5
565
100
AcDbEntity
  8
0
100
AcDbBlockReference
 62
2
  6
CONTINUOUS
  2
_FILLED
 10
318.8819525935
 20
161.4066538534
 41
3.5
 42
3.5
 43
3.5
 50
270.0
  0
ENDBLK
  5
566
100
AcDbEntity
  8
0
  6
BYBLOCK
 62
0
100
AcDbBlockEnd
  0
BLOCK
  5
567
100
AcDbEntity
  8
0
100
AcDbBlockBegin
 62
2
  6
CONTINUOUS
  2
*D8
 70
65
 10
0.0
 20
0.0
  3
*D8
  1

  0
MTEXT
  5
568
100
AcDbEntity
  8
0
100
AcDbMText
 62
5
  6
CONTINUOUS
  7
TEXTSTYLE_3
 71
2
 72
1
 10
313.8819525935
 20
291.9116538534
 30
0.0
 11
0.0
 21
1.0
 31
0.0
 44
0.9
  1
63
 40
4.0
 41
5.017921147
  0
LINE
  5
569
100
AcDbEntity
  8
0
100
AcDbLine
 62
2
  6
CONTINUOUS
 10
292.064271918
 20
260.4066538534
 11
319.8819525935
 21
260.4066538534
  0
LINE
  5
56A
100
AcDbEntity
  8
0
100
AcDbLine
 62
2
  6
CONTINUOUS
 10
265.1319525935
 20
323.4166538534
 11
319.8819525935
 21
323.4166538534
  0
LINE
  5
56B
100
AcDbEntity
  8
0
100
AcDbLine
 62
2
  6
CONTINUOUS
 10
318.8819525935
 20
260.4066538534
 11
318.8819525935
 21
291.9116538534
  0
LINE
  5
56C
100
AcDbEntity
  8
0
100
AcDbLine
 62
2
  6
CONTINUOUS
 10
318.8819525935
 20
323.4166538534
 11
318.8819525935
 21
291.9116538534
  0
INSERT
  5
56D
100
AcDbEntity
  8
0
100
AcDbBlockReference
 62
2
  6
CONTINUOUS
  2
_FILLED
 10
318.8819525935
 20
260.4066538534
 41
3.5
 42
3.5
 43
3.5
 50
270.0
  0
INSERT
  5
56E
100
AcDbEntity
  8
0
100
AcDbBlockReference
 62
2
  6
CONTINUOUS
  2
_FILLED
 10
318.8819525935
 20
323.4166538534
 41
3.5
 42
3.5
 43
3.5
 50
90.0
  0
ENDBLK
  5
56F
100
AcDbEntity
  8
0
  6
BYBLOCK
 62
0
100
AcDbBlockEnd
  0
BLOCK
  5
570
100
AcDbEntity
  8
0
100
AcDbBlockBegin
 62
2
  6
CONTINUOUS
  2
*D9
 70
65
 10
0.0
 20
0.0
  3
*D9
  1

  0
MTEXT
  5
571
100
AcDbEntity
  8
0
100
AcDbMText
 62
5
  6
CONTINUOUS
  7
TEXTSTYLE_3
 71
2
 72
1
 10
323.8819525935
 20
309.4066538534
 30
0.0
 11
0.0
 21
1.0
 31
0.0
 44
0.9
  1
98
 40
4.0
 41
5.017921147
  0
LINE
  5
572
100
AcDbEntity
  8
0
100
AcDbLine
 62
2
  6
CONTINUOUS
 10
292.7688488213
 20
260.4066538534
 11
329.8819525935
 21
260.4066538534
  0
LINE
  5
573
100
AcDbEntity
  8
0
100
AcDbLine
 62
2
  6
CONTINUOUS
 10
177.6319525935
 20
358.4066538534
 11
329.8819525935
 21
358.4066538534
  0
LINE
  5
574
100
AcDbEntity
  8
0
100
AcDbLine
 62
2
  6
CONTINUOUS
 10
328.8819525935
 20
260.4066538534
 11
328.8819525935
 21
309.4066538534
  0
LINE
  5
575
100
AcDbEntity
  8
0
100
AcDbLine
 62
2
  6
CONTINUOUS
 10
328.8819525935
 20
358.4066538534
 11
328.8819525935
 21
309.4066538534
  0
INSERT
  5
576
100
AcDbEntity
  8
0
100
AcDbBlockReference
 62
2
  6
CONTINUOUS
  2
_FILLED
 10
328.8819525935
 20
260.4066538534
 41
3.5
 42
3.5
 43
3.5
 50
270.0
  0
INSERT
  5
577
100
AcDbEntity
  8
0
100
AcDbBlockReference
 62
2
  6
CONTINUOUS
  2
_FILLED
 10
328.8819525935
 20
358.4066538534
 41
3.5
 42
3.5
 43
3.5
 50
90.0
  0
ENDBLK
  5
578
100
AcDbEntity
  8
0
  6
BYBLOCK
 62
0
100
AcDbBlockEnd
  0
BLOCK
  5
579
100
AcDbEntity
  8
0
100
AcDbBlockBegin
 62
2
  6
CONTINUOUS
  2
*D10
 70
65
 10
0.0
 20
0.0
  3
*D10
  1

  0
MTEXT
  5
57A
100
AcDbEntity
  8
0
100
AcDbMText
 62
5
  6
CONTINUOUS
  7
TEXTSTYLE_3
 71
2
 72
1
 10
333.8819525935
 20
240.8866538534
 30
0.0
 11
0.0
 21
1.0
 31
0.0
 44
0.9
  1
165
 40
4.0
 41
7.5268817204
  0
LINE
  5
57B
100
AcDbEntity
  8
0
100
AcDbLine
 62
2
  6
CONTINUOUS
 10
237.3819525935
 20
158.3566538534
 11
339.8819525935
 21
158.3566538534
  0
LINE
  5
57C
100
AcDbEntity
  8
0
100
AcDbLine
 62
2
  6
CONTINUOUS
 10
265.1319525935
 20
323.4166538534
 11
339.8819525935
 21
323.4166538534
  0
LINE
  5
57D
100
AcDbEntity
  8
0
100
AcDbLine
 62
2
  6
CONTINUOUS
 10
338.8819525935
 20
158.3566538534
 11
338.8819525935
 21
240.8866538534
  0
LINE
  5
57E
100
AcDbEntity
  8
0
100
AcDbLine
 62
2
  6
CONTINUOUS
 10
338.8819525935
 20
323.4166538534
 11
338.8819525935
 21
240.8866538534
  0
INSERT
  5
57F
100
AcDbEntity
  8
0
100
AcDbBlockReference
 62
2
  6
CONTINUOUS
  2
_FILLED
 10
338.8819525935
 20
158.3566538534
 41
3.5
 42
3.5
 43
3.5
 50
270.0
  0
INSERT
  5
580
100
AcDbEntity
  8
0
100
AcDbBlockReference
 62
2
  6
CONTINUOUS
  2
_FILLED
 10
338.8819525935
 20
323.4166538534
 41
3.5
 42
3.5
 43
3.5
 50
90.0
  0
ENDBLK
  5
581
100
AcDbEntity
  8
0
  6
BYBLOCK
 62
0
100
AcDbBlockEnd
  0
BLOCK
  5
582
100
AcDbEntity
  8
0
100
AcDbBlockBegin
 62
2
  6
CONTINUOUS
  2
*D11
 70
65
 10
0.0
 20
0.0
  3
*D11
  1

  0
MTEXT
  5
583
100
AcDbEntity
  8
0
100
AcDbMText
 62
5
  6
CONTINUOUS
  7
TEXTSTYLE_3
 71
2
 72
1
 10
181.6319525935
 20
378.4066538534
 30
0.0
 11
1.0
 21
0.0
 31
0.0
 44
0.9
  1
12
 40
4.0
 41
5.017921147
  0
LINE
  5
584
100
AcDbEntity
  8
0
100
AcDbLine
 62
2
  6
CONTINUOUS
 10
175.6319525935
 20
358.4066538534
 11
175.6319525935
 21
374.4066538534
  0
LINE
  5
585
100
AcDbEntity
  8
0
100
AcDbLine
 62
2
  6
CONTINUOUS
 10
187.6319525935
 20
348.4066538534
 11
187.6319525935
 21
374.4066538534
  0
LINE
  5
586
100
AcDbEntity
  8
0
100
AcDbLine
 62
2
  6
CONTINUOUS
 10
175.6319525935
 20
373.4066538534
 11
181.6319525935
 21
373.4066538534
  0
LINE
  5
587
100
AcDbEntity
  8
0
100
AcDbLine
 62
2
  6
CONTINUOUS
 10
187.6319525935
 20
373.4066538534
 11
181.6319525935
 21
373.4066538534
  0
INSERT
  5
588
100
AcDbEntity
  8
0
100
AcDbBlockReference
 62
2
  6
CONTINUOUS
  2
_FILLED
 10
175.6319525935
 20
373.4066538534
 41
3.5
 42
3.5
 43
3.5
 50
180.0
  0
INSERT
  5
589
100
AcDbEntity
  8
0
100
AcDbBlockReference
 62
2
  6
CONTINUOUS
  2
_FILLED
 10
187.6319525935
 20
373.4066538534
 41
3.5
 42
3.5
 43
3.5
  0
ENDBLK
  5
58A
100
AcDbEntity
  8
0
  6
BYBLOCK
 62
0
100
AcDbBlockEnd
  0
BLOCK
  5
58B
100
AcDbEntity
  8
0
100
AcDbBlockBegin
 62
2
  6
CONTINUOUS
  2
*D12
 70
65
 10
0.0
 20
0.0
  3
*D12
  1

  0
MTEXT
  5
58C
100
AcDbEntity
  8
0
100
AcDbMText
 62
5
  6
CONTINUOUS
  7
TEXTSTYLE_3
 71
2
 72
1
 10
208.2569525935
 20
103.4066538534
 30
0.0
 11
1.0
 21
0.0
 31
0.0
 44
0.9
  1
65
 40
4.0
 41
5.017921147
  0
LINE
  5
58D
100
AcDbEntity
  8
0
100
AcDbLine
 62
2
  6
CONTINUOUS
 10
175.6319525935
 20
123.4066538534
 11
175.6319525935
 21
97.4066538534
  0
LINE
  5
58E
100
AcDbEntity
  8
0
100
AcDbLine
 62
2
  6
CONTINUOUS
 10
240.8819525935
 20
155.9066538534
 11
240.8819525935
 21
147.5233318073
  0
LINE
  5
58F
100
AcDbEntity
  8
0
100
AcDbLine
 62
2
  6
CONTINUOUS
 10
240.8819525935
 20
145.3583767136
 11
240.8819525935
 21
97.4066538534
  0
LINE
  5
590
100
AcDbEntity
  8
0
100
AcDbLine
 62
2
  6
CONTINUOUS
 10
175.6319525935
 20
98.4066538534
 11
208.2569525935
 21
98.4066538534
  0
LINE
  5
591
100
AcDbEntity
  8
0
100
AcDbLine
 62
2
  6
CONTINUOUS
 10
240.8819525935
 20
98.4066538534
 11
208.2569525935
 21
98.4066538534
  0
INSERT
  5
592
100
AcDbEntity
  8
0
100
AcDbBlockReference
 62
2
  6
CONTINUOUS
  2
_FILLED
 10
175.6319525935
 20
98.4066538534
 41
3.5
 42
3.5
 43
3.5
 50
180.0
  0
INSERT
  5
593
100
AcDbEntity
  8
0
100
AcDbBlockReference
 62
2
  6
CONTINUOUS
  2
_FILLED
 10
240.8819525935
 20
98.4066538534
 41
3.5
 42
3.5
 43
3.5
  0
ENDBLK
  5
594
100
AcDbEntity
  8
0
  6
BYBLOCK
 62
0
100
AcDbBlockEnd
  0
BLOCK
  5
595
100
AcDbEntity
  8
0
100
AcDbBlockBegin
 62
2
  6
CONTINUOUS
  2
*D13
 70
65
 10
0.0
 20
0.0
  3
*D13
  1

  0
MTEXT
  5
596
100
AcDbEntity
  8
0
100
AcDbMText
 62
5
  6
CONTINUOUS
  7
TEXTSTYLE_3
 71
2
 72
1
 10
257.3819525935
 20
103.4066538534
 30
0.0
 11
1.0
 21
0.0
 31
0.0
 44
0.9
  1
33
 40
4.0
 41
5.017921147
  0
LINE
  5
597
100
AcDbEntity
  8
0
100
AcDbLine
 62
2
  6
CONTINUOUS
 10
240.8819525935
 20
135.9400396084
 11
240.8819525935
 21
97.4066538534
  0
LINE
  5
598
100
AcDbEntity
  8
0
100
AcDbLine
 62
2
  6
CONTINUOUS
 10
273.8819525935
 20
167.1066538534
 11
273.8819525935
 21
97.4066538534
  0
LINE
  5
599
100
AcDbEntity
  8
0
100
AcDbLine
 62
2
  6
CONTINUOUS
 10
240.8819525935
 20
98.4066538534
 11
257.3819525935
 21
98.4066538534
  0
LINE
  5
59A
100
AcDbEntity
  8
0
100
AcDbLine
 62
2
  6
CONTINUOUS
 10
273.8819525935
 20
98.4066538534
 11
257.3819525935
 21
98.4066538534
  0
INSERT
  5
59B
100
AcDbEntity
  8
0
100
AcDbBlockReference
 62
2
  6
CONTINUOUS
  2
_FILLED
 10
240.8819525935
 20
98.4066538534
 41
3.5
 42
3.5
 43
3.5
 50
180.0
  0
INSERT
  5
59C
100
AcDbEntity
  8
0
100
AcDbBlockReference
 62
2
  6
CONTINUOUS
  2
_FILLED
 10
273.8819525935
 20
98.4066538534
 41
3.5
 42
3.5
 43
3.5
  0
ENDBLK
  5
59D
100
AcDbEntity
  8
0
  6
BYBLOCK
 62
0
100
AcDbBlockEnd
  0
BLOCK
  5
59E
100
AcDbEntity
  8
0
100
AcDbBlockBegin
 62
2
  6
CONTINUOUS
  2
*D14
 70
65
 10
0.0
 20
0.0
  3
*D14
  1

  0
MTEXT
  5
59F
100
AcDbEntity
  8
0
100
AcDbMText
 62
5
  6
CONTINUOUS
  7
TEXTSTYLE_3
 71
2
 72
1
 10
223.3819525935
 20
113.4066538534
 30
0.0
 11
1.0
 21
0.0
 31
0.0
 44
0.9
  1
35
 40
4.0
 41
5.017921147
  0
LINE
  5
5A0
100
AcDbEntity
  8
0
100
AcDbLine
 62
2
  6
CONTINUOUS
 10
205.8819525935
 20
141.8488791586
 11
205.8819525935
 21
107.4066538534
  0
LINE
  5
5A1
100
AcDbEntity
  8
0
100
AcDbLine
 62
2
  6
CONTINUOUS
 10
240.8819525935
 20
138.5208671946
 11
240.8819525935
 21
107.4066538534
  0
LINE
  5
5A2
100
AcDbEntity
  8
0
100
AcDbLine
 62
2
  6
CONTINUOUS
 10
205.8819525935
 20
108.4066538534
 11
223.3819525935
 21
108.4066538534
  0
LINE
  5
5A3
100
AcDbEntity
  8
0
100
AcDbLine
 62
2
  6
CONTINUOUS
 10
240.8819525935
 20
108.4066538534
 11
223.3819525935
 21
108.4066538534
  0
INSERT
  5
5A4
100
AcDbEntity
  8
0
100
AcDbBlockReference
 62
2
  6
CONTINUOUS
  2
_FILLED
 10
205.8819525935
 20
108.4066538534
 41
3.5
 42
3.5
 43
3.5
 50
180.0
  0
INSERT
  5
5A5
100
AcDbEntity
  8
0
100
AcDbBlockReference
 62
2
  6
CONTINUOUS
  2
_FILLED
 10
240.8819525935
 20
108.4066538534
 41
3.5
 42
3.5
 43
3.5
  0
ENDBLK
  5
5A6
100
AcDbEntity
  8
0
  6
BYBLOCK
 62
0
100
AcDbBlockEnd
  0
BLOCK
  5
5A7
100
AcDbEntity
  8
0
100
AcDbBlockBegin
 62
2
  6
CONTINUOUS
  2
*D15
 70
65
 10
0.0
 20
0.0
  3
*D15
  1

  0
MTEXT
  5
5A8
100
AcDbEntity
  8
0
100
AcDbMText
 62
5
  6
CONTINUOUS
  7
TEXTSTYLE_1
 71
2
 72
1
 10
240.8819525935
 20
184.3452600873
 30
0.0
 11
1.0
 21
0.0
 31
0.0
 44
0.9
  1
{\Fgdt;n}\Fswisscl.ttf;7
 40
4.0
 41
7.8422939068
  0
LINE
  5
5A9
100
AcDbEntity
  8
0
100
AcDbLine
 62
2
  6
CONTINUOUS
 10
237.3819525935
 20
199.4066538534
 11
237.3819525935
 21
186.3452600873
  0
LINE
  5
5AA
100
AcDbEntity
  8
0
100
AcDbLine
 62
2
  6
CONTINUOUS
 10
244.3819525935
 20
199.4066538534
 11
244.3819525935
 21
186.3452600873
  0
LINE
  5
5AB
100
AcDbEntity
  8
0
100
AcDbLine
 62
2
  6
CONTINUOUS
 10
237.3819525935
 20
179.3452600873
 11
232.3819525935
 21
179.3452600873
  0
LINE
  5
5AC
100
AcDbEntity
  8
0
100
AcDbLine
 62
2
  6
CONTINUOUS
 10
232.3819525935
 20
179.3452600873
 11
240.8819525935
 21
179.3452600873
  0
LINE
  5
5AD
100
AcDbEntity
  8
0
100
AcDbLine
 62
2
  6
CONTINUOUS
 10
244.3819525935
 20
179.3452600873
 11
249.3819525935
 21
179.3452600873
  0
LINE
  5
5AE
100
AcDbEntity
  8
0
100
AcDbLine
 62
2
  6
CONTINUOUS
 10
249.3819525935
 20
179.3452600873
 11
240.8819525935
 21
179.3452600873
  0
INSERT
  5
5AF
100
AcDbEntity
  8
0
100
AcDbBlockReference
 62
2
  6
CONTINUOUS
  2
_FILLED
 10
237.3819525935
 20
179.3452600873
 41
3.5
 42
3.5
 43
3.5
  0
INSERT
  5
5B0
100
AcDbEntity
  8
0
100
AcDbBlockReference
 62
2
  6
CONTINUOUS
  2
_FILLED
 10
244.3819525935
 20
179.3452600873
 41
3.5
 42
3.5
 43
3.5
 50
180.0
  0
ENDBLK
  5
5B1
100
AcDbEntity
  8
0
  6
BYBLOCK
 62
0
100
AcDbBlockEnd
  0
BLOCK
  5
5B2
100
AcDbEntity
  8
0
100
AcDbBlockBegin
 62
2
  6
CONTINUOUS
  2
*D16
 70
65
 10
0.0
 20
0.0
  3
*D16
  1

  0
MTEXT
  5
5B3
100
AcDbEntity
  8
0
100
AcDbMText
 62
5
  6
CONTINUOUS
  7
TEXTSTYLE_3
 71
2
 72
1
 10
177.1319525935
 20
81.4914684242
 30
0.0
 11
1.0
 21
0.0
 31
0.0
 44
0.9
  1
3
 40
4.0
 41
2.5089605735
  0
LINE
  5
5B4
100
AcDbEntity
  8
0
100
AcDbLine
 62
2
  6
CONTINUOUS
 10
175.6319525935
 20
61.4914684242
 11
175.6319525935
 21
77.4914684242
  0
LINE
  5
5B5
100
AcDbEntity
  8
0
100
AcDbLine
 62
2
  6
CONTINUOUS
 10
178.6319525935
 20
61.4914684242
 11
178.6319525935
 21
77.4914684242
  0
LINE
  5
5B6
100
AcDbEntity
  8
0
100
AcDbLine
 62
2
  6
CONTINUOUS
 10
175.6319525935
 20
76.4914684242
 11
170.6319525935
 21
76.4914684242
  0
LINE
  5
5B7
100
AcDbEntity
  8
0
100
AcDbLine
 62
2
  6
CONTINUOUS
 10
170.6319525935
 20
76.4914684242
 11
177.1319525935
 21
76.4914684242
  0
LINE
  5
5B8
100
AcDbEntity
  8
0
100
AcDbLine
 62
2
  6
CONTINUOUS
 10
178.6319525935
 20
76.4914684242
 11
183.6319525935
 21
76.4914684242
  0
LINE
  5
5B9
100
AcDbEntity
  8
0
100
AcDbLine
 62
2
  6
CONTINUOUS
 10
183.6319525935
 20
76.4914684242
 11
177.1319525935
 21
76.4914684242
  0
INSERT
  5
5BA
100
AcDbEntity
  8
0
100
AcDbBlockReference
 62
2
  6
CONTINUOUS
  2
_FILLED
 10
175.6319525935
 20
76.4914684242
 41
3.5
 42
3.5
 43
3.5
  0
INSERT
  5
5BB
100
AcDbEntity
  8
0
100
AcDbBlockReference
 62
2
  6
CONTINUOUS
  2
_FILLED
 10
178.6319525935
 20
76.4914684242
 41
3.5
 42
3.5
 43
3.5
 50
180.0
  0
ENDBLK
  5
5BC
100
AcDbEntity
  8
0
  6
BYBLOCK
 62
0
100
AcDbBlockEnd
  0
BLOCK
  5
5BD
100
AcDbEntity
  8
0
100
AcDbBlockBegin
 62
2
  6
CONTINUOUS
  2
*D17
 70
65
 10
0.0
 20
0.0
  3
*D17
  1

  0
MTEXT
  5
5BE
100
AcDbEntity
  8
0
100
AcDbMText
 62
5
  6
CONTINUOUS
  7
TEXTSTYLE_3
 71
2
 72
1
 10
205.8819525935
 20
31.4914684242
 30
0.0
 11
1.0
 21
0.0
 31
0.0
 44
0.9
  1
M5
 40
4.0
 41
6.3512544803
  0
LINE
  5
5BF
100
AcDbEntity
  8
0
100
AcDbLine
 62
2
  6
CONTINUOUS
 10
203.3819525935
 20
52.4664684242
 11
203.3819525935
 21
33.4914684242
  0
LINE
  5
5C0
100
AcDbEntity
  8
0
100
AcDbLine
 62
2
  6
CONTINUOUS
 10
208.3819525935
 20
52.4664684242
 11
208.3819525935
 21
33.4914684242
  0
LINE
  5
5C1
100
AcDbEntity
  8
0
100
AcDbLine
 62
2
  6
CONTINUOUS
 10
203.3819525935
 20
26.4914684242
 11
198.3819525935
 21
26.4914684242
  0
LINE
  5
5C2
100
AcDbEntity
  8
0
100
AcDbLine
 62
2
  6
CONTINUOUS
 10
198.3819525935
 20
26.4914684242
 11
205.8819525935
 21
26.4914684242
  0
LINE
  5
5C3
100
AcDbEntity
  8
0
100
AcDbLine
 62
2
  6
CONTINUOUS
 10
208.3819525935
 20
26.4914684242
 11
213.3819525935
 21
26.4914684242
  0
LINE
  5
5C4
100
AcDbEntity
  8
0
100
AcDbLine
 62
2
  6
CONTINUOUS
 10
213.3819525935
 20
26.4914684242
 11
205.8819525935
 21
26.4914684242
  0
INSERT
  5
5C5
100
AcDbEntity
  8
0
100
AcDbBlockReference
 62
2
  6
CONTINUOUS
  2
_FILLED
 10
203.3819525935
 20
26.4914684242
 41
3.5
 42
3.5
 43
3.5
  0
INSERT
  5
5C6
100
AcDbEntity
  8
0
100
AcDbBlockReference
 62
2
  6
CONTINUOUS
  2
_FILLED
 10
208.3819525935
 20
26.4914684242
 41
3.5
 42
3.5
 43
3.5
 50
180.0
  0
ENDBLK
  5
5C7
100
AcDbEntity
  8
0
  6
BYBLOCK
 62
0
100
AcDbBlockEnd
  0
BLOCK
  5
5C8
100
AcDbEntity
  8
0
100
AcDbBlockBegin
 62
2
  6
CONTINUOUS
  2
*D18
 70
65
 10
0.0
 20
0.0
  3
*D18
  1

  0
MTEXT
  5
5C9
100
AcDbEntity
  8
0
100
AcDbMText
 62
5
  6
CONTINUOUS
  7
TEXTSTYLE_3
 71
2
 72
1
 10
283.8819525935
 20
52.7016675059
 30
0.0
 11
0.0
 21
1.0
 31
0.0
 44
0.9
  1
14
 40
4.0
 41
5.017921147
  0
LINE
  5
5CA
100
AcDbEntity
  8
0
100
AcDbLine
 62
2
  6
CONTINUOUS
 10
265.2819525935
 20
59.6164684242
 11
289.8819525935
 21
59.6164684242
  0
LINE
  5
5CB
100
AcDbEntity
  8
0
100
AcDbLine
 62
2
  6
CONTINUOUS
 10
265.1319525935
 20
45.7868665876
 11
289.8819525935
 21
45.7868665876
  0
LINE
  5
5CC
100
AcDbEntity
  8
0
100
AcDbLine
 62
2
  6
CONTINUOUS
 10
288.8819525935
 20
59.6164684242
 11
288.8819525935
 21
52.7016675059
  0
LINE
  5
5CD
100
AcDbEntity
  8
0
100
AcDbLine
 62
2
  6
CONTINUOUS
 10
288.8819525935
 20
45.7868665876
 11
288.8819525935
 21
52.7016675059
  0
INSERT
  5
5CE
100
AcDbEntity
  8
0
100
AcDbBlockReference
 62
2
  6
CONTINUOUS
  2
_FILLED
 10
288.8819525935
 20
59.6164684242
 41
3.5
 42
3.5
 43
3.5
 50
90.0
  0
INSERT
  5
5CF
100
AcDbEntity
  8
0
100
AcDbBlockReference
 62
2
  6
CONTINUOUS
  2
_FILLED
 10
288.8819525935
 20
45.7868665876
 41
3.5
 42
3.5
 43
3.5
 50
270.0
  0
ENDBLK
  5
5D0
100
AcDbEntity
  8
0
  6
BYBLOCK
 62
0
100
AcDbBlockEnd
  0
BLOCK
  5
5D1
100
AcDbEntity
  8
0
100
AcDbBlockBegin
 62
2
  6
CONTINUOUS
  2
*D19
 70
65
 10
0.0
 20
0.0
  3
*D19
  1

  0
MTEXT
  5
5D2
100
AcDbEntity
  8
0
100
AcDbMText
 62
5
  6
CONTINUOUS
  7
TEXTSTYLE_3
 71
2
 72
1
 10
417.5113255222
 20
378.4066538534
 30
0.0
 11
1.0
 21
0.0
 31
0.0
 44
0.9
  1
20
 40
4.0
 41
5.017921147
  0
LINE
  5
5D3
100
AcDbEntity
  8
0
100
AcDbLine
 62
2
  6
CONTINUOUS
 10
407.5113255222
 20
348.4066538534
 11
407.5113255222
 21
374.4066538534
  0
LINE
  5
5D4
100
AcDbEntity
  8
0
100
AcDbLine
 62
2
  6
CONTINUOUS
 10
427.5113255222
 20
358.4066538534
 11
427.5113255222
 21
374.4066538534
  0
LINE
  5
5D5
100
AcDbEntity
  8
0
100
AcDbLine
 62
2
  6
CONTINUOUS
 10
407.5113255222
 20
373.4066538534
 11
417.5113255222
 21
373.4066538534
  0
LINE
  5
5D6
100
AcDbEntity
  8
0
100
AcDbLine
 62
2
  6
CONTINUOUS
 10
427.5113255222
 20
373.4066538534
 11
417.5113255222
 21
373.4066538534
  0
INSERT
  5
5D7
100
AcDbEntity
  8
0
100
AcDbBlockReference
 62
2
  6
CONTINUOUS
  2
_FILLED
 10
407.5113255222
 20
373.4066538534
 41
3.5
 42
3.5
 43
3.5
 50
180.0
  0
INSERT
  5
5D8
100
AcDbEntity
  8
0
100
AcDbBlockReference
 62
2
  6
CONTINUOUS
  2
_FILLED
 10
427.5113255222
 20
373.4066538534
 41
3.5
 42
3.5
 43
3.5
  0
ENDBLK
  5
5D9
100
AcDbEntity
  8
0
  6
BYBLOCK
 62
0
100
AcDbBlockEnd
  0
BLOCK
  5
5DA
100
AcDbEntity
  8
0
100
AcDbBlockBegin
 62
2
  6
CONTINUOUS
  2
*D20
 70
65
 10
0.0
 20
0.0
  3
*D20
  1

  0
MTEXT
  5
5DB
100
AcDbEntity
  8
0
100
AcDbMText
 62
5
  6
CONTINUOUS
  7
TEXTSTYLE_3
 71
2
 72
1
 10
447.5113255222
 20
129.9066538534
 30
0.0
 11
0.0
 21
1.0
 31
0.0
 44
0.9
  1
13
 40
4.0
 41
5.017921147
  0
LINE
  5
5DC
100
AcDbEntity
  8
0
100
AcDbLine
 62
2
  6
CONTINUOUS
 10
425.3113255222
 20
136.4066538534
 11
453.5113255222
 21
136.4066538534
  0
LINE
  5
5DD
100
AcDbEntity
  8
0
100
AcDbLine
 62
2
  6
CONTINUOUS
 10
427.5113255222
 20
123.4066538534
 11
453.5113255222
 21
123.4066538534
  0
LINE
  5
5DE
100
AcDbEntity
  8
0
100
AcDbLine
 62
2
  6
CONTINUOUS
 10
452.5113255222
 20
136.4066538534
 11
452.5113255222
 21
129.9066538534
  0
LINE
  5
5DF
100
AcDbEntity
  8
0
100
AcDbLine
 62
2
  6
CONTINUOUS
 10
452.5113255222
 20
123.4066538534
 11
452.5113255222
 21
129.9066538534
  0
INSERT
  5
5E0
100
AcDbEntity
  8
0
100
AcDbBlockReference
 62
2
  6
CONTINUOUS
  2
_FILLED
 10
452.5113255222
 20
136.4066538534
 41
3.5
 42
3.5
 43
3.5
 50
90.0
  0
INSERT
  5
5E1
100
AcDbEntity
  8
0
100
AcDbBlockReference
 62
2
  6
CONTINUOUS
  2
_FILLED
 10
452.5113255222
 20
123.4066538534
 41
3.5
 42
3.5
 43
3.5
 50
270.0
  0
ENDBLK
  5
5E2
100
AcDbEntity
  8
0
  6
BYBLOCK
 62
0
100
AcDbBlockEnd
  0
BLOCK
  5
5E3
100
AcDbEntity
  8
0
100
AcDbBlockBegin
 62
2
  6
CONTINUOUS
  2
*D21
 70
65
 10
0.0
 20
0.0
  3
*D21
  1

  0
MTEXT
  5
5E4
100
AcDbEntity
  8
0
100
AcDbMText
 62
5
  6
CONTINUOUS
  7
TEXTSTYLE_3
 71
2
 72
1
 10
447.5113255222
 20
210.6566538534
 30
0.0
 11
0.0
 21
1.0
 31
0.0
 44
0.9
  1
148.5
 40
4.0
 41
11.2974910394
  0
LINE
  5
5E5
100
AcDbEntity
  8
0
100
AcDbLine
 62
2
  6
CONTINUOUS
 10
425.3113255222
 20
136.4066538534
 11
453.5113255222
 21
136.4066538534
  0
LINE
  5
5E6
100
AcDbEntity
  8
0
100
AcDbLine
 62
2
  6
CONTINUOUS
 10
433.0290258765
 20
284.9066538534
 11
453.5113255222
 21
284.9066538534
  0
LINE
  5
5E7
100
AcDbEntity
  8
0
100
AcDbLine
 62
2
  6
CONTINUOUS
 10
452.5113255222
 20
136.4066538534
 11
452.5113255222
 21
210.6566538534
  0
LINE
  5
5E8
100
AcDbEntity
  8
0
100
AcDbLine
 62
2
  6
CONTINUOUS
 10
452.5113255222
 20
284.9066538534
 11
452.5113255222
 21
210.6566538534
  0
INSERT
  5
5E9
100
AcDbEntity
  8
0
100
AcDbBlockReference
 62
2
  6
CONTINUOUS
  2
_FILLED
 10
452.5113255222
 20
136.4066538534
 41
3.5
 42
3.5
 43
3.5
 50
270.0
  0
INSERT
  5
5EA
100
AcDbEntity
  8
0
100
AcDbBlockReference
 62
2
  6
CONTINUOUS
  2
_FILLED
 10
452.5113255222
 20
284.9066538534
 41
3.5
 42
3.5
 43
3.5
 50
90.0
  0
ENDBLK
  5
5EB
100
AcDbEntity
  8
0
  6
BYBLOCK
 62
0
100
AcDbBlockEnd
  0
BLOCK
  5
5EC
100
AcDbEntity
  8
0
100
AcDbBlockBegin
 62
2
  6
CONTINUOUS
  2
*D22
 70
65
 10
0.0
 20
0.0
  3
*D22
  1

  0
MTEXT
  5
5ED
100
AcDbEntity
  8
0
100
AcDbMText
 62
5
  6
CONTINUOUS
  7
TEXTSTYLE_3
 71
2
 72
1
 10
447.5113255222
 20
315.1566538534
 30
0.0
 11
0.0
 21
1.0
 31
0.0
 44
0.9
  1
60.5
 40
4.0
 41
8.7885304659
  0
LINE
  5
5EE
100
AcDbEntity
  8
0
100
AcDbLine
 62
2
  6
CONTINUOUS
 10
433.0290258765
 20
284.9066538534
 11
453.5113255222
 21
284.9066538534
  0
LINE
  5
5EF
100
AcDbEntity
  8
0
100
AcDbLine
 62
2
  6
CONTINUOUS
 10
425.3113255222
 20
345.4066538534
 11
453.5113255222
 21
345.4066538534
  0
LINE
  5
5F0
100
AcDbEntity
  8
0
100
AcDbLine
 62
2
  6
CONTINUOUS
 10
452.5113255222
 20
284.9066538534
 11
452.5113255222
 21
315.1566538534
  0
LINE
  5
5F1
100
AcDbEntity
  8
0
100
AcDbLine
 62
2
  6
CONTINUOUS
 10
452.5113255222
 20
345.4066538534
 11
452.5113255222
 21
315.1566538534
  0
INSERT
  5
5F2
100
AcDbEntity
  8
0
100
AcDbBlockReference
 62
2
  6
CONTINUOUS
  2
_FILLED
 10
452.5113255222
 20
284.9066538534
 41
3.5
 42
3.5
 43
3.5
 50
270.0
  0
INSERT
  5
5F3
100
AcDbEntity
  8
0
100
AcDbBlockReference
 62
2
  6
CONTINUOUS
  2
_FILLED
 10
452.5113255222
 20
345.4066538534
 41
3.5
 42
3.5
 43
3.5
 50
90.0
  0
ENDBLK
  5
5F4
100
AcDbEntity
  8
0
  6
BYBLOCK
 62
0
100
AcDbBlockEnd
  0
BLOCK
  5
5F5
100
AcDbEntity
  8
0
100
AcDbBlockBegin
 62
2
  6
CONTINUOUS
  2
*D23
 70
65
 10
0.0
 20
0.0
  3
*D23
  1

  0
MTEXT
  5
5F6
100
AcDbEntity
  8
0
100
AcDbMText
 62
5
  6
CONTINUOUS
  7
TEXTSTYLE_3
 71
2
 72
1
 10
387.5113255222
 20
285.9066538534
 30
0.0
 11
0.0
 21
1.0
 31
0.0
 44
0.9
  1
49
 40
4.0
 41
5.017921147
  0
LINE
  5
5F7
100
AcDbEntity
  8
0
100
AcDbLine
 62
2
  6
CONTINUOUS
 10
412.0113255222
 20
310.4066538534
 11
391.5113255222
 21
310.4066538534
  0
LINE
  5
5F8
100
AcDbEntity
  8
0
100
AcDbLine
 62
2
  6
CONTINUOUS
 10
412.0113255222
 20
261.4066538534
 11
391.5113255222
 21
261.4066538534
  0
LINE
  5
5F9
100
AcDbEntity
  8
0
100
AcDbLine
 62
2
  6
CONTINUOUS
 10
392.5113255222
 20
310.4066538534
 11
392.5113255222
 21
285.9066538534
  0
LINE
  5
5FA
100
AcDbEntity
  8
0
100
AcDbLine
 62
2
  6
CONTINUOUS
 10
392.5113255222
 20
261.4066538534
 11
392.5113255222
 21
285.9066538534
  0
INSERT
  5
5FB
100
AcDbEntity
  8
0
100
AcDbBlockReference
 62
2
  6
CONTINUOUS
  2
_FILLED
 10
392.5113255222
 20
310.4066538534
 41
3.5
 42
3.5
 43
3.5
 50
90.0
  0
INSERT
  5
5FC
100
AcDbEntity
  8
0
100
AcDbBlockReference
 62
2
  6
CONTINUOUS
  2
_FILLED
 10
392.5113255222
 20
261.4066538534
 41
3.5
 42
3.5
 43
3.5
 50
270.0
  0
ENDBLK
  5
5FD
100
AcDbEntity
  8
0
  6
BYBLOCK
 62
0
100
AcDbBlockEnd
  0
BLOCK
  5
5FE
100
AcDbEntity
  8
0
100
AcDbBlockBegin
 62
2
  6
CONTINUOUS
  2
*D24
 70
65
 10
0.0
 20
0.0
  3
*D24
  1

  0
MTEXT
  5
5FF
100
AcDbEntity
  8
0
100
AcDbMText
 62
5
  6
CONTINUOUS
  7
TEXTSTYLE_3
 71
2
 72
1
 10
417.5113255222
 20
328.0624653639
 30
0.0
 11
1.0
 21
0.0
 31
0.0
 44
0.9
  1
14
 40
4.0
 41
5.017921147
  0
LINE
  5
600
100
AcDbEntity
  8
0
100
AcDbLine
 62
2
  6
CONTINUOUS
 10
410.5113255222
 20
308.9066538534
 11
410.5113255222
 21
324.0624653639
  0
LINE
  5
601
100
AcDbEntity
  8
0
100
AcDbLine
 62
2
  6
CONTINUOUS
 10
424.5113255222
 20
272.5743622274
 11
424.5113255222
 21
324.0624653639
  0
LINE
  5
602
100
AcDbEntity
  8
0
100
AcDbLine
 62
2
  6
CONTINUOUS
 10
410.5113255222
 20
323.0624653639
 11
417.5113255222
 21
323.0624653639
  0
LINE
  5
603
100
AcDbEntity
  8
0
100
AcDbLine
 62
2
  6
CONTINUOUS
 10
424.5113255222
 20
323.0624653639
 11
417.5113255222
 21
323.0624653639
  0
INSERT
  5
604
100
AcDbEntity
  8
0
100
AcDbBlockReference
 62
2
  6
CONTINUOUS
  2
_FILLED
 10
410.5113255222
 20
323.0624653639
 41
3.5
 42
3.5
 43
3.5
 50
180.0
  0
INSERT
  5
605
100
AcDbEntity
  8
0
100
AcDbBlockReference
 62
2
  6
CONTINUOUS
  2
_FILLED
 10
424.5113255222
 20
323.0624653639
 41
3.5
 42
3.5
 43
3.5
  0
ENDBLK
  5
606
100
AcDbEntity
  8
0
  6
BYBLOCK
 62
0
100
AcDbBlockEnd
  0
BLOCK
  5
607
100
AcDbEntity
  8
0
100
AcDbBlockBegin
 62
2
  6
CONTINUOUS
  2
*D25
 70
65
 10
0.0
 20
0.0
  3
*D25
  1

  0
MTEXT
  5
608
100
AcDbEntity
  8
0
100
AcDbMText
 62
5
  6
CONTINUOUS
  7
TEXTSTYLE_3
 71
2
 72
1
 10
377.5113255222
 20
240.9066538534
 30
0.0
 11
0.0
 21
1.0
 31
0.0
 44
0.9
  1
235
 40
4.0
 41
7.5268817204
  0
LINE
  5
609
100
AcDbEntity
  8
0
100
AcDbLine
 62
2
  6
CONTINUOUS
 10
417.5113255222
 20
123.4066538534
 11
381.5113255222
 21
123.4066538534
  0
LINE
  5
60A
100
AcDbEntity
  8
0
100
AcDbLine
 62
2
  6
CONTINUOUS
 10
417.5113255222
 20
358.4066538534
 11
381.5113255222
 21
358.4066538534
  0
LINE
  5
60B
100
AcDbEntity
  8
0
100
AcDbLine
 62
2
  6
CONTINUOUS
 10
382.5113255222
 20
123.4066538534
 11
382.5113255222
 21
240.9066538534
  0
LINE
  5
60C
100
AcDbEntity
  8
0
100
AcDbLine
 62
2
  6
CONTINUOUS
 10
382.5113255222
 20
358.4066538534
 11
382.5113255222
 21
240.9066538534
  0
INSERT
  5
60D
100
AcDbEntity
  8
0
100
AcDbBlockReference
 62
2
  6
CONTINUOUS
  2
_FILLED
 10
382.5113255222
 20
123.4066538534
 41
3.5
 42
3.5
 43
3.5
 50
270.0
  0
INSERT
  5
60E
100
AcDbEntity
  8
0
100
AcDbBlockReference
 62
2
  6
CONTINUOUS
  2
_FILLED
 10
382.5113255222
 20
358.4066538534
 41
3.5
 42
3.5
 43
3.5
 50
90.0
  0
ENDBLK
  5
60F
100
AcDbEntity
  8
0
  6
BYBLOCK
 62
0
100
AcDbBlockEnd
  0
BLOCK
  5
610
100
AcDbEntity
  8
0
100
AcDbBlockBegin
 62
2
  6
CONTINUOUS
  2
*D26
 70
65
 10
0.0
 20
0.0
  3
*D26
  1

  0
MTEXT
  5
611
100
AcDbEntity
  8
0
100
AcDbMText
 62
5
  6
CONTINUOUS
  7
TEXTSTYLE_1
 71
2
 72
1
 10
240.8819525935
 20
293.1977790063
 30
0.0
 11
1.0
 21
0.0
 31
0.0
 44
0.9
  1
{\Fgdt;o}\Fswisscl.ttf;9
 40
4.0
 41
8.0089605735
  0
LINE
  5
612
100
AcDbEntity
  8
0
100
AcDbLine
 62
2
  6
CONTINUOUS
 10
236.3819525935
 20
264.8066538534
 11
236.3819525935
 21
289.1977790063
  0
LINE
  5
613
100
AcDbEntity
  8
0
100
AcDbLine
 62
2
  6
CONTINUOUS
 10
245.3819525935
 20
264.8066538534
 11
245.3819525935
 21
289.1977790063
  0
LINE
  5
614
100
AcDbEntity
  8
0
100
AcDbLine
 62
2
  6
CONTINUOUS
 10
236.3819525935
 20
288.1977790063
 11
240.8819525935
 21
288.1977790063
  0
LINE
  5
615
100
AcDbEntity
  8
0
100
AcDbLine
 62
2
  6
CONTINUOUS
 10
245.3819525935
 20
288.1977790063
 11
240.8819525935
 21
288.1977790063
  0
INSERT
  5
616
100
AcDbEntity
  8
0
100
AcDbBlockReference
 62
2
  6
CONTINUOUS
  2
_FILLED
 10
236.3819525935
 20
288.1977790063
 41
3.5
 42
3.5
 43
3.5
 50
180.0
  0
INSERT
  5
617
100
AcDbEntity
  8
0
100
AcDbBlockReference
 62
2
  6
CONTINUOUS
  2
_FILLED
 10
245.3819525935
 20
288.1977790063
 41
3.5
 42
3.5
 43
3.5
  0
ENDBLK
  5
618
100
AcDbEntity
  8
0
  6
BYBLOCK
 62
0
100
AcDbBlockEnd
  0
BLOCK
  5
619
100
AcDbEntity
  8
0
100
AcDbBlockBegin
 62
2
  6
CONTINUOUS
  2
*D27
 70
65
 10
0.0
 20
0.0
  3
*D27
  1

  0
MTEXT
  5
61A
100
AcDbEntity
  8
0
100
AcDbMText
 62
5
  6
CONTINUOUS
  7
TEXTSTYLE_3
 71
1
 72
1
 10
433.5658714875
 20
328.0860879836
 30
0.0
 11
1.0
 21
0.0
 31
0.0
 44
0.9
  1
3
 40
4.0
 41
2.5089605735
  0
LINE
  5
61B
100
AcDbEntity
  8
0
100
AcDbLine
 62
2
  6
CONTINUOUS
 10
424.5113255222
 20
308.9066538534
 11
424.5113255222
 21
324.0860879836
  0
LINE
  5
61C
100
AcDbEntity
  8
0
100
AcDbLine
 62
2
  6
CONTINUOUS
 10
424.5113255222
 20
323.0860879836
 11
419.5113255222
 21
323.0860879836
  0
LINE
  5
61D
100
AcDbEntity
  8
0
100
AcDbLine
 62
2
  6
CONTINUOUS
 10
419.5113255222
 20
323.0860879836
 11
426.0113255222
 21
323.0860879836
  0
LINE
  5
61E
100
AcDbEntity
  8
0
100
AcDbLine
 62
2
  6
CONTINUOUS
 10
427.5113255222
 20
323.0860879836
 11
436.074832061
 21
323.0860879836
  0
LINE
  5
61F
100
AcDbEntity
  8
0
100
AcDbLine
 62
2
  6
CONTINUOUS
 10
436.074832061
 20
323.0860879836
 11
426.0113255222
 21
323.0860879836
  0
INSERT
  5
620
100
AcDbEntity
  8
0
100
AcDbBlockReference
 62
2
  6
CONTINUOUS
  2
_FILLED
 10
424.5113255222
 20
323.0860879836
 41
3.5
 42
3.5
 43
3.5
  0
INSERT
  5
621
100
AcDbEntity
  8
0
100
AcDbBlockReference
 62
2
  6
CONTINUOUS
  2
_FILLED
 10
427.5113255222
 20
323.0860879836
 41
3.5
 42
3.5
 43
3.5
 50
180.0
  0
ENDBLK
  5
622
100
AcDbEntity
  8
0
  6
BYBLOCK
 62
0
100
AcDbBlockEnd
  0
BLOCK
  5
623
100
AcDbEntity
  8
0
100
AcDbBlockBegin
 62
2
  6
CONTINUOUS
  2
*D28
 70
65
 10
0.0
 20
0.0
  3
*D28
  1

  0
MTEXT
  5
624
100
AcDbEntity
  8
0
100
AcDbMText
 62
5
  6
CONTINUOUS
  7
TEXTSTYLE_1
 71
1
 72
1
 10
248.4125584527
 20
151.5223802837
 30
0.0
 11
1.0
 21
0.0
 31
0.0
 44
0.9
  1
{\Fgdt;n}\Fswisscl.ttf;7
 40
4.0
 41
7.8422939068
  0
LINE
  5
625
100
AcDbEntity
  8
0
100
AcDbLine
 62
2
  6
CONTINUOUS
 10
237.3819525935
 20
161.4066538534
 11
237.3819525935
 21
145.5223802837
  0
LINE
  5
626
100
AcDbEntity
  8
0
100
AcDbLine
 62
2
  6
CONTINUOUS
 10
244.3819525935
 20
161.8082263148
 11
244.3819525935
 21
145.5223802837
  0
LINE
  5
627
100
AcDbEntity
  8
0
100
AcDbLine
 62
2
  6
CONTINUOUS
 10
237.3819525935
 20
146.5223802837
 11
232.3819525935
 21
146.5223802837
  0
LINE
  5
628
100
AcDbEntity
  8
0
100
AcDbLine
 62
2
  6
CONTINUOUS
 10
232.3819525935
 20
146.5223802837
 11
240.8819525935
 21
146.5223802837
  0
LINE
  5
629
100
AcDbEntity
  8
0
100
AcDbLine
 62
2
  6
CONTINUOUS
 10
244.3819525935
 20
146.5223802837
 11
256.2548523595
 21
146.5223802837
  0
LINE
  5
62A
100
AcDbEntity
  8
0
100
AcDbLine
 62
2
  6
CONTINUOUS
 10
256.2548523595
 20
146.5223802837
 11
240.8819525935
 21
146.5223802837
  0
INSERT
  5
62B
100
AcDbEntity
  8
0
100
AcDbBlockReference
 62
2
  6
CONTINUOUS
  2
_FILLED
 10
237.3819525935
 20
146.5223802837
 41
3.5
 42
3.5
 43
3.5
  0
INSERT
  5
62C
100
AcDbEntity
  8
0
100
AcDbBlockReference
 62
2
  6
CONTINUOUS
  2
_FILLED
 10
244.3819525935
 20
146.5223802837
 41
3.5
 42
3.5
 43
3.5
 50
180.0
  0
ENDBLK
  5
62D
100
AcDbEntity
  8
0
  6
BYBLOCK
 62
0
100
AcDbBlockEnd
  0
BLOCK
  5
62E
100
AcDbEntity
  8
0
100
AcDbBlockBegin
 62
2
  6
CONTINUOUS
  2
*D29
 70
65
 10
0.0
 20
0.0
  3
*D29
  1

  0
MTEXT
  5
62F
100
AcDbEntity
  8
0
100
AcDbMText
 62
5
  6
CONTINUOUS
  7
TEXTSTYLE_3
 71
1
 72
1
 10
283.8819525935
 20
66.9749108226
 30
0.0
 11
0.0
 21
1.0
 31
0.0
 44
0.9
  1
2
 40
4.0
 41
2.5089605735
  0
LINE
  5
630
100
AcDbEntity
  8
0
100
AcDbLine
 62
2
  6
CONTINUOUS
 10
178.6319525935
 20
61.4914684242
 11
289.8819525935
 21
61.4914684242
  0
LINE
  5
631
100
AcDbEntity
  8
0
100
AcDbLine
 62
2
  6
CONTINUOUS
 10
190.8958491507
 20
59.6164684242
 11
289.8819525935
 21
59.6164684242
  0
LINE
  5
632
100
AcDbEntity
  8
0
100
AcDbLine
 62
2
  6
CONTINUOUS
 10
288.8819525935
 20
61.4914684242
 11
288.8819525935
 21
69.4838713961
  0
LINE
  5
633
100
AcDbEntity
  8
0
100
AcDbLine
 62
2
  6
CONTINUOUS
 10
288.8819525935
 20
69.4838713961
 11
288.8819525935
 21
60.5539684242
  0
LINE
  5
634
100
AcDbEntity
  8
0
100
AcDbLine
 62
2
  6
CONTINUOUS
 10
288.8819525935
 20
59.6164684242
 11
288.8819525935
 21
54.6164684242
  0
LINE
  5
635
100
AcDbEntity
  8
0
100
AcDbLine
 62
2
  6
CONTINUOUS
 10
288.8819525935
 20
54.6164684242
 11
288.8819525935
 21
60.5539684242
  0
INSERT
  5
636
100
AcDbEntity
  8
0
100
AcDbBlockReference
 62
2
  6
CONTINUOUS
  2
_FILLED
 10
288.8819525935
 20
61.4914684242
 41
3.5
 42
3.5
 43
3.5
 50
270.0
  0
INSERT
  5
637
100
AcDbEntity
  8
0
100
AcDbBlockReference
 62
2
  6
CONTINUOUS
  2
_FILLED
 10
288.8819525935
 20
59.6164684242
 41
3.5
 42
3.5
 43
3.5
 50
90.0
  0
ENDBLK
  5
638
100
AcDbEntity
  8
0
  6
BYBLOCK
 62
0
100
AcDbBlockEnd
  0
ENDSEC
  0
SECTION
  2
ENTITIES
  0
MTEXT
  5
639
100
AcDbEntity
  8
0
100
AcDbMText
 62
5
  6
CONTINUOUS
  7
TEXTSTYLE_2
 71
1
 72
1
 10
444.8163259486
 20
27.1449071526
 30
0.0
 11
1.0
 21
0.0
 31
0.0
 44
0.9
  1
B_2189_0008_BD01
 40
6.0
 41
62.4301075269
  0
MTEXT
  5
63A
100
AcDbEntity
  8
0
100
AcDbMText
 62
5
  6
CONTINUOUS
  7
TEXTSTYLE_2
 71
1
 72
1
 10
34.1194470382
 20
39.6479834843
 30
0.0
 11
0.0
 21
1.0
 31
0.0
 44
0.9
  1
Proprietary rights apply in accordance with ISO 16016.
 40
2.5
 41
65.4928315412
  0
DIMENSION
  5
63B
100
AcDbEntity
  8
0
100
AcDbDimension
 62
2
  6
CONTINUOUS
  2
*D0
 10
240.8819525935
 20
260.4066538534
 11
281.1580153468
 21
248.2828594195
 70
162
 71
2
 42
0.6981317008
  1
<>\PDrehwinkel
  3
DIMSTYLE_1
100
AcDb2LineAngularDimension
 13
240.4994002147
 23
260.7276534134
 14
240.8819525935
 24
260.4066538534
 15
240.3825659297
 25
260.4066538534
 16
287.8089488885
 26
243.3266240185
  0
DIMENSION
  5
63C
100
AcDbEntity
  8
0
100
AcDbDimension
 62
2
  6
CONTINUOUS
  2
*D1
 10
308.8819525935
 20
260.4066538534
 11
308.8819525935
 21
270.7816538534
 70
160
 71
2
 42
20.75
  3
DIMSTYLE_2
100
AcDbAlignedDimension
 13
245.8820525935
 23
281.1566538534
 14
292.2208445632
 24
260.4066538534
 50
270.0
100
AcDbRotatedDimension
  0
DIMENSION
  5
63D
100
AcDbEntity
  8
0
100
AcDbDimension
 62
2
  6
CONTINUOUS
  2
*D2
 10
298.8819525935
 20
281.1566538534
 11
298.8819525935
 21
289.5900029376
 70
160
 71
1
 42
2.5
  3
DIMSTYLE_3
100
AcDbAlignedDimension
 13
245.8820525935
 23
278.6566538534
 14
245.8820525935
 24
281.1566538534
 50
90.0
100
AcDbRotatedDimension
  0
DIMENSION
  5
63E
100
AcDbEntity
  8
0
100
AcDbDimension
 62
2
  6
CONTINUOUS
  2
*D3
 10
308.8819525935
 20
260.4066538534
 11
308.8819525935
 21
249.6566538534
 70
160
 71
2
 42
21.5
  3
DIMSTYLE_2
100
AcDbAlignedDimension
 13
245.8820525935
 23
238.9066538534
 14
293.0819941116
 24
260.4066538534
 50
90.0
100
AcDbRotatedDimension
  0
DIMENSION
  5
63F
100
AcDbEntity
  8
0
100
AcDbDimension
 62
2
  6
CONTINUOUS
  2
*D4
 10
298.8819525935
 20
241.4066538534
 11
298.8819525935
 21
230.5752324792
 70
160
 71
3
 42
2.5
  3
DIMSTYLE_3
100
AcDbAlignedDimension
 13
291.51626766
 23
238.9066538534
 14
245.8820525935
 24
241.4066538534
 50
90.0
100
AcDbRotatedDimension
  0
DIMENSION
  5
640
100
AcDbEntity
  8
0
100
AcDbDimension
 62
2
  6
CONTINUOUS
  2
*D5
 10
244.3819525935
 20
224.4418112152
 11
240.8819525935
 21
224.4418112152
 70
160
 71
2
 42
7.0
  3
DIMSTYLE_2
100
AcDbAlignedDimension
 13
237.3819525935
 23
238.9066538534
 14
244.3819525935
 24
238.9066538534
100
AcDbRotatedDimension
  0
DIMENSION
  5
641
100
AcDbEntity
  8
0
100
AcDbDimension
 62
2
  6
CONTINUOUS
  2
*D6
 10
318.8819525935
 20
199.4066538534
 11
318.8819525935
 21
229.9066538534
 70
160
 71
2
 42
61.0
  3
DIMSTYLE_4
100
AcDbAlignedDimension
 13
292.4557035309
 23
260.4066538534
 14
249.3819525935
 24
199.4066538534
 50
270.0
100
AcDbRotatedDimension
  0
DIMENSION
  5
642
100
AcDbEntity
  8
0
100
AcDbDimension
 62
2
  6
CONTINUOUS
  2
*D7
 10
318.8819525935
 20
161.4066538534
 11
318.8819525935
 21
180.4066538534
 70
160
 71
2
 42
38.0
  3
DIMSTYLE_4
100
AcDbAlignedDimension
 13
249.3819525935
 23
199.4066538534
 14
245.8820525935
 24
161.4066538534
 50
270.0
100
AcDbRotatedDimension
  0
DIMENSION
  5
643
100
AcDbEntity
  8
0
100
AcDbDimension
 62
2
  6
CONTINUOUS
  2
*D8
 10
318.8819525935
 20
323.4166538534
 11
318.8819525935
 21
291.9116538534
 70
160
 71
2
 42
63.01
  3
DIMSTYLE_5
100
AcDbAlignedDimension
 13
292.064271918
 23
260.4066538534
 14
265.1319525935
 24
323.4166538534
 50
90.0
100
AcDbRotatedDimension
  0
DIMENSION
  5
644
100
AcDbEntity
  8
0
100
AcDbDimension
 62
2
  6
CONTINUOUS
  2
*D9
 10
328.8819525935
 20
358.4066538534
 11
328.8819525935
 21
309.4066538534
 70
160
 71
2
 42
98.0
  3
DIMSTYLE_4
100
AcDbAlignedDimension
 13
292.7688488213
 23
260.4066538534
 14
177.6319525935
 24
358.4066538534
 50
90.0
100
AcDbRotatedDimension
  0
DIMENSION
  5
645
100
AcDbEntity
  8
0
100
AcDbDimension
 62
2
  6
CONTINUOUS
  2
*D10
 10
338.8819525935
 20
323.4166538534
 11
338.8819525935
 21
240.8866538534
 70
160
 71
2
 42
165.06
  3
DIMSTYLE_6
100
AcDbAlignedDimension
 13
237.3819525935
 23
158.3566538534
 14
265.1319525935
 24
323.4166538534
 50
90.0
100
AcDbRotatedDimension
  0
DIMENSION
  5
646
100
AcDbEntity
  8
0
100
AcDbDimension
 62
2
  6
CONTINUOUS
  2
*D11
 10
187.6319525935
 20
373.4066538534
 11
181.6319525935
 21
373.4066538534
 70
160
 71
2
 42
12.0
  3
DIMSTYLE_2
100
AcDbAlignedDimension
 13
175.6319525935
 23
358.4066538534
 14
187.6319525935
 24
348.4066538534
100
AcDbRotatedDimension
  0
DIMENSION
  5
647
100
AcDbEntity
  8
0
100
AcDbDimension
 62
2
  6
CONTINUOUS
  2
*D12
 10
240.8819525935
 20
98.4066538534
 11
208.2569525935
 21
98.4066538534
 70
160
 71
2
 42
65.25
  3
DIMSTYLE_5
100
AcDbAlignedDimension
 13
175.6319525935
 23
123.4066538534
 14
240.8819525935
 24
155.9066538534
100
AcDbRotatedDimension
  0
DIMENSION
  5
648
100
AcDbEntity
  8
0
100
AcDbDimension
 62
2
  6
CONTINUOUS
  2
*D13
 10
273.8819525935
 20
98.4066538534
 11
257.3819525935
 21
98.4066538534
 70
160
 71
2
 42
33.0
  3
DIMSTYLE_4
100
AcDbAlignedDimension
 13
240.8819525935
 23
135.9400396084
 14
273.8819525935
 24
167.1066538534
100
AcDbRotatedDimension
  0
DIMENSION
  5
649
100
AcDbEntity
  8
0
100
AcDbDimension
 62
2
  6
CONTINUOUS
  2
*D14
 10
240.8819525935
 20
108.4066538534
 11
223.3819525935
 21
108.4066538534
 70
160
 71
2
 42
35.0
  3
DIMSTYLE_4
100
AcDbAlignedDimension
 13
205.8819525935
 23
141.8488791586
 14
240.8819525935
 24
138.5208671946
100
AcDbRotatedDimension
  0
DIMENSION
  5
64A
100
AcDbEntity
  8
0
100
AcDbDimension
 62
2
  6
CONTINUOUS
  2
*D15
 10
244.3819525935
 20
179.3452600873
 11
240.8819525935
 21
179.3452600873
 70
160
 71
2
 42
7.0
  1
%%c<>
  3
DIMSTYLE_2
100
AcDbAlignedDimension
 13
237.3819525935
 23
199.4066538534
 14
244.3819525935
 24
199.4066538534
100
AcDbRotatedDimension
  0
DIMENSION
  5
64B
100
AcDbEntity
  8
0
100
AcDbDimension
 62
2
  6
CONTINUOUS
  2
*D16
 10
178.6319525935
 20
76.4914684242
 11
177.1319525935
 21
76.4914684242
 70
160
 71
2
 42
3.0
  3
DIMSTYLE_3
100
AcDbAlignedDimension
 13
175.6319525935
 23
61.4914684242
 14
178.6319525935
 24
61.4914684242
100
AcDbRotatedDimension
  0
DIMENSION
  5
64C
100
AcDbEntity
  8
0
100
AcDbDimension
 62
2
  6
CONTINUOUS
  2
*D17
 10
208.3819525935
 20
26.4914684242
 11
205.8819525935
 21
26.4914684242
 70
160
 71
2
 42
5.0
  1
M<>
  3
DIMSTYLE_3
100
AcDbAlignedDimension
 13
203.3819525935
 23
52.4664684242
 14
208.3819525935
 24
52.4664684242
100
AcDbRotatedDimension
  0
DIMENSION
  5
64D
100
AcDbEntity
  8
0
100
AcDbDimension
 62
2
  6
CONTINUOUS
  2
*D18
 10
288.8819525935
 20
45.7868665876
 11
288.8819525935
 21
52.7016675059
 70
160
 71
2
 42
13.8296018366
  3
DIMSTYLE_7
100
AcDbAlignedDimension
 13
265.2819525935
 23
59.6164684242
 14
265.1319525935
 24
45.7868665876
 50
270.0
100
AcDbRotatedDimension
  0
DIMENSION
  5
64E
100
AcDbEntity
  8
0
100
AcDbDimension
 62
2
  6
CONTINUOUS
  2
*D19
 10
427.5113255222
 20
373.4066538534
 11
417.5113255222
 21
373.4066538534
 70
160
 71
2
 42
20.0
  3
DIMSTYLE_2
100
AcDbAlignedDimension
 13
407.5113255222
 23
348.4066538534
 14
427.5113255222
 24
358.4066538534
100
AcDbRotatedDimension
  0
DIMENSION
  5
64F
100
AcDbEntity
  8
0
100
AcDbDimension
 62
2
  6
CONTINUOUS
  2
*D20
 10
452.5113255222
 20
123.4066538534
 11
452.5113255222
 21
129.9066538534
 70
160
 71
2
 42
13.0
  3
DIMSTYLE_2
100
AcDbAlignedDimension
 13
425.3113255222
 23
136.4066538534
 14
427.5113255222
 24
123.4066538534
 50
270.0
100
AcDbRotatedDimension
  0
DIMENSION
  5
650
100
AcDbEntity
  8
0
100
AcDbDimension
 62
2
  6
CONTINUOUS
  2
*D21
 10
452.5113255222
 20
284.9066538534
 11
452.5113255222
 21
210.6566538534
 70
160
 71
2
 42
148.5
  3
DIMSTYLE_8
100
AcDbAlignedDimension
 13
425.3113255222
 23
136.4066538534
 14
433.0290258765
 24
284.9066538534
 50
90.0
100
AcDbRotatedDimension
  0
DIMENSION
  5
651
100
AcDbEntity
  8
0
100
AcDbDimension
 62
2
  6
CONTINUOUS
  2
*D22
 10
452.5113255222
 20
345.4066538534
 11
452.5113255222
 21
315.1566538534
 70
160
 71
2
 42
60.5
  3
DIMSTYLE_4
100
AcDbAlignedDimension
 13
433.0290258765
 23
284.9066538534
 14
425.3113255222
 24
345.4066538534
 50
90.0
100
AcDbRotatedDimension
  0
DIMENSION
  5
652
100
AcDbEntity
  8
0
100
AcDbDimension
 62
2
  6
CONTINUOUS
  2
*D23
 10
392.5113255222
 20
261.4066538534
 11
392.5113255222
 21
285.9066538534
 70
160
 71
2
 42
49.0
  3
DIMSTYLE_4
100
AcDbAlignedDimension
 13
412.0113255222
 23
310.4066538534
 14
412.0113255222
 24
261.4066538534
 50
270.0
100
AcDbRotatedDimension
  0
DIMENSION
  5
653
100
AcDbEntity
  8
0
100
AcDbDimension
 62
2
  6
CONTINUOUS
  2
*D24
 10
424.5113255222
 20
323.0624653639
 11
417.5113255222
 21
323.0624653639
 70
160
 71
2
 42
14.0
  3
DIMSTYLE_2
100
AcDbAlignedDimension
 13
410.5113255222
 23
308.9066538534
 14
424.5113255222
 24
272.5743622274
100
AcDbRotatedDimension
  0
DIMENSION
  5
654
100
AcDbEntity
  8
0
100
AcDbDimension
 62
2
  6
CONTINUOUS
  2
*D25
 10
382.5113255222
 20
358.4066538534
 11
382.5113255222
 21
240.9066538534
 70
160
 71
2
 42
235.0
  3
DIMSTYLE_8
100
AcDbAlignedDimension
 13
417.5113255222
 23
123.4066538534
 14
417.5113255222
 24
358.4066538534
 50
90.0
100
AcDbRotatedDimension
  0
DIMENSION
  5
655
100
AcDbEntity
  8
0
100
AcDbDimension
 62
2
  6
CONTINUOUS
  2
*D26
 10
245.3819525935
 20
288.1977790063
 11
240.8819525935
 21
288.1977790063
 70
160
 71
2
 42
9.0
  1
{\Fgdt;o}<>
  3
DIMSTYLE_2
100
AcDbAlignedDimension
 13
236.3819525935
 23
264.8066538534
 14
245.3819525935
 24
264.8066538534
100
AcDbRotatedDimension
  0
DIMENSION
  5
656
100
AcDbEntity
  8
0
100
AcDbDimension
 62
2
  6
CONTINUOUS
  2
*D27
 10
427.5113255222
 20
323.0860879836
 11
434.8203517743
 21
323.0860879836
 70
160
 71
1
 42
3.0
  3
DIMSTYLE_3
100
AcDbAlignedDimension
 13
424.5113255222
 23
308.9066538534
 14
427.5113255222
 24
358.4066538534
100
AcDbRotatedDimension
  0
DIMENSION
  5
657
100
AcDbEntity
  8
0
100
AcDbDimension
 62
2
  6
CONTINUOUS
  2
*D28
 10
244.3819525935
 20
146.5223802837
 11
252.3337054061
 21
146.5223802837
 70
160
 71
1
 42
7.0
  1
%%c<>
  3
DIMSTYLE_2
100
AcDbAlignedDimension
 13
237.3819525935
 23
161.4066538534
 14
244.3819525935
 24
161.8082263148
100
AcDbRotatedDimension
  0
DIMENSION
  5
658
100
AcDbEntity
  8
0
100
AcDbDimension
 62
2
  6
CONTINUOUS
  2
*D29
 10
288.8819525935
 20
59.6164684242
 11
288.8819525935
 21
68.2293911094
 70
160
 71
1
 42
1.875
  3
DIMSTYLE_9
100
AcDbAlignedDimension
 13
178.6319525935
 23
61.4914684242
 14
190.8958491507
 24
59.6164684242
 50
270.0
100
AcDbRotatedDimension
  0
LEADER
  5
659
100
AcDbEntity
  8
0
100
AcDbLeader
 62
2
  6
CONTINUOUS
  3
STANDARD
 71
1
 72
0
 73
0
 75
0
 40
4.0
 41
26.4761904762
 76
3
 10
206.6750581974
 20
340.5438665687
 30
0.0
 10
206.814846255
 20
348.6555821694
 30
0.0
 10
211.814846255
 20
348.6555821694
 30
0.0
340
65A
1001
ACAD
1000
DSTYLE
1002
{
1070
77
1070
0
1002
}
  0
MTEXT
  5
65A
102
{ACAD_REACTORS
330
659
102
}
100
AcDbEntity
  8
0
100
AcDbMText
 62
5
  6
CONTINUOUS
  7
STANDARD
 71
1
 72
1
 10
211.814846255
 20
350.6555821694
 30
0.0
 11
1.0
 21
0.0
 31
0.0
 44
0.9
  1
20mm Hub
 40
4.0
 41
39.7142857143
  0
LINE
  5
65B
100
AcDbEntity
  8
0
100
AcDbLine
 62
5
  6
CONTINUOUS
 10
25.0
 20
415.0
 11
25.0
 21
5.0
  0
LINE
  5
65C
100
AcDbEntity
  8
0
100
AcDbLine
 62
5
  6
CONTINUOUS
 10
25.0
 20
5.0
 11
589.0
 21
5.0
  0
LINE
  5
65D
100
AcDbEntity
  8
DEFAULT_3
100
AcDbLine
 62
8
  6
PHANTOM
 10
203.1958427944
 20
338.9636244455
 11
203.1958427944
 21
320.6312820092
  0
LINE
  5
65E
100
AcDbEntity
  8
DEFAULT_3
100
AcDbLine
 62
8
  6
PHANTOM
 10
203.3863053232
 20
160.541202214
 11
203.3863053232
 21
142.2088597778
  0
LINE
  5
65F
100
AcDbEntity
  8
DEFAULT_3
100
AcDbLine
 62
8
  6
PHANTOM
 10
208.3463580503
 20
338.9636244455
 11
208.3463580503
 21
320.6312820092
  0
LINE
  5
660
100
AcDbEntity
  8
DEFAULT_3
100
AcDbLine
 62
8
  6
PHANTOM
 10
208.5368205791
 20
160.541202214
 11
208.5368205791
 21
142.2088597778
  0
LINE
  5
661
100
AcDbEntity
  8
0
100
AcDbLine
 62
5
  6
CONTINUOUS
 10
25.0
 20
415.0
 11
589.0
 21
415.0
  0
LINE
  5
662
100
AcDbEntity
  8
0
100
AcDbLine
 62
5
  6
CONTINUOUS
 10
589.0
 20
415.0
 11
589.0
 21
5.0
  0
LINE
  5
663
100
AcDbEntity
  8
DEFAULT_1
100
AcDbLine
 62
7
  6
CENTER
 10
402.5113255222
 20
284.9066538534
 11
433.0290258765
 21
284.9066538534
  0
SPLINE
  5
664
100
AcDbEntity
  8
DEFAULT_3
100
AcDbSpline
 62
8
  6
PHANTOM
 70
0
 71
3
 72
11
 73
7
 74
0
 42
0.0000001
 43
0.0000001
 44
0.0000000001
 40
0.0
 40
0.0
 40
0.0
 40
0.0
 40
0.3123758172
 40
0.5494537546
 40
0.7926183882
 40
1.0
 40
1.0
 40
1.0
 40
1.0
 10
203.3482747293
 20
339.010590361
 30
0.0
 10
203.3795349354
 20
338.2652396004
 30
0.0
 10
204.3075318258
 20
337.6972421151
 30
0.0
 10
206.078961554
 20
338.1168054161
 30
0.0
 10
206.9181166035
 20
339.0482053603
 30
0.0
 10
207.7636251581
 20
339.1658666153
 30
0.0
 10
208.3463580503
 20
338.9636244455
 30
0.0
  0
SPLINE
  5
665
100
AcDbEntity
  8
DEFAULT_3
100
AcDbSpline
 62
8
  6
PHANTOM
 70
0
 71
3
 72
10
 73
6
 74
0
 42
0.0000001
 43
0.0000001
 44
0.0000000001
 40
0.0
 40
0.0
 40
0.0
 40
0.0
 40
0.3865103882
 40
0.6845347016
 40
1.0
 40
1.0
 40
1.0
 40
1.0
 10
203.3863053232
 20
142.2088597778
 30
0.0
 10
204.0384903932
 20
142.8556107119
 30
0.0
 10
205.1869751378
 20
143.0399135174
 30
0.0
 10
206.8908416579
 20
142.3776870449
 30
0.0
 10
207.9687817654
 20
142.1186153916
 30
0.0
 10
208.5368205791
 20
142.2088597778
 30
0.0
  0
INSERT
  5
666
100
AcDbEntity
  8
GU_BKS_BL0
100
AcDbBlockReference
  2
GU_BKS_BL0
 10
35.2519626576
 20
16.716496874
  0
INSERT
  5
667
100
AcDbEntity
  8
X23015008_BL1
100
AcDbBlockReference
  2
X23015008_BL1
 10
297.5716390579
 20
199.9490611388
  0
INSERT
  5
668
100
AcDbEntity
  8
X23219003_BL2
100
AcDbBlockReference
  2
X23219003_BL2
 10
298.6539399762
 20
184.5967602205
  0
INSERT
  5
669
100
AcDbEntity
  8
X23100000_BL3
100
AcDbBlockReference
  2
X23100000_BL3
 10
300.9086448355
 20
185.8615611388
  0
INSERT
  5
66A
100
AcDbEntity
  8
X23983006_BL4
100
AcDbBlockReference
  2
X23983006_BL4
 10
204.8819525935
 20
126.2027713861
  0
INSERT
  5
66B
100
AcDbEntity
  8
X00539000_BL5
100
AcDbBlockReference
  2
X00539000_BL5
 10
242.4319525935
 20
126.7615611388
  0
INSERT
  5
66C
100
AcDbEntity
  8
X23982005_BL6
100
AcDbBlockReference
  2
X23982005_BL6
 10
309.1091390579
 20
192.8564862884
  0
INSERT
  5
66D
100
AcDbEntity
  8
X23524005_BL7
100
AcDbBlockReference
  2
X23524005_BL7
 10
316.0091390579
 20
244.0391247246
  0
INSERT
  5
66E
100
AcDbEntity
  8
X23590000_BL8
100
AcDbBlockReference
  2
X23590000_BL8
 10
327.4591390579
 20
263.7066538534
  0
INSERT
  5
66F
100
AcDbEntity
  8
X00539000_BL9
100
AcDbBlockReference
  2
X00539000_BL9
 10
323.3591390579
 20
167.4865611388
  0
INSERT
  5
670
100
AcDbEntity
  8
X23988000_BL10
100
AcDbBlockReference
  2
X23988000_BL10
 10
240.6753001074
 20
216.2734071484
  0
INSERT
  5
671
100
AcDbEntity
  8
X00200000_BL11
100
AcDbBlockReference
  2
X00200000_BL11
 10
336.1216390579
 20
278.9066538534
  0
INSERT
  5
672
100
AcDbEntity
  8
X02304000_GEN_BL12
100
AcDbBlockReference
  2
X02304000_GEN_BL12
 10
308.6591390579
 20
170.2365611388
  0
INSERT
  5
673
100
AcDbEntity
  8
X00200000_BL13
100
AcDbBlockReference
  2
X00200000_BL13
 10
185.6319525935
 20
180.3119346037
  0
INSERT
  5
674
100
AcDbEntity
  8
X00200000_BL14
100
AcDbBlockReference
  2
X00200000_BL14
 10
188.9074827975
 20
105.7086659458
  0
INSERT
  5
675
100
AcDbEntity
  8
X00308000_BL15
100
AcDbBlockReference
  2
X00308000_BL15
 10
230.3819525935
 20
124.7115611388
  0
INSERT
  5
676
100
AcDbEntity
  8
X02304010_BL16
100
AcDbBlockReference
  2
X02304010_BL16
 10
198.8819525935
 20
219.9225545827
  0
INSERT
  5
677
100
AcDbEntity
  8
X00200000_BL17
100
AcDbBlockReference
  2
X00200000_BL17
 10
187.6325282156
 20
243.9066538534
  0
INSERT
  5
678
100
AcDbEntity
  8
X00200000_BL18
100
AcDbBlockReference
  2
X00200000_BL18
 10
240.8819525935
 20
214.3066538534
  0
ENDSEC
  0
SECTION
  2
OBJECTS
  0
DICTIONARY
  5
C
100
AcDbDictionary
280
0
281
1
  3
ACAD_GROUP
350
D
  3
ACAD_MLINESTYLE
350
17
  3
ACAD_LAYOUT
350
1A
  3
ACAD_PLOTSETTINGS
350
19
  3
ACAD_PLOTSTYLENAME
350
E
  0
DICTIONARY
  5
D
102
{ACAD_REACTORS
330
C
102
}
100
AcDbDictionary
280
0
281
1
  0
ACDBDICTIONARYWDFLT
  5
E
102
{ACAD_REACTORS
330
C
102
}
100
AcDbDictionary
281
1
  3
Normal
350
F
100
AcDbDictionaryWithDefault
340
F
  0
DICTIONARY
  5
17
102
{ACAD_REACTORS
330
C
102
}
100
AcDbDictionary
280
0
281
1
  3
Standard
350
18
  0
DICTIONARY
  5
19
102
{ACAD_REACTORS
330
C
102
}
100
AcDbDictionary
281
1
  0
DICTIONARY
  5
1A
102
{ACAD_REACTORS
330
C
102
}
100
AcDbDictionary
281
1
  3
Model
350
679
  3
Layout1
350
67A
  0
ACDBPLACEHOLDER
  5
F
102
{ACAD_REACTORS
330
E
102
}
  0
MLINESTYLE
  5
18
102
{ACAD_REACTORS
330
17
102
}
100
AcDbMlineStyle
  2
STANDARD
 70
0
  3

 62
256
 51
90.0
 52
90.0
 71
2
 49
0.5
 62
256
  6
BYLAYER
 49
-0.5
 62
256
  6
BYLAYER
  0
LAYOUT
  5
679
102
{ACAD_REACTORS
330
1A
102
}
100
AcDbPlotSettings
  1

  2
none_device
  4
ISO_A2_(594.00_x_420.00_MM)
  6

 40
0.0
 41
0.0
 42
0.0
 43
0.0
 44
594.0
 45
420.0
 46
0.0
 47
0.0
 48
0.0
 49
0.0
140
0.0
141
0.0
142
1.0
143
1.0
 70
1024
 72
1
 73
0
 74
0
  7

 75
0
147
1.0
148
0.0
149
0.0
100
AcDbLayout
  1
Model
 70
0
 71
0
 10
0.0
 20
0.0
 11
594.0
 21
420.0
 12
0.0
 22
0.0
 32
0.0
 14
0.0
 24
0.0
 34
0.0
 15
0.0
 25
0.0
 35
0.0
146
0.0
 13
0.0
 23
0.0
 33
0.0
 16
1.0
 26
0.0
 36
0.0
 17
0.0
 27
1.0
 37
0.0
 76
0
330
228
345
0
346
0
  0
LAYOUT
  5
67A
102
{ACAD_REACTORS
330
1A
102
}
100
AcDbPlotSettings
  1

  2
none_device
  4
ISO_A2_(594.00_x_420.00_MM)
  6

 40
0.0
 41
0.0
 42
0.0
 43
0.0
 44
594.0
 45
420.0
 46
0.0
 47
0.0
 48
0.0
 49
0.0
140
0.0
141
0.0
142
1.0
143
1.0
 70
0
 72
1
 73
0
 74
0
  7

 75
0
147
1.0
148
0.0
149
0.0
100
AcDbLayout
  1
Layout1
 70
0
 71
1
 10
0.0
 20
0.0
 11
594.0
 21
420.0
 12
0.0
 22
0.0
 32
0.0
 14
0.0
 24
0.0
 34
0.0
 15
0.0
 25
0.0
 35
0.0
146
0.0
 13
0.0
 23
0.0
 33
0.0
 16
1.0
 26
0.0
 36
0.0
 17
0.0
 27
1.0
 37
0.0
 76
0
330
229
345
0
346
0
  0
ENDSEC
  0
EOF
