999
DXF file: Z:\Entwicklung\5_Service\1_Maßblätter\4_Schloss\b_9036_0003_bd01.dxf
999
Pro/ENGINEER 2014320 by Parametric Technology Corporation
  0
SECTION
  2
HEADER
  9
$ACADVER
  1
AC1021
  9
$DWGCODEPAGE
  3
ANSI_1252
  9
$EXTMAX
 10
210.0
 20
297.0
 30
0.0
  9
$EXTMIN
 10
0.0
 20
0.0
 30
0.0
  9
$LIMMIN
 10
0.0
 20
0.0
  9
$LIMMAX
 10
210.0
 20
297.0
  9
$VIEWCTR
 10
105.0
 20
148.5
  9
$VIEWSIZE
 40
297.0
  9
$CLAYER
  8
0
  9
$LTSCALE
 40
19.36
  9
$CELTYPE
  6
BYLAYER
  9
$DIMSCALE
 40
1.0
  9
$DIMASZ
 40
3.5
  9
$DIMEXO
 40
0.0
  9
$DIMDLI
 40
13.376
  9
$DIMEXE
 40
1.0
  9
$DIMCEN
 40
3.168
  9
$DIMLFAC
 40
1.0
  9
$DIMBLK
  1
_FILLED
  9
$DIMTXT
 40
2.5
  9
$DIMTOL
 70
1
  9
$DIMLIM
 70
0
  9
$DIMTFAC
 40
1.0
  9
$DIMTP
 40
0.001
  9
$DIMTM
 40
0.001
  9
$DIMGAP
 40
0.625
  9
$DIMDSEP
 70
46
  9
$PDMODE
 70
3
  9
$PDSIZE
 40
2.0
  9
$HANDSEED
  5
430
  9
$TILEMODE
 70
1
  9
$MEASUREMENT
 70
1
  9
$INSUNITS
 70
4
  0
ENDSEC
  0
SECTION
  2
CLASSES
  0
CLASS
  1
ACDBDICTIONARYWDFLT
  2
AcDbDictionaryWithDefault
  3
AutoCAD 2000
 90
0
 91
1
280
0
281
0
  0
CLASS
  1
ACDBPLACEHOLDER
  2
AcDbPlaceHolder
  3
AutoCAD 2000
 90
0
 91
1
280
0
281
0
  0
CLASS
  1
LAYOUT
  2
AcDbLayout
  3
AutoCAD 2000
 90
0
 91
0
280
0
281
0
  0
ENDSEC
  0
SECTION
  2
TABLES
  0
TABLE
  2
VPORT
  5
8
100
AcDbSymbolTable
 70
2
  0
VPORT
  5
1F4
100
AcDbSymbolTableRecord
100
AcDbViewportTableRecord
  2
*ACTIVE
 70
0
 10
0.0
 20
0.0
 11
1.0
 21
1.0
 12
105.0
 22
148.5
 13
0.0
 23
0.0
 14
1.0
 24
1.0
 15
0.0
 25
0.0
 16
0.0
 26
0.0
 36
1.0
 17
0.0
 27
0.0
 37
0.0
 40
297.0
 41
0.7070707071
 42
50.0
 43
0.0
 44
0.0
 50
0.0
 51
0.0
 71
0
 72
100
 73
1
 74
1
 75
0
 76
0
 77
0
 78
0
  0
ENDTAB
  0
TABLE
  2
LTYPE
  5
5
100
AcDbSymbolTable
 70
6
  0
LTYPE
  5
14
100
AcDbSymbolTableRecord
100
AcDbLinetypeTableRecord
  2
BYBLOCK
 70
0
  3

 72
65
 73
0
 40
0.0
  0
LTYPE
  5
15
100
AcDbSymbolTableRecord
100
AcDbLinetypeTableRecord
  2
BYLAYER
 70
0
  3

 72
65
 73
0
 40
0.0
  0
LTYPE
  5
16
100
AcDbSymbolTableRecord
100
AcDbLinetypeTableRecord
  2
CONTINUOUS
 70
64
  3
Solid line
 72
65
 73
0
 40
0.0
  0
LTYPE
  5
1F5
100
AcDbSymbolTableRecord
100
AcDbLinetypeTableRecord
  2
CENTER
 70
64
  3
____ _ ____ _ ____ _ ____ _ ____ _ ____ _ ____
 72
65
 73
4
 40
0.6
 49
0.375
 74
0
 49
-0.075
 74
0
 49
0.075
 74
0
 49
-0.075
 74
0
  0
LTYPE
  5
1F6
100
AcDbSymbolTableRecord
100
AcDbLinetypeTableRecord
  2
HIDDEN
 70
64
  3
- - - - - - - - - - - - - - - - - - - -
 72
65
 73
2
 40
0.2
 49
0.1
 74
0
 49
-0.1
 74
0
  0
LTYPE
  5
1F7
100
AcDbSymbolTableRecord
100
AcDbLinetypeTableRecord
  2
PHANTOM
 70
64
  3
_____ _ _ _____ _ _ _____ _ _ _____
 72
65
 73
6
 40
0.8
 49
0.45
 74
0
 49
-0.05
 74
0
 49
0.1
 74
0
 49
-0.05
 74
0
 49
0.1
 74
0
 49
-0.05
 74
0
  0
LTYPE
  5
1F8
100
AcDbSymbolTableRecord
100
AcDbLinetypeTableRecord
  2
DOT
 70
64
  3
. . . . . . . . . . . . . . . . . . . .
 72
65
 73
2
 40
0.2
 49
0.1
 74
0
 49
-0.1
 74
0
  0
LTYPE
  5
1F9
100
AcDbSymbolTableRecord
100
AcDbLinetypeTableRecord
  2
DASHED
 70
64
  3
- - - - - - - - - - - - - - - - - - - -
 72
65
 73
2
 40
0.2
 49
0.1
 74
0
 49
-0.1
 74
0
  0
ENDTAB
  0
TABLE
  2
LAYER
  5
2
100
AcDbSymbolTable
 70
36
  0
LAYER
  5
10
100
AcDbSymbolTableRecord
100
AcDbLayerTableRecord
  2
0
 70
0
 62
7
  6
CONTINUOUS
370
-3
390
F
  0
LAYER
  5
1FA
100
AcDbSymbolTableRecord
100
AcDbLayerTableRecord
  2
DEFAULT_1
 70
0
 62
7
  6
CENTER
370
-3
390
F
  0
LAYER
  5
1FB
100
AcDbSymbolTableRecord
100
AcDbLayerTableRecord
  2
DEFAULT_2
 70
0
 62
8
  6
HIDDEN
370
-3
390
F
  0
LAYER
  5
1FC
100
AcDbSymbolTableRecord
100
AcDbLayerTableRecord
  2
DEFAULT_3
 70
0
 62
7
  6
PHANTOM
370
-3
390
F
  0
LAYER
  5
1FD
100
AcDbSymbolTableRecord
100
AcDbLayerTableRecord
  2
ACHSEN
 70
0
 62
7
  6
CONTINUOUS
370
-3
390
F
  0
LAYER
  5
1FE
100
AcDbSymbolTableRecord
100
AcDbLayerTableRecord
  2
AXIS
 70
0
 62
7
  6
CONTINUOUS
370
-3
390
F
  0
LAYER
  5
1FF
100
AcDbSymbolTableRecord
100
AcDbLayerTableRecord
  2
COORDSYS
 70
0
 62
7
  6
CONTINUOUS
370
-3
390
F
  0
LAYER
  5
200
100
AcDbSymbolTableRecord
100
AcDbLayerTableRecord
  2
CURVES
 70
0
 62
7
  6
CONTINUOUS
370
-3
390
F
  0
LAYER
  5
201
100
AcDbSymbolTableRecord
100
AcDbLayerTableRecord
  2
EBENEN
 70
0
 62
7
  6
CONTINUOUS
370
-3
390
F
  0
LAYER
  5
202
100
AcDbSymbolTableRecord
100
AcDbLayerTableRecord
  2
HIDDEN
 70
0
 62
7
  6
CONTINUOUS
370
-3
390
F
  0
LAYER
  5
203
100
AcDbSymbolTableRecord
100
AcDbLayerTableRecord
  2
KURVEN
 70
0
 62
7
  6
CONTINUOUS
370
-3
390
F
  0
LAYER
  5
204
100
AcDbSymbolTableRecord
100
AcDbLayerTableRecord
  2
PLANES
 70
0
 62
7
  6
CONTINUOUS
370
-3
390
F
  0
LAYER
  5
205
100
AcDbSymbolTableRecord
100
AcDbLayerTableRecord
  2
POINTS
 70
0
 62
7
  6
CONTINUOUS
370
-3
390
F
  0
LAYER
  5
206
100
AcDbSymbolTableRecord
100
AcDbLayerTableRecord
  2
S-ACHSEN
 70
0
 62
7
  6
CONTINUOUS
370
-3
390
F
  0
LAYER
  5
207
100
AcDbSymbolTableRecord
100
AcDbLayerTableRecord
  2
S-AXIS
 70
0
 62
7
  6
CONTINUOUS
370
-3
390
F
  0
LAYER
  5
208
100
AcDbSymbolTableRecord
100
AcDbLayerTableRecord
  2
S-COORDSYS
 70
0
 62
7
  6
CONTINUOUS
370
-3
390
F
  0
LAYER
  5
209
100
AcDbSymbolTableRecord
100
AcDbLayerTableRecord
  2
S-EBENEN
 70
0
 62
7
  6
CONTINUOUS
370
-3
390
F
  0
LAYER
  5
20A
100
AcDbSymbolTableRecord
100
AcDbLayerTableRecord
  2
S-KOORDSYS
 70
0
 62
7
  6
CONTINUOUS
370
-3
390
F
  0
LAYER
  5
20B
100
AcDbSymbolTableRecord
100
AcDbLayerTableRecord
  2
S-PLANES
 70
0
 62
7
  6
CONTINUOUS
370
-3
390
F
  0
LAYER
  5
20C
100
AcDbSymbolTableRecord
100
AcDbLayerTableRecord
  2
THREADS
 70
0
 62
7
  6
CONTINUOUS
370
-3
390
F
  0
LAYER
  5
20D
100
AcDbSymbolTableRecord
100
AcDbLayerTableRecord
  2
GU_BKS_BL0
 70
0
 62
7
  6
CONTINUOUS
370
-3
390
F
  0
LAYER
  5
20E
100
AcDbSymbolTableRecord
100
AcDbLayerTableRecord
  2
C00746000_BL1
 70
0
 62
7
  6
CONTINUOUS
370
-3
390
F
  0
LAYER
  5
20F
100
AcDbSymbolTableRecord
100
AcDbLayerTableRecord
  2
X00906032_BL2
 70
0
 62
7
  6
CONTINUOUS
370
-3
390
F
  0
LAYER
  5
210
100
AcDbSymbolTableRecord
100
AcDbLayerTableRecord
  2
C00746000_BL3
 70
0
 62
7
  6
CONTINUOUS
370
-3
390
F
  0
LAYER
  5
211
100
AcDbSymbolTableRecord
100
AcDbLayerTableRecord
  2
C00959000_BL4
 70
0
 62
7
  6
CONTINUOUS
370
-3
390
F
  0
LAYER
  5
212
100
AcDbSymbolTableRecord
100
AcDbLayerTableRecord
  2
C98112000_BL5
 70
0
 62
7
  6
CONTINUOUS
370
-3
390
F
  0
LAYER
  5
213
100
AcDbSymbolTableRecord
100
AcDbLayerTableRecord
  2
C00717000_BL6
 70
0
 62
7
  6
CONTINUOUS
370
-3
390
F
  0
LAYER
  5
214
100
AcDbSymbolTableRecord
100
AcDbLayerTableRecord
  2
C98109000_BL7
 70
0
 62
7
  6
CONTINUOUS
370
-3
390
F
  0
LAYER
  5
215
100
AcDbSymbolTableRecord
100
AcDbLayerTableRecord
  2
C00941000_BL8
 70
0
 62
7
  6
CONTINUOUS
370
-3
390
F
  0
ENDTAB
  0
TABLE
  2
STYLE
  5
3
100
AcDbSymbolTable
 70
1
  0
STYLE
  5
11
100
AcDbSymbolTableRecord
100
AcDbTextStyleTableRecord
  2
STANDARD
 70
0
 40
0.0
 41
0.8
 50
0.0
 71
0
 42
0.2
  3
txt
  4

  0
STYLE
  5
216
100
AcDbSymbolTableRecord
100
AcDbTextStyleTableRecord
  2
TEXTSTYLE_1
 70
0
 40
0.0
 41
0.8
 50
0.0
 71
0
 42
0.2
  3
gdt
  4

  0
STYLE
  5
217
100
AcDbSymbolTableRecord
100
AcDbTextStyleTableRecord
  2
TEXTSTYLE_2
 70
0
 40
0.0
 41
1.0
 50
0.0
 71
0
 42
0.2
  3
swisscl.ttf
  4

  0
STYLE
  5
218
100
AcDbSymbolTableRecord
100
AcDbTextStyleTableRecord
  2
TEXTSTYLE_3
 70
0
 40
0.0
 41
1.0
 50
0.0
 71
0
 42
0.2
  3
swisscl.ttf
  4

  0
ENDTAB
  0
TABLE
  2
VIEW
  5
6
100
AcDbSymbolTable
 70
0
  0
ENDTAB
  0
TABLE
  2
UCS
  5
7
100
AcDbSymbolTable
 70
0
  0
ENDTAB
  0
TABLE
  2
APPID
  5
9
100
AcDbSymbolTable
 70
1
  0
APPID
  5
219
100
AcDbSymbolTableRecord
100
AcDbRegAppTableRecord
  2
ACAD
 70
0
  0
ENDTAB
  0
TABLE
  2
BLOCK_RECORD
  5
1
100
AcDbSymbolTable
 70
0
  0
BLOCK_RECORD
  5
21A
100
AcDbSymbolTableRecord
100
AcDbBlockTableRecord
  2
*Model_Space
  0
BLOCK_RECORD
  5
21B
100
AcDbSymbolTableRecord
100
AcDbBlockTableRecord
  2
*Paper_Space
  0
BLOCK_RECORD
  5
21C
100
AcDbSymbolTableRecord
100
AcDbBlockTableRecord
  2
_FILLED
  0
BLOCK_RECORD
  5
21D
100
AcDbSymbolTableRecord
100
AcDbBlockTableRecord
  2
*D0
  0
BLOCK_RECORD
  5
21E
100
AcDbSymbolTableRecord
100
AcDbBlockTableRecord
  2
*D1
  0
BLOCK_RECORD
  5
21F
100
AcDbSymbolTableRecord
100
AcDbBlockTableRecord
  2
*D2
  0
BLOCK_RECORD
  5
220
100
AcDbSymbolTableRecord
100
AcDbBlockTableRecord
  2
*D3
  0
BLOCK_RECORD
  5
221
100
AcDbSymbolTableRecord
100
AcDbBlockTableRecord
  2
*D4
  0
BLOCK_RECORD
  5
222
100
AcDbSymbolTableRecord
100
AcDbBlockTableRecord
  2
*D5
  0
BLOCK_RECORD
  5
223
100
AcDbSymbolTableRecord
100
AcDbBlockTableRecord
  2
*D6
  0
BLOCK_RECORD
  5
224
100
AcDbSymbolTableRecord
100
AcDbBlockTableRecord
  2
*D7
  0
BLOCK_RECORD
  5
225
100
AcDbSymbolTableRecord
100
AcDbBlockTableRecord
  2
*D8
  0
BLOCK_RECORD
  5
226
100
AcDbSymbolTableRecord
100
AcDbBlockTableRecord
  2
*D9
  0
BLOCK_RECORD
  5
227
100
AcDbSymbolTableRecord
100
AcDbBlockTableRecord
  2
GU_BKS_BL0
  0
BLOCK_RECORD
  5
228
100
AcDbSymbolTableRecord
100
AcDbBlockTableRecord
  2
C00746000_BL1
  0
BLOCK_RECORD
  5
229
100
AcDbSymbolTableRecord
100
AcDbBlockTableRecord
  2
X00906032_BL2
  0
BLOCK_RECORD
  5
22A
100
AcDbSymbolTableRecord
100
AcDbBlockTableRecord
  2
C00746000_BL3
  0
BLOCK_RECORD
  5
22B
100
AcDbSymbolTableRecord
100
AcDbBlockTableRecord
  2
C00959000_BL4
  0
BLOCK_RECORD
  5
22C
100
AcDbSymbolTableRecord
100
AcDbBlockTableRecord
  2
C98112000_BL5
  0
BLOCK_RECORD
  5
22D
100
AcDbSymbolTableRecord
100
AcDbBlockTableRecord
  2
C00717000_BL6
  0
BLOCK_RECORD
  5
22E
100
AcDbSymbolTableRecord
100
AcDbBlockTableRecord
  2
C98109000_BL7
  0
BLOCK_RECORD
  5
22F
100
AcDbSymbolTableRecord
100
AcDbBlockTableRecord
  2
C00941000_BL8
  0
ENDTAB
  0
TABLE
  2
DIMSTYLE
  5
A
100
AcDbSymbolTable
 70
1
100
AcDbDimStyleTable
 71
0
  0
DIMSTYLE
105
230
100
AcDbSymbolTableRecord
100
AcDbDimStyleTableRecord
  2
STANDARD
 70
0
  3

  4

 40
1.0
 41
3.5
 42
0.0
 43
0.38
 44
1.0
 45
0.0
 46
0.0
 47
0.001
 48
0.001
140
2.5
141
0.09
142
0.0
143
25.4
144
1.0
145
0.0
146
1.0
147
0.625
 71
1.0
 72
0.0
 73
0
 74
0
 75
0
 76
0
 77
1
 78
8
170
0
171
2
172
0
173
0
174
0
175
0
176
0
177
0
178
5
270
2
271
3
272
3
273
2
274
2
275
0
280
0
281
0
282
0
283
1
284
8
285
0
286
0
287
3
288
0
340
11
278
46
341
21C
342
21C
343
21C
344
21C
  0
DIMSTYLE
105
231
100
AcDbSymbolTableRecord
100
AcDbDimStyleTableRecord
  2
DIMSTYLE_1
 70
0
  3

  4

 40
1.0
 41
3.5
 42
0.0
 43
0.38
 44
1.0
 45
0.0
 46
0.0
 47
0.2
 48
0.2
140
3.0
141
0.09
142
0.0
143
25.4
144
1.0
145
0.0
146
1.0
147
0.75
 71
0.0
 72
0.0
 73
0
 74
0
 75
0
 76
0
 77
1
 78
8
170
0
171
2
172
0
173
0
174
0
175
0
176
0
177
0
178
5
270
2
271
3
272
3
273
2
274
2
275
0
280
0
281
0
282
0
283
1
284
8
285
0
286
0
287
3
288
0
340
218
278
46
341
21C
342
21C
343
21C
344
21C
  0
DIMSTYLE
105
232
100
AcDbSymbolTableRecord
100
AcDbDimStyleTableRecord
  2
DIMSTYLE_2
 70
0
  3

  4

 40
1.0
 41
3.5
 42
0.0
 43
0.38
 44
1.0
 45
0.0
 46
0.0
 47
0.1
 48
0.1
140
3.0
141
0.09
142
0.0
143
25.4
144
1.0
145
0.0
146
1.0
147
0.75
 71
0.0
 72
0.0
 73
0
 74
0
 75
0
 76
0
 77
1
 78
8
170
0
171
2
172
0
173
0
174
0
175
0
176
0
177
0
178
5
270
2
271
3
272
3
273
2
274
2
275
0
280
0
281
0
282
0
283
1
284
8
285
0
286
0
287
3
288
0
340
218
278
46
341
21C
342
21C
343
21C
344
21C
  0
DIMSTYLE
105
233
100
AcDbSymbolTableRecord
100
AcDbDimStyleTableRecord
  2
DIMSTYLE_3
 70
0
  3

  4

 40
1.0
 41
3.5
 42
0.0
 43
0.38
 44
1.0
 45
0.0
 46
0.0
 47
0.5
 48
0.5
140
3.0
141
0.09
142
0.0
143
25.4
144
1.0
145
0.0
146
1.0
147
0.75
 71
0.0
 72
0.0
 73
0
 74
0
 75
0
 76
0
 77
1
 78
8
170
0
171
2
172
0
173
0
174
0
175
0
176
0
177
0
178
5
270
2
271
3
272
3
273
2
274
2
275
0
280
0
281
0
282
0
283
1
284
8
285
0
286
0
287
3
288
0
340
11
278
46
341
21C
342
21C
343
21C
344
21C
  0
DIMSTYLE
105
234
100
AcDbSymbolTableRecord
100
AcDbDimStyleTableRecord
  2
DIMSTYLE_4
 70
0
  3

  4

 40
1.0
 41
3.5
 42
0.0
 43
0.38
 44
1.0
 45
0.0
 46
0.0
 47
1.2
 48
1.2
140
3.0
141
0.09
142
0.0
143
25.4
144
1.0
145
0.0
146
1.0
147
0.75
 71
0.0
 72
0.0
 73
0
 74
0
 75
0
 76
0
 77
1
 78
8
170
0
171
2
172
0
173
0
174
0
175
0
176
0
177
0
178
5
270
2
271
3
272
3
273
2
274
2
275
0
280
0
281
0
282
0
283
1
284
8
285
0
286
0
287
3
288
0
340
11
278
46
341
21C
342
21C
343
21C
344
21C
  0
DIMSTYLE
105
235
100
AcDbSymbolTableRecord
100
AcDbDimStyleTableRecord
  2
DIMSTYLE_5
 70
0
  3

  4

 40
1.0
 41
3.5
 42
0.0
 43
0.38
 44
1.0
 45
0.0
 46
0.0
 47
0.2
 48
0.2
140
3.0
141
0.09
142
0.0
143
25.4
144
1.0
145
0.0
146
1.0
147
0.75
 71
0.0
 72
0.0
 73
0
 74
0
 75
0
 76
0
 77
1
 78
8
170
0
171
2
172
0
173
0
174
0
175
0
176
0
177
0
178
5
270
2
271
3
272
3
273
2
274
2
275
0
280
0
281
0
282
0
283
1
284
8
285
0
286
0
287
3
288
0
340
11
278
46
341
21C
342
21C
343
21C
344
21C
  0
ENDTAB
  0
ENDSEC
  0
SECTION
  2
BLOCKS
  0
BLOCK
  5
20
100
AcDbEntity
  8
0
100
AcDbBlockBegin
  2
*Model_Space
 70
0
 10
0.0
 20
0.0
 30
0.0
  3
*Model_Space
  1

  0
ENDBLK
  5
21
100
AcDbEntity
  8
0
100
AcDbBlockEnd
  0
BLOCK
  5
1C
100
AcDbEntity
  8
0
100
AcDbBlockBegin
  2
*Paper_Space
 70
0
 10
0.0
 20
0.0
 30
0.0
  3
*Paper_Space
  1

  0
ENDBLK
  5
1D
100
AcDbEntity
  8
0
100
AcDbBlockEnd
  0
BLOCK
  5
236
100
AcDbEntity
  8
GU_BKS_BL0
100
AcDbBlockBegin
  2
GU_BKS_BL0
 70
64
 10
24.0507222011
 20
14.4607358413
  3
GU_BKS_BL0
  1

  0
LINE
  5
237
100
AcDbEntity
  8
GU_BKS_BL0
100
AcDbLine
 62
2
  6
CONTINUOUS
 10
35.9974274249
 20
9.1184166799
 11
21.2732866023
 21
9.1184166799
  0
LINE
  5
238
100
AcDbEntity
  8
GU_BKS_BL0
100
AcDbLine
 62
2
  6
CONTINUOUS
 10
31.5473570136
 20
10.3241666799
 11
30.1288074022
 21
10.3241666799
  0
LINE
  5
239
100
AcDbEntity
  8
GU_BKS_BL0
100
AcDbLine
 62
2
  6
CONTINUOUS
 10
28.0438570136
 20
10.3241666799
 11
26.8153570136
 21
10.3241666799
  0
LINE
  5
23A
100
AcDbEntity
  8
GU_BKS_BL0
100
AcDbLine
 62
2
  6
CONTINUOUS
 10
21.6966070136
 20
10.3241666799
 11
24.2446070136
 21
10.3241666799
  0
LINE
  5
23B
100
AcDbEntity
  8
GU_BKS_BL0
100
AcDbLine
 62
2
  6
CONTINUOUS
 10
22.8568570136
 20
11.3934166799
 11
24.0398570136
 21
11.3934166799
  0
LINE
  5
23C
100
AcDbEntity
  8
GU_BKS_BL0
100
AcDbLine
 62
2
  6
CONTINUOUS
 10
22.8568570136
 20
12.7584166799
 11
24.0398570136
 21
12.7584166796
  0
LINE
  5
23D
100
AcDbEntity
  8
GU_BKS_BL0
100
AcDbLine
 62
2
  6
CONTINUOUS
 10
22.8568570136
 20
13.7594166799
 11
24.0398570136
 21
13.7594166799
  0
LINE
  5
23E
100
AcDbEntity
  8
GU_BKS_BL0
100
AcDbLine
 62
2
  6
CONTINUOUS
 10
22.8568570136
 20
15.0334166799
 11
24.0398570136
 21
15.0334166799
  0
LINE
  5
23F
100
AcDbEntity
  8
GU_BKS_BL0
100
AcDbLine
 62
2
  6
CONTINUOUS
 10
30.1288074022
 20
10.3241666799
 11
28.6876210095
 21
12.820374735
  0
LINE
  5
240
100
AcDbEntity
  8
GU_BKS_BL0
100
AcDbLine
 62
2
  6
CONTINUOUS
 10
24.2150320136
 20
16.0799166799
 11
21.6966070136
 21
16.0799166799
  0
LINE
  5
241
100
AcDbEntity
  8
GU_BKS_BL0
100
AcDbLine
 62
2
  6
CONTINUOUS
 10
26.8153570136
 20
16.0799166799
 11
28.0438570136
 21
16.0799166799
  0
LINE
  5
242
100
AcDbEntity
  8
GU_BKS_BL0
100
AcDbLine
 62
2
  6
CONTINUOUS
 10
29.9487062222
 20
16.0799166799
 11
31.4336070136
 21
16.0799166799
  0
LINE
  5
243
100
AcDbEntity
  8
GU_BKS_BL0
100
AcDbLine
 62
2
  6
CONTINUOUS
 10
24.1397876997
 20
24.884306962
 11
26.1560471524
 21
24.884306962
  0
LINE
  5
244
100
AcDbEntity
  8
GU_BKS_BL0
100
AcDbLine
 62
2
  6
CONTINUOUS
 10
28.8625689225
 20
24.884306962
 11
30.3613762446
 21
24.884306962
  0
LINE
  5
245
100
AcDbEntity
  8
GU_BKS_BL0
100
AcDbLine
 62
2
  6
CONTINUOUS
 10
30.3613762446
 20
26.6740790091
 11
28.8625689225
 21
26.6740790091
  0
LINE
  5
246
100
AcDbEntity
  8
GU_BKS_BL0
100
AcDbLine
 62
2
  6
CONTINUOUS
 10
28.464681049
 20
26.6740790091
 11
24.1397876997
 21
26.6740790091
  0
LINE
  5
247
100
AcDbEntity
  8
GU_BKS_BL0
100
AcDbLine
 62
2
  6
CONTINUOUS
 10
29.5324096488
 20
13.8141578903
 11
31.5473570136
 21
10.3241666799
  0
LINE
  5
248
100
AcDbEntity
  8
GU_BKS_BL0
100
AcDbLine
 62
2
  6
CONTINUOUS
 10
20.4325562277
 20
9.6801747563
 11
18.467126639
 21
14.4251415251
  0
LINE
  5
249
100
AcDbEntity
  8
GU_BKS_BL0
100
AcDbLine
 62
2
  6
CONTINUOUS
 10
36.702282926
 20
30.0405550026
 11
34.4863746771
 21
30.0405550026
  0
LINE
  5
24A
100
AcDbEntity
  8
GU_BKS_BL0
100
AcDbLine
 62
2
  6
CONTINUOUS
 10
32.5772844935
 20
30.0405550026
 11
30.3613762446
 21
30.0405550026
  0
LINE
  5
24B
100
AcDbEntity
  8
GU_BKS_BL0
100
AcDbLine
 62
2
  6
CONTINUOUS
 10
21.6966070136
 20
16.0799166799
 11
21.6966070136
 21
10.3241666799
  0
LINE
  5
24C
100
AcDbEntity
  8
GU_BKS_BL0
100
AcDbLine
 62
2
  6
CONTINUOUS
 10
22.8568570136
 20
15.0334166799
 11
22.8568570136
 21
13.7594166799
  0
LINE
  5
24D
100
AcDbEntity
  8
GU_BKS_BL0
100
AcDbLine
 62
2
  6
CONTINUOUS
 10
22.8568570136
 20
12.7584166799
 11
22.8568570136
 21
11.3934166799
  0
LINE
  5
24E
100
AcDbEntity
  8
GU_BKS_BL0
100
AcDbLine
 62
2
  6
CONTINUOUS
 10
26.8153570136
 20
10.3241666799
 11
26.8153570136
 21
16.0799166799
  0
LINE
  5
24F
100
AcDbEntity
  8
GU_BKS_BL0
100
AcDbLine
 62
2
  6
CONTINUOUS
 10
28.0438570136
 20
16.0799166799
 11
28.0438570136
 21
13.8098057924
  0
LINE
  5
250
100
AcDbEntity
  8
GU_BKS_BL0
100
AcDbLine
 62
2
  6
CONTINUOUS
 10
28.0438570136
 20
12.0531666802
 11
28.0438570136
 21
10.3241666799
  0
LINE
  5
251
100
AcDbEntity
  8
GU_BKS_BL0
100
AcDbLine
 62
2
  6
CONTINUOUS
 10
30.3613762446
 20
30.0405550026
 11
30.3613762446
 21
26.6740790091
  0
LINE
  5
252
100
AcDbEntity
  8
GU_BKS_BL0
100
AcDbLine
 62
2
  6
CONTINUOUS
 10
30.3613762446
 20
24.884306962
 11
30.3613762446
 21
24.4155571401
  0
LINE
  5
253
100
AcDbEntity
  8
GU_BKS_BL0
100
AcDbLine
 62
2
  6
CONTINUOUS
 10
31.9257167021
 20
14.4419166799
 11
31.9257167021
 21
14.1234166799
  0
LINE
  5
254
100
AcDbEntity
  8
GU_BKS_BL0
100
AcDbLine
 62
2
  6
CONTINUOUS
 10
32.5772844935
 20
24.4155571401
 11
32.5772844935
 21
30.0405550026
  0
LINE
  5
255
100
AcDbEntity
  8
GU_BKS_BL0
100
AcDbLine
 62
2
  6
CONTINUOUS
 10
34.4863746771
 20
30.0405550026
 11
34.4863746771
 21
24.4155571401
  0
LINE
  5
256
100
AcDbEntity
  8
GU_BKS_BL0
100
AcDbLine
 62
2
  6
CONTINUOUS
 10
35.9381070136
 20
11.9394166799
 11
35.9381070136
 21
12.2579166799
  0
LINE
  5
257
100
AcDbEntity
  8
GU_BKS_BL0
100
AcDbLine
 62
2
  6
CONTINUOUS
 10
36.702282926
 20
24.4155571401
 11
36.702282926
 21
30.0405550026
  0
LINE
  5
258
100
AcDbEntity
  8
GU_BKS_BL0
100
AcDbLine
 62
2
  6
CONTINUOUS
 10
38.8035873882
 20
14.4251415254
 11
36.8381577995
 21
9.6801747563
  0
LINE
  5
259
100
AcDbEntity
  8
GU_BKS_BL0
100
AcDbLine
 62
2
  6
CONTINUOUS
 10
28.0438570136
 20
13.8098057924
 11
29.9487062222
 21
16.0799166799
  0
LINE
  5
25A
100
AcDbEntity
  8
GU_BKS_BL0
100
AcDbLine
 62
2
  6
CONTINUOUS
 10
28.6876210095
 20
12.820374735
 11
28.0438570136
 21
12.0531666802
  0
LINE
  5
25B
100
AcDbEntity
  8
GU_BKS_BL0
100
AcDbLine
 62
2
  6
CONTINUOUS
 10
29.5324096488
 20
13.8141578903
 11
31.4336070136
 21
16.0799166799
  0
LINE
  5
25C
100
AcDbEntity
  8
GU_BKS_BL0
100
AcDbLine
 62
2
  6
CONTINUOUS
 10
35.0260360156
 20
14.6217980876
 11
35.8310433702
 21
15.4268054422
  0
LINE
  5
25D
100
AcDbEntity
  8
GU_BKS_BL0
100
AcDbLine
 62
2
  6
CONTINUOUS
 10
32.4416988786
 20
11.8765941581
 11
31.6422296762
 21
11.0771249558
  0
LINE
  5
25E
100
AcDbEntity
  8
GU_BKS_BL0
100
AcDbLine
 62
2
  6
CONTINUOUS
 10
25.9203442184
 20
27.0967355013
 11
27.7018400084
 21
28.4149730412
  0
ARC
  5
25F
100
AcDbEntity
  8
GU_BKS_BL0
100
AcDbCircle
 62
2
  6
CONTINUOUS
 10
38.0225983976
 20
40.7922261111
 40
27.3
100
AcDbArc
 50
260.6058710662
 51
262.9334764059
  0
ARC
  5
260
100
AcDbEntity
  8
GU_BKS_BL0
100
AcDbCircle
 62
2
  6
CONTINUOUS
 10
28.6353570139
 20
-1.1190833201
 40
19.3375
100
AcDbArc
 50
59.5907609466
 51
120.4092390534
  0
ARC
  5
261
100
AcDbEntity
  8
GU_BKS_BL0
100
AcDbCircle
 62
2
  6
CONTINUOUS
 10
24.1397876997
 20
25.7791929856
 40
4.8068163552
100
AcDbArc
 50
349.2706340045
 51
10.7293659955
  0
ARC
  5
262
100
AcDbEntity
  8
GU_BKS_BL0
100
AcDbCircle
 62
2
  6
CONTINUOUS
 10
34.4529568206
 20
17.1653898521
 40
4.55
100
AcDbArc
 50
247.2438347843
 51
266.8254700933
  0
ARC
  5
263
100
AcDbEntity
  8
GU_BKS_BL0
100
AcDbCircle
 62
2
  6
CONTINUOUS
 10
24.0545604594
 20
25.7791929856
 40
4.49999829
100
AcDbArc
 50
35.8545159817
 51
11.4705154501
  0
ARC
  5
264
100
AcDbEntity
  8
GU_BKS_BL0
100
AcDbCircle
 62
2
  6
CONTINUOUS
 10
33.5318295853
 20
24.4155571401
 40
3.1704533407
100
AcDbArc
 50
180.0
 51
360.0
  0
ARC
  5
265
100
AcDbEntity
  8
GU_BKS_BL0
100
AcDbCircle
 62
2
  6
CONTINUOUS
 10
33.8694836753
 20
13.2134166796
 40
2.9575
100
AcDbArc
 50
48.451846615
 51
100.9424988997
  0
ARC
  5
266
100
AcDbEntity
  8
GU_BKS_BL0
100
AcDbCircle
 62
2
  6
CONTINUOUS
 10
33.6874836753
 20
13.2134166796
 40
2.9575
100
AcDbArc
 50
226.2472071
 51
301.9527464003
  0
ARC
  5
267
100
AcDbEntity
  8
GU_BKS_BL0
100
AcDbCircle
 62
2
  6
CONTINUOUS
 10
24.0545604594
 20
25.7791929856
 40
2.2840900411
100
AcDbArc
 50
35.2282226131
 51
336.934010569
  0
ARC
  5
268
100
AcDbEntity
  8
GU_BKS_BL0
100
AcDbCircle
 62
2
  6
CONTINUOUS
 10
33.7768570136
 20
13.4409166799
 40
2.0566361364
100
AcDbArc
 50
229.5190554785
 51
285.5050441823
  0
ARC
  5
269
100
AcDbEntity
  8
GU_BKS_BL0
100
AcDbCircle
 62
2
  6
CONTINUOUS
 10
33.6319667021
 20
14.4419166796
 40
1.70625
100
AcDbArc
 50
100.9424988902
 51
179.9999999968
  0
ARC
  5
26A
100
AcDbEntity
  8
GU_BKS_BL0
100
AcDbCircle
 62
2
  6
CONTINUOUS
 10
24.2446070136
 20
11.9621666799
 40
1.638
100
AcDbArc
 50
270.0
 51
52.7307871646
  0
ARC
  5
26B
100
AcDbEntity
  8
GU_BKS_BL0
100
AcDbCircle
 62
2
  6
CONTINUOUS
 10
24.2150320136
 20
14.4874166799
 40
1.5925
100
AcDbArc
 50
309.898835778
 51
90.0
  0
ARC
  5
26C
100
AcDbEntity
  8
GU_BKS_BL0
100
AcDbCircle
 62
2
  6
CONTINUOUS
 10
33.9472544226
 20
13.5774166796
 40
1.5015
100
AcDbArc
 50
44.071756165
 51
108.1948723417
  0
ARC
  5
26D
100
AcDbEntity
  8
GU_BKS_BL0
100
AcDbCircle
 62
2
  6
CONTINUOUS
 10
34.4821070136
 20
11.9394166794
 40
1.456
100
AcDbArc
 50
301.9527464052
 51
360.0
  0
ARC
  5
26E
100
AcDbEntity
  8
GU_BKS_BL0
100
AcDbCircle
 62
2
  6
CONTINUOUS
 10
34.4853915408
 20
12.2579166799
 40
1.4527154728
100
AcDbArc
 50
0.0
 51
82.9334763962
  0
ARC
  5
26F
100
AcDbEntity
  8
GU_BKS_BL0
100
AcDbCircle
 62
2
  6
CONTINUOUS
 10
33.1769667021
 20
14.1234166799
 40
1.25125
100
AcDbArc
 50
180.0
 51
247.243834782
  0
ARC
  5
270
100
AcDbEntity
  8
GU_BKS_BL0
100
AcDbCircle
 62
2
  6
CONTINUOUS
 10
33.5318295853
 20
24.4155571401
 40
0.9545450918
100
AcDbArc
 50
180.0
 51
360.0
  0
ARC
  5
271
100
AcDbEntity
  8
GU_BKS_BL0
100
AcDbCircle
 62
2
  6
CONTINUOUS
 10
21.2732866023
 20
10.0284166799
 40
0.91
100
AcDbArc
 50
202.5
 51
270.0
  0
ARC
  5
272
100
AcDbEntity
  8
GU_BKS_BL0
100
AcDbCircle
 62
2
  6
CONTINUOUS
 10
35.9974274249
 20
10.0284166799
 40
0.91
100
AcDbArc
 50
270.0
 51
337.5
  0
ARC
  5
273
100
AcDbEntity
  8
GU_BKS_BL0
100
AcDbCircle
 62
2
  6
CONTINUOUS
 10
37.9628570136
 20
14.7733834488
 40
0.91
100
AcDbArc
 50
337.500000009
 51
59.5907609348
  0
ARC
  5
274
100
AcDbEntity
  8
GU_BKS_BL0
100
AcDbCircle
 62
2
  6
CONTINUOUS
 10
19.3078570136
 20
14.7733834488
 40
0.91
100
AcDbArc
 50
120.4092390532
 51
202.5
  0
ARC
  5
275
100
AcDbEntity
  8
GU_BKS_BL0
100
AcDbCircle
 62
2
  6
CONTINUOUS
 10
24.1397876997
 20
25.7791929856
 40
0.8948860236
100
AcDbArc
 50
90.0
 51
270.0
  0
ARC
  5
276
100
AcDbEntity
  8
GU_BKS_BL0
100
AcDbCircle
 62
2
  6
CONTINUOUS
 10
24.0626070136
 20
12.0759166799
 40
0.6828790613
100
AcDbArc
 50
268.090847567
 51
91.909152433
  0
ARC
  5
277
100
AcDbEntity
  8
GU_BKS_BL0
100
AcDbCircle
 62
2
  6
CONTINUOUS
 10
24.0398570136
 20
14.3964166799
 40
0.637
100
AcDbArc
 50
270.0000000001
 51
89.9999999999
  0
ARC
  5
278
100
AcDbEntity
  8
GU_BKS_BL0
100
AcDbCircle
 62
2
  6
CONTINUOUS
 10
34.1681570136
 20
12.0304166799
 40
0.592865
100
AcDbArc
 50
285.5050441988
 51
86.8254700827
  0
ARC
  5
279
100
AcDbEntity
  8
GU_BKS_BL0
100
AcDbCircle
 62
2
  6
CONTINUOUS
 10
33.6631070136
 20
14.4419166796
 40
0.5915
100
AcDbArc
 50
108.1948723388
 51
260.6058710483
  0
ENDBLK
  5
27A
100
AcDbEntity
  8
0
  6
BYBLOCK
 62
0
100
AcDbBlockEnd
  0
BLOCK
  5
27B
100
AcDbEntity
  8
C00746000_BL1
100
AcDbBlockBegin
  2
C00746000_BL1
 70
64
 10
109.4975483937
 20
70.0263627245
  3
C00746000_BL1
  1

  0
LINE
  5
27C
100
AcDbEntity
  8
C00746000_BL1
100
AcDbLine
 62
7
  6
CONTINUOUS
 10
104.4975483937
 20
74.1763627245
 11
104.4975483937
 21
65.8763627245
  0
LINE
  5
27D
100
AcDbEntity
  8
C00746000_BL1
100
AcDbLine
 62
7
  6
CONTINUOUS
 10
114.4975483937
 20
74.1763627245
 11
114.4975483937
 21
65.8763627245
  0
LINE
  5
27E
100
AcDbEntity
  8
C00746000_BL1
100
AcDbLine
 62
7
  6
CONTINUOUS
 10
114.3951549023
 20
74.1763627245
 11
104.599941885
 21
74.1763627245
  0
ENDBLK
  5
27F
100
AcDbEntity
  8
0
  6
BYBLOCK
 62
0
100
AcDbBlockEnd
  0
BLOCK
  5
280
100
AcDbEntity
  8
X00906032_BL2
100
AcDbBlockBegin
  2
X00906032_BL2
 70
64
 10
109.4975483937
 20
166.3599906995
  3
X00906032_BL2
  1

  0
LINE
  5
281
100
AcDbEntity
  8
X00906032_BL2
100
AcDbLine
 62
7
  6
CONTINUOUS
 10
104.4975483937
 20
232.783553554
 11
104.4975483937
 21
183.875725553
  0
LINE
  5
282
100
AcDbEntity
  8
X00906032_BL2
100
AcDbLine
 62
7
  6
CONTINUOUS
 10
114.4975483937
 20
232.783553554
 11
114.4975483937
 21
183.875725553
  0
LINE
  5
283
100
AcDbEntity
  8
X00906032_BL2
100
AcDbLine
 62
7
  6
CONTINUOUS
 10
114.4975483937
 20
232.783553554
 11
104.4975483937
 21
232.783553554
  0
LINE
  5
284
100
AcDbEntity
  8
X00906032_BL2
100
AcDbLine
 62
7
  6
CONTINUOUS
 10
114.4975483937
 20
99.9364278451
 11
104.4975483937
 21
99.9364278451
  0
LINE
  5
285
100
AcDbEntity
  8
X00906032_BL2
100
AcDbLine
 62
7
  6
CONTINUOUS
 10
114.1960114976
 20
109.9364278451
 11
104.7990852897
 21
109.9364278451
  0
LINE
  5
286
100
AcDbEntity
  8
X00906032_BL2
100
AcDbLine
 62
7
  6
CONTINUOUS
 10
114.1960114976
 20
112.9364278451
 11
104.7990852897
 21
112.9364278451
  0
LINE
  5
287
100
AcDbEntity
  8
X00906032_BL2
100
AcDbLine
 62
7
  6
CONTINUOUS
 10
104.4975483937
 20
181.3276442493
 11
104.4975483937
 21
99.9364278451
  0
LINE
  5
288
100
AcDbEntity
  8
X00906032_BL2
100
AcDbLine
 62
7
  6
CONTINUOUS
 10
104.7990852897
 20
133.9364278451
 11
104.7990852897
 21
130.9364278451
  0
LINE
  5
289
100
AcDbEntity
  8
X00906032_BL2
100
AcDbLine
 62
7
  6
CONTINUOUS
 10
104.7990852897
 20
112.9364278451
 11
104.7990852897
 21
109.9364278451
  0
LINE
  5
28A
100
AcDbEntity
  8
X00906032_BL2
100
AcDbLine
 62
7
  6
CONTINUOUS
 10
105.4568701243
 20
133.9364278451
 11
105.4568701243
 21
130.9364278451
  0
LINE
  5
28B
100
AcDbEntity
  8
X00906032_BL2
100
AcDbLine
 62
7
  6
CONTINUOUS
 10
105.4568701243
 20
112.9364278451
 11
105.4568701243
 21
109.9364278451
  0
LINE
  5
28C
100
AcDbEntity
  8
X00906032_BL2
100
AcDbLine
 62
7
  6
CONTINUOUS
 10
114.1960114976
 20
130.9364278451
 11
104.7990852897
 21
130.9364278451
  0
LINE
  5
28D
100
AcDbEntity
  8
X00906032_BL2
100
AcDbLine
 62
7
  6
CONTINUOUS
 10
114.1960114976
 20
133.9364278451
 11
104.7990852897
 21
133.9364278451
  0
LINE
  5
28E
100
AcDbEntity
  8
X00906032_BL2
100
AcDbLine
 62
7
  6
CONTINUOUS
 10
113.538226663
 20
133.9364278451
 11
113.538226663
 21
130.9364278451
  0
LINE
  5
28F
100
AcDbEntity
  8
X00906032_BL2
100
AcDbLine
 62
7
  6
CONTINUOUS
 10
113.538226663
 20
112.9364278451
 11
113.538226663
 21
109.9364278451
  0
LINE
  5
290
100
AcDbEntity
  8
X00906032_BL2
100
AcDbLine
 62
7
  6
CONTINUOUS
 10
114.1960114976
 20
133.9364278451
 11
114.1960114976
 21
130.9364278451
  0
LINE
  5
291
100
AcDbEntity
  8
X00906032_BL2
100
AcDbLine
 62
7
  6
CONTINUOUS
 10
114.1960114976
 20
112.9364278451
 11
114.1960114976
 21
109.9364278451
  0
LINE
  5
292
100
AcDbEntity
  8
X00906032_BL2
100
AcDbLine
 62
7
  6
CONTINUOUS
 10
114.4975483937
 20
181.3276442493
 11
114.4975483937
 21
99.9364278451
  0
ENDBLK
  5
293
100
AcDbEntity
  8
0
  6
BYBLOCK
 62
0
100
AcDbBlockEnd
  0
BLOCK
  5
294
100
AcDbEntity
  8
C00746000_BL3
100
AcDbBlockBegin
  2
C00746000_BL3
 70
64
 10
109.4975483937
 20
76.7172547162
  3
C00746000_BL3
  1

  0
LINE
  5
295
100
AcDbEntity
  8
C00746000_BL3
100
AcDbLine
 62
7
  6
CONTINUOUS
 10
104.4975483937
 20
79.258146708
 11
104.4975483937
 21
74.1763627245
  0
LINE
  5
296
100
AcDbEntity
  8
C00746000_BL3
100
AcDbLine
 62
7
  6
CONTINUOUS
 10
114.4975483937
 20
79.258146708
 11
114.4975483937
 21
74.1763627245
  0
LINE
  5
297
100
AcDbEntity
  8
C00746000_BL3
100
AcDbLine
 62
7
  6
CONTINUOUS
 10
114.3951549023
 20
74.1763627245
 11
104.599941885
 21
74.1763627245
  0
ENDBLK
  5
298
100
AcDbEntity
  8
0
  6
BYBLOCK
 62
0
100
AcDbBlockEnd
  0
BLOCK
  5
299
100
AcDbEntity
  8
C00959000_BL4
100
AcDbBlockBegin
  2
C00959000_BL4
 70
64
 10
109.7746628991
 20
75.0563952848
  3
C00959000_BL4
  1

  0
LINE
  5
29A
100
AcDbEntity
  8
C00959000_BL4
100
AcDbLine
 62
7
  6
CONTINUOUS
 10
106.0975483937
 20
99.9364278451
 11
106.0975483937
 21
97.4992866188
  0
LINE
  5
29B
100
AcDbEntity
  8
C00959000_BL4
100
AcDbLine
 62
7
  6
CONTINUOUS
 10
106.0975483937
 20
96.9861688393
 11
106.0975483937
 21
95.4738175907
  0
LINE
  5
29C
100
AcDbEntity
  8
C00959000_BL4
100
AcDbLine
 62
7
  6
CONTINUOUS
 10
106.0975483937
 20
94.9604911618
 11
106.0975483937
 21
93.4268493845
  0
LINE
  5
29D
100
AcDbEntity
  8
C00959000_BL4
100
AcDbLine
 62
7
  6
CONTINUOUS
 10
106.0975483937
 20
92.9127775773
 11
106.0975483937
 21
91.358511752
  0
LINE
  5
29E
100
AcDbEntity
  8
C00959000_BL4
100
AcDbLine
 62
7
  6
CONTINUOUS
 10
106.0975483937
 20
90.844471186
 11
106.0975483937
 21
89.2687951389
  0
LINE
  5
29F
100
AcDbEntity
  8
C00959000_BL4
100
AcDbLine
 62
7
  6
CONTINUOUS
 10
106.0975483937
 20
88.7542969211
 11
106.0975483937
 21
87.1574109681
  0
LINE
  5
2A0
100
AcDbEntity
  8
C00959000_BL4
100
AcDbLine
 62
7
  6
CONTINUOUS
 10
106.0975483937
 20
86.6424592282
 11
106.0975483937
 21
85.0242968495
  0
LINE
  5
2A1
100
AcDbEntity
  8
C00959000_BL4
100
AcDbLine
 62
7
  6
CONTINUOUS
 10
106.0975483937
 20
84.5088220651
 11
106.0975483937
 21
82.8705020976
  0
LINE
  5
2A2
100
AcDbEntity
  8
C00959000_BL4
100
AcDbLine
 62
7
  6
CONTINUOUS
 10
112.8975483937
 20
99.9364278451
 11
112.8975483937
 21
98.2804475813
  0
LINE
  5
2A3
100
AcDbEntity
  8
C00959000_BL4
100
AcDbLine
 62
7
  6
CONTINUOUS
 10
112.8975483937
 20
97.7677983041
 11
112.8975483937
 21
96.2631369999
  0
LINE
  5
2A4
100
AcDbEntity
  8
C00959000_BL4
100
AcDbLine
 62
7
  6
CONTINUOUS
 10
112.8975483937
 20
95.7496666635
 11
112.8975483937
 21
94.2247145439
  0
LINE
  5
2A5
100
AcDbEntity
  8
C00959000_BL4
100
AcDbLine
 62
7
  6
CONTINUOUS
 10
112.8975483937
 20
93.7113418282
 11
112.8975483937
 21
92.1652750709
  0
LINE
  5
2A6
100
AcDbEntity
  8
C00959000_BL4
100
AcDbLine
 62
7
  6
CONTINUOUS
 10
112.8975483937
 20
91.6508858126
 11
112.8975483937
 21
90.0833843547
  0
LINE
  5
2A7
100
AcDbEntity
  8
C00959000_BL4
100
AcDbLine
 62
7
  6
CONTINUOUS
 10
112.8975483937
 20
89.5689865123
 11
112.8975483937
 21
87.9809848762
  0
LINE
  5
2A8
100
AcDbEntity
  8
C00959000_BL4
100
AcDbLine
 62
7
  6
CONTINUOUS
 10
112.8975483937
 20
87.4660262359
 11
112.8975483937
 21
85.8560133375
  0
LINE
  5
2A9
100
AcDbEntity
  8
C00959000_BL4
100
AcDbLine
 62
7
  6
CONTINUOUS
 10
112.8975483937
 20
85.3411995187
 11
112.8975483937
 21
83.7106579771
  0
LINE
  5
2AA
100
AcDbEntity
  8
C00959000_BL4
100
AcDbLine
 62
7
  6
CONTINUOUS
 10
112.8975483937
 20
83.1953498514
 11
112.8975483937
 21
82.7970551163
  0
LINE
  5
2AB
100
AcDbEntity
  8
C00959000_BL4
100
AcDbLine
 62
7
  6
CONTINUOUS
 10
110.5541727207
 20
50.1763627245
 11
108.4409240666
 21
50.1763627245
  0
LINE
  5
2AC
100
AcDbEntity
  8
C00959000_BL4
100
AcDbLine
 62
7
  6
CONTINUOUS
 10
111.9975483937
 20
52.6763627245
 11
106.9975483937
 21
52.6763627245
  0
LINE
  5
2AD
100
AcDbEntity
  8
C00959000_BL4
100
AcDbLine
 62
7
  6
CONTINUOUS
 10
108.4409240666
 20
50.1763627245
 11
106.9975483937
 21
52.6763627245
  0
LINE
  5
2AE
100
AcDbEntity
  8
C00959000_BL4
100
AcDbLine
 62
7
  6
CONTINUOUS
 10
111.9975483937
 20
58.6758289418
 11
106.9975483937
 21
58.6758289418
  0
LINE
  5
2AF
100
AcDbEntity
  8
C00959000_BL4
100
AcDbLine
 62
7
  6
CONTINUOUS
 10
106.097256012
 20
62.6763627245
 11
106.097256012
 21
61.1763627245
  0
LINE
  5
2B0
100
AcDbEntity
  8
C00959000_BL4
100
AcDbLine
 62
7
  6
CONTINUOUS
 10
112.8978407753
 20
61.1763627245
 11
106.097256012
 21
61.1763627245
  0
LINE
  5
2B1
100
AcDbEntity
  8
C00959000_BL4
100
AcDbLine
 62
7
  6
CONTINUOUS
 10
106.9975483937
 20
58.6758289418
 11
106.9975483937
 21
52.6763627245
  0
LINE
  5
2B2
100
AcDbEntity
  8
C00959000_BL4
100
AcDbLine
 62
7
  6
CONTINUOUS
 10
107.0975483937
 20
63.1763627245
 11
107.0975483937
 21
62.6763627245
  0
LINE
  5
2B3
100
AcDbEntity
  8
C00959000_BL4
100
AcDbLine
 62
7
  6
CONTINUOUS
 10
112.8978407753
 20
62.6763627245
 11
106.097256012
 21
62.6763627245
  0
LINE
  5
2B4
100
AcDbEntity
  8
C00959000_BL4
100
AcDbLine
 62
7
  6
CONTINUOUS
 10
111.8975483937
 20
63.1763627245
 11
111.8975483937
 21
62.6763627245
  0
LINE
  5
2B5
100
AcDbEntity
  8
C00959000_BL4
100
AcDbLine
 62
7
  6
CONTINUOUS
 10
111.9975483937
 20
58.6758289418
 11
111.9975483937
 21
52.6763627245
  0
LINE
  5
2B6
100
AcDbEntity
  8
C00959000_BL4
100
AcDbLine
 62
7
  6
CONTINUOUS
 10
112.8978407753
 20
62.6763627245
 11
112.8978407753
 21
61.1763627245
  0
LINE
  5
2B7
100
AcDbEntity
  8
C00959000_BL4
100
AcDbLine
 62
7
  6
CONTINUOUS
 10
111.9975483937
 20
52.6763627245
 11
110.5541727207
 21
50.1763627245
  0
ARC
  5
2B8
100
AcDbEntity
  8
C00959000_BL4
100
AcDbCircle
 62
7
  6
CONTINUOUS
 10
113.4520697861
 20
60.1905459183
 40
2.1
100
AcDbArc
 50
152.0022704258
 51
226.1614023841
  0
ARC
  5
2B9
100
AcDbEntity
  8
C00959000_BL4
100
AcDbCircle
 62
7
  6
CONTINUOUS
 10
105.5430270012
 20
60.1905459183
 40
2.1
100
AcDbArc
 50
313.8385976159
 51
27.9977295742
  0
ENDBLK
  5
2BA
100
AcDbEntity
  8
0
  6
BYBLOCK
 62
0
100
AcDbBlockEnd
  0
BLOCK
  5
2BB
100
AcDbEntity
  8
C98112000_BL5
100
AcDbBlockBegin
  2
C98112000_BL5
 70
64
 10
109.4975483937
 20
63.5263627245
  3
C98112000_BL5
  1

  0
LINE
  5
2BC
100
AcDbEntity
  8
C98112000_BL5
100
AcDbLine
 62
7
  6
CONTINUOUS
 10
105.4975483937
 20
63.8763627245
 11
105.4975483937
 21
63.1763627245
  0
LINE
  5
2BD
100
AcDbEntity
  8
C98112000_BL5
100
AcDbLine
 62
7
  6
CONTINUOUS
 10
113.495826353
 20
63.1763627245
 11
105.4989674308
 21
63.1763627245
  0
LINE
  5
2BE
100
AcDbEntity
  8
C98112000_BL5
100
AcDbLine
 62
7
  6
CONTINUOUS
 10
113.4975483937
 20
63.8763627245
 11
113.4975483937
 21
63.1763627245
  0
ENDBLK
  5
2BF
100
AcDbEntity
  8
0
  6
BYBLOCK
 62
0
100
AcDbBlockEnd
  0
BLOCK
  5
2C0
100
AcDbEntity
  8
C00717000_BL6
100
AcDbBlockBegin
  2
C00717000_BL6
 70
64
 10
109.4975483937
 20
64.8763627245
  3
C00717000_BL6
  1

  0
LINE
  5
2C1
100
AcDbEntity
  8
C00717000_BL6
100
AcDbLine
 62
7
  6
CONTINUOUS
 10
103.9975483937
 20
65.8763627245
 11
103.9975483937
 21
64.8763627245
  0
LINE
  5
2C2
100
AcDbEntity
  8
C00717000_BL6
100
AcDbLine
 62
7
  6
CONTINUOUS
 10
105.2475483937
 20
64.8763627245
 11
105.2475483937
 21
63.8763627245
  0
LINE
  5
2C3
100
AcDbEntity
  8
C00717000_BL6
100
AcDbLine
 62
7
  6
CONTINUOUS
 10
113.7475483937
 20
63.8763627245
 11
105.2475483937
 21
63.8763627245
  0
LINE
  5
2C4
100
AcDbEntity
  8
C00717000_BL6
100
AcDbLine
 62
7
  6
CONTINUOUS
 10
114.9975483937
 20
64.8763627245
 11
103.9975483937
 21
64.8763627245
  0
LINE
  5
2C5
100
AcDbEntity
  8
C00717000_BL6
100
AcDbLine
 62
7
  6
CONTINUOUS
 10
114.9975483937
 20
65.8763627245
 11
103.9975483937
 21
65.8763627245
  0
LINE
  5
2C6
100
AcDbEntity
  8
C00717000_BL6
100
AcDbLine
 62
7
  6
CONTINUOUS
 10
113.7475483937
 20
64.8763627245
 11
113.7475483937
 21
63.8763627245
  0
LINE
  5
2C7
100
AcDbEntity
  8
C00717000_BL6
100
AcDbLine
 62
7
  6
CONTINUOUS
 10
114.9975483937
 20
65.8763627245
 11
114.9975483937
 21
64.8763627245
  0
ENDBLK
  5
2C8
100
AcDbEntity
  8
0
  6
BYBLOCK
 62
0
100
AcDbBlockEnd
  0
BLOCK
  5
2C9
100
AcDbEntity
  8
C98109000_BL7
100
AcDbBlockBegin
  2
C98109000_BL7
 70
64
 10
109.497719115
 20
90.6499940115
  3
C98109000_BL7
  1

  0
LWPOLYLINE
  5
2CA
100
AcDbEntity
  8
C98109000_BL7
100
AcDbPolyline
 62
7
  6
CONTINUOUS
 90
7
 70
0
 10
106.5837169753
 20
82.9643897607
 10
106.4203492162
 20
82.9374635156
 10
106.2756658062
 20
82.9106047566
 10
106.1493833772
 20
82.8835961705
 10
106.0410023027
 20
82.8562179485
 10
105.9471849732
 20
82.8272976333
 10
105.8702461208
 20
82.7970551163
  0
LWPOLYLINE
  5
2CB
100
AcDbEntity
  8
C98109000_BL7
100
AcDbPolyline
 62
7
  6
CONTINUOUS
 90
8
 70
0
 10
112.3905184621
 20
83.098257227
 10
112.5622759904
 20
83.126204264
 10
112.7120605418
 20
83.1537875044
 10
112.8417216761
 20
83.1813380178
 10
112.9521467017
 20
83.2090533689
 10
113.0479497755
 20
83.238427248
 10
113.1306752082
 20
83.2709745432
 10
113.2110320886
 20
83.3148837034
  0
LWPOLYLINE
  5
2CC
100
AcDbEntity
  8
C98109000_BL7
100
AcDbPolyline
 62
7
  6
CONTINUOUS
 90
8
 70
0
 10
112.3482068192
 20
85.2391502583
 10
112.5256047598
 20
85.2670954138
 10
112.6818381355
 20
85.2947038561
 10
112.8182564318
 20
85.3223095749
 10
112.9353289021
 20
85.3502000739
 10
113.0360327843
 20
85.3795817006
 10
113.1209350793
 20
85.4116255252
 10
113.2025784899
 20
85.4547560758
  0
LWPOLYLINE
  5
2CD
100
AcDbEntity
  8
C98109000_BL7
100
AcDbPolyline
 62
7
  6
CONTINUOUS
 90
6
 70
0
 10
106.6726147175
 20
84.626450234
 10
106.8412978015
 20
84.6510128985
 10
107.0287188484
 20
84.6761457197
 10
107.2338173674
 20
84.701761105
 10
107.4572502346
 20
84.72800238
 10
107.6991253856
 20
84.7549394412
  0
LWPOLYLINE
  5
2CE
100
AcDbEntity
  8
C98109000_BL7
100
AcDbPolyline
 62
7
  6
CONTINUOUS
 90
6
 70
0
 10
112.3149798287
 20
85.7389730903
 10
112.1510829616
 20
85.7151527094
 10
111.9705227167
 20
85.6908595867
 10
111.7734998704
 20
85.6661037384
 10
111.5601265378
 20
85.6408747204
 10
111.3305846566
 20
85.6151628767
  0
LWPOLYLINE
  5
2CF
100
AcDbEntity
  8
C98109000_BL7
100
AcDbPolyline
 62
7
  6
CONTINUOUS
 90
6
 70
0
 10
112.2946494786
 20
83.5885879015
 10
112.1131644133
 20
83.5624521463
 10
111.9109556492
 20
83.5356369147
 10
111.6882104441
 20
83.5081265769
 10
111.4449343597
 20
83.4798688957
 10
111.1811756656
 20
83.4508047991
  0
LWPOLYLINE
  5
2D0
100
AcDbEntity
  8
C98109000_BL7
100
AcDbPolyline
 62
7
  6
CONTINUOUS
 90
6
 70
0
 10
107.621252879
 20
85.2492210687
 10
107.369854675
 20
85.2209859697
 10
107.1350118085
 20
85.1930526272
 10
106.9182202874
 20
85.1654638155
 10
106.7204668303
 20
85.1382222629
 10
106.5427130845
 20
85.1113511781
  0
LWPOLYLINE
  5
2D1
100
AcDbEntity
  8
C98109000_BL7
100
AcDbPolyline
 62
7
  6
CONTINUOUS
 90
6
 70
0
 10
107.69037335
 20
83.1049767931
 10
107.4301352267
 20
83.075778367
 10
107.1893024683
 20
83.0471863624
 10
106.9679818788
 20
83.0191409697
 10
106.7661126532
 20
82.9915647762
 10
106.5837169753
 20
82.9643897607
  0
LWPOLYLINE
  5
2D2
100
AcDbEntity
  8
C98109000_BL7
100
AcDbPolyline
 62
7
  6
CONTINUOUS
 90
6
 70
0
 10
111.20150644
 20
82.9502674463
 10
111.4822424852
 20
82.9811351774
 10
111.7422493268
 20
83.0113528979
 10
111.9804664101
 20
83.040907446
 10
112.1966466623
 20
83.0698605006
 10
112.3905184621
 20
83.098257227
  0
LWPOLYLINE
  5
2D3
100
AcDbEntity
  8
C98109000_BL7
100
AcDbPolyline
 62
7
  6
CONTINUOUS
 90
6
 70
0
 10
111.146734824
 20
85.0927870033
 10
111.4280063784
 20
85.123055359
 10
111.6893781394
 20
85.1528095648
 10
111.9300524257
 20
85.1820581994
 10
112.1497435527
 20
85.210830384
 10
112.3482068192
 20
85.2391502583
  0
LINE
  5
2D4
100
AcDbEntity
  8
C98109000_BL7
100
AcDbLine
 62
7
  6
CONTINUOUS
 10
108.1668630924
 20
85.3064385617
 11
107.621252879
 21
85.2492210687
  0
LINE
  5
2D5
100
AcDbEntity
  8
C98109000_BL7
100
AcDbLine
 62
7
  6
CONTINUOUS
 10
111.3305846566
 20
85.6151628767
 11
110.8249773636
 21
85.5622069176
  0
LINE
  5
2D6
100
AcDbEntity
  8
C98109000_BL7
100
AcDbLine
 62
7
  6
CONTINUOUS
 10
108.2681261172
 20
83.1654265828
 11
107.69037335
 21
83.1049767931
  0
LINE
  5
2D7
100
AcDbEntity
  8
C98109000_BL7
100
AcDbLine
 62
7
  6
CONTINUOUS
 10
107.6991253856
 20
84.7549394412
 11
108.2430018956
 21
84.8116605173
  0
LINE
  5
2D8
100
AcDbEntity
  8
C98109000_BL7
100
AcDbLine
 62
7
  6
CONTINUOUS
 10
111.1811756656
 20
83.4508047991
 11
110.5933743645
 21
83.3900417328
  0
LINE
  5
2D9
100
AcDbEntity
  8
C98109000_BL7
100
AcDbLine
 62
7
  6
CONTINUOUS
 10
110.582979948
 20
82.8865841847
 11
111.20150644
 21
82.9502674463
  0
LINE
  5
2DA
100
AcDbEntity
  8
C98109000_BL7
100
AcDbLine
 62
7
  6
CONTINUOUS
 10
110.5312608777
 20
85.0306723335
 11
111.146734824
 21
85.0927870033
  0
LINE
  5
2DB
100
AcDbEntity
  8
C98109000_BL7
100
AcDbLine
 62
7
  6
CONTINUOUS
 10
110.8249773636
 20
85.5622069176
 11
109.9707205632
 21
85.4791156487
  0
LINE
  5
2DC
100
AcDbEntity
  8
C98109000_BL7
100
AcDbLine
 62
7
  6
CONTINUOUS
 10
109.0583388532
 20
85.3931546835
 11
108.1668630924
 21
85.3064385617
  0
LINE
  5
2DD
100
AcDbEntity
  8
C98109000_BL7
100
AcDbLine
 62
7
  6
CONTINUOUS
 10
109.6555953423
 20
82.7970551163
 11
110.582979948
 21
82.8865841847
  0
LINE
  5
2DE
100
AcDbEntity
  8
C98109000_BL7
100
AcDbLine
 62
7
  6
CONTINUOUS
 10
110.5933743645
 20
83.3900417328
 11
108.2681261172
 21
83.1654265828
  0
LWPOLYLINE
  5
2DF
100
AcDbEntity
  8
C98109000_BL7
100
AcDbPolyline
 62
7
  6
CONTINUOUS
 90
3
 70
0
 10
108.2430018956
 20
84.8116605173
 10
109.1909211319
 20
84.9034681613
 10
110.5312608777
 20
85.0306723335
  0
LINE
  5
2E0
100
AcDbEntity
  8
C98109000_BL7
100
AcDbLine
 62
7
  6
CONTINUOUS
 10
109.9707205632
 20
85.4791156487
 11
109.0583388532
 21
85.3931546835
  0
LWPOLYLINE
  5
2E1
100
AcDbEntity
  8
C98109000_BL7
100
AcDbPolyline
 62
7
  6
CONTINUOUS
 90
8
 70
0
 10
106.5427130845
 20
85.1113511781
 10
106.3849526862
 20
85.0847541292
 10
106.2465215485
 20
85.0583028099
 10
106.1267479708
 20
85.0318923334
 10
106.0254167523
 20
85.0055337451
 10
105.937685239
 20
84.9777838284
 10
105.862465299
 20
84.9476188326
 10
105.7880687354
 20
84.9071279418
  0
LWPOLYLINE
  5
2E2
100
AcDbEntity
  8
C98109000_BL7
100
AcDbPolyline
 62
7
  6
CONTINUOUS
 90
8
 70
0
 10
112.4069928624
 20
87.3734261071
 10
112.5767364593
 20
87.4007515302
 10
112.7254485817
 20
87.427853343
 10
112.8534248957
 20
87.4549122213
 10
112.9610477937
 20
87.4820207353
 10
113.0532161703
 20
87.510586105
 10
113.131326165
 20
87.5417161537
 10
113.2080420293
 20
87.5839503465
  0
LWPOLYLINE
  5
2E3
100
AcDbEntity
  8
C98109000_BL7
100
AcDbPolyline
 62
7
  6
CONTINUOUS
 90
8
 70
0
 10
106.6129927865
 20
87.2538475757
 10
106.4392826032
 20
87.2262221184
 10
106.2871308868
 20
87.1989269328
 10
106.1559797581
 20
87.1717728168
 10
106.045650478
 20
87.1446549762
 10
105.9515411463
 20
87.1162949969
 10
105.872396962
 20
87.0858190716
 10
105.7954288708
 20
87.0452973483
  0
LWPOLYLINE
  5
2E4
100
AcDbEntity
  8
C98109000_BL7
100
AcDbPolyline
 62
7
  6
CONTINUOUS
 90
6
 70
0
 10
112.3552664892
 20
87.8704652601
 10
112.1986630251
 20
87.8475203012
 10
112.0263380265
 20
87.8241817464
 10
111.8387228372
 20
87.8004591682
 10
111.6361687967
 20
87.7763428639
 10
111.4190902496
 20
87.7518235539
  0
LWPOLYLINE
  5
2E5
100
AcDbEntity
  8
C98109000_BL7
100
AcDbPolyline
 62
7
  6
CONTINUOUS
 90
6
 70
0
 10
106.6663816082
 20
86.7570702565
 10
106.8292205031
 20
86.7806440029
 10
107.0085799879
 20
86.8046615875
 10
107.2038524869
 20
86.8290842988
 10
107.4144610816
 20
86.8538945754
 10
107.6398069161
 20
86.879084797
  0
LWPOLYLINE
  5
2E6
100
AcDbEntity
  8
C98109000_BL7
100
AcDbPolyline
 62
7
  6
CONTINUOUS
 90
6
 70
0
 10
111.2670390554
 20
87.2326279248
 10
111.5289125638
 20
87.2611702928
 10
111.7758004188
 20
87.2896024835
 10
112.0055772225
 20
87.3178388137
 10
112.2165223353
 20
87.345812282
 10
112.4069928624
 20
87.3734261071
  0
LWPOLYLINE
  5
2E7
100
AcDbEntity
  8
C98109000_BL7
100
AcDbPolyline
 62
7
  6
CONTINUOUS
 90
6
 70
0
 10
111.2971419172
 20
89.3413069642
 10
111.5561588932
 20
89.3694504974
 10
111.7991280404
 20
89.3973791432
 10
112.0240285364
 20
89.4249787012
 10
112.229925659
 20
89.4522346438
 10
112.4156547995
 20
89.4790735817
  0
LWPOLYLINE
  5
2E8
100
AcDbEntity
  8
C98109000_BL7
100
AcDbPolyline
 62
7
  6
CONTINUOUS
 90
6
 70
0
 10
107.7777344659
 20
87.3965943735
 10
107.5106238719
 20
87.3676739025
 10
107.2584932739
 20
87.3388388426
 10
107.0236201022
 20
87.3101921108
 10
106.8078740781
 20
87.2818224052
 10
106.6129927865
 20
87.2538475757
  0
LINE
  5
2E9
100
AcDbEntity
  8
C98109000_BL7
100
AcDbLine
 62
7
  6
CONTINUOUS
 10
111.4190902496
 20
87.7518235539
 11
110.9430105214
 21
87.701501032
  0
LINE
  5
2EA
100
AcDbEntity
  8
C98109000_BL7
100
AcDbLine
 62
7
  6
CONTINUOUS
 10
107.6398069161
 20
86.879084797
 11
108.1304204646
 21
86.9304334755
  0
LINE
  5
2EB
100
AcDbEntity
  8
C98109000_BL7
100
AcDbLine
 62
7
  6
CONTINUOUS
 10
107.6501124457
 20
88.9892751261
 11
108.1435221876
 21
89.0403368106
  0
LINE
  5
2EC
100
AcDbEntity
  8
C98109000_BL7
100
AcDbLine
 62
7
  6
CONTINUOUS
 10
110.7079324537
 20
87.1755605387
 11
111.2670390554
 21
87.2326279248
  0
LINE
  5
2ED
100
AcDbEntity
  8
C98109000_BL7
100
AcDbLine
 62
7
  6
CONTINUOUS
 10
108.3463781315
 20
87.4542725584
 11
107.7777344659
 21
87.3965943735
  0
LINE
  5
2EE
100
AcDbEntity
  8
C98109000_BL7
100
AcDbLine
 62
7
  6
CONTINUOUS
 10
110.7398417458
 20
89.2847538534
 11
111.2971419172
 21
89.3413069642
  0
LINE
  5
2EF
100
AcDbEntity
  8
C98109000_BL7
100
AcDbLine
 62
7
  6
CONTINUOUS
 10
110.9430105214
 20
87.701501032
 11
110.4144702103
 21
87.6493145897
  0
LINE
  5
2F0
100
AcDbEntity
  8
C98109000_BL7
100
AcDbLine
 62
7
  6
CONTINUOUS
 10
108.1304204646
 20
86.9304334755
 11
108.6663765008
 21
86.982943793
  0
LINE
  5
2F1
100
AcDbEntity
  8
C98109000_BL7
100
AcDbLine
 62
7
  6
CONTINUOUS
 10
108.1435221876
 20
89.0403368106
 11
108.9669632251
 21
89.1192256226
  0
LINE
  5
2F2
100
AcDbEntity
  8
C98109000_BL7
100
AcDbLine
 62
7
  6
CONTINUOUS
 10
108.6663765008
 20
86.982943793
 11
110.7079324537
 21
87.1755605387
  0
LINE
  5
2F3
100
AcDbEntity
  8
C98109000_BL7
100
AcDbLine
 62
7
  6
CONTINUOUS
 10
110.4144702103
 20
87.6493145897
 11
108.3463781315
 21
87.4542725584
  0
LINE
  5
2F4
100
AcDbEntity
  8
C98109000_BL7
100
AcDbLine
 62
7
  6
CONTINUOUS
 10
108.9669632251
 20
89.1192256226
 11
110.7398417458
 21
89.2847538534
  0
LWPOLYLINE
  5
2F5
100
AcDbEntity
  8
C98109000_BL7
100
AcDbPolyline
 62
7
  6
CONTINUOUS
 90
11
 70
0
 10
106.5688661465
 20
89.3573157697
 10
106.4073553232
 20
89.3312472598
 10
106.2658923962
 20
89.3055713845
 10
106.1434902345
 20
89.2800706336
 10
106.0400822573
 20
89.2546912393
 10
105.9510051241
 20
89.2280291498
 10
105.8752268253
 20
89.1992220882
 10
105.8000732606
 20
89.1604495035
 10
105.7138575734
 20
89.0909921975
 10
105.6467484571
 20
88.9891373059
 10
105.6273105488
 20
88.8934112316
  0
LWPOLYLINE
  5
2F6
100
AcDbEntity
  8
C98109000_BL7
100
AcDbPolyline
 62
7
  6
CONTINUOUS
 90
11
 70
0
 10
112.4156547995
 20
89.4790735817
 10
112.5815504821
 20
89.5056185566
 10
112.7279229268
 20
89.5320216045
 10
112.8544870288
 20
89.5583529552
 10
112.960787405
 20
89.5846027298
 10
113.0516847011
 20
89.6122732872
 10
113.1287017541
 20
89.6424861491
 10
113.2048331608
 20
89.683802943
 10
113.2916113565
 20
89.7592244341
 10
113.353862384
 20
89.8671431438
 10
113.3661508092
 20
89.9430667794
  0
LWPOLYLINE
  5
2F7
100
AcDbEntity
  8
C98109000_BL7
100
AcDbPolyline
 62
7
  6
CONTINUOUS
 90
11
 70
0
 10
106.579718687
 20
91.4481666726
 10
106.4155577532
 20
91.4220793562
 10
106.2706597725
 20
91.3961169522
 10
106.1449842825
 20
91.3701347852
 10
106.0384570617
 20
91.3440328304
 10
105.9469143428
 20
91.3165917772
 10
105.8695578359
 20
91.2870048534
 10
105.7937027988
 20
91.2473531201
 10
105.707580431
 20
91.1765086197
 10
105.642173821
 20
91.0738971705
 10
105.6247083512
 20
90.9835500875
  0
LWPOLYLINE
  5
2F8
100
AcDbEntity
  8
C98109000_BL7
100
AcDbPolyline
 62
7
  6
CONTINUOUS
 90
9
 70
0
 10
112.3279812645
 20
91.5484975216
 10
112.4979328845
 20
91.5741105728
 10
112.6483009839
 20
91.5994556014
 10
112.7798912856
 20
91.6246501018
 10
112.8935642538
 20
91.6498400302
 10
112.9896170733
 20
91.6750525859
 10
113.0730430697
 20
91.701838528
 10
113.1451384081
 20
91.7314437224
 10
113.2176729695
 20
91.7723819134
  0
LWPOLYLINE
  5
2F9
100
AcDbEntity
  8
C98109000_BL7
100
AcDbPolyline
 62
7
  6
CONTINUOUS
 90
6
 70
0
 10
112.3939634476
 20
92.0629839254
 10
112.2384853155
 20
92.0401085202
 10
112.0649805909
 20
92.0166814904
 10
111.8736784101
 20
91.9927062624
 10
111.6646387184
 20
91.968152934
 10
111.4378640768
 20
91.9429772232
  0
LWPOLYLINE
  5
2FA
100
AcDbEntity
  8
C98109000_BL7
100
AcDbPolyline
 62
7
  6
CONTINUOUS
 90
6
 70
0
 10
106.6701700395
 20
88.8677978849
 10
106.8342016245
 20
88.8912701073
 10
107.0148557183
 20
88.9151918301
 10
107.2115438101
 20
88.9395227016
 10
107.4235782705
 20
88.9642290022
 10
107.6501124457
 20
88.9892751261
  0
LWPOLYLINE
  5
2FB
100
AcDbEntity
  8
C98109000_BL7
100
AcDbPolyline
 62
7
  6
CONTINUOUS
 90
5
 70
0
 10
111.4619707855
 20
91.4428786592
 10
111.7035995373
 20
91.4696422175
 10
111.929532161
 20
91.4962041529
 10
112.1380945301
 20
91.522503762
 10
112.3279812645
 20
91.5484975216
  0
LWPOLYLINE
  5
2FC
100
AcDbEntity
  8
C98109000_BL7
100
AcDbPolyline
 62
7
  6
CONTINUOUS
 90
6
 70
0
 10
107.6568654436
 20
89.4926981075
 10
107.4044559028
 20
89.4649963409
 10
107.1687845707
 20
89.4376236841
 10
106.9502180566
 20
89.4105206994
 10
106.7500119626
 20
89.3837469387
 10
106.5688661465
 20
89.3573157697
  0
LWPOLYLINE
  5
2FD
100
AcDbEntity
  8
C98109000_BL7
100
AcDbPolyline
 62
7
  6
CONTINUOUS
 90
6
 70
0
 10
107.6824992976
 20
91.583053473
 10
107.4269342417
 20
91.5554827711
 10
107.1877673335
 20
91.5281830902
 10
106.966223313
 20
91.5011845726
 10
106.7632254899
 20
91.4744998019
 10
106.579718687
 20
91.4481666726
  0
LINE
  5
2FE
100
AcDbEntity
  8
C98109000_BL7
100
AcDbLine
 62
7
  6
CONTINUOUS
 10
111.4378640768
 20
91.9429772232
 11
110.9332518679
 21
91.8907513452
  0
LINE
  5
2FF
100
AcDbEntity
  8
C98109000_BL7
100
AcDbLine
 62
7
  6
CONTINUOUS
 10
111.3490924627
 20
89.8495290929
 11
110.8543627515
 21
89.7984013975
  0
LINE
  5
300
100
AcDbEntity
  8
C98109000_BL7
100
AcDbLine
 62
7
  6
CONTINUOUS
 10
110.9394475443
 20
91.3890008903
 11
111.4619707855
 21
91.4428786592
  0
LINE
  5
301
100
AcDbEntity
  8
C98109000_BL7
100
AcDbLine
 62
7
  6
CONTINUOUS
 10
108.2089597003
 20
89.5491851741
 11
107.6568654436
 21
89.4926981075
  0
LINE
  5
302
100
AcDbEntity
  8
C98109000_BL7
100
AcDbLine
 62
7
  6
CONTINUOUS
 10
107.6757247406
 20
91.0797256498
 11
108.1453905346
 21
91.1276305165
  0
LINE
  5
303
100
AcDbEntity
  8
C98109000_BL7
100
AcDbLine
 62
7
  6
CONTINUOUS
 10
108.2369259119
 20
91.6388837523
 11
107.6824992976
 21
91.583053473
  0
LINE
  5
304
100
AcDbEntity
  8
C98109000_BL7
100
AcDbLine
 62
7
  6
CONTINUOUS
 10
110.9332518679
 20
91.8907513452
 11
110.3694076783
 21
91.8363351186
  0
LINE
  5
305
100
AcDbEntity
  8
C98109000_BL7
100
AcDbLine
 62
7
  6
CONTINUOUS
 10
110.3784725519
 20
91.3350174165
 11
110.9394475443
 21
91.3890008903
  0
LINE
  5
306
100
AcDbEntity
  8
C98109000_BL7
100
AcDbLine
 62
7
  6
CONTINUOUS
 10
110.8543627515
 20
89.7984013975
 11
110.0195481454
 21
89.7185239354
  0
LINE
  5
307
100
AcDbEntity
  8
C98109000_BL7
100
AcDbLine
 62
7
  6
CONTINUOUS
 10
108.1453905346
 20
91.1276305165
 11
108.9374822826
 21
91.202759622
  0
LWPOLYLINE
  5
308
100
AcDbEntity
  8
C98109000_BL7
100
AcDbPolyline
 62
7
  6
CONTINUOUS
 90
3
 70
0
 10
110.0195481454
 20
89.7185239354
 10
109.1112042368
 20
89.6347372576
 10
108.2089597003
 20
89.5491851741
  0
LINE
  5
309
100
AcDbEntity
  8
C98109000_BL7
100
AcDbLine
 62
7
  6
CONTINUOUS
 10
108.9374822826
 20
91.202759622
 11
110.3784725519
 21
91.3350174165
  0
LINE
  5
30A
100
AcDbEntity
  8
C98109000_BL7
100
AcDbLine
 62
7
  6
CONTINUOUS
 10
110.3694076783
 20
91.8363351186
 11
108.2369259119
 21
91.6388837523
  0
LWPOLYLINE
  5
30B
100
AcDbEntity
  8
C98109000_BL7
100
AcDbPolyline
 62
7
  6
CONTINUOUS
 90
4
 70
0
 10
105.9130334355
 20
90.6659821243
 10
105.9952006829
 20
90.6391058992
 10
106.0890792848
 20
90.6141507159
 10
106.0975483937
 20
90.6122515663
  0
LWPOLYLINE
  5
30C
100
AcDbEntity
  8
C98109000_BL7
100
AcDbPolyline
 62
7
  6
CONTINUOUS
 90
9
 70
0
 10
106.6590456425
 20
93.5273786063
 10
106.493574598
 20
93.5025600031
 10
106.3466549939
 20
93.4779560535
 10
106.217909727
 20
93.4535272066
 10
106.1058036369
 20
93.4289843952
 10
106.0096438331
 20
93.4041150844
 10
105.925678157
 20
93.3775990093
 10
105.8529915933
 20
93.348276965
 10
105.7804778103
 20
93.3081428609
  0
LWPOLYLINE
  5
30D
100
AcDbEntity
  8
C98109000_BL7
100
AcDbPolyline
 62
7
  6
CONTINUOUS
 90
9
 70
0
 10
112.3165900162
 20
95.6484790603
 10
112.4838200228
 20
95.6728874564
 10
112.6337176156
 20
95.6971391349
 10
112.7667073926
 20
95.721430376
 10
112.8828119629
 20
95.7459555106
 10
112.9818938777
 20
95.7709078304
 10
113.0679024433
 20
95.7976804161
 10
113.1420514717
 20
95.8275881761
 10
113.21613454
 20
95.8693033798
  0
LWPOLYLINE
  5
30E
100
AcDbEntity
  8
C98109000_BL7
100
AcDbPolyline
 62
7
  6
CONTINUOUS
 90
9
 70
0
 10
112.2748921735
 20
93.6028620784
 10
112.4519709476
 20
93.6286224685
 10
112.6099040707
 20
93.6540778097
 10
112.7492118561
 20
93.679362976
 10
112.8699292805
 20
93.7045488466
 10
112.97167892
 20
93.7295743943
 10
113.0595128943
 20
93.755951843
 10
113.1345593786
 20
93.7848753914
 10
113.2093902475
 20
93.8249361023
  0
LWPOLYLINE
  5
30F
100
AcDbEntity
  8
C98109000_BL7
100
AcDbPolyline
 62
7
  6
CONTINUOUS
 90
6
 70
0
 10
112.3765299606
 20
96.1614837994
 10
112.2202606153
 20
96.1392665343
 10
112.0479846232
 20
96.1166559054
 10
111.8600560786
 20
96.0936580046
 10
111.6566720957
 20
96.0702523278
 10
111.4380916482
 20
96.046420781
  0
LWPOLYLINE
  5
310
100
AcDbEntity
  8
C98109000_BL7
100
AcDbPolyline
 62
7
  6
CONTINUOUS
 90
6
 70
0
 10
106.6220215874
 20
95.0631879788
 10
106.7841712334
 20
95.0862148032
 10
106.964392417
 20
95.1097789568
 10
107.1624524911
 20
95.1338724321
 10
107.3785499739
 20
95.1585490236
 10
107.6127579195
 20
95.1838513309
  0
LWPOLYLINE
  5
311
100
AcDbEntity
  8
C98109000_BL7
100
AcDbPolyline
 62
7
  6
CONTINUOUS
 90
6
 70
0
 10
112.287209381
 20
94.1088624746
 10
112.1287031344
 20
94.0869784846
 10
111.954980147
 20
94.0646693984
 10
111.7659237182
 20
94.0419165404
 10
111.5614547694
 20
94.0187032052
 10
111.3414625053
 20
93.9950046688
  0
LWPOLYLINE
  5
312
100
AcDbEntity
  8
C98109000_BL7
100
AcDbPolyline
 62
7
  6
CONTINUOUS
 90
6
 70
0
 10
106.7128364415
 20
93.0307046475
 10
106.870168803
 20
93.0522844372
 10
107.0423391956
 20
93.0742334303
 10
107.2288540309
 20
93.0965409301
 10
107.4291310186
 20
93.1191969534
 10
107.6425843389
 20
93.1422014951
  0
LWPOLYLINE
  5
313
100
AcDbEntity
  8
C98109000_BL7
100
AcDbPolyline
 62
7
  6
CONTINUOUS
 90
5
 70
0
 10
107.4981143084
 20
93.629438785
 10
107.2635974842
 20
93.6035132669
 10
107.0448584854
 20
93.5778529057
 10
106.8430570081
 20
93.5524758371
 10
106.6590456425
 20
93.5273786063
  0
LWPOLYLINE
  5
314
100
AcDbEntity
  8
C98109000_BL7
100
AcDbPolyline
 62
7
  6
CONTINUOUS
 90
5
 70
0
 10
111.3812649794
 20
93.4966099807
 10
111.6295393713
 20
93.5234359266
 10
111.8623961702
 20
93.5501608686
 10
112.0779127989
 20
93.576661004
 10
112.2748921735
 20
93.6028620784
  0
LWPOLYLINE
  5
315
100
AcDbEntity
  8
C98109000_BL7
100
AcDbPolyline
 62
7
  6
CONTINUOUS
 90
6
 70
0
 10
107.7500323274
 20
95.700585964
 10
107.4870986629
 20
95.6731101391
 10
107.2398211815
 20
95.6458268595
 10
107.0098788951
 20
95.6187862492
 10
106.7985520712
 20
95.592013589
 10
106.6069932639
 20
95.5655410693
  0
LWPOLYLINE
  5
316
100
AcDbEntity
  8
C98109000_BL7
100
AcDbPolyline
 62
7
  6
CONTINUOUS
 90
6
 70
0
 10
111.2130021757
 20
95.5205662673
 10
111.4692315356
 20
95.547116609
 10
111.7077853211
 20
95.5731303428
 10
111.9285610012
 20
95.5986593324
 10
112.1314759962
 20
95.6237533153
 10
112.3165900162
 20
95.6484790603
  0
LINE
  5
317
100
AcDbEntity
  8
C98109000_BL7
100
AcDbLine
 62
7
  6
CONTINUOUS
 10
108.0090901051
 20
93.6820071959
 11
107.4981143084
 21
93.629438785
  0
LINE
  5
318
100
AcDbEntity
  8
C98109000_BL7
100
AcDbLine
 62
7
  6
CONTINUOUS
 10
107.6425843389
 20
93.1422014951
 11
108.1062702564
 21
93.189258795
  0
LINE
  5
319
100
AcDbEntity
  8
C98109000_BL7
100
AcDbLine
 62
7
  6
CONTINUOUS
 10
111.4380916482
 20
96.046420781
 11
110.9562530426
 21
95.9973654185
  0
LINE
  5
31A
100
AcDbEntity
  8
C98109000_BL7
100
AcDbLine
 62
7
  6
CONTINUOUS
 10
111.3414625053
 20
93.9950046688
 11
110.8561179078
 21
93.9460507729
  0
LINE
  5
31B
100
AcDbEntity
  8
C98109000_BL7
100
AcDbLine
 62
7
  6
CONTINUOUS
 10
107.6127579195
 20
95.1838513309
 11
108.1362547942
 21
95.2365866083
  0
LINE
  5
31C
100
AcDbEntity
  8
C98109000_BL7
100
AcDbLine
 62
7
  6
CONTINUOUS
 10
110.8492833877
 20
93.4431207337
 11
111.3812649794
 21
93.4966099807
  0
LINE
  5
31D
100
AcDbEntity
  8
C98109000_BL7
100
AcDbLine
 62
7
  6
CONTINUOUS
 10
108.3153321274
 20
95.7559194017
 11
107.7500323274
 21
95.700585964
  0
LINE
  5
31E
100
AcDbEntity
  8
C98109000_BL7
100
AcDbLine
 62
7
  6
CONTINUOUS
 10
110.6482923026
 20
95.4656443316
 11
111.2130021757
 21
95.5205662673
  0
LINE
  5
31F
100
AcDbEntity
  8
C98109000_BL7
100
AcDbLine
 62
7
  6
CONTINUOUS
 10
108.5652024759
 20
93.7353503719
 11
108.0090901051
 21
93.6820071959
  0
LINE
  5
320
100
AcDbEntity
  8
C98109000_BL7
100
AcDbLine
 62
7
  6
CONTINUOUS
 10
110.9562530426
 20
95.9973654185
 11
110.4174198656
 21
95.9462667822
  0
LINE
  5
321
100
AcDbEntity
  8
C98109000_BL7
100
AcDbLine
 62
7
  6
CONTINUOUS
 10
108.1062702564
 20
93.189258795
 11
108.88073849
 21
93.2624555168
  0
LINE
  5
322
100
AcDbEntity
  8
C98109000_BL7
100
AcDbLine
 62
7
  6
CONTINUOUS
 10
108.1362547942
 20
95.2365866083
 11
108.7299223419
 21
95.2922953191
  0
LINE
  5
323
100
AcDbEntity
  8
C98109000_BL7
100
AcDbLine
 62
7
  6
CONTINUOUS
 10
110.8561179078
 20
93.9460507729
 11
110.0325206474
 21
93.8689076292
  0
LINE
  5
324
100
AcDbEntity
  8
C98109000_BL7
100
AcDbLine
 62
7
  6
CONTINUOUS
 10
110.0040065488
 20
93.3642568619
 11
110.8492833877
 21
93.4431207337
  0
LINE
  5
325
100
AcDbEntity
  8
C98109000_BL7
100
AcDbLine
 62
7
  6
CONTINUOUS
 10
110.0325206474
 20
93.8689076292
 11
108.5652024759
 21
93.7353503719
  0
LINE
  5
326
100
AcDbEntity
  8
C98109000_BL7
100
AcDbLine
 62
7
  6
CONTINUOUS
 10
108.88073849
 20
93.2624555168
 11
110.0040065488
 21
93.3642568619
  0
LINE
  5
327
100
AcDbEntity
  8
C98109000_BL7
100
AcDbLine
 62
7
  6
CONTINUOUS
 10
110.4174198656
 20
95.9462667822
 11
108.3153321274
 21
95.7559194017
  0
LINE
  5
328
100
AcDbEntity
  8
C98109000_BL7
100
AcDbLine
 62
7
  6
CONTINUOUS
 10
108.7299223419
 20
95.2922953191
 11
110.6482923026
 21
95.4656443316
  0
LWPOLYLINE
  5
329
100
AcDbEntity
  8
C98109000_BL7
100
AcDbPolyline
 62
7
  6
CONTINUOUS
 90
11
 70
0
 10
106.6069932639
 20
95.5655410693
 10
106.4357614215
 20
95.5393407108
 10
106.2854331328
 20
95.5134029857
 10
106.1553321573
 20
95.4874903297
 10
106.0453685027
 20
95.4614708346
 10
105.9510079434
 20
95.4340393783
 10
105.870760418
 20
95.4040246745
 10
105.7929115571
 20
95.363668487
 10
105.7053843724
 20
95.2910007455
 10
105.6409130746
 20
95.186697575
 10
105.6254051421
 20
95.1017953726
  0
LWPOLYLINE
  5
32A
100
AcDbEntity
  8
C98109000_BL7
100
AcDbPolyline
 62
7
  6
CONTINUOUS
 90
11
 70
0
 10
112.3653298027
 20
97.6740840123
 10
112.5465647152
 20
97.7012906316
 10
112.7044967157
 20
97.7280372739
 10
112.8401153414
 20
97.7545138126
 10
112.9533347515
 20
97.7807019088
 10
113.0498036105
 20
97.8081868711
 10
113.131983591
 20
97.8387787002
 10
113.2112640169
 20
97.8809553056
 10
113.3000193732
 20
97.9594834387
 10
113.3597155573
 20
98.0700957305
 10
113.3688219522
 20
98.1348751224
  0
LWPOLYLINE
  5
32B
100
AcDbEntity
  8
C98109000_BL7
100
AcDbPolyline
 62
7
  6
CONTINUOUS
 90
11
 70
0
 10
106.6250602581
 20
97.5925844326
 10
106.4487397373
 20
97.5661754897
 10
106.2936314911
 20
97.5399565696
 10
106.1596143321
 20
97.5137555983
 10
106.0472266819
 20
97.4875554852
 10
105.9513236009
 20
97.4599398398
 10
105.8698516341
 20
97.4295300964
 10
105.7911802222
 20
97.3884102069
 10
105.7029102118
 20
97.3135339722
 10
105.6400980738
 20
97.2073812748
 10
105.6268412611
 20
97.1290067586
  0
LWPOLYLINE
  5
32C
100
AcDbEntity
  8
C98109000_BL7
100
AcDbPolyline
 62
7
  6
CONTINUOUS
 90
6
 70
0
 10
106.6283262768
 20
97.0886605545
 10
106.7855547206
 20
97.110678591
 10
106.9578446995
 20
97.1329697023
 10
107.1438672859
 20
97.1554400288
 10
107.343323864
 20
97.1781354707
 10
107.5556620565
 20
97.2010699678
  0
LWPOLYLINE
  5
32D
100
AcDbEntity
  8
C98109000_BL7
100
AcDbPolyline
 62
7
  6
CONTINUOUS
 90
5
 70
0
 10
107.5079769328
 20
97.6986082871
 10
107.2651025062
 20
97.6722347018
 10
107.0351845725
 20
97.6456887528
 10
106.8211066083
 20
97.6191086782
 10
106.6250602581
 20
97.5925844326
  0
LWPOLYLINE
  5
32E
100
AcDbEntity
  8
C98109000_BL7
100
AcDbPolyline
 62
7
  6
CONTINUOUS
 90
6
 70
0
 10
111.1448643147
 20
97.5334634352
 10
111.4245222053
 20
97.5618309664
 10
111.6889006407
 20
97.5902125785
 10
111.93525024
 20
97.6184670625
 10
112.1613795749
 20
97.6464731638
 10
112.3653298027
 20
97.6740840123
  0
LINE
  5
32F
100
AcDbEntity
  8
C98109000_BL7
100
AcDbLine
 62
7
  6
CONTINUOUS
 10
107.5556620565
 20
97.2010699678
 11
108.0171994475
 21
97.2477674418
  0
LINE
  5
330
100
AcDbEntity
  8
C98109000_BL7
100
AcDbLine
 62
7
  6
CONTINUOUS
 10
111.4304141764
 20
98.064992865
 11
110.9865589655
 21
98.0202371494
  0
LINE
  5
331
100
AcDbEntity
  8
C98109000_BL7
100
AcDbLine
 62
7
  6
CONTINUOUS
 10
108.0262595825
 20
97.7509063447
 11
107.5079769328
 21
97.6986082871
  0
LINE
  5
332
100
AcDbEntity
  8
C98109000_BL7
100
AcDbLine
 62
7
  6
CONTINUOUS
 10
110.5544405729
 20
97.4773347165
 11
111.1448643147
 21
97.5334634352
  0
LINE
  5
333
100
AcDbEntity
  8
C98109000_BL7
100
AcDbLine
 62
7
  6
CONTINUOUS
 10
108.0171994475
 20
97.2477674418
 11
108.5246767916
 21
97.2957569261
  0
LINE
  5
334
100
AcDbEntity
  8
C98109000_BL7
100
AcDbLine
 62
7
  6
CONTINUOUS
 10
110.9865589655
 20
98.0202371494
 11
110.4979332579
 21
97.974204233
  0
LINE
  5
335
100
AcDbEntity
  8
C98109000_BL7
100
AcDbLine
 62
7
  6
CONTINUOUS
 10
108.5753930027
 20
97.8024741043
 11
108.0262595825
 21
97.7509063447
  0
LINE
  5
336
100
AcDbEntity
  8
C98109000_BL7
100
AcDbLine
 62
7
  6
CONTINUOUS
 10
108.5246767916
 20
97.2957569261
 11
110.5544405729
 21
97.4773347165
  0
LINE
  5
337
100
AcDbEntity
  8
C98109000_BL7
100
AcDbLine
 62
7
  6
CONTINUOUS
 10
110.4979332579
 20
97.974204233
 11
108.5753930027
 21
97.8024741043
  0
LWPOLYLINE
  5
338
100
AcDbEntity
  8
C98109000_BL7
100
AcDbPolyline
 62
7
  6
CONTINUOUS
 90
8
 70
0
 10
105.6272953306
 20
88.8961664518
 10
105.6401780063
 20
88.8184603032
 10
105.7030469202
 20
88.7108542505
 10
105.7900127577
 20
88.6357345513
 10
105.8666636975
 20
88.5942131519
 10
105.9445674667
 20
88.5635900986
 10
106.0367718347
 20
88.5353605287
 10
106.0975483937
 20
88.5202308349
  0
LWPOLYLINE
  5
339
100
AcDbEntity
  8
C98109000_BL7
100
AcDbPolyline
 62
7
  6
CONTINUOUS
 90
8
 70
0
 10
105.6237223612
 20
84.6479094309
 10
105.635721702
 20
84.5727313206
 10
105.6999653187
 20
84.4619972113
 10
105.7914033031
 20
84.3844625888
 10
105.8728495429
 20
84.3419870033
 10
105.9572310953
 20
84.3102373511
 10
106.0574581705
 20
84.280765217
 10
106.0975483937
 20
84.2710925449
  0
LWPOLYLINE
  5
33A
100
AcDbEntity
  8
C98109000_BL7
100
AcDbPolyline
 62
7
  6
CONTINUOUS
 90
8
 70
0
 10
105.6259838238
 20
86.7824637511
 10
105.6365489857
 20
86.7120923636
 10
105.6968944724
 20
86.6028108791
 10
105.7838300862
 20
86.525152153
 10
105.8615408897
 20
86.4821163473
 10
105.9410997362
 20
86.450524136
 10
106.0349252384
 20
86.4217693887
 10
106.0975483937
 20
86.406189705
  0
LWPOLYLINE
  5
33B
100
AcDbEntity
  8
C98109000_BL7
100
AcDbPolyline
 62
7
  6
CONTINUOUS
 90
8
 70
0
 10
105.6253944904
 20
95.1041588825
 10
105.6352359095
 20
95.0366079857
 10
105.6965880227
 20
94.9252901835
 10
105.7872748796
 20
94.8462281078
 10
105.8693605502
 20
94.803068261
 10
105.9560970471
 20
94.7710527192
 10
106.0605485541
 20
94.7416929237
 10
106.0975483937
 20
94.7333054963
  0
LWPOLYLINE
  5
33C
100
AcDbEntity
  8
C98109000_BL7
100
AcDbPolyline
 62
7
  6
CONTINUOUS
 90
9
 70
0
 10
105.6232635298
 20
93.055240725
 10
105.6324226573
 20
92.9903384047
 10
105.6895496845
 20
92.88277392
 10
105.7725511291
 20
92.8064232759
 10
105.8440552285
 20
92.7655431522
 10
105.9141448499
 20
92.736558881
 10
105.9943166044
 20
92.7106656188
 10
106.0859424752
 20
92.6864268784
 10
106.0975483937
 20
92.6838265762
  0
LWPOLYLINE
  5
33D
100
AcDbEntity
  8
C98109000_BL7
100
AcDbPolyline
 62
7
  6
CONTINUOUS
 90
8
 70
0
 10
105.6268290604
 20
97.1310532614
 10
105.6350972518
 20
97.069370959
 10
105.6929883317
 20
96.9586492076
 10
105.7805660977
 20
96.8789474309
 10
105.8597743422
 20
96.8353794258
 10
105.942358642
 20
96.8035390046
 10
106.0404056136
 20
96.7748323251
 10
106.0975483937
 20
96.7614488032
  0
LWPOLYLINE
  5
33E
100
AcDbEntity
  8
C98109000_BL7
100
AcDbPolyline
 62
7
  6
CONTINUOUS
 90
6
 70
0
 10
105.6246833534
 20
90.9856553612
 10
105.6322455456
 20
90.926613956
 10
105.6863592204
 20
90.818549366
 10
105.7679089357
 20
90.7400620226
 10
105.8406079144
 20
90.6967468872
 10
105.9130334355
 20
90.6659821243
  0
LWPOLYLINE
  5
33F
100
AcDbEntity
  8
C98109000_BL7
100
AcDbPolyline
 62
7
  6
CONTINUOUS
 90
8
 70
0
 10
113.3721586591
 20
83.5719345839
 10
113.3549688032
 20
83.661951369
 10
113.2890717605
 20
83.7657046334
 10
113.2018453614
 20
83.8373229713
 10
113.1257822561
 20
83.8770586865
 10
113.0488192847
 20
83.9067345842
 10
112.9581460061
 20
83.9344338315
 10
112.8975483937
 20
83.9497369389
  0
LWPOLYLINE
  5
340
100
AcDbEntity
  8
C98109000_BL7
100
AcDbPolyline
 62
7
  6
CONTINUOUS
 90
8
 70
0
 10
113.3684379378
 20
85.715069681
 10
113.35141904
 20
85.8045884524
 10
113.2867849402
 20
85.9075407637
 10
113.2012093263
 20
85.9792332297
 10
113.1251016569
 20
86.0199781773
 10
113.0472753652
 20
86.0505405797
 10
112.9554378143
 20
86.0788461027
 10
112.8975483937
 20
86.0934413387
  0
LWPOLYLINE
  5
341
100
AcDbEntity
  8
C98109000_BL7
100
AcDbPolyline
 62
7
  6
CONTINUOUS
 90
8
 70
0
 10
113.3661403862
 20
89.9404664181
 10
113.3509820917
 20
90.0249002714
 10
113.2851642257
 20
90.1318159935
 10
113.1940918563
 20
90.2069289742
 10
113.1117495508
 20
90.2490466998
 10
113.0250064474
 20
90.2809744287
 10
112.9216391973
 20
90.3105001534
 10
112.8975483937
 20
90.3160937014
  0
LWPOLYLINE
  5
342
100
AcDbEntity
  8
C98109000_BL7
100
AcDbPolyline
 62
7
  6
CONTINUOUS
 90
8
 70
0
 10
113.3716244905
 20
92.0229776921
 10
113.3566528254
 20
92.1063856459
 10
113.2933897821
 20
92.2100812108
 10
113.2078078856
 20
92.2820828537
 10
113.1337449289
 20
92.3212539225
 10
113.0593801953
 20
92.3499686838
 10
112.9722569236
 20
92.3764196102
 10
112.8975483937
 20
92.3950830122
  0
LWPOLYLINE
  5
343
100
AcDbEntity
  8
C98109000_BL7
100
AcDbPolyline
 62
7
  6
CONTINUOUS
 90
8
 70
0
 10
113.368032583
 20
87.8403383165
 10
113.3532602732
 20
87.9236570731
 10
113.2906252569
 20
88.0277147788
 10
113.2053155589
 20
88.1008804771
 10
113.129407511
 20
88.1419592346
 10
113.0518006665
 20
88.1723874258
 10
112.9603508187
 20
88.2002290574
 10
112.8975483937
 20
88.215780578
  0
LWPOLYLINE
  5
344
100
AcDbEntity
  8
C98109000_BL7
100
AcDbPolyline
 62
7
  6
CONTINUOUS
 90
8
 70
0
 10
113.3699888585
 20
94.0797442003
 10
113.3564703229
 20
94.1587296732
 10
113.2960622958
 20
94.2617989688
 10
113.2129306785
 20
94.3346579597
 10
113.1393864909
 20
94.3753262407
 10
113.0651134641
 20
94.4051068585
 10
112.979179539
 20
94.4319671446
 10
112.8975483937
 20
94.4527921704
  0
LWPOLYLINE
  5
345
100
AcDbEntity
  8
C98109000_BL7
100
AcDbPolyline
 62
7
  6
CONTINUOUS
 90
8
 70
0
 10
113.3682668909
 20
96.1186750565
 10
113.3564237528
 20
96.1926863029
 10
113.296228791
 20
96.2985192923
 10
113.2103725521
 20
96.37398039
 10
113.1338954876
 20
96.41554018
 10
113.0558889722
 20
96.4458150494
 10
112.9660937579
 20
96.4727132733
 10
112.8975483937
 20
96.4893626192
  0
LWPOLYLINE
  5
346
100
AcDbEntity
  8
C98109000_BL7
100
AcDbPolyline
 62
7
  6
CONTINUOUS
 90
8
 70
0
 10
113.3688246046
 20
98.1330484957
 10
113.3578743771
 20
98.2037565098
 10
113.3005995309
 20
98.3076106085
 10
113.2180030147
 20
98.3826629538
 10
113.141893334
 20
98.4254507834
 10
113.0621856768
 20
98.4571343783
 10
112.9683813826
 20
98.485618375
 10
112.8975483937
 20
98.5029329068
  0
LWPOLYLINE
  5
347
100
AcDbEntity
  8
C98109000_BL7
100
AcDbPolyline
 62
7
  6
CONTINUOUS
 90
4
 70
0
 10
105.7804778103
 20
93.3081428609
 10
105.6978891782
 20
93.2360507258
 10
105.6372674408
 20
93.1336423292
 10
105.6232715072
 20
93.0533122487
  0
LWPOLYLINE
  5
348
100
AcDbEntity
  8
C98109000_BL7
100
AcDbPolyline
 62
7
  6
CONTINUOUS
 90
10
 70
0
 10
106.044309269
 20
96.9710547357
 10
106.0391381784
 20
96.9672138921
 10
106.0326939697
 20
96.9628875413
 10
106.0563532277
 20
96.9726937201
 10
106.1019416541
 20
96.987605894
 10
106.1699625631
 20
97.0057718644
 10
106.2566230333
 20
97.0252210601
 10
106.3627300795
 20
97.0457545714
 10
106.4868924442
 20
97.0669543548
 10
106.6283262768
 20
97.0886605545
  0
LWPOLYLINE
  5
349
100
AcDbEntity
  8
C98109000_BL7
100
AcDbPolyline
 62
7
  6
CONTINUOUS
 90
4
 70
0
 10
113.21613454
 20
95.8693033798
 10
113.3005954787
 20
95.9461740622
 10
113.3587257475
 20
96.0542870268
 10
113.3682719968
 20
96.1206115051
  0
LWPOLYLINE
  5
34A
100
AcDbEntity
  8
C98109000_BL7
100
AcDbPolyline
 62
7
  6
CONTINUOUS
 90
16
 70
0
 10
112.9491183351
 20
98.2921006834
 10
112.9544664967
 20
98.2962811911
 10
112.9665058012
 20
98.3043139694
 10
112.9508573425
 20
98.2976244648
 10
112.9131672566
 20
98.2847957409
 10
112.8541434837
 20
98.2683640209
 10
112.7783284229
 20
98.2505257917
 10
112.6854745001
 20
98.2315575038
 10
112.5774445917
 20
98.2120038875
 10
112.4544243374
 20
98.1919478766
 10
112.3174578422
 20
98.1715675588
 10
112.1666136404
 20
98.1508563419
 10
112.0022389304
 20
98.1298410056
 10
111.8245615285
 20
98.1085240212
 10
111.6338655071
 20
98.0869092172
 10
111.4304141764
 20
98.064992865
  0
LWPOLYLINE
  5
34B
100
AcDbEntity
  8
C98109000_BL7
100
AcDbPolyline
 62
7
  6
CONTINUOUS
 90
10
 70
0
 10
106.0455372399
 20
94.9462746547
 10
106.0402546853
 20
94.9422180195
 10
106.0318572033
 20
94.9365502728
 10
106.0526026843
 20
94.9454137085
 10
106.0956612666
 20
94.9599711578
 10
106.1615338793
 20
94.9781225702
 10
106.2467362452
 20
94.9978092623
 10
106.3524736475
 20
95.0188015081
 10
106.4776873388
 20
95.0406439763
 10
106.6220215874
 20
95.0631879788
  0
LWPOLYLINE
  5
34C
100
AcDbEntity
  8
C98109000_BL7
100
AcDbPolyline
 62
7
  6
CONTINUOUS
 90
11
 70
0
 10
106.0414080138
 20
92.8957655535
 10
106.0366019848
 20
92.8922070283
 10
106.0306702484
 20
92.8882386503
 10
106.0535602791
 20
92.8979629451
 10
106.0964451966
 20
92.9124694888
 10
106.1595237323
 20
92.9300853511
 10
106.2384607192
 20
92.9488222832
 10
106.3338635269
 20
92.9685288178
 10
106.444525762
 20
92.9887711403
 10
106.5708672515
 20
93.0095234042
 10
106.7128364415
 20
93.0307046475
  0
LWPOLYLINE
  5
34D
100
AcDbEntity
  8
C98109000_BL7
100
AcDbPolyline
 62
7
  6
CONTINUOUS
 90
4
 70
0
 10
113.2176729695
 20
91.7723819134
 10
113.3008511547
 20
91.8469324513
 10
113.3602965789
 20
91.9529223659
 10
113.371635293
 20
92.0252069573
  0
LWPOLYLINE
  5
34E
100
AcDbEntity
  8
C98109000_BL7
100
AcDbPolyline
 62
7
  6
CONTINUOUS
 90
4
 70
0
 10
113.2093902475
 20
93.8249361023
 10
113.295793748
 20
93.8995091346
 10
113.357859633
 20
94.0069023854
 10
113.3699860192
 20
94.0819436777
  0
LWPOLYLINE
  5
34F
100
AcDbEntity
  8
C98109000_BL7
100
AcDbPolyline
 62
7
  6
CONTINUOUS
 90
4
 70
0
 10
105.7954288708
 20
87.0452973483
 10
105.7089462077
 20
86.9737797422
 10
105.6434627112
 20
86.8706732845
 10
105.6259991414
 20
86.7799682875
  0
LWPOLYLINE
  5
350
100
AcDbEntity
  8
C98109000_BL7
100
AcDbPolyline
 62
7
  6
CONTINUOUS
 90
11
 70
0
 10
112.9494134235
 20
94.2375821512
 10
112.9546031715
 20
94.2416253575
 10
112.965175534
 20
94.2487315225
 10
112.9475210644
 20
94.2411564077
 10
112.9076120807
 20
94.2275304472
 10
112.8460543183
 20
94.2103060735
 10
112.7672958412
 20
94.1916561473
 10
112.6709382373
 20
94.1718321452
 10
112.5586498458
 20
94.1513599341
 10
112.4304503828
 20
94.1303131477
 10
112.287209381
 20
94.1088624746
  0
LWPOLYLINE
  5
351
100
AcDbEntity
  8
C98109000_BL7
100
AcDbPolyline
 62
7
  6
CONTINUOUS
 90
10
 70
0
 10
112.9494372659
 20
96.2776015245
 10
112.9546249407
 20
96.2815265649
 10
112.962378251
 20
96.2867102715
 10
112.9409090045
 20
96.2776257216
 10
112.8971993367
 20
96.2630203644
 10
112.8307091119
 20
96.2449243147
 10
112.7450008721
 20
96.2253708666
 10
112.6396728527
 20
96.2046625284
 10
112.5167420557
 20
96.1833401862
 10
112.3765299606
 20
96.1614837994
  0
LWPOLYLINE
  5
352
100
AcDbEntity
  8
C98109000_BL7
100
AcDbPolyline
 62
7
  6
CONTINUOUS
 90
16
 70
0
 10
106.0434174465
 20
90.8276869155
 10
106.0387598562
 20
90.8242491483
 10
106.0338378228
 20
90.8208959837
 10
106.0578227777
 20
90.8310741881
 10
106.1017936467
 20
90.8459028478
 10
106.1663403635
 20
90.863836267
 10
106.2478833935
 20
90.8830246762
 10
106.3468971772
 20
90.9032183389
 10
106.4616420757
 20
90.9239258939
 10
106.5919459835
 20
90.9451059666
 10
106.7370172061
 20
90.9666426642
 10
106.8966928661
 20
90.9885411299
 10
107.0706630886
 20
91.0107916766
 10
107.2586809193
 20
91.0334002015
 10
107.4604571057
 20
91.0563732548
 10
107.6757247406
 20
91.0797256498
  0
LWPOLYLINE
  5
353
100
AcDbEntity
  8
C98109000_BL7
100
AcDbPolyline
 62
7
  6
CONTINUOUS
 90
10
 70
0
 10
106.0461478992
 20
88.7384849164
 10
106.0413194765
 20
88.7349367601
 10
106.0382003586
 20
88.7325851453
 10
106.0664662759
 20
88.7442185455
 10
106.1169392948
 20
88.7605844201
 10
106.1903275152
 20
88.7800461483
 10
106.2825226203
 20
88.8007118361
 10
106.3938840007
 20
88.8224237333
 10
106.5231737266
 20
88.8448123966
 10
106.6701700395
 20
88.8677978849
  0
LWPOLYLINE
  5
354
100
AcDbEntity
  8
C98109000_BL7
100
AcDbPolyline
 62
7
  6
CONTINUOUS
 90
4
 70
0
 10
113.2080420293
 20
87.5839503465
 10
113.2945389582
 20
87.6600143
 10
113.3561277687
 20
87.7680518402
 10
113.3680373121
 20
87.8427254343
  0
LWPOLYLINE
  5
355
100
AcDbEntity
  8
C98109000_BL7
100
AcDbPolyline
 62
7
  6
CONTINUOUS
 90
4
 70
0
 10
105.7880687354
 20
84.9071279418
 10
105.7038860561
 20
84.8357507176
 10
105.6403000277
 20
84.733439092
 10
105.623722547
 20
84.6453138932
  0
LWPOLYLINE
  5
356
100
AcDbEntity
  8
C98109000_BL7
100
AcDbPolyline
 62
7
  6
CONTINUOUS
 90
10
 70
0
 10
112.951330749
 20
92.1809011659
 10
112.9564515762
 20
92.1848074126
 10
112.9637894087
 20
92.1897802048
 10
112.9422179586
 20
92.1804811288
 10
112.8993174199
 20
92.1657733925
 10
112.8347295521
 20
92.1475794662
 10
112.7521872382
 20
92.1279177185
 10
112.6508223595
 20
92.1070137255
 10
112.5315712183
 20
92.0853414179
 10
112.3939634476
 20
92.0629839254
  0
LWPOLYLINE
  5
357
100
AcDbEntity
  8
C98109000_BL7
100
AcDbPolyline
 62
7
  6
CONTINUOUS
 90
10
 70
0
 10
106.0446010021
 20
84.4918932656
 10
106.0396309212
 20
84.4881948369
 10
106.0371953701
 20
84.4862198021
 10
106.0661689633
 20
84.4983777477
 10
106.117058538
 20
84.515315814
 10
106.1903295351
 20
84.5354191941
 10
106.2819623483
 20
84.5567608672
 10
106.3930395367
 20
84.579236665
 10
106.5230829306
 20
84.6024903667
 10
106.6726147175
 20
84.626450234
  0
LWPOLYLINE
  5
358
100
AcDbEntity
  8
C98109000_BL7
100
AcDbPolyline
 62
7
  6
CONTINUOUS
 90
10
 70
0
 10
106.0460544067
 20
86.6262242603
 10
106.041278961
 20
86.6226893338
 10
106.038585886
 20
86.6205673478
 10
106.0672559132
 20
86.6324963352
 10
106.1178037026
 20
86.6491209961
 10
106.1907026483
 20
86.6688048219
 10
106.2819065861
 20
86.6896203271
 10
106.3922157937
 20
86.7114594048
 10
106.520479528
 20
86.7339725701
 10
106.6663816082
 20
86.7570702565
  0
LWPOLYLINE
  5
359
100
AcDbEntity
  8
C98109000_BL7
100
AcDbPolyline
 62
7
  6
CONTINUOUS
 90
15
 70
0
 10
112.9473724293
 20
90.0984429904
 10
112.952215128
 20
90.1020251288
 10
112.9564930617
 20
90.1050447381
 10
112.9302372619
 20
90.0941064759
 10
112.8815178385
 20
90.0781262481
 10
112.809394018
 20
90.0588310324
 10
112.7175052988
 20
90.0381217671
 10
112.6057050733
 20
90.0162702
 10
112.4755993706
 20
89.9937339136
 10
112.3277009122
 20
89.9706340674
 10
112.1633827329
 20
89.9471645887
 10
111.9828496919
 20
89.9233075302
 10
111.7866914918
 20
89.8990893535
 10
111.5752829011
 20
89.8744987722
 10
111.3490924627
 20
89.8495290929
  0
LWPOLYLINE
  5
35A
100
AcDbEntity
  8
C98109000_BL7
100
AcDbPolyline
 62
7
  6
CONTINUOUS
 90
4
 70
0
 10
113.2110320886
 20
83.3148837034
 10
113.3001196141
 20
83.3935618741
 10
113.3615352374
 20
83.5039630477
 10
113.3721747002
 20
83.574522775
  0
LWPOLYLINE
  5
35B
100
AcDbEntity
  8
C98109000_BL7
100
AcDbPolyline
 62
7
  6
CONTINUOUS
 90
4
 70
0
 10
113.2025784899
 20
85.4547560758
 10
113.2933639475
 20
85.5327961745
 10
113.356797317
 20
85.6435475938
 10
113.3684434779
 20
85.717697057
  0
LWPOLYLINE
  5
35C
100
AcDbEntity
  8
C98109000_BL7
100
AcDbPolyline
 62
7
  6
CONTINUOUS
 90
10
 70
0
 10
112.9471484855
 20
87.9961594682
 10
112.9521652155
 20
87.9999432963
 10
112.9568925353
 20
88.0032768657
 10
112.9311452572
 20
87.9923067122
 10
112.8838173913
 20
87.9763576538
 10
112.8143225027
 20
87.9571436199
 10
112.7264363094
 20
87.9366290637
 10
112.6196217352
 20
87.9150760004
 10
112.4958472661
 20
87.8930162894
 10
112.3552664892
 20
87.8704652601
  0
LWPOLYLINE
  5
35D
100
AcDbEntity
  8
C98109000_BL7
100
AcDbPolyline
 62
7
  6
CONTINUOUS
 90
10
 70
0
 10
112.9476630075
 20
85.8710315619
 10
112.9527483713
 20
85.8748490827
 10
112.9568010378
 20
85.8778197246
 10
112.92834294
 20
85.8660184491
 10
112.8757891503
 20
85.848943785
 10
112.7994610963
 20
85.8286501954
 10
112.7050633417
 20
85.8073509778
 10
112.5921202429
 20
85.7851109417
 10
112.4621077089
 20
85.762313322
 10
112.3149798287
 20
85.7389730903
  0
LWPOLYLINE
  5
35E
100
AcDbEntity
  8
C98109000_BL7
100
AcDbPolyline
 62
7
  6
CONTINUOUS
 90
10
 70
0
 10
112.9486025343
 20
83.7259765264
 10
112.9539078816
 20
83.7300933763
 10
112.9593800041
 20
83.7340420628
 10
112.9335083969
 20
83.7228950326
 10
112.883532914
 20
83.7058885614
 10
112.8088510435
 20
83.6851164078
 10
112.7130076248
 20
83.6626723036
 10
112.5949362387
 20
83.6388258597
 10
112.4556099185
 20
83.6141060981
 10
112.2946494786
 20
83.5885879015
  0
ENDBLK
  5
35F
100
AcDbEntity
  8
0
  6
BYBLOCK
 62
0
100
AcDbBlockEnd
  0
BLOCK
  5
360
100
AcDbEntity
  8
C00941000_BL8
100
AcDbBlockBegin
  2
C00941000_BL8
 70
64
 10
109.4975483937
 20
247.283553554
  3
C00941000_BL8
  1

  0
LINE
  5
361
100
AcDbEntity
  8
C00941000_BL8
100
AcDbLine
 62
7
  6
CONTINUOUS
 10
106.0975483937
 20
259.783553554
 11
104.3654975861
 21
256.783553554
  0
LINE
  5
362
100
AcDbEntity
  8
C00941000_BL8
100
AcDbLine
 62
7
  6
CONTINUOUS
 10
113.1975483937
 20
251.783553554
 11
112.591330611
 21
250.733553554
  0
LINE
  5
363
100
AcDbEntity
  8
C00941000_BL8
100
AcDbLine
 62
7
  6
CONTINUOUS
 10
113.1975483937
 20
249.783553554
 11
112.591330611
 21
248.733553554
  0
LINE
  5
364
100
AcDbEntity
  8
C00941000_BL8
100
AcDbLine
 62
7
  6
CONTINUOUS
 10
113.1975483937
 20
247.783553554
 11
112.591330611
 21
246.733553554
  0
LINE
  5
365
100
AcDbEntity
  8
C00941000_BL8
100
AcDbLine
 62
7
  6
CONTINUOUS
 10
113.1975483937
 20
245.783553554
 11
112.591330611
 21
244.733553554
  0
LINE
  5
366
100
AcDbEntity
  8
C00941000_BL8
100
AcDbLine
 62
7
  6
CONTINUOUS
 10
113.1975483937
 20
243.783553554
 11
112.591330611
 21
242.733553554
  0
LINE
  5
367
100
AcDbEntity
  8
C00941000_BL8
100
AcDbLine
 62
7
  6
CONTINUOUS
 10
104.3654975861
 20
256.783553554
 11
104.3654975861
 21
254.783553554
  0
LINE
  5
368
100
AcDbEntity
  8
C00941000_BL8
100
AcDbLine
 62
7
  6
CONTINUOUS
 10
113.1975483937
 20
241.783553554
 11
112.591330611
 21
240.733553554
  0
LINE
  5
369
100
AcDbEntity
  8
C00941000_BL8
100
AcDbLine
 62
7
  6
CONTINUOUS
 10
105.7975483937
 20
252.283553554
 11
105.7975483937
 21
251.783553554
  0
LINE
  5
36A
100
AcDbEntity
  8
C00941000_BL8
100
AcDbLine
 62
7
  6
CONTINUOUS
 10
105.7975483937
 20
250.283553554
 11
105.7975483937
 21
249.783553554
  0
LINE
  5
36B
100
AcDbEntity
  8
C00941000_BL8
100
AcDbLine
 62
7
  6
CONTINUOUS
 10
105.7975483937
 20
248.283553554
 11
105.7975483937
 21
247.783553554
  0
LINE
  5
36C
100
AcDbEntity
  8
C00941000_BL8
100
AcDbLine
 62
7
  6
CONTINUOUS
 10
105.7975483937
 20
246.283553554
 11
105.7975483937
 21
245.783553554
  0
LINE
  5
36D
100
AcDbEntity
  8
C00941000_BL8
100
AcDbLine
 62
7
  6
CONTINUOUS
 10
105.7975483937
 20
244.283553554
 11
105.7975483937
 21
243.783553554
  0
LINE
  5
36E
100
AcDbEntity
  8
C00941000_BL8
100
AcDbLine
 62
7
  6
CONTINUOUS
 10
105.7975483937
 20
242.283553554
 11
105.7975483937
 21
241.783553554
  0
LINE
  5
36F
100
AcDbEntity
  8
C00941000_BL8
100
AcDbLine
 62
7
  6
CONTINUOUS
 10
106.0975483937
 20
254.283553554
 11
106.0975483937
 21
252.553553554
  0
LINE
  5
370
100
AcDbEntity
  8
C00941000_BL8
100
AcDbLine
 62
7
  6
CONTINUOUS
 10
113.1875389974
 20
240.1576716495
 11
111.7475483937
 21
234.783553554
  0
LINE
  5
371
100
AcDbEntity
  8
C00941000_BL8
100
AcDbLine
 62
7
  6
CONTINUOUS
 10
105.8075577899
 20
240.1576716495
 11
107.2475483937
 21
234.783553554
  0
LINE
  5
372
100
AcDbEntity
  8
C00941000_BL8
100
AcDbLine
 62
7
  6
CONTINUOUS
 10
112.8975483937
 20
254.283553554
 11
112.8975483937
 21
252.553553554
  0
LINE
  5
373
100
AcDbEntity
  8
C00941000_BL8
100
AcDbLine
 62
7
  6
CONTINUOUS
 10
113.1975483937
 20
252.283553554
 11
113.1975483937
 21
251.783553554
  0
LINE
  5
374
100
AcDbEntity
  8
C00941000_BL8
100
AcDbLine
 62
7
  6
CONTINUOUS
 10
113.1975483937
 20
250.283553554
 11
113.1975483937
 21
249.783553554
  0
LINE
  5
375
100
AcDbEntity
  8
C00941000_BL8
100
AcDbLine
 62
7
  6
CONTINUOUS
 10
113.1975483937
 20
248.283553554
 11
113.1975483937
 21
247.783553554
  0
LINE
  5
376
100
AcDbEntity
  8
C00941000_BL8
100
AcDbLine
 62
7
  6
CONTINUOUS
 10
113.1975483937
 20
246.283553554
 11
113.1975483937
 21
245.783553554
  0
LINE
  5
377
100
AcDbEntity
  8
C00941000_BL8
100
AcDbLine
 62
7
  6
CONTINUOUS
 10
113.1975483937
 20
244.283553554
 11
113.1975483937
 21
243.783553554
  0
LINE
  5
378
100
AcDbEntity
  8
C00941000_BL8
100
AcDbLine
 62
7
  6
CONTINUOUS
 10
113.1975483937
 20
242.283553554
 11
113.1975483937
 21
241.783553554
  0
LINE
  5
379
100
AcDbEntity
  8
C00941000_BL8
100
AcDbLine
 62
7
  6
CONTINUOUS
 10
114.6295992012
 20
256.783553554
 11
114.6295992012
 21
254.783553554
  0
LINE
  5
37A
100
AcDbEntity
  8
C00941000_BL8
100
AcDbLine
 62
7
  6
CONTINUOUS
 10
105.7975483937
 20
241.783553554
 11
106.4037661763
 21
240.733553554
  0
LINE
  5
37B
100
AcDbEntity
  8
C00941000_BL8
100
AcDbLine
 62
7
  6
CONTINUOUS
 10
105.7975483937
 20
243.783553554
 11
106.4037661763
 21
242.733553554
  0
LINE
  5
37C
100
AcDbEntity
  8
C00941000_BL8
100
AcDbLine
 62
7
  6
CONTINUOUS
 10
105.7975483937
 20
245.783553554
 11
106.4037661763
 21
244.733553554
  0
LINE
  5
37D
100
AcDbEntity
  8
C00941000_BL8
100
AcDbLine
 62
7
  6
CONTINUOUS
 10
105.7975483937
 20
247.783553554
 11
106.4037661763
 21
246.733553554
  0
LINE
  5
37E
100
AcDbEntity
  8
C00941000_BL8
100
AcDbLine
 62
7
  6
CONTINUOUS
 10
111.7475483937
 20
234.783553554
 11
107.2475483937
 21
234.783553554
  0
LINE
  5
37F
100
AcDbEntity
  8
C00941000_BL8
100
AcDbLine
 62
7
  6
CONTINUOUS
 10
105.7975483937
 20
249.783553554
 11
106.4037661763
 21
248.733553554
  0
LINE
  5
380
100
AcDbEntity
  8
C00941000_BL8
100
AcDbLine
 62
7
  6
CONTINUOUS
 10
105.7975483937
 20
251.783553554
 11
106.4037661763
 21
250.733553554
  0
LINE
  5
381
100
AcDbEntity
  8
C00941000_BL8
100
AcDbLine
 62
7
  6
CONTINUOUS
 10
113.0909464147
 20
240.283553554
 11
112.8511382321
 21
240.283553554
  0
LINE
  5
382
100
AcDbEntity
  8
C00941000_BL8
100
AcDbLine
 62
7
  6
CONTINUOUS
 10
106.1439585552
 20
240.283553554
 11
105.9041503726
 21
240.283553554
  0
LINE
  5
383
100
AcDbEntity
  8
C00941000_BL8
100
AcDbLine
 62
7
  6
CONTINUOUS
 10
113.1975483937
 20
242.283553554
 11
112.8511382321
 21
242.283553554
  0
LINE
  5
384
100
AcDbEntity
  8
C00941000_BL8
100
AcDbLine
 62
7
  6
CONTINUOUS
 10
106.1439585552
 20
242.283553554
 11
105.7975483937
 21
242.283553554
  0
LINE
  5
385
100
AcDbEntity
  8
C00941000_BL8
100
AcDbLine
 62
7
  6
CONTINUOUS
 10
113.1975483937
 20
244.283553554
 11
112.8511382321
 21
244.283553554
  0
LINE
  5
386
100
AcDbEntity
  8
C00941000_BL8
100
AcDbLine
 62
7
  6
CONTINUOUS
 10
106.1439585552
 20
244.283553554
 11
105.7975483937
 21
244.283553554
  0
LINE
  5
387
100
AcDbEntity
  8
C00941000_BL8
100
AcDbLine
 62
7
  6
CONTINUOUS
 10
112.8975483937
 20
259.783553554
 11
114.6295992012
 21
256.783553554
  0
LINE
  5
388
100
AcDbEntity
  8
C00941000_BL8
100
AcDbLine
 62
7
  6
CONTINUOUS
 10
113.1975483937
 20
246.283553554
 11
112.8511382321
 21
246.283553554
  0
LINE
  5
389
100
AcDbEntity
  8
C00941000_BL8
100
AcDbLine
 62
7
  6
CONTINUOUS
 10
106.1439585552
 20
246.283553554
 11
105.7975483937
 21
246.283553554
  0
LINE
  5
38A
100
AcDbEntity
  8
C00941000_BL8
100
AcDbLine
 62
7
  6
CONTINUOUS
 10
113.1975483937
 20
248.283553554
 11
112.8511382321
 21
248.283553554
  0
LINE
  5
38B
100
AcDbEntity
  8
C00941000_BL8
100
AcDbLine
 62
7
  6
CONTINUOUS
 10
106.1439585552
 20
248.283553554
 11
105.7975483937
 21
248.283553554
  0
LINE
  5
38C
100
AcDbEntity
  8
C00941000_BL8
100
AcDbLine
 62
7
  6
CONTINUOUS
 10
113.1975483937
 20
250.283553554
 11
112.8511382321
 21
250.283553554
  0
LINE
  5
38D
100
AcDbEntity
  8
C00941000_BL8
100
AcDbLine
 62
7
  6
CONTINUOUS
 10
106.1439585552
 20
250.283553554
 11
105.7975483937
 21
250.283553554
  0
LINE
  5
38E
100
AcDbEntity
  8
C00941000_BL8
100
AcDbLine
 62
7
  6
CONTINUOUS
 10
113.1975483937
 20
252.283553554
 11
113.1675483937
 21
252.283553554
  0
LINE
  5
38F
100
AcDbEntity
  8
C00941000_BL8
100
AcDbLine
 62
7
  6
CONTINUOUS
 10
105.8275483937
 20
252.283553554
 11
105.7975483937
 21
252.283553554
  0
LINE
  5
390
100
AcDbEntity
  8
C00941000_BL8
100
AcDbLine
 62
7
  6
CONTINUOUS
 10
114.6295992012
 20
254.783553554
 11
113.3975483937
 21
254.783553554
  0
LINE
  5
391
100
AcDbEntity
  8
C00941000_BL8
100
AcDbLine
 62
7
  6
CONTINUOUS
 10
105.5975483937
 20
254.783553554
 11
104.3654975861
 21
254.783553554
  0
LINE
  5
392
100
AcDbEntity
  8
C00941000_BL8
100
AcDbLine
 62
7
  6
CONTINUOUS
 10
112.8975483937
 20
259.783553554
 11
106.0975483937
 21
259.783553554
  0
ARC
  5
393
100
AcDbEntity
  8
C00941000_BL8
100
AcDbCircle
 62
7
  6
CONTINUOUS
 10
106.1439585552
 20
246.583553554
 40
0.3
100
AcDbArc
 50
270.0
 51
30.0
  0
ARC
  5
394
100
AcDbEntity
  8
C00941000_BL8
100
AcDbCircle
 62
7
  6
CONTINUOUS
 10
106.1439585552
 20
244.583553554
 40
0.3
100
AcDbArc
 50
270.0
 51
30.0
  0
ARC
  5
395
100
AcDbEntity
  8
C00941000_BL8
100
AcDbCircle
 62
7
  6
CONTINUOUS
 10
106.1439585552
 20
242.583553554
 40
0.3
100
AcDbArc
 50
270.0
 51
30.0
  0
ARC
  5
396
100
AcDbEntity
  8
C00941000_BL8
100
AcDbCircle
 62
7
  6
CONTINUOUS
 10
106.1439585552
 20
240.583553554
 40
0.3
100
AcDbArc
 50
270.0
 51
30.0
  0
ARC
  5
397
100
AcDbEntity
  8
C00941000_BL8
100
AcDbCircle
 62
7
  6
CONTINUOUS
 10
105.9041503726
 20
240.183553554
 40
0.1
100
AcDbArc
 50
90.0
 51
195.0
  0
ARC
  5
398
100
AcDbEntity
  8
C00941000_BL8
100
AcDbCircle
 62
7
  6
CONTINUOUS
 10
105.5975483937
 20
254.283553554
 40
0.5
100
AcDbArc
 50
0.0
 51
90.0
  0
ARC
  5
399
100
AcDbEntity
  8
C00941000_BL8
100
AcDbCircle
 62
7
  6
CONTINUOUS
 10
106.1439585552
 20
250.583553554
 40
0.3
100
AcDbArc
 50
270.0
 51
30.0
  0
ARC
  5
39A
100
AcDbEntity
  8
C00941000_BL8
100
AcDbCircle
 62
7
  6
CONTINUOUS
 10
106.1439585552
 20
248.583553554
 40
0.3
100
AcDbArc
 50
270.0
 51
30.0
  0
ARC
  5
39B
100
AcDbEntity
  8
C00941000_BL8
100
AcDbCircle
 62
7
  6
CONTINUOUS
 10
105.8275483937
 20
252.553553554
 40
0.27
100
AcDbArc
 50
270.0
 51
360.0
  0
ARC
  5
39C
100
AcDbEntity
  8
C00941000_BL8
100
AcDbCircle
 62
7
  6
CONTINUOUS
 10
112.8511382321
 20
246.583553554
 40
0.3
100
AcDbArc
 50
150.0
 51
270.0
  0
ARC
  5
39D
100
AcDbEntity
  8
C00941000_BL8
100
AcDbCircle
 62
7
  6
CONTINUOUS
 10
112.8511382321
 20
244.583553554
 40
0.3
100
AcDbArc
 50
150.0
 51
270.0
  0
ARC
  5
39E
100
AcDbEntity
  8
C00941000_BL8
100
AcDbCircle
 62
7
  6
CONTINUOUS
 10
112.8511382321
 20
242.583553554
 40
0.3
100
AcDbArc
 50
150.0
 51
270.0
  0
ARC
  5
39F
100
AcDbEntity
  8
C00941000_BL8
100
AcDbCircle
 62
7
  6
CONTINUOUS
 10
112.8511382321
 20
240.583553554
 40
0.3
100
AcDbArc
 50
150.0
 51
270.0
  0
ARC
  5
3A0
100
AcDbEntity
  8
C00941000_BL8
100
AcDbCircle
 62
7
  6
CONTINUOUS
 10
113.0909464147
 20
240.183553554
 40
0.1
100
AcDbArc
 50
345.0000000001
 51
90.0
  0
ARC
  5
3A1
100
AcDbEntity
  8
C00941000_BL8
100
AcDbCircle
 62
7
  6
CONTINUOUS
 10
113.3975483937
 20
254.283553554
 40
0.5
100
AcDbArc
 50
90.0
 51
180.0
  0
ARC
  5
3A2
100
AcDbEntity
  8
C00941000_BL8
100
AcDbCircle
 62
7
  6
CONTINUOUS
 10
112.8511382321
 20
250.583553554
 40
0.3
100
AcDbArc
 50
150.0
 51
270.0
  0
ARC
  5
3A3
100
AcDbEntity
  8
C00941000_BL8
100
AcDbCircle
 62
7
  6
CONTINUOUS
 10
112.8511382321
 20
248.583553554
 40
0.3
100
AcDbArc
 50
150.0
 51
270.0
  0
ARC
  5
3A4
100
AcDbEntity
  8
C00941000_BL8
100
AcDbCircle
 62
7
  6
CONTINUOUS
 10
113.1675483937
 20
252.553553554
 40
0.27
100
AcDbArc
 50
180.0
 51
270.0
  0
ENDBLK
  5
3A5
100
AcDbEntity
  8
0
  6
BYBLOCK
 62
0
100
AcDbBlockEnd
  0
BLOCK
  5
3A6
100
AcDbEntity
  8
0
100
AcDbBlockBegin
  2
_FILLED
 70
64
 10
0.0
 20
0.0
  3
_FILLED
  1

  0
SOLID
  5
3A7
100
AcDbEntity
  8
0
  6
BYBLOCK
 62
0
100
AcDbTrace
 10
0.0
 20
0.0
 11
-1.0
 21
0.1428571429
 12
-1.0
 22
-0.1428571429
 13
-1.0
 23
-0.1428571429
  0
ENDBLK
  5
3A8
100
AcDbEntity
  8
0
  6
BYBLOCK
 62
0
100
AcDbBlockEnd
  0
BLOCK
  5
3A9
100
AcDbEntity
  8
0
100
AcDbBlockBegin
 62
2
  6
CONTINUOUS
  2
*D0
 70
65
 10
0.0
 20
0.0
  3
*D0
  1

  0
MTEXT
  5
3AA
100
AcDbEntity
  8
0
100
AcDbMText
 62
5
  6
CONTINUOUS
  7
TEXTSTYLE_1
 71
2
 72
1
 10
109.4975483937
 20
278.533553554
 30
0.0
 11
1.0
 21
0.0
 31
0.0
 44
0.9
  1
{\Fgdt;n}\Fswisscl.ttf;9.8
 40
3.0
 41
8.7096774194
  0
LINE
  5
3AB
100
AcDbEntity
  8
0
100
AcDbLine
 62
2
  6
CONTINUOUS
 10
104.3654975861
 20
256.783553554
 11
104.3654975861
 21
275.533553554
  0
LINE
  5
3AC
100
AcDbEntity
  8
0
100
AcDbLine
 62
2
  6
CONTINUOUS
 10
104.3654975861
 20
275.533553554
 11
104.3654975861
 21
275.783553554
  0
LINE
  5
3AD
100
AcDbEntity
  8
0
100
AcDbLine
 62
2
  6
CONTINUOUS
 10
114.6295992012
 20
256.783553554
 11
114.6295992012
 21
275.533553554
  0
LINE
  5
3AE
100
AcDbEntity
  8
0
100
AcDbLine
 62
2
  6
CONTINUOUS
 10
114.6295992012
 20
275.533553554
 11
114.6295992012
 21
275.783553554
  0
LINE
  5
3AF
100
AcDbEntity
  8
0
100
AcDbLine
 62
2
  6
CONTINUOUS
 10
104.3654975861
 20
274.783553554
 11
99.3654975861
 21
274.783553554
  0
LINE
  5
3B0
100
AcDbEntity
  8
0
100
AcDbLine
 62
2
  6
CONTINUOUS
 10
99.3654975861
 20
274.783553554
 11
109.4975483937
 21
274.783553554
  0
LINE
  5
3B1
100
AcDbEntity
  8
0
100
AcDbLine
 62
2
  6
CONTINUOUS
 10
114.6295992012
 20
274.783553554
 11
119.6295992012
 21
274.783553554
  0
LINE
  5
3B2
100
AcDbEntity
  8
0
100
AcDbLine
 62
2
  6
CONTINUOUS
 10
119.6295992012
 20
274.783553554
 11
109.4975483937
 21
274.783553554
  0
INSERT
  5
3B3
100
AcDbEntity
  8
0
100
AcDbBlockReference
 62
2
  6
CONTINUOUS
  2
_FILLED
 10
104.3654975861
 20
274.783553554
 41
3.5
 42
3.5
 43
3.5
  0
INSERT
  5
3B4
100
AcDbEntity
  8
0
100
AcDbBlockReference
 62
2
  6
CONTINUOUS
  2
_FILLED
 10
114.6295992012
 20
274.783553554
 41
3.5
 42
3.5
 43
3.5
 50
180.0
  0
ENDBLK
  5
3B5
100
AcDbEntity
  8
0
  6
BYBLOCK
 62
0
100
AcDbBlockEnd
  0
BLOCK
  5
3B6
100
AcDbEntity
  8
0
100
AcDbBlockBegin
 62
2
  6
CONTINUOUS
  2
*D1
 70
65
 10
0.0
 20
0.0
  3
*D1
  1

  0
MTEXT
  5
3B7
100
AcDbEntity
  8
0
100
AcDbMText
 62
5
  6
CONTINUOUS
  7
TEXTSTYLE_3
 71
2
 72
1
 10
126.2475483937
 20
55.6763627245
 30
0.0
 11
0.0
 21
1.0
 31
0.0
 44
0.9
  1
11
 40
3.0
 41
3.7634408602
  0
LINE
  5
3B8
100
AcDbEntity
  8
0
100
AcDbLine
 62
2
  6
CONTINUOUS
 10
110.5541727207
 20
50.1763627245
 11
130.9975483937
 21
50.1763627245
  0
LINE
  5
3B9
100
AcDbEntity
  8
0
100
AcDbLine
 62
2
  6
CONTINUOUS
 10
112.8978407753
 20
61.1763627245
 11
130.9975483937
 21
61.1763627245
  0
LINE
  5
3BA
100
AcDbEntity
  8
0
100
AcDbLine
 62
2
  6
CONTINUOUS
 10
129.9975483937
 20
50.1763627245
 11
129.9975483937
 21
55.6763627245
  0
LINE
  5
3BB
100
AcDbEntity
  8
0
100
AcDbLine
 62
2
  6
CONTINUOUS
 10
129.9975483937
 20
61.1763627245
 11
129.9975483937
 21
55.6763627245
  0
INSERT
  5
3BC
100
AcDbEntity
  8
0
100
AcDbBlockReference
 62
2
  6
CONTINUOUS
  2
_FILLED
 10
129.9975483937
 20
50.1763627245
 41
3.5
 42
3.5
 43
3.5
 50
270.0
  0
INSERT
  5
3BD
100
AcDbEntity
  8
0
100
AcDbBlockReference
 62
2
  6
CONTINUOUS
  2
_FILLED
 10
129.9975483937
 20
61.1763627245
 41
3.5
 42
3.5
 43
3.5
 50
90.0
  0
ENDBLK
  5
3BE
100
AcDbEntity
  8
0
  6
BYBLOCK
 62
0
100
AcDbBlockEnd
  0
BLOCK
  5
3BF
100
AcDbEntity
  8
0
100
AcDbBlockBegin
 62
2
  6
CONTINUOUS
  2
*D2
 70
65
 10
0.0
 20
0.0
  3
*D2
  1

  0
MTEXT
  5
3C0
100
AcDbEntity
  8
0
100
AcDbMText
 62
5
  6
CONTINUOUS
  7
TEXTSTYLE_1
 71
2
 72
1
 10
109.4975483937
 20
18.9263627245
 30
0.0
 11
1.0
 21
0.0
 31
0.0
 44
0.9
  1
{\Fgdt;n}\Fswisscl.ttf;11
 40
3.0
 41
7.7634408602
  0
LINE
  5
3C1
100
AcDbEntity
  8
0
100
AcDbLine
 62
2
  6
CONTINUOUS
 10
103.9975483937
 20
64.8763627245
 11
103.9975483937
 21
14.1763627245
  0
LINE
  5
3C2
100
AcDbEntity
  8
0
100
AcDbLine
 62
2
  6
CONTINUOUS
 10
114.9975483937
 20
64.8763627245
 11
114.9975483937
 21
37.5674244763
  0
LINE
  5
3C3
100
AcDbEntity
  8
0
100
AcDbLine
 62
2
  6
CONTINUOUS
 10
114.9975483937
 20
33.8560728872
 11
114.9975483937
 21
14.1763627245
  0
LINE
  5
3C4
100
AcDbEntity
  8
0
100
AcDbLine
 62
2
  6
CONTINUOUS
 10
103.9975483937
 20
15.1763627245
 11
98.9975483937
 21
15.1763627245
  0
LINE
  5
3C5
100
AcDbEntity
  8
0
100
AcDbLine
 62
2
  6
CONTINUOUS
 10
98.9975483937
 20
15.1763627245
 11
109.4975483937
 21
15.1763627245
  0
LINE
  5
3C6
100
AcDbEntity
  8
0
100
AcDbLine
 62
2
  6
CONTINUOUS
 10
114.9975483937
 20
15.1763627245
 11
119.9975483937
 21
15.1763627245
  0
LINE
  5
3C7
100
AcDbEntity
  8
0
100
AcDbLine
 62
2
  6
CONTINUOUS
 10
119.9975483937
 20
15.1763627245
 11
109.4975483937
 21
15.1763627245
  0
INSERT
  5
3C8
100
AcDbEntity
  8
0
100
AcDbBlockReference
 62
2
  6
CONTINUOUS
  2
_FILLED
 10
103.9975483937
 20
15.1763627245
 41
3.5
 42
3.5
 43
3.5
  0
INSERT
  5
3C9
100
AcDbEntity
  8
0
100
AcDbBlockReference
 62
2
  6
CONTINUOUS
  2
_FILLED
 10
114.9975483937
 20
15.1763627245
 41
3.5
 42
3.5
 43
3.5
 50
180.0
  0
ENDBLK
  5
3CA
100
AcDbEntity
  8
0
  6
BYBLOCK
 62
0
100
AcDbBlockEnd
  0
BLOCK
  5
3CB
100
AcDbEntity
  8
0
100
AcDbBlockBegin
 62
2
  6
CONTINUOUS
  2
*D3
 70
65
 10
0.0
 20
0.0
  3
*D3
  1

  0
MTEXT
  5
3CC
100
AcDbEntity
  8
0
100
AcDbMText
 62
5
  6
CONTINUOUS
  7
TEXTSTYLE_1
 71
2
 72
1
 10
109.4975483937
 20
28.9263627245
 30
0.0
 11
1.0
 21
0.0
 31
0.0
 44
0.9
  1
{\Fgdt;n}\Fswisscl.ttf;10
 40
3.0
 41
7.7634408602
  0
LINE
  5
3CD
100
AcDbEntity
  8
0
100
AcDbLine
 62
2
  6
CONTINUOUS
 10
104.4975483937
 20
65.8763627245
 11
104.4975483937
 21
24.1763627245
  0
LINE
  5
3CE
100
AcDbEntity
  8
0
100
AcDbLine
 62
2
  6
CONTINUOUS
 10
114.4975483937
 20
65.8763627245
 11
114.4975483937
 21
37.2466903884
  0
LINE
  5
3CF
100
AcDbEntity
  8
0
100
AcDbLine
 62
2
  6
CONTINUOUS
 10
114.4975483937
 20
34.0851686643
 11
114.4975483937
 21
24.1763627245
  0
LINE
  5
3D0
100
AcDbEntity
  8
0
100
AcDbLine
 62
2
  6
CONTINUOUS
 10
104.4975483937
 20
25.1763627245
 11
99.4975483937
 21
25.1763627245
  0
LINE
  5
3D1
100
AcDbEntity
  8
0
100
AcDbLine
 62
2
  6
CONTINUOUS
 10
99.4975483937
 20
25.1763627245
 11
109.4975483937
 21
25.1763627245
  0
LINE
  5
3D2
100
AcDbEntity
  8
0
100
AcDbLine
 62
2
  6
CONTINUOUS
 10
114.4975483937
 20
25.1763627245
 11
119.4975483937
 21
25.1763627245
  0
LINE
  5
3D3
100
AcDbEntity
  8
0
100
AcDbLine
 62
2
  6
CONTINUOUS
 10
119.4975483937
 20
25.1763627245
 11
109.4975483937
 21
25.1763627245
  0
INSERT
  5
3D4
100
AcDbEntity
  8
0
100
AcDbBlockReference
 62
2
  6
CONTINUOUS
  2
_FILLED
 10
104.4975483937
 20
25.1763627245
 41
3.5
 42
3.5
 43
3.5
  0
INSERT
  5
3D5
100
AcDbEntity
  8
0
100
AcDbBlockReference
 62
2
  6
CONTINUOUS
  2
_FILLED
 10
114.4975483937
 20
25.1763627245
 41
3.5
 42
3.5
 43
3.5
 50
180.0
  0
ENDBLK
  5
3D6
100
AcDbEntity
  8
0
  6
BYBLOCK
 62
0
100
AcDbBlockEnd
  0
BLOCK
  5
3D7
100
AcDbEntity
  8
0
100
AcDbBlockBegin
 62
2
  6
CONTINUOUS
  2
*D4
 70
65
 10
0.0
 20
0.0
  3
*D4
  1

  0
MTEXT
  5
3D8
100
AcDbEntity
  8
0
100
AcDbMText
 62
5
  6
CONTINUOUS
  7
TEXTSTYLE_3
 71
1
 72
1
 10
116.0520311523
 20
38.9263627245
 30
0.0
 11
1.0
 21
0.0
 31
0.0
 44
0.9
  1
M5
 40
3.0
 41
4.7634408602
  0
LINE
  5
3D9
100
AcDbEntity
  8
0
100
AcDbLine
 62
2
  6
CONTINUOUS
 10
106.9975483937
 20
52.6763627245
 11
106.9975483937
 21
34.1763627245
  0
LINE
  5
3DA
100
AcDbEntity
  8
0
100
AcDbLine
 62
2
  6
CONTINUOUS
 10
111.9975483937
 20
52.6763627245
 11
111.9975483937
 21
34.1763627245
  0
LINE
  5
3DB
100
AcDbEntity
  8
0
100
AcDbLine
 62
2
  6
CONTINUOUS
 10
106.9975483937
 20
35.1763627245
 11
101.9975483937
 21
35.1763627245
  0
LINE
  5
3DC
100
AcDbEntity
  8
0
100
AcDbLine
 62
2
  6
CONTINUOUS
 10
101.9975483937
 20
35.1763627245
 11
109.4975483937
 21
35.1763627245
  0
LINE
  5
3DD
100
AcDbEntity
  8
0
100
AcDbLine
 62
2
  6
CONTINUOUS
 10
111.9975483937
 20
35.1763627245
 11
120.8154720125
 21
35.1763627245
  0
LINE
  5
3DE
100
AcDbEntity
  8
0
100
AcDbLine
 62
2
  6
CONTINUOUS
 10
120.8154720125
 20
35.1763627245
 11
109.4975483937
 21
35.1763627245
  0
INSERT
  5
3DF
100
AcDbEntity
  8
0
100
AcDbBlockReference
 62
2
  6
CONTINUOUS
  2
_FILLED
 10
106.9975483937
 20
35.1763627245
 41
3.5
 42
3.5
 43
3.5
  0
INSERT
  5
3E0
100
AcDbEntity
  8
0
100
AcDbBlockReference
 62
2
  6
CONTINUOUS
  2
_FILLED
 10
111.9975483937
 20
35.1763627245
 41
3.5
 42
3.5
 43
3.5
 50
180.0
  0
ENDBLK
  5
3E1
100
AcDbEntity
  8
0
  6
BYBLOCK
 62
0
100
AcDbBlockEnd
  0
BLOCK
  5
3E2
100
AcDbEntity
  8
0
100
AcDbBlockBegin
 62
2
  6
CONTINUOUS
  2
*D5
 70
65
 10
0.0
 20
0.0
  3
*D5
  1

  0
MTEXT
  5
3E3
100
AcDbEntity
  8
0
100
AcDbMText
 62
5
  6
CONTINUOUS
  7
TEXTSTYLE_3
 71
2
 72
1
 10
85.2475483937
 20
257.283553554
 30
0.0
 11
0.0
 21
1.0
 31
0.0
 44
0.9
  1
5
 40
3.0
 41
1.8817204301
  0
LINE
  5
3E4
100
AcDbEntity
  8
0
100
AcDbLine
 62
2
  6
CONTINUOUS
 10
104.3654975861
 20
254.783553554
 11
87.9975483937
 21
254.783553554
  0
LINE
  5
3E5
100
AcDbEntity
  8
0
100
AcDbLine
 62
2
  6
CONTINUOUS
 10
106.0975483937
 20
259.783553554
 11
87.9975483937
 21
259.783553554
  0
LINE
  5
3E6
100
AcDbEntity
  8
0
100
AcDbLine
 62
2
  6
CONTINUOUS
 10
88.9975483937
 20
254.783553554
 11
88.9975483937
 21
249.783553554
  0
LINE
  5
3E7
100
AcDbEntity
  8
0
100
AcDbLine
 62
2
  6
CONTINUOUS
 10
88.9975483937
 20
249.783553554
 11
88.9975483937
 21
257.283553554
  0
LINE
  5
3E8
100
AcDbEntity
  8
0
100
AcDbLine
 62
2
  6
CONTINUOUS
 10
88.9975483937
 20
259.783553554
 11
88.9975483937
 21
264.783553554
  0
LINE
  5
3E9
100
AcDbEntity
  8
0
100
AcDbLine
 62
2
  6
CONTINUOUS
 10
88.9975483937
 20
264.783553554
 11
88.9975483937
 21
257.283553554
  0
INSERT
  5
3EA
100
AcDbEntity
  8
0
100
AcDbBlockReference
 62
2
  6
CONTINUOUS
  2
_FILLED
 10
88.9975483937
 20
254.783553554
 41
3.5
 42
3.5
 43
3.5
 50
90.0
  0
INSERT
  5
3EB
100
AcDbEntity
  8
0
100
AcDbBlockReference
 62
2
  6
CONTINUOUS
  2
_FILLED
 10
88.9975483937
 20
259.783553554
 41
3.5
 42
3.5
 43
3.5
 50
270.0
  0
ENDBLK
  5
3EC
100
AcDbEntity
  8
0
  6
BYBLOCK
 62
0
100
AcDbBlockEnd
  0
BLOCK
  5
3ED
100
AcDbEntity
  8
0
100
AcDbBlockBegin
 62
2
  6
CONTINUOUS
  2
*D6
 70
65
 10
0.0
 20
0.0
  3
*D6
  1

  0
MTEXT
  5
3EE
100
AcDbEntity
  8
0
100
AcDbMText
 62
5
  6
CONTINUOUS
  7
STANDARD
 71
2
 72
1
 10
126.2475483937
 20
80.5563952848
 30
0.0
 11
0.0
 21
1.0
 31
0.0
 44
0.9
  1
(285)
 40
3.0
 41
14.1428571429
  0
LINE
  5
3EF
100
AcDbEntity
  8
0
100
AcDbLine
 62
2
  6
CONTINUOUS
 10
112.8978407753
 20
61.1763627245
 11
130.9975483937
 21
61.1763627245
  0
LINE
  5
3F0
100
AcDbEntity
  8
0
100
AcDbLine
 62
2
  6
CONTINUOUS
 10
114.4975483937
 20
99.9364278451
 11
130.9975483937
 21
99.9364278451
  0
LINE
  5
3F1
100
AcDbEntity
  8
0
100
AcDbLine
 62
2
  6
CONTINUOUS
 10
129.9975483937
 20
61.1763627245
 11
129.9975483937
 21
80.5563952848
  0
LINE
  5
3F2
100
AcDbEntity
  8
0
100
AcDbLine
 62
2
  6
CONTINUOUS
 10
129.9975483937
 20
99.9364278451
 11
129.9975483937
 21
80.5563952848
  0
INSERT
  5
3F3
100
AcDbEntity
  8
0
100
AcDbBlockReference
 62
2
  6
CONTINUOUS
  2
_FILLED
 10
129.9975483937
 20
61.1763627245
 41
3.5
 42
3.5
 43
3.5
 50
270.0
  0
INSERT
  5
3F4
100
AcDbEntity
  8
0
100
AcDbBlockReference
 62
2
  6
CONTINUOUS
  2
_FILLED
 10
129.9975483937
 20
99.9364278451
 41
3.5
 42
3.5
 43
3.5
 50
90.0
  0
ENDBLK
  5
3F5
100
AcDbEntity
  8
0
  6
BYBLOCK
 62
0
100
AcDbBlockEnd
  0
BLOCK
  5
3F6
100
AcDbEntity
  8
0
100
AcDbBlockBegin
 62
2
  6
CONTINUOUS
  2
*D7
 70
65
 10
0.0
 20
0.0
  3
*D7
  1

  0
MTEXT
  5
3F7
100
AcDbEntity
  8
0
100
AcDbMText
 62
5
  6
CONTINUOUS
  7
STANDARD
 71
2
 72
1
 10
126.2475483937
 20
166.3599906995
 30
0.0
 11
0.0
 21
1.0
 31
0.0
 44
0.9
  1
1100
 40
3.0
 41
12.2142857143
  0
LINE
  5
3F8
100
AcDbEntity
  8
0
100
AcDbLine
 62
2
  6
CONTINUOUS
 10
114.4975483937
 20
99.9364278451
 11
130.9975483937
 21
99.9364278451
  0
LINE
  5
3F9
100
AcDbEntity
  8
0
100
AcDbLine
 62
2
  6
CONTINUOUS
 10
114.4975483937
 20
232.783553554
 11
130.9975483937
 21
232.783553554
  0
LINE
  5
3FA
100
AcDbEntity
  8
0
100
AcDbLine
 62
2
  6
CONTINUOUS
 10
129.9975483937
 20
99.9364278451
 11
129.9975483937
 21
166.3599906995
  0
LINE
  5
3FB
100
AcDbEntity
  8
0
100
AcDbLine
 62
2
  6
CONTINUOUS
 10
129.9975483937
 20
232.783553554
 11
129.9975483937
 21
166.3599906995
  0
INSERT
  5
3FC
100
AcDbEntity
  8
0
100
AcDbBlockReference
 62
2
  6
CONTINUOUS
  2
_FILLED
 10
129.9975483937
 20
99.9364278451
 41
3.5
 42
3.5
 43
3.5
 50
270.0
  0
INSERT
  5
3FD
100
AcDbEntity
  8
0
100
AcDbBlockReference
 62
2
  6
CONTINUOUS
  2
_FILLED
 10
129.9975483937
 20
232.783553554
 41
3.5
 42
3.5
 43
3.5
 50
90.0
  0
ENDBLK
  5
3FE
100
AcDbEntity
  8
0
  6
BYBLOCK
 62
0
100
AcDbBlockEnd
  0
BLOCK
  5
3FF
100
AcDbEntity
  8
0
100
AcDbBlockBegin
 62
2
  6
CONTINUOUS
  2
*D8
 70
65
 10
0.0
 20
0.0
  3
*D8
  1

  0
MTEXT
  5
400
100
AcDbEntity
  8
0
100
AcDbMText
 62
5
  6
CONTINUOUS
  7
STANDARD
 71
2
 72
1
 10
85.2475483937
 20
146.9799581392
 30
0.0
 11
0.0
 21
1.0
 31
0.0
 44
0.9
  1
1385
 40
3.0
 41
12.5357142857
  0
LINE
  5
401
100
AcDbEntity
  8
0
100
AcDbLine
 62
2
  6
CONTINUOUS
 10
104.4975483937
 20
232.783553554
 11
87.9975483937
 21
232.783553554
  0
LINE
  5
402
100
AcDbEntity
  8
0
100
AcDbLine
 62
2
  6
CONTINUOUS
 10
106.097256012
 20
61.1763627245
 11
87.9975483937
 21
61.1763627245
  0
LINE
  5
403
100
AcDbEntity
  8
0
100
AcDbLine
 62
2
  6
CONTINUOUS
 10
88.9975483937
 20
232.783553554
 11
88.9975483937
 21
146.9799581392
  0
LINE
  5
404
100
AcDbEntity
  8
0
100
AcDbLine
 62
2
  6
CONTINUOUS
 10
88.9975483937
 20
61.1763627245
 11
88.9975483937
 21
146.9799581392
  0
INSERT
  5
405
100
AcDbEntity
  8
0
100
AcDbBlockReference
 62
2
  6
CONTINUOUS
  2
_FILLED
 10
88.9975483937
 20
232.783553554
 41
3.5
 42
3.5
 43
3.5
 50
90.0
  0
INSERT
  5
406
100
AcDbEntity
  8
0
100
AcDbBlockReference
 62
2
  6
CONTINUOUS
  2
_FILLED
 10
88.9975483937
 20
61.1763627245
 41
3.5
 42
3.5
 43
3.5
 50
270.0
  0
ENDBLK
  5
407
100
AcDbEntity
  8
0
  6
BYBLOCK
 62
0
100
AcDbBlockEnd
  0
BLOCK
  5
408
100
AcDbEntity
  8
0
100
AcDbBlockBegin
 62
2
  6
CONTINUOUS
  2
*D9
 70
65
 10
0.0
 20
0.0
  3
*D9
  1

  0
MTEXT
  5
409
100
AcDbEntity
  8
0
100
AcDbMText
 62
5
  6
CONTINUOUS
  7
TEXTSTYLE_1
 71
2
 72
1
 10
109.4975483937
 20
160.0964440137
 30
0.0
 11
1.0
 21
0.0
 31
0.0
 44
0.9
  1
{\Fgdt;n}\Ftxt;10
 40
3.0
 41
12.1071428571
  0
LINE
  5
40A
100
AcDbEntity
  8
0
100
AcDbLine
 62
2
  6
CONTINUOUS
 10
114.4975483937
 20
156.3464440137
 11
109.4975483937
 21
156.3464440137
  0
LINE
  5
40B
100
AcDbEntity
  8
0
100
AcDbLine
 62
2
  6
CONTINUOUS
 10
104.4975483937
 20
156.3464440137
 11
109.4975483937
 21
156.3464440137
  0
INSERT
  5
40C
100
AcDbEntity
  8
0
100
AcDbBlockReference
 62
2
  6
CONTINUOUS
  2
_FILLED
 10
114.4975483937
 20
156.3464440137
 41
3.5
 42
3.5
 43
3.5
  0
INSERT
  5
40D
100
AcDbEntity
  8
0
100
AcDbBlockReference
 62
2
  6
CONTINUOUS
  2
_FILLED
 10
104.4975483937
 20
156.3464440137
 41
3.5
 42
3.5
 43
3.5
 50
180.0
  0
ENDBLK
  5
40E
100
AcDbEntity
  8
0
  6
BYBLOCK
 62
0
100
AcDbBlockEnd
  0
ENDSEC
  0
SECTION
  2
ENTITIES
  0
MTEXT
  5
40F
100
AcDbEntity
  8
0
100
AcDbMText
 62
5
  6
CONTINUOUS
  7
TEXTSTYLE_2
 71
1
 72
1
 10
20.3374669412
 20
41.2463391385
 30
0.0
 11
0.0
 21
1.0
 31
0.0
 44
0.9
  1
***/ Proprietary rights apply in accordance with ISO 16016.
 40
2.5
 41
71.9444444444
  0
MTEXT
  5
410
100
AcDbEntity
  8
0
100
AcDbMText
 62
5
  6
CONTINUOUS
  7
TEXTSTYLE_2
 71
1
 72
1
 10
154.1193235217
 20
26.8390223614
 30
0.0
 11
1.0
 21
0.0
 31
0.0
 44
0.9
  1
B_9036_0003_BD01\P 
 40
4.0
 41
41.6200716846
  0
DIMENSION
  5
411
100
AcDbEntity
  8
0
100
AcDbDimension
 62
2
  6
CONTINUOUS
  2
*D0
 10
114.6295992012
 20
274.783553554
 11
109.4975483937
 21
274.783553554
 70
160
 71
2
 42
10.2641016151
  1
%%c9.8
  3
DIMSTYLE_1
100
AcDbAlignedDimension
 13
104.3654975861
 23
256.783553554
 14
114.6295992012
 24
256.783553554
100
AcDbRotatedDimension
  0
DIMENSION
  5
412
100
AcDbEntity
  8
0
100
AcDbDimension
 62
2
  6
CONTINUOUS
  2
*D1
 10
129.9975483937
 20
61.1763627245
 11
129.9975483937
 21
55.6763627245
 70
160
 71
2
 42
11.0
  3
DIMSTYLE_1
100
AcDbAlignedDimension
 13
110.5541727207
 23
50.1763627245
 14
112.8978407753
 24
61.1763627245
 50
90.0
100
AcDbRotatedDimension
  0
DIMENSION
  5
413
100
AcDbEntity
  8
0
100
AcDbDimension
 62
2
  6
CONTINUOUS
  2
*D2
 10
114.9975483937
 20
15.1763627245
 11
109.4975483937
 21
15.1763627245
 70
160
 71
2
 42
11.0
  1
%%c<>
  3
DIMSTYLE_1
100
AcDbAlignedDimension
 13
103.9975483937
 23
64.8763627245
 14
114.9975483937
 24
64.8763627245
100
AcDbRotatedDimension
  0
DIMENSION
  5
414
100
AcDbEntity
  8
0
100
AcDbDimension
 62
2
  6
CONTINUOUS
  2
*D3
 10
114.4975483937
 20
25.1763627245
 11
109.4975483937
 21
25.1763627245
 70
160
 71
2
 42
10.0
  1
%%c<>
  3
DIMSTYLE_1
100
AcDbAlignedDimension
 13
104.4975483937
 23
65.8763627245
 14
114.4975483937
 24
65.8763627245
100
AcDbRotatedDimension
  0
DIMENSION
  5
415
100
AcDbEntity
  8
0
100
AcDbDimension
 62
2
  6
CONTINUOUS
  2
*D4
 10
111.9975483937
 20
35.1763627245
 11
118.4337515824
 21
35.1763627245
 70
160
 71
1
 42
5.0
  1
M<>
  3
DIMSTYLE_2
100
AcDbAlignedDimension
 13
106.9975483937
 23
52.6763627245
 14
111.9975483937
 24
52.6763627245
100
AcDbRotatedDimension
  0
DIMENSION
  5
416
100
AcDbEntity
  8
0
100
AcDbDimension
 62
2
  6
CONTINUOUS
  2
*D5
 10
88.9975483937
 20
259.783553554
 11
88.9975483937
 21
257.283553554
 70
160
 71
2
 42
5.0
  3
DIMSTYLE_2
100
AcDbAlignedDimension
 13
104.3654975861
 23
254.783553554
 14
106.0975483937
 24
259.783553554
 50
90.0
100
AcDbRotatedDimension
  0
DIMENSION
  5
417
100
AcDbEntity
  8
0
100
AcDbDimension
 62
2
  6
CONTINUOUS
  2
*D6
 10
129.9975483937
 20
99.9364278451
 11
129.9975483937
 21
80.5563952848
 70
160
 71
2
 42
285.0
  1
(<>)
  3
DIMSTYLE_3
100
AcDbAlignedDimension
 13
112.8978407753
 23
61.1763627245
 14
114.4975483937
 24
99.9364278451
 50
90.0
100
AcDbRotatedDimension
  0
DIMENSION
  5
418
100
AcDbEntity
  8
0
100
AcDbDimension
 62
2
  6
CONTINUOUS
  2
*D7
 10
129.9975483937
 20
232.783553554
 11
129.9975483937
 21
166.3599906995
 70
160
 71
2
 42
1100.0
  3
DIMSTYLE_4
100
AcDbAlignedDimension
 13
114.4975483937
 23
99.9364278451
 14
114.4975483937
 24
232.783553554
 50
90.0
100
AcDbRotatedDimension
  0
DIMENSION
  5
419
100
AcDbEntity
  8
0
100
AcDbDimension
 62
2
  6
CONTINUOUS
  2
*D8
 10
88.9975483937
 20
61.1763627245
 11
88.9975483937
 21
146.9799581392
 70
160
 71
2
 42
1385.0
  3
DIMSTYLE_4
100
AcDbAlignedDimension
 13
104.4975483937
 23
232.783553554
 14
106.097256012
 24
61.1763627245
 50
270.0
100
AcDbRotatedDimension
  0
DIMENSION
  5
41A
100
AcDbEntity
  8
0
100
AcDbDimension
 62
2
  6
CONTINUOUS
  2
*D9
 10
104.4975483937
 20
156.3464440137
 11
109.4975483937
 21
156.3464440137
 70
160
 71
2
 42
10.0
  1
%%c<>
  3
DIMSTYLE_5
100
AcDbAlignedDimension
 13
114.4975483937
 23
99.9364278451
 14
104.4975483937
 24
99.9364278451
 50
180.0
100
AcDbRotatedDimension
  0
LINE
  5
41B
100
AcDbEntity
  8
0
100
AcDbLine
 62
2
  6
CONTINUOUS
 10
15.0
 20
5.0
 11
205.0
 21
5.0
  0
LINE
  5
41C
100
AcDbEntity
  8
0
100
AcDbLine
 62
5
  6
CONTINUOUS
 10
14.987701899
 20
292.0453045112
 11
14.987701899
 21
5.0453045112
  0
LINE
  5
41D
100
AcDbEntity
  8
0
100
AcDbLine
 62
5
  6
CONTINUOUS
 10
205.0
 20
291.999999958
 11
205.0
 21
4.999999958
  0
LINE
  5
41E
100
AcDbEntity
  8
0
100
AcDbLine
 62
2
  6
CONTINUOUS
 10
205.0
 20
292.0
 11
15.0
 21
292.0
  0
LINE
  5
41F
100
AcDbEntity
  8
0
100
AcDbLine
 62
2
  6
CONTINUOUS
 10
104.4975483937
 20
183.875725553
 11
114.4975483937
 21
183.875725553
  0
LINE
  5
420
100
AcDbEntity
  8
S-AXIS
100
AcDbLine
 62
7
  6
CENTER
 10
109.4975483937
 20
261.543553554
 11
109.4975483937
 21
162.5918279127
  0
LINE
  5
421
100
AcDbEntity
  8
S-AXIS
100
AcDbLine
 62
7
  6
CENTER
 10
109.4975483937
 20
152.5241423954
 11
109.4975483937
 21
47.1413438558
  0
LINE
  5
422
100
AcDbEntity
  8
0
100
AcDbLine
 62
2
  6
CONTINUOUS
 10
105.8702461208
 20
82.7970551163
 11
112.8975483937
 21
82.7970551163
  0
LINE
  5
423
100
AcDbEntity
  8
0
100
AcDbLine
 62
2
  6
CONTINUOUS
 10
114.4975483937
 20
181.3276442493
 11
104.4975483937
 21
181.3276442493
  0
LINE
  5
424
100
AcDbEntity
  8
0
100
AcDbLine
 62
2
  6
CONTINUOUS
 10
114.4975483937
 20
79.258146708
 11
104.4975483937
 21
79.258146708
  0
INSERT
  5
425
100
AcDbEntity
  8
GU_BKS_BL0
100
AcDbBlockReference
  2
GU_BKS_BL0
 10
24.0507222011
 20
14.4607358413
  0
INSERT
  5
426
100
AcDbEntity
  8
C00746000_BL1
100
AcDbBlockReference
  2
C00746000_BL1
 10
109.4975483937
 20
70.0263627245
  0
INSERT
  5
427
100
AcDbEntity
  8
X00906032_BL2
100
AcDbBlockReference
  2
X00906032_BL2
 10
109.4975483937
 20
166.3599906995
  0
INSERT
  5
428
100
AcDbEntity
  8
C00746000_BL3
100
AcDbBlockReference
  2
C00746000_BL3
 10
109.4975483937
 20
76.7172547162
  0
INSERT
  5
429
100
AcDbEntity
  8
C00959000_BL4
100
AcDbBlockReference
  2
C00959000_BL4
 10
109.7746628991
 20
75.0563952848
  0
INSERT
  5
42A
100
AcDbEntity
  8
C98112000_BL5
100
AcDbBlockReference
  2
C98112000_BL5
 10
109.4975483937
 20
63.5263627245
  0
INSERT
  5
42B
100
AcDbEntity
  8
C00717000_BL6
100
AcDbBlockReference
  2
C00717000_BL6
 10
109.4975483937
 20
64.8763627245
  0
INSERT
  5
42C
100
AcDbEntity
  8
C98109000_BL7
100
AcDbBlockReference
  2
C98109000_BL7
 10
109.497719115
 20
90.6499940115
  0
INSERT
  5
42D
100
AcDbEntity
  8
C00941000_BL8
100
AcDbBlockReference
  2
C00941000_BL8
 10
109.4975483937
 20
247.283553554
  0
ENDSEC
  0
SECTION
  2
OBJECTS
  0
DICTIONARY
  5
C
100
AcDbDictionary
280
0
281
1
  3
ACAD_GROUP
350
D
  3
ACAD_MLINESTYLE
350
17
  3
ACAD_LAYOUT
350
1A
  3
ACAD_PLOTSETTINGS
350
19
  3
ACAD_PLOTSTYLENAME
350
E
  0
DICTIONARY
  5
D
102
{ACAD_REACTORS
330
C
102
}
100
AcDbDictionary
280
0
281
1
  0
ACDBDICTIONARYWDFLT
  5
E
102
{ACAD_REACTORS
330
C
102
}
100
AcDbDictionary
281
1
  3
Normal
350
F
100
AcDbDictionaryWithDefault
340
F
  0
DICTIONARY
  5
17
102
{ACAD_REACTORS
330
C
102
}
100
AcDbDictionary
280
0
281
1
  3
Standard
350
18
  0
DICTIONARY
  5
19
102
{ACAD_REACTORS
330
C
102
}
100
AcDbDictionary
281
1
  0
DICTIONARY
  5
1A
102
{ACAD_REACTORS
330
C
102
}
100
AcDbDictionary
281
1
  3
Model
350
42E
  3
Layout1
350
42F
  0
ACDBPLACEHOLDER
  5
F
102
{ACAD_REACTORS
330
E
102
}
  0
MLINESTYLE
  5
18
102
{ACAD_REACTORS
330
17
102
}
100
AcDbMlineStyle
  2
STANDARD
 70
0
  3

 62
256
 51
90.0
 52
90.0
 71
2
 49
0.5
 62
256
  6
BYLAYER
 49
-0.5
 62
256
  6
BYLAYER
  0
LAYOUT
  5
42E
102
{ACAD_REACTORS
330
1A
102
}
100
AcDbPlotSettings
  1

  2
none_device
  4

  6

 40
0.0
 41
0.0
 42
0.0
 43
0.0
 44
210.0
 45
297.0
 46
0.0
 47
0.0
 48
0.0
 49
0.0
140
0.0
141
0.0
142
1.0
143
1.0
 70
1024
 72
1
 73
0
 74
0
  7

 75
0
147
1.0
148
0.0
149
0.0
100
AcDbLayout
  1
Model
 70
0
 71
0
 10
0.0
 20
0.0
 11
210.0
 21
297.0
 12
0.0
 22
0.0
 32
0.0
 14
0.0
 24
0.0
 34
0.0
 15
0.0
 25
0.0
 35
0.0
146
0.0
 13
0.0
 23
0.0
 33
0.0
 16
1.0
 26
0.0
 36
0.0
 17
0.0
 27
1.0
 37
0.0
 76
0
330
21A
345
0
346
0
  0
LAYOUT
  5
42F
102
{ACAD_REACTORS
330
1A
102
}
100
AcDbPlotSettings
  1

  2
none_device
  4

  6

 40
0.0
 41
0.0
 42
0.0
 43
0.0
 44
210.0
 45
297.0
 46
0.0
 47
0.0
 48
0.0
 49
0.0
140
0.0
141
0.0
142
1.0
143
1.0
 70
0
 72
1
 73
0
 74
0
  7

 75
0
147
1.0
148
0.0
149
0.0
100
AcDbLayout
  1
Layout1
 70
0
 71
1
 10
0.0
 20
0.0
 11
210.0
 21
297.0
 12
0.0
 22
0.0
 32
0.0
 14
0.0
 24
0.0
 34
0.0
 15
0.0
 25
0.0
 35
0.0
146
0.0
 13
0.0
 23
0.0
 33
0.0
 16
1.0
 26
0.0
 36
0.0
 17
0.0
 27
1.0
 37
0.0
 76
0
330
21B
345
0
346
0
  0
ENDSEC
  0
EOF
