999
DXF file: Z:\Entwicklung\5_Service\1_Beschlagsdaten\4_Schloss\90XX\9019_komplett in TB-Datei\Beschlagdaten\dxf\B_9019_0001_bd01.dxf
999
Pro/ENGINEER 2019164 by Parametric Technology Corporation
  0
SECTION
  2
HEADER
  9
$ACADVER
  1
AC1021
  9
$DWGCODEPAGE
  3
ANSI_1252
  9
$EXTMAX
 10
210.0
 20
297.0
 30
0.0
  9
$EXTMIN
 10
0.0
 20
0.0
 30
0.0
  9
$LIMMIN
 10
0.0
 20
0.0
  9
$LIMMAX
 10
210.0
 20
297.0
  9
$VIEWCTR
 10
105.0
 20
148.5
  9
$VIEWSIZE
 40
297.0
  9
$CLAYER
  8
0
  9
$LTSCALE
 40
19.36
  9
$CELTYPE
  6
BYLAYER
  9
$DIMSCALE
 40
1.0
  9
$DIMASZ
 40
3.5
  9
$DIMEXO
 40
0.0
  9
$DIMDLI
 40
13.376
  9
$DIMEXE
 40
1.0
  9
$DIMCEN
 40
3.168
  9
$DIMLFAC
 40
1.0
  9
$DIMBLK
  1
_FILLED
  9
$DIMALT
 70
0
  9
$DIMALTF
 40
0.0393700787
  9
$DIMTXT
 40
3.0
  9
$DIMTOL
 70
1
  9
$DIMLIM
 70
0
  9
$DIMTFAC
 40
1.0
  9
$DIMTP
 40
0.001
  9
$DIMTM
 40
0.001
  9
$DIMGAP
 40
0.625
  9
$DIMDSEP
 70
46
  9
$AUNITS
 70
0
  9
$PDMODE
 70
3
  9
$PDSIZE
 40
0.05
  9
$HANDSEED
  5
348
  9
$TILEMODE
 70
1
  9
$MEASUREMENT
 70
1
  9
$INSUNITS
 70
4
  0
ENDSEC
  0
SECTION
  2
CLASSES
  0
CLASS
  1
ACDBDICTIONARYWDFLT
  2
AcDbDictionaryWithDefault
  3
AutoCAD 2000
 90
0
 91
1
280
0
281
0
  0
CLASS
  1
ACDBPLACEHOLDER
  2
AcDbPlaceHolder
  3
AutoCAD 2000
 90
0
 91
1
280
0
281
0
  0
CLASS
  1
LAYOUT
  2
AcDbLayout
  3
AutoCAD 2000
 90
0
 91
0
280
0
281
0
  0
CLASS
  1
TABLESTYLE
  2
AcDbTableStyle
  3
ObjectDBX Classes
 90
2047
 91
1
280
0
281
0
  0
CLASS
  1
ACAD_TABLE
  2
AcDbTable
  3
ObjectDBX Classes
 90
1025
 91
1
280
0
281
1
  0
ENDSEC
  0
SECTION
  2
TABLES
  0
TABLE
  2
VPORT
  5
8
100
AcDbSymbolTable
 70
2
  0
VPORT
  5
1F4
100
AcDbSymbolTableRecord
100
AcDbViewportTableRecord
  2
*ACTIVE
 70
0
 10
0.0
 20
0.0
 11
1.0
 21
1.0
 12
105.0
 22
148.5
 13
0.0
 23
0.0
 14
1.0
 24
1.0
 15
0.0
 25
0.0
 16
0.0
 26
0.0
 36
1.0
 17
0.0
 27
0.0
 37
0.0
 40
297.0
 41
0.7070707071
 42
50.0
 43
0.0
 44
0.0
 50
0.0
 51
0.0
 71
0
 72
100
 73
1
 74
1
 75
0
 76
0
 77
0
 78
0
  0
ENDTAB
  0
TABLE
  2
LTYPE
  5
5
100
AcDbSymbolTable
 70
6
  0
LTYPE
  5
14
100
AcDbSymbolTableRecord
100
AcDbLinetypeTableRecord
  2
BYBLOCK
 70
0
  3

 72
65
 73
0
 40
0.0
  0
LTYPE
  5
15
100
AcDbSymbolTableRecord
100
AcDbLinetypeTableRecord
  2
BYLAYER
 70
0
  3

 72
65
 73
0
 40
0.0
  0
LTYPE
  5
16
100
AcDbSymbolTableRecord
100
AcDbLinetypeTableRecord
  2
CONTINUOUS
 70
64
  3
Solid line
 72
65
 73
0
 40
0.0
  0
LTYPE
  5
1F5
100
AcDbSymbolTableRecord
100
AcDbLinetypeTableRecord
  2
CENTER
 70
64
  3
____ _ ____ _ ____ _ ____ _ ____ _ ____ _ ____
 72
65
 73
4
 40
0.6
 49
0.375
 74
0
 49
-0.075
 74
0
 49
0.075
 74
0
 49
-0.075
 74
0
  0
LTYPE
  5
1F6
100
AcDbSymbolTableRecord
100
AcDbLinetypeTableRecord
  2
HIDDEN
 70
64
  3
- - - - - - - - - - - - - - - - - - - -
 72
65
 73
2
 40
0.2
 49
0.1
 74
0
 49
-0.1
 74
0
  0
LTYPE
  5
1F7
100
AcDbSymbolTableRecord
100
AcDbLinetypeTableRecord
  2
PHANTOM
 70
64
  3
_____ _ _ _____ _ _ _____ _ _ _____
 72
65
 73
6
 40
0.8
 49
0.45
 74
0
 49
-0.05
 74
0
 49
0.1
 74
0
 49
-0.05
 74
0
 49
0.1
 74
0
 49
-0.05
 74
0
  0
LTYPE
  5
1F8
100
AcDbSymbolTableRecord
100
AcDbLinetypeTableRecord
  2
DOT
 70
64
  3
. . . . . . . . . . . . . . . . . . . .
 72
65
 73
2
 40
0.2
 49
0.1
 74
0
 49
-0.1
 74
0
  0
LTYPE
  5
1F9
100
AcDbSymbolTableRecord
100
AcDbLinetypeTableRecord
  2
DASHED
 70
64
  3
- - - - - - - - - - - - - - - - - - - -
 72
65
 73
2
 40
0.2
 49
0.1
 74
0
 49
-0.1
 74
0
  0
ENDTAB
  0
TABLE
  2
LAYER
  5
2
100
AcDbSymbolTable
 70
36
  0
LAYER
  5
10
100
AcDbSymbolTableRecord
100
AcDbLayerTableRecord
  2
0
 70
0
 62
7
  6
CONTINUOUS
370
-3
390
F
  0
LAYER
  5
1FA
100
AcDbSymbolTableRecord
100
AcDbLayerTableRecord
  2
DEFAULT_1
 70
0
 62
7
  6
CENTER
370
-3
390
F
  0
LAYER
  5
1FB
100
AcDbSymbolTableRecord
100
AcDbLayerTableRecord
  2
DEFAULT_2
 70
0
 62
8
  6
HIDDEN
370
-3
390
F
  0
LAYER
  5
1FC
100
AcDbSymbolTableRecord
100
AcDbLayerTableRecord
  2
DEFAULT_3
 70
0
 62
7
  6
PHANTOM
370
-3
390
F
  0
LAYER
  5
1FD
100
AcDbSymbolTableRecord
100
AcDbLayerTableRecord
  2
ACHSEN
 70
0
 62
7
  6
CONTINUOUS
370
-3
390
F
  0
LAYER
  5
1FE
100
AcDbSymbolTableRecord
100
AcDbLayerTableRecord
  2
EBENEN
 70
0
 62
7
  6
CONTINUOUS
370
-3
390
F
  0
LAYER
  5
1FF
100
AcDbSymbolTableRecord
100
AcDbLayerTableRecord
  2
S-ACHSEN
 70
0
 62
7
  6
CONTINUOUS
370
-3
390
F
  0
LAYER
  5
200
100
AcDbSymbolTableRecord
100
AcDbLayerTableRecord
  2
S-BG-EBENEN
 70
0
 62
7
  6
CONTINUOUS
370
-3
390
F
  0
LAYER
  5
201
100
AcDbSymbolTableRecord
100
AcDbLayerTableRecord
  2
S-BG-KOORDSYS
 70
0
 62
7
  6
CONTINUOUS
370
-3
390
F
  0
LAYER
  5
202
100
AcDbSymbolTableRecord
100
AcDbLayerTableRecord
  2
S-EBENEN
 70
0
 62
7
  6
CONTINUOUS
370
-3
390
F
  0
LAYER
  5
203
100
AcDbSymbolTableRecord
100
AcDbLayerTableRecord
  2
S-KOORDSYS
 70
0
 62
7
  6
CONTINUOUS
370
-3
390
F
  0
LAYER
  5
204
100
AcDbSymbolTableRecord
100
AcDbLayerTableRecord
  2
ZEICH_ELEMENTE
 70
0
 62
7
  6
CONTINUOUS
370
-3
390
F
  0
LAYER
  5
205
100
AcDbSymbolTableRecord
100
AcDbLayerTableRecord
  2
Grp_symbol_75_BL0
 70
0
 62
7
  6
CONTINUOUS
370
-3
390
F
  0
LAYER
  5
206
100
AcDbSymbolTableRecord
100
AcDbLayerTableRecord
  2
Grp_symbol_75_BL1
 70
0
 62
7
  6
CONTINUOUS
370
-3
390
F
  0
LAYER
  5
207
100
AcDbSymbolTableRecord
100
AcDbLayerTableRecord
  2
X17970000_BL2
 70
0
 62
7
  6
CONTINUOUS
370
-3
390
F
  0
LAYER
  5
208
100
AcDbSymbolTableRecord
100
AcDbLayerTableRecord
  2
X22991008_BL3
 70
0
 62
7
  6
CONTINUOUS
370
-3
390
F
  0
LAYER
  5
209
100
AcDbSymbolTableRecord
100
AcDbLayerTableRecord
  2
X00714003_BL4
 70
0
 62
7
  6
CONTINUOUS
370
-3
390
F
  0
ENDTAB
  0
TABLE
  2
STYLE
  5
3
100
AcDbSymbolTable
 70
1
  0
STYLE
  5
11
100
AcDbSymbolTableRecord
100
AcDbTextStyleTableRecord
  2
STANDARD
 70
0
 40
0.0
 41
1.0
 50
0.0
 71
0
 42
0.2
  3
arialuni.ttf
  4

  0
STYLE
  5
20A
100
AcDbSymbolTableRecord
100
AcDbTextStyleTableRecord
  2
TEXTSTYLE_1
 70
0
 40
0.0
 41
0.8
 50
0.0
 71
0
 42
0.2
  3
gdt
  4

  0
ENDTAB
  0
TABLE
  2
VIEW
  5
6
100
AcDbSymbolTable
 70
0
  0
ENDTAB
  0
TABLE
  2
UCS
  5
7
100
AcDbSymbolTable
 70
0
  0
ENDTAB
  0
TABLE
  2
APPID
  5
9
100
AcDbSymbolTable
 70
1
  0
APPID
  5
20B
100
AcDbSymbolTableRecord
100
AcDbRegAppTableRecord
  2
ACAD
 70
0
  0
ENDTAB
  0
TABLE
  2
BLOCK_RECORD
  5
1
100
AcDbSymbolTable
 70
0
  0
BLOCK_RECORD
  5
20C
100
AcDbSymbolTableRecord
100
AcDbBlockTableRecord
  2
*Model_Space
  0
BLOCK_RECORD
  5
20D
100
AcDbSymbolTableRecord
100
AcDbBlockTableRecord
  2
*Paper_Space
  0
BLOCK_RECORD
  5
20E
100
AcDbSymbolTableRecord
100
AcDbBlockTableRecord
  2
_FILLED
  0
BLOCK_RECORD
  5
20F
100
AcDbSymbolTableRecord
100
AcDbBlockTableRecord
  2
*D0
  0
BLOCK_RECORD
  5
210
100
AcDbSymbolTableRecord
100
AcDbBlockTableRecord
  2
*D1
  0
BLOCK_RECORD
  5
211
100
AcDbSymbolTableRecord
100
AcDbBlockTableRecord
  2
*D2
  0
BLOCK_RECORD
  5
212
100
AcDbSymbolTableRecord
100
AcDbBlockTableRecord
  2
*D3
  0
BLOCK_RECORD
  5
213
100
AcDbSymbolTableRecord
100
AcDbBlockTableRecord
  2
*D4
  0
BLOCK_RECORD
  5
214
100
AcDbSymbolTableRecord
100
AcDbBlockTableRecord
  2
*D5
  0
BLOCK_RECORD
  5
215
100
AcDbSymbolTableRecord
100
AcDbBlockTableRecord
  2
*D6
  0
BLOCK_RECORD
  5
216
100
AcDbSymbolTableRecord
100
AcDbBlockTableRecord
  2
*D7
  0
BLOCK_RECORD
  5
217
100
AcDbSymbolTableRecord
100
AcDbBlockTableRecord
  2
*D8
  0
BLOCK_RECORD
  5
218
100
AcDbSymbolTableRecord
100
AcDbBlockTableRecord
  2
*D9
  0
BLOCK_RECORD
  5
219
100
AcDbSymbolTableRecord
100
AcDbBlockTableRecord
  2
*D10
  0
BLOCK_RECORD
  5
21A
100
AcDbSymbolTableRecord
100
AcDbBlockTableRecord
  2
*D11
  0
BLOCK_RECORD
  5
21B
100
AcDbSymbolTableRecord
100
AcDbBlockTableRecord
  2
GRP_SYMBOL_75_BL0
  0
BLOCK_RECORD
  5
21C
100
AcDbSymbolTableRecord
100
AcDbBlockTableRecord
  2
GRP_SYMBOL_75_BL1
  0
BLOCK_RECORD
  5
21D
100
AcDbSymbolTableRecord
100
AcDbBlockTableRecord
  2
X17970000_BL2
  0
BLOCK_RECORD
  5
21E
100
AcDbSymbolTableRecord
100
AcDbBlockTableRecord
  2
X22991008_BL3
  0
BLOCK_RECORD
  5
21F
100
AcDbSymbolTableRecord
100
AcDbBlockTableRecord
  2
X00714003_BL4
  0
BLOCK_RECORD
  5
220
100
AcDbSymbolTableRecord
100
AcDbBlockTableRecord
  2
*T1
  0
ENDTAB
  0
TABLE
  2
DIMSTYLE
  5
A
100
AcDbSymbolTable
 70
1
100
AcDbDimStyleTable
 71
0
  0
DIMSTYLE
105
221
100
AcDbSymbolTableRecord
100
AcDbDimStyleTableRecord
  2
STANDARD
 70
0
  3

  4

 40
1.0
 41
3.5
 42
0.0
 43
0.38
 44
1.0
 45
0.0
 46
0.0
 47
0.001
 48
0.001
140
3.0
141
0.09
142
0.0
143
25.4
144
1.0
145
0.0
146
1.0
147
0.625
 71
1.0
 72
0.0
 73
0
 74
0
 75
0
 76
0
 77
1
 78
8
 79
2
170
0
171
2
172
0
173
0
174
0
175
0
176
0
177
0
178
5
270
2
179
3
271
3
272
3
273
2
274
2
275
0
280
0
281
0
282
0
283
1
284
8
285
0
286
0
287
3
288
0
340
11
278
46
341
20E
342
20E
343
20E
344
20E
  0
DIMSTYLE
105
222
100
AcDbSymbolTableRecord
100
AcDbDimStyleTableRecord
  2
DIMSTYLE_1
 70
0
  3

  4

 40
1.0
 41
3.5
 42
0.0
 43
0.38
 44
1.0
 45
0.0
 46
0.0
 47
0.2
 48
0.2
140
3.0
141
0.09
142
0.0
143
25.4
144
1.0
145
0.0
146
1.0
147
0.75
 71
0.0
 72
0.0
 73
0
 74
0
 75
0
 76
0
 77
1
 78
8
 79
2
170
0
171
2
172
0
173
0
174
0
175
0
176
0
177
0
178
5
270
2
179
3
271
3
272
3
273
2
274
2
275
0
280
0
281
0
282
0
283
1
284
8
285
0
286
0
287
3
288
0
340
11
278
46
341
20E
342
20E
343
20E
344
20E
  0
DIMSTYLE
105
223
100
AcDbSymbolTableRecord
100
AcDbDimStyleTableRecord
  2
DIMSTYLE_2
 70
0
  3

  4

 40
1.0
 41
3.5
 42
0.0
 43
0.38
 44
1.0
 45
0.0
 46
0.0
 47
0.2
 48
0.2
140
3.0
141
0.09
142
0.0
143
25.4
144
1.0
145
0.0
146
1.0
147
0.75
 71
0.0
 72
0.0
 73
0
 74
0
 75
0
 76
0
 77
1
 78
8
 79
2
170
0
171
2
172
0
173
0
174
0
175
0
176
0
177
0
178
5
270
2
179
3
271
0
272
0
273
2
274
2
275
0
280
0
281
0
282
0
283
1
284
8
285
0
286
0
287
3
288
0
340
11
278
46
341
20E
342
20E
343
20E
344
20E
  0
DIMSTYLE
105
224
100
AcDbSymbolTableRecord
100
AcDbDimStyleTableRecord
  2
DIMSTYLE_3
 70
0
  3

  4

 40
1.0
 41
3.5
 42
0.0
 43
0.38
 44
1.0
 45
0.0
 46
0.0
 47
0.1
 48
0.1
140
3.0
141
0.09
142
0.0
143
25.4
144
1.0
145
0.0
146
1.0
147
0.75
 71
0.0
 72
0.0
 73
0
 74
0
 75
0
 76
0
 77
1
 78
8
 79
2
170
0
171
2
172
0
173
0
174
0
175
0
176
0
177
0
178
5
270
2
179
3
271
3
272
3
273
2
274
2
275
0
280
0
281
0
282
0
283
1
284
8
285
0
286
0
287
3
288
0
340
11
278
46
341
20E
342
20E
343
20E
344
20E
  0
DIMSTYLE
105
225
100
AcDbSymbolTableRecord
100
AcDbDimStyleTableRecord
  2
DIMSTYLE_4
 70
0
  3

  4

 40
1.0
 41
3.5
 42
0.0
 43
0.38
 44
1.0
 45
0.0
 46
0.0
 47
0.3
 48
0.3
140
3.0
141
0.09
142
0.0
143
25.4
144
1.0
145
0.0
146
1.0
147
0.75
 71
0.0
 72
0.0
 73
0
 74
0
 75
0
 76
0
 77
1
 78
8
 79
2
170
0
171
2
172
0
173
0
174
0
175
0
176
0
177
0
178
5
270
2
179
3
271
3
272
3
273
2
274
2
275
0
280
0
281
0
282
0
283
1
284
8
285
0
286
0
287
3
288
0
340
11
278
46
341
20E
342
20E
343
20E
344
20E
  0
ENDTAB
  0
ENDSEC
  0
SECTION
  2
BLOCKS
  0
BLOCK
  5
20
100
AcDbEntity
  8
0
100
AcDbBlockBegin
  2
*Model_Space
 70
0
 10
0.0
 20
0.0
 30
0.0
  3
*Model_Space
  1

  0
ENDBLK
  5
21
100
AcDbEntity
  8
0
100
AcDbBlockEnd
  0
BLOCK
  5
1C
100
AcDbEntity
  8
0
100
AcDbBlockBegin
  2
*Paper_Space
 70
0
 10
0.0
 20
0.0
 30
0.0
  3
*Paper_Space
  1

  0
ENDBLK
  5
1D
100
AcDbEntity
  8
0
100
AcDbBlockEnd
  0
BLOCK
  5
226
100
AcDbEntity
  8
Grp_symbol_75_BL0
100
AcDbBlockBegin
  2
GRP_SYMBOL_75_BL0
 70
64
 10
35.8323817466
 20
45.0512437646
  3
GRP_SYMBOL_75_BL0
  1

  0
LWPOLYLINE
  5
227
100
AcDbEntity
  8
Grp_symbol_75_BL0
100
AcDbPolyline
 62
2
  6
CONTINUOUS
 90
42
 70
0
 10
22.4718721397
 20
52.5442994691
 10
22.6044065124
 20
52.5512444698
 10
49.0603569809
 20
52.5512444698
 10
49.1928913536
 20
52.5442994691
 10
49.323973652
 20
52.5235394672
 10
49.452167711
 20
52.4891894639
 10
49.5760690096
 20
52.4416244595
 10
49.6943200593
 20
52.3813694538
 10
49.8056252769
 20
52.309084447
 10
49.9087651791
 20
52.2255644392
 10
50.0026097435
 20
52.1317244303
 10
50.0861307894
 20
52.0285844206
 10
50.1584132429
 20
51.9172844102
 10
50.2186651621
 20
51.7990243991
 10
50.2662264146
 20
51.6751243874
 10
50.3005759092
 20
51.5469343753
 10
50.3213373056
 20
51.415849363
 10
50.3282831378
 20
51.2833093506
 10
29.4856873545
 20
50.3770832025
 10
28.6683643884
 20
50.2271345476
 10
27.8826798634
 20
49.9565772389
 10
27.1463243753
 20
49.5715031873
 10
26.4758778195
 20
49.0805827803
 10
25.8864360757
 20
48.4948696587
 10
25.3912711065
 20
47.8275518308
 10
25.0015321238
 20
47.0936547294
 10
21.3364803555
 20
38.8191631786
 10
21.3364803555
 20
51.2833093506
 10
21.3434261876
 20
51.415849363
 10
21.3641875841
 20
51.5469343753
 10
21.3985370787
 20
51.6751243874
 10
21.4460983311
 20
51.7990243991
 10
21.5063502504
 20
51.9172844102
 10
21.5786327039
 20
52.0285844206
 10
21.6621537498
 20
52.1317244303
 10
21.7559983142
 20
52.2255644392
 10
21.8591382164
 20
52.309084447
 10
21.9704434339
 20
52.3813694538
 10
22.0886944837
 20
52.4416244595
 10
22.2125957823
 20
52.4891894639
 10
22.3407898413
 20
52.5235394672
 10
22.4718721397
 20
52.5442994691
  0
HATCH
  5
228
100
AcDbEntity
  8
Grp_symbol_75_BL0
100
AcDbHatch
 62
2
  6
CONTINUOUS
 10
0.0
 20
0.0
 30
0.0
210
0.0
220
0.0
230
1.0
  2
SOLID
 70
1
 71
1
 91
1
 92
1
 93
41
 72
1
 10
22.4718721397
 20
52.5442994691
 11
22.6044065124
 21
52.5512444698
 72
1
 10
22.6044065124
 20
52.5512444698
 11
49.0603569809
 21
52.5512444698
 72
1
 10
49.0603569809
 20
52.5512444698
 11
49.1928913536
 21
52.5442994691
 72
1
 10
49.1928913536
 20
52.5442994691
 11
49.323973652
 21
52.5235394672
 72
1
 10
49.323973652
 20
52.5235394672
 11
49.452167711
 21
52.4891894639
 72
1
 10
49.452167711
 20
52.4891894639
 11
49.5760690096
 21
52.4416244595
 72
1
 10
49.5760690096
 20
52.4416244595
 11
49.6943200593
 21
52.3813694538
 72
1
 10
49.6943200593
 20
52.3813694538
 11
49.8056252769
 21
52.309084447
 72
1
 10
49.8056252769
 20
52.309084447
 11
49.9087651791
 21
52.2255644392
 72
1
 10
49.9087651791
 20
52.2255644392
 11
50.0026097435
 21
52.1317244303
 72
1
 10
50.0026097435
 20
52.1317244303
 11
50.0861307894
 21
52.0285844206
 72
1
 10
50.0861307894
 20
52.0285844206
 11
50.1584132429
 21
51.9172844102
 72
1
 10
50.1584132429
 20
51.9172844102
 11
50.2186651621
 21
51.7990243991
 72
1
 10
50.2186651621
 20
51.7990243991
 11
50.2662264146
 21
51.6751243874
 72
1
 10
50.2662264146
 20
51.6751243874
 11
50.3005759092
 21
51.5469343753
 72
1
 10
50.3005759092
 20
51.5469343753
 11
50.3213373056
 21
51.415849363
 72
1
 10
50.3213373056
 20
51.415849363
 11
50.3282831378
 21
51.2833093506
 72
1
 10
50.3282831378
 20
51.2833093506
 11
29.4856873545
 21
50.3770832025
 72
1
 10
29.4856873545
 20
50.3770832025
 11
28.6683643884
 21
50.2271345476
 72
1
 10
28.6683643884
 20
50.2271345476
 11
27.8826798634
 21
49.9565772389
 72
1
 10
27.8826798634
 20
49.9565772389
 11
27.1463243753
 21
49.5715031873
 72
1
 10
27.1463243753
 20
49.5715031873
 11
26.4758778195
 21
49.0805827803
 72
1
 10
26.4758778195
 20
49.0805827803
 11
25.8864360757
 21
48.4948696587
 72
1
 10
25.8864360757
 20
48.4948696587
 11
25.3912711065
 21
47.8275518308
 72
1
 10
25.3912711065
 20
47.8275518308
 11
25.0015321238
 21
47.0936547294
 72
1
 10
25.0015321238
 20
47.0936547294
 11
21.3364803555
 21
38.8191631786
 72
1
 10
21.3364803555
 20
38.8191631786
 11
21.3364803555
 21
51.2833093506
 72
1
 10
21.3364803555
 20
51.2833093506
 11
21.3434261876
 21
51.415849363
 72
1
 10
21.3434261876
 20
51.415849363
 11
21.3641875841
 21
51.5469343753
 72
1
 10
21.3641875841
 20
51.5469343753
 11
21.3985370787
 21
51.6751243874
 72
1
 10
21.3985370787
 20
51.6751243874
 11
21.4460983311
 21
51.7990243991
 72
1
 10
21.4460983311
 20
51.7990243991
 11
21.5063502504
 21
51.9172844102
 72
1
 10
21.5063502504
 20
51.9172844102
 11
21.5786327039
 21
52.0285844206
 72
1
 10
21.5786327039
 20
52.0285844206
 11
21.6621537498
 21
52.1317244303
 72
1
 10
21.6621537498
 20
52.1317244303
 11
21.7559983142
 21
52.2255644392
 72
1
 10
21.7559983142
 20
52.2255644392
 11
21.8591382164
 21
52.309084447
 72
1
 10
21.8591382164
 20
52.309084447
 11
21.9704434339
 21
52.3813694538
 72
1
 10
21.9704434339
 20
52.3813694538
 11
22.0886944837
 21
52.4416244595
 72
1
 10
22.0886944837
 20
52.4416244595
 11
22.2125957823
 21
52.4891894639
 72
1
 10
22.2125957823
 20
52.4891894639
 11
22.3407898413
 21
52.5235394672
 72
1
 10
22.3407898413
 20
52.5235394672
 11
22.4718721397
 21
52.5442994691
 97
1
330
227
 75
0
 76
1
 98
1
 10
0.0
 20
0.0
  0
LWPOLYLINE
  5
229
100
AcDbEntity
  8
Grp_symbol_75_BL0
100
AcDbPolyline
 62
2
  6
CONTINUOUS
 90
23
 70
0
 10
31.9423881959
 20
50.0834860538
 10
31.1413387109
 20
50.3044411457
 10
50.3282831378
 20
51.2833093506
 10
50.3282831377
 20
38.8191631786
 10
45.1152901034
 20
41.2416784064
 10
45.3410145185
 20
41.6994034494
 10
45.5050628807
 20
42.1826734949
 10
45.6046282773
 20
42.6832235419
 10
45.6380071165
 20
43.1924885898
 10
45.6380071165
 20
50.1147042407
 10
42.9110733681
 20
50.1147042407
 10
40.5617150617
 20
50.1147042407
 10
37.8347813133
 20
50.1147042407
 10
37.8347813133
 20
45.9718538512
 10
35.9903239576
 20
45.9718538512
 10
35.6043598049
 20
45.1473877564
 10
35.5006764865
 20
45.9718538512
 10
32.369573033
 20
46.4919861578
 10
34.5619115447
 20
48.1142313197
 10
34.0260326583
 20
48.7493181243
 10
33.4011581156
 20
49.2970710211
 10
32.7013576895
 20
49.7451567202
 10
31.9423881959
 20
50.0834860538
  0
HATCH
  5
22A
100
AcDbEntity
  8
Grp_symbol_75_BL0
100
AcDbHatch
 62
2
  6
CONTINUOUS
 10
0.0
 20
0.0
 30
0.0
210
0.0
220
0.0
230
1.0
  2
SOLID
 70
1
 71
1
 91
1
 92
1
 93
22
 72
1
 10
31.9423881959
 20
50.0834860538
 11
31.1413387109
 21
50.3044411457
 72
1
 10
31.1413387109
 20
50.3044411457
 11
50.3282831378
 21
51.2833093506
 72
1
 10
50.3282831378
 20
51.2833093506
 11
50.3282831377
 21
38.8191631786
 72
1
 10
50.3282831377
 20
38.8191631786
 11
45.1152901034
 21
41.2416784064
 72
1
 10
45.1152901034
 20
41.2416784064
 11
45.3410145185
 21
41.6994034494
 72
1
 10
45.3410145185
 20
41.6994034494
 11
45.5050628807
 21
42.1826734949
 72
1
 10
45.5050628807
 20
42.1826734949
 11
45.6046282773
 21
42.6832235419
 72
1
 10
45.6046282773
 20
42.6832235419
 11
45.6380071165
 21
43.1924885898
 72
1
 10
45.6380071165
 20
43.1924885898
 11
45.6380071165
 21
50.1147042407
 72
1
 10
45.6380071165
 20
50.1147042407
 11
42.9110733681
 21
50.1147042407
 72
1
 10
42.9110733681
 20
50.1147042407
 11
40.5617150617
 21
50.1147042407
 72
1
 10
40.5617150617
 20
50.1147042407
 11
37.8347813133
 21
50.1147042407
 72
1
 10
37.8347813133
 20
50.1147042407
 11
37.8347813133
 21
45.9718538512
 72
1
 10
37.8347813133
 20
45.9718538512
 11
35.9903239576
 21
45.9718538512
 72
1
 10
35.9903239576
 20
45.9718538512
 11
35.6043598049
 21
45.1473877564
 72
1
 10
35.6043598049
 20
45.1473877564
 11
35.5006764865
 21
45.9718538512
 72
1
 10
35.5006764865
 20
45.9718538512
 11
32.369573033
 21
46.4919861578
 72
1
 10
32.369573033
 20
46.4919861578
 11
34.5619115447
 21
48.1142313197
 72
1
 10
34.5619115447
 20
48.1142313197
 11
34.0260326583
 21
48.7493181243
 72
1
 10
34.0260326583
 20
48.7493181243
 11
33.4011581156
 21
49.2970710211
 72
1
 10
33.4011581156
 20
49.2970710211
 11
32.7013576895
 21
49.7451567202
 72
1
 10
32.7013576895
 20
49.7451567202
 11
31.9423881959
 21
50.0834860538
 97
1
330
229
 75
0
 76
1
 98
1
 10
0.0
 20
0.0
  0
LWPOLYLINE
  5
22B
100
AcDbEntity
  8
Grp_symbol_75_BL0
100
AcDbPolyline
 62
2
  6
CONTINUOUS
 90
20
 70
0
 10
29.4759626747
 20
47.6171864315
 10
29.8826592961
 20
47.6749491331
 10
30.293431902
 20
47.6728189526
 10
30.6995075754
 20
47.6108413843
 10
31.0922137119
 20
47.4903400903
 10
31.4631632419
 20
47.3138886303
 10
31.804433754
 20
47.0852554983
 10
32.1087366952
 20
46.8093236381
 10
32.369573033
 20
46.4919861578
 10
35.5006764865
 20
45.9718538512
 10
30.1783904042
 20
45.9718538512
 10
30.0346469071
 20
45.9624365638
 10
27.4167837774
 20
45.7885466078
 10
27.5789450802
 20
46.1659620068
 10
27.7943830541
 20
46.5157121331
 10
28.0584965659
 20
46.8303273337
 10
28.3656449131
 20
47.1030883358
 10
28.7092682937
 20
47.3281697517
 10
29.0820279041
 20
47.5007644921
 10
29.4759626747
 20
47.6171864315
  0
HATCH
  5
22C
100
AcDbEntity
  8
Grp_symbol_75_BL0
100
AcDbHatch
 62
2
  6
CONTINUOUS
 10
0.0
 20
0.0
 30
0.0
210
0.0
220
0.0
230
1.0
  2
SOLID
 70
1
 71
1
 91
1
 92
1
 93
19
 72
1
 10
29.4759626747
 20
47.6171864315
 11
29.8826592961
 21
47.6749491331
 72
1
 10
29.8826592961
 20
47.6749491331
 11
30.293431902
 21
47.6728189526
 72
1
 10
30.293431902
 20
47.6728189526
 11
30.6995075754
 21
47.6108413843
 72
1
 10
30.6995075754
 20
47.6108413843
 11
31.0922137119
 21
47.4903400903
 72
1
 10
31.0922137119
 20
47.4903400903
 11
31.4631632419
 21
47.3138886303
 72
1
 10
31.4631632419
 20
47.3138886303
 11
31.804433754
 21
47.0852554983
 72
1
 10
31.804433754
 20
47.0852554983
 11
32.1087366952
 21
46.8093236381
 72
1
 10
32.1087366952
 20
46.8093236381
 11
32.369573033
 21
46.4919861578
 72
1
 10
32.369573033
 20
46.4919861578
 11
35.5006764865
 21
45.9718538512
 72
1
 10
35.5006764865
 20
45.9718538512
 11
30.1783904042
 21
45.9718538512
 72
1
 10
30.1783904042
 20
45.9718538512
 11
30.0346469071
 21
45.9624365638
 72
1
 10
30.0346469071
 20
45.9624365638
 11
27.4167837774
 21
45.7885466078
 72
1
 10
27.4167837774
 20
45.7885466078
 11
27.5789450802
 21
46.1659620068
 72
1
 10
27.5789450802
 20
46.1659620068
 11
27.7943830541
 21
46.5157121331
 72
1
 10
27.7943830541
 20
46.5157121331
 11
28.0584965659
 21
46.8303273337
 72
1
 10
28.0584965659
 20
46.8303273337
 11
28.3656449131
 21
47.1030883358
 72
1
 10
28.3656449131
 20
47.1030883358
 11
28.7092682937
 21
47.3281697517
 72
1
 10
28.7092682937
 20
47.3281697517
 11
29.0820279041
 21
47.5007644921
 72
1
 10
29.0820279041
 20
47.5007644921
 11
29.4759626747
 21
47.6171864315
 97
1
330
22B
 75
0
 76
1
 98
1
 10
0.0
 20
0.0
  0
LWPOLYLINE
  5
22D
100
AcDbEntity
  8
Grp_symbol_75_BL0
100
AcDbPolyline
 62
2
  6
CONTINUOUS
 90
8
 70
0
 10
29.6277595512
 20
45.8243169179
 10
29.5079847543
 20
45.7442859573
 10
27.3113624431
 20
45.3915264399
 10
27.4167837774
 20
45.7885466078
 10
30.0346469071
 20
45.9624365638
 10
29.8933629011
 20
45.9343334277
 10
29.7569557946
 20
45.8880294545
 10
29.6277595512
 20
45.8243169179
  0
HATCH
  5
22E
100
AcDbEntity
  8
Grp_symbol_75_BL0
100
AcDbHatch
 62
2
  6
CONTINUOUS
 10
0.0
 20
0.0
 30
0.0
210
0.0
220
0.0
230
1.0
  2
SOLID
 70
1
 71
1
 91
1
 92
1
 93
7
 72
1
 10
29.6277595512
 20
45.8243169179
 11
29.5079847543
 21
45.7442859573
 72
1
 10
29.5079847543
 20
45.7442859573
 11
27.3113624431
 21
45.3915264399
 72
1
 10
27.3113624431
 20
45.3915264399
 11
27.4167837774
 21
45.7885466078
 72
1
 10
27.4167837774
 20
45.7885466078
 11
30.0346469071
 21
45.9624365638
 72
1
 10
30.0346469071
 20
45.9624365638
 11
29.8933629011
 21
45.9343334277
 72
1
 10
29.8933629011
 20
45.9343334277
 11
29.7569557946
 21
45.8880294545
 72
1
 10
29.7569557946
 20
45.8880294545
 11
29.6277595512
 21
45.8243169179
 97
1
330
22D
 75
0
 76
1
 98
1
 10
0.0
 20
0.0
  0
LWPOLYLINE
  5
22F
100
AcDbEntity
  8
Grp_symbol_75_BL0
100
AcDbPolyline
 62
2
  6
CONTINUOUS
 90
8
 70
0
 10
29.2246697906
 20
45.4212271573
 10
29.160957254
 20
45.2920309139
 10
27.2649325727
 20
44.9833807078
 10
27.3113624431
 20
45.3915264399
 10
29.5079847543
 20
45.7442859573
 10
29.399680784
 20
45.6493059245
 10
29.3047007512
 20
45.5410019542
 10
29.2246697906
 20
45.4212271573
  0
HATCH
  5
230
100
AcDbEntity
  8
Grp_symbol_75_BL0
100
AcDbHatch
 62
2
  6
CONTINUOUS
 10
0.0
 20
0.0
 30
0.0
210
0.0
220
0.0
230
1.0
  2
SOLID
 70
1
 71
1
 91
1
 92
1
 93
7
 72
1
 10
29.2246697906
 20
45.4212271573
 11
29.160957254
 21
45.2920309139
 72
1
 10
29.160957254
 20
45.2920309139
 11
27.2649325727
 21
44.9833807078
 72
1
 10
27.2649325727
 20
44.9833807078
 11
27.3113624431
 21
45.3915264399
 72
1
 10
27.3113624431
 20
45.3915264399
 11
29.5079847543
 21
45.7442859573
 72
1
 10
29.5079847543
 20
45.7442859573
 11
29.399680784
 21
45.6493059245
 72
1
 10
29.399680784
 20
45.6493059245
 11
29.3047007512
 21
45.5410019542
 72
1
 10
29.3047007512
 20
45.5410019542
 11
29.2246697906
 21
45.4212271573
 97
1
330
22F
 75
0
 76
1
 98
1
 10
0.0
 20
0.0
  0
LWPOLYLINE
  5
231
100
AcDbEntity
  8
Grp_symbol_75_BL0
100
AcDbPolyline
 62
2
  6
CONTINUOUS
 90
7
 70
0
 10
36.0746990158
 20
45.344825922
 10
36.0916224339
 20
45.0288237903
 10
35.5835096058
 20
44.3166852229
 10
35.6043598049
 20
45.1473877564
 10
35.9903239576
 20
45.9718538512
 10
36.0409006139
 20
45.6594708288
 10
36.0746990158
 20
45.344825922
  0
HATCH
  5
232
100
AcDbEntity
  8
Grp_symbol_75_BL0
100
AcDbHatch
 62
2
  6
CONTINUOUS
 10
0.0
 20
0.0
 30
0.0
210
0.0
220
0.0
230
1.0
  2
SOLID
 70
1
 71
1
 91
1
 92
1
 93
6
 72
1
 10
36.0746990158
 20
45.344825922
 11
36.0916224339
 21
45.0288237903
 72
1
 10
36.0916224339
 20
45.0288237903
 11
35.5835096058
 21
44.3166852229
 72
1
 10
35.5835096058
 20
44.3166852229
 11
35.6043598049
 21
45.1473877564
 72
1
 10
35.6043598049
 20
45.1473877564
 11
35.9903239576
 21
45.9718538512
 72
1
 10
35.9903239576
 20
45.9718538512
 11
36.0409006139
 21
45.6594708288
 72
1
 10
36.0409006139
 20
45.6594708288
 11
36.0746990158
 21
45.344825922
 97
1
330
231
 75
0
 76
1
 98
1
 10
0.0
 20
0.0
  0
LWPOLYLINE
  5
233
100
AcDbEntity
  8
Grp_symbol_75_BL0
100
AcDbPolyline
 62
2
  6
CONTINUOUS
 90
7
 70
0
 10
29.0865501447
 20
45.0143398014
 10
29.0771286982
 20
44.8705963043
 10
27.2784857743
 20
44.5728262263
 10
27.2649325727
 20
44.9833807078
 10
29.160957254
 20
45.2920309139
 10
29.1146532808
 20
45.1556238074
 10
29.0865501447
 20
45.0143398014
  0
HATCH
  5
234
100
AcDbEntity
  8
Grp_symbol_75_BL0
100
AcDbHatch
 62
2
  6
CONTINUOUS
 10
0.0
 20
0.0
 30
0.0
210
0.0
220
0.0
230
1.0
  2
SOLID
 70
1
 71
1
 91
1
 92
1
 93
6
 72
1
 10
29.0865501447
 20
45.0143398014
 11
29.0771286982
 21
44.8705963043
 72
1
 10
29.0771286982
 20
44.8705963043
 11
27.2784857743
 21
44.5728262263
 72
1
 10
27.2784857743
 20
44.5728262263
 11
27.2649325727
 21
44.9833807078
 72
1
 10
27.2649325727
 20
44.9833807078
 11
29.160957254
 21
45.2920309139
 72
1
 10
29.160957254
 20
45.2920309139
 11
29.1146532808
 21
45.1556238074
 72
1
 10
29.1146532808
 20
45.1556238074
 11
29.0865501447
 21
45.0143398014
 97
1
330
233
 75
0
 76
1
 98
1
 10
0.0
 20
0.0
  0
LWPOLYLINE
  5
235
100
AcDbEntity
  8
Grp_symbol_75_BL0
100
AcDbPolyline
 62
2
  6
CONTINUOUS
 90
7
 70
0
 10
29.1146532808
 20
44.5855688011
 10
29.160957254
 20
44.4491616947
 10
27.3517325905
 20
44.1686312543
 10
27.2784857743
 20
44.5728262263
 10
29.0771286982
 20
44.8705963043
 10
29.0865501447
 20
44.7268528071
 10
29.1146532808
 20
44.5855688011
  0
HATCH
  5
236
100
AcDbEntity
  8
Grp_symbol_75_BL0
100
AcDbHatch
 62
2
  6
CONTINUOUS
 10
0.0
 20
0.0
 30
0.0
210
0.0
220
0.0
230
1.0
  2
SOLID
 70
1
 71
1
 91
1
 92
1
 93
6
 72
1
 10
29.1146532808
 20
44.5855688011
 11
29.160957254
 21
44.4491616947
 72
1
 10
29.160957254
 20
44.4491616947
 11
27.3517325905
 21
44.1686312543
 72
1
 10
27.3517325905
 20
44.1686312543
 11
27.2784857743
 21
44.5728262263
 72
1
 10
27.2784857743
 20
44.5728262263
 11
29.0771286982
 21
44.8705963043
 72
1
 10
29.0771286982
 20
44.8705963043
 11
29.0865501447
 21
44.7268528071
 72
1
 10
29.0865501447
 20
44.7268528071
 11
29.1146532808
 21
44.5855688011
 97
1
330
235
 75
0
 76
1
 98
1
 10
0.0
 20
0.0
  0
LWPOLYLINE
  5
237
100
AcDbEntity
  8
Grp_symbol_75_BL0
100
AcDbPolyline
 62
2
  6
CONTINUOUS
 90
7
 70
0
 10
36.0746990158
 20
44.3963666865
 10
36.0409006139
 20
44.0817217797
 10
35.4385953554
 20
43.4984546379
 10
35.5835096058
 20
44.3166852229
 10
36.0916224339
 20
45.0288237903
 10
36.0916224339
 20
44.7123688182
 10
36.0746990158
 20
44.3963666865
  0
HATCH
  5
238
100
AcDbEntity
  8
Grp_symbol_75_BL0
100
AcDbHatch
 62
2
  6
CONTINUOUS
 10
0.0
 20
0.0
 30
0.0
210
0.0
220
0.0
230
1.0
  2
SOLID
 70
1
 71
1
 91
1
 92
1
 93
6
 72
1
 10
36.0746990158
 20
44.3963666865
 11
36.0409006139
 21
44.0817217797
 72
1
 10
36.0409006139
 20
44.0817217797
 11
35.4385953554
 21
43.4984546379
 72
1
 10
35.4385953554
 20
43.4984546379
 11
35.5835096058
 21
44.3166852229
 72
1
 10
35.5835096058
 20
44.3166852229
 11
36.0916224339
 21
45.0288237903
 72
1
 10
36.0916224339
 20
45.0288237903
 11
36.0916224339
 21
44.7123688182
 72
1
 10
36.0916224339
 20
44.7123688182
 11
36.0746990158
 21
44.3963666865
 97
1
330
237
 75
0
 76
1
 98
1
 10
0.0
 20
0.0
  0
LWPOLYLINE
  5
239
100
AcDbEntity
  8
Grp_symbol_75_BL0
100
AcDbPolyline
 62
2
  6
CONTINUOUS
 90
7
 70
0
 10
29.3047007512
 20
44.2001906544
 10
29.399680784
 20
44.091886684
 10
27.4831086809
 20
43.7794282297
 10
27.3517325905
 20
44.1686312543
 10
29.160957254
 20
44.4491616947
 10
29.2246697906
 20
44.3199654512
 10
29.3047007512
 20
44.2001906544
  0
HATCH
  5
23A
100
AcDbEntity
  8
Grp_symbol_75_BL0
100
AcDbHatch
 62
2
  6
CONTINUOUS
 10
0.0
 20
0.0
 30
0.0
210
0.0
220
0.0
230
1.0
  2
SOLID
 70
1
 71
1
 91
1
 92
1
 93
6
 72
1
 10
29.3047007512
 20
44.2001906544
 11
29.399680784
 21
44.091886684
 72
1
 10
29.399680784
 20
44.091886684
 11
27.4831086809
 21
43.7794282297
 72
1
 10
27.4831086809
 20
43.7794282297
 11
27.3517325905
 21
44.1686312543
 72
1
 10
27.3517325905
 20
44.1686312543
 11
29.160957254
 21
44.4491616947
 72
1
 10
29.160957254
 20
44.4491616947
 11
29.2246697906
 21
44.3199654512
 72
1
 10
29.2246697906
 20
44.3199654512
 11
29.3047007512
 21
44.2001906544
 97
1
330
239
 75
0
 76
1
 98
1
 10
0.0
 20
0.0
  0
LWPOLYLINE
  5
23B
100
AcDbEntity
  8
Grp_symbol_75_BL0
100
AcDbPolyline
 62
2
  6
CONTINUOUS
 90
9
 70
0
 10
29.8933629011
 20
43.8068591809
 10
30.0346469071
 20
43.7787560448
 10
27.6698082312
 20
43.4135294057
 10
27.4831086809
 20
43.7794282297
 10
29.399680784
 20
44.091886684
 10
29.5079847543
 20
43.9969066512
 10
29.6277595512
 20
43.9168756906
 10
29.7569557946
 20
43.8531631541
 10
29.8933629011
 20
43.8068591809
  0
HATCH
  5
23C
100
AcDbEntity
  8
Grp_symbol_75_BL0
100
AcDbHatch
 62
2
  6
CONTINUOUS
 10
0.0
 20
0.0
 30
0.0
210
0.0
220
0.0
230
1.0
  2
SOLID
 70
1
 71
1
 91
1
 92
1
 93
8
 72
1
 10
29.8933629011
 20
43.8068591809
 11
30.0346469071
 21
43.7787560448
 72
1
 10
30.0346469071
 20
43.7787560448
 11
27.6698082312
 21
43.4135294057
 72
1
 10
27.6698082312
 20
43.4135294057
 11
27.4831086809
 21
43.7794282297
 72
1
 10
27.4831086809
 20
43.7794282297
 11
29.399680784
 21
44.091886684
 72
1
 10
29.399680784
 20
44.091886684
 11
29.5079847543
 21
43.9969066512
 72
1
 10
29.5079847543
 20
43.9969066512
 11
29.6277595512
 21
43.9168756906
 72
1
 10
29.6277595512
 20
43.9168756906
 11
29.7569557946
 21
43.8531631541
 72
1
 10
29.7569557946
 20
43.8531631541
 11
29.8933629011
 21
43.8068591809
 97
1
330
23B
 75
0
 76
1
 98
1
 10
0.0
 20
0.0
  0
LWPOLYLINE
  5
23D
100
AcDbEntity
  8
Grp_symbol_75_BL0
100
AcDbPolyline
 62
2
  6
CONTINUOUS
 90
9
 70
0
 10
37.8347813133
 20
43.7693286441
 10
37.8347813133
 20
43.1924885898
 10
37.8681601525
 20
42.6832235419
 10
34.7923463263
 20
41.972407301
 10
35.1728799658
 20
42.7111194095
 10
35.4385953554
 20
43.4984546379
 10
36.0409006139
 20
44.0817217797
 10
35.9903239576
 20
43.7693286441
 10
37.8347813133
 20
43.7693286441
  0
HATCH
  5
23E
100
AcDbEntity
  8
Grp_symbol_75_BL0
100
AcDbHatch
 62
2
  6
CONTINUOUS
 10
0.0
 20
0.0
 30
0.0
210
0.0
220
0.0
230
1.0
  2
SOLID
 70
1
 71
1
 91
1
 92
1
 93
8
 72
1
 10
37.8347813133
 20
43.7693286441
 11
37.8347813133
 21
43.1924885898
 72
1
 10
37.8347813133
 20
43.1924885898
 11
37.8681601525
 21
42.6832235419
 72
1
 10
37.8681601525
 20
42.6832235419
 11
34.7923463263
 21
41.972407301
 72
1
 10
34.7923463263
 20
41.972407301
 11
35.1728799658
 21
42.7111194095
 72
1
 10
35.1728799658
 20
42.7111194095
 11
35.4385953554
 21
43.4984546379
 72
1
 10
35.4385953554
 20
43.4984546379
 11
36.0409006139
 21
44.0817217797
 72
1
 10
36.0409006139
 20
44.0817217797
 11
35.9903239576
 21
43.7693286441
 72
1
 10
35.9903239576
 20
43.7693286441
 11
37.8347813133
 21
43.7693286441
 97
1
330
23D
 75
0
 76
1
 98
1
 10
0.0
 20
0.0
  0
LWPOLYLINE
  5
23F
100
AcDbEntity
  8
Grp_symbol_75_BL0
100
AcDbPolyline
 62
2
  6
CONTINUOUS
 90
19
 70
0
 10
32.6596330053
 20
43.7693286441
 10
32.4715079581
 20
43.4041666394
 10
32.2321685604
 20
43.0703173856
 10
31.9467264109
 20
42.7749168935
 10
31.62127773
 20
42.5242740648
 10
31.2627731621
 20
42.323741907
 10
30.8788693301
 20
42.1776032081
 10
30.4777653119
 20
42.088979069
 10
30.0680275314
 20
42.0597622455
 10
29.6584068052
 20
42.0905767246
 10
29.2576514495
 20
42.1807643979
 10
28.8743204422
 20
42.3283991171
 10
28.5166006271
 20
42.5303278307
 10
28.192131867
 20
42.7822379242
 10
27.9078438781
 20
43.0787493251
 10
27.6698082312
 20
43.4135294057
 10
30.0346469071
 20
43.7787560448
 10
30.1783904042
 20
43.7693286441
 10
32.6596330053
 20
43.7693286441
  0
HATCH
  5
240
100
AcDbEntity
  8
Grp_symbol_75_BL0
100
AcDbHatch
 62
2
  6
CONTINUOUS
 10
0.0
 20
0.0
 30
0.0
210
0.0
220
0.0
230
1.0
  2
SOLID
 70
1
 71
1
 91
1
 92
1
 93
18
 72
1
 10
32.6596330053
 20
43.7693286441
 11
32.4715079581
 21
43.4041666394
 72
1
 10
32.4715079581
 20
43.4041666394
 11
32.2321685604
 21
43.0703173856
 72
1
 10
32.2321685604
 20
43.0703173856
 11
31.9467264109
 21
42.7749168935
 72
1
 10
31.9467264109
 20
42.7749168935
 11
31.62127773
 21
42.5242740648
 72
1
 10
31.62127773
 20
42.5242740648
 11
31.2627731621
 21
42.323741907
 72
1
 10
31.2627731621
 20
42.323741907
 11
30.8788693301
 21
42.1776032081
 72
1
 10
30.8788693301
 20
42.1776032081
 11
30.4777653119
 21
42.088979069
 72
1
 10
30.4777653119
 20
42.088979069
 11
30.0680275314
 21
42.0597622455
 72
1
 10
30.0680275314
 20
42.0597622455
 11
29.6584068052
 21
42.0905767246
 72
1
 10
29.6584068052
 20
42.0905767246
 11
29.2576514495
 21
42.1807643979
 72
1
 10
29.2576514495
 20
42.1807643979
 11
28.8743204422
 21
42.3283991171
 72
1
 10
28.8743204422
 20
42.3283991171
 11
28.5166006271
 21
42.5303278307
 72
1
 10
28.5166006271
 20
42.5303278307
 11
28.192131867
 21
42.7822379242
 72
1
 10
28.192131867
 20
42.7822379242
 11
27.9078438781
 21
43.0787493251
 72
1
 10
27.9078438781
 20
43.0787493251
 11
27.6698082312
 21
43.4135294057
 72
1
 10
27.6698082312
 20
43.4135294057
 11
30.0346469071
 21
43.7787560448
 72
1
 10
30.0346469071
 20
43.7787560448
 11
30.1783904042
 21
43.7693286441
 72
1
 10
30.1783904042
 20
43.7693286441
 11
32.6596330053
 21
43.7693286441
 97
1
330
23F
 75
0
 76
1
 98
1
 10
0.0
 20
0.0
  0
LWPOLYLINE
  5
241
100
AcDbEntity
  8
Grp_symbol_75_BL0
100
AcDbPolyline
 62
2
  6
CONTINUOUS
 90
28
 70
0
 10
40.5617150617
 20
43.1924885898
 10
40.5617150617
 20
50.1147042407
 10
42.9110733681
 20
50.1147042407
 10
42.9110733681
 20
43.1924885898
 10
42.901023825
 20
43.0391585754
 10
42.8710471465
 20
42.8884535612
 10
42.8216562418
 20
42.7429535476
 10
42.7536962028
 20
42.6051485346
 10
42.6683298448
 20
42.4773785226
 10
42.5670178098
 20
42.3618635117
 10
42.4514935748
 20
42.2605535022
 10
42.3237337915
 20
42.1751884942
 10
42.1859244651
 20
42.1072234878
 10
42.0404235516
 20
42.0578284831
 10
41.8897206118
 20
42.0278584803
 10
41.7363942149
 20
42.0178040752
 10
41.5830678179
 20
42.0278584803
 10
41.4323648782
 20
42.0578284831
 10
41.2868639646
 20
42.1072234878
 10
41.1490546383
 20
42.1751884942
 10
41.021294855
 20
42.2605535022
 10
40.90577062
 20
42.3618635117
 10
40.8044585849
 20
42.4773785226
 10
40.7190922269
 20
42.6051485346
 10
40.651132188
 20
42.7429535476
 10
40.6017412832
 20
42.8884535612
 10
40.5717646047
 20
43.0391585754
 10
40.5617150617
 20
43.1924885898
  0
HATCH
  5
242
100
AcDbEntity
  8
Grp_symbol_75_BL0
100
AcDbHatch
 62
2
  6
CONTINUOUS
 10
0.0
 20
0.0
 30
0.0
210
0.0
220
0.0
230
1.0
  2
SOLID
 70
1
 71
1
 91
1
 92
1
 93
27
 72
1
 10
40.5617150617
 20
43.1924885898
 11
40.5617150617
 21
50.1147042407
 72
1
 10
40.5617150617
 20
50.1147042407
 11
42.9110733681
 21
50.1147042407
 72
1
 10
42.9110733681
 20
50.1147042407
 11
42.9110733681
 21
43.1924885898
 72
1
 10
42.9110733681
 20
43.1924885898
 11
42.901023825
 21
43.0391585754
 72
1
 10
42.901023825
 20
43.0391585754
 11
42.8710471465
 21
42.8884535612
 72
1
 10
42.8710471465
 20
42.8884535612
 11
42.8216562418
 21
42.7429535476
 72
1
 10
42.8216562418
 20
42.7429535476
 11
42.7536962028
 21
42.6051485346
 72
1
 10
42.7536962028
 20
42.6051485346
 11
42.6683298448
 21
42.4773785226
 72
1
 10
42.6683298448
 20
42.4773785226
 11
42.5670178098
 21
42.3618635117
 72
1
 10
42.5670178098
 20
42.3618635117
 11
42.4514935748
 21
42.2605535022
 72
1
 10
42.4514935748
 20
42.2605535022
 11
42.3237337915
 21
42.1751884942
 72
1
 10
42.3237337915
 20
42.1751884942
 11
42.1859244651
 21
42.1072234878
 72
1
 10
42.1859244651
 20
42.1072234878
 11
42.0404235516
 21
42.0578284831
 72
1
 10
42.0404235516
 20
42.0578284831
 11
41.8897206118
 21
42.0278584803
 72
1
 10
41.8897206118
 20
42.0278584803
 11
41.7363942149
 21
42.0178040752
 72
1
 10
41.7363942149
 20
42.0178040752
 11
41.5830678179
 21
42.0278584803
 72
1
 10
41.5830678179
 20
42.0278584803
 11
41.4323648782
 21
42.0578284831
 72
1
 10
41.4323648782
 20
42.0578284831
 11
41.2868639646
 21
42.1072234878
 72
1
 10
41.2868639646
 20
42.1072234878
 11
41.1490546383
 21
42.1751884942
 72
1
 10
41.1490546383
 20
42.1751884942
 11
41.021294855
 21
42.2605535022
 72
1
 10
41.021294855
 20
42.2605535022
 11
40.90577062
 21
42.3618635117
 72
1
 10
40.90577062
 20
42.3618635117
 11
40.8044585849
 21
42.4773785226
 72
1
 10
40.8044585849
 20
42.4773785226
 11
40.7190922269
 21
42.6051485346
 72
1
 10
40.7190922269
 20
42.6051485346
 11
40.651132188
 21
42.7429535476
 72
1
 10
40.651132188
 20
42.7429535476
 11
40.6017412832
 21
42.8884535612
 72
1
 10
40.6017412832
 20
42.8884535612
 11
40.5717646047
 21
43.0391585754
 72
1
 10
40.5717646047
 20
43.0391585754
 11
40.5617150617
 21
43.1924885898
 97
1
330
241
 75
0
 76
1
 98
1
 10
0.0
 20
0.0
  0
LWPOLYLINE
  5
243
100
AcDbEntity
  8
Grp_symbol_75_BL0
100
AcDbPolyline
 62
2
  6
CONTINUOUS
 90
8
 70
0
 10
37.967725549
 20
42.1826734949
 10
38.1317739113
 20
41.6994034494
 10
38.3574983263
 20
41.2416784064
 10
33.7234892611
 20
40.7059149573
 10
34.3055625918
 20
41.2989512698
 10
34.7923463263
 20
41.972407301
 10
37.8681601525
 20
42.6832235419
 10
37.967725549
 20
42.1826734949
  0
HATCH
  5
244
100
AcDbEntity
  8
Grp_symbol_75_BL0
100
AcDbHatch
 62
2
  6
CONTINUOUS
 10
0.0
 20
0.0
 30
0.0
210
0.0
220
0.0
230
1.0
  2
SOLID
 70
1
 71
1
 91
1
 92
1
 93
7
 72
1
 10
37.967725549
 20
42.1826734949
 11
38.1317739113
 21
41.6994034494
 72
1
 10
38.1317739113
 20
41.6994034494
 11
38.3574983263
 21
41.2416784064
 72
1
 10
38.3574983263
 20
41.2416784064
 11
33.7234892611
 21
40.7059149573
 72
1
 10
33.7234892611
 20
40.7059149573
 11
34.3055625918
 21
41.2989512698
 72
1
 10
34.3055625918
 20
41.2989512698
 11
34.7923463263
 21
41.972407301
 72
1
 10
34.7923463263
 20
41.972407301
 11
37.8681601525
 21
42.6832235419
 72
1
 10
37.8681601525
 20
42.6832235419
 11
37.967725549
 21
42.1826734949
 97
1
330
243
 75
0
 76
1
 98
1
 10
0.0
 20
0.0
  0
LWPOLYLINE
  5
245
100
AcDbEntity
  8
Grp_symbol_75_BL0
100
AcDbPolyline
 62
2
  6
CONTINUOUS
 90
8
 70
0
 10
38.6410365869
 20
40.8173283665
 10
38.9775372746
 20
40.4336283304
 10
39.3612427694
 20
40.0971182988
 10
32.3277484858
 20
39.8124016837
 10
33.0592323886
 20
40.2066512621
 10
33.7234892611
 20
40.7059149573
 10
38.3574983263
 20
41.2416784064
 10
38.6410365869
 20
40.8173283665
  0
HATCH
  5
246
100
AcDbEntity
  8
Grp_symbol_75_BL0
100
AcDbHatch
 62
2
  6
CONTINUOUS
 10
0.0
 20
0.0
 30
0.0
210
0.0
220
0.0
230
1.0
  2
SOLID
 70
1
 71
1
 91
1
 92
1
 93
7
 72
1
 10
38.6410365869
 20
40.8173283665
 11
38.9775372746
 21
40.4336283304
 72
1
 10
38.9775372746
 20
40.4336283304
 11
39.3612427694
 21
40.0971182988
 72
1
 10
39.3612427694
 20
40.0971182988
 11
32.3277484858
 21
39.8124016837
 72
1
 10
32.3277484858
 20
39.8124016837
 11
33.0592323886
 21
40.2066512621
 72
1
 10
33.0592323886
 20
40.2066512621
 11
33.7234892611
 21
40.7059149573
 72
1
 10
33.7234892611
 20
40.7059149573
 11
38.3574983263
 21
41.2416784064
 72
1
 10
38.3574983263
 20
41.2416784064
 11
38.6410365869
 21
40.8173283665
 97
1
330
245
 75
0
 76
1
 98
1
 10
0.0
 20
0.0
  0
LWPOLYLINE
  5
247
100
AcDbEntity
  8
Grp_symbol_75_BL0
100
AcDbPolyline
 62
2
  6
CONTINUOUS
 90
24
 70
0
 10
39.7855877641
 20
39.8135882721
 10
40.2433115979
 20
39.5878682509
 10
40.7265824893
 20
39.4238132355
 10
41.2271315393
 20
39.3242432261
 10
21.3364803555
 20
38.8191631786
 10
25.0015321238
 20
47.0936547294
 10
24.7259945516
 20
46.3097028964
 10
24.570862437
 20
45.4933479141
 10
24.5396287589
 20
44.662970959
 10
24.6329967799
 20
43.8372689288
 10
24.8488642107
 20
43.0348334595
 10
25.1823705467
 20
42.2737323138
 10
25.626006507
 20
41.5711025643
 10
26.1697831147
 20
40.9427647324
 10
26.8014566107
 20
40.4028665711
 10
27.5068041357
 20
39.9635645119
 10
28.2699439743
 20
39.6347499488
 10
29.0736931504
 20
39.4238132355
 10
29.8999543218
 20
39.3355434164
 10
30.7301232626
 20
39.3718884281
 10
31.5455077589
 20
39.5320432072
 10
32.3277484858
 20
39.8124016837
 10
39.3612427694
 20
40.0971182988
 10
39.7855877641
 20
39.8135882721
  0
HATCH
  5
248
100
AcDbEntity
  8
Grp_symbol_75_BL0
100
AcDbHatch
 62
2
  6
CONTINUOUS
 10
0.0
 20
0.0
 30
0.0
210
0.0
220
0.0
230
1.0
  2
SOLID
 70
1
 71
1
 91
1
 92
1
 93
23
 72
1
 10
39.7855877641
 20
39.8135882721
 11
40.2433115979
 21
39.5878682509
 72
1
 10
40.2433115979
 20
39.5878682509
 11
40.7265824893
 21
39.4238132355
 72
1
 10
40.7265824893
 20
39.4238132355
 11
41.2271315393
 21
39.3242432261
 72
1
 10
41.2271315393
 20
39.3242432261
 11
21.3364803555
 21
38.8191631786
 72
1
 10
21.3364803555
 20
38.8191631786
 11
25.0015321238
 21
47.0936547294
 72
1
 10
25.0015321238
 20
47.0936547294
 11
24.7259945516
 21
46.3097028964
 72
1
 10
24.7259945516
 20
46.3097028964
 11
24.570862437
 21
45.4933479141
 72
1
 10
24.570862437
 20
45.4933479141
 11
24.5396287589
 21
44.662970959
 72
1
 10
24.5396287589
 20
44.662970959
 11
24.6329967799
 21
43.8372689288
 72
1
 10
24.6329967799
 20
43.8372689288
 11
24.8488642107
 21
43.0348334595
 72
1
 10
24.8488642107
 20
43.0348334595
 11
25.1823705467
 21
42.2737323138
 72
1
 10
25.1823705467
 20
42.2737323138
 11
25.626006507
 21
41.5711025643
 72
1
 10
25.626006507
 20
41.5711025643
 11
26.1697831147
 21
40.9427647324
 72
1
 10
26.1697831147
 20
40.9427647324
 11
26.8014566107
 21
40.4028665711
 72
1
 10
26.8014566107
 20
40.4028665711
 11
27.5068041357
 21
39.9635645119
 72
1
 10
27.5068041357
 20
39.9635645119
 11
28.2699439743
 21
39.6347499488
 72
1
 10
28.2699439743
 20
39.6347499488
 11
29.0736931504
 21
39.4238132355
 72
1
 10
29.0736931504
 20
39.4238132355
 11
29.8999543218
 21
39.3355434164
 72
1
 10
29.8999543218
 20
39.3355434164
 11
30.7301232626
 21
39.3718884281
 72
1
 10
30.7301232626
 20
39.3718884281
 11
31.5455077589
 21
39.5320432072
 72
1
 10
31.5455077589
 20
39.5320432072
 11
32.3277484858
 21
39.8124016837
 72
1
 10
32.3277484858
 20
39.8124016837
 11
39.3612427694
 21
40.0971182988
 72
1
 10
39.3612427694
 20
40.0971182988
 11
39.7855877641
 21
39.8135882721
 97
1
330
247
 75
0
 76
1
 98
1
 10
0.0
 20
0.0
  0
LWPOLYLINE
  5
249
100
AcDbEntity
  8
Grp_symbol_75_BL0
100
AcDbPolyline
 62
2
  6
CONTINUOUS
 90
43
 70
0
 10
41.7363942149
 20
39.2908703267
 10
42.2456568904
 20
39.3242432261
 10
42.7462059404
 20
39.4238132355
 10
43.2294768318
 20
39.5878682509
 10
43.6872006657
 20
39.8135882721
 10
44.1115456603
 20
40.0971182988
 10
44.4952511552
 20
40.4336283304
 10
44.8317518429
 20
40.8173283665
 10
45.1152901034
 20
41.2416784064
 10
50.3282831377
 20
38.8191631786
 10
50.3213373056
 20
38.6866381662
 10
50.3005759092
 20
38.5555531538
 10
50.2662264146
 20
38.4273481418
 10
50.2186651621
 20
38.3034481301
 10
50.1584132429
 20
38.185203119
 10
50.0861307894
 20
38.0739031086
 10
50.0026097435
 20
37.9707630989
 10
49.9087651791
 20
37.87690809
 10
49.8056252769
 20
37.7933880822
 10
49.6943200593
 20
37.7211030754
 10
49.5760690096
 20
37.6608630697
 10
49.452167711
 20
37.6132980653
 10
49.323973652
 20
37.578948062
 10
49.1928913536
 20
37.5581880601
 10
49.0603569809
 20
37.5512430594
 10
22.6044065124
 20
37.5512430594
 10
22.4718721397
 20
37.5581880601
 10
22.3407898413
 20
37.578948062
 10
22.2125957823
 20
37.6132980653
 10
22.0886944837
 20
37.6608630697
 10
21.9704434339
 20
37.7211030754
 10
21.8591382164
 20
37.7933880822
 10
21.7559983142
 20
37.87690809
 10
21.6621537498
 20
37.9707630989
 10
21.5786327039
 20
38.0739031086
 10
21.5063502504
 20
38.185203119
 10
21.4460983311
 20
38.3034481301
 10
21.3985370787
 20
38.4273481418
 10
21.3641875841
 20
38.5555531538
 10
21.3434261876
 20
38.6866381662
 10
21.3364803555
 20
38.8191631786
 10
41.2271315393
 20
39.3242432261
 10
41.7363942149
 20
39.2908703267
  0
HATCH
  5
24A
100
AcDbEntity
  8
Grp_symbol_75_BL0
100
AcDbHatch
 62
2
  6
CONTINUOUS
 10
0.0
 20
0.0
 30
0.0
210
0.0
220
0.0
230
1.0
  2
SOLID
 70
1
 71
1
 91
1
 92
1
 93
42
 72
1
 10
41.7363942149
 20
39.2908703267
 11
42.2456568904
 21
39.3242432261
 72
1
 10
42.2456568904
 20
39.3242432261
 11
42.7462059404
 21
39.4238132355
 72
1
 10
42.7462059404
 20
39.4238132355
 11
43.2294768318
 21
39.5878682509
 72
1
 10
43.2294768318
 20
39.5878682509
 11
43.6872006657
 21
39.8135882721
 72
1
 10
43.6872006657
 20
39.8135882721
 11
44.1115456603
 21
40.0971182988
 72
1
 10
44.1115456603
 20
40.0971182988
 11
44.4952511552
 21
40.4336283304
 72
1
 10
44.4952511552
 20
40.4336283304
 11
44.8317518429
 21
40.8173283665
 72
1
 10
44.8317518429
 20
40.8173283665
 11
45.1152901034
 21
41.2416784064
 72
1
 10
45.1152901034
 20
41.2416784064
 11
50.3282831377
 21
38.8191631786
 72
1
 10
50.3282831377
 20
38.8191631786
 11
50.3213373056
 21
38.6866381662
 72
1
 10
50.3213373056
 20
38.6866381662
 11
50.3005759092
 21
38.5555531538
 72
1
 10
50.3005759092
 20
38.5555531538
 11
50.2662264146
 21
38.4273481418
 72
1
 10
50.2662264146
 20
38.4273481418
 11
50.2186651621
 21
38.3034481301
 72
1
 10
50.2186651621
 20
38.3034481301
 11
50.1584132429
 21
38.185203119
 72
1
 10
50.1584132429
 20
38.185203119
 11
50.0861307894
 21
38.0739031086
 72
1
 10
50.0861307894
 20
38.0739031086
 11
50.0026097435
 21
37.9707630989
 72
1
 10
50.0026097435
 20
37.9707630989
 11
49.9087651791
 21
37.87690809
 72
1
 10
49.9087651791
 20
37.87690809
 11
49.8056252769
 21
37.7933880822
 72
1
 10
49.8056252769
 20
37.7933880822
 11
49.6943200593
 21
37.7211030754
 72
1
 10
49.6943200593
 20
37.7211030754
 11
49.5760690096
 21
37.6608630697
 72
1
 10
49.5760690096
 20
37.6608630697
 11
49.452167711
 21
37.6132980653
 72
1
 10
49.452167711
 20
37.6132980653
 11
49.323973652
 21
37.578948062
 72
1
 10
49.323973652
 20
37.578948062
 11
49.1928913536
 21
37.5581880601
 72
1
 10
49.1928913536
 20
37.5581880601
 11
49.0603569809
 21
37.5512430594
 72
1
 10
49.0603569809
 20
37.5512430594
 11
22.6044065124
 21
37.5512430594
 72
1
 10
22.6044065124
 20
37.5512430594
 11
22.4718721397
 21
37.5581880601
 72
1
 10
22.4718721397
 20
37.5581880601
 11
22.3407898413
 21
37.578948062
 72
1
 10
22.3407898413
 20
37.578948062
 11
22.2125957823
 21
37.6132980653
 72
1
 10
22.2125957823
 20
37.6132980653
 11
22.0886944837
 21
37.6608630697
 72
1
 10
22.0886944837
 20
37.6608630697
 11
21.9704434339
 21
37.7211030754
 72
1
 10
21.9704434339
 20
37.7211030754
 11
21.8591382164
 21
37.7933880822
 72
1
 10
21.8591382164
 20
37.7933880822
 11
21.7559983142
 21
37.87690809
 72
1
 10
21.7559983142
 20
37.87690809
 11
21.6621537498
 21
37.9707630989
 72
1
 10
21.6621537498
 20
37.9707630989
 11
21.5786327039
 21
38.0739031086
 72
1
 10
21.5786327039
 20
38.0739031086
 11
21.5063502504
 21
38.185203119
 72
1
 10
21.5063502504
 20
38.185203119
 11
21.4460983311
 21
38.3034481301
 72
1
 10
21.4460983311
 20
38.3034481301
 11
21.3985370787
 21
38.4273481418
 72
1
 10
21.3985370787
 20
38.4273481418
 11
21.3641875841
 21
38.5555531538
 72
1
 10
21.3641875841
 20
38.5555531538
 11
21.3434261876
 21
38.6866381662
 72
1
 10
21.3434261876
 20
38.6866381662
 11
21.3364803555
 21
38.8191631786
 72
1
 10
21.3364803555
 20
38.8191631786
 11
41.2271315393
 21
39.3242432261
 72
1
 10
41.2271315393
 20
39.3242432261
 11
41.7363942149
 21
39.2908703267
 97
1
330
249
 75
0
 76
1
 98
1
 10
0.0
 20
0.0
  0
SOLID
  5
24B
100
AcDbEntity
  8
Grp_symbol_75_BL0
100
AcDbTrace
 62
2
  6
CONTINUOUS
 10
30.31624579
 20
50.4030469364
 11
29.4856873545
 21
50.3770832025
 12
31.1413387109
 22
50.3044411457
 13
50.3282831378
 23
51.2833093506
  0
ENDBLK
  5
24C
100
AcDbEntity
  8
0
  6
BYBLOCK
 62
0
100
AcDbBlockEnd
  0
BLOCK
  5
24D
100
AcDbEntity
  8
Grp_symbol_75_BL1
100
AcDbBlockBegin
  2
GRP_SYMBOL_75_BL1
 70
64
 10
35.8323817466
 20
45.0512400228
  3
GRP_SYMBOL_75_BL1
  1

  0
LINE
  5
24E
100
AcDbEntity
  8
Grp_symbol_75_BL1
100
AcDbLine
 62
2
  6
CONTINUOUS
 10
49.0603569809
 20
37.5512393176
 11
22.6044065124
 21
37.5512393176
  0
LINE
  5
24F
100
AcDbEntity
  8
Grp_symbol_75_BL1
100
AcDbLine
 62
2
  6
CONTINUOUS
 10
30.1783904042
 20
43.7693345981
 11
32.6596330053
 21
43.7693345981
  0
LINE
  5
250
100
AcDbEntity
  8
Grp_symbol_75_BL1
100
AcDbLine
 62
2
  6
CONTINUOUS
 10
35.9903239576
 20
43.7693345981
 11
37.8347813133
 21
43.7693345981
  0
LINE
  5
251
100
AcDbEntity
  8
Grp_symbol_75_BL1
100
AcDbLine
 62
2
  6
CONTINUOUS
 10
37.8347813133
 20
45.9718580103
 11
35.9903239576
 21
45.9718580103
  0
LINE
  5
252
100
AcDbEntity
  8
Grp_symbol_75_BL1
100
AcDbLine
 62
2
  6
CONTINUOUS
 10
35.5006764865
 20
45.9718580103
 11
30.1783904042
 21
45.9718580103
  0
LINE
  5
253
100
AcDbEntity
  8
Grp_symbol_75_BL1
100
AcDbLine
 62
2
  6
CONTINUOUS
 10
45.6380071165
 20
50.1146996666
 11
42.9110733681
 21
50.1146996666
  0
LINE
  5
254
100
AcDbEntity
  8
Grp_symbol_75_BL1
100
AcDbLine
 62
2
  6
CONTINUOUS
 10
40.5617150617
 20
50.1146996666
 11
37.8347813133
 21
50.1146996666
  0
LINE
  5
255
100
AcDbEntity
  8
Grp_symbol_75_BL1
100
AcDbLine
 62
2
  6
CONTINUOUS
 10
22.6044065124
 20
52.551240728
 11
49.0603569809
 21
52.551240728
  0
LINE
  5
256
100
AcDbEntity
  8
Grp_symbol_75_BL1
100
AcDbLine
 62
2
  6
CONTINUOUS
 10
50.1750068583
 20
51.885905706
 11
50.193940209
 21
51.8497493002
  0
LINE
  5
257
100
AcDbEntity
  8
Grp_symbol_75_BL1
100
AcDbLine
 62
2
  6
CONTINUOUS
 10
21.3364803555
 20
38.8191654745
 11
21.3364803555
 21
51.2833145711
  0
LINE
  5
258
100
AcDbEntity
  8
Grp_symbol_75_BL1
100
AcDbLine
 62
2
  6
CONTINUOUS
 10
37.8347813133
 20
50.1146996666
 11
37.8347813133
 21
45.9718580103
  0
LINE
  5
259
100
AcDbEntity
  8
Grp_symbol_75_BL1
100
AcDbLine
 62
2
  6
CONTINUOUS
 10
37.8347813133
 20
43.7693345981
 11
37.8347813133
 21
43.1924832283
  0
LINE
  5
25A
100
AcDbEntity
  8
Grp_symbol_75_BL1
100
AcDbLine
 62
2
  6
CONTINUOUS
 10
40.5617150617
 20
43.1924832283
 11
40.5617150617
 21
50.1146996666
  0
LINE
  5
25B
100
AcDbEntity
  8
Grp_symbol_75_BL1
100
AcDbLine
 62
2
  6
CONTINUOUS
 10
42.9110733681
 20
50.1146996666
 11
42.9110733681
 21
43.1924832283
  0
LINE
  5
25C
100
AcDbEntity
  8
Grp_symbol_75_BL1
100
AcDbLine
 62
2
  6
CONTINUOUS
 10
45.6380071165
 20
43.1924832283
 11
45.6380071165
 21
50.1146996666
  0
LINE
  5
25D
100
AcDbEntity
  8
Grp_symbol_75_BL1
100
AcDbLine
 62
2
  6
CONTINUOUS
 10
50.3282831377
 20
51.2833145711
 11
50.3282831377
 21
38.8191654745
  0
LINE
  5
25E
100
AcDbEntity
  8
Grp_symbol_75_BL1
100
AcDbLine
 62
2
  6
CONTINUOUS
 10
32.369573033
 20
46.4919861578
 11
34.5619115447
 21
48.1142313197
  0
ARC
  5
25F
100
AcDbEntity
  8
Grp_symbol_75_BL1
100
AcDbCircle
 62
2
  6
CONTINUOUS
 10
30.1783904042
 20
44.8705963043
 40
5.9153485927
100
AcDbArc
 50
349.2706340045
 51
10.7293659955
  0
ARC
  5
260
100
AcDbEntity
  8
Grp_symbol_75_BL1
100
AcDbCircle
 62
2
  6
CONTINUOUS
 10
30.073508337
 20
44.8705963043
 40
5.5377731507
100
AcDbArc
 50
35.8545159817
 51
11.4705154501
  0
ARC
  5
261
100
AcDbEntity
  8
Grp_symbol_75_BL1
100
AcDbCircle
 62
2
  6
CONTINUOUS
 10
41.7363942149
 20
43.1924832283
 40
3.9016129016
100
AcDbArc
 50
180.0
 51
360.0
  0
ARC
  5
262
100
AcDbEntity
  8
Grp_symbol_75_BL1
100
AcDbCircle
 62
2
  6
CONTINUOUS
 10
30.073508337
 20
44.8705963043
 40
2.8108394023
100
AcDbArc
 50
35.2282226131
 51
336.934010569
  0
ARC
  5
263
100
AcDbEntity
  8
Grp_symbol_75_BL1
100
AcDbCircle
 62
2
  6
CONTINUOUS
 10
22.6044065124
 20
51.2833145711
 40
1.2679261569
100
AcDbArc
 50
90.0
 51
180.0
  0
ARC
  5
264
100
AcDbEntity
  8
Grp_symbol_75_BL1
100
AcDbCircle
 62
2
  6
CONTINUOUS
 10
49.0603569809
 20
51.2833145711
 40
1.2679261569
100
AcDbArc
 50
0.0
 51
90.0
  0
ARC
  5
265
100
AcDbEntity
  8
Grp_symbol_75_BL1
100
AcDbCircle
 62
2
  6
CONTINUOUS
 10
49.0603569809
 20
38.8191654745
 40
1.2679261569
100
AcDbArc
 50
270.0
 51
360.0
  0
ARC
  5
266
100
AcDbEntity
  8
Grp_symbol_75_BL1
100
AcDbCircle
 62
2
  6
CONTINUOUS
 10
22.6044065124
 20
38.8191654745
 40
1.2679261569
100
AcDbArc
 50
180.0
 51
270.0
  0
ARC
  5
267
100
AcDbEntity
  8
Grp_symbol_75_BL1
100
AcDbCircle
 62
2
  6
CONTINUOUS
 10
41.7363942149
 20
43.1924832283
 40
1.1746791532
100
AcDbArc
 50
180.0
 51
360.0
  0
ARC
  5
268
100
AcDbEntity
  8
Grp_symbol_75_BL1
100
AcDbCircle
 62
2
  6
CONTINUOUS
 10
30.1783904042
 20
44.8705963043
 40
1.1012617061
100
AcDbArc
 50
90.0
 51
270.0
  0
ENDBLK
  5
269
100
AcDbEntity
  8
0
  6
BYBLOCK
 62
0
100
AcDbBlockEnd
  0
BLOCK
  5
26A
100
AcDbEntity
  8
X17970000_BL2
100
AcDbBlockBegin
  2
X17970000_BL2
 70
64
 10
89.0410198889
 20
171.9483438902
  3
X17970000_BL2
  1

  0
LINE
  5
26B
100
AcDbEntity
  8
X17970000_BL2
100
AcDbLine
 62
7
  6
CONTINUOUS
 10
81.5410198889
 20
213.3115828418
 11
81.5410198889
 21
212.5115828418
  0
LINE
  5
26C
100
AcDbEntity
  8
X17970000_BL2
100
AcDbLine
 62
7
  6
CONTINUOUS
 10
86.5410198889
 20
199.1115828418
 11
86.5410198889
 21
197.8115828418
  0
LINE
  5
26D
100
AcDbEntity
  8
X17970000_BL2
100
AcDbLine
 62
7
  6
CONTINUOUS
 10
91.5410198889
 20
197.8115828418
 11
91.5410198889
 21
199.1115828418
  0
LINE
  5
26E
100
AcDbEntity
  8
X17970000_BL2
100
AcDbLine
 62
7
  6
CONTINUOUS
 10
96.5410198889
 20
213.3115828418
 11
96.5410198889
 21
212.5115828418
  0
LINE
  5
26F
100
AcDbEntity
  8
X17970000_BL2
100
AcDbLine
 62
7
  6
CONTINUOUS
 10
91.5410198889
 20
197.8115828418
 11
86.5410198889
 21
197.8115828418
  0
LINE
  5
270
100
AcDbEntity
  8
X17970000_BL2
100
AcDbLine
 62
7
  6
CONTINUOUS
 10
81.541080981
 20
213.3115828418
 11
96.5409587967
 21
213.3115828418
  0
CIRCLE
  5
271
100
AcDbEntity
  8
X17970000_BL2
100
AcDbCircle
 62
7
  6
CONTINUOUS
 10
89.0410198889
 20
138.0851049386
 40
7.5
  0
CIRCLE
  5
272
100
AcDbEntity
  8
X17970000_BL2
100
AcDbCircle
 62
7
  6
CONTINUOUS
 10
89.0410198889
 20
138.0851049386
 40
5.3
  0
ENDBLK
  5
273
100
AcDbEntity
  8
0
  6
BYBLOCK
 62
0
100
AcDbBlockEnd
  0
BLOCK
  5
274
100
AcDbEntity
  8
X22991008_BL3
100
AcDbBlockBegin
  2
X22991008_BL3
 70
64
 10
117.0410198889
 20
185.0733438902
  3
X22991008_BL3
  1

  0
HATCH
  5
275
100
AcDbEntity
  8
X22991008_BL3
100
AcDbHatch
 62
2
  6
CONTINUOUS
 10
0.0
 20
0.0
 30
0.0
210
0.0
220
0.0
230
1.0
  2
default__1
 70
0
 71
0
 91
2
 92
1
 93
5
 72
1
 10
123.7410198889
 20
212.5115828418
 11
126.0410198889
 21
210.0015732894
 72
1
 10
126.0410198889
 20
210.0015732894
 11
126.0410198889
 21
209.5115828418
 72
1
 10
126.0410198889
 20
209.5115828418
 11
120.4891543378
 21
209.5115828418
 72
4
 94
3
 73
0
 74
0
 95
10
 96
6
 40
0.0
 40
0.0
 40
0.0
 40
0.0
 40
0.3333333333
 40
0.6666666667
 40
1.0
 40
1.0
 40
1.0
 40
1.0
 10
120.4891543378
 20
209.5115828418
 10
120.3836098553
 20
209.8795660616
 10
120.2225808845
 20
210.5928929013
 10
120.1401164503
 20
211.6322506325
 10
120.1733947645
 20
212.2301615578
 10
120.2135807456
 20
212.5115828418
 72
1
 10
120.2135807456
 20
212.5115828418
 11
123.7410198889
 21
212.5115828418
 97
0
 92
1
 93
5
 72
1
 10
132.0410198889
 20
210.0015732894
 11
134.3410198889
 21
212.5115828418
 72
1
 10
134.3410198889
 20
212.5115828418
 11
139.0410198889
 21
212.5115828418
 72
1
 10
139.0410198889
 20
212.5115828418
 11
139.0410198889
 21
209.5115828418
 72
1
 10
139.0410198889
 20
209.5115828418
 11
132.0410198889
 21
209.5115828418
 72
1
 10
132.0410198889
 20
209.5115828418
 11
132.0410198889
 21
210.0015732894
 97
0
 75
0
 76
0
 52
285.0
 41
2.2589233351
 77
0
 78
1
 53
285.0
 43
0.0
 44
0.0
 45
2.181952389
 46
0.5846523806
 79
0
 98
1
 10
0.0
 20
0.0
  0
DIMENSION
  5
276
100
AcDbEntity
  8
X22991008_BL3
100
AcDbDimension
 62
2
  6
CONTINUOUS
  2
*D8
 10
154.0410198889
 20
209.5115828418
 11
154.0410198889
 21
211.0171745289
 70
160
 71
2
 72
2
 41
0.9
 42
3.0
  3
DIMSTYLE_3
100
AcDbAlignedDimension
 13
139.0410198889
 23
212.5115828418
 14
139.0410198889
 24
209.5115828418
 50
270.0
100
AcDbRotatedDimension
  0
DIMENSION
  5
277
100
AcDbEntity
  8
X22991008_BL3
100
AcDbDimension
 62
2
  6
CONTINUOUS
  2
*D10
 10
154.0410198889
 20
148.0851049386
 11
154.0410198889
 21
138.0546402328
 70
160
 71
2
 72
2
 41
0.9
 42
20.0
  3
DIMSTYLE_1
100
AcDbAlignedDimension
 13
128.3143010592
 23
128.0851049386
 14
129.0410198889
 24
148.0851049386
 50
90.0
100
AcDbRotatedDimension
  0
DIMENSION
  5
278
100
AcDbEntity
  8
X22991008_BL3
100
AcDbDimension
 62
2
  6
CONTINUOUS
  2
*D11
 10
139.0410198889
 20
238.3115828418
 11
109.0329394531
 21
238.3115828418
 70
160
 71
2
 72
2
 41
0.9
 42
60.0
  3
DIMSTYLE_4
100
AcDbAlignedDimension
 13
79.0410198889
 23
212.6099298215
 14
139.0410198889
 24
212.6647160352
100
AcDbRotatedDimension
  0
LINE
  5
279
100
AcDbEntity
  8
X22991008_BL3
100
AcDbLine
 62
7
  6
CONTINUOUS
 10
89.0410198889
 20
128.0851049386
 11
129.0410198889
 21
128.0851049386
  0
LINE
  5
27A
100
AcDbEntity
  8
X22991008_BL3
100
AcDbLine
 62
7
  6
CENTER
 10
109.0410198889
 20
138.0851049386
 11
109.0410198889
 21
129.7851049386
  0
LINE
  5
27B
100
AcDbEntity
  8
X22991008_BL3
100
AcDbLine
 62
7
  6
CENTER
 10
109.0410198889
 20
138.0851049386
 11
109.0410198889
 21
146.3851049386
  0
LINE
  5
27C
100
AcDbEntity
  8
X22991008_BL3
100
AcDbLine
 62
7
  6
CENTER
 10
129.0410198889
 20
138.0851049386
 11
117.3410198889
 21
138.0851049386
  0
LINE
  5
27D
100
AcDbEntity
  8
X22991008_BL3
100
AcDbLine
 62
7
  6
CENTER
 10
109.0410198889
 20
138.0851049386
 11
100.7410198889
 21
138.0851049386
  0
LINE
  5
27E
100
AcDbEntity
  8
X22991008_BL3
100
AcDbLine
 62
2
  6
CENTER
 10
109.0410198889
 20
138.0851049386
 11
117.3410198889
 21
138.0851049386
  0
LINE
  5
27F
100
AcDbEntity
  8
X22991008_BL3
100
AcDbLine
 62
2
  6
CENTER
 10
129.0410198889
 20
138.0851049386
 11
143.1345132197
 21
138.0851049386
  0
LINE
  5
280
100
AcDbEntity
  8
X22991008_BL3
100
AcDbLine
 62
7
  6
CONTINUOUS
 10
129.0410198889
 20
148.0851049386
 11
89.0410198889
 21
148.0851049386
  0
LINE
  5
281
100
AcDbEntity
  8
X22991008_BL3
100
AcDbLine
 62
7
  6
CENTER
 10
129.0410198889
 20
138.0851049386
 11
129.0410198889
 21
129.7851049386
  0
LINE
  5
282
100
AcDbEntity
  8
X22991008_BL3
100
AcDbLine
 62
7
  6
CENTER
 10
129.0410198889
 20
138.0851049386
 11
129.0410198889
 21
146.3851049386
  0
LINE
  5
283
100
AcDbEntity
  8
X22991008_BL3
100
AcDbLine
 62
7
  6
CONTINUOUS
 10
79.0410198889
 20
209.5115828418
 11
79.0410198889
 21
212.5115828418
  0
LINE
  5
284
100
AcDbEntity
  8
X22991008_BL3
100
AcDbLine
 62
7
  6
CENTER
 10
109.0410198889
 20
215.5115828418
 11
109.0410198889
 21
206.5115828418
  0
LINE
  5
285
100
AcDbEntity
  8
X22991008_BL3
100
AcDbLine
 62
7
  6
CONTINUOUS
 10
79.0410198889
 20
209.5115828418
 11
139.0410198889
 21
209.5115828418
  0
LINE
  5
286
100
AcDbEntity
  8
X22991008_BL3
100
AcDbLine
 62
7
  6
CONTINUOUS
 10
132.0410198889
 20
210.0015732894
 11
126.0410198889
 21
210.0015732894
  0
LINE
  5
287
100
AcDbEntity
  8
X22991008_BL3
100
AcDbLine
 62
7
  6
CONTINUOUS
 10
79.0410198889
 20
212.5115828418
 11
139.0410198889
 21
212.5115828418
  0
LINE
  5
288
100
AcDbEntity
  8
X22991008_BL3
100
AcDbLine
 62
7
  6
CONTINUOUS
 10
132.0410198889
 20
210.0015732894
 11
134.3410198889
 21
212.5115828418
  0
LINE
  5
289
100
AcDbEntity
  8
X22991008_BL3
100
AcDbLine
 62
7
  6
CONTINUOUS
 10
126.0410198889
 20
210.0015732894
 11
123.7410198889
 21
212.5115828418
  0
LINE
  5
28A
100
AcDbEntity
  8
X22991008_BL3
100
AcDbLine
 62
7
  6
CONTINUOUS
 10
126.0410198889
 20
209.5115828418
 11
126.0410198889
 21
210.0015732894
  0
LINE
  5
28B
100
AcDbEntity
  8
X22991008_BL3
100
AcDbLine
 62
7
  6
CENTER
 10
129.0410198889
 20
215.5115828418
 11
129.0410198889
 21
206.5115828418
  0
LINE
  5
28C
100
AcDbEntity
  8
X22991008_BL3
100
AcDbLine
 62
7
  6
CONTINUOUS
 10
132.0410198889
 20
209.5115828418
 11
132.0410198889
 21
210.0015732894
  0
LINE
  5
28D
100
AcDbEntity
  8
X22991008_BL3
100
AcDbLine
 62
7
  6
CONTINUOUS
 10
139.0410198889
 20
209.5115828418
 11
139.0410198889
 21
212.5115828418
  0
ARC
  5
28E
100
AcDbEntity
  8
X22991008_BL3
100
AcDbCircle
 62
7
  6
CONTINUOUS
 10
89.0410198889
 20
138.0851049386
 40
10.0
100
AcDbArc
 50
90.0
 51
270.0
  0
ARC
  5
28F
100
AcDbEntity
  8
X22991008_BL3
100
AcDbCircle
 62
7
  6
CONTINUOUS
 10
129.0410198889
 20
138.0851049386
 40
10.0
100
AcDbArc
 50
270.0
 51
90.0
  0
CIRCLE
  5
290
100
AcDbEntity
  8
X22991008_BL3
100
AcDbCircle
 62
7
  6
CONTINUOUS
 10
129.0410198889
 20
138.0851049386
 40
5.3
  0
CIRCLE
  5
291
100
AcDbEntity
  8
X22991008_BL3
100
AcDbCircle
 62
7
  6
CONTINUOUS
 10
109.0410198889
 20
138.0851049386
 40
5.3
  0
CIRCLE
  5
292
100
AcDbEntity
  8
X22991008_BL3
100
AcDbCircle
 62
7
  6
CONTINUOUS
 10
109.0410198889
 20
138.0851049386
 40
3.0
  0
CIRCLE
  5
293
100
AcDbEntity
  8
X22991008_BL3
100
AcDbCircle
 62
7
  6
CONTINUOUS
 10
129.0410198889
 20
138.0851049386
 40
3.0
  0
ENDBLK
  5
294
100
AcDbEntity
  8
0
  6
BYBLOCK
 62
0
100
AcDbBlockEnd
  0
BLOCK
  5
295
100
AcDbEntity
  8
X00714003_BL4
100
AcDbBlockBegin
  2
X00714003_BL4
 70
64
 10
86.9402493425
 20
175.3482938902
  3
X00714003_BL4
  1

  0
DIMENSION
  5
296
100
AcDbEntity
  8
X00714003_BL4
100
AcDbDimension
 62
2
  6
CONTINUOUS
  2
*D9
 10
81.5410198889
 20
182.8115828418
 11
89.0410198889
 21
182.8115828418
 70
160
 71
2
 72
2
 41
0.9
 42
15.0
  1
%%c<>
  3
DIMSTYLE_1
100
AcDbAlignedDimension
 13
96.5410198889
 23
199.1115828418
 14
81.5410198889
 24
199.1115828418
 50
180.0
100
AcDbRotatedDimension
  0
LINE
  5
297
100
AcDbEntity
  8
X00714003_BL4
100
AcDbLine
 62
7
  6
CENTER
 10
89.0410198889
 20
138.0851049386
 11
89.0410198889
 21
135.0850049386
  0
LINE
  5
298
100
AcDbEntity
  8
X00714003_BL4
100
AcDbLine
 62
7
  6
CENTER
 10
89.0410198889
 20
138.0851049386
 11
89.0410198889
 21
141.0852049386
  0
LINE
  5
299
100
AcDbEntity
  8
X00714003_BL4
100
AcDbLine
 62
7
  6
CENTER
 10
89.0410198889
 20
138.0851049386
 11
70.3394787961
 21
138.0851049386
  0
LINE
  5
29A
100
AcDbEntity
  8
X00714003_BL4
100
AcDbLine
 62
2
  6
CENTER
 10
89.0410198889
 20
138.0851049386
 11
103.2146556326
 21
138.0851049386
  0
LINE
  5
29B
100
AcDbEntity
  8
X00714003_BL4
100
AcDbLine
 62
7
  6
CONTINUOUS
 10
81.5410198889
 20
199.1115828418
 11
81.5410198889
 21
209.2115828418
  0
LINE
  5
29C
100
AcDbEntity
  8
X00714003_BL4
100
AcDbLine
 62
7
  6
CONTINUOUS
 10
82.1410198889
 20
209.2115828418
 11
82.1410198889
 21
209.5115828418
  0
LINE
  5
29D
100
AcDbEntity
  8
X00714003_BL4
100
AcDbLine
 62
7
  6
CENTER
 10
89.0410198889
 20
196.1115828418
 11
89.0410198889
 21
215.6115828418
  0
LINE
  5
29E
100
AcDbEntity
  8
X00714003_BL4
100
AcDbLine
 62
7
  6
CONTINUOUS
 10
95.9410198889
 20
209.2115828418
 11
95.9410198889
 21
209.5115828418
  0
LINE
  5
29F
100
AcDbEntity
  8
X00714003_BL4
100
AcDbLine
 62
7
  6
CONTINUOUS
 10
96.5410198889
 20
199.1115828418
 11
96.5410198889
 21
209.2115828418
  0
LINE
  5
2A0
100
AcDbEntity
  8
X00714003_BL4
100
AcDbLine
 62
7
  6
CONTINUOUS
 10
81.5410198889
 20
199.1115828418
 11
96.5410198889
 21
199.1115828418
  0
LINE
  5
2A1
100
AcDbEntity
  8
X00714003_BL4
100
AcDbLine
 62
7
  6
CONTINUOUS
 10
81.5410198889
 20
209.2115828418
 11
96.5410198889
 21
209.2115828418
  0
ENDBLK
  5
2A2
100
AcDbEntity
  8
0
  6
BYBLOCK
 62
0
100
AcDbBlockEnd
  0
BLOCK
  5
2A3
100
AcDbEntity
  8
0
100
AcDbBlockBegin
  2
_FILLED
 70
64
 10
0.0
 20
0.0
  3
_FILLED
  1

  0
SOLID
  5
2A4
100
AcDbEntity
  8
0
  6
BYBLOCK
 62
0
100
AcDbTrace
 10
0.0
 20
0.0
 11
-1.0
 21
0.1428571429
 12
-1.0
 22
-0.1428571429
 13
-1.0
 23
-0.1428571429
  0
ENDBLK
  5
2A5
100
AcDbEntity
  8
0
  6
BYBLOCK
 62
0
100
AcDbBlockEnd
  0
BLOCK
  5
2A6
100
AcDbEntity
  8
0
100
AcDbBlockBegin
 62
2
  6
CONTINUOUS
  2
*D0
 70
65
 10
0.0
 20
0.0
  3
*D0
  1

  0
MTEXT
  5
2A7
100
AcDbEntity
  8
0
100
AcDbMText
 62
5
  6
CONTINUOUS
  7
TEXTSTYLE_1
 71
2
 72
1
 10
89.291701995
 20
161.8349158406
 30
0.0
 11
0.9999495739
 21
-0.0100423964
 31
0.0
 73
2
 44
0.9
  1
{\fgdt;n}\fArial Unicode MS;10.6
 40
3.0
 41
12.1828358209
  0
LINE
  5
2A8
100
AcDbEntity
  8
0
100
AcDbLine
 62
2
  6
CONTINUOUS
 10
94.3407526304
 20
138.0318802378
 11
94.5340801162
 21
157.2820402176
  0
LINE
  5
2A9
100
AcDbEntity
  8
0
100
AcDbLine
 62
2
  6
CONTINUOUS
 10
83.7412871474
 20
138.1383296395
 11
83.9346146332
 21
157.3884896193
  0
LINE
  5
2AA
100
AcDbEntity
  8
0
100
AcDbLine
 62
2
  6
CONTINUOUS
 10
94.5416119135
 20
158.032002398
 11
89.241879172
 21
158.0852270989
  0
LINE
  5
2AB
100
AcDbEntity
  8
0
100
AcDbLine
 62
2
  6
CONTINUOUS
 10
83.9421464305
 20
158.1384517997
 11
89.241879172
 21
158.0852270989
  0
INSERT
  5
2AC
100
AcDbEntity
  8
0
100
AcDbBlockReference
 62
2
  6
CONTINUOUS
  2
_FILLED
 10
94.5416119135
 20
158.032002398
 41
3.5
 42
3.5
 43
3.5
 50
359.424603399
  0
INSERT
  5
2AD
100
AcDbEntity
  8
0
100
AcDbBlockReference
 62
2
  6
CONTINUOUS
  2
_FILLED
 10
83.9421464305
 20
158.1384517997
 41
3.5
 42
3.5
 43
3.5
 50
179.424603399
  0
ENDBLK
  5
2AE
100
AcDbEntity
  8
0
  6
BYBLOCK
 62
0
100
AcDbBlockEnd
  0
BLOCK
  5
2AF
100
AcDbEntity
  8
0
100
AcDbBlockBegin
 62
2
  6
CONTINUOUS
  2
*D1
 70
65
 10
0.0
 20
0.0
  3
*D1
  1

  0
MTEXT
  5
2B0
100
AcDbEntity
  8
0
100
AcDbMText
 62
5
  6
CONTINUOUS
  7
STANDARD
 71
2
 72
1
 10
50.2910198889
 20
205.5615828418
 30
0.0
 11
0.0
 21
1.0
 31
0.0
 73
2
 44
0.9
  1
15.5
 40
3.0
 41
8.1828358209
  0
LINE
  5
2B1
100
AcDbEntity
  8
0
100
AcDbLine
 62
2
  6
CONTINUOUS
 10
81.5410198889
 20
213.3115828418
 11
53.0410198889
 21
213.3115828418
  0
LINE
  5
2B2
100
AcDbEntity
  8
0
100
AcDbLine
 62
2
  6
CONTINUOUS
 10
86.5410198889
 20
197.8115828418
 11
53.0410198889
 21
197.8115828418
  0
LINE
  5
2B3
100
AcDbEntity
  8
0
100
AcDbLine
 62
2
  6
CONTINUOUS
 10
54.0410198889
 20
213.3115828418
 11
54.0410198889
 21
205.5615828418
  0
LINE
  5
2B4
100
AcDbEntity
  8
0
100
AcDbLine
 62
2
  6
CONTINUOUS
 10
54.0410198889
 20
197.8115828418
 11
54.0410198889
 21
205.5615828418
  0
INSERT
  5
2B5
100
AcDbEntity
  8
0
100
AcDbBlockReference
 62
2
  6
CONTINUOUS
  2
_FILLED
 10
54.0410198889
 20
213.3115828418
 41
3.5
 42
3.5
 43
3.5
 50
90.0
  0
INSERT
  5
2B6
100
AcDbEntity
  8
0
100
AcDbBlockReference
 62
2
  6
CONTINUOUS
  2
_FILLED
 10
54.0410198889
 20
197.8115828418
 41
3.5
 42
3.5
 43
3.5
 50
270.0
  0
ENDBLK
  5
2B7
100
AcDbEntity
  8
0
  6
BYBLOCK
 62
0
100
AcDbBlockEnd
  0
BLOCK
  5
2B8
100
AcDbEntity
  8
0
100
AcDbBlockBegin
 62
2
  6
CONTINUOUS
  2
*D2
 70
65
 10
0.0
 20
0.0
  3
*D2
  1

  0
MTEXT
  5
2B9
100
AcDbEntity
  8
0
100
AcDbMText
 62
5
  6
CONTINUOUS
  7
STANDARD
 71
2
 72
1
 10
60.2910198889
 20
204.3115828418
 30
0.0
 11
0.0
 21
1.0
 31
0.0
 73
2
 44
0.9
  1
10
 40
3.0
 41
4.6791044776
  0
LINE
  5
2BA
100
AcDbEntity
  8
0
100
AcDbLine
 62
2
  6
CONTINUOUS
 10
89.0410198889
 20
209.5115828418
 11
63.0410198889
 21
209.5115828418
  0
LINE
  5
2BB
100
AcDbEntity
  8
0
100
AcDbLine
 62
2
  6
CONTINUOUS
 10
81.5410198889
 20
199.1115828418
 11
63.0410198889
 21
199.1115828418
  0
LINE
  5
2BC
100
AcDbEntity
  8
0
100
AcDbLine
 62
2
  6
CONTINUOUS
 10
64.0410198889
 20
209.5115828418
 11
64.0410198889
 21
216.5115828418
  0
LINE
  5
2BD
100
AcDbEntity
  8
0
100
AcDbLine
 62
2
  6
CONTINUOUS
 10
64.0410198889
 20
216.5115828418
 11
64.0410198889
 21
204.3115828418
  0
LINE
  5
2BE
100
AcDbEntity
  8
0
100
AcDbLine
 62
2
  6
CONTINUOUS
 10
64.0410198889
 20
199.1115828418
 11
64.0410198889
 21
192.1115828418
  0
LINE
  5
2BF
100
AcDbEntity
  8
0
100
AcDbLine
 62
2
  6
CONTINUOUS
 10
64.0410198889
 20
192.1115828418
 11
64.0410198889
 21
204.3115828418
  0
INSERT
  5
2C0
100
AcDbEntity
  8
0
100
AcDbBlockReference
 62
2
  6
CONTINUOUS
  2
_FILLED
 10
64.0410198889
 20
209.5115828418
 41
3.5
 42
3.5
 43
3.5
 50
270.0
  0
INSERT
  5
2C1
100
AcDbEntity
  8
0
100
AcDbBlockReference
 62
2
  6
CONTINUOUS
  2
_FILLED
 10
64.0410198889
 20
199.1115828418
 41
3.5
 42
3.5
 43
3.5
 50
90.0
  0
ENDBLK
  5
2C2
100
AcDbEntity
  8
0
  6
BYBLOCK
 62
0
100
AcDbBlockEnd
  0
BLOCK
  5
2C3
100
AcDbEntity
  8
0
100
AcDbBlockBegin
 62
2
  6
CONTINUOUS
  2
*D3
 70
65
 10
0.0
 20
0.0
  3
*D3
  1

  0
MTEXT
  5
2C4
100
AcDbEntity
  8
0
100
AcDbMText
 62
5
  6
CONTINUOUS
  7
TEXTSTYLE_1
 71
3
 72
1
 10
120.67155072
 20
186.5615828418
 30
0.0
 11
1.0
 21
0.0
 31
0.0
 73
2
 44
0.9
  1
{\fgdt;n}\fArial Unicode MS;6
 40
3.0
 41
6.3395522388
  0
LINE
  5
2C5
100
AcDbEntity
  8
0
100
AcDbLine
 62
2
  6
CONTINUOUS
 10
126.0410198889
 20
209.5115828418
 11
126.0410198889
 21
181.8115828418
  0
LINE
  5
2C6
100
AcDbEntity
  8
0
100
AcDbLine
 62
2
  6
CONTINUOUS
 10
132.0410198889
 20
209.5115828418
 11
132.0410198889
 21
181.8115828418
  0
LINE
  5
2C7
100
AcDbEntity
  8
0
100
AcDbLine
 62
2
  6
CONTINUOUS
 10
126.0410198889
 20
182.8115828418
 11
114.3319984812
 21
182.8115828418
  0
LINE
  5
2C8
100
AcDbEntity
  8
0
100
AcDbLine
 62
2
  6
CONTINUOUS
 10
114.3319984812
 20
182.8115828418
 11
129.0410198889
 21
182.8115828418
  0
LINE
  5
2C9
100
AcDbEntity
  8
0
100
AcDbLine
 62
2
  6
CONTINUOUS
 10
132.0410198889
 20
182.8115828418
 11
139.0410198889
 21
182.8115828418
  0
LINE
  5
2CA
100
AcDbEntity
  8
0
100
AcDbLine
 62
2
  6
CONTINUOUS
 10
139.0410198889
 20
182.8115828418
 11
129.0410198889
 21
182.8115828418
  0
INSERT
  5
2CB
100
AcDbEntity
  8
0
100
AcDbBlockReference
 62
2
  6
CONTINUOUS
  2
_FILLED
 10
126.0410198889
 20
182.8115828418
 41
3.5
 42
3.5
 43
3.5
  0
INSERT
  5
2CC
100
AcDbEntity
  8
0
100
AcDbBlockReference
 62
2
  6
CONTINUOUS
  2
_FILLED
 10
132.0410198889
 20
182.8115828418
 41
3.5
 42
3.5
 43
3.5
 50
180.0
  0
ENDBLK
  5
2CD
100
AcDbEntity
  8
0
  6
BYBLOCK
 62
0
100
AcDbBlockEnd
  0
BLOCK
  5
2CE
100
AcDbEntity
  8
0
100
AcDbBlockBegin
 62
2
  6
CONTINUOUS
  2
*D4
 70
65
 10
0.0
 20
0.0
  3
*D4
  1

  0
MTEXT
  5
2CF
100
AcDbEntity
  8
0
100
AcDbMText
 62
5
  6
CONTINUOUS
  7
TEXTSTYLE_1
 71
3
 72
1
 10
121.3334153849
 20
232.0615828418
 30
0.0
 11
1.0
 21
0.0
 31
0.0
 73
2
 44
0.9
  1
{\fgdt;n}\fArial Unicode MS;10.6
 40
3.0
 41
12.1828358209
  0
LINE
  5
2D0
100
AcDbEntity
  8
0
100
AcDbLine
 62
2
  6
CONTINUOUS
 10
123.7410198889
 20
212.5115828418
 11
123.7410198889
 21
229.3115828418
  0
LINE
  5
2D1
100
AcDbEntity
  8
0
100
AcDbLine
 62
2
  6
CONTINUOUS
 10
134.3410198889
 20
212.5115828418
 11
134.3410198889
 21
229.3115828418
  0
LINE
  5
2D2
100
AcDbEntity
  8
0
100
AcDbLine
 62
2
  6
CONTINUOUS
 10
123.7410198889
 20
228.3115828418
 11
129.0410198889
 21
228.3115828418
  0
LINE
  5
2D3
100
AcDbEntity
  8
0
100
AcDbLine
 62
2
  6
CONTINUOUS
 10
129.0410198889
 20
228.3115828418
 11
109.150579564
 21
228.3115828418
  0
LINE
  5
2D4
100
AcDbEntity
  8
0
100
AcDbLine
 62
2
  6
CONTINUOUS
 10
134.3410198889
 20
228.3115828418
 11
129.0410198889
 21
228.3115828418
  0
INSERT
  5
2D5
100
AcDbEntity
  8
0
100
AcDbBlockReference
 62
2
  6
CONTINUOUS
  2
_FILLED
 10
123.7410198889
 20
228.3115828418
 41
3.5
 42
3.5
 43
3.5
 50
180.0
  0
INSERT
  5
2D6
100
AcDbEntity
  8
0
100
AcDbBlockReference
 62
2
  6
CONTINUOUS
  2
_FILLED
 10
134.3410198889
 20
228.3115828418
 41
3.5
 42
3.5
 43
3.5
  0
ENDBLK
  5
2D7
100
AcDbEntity
  8
0
  6
BYBLOCK
 62
0
100
AcDbBlockEnd
  0
BLOCK
  5
2D8
100
AcDbEntity
  8
0
100
AcDbBlockBegin
 62
2
  6
CONTINUOUS
  2
*D5
 70
65
 10
0.0
 20
0.0
  3
*D5
  1

  0
MTEXT
  5
2D9
100
AcDbEntity
  8
0
100
AcDbMText
 62
5
  6
CONTINUOUS
  7
STANDARD
 71
2
 72
1
 10
119.6245588338
 20
116.767889903
 30
0.0
 11
1.0
 21
0.0
 31
0.0
 73
2
 44
0.9
  1
20
 40
3.0
 41
4.6791044776
  0
LINE
  5
2DA
100
AcDbEntity
  8
0
100
AcDbLine
 62
2
  6
CONTINUOUS
 10
109.0410198889
 20
131.4975243422
 11
109.0410198889
 21
112.017889903
  0
LINE
  5
2DB
100
AcDbEntity
  8
0
100
AcDbLine
 62
2
  6
CONTINUOUS
 10
129.0410198889
 20
132.6975006045
 11
129.0410198889
 21
112.017889903
  0
LINE
  5
2DC
100
AcDbEntity
  8
0
100
AcDbLine
 62
2
  6
CONTINUOUS
 10
109.0410198889
 20
113.017889903
 11
119.0410198889
 21
113.017889903
  0
LINE
  5
2DD
100
AcDbEntity
  8
0
100
AcDbLine
 62
2
  6
CONTINUOUS
 10
129.0410198889
 20
113.017889903
 11
119.0410198889
 21
113.017889903
  0
INSERT
  5
2DE
100
AcDbEntity
  8
0
100
AcDbBlockReference
 62
2
  6
CONTINUOUS
  2
_FILLED
 10
109.0410198889
 20
113.017889903
 41
3.5
 42
3.5
 43
3.5
 50
180.0
  0
INSERT
  5
2DF
100
AcDbEntity
  8
0
100
AcDbBlockReference
 62
2
  6
CONTINUOUS
  2
_FILLED
 10
129.0410198889
 20
113.017889903
 41
3.5
 42
3.5
 43
3.5
  0
ENDBLK
  5
2E0
100
AcDbEntity
  8
0
  6
BYBLOCK
 62
0
100
AcDbBlockEnd
  0
BLOCK
  5
2E1
100
AcDbEntity
  8
0
100
AcDbBlockBegin
 62
2
  6
CONTINUOUS
  2
*D6
 70
65
 10
0.0
 20
0.0
  3
*D6
  1

  0
MTEXT
  5
2E2
100
AcDbEntity
  8
0
100
AcDbMText
 62
5
  6
CONTINUOUS
  7
STANDARD
 71
2
 72
1
 10
98.2649813651
 20
116.767889903
 30
0.0
 11
1.0
 21
0.0
 31
0.0
 73
2
 44
0.9
  1
20
 40
3.0
 41
4.6791044776
  0
LINE
  5
2E3
100
AcDbEntity
  8
0
100
AcDbLine
 62
2
  6
CONTINUOUS
 10
89.0410198889
 20
134.8574578766
 11
89.0410198889
 21
112.017889903
  0
LINE
  5
2E4
100
AcDbEntity
  8
0
100
AcDbLine
 62
2
  6
CONTINUOUS
 10
109.0410198889
 20
136.2974293913
 11
109.0410198889
 21
112.017889903
  0
LINE
  5
2E5
100
AcDbEntity
  8
0
100
AcDbLine
 62
2
  6
CONTINUOUS
 10
89.0410198889
 20
113.017889903
 11
99.0410198889
 21
113.017889903
  0
LINE
  5
2E6
100
AcDbEntity
  8
0
100
AcDbLine
 62
2
  6
CONTINUOUS
 10
109.0410198889
 20
113.017889903
 11
99.0410198889
 21
113.017889903
  0
INSERT
  5
2E7
100
AcDbEntity
  8
0
100
AcDbBlockReference
 62
2
  6
CONTINUOUS
  2
_FILLED
 10
89.0410198889
 20
113.017889903
 41
3.5
 42
3.5
 43
3.5
 50
180.0
  0
INSERT
  5
2E8
100
AcDbEntity
  8
0
100
AcDbBlockReference
 62
2
  6
CONTINUOUS
  2
_FILLED
 10
109.0410198889
 20
113.017889903
 41
3.5
 42
3.5
 43
3.5
  0
ENDBLK
  5
2E9
100
AcDbEntity
  8
0
  6
BYBLOCK
 62
0
100
AcDbBlockEnd
  0
BLOCK
  5
2EA
100
AcDbEntity
  8
0
100
AcDbBlockBegin
 62
2
  6
CONTINUOUS
  2
*D7
 70
65
 10
0.0
 20
0.0
  3
*D7
  1

  0
MTEXT
  5
2EB
100
AcDbEntity
  8
0
100
AcDbMText
 62
5
  6
CONTINUOUS
  7
STANDARD
 71
2
 72
1
 10
134.0410198889
 20
116.8351049386
 30
0.0
 11
1.0
 21
0.0
 31
0.0
 73
2
 44
0.9
  1
10
 40
3.0
 41
4.6791044776
  0
LINE
  5
2EC
100
AcDbEntity
  8
0
100
AcDbLine
 62
2
  6
CONTINUOUS
 10
129.0410198889
 20
133.9184620516
 11
129.0410198889
 21
112.0851049386
  0
LINE
  5
2ED
100
AcDbEntity
  8
0
100
AcDbLine
 62
2
  6
CONTINUOUS
 10
139.0410198889
 20
138.0851049386
 11
139.0410198889
 21
112.0851049386
  0
LINE
  5
2EE
100
AcDbEntity
  8
0
100
AcDbLine
 62
2
  6
CONTINUOUS
 10
129.0410198889
 20
113.0851049386
 11
122.0410198889
 21
113.0851049386
  0
LINE
  5
2EF
100
AcDbEntity
  8
0
100
AcDbLine
 62
2
  6
CONTINUOUS
 10
122.0410198889
 20
113.0851049386
 11
134.0410198889
 21
113.0851049386
  0
LINE
  5
2F0
100
AcDbEntity
  8
0
100
AcDbLine
 62
2
  6
CONTINUOUS
 10
139.0410198889
 20
113.0851049386
 11
146.0410198889
 21
113.0851049386
  0
LINE
  5
2F1
100
AcDbEntity
  8
0
100
AcDbLine
 62
2
  6
CONTINUOUS
 10
146.0410198889
 20
113.0851049386
 11
134.0410198889
 21
113.0851049386
  0
INSERT
  5
2F2
100
AcDbEntity
  8
0
100
AcDbBlockReference
 62
2
  6
CONTINUOUS
  2
_FILLED
 10
129.0410198889
 20
113.0851049386
 41
3.5
 42
3.5
 43
3.5
  0
INSERT
  5
2F3
100
AcDbEntity
  8
0
100
AcDbBlockReference
 62
2
  6
CONTINUOUS
  2
_FILLED
 10
139.0410198889
 20
113.0851049386
 41
3.5
 42
3.5
 43
3.5
 50
180.0
  0
ENDBLK
  5
2F4
100
AcDbEntity
  8
0
  6
BYBLOCK
 62
0
100
AcDbBlockEnd
  0
BLOCK
  5
2F5
100
AcDbEntity
  8
0
100
AcDbBlockBegin
 62
2
  6
CONTINUOUS
  2
*D8
 70
65
 10
0.0
 20
0.0
  3
*D8
  1

  0
MTEXT
  5
2F6
100
AcDbEntity
  8
0
100
AcDbMText
 62
5
  6
CONTINUOUS
  7
STANDARD
 71
2
 72
1
 10
150.2910198889
 20
211.0115828418
 30
0.0
 11
0.0
 21
1.0
 31
0.0
 73
2
 44
0.9
  1
3
 40
3.0
 41
2.3395522388
  0
LINE
  5
2F7
100
AcDbEntity
  8
0
100
AcDbLine
 62
2
  6
CONTINUOUS
 10
139.0410198889
 20
212.5115828418
 11
155.0410198889
 21
212.5115828418
  0
LINE
  5
2F8
100
AcDbEntity
  8
0
100
AcDbLine
 62
2
  6
CONTINUOUS
 10
139.0410198889
 20
209.5115828418
 11
155.0410198889
 21
209.5115828418
  0
LINE
  5
2F9
100
AcDbEntity
  8
0
100
AcDbLine
 62
2
  6
CONTINUOUS
 10
154.0410198889
 20
212.5115828418
 11
154.0410198889
 21
219.5115828418
  0
LINE
  5
2FA
100
AcDbEntity
  8
0
100
AcDbLine
 62
2
  6
CONTINUOUS
 10
154.0410198889
 20
219.5115828418
 11
154.0410198889
 21
211.0115828418
  0
LINE
  5
2FB
100
AcDbEntity
  8
0
100
AcDbLine
 62
2
  6
CONTINUOUS
 10
154.0410198889
 20
209.5115828418
 11
154.0410198889
 21
202.5115828418
  0
LINE
  5
2FC
100
AcDbEntity
  8
0
100
AcDbLine
 62
2
  6
CONTINUOUS
 10
154.0410198889
 20
202.5115828418
 11
154.0410198889
 21
211.0115828418
  0
INSERT
  5
2FD
100
AcDbEntity
  8
0
100
AcDbBlockReference
 62
2
  6
CONTINUOUS
  2
_FILLED
 10
154.0410198889
 20
212.5115828418
 41
3.5
 42
3.5
 43
3.5
 50
270.0
  0
INSERT
  5
2FE
100
AcDbEntity
  8
0
100
AcDbBlockReference
 62
2
  6
CONTINUOUS
  2
_FILLED
 10
154.0410198889
 20
209.5115828418
 41
3.5
 42
3.5
 43
3.5
 50
90.0
  0
ENDBLK
  5
2FF
100
AcDbEntity
  8
0
  6
BYBLOCK
 62
0
100
AcDbBlockEnd
  0
BLOCK
  5
300
100
AcDbEntity
  8
0
100
AcDbBlockBegin
 62
2
  6
CONTINUOUS
  2
*D9
 70
65
 10
0.0
 20
0.0
  3
*D9
  1

  0
MTEXT
  5
301
100
AcDbEntity
  8
0
100
AcDbMText
 62
5
  6
CONTINUOUS
  7
TEXTSTYLE_1
 71
2
 72
1
 10
89.0410198889
 20
186.5615828418
 30
0.0
 11
1.0
 21
0.0
 31
0.0
 73
2
 44
0.9
  1
{\fgdt;n}\fArial Unicode MS;15
 40
3.0
 41
8.6791044776
  0
LINE
  5
302
100
AcDbEntity
  8
0
100
AcDbLine
 62
2
  6
CONTINUOUS
 10
96.5410198889
 20
199.1115828418
 11
96.5410198889
 21
181.8115828418
  0
LINE
  5
303
100
AcDbEntity
  8
0
100
AcDbLine
 62
2
  6
CONTINUOUS
 10
81.5410198889
 20
199.1115828418
 11
81.5410198889
 21
181.8115828418
  0
LINE
  5
304
100
AcDbEntity
  8
0
100
AcDbLine
 62
2
  6
CONTINUOUS
 10
96.5410198889
 20
182.8115828418
 11
103.5410198889
 21
182.8115828418
  0
LINE
  5
305
100
AcDbEntity
  8
0
100
AcDbLine
 62
2
  6
CONTINUOUS
 10
103.5410198889
 20
182.8115828418
 11
89.0410198889
 21
182.8115828418
  0
LINE
  5
306
100
AcDbEntity
  8
0
100
AcDbLine
 62
2
  6
CONTINUOUS
 10
81.5410198889
 20
182.8115828418
 11
74.5410198889
 21
182.8115828418
  0
LINE
  5
307
100
AcDbEntity
  8
0
100
AcDbLine
 62
2
  6
CONTINUOUS
 10
74.5410198889
 20
182.8115828418
 11
89.0410198889
 21
182.8115828418
  0
INSERT
  5
308
100
AcDbEntity
  8
0
100
AcDbBlockReference
 62
2
  6
CONTINUOUS
  2
_FILLED
 10
96.5410198889
 20
182.8115828418
 41
3.5
 42
3.5
 43
3.5
 50
180.0
  0
INSERT
  5
309
100
AcDbEntity
  8
0
100
AcDbBlockReference
 62
2
  6
CONTINUOUS
  2
_FILLED
 10
81.5410198889
 20
182.8115828418
 41
3.5
 42
3.5
 43
3.5
  0
ENDBLK
  5
30A
100
AcDbEntity
  8
0
  6
BYBLOCK
 62
0
100
AcDbBlockEnd
  0
BLOCK
  5
30B
100
AcDbEntity
  8
0
100
AcDbBlockBegin
 62
2
  6
CONTINUOUS
  2
*D10
 70
65
 10
0.0
 20
0.0
  3
*D10
  1

  0
MTEXT
  5
30C
100
AcDbEntity
  8
0
100
AcDbMText
 62
5
  6
CONTINUOUS
  7
STANDARD
 71
2
 72
1
 10
150.2910198889
 20
138.0851049386
 30
0.0
 11
0.0
 21
1.0
 31
0.0
 73
2
 44
0.9
  1
20
 40
3.0
 41
4.6791044776
  0
LINE
  5
30D
100
AcDbEntity
  8
0
100
AcDbLine
 62
2
  6
CONTINUOUS
 10
128.3143010592
 20
128.0851049386
 11
138.5541139375
 21
128.0851049386
  0
LINE
  5
30E
100
AcDbEntity
  8
0
100
AcDbLine
 62
2
  6
CONTINUOUS
 10
139.4945735995
 20
128.0851049386
 11
155.0410198889
 21
128.0851049386
  0
LINE
  5
30F
100
AcDbEntity
  8
0
100
AcDbLine
 62
2
  6
CONTINUOUS
 10
129.0410198889
 20
148.0851049386
 11
138.3444772221
 21
148.0851049386
  0
LINE
  5
310
100
AcDbEntity
  8
0
100
AcDbLine
 62
2
  6
CONTINUOUS
 10
139.6135634136
 20
148.0851049386
 11
155.0410198889
 21
148.0851049386
  0
LINE
  5
311
100
AcDbEntity
  8
0
100
AcDbLine
 62
2
  6
CONTINUOUS
 10
154.0410198889
 20
128.0851049386
 11
154.0410198889
 21
138.0851049386
  0
LINE
  5
312
100
AcDbEntity
  8
0
100
AcDbLine
 62
2
  6
CONTINUOUS
 10
154.0410198889
 20
148.0851049386
 11
154.0410198889
 21
138.0851049386
  0
INSERT
  5
313
100
AcDbEntity
  8
0
100
AcDbBlockReference
 62
2
  6
CONTINUOUS
  2
_FILLED
 10
154.0410198889
 20
128.0851049386
 41
3.5
 42
3.5
 43
3.5
 50
270.0
  0
INSERT
  5
314
100
AcDbEntity
  8
0
100
AcDbBlockReference
 62
2
  6
CONTINUOUS
  2
_FILLED
 10
154.0410198889
 20
148.0851049386
 41
3.5
 42
3.5
 43
3.5
 50
90.0
  0
ENDBLK
  5
315
100
AcDbEntity
  8
0
  6
BYBLOCK
 62
0
100
AcDbBlockEnd
  0
BLOCK
  5
316
100
AcDbEntity
  8
0
100
AcDbBlockBegin
 62
2
  6
CONTINUOUS
  2
*D11
 70
65
 10
0.0
 20
0.0
  3
*D11
  1

  0
MTEXT
  5
317
100
AcDbEntity
  8
0
100
AcDbMText
 62
5
  6
CONTINUOUS
  7
STANDARD
 71
2
 72
1
 10
109.0410198889
 20
242.0615828418
 30
0.0
 11
1.0
 21
0.0
 31
0.0
 73
2
 44
0.9
  1
60
 40
3.0
 41
4.6791044776
  0
LINE
  5
318
100
AcDbEntity
  8
0
100
AcDbLine
 62
2
  6
CONTINUOUS
 10
79.0410198889
 20
212.6099298215
 11
79.0410198889
 21
239.3115828418
  0
LINE
  5
319
100
AcDbEntity
  8
0
100
AcDbLine
 62
2
  6
CONTINUOUS
 10
139.0410198889
 20
212.6647160352
 11
139.0410198889
 21
239.3115828418
  0
LINE
  5
31A
100
AcDbEntity
  8
0
100
AcDbLine
 62
2
  6
CONTINUOUS
 10
79.0410198889
 20
238.3115828418
 11
109.0410198889
 21
238.3115828418
  0
LINE
  5
31B
100
AcDbEntity
  8
0
100
AcDbLine
 62
2
  6
CONTINUOUS
 10
139.0410198889
 20
238.3115828418
 11
109.0410198889
 21
238.3115828418
  0
INSERT
  5
31C
100
AcDbEntity
  8
0
100
AcDbBlockReference
 62
2
  6
CONTINUOUS
  2
_FILLED
 10
79.0410198889
 20
238.3115828418
 41
3.5
 42
3.5
 43
3.5
 50
180.0
  0
INSERT
  5
31D
100
AcDbEntity
  8
0
100
AcDbBlockReference
 62
2
  6
CONTINUOUS
  2
_FILLED
 10
139.0410198889
 20
238.3115828418
 41
3.5
 42
3.5
 43
3.5
  0
ENDBLK
  5
31E
100
AcDbEntity
  8
0
  6
BYBLOCK
 62
0
100
AcDbBlockEnd
  0
BLOCK
  5
31F
100
AcDbEntity
  8
0
100
AcDbBlockBegin
  2
*T1
 70
1
 10
0.0
 20
0.0
  3
*T1
  1

  0
LINE
  5
320
100
AcDbEntity
  8
0
100
AcDbLine
 62
2
  6
CONTINUOUS
 10
0.0
 20
0.0
 11
42.0
 21
0.0
  0
LINE
  5
321
100
AcDbEntity
  8
0
100
AcDbLine
 62
2
  6
CONTINUOUS
 10
0.0
 20
0.0
 11
0.0
 21
-50.0
  0
LINE
  5
322
100
AcDbEntity
  8
0
100
AcDbLine
 62
2
  6
CONTINUOUS
 10
0.0
 20
-20.0
 11
42.0
 21
-20.0
  0
LINE
  5
323
100
AcDbEntity
  8
0
100
AcDbLine
 62
2
  6
CONTINUOUS
 10
0.0
 20
-32.0
 11
42.0
 21
-32.0
  0
LINE
  5
324
100
AcDbEntity
  8
0
100
AcDbLine
 62
2
  6
CONTINUOUS
 10
0.0
 20
-41.0
 11
42.0
 21
-41.0
  0
LINE
  5
325
100
AcDbEntity
  8
0
100
AcDbLine
 62
2
  6
CONTINUOUS
 10
0.0
 20
-50.0
 11
42.0
 21
-50.0
  0
LINE
  5
326
100
AcDbEntity
  8
0
100
AcDbLine
 62
2
  6
CONTINUOUS
 10
9.5
 20
-41.0
 11
9.5
 21
-50.0
  0
LINE
  5
327
100
AcDbEntity
  8
0
100
AcDbLine
 62
2
  6
CONTINUOUS
 10
29.5
 20
-41.0
 11
29.5
 21
-50.0
  0
LINE
  5
328
100
AcDbEntity
  8
0
100
AcDbLine
 62
2
  6
CONTINUOUS
 10
42.0
 20
0.0
 11
42.0
 21
-50.0
  0
MTEXT
  5
329
100
AcDbEntity
  8
0
100
AcDbMText
 62
5
  6
CONTINUOUS
  7
STANDARD
 71
2
 72
1
 10
21.0
 20
-24.5
 30
0.0
 11
1.0
 21
0.0
 31
0.0
 73
2
 44
0.9
  1
B_9019_0001_BD01
 40
3.0
 41
76.6791044776
  0
MTEXT
  5
32A
100
AcDbEntity
  8
0
100
AcDbMText
 62
5
  6
CONTINUOUS
  7
STANDARD
 71
1
 72
1
 10
1.4
 20
-33.75
 30
0.0
 11
1.0
 21
0.0
 31
0.0
 73
2
 44
0.9
  1
Scale\P1:1 
 40
2.5
 41
17.5186567164
  0
MTEXT
  5
32B
100
AcDbEntity
  8
0
100
AcDbMText
 62
5
  6
CONTINUOUS
  7
STANDARD
 71
2
 72
1
 10
4.75
 20
-44.25
 30
0.0
 11
1.0
 21
0.0
 31
0.0
 73
2
 44
0.9
  1
Draft
 40
2.5
 41
15.1679104478
  0
MTEXT
  5
32C
100
AcDbEntity
  8
0
100
AcDbMText
 62
5
  6
CONTINUOUS
  7
STANDARD
 71
2
 72
1
 10
19.5
 20
-44.25
 30
0.0
 11
1.0
 21
0.0
 31
0.0
 73
2
 44
0.9
  1
24.10.2019
 40
2.5
 41
35.0746268657
  0
MTEXT
  5
32D
100
AcDbEntity
  8
0
100
AcDbMText
 62
5
  6
CONTINUOUS
  7
STANDARD
 71
2
 72
1
 10
35.75
 20
-44.25
 30
0.0
 11
1.0
 21
0.0
 31
0.0
 73
2
 44
0.9
  1
EZ-DB
 40
2.5
 41
20.9888059701
  0
ENDBLK
  5
32E
100
AcDbEntity
  8
0
  6
BYBLOCK
 62
0
100
AcDbBlockEnd
  0
ENDSEC
  0
SECTION
  2
ENTITIES
  0
INSERT
  5
32F
100
AcDbEntity
  8
Grp_symbol_75_BL0
100
AcDbBlockReference
  2
GRP_SYMBOL_75_BL0
 10
35.8323817466
 20
45.0512437646
  0
DIMENSION
  5
330
100
AcDbEntity
  8
0
100
AcDbDimension
 62
2
  6
CONTINUOUS
  2
*D0
 10
83.9421464305
 20
158.1384517997
 11
89.2540430085
 21
158.0851049386
 70
160
 71
2
 72
2
 41
0.9
 42
10.6
  1
%%c<>
  3
DIMSTYLE_1
100
AcDbAlignedDimension
 13
94.3407526304
 23
138.0318802378
 14
83.7412871474
 24
138.1383296395
 50
179.424603399
100
AcDbRotatedDimension
  0
DIMENSION
  5
331
100
AcDbEntity
  8
0
100
AcDbDimension
 62
2
  6
CONTINUOUS
  2
*D1
 10
54.0410198889
 20
197.8115828418
 11
54.0410198889
 21
205.7087954331
 70
160
 71
2
 72
2
 41
0.9
 42
15.5
  3
DIMSTYLE_1
100
AcDbAlignedDimension
 13
81.5410198889
 23
213.3115828418
 14
86.5410198889
 24
197.8115828418
 50
270.0
100
AcDbRotatedDimension
  0
DIMENSION
  5
332
100
AcDbEntity
  8
0
100
AcDbDimension
 62
2
  6
CONTINUOUS
  2
*D2
 10
64.0410198889
 20
199.1115828418
 11
64.0410198889
 21
204.4490326868
 70
160
 71
2
 72
2
 41
0.9
 42
10.4
  3
DIMSTYLE_2
100
AcDbAlignedDimension
 13
89.0410198889
 23
209.5115828418
 14
81.5410198889
 24
199.1115828418
 50
270.0
100
AcDbRotatedDimension
  0
DIMENSION
  5
333
100
AcDbEntity
  8
0
100
AcDbDimension
 62
2
  6
CONTINUOUS
  2
*D3
 10
132.0410198889
 20
182.8115828418
 11
117.5017746006
 21
182.8115828418
 70
160
 71
3
 72
2
 41
0.9
 42
6.0
  1
%%c<>
  3
DIMSTYLE_3
100
AcDbAlignedDimension
 13
126.0410198889
 23
209.5115828418
 14
132.0410198889
 24
209.5115828418
100
AcDbRotatedDimension
  0
DIMENSION
  5
334
100
AcDbEntity
  8
0
100
AcDbDimension
 62
2
  6
CONTINUOUS
  2
*D4
 10
134.3410198889
 20
228.3115828418
 11
115.2419974744
 21
228.3115828418
 70
160
 71
3
 72
2
 41
0.9
 42
10.6
  1
%%c<>
  3
DIMSTYLE_1
100
AcDbAlignedDimension
 13
123.7410198889
 23
212.5115828418
 14
134.3410198889
 24
212.5115828418
100
AcDbRotatedDimension
  0
DIMENSION
  5
335
100
AcDbEntity
  8
0
100
AcDbDimension
 62
2
  6
CONTINUOUS
  2
*D5
 10
129.0410198889
 20
113.017889903
 11
119.5940996094
 21
113.017889903
 70
160
 71
2
 72
2
 41
0.9
 42
20.0
  3
DIMSTYLE_1
100
AcDbAlignedDimension
 13
109.0410198889
 23
131.4975243422
 14
129.0410198889
 24
132.6975006045
100
AcDbRotatedDimension
  0
DIMENSION
  5
336
100
AcDbEntity
  8
0
100
AcDbDimension
 62
2
  6
CONTINUOUS
  2
*D6
 10
109.0410198889
 20
113.017889903
 11
98.2345166016
 21
113.017889903
 70
160
 71
2
 72
2
 41
0.9
 42
20.0
  3
DIMSTYLE_1
100
AcDbAlignedDimension
 13
89.0410198889
 23
134.8574578766
 14
109.0410198889
 24
136.2974293913
100
AcDbRotatedDimension
  0
DIMENSION
  5
337
100
AcDbEntity
  8
0
100
AcDbDimension
 62
2
  6
CONTINUOUS
  2
*D7
 10
139.0410198889
 20
113.0851049386
 11
134.1784667969
 21
113.0851049386
 70
160
 71
2
 72
2
 41
0.9
 42
10.0
  3
DIMSTYLE_1
100
AcDbAlignedDimension
 13
129.0410198889
 23
133.9184620516
 14
139.0410198889
 24
138.0851049386
100
AcDbRotatedDimension
  0
ACAD_TABLE
  5
338
100
AcDbEntity
  8
0
 62
2
  6
CONTINUOUS
100
AcDbBlockReference
  2
*T1
 10
15.012273089
 20
55.0182482246
 30
0.0
100
AcDbTable
342
       346
343
220
 11
1.0
 21
0.0
 31
0.0
 90
22
 91
4
 92
3
 93
0
 94
0
 95
0
 96
0
141
20.0
141
12.0
141
9.0
141
9.0
142
9.5
142
20.0
142
12.5
171
1
172
0
173
0
174
0
175
3
176
1
 91
41
178
0
145
0.0
301
CELL_VALUE
 90
4
  1
 
304
ACVALUE_END
170
1
140
3.5
 64
5
171
1
172
0
173
1
174
0
175
1
176
1
 91
1
178
0
145
0.0
170
1
171
1
172
0
173
1
174
0
175
1
176
1
 91
1
178
0
145
0.0
170
1
171
1
172
0
173
0
174
0
175
3
176
1
 91
41
178
0
145
0.0
301
CELL_VALUE
 90
4
  1
B_9019_0001_BD01
304
ACVALUE_END
170
5
140
3.0
 64
5
171
1
172
0
173
1
174
0
175
1
176
1
 91
1
178
0
145
0.0
170
1
171
1
172
0
173
1
174
0
175
1
176
1
 91
1
178
0
145
0.0
170
1
171
1
172
0
173
0
174
0
175
3
176
1
 91
41
178
0
145
0.0
301
CELL_VALUE
 90
4
  1
Scale\P1:1 
304
ACVALUE_END
170
1
140
2.5
 64
5
171
1
172
0
173
1
174
0
175
1
176
1
 91
1
178
0
145
0.0
170
1
171
1
172
0
173
1
174
0
175
1
176
1
 91
1
178
0
145
0.0
170
1
171
1
172
0
173
0
174
0
175
1
176
1
 91
41
178
0
145
0.0
301
CELL_VALUE
 90
4
  1
Draft
304
ACVALUE_END
170
5
140
2.5
 64
5
171
1
172
0
173
0
174
0
175
1
176
1
 91
41
178
0
145
0.0
301
CELL_VALUE
 90
4
  1
24.10.2019
304
ACVALUE_END
170
5
140
2.5
 64
5
171
1
172
0
173
0
174
0
175
1
176
1
 91
41
178
0
145
0.0
301
CELL_VALUE
 90
4
  1
EZ-DB
304
ACVALUE_END
170
5
140
2.5
 64
5
  0
LINE
  5
339
100
AcDbEntity
  8
0
100
AcDbLine
 62
2
  6
CONTINUOUS
 10
15.0
 20
5.0
 11
205.0
 21
5.0
  0
LINE
  5
33A
100
AcDbEntity
  8
0
100
AcDbLine
 62
5
  6
CONTINUOUS
 10
14.987701899
 20
292.0453045112
 11
14.987701899
 21
5.0453045112
  0
LINE
  5
33B
100
AcDbEntity
  8
0
100
AcDbLine
 62
5
  6
CONTINUOUS
 10
205.0
 20
291.999999958
 11
205.0
 21
4.999999958
  0
LINE
  5
33C
100
AcDbEntity
  8
0
100
AcDbLine
 62
2
  6
CONTINUOUS
 10
205.0
 20
292.0
 11
15.0
 21
292.0
  0
LINE
  5
33D
100
AcDbEntity
  8
0
100
AcDbLine
 62
2
  6
CONTINUOUS
 10
120.4194527732
 20
212.5115828418
 11
120.2083548306
 21
210.880014493
  0
LINE
  5
33E
100
AcDbEntity
  8
0
100
AcDbLine
 62
2
  6
CONTINUOUS
 10
120.2083548306
 20
210.880014493
 11
120.6560252161
 21
209.5115828418
  0
INSERT
  5
33F
100
AcDbEntity
  8
Grp_symbol_75_BL1
100
AcDbBlockReference
  2
GRP_SYMBOL_75_BL1
 10
35.8323817466
 20
45.0512400228
  0
INSERT
  5
340
100
AcDbEntity
  8
X17970000_BL2
100
AcDbBlockReference
  2
X17970000_BL2
 10
89.0410198889
 20
171.9483438902
  0
INSERT
  5
341
100
AcDbEntity
  8
X22991008_BL3
100
AcDbBlockReference
  2
X22991008_BL3
 10
117.0410198889
 20
185.0733438902
  0
INSERT
  5
342
100
AcDbEntity
  8
X00714003_BL4
100
AcDbBlockReference
  2
X00714003_BL4
 10
86.9402493425
 20
175.3482938902
  0
ENDSEC
  0
SECTION
  2
OBJECTS
  0
DICTIONARY
  5
C
100
AcDbDictionary
280
0
281
1
  3
ACAD_GROUP
350
D
  3
ACAD_MLINESTYLE
350
17
  3
ACAD_LAYOUT
350
1A
  3
ACAD_PLOTSETTINGS
350
19
  3
ACAD_PLOTSTYLENAME
350
E
  3
ACAD_TABLESTYLE
350
       343
  0
DICTIONARY
  5
D
102
{ACAD_REACTORS
330
C
102
}
100
AcDbDictionary
280
0
281
1
  0
ACDBDICTIONARYWDFLT
  5
E
102
{ACAD_REACTORS
330
C
102
}
100
AcDbDictionary
281
1
  3
Normal
350
F
100
AcDbDictionaryWithDefault
340
F
  0
DICTIONARY
  5
17
102
{ACAD_REACTORS
330
C
102
}
100
AcDbDictionary
280
0
281
1
  3
Standard
350
18
  0
DICTIONARY
  5
343
330
C
100
AcDbDictionary
281
1
  3
Standard
350
       346
  3
Standard1
350
       347
  0
DICTIONARY
  5
19
102
{ACAD_REACTORS
330
C
102
}
100
AcDbDictionary
281
1
  0
DICTIONARY
  5
1A
102
{ACAD_REACTORS
330
C
102
}
100
AcDbDictionary
281
1
  3
Model
350
344
  3
Layout1
350
345
  0
ACDBPLACEHOLDER
  5
F
102
{ACAD_REACTORS
330
E
102
}
  0
MLINESTYLE
  5
18
102
{ACAD_REACTORS
330
17
102
}
100
AcDbMlineStyle
  2
STANDARD
 70
0
  3

 62
256
 51
90.0
 52
90.0
 71
2
 49
0.5
 62
256
  6
BYLAYER
 49
-0.5
 62
256
  6
BYLAYER
  0
LAYOUT
  5
344
102
{ACAD_REACTORS
330
1A
102
}
100
AcDbPlotSettings
  1

  2
none_device
  4

  6

 40
0.0
 41
0.0
 42
0.0
 43
0.0
 44
210.0
 45
297.0
 46
0.0
 47
0.0
 48
0.0
 49
0.0
140
0.0
141
0.0
142
1.0
143
1.0
 70
1024
 72
1
 73
0
 74
0
  7

 75
0
147
1.0
148
0.0
149
0.0
100
AcDbLayout
  1
Model
 70
0
 71
0
 10
0.0
 20
0.0
 11
210.0
 21
297.0
 12
0.0
 22
0.0
 32
0.0
 14
0.0
 24
0.0
 34
0.0
 15
0.0
 25
0.0
 35
0.0
146
0.0
 13
0.0
 23
0.0
 33
0.0
 16
1.0
 26
0.0
 36
0.0
 17
0.0
 27
1.0
 37
0.0
 76
0
330
20C
345
0
346
0
  0
LAYOUT
  5
345
102
{ACAD_REACTORS
330
1A
102
}
100
AcDbPlotSettings
  1

  2
none_device
  4

  6

 40
0.0
 41
0.0
 42
0.0
 43
0.0
 44
210.0
 45
297.0
 46
0.0
 47
0.0
 48
0.0
 49
0.0
140
0.0
141
0.0
142
1.0
143
1.0
 70
0
 72
1
 73
0
 74
0
  7

 75
0
147
1.0
148
0.0
149
0.0
100
AcDbLayout
  1
Layout1
 70
0
 71
1
 10
0.0
 20
0.0
 11
210.0
 21
297.0
 12
0.0
 22
0.0
 32
0.0
 14
0.0
 24
0.0
 34
0.0
 15
0.0
 25
0.0
 35
0.0
146
0.0
 13
0.0
 23
0.0
 33
0.0
 16
1.0
 26
0.0
 36
0.0
 17
0.0
 27
1.0
 37
0.0
 76
0
330
20D
345
0
346
0
  0
TABLESTYLE
  5
346
102
{ACAD_REACTORS
330
343
330
338
102
}
330
343
100
AcDbTableStyle
  3
Standard
 70
0
 71
0
 40
0.06
 41
0.06
280
1
281
1
  7
Standard
140
0.18
170
1
 62
0
 63
7
283
0
  7
Standard
140
0.18
170
1
 62
0
 63
7
283
0
  7
Standard
140
0.18
170
1
 62
0
 63
7
283
0
  0
TABLESTYLE
  5
347
102
{ACAD_REACTORS
330
343
102
}
330
343
100
AcDbTableStyle
  3
Standard1
 70
1
 71
0
 40
0.06
 41
0.06
280
1
281
1
  7
Standard
140
0.18
170
1
 62
0
 63
7
283
0
  7
Standard
140
0.18
170
1
 62
0
 63
7
283
0
  7
Standard
140
0.18
170
1
 62
0
 63
7
283
0
  0
ENDSEC
  0
EOF
