999
DXF file: Z:\Entwicklung\5_Service\1_Maßblätter\4_Schloss\9009\b_9009_0001.dxf
999
Pro/ENGINEER 2011410 by Parametric Technology Corporation
  0
SECTION
  2
HEADER
  9
$ACADVER
  1
AC1021
  9
$DWGCODEPAGE
  3
ANSI_1252
  9
$EXTMAX
 10
210.0
 20
297.0
 30
0.0
  9
$EXTMIN
 10
0.0
 20
0.0
 30
0.0
  9
$LIMMIN
 10
0.0
 20
0.0
  9
$LIMMAX
 10
210.0
 20
297.0
  9
$VIEWCTR
 10
105.0
 20
148.5
  9
$VIEWSIZE
 40
297.0
  9
$CLAYER
  8
0
  9
$LTSCALE
 40
19.36
  9
$CELTYPE
  6
BYLAYER
  9
$DIMSCALE
 40
1.0
  9
$DIMASZ
 40
3.5
  9
$DIMEXO
 40
2.2
  9
$DIMDLI
 40
13.376
  9
$DIMEXE
 40
6.336
  9
$DIMCEN
 40
3.168
  9
$DIMLFAC
 40
1.0
  9
$DIMBLK
  1
_FILLED
  9
$DIMTXT
 40
2.5
  9
$DIMTOL
 70
1
  9
$DIMLIM
 70
0
  9
$DIMTFAC
 40
1.0
  9
$DIMTP
 40
0.001
  9
$DIMTM
 40
0.001
  9
$PDMODE
 70
3
  9
$PDSIZE
 40
2.0
  9
$HANDSEED
  5
403
  9
$TILEMODE
 70
1
  9
$MEASUREMENT
 70
1
  9
$INSUNITS
 70
4
  0
ENDSEC
  0
SECTION
  2
CLASSES
  0
CLASS
  1
ACDBDICTIONARYWDFLT
  2
AcDbDictionaryWithDefault
  3
AutoCAD 2000
 90
0
 91
1
280
0
281
0
  0
CLASS
  1
ACDBPLACEHOLDER
  2
AcDbPlaceHolder
  3
AutoCAD 2000
 90
0
 91
1
280
0
281
0
  0
CLASS
  1
LAYOUT
  2
AcDbLayout
  3
AutoCAD 2000
 90
0
 91
0
280
0
281
0
  0
ENDSEC
  0
SECTION
  2
TABLES
  0
TABLE
  2
VPORT
  5
8
100
AcDbSymbolTable
 70
2
  0
VPORT
  5
1F4
100
AcDbSymbolTableRecord
100
AcDbViewportTableRecord
  2
*ACTIVE
 70
0
 10
0.0
 20
0.0
 11
1.0
 21
1.0
 12
105.0
 22
148.5
 13
0.0
 23
0.0
 14
1.0
 24
1.0
 15
0.0
 25
0.0
 16
0.0
 26
0.0
 36
1.0
 17
0.0
 27
0.0
 37
0.0
 40
297.0
 41
0.7070707071
 42
50.0
 43
0.0
 44
0.0
 50
0.0
 51
0.0
 71
0
 72
100
 73
1
 74
1
 75
0
 76
0
 77
0
 78
0
  0
ENDTAB
  0
TABLE
  2
LTYPE
  5
5
100
AcDbSymbolTable
 70
6
  0
LTYPE
  5
14
100
AcDbSymbolTableRecord
100
AcDbLinetypeTableRecord
  2
BYBLOCK
 70
0
  3

 72
65
 73
0
 40
0.0
  0
LTYPE
  5
15
100
AcDbSymbolTableRecord
100
AcDbLinetypeTableRecord
  2
BYLAYER
 70
0
  3

 72
65
 73
0
 40
0.0
  0
LTYPE
  5
16
100
AcDbSymbolTableRecord
100
AcDbLinetypeTableRecord
  2
CONTINUOUS
 70
64
  3
Solid line
 72
65
 73
0
 40
0.0
  0
LTYPE
  5
1F5
100
AcDbSymbolTableRecord
100
AcDbLinetypeTableRecord
  2
CENTER
 70
64
  3
____ _ ____ _ ____ _ ____ _ ____ _ ____ _ ____
 72
65
 73
4
 40
0.6
 49
0.375
 74
0
 49
-0.075
 74
0
 49
0.075
 74
0
 49
-0.075
 74
0
  0
LTYPE
  5
1F6
100
AcDbSymbolTableRecord
100
AcDbLinetypeTableRecord
  2
HIDDEN
 70
64
  3
- - - - - - - - - - - - - - - - - - - -
 72
65
 73
2
 40
0.2
 49
0.1
 74
0
 49
-0.1
 74
0
  0
LTYPE
  5
1F7
100
AcDbSymbolTableRecord
100
AcDbLinetypeTableRecord
  2
PHANTOM
 70
64
  3
_____ _ _ _____ _ _ _____ _ _ _____
 72
65
 73
6
 40
0.8
 49
0.45
 74
0
 49
-0.05
 74
0
 49
0.1
 74
0
 49
-0.05
 74
0
 49
0.1
 74
0
 49
-0.05
 74
0
  0
LTYPE
  5
1F8
100
AcDbSymbolTableRecord
100
AcDbLinetypeTableRecord
  2
DOT
 70
64
  3
. . . . . . . . . . . . . . . . . . . .
 72
65
 73
2
 40
0.2
 49
0.1
 74
0
 49
-0.1
 74
0
  0
LTYPE
  5
1F9
100
AcDbSymbolTableRecord
100
AcDbLinetypeTableRecord
  2
DASHED
 70
64
  3
- - - - - - - - - - - - - - - - - - - -
 72
65
 73
2
 40
0.2
 49
0.1
 74
0
 49
-0.1
 74
0
  0
ENDTAB
  0
TABLE
  2
LAYER
  5
2
100
AcDbSymbolTable
 70
36
  0
LAYER
  5
10
100
AcDbSymbolTableRecord
100
AcDbLayerTableRecord
  2
0
 70
0
 62
7
  6
CONTINUOUS
370
-3
390
F
  0
LAYER
  5
1FA
100
AcDbSymbolTableRecord
100
AcDbLayerTableRecord
  2
DEFAULT_1
 70
0
 62
7
  6
CENTER
370
-3
390
F
  0
LAYER
  5
1FB
100
AcDbSymbolTableRecord
100
AcDbLayerTableRecord
  2
DEFAULT_2
 70
0
 62
8
  6
HIDDEN
370
-3
390
F
  0
LAYER
  5
1FC
100
AcDbSymbolTableRecord
100
AcDbLayerTableRecord
  2
DEFAULT_3
 70
0
 62
7
  6
PHANTOM
370
-3
390
F
  0
LAYER
  5
1FD
100
AcDbSymbolTableRecord
100
AcDbLayerTableRecord
  2
AXIS
 70
0
 62
7
  6
CONTINUOUS
370
-3
390
F
  0
LAYER
  5
1FE
100
AcDbSymbolTableRecord
100
AcDbLayerTableRecord
  2
COORDSYS
 70
0
 62
7
  6
CONTINUOUS
370
-3
390
F
  0
LAYER
  5
1FF
100
AcDbSymbolTableRecord
100
AcDbLayerTableRecord
  2
CURVES
 70
0
 62
7
  6
CONTINUOUS
370
-3
390
F
  0
LAYER
  5
200
100
AcDbSymbolTableRecord
100
AcDbLayerTableRecord
  2
PLANES
 70
0
 62
7
  6
CONTINUOUS
370
-3
390
F
  0
LAYER
  5
201
100
AcDbSymbolTableRecord
100
AcDbLayerTableRecord
  2
POINTS
 70
0
 62
7
  6
CONTINUOUS
370
-3
390
F
  0
LAYER
  5
202
100
AcDbSymbolTableRecord
100
AcDbLayerTableRecord
  2
S-AXIS
 70
0
 62
7
  6
CONTINUOUS
370
-3
390
F
  0
LAYER
  5
203
100
AcDbSymbolTableRecord
100
AcDbLayerTableRecord
  2
S-COORDSYS
 70
0
 62
7
  6
CONTINUOUS
370
-3
390
F
  0
LAYER
  5
204
100
AcDbSymbolTableRecord
100
AcDbLayerTableRecord
  2
S-PLANES
 70
0
 62
7
  6
CONTINUOUS
370
-3
390
F
  0
LAYER
  5
205
100
AcDbSymbolTableRecord
100
AcDbLayerTableRecord
  2
THREADS
 70
0
 62
7
  6
CONTINUOUS
370
-3
390
F
  0
LAYER
  5
206
100
AcDbSymbolTableRecord
100
AcDbLayerTableRecord
  2
HATCHING_BL0
 70
0
 62
7
  6
CONTINUOUS
370
-3
390
F
  0
ENDTAB
  0
TABLE
  2
STYLE
  5
3
100
AcDbSymbolTable
 70
1
  0
STYLE
  5
11
100
AcDbSymbolTableRecord
100
AcDbTextStyleTableRecord
  2
STANDARD
 70
0
 40
0.0
 41
0.8
 50
0.0
 71
0
 42
0.2
  3
txt
  4

  0
STYLE
  5
207
100
AcDbSymbolTableRecord
100
AcDbTextStyleTableRecord
  2
TEXTSTYLE_1
 70
0
 40
0.0
 41
0.8
 50
0.0
 71
0
 42
0.2
  3
gdt
  4

  0
STYLE
  5
208
100
AcDbSymbolTableRecord
100
AcDbTextStyleTableRecord
  2
TEXTSTYLE_2
 70
0
 40
0.0
 41
1.0
 50
0.0
 71
0
 42
0.2
  3
swisscl.ttf
  4

  0
ENDTAB
  0
TABLE
  2
VIEW
  5
6
100
AcDbSymbolTable
 70
0
  0
ENDTAB
  0
TABLE
  2
UCS
  5
7
100
AcDbSymbolTable
 70
0
  0
ENDTAB
  0
TABLE
  2
APPID
  5
9
100
AcDbSymbolTable
 70
1
  0
APPID
  5
209
100
AcDbSymbolTableRecord
100
AcDbRegAppTableRecord
  2
ACAD
 70
0
  0
ENDTAB
  0
TABLE
  2
BLOCK_RECORD
  5
1
100
AcDbSymbolTable
 70
0
  0
BLOCK_RECORD
  5
20A
100
AcDbSymbolTableRecord
100
AcDbBlockTableRecord
  2
*Model_Space
  0
BLOCK_RECORD
  5
20B
100
AcDbSymbolTableRecord
100
AcDbBlockTableRecord
  2
*Paper_Space
  0
BLOCK_RECORD
  5
20C
100
AcDbSymbolTableRecord
100
AcDbBlockTableRecord
  2
_FILLED
  0
BLOCK_RECORD
  5
20D
100
AcDbSymbolTableRecord
100
AcDbBlockTableRecord
  2
_DOT
  0
BLOCK_RECORD
  5
20E
100
AcDbSymbolTableRecord
100
AcDbBlockTableRecord
  2
*D0
  0
BLOCK_RECORD
  5
20F
100
AcDbSymbolTableRecord
100
AcDbBlockTableRecord
  2
*D1
  0
BLOCK_RECORD
  5
210
100
AcDbSymbolTableRecord
100
AcDbBlockTableRecord
  2
*D2
  0
BLOCK_RECORD
  5
211
100
AcDbSymbolTableRecord
100
AcDbBlockTableRecord
  2
*D3
  0
BLOCK_RECORD
  5
212
100
AcDbSymbolTableRecord
100
AcDbBlockTableRecord
  2
*D4
  0
BLOCK_RECORD
  5
213
100
AcDbSymbolTableRecord
100
AcDbBlockTableRecord
  2
*D5
  0
BLOCK_RECORD
  5
214
100
AcDbSymbolTableRecord
100
AcDbBlockTableRecord
  2
*D6
  0
BLOCK_RECORD
  5
215
100
AcDbSymbolTableRecord
100
AcDbBlockTableRecord
  2
*D7
  0
BLOCK_RECORD
  5
216
100
AcDbSymbolTableRecord
100
AcDbBlockTableRecord
  2
*D8
  0
BLOCK_RECORD
  5
217
100
AcDbSymbolTableRecord
100
AcDbBlockTableRecord
  2
*D9
  0
BLOCK_RECORD
  5
218
100
AcDbSymbolTableRecord
100
AcDbBlockTableRecord
  2
*D10
  0
BLOCK_RECORD
  5
219
100
AcDbSymbolTableRecord
100
AcDbBlockTableRecord
  2
*D11
  0
BLOCK_RECORD
  5
21A
100
AcDbSymbolTableRecord
100
AcDbBlockTableRecord
  2
*D12
  0
BLOCK_RECORD
  5
21B
100
AcDbSymbolTableRecord
100
AcDbBlockTableRecord
  2
*D13
  0
BLOCK_RECORD
  5
21C
100
AcDbSymbolTableRecord
100
AcDbBlockTableRecord
  2
*D14
  0
BLOCK_RECORD
  5
21D
100
AcDbSymbolTableRecord
100
AcDbBlockTableRecord
  2
*D15
  0
BLOCK_RECORD
  5
21E
100
AcDbSymbolTableRecord
100
AcDbBlockTableRecord
  2
*D16
  0
BLOCK_RECORD
  5
21F
100
AcDbSymbolTableRecord
100
AcDbBlockTableRecord
  2
*D17
  0
BLOCK_RECORD
  5
220
100
AcDbSymbolTableRecord
100
AcDbBlockTableRecord
  2
HATCHING_BL0
  0
ENDTAB
  0
TABLE
  2
DIMSTYLE
  5
A
100
AcDbSymbolTable
 70
1
100
AcDbDimStyleTable
 71
0
  0
DIMSTYLE
105
221
100
AcDbSymbolTableRecord
100
AcDbDimStyleTableRecord
  2
STANDARD
 70
0
  3

  4

 40
1.0
 41
3.5
 42
0.0625
 43
0.38
 44
0.18
 45
0.0
 46
0.0
 47
0.001
 48
0.001
140
2.5
141
0.09
142
0.0
143
25.4
144
1.0
145
0.0
146
1.0
147
0.09
 71
1.0
 72
0.0
 73
0
 74
0
 75
0
 76
0
 77
1
 78
8
170
0
171
2
172
0
173
0
174
0
175
0
176
0
177
0
178
5
270
2
271
3
272
3
273
2
274
2
275
0
280
0
281
0
282
0
283
1
284
8
285
0
286
0
287
3
288
0
340
11
341
20C
342
20C
343
20C
344
20C
  0
DIMSTYLE
105
222
100
AcDbSymbolTableRecord
100
AcDbDimStyleTableRecord
  2
DIMSTYLE_1
 70
0
  3

  4

 40
1.0
 41
3.5
 42
0.0625
 43
0.38
 44
0.18
 45
0.0
 46
0.0
 47
0.3
 48
0.3
140
3.0
141
0.09
142
0.0
143
25.4
144
1.0
145
0.0
146
1.0
147
0.09
 71
0.0
 72
0.0
 73
0
 74
0
 75
0
 76
0
 77
1
 78
8
170
0
171
2
172
0
173
0
174
0
175
0
176
0
177
0
178
5
270
2
271
3
272
3
273
2
274
2
275
0
280
0
281
0
282
0
283
1
284
8
285
0
286
0
287
3
288
0
340
208
341
20C
342
20C
343
20C
344
20C
  0
DIMSTYLE
105
223
100
AcDbSymbolTableRecord
100
AcDbDimStyleTableRecord
  2
DIMSTYLE_2
 70
0
  3

  4

 40
1.0
 41
3.5
 42
0.0625
 43
0.38
 44
0.18
 45
0.0
 46
0.0
 47
0.2
 48
0.2
140
3.0
141
0.09
142
0.0
143
25.4
144
1.0
145
0.0
146
1.0
147
0.09
 71
0.0
 72
0.0
 73
0
 74
0
 75
0
 76
0
 77
1
 78
8
170
0
171
2
172
0
173
0
174
0
175
0
176
0
177
0
178
5
270
2
271
3
272
3
273
2
274
2
275
0
280
0
281
0
282
0
283
1
284
8
285
0
286
0
287
3
288
0
340
208
341
20C
342
20C
343
20C
344
20C
  0
DIMSTYLE
105
224
100
AcDbSymbolTableRecord
100
AcDbDimStyleTableRecord
  2
DIMSTYLE_3
 70
0
  3

  4

 40
1.0
 41
3.5
 42
0.0625
 43
0.38
 44
0.18
 45
0.0
 46
0.0
 47
0.2
 48
0.2
140
3.0
141
0.09
142
0.0
143
25.4
144
1.0
145
0.0
146
1.0
147
0.09
 71
0.0
 72
0.0
 73
0
 74
0
 75
0
 76
0
 77
1
 78
8
170
0
171
2
172
0
173
0
174
0
175
0
176
0
177
0
178
5
270
2
271
0
272
0
273
2
274
2
275
0
280
0
281
0
282
0
283
1
284
8
285
0
286
0
287
3
288
0
340
208
341
20C
342
20C
343
20C
344
20C
  0
DIMSTYLE
105
225
100
AcDbSymbolTableRecord
100
AcDbDimStyleTableRecord
  2
DIMSTYLE_4
 70
0
  3

  4

 40
1.0
 41
3.5
 42
0.0625
 43
0.38
 44
0.18
 45
0.0
 46
0.0
 47
0.3
 48
0.3
140
3.0
141
0.09
142
0.0
143
25.4
144
1.0
145
0.0
146
1.0
147
0.09
 71
0.0
 72
0.0
 73
0
 74
0
 75
0
 76
0
 77
1
 78
8
170
0
171
2
172
0
173
0
174
0
175
0
176
0
177
0
178
5
270
2
271
0
272
0
273
2
274
2
275
0
280
0
281
0
282
0
283
1
284
8
285
0
286
0
287
3
288
0
340
208
341
20C
342
20C
343
20C
344
20C
  0
DIMSTYLE
105
226
100
AcDbSymbolTableRecord
100
AcDbDimStyleTableRecord
  2
DIMSTYLE_5
 70
0
  3

  4

 40
1.0
 41
3.5
 42
0.0625
 43
0.38
 44
0.18
 45
0.0
 46
0.0
 47
0.1
 48
0.1
140
3.0
141
0.09
142
0.0
143
25.4
144
1.0
145
0.0
146
1.0
147
0.09
 71
0.0
 72
0.0
 73
0
 74
0
 75
0
 76
0
 77
1
 78
8
170
0
171
2
172
0
173
0
174
0
175
0
176
0
177
0
178
5
270
2
271
3
272
3
273
2
274
2
275
0
280
0
281
0
282
0
283
1
284
8
285
0
286
0
287
3
288
0
340
208
341
20C
342
20C
343
20C
344
20C
  0
DIMSTYLE
105
227
100
AcDbSymbolTableRecord
100
AcDbDimStyleTableRecord
  2
DIMSTYLE_6
 70
0
  3

  4

 40
1.0
 41
3.5
 42
0.0625
 43
0.38
 44
0.18
 45
0.0
 46
0.0
 47
0.5
 48
0.5
140
3.0
141
0.09
142
0.0
143
25.4
144
1.0
145
0.0
146
1.0
147
0.09
 71
0.0
 72
0.0
 73
0
 74
0
 75
0
 76
0
 77
1
 78
8
170
0
171
2
172
0
173
0
174
0
175
0
176
0
177
0
178
5
270
2
271
2
272
2
273
2
274
2
275
0
280
0
281
0
282
0
283
1
284
8
285
0
286
0
287
3
288
0
340
208
341
20C
342
20C
343
20C
344
20C
  0
DIMSTYLE
105
228
100
AcDbSymbolTableRecord
100
AcDbDimStyleTableRecord
  2
DIMSTYLE_7
 70
0
  3

  4

 40
1.0
 41
3.5
 42
0.0625
 43
0.38
 44
0.18
 45
0.0
 46
0.0
 47
0.1
 48
0.1
140
3.0
141
0.09
142
0.0
143
25.4
144
1.0
145
0.0
146
1.0
147
0.09
 71
0.0
 72
0.0
 73
0
 74
0
 75
0
 76
0
 77
1
 78
8
170
0
171
2
172
0
173
0
174
0
175
0
176
0
177
0
178
5
270
2
271
0
272
0
273
2
274
2
275
0
280
0
281
0
282
0
283
1
284
8
285
0
286
0
287
3
288
0
340
208
341
20C
342
20C
343
20C
344
20C
  0
ENDTAB
  0
ENDSEC
  0
SECTION
  2
BLOCKS
  0
BLOCK
  5
20
100
AcDbEntity
  8
0
100
AcDbBlockBegin
  2
*Model_Space
 70
0
 10
0.0
 20
0.0
 30
0.0
  3
*Model_Space
  1

  0
ENDBLK
  5
21
100
AcDbEntity
  8
0
100
AcDbBlockEnd
  0
BLOCK
  5
1C
100
AcDbEntity
  8
0
100
AcDbBlockBegin
  2
*Paper_Space
 70
0
 10
0.0
 20
0.0
 30
0.0
  3
*Paper_Space
  1

  0
ENDBLK
  5
1D
100
AcDbEntity
  8
0
100
AcDbBlockEnd
  0
BLOCK
  5
229
100
AcDbEntity
  8
HATCHING_BL0
100
AcDbBlockBegin
  2
HATCHING_BL0
 70
64
 10
0.0
 20
0.0
  3
HATCHING_BL0
  1

  0
ENDBLK
  5
22A
100
AcDbEntity
  8
0
  6
BYBLOCK
 62
0
100
AcDbBlockEnd
  0
BLOCK
  5
22B
100
AcDbEntity
  8
0
100
AcDbBlockBegin
  2
_FILLED
 70
64
 10
0.0
 20
0.0
  3
_FILLED
  1

  0
SOLID
  5
22C
100
AcDbEntity
  8
0
  6
BYBLOCK
 62
0
100
AcDbTrace
 10
0.0
 20
0.0
 11
-1.0
 21
0.1428571429
 12
-1.0
 22
-0.1428571429
 13
-1.0
 23
-0.1428571429
  0
ENDBLK
  5
22D
100
AcDbEntity
  8
0
  6
BYBLOCK
 62
0
100
AcDbBlockEnd
  0
BLOCK
  5
22E
100
AcDbEntity
  8
0
100
AcDbBlockBegin
  2
_DOT
 70
64
 10
0.0
 20
0.0
  3
_DOT
  1

  0
LWPOLYLINE
  5
22F
100
AcDbEntity
  8
0
  6
BYBLOCK
 62
0
100
AcDbPolyline
 90
2
 70
1
 43
0.1428571429
 10
-0.0714285714
 20
0.0
 42
1.0
 10
0.0714285714
 20
0.0
 42
1.0
  0
LINE
  5
230
100
AcDbEntity
  8
0
  6
BYBLOCK
 62
0
100
AcDbLine
 10
-0.1428571429
 20
0.0
 11
-1.0
 21
0.0
  0
ENDBLK
  5
231
100
AcDbEntity
  8
0
  6
BYBLOCK
 62
0
100
AcDbBlockEnd
  0
BLOCK
  5
232
100
AcDbEntity
  8
0
100
AcDbBlockBegin
 62
2
  6
CONTINUOUS
  2
*D0
 70
65
 10
0.0
 20
0.0
  3
*D0
  1

  0
MTEXT
  5
233
100
AcDbEntity
  8
0
100
AcDbMText
 62
5
  6
CONTINUOUS
  7
TEXTSTYLE_2
 71
2
 72
1
 10
106.6249983422
 20
189.8406189403
 30
0.0
 11
1.0
 21
0.0
 31
0.0
 44
0.9
  1
80
 40
3.0
 41
3.7634408602
  0
LINE
  5
234
100
AcDbEntity
  8
0
100
AcDbLine
 62
2
  6
CONTINUOUS
 10
66.6249983422
 20
173.5906189403
 11
66.6249983422
 21
187.0906189403
  0
LINE
  5
235
100
AcDbEntity
  8
0
100
AcDbLine
 62
2
  6
CONTINUOUS
 10
146.6249983422
 20
173.5906189403
 11
146.6249983422
 21
187.0906189403
  0
LINE
  5
236
100
AcDbEntity
  8
0
100
AcDbLine
 62
2
  6
CONTINUOUS
 10
66.6249983422
 20
186.0906189403
 11
106.6249983422
 21
186.0906189403
  0
LINE
  5
237
100
AcDbEntity
  8
0
100
AcDbLine
 62
2
  6
CONTINUOUS
 10
146.6249983422
 20
186.0906189403
 11
106.6249983422
 21
186.0906189403
  0
INSERT
  5
238
100
AcDbEntity
  8
0
100
AcDbBlockReference
 62
2
  6
CONTINUOUS
  2
_FILLED
 10
66.6249983422
 20
186.0906189403
 41
3.5
 42
3.5
 43
3.5
 50
180.0
  0
INSERT
  5
239
100
AcDbEntity
  8
0
100
AcDbBlockReference
 62
2
  6
CONTINUOUS
  2
_FILLED
 10
146.6249983422
 20
186.0906189403
 41
3.5
 42
3.5
 43
3.5
  0
ENDBLK
  5
23A
100
AcDbEntity
  8
0
  6
BYBLOCK
 62
0
100
AcDbBlockEnd
  0
BLOCK
  5
23B
100
AcDbEntity
  8
0
100
AcDbBlockBegin
 62
2
  6
CONTINUOUS
  2
*D1
 70
65
 10
0.0
 20
0.0
  3
*D1
  1

  0
MTEXT
  5
23C
100
AcDbEntity
  8
0
100
AcDbMText
 62
5
  6
CONTINUOUS
  7
TEXTSTYLE_2
 71
2
 72
1
 10
106.6249983422
 20
196.8406189403
 30
0.0
 11
1.0
 21
0.0
 31
0.0
 44
0.9
  1
100
 40
3.0
 41
5.6451612903
  0
LINE
  5
23D
100
AcDbEntity
  8
0
100
AcDbLine
 62
2
  6
CONTINUOUS
 10
56.6249983422
 20
167.0906189403
 11
56.6249983422
 21
194.0906189403
  0
LINE
  5
23E
100
AcDbEntity
  8
0
100
AcDbLine
 62
2
  6
CONTINUOUS
 10
156.6249983422
 20
167.0906189403
 11
156.6249983422
 21
194.0906189403
  0
LINE
  5
23F
100
AcDbEntity
  8
0
100
AcDbLine
 62
2
  6
CONTINUOUS
 10
56.6249983422
 20
193.0906189403
 11
106.6249983422
 21
193.0906189403
  0
LINE
  5
240
100
AcDbEntity
  8
0
100
AcDbLine
 62
2
  6
CONTINUOUS
 10
156.6249983422
 20
193.0906189403
 11
106.6249983422
 21
193.0906189403
  0
INSERT
  5
241
100
AcDbEntity
  8
0
100
AcDbBlockReference
 62
2
  6
CONTINUOUS
  2
_FILLED
 10
56.6249983422
 20
193.0906189403
 41
3.5
 42
3.5
 43
3.5
 50
180.0
  0
INSERT
  5
242
100
AcDbEntity
  8
0
100
AcDbBlockReference
 62
2
  6
CONTINUOUS
  2
_FILLED
 10
156.6249983422
 20
193.0906189403
 41
3.5
 42
3.5
 43
3.5
  0
ENDBLK
  5
243
100
AcDbEntity
  8
0
  6
BYBLOCK
 62
0
100
AcDbBlockEnd
  0
BLOCK
  5
244
100
AcDbEntity
  8
0
100
AcDbBlockBegin
 62
2
  6
CONTINUOUS
  2
*D2
 70
65
 10
0.0
 20
0.0
  3
*D2
  1

  0
MTEXT
  5
245
100
AcDbEntity
  8
0
100
AcDbMText
 62
5
  6
CONTINUOUS
  7
TEXTSTYLE_2
 71
2
 72
1
 10
42.8749983422
 20
145.5906189403
 30
0.0
 11
0.0
 21
1.0
 31
0.0
 44
0.9
  1
33
 40
3.0
 41
3.7634408602
  0
LINE
  5
246
100
AcDbEntity
  8
0
100
AcDbLine
 62
2
  6
CONTINUOUS
 10
55.1249983422
 20
162.0906189403
 11
45.6249983422
 21
162.0906189403
  0
LINE
  5
247
100
AcDbEntity
  8
0
100
AcDbLine
 62
2
  6
CONTINUOUS
 10
55.1249983422
 20
129.0906189403
 11
45.6249983422
 21
129.0906189403
  0
LINE
  5
248
100
AcDbEntity
  8
0
100
AcDbLine
 62
2
  6
CONTINUOUS
 10
46.6249983422
 20
162.0906189403
 11
46.6249983422
 21
145.5906189403
  0
LINE
  5
249
100
AcDbEntity
  8
0
100
AcDbLine
 62
2
  6
CONTINUOUS
 10
46.6249983422
 20
129.0906189403
 11
46.6249983422
 21
145.5906189403
  0
INSERT
  5
24A
100
AcDbEntity
  8
0
100
AcDbBlockReference
 62
2
  6
CONTINUOUS
  2
_FILLED
 10
46.6249983422
 20
162.0906189403
 41
3.5
 42
3.5
 43
3.5
 50
90.0
  0
INSERT
  5
24B
100
AcDbEntity
  8
0
100
AcDbBlockReference
 62
2
  6
CONTINUOUS
  2
_FILLED
 10
46.6249983422
 20
129.0906189403
 41
3.5
 42
3.5
 43
3.5
 50
270.0
  0
ENDBLK
  5
24C
100
AcDbEntity
  8
0
  6
BYBLOCK
 62
0
100
AcDbBlockEnd
  0
BLOCK
  5
24D
100
AcDbEntity
  8
0
100
AcDbBlockBegin
 62
2
  6
CONTINUOUS
  2
*D3
 70
65
 10
0.0
 20
0.0
  3
*D3
  1

  0
MTEXT
  5
24E
100
AcDbEntity
  8
0
100
AcDbMText
 62
5
  6
CONTINUOUS
  7
TEXTSTYLE_2
 71
2
 72
1
 10
42.8749983422
 20
124.5906189403
 30
0.0
 11
0.0
 21
1.0
 31
0.0
 44
0.9
  1
9
 40
3.0
 41
1.8817204301
  0
LINE
  5
24F
100
AcDbEntity
  8
0
100
AcDbLine
 62
2
  6
CONTINUOUS
 10
65.6249983422
 20
120.0906189403
 11
45.6249983422
 21
120.0906189403
  0
LINE
  5
250
100
AcDbEntity
  8
0
100
AcDbLine
 62
2
  6
CONTINUOUS
 10
55.1249983422
 20
129.0906189403
 11
45.6249983422
 21
129.0906189403
  0
LINE
  5
251
100
AcDbEntity
  8
0
100
AcDbLine
 62
2
  6
CONTINUOUS
 10
46.6249983422
 20
120.0906189403
 11
46.6249983422
 21
124.5906189403
  0
LINE
  5
252
100
AcDbEntity
  8
0
100
AcDbLine
 62
2
  6
CONTINUOUS
 10
46.6249983422
 20
129.0906189403
 11
46.6249983422
 21
124.5906189403
  0
INSERT
  5
253
100
AcDbEntity
  8
0
100
AcDbBlockReference
 62
2
  6
CONTINUOUS
  2
_FILLED
 10
46.6249983422
 20
120.0906189403
 41
3.5
 42
3.5
 43
3.5
 50
270.0
  0
INSERT
  5
254
100
AcDbEntity
  8
0
100
AcDbBlockReference
 62
2
  6
CONTINUOUS
  2
_FILLED
 10
46.6249983422
 20
129.0906189403
 41
3.5
 42
3.5
 43
3.5
 50
90.0
  0
ENDBLK
  5
255
100
AcDbEntity
  8
0
  6
BYBLOCK
 62
0
100
AcDbBlockEnd
  0
BLOCK
  5
256
100
AcDbEntity
  8
0
100
AcDbBlockBegin
 62
2
  6
CONTINUOUS
  2
*D4
 70
65
 10
0.0
 20
0.0
  3
*D4
  1

  0
MTEXT
  5
257
100
AcDbEntity
  8
0
100
AcDbMText
 62
5
  6
CONTINUOUS
  7
TEXTSTYLE_2
 71
2
 72
1
 10
35.8749983422
 20
148.0906189403
 30
0.0
 11
0.0
 21
1.0
 31
0.0
 44
0.9
  1
56
 40
3.0
 41
3.7634408602
  0
LINE
  5
258
100
AcDbEntity
  8
0
100
AcDbLine
 62
2
  6
CONTINUOUS
 10
65.6249983422
 20
120.0906189403
 11
38.6249983422
 21
120.0906189403
  0
LINE
  5
259
100
AcDbEntity
  8
0
100
AcDbLine
 62
2
  6
CONTINUOUS
 10
65.6249983422
 20
176.0906189403
 11
38.6249983422
 21
176.0906189403
  0
LINE
  5
25A
100
AcDbEntity
  8
0
100
AcDbLine
 62
2
  6
CONTINUOUS
 10
39.6249983422
 20
120.0906189403
 11
39.6249983422
 21
148.0906189403
  0
LINE
  5
25B
100
AcDbEntity
  8
0
100
AcDbLine
 62
2
  6
CONTINUOUS
 10
39.6249983422
 20
176.0906189403
 11
39.6249983422
 21
148.0906189403
  0
INSERT
  5
25C
100
AcDbEntity
  8
0
100
AcDbBlockReference
 62
2
  6
CONTINUOUS
  2
_FILLED
 10
39.6249983422
 20
120.0906189403
 41
3.5
 42
3.5
 43
3.5
 50
270.0
  0
INSERT
  5
25D
100
AcDbEntity
  8
0
100
AcDbBlockReference
 62
2
  6
CONTINUOUS
  2
_FILLED
 10
39.6249983422
 20
176.0906189403
 41
3.5
 42
3.5
 43
3.5
 50
90.0
  0
ENDBLK
  5
25E
100
AcDbEntity
  8
0
  6
BYBLOCK
 62
0
100
AcDbBlockEnd
  0
BLOCK
  5
25F
100
AcDbEntity
  8
0
100
AcDbBlockBegin
 62
2
  6
CONTINUOUS
  2
*D5
 70
65
 10
0.0
 20
0.0
  3
*D5
  1

  0
MTEXT
  5
260
100
AcDbEntity
  8
0
100
AcDbMText
 62
5
  6
CONTINUOUS
  7
TEXTSTYLE_2
 71
2
 72
1
 10
106.6249983422
 20
106.8406189403
 30
0.0
 11
1.0
 21
0.0
 31
0.0
 44
0.9
  1
60
 40
3.0
 41
3.7634408602
  0
LINE
  5
261
100
AcDbEntity
  8
0
100
AcDbLine
 62
2
  6
CONTINUOUS
 10
76.3647148169
 20
138.3282275673
 11
76.3647148169
 21
103.8406189403
  0
LINE
  5
262
100
AcDbEntity
  8
0
100
AcDbLine
 62
2
  6
CONTINUOUS
 10
76.3647148169
 20
103.8406189403
 11
76.3647148169
 21
102.0906189403
  0
LINE
  5
263
100
AcDbEntity
  8
0
100
AcDbLine
 62
2
  6
CONTINUOUS
 10
136.8852818675
 20
138.3282275673
 11
136.8852818675
 21
103.8406189403
  0
LINE
  5
264
100
AcDbEntity
  8
0
100
AcDbLine
 62
2
  6
CONTINUOUS
 10
136.8852818675
 20
103.8406189403
 11
136.8852818675
 21
102.0906189403
  0
LINE
  5
265
100
AcDbEntity
  8
0
100
AcDbLine
 62
2
  6
CONTINUOUS
 10
76.3647148169
 20
103.0906189403
 11
106.6249983422
 21
103.0906189403
  0
LINE
  5
266
100
AcDbEntity
  8
0
100
AcDbLine
 62
2
  6
CONTINUOUS
 10
136.8852818675
 20
103.0906189403
 11
106.6249983422
 21
103.0906189403
  0
INSERT
  5
267
100
AcDbEntity
  8
0
100
AcDbBlockReference
 62
2
  6
CONTINUOUS
  2
_FILLED
 10
76.3647148169
 20
103.0906189403
 41
3.5
 42
3.5
 43
3.5
 50
180.0
  0
INSERT
  5
268
100
AcDbEntity
  8
0
100
AcDbBlockReference
 62
2
  6
CONTINUOUS
  2
_FILLED
 10
136.8852818675
 20
103.0906189403
 41
3.5
 42
3.5
 43
3.5
  0
ENDBLK
  5
269
100
AcDbEntity
  8
0
  6
BYBLOCK
 62
0
100
AcDbBlockEnd
  0
BLOCK
  5
26A
100
AcDbEntity
  8
0
100
AcDbBlockBegin
 62
2
  6
CONTINUOUS
  2
*D6
 70
65
 10
0.0
 20
0.0
  3
*D6
  1

  0
MTEXT
  5
26B
100
AcDbEntity
  8
0
100
AcDbMText
 62
5
  6
CONTINUOUS
  7
TEXTSTYLE_2
 71
2
 72
1
 10
146.7551401048
 20
106.8406189403
 30
0.0
 11
1.0
 21
0.0
 31
0.0
 44
0.9
  1
20
 40
3.0
 41
3.7634408602
  0
LINE
  5
26C
100
AcDbEntity
  8
0
100
AcDbLine
 62
2
  6
CONTINUOUS
 10
136.8852818675
 20
138.3282275673
 11
136.8852818675
 21
102.0906189403
  0
LINE
  5
26D
100
AcDbEntity
  8
0
100
AcDbLine
 62
2
  6
CONTINUOUS
 10
156.6249983422
 20
129.0906189403
 11
156.6249983422
 21
102.0906189403
  0
LINE
  5
26E
100
AcDbEntity
  8
0
100
AcDbLine
 62
2
  6
CONTINUOUS
 10
136.8852818675
 20
103.0906189403
 11
146.7551401048
 21
103.0906189403
  0
LINE
  5
26F
100
AcDbEntity
  8
0
100
AcDbLine
 62
2
  6
CONTINUOUS
 10
156.6249983422
 20
103.0906189403
 11
146.7551401048
 21
103.0906189403
  0
INSERT
  5
270
100
AcDbEntity
  8
0
100
AcDbBlockReference
 62
2
  6
CONTINUOUS
  2
_FILLED
 10
136.8852818675
 20
103.0906189403
 41
3.5
 42
3.5
 43
3.5
 50
180.0
  0
INSERT
  5
271
100
AcDbEntity
  8
0
100
AcDbBlockReference
 62
2
  6
CONTINUOUS
  2
_FILLED
 10
156.6249983422
 20
103.0906189403
 41
3.5
 42
3.5
 43
3.5
  0
ENDBLK
  5
272
100
AcDbEntity
  8
0
  6
BYBLOCK
 62
0
100
AcDbBlockEnd
  0
BLOCK
  5
273
100
AcDbEntity
  8
0
100
AcDbBlockBegin
 62
2
  6
CONTINUOUS
  2
*D7
 70
65
 10
0.0
 20
0.0
  3
*D7
  1

  0
MTEXT
  5
274
100
AcDbEntity
  8
0
100
AcDbMText
 62
5
  6
CONTINUOUS
  7
TEXTSTYLE_2
 71
2
 72
1
 10
106.6249983422
 20
113.8406189403
 30
0.0
 11
1.0
 21
0.0
 31
0.0
 44
0.9
  1
32
 40
3.0
 41
3.7634408602
  0
LINE
  5
275
100
AcDbEntity
  8
0
100
AcDbLine
 62
2
  6
CONTINUOUS
 10
122.6300247842
 20
140.0308673457
 11
122.6300247842
 21
109.0906189403
  0
LINE
  5
276
100
AcDbEntity
  8
0
100
AcDbLine
 62
2
  6
CONTINUOUS
 10
90.6199719002
 20
140.0308673457
 11
90.6199719002
 21
109.0906189403
  0
LINE
  5
277
100
AcDbEntity
  8
0
100
AcDbLine
 62
2
  6
CONTINUOUS
 10
122.6300247842
 20
110.0906189403
 11
106.6249983422
 21
110.0906189403
  0
LINE
  5
278
100
AcDbEntity
  8
0
100
AcDbLine
 62
2
  6
CONTINUOUS
 10
90.6199719002
 20
110.0906189403
 11
106.6249983422
 21
110.0906189403
  0
INSERT
  5
279
100
AcDbEntity
  8
0
100
AcDbBlockReference
 62
2
  6
CONTINUOUS
  2
_FILLED
 10
122.6300247842
 20
110.0906189403
 41
3.5
 42
3.5
 43
3.5
  0
INSERT
  5
27A
100
AcDbEntity
  8
0
100
AcDbBlockReference
 62
2
  6
CONTINUOUS
  2
_FILLED
 10
90.6199719002
 20
110.0906189403
 41
3.5
 42
3.5
 43
3.5
 50
180.0
  0
ENDBLK
  5
27B
100
AcDbEntity
  8
0
  6
BYBLOCK
 62
0
100
AcDbBlockEnd
  0
BLOCK
  5
27C
100
AcDbEntity
  8
0
100
AcDbBlockBegin
 62
2
  6
CONTINUOUS
  2
*D8
 70
65
 10
0.0
 20
0.0
  3
*D8
  1

  0
MTEXT
  5
27D
100
AcDbEntity
  8
0
100
AcDbMText
 62
5
  6
CONTINUOUS
  7
TEXTSTYLE_2
 71
2
 72
1
 10
129.7576533258
 20
113.8406189403
 30
0.0
 11
1.0
 21
0.0
 31
0.0
 44
0.9
  1
14
 40
3.0
 41
3.7634408602
  0
LINE
  5
27E
100
AcDbEntity
  8
0
100
AcDbLine
 62
2
  6
CONTINUOUS
 10
122.6300247842
 20
140.0308673457
 11
122.6300247842
 21
109.0906189403
  0
LINE
  5
27F
100
AcDbEntity
  8
0
100
AcDbLine
 62
2
  6
CONTINUOUS
 10
136.8852818675
 20
138.3282275673
 11
136.8852818675
 21
109.0906189403
  0
LINE
  5
280
100
AcDbEntity
  8
0
100
AcDbLine
 62
2
  6
CONTINUOUS
 10
122.6300247842
 20
110.0906189403
 11
129.7576533258
 21
110.0906189403
  0
LINE
  5
281
100
AcDbEntity
  8
0
100
AcDbLine
 62
2
  6
CONTINUOUS
 10
136.8852818675
 20
110.0906189403
 11
129.7576533258
 21
110.0906189403
  0
INSERT
  5
282
100
AcDbEntity
  8
0
100
AcDbBlockReference
 62
2
  6
CONTINUOUS
  2
_FILLED
 10
122.6300247842
 20
110.0906189403
 41
3.5
 42
3.5
 43
3.5
 50
180.0
  0
INSERT
  5
283
100
AcDbEntity
  8
0
100
AcDbBlockReference
 62
2
  6
CONTINUOUS
  2
_FILLED
 10
136.8852818675
 20
110.0906189403
 41
3.5
 42
3.5
 43
3.5
  0
ENDBLK
  5
284
100
AcDbEntity
  8
0
  6
BYBLOCK
 62
0
100
AcDbBlockEnd
  0
BLOCK
  5
285
100
AcDbEntity
  8
0
100
AcDbBlockBegin
 62
2
  6
CONTINUOUS
  2
*D9
 70
65
 10
0.0
 20
0.0
  3
*D9
  1

  0
MTEXT
  5
286
100
AcDbEntity
  8
0
100
AcDbMText
 62
5
  6
CONTINUOUS
  7
TEXTSTYLE_1
 71
2
 72
1
 10
146.6249983422
 20
257.9878110927
 30
0.0
 11
1.0
 21
0.0
 31
0.0
 44
0.9
  1
{\Fgdt;n}\Fswisscl.ttf;14
 40
3.0
 41
7.7634408602
  0
LINE
  5
287
100
AcDbEntity
  8
0
100
AcDbLine
 62
2
  6
CONTINUOUS
 10
139.6249983422
 20
244.2377927762
 11
139.6249983422
 21
255.2378110927
  0
LINE
  5
288
100
AcDbEntity
  8
0
100
AcDbLine
 62
2
  6
CONTINUOUS
 10
153.6249983422
 20
244.2377927762
 11
153.6249983422
 21
255.2378110927
  0
LINE
  5
289
100
AcDbEntity
  8
0
100
AcDbLine
 62
2
  6
CONTINUOUS
 10
139.6249983422
 20
254.2378110927
 11
146.6249983422
 21
254.2378110927
  0
LINE
  5
28A
100
AcDbEntity
  8
0
100
AcDbLine
 62
2
  6
CONTINUOUS
 10
153.6249983422
 20
254.2378110927
 11
146.6249983422
 21
254.2378110927
  0
INSERT
  5
28B
100
AcDbEntity
  8
0
100
AcDbBlockReference
 62
2
  6
CONTINUOUS
  2
_FILLED
 10
139.6249983422
 20
254.2378110927
 41
3.5
 42
3.5
 43
3.5
 50
180.0
  0
INSERT
  5
28C
100
AcDbEntity
  8
0
100
AcDbBlockReference
 62
2
  6
CONTINUOUS
  2
_FILLED
 10
153.6249983422
 20
254.2378110927
 41
3.5
 42
3.5
 43
3.5
  0
ENDBLK
  5
28D
100
AcDbEntity
  8
0
  6
BYBLOCK
 62
0
100
AcDbBlockEnd
  0
BLOCK
  5
28E
100
AcDbEntity
  8
0
100
AcDbBlockBegin
 62
2
  6
CONTINUOUS
  2
*D10
 70
65
 10
0.0
 20
0.0
  3
*D10
  1

  0
MTEXT
  5
28F
100
AcDbEntity
  8
0
100
AcDbMText
 62
5
  6
CONTINUOUS
  7
TEXTSTYLE_1
 71
1
 72
1
 10
155.4621889629
 20
223.4220908169
 30
0.0
 11
1.0
 21
0.0
 31
0.0
 44
0.9
  1
{\Fgdt;n}\Fswisscl.ttf;6
 40
3.0
 41
5.8817204301
  0
LINE
  5
290
100
AcDbEntity
  8
0
100
AcDbLine
 62
2
  6
CONTINUOUS
 10
143.6249983422
 20
240.2377927762
 11
143.6249983422
 21
218.6720908169
  0
LINE
  5
291
100
AcDbEntity
  8
0
100
AcDbLine
 62
2
  6
CONTINUOUS
 10
149.6249983422
 20
240.2377927762
 11
149.6249983422
 21
218.6720908169
  0
LINE
  5
292
100
AcDbEntity
  8
0
100
AcDbLine
 62
2
  6
CONTINUOUS
 10
143.6249983422
 20
219.6720908169
 11
138.6249983422
 21
219.6720908169
  0
LINE
  5
293
100
AcDbEntity
  8
0
100
AcDbLine
 62
2
  6
CONTINUOUS
 10
138.6249983422
 20
219.6720908169
 11
146.6249983422
 21
219.6720908169
  0
LINE
  5
294
100
AcDbEntity
  8
0
100
AcDbLine
 62
2
  6
CONTINUOUS
 10
149.6249983422
 20
219.6720908169
 11
161.343909393
 21
219.6720908169
  0
LINE
  5
295
100
AcDbEntity
  8
0
100
AcDbLine
 62
2
  6
CONTINUOUS
 10
161.343909393
 20
219.6720908169
 11
146.6249983422
 21
219.6720908169
  0
INSERT
  5
296
100
AcDbEntity
  8
0
100
AcDbBlockReference
 62
2
  6
CONTINUOUS
  2
_FILLED
 10
143.6249983422
 20
219.6720908169
 41
3.5
 42
3.5
 43
3.5
  0
INSERT
  5
297
100
AcDbEntity
  8
0
100
AcDbBlockReference
 62
2
  6
CONTINUOUS
  2
_FILLED
 10
149.6249983422
 20
219.6720908169
 41
3.5
 42
3.5
 43
3.5
 50
180.0
  0
ENDBLK
  5
298
100
AcDbEntity
  8
0
  6
BYBLOCK
 62
0
100
AcDbBlockEnd
  0
BLOCK
  5
299
100
AcDbEntity
  8
0
100
AcDbBlockBegin
 62
2
  6
CONTINUOUS
  2
*D11
 70
65
 10
0.0
 20
0.0
  3
*D11
  1

  0
MTEXT
  5
29A
100
AcDbEntity
  8
0
100
AcDbMText
 62
5
  6
CONTINUOUS
  7
TEXTSTYLE_2
 71
3
 72
1
 10
162.8749983422
 20
233.1768758107
 30
0.0
 11
0.0
 21
1.0
 31
0.0
 44
0.9
  1
4
 40
3.0
 41
1.8817204301
  0
LINE
  5
29B
100
AcDbEntity
  8
0
100
AcDbLine
 62
2
  6
CONTINUOUS
 10
153.6249983422
 20
244.2377927762
 11
167.6249983422
 21
244.2377927762
  0
LINE
  5
29C
100
AcDbEntity
  8
0
100
AcDbLine
 62
2
  6
CONTINUOUS
 10
149.6249983422
 20
240.2377927762
 11
167.6249983422
 21
240.2377927762
  0
LINE
  5
29D
100
AcDbEntity
  8
0
100
AcDbLine
 62
2
  6
CONTINUOUS
 10
166.6249983422
 20
244.2377927762
 11
166.6249983422
 21
249.2377927762
  0
LINE
  5
29E
100
AcDbEntity
  8
0
100
AcDbLine
 62
2
  6
CONTINUOUS
 10
166.6249983422
 20
249.2377927762
 11
166.6249983422
 21
242.2377927762
  0
LINE
  5
29F
100
AcDbEntity
  8
0
100
AcDbLine
 62
2
  6
CONTINUOUS
 10
166.6249983422
 20
240.2377927762
 11
166.6249983422
 21
231.2951553806
  0
LINE
  5
2A0
100
AcDbEntity
  8
0
100
AcDbLine
 62
2
  6
CONTINUOUS
 10
166.6249983422
 20
231.2951553806
 11
166.6249983422
 21
242.2377927762
  0
INSERT
  5
2A1
100
AcDbEntity
  8
0
100
AcDbBlockReference
 62
2
  6
CONTINUOUS
  2
_FILLED
 10
166.6249983422
 20
244.2377927762
 41
3.5
 42
3.5
 43
3.5
 50
270.0
  0
INSERT
  5
2A2
100
AcDbEntity
  8
0
100
AcDbBlockReference
 62
2
  6
CONTINUOUS
  2
_FILLED
 10
166.6249983422
 20
240.2377927762
 41
3.5
 42
3.5
 43
3.5
 50
90.0
  0
ENDBLK
  5
2A3
100
AcDbEntity
  8
0
  6
BYBLOCK
 62
0
100
AcDbBlockEnd
  0
BLOCK
  5
2A4
100
AcDbEntity
  8
0
100
AcDbBlockBegin
 62
2
  6
CONTINUOUS
  2
*D12
 70
65
 10
0.0
 20
0.0
  3
*D12
  1

  0
MTEXT
  5
2A5
100
AcDbEntity
  8
0
100
AcDbMText
 62
5
  6
CONTINUOUS
  7
TEXTSTYLE_2
 71
2
 72
1
 10
146.6249983422
 20
267.2378110927
 30
0.0
 11
1.0
 21
0.0
 31
0.0
 44
0.9
  1
90\Fgdt;{\Fgdt;~}
 40
3.0
 41
5.7634408602
  0
LINE
  5
2A6
100
AcDbEntity
  8
0
100
AcDbLine
 62
2
  6
CONTINUOUS
 10
153.6249983422
 20
244.2377927762
 11
164.3026808236
 21
254.9154752576
  0
LINE
  5
2A7
100
AcDbEntity
  8
0
100
AcDbLine
 62
2
  6
CONTINUOUS
 10
139.6249983422
 20
244.2377927762
 11
128.9473158608
 21
254.9154752576
  0
ARC
  5
2A8
100
AcDbEntity
  8
0
100
AcDbCircle
 62
2
  6
CONTINUOUS
 10
146.6249983422
 20
237.2377927762
 40
24.0000183165
100
AcDbArc
 50
45.0
 51
90.0
  0
ARC
  5
2A9
100
AcDbEntity
  8
0
100
AcDbCircle
 62
2
  6
CONTINUOUS
 10
146.6249983422
 20
237.2377927762
 40
24.0000183165
100
AcDbArc
 50
90.0
 51
135.0
  0
SOLID
  5
2AA
100
AcDbEntity
  8
0
100
AcDbTrace
 62
2
  6
CONTINUOUS
 10
160.6201202636
 20
256.1179953537
 11
163.5955740424
 21
254.2083684764
 12
161.2738339404
 22
256.8747373367
 13
161.2738339404
 23
256.8747373367
  0
SOLID
  5
2AB
100
AcDbEntity
  8
0
100
AcDbTrace
 62
2
  6
CONTINUOUS
 10
131.976162744
 20
256.8747373367
 11
129.654422642
 21
254.2083684764
 12
132.6298764208
 22
256.1179953537
 13
132.6298764208
 23
256.1179953537
  0
ENDBLK
  5
2AC
100
AcDbEntity
  8
0
  6
BYBLOCK
 62
0
100
AcDbBlockEnd
  0
BLOCK
  5
2AD
100
AcDbEntity
  8
0
100
AcDbBlockBegin
 62
2
  6
CONTINUOUS
  2
*D13
 70
65
 10
0.0
 20
0.0
  3
*D13
  1

  0
MTEXT
  5
2AE
100
AcDbEntity
  8
0
100
AcDbMText
 62
5
  6
CONTINUOUS
  7
TEXTSTYLE_2
 71
2
 72
1
 10
42.8749983422
 20
234.2377927762
 30
0.0
 11
0.0
 21
1.0
 31
0.0
 44
0.9
  1
20
 40
3.0
 41
3.7634408602
  0
LINE
  5
2AF
100
AcDbEntity
  8
0
100
AcDbLine
 62
2
  6
CONTINUOUS
 10
65.6249983422
 20
244.2377927762
 11
45.6249983422
 21
244.2377927762
  0
LINE
  5
2B0
100
AcDbEntity
  8
0
100
AcDbLine
 62
2
  6
CONTINUOUS
 10
90.6199719002
 20
224.2377927762
 11
45.6249983422
 21
224.2377927762
  0
LINE
  5
2B1
100
AcDbEntity
  8
0
100
AcDbLine
 62
2
  6
CONTINUOUS
 10
46.6249983422
 20
244.2377927762
 11
46.6249983422
 21
234.2377927762
  0
LINE
  5
2B2
100
AcDbEntity
  8
0
100
AcDbLine
 62
2
  6
CONTINUOUS
 10
46.6249983422
 20
224.2377927762
 11
46.6249983422
 21
234.2377927762
  0
INSERT
  5
2B3
100
AcDbEntity
  8
0
100
AcDbBlockReference
 62
2
  6
CONTINUOUS
  2
_FILLED
 10
46.6249983422
 20
244.2377927762
 41
3.5
 42
3.5
 43
3.5
 50
90.0
  0
INSERT
  5
2B4
100
AcDbEntity
  8
0
100
AcDbBlockReference
 62
2
  6
CONTINUOUS
  2
_FILLED
 10
46.6249983422
 20
224.2377927762
 41
3.5
 42
3.5
 43
3.5
 50
270.0
  0
ENDBLK
  5
2B5
100
AcDbEntity
  8
0
  6
BYBLOCK
 62
0
100
AcDbBlockEnd
  0
BLOCK
  5
2B6
100
AcDbEntity
  8
0
100
AcDbBlockBegin
 62
2
  6
CONTINUOUS
  2
*D14
 70
65
 10
0.0
 20
0.0
  3
*D14
  1

  0
MTEXT
  5
2B7
100
AcDbEntity
  8
0
100
AcDbMText
 62
5
  6
CONTINUOUS
  7
TEXTSTYLE_2
 71
2
 72
1
 10
169.8749983422
 20
127.3808440325
 30
0.0
 11
0.0
 21
1.0
 31
0.0
 44
0.9
  1
15
 40
3.0
 41
3.7634408602
  0
LINE
  5
2B8
100
AcDbEntity
  8
0
100
AcDbLine
 62
2
  6
CONTINUOUS
 10
147.6249983422
 20
120.0906189403
 11
172.8749983422
 21
120.0906189403
  0
LINE
  5
2B9
100
AcDbEntity
  8
0
100
AcDbLine
 62
2
  6
CONTINUOUS
 10
172.8749983422
 20
120.0906189403
 11
174.6249983422
 21
120.0906189403
  0
LINE
  5
2BA
100
AcDbEntity
  8
0
100
AcDbLine
 62
2
  6
CONTINUOUS
 10
132.4885425641
 20
134.6710691247
 11
172.8749983422
 21
134.6710691247
  0
LINE
  5
2BB
100
AcDbEntity
  8
0
100
AcDbLine
 62
2
  6
CONTINUOUS
 10
172.8749983422
 20
134.6710691247
 11
174.6249983422
 21
134.6710691247
  0
LINE
  5
2BC
100
AcDbEntity
  8
0
100
AcDbLine
 62
2
  6
CONTINUOUS
 10
173.6249983422
 20
120.0906189403
 11
173.6249983422
 21
127.3808440325
  0
LINE
  5
2BD
100
AcDbEntity
  8
0
100
AcDbLine
 62
2
  6
CONTINUOUS
 10
173.6249983422
 20
134.6710691247
 11
173.6249983422
 21
127.3808440325
  0
INSERT
  5
2BE
100
AcDbEntity
  8
0
100
AcDbBlockReference
 62
2
  6
CONTINUOUS
  2
_FILLED
 10
173.6249983422
 20
120.0906189403
 41
3.5
 42
3.5
 43
3.5
 50
270.0
  0
INSERT
  5
2BF
100
AcDbEntity
  8
0
100
AcDbBlockReference
 62
2
  6
CONTINUOUS
  2
_FILLED
 10
173.6249983422
 20
134.6710691247
 41
3.5
 42
3.5
 43
3.5
 50
90.0
  0
ENDBLK
  5
2C0
100
AcDbEntity
  8
0
  6
BYBLOCK
 62
0
100
AcDbBlockEnd
  0
BLOCK
  5
2C1
100
AcDbEntity
  8
0
100
AcDbBlockBegin
 62
2
  6
CONTINUOUS
  2
*D15
 70
65
 10
0.0
 20
0.0
  3
*D15
  1

  0
MTEXT
  5
2C2
100
AcDbEntity
  8
0
100
AcDbMText
 62
5
  6
CONTINUOUS
  7
TEXTSTYLE_2
 71
2
 72
1
 10
169.8749983422
 20
143.0906189403
 30
0.0
 11
0.0
 21
1.0
 31
0.0
 44
0.9
  1
16
 40
3.0
 41
3.7634408602
  0
LINE
  5
2C3
100
AcDbEntity
  8
0
100
AcDbLine
 62
2
  6
CONTINUOUS
 10
132.4885425641
 20
151.5101687559
 11
172.8749983422
 21
151.5101687559
  0
LINE
  5
2C4
100
AcDbEntity
  8
0
100
AcDbLine
 62
2
  6
CONTINUOUS
 10
172.8749983422
 20
151.5101687559
 11
174.6249983422
 21
151.5101687559
  0
LINE
  5
2C5
100
AcDbEntity
  8
0
100
AcDbLine
 62
2
  6
CONTINUOUS
 10
132.4885425641
 20
134.6710691247
 11
172.8749983422
 21
134.6710691247
  0
LINE
  5
2C6
100
AcDbEntity
  8
0
100
AcDbLine
 62
2
  6
CONTINUOUS
 10
172.8749983422
 20
134.6710691247
 11
174.6249983422
 21
134.6710691247
  0
LINE
  5
2C7
100
AcDbEntity
  8
0
100
AcDbLine
 62
2
  6
CONTINUOUS
 10
173.6249983422
 20
151.5101687559
 11
173.6249983422
 21
143.0906189403
  0
LINE
  5
2C8
100
AcDbEntity
  8
0
100
AcDbLine
 62
2
  6
CONTINUOUS
 10
173.6249983422
 20
134.6710691247
 11
173.6249983422
 21
143.0906189403
  0
INSERT
  5
2C9
100
AcDbEntity
  8
0
100
AcDbBlockReference
 62
2
  6
CONTINUOUS
  2
_FILLED
 10
173.6249983422
 20
151.5101687559
 41
3.5
 42
3.5
 43
3.5
 50
90.0
  0
INSERT
  5
2CA
100
AcDbEntity
  8
0
100
AcDbBlockReference
 62
2
  6
CONTINUOUS
  2
_FILLED
 10
173.6249983422
 20
134.6710691247
 41
3.5
 42
3.5
 43
3.5
 50
270.0
  0
ENDBLK
  5
2CB
100
AcDbEntity
  8
0
  6
BYBLOCK
 62
0
100
AcDbBlockEnd
  0
BLOCK
  5
2CC
100
AcDbEntity
  8
0
100
AcDbBlockBegin
 62
2
  6
CONTINUOUS
  2
*D16
 70
65
 10
0.0
 20
0.0
  3
*D16
  1

  0
MTEXT
  5
2CD
100
AcDbEntity
  8
0
100
AcDbMText
 62
5
  6
CONTINUOUS
  7
TEXTSTYLE_2
 71
2
 72
1
 10
162.8749983422
 20
137.3509682352
 30
0.0
 11
0.0
 21
1.0
 31
0.0
 44
0.9
  1
5
 40
3.0
 41
1.8817204301
  0
LINE
  5
2CE
100
AcDbEntity
  8
0
100
AcDbLine
 62
2
  6
CONTINUOUS
 10
132.4885425641
 20
134.6710691247
 11
167.6249983422
 21
134.6710691247
  0
LINE
  5
2CF
100
AcDbEntity
  8
0
100
AcDbLine
 62
2
  6
CONTINUOUS
 10
122.6300247842
 20
140.0308673457
 11
167.6249983422
 21
140.0308673457
  0
LINE
  5
2D0
100
AcDbEntity
  8
0
100
AcDbLine
 62
2
  6
CONTINUOUS
 10
166.6249983422
 20
134.6710691247
 11
166.6249983422
 21
129.6710691247
  0
LINE
  5
2D1
100
AcDbEntity
  8
0
100
AcDbLine
 62
2
  6
CONTINUOUS
 10
166.6249983422
 20
129.6710691247
 11
166.6249983422
 21
137.3509682352
  0
LINE
  5
2D2
100
AcDbEntity
  8
0
100
AcDbLine
 62
2
  6
CONTINUOUS
 10
166.6249983422
 20
140.0308673457
 11
166.6249983422
 21
145.0308673457
  0
LINE
  5
2D3
100
AcDbEntity
  8
0
100
AcDbLine
 62
2
  6
CONTINUOUS
 10
166.6249983422
 20
145.0308673457
 11
166.6249983422
 21
137.3509682352
  0
INSERT
  5
2D4
100
AcDbEntity
  8
0
100
AcDbBlockReference
 62
2
  6
CONTINUOUS
  2
_FILLED
 10
166.6249983422
 20
134.6710691247
 41
3.5
 42
3.5
 43
3.5
 50
90.0
  0
INSERT
  5
2D5
100
AcDbEntity
  8
0
100
AcDbBlockReference
 62
2
  6
CONTINUOUS
  2
_DOT
 10
166.6249983422
 20
140.0308673457
 41
3.5
 42
3.5
 43
3.5
 50
270.0
  0
ENDBLK
  5
2D6
100
AcDbEntity
  8
0
  6
BYBLOCK
 62
0
100
AcDbBlockEnd
  0
BLOCK
  5
2D7
100
AcDbEntity
  8
0
100
AcDbBlockBegin
 62
2
  6
CONTINUOUS
  2
*D17
 70
65
 10
0.0
 20
0.0
  3
*D17
  1

  0
MTEXT
  5
2D8
100
AcDbEntity
  8
0
100
AcDbMText
 62
5
  6
CONTINUOUS
  7
TEXTSTYLE_2
 71
2
 72
1
 10
162.8749983422
 20
143.0906189403
 30
0.0
 11
0.0
 21
1.0
 31
0.0
 44
0.9
  1
6
 40
3.0
 41
1.8817204301
  0
LINE
  5
2D9
100
AcDbEntity
  8
0
100
AcDbLine
 62
2
  6
CONTINUOUS
 10
122.6300247842
 20
140.0308673457
 11
167.6249983422
 21
140.0308673457
  0
LINE
  5
2DA
100
AcDbEntity
  8
0
100
AcDbLine
 62
2
  6
CONTINUOUS
 10
122.6300247842
 20
146.1503705348
 11
167.6249983422
 21
146.1503705348
  0
LINE
  5
2DB
100
AcDbEntity
  8
0
100
AcDbLine
 62
2
  6
CONTINUOUS
 10
166.6249983422
 20
140.0308673457
 11
166.6249983422
 21
135.0308673457
  0
LINE
  5
2DC
100
AcDbEntity
  8
0
100
AcDbLine
 62
2
  6
CONTINUOUS
 10
166.6249983422
 20
135.0308673457
 11
166.6249983422
 21
143.0906189403
  0
LINE
  5
2DD
100
AcDbEntity
  8
0
100
AcDbLine
 62
2
  6
CONTINUOUS
 10
166.6249983422
 20
146.1503705348
 11
166.6249983422
 21
151.1503705348
  0
LINE
  5
2DE
100
AcDbEntity
  8
0
100
AcDbLine
 62
2
  6
CONTINUOUS
 10
166.6249983422
 20
151.1503705348
 11
166.6249983422
 21
143.0906189403
  0
INSERT
  5
2DF
100
AcDbEntity
  8
0
100
AcDbBlockReference
 62
2
  6
CONTINUOUS
  2
_DOT
 10
166.6249983422
 20
140.0308673457
 41
3.5
 42
3.5
 43
3.5
 50
90.0
  0
INSERT
  5
2E0
100
AcDbEntity
  8
0
100
AcDbBlockReference
 62
2
  6
CONTINUOUS
  2
_FILLED
 10
166.6249983422
 20
146.1503705348
 41
3.5
 42
3.5
 43
3.5
 50
270.0
  0
ENDBLK
  5
2E1
100
AcDbEntity
  8
0
  6
BYBLOCK
 62
0
100
AcDbBlockEnd
  0
ENDSEC
  0
SECTION
  2
ENTITIES
  0
HATCH
  5
2E2
100
AcDbEntity
  8
0
100
AcDbHatch
 62
2
  6
CONTINUOUS
 10
0.0
 20
0.0
 30
0.0
210
0.0
220
0.0
230
1.0
  2
A
 70
0
 71
0
 91
2
 92
1
 93
6
 72
1
 10
139.6249983422
 20
244.2377927762
 11
143.6249983422
 21
240.2377927762
 72
1
 10
143.6249983422
 20
240.2377927762
 11
142.6249983422
 21
240.2377927762
 72
1
 10
142.6249983422
 20
240.2377927762
 11
140.1249983422
 21
242.7377927762
 72
1
 10
140.1249983422
 20
242.7377927762
 11
130.6726418734
 21
242.7377927762
 72
4
 94
3
 73
0
 74
0
 95
9
 96
5
 40
0.0
 40
0.0
 40
0.0
 40
0.0
 40
0.5
 40
1.0
 40
1.0
 40
1.0
 40
1.0
 10
130.6726418734
 20
242.7377927762
 10
130.7958308834
 20
242.9808834415
 10
131.1064026134
 20
243.4739741068
 10
131.5453617633
 20
243.9808834415
 10
131.7969381933
 20
244.2377927762
 72
1
 10
131.7969381933
 20
244.2377927762
 11
139.6249983422
 21
244.2377927762
 97
0
 92
1
 93
8
 72
1
 10
149.6249983422
 20
240.2377927762
 11
153.6249983422
 21
244.2377927762
 72
1
 10
153.6249983422
 20
244.2377927762
 11
155.6249983422
 21
244.2377927762
 72
1
 10
155.6249983422
 20
244.2377927762
 11
156.6249983422
 21
243.660442507
 72
1
 10
156.6249983422
 20
243.660442507
 11
155.8749983422
 21
242.3614044014
 72
1
 10
155.8749983422
 20
242.3614044014
 11
155.2230745535
 21
242.7377927762
 72
1
 10
155.2230745535
 20
242.7377927762
 11
153.1249983422
 21
242.7377927762
 72
1
 10
153.1249983422
 20
242.7377927762
 11
150.6249983422
 21
240.2377927762
 72
1
 10
150.6249983422
 20
240.2377927762
 11
149.6249983422
 21
240.2377927762
 97
0
 75
0
 76
0
 52
45.0
 41
0.5
 77
0
 78
1
 53
45.0
 43
0.0
 44
0.0
 45
-0.3535533906
 46
0.3535533906
 79
0
 98
1
 10
0.0
 20
0.0
  0
DIMENSION
  5
2E3
100
AcDbEntity
  8
0
100
AcDbDimension
 62
2
  6
CONTINUOUS
  2
*D0
 10
146.6249983422
 20
186.0906189403
 11
104.7432779121
 21
188.3406189403
 70
160
 71
2
 42
80.0
  3
DIMSTYLE_1
100
AcDbAlignedDimension
 13
66.6249983422
 23
173.5906189403
 14
146.6249983422
 24
173.5906189403
100
AcDbRotatedDimension
  0
DIMENSION
  5
2E4
100
AcDbEntity
  8
0
100
AcDbDimension
 62
2
  6
CONTINUOUS
  2
*D1
 10
156.6249983422
 20
193.0906189403
 11
103.802417697
 21
195.3406189403
 70
160
 71
2
 42
100.0
  3
DIMSTYLE_1
100
AcDbAlignedDimension
 13
56.6249983422
 23
167.0906189403
 14
156.6249983422
 24
167.0906189403
100
AcDbRotatedDimension
  0
DIMENSION
  5
2E5
100
AcDbEntity
  8
0
100
AcDbDimension
 62
2
  6
CONTINUOUS
  2
*D2
 10
46.6249983422
 20
129.0906189403
 11
45.2181476198
 21
143.9083671539
 70
160
 71
2
 42
33.0
  3
DIMSTYLE_1
100
AcDbAlignedDimension
 13
55.1249983422
 23
162.0906189403
 14
55.1249983422
 24
129.0906189403
 50
270.0
100
AcDbRotatedDimension
  0
DIMENSION
  5
2E6
100
AcDbEntity
  8
0
100
AcDbDimension
 62
2
  6
CONTINUOUS
  2
*D3
 10
46.6249983422
 20
129.0906189403
 11
44.796572981
 21
123.7494930471
 70
160
 71
2
 42
9.0
  3
DIMSTYLE_2
100
AcDbAlignedDimension
 13
65.6249983422
 23
120.0906189403
 14
55.1249983422
 24
129.0906189403
 50
90.0
100
AcDbRotatedDimension
  0
DIMENSION
  5
2E7
100
AcDbEntity
  8
0
100
AcDbDimension
 62
2
  6
CONTINUOUS
  2
*D4
 10
39.6249983422
 20
176.0906189403
 11
38.2181476198
 21
146.4083671539
 70
160
 71
2
 42
56.0
  3
DIMSTYLE_1
100
AcDbAlignedDimension
 13
65.6249983422
 23
120.0906189403
 14
65.6249983422
 24
176.0906189403
 50
90.0
100
AcDbRotatedDimension
  0
DIMENSION
  5
2E8
100
AcDbEntity
  8
0
100
AcDbDimension
 62
2
  6
CONTINUOUS
  2
*D5
 10
136.8852818675
 20
103.0906189403
 11
104.7432779121
 21
105.3406189403
 70
160
 71
2
 42
60.5205670506
  1
60
  3
DIMSTYLE_1
100
AcDbAlignedDimension
 13
76.3647148169
 23
138.3282275673
 14
136.8852818675
 24
138.3282275673
100
AcDbRotatedDimension
  0
DIMENSION
  5
2E9
100
AcDbEntity
  8
0
100
AcDbDimension
 62
2
  6
CONTINUOUS
  2
*D6
 10
156.6249983422
 20
103.0906189403
 11
144.8734196747
 21
105.3406189403
 70
160
 71
2
 42
19.7397164747
  3
DIMSTYLE_3
100
AcDbAlignedDimension
 13
136.8852818675
 23
138.3282275673
 14
156.6249983422
 24
129.0906189403
100
AcDbRotatedDimension
  0
DIMENSION
  5
2EA
100
AcDbEntity
  8
0
100
AcDbDimension
 62
2
  6
CONTINUOUS
  2
*D7
 10
90.6199719002
 20
110.0906189403
 11
104.7432779121
 21
112.3406189403
 70
160
 71
2
 42
32.010052884
  3
DIMSTYLE_4
100
AcDbAlignedDimension
 13
122.6300247842
 23
140.0308673457
 14
90.6199719002
 24
140.0308673457
 50
180.0
100
AcDbRotatedDimension
  0
DIMENSION
  5
2EB
100
AcDbEntity
  8
0
100
AcDbDimension
 62
2
  6
CONTINUOUS
  2
*D8
 10
136.8852818675
 20
110.0906189403
 11
127.8759328957
 21
112.3406189403
 70
160
 71
2
 42
14.2552570833
  3
DIMSTYLE_3
100
AcDbAlignedDimension
 13
122.6300247842
 23
140.0308673457
 14
136.8852818675
 24
138.3282275673
100
AcDbRotatedDimension
  0
DIMENSION
  5
2EC
100
AcDbEntity
  8
0
100
AcDbDimension
 62
2
  6
CONTINUOUS
  2
*D9
 10
153.6249983422
 20
254.2378110927
 11
144.6841381271
 21
256.4878110927
 70
160
 71
2
 42
14.0
  1
%%c<>
  3
DIMSTYLE_2
100
AcDbAlignedDimension
 13
139.6249983422
 23
244.2377927762
 14
153.6249983422
 24
244.2377927762
100
AcDbRotatedDimension
  0
DIMENSION
  5
2ED
100
AcDbEntity
  8
0
100
AcDbDimension
 62
2
  6
CONTINUOUS
  2
*D10
 10
149.6249983422
 20
219.6720908169
 11
158.4030491779
 21
221.9220908169
 70
160
 71
1
 42
6.0
  1
%%c<>
  3
DIMSTYLE_5
100
AcDbAlignedDimension
 13
143.6249983422
 23
240.2377927762
 14
149.6249983422
 24
240.2377927762
100
AcDbRotatedDimension
  0
DIMENSION
  5
2EE
100
AcDbEntity
  8
0
100
AcDbDimension
 62
2
  6
CONTINUOUS
  2
*D11
 10
166.6249983422
 20
240.2377927762
 11
165.2181476198
 21
230.5537638093
 70
160
 71
3
 42
4.0
  3
DIMSTYLE_5
100
AcDbAlignedDimension
 13
153.6249983422
 23
244.2377927762
 14
149.6249983422
 24
240.2377927762
 50
270.0
100
AcDbRotatedDimension
  0
DIMENSION
  5
2EF
100
AcDbEntity
  8
0
100
AcDbDimension
 62
2
  6
CONTINUOUS
  2
*D12
 10
128.9473158608
 20
254.9154752576
 11
145.1841381271
 21
265.7378110927
 70
162
 71
2
 42
1.5707963268
  3
DIMSTYLE_6
100
AcDb2LineAngularDimension
 13
164.3026808236
 23
254.9154752576
 14
153.6249983422
 24
244.2377927762
 15
139.6249983422
 25
244.2377927762
 16
146.6249983422
 26
261.2378110927
  0
DIMENSION
  5
2F0
100
AcDbEntity
  8
0
100
AcDbDimension
 62
2
  6
CONTINUOUS
  2
*D13
 10
46.6249983422
 20
224.2377927762
 11
45.2181476198
 21
232.5555409899
 70
160
 71
2
 42
20.0
  3
DIMSTYLE_2
100
AcDbAlignedDimension
 13
65.6249983422
 23
244.2377927762
 14
90.6199719002
 24
224.2377927762
 50
270.0
100
AcDbRotatedDimension
  0
DIMENSION
  5
2F1
100
AcDbEntity
  8
0
100
AcDbDimension
 62
2
  6
CONTINUOUS
  2
*D14
 10
173.6249983422
 20
134.6710691247
 11
172.2181476198
 21
125.6985922461
 70
160
 71
2
 42
14.5804501844
  1
15
  3
DIMSTYLE_2
100
AcDbAlignedDimension
 13
147.6249983422
 23
120.0906189403
 14
132.4885425641
 24
134.6710691247
 50
90.0
100
AcDbRotatedDimension
  0
DIMENSION
  5
2F2
100
AcDbEntity
  8
0
100
AcDbDimension
 62
2
  6
CONTINUOUS
  2
*D15
 10
173.6249983422
 20
134.6710691247
 11
172.2181476198
 21
141.4083671539
 70
160
 71
2
 42
16.8390996312
  1
16
  3
DIMSTYLE_2
100
AcDbAlignedDimension
 13
132.4885425641
 23
151.5101687559
 14
132.4885425641
 24
134.6710691247
 50
270.0
100
AcDbRotatedDimension
  0
DIMENSION
  5
2F3
100
AcDbEntity
  8
0
100
AcDbDimension
 62
2
  6
CONTINUOUS
  2
*D16
 10
166.6249983422
 20
140.0308673457
 11
164.796572981
 21
136.509842342
 70
160
 71
2
 42
5.359798221
  3
DIMSTYLE_7
100
AcDbAlignedDimension
 13
132.4885425641
 23
134.6710691247
 14
122.6300247842
 24
140.0308673457
 50
90.0
100
AcDbRotatedDimension
1001
ACAD
1000
DSTYLE
1002
{
1070
173
1070
1
1070
7
1000
_DOT
1002
}
  0
DIMENSION
  5
2F4
100
AcDbEntity
  8
0
100
AcDbDimension
 62
2
  6
CONTINUOUS
  2
*D17
 10
166.6249983422
 20
146.1503705348
 11
164.796572981
 21
142.2494930471
 70
160
 71
2
 42
6.1195031891
  3
DIMSTYLE_3
100
AcDbAlignedDimension
 13
122.6300247842
 23
140.0308673457
 14
122.6300247842
 24
146.1503705348
 50
90.0
100
AcDbRotatedDimension
1001
ACAD
1000
DSTYLE
1002
{
1070
173
1070
1
1070
6
1000
_DOT
1002
}
  0
MTEXT
  5
2F5
100
AcDbEntity
  8
0
100
AcDbMText
 62
5
  6
CONTINUOUS
  7
TEXTSTYLE_2
 71
1
 72
1
 10
23.0806950062
 20
19.6868611869
 30
0.0
 11
1.0
 21
0.0
 31
0.0
 44
0.9
  1
B_9009_0001
 40
4.0
 41
28.2007168459
  0
MTEXT
  5
2F6
100
AcDbEntity
  8
0
100
AcDbMText
 62
5
  6
CONTINUOUS
  7
STANDARD
 71
1
 72
1
 10
124.4432583165
 20
35.706833049
 30
0.0
 11
1.0
 21
0.0
 31
0.0
 44
0.9
  1
1:1
 40
2.5
 41
4.2261904762
  0
MTEXT
  5
2F7
100
AcDbEntity
  8
0
100
AcDbMText
 62
5
  6
CONTINUOUS
  7
STANDARD
 71
3
 72
1
 10
110.448446618
 20
276.2791720866
 30
0.0
 11
1.0
 21
0.0
 31
0.0
 44
0.9
  1
A-A
 40
5.0
 41
12.1428571429
  0
LINE
  5
2F8
100
AcDbEntity
  8
0
100
AcDbLine
 62
7
  6
CONTINUOUS
 10
0.0
 20
0.0
 11
210.0
 21
0.0
  0
LINE
  5
2F9
100
AcDbEntity
  8
0
100
AcDbLine
 62
7
  6
CONTINUOUS
 10
0.0
 20
0.0
 11
0.0
 21
297.0
  0
LINE
  5
2FA
100
AcDbEntity
  8
0
100
AcDbLine
 62
7
  6
CONTINUOUS
 10
210.0
 20
0.0
 11
210.0
 21
297.0
  0
LINE
  5
2FB
100
AcDbEntity
  8
0
100
AcDbLine
 62
7
  6
CONTINUOUS
 10
0.0
 20
297.0
 11
210.0
 21
297.0
  0
LINE
  5
2FC
100
AcDbEntity
  8
AXIS
100
AcDbLine
 62
7
  6
CONTINUOUS
 10
56.6249983422
 20
167.0906189403
 11
56.6249983422
 21
129.0906189403
  0
LINE
  5
2FD
100
AcDbEntity
  8
AXIS
100
AcDbLine
 62
7
  6
CONTINUOUS
 10
57.6249983422
 20
167.0906189403
 11
57.6249983422
 21
129.0906189403
  0
LINE
  5
2FE
100
AcDbEntity
  8
CURVES
100
AcDbLine
 62
40
  6
CONTINUOUS
 10
57.6249983422
 20
167.0906189403
 11
57.6249983422
 21
129.0906189403
  0
LINE
  5
2FF
100
AcDbEntity
  8
AXIS
100
AcDbLine
 62
7
  6
CONTINUOUS
 10
65.6249983422
 20
121.0906189403
 11
65.6249983422
 21
120.0906189403
  0
LINE
  5
300
100
AcDbEntity
  8
AXIS
100
AcDbLine
 62
7
  6
CONTINUOUS
 10
65.6249983422
 20
175.0906189403
 11
65.6249983422
 21
176.0906189403
  0
LINE
  5
301
100
AcDbEntity
  8
AXIS
100
AcDbLine
 62
7
  6
CENTER
 10
66.6249983422
 20
162.0906189403
 11
66.6249983422
 21
150.5906189403
  0
LINE
  5
302
100
AcDbEntity
  8
AXIS
100
AcDbLine
 62
7
  6
CENTER
 10
66.6249983422
 20
129.0906189403
 11
66.6249983422
 21
117.5906189403
  0
LINE
  5
303
100
AcDbEntity
  8
AXIS
100
AcDbLine
 62
7
  6
CENTER
 10
66.6249983422
 20
129.0906189403
 11
66.6249983422
 21
140.5906189403
  0
LINE
  5
304
100
AcDbEntity
  8
AXIS
100
AcDbLine
 62
7
  6
CENTER
 10
66.6249983422
 20
162.0906189403
 11
66.6249983422
 21
173.5906189403
  0
LINE
  5
305
100
AcDbEntity
  8
0
100
AcDbLine
 62
7
  6
CONTINUOUS
 10
76.3647148169
 20
138.3282275673
 11
76.3647148169
 21
147.8530103132
  0
LINE
  5
306
100
AcDbEntity
  8
0
100
AcDbLine
 62
7
  6
CONTINUOUS
 10
78.0030189055
 20
138.3282275673
 11
78.0030189055
 21
147.8530103132
  0
LINE
  5
307
100
AcDbEntity
  8
AXIS
100
AcDbLine
 62
7
  6
CONTINUOUS
 10
65.6249983422
 20
120.0906189403
 11
147.6249983422
 21
120.0906189403
  0
LINE
  5
308
100
AcDbEntity
  8
AXIS
100
AcDbLine
 62
7
  6
CONTINUOUS
 10
65.6249983422
 20
121.0906189403
 11
147.6249983422
 21
121.0906189403
  0
LINE
  5
309
100
AcDbEntity
  8
CURVES
100
AcDbLine
 62
40
  6
CONTINUOUS
 10
65.6249983422
 20
121.0906189403
 11
147.6249983422
 21
121.0906189403
  0
LINE
  5
30A
100
AcDbEntity
  8
0
100
AcDbLine
 62
7
  6
CONTINUOUS
 10
80.7614541203
 20
151.5101687559
 11
80.7614541199
 21
149.5405532498
  0
LINE
  5
30B
100
AcDbEntity
  8
0
100
AcDbLine
 62
7
  6
CONTINUOUS
 10
80.7614541203
 20
134.6710691247
 11
80.7614541199
 21
136.6406846307
  0
LINE
  5
30C
100
AcDbEntity
  8
AXIS
100
AcDbLine
 62
7
  6
CENTER
 10
146.6249983422
 20
129.0906189403
 11
135.1249983422
 21
129.0906189403
  0
LINE
  5
30D
100
AcDbEntity
  8
AXIS
100
AcDbLine
 62
7
  6
CONTINUOUS
 10
57.6249983422
 20
129.0906189403
 11
56.6249983422
 21
129.0906189403
  0
LINE
  5
30E
100
AcDbEntity
  8
AXIS
100
AcDbLine
 62
7
  6
CENTER
 10
66.6249983422
 20
129.0906189403
 11
57.6249983422
 21
129.0906189403
  0
LINE
  5
30F
100
AcDbEntity
  8
AXIS
100
AcDbLine
 62
7
  6
CENTER
 10
56.6249983422
 20
129.0906189403
 11
55.1249983422
 21
129.0906189403
  0
LINE
  5
310
100
AcDbEntity
  8
AXIS
100
AcDbLine
 62
7
  6
CENTER
 10
66.6249983422
 20
129.0906189403
 11
78.1249983422
 21
129.0906189403
  0
LINE
  5
311
100
AcDbEntity
  8
AXIS
100
AcDbLine
 62
7
  6
CENTER
 10
146.6249983422
 20
129.0906189403
 11
158.1249983422
 21
129.0906189403
  0
LINE
  5
312
100
AcDbEntity
  8
AXIS
100
AcDbLine
 62
7
  6
CONTINUOUS
 10
155.6249983422
 20
129.0906189403
 11
156.6249983422
 21
129.0906189403
  0
LINE
  5
313
100
AcDbEntity
  8
0
100
AcDbLine
 62
7
  6
CONTINUOUS
 10
89.7625183874
 20
141.2895167925
 11
89.7625183874
 21
144.8917210881
  0
LINE
  5
314
100
AcDbEntity
  8
0
100
AcDbLine
 62
7
  6
CONTINUOUS
 10
91.400822476
 20
139.3199012865
 11
91.400822476
 21
146.8613365941
  0
LINE
  5
315
100
AcDbEntity
  8
0
100
AcDbLine
 62
7
  6
CONTINUOUS
 10
132.4885425644
 20
134.6710691247
 11
80.7614541199
 21
134.6710691247
  0
LINE
  5
316
100
AcDbEntity
  8
0
100
AcDbLine
 62
7
  6
CONTINUOUS
 10
132.4885425644
 20
136.6406846307
 11
80.7614541199
 21
136.6406846307
  0
LINE
  5
317
100
AcDbEntity
  8
0
100
AcDbLine
 62
7
  6
CONTINUOUS
 10
123.4874782969
 20
144.8917210881
 11
135.2469777789
 21
147.8530103132
  0
LINE
  5
318
100
AcDbEntity
  8
0
100
AcDbLine
 62
7
  6
CONTINUOUS
 10
136.8852818675
 20
138.3282275673
 11
135.2469777789
 21
138.3282275673
  0
LINE
  5
319
100
AcDbEntity
  8
0
100
AcDbLine
 62
7
  6
CONTINUOUS
 10
76.3647148169
 20
138.3282275673
 11
78.0030189055
 21
138.3282275673
  0
LINE
  5
31A
100
AcDbEntity
  8
0
100
AcDbLine
 62
7
  6
CONTINUOUS
 10
121.8491742084
 20
139.3199012865
 11
91.400822476
 21
139.3199012865
  0
LINE
  5
31B
100
AcDbEntity
  8
0
100
AcDbLine
 62
7
  6
CONTINUOUS
 10
78.0030189055
 20
147.8530103132
 11
89.7625183874
 21
144.8917210881
  0
LINE
  5
31C
100
AcDbEntity
  8
0
100
AcDbLine
 62
7
  6
CONTINUOUS
 10
121.8491742084
 20
146.8613365941
 11
132.4885425644
 21
149.5405532498
  0
LINE
  5
31D
100
AcDbEntity
  8
0
100
AcDbLine
 62
7
  6
CONTINUOUS
 10
91.400822476
 20
139.3199012865
 11
80.7614541199
 21
136.6406846307
  0
LINE
  5
31E
100
AcDbEntity
  8
0
100
AcDbLine
 62
7
  6
CONTINUOUS
 10
89.7625183874
 20
141.2895167925
 11
123.4874782969
 21
141.2895167925
  0
LINE
  5
31F
100
AcDbEntity
  8
0
100
AcDbLine
 62
7
  6
CONTINUOUS
 10
80.7614541199
 20
149.5405532498
 11
91.400822476
 21
146.8613365941
  0
LINE
  5
320
100
AcDbEntity
  8
0
100
AcDbLine
 62
7
  6
CONTINUOUS
 10
132.4885425644
 20
136.6406846307
 11
121.8491742084
 21
139.3199012865
  0
LINE
  5
321
100
AcDbEntity
  8
S-AXIS
100
AcDbLine
 62
7
  6
CENTER
 10
106.6249983422
 20
115.0906189403
 11
106.6249983422
 21
181.0906189403
  0
LINE
  5
322
100
AcDbEntity
  8
0
100
AcDbLine
 62
7
  6
CONTINUOUS
 10
89.7625183874
 20
141.2895167925
 11
78.0030189055
 21
138.3282275673
  0
LINE
  5
323
100
AcDbEntity
  8
0
100
AcDbLine
 62
7
  6
CONTINUOUS
 10
89.7625183874
 20
144.8917210881
 11
123.4874782969
 21
144.8917210881
  0
LINE
  5
324
100
AcDbEntity
  8
0
100
AcDbLine
 62
7
  6
CONTINUOUS
 10
91.400822476
 20
146.8613365941
 11
121.8491742084
 21
146.8613365941
  0
LINE
  5
325
100
AcDbEntity
  8
0
100
AcDbLine
 62
7
  6
CONTINUOUS
 10
136.8852818675
 20
147.8530103132
 11
135.2469777789
 21
147.8530103132
  0
LINE
  5
326
100
AcDbEntity
  8
0
100
AcDbLine
 62
7
  6
CONTINUOUS
 10
76.3647148169
 20
147.8530103132
 11
78.0030189055
 21
147.8530103132
  0
LINE
  5
327
100
AcDbEntity
  8
S-AXIS
100
AcDbLine
 62
7
  6
CENTER
 10
161.6249983422
 20
148.0906189403
 11
51.6249983422
 21
148.0906189403
  0
LINE
  5
328
100
AcDbEntity
  8
0
100
AcDbLine
 62
7
  6
CONTINUOUS
 10
135.2469777789
 20
138.3282275673
 11
123.4874782969
 21
141.2895167925
  0
LINE
  5
329
100
AcDbEntity
  8
0
100
AcDbLine
 62
7
  6
CONTINUOUS
 10
80.7614541199
 20
149.5405532498
 11
132.4885425644
 21
149.5405532498
  0
LINE
  5
32A
100
AcDbEntity
  8
0
100
AcDbLine
 62
7
  6
CONTINUOUS
 10
80.7614541199
 20
151.5101687559
 11
132.4885425644
 21
151.5101687559
  0
LINE
  5
32B
100
AcDbEntity
  8
0
100
AcDbLine
 62
7
  6
CONTINUOUS
 10
121.8491742084
 20
139.3199012865
 11
121.8491742084
 21
146.8613365941
  0
LINE
  5
32C
100
AcDbEntity
  8
AXIS
100
AcDbLine
 62
7
  6
CENTER
 10
146.6249983422
 20
162.0906189403
 11
135.1249983422
 21
162.0906189403
  0
LINE
  5
32D
100
AcDbEntity
  8
AXIS
100
AcDbLine
 62
7
  6
CENTER
 10
66.6249983422
 20
162.0906189403
 11
55.1249983422
 21
162.0906189403
  0
LINE
  5
32E
100
AcDbEntity
  8
AXIS
100
AcDbLine
 62
7
  6
CENTER
 10
66.6249983422
 20
162.0906189403
 11
78.1249983422
 21
162.0906189403
  0
LINE
  5
32F
100
AcDbEntity
  8
AXIS
100
AcDbLine
 62
7
  6
CENTER
 10
146.6249983422
 20
162.0906189403
 11
158.1249983422
 21
162.0906189403
  0
LINE
  5
330
100
AcDbEntity
  8
0
100
AcDbLine
 62
7
  6
CONTINUOUS
 10
123.4874782969
 20
144.8917210881
 11
123.4874782969
 21
141.2895167925
  0
LINE
  5
331
100
AcDbEntity
  8
AXIS
100
AcDbLine
 62
7
  6
CONTINUOUS
 10
57.6249983422
 20
167.0906189403
 11
56.6249983422
 21
167.0906189403
  0
LINE
  5
332
100
AcDbEntity
  8
AXIS
100
AcDbLine
 62
7
  6
CONTINUOUS
 10
155.6249983422
 20
167.0906189403
 11
156.6249983422
 21
167.0906189403
  0
LINE
  5
333
100
AcDbEntity
  8
0
100
AcDbLine
 62
7
  6
CONTINUOUS
 10
132.4885425641
 20
151.5101687559
 11
132.4885425644
 21
149.5405532498
  0
LINE
  5
334
100
AcDbEntity
  8
0
100
AcDbLine
 62
7
  6
CONTINUOUS
 10
132.4885425641
 20
134.6710691247
 11
132.4885425644
 21
136.6406846307
  0
LINE
  5
335
100
AcDbEntity
  8
AXIS
100
AcDbLine
 62
7
  6
CONTINUOUS
 10
147.6249983422
 20
175.0906189403
 11
65.6249983422
 21
175.0906189403
  0
LINE
  5
336
100
AcDbEntity
  8
CURVES
100
AcDbLine
 62
40
  6
CONTINUOUS
 10
147.6249983422
 20
175.0906189403
 11
65.6249983422
 21
175.0906189403
  0
LINE
  5
337
100
AcDbEntity
  8
0
100
AcDbLine
 62
7
  6
CONTINUOUS
 10
135.2469777789
 20
147.8530103132
 11
135.2469777789
 21
138.3282275673
  0
LINE
  5
338
100
AcDbEntity
  8
0
100
AcDbLine
 62
7
  6
CONTINUOUS
 10
136.8852818675
 20
147.8530103132
 11
136.8852818675
 21
138.3282275673
  0
LINE
  5
339
100
AcDbEntity
  8
AXIS
100
AcDbLine
 62
7
  6
CONTINUOUS
 10
147.6249983422
 20
176.0906189403
 11
65.6249983422
 21
176.0906189403
  0
LINE
  5
33A
100
AcDbEntity
  8
AXIS
100
AcDbLine
 62
7
  6
CENTER
 10
146.6249983422
 20
162.0906189403
 11
146.6249983422
 21
150.5906189403
  0
LINE
  5
33B
100
AcDbEntity
  8
AXIS
100
AcDbLine
 62
7
  6
CENTER
 10
146.6249983422
 20
129.0906189403
 11
146.6249983422
 21
117.5906189403
  0
LINE
  5
33C
100
AcDbEntity
  8
AXIS
100
AcDbLine
 62
7
  6
CENTER
 10
146.6249983422
 20
129.0906189403
 11
146.6249983422
 21
140.5906189403
  0
LINE
  5
33D
100
AcDbEntity
  8
AXIS
100
AcDbLine
 62
7
  6
CENTER
 10
146.6249983422
 20
162.0906189403
 11
146.6249983422
 21
173.5906189403
  0
LINE
  5
33E
100
AcDbEntity
  8
AXIS
100
AcDbLine
 62
7
  6
CONTINUOUS
 10
147.6249983422
 20
121.0906189403
 11
147.6249983422
 21
120.0906189403
  0
LINE
  5
33F
100
AcDbEntity
  8
AXIS
100
AcDbLine
 62
7
  6
CONTINUOUS
 10
147.6249983422
 20
175.0906189403
 11
147.6249983422
 21
176.0906189403
  0
LINE
  5
340
100
AcDbEntity
  8
AXIS
100
AcDbLine
 62
7
  6
CONTINUOUS
 10
155.6249983422
 20
129.0906189403
 11
155.6249983422
 21
167.0906189403
  0
LINE
  5
341
100
AcDbEntity
  8
CURVES
100
AcDbLine
 62
40
  6
CONTINUOUS
 10
155.6249983422
 20
129.0906189403
 11
155.6249983422
 21
167.0906189403
  0
LINE
  5
342
100
AcDbEntity
  8
AXIS
100
AcDbLine
 62
7
  6
CONTINUOUS
 10
156.6249983422
 20
129.0906189403
 11
156.6249983422
 21
167.0906189403
  0
LINE
  5
343
100
AcDbEntity
  8
AXIS
100
AcDbLine
 62
9
  6
CONTINUOUS
 10
102.3322005295
 20
63.0321381424
 11
101.6250966923
 21
62.1524860982
  0
LINE
  5
344
100
AcDbEntity
  8
AXIS
100
AcDbLine
 62
7
  6
CONTINUOUS
 10
128.494989515
 20
85.0141281209
 11
101.6250437009
 21
69.5008502738
  0
LINE
  5
345
100
AcDbEntity
  8
AXIS
100
AcDbLine
 62
7
  6
CONTINUOUS
 10
129.2020992402
 20
85.0772952567
 11
102.332153426
 21
69.5640174096
  0
LINE
  5
346
100
AcDbEntity
  8
CURVES
100
AcDbLine
 62
40
  6
CONTINUOUS
 10
129.2020992402
 20
85.0772952567
 11
102.332153426
 21
69.5640174096
  0
LINE
  5
347
100
AcDbEntity
  8
AXIS
100
AcDbLine
 62
7
  6
CONTINUOUS
 10
100.4578137628
 20
62.8215415779
 11
99.7731576297
 21
63.7054389537
  0
LINE
  5
348
100
AcDbEntity
  8
AXIS
100
AcDbLine
 62
9
  6
CONTINUOUS
 10
101.6250966923
 20
62.1524860982
 11
102.1554245702
 21
61.3980014604
  0
LINE
  5
349
100
AcDbEntity
  8
AXIS
100
AcDbLine
 62
7
  6
CONTINUOUS
 10
113.6459954821
 20
63.0322154376
 11
113.6459090284
 21
63.0321653372
  0
LINE
  5
34A
100
AcDbEntity
  8
AXIS
100
AcDbLine
 62
7
  6
CONTINUOUS
 10
136.9804221102
 20
76.5042725153
 11
136.9803356565
 21
76.504222415
  0
LINE
  5
34B
100
AcDbEntity
  8
0
100
AcDbLine
 62
9
  6
CONTINUOUS
 10
122.1151376987
 20
65.6849011342
 11
128.8501481269
 21
69.5733380071
  0
LINE
  5
34C
100
AcDbEntity
  8
0
100
AcDbLine
 62
9
  6
CONTINUOUS
 10
123.2735984525
 20
64.319726896
 11
130.0086088807
 21
68.208163769
  0
LINE
  5
34D
100
AcDbEntity
  8
AXIS
100
AcDbLine
 62
7
  6
CONTINUOUS
 10
102.1554245702
 20
61.3980014604
 11
160.1384220323
 21
27.9222595897
  0
LINE
  5
34E
100
AcDbEntity
  8
AXIS
100
AcDbLine
 62
7
  6
CONTINUOUS
 10
101.6250966923
 20
62.1524860982
 11
159.6080941544
 21
28.6767442276
  0
LINE
  5
34F
100
AcDbEntity
  8
0
100
AcDbLine
 62
7
  6
CONTINUOUS
 10
123.0966673645
 20
62.9275219769
 11
123.0962348727
 21
62.9282413363
  0
LINE
  5
350
100
AcDbEntity
  8
AXIS
100
AcDbLine
 62
7
  6
CONTINUOUS
 10
102.3322005295
 20
63.0321381424
 11
160.3151979916
 21
29.5563962718
  0
LINE
  5
351
100
AcDbEntity
  8
CURVES
100
AcDbLine
 62
40
  6
CONTINUOUS
 10
102.3322005295
 20
63.0321381424
 11
160.3151979916
 21
29.5563962718
  0
LINE
  5
352
100
AcDbEntity
  8
0
100
AcDbLine
 62
9
  6
CONTINUOUS
 10
124.7603785806
 20
61.848086086
 11
123.2735984525
 21
64.319726896
  0
LINE
  5
353
100
AcDbEntity
  8
0
100
AcDbLine
 62
9
  6
CONTINUOUS
 10
130.0086088807
 20
68.208163769
 11
133.6302512655
 21
56.7271785541
  0
LINE
  5
354
100
AcDbEntity
  8
0
100
AcDbLine
 62
9
  6
CONTINUOUS
 10
133.152393333
 20
67.1179028542
 11
137.053568245
 21
54.7507702869
  0
LINE
  5
355
100
AcDbEntity
  8
0
100
AcDbLine
 62
9
  6
CONTINUOUS
 10
159.2148513433
 20
41.279853794
 11
122.6381240507
 21
62.3969594097
  0
LINE
  5
356
100
AcDbEntity
  8
0
100
AcDbLine
 62
7
  6
CONTINUOUS
 10
160.2148343507
 20
41.3789095779
 11
123.6381070839
 21
62.4960151787
  0
LWPOLYLINE
  5
357
100
AcDbEntity
  8
0
100
AcDbPolyline
 62
7
  6
CONTINUOUS
 90
9
 70
0
 10
123.6380696095
 20
62.4960428079
 10
123.5356694279
 20
62.5576306081
 10
123.3899336467
 20
62.6554327191
 10
123.2779609499
 20
62.7417741118
 10
123.1962581058
 20
62.8143251884
 10
123.1413503248
 20
62.8708041988
 10
123.1097346235
 20
62.9088325317
 10
123.097275155
 20
62.9265266001
 10
123.0966997914
 20
62.9274667035
  0
LINE
  5
358
100
AcDbEntity
  8
AXIS
100
AcDbLine
 62
9
  6
CONTINUOUS
 10
159.6080941544
 20
28.6767442276
 11
160.1384220323
 21
27.9222595897
  0
LINE
  5
359
100
AcDbEntity
  8
AXIS
100
AcDbLine
 62
9
  6
CONTINUOUS
 10
198.4988052011
 20
51.6015805808
 11
199.2059090383
 21
51.5384168444
  0
LINE
  5
35A
100
AcDbEntity
  8
AXIS
100
AcDbLine
 62
9
  6
CONTINUOUS
 10
171.6289064905
 20
29.5564234666
 11
172.3360162156
 21
28.6767748217
  0
LINE
  5
35B
100
AcDbEntity
  8
0
100
AcDbLine
 62
9
  6
CONTINUOUS
 10
133.152393333
 20
67.1179028542
 11
169.7291206256
 21
46.0007972385
  0
LINE
  5
35C
100
AcDbEntity
  8
0
100
AcDbLine
 62
9
  6
CONTINUOUS
 10
134.5451160152
 20
69.2714233906
 11
171.1218433078
 21
48.1543177749
  0
LINE
  5
35D
100
AcDbEntity
  8
0
100
AcDbLine
 62
7
  6
CONTINUOUS
 10
170.6448341521
 20
44.9654246173
 11
163.9098237085
 21
41.0769877355
  0
LWPOLYLINE
  5
35E
100
AcDbEntity
  8
0
100
AcDbPolyline
 62
7
  6
CONTINUOUS
 90
19
 70
0
 10
163.909561547
 20
41.0768364434
 10
163.8725129044
 20
41.0563162582
 10
163.7691048941
 20
41.0064416198
 10
163.6420812616
 20
40.9562465888
 10
163.4925105605
 20
40.9086868528
 10
163.3222799434
 20
40.8663983925
 10
163.1326449104
 20
40.8313902621
 10
162.9256360465
 20
40.8055082994
 10
162.7020859078
 20
40.7902208258
 10
162.4633891416
 20
40.7869985799
 10
162.2104101933
 20
40.7972919155
 10
161.9433925714
 20
40.8227602925
 10
161.6675698123
 20
40.8645249066
 10
161.3863194896
 20
40.9234703467
 10
161.1074461033
 20
40.9989679569
 10
160.8372571168
 20
41.0896318397
 10
160.5815932794
 20
41.1932780508
 10
160.3465538176
 20
41.3065104189
 10
160.2151382172
 20
41.3787401081
  0
LINE
  5
35F
100
AcDbEntity
  8
AXIS
100
AcDbLine
 62
9
  6
CONTINUOUS
 10
102.332153426
 20
69.5640174096
 11
101.6250437009
 21
69.5008502738
  0
LINE
  5
360
100
AcDbEntity
  8
AXIS
100
AcDbLine
 62
7
  6
CONTINUOUS
 10
198.4988052011
 20
51.6015805808
 11
140.5158077391
 21
85.0773224515
  0
LINE
  5
361
100
AcDbEntity
  8
CURVES
100
AcDbLine
 62
40
  6
CONTINUOUS
 10
198.4988052011
 20
51.6015805808
 11
140.5158077391
 21
85.0773224515
  0
LINE
  5
362
100
AcDbEntity
  8
AXIS
100
AcDbLine
 62
7
  6
CONTINUOUS
 10
199.2059090383
 20
51.5384168444
 11
141.2229115763
 21
85.014158715
  0
LINE
  5
363
100
AcDbEntity
  8
0
100
AcDbLine
 62
9
  6
CONTINUOUS
 10
165.7689677768
 20
42.1503586567
 11
169.7291206256
 21
46.0007972385
  0
LINE
  5
364
100
AcDbEntity
  8
0
100
AcDbLine
 62
7
  6
CONTINUOUS
 10
170.7514024958
 20
45.0388573526
 11
170.7515269151
 21
45.0389783031
  0
LINE
  5
365
100
AcDbEntity
  8
0
100
AcDbLine
 62
7
  6
CONTINUOUS
 10
170.75137298
 20
45.0388286728
 11
170.7511236733
 21
45.0385899322
  0
LWPOLYLINE
  5
366
100
AcDbEntity
  8
0
100
AcDbPolyline
 62
7
  6
CONTINUOUS
 90
5
 70
0
 10
170.7511236733
 20
45.0385899322
 10
170.7478667824
 20
45.0356184615
 10
170.7298721754
 20
45.0209746744
 10
170.6967104704
 20
44.9974603602
 10
170.6451345484
 20
44.9655980905
  0
LINE
  5
367
100
AcDbEntity
  8
0
100
AcDbLine
 62
9
  6
CONTINUOUS
 10
171.6448296598
 20
44.8663760504
 11
164.9098192315
 21
40.9779391775
  0
LINE
  5
368
100
AcDbEntity
  8
AXIS
100
AcDbLine
 62
9
  6
CONTINUOUS
 10
160.3151979916
 20
29.5563962718
 11
159.6080941544
 21
28.6767442276
  0
LINE
  5
369
100
AcDbEntity
  8
AXIS
100
AcDbLine
 62
9
  6
CONTINUOUS
 10
140.5158077391
 20
85.0773224515
 11
141.2229115763
 21
85.014158715
  0
LINE
  5
36A
100
AcDbEntity
  8
AXIS
100
AcDbLine
 62
9
  6
CONTINUOUS
 10
129.2020992402
 20
85.0772952567
 11
128.494989515
 21
85.0141281209
  0
LINE
  5
36B
100
AcDbEntity
  8
AXIS
100
AcDbLine
 62
9
  6
CONTINUOUS
 10
198.4988523046
 20
45.0697013137
 11
199.2059620297
 21
44.1900526688
  0
LINE
  5
36C
100
AcDbEntity
  8
AXIS
100
AcDbLine
 62
9
  6
CONTINUOUS
 10
172.3360162156
 20
28.6767748217
 11
171.8056839217
 21
27.9222876344
  0
LINE
  5
36D
100
AcDbEntity
  8
AXIS
100
AcDbLine
 62
7
  6
CONTINUOUS
 10
170.2146870402
 20
30.3729049756
 11
170.2147734939
 21
30.3729550759
  0
LINE
  5
36E
100
AcDbEntity
  8
AXIS
100
AcDbLine
 62
7
  6
CONTINUOUS
 10
193.5491136682
 20
43.8449620534
 11
193.5492001219
 21
43.8450121537
  0
LINE
  5
36F
100
AcDbEntity
  8
AXIS
100
AcDbLine
 62
7
  6
CONTINUOUS
 10
171.6289064905
 20
29.5564234666
 11
198.4988523046
 21
45.0697013137
  0
LINE
  5
370
100
AcDbEntity
  8
CURVES
100
AcDbLine
 62
40
  6
CONTINUOUS
 10
171.6289064905
 20
29.5564234666
 11
198.4988523046
 21
45.0697013137
  0
LINE
  5
371
100
AcDbEntity
  8
AXIS
100
AcDbLine
 62
7
  6
CONTINUOUS
 10
172.3360162156
 20
28.6767748217
 11
199.2059620297
 21
44.1900526688
  0
LINE
  5
372
100
AcDbEntity
  8
AXIS
100
AcDbLine
 62
7
  6
CONTINUOUS
 10
171.8056839217
 20
27.9222876344
 11
198.6756297359
 21
43.4355654815
  0
LINE
  5
373
100
AcDbEntity
  8
AXIS
100
AcDbLine
 62
9
  6
CONTINUOUS
 10
199.2059620297
 20
44.1900526688
 11
198.6756297359
 21
43.4355654815
  0
LINE
  5
374
100
AcDbEntity
  8
AXIS
100
AcDbLine
 62
7
  6
CONTINUOUS
 10
200.3731919678
 20
44.8590775544
 11
201.0578481009
 21
45.7429749301
  0
LINE
  5
375
100
AcDbEntity
  8
AXIS
100
AcDbLine
 62
9
  6
CONTINUOUS
 10
65.6249983422
 20
244.2377927762
 11
65.6249983422
 21
242.3614044014
  0
LINE
  5
376
100
AcDbEntity
  8
AXIS
100
AcDbLine
 62
7
  6
CENTER
 10
66.6249983422
 20
235.2377927762
 11
66.6249983422
 21
247.7377927762
  0
LINE
  5
377
100
AcDbEntity
  8
AXIS
100
AcDbLine
 62
7
  6
CONTINUOUS
 10
56.6249983422
 20
243.660442507
 11
57.3749983422
 21
242.3614044014
  0
LWPOLYLINE
  5
378
100
AcDbEntity
  8
0
100
AcDbPolyline
 62
9
  6
CONTINUOUS
 90
13
 70
0
 10
76.9235833359
 20
242.3113692126
 10
76.9265351191
 20
242.3191349222
 10
76.9490997108
 20
242.3228197026
 10
76.9909247073
 20
242.322585081
 10
77.0522888684
 20
242.3181951542
 10
77.1334012626
 20
242.3097522096
 10
77.2348092456
 20
242.2969691617
 10
77.3571964365
 20
242.2797416021
 10
77.5006841503
 20
242.2580056887
 10
77.6653030442
 20
242.2316027816
 10
77.8514471621
 20
242.2004420439
 10
78.0594310061
 20
242.1643077269
 10
78.2890315691
 20
242.1232952886
  0
LINE
  5
379
100
AcDbEntity
  8
AXIS
100
AcDbLine
 62
7
  6
CONTINUOUS
 10
57.6249983422
 20
244.2377927762
 11
56.6249983422
 21
243.660442507
  0
LINE
  5
37A
100
AcDbEntity
  8
0
100
AcDbLine
 62
9
  6
CONTINUOUS
 10
79.4019857689
 20
241.9114409539
 11
79.401985769
 21
242.3614044014
  0
LINE
  5
37B
100
AcDbEntity
  8
AXIS
100
AcDbLine
 62
7
  6
CONTINUOUS
 10
72.7486099673
 20
242.3614044014
 11
70.6249983422
 21
240.2377927762
  0
LINE
  5
37C
100
AcDbEntity
  8
AXIS
100
AcDbLine
 62
7
  6
CONTINUOUS
 10
60.501386717
 20
242.3614044014
 11
62.6249983422
 21
240.2377927762
  0
LWPOLYLINE
  5
37D
100
AcDbEntity
  8
0
100
AcDbPolyline
 62
9
  6
CONTINUOUS
 90
13
 70
0
 10
88.9816678116
 20
225.0906399035
 10
89.0140147551
 20
225.0706101774
 10
89.0704646839
 20
225.068098095
 10
89.15017037
 20
225.0831413588
 10
89.2519355518
 20
225.1155141922
 10
89.3742328879
 20
225.164730728
 10
89.5152268806
 20
225.2300523004
 10
89.6728014233
 20
225.3104985317
 10
89.8445915609
 20
225.4048620457
 10
90.0280189835
 20
225.5117265888
 10
90.2203307231
 20
225.6294882862
 10
90.4186404716
 20
225.7563797129
 10
90.6199719002
 20
225.8904964209
  0
LINE
  5
37E
100
AcDbEntity
  8
0
100
AcDbLine
 62
7
  6
CONTINUOUS
 10
88.9816678116
 20
225.0906399035
 11
76.9235833359
 21
242.3113692126
  0
LINE
  5
37F
100
AcDbEntity
  8
0
100
AcDbLine
 62
9
  6
CONTINUOUS
 10
90.6199719002
 20
225.8904964209
 11
79.4019857689
 21
241.9114409539
  0
LINE
  5
380
100
AcDbEntity
  8
0
100
AcDbLine
 62
9
  6
CONTINUOUS
 10
90.6199719002
 20
224.2377927762
 11
90.6199719002
 21
225.8904964209
  0
LINE
  5
381
100
AcDbEntity
  8
0
100
AcDbLine
 62
7
  6
CONTINUOUS
 10
122.6300247842
 20
224.2377927762
 11
90.6199719002
 21
224.2377927762
  0
LINE
  5
382
100
AcDbEntity
  8
0
100
AcDbLine
 62
9
  6
CONTINUOUS
 10
122.6300247842
 20
225.8904964209
 11
90.6199719002
 21
225.8904964209
  0
LINE
  5
383
100
AcDbEntity
  8
S-AXIS
100
AcDbLine
 62
7
  6
CENTER
 10
106.6249983422
 20
219.2377927762
 11
106.6249983422
 21
249.2378139059
  0
LINE
  5
384
100
AcDbEntity
  8
0
100
AcDbLine
 62
9
  6
CONTINUOUS
 10
133.8480109154
 20
241.9114409539
 11
134.150850677
 21
241.9713749527
  0
LWPOLYLINE
  5
385
100
AcDbEntity
  8
0
100
AcDbPolyline
 62
9
  6
CONTINUOUS
 90
15
 70
0
 10
134.150850677
 20
241.9713749527
 10
134.709347708
 20
242.0769716994
 10
134.9609651126
 20
242.1232953571
 10
135.1905656756
 20
242.1643077527
 10
135.3985495188
 20
242.2004420142
 10
135.5846936391
 20
242.2316027674
 10
135.7493125371
 20
242.2580056989
 10
135.89280025
 20
242.2797416089
 10
136.015187438
 20
242.2969691601
 10
136.1165954183
 20
242.3097522037
 10
136.1977078117
 20
242.3181951476
 10
136.2590719793
 20
242.3225850838
 10
136.3008969816
 20
242.3228197141
 10
136.3234615719
 20
242.3191349316
 10
136.3264133484
 20
242.3113692126
  0
LWPOLYLINE
  5
386
100
AcDbEntity
  8
0
100
AcDbPolyline
 62
9
  6
CONTINUOUS
 90
4
 70
0
 10
78.2890315691
 20
242.1232952886
 10
78.8116176383
 20
242.0261502124
 10
79.0991460207
 20
241.9713750438
 10
79.4019857689
 20
241.9114409539
  0
LINE
  5
387
100
AcDbEntity
  8
0
100
AcDbLine
 62
7
  6
CONTINUOUS
 10
150.6249983422
 20
240.2377927762
 11
142.6249983422
 21
240.2377927762
  0
LINE
  5
388
100
AcDbEntity
  8
AXIS
100
AcDbLine
 62
7
  6
CONTINUOUS
 10
62.6249983422
 20
240.2377927762
 11
70.6249983422
 21
240.2377927762
  0
LINE
  5
389
100
AcDbEntity
  8
0
100
AcDbLine
 62
2
  6
CONTINUOUS
 10
131.8698040926
 20
244.2377927762
 11
131.4129340544
 21
243.822338726
  0
LINE
  5
38A
100
AcDbEntity
  8
0
100
AcDbLine
 62
9
  6
CONTINUOUS
 10
79.4019857689
 20
241.9114409539
 11
133.8480109154
 21
241.9114409539
  0
LINE
  5
38B
100
AcDbEntity
  8
AXIS
100
AcDbLine
 62
7
  6
CONTINUOUS
 10
155.8749983422
 20
242.3614044014
 11
152.7486099673
 21
242.3614044014
  0
LINE
  5
38C
100
AcDbEntity
  8
AXIS
100
AcDbLine
 62
7
  6
CONTINUOUS
 10
140.501386717
 20
242.3614044014
 11
136.3677813812
 21
242.3614044014
  0
LINE
  5
38D
100
AcDbEntity
  8
AXIS
100
AcDbLine
 62
7
  6
CONTINUOUS
 10
57.3749983422
 20
242.3614044014
 11
130.5445277052
 21
242.3614044014
  0
LINE
  5
38E
100
AcDbEntity
  8
0
100
AcDbLine
 62
7
  6
CONTINUOUS
 10
130.7682599079
 20
242.7377927762
 11
140.1249983422
 21
242.7377927762
  0
LINE
  5
38F
100
AcDbEntity
  8
0
100
AcDbLine
 62
7
  6
CONTINUOUS
 10
153.1249983422
 20
242.7377927762
 11
155.2230745535
 21
242.7377927762
  0
LINE
  5
390
100
AcDbEntity
  8
AXIS
100
AcDbLine
 62
7
  6
CONTINUOUS
 10
56.6249983422
 20
243.660442507
 11
131.3166999513
 21
243.660442507
  0
LINE
  5
391
100
AcDbEntity
  8
0
100
AcDbLine
 62
7
  6
CONTINUOUS
 10
155.6249983422
 20
244.2377927762
 11
131.8698040926
 21
244.2377927762
  0
LINE
  5
392
100
AcDbEntity
  8
AXIS
100
AcDbLine
 62
7
  6
CONTINUOUS
 10
57.6249983422
 20
244.2377927762
 11
131.8698040926
 21
244.2377927762
  0
LINE
  5
393
100
AcDbEntity
  8
CURVES
100
AcDbLine
 62
40
  6
CONTINUOUS
 10
57.6249983422
 20
244.2377927762
 11
131.8698040926
 21
244.2377927762
  0
LINE
  5
394
100
AcDbEntity
  8
CURVES
100
AcDbLine
 62
40
  6
CONTINUOUS
 10
147.6249983422
 20
244.2377927762
 11
155.6249983422
 21
244.2377927762
  0
LINE
  5
395
100
AcDbEntity
  8
0
100
AcDbLine
 62
9
  6
CONTINUOUS
 10
122.6300247842
 20
224.2377927762
 11
122.6300247842
 21
225.8904964209
  0
LINE
  5
396
100
AcDbEntity
  8
0
100
AcDbLine
 62
2
  6
CONTINUOUS
 10
131.4129340544
 20
243.822338726
 11
130.5445277052
 21
242.3614044014
  0
LWPOLYLINE
  5
397
100
AcDbEntity
  8
0
100
AcDbPolyline
 62
9
  6
CONTINUOUS
 90
13
 70
0
 10
124.2683288728
 20
225.0906399035
 10
124.2360563158
 20
225.0706290941
 10
124.179709051
 20
225.068081852
 10
124.100061176
 20
225.083080031
 10
123.9983077351
 20
225.1154244178
 10
123.8760291778
 20
225.1646152968
 10
123.7350390457
 20
225.2299208619
 10
123.5774434549
 20
225.3103668105
 10
123.4056160863
 20
225.404742541
 10
123.2221462172
 20
225.5116258478
 10
123.0297845623
 20
225.6294140053
 10
122.8314175487
 20
225.7563396543
 10
122.6300247842
 20
225.8904964209
  0
LINE
  5
398
100
AcDbEntity
  8
0
100
AcDbLine
 62
9
  6
CONTINUOUS
 10
133.8480109154
 20
241.9114409539
 11
130.7819858338
 21
237.5327033449
  0
LINE
  5
399
100
AcDbEntity
  8
0
100
AcDbLine
 62
9
  6
CONTINUOUS
 10
130.7819858338
 20
237.5327033449
 11
122.6300247842
 21
225.8904964209
  0
LINE
  5
39A
100
AcDbEntity
  8
0
100
AcDbLine
 62
7
  6
CONTINUOUS
 10
136.3264133484
 20
242.3113692126
 11
131.7870446889
 21
235.8284789096
  0
LINE
  5
39B
100
AcDbEntity
  8
0
100
AcDbLine
 62
7
  6
CONTINUOUS
 10
131.7870446889
 20
235.8284789096
 11
124.2683288728
 21
225.0906399035
  0
LINE
  5
39C
100
AcDbEntity
  8
0
100
AcDbLine
 62
9
  6
CONTINUOUS
 10
133.8480109154
 20
241.9114409539
 11
133.8480109154
 21
242.7377927762
  0
LINE
  5
39D
100
AcDbEntity
  8
0
100
AcDbLine
 62
7
  6
CONTINUOUS
 10
149.6249983422
 20
240.2377927762
 11
153.6249983422
 21
244.2377927762
  0
LINE
  5
39E
100
AcDbEntity
  8
0
100
AcDbLine
 62
7
  6
CONTINUOUS
 10
150.6249983422
 20
240.2377927762
 11
153.1249983422
 21
242.7377927762
  0
LINE
  5
39F
100
AcDbEntity
  8
0
100
AcDbLine
 62
7
  6
CONTINUOUS
 10
142.6249983422
 20
240.2377927762
 11
140.1249983422
 21
242.7377927762
  0
LINE
  5
3A0
100
AcDbEntity
  8
0
100
AcDbLine
 62
7
  6
CONTINUOUS
 10
143.6249983422
 20
240.2377927762
 11
139.6249983422
 21
244.2377927762
  0
LINE
  5
3A1
100
AcDbEntity
  8
0
100
AcDbLine
 62
7
  6
CONTINUOUS
 10
155.8749983422
 20
242.3614044014
 11
155.2230745535
 21
242.7377927762
  0
LINE
  5
3A2
100
AcDbEntity
  8
0
100
AcDbLine
 62
7
  6
CONTINUOUS
 10
156.6249983422
 20
243.660442507
 11
155.6249983422
 21
244.2377927762
  0
LINE
  5
3A3
100
AcDbEntity
  8
AXIS
100
AcDbLine
 62
7
  6
CENTER
 10
146.6249983422
 20
235.2377927762
 11
146.6249983422
 21
247.7377927762
  0
LINE
  5
3A4
100
AcDbEntity
  8
0
100
AcDbLine
 62
7
  6
CONTINUOUS
 10
155.8749983422
 20
242.3614044014
 11
156.6249983422
 21
243.660442507
  0
ARC
  5
3A5
100
AcDbEntity
  8
AXIS
100
AcDbCircle
 62
7
  6
CONTINUOUS
 10
65.6249983422
 20
129.0906189403
 40
9.0
100
AcDbArc
 50
180.0
 51
270.0
  0
ARC
  5
3A6
100
AcDbEntity
  8
AXIS
100
AcDbCircle
 62
7
  6
CONTINUOUS
 10
147.6249983422
 20
129.0906189403
 40
9.0
100
AcDbArc
 50
270.0
 51
360.0
  0
ARC
  5
3A7
100
AcDbEntity
  8
AXIS
100
AcDbCircle
 62
7
  6
CONTINUOUS
 10
147.6249983422
 20
167.0906189403
 40
9.0
100
AcDbArc
 50
0.0
 51
90.0
  0
ARC
  5
3A8
100
AcDbEntity
  8
AXIS
100
AcDbCircle
 62
7
  6
CONTINUOUS
 10
65.6249983422
 20
167.0906189403
 40
9.0
100
AcDbArc
 50
90.0
 51
180.0
  0
ARC
  5
3A9
100
AcDbEntity
  8
AXIS
100
AcDbCircle
 62
7
  6
CONTINUOUS
 10
147.6249983422
 20
129.0906189403
 40
8.0
100
AcDbArc
 50
270.0
 51
360.0
  0
ARC
  5
3AA
100
AcDbEntity
  8
AXIS
100
AcDbCircle
 62
7
  6
CONTINUOUS
 10
147.6249983422
 20
167.0906189403
 40
8.0
100
AcDbArc
 50
0.0
 51
90.0
  0
ARC
  5
3AB
100
AcDbEntity
  8
AXIS
100
AcDbCircle
 62
7
  6
CONTINUOUS
 10
65.6249983422
 20
129.0906189403
 40
8.0
100
AcDbArc
 50
180.0
 51
270.0
  0
ARC
  5
3AC
100
AcDbEntity
  8
AXIS
100
AcDbCircle
 62
7
  6
CONTINUOUS
 10
65.6249983422
 20
167.0906189403
 40
8.0
100
AcDbArc
 50
90.0
 51
180.0
  0
ARC
  5
3AD
100
AcDbEntity
  8
CURVES
100
AcDbCircle
 62
40
  6
CONTINUOUS
 10
65.6249983422
 20
129.0906189403
 40
8.0
100
AcDbArc
 50
180.0
 51
270.0
  0
ARC
  5
3AE
100
AcDbEntity
  8
CURVES
100
AcDbCircle
 62
40
  6
CONTINUOUS
 10
65.6249983422
 20
167.0906189403
 40
8.0
100
AcDbArc
 50
90.0
 51
180.0
  0
ARC
  5
3AF
100
AcDbEntity
  8
CURVES
100
AcDbCircle
 62
40
  6
CONTINUOUS
 10
147.6249983422
 20
167.0906189403
 40
8.0
100
AcDbArc
 50
0.0
 51
90.0
  0
ARC
  5
3B0
100
AcDbEntity
  8
CURVES
100
AcDbCircle
 62
40
  6
CONTINUOUS
 10
147.6249983422
 20
129.0906189403
 40
8.0
100
AcDbArc
 50
270.0
 51
360.0
  0
CIRCLE
  5
3B1
100
AcDbEntity
  8
AXIS
100
AcDbCircle
 62
7
  6
CONTINUOUS
 10
66.6249983422
 20
129.0906189403
 40
7.0
  0
CIRCLE
  5
3B2
100
AcDbEntity
  8
AXIS
100
AcDbCircle
 62
7
  6
CONTINUOUS
 10
66.6249983422
 20
162.0906189403
 40
7.0
  0
CIRCLE
  5
3B3
100
AcDbEntity
  8
AXIS
100
AcDbCircle
 62
7
  6
CONTINUOUS
 10
146.6249983422
 20
129.0906189403
 40
7.0
  0
CIRCLE
  5
3B4
100
AcDbEntity
  8
AXIS
100
AcDbCircle
 62
7
  6
CONTINUOUS
 10
146.6249983422
 20
162.0906189403
 40
7.0
  0
CIRCLE
  5
3B5
100
AcDbEntity
  8
AXIS
100
AcDbCircle
 62
7
  6
CONTINUOUS
 10
146.6249983422
 20
162.0906189403
 40
3.0
  0
CIRCLE
  5
3B6
100
AcDbEntity
  8
AXIS
100
AcDbCircle
 62
7
  6
CONTINUOUS
 10
146.6249983422
 20
129.0906189403
 40
3.0
  0
CIRCLE
  5
3B7
100
AcDbEntity
  8
AXIS
100
AcDbCircle
 62
7
  6
CONTINUOUS
 10
66.6249983422
 20
162.0906189403
 40
3.0
  0
CIRCLE
  5
3B8
100
AcDbEntity
  8
AXIS
100
AcDbCircle
 62
7
  6
CONTINUOUS
 10
66.6249983422
 20
129.0906189403
 40
3.0
  0
ARC
  5
3B9
100
AcDbEntity
  8
0
100
AcDbCircle
 62
7
  6
CONTINUOUS
 10
90.6199719002
 20
226.2377927762
 40
2.0
100
AcDbArc
 50
215.0
 51
270.0
  0
ARC
  5
3BA
100
AcDbEntity
  8
0
100
AcDbCircle
 62
7
  6
CONTINUOUS
 10
122.6300247842
 20
226.2377927762
 40
2.0
100
AcDbArc
 50
270.0
 51
325.0
  0
ARC
  5
3BB
100
AcDbEntity
  8
0
100
AcDbCircle
 62
7
  6
CONTINUOUS
 10
137.1455140416
 20
241.7377927762
 40
0.9999859786
100
AcDbArc
 50
90.0
 51
144.9983123365
  0
ARC
  5
3BC
100
AcDbEntity
  8
0
100
AcDbCircle
 62
7
  6
CONTINUOUS
 10
76.1044826427
 20
241.7377927762
 40
0.9999859786
100
AcDbArc
 50
35.0016876635
 51
38.7255430664
  0
SPLINE
  5
3BD
100
AcDbEntity
  8
0
100
AcDbSpline
 62
7
  6
CONTINUOUS
 70
0
 71
3
 72
13
 73
9
 74
0
 42
0.0000001
 43
0.0000001
 44
0.0000000001
 40
0.0
 40
0.0
 40
0.0
 40
0.0
 40
0.1286357677
 40
0.2570085432
 40
0.383848615
 40
0.5090237756
 40
0.7554846481
 40
1.0
 40
1.0
 40
1.0
 40
1.0
 10
135.2469777789
 20
138.3282275673
 30
0.0
 10
135.2592120615
 20
138.1724851226
 30
0.0
 10
135.2271533759
 20
137.8527034546
 30
0.0
 10
134.9989123734
 20
137.4339524309
 30
0.0
 10
134.6540949314
 20
137.1173686776
 30
0.0
 10
134.1206516907
 20
136.8230192804
 30
0.0
 10
133.3844906704
 20
136.637902765
 30
0.0
 10
132.784923293
 20
136.622263106
 30
0.0
 10
132.4885425644
 20
136.6406846307
 30
0.0
  0
SPLINE
  5
3BE
100
AcDbEntity
  8
0
100
AcDbSpline
 62
7
  6
CONTINUOUS
 70
0
 71
3
 72
11
 73
7
 74
0
 42
0.0000001
 43
0.0000001
 44
0.0000000001
 40
0.0
 40
0.0
 40
0.0
 40
0.0
 40
0.2661110417
 40
0.5267775021
 40
0.7723427779
 40
1.0
 40
1.0
 40
1.0
 40
1.0
 10
123.4874782969
 20
141.2895167925
 30
0.0
 10
123.4673496288
 20
141.0465536208
 30
0.0
 10
123.3543461286
 20
140.568769634
 30
0.0
 10
122.992052059
 20
139.9485690989
 30
0.0
 10
122.4780270751
 20
139.4954953839
 30
0.0
 10
122.0562612335
 20
139.3446984131
 30
0.0
 10
121.8491742084
 20
139.3199012865
 30
0.0
  0
SPLINE
  5
3BF
100
AcDbEntity
  8
0
100
AcDbSpline
 62
7
  6
CONTINUOUS
 70
0
 71
3
 72
13
 73
9
 74
0
 42
0.0000001
 43
0.0000001
 44
0.0000000001
 40
0.0
 40
0.0
 40
0.0
 40
0.0
 40
0.1286357679
 40
0.2570085435
 40
0.3838486154
 40
0.5090237757
 40
0.7554846506
 40
1.0
 40
1.0
 40
1.0
 40
1.0
 10
135.2469777789
 20
147.8530103132
 30
0.0
 10
135.2592120478
 20
148.0087527594
 30
0.0
 10
135.2271533871
 20
148.3285344277
 30
0.0
 10
134.9989123685
 20
148.7472854487
 30
0.0
 10
134.6540949338
 20
149.0638692069
 30
0.0
 10
134.1206516847
 20
149.3582185973
 30
0.0
 10
133.3844906698
 20
149.5433351236
 30
0.0
 10
132.7849232897
 20
149.5589747831
 30
0.0
 10
132.4885425644
 20
149.5405532498
 30
0.0
  0
SPLINE
  5
3C0
100
AcDbEntity
  8
0
100
AcDbSpline
 62
7
  6
CONTINUOUS
 70
0
 71
3
 72
11
 73
7
 74
0
 42
0.0000001
 43
0.0000001
 44
0.0000000001
 40
0.0
 40
0.0
 40
0.0
 40
0.0
 40
0.2661098283
 40
0.526776744
 40
0.7723424081
 40
1.0
 40
1.0
 40
1.0
 40
1.0
 10
123.4874782969
 20
144.8917210881
 30
0.0
 10
123.4673497209
 20
145.1346831476
 30
0.0
 10
123.3543464559
 20
145.612466345
 30
0.0
 10
122.9920535836
 20
146.2326671847
 30
0.0
 10
122.4780280554
 20
146.6857420674
 30
0.0
 10
122.0562615661
 20
146.8365394276
 30
0.0
 10
121.8491742084
 20
146.8613365941
 30
0.0
  0
SPLINE
  5
3C1
100
AcDbEntity
  8
0
100
AcDbSpline
 62
7
  6
CONTINUOUS
 70
0
 71
3
 72
13
 73
9
 74
0
 42
0.0000001
 43
0.0000001
 44
0.0000000001
 40
0.0
 40
0.0
 40
0.0
 40
0.0
 40
0.1286357677
 40
0.2570085432
 40
0.383848615
 40
0.5090237756
 40
0.7554846481
 40
1.0
 40
1.0
 40
1.0
 40
1.0
 10
78.0030189055
 20
147.8530103132
 30
0.0
 10
77.9907846228
 20
148.0087527579
 30
0.0
 10
78.0228433085
 20
148.3285344259
 30
0.0
 10
78.251084311
 20
148.7472854497
 30
0.0
 10
78.5959017529
 20
149.063869203
 30
0.0
 10
79.1293449936
 20
149.3582186002
 30
0.0
 10
79.8655060139
 20
149.5433351155
 30
0.0
 10
80.4650733914
 20
149.5589747745
 30
0.0
 10
80.76145412
 20
149.5405532498
 30
0.0
  0
SPLINE
  5
3C2
100
AcDbEntity
  8
0
100
AcDbSpline
 62
7
  6
CONTINUOUS
 70
0
 71
3
 72
11
 73
7
 74
0
 42
0.0000001
 43
0.0000001
 44
0.0000000001
 40
0.0
 40
0.0
 40
0.0
 40
0.0
 40
0.2661098283
 40
0.526776744
 40
0.7723424081
 40
1.0
 40
1.0
 40
1.0
 40
1.0
 10
89.7625183874
 20
144.8917210881
 30
0.0
 10
89.7826469634
 20
145.1346831476
 30
0.0
 10
89.8956502284
 20
145.612466345
 30
0.0
 10
90.2579431007
 20
146.2326671847
 30
0.0
 10
90.771968629
 20
146.6857420674
 30
0.0
 10
91.1937351182
 20
146.8365394276
 30
0.0
 10
91.400822476
 20
146.8613365941
 30
0.0
  0
SPLINE
  5
3C3
100
AcDbEntity
  8
0
100
AcDbSpline
 62
7
  6
CONTINUOUS
 70
0
 71
3
 72
14
 73
10
 74
0
 42
0.0000001
 43
0.0000001
 44
0.0000000001
 40
0.0
 40
0.0
 40
0.0
 40
0.0
 40
0.2497322574
 40
0.3748929392
 40
0.5000134767
 40
0.6250849053
 40
0.7500991272
 40
0.8750608281
 40
1.0
 40
1.0
 40
1.0
 40
1.0
 10
132.4885425644
 20
134.6710691247
 30
0.0
 10
133.0172272714
 20
134.6710637381
 30
0.0
 10
133.8185125141
 20
134.7803860077
 30
0.0
 10
134.8081651269
 20
135.1666460944
 30
0.0
 10
135.4907030704
 20
135.5828238749
 30
0.0
 10
136.0787901273
 20
136.1252444017
 30
0.0
 10
136.5346790608
 20
136.7840550912
 30
0.0
 10
136.8216024115
 20
137.5322899945
 30
0.0
 10
136.8852769048
 20
138.063730581
 30
0.0
 10
136.8852818675
 20
138.3282275673
 30
0.0
  0
SPLINE
  5
3C4
100
AcDbEntity
  8
0
100
AcDbSpline
 62
7
  6
CONTINUOUS
 70
0
 71
3
 72
14
 73
10
 74
0
 42
0.0000001
 43
0.0000001
 44
0.0000000001
 40
0.0
 40
0.0
 40
0.0
 40
0.0
 40
0.1249391723
 40
0.2499008737
 40
0.374915096
 40
0.4999865247
 40
0.6251070636
 40
0.7502677449
 40
1.0
 40
1.0
 40
1.0
 40
1.0
 10
136.8852818675
 20
147.8530103132
 30
0.0
 10
136.8852769218
 20
148.1175073
 30
0.0
 10
136.8216024044
 20
148.6489478879
 30
0.0
 10
136.5346790609
 20
149.3971827907
 30
0.0
 10
136.0787901268
 20
150.0559934853
 30
0.0
 10
135.490703054
 20
150.5984139934
 30
0.0
 10
134.808165149
 20
151.0145918334
 30
0.0
 10
133.8185124618
 20
151.4008518117
 30
0.0
 10
133.0172272657
 20
151.5101737816
 30
0.0
 10
132.4885425644
 20
151.5101687559
 30
0.0
  0
SPLINE
  5
3C5
100
AcDbEntity
  8
0
100
AcDbSpline
 62
7
  6
CONTINUOUS
 70
0
 71
3
 72
14
 73
10
 74
0
 42
0.0000001
 43
0.0000001
 44
0.0000000001
 40
0.0
 40
0.0
 40
0.0
 40
0.0
 40
0.2497322574
 40
0.3748929392
 40
0.5000134767
 40
0.6250849053
 40
0.7500991272
 40
0.8750608281
 40
1.0
 40
1.0
 40
1.0
 40
1.0
 10
80.7614541199
 20
151.5101687559
 30
0.0
 10
80.2327694129
 20
151.5101741425
 30
0.0
 10
79.4314841702
 20
151.4008518728
 30
0.0
 10
78.4418315575
 20
151.0145917862
 30
0.0
 10
77.7592936139
 20
150.5984140056
 30
0.0
 10
77.1712065571
 20
150.0559934789
 30
0.0
 10
76.7153176236
 20
149.3971827893
 30
0.0
 10
76.4283942729
 20
148.6489478861
 30
0.0
 10
76.3647197796
 20
148.1175072996
 30
0.0
 10
76.3647148169
 20
147.8530103132
 30
0.0
  0
SPLINE
  5
3C6
100
AcDbEntity
  8
0
100
AcDbSpline
 62
7
  6
CONTINUOUS
 70
0
 71
3
 72
14
 73
10
 74
0
 42
0.0000001
 43
0.0000001
 44
0.0000000001
 40
0.0
 40
0.0
 40
0.0
 40
0.0
 40
0.1249391723
 40
0.2499008737
 40
0.374915096
 40
0.4999865247
 40
0.6251070636
 40
0.7502677449
 40
1.0
 40
1.0
 40
1.0
 40
1.0
 10
76.3647148169
 20
138.3282275673
 30
0.0
 10
76.3647197626
 20
138.0637305805
 30
0.0
 10
76.42839428
 20
137.5322899926
 30
0.0
 10
76.7153176235
 20
136.7840550899
 30
0.0
 10
77.1712065575
 20
136.1252443952
 30
0.0
 10
77.7592936303
 20
135.5828238872
 30
0.0
 10
78.4418315353
 20
135.1666460471
 30
0.0
 10
79.4314842226
 20
134.7803860689
 30
0.0
 10
80.2327694186
 20
134.6710640989
 30
0.0
 10
80.7614541199
 20
134.6710691247
 30
0.0
  0
SPLINE
  5
3C7
100
AcDbEntity
  8
0
100
AcDbSpline
 62
7
  6
CONTINUOUS
 70
0
 71
3
 72
13
 73
9
 74
0
 42
0.0000001
 43
0.0000001
 44
0.0000000001
 40
0.0
 40
0.0
 40
0.0
 40
0.0
 40
0.2445153494
 40
0.4909762243
 40
0.6161513846
 40
0.7429914565
 40
0.8713642321
 40
1.0
 40
1.0
 40
1.0
 40
1.0
 10
80.76145412
 20
136.6406846307
 30
0.0
 10
80.4650733947
 20
136.6222630975
 30
0.0
 10
79.8655060146
 20
136.6379027569
 30
0.0
 10
79.1293449997
 20
136.8230192832
 30
0.0
 10
78.5959017506
 20
137.1173686736
 30
0.0
 10
78.2510843158
 20
137.4339524319
 30
0.0
 10
78.0228432972
 20
137.8527034528
 30
0.0
 10
77.9907846365
 20
138.1724851212
 30
0.0
 10
78.0030189055
 20
138.3282275673
 30
0.0
  0
SPLINE
  5
3C8
100
AcDbEntity
  8
0
100
AcDbSpline
 62
7
  6
CONTINUOUS
 70
0
 71
3
 72
11
 73
7
 74
0
 42
0.0000001
 43
0.0000001
 44
0.0000000001
 40
0.0
 40
0.0
 40
0.0
 40
0.0
 40
0.2661110417
 40
0.5267775021
 40
0.7723427779
 40
1.0
 40
1.0
 40
1.0
 40
1.0
 10
89.7625183874
 20
141.2895167925
 30
0.0
 10
89.7826470556
 20
141.0465536208
 30
0.0
 10
89.8956505558
 20
140.568769634
 30
0.0
 10
90.2579446254
 20
139.9485690989
 30
0.0
 10
90.7719696092
 20
139.4954953839
 30
0.0
 10
91.1937354509
 20
139.3446984131
 30
0.0
 10
91.400822476
 20
139.3199012865
 30
0.0
  0
SPLINE
  5
3C9
100
AcDbEntity
  8
AXIS
100
AcDbSpline
 62
7
  6
CONTINUOUS
 70
0
 71
3
 72
15
 73
11
 74
0
 42
0.0000001
 43
0.0000001
 44
0.0000000001
 40
0.0
 40
0.0
 40
0.0
 40
0.0
 40
0.1514521028
 40
0.2907300585
 40
0.4184623637
 40
0.5368589671
 40
0.6494972046
 40
0.7610818221
 40
0.8765401769
 40
1.0
 40
1.0
 40
1.0
 40
1.0
 10
101.6250437009
 20
69.5008502738
 30
0.0
 10
101.3178608645
 20
69.3234992391
 30
0.0
 10
100.7483561046
 20
68.9456089437
 30
0.0
 10
100.0198566042
 20
68.2835702956
 30
0.0
 10
99.4687693717
 20
67.5612645735
 30
0.0
 10
99.1104226572
 20
66.7929144985
 30
0.0
 10
98.9585810669
 20
65.9958200468
 30
0.0
 10
99.0208297109
 20
65.1933169814
 30
0.0
 10
99.2936661588
 20
64.4106185343
 30
0.0
 10
99.5960893838
 20
63.9340272451
 30
0.0
 10
99.7731541756
 20
63.7054380619
 30
0.0
  0
SPLINE
  5
3CA
100
AcDbEntity
  8
AXIS
100
AcDbSpline
 62
7
  6
CONTINUOUS
 70
0
 71
3
 72
15
 73
11
 74
0
 42
0.0000001
 43
0.0000001
 44
0.0000000001
 40
0.0
 40
0.0
 40
0.0
 40
0.0
 40
0.1141543258
 40
0.2373258924
 40
0.3669759246
 40
0.5000005214
 40
0.6330250456
 40
0.762674866
 40
0.8858460989
 40
1.0
 40
1.0
 40
1.0
 40
1.0
 10
160.1384220323
 20
27.9222595897
 30
0.0
 10
160.5377806356
 20
27.6916950087
 30
0.0
 10
161.4110490316
 20
27.2850510248
 30
0.0
 10
162.8331181714
 20
26.8528316057
 30
0.0
 10
164.3727337918
 20
26.5867846657
 30
0.0
 10
165.9720628152
 20
26.4970263585
 30
0.0
 10
167.5713905604
 20
26.5867922564
 30
0.0
 10
169.1110024032
 20
26.8528465068
 30
0.0
 10
170.5330654212
 20
27.2850726858
 30
0.0
 10
171.4063284669
 20
27.6917210313
 30
0.0
 10
171.8056839217
 20
27.9222876344
 30
0.0
  0
SPLINE
  5
3CB
100
AcDbEntity
  8
AXIS
100
AcDbSpline
 62
7
  6
CONTINUOUS
 70
0
 71
3
 72
9
 73
5
 74
0
 42
0.0000001
 43
0.0000001
 44
0.0000000001
 40
0.0
 40
0.0
 40
0.0
 40
0.0
 40
0.2698069418
 40
1.0
 40
1.0
 40
1.0
 40
1.0
 10
198.6756297359
 20
43.4355654815
 30
0.0
 10
198.8487524608
 20
43.5355173367
 30
0.0
 10
199.4751813415
 20
43.9300791244
 30
0.0
 10
200.0418934909
 20
44.4313690623
 30
0.0
 10
200.3731951337
 20
44.8590767369
 30
0.0
  0
SPLINE
  5
3CC
100
AcDbEntity
  8
AXIS
100
AcDbSpline
 62
7
  6
CONTINUOUS
 70
0
 71
3
 72
15
 73
11
 74
0
 42
0.0000001
 43
0.0000001
 44
0.0000000001
 40
0.0
 40
0.0
 40
0.0
 40
0.0
 40
0.1141543258
 40
0.2373258924
 40
0.3669759246
 40
0.5000005214
 40
0.6330250456
 40
0.762674866
 40
0.8858460989
 40
1.0
 40
1.0
 40
1.0
 40
1.0
 10
141.2229115763
 20
85.014158715
 30
0.0
 10
140.7872476453
 20
85.2656837126
 30
0.0
 10
139.8345912133
 20
85.7092953313
 30
0.0
 10
138.2832430609
 20
86.1808074249
 30
0.0
 10
136.6036623841
 20
86.4710404503
 30
0.0
 10
134.858939813
 20
86.5689586037
 30
0.0
 10
133.1142186365
 20
86.4710321696
 30
0.0
 10
131.4346420807
 20
86.1807911692
 30
0.0
 10
129.8833006065
 20
85.7092717012
 30
0.0
 10
128.9306500113
 20
85.2656553242
 30
0.0
 10
128.494989515
 20
85.0141281209
 30
0.0
  0
SPLINE
  5
3CD
100
AcDbEntity
  8
AXIS
100
AcDbSpline
 62
7
  6
CONTINUOUS
 70
0
 71
3
 72
15
 73
11
 74
0
 42
0.0000001
 43
0.0000001
 44
0.0000000001
 40
0.0
 40
0.0
 40
0.0
 40
0.0
 40
0.1141542162
 40
0.2373258908
 40
0.3669761789
 40
0.5000010716
 40
0.6330258157
 40
0.7626756678
 40
0.8858466576
 40
1.0
 40
1.0
 40
1.0
 40
1.0
 10
113.6459090284
 20
63.0321653372
 30
0.0
 10
113.307056262
 20
62.8365297691
 30
0.0
 10
112.5660923845
 20
62.4914898628
 30
0.0
 10
111.3594711233
 20
62.1247500884
 30
0.0
 10
110.0531098743
 20
61.8990094958
 30
0.0
 10
108.6960814338
 20
61.822851923
 30
0.0
 10
107.339055226
 20
61.8990227371
 30
0.0
 10
106.0327005591
 20
62.1247760714
 30
0.0
 10
104.8260899863
 20
62.4915276565
 30
0.0
 10
104.0851354175
 20
62.8365751322
 30
0.0
 10
103.7462881586
 20
63.0322142496
 30
0.0
  0
SPLINE
  5
3CE
100
AcDbEntity
  8
AXIS
100
AcDbSpline
 62
7
  6
CONTINUOUS
 70
0
 71
3
 72
15
 73
11
 74
0
 42
0.0000001
 43
0.0000001
 44
0.0000000001
 40
0.0
 40
0.0
 40
0.0
 40
0.0
 40
0.1141542162
 40
0.2373258908
 40
0.3669761789
 40
0.5000010716
 40
0.6330258157
 40
0.7626756678
 40
0.8858466576
 40
1.0
 40
1.0
 40
1.0
 40
1.0
 10
136.9803356565
 20
76.504222415
 30
0.0
 10
136.6414828901
 20
76.3085868469
 30
0.0
 10
135.9005190125
 20
75.9635469405
 30
0.0
 10
134.6938977514
 20
75.5968071662
 30
0.0
 10
133.3875365024
 20
75.3710665736
 30
0.0
 10
132.0305080619
 20
75.2949090007
 30
0.0
 10
130.6734818541
 20
75.3710798148
 30
0.0
 10
129.3671271871
 20
75.5968331491
 30
0.0
 10
128.1605166144
 20
75.9635847343
 30
0.0
 10
127.4195620455
 20
76.3086322099
 30
0.0
 10
127.0807147866
 20
76.5042713274
 30
0.0
  0
SPLINE
  5
3CF
100
AcDbEntity
  8
AXIS
100
AcDbSpline
 62
7
  6
CONTINUOUS
 70
0
 71
3
 72
15
 73
11
 74
0
 42
0.0000001
 43
0.0000001
 44
0.0000000001
 40
0.0
 40
0.0
 40
0.0
 40
0.0
 40
0.1141533424
 40
0.2373243322
 40
0.3669741843
 40
0.4999989284
 40
0.6330238211
 40
0.7626741092
 40
0.8858457838
 40
1.0
 40
1.0
 40
1.0
 40
1.0
 10
183.6494927984
 20
43.8450109657
 30
0.0
 10
183.9883400573
 20
43.6493718483
 30
0.0
 10
184.7292946261
 20
43.3043243726
 30
0.0
 10
185.9359051989
 20
42.9375727875
 30
0.0
 10
187.2422598658
 20
42.7118194532
 30
0.0
 10
188.5992860736
 20
42.6356486391
 30
0.0
 10
189.9563145142
 20
42.7118062119
 30
0.0
 10
191.2626757631
 20
42.9375468045
 30
0.0
 10
192.4692970243
 20
43.3042865789
 30
0.0
 10
193.2102609018
 20
43.6493264853
 30
0.0
 10
193.5491136682
 20
43.8449620534
 30
0.0
  0
SPLINE
  5
3D0
100
AcDbEntity
  8
AXIS
100
AcDbSpline
 62
7
  6
CONTINUOUS
 70
0
 71
3
 72
18
 73
14
 74
0
 42
0.0000001
 43
0.0000001
 44
0.0000000001
 40
0.0
 40
0.0
 40
0.0
 40
0.0
 40
0.0448897299
 40
0.0887473698
 40
0.133826207
 40
0.1820928922
 40
0.2348689067
 40
0.2927561773
 40
0.4231177755
 40
0.568528344
 40
0.7199211105
 40
0.8668763352
 40
1.0
 40
1.0
 40
1.0
 40
1.0
 10
191.516190711
 20
43.0317362224
 30
0.0
 10
191.5529399572
 20
43.1200304954
 30
0.0
 10
191.6043277579
 20
43.3047936009
 30
0.0
 10
191.6005997181
 20
43.5936631764
 30
0.0
 10
191.5147176782
 20
43.8768035989
 30
0.0
 10
191.35140344
 20
44.1450944866
 30
0.0
 10
191.1170028318
 20
44.3923409483
 30
0.0
 10
190.7025033383
 20
44.6989413934
 30
0.0
 10
190.0436417175
 20
44.9879120023
 30
0.0
 10
189.146551639
 20
45.1692815387
 30
0.0
 10
188.1955993767
 20
45.1822715247
 30
0.0
 10
187.2847475807
 20
45.0260143923
 30
0.0
 10
186.7236367462
 20
44.8031680469
 30
0.0
 10
186.4780164167
 20
44.6613599301
 30
0.0
  0
SPLINE
  5
3D1
100
AcDbEntity
  8
AXIS
100
AcDbSpline
 62
7
  6
CONTINUOUS
 70
0
 71
3
 72
15
 73
11
 74
0
 42
0.0000001
 43
0.0000001
 44
0.0000000001
 40
0.0
 40
0.0
 40
0.0
 40
0.0
 40
0.1141533424
 40
0.2373243322
 40
0.3669741843
 40
0.4999989284
 40
0.6330238211
 40
0.7626741092
 40
0.8858457838
 40
1.0
 40
1.0
 40
1.0
 40
1.0
 10
160.3150661703
 20
30.372953888
 30
0.0
 10
160.6539134292
 20
30.1773147705
 30
0.0
 10
161.3948679981
 20
29.8322672949
 30
0.0
 10
162.6014785708
 20
29.4655157097
 30
0.0
 10
163.9078332378
 20
29.2397623755
 30
0.0
 10
165.2648594456
 20
29.1635915613
 30
0.0
 10
166.6218878861
 20
29.2397491342
 30
0.0
 10
167.9282491351
 20
29.4654897268
 30
0.0
 10
169.1348703962
 20
29.8322295011
 30
0.0
 10
169.8758342738
 20
30.1772694075
 30
0.0
 10
170.2146870402
 20
30.3729049756
 30
0.0
  0
SPLINE
  5
3D2
100
AcDbEntity
  8
AXIS
100
AcDbSpline
 62
7
  6
CONTINUOUS
 70
0
 71
3
 72
18
 73
14
 74
0
 42
0.0000001
 43
0.0000001
 44
0.0000000001
 40
0.0
 40
0.0
 40
0.0
 40
0.0
 40
0.0448897299
 40
0.0887473698
 40
0.133826207
 40
0.1820928922
 40
0.2348689067
 40
0.2927561773
 40
0.4231177755
 40
0.568528344
 40
0.7199211105
 40
0.8668763352
 40
1.0
 40
1.0
 40
1.0
 40
1.0
 10
168.1817640829
 20
29.5596791447
 30
0.0
 10
168.2185133291
 20
29.6479734177
 30
0.0
 10
168.2699011298
 20
29.8327365232
 30
0.0
 10
168.26617309
 20
30.1216060987
 30
0.0
 10
168.1802910502
 20
30.4047465211
 30
0.0
 10
168.0169768119
 20
30.6730374089
 30
0.0
 10
167.7825762037
 20
30.9202838705
 30
0.0
 10
167.3680767103
 20
31.2268843156
 30
0.0
 10
166.7092150894
 20
31.5158549246
 30
0.0
 10
165.8121250109
 20
31.697224461
 30
0.0
 10
164.8611727487
 20
31.7102144469
 30
0.0
 10
163.9503209526
 20
31.5539573146
 30
0.0
 10
163.3892101182
 20
31.3311109692
 30
0.0
 10
163.1435897887
 20
31.1893028523
 30
0.0
  0
SPLINE
  5
3D3
100
AcDbEntity
  8
AXIS
100
AcDbSpline
 62
7
  6
CONTINUOUS
 70
0
 71
3
 72
13
 73
9
 74
0
 42
0.0000001
 43
0.0000001
 44
0.0000000001
 40
0.0
 40
0.0
 40
0.0
 40
0.0
 40
0.1143129311
 40
0.225635799
 40
0.3375078644
 40
0.4533741251
 40
0.7068522562
 40
1.0
 40
1.0
 40
1.0
 40
1.0
 10
129.1137055236
 20
75.6910048582
 30
0.0
 10
129.0845571681
 20
75.7609616947
 30
0.0
 10
129.040445926
 20
75.9052477112
 30
0.0
 10
129.0228019742
 20
76.1301060999
 30
0.0
 10
129.0557982171
 20
76.3543324565
 30
0.0
 10
129.1689081281
 20
76.6549735406
 30
0.0
 10
129.4433589638
 20
77.0098567751
 30
0.0
 10
129.7409268144
 20
77.2234461296
 30
0.0
 10
129.909238405
 20
77.3206202917
 30
0.0
  0
SPLINE
  5
3D4
100
AcDbEntity
  8
AXIS
100
AcDbSpline
 62
7
  6
CONTINUOUS
 70
0
 71
3
 72
18
 73
14
 74
0
 42
0.0000001
 43
0.0000001
 44
0.0000000001
 40
0.0
 40
0.0
 40
0.0
 40
0.0
 40
0.1331236648
 40
0.2800788895
 40
0.431471656
 40
0.5768822245
 40
0.7072438227
 40
0.7651310933
 40
0.8179071078
 40
0.866173793
 40
0.9112526302
 40
0.9551102701
 40
1.0
 40
1.0
 40
1.0
 40
1.0
 10
106.5748117769
 20
63.8485632139
 30
0.0
 10
106.8204321064
 20
63.9903713308
 30
0.0
 10
107.3815429409
 20
64.2132176762
 30
0.0
 10
108.2923947369
 20
64.3694748086
 30
0.0
 10
109.2433469992
 20
64.3564848226
 30
0.0
 10
110.1404370777
 20
64.1751152862
 30
0.0
 10
110.7992986985
 20
63.8861446772
 30
0.0
 10
111.213798192
 20
63.5795442322
 30
0.0
 10
111.4481988002
 20
63.3322977705
 30
0.0
 10
111.6115130384
 20
63.0640068828
 30
0.0
 10
111.6973950782
 20
62.7808664603
 30
0.0
 10
111.701123118
 20
62.4919968848
 30
0.0
 10
111.6497353173
 20
62.3072337793
 30
0.0
 10
111.6129860711
 20
62.2189395063
 30
0.0
  0
SPLINE
  5
3D5
100
AcDbEntity
  8
AXIS
100
AcDbSpline
 62
7
  6
CONTINUOUS
 70
0
 71
3
 72
13
 73
9
 74
0
 42
0.0000001
 43
0.0000001
 44
0.0000000001
 40
0.0
 40
0.0
 40
0.0
 40
0.0
 40
0.1143129311
 40
0.225635799
 40
0.3375078644
 40
0.4533741251
 40
0.7068522562
 40
1.0
 40
1.0
 40
1.0
 40
1.0
 10
105.7792788955
 20
62.2189477804
 30
0.0
 10
105.75013054
 20
62.2889046169
 30
0.0
 10
105.7060192979
 20
62.4331906335
 30
0.0
 10
105.6883753461
 20
62.6580490222
 30
0.0
 10
105.721371589
 20
62.8822753787
 30
0.0
 10
105.8344815
 20
63.1829164628
 30
0.0
 10
106.1089323358
 20
63.5377996973
 30
0.0
 10
106.4065001863
 20
63.7513890518
 30
0.0
 10
106.5748117769
 20
63.8485632139
 30
0.0
  0
SPLINE
  5
3D6
100
AcDbEntity
  8
AXIS
100
AcDbSpline
 62
7
  6
CONTINUOUS
 70
0
 71
3
 72
18
 73
14
 74
0
 42
0.0000001
 43
0.0000001
 44
0.0000000001
 40
0.0
 40
0.0
 40
0.0
 40
0.0
 40
0.1331236648
 40
0.2800788895
 40
0.431471656
 40
0.5768822245
 40
0.7072438227
 40
0.7651310933
 40
0.8179071078
 40
0.866173793
 40
0.9112526302
 40
0.9551102701
 40
1.0
 40
1.0
 40
1.0
 40
1.0
 10
129.909238405
 20
77.3206202917
 30
0.0
 10
130.1548587345
 20
77.4624284085
 30
0.0
 10
130.7159695689
 20
77.685274754
 30
0.0
 10
131.626821365
 20
77.8415318863
 30
0.0
 10
132.5777736272
 20
77.8285419004
 30
0.0
 10
133.4748637057
 20
77.6471723639
 30
0.0
 10
134.1337253266
 20
77.358201755
 30
0.0
 10
134.54822482
 20
77.0516013099
 30
0.0
 10
134.7826254282
 20
76.8043548483
 30
0.0
 10
134.9459396665
 20
76.5360639605
 30
0.0
 10
135.0318217063
 20
76.252923538
 30
0.0
 10
135.0355497461
 20
75.9640539626
 30
0.0
 10
134.9841619454
 20
75.7792908571
 30
0.0
 10
134.9474126992
 20
75.6909965841
 30
0.0
  0
SPLINE
  5
3D7
100
AcDbEntity
  8
AXIS
100
AcDbSpline
 62
7
  6
CONTINUOUS
 70
0
 71
3
 72
13
 73
9
 74
0
 42
0.0000001
 43
0.0000001
 44
0.0000000001
 40
0.0
 40
0.0
 40
0.0
 40
0.0
 40
0.2931477438
 40
0.5466258749
 40
0.6624921356
 40
0.774364201
 40
0.8856870689
 40
1.0
 40
1.0
 40
1.0
 40
1.0
 10
163.1435897887
 20
31.1893028523
 30
0.0
 10
162.9752781981
 20
31.0921286902
 30
0.0
 10
162.6777103475
 20
30.8785393357
 30
0.0
 10
162.4032595118
 20
30.5236561012
 30
0.0
 10
162.2901496008
 20
30.2230150171
 30
0.0
 10
162.2571533579
 20
29.9987886605
 30
0.0
 10
162.2747973097
 20
29.7739302718
 30
0.0
 10
162.3189085518
 20
29.6296442553
 30
0.0
 10
162.3480569073
 20
29.5596874188
 30
0.0
  0
SPLINE
  5
3D8
100
AcDbEntity
  8
AXIS
100
AcDbSpline
 62
7
  6
CONTINUOUS
 70
0
 71
3
 72
15
 73
11
 74
0
 42
0.0000001
 43
0.0000001
 44
0.0000000001
 40
0.0
 40
0.0
 40
0.0
 40
0.0
 40
0.1234595683
 40
0.2389176539
 40
0.3505020473
 40
0.4631401691
 40
0.5815368033
 40
0.7092692861
 40
0.8485475346
 40
1.0
 40
1.0
 40
1.0
 40
1.0
 10
201.0578515547
 20
45.7429740384
 30
0.0
 10
201.2349175196
 20
45.9715647314
 30
0.0
 10
201.5373424445
 20
46.4481593623
 30
0.0
 10
201.8101788102
 20
47.2308637211
 30
0.0
 10
201.8724242286
 20
48.0333727391
 30
0.0
 10
201.7205763675
 20
48.8304725178
 30
0.0
 10
201.3622207859
 20
49.5988268579
 30
0.0
 10
200.811122541
 20
50.3211355813
 30
0.0
 10
200.0826102947
 20
50.9831758021
 30
0.0
 10
199.5130965544
 20
51.3610660615
 30
0.0
 10
199.2059090383
 20
51.5384168444
 30
0.0
  0
SPLINE
  5
3D9
100
AcDbEntity
  8
AXIS
100
AcDbSpline
 62
7
  6
CONTINUOUS
 70
0
 71
3
 72
13
 73
9
 74
0
 42
0.0000001
 43
0.0000001
 44
0.0000000001
 40
0.0
 40
0.0
 40
0.0
 40
0.0
 40
0.2931477438
 40
0.5466258749
 40
0.6624921356
 40
0.774364201
 40
0.8856870689
 40
1.0
 40
1.0
 40
1.0
 40
1.0
 10
186.4780164167
 20
44.6613599301
 30
0.0
 10
186.3097048261
 20
44.564185768
 30
0.0
 10
186.0121369756
 20
44.3505964135
 30
0.0
 10
185.7376861398
 20
43.995713179
 30
0.0
 10
185.6245762289
 20
43.6950720949
 30
0.0
 10
185.5915799859
 20
43.4708457383
 30
0.0
 10
185.6092239378
 20
43.2459873496
 30
0.0
 10
185.6533351798
 20
43.101701333
 30
0.0
 10
185.6824835353
 20
43.0317444966
 30
0.0
  0
SPLINE
  5
3DA
100
AcDbEntity
  8
AXIS
100
AcDbSpline
 62
7
  6
CONTINUOUS
 70
0
 71
3
 72
9
 73
5
 74
0
 42
0.0000001
 43
0.0000001
 44
0.0000000001
 40
0.0
 40
0.0
 40
0.0
 40
0.0
 40
0.2314168515
 40
1.0
 40
1.0
 40
1.0
 40
1.0
 10
100.4578105966
 20
62.8215407604
 30
0.0
 10
100.562849601
 20
62.6859362736
 30
0.0
 10
101.0524454517
 20
62.1275671319
 30
0.0
 10
101.6620652258
 20
61.6828361669
 30
0.0
 10
102.1554245702
 20
61.3980014604
 30
0.0
  0
SPLINE
  5
3DB
100
AcDbEntity
  8
0
100
AcDbSpline
 62
9
  6
CONTINUOUS
 70
0
 71
3
 72
13
 73
9
 74
0
 42
0.0000001
 43
0.0000001
 44
0.0000000001
 40
0.0
 40
0.0
 40
0.0
 40
0.0
 40
0.2334291315
 40
0.4915454097
 40
0.6255387674
 40
0.7580388681
 40
0.8843110895
 40
1.0
 40
1.0
 40
1.0
 40
1.0
 10
134.5451160152
 20
69.2714233906
 30
0.0
 10
134.1458268866
 20
69.5019584771
 30
0.0
 10
133.2433261029
 20
69.8837499174
 30
0.0
 10
132.0203405405
 20
70.1192769555
 30
0.0
 10
130.9822805554
 20
70.1432626307
 30
0.0
 10
130.2081610545
 20
70.0632681081
 30
0.0
 10
129.4882742107
 20
69.8821345347
 30
0.0
 10
129.0480422297
 20
69.687585753
 30
0.0
 10
128.8501481269
 20
69.5733380071
 30
0.0
  0
SPLINE
  5
3DC
100
AcDbEntity
  8
0
100
AcDbSpline
 62
9
  6
CONTINUOUS
 70
0
 71
3
 72
15
 73
11
 74
0
 42
0.0000001
 43
0.0000001
 44
0.0000000001
 40
0.0
 40
0.0
 40
0.0
 40
0.0
 40
0.141934988
 40
0.2654696589
 40
0.3759901174
 40
0.4832054742
 40
0.5959370398
 40
0.7189794545
 40
0.8537681606
 40
1.0
 40
1.0
 40
1.0
 40
1.0
 10
122.1151376987
 20
65.6849011342
 30
0.0
 10
121.9396491792
 20
65.5835782817
 30
0.0
 10
121.627375771
 20
65.361928949
 30
0.0
 10
121.2841014968
 20
64.9377255302
 30
0.0
 10
121.1266127622
 20
64.4637379943
 30
0.0
 10
121.1620220752
 20
63.9822666433
 30
0.0
 10
121.3597528656
 20
63.5267264713
 30
0.0
 10
121.6866748104
 20
63.1056964061
 30
0.0
 10
122.1206250413
 20
62.7218871712
 30
0.0
 10
122.4573201447
 20
62.501344873
 30
0.0
 10
122.6381240507
 20
62.3969594097
 30
0.0
  0
SPLINE
  5
3DD
100
AcDbEntity
  8
0
100
AcDbSpline
 62
9
  6
CONTINUOUS
 70
0
 71
3
 72
9
 73
5
 74
0
 42
0.0000001
 43
0.0000001
 44
0.0000000001
 40
0.0
 40
0.0
 40
0.0
 40
0.0
 40
0.2570808801
 40
1.0
 40
1.0
 40
1.0
 40
1.0
 10
170.7514304287
 20
45.0389080938
 30
0.0
 10
170.7556581892
 20
45.0430231724
 30
0.0
 10
170.7719622496
 20
45.0591740784
 30
0.0
 10
170.7876902586
 20
45.0759100475
 30
0.0
 10
170.7989756146
 20
45.0886898872
 30
0.0
  0
SPLINE
  5
3DE
100
AcDbEntity
  8
0
100
AcDbSpline
 62
9
  6
CONTINUOUS
 70
0
 71
3
 72
17
 73
13
 74
0
 42
0.0000001
 43
0.0000001
 44
0.0000000001
 40
0.0
 40
0.0
 40
0.0
 40
0.0
 40
0.0702740276
 40
0.1295894903
 40
0.1810530795
 40
0.228482071
 40
0.3237902554
 40
0.4315205336
 40
0.5542970017
 40
0.6910110408
 40
0.8401791796
 40
1.0
 40
1.0
 40
1.0
 40
1.0
 10
170.7989756146
 20
45.0886898872
 30
0.0
 10
170.8262906641
 20
45.1196221815
 30
0.0
 10
170.8727034947
 20
45.1805836531
 30
0.0
 10
170.9177263596
 20
45.278034976
 30
0.0
 10
170.9330279945
 20
45.3710056759
 30
0.0
 10
170.9166616126
 20
45.4856449035
 30
0.0
 10
170.8339544731
 20
45.6142757415
 30
0.0
 10
170.6796978265
 20
45.7304024393
 30
0.0
 10
170.4848117291
 20
45.8247492506
 30
0.0
 10
170.2565572504
 20
45.9002527871
 30
0.0
 10
170.0015619857
 20
45.9602972755
 30
0.0
 10
169.8222282288
 20
45.9890139733
 30
0.0
 10
169.7291206256
 20
46.0007972385
 30
0.0
  0
SPLINE
  5
3DF
100
AcDbEntity
  8
AXIS
100
AcDbSpline
 62
7
  6
CONTINUOUS
 70
0
 71
3
 72
15
 73
11
 74
0
 42
0.0000001
 43
0.0000001
 44
0.0000000001
 40
0.0
 40
0.0
 40
0.0
 40
0.0
 40
0.1449005748
 40
0.2745259618
 40
0.391115869
 40
0.5000019652
 40
0.6088877045
 40
0.7254766636
 40
0.8551007719
 40
1.0
 40
1.0
 40
1.0
 40
1.0
 10
160.3151508881
 20
36.0882755389
 30
0.0
 10
160.007896906
 20
35.9108834285
 30
0.0
 10
159.4505569695
 20
35.5271848817
 30
0.0
 10
158.784785315
 20
34.8272696166
 30
0.0
 10
158.3633342366
 20
34.0525128822
 30
0.0
 10
158.2173986148
 20
33.2306264754
 30
0.0
 10
158.3633090744
 20
32.4087377613
 30
0.0
 10
158.7847374856
 20
31.6339754711
 30
0.0
 10
159.4504891034
 20
30.9340528408
 30
0.0
 10
160.0078176858
 20
30.5503489259
 30
0.0
 10
160.3150661703
 20
30.372953888
 30
0.0
  0
SPLINE
  5
3E0
100
AcDbEntity
  8
AXIS
100
AcDbSpline
 62
7
  6
CONTINUOUS
 70
0
 71
3
 72
15
 73
11
 74
0
 42
0.0000001
 43
0.0000001
 44
0.0000000001
 40
0.0
 40
0.0
 40
0.0
 40
0.0
 40
0.1141543258
 40
0.2373258924
 40
0.3669759246
 40
0.5000005214
 40
0.6330250456
 40
0.762674866
 40
0.8858460989
 40
1.0
 40
1.0
 40
1.0
 40
1.0
 10
160.3151979916
 20
29.5563962718
 30
0.0
 10
160.7024548191
 20
29.3328184962
 30
0.0
 10
161.5492605364
 20
28.9384970573
 30
0.0
 10
162.9282366719
 20
28.5193751963
 30
0.0
 10
164.4211972735
 20
28.2613902849
 30
0.0
 10
165.9720617811
 20
28.1743519263
 30
0.0
 10
167.5229250491
 20
28.2613976455
 30
0.0
 10
169.0158819877
 20
28.5193896459
 30
0.0
 10
170.3948521869
 20
28.9385180619
 30
0.0
 10
171.241652716
 20
29.3328437303
 30
0.0
 10
171.6289064905
 20
29.5564234666
 30
0.0
  0
SPLINE
  5
3E1
100
AcDbEntity
  8
AXIS
100
AcDbSpline
 62
7
  6
CONTINUOUS
 70
0
 71
3
 72
15
 73
11
 74
0
 42
0.0000001
 43
0.0000001
 44
0.0000000001
 40
0.0
 40
0.0
 40
0.0
 40
0.0
 40
0.1141543258
 40
0.2373258924
 40
0.3669759246
 40
0.5000005214
 40
0.6330250456
 40
0.762674866
 40
0.8858460989
 40
1.0
 40
1.0
 40
1.0
 40
1.0
 10
159.6080941544
 20
28.6767442276
 30
0.0
 10
160.0437580853
 20
28.42521923
 30
0.0
 10
160.9964145173
 20
27.9816076113
 30
0.0
 10
162.5477626697
 20
27.5100955177
 30
0.0
 10
164.2273433466
 20
27.2198624923
 30
0.0
 10
165.9720659176
 20
27.121944339
 30
0.0
 10
167.7167870941
 20
27.2198707731
 30
0.0
 10
169.39636365
 20
27.5101117734
 30
0.0
 10
170.9477051241
 20
27.9816312414
 30
0.0
 10
171.9003557194
 20
28.4252476184
 30
0.0
 10
172.3360162156
 20
28.6767748217
 30
0.0
  0
SPLINE
  5
3E2
100
AcDbEntity
  8
AXIS
100
AcDbSpline
 62
7
  6
CONTINUOUS
 70
0
 71
3
 72
15
 73
11
 74
0
 42
0.0000001
 43
0.0000001
 44
0.0000000001
 40
0.0
 40
0.0
 40
0.0
 40
0.0
 40
0.1449005748
 40
0.2745259618
 40
0.391115869
 40
0.5000019652
 40
0.6088877045
 40
0.7254766636
 40
0.8551007719
 40
1.0
 40
1.0
 40
1.0
 40
1.0
 10
183.6495775162
 20
49.5603326167
 30
0.0
 10
183.342323534
 20
49.3829405063
 30
0.0
 10
182.7849835975
 20
48.9992419594
 30
0.0
 10
182.1192119431
 20
48.2993266944
 30
0.0
 10
181.6977608647
 20
47.5245699599
 30
0.0
 10
181.5518252429
 20
46.7026835532
 30
0.0
 10
181.6977357025
 20
45.8807948391
 30
0.0
 10
182.1191641137
 20
45.1060325489
 30
0.0
 10
182.7849157315
 20
44.4061099186
 30
0.0
 10
183.3422443139
 20
44.0224060037
 30
0.0
 10
183.6494927984
 20
43.8450109657
 30
0.0
  0
SPLINE
  5
3E3
100
AcDbEntity
  8
AXIS
100
AcDbSpline
 62
7
  6
CONTINUOUS
 70
0
 71
3
 72
23
 73
19
 74
0
 42
0.0000001
 43
0.0000001
 44
0.0000000001
 40
0.0
 40
0.0
 40
0.0
 40
0.0
 40
0.0603785729
 40
0.1143920218
 40
0.1629737884
 40
0.2083457333
 40
0.253717979
 40
0.3023005446
 40
0.3563150726
 40
0.4166947701
 40
0.4832817829
 40
0.5551285178
 40
0.6307540958
 40
0.7083480092
 40
0.7859418359
 40
0.8615671602
 40
0.9334134958
 40
1.0
 40
1.0
 40
1.0
 40
1.0
 10
193.5492002827
 20
43.8450120609
 30
0.0
 10
193.8564517705
 20
44.0224089796
 30
0.0
 10
194.4137851228
 20
44.4061171662
 30
0.0
 10
195.0795403478
 20
45.1060486496
 30
0.0
 10
195.5009653987
 20
45.8808217822
 30
0.0
 10
195.6468693733
 20
46.7027192949
 30
0.0
 10
195.5009060464
 20
47.5246200788
 30
0.0
 10
195.0794819816
 20
48.2993554968
 30
0.0
 10
194.4134781759
 20
48.999385689
 30
0.0
 10
193.5326094539
 20
49.6059281241
 30
0.0
 10
192.4694494737
 20
50.1009115643
 30
0.0
 10
191.262555325
 20
50.4677955078
 30
0.0
 10
189.9563044266
 20
50.6934804425
 30
0.0
 10
188.5992811123
 20
50.7696476839
 30
0.0
 10
187.2422900714
 20
50.6934766511
 30
0.0
 10
185.9359593413
 20
50.4677337205
 30
0.0
 10
184.7293685288
 20
50.1009969591
 30
0.0
 10
183.9884226007
 20
49.7559637497
 30
0.0
 10
183.6495775162
 20
49.5603326167
 30
0.0
  0
SPLINE
  5
3E4
100
AcDbEntity
  8
AXIS
100
AcDbSpline
 62
7
  6
CONTINUOUS
 70
0
 71
3
 72
23
 73
19
 74
0
 42
0.0000001
 43
0.0000001
 44
0.0000000001
 40
0.0
 40
0.0
 40
0.0
 40
0.0
 40
0.0603785729
 40
0.1143920218
 40
0.1629737884
 40
0.2083457333
 40
0.253717979
 40
0.3023005446
 40
0.3563150726
 40
0.4166947701
 40
0.4832817829
 40
0.5551285178
 40
0.6307540958
 40
0.7083480092
 40
0.7859418359
 40
0.8615671602
 40
0.9334134958
 40
1.0
 40
1.0
 40
1.0
 40
1.0
 10
170.2147736547
 20
30.3729549831
 30
0.0
 10
170.5220251425
 20
30.5503519019
 30
0.0
 10
171.0793584947
 20
30.9340600884
 30
0.0
 10
171.7451137197
 20
31.6339915718
 30
0.0
 10
172.1665387707
 20
32.4087647045
 30
0.0
 10
172.3124427452
 20
33.2306622172
 30
0.0
 10
172.1664794183
 20
34.052563001
 30
0.0
 10
171.7450553535
 20
34.8272984191
 30
0.0
 10
171.0790515478
 20
35.5273286112
 30
0.0
 10
170.1981828259
 20
36.1338710464
 30
0.0
 10
169.1350228456
 20
36.6288544866
 30
0.0
 10
167.9281286969
 20
36.9957384301
 30
0.0
 10
166.6218777986
 20
37.2214233648
 30
0.0
 10
165.2648544842
 20
37.2975906061
 30
0.0
 10
163.9078634433
 20
37.2214195733
 30
0.0
 10
162.6015327133
 20
36.9956766428
 30
0.0
 10
161.3949419007
 20
36.6289398813
 30
0.0
 10
160.6539959727
 20
36.2839066719
 30
0.0
 10
160.3151508881
 20
36.0882755389
 30
0.0
  0
SPLINE
  5
3E5
100
AcDbEntity
  8
AXIS
100
AcDbSpline
 62
7
  6
CONTINUOUS
 70
0
 71
3
 72
15
 73
11
 74
0
 42
0.0000001
 43
0.0000001
 44
0.0000000001
 40
0.0
 40
0.0
 40
0.0
 40
0.0
 40
0.1448999384
 40
0.2745245097
 40
0.3911135648
 40
0.4999990439
 40
0.6088846966
 40
0.7254742133
 40
0.8550994059
 40
1.0
 40
1.0
 40
1.0
 40
1.0
 10
198.4988523046
 20
45.0697013137
 30
0.0
 10
198.8500050813
 20
45.2724382537
 30
0.0
 10
199.4869738116
 20
45.7109580306
 30
0.0
 10
200.2478623104
 20
46.51087648
 30
0.0
 10
200.7295173277
 20
47.3963305972
 30
0.0
 10
200.8962853266
 20
48.3356474868
 30
0.0
 10
200.7295033385
 20
49.2749630954
 30
0.0
 10
200.2478357149
 20
50.1604141189
 30
0.0
 10
199.4869360827
 20
50.9603284825
 30
0.0
 10
198.8499610287
 20
51.3988452557
 30
0.0
 10
198.4988052011
 20
51.6015805808
 30
0.0
  0
SPLINE
  5
3E6
100
AcDbEntity
  8
AXIS
100
AcDbSpline
 62
7
  6
CONTINUOUS
 70
0
 71
3
 72
9
 73
5
 74
0
 42
0.0000001
 43
0.0000001
 44
0.0000000001
 40
0.0
 40
0.0
 40
0.0
 40
0.0
 40
0.2595478042
 40
1.0
 40
1.0
 40
1.0
 40
1.0
 10
199.2059620297
 20
44.1900526688
 30
0.0
 10
199.3060422823
 20
44.2478336847
 30
0.0
 10
199.6869666182
 20
44.4783357243
 30
0.0
 10
200.0488304364
 20
44.7411911908
 30
0.0
 10
200.2994889867
 20
44.9553436708
 30
0.0
  0
SPLINE
  5
3E7
100
AcDbEntity
  8
AXIS
100
AcDbSpline
 62
7
  6
CONTINUOUS
 70
0
 71
3
 72
9
 73
5
 74
0
 42
0.0000001
 43
0.0000001
 44
0.0000000001
 40
0.0
 40
0.0
 40
0.0
 40
0.0
 40
0.2596927586
 40
1.0
 40
1.0
 40
1.0
 40
1.0
 10
200.2994889867
 20
44.9553436708
 30
0.0
 10
200.3715183844
 20
45.0168826613
 30
0.0
 10
200.6433822388
 20
45.260131465
 30
0.0
 10
200.8924679681
 20
45.529465199
 30
0.0
 10
201.0578515547
 20
45.7429740384
 30
0.0
  0
SPLINE
  5
3E8
100
AcDbEntity
  8
AXIS
100
AcDbSpline
 62
7
  6
CONTINUOUS
 70
0
 71
3
 72
15
 73
11
 74
0
 42
0.0000001
 43
0.0000001
 44
0.0000000001
 40
0.0
 40
0.0
 40
0.0
 40
0.0
 40
0.1448992281
 40
0.2745233364
 40
0.3911122955
 40
0.4999980348
 40
0.608884131
 40
0.7254740382
 40
0.8550994252
 40
1.0
 40
1.0
 40
1.0
 40
1.0
 10
127.0807147866
 20
76.5042713274
 30
0.0
 10
126.7734663021
 20
76.6816663653
 30
0.0
 10
126.2161377197
 20
77.0653702802
 30
0.0
 10
125.5503861019
 20
77.7652929105
 30
0.0
 10
125.1289576907
 20
78.5400552007
 30
0.0
 10
124.9830472311
 20
79.3619439148
 30
0.0
 10
125.1289828529
 20
80.1838303215
 30
0.0
 10
125.5504339313
 20
80.958587056
 30
0.0
 10
126.2162055858
 20
81.6585023211
 30
0.0
 10
126.7735455223
 20
82.0422008679
 30
0.0
 10
127.0807995044
 20
82.2195929783
 30
0.0
  0
SPLINE
  5
3E9
100
AcDbEntity
  8
AXIS
100
AcDbSpline
 62
7
  6
CONTINUOUS
 70
0
 71
3
 72
15
 73
11
 74
0
 42
0.0000001
 43
0.0000001
 44
0.0000000001
 40
0.0
 40
0.0
 40
0.0
 40
0.0
 40
0.1141543258
 40
0.2373258924
 40
0.3669759246
 40
0.5000005214
 40
0.6330250456
 40
0.762674866
 40
0.8858460989
 40
1.0
 40
1.0
 40
1.0
 40
1.0
 10
140.5158077391
 20
85.0773224515
 30
0.0
 10
140.1285509116
 20
85.3009002271
 30
0.0
 10
139.2817451942
 20
85.695221666
 30
0.0
 10
137.9027690587
 20
86.114343527
 30
0.0
 10
136.4098084571
 20
86.3723284384
 30
0.0
 10
134.8589439495
 20
86.4593667969
 30
0.0
 10
133.3080806815
 20
86.3723210777
 30
0.0
 10
131.815123743
 20
86.1143290774
 30
0.0
 10
130.4361535437
 20
85.6952006614
 30
0.0
 10
129.5893530146
 20
85.300874993
 30
0.0
 10
129.2020992402
 20
85.0772952567
 30
0.0
  0
SPLINE
  5
3EA
100
AcDbEntity
  8
AXIS
100
AcDbSpline
 62
7
  6
CONTINUOUS
 70
0
 71
3
 72
15
 73
11
 74
0
 42
0.0000001
 43
0.0000001
 44
0.0000000001
 40
0.0
 40
0.0
 40
0.0
 40
0.0
 40
0.1448992281
 40
0.2745233364
 40
0.3911122955
 40
0.4999980348
 40
0.608884131
 40
0.7254740382
 40
0.8550994252
 40
1.0
 40
1.0
 40
1.0
 40
1.0
 10
103.7462881586
 20
63.0322142496
 30
0.0
 10
103.4390396741
 20
63.2096092876
 30
0.0
 10
102.8817110917
 20
63.5933132025
 30
0.0
 10
102.2159594739
 20
64.2932358328
 30
0.0
 10
101.7945310627
 20
65.067998123
 30
0.0
 10
101.648620603
 20
65.8898868371
 30
0.0
 10
101.7945562249
 20
66.7117732438
 30
0.0
 10
102.2160073033
 20
67.4865299782
 30
0.0
 10
102.8817789577
 20
68.1864452433
 30
0.0
 10
103.4391188942
 20
68.5701437901
 30
0.0
 10
103.7463728763
 20
68.7475359005
 30
0.0
  0
SPLINE
  5
3EB
100
AcDbEntity
  8
0
100
AcDbSpline
 62
9
  6
CONTINUOUS
 70
0
 71
3
 72
13
 73
9
 74
0
 42
0.0000001
 43
0.0000001
 44
0.0000000001
 40
0.0
 40
0.0
 40
0.0
 40
0.0
 40
0.2334291284
 40
0.4915454084
 40
0.6255387663
 40
0.7580388671
 40
0.8843110878
 40
1.0
 40
1.0
 40
1.0
 40
1.0
 10
159.2148513433
 20
41.279853794
 30
0.0
 10
159.6141455914
 20
41.0493275884
 30
0.0
 10
160.5166385668
 20
40.6675226904
 30
0.0
 10
161.7396272064
 20
40.4320008112
 30
0.0
 10
162.7776866826
 20
40.4080145216
 30
0.0
 10
163.5518065092
 20
40.4880087836
 30
0.0
 10
164.2716924955
 20
40.6691437457
 30
0.0
 10
164.7119264237
 20
40.8636891827
 30
0.0
 10
164.9098192315
 20
40.9779391775
 30
0.0
  0
SPLINE
  5
3EC
100
AcDbEntity
  8
0
100
AcDbSpline
 62
9
  6
CONTINUOUS
 70
0
 71
3
 72
14
 73
10
 74
0
 42
0.0000001
 43
0.0000001
 44
0.0000000001
 40
0.0
 40
0.0
 40
0.0
 40
0.0
 40
0.272622687
 40
0.4004842804
 40
0.5219062922
 40
0.6379136623
 40
0.7521567135
 40
0.8711153112
 40
1.0
 40
1.0
 40
1.0
 40
1.0
 10
123.0962125416
 20
62.9282405273
 30
0.0
 10
123.0194872959
 20
63.0559078097
 30
0.0
 10
122.9197672872
 20
63.2530706364
 30
0.0
 10
122.8429971534
 20
63.5286871779
 30
0.0
 10
122.8237299428
 20
63.7287373175
 30
0.0
 10
122.8519980937
 20
63.9213204244
 30
0.0
 10
122.9387354582
 20
64.0954461673
 30
0.0
 10
123.0847248156
 20
64.2342402135
 30
0.0
 10
123.2076249048
 20
64.2951096746
 30
0.0
 10
123.2735984525
 20
64.319726896
 30
0.0
  0
SPLINE
  5
3ED
100
AcDbEntity
  8
0
100
AcDbSpline
 62
9
  6
CONTINUOUS
 70
0
 71
3
 72
15
 73
11
 74
0
 42
0.0000001
 43
0.0000001
 44
0.0000000001
 40
0.0
 40
0.0
 40
0.0
 40
0.0
 40
0.1419349843
 40
0.2654696586
 40
0.3759901167
 40
0.4832054743
 40
0.5959370311
 40
0.7189794607
 40
0.8537681747
 40
1.0
 40
1.0
 40
1.0
 40
1.0
 10
171.6448296598
 20
44.8663760504
 30
0.0
 10
171.8203193225
 20
44.9676969144
 30
0.0
 10
172.1325911402
 20
45.1893490121
 30
0.0
 10
172.4758659601
 20
45.6135514766
 30
0.0
 10
172.6333545665
 20
46.0875392278
 30
0.0
 10
172.5979453129
 20
46.5690105474
 30
0.0
 10
172.4002144057
 20
47.0245506132
 30
0.0
 10
172.0732927883
 20
47.4455812116
 30
0.0
 10
171.639341395
 20
47.8293884527
 30
0.0
 10
171.3026494709
 20
48.0499362596
 30
0.0
 10
171.1218433078
 20
48.1543177749
 30
0.0
  0
SPLINE
  5
3EE
100
AcDbEntity
  8
AXIS
100
AcDbSpline
 62
7
  6
CONTINUOUS
 70
0
 71
3
 72
15
 73
11
 74
0
 42
0.0000001
 43
0.0000001
 44
0.0000000001
 40
0.0
 40
0.0
 40
0.0
 40
0.0
 40
0.1448999384
 40
0.2745245097
 40
0.3911135648
 40
0.4999990439
 40
0.6088846966
 40
0.7254742133
 40
0.8550994059
 40
1.0
 40
1.0
 40
1.0
 40
1.0
 10
102.332153426
 20
69.5640174096
 30
0.0
 10
101.9810006494
 20
69.3612804696
 30
0.0
 10
101.344031919
 20
68.9227606927
 30
0.0
 10
100.5831434203
 20
68.1228422433
 30
0.0
 10
100.101488403
 20
67.2373881261
 30
0.0
 10
99.934720404
 20
66.2980712365
 30
0.0
 10
100.1015023922
 20
65.3587556278
 30
0.0
 10
100.5831700157
 20
64.4733046044
 30
0.0
 10
101.344069648
 20
63.6733902408
 30
0.0
 10
101.9810447019
 20
63.2348734675
 30
0.0
 10
102.3322005295
 20
63.0321381424
 30
0.0
  0
SPLINE
  5
3EF
100
AcDbEntity
  8
AXIS
100
AcDbSpline
 62
7
  6
CONTINUOUS
 70
0
 71
3
 72
23
 73
19
 74
0
 42
0.0000001
 43
0.0000001
 44
0.0000000001
 40
0.0
 40
0.0
 40
0.0
 40
0.0
 40
0.0665865042
 40
0.1384328398
 40
0.2140581641
 40
0.2916519908
 40
0.3692459042
 40
0.4448714822
 40
0.5167182171
 40
0.5833052299
 40
0.6436849274
 40
0.6976994554
 40
0.746282021
 40
0.7916542667
 40
0.8370262116
 40
0.8856079782
 40
0.9396214271
 40
1.0
 40
1.0
 40
1.0
 40
1.0
 10
103.7463728763
 20
68.7475359005
 30
0.0
 10
104.0852179609
 20
68.9431670336
 30
0.0
 10
104.826163889
 20
69.288200243
 30
0.0
 10
106.0327547015
 20
69.6549370044
 30
0.0
 10
107.3390854315
 20
69.8806799349
 30
0.0
 10
108.6960764724
 20
69.9568509678
 30
0.0
 10
110.0530997868
 20
69.8806837264
 30
0.0
 10
111.3593506851
 20
69.6549987917
 30
0.0
 10
112.5662448339
 20
69.2881148482
 30
0.0
 10
113.6294048141
 20
68.793131408
 30
0.0
 10
114.510273536
 20
68.1865889729
 30
0.0
 10
115.1762773418
 20
67.4865587807
 30
0.0
 10
115.5977014066
 20
66.7118233627
 30
0.0
 10
115.7436647335
 20
65.8899225788
 30
0.0
 10
115.5977607589
 20
65.0680250661
 30
0.0
 10
115.1763357079
 20
64.2932519335
 30
0.0
 10
114.510580483
 20
63.59332045
 30
0.0
 10
113.9532471307
 20
63.2096122635
 30
0.0
 10
113.6459956429
 20
63.0322153447
 30
0.0
  0
SPLINE
  5
3F0
100
AcDbEntity
  8
AXIS
100
AcDbSpline
 62
7
  6
CONTINUOUS
 70
0
 71
3
 72
23
 73
19
 74
0
 42
0.0000001
 43
0.0000001
 44
0.0000000001
 40
0.0
 40
0.0
 40
0.0
 40
0.0
 40
0.0665865042
 40
0.1384328398
 40
0.2140581641
 40
0.2916519908
 40
0.3692459042
 40
0.4448714822
 40
0.5167182171
 40
0.5833052299
 40
0.6436849274
 40
0.6976994554
 40
0.746282021
 40
0.7916542667
 40
0.8370262116
 40
0.8856079782
 40
0.9396214271
 40
1.0
 40
1.0
 40
1.0
 40
1.0
 10
127.0807995044
 20
82.2195929783
 30
0.0
 10
127.419644589
 20
82.4152241113
 30
0.0
 10
128.160590517
 20
82.7602573207
 30
0.0
 10
129.3671813296
 20
83.1269940822
 30
0.0
 10
130.6735120596
 20
83.3527370127
 30
0.0
 10
132.0305031005
 20
83.4289080455
 30
0.0
 10
133.3875264149
 20
83.3527408042
 30
0.0
 10
134.6937773132
 20
83.1270558694
 30
0.0
 10
135.9006714619
 20
82.7601719259
 30
0.0
 10
136.9638314422
 20
82.2651884858
 30
0.0
 10
137.8447001641
 20
81.6586460506
 30
0.0
 10
138.5107039698
 20
80.9586158585
 30
0.0
 10
138.9321280346
 20
80.1838804404
 30
0.0
 10
139.0780913615
 20
79.3619796566
 30
0.0
 10
138.932187387
 20
78.5400821439
 30
0.0
 10
138.510762336
 20
77.7653090112
 30
0.0
 10
137.845007111
 20
77.0653775278
 30
0.0
 10
137.2876737588
 20
76.6816693412
 30
0.0
 10
136.980422271
 20
76.5042724225
 30
0.0
  0
SPLINE
  5
3F1
100
AcDbEntity
  8
AXIS
100
AcDbSpline
 62
7
  6
CONTINUOUS
 70
0
 71
3
 72
9
 73
5
 74
0
 42
0.0000001
 43
0.0000001
 44
0.0000000001
 40
0.0
 40
0.0
 40
0.0
 40
0.0
 40
0.240845589
 40
1.0
 40
1.0
 40
1.0
 40
1.0
 10
99.7731541756
 20
63.7054380619
 30
0.0
 10
99.8269613202
 20
63.6359734828
 30
0.0
 10
100.0585921636
 20
63.353952006
 30
0.0
 10
100.3209449341
 20
63.0977116677
 30
0.0
 10
100.5315170815
 20
62.9178073981
 30
0.0
  0
SPLINE
  5
3F2
100
AcDbEntity
  8
AXIS
100
AcDbSpline
 62
7
  6
CONTINUOUS
 70
0
 71
3
 72
9
 73
5
 74
0
 42
0.0000001
 43
0.0000001
 44
0.0000000001
 40
0.0
 40
0.0
 40
0.0
 40
0.0
 40
0.2405553191
 40
1.0
 40
1.0
 40
1.0
 40
1.0
 10
100.5315170815
 20
62.9178073981
 30
0.0
 10
100.6129570862
 20
62.8482283737
 30
0.0
 10
100.9589796408
 20
62.5677696692
 30
0.0
 10
101.3322324851
 20
62.321567502
 30
0.0
 10
101.6250966923
 20
62.1524860982
 30
0.0
  0
SPLINE
  5
3F3
100
AcDbEntity
  8
0
100
AcDbSpline
 62
9
  6
CONTINUOUS
 70
0
 71
3
 72
16
 73
12
 74
0
 42
0.0000001
 43
0.0000001
 44
0.0000000001
 40
0.0
 40
0.0
 40
0.0
 40
0.0
 40
0.0558194889
 40
0.114571793
 40
0.2393079263
 40
0.3693415377
 40
0.4996516377
 40
0.6282333869
 40
0.7545207604
 40
0.8784272782
 40
1.0
 40
1.0
 40
1.0
 40
1.0
 10
130.0086088807
 20
68.208163769
 30
0.0
 10
130.0605558332
 20
68.2505719469
 30
0.0
 10
130.1766358536
 20
68.3266800638
 30
0.0
 10
130.4459963265
 20
68.4322636984
 30
0.0
 10
130.8290884913
 20
68.4642418927
 30
0.0
 10
131.2870365334
 20
68.3786021171
 30
0.0
 10
131.7247577816
 20
68.2096803012
 30
0.0
 10
132.1308271208
 20
67.9855442859
 30
0.0
 10
132.5036148648
 20
67.7233036819
 30
0.0
 10
132.8446528857
 20
67.4341487118
 30
0.0
 10
133.0535525117
 20
67.2254286924
 30
0.0
 10
133.152393333
 20
67.1179028542
 30
0.0
  0
SPLINE
  5
3F4
100
AcDbEntity
  8
0
100
AcDbSpline
 62
9
  6
CONTINUOUS
 70
0
 71
3
 72
10
 73
6
 74
0
 42
0.0000001
 43
0.0000001
 44
0.0000000001
 40
0.0
 40
0.0
 40
0.0
 40
0.0
 40
0.2279995963
 40
0.4765542905
 40
1.0
 40
1.0
 40
1.0
 40
1.0
 10
128.8501481269
 20
69.5733380071
 30
0.0
 10
128.9695242252
 20
69.5044177438
 30
0.0
 10
129.203809557
 20
69.3331632832
 30
0.0
 10
129.6274475893
 20
68.8997621305
 30
0.0
 10
129.8789479456
 20
68.4968441685
 30
0.0
 10
130.0086088807
 20
68.2081637689
 30
0.0
  0
SPLINE
  5
3F5
100
AcDbEntity
  8
0
100
AcDbSpline
 62
9
  6
CONTINUOUS
 70
0
 71
3
 72
10
 73
6
 74
0
 42
0.0000001
 43
0.0000001
 44
0.0000000001
 40
0.0
 40
0.0
 40
0.0
 40
0.0
 40
0.2279995913
 40
0.4765542862
 40
1.0
 40
1.0
 40
1.0
 40
1.0
 10
122.1151376987
 20
65.6849011342
 30
0.0
 10
122.2345137874
 20
65.6159808623
 30
0.0
 10
122.4687991035
 20
65.44472639
 30
0.0
 10
122.8924371271
 20
65.011325236
 30
0.0
 10
123.1439374984
 20
64.6084072876
 30
0.0
 10
123.2735984525
 20
64.319726896
 30
0.0
  0
SPLINE
  5
3F6
100
AcDbEntity
  8
0
100
AcDbSpline
 62
9
  6
CONTINUOUS
 70
0
 71
3
 72
11
 73
7
 74
0
 42
0.0000001
 43
0.0000001
 44
0.0000000001
 40
0.0
 40
0.0
 40
0.0
 40
0.0
 40
0.2327117367
 40
0.4901131844
 40
0.7527949756
 40
1.0
 40
1.0
 40
1.0
 40
1.0
 10
171.1218433075
 20
48.154317775
 30
0.0
 10
170.9446690163
 20
48.052026761
 30
0.0
 10
170.6052441228
 20
47.7773688841
 30
0.0
 10
170.1914455822
 20
47.2556722486
 30
0.0
 10
169.8808643412
 20
46.6523010514
 30
0.0
 10
169.7593218645
 20
46.216012868
 30
0.0
 10
169.7291206256
 20
46.0007972385
 30
0.0
  0
SPLINE
  5
3F7
100
AcDbEntity
  8
0
100
AcDbSpline
 62
9
  6
CONTINUOUS
 70
0
 71
3
 72
11
 73
7
 74
0
 42
0.0000001
 43
0.0000001
 44
0.0000000001
 40
0.0
 40
0.0
 40
0.0
 40
0.0
 40
0.2327117347
 40
0.4901131836
 40
0.7527949763
 40
1.0
 40
1.0
 40
1.0
 40
1.0
 10
134.5451160154
 20
69.2714233904
 30
0.0
 10
134.3679417317
 20
69.1691323693
 30
0.0
 10
134.0285168515
 20
68.8944744833
 30
0.0
 10
133.614718319
 20
68.3727778472
 30
0.0
 10
133.3041370717
 20
67.769406657
 30
0.0
 10
133.182594581
 20
67.3331184805
 30
0.0
 10
133.152393333
 20
67.1179028542
 30
0.0
  0
SPLINE
  5
3F8
100
AcDbEntity
  8
0
100
AcDbSpline
 62
9
  6
CONTINUOUS
 70
0
 71
3
 72
11
 73
7
 74
0
 42
0.0000001
 43
0.0000001
 44
0.0000000001
 40
0.0
 40
0.0
 40
0.0
 40
0.0
 40
0.2897275528
 40
0.5490435462
 40
0.7821532675
 40
1.0
 40
1.0
 40
1.0
 40
1.0
 10
164.9098192316
 20
40.9779391775
 30
0.0
 10
164.8220533478
 20
41.0286096878
 30
0.0
 10
164.6474996335
 20
41.1116880821
 30
0.0
 10
164.3791798342
 20
41.1764252335
 30
0.0
 10
164.1274168794
 20
41.1701227725
 30
0.0
 10
163.9758154882
 20
41.1150862293
 30
0.0
 10
163.9098373584
 20
41.0769640889
 30
0.0
  0
SPLINE
  5
3F9
100
AcDbEntity
  8
0
100
AcDbSpline
 62
9
  6
CONTINUOUS
 70
0
 71
3
 72
11
 73
7
 74
0
 42
0.0000001
 43
0.0000001
 44
0.0000000001
 40
0.0
 40
0.0
 40
0.0
 40
0.0
 40
0.2897564008
 40
0.5490647256
 40
0.7822158559
 40
1.0
 40
1.0
 40
1.0
 40
1.0
 10
122.638124051
 20
62.3969594095
 30
0.0
 10
122.7258935252
 20
62.4476328366
 30
0.0
 10
122.9004431809
 20
62.5307095883
 30
0.0
 10
123.1687684701
 20
62.5954650506
 30
0.0
 10
123.420508079
 20
62.5891259202
 30
0.0
 10
123.5720929027
 20
62.5341153299
 30
0.0
 10
123.6380586946
 20
62.4960238983
 30
0.0
  0
SPLINE
  5
3FA
100
AcDbEntity
  8
0
100
AcDbSpline
 62
9
  6
CONTINUOUS
 70
0
 71
3
 72
11
 73
7
 74
0
 42
0.0000001
 43
0.0000001
 44
0.0000000001
 40
0.0
 40
0.0
 40
0.0
 40
0.0
 40
0.2897577288
 40
0.5490656736
 40
0.7822157319
 40
1.0
 40
1.0
 40
1.0
 40
1.0
 10
159.2148513431
 20
41.2798537941
 30
0.0
 10
159.3026250372
 20
41.3305296632
 30
0.0
 10
159.4771830159
 20
41.4136096076
 30
0.0
 10
159.7455213181
 20
41.4783635566
 30
0.0
 10
159.9972717448
 20
41.4720151397
 30
0.0
 10
160.148859921
 20
41.4169928595
 30
0.0
 10
160.2148259856
 20
41.378895184
 30
0.0
  0
SPLINE
  5
3FB
100
AcDbEntity
  8
0
100
AcDbSpline
 62
9
  6
CONTINUOUS
 70
0
 71
3
 72
11
 73
7
 74
0
 42
0.0000001
 43
0.0000001
 44
0.0000000001
 40
0.0
 40
0.0
 40
0.0
 40
0.0
 40
0.2897176105
 40
0.5490365022
 40
0.7821543561
 40
1.0
 40
1.0
 40
1.0
 40
1.0
 10
171.6448296598
 20
44.8663760504
 30
0.0
 10
171.5570954713
 20
44.9170282721
 30
0.0
 10
171.3826042502
 20
45.0000827636
 30
0.0
 10
171.1143820834
 20
45.0648313114
 30
0.0
 10
170.862700395
 20
45.0585984324
 30
0.0
 10
170.7111242072
 20
45.003649701
 30
0.0
 10
170.6451482015
 20
44.9655744375
 30
0.0
  0
SPLINE
  5
3FC
100
AcDbEntity
  8
CURVES
100
AcDbSpline
 62
40
  6
CONTINUOUS
 70
0
 71
3
 72
73
 73
69
 74
0
 42
0.0000001
 43
0.0000001
 44
0.0000000001
 40
0.0
 40
0.0
 40
0.0
 40
0.0
 40
0.03125
 40
0.0625
 40
0.078125
 40
0.09375
 40
0.109375
 40
0.1171875
 40
0.12109375
 40
0.125
 40
0.12890625
 40
0.1328125
 40
0.140625
 40
0.15625
 40
0.1875
 40
0.21875
 40
0.234375
 40
0.2421875
 40
0.25
 40
0.2578125
 40
0.265625
 40
0.28125
 40
0.3125
 40
0.34375
 40
0.359375
 40
0.3671875
 40
0.375
 40
0.3828125
 40
0.390625
 40
0.40625
 40
0.4375
 40
0.46875
 40
0.484375
 40
0.4921875
 40
0.5
 40
0.5078125
 40
0.515625
 40
0.53125
 40
0.5625
 40
0.59375
 40
0.609375
 40
0.6171875
 40
0.625
 40
0.6328125
 40
0.640625
 40
0.65625
 40
0.6875
 40
0.71875
 40
0.734375
 40
0.7421875
 40
0.75
 40
0.7578125
 40
0.765625
 40
0.78125
 40
0.8125
 40
0.84375
 40
0.859375
 40
0.8671875
 40
0.87109375
 40
0.875
 40
0.87890625
 40
0.8828125
 40
0.890625
 40
0.90625
 40
0.921875
 40
0.9375
 40
0.96875
 40
1.0
 40
1.0
 40
1.0
 40
1.0
 10
160.3151979916
 20
29.5563962718
 30
0.0
 10
160.4157391125
 20
29.5087166507
 30
0.0
 10
160.6168244117
 20
29.4133600452
 30
0.0
 10
160.8681657495
 20
29.2941511051
 30
0.0
 10
161.0692709205
 20
29.1988116377
 30
0.0
 10
161.2200126682
 20
29.1272318931
 30
0.0
 10
161.3459078514
 20
29.0678210509
 30
0.0
 10
161.4334907729
 20
29.0257645525
 30
0.0
 10
161.4843871072
 20
29.0024644279
 30
0.0
 10
161.5201678509
 20
28.9829268279
 30
0.0
 10
161.5650901476
 20
28.9712731741
 30
0.0
 10
161.6217982608
 20
28.9529853562
 30
0.0
 10
161.7225189878
 20
28.9222587985
 30
0.0
 10
161.9229205779
 20
28.8599156658
 30
0.0
 10
162.2096558031
 20
28.7711849189
 30
0.0
 10
162.4965827643
 20
28.6828259583
 30
0.0
 10
162.6967159241
 20
28.6199623246
 30
0.0
 10
162.8122471455
 20
28.5856641888
 30
0.0
 10
162.8955918036
 20
28.5553580113
 30
0.0
 10
162.9915667853
 20
28.5425701659
 30
0.0
 10
163.1151268849
 20
28.5194072865
 30
0.0
 10
163.3334196242
 20
28.4817384826
 30
0.0
 10
163.6441118015
 20
28.4262797479
 30
0.0
 10
163.955493656
 20
28.3719461487
 30
0.0
 10
164.1728208472
 20
28.332702155
 30
0.0
 10
164.2978982366
 20
28.3120145739
 30
0.0
 10
164.3892178976
 20
28.2916320631
 30
0.0
 10
164.490045871
 20
28.2898480733
 30
0.0
 10
164.6211668214
 20
28.2809801479
 30
0.0
 10
164.8521710399
 20
28.2685038152
 30
0.0
 10
165.1813914674
 20
28.2489363664
 30
0.0
 10
165.5108160898
 20
28.2305500749
 30
0.0
 10
165.7415344355
 20
28.216420122
 30
0.0
 10
165.8731046144
 20
28.2101507426
 30
0.0
 10
165.9725542733
 20
28.2003939408
 30
0.0
 10
166.0690502712
 20
28.2099537684
 30
0.0
 10
166.1987424915
 20
28.2159605139
 30
0.0
 10
166.4252173487
 20
28.2296308737
 30
0.0
 10
166.7490572642
 20
28.2473604716
 30
0.0
 10
167.0726062796
 20
28.2662717244
 30
0.0
 10
167.2994883969
 20
28.2782877672
 30
0.0
 10
167.4285406371
 20
28.2868941538
 30
0.0
 10
167.5270002102
 20
28.2884778099
 30
0.0
 10
167.6190755535
 20
28.308675963
 30
0.0
 10
167.744070786
 20
28.3291121587
 30
0.0
 10
167.961762113
 20
28.3679188505
 30
0.0
 10
168.2733971446
 20
28.4216261624
 30
0.0
 10
168.5844431181
 20
28.4764598952
 30
0.0
 10
168.8029591265
 20
28.5136895978
 30
0.0
 10
168.9266584311
 20
28.5366039193
 30
0.0
 10
169.0227099167
 20
28.5491987321
 30
0.0
 10
169.1062368665
 20
28.5793371549
 30
0.0
 10
169.2219743189
 20
28.6134028435
 30
0.0
 10
169.4224847836
 20
28.6758633526
 30
0.0
 10
169.7099482671
 20
28.7636479699
 30
0.0
 10
169.9971987139
 20
28.8517912097
 30
0.0
 10
170.19800743
 20
28.9137496472
 30
0.0
 10
170.2988676051
 20
28.9442474731
 30
0.0
 10
170.3557586755
 20
28.9624631657
 30
0.0
 10
170.400526691
 20
28.9738973855
 30
0.0
 10
170.4372675133
 20
28.9938476221
 30
0.0
 10
170.4890552514
 20
29.0174774555
 30
0.0
 10
170.5783792326
 20
29.060213667
 30
0.0
 10
170.7066669608
 20
29.1205418232
 30
0.0
 10
170.860320291
 20
29.1932453326
 30
0.0
 10
171.0652934104
 20
29.2900751204
 30
0.0
 10
171.3214745751
 20
29.4111497354
 30
0.0
 10
171.526430245
 20
29.5079980354
 30
0.0
 10
171.6289067377
 20
29.5564236093
 30
0.0
  0
SPLINE
  5
3FD
100
AcDbEntity
  8
CURVES
100
AcDbSpline
 62
40
  6
CONTINUOUS
 70
0
 71
3
 72
95
 73
91
 74
0
 42
0.0000001
 43
0.0000001
 44
0.0000000001
 40
0.0
 40
0.0
 40
0.0
 40
0.0
 40
0.03125
 40
0.0625
 40
0.078125
 40
0.09375
 40
0.109375
 40
0.1171875
 40
0.12109375
 40
0.125
 40
0.12890625
 40
0.1328125
 40
0.140625
 40
0.15625
 40
0.171875
 40
0.1875
 40
0.203125
 40
0.21875
 40
0.234375
 40
0.2421875
 40
0.24609375
 40
0.25
 40
0.25390625
 40
0.2578125
 40
0.265625
 40
0.28125
 40
0.296875
 40
0.3125
 40
0.328125
 40
0.34375
 40
0.359375
 40
0.3671875
 40
0.37109375
 40
0.375
 40
0.37890625
 40
0.3828125
 40
0.390625
 40
0.40625
 40
0.421875
 40
0.4375
 40
0.453125
 40
0.46875
 40
0.484375
 40
0.4921875
 40
0.49609375
 40
0.5
 40
0.50390625
 40
0.5078125
 40
0.515625
 40
0.53125
 40
0.546875
 40
0.5625
 40
0.578125
 40
0.59375
 40
0.609375
 40
0.6171875
 40
0.62109375
 40
0.625
 40
0.62890625
 40
0.6328125
 40
0.640625
 40
0.65625
 40
0.671875
 40
0.6875
 40
0.703125
 40
0.71875
 40
0.734375
 40
0.7421875
 40
0.74609375
 40
0.75
 40
0.75390625
 40
0.7578125
 40
0.765625
 40
0.78125
 40
0.796875
 40
0.8125
 40
0.828125
 40
0.84375
 40
0.859375
 40
0.8671875
 40
0.87109375
 40
0.875
 40
0.87890625
 40
0.8828125
 40
0.890625
 40
0.90625
 40
0.921875
 40
0.9375
 40
0.96875
 40
1.0
 40
1.0
 40
1.0
 40
1.0
 10
102.332153426
 20
69.5640174096
 30
0.0
 10
102.2495687192
 20
69.5059707962
 30
0.0
 10
102.0844038725
 20
69.3898758043
 30
0.0
 10
101.8779249797
 20
69.2447658898
 30
0.0
 10
101.7127898178
 20
69.1286594249
 30
0.0
 10
101.5888082898
 20
69.0416298809
 30
0.0
 10
101.485904225
 20
68.9689453009
 30
0.0
 10
101.4130591852
 20
68.9183800026
 30
0.0
 10
101.3727016189
 20
68.8889954069
 30
0.0
 10
101.3388609877
 20
68.8683376907
 30
0.0
 10
101.3186760972
 20
68.8424021222
 30
0.0
 10
101.2869996247
 20
68.8096623409
 30
0.0
 10
101.2337851987
 20
68.7515099516
 30
0.0
 10
101.1566034749
 20
68.6688837785
 30
0.0
 10
101.064485843
 20
68.5695393825
 30
0.0
 10
100.9722242485
 20
68.4702490699
 30
0.0
 10
100.8800380681
 20
68.3709354118
 30
0.0
 10
100.787694194
 20
68.2716610524
 30
0.0
 10
100.7112037659
 20
68.1888208784
 30
0.0
 10
100.6567575765
 20
68.1310497999
 30
0.0
 10
100.6270544392
 20
68.0976991431
 30
0.0
 10
100.600808142
 20
68.0736399739
 30
0.0
 10
100.5897331363
 20
68.0459348174
 30
0.0
 10
100.5696745352
 20
68.010266372
 30
0.0
 10
100.5370376951
 20
67.9472540348
 30
0.0
 10
100.4891236909
 20
67.8575463643
 30
0.0
 10
100.4321827183
 20
67.749763798
 30
0.0
 10
100.3750823312
 20
67.6420187517
 30
0.0
 10
100.3180637693
 20
67.5342569869
 30
0.0
 10
100.2608773213
 20
67.4265245765
 30
0.0
 10
100.2137133805
 20
67.3366636517
 30
0.0
 10
100.1797400639
 20
67.2739243857
 30
0.0
 10
100.1618225527
 20
67.2378184691
 30
0.0
 10
100.1441708554
 20
67.2114570736
 30
0.0
 10
100.142625507
 20
67.1823509642
 30
0.0
 10
100.1349469567
 20
67.1445002054
 30
0.0
 10
100.1241271735
 20
67.0778153128
 30
0.0
 10
100.1073009056
 20
66.9827843907
 30
0.0
 10
100.0876994028
 20
66.8686474513
 30
0.0
 10
100.0679289207
 20
66.7545367075
 30
0.0
 10
100.0482443369
 20
66.6404210139
 30
0.0
 10
100.0283851394
 20
66.5262989238
 30
0.0
 10
100.012346272
 20
66.4312226287
 30
0.0
 10
100.0001234843
 20
66.3646185827
 30
0.0
 10
99.9946926044
 20
66.3266383042
 30
0.0
 10
99.9862431856
 20
66.2979300348
 30
0.0
 10
99.9945220171
 20
66.2700744193
 30
0.0
 10
99.9997254473
 20
66.2326361824
 30
0.0
 10
100.011550198
 20
66.16725785
 30
0.0
 10
100.0270204408
 20
66.0737876952
 30
0.0
 10
100.0461972912
 20
65.9616549286
 30
0.0
 10
100.0651995182
 20
65.8495125444
 30
0.0
 10
100.0842876796
 20
65.7373772118
 30
0.0
 10
100.1032067268
 20
65.6252232903
 30
0.0
 10
100.1194647017
 20
65.5318177757
 30
0.0
 10
100.1298858568
 20
65.4663242661
 30
0.0
 10
100.1373379045
 20
65.4290705479
 30
0.0
 10
100.1387097565
 20
65.4006481542
 30
0.0
 10
100.1562017927
 20
65.3740686086
 30
0.0
 10
100.1739015966
 20
65.3379864064
 30
0.0
 10
100.2074961738
 20
65.2751420697
 30
0.0
 10
100.2541178819
 20
65.1852076861
 30
0.0
 10
100.3106541588
 20
65.0773542619
 30
0.0
 10
100.3670223992
 20
64.9694803088
 30
0.0
 10
100.4234725583
 20
64.8616206351
 30
0.0
 10
100.4797630794
 20
64.7537243726
 30
0.0
 10
100.5271357078
 20
64.6639208837
 30
0.0
 10
100.5593922817
 20
64.6008433164
 30
0.0
 10
100.5792356216
 20
64.5651347592
 30
0.0
 10
100.5901434523
 20
64.5374075046
 30
0.0
 10
100.616244474
 20
64.5132957132
 30
0.0
 10
100.6457462713
 20
64.479885541
 30
0.0
 10
100.6998436804
 20
64.4220053464
 30
0.0
 10
100.7758339433
 20
64.3390119135
 30
0.0
 10
100.8675786278
 20
64.2395524076
 30
0.0
 10
100.9591646362
 20
64.1400543526
 30
0.0
 10
101.0508289801
 20
64.0405778802
 30
0.0
 10
101.1423386582
 20
63.9410536265
 30
0.0
 10
101.2190469963
 20
63.8582580341
 30
0.0
 10
101.2718649261
 20
63.8000253239
 30
0.0
 10
101.3034165015
 20
63.767179896
 30
0.0
 10
101.3232213098
 20
63.7413334041
 30
0.0
 10
101.3577766604
 20
63.7201213932
 30
0.0
 10
101.3987053068
 20
63.690222153
 30
0.0
 10
101.4727276613
 20
63.6386516676
 30
0.0
 10
101.5772205831
 20
63.564585771
 30
0.0
 10
101.7031485567
 20
63.475875248
 30
0.0
 10
101.8708650661
 20
63.357535654
 30
0.0
 10
102.080575449
 20
63.2096315041
 30
0.0
 10
102.2483240232
 20
63.0913019845
 30
0.0
 10
102.3322007768
 20
63.0321379997
 30
0.0
  0
SPLINE
  5
3FE
100
AcDbEntity
  8
CURVES
100
AcDbSpline
 62
40
  6
CONTINUOUS
 70
0
 71
3
 72
73
 73
69
 74
0
 42
0.0000001
 43
0.0000001
 44
0.0000000001
 40
0.0
 40
0.0
 40
0.0
 40
0.0
 40
0.03125
 40
0.0625
 40
0.078125
 40
0.09375
 40
0.109375
 40
0.1171875
 40
0.12109375
 40
0.125
 40
0.12890625
 40
0.1328125
 40
0.140625
 40
0.15625
 40
0.1875
 40
0.21875
 40
0.234375
 40
0.2421875
 40
0.25
 40
0.2578125
 40
0.265625
 40
0.28125
 40
0.3125
 40
0.34375
 40
0.359375
 40
0.3671875
 40
0.375
 40
0.3828125
 40
0.390625
 40
0.40625
 40
0.4375
 40
0.46875
 40
0.484375
 40
0.4921875
 40
0.5
 40
0.5078125
 40
0.515625
 40
0.53125
 40
0.5625
 40
0.59375
 40
0.609375
 40
0.6171875
 40
0.625
 40
0.6328125
 40
0.640625
 40
0.65625
 40
0.6875
 40
0.71875
 40
0.734375
 40
0.7421875
 40
0.75
 40
0.7578125
 40
0.765625
 40
0.78125
 40
0.8125
 40
0.84375
 40
0.859375
 40
0.8671875
 40
0.87109375
 40
0.875
 40
0.87890625
 40
0.8828125
 40
0.890625
 40
0.90625
 40
0.921875
 40
0.9375
 40
0.96875
 40
1.0
 40
1.0
 40
1.0
 40
1.0
 10
140.5158077391
 20
85.0773224515
 30
0.0
 10
140.4152666181
 20
85.1250020726
 30
0.0
 10
140.214181319
 20
85.2203586781
 30
0.0
 10
139.9628399811
 20
85.3395676181
 30
0.0
 10
139.7617348101
 20
85.4349070855
 30
0.0
 10
139.6109930625
 20
85.5064868301
 30
0.0
 10
139.4850978793
 20
85.5658976724
 30
0.0
 10
139.3975149578
 20
85.6079541707
 30
0.0
 10
139.3466186234
 20
85.6312542953
 30
0.0
 10
139.3108378797
 20
85.6507918954
 30
0.0
 10
139.2659155831
 20
85.6624455491
 30
0.0
 10
139.2092074698
 20
85.6807333671
 30
0.0
 10
139.1084867429
 20
85.7114599247
 30
0.0
 10
138.9080851527
 20
85.7738030575
 30
0.0
 10
138.6213499275
 20
85.8625338044
 30
0.0
 10
138.3344229664
 20
85.950892765
 30
0.0
 10
138.1342898065
 20
86.0137563986
 30
0.0
 10
138.0187585852
 20
86.0480545345
 30
0.0
 10
137.935413927
 20
86.0783607119
 30
0.0
 10
137.8394389453
 20
86.0911485574
 30
0.0
 10
137.7158788457
 20
86.1143114367
 30
0.0
 10
137.4975861064
 20
86.1519802407
 30
0.0
 10
137.1868939291
 20
86.2074389754
 30
0.0
 10
136.8755120747
 20
86.2617725745
 30
0.0
 10
136.6581848834
 20
86.3010165683
 30
0.0
 10
136.5331074941
 20
86.3217041493
 30
0.0
 10
136.441787833
 20
86.3420866601
 30
0.0
 10
136.3409598596
 20
86.3438706499
 30
0.0
 10
136.2098389092
 20
86.3527385754
 30
0.0
 10
135.9788346907
 20
86.3652149081
 30
0.0
 10
135.6496142632
 20
86.3847823569
 30
0.0
 10
135.3201896409
 20
86.4031686484
 30
0.0
 10
135.0894712951
 20
86.4172986013
 30
0.0
 10
134.9579011162
 20
86.4235679806
 30
0.0
 10
134.8584514574
 20
86.4333247824
 30
0.0
 10
134.7619554594
 20
86.4237649549
 30
0.0
 10
134.6322632392
 20
86.4177582093
 30
0.0
 10
134.4057883819
 20
86.4040878495
 30
0.0
 10
134.0819484665
 20
86.3863582517
 30
0.0
 10
133.758399451
 20
86.3674469989
 30
0.0
 10
133.5315173337
 20
86.3554309561
 30
0.0
 10
133.4024650935
 20
86.3468245695
 30
0.0
 10
133.3040055205
 20
86.3452409134
 30
0.0
 10
133.2119301771
 20
86.3250427602
 30
0.0
 10
133.0869349447
 20
86.3046065645
 30
0.0
 10
132.8692436176
 20
86.2657998728
 30
0.0
 10
132.557608586
 20
86.2120925608
 30
0.0
 10
132.2465626125
 20
86.1572588281
 30
0.0
 10
132.0280466042
 20
86.1200291254
 30
0.0
 10
131.9043472996
 20
86.097114804
 30
0.0
 10
131.8082958139
 20
86.0845199911
 30
0.0
 10
131.7247688641
 20
86.0543815683
 30
0.0
 10
131.6090314117
 20
86.0203158797
 30
0.0
 10
131.408520947
 20
85.9578553707
 30
0.0
 10
131.1210574635
 20
85.8700707534
 30
0.0
 10
130.8338070168
 20
85.7819275136
 30
0.0
 10
130.6329983006
 20
85.7199690761
 30
0.0
 10
130.5321381255
 20
85.6894712502
 30
0.0
 10
130.4752470552
 20
85.6712555576
 30
0.0
 10
130.4304790397
 20
85.6598213378
 30
0.0
 10
130.3937382173
 20
85.6398711012
 30
0.0
 10
130.3419504792
 20
85.6162412677
 30
0.0
 10
130.2526264981
 20
85.5735050563
 30
0.0
 10
130.1243387698
 20
85.5131769
 30
0.0
 10
129.9706854396
 20
85.4404733907
 30
0.0
 10
129.7657123202
 20
85.3436436028
 30
0.0
 10
129.5095311555
 20
85.2225689878
 30
0.0
 10
129.3045754856
 20
85.1257206879
 30
0.0
 10
129.2020989929
 20
85.0772951139
 30
0.0
  0
SPLINE
  5
3FF
100
AcDbEntity
  8
CURVES
100
AcDbSpline
 62
40
  6
CONTINUOUS
 70
0
 71
3
 72
95
 73
91
 74
0
 42
0.0000001
 43
0.0000001
 44
0.0000000001
 40
0.0
 40
0.0
 40
0.0
 40
0.0
 40
0.03125
 40
0.0625
 40
0.078125
 40
0.09375
 40
0.109375
 40
0.1171875
 40
0.12109375
 40
0.125
 40
0.12890625
 40
0.1328125
 40
0.140625
 40
0.15625
 40
0.171875
 40
0.1875
 40
0.203125
 40
0.21875
 40
0.234375
 40
0.2421875
 40
0.24609375
 40
0.25
 40
0.25390625
 40
0.2578125
 40
0.265625
 40
0.28125
 40
0.296875
 40
0.3125
 40
0.328125
 40
0.34375
 40
0.359375
 40
0.3671875
 40
0.37109375
 40
0.375
 40
0.37890625
 40
0.3828125
 40
0.390625
 40
0.40625
 40
0.421875
 40
0.4375
 40
0.453125
 40
0.46875
 40
0.484375
 40
0.4921875
 40
0.49609375
 40
0.5
 40
0.50390625
 40
0.5078125
 40
0.515625
 40
0.53125
 40
0.546875
 40
0.5625
 40
0.578125
 40
0.59375
 40
0.609375
 40
0.6171875
 40
0.62109375
 40
0.625
 40
0.62890625
 40
0.6328125
 40
0.640625
 40
0.65625
 40
0.671875
 40
0.6875
 40
0.703125
 40
0.71875
 40
0.734375
 40
0.7421875
 40
0.74609375
 40
0.75
 40
0.75390625
 40
0.7578125
 40
0.765625
 40
0.78125
 40
0.796875
 40
0.8125
 40
0.828125
 40
0.84375
 40
0.859375
 40
0.8671875
 40
0.87109375
 40
0.875
 40
0.87890625
 40
0.8828125
 40
0.890625
 40
0.90625
 40
0.921875
 40
0.9375
 40
0.96875
 40
1.0
 40
1.0
 40
1.0
 40
1.0
 10
198.4988523046
 20
45.0697013137
 30
0.0
 10
198.5814370114
 20
45.1277479271
 30
0.0
 10
198.7466018581
 20
45.243842919
 30
0.0
 10
198.953080751
 20
45.3889528335
 30
0.0
 10
199.1182159128
 20
45.5050592984
 30
0.0
 10
199.2421974408
 20
45.5920888424
 30
0.0
 10
199.3451015056
 20
45.6647734224
 30
0.0
 10
199.4179465454
 20
45.7153387207
 30
0.0
 10
199.4583041117
 20
45.7447233163
 30
0.0
 10
199.492144743
 20
45.7653810326
 30
0.0
 10
199.5123296335
 20
45.7913166011
 30
0.0
 10
199.5440061059
 20
45.8240563824
 30
0.0
 10
199.597220532
 20
45.8822087717
 30
0.0
 10
199.6744022558
 20
45.9648349447
 30
0.0
 10
199.7665198876
 20
46.0641793408
 30
0.0
 10
199.8587814821
 20
46.1634696533
 30
0.0
 10
199.9509676626
 20
46.2627833115
 30
0.0
 10
200.0433115366
 20
46.3620576709
 30
0.0
 10
200.1198019647
 20
46.4448978449
 30
0.0
 10
200.1742481541
 20
46.5026689234
 30
0.0
 10
200.2039512914
 20
46.5360195801
 30
0.0
 10
200.2301975886
 20
46.5600787494
 30
0.0
 10
200.2412725943
 20
46.5877839058
 30
0.0
 10
200.2613311954
 20
46.6234523513
 30
0.0
 10
200.2939680355
 20
46.6864646884
 30
0.0
 10
200.3418820397
 20
46.776172359
 30
0.0
 10
200.3988230124
 20
46.8839549253
 30
0.0
 10
200.4559233994
 20
46.9916999715
 30
0.0
 10
200.5129419613
 20
47.0994617364
 30
0.0
 10
200.5701284093
 20
47.2071941467
 30
0.0
 10
200.6172923501
 20
47.2970550715
 30
0.0
 10
200.6512656667
 20
47.3597943376
 30
0.0
 10
200.669183178
 20
47.3959002541
 30
0.0
 10
200.6868348752
 20
47.4222616497
 30
0.0
 10
200.6883802236
 20
47.451367759
 30
0.0
 10
200.696058774
 20
47.4892185179
 30
0.0
 10
200.7068785571
 20
47.5559034105
 30
0.0
 10
200.7237048251
 20
47.6509343325
 30
0.0
 10
200.7433063279
 20
47.765071272
 30
0.0
 10
200.7630768099
 20
47.8791820158
 30
0.0
 10
200.7827613937
 20
47.9932977093
 30
0.0
 10
200.8026205912
 20
48.1074197994
 30
0.0
 10
200.8186594587
 20
48.2024960946
 30
0.0
 10
200.8308822463
 20
48.2691001405
 30
0.0
 10
200.8363131262
 20
48.3070804191
 30
0.0
 10
200.8447625451
 20
48.3357886885
 30
0.0
 10
200.8364837135
 20
48.363644304
 30
0.0
 10
200.8312802833
 20
48.4010825409
 30
0.0
 10
200.8194555326
 20
48.4664608732
 30
0.0
 10
200.8039852899
 20
48.5599310281
 30
0.0
 10
200.7848084395
 20
48.6720637946
 30
0.0
 10
200.7658062124
 20
48.7842061789
 30
0.0
 10
200.746718051
 20
48.8963415115
 30
0.0
 10
200.7277990038
 20
49.008495433
 30
0.0
 10
200.7115410289
 20
49.1019009475
 30
0.0
 10
200.7011198738
 20
49.1673944572
 30
0.0
 10
200.6936678261
 20
49.2046481753
 30
0.0
 10
200.6922959741
 20
49.2330705691
 30
0.0
 10
200.674803938
 20
49.2596501146
 30
0.0
 10
200.6571041341
 20
49.2957323168
 30
0.0
 10
200.6235095568
 20
49.3585766535
 30
0.0
 10
200.5768878487
 20
49.4485110372
 30
0.0
 10
200.5203515718
 20
49.5563644614
 30
0.0
 10
200.4639833314
 20
49.6642384145
 30
0.0
 10
200.4075331724
 20
49.7720980882
 30
0.0
 10
200.3512426512
 20
49.8799943507
 30
0.0
 10
200.3038700229
 20
49.9697978395
 30
0.0
 10
200.271613449
 20
50.0328754069
 30
0.0
 10
200.2517701091
 20
50.0685839641
 30
0.0
 10
200.2408622784
 20
50.0963112186
 30
0.0
 10
200.2147612566
 20
50.1204230101
 30
0.0
 10
200.1852594594
 20
50.1538331823
 30
0.0
 10
200.1311620502
 20
50.2117133769
 30
0.0
 10
200.0551717874
 20
50.2947068097
 30
0.0
 10
199.9634271028
 20
50.3941663157
 30
0.0
 10
199.8718410944
 20
50.4936643707
 30
0.0
 10
199.7801767505
 20
50.593140843
 30
0.0
 10
199.6886670724
 20
50.6926650967
 30
0.0
 10
199.6119587344
 20
50.7754606892
 30
0.0
 10
199.5591408046
 20
50.8336933994
 30
0.0
 10
199.5275892292
 20
50.8665388272
 30
0.0
 10
199.5077844208
 20
50.8923853192
 30
0.0
 10
199.4732290702
 20
50.9135973301
 30
0.0
 10
199.4323004238
 20
50.9434965703
 30
0.0
 10
199.3582780693
 20
50.9950670556
 30
0.0
 10
199.2537851475
 20
51.0691329523
 30
0.0
 10
199.127857174
 20
51.1578434753
 30
0.0
 10
198.9601406645
 20
51.2761830693
 30
0.0
 10
198.7504302816
 20
51.4240872192
 30
0.0
 10
198.5826817075
 20
51.5424167388
 30
0.0
 10
198.4988049538
 20
51.6015807236
 30
0.0
  0
INSERT
  5
400
100
AcDbEntity
  8
HATCHING_BL0
100
AcDbBlockReference
  2
HATCHING_BL0
 10
0.0
 20
0.0
  0
ENDSEC
  0
SECTION
  2
OBJECTS
  0
DICTIONARY
  5
C
100
AcDbDictionary
280
0
281
1
  3
ACAD_GROUP
350
D
  3
ACAD_MLINESTYLE
350
17
  3
ACAD_LAYOUT
350
1A
  3
ACAD_PLOTSETTINGS
350
19
  3
ACAD_PLOTSTYLENAME
350
E
  0
DICTIONARY
  5
D
102
{ACAD_REACTORS
330
C
102
}
100
AcDbDictionary
280
0
281
1
  0
ACDBDICTIONARYWDFLT
  5
E
102
{ACAD_REACTORS
330
C
102
}
100
AcDbDictionary
281
1
  3
Normal
350
F
100
AcDbDictionaryWithDefault
340
F
  0
DICTIONARY
  5
17
102
{ACAD_REACTORS
330
C
102
}
100
AcDbDictionary
280
0
281
1
  3
Standard
350
18
  0
DICTIONARY
  5
19
102
{ACAD_REACTORS
330
C
102
}
100
AcDbDictionary
281
1
  0
DICTIONARY
  5
1A
102
{ACAD_REACTORS
330
C
102
}
100
AcDbDictionary
281
1
  3
Model
350
401
  3
Layout1
350
402
  0
ACDBPLACEHOLDER
  5
F
102
{ACAD_REACTORS
330
E
102
}
  0
MLINESTYLE
  5
18
102
{ACAD_REACTORS
330
17
102
}
100
AcDbMlineStyle
  2
STANDARD
 70
0
  3

 62
256
 51
90.0
 52
90.0
 71
2
 49
0.5
 62
256
  6
BYLAYER
 49
-0.5
 62
256
  6
BYLAYER
  0
LAYOUT
  5
401
102
{ACAD_REACTORS
330
1A
102
}
100
AcDbPlotSettings
  1

  2
none_device
  4

  6

 40
0.0
 41
0.0
 42
0.0
 43
0.0
 44
210.0
 45
297.0
 46
0.0
 47
0.0
 48
0.0
 49
0.0
140
0.0
141
0.0
142
1.0
143
1.0
 70
1024
 72
1
 73
0
 74
0
  7

 75
0
147
1.0
148
0.0
149
0.0
100
AcDbLayout
  1
Model
 70
0
 71
0
 10
0.0
 20
0.0
 11
210.0
 21
297.0
 12
0.0
 22
0.0
 32
0.0
 14
0.0
 24
0.0
 34
0.0
 15
0.0
 25
0.0
 35
0.0
146
0.0
 13
0.0
 23
0.0
 33
0.0
 16
1.0
 26
0.0
 36
0.0
 17
0.0
 27
1.0
 37
0.0
 76
0
330
20A
345
0
346
0
  0
LAYOUT
  5
402
102
{ACAD_REACTORS
330
1A
102
}
100
AcDbPlotSettings
  1

  2
none_device
  4

  6

 40
0.0
 41
0.0
 42
0.0
 43
0.0
 44
210.0
 45
297.0
 46
0.0
 47
0.0
 48
0.0
 49
0.0
140
0.0
141
0.0
142
1.0
143
1.0
 70
0
 72
1
 73
0
 74
0
  7

 75
0
147
1.0
148
0.0
149
0.0
100
AcDbLayout
  1
Layout1
 70
0
 71
1
 10
0.0
 20
0.0
 11
210.0
 21
297.0
 12
0.0
 22
0.0
 32
0.0
 14
0.0
 24
0.0
 34
0.0
 15
0.0
 25
0.0
 35
0.0
146
0.0
 13
0.0
 23
0.0
 33
0.0
 16
1.0
 26
0.0
 36
0.0
 17
0.0
 27
1.0
 37
0.0
 76
0
330
20B
345
0
346
0
  0
ENDSEC
  0
EOF
