999
DXF file: Z:\Entwicklung\5_Service\1_Maßblätter\4_Schloss\b_9006_0005_bd01.dxf
999
Pro/ENGINEER 2014320 by Parametric Technology Corporation
  0
SECTION
  2
HEADER
  9
$ACADVER
  1
AC1021
  9
$DWGCODEPAGE
  3
ANSI_1252
  9
$EXTMAX
 10
210.0
 20
297.0
 30
0.0
  9
$EXTMIN
 10
0.0
 20
0.0
 30
0.0
  9
$LIMMIN
 10
0.0
 20
0.0
  9
$LIMMAX
 10
210.0
 20
297.0
  9
$VIEWCTR
 10
105.0
 20
148.5
  9
$VIEWSIZE
 40
297.0
  9
$CLAYER
  8
0
  9
$LTSCALE
 40
19.36
  9
$CELTYPE
  6
BYLAYER
  9
$DIMSCALE
 40
1.0
  9
$DIMASZ
 40
5.0
  9
$DIMEXO
 40
0.0
  9
$DIMDLI
 40
13.376
  9
$DIMEXE
 40
1.0
  9
$DIMCEN
 40
3.168
  9
$DIMLFAC
 40
1.0
  9
$DIMBLK
  1
_FILLED
  9
$DIMTXT
 40
5.0
  9
$DIMTOL
 70
1
  9
$DIMLIM
 70
0
  9
$DIMTFAC
 40
1.0
  9
$DIMTP
 40
0.001
  9
$DIMTM
 40
0.001
  9
$DIMGAP
 40
0.625
  9
$DIMDSEP
 70
46
  9
$PDMODE
 70
3
  9
$PDSIZE
 40
2.0
  9
$HANDSEED
  5
2C6
  9
$TILEMODE
 70
1
  9
$MEASUREMENT
 70
1
  9
$INSUNITS
 70
4
  0
ENDSEC
  0
SECTION
  2
CLASSES
  0
CLASS
  1
ACDBDICTIONARYWDFLT
  2
AcDbDictionaryWithDefault
  3
AutoCAD 2000
 90
0
 91
1
280
0
281
0
  0
CLASS
  1
ACDBPLACEHOLDER
  2
AcDbPlaceHolder
  3
AutoCAD 2000
 90
0
 91
1
280
0
281
0
  0
CLASS
  1
LAYOUT
  2
AcDbLayout
  3
AutoCAD 2000
 90
0
 91
0
280
0
281
0
  0
ENDSEC
  0
SECTION
  2
TABLES
  0
TABLE
  2
VPORT
  5
8
100
AcDbSymbolTable
 70
2
  0
VPORT
  5
1F4
100
AcDbSymbolTableRecord
100
AcDbViewportTableRecord
  2
*ACTIVE
 70
0
 10
0.0
 20
0.0
 11
1.0
 21
1.0
 12
105.0
 22
148.5
 13
0.0
 23
0.0
 14
1.0
 24
1.0
 15
0.0
 25
0.0
 16
0.0
 26
0.0
 36
1.0
 17
0.0
 27
0.0
 37
0.0
 40
297.0
 41
0.7070707071
 42
50.0
 43
0.0
 44
0.0
 50
0.0
 51
0.0
 71
0
 72
100
 73
1
 74
1
 75
0
 76
0
 77
0
 78
0
  0
ENDTAB
  0
TABLE
  2
LTYPE
  5
5
100
AcDbSymbolTable
 70
6
  0
LTYPE
  5
14
100
AcDbSymbolTableRecord
100
AcDbLinetypeTableRecord
  2
BYBLOCK
 70
0
  3

 72
65
 73
0
 40
0.0
  0
LTYPE
  5
15
100
AcDbSymbolTableRecord
100
AcDbLinetypeTableRecord
  2
BYLAYER
 70
0
  3

 72
65
 73
0
 40
0.0
  0
LTYPE
  5
16
100
AcDbSymbolTableRecord
100
AcDbLinetypeTableRecord
  2
CONTINUOUS
 70
64
  3
Solid line
 72
65
 73
0
 40
0.0
  0
LTYPE
  5
1F5
100
AcDbSymbolTableRecord
100
AcDbLinetypeTableRecord
  2
CENTER
 70
64
  3
____ _ ____ _ ____ _ ____ _ ____ _ ____ _ ____
 72
65
 73
4
 40
0.6
 49
0.375
 74
0
 49
-0.075
 74
0
 49
0.075
 74
0
 49
-0.075
 74
0
  0
LTYPE
  5
1F6
100
AcDbSymbolTableRecord
100
AcDbLinetypeTableRecord
  2
HIDDEN
 70
64
  3
- - - - - - - - - - - - - - - - - - - -
 72
65
 73
2
 40
0.2
 49
0.1
 74
0
 49
-0.1
 74
0
  0
LTYPE
  5
1F7
100
AcDbSymbolTableRecord
100
AcDbLinetypeTableRecord
  2
PHANTOM
 70
64
  3
_____ _ _ _____ _ _ _____ _ _ _____
 72
65
 73
6
 40
0.8
 49
0.45
 74
0
 49
-0.05
 74
0
 49
0.1
 74
0
 49
-0.05
 74
0
 49
0.1
 74
0
 49
-0.05
 74
0
  0
LTYPE
  5
1F8
100
AcDbSymbolTableRecord
100
AcDbLinetypeTableRecord
  2
DOT
 70
64
  3
. . . . . . . . . . . . . . . . . . . .
 72
65
 73
2
 40
0.2
 49
0.1
 74
0
 49
-0.1
 74
0
  0
LTYPE
  5
1F9
100
AcDbSymbolTableRecord
100
AcDbLinetypeTableRecord
  2
DASHED
 70
64
  3
- - - - - - - - - - - - - - - - - - - -
 72
65
 73
2
 40
0.2
 49
0.1
 74
0
 49
-0.1
 74
0
  0
ENDTAB
  0
TABLE
  2
LAYER
  5
2
100
AcDbSymbolTable
 70
36
  0
LAYER
  5
10
100
AcDbSymbolTableRecord
100
AcDbLayerTableRecord
  2
0
 70
0
 62
7
  6
CONTINUOUS
370
-3
390
F
  0
LAYER
  5
1FA
100
AcDbSymbolTableRecord
100
AcDbLayerTableRecord
  2
DEFAULT_1
 70
0
 62
7
  6
CENTER
370
-3
390
F
  0
LAYER
  5
1FB
100
AcDbSymbolTableRecord
100
AcDbLayerTableRecord
  2
DEFAULT_2
 70
0
 62
8
  6
HIDDEN
370
-3
390
F
  0
LAYER
  5
1FC
100
AcDbSymbolTableRecord
100
AcDbLayerTableRecord
  2
DEFAULT_3
 70
0
 62
7
  6
PHANTOM
370
-3
390
F
  0
LAYER
  5
1FD
100
AcDbSymbolTableRecord
100
AcDbLayerTableRecord
  2
AXIS
 70
0
 62
7
  6
CONTINUOUS
370
-3
390
F
  0
LAYER
  5
1FE
100
AcDbSymbolTableRecord
100
AcDbLayerTableRecord
  2
BEZUG
 70
0
 62
7
  6
CONTINUOUS
370
-3
390
F
  0
LAYER
  5
1FF
100
AcDbSymbolTableRecord
100
AcDbLayerTableRecord
  2
COORDSYS
 70
0
 62
7
  6
CONTINUOUS
370
-3
390
F
  0
LAYER
  5
200
100
AcDbSymbolTableRecord
100
AcDbLayerTableRecord
  2
CURVES
 70
0
 62
7
  6
CONTINUOUS
370
-3
390
F
  0
LAYER
  5
201
100
AcDbSymbolTableRecord
100
AcDbLayerTableRecord
  2
HIDDEN
 70
0
 62
7
  6
CONTINUOUS
370
-3
390
F
  0
LAYER
  5
202
100
AcDbSymbolTableRecord
100
AcDbLayerTableRecord
  2
PLANES
 70
0
 62
7
  6
CONTINUOUS
370
-3
390
F
  0
LAYER
  5
203
100
AcDbSymbolTableRecord
100
AcDbLayerTableRecord
  2
POINTS
 70
0
 62
7
  6
CONTINUOUS
370
-3
390
F
  0
LAYER
  5
204
100
AcDbSymbolTableRecord
100
AcDbLayerTableRecord
  2
S-AXIS
 70
0
 62
7
  6
CONTINUOUS
370
-3
390
F
  0
LAYER
  5
205
100
AcDbSymbolTableRecord
100
AcDbLayerTableRecord
  2
S-COORDSYS
 70
0
 62
7
  6
CONTINUOUS
370
-3
390
F
  0
LAYER
  5
206
100
AcDbSymbolTableRecord
100
AcDbLayerTableRecord
  2
S-PLANES
 70
0
 62
7
  6
CONTINUOUS
370
-3
390
F
  0
LAYER
  5
207
100
AcDbSymbolTableRecord
100
AcDbLayerTableRecord
  2
THREADS
 70
0
 62
7
  6
CONTINUOUS
370
-3
390
F
  0
LAYER
  5
208
100
AcDbSymbolTableRecord
100
AcDbLayerTableRecord
  2
GU_BKS_BL0
 70
0
 62
7
  6
CONTINUOUS
370
-3
390
F
  0
ENDTAB
  0
TABLE
  2
STYLE
  5
3
100
AcDbSymbolTable
 70
1
  0
STYLE
  5
11
100
AcDbSymbolTableRecord
100
AcDbTextStyleTableRecord
  2
STANDARD
 70
0
 40
0.0
 41
1.0
 50
0.0
 71
0
 42
0.2
  3
swisscl.ttf
  4

  0
STYLE
  5
209
100
AcDbSymbolTableRecord
100
AcDbTextStyleTableRecord
  2
TEXTSTYLE_1
 70
0
 40
0.0
 41
0.8
 50
0.0
 71
0
 42
0.2
  3
gdt
  4

  0
ENDTAB
  0
TABLE
  2
VIEW
  5
6
100
AcDbSymbolTable
 70
0
  0
ENDTAB
  0
TABLE
  2
UCS
  5
7
100
AcDbSymbolTable
 70
0
  0
ENDTAB
  0
TABLE
  2
APPID
  5
9
100
AcDbSymbolTable
 70
1
  0
APPID
  5
20A
100
AcDbSymbolTableRecord
100
AcDbRegAppTableRecord
  2
ACAD
 70
0
  0
ENDTAB
  0
TABLE
  2
BLOCK_RECORD
  5
1
100
AcDbSymbolTable
 70
0
  0
BLOCK_RECORD
  5
20B
100
AcDbSymbolTableRecord
100
AcDbBlockTableRecord
  2
*Model_Space
  0
BLOCK_RECORD
  5
20C
100
AcDbSymbolTableRecord
100
AcDbBlockTableRecord
  2
*Paper_Space
  0
BLOCK_RECORD
  5
20D
100
AcDbSymbolTableRecord
100
AcDbBlockTableRecord
  2
_FILLED
  0
BLOCK_RECORD
  5
20E
100
AcDbSymbolTableRecord
100
AcDbBlockTableRecord
  2
*D0
  0
BLOCK_RECORD
  5
20F
100
AcDbSymbolTableRecord
100
AcDbBlockTableRecord
  2
*D1
  0
BLOCK_RECORD
  5
210
100
AcDbSymbolTableRecord
100
AcDbBlockTableRecord
  2
*D2
  0
BLOCK_RECORD
  5
211
100
AcDbSymbolTableRecord
100
AcDbBlockTableRecord
  2
*D3
  0
BLOCK_RECORD
  5
212
100
AcDbSymbolTableRecord
100
AcDbBlockTableRecord
  2
*D4
  0
BLOCK_RECORD
  5
213
100
AcDbSymbolTableRecord
100
AcDbBlockTableRecord
  2
*D5
  0
BLOCK_RECORD
  5
214
100
AcDbSymbolTableRecord
100
AcDbBlockTableRecord
  2
GU_BKS_BL0
  0
ENDTAB
  0
TABLE
  2
DIMSTYLE
  5
A
100
AcDbSymbolTable
 70
1
100
AcDbDimStyleTable
 71
0
  0
DIMSTYLE
105
215
100
AcDbSymbolTableRecord
100
AcDbDimStyleTableRecord
  2
STANDARD
 70
0
  3

  4

 40
1.0
 41
5.0
 42
0.0
 43
0.38
 44
1.0
 45
0.0
 46
0.0
 47
0.001
 48
0.001
140
5.0
141
0.09
142
0.0
143
25.4
144
1.0
145
0.0
146
1.0
147
0.625
 71
1.0
 72
0.0
 73
0
 74
0
 75
0
 76
0
 77
1
 78
8
170
0
171
2
172
0
173
0
174
0
175
0
176
0
177
0
178
5
270
2
271
3
272
3
273
2
274
2
275
0
280
0
281
0
282
0
283
1
284
8
285
0
286
0
287
3
288
0
340
11
278
46
341
20D
342
20D
343
20D
344
20D
  0
DIMSTYLE
105
216
100
AcDbSymbolTableRecord
100
AcDbDimStyleTableRecord
  2
DIMSTYLE_1
 70
0
  3

  4

 40
1.0
 41
5.0
 42
0.0
 43
0.38
 44
1.0
 45
0.0
 46
0.0
 47
1.2
 48
1.2
140
5.0
141
0.09
142
0.0
143
25.4
144
1.0
145
0.0
146
1.0
147
1.25
 71
0.0
 72
0.0
 73
0
 74
0
 75
0
 76
0
 77
1
 78
8
170
0
171
2
172
0
173
0
174
0
175
0
176
0
177
0
178
5
270
2
271
3
272
3
273
2
274
2
275
0
280
0
281
0
282
0
283
1
284
8
285
0
286
0
287
3
288
0
340
11
278
46
341
20D
342
20D
343
20D
344
20D
  0
DIMSTYLE
105
217
100
AcDbSymbolTableRecord
100
AcDbDimStyleTableRecord
  2
DIMSTYLE_2
 70
0
  3

  4

 40
1.0
 41
5.0
 42
0.0
 43
0.38
 44
1.0
 45
0.0
 46
0.0
 47
0.2
 48
0.2
140
5.0
141
0.09
142
0.0
143
25.4
144
1.0
145
0.0
146
1.0
147
1.25
 71
0.0
 72
0.0
 73
0
 74
0
 75
0
 76
0
 77
1
 78
8
170
0
171
2
172
0
173
0
174
0
175
0
176
0
177
0
178
5
270
2
271
3
272
3
273
2
274
2
275
0
280
0
281
0
282
0
283
1
284
8
285
0
286
0
287
3
288
0
340
11
278
46
341
20D
342
20D
343
20D
344
20D
  0
DIMSTYLE
105
218
100
AcDbSymbolTableRecord
100
AcDbDimStyleTableRecord
  2
DIMSTYLE_3
 70
0
  3

  4

 40
1.0
 41
5.0
 42
0.0
 43
0.38
 44
1.0
 45
0.0
 46
0.0
 47
0.25
 48
0.25
140
5.0
141
0.09
142
0.0
143
25.4
144
1.0
145
0.0
146
1.0
147
1.25
 71
0.0
 72
0.0
 73
0
 74
0
 75
0
 76
0
 77
1
 78
8
170
0
171
2
172
0
173
0
174
0
175
0
176
0
177
0
178
5
270
2
271
3
272
3
273
2
274
2
275
0
280
0
281
0
282
0
283
1
284
8
285
0
286
0
287
3
288
0
340
11
278
46
341
20D
342
20D
343
20D
344
20D
  0
DIMSTYLE
105
219
100
AcDbSymbolTableRecord
100
AcDbDimStyleTableRecord
  2
DIMSTYLE_4
 70
0
  3

  4

 40
1.0
 41
5.0
 42
0.0
 43
0.38
 44
1.0
 45
0.0
 46
0.0
 47
0.15
 48
0.15
140
5.0
141
0.09
142
0.0
143
25.4
144
1.0
145
0.0
146
1.0
147
1.25
 71
0.0
 72
0.0
 73
0
 74
0
 75
0
 76
0
 77
1
 78
8
170
0
171
2
172
0
173
0
174
0
175
0
176
0
177
0
178
5
270
2
271
3
272
3
273
2
274
2
275
0
280
0
281
0
282
0
283
1
284
8
285
0
286
0
287
3
288
0
340
11
278
46
341
20D
342
20D
343
20D
344
20D
  0
ENDTAB
  0
ENDSEC
  0
SECTION
  2
BLOCKS
  0
BLOCK
  5
20
100
AcDbEntity
  8
0
100
AcDbBlockBegin
  2
*Model_Space
 70
0
 10
0.0
 20
0.0
 30
0.0
  3
*Model_Space
  1

  0
ENDBLK
  5
21
100
AcDbEntity
  8
0
100
AcDbBlockEnd
  0
BLOCK
  5
1C
100
AcDbEntity
  8
0
100
AcDbBlockBegin
  2
*Paper_Space
 70
0
 10
0.0
 20
0.0
 30
0.0
  3
*Paper_Space
  1

  0
ENDBLK
  5
1D
100
AcDbEntity
  8
0
100
AcDbBlockEnd
  0
BLOCK
  5
21A
100
AcDbEntity
  8
GU_BKS_BL0
100
AcDbBlockBegin
  2
GU_BKS_BL0
 70
64
 10
38.0507222011
 20
15.4607358413
  3
GU_BKS_BL0
  1

  0
LINE
  5
21B
100
AcDbEntity
  8
GU_BKS_BL0
100
AcDbLine
 62
2
  6
CONTINUOUS
 10
49.9974274249
 20
10.1184166799
 11
35.2732866023
 21
10.1184166799
  0
LINE
  5
21C
100
AcDbEntity
  8
GU_BKS_BL0
100
AcDbLine
 62
2
  6
CONTINUOUS
 10
45.5473570136
 20
11.3241666799
 11
44.1288074022
 21
11.3241666799
  0
LINE
  5
21D
100
AcDbEntity
  8
GU_BKS_BL0
100
AcDbLine
 62
2
  6
CONTINUOUS
 10
42.0438570136
 20
11.3241666799
 11
40.8153570136
 21
11.3241666799
  0
LINE
  5
21E
100
AcDbEntity
  8
GU_BKS_BL0
100
AcDbLine
 62
2
  6
CONTINUOUS
 10
35.6966070136
 20
11.3241666799
 11
38.2446070136
 21
11.3241666799
  0
LINE
  5
21F
100
AcDbEntity
  8
GU_BKS_BL0
100
AcDbLine
 62
2
  6
CONTINUOUS
 10
36.8568570136
 20
12.3934166799
 11
38.0398570136
 21
12.3934166799
  0
LINE
  5
220
100
AcDbEntity
  8
GU_BKS_BL0
100
AcDbLine
 62
2
  6
CONTINUOUS
 10
36.8568570136
 20
13.7584166799
 11
38.0398570136
 21
13.7584166796
  0
LINE
  5
221
100
AcDbEntity
  8
GU_BKS_BL0
100
AcDbLine
 62
2
  6
CONTINUOUS
 10
36.8568570136
 20
14.7594166799
 11
38.0398570136
 21
14.7594166799
  0
LINE
  5
222
100
AcDbEntity
  8
GU_BKS_BL0
100
AcDbLine
 62
2
  6
CONTINUOUS
 10
36.8568570136
 20
16.0334166799
 11
38.0398570136
 21
16.0334166799
  0
LINE
  5
223
100
AcDbEntity
  8
GU_BKS_BL0
100
AcDbLine
 62
2
  6
CONTINUOUS
 10
38.2150320136
 20
17.0799166799
 11
35.6966070136
 21
17.0799166799
  0
LINE
  5
224
100
AcDbEntity
  8
GU_BKS_BL0
100
AcDbLine
 62
2
  6
CONTINUOUS
 10
40.8153570136
 20
17.0799166799
 11
42.0438570136
 21
17.0799166799
  0
LINE
  5
225
100
AcDbEntity
  8
GU_BKS_BL0
100
AcDbLine
 62
2
  6
CONTINUOUS
 10
43.9487062222
 20
17.0799166799
 11
45.4336070136
 21
17.0799166799
  0
LINE
  5
226
100
AcDbEntity
  8
GU_BKS_BL0
100
AcDbLine
 62
2
  6
CONTINUOUS
 10
38.1397876997
 20
25.884306962
 11
40.1560471524
 21
25.884306962
  0
LINE
  5
227
100
AcDbEntity
  8
GU_BKS_BL0
100
AcDbLine
 62
2
  6
CONTINUOUS
 10
42.8625689225
 20
25.884306962
 11
44.3613762446
 21
25.884306962
  0
LINE
  5
228
100
AcDbEntity
  8
GU_BKS_BL0
100
AcDbLine
 62
2
  6
CONTINUOUS
 10
44.1288074022
 20
11.3241666799
 11
42.6876210095
 21
13.820374735
  0
LINE
  5
229
100
AcDbEntity
  8
GU_BKS_BL0
100
AcDbLine
 62
2
  6
CONTINUOUS
 10
44.3613762446
 20
27.6740790091
 11
42.8625689225
 21
27.6740790091
  0
LINE
  5
22A
100
AcDbEntity
  8
GU_BKS_BL0
100
AcDbLine
 62
2
  6
CONTINUOUS
 10
42.464681049
 20
27.6740790091
 11
38.1397876997
 21
27.6740790091
  0
LINE
  5
22B
100
AcDbEntity
  8
GU_BKS_BL0
100
AcDbLine
 62
2
  6
CONTINUOUS
 10
50.702282926
 20
31.0405550026
 11
48.4863746771
 21
31.0405550026
  0
LINE
  5
22C
100
AcDbEntity
  8
GU_BKS_BL0
100
AcDbLine
 62
2
  6
CONTINUOUS
 10
46.5772844935
 20
31.0405550026
 11
44.3613762446
 21
31.0405550026
  0
LINE
  5
22D
100
AcDbEntity
  8
GU_BKS_BL0
100
AcDbLine
 62
2
  6
CONTINUOUS
 10
43.5324096488
 20
14.8141578903
 11
45.5473570136
 21
11.3241666799
  0
LINE
  5
22E
100
AcDbEntity
  8
GU_BKS_BL0
100
AcDbLine
 62
2
  6
CONTINUOUS
 10
34.4325562277
 20
10.6801747563
 11
32.467126639
 21
15.4251415251
  0
LINE
  5
22F
100
AcDbEntity
  8
GU_BKS_BL0
100
AcDbLine
 62
2
  6
CONTINUOUS
 10
35.6966070136
 20
17.0799166799
 11
35.6966070136
 21
11.3241666799
  0
LINE
  5
230
100
AcDbEntity
  8
GU_BKS_BL0
100
AcDbLine
 62
2
  6
CONTINUOUS
 10
36.8568570136
 20
16.0334166799
 11
36.8568570136
 21
14.7594166799
  0
LINE
  5
231
100
AcDbEntity
  8
GU_BKS_BL0
100
AcDbLine
 62
2
  6
CONTINUOUS
 10
36.8568570136
 20
13.7584166799
 11
36.8568570136
 21
12.3934166799
  0
LINE
  5
232
100
AcDbEntity
  8
GU_BKS_BL0
100
AcDbLine
 62
2
  6
CONTINUOUS
 10
40.8153570136
 20
11.3241666799
 11
40.8153570136
 21
17.0799166799
  0
LINE
  5
233
100
AcDbEntity
  8
GU_BKS_BL0
100
AcDbLine
 62
2
  6
CONTINUOUS
 10
42.0438570136
 20
17.0799166799
 11
42.0438570136
 21
14.8098057924
  0
LINE
  5
234
100
AcDbEntity
  8
GU_BKS_BL0
100
AcDbLine
 62
2
  6
CONTINUOUS
 10
42.0438570136
 20
13.0531666802
 11
42.0438570136
 21
11.3241666799
  0
LINE
  5
235
100
AcDbEntity
  8
GU_BKS_BL0
100
AcDbLine
 62
2
  6
CONTINUOUS
 10
44.3613762446
 20
31.0405550026
 11
44.3613762446
 21
27.6740790091
  0
LINE
  5
236
100
AcDbEntity
  8
GU_BKS_BL0
100
AcDbLine
 62
2
  6
CONTINUOUS
 10
44.3613762446
 20
25.884306962
 11
44.3613762446
 21
25.4155571401
  0
LINE
  5
237
100
AcDbEntity
  8
GU_BKS_BL0
100
AcDbLine
 62
2
  6
CONTINUOUS
 10
45.9257167021
 20
15.4419166799
 11
45.9257167021
 21
15.1234166799
  0
LINE
  5
238
100
AcDbEntity
  8
GU_BKS_BL0
100
AcDbLine
 62
2
  6
CONTINUOUS
 10
46.5772844935
 20
25.4155571401
 11
46.5772844935
 21
31.0405550026
  0
LINE
  5
239
100
AcDbEntity
  8
GU_BKS_BL0
100
AcDbLine
 62
2
  6
CONTINUOUS
 10
48.4863746771
 20
31.0405550026
 11
48.4863746771
 21
25.4155571401
  0
LINE
  5
23A
100
AcDbEntity
  8
GU_BKS_BL0
100
AcDbLine
 62
2
  6
CONTINUOUS
 10
49.9381070136
 20
12.9394166799
 11
49.9381070136
 21
13.2579166799
  0
LINE
  5
23B
100
AcDbEntity
  8
GU_BKS_BL0
100
AcDbLine
 62
2
  6
CONTINUOUS
 10
50.702282926
 20
25.4155571401
 11
50.702282926
 21
31.0405550026
  0
LINE
  5
23C
100
AcDbEntity
  8
GU_BKS_BL0
100
AcDbLine
 62
2
  6
CONTINUOUS
 10
52.8035873882
 20
15.4251415254
 11
50.8381577995
 21
10.6801747563
  0
LINE
  5
23D
100
AcDbEntity
  8
GU_BKS_BL0
100
AcDbLine
 62
2
  6
CONTINUOUS
 10
42.0438570136
 20
14.8098057924
 11
43.9487062222
 21
17.0799166799
  0
LINE
  5
23E
100
AcDbEntity
  8
GU_BKS_BL0
100
AcDbLine
 62
2
  6
CONTINUOUS
 10
42.6876210095
 20
13.820374735
 11
42.0438570136
 21
13.0531666802
  0
LINE
  5
23F
100
AcDbEntity
  8
GU_BKS_BL0
100
AcDbLine
 62
2
  6
CONTINUOUS
 10
43.5324096488
 20
14.8141578903
 11
45.4336070136
 21
17.0799166799
  0
LINE
  5
240
100
AcDbEntity
  8
GU_BKS_BL0
100
AcDbLine
 62
2
  6
CONTINUOUS
 10
49.0260360156
 20
15.6217980876
 11
49.8310433702
 21
16.4268054422
  0
LINE
  5
241
100
AcDbEntity
  8
GU_BKS_BL0
100
AcDbLine
 62
2
  6
CONTINUOUS
 10
46.4416988786
 20
12.8765941581
 11
45.6422296762
 21
12.0771249558
  0
LINE
  5
242
100
AcDbEntity
  8
GU_BKS_BL0
100
AcDbLine
 62
2
  6
CONTINUOUS
 10
39.9203442184
 20
28.0967355013
 11
41.7018400084
 21
29.4149730412
  0
ARC
  5
243
100
AcDbEntity
  8
GU_BKS_BL0
100
AcDbCircle
 62
2
  6
CONTINUOUS
 10
52.0225983976
 20
41.7922261111
 40
27.3
100
AcDbArc
 50
260.6058710662
 51
262.9334764059
  0
ARC
  5
244
100
AcDbEntity
  8
GU_BKS_BL0
100
AcDbCircle
 62
2
  6
CONTINUOUS
 10
42.6353570139
 20
-0.1190833201
 40
19.3375
100
AcDbArc
 50
59.5907609466
 51
120.4092390534
  0
ARC
  5
245
100
AcDbEntity
  8
GU_BKS_BL0
100
AcDbCircle
 62
2
  6
CONTINUOUS
 10
38.1397876997
 20
26.7791929856
 40
4.8068163552
100
AcDbArc
 50
349.2706340045
 51
10.7293659955
  0
ARC
  5
246
100
AcDbEntity
  8
GU_BKS_BL0
100
AcDbCircle
 62
2
  6
CONTINUOUS
 10
48.4529568206
 20
18.1653898521
 40
4.55
100
AcDbArc
 50
247.2438347843
 51
266.8254700933
  0
ARC
  5
247
100
AcDbEntity
  8
GU_BKS_BL0
100
AcDbCircle
 62
2
  6
CONTINUOUS
 10
38.0545604594
 20
26.7791929856
 40
4.49999829
100
AcDbArc
 50
35.8545159817
 51
11.4705154501
  0
ARC
  5
248
100
AcDbEntity
  8
GU_BKS_BL0
100
AcDbCircle
 62
2
  6
CONTINUOUS
 10
47.5318295853
 20
25.4155571401
 40
3.1704533407
100
AcDbArc
 50
180.0
 51
360.0
  0
ARC
  5
249
100
AcDbEntity
  8
GU_BKS_BL0
100
AcDbCircle
 62
2
  6
CONTINUOUS
 10
47.8694836753
 20
14.2134166796
 40
2.9575
100
AcDbArc
 50
48.451846615
 51
100.9424988997
  0
ARC
  5
24A
100
AcDbEntity
  8
GU_BKS_BL0
100
AcDbCircle
 62
2
  6
CONTINUOUS
 10
47.6874836753
 20
14.2134166796
 40
2.9575
100
AcDbArc
 50
226.2472071
 51
301.9527464003
  0
ARC
  5
24B
100
AcDbEntity
  8
GU_BKS_BL0
100
AcDbCircle
 62
2
  6
CONTINUOUS
 10
38.0545604594
 20
26.7791929856
 40
2.2840900411
100
AcDbArc
 50
35.2282226131
 51
336.934010569
  0
ARC
  5
24C
100
AcDbEntity
  8
GU_BKS_BL0
100
AcDbCircle
 62
2
  6
CONTINUOUS
 10
47.7768570136
 20
14.4409166799
 40
2.0566361364
100
AcDbArc
 50
229.5190554785
 51
285.5050441823
  0
ARC
  5
24D
100
AcDbEntity
  8
GU_BKS_BL0
100
AcDbCircle
 62
2
  6
CONTINUOUS
 10
47.6319667021
 20
15.4419166796
 40
1.70625
100
AcDbArc
 50
100.9424988902
 51
179.9999999968
  0
ARC
  5
24E
100
AcDbEntity
  8
GU_BKS_BL0
100
AcDbCircle
 62
2
  6
CONTINUOUS
 10
38.2446070136
 20
12.9621666799
 40
1.638
100
AcDbArc
 50
270.0
 51
52.7307871646
  0
ARC
  5
24F
100
AcDbEntity
  8
GU_BKS_BL0
100
AcDbCircle
 62
2
  6
CONTINUOUS
 10
38.2150320136
 20
15.4874166799
 40
1.5925
100
AcDbArc
 50
309.898835778
 51
90.0
  0
ARC
  5
250
100
AcDbEntity
  8
GU_BKS_BL0
100
AcDbCircle
 62
2
  6
CONTINUOUS
 10
47.9472544226
 20
14.5774166796
 40
1.5015
100
AcDbArc
 50
44.071756165
 51
108.1948723417
  0
ARC
  5
251
100
AcDbEntity
  8
GU_BKS_BL0
100
AcDbCircle
 62
2
  6
CONTINUOUS
 10
48.4821070136
 20
12.9394166794
 40
1.456
100
AcDbArc
 50
301.9527464052
 51
360.0
  0
ARC
  5
252
100
AcDbEntity
  8
GU_BKS_BL0
100
AcDbCircle
 62
2
  6
CONTINUOUS
 10
48.4853915408
 20
13.2579166799
 40
1.4527154728
100
AcDbArc
 50
0.0
 51
82.9334763962
  0
ARC
  5
253
100
AcDbEntity
  8
GU_BKS_BL0
100
AcDbCircle
 62
2
  6
CONTINUOUS
 10
47.1769667021
 20
15.1234166799
 40
1.25125
100
AcDbArc
 50
180.0
 51
247.243834782
  0
ARC
  5
254
100
AcDbEntity
  8
GU_BKS_BL0
100
AcDbCircle
 62
2
  6
CONTINUOUS
 10
47.5318295853
 20
25.4155571401
 40
0.9545450918
100
AcDbArc
 50
180.0
 51
360.0
  0
ARC
  5
255
100
AcDbEntity
  8
GU_BKS_BL0
100
AcDbCircle
 62
2
  6
CONTINUOUS
 10
35.2732866023
 20
11.0284166799
 40
0.91
100
AcDbArc
 50
202.5
 51
270.0
  0
ARC
  5
256
100
AcDbEntity
  8
GU_BKS_BL0
100
AcDbCircle
 62
2
  6
CONTINUOUS
 10
49.9974274249
 20
11.0284166799
 40
0.91
100
AcDbArc
 50
270.0
 51
337.5
  0
ARC
  5
257
100
AcDbEntity
  8
GU_BKS_BL0
100
AcDbCircle
 62
2
  6
CONTINUOUS
 10
51.9628570136
 20
15.7733834488
 40
0.91
100
AcDbArc
 50
337.500000009
 51
59.5907609348
  0
ARC
  5
258
100
AcDbEntity
  8
GU_BKS_BL0
100
AcDbCircle
 62
2
  6
CONTINUOUS
 10
33.3078570136
 20
15.7733834488
 40
0.91
100
AcDbArc
 50
120.4092390532
 51
202.5
  0
ARC
  5
259
100
AcDbEntity
  8
GU_BKS_BL0
100
AcDbCircle
 62
2
  6
CONTINUOUS
 10
38.1397876997
 20
26.7791929856
 40
0.8948860236
100
AcDbArc
 50
90.0
 51
270.0
  0
ARC
  5
25A
100
AcDbEntity
  8
GU_BKS_BL0
100
AcDbCircle
 62
2
  6
CONTINUOUS
 10
38.0626070136
 20
13.0759166799
 40
0.6828790613
100
AcDbArc
 50
268.090847567
 51
91.909152433
  0
ARC
  5
25B
100
AcDbEntity
  8
GU_BKS_BL0
100
AcDbCircle
 62
2
  6
CONTINUOUS
 10
38.0398570136
 20
15.3964166799
 40
0.637
100
AcDbArc
 50
270.0000000001
 51
89.9999999999
  0
ARC
  5
25C
100
AcDbEntity
  8
GU_BKS_BL0
100
AcDbCircle
 62
2
  6
CONTINUOUS
 10
48.1681570136
 20
13.0304166799
 40
0.592865
100
AcDbArc
 50
285.5050441988
 51
86.8254700827
  0
ARC
  5
25D
100
AcDbEntity
  8
GU_BKS_BL0
100
AcDbCircle
 62
2
  6
CONTINUOUS
 10
47.6631070136
 20
15.4419166796
 40
0.5915
100
AcDbArc
 50
108.1948723388
 51
260.6058710483
  0
ENDBLK
  5
25E
100
AcDbEntity
  8
0
  6
BYBLOCK
 62
0
100
AcDbBlockEnd
  0
BLOCK
  5
25F
100
AcDbEntity
  8
0
100
AcDbBlockBegin
  2
_FILLED
 70
64
 10
0.0
 20
0.0
  3
_FILLED
  1

  0
SOLID
  5
260
100
AcDbEntity
  8
0
  6
BYBLOCK
 62
0
100
AcDbTrace
 10
0.0
 20
0.0
 11
-1.0
 21
0.15
 12
-1.0
 22
-0.15
 13
-1.0
 23
-0.15
  0
ENDBLK
  5
261
100
AcDbEntity
  8
0
  6
BYBLOCK
 62
0
100
AcDbBlockEnd
  0
BLOCK
  5
262
100
AcDbEntity
  8
0
100
AcDbBlockBegin
 62
2
  6
CONTINUOUS
  2
*D0
 70
65
 10
0.0
 20
0.0
  3
*D0
  1

  0
MTEXT
  5
263
100
AcDbEntity
  8
0
100
AcDbMText
 62
5
  6
CONTINUOUS
  7
STANDARD
 71
2
 72
1
 10
118.6632224079
 20
160.1576937039
 30
0.0
 11
0.0
 21
1.0
 31
0.0
 44
0.9
  1
1487
 40
5.0
 41
12.5448028674
  0
LINE
  5
264
100
AcDbEntity
  8
0
100
AcDbLine
 62
2
  6
CONTINUOUS
 10
99.1632224079
 20
40.274339607
 11
125.9132224079
 21
40.274339607
  0
LINE
  5
265
100
AcDbEntity
  8
0
100
AcDbLine
 62
2
  6
CONTINUOUS
 10
99.9132224079
 20
280.0410478007
 11
125.9132224079
 21
280.0410478007
  0
LINE
  5
266
100
AcDbEntity
  8
0
100
AcDbLine
 62
2
  6
CONTINUOUS
 10
124.9132224079
 20
40.274339607
 11
124.9132224079
 21
160.1576937039
  0
LINE
  5
267
100
AcDbEntity
  8
0
100
AcDbLine
 62
2
  6
CONTINUOUS
 10
124.9132224079
 20
280.0410478007
 11
124.9132224079
 21
160.1576937039
  0
INSERT
  5
268
100
AcDbEntity
  8
0
100
AcDbBlockReference
 62
2
  6
CONTINUOUS
  2
_FILLED
 10
124.9132224079
 20
40.274339607
 41
5.0
 42
5.0
 43
5.0
 50
270.0
  0
INSERT
  5
269
100
AcDbEntity
  8
0
100
AcDbBlockReference
 62
2
  6
CONTINUOUS
  2
_FILLED
 10
124.9132224079
 20
280.0410478007
 41
5.0
 42
5.0
 43
5.0
 50
90.0
  0
ENDBLK
  5
26A
100
AcDbEntity
  8
0
  6
BYBLOCK
 62
0
100
AcDbBlockEnd
  0
BLOCK
  5
26B
100
AcDbEntity
  8
0
100
AcDbBlockBegin
 62
2
  6
CONTINUOUS
  2
*D1
 70
65
 10
0.0
 20
0.0
  3
*D1
  1

  0
MTEXT
  5
26C
100
AcDbEntity
  8
0
100
AcDbMText
 62
5
  6
CONTINUOUS
  7
TEXTSTYLE_1
 71
3
 72
1
 10
85.0710155114
 20
211.3902880112
 30
0.0
 11
1.0
 21
0.0
 31
0.0
 44
0.9
  1
{\Fgdt;n}\Fswisscl.ttf;10
 40
5.0
 41
12.9390681004
  0
LINE
  5
26D
100
AcDbEntity
  8
0
100
AcDbLine
 62
2
  6
CONTINUOUS
 10
89.9132224079
 20
205.1402880112
 11
72.131947411
 21
205.1402880112
  0
LINE
  5
26E
100
AcDbEntity
  8
0
100
AcDbLine
 62
2
  6
CONTINUOUS
 10
72.131947411
 20
205.1402880112
 11
94.9132224079
 21
205.1402880112
  0
LINE
  5
26F
100
AcDbEntity
  8
0
100
AcDbLine
 62
2
  6
CONTINUOUS
 10
99.9132224079
 20
205.1402880112
 11
106.9132224079
 21
205.1402880112
  0
LINE
  5
270
100
AcDbEntity
  8
0
100
AcDbLine
 62
2
  6
CONTINUOUS
 10
106.9132224079
 20
205.1402880112
 11
94.9132224079
 21
205.1402880112
  0
INSERT
  5
271
100
AcDbEntity
  8
0
100
AcDbBlockReference
 62
2
  6
CONTINUOUS
  2
_FILLED
 10
89.9132224079
 20
205.1402880112
 41
5.0
 42
5.0
 43
5.0
  0
INSERT
  5
272
100
AcDbEntity
  8
0
100
AcDbBlockReference
 62
2
  6
CONTINUOUS
  2
_FILLED
 10
99.9132224079
 20
205.1402880112
 41
5.0
 42
5.0
 43
5.0
 50
180.0
  0
ENDBLK
  5
273
100
AcDbEntity
  8
0
  6
BYBLOCK
 62
0
100
AcDbBlockEnd
  0
BLOCK
  5
274
100
AcDbEntity
  8
0
100
AcDbBlockBegin
 62
2
  6
CONTINUOUS
  2
*D2
 70
65
 10
0.0
 20
0.0
  3
*D2
  1

  0
MTEXT
  5
275
100
AcDbEntity
  8
0
100
AcDbMText
 62
5
  6
CONTINUOUS
  7
STANDARD
 71
2
 72
1
 10
108.6632224079
 20
52.774339607
 30
0.0
 11
0.0
 21
1.0
 31
0.0
 44
0.9
  1
25
 40
5.0
 41
6.2724014337
  0
LINE
  5
276
100
AcDbEntity
  8
0
100
AcDbLine
 62
2
  6
CONTINUOUS
 10
99.1632224079
 20
65.274339607
 11
115.9132224079
 21
65.274339607
  0
LINE
  5
277
100
AcDbEntity
  8
0
100
AcDbLine
 62
2
  6
CONTINUOUS
 10
99.1632224079
 20
40.274339607
 11
115.9132224079
 21
40.274339607
  0
LINE
  5
278
100
AcDbEntity
  8
0
100
AcDbLine
 62
2
  6
CONTINUOUS
 10
114.9132224079
 20
65.274339607
 11
114.9132224079
 21
52.774339607
  0
LINE
  5
279
100
AcDbEntity
  8
0
100
AcDbLine
 62
2
  6
CONTINUOUS
 10
114.9132224079
 20
40.274339607
 11
114.9132224079
 21
52.774339607
  0
INSERT
  5
27A
100
AcDbEntity
  8
0
100
AcDbBlockReference
 62
2
  6
CONTINUOUS
  2
_FILLED
 10
114.9132224079
 20
65.274339607
 41
5.0
 42
5.0
 43
5.0
 50
90.0
  0
INSERT
  5
27B
100
AcDbEntity
  8
0
100
AcDbBlockReference
 62
2
  6
CONTINUOUS
  2
_FILLED
 10
114.9132224079
 20
40.274339607
 41
5.0
 42
5.0
 43
5.0
 50
270.0
  0
ENDBLK
  5
27C
100
AcDbEntity
  8
0
  6
BYBLOCK
 62
0
100
AcDbBlockEnd
  0
BLOCK
  5
27D
100
AcDbEntity
  8
0
100
AcDbBlockBegin
 62
2
  6
CONTINUOUS
  2
*D3
 70
65
 10
0.0
 20
0.0
  3
*D3
  1

  0
MTEXT
  5
27E
100
AcDbEntity
  8
0
100
AcDbMText
 62
5
  6
CONTINUOUS
  7
STANDARD
 71
2
 72
1
 10
108.6632224079
 20
36.274339607
 30
0.0
 11
0.0
 21
1.0
 31
0.0
 44
0.9
  1
8
 40
5.0
 41
3.1362007168
  0
LINE
  5
27F
100
AcDbEntity
  8
0
100
AcDbLine
 62
2
  6
CONTINUOUS
 10
97.9132224079
 20
40.274339607
 11
115.9132224079
 21
40.274339607
  0
LINE
  5
280
100
AcDbEntity
  8
0
100
AcDbLine
 62
2
  6
CONTINUOUS
 10
96.3459673466
 20
32.274339607
 11
115.9132224079
 21
32.274339607
  0
LINE
  5
281
100
AcDbEntity
  8
0
100
AcDbLine
 62
2
  6
CONTINUOUS
 10
114.9132224079
 20
40.274339607
 11
114.9132224079
 21
47.274339607
  0
LINE
  5
282
100
AcDbEntity
  8
0
100
AcDbLine
 62
2
  6
CONTINUOUS
 10
114.9132224079
 20
47.274339607
 11
114.9132224079
 21
36.274339607
  0
LINE
  5
283
100
AcDbEntity
  8
0
100
AcDbLine
 62
2
  6
CONTINUOUS
 10
114.9132224079
 20
32.274339607
 11
114.9132224079
 21
25.274339607
  0
LINE
  5
284
100
AcDbEntity
  8
0
100
AcDbLine
 62
2
  6
CONTINUOUS
 10
114.9132224079
 20
25.274339607
 11
114.9132224079
 21
36.274339607
  0
INSERT
  5
285
100
AcDbEntity
  8
0
100
AcDbBlockReference
 62
2
  6
CONTINUOUS
  2
_FILLED
 10
114.9132224079
 20
40.274339607
 41
5.0
 42
5.0
 43
5.0
 50
270.0
  0
INSERT
  5
286
100
AcDbEntity
  8
0
100
AcDbBlockReference
 62
2
  6
CONTINUOUS
  2
_FILLED
 10
114.9132224079
 20
32.274339607
 41
5.0
 42
5.0
 43
5.0
 50
90.0
  0
ENDBLK
  5
287
100
AcDbEntity
  8
0
  6
BYBLOCK
 62
0
100
AcDbBlockEnd
  0
BLOCK
  5
288
100
AcDbEntity
  8
0
100
AcDbBlockBegin
 62
2
  6
CONTINUOUS
  2
*D4
 70
65
 10
0.0
 20
0.0
  3
*D4
  1

  0
MTEXT
  5
289
100
AcDbEntity
  8
0
100
AcDbMText
 62
5
  6
CONTINUOUS
  7
TEXTSTYLE_1
 71
3
 72
1
 10
81.757236201
 20
18.9427101058
 30
0.0
 11
1.0
 21
0.0
 31
0.0
 44
0.9
  1
{\Fgdt;n}\Fswisscl.ttf;8.5
 40
5.0
 41
14.5161290323
  0
LINE
  5
28A
100
AcDbEntity
  8
0
100
AcDbLine
 62
2
  6
CONTINUOUS
 10
90.6632224079
 20
40.274339607
 11
90.6632224079
 21
25.1002301975
  0
LINE
  5
28B
100
AcDbEntity
  8
0
100
AcDbLine
 62
2
  6
CONTINUOUS
 10
90.6632224079
 20
21.4597067477
 11
90.6632224079
 21
11.6927101058
  0
LINE
  5
28C
100
AcDbEntity
  8
0
100
AcDbLine
 62
2
  6
CONTINUOUS
 10
99.1632224079
 20
40.274339607
 11
99.1632224079
 21
25.1571133764
  0
LINE
  5
28D
100
AcDbEntity
  8
0
100
AcDbLine
 62
2
  6
CONTINUOUS
 10
99.1632224079
 20
21.601914695
 11
99.1632224079
 21
11.6927101058
  0
LINE
  5
28E
100
AcDbEntity
  8
0
100
AcDbLine
 62
2
  6
CONTINUOUS
 10
90.6632224079
 20
12.6927101058
 11
67.2411071688
 21
12.6927101058
  0
LINE
  5
28F
100
AcDbEntity
  8
0
100
AcDbLine
 62
2
  6
CONTINUOUS
 10
67.2411071688
 20
12.6927101058
 11
94.9132224079
 21
12.6927101058
  0
LINE
  5
290
100
AcDbEntity
  8
0
100
AcDbLine
 62
2
  6
CONTINUOUS
 10
99.1632224079
 20
12.6927101058
 11
106.1632224079
 21
12.6927101058
  0
LINE
  5
291
100
AcDbEntity
  8
0
100
AcDbLine
 62
2
  6
CONTINUOUS
 10
106.1632224079
 20
12.6927101058
 11
94.9132224079
 21
12.6927101058
  0
INSERT
  5
292
100
AcDbEntity
  8
0
100
AcDbBlockReference
 62
2
  6
CONTINUOUS
  2
_FILLED
 10
90.6632224079
 20
12.6927101058
 41
5.0
 42
5.0
 43
5.0
  0
INSERT
  5
293
100
AcDbEntity
  8
0
100
AcDbBlockReference
 62
2
  6
CONTINUOUS
  2
_FILLED
 10
99.1632224079
 20
12.6927101058
 41
5.0
 42
5.0
 43
5.0
 50
180.0
  0
ENDBLK
  5
294
100
AcDbEntity
  8
0
  6
BYBLOCK
 62
0
100
AcDbBlockEnd
  0
BLOCK
  5
295
100
AcDbEntity
  8
0
100
AcDbBlockBegin
 62
2
  6
CONTINUOUS
  2
*D5
 70
65
 10
0.0
 20
0.0
  3
*D5
  1

  0
MTEXT
  5
296
100
AcDbEntity
  8
0
100
AcDbMText
 62
5
  6
CONTINUOUS
  7
STANDARD
 71
3
 72
1
 10
83.1820224079
 20
29.6418549334
 30
0.0
 11
1.0
 21
0.0
 31
0.0
 44
0.9
  1
M6
 40
5.0
 41
7.9390681004
  0
LINE
  5
297
100
AcDbEntity
  8
0
100
AcDbLine
 62
2
  6
CONTINUOUS
 10
97.9132224079
 20
33.774339607
 11
97.9132224079
 21
22.3918549334
  0
LINE
  5
298
100
AcDbEntity
  8
0
100
AcDbLine
 62
2
  6
CONTINUOUS
 10
91.9132224079
 20
33.774339607
 11
91.9132224079
 21
22.3918549334
  0
LINE
  5
299
100
AcDbEntity
  8
0
100
AcDbLine
 62
2
  6
CONTINUOUS
 10
97.9132224079
 20
23.3918549334
 11
104.9132224079
 21
23.3918549334
  0
LINE
  5
29A
100
AcDbEntity
  8
0
100
AcDbLine
 62
2
  6
CONTINUOUS
 10
104.9132224079
 20
23.3918549334
 11
94.9132224079
 21
23.3918549334
  0
LINE
  5
29B
100
AcDbEntity
  8
0
100
AcDbLine
 62
2
  6
CONTINUOUS
 10
91.9132224079
 20
23.3918549334
 11
75.2429543076
 21
23.3918549334
  0
LINE
  5
29C
100
AcDbEntity
  8
0
100
AcDbLine
 62
2
  6
CONTINUOUS
 10
75.2429543076
 20
23.3918549334
 11
94.9132224079
 21
23.3918549334
  0
INSERT
  5
29D
100
AcDbEntity
  8
0
100
AcDbBlockReference
 62
2
  6
CONTINUOUS
  2
_FILLED
 10
97.9132224079
 20
23.3918549334
 41
5.0
 42
5.0
 43
5.0
 50
180.0
  0
INSERT
  5
29E
100
AcDbEntity
  8
0
100
AcDbBlockReference
 62
2
  6
CONTINUOUS
  2
_FILLED
 10
91.9132224079
 20
23.3918549334
 41
5.0
 42
5.0
 43
5.0
  0
ENDBLK
  5
29F
100
AcDbEntity
  8
0
  6
BYBLOCK
 62
0
100
AcDbBlockEnd
  0
ENDSEC
  0
SECTION
  2
ENTITIES
  0
MTEXT
  5
2A0
100
AcDbEntity
  8
0
100
AcDbMText
 62
5
  6
CONTINUOUS
  7
STANDARD
 71
1
 72
1
 10
34.3374669412
 20
41.2463391385
 30
0.0
 11
0.0
 21
1.0
 31
0.0
 44
0.9
  1
***/ Proprietary rights apply in accordance with ISO 16016.
 40
2.5
 41
71.9444444444
  0
MTEXT
  5
2A1
100
AcDbEntity
  8
0
100
AcDbMText
 62
5
  6
CONTINUOUS
  7
STANDARD
 71
1
 72
1
 10
129.7916784705
 20
26.8390223614
 30
0.0
 11
1.0
 21
0.0
 31
0.0
 44
0.9
  1
B_9006_0005_BD01\P 
 40
4.0
 41
41.6200716846
  0
DIMENSION
  5
2A2
100
AcDbEntity
  8
0
100
AcDbDimension
 62
2
  6
CONTINUOUS
  2
*D0
 10
124.9132224079
 20
280.0410478007
 11
124.9132224079
 21
160.1576937039
 70
160
 71
2
 42
1487.0
  3
DIMSTYLE_1
100
AcDbAlignedDimension
 13
99.1632224079
 23
40.274339607
 14
99.9132224079
 24
280.0410478007
 50
90.0
100
AcDbRotatedDimension
  0
DIMENSION
  5
2A3
100
AcDbEntity
  8
0
100
AcDbDimension
 62
2
  6
CONTINUOUS
  2
*D1
 10
99.9132224079
 20
205.1402880112
 11
78.6014814612
 21
205.1402880112
 70
160
 71
3
 42
10.0
  1
%%c<>
  3
DIMSTYLE_2
100
AcDbAlignedDimension
 13
89.9132224079
 23
280.0410478007
 14
99.9132224079
 24
280.0410478007
100
AcDbRotatedDimension
  0
DIMENSION
  5
2A4
100
AcDbEntity
  8
0
100
AcDbDimension
 62
2
  6
CONTINUOUS
  2
*D2
 10
114.9132224079
 20
40.274339607
 11
114.9132224079
 21
52.774339607
 70
160
 71
2
 42
25.0
  3
DIMSTYLE_3
100
AcDbAlignedDimension
 13
99.1632224079
 23
65.274339607
 14
99.1632224079
 24
40.274339607
 50
270.0
100
AcDbRotatedDimension
  0
DIMENSION
  5
2A5
100
AcDbEntity
  8
0
100
AcDbDimension
 62
2
  6
CONTINUOUS
  2
*D3
 10
114.9132224079
 20
32.274339607
 11
114.9132224079
 21
36.274339607
 70
160
 71
2
 42
8.0
  3
DIMSTYLE_2
100
AcDbAlignedDimension
 13
97.9132224079
 23
40.274339607
 14
96.3459673466
 24
32.274339607
 50
270.0
100
AcDbRotatedDimension
  0
DIMENSION
  5
2A6
100
AcDbEntity
  8
0
100
AcDbDimension
 62
2
  6
CONTINUOUS
  2
*D4
 10
99.1632224079
 20
12.6927101058
 11
74.4991716849
 21
12.6927101058
 70
160
 71
3
 42
8.5
  1
%%c<>
  3
DIMSTYLE_2
100
AcDbAlignedDimension
 13
90.6632224079
 23
40.274339607
 14
99.1632224079
 24
40.274339607
100
AcDbRotatedDimension
  0
DIMENSION
  5
2A7
100
AcDbEntity
  8
0
100
AcDbDimension
 62
2
  6
CONTINUOUS
  2
*D5
 10
91.9132224079
 20
23.3918549334
 11
79.2124883577
 21
23.3918549334
 70
160
 71
3
 42
6.0
  1
M<>
  3
DIMSTYLE_4
100
AcDbAlignedDimension
 13
97.9132224079
 23
33.774339607
 14
91.9132224079
 24
33.774339607
 50
180.0
100
AcDbRotatedDimension
  0
LINE
  5
2A8
100
AcDbEntity
  8
0
100
AcDbLine
 62
5
  6
CONTINUOUS
 10
25.0
 20
4.9999999949
 11
205.0
 21
4.999999958
  0
LINE
  5
2A9
100
AcDbEntity
  8
0
100
AcDbLine
 62
5
  6
CONTINUOUS
 10
25.0
 20
291.9999999949
 11
25.0
 21
4.9999999949
  0
LINE
  5
2AA
100
AcDbEntity
  8
0
100
AcDbLine
 62
5
  6
CONTINUOUS
 10
205.0
 20
291.999999958
 11
205.0
 21
4.999999958
  0
LINE
  5
2AB
100
AcDbEntity
  8
0
100
AcDbLine
 62
5
  6
CONTINUOUS
 10
25.0
 20
291.9999999949
 11
205.0
 21
291.999999958
  0
LINE
  5
2AC
100
AcDbEntity
  8
0
100
AcDbLine
 62
2
  6
CONTINUOUS
 10
89.9132224079
 20
112.2763109252
 11
99.9132224079
 21
112.2763109252
  0
LINE
  5
2AD
100
AcDbEntity
  8
AXIS
100
AcDbLine
 62
7
  6
CONTINUOUS
 10
89.9132224079
 20
112.2763109252
 11
89.9132224079
 21
280.0410478007
  0
LINE
  5
2AE
100
AcDbEntity
  8
AXIS
100
AcDbLine
 62
7
  6
CONTINUOUS
 10
99.9132224079
 20
112.2763109252
 11
99.9132224079
 21
280.0410478007
  0
LINE
  5
2AF
100
AcDbEntity
  8
AXIS
100
AcDbLine
 62
7
  6
CONTINUOUS
 10
89.9132224079
 20
280.0410478007
 11
99.9132224079
 21
280.0410478007
  0
LINE
  5
2B0
100
AcDbEntity
  8
0
100
AcDbLine
 62
7
  6
CONTINUOUS
 10
96.4132224079
 20
32.274339607
 11
93.4132224079
 21
32.274339607
  0
LINE
  5
2B1
100
AcDbEntity
  8
0
100
AcDbLine
 62
7
  6
CONTINUOUS
 10
97.9132224079
 20
33.774339607
 11
91.9132224079
 21
33.774339607
  0
LINE
  5
2B2
100
AcDbEntity
  8
AXIS
100
AcDbLine
 62
7
  6
CONTINUOUS
 10
91.9132224079
 20
39.274339607
 11
97.9132224079
 21
39.274339607
  0
LINE
  5
2B3
100
AcDbEntity
  8
AXIS
100
AcDbLine
 62
7
  6
CONTINUOUS
 10
99.1632224079
 20
40.274339607
 11
90.6632224079
 21
40.274339607
  0
LINE
  5
2B4
100
AcDbEntity
  8
0
100
AcDbLine
 62
7
  6
CONTINUOUS
 10
93.4132223377
 20
32.2743395368
 11
91.9132222674
 21
33.7743394665
  0
LINE
  5
2B5
100
AcDbEntity
  8
AXIS
100
AcDbLine
 62
7
  6
CONTINUOUS
 10
89.9132224079
 20
65.274339607
 11
89.9132224079
 21
110.6125638733
  0
LINE
  5
2B6
100
AcDbEntity
  8
AXIS
100
AcDbLine
 62
7
  6
CONTINUOUS
 10
89.9132224079
 20
65.274339607
 11
99.9132224079
 21
65.274339607
  0
LINE
  5
2B7
100
AcDbEntity
  8
AXIS
100
AcDbLine
 62
7
  6
CONTINUOUS
 10
90.6632224079
 20
65.274339607
 11
90.6632224079
 21
40.274339607
  0
LINE
  5
2B8
100
AcDbEntity
  8
0
100
AcDbLine
 62
2
  6
CONTINUOUS
 10
91.9132224079
 20
40.274339607
 11
91.9132224079
 21
33.774339607
  0
LINE
  5
2B9
100
AcDbEntity
  8
AXIS
100
AcDbLine
 62
7
  6
CONTINUOUS
 10
91.9132224079
 20
39.274339607
 11
91.9132224079
 21
33.774339607
  0
LINE
  5
2BA
100
AcDbEntity
  8
AXIS
100
AcDbLine
 62
7
  6
CONTINUOUS
 10
92.1132224079
 20
40.274339607
 11
92.1132224079
 21
39.274339607
  0
LINE
  5
2BB
100
AcDbEntity
  8
S-AXIS
100
AcDbLine
 62
7
  6
CENTER
 10
94.9132224079
 20
282.4897146715
 11
94.9132224079
 21
30.1048902843
  0
LINE
  5
2BC
100
AcDbEntity
  8
AXIS
100
AcDbLine
 62
7
  6
CONTINUOUS
 10
97.7132224079
 20
40.274339607
 11
97.7132224079
 21
39.274339607
  0
LINE
  5
2BD
100
AcDbEntity
  8
0
100
AcDbLine
 62
2
  6
CONTINUOUS
 10
97.9132224079
 20
40.274339607
 11
97.9132224079
 21
33.774339607
  0
LINE
  5
2BE
100
AcDbEntity
  8
AXIS
100
AcDbLine
 62
7
  6
CONTINUOUS
 10
97.9132224079
 20
39.274339607
 11
97.9132224079
 21
33.774339607
  0
LINE
  5
2BF
100
AcDbEntity
  8
AXIS
100
AcDbLine
 62
7
  6
CONTINUOUS
 10
99.1632224079
 20
65.274339607
 11
99.1632224079
 21
40.274339607
  0
LINE
  5
2C0
100
AcDbEntity
  8
AXIS
100
AcDbLine
 62
7
  6
CONTINUOUS
 10
99.9132224079
 20
65.274339607
 11
99.9132224079
 21
110.6125638733
  0
LINE
  5
2C1
100
AcDbEntity
  8
0
100
AcDbLine
 62
7
  6
CONTINUOUS
 10
96.4132224782
 20
32.2743395368
 11
97.9132225484
 21
33.7743394665
  0
LINE
  5
2C2
100
AcDbEntity
  8
0
100
AcDbLine
 62
2
  6
CONTINUOUS
 10
99.9132224079
 20
110.6125638733
 11
89.9132224079
 21
110.6125638733
  0
INSERT
  5
2C3
100
AcDbEntity
  8
GU_BKS_BL0
100
AcDbBlockReference
  2
GU_BKS_BL0
 10
38.0507222011
 20
15.4607358413
  0
ENDSEC
  0
SECTION
  2
OBJECTS
  0
DICTIONARY
  5
C
100
AcDbDictionary
280
0
281
1
  3
ACAD_GROUP
350
D
  3
ACAD_MLINESTYLE
350
17
  3
ACAD_LAYOUT
350
1A
  3
ACAD_PLOTSETTINGS
350
19
  3
ACAD_PLOTSTYLENAME
350
E
  0
DICTIONARY
  5
D
102
{ACAD_REACTORS
330
C
102
}
100
AcDbDictionary
280
0
281
1
  0
ACDBDICTIONARYWDFLT
  5
E
102
{ACAD_REACTORS
330
C
102
}
100
AcDbDictionary
281
1
  3
Normal
350
F
100
AcDbDictionaryWithDefault
340
F
  0
DICTIONARY
  5
17
102
{ACAD_REACTORS
330
C
102
}
100
AcDbDictionary
280
0
281
1
  3
Standard
350
18
  0
DICTIONARY
  5
19
102
{ACAD_REACTORS
330
C
102
}
100
AcDbDictionary
281
1
  0
DICTIONARY
  5
1A
102
{ACAD_REACTORS
330
C
102
}
100
AcDbDictionary
281
1
  3
Model
350
2C4
  3
Layout1
350
2C5
  0
ACDBPLACEHOLDER
  5
F
102
{ACAD_REACTORS
330
E
102
}
  0
MLINESTYLE
  5
18
102
{ACAD_REACTORS
330
17
102
}
100
AcDbMlineStyle
  2
STANDARD
 70
0
  3

 62
256
 51
90.0
 52
90.0
 71
2
 49
0.5
 62
256
  6
BYLAYER
 49
-0.5
 62
256
  6
BYLAYER
  0
LAYOUT
  5
2C4
102
{ACAD_REACTORS
330
1A
102
}
100
AcDbPlotSettings
  1

  2
none_device
  4

  6

 40
0.0
 41
0.0
 42
0.0
 43
0.0
 44
210.0
 45
297.0
 46
0.0
 47
0.0
 48
0.0
 49
0.0
140
0.0
141
0.0
142
1.0
143
1.0
 70
1024
 72
1
 73
0
 74
0
  7

 75
0
147
1.0
148
0.0
149
0.0
100
AcDbLayout
  1
Model
 70
0
 71
0
 10
0.0
 20
0.0
 11
210.0
 21
297.0
 12
0.0
 22
0.0
 32
0.0
 14
0.0
 24
0.0
 34
0.0
 15
0.0
 25
0.0
 35
0.0
146
0.0
 13
0.0
 23
0.0
 33
0.0
 16
1.0
 26
0.0
 36
0.0
 17
0.0
 27
1.0
 37
0.0
 76
0
330
20B
345
0
346
0
  0
LAYOUT
  5
2C5
102
{ACAD_REACTORS
330
1A
102
}
100
AcDbPlotSettings
  1

  2
none_device
  4

  6

 40
0.0
 41
0.0
 42
0.0
 43
0.0
 44
210.0
 45
297.0
 46
0.0
 47
0.0
 48
0.0
 49
0.0
140
0.0
141
0.0
142
1.0
143
1.0
 70
0
 72
1
 73
0
 74
0
  7

 75
0
147
1.0
148
0.0
149
0.0
100
AcDbLayout
  1
Layout1
 70
0
 71
1
 10
0.0
 20
0.0
 11
210.0
 21
297.0
 12
0.0
 22
0.0
 32
0.0
 14
0.0
 24
0.0
 34
0.0
 15
0.0
 25
0.0
 35
0.0
146
0.0
 13
0.0
 23
0.0
 33
0.0
 16
1.0
 26
0.0
 36
0.0
 17
0.0
 27
1.0
 37
0.0
 76
0
330
20C
345
0
346
0
  0
ENDSEC
  0
EOF
