999
DXF file: Z:\Entwicklung\5_Service\1_Maßblätter\4_Schloss\b_9000_0881_bd01.dxf
999
Pro/ENGINEER 2015240 by Parametric Technology Corporation
  0
SECTION
  2
HEADER
  9
$ACADVER
  1
AC1021
  9
$DWGCODEPAGE
  3
ANSI_1252
  9
$EXTMAX
 10
420.0
 20
297.0
 30
0.0
  9
$EXTMIN
 10
0.0
 20
0.0
 30
0.0
  9
$LIMMIN
 10
0.0
 20
0.0
  9
$LIMMAX
 10
420.0
 20
297.0
  9
$VIEWCTR
 10
210.0
 20
148.5
  9
$VIEWSIZE
 40
297.0
  9
$CLAYER
  8
0
  9
$LTSCALE
 40
23.1
  9
$CELTYPE
  6
BYLAYER
  9
$DIMSCALE
 40
1.0
  9
$DIMASZ
 40
3.5
  9
$DIMEXO
 40
0.0
  9
$DIMDLI
 40
15.96
  9
$DIMEXE
 40
1.0
  9
$DIMCEN
 40
3.78
  9
$DIMLFAC
 40
1.0
  9
$DIMBLK
  1
_FILLED
  9
$DIMTXT
 40
2.5
  9
$DIMTOL
 70
1
  9
$DIMLIM
 70
0
  9
$DIMTFAC
 40
1.0
  9
$DIMTP
 40
0.001
  9
$DIMTM
 40
0.001
  9
$DIMGAP
 40
0.625
  9
$DIMDSEP
 70
46
  9
$PDMODE
 70
3
  9
$PDSIZE
 40
2.0
  9
$HANDSEED
  5
3AC
  9
$TILEMODE
 70
1
  9
$MEASUREMENT
 70
1
  9
$INSUNITS
 70
4
  0
ENDSEC
  0
SECTION
  2
CLASSES
  0
CLASS
  1
ACDBDICTIONARYWDFLT
  2
AcDbDictionaryWithDefault
  3
AutoCAD 2000
 90
0
 91
1
280
0
281
0
  0
CLASS
  1
ACDBPLACEHOLDER
  2
AcDbPlaceHolder
  3
AutoCAD 2000
 90
0
 91
1
280
0
281
0
  0
CLASS
  1
LAYOUT
  2
AcDbLayout
  3
AutoCAD 2000
 90
0
 91
0
280
0
281
0
  0
CLASS
  1
TABLESTYLE
  2
AcDbTableStyle
  3
ObjectDBX Classes
 90
2047
 91
1
280
0
281
0
  0
CLASS
  1
ACAD_TABLE
  2
AcDbTable
  3
ObjectDBX Classes
 90
1025
 91
1
280
0
281
1
  0
ENDSEC
  0
SECTION
  2
TABLES
  0
TABLE
  2
VPORT
  5
8
100
AcDbSymbolTable
 70
2
  0
VPORT
  5
1F4
100
AcDbSymbolTableRecord
100
AcDbViewportTableRecord
  2
*ACTIVE
 70
0
 10
0.0
 20
0.0
 11
1.0
 21
1.0
 12
210.0
 22
148.5
 13
0.0
 23
0.0
 14
1.0
 24
1.0
 15
0.0
 25
0.0
 16
0.0
 26
0.0
 36
1.0
 17
0.0
 27
0.0
 37
0.0
 40
297.0
 41
1.4141414141
 42
50.0
 43
0.0
 44
0.0
 50
0.0
 51
0.0
 71
0
 72
100
 73
1
 74
1
 75
0
 76
0
 77
0
 78
0
  0
ENDTAB
  0
TABLE
  2
LTYPE
  5
5
100
AcDbSymbolTable
 70
6
  0
LTYPE
  5
14
100
AcDbSymbolTableRecord
100
AcDbLinetypeTableRecord
  2
BYBLOCK
 70
0
  3

 72
65
 73
0
 40
0.0
  0
LTYPE
  5
15
100
AcDbSymbolTableRecord
100
AcDbLinetypeTableRecord
  2
BYLAYER
 70
0
  3

 72
65
 73
0
 40
0.0
  0
LTYPE
  5
16
100
AcDbSymbolTableRecord
100
AcDbLinetypeTableRecord
  2
CONTINUOUS
 70
64
  3
Solid line
 72
65
 73
0
 40
0.0
  0
LTYPE
  5
1F5
100
AcDbSymbolTableRecord
100
AcDbLinetypeTableRecord
  2
CENTER
 70
64
  3
____ _ ____ _ ____ _ ____ _ ____ _ ____ _ ____
 72
65
 73
4
 40
0.6
 49
0.375
 74
0
 49
-0.075
 74
0
 49
0.075
 74
0
 49
-0.075
 74
0
  0
LTYPE
  5
1F6
100
AcDbSymbolTableRecord
100
AcDbLinetypeTableRecord
  2
HIDDEN
 70
64
  3
- - - - - - - - - - - - - - - - - - - -
 72
65
 73
2
 40
0.2
 49
0.1
 74
0
 49
-0.1
 74
0
  0
LTYPE
  5
1F7
100
AcDbSymbolTableRecord
100
AcDbLinetypeTableRecord
  2
PHANTOM
 70
64
  3
_____ _ _ _____ _ _ _____ _ _ _____
 72
65
 73
6
 40
0.8
 49
0.45
 74
0
 49
-0.05
 74
0
 49
0.1
 74
0
 49
-0.05
 74
0
 49
0.1
 74
0
 49
-0.05
 74
0
  0
LTYPE
  5
1F8
100
AcDbSymbolTableRecord
100
AcDbLinetypeTableRecord
  2
DOT
 70
64
  3
. . . . . . . . . . . . . . . . . . . .
 72
65
 73
2
 40
0.2
 49
0.1
 74
0
 49
-0.1
 74
0
  0
LTYPE
  5
1F9
100
AcDbSymbolTableRecord
100
AcDbLinetypeTableRecord
  2
DASHED
 70
64
  3
- - - - - - - - - - - - - - - - - - - -
 72
65
 73
2
 40
0.2
 49
0.1
 74
0
 49
-0.1
 74
0
  0
ENDTAB
  0
TABLE
  2
LAYER
  5
2
100
AcDbSymbolTable
 70
36
  0
LAYER
  5
10
100
AcDbSymbolTableRecord
100
AcDbLayerTableRecord
  2
0
 70
0
 62
7
  6
CONTINUOUS
370
-3
390
F
  0
LAYER
  5
1FA
100
AcDbSymbolTableRecord
100
AcDbLayerTableRecord
  2
DEFAULT_1
 70
0
 62
7
  6
CENTER
370
-3
390
F
  0
LAYER
  5
1FB
100
AcDbSymbolTableRecord
100
AcDbLayerTableRecord
  2
DEFAULT_2
 70
0
 62
8
  6
HIDDEN
370
-3
390
F
  0
LAYER
  5
1FC
100
AcDbSymbolTableRecord
100
AcDbLayerTableRecord
  2
DEFAULT_3
 70
0
 62
7
  6
PHANTOM
370
-3
390
F
  0
LAYER
  5
1FD
100
AcDbSymbolTableRecord
100
AcDbLayerTableRecord
  2
AXIS
 70
0
 62
7
  6
CONTINUOUS
370
-3
390
F
  0
LAYER
  5
1FE
100
AcDbSymbolTableRecord
100
AcDbLayerTableRecord
  2
COORDSYS
 70
0
 62
7
  6
CONTINUOUS
370
-3
390
F
  0
LAYER
  5
1FF
100
AcDbSymbolTableRecord
100
AcDbLayerTableRecord
  2
CURVES
 70
0
 62
7
  6
CONTINUOUS
370
-3
390
F
  0
LAYER
  5
200
100
AcDbSymbolTableRecord
100
AcDbLayerTableRecord
  2
GUIDES
 70
0
 62
7
  6
CONTINUOUS
370
-3
390
F
  0
LAYER
  5
201
100
AcDbSymbolTableRecord
100
AcDbLayerTableRecord
  2
HIDDEN
 70
0
 62
7
  6
CONTINUOUS
370
-3
390
F
  0
LAYER
  5
202
100
AcDbSymbolTableRecord
100
AcDbLayerTableRecord
  2
INDEX
 70
0
 62
7
  6
CONTINUOUS
370
-3
390
F
  0
LAYER
  5
203
100
AcDbSymbolTableRecord
100
AcDbLayerTableRecord
  2
PLANES
 70
0
 62
7
  6
CONTINUOUS
370
-3
390
F
  0
LAYER
  5
204
100
AcDbSymbolTableRecord
100
AcDbLayerTableRecord
  2
POINTS
 70
0
 62
7
  6
CONTINUOUS
370
-3
390
F
  0
LAYER
  5
205
100
AcDbSymbolTableRecord
100
AcDbLayerTableRecord
  2
S-AXIS
 70
0
 62
7
  6
CONTINUOUS
370
-3
390
F
  0
LAYER
  5
206
100
AcDbSymbolTableRecord
100
AcDbLayerTableRecord
  2
S-COORDSYS
 70
0
 62
7
  6
CONTINUOUS
370
-3
390
F
  0
LAYER
  5
207
100
AcDbSymbolTableRecord
100
AcDbLayerTableRecord
  2
S-PLANES
 70
0
 62
7
  6
CONTINUOUS
370
-3
390
F
  0
LAYER
  5
208
100
AcDbSymbolTableRecord
100
AcDbLayerTableRecord
  2
THREADS
 70
0
 62
7
  6
CONTINUOUS
370
-3
390
F
  0
LAYER
  5
209
100
AcDbSymbolTableRecord
100
AcDbLayerTableRecord
  2
HATCHING_BL0
 70
0
 62
7
  6
CONTINUOUS
370
-3
390
F
  0
LAYER
  5
20A
100
AcDbSymbolTableRecord
100
AcDbLayerTableRecord
  2
Grp_symbol_75_BL1
 70
0
 62
7
  6
CONTINUOUS
370
-3
390
F
  0
LAYER
  5
20B
100
AcDbSymbolTableRecord
100
AcDbLayerTableRecord
  2
Grp_symbol_75_BL2
 70
0
 62
7
  6
CONTINUOUS
370
-3
390
F
  0
ENDTAB
  0
TABLE
  2
STYLE
  5
3
100
AcDbSymbolTable
 70
1
  0
STYLE
  5
11
100
AcDbSymbolTableRecord
100
AcDbTextStyleTableRecord
  2
STANDARD
 70
0
 40
0.0
 41
0.8
 50
0.0
 71
0
 42
0.2
  3
txt
  4

  0
STYLE
  5
20C
100
AcDbSymbolTableRecord
100
AcDbTextStyleTableRecord
  2
TEXTSTYLE_1
 70
0
 40
0.0
 41
0.8
 50
0.0
 71
0
 42
0.2
  3
gdt
  4

  0
STYLE
  5
20D
100
AcDbSymbolTableRecord
100
AcDbTextStyleTableRecord
  2
TEXTSTYLE_2
 70
0
 40
0.0
 41
1.0
 50
0.0
 71
0
 42
0.2
  3
swisscl.ttf
  4

  0
ENDTAB
  0
TABLE
  2
VIEW
  5
6
100
AcDbSymbolTable
 70
0
  0
ENDTAB
  0
TABLE
  2
UCS
  5
7
100
AcDbSymbolTable
 70
0
  0
ENDTAB
  0
TABLE
  2
APPID
  5
9
100
AcDbSymbolTable
 70
1
  0
APPID
  5
20E
100
AcDbSymbolTableRecord
100
AcDbRegAppTableRecord
  2
ACAD
 70
0
  0
ENDTAB
  0
TABLE
  2
BLOCK_RECORD
  5
1
100
AcDbSymbolTable
 70
0
  0
BLOCK_RECORD
  5
20F
100
AcDbSymbolTableRecord
100
AcDbBlockTableRecord
  2
*Model_Space
  0
BLOCK_RECORD
  5
210
100
AcDbSymbolTableRecord
100
AcDbBlockTableRecord
  2
*Paper_Space
  0
BLOCK_RECORD
  5
211
100
AcDbSymbolTableRecord
100
AcDbBlockTableRecord
  2
_FILLED
  0
BLOCK_RECORD
  5
212
100
AcDbSymbolTableRecord
100
AcDbBlockTableRecord
  2
*D0
  0
BLOCK_RECORD
  5
213
100
AcDbSymbolTableRecord
100
AcDbBlockTableRecord
  2
*D1
  0
BLOCK_RECORD
  5
214
100
AcDbSymbolTableRecord
100
AcDbBlockTableRecord
  2
*D2
  0
BLOCK_RECORD
  5
215
100
AcDbSymbolTableRecord
100
AcDbBlockTableRecord
  2
*D3
  0
BLOCK_RECORD
  5
216
100
AcDbSymbolTableRecord
100
AcDbBlockTableRecord
  2
*D4
  0
BLOCK_RECORD
  5
217
100
AcDbSymbolTableRecord
100
AcDbBlockTableRecord
  2
*D5
  0
BLOCK_RECORD
  5
218
100
AcDbSymbolTableRecord
100
AcDbBlockTableRecord
  2
*D6
  0
BLOCK_RECORD
  5
219
100
AcDbSymbolTableRecord
100
AcDbBlockTableRecord
  2
*D7
  0
BLOCK_RECORD
  5
21A
100
AcDbSymbolTableRecord
100
AcDbBlockTableRecord
  2
*D8
  0
BLOCK_RECORD
  5
21B
100
AcDbSymbolTableRecord
100
AcDbBlockTableRecord
  2
*D9
  0
BLOCK_RECORD
  5
21C
100
AcDbSymbolTableRecord
100
AcDbBlockTableRecord
  2
*D10
  0
BLOCK_RECORD
  5
21D
100
AcDbSymbolTableRecord
100
AcDbBlockTableRecord
  2
*D11
  0
BLOCK_RECORD
  5
21E
100
AcDbSymbolTableRecord
100
AcDbBlockTableRecord
  2
*D12
  0
BLOCK_RECORD
  5
21F
100
AcDbSymbolTableRecord
100
AcDbBlockTableRecord
  2
*D13
  0
BLOCK_RECORD
  5
220
100
AcDbSymbolTableRecord
100
AcDbBlockTableRecord
  2
*D14
  0
BLOCK_RECORD
  5
221
100
AcDbSymbolTableRecord
100
AcDbBlockTableRecord
  2
*D15
  0
BLOCK_RECORD
  5
222
100
AcDbSymbolTableRecord
100
AcDbBlockTableRecord
  2
*D16
  0
BLOCK_RECORD
  5
223
100
AcDbSymbolTableRecord
100
AcDbBlockTableRecord
  2
*D17
  0
BLOCK_RECORD
  5
224
100
AcDbSymbolTableRecord
100
AcDbBlockTableRecord
  2
HATCHING_BL0
  0
BLOCK_RECORD
  5
225
100
AcDbSymbolTableRecord
100
AcDbBlockTableRecord
  2
GRP_SYMBOL_75_BL1
  0
BLOCK_RECORD
  5
226
100
AcDbSymbolTableRecord
100
AcDbBlockTableRecord
  2
GRP_SYMBOL_75_BL2
  0
BLOCK_RECORD
  5
227
100
AcDbSymbolTableRecord
100
AcDbBlockTableRecord
  2
*T1
  0
ENDTAB
  0
TABLE
  2
DIMSTYLE
  5
A
100
AcDbSymbolTable
 70
1
100
AcDbDimStyleTable
 71
0
  0
DIMSTYLE
105
228
100
AcDbSymbolTableRecord
100
AcDbDimStyleTableRecord
  2
STANDARD
 70
0
  3

  4

 40
1.0
 41
3.5
 42
0.0
 43
0.38
 44
1.0
 45
0.0
 46
0.0
 47
0.001
 48
0.001
140
2.5
141
0.09
142
0.0
143
25.4
144
1.0
145
0.0
146
1.0
147
0.625
 71
1.0
 72
0.0
 73
0
 74
0
 75
0
 76
0
 77
1
 78
8
170
0
171
2
172
0
173
0
174
0
175
0
176
0
177
0
178
5
270
2
271
3
272
3
273
2
274
2
275
0
280
0
281
0
282
0
283
1
284
8
285
0
286
0
287
3
288
0
340
11
278
46
341
211
342
211
343
211
344
211
  0
DIMSTYLE
105
229
100
AcDbSymbolTableRecord
100
AcDbDimStyleTableRecord
  2
DIMSTYLE_1
 70
0
  3

  4

 40
1.0
 41
3.5
 42
0.0
 43
0.38
 44
1.0
 45
0.0
 46
0.0
 47
0.2
 48
0.2
140
3.0
141
0.09
142
0.0
143
25.4
144
1.0
145
0.0
146
1.0
147
0.625
 71
0.0
 72
0.0
 73
0
 74
0
 75
0
 76
0
 77
1
 78
8
170
0
171
2
172
0
173
0
174
0
175
0
176
0
177
0
178
5
270
2
271
3
272
3
273
2
274
2
275
0
280
0
281
0
282
0
283
1
284
8
285
0
286
0
287
3
288
0
340
20D
278
46
341
211
342
211
343
211
344
211
  0
DIMSTYLE
105
22A
100
AcDbSymbolTableRecord
100
AcDbDimStyleTableRecord
  2
DIMSTYLE_2
 70
0
  3

  4

 40
1.0
 41
3.5
 42
0.0
 43
0.38
 44
1.0
 45
0.0
 46
0.0
 47
0.2
 48
0.2
140
3.0
141
0.09
142
0.0
143
25.4
144
1.0
145
0.0
146
1.0
147
0.75
 71
0.0
 72
0.0
 73
0
 74
0
 75
0
 76
0
 77
1
 78
8
170
0
171
2
172
0
173
0
174
0
175
0
176
0
177
0
178
5
270
2
271
3
272
3
273
2
274
2
275
0
280
0
281
0
282
0
283
1
284
8
285
0
286
0
287
3
288
0
340
20D
278
46
341
211
342
211
343
211
344
211
  0
DIMSTYLE
105
22B
100
AcDbSymbolTableRecord
100
AcDbDimStyleTableRecord
  2
DIMSTYLE_3
 70
0
  3

  4

 40
1.0
 41
3.5
 42
0.0
 43
0.38
 44
1.0
 45
0.0
 46
0.0
 47
0.1
 48
0.1
140
3.0
141
0.09
142
0.0
143
25.4
144
1.0
145
0.0
146
1.0
147
0.75
 71
0.0
 72
0.0
 73
0
 74
0
 75
0
 76
0
 77
1
 78
8
170
0
171
2
172
0
173
0
174
0
175
0
176
0
177
0
178
5
270
2
271
3
272
3
273
2
274
2
275
0
280
0
281
0
282
0
283
1
284
8
285
0
286
0
287
3
288
0
340
20D
278
46
341
211
342
211
343
211
344
211
  0
DIMSTYLE
105
22C
100
AcDbSymbolTableRecord
100
AcDbDimStyleTableRecord
  2
DIMSTYLE_4
 70
0
  3

  4

 40
1.0
 41
3.5
 42
0.0
 43
0.38
 44
1.0
 45
0.0
 46
0.0
 47
0.2
 48
0.2
140
3.0
141
0.09
142
0.0
143
25.4
144
1.0
145
0.0
146
1.0
147
0.75
 71
0.0
 72
0.0
 73
0
 74
0
 75
0
 76
0
 77
1
 78
8
170
0
171
2
172
0
173
0
174
0
175
0
176
0
177
0
178
5
270
2
271
0
272
0
273
2
274
2
275
0
280
0
281
0
282
0
283
1
284
8
285
0
286
0
287
3
288
0
340
20D
278
46
341
211
342
211
343
211
344
211
  0
DIMSTYLE
105
22D
100
AcDbSymbolTableRecord
100
AcDbDimStyleTableRecord
  2
DIMSTYLE_5
 70
0
  3

  4

 40
1.0
 41
3.5
 42
0.0
 43
0.38
 44
1.0
 45
0.0
 46
0.0
 47
0.3
 48
0.3
140
3.0
141
0.09
142
0.0
143
25.4
144
1.0
145
0.0
146
1.0
147
0.75
 71
0.0
 72
0.0
 73
0
 74
0
 75
0
 76
0
 77
1
 78
8
170
0
171
2
172
0
173
0
174
0
175
0
176
0
177
0
178
5
270
2
271
3
272
3
273
2
274
2
275
0
280
0
281
0
282
0
283
1
284
8
285
0
286
0
287
3
288
0
340
20D
278
46
341
211
342
211
343
211
344
211
  0
DIMSTYLE
105
22E
100
AcDbSymbolTableRecord
100
AcDbDimStyleTableRecord
  2
DIMSTYLE_6
 70
0
  3

  4

 40
1.0
 41
3.5
 42
0.0
 43
0.38
 44
1.0
 45
0.0
 46
0.0
 47
0.5
 48
0.5
140
3.0
141
0.09
142
0.0
143
25.4
144
1.0
145
0.0
146
1.0
147
0.75
 71
0.0
 72
0.0
 73
0
 74
0
 75
0
 76
0
 77
1
 78
8
170
0
171
2
172
0
173
0
174
0
175
0
176
0
177
0
178
5
270
2
271
0
272
0
273
2
274
2
275
0
280
0
281
0
282
0
283
1
284
8
285
0
286
0
287
3
288
0
340
20D
278
46
341
211
342
211
343
211
344
211
  0
ENDTAB
  0
ENDSEC
  0
SECTION
  2
BLOCKS
  0
BLOCK
  5
20
100
AcDbEntity
  8
0
100
AcDbBlockBegin
  2
*Model_Space
 70
0
 10
0.0
 20
0.0
 30
0.0
  3
*Model_Space
  1

  0
ENDBLK
  5
21
100
AcDbEntity
  8
0
100
AcDbBlockEnd
  0
BLOCK
  5
1C
100
AcDbEntity
  8
0
100
AcDbBlockBegin
  2
*Paper_Space
 70
0
 10
0.0
 20
0.0
 30
0.0
  3
*Paper_Space
  1

  0
ENDBLK
  5
1D
100
AcDbEntity
  8
0
100
AcDbBlockEnd
  0
BLOCK
  5
22F
100
AcDbEntity
  8
HATCHING_BL0
100
AcDbBlockBegin
  2
HATCHING_BL0
 70
64
 10
0.0
 20
0.0
  3
HATCHING_BL0
  1

  0
ENDBLK
  5
230
100
AcDbEntity
  8
0
  6
BYBLOCK
 62
0
100
AcDbBlockEnd
  0
BLOCK
  5
231
100
AcDbEntity
  8
Grp_symbol_75_BL1
100
AcDbBlockBegin
  2
GRP_SYMBOL_75_BL1
 70
64
 10
46.3855856311
 20
44.8369506294
  3
GRP_SYMBOL_75_BL1
  1

  0
LWPOLYLINE
  5
232
100
AcDbEntity
  8
Grp_symbol_75_BL1
100
AcDbPolyline
 62
2
  6
CONTINUOUS
 90
42
 70
0
 10
33.0250760241
 20
52.3300063339
 10
33.1576103968
 20
52.3369513346
 10
59.6135608653
 20
52.3369513346
 10
59.746095238
 20
52.3300063339
 10
59.8771775364
 20
52.309246332
 10
60.0053715954
 20
52.2748963288
 10
60.129272894
 20
52.2273313243
 10
60.2475239438
 20
52.1670763186
 10
60.3588291613
 20
52.0947913118
 10
60.4619690635
 20
52.011271304
 10
60.5558136279
 20
51.9174312951
 10
60.6393346738
 20
51.8142912854
 10
60.7116171273
 20
51.702991275
 10
60.7718690466
 20
51.5847312639
 10
60.819430299
 20
51.4608312522
 10
60.8537797936
 20
51.3326412402
 10
60.87454119
 20
51.2015562278
 10
60.8814870222
 20
51.0690162154
 10
40.038891239
 20
50.1627900674
 10
39.2215682728
 20
50.0128414124
 10
38.4358837478
 20
49.7422841037
 10
37.6995282597
 20
49.3572100521
 10
37.0290817039
 20
48.8662896451
 10
36.4396399602
 20
48.2805765235
 10
35.9444749909
 20
47.6132586956
 10
35.5547360082
 20
46.8793615942
 10
31.8896842399
 20
38.6048700434
 10
31.8896842399
 20
51.0690162154
 10
31.8966300721
 20
51.2015562278
 10
31.9173914685
 20
51.3326412402
 10
31.9517409631
 20
51.4608312522
 10
31.9993022155
 20
51.5847312639
 10
32.0595541348
 20
51.702991275
 10
32.1318365883
 20
51.8142912854
 10
32.2153576342
 20
51.9174312951
 10
32.3092021986
 20
52.011271304
 10
32.4123421008
 20
52.0947913118
 10
32.5236473184
 20
52.1670763186
 10
32.6418983681
 20
52.2273313243
 10
32.7657996667
 20
52.2748963288
 10
32.8939937257
 20
52.309246332
 10
33.0250760241
 20
52.3300063339
  0
HATCH
  5
233
100
AcDbEntity
  8
Grp_symbol_75_BL1
100
AcDbHatch
 62
2
  6
CONTINUOUS
 10
0.0
 20
0.0
 30
0.0
210
0.0
220
0.0
230
1.0
  2
SOLID
 70
1
 71
1
 91
1
 92
1
 93
41
 72
1
 10
33.0250760241
 20
52.3300063339
 11
33.1576103968
 21
52.3369513346
 72
1
 10
33.1576103968
 20
52.3369513346
 11
59.6135608653
 21
52.3369513346
 72
1
 10
59.6135608653
 20
52.3369513346
 11
59.746095238
 21
52.3300063339
 72
1
 10
59.746095238
 20
52.3300063339
 11
59.8771775364
 21
52.309246332
 72
1
 10
59.8771775364
 20
52.309246332
 11
60.0053715954
 21
52.2748963288
 72
1
 10
60.0053715954
 20
52.2748963288
 11
60.129272894
 21
52.2273313243
 72
1
 10
60.129272894
 20
52.2273313243
 11
60.2475239438
 21
52.1670763186
 72
1
 10
60.2475239438
 20
52.1670763186
 11
60.3588291613
 21
52.0947913118
 72
1
 10
60.3588291613
 20
52.0947913118
 11
60.4619690635
 21
52.011271304
 72
1
 10
60.4619690635
 20
52.011271304
 11
60.5558136279
 21
51.9174312951
 72
1
 10
60.5558136279
 20
51.9174312951
 11
60.6393346738
 21
51.8142912854
 72
1
 10
60.6393346738
 20
51.8142912854
 11
60.7116171273
 21
51.702991275
 72
1
 10
60.7116171273
 20
51.702991275
 11
60.7718690466
 21
51.5847312639
 72
1
 10
60.7718690466
 20
51.5847312639
 11
60.819430299
 21
51.4608312522
 72
1
 10
60.819430299
 20
51.4608312522
 11
60.8537797936
 21
51.3326412402
 72
1
 10
60.8537797936
 20
51.3326412402
 11
60.87454119
 21
51.2015562278
 72
1
 10
60.87454119
 20
51.2015562278
 11
60.8814870222
 21
51.0690162154
 72
1
 10
60.8814870222
 20
51.0690162154
 11
40.038891239
 21
50.1627900674
 72
1
 10
40.038891239
 20
50.1627900674
 11
39.2215682728
 21
50.0128414124
 72
1
 10
39.2215682728
 20
50.0128414124
 11
38.4358837478
 21
49.7422841037
 72
1
 10
38.4358837478
 20
49.7422841037
 11
37.6995282597
 21
49.3572100521
 72
1
 10
37.6995282597
 20
49.3572100521
 11
37.0290817039
 21
48.8662896451
 72
1
 10
37.0290817039
 20
48.8662896451
 11
36.4396399602
 21
48.2805765235
 72
1
 10
36.4396399602
 20
48.2805765235
 11
35.9444749909
 21
47.6132586956
 72
1
 10
35.9444749909
 20
47.6132586956
 11
35.5547360082
 21
46.8793615942
 72
1
 10
35.5547360082
 20
46.8793615942
 11
31.8896842399
 21
38.6048700434
 72
1
 10
31.8896842399
 20
38.6048700434
 11
31.8896842399
 21
51.0690162154
 72
1
 10
31.8896842399
 20
51.0690162154
 11
31.8966300721
 21
51.2015562278
 72
1
 10
31.8966300721
 20
51.2015562278
 11
31.9173914685
 21
51.3326412402
 72
1
 10
31.9173914685
 20
51.3326412402
 11
31.9517409631
 21
51.4608312522
 72
1
 10
31.9517409631
 20
51.4608312522
 11
31.9993022155
 21
51.5847312639
 72
1
 10
31.9993022155
 20
51.5847312639
 11
32.0595541348
 21
51.702991275
 72
1
 10
32.0595541348
 20
51.702991275
 11
32.1318365883
 21
51.8142912854
 72
1
 10
32.1318365883
 20
51.8142912854
 11
32.2153576342
 21
51.9174312951
 72
1
 10
32.2153576342
 20
51.9174312951
 11
32.3092021986
 21
52.011271304
 72
1
 10
32.3092021986
 20
52.011271304
 11
32.4123421008
 21
52.0947913118
 72
1
 10
32.4123421008
 20
52.0947913118
 11
32.5236473184
 21
52.1670763186
 72
1
 10
32.5236473184
 20
52.1670763186
 11
32.6418983681
 21
52.2273313243
 72
1
 10
32.6418983681
 20
52.2273313243
 11
32.7657996667
 21
52.2748963288
 72
1
 10
32.7657996667
 20
52.2748963288
 11
32.8939937257
 21
52.309246332
 72
1
 10
32.8939937257
 20
52.309246332
 11
33.0250760241
 21
52.3300063339
 97
1
330
232
 75
0
 76
1
 98
1
 10
0.0
 20
0.0
  0
LWPOLYLINE
  5
234
100
AcDbEntity
  8
Grp_symbol_75_BL1
100
AcDbPolyline
 62
2
  6
CONTINUOUS
 90
23
 70
0
 10
42.4955920804
 20
49.8691929186
 10
41.6945425953
 20
50.0901480105
 10
60.8814870222
 20
51.0690162154
 10
60.8814870221
 20
38.6048700434
 10
55.6684939878
 20
41.0273852712
 10
55.8942184029
 20
41.4851103143
 10
56.0582667652
 20
41.9683803597
 10
56.1578321617
 20
42.4689304068
 10
56.1912110009
 20
42.9781954546
 10
56.1912110009
 20
49.9004111055
 10
53.4642772525
 20
49.9004111055
 10
51.1149189461
 20
49.9004111055
 10
48.3879851977
 20
49.9004111055
 10
48.3879851977
 20
45.757560716
 10
46.543527842
 20
45.757560716
 10
46.1575636893
 20
44.9330946213
 10
46.0538803709
 20
45.757560716
 10
42.9227769174
 20
46.2776930226
 10
45.1151154291
 20
47.8999381845
 10
44.5792365428
 20
48.5350249891
 10
43.954362
 20
49.0827778859
 10
43.2545615739
 20
49.530863585
 10
42.4955920804
 20
49.8691929186
  0
HATCH
  5
235
100
AcDbEntity
  8
Grp_symbol_75_BL1
100
AcDbHatch
 62
2
  6
CONTINUOUS
 10
0.0
 20
0.0
 30
0.0
210
0.0
220
0.0
230
1.0
  2
SOLID
 70
1
 71
1
 91
1
 92
1
 93
22
 72
1
 10
42.4955920804
 20
49.8691929186
 11
41.6945425953
 21
50.0901480105
 72
1
 10
41.6945425953
 20
50.0901480105
 11
60.8814870222
 21
51.0690162154
 72
1
 10
60.8814870222
 20
51.0690162154
 11
60.8814870221
 21
38.6048700434
 72
1
 10
60.8814870221
 20
38.6048700434
 11
55.6684939878
 21
41.0273852712
 72
1
 10
55.6684939878
 20
41.0273852712
 11
55.8942184029
 21
41.4851103143
 72
1
 10
55.8942184029
 20
41.4851103143
 11
56.0582667652
 21
41.9683803597
 72
1
 10
56.0582667652
 20
41.9683803597
 11
56.1578321617
 21
42.4689304068
 72
1
 10
56.1578321617
 20
42.4689304068
 11
56.1912110009
 21
42.9781954546
 72
1
 10
56.1912110009
 20
42.9781954546
 11
56.1912110009
 21
49.9004111055
 72
1
 10
56.1912110009
 20
49.9004111055
 11
53.4642772525
 21
49.9004111055
 72
1
 10
53.4642772525
 20
49.9004111055
 11
51.1149189461
 21
49.9004111055
 72
1
 10
51.1149189461
 20
49.9004111055
 11
48.3879851977
 21
49.9004111055
 72
1
 10
48.3879851977
 20
49.9004111055
 11
48.3879851977
 21
45.757560716
 72
1
 10
48.3879851977
 20
45.757560716
 11
46.543527842
 21
45.757560716
 72
1
 10
46.543527842
 20
45.757560716
 11
46.1575636893
 21
44.9330946213
 72
1
 10
46.1575636893
 20
44.9330946213
 11
46.0538803709
 21
45.757560716
 72
1
 10
46.0538803709
 20
45.757560716
 11
42.9227769174
 21
46.2776930226
 72
1
 10
42.9227769174
 20
46.2776930226
 11
45.1151154291
 21
47.8999381845
 72
1
 10
45.1151154291
 20
47.8999381845
 11
44.5792365428
 21
48.5350249891
 72
1
 10
44.5792365428
 20
48.5350249891
 11
43.954362
 21
49.0827778859
 72
1
 10
43.954362
 20
49.0827778859
 11
43.2545615739
 21
49.530863585
 72
1
 10
43.2545615739
 20
49.530863585
 11
42.4955920804
 21
49.8691929186
 97
1
330
234
 75
0
 76
1
 98
1
 10
0.0
 20
0.0
  0
LWPOLYLINE
  5
236
100
AcDbEntity
  8
Grp_symbol_75_BL1
100
AcDbPolyline
 62
2
  6
CONTINUOUS
 90
20
 70
0
 10
40.0291665591
 20
47.4028932963
 10
40.4358631805
 20
47.460655998
 10
40.8466357865
 20
47.4585258174
 10
41.2527114599
 20
47.3965482491
 10
41.6454175963
 20
47.2760469551
 10
42.0163671263
 20
47.0995954951
 10
42.3576376384
 20
46.8709623631
 10
42.6619405796
 20
46.5950305029
 10
42.9227769174
 20
46.2776930226
 10
46.0538803709
 20
45.757560716
 10
40.7315942886
 20
45.757560716
 10
40.5878507915
 20
45.7481434286
 10
37.9699876618
 20
45.5742534726
 10
38.1321489646
 20
45.9516688716
 10
38.3475869386
 20
46.301418998
 10
38.6117004503
 20
46.6160341985
 10
38.9188487976
 20
46.8887952006
 10
39.2624721782
 20
47.1138766165
 10
39.6352317885
 20
47.2864713569
 10
40.0291665591
 20
47.4028932963
  0
HATCH
  5
237
100
AcDbEntity
  8
Grp_symbol_75_BL1
100
AcDbHatch
 62
2
  6
CONTINUOUS
 10
0.0
 20
0.0
 30
0.0
210
0.0
220
0.0
230
1.0
  2
SOLID
 70
1
 71
1
 91
1
 92
1
 93
19
 72
1
 10
40.0291665591
 20
47.4028932963
 11
40.4358631805
 21
47.460655998
 72
1
 10
40.4358631805
 20
47.460655998
 11
40.8466357865
 21
47.4585258174
 72
1
 10
40.8466357865
 20
47.4585258174
 11
41.2527114599
 21
47.3965482491
 72
1
 10
41.2527114599
 20
47.3965482491
 11
41.6454175963
 21
47.2760469551
 72
1
 10
41.6454175963
 20
47.2760469551
 11
42.0163671263
 21
47.0995954951
 72
1
 10
42.0163671263
 20
47.0995954951
 11
42.3576376384
 21
46.8709623631
 72
1
 10
42.3576376384
 20
46.8709623631
 11
42.6619405796
 21
46.5950305029
 72
1
 10
42.6619405796
 20
46.5950305029
 11
42.9227769174
 21
46.2776930226
 72
1
 10
42.9227769174
 20
46.2776930226
 11
46.0538803709
 21
45.757560716
 72
1
 10
46.0538803709
 20
45.757560716
 11
40.7315942886
 21
45.757560716
 72
1
 10
40.7315942886
 20
45.757560716
 11
40.5878507915
 21
45.7481434286
 72
1
 10
40.5878507915
 20
45.7481434286
 11
37.9699876618
 21
45.5742534726
 72
1
 10
37.9699876618
 20
45.5742534726
 11
38.1321489646
 21
45.9516688716
 72
1
 10
38.1321489646
 20
45.9516688716
 11
38.3475869386
 21
46.301418998
 72
1
 10
38.3475869386
 20
46.301418998
 11
38.6117004503
 21
46.6160341985
 72
1
 10
38.6117004503
 20
46.6160341985
 11
38.9188487976
 21
46.8887952006
 72
1
 10
38.9188487976
 20
46.8887952006
 11
39.2624721782
 21
47.1138766165
 72
1
 10
39.2624721782
 20
47.1138766165
 11
39.6352317885
 21
47.2864713569
 72
1
 10
39.6352317885
 20
47.2864713569
 11
40.0291665591
 21
47.4028932963
 97
1
330
236
 75
0
 76
1
 98
1
 10
0.0
 20
0.0
  0
LWPOLYLINE
  5
238
100
AcDbEntity
  8
Grp_symbol_75_BL1
100
AcDbPolyline
 62
2
  6
CONTINUOUS
 90
8
 70
0
 10
40.1809634356
 20
45.6100237828
 10
40.0611886387
 20
45.5299928221
 10
37.8645663275
 20
45.1772333047
 10
37.9699876618
 20
45.5742534726
 10
40.5878507915
 20
45.7481434286
 10
40.4465667855
 20
45.7200402925
 10
40.310159679
 20
45.6737363193
 10
40.1809634356
 20
45.6100237828
  0
HATCH
  5
239
100
AcDbEntity
  8
Grp_symbol_75_BL1
100
AcDbHatch
 62
2
  6
CONTINUOUS
 10
0.0
 20
0.0
 30
0.0
210
0.0
220
0.0
230
1.0
  2
SOLID
 70
1
 71
1
 91
1
 92
1
 93
7
 72
1
 10
40.1809634356
 20
45.6100237828
 11
40.0611886387
 21
45.5299928221
 72
1
 10
40.0611886387
 20
45.5299928221
 11
37.8645663275
 21
45.1772333047
 72
1
 10
37.8645663275
 20
45.1772333047
 11
37.9699876618
 21
45.5742534726
 72
1
 10
37.9699876618
 20
45.5742534726
 11
40.5878507915
 21
45.7481434286
 72
1
 10
40.5878507915
 20
45.7481434286
 11
40.4465667855
 21
45.7200402925
 72
1
 10
40.4465667855
 20
45.7200402925
 11
40.310159679
 21
45.6737363193
 72
1
 10
40.310159679
 20
45.6737363193
 11
40.1809634356
 21
45.6100237828
 97
1
330
238
 75
0
 76
1
 98
1
 10
0.0
 20
0.0
  0
LWPOLYLINE
  5
23A
100
AcDbEntity
  8
Grp_symbol_75_BL1
100
AcDbPolyline
 62
2
  6
CONTINUOUS
 90
8
 70
0
 10
39.777873675
 20
45.2069340221
 10
39.7141611385
 20
45.0777377787
 10
37.8181364571
 20
44.7690875726
 10
37.8645663275
 20
45.1772333047
 10
40.0611886387
 20
45.5299928221
 10
39.9528846684
 20
45.4350127893
 10
39.8579046356
 20
45.326708819
 10
39.777873675
 20
45.2069340221
  0
HATCH
  5
23B
100
AcDbEntity
  8
Grp_symbol_75_BL1
100
AcDbHatch
 62
2
  6
CONTINUOUS
 10
0.0
 20
0.0
 30
0.0
210
0.0
220
0.0
230
1.0
  2
SOLID
 70
1
 71
1
 91
1
 92
1
 93
7
 72
1
 10
39.777873675
 20
45.2069340221
 11
39.7141611385
 21
45.0777377787
 72
1
 10
39.7141611385
 20
45.0777377787
 11
37.8181364571
 21
44.7690875726
 72
1
 10
37.8181364571
 20
44.7690875726
 11
37.8645663275
 21
45.1772333047
 72
1
 10
37.8645663275
 20
45.1772333047
 11
40.0611886387
 21
45.5299928221
 72
1
 10
40.0611886387
 20
45.5299928221
 11
39.9528846684
 21
45.4350127893
 72
1
 10
39.9528846684
 20
45.4350127893
 11
39.8579046356
 21
45.326708819
 72
1
 10
39.8579046356
 20
45.326708819
 11
39.777873675
 21
45.2069340221
 97
1
330
23A
 75
0
 76
1
 98
1
 10
0.0
 20
0.0
  0
LWPOLYLINE
  5
23C
100
AcDbEntity
  8
Grp_symbol_75_BL1
100
AcDbPolyline
 62
2
  6
CONTINUOUS
 90
7
 70
0
 10
46.6279029002
 20
45.1305327869
 10
46.6448263183
 20
44.8145306551
 10
46.1367134902
 20
44.1023920877
 10
46.1575636893
 20
44.9330946213
 10
46.543527842
 20
45.757560716
 10
46.5941044983
 20
45.4451776937
 10
46.6279029002
 20
45.1305327869
  0
HATCH
  5
23D
100
AcDbEntity
  8
Grp_symbol_75_BL1
100
AcDbHatch
 62
2
  6
CONTINUOUS
 10
0.0
 20
0.0
 30
0.0
210
0.0
220
0.0
230
1.0
  2
SOLID
 70
1
 71
1
 91
1
 92
1
 93
6
 72
1
 10
46.6279029002
 20
45.1305327869
 11
46.6448263183
 21
44.8145306551
 72
1
 10
46.6448263183
 20
44.8145306551
 11
46.1367134902
 21
44.1023920877
 72
1
 10
46.1367134902
 20
44.1023920877
 11
46.1575636893
 21
44.9330946213
 72
1
 10
46.1575636893
 20
44.9330946213
 11
46.543527842
 21
45.757560716
 72
1
 10
46.543527842
 20
45.757560716
 11
46.5941044983
 21
45.4451776937
 72
1
 10
46.5941044983
 20
45.4451776937
 11
46.6279029002
 21
45.1305327869
 97
1
330
23C
 75
0
 76
1
 98
1
 10
0.0
 20
0.0
  0
LWPOLYLINE
  5
23E
100
AcDbEntity
  8
Grp_symbol_75_BL1
100
AcDbPolyline
 62
2
  6
CONTINUOUS
 90
7
 70
0
 10
39.6397540291
 20
44.8000466662
 10
39.6303325826
 20
44.6563031691
 10
37.8316896587
 20
44.3585330911
 10
37.8181364571
 20
44.7690875726
 10
39.7141611385
 20
45.0777377787
 10
39.6678571652
 20
44.9413306723
 10
39.6397540291
 20
44.8000466662
  0
HATCH
  5
23F
100
AcDbEntity
  8
Grp_symbol_75_BL1
100
AcDbHatch
 62
2
  6
CONTINUOUS
 10
0.0
 20
0.0
 30
0.0
210
0.0
220
0.0
230
1.0
  2
SOLID
 70
1
 71
1
 91
1
 92
1
 93
6
 72
1
 10
39.6397540291
 20
44.8000466662
 11
39.6303325826
 21
44.6563031691
 72
1
 10
39.6303325826
 20
44.6563031691
 11
37.8316896587
 21
44.3585330911
 72
1
 10
37.8316896587
 20
44.3585330911
 11
37.8181364571
 21
44.7690875726
 72
1
 10
37.8181364571
 20
44.7690875726
 11
39.7141611385
 21
45.0777377787
 72
1
 10
39.7141611385
 20
45.0777377787
 11
39.6678571652
 21
44.9413306723
 72
1
 10
39.6678571652
 20
44.9413306723
 11
39.6397540291
 21
44.8000466662
 97
1
330
23E
 75
0
 76
1
 98
1
 10
0.0
 20
0.0
  0
LWPOLYLINE
  5
240
100
AcDbEntity
  8
Grp_symbol_75_BL1
100
AcDbPolyline
 62
2
  6
CONTINUOUS
 90
7
 70
0
 10
39.6678571652
 20
44.3712756659
 10
39.7141611385
 20
44.2348685595
 10
37.904936475
 20
43.9543381191
 10
37.8316896587
 20
44.3585330911
 10
39.6303325826
 20
44.6563031691
 10
39.6397540291
 20
44.512559672
 10
39.6678571652
 20
44.3712756659
  0
HATCH
  5
241
100
AcDbEntity
  8
Grp_symbol_75_BL1
100
AcDbHatch
 62
2
  6
CONTINUOUS
 10
0.0
 20
0.0
 30
0.0
210
0.0
220
0.0
230
1.0
  2
SOLID
 70
1
 71
1
 91
1
 92
1
 93
6
 72
1
 10
39.6678571652
 20
44.3712756659
 11
39.7141611385
 21
44.2348685595
 72
1
 10
39.7141611385
 20
44.2348685595
 11
37.904936475
 21
43.9543381191
 72
1
 10
37.904936475
 20
43.9543381191
 11
37.8316896587
 21
44.3585330911
 72
1
 10
37.8316896587
 20
44.3585330911
 11
39.6303325826
 21
44.6563031691
 72
1
 10
39.6303325826
 20
44.6563031691
 11
39.6397540291
 21
44.512559672
 72
1
 10
39.6397540291
 20
44.512559672
 11
39.6678571652
 21
44.3712756659
 97
1
330
240
 75
0
 76
1
 98
1
 10
0.0
 20
0.0
  0
LWPOLYLINE
  5
242
100
AcDbEntity
  8
Grp_symbol_75_BL1
100
AcDbPolyline
 62
2
  6
CONTINUOUS
 90
7
 70
0
 10
46.6279029002
 20
44.1820735513
 10
46.5941044983
 20
43.8674286445
 10
45.9917992398
 20
43.2841615027
 10
46.1367134902
 20
44.1023920877
 10
46.6448263183
 20
44.8145306551
 10
46.6448263183
 20
44.498075683
 10
46.6279029002
 20
44.1820735513
  0
HATCH
  5
243
100
AcDbEntity
  8
Grp_symbol_75_BL1
100
AcDbHatch
 62
2
  6
CONTINUOUS
 10
0.0
 20
0.0
 30
0.0
210
0.0
220
0.0
230
1.0
  2
SOLID
 70
1
 71
1
 91
1
 92
1
 93
6
 72
1
 10
46.6279029002
 20
44.1820735513
 11
46.5941044983
 21
43.8674286445
 72
1
 10
46.5941044983
 20
43.8674286445
 11
45.9917992398
 21
43.2841615027
 72
1
 10
45.9917992398
 20
43.2841615027
 11
46.1367134902
 21
44.1023920877
 72
1
 10
46.1367134902
 20
44.1023920877
 11
46.6448263183
 21
44.8145306551
 72
1
 10
46.6448263183
 20
44.8145306551
 11
46.6448263183
 21
44.498075683
 72
1
 10
46.6448263183
 20
44.498075683
 11
46.6279029002
 21
44.1820735513
 97
1
330
242
 75
0
 76
1
 98
1
 10
0.0
 20
0.0
  0
LWPOLYLINE
  5
244
100
AcDbEntity
  8
Grp_symbol_75_BL1
100
AcDbPolyline
 62
2
  6
CONTINUOUS
 90
7
 70
0
 10
39.8579046356
 20
43.9858975192
 10
39.9528846684
 20
43.8775935489
 10
38.0363125653
 20
43.5651350945
 10
37.904936475
 20
43.9543381191
 10
39.7141611385
 20
44.2348685595
 10
39.777873675
 20
44.105672316
 10
39.8579046356
 20
43.9858975192
  0
HATCH
  5
245
100
AcDbEntity
  8
Grp_symbol_75_BL1
100
AcDbHatch
 62
2
  6
CONTINUOUS
 10
0.0
 20
0.0
 30
0.0
210
0.0
220
0.0
230
1.0
  2
SOLID
 70
1
 71
1
 91
1
 92
1
 93
6
 72
1
 10
39.8579046356
 20
43.9858975192
 11
39.9528846684
 21
43.8775935489
 72
1
 10
39.9528846684
 20
43.8775935489
 11
38.0363125653
 21
43.5651350945
 72
1
 10
38.0363125653
 20
43.5651350945
 11
37.904936475
 21
43.9543381191
 72
1
 10
37.904936475
 20
43.9543381191
 11
39.7141611385
 21
44.2348685595
 72
1
 10
39.7141611385
 20
44.2348685595
 11
39.777873675
 21
44.105672316
 72
1
 10
39.777873675
 20
44.105672316
 11
39.8579046356
 21
43.9858975192
 97
1
330
244
 75
0
 76
1
 98
1
 10
0.0
 20
0.0
  0
LWPOLYLINE
  5
246
100
AcDbEntity
  8
Grp_symbol_75_BL1
100
AcDbPolyline
 62
2
  6
CONTINUOUS
 90
9
 70
0
 10
40.4465667855
 20
43.5925660457
 10
40.5878507915
 20
43.5644629096
 10
38.2230121157
 20
43.1992362705
 10
38.0363125653
 20
43.5651350945
 10
39.9528846684
 20
43.8775935489
 10
40.0611886387
 20
43.782613516
 10
40.1809634356
 20
43.7025825554
 10
40.310159679
 20
43.6388700189
 10
40.4465667855
 20
43.5925660457
  0
HATCH
  5
247
100
AcDbEntity
  8
Grp_symbol_75_BL1
100
AcDbHatch
 62
2
  6
CONTINUOUS
 10
0.0
 20
0.0
 30
0.0
210
0.0
220
0.0
230
1.0
  2
SOLID
 70
1
 71
1
 91
1
 92
1
 93
8
 72
1
 10
40.4465667855
 20
43.5925660457
 11
40.5878507915
 21
43.5644629096
 72
1
 10
40.5878507915
 20
43.5644629096
 11
38.2230121157
 21
43.1992362705
 72
1
 10
38.2230121157
 20
43.1992362705
 11
38.0363125653
 21
43.5651350945
 72
1
 10
38.0363125653
 20
43.5651350945
 11
39.9528846684
 21
43.8775935489
 72
1
 10
39.9528846684
 20
43.8775935489
 11
40.0611886387
 21
43.782613516
 72
1
 10
40.0611886387
 20
43.782613516
 11
40.1809634356
 21
43.7025825554
 72
1
 10
40.1809634356
 20
43.7025825554
 11
40.310159679
 21
43.6388700189
 72
1
 10
40.310159679
 20
43.6388700189
 11
40.4465667855
 21
43.5925660457
 97
1
330
246
 75
0
 76
1
 98
1
 10
0.0
 20
0.0
  0
LWPOLYLINE
  5
248
100
AcDbEntity
  8
Grp_symbol_75_BL1
100
AcDbPolyline
 62
2
  6
CONTINUOUS
 90
9
 70
0
 10
48.3879851977
 20
43.5550355089
 10
48.3879851977
 20
42.9781954546
 10
48.4213640369
 20
42.4689304068
 10
45.3455502107
 20
41.7581141658
 10
45.7260838502
 20
42.4968262743
 10
45.9917992398
 20
43.2841615027
 10
46.5941044983
 20
43.8674286445
 10
46.543527842
 20
43.5550355089
 10
48.3879851977
 20
43.5550355089
  0
HATCH
  5
249
100
AcDbEntity
  8
Grp_symbol_75_BL1
100
AcDbHatch
 62
2
  6
CONTINUOUS
 10
0.0
 20
0.0
 30
0.0
210
0.0
220
0.0
230
1.0
  2
SOLID
 70
1
 71
1
 91
1
 92
1
 93
8
 72
1
 10
48.3879851977
 20
43.5550355089
 11
48.3879851977
 21
42.9781954546
 72
1
 10
48.3879851977
 20
42.9781954546
 11
48.4213640369
 21
42.4689304068
 72
1
 10
48.4213640369
 20
42.4689304068
 11
45.3455502107
 21
41.7581141658
 72
1
 10
45.3455502107
 20
41.7581141658
 11
45.7260838502
 21
42.4968262743
 72
1
 10
45.7260838502
 20
42.4968262743
 11
45.9917992398
 21
43.2841615027
 72
1
 10
45.9917992398
 20
43.2841615027
 11
46.5941044983
 21
43.8674286445
 72
1
 10
46.5941044983
 20
43.8674286445
 11
46.543527842
 21
43.5550355089
 72
1
 10
46.543527842
 20
43.5550355089
 11
48.3879851977
 21
43.5550355089
 97
1
330
248
 75
0
 76
1
 98
1
 10
0.0
 20
0.0
  0
LWPOLYLINE
  5
24A
100
AcDbEntity
  8
Grp_symbol_75_BL1
100
AcDbPolyline
 62
2
  6
CONTINUOUS
 90
19
 70
0
 10
43.2128368897
 20
43.5550355089
 10
43.0247118426
 20
43.1898735042
 10
42.7853724449
 20
42.8560242504
 10
42.4999302953
 20
42.5606237583
 10
42.1744816144
 20
42.3099809296
 10
41.8159770465
 20
42.1094487718
 10
41.4320732146
 20
41.9633100729
 10
41.0309691963
 20
41.8746859338
 10
40.6212314158
 20
41.8454691103
 10
40.2116106896
 20
41.8762835894
 10
39.810855334
 20
41.9664712627
 10
39.4275243266
 20
42.1141059819
 10
39.0698045115
 20
42.3160346956
 10
38.7453357514
 20
42.5679447891
 10
38.4610477625
 20
42.8644561899
 10
38.2230121157
 20
43.1992362705
 10
40.5878507915
 20
43.5644629096
 10
40.7315942886
 20
43.5550355089
 10
43.2128368897
 20
43.5550355089
  0
HATCH
  5
24B
100
AcDbEntity
  8
Grp_symbol_75_BL1
100
AcDbHatch
 62
2
  6
CONTINUOUS
 10
0.0
 20
0.0
 30
0.0
210
0.0
220
0.0
230
1.0
  2
SOLID
 70
1
 71
1
 91
1
 92
1
 93
18
 72
1
 10
43.2128368897
 20
43.5550355089
 11
43.0247118426
 21
43.1898735042
 72
1
 10
43.0247118426
 20
43.1898735042
 11
42.7853724449
 21
42.8560242504
 72
1
 10
42.7853724449
 20
42.8560242504
 11
42.4999302953
 21
42.5606237583
 72
1
 10
42.4999302953
 20
42.5606237583
 11
42.1744816144
 21
42.3099809296
 72
1
 10
42.1744816144
 20
42.3099809296
 11
41.8159770465
 21
42.1094487718
 72
1
 10
41.8159770465
 20
42.1094487718
 11
41.4320732146
 21
41.9633100729
 72
1
 10
41.4320732146
 20
41.9633100729
 11
41.0309691963
 21
41.8746859338
 72
1
 10
41.0309691963
 20
41.8746859338
 11
40.6212314158
 21
41.8454691103
 72
1
 10
40.6212314158
 20
41.8454691103
 11
40.2116106896
 21
41.8762835894
 72
1
 10
40.2116106896
 20
41.8762835894
 11
39.810855334
 21
41.9664712627
 72
1
 10
39.810855334
 20
41.9664712627
 11
39.4275243266
 21
42.1141059819
 72
1
 10
39.4275243266
 20
42.1141059819
 11
39.0698045115
 21
42.3160346956
 72
1
 10
39.0698045115
 20
42.3160346956
 11
38.7453357514
 21
42.5679447891
 72
1
 10
38.7453357514
 20
42.5679447891
 11
38.4610477625
 21
42.8644561899
 72
1
 10
38.4610477625
 20
42.8644561899
 11
38.2230121157
 21
43.1992362705
 72
1
 10
38.2230121157
 20
43.1992362705
 11
40.5878507915
 21
43.5644629096
 72
1
 10
40.5878507915
 20
43.5644629096
 11
40.7315942886
 21
43.5550355089
 72
1
 10
40.7315942886
 20
43.5550355089
 11
43.2128368897
 21
43.5550355089
 97
1
330
24A
 75
0
 76
1
 98
1
 10
0.0
 20
0.0
  0
LWPOLYLINE
  5
24C
100
AcDbEntity
  8
Grp_symbol_75_BL1
100
AcDbPolyline
 62
2
  6
CONTINUOUS
 90
28
 70
0
 10
51.1149189461
 20
42.9781954546
 10
51.1149189461
 20
49.9004111055
 10
53.4642772525
 20
49.9004111055
 10
53.4642772525
 20
42.9781954546
 10
53.4542277095
 20
42.8248654402
 10
53.4242510309
 20
42.6741604261
 10
53.3748601262
 20
42.5286604124
 10
53.3069000872
 20
42.3908553994
 10
53.2215337292
 20
42.2630853874
 10
53.1202216942
 20
42.1475703765
 10
53.0046974592
 20
42.046260367
 10
52.8769376759
 20
41.960895359
 10
52.7391283496
 20
41.8929303526
 10
52.593627436
 20
41.843535348
 10
52.4429244962
 20
41.8135653451
 10
52.2895980993
 20
41.80351094
 10
52.1362717024
 20
41.8135653451
 10
51.9855687626
 20
41.843535348
 10
51.840067849
 20
41.8929303526
 10
51.7022585227
 20
41.960895359
 10
51.5744987394
 20
42.046260367
 10
51.4589745044
 20
42.1475703765
 10
51.3576624694
 20
42.2630853874
 10
51.2722961114
 20
42.3908553994
 10
51.2043360724
 20
42.5286604124
 10
51.1549451677
 20
42.6741604261
 10
51.1249684891
 20
42.8248654402
 10
51.1149189461
 20
42.9781954546
  0
HATCH
  5
24D
100
AcDbEntity
  8
Grp_symbol_75_BL1
100
AcDbHatch
 62
2
  6
CONTINUOUS
 10
0.0
 20
0.0
 30
0.0
210
0.0
220
0.0
230
1.0
  2
SOLID
 70
1
 71
1
 91
1
 92
1
 93
27
 72
1
 10
51.1149189461
 20
42.9781954546
 11
51.1149189461
 21
49.9004111055
 72
1
 10
51.1149189461
 20
49.9004111055
 11
53.4642772525
 21
49.9004111055
 72
1
 10
53.4642772525
 20
49.9004111055
 11
53.4642772525
 21
42.9781954546
 72
1
 10
53.4642772525
 20
42.9781954546
 11
53.4542277095
 21
42.8248654402
 72
1
 10
53.4542277095
 20
42.8248654402
 11
53.4242510309
 21
42.6741604261
 72
1
 10
53.4242510309
 20
42.6741604261
 11
53.3748601262
 21
42.5286604124
 72
1
 10
53.3748601262
 20
42.5286604124
 11
53.3069000872
 21
42.3908553994
 72
1
 10
53.3069000872
 20
42.3908553994
 11
53.2215337292
 21
42.2630853874
 72
1
 10
53.2215337292
 20
42.2630853874
 11
53.1202216942
 21
42.1475703765
 72
1
 10
53.1202216942
 20
42.1475703765
 11
53.0046974592
 21
42.046260367
 72
1
 10
53.0046974592
 20
42.046260367
 11
52.8769376759
 21
41.960895359
 72
1
 10
52.8769376759
 20
41.960895359
 11
52.7391283496
 21
41.8929303526
 72
1
 10
52.7391283496
 20
41.8929303526
 11
52.593627436
 21
41.843535348
 72
1
 10
52.593627436
 20
41.843535348
 11
52.4429244962
 21
41.8135653451
 72
1
 10
52.4429244962
 20
41.8135653451
 11
52.2895980993
 21
41.80351094
 72
1
 10
52.2895980993
 20
41.80351094
 11
52.1362717024
 21
41.8135653451
 72
1
 10
52.1362717024
 20
41.8135653451
 11
51.9855687626
 21
41.843535348
 72
1
 10
51.9855687626
 20
41.843535348
 11
51.840067849
 21
41.8929303526
 72
1
 10
51.840067849
 20
41.8929303526
 11
51.7022585227
 21
41.960895359
 72
1
 10
51.7022585227
 20
41.960895359
 11
51.5744987394
 21
42.046260367
 72
1
 10
51.5744987394
 20
42.046260367
 11
51.4589745044
 21
42.1475703765
 72
1
 10
51.4589745044
 20
42.1475703765
 11
51.3576624694
 21
42.2630853874
 72
1
 10
51.3576624694
 20
42.2630853874
 11
51.2722961114
 21
42.3908553994
 72
1
 10
51.2722961114
 20
42.3908553994
 11
51.2043360724
 21
42.5286604124
 72
1
 10
51.2043360724
 20
42.5286604124
 11
51.1549451677
 21
42.6741604261
 72
1
 10
51.1549451677
 20
42.6741604261
 11
51.1249684891
 21
42.8248654402
 72
1
 10
51.1249684891
 20
42.8248654402
 11
51.1149189461
 21
42.9781954546
 97
1
330
24C
 75
0
 76
1
 98
1
 10
0.0
 20
0.0
  0
LWPOLYLINE
  5
24E
100
AcDbEntity
  8
Grp_symbol_75_BL1
100
AcDbPolyline
 62
2
  6
CONTINUOUS
 90
8
 70
0
 10
48.5209294334
 20
41.9683803597
 10
48.6849777957
 20
41.4851103143
 10
48.9107022108
 20
41.0273852712
 10
44.2766931456
 20
40.4916218222
 10
44.8587664762
 20
41.0846581346
 10
45.3455502107
 20
41.7581141658
 10
48.4213640369
 20
42.4689304068
 10
48.5209294334
 20
41.9683803597
  0
HATCH
  5
24F
100
AcDbEntity
  8
Grp_symbol_75_BL1
100
AcDbHatch
 62
2
  6
CONTINUOUS
 10
0.0
 20
0.0
 30
0.0
210
0.0
220
0.0
230
1.0
  2
SOLID
 70
1
 71
1
 91
1
 92
1
 93
7
 72
1
 10
48.5209294334
 20
41.9683803597
 11
48.6849777957
 21
41.4851103143
 72
1
 10
48.6849777957
 20
41.4851103143
 11
48.9107022108
 21
41.0273852712
 72
1
 10
48.9107022108
 20
41.0273852712
 11
44.2766931456
 21
40.4916218222
 72
1
 10
44.2766931456
 20
40.4916218222
 11
44.8587664762
 21
41.0846581346
 72
1
 10
44.8587664762
 20
41.0846581346
 11
45.3455502107
 21
41.7581141658
 72
1
 10
45.3455502107
 20
41.7581141658
 11
48.4213640369
 21
42.4689304068
 72
1
 10
48.4213640369
 20
42.4689304068
 11
48.5209294334
 21
41.9683803597
 97
1
330
24E
 75
0
 76
1
 98
1
 10
0.0
 20
0.0
  0
LWPOLYLINE
  5
250
100
AcDbEntity
  8
Grp_symbol_75_BL1
100
AcDbPolyline
 62
2
  6
CONTINUOUS
 90
8
 70
0
 10
49.1942404713
 20
40.6030352313
 10
49.530741159
 20
40.2193351952
 10
49.9144466539
 20
39.8828251636
 10
42.8809523702
 20
39.5981085485
 10
43.612436273
 20
39.992358127
 10
44.2766931456
 20
40.4916218222
 10
48.9107022108
 20
41.0273852712
 10
49.1942404713
 20
40.6030352313
  0
HATCH
  5
251
100
AcDbEntity
  8
Grp_symbol_75_BL1
100
AcDbHatch
 62
2
  6
CONTINUOUS
 10
0.0
 20
0.0
 30
0.0
210
0.0
220
0.0
230
1.0
  2
SOLID
 70
1
 71
1
 91
1
 92
1
 93
7
 72
1
 10
49.1942404713
 20
40.6030352313
 11
49.530741159
 21
40.2193351952
 72
1
 10
49.530741159
 20
40.2193351952
 11
49.9144466539
 21
39.8828251636
 72
1
 10
49.9144466539
 20
39.8828251636
 11
42.8809523702
 21
39.5981085485
 72
1
 10
42.8809523702
 20
39.5981085485
 11
43.612436273
 21
39.992358127
 72
1
 10
43.612436273
 20
39.992358127
 11
44.2766931456
 21
40.4916218222
 72
1
 10
44.2766931456
 20
40.4916218222
 11
48.9107022108
 21
41.0273852712
 72
1
 10
48.9107022108
 20
41.0273852712
 11
49.1942404713
 21
40.6030352313
 97
1
330
250
 75
0
 76
1
 98
1
 10
0.0
 20
0.0
  0
LWPOLYLINE
  5
252
100
AcDbEntity
  8
Grp_symbol_75_BL1
100
AcDbPolyline
 62
2
  6
CONTINUOUS
 90
24
 70
0
 10
50.3387916485
 20
39.5992951369
 10
50.7965154823
 20
39.3735751157
 10
51.2797863737
 20
39.2095201003
 10
51.7803354237
 20
39.1099500909
 10
31.8896842399
 20
38.6048700434
 10
35.5547360082
 20
46.8793615942
 10
35.279198436
 20
46.0954097612
 10
35.1240663214
 20
45.2790547789
 10
35.0928326434
 20
44.4486778239
 10
35.1862006643
 20
43.6229757936
 10
35.4020680952
 20
42.8205403243
 10
35.7355744312
 20
42.0594391786
 10
36.1792103914
 20
41.3568094291
 10
36.7229869991
 20
40.7284715972
 10
37.3546604951
 20
40.1885734359
 10
38.0600080201
 20
39.7492713767
 10
38.8231478587
 20
39.4204568137
 10
39.6268970348
 20
39.2095201003
 10
40.4531582062
 20
39.1212502812
 10
41.283327147
 20
39.1575952929
 10
42.0987116433
 20
39.317750072
 10
42.8809523702
 20
39.5981085485
 10
49.9144466539
 20
39.8828251636
 10
50.3387916485
 20
39.5992951369
  0
HATCH
  5
253
100
AcDbEntity
  8
Grp_symbol_75_BL1
100
AcDbHatch
 62
2
  6
CONTINUOUS
 10
0.0
 20
0.0
 30
0.0
210
0.0
220
0.0
230
1.0
  2
SOLID
 70
1
 71
1
 91
1
 92
1
 93
23
 72
1
 10
50.3387916485
 20
39.5992951369
 11
50.7965154823
 21
39.3735751157
 72
1
 10
50.7965154823
 20
39.3735751157
 11
51.2797863737
 21
39.2095201003
 72
1
 10
51.2797863737
 20
39.2095201003
 11
51.7803354237
 21
39.1099500909
 72
1
 10
51.7803354237
 20
39.1099500909
 11
31.8896842399
 21
38.6048700434
 72
1
 10
31.8896842399
 20
38.6048700434
 11
35.5547360082
 21
46.8793615942
 72
1
 10
35.5547360082
 20
46.8793615942
 11
35.279198436
 21
46.0954097612
 72
1
 10
35.279198436
 20
46.0954097612
 11
35.1240663214
 21
45.2790547789
 72
1
 10
35.1240663214
 20
45.2790547789
 11
35.0928326434
 21
44.4486778239
 72
1
 10
35.0928326434
 20
44.4486778239
 11
35.1862006643
 21
43.6229757936
 72
1
 10
35.1862006643
 20
43.6229757936
 11
35.4020680952
 21
42.8205403243
 72
1
 10
35.4020680952
 20
42.8205403243
 11
35.7355744312
 21
42.0594391786
 72
1
 10
35.7355744312
 20
42.0594391786
 11
36.1792103914
 21
41.3568094291
 72
1
 10
36.1792103914
 20
41.3568094291
 11
36.7229869991
 21
40.7284715972
 72
1
 10
36.7229869991
 20
40.7284715972
 11
37.3546604951
 21
40.1885734359
 72
1
 10
37.3546604951
 20
40.1885734359
 11
38.0600080201
 21
39.7492713767
 72
1
 10
38.0600080201
 20
39.7492713767
 11
38.8231478587
 21
39.4204568137
 72
1
 10
38.8231478587
 20
39.4204568137
 11
39.6268970348
 21
39.2095201003
 72
1
 10
39.6268970348
 20
39.2095201003
 11
40.4531582062
 21
39.1212502812
 72
1
 10
40.4531582062
 20
39.1212502812
 11
41.283327147
 21
39.1575952929
 72
1
 10
41.283327147
 20
39.1575952929
 11
42.0987116433
 21
39.317750072
 72
1
 10
42.0987116433
 20
39.317750072
 11
42.8809523702
 21
39.5981085485
 72
1
 10
42.8809523702
 20
39.5981085485
 11
49.9144466539
 21
39.8828251636
 72
1
 10
49.9144466539
 20
39.8828251636
 11
50.3387916485
 21
39.5992951369
 97
1
330
252
 75
0
 76
1
 98
1
 10
0.0
 20
0.0
  0
LWPOLYLINE
  5
254
100
AcDbEntity
  8
Grp_symbol_75_BL1
100
AcDbPolyline
 62
2
  6
CONTINUOUS
 90
43
 70
0
 10
52.2895980993
 20
39.0765771915
 10
52.7988607749
 20
39.1099500909
 10
53.2994098249
 20
39.2095201003
 10
53.7826807163
 20
39.3735751157
 10
54.2404045501
 20
39.5992951369
 10
54.6647495447
 20
39.8828251636
 10
55.0484550396
 20
40.2193351952
 10
55.3849557273
 20
40.6030352313
 10
55.6684939878
 20
41.0273852712
 10
60.8814870221
 20
38.6048700434
 10
60.87454119
 20
38.472345031
 10
60.8537797936
 20
38.3412600187
 10
60.819430299
 20
38.2130550066
 10
60.7718690466
 20
38.089154995
 10
60.7116171273
 20
37.9709099838
 10
60.6393346738
 20
37.8596099734
 10
60.5558136279
 20
37.7564699637
 10
60.4619690635
 20
37.6626149548
 10
60.3588291613
 20
37.579094947
 10
60.2475239438
 20
37.5068099402
 10
60.129272894
 20
37.4465699345
 10
60.0053715954
 20
37.3990049301
 10
59.8771775364
 20
37.3646549268
 10
59.746095238
 20
37.3438949249
 10
59.6135608653
 20
37.3369499242
 10
33.1576103968
 20
37.3369499242
 10
33.0250760241
 20
37.3438949249
 10
32.8939937257
 20
37.3646549268
 10
32.7657996667
 20
37.3990049301
 10
32.6418983681
 20
37.4465699345
 10
32.5236473184
 20
37.5068099402
 10
32.4123421008
 20
37.579094947
 10
32.3092021986
 20
37.6626149548
 10
32.2153576342
 20
37.7564699637
 10
32.1318365883
 20
37.8596099734
 10
32.0595541348
 20
37.9709099838
 10
31.9993022155
 20
38.089154995
 10
31.9517409631
 20
38.2130550066
 10
31.9173914685
 20
38.3412600187
 10
31.8966300721
 20
38.472345031
 10
31.8896842399
 20
38.6048700434
 10
51.7803354237
 20
39.1099500909
 10
52.2895980993
 20
39.0765771915
  0
HATCH
  5
255
100
AcDbEntity
  8
Grp_symbol_75_BL1
100
AcDbHatch
 62
2
  6
CONTINUOUS
 10
0.0
 20
0.0
 30
0.0
210
0.0
220
0.0
230
1.0
  2
SOLID
 70
1
 71
1
 91
1
 92
1
 93
42
 72
1
 10
52.2895980993
 20
39.0765771915
 11
52.7988607749
 21
39.1099500909
 72
1
 10
52.7988607749
 20
39.1099500909
 11
53.2994098249
 21
39.2095201003
 72
1
 10
53.2994098249
 20
39.2095201003
 11
53.7826807163
 21
39.3735751157
 72
1
 10
53.7826807163
 20
39.3735751157
 11
54.2404045501
 21
39.5992951369
 72
1
 10
54.2404045501
 20
39.5992951369
 11
54.6647495447
 21
39.8828251636
 72
1
 10
54.6647495447
 20
39.8828251636
 11
55.0484550396
 21
40.2193351952
 72
1
 10
55.0484550396
 20
40.2193351952
 11
55.3849557273
 21
40.6030352313
 72
1
 10
55.3849557273
 20
40.6030352313
 11
55.6684939878
 21
41.0273852712
 72
1
 10
55.6684939878
 20
41.0273852712
 11
60.8814870221
 21
38.6048700434
 72
1
 10
60.8814870221
 20
38.6048700434
 11
60.87454119
 21
38.472345031
 72
1
 10
60.87454119
 20
38.472345031
 11
60.8537797936
 21
38.3412600187
 72
1
 10
60.8537797936
 20
38.3412600187
 11
60.819430299
 21
38.2130550066
 72
1
 10
60.819430299
 20
38.2130550066
 11
60.7718690466
 21
38.089154995
 72
1
 10
60.7718690466
 20
38.089154995
 11
60.7116171273
 21
37.9709099838
 72
1
 10
60.7116171273
 20
37.9709099838
 11
60.6393346738
 21
37.8596099734
 72
1
 10
60.6393346738
 20
37.8596099734
 11
60.5558136279
 21
37.7564699637
 72
1
 10
60.5558136279
 20
37.7564699637
 11
60.4619690635
 21
37.6626149548
 72
1
 10
60.4619690635
 20
37.6626149548
 11
60.3588291613
 21
37.579094947
 72
1
 10
60.3588291613
 20
37.579094947
 11
60.2475239438
 21
37.5068099402
 72
1
 10
60.2475239438
 20
37.5068099402
 11
60.129272894
 21
37.4465699345
 72
1
 10
60.129272894
 20
37.4465699345
 11
60.0053715954
 21
37.3990049301
 72
1
 10
60.0053715954
 20
37.3990049301
 11
59.8771775364
 21
37.3646549268
 72
1
 10
59.8771775364
 20
37.3646549268
 11
59.746095238
 21
37.3438949249
 72
1
 10
59.746095238
 20
37.3438949249
 11
59.6135608653
 21
37.3369499242
 72
1
 10
59.6135608653
 20
37.3369499242
 11
33.1576103968
 21
37.3369499242
 72
1
 10
33.1576103968
 20
37.3369499242
 11
33.0250760241
 21
37.3438949249
 72
1
 10
33.0250760241
 20
37.3438949249
 11
32.8939937257
 21
37.3646549268
 72
1
 10
32.8939937257
 20
37.3646549268
 11
32.7657996667
 21
37.3990049301
 72
1
 10
32.7657996667
 20
37.3990049301
 11
32.6418983681
 21
37.4465699345
 72
1
 10
32.6418983681
 20
37.4465699345
 11
32.5236473184
 21
37.5068099402
 72
1
 10
32.5236473184
 20
37.5068099402
 11
32.4123421008
 21
37.579094947
 72
1
 10
32.4123421008
 20
37.579094947
 11
32.3092021986
 21
37.6626149548
 72
1
 10
32.3092021986
 20
37.6626149548
 11
32.2153576342
 21
37.7564699637
 72
1
 10
32.2153576342
 20
37.7564699637
 11
32.1318365883
 21
37.8596099734
 72
1
 10
32.1318365883
 20
37.8596099734
 11
32.0595541348
 21
37.9709099838
 72
1
 10
32.0595541348
 20
37.9709099838
 11
31.9993022155
 21
38.089154995
 72
1
 10
31.9993022155
 20
38.089154995
 11
31.9517409631
 21
38.2130550066
 72
1
 10
31.9517409631
 20
38.2130550066
 11
31.9173914685
 21
38.3412600187
 72
1
 10
31.9173914685
 20
38.3412600187
 11
31.8966300721
 21
38.472345031
 72
1
 10
31.8966300721
 20
38.472345031
 11
31.8896842399
 21
38.6048700434
 72
1
 10
31.8896842399
 20
38.6048700434
 11
51.7803354237
 21
39.1099500909
 72
1
 10
51.7803354237
 20
39.1099500909
 11
52.2895980993
 21
39.0765771915
 97
1
330
254
 75
0
 76
1
 98
1
 10
0.0
 20
0.0
  0
SOLID
  5
256
100
AcDbEntity
  8
Grp_symbol_75_BL1
100
AcDbTrace
 62
2
  6
CONTINUOUS
 10
40.8694496744
 20
50.1887538012
 11
40.038891239
 21
50.1627900674
 12
41.6945425953
 22
50.0901480105
 13
60.8814870222
 23
51.0690162154
  0
ENDBLK
  5
257
100
AcDbEntity
  8
0
  6
BYBLOCK
 62
0
100
AcDbBlockEnd
  0
BLOCK
  5
258
100
AcDbEntity
  8
Grp_symbol_75_BL2
100
AcDbBlockBegin
  2
GRP_SYMBOL_75_BL2
 70
64
 10
46.3855856311
 20
44.8369468876
  3
GRP_SYMBOL_75_BL2
  1

  0
LINE
  5
259
100
AcDbEntity
  8
Grp_symbol_75_BL2
100
AcDbLine
 62
2
  6
CONTINUOUS
 10
31.88968424
 20
38.6048723394
 11
31.88968424
 21
51.0690214359
  0
LINE
  5
25A
100
AcDbEntity
  8
Grp_symbol_75_BL2
100
AcDbLine
 62
2
  6
CONTINUOUS
 10
60.7282107427
 20
51.6716125708
 11
60.7471440934
 21
51.635456165
  0
LINE
  5
25B
100
AcDbEntity
  8
Grp_symbol_75_BL2
100
AcDbLine
 62
2
  6
CONTINUOUS
 10
48.3879851977
 20
49.9004065315
 11
48.3879851977
 21
45.7575648752
  0
LINE
  5
25C
100
AcDbEntity
  8
Grp_symbol_75_BL2
100
AcDbLine
 62
2
  6
CONTINUOUS
 10
48.3879851977
 20
43.5550414629
 11
48.3879851977
 21
42.9781900931
  0
LINE
  5
25D
100
AcDbEntity
  8
Grp_symbol_75_BL2
100
AcDbLine
 62
2
  6
CONTINUOUS
 10
51.1149189461
 20
42.9781900931
 11
51.1149189461
 21
49.9004065315
  0
LINE
  5
25E
100
AcDbEntity
  8
Grp_symbol_75_BL2
100
AcDbLine
 62
2
  6
CONTINUOUS
 10
53.4642772525
 20
49.9004065315
 11
53.4642772525
 21
42.9781900931
  0
LINE
  5
25F
100
AcDbEntity
  8
Grp_symbol_75_BL2
100
AcDbLine
 62
2
  6
CONTINUOUS
 10
56.1912110009
 20
42.9781900931
 11
56.1912110009
 21
49.9004065315
  0
LINE
  5
260
100
AcDbEntity
  8
Grp_symbol_75_BL2
100
AcDbLine
 62
2
  6
CONTINUOUS
 10
60.8814870221
 20
51.0690214359
 11
60.8814870221
 21
38.6048723394
  0
LINE
  5
261
100
AcDbEntity
  8
Grp_symbol_75_BL2
100
AcDbLine
 62
2
  6
CONTINUOUS
 10
59.6135608653
 20
37.3369461825
 11
33.1576103968
 21
37.3369461825
  0
LINE
  5
262
100
AcDbEntity
  8
Grp_symbol_75_BL2
100
AcDbLine
 62
2
  6
CONTINUOUS
 10
40.7315942886
 20
43.5550414629
 11
43.2128368897
 21
43.5550414629
  0
LINE
  5
263
100
AcDbEntity
  8
Grp_symbol_75_BL2
100
AcDbLine
 62
2
  6
CONTINUOUS
 10
46.543527842
 20
43.5550414629
 11
48.3879851977
 21
43.5550414629
  0
LINE
  5
264
100
AcDbEntity
  8
Grp_symbol_75_BL2
100
AcDbLine
 62
2
  6
CONTINUOUS
 10
48.3879851977
 20
45.7575648752
 11
46.543527842
 21
45.7575648752
  0
LINE
  5
265
100
AcDbEntity
  8
Grp_symbol_75_BL2
100
AcDbLine
 62
2
  6
CONTINUOUS
 10
46.0538803709
 20
45.7575648752
 11
40.7315942886
 21
45.7575648752
  0
LINE
  5
266
100
AcDbEntity
  8
Grp_symbol_75_BL2
100
AcDbLine
 62
2
  6
CONTINUOUS
 10
56.1912110009
 20
49.9004065315
 11
53.4642772525
 21
49.9004065315
  0
LINE
  5
267
100
AcDbEntity
  8
Grp_symbol_75_BL2
100
AcDbLine
 62
2
  6
CONTINUOUS
 10
51.1149189461
 20
49.9004065315
 11
48.3879851977
 21
49.9004065315
  0
LINE
  5
268
100
AcDbEntity
  8
Grp_symbol_75_BL2
100
AcDbLine
 62
2
  6
CONTINUOUS
 10
33.1576103968
 20
52.3369475928
 11
59.6135608653
 21
52.3369475928
  0
LINE
  5
269
100
AcDbEntity
  8
Grp_symbol_75_BL2
100
AcDbLine
 62
2
  6
CONTINUOUS
 10
42.9227769174
 20
46.2776930226
 11
45.1151154291
 21
47.8999381845
  0
ARC
  5
26A
100
AcDbEntity
  8
Grp_symbol_75_BL2
100
AcDbCircle
 62
2
  6
CONTINUOUS
 10
40.7315942886
 20
44.6563031691
 40
5.9153485927
100
AcDbArc
 50
349.2706340045
 51
10.7293659955
  0
ARC
  5
26B
100
AcDbEntity
  8
Grp_symbol_75_BL2
100
AcDbCircle
 62
2
  6
CONTINUOUS
 10
40.6267122214
 20
44.6563031691
 40
5.5377731507
100
AcDbArc
 50
35.8545159817
 51
11.4705154501
  0
ARC
  5
26C
100
AcDbEntity
  8
Grp_symbol_75_BL2
100
AcDbCircle
 62
2
  6
CONTINUOUS
 10
52.2895980993
 20
42.9781900931
 40
3.9016129016
100
AcDbArc
 50
180.0
 51
360.0
  0
ARC
  5
26D
100
AcDbEntity
  8
Grp_symbol_75_BL2
100
AcDbCircle
 62
2
  6
CONTINUOUS
 10
40.6267122214
 20
44.6563031691
 40
2.8108394023
100
AcDbArc
 50
35.2282226131
 51
336.934010569
  0
ARC
  5
26E
100
AcDbEntity
  8
Grp_symbol_75_BL2
100
AcDbCircle
 62
2
  6
CONTINUOUS
 10
33.1576103968
 20
51.0690214359
 40
1.2679261569
100
AcDbArc
 50
90.0
 51
180.0
  0
ARC
  5
26F
100
AcDbEntity
  8
Grp_symbol_75_BL2
100
AcDbCircle
 62
2
  6
CONTINUOUS
 10
59.6135608653
 20
51.0690214359
 40
1.2679261569
100
AcDbArc
 50
0.0
 51
90.0
  0
ARC
  5
270
100
AcDbEntity
  8
Grp_symbol_75_BL2
100
AcDbCircle
 62
2
  6
CONTINUOUS
 10
59.6135608653
 20
38.6048723394
 40
1.2679261569
100
AcDbArc
 50
270.0
 51
360.0
  0
ARC
  5
271
100
AcDbEntity
  8
Grp_symbol_75_BL2
100
AcDbCircle
 62
2
  6
CONTINUOUS
 10
33.1576103968
 20
38.6048723394
 40
1.2679261569
100
AcDbArc
 50
180.0
 51
270.0
  0
ARC
  5
272
100
AcDbEntity
  8
Grp_symbol_75_BL2
100
AcDbCircle
 62
2
  6
CONTINUOUS
 10
52.2895980993
 20
42.9781900931
 40
1.1746791532
100
AcDbArc
 50
180.0
 51
360.0
  0
ARC
  5
273
100
AcDbEntity
  8
Grp_symbol_75_BL2
100
AcDbCircle
 62
2
  6
CONTINUOUS
 10
40.7315942886
 20
44.6563031691
 40
1.1012617061
100
AcDbArc
 50
90.0
 51
270.0
  0
ENDBLK
  5
274
100
AcDbEntity
  8
0
  6
BYBLOCK
 62
0
100
AcDbBlockEnd
  0
BLOCK
  5
275
100
AcDbEntity
  8
0
100
AcDbBlockBegin
  2
_FILLED
 70
64
 10
0.0
 20
0.0
  3
_FILLED
  1

  0
SOLID
  5
276
100
AcDbEntity
  8
0
  6
BYBLOCK
 62
0
100
AcDbTrace
 10
0.0
 20
0.0
 11
-1.0
 21
0.1428571429
 12
-1.0
 22
-0.1428571429
 13
-1.0
 23
-0.1428571429
  0
ENDBLK
  5
277
100
AcDbEntity
  8
0
  6
BYBLOCK
 62
0
100
AcDbBlockEnd
  0
BLOCK
  5
278
100
AcDbEntity
  8
0
100
AcDbBlockBegin
 62
2
  6
CONTINUOUS
  2
*D0
 70
65
 10
0.0
 20
0.0
  3
*D0
  1

  0
MTEXT
  5
279
100
AcDbEntity
  8
0
100
AcDbMText
 62
5
  6
CONTINUOUS
  7
TEXTSTYLE_2
 71
3
 72
1
 10
160.8716663925
 20
240.1852387452
 30
0.0
 11
0.8331474524
 21
-0.5530509223
 31
0.0
 44
0.9
  1
R10
 40
3.0
 41
5.8172043011
  0
LINE
  5
27A
100
AcDbEntity
  8
0
100
AcDbLine
 62
2
  6
CONTINUOUS
 10
163.4031429332
 20
234.0038174123
 11
153.9511364906
 21
240.2781460025
  0
INSERT
  5
27B
100
AcDbEntity
  8
0
100
AcDbBlockReference
 62
2
  6
CONTINUOUS
  2
_FILLED
 10
163.4031429332
 20
234.0038174123
 41
3.5
 42
3.5
 43
3.5
 50
326.4234281916
  0
ENDBLK
  5
27C
100
AcDbEntity
  8
0
  6
BYBLOCK
 62
0
100
AcDbBlockEnd
  0
BLOCK
  5
27D
100
AcDbEntity
  8
0
100
AcDbBlockBegin
 62
2
  6
CONTINUOUS
  2
*D1
 70
65
 10
0.0
 20
0.0
  3
*D1
  1

  0
MTEXT
  5
27E
100
AcDbEntity
  8
0
100
AcDbMText
 62
5
  6
CONTINUOUS
  7
TEXTSTYLE_2
 71
2
 72
1
 10
147.9846174569
 20
103.4733081897
 30
0.0
 11
0.0
 21
1.0
 31
0.0
 44
0.9
  1
10
 40
3.0
 41
3.7634408602
  0
LINE
  5
27F
100
AcDbEntity
  8
0
100
AcDbLine
 62
2
  6
CONTINUOUS
 10
161.3722685183
 20
108.4733081897
 11
150.7346174569
 21
108.4733081897
  0
LINE
  5
280
100
AcDbEntity
  8
0
100
AcDbLine
 62
2
  6
CONTINUOUS
 10
171.7346174569
 20
98.4733081897
 11
150.7346174569
 21
98.4733081897
  0
LINE
  5
281
100
AcDbEntity
  8
0
100
AcDbLine
 62
2
  6
CONTINUOUS
 10
151.7346174569
 20
108.4733081897
 11
151.7346174569
 21
103.4733081897
  0
LINE
  5
282
100
AcDbEntity
  8
0
100
AcDbLine
 62
2
  6
CONTINUOUS
 10
151.7346174569
 20
98.4733081897
 11
151.7346174569
 21
103.4733081897
  0
INSERT
  5
283
100
AcDbEntity
  8
0
100
AcDbBlockReference
 62
2
  6
CONTINUOUS
  2
_FILLED
 10
151.7346174569
 20
108.4733081897
 41
3.5
 42
3.5
 43
3.5
 50
90.0
  0
INSERT
  5
284
100
AcDbEntity
  8
0
100
AcDbBlockReference
 62
2
  6
CONTINUOUS
  2
_FILLED
 10
151.7346174569
 20
98.4733081897
 41
3.5
 42
3.5
 43
3.5
 50
270.0
  0
ENDBLK
  5
285
100
AcDbEntity
  8
0
  6
BYBLOCK
 62
0
100
AcDbBlockEnd
  0
BLOCK
  5
286
100
AcDbEntity
  8
0
100
AcDbBlockBegin
 62
2
  6
CONTINUOUS
  2
*D2
 70
65
 10
0.0
 20
0.0
  3
*D2
  1

  0
MTEXT
  5
287
100
AcDbEntity
  8
0
100
AcDbMText
 62
5
  6
CONTINUOUS
  7
TEXTSTYLE_2
 71
2
 72
1
 10
142.9846174569
 20
44.2904782444
 30
0.0
 11
0.0
 21
1.0
 31
0.0
 44
0.9
  1
3
 40
3.0
 41
1.8817204301
  0
LINE
  5
288
100
AcDbEntity
  8
0
100
AcDbLine
 62
2
  6
CONTINUOUS
 10
161.7346174569
 20
42.7904782444
 11
145.7346174569
 21
42.7904782444
  0
LINE
  5
289
100
AcDbEntity
  8
0
100
AcDbLine
 62
2
  6
CONTINUOUS
 10
161.7346174569
 20
45.7904782444
 11
145.7346174569
 21
45.7904782444
  0
LINE
  5
28A
100
AcDbEntity
  8
0
100
AcDbLine
 62
2
  6
CONTINUOUS
 10
146.7346174569
 20
42.7904782444
 11
146.7346174569
 21
37.7904782444
  0
LINE
  5
28B
100
AcDbEntity
  8
0
100
AcDbLine
 62
2
  6
CONTINUOUS
 10
146.7346174569
 20
37.7904782444
 11
146.7346174569
 21
44.2904782444
  0
LINE
  5
28C
100
AcDbEntity
  8
0
100
AcDbLine
 62
2
  6
CONTINUOUS
 10
146.7346174569
 20
45.7904782444
 11
146.7346174569
 21
50.7904782444
  0
LINE
  5
28D
100
AcDbEntity
  8
0
100
AcDbLine
 62
2
  6
CONTINUOUS
 10
146.7346174569
 20
50.7904782444
 11
146.7346174569
 21
44.2904782444
  0
INSERT
  5
28E
100
AcDbEntity
  8
0
100
AcDbBlockReference
 62
2
  6
CONTINUOUS
  2
_FILLED
 10
146.7346174569
 20
42.7904782444
 41
3.5
 42
3.5
 43
3.5
 50
90.0
  0
INSERT
  5
28F
100
AcDbEntity
  8
0
100
AcDbBlockReference
 62
2
  6
CONTINUOUS
  2
_FILLED
 10
146.7346174569
 20
45.7904782444
 41
3.5
 42
3.5
 43
3.5
 50
270.0
  0
ENDBLK
  5
290
100
AcDbEntity
  8
0
  6
BYBLOCK
 62
0
100
AcDbBlockEnd
  0
BLOCK
  5
291
100
AcDbEntity
  8
0
100
AcDbBlockBegin
 62
2
  6
CONTINUOUS
  2
*D3
 70
65
 10
0.0
 20
0.0
  3
*D3
  1

  0
MTEXT
  5
292
100
AcDbEntity
  8
0
100
AcDbMText
 62
5
  6
CONTINUOUS
  7
TEXTSTYLE_2
 71
2
 72
1
 10
182.2346174569
 20
73.5404782444
 30
0.0
 11
1.0
 21
0.0
 31
0.0
 44
0.9
  1
3
 40
3.0
 41
1.8817204301
  0
LINE
  5
293
100
AcDbEntity
  8
0
100
AcDbLine
 62
2
  6
CONTINUOUS
 10
180.7346174569
 20
54.7904782444
 11
180.7346174569
 21
70.7904782444
  0
LINE
  5
294
100
AcDbEntity
  8
0
100
AcDbLine
 62
2
  6
CONTINUOUS
 10
183.7346174569
 20
54.7904782444
 11
183.7346174569
 21
70.7904782444
  0
LINE
  5
295
100
AcDbEntity
  8
0
100
AcDbLine
 62
2
  6
CONTINUOUS
 10
180.7346174569
 20
69.7904782444
 11
175.7346174569
 21
69.7904782444
  0
LINE
  5
296
100
AcDbEntity
  8
0
100
AcDbLine
 62
2
  6
CONTINUOUS
 10
175.7346174569
 20
69.7904782444
 11
182.2346174569
 21
69.7904782444
  0
LINE
  5
297
100
AcDbEntity
  8
0
100
AcDbLine
 62
2
  6
CONTINUOUS
 10
183.7346174569
 20
69.7904782444
 11
188.7346174569
 21
69.7904782444
  0
LINE
  5
298
100
AcDbEntity
  8
0
100
AcDbLine
 62
2
  6
CONTINUOUS
 10
188.7346174569
 20
69.7904782444
 11
182.2346174569
 21
69.7904782444
  0
INSERT
  5
299
100
AcDbEntity
  8
0
100
AcDbBlockReference
 62
2
  6
CONTINUOUS
  2
_FILLED
 10
180.7346174569
 20
69.7904782444
 41
3.5
 42
3.5
 43
3.5
  0
INSERT
  5
29A
100
AcDbEntity
  8
0
100
AcDbBlockReference
 62
2
  6
CONTINUOUS
  2
_FILLED
 10
183.7346174569
 20
69.7904782444
 41
3.5
 42
3.5
 43
3.5
 50
180.0
  0
ENDBLK
  5
29B
100
AcDbEntity
  8
0
  6
BYBLOCK
 62
0
100
AcDbBlockEnd
  0
BLOCK
  5
29C
100
AcDbEntity
  8
0
100
AcDbBlockBegin
 62
2
  6
CONTINUOUS
  2
*D4
 70
65
 10
0.0
 20
0.0
  3
*D4
  1

  0
MTEXT
  5
29D
100
AcDbEntity
  8
0
100
AcDbMText
 62
5
  6
CONTINUOUS
  7
TEXTSTYLE_2
 71
2
 72
1
 10
172.7346174569
 20
260.6153503666
 30
0.0
 11
1.0
 21
0.0
 31
0.0
 44
0.9
  1
22
 40
3.0
 41
3.7634408602
  0
LINE
  5
29E
100
AcDbEntity
  8
0
100
AcDbLine
 62
2
  6
CONTINUOUS
 10
161.7346174569
 20
228.4733081897
 11
161.7346174569
 21
257.8653503666
  0
LINE
  5
29F
100
AcDbEntity
  8
0
100
AcDbLine
 62
2
  6
CONTINUOUS
 10
183.7346174569
 20
238.4733081897
 11
183.7346174569
 21
257.8653503666
  0
LINE
  5
2A0
100
AcDbEntity
  8
0
100
AcDbLine
 62
2
  6
CONTINUOUS
 10
161.7346174569
 20
256.8653503666
 11
172.7346174569
 21
256.8653503666
  0
LINE
  5
2A1
100
AcDbEntity
  8
0
100
AcDbLine
 62
2
  6
CONTINUOUS
 10
183.7346174569
 20
256.8653503666
 11
172.7346174569
 21
256.8653503666
  0
INSERT
  5
2A2
100
AcDbEntity
  8
0
100
AcDbBlockReference
 62
2
  6
CONTINUOUS
  2
_FILLED
 10
161.7346174569
 20
256.8653503666
 41
3.5
 42
3.5
 43
3.5
 50
180.0
  0
INSERT
  5
2A3
100
AcDbEntity
  8
0
100
AcDbBlockReference
 62
2
  6
CONTINUOUS
  2
_FILLED
 10
183.7346174569
 20
256.8653503666
 41
3.5
 42
3.5
 43
3.5
  0
ENDBLK
  5
2A4
100
AcDbEntity
  8
0
  6
BYBLOCK
 62
0
100
AcDbBlockEnd
  0
BLOCK
  5
2A5
100
AcDbEntity
  8
0
100
AcDbBlockBegin
 62
2
  6
CONTINUOUS
  2
*D5
 70
65
 10
0.0
 20
0.0
  3
*D5
  1

  0
MTEXT
  5
2A6
100
AcDbEntity
  8
0
100
AcDbMText
 62
5
  6
CONTINUOUS
  7
TEXTSTYLE_2
 71
2
 72
1
 10
167.2346174569
 20
252.2233081897
 30
0.0
 11
1.0
 21
0.0
 31
0.0
 44
0.9
  1
11
 40
3.0
 41
3.7634408602
  0
LINE
  5
2A7
100
AcDbEntity
  8
0
100
AcDbLine
 62
2
  6
CONTINUOUS
 10
172.7346174569
 20
238.7733081897
 11
172.7346174569
 21
249.4733081897
  0
LINE
  5
2A8
100
AcDbEntity
  8
0
100
AcDbLine
 62
2
  6
CONTINUOUS
 10
161.7346174569
 20
228.4733081897
 11
161.7346174569
 21
249.4733081897
  0
LINE
  5
2A9
100
AcDbEntity
  8
0
100
AcDbLine
 62
2
  6
CONTINUOUS
 10
172.7346174569
 20
248.4733081897
 11
167.2346174569
 21
248.4733081897
  0
LINE
  5
2AA
100
AcDbEntity
  8
0
100
AcDbLine
 62
2
  6
CONTINUOUS
 10
161.7346174569
 20
248.4733081897
 11
167.2346174569
 21
248.4733081897
  0
INSERT
  5
2AB
100
AcDbEntity
  8
0
100
AcDbBlockReference
 62
2
  6
CONTINUOUS
  2
_FILLED
 10
172.7346174569
 20
248.4733081897
 41
3.5
 42
3.5
 43
3.5
  0
INSERT
  5
2AC
100
AcDbEntity
  8
0
100
AcDbBlockReference
 62
2
  6
CONTINUOUS
  2
_FILLED
 10
161.7346174569
 20
248.4733081897
 41
3.5
 42
3.5
 43
3.5
 50
180.0
  0
ENDBLK
  5
2AD
100
AcDbEntity
  8
0
  6
BYBLOCK
 62
0
100
AcDbBlockEnd
  0
BLOCK
  5
2AE
100
AcDbEntity
  8
0
100
AcDbBlockBegin
 62
2
  6
CONTINUOUS
  2
*D6
 70
65
 10
0.0
 20
0.0
  3
*D6
  1

  0
MTEXT
  5
2AF
100
AcDbEntity
  8
0
100
AcDbMText
 62
5
  6
CONTINUOUS
  7
TEXTSTYLE_2
 71
2
 72
1
 10
167.2411909538
 20
147.6648107359
 30
0.0
 11
1.0
 21
0.0
 31
0.0
 44
0.9
  1
9
 40
3.0
 41
1.8817204301
  0
LINE
  5
2B0
100
AcDbEntity
  8
0
100
AcDbLine
 62
2
  6
CONTINUOUS
 10
170.4846174569
 20
136.5677087239
 11
170.4846174569
 21
144.9148107359
  0
LINE
  5
2B1
100
AcDbEntity
  8
0
100
AcDbLine
 62
2
  6
CONTINUOUS
 10
170.4846174569
 20
143.9148107359
 11
166.1096174569
 21
143.9148107359
  0
LINE
  5
2B2
100
AcDbEntity
  8
0
100
AcDbLine
 62
2
  6
CONTINUOUS
 10
161.7346174569
 20
143.9148107359
 11
166.1096174569
 21
143.9148107359
  0
INSERT
  5
2B3
100
AcDbEntity
  8
0
100
AcDbBlockReference
 62
2
  6
CONTINUOUS
  2
_FILLED
 10
170.4846174569
 20
143.9148107359
 41
3.5
 42
3.5
 43
3.5
  0
INSERT
  5
2B4
100
AcDbEntity
  8
0
100
AcDbBlockReference
 62
2
  6
CONTINUOUS
  2
_FILLED
 10
161.7346174569
 20
143.9148107359
 41
3.5
 42
3.5
 43
3.5
 50
180.0
  0
ENDBLK
  5
2B5
100
AcDbEntity
  8
0
  6
BYBLOCK
 62
0
100
AcDbBlockEnd
  0
BLOCK
  5
2B6
100
AcDbEntity
  8
0
100
AcDbBlockBegin
 62
2
  6
CONTINUOUS
  2
*D7
 70
65
 10
0.0
 20
0.0
  3
*D7
  1

  0
MTEXT
  5
2B7
100
AcDbEntity
  8
0
100
AcDbMText
 62
5
  6
CONTINUOUS
  7
TEXTSTYLE_2
 71
3
 72
1
 10
157.8915297863
 20
189.393808238
 30
0.0
 11
1.0
 21
0.0
 31
0.0
 44
0.9
  1
3
 40
3.0
 41
1.8817204301
  0
LINE
  5
2B8
100
AcDbEntity
  8
0
100
AcDbLine
 62
2
  6
CONTINUOUS
 10
164.7346174569
 20
175.9733081897
 11
164.7346174569
 21
186.643808238
  0
LINE
  5
2B9
100
AcDbEntity
  8
0
100
AcDbLine
 62
2
  6
CONTINUOUS
 10
164.7346174569
 20
185.643808238
 11
169.7346174569
 21
185.643808238
  0
LINE
  5
2BA
100
AcDbEntity
  8
0
100
AcDbLine
 62
2
  6
CONTINUOUS
 10
169.7346174569
 20
185.643808238
 11
163.2346174569
 21
185.643808238
  0
LINE
  5
2BB
100
AcDbEntity
  8
0
100
AcDbLine
 62
2
  6
CONTINUOUS
 10
161.7346174569
 20
185.643808238
 11
156.0098093562
 21
185.643808238
  0
LINE
  5
2BC
100
AcDbEntity
  8
0
100
AcDbLine
 62
2
  6
CONTINUOUS
 10
156.0098093562
 20
185.643808238
 11
163.2346174569
 21
185.643808238
  0
INSERT
  5
2BD
100
AcDbEntity
  8
0
100
AcDbBlockReference
 62
2
  6
CONTINUOUS
  2
_FILLED
 10
164.7346174569
 20
185.643808238
 41
3.5
 42
3.5
 43
3.5
 50
180.0
  0
INSERT
  5
2BE
100
AcDbEntity
  8
0
100
AcDbBlockReference
 62
2
  6
CONTINUOUS
  2
_FILLED
 10
161.7346174569
 20
185.643808238
 41
3.5
 42
3.5
 43
3.5
  0
ENDBLK
  5
2BF
100
AcDbEntity
  8
0
  6
BYBLOCK
 62
0
100
AcDbBlockEnd
  0
BLOCK
  5
2C0
100
AcDbEntity
  8
0
100
AcDbBlockBegin
 62
2
  6
CONTINUOUS
  2
*D8
 70
65
 10
0.0
 20
0.0
  3
*D8
  1

  0
MTEXT
  5
2C1
100
AcDbEntity
  8
0
100
AcDbMText
 62
5
  6
CONTINUOUS
  7
TEXTSTYLE_2
 71
2
 72
1
 10
170.0165221578
 20
189.3734159995
 30
0.0
 11
1.0
 21
0.0
 31
0.0
 44
0.9
  1
11.5
 40
3.0
 41
6.5913978495
  0
LINE
  5
2C2
100
AcDbEntity
  8
0
100
AcDbLine
 62
2
  6
CONTINUOUS
 10
164.7346174569
 20
175.9733081897
 11
164.7346174569
 21
186.6234159995
  0
LINE
  5
2C3
100
AcDbEntity
  8
0
100
AcDbLine
 62
2
  6
CONTINUOUS
 10
176.2346174569
 20
175.9733081897
 11
176.2346174569
 21
186.6234159995
  0
LINE
  5
2C4
100
AcDbEntity
  8
0
100
AcDbLine
 62
2
  6
CONTINUOUS
 10
164.7346174569
 20
185.6234159995
 11
170.4846174569
 21
185.6234159995
  0
LINE
  5
2C5
100
AcDbEntity
  8
0
100
AcDbLine
 62
2
  6
CONTINUOUS
 10
176.2346174569
 20
185.6234159995
 11
170.4846174569
 21
185.6234159995
  0
INSERT
  5
2C6
100
AcDbEntity
  8
0
100
AcDbBlockReference
 62
2
  6
CONTINUOUS
  2
_FILLED
 10
164.7346174569
 20
185.6234159995
 41
3.5
 42
3.5
 43
3.5
 50
180.0
  0
INSERT
  5
2C7
100
AcDbEntity
  8
0
100
AcDbBlockReference
 62
2
  6
CONTINUOUS
  2
_FILLED
 10
176.2346174569
 20
185.6234159995
 41
3.5
 42
3.5
 43
3.5
  0
ENDBLK
  5
2C8
100
AcDbEntity
  8
0
  6
BYBLOCK
 62
0
100
AcDbBlockEnd
  0
BLOCK
  5
2C9
100
AcDbEntity
  8
0
100
AcDbBlockBegin
 62
2
  6
CONTINUOUS
  2
*D9
 70
65
 10
0.0
 20
0.0
  3
*D9
  1

  0
MTEXT
  5
2CA
100
AcDbEntity
  8
0
100
AcDbMText
 62
5
  6
CONTINUOUS
  7
TEXTSTYLE_2
 71
2
 72
1
 10
189.9846174569
 20
168.4733081897
 30
0.0
 11
0.0
 21
1.0
 31
0.0
 44
0.9
  1
19
 40
3.0
 41
3.7634408602
  0
LINE
  5
2CB
100
AcDbEntity
  8
0
100
AcDbLine
 62
2
  6
CONTINUOUS
 10
174.2346174569
 20
177.9733081897
 11
194.7346174569
 21
177.9733081897
  0
LINE
  5
2CC
100
AcDbEntity
  8
0
100
AcDbLine
 62
2
  6
CONTINUOUS
 10
174.2346174569
 20
158.9733081897
 11
194.7346174569
 21
158.9733081897
  0
LINE
  5
2CD
100
AcDbEntity
  8
0
100
AcDbLine
 62
2
  6
CONTINUOUS
 10
193.7346174569
 20
177.9733081897
 11
193.7346174569
 21
168.4733081897
  0
LINE
  5
2CE
100
AcDbEntity
  8
0
100
AcDbLine
 62
2
  6
CONTINUOUS
 10
193.7346174569
 20
158.9733081897
 11
193.7346174569
 21
168.4733081897
  0
INSERT
  5
2CF
100
AcDbEntity
  8
0
100
AcDbBlockReference
 62
2
  6
CONTINUOUS
  2
_FILLED
 10
193.7346174569
 20
177.9733081897
 41
3.5
 42
3.5
 43
3.5
 50
90.0
  0
INSERT
  5
2D0
100
AcDbEntity
  8
0
100
AcDbBlockReference
 62
2
  6
CONTINUOUS
  2
_FILLED
 10
193.7346174569
 20
158.9733081897
 41
3.5
 42
3.5
 43
3.5
 50
270.0
  0
ENDBLK
  5
2D1
100
AcDbEntity
  8
0
  6
BYBLOCK
 62
0
100
AcDbBlockEnd
  0
BLOCK
  5
2D2
100
AcDbEntity
  8
0
100
AcDbBlockBegin
 62
2
  6
CONTINUOUS
  2
*D10
 70
65
 10
0.0
 20
0.0
  3
*D10
  1

  0
MTEXT
  5
2D3
100
AcDbEntity
  8
0
100
AcDbMText
 62
5
  6
CONTINUOUS
  7
TEXTSTYLE_2
 71
2
 72
1
 10
199.9846174569
 20
168.4733081897
 30
0.0
 11
0.0
 21
1.0
 31
0.0
 44
0.9
  1
80
 40
3.0
 41
3.7634408602
  0
LINE
  5
2D4
100
AcDbEntity
  8
0
100
AcDbLine
 62
2
  6
CONTINUOUS
 10
180.7846174569
 20
208.4733081897
 11
204.7346174569
 21
208.4733081897
  0
LINE
  5
2D5
100
AcDbEntity
  8
0
100
AcDbLine
 62
2
  6
CONTINUOUS
 10
180.7846174569
 20
128.4733081897
 11
204.7346174569
 21
128.4733081897
  0
LINE
  5
2D6
100
AcDbEntity
  8
0
100
AcDbLine
 62
2
  6
CONTINUOUS
 10
203.7346174569
 20
208.4733081897
 11
203.7346174569
 21
168.4733081897
  0
LINE
  5
2D7
100
AcDbEntity
  8
0
100
AcDbLine
 62
2
  6
CONTINUOUS
 10
203.7346174569
 20
128.4733081897
 11
203.7346174569
 21
168.4733081897
  0
INSERT
  5
2D8
100
AcDbEntity
  8
0
100
AcDbBlockReference
 62
2
  6
CONTINUOUS
  2
_FILLED
 10
203.7346174569
 20
208.4733081897
 41
3.5
 42
3.5
 43
3.5
 50
90.0
  0
INSERT
  5
2D9
100
AcDbEntity
  8
0
100
AcDbBlockReference
 62
2
  6
CONTINUOUS
  2
_FILLED
 10
203.7346174569
 20
128.4733081897
 41
3.5
 42
3.5
 43
3.5
 50
270.0
  0
ENDBLK
  5
2DA
100
AcDbEntity
  8
0
  6
BYBLOCK
 62
0
100
AcDbBlockEnd
  0
BLOCK
  5
2DB
100
AcDbEntity
  8
0
100
AcDbBlockBegin
 62
2
  6
CONTINUOUS
  2
*D11
 70
65
 10
0.0
 20
0.0
  3
*D11
  1

  0
MTEXT
  5
2DC
100
AcDbEntity
  8
0
100
AcDbMText
 62
5
  6
CONTINUOUS
  7
TEXTSTYLE_1
 71
2
 72
1
 10
229.4382407328
 20
228.4733081897
 30
0.0
 11
0.0
 21
1.0
 31
0.0
 44
0.9
  1
{\Fgdt;n}\Fswisscl.ttf;6
 40
3.0
 41
5.8817204301
  0
LINE
  5
2DD
100
AcDbEntity
  8
0
100
AcDbLine
 62
2
  6
CONTINUOUS
 10
257.1882407328
 20
231.4733081897
 11
232.1882407328
 21
231.4733081897
  0
LINE
  5
2DE
100
AcDbEntity
  8
0
100
AcDbLine
 62
2
  6
CONTINUOUS
 10
257.1882407328
 20
225.4733081897
 11
232.1882407328
 21
225.4733081897
  0
LINE
  5
2DF
100
AcDbEntity
  8
0
100
AcDbLine
 62
2
  6
CONTINUOUS
 10
233.1882407328
 20
231.4733081897
 11
233.1882407328
 21
236.4733081897
  0
LINE
  5
2E0
100
AcDbEntity
  8
0
100
AcDbLine
 62
2
  6
CONTINUOUS
 10
233.1882407328
 20
236.4733081897
 11
233.1882407328
 21
228.4733081897
  0
LINE
  5
2E1
100
AcDbEntity
  8
0
100
AcDbLine
 62
2
  6
CONTINUOUS
 10
233.1882407328
 20
225.4733081897
 11
233.1882407328
 21
220.4733081897
  0
LINE
  5
2E2
100
AcDbEntity
  8
0
100
AcDbLine
 62
2
  6
CONTINUOUS
 10
233.1882407328
 20
220.4733081897
 11
233.1882407328
 21
228.4733081897
  0
INSERT
  5
2E3
100
AcDbEntity
  8
0
100
AcDbBlockReference
 62
2
  6
CONTINUOUS
  2
_FILLED
 10
233.1882407328
 20
231.4733081897
 41
3.5
 42
3.5
 43
3.5
 50
270.0
  0
INSERT
  5
2E4
100
AcDbEntity
  8
0
100
AcDbBlockReference
 62
2
  6
CONTINUOUS
  2
_FILLED
 10
233.1882407328
 20
225.4733081897
 41
3.5
 42
3.5
 43
3.5
 50
90.0
  0
ENDBLK
  5
2E5
100
AcDbEntity
  8
0
  6
BYBLOCK
 62
0
100
AcDbBlockEnd
  0
BLOCK
  5
2E6
100
AcDbEntity
  8
0
100
AcDbBlockBegin
 62
2
  6
CONTINUOUS
  2
*D12
 70
65
 10
0.0
 20
0.0
  3
*D12
  1

  0
MTEXT
  5
2E7
100
AcDbEntity
  8
0
100
AcDbMText
 62
5
  6
CONTINUOUS
  7
TEXTSTYLE_1
 71
2
 72
1
 10
271.4382407328
 20
228.4733081897
 30
0.0
 11
0.0
 21
1.0
 31
0.0
 44
0.9
  1
{\Fgdt;n}\Fswisscl.ttf;11
 40
3.0
 41
7.7634408602
  0
LINE
  5
2E8
100
AcDbEntity
  8
0
100
AcDbLine
 62
2
  6
CONTINUOUS
 10
260.1882407328
 20
233.7733081897
 11
276.1882407328
 21
233.7733081897
  0
LINE
  5
2E9
100
AcDbEntity
  8
0
100
AcDbLine
 62
2
  6
CONTINUOUS
 10
260.1882407328
 20
223.1733081897
 11
276.1882407328
 21
223.1733081897
  0
LINE
  5
2EA
100
AcDbEntity
  8
0
100
AcDbLine
 62
2
  6
CONTINUOUS
 10
275.1882407328
 20
233.7733081897
 11
275.1882407328
 21
228.4733081897
  0
LINE
  5
2EB
100
AcDbEntity
  8
0
100
AcDbLine
 62
2
  6
CONTINUOUS
 10
275.1882407328
 20
223.1733081897
 11
275.1882407328
 21
228.4733081897
  0
INSERT
  5
2EC
100
AcDbEntity
  8
0
100
AcDbBlockReference
 62
2
  6
CONTINUOUS
  2
_FILLED
 10
275.1882407328
 20
233.7733081897
 41
3.5
 42
3.5
 43
3.5
 50
90.0
  0
INSERT
  5
2ED
100
AcDbEntity
  8
0
100
AcDbBlockReference
 62
2
  6
CONTINUOUS
  2
_FILLED
 10
275.1882407328
 20
223.1733081897
 41
3.5
 42
3.5
 43
3.5
 50
270.0
  0
ENDBLK
  5
2EE
100
AcDbEntity
  8
0
  6
BYBLOCK
 62
0
100
AcDbBlockEnd
  0
BLOCK
  5
2EF
100
AcDbEntity
  8
0
100
AcDbBlockBegin
 62
2
  6
CONTINUOUS
  2
*D13
 70
65
 10
0.0
 20
0.0
  3
*D13
  1

  0
MTEXT
  5
2F0
100
AcDbEntity
  8
0
100
AcDbMText
 62
5
  6
CONTINUOUS
  7
TEXTSTYLE_2
 71
2
 72
1
 10
147.9846174569
 20
138.4733081897
 30
0.0
 11
0.0
 21
1.0
 31
0.0
 44
0.9
  1
60
 40
3.0
 41
3.7634408602
  0
LINE
  5
2F1
100
AcDbEntity
  8
0
100
AcDbLine
 62
2
  6
CONTINUOUS
 10
162.4346174569
 20
108.4733081897
 11
150.7346174569
 21
108.4733081897
  0
LINE
  5
2F2
100
AcDbEntity
  8
0
100
AcDbLine
 62
2
  6
CONTINUOUS
 10
156.7346174569
 20
168.4733081897
 11
150.7346174569
 21
168.4733081897
  0
LINE
  5
2F3
100
AcDbEntity
  8
0
100
AcDbLine
 62
2
  6
CONTINUOUS
 10
151.7346174569
 20
108.4733081897
 11
151.7346174569
 21
138.4733081897
  0
LINE
  5
2F4
100
AcDbEntity
  8
0
100
AcDbLine
 62
2
  6
CONTINUOUS
 10
151.7346174569
 20
168.4733081897
 11
151.7346174569
 21
138.4733081897
  0
INSERT
  5
2F5
100
AcDbEntity
  8
0
100
AcDbBlockReference
 62
2
  6
CONTINUOUS
  2
_FILLED
 10
151.7346174569
 20
108.4733081897
 41
3.5
 42
3.5
 43
3.5
 50
270.0
  0
INSERT
  5
2F6
100
AcDbEntity
  8
0
100
AcDbBlockReference
 62
2
  6
CONTINUOUS
  2
_FILLED
 10
151.7346174569
 20
168.4733081897
 41
3.5
 42
3.5
 43
3.5
 50
90.0
  0
ENDBLK
  5
2F7
100
AcDbEntity
  8
0
  6
BYBLOCK
 62
0
100
AcDbBlockEnd
  0
BLOCK
  5
2F8
100
AcDbEntity
  8
0
100
AcDbBlockBegin
 62
2
  6
CONTINUOUS
  2
*D14
 70
65
 10
0.0
 20
0.0
  3
*D14
  1

  0
MTEXT
  5
2F9
100
AcDbEntity
  8
0
100
AcDbMText
 62
5
  6
CONTINUOUS
  7
TEXTSTYLE_2
 71
2
 72
1
 10
147.9846174569
 20
198.4733081897
 30
0.0
 11
0.0
 21
1.0
 31
0.0
 44
0.9
  1
60
 40
3.0
 41
3.7634408602
  0
LINE
  5
2FA
100
AcDbEntity
  8
0
100
AcDbLine
 62
2
  6
CONTINUOUS
 10
156.7346174569
 20
168.4733081897
 11
150.7346174569
 21
168.4733081897
  0
LINE
  5
2FB
100
AcDbEntity
  8
0
100
AcDbLine
 62
2
  6
CONTINUOUS
 10
162.4346174569
 20
228.4733081897
 11
150.7346174569
 21
228.4733081897
  0
LINE
  5
2FC
100
AcDbEntity
  8
0
100
AcDbLine
 62
2
  6
CONTINUOUS
 10
151.7346174569
 20
168.4733081897
 11
151.7346174569
 21
198.4733081897
  0
LINE
  5
2FD
100
AcDbEntity
  8
0
100
AcDbLine
 62
2
  6
CONTINUOUS
 10
151.7346174569
 20
228.4733081897
 11
151.7346174569
 21
198.4733081897
  0
INSERT
  5
2FE
100
AcDbEntity
  8
0
100
AcDbBlockReference
 62
2
  6
CONTINUOUS
  2
_FILLED
 10
151.7346174569
 20
168.4733081897
 41
3.5
 42
3.5
 43
3.5
 50
270.0
  0
INSERT
  5
2FF
100
AcDbEntity
  8
0
100
AcDbBlockReference
 62
2
  6
CONTINUOUS
  2
_FILLED
 10
151.7346174569
 20
228.4733081897
 41
3.5
 42
3.5
 43
3.5
 50
90.0
  0
ENDBLK
  5
300
100
AcDbEntity
  8
0
  6
BYBLOCK
 62
0
100
AcDbBlockEnd
  0
BLOCK
  5
301
100
AcDbEntity
  8
0
100
AcDbBlockBegin
 62
2
  6
CONTINUOUS
  2
*D15
 70
65
 10
0.0
 20
0.0
  3
*D15
  1

  0
MTEXT
  5
302
100
AcDbEntity
  8
0
100
AcDbMText
 62
5
  6
CONTINUOUS
  7
TEXTSTYLE_2
 71
2
 72
1
 10
281.4382407328
 20
168.5125244814
 30
0.0
 11
0.0
 21
1.0
 31
0.0
 44
0.9
  1
140
 40
3.0
 41
5.6451612903
  0
LINE
  5
303
100
AcDbEntity
  8
0
100
AcDbLine
 62
2
  6
CONTINUOUS
 10
260.1882407328
 20
238.4733081897
 11
286.1882407328
 21
238.4733081897
  0
LINE
  5
304
100
AcDbEntity
  8
0
100
AcDbLine
 62
2
  6
CONTINUOUS
 10
260.1882407328
 20
98.5517407732
 11
286.1882407328
 21
98.5517407732
  0
LINE
  5
305
100
AcDbEntity
  8
0
100
AcDbLine
 62
2
  6
CONTINUOUS
 10
285.1882407328
 20
238.4733081897
 11
285.1882407328
 21
168.5125244814
  0
LINE
  5
306
100
AcDbEntity
  8
0
100
AcDbLine
 62
2
  6
CONTINUOUS
 10
285.1882407328
 20
98.5517407732
 11
285.1882407328
 21
168.5125244814
  0
INSERT
  5
307
100
AcDbEntity
  8
0
100
AcDbBlockReference
 62
2
  6
CONTINUOUS
  2
_FILLED
 10
285.1882407328
 20
238.4733081897
 41
3.5
 42
3.5
 43
3.5
 50
90.0
  0
INSERT
  5
308
100
AcDbEntity
  8
0
100
AcDbBlockReference
 62
2
  6
CONTINUOUS
  2
_FILLED
 10
285.1882407328
 20
98.5517407732
 41
3.5
 42
3.5
 43
3.5
 50
270.0
  0
ENDBLK
  5
309
100
AcDbEntity
  8
0
  6
BYBLOCK
 62
0
100
AcDbBlockEnd
  0
BLOCK
  5
30A
100
AcDbEntity
  8
0
100
AcDbBlockBegin
 62
2
  6
CONTINUOUS
  2
*D16
 70
65
 10
0.0
 20
0.0
  3
*D16
  1

  0
MTEXT
  5
30B
100
AcDbEntity
  8
0
100
AcDbMText
 62
5
  6
CONTINUOUS
  7
TEXTSTYLE_2
 71
3
 72
1
 10
245.8751796203
 20
100.3089269832
 30
0.0
 11
0.6658680027
 21
0.7460695698
 31
0.0
 44
0.9
  1
R10
 40
3.0
 41
5.8172043011
  0
LINE
  5
30C
100
AcDbEntity
  8
0
100
AcDbLine
 62
2
  6
CONTINUOUS
 10
251.5295607058
 20
101.0126124916
 11
244.7994502978
 21
93.4718828628
  0
INSERT
  5
30D
100
AcDbEntity
  8
0
100
AcDbBlockReference
 62
2
  6
CONTINUOUS
  2
_FILLED
 10
251.5295607058
 20
101.0126124916
 41
3.5
 42
3.5
 43
3.5
 50
48.2510493073
  0
ENDBLK
  5
30E
100
AcDbEntity
  8
0
  6
BYBLOCK
 62
0
100
AcDbBlockEnd
  0
BLOCK
  5
30F
100
AcDbEntity
  8
0
100
AcDbBlockBegin
 62
2
  6
CONTINUOUS
  2
*D17
 70
65
 10
0.0
 20
0.0
  3
*D17
  1

  0
MTEXT
  5
310
100
AcDbEntity
  8
0
100
AcDbMText
 62
5
  6
CONTINUOUS
  7
TEXTSTYLE_2
 71
2
 72
1
 10
254.1882407328
 20
257.2233081897
 30
0.0
 11
1.0
 21
0.0
 31
0.0
 44
0.9
  1
12
 40
3.0
 41
3.7634408602
  0
LINE
  5
311
100
AcDbEntity
  8
0
100
AcDbLine
 62
2
  6
CONTINUOUS
 10
248.1882407328
 20
226.9066912156
 11
248.1882407328
 21
254.4733081897
  0
LINE
  5
312
100
AcDbEntity
  8
0
100
AcDbLine
 62
2
  6
CONTINUOUS
 10
260.1882407328
 20
235.6587458231
 11
260.1882407328
 21
254.4733081897
  0
LINE
  5
313
100
AcDbEntity
  8
0
100
AcDbLine
 62
2
  6
CONTINUOUS
 10
248.1882407328
 20
253.4733081897
 11
254.1882407328
 21
253.4733081897
  0
LINE
  5
314
100
AcDbEntity
  8
0
100
AcDbLine
 62
2
  6
CONTINUOUS
 10
260.1882407328
 20
253.4733081897
 11
254.1882407328
 21
253.4733081897
  0
INSERT
  5
315
100
AcDbEntity
  8
0
100
AcDbBlockReference
 62
2
  6
CONTINUOUS
  2
_FILLED
 10
248.1882407328
 20
253.4733081897
 41
3.5
 42
3.5
 43
3.5
 50
180.0
  0
INSERT
  5
316
100
AcDbEntity
  8
0
100
AcDbBlockReference
 62
2
  6
CONTINUOUS
  2
_FILLED
 10
260.1882407328
 20
253.4733081897
 41
3.5
 42
3.5
 43
3.5
  0
ENDBLK
  5
317
100
AcDbEntity
  8
0
  6
BYBLOCK
 62
0
100
AcDbBlockEnd
  0
BLOCK
  5
318
100
AcDbEntity
  8
0
100
AcDbBlockBegin
  2
*T1
 70
1
 10
0.0
 20
0.0
  3
*T1
  1

  0
LINE
  5
319
100
AcDbEntity
  8
0
100
AcDbLine
 62
2
  6
CONTINUOUS
 10
0.0
 20
0.0
 11
42.0
 21
0.0
  0
LINE
  5
31A
100
AcDbEntity
  8
0
100
AcDbLine
 62
2
  6
CONTINUOUS
 10
0.0
 20
0.0
 11
0.0
 21
-50.0
  0
LINE
  5
31B
100
AcDbEntity
  8
0
100
AcDbLine
 62
2
  6
CONTINUOUS
 10
0.0
 20
-20.0
 11
42.0
 21
-20.0
  0
LINE
  5
31C
100
AcDbEntity
  8
0
100
AcDbLine
 62
2
  6
CONTINUOUS
 10
0.0
 20
-32.0
 11
42.0
 21
-32.0
  0
LINE
  5
31D
100
AcDbEntity
  8
0
100
AcDbLine
 62
2
  6
CONTINUOUS
 10
0.0
 20
-41.0
 11
42.0
 21
-41.0
  0
LINE
  5
31E
100
AcDbEntity
  8
0
100
AcDbLine
 62
2
  6
CONTINUOUS
 10
0.0
 20
-50.0
 11
42.0
 21
-50.0
  0
LINE
  5
31F
100
AcDbEntity
  8
0
100
AcDbLine
 62
2
  6
CONTINUOUS
 10
11.0
 20
-41.0
 11
11.0
 21
-50.0
  0
LINE
  5
320
100
AcDbEntity
  8
0
100
AcDbLine
 62
2
  6
CONTINUOUS
 10
33.0
 20
-41.0
 11
33.0
 21
-50.0
  0
LINE
  5
321
100
AcDbEntity
  8
0
100
AcDbLine
 62
2
  6
CONTINUOUS
 10
42.0
 20
0.0
 11
42.0
 21
-50.0
  0
MTEXT
  5
322
100
AcDbEntity
  8
0
100
AcDbMText
 62
5
  6
CONTINUOUS
  7
STANDARD
 71
2
 72
1
 10
21.0
 20
-24.5
 30
0.0
 11
1.0
 21
0.0
 31
0.0
 44
0.9
  1
B_9000_0881_BD01
 40
3.0
 41
73.5714285714
  0
MTEXT
  5
323
100
AcDbEntity
  8
0
100
AcDbMText
 62
5
  6
CONTINUOUS
  7
STANDARD
 71
1
 72
1
 10
1.4
 20
-33.75
 30
0.0
 11
1.0
 21
0.0
 31
0.0
 44
0.9
  1
Scale\P1:1 
 40
2.5
 41
16.7857142857
  0
MTEXT
  5
324
100
AcDbEntity
  8
0
100
AcDbMText
 62
5
  6
CONTINUOUS
  7
STANDARD
 71
2
 72
1
 10
5.5
 20
-44.25
 30
0.0
 11
1.0
 21
0.0
 31
0.0
 44
0.9
  1
Draft
 40
2.5
 41
17.0238095238
  0
MTEXT
  5
325
100
AcDbEntity
  8
0
100
AcDbMText
 62
5
  6
CONTINUOUS
  7
STANDARD
 71
1
 72
1
 10
12.4
 20
-44.25
 30
0.0
 11
1.0
 21
0.0
 31
0.0
 44
0.9
  1
07.06.2017
 40
2.5
 41
37.0238095238
  0
MTEXT
  5
326
100
AcDbEntity
  8
0
100
AcDbMText
 62
5
  6
CONTINUOUS
  7
STANDARD
 71
2
 72
1
 10
37.5
 20
-44.25
 30
0.0
 11
1.0
 21
0.0
 31
0.0
 44
0.9
  1
SZ
 40
2.5
 41
8.8095238095
  0
ENDBLK
  5
327
100
AcDbEntity
  8
0
  6
BYBLOCK
 62
0
100
AcDbBlockEnd
  0
ENDSEC
  0
SECTION
  2
ENTITIES
  0
INSERT
  5
328
100
AcDbEntity
  8
Grp_symbol_75_BL1
100
AcDbBlockReference
  2
GRP_SYMBOL_75_BL1
 10
46.3855856311
 20
44.8369506294
  0
HATCH
  5
329
100
AcDbEntity
  8
0
100
AcDbHatch
 62
2
  6
CONTINUOUS
 10
0.0
 20
0.0
 30
0.0
210
0.0
220
0.0
230
1.0
  2
A
 70
0
 71
0
 91
6
 92
1
 93
5
 72
1
 10
257.1882407328
 20
98.5517407732
 11
257.1882407328
 21
106.4889947064
 72
1
 10
257.6782311803
 20
106.4889947064
 11
257.1882407328
 21
106.4889947064
 72
4
 94
3
 73
0
 74
0
 95
11
 96
7
 40
0.0
 40
0.0
 40
0.0
 40
0.0
 40
0.25
 40
0.5
 40
0.75
 40
1.0
 40
1.0
 40
1.0
 40
1.0
 10
260.1882407328
 20
103.6746104496
 10
259.914594927
 20
103.9515555792
 10
259.3984098038
 20
104.4825795638
 10
258.7211454623
 20
105.2119267063
 10
258.1410234737
 20
105.8809446063
 10
257.8205908086
 20
106.2917750134
 10
257.6782311803
 20
106.4889947064
 72
1
 10
260.1882407328
 20
98.5517407732
 11
260.1882407328
 21
103.6746104496
 72
1
 10
260.1882407328
 20
98.5517407732
 11
257.1882407328
 21
98.5517407732
 97
0
 92
1
 93
6
 72
1
 10
257.1882407328
 20
110.457621673
 11
257.1882407328
 21
125.4733081897
 72
1
 10
257.1882407328
 20
125.4733081897
 11
257.6782311803
 21
125.4733081897
 72
1
 10
257.6782311803
 20
125.4733081897
 11
260.1882407328
 21
123.1733081897
 72
1
 10
260.1882407328
 20
113.2720059297
 11
260.1882407328
 21
123.1733081897
 72
4
 94
3
 73
0
 74
0
 95
11
 96
7
 40
0.0
 40
0.0
 40
0.0
 40
0.0
 40
0.25
 40
0.5
 40
0.75
 40
1.0
 40
1.0
 40
1.0
 40
1.0
 10
257.6782311803
 20
110.457621673
 10
257.8205815129
 20
110.654828488
 10
258.1409911489
 20
111.0656302933
 10
258.7210280322
 20
111.7345579245
 10
259.3982652895
 20
112.4638862228
 10
259.9145325892
 20
112.9949977108
 10
260.1882407328
 20
113.2720059297
 72
1
 10
257.6782311803
 20
110.457621673
 11
257.1882407328
 21
110.457621673
 97
0
 92
1
 93
5
 72
1
 10
257.1882407328
 20
131.4733081897
 11
257.1882407328
 21
158.9733081897
 72
1
 10
257.1882407328
 20
158.9733081897
 11
260.1882407328
 21
158.9733081897
 72
1
 10
260.1882407328
 20
133.7733081897
 11
260.1882407328
 21
158.9733081897
 72
1
 10
257.6782311803
 20
131.4733081897
 11
260.1882407328
 21
133.7733081897
 72
1
 10
257.1882407328
 20
131.4733081897
 11
257.6782311803
 21
131.4733081897
 97
0
 92
1
 93
5
 72
1
 10
257.1882407328
 20
177.9733081897
 11
257.1882407328
 21
205.4733081897
 72
1
 10
257.6782311803
 20
205.4733081897
 11
257.1882407328
 21
205.4733081897
 72
1
 10
260.1882407328
 20
203.1733081897
 11
257.6782311803
 21
205.4733081897
 72
1
 10
260.1882407328
 20
177.9733081897
 11
260.1882407328
 21
203.1733081897
 72
1
 10
257.1882407328
 20
177.9733081897
 11
260.1882407328
 21
177.9733081897
 97
0
 92
1
 93
5
 72
1
 10
257.1882407328
 20
238.4733081897
 11
260.1882407328
 21
238.4733081897
 72
1
 10
260.1882407328
 20
238.4733081897
 11
260.1882407328
 21
233.7733081897
 72
1
 10
257.6782311803
 20
231.4733081897
 11
260.1882407328
 21
233.7733081897
 72
1
 10
257.1882407328
 20
231.4733081897
 11
257.6782311803
 21
231.4733081897
 72
1
 10
257.1882407328
 20
238.4733081897
 11
257.1882407328
 21
231.4733081897
 97
0
 92
1
 93
6
 72
1
 10
257.1882407328
 20
225.4733081897
 11
257.1882407328
 21
210.457621673
 72
1
 10
257.1882407328
 20
225.4733081897
 11
257.6782311803
 21
225.4733081897
 72
1
 10
257.6782311803
 20
225.4733081897
 11
260.1882407328
 21
223.1733081897
 72
1
 10
260.1882407328
 20
223.1733081897
 11
260.1882407328
 21
213.2720059297
 72
4
 94
3
 73
0
 74
0
 95
11
 96
7
 40
0.0
 40
0.0
 40
0.0
 40
0.0
 40
0.25
 40
0.5
 40
0.75
 40
1.0
 40
1.0
 40
1.0
 40
1.0
 10
260.1882407328
 20
213.2720059297
 10
259.914594927
 20
212.9950608002
 10
259.3984098038
 20
212.4640368155
 10
258.7211454623
 20
211.734689673
 10
258.1410234737
 20
211.065671773
 10
257.8205908086
 20
210.6548413659
 10
257.6782311803
 20
210.457621673
 72
1
 10
257.6782311803
 20
210.457621673
 11
257.1882407328
 21
210.457621673
 97
0
 75
0
 76
0
 52
45.0
 41
1.3596393747
 77
0
 78
1
 53
45.0
 43
0.0
 44
0.0
 45
-0.9614102218
 46
0.9614102218
 79
0
 98
1
 10
0.0
 20
0.0
  0
DIMENSION
  5
32A
100
AcDbEntity
  8
0
100
AcDbDimension
 62
2
  6
CONTINUOUS
  2
*D0
 10
171.7346174569
 20
228.4733081897
 11
157.6187955374
 21
240.5441226685
 70
164
 71
3
 42
10.0
  1
<>
  3
DIMSTYLE_1
100
AcDbRadialDimension
 15
163.4031429332
 25
234.0038174123
  0
DIMENSION
  5
32B
100
AcDbEntity
  8
0
100
AcDbDimension
 62
2
  6
CONTINUOUS
  2
*D1
 10
151.7346174569
 20
98.4733081897
 11
151.7346174569
 21
103.4733081897
 70
160
 71
2
 42
10.0
  3
DIMSTYLE_2
100
AcDbAlignedDimension
 13
161.3722685183
 23
108.4733081897
 14
171.7346174569
 24
98.4733081897
 50
270.0
100
AcDbRotatedDimension
  0
DIMENSION
  5
32C
100
AcDbEntity
  8
0
100
AcDbDimension
 62
2
  6
CONTINUOUS
  2
*D2
 10
146.7346174569
 20
45.7904782444
 11
146.7346174569
 21
44.2904782444
 70
160
 71
2
 42
3.0
  3
DIMSTYLE_3
100
AcDbAlignedDimension
 13
161.7346174569
 23
42.7904782444
 14
161.7346174569
 24
45.7904782444
 50
90.0
100
AcDbRotatedDimension
  0
DIMENSION
  5
32D
100
AcDbEntity
  8
0
100
AcDbDimension
 62
2
  6
CONTINUOUS
  2
*D3
 10
183.7346174569
 20
69.7904782444
 11
182.2346174569
 21
69.7904782444
 70
160
 71
2
 42
3.0
  3
DIMSTYLE_3
100
AcDbAlignedDimension
 13
180.7346174569
 23
54.7904782444
 14
183.7346174569
 24
54.7904782444
 50
360.0
100
AcDbRotatedDimension
  0
DIMENSION
  5
32E
100
AcDbEntity
  8
0
100
AcDbDimension
 62
2
  6
CONTINUOUS
  2
*D4
 10
183.7346174569
 20
256.8653503666
 11
172.7346174569
 21
256.8653503666
 70
160
 71
2
 42
22.0
  3
DIMSTYLE_2
100
AcDbAlignedDimension
 13
161.7346174569
 23
228.4733081897
 14
183.7346174569
 24
238.4733081897
100
AcDbRotatedDimension
  0
DIMENSION
  5
32F
100
AcDbEntity
  8
0
100
AcDbDimension
 62
2
  6
CONTINUOUS
  2
*D5
 10
161.7346174569
 20
248.4733081897
 11
167.2346174569
 21
248.4733081897
 70
160
 71
2
 42
11.0
  3
DIMSTYLE_2
100
AcDbAlignedDimension
 13
172.7346174569
 23
238.7733081897
 14
161.7346174569
 24
228.4733081897
 50
180.0
100
AcDbRotatedDimension
  0
DIMENSION
  5
330
100
AcDbEntity
  8
0
100
AcDbDimension
 62
2
  6
CONTINUOUS
  2
*D6
 10
161.7346174569
 20
143.9148107359
 11
167.2411909538
 21
143.9148107359
 70
160
 71
2
 42
8.75
  3
DIMSTYLE_4
100
AcDbAlignedDimension
 13
170.4846174569
 23
136.5677087239
 14
161.7346174569
 24
108.4733081897
 50
180.0
100
AcDbRotatedDimension
  0
DIMENSION
  5
331
100
AcDbEntity
  8
0
100
AcDbDimension
 62
2
  6
CONTINUOUS
  2
*D7
 10
161.7346174569
 20
185.643808238
 11
156.9506695712
 21
185.643808238
 70
160
 71
3
 42
3.0
  3
DIMSTYLE_3
100
AcDbAlignedDimension
 13
164.7346174569
 23
175.9733081897
 14
161.7346174569
 24
228.4733081897
 50
180.0
100
AcDbRotatedDimension
  0
DIMENSION
  5
332
100
AcDbEntity
  8
0
100
AcDbDimension
 62
2
  6
CONTINUOUS
  2
*D8
 10
176.2346174569
 20
185.6234159995
 11
170.0165221578
 21
185.6234159995
 70
160
 71
2
 42
11.5
  3
DIMSTYLE_2
100
AcDbAlignedDimension
 13
164.7346174569
 23
175.9733081897
 14
176.2346174569
 24
175.9733081897
100
AcDbRotatedDimension
  0
DIMENSION
  5
333
100
AcDbEntity
  8
0
100
AcDbDimension
 62
2
  6
CONTINUOUS
  2
*D9
 10
193.7346174569
 20
158.9733081897
 11
193.7346174569
 21
168.4733081897
 70
160
 71
2
 42
19.0
  3
DIMSTYLE_2
100
AcDbAlignedDimension
 13
174.2346174569
 23
177.9733081897
 14
174.2346174569
 24
158.9733081897
 50
270.0
100
AcDbRotatedDimension
  0
DIMENSION
  5
334
100
AcDbEntity
  8
0
100
AcDbDimension
 62
2
  6
CONTINUOUS
  2
*D10
 10
203.7346174569
 20
128.4733081897
 11
203.7346174569
 21
168.4733081897
 70
160
 71
2
 42
80.0
  3
DIMSTYLE_5
100
AcDbAlignedDimension
 13
180.7846174569
 23
208.4733081897
 14
180.7846174569
 24
128.4733081897
 50
270.0
100
AcDbRotatedDimension
  0
DIMENSION
  5
335
100
AcDbEntity
  8
0
100
AcDbDimension
 62
2
  6
CONTINUOUS
  2
*D11
 10
233.1882407328
 20
225.4733081897
 11
233.1882407328
 21
228.4733081897
 70
160
 71
2
 42
6.0
  1
%%c<>
  3
DIMSTYLE_3
100
AcDbAlignedDimension
 13
257.1882407328
 23
231.4733081897
 14
257.1882407328
 24
225.4733081897
 50
270.0
100
AcDbRotatedDimension
  0
DIMENSION
  5
336
100
AcDbEntity
  8
0
100
AcDbDimension
 62
2
  6
CONTINUOUS
  2
*D12
 10
275.1882407328
 20
223.1733081897
 11
275.1882407328
 21
228.4733081897
 70
160
 71
2
 42
10.6
  1
%%c<>
  3
DIMSTYLE_4
100
AcDbAlignedDimension
 13
260.1882407328
 23
233.7733081897
 14
260.1882407328
 24
223.1733081897
 50
270.0
100
AcDbRotatedDimension
  0
DIMENSION
  5
337
100
AcDbEntity
  8
0
100
AcDbDimension
 62
2
  6
CONTINUOUS
  2
*D13
 10
151.7346174569
 20
168.4733081897
 11
151.7346174569
 21
138.4733081897
 70
160
 71
2
 42
60.0
  3
DIMSTYLE_5
100
AcDbAlignedDimension
 13
162.4346174569
 23
108.4733081897
 14
156.7346174569
 24
168.4733081897
 50
90.0
100
AcDbRotatedDimension
  0
DIMENSION
  5
338
100
AcDbEntity
  8
0
100
AcDbDimension
 62
2
  6
CONTINUOUS
  2
*D14
 10
151.7346174569
 20
228.4733081897
 11
151.7346174569
 21
198.4733081897
 70
160
 71
2
 42
60.0
  3
DIMSTYLE_5
100
AcDbAlignedDimension
 13
156.7346174569
 23
168.4733081897
 14
162.4346174569
 24
228.4733081897
 50
90.0
100
AcDbRotatedDimension
  0
DIMENSION
  5
339
100
AcDbEntity
  8
0
100
AcDbDimension
 62
2
  6
CONTINUOUS
  2
*D15
 10
285.1882407328
 20
98.5517407732
 11
285.1882407328
 21
168.5125244814
 70
160
 71
2
 42
139.9215674165
  3
DIMSTYLE_6
100
AcDbAlignedDimension
 13
260.1882407328
 23
238.4733081897
 14
260.1882407328
 24
98.5517407732
 50
270.0
100
AcDbRotatedDimension
  0
DIMENSION
  5
33A
100
AcDbEntity
  8
0
100
AcDbDimension
 62
2
  6
CONTINUOUS
  2
*D16
 10
258.1882407328
 20
108.4733081897
 11
245.0575388704
 21
97.140105424
 70
164
 71
3
 42
10.0
  1
<>
  3
DIMSTYLE_1
100
AcDbRadialDimension
 15
251.5295607058
 25
101.0126124916
  0
DIMENSION
  5
33B
100
AcDbEntity
  8
0
100
AcDbDimension
 62
2
  6
CONTINUOUS
  2
*D17
 10
260.1882407328
 20
253.4733081897
 11
254.1882407328
 21
253.4733081897
 70
160
 71
2
 42
12.0
  3
DIMSTYLE_2
100
AcDbAlignedDimension
 13
248.1882407328
 23
226.9066912156
 14
260.1882407328
 24
235.6587458231
100
AcDbRotatedDimension
  0
ACAD_TABLE
  5
33C
100
AcDbEntity
  8
0
 62
2
  6
CONTINUOUS
100
AcDbBlockReference
  2
*T1
 10
25.0028815298
 20
55.0034109159
 30
0.0
100
AcDbTable
342
       3AA
343
227
 11
1.0
 21
0.0
 31
0.0
 90
22
 91
4
 92
3
 93
0
 94
0
 95
0
 96
0
141
20.0
141
12.0
141
9.0
141
9.0
142
11.0
142
22.0
142
9.0
171
1
172
0
173
0
174
0
175
3
176
1
 91
41
178
0
145
0.0
301
CELL_VALUE
 90
4
  1
 
304
ACVALUE_END
170
1
140
3.5
 64
5
171
1
172
0
173
1
174
0
175
1
176
1
 91
1
178
0
145
0.0
170
1
171
1
172
0
173
1
174
0
175
1
176
1
 91
1
178
0
145
0.0
170
1
171
1
172
0
173
0
174
0
175
3
176
1
 91
41
178
0
145
0.0
301
CELL_VALUE
 90
4
  1
B_9000_0881_BD01
304
ACVALUE_END
170
5
140
3.0
 64
5
171
1
172
0
173
1
174
0
175
1
176
1
 91
1
178
0
145
0.0
170
1
171
1
172
0
173
1
174
0
175
1
176
1
 91
1
178
0
145
0.0
170
1
171
1
172
0
173
0
174
0
175
3
176
1
 91
41
178
0
145
0.0
301
CELL_VALUE
 90
4
  1
Scale\P1:1 
304
ACVALUE_END
170
1
140
2.5
 64
5
171
1
172
0
173
1
174
0
175
1
176
1
 91
1
178
0
145
0.0
170
1
171
1
172
0
173
1
174
0
175
1
176
1
 91
1
178
0
145
0.0
170
1
171
1
172
0
173
0
174
0
175
1
176
1
 91
41
178
0
145
0.0
301
CELL_VALUE
 90
4
  1
Draft
304
ACVALUE_END
170
5
140
2.5
 64
5
171
1
172
0
173
0
174
0
175
1
176
1
 91
41
178
0
145
0.0
301
CELL_VALUE
 90
4
  1
07.06.2017
304
ACVALUE_END
170
4
140
2.5
 64
5
171
1
172
0
173
0
174
0
175
1
176
1
 91
41
178
0
145
0.0
301
CELL_VALUE
 90
4
  1
SZ
304
ACVALUE_END
170
5
140
2.5
 64
5
  0
LINE
  5
33D
100
AcDbEntity
  8
0
100
AcDbLine
 62
5
  6
CONTINUOUS
 10
25.0
 20
292.0
 11
25.0
 21
5.0
  0
LINE
  5
33E
100
AcDbEntity
  8
0
100
AcDbLine
 62
5
  6
CONTINUOUS
 10
25.0
 20
5.0
 11
415.0
 21
5.0
  0
LINE
  5
33F
100
AcDbEntity
  8
0
100
AcDbLine
 62
5
  6
CONTINUOUS
 10
25.0
 20
292.0
 11
415.0
 21
292.0
  0
LINE
  5
340
100
AcDbEntity
  8
0
100
AcDbLine
 62
5
  6
CONTINUOUS
 10
415.0
 20
292.0
 11
415.0
 21
5.0
  0
LINE
  5
341
100
AcDbEntity
  8
0
100
AcDbLine
 62
7
  6
CONTINUOUS
 10
183.7346174569
 20
98.4733081897
 11
171.7346174569
 21
98.4733081897
  0
LINE
  5
342
100
AcDbEntity
  8
AXIS
100
AcDbLine
 62
7
  6
CENTER
 10
172.7346174569
 20
108.4733081897
 11
162.4346174569
 21
108.4733081897
  0
LINE
  5
343
100
AcDbEntity
  8
AXIS
100
AcDbLine
 62
7
  6
CENTER
 10
172.7346174569
 20
108.4733081897
 11
183.0346174569
 21
108.4733081897
  0
LINE
  5
344
100
AcDbEntity
  8
AXIS
100
AcDbLine
 62
7
  6
CENTER
 10
170.4846174569
 20
128.4733081897
 11
160.1846174569
 21
128.4733081897
  0
LINE
  5
345
100
AcDbEntity
  8
AXIS
100
AcDbLine
 62
7
  6
CENTER
 10
170.4846174569
 20
128.4733081897
 11
180.7846174569
 21
128.4733081897
  0
LINE
  5
346
100
AcDbEntity
  8
0
100
AcDbLine
 62
7
  6
CONTINUOUS
 10
161.7346174569
 20
228.4733081897
 11
161.7346174569
 21
108.4733081897
  0
LINE
  5
347
100
AcDbEntity
  8
AXIS
100
AcDbLine
 62
7
  6
CONTINUOUS
 10
166.7346174569
 20
158.9733081897
 11
174.2346174569
 21
158.9733081897
  0
LINE
  5
348
100
AcDbEntity
  8
AXIS
100
AcDbLine
 62
7
  6
CONTINUOUS
 10
164.7346174569
 20
175.9733081897
 11
164.7346174569
 21
160.9733081897
  0
LINE
  5
349
100
AcDbEntity
  8
AXIS
100
AcDbLine
 62
7
  6
CENTER
 10
170.4846174569
 20
208.4733081897
 11
170.4846174569
 21
198.1733081897
  0
LINE
  5
34A
100
AcDbEntity
  8
AXIS
100
AcDbLine
 62
7
  6
CENTER
 10
170.4846174569
 20
128.4733081897
 11
170.4846174569
 21
118.1733081897
  0
LINE
  5
34B
100
AcDbEntity
  8
AXIS
100
AcDbLine
 62
7
  6
CENTER
 10
170.4846174569
 20
128.4733081897
 11
170.4846174569
 21
138.7733081897
  0
LINE
  5
34C
100
AcDbEntity
  8
AXIS
100
AcDbLine
 62
7
  6
CENTER
 10
170.4846174569
 20
208.4733081897
 11
170.4846174569
 21
218.7733081897
  0
LINE
  5
34D
100
AcDbEntity
  8
AXIS
100
AcDbLine
 62
7
  6
CENTER
 10
172.7346174569
 20
228.4733081897
 11
172.7346174569
 21
218.1733081897
  0
LINE
  5
34E
100
AcDbEntity
  8
AXIS
100
AcDbLine
 62
7
  6
CENTER
 10
172.7346174569
 20
108.4733081897
 11
172.7346174569
 21
98.1733081897
  0
LINE
  5
34F
100
AcDbEntity
  8
AXIS
100
AcDbLine
 62
7
  6
CENTER
 10
172.7346174569
 20
108.4733081897
 11
172.7346174569
 21
118.7733081897
  0
LINE
  5
350
100
AcDbEntity
  8
AXIS
100
AcDbLine
 62
7
  6
CENTER
 10
172.7346174569
 20
228.4733081897
 11
172.7346174569
 21
238.7733081897
  0
LINE
  5
351
100
AcDbEntity
  8
S-AXIS
100
AcDbLine
 62
7
  6
CENTER
 10
188.7346174569
 20
168.4733081897
 11
156.7346174569
 21
168.4733081897
  0
LINE
  5
352
100
AcDbEntity
  8
AXIS
100
AcDbLine
 62
7
  6
CONTINUOUS
 10
176.2346174569
 20
160.9733081897
 11
176.2346174569
 21
175.9733081897
  0
LINE
  5
353
100
AcDbEntity
  8
AXIS
100
AcDbLine
 62
9
  6
CONTINUOUS
 10
181.7346174569
 20
238.4733081897
 11
181.7346174569
 21
98.4733081897
  0
LINE
  5
354
100
AcDbEntity
  8
AXIS
100
AcDbLine
 62
7
  6
CONTINUOUS
 10
174.2346174569
 20
177.9733081897
 11
166.7346174569
 21
177.9733081897
  0
LINE
  5
355
100
AcDbEntity
  8
AXIS
100
AcDbLine
 62
7
  6
CONTINUOUS
 10
183.7346174569
 20
238.4733081897
 11
183.7346174569
 21
98.4733081897
  0
LINE
  5
356
100
AcDbEntity
  8
0
100
AcDbLine
 62
7
  6
CONTINUOUS
 10
183.7346174569
 20
238.4733081897
 11
183.7346174569
 21
98.4733081897
  0
LINE
  5
357
100
AcDbEntity
  8
AXIS
100
AcDbLine
 62
7
  6
CENTER
 10
170.4846174569
 20
208.4733081897
 11
160.1846174569
 21
208.4733081897
  0
LINE
  5
358
100
AcDbEntity
  8
AXIS
100
AcDbLine
 62
7
  6
CENTER
 10
170.4846174569
 20
208.4733081897
 11
180.7846174569
 21
208.4733081897
  0
LINE
  5
359
100
AcDbEntity
  8
AXIS
100
AcDbLine
 62
7
  6
CENTER
 10
172.7346174569
 20
228.4733081897
 11
162.4346174569
 21
228.4733081897
  0
LINE
  5
35A
100
AcDbEntity
  8
AXIS
100
AcDbLine
 62
7
  6
CENTER
 10
172.7346174569
 20
228.4733081897
 11
183.0346174569
 21
228.4733081897
  0
LINE
  5
35B
100
AcDbEntity
  8
0
100
AcDbLine
 62
7
  6
CONTINUOUS
 10
183.7346174569
 20
238.4733081897
 11
171.7346174569
 21
238.4733081897
  0
LINE
  5
35C
100
AcDbEntity
  8
0
100
AcDbLine
 62
7
  6
CONTINUOUS
 10
260.1882407328
 20
98.4733081897
 11
257.1882407328
 21
98.4733081897
  0
LINE
  5
35D
100
AcDbEntity
  8
0
100
AcDbLine
 62
7
  6
CONTINUOUS
 10
257.1294185907
 20
98.4733081897
 11
256.9882407328
 21
98.4733081897
  0
LINE
  5
35E
100
AcDbEntity
  8
0
100
AcDbLine
 62
7
  6
CONTINUOUS
 10
260.1882407328
 20
98.5517407732
 11
257.1882407328
 21
98.5517407732
  0
LINE
  5
35F
100
AcDbEntity
  8
0
100
AcDbLine
 62
7
  6
CONTINUOUS
 10
257.6782311803
 20
106.4889947064
 11
257.1882407328
 21
106.4889947064
  0
LINE
  5
360
100
AcDbEntity
  8
AXIS
100
AcDbLine
 62
7
  6
CENTER
 10
252.1882407328
 20
108.4733081897
 11
265.1882407328
 21
108.4733081897
  0
LINE
  5
361
100
AcDbEntity
  8
0
100
AcDbLine
 62
7
  6
CONTINUOUS
 10
257.6782311803
 20
110.457621673
 11
257.1882407328
 21
110.457621673
  0
LINE
  5
362
100
AcDbEntity
  8
0
100
AcDbLine
 62
7
  6
CONTINUOUS
 10
257.6782311803
 20
231.4733081897
 11
260.1882407328
 21
233.7733081897
  0
LINE
  5
363
100
AcDbEntity
  8
0
100
AcDbLine
 62
7
  6
CONTINUOUS
 10
257.1882407328
 20
125.4733081897
 11
257.6782311803
 21
125.4733081897
  0
LINE
  5
364
100
AcDbEntity
  8
AXIS
100
AcDbLine
 62
7
  6
CENTER
 10
265.1882407328
 20
128.4733081897
 11
252.1882407328
 21
128.4733081897
  0
LINE
  5
365
100
AcDbEntity
  8
0
100
AcDbLine
 62
7
  6
CONTINUOUS
 10
257.1882407328
 20
131.4733081897
 11
257.6782311803
 21
131.4733081897
  0
LINE
  5
366
100
AcDbEntity
  8
0
100
AcDbLine
 62
7
  6
CONTINUOUS
 10
257.6782311803
 20
125.4733081897
 11
260.1882407328
 21
123.1733081897
  0
LINE
  5
367
100
AcDbEntity
  8
0
100
AcDbLine
 62
7
  6
CONTINUOUS
 10
257.1882407328
 20
158.9733081897
 11
260.1882407328
 21
158.9733081897
  0
LINE
  5
368
100
AcDbEntity
  8
0
100
AcDbLine
 62
7
  6
CONTINUOUS
 10
248.1882407328
 20
228.4733081897
 11
248.1882407328
 21
108.4733081897
  0
LINE
  5
369
100
AcDbEntity
  8
AXIS
100
AcDbLine
 62
9
  6
CONTINUOUS
 10
260.1882407328
 20
160.9733081897
 11
257.1882407328
 21
160.9733081897
  0
LINE
  5
36A
100
AcDbEntity
  8
S-AXIS
100
AcDbLine
 62
7
  6
CENTER
 10
243.1882407328
 20
168.4733081897
 11
265.1882407328
 21
168.4733081897
  0
LINE
  5
36B
100
AcDbEntity
  8
0
100
AcDbLine
 62
7
  6
CONTINUOUS
 10
256.9882407328
 20
238.4733081897
 11
256.9882407328
 21
238.4010471064
  0
LINE
  5
36C
100
AcDbEntity
  8
0
100
AcDbLine
 62
9
  6
CONTINUOUS
 10
256.9882407328
 20
238.4010471064
 11
256.9882407328
 21
98.5455692729
  0
LINE
  5
36D
100
AcDbEntity
  8
0
100
AcDbLine
 62
7
  6
CONTINUOUS
 10
256.9882407328
 20
98.5455692729
 11
256.9882407328
 21
98.4733081897
  0
LINE
  5
36E
100
AcDbEntity
  8
AXIS
100
AcDbLine
 62
7
  6
CONTINUOUS
 10
257.1882407328
 20
110.457621673
 11
257.1882407328
 21
106.4889947064
  0
LINE
  5
36F
100
AcDbEntity
  8
0
100
AcDbLine
 62
7
  6
CONTINUOUS
 10
257.1882407328
 20
98.4733081897
 11
257.1882407328
 21
106.4889947064
  0
LINE
  5
370
100
AcDbEntity
  8
0
100
AcDbLine
 62
7
  6
CONTINUOUS
 10
257.1882407328
 20
110.457621673
 11
257.1882407328
 21
158.9733081897
  0
LINE
  5
371
100
AcDbEntity
  8
AXIS
100
AcDbLine
 62
7
  6
CONTINUOUS
 10
257.1882407328
 20
158.9733081897
 11
257.1882407328
 21
177.9733081897
  0
LINE
  5
372
100
AcDbEntity
  8
0
100
AcDbLine
 62
7
  6
CONTINUOUS
 10
257.1882407328
 20
177.9733081897
 11
257.1882407328
 21
238.4733081897
  0
LINE
  5
373
100
AcDbEntity
  8
0
100
AcDbLine
 62
7
  6
CONTINUOUS
 10
257.6782311803
 20
210.457621673
 11
257.6782311803
 21
205.4733081897
  0
LINE
  5
374
100
AcDbEntity
  8
AXIS
100
AcDbLine
 62
7
  6
CONTINUOUS
 10
257.6782311803
 20
110.4626761644
 11
257.6782311803
 21
106.4889947064
  0
LINE
  5
375
100
AcDbEntity
  8
0
100
AcDbLine
 62
7
  6
CONTINUOUS
 10
257.6782311803
 20
125.4733081897
 11
257.6782311803
 21
131.4733081897
  0
LINE
  5
376
100
AcDbEntity
  8
0
100
AcDbLine
 62
7
  6
CONTINUOUS
 10
257.6782311803
 20
225.4733081897
 11
257.6782311803
 21
231.4733081897
  0
LINE
  5
377
100
AcDbEntity
  8
AXIS
100
AcDbLine
 62
7
  6
CONTINUOUS
 10
260.1882407328
 20
113.369869712
 11
260.1882407328
 21
103.5767466673
  0
LINE
  5
378
100
AcDbEntity
  8
0
100
AcDbLine
 62
7
  6
CONTINUOUS
 10
260.1882407328
 20
98.4733081897
 11
260.1882407328
 21
103.6746104496
  0
LINE
  5
379
100
AcDbEntity
  8
0
100
AcDbLine
 62
7
  6
CONTINUOUS
 10
260.1882407328
 20
113.2720059297
 11
260.1882407328
 21
158.9733081897
  0
LINE
  5
37A
100
AcDbEntity
  8
AXIS
100
AcDbLine
 62
7
  6
CONTINUOUS
 10
260.1882407328
 20
158.9733081897
 11
260.1882407328
 21
177.9733081897
  0
LINE
  5
37B
100
AcDbEntity
  8
0
100
AcDbLine
 62
7
  6
CONTINUOUS
 10
260.1882407328
 20
177.9733081897
 11
260.1882407328
 21
238.4733081897
  0
LINE
  5
37C
100
AcDbEntity
  8
AXIS
100
AcDbLine
 62
9
  6
CONTINUOUS
 10
260.1882407328
 20
175.9733081897
 11
257.1882407328
 21
175.9733081897
  0
LINE
  5
37D
100
AcDbEntity
  8
0
100
AcDbLine
 62
7
  6
CONTINUOUS
 10
257.1882407328
 20
177.9733081897
 11
260.1882407328
 21
177.9733081897
  0
LINE
  5
37E
100
AcDbEntity
  8
0
100
AcDbLine
 62
7
  6
CONTINUOUS
 10
257.6782311803
 20
131.4733081897
 11
260.1882407328
 21
133.7733081897
  0
LINE
  5
37F
100
AcDbEntity
  8
0
100
AcDbLine
 62
7
  6
CONTINUOUS
 10
260.1882407328
 20
203.1733081897
 11
257.6782311803
 21
205.4733081897
  0
LINE
  5
380
100
AcDbEntity
  8
0
100
AcDbLine
 62
7
  6
CONTINUOUS
 10
257.6782311803
 20
205.4733081897
 11
257.1882407328
 21
205.4733081897
  0
LINE
  5
381
100
AcDbEntity
  8
AXIS
100
AcDbLine
 62
7
  6
CENTER
 10
265.1882407328
 20
208.4733081897
 11
252.1882407328
 21
208.4733081897
  0
LINE
  5
382
100
AcDbEntity
  8
0
100
AcDbLine
 62
7
  6
CONTINUOUS
 10
257.6782311803
 20
210.457621673
 11
257.1882407328
 21
210.457621673
  0
LINE
  5
383
100
AcDbEntity
  8
0
100
AcDbLine
 62
7
  6
CONTINUOUS
 10
257.6782311803
 20
225.4733081897
 11
260.1882407328
 21
223.1733081897
  0
LINE
  5
384
100
AcDbEntity
  8
0
100
AcDbLine
 62
7
  6
CONTINUOUS
 10
257.1882407328
 20
225.4733081897
 11
257.6782311803
 21
225.4733081897
  0
LINE
  5
385
100
AcDbEntity
  8
AXIS
100
AcDbLine
 62
7
  6
CENTER
 10
252.1882407328
 20
228.4733081897
 11
265.1882407328
 21
228.4733081897
  0
LINE
  5
386
100
AcDbEntity
  8
0
100
AcDbLine
 62
7
  6
CONTINUOUS
 10
257.1882407328
 20
231.4733081897
 11
257.6782311803
 21
231.4733081897
  0
LINE
  5
387
100
AcDbEntity
  8
0
100
AcDbLine
 62
7
  6
CONTINUOUS
 10
256.9882407328
 20
238.4733081897
 11
260.1882407328
 21
238.4733081897
  0
LINE
  5
388
100
AcDbEntity
  8
0
100
AcDbLine
 62
7
  6
CONTINUOUS
 10
161.7346174569
 20
45.7904782444
 11
161.7346174569
 21
42.7904782444
  0
LINE
  5
389
100
AcDbEntity
  8
0
100
AcDbLine
 62
7
  6
CONTINUOUS
 10
181.7346174569
 20
42.7904782444
 11
161.7346174569
 21
42.7904782444
  0
LINE
  5
38A
100
AcDbEntity
  8
0
100
AcDbLine
 62
9
  6
CONTINUOUS
 10
183.7346174569
 20
44.7904782444
 11
180.7346174569
 21
44.7904782444
  0
LINE
  5
38B
100
AcDbEntity
  8
0
100
AcDbLine
 62
7
  6
CONTINUOUS
 10
161.7346174569
 20
45.7904782444
 11
180.5346174569
 21
45.7904782444
  0
LINE
  5
38C
100
AcDbEntity
  8
0
100
AcDbLine
 62
9
  6
CONTINUOUS
 10
171.7346174569
 20
45.7904782444
 11
171.7346174569
 21
42.7904782444
  0
LINE
  5
38D
100
AcDbEntity
  8
0
100
AcDbLine
 62
7
  6
CONTINUOUS
 10
183.7346174569
 20
54.7904782444
 11
180.7346174569
 21
54.7904782444
  0
LINE
  5
38E
100
AcDbEntity
  8
0
100
AcDbLine
 62
7
  6
CONTINUOUS
 10
180.7346174569
 20
44.7904782444
 11
180.7346174569
 21
54.7904782444
  0
LINE
  5
38F
100
AcDbEntity
  8
0
100
AcDbLine
 62
7
  6
CONTINUOUS
 10
183.7346174569
 20
54.7904782444
 11
183.7346174569
 21
44.7904782444
  0
ARC
  5
390
100
AcDbEntity
  8
0
100
AcDbCircle
 62
7
  6
CONTINUOUS
 10
171.7346174569
 20
108.4733081897
 40
10.0
100
AcDbArc
 50
180.0
 51
270.0
  0
ARC
  5
391
100
AcDbEntity
  8
0
100
AcDbCircle
 62
7
  6
CONTINUOUS
 10
171.7346174569
 20
228.4733081897
 40
10.0
100
AcDbArc
 50
90.0
 51
180.0
  0
CIRCLE
  5
392
100
AcDbEntity
  8
AXIS
100
AcDbCircle
 62
7
  6
CONTINUOUS
 10
172.7346174569
 20
228.4733081897
 40
5.3
  0
CIRCLE
  5
393
100
AcDbEntity
  8
AXIS
100
AcDbCircle
 62
7
  6
CONTINUOUS
 10
172.7346174569
 20
108.4733081897
 40
5.3
  0
CIRCLE
  5
394
100
AcDbEntity
  8
AXIS
100
AcDbCircle
 62
7
  6
CONTINUOUS
 10
170.4846174569
 20
208.4733081897
 40
5.3
  0
CIRCLE
  5
395
100
AcDbEntity
  8
AXIS
100
AcDbCircle
 62
7
  6
CONTINUOUS
 10
170.4846174569
 20
128.4733081897
 40
5.3
  0
CIRCLE
  5
396
100
AcDbEntity
  8
AXIS
100
AcDbCircle
 62
7
  6
CONTINUOUS
 10
170.4846174569
 20
208.4733081897
 40
3.0
  0
CIRCLE
  5
397
100
AcDbEntity
  8
AXIS
100
AcDbCircle
 62
7
  6
CONTINUOUS
 10
170.4846174569
 20
128.4733081897
 40
3.0
  0
CIRCLE
  5
398
100
AcDbEntity
  8
AXIS
100
AcDbCircle
 62
7
  6
CONTINUOUS
 10
172.7346174569
 20
228.4733081897
 40
3.0
  0
CIRCLE
  5
399
100
AcDbEntity
  8
AXIS
100
AcDbCircle
 62
7
  6
CONTINUOUS
 10
172.7346174569
 20
108.4733081897
 40
3.0
  0
ARC
  5
39A
100
AcDbEntity
  8
AXIS
100
AcDbCircle
 62
7
  6
CONTINUOUS
 10
174.2346174569
 20
175.9733081897
 40
2.0
100
AcDbArc
 50
0.0
 51
90.0
  0
ARC
  5
39B
100
AcDbEntity
  8
AXIS
100
AcDbCircle
 62
7
  6
CONTINUOUS
 10
174.2346174569
 20
160.9733081897
 40
2.0
100
AcDbArc
 50
270.0
 51
360.0
  0
ARC
  5
39C
100
AcDbEntity
  8
AXIS
100
AcDbCircle
 62
7
  6
CONTINUOUS
 10
166.7346174569
 20
160.9733081897
 40
2.0
100
AcDbArc
 50
180.0
 51
270.0
  0
ARC
  5
39D
100
AcDbEntity
  8
AXIS
100
AcDbCircle
 62
7
  6
CONTINUOUS
 10
166.7346174569
 20
175.9733081897
 40
2.0
100
AcDbArc
 50
90.0
 51
180.0
  0
ARC
  5
39E
100
AcDbEntity
  8
0
100
AcDbCircle
 62
7
  6
CONTINUOUS
 10
258.1882407328
 20
108.4733081897
 40
10.0
100
AcDbArc
 50
180.0
 51
263.1078974207
  0
ARC
  5
39F
100
AcDbEntity
  8
0
100
AcDbCircle
 62
7
  6
CONTINUOUS
 10
258.1882407328
 20
228.4733081897
 40
10.0
100
AcDbArc
 50
96.8921025793
 51
180.0
  0
ARC
  5
3A0
100
AcDbEntity
  8
0
100
AcDbCircle
 62
7
  6
CONTINUOUS
 10
181.7346174569
 20
44.7904782444
 40
2.0
100
AcDbArc
 50
270.0
 51
360.0
  0
ARC
  5
3A1
100
AcDbEntity
  8
0
100
AcDbCircle
 62
7
  6
CONTINUOUS
 10
180.5346174569
 20
45.9904782444
 40
0.2
100
AcDbArc
 50
270.0
 51
360.0
  0
SPLINE
  5
3A2
100
AcDbEntity
  8
0
100
AcDbSpline
 62
7
  6
CONTINUOUS
 70
0
 71
3
 72
10
 73
6
 74
0
 42
0.0000001
 43
0.0000001
 44
0.0000000001
 40
0.0
 40
0.0
 40
0.0
 40
0.0
 40
0.2499960688
 40
0.5000007044
 40
1.0
 40
1.0
 40
1.0
 40
1.0
 10
257.6782311803
 20
110.457621673
 30
0.0
 10
257.8622991392
 20
110.7126225238
 30
0.0
 10
258.2555492841
 20
111.2044520477
 30
0.0
 10
259.0901049771
 20
112.1459406367
 30
0.0
 10
259.7461458845
 20
112.8245807822
 30
0.0
 10
260.1882407328
 20
113.2720059297
 30
0.0
  0
SPLINE
  5
3A3
100
AcDbEntity
  8
0
100
AcDbSpline
 62
7
  6
CONTINUOUS
 70
0
 71
3
 72
10
 73
6
 74
0
 42
0.0000001
 43
0.0000001
 44
0.0000000001
 40
0.0
 40
0.0
 40
0.0
 40
0.0
 40
0.4999992894
 40
0.7500039265
 40
1.0
 40
1.0
 40
1.0
 40
1.0
 10
260.1882407328
 20
103.6746104496
 30
0.0
 10
259.7461458901
 20
104.1220355914
 30
0.0
 10
259.090105009
 20
104.800675753
 30
0.0
 10
258.2555492956
 20
105.742164323
 30
0.0
 10
257.8622991426
 20
106.2339938508
 30
0.0
 10
257.6782311803
 20
106.4889947064
 30
0.0
  0
SPLINE
  5
3A4
100
AcDbEntity
  8
0
100
AcDbSpline
 62
7
  6
CONTINUOUS
 70
0
 71
3
 72
10
 73
6
 74
0
 42
0.0000001
 43
0.0000001
 44
0.0000000001
 40
0.0
 40
0.0
 40
0.0
 40
0.0
 40
0.4999992894
 40
0.7500039265
 40
1.0
 40
1.0
 40
1.0
 40
1.0
 10
260.1882407328
 20
213.2720059297
 30
0.0
 10
259.7461458901
 20
212.8245807879
 30
0.0
 10
259.090105009
 20
212.1459406263
 30
0.0
 10
258.2555492956
 20
211.2044520563
 30
0.0
 10
257.8622991426
 20
210.7126225286
 30
0.0
 10
257.6782311803
 20
210.457621673
 30
0.0
  0
INSERT
  5
3A5
100
AcDbEntity
  8
HATCHING_BL0
100
AcDbBlockReference
  2
HATCHING_BL0
 10
0.0
 20
0.0
  0
INSERT
  5
3A6
100
AcDbEntity
  8
Grp_symbol_75_BL2
100
AcDbBlockReference
  2
GRP_SYMBOL_75_BL2
 10
46.3855856311
 20
44.8369468876
  0
ENDSEC
  0
SECTION
  2
OBJECTS
  0
DICTIONARY
  5
C
100
AcDbDictionary
280
0
281
1
  3
ACAD_GROUP
350
D
  3
ACAD_MLINESTYLE
350
17
  3
ACAD_LAYOUT
350
1A
  3
ACAD_PLOTSETTINGS
350
19
  3
ACAD_PLOTSTYLENAME
350
E
  3
ACAD_TABLESTYLE
350
       3A7
  0
DICTIONARY
  5
D
102
{ACAD_REACTORS
330
C
102
}
100
AcDbDictionary
280
0
281
1
  0
ACDBDICTIONARYWDFLT
  5
E
102
{ACAD_REACTORS
330
C
102
}
100
AcDbDictionary
281
1
  3
Normal
350
F
100
AcDbDictionaryWithDefault
340
F
  0
DICTIONARY
  5
17
102
{ACAD_REACTORS
330
C
102
}
100
AcDbDictionary
280
0
281
1
  3
Standard
350
18
  0
DICTIONARY
  5
3A7
330
C
100
AcDbDictionary
281
1
  3
Standard
350
       3AA
  3
Standard1
350
       3AB
  0
DICTIONARY
  5
19
102
{ACAD_REACTORS
330
C
102
}
100
AcDbDictionary
281
1
  0
DICTIONARY
  5
1A
102
{ACAD_REACTORS
330
C
102
}
100
AcDbDictionary
281
1
  3
Model
350
3A8
  3
Layout1
350
3A9
  0
ACDBPLACEHOLDER
  5
F
102
{ACAD_REACTORS
330
E
102
}
  0
MLINESTYLE
  5
18
102
{ACAD_REACTORS
330
17
102
}
100
AcDbMlineStyle
  2
STANDARD
 70
0
  3

 62
256
 51
90.0
 52
90.0
 71
2
 49
0.5
 62
256
  6
BYLAYER
 49
-0.5
 62
256
  6
BYLAYER
  0
LAYOUT
  5
3A8
102
{ACAD_REACTORS
330
1A
102
}
100
AcDbPlotSettings
  1

  2
none_device
  4
ISO_A3_(420.00_x_297.00_MM)
  6

 40
0.0
 41
0.0
 42
0.0
 43
0.0
 44
420.0
 45
297.0
 46
0.0
 47
0.0
 48
0.0
 49
0.0
140
0.0
141
0.0
142
1.0
143
1.0
 70
1024
 72
1
 73
0
 74
0
  7

 75
0
147
1.0
148
0.0
149
0.0
100
AcDbLayout
  1
Model
 70
0
 71
0
 10
0.0
 20
0.0
 11
420.0
 21
297.0
 12
0.0
 22
0.0
 32
0.0
 14
0.0
 24
0.0
 34
0.0
 15
0.0
 25
0.0
 35
0.0
146
0.0
 13
0.0
 23
0.0
 33
0.0
 16
1.0
 26
0.0
 36
0.0
 17
0.0
 27
1.0
 37
0.0
 76
0
330
20F
345
0
346
0
  0
LAYOUT
  5
3A9
102
{ACAD_REACTORS
330
1A
102
}
100
AcDbPlotSettings
  1

  2
none_device
  4
ISO_A3_(420.00_x_297.00_MM)
  6

 40
0.0
 41
0.0
 42
0.0
 43
0.0
 44
420.0
 45
297.0
 46
0.0
 47
0.0
 48
0.0
 49
0.0
140
0.0
141
0.0
142
1.0
143
1.0
 70
0
 72
1
 73
0
 74
0
  7

 75
0
147
1.0
148
0.0
149
0.0
100
AcDbLayout
  1
Layout1
 70
0
 71
1
 10
0.0
 20
0.0
 11
420.0
 21
297.0
 12
0.0
 22
0.0
 32
0.0
 14
0.0
 24
0.0
 34
0.0
 15
0.0
 25
0.0
 35
0.0
146
0.0
 13
0.0
 23
0.0
 33
0.0
 16
1.0
 26
0.0
 36
0.0
 17
0.0
 27
1.0
 37
0.0
 76
0
330
210
345
0
346
0
  0
TABLESTYLE
  5
3AA
102
{ACAD_REACTORS
330
3A7
330
33C
102
}
330
3A7
100
AcDbTableStyle
  3
Standard
 70
0
 71
0
 40
0.06
 41
0.06
280
1
281
1
  7
Standard
140
0.18
170
1
 62
0
 63
7
283
0
  7
Standard
140
0.18
170
1
 62
0
 63
7
283
0
  7
Standard
140
0.18
170
1
 62
0
 63
7
283
0
  0
TABLESTYLE
  5
3AB
102
{ACAD_REACTORS
330
3A7
102
}
330
3A7
100
AcDbTableStyle
  3
Standard1
 70
1
 71
0
 40
0.06
 41
0.06
280
1
281
1
  7
Standard
140
0.18
170
1
 62
0
 63
7
283
0
  7
Standard
140
0.18
170
1
 62
0
 63
7
283
0
  7
Standard
140
0.18
170
1
 62
0
 63
7
283
0
  0
ENDSEC
  0
EOF
