999
DXF file: Z:\Entwicklung\5_Service\1_Maßblätter\3_Schließblech\9000\b_9000_0490_bd01.dxf
999
Pro/ENGINEER 2014320 by Parametric Technology Corporation
  0
SECTION
  2
HEADER
  9
$ACADVER
  1
AC1021
  9
$DWGCODEPAGE
  3
ANSI_1252
  9
$EXTMAX
 10
297.0
 20
210.0
 30
0.0
  9
$EXTMIN
 10
0.0
 20
0.0
 30
0.0
  9
$LIMMIN
 10
0.0
 20
0.0
  9
$LIMMAX
 10
297.0
 20
210.0
  9
$VIEWCTR
 10
148.5
 20
105.0
  9
$VIEWSIZE
 40
210.0
  9
$CLAYER
  8
0
  9
$LTSCALE
 40
16.335
  9
$CELTYPE
  6
BYLAYER
  9
$DIMSCALE
 40
1.0
  9
$DIMASZ
 40
3.5
  9
$DIMEXO
 40
0.0
  9
$DIMDLI
 40
11.286
  9
$DIMEXE
 40
1.0
  9
$DIMCEN
 40
2.673
  9
$DIMLFAC
 40
1.0
  9
$DIMBLK
  1
_FILLED
  9
$DIMTXT
 40
2.5
  9
$DIMTOL
 70
1
  9
$DIMLIM
 70
0
  9
$DIMTFAC
 40
1.0
  9
$DIMTP
 40
0.001
  9
$DIMTM
 40
0.001
  9
$DIMGAP
 40
0.625
  9
$DIMDSEP
 70
46
  9
$PDMODE
 70
3
  9
$PDSIZE
 40
2.0
  9
$HANDSEED
  5
308
  9
$TILEMODE
 70
1
  9
$MEASUREMENT
 70
1
  9
$INSUNITS
 70
4
  0
ENDSEC
  0
SECTION
  2
CLASSES
  0
CLASS
  1
ACDBDICTIONARYWDFLT
  2
AcDbDictionaryWithDefault
  3
AutoCAD 2000
 90
0
 91
1
280
0
281
0
  0
CLASS
  1
ACDBPLACEHOLDER
  2
AcDbPlaceHolder
  3
AutoCAD 2000
 90
0
 91
1
280
0
281
0
  0
CLASS
  1
LAYOUT
  2
AcDbLayout
  3
AutoCAD 2000
 90
0
 91
0
280
0
281
0
  0
ENDSEC
  0
SECTION
  2
TABLES
  0
TABLE
  2
VPORT
  5
8
100
AcDbSymbolTable
 70
2
  0
VPORT
  5
1F4
100
AcDbSymbolTableRecord
100
AcDbViewportTableRecord
  2
*ACTIVE
 70
0
 10
0.0
 20
0.0
 11
1.0
 21
1.0
 12
148.5
 22
105.0
 13
0.0
 23
0.0
 14
1.0
 24
1.0
 15
0.0
 25
0.0
 16
0.0
 26
0.0
 36
1.0
 17
0.0
 27
0.0
 37
0.0
 40
210.0
 41
1.4142857143
 42
50.0
 43
0.0
 44
0.0
 50
0.0
 51
0.0
 71
0
 72
100
 73
1
 74
1
 75
0
 76
0
 77
0
 78
0
  0
ENDTAB
  0
TABLE
  2
LTYPE
  5
5
100
AcDbSymbolTable
 70
6
  0
LTYPE
  5
14
100
AcDbSymbolTableRecord
100
AcDbLinetypeTableRecord
  2
BYBLOCK
 70
0
  3

 72
65
 73
0
 40
0.0
  0
LTYPE
  5
15
100
AcDbSymbolTableRecord
100
AcDbLinetypeTableRecord
  2
BYLAYER
 70
0
  3

 72
65
 73
0
 40
0.0
  0
LTYPE
  5
16
100
AcDbSymbolTableRecord
100
AcDbLinetypeTableRecord
  2
CONTINUOUS
 70
64
  3
Solid line
 72
65
 73
0
 40
0.0
  0
LTYPE
  5
1F5
100
AcDbSymbolTableRecord
100
AcDbLinetypeTableRecord
  2
CENTER
 70
64
  3
____ _ ____ _ ____ _ ____ _ ____ _ ____ _ ____
 72
65
 73
4
 40
0.6
 49
0.375
 74
0
 49
-0.075
 74
0
 49
0.075
 74
0
 49
-0.075
 74
0
  0
LTYPE
  5
1F6
100
AcDbSymbolTableRecord
100
AcDbLinetypeTableRecord
  2
HIDDEN
 70
64
  3
- - - - - - - - - - - - - - - - - - - -
 72
65
 73
2
 40
0.2
 49
0.1
 74
0
 49
-0.1
 74
0
  0
LTYPE
  5
1F7
100
AcDbSymbolTableRecord
100
AcDbLinetypeTableRecord
  2
PHANTOM
 70
64
  3
_____ _ _ _____ _ _ _____ _ _ _____
 72
65
 73
6
 40
0.8
 49
0.45
 74
0
 49
-0.05
 74
0
 49
0.1
 74
0
 49
-0.05
 74
0
 49
0.1
 74
0
 49
-0.05
 74
0
  0
LTYPE
  5
1F8
100
AcDbSymbolTableRecord
100
AcDbLinetypeTableRecord
  2
DOT
 70
64
  3
. . . . . . . . . . . . . . . . . . . .
 72
65
 73
2
 40
0.2
 49
0.1
 74
0
 49
-0.1
 74
0
  0
LTYPE
  5
1F9
100
AcDbSymbolTableRecord
100
AcDbLinetypeTableRecord
  2
DASHED
 70
64
  3
- - - - - - - - - - - - - - - - - - - -
 72
65
 73
2
 40
0.2
 49
0.1
 74
0
 49
-0.1
 74
0
  0
ENDTAB
  0
TABLE
  2
LAYER
  5
2
100
AcDbSymbolTable
 70
36
  0
LAYER
  5
10
100
AcDbSymbolTableRecord
100
AcDbLayerTableRecord
  2
0
 70
0
 62
7
  6
CONTINUOUS
370
-3
390
F
  0
LAYER
  5
1FA
100
AcDbSymbolTableRecord
100
AcDbLayerTableRecord
  2
DEFAULT_1
 70
0
 62
7
  6
CENTER
370
-3
390
F
  0
LAYER
  5
1FB
100
AcDbSymbolTableRecord
100
AcDbLayerTableRecord
  2
DEFAULT_2
 70
0
 62
8
  6
HIDDEN
370
-3
390
F
  0
LAYER
  5
1FC
100
AcDbSymbolTableRecord
100
AcDbLayerTableRecord
  2
DEFAULT_3
 70
0
 62
7
  6
PHANTOM
370
-3
390
F
  0
LAYER
  5
1FD
100
AcDbSymbolTableRecord
100
AcDbLayerTableRecord
  2
ACHSEN
 70
0
 62
7
  6
CONTINUOUS
370
-3
390
F
  0
LAYER
  5
1FE
100
AcDbSymbolTableRecord
100
AcDbLayerTableRecord
  2
EBENEN
 70
0
 62
7
  6
CONTINUOUS
370
-3
390
F
  0
LAYER
  5
1FF
100
AcDbSymbolTableRecord
100
AcDbLayerTableRecord
  2
S-ACHSEN
 70
0
 62
7
  6
CONTINUOUS
370
-3
390
F
  0
LAYER
  5
200
100
AcDbSymbolTableRecord
100
AcDbLayerTableRecord
  2
S-EBENEN
 70
0
 62
7
  6
CONTINUOUS
370
-3
390
F
  0
LAYER
  5
201
100
AcDbSymbolTableRecord
100
AcDbLayerTableRecord
  2
S-KOORDSYS
 70
0
 62
7
  6
CONTINUOUS
370
-3
390
F
  0
LAYER
  5
202
100
AcDbSymbolTableRecord
100
AcDbLayerTableRecord
  2
XSEC_DATUMS
 70
0
 62
7
  6
CONTINUOUS
370
-3
390
F
  0
LAYER
  5
203
100
AcDbSymbolTableRecord
100
AcDbLayerTableRecord
  2
GU_BKS_BL0
 70
0
 62
7
  6
CONTINUOUS
370
-3
390
F
  0
ENDTAB
  0
TABLE
  2
STYLE
  5
3
100
AcDbSymbolTable
 70
1
  0
STYLE
  5
11
100
AcDbSymbolTableRecord
100
AcDbTextStyleTableRecord
  2
STANDARD
 70
0
 40
0.0
 41
0.8
 50
0.0
 71
0
 42
0.2
  3
txt
  4

  0
STYLE
  5
204
100
AcDbSymbolTableRecord
100
AcDbTextStyleTableRecord
  2
TEXTSTYLE_1
 70
0
 40
0.0
 41
0.8
 50
0.0
 71
0
 42
0.2
  3
gdt
  4

  0
STYLE
  5
205
100
AcDbSymbolTableRecord
100
AcDbTextStyleTableRecord
  2
TEXTSTYLE_2
 70
0
 40
0.0
 41
1.0
 50
0.0
 71
0
 42
0.2
  3
swisscl.ttf
  4

  0
STYLE
  5
206
100
AcDbSymbolTableRecord
100
AcDbTextStyleTableRecord
  2
TEXTSTYLE_3
 70
0
 40
0.0
 41
1.0
 50
0.0
 71
0
 42
0.2
  3
swisscl.ttf
  4

  0
ENDTAB
  0
TABLE
  2
VIEW
  5
6
100
AcDbSymbolTable
 70
0
  0
ENDTAB
  0
TABLE
  2
UCS
  5
7
100
AcDbSymbolTable
 70
0
  0
ENDTAB
  0
TABLE
  2
APPID
  5
9
100
AcDbSymbolTable
 70
1
  0
APPID
  5
207
100
AcDbSymbolTableRecord
100
AcDbRegAppTableRecord
  2
ACAD
 70
0
  0
ENDTAB
  0
TABLE
  2
BLOCK_RECORD
  5
1
100
AcDbSymbolTable
 70
0
  0
BLOCK_RECORD
  5
208
100
AcDbSymbolTableRecord
100
AcDbBlockTableRecord
  2
*Model_Space
  0
BLOCK_RECORD
  5
209
100
AcDbSymbolTableRecord
100
AcDbBlockTableRecord
  2
*Paper_Space
  0
BLOCK_RECORD
  5
20A
100
AcDbSymbolTableRecord
100
AcDbBlockTableRecord
  2
_FILLED
  0
BLOCK_RECORD
  5
20B
100
AcDbSymbolTableRecord
100
AcDbBlockTableRecord
  2
*D0
  0
BLOCK_RECORD
  5
20C
100
AcDbSymbolTableRecord
100
AcDbBlockTableRecord
  2
*D1
  0
BLOCK_RECORD
  5
20D
100
AcDbSymbolTableRecord
100
AcDbBlockTableRecord
  2
*D2
  0
BLOCK_RECORD
  5
20E
100
AcDbSymbolTableRecord
100
AcDbBlockTableRecord
  2
*D3
  0
BLOCK_RECORD
  5
20F
100
AcDbSymbolTableRecord
100
AcDbBlockTableRecord
  2
*D4
  0
BLOCK_RECORD
  5
210
100
AcDbSymbolTableRecord
100
AcDbBlockTableRecord
  2
*D5
  0
BLOCK_RECORD
  5
211
100
AcDbSymbolTableRecord
100
AcDbBlockTableRecord
  2
*D6
  0
BLOCK_RECORD
  5
212
100
AcDbSymbolTableRecord
100
AcDbBlockTableRecord
  2
*D7
  0
BLOCK_RECORD
  5
213
100
AcDbSymbolTableRecord
100
AcDbBlockTableRecord
  2
*D8
  0
BLOCK_RECORD
  5
214
100
AcDbSymbolTableRecord
100
AcDbBlockTableRecord
  2
*D9
  0
BLOCK_RECORD
  5
215
100
AcDbSymbolTableRecord
100
AcDbBlockTableRecord
  2
*D10
  0
BLOCK_RECORD
  5
216
100
AcDbSymbolTableRecord
100
AcDbBlockTableRecord
  2
GU_BKS_BL0
  0
ENDTAB
  0
TABLE
  2
DIMSTYLE
  5
A
100
AcDbSymbolTable
 70
1
100
AcDbDimStyleTable
 71
0
  0
DIMSTYLE
105
217
100
AcDbSymbolTableRecord
100
AcDbDimStyleTableRecord
  2
STANDARD
 70
0
  3

  4

 40
1.0
 41
3.5
 42
0.0
 43
0.38
 44
1.0
 45
0.0
 46
0.0
 47
0.001
 48
0.001
140
2.5
141
0.09
142
0.0
143
25.4
144
1.0
145
0.0
146
1.0
147
0.625
 71
1.0
 72
0.0
 73
0
 74
0
 75
0
 76
0
 77
1
 78
8
170
0
171
2
172
0
173
0
174
0
175
0
176
0
177
0
178
5
270
2
271
3
272
3
273
2
274
2
275
0
280
0
281
0
282
0
283
1
284
8
285
0
286
0
287
3
288
0
340
11
278
46
341
20A
342
20A
343
20A
344
20A
  0
DIMSTYLE
105
218
100
AcDbSymbolTableRecord
100
AcDbDimStyleTableRecord
  2
DIMSTYLE_1
 70
0
  3

  4

 40
1.0
 41
3.5
 42
0.0
 43
0.38
 44
1.0
 45
0.0
 46
0.0
 47
0.3
 48
0.3
140
3.0
141
0.09
142
0.0
143
25.4
144
1.0
145
0.0
146
1.0
147
0.75
 71
0.0
 72
0.0
 73
0
 74
0
 75
0
 76
0
 77
1
 78
8
170
0
171
2
172
0
173
0
174
0
175
0
176
0
177
0
178
5
270
2
271
3
272
3
273
2
274
2
275
0
280
0
281
0
282
0
283
1
284
8
285
0
286
0
287
3
288
0
340
206
278
46
341
20A
342
20A
343
20A
344
20A
  0
DIMSTYLE
105
219
100
AcDbSymbolTableRecord
100
AcDbDimStyleTableRecord
  2
DIMSTYLE_2
 70
0
  3

  4

 40
1.0
 41
3.5
 42
0.0
 43
0.38
 44
1.0
 45
0.0
 46
0.0
 47
0.2
 48
0.2
140
3.0
141
0.09
142
0.0
143
25.4
144
1.0
145
0.0
146
1.0
147
0.75
 71
0.0
 72
0.0
 73
0
 74
0
 75
0
 76
0
 77
1
 78
8
170
0
171
2
172
0
173
0
174
0
175
0
176
0
177
0
178
5
270
2
271
3
272
3
273
2
274
2
275
0
280
0
281
0
282
0
283
1
284
8
285
0
286
0
287
3
288
0
340
206
278
46
341
20A
342
20A
343
20A
344
20A
  0
DIMSTYLE
105
21A
100
AcDbSymbolTableRecord
100
AcDbDimStyleTableRecord
  2
DIMSTYLE_3
 70
0
  3

  4

 40
1.0
 41
3.5
 42
0.0
 43
0.38
 44
1.0
 45
0.0
 46
0.0
 47
0.1
 48
0.1
140
3.0
141
0.09
142
0.0
143
25.4
144
1.0
145
0.0
146
1.0
147
0.75
 71
0.0
 72
0.0
 73
0
 74
0
 75
0
 76
0
 77
1
 78
8
170
0
171
2
172
0
173
0
174
0
175
0
176
0
177
0
178
5
270
2
271
3
272
3
273
2
274
2
275
0
280
0
281
0
282
0
283
1
284
8
285
0
286
0
287
3
288
0
340
206
278
46
341
20A
342
20A
343
20A
344
20A
  0
DIMSTYLE
105
21B
100
AcDbSymbolTableRecord
100
AcDbDimStyleTableRecord
  2
DIMSTYLE_4
 70
0
  3

  4

 40
1.0
 41
3.5
 42
0.0
 43
0.38
 44
1.0
 45
0.0
 46
0.0
 47
0.1
 48
0.1
140
3.0
141
0.09
142
0.0
143
25.4
144
1.0
145
0.0
146
1.0
147
0.625
 71
0.0
 72
0.0
 73
0
 74
0
 75
0
 76
0
 77
1
 78
8
170
0
171
2
172
0
173
0
174
0
175
0
176
0
177
0
178
5
270
2
271
3
272
3
273
2
274
2
275
0
280
0
281
0
282
0
283
1
284
8
285
0
286
0
287
3
288
0
340
206
278
46
341
20A
342
20A
343
20A
344
20A
  0
ENDTAB
  0
ENDSEC
  0
SECTION
  2
BLOCKS
  0
BLOCK
  5
20
100
AcDbEntity
  8
0
100
AcDbBlockBegin
  2
*Model_Space
 70
0
 10
0.0
 20
0.0
 30
0.0
  3
*Model_Space
  1

  0
ENDBLK
  5
21
100
AcDbEntity
  8
0
100
AcDbBlockEnd
  0
BLOCK
  5
1C
100
AcDbEntity
  8
0
100
AcDbBlockBegin
  2
*Paper_Space
 70
0
 10
0.0
 20
0.0
 30
0.0
  3
*Paper_Space
  1

  0
ENDBLK
  5
1D
100
AcDbEntity
  8
0
100
AcDbBlockEnd
  0
BLOCK
  5
21C
100
AcDbEntity
  8
GU_BKS_BL0
100
AcDbBlockBegin
  2
GU_BKS_BL0
 70
64
 10
23.3804463594
 20
15.4907484771
  3
GU_BKS_BL0
  1

  0
LINE
  5
21D
100
AcDbEntity
  8
GU_BKS_BL0
100
AcDbLine
 62
2
  6
CONTINUOUS
 10
19.762280386
 20
10.7101873921
 11
17.7968507973
 21
15.4551541609
  0
LINE
  5
21E
100
AcDbEntity
  8
GU_BKS_BL0
100
AcDbLine
 62
2
  6
CONTINUOUS
 10
29.4585315605
 20
11.3541793157
 11
28.0173451678
 21
13.8503873708
  0
LINE
  5
21F
100
AcDbEntity
  8
GU_BKS_BL0
100
AcDbLine
 62
2
  6
CONTINUOUS
 10
28.8621338071
 20
14.8441705261
 11
30.8770811719
 21
11.3541793157
  0
LINE
  5
220
100
AcDbEntity
  8
GU_BKS_BL0
100
AcDbLine
 62
2
  6
CONTINUOUS
 10
21.0263311719
 20
17.1099293157
 11
21.0263311719
 21
11.3541793157
  0
LINE
  5
221
100
AcDbEntity
  8
GU_BKS_BL0
100
AcDbLine
 62
2
  6
CONTINUOUS
 10
22.1865811719
 20
16.0634293157
 11
22.1865811719
 21
14.7894293157
  0
LINE
  5
222
100
AcDbEntity
  8
GU_BKS_BL0
100
AcDbLine
 62
2
  6
CONTINUOUS
 10
22.1865811719
 20
13.7884293157
 11
22.1865811719
 21
12.4234293157
  0
LINE
  5
223
100
AcDbEntity
  8
GU_BKS_BL0
100
AcDbLine
 62
2
  6
CONTINUOUS
 10
26.1450811719
 20
11.3541793157
 11
26.1450811719
 21
17.1099293157
  0
LINE
  5
224
100
AcDbEntity
  8
GU_BKS_BL0
100
AcDbLine
 62
2
  6
CONTINUOUS
 10
27.3735811719
 20
17.1099293157
 11
27.3735811719
 21
14.8398184282
  0
LINE
  5
225
100
AcDbEntity
  8
GU_BKS_BL0
100
AcDbLine
 62
2
  6
CONTINUOUS
 10
27.3735811719
 20
13.083179316
 11
27.3735811719
 21
11.3541793157
  0
LINE
  5
226
100
AcDbEntity
  8
GU_BKS_BL0
100
AcDbLine
 62
2
  6
CONTINUOUS
 10
29.6911004029
 20
31.0705676384
 11
29.6911004029
 21
27.7040916449
  0
LINE
  5
227
100
AcDbEntity
  8
GU_BKS_BL0
100
AcDbLine
 62
2
  6
CONTINUOUS
 10
29.6911004029
 20
25.9143195978
 11
29.6911004029
 21
25.4455697759
  0
LINE
  5
228
100
AcDbEntity
  8
GU_BKS_BL0
100
AcDbLine
 62
2
  6
CONTINUOUS
 10
31.2554408604
 20
15.4719293157
 11
31.2554408604
 21
15.1534293157
  0
LINE
  5
229
100
AcDbEntity
  8
GU_BKS_BL0
100
AcDbLine
 62
2
  6
CONTINUOUS
 10
31.9070086518
 20
25.4455697759
 11
31.9070086518
 21
31.0705676384
  0
LINE
  5
22A
100
AcDbEntity
  8
GU_BKS_BL0
100
AcDbLine
 62
2
  6
CONTINUOUS
 10
33.8160988354
 20
31.0705676384
 11
33.8160988354
 21
25.4455697759
  0
LINE
  5
22B
100
AcDbEntity
  8
GU_BKS_BL0
100
AcDbLine
 62
2
  6
CONTINUOUS
 10
35.2678311719
 20
12.9694293157
 11
35.2678311719
 21
13.2879293157
  0
LINE
  5
22C
100
AcDbEntity
  8
GU_BKS_BL0
100
AcDbLine
 62
2
  6
CONTINUOUS
 10
36.0320070843
 20
25.4455697759
 11
36.0320070843
 21
31.0705676384
  0
LINE
  5
22D
100
AcDbEntity
  8
GU_BKS_BL0
100
AcDbLine
 62
2
  6
CONTINUOUS
 10
35.3271515832
 20
10.1484293157
 11
20.6030107606
 21
10.1484293157
  0
LINE
  5
22E
100
AcDbEntity
  8
GU_BKS_BL0
100
AcDbLine
 62
2
  6
CONTINUOUS
 10
30.8770811719
 20
11.3541793157
 11
29.4585315605
 21
11.3541793157
  0
LINE
  5
22F
100
AcDbEntity
  8
GU_BKS_BL0
100
AcDbLine
 62
2
  6
CONTINUOUS
 10
27.3735811719
 20
11.3541793157
 11
26.1450811719
 21
11.3541793157
  0
LINE
  5
230
100
AcDbEntity
  8
GU_BKS_BL0
100
AcDbLine
 62
2
  6
CONTINUOUS
 10
21.0263311719
 20
11.3541793157
 11
23.5743311719
 21
11.3541793157
  0
LINE
  5
231
100
AcDbEntity
  8
GU_BKS_BL0
100
AcDbLine
 62
2
  6
CONTINUOUS
 10
22.1865811719
 20
12.4234293157
 11
23.3695811719
 21
12.4234293157
  0
LINE
  5
232
100
AcDbEntity
  8
GU_BKS_BL0
100
AcDbLine
 62
2
  6
CONTINUOUS
 10
22.1865811719
 20
13.7884293157
 11
23.3695811719
 21
13.7884293154
  0
LINE
  5
233
100
AcDbEntity
  8
GU_BKS_BL0
100
AcDbLine
 62
2
  6
CONTINUOUS
 10
22.1865811719
 20
14.7894293157
 11
23.3695811719
 21
14.7894293157
  0
LINE
  5
234
100
AcDbEntity
  8
GU_BKS_BL0
100
AcDbLine
 62
2
  6
CONTINUOUS
 10
22.1865811719
 20
16.0634293157
 11
23.3695811719
 21
16.0634293157
  0
LINE
  5
235
100
AcDbEntity
  8
GU_BKS_BL0
100
AcDbLine
 62
2
  6
CONTINUOUS
 10
23.5447561719
 20
17.1099293157
 11
21.0263311719
 21
17.1099293157
  0
LINE
  5
236
100
AcDbEntity
  8
GU_BKS_BL0
100
AcDbLine
 62
2
  6
CONTINUOUS
 10
26.1450811719
 20
17.1099293157
 11
27.3735811719
 21
17.1099293157
  0
LINE
  5
237
100
AcDbEntity
  8
GU_BKS_BL0
100
AcDbLine
 62
2
  6
CONTINUOUS
 10
29.2784303805
 20
17.1099293157
 11
30.7633311719
 21
17.1099293157
  0
LINE
  5
238
100
AcDbEntity
  8
GU_BKS_BL0
100
AcDbLine
 62
2
  6
CONTINUOUS
 10
23.469511858
 20
25.9143195978
 11
25.4857713107
 21
25.9143195978
  0
LINE
  5
239
100
AcDbEntity
  8
GU_BKS_BL0
100
AcDbLine
 62
2
  6
CONTINUOUS
 10
28.1922930808
 20
25.9143195978
 11
29.6911004029
 21
25.9143195978
  0
LINE
  5
23A
100
AcDbEntity
  8
GU_BKS_BL0
100
AcDbLine
 62
2
  6
CONTINUOUS
 10
29.6911004029
 20
27.7040916449
 11
28.1922930808
 21
27.7040916449
  0
LINE
  5
23B
100
AcDbEntity
  8
GU_BKS_BL0
100
AcDbLine
 62
2
  6
CONTINUOUS
 10
27.7944052073
 20
27.7040916449
 11
23.469511858
 21
27.7040916449
  0
LINE
  5
23C
100
AcDbEntity
  8
GU_BKS_BL0
100
AcDbLine
 62
2
  6
CONTINUOUS
 10
36.0320070843
 20
31.0705676384
 11
33.8160988354
 21
31.0705676384
  0
LINE
  5
23D
100
AcDbEntity
  8
GU_BKS_BL0
100
AcDbLine
 62
2
  6
CONTINUOUS
 10
31.9070086518
 20
31.0705676384
 11
29.6911004029
 21
31.0705676384
  0
LINE
  5
23E
100
AcDbEntity
  8
GU_BKS_BL0
100
AcDbLine
 62
2
  6
CONTINUOUS
 10
38.1333115465
 20
15.4551541612
 11
36.1678819578
 21
10.7101873921
  0
LINE
  5
23F
100
AcDbEntity
  8
GU_BKS_BL0
100
AcDbLine
 62
2
  6
CONTINUOUS
 10
27.3735811719
 20
14.8398184282
 11
29.2784303805
 21
17.1099293157
  0
LINE
  5
240
100
AcDbEntity
  8
GU_BKS_BL0
100
AcDbLine
 62
2
  6
CONTINUOUS
 10
28.0173451678
 20
13.8503873708
 11
27.3735811719
 21
13.083179316
  0
LINE
  5
241
100
AcDbEntity
  8
GU_BKS_BL0
100
AcDbLine
 62
2
  6
CONTINUOUS
 10
28.8621338071
 20
14.8441705261
 11
30.7633311719
 21
17.1099293157
  0
LINE
  5
242
100
AcDbEntity
  8
GU_BKS_BL0
100
AcDbLine
 62
2
  6
CONTINUOUS
 10
34.3557601739
 20
15.6518107234
 11
35.1607675285
 21
16.456818078
  0
LINE
  5
243
100
AcDbEntity
  8
GU_BKS_BL0
100
AcDbLine
 62
2
  6
CONTINUOUS
 10
31.7714230369
 20
12.9066067939
 11
30.9719538345
 21
12.1071375916
  0
LINE
  5
244
100
AcDbEntity
  8
GU_BKS_BL0
100
AcDbLine
 62
2
  6
CONTINUOUS
 10
25.2500683767
 20
28.1267481371
 11
27.0315641667
 21
29.444985677
  0
ARC
  5
245
100
AcDbEntity
  8
GU_BKS_BL0
100
AcDbCircle
 62
2
  6
CONTINUOUS
 10
37.3523225559
 20
41.8222387469
 40
27.3
100
AcDbArc
 50
260.6058710662
 51
262.9334764059
  0
ARC
  5
246
100
AcDbEntity
  8
GU_BKS_BL0
100
AcDbCircle
 62
2
  6
CONTINUOUS
 10
27.9650811722
 20
-0.0890706843
 40
19.3375
100
AcDbArc
 50
59.5907609466
 51
120.4092390534
  0
ARC
  5
247
100
AcDbEntity
  8
GU_BKS_BL0
100
AcDbCircle
 62
2
  6
CONTINUOUS
 10
23.469511858
 20
26.8092056214
 40
4.8068163552
100
AcDbArc
 50
349.2706340045
 51
10.7293659955
  0
ARC
  5
248
100
AcDbEntity
  8
GU_BKS_BL0
100
AcDbCircle
 62
2
  6
CONTINUOUS
 10
33.7826809789
 20
18.1954024879
 40
4.55
100
AcDbArc
 50
247.2438347843
 51
266.8254700933
  0
ARC
  5
249
100
AcDbEntity
  8
GU_BKS_BL0
100
AcDbCircle
 62
2
  6
CONTINUOUS
 10
23.3842846177
 20
26.8092056214
 40
4.49999829
100
AcDbArc
 50
35.8545159817
 51
11.4705154501
  0
ARC
  5
24A
100
AcDbEntity
  8
GU_BKS_BL0
100
AcDbCircle
 62
2
  6
CONTINUOUS
 10
32.8615537436
 20
25.4455697759
 40
3.1704533407
100
AcDbArc
 50
180.0
 51
360.0
  0
ARC
  5
24B
100
AcDbEntity
  8
GU_BKS_BL0
100
AcDbCircle
 62
2
  6
CONTINUOUS
 10
33.1992078336
 20
14.2434293154
 40
2.9575
100
AcDbArc
 50
48.451846615
 51
100.9424988997
  0
ARC
  5
24C
100
AcDbEntity
  8
GU_BKS_BL0
100
AcDbCircle
 62
2
  6
CONTINUOUS
 10
33.0172078336
 20
14.2434293154
 40
2.9575
100
AcDbArc
 50
226.2472071
 51
301.9527464003
  0
ARC
  5
24D
100
AcDbEntity
  8
GU_BKS_BL0
100
AcDbCircle
 62
2
  6
CONTINUOUS
 10
23.3842846177
 20
26.8092056214
 40
2.2840900411
100
AcDbArc
 50
35.2282226131
 51
336.934010569
  0
ARC
  5
24E
100
AcDbEntity
  8
GU_BKS_BL0
100
AcDbCircle
 62
2
  6
CONTINUOUS
 10
33.1065811719
 20
14.4709293157
 40
2.0566361364
100
AcDbArc
 50
229.5190554785
 51
285.5050441823
  0
ARC
  5
24F
100
AcDbEntity
  8
GU_BKS_BL0
100
AcDbCircle
 62
2
  6
CONTINUOUS
 10
32.9616908604
 20
15.4719293154
 40
1.70625
100
AcDbArc
 50
100.9424988902
 51
179.9999999968
  0
ARC
  5
250
100
AcDbEntity
  8
GU_BKS_BL0
100
AcDbCircle
 62
2
  6
CONTINUOUS
 10
23.5743311719
 20
12.9921793157
 40
1.638
100
AcDbArc
 50
270.0
 51
52.7307871646
  0
ARC
  5
251
100
AcDbEntity
  8
GU_BKS_BL0
100
AcDbCircle
 62
2
  6
CONTINUOUS
 10
23.5447561719
 20
15.5174293157
 40
1.5925
100
AcDbArc
 50
309.898835778
 51
90.0
  0
ARC
  5
252
100
AcDbEntity
  8
GU_BKS_BL0
100
AcDbCircle
 62
2
  6
CONTINUOUS
 10
33.2769785809
 20
14.6074293154
 40
1.5015
100
AcDbArc
 50
44.071756165
 51
108.1948723417
  0
ARC
  5
253
100
AcDbEntity
  8
GU_BKS_BL0
100
AcDbCircle
 62
2
  6
CONTINUOUS
 10
33.8118311719
 20
12.9694293152
 40
1.456
100
AcDbArc
 50
301.9527464052
 51
360.0
  0
ARC
  5
254
100
AcDbEntity
  8
GU_BKS_BL0
100
AcDbCircle
 62
2
  6
CONTINUOUS
 10
33.8151156991
 20
13.2879293157
 40
1.4527154728
100
AcDbArc
 50
0.0
 51
82.9334763962
  0
ARC
  5
255
100
AcDbEntity
  8
GU_BKS_BL0
100
AcDbCircle
 62
2
  6
CONTINUOUS
 10
32.5066908604
 20
15.1534293157
 40
1.25125
100
AcDbArc
 50
180.0
 51
247.243834782
  0
ARC
  5
256
100
AcDbEntity
  8
GU_BKS_BL0
100
AcDbCircle
 62
2
  6
CONTINUOUS
 10
32.8615537436
 20
25.4455697759
 40
0.9545450918
100
AcDbArc
 50
180.0
 51
360.0
  0
ARC
  5
257
100
AcDbEntity
  8
GU_BKS_BL0
100
AcDbCircle
 62
2
  6
CONTINUOUS
 10
20.6030107606
 20
11.0584293157
 40
0.91
100
AcDbArc
 50
202.5
 51
270.0
  0
ARC
  5
258
100
AcDbEntity
  8
GU_BKS_BL0
100
AcDbCircle
 62
2
  6
CONTINUOUS
 10
35.3271515832
 20
11.0584293157
 40
0.91
100
AcDbArc
 50
270.0
 51
337.5
  0
ARC
  5
259
100
AcDbEntity
  8
GU_BKS_BL0
100
AcDbCircle
 62
2
  6
CONTINUOUS
 10
37.2925811719
 20
15.8033960846
 40
0.91
100
AcDbArc
 50
337.500000009
 51
59.5907609348
  0
ARC
  5
25A
100
AcDbEntity
  8
GU_BKS_BL0
100
AcDbCircle
 62
2
  6
CONTINUOUS
 10
18.6375811719
 20
15.8033960846
 40
0.91
100
AcDbArc
 50
120.4092390532
 51
202.5
  0
ARC
  5
25B
100
AcDbEntity
  8
GU_BKS_BL0
100
AcDbCircle
 62
2
  6
CONTINUOUS
 10
23.469511858
 20
26.8092056214
 40
0.8948860236
100
AcDbArc
 50
90.0
 51
270.0
  0
ARC
  5
25C
100
AcDbEntity
  8
GU_BKS_BL0
100
AcDbCircle
 62
2
  6
CONTINUOUS
 10
23.3923311719
 20
13.1059293157
 40
0.6828790613
100
AcDbArc
 50
268.090847567
 51
91.909152433
  0
ARC
  5
25D
100
AcDbEntity
  8
GU_BKS_BL0
100
AcDbCircle
 62
2
  6
CONTINUOUS
 10
23.3695811719
 20
15.4264293157
 40
0.637
100
AcDbArc
 50
270.0000000001
 51
89.9999999999
  0
ARC
  5
25E
100
AcDbEntity
  8
GU_BKS_BL0
100
AcDbCircle
 62
2
  6
CONTINUOUS
 10
33.4978811719
 20
13.0604293157
 40
0.592865
100
AcDbArc
 50
285.5050441988
 51
86.8254700827
  0
ARC
  5
25F
100
AcDbEntity
  8
GU_BKS_BL0
100
AcDbCircle
 62
2
  6
CONTINUOUS
 10
32.9928311719
 20
15.4719293154
 40
0.5915
100
AcDbArc
 50
108.1948723388
 51
260.6058710483
  0
ENDBLK
  5
260
100
AcDbEntity
  8
0
  6
BYBLOCK
 62
0
100
AcDbBlockEnd
  0
BLOCK
  5
261
100
AcDbEntity
  8
0
100
AcDbBlockBegin
  2
_FILLED
 70
64
 10
0.0
 20
0.0
  3
_FILLED
  1

  0
SOLID
  5
262
100
AcDbEntity
  8
0
  6
BYBLOCK
 62
0
100
AcDbTrace
 10
0.0
 20
0.0
 11
-1.0
 21
0.1428571429
 12
-1.0
 22
-0.1428571429
 13
-1.0
 23
-0.1428571429
  0
ENDBLK
  5
263
100
AcDbEntity
  8
0
  6
BYBLOCK
 62
0
100
AcDbBlockEnd
  0
BLOCK
  5
264
100
AcDbEntity
  8
0
100
AcDbBlockBegin
 62
2
  6
CONTINUOUS
  2
*D0
 70
65
 10
0.0
 20
0.0
  3
*D0
  1

  0
MTEXT
  5
265
100
AcDbEntity
  8
0
100
AcDbMText
 62
5
  6
CONTINUOUS
  7
TEXTSTYLE_3
 71
2
 72
1
 10
109.534093341
 20
192.888911058
 30
0.0
 11
1.0
 21
0.0
 31
0.0
 44
0.9
  1
62.5
 40
3.0
 41
6.5913978495
  0
LINE
  5
266
100
AcDbEntity
  8
0
100
AcDbLine
 62
2
  6
CONTINUOUS
 10
78.284093341
 20
154.181572271
 11
78.284093341
 21
190.138911058
  0
LINE
  5
267
100
AcDbEntity
  8
0
100
AcDbLine
 62
2
  6
CONTINUOUS
 10
140.784093341
 20
144.181572271
 11
140.784093341
 21
190.138911058
  0
LINE
  5
268
100
AcDbEntity
  8
0
100
AcDbLine
 62
2
  6
CONTINUOUS
 10
78.284093341
 20
189.138911058
 11
109.534093341
 21
189.138911058
  0
LINE
  5
269
100
AcDbEntity
  8
0
100
AcDbLine
 62
2
  6
CONTINUOUS
 10
140.784093341
 20
189.138911058
 11
109.534093341
 21
189.138911058
  0
INSERT
  5
26A
100
AcDbEntity
  8
0
100
AcDbBlockReference
 62
2
  6
CONTINUOUS
  2
_FILLED
 10
78.284093341
 20
189.138911058
 41
3.5
 42
3.5
 43
3.5
 50
180.0
  0
INSERT
  5
26B
100
AcDbEntity
  8
0
100
AcDbBlockReference
 62
2
  6
CONTINUOUS
  2
_FILLED
 10
140.784093341
 20
189.138911058
 41
3.5
 42
3.5
 43
3.5
  0
ENDBLK
  5
26C
100
AcDbEntity
  8
0
  6
BYBLOCK
 62
0
100
AcDbBlockEnd
  0
BLOCK
  5
26D
100
AcDbEntity
  8
0
100
AcDbBlockBegin
 62
2
  6
CONTINUOUS
  2
*D1
 70
65
 10
0.0
 20
0.0
  3
*D1
  1

  0
MTEXT
  5
26E
100
AcDbEntity
  8
0
100
AcDbMText
 62
5
  6
CONTINUOUS
  7
TEXTSTYLE_3
 71
2
 72
1
 10
88.284093341
 20
138.8356181296
 30
0.0
 11
1.0
 21
0.0
 31
0.0
 44
0.9
  1
11.5
 40
3.0
 41
6.5913978495
  0
LINE
  5
26F
100
AcDbEntity
  8
0
100
AcDbLine
 62
2
  6
CONTINUOUS
 10
82.534093341
 20
121.681572271
 11
82.534093341
 21
136.0856181296
  0
LINE
  5
270
100
AcDbEntity
  8
0
100
AcDbLine
 62
2
  6
CONTINUOUS
 10
94.034093341
 20
121.681572271
 11
94.034093341
 21
136.0856181296
  0
LINE
  5
271
100
AcDbEntity
  8
0
100
AcDbLine
 62
2
  6
CONTINUOUS
 10
82.534093341
 20
135.0856181296
 11
88.284093341
 21
135.0856181296
  0
LINE
  5
272
100
AcDbEntity
  8
0
100
AcDbLine
 62
2
  6
CONTINUOUS
 10
94.034093341
 20
135.0856181296
 11
88.284093341
 21
135.0856181296
  0
INSERT
  5
273
100
AcDbEntity
  8
0
100
AcDbBlockReference
 62
2
  6
CONTINUOUS
  2
_FILLED
 10
82.534093341
 20
135.0856181296
 41
3.5
 42
3.5
 43
3.5
 50
180.0
  0
INSERT
  5
274
100
AcDbEntity
  8
0
100
AcDbBlockReference
 62
2
  6
CONTINUOUS
  2
_FILLED
 10
94.034093341
 20
135.0856181296
 41
3.5
 42
3.5
 43
3.5
  0
ENDBLK
  5
275
100
AcDbEntity
  8
0
  6
BYBLOCK
 62
0
100
AcDbBlockEnd
  0
BLOCK
  5
276
100
AcDbEntity
  8
0
100
AcDbBlockBegin
 62
2
  6
CONTINUOUS
  2
*D2
 70
65
 10
0.0
 20
0.0
  3
*D2
  1

  0
MTEXT
  5
277
100
AcDbEntity
  8
0
100
AcDbMText
 62
5
  6
CONTINUOUS
  7
TEXTSTYLE_3
 71
2
 72
1
 10
59.534093341
 20
114.181572271
 30
0.0
 11
0.0
 21
1.0
 31
0.0
 44
0.9
  1
19
 40
3.0
 41
3.7634408602
  0
LINE
  5
278
100
AcDbEntity
  8
0
100
AcDbLine
 62
2
  6
CONTINUOUS
 10
84.534093341
 20
123.681572271
 11
62.284093341
 21
123.681572271
  0
LINE
  5
279
100
AcDbEntity
  8
0
100
AcDbLine
 62
2
  6
CONTINUOUS
 10
84.534093341
 20
104.681572271
 11
62.284093341
 21
104.681572271
  0
LINE
  5
27A
100
AcDbEntity
  8
0
100
AcDbLine
 62
2
  6
CONTINUOUS
 10
63.284093341
 20
123.681572271
 11
63.284093341
 21
114.181572271
  0
LINE
  5
27B
100
AcDbEntity
  8
0
100
AcDbLine
 62
2
  6
CONTINUOUS
 10
63.284093341
 20
104.681572271
 11
63.284093341
 21
114.181572271
  0
INSERT
  5
27C
100
AcDbEntity
  8
0
100
AcDbBlockReference
 62
2
  6
CONTINUOUS
  2
_FILLED
 10
63.284093341
 20
123.681572271
 41
3.5
 42
3.5
 43
3.5
 50
90.0
  0
INSERT
  5
27D
100
AcDbEntity
  8
0
100
AcDbBlockReference
 62
2
  6
CONTINUOUS
  2
_FILLED
 10
63.284093341
 20
104.681572271
 41
3.5
 42
3.5
 43
3.5
 50
270.0
  0
ENDBLK
  5
27E
100
AcDbEntity
  8
0
  6
BYBLOCK
 62
0
100
AcDbBlockEnd
  0
BLOCK
  5
27F
100
AcDbEntity
  8
0
100
AcDbBlockBegin
 62
2
  6
CONTINUOUS
  2
*D3
 70
65
 10
0.0
 20
0.0
  3
*D3
  1

  0
MTEXT
  5
280
100
AcDbEntity
  8
0
100
AcDbMText
 62
5
  6
CONTINUOUS
  7
TEXTSTYLE_3
 71
2
 72
1
 10
152.034093341
 20
114.181572271
 30
0.0
 11
0.0
 21
1.0
 31
0.0
 44
0.9
  1
60
 40
3.0
 41
3.7634408602
  0
LINE
  5
281
100
AcDbEntity
  8
0
100
AcDbLine
 62
2
  6
CONTINUOUS
 10
139.784093341
 20
144.181572271
 11
156.784093341
 21
144.181572271
  0
LINE
  5
282
100
AcDbEntity
  8
0
100
AcDbLine
 62
2
  6
CONTINUOUS
 10
139.784093341
 20
84.181572271
 11
156.784093341
 21
84.181572271
  0
LINE
  5
283
100
AcDbEntity
  8
0
100
AcDbLine
 62
2
  6
CONTINUOUS
 10
155.784093341
 20
144.181572271
 11
155.784093341
 21
114.181572271
  0
LINE
  5
284
100
AcDbEntity
  8
0
100
AcDbLine
 62
2
  6
CONTINUOUS
 10
155.784093341
 20
84.181572271
 11
155.784093341
 21
114.181572271
  0
INSERT
  5
285
100
AcDbEntity
  8
0
100
AcDbBlockReference
 62
2
  6
CONTINUOUS
  2
_FILLED
 10
155.784093341
 20
144.181572271
 41
3.5
 42
3.5
 43
3.5
 50
90.0
  0
INSERT
  5
286
100
AcDbEntity
  8
0
100
AcDbBlockReference
 62
2
  6
CONTINUOUS
  2
_FILLED
 10
155.784093341
 20
84.181572271
 41
3.5
 42
3.5
 43
3.5
 50
270.0
  0
ENDBLK
  5
287
100
AcDbEntity
  8
0
  6
BYBLOCK
 62
0
100
AcDbBlockEnd
  0
BLOCK
  5
288
100
AcDbEntity
  8
0
100
AcDbBlockBegin
 62
2
  6
CONTINUOUS
  2
*D4
 70
65
 10
0.0
 20
0.0
  3
*D4
  1

  0
MTEXT
  5
289
100
AcDbEntity
  8
0
100
AcDbMText
 62
5
  6
CONTINUOUS
  7
TEXTSTYLE_3
 71
3
 72
1
 10
73.4977630274
 20
138.8239120525
 30
0.0
 11
1.0
 21
0.0
 31
0.0
 44
0.9
  1
4.25
 40
3.0
 41
6.5913978495
  0
LINE
  5
28A
100
AcDbEntity
  8
0
100
AcDbLine
 62
2
  6
CONTINUOUS
 10
82.534093341
 20
121.681572271
 11
82.534093341
 21
136.0739120525
  0
LINE
  5
28B
100
AcDbEntity
  8
0
100
AcDbLine
 62
2
  6
CONTINUOUS
 10
82.534093341
 20
135.0739120525
 11
87.534093341
 21
135.0739120525
  0
LINE
  5
28C
100
AcDbEntity
  8
0
100
AcDbLine
 62
2
  6
CONTINUOUS
 10
87.534093341
 20
135.0739120525
 11
80.409093341
 21
135.0739120525
  0
LINE
  5
28D
100
AcDbEntity
  8
0
100
AcDbLine
 62
2
  6
CONTINUOUS
 10
78.284093341
 20
135.0739120525
 11
66.9063651779
 21
135.0739120525
  0
LINE
  5
28E
100
AcDbEntity
  8
0
100
AcDbLine
 62
2
  6
CONTINUOUS
 10
66.9063651779
 20
135.0739120525
 11
80.409093341
 21
135.0739120525
  0
INSERT
  5
28F
100
AcDbEntity
  8
0
100
AcDbBlockReference
 62
2
  6
CONTINUOUS
  2
_FILLED
 10
82.534093341
 20
135.0739120525
 41
3.5
 42
3.5
 43
3.5
 50
180.0
  0
INSERT
  5
290
100
AcDbEntity
  8
0
100
AcDbBlockReference
 62
2
  6
CONTINUOUS
  2
_FILLED
 10
78.284093341
 20
135.0739120525
 41
3.5
 42
3.5
 43
3.5
  0
ENDBLK
  5
291
100
AcDbEntity
  8
0
  6
BYBLOCK
 62
0
100
AcDbBlockEnd
  0
BLOCK
  5
292
100
AcDbEntity
  8
0
100
AcDbBlockBegin
 62
2
  6
CONTINUOUS
  2
*D5
 70
65
 10
0.0
 20
0.0
  3
*D5
  1

  0
MTEXT
  5
293
100
AcDbEntity
  8
0
100
AcDbMText
 62
5
  6
CONTINUOUS
  7
TEXTSTYLE_3
 71
1
 72
1
 10
99.6103956824
 20
104.6506581991
 30
0.0
 11
0.7245757394
 21
-0.6891951812
 31
0.0
 44
0.9
  1
R2
 40
3.0
 41
3.935483871
  0
LINE
  5
294
100
AcDbEntity
  8
0
100
AcDbLine
 62
2
  6
CONTINUOUS
 10
93.4832448198
 20
105.3031819085
 11
99.8774698885
 21
99.2211826565
  0
INSERT
  5
295
100
AcDbEntity
  8
0
100
AcDbBlockReference
 62
2
  6
CONTINUOUS
  2
_FILLED
 10
93.4832448198
 20
105.3031819085
 41
3.5
 42
3.5
 43
3.5
 50
136.4335657898
  0
ENDBLK
  5
296
100
AcDbEntity
  8
0
  6
BYBLOCK
 62
0
100
AcDbBlockEnd
  0
BLOCK
  5
297
100
AcDbEntity
  8
0
100
AcDbBlockBegin
 62
2
  6
CONTINUOUS
  2
*D6
 70
65
 10
0.0
 20
0.0
  3
*D6
  1

  0
MTEXT
  5
298
100
AcDbEntity
  8
0
100
AcDbMText
 62
5
  6
CONTINUOUS
  7
TEXTSTYLE_3
 71
2
 72
1
 10
195.8900335537
 20
182.888911058
 30
0.0
 11
1.0
 21
0.0
 31
0.0
 44
0.9
  1
3
 40
3.0
 41
1.8817204301
  0
LINE
  5
299
100
AcDbEntity
  8
0
100
AcDbLine
 62
2
  6
CONTINUOUS
 10
194.3900335537
 20
164.181572271
 11
194.3900335537
 21
180.138911058
  0
LINE
  5
29A
100
AcDbEntity
  8
0
100
AcDbLine
 62
2
  6
CONTINUOUS
 10
197.3900335537
 20
164.181572271
 11
197.3900335537
 21
180.138911058
  0
LINE
  5
29B
100
AcDbEntity
  8
0
100
AcDbLine
 62
2
  6
CONTINUOUS
 10
194.3900335537
 20
179.138911058
 11
189.3900335537
 21
179.138911058
  0
LINE
  5
29C
100
AcDbEntity
  8
0
100
AcDbLine
 62
2
  6
CONTINUOUS
 10
189.3900335537
 20
179.138911058
 11
195.8900335537
 21
179.138911058
  0
LINE
  5
29D
100
AcDbEntity
  8
0
100
AcDbLine
 62
2
  6
CONTINUOUS
 10
197.3900335537
 20
179.138911058
 11
202.3900335537
 21
179.138911058
  0
LINE
  5
29E
100
AcDbEntity
  8
0
100
AcDbLine
 62
2
  6
CONTINUOUS
 10
202.3900335537
 20
179.138911058
 11
195.8900335537
 21
179.138911058
  0
INSERT
  5
29F
100
AcDbEntity
  8
0
100
AcDbBlockReference
 62
2
  6
CONTINUOUS
  2
_FILLED
 10
194.3900335537
 20
179.138911058
 41
3.5
 42
3.5
 43
3.5
  0
INSERT
  5
2A0
100
AcDbEntity
  8
0
100
AcDbBlockReference
 62
2
  6
CONTINUOUS
  2
_FILLED
 10
197.3900335537
 20
179.138911058
 41
3.5
 42
3.5
 43
3.5
 50
180.0
  0
ENDBLK
  5
2A1
100
AcDbEntity
  8
0
  6
BYBLOCK
 62
0
100
AcDbBlockEnd
  0
BLOCK
  5
2A2
100
AcDbEntity
  8
0
100
AcDbBlockBegin
 62
2
  6
CONTINUOUS
  2
*D7
 70
65
 10
0.0
 20
0.0
  3
*D7
  1

  0
MTEXT
  5
2A3
100
AcDbEntity
  8
0
100
AcDbMText
 62
5
  6
CONTINUOUS
  7
TEXTSTYLE_3
 71
2
 72
1
 10
208.6400335537
 20
114.181572271
 30
0.0
 11
0.0
 21
1.0
 31
0.0
 44
0.9
  1
80
 40
3.0
 41
3.7634408602
  0
LINE
  5
2A4
100
AcDbEntity
  8
0
100
AcDbLine
 62
2
  6
CONTINUOUS
 10
202.3900335537
 20
154.181572271
 11
213.3900335537
 21
154.181572271
  0
LINE
  5
2A5
100
AcDbEntity
  8
0
100
AcDbLine
 62
2
  6
CONTINUOUS
 10
202.3900335537
 20
74.181572271
 11
213.3900335537
 21
74.181572271
  0
LINE
  5
2A6
100
AcDbEntity
  8
0
100
AcDbLine
 62
2
  6
CONTINUOUS
 10
212.3900335537
 20
154.181572271
 11
212.3900335537
 21
114.181572271
  0
LINE
  5
2A7
100
AcDbEntity
  8
0
100
AcDbLine
 62
2
  6
CONTINUOUS
 10
212.3900335537
 20
74.181572271
 11
212.3900335537
 21
114.181572271
  0
INSERT
  5
2A8
100
AcDbEntity
  8
0
100
AcDbBlockReference
 62
2
  6
CONTINUOUS
  2
_FILLED
 10
212.3900335537
 20
154.181572271
 41
3.5
 42
3.5
 43
3.5
 50
90.0
  0
INSERT
  5
2A9
100
AcDbEntity
  8
0
100
AcDbBlockReference
 62
2
  6
CONTINUOUS
  2
_FILLED
 10
212.3900335537
 20
74.181572271
 41
3.5
 42
3.5
 43
3.5
 50
270.0
  0
ENDBLK
  5
2AA
100
AcDbEntity
  8
0
  6
BYBLOCK
 62
0
100
AcDbBlockEnd
  0
BLOCK
  5
2AB
100
AcDbEntity
  8
0
100
AcDbBlockBegin
 62
2
  6
CONTINUOUS
  2
*D8
 70
65
 10
0.0
 20
0.0
  3
*D8
  1

  0
MTEXT
  5
2AC
100
AcDbEntity
  8
0
100
AcDbMText
 62
5
  6
CONTINUOUS
  7
TEXTSTYLE_3
 71
2
 72
1
 10
208.6400335537
 20
69.181572271
 30
0.0
 11
0.0
 21
1.0
 31
0.0
 44
0.9
  1
10
 40
3.0
 41
3.7634408602
  0
LINE
  5
2AD
100
AcDbEntity
  8
0
100
AcDbLine
 62
2
  6
CONTINUOUS
 10
197.3900335537
 20
64.181572271
 11
213.3900335537
 21
64.181572271
  0
LINE
  5
2AE
100
AcDbEntity
  8
0
100
AcDbLine
 62
2
  6
CONTINUOUS
 10
202.3900335537
 20
74.181572271
 11
213.3900335537
 21
74.181572271
  0
LINE
  5
2AF
100
AcDbEntity
  8
0
100
AcDbLine
 62
2
  6
CONTINUOUS
 10
212.3900335537
 20
64.181572271
 11
212.3900335537
 21
69.181572271
  0
LINE
  5
2B0
100
AcDbEntity
  8
0
100
AcDbLine
 62
2
  6
CONTINUOUS
 10
212.3900335537
 20
74.181572271
 11
212.3900335537
 21
69.181572271
  0
INSERT
  5
2B1
100
AcDbEntity
  8
0
100
AcDbBlockReference
 62
2
  6
CONTINUOUS
  2
_FILLED
 10
212.3900335537
 20
64.181572271
 41
3.5
 42
3.5
 43
3.5
 50
270.0
  0
INSERT
  5
2B2
100
AcDbEntity
  8
0
100
AcDbBlockReference
 62
2
  6
CONTINUOUS
  2
_FILLED
 10
212.3900335537
 20
74.181572271
 41
3.5
 42
3.5
 43
3.5
 50
90.0
  0
ENDBLK
  5
2B3
100
AcDbEntity
  8
0
  6
BYBLOCK
 62
0
100
AcDbBlockEnd
  0
BLOCK
  5
2B4
100
AcDbEntity
  8
0
100
AcDbBlockBegin
 62
2
  6
CONTINUOUS
  2
*D9
 70
65
 10
0.0
 20
0.0
  3
*D9
  1

  0
MTEXT
  5
2B5
100
AcDbEntity
  8
0
100
AcDbMText
 62
5
  6
CONTINUOUS
  7
TEXTSTYLE_3
 71
2
 72
1
 10
88.284093341
 20
182.888911058
 30
0.0
 11
1.0
 21
0.0
 31
0.0
 44
0.9
  1
20
 40
3.0
 41
3.7634408602
  0
LINE
  5
2B6
100
AcDbEntity
  8
0
100
AcDbLine
 62
2
  6
CONTINUOUS
 10
98.284093341
 20
154.181572271
 11
98.284093341
 21
180.138911058
  0
LINE
  5
2B7
100
AcDbEntity
  8
0
100
AcDbLine
 62
2
  6
CONTINUOUS
 10
78.284093341
 20
154.181572271
 11
78.284093341
 21
180.138911058
  0
LINE
  5
2B8
100
AcDbEntity
  8
0
100
AcDbLine
 62
2
  6
CONTINUOUS
 10
98.284093341
 20
179.138911058
 11
88.284093341
 21
179.138911058
  0
LINE
  5
2B9
100
AcDbEntity
  8
0
100
AcDbLine
 62
2
  6
CONTINUOUS
 10
78.284093341
 20
179.138911058
 11
88.284093341
 21
179.138911058
  0
INSERT
  5
2BA
100
AcDbEntity
  8
0
100
AcDbBlockReference
 62
2
  6
CONTINUOUS
  2
_FILLED
 10
98.284093341
 20
179.138911058
 41
3.5
 42
3.5
 43
3.5
  0
INSERT
  5
2BB
100
AcDbEntity
  8
0
100
AcDbBlockReference
 62
2
  6
CONTINUOUS
  2
_FILLED
 10
78.284093341
 20
179.138911058
 41
3.5
 42
3.5
 43
3.5
 50
180.0
  0
ENDBLK
  5
2BC
100
AcDbEntity
  8
0
  6
BYBLOCK
 62
0
100
AcDbBlockEnd
  0
BLOCK
  5
2BD
100
AcDbEntity
  8
0
100
AcDbBlockBegin
 62
2
  6
CONTINUOUS
  2
*D10
 70
65
 10
0.0
 20
0.0
  3
*D10
  1

  0
MTEXT
  5
2BE
100
AcDbEntity
  8
0
100
AcDbMText
 62
5
  6
CONTINUOUS
  7
TEXTSTYLE_3
 71
2
 72
1
 10
49.534093341
 20
114.181572271
 30
0.0
 11
0.0
 21
1.0
 31
0.0
 44
0.9
  1
100
 40
3.0
 41
5.6451612903
  0
LINE
  5
2BF
100
AcDbEntity
  8
0
100
AcDbLine
 62
2
  6
CONTINUOUS
 10
88.284093341
 20
164.181572271
 11
52.284093341
 21
164.181572271
  0
LINE
  5
2C0
100
AcDbEntity
  8
0
100
AcDbLine
 62
2
  6
CONTINUOUS
 10
88.284093341
 20
64.181572271
 11
52.284093341
 21
64.181572271
  0
LINE
  5
2C1
100
AcDbEntity
  8
0
100
AcDbLine
 62
2
  6
CONTINUOUS
 10
53.284093341
 20
164.181572271
 11
53.284093341
 21
114.181572271
  0
LINE
  5
2C2
100
AcDbEntity
  8
0
100
AcDbLine
 62
2
  6
CONTINUOUS
 10
53.284093341
 20
64.181572271
 11
53.284093341
 21
114.181572271
  0
INSERT
  5
2C3
100
AcDbEntity
  8
0
100
AcDbBlockReference
 62
2
  6
CONTINUOUS
  2
_FILLED
 10
53.284093341
 20
164.181572271
 41
3.5
 42
3.5
 43
3.5
 50
90.0
  0
INSERT
  5
2C4
100
AcDbEntity
  8
0
100
AcDbBlockReference
 62
2
  6
CONTINUOUS
  2
_FILLED
 10
53.284093341
 20
64.181572271
 41
3.5
 42
3.5
 43
3.5
 50
270.0
  0
ENDBLK
  5
2C5
100
AcDbEntity
  8
0
  6
BYBLOCK
 62
0
100
AcDbBlockEnd
  0
ENDSEC
  0
SECTION
  2
ENTITIES
  0
MTEXT
  5
2C6
100
AcDbEntity
  8
0
100
AcDbMText
 62
5
  6
CONTINUOUS
  7
TEXTSTYLE_2
 71
1
 72
1
 10
22.5378095536
 20
38.1033997966
 30
0.0
 11
0.0
 21
1.0
 31
0.0
 44
0.9
  1
Proprietary rights apply in accordance with ISO 16016.
 40
2.5
 41
65.4928315412
  0
MTEXT
  5
2C7
100
AcDbEntity
  8
0
100
AcDbMText
 62
5
  6
CONTINUOUS
  7
TEXTSTYLE_3
 71
1
 72
1
 10
204.1666961264
 20
29.5237424673
 30
0.0
 11
1.0
 21
0.0
 31
0.0
 44
0.9
  1
B_9000_0490_BD01\P 
 40
4.0
 41
41.6200716846
  0
DIMENSION
  5
2C8
100
AcDbEntity
  8
0
100
AcDbDimension
 62
2
  6
CONTINUOUS
  2
*D0
 10
140.784093341
 20
189.138911058
 11
109.534093341
 21
189.138911058
 70
160
 71
2
 42
62.5
  3
DIMSTYLE_1
100
AcDbAlignedDimension
 13
78.284093341
 23
154.181572271
 14
140.784093341
 24
144.181572271
100
AcDbRotatedDimension
  0
DIMENSION
  5
2C9
100
AcDbEntity
  8
0
100
AcDbDimension
 62
2
  6
CONTINUOUS
  2
*D1
 10
94.034093341
 20
135.0856181296
 11
88.284093341
 21
135.0856181296
 70
160
 71
2
 42
11.5
  3
DIMSTYLE_2
100
AcDbAlignedDimension
 13
82.534093341
 23
121.681572271
 14
94.034093341
 24
121.681572271
100
AcDbRotatedDimension
  0
DIMENSION
  5
2CA
100
AcDbEntity
  8
0
100
AcDbDimension
 62
2
  6
CONTINUOUS
  2
*D2
 10
63.284093341
 20
104.681572271
 11
63.284093341
 21
114.181572271
 70
160
 71
2
 42
19.0
  3
DIMSTYLE_2
100
AcDbAlignedDimension
 13
84.534093341
 23
123.681572271
 14
84.534093341
 24
104.681572271
 50
270.0
100
AcDbRotatedDimension
  0
DIMENSION
  5
2CB
100
AcDbEntity
  8
0
100
AcDbDimension
 62
2
  6
CONTINUOUS
  2
*D3
 10
155.784093341
 20
84.181572271
 11
155.784093341
 21
114.181572271
 70
160
 71
2
 42
60.0
  3
DIMSTYLE_1
100
AcDbAlignedDimension
 13
139.784093341
 23
144.181572271
 14
139.784093341
 24
84.181572271
 50
270.0
100
AcDbRotatedDimension
  0
DIMENSION
  5
2CC
100
AcDbEntity
  8
0
100
AcDbDimension
 62
2
  6
CONTINUOUS
  2
*D4
 10
78.284093341
 20
135.0739120525
 11
70.2020641026
 21
135.0739120525
 70
160
 71
3
 42
4.25
  3
DIMSTYLE_3
100
AcDbAlignedDimension
 13
82.534093341
 23
121.681572271
 14
78.284093341
 24
154.181572271
 50
180.0
100
AcDbRotatedDimension
  0
DIMENSION
  5
2CD
100
AcDbEntity
  8
0
100
AcDbDimension
 62
2
  6
CONTINUOUS
  2
*D5
 10
92.034093341
 20
106.681572271
 11
100.0023809784
 21
102.2076363301
 70
164
 71
1
 42
2.0
  1
<>
  3
DIMSTYLE_4
100
AcDbRadialDimension
 15
93.4832448198
 25
105.3031819085
  0
DIMENSION
  5
2CE
100
AcDbEntity
  8
0
100
AcDbDimension
 62
2
  6
CONTINUOUS
  2
*D6
 10
197.3900335537
 20
179.138911058
 11
195.8900335537
 21
179.138911058
 70
160
 71
2
 42
3.0
  3
DIMSTYLE_3
100
AcDbAlignedDimension
 13
194.3900335537
 23
164.181572271
 14
197.3900335537
 24
164.181572271
100
AcDbRotatedDimension
  0
DIMENSION
  5
2CF
100
AcDbEntity
  8
0
100
AcDbDimension
 62
2
  6
CONTINUOUS
  2
*D7
 10
212.3900335537
 20
74.181572271
 11
212.3900335537
 21
114.181572271
 70
160
 71
2
 42
80.0
  3
DIMSTYLE_1
100
AcDbAlignedDimension
 13
202.3900335537
 23
154.181572271
 14
202.3900335537
 24
74.181572271
 50
270.0
100
AcDbRotatedDimension
  0
DIMENSION
  5
2D0
100
AcDbEntity
  8
0
100
AcDbDimension
 62
2
  6
CONTINUOUS
  2
*D8
 10
212.3900335537
 20
74.181572271
 11
212.3900335537
 21
69.181572271
 70
160
 71
2
 42
10.0
  3
DIMSTYLE_2
100
AcDbAlignedDimension
 13
197.3900335537
 23
64.181572271
 14
202.3900335537
 24
74.181572271
 50
90.0
100
AcDbRotatedDimension
  0
DIMENSION
  5
2D1
100
AcDbEntity
  8
0
100
AcDbDimension
 62
2
  6
CONTINUOUS
  2
*D9
 10
78.284093341
 20
179.138911058
 11
88.284093341
 21
179.138911058
 70
160
 71
2
 42
20.0
  3
DIMSTYLE_2
100
AcDbAlignedDimension
 13
98.284093341
 23
154.181572271
 14
78.284093341
 24
154.181572271
 50
180.0
100
AcDbRotatedDimension
  0
DIMENSION
  5
2D2
100
AcDbEntity
  8
0
100
AcDbDimension
 62
2
  6
CONTINUOUS
  2
*D10
 10
53.284093341
 20
64.181572271
 11
53.284093341
 21
114.181572271
 70
160
 71
2
 42
100.0
  3
DIMSTYLE_1
100
AcDbAlignedDimension
 13
88.284093341
 23
164.181572271
 14
88.284093341
 24
64.181572271
 50
270.0
100
AcDbRotatedDimension
  0
LEADER
  5
2D3
100
AcDbEntity
  8
0
100
AcDbLeader
 62
2
  6
CONTINUOUS
  3
STANDARD
 71
1
 72
0
 73
0
 75
0
 40
2.5
 41
13.3243727599
 76
3
 10
140.8650304243
 20
144.7579798661
 30
0.0
 10
155.784093341
 20
161.934192766
 30
0.0
 10
160.784093341
 20
161.934192766
 30
0.0
340
2D4
1001
ACAD
1000
DSTYLE
1002
{
1070
77
1070
0
1002
}
  0
MTEXT
  5
2D4
102
{ACAD_REACTORS
330
2D3
102
}
100
AcDbEntity
  8
0
100
AcDbMText
 62
5
  6
CONTINUOUS
  7
TEXTSTYLE_3
 71
1
 72
1
 10
160.784093341
 20
163.184192766
 30
0.0
 11
1.0
 21
0.0
 31
0.0
 44
0.9
  1
Fase 1x45°
 40
2.5
 41
13.3243727599
  0
LINE
  5
2D5
100
AcDbEntity
  8
0
100
AcDbLine
 62
7
  6
CONTINUOUS
 10
-0.0
 20
0.0
 11
-0.0
 21
210.0
  0
LINE
  5
2D6
100
AcDbEntity
  8
0
100
AcDbLine
 62
2
  6
CONTINUOUS
 10
10.6283221179
 20
5.116716
 11
10.6283221179
 21
204.88327
  0
LINE
  5
2D7
100
AcDbEntity
  8
0
100
AcDbLine
 62
7
  6
CONTINUOUS
 10
-0.0
 20
0.0
 11
297.0
 21
0.0
  0
LINE
  5
2D8
100
AcDbEntity
  8
0
100
AcDbLine
 62
2
  6
CONTINUOUS
 10
292.3949891179
 20
5.116716
 11
10.6283221179
 21
5.116716
  0
LINE
  5
2D9
100
AcDbEntity
  8
0
100
AcDbLine
 62
2
  6
CONTINUOUS
 10
10.6283221179
 20
204.88327
 11
293.0954741379
 21
204.88327
  0
LINE
  5
2DA
100
AcDbEntity
  8
0
100
AcDbLine
 62
7
  6
CONTINUOUS
 10
-0.0
 20
210.0
 11
297.0
 21
210.0
  0
LINE
  5
2DB
100
AcDbEntity
  8
0
100
AcDbLine
 62
2
  6
CONTINUOUS
 10
292.3949891179
 20
204.88327
 11
292.3949891179
 21
5.116716
  0
LINE
  5
2DC
100
AcDbEntity
  8
0
100
AcDbLine
 62
7
  6
CONTINUOUS
 10
297.0
 20
0.0
 11
297.0
 21
210.0
  0
LINE
  5
2DD
100
AcDbEntity
  8
ACHSEN
100
AcDbLine
 62
7
  6
CENTER
 10
88.284093341
 20
74.181572271
 11
80.534093341
 21
74.181572271
  0
LINE
  5
2DE
100
AcDbEntity
  8
ACHSEN
100
AcDbLine
 62
7
  6
CENTER
 10
88.284093341
 20
74.181572271
 11
96.034093341
 21
74.181572271
  0
LINE
  5
2DF
100
AcDbEntity
  8
0
100
AcDbLine
 62
7
  6
CONTINUOUS
 10
78.284093341
 20
154.181572271
 11
78.284093341
 21
74.181572271
  0
LINE
  5
2E0
100
AcDbEntity
  8
0
100
AcDbLine
 62
7
  6
CONTINUOUS
 10
82.534093341
 20
121.681572271
 11
82.534093341
 21
106.681572271
  0
LINE
  5
2E1
100
AcDbEntity
  8
0
100
AcDbLine
 62
7
  6
CONTINUOUS
 10
98.284093341
 20
84.181572271
 11
140.784093341
 21
84.181572271
  0
LINE
  5
2E2
100
AcDbEntity
  8
ACHSEN
100
AcDbLine
 62
7
  6
CENTER
 10
88.284093341
 20
154.181572271
 11
88.284093341
 21
146.5461246936
  0
LINE
  5
2E3
100
AcDbEntity
  8
S-ACHSEN
100
AcDbLine
 62
7
  6
CENTER
 10
88.284093341
 20
114.181572271
 11
88.284093341
 21
101.9721214609
  0
LINE
  5
2E4
100
AcDbEntity
  8
ACHSEN
100
AcDbLine
 62
7
  6
CENTER
 10
88.284093341
 20
74.181572271
 11
88.284093341
 21
61.5170729695
  0
LINE
  5
2E5
100
AcDbEntity
  8
ACHSEN
100
AcDbLine
 62
7
  6
CENTER
 10
88.284093341
 20
74.181572271
 11
88.284093341
 21
81.931572271
  0
LINE
  5
2E6
100
AcDbEntity
  8
S-ACHSEN
100
AcDbLine
 62
7
  6
CENTER
 10
88.284093341
 20
114.181572271
 11
88.284093341
 21
125.9222014609
  0
LINE
  5
2E7
100
AcDbEntity
  8
ACHSEN
100
AcDbLine
 62
7
  6
CENTER
 10
88.284093341
 20
154.181572271
 11
88.284093341
 21
166.8240557281
  0
LINE
  5
2E8
100
AcDbEntity
  8
0
100
AcDbLine
 62
7
  6
CONTINUOUS
 10
94.034093341
 20
106.681572271
 11
94.034093341
 21
121.681572271
  0
LINE
  5
2E9
100
AcDbEntity
  8
0
100
AcDbLine
 62
7
  6
CONTINUOUS
 10
98.284093341
 20
74.181572271
 11
98.284093341
 21
84.181572271
  0
LINE
  5
2EA
100
AcDbEntity
  8
0
100
AcDbLine
 62
7
  6
CONTINUOUS
 10
98.284093341
 20
144.181572271
 11
98.284093341
 21
154.181572271
  0
LINE
  5
2EB
100
AcDbEntity
  8
0
100
AcDbLine
 62
7
  6
CONTINUOUS
 10
84.534093341
 20
104.681572271
 11
92.034093341
 21
104.681572271
  0
LINE
  5
2EC
100
AcDbEntity
  8
S-ACHSEN
100
AcDbLine
 62
7
  6
CENTER
 10
73.284093341
 20
114.181572271
 11
145.784093341
 21
114.181572271
  0
LINE
  5
2ED
100
AcDbEntity
  8
0
100
AcDbLine
 62
7
  6
CONTINUOUS
 10
92.034093341
 20
123.681572271
 11
84.534093341
 21
123.681572271
  0
LINE
  5
2EE
100
AcDbEntity
  8
0
100
AcDbLine
 62
7
  6
CONTINUOUS
 10
139.784093341
 20
84.181572271
 11
139.784093341
 21
144.181572271
  0
LINE
  5
2EF
100
AcDbEntity
  8
0
100
AcDbLine
 62
7
  6
CONTINUOUS
 10
140.784093341
 20
84.181572271
 11
140.784093341
 21
144.181572271
  0
LINE
  5
2F0
100
AcDbEntity
  8
0
100
AcDbLine
 62
7
  6
CONTINUOUS
 10
98.284093341
 20
144.181572271
 11
140.784093341
 21
144.181572271
  0
LINE
  5
2F1
100
AcDbEntity
  8
ACHSEN
100
AcDbLine
 62
7
  6
CENTER
 10
88.284093341
 20
154.181572271
 11
80.534093341
 21
154.181572271
  0
LINE
  5
2F2
100
AcDbEntity
  8
ACHSEN
100
AcDbLine
 62
7
  6
CENTER
 10
88.284093341
 20
154.181572271
 11
96.034093341
 21
154.181572271
  0
LINE
  5
2F3
100
AcDbEntity
  8
0
100
AcDbLine
 62
7
  6
CONTINUOUS
 10
194.3900335537
 20
64.181572271
 11
197.3900335537
 21
64.181572271
  0
LINE
  5
2F4
100
AcDbEntity
  8
ACHSEN
100
AcDbLine
 62
7
  6
CENTER
 10
202.3900335537
 20
74.181572271
 11
189.8400335537
 21
74.181572271
  0
LINE
  5
2F5
100
AcDbEntity
  8
0
100
AcDbLine
 62
9
  6
CONTINUOUS
 10
194.3900335537
 20
74.181572271
 11
197.3900335537
 21
74.181572271
  0
LINE
  5
2F6
100
AcDbEntity
  8
0
100
AcDbLine
 62
7
  6
CONTINUOUS
 10
194.3900335537
 20
164.1812995695
 11
194.3900335537
 21
64.1818449726
  0
LINE
  5
2F7
100
AcDbEntity
  8
0
100
AcDbLine
 62
7
  6
CONTINUOUS
 10
197.3900335537
 20
64.1818449726
 11
197.3900335537
 21
164.1812995695
  0
LINE
  5
2F8
100
AcDbEntity
  8
ACHSEN
100
AcDbLine
 62
7
  6
CENTER
 10
202.3900335537
 20
154.181572271
 11
189.8400335537
 21
154.181572271
  0
LINE
  5
2F9
100
AcDbEntity
  8
0
100
AcDbLine
 62
9
  6
CONTINUOUS
 10
194.3900335537
 20
154.181572271
 11
197.3900335537
 21
154.181572271
  0
LINE
  5
2FA
100
AcDbEntity
  8
0
100
AcDbLine
 62
7
  6
CONTINUOUS
 10
194.3900335537
 20
164.181572271
 11
197.3900335537
 21
164.181572271
  0
ARC
  5
2FB
100
AcDbEntity
  8
0
100
AcDbCircle
 62
7
  6
CONTINUOUS
 10
88.284093341
 20
74.181572271
 40
10.0
100
AcDbArc
 50
180.0
 51
360.0
  0
ARC
  5
2FC
100
AcDbEntity
  8
0
100
AcDbCircle
 62
7
  6
CONTINUOUS
 10
88.284093341
 20
154.181572271
 40
10.0
100
AcDbArc
 50
0.0
 51
180.0
  0
CIRCLE
  5
2FD
100
AcDbEntity
  8
ACHSEN
100
AcDbCircle
 62
7
  6
CONTINUOUS
 10
88.284093341
 20
74.181572271
 40
5.0
  0
CIRCLE
  5
2FE
100
AcDbEntity
  8
ACHSEN
100
AcDbCircle
 62
7
  6
CONTINUOUS
 10
88.284093341
 20
154.181572271
 40
5.0
  0
CIRCLE
  5
2FF
100
AcDbEntity
  8
ACHSEN
100
AcDbCircle
 62
7
  6
CONTINUOUS
 10
88.284093341
 20
74.181572271
 40
2.75
  0
CIRCLE
  5
300
100
AcDbEntity
  8
ACHSEN
100
AcDbCircle
 62
7
  6
CONTINUOUS
 10
88.284093341
 20
154.181572271
 40
2.75
  0
ARC
  5
301
100
AcDbEntity
  8
0
100
AcDbCircle
 62
7
  6
CONTINUOUS
 10
84.534093341
 20
121.681572271
 40
2.0
100
AcDbArc
 50
90.0
 51
180.0
  0
ARC
  5
302
100
AcDbEntity
  8
0
100
AcDbCircle
 62
7
  6
CONTINUOUS
 10
92.034093341
 20
121.681572271
 40
2.0
100
AcDbArc
 50
0.0
 51
90.0
  0
ARC
  5
303
100
AcDbEntity
  8
0
100
AcDbCircle
 62
7
  6
CONTINUOUS
 10
84.534093341
 20
106.681572271
 40
2.0
100
AcDbArc
 50
180.0
 51
270.0
  0
ARC
  5
304
100
AcDbEntity
  8
0
100
AcDbCircle
 62
7
  6
CONTINUOUS
 10
92.034093341
 20
106.681572271
 40
2.0
100
AcDbArc
 50
270.0
 51
360.0
  0
INSERT
  5
305
100
AcDbEntity
  8
GU_BKS_BL0
100
AcDbBlockReference
  2
GU_BKS_BL0
 10
23.3804463594
 20
15.4907484771
  0
ENDSEC
  0
SECTION
  2
OBJECTS
  0
DICTIONARY
  5
C
100
AcDbDictionary
280
0
281
1
  3
ACAD_GROUP
350
D
  3
ACAD_MLINESTYLE
350
17
  3
ACAD_LAYOUT
350
1A
  3
ACAD_PLOTSETTINGS
350
19
  3
ACAD_PLOTSTYLENAME
350
E
  0
DICTIONARY
  5
D
102
{ACAD_REACTORS
330
C
102
}
100
AcDbDictionary
280
0
281
1
  0
ACDBDICTIONARYWDFLT
  5
E
102
{ACAD_REACTORS
330
C
102
}
100
AcDbDictionary
281
1
  3
Normal
350
F
100
AcDbDictionaryWithDefault
340
F
  0
DICTIONARY
  5
17
102
{ACAD_REACTORS
330
C
102
}
100
AcDbDictionary
280
0
281
1
  3
Standard
350
18
  0
DICTIONARY
  5
19
102
{ACAD_REACTORS
330
C
102
}
100
AcDbDictionary
281
1
  0
DICTIONARY
  5
1A
102
{ACAD_REACTORS
330
C
102
}
100
AcDbDictionary
281
1
  3
Model
350
306
  3
Layout1
350
307
  0
ACDBPLACEHOLDER
  5
F
102
{ACAD_REACTORS
330
E
102
}
  0
MLINESTYLE
  5
18
102
{ACAD_REACTORS
330
17
102
}
100
AcDbMlineStyle
  2
STANDARD
 70
0
  3

 62
256
 51
90.0
 52
90.0
 71
2
 49
0.5
 62
256
  6
BYLAYER
 49
-0.5
 62
256
  6
BYLAYER
  0
LAYOUT
  5
306
102
{ACAD_REACTORS
330
1A
102
}
100
AcDbPlotSettings
  1

  2
none_device
  4
ISO_A4_(297.00_x_210.00_MM)
  6

 40
0.0
 41
0.0
 42
0.0
 43
0.0
 44
297.0
 45
210.0
 46
0.0
 47
0.0
 48
0.0
 49
0.0
140
0.0
141
0.0
142
1.0
143
1.0
 70
1024
 72
1
 73
0
 74
0
  7

 75
0
147
1.0
148
0.0
149
0.0
100
AcDbLayout
  1
Model
 70
0
 71
0
 10
0.0
 20
0.0
 11
297.0
 21
210.0
 12
0.0
 22
0.0
 32
0.0
 14
0.0
 24
0.0
 34
0.0
 15
0.0
 25
0.0
 35
0.0
146
0.0
 13
0.0
 23
0.0
 33
0.0
 16
1.0
 26
0.0
 36
0.0
 17
0.0
 27
1.0
 37
0.0
 76
0
330
208
345
0
346
0
  0
LAYOUT
  5
307
102
{ACAD_REACTORS
330
1A
102
}
100
AcDbPlotSettings
  1

  2
none_device
  4
ISO_A4_(297.00_x_210.00_MM)
  6

 40
0.0
 41
0.0
 42
0.0
 43
0.0
 44
297.0
 45
210.0
 46
0.0
 47
0.0
 48
0.0
 49
0.0
140
0.0
141
0.0
142
1.0
143
1.0
 70
0
 72
1
 73
0
 74
0
  7

 75
0
147
1.0
148
0.0
149
0.0
100
AcDbLayout
  1
Layout1
 70
0
 71
1
 10
0.0
 20
0.0
 11
297.0
 21
210.0
 12
0.0
 22
0.0
 32
0.0
 14
0.0
 24
0.0
 34
0.0
 15
0.0
 25
0.0
 35
0.0
146
0.0
 13
0.0
 23
0.0
 33
0.0
 16
1.0
 26
0.0
 36
0.0
 17
0.0
 27
1.0
 37
0.0
 76
0
330
209
345
0
346
0
  0
ENDSEC
  0
EOF
