999
DXF file: Z:\Entwicklung\5_Service\1_Maßblätter\4_Schloss\b_15950173.dxf
999
Pro/ENGINEER 2014320 by Parametric Technology Corporation
  0
SECTION
  2
HEADER
  9
$ACADVER
  1
AC1021
  9
$DWGCODEPAGE
  3
ANSI_1252
  9
$EXTMAX
 10
420.0
 20
297.0
 30
0.0
  9
$EXTMIN
 10
0.0
 20
0.0
 30
0.0
  9
$LIMMIN
 10
0.0
 20
0.0
  9
$LIMMAX
 10
420.0
 20
297.0
  9
$VIEWCTR
 10
210.0
 20
148.5
  9
$VIEWSIZE
 40
297.0
  9
$CLAYER
  8
0
  9
$LTSCALE
 40
23.1
  9
$CELTYPE
  6
BYLAYER
  9
$DIMSCALE
 40
1.0
  9
$DIMASZ
 40
3.5
  9
$DIMEXO
 40
0.0
  9
$DIMDLI
 40
15.96
  9
$DIMEXE
 40
1.0
  9
$DIMCEN
 40
3.78
  9
$DIMLFAC
 40
1.0
  9
$DIMBLK
  1
_FILLED
  9
$DIMTXT
 40
2.5
  9
$DIMTOL
 70
1
  9
$DIMLIM
 70
0
  9
$DIMTFAC
 40
1.0
  9
$DIMTP
 40
0.001
  9
$DIMTM
 40
0.001
  9
$DIMGAP
 40
0.625
  9
$DIMDSEP
 70
46
  9
$PDMODE
 70
3
  9
$PDSIZE
 40
2.0
  9
$HANDSEED
  5
480
  9
$TILEMODE
 70
1
  9
$MEASUREMENT
 70
1
  9
$INSUNITS
 70
4
  0
ENDSEC
  0
SECTION
  2
CLASSES
  0
CLASS
  1
ACDBDICTIONARYWDFLT
  2
AcDbDictionaryWithDefault
  3
AutoCAD 2000
 90
0
 91
1
280
0
281
0
  0
CLASS
  1
ACDBPLACEHOLDER
  2
AcDbPlaceHolder
  3
AutoCAD 2000
 90
0
 91
1
280
0
281
0
  0
CLASS
  1
LAYOUT
  2
AcDbLayout
  3
AutoCAD 2000
 90
0
 91
0
280
0
281
0
  0
ENDSEC
  0
SECTION
  2
TABLES
  0
TABLE
  2
VPORT
  5
8
100
AcDbSymbolTable
 70
2
  0
VPORT
  5
1F4
100
AcDbSymbolTableRecord
100
AcDbViewportTableRecord
  2
*ACTIVE
 70
0
 10
0.0
 20
0.0
 11
1.0
 21
1.0
 12
210.0
 22
148.5
 13
0.0
 23
0.0
 14
1.0
 24
1.0
 15
0.0
 25
0.0
 16
0.0
 26
0.0
 36
1.0
 17
0.0
 27
0.0
 37
0.0
 40
297.0
 41
1.4141414141
 42
50.0
 43
0.0
 44
0.0
 50
0.0
 51
0.0
 71
0
 72
100
 73
1
 74
1
 75
0
 76
0
 77
0
 78
0
  0
ENDTAB
  0
TABLE
  2
LTYPE
  5
5
100
AcDbSymbolTable
 70
6
  0
LTYPE
  5
14
100
AcDbSymbolTableRecord
100
AcDbLinetypeTableRecord
  2
BYBLOCK
 70
0
  3

 72
65
 73
0
 40
0.0
  0
LTYPE
  5
15
100
AcDbSymbolTableRecord
100
AcDbLinetypeTableRecord
  2
BYLAYER
 70
0
  3

 72
65
 73
0
 40
0.0
  0
LTYPE
  5
16
100
AcDbSymbolTableRecord
100
AcDbLinetypeTableRecord
  2
CONTINUOUS
 70
64
  3
Solid line
 72
65
 73
0
 40
0.0
  0
LTYPE
  5
1F5
100
AcDbSymbolTableRecord
100
AcDbLinetypeTableRecord
  2
CENTER
 70
64
  3
____ _ ____ _ ____ _ ____ _ ____ _ ____ _ ____
 72
65
 73
4
 40
0.6
 49
0.375
 74
0
 49
-0.075
 74
0
 49
0.075
 74
0
 49
-0.075
 74
0
  0
LTYPE
  5
1F6
100
AcDbSymbolTableRecord
100
AcDbLinetypeTableRecord
  2
HIDDEN
 70
64
  3
- - - - - - - - - - - - - - - - - - - -
 72
65
 73
2
 40
0.2
 49
0.1
 74
0
 49
-0.1
 74
0
  0
LTYPE
  5
1F7
100
AcDbSymbolTableRecord
100
AcDbLinetypeTableRecord
  2
PHANTOM
 70
64
  3
_____ _ _ _____ _ _ _____ _ _ _____
 72
65
 73
6
 40
0.8
 49
0.45
 74
0
 49
-0.05
 74
0
 49
0.1
 74
0
 49
-0.05
 74
0
 49
0.1
 74
0
 49
-0.05
 74
0
  0
LTYPE
  5
1F8
100
AcDbSymbolTableRecord
100
AcDbLinetypeTableRecord
  2
DOT
 70
64
  3
. . . . . . . . . . . . . . . . . . . .
 72
65
 73
2
 40
0.2
 49
0.1
 74
0
 49
-0.1
 74
0
  0
LTYPE
  5
1F9
100
AcDbSymbolTableRecord
100
AcDbLinetypeTableRecord
  2
DASHED
 70
64
  3
- - - - - - - - - - - - - - - - - - - -
 72
65
 73
2
 40
0.2
 49
0.1
 74
0
 49
-0.1
 74
0
  0
ENDTAB
  0
TABLE
  2
LAYER
  5
2
100
AcDbSymbolTable
 70
36
  0
LAYER
  5
10
100
AcDbSymbolTableRecord
100
AcDbLayerTableRecord
  2
0
 70
0
 62
7
  6
CONTINUOUS
370
-3
390
F
  0
LAYER
  5
1FA
100
AcDbSymbolTableRecord
100
AcDbLayerTableRecord
  2
DEFAULT_1
 70
0
 62
7
  6
CENTER
370
-3
390
F
  0
LAYER
  5
1FB
100
AcDbSymbolTableRecord
100
AcDbLayerTableRecord
  2
DEFAULT_2
 70
0
 62
8
  6
HIDDEN
370
-3
390
F
  0
LAYER
  5
1FC
100
AcDbSymbolTableRecord
100
AcDbLayerTableRecord
  2
DEFAULT_3
 70
0
 62
7
  6
PHANTOM
370
-3
390
F
  0
LAYER
  5
1FD
100
AcDbSymbolTableRecord
100
AcDbLayerTableRecord
  2
ACHSEN
 70
0
 62
7
  6
CONTINUOUS
370
-3
390
F
  0
LAYER
  5
1FE
100
AcDbSymbolTableRecord
100
AcDbLayerTableRecord
  2
AXIS
 70
0
 62
7
  6
CONTINUOUS
370
-3
390
F
  0
LAYER
  5
1FF
100
AcDbSymbolTableRecord
100
AcDbLayerTableRecord
  2
COORDSYS
 70
0
 62
7
  6
CONTINUOUS
370
-3
390
F
  0
LAYER
  5
200
100
AcDbSymbolTableRecord
100
AcDbLayerTableRecord
  2
CURVES
 70
0
 62
7
  6
CONTINUOUS
370
-3
390
F
  0
LAYER
  5
201
100
AcDbSymbolTableRecord
100
AcDbLayerTableRecord
  2
EBENEN
 70
0
 62
7
  6
CONTINUOUS
370
-3
390
F
  0
LAYER
  5
202
100
AcDbSymbolTableRecord
100
AcDbLayerTableRecord
  2
GEWINDE
 70
0
 62
7
  6
CONTINUOUS
370
-3
390
F
  0
LAYER
  5
203
100
AcDbSymbolTableRecord
100
AcDbLayerTableRecord
  2
GUIDES
 70
0
 62
7
  6
CONTINUOUS
370
-3
390
F
  0
LAYER
  5
204
100
AcDbSymbolTableRecord
100
AcDbLayerTableRecord
  2
HIDDEN
 70
0
 62
7
  6
CONTINUOUS
370
-3
390
F
  0
LAYER
  5
205
100
AcDbSymbolTableRecord
100
AcDbLayerTableRecord
  2
INDEX
 70
0
 62
7
  6
CONTINUOUS
370
-3
390
F
  0
LAYER
  5
206
100
AcDbSymbolTableRecord
100
AcDbLayerTableRecord
  2
PLANES
 70
0
 62
7
  6
CONTINUOUS
370
-3
390
F
  0
LAYER
  5
207
100
AcDbSymbolTableRecord
100
AcDbLayerTableRecord
  2
POINTS
 70
0
 62
7
  6
CONTINUOUS
370
-3
390
F
  0
LAYER
  5
208
100
AcDbSymbolTableRecord
100
AcDbLayerTableRecord
  2
S-ACHSEN
 70
0
 62
7
  6
CONTINUOUS
370
-3
390
F
  0
LAYER
  5
209
100
AcDbSymbolTableRecord
100
AcDbLayerTableRecord
  2
S-AXIS
 70
0
 62
7
  6
CONTINUOUS
370
-3
390
F
  0
LAYER
  5
20A
100
AcDbSymbolTableRecord
100
AcDbLayerTableRecord
  2
S-COORDSYS
 70
0
 62
7
  6
CONTINUOUS
370
-3
390
F
  0
LAYER
  5
20B
100
AcDbSymbolTableRecord
100
AcDbLayerTableRecord
  2
S-EBENEN
 70
0
 62
7
  6
CONTINUOUS
370
-3
390
F
  0
LAYER
  5
20C
100
AcDbSymbolTableRecord
100
AcDbLayerTableRecord
  2
S-KOORDSYS
 70
0
 62
7
  6
CONTINUOUS
370
-3
390
F
  0
LAYER
  5
20D
100
AcDbSymbolTableRecord
100
AcDbLayerTableRecord
  2
S-PLANES
 70
0
 62
7
  6
CONTINUOUS
370
-3
390
F
  0
LAYER
  5
20E
100
AcDbSymbolTableRecord
100
AcDbLayerTableRecord
  2
THREADS
 70
0
 62
7
  6
CONTINUOUS
370
-3
390
F
  0
LAYER
  5
20F
100
AcDbSymbolTableRecord
100
AcDbLayerTableRecord
  2
XSEC_DATUMS
 70
0
 62
7
  6
CONTINUOUS
370
-3
390
F
  0
LAYER
  5
210
100
AcDbSymbolTableRecord
100
AcDbLayerTableRecord
  2
GU_BKS_BL0
 70
0
 62
7
  6
CONTINUOUS
370
-3
390
F
  0
LAYER
  5
211
100
AcDbSymbolTableRecord
100
AcDbLayerTableRecord
  2
X15008000_BL1
 70
0
 62
7
  6
CONTINUOUS
370
-3
390
F
  0
LAYER
  5
212
100
AcDbSymbolTableRecord
100
AcDbLayerTableRecord
  2
X15254000_BL2
 70
0
 62
7
  6
CONTINUOUS
370
-3
390
F
  0
LAYER
  5
213
100
AcDbSymbolTableRecord
100
AcDbLayerTableRecord
  2
X15135000_BL3
 70
0
 62
7
  6
CONTINUOUS
370
-3
390
F
  0
LAYER
  5
214
100
AcDbSymbolTableRecord
100
AcDbLayerTableRecord
  2
X15302000_BL4
 70
0
 62
7
  6
CONTINUOUS
370
-3
390
F
  0
LAYER
  5
215
100
AcDbSymbolTableRecord
100
AcDbLayerTableRecord
  2
C00944022_BL5
 70
0
 62
7
  6
CONTINUOUS
370
-3
390
F
  0
LAYER
  5
216
100
AcDbSymbolTableRecord
100
AcDbLayerTableRecord
  2
Y00917152_BL6
 70
0
 62
7
  6
CONTINUOUS
370
-3
390
F
  0
LAYER
  5
217
100
AcDbSymbolTableRecord
100
AcDbLayerTableRecord
  2
X00941000_BL7
 70
0
 62
7
  6
CONTINUOUS
370
-3
390
F
  0
LAYER
  5
218
100
AcDbSymbolTableRecord
100
AcDbLayerTableRecord
  2
X01822000_BL8
 70
0
 62
7
  6
CONTINUOUS
370
-3
390
F
  0
LAYER
  5
219
100
AcDbSymbolTableRecord
100
AcDbLayerTableRecord
  2
X01822000_BL9
 70
0
 62
7
  6
CONTINUOUS
370
-3
390
F
  0
LAYER
  5
21A
100
AcDbSymbolTableRecord
100
AcDbLayerTableRecord
  2
ZYLINDERSCHRAUBE_M4X16_INN_BL10
 70
0
 62
7
  6
CONTINUOUS
370
-3
390
F
  0
LAYER
  5
21B
100
AcDbSymbolTableRecord
100
AcDbLayerTableRecord
  2
Y15302001_BL11
 70
0
 62
7
  6
CONTINUOUS
370
-3
390
F
  0
ENDTAB
  0
TABLE
  2
STYLE
  5
3
100
AcDbSymbolTable
 70
1
  0
STYLE
  5
11
100
AcDbSymbolTableRecord
100
AcDbTextStyleTableRecord
  2
STANDARD
 70
0
 40
0.0
 41
0.8
 50
0.0
 71
0
 42
0.2
  3
txt
  4

  0
STYLE
  5
21C
100
AcDbSymbolTableRecord
100
AcDbTextStyleTableRecord
  2
TEXTSTYLE_1
 70
0
 40
0.0
 41
0.8
 50
0.0
 71
0
 42
0.2
  3
gdt
  4

  0
STYLE
  5
21D
100
AcDbSymbolTableRecord
100
AcDbTextStyleTableRecord
  2
TEXTSTYLE_2
 70
0
 40
0.0
 41
1.0
 50
0.0
 71
0
 42
0.2
  3
swisscl.ttf
  4

  0
STYLE
  5
21E
100
AcDbSymbolTableRecord
100
AcDbTextStyleTableRecord
  2
TEXTSTYLE_3
 70
0
 40
0.0
 41
1.0
 50
0.0
 71
0
 42
0.2
  3
swisscl.ttf
  4

  0
ENDTAB
  0
TABLE
  2
VIEW
  5
6
100
AcDbSymbolTable
 70
0
  0
ENDTAB
  0
TABLE
  2
UCS
  5
7
100
AcDbSymbolTable
 70
0
  0
ENDTAB
  0
TABLE
  2
APPID
  5
9
100
AcDbSymbolTable
 70
1
  0
APPID
  5
21F
100
AcDbSymbolTableRecord
100
AcDbRegAppTableRecord
  2
ACAD
 70
0
  0
ENDTAB
  0
TABLE
  2
BLOCK_RECORD
  5
1
100
AcDbSymbolTable
 70
0
  0
BLOCK_RECORD
  5
220
100
AcDbSymbolTableRecord
100
AcDbBlockTableRecord
  2
*Model_Space
  0
BLOCK_RECORD
  5
221
100
AcDbSymbolTableRecord
100
AcDbBlockTableRecord
  2
*Paper_Space
  0
BLOCK_RECORD
  5
222
100
AcDbSymbolTableRecord
100
AcDbBlockTableRecord
  2
_FILLED
  0
BLOCK_RECORD
  5
223
100
AcDbSymbolTableRecord
100
AcDbBlockTableRecord
  2
*D0
  0
BLOCK_RECORD
  5
224
100
AcDbSymbolTableRecord
100
AcDbBlockTableRecord
  2
*D1
  0
BLOCK_RECORD
  5
225
100
AcDbSymbolTableRecord
100
AcDbBlockTableRecord
  2
*D2
  0
BLOCK_RECORD
  5
226
100
AcDbSymbolTableRecord
100
AcDbBlockTableRecord
  2
*D3
  0
BLOCK_RECORD
  5
227
100
AcDbSymbolTableRecord
100
AcDbBlockTableRecord
  2
*D4
  0
BLOCK_RECORD
  5
228
100
AcDbSymbolTableRecord
100
AcDbBlockTableRecord
  2
*D5
  0
BLOCK_RECORD
  5
229
100
AcDbSymbolTableRecord
100
AcDbBlockTableRecord
  2
*D6
  0
BLOCK_RECORD
  5
22A
100
AcDbSymbolTableRecord
100
AcDbBlockTableRecord
  2
*D7
  0
BLOCK_RECORD
  5
22B
100
AcDbSymbolTableRecord
100
AcDbBlockTableRecord
  2
*D8
  0
BLOCK_RECORD
  5
22C
100
AcDbSymbolTableRecord
100
AcDbBlockTableRecord
  2
*D9
  0
BLOCK_RECORD
  5
22D
100
AcDbSymbolTableRecord
100
AcDbBlockTableRecord
  2
*D10
  0
BLOCK_RECORD
  5
22E
100
AcDbSymbolTableRecord
100
AcDbBlockTableRecord
  2
*D11
  0
BLOCK_RECORD
  5
22F
100
AcDbSymbolTableRecord
100
AcDbBlockTableRecord
  2
*D12
  0
BLOCK_RECORD
  5
230
100
AcDbSymbolTableRecord
100
AcDbBlockTableRecord
  2
*D13
  0
BLOCK_RECORD
  5
231
100
AcDbSymbolTableRecord
100
AcDbBlockTableRecord
  2
*D14
  0
BLOCK_RECORD
  5
232
100
AcDbSymbolTableRecord
100
AcDbBlockTableRecord
  2
*D15
  0
BLOCK_RECORD
  5
233
100
AcDbSymbolTableRecord
100
AcDbBlockTableRecord
  2
GU_BKS_BL0
  0
BLOCK_RECORD
  5
234
100
AcDbSymbolTableRecord
100
AcDbBlockTableRecord
  2
X15008000_BL1
  0
BLOCK_RECORD
  5
235
100
AcDbSymbolTableRecord
100
AcDbBlockTableRecord
  2
X15254000_BL2
  0
BLOCK_RECORD
  5
236
100
AcDbSymbolTableRecord
100
AcDbBlockTableRecord
  2
X15135000_BL3
  0
BLOCK_RECORD
  5
237
100
AcDbSymbolTableRecord
100
AcDbBlockTableRecord
  2
X15302000_BL4
  0
BLOCK_RECORD
  5
238
100
AcDbSymbolTableRecord
100
AcDbBlockTableRecord
  2
C00944022_BL5
  0
BLOCK_RECORD
  5
239
100
AcDbSymbolTableRecord
100
AcDbBlockTableRecord
  2
Y00917152_BL6
  0
BLOCK_RECORD
  5
23A
100
AcDbSymbolTableRecord
100
AcDbBlockTableRecord
  2
X00941000_BL7
  0
BLOCK_RECORD
  5
23B
100
AcDbSymbolTableRecord
100
AcDbBlockTableRecord
  2
X01822000_BL8
  0
BLOCK_RECORD
  5
23C
100
AcDbSymbolTableRecord
100
AcDbBlockTableRecord
  2
X01822000_BL9
  0
BLOCK_RECORD
  5
23D
100
AcDbSymbolTableRecord
100
AcDbBlockTableRecord
  2
ZYLINDERSCHRAUBE_M4X16_INN_BL10
  0
BLOCK_RECORD
  5
23E
100
AcDbSymbolTableRecord
100
AcDbBlockTableRecord
  2
Y15302001_BL11
  0
ENDTAB
  0
TABLE
  2
DIMSTYLE
  5
A
100
AcDbSymbolTable
 70
1
100
AcDbDimStyleTable
 71
0
  0
DIMSTYLE
105
23F
100
AcDbSymbolTableRecord
100
AcDbDimStyleTableRecord
  2
STANDARD
 70
0
  3

  4

 40
1.0
 41
3.5
 42
0.0
 43
0.38
 44
1.0
 45
0.0
 46
0.0
 47
0.001
 48
0.001
140
2.5
141
0.09
142
0.0
143
25.4
144
1.0
145
0.0
146
1.0
147
0.625
 71
1.0
 72
0.0
 73
0
 74
0
 75
0
 76
0
 77
1
 78
8
170
0
171
2
172
0
173
0
174
0
175
0
176
0
177
0
178
5
270
2
271
3
272
3
273
2
274
2
275
0
280
0
281
0
282
0
283
1
284
8
285
0
286
0
287
3
288
0
340
11
278
46
341
222
342
222
343
222
344
222
  0
DIMSTYLE
105
240
100
AcDbSymbolTableRecord
100
AcDbDimStyleTableRecord
  2
DIMSTYLE_1
 70
0
  3

  4

 40
1.0
 41
3.5
 42
0.0
 43
0.38
 44
1.0
 45
0.0
 46
0.0
 47
0.3
 48
0.3
140
4.0
141
0.09
142
0.0
143
25.4
144
1.0
145
0.0
146
1.0
147
1.0
 71
0.0
 72
0.0
 73
0
 74
0
 75
0
 76
0
 77
1
 78
8
170
0
171
2
172
0
173
0
174
0
175
0
176
0
177
0
178
5
270
2
271
3
272
3
273
2
274
2
275
0
280
0
281
0
282
0
283
1
284
8
285
0
286
0
287
3
288
0
340
21E
278
46
341
222
342
222
343
222
344
222
  0
DIMSTYLE
105
241
100
AcDbSymbolTableRecord
100
AcDbDimStyleTableRecord
  2
DIMSTYLE_2
 70
0
  3

  4

 40
1.0
 41
3.5
 42
0.0
 43
0.38
 44
1.0
 45
0.0
 46
0.0
 47
0.2
 48
0.2
140
4.0
141
0.09
142
0.0
143
25.4
144
1.0
145
0.0
146
1.0
147
1.0
 71
0.0
 72
0.0
 73
0
 74
0
 75
0
 76
0
 77
1
 78
8
170
0
171
2
172
0
173
0
174
0
175
0
176
0
177
0
178
5
270
2
271
3
272
3
273
2
274
2
275
0
280
0
281
0
282
0
283
1
284
8
285
0
286
0
287
3
288
0
340
21E
278
46
341
222
342
222
343
222
344
222
  0
DIMSTYLE
105
242
100
AcDbSymbolTableRecord
100
AcDbDimStyleTableRecord
  2
DIMSTYLE_3
 70
0
  3

  4

 40
1.0
 41
3.5
 42
0.0
 43
0.38
 44
1.0
 45
0.0
 46
0.0
 47
0.1
 48
0.1
140
4.0
141
0.09
142
0.0
143
25.4
144
1.0
145
0.0
146
1.0
147
1.0
 71
0.0
 72
0.0
 73
0
 74
0
 75
0
 76
0
 77
1
 78
8
170
0
171
2
172
0
173
0
174
0
175
0
176
0
177
0
178
5
270
2
271
3
272
3
273
2
274
2
275
0
280
0
281
0
282
0
283
1
284
8
285
0
286
0
287
3
288
0
340
21E
278
46
341
222
342
222
343
222
344
222
  0
ENDTAB
  0
ENDSEC
  0
SECTION
  2
BLOCKS
  0
BLOCK
  5
20
100
AcDbEntity
  8
0
100
AcDbBlockBegin
  2
*Model_Space
 70
0
 10
0.0
 20
0.0
 30
0.0
  3
*Model_Space
  1

  0
ENDBLK
  5
21
100
AcDbEntity
  8
0
100
AcDbBlockEnd
  0
BLOCK
  5
1C
100
AcDbEntity
  8
0
100
AcDbBlockBegin
  2
*Paper_Space
 70
0
 10
0.0
 20
0.0
 30
0.0
  3
*Paper_Space
  1

  0
ENDBLK
  5
1D
100
AcDbEntity
  8
0
100
AcDbBlockEnd
  0
BLOCK
  5
243
100
AcDbEntity
  8
GU_BKS_BL0
100
AcDbBlockBegin
  2
GU_BKS_BL0
 70
64
 10
39.3609177868
 20
16.129518354
  3
GU_BKS_BL0
  1

  0
LINE
  5
244
100
AcDbEntity
  8
GU_BKS_BL0
100
AcDbLine
 62
2
  6
CONTINUOUS
 10
45.4390029879
 20
11.9929491926
 11
43.9978165953
 21
14.4891572477
  0
LINE
  5
245
100
AcDbEntity
  8
GU_BKS_BL0
100
AcDbLine
 62
2
  6
CONTINUOUS
 10
44.8426052345
 20
15.482940403
 11
46.8575525993
 21
11.9929491926
  0
LINE
  5
246
100
AcDbEntity
  8
GU_BKS_BL0
100
AcDbLine
 62
2
  6
CONTINUOUS
 10
35.7427518134
 20
11.348957269
 11
33.7773222247
 21
16.0939240379
  0
LINE
  5
247
100
AcDbEntity
  8
GU_BKS_BL0
100
AcDbLine
 62
2
  6
CONTINUOUS
 10
37.0068025993
 20
17.7486991926
 11
37.0068025993
 21
11.9929491926
  0
LINE
  5
248
100
AcDbEntity
  8
GU_BKS_BL0
100
AcDbLine
 62
2
  6
CONTINUOUS
 10
38.1670525993
 20
16.7021991926
 11
38.1670525993
 21
15.4281991926
  0
LINE
  5
249
100
AcDbEntity
  8
GU_BKS_BL0
100
AcDbLine
 62
2
  6
CONTINUOUS
 10
38.1670525993
 20
14.4271991926
 11
38.1670525993
 21
13.0621991926
  0
LINE
  5
24A
100
AcDbEntity
  8
GU_BKS_BL0
100
AcDbLine
 62
2
  6
CONTINUOUS
 10
42.1255525993
 20
11.9929491926
 11
42.1255525993
 21
17.7486991926
  0
LINE
  5
24B
100
AcDbEntity
  8
GU_BKS_BL0
100
AcDbLine
 62
2
  6
CONTINUOUS
 10
43.3540525993
 20
17.7486991926
 11
43.3540525993
 21
15.4785883052
  0
LINE
  5
24C
100
AcDbEntity
  8
GU_BKS_BL0
100
AcDbLine
 62
2
  6
CONTINUOUS
 10
43.3540525993
 20
13.7219491929
 11
43.3540525993
 21
11.9929491926
  0
LINE
  5
24D
100
AcDbEntity
  8
GU_BKS_BL0
100
AcDbLine
 62
2
  6
CONTINUOUS
 10
45.6715718304
 20
31.7093375153
 11
45.6715718304
 21
28.3428615219
  0
LINE
  5
24E
100
AcDbEntity
  8
GU_BKS_BL0
100
AcDbLine
 62
2
  6
CONTINUOUS
 10
45.6715718304
 20
26.5530894747
 11
45.6715718304
 21
26.0843396528
  0
LINE
  5
24F
100
AcDbEntity
  8
GU_BKS_BL0
100
AcDbLine
 62
2
  6
CONTINUOUS
 10
47.2359122878
 20
16.1106991926
 11
47.2359122878
 21
15.7921991926
  0
LINE
  5
250
100
AcDbEntity
  8
GU_BKS_BL0
100
AcDbLine
 62
2
  6
CONTINUOUS
 10
47.8874800792
 20
26.0843396528
 11
47.8874800792
 21
31.7093375153
  0
LINE
  5
251
100
AcDbEntity
  8
GU_BKS_BL0
100
AcDbLine
 62
2
  6
CONTINUOUS
 10
49.7965702629
 20
31.7093375153
 11
49.7965702629
 21
26.0843396528
  0
LINE
  5
252
100
AcDbEntity
  8
GU_BKS_BL0
100
AcDbLine
 62
2
  6
CONTINUOUS
 10
51.2483025993
 20
13.6081991926
 11
51.2483025993
 21
13.9266991926
  0
LINE
  5
253
100
AcDbEntity
  8
GU_BKS_BL0
100
AcDbLine
 62
2
  6
CONTINUOUS
 10
52.0124785117
 20
26.0843396528
 11
52.0124785117
 21
31.7093375153
  0
LINE
  5
254
100
AcDbEntity
  8
GU_BKS_BL0
100
AcDbLine
 62
2
  6
CONTINUOUS
 10
51.3076230106
 20
10.7871991926
 11
36.5834821881
 21
10.7871991926
  0
LINE
  5
255
100
AcDbEntity
  8
GU_BKS_BL0
100
AcDbLine
 62
2
  6
CONTINUOUS
 10
46.8575525993
 20
11.9929491926
 11
45.4390029879
 21
11.9929491926
  0
LINE
  5
256
100
AcDbEntity
  8
GU_BKS_BL0
100
AcDbLine
 62
2
  6
CONTINUOUS
 10
43.3540525993
 20
11.9929491926
 11
42.1255525993
 21
11.9929491926
  0
LINE
  5
257
100
AcDbEntity
  8
GU_BKS_BL0
100
AcDbLine
 62
2
  6
CONTINUOUS
 10
37.0068025993
 20
11.9929491926
 11
39.5548025993
 21
11.9929491926
  0
LINE
  5
258
100
AcDbEntity
  8
GU_BKS_BL0
100
AcDbLine
 62
2
  6
CONTINUOUS
 10
38.1670525993
 20
13.0621991926
 11
39.3500525993
 21
13.0621991926
  0
LINE
  5
259
100
AcDbEntity
  8
GU_BKS_BL0
100
AcDbLine
 62
2
  6
CONTINUOUS
 10
38.1670525993
 20
14.4271991926
 11
39.3500525993
 21
14.4271991924
  0
LINE
  5
25A
100
AcDbEntity
  8
GU_BKS_BL0
100
AcDbLine
 62
2
  6
CONTINUOUS
 10
38.1670525993
 20
15.4281991926
 11
39.3500525993
 21
15.4281991926
  0
LINE
  5
25B
100
AcDbEntity
  8
GU_BKS_BL0
100
AcDbLine
 62
2
  6
CONTINUOUS
 10
38.1670525993
 20
16.7021991926
 11
39.3500525993
 21
16.7021991926
  0
LINE
  5
25C
100
AcDbEntity
  8
GU_BKS_BL0
100
AcDbLine
 62
2
  6
CONTINUOUS
 10
39.5252275993
 20
17.7486991926
 11
37.0068025993
 21
17.7486991926
  0
LINE
  5
25D
100
AcDbEntity
  8
GU_BKS_BL0
100
AcDbLine
 62
2
  6
CONTINUOUS
 10
42.1255525993
 20
17.7486991926
 11
43.3540525993
 21
17.7486991926
  0
LINE
  5
25E
100
AcDbEntity
  8
GU_BKS_BL0
100
AcDbLine
 62
2
  6
CONTINUOUS
 10
45.2589018079
 20
17.7486991926
 11
46.7438025993
 21
17.7486991926
  0
LINE
  5
25F
100
AcDbEntity
  8
GU_BKS_BL0
100
AcDbLine
 62
2
  6
CONTINUOUS
 10
39.4499832855
 20
26.5530894747
 11
41.4662427381
 21
26.5530894747
  0
LINE
  5
260
100
AcDbEntity
  8
GU_BKS_BL0
100
AcDbLine
 62
2
  6
CONTINUOUS
 10
44.1727645082
 20
26.5530894747
 11
45.6715718304
 21
26.5530894747
  0
LINE
  5
261
100
AcDbEntity
  8
GU_BKS_BL0
100
AcDbLine
 62
2
  6
CONTINUOUS
 10
45.6715718304
 20
28.3428615219
 11
44.1727645082
 21
28.3428615219
  0
LINE
  5
262
100
AcDbEntity
  8
GU_BKS_BL0
100
AcDbLine
 62
2
  6
CONTINUOUS
 10
43.7748766347
 20
28.3428615219
 11
39.4499832855
 21
28.3428615219
  0
LINE
  5
263
100
AcDbEntity
  8
GU_BKS_BL0
100
AcDbLine
 62
2
  6
CONTINUOUS
 10
52.0124785117
 20
31.7093375153
 11
49.7965702629
 21
31.7093375153
  0
LINE
  5
264
100
AcDbEntity
  8
GU_BKS_BL0
100
AcDbLine
 62
2
  6
CONTINUOUS
 10
47.8874800792
 20
31.7093375153
 11
45.6715718304
 21
31.7093375153
  0
LINE
  5
265
100
AcDbEntity
  8
GU_BKS_BL0
100
AcDbLine
 62
2
  6
CONTINUOUS
 10
54.113782974
 20
16.0939240381
 11
52.1483533853
 21
11.348957269
  0
LINE
  5
266
100
AcDbEntity
  8
GU_BKS_BL0
100
AcDbLine
 62
2
  6
CONTINUOUS
 10
43.3540525993
 20
15.4785883052
 11
45.2589018079
 21
17.7486991926
  0
LINE
  5
267
100
AcDbEntity
  8
GU_BKS_BL0
100
AcDbLine
 62
2
  6
CONTINUOUS
 10
43.9978165953
 20
14.4891572477
 11
43.3540525993
 21
13.7219491929
  0
LINE
  5
268
100
AcDbEntity
  8
GU_BKS_BL0
100
AcDbLine
 62
2
  6
CONTINUOUS
 10
44.8426052345
 20
15.482940403
 11
46.7438025993
 21
17.7486991926
  0
LINE
  5
269
100
AcDbEntity
  8
GU_BKS_BL0
100
AcDbLine
 62
2
  6
CONTINUOUS
 10
50.3362316013
 20
16.2905806003
 11
51.1412389559
 21
17.0955879549
  0
LINE
  5
26A
100
AcDbEntity
  8
GU_BKS_BL0
100
AcDbLine
 62
2
  6
CONTINUOUS
 10
47.7518944644
 20
13.5453766708
 11
46.9524252619
 21
12.7459074686
  0
LINE
  5
26B
100
AcDbEntity
  8
GU_BKS_BL0
100
AcDbLine
 62
2
  6
CONTINUOUS
 10
41.2305398041
 20
28.765518014
 11
43.0120355941
 21
30.0837555539
  0
ARC
  5
26C
100
AcDbEntity
  8
GU_BKS_BL0
100
AcDbCircle
 62
2
  6
CONTINUOUS
 10
53.3327939834
 20
42.4610086238
 40
27.3
100
AcDbArc
 50
260.6058710662
 51
262.9334764059
  0
ARC
  5
26D
100
AcDbEntity
  8
GU_BKS_BL0
100
AcDbCircle
 62
2
  6
CONTINUOUS
 10
43.9455525996
 20
0.5496991926
 40
19.3375
100
AcDbArc
 50
59.5907609466
 51
120.4092390534
  0
ARC
  5
26E
100
AcDbEntity
  8
GU_BKS_BL0
100
AcDbCircle
 62
2
  6
CONTINUOUS
 10
39.4499832855
 20
27.4479754983
 40
4.8068163552
100
AcDbArc
 50
349.2706340045
 51
10.7293659955
  0
ARC
  5
26F
100
AcDbEntity
  8
GU_BKS_BL0
100
AcDbCircle
 62
2
  6
CONTINUOUS
 10
49.7631524063
 20
18.8341723648
 40
4.55
100
AcDbArc
 50
247.2438347843
 51
266.8254700933
  0
ARC
  5
270
100
AcDbEntity
  8
GU_BKS_BL0
100
AcDbCircle
 62
2
  6
CONTINUOUS
 10
39.3647560451
 20
27.4479754983
 40
4.49999829
100
AcDbArc
 50
35.8545159817
 51
11.4705154501
  0
ARC
  5
271
100
AcDbEntity
  8
GU_BKS_BL0
100
AcDbCircle
 62
2
  6
CONTINUOUS
 10
48.842025171
 20
26.0843396528
 40
3.1704533407
100
AcDbArc
 50
180.0
 51
360.0
  0
ARC
  5
272
100
AcDbEntity
  8
GU_BKS_BL0
100
AcDbCircle
 62
2
  6
CONTINUOUS
 10
49.179679261
 20
14.8821991924
 40
2.9575
100
AcDbArc
 50
48.451846615
 51
100.9424988997
  0
ARC
  5
273
100
AcDbEntity
  8
GU_BKS_BL0
100
AcDbCircle
 62
2
  6
CONTINUOUS
 10
48.997679261
 20
14.8821991924
 40
2.9575
100
AcDbArc
 50
226.2472071
 51
301.9527464003
  0
ARC
  5
274
100
AcDbEntity
  8
GU_BKS_BL0
100
AcDbCircle
 62
2
  6
CONTINUOUS
 10
39.3647560451
 20
27.4479754983
 40
2.2840900411
100
AcDbArc
 50
35.2282226131
 51
336.934010569
  0
ARC
  5
275
100
AcDbEntity
  8
GU_BKS_BL0
100
AcDbCircle
 62
2
  6
CONTINUOUS
 10
49.0870525993
 20
15.1096991926
 40
2.0566361364
100
AcDbArc
 50
229.5190554785
 51
285.5050441823
  0
ARC
  5
276
100
AcDbEntity
  8
GU_BKS_BL0
100
AcDbCircle
 62
2
  6
CONTINUOUS
 10
48.9421622878
 20
16.1106991924
 40
1.70625
100
AcDbArc
 50
100.9424988902
 51
179.9999999968
  0
ARC
  5
277
100
AcDbEntity
  8
GU_BKS_BL0
100
AcDbCircle
 62
2
  6
CONTINUOUS
 10
39.5548025993
 20
13.6309491926
 40
1.638
100
AcDbArc
 50
270.0
 51
52.7307871646
  0
ARC
  5
278
100
AcDbEntity
  8
GU_BKS_BL0
100
AcDbCircle
 62
2
  6
CONTINUOUS
 10
39.5252275993
 20
16.1561991926
 40
1.5925
100
AcDbArc
 50
309.898835778
 51
90.0
  0
ARC
  5
279
100
AcDbEntity
  8
GU_BKS_BL0
100
AcDbCircle
 62
2
  6
CONTINUOUS
 10
49.2574500083
 20
15.2461991924
 40
1.5015
100
AcDbArc
 50
44.071756165
 51
108.1948723417
  0
ARC
  5
27A
100
AcDbEntity
  8
GU_BKS_BL0
100
AcDbCircle
 62
2
  6
CONTINUOUS
 10
49.7923025993
 20
13.6081991921
 40
1.456
100
AcDbArc
 50
301.9527464052
 51
360.0
  0
ARC
  5
27B
100
AcDbEntity
  8
GU_BKS_BL0
100
AcDbCircle
 62
2
  6
CONTINUOUS
 10
49.7955871266
 20
13.9266991926
 40
1.4527154728
100
AcDbArc
 50
0.0
 51
82.9334763962
  0
ARC
  5
27C
100
AcDbEntity
  8
GU_BKS_BL0
100
AcDbCircle
 62
2
  6
CONTINUOUS
 10
48.4871622878
 20
15.7921991926
 40
1.25125
100
AcDbArc
 50
180.0
 51
247.243834782
  0
ARC
  5
27D
100
AcDbEntity
  8
GU_BKS_BL0
100
AcDbCircle
 62
2
  6
CONTINUOUS
 10
48.842025171
 20
26.0843396528
 40
0.9545450918
100
AcDbArc
 50
180.0
 51
360.0
  0
ARC
  5
27E
100
AcDbEntity
  8
GU_BKS_BL0
100
AcDbCircle
 62
2
  6
CONTINUOUS
 10
36.5834821881
 20
11.6971991926
 40
0.91
100
AcDbArc
 50
202.5
 51
270.0
  0
ARC
  5
27F
100
AcDbEntity
  8
GU_BKS_BL0
100
AcDbCircle
 62
2
  6
CONTINUOUS
 10
51.3076230106
 20
11.6971991926
 40
0.91
100
AcDbArc
 50
270.0
 51
337.5
  0
ARC
  5
280
100
AcDbEntity
  8
GU_BKS_BL0
100
AcDbCircle
 62
2
  6
CONTINUOUS
 10
53.2730525993
 20
16.4421659615
 40
0.91
100
AcDbArc
 50
337.500000009
 51
59.5907609348
  0
ARC
  5
281
100
AcDbEntity
  8
GU_BKS_BL0
100
AcDbCircle
 62
2
  6
CONTINUOUS
 10
34.6180525993
 20
16.4421659615
 40
0.91
100
AcDbArc
 50
120.4092390532
 51
202.5
  0
ARC
  5
282
100
AcDbEntity
  8
GU_BKS_BL0
100
AcDbCircle
 62
2
  6
CONTINUOUS
 10
39.4499832855
 20
27.4479754983
 40
0.8948860236
100
AcDbArc
 50
90.0
 51
270.0
  0
ARC
  5
283
100
AcDbEntity
  8
GU_BKS_BL0
100
AcDbCircle
 62
2
  6
CONTINUOUS
 10
39.3728025993
 20
13.7446991926
 40
0.6828790613
100
AcDbArc
 50
268.090847567
 51
91.909152433
  0
ARC
  5
284
100
AcDbEntity
  8
GU_BKS_BL0
100
AcDbCircle
 62
2
  6
CONTINUOUS
 10
39.3500525993
 20
16.0651991926
 40
0.637
100
AcDbArc
 50
270.0000000001
 51
89.9999999999
  0
ARC
  5
285
100
AcDbEntity
  8
GU_BKS_BL0
100
AcDbCircle
 62
2
  6
CONTINUOUS
 10
49.4783525993
 20
13.6991991926
 40
0.592865
100
AcDbArc
 50
285.5050441988
 51
86.8254700827
  0
ARC
  5
286
100
AcDbEntity
  8
GU_BKS_BL0
100
AcDbCircle
 62
2
  6
CONTINUOUS
 10
48.9733025993
 20
16.1106991924
 40
0.5915
100
AcDbArc
 50
108.1948723388
 51
260.6058710483
  0
ENDBLK
  5
287
100
AcDbEntity
  8
0
  6
BYBLOCK
 62
0
100
AcDbBlockEnd
  0
BLOCK
  5
288
100
AcDbEntity
  8
X15008000_BL1
100
AcDbBlockBegin
  2
X15008000_BL1
 70
64
 10
222.125666567
 20
139.9071773441
  3
X15008000_BL1
  1

  0
LINE
  5
289
100
AcDbEntity
  8
X15008000_BL1
100
AcDbLine
 62
7
  6
CONTINUOUS
 10
302.4946250016
 20
182.6870793151
 11
302.4946250016
 21
240.7657605587
  0
LINE
  5
28A
100
AcDbEntity
  8
X15008000_BL1
100
AcDbLine
 62
7
  6
CONTINUOUS
 10
322.4946250016
 20
178.1139776754
 11
322.4946250016
 21
240.7657605587
  0
LINE
  5
28B
100
AcDbEntity
  8
X15008000_BL1
100
AcDbLine
 62
9
  6
CONTINUOUS
 10
322.4946250016
 20
236.7657605587
 11
320.4946250016
 21
236.7657605587
  0
LINE
  5
28C
100
AcDbEntity
  8
X15008000_BL1
100
AcDbLine
 62
9
  6
CONTINUOUS
 10
304.4946250016
 20
236.7657605587
 11
302.4946250016
 21
236.7657605587
  0
LINE
  5
28D
100
AcDbEntity
  8
X15008000_BL1
100
AcDbLine
 62
7
  6
CONTINUOUS
 10
302.4946250016
 20
237.7657605587
 11
322.4946250016
 21
237.7657605587
  0
LINE
  5
28E
100
AcDbEntity
  8
X15008000_BL1
100
AcDbLine
 62
7
  6
CONTINUOUS
 10
322.4946250016
 20
240.7657605587
 11
302.4946250016
 21
240.7657605587
  0
LINE
  5
28F
100
AcDbEntity
  8
X15008000_BL1
100
AcDbLine
 62
7
  6
CONTINUOUS
 10
122.7050058869
 20
237.7657605587
 11
122.7050058869
 21
240.7657605587
  0
LINE
  5
290
100
AcDbEntity
  8
X15008000_BL1
100
AcDbLine
 62
7
  6
CONTINUOUS
 10
230.7050058869
 20
140.7657605587
 11
233.7050058869
 21
140.7657605587
  0
LINE
  5
291
100
AcDbEntity
  8
X15008000_BL1
100
AcDbLine
 62
9
  6
CONTINUOUS
 10
132.7050058869
 20
237.7657605587
 11
132.7050058869
 21
240.7657605587
  0
LINE
  5
292
100
AcDbEntity
  8
X15008000_BL1
100
AcDbLine
 62
7
  6
CENTER
 10
135.7050058869
 20
245.7657605587
 11
135.7050058869
 21
232.7657605587
  0
LINE
  5
293
100
AcDbEntity
  8
X15008000_BL1
100
AcDbLine
 62
9
  6
CONTINUOUS
 10
230.7050058869
 20
150.7657605587
 11
233.7050058869
 21
150.7657605587
  0
LINE
  5
294
100
AcDbEntity
  8
X15008000_BL1
100
AcDbLine
 62
7
  6
CENTER
 10
225.7050058869
 20
153.7657605587
 11
235.8050058869
 21
153.7657605587
  0
LINE
  5
295
100
AcDbEntity
  8
X15008000_BL1
100
AcDbLine
 62
7
  6
CONTINUOUS
 10
122.7051807344
 20
237.7657605587
 11
229.7050058869
 21
237.7657605587
  0
LINE
  5
296
100
AcDbEntity
  8
X15008000_BL1
100
AcDbLine
 62
7
  6
CONTINUOUS
 10
230.7050058869
 20
236.7657605587
 11
230.7050058869
 21
140.7659354062
  0
LINE
  5
297
100
AcDbEntity
  8
X15008000_BL1
100
AcDbLine
 62
7
  6
CONTINUOUS
 10
229.7050058869
 20
240.7657605587
 11
122.7051807344
 21
240.7657605587
  0
LINE
  5
298
100
AcDbEntity
  8
X15008000_BL1
100
AcDbLine
 62
7
  6
CONTINUOUS
 10
233.7050058869
 20
140.7659354062
 11
233.7050058869
 21
236.7657605587
  0
LINE
  5
299
100
AcDbEntity
  8
X15008000_BL1
100
AcDbLine
 62
7
  6
CENTER
 10
135.7050058869
 20
44.0485941295
 11
135.7050058869
 21
34.0485941295
  0
LINE
  5
29A
100
AcDbEntity
  8
X15008000_BL1
100
AcDbLine
 62
7
  6
CENTER
 10
135.7050058869
 20
44.0485941295
 11
135.7050058869
 21
54.0485941295
  0
LINE
  5
29B
100
AcDbEntity
  8
X15008000_BL1
100
AcDbLine
 62
7
  6
CONTINUOUS
 10
233.7050058869
 20
34.0485941295
 11
132.7050058869
 21
34.0485941295
  0
LINE
  5
29C
100
AcDbEntity
  8
X15008000_BL1
100
AcDbLine
 62
7
  6
CONTINUOUS
 10
176.4550058869
 20
37.7985941295
 11
188.9550058869
 21
37.7985941295
  0
LINE
  5
29D
100
AcDbEntity
  8
X15008000_BL1
100
AcDbLine
 62
7
  6
CONTINUOUS
 10
176.4550058869
 20
50.2985941295
 11
176.4550058869
 21
37.7985941295
  0
LINE
  5
29E
100
AcDbEntity
  8
X15008000_BL1
100
AcDbLine
 62
7
  6
CENTER
 10
135.7050058869
 20
44.0485941295
 11
121.7567081325
 21
44.0485941295
  0
LINE
  5
29F
100
AcDbEntity
  8
X15008000_BL1
100
AcDbLine
 62
7
  6
CENTER
 10
135.7050058869
 20
44.0485941295
 11
145.7050058869
 21
44.0485941295
  0
LINE
  5
2A0
100
AcDbEntity
  8
X15008000_BL1
100
AcDbLine
 62
7
  6
CONTINUOUS
 10
188.9550058869
 20
50.2985941295
 11
176.4550058869
 21
50.2985941295
  0
LINE
  5
2A1
100
AcDbEntity
  8
X15008000_BL1
100
AcDbLine
 62
7
  6
CONTINUOUS
 10
188.9550058869
 20
37.7985941295
 11
188.9550058869
 21
50.2985941295
  0
LINE
  5
2A2
100
AcDbEntity
  8
X15008000_BL1
100
AcDbLine
 62
7
  6
CONTINUOUS
 10
233.7050058869
 20
54.0485941295
 11
132.7050058869
 21
54.0485941295
  0
LINE
  5
2A3
100
AcDbEntity
  8
X15008000_BL1
100
AcDbLine
 62
9
  6
CONTINUOUS
 10
229.7050058869
 20
34.0485941295
 11
229.7050058869
 21
54.0485941295
  0
LINE
  5
2A4
100
AcDbEntity
  8
X15008000_BL1
100
AcDbLine
 62
7
  6
CONTINUOUS
 10
233.7050058869
 20
54.0485941295
 11
233.7050058869
 21
34.0485941295
  0
ARC
  5
2A5
100
AcDbEntity
  8
X15008000_BL1
100
AcDbCircle
 62
7
  6
CONTINUOUS
 10
229.7050058869
 20
236.7657605587
 40
4.0
100
AcDbArc
 50
0.0
 51
90.0
  0
ARC
  5
2A6
100
AcDbEntity
  8
X15008000_BL1
100
AcDbCircle
 62
7
  6
CONTINUOUS
 10
229.7050058869
 20
236.7657605587
 40
1.0
100
AcDbArc
 50
0.0
 51
90.0
  0
ARC
  5
2A7
100
AcDbEntity
  8
X15008000_BL1
100
AcDbCircle
 62
7
  6
CONTINUOUS
 10
132.7050058869
 20
44.0485941295
 40
10.0
100
AcDbArc
 50
90.0
 51
270.0
  0
CIRCLE
  5
2A8
100
AcDbEntity
  8
X15008000_BL1
100
AcDbCircle
 62
7
  6
CONTINUOUS
 10
202.7050058869
 20
44.0485941295
 40
5.25
  0
CIRCLE
  5
2A9
100
AcDbEntity
  8
X15008000_BL1
100
AcDbCircle
 62
7
  6
CONTINUOUS
 10
135.7050058869
 20
44.0485941295
 40
5.0
  0
CIRCLE
  5
2AA
100
AcDbEntity
  8
X15008000_BL1
100
AcDbCircle
 62
7
  6
CONTINUOUS
 10
135.7050058869
 20
44.0485941295
 40
2.75
  0
ENDBLK
  5
2AB
100
AcDbEntity
  8
0
  6
BYBLOCK
 62
0
100
AcDbBlockEnd
  0
BLOCK
  5
2AC
100
AcDbEntity
  8
X15254000_BL2
100
AcDbBlockBegin
  2
X15254000_BL2
 70
64
 10
239.0998154443
 20
137.6571773441
  3
X15254000_BL2
  1

  0
LINE
  5
2AD
100
AcDbEntity
  8
X15254000_BL2
100
AcDbLine
 62
3
  6
CONTINUOUS
 10
320.4946250016
 20
202.7657605587
 11
306.4946250016
 21
202.7657605587
  0
LINE
  5
2AE
100
AcDbEntity
  8
X15254000_BL2
100
AcDbLine
 62
3
  6
CONTINUOUS
 10
306.4946250016
 20
202.7657605587
 11
306.4946250016
 21
235.0157605587
  0
LINE
  5
2AF
100
AcDbEntity
  8
X15254000_BL2
100
AcDbLine
 62
9
  6
CONTINUOUS
 10
317.9946250016
 20
202.7657605587
 11
317.9946250016
 21
235.0157605587
  0
LINE
  5
2B0
100
AcDbEntity
  8
X15254000_BL2
100
AcDbLine
 62
7
  6
CONTINUOUS
 10
318.4946250016
 20
235.7657605587
 11
318.4946250016
 21
235.0157605587
  0
LINE
  5
2B1
100
AcDbEntity
  8
X15254000_BL2
100
AcDbLine
 62
3
  6
CONTINUOUS
 10
320.4946250016
 20
237.5157605587
 11
320.4946250016
 21
202.7657605587
  0
LINE
  5
2B2
100
AcDbEntity
  8
X15254000_BL2
100
AcDbLine
 62
3
  6
CONTINUOUS
 10
320.4946250016
 20
235.0157605587
 11
306.4946250016
 21
235.0157605587
  0
LINE
  5
2B3
100
AcDbEntity
  8
X15254000_BL2
100
AcDbLine
 62
7
  6
CONTINUOUS
 10
320.4946250016
 20
237.5157605587
 11
318.4946250016
 21
237.5157605587
  0
LINE
  5
2B4
100
AcDbEntity
  8
X15254000_BL2
100
AcDbLine
 62
3
  6
CONTINUOUS
 10
157.7050058869
 20
202.7657605587
 11
157.7050058869
 21
235.0157605587
  0
LINE
  5
2B5
100
AcDbEntity
  8
X15254000_BL2
100
AcDbLine
 62
3
  6
CONTINUOUS
 10
160.2050058869
 20
237.5157605587
 11
160.2050058869
 21
235.0157605587
  0
LINE
  5
2B6
100
AcDbEntity
  8
X15254000_BL2
100
AcDbLine
 62
9
  6
CONTINUOUS
 10
160.2050058869
 20
202.7657605587
 11
160.2050058869
 21
235.0157605587
  0
LINE
  5
2B7
100
AcDbEntity
  8
X15254000_BL2
100
AcDbLine
 62
7
  6
CENTER
 10
174.7050058869
 20
213.7657605587
 11
174.7050058869
 21
211.7693820159
  0
LINE
  5
2B8
100
AcDbEntity
  8
X15254000_BL2
100
AcDbLine
 62
7
  6
CENTER
 10
174.7050058869
 20
213.7657605587
 11
174.7050058869
 21
215.7621391016
  0
LINE
  5
2B9
100
AcDbEntity
  8
X15254000_BL2
100
AcDbLine
 62
3
  6
CONTINUOUS
 10
179.2050058869
 20
237.5157605587
 11
179.2050058869
 21
225.7657605587
  0
LINE
  5
2BA
100
AcDbEntity
  8
X15254000_BL2
100
AcDbLine
 62
3
  6
CONTINUOUS
 10
181.1050058869
 20
206.7657605587
 11
181.1050058869
 21
215.7657605587
  0
LINE
  5
2BB
100
AcDbEntity
  8
X15254000_BL2
100
AcDbLine
 62
3
  6
CONTINUOUS
 10
184.3050058869
 20
215.7657605587
 11
184.3050058869
 21
206.7657605587
  0
LINE
  5
2BC
100
AcDbEntity
  8
X15254000_BL2
100
AcDbLine
 62
3
  6
CONTINUOUS
 10
186.2050058869
 20
237.5157605587
 11
186.2050058869
 21
225.7657605587
  0
LINE
  5
2BD
100
AcDbEntity
  8
X15254000_BL2
100
AcDbLine
 62
3
  6
CONTINUOUS
 10
189.7050058869
 20
237.5157605587
 11
189.7050058869
 21
234.2657605587
  0
LINE
  5
2BE
100
AcDbEntity
  8
X15254000_BL2
100
AcDbLine
 62
7
  6
CENTER
 10
190.7050058869
 20
213.7657605587
 11
190.7050058869
 21
211.5250859031
  0
LINE
  5
2BF
100
AcDbEntity
  8
X15254000_BL2
100
AcDbLine
 62
7
  6
CENTER
 10
190.7050058869
 20
213.7657605587
 11
190.7050058869
 21
216.0064352144
  0
LINE
  5
2C0
100
AcDbEntity
  8
X15254000_BL2
100
AcDbLine
 62
3
  6
CONTINUOUS
 10
193.7050058869
 20
223.4030907196
 11
193.7050058869
 21
230.1520158226
  0
LINE
  5
2C1
100
AcDbEntity
  8
X15254000_BL2
100
AcDbLine
 62
3
  6
CONTINUOUS
 10
221.7050058869
 20
202.7657605587
 11
157.7050058869
 21
202.7657605587
  0
LINE
  5
2C2
100
AcDbEntity
  8
X15254000_BL2
100
AcDbLine
 62
3
  6
CONTINUOUS
 10
203.7050058869
 20
237.5157605587
 11
203.7050058869
 21
234.2657605587
  0
LINE
  5
2C3
100
AcDbEntity
  8
X15254000_BL2
100
AcDbLine
 62
7
  6
CENTER
 10
190.7050058869
 20
213.7657605587
 11
188.4643312313
 21
213.7657605587
  0
LINE
  5
2C4
100
AcDbEntity
  8
X15254000_BL2
100
AcDbLine
 62
7
  6
CENTER
 10
174.7050058869
 20
213.7657605587
 11
172.7086273441
 21
213.7657605587
  0
LINE
  5
2C5
100
AcDbEntity
  8
X15254000_BL2
100
AcDbLine
 62
7
  6
CENTER
 10
174.7050058869
 20
213.7657605587
 11
176.7013844298
 21
213.7657605587
  0
LINE
  5
2C6
100
AcDbEntity
  8
X15254000_BL2
100
AcDbLine
 62
7
  6
CENTER
 10
190.7050058869
 20
213.7657605587
 11
192.9456805426
 21
213.7657605587
  0
LINE
  5
2C7
100
AcDbEntity
  8
X15254000_BL2
100
AcDbLine
 62
3
  6
CONTINUOUS
 10
211.7050058869
 20
222.7657605587
 11
195.2835098213
 21
221.9051464174
  0
LINE
  5
2C8
100
AcDbEntity
  8
X15254000_BL2
100
AcDbLine
 62
3
  6
CONTINUOUS
 10
211.7050058869
 20
228.7657605587
 11
211.7050058869
 21
222.7657605587
  0
LINE
  5
2C9
100
AcDbEntity
  8
X15254000_BL2
100
AcDbLine
 62
7
  6
CENTER
 10
215.2050058869
 20
228.7657605587
 11
215.2050058869
 21
226.3930293191
  0
LINE
  5
2CA
100
AcDbEntity
  8
X15254000_BL2
100
AcDbLine
 62
7
  6
CENTER
 10
215.2050058869
 20
228.7657605587
 11
215.2050058869
 21
231.1384917984
  0
LINE
  5
2CB
100
AcDbEntity
  8
X15254000_BL2
100
AcDbLine
 62
3
  6
CONTINUOUS
 10
186.2050058869
 20
225.7657605587
 11
179.2050058869
 21
225.7657605587
  0
LINE
  5
2CC
100
AcDbEntity
  8
X15254000_BL2
100
AcDbLine
 62
3
  6
CONTINUOUS
 10
219.2050058869
 20
237.5157605587
 11
219.2050058869
 21
235.0157605587
  0
LINE
  5
2CD
100
AcDbEntity
  8
X15254000_BL2
100
AcDbLine
 62
9
  6
CONTINUOUS
 10
219.2050058869
 20
202.7657605587
 11
219.2050058869
 21
235.0157605587
  0
LINE
  5
2CE
100
AcDbEntity
  8
X15254000_BL2
100
AcDbLine
 62
7
  6
CENTER
 10
215.2050058869
 20
228.7657605587
 11
212.8322746473
 21
228.7657605587
  0
LINE
  5
2CF
100
AcDbEntity
  8
X15254000_BL2
100
AcDbLine
 62
7
  6
CENTER
 10
215.2050058869
 20
228.7657605587
 11
217.5777371266
 21
228.7657605587
  0
LINE
  5
2D0
100
AcDbEntity
  8
X15254000_BL2
100
AcDbLine
 62
3
  6
CONTINUOUS
 10
221.7050058869
 20
235.0157605587
 11
221.7050058869
 21
202.7657605587
  0
LINE
  5
2D1
100
AcDbEntity
  8
X15254000_BL2
100
AcDbLine
 62
3
  6
CONTINUOUS
 10
203.7050058869
 20
234.2657605587
 11
189.7050058869
 21
234.2657605587
  0
LINE
  5
2D2
100
AcDbEntity
  8
X15254000_BL2
100
AcDbLine
 62
3
  6
CONTINUOUS
 10
221.7050058869
 20
235.0157605587
 11
219.2050058869
 21
235.0157605587
  0
LINE
  5
2D3
100
AcDbEntity
  8
X15254000_BL2
100
AcDbLine
 62
3
  6
CONTINUOUS
 10
160.2050058869
 20
235.0157605587
 11
157.7050058869
 21
235.0157605587
  0
LINE
  5
2D4
100
AcDbEntity
  8
X15254000_BL2
100
AcDbLine
 62
3
  6
CONTINUOUS
 10
219.2050058869
 20
237.5157605587
 11
203.7050058869
 21
237.5157605587
  0
LINE
  5
2D5
100
AcDbEntity
  8
X15254000_BL2
100
AcDbLine
 62
3
  6
CONTINUOUS
 10
189.7050058869
 20
237.5157605587
 11
186.2050058869
 21
237.5157605587
  0
LINE
  5
2D6
100
AcDbEntity
  8
X15254000_BL2
100
AcDbLine
 62
3
  6
CONTINUOUS
 10
160.2050058869
 20
237.5157605587
 11
179.2050058869
 21
237.5157605587
  0
LINE
  5
2D7
100
AcDbEntity
  8
X15254000_BL2
100
AcDbLine
 62
3
  6
CONTINUOUS
 10
195.4654781535
 20
231.6292274521
 11
211.7050058869
 21
228.7657605587
  0
LINE
  5
2D8
100
AcDbEntity
  8
X15254000_BL2
100
AcDbLine
 62
7
  6
CONTINUOUS
 10
188.9550058869
 20
38.0485941295
 11
187.2050058869
 21
38.0485941295
  0
LINE
  5
2D9
100
AcDbEntity
  8
X15254000_BL2
100
AcDbLine
 62
7
  6
CONTINUOUS
 10
176.4550058869
 20
38.0485941295
 11
178.2050058869
 21
38.0485941295
  0
LINE
  5
2DA
100
AcDbEntity
  8
X15254000_BL2
100
AcDbLine
 62
7
  6
CONTINUOUS
 10
179.2050058869
 20
37.7985941295
 11
179.2050058869
 21
38.0485941295
  0
LINE
  5
2DB
100
AcDbEntity
  8
X15254000_BL2
100
AcDbLine
 62
7
  6
CONTINUOUS
 10
186.2050058869
 20
37.7985941295
 11
186.2050058869
 21
38.0485941295
  0
ARC
  5
2DC
100
AcDbEntity
  8
X15254000_BL2
100
AcDbCircle
 62
3
  6
CONTINUOUS
 10
182.7050058869
 20
215.7657605587
 40
1.6
100
AcDbArc
 50
0.0
 51
180.0
  0
ARC
  5
2DD
100
AcDbEntity
  8
X15254000_BL2
100
AcDbCircle
 62
3
  6
CONTINUOUS
 10
182.7050058869
 20
206.7657605587
 40
1.6
100
AcDbArc
 50
180.0
 51
360.0
  0
CIRCLE
  5
2DE
100
AcDbEntity
  8
X15254000_BL2
100
AcDbCircle
 62
3
  6
CONTINUOUS
 10
174.7050058869
 20
213.7657605587
 40
1.5
  0
CIRCLE
  5
2DF
100
AcDbEntity
  8
X15254000_BL2
100
AcDbCircle
 62
3
  6
CONTINUOUS
 10
190.7050058869
 20
213.7657605587
 40
1.5
  0
CIRCLE
  5
2E0
100
AcDbEntity
  8
X15254000_BL2
100
AcDbCircle
 62
3
  6
CONTINUOUS
 10
166.7050058869
 20
225.7657605587
 40
4.75
  0
ARC
  5
2E1
100
AcDbEntity
  8
X15254000_BL2
100
AcDbCircle
 62
3
  6
CONTINUOUS
 10
195.2050058869
 20
230.1520158226
 40
1.5
100
AcDbArc
 50
80.0
 51
180.0
  0
ARC
  5
2E2
100
AcDbEntity
  8
X15254000_BL2
100
AcDbCircle
 62
3
  6
CONTINUOUS
 10
195.2050058869
 20
223.4030907196
 40
1.5
100
AcDbArc
 50
180.0
 51
273.0
  0
CIRCLE
  5
2E3
100
AcDbEntity
  8
X15254000_BL2
100
AcDbCircle
 62
3
  6
CONTINUOUS
 10
213.7050058869
 20
216.7657605587
 40
4.75
  0
CIRCLE
  5
2E4
100
AcDbEntity
  8
X15254000_BL2
100
AcDbCircle
 62
3
  6
CONTINUOUS
 10
215.2050058869
 20
228.7657605587
 40
1.5
  0
ENDBLK
  5
2E5
100
AcDbEntity
  8
0
  6
BYBLOCK
 62
0
100
AcDbBlockEnd
  0
BLOCK
  5
2E6
100
AcDbEntity
  8
X15135000_BL3
100
AcDbBlockBegin
  2
X15135000_BL3
 70
64
 10
238.0998154443
 20
149.6875883443
  3
X15135000_BL3
  1

  0
LINE
  5
2E7
100
AcDbEntity
  8
X15135000_BL3
100
AcDbLine
 62
7
  6
CONTINUOUS
 10
306.4946250016
 20
202.7657605587
 11
304.4946250016
 21
202.7657605587
  0
LINE
  5
2E8
100
AcDbEntity
  8
X15135000_BL3
100
AcDbLine
 62
7
  6
CONTINUOUS
 10
304.4946250016
 20
202.7657605587
 11
304.4946250016
 21
237.7657605587
  0
LINE
  5
2E9
100
AcDbEntity
  8
X15135000_BL3
100
AcDbLine
 62
3
  6
CONTINUOUS
 10
306.4946250016
 20
202.7657605587
 11
306.4946250016
 21
235.2657605587
  0
LINE
  5
2EA
100
AcDbEntity
  8
X15135000_BL3
100
AcDbLine
 62
9
  6
CONTINUOUS
 10
306.9946250016
 20
237.7657605587
 11
306.9946250016
 21
235.7657605587
  0
LINE
  5
2EB
100
AcDbEntity
  8
X15135000_BL3
100
AcDbLine
 62
7
  6
CONTINUOUS
 10
318.4946250016
 20
237.7657605587
 11
318.4946250016
 21
235.7657605587
  0
LINE
  5
2EC
100
AcDbEntity
  8
X15135000_BL3
100
AcDbLine
 62
9
  6
CONTINUOUS
 10
304.4946250016
 20
235.2657605587
 11
306.4946250016
 21
235.2657605587
  0
LINE
  5
2ED
100
AcDbEntity
  8
X15135000_BL3
100
AcDbLine
 62
3
  6
CONTINUOUS
 10
318.4946250016
 20
235.7657605587
 11
306.9946250016
 21
235.7657605587
  0
LINE
  5
2EE
100
AcDbEntity
  8
X15135000_BL3
100
AcDbLine
 62
7
  6
CONTINUOUS
 10
157.7050058869
 20
237.7657605587
 11
157.7050058869
 21
235.7657605587
  0
LINE
  5
2EF
100
AcDbEntity
  8
X15135000_BL3
100
AcDbLine
 62
3
  6
CONTINUOUS
 10
157.7050058869
 20
235.0157605587
 11
157.7050058869
 21
235.7657605587
  0
LINE
  5
2F0
100
AcDbEntity
  8
X15135000_BL3
100
AcDbLine
 62
7
  6
CONTINUOUS
 10
174.2050058869
 20
237.7657605587
 11
174.2050058869
 21
237.5157605587
  0
LINE
  5
2F1
100
AcDbEntity
  8
X15135000_BL3
100
AcDbLine
 62
7
  6
CENTER
 10
182.7050058869
 20
215.7657605587
 11
182.7050058869
 21
209.3004325948
  0
LINE
  5
2F2
100
AcDbEntity
  8
X15135000_BL3
100
AcDbLine
 62
7
  6
CENTER
 10
182.7050058869
 20
206.7657605587
 11
182.7050058869
 21
204.2290800964
  0
LINE
  5
2F3
100
AcDbEntity
  8
X15135000_BL3
100
AcDbLine
 62
7
  6
CENTER
 10
182.7050058869
 20
206.7657605587
 11
182.7050058869
 21
209.3004325948
  0
LINE
  5
2F4
100
AcDbEntity
  8
X15135000_BL3
100
AcDbLine
 62
7
  6
CENTER
 10
182.7050058869
 20
215.7657605587
 11
182.7050058869
 21
249.3265825591
  0
LINE
  5
2F5
100
AcDbEntity
  8
X15135000_BL3
100
AcDbLine
 62
3
  6
CONTINUOUS
 10
189.7050058869
 20
237.7657605587
 11
189.7050058869
 21
237.5157605587
  0
LINE
  5
2F6
100
AcDbEntity
  8
X15135000_BL3
100
AcDbLine
 62
7
  6
CENTER
 10
182.7050058869
 20
206.7657605587
 11
180.1683254246
 21
206.7657605587
  0
LINE
  5
2F7
100
AcDbEntity
  8
X15135000_BL3
100
AcDbLine
 62
7
  6
CENTER
 10
182.7050058869
 20
206.7657605587
 11
185.2416863493
 21
206.7657605587
  0
LINE
  5
2F8
100
AcDbEntity
  8
X15135000_BL3
100
AcDbLine
 62
7
  6
CENTER
 10
182.7050058869
 20
215.7657605587
 11
180.1962846262
 21
215.7657605587
  0
LINE
  5
2F9
100
AcDbEntity
  8
X15135000_BL3
100
AcDbLine
 62
7
  6
CENTER
 10
182.7050058869
 20
215.7657605587
 11
185.228940909
 21
215.7657605587
  0
LINE
  5
2FA
100
AcDbEntity
  8
X15135000_BL3
100
AcDbLine
 62
7
  6
CONTINUOUS
 10
208.7050058869
 20
237.7657605587
 11
208.7050058869
 21
237.5157605587
  0
LINE
  5
2FB
100
AcDbEntity
  8
X15135000_BL3
100
AcDbLine
 62
7
  6
CONTINUOUS
 10
221.7050058869
 20
237.7657605587
 11
221.7050058869
 21
235.7657605587
  0
LINE
  5
2FC
100
AcDbEntity
  8
X15135000_BL3
100
AcDbLine
 62
3
  6
CONTINUOUS
 10
221.7050058869
 20
235.7657605587
 11
221.7050058869
 21
235.0157605587
  0
LINE
  5
2FD
100
AcDbEntity
  8
X15135000_BL3
100
AcDbLine
 62
9
  6
CONTINUOUS
 10
157.7050058869
 20
235.2657605587
 11
160.2050058869
 21
235.2657605587
  0
LINE
  5
2FE
100
AcDbEntity
  8
X15135000_BL3
100
AcDbLine
 62
9
  6
CONTINUOUS
 10
219.2050058869
 20
235.2657605587
 11
221.7050058869
 21
235.2657605587
  0
LINE
  5
2FF
100
AcDbEntity
  8
X15135000_BL3
100
AcDbLine
 62
3
  6
CONTINUOUS
 10
221.7050058869
 20
235.7657605587
 11
219.2050058869
 21
235.7657605587
  0
LINE
  5
300
100
AcDbEntity
  8
X15135000_BL3
100
AcDbLine
 62
3
  6
CONTINUOUS
 10
160.2050058869
 20
235.7657605587
 11
157.7050058869
 21
235.7657605587
  0
LINE
  5
301
100
AcDbEntity
  8
X15135000_BL3
100
AcDbLine
 62
7
  6
CONTINUOUS
 10
179.2050058869
 20
50.0485941295
 11
179.2050058869
 21
50.2985941295
  0
LINE
  5
302
100
AcDbEntity
  8
X15135000_BL3
100
AcDbLine
 62
7
  6
CONTINUOUS
 10
186.2050058869
 20
50.0485941295
 11
186.2050058869
 21
50.2985941295
  0
LINE
  5
303
100
AcDbEntity
  8
X15135000_BL3
100
AcDbLine
 62
3
  6
CONTINUOUS
 10
176.4550058869
 20
50.0485941295
 11
178.2050058869
 21
50.0485941295
  0
LINE
  5
304
100
AcDbEntity
  8
X15135000_BL3
100
AcDbLine
 62
3
  6
CONTINUOUS
 10
187.2050058869
 20
50.0485941295
 11
188.9550058869
 21
50.0485941295
  0
ARC
  5
305
100
AcDbEntity
  8
X15135000_BL3
100
AcDbCircle
 62
7
  6
CONTINUOUS
 10
306.9946250016
 20
235.2657605587
 40
2.5
100
AcDbArc
 50
90.0
 51
180.0
  0
ARC
  5
306
100
AcDbEntity
  8
X15135000_BL3
100
AcDbCircle
 62
3
  6
CONTINUOUS
 10
306.9946250016
 20
235.2657605587
 40
0.5
100
AcDbArc
 50
90.0
 51
180.0
  0
ENDBLK
  5
307
100
AcDbEntity
  8
0
  6
BYBLOCK
 62
0
100
AcDbBlockEnd
  0
BLOCK
  5
308
100
AcDbEntity
  8
X15302000_BL4
100
AcDbBlockBegin
  2
X15302000_BL4
 70
64
 10
247.5998154443
 20
142.9071773441
  3
X15302000_BL4
  1

  0
LINE
  5
309
100
AcDbEntity
  8
X15302000_BL4
100
AcDbLine
 62
7
  6
CONTINUOUS
 10
306.4946250016
 20
247.7657605587
 11
306.4946250016
 21
240.7657605587
  0
LINE
  5
30A
100
AcDbEntity
  8
X15302000_BL4
100
AcDbLine
 62
7
  6
CONTINUOUS
 10
306.4946250016
 20
237.7657605587
 11
306.4946250016
 21
237.7097816731
  0
LINE
  5
30B
100
AcDbEntity
  8
X15302000_BL4
100
AcDbLine
 62
7
  6
CONTINUOUS
 10
307.9946250016
 20
247.7657605587
 11
307.9946250016
 21
240.7657605587
  0
LINE
  5
30C
100
AcDbEntity
  8
X15302000_BL4
100
AcDbLine
 62
7
  6
CONTINUOUS
 10
307.9946250016
 20
235.7657605587
 11
307.9946250016
 21
235.0157605587
  0
LINE
  5
30D
100
AcDbEntity
  8
X15302000_BL4
100
AcDbLine
 62
7
  6
CONTINUOUS
 10
316.9946250016
 20
242.8582832706
 11
316.9946250016
 21
240.7657605587
  0
LINE
  5
30E
100
AcDbEntity
  8
X15302000_BL4
100
AcDbLine
 62
7
  6
CONTINUOUS
 10
316.9946250016
 20
235.7657605587
 11
316.9946250016
 21
235.0157605587
  0
LINE
  5
30F
100
AcDbEntity
  8
X15302000_BL4
100
AcDbLine
 62
7
  6
CONTINUOUS
 10
318.4946250016
 20
241.9922578668
 11
318.4946250016
 21
240.7657605587
  0
LINE
  5
310
100
AcDbEntity
  8
X15302000_BL4
100
AcDbLine
 62
7
  6
CONTINUOUS
 10
318.4946250016
 20
241.9922578668
 11
308.4946250016
 21
247.7657605587
  0
LINE
  5
311
100
AcDbEntity
  8
X15302000_BL4
100
AcDbLine
 62
7
  6
CONTINUOUS
 10
308.4946250016
 20
247.7657605587
 11
306.4946250016
 21
247.7657605587
  0
LWPOLYLINE
  5
312
100
AcDbEntity
  8
X15302000_BL4
100
AcDbPolyline
 62
7
  6
CONTINUOUS
 90
5
 70
0
 10
188.7050058869
 20
242.8582832706
 10
188.3634101692
 20
242.614909251
 10
187.9995449299
 20
242.3894470105
 10
187.6134101692
 20
242.1818965491
 10
187.2050058869
 20
241.9922578668
  0
LWPOLYLINE
  5
313
100
AcDbEntity
  8
X15302000_BL4
100
AcDbPolyline
 62
7
  6
CONTINUOUS
 90
9
 70
0
 10
180.7050059323
 20
245.456346428
 10
180.7523402069
 20
245.6984902373
 10
180.8801743998
 20
245.9289375332
 10
181.0850884143
 20
246.1320593368
 10
181.3484080595
 20
246.3048173644
 10
181.654242842
 20
246.4386078307
 10
181.9908214693
 20
246.5349296184
 10
182.3389423022
 20
246.5922425509
 10
182.7050058869
 20
246.6110600204
  0
LINE
  5
314
100
AcDbEntity
  8
X15302000_BL4
100
AcDbLine
 62
7
  6
CONTINUOUS
 10
176.7050058869
 20
237.7657605587
 11
176.7050058869
 21
237.5157605587
  0
LINE
  5
315
100
AcDbEntity
  8
X15302000_BL4
100
AcDbLine
 62
7
  6
CONTINUOUS
 10
176.7050058869
 20
240.7657605587
 11
176.7050058869
 21
247.7657605587
  0
LINE
  5
316
100
AcDbEntity
  8
X15302000_BL4
100
AcDbLine
 62
7
  6
CONTINUOUS
 10
178.2050058869
 20
241.9922578668
 11
178.2050058869
 21
240.7657605587
  0
LINE
  5
317
100
AcDbEntity
  8
X15302000_BL4
100
AcDbLine
 62
7
  6
CONTINUOUS
 10
178.2050058869
 20
237.7657605587
 11
178.2050058869
 21
237.5157605587
  0
LWPOLYLINE
  5
318
100
AcDbEntity
  8
X15302000_BL4
100
AcDbPolyline
 62
7
  6
CONTINUOUS
 90
9
 70
0
 10
184.7050058416
 20
245.456372536
 10
184.657671567
 20
245.2142287267
 10
184.5298373741
 20
244.9837814307
 10
184.3249233596
 20
244.7806596272
 10
184.0616037144
 20
244.6079015996
 10
183.7557689319
 20
244.4741111333
 10
183.4191903046
 20
244.3777893455
 10
183.0710694717
 20
244.3204764131
 10
182.7050058869
 20
244.3016589436
  0
LINE
  5
319
100
AcDbEntity
  8
X15302000_BL4
100
AcDbLine
 62
7
  6
CONTINUOUS
 10
187.2050058869
 20
241.9922578668
 11
187.2050058869
 21
240.7657605587
  0
LINE
  5
31A
100
AcDbEntity
  8
X15302000_BL4
100
AcDbLine
 62
7
  6
CONTINUOUS
 10
187.2050058869
 20
237.7657605587
 11
187.2050058869
 21
237.5157605587
  0
LINE
  5
31B
100
AcDbEntity
  8
X15302000_BL4
100
AcDbLine
 62
7
  6
CONTINUOUS
 10
188.7050058869
 20
237.7657605587
 11
188.7050058869
 21
237.5157605587
  0
LINE
  5
31C
100
AcDbEntity
  8
X15302000_BL4
100
AcDbLine
 62
7
  6
CONTINUOUS
 10
188.7050058869
 20
240.7657605587
 11
188.7050058869
 21
247.7657605587
  0
LINE
  5
31D
100
AcDbEntity
  8
X15302000_BL4
100
AcDbLine
 62
7
  6
CONTINUOUS
 10
186.2050058869
 20
231.7657605587
 11
179.2050058869
 21
231.7657605587
  0
LWPOLYLINE
  5
31E
100
AcDbEntity
  8
X15302000_BL4
100
AcDbPolyline
 62
7
  6
CONTINUOUS
 90
5
 70
0
 10
178.2050058869
 20
241.9922578668
 10
177.7966039553
 20
242.1818951965
 10
177.4104699781
 20
242.389445207
 10
177.0466039553
 20
242.6149078984
 10
176.7050058869
 20
242.8582832706
  0
LINE
  5
31F
100
AcDbEntity
  8
X15302000_BL4
100
AcDbLine
 62
7
  6
CONTINUOUS
 10
187.2050058869
 20
241.9922578668
 11
178.2050058869
 21
241.9922578668
  0
LWPOLYLINE
  5
320
100
AcDbEntity
  8
X15302000_BL4
100
AcDbPolyline
 62
7
  6
CONTINUOUS
 90
9
 70
0
 10
182.7050058869
 20
244.3016589436
 10
182.3391469101
 20
244.3204654074
 10
181.991240177
 20
244.3776969596
 10
181.6549333837
 20
244.4738449608
 10
181.3492834419
 20
244.6074353291
 10
181.0858911041
 20
244.7800260299
 10
180.8807725445
 20
244.983012283
 10
180.7526593359
 20
245.2133733331
 10
180.7050059323
 20
245.456346428
  0
LINE
  5
321
100
AcDbEntity
  8
X15302000_BL4
100
AcDbLine
 62
7
  6
CONTINUOUS
 10
176.7050058869
 20
247.7657605587
 11
188.7050058869
 21
247.7657605587
  0
LWPOLYLINE
  5
322
100
AcDbEntity
  8
X15302000_BL4
100
AcDbPolyline
 62
7
  6
CONTINUOUS
 90
9
 70
0
 10
182.7050058869
 20
246.6110600204
 10
183.0708648638
 20
246.5922535565
 10
183.4187715969
 20
246.5350220043
 10
183.7550783902
 20
246.4388740032
 10
184.060728332
 20
246.3052836349
 10
184.3241206698
 20
246.1326929341
 10
184.5292392294
 20
245.929706681
 10
184.657352438
 20
245.6993456308
 10
184.7050058416
 20
245.456372536
  0
LINE
  5
323
100
AcDbEntity
  8
X15302000_BL4
100
AcDbLine
 62
7
  6
CONTINUOUS
 10
187.2050058869
 20
38.0485941295
 11
178.2050058869
 21
38.0485941295
  0
LINE
  5
324
100
AcDbEntity
  8
X15302000_BL4
100
AcDbLine
 62
7
  6
CONTINUOUS
 10
176.7050058869
 20
39.5485941295
 11
176.7050058869
 21
48.5485941295
  0
LINE
  5
325
100
AcDbEntity
  8
X15302000_BL4
100
AcDbLine
 62
7
  6
CONTINUOUS
 10
176.7050058869
 20
48.0485941295
 11
188.7050058869
 21
48.0485941295
  0
LINE
  5
326
100
AcDbEntity
  8
X15302000_BL4
100
AcDbLine
 62
7
  6
CONTINUOUS
 10
178.2050058869
 20
50.0485941295
 11
187.2050058869
 21
50.0485941295
  0
LINE
  5
327
100
AcDbEntity
  8
X15302000_BL4
100
AcDbLine
 62
7
  6
CONTINUOUS
 10
188.7050058869
 20
39.5485941295
 11
188.7050058869
 21
48.5485941295
  0
ARC
  5
328
100
AcDbEntity
  8
X15302000_BL4
100
AcDbCircle
 62
7
  6
CONTINUOUS
 10
182.7050058869
 20
44.0485941295
 40
7.5
100
AcDbArc
 50
306.8698976458
 51
323.1301023542
  0
ARC
  5
329
100
AcDbEntity
  8
X15302000_BL4
100
AcDbCircle
 62
7
  6
CONTINUOUS
 10
182.7050058869
 20
44.0485941295
 40
7.5
100
AcDbArc
 50
216.8698976458
 51
233.1301023542
  0
ARC
  5
32A
100
AcDbEntity
  8
X15302000_BL4
100
AcDbCircle
 62
7
  6
CONTINUOUS
 10
182.7050058869
 20
44.0485941295
 40
7.5
100
AcDbArc
 50
126.8698976458
 51
143.1301023542
  0
ARC
  5
32B
100
AcDbEntity
  8
X15302000_BL4
100
AcDbCircle
 62
7
  6
CONTINUOUS
 10
182.7050058869
 20
44.0485941295
 40
7.5
100
AcDbArc
 50
36.8698976458
 51
53.1301023542
  0
CIRCLE
  5
32C
100
AcDbEntity
  8
X15302000_BL4
100
AcDbCircle
 62
7
  6
CONTINUOUS
 10
182.7050058869
 20
44.0485941295
 40
2.0
  0
ENDBLK
  5
32D
100
AcDbEntity
  8
0
  6
BYBLOCK
 62
0
100
AcDbBlockEnd
  0
BLOCK
  5
32E
100
AcDbEntity
  8
C00944022_BL5
100
AcDbBlockBegin
  2
C00944022_BL5
 70
64
 10
257.5998154443
 20
138.4071773441
  3
C00944022_BL5
  1

  0
LINE
  5
32F
100
AcDbEntity
  8
C00944022_BL5
100
AcDbLine
 62
7
  6
CONTINUOUS
 10
307.4946250016
 20
180.5396219741
 11
307.4946250016
 21
202.7657605587
  0
LINE
  5
330
100
AcDbEntity
  8
C00944022_BL5
100
AcDbLine
 62
7
  6
CONTINUOUS
 10
307.4946250016
 20
180.5396219741
 11
307.4946250016
 21
202.7657605587
  0
LINE
  5
331
100
AcDbEntity
  8
C00944022_BL5
100
AcDbLine
 62
7
  6
CONTINUOUS
 10
317.4946250016
 20
177.8245712085
 11
317.4946250016
 21
202.7657605587
  0
LINE
  5
332
100
AcDbEntity
  8
C00944022_BL5
100
AcDbLine
 62
7
  6
CONTINUOUS
 10
317.4946250016
 20
177.8245712085
 11
317.4946250016
 21
202.7657605587
  0
LINE
  5
333
100
AcDbEntity
  8
C00944022_BL5
100
AcDbLine
 62
7
  6
CONTINUOUS
 10
197.7050058869
 20
175.9030284886
 11
197.7050058869
 21
202.7657605587
  0
LINE
  5
334
100
AcDbEntity
  8
C00944022_BL5
100
AcDbLine
 62
7
  6
CONTINUOUS
 10
197.7050058869
 20
222.0320516488
 11
197.7050058869
 21
231.2343382887
  0
LINE
  5
335
100
AcDbEntity
  8
C00944022_BL5
100
AcDbLine
 62
7
  6
CONTINUOUS
 10
197.7050058869
 20
234.2657605587
 11
197.7050058869
 21
237.7657605587
  0
LINE
  5
336
100
AcDbEntity
  8
C00944022_BL5
100
AcDbLine
 62
7
  6
CONTINUOUS
 10
207.7050058869
 20
170.9619364694
 11
207.7050058869
 21
202.7657605587
  0
LINE
  5
337
100
AcDbEntity
  8
C00944022_BL5
100
AcDbLine
 62
7
  6
CONTINUOUS
 10
207.7050058869
 20
222.5561294416
 11
207.7050058869
 21
229.4710684816
  0
LINE
  5
338
100
AcDbEntity
  8
C00944022_BL5
100
AcDbLine
 62
7
  6
CONTINUOUS
 10
207.7050058869
 20
237.5157605587
 11
207.7050058869
 21
237.7657605587
  0
CIRCLE
  5
339
100
AcDbEntity
  8
C00944022_BL5
100
AcDbCircle
 62
7
  6
CONTINUOUS
 10
202.7050058869
 20
44.0485941295
 40
5.0
  0
ENDBLK
  5
33A
100
AcDbEntity
  8
0
  6
BYBLOCK
 62
0
100
AcDbBlockEnd
  0
BLOCK
  5
33B
100
AcDbEntity
  8
Y00917152_BL6
100
AcDbBlockBegin
  2
Y00917152_BL6
 70
64
 10
253.2482851388
 20
142.3299583582
  3
Y00917152_BL6
  1

  0
LINE
  5
33C
100
AcDbEntity
  8
Y00917152_BL6
100
AcDbLine
 62
7
  6
CENTER
 10
312.4946250016
 20
248.7657605587
 11
312.4946250016
 21
175.5853583784
  0
LINE
  5
33D
100
AcDbEntity
  8
Y00917152_BL6
100
AcDbLine
 62
7
  6
CENTER
 10
202.7050058869
 20
247.5187225649
 11
202.7050058869
 21
155.4820921144
  0
LINE
  5
33E
100
AcDbEntity
  8
Y00917152_BL6
100
AcDbLine
 62
7
  6
CENTER
 10
202.7050058869
 20
44.0485941295
 11
194.001945276
 21
44.0485941295
  0
LINE
  5
33F
100
AcDbEntity
  8
Y00917152_BL6
100
AcDbLine
 62
7
  6
CENTER
 10
202.7050058869
 20
44.0485941295
 11
250.6362227501
 21
44.0485941295
  0
LINE
  5
340
100
AcDbEntity
  8
Y00917152_BL6
100
AcDbLine
 62
7
  6
CENTER
 10
202.7050058869
 20
44.0485941295
 11
202.7050058869
 21
35.8941561576
  0
LINE
  5
341
100
AcDbEntity
  8
Y00917152_BL6
100
AcDbLine
 62
7
  6
CENTER
 10
202.7050058869
 20
44.0485941295
 11
202.7050058869
 21
51.359260176
  0
ENDBLK
  5
342
100
AcDbEntity
  8
0
  6
BYBLOCK
 62
0
100
AcDbBlockEnd
  0
BLOCK
  5
343
100
AcDbEntity
  8
X00941000_BL7
100
AcDbBlockBegin
  2
X00941000_BL7
 70
64
 10
256.793726531
 20
141.4571773441
  3
X00941000_BL7
  1

  0
LINE
  5
344
100
AcDbEntity
  8
X00941000_BL7
100
AcDbLine
 62
7
  6
CONTINUOUS
 10
315.662574194
 20
243.7657605587
 11
315.7824471751
 21
243.5581344651
  0
LINE
  5
345
100
AcDbEntity
  8
X00941000_BL7
100
AcDbLine
 62
7
  6
CONTINUOUS
 10
315.4228282318
 20
243.7657605587
 11
315.662574194
 21
243.7657605587
  0
LINE
  5
346
100
AcDbEntity
  8
X00941000_BL7
100
AcDbLine
 62
7
  6
CONTINUOUS
 10
199.5370566945
 20
243.7657605587
 11
197.8050058869
 21
240.7657605587
  0
LINE
  5
347
100
AcDbEntity
  8
X00941000_BL7
100
AcDbLine
 62
7
  6
CONTINUOUS
 10
199.5381479052
 20
243.7657605587
 11
205.8718638687
 21
243.7657605587
  0
LINE
  5
348
100
AcDbEntity
  8
X00941000_BL7
100
AcDbLine
 62
7
  6
CONTINUOUS
 10
205.8729550794
 20
243.7657605587
 11
207.6050058869
 21
240.7657605587
  0
CIRCLE
  5
349
100
AcDbEntity
  8
X00941000_BL7
100
AcDbCircle
 62
7
  6
CONTINUOUS
 10
202.7050058869
 20
44.0485941295
 40
4.9
  0
CIRCLE
  5
34A
100
AcDbEntity
  8
X00941000_BL7
100
AcDbCircle
 62
7
  6
CONTINUOUS
 10
202.7050058869
 20
44.0485941295
 40
3.1679491924
  0
ENDBLK
  5
34B
100
AcDbEntity
  8
0
  6
BYBLOCK
 62
0
100
AcDbBlockEnd
  0
BLOCK
  5
34C
100
AcDbEntity
  8
X01822000_BL8
100
AcDbBlockBegin
  2
X01822000_BL8
 70
64
 10
166.7050058869
 20
225.7657605587
  3
X01822000_BL8
  1

  0
LINE
  5
34D
100
AcDbEntity
  8
X01822000_BL8
100
AcDbLine
 62
9
  6
CONTINUOUS
 10
168.1104819205
 20
227.2233019091
 11
167.3856006414
 21
226.4984206301
  0
LINE
  5
34E
100
AcDbEntity
  8
X01822000_BL8
100
AcDbLine
 62
9
  6
CONTINUOUS
 10
165.2474645366
 20
224.3602845252
 11
165.9723458156
 21
225.0851658043
  0
LINE
  5
34F
100
AcDbEntity
  8
X01822000_BL8
100
AcDbLine
 62
9
  6
CONTINUOUS
 10
168.1625472373
 20
227.1712365923
 11
167.4376659583
 21
226.4463553132
  0
LINE
  5
350
100
AcDbEntity
  8
X01822000_BL8
100
AcDbLine
 62
9
  6
CONTINUOUS
 10
165.2995298534
 20
224.3082192083
 11
166.0244111325
 21
225.0331004874
  0
LWPOLYLINE
  5
351
100
AcDbEntity
  8
X01822000_BL8
100
AcDbPolyline
 62
7
  6
CONTINUOUS
 90
46
 70
0
 10
166.2050058869
 20
224.899735155
 10
165.2944948756
 20
224.3049587143
 10
165.2895959781
 20
224.301844898
 10
165.2848337617
 20
224.2988779805
 10
165.2802064244
 20
224.2960572988
 10
165.2757130658
 20
224.2933824106
 10
165.2713515828
 20
224.2908528748
 10
165.2671263325
 20
224.2884710162
 10
165.2630170342
 20
224.2862280944
 10
165.2590052041
 20
224.2841145239
 10
165.2550898095
 20
224.2821351642
 10
165.2512564356
 20
224.280286252
 10
165.2475267456
 20
224.2785840704
 10
165.2439185649
 20
224.2770416425
 10
165.2404289915
 20
224.2756649856
 10
165.2370667811
 20
224.2744609741
 10
165.2338147864
 20
224.2734400598
 10
165.2306649114
 20
224.2726022538
 10
165.2275987577
 20
224.2719857513
 10
165.2245828212
 20
224.271592198
 10
165.2216543224
 20
224.2715312536
 10
165.2187700473
 20
224.2718742588
 10
165.2161377961
 20
224.2727378162
 10
165.2139177072
 20
224.2743127388
 10
165.2122095523
 20
224.2764477366
 10
165.2112233287
 20
224.2791197681
 10
165.2107884977
 20
224.282134901
 10
165.2108357497
 20
224.285286855
 10
165.2112713934
 20
224.2885896331
 10
165.2119861791
 20
224.2919891098
 10
165.2129574717
 20
224.2954833906
 10
165.2141300956
 20
224.2990513318
 10
165.2154924226
 20
224.3026965546
 10
165.2170188664
 20
224.3064191475
 10
165.2186961272
 20
224.3102085651
 10
165.22050753
 20
224.3140594893
 10
165.222437614
 20
224.3179563278
 10
165.2244649078
 20
224.3218772185
 10
165.2265907682
 20
224.3258356529
 10
165.228806109
 20
224.329830636
 10
165.2311207883
 20
224.3338837652
 10
165.2335388032
 20
224.3380113951
 10
165.2360686498
 20
224.3422282585
 10
165.2387170273
 20
224.3465498865
 10
165.2414933237
 20
224.3509902388
 10
165.2444106127
 20
224.3555708437
  0
LWPOLYLINE
  5
352
100
AcDbEntity
  8
X01822000_BL8
100
AcDbPolyline
 62
7
  6
CONTINUOUS
 90
44
 70
0
 10
167.2050058869
 20
226.6317859625
 10
168.1157029966
 20
227.2266817989
 10
168.1207780796
 20
227.2299040733
 10
168.1257066444
 20
227.2329685871
 10
168.1304902661
 20
227.2358757759
 10
168.1351284132
 20
227.2386252647
 10
168.1396268808
 20
227.2412193409
 10
168.143985327
 20
227.2436579486
 10
168.1482216305
 20
227.245947743
 10
168.1523533101
 20
227.2480973439
 10
168.1563811039
 20
227.2501008015
 10
168.1603202164
 20
227.2519613745
 10
168.1641447664
 20
227.2536600578
 10
168.1678304983
 20
227.255180696
 10
168.1713877392
 20
227.2565179993
 10
168.1748118657
 20
227.2576670988
 10
168.1781234741
 20
227.2586105754
 10
168.1813385686
 20
227.2593500423
 10
168.1844663016
 20
227.259823533
 10
168.1875503682
 20
227.2600213837
 10
168.1905031439
 20
227.2597883008
 10
168.1933419081
 20
227.2589772659
 10
168.1957956437
 20
227.2575537899
 10
168.1975777981
 20
227.2553308277
 10
168.1987522563
 20
227.2526190287
 10
168.1992197535
 20
227.2496496692
 10
168.1991831856
 20
227.2464738236
 10
168.1988058448
 20
227.2432441445
 10
168.1981072773
 20
227.2398871744
 10
168.1971586805
 20
227.2363749365
 10
168.1959683925
 20
227.232723641
 10
168.1945596939
 20
227.228927439
 10
168.1929589542
 20
227.2250245306
 10
168.1912031445
 20
227.2210634283
 10
168.1892837402
 20
227.217007346
 10
168.1872001859
 20
227.2128292575
 10
168.184965546
 20
227.2085483953
 10
168.1825886502
 20
227.2041704402
 10
168.1800816476
 20
227.1997090201
 10
168.177460677
 20
227.1951834222
 10
168.1747225997
 20
227.190582349
 10
168.1718744466
 20
227.1859092544
 10
168.1689018482
 20
227.1811391713
 10
168.1657912752
 20
227.1762453069
  0
LINE
  5
353
100
AcDbEntity
  8
X01822000_BL8
100
AcDbLine
 62
7
  6
CONTINUOUS
 10
165.8389804832
 20
225.2657605587
 11
165.2444106127
 21
224.3555708437
  0
LINE
  5
354
100
AcDbEntity
  8
X01822000_BL8
100
AcDbLine
 62
7
  6
CONTINUOUS
 10
167.5710312907
 20
226.2657605587
 11
168.1657912752
 21
227.1762453069
  0
LINE
  5
355
100
AcDbEntity
  8
X01822000_BL8
100
AcDbLine
 62
7
  6
CONTINUOUS
 10
166.2050058869
 20
227.9081890873
 11
166.2050058869
 21
226.6317859625
  0
LINE
  5
356
100
AcDbEntity
  8
X01822000_BL8
100
AcDbLine
 62
7
  6
CONTINUOUS
 10
166.2050058869
 20
224.899735155
 11
166.2050058869
 21
223.6233320302
  0
LINE
  5
357
100
AcDbEntity
  8
X01822000_BL8
100
AcDbLine
 62
7
  6
CENTER
 10
166.7050058869
 20
225.7657605587
 11
166.7050058869
 21
220.7656605587
  0
LINE
  5
358
100
AcDbEntity
  8
X01822000_BL8
100
AcDbLine
 62
7
  6
CENTER
 10
166.7050058869
 20
225.7657605587
 11
166.7050058869
 21
230.7658605587
  0
LINE
  5
359
100
AcDbEntity
  8
X01822000_BL8
100
AcDbLine
 62
7
  6
CONTINUOUS
 10
167.2050058869
 20
223.6233320302
 11
167.2050058869
 21
224.899735155
  0
LINE
  5
35A
100
AcDbEntity
  8
X01822000_BL8
100
AcDbLine
 62
7
  6
CONTINUOUS
 10
167.2050058869
 20
226.6317859625
 11
167.2050058869
 21
227.9081890873
  0
LWPOLYLINE
  5
35B
100
AcDbEntity
  8
X01822000_BL8
100
AcDbPolyline
 62
7
  6
CONTINUOUS
 90
46
 70
0
 10
167.5710312907
 20
225.2657605587
 10
168.1658077314
 20
224.3552495474
 10
168.1689215477
 20
224.3503506499
 10
168.1718884652
 20
224.3455884335
 10
168.1747091469
 20
224.3409610962
 10
168.1773840351
 20
224.3364677376
 10
168.1799135709
 20
224.3321062546
 10
168.1822954295
 20
224.3278810043
 10
168.1845383513
 20
224.323771706
 10
168.1866519218
 20
224.3197598759
 10
168.1886312815
 20
224.3158444813
 10
168.1904801937
 20
224.3120111074
 10
168.1921823753
 20
224.3082814174
 10
168.1937248032
 20
224.3046732367
 10
168.1951014601
 20
224.3011836633
 10
168.1963054716
 20
224.2978214529
 10
168.1973263859
 20
224.2945694582
 10
168.1981641919
 20
224.2914195832
 10
168.1987806944
 20
224.2883534295
 10
168.1991742477
 20
224.2853374929
 10
168.1992351921
 20
224.2824089942
 10
168.1988921869
 20
224.2795247191
 10
168.1980286295
 20
224.2768924679
 10
168.1964537069
 20
224.274672379
 10
168.194318709
 20
224.2729642241
 10
168.1916466776
 20
224.2719780005
 10
168.1886315447
 20
224.2715431695
 10
168.1854795907
 20
224.2715904215
 10
168.1821768126
 20
224.2720260652
 10
168.1787773358
 20
224.2727408509
 10
168.1752830551
 20
224.2737121435
 10
168.1717151139
 20
224.2748847673
 10
168.168069891
 20
224.2762470944
 10
168.1643472982
 20
224.2777735382
 10
168.1605578806
 20
224.279450799
 10
168.1567069564
 20
224.2812622018
 10
168.1528101179
 20
224.2831922858
 10
168.1488892272
 20
224.2852195795
 10
168.1449307928
 20
224.2873454399
 10
168.1409358097
 20
224.2895607808
 10
168.1368826805
 20
224.2918754601
 10
168.1327550506
 20
224.294293475
 10
168.1285381872
 20
224.2968233216
 10
168.1242165591
 20
224.2994716991
 10
168.1197762069
 20
224.3022479955
 10
168.115195602
 20
224.3051652845
  0
LWPOLYLINE
  5
35C
100
AcDbEntity
  8
X01822000_BL8
100
AcDbPolyline
 62
7
  6
CONTINUOUS
 90
44
 70
0
 10
165.8389804832
 20
226.2657605587
 10
165.2440846468
 20
227.1764576684
 10
165.2408623724
 20
227.1815327514
 10
165.2377978586
 20
227.1864613161
 10
165.2348906698
 20
227.1912449379
 10
165.232141181
 20
227.195883085
 10
165.2295471048
 20
227.2003815526
 10
165.2271084971
 20
227.2047399988
 10
165.2248187027
 20
227.2089763023
 10
165.2226691018
 20
227.2131079819
 10
165.2206656442
 20
227.2171357757
 10
165.2188050712
 20
227.2210748882
 10
165.2171063879
 20
227.2248994382
 10
165.2155857497
 20
227.2285851701
 10
165.2142484464
 20
227.232142411
 10
165.2130993469
 20
227.2355665375
 10
165.2121558703
 20
227.2388781459
 10
165.2114164034
 20
227.2420932404
 10
165.2109429127
 20
227.2452209734
 10
165.210745062
 20
227.24830504
 10
165.2109781449
 20
227.2512578157
 10
165.2117891798
 20
227.2540965799
 10
165.2132126558
 20
227.2565503154
 10
165.215435618
 20
227.2583324699
 10
165.218147417
 20
227.2595069281
 10
165.2211167765
 20
227.2599744253
 10
165.2242926221
 20
227.2599378574
 10
165.2275223012
 20
227.2595605166
 10
165.2308792713
 20
227.2588619491
 10
165.2343915092
 20
227.2579133523
 10
165.2380428047
 20
227.2567230643
 10
165.2418390067
 20
227.2553143657
 10
165.2457419151
 20
227.253713626
 10
165.2497030174
 20
227.2519578162
 10
165.2537590997
 20
227.250038412
 10
165.2579371882
 20
227.2479548577
 10
165.2622180504
 20
227.2457202178
 10
165.2665960055
 20
227.2433433219
 10
165.2710574256
 20
227.2408363194
 10
165.2755830235
 20
227.2382153488
 10
165.2801840967
 20
227.2354772715
 10
165.2848571913
 20
227.2326291184
 10
165.2896272744
 20
227.22965652
 10
165.2945211388
 20
227.226545947
  0
LINE
  5
35D
100
AcDbEntity
  8
X01822000_BL8
100
AcDbLine
 62
9
  6
CONTINUOUS
 10
165.2474645366
 20
227.1712365923
 11
165.9723458156
 21
226.4463553132
  0
LINE
  5
35E
100
AcDbEntity
  8
X01822000_BL8
100
AcDbLine
 62
9
  6
CONTINUOUS
 10
168.1104819205
 20
224.3082192083
 11
167.3856006414
 21
225.0331004874
  0
LINE
  5
35F
100
AcDbEntity
  8
X01822000_BL8
100
AcDbLine
 62
9
  6
CONTINUOUS
 10
165.2995298534
 20
227.2233019091
 11
166.0244111325
 21
226.4984206301
  0
LINE
  5
360
100
AcDbEntity
  8
X01822000_BL8
100
AcDbLine
 62
9
  6
CONTINUOUS
 10
168.1625472373
 20
224.3602845252
 11
167.4376659583
 21
225.0851658043
  0
LINE
  5
361
100
AcDbEntity
  8
X01822000_BL8
100
AcDbLine
 62
7
  6
CONTINUOUS
 10
167.2050058869
 20
224.899735155
 11
168.115195602
 21
224.3051652845
  0
LINE
  5
362
100
AcDbEntity
  8
X01822000_BL8
100
AcDbLine
 62
7
  6
CONTINUOUS
 10
166.2050058869
 20
226.6317859625
 11
165.2945211388
 21
227.226545947
  0
LINE
  5
363
100
AcDbEntity
  8
X01822000_BL8
100
AcDbLine
 62
7
  6
CONTINUOUS
 10
164.5625773584
 20
225.2657605587
 11
165.8389804832
 21
225.2657605587
  0
LINE
  5
364
100
AcDbEntity
  8
X01822000_BL8
100
AcDbLine
 62
7
  6
CONTINUOUS
 10
167.5710312907
 20
225.2657605587
 11
168.8474344155
 21
225.2657605587
  0
LINE
  5
365
100
AcDbEntity
  8
X01822000_BL8
100
AcDbLine
 62
7
  6
CENTER
 10
166.7050058869
 20
225.7657605587
 11
161.7049058869
 21
225.7657605587
  0
LINE
  5
366
100
AcDbEntity
  8
X01822000_BL8
100
AcDbLine
 62
7
  6
CENTER
 10
166.7050058869
 20
225.7657605587
 11
171.7051058869
 21
225.7657605587
  0
LINE
  5
367
100
AcDbEntity
  8
X01822000_BL8
100
AcDbLine
 62
7
  6
CONTINUOUS
 10
168.8474344155
 20
226.2657605587
 11
167.5710312907
 21
226.2657605587
  0
LINE
  5
368
100
AcDbEntity
  8
X01822000_BL8
100
AcDbLine
 62
7
  6
CONTINUOUS
 10
165.8389804832
 20
226.2657605587
 11
164.5625773584
 21
226.2657605587
  0
CIRCLE
  5
369
100
AcDbEntity
  8
X01822000_BL8
100
AcDbCircle
 62
7
  6
CONTINUOUS
 10
166.7050058869
 20
225.7657605587
 40
3.4
  0
ARC
  5
36A
100
AcDbEntity
  8
X01822000_BL8
100
AcDbCircle
 62
7
  6
CONTINUOUS
 10
166.7050058869
 20
225.7657605587
 40
2.2
100
AcDbArc
 50
256.8634412131
 51
283.1365587869
  0
ARC
  5
36B
100
AcDbEntity
  8
X01822000_BL8
100
AcDbCircle
 62
7
  6
CONTINUOUS
 10
166.7050058869
 20
225.7657605587
 40
2.2
100
AcDbArc
 50
346.8634412131
 51
13.1365587869
  0
ARC
  5
36C
100
AcDbEntity
  8
X01822000_BL8
100
AcDbCircle
 62
7
  6
CONTINUOUS
 10
166.7050058869
 20
225.7657605587
 40
2.2
100
AcDbArc
 50
166.8634412131
 51
193.1365587869
  0
ARC
  5
36D
100
AcDbEntity
  8
X01822000_BL8
100
AcDbCircle
 62
7
  6
CONTINUOUS
 10
166.7050058869
 20
225.7657605587
 40
2.2
100
AcDbArc
 50
76.8634412131
 51
103.1365587869
  0
ARC
  5
36E
100
AcDbEntity
  8
X01822000_BL8
100
AcDbCircle
 62
7
  6
CONTINUOUS
 10
166.7050058869
 20
225.7657605587
 40
1.25
100
AcDbArc
 50
66.4218215218
 51
113.5781784782
  0
ARC
  5
36F
100
AcDbEntity
  8
X01822000_BL8
100
AcDbCircle
 62
7
  6
CONTINUOUS
 10
166.7050058869
 20
225.7657605587
 40
1.25
100
AcDbArc
 50
336.4218215218
 51
23.5781784782
  0
ARC
  5
370
100
AcDbEntity
  8
X01822000_BL8
100
AcDbCircle
 62
7
  6
CONTINUOUS
 10
166.7050058869
 20
225.7657605587
 40
1.25
100
AcDbArc
 50
246.4218215218
 51
293.5781784782
  0
ARC
  5
371
100
AcDbEntity
  8
X01822000_BL8
100
AcDbCircle
 62
7
  6
CONTINUOUS
 10
166.7050058869
 20
225.7657605587
 40
1.25
100
AcDbArc
 50
156.4218215218
 51
203.5781784782
  0
ARC
  5
372
100
AcDbEntity
  8
X01822000_BL8
100
AcDbCircle
 62
7
  6
CONTINUOUS
 10
166.7050058869
 20
225.7657605587
 40
1.0
100
AcDbArc
 50
30.0
 51
60.0
  0
ARC
  5
373
100
AcDbEntity
  8
X01822000_BL8
100
AcDbCircle
 62
7
  6
CONTINUOUS
 10
166.7050058869
 20
225.7657605587
 40
1.0
100
AcDbArc
 50
120.0
 51
150.0
  0
ARC
  5
374
100
AcDbEntity
  8
X01822000_BL8
100
AcDbCircle
 62
7
  6
CONTINUOUS
 10
166.7050058869
 20
225.7657605587
 40
1.0
100
AcDbArc
 50
210.0
 51
240.0
  0
ARC
  5
375
100
AcDbEntity
  8
X01822000_BL8
100
AcDbCircle
 62
7
  6
CONTINUOUS
 10
166.7050058869
 20
225.7657605587
 40
1.0
100
AcDbArc
 50
300.0
 51
330.0
  0
ENDBLK
  5
376
100
AcDbEntity
  8
0
  6
BYBLOCK
 62
0
100
AcDbBlockEnd
  0
BLOCK
  5
377
100
AcDbEntity
  8
X01822000_BL9
100
AcDbBlockBegin
  2
X01822000_BL9
 70
64
 10
213.7050058869
 20
216.7657605587
  3
X01822000_BL9
  1

  0
LWPOLYLINE
  5
378
100
AcDbEntity
  8
X01822000_BL9
100
AcDbPolyline
 62
7
  6
CONTINUOUS
 90
46
 70
0
 10
213.2050058869
 20
215.899735155
 10
212.2944948756
 20
215.3049587143
 10
212.2895959781
 20
215.301844898
 10
212.2848337617
 20
215.2988779805
 10
212.2802064244
 20
215.2960572988
 10
212.2757130658
 20
215.2933824106
 10
212.2713515828
 20
215.2908528748
 10
212.2671263325
 20
215.2884710162
 10
212.2630170342
 20
215.2862280944
 10
212.2590052041
 20
215.2841145239
 10
212.2550898095
 20
215.2821351642
 10
212.2512564356
 20
215.280286252
 10
212.2475267456
 20
215.2785840704
 10
212.2439185649
 20
215.2770416425
 10
212.2404289915
 20
215.2756649856
 10
212.2370667811
 20
215.2744609741
 10
212.2338147864
 20
215.2734400598
 10
212.2306649114
 20
215.2726022538
 10
212.2275987577
 20
215.2719857513
 10
212.2245828212
 20
215.271592198
 10
212.2216543224
 20
215.2715312536
 10
212.2187700473
 20
215.2718742588
 10
212.2161377961
 20
215.2727378162
 10
212.2139177072
 20
215.2743127388
 10
212.2122095523
 20
215.2764477366
 10
212.2112233287
 20
215.2791197681
 10
212.2107884977
 20
215.282134901
 10
212.2108357497
 20
215.285286855
 10
212.2112713934
 20
215.2885896331
 10
212.2119861791
 20
215.2919891098
 10
212.2129574717
 20
215.2954833906
 10
212.2141300956
 20
215.2990513318
 10
212.2154924226
 20
215.3026965546
 10
212.2170188664
 20
215.3064191475
 10
212.2186961272
 20
215.3102085651
 10
212.22050753
 20
215.3140594893
 10
212.222437614
 20
215.3179563278
 10
212.2244649078
 20
215.3218772185
 10
212.2265907682
 20
215.3258356529
 10
212.228806109
 20
215.329830636
 10
212.2311207883
 20
215.3338837652
 10
212.2335388032
 20
215.3380113951
 10
212.2360686498
 20
215.3422282585
 10
212.2387170273
 20
215.3465498865
 10
212.2414933237
 20
215.3509902388
 10
212.2444106127
 20
215.3555708437
  0
LWPOLYLINE
  5
379
100
AcDbEntity
  8
X01822000_BL9
100
AcDbPolyline
 62
7
  6
CONTINUOUS
 90
44
 70
0
 10
214.2050058869
 20
217.6317859625
 10
215.1157029966
 20
218.2266817989
 10
215.1207780796
 20
218.2299040733
 10
215.1257066444
 20
218.2329685871
 10
215.1304902661
 20
218.2358757759
 10
215.1351284132
 20
218.2386252647
 10
215.1396268808
 20
218.2412193409
 10
215.143985327
 20
218.2436579486
 10
215.1482216305
 20
218.245947743
 10
215.1523533101
 20
218.2480973439
 10
215.1563811039
 20
218.2501008015
 10
215.1603202164
 20
218.2519613745
 10
215.1641447664
 20
218.2536600578
 10
215.1678304983
 20
218.255180696
 10
215.1713877392
 20
218.2565179993
 10
215.1748118657
 20
218.2576670988
 10
215.1781234741
 20
218.2586105754
 10
215.1813385686
 20
218.2593500423
 10
215.1844663016
 20
218.259823533
 10
215.1875503682
 20
218.2600213837
 10
215.1905031439
 20
218.2597883008
 10
215.1933419081
 20
218.2589772659
 10
215.1957956437
 20
218.2575537899
 10
215.1975777981
 20
218.2553308277
 10
215.1987522563
 20
218.2526190287
 10
215.1992197535
 20
218.2496496692
 10
215.1991831856
 20
218.2464738236
 10
215.1988058448
 20
218.2432441445
 10
215.1981072773
 20
218.2398871744
 10
215.1971586805
 20
218.2363749365
 10
215.1959683925
 20
218.232723641
 10
215.1945596939
 20
218.228927439
 10
215.1929589542
 20
218.2250245306
 10
215.1912031445
 20
218.2210634283
 10
215.1892837402
 20
218.217007346
 10
215.1872001859
 20
218.2128292575
 10
215.184965546
 20
218.2085483953
 10
215.1825886502
 20
218.2041704402
 10
215.1800816476
 20
218.1997090201
 10
215.177460677
 20
218.1951834222
 10
215.1747225997
 20
218.190582349
 10
215.1718744466
 20
218.1859092544
 10
215.1689018482
 20
218.1811391713
 10
215.1657912752
 20
218.1762453069
  0
LINE
  5
37A
100
AcDbEntity
  8
X01822000_BL9
100
AcDbLine
 62
9
  6
CONTINUOUS
 10
215.1104819205
 20
218.2233019091
 11
214.3856006414
 21
217.4984206301
  0
LINE
  5
37B
100
AcDbEntity
  8
X01822000_BL9
100
AcDbLine
 62
9
  6
CONTINUOUS
 10
212.2474645366
 20
215.3602845252
 11
212.9723458156
 21
216.0851658043
  0
LINE
  5
37C
100
AcDbEntity
  8
X01822000_BL9
100
AcDbLine
 62
9
  6
CONTINUOUS
 10
215.1625472373
 20
218.1712365923
 11
214.4376659583
 21
217.4463553132
  0
LINE
  5
37D
100
AcDbEntity
  8
X01822000_BL9
100
AcDbLine
 62
9
  6
CONTINUOUS
 10
212.2995298534
 20
215.3082192083
 11
213.0244111325
 21
216.0331004874
  0
LINE
  5
37E
100
AcDbEntity
  8
X01822000_BL9
100
AcDbLine
 62
7
  6
CONTINUOUS
 10
212.8389804832
 20
216.2657605587
 11
212.2444106127
 21
215.3555708437
  0
LINE
  5
37F
100
AcDbEntity
  8
X01822000_BL9
100
AcDbLine
 62
7
  6
CONTINUOUS
 10
214.5710312907
 20
217.2657605587
 11
215.1657912752
 21
218.1762453069
  0
LINE
  5
380
100
AcDbEntity
  8
X01822000_BL9
100
AcDbLine
 62
7
  6
CONTINUOUS
 10
211.5625773584
 20
216.2657605587
 11
212.8389804832
 21
216.2657605587
  0
LINE
  5
381
100
AcDbEntity
  8
X01822000_BL9
100
AcDbLine
 62
7
  6
CONTINUOUS
 10
214.5710312907
 20
216.2657605587
 11
215.8474344155
 21
216.2657605587
  0
LINE
  5
382
100
AcDbEntity
  8
X01822000_BL9
100
AcDbLine
 62
7
  6
CENTER
 10
213.7050058869
 20
216.7657605587
 11
208.7049058869
 21
216.7657605587
  0
LINE
  5
383
100
AcDbEntity
  8
X01822000_BL9
100
AcDbLine
 62
7
  6
CENTER
 10
213.7050058869
 20
216.7657605587
 11
218.7051058869
 21
216.7657605587
  0
LINE
  5
384
100
AcDbEntity
  8
X01822000_BL9
100
AcDbLine
 62
7
  6
CONTINUOUS
 10
215.8474344155
 20
217.2657605587
 11
214.5710312907
 21
217.2657605587
  0
LINE
  5
385
100
AcDbEntity
  8
X01822000_BL9
100
AcDbLine
 62
7
  6
CONTINUOUS
 10
212.8389804832
 20
217.2657605587
 11
211.5625773584
 21
217.2657605587
  0
LINE
  5
386
100
AcDbEntity
  8
X01822000_BL9
100
AcDbLine
 62
7
  6
CONTINUOUS
 10
213.2050058869
 20
218.9081890873
 11
213.2050058869
 21
217.6317859625
  0
LINE
  5
387
100
AcDbEntity
  8
X01822000_BL9
100
AcDbLine
 62
7
  6
CONTINUOUS
 10
213.2050058869
 20
215.899735155
 11
213.2050058869
 21
214.6233320302
  0
LINE
  5
388
100
AcDbEntity
  8
X01822000_BL9
100
AcDbLine
 62
7
  6
CENTER
 10
213.7050058869
 20
216.7657605587
 11
213.7050058869
 21
211.7656605587
  0
LINE
  5
389
100
AcDbEntity
  8
X01822000_BL9
100
AcDbLine
 62
7
  6
CENTER
 10
213.7050058869
 20
216.7657605587
 11
213.7050058869
 21
221.7658605587
  0
LINE
  5
38A
100
AcDbEntity
  8
X01822000_BL9
100
AcDbLine
 62
7
  6
CONTINUOUS
 10
214.2050058869
 20
214.6233320302
 11
214.2050058869
 21
215.899735155
  0
LINE
  5
38B
100
AcDbEntity
  8
X01822000_BL9
100
AcDbLine
 62
7
  6
CONTINUOUS
 10
214.2050058869
 20
217.6317859625
 11
214.2050058869
 21
218.9081890873
  0
LINE
  5
38C
100
AcDbEntity
  8
X01822000_BL9
100
AcDbLine
 62
7
  6
CONTINUOUS
 10
214.2050058869
 20
215.899735155
 11
215.115195602
 21
215.3051652845
  0
LINE
  5
38D
100
AcDbEntity
  8
X01822000_BL9
100
AcDbLine
 62
7
  6
CONTINUOUS
 10
213.2050058869
 20
217.6317859625
 11
212.2945211388
 21
218.226545947
  0
LINE
  5
38E
100
AcDbEntity
  8
X01822000_BL9
100
AcDbLine
 62
9
  6
CONTINUOUS
 10
212.2474645366
 20
218.1712365923
 11
212.9723458156
 21
217.4463553132
  0
LINE
  5
38F
100
AcDbEntity
  8
X01822000_BL9
100
AcDbLine
 62
9
  6
CONTINUOUS
 10
215.1104819205
 20
215.3082192083
 11
214.3856006414
 21
216.0331004874
  0
LINE
  5
390
100
AcDbEntity
  8
X01822000_BL9
100
AcDbLine
 62
9
  6
CONTINUOUS
 10
212.2995298534
 20
218.2233019091
 11
213.0244111325
 21
217.4984206301
  0
LINE
  5
391
100
AcDbEntity
  8
X01822000_BL9
100
AcDbLine
 62
9
  6
CONTINUOUS
 10
215.1625472373
 20
215.3602845252
 11
214.4376659583
 21
216.0851658043
  0
LWPOLYLINE
  5
392
100
AcDbEntity
  8
X01822000_BL9
100
AcDbPolyline
 62
7
  6
CONTINUOUS
 90
46
 70
0
 10
214.5710312907
 20
216.2657605587
 10
215.1658077314
 20
215.3552495474
 10
215.1689215477
 20
215.3503506499
 10
215.1718884652
 20
215.3455884335
 10
215.1747091469
 20
215.3409610962
 10
215.1773840351
 20
215.3364677376
 10
215.1799135709
 20
215.3321062546
 10
215.1822954295
 20
215.3278810043
 10
215.1845383513
 20
215.323771706
 10
215.1866519218
 20
215.3197598759
 10
215.1886312815
 20
215.3158444813
 10
215.1904801937
 20
215.3120111074
 10
215.1921823753
 20
215.3082814174
 10
215.1937248032
 20
215.3046732367
 10
215.1951014601
 20
215.3011836633
 10
215.1963054716
 20
215.2978214529
 10
215.1973263859
 20
215.2945694582
 10
215.1981641919
 20
215.2914195832
 10
215.1987806944
 20
215.2883534295
 10
215.1991742477
 20
215.2853374929
 10
215.1992351921
 20
215.2824089942
 10
215.1988921869
 20
215.2795247191
 10
215.1980286295
 20
215.2768924679
 10
215.1964537069
 20
215.274672379
 10
215.194318709
 20
215.2729642241
 10
215.1916466776
 20
215.2719780005
 10
215.1886315447
 20
215.2715431695
 10
215.1854795907
 20
215.2715904215
 10
215.1821768126
 20
215.2720260652
 10
215.1787773358
 20
215.2727408509
 10
215.1752830551
 20
215.2737121435
 10
215.1717151139
 20
215.2748847673
 10
215.168069891
 20
215.2762470944
 10
215.1643472982
 20
215.2777735382
 10
215.1605578806
 20
215.279450799
 10
215.1567069564
 20
215.2812622018
 10
215.1528101179
 20
215.2831922858
 10
215.1488892272
 20
215.2852195795
 10
215.1449307928
 20
215.2873454399
 10
215.1409358097
 20
215.2895607808
 10
215.1368826805
 20
215.2918754601
 10
215.1327550506
 20
215.294293475
 10
215.1285381872
 20
215.2968233216
 10
215.1242165591
 20
215.2994716991
 10
215.1197762069
 20
215.3022479955
 10
215.115195602
 20
215.3051652845
  0
LWPOLYLINE
  5
393
100
AcDbEntity
  8
X01822000_BL9
100
AcDbPolyline
 62
7
  6
CONTINUOUS
 90
44
 70
0
 10
212.8389804832
 20
217.2657605587
 10
212.2440846468
 20
218.1764576684
 10
212.2408623724
 20
218.1815327514
 10
212.2377978586
 20
218.1864613161
 10
212.2348906698
 20
218.1912449379
 10
212.232141181
 20
218.195883085
 10
212.2295471048
 20
218.2003815526
 10
212.2271084971
 20
218.2047399988
 10
212.2248187027
 20
218.2089763023
 10
212.2226691018
 20
218.2131079819
 10
212.2206656442
 20
218.2171357757
 10
212.2188050712
 20
218.2210748882
 10
212.2171063879
 20
218.2248994382
 10
212.2155857497
 20
218.2285851701
 10
212.2142484464
 20
218.232142411
 10
212.2130993469
 20
218.2355665375
 10
212.2121558703
 20
218.2388781459
 10
212.2114164034
 20
218.2420932404
 10
212.2109429127
 20
218.2452209734
 10
212.210745062
 20
218.24830504
 10
212.2109781449
 20
218.2512578157
 10
212.2117891798
 20
218.2540965799
 10
212.2132126558
 20
218.2565503154
 10
212.215435618
 20
218.2583324699
 10
212.218147417
 20
218.2595069281
 10
212.2211167765
 20
218.2599744253
 10
212.2242926221
 20
218.2599378574
 10
212.2275223012
 20
218.2595605166
 10
212.2308792713
 20
218.2588619491
 10
212.2343915092
 20
218.2579133523
 10
212.2380428047
 20
218.2567230643
 10
212.2418390067
 20
218.2553143657
 10
212.2457419151
 20
218.253713626
 10
212.2497030174
 20
218.2519578162
 10
212.2537590997
 20
218.250038412
 10
212.2579371882
 20
218.2479548577
 10
212.2622180504
 20
218.2457202178
 10
212.2665960055
 20
218.2433433219
 10
212.2710574256
 20
218.2408363194
 10
212.2755830235
 20
218.2382153488
 10
212.2801840967
 20
218.2354772715
 10
212.2848571913
 20
218.2326291184
 10
212.2896272744
 20
218.22965652
 10
212.2945211388
 20
218.226545947
  0
CIRCLE
  5
394
100
AcDbEntity
  8
X01822000_BL9
100
AcDbCircle
 62
7
  6
CONTINUOUS
 10
213.7050058869
 20
216.7657605587
 40
3.4
  0
ARC
  5
395
100
AcDbEntity
  8
X01822000_BL9
100
AcDbCircle
 62
7
  6
CONTINUOUS
 10
213.7050058869
 20
216.7657605587
 40
2.2
100
AcDbArc
 50
256.8634412131
 51
283.1365587869
  0
ARC
  5
396
100
AcDbEntity
  8
X01822000_BL9
100
AcDbCircle
 62
7
  6
CONTINUOUS
 10
213.7050058869
 20
216.7657605587
 40
2.2
100
AcDbArc
 50
346.8634412131
 51
13.1365587869
  0
ARC
  5
397
100
AcDbEntity
  8
X01822000_BL9
100
AcDbCircle
 62
7
  6
CONTINUOUS
 10
213.7050058869
 20
216.7657605587
 40
2.2
100
AcDbArc
 50
166.8634412131
 51
193.1365587869
  0
ARC
  5
398
100
AcDbEntity
  8
X01822000_BL9
100
AcDbCircle
 62
7
  6
CONTINUOUS
 10
213.7050058869
 20
216.7657605587
 40
2.2
100
AcDbArc
 50
76.8634412131
 51
103.1365587869
  0
ARC
  5
399
100
AcDbEntity
  8
X01822000_BL9
100
AcDbCircle
 62
7
  6
CONTINUOUS
 10
213.7050058869
 20
216.7657605587
 40
1.25
100
AcDbArc
 50
66.4218215218
 51
113.5781784782
  0
ARC
  5
39A
100
AcDbEntity
  8
X01822000_BL9
100
AcDbCircle
 62
7
  6
CONTINUOUS
 10
213.7050058869
 20
216.7657605587
 40
1.25
100
AcDbArc
 50
336.4218215218
 51
23.5781784782
  0
ARC
  5
39B
100
AcDbEntity
  8
X01822000_BL9
100
AcDbCircle
 62
7
  6
CONTINUOUS
 10
213.7050058869
 20
216.7657605587
 40
1.25
100
AcDbArc
 50
246.4218215218
 51
293.5781784782
  0
ARC
  5
39C
100
AcDbEntity
  8
X01822000_BL9
100
AcDbCircle
 62
7
  6
CONTINUOUS
 10
213.7050058869
 20
216.7657605587
 40
1.25
100
AcDbArc
 50
156.4218215218
 51
203.5781784782
  0
ARC
  5
39D
100
AcDbEntity
  8
X01822000_BL9
100
AcDbCircle
 62
7
  6
CONTINUOUS
 10
213.7050058869
 20
216.7657605587
 40
1.0
100
AcDbArc
 50
30.0
 51
60.0
  0
ARC
  5
39E
100
AcDbEntity
  8
X01822000_BL9
100
AcDbCircle
 62
7
  6
CONTINUOUS
 10
213.7050058869
 20
216.7657605587
 40
1.0
100
AcDbArc
 50
120.0
 51
150.0
  0
ARC
  5
39F
100
AcDbEntity
  8
X01822000_BL9
100
AcDbCircle
 62
7
  6
CONTINUOUS
 10
213.7050058869
 20
216.7657605587
 40
1.0
100
AcDbArc
 50
210.0
 51
240.0
  0
ARC
  5
3A0
100
AcDbEntity
  8
X01822000_BL9
100
AcDbCircle
 62
7
  6
CONTINUOUS
 10
213.7050058869
 20
216.7657605587
 40
1.0
100
AcDbArc
 50
300.0
 51
330.0
  0
ENDBLK
  5
3A1
100
AcDbEntity
  8
0
  6
BYBLOCK
 62
0
100
AcDbBlockEnd
  0
BLOCK
  5
3A2
100
AcDbEntity
  8
ZYLINDERSCHRAUBE_M4X16_INN_BL10
100
AcDbBlockBegin
  2
ZYLINDERSCHRAUBE_M4X16_INN_BL10
 70
64
 10
182.7050058869
 20
137.1571773441
  3
ZYLINDERSCHRAUBE_M4X16_INN_BL10
  1

  0
LINE
  5
3A3
100
AcDbEntity
  8
ZYLINDERSCHRAUBE_M4X16_INN_BL10
100
AcDbLine
 62
2
  6
CONTINUOUS
 10
180.7050058869
 20
225.7657605587
 11
180.7050058869
 21
229.7657605587
  0
LINE
  5
3A4
100
AcDbEntity
  8
ZYLINDERSCHRAUBE_M4X16_INN_BL10
100
AcDbLine
 62
7
  6
CONTINUOUS
 10
180.7050058869
 20
225.7657605587
 11
180.7050058869
 21
231.7657605587
  0
LINE
  5
3A5
100
AcDbEntity
  8
ZYLINDERSCHRAUBE_M4X16_INN_BL10
100
AcDbLine
 62
2
  6
CONTINUOUS
 10
184.7050058869
 20
225.7657605587
 11
184.7050058869
 21
229.7657605587
  0
LINE
  5
3A6
100
AcDbEntity
  8
ZYLINDERSCHRAUBE_M4X16_INN_BL10
100
AcDbLine
 62
7
  6
CONTINUOUS
 10
184.7050058869
 20
225.7657605587
 11
184.7050058869
 21
231.7657605587
  0
LINE
  5
3A7
100
AcDbEntity
  8
ZYLINDERSCHRAUBE_M4X16_INN_BL10
100
AcDbLine
 62
7
  6
CONTINUOUS
 10
180.7050058869
 20
229.7657605587
 11
184.7050058869
 21
229.7657605587
  0
LINE
  5
3A8
100
AcDbEntity
  8
ZYLINDERSCHRAUBE_M4X16_INN_BL10
100
AcDbLine
 62
7
  6
CONTINUOUS
 10
181.8389804832
 20
42.5485941295
 11
183.5710312907
 21
42.5485941295
  0
LINE
  5
3A9
100
AcDbEntity
  8
ZYLINDERSCHRAUBE_M4X16_INN_BL10
100
AcDbLine
 62
7
  6
CONTINUOUS
 10
181.8389804832
 20
45.5485941295
 11
180.9729550794
 21
44.0485941295
  0
LINE
  5
3AA
100
AcDbEntity
  8
ZYLINDERSCHRAUBE_M4X16_INN_BL10
100
AcDbLine
 62
7
  6
CONTINUOUS
 10
183.5710312907
 20
45.5485941295
 11
181.8389804832
 21
45.5485941295
  0
LINE
  5
3AB
100
AcDbEntity
  8
ZYLINDERSCHRAUBE_M4X16_INN_BL10
100
AcDbLine
 62
7
  6
CONTINUOUS
 10
180.9729550794
 20
44.0485941295
 11
181.8389804832
 21
42.5485941295
  0
LINE
  5
3AC
100
AcDbEntity
  8
ZYLINDERSCHRAUBE_M4X16_INN_BL10
100
AcDbLine
 62
7
  6
CONTINUOUS
 10
183.5710312907
 20
42.5485941295
 11
184.4370566945
 21
44.0485941295
  0
LINE
  5
3AD
100
AcDbEntity
  8
ZYLINDERSCHRAUBE_M4X16_INN_BL10
100
AcDbLine
 62
7
  6
CONTINUOUS
 10
184.4370566945
 20
44.0485941295
 11
183.5710312907
 21
45.5485941295
  0
ENDBLK
  5
3AE
100
AcDbEntity
  8
0
  6
BYBLOCK
 62
0
100
AcDbBlockEnd
  0
BLOCK
  5
3AF
100
AcDbEntity
  8
Y15302001_BL11
100
AcDbBlockBegin
  2
Y15302001_BL11
 70
64
 10
169.4800163594
 20
44.1066596708
  3
Y15302001_BL11
  1

  0
LINE
  5
3B0
100
AcDbEntity
  8
Y15302001_BL11
100
AcDbLine
 62
7
  6
CENTER
 10
182.7050058869
 20
44.0485941295
 11
144.9580874428
 21
44.0485941295
  0
LINE
  5
3B1
100
AcDbEntity
  8
Y15302001_BL11
100
AcDbLine
 62
7
  6
CENTER
 10
182.7050058869
 20
44.0485941295
 11
194.001945276
 21
44.0485941295
  0
LINE
  5
3B2
100
AcDbEntity
  8
Y15302001_BL11
100
AcDbLine
 62
7
  6
CENTER
 10
182.7050058869
 20
44.0485941295
 11
182.7050058869
 21
36.0008120474
  0
LINE
  5
3B3
100
AcDbEntity
  8
Y15302001_BL11
100
AcDbLine
 62
7
  6
CENTER
 10
182.7050058869
 20
44.0485941295
 11
182.7050058869
 21
52.2125072943
  0
ENDBLK
  5
3B4
100
AcDbEntity
  8
0
  6
BYBLOCK
 62
0
100
AcDbBlockEnd
  0
BLOCK
  5
3B5
100
AcDbEntity
  8
0
100
AcDbBlockBegin
  2
_FILLED
 70
64
 10
0.0
 20
0.0
  3
_FILLED
  1

  0
SOLID
  5
3B6
100
AcDbEntity
  8
0
  6
BYBLOCK
 62
0
100
AcDbTrace
 10
0.0
 20
0.0
 11
-1.0
 21
0.1428571429
 12
-1.0
 22
-0.1428571429
 13
-1.0
 23
-0.1428571429
  0
ENDBLK
  5
3B7
100
AcDbEntity
  8
0
  6
BYBLOCK
 62
0
100
AcDbBlockEnd
  0
BLOCK
  5
3B8
100
AcDbEntity
  8
0
100
AcDbBlockBegin
 62
2
  6
CONTINUOUS
  2
*D0
 70
65
 10
0.0
 20
0.0
  3
*D0
  1

  0
MTEXT
  5
3B9
100
AcDbEntity
  8
0
100
AcDbMText
 62
5
  6
CONTINUOUS
  7
TEXTSTYLE_3
 71
2
 72
1
 10
140.2050058869
 20
113.7340156822
 30
0.0
 11
1.0
 21
0.0
 31
0.0
 44
0.9
  1
35
 40
4.0
 41
5.017921147
  0
LINE
  5
3BA
100
AcDbEntity
  8
0
100
AcDbLine
 62
2
  6
CONTINUOUS
 10
122.7050058869
 20
237.7657605587
 11
122.7050058869
 21
107.7340156822
  0
LINE
  5
3BB
100
AcDbEntity
  8
0
100
AcDbLine
 62
2
  6
CONTINUOUS
 10
157.7050058869
 20
202.7657605587
 11
157.7050058869
 21
107.7340156822
  0
LINE
  5
3BC
100
AcDbEntity
  8
0
100
AcDbLine
 62
2
  6
CONTINUOUS
 10
122.7050058869
 20
108.7340156822
 11
140.2050058869
 21
108.7340156822
  0
LINE
  5
3BD
100
AcDbEntity
  8
0
100
AcDbLine
 62
2
  6
CONTINUOUS
 10
157.7050058869
 20
108.7340156822
 11
140.2050058869
 21
108.7340156822
  0
INSERT
  5
3BE
100
AcDbEntity
  8
0
100
AcDbBlockReference
 62
2
  6
CONTINUOUS
  2
_FILLED
 10
122.7050058869
 20
108.7340156822
 41
3.5
 42
3.5
 43
3.5
 50
180.0
  0
INSERT
  5
3BF
100
AcDbEntity
  8
0
100
AcDbBlockReference
 62
2
  6
CONTINUOUS
  2
_FILLED
 10
157.7050058869
 20
108.7340156822
 41
3.5
 42
3.5
 43
3.5
  0
ENDBLK
  5
3C0
100
AcDbEntity
  8
0
  6
BYBLOCK
 62
0
100
AcDbBlockEnd
  0
BLOCK
  5
3C1
100
AcDbEntity
  8
0
100
AcDbBlockBegin
 62
2
  6
CONTINUOUS
  2
*D1
 70
65
 10
0.0
 20
0.0
  3
*D1
  1

  0
MTEXT
  5
3C2
100
AcDbEntity
  8
0
100
AcDbMText
 62
5
  6
CONTINUOUS
  7
TEXTSTYLE_3
 71
2
 72
1
 10
162.7050058869
 20
103.7340156822
 30
0.0
 11
1.0
 21
0.0
 31
0.0
 44
0.9
  1
80
 40
4.0
 41
5.017921147
  0
LINE
  5
3C3
100
AcDbEntity
  8
0
100
AcDbLine
 62
2
  6
CONTINUOUS
 10
122.7050058869
 20
237.7657605587
 11
122.7050058869
 21
97.7340156822
  0
LINE
  5
3C4
100
AcDbEntity
  8
0
100
AcDbLine
 62
2
  6
CONTINUOUS
 10
202.7050058869
 20
156.9836645282
 11
202.7050058869
 21
111.1022852179
  0
LINE
  5
3C5
100
AcDbEntity
  8
0
100
AcDbLine
 62
2
  6
CONTINUOUS
 10
202.7050058869
 20
106.4307265972
 11
202.7050058869
 21
97.7340156822
  0
LINE
  5
3C6
100
AcDbEntity
  8
0
100
AcDbLine
 62
2
  6
CONTINUOUS
 10
122.7050058869
 20
98.7340156822
 11
162.7050058869
 21
98.7340156822
  0
LINE
  5
3C7
100
AcDbEntity
  8
0
100
AcDbLine
 62
2
  6
CONTINUOUS
 10
202.7050058869
 20
98.7340156822
 11
162.7050058869
 21
98.7340156822
  0
INSERT
  5
3C8
100
AcDbEntity
  8
0
100
AcDbBlockReference
 62
2
  6
CONTINUOUS
  2
_FILLED
 10
122.7050058869
 20
98.7340156822
 41
3.5
 42
3.5
 43
3.5
 50
180.0
  0
INSERT
  5
3C9
100
AcDbEntity
  8
0
100
AcDbBlockReference
 62
2
  6
CONTINUOUS
  2
_FILLED
 10
202.7050058869
 20
98.7340156822
 41
3.5
 42
3.5
 43
3.5
  0
ENDBLK
  5
3CA
100
AcDbEntity
  8
0
  6
BYBLOCK
 62
0
100
AcDbBlockEnd
  0
BLOCK
  5
3CB
100
AcDbEntity
  8
0
100
AcDbBlockBegin
 62
2
  6
CONTINUOUS
  2
*D2
 70
65
 10
0.0
 20
0.0
  3
*D2
  1

  0
MTEXT
  5
3CC
100
AcDbEntity
  8
0
100
AcDbMText
 62
5
  6
CONTINUOUS
  7
TEXTSTYLE_3
 71
2
 72
1
 10
189.7050058869
 20
113.7340156822
 30
0.0
 11
1.0
 21
0.0
 31
0.0
 44
0.9
  1
64
 40
4.0
 41
5.017921147
  0
LINE
  5
3CD
100
AcDbEntity
  8
0
100
AcDbLine
 62
2
  6
CONTINUOUS
 10
157.7050058869
 20
202.7657605587
 11
157.7050058869
 21
107.7340156822
  0
LINE
  5
3CE
100
AcDbEntity
  8
0
100
AcDbLine
 62
2
  6
CONTINUOUS
 10
221.7050058869
 20
202.7657605587
 11
221.7050058869
 21
107.7340156822
  0
LINE
  5
3CF
100
AcDbEntity
  8
0
100
AcDbLine
 62
2
  6
CONTINUOUS
 10
157.7050058869
 20
108.7340156822
 11
189.7050058869
 21
108.7340156822
  0
LINE
  5
3D0
100
AcDbEntity
  8
0
100
AcDbLine
 62
2
  6
CONTINUOUS
 10
221.7050058869
 20
108.7340156822
 11
189.7050058869
 21
108.7340156822
  0
INSERT
  5
3D1
100
AcDbEntity
  8
0
100
AcDbBlockReference
 62
2
  6
CONTINUOUS
  2
_FILLED
 10
157.7050058869
 20
108.7340156822
 41
3.5
 42
3.5
 43
3.5
 50
180.0
  0
INSERT
  5
3D2
100
AcDbEntity
  8
0
100
AcDbBlockReference
 62
2
  6
CONTINUOUS
  2
_FILLED
 10
221.7050058869
 20
108.7340156822
 41
3.5
 42
3.5
 43
3.5
  0
ENDBLK
  5
3D3
100
AcDbEntity
  8
0
  6
BYBLOCK
 62
0
100
AcDbBlockEnd
  0
BLOCK
  5
3D4
100
AcDbEntity
  8
0
100
AcDbBlockBegin
 62
2
  6
CONTINUOUS
  2
*D3
 70
65
 10
0.0
 20
0.0
  3
*D3
  1

  0
MTEXT
  5
3D5
100
AcDbEntity
  8
0
100
AcDbMText
 62
5
  6
CONTINUOUS
  7
TEXTSTYLE_3
 71
2
 72
1
 10
178.2050058869
 20
93.7340156822
 30
0.0
 11
1.0
 21
0.0
 31
0.0
 44
0.9
  1
111
 40
4.0
 41
7.5268817204
  0
LINE
  5
3D6
100
AcDbEntity
  8
0
100
AcDbLine
 62
2
  6
CONTINUOUS
 10
233.7050058869
 20
150.7657605587
 11
233.7050058869
 21
87.7340156822
  0
LINE
  5
3D7
100
AcDbEntity
  8
0
100
AcDbLine
 62
2
  6
CONTINUOUS
 10
122.7050058869
 20
237.7657605587
 11
122.7050058869
 21
87.7340156822
  0
LINE
  5
3D8
100
AcDbEntity
  8
0
100
AcDbLine
 62
2
  6
CONTINUOUS
 10
233.7050058869
 20
88.7340156822
 11
178.2050058869
 21
88.7340156822
  0
LINE
  5
3D9
100
AcDbEntity
  8
0
100
AcDbLine
 62
2
  6
CONTINUOUS
 10
122.7050058869
 20
88.7340156822
 11
178.2050058869
 21
88.7340156822
  0
INSERT
  5
3DA
100
AcDbEntity
  8
0
100
AcDbBlockReference
 62
2
  6
CONTINUOUS
  2
_FILLED
 10
233.7050058869
 20
88.7340156822
 41
3.5
 42
3.5
 43
3.5
  0
INSERT
  5
3DB
100
AcDbEntity
  8
0
100
AcDbBlockReference
 62
2
  6
CONTINUOUS
  2
_FILLED
 10
122.7050058869
 20
88.7340156822
 41
3.5
 42
3.5
 43
3.5
 50
180.0
  0
ENDBLK
  5
3DC
100
AcDbEntity
  8
0
  6
BYBLOCK
 62
0
100
AcDbBlockEnd
  0
BLOCK
  5
3DD
100
AcDbEntity
  8
0
100
AcDbBlockBegin
 62
2
  6
CONTINUOUS
  2
*D4
 70
65
 10
0.0
 20
0.0
  3
*D4
  1

  0
MTEXT
  5
3DE
100
AcDbEntity
  8
0
100
AcDbMText
 62
5
  6
CONTINUOUS
  7
TEXTSTYLE_3
 71
2
 72
1
 10
253.7050058869
 20
190.7657605587
 30
0.0
 11
0.0
 21
1.0
 31
0.0
 44
0.9
  1
100
 40
4.0
 41
7.5268817204
  0
LINE
  5
3DF
100
AcDbEntity
  8
0
100
AcDbLine
 62
2
  6
CONTINUOUS
 10
229.7050058869
 20
240.7657605587
 11
259.7050058869
 21
240.7657605587
  0
LINE
  5
3E0
100
AcDbEntity
  8
0
100
AcDbLine
 62
2
  6
CONTINUOUS
 10
233.7050058869
 20
140.7657605587
 11
259.7050058869
 21
140.7657605587
  0
LINE
  5
3E1
100
AcDbEntity
  8
0
100
AcDbLine
 62
2
  6
CONTINUOUS
 10
258.7050058869
 20
240.7657605587
 11
258.7050058869
 21
190.7657605587
  0
LINE
  5
3E2
100
AcDbEntity
  8
0
100
AcDbLine
 62
2
  6
CONTINUOUS
 10
258.7050058869
 20
140.7657605587
 11
258.7050058869
 21
190.7657605587
  0
INSERT
  5
3E3
100
AcDbEntity
  8
0
100
AcDbBlockReference
 62
2
  6
CONTINUOUS
  2
_FILLED
 10
258.7050058869
 20
240.7657605587
 41
3.5
 42
3.5
 43
3.5
 50
90.0
  0
INSERT
  5
3E4
100
AcDbEntity
  8
0
100
AcDbBlockReference
 62
2
  6
CONTINUOUS
  2
_FILLED
 10
258.7050058869
 20
140.7657605587
 41
3.5
 42
3.5
 43
3.5
 50
270.0
  0
ENDBLK
  5
3E5
100
AcDbEntity
  8
0
  6
BYBLOCK
 62
0
100
AcDbBlockEnd
  0
BLOCK
  5
3E6
100
AcDbEntity
  8
0
100
AcDbBlockBegin
 62
2
  6
CONTINUOUS
  2
*D5
 70
65
 10
0.0
 20
0.0
  3
*D5
  1

  0
MTEXT
  5
3E7
100
AcDbEntity
  8
0
100
AcDbMText
 62
5
  6
CONTINUOUS
  7
TEXTSTYLE_3
 71
2
 72
1
 10
218.2050058869
 20
103.7340156822
 30
0.0
 11
1.0
 21
0.0
 31
0.0
 44
0.9
  1
31
 40
4.0
 41
5.017921147
  0
LINE
  5
3E8
100
AcDbEntity
  8
0
100
AcDbLine
 62
2
  6
CONTINUOUS
 10
202.7050058869
 20
101.7591679765
 11
202.7050058869
 21
97.7340156822
  0
LINE
  5
3E9
100
AcDbEntity
  8
0
100
AcDbLine
 62
2
  6
CONTINUOUS
 10
233.7050058869
 20
150.7657605587
 11
233.7050058869
 21
97.7340156822
  0
LINE
  5
3EA
100
AcDbEntity
  8
0
100
AcDbLine
 62
2
  6
CONTINUOUS
 10
202.7050058869
 20
98.7340156822
 11
218.2050058869
 21
98.7340156822
  0
LINE
  5
3EB
100
AcDbEntity
  8
0
100
AcDbLine
 62
2
  6
CONTINUOUS
 10
233.7050058869
 20
98.7340156822
 11
218.2050058869
 21
98.7340156822
  0
INSERT
  5
3EC
100
AcDbEntity
  8
0
100
AcDbBlockReference
 62
2
  6
CONTINUOUS
  2
_FILLED
 10
202.7050058869
 20
98.7340156822
 41
3.5
 42
3.5
 43
3.5
 50
180.0
  0
INSERT
  5
3ED
100
AcDbEntity
  8
0
100
AcDbBlockReference
 62
2
  6
CONTINUOUS
  2
_FILLED
 10
233.7050058869
 20
98.7340156822
 41
3.5
 42
3.5
 43
3.5
  0
ENDBLK
  5
3EE
100
AcDbEntity
  8
0
  6
BYBLOCK
 62
0
100
AcDbBlockEnd
  0
BLOCK
  5
3EF
100
AcDbEntity
  8
0
100
AcDbBlockBegin
 62
2
  6
CONTINUOUS
  2
*D6
 70
65
 10
0.0
 20
0.0
  3
*D6
  1

  0
MTEXT
  5
3F0
100
AcDbEntity
  8
0
100
AcDbMText
 62
5
  6
CONTINUOUS
  7
TEXTSTYLE_1
 71
2
 72
1
 10
182.7050058869
 20
267.7657605587
 30
0.0
 11
1.0
 21
0.0
 31
0.0
 44
0.9
  1
{\Fgdt;o}\Fswisscl.ttf;12
 40
4.0
 41
10.517921147
  0
LINE
  5
3F1
100
AcDbEntity
  8
0
100
AcDbLine
 62
2
  6
CONTINUOUS
 10
176.7050058869
 20
247.7657605587
 11
176.7050058869
 21
263.7657605587
  0
LINE
  5
3F2
100
AcDbEntity
  8
0
100
AcDbLine
 62
2
  6
CONTINUOUS
 10
188.7050058869
 20
247.7657605587
 11
188.7050058869
 21
263.7657605587
  0
LINE
  5
3F3
100
AcDbEntity
  8
0
100
AcDbLine
 62
2
  6
CONTINUOUS
 10
176.7050058869
 20
262.7657605587
 11
182.7050058869
 21
262.7657605587
  0
LINE
  5
3F4
100
AcDbEntity
  8
0
100
AcDbLine
 62
2
  6
CONTINUOUS
 10
188.7050058869
 20
262.7657605587
 11
182.7050058869
 21
262.7657605587
  0
INSERT
  5
3F5
100
AcDbEntity
  8
0
100
AcDbBlockReference
 62
2
  6
CONTINUOUS
  2
_FILLED
 10
176.7050058869
 20
262.7657605587
 41
3.5
 42
3.5
 43
3.5
 50
180.0
  0
INSERT
  5
3F6
100
AcDbEntity
  8
0
100
AcDbBlockReference
 62
2
  6
CONTINUOUS
  2
_FILLED
 10
188.7050058869
 20
262.7657605587
 41
3.5
 42
3.5
 43
3.5
  0
ENDBLK
  5
3F7
100
AcDbEntity
  8
0
  6
BYBLOCK
 62
0
100
AcDbBlockEnd
  0
BLOCK
  5
3F8
100
AcDbEntity
  8
0
100
AcDbBlockBegin
 62
2
  6
CONTINUOUS
  2
*D7
 70
65
 10
0.0
 20
0.0
  3
*D7
  1

  0
MTEXT
  5
3F9
100
AcDbEntity
  8
0
100
AcDbMText
 62
5
  6
CONTINUOUS
  7
TEXTSTYLE_3
 71
2
 72
1
 10
170.2050058869
 20
123.7340156822
 30
0.0
 11
1.0
 21
0.0
 31
0.0
 44
0.9
  1
25
 40
4.0
 41
5.017921147
  0
LINE
  5
3FA
100
AcDbEntity
  8
0
100
AcDbLine
 62
2
  6
CONTINUOUS
 10
157.7050058869
 20
202.7657605587
 11
157.7050058869
 21
117.7340156822
  0
LINE
  5
3FB
100
AcDbEntity
  8
0
100
AcDbLine
 62
2
  6
CONTINUOUS
 10
182.7050058869
 20
204.2290800964
 11
182.7050058869
 21
117.7340156822
  0
LINE
  5
3FC
100
AcDbEntity
  8
0
100
AcDbLine
 62
2
  6
CONTINUOUS
 10
157.7050058869
 20
118.7340156822
 11
170.2050058869
 21
118.7340156822
  0
LINE
  5
3FD
100
AcDbEntity
  8
0
100
AcDbLine
 62
2
  6
CONTINUOUS
 10
182.7050058869
 20
118.7340156822
 11
170.2050058869
 21
118.7340156822
  0
INSERT
  5
3FE
100
AcDbEntity
  8
0
100
AcDbBlockReference
 62
2
  6
CONTINUOUS
  2
_FILLED
 10
157.7050058869
 20
118.7340156822
 41
3.5
 42
3.5
 43
3.5
 50
180.0
  0
INSERT
  5
3FF
100
AcDbEntity
  8
0
100
AcDbBlockReference
 62
2
  6
CONTINUOUS
  2
_FILLED
 10
182.7050058869
 20
118.7340156822
 41
3.5
 42
3.5
 43
3.5
  0
ENDBLK
  5
400
100
AcDbEntity
  8
0
  6
BYBLOCK
 62
0
100
AcDbBlockEnd
  0
BLOCK
  5
401
100
AcDbEntity
  8
0
100
AcDbBlockBegin
 62
2
  6
CONTINUOUS
  2
*D8
 70
65
 10
0.0
 20
0.0
  3
*D8
  1

  0
MTEXT
  5
402
100
AcDbEntity
  8
0
100
AcDbMText
 62
5
  6
CONTINUOUS
  7
TEXTSTYLE_3
 71
2
 72
1
 10
332.4946250016
 20
244.2657605587
 30
0.0
 11
0.0
 21
1.0
 31
0.0
 44
0.9
  1
7
 40
4.0
 41
2.5089605735
  0
LINE
  5
403
100
AcDbEntity
  8
0
100
AcDbLine
 62
2
  6
CONTINUOUS
 10
307.9946250016
 20
247.7657605587
 11
338.4946250016
 21
247.7657605587
  0
LINE
  5
404
100
AcDbEntity
  8
0
100
AcDbLine
 62
2
  6
CONTINUOUS
 10
322.4946250016
 20
240.7657605587
 11
338.4946250016
 21
240.7657605587
  0
LINE
  5
405
100
AcDbEntity
  8
0
100
AcDbLine
 62
2
  6
CONTINUOUS
 10
337.4946250016
 20
247.7657605587
 11
337.4946250016
 21
252.7657605587
  0
LINE
  5
406
100
AcDbEntity
  8
0
100
AcDbLine
 62
2
  6
CONTINUOUS
 10
337.4946250016
 20
252.7657605587
 11
337.4946250016
 21
244.2657605587
  0
LINE
  5
407
100
AcDbEntity
  8
0
100
AcDbLine
 62
2
  6
CONTINUOUS
 10
337.4946250016
 20
240.7657605587
 11
337.4946250016
 21
235.7657605587
  0
LINE
  5
408
100
AcDbEntity
  8
0
100
AcDbLine
 62
2
  6
CONTINUOUS
 10
337.4946250016
 20
235.7657605587
 11
337.4946250016
 21
244.2657605587
  0
INSERT
  5
409
100
AcDbEntity
  8
0
100
AcDbBlockReference
 62
2
  6
CONTINUOUS
  2
_FILLED
 10
337.4946250016
 20
247.7657605587
 41
3.5
 42
3.5
 43
3.5
 50
270.0
  0
INSERT
  5
40A
100
AcDbEntity
  8
0
100
AcDbBlockReference
 62
2
  6
CONTINUOUS
  2
_FILLED
 10
337.4946250016
 20
240.7657605587
 41
3.5
 42
3.5
 43
3.5
 50
90.0
  0
ENDBLK
  5
40B
100
AcDbEntity
  8
0
  6
BYBLOCK
 62
0
100
AcDbBlockEnd
  0
BLOCK
  5
40C
100
AcDbEntity
  8
0
100
AcDbBlockBegin
 62
2
  6
CONTINUOUS
  2
*D9
 70
65
 10
0.0
 20
0.0
  3
*D9
  1

  0
MTEXT
  5
40D
100
AcDbEntity
  8
0
100
AcDbMText
 62
5
  6
CONTINUOUS
  7
TEXTSTYLE_3
 71
2
 72
1
 10
312.4946250016
 20
172.6853583784
 30
0.0
 11
1.0
 21
0.0
 31
0.0
 44
0.9
  1
18.5\P max.
 40
4.0
 41
10.29390681
  0
LINE
  5
40E
100
AcDbEntity
  8
0
100
AcDbLine
 62
2
  6
CONTINUOUS
 10
304.4946250016
 20
202.7657605587
 11
304.4946250016
 21
168.6853583784
  0
LINE
  5
40F
100
AcDbEntity
  8
0
100
AcDbLine
 62
2
  6
CONTINUOUS
 10
304.4946250016
 20
168.6853583784
 11
304.4946250016
 21
166.6853583784
  0
LINE
  5
410
100
AcDbEntity
  8
0
100
AcDbLine
 62
2
  6
CONTINUOUS
 10
320.4946250016
 20
202.7657605587
 11
320.4946250016
 21
168.6853583784
  0
LINE
  5
411
100
AcDbEntity
  8
0
100
AcDbLine
 62
2
  6
CONTINUOUS
 10
320.4946250016
 20
168.6853583784
 11
320.4946250016
 21
166.6853583784
  0
LINE
  5
412
100
AcDbEntity
  8
0
100
AcDbLine
 62
2
  6
CONTINUOUS
 10
304.4946250016
 20
167.6853583784
 11
312.4946250016
 21
167.6853583784
  0
LINE
  5
413
100
AcDbEntity
  8
0
100
AcDbLine
 62
2
  6
CONTINUOUS
 10
320.4946250016
 20
167.6853583784
 11
312.4946250016
 21
167.6853583784
  0
INSERT
  5
414
100
AcDbEntity
  8
0
100
AcDbBlockReference
 62
2
  6
CONTINUOUS
  2
_FILLED
 10
304.4946250016
 20
167.6853583784
 41
3.5
 42
3.5
 43
3.5
 50
180.0
  0
INSERT
  5
415
100
AcDbEntity
  8
0
100
AcDbBlockReference
 62
2
  6
CONTINUOUS
  2
_FILLED
 10
320.4946250016
 20
167.6853583784
 41
3.5
 42
3.5
 43
3.5
  0
ENDBLK
  5
416
100
AcDbEntity
  8
0
  6
BYBLOCK
 62
0
100
AcDbBlockEnd
  0
BLOCK
  5
417
100
AcDbEntity
  8
0
100
AcDbBlockBegin
 62
2
  6
CONTINUOUS
  2
*D10
 70
65
 10
0.0
 20
0.0
  3
*D10
  1

  0
MTEXT
  5
418
100
AcDbEntity
  8
0
100
AcDbMText
 62
5
  6
CONTINUOUS
  7
TEXTSTYLE_1
 71
2
 72
1
 10
202.7050058869
 20
74.0485941295
 30
0.0
 11
1.0
 21
0.0
 31
0.0
 44
0.9
  1
{\Fgdt;n}\Fswisscl.ttf;10.5
 40
4.0
 41
14.1218637993
  0
LINE
  5
419
100
AcDbEntity
  8
0
100
AcDbLine
 62
2
  6
CONTINUOUS
 10
197.4550058869
 20
44.0485941295
 11
197.4550058869
 21
68.0485941295
  0
LINE
  5
41A
100
AcDbEntity
  8
0
100
AcDbLine
 62
2
  6
CONTINUOUS
 10
207.9550058869
 20
44.0485941295
 11
207.9550058869
 21
68.0485941295
  0
LINE
  5
41B
100
AcDbEntity
  8
0
100
AcDbLine
 62
2
  6
CONTINUOUS
 10
197.4550058869
 20
69.0485941295
 11
192.4550058869
 21
69.0485941295
  0
LINE
  5
41C
100
AcDbEntity
  8
0
100
AcDbLine
 62
2
  6
CONTINUOUS
 10
192.4550058869
 20
69.0485941295
 11
202.7050058869
 21
69.0485941295
  0
LINE
  5
41D
100
AcDbEntity
  8
0
100
AcDbLine
 62
2
  6
CONTINUOUS
 10
207.9550058869
 20
69.0485941295
 11
212.9550058869
 21
69.0485941295
  0
LINE
  5
41E
100
AcDbEntity
  8
0
100
AcDbLine
 62
2
  6
CONTINUOUS
 10
212.9550058869
 20
69.0485941295
 11
202.7050058869
 21
69.0485941295
  0
INSERT
  5
41F
100
AcDbEntity
  8
0
100
AcDbBlockReference
 62
2
  6
CONTINUOUS
  2
_FILLED
 10
197.4550058869
 20
69.0485941295
 41
3.5
 42
3.5
 43
3.5
  0
INSERT
  5
420
100
AcDbEntity
  8
0
100
AcDbBlockReference
 62
2
  6
CONTINUOUS
  2
_FILLED
 10
207.9550058869
 20
69.0485941295
 41
3.5
 42
3.5
 43
3.5
 50
180.0
  0
ENDBLK
  5
421
100
AcDbEntity
  8
0
  6
BYBLOCK
 62
0
100
AcDbBlockEnd
  0
BLOCK
  5
422
100
AcDbEntity
  8
0
100
AcDbBlockBegin
 62
2
  6
CONTINUOUS
  2
*D11
 70
65
 10
0.0
 20
0.0
  3
*D11
  1

  0
MTEXT
  5
423
100
AcDbEntity
  8
0
100
AcDbMText
 62
5
  6
CONTINUOUS
  7
TEXTSTYLE_3
 71
2
 72
1
 10
243.7050058869
 20
44.0485941295
 30
0.0
 11
0.0
 21
1.0
 31
0.0
 44
0.9
  1
20
 40
4.0
 41
5.017921147
  0
LINE
  5
424
100
AcDbEntity
  8
0
100
AcDbLine
 62
2
  6
CONTINUOUS
 10
229.7050058869
 20
54.0485941295
 11
249.7050058869
 21
54.0485941295
  0
LINE
  5
425
100
AcDbEntity
  8
0
100
AcDbLine
 62
2
  6
CONTINUOUS
 10
229.7050058869
 20
34.0485941295
 11
249.7050058869
 21
34.0485941295
  0
LINE
  5
426
100
AcDbEntity
  8
0
100
AcDbLine
 62
2
  6
CONTINUOUS
 10
248.7050058869
 20
54.0485941295
 11
248.7050058869
 21
44.0485941295
  0
LINE
  5
427
100
AcDbEntity
  8
0
100
AcDbLine
 62
2
  6
CONTINUOUS
 10
248.7050058869
 20
34.0485941295
 11
248.7050058869
 21
44.0485941295
  0
INSERT
  5
428
100
AcDbEntity
  8
0
100
AcDbBlockReference
 62
2
  6
CONTINUOUS
  2
_FILLED
 10
248.7050058869
 20
54.0485941295
 41
3.5
 42
3.5
 43
3.5
 50
90.0
  0
INSERT
  5
429
100
AcDbEntity
  8
0
100
AcDbBlockReference
 62
2
  6
CONTINUOUS
  2
_FILLED
 10
248.7050058869
 20
34.0485941295
 41
3.5
 42
3.5
 43
3.5
 50
270.0
  0
ENDBLK
  5
42A
100
AcDbEntity
  8
0
  6
BYBLOCK
 62
0
100
AcDbBlockEnd
  0
BLOCK
  5
42B
100
AcDbEntity
  8
0
100
AcDbBlockBegin
 62
2
  6
CONTINUOUS
  2
*D12
 70
65
 10
0.0
 20
0.0
  3
*D12
  1

  0
MTEXT
  5
42C
100
AcDbEntity
  8
0
100
AcDbMText
 62
5
  6
CONTINUOUS
  7
TEXTSTYLE_3
 71
2
 72
1
 10
92.7391626978
 20
221.7657605587
 30
0.0
 11
0.0
 21
1.0
 31
0.0
 44
0.9
  1
38
 40
4.0
 41
5.017921147
  0
LINE
  5
42D
100
AcDbEntity
  8
0
100
AcDbLine
 62
2
  6
CONTINUOUS
 10
122.7050058869
 20
240.7657605587
 11
96.7391626978
 21
240.7657605587
  0
LINE
  5
42E
100
AcDbEntity
  8
0
100
AcDbLine
 62
2
  6
CONTINUOUS
 10
160.2050058869
 20
202.7657605587
 11
96.7391626978
 21
202.7657605587
  0
LINE
  5
42F
100
AcDbEntity
  8
0
100
AcDbLine
 62
2
  6
CONTINUOUS
 10
97.7391626978
 20
240.7657605587
 11
97.7391626978
 21
221.7657605587
  0
LINE
  5
430
100
AcDbEntity
  8
0
100
AcDbLine
 62
2
  6
CONTINUOUS
 10
97.7391626978
 20
202.7657605587
 11
97.7391626978
 21
221.7657605587
  0
INSERT
  5
431
100
AcDbEntity
  8
0
100
AcDbBlockReference
 62
2
  6
CONTINUOUS
  2
_FILLED
 10
97.7391626978
 20
240.7657605587
 41
3.5
 42
3.5
 43
3.5
 50
90.0
  0
INSERT
  5
432
100
AcDbEntity
  8
0
100
AcDbBlockReference
 62
2
  6
CONTINUOUS
  2
_FILLED
 10
97.7391626978
 20
202.7657605587
 41
3.5
 42
3.5
 43
3.5
 50
270.0
  0
ENDBLK
  5
433
100
AcDbEntity
  8
0
  6
BYBLOCK
 62
0
100
AcDbBlockEnd
  0
BLOCK
  5
434
100
AcDbEntity
  8
0
100
AcDbBlockBegin
 62
2
  6
CONTINUOUS
  2
*D13
 70
65
 10
0.0
 20
0.0
  3
*D13
  1

  0
MTEXT
  5
435
100
AcDbEntity
  8
0
100
AcDbMText
 62
5
  6
CONTINUOUS
  7
TEXTSTYLE_3
 71
2
 72
1
 10
102.7391626978
 20
239.2657605587
 30
0.0
 11
0.0
 21
1.0
 31
0.0
 44
0.9
  1
3
 40
4.0
 41
2.5089605735
  0
LINE
  5
436
100
AcDbEntity
  8
0
100
AcDbLine
 62
2
  6
CONTINUOUS
 10
122.7050058869
 20
237.7657605587
 11
106.7391626978
 21
237.7657605587
  0
LINE
  5
437
100
AcDbEntity
  8
0
100
AcDbLine
 62
2
  6
CONTINUOUS
 10
122.7050058869
 20
240.7657605587
 11
106.7391626978
 21
240.7657605587
  0
LINE
  5
438
100
AcDbEntity
  8
0
100
AcDbLine
 62
2
  6
CONTINUOUS
 10
107.7391626978
 20
237.7657605587
 11
107.7391626978
 21
232.7657605587
  0
LINE
  5
439
100
AcDbEntity
  8
0
100
AcDbLine
 62
2
  6
CONTINUOUS
 10
107.7391626978
 20
232.7657605587
 11
107.7391626978
 21
239.2657605587
  0
LINE
  5
43A
100
AcDbEntity
  8
0
100
AcDbLine
 62
2
  6
CONTINUOUS
 10
107.7391626978
 20
240.7657605587
 11
107.7391626978
 21
245.7657605587
  0
LINE
  5
43B
100
AcDbEntity
  8
0
100
AcDbLine
 62
2
  6
CONTINUOUS
 10
107.7391626978
 20
245.7657605587
 11
107.7391626978
 21
239.2657605587
  0
INSERT
  5
43C
100
AcDbEntity
  8
0
100
AcDbBlockReference
 62
2
  6
CONTINUOUS
  2
_FILLED
 10
107.7391626978
 20
237.7657605587
 41
3.5
 42
3.5
 43
3.5
 50
90.0
  0
INSERT
  5
43D
100
AcDbEntity
  8
0
100
AcDbBlockReference
 62
2
  6
CONTINUOUS
  2
_FILLED
 10
107.7391626978
 20
240.7657605587
 41
3.5
 42
3.5
 43
3.5
 50
270.0
  0
ENDBLK
  5
43E
100
AcDbEntity
  8
0
  6
BYBLOCK
 62
0
100
AcDbBlockEnd
  0
BLOCK
  5
43F
100
AcDbEntity
  8
0
100
AcDbBlockBegin
 62
2
  6
CONTINUOUS
  2
*D14
 70
65
 10
0.0
 20
0.0
  3
*D14
  1

  0
MTEXT
  5
440
100
AcDbEntity
  8
0
100
AcDbMText
 62
5
  6
CONTINUOUS
  7
TEXTSTYLE_3
 71
2
 72
1
 10
129.2050058869
 20
74.0485941295
 30
0.0
 11
1.0
 21
0.0
 31
0.0
 44
0.9
  1
13
 40
4.0
 41
5.017921147
  0
LINE
  5
441
100
AcDbEntity
  8
0
100
AcDbLine
 62
2
  6
CONTINUOUS
 10
135.7050058869
 20
54.0485941295
 11
135.7050058869
 21
70.0485941295
  0
LINE
  5
442
100
AcDbEntity
  8
0
100
AcDbLine
 62
2
  6
CONTINUOUS
 10
122.7050058869
 20
44.0485941295
 11
122.7050058869
 21
70.0485941295
  0
LINE
  5
443
100
AcDbEntity
  8
0
100
AcDbLine
 62
2
  6
CONTINUOUS
 10
135.7050058869
 20
69.0485941295
 11
129.2050058869
 21
69.0485941295
  0
LINE
  5
444
100
AcDbEntity
  8
0
100
AcDbLine
 62
2
  6
CONTINUOUS
 10
122.7050058869
 20
69.0485941295
 11
129.2050058869
 21
69.0485941295
  0
INSERT
  5
445
100
AcDbEntity
  8
0
100
AcDbBlockReference
 62
2
  6
CONTINUOUS
  2
_FILLED
 10
135.7050058869
 20
69.0485941295
 41
3.5
 42
3.5
 43
3.5
  0
INSERT
  5
446
100
AcDbEntity
  8
0
100
AcDbBlockReference
 62
2
  6
CONTINUOUS
  2
_FILLED
 10
122.7050058869
 20
69.0485941295
 41
3.5
 42
3.5
 43
3.5
 50
180.0
  0
ENDBLK
  5
447
100
AcDbEntity
  8
0
  6
BYBLOCK
 62
0
100
AcDbBlockEnd
  0
BLOCK
  5
448
100
AcDbEntity
  8
0
100
AcDbBlockBegin
 62
2
  6
CONTINUOUS
  2
*D15
 70
65
 10
0.0
 20
0.0
  3
*D15
  1

  0
MTEXT
  5
449
100
AcDbEntity
  8
0
100
AcDbMText
 62
5
  6
CONTINUOUS
  7
TEXTSTYLE_3
 71
2
 72
1
 10
243.7050058869
 20
147.2657605587
 30
0.0
 11
0.0
 21
1.0
 31
0.0
 44
0.9
  1
13
 40
4.0
 41
5.017921147
  0
LINE
  5
44A
100
AcDbEntity
  8
0
100
AcDbLine
 62
2
  6
CONTINUOUS
 10
233.7050058869
 20
140.7657605587
 11
249.7050058869
 21
140.7657605587
  0
LINE
  5
44B
100
AcDbEntity
  8
0
100
AcDbLine
 62
2
  6
CONTINUOUS
 10
235.8050058869
 20
153.7657605587
 11
249.7050058869
 21
153.7657605587
  0
LINE
  5
44C
100
AcDbEntity
  8
0
100
AcDbLine
 62
2
  6
CONTINUOUS
 10
248.7050058869
 20
140.7657605587
 11
248.7050058869
 21
147.2657605587
  0
LINE
  5
44D
100
AcDbEntity
  8
0
100
AcDbLine
 62
2
  6
CONTINUOUS
 10
248.7050058869
 20
153.7657605587
 11
248.7050058869
 21
147.2657605587
  0
INSERT
  5
44E
100
AcDbEntity
  8
0
100
AcDbBlockReference
 62
2
  6
CONTINUOUS
  2
_FILLED
 10
248.7050058869
 20
140.7657605587
 41
3.5
 42
3.5
 43
3.5
 50
270.0
  0
INSERT
  5
44F
100
AcDbEntity
  8
0
100
AcDbBlockReference
 62
2
  6
CONTINUOUS
  2
_FILLED
 10
248.7050058869
 20
153.7657605587
 41
3.5
 42
3.5
 43
3.5
 50
90.0
  0
ENDBLK
  5
450
100
AcDbEntity
  8
0
  6
BYBLOCK
 62
0
100
AcDbBlockEnd
  0
ENDSEC
  0
SECTION
  2
ENTITIES
  0
MTEXT
  5
451
100
AcDbEntity
  8
0
100
AcDbMText
 62
5
  6
CONTINUOUS
  7
TEXTSTYLE_2
 71
1
 72
1
 10
37.167277807
 20
52.297404164
 30
0.0
 11
0.0
 21
1.0
 31
0.0
 44
0.9
  1
Proprietary rights apply in accordance with ISO 16016.
 40
2.5
 41
65.4928315412
  0
MTEXT
  5
452
100
AcDbEntity
  8
0
100
AcDbMText
 62
5
  6
CONTINUOUS
  7
TEXTSTYLE_2
 71
1
 72
1
 10
305.666996946
 20
25.1814363434
 30
0.0
 11
1.0
 21
0.0
 31
0.0
 44
0.9
  1
B_15950173
 40
5.0
 41
31.8817204301
  0
DIMENSION
  5
453
100
AcDbEntity
  8
0
100
AcDbDimension
 62
2
  6
CONTINUOUS
  2
*D0
 10
157.7050058869
 20
108.7340156822
 11
140.2050058869
 21
108.7340156822
 70
160
 71
2
 42
35.0
  3
DIMSTYLE_1
100
AcDbAlignedDimension
 13
122.7050058869
 23
237.7657605587
 14
157.7050058869
 24
202.7657605587
100
AcDbRotatedDimension
  0
DIMENSION
  5
454
100
AcDbEntity
  8
0
100
AcDbDimension
 62
2
  6
CONTINUOUS
  2
*D1
 10
202.7050058869
 20
98.7340156822
 11
162.7050058869
 21
98.7340156822
 70
160
 71
2
 42
80.0
  3
DIMSTYLE_1
100
AcDbAlignedDimension
 13
122.7050058869
 23
237.7657605587
 14
202.7050058869
 24
156.9836645282
100
AcDbRotatedDimension
  0
DIMENSION
  5
455
100
AcDbEntity
  8
0
100
AcDbDimension
 62
2
  6
CONTINUOUS
  2
*D2
 10
221.7050058869
 20
108.7340156822
 11
189.7050058869
 21
108.7340156822
 70
160
 71
2
 42
64.0
  3
DIMSTYLE_1
100
AcDbAlignedDimension
 13
157.7050058869
 23
202.7657605587
 14
221.7050058869
 24
202.7657605587
100
AcDbRotatedDimension
  0
DIMENSION
  5
456
100
AcDbEntity
  8
0
100
AcDbDimension
 62
2
  6
CONTINUOUS
  2
*D3
 10
122.7050058869
 20
88.7340156822
 11
178.2050058869
 21
88.7340156822
 70
160
 71
2
 42
111.0
  3
DIMSTYLE_1
100
AcDbAlignedDimension
 13
233.7050058869
 23
150.7657605587
 14
122.7050058869
 24
237.7657605587
 50
180.0
100
AcDbRotatedDimension
  0
DIMENSION
  5
457
100
AcDbEntity
  8
0
100
AcDbDimension
 62
2
  6
CONTINUOUS
  2
*D4
 10
258.7050058869
 20
140.7657605587
 11
258.7050058869
 21
190.7657605587
 70
160
 71
2
 42
100.0
  3
DIMSTYLE_1
100
AcDbAlignedDimension
 13
229.7050058869
 23
240.7657605587
 14
233.7050058869
 24
140.7657605587
 50
270.0
100
AcDbRotatedDimension
  0
DIMENSION
  5
458
100
AcDbEntity
  8
0
100
AcDbDimension
 62
2
  6
CONTINUOUS
  2
*D5
 10
233.7050058869
 20
98.7340156822
 11
218.2050058869
 21
98.7340156822
 70
160
 71
2
 42
31.0
  3
DIMSTYLE_1
100
AcDbAlignedDimension
 13
202.7050058869
 23
101.7591679765
 14
233.7050058869
 24
150.7657605587
100
AcDbRotatedDimension
  0
DIMENSION
  5
459
100
AcDbEntity
  8
0
100
AcDbDimension
 62
2
  6
CONTINUOUS
  2
*D6
 10
188.7050058869
 20
262.7657605587
 11
182.7050058869
 21
262.7657605587
 70
160
 71
2
 42
12.0
  1
{\Fgdt;o}<>
  3
DIMSTYLE_2
100
AcDbAlignedDimension
 13
176.7050058869
 23
247.7657605587
 14
188.7050058869
 24
247.7657605587
100
AcDbRotatedDimension
  0
DIMENSION
  5
45A
100
AcDbEntity
  8
0
100
AcDbDimension
 62
2
  6
CONTINUOUS
  2
*D7
 10
182.7050058869
 20
118.7340156822
 11
170.2050058869
 21
118.7340156822
 70
160
 71
2
 42
25.0
  3
DIMSTYLE_2
100
AcDbAlignedDimension
 13
157.7050058869
 23
202.7657605587
 14
182.7050058869
 24
204.2290800964
100
AcDbRotatedDimension
  0
DIMENSION
  5
45B
100
AcDbEntity
  8
0
100
AcDbDimension
 62
2
  6
CONTINUOUS
  2
*D8
 10
337.4946250016
 20
240.7657605587
 11
337.4946250016
 21
244.2657605587
 70
160
 71
2
 42
7.0
  3
DIMSTYLE_2
100
AcDbAlignedDimension
 13
307.9946250016
 23
247.7657605587
 14
322.4946250016
 24
240.7657605587
 50
270.0
100
AcDbRotatedDimension
  0
DIMENSION
  5
45C
100
AcDbEntity
  8
0
100
AcDbDimension
 62
2
  6
CONTINUOUS
  2
*D9
 10
320.4946250016
 20
167.6853583784
 11
312.4946250016
 21
167.6853583784
 70
160
 71
2
 42
16.0
  1
18.5\P max.
  3
DIMSTYLE_2
100
AcDbAlignedDimension
 13
304.4946250016
 23
202.7657605587
 14
320.4946250016
 24
202.7657605587
100
AcDbRotatedDimension
  0
DIMENSION
  5
45D
100
AcDbEntity
  8
0
100
AcDbDimension
 62
2
  6
CONTINUOUS
  2
*D10
 10
207.9550058869
 20
69.0485941295
 11
202.7050058869
 21
69.0485941295
 70
160
 71
2
 42
10.5
  1
%%c<>
  3
DIMSTYLE_2
100
AcDbAlignedDimension
 13
197.4550058869
 23
44.0485941295
 14
207.9550058869
 24
44.0485941295
100
AcDbRotatedDimension
  0
DIMENSION
  5
45E
100
AcDbEntity
  8
0
100
AcDbDimension
 62
2
  6
CONTINUOUS
  2
*D11
 10
248.7050058869
 20
34.0485941295
 11
248.7050058869
 21
44.0485941295
 70
160
 71
2
 42
20.0
  3
DIMSTYLE_2
100
AcDbAlignedDimension
 13
229.7050058869
 23
54.0485941295
 14
229.7050058869
 24
34.0485941295
 50
270.0
100
AcDbRotatedDimension
  0
DIMENSION
  5
45F
100
AcDbEntity
  8
0
100
AcDbDimension
 62
2
  6
CONTINUOUS
  2
*D12
 10
97.7391626978
 20
202.7657605587
 11
97.7391626978
 21
221.7657605587
 70
160
 71
2
 42
38.0
  3
DIMSTYLE_1
100
AcDbAlignedDimension
 13
122.7050058869
 23
240.7657605587
 14
160.2050058869
 24
202.7657605587
 50
270.0
100
AcDbRotatedDimension
  0
DIMENSION
  5
460
100
AcDbEntity
  8
0
100
AcDbDimension
 62
2
  6
CONTINUOUS
  2
*D13
 10
107.7391626978
 20
240.7657605587
 11
107.7391626978
 21
239.2657605587
 70
160
 71
2
 42
3.0
  3
DIMSTYLE_3
100
AcDbAlignedDimension
 13
122.7050058869
 23
237.7657605587
 14
122.7050058869
 24
240.7657605587
 50
90.0
100
AcDbRotatedDimension
  0
DIMENSION
  5
461
100
AcDbEntity
  8
0
100
AcDbDimension
 62
2
  6
CONTINUOUS
  2
*D14
 10
122.7050058869
 20
69.0485941295
 11
129.2050058869
 21
69.0485941295
 70
160
 71
2
 42
13.0
  3
DIMSTYLE_2
100
AcDbAlignedDimension
 13
135.7050058869
 23
54.0485941295
 14
122.7050058869
 24
44.0485941295
 50
180.0
100
AcDbRotatedDimension
  0
DIMENSION
  5
462
100
AcDbEntity
  8
0
100
AcDbDimension
 62
2
  6
CONTINUOUS
  2
*D15
 10
248.7050058869
 20
153.7657605587
 11
248.7050058869
 21
147.2657605587
 70
160
 71
2
 42
13.0
  3
DIMSTYLE_2
100
AcDbAlignedDimension
 13
233.7050058869
 23
140.7657605587
 14
235.8050058869
 24
153.7657605587
 50
90.0
100
AcDbRotatedDimension
  0
LINE
  5
463
100
AcDbEntity
  8
0
100
AcDbLine
 62
5
  6
CONTINUOUS
 10
25.0
 20
292.0
 11
25.0
 21
5.0
  0
LINE
  5
464
100
AcDbEntity
  8
0
100
AcDbLine
 62
5
  6
CONTINUOUS
 10
25.0
 20
5.0
 11
415.0
 21
5.0
  0
LINE
  5
465
100
AcDbEntity
  8
0
100
AcDbLine
 62
5
  6
CONTINUOUS
 10
25.0
 20
292.0
 11
415.0
 21
292.0
  0
LINE
  5
466
100
AcDbEntity
  8
0
100
AcDbLine
 62
5
  6
CONTINUOUS
 10
415.0
 20
292.0
 11
415.0
 21
5.0
  0
LINE
  5
467
100
AcDbEntity
  8
0
100
AcDbLine
 62
2
  6
CONTINUOUS
 10
320.5727483102
 20
177.6853583784
 11
322.4946250016
 21
178.1139776754
  0
LINE
  5
468
100
AcDbEntity
  8
0
100
AcDbLine
 62
2
  6
CONTINUOUS
 10
317.2820219488
 20
177.8341865065
 11
320.5727483102
 21
177.6853583784
  0
LINE
  5
469
100
AcDbEntity
  8
0
100
AcDbLine
 62
2
  6
CONTINUOUS
 10
307.3405479848
 20
180.5534723494
 11
309.7827796985
 21
180.3339339232
  0
LINE
  5
46A
100
AcDbEntity
  8
0
100
AcDbLine
 62
2
  6
CONTINUOUS
 10
304.858530713
 20
181.0453275468
 11
307.3405479848
 21
180.5534723494
  0
LINE
  5
46B
100
AcDbEntity
  8
0
100
AcDbLine
 62
2
  6
CONTINUOUS
 10
309.7827796985
 20
180.3339339232
 11
312.2339479967
 21
179.613152128
  0
LINE
  5
46C
100
AcDbEntity
  8
0
100
AcDbLine
 62
2
  6
CONTINUOUS
 10
314.724901853
 20
178.6200535616
 11
317.2820219488
 21
177.8341865065
  0
LINE
  5
46D
100
AcDbEntity
  8
0
100
AcDbLine
 62
2
  6
CONTINUOUS
 10
312.2339479967
 20
179.613152128
 11
314.724901853
 21
178.6200535616
  0
LINE
  5
46E
100
AcDbEntity
  8
0
100
AcDbLine
 62
2
  6
CONTINUOUS
 10
302.4946250016
 20
182.6870793151
 11
304.858530713
 21
181.0453275468
  0
LINE
  5
46F
100
AcDbEntity
  8
0
100
AcDbLine
 62
2
  6
CONTINUOUS
 10
203.5540030626
 20
172.5767743028
 11
207.7050058869
 21
170.9619364694
  0
LINE
  5
470
100
AcDbEntity
  8
0
100
AcDbLine
 62
2
  6
CONTINUOUS
 10
197.7050058869
 20
175.9030284886
 11
199.4075316424
 21
175.040101467
  0
LINE
  5
471
100
AcDbEntity
  8
0
100
AcDbLine
 62
2
  6
CONTINUOUS
 10
199.4075316424
 20
175.040101467
 11
203.5540030626
 21
172.5767743028
  0
INSERT
  5
472
100
AcDbEntity
  8
GU_BKS_BL0
100
AcDbBlockReference
  2
GU_BKS_BL0
 10
39.3609177868
 20
16.129518354
  0
INSERT
  5
473
100
AcDbEntity
  8
X15008000_BL1
100
AcDbBlockReference
  2
X15008000_BL1
 10
222.125666567
 20
139.9071773441
  0
INSERT
  5
474
100
AcDbEntity
  8
X15254000_BL2
100
AcDbBlockReference
  2
X15254000_BL2
 10
239.0998154443
 20
137.6571773441
  0
INSERT
  5
475
100
AcDbEntity
  8
X15135000_BL3
100
AcDbBlockReference
  2
X15135000_BL3
 10
238.0998154443
 20
149.6875883443
  0
INSERT
  5
476
100
AcDbEntity
  8
X15302000_BL4
100
AcDbBlockReference
  2
X15302000_BL4
 10
247.5998154443
 20
142.9071773441
  0
INSERT
  5
477
100
AcDbEntity
  8
C00944022_BL5
100
AcDbBlockReference
  2
C00944022_BL5
 10
257.5998154443
 20
138.4071773441
  0
INSERT
  5
478
100
AcDbEntity
  8
Y00917152_BL6
100
AcDbBlockReference
  2
Y00917152_BL6
 10
253.2482851388
 20
142.3299583582
  0
INSERT
  5
479
100
AcDbEntity
  8
X00941000_BL7
100
AcDbBlockReference
  2
X00941000_BL7
 10
256.793726531
 20
141.4571773441
  0
INSERT
  5
47A
100
AcDbEntity
  8
X01822000_BL8
100
AcDbBlockReference
  2
X01822000_BL8
 10
166.7050058869
 20
225.7657605587
  0
INSERT
  5
47B
100
AcDbEntity
  8
X01822000_BL9
100
AcDbBlockReference
  2
X01822000_BL9
 10
213.7050058869
 20
216.7657605587
  0
INSERT
  5
47C
100
AcDbEntity
  8
ZYLINDERSCHRAUBE_M4X16_INN_BL10
100
AcDbBlockReference
  2
ZYLINDERSCHRAUBE_M4X16_INN_BL10
 10
182.7050058869
 20
137.1571773441
  0
INSERT
  5
47D
100
AcDbEntity
  8
Y15302001_BL11
100
AcDbBlockReference
  2
Y15302001_BL11
 10
169.4800163594
 20
44.1066596708
  0
ENDSEC
  0
SECTION
  2
OBJECTS
  0
DICTIONARY
  5
C
100
AcDbDictionary
280
0
281
1
  3
ACAD_GROUP
350
D
  3
ACAD_MLINESTYLE
350
17
  3
ACAD_LAYOUT
350
1A
  3
ACAD_PLOTSETTINGS
350
19
  3
ACAD_PLOTSTYLENAME
350
E
  0
DICTIONARY
  5
D
102
{ACAD_REACTORS
330
C
102
}
100
AcDbDictionary
280
0
281
1
  0
ACDBDICTIONARYWDFLT
  5
E
102
{ACAD_REACTORS
330
C
102
}
100
AcDbDictionary
281
1
  3
Normal
350
F
100
AcDbDictionaryWithDefault
340
F
  0
DICTIONARY
  5
17
102
{ACAD_REACTORS
330
C
102
}
100
AcDbDictionary
280
0
281
1
  3
Standard
350
18
  0
DICTIONARY
  5
19
102
{ACAD_REACTORS
330
C
102
}
100
AcDbDictionary
281
1
  0
DICTIONARY
  5
1A
102
{ACAD_REACTORS
330
C
102
}
100
AcDbDictionary
281
1
  3
Model
350
47E
  3
Layout1
350
47F
  0
ACDBPLACEHOLDER
  5
F
102
{ACAD_REACTORS
330
E
102
}
  0
MLINESTYLE
  5
18
102
{ACAD_REACTORS
330
17
102
}
100
AcDbMlineStyle
  2
STANDARD
 70
0
  3

 62
256
 51
90.0
 52
90.0
 71
2
 49
0.5
 62
256
  6
BYLAYER
 49
-0.5
 62
256
  6
BYLAYER
  0
LAYOUT
  5
47E
102
{ACAD_REACTORS
330
1A
102
}
100
AcDbPlotSettings
  1

  2
none_device
  4
ISO_A3_(420.00_x_297.00_MM)
  6

 40
0.0
 41
0.0
 42
0.0
 43
0.0
 44
420.0
 45
297.0
 46
0.0
 47
0.0
 48
0.0
 49
0.0
140
0.0
141
0.0
142
1.0
143
1.0
 70
1024
 72
1
 73
0
 74
0
  7

 75
0
147
1.0
148
0.0
149
0.0
100
AcDbLayout
  1
Model
 70
0
 71
0
 10
0.0
 20
0.0
 11
420.0
 21
297.0
 12
0.0
 22
0.0
 32
0.0
 14
0.0
 24
0.0
 34
0.0
 15
0.0
 25
0.0
 35
0.0
146
0.0
 13
0.0
 23
0.0
 33
0.0
 16
1.0
 26
0.0
 36
0.0
 17
0.0
 27
1.0
 37
0.0
 76
0
330
220
345
0
346
0
  0
LAYOUT
  5
47F
102
{ACAD_REACTORS
330
1A
102
}
100
AcDbPlotSettings
  1

  2
none_device
  4
ISO_A3_(420.00_x_297.00_MM)
  6

 40
0.0
 41
0.0
 42
0.0
 43
0.0
 44
420.0
 45
297.0
 46
0.0
 47
0.0
 48
0.0
 49
0.0
140
0.0
141
0.0
142
1.0
143
1.0
 70
0
 72
1
 73
0
 74
0
  7

 75
0
147
1.0
148
0.0
149
0.0
100
AcDbLayout
  1
Layout1
 70
0
 71
1
 10
0.0
 20
0.0
 11
420.0
 21
297.0
 12
0.0
 22
0.0
 32
0.0
 14
0.0
 24
0.0
 34
0.0
 15
0.0
 25
0.0
 35
0.0
146
0.0
 13
0.0
 23
0.0
 33
0.0
 16
1.0
 26
0.0
 36
0.0
 17
0.0
 27
1.0
 37
0.0
 76
0
330
221
345
0
346
0
  0
ENDSEC
  0
EOF
