999
DXF file: 63941250000_bd01.dxf
999
Pro/ENGINEER 2020044 by Parametric Technology Corporation
  0
SECTION
  2
HEADER
  9
$ACADVER
  1
AC1024
  9
$DWGCODEPAGE
  3
ANSI_1252
  9
$EXTMAX
 10
190.0
 20
1040.0
 30
0.0
  9
$EXTMIN
 10
0.0
 20
0.0
 30
0.0
  9
$LIMMIN
 10
0.0
 20
0.0
  9
$LIMMAX
 10
190.0
 20
1040.0
  9
$VIEWCTR
 10
95.0
 20
520.0
  9
$VIEWSIZE
 40
1040.0
  9
$CLAYER
  8
0
  9
$LTSCALE
 40
67.7925925926
  9
$CELTYPE
  6
BYLAYER
  9
$DIMSCALE
 40
1.0
  9
$DIMASZ
 40
3.5
  9
$DIMEXO
 40
0.0
  9
$DIMDLI
 40
46.8385185185
  9
$DIMEXE
 40
1.0
  9
$DIMCEN
 40
11.0933333333
  9
$DIMLFAC
 40
1.0
  9
$DIMBLK
  1
_FILLED
  9
$DIMALT
 70
0
  9
$DIMALTF
 40
0.0393700787
  9
$DIMTXT
 40
2.5
  9
$DIMTOL
 70
1
  9
$DIMLIM
 70
0
  9
$DIMTFAC
 40
1.0
  9
$DIMTP
 40
0.001
  9
$DIMTM
 40
0.001
  9
$DIMGAP
 40
0.625
  9
$DIMDSEP
 70
46
  9
$AUNITS
 70
0
  9
$PDMODE
 70
3
  9
$PDSIZE
 40
2.0
  9
$HANDSEED
  5
728
  9
$TILEMODE
 70
1
  9
$MEASUREMENT
 70
1
  9
$INSUNITS
 70
4
  0
ENDSEC
  0
SECTION
  2
CLASSES
  0
CLASS
  1
ACDBDICTIONARYWDFLT
  2
AcDbDictionaryWithDefault
  3
AutoCAD 2000
 90
0
 91
1
280
0
281
0
  0
CLASS
  1
ACDBPLACEHOLDER
  2
AcDbPlaceHolder
  3
AutoCAD 2000
 90
0
 91
1
280
0
281
0
  0
CLASS
  1
LAYOUT
  2
AcDbLayout
  3
AutoCAD 2000
 90
0
 91
0
280
0
281
0
  0
ENDSEC
  0
SECTION
  2
TABLES
  0
TABLE
  2
VPORT
  5
8
100
AcDbSymbolTable
 70
2
  0
VPORT
  5
1F4
100
AcDbSymbolTableRecord
100
AcDbViewportTableRecord
  2
*ACTIVE
 70
0
 10
0.0
 20
0.0
 11
1.0
 21
1.0
 12
95.0
 22
520.0
 13
0.0
 23
0.0
 14
1.0
 24
1.0
 15
0.0
 25
0.0
 16
0.0
 26
0.0
 36
1.0
 17
0.0
 27
0.0
 37
0.0
 40
1040.0
 41
0.1826923077
 42
50.0
 43
0.0
 44
0.0
 50
0.0
 51
0.0
 71
0
 72
100
 73
1
 74
1
 75
0
 76
0
 77
0
 78
0
  0
ENDTAB
  0
TABLE
  2
LTYPE
  5
5
100
AcDbSymbolTable
 70
6
  0
LTYPE
  5
14
100
AcDbSymbolTableRecord
100
AcDbLinetypeTableRecord
  2
BYBLOCK
 70
0
  3

 72
65
 73
0
 40
0.0
  0
LTYPE
  5
15
100
AcDbSymbolTableRecord
100
AcDbLinetypeTableRecord
  2
BYLAYER
 70
0
  3

 72
65
 73
0
 40
0.0
  0
LTYPE
  5
16
100
AcDbSymbolTableRecord
100
AcDbLinetypeTableRecord
  2
CONTINUOUS
 70
64
  3
Solid line
 72
65
 73
0
 40
0.0
  0
LTYPE
  5
1F5
100
AcDbSymbolTableRecord
100
AcDbLinetypeTableRecord
  2
CENTER
 70
64
  3
____ _ ____ _ ____ _ ____ _ ____ _ ____ _ ____
 72
65
 73
4
 40
0.6
 49
0.375
 74
0
 49
-0.075
 74
0
 49
0.075
 74
0
 49
-0.075
 74
0
  0
LTYPE
  5
1F6
100
AcDbSymbolTableRecord
100
AcDbLinetypeTableRecord
  2
HIDDEN
 70
64
  3
- - - - - - - - - - - - - - - - - - - -
 72
65
 73
2
 40
0.2
 49
0.1
 74
0
 49
-0.1
 74
0
  0
LTYPE
  5
1F7
100
AcDbSymbolTableRecord
100
AcDbLinetypeTableRecord
  2
PHANTOM
 70
64
  3
_____ _ _ _____ _ _ _____ _ _ _____
 72
65
 73
6
 40
0.8
 49
0.45
 74
0
 49
-0.05
 74
0
 49
0.1
 74
0
 49
-0.05
 74
0
 49
0.1
 74
0
 49
-0.05
 74
0
  0
LTYPE
  5
1F8
100
AcDbSymbolTableRecord
100
AcDbLinetypeTableRecord
  2
DOT
 70
64
  3
. . . . . . . . . . . . . . . . . . . .
 72
65
 73
2
 40
0.2
 49
0.1
 74
0
 49
-0.1
 74
0
  0
LTYPE
  5
1F9
100
AcDbSymbolTableRecord
100
AcDbLinetypeTableRecord
  2
DASHED
 70
64
  3
- - - - - - - - - - - - - - - - - - - -
 72
65
 73
2
 40
0.2
 49
0.1
 74
0
 49
-0.1
 74
0
  0
ENDTAB
  0
TABLE
  2
LAYER
  5
2
100
AcDbSymbolTable
 70
36
  0
LAYER
  5
10
100
AcDbSymbolTableRecord
100
AcDbLayerTableRecord
  2
0
 70
0
 62
7
  6
CONTINUOUS
370
-3
390
F
  0
LAYER
  5
1FA
100
AcDbSymbolTableRecord
100
AcDbLayerTableRecord
  2
DEFAULT_1
 70
0
 62
7
  6
CENTER
370
-3
390
F
  0
LAYER
  5
1FB
100
AcDbSymbolTableRecord
100
AcDbLayerTableRecord
  2
DEFAULT_2
 70
0
 62
8
  6
HIDDEN
370
-3
390
F
  0
LAYER
  5
1FC
100
AcDbSymbolTableRecord
100
AcDbLayerTableRecord
  2
DEFAULT_3
 70
0
 62
7
  6
PHANTOM
370
-3
390
F
  0
LAYER
  5
1FD
100
AcDbSymbolTableRecord
100
AcDbLayerTableRecord
  2
01___PRT_ALL_DTM_PLN
 70
0
 62
7
  6
CONTINUOUS
370
-3
390
F
  0
LAYER
  5
1FE
100
AcDbSymbolTableRecord
100
AcDbLayerTableRecord
  2
01___PRT_DEF_DTM_PLN
 70
0
 62
7
  6
CONTINUOUS
370
-3
390
F
  0
LAYER
  5
1FF
100
AcDbSymbolTableRecord
100
AcDbLayerTableRecord
  2
02___PRT_ALL_AXES
 70
0
 62
7
  6
CONTINUOUS
370
-3
390
F
  0
LAYER
  5
200
100
AcDbSymbolTableRecord
100
AcDbLayerTableRecord
  2
03___PRT_ALL_CURVES
 70
0
 62
7
  6
CONTINUOUS
370
-3
390
F
  0
LAYER
  5
201
100
AcDbSymbolTableRecord
100
AcDbLayerTableRecord
  2
04___PRT_ALL_DTM_PNT
 70
0
 62
7
  6
CONTINUOUS
370
-3
390
F
  0
LAYER
  5
202
100
AcDbSymbolTableRecord
100
AcDbLayerTableRecord
  2
05___PRT_ALL_DTM_CSYS
 70
0
 62
7
  6
CONTINUOUS
370
-3
390
F
  0
LAYER
  5
203
100
AcDbSymbolTableRecord
100
AcDbLayerTableRecord
  2
05___PRT_DEF_DTM_CSYS
 70
0
 62
7
  6
CONTINUOUS
370
-3
390
F
  0
LAYER
  5
204
100
AcDbSymbolTableRecord
100
AcDbLayerTableRecord
  2
06___PRT_ALL_SURFS
 70
0
 62
7
  6
CONTINUOUS
370
-3
390
F
  0
LAYER
  5
205
100
AcDbSymbolTableRecord
100
AcDbLayerTableRecord
  2
ALTE_REFERENZEN
 70
0
 62
7
  6
CONTINUOUS
370
-3
390
F
  0
LAYER
  5
206
100
AcDbSymbolTableRecord
100
AcDbLayerTableRecord
  2
AUSSCHNITT
 70
0
 62
7
  6
CONTINUOUS
370
-3
390
F
  0
LAYER
  5
207
100
AcDbSymbolTableRecord
100
AcDbLayerTableRecord
  2
AXIS
 70
0
 62
7
  6
CONTINUOUS
370
-3
390
F
  0
LAYER
  5
208
100
AcDbSymbolTableRecord
100
AcDbLayerTableRecord
  2
BEMASSUNG_ZEICHNUNG
 70
0
 62
7
  6
CONTINUOUS
370
-3
390
F
  0
LAYER
  5
209
100
AcDbSymbolTableRecord
100
AcDbLayerTableRecord
  2
BEZUGSEBENEN
 70
0
 62
7
  6
CONTINUOUS
370
-3
390
F
  0
LAYER
  5
20A
100
AcDbSymbolTableRecord
100
AcDbLayerTableRecord
  2
COORDSYS
 70
0
 62
7
  6
CONTINUOUS
370
-3
390
F
  0
LAYER
  5
20B
100
AcDbSymbolTableRecord
100
AcDbLayerTableRecord
  2
CURVES
 70
0
 62
7
  6
CONTINUOUS
370
-3
390
F
  0
LAYER
  5
20C
100
AcDbSymbolTableRecord
100
AcDbLayerTableRecord
  2
DECKEL
 70
0
 62
7
  6
CONTINUOUS
370
-3
390
F
  0
LAYER
  5
20D
100
AcDbSymbolTableRecord
100
AcDbLayerTableRecord
  2
EINBAUREFERENZ
 70
0
 62
7
  6
CONTINUOUS
370
-3
390
F
  0
LAYER
  5
20E
100
AcDbSymbolTableRecord
100
AcDbLayerTableRecord
  2
FUNKTIONSFLAECHE
 70
0
 62
7
  6
CONTINUOUS
370
-3
390
F
  0
LAYER
  5
20F
100
AcDbSymbolTableRecord
100
AcDbLayerTableRecord
  2
FUNKTION_ANLENKUNG
 70
0
 62
7
  6
CONTINUOUS
370
-3
390
F
  0
LAYER
  5
210
100
AcDbSymbolTableRecord
100
AcDbLayerTableRecord
  2
FUNKTION_AUFLAGE
 70
0
 62
7
  6
CONTINUOUS
370
-3
390
F
  0
LAYER
  5
211
100
AcDbSymbolTableRecord
100
AcDbLayerTableRecord
  2
FUNKTION_BOHRUNG
 70
0
 62
7
  6
CONTINUOUS
370
-3
390
F
  0
LAYER
  5
212
100
AcDbSymbolTableRecord
100
AcDbLayerTableRecord
  2
FUNKTION_LASCHE
 70
0
 62
7
  6
CONTINUOUS
370
-3
390
F
  0
LAYER
  5
213
100
AcDbSymbolTableRecord
100
AcDbLayerTableRecord
  2
FURCHZONE
 70
0
 62
7
  6
CONTINUOUS
370
-3
390
F
  0
LAYER
  5
214
100
AcDbSymbolTableRecord
100
AcDbLayerTableRecord
  2
GEHAEUSE
 70
0
 62
7
  6
CONTINUOUS
370
-3
390
F
  0
LAYER
  5
215
100
AcDbSymbolTableRecord
100
AcDbLayerTableRecord
  2
GLATTSCHNITT
 70
0
 62
7
  6
CONTINUOUS
370
-3
390
F
  0
LAYER
  5
216
100
AcDbSymbolTableRecord
100
AcDbLayerTableRecord
  2
GLEITFLAECHEN_A_A
 70
0
 62
7
  6
CONTINUOUS
370
-3
390
F
  0
LAYER
  5
217
100
AcDbSymbolTableRecord
100
AcDbLayerTableRecord
  2
GLEITFLAECHEN_F
 70
0
 62
7
  6
CONTINUOUS
370
-3
390
F
  0
LAYER
  5
218
100
AcDbSymbolTableRecord
100
AcDbLayerTableRecord
  2
GLEITFLAECHEN_J_J
 70
0
 62
7
  6
CONTINUOUS
370
-3
390
F
  0
LAYER
  5
219
100
AcDbSymbolTableRecord
100
AcDbLayerTableRecord
  2
GLEITFLAECHEN_J_J_01
 70
0
 62
7
  6
CONTINUOUS
370
-3
390
F
  0
LAYER
  5
21A
100
AcDbSymbolTableRecord
100
AcDbLayerTableRecord
  2
GLEITFLAECHEN_K_K
 70
0
 62
7
  6
CONTINUOUS
370
-3
390
F
  0
LAYER
  5
21B
100
AcDbSymbolTableRecord
100
AcDbLayerTableRecord
  2
GLEITFLAECHEN_T
 70
0
 62
7
  6
CONTINUOUS
370
-3
390
F
  0
LAYER
  5
21C
100
AcDbSymbolTableRecord
100
AcDbLayerTableRecord
  2
GLEITFLAECHE_OBEN
 70
0
 62
7
  6
CONTINUOUS
370
-3
390
F
  0
LAYER
  5
21D
100
AcDbSymbolTableRecord
100
AcDbLayerTableRecord
  2
KOSMETIK
 70
0
 62
7
  6
CONTINUOUS
370
-3
390
F
  0
LAYER
  5
21E
100
AcDbSymbolTableRecord
100
AcDbLayerTableRecord
  2
KOSMETIK_EBENHEITSBEREICH
 70
0
 62
7
  6
CONTINUOUS
370
-3
390
F
  0
LAYER
  5
21F
100
AcDbSymbolTableRecord
100
AcDbLayerTableRecord
  2
KOSMETIK_GLEITFLAECHE_SEITE
 70
0
 62
7
  6
CONTINUOUS
370
-3
390
F
  0
LAYER
  5
220
100
AcDbSymbolTableRecord
100
AcDbLayerTableRecord
  2
KOSMETIK_ZAPFEN
 70
0
 62
7
  6
CONTINUOUS
370
-3
390
F
  0
LAYER
  5
221
100
AcDbSymbolTableRecord
100
AcDbLayerTableRecord
  2
PLANES
 70
0
 62
7
  6
CONTINUOUS
370
-3
390
F
  0
LAYER
  5
222
100
AcDbSymbolTableRecord
100
AcDbLayerTableRecord
  2
POINTS
 70
0
 62
7
  6
CONTINUOUS
370
-3
390
F
  0
LAYER
  5
223
100
AcDbSymbolTableRecord
100
AcDbLayerTableRecord
  2
S-AXIS
 70
0
 62
7
  6
CONTINUOUS
370
-3
390
F
  0
LAYER
  5
224
100
AcDbSymbolTableRecord
100
AcDbLayerTableRecord
  2
S-COORDSYS
 70
0
 62
7
  6
CONTINUOUS
370
-3
390
F
  0
LAYER
  5
225
100
AcDbSymbolTableRecord
100
AcDbLayerTableRecord
  2
S-PLANES
 70
0
 62
7
  6
CONTINUOUS
370
-3
390
F
  0
LAYER
  5
226
100
AcDbSymbolTableRecord
100
AcDbLayerTableRecord
  2
SEITENPLATTE
 70
0
 62
7
  6
CONTINUOUS
370
-3
390
F
  0
LAYER
  5
227
100
AcDbSymbolTableRecord
100
AcDbLayerTableRecord
  2
SICHTFLAECHE
 70
0
 62
7
  6
CONTINUOUS
370
-3
390
F
  0
LAYER
  5
228
100
AcDbSymbolTableRecord
100
AcDbLayerTableRecord
  2
THREADS
 70
0
 62
7
  6
CONTINUOUS
370
-3
390
F
  0
LAYER
  5
229
100
AcDbSymbolTableRecord
100
AcDbLayerTableRecord
  2
XSEC_DATUMS
 70
0
 62
7
  6
CONTINUOUS
370
-3
390
F
  0
LAYER
  5
22A
100
AcDbSymbolTableRecord
100
AcDbLayerTableRecord
  2
94339807000_BL0
 70
0
 62
7
  6
CONTINUOUS
370
-3
390
F
  0
LAYER
  5
22B
100
AcDbSymbolTableRecord
100
AcDbLayerTableRecord
  2
94870650000_BL1
 70
0
 62
7
  6
CONTINUOUS
370
-3
390
F
  0
LAYER
  5
22C
100
AcDbSymbolTableRecord
100
AcDbLayerTableRecord
  2
95043001000_M1_BL2
 70
0
 62
7
  6
CONTINUOUS
370
-3
390
F
  0
LAYER
  5
22D
100
AcDbSymbolTableRecord
100
AcDbLayerTableRecord
  2
94754901000_BL3
 70
0
 62
7
  6
CONTINUOUS
370
-3
390
F
  0
LAYER
  5
22E
100
AcDbSymbolTableRecord
100
AcDbLayerTableRecord
  2
SUWN07008_A6_4_DR786_BL4
 70
0
 62
7
  6
CONTINUOUS
370
-3
390
F
  0
LAYER
  5
22F
100
AcDbSymbolTableRecord
100
AcDbLayerTableRecord
  2
95198401000_M_BL5
 70
0
 62
7
  6
CONTINUOUS
370
-3
390
F
  0
LAYER
  5
230
100
AcDbSymbolTableRecord
100
AcDbLayerTableRecord
  2
93726700000_BL6
 70
0
 62
7
  6
CONTINUOUS
370
-3
390
F
  0
LAYER
  5
231
100
AcDbSymbolTableRecord
100
AcDbLayerTableRecord
  2
94755099000_D_BL7
 70
0
 62
7
  6
CONTINUOUS
370
-3
390
F
  0
LAYER
  5
232
100
AcDbSymbolTableRecord
100
AcDbLayerTableRecord
  2
93208800000_M2_BL8
 70
0
 62
7
  6
CONTINUOUS
370
-3
390
F
  0
LAYER
  5
233
100
AcDbSymbolTableRecord
100
AcDbLayerTableRecord
  2
SUWN07008_A3_1_DR787_BL9
 70
0
 62
7
  6
CONTINUOUS
370
-3
390
F
  0
LAYER
  5
234
100
AcDbSymbolTableRecord
100
AcDbLayerTableRecord
  2
SUWN07008_A3_1_DR788_BL10
 70
0
 62
7
  6
CONTINUOUS
370
-3
390
F
  0
LAYER
  5
235
100
AcDbSymbolTableRecord
100
AcDbLayerTableRecord
  2
62907801000_BL11
 70
0
 62
7
  6
CONTINUOUS
370
-3
390
F
  0
LAYER
  5
236
100
AcDbSymbolTableRecord
100
AcDbLayerTableRecord
  2
93725700000_M_BL12
 70
0
 62
7
  6
CONTINUOUS
370
-3
390
F
  0
LAYER
  5
237
100
AcDbSymbolTableRecord
100
AcDbLayerTableRecord
  2
93725800000_BL13
 70
0
 62
7
  6
CONTINUOUS
370
-3
390
F
  0
LAYER
  5
238
100
AcDbSymbolTableRecord
100
AcDbLayerTableRecord
  2
93726300000_M_BL14
 70
0
 62
7
  6
CONTINUOUS
370
-3
390
F
  0
LAYER
  5
239
100
AcDbSymbolTableRecord
100
AcDbLayerTableRecord
  2
93726100000_M_BL15
 70
0
 62
7
  6
CONTINUOUS
370
-3
390
F
  0
LAYER
  5
23A
100
AcDbSymbolTableRecord
100
AcDbLayerTableRecord
  2
63711301L00_BL16
 70
0
 62
7
  6
CONTINUOUS
370
-3
390
F
  0
LAYER
  5
23B
100
AcDbSymbolTableRecord
100
AcDbLayerTableRecord
  2
93725900000_BL17
 70
0
 62
7
  6
CONTINUOUS
370
-3
390
F
  0
LAYER
  5
23C
100
AcDbSymbolTableRecord
100
AcDbLayerTableRecord
  2
62849100000_M3_BL18
 70
0
 62
7
  6
CONTINUOUS
370
-3
390
F
  0
LAYER
  5
23D
100
AcDbSymbolTableRecord
100
AcDbLayerTableRecord
  2
93480207R00_BL19
 70
0
 62
7
  6
CONTINUOUS
370
-3
390
F
  0
LAYER
  5
23E
100
AcDbSymbolTableRecord
100
AcDbLayerTableRecord
  2
93480207R00_BL20
 70
0
 62
7
  6
CONTINUOUS
370
-3
390
F
  0
ENDTAB
  0
TABLE
  2
STYLE
  5
3
100
AcDbSymbolTable
 70
1
  0
STYLE
  5
11
100
AcDbSymbolTableRecord
100
AcDbTextStyleTableRecord
  2
STANDARD
 70
0
 40
0.0
 41
1.0
 50
0.0
 71
0
 42
0.2
  3
arialuni.ttf
  4

  0
STYLE
  5
23F
100
AcDbSymbolTableRecord
100
AcDbTextStyleTableRecord
  2
TEXTSTYLE_1
 70
0
 40
0.0
 41
0.8
 50
0.0
 71
0
 42
0.2
  3
gdt
  4

  0
STYLE
  5
240
100
AcDbSymbolTableRecord
100
AcDbTextStyleTableRecord
  2
TEXTSTYLE_2
 70
0
 40
0.0
 41
1.0
 50
0.0
 71
0
 42
0.2
  3
arialbd.ttf
  4

  0
STYLE
  5
241
100
AcDbSymbolTableRecord
100
AcDbTextStyleTableRecord
  2
TEXTSTYLE_3
 70
0
 40
0.0
 41
1.0
 50
0.0
 71
0
 42
0.2
  3
arial.ttf
  4

  0
ENDTAB
  0
TABLE
  2
VIEW
  5
6
100
AcDbSymbolTable
 70
0
  0
ENDTAB
  0
TABLE
  2
UCS
  5
7
100
AcDbSymbolTable
 70
0
  0
ENDTAB
  0
TABLE
  2
APPID
  5
9
100
AcDbSymbolTable
 70
1
  0
APPID
  5
242
100
AcDbSymbolTableRecord
100
AcDbRegAppTableRecord
  2
ACAD
 70
0
  0
ENDTAB
  0
TABLE
  2
BLOCK_RECORD
  5
1
100
AcDbSymbolTable
 70
0
  0
BLOCK_RECORD
  5
243
100
AcDbSymbolTableRecord
100
AcDbBlockTableRecord
  2
*Model_Space
  0
BLOCK_RECORD
  5
244
100
AcDbSymbolTableRecord
100
AcDbBlockTableRecord
  2
*Paper_Space
  0
BLOCK_RECORD
  5
245
100
AcDbSymbolTableRecord
100
AcDbBlockTableRecord
  2
_FILLED
  0
BLOCK_RECORD
  5
246
100
AcDbSymbolTableRecord
100
AcDbBlockTableRecord
  2
_DOT
  0
BLOCK_RECORD
  5
247
100
AcDbSymbolTableRecord
100
AcDbBlockTableRecord
  2
*D0
  0
BLOCK_RECORD
  5
248
100
AcDbSymbolTableRecord
100
AcDbBlockTableRecord
  2
*D1
  0
BLOCK_RECORD
  5
249
100
AcDbSymbolTableRecord
100
AcDbBlockTableRecord
  2
*D2
  0
BLOCK_RECORD
  5
24A
100
AcDbSymbolTableRecord
100
AcDbBlockTableRecord
  2
*D3
  0
BLOCK_RECORD
  5
24B
100
AcDbSymbolTableRecord
100
AcDbBlockTableRecord
  2
*D4
  0
BLOCK_RECORD
  5
24C
100
AcDbSymbolTableRecord
100
AcDbBlockTableRecord
  2
*D5
  0
BLOCK_RECORD
  5
24D
100
AcDbSymbolTableRecord
100
AcDbBlockTableRecord
  2
*D6
  0
BLOCK_RECORD
  5
24E
100
AcDbSymbolTableRecord
100
AcDbBlockTableRecord
  2
*D7
  0
BLOCK_RECORD
  5
24F
100
AcDbSymbolTableRecord
100
AcDbBlockTableRecord
  2
*D8
  0
BLOCK_RECORD
  5
250
100
AcDbSymbolTableRecord
100
AcDbBlockTableRecord
  2
*D9
  0
BLOCK_RECORD
  5
251
100
AcDbSymbolTableRecord
100
AcDbBlockTableRecord
  2
*D10
  0
BLOCK_RECORD
  5
252
100
AcDbSymbolTableRecord
100
AcDbBlockTableRecord
  2
*D11
  0
BLOCK_RECORD
  5
253
100
AcDbSymbolTableRecord
100
AcDbBlockTableRecord
  2
*D12
  0
BLOCK_RECORD
  5
254
100
AcDbSymbolTableRecord
100
AcDbBlockTableRecord
  2
*D13
  0
BLOCK_RECORD
  5
255
100
AcDbSymbolTableRecord
100
AcDbBlockTableRecord
  2
*D14
  0
BLOCK_RECORD
  5
256
100
AcDbSymbolTableRecord
100
AcDbBlockTableRecord
  2
*D15
  0
BLOCK_RECORD
  5
257
100
AcDbSymbolTableRecord
100
AcDbBlockTableRecord
  2
*D16
  0
BLOCK_RECORD
  5
258
100
AcDbSymbolTableRecord
100
AcDbBlockTableRecord
  2
*D17
  0
BLOCK_RECORD
  5
259
100
AcDbSymbolTableRecord
100
AcDbBlockTableRecord
  2
*D18
  0
BLOCK_RECORD
  5
25A
100
AcDbSymbolTableRecord
100
AcDbBlockTableRecord
  2
*D19
  0
BLOCK_RECORD
  5
25B
100
AcDbSymbolTableRecord
100
AcDbBlockTableRecord
  2
*D20
  0
BLOCK_RECORD
  5
25C
100
AcDbSymbolTableRecord
100
AcDbBlockTableRecord
  2
*D21
  0
BLOCK_RECORD
  5
25D
100
AcDbSymbolTableRecord
100
AcDbBlockTableRecord
  2
SCHRIFTKOPF_PRODUKTABBI_BL21
  0
BLOCK_RECORD
  5
25E
100
AcDbSymbolTableRecord
100
AcDbBlockTableRecord
  2
94339807000_BL0
  0
BLOCK_RECORD
  5
25F
100
AcDbSymbolTableRecord
100
AcDbBlockTableRecord
  2
94870650000_BL1
  0
BLOCK_RECORD
  5
260
100
AcDbSymbolTableRecord
100
AcDbBlockTableRecord
  2
95043001000_M1_BL2
  0
BLOCK_RECORD
  5
261
100
AcDbSymbolTableRecord
100
AcDbBlockTableRecord
  2
94754901000_BL3
  0
BLOCK_RECORD
  5
262
100
AcDbSymbolTableRecord
100
AcDbBlockTableRecord
  2
SUWN07008_A6_4_DR786_BL4
  0
BLOCK_RECORD
  5
263
100
AcDbSymbolTableRecord
100
AcDbBlockTableRecord
  2
95198401000_M_BL5
  0
BLOCK_RECORD
  5
264
100
AcDbSymbolTableRecord
100
AcDbBlockTableRecord
  2
93726700000_BL6
  0
BLOCK_RECORD
  5
265
100
AcDbSymbolTableRecord
100
AcDbBlockTableRecord
  2
94755099000_D_BL7
  0
BLOCK_RECORD
  5
266
100
AcDbSymbolTableRecord
100
AcDbBlockTableRecord
  2
93208800000_M2_BL8
  0
BLOCK_RECORD
  5
267
100
AcDbSymbolTableRecord
100
AcDbBlockTableRecord
  2
SUWN07008_A3_1_DR787_BL9
  0
BLOCK_RECORD
  5
268
100
AcDbSymbolTableRecord
100
AcDbBlockTableRecord
  2
SUWN07008_A3_1_DR788_BL10
  0
BLOCK_RECORD
  5
269
100
AcDbSymbolTableRecord
100
AcDbBlockTableRecord
  2
62907801000_BL11
  0
BLOCK_RECORD
  5
26A
100
AcDbSymbolTableRecord
100
AcDbBlockTableRecord
  2
93725700000_M_BL12
  0
BLOCK_RECORD
  5
26B
100
AcDbSymbolTableRecord
100
AcDbBlockTableRecord
  2
93725800000_BL13
  0
BLOCK_RECORD
  5
26C
100
AcDbSymbolTableRecord
100
AcDbBlockTableRecord
  2
93726300000_M_BL14
  0
BLOCK_RECORD
  5
26D
100
AcDbSymbolTableRecord
100
AcDbBlockTableRecord
  2
93726100000_M_BL15
  0
BLOCK_RECORD
  5
26E
100
AcDbSymbolTableRecord
100
AcDbBlockTableRecord
  2
63711301L00_BL16
  0
BLOCK_RECORD
  5
26F
100
AcDbSymbolTableRecord
100
AcDbBlockTableRecord
  2
93725900000_BL17
  0
BLOCK_RECORD
  5
270
100
AcDbSymbolTableRecord
100
AcDbBlockTableRecord
  2
62849100000_M3_BL18
  0
BLOCK_RECORD
  5
271
100
AcDbSymbolTableRecord
100
AcDbBlockTableRecord
  2
93480207R00_BL19
  0
BLOCK_RECORD
  5
272
100
AcDbSymbolTableRecord
100
AcDbBlockTableRecord
  2
93480207R00_BL20
  0
ENDTAB
  0
TABLE
  2
DIMSTYLE
  5
A
100
AcDbSymbolTable
 70
1
100
AcDbDimStyleTable
 71
0
  0
DIMSTYLE
105
273
100
AcDbSymbolTableRecord
100
AcDbDimStyleTableRecord
  2
STANDARD
 70
0
  3

  4

 40
1.0
 41
3.5
 42
0.0
 43
0.38
 44
1.0
 45
0.0
 46
0.0
 47
0.001
 48
0.001
140
2.5
141
0.09
142
0.0
143
25.4
144
1.0
145
0.0
146
1.0
147
0.625
 71
1
 72
0
 73
0
 74
0
 75
0
 76
0
 77
1
 78
8
 79
2
170
0
171
2
172
0
173
0
174
0
175
0
176
0
177
0
178
5
270
2
179
3
271
3
272
3
273
2
274
2
275
0
280
0
281
0
282
0
283
1
284
8
285
0
286
0
287
3
288
0
340
11
278
46
341
245
342
245
343
245
344
245
  0
DIMSTYLE
105
274
100
AcDbSymbolTableRecord
100
AcDbDimStyleTableRecord
  2
DIMSTYLE_1
 70
0
  3

  4

 40
1.0
 41
3.5
 42
0.0
 43
0.38
 44
1.0
 45
0.0
 46
0.0
 47
0.1
 48
0.1
140
2.5
141
0.09
142
0.0
143
25.4
144
1.0
145
0.0
146
1.0
147
0.625
 71
0
 72
0
 73
0
 74
0
 75
0
 76
0
 77
1
 78
8
 79
2
170
0
171
2
172
0
173
0
174
0
175
0
176
0
177
0
178
5
270
2
179
3
271
3
272
3
273
2
274
2
275
0
280
0
281
0
282
0
283
1
284
8
285
0
286
0
287
3
288
0
340
11
278
46
341
245
342
245
343
245
344
245
  0
DIMSTYLE
105
275
100
AcDbSymbolTableRecord
100
AcDbDimStyleTableRecord
  2
DIMSTYLE_2
 70
0
  3

  4

 40
1.0
 41
3.5
 42
0.0
 43
0.38
 44
1.0
 45
0.0
 46
0.0
 47
0.2
 48
0.2
140
2.5
141
0.09
142
0.0
143
25.4
144
1.0
145
0.0
146
1.0
147
0.625
 71
0
 72
0
 73
0
 74
0
 75
0
 76
0
 77
1
 78
8
 79
2
170
0
171
2
172
0
173
0
174
0
175
0
176
0
177
0
178
5
270
2
179
3
271
3
272
3
273
2
274
2
275
0
280
0
281
0
282
0
283
1
284
8
285
0
286
0
287
3
288
0
340
11
278
46
341
245
342
245
343
245
344
245
  0
DIMSTYLE
105
276
100
AcDbSymbolTableRecord
100
AcDbDimStyleTableRecord
  2
DIMSTYLE_3
 70
0
  3

  4

 40
1.0
 41
3.5
 42
0.0
 43
0.38
 44
1.0
 45
0.0
 46
0.0
 47
0.3
 48
0.3
140
2.5
141
0.09
142
0.0
143
25.4
144
1.0
145
0.0
146
1.0
147
0.625
 71
0
 72
0
 73
0
 74
0
 75
0
 76
0
 77
1
 78
8
 79
2
170
0
171
2
172
0
173
0
174
0
175
0
176
0
177
0
178
5
270
2
179
3
271
3
272
3
273
2
274
2
275
0
280
0
281
0
282
0
283
1
284
8
285
0
286
0
287
3
288
0
340
11
278
46
341
245
342
245
343
245
344
245
  0
DIMSTYLE
105
277
100
AcDbSymbolTableRecord
100
AcDbDimStyleTableRecord
  2
DIMSTYLE_4
 70
0
  3

  4

 40
1.0
 41
3.5
 42
0.0
 43
0.38
 44
1.0
 45
0.0
 46
0.0
 47
0.3
 48
0.3
140
2.5
141
0.09
142
0.0
143
25.4
144
1.0
145
0.0
146
1.0
147
0.625
 71
0
 72
0
 73
0
 74
0
 75
0
 76
0
 77
1
 78
8
 79
2
170
0
171
2
172
0
173
0
174
0
175
0
176
0
177
0
178
5
270
2
179
3
271
0
272
0
273
2
274
2
275
0
280
0
281
0
282
0
283
1
284
8
285
0
286
0
287
3
288
0
340
11
278
46
341
245
342
245
343
245
344
245
  0
DIMSTYLE
105
278
100
AcDbSymbolTableRecord
100
AcDbDimStyleTableRecord
  2
DIMSTYLE_5
 70
0
  3

  4

 40
1.0
 41
3.5
 42
0.0
 43
0.38
 44
1.0
 45
0.0
 46
0.0
 47
0.2
 48
0.2
140
2.5
141
0.09
142
0.0
143
25.4
144
1.0
145
0.0
146
1.0
147
0.625
 71
0
 72
0
 73
0
 74
0
 75
0
 76
0
 77
1
 78
8
 79
2
170
0
171
2
172
0
173
0
174
0
175
0
176
0
177
0
178
5
270
2
179
3
271
0
272
0
273
2
274
2
275
0
280
0
281
0
282
0
283
1
284
8
285
0
286
0
287
3
288
0
340
11
278
46
341
245
342
245
343
245
344
245
  0
DIMSTYLE
105
279
100
AcDbSymbolTableRecord
100
AcDbDimStyleTableRecord
  2
DIMSTYLE_6
 70
0
  3

  4

 40
1.0
 41
3.5
 42
0.0
 43
0.38
 44
1.0
 45
0.0
 46
0.0
 47
0.1
 48
0.1
140
2.5
141
0.09
142
0.0
143
25.4
144
1.0
145
0.0
146
1.0
147
0.625
 71
0
 72
0
 73
0
 74
0
 75
0
 76
0
 77
1
 78
8
 79
2
170
0
171
2
172
0
173
0
174
0
175
0
176
0
177
0
178
5
270
2
179
3
271
1
272
1
273
2
274
2
275
0
280
0
281
0
282
0
283
1
284
8
285
0
286
0
287
3
288
0
340
11
278
46
341
245
342
245
343
245
344
245
  0
DIMSTYLE
105
27A
100
AcDbSymbolTableRecord
100
AcDbDimStyleTableRecord
  2
DIMSTYLE_7
 70
0
  3

  4

 40
1.0
 41
3.5
 42
0.0
 43
0.38
 44
1.0
 45
0.0
 46
0.0
 47
0.8
 48
0.8
140
2.5
141
0.09
142
0.0
143
25.4
144
1.0
145
0.0
146
1.0
147
0.625
 71
0
 72
0
 73
0
 74
0
 75
0
 76
0
 77
1
 78
8
 79
2
170
0
171
2
172
0
173
0
174
0
175
0
176
0
177
0
178
5
270
2
179
3
271
3
272
3
273
2
274
2
275
0
280
0
281
0
282
0
283
1
284
8
285
0
286
0
287
3
288
0
340
11
278
46
341
245
342
245
343
245
344
245
  0
DIMSTYLE
105
27B
100
AcDbSymbolTableRecord
100
AcDbDimStyleTableRecord
  2
DIMSTYLE_8
 70
0
  3
<>
  4

 40
1.0
 41
3.5
 42
0.0
 43
0.38
 44
1.0
 45
0.0
 46
0.0
 47
0.2
 48
0.2
140
2.5
141
0.09
142
0.0
143
25.4
144
1.0
145
0.0
146
1.0
147
0.625
 71
0
 72
0
 73
0
 74
0
 75
0
 76
0
 77
1
 78
8
 79
2
170
0
171
2
172
0
173
0
174
0
175
0
176
0
177
0
178
5
270
2
179
3
271
3
272
3
273
2
274
2
275
0
280
0
281
0
282
0
283
1
284
8
285
0
286
0
287
3
288
0
340
11
278
46
341
245
342
245
343
245
344
245
  0
DIMSTYLE
105
27C
100
AcDbSymbolTableRecord
100
AcDbDimStyleTableRecord
  2
DIMSTYLE_9
 70
0
  3

  4

 40
1.0
 41
3.5
 42
0.0
 43
0.38
 44
1.0
 45
0.0
 46
0.0
 47
0.2
 48
0.2
140
2.5
141
0.09
142
0.0
143
25.4
144
1.0
145
0.0
146
1.0
147
0.625
 71
0
 72
0
 73
0
 74
0
 75
0
 76
0
 77
1
 78
8
 79
2
170
0
171
2
172
0
173
0
174
0
175
0
176
0
177
0
178
5
270
2
179
3
271
1
272
1
273
2
274
2
275
0
280
0
281
0
282
0
283
1
284
8
285
0
286
0
287
3
288
0
340
11
278
46
341
245
342
245
343
245
344
245
  0
ENDTAB
  0
ENDSEC
  0
SECTION
  2
BLOCKS
  0
BLOCK
  5
20
100
AcDbEntity
  8
0
100
AcDbBlockBegin
  2
*Model_Space
 70
0
 10
0.0
 20
0.0
 30
0.0
  3
*Model_Space
  1

  0
ENDBLK
  5
21
100
AcDbEntity
  8
0
100
AcDbBlockEnd
  0
BLOCK
  5
1C
100
AcDbEntity
  8
0
100
AcDbBlockBegin
  2
*Paper_Space
 70
0
 10
0.0
 20
0.0
 30
0.0
  3
*Paper_Space
  1

  0
ENDBLK
  5
1D
100
AcDbEntity
  8
0
100
AcDbBlockEnd
  0
BLOCK
  5
27D
100
AcDbEntity
  8
0
100
AcDbBlockBegin
 62
2
  6
CONTINUOUS
  2
SCHRIFTKOPF_PRODUKTABBI_BL21
 70
64
 10
30.8809002926
 20
34.9999999785
  3
SCHRIFTKOPF_PRODUKTABBI_BL21
  1

  0
TEXT
  5
27E
100
AcDbEntity
  8
0
100
AcDbText
 62
5
  6
CONTINUOUS
 10
11.5243781192
 20
32.1908716548
  7
TEXTSTYLE_2
 40
4.0
  1
6-39412-50-0
 72
5
 11
45.0708465207
 21
32.1908716548
100
AcDbText
  0
TEXT
  5
27F
100
AcDbEntity
  8
0
100
AcDbText
 62
5
  6
CONTINUOUS
 10
10.7898562602
 20
24.1776342906
  7
TEXTSTYLE_3
 40
2.5
  1
Scale
 72
5
 11
19.5166220595
 21
24.1776342906
100
AcDbText
  0
TEXT
  5
280
100
AcDbEntity
  8
0
100
AcDbText
 62
5
  6
CONTINUOUS
 10
10.7898562602
 20
20.4276342906
  7
TEXTSTYLE_3
 40
2.5
  1
1:1
 72
5
 11
15.6411573755
 21
20.4276342906
100
AcDbText
  0
TEXT
  5
281
100
AcDbEntity
  8
0
100
AcDbText
 62
5
  6
CONTINUOUS
 10
10.7898562602
 20
13.0518233866
  7
TEXTSTYLE_3
 40
2.5
  1
Draft
 72
5
 11
18.345618342
 21
13.0518233866
100
AcDbText
  0
TEXT
  5
282
100
AcDbEntity
  8
0
100
AcDbText
 62
5
  6
CONTINUOUS
 10
23.2620985191
 20
13.113338109
  7
TEXTSTYLE_3
 40
2.5
  1
14.09.2022
 72
5
 11
40.7342174782
 21
13.113338109
100
AcDbText
  0
TEXT
  5
283
100
AcDbEntity
  8
0
100
AcDbText
 62
5
  6
CONTINUOUS
 10
45.5984939287
 20
13.1067461609
  7
TEXTSTYLE_3
 40
2.5
  1
Dr
 72
5
 11
49.3159660476
 21
13.1067461609
100
AcDbText
  0
LINE
  5
284
100
AcDbEntity
  8
0
100
AcDbLine
 62
2
  6
CONTINUOUS
 10
9.8809002926
 20
59.9999999785
 11
51.8809002926
 21
59.9999999785
  0
LINE
  5
285
100
AcDbEntity
  8
0
100
AcDbLine
 62
2
  6
CONTINUOUS
 10
51.8809002926
 20
59.9999999785
 11
51.8809002926
 21
9.9999999785
  0
LINE
  5
286
100
AcDbEntity
  8
0
100
AcDbLine
 62
2
  6
CONTINUOUS
 10
9.8809002926
 20
9.9999999785
 11
51.8809002926
 21
9.9999999785
  0
LINE
  5
287
100
AcDbEntity
  8
0
100
AcDbLine
 62
2
  6
CONTINUOUS
 10
9.8809002926
 20
39.9999999785
 11
20.8809002926
 21
39.9999999785
  0
LINE
  5
288
100
AcDbEntity
  8
0
100
AcDbLine
 62
2
  6
CONTINUOUS
 10
9.8809002926
 20
27.9999999785
 11
20.8809002926
 21
27.9999999785
  0
LINE
  5
289
100
AcDbEntity
  8
0
100
AcDbLine
 62
2
  6
CONTINUOUS
 10
9.8809002926
 20
18.9999999785
 11
20.8809002926
 21
18.9999999785
  0
LINE
  5
28A
100
AcDbEntity
  8
0
100
AcDbLine
 62
2
  6
CONTINUOUS
 10
20.8809002926
 20
39.9999999785
 11
42.8809002926
 21
39.9999999785
  0
LINE
  5
28B
100
AcDbEntity
  8
0
100
AcDbLine
 62
2
  6
CONTINUOUS
 10
42.8809002926
 20
39.9999999785
 11
51.8809002926
 21
39.9999999785
  0
LINE
  5
28C
100
AcDbEntity
  8
0
100
AcDbLine
 62
2
  6
CONTINUOUS
 10
20.8809002926
 20
27.9999999785
 11
42.8809002926
 21
27.9999999785
  0
LINE
  5
28D
100
AcDbEntity
  8
0
100
AcDbLine
 62
2
  6
CONTINUOUS
 10
42.8809002926
 20
27.9999999785
 11
51.8809002926
 21
27.9999999785
  0
LINE
  5
28E
100
AcDbEntity
  8
0
100
AcDbLine
 62
2
  6
CONTINUOUS
 10
20.8809002926
 20
18.9999999785
 11
20.8809002926
 21
9.9999999785
  0
LINE
  5
28F
100
AcDbEntity
  8
0
100
AcDbLine
 62
2
  6
CONTINUOUS
 10
20.8809002926
 20
18.9999999785
 11
42.8809002926
 21
18.9999999785
  0
LINE
  5
290
100
AcDbEntity
  8
0
100
AcDbLine
 62
2
  6
CONTINUOUS
 10
42.8809002926
 20
18.9999999785
 11
42.8809002926
 21
9.9999999785
  0
LINE
  5
291
100
AcDbEntity
  8
0
100
AcDbLine
 62
2
  6
CONTINUOUS
 10
42.8809002926
 20
18.9999999785
 11
51.8809002926
 21
18.9999999785
  0
LINE
  5
292
100
AcDbEntity
  8
0
100
AcDbLine
 62
2
  6
CONTINUOUS
 10
9.8809002926
 20
9.9999999785
 11
9.8809002926
 21
59.9999999785
  0
ARC
  5
293
100
AcDbEntity
  8
0
100
AcDbCircle
 62
2
  6
CONTINUOUS
 10
17.5099125664
 20
56.1308274644
 40
1.2679261569
100
AcDbArc
 50
90.0
 51
180.0
  0
LINE
  5
294
100
AcDbEntity
  8
0
100
AcDbLine
 62
2
  6
CONTINUOUS
 10
17.5099125664
 20
57.3987536213
 11
43.9658630349
 21
57.3987536213
  0
ARC
  5
295
100
AcDbEntity
  8
0
100
AcDbCircle
 62
2
  6
CONTINUOUS
 10
43.9658630349
 20
56.1308274644
 40
1.2679261569
100
AcDbArc
 50
0.0
 51
90.0
  0
LINE
  5
296
100
AcDbEntity
  8
0
100
AcDbLine
 62
2
  6
CONTINUOUS
 10
45.2337891918
 20
56.1308274644
 11
45.2337891918
 21
43.6666783678
  0
ARC
  5
297
100
AcDbEntity
  8
0
100
AcDbCircle
 62
2
  6
CONTINUOUS
 10
43.9658630349
 20
43.6666783678
 40
1.2679261569
100
AcDbArc
 50
270.0
 51
360.0
  0
LINE
  5
298
100
AcDbEntity
  8
0
100
AcDbLine
 62
2
  6
CONTINUOUS
 10
43.9658630349
 20
42.3987522109
 11
17.5099125664
 21
42.3987522109
  0
ARC
  5
299
100
AcDbEntity
  8
0
100
AcDbCircle
 62
2
  6
CONTINUOUS
 10
17.5099125664
 20
43.6666783678
 40
1.2679261569
100
AcDbArc
 50
180.0
 51
270.0
  0
LINE
  5
29A
100
AcDbEntity
  8
0
100
AcDbLine
 62
2
  6
CONTINUOUS
 10
16.2419864096
 20
43.6666783678
 11
16.2419864096
 21
56.1308274644
  0
ARC
  5
29B
100
AcDbEntity
  8
0
100
AcDbCircle
 62
2
  6
CONTINUOUS
 10
24.979014391
 20
49.7181091975
 40
2.8108394023
100
AcDbArc
 50
35.2282226131
 51
336.934010569
  0
LINE
  5
29C
100
AcDbEntity
  8
0
100
AcDbLine
 62
2
  6
CONTINUOUS
 10
27.275079087
 20
51.3394990511
 11
29.4674175987
 21
52.961744213
  0
ARC
  5
29D
100
AcDbEntity
  8
0
100
AcDbCircle
 62
2
  6
CONTINUOUS
 10
24.979014391
 20
49.7181091975
 40
5.5377731507
100
AcDbArc
 50
35.8545159817
 51
11.4705154501
  0
LINE
  5
29E
100
AcDbEntity
  8
0
100
AcDbLine
 62
2
  6
CONTINUOUS
 10
30.4061825405
 20
50.8193709036
 11
25.0838964583
 21
50.8193709036
  0
ARC
  5
29F
100
AcDbEntity
  8
0
100
AcDbCircle
 62
2
  6
CONTINUOUS
 10
25.0838964583
 20
49.7181091975
 40
1.1012617061
100
AcDbArc
 50
90.0
 51
270.0
  0
LINE
  5
2A0
100
AcDbEntity
  8
0
100
AcDbLine
 62
2
  6
CONTINUOUS
 10
25.0838964583
 20
48.6168474914
 11
27.5651390593
 21
48.6168474914
  0
ARC
  5
2A1
100
AcDbEntity
  8
0
100
AcDbCircle
 62
2
  6
CONTINUOUS
 10
25.0838964583
 20
49.7181091975
 40
5.9153485927
100
AcDbArc
 50
349.2706340045
 51
10.7293659955
  0
LINE
  5
2A2
100
AcDbEntity
  8
0
100
AcDbLine
 62
2
  6
CONTINUOUS
 10
30.8958300116
 20
48.6168474914
 11
32.7402873674
 21
48.6168474914
  0
LINE
  5
2A3
100
AcDbEntity
  8
0
100
AcDbLine
 62
2
  6
CONTINUOUS
 10
32.7402873674
 20
48.6168474914
 11
32.7402873674
 21
48.0399961216
  0
ARC
  5
2A4
100
AcDbEntity
  8
0
100
AcDbCircle
 62
2
  6
CONTINUOUS
 10
36.6419002689
 20
48.0399961216
 40
3.9016129016
100
AcDbArc
 50
180.0
 51
360.0
  0
LINE
  5
2A5
100
AcDbEntity
  8
0
100
AcDbLine
 62
2
  6
CONTINUOUS
 10
40.5435131705
 20
48.0399961216
 11
40.5435131705
 21
54.9622125599
  0
LINE
  5
2A6
100
AcDbEntity
  8
0
100
AcDbLine
 62
2
  6
CONTINUOUS
 10
40.5435131705
 20
54.9622125599
 11
37.8165794221
 21
54.9622125599
  0
LINE
  5
2A7
100
AcDbEntity
  8
0
100
AcDbLine
 62
2
  6
CONTINUOUS
 10
37.8165794221
 20
54.9622125599
 11
37.8165794221
 21
48.0399961216
  0
ARC
  5
2A8
100
AcDbEntity
  8
0
100
AcDbCircle
 62
2
  6
CONTINUOUS
 10
36.6419002689
 20
48.0399961216
 40
1.1746791532
100
AcDbArc
 50
180.0
 51
360.0
  0
LINE
  5
2A9
100
AcDbEntity
  8
0
100
AcDbLine
 62
2
  6
CONTINUOUS
 10
35.4672211158
 20
48.0399961216
 11
35.4672211158
 21
54.9622125599
  0
LINE
  5
2AA
100
AcDbEntity
  8
0
100
AcDbLine
 62
2
  6
CONTINUOUS
 10
35.4672211158
 20
54.9622125599
 11
32.7402873674
 21
54.9622125599
  0
LINE
  5
2AB
100
AcDbEntity
  8
0
100
AcDbLine
 62
2
  6
CONTINUOUS
 10
32.7402873674
 20
54.9622125599
 11
32.7402873674
 21
50.8193709036
  0
LINE
  5
2AC
100
AcDbEntity
  8
0
100
AcDbLine
 62
2
  6
CONTINUOUS
 10
32.7402873674
 20
50.8193709036
 11
30.8958300116
 21
50.8193709036
  0
LINE
  5
2AD
100
AcDbEntity
  8
0
100
AcDbLine
 62
2
  6
CONTINUOUS
 10
45.0805129123
 20
56.7334185992
 11
45.0994462631
 21
56.6972621935
  0
LWPOLYLINE
  5
2AE
100
AcDbEntity
  8
0
100
AcDbPolyline
 62
2
  6
CONTINUOUS
 90
42
 70
0
 10
17.3773781937
 20
57.3918123624
 10
17.5099125664
 20
57.398757363
 10
43.9658630349
 20
57.398757363
 10
44.0983974076
 20
57.3918123624
 10
44.229479706
 20
57.3710523604
 10
44.357673765
 20
57.3367023572
 10
44.4815750637
 20
57.2891373527
 10
44.5998261134
 20
57.2288823471
 10
44.7111313309
 20
57.1565973403
 10
44.8142712331
 20
57.0730773324
 10
44.9081157975
 20
56.9792373236
 10
44.9916368435
 20
56.8760973139
 10
45.0639192969
 20
56.7647973034
 10
45.1241712162
 20
56.6465372923
 10
45.1717324686
 20
56.5226372807
 10
45.2060819632
 20
56.3944472686
 10
45.2268433597
 20
56.2633622563
 10
45.2337891918
 20
56.1308222438
 10
24.3911934086
 20
55.2245960958
 10
23.5738704424
 20
55.0746474408
 10
22.7881859174
 20
54.8040901322
 10
22.0518304293
 20
54.4190160805
 10
21.3813838736
 20
53.9280956735
 10
20.7919421298
 20
53.3423825519
 10
20.2967771606
 20
52.6750647241
 10
19.9070381779
 20
51.9411676226
 10
16.2419864095
 20
43.6666760719
 10
16.2419864095
 20
56.1308222438
 10
16.2489322417
 20
56.2633622563
 10
16.2696936382
 20
56.3944472686
 10
16.3040431327
 20
56.5226372807
 10
16.3516043852
 20
56.6465372923
 10
16.4118563044
 20
56.7647973034
 10
16.4841387579
 20
56.8760973139
 10
16.5676598038
 20
56.9792373236
 10
16.6615043683
 20
57.0730773324
 10
16.7646442704
 20
57.1565973403
 10
16.875949488
 20
57.2288823471
 10
16.9942005377
 20
57.2891373527
 10
17.1181018363
 20
57.3367023572
 10
17.2462958953
 20
57.3710523604
 10
17.3773781937
 20
57.3918123624
  0
HATCH
  5
2AF
100
AcDbEntity
  8
0
100
AcDbHatch
 62
2
  6
CONTINUOUS
 10
0.0
 20
0.0
 30
0.0
210
0.0
220
0.0
230
1.0
  2
SOLID
 70
1
 71
1
 91
1
 92
1
 93
41
 72
1
 10
17.3773781937
 20
57.3918123624
 11
17.5099125664
 21
57.398757363
 72
1
 10
17.5099125664
 20
57.398757363
 11
43.9658630349
 21
57.398757363
 72
1
 10
43.9658630349
 20
57.398757363
 11
44.0983974076
 21
57.3918123624
 72
1
 10
44.0983974076
 20
57.3918123624
 11
44.229479706
 21
57.3710523604
 72
1
 10
44.229479706
 20
57.3710523604
 11
44.357673765
 21
57.3367023572
 72
1
 10
44.357673765
 20
57.3367023572
 11
44.4815750637
 21
57.2891373527
 72
1
 10
44.4815750637
 20
57.2891373527
 11
44.5998261134
 21
57.2288823471
 72
1
 10
44.5998261134
 20
57.2288823471
 11
44.7111313309
 21
57.1565973403
 72
1
 10
44.7111313309
 20
57.1565973403
 11
44.8142712331
 21
57.0730773324
 72
1
 10
44.8142712331
 20
57.0730773324
 11
44.9081157975
 21
56.9792373236
 72
1
 10
44.9081157975
 20
56.9792373236
 11
44.9916368435
 21
56.8760973139
 72
1
 10
44.9916368435
 20
56.8760973139
 11
45.0639192969
 21
56.7647973034
 72
1
 10
45.0639192969
 20
56.7647973034
 11
45.1241712162
 21
56.6465372923
 72
1
 10
45.1241712162
 20
56.6465372923
 11
45.1717324686
 21
56.5226372807
 72
1
 10
45.1717324686
 20
56.5226372807
 11
45.2060819632
 21
56.3944472686
 72
1
 10
45.2060819632
 20
56.3944472686
 11
45.2268433597
 21
56.2633622563
 72
1
 10
45.2268433597
 20
56.2633622563
 11
45.2337891918
 21
56.1308222438
 72
1
 10
45.2337891918
 20
56.1308222438
 11
24.3911934086
 21
55.2245960958
 72
1
 10
24.3911934086
 20
55.2245960958
 11
23.5738704424
 21
55.0746474408
 72
1
 10
23.5738704424
 20
55.0746474408
 11
22.7881859174
 21
54.8040901322
 72
1
 10
22.7881859174
 20
54.8040901322
 11
22.0518304293
 21
54.4190160805
 72
1
 10
22.0518304293
 20
54.4190160805
 11
21.3813838736
 21
53.9280956735
 72
1
 10
21.3813838736
 20
53.9280956735
 11
20.7919421298
 21
53.3423825519
 72
1
 10
20.7919421298
 20
53.3423825519
 11
20.2967771606
 21
52.6750647241
 72
1
 10
20.2967771606
 20
52.6750647241
 11
19.9070381779
 21
51.9411676226
 72
1
 10
19.9070381779
 20
51.9411676226
 11
16.2419864095
 21
43.6666760719
 72
1
 10
16.2419864095
 20
43.6666760719
 11
16.2419864095
 21
56.1308222438
 72
1
 10
16.2419864095
 20
56.1308222438
 11
16.2489322417
 21
56.2633622563
 72
1
 10
16.2489322417
 20
56.2633622563
 11
16.2696936382
 21
56.3944472686
 72
1
 10
16.2696936382
 20
56.3944472686
 11
16.3040431327
 21
56.5226372807
 72
1
 10
16.3040431327
 20
56.5226372807
 11
16.3516043852
 21
56.6465372923
 72
1
 10
16.3516043852
 20
56.6465372923
 11
16.4118563044
 21
56.7647973034
 72
1
 10
16.4118563044
 20
56.7647973034
 11
16.4841387579
 21
56.8760973139
 72
1
 10
16.4841387579
 20
56.8760973139
 11
16.5676598038
 21
56.9792373236
 72
1
 10
16.5676598038
 20
56.9792373236
 11
16.6615043683
 21
57.0730773324
 72
1
 10
16.6615043683
 20
57.0730773324
 11
16.7646442704
 21
57.1565973403
 72
1
 10
16.7646442704
 20
57.1565973403
 11
16.875949488
 21
57.2288823471
 72
1
 10
16.875949488
 20
57.2288823471
 11
16.9942005377
 21
57.2891373527
 72
1
 10
16.9942005377
 20
57.2891373527
 11
17.1181018363
 21
57.3367023572
 72
1
 10
17.1181018363
 20
57.3367023572
 11
17.2462958953
 21
57.3710523604
 72
1
 10
17.2462958953
 20
57.3710523604
 11
17.3773781937
 21
57.3918123624
 97
1
330
2AE
 75
0
 76
1
 98
1
 10
0.0
 20
0.0
  0
LWPOLYLINE
  5
2B0
100
AcDbEntity
  8
0
100
AcDbPolyline
 62
2
  6
CONTINUOUS
 90
23
 70
0
 10
26.84789425
 20
54.9309989471
 10
26.0468447649
 20
55.151954039
 10
45.2337891918
 20
56.1308222438
 10
45.2337891918
 20
43.6666760719
 10
40.0207961575
 20
46.0891912997
 10
40.2465205725
 20
46.5469163427
 10
40.4105689348
 20
47.0301863881
 10
40.5101343313
 20
47.5307364352
 10
40.5435131705
 20
48.0400014831
 10
40.5435131705
 20
54.9622171339
 10
37.8165794221
 20
54.9622171339
 10
35.4672211158
 20
54.9622171339
 10
32.7402873674
 20
54.9622171339
 10
32.7402873674
 20
50.8193667444
 10
30.8958300116
 20
50.8193667444
 10
30.5098658589
 20
49.9949006497
 10
30.4061825405
 20
50.8193667444
 10
27.275079087
 20
51.3394990511
 10
29.4674175987
 20
52.961744213
 10
28.9315387124
 20
53.5968310176
 10
28.3066641696
 20
54.1445839144
 10
27.6068637435
 20
54.5926696135
 10
26.84789425
 20
54.9309989471
  0
HATCH
  5
2B1
100
AcDbEntity
  8
0
100
AcDbHatch
 62
2
  6
CONTINUOUS
 10
0.0
 20
0.0
 30
0.0
210
0.0
220
0.0
230
1.0
  2
SOLID
 70
1
 71
1
 91
1
 92
1
 93
22
 72
1
 10
26.84789425
 20
54.9309989471
 11
26.0468447649
 21
55.151954039
 72
1
 10
26.0468447649
 20
55.151954039
 11
45.2337891918
 21
56.1308222438
 72
1
 10
45.2337891918
 20
56.1308222438
 11
45.2337891918
 21
43.6666760719
 72
1
 10
45.2337891918
 20
43.6666760719
 11
40.0207961575
 21
46.0891912997
 72
1
 10
40.0207961575
 20
46.0891912997
 11
40.2465205725
 21
46.5469163427
 72
1
 10
40.2465205725
 20
46.5469163427
 11
40.4105689348
 21
47.0301863881
 72
1
 10
40.4105689348
 20
47.0301863881
 11
40.5101343313
 21
47.5307364352
 72
1
 10
40.5101343313
 20
47.5307364352
 11
40.5435131705
 21
48.0400014831
 72
1
 10
40.5435131705
 20
48.0400014831
 11
40.5435131705
 21
54.9622171339
 72
1
 10
40.5435131705
 20
54.9622171339
 11
37.8165794221
 21
54.9622171339
 72
1
 10
37.8165794221
 20
54.9622171339
 11
35.4672211158
 21
54.9622171339
 72
1
 10
35.4672211158
 20
54.9622171339
 11
32.7402873674
 21
54.9622171339
 72
1
 10
32.7402873674
 20
54.9622171339
 11
32.7402873674
 21
50.8193667444
 72
1
 10
32.7402873674
 20
50.8193667444
 11
30.8958300116
 21
50.8193667444
 72
1
 10
30.8958300116
 20
50.8193667444
 11
30.5098658589
 21
49.9949006497
 72
1
 10
30.5098658589
 20
49.9949006497
 11
30.4061825405
 21
50.8193667444
 72
1
 10
30.4061825405
 20
50.8193667444
 11
27.275079087
 21
51.3394990511
 72
1
 10
27.275079087
 20
51.3394990511
 11
29.4674175987
 21
52.961744213
 72
1
 10
29.4674175987
 20
52.961744213
 11
28.9315387124
 21
53.5968310176
 72
1
 10
28.9315387124
 20
53.5968310176
 11
28.3066641696
 21
54.1445839144
 72
1
 10
28.3066641696
 20
54.1445839144
 11
27.6068637435
 21
54.5926696135
 72
1
 10
27.6068637435
 20
54.5926696135
 11
26.84789425
 21
54.9309989471
 97
1
330
2B0
 75
0
 76
1
 98
1
 10
0.0
 20
0.0
  0
LWPOLYLINE
  5
2B2
100
AcDbEntity
  8
0
100
AcDbPolyline
 62
2
  6
CONTINUOUS
 90
20
 70
0
 10
24.3814687288
 20
52.4646993247
 10
24.7881653501
 20
52.5224620264
 10
25.1989379561
 20
52.5203318459
 10
25.6050136295
 20
52.4583542776
 10
25.997719766
 20
52.3378529835
 10
26.3686692959
 20
52.1614015236
 10
26.7099398081
 20
51.9327683916
 10
27.0142427493
 20
51.6568365314
 10
27.275079087
 20
51.3394990511
 10
30.4061825405
 20
50.8193667444
 10
25.0838964583
 20
50.8193667444
 10
24.9401529611
 20
50.8099494571
 10
22.3222898314
 20
50.6360595011
 10
22.4844511343
 20
51.0134749
 10
22.6998891082
 20
51.3632250264
 10
22.9640026199
 20
51.6778402269
 10
23.2711509672
 20
51.9506012291
 10
23.6147743478
 20
52.175682645
 10
23.9875339581
 20
52.3482773854
 10
24.3814687288
 20
52.4646993247
  0
HATCH
  5
2B3
100
AcDbEntity
  8
0
100
AcDbHatch
 62
2
  6
CONTINUOUS
 10
0.0
 20
0.0
 30
0.0
210
0.0
220
0.0
230
1.0
  2
SOLID
 70
1
 71
1
 91
1
 92
1
 93
19
 72
1
 10
24.3814687288
 20
52.4646993247
 11
24.7881653501
 21
52.5224620264
 72
1
 10
24.7881653501
 20
52.5224620264
 11
25.1989379561
 21
52.5203318459
 72
1
 10
25.1989379561
 20
52.5203318459
 11
25.6050136295
 21
52.4583542776
 72
1
 10
25.6050136295
 20
52.4583542776
 11
25.997719766
 21
52.3378529835
 72
1
 10
25.997719766
 20
52.3378529835
 11
26.3686692959
 21
52.1614015236
 72
1
 10
26.3686692959
 20
52.1614015236
 11
26.7099398081
 21
51.9327683916
 72
1
 10
26.7099398081
 20
51.9327683916
 11
27.0142427493
 21
51.6568365314
 72
1
 10
27.0142427493
 20
51.6568365314
 11
27.275079087
 21
51.3394990511
 72
1
 10
27.275079087
 20
51.3394990511
 11
30.4061825405
 21
50.8193667444
 72
1
 10
30.4061825405
 20
50.8193667444
 11
25.0838964583
 21
50.8193667444
 72
1
 10
25.0838964583
 20
50.8193667444
 11
24.9401529611
 21
50.8099494571
 72
1
 10
24.9401529611
 20
50.8099494571
 11
22.3222898314
 21
50.6360595011
 72
1
 10
22.3222898314
 20
50.6360595011
 11
22.4844511343
 21
51.0134749
 72
1
 10
22.4844511343
 20
51.0134749
 11
22.6998891082
 21
51.3632250264
 72
1
 10
22.6998891082
 20
51.3632250264
 11
22.9640026199
 21
51.6778402269
 72
1
 10
22.9640026199
 20
51.6778402269
 11
23.2711509672
 21
51.9506012291
 72
1
 10
23.2711509672
 20
51.9506012291
 11
23.6147743478
 21
52.175682645
 72
1
 10
23.6147743478
 20
52.175682645
 11
23.9875339581
 21
52.3482773854
 72
1
 10
23.9875339581
 20
52.3482773854
 11
24.3814687288
 21
52.4646993247
 97
1
330
2B2
 75
0
 76
1
 98
1
 10
0.0
 20
0.0
  0
LWPOLYLINE
  5
2B4
100
AcDbEntity
  8
0
100
AcDbPolyline
 62
2
  6
CONTINUOUS
 90
8
 70
0
 10
24.5332656052
 20
50.6718298112
 10
24.4134908084
 20
50.5917988506
 10
22.2168684971
 20
50.2390393331
 10
22.3222898314
 20
50.6360595011
 10
24.9401529611
 20
50.8099494571
 10
24.7988689551
 20
50.7818463209
 10
24.6624618487
 20
50.7355423477
 10
24.5332656052
 20
50.6718298112
  0
HATCH
  5
2B5
100
AcDbEntity
  8
0
100
AcDbHatch
 62
2
  6
CONTINUOUS
 10
0.0
 20
0.0
 30
0.0
210
0.0
220
0.0
230
1.0
  2
SOLID
 70
1
 71
1
 91
1
 92
1
 93
7
 72
1
 10
24.5332656052
 20
50.6718298112
 11
24.4134908084
 21
50.5917988506
 72
1
 10
24.4134908084
 20
50.5917988506
 11
22.2168684971
 21
50.2390393331
 72
1
 10
22.2168684971
 20
50.2390393331
 11
22.3222898314
 21
50.6360595011
 72
1
 10
22.3222898314
 20
50.6360595011
 11
24.9401529611
 21
50.8099494571
 72
1
 10
24.9401529611
 20
50.8099494571
 11
24.7988689551
 21
50.7818463209
 72
1
 10
24.7988689551
 20
50.7818463209
 11
24.6624618487
 21
50.7355423477
 72
1
 10
24.6624618487
 20
50.7355423477
 11
24.5332656052
 21
50.6718298112
 97
1
330
2B4
 75
0
 76
1
 98
1
 10
0.0
 20
0.0
  0
LWPOLYLINE
  5
2B6
100
AcDbEntity
  8
0
100
AcDbPolyline
 62
2
  6
CONTINUOUS
 90
8
 70
0
 10
24.1301758446
 20
50.2687400506
 10
24.0664633081
 20
50.1395438071
 10
22.1704386268
 20
49.830893601
 10
22.2168684971
 20
50.2390393331
 10
24.4134908084
 20
50.5917988506
 10
24.305186838
 20
50.4968188178
 10
24.2102068052
 20
50.3885148474
 10
24.1301758446
 20
50.2687400506
  0
HATCH
  5
2B7
100
AcDbEntity
  8
0
100
AcDbHatch
 62
2
  6
CONTINUOUS
 10
0.0
 20
0.0
 30
0.0
210
0.0
220
0.0
230
1.0
  2
SOLID
 70
1
 71
1
 91
1
 92
1
 93
7
 72
1
 10
24.1301758446
 20
50.2687400506
 11
24.0664633081
 21
50.1395438071
 72
1
 10
24.0664633081
 20
50.1395438071
 11
22.1704386268
 21
49.830893601
 72
1
 10
22.1704386268
 20
49.830893601
 11
22.2168684971
 21
50.2390393331
 72
1
 10
22.2168684971
 20
50.2390393331
 11
24.4134908084
 21
50.5917988506
 72
1
 10
24.4134908084
 20
50.5917988506
 11
24.305186838
 21
50.4968188178
 72
1
 10
24.305186838
 20
50.4968188178
 11
24.2102068052
 21
50.3885148474
 72
1
 10
24.2102068052
 20
50.3885148474
 11
24.1301758446
 21
50.2687400506
 97
1
330
2B6
 75
0
 76
1
 98
1
 10
0.0
 20
0.0
  0
LWPOLYLINE
  5
2B8
100
AcDbEntity
  8
0
100
AcDbPolyline
 62
2
  6
CONTINUOUS
 90
7
 70
0
 10
30.9802050699
 20
50.1923388153
 10
30.9971284879
 20
49.8763366836
 10
30.4890156598
 20
49.1641981161
 10
30.5098658589
 20
49.9949006497
 10
30.8958300116
 20
50.8193667444
 10
30.9464066679
 20
50.5069837221
 10
30.9802050699
 20
50.1923388153
  0
HATCH
  5
2B9
100
AcDbEntity
  8
0
100
AcDbHatch
 62
2
  6
CONTINUOUS
 10
0.0
 20
0.0
 30
0.0
210
0.0
220
0.0
230
1.0
  2
SOLID
 70
1
 71
1
 91
1
 92
1
 93
6
 72
1
 10
30.9802050699
 20
50.1923388153
 11
30.9971284879
 21
49.8763366836
 72
1
 10
30.9971284879
 20
49.8763366836
 11
30.4890156598
 21
49.1641981161
 72
1
 10
30.4890156598
 20
49.1641981161
 11
30.5098658589
 21
49.9949006497
 72
1
 10
30.5098658589
 20
49.9949006497
 11
30.8958300116
 21
50.8193667444
 72
1
 10
30.8958300116
 20
50.8193667444
 11
30.9464066679
 21
50.5069837221
 72
1
 10
30.9464066679
 20
50.5069837221
 11
30.9802050699
 21
50.1923388153
 97
1
330
2B8
 75
0
 76
1
 98
1
 10
0.0
 20
0.0
  0
LWPOLYLINE
  5
2BA
100
AcDbEntity
  8
0
100
AcDbPolyline
 62
2
  6
CONTINUOUS
 90
7
 70
0
 10
23.9920561988
 20
49.8618526947
 10
23.9826347522
 20
49.7181091975
 10
22.1839918283
 20
49.4203391196
 10
22.1704386268
 20
49.830893601
 10
24.0664633081
 20
50.1395438071
 10
24.0201593349
 20
50.0031367007
 10
23.9920561988
 20
49.8618526947
  0
HATCH
  5
2BB
100
AcDbEntity
  8
0
100
AcDbHatch
 62
2
  6
CONTINUOUS
 10
0.0
 20
0.0
 30
0.0
210
0.0
220
0.0
230
1.0
  2
SOLID
 70
1
 71
1
 91
1
 92
1
 93
6
 72
1
 10
23.9920561988
 20
49.8618526947
 11
23.9826347522
 21
49.7181091975
 72
1
 10
23.9826347522
 20
49.7181091975
 11
22.1839918283
 21
49.4203391196
 72
1
 10
22.1839918283
 20
49.4203391196
 11
22.1704386268
 21
49.830893601
 72
1
 10
22.1704386268
 20
49.830893601
 11
24.0664633081
 21
50.1395438071
 72
1
 10
24.0664633081
 20
50.1395438071
 11
24.0201593349
 21
50.0031367007
 72
1
 10
24.0201593349
 20
50.0031367007
 11
23.9920561988
 21
49.8618526947
 97
1
330
2BA
 75
0
 76
1
 98
1
 10
0.0
 20
0.0
  0
LWPOLYLINE
  5
2BC
100
AcDbEntity
  8
0
100
AcDbPolyline
 62
2
  6
CONTINUOUS
 90
7
 70
0
 10
24.0201593349
 20
49.4330816944
 10
24.0664633081
 20
49.2966745879
 10
22.2572386446
 20
49.0161441476
 10
22.1839918283
 20
49.4203391196
 10
23.9826347522
 20
49.7181091975
 10
23.9920561988
 20
49.5743657004
 10
24.0201593349
 20
49.4330816944
  0
HATCH
  5
2BD
100
AcDbEntity
  8
0
100
AcDbHatch
 62
2
  6
CONTINUOUS
 10
0.0
 20
0.0
 30
0.0
210
0.0
220
0.0
230
1.0
  2
SOLID
 70
1
 71
1
 91
1
 92
1
 93
6
 72
1
 10
24.0201593349
 20
49.4330816944
 11
24.0664633081
 21
49.2966745879
 72
1
 10
24.0664633081
 20
49.2966745879
 11
22.2572386446
 21
49.0161441476
 72
1
 10
22.2572386446
 20
49.0161441476
 11
22.1839918283
 21
49.4203391196
 72
1
 10
22.1839918283
 20
49.4203391196
 11
23.9826347522
 21
49.7181091975
 72
1
 10
23.9826347522
 20
49.7181091975
 11
23.9920561988
 21
49.5743657004
 72
1
 10
23.9920561988
 20
49.5743657004
 11
24.0201593349
 21
49.4330816944
 97
1
330
2BC
 75
0
 76
1
 98
1
 10
0.0
 20
0.0
  0
LWPOLYLINE
  5
2BE
100
AcDbEntity
  8
0
100
AcDbPolyline
 62
2
  6
CONTINUOUS
 90
7
 70
0
 10
30.9802050699
 20
49.2438795798
 10
30.9464066679
 20
48.929234673
 10
30.3441014095
 20
48.3459675312
 10
30.4890156598
 20
49.1641981161
 10
30.9971284879
 20
49.8763366836
 10
30.9971284879
 20
49.5598817115
 10
30.9802050699
 20
49.2438795798
  0
HATCH
  5
2BF
100
AcDbEntity
  8
0
100
AcDbHatch
 62
2
  6
CONTINUOUS
 10
0.0
 20
0.0
 30
0.0
210
0.0
220
0.0
230
1.0
  2
SOLID
 70
1
 71
1
 91
1
 92
1
 93
6
 72
1
 10
30.9802050699
 20
49.2438795798
 11
30.9464066679
 21
48.929234673
 72
1
 10
30.9464066679
 20
48.929234673
 11
30.3441014095
 21
48.3459675312
 72
1
 10
30.3441014095
 20
48.3459675312
 11
30.4890156598
 21
49.1641981161
 72
1
 10
30.4890156598
 20
49.1641981161
 11
30.9971284879
 21
49.8763366836
 72
1
 10
30.9971284879
 20
49.8763366836
 11
30.9971284879
 21
49.5598817115
 72
1
 10
30.9971284879
 20
49.5598817115
 11
30.9802050699
 21
49.2438795798
 97
1
330
2BE
 75
0
 76
1
 98
1
 10
0.0
 20
0.0
  0
LWPOLYLINE
  5
2C0
100
AcDbEntity
  8
0
100
AcDbPolyline
 62
2
  6
CONTINUOUS
 90
7
 70
0
 10
24.2102068052
 20
49.0477035476
 10
24.305186838
 20
48.9393995773
 10
22.3886147349
 20
48.6269411229
 10
22.2572386446
 20
49.0161441476
 10
24.0664633081
 20
49.2966745879
 10
24.1301758446
 20
49.1674783445
 10
24.2102068052
 20
49.0477035476
  0
HATCH
  5
2C1
100
AcDbEntity
  8
0
100
AcDbHatch
 62
2
  6
CONTINUOUS
 10
0.0
 20
0.0
 30
0.0
210
0.0
220
0.0
230
1.0
  2
SOLID
 70
1
 71
1
 91
1
 92
1
 93
6
 72
1
 10
24.2102068052
 20
49.0477035476
 11
24.305186838
 21
48.9393995773
 72
1
 10
24.305186838
 20
48.9393995773
 11
22.3886147349
 21
48.6269411229
 72
1
 10
22.3886147349
 20
48.6269411229
 11
22.2572386446
 21
49.0161441476
 72
1
 10
22.2572386446
 20
49.0161441476
 11
24.0664633081
 21
49.2966745879
 72
1
 10
24.0664633081
 20
49.2966745879
 11
24.1301758446
 21
49.1674783445
 72
1
 10
24.1301758446
 20
49.1674783445
 11
24.2102068052
 21
49.0477035476
 97
1
330
2C0
 75
0
 76
1
 98
1
 10
0.0
 20
0.0
  0
LWPOLYLINE
  5
2C2
100
AcDbEntity
  8
0
100
AcDbPolyline
 62
2
  6
CONTINUOUS
 90
9
 70
0
 10
24.7988689551
 20
48.6543720741
 10
24.9401529611
 20
48.626268938
 10
22.5753142853
 20
48.2610422989
 10
22.3886147349
 20
48.6269411229
 10
24.305186838
 20
48.9393995773
 10
24.4134908084
 20
48.8444195445
 10
24.5332656052
 20
48.7643885839
 10
24.6624618487
 20
48.7006760474
 10
24.7988689551
 20
48.6543720741
  0
HATCH
  5
2C3
100
AcDbEntity
  8
0
100
AcDbHatch
 62
2
  6
CONTINUOUS
 10
0.0
 20
0.0
 30
0.0
210
0.0
220
0.0
230
1.0
  2
SOLID
 70
1
 71
1
 91
1
 92
1
 93
8
 72
1
 10
24.7988689551
 20
48.6543720741
 11
24.9401529611
 21
48.626268938
 72
1
 10
24.9401529611
 20
48.626268938
 11
22.5753142853
 21
48.2610422989
 72
1
 10
22.5753142853
 20
48.2610422989
 11
22.3886147349
 21
48.6269411229
 72
1
 10
22.3886147349
 20
48.6269411229
 11
24.305186838
 21
48.9393995773
 72
1
 10
24.305186838
 20
48.9393995773
 11
24.4134908084
 21
48.8444195445
 72
1
 10
24.4134908084
 20
48.8444195445
 11
24.5332656052
 21
48.7643885839
 72
1
 10
24.5332656052
 20
48.7643885839
 11
24.6624618487
 21
48.7006760474
 72
1
 10
24.6624618487
 20
48.7006760474
 11
24.7988689551
 21
48.6543720741
 97
1
330
2C2
 75
0
 76
1
 98
1
 10
0.0
 20
0.0
  0
LWPOLYLINE
  5
2C4
100
AcDbEntity
  8
0
100
AcDbPolyline
 62
2
  6
CONTINUOUS
 90
9
 70
0
 10
32.7402873674
 20
48.6168415373
 10
32.7402873674
 20
48.0400014831
 10
32.7736662065
 20
47.5307364352
 10
29.6978523803
 20
46.8199201942
 10
30.0783860199
 20
47.5586323028
 10
30.3441014095
 20
48.3459675312
 10
30.9464066679
 20
48.929234673
 10
30.8958300116
 20
48.6168415373
 10
32.7402873674
 20
48.6168415373
  0
HATCH
  5
2C5
100
AcDbEntity
  8
0
100
AcDbHatch
 62
2
  6
CONTINUOUS
 10
0.0
 20
0.0
 30
0.0
210
0.0
220
0.0
230
1.0
  2
SOLID
 70
1
 71
1
 91
1
 92
1
 93
8
 72
1
 10
32.7402873674
 20
48.6168415373
 11
32.7402873674
 21
48.0400014831
 72
1
 10
32.7402873674
 20
48.0400014831
 11
32.7736662065
 21
47.5307364352
 72
1
 10
32.7736662065
 20
47.5307364352
 11
29.6978523803
 21
46.8199201942
 72
1
 10
29.6978523803
 20
46.8199201942
 11
30.0783860199
 21
47.5586323028
 72
1
 10
30.0783860199
 20
47.5586323028
 11
30.3441014095
 21
48.3459675312
 72
1
 10
30.3441014095
 20
48.3459675312
 11
30.9464066679
 21
48.929234673
 72
1
 10
30.9464066679
 20
48.929234673
 11
30.8958300116
 21
48.6168415373
 72
1
 10
30.8958300116
 20
48.6168415373
 11
32.7402873674
 21
48.6168415373
 97
1
330
2C4
 75
0
 76
1
 98
1
 10
0.0
 20
0.0
  0
LWPOLYLINE
  5
2C6
100
AcDbEntity
  8
0
100
AcDbPolyline
 62
2
  6
CONTINUOUS
 90
19
 70
0
 10
27.5651390593
 20
48.6168415373
 10
27.3770140122
 20
48.2516795326
 10
27.1376746145
 20
47.9178302789
 10
26.8522324649
 20
47.6224297867
 10
26.526783784
 20
47.3717869581
 10
26.1682792161
 20
47.1712548002
 10
25.7843753842
 20
47.0251161014
 10
25.3832713659
 20
46.9364919623
 10
24.9735335855
 20
46.9072751387
 10
24.5639128592
 20
46.9380896178
 10
24.1631575036
 20
47.0282772912
 10
23.7798264963
 20
47.1759120104
 10
23.4221066811
 20
47.377840724
 10
23.097637921
 20
47.6297508175
 10
22.8133499321
 20
47.9262622184
 10
22.5753142853
 20
48.2610422989
 10
24.9401529611
 20
48.626268938
 10
25.0838964583
 20
48.6168415373
 10
27.5651390593
 20
48.6168415373
  0
HATCH
  5
2C7
100
AcDbEntity
  8
0
100
AcDbHatch
 62
2
  6
CONTINUOUS
 10
0.0
 20
0.0
 30
0.0
210
0.0
220
0.0
230
1.0
  2
SOLID
 70
1
 71
1
 91
1
 92
1
 93
18
 72
1
 10
27.5651390593
 20
48.6168415373
 11
27.3770140122
 21
48.2516795326
 72
1
 10
27.3770140122
 20
48.2516795326
 11
27.1376746145
 21
47.9178302789
 72
1
 10
27.1376746145
 20
47.9178302789
 11
26.8522324649
 21
47.6224297867
 72
1
 10
26.8522324649
 20
47.6224297867
 11
26.526783784
 21
47.3717869581
 72
1
 10
26.526783784
 20
47.3717869581
 11
26.1682792161
 21
47.1712548002
 72
1
 10
26.1682792161
 20
47.1712548002
 11
25.7843753842
 21
47.0251161014
 72
1
 10
25.7843753842
 20
47.0251161014
 11
25.3832713659
 21
46.9364919623
 72
1
 10
25.3832713659
 20
46.9364919623
 11
24.9735335855
 21
46.9072751387
 72
1
 10
24.9735335855
 20
46.9072751387
 11
24.5639128592
 21
46.9380896178
 72
1
 10
24.5639128592
 20
46.9380896178
 11
24.1631575036
 21
47.0282772912
 72
1
 10
24.1631575036
 20
47.0282772912
 11
23.7798264963
 21
47.1759120104
 72
1
 10
23.7798264963
 20
47.1759120104
 11
23.4221066811
 21
47.377840724
 72
1
 10
23.4221066811
 20
47.377840724
 11
23.097637921
 21
47.6297508175
 72
1
 10
23.097637921
 20
47.6297508175
 11
22.8133499321
 21
47.9262622184
 72
1
 10
22.8133499321
 20
47.9262622184
 11
22.5753142853
 21
48.2610422989
 72
1
 10
22.5753142853
 20
48.2610422989
 11
24.9401529611
 21
48.626268938
 72
1
 10
24.9401529611
 20
48.626268938
 11
25.0838964583
 21
48.6168415373
 72
1
 10
25.0838964583
 20
48.6168415373
 11
27.5651390593
 21
48.6168415373
 97
1
330
2C6
 75
0
 76
1
 98
1
 10
0.0
 20
0.0
  0
LWPOLYLINE
  5
2C8
100
AcDbEntity
  8
0
100
AcDbPolyline
 62
2
  6
CONTINUOUS
 90
28
 70
0
 10
35.4672211158
 20
48.0400014831
 10
35.4672211158
 20
54.9622171339
 10
37.8165794221
 20
54.9622171339
 10
37.8165794221
 20
48.0400014831
 10
37.8065298791
 20
47.8866714687
 10
37.7765532006
 20
47.7359664545
 10
37.7271622958
 20
47.5904664408
 10
37.6592022569
 20
47.4526614279
 10
37.5738358989
 20
47.3248914159
 10
37.4725238638
 20
47.209376405
 10
37.3569996288
 20
47.1080663955
 10
37.2292398455
 20
47.0227013874
 10
37.0914305192
 20
46.9547363811
 10
36.9459296056
 20
46.9053413764
 10
36.7952266659
 20
46.8753713736
 10
36.6419002689
 20
46.8653169684
 10
36.488573872
 20
46.8753713736
 10
36.3378709322
 20
46.9053413764
 10
36.1923700187
 20
46.9547363811
 10
36.0545606923
 20
47.0227013874
 10
35.926800909
 20
47.1080663955
 10
35.811276674
 20
47.209376405
 10
35.709964639
 20
47.3248914159
 10
35.624598281
 20
47.4526614279
 10
35.556638242
 20
47.5904664408
 10
35.5072473373
 20
47.7359664545
 10
35.4772706588
 20
47.8866714687
 10
35.4672211158
 20
48.0400014831
  0
HATCH
  5
2C9
100
AcDbEntity
  8
0
100
AcDbHatch
 62
2
  6
CONTINUOUS
 10
0.0
 20
0.0
 30
0.0
210
0.0
220
0.0
230
1.0
  2
SOLID
 70
1
 71
1
 91
1
 92
1
 93
27
 72
1
 10
35.4672211158
 20
48.0400014831
 11
35.4672211158
 21
54.9622171339
 72
1
 10
35.4672211158
 20
54.9622171339
 11
37.8165794221
 21
54.9622171339
 72
1
 10
37.8165794221
 20
54.9622171339
 11
37.8165794221
 21
48.0400014831
 72
1
 10
37.8165794221
 20
48.0400014831
 11
37.8065298791
 21
47.8866714687
 72
1
 10
37.8065298791
 20
47.8866714687
 11
37.7765532006
 21
47.7359664545
 72
1
 10
37.7765532006
 20
47.7359664545
 11
37.7271622958
 21
47.5904664408
 72
1
 10
37.7271622958
 20
47.5904664408
 11
37.6592022569
 21
47.4526614279
 72
1
 10
37.6592022569
 20
47.4526614279
 11
37.5738358989
 21
47.3248914159
 72
1
 10
37.5738358989
 20
47.3248914159
 11
37.4725238638
 21
47.209376405
 72
1
 10
37.4725238638
 20
47.209376405
 11
37.3569996288
 21
47.1080663955
 72
1
 10
37.3569996288
 20
47.1080663955
 11
37.2292398455
 21
47.0227013874
 72
1
 10
37.2292398455
 20
47.0227013874
 11
37.0914305192
 21
46.9547363811
 72
1
 10
37.0914305192
 20
46.9547363811
 11
36.9459296056
 21
46.9053413764
 72
1
 10
36.9459296056
 20
46.9053413764
 11
36.7952266659
 21
46.8753713736
 72
1
 10
36.7952266659
 20
46.8753713736
 11
36.6419002689
 21
46.8653169684
 72
1
 10
36.6419002689
 20
46.8653169684
 11
36.488573872
 21
46.8753713736
 72
1
 10
36.488573872
 20
46.8753713736
 11
36.3378709322
 21
46.9053413764
 72
1
 10
36.3378709322
 20
46.9053413764
 11
36.1923700187
 21
46.9547363811
 72
1
 10
36.1923700187
 20
46.9547363811
 11
36.0545606923
 21
47.0227013874
 72
1
 10
36.0545606923
 20
47.0227013874
 11
35.926800909
 21
47.1080663955
 72
1
 10
35.926800909
 20
47.1080663955
 11
35.811276674
 21
47.209376405
 72
1
 10
35.811276674
 20
47.209376405
 11
35.709964639
 21
47.3248914159
 72
1
 10
35.709964639
 20
47.3248914159
 11
35.624598281
 21
47.4526614279
 72
1
 10
35.624598281
 20
47.4526614279
 11
35.556638242
 21
47.5904664408
 72
1
 10
35.556638242
 20
47.5904664408
 11
35.5072473373
 21
47.7359664545
 72
1
 10
35.5072473373
 20
47.7359664545
 11
35.4772706588
 21
47.8866714687
 72
1
 10
35.4772706588
 20
47.8866714687
 11
35.4672211158
 21
48.0400014831
 97
1
330
2C8
 75
0
 76
1
 98
1
 10
0.0
 20
0.0
  0
LWPOLYLINE
  5
2CA
100
AcDbEntity
  8
0
100
AcDbPolyline
 62
2
  6
CONTINUOUS
 90
8
 70
0
 10
32.8732316031
 20
47.0301863881
 10
33.0372799653
 20
46.5469163427
 10
33.2630043804
 20
46.0891912997
 10
28.6289953152
 20
45.5534278506
 10
29.2110686458
 20
46.146464163
 10
29.6978523803
 20
46.8199201942
 10
32.7736662065
 20
47.5307364352
 10
32.8732316031
 20
47.0301863881
  0
HATCH
  5
2CB
100
AcDbEntity
  8
0
100
AcDbHatch
 62
2
  6
CONTINUOUS
 10
0.0
 20
0.0
 30
0.0
210
0.0
220
0.0
230
1.0
  2
SOLID
 70
1
 71
1
 91
1
 92
1
 93
7
 72
1
 10
32.8732316031
 20
47.0301863881
 11
33.0372799653
 21
46.5469163427
 72
1
 10
33.0372799653
 20
46.5469163427
 11
33.2630043804
 21
46.0891912997
 72
1
 10
33.2630043804
 20
46.0891912997
 11
28.6289953152
 21
45.5534278506
 72
1
 10
28.6289953152
 20
45.5534278506
 11
29.2110686458
 21
46.146464163
 72
1
 10
29.2110686458
 20
46.146464163
 11
29.6978523803
 21
46.8199201942
 72
1
 10
29.6978523803
 20
46.8199201942
 11
32.7736662065
 21
47.5307364352
 72
1
 10
32.7736662065
 20
47.5307364352
 11
32.8732316031
 21
47.0301863881
 97
1
330
2CA
 75
0
 76
1
 98
1
 10
0.0
 20
0.0
  0
LWPOLYLINE
  5
2CC
100
AcDbEntity
  8
0
100
AcDbPolyline
 62
2
  6
CONTINUOUS
 90
8
 70
0
 10
33.5465426409
 20
45.6648412598
 10
33.8830433286
 20
45.2811412237
 10
34.2667488235
 20
44.9446311921
 10
27.2332545398
 20
44.659914577
 10
27.9647384426
 20
45.0541641554
 10
28.6289953152
 20
45.5534278506
 10
33.2630043804
 20
46.0891912997
 10
33.5465426409
 20
45.6648412598
  0
HATCH
  5
2CD
100
AcDbEntity
  8
0
100
AcDbHatch
 62
2
  6
CONTINUOUS
 10
0.0
 20
0.0
 30
0.0
210
0.0
220
0.0
230
1.0
  2
SOLID
 70
1
 71
1
 91
1
 92
1
 93
7
 72
1
 10
33.5465426409
 20
45.6648412598
 11
33.8830433286
 21
45.2811412237
 72
1
 10
33.8830433286
 20
45.2811412237
 11
34.2667488235
 21
44.9446311921
 72
1
 10
34.2667488235
 20
44.9446311921
 11
27.2332545398
 21
44.659914577
 72
1
 10
27.2332545398
 20
44.659914577
 11
27.9647384426
 21
45.0541641554
 72
1
 10
27.9647384426
 20
45.0541641554
 11
28.6289953152
 21
45.5534278506
 72
1
 10
28.6289953152
 20
45.5534278506
 11
33.2630043804
 21
46.0891912997
 72
1
 10
33.2630043804
 20
46.0891912997
 11
33.5465426409
 21
45.6648412598
 97
1
330
2CC
 75
0
 76
1
 98
1
 10
0.0
 20
0.0
  0
LWPOLYLINE
  5
2CE
100
AcDbEntity
  8
0
100
AcDbPolyline
 62
2
  6
CONTINUOUS
 90
24
 70
0
 10
34.6910938181
 20
44.6611011654
 10
35.148817652
 20
44.4353811442
 10
35.6320885434
 20
44.2713261287
 10
36.1326375934
 20
44.1717561194
 10
16.2419864095
 20
43.6666760719
 10
19.9070381779
 20
51.9411676226
 10
19.6315006057
 20
51.1572157897
 10
19.476368491
 20
50.3408608074
 10
19.445134813
 20
49.5104838523
 10
19.5385028339
 20
48.684781822
 10
19.7543702648
 20
47.8823463527
 10
20.0878766008
 20
47.121245207
 10
20.531512561
 20
46.4186154575
 10
21.0752891688
 20
45.7902776256
 10
21.7069626648
 20
45.2503794643
 10
22.4123101897
 20
44.8110774052
 10
23.1754500283
 20
44.4822628421
 10
23.9791992044
 20
44.2713261287
 10
24.8054603758
 20
44.1830563096
 10
25.6356293166
 20
44.2194013213
 10
26.4510138129
 20
44.3795561005
 10
27.2332545398
 20
44.659914577
 10
34.2667488235
 20
44.9446311921
 10
34.6910938181
 20
44.6611011654
  0
HATCH
  5
2CF
100
AcDbEntity
  8
0
100
AcDbHatch
 62
2
  6
CONTINUOUS
 10
0.0
 20
0.0
 30
0.0
210
0.0
220
0.0
230
1.0
  2
SOLID
 70
1
 71
1
 91
1
 92
1
 93
23
 72
1
 10
34.6910938181
 20
44.6611011654
 11
35.148817652
 21
44.4353811442
 72
1
 10
35.148817652
 20
44.4353811442
 11
35.6320885434
 21
44.2713261287
 72
1
 10
35.6320885434
 20
44.2713261287
 11
36.1326375934
 21
44.1717561194
 72
1
 10
36.1326375934
 20
44.1717561194
 11
16.2419864095
 21
43.6666760719
 72
1
 10
16.2419864095
 20
43.6666760719
 11
19.9070381779
 21
51.9411676226
 72
1
 10
19.9070381779
 20
51.9411676226
 11
19.6315006057
 21
51.1572157897
 72
1
 10
19.6315006057
 20
51.1572157897
 11
19.476368491
 21
50.3408608074
 72
1
 10
19.476368491
 20
50.3408608074
 11
19.445134813
 21
49.5104838523
 72
1
 10
19.445134813
 20
49.5104838523
 11
19.5385028339
 21
48.684781822
 72
1
 10
19.5385028339
 20
48.684781822
 11
19.7543702648
 21
47.8823463527
 72
1
 10
19.7543702648
 20
47.8823463527
 11
20.0878766008
 21
47.121245207
 72
1
 10
20.0878766008
 20
47.121245207
 11
20.531512561
 21
46.4186154575
 72
1
 10
20.531512561
 20
46.4186154575
 11
21.0752891688
 21
45.7902776256
 72
1
 10
21.0752891688
 20
45.7902776256
 11
21.7069626648
 21
45.2503794643
 72
1
 10
21.7069626648
 20
45.2503794643
 11
22.4123101897
 21
44.8110774052
 72
1
 10
22.4123101897
 20
44.8110774052
 11
23.1754500283
 21
44.4822628421
 72
1
 10
23.1754500283
 20
44.4822628421
 11
23.9791992044
 21
44.2713261287
 72
1
 10
23.9791992044
 20
44.2713261287
 11
24.8054603758
 21
44.1830563096
 72
1
 10
24.8054603758
 20
44.1830563096
 11
25.6356293166
 21
44.2194013213
 72
1
 10
25.6356293166
 20
44.2194013213
 11
26.4510138129
 21
44.3795561005
 72
1
 10
26.4510138129
 20
44.3795561005
 11
27.2332545398
 21
44.659914577
 72
1
 10
27.2332545398
 20
44.659914577
 11
34.2667488235
 21
44.9446311921
 72
1
 10
34.2667488235
 20
44.9446311921
 11
34.6910938181
 21
44.6611011654
 97
1
330
2CE
 75
0
 76
1
 98
1
 10
0.0
 20
0.0
  0
LWPOLYLINE
  5
2D0
100
AcDbEntity
  8
0
100
AcDbPolyline
 62
2
  6
CONTINUOUS
 90
43
 70
0
 10
36.6419002689
 20
44.13838322
 10
37.1511629445
 20
44.1717561194
 10
37.6517119945
 20
44.2713261287
 10
38.1349828859
 20
44.4353811442
 10
38.5927067197
 20
44.6611011654
 10
39.0170517144
 20
44.9446311921
 10
39.4007572092
 20
45.2811412237
 10
39.737257897
 20
45.6648412598
 10
40.0207961575
 20
46.0891912997
 10
45.2337891918
 20
43.6666760719
 10
45.2268433597
 20
43.5341510594
 10
45.2060819632
 20
43.4030660471
 10
45.1717324686
 20
43.2748610351
 10
45.1241712162
 20
43.1509610234
 10
45.0639192969
 20
43.0327160123
 10
44.9916368435
 20
42.9214160018
 10
44.9081157975
 20
42.8182759921
 10
44.8142712331
 20
42.7244209833
 10
44.7111313309
 20
42.6409009754
 10
44.5998261134
 20
42.5686159687
 10
44.4815750637
 20
42.508375963
 10
44.357673765
 20
42.4608109585
 10
44.229479706
 20
42.4264609553
 10
44.0983974076
 20
42.4057009533
 10
43.9658630349
 20
42.3987559527
 10
17.5099125664
 20
42.3987559527
 10
17.3773781937
 20
42.4057009533
 10
17.2462958953
 20
42.4264609553
 10
17.1181018363
 20
42.4608109585
 10
16.9942005377
 20
42.508375963
 10
16.875949488
 20
42.5686159687
 10
16.7646442704
 20
42.6409009754
 10
16.6615043683
 20
42.7244209833
 10
16.5676598038
 20
42.8182759921
 10
16.4841387579
 20
42.9214160018
 10
16.4118563044
 20
43.0327160123
 10
16.3516043852
 20
43.1509610234
 10
16.3040431327
 20
43.2748610351
 10
16.2696936382
 20
43.4030660471
 10
16.2489322417
 20
43.5341510594
 10
16.2419864095
 20
43.6666760719
 10
36.1326375934
 20
44.1717561194
 10
36.6419002689
 20
44.13838322
  0
HATCH
  5
2D1
100
AcDbEntity
  8
0
100
AcDbHatch
 62
2
  6
CONTINUOUS
 10
0.0
 20
0.0
 30
0.0
210
0.0
220
0.0
230
1.0
  2
SOLID
 70
1
 71
1
 91
1
 92
1
 93
42
 72
1
 10
36.6419002689
 20
44.13838322
 11
37.1511629445
 21
44.1717561194
 72
1
 10
37.1511629445
 20
44.1717561194
 11
37.6517119945
 21
44.2713261287
 72
1
 10
37.6517119945
 20
44.2713261287
 11
38.1349828859
 21
44.4353811442
 72
1
 10
38.1349828859
 20
44.4353811442
 11
38.5927067197
 21
44.6611011654
 72
1
 10
38.5927067197
 20
44.6611011654
 11
39.0170517144
 21
44.9446311921
 72
1
 10
39.0170517144
 20
44.9446311921
 11
39.4007572092
 21
45.2811412237
 72
1
 10
39.4007572092
 20
45.2811412237
 11
39.737257897
 21
45.6648412598
 72
1
 10
39.737257897
 20
45.6648412598
 11
40.0207961575
 21
46.0891912997
 72
1
 10
40.0207961575
 20
46.0891912997
 11
45.2337891918
 21
43.6666760719
 72
1
 10
45.2337891918
 20
43.6666760719
 11
45.2268433597
 21
43.5341510594
 72
1
 10
45.2268433597
 20
43.5341510594
 11
45.2060819632
 21
43.4030660471
 72
1
 10
45.2060819632
 20
43.4030660471
 11
45.1717324686
 21
43.2748610351
 72
1
 10
45.1717324686
 20
43.2748610351
 11
45.1241712162
 21
43.1509610234
 72
1
 10
45.1241712162
 20
43.1509610234
 11
45.0639192969
 21
43.0327160123
 72
1
 10
45.0639192969
 20
43.0327160123
 11
44.9916368435
 21
42.9214160018
 72
1
 10
44.9916368435
 20
42.9214160018
 11
44.9081157975
 21
42.8182759921
 72
1
 10
44.9081157975
 20
42.8182759921
 11
44.8142712331
 21
42.7244209833
 72
1
 10
44.8142712331
 20
42.7244209833
 11
44.7111313309
 21
42.6409009754
 72
1
 10
44.7111313309
 20
42.6409009754
 11
44.5998261134
 21
42.5686159687
 72
1
 10
44.5998261134
 20
42.5686159687
 11
44.4815750637
 21
42.508375963
 72
1
 10
44.4815750637
 20
42.508375963
 11
44.357673765
 21
42.4608109585
 72
1
 10
44.357673765
 20
42.4608109585
 11
44.229479706
 21
42.4264609553
 72
1
 10
44.229479706
 20
42.4264609553
 11
44.0983974076
 21
42.4057009533
 72
1
 10
44.0983974076
 20
42.4057009533
 11
43.9658630349
 21
42.3987559527
 72
1
 10
43.9658630349
 20
42.3987559527
 11
17.5099125664
 21
42.3987559527
 72
1
 10
17.5099125664
 20
42.3987559527
 11
17.3773781937
 21
42.4057009533
 72
1
 10
17.3773781937
 20
42.4057009533
 11
17.2462958953
 21
42.4264609553
 72
1
 10
17.2462958953
 20
42.4264609553
 11
17.1181018363
 21
42.4608109585
 72
1
 10
17.1181018363
 20
42.4608109585
 11
16.9942005377
 21
42.508375963
 72
1
 10
16.9942005377
 20
42.508375963
 11
16.875949488
 21
42.5686159687
 72
1
 10
16.875949488
 20
42.5686159687
 11
16.7646442704
 21
42.6409009754
 72
1
 10
16.7646442704
 20
42.6409009754
 11
16.6615043683
 21
42.7244209833
 72
1
 10
16.6615043683
 20
42.7244209833
 11
16.5676598038
 21
42.8182759921
 72
1
 10
16.5676598038
 20
42.8182759921
 11
16.4841387579
 21
42.9214160018
 72
1
 10
16.4841387579
 20
42.9214160018
 11
16.4118563044
 21
43.0327160123
 72
1
 10
16.4118563044
 20
43.0327160123
 11
16.3516043852
 21
43.1509610234
 72
1
 10
16.3516043852
 20
43.1509610234
 11
16.3040431327
 21
43.2748610351
 72
1
 10
16.3040431327
 20
43.2748610351
 11
16.2696936382
 21
43.4030660471
 72
1
 10
16.2696936382
 20
43.4030660471
 11
16.2489322417
 21
43.5341510594
 72
1
 10
16.2489322417
 20
43.5341510594
 11
16.2419864095
 21
43.6666760719
 72
1
 10
16.2419864095
 20
43.6666760719
 11
36.1326375934
 21
44.1717561194
 72
1
 10
36.1326375934
 20
44.1717561194
 11
36.6419002689
 21
44.13838322
 97
1
330
2D0
 75
0
 76
1
 98
1
 10
0.0
 20
0.0
  0
SOLID
  5
2D2
100
AcDbEntity
  8
0
100
AcDbTrace
 62
2
  6
CONTINUOUS
 10
25.221751844
 20
55.2505598297
 11
24.3911934086
 21
55.2245960958
 12
26.0468447649
 22
55.151954039
 13
45.2337891918
 23
56.1308222438
  0
ENDBLK
  5
2D3
100
AcDbEntity
  8
0
  6
BYBLOCK
 62
0
100
AcDbBlockEnd
  0
BLOCK
  5
2D4
100
AcDbEntity
  8
94339807000_BL0
100
AcDbBlockBegin
  2
94339807000_BL0
 70
64
 10
99.0034734524
 20
473.0913689276
  3
94339807000_BL0
  1

  0
LINE
  5
2D5
100
AcDbEntity
  8
94339807000_BL0
100
AcDbLine
 62
7
  6
CONTINUOUS
 10
147.9260466361
 20
113.7913689276
 11
136.9260466361
 21
113.7913689276
  0
LINE
  5
2D6
100
AcDbEntity
  8
94339807000_BL0
100
AcDbLine
 62
7
  6
CONTINUOUS
 10
147.9260466361
 20
117.2913689276
 11
145.6760466361
 21
117.2913689276
  0
LINE
  5
2D7
100
AcDbEntity
  8
94339807000_BL0
100
AcDbLine
 62
7
  6
CONTINUOUS
 10
136.9260466361
 20
117.2913689276
 11
139.1760466361
 21
117.2913689276
  0
LINE
  5
2D8
100
AcDbEntity
  8
94339807000_BL0
100
AcDbLine
 62
7
  6
CONTINUOUS
 10
147.9260466361
 20
121.3913689276
 11
145.6760466361
 21
121.3913689276
  0
LINE
  5
2D9
100
AcDbEntity
  8
94339807000_BL0
100
AcDbLine
 62
7
  6
CONTINUOUS
 10
136.9260466361
 20
121.3913689276
 11
139.1760466361
 21
121.3913689276
  0
LINE
  5
2DA
100
AcDbEntity
  8
94339807000_BL0
100
AcDbLine
 62
7
  6
CONTINUOUS
 10
136.9260466361
 20
113.7913689276
 11
136.9260466361
 21
117.2913689276
  0
LINE
  5
2DB
100
AcDbEntity
  8
94339807000_BL0
100
AcDbLine
 62
7
  6
CONTINUOUS
 10
136.9260466361
 20
121.3913689276
 11
136.9260466361
 21
220.738488565
  0
LINE
  5
2DC
100
AcDbEntity
  8
94339807000_BL0
100
AcDbLine
 62
7
  6
CONTINUOUS
 10
139.1760466361
 20
117.2913689276
 11
139.1760466361
 21
121.3913689276
  0
LINE
  5
2DD
100
AcDbEntity
  8
94339807000_BL0
100
AcDbLine
 62
7
  6
CONTINUOUS
 10
139.4260466361
 20
796.9960395427
 11
139.4260466361
 21
795.9364777046
  0
LINE
  5
2DE
100
AcDbEntity
  8
94339807000_BL0
100
AcDbLine
 62
7
  6
CONTINUOUS
 10
139.4260466361
 20
793.8460004202
 11
139.4260466361
 21
792.7850997784
  0
LINE
  5
2DF
100
AcDbEntity
  8
94339807000_BL0
100
AcDbLine
 62
7
  6
CONTINUOUS
 10
139.4260466361
 20
218.1913689276
 11
139.4260466361
 21
168.1913689276
  0
LINE
  5
2E0
100
AcDbEntity
  8
94339807000_BL0
100
AcDbLine
 62
7
  6
CONTINUOUS
 10
139.4260466361
 20
154.6913689276
 11
139.4260466361
 21
126.8913689276
  0
LINE
  5
2E1
100
AcDbEntity
  8
94339807000_BL0
100
AcDbLine
 62
7
  6
CONTINUOUS
 10
145.4260466361
 20
126.8913689276
 11
145.4260466361
 21
154.6913689276
  0
LINE
  5
2E2
100
AcDbEntity
  8
94339807000_BL0
100
AcDbLine
 62
7
  6
CONTINUOUS
 10
145.4260466361
 20
168.1913689276
 11
145.4260466361
 21
218.1913689276
  0
LINE
  5
2E3
100
AcDbEntity
  8
94339807000_BL0
100
AcDbLine
 62
7
  6
CONTINUOUS
 10
145.4260466361
 20
792.7866983126
 11
145.4260466361
 21
793.8462601507
  0
LINE
  5
2E4
100
AcDbEntity
  8
94339807000_BL0
100
AcDbLine
 62
7
  6
CONTINUOUS
 10
145.4260466361
 20
795.9367374351
 11
145.4260466361
 21
796.9976380769
  0
LINE
  5
2E5
100
AcDbEntity
  8
94339807000_BL0
100
AcDbLine
 62
7
  6
CONTINUOUS
 10
145.6760466361
 20
121.3913689276
 11
145.6760466361
 21
117.2913689276
  0
LINE
  5
2E6
100
AcDbEntity
  8
94339807000_BL0
100
AcDbLine
 62
7
  6
CONTINUOUS
 10
147.9260466361
 20
113.7913689276
 11
147.9260466361
 21
117.2913689276
  0
LINE
  5
2E7
100
AcDbEntity
  8
94339807000_BL0
100
AcDbLine
 62
7
  6
CONTINUOUS
 10
147.9260466361
 20
121.3913689276
 11
147.9260466361
 21
220.738488565
  0
LINE
  5
2E8
100
AcDbEntity
  8
94339807000_BL0
100
AcDbLine
 62
7
  6
CONTINUOUS
 10
52.3809002687
 20
113.7913689276
 11
50.0809002687
 21
113.7913689276
  0
LINE
  5
2E9
100
AcDbEntity
  8
94339807000_BL0
100
AcDbLine
 62
7
  6
CONTINUOUS
 10
52.3809002687
 20
117.2913689276
 11
50.0809002687
 21
117.2913689276
  0
LINE
  5
2EA
100
AcDbEntity
  8
94339807000_BL0
100
AcDbLine
 62
7
  6
CONTINUOUS
 10
52.3809002687
 20
121.3913689276
 11
50.0809002687
 21
121.3913689276
  0
LINE
  5
2EB
100
AcDbEntity
  8
94339807000_BL0
100
AcDbLine
 62
7
  6
CONTINUOUS
 10
50.0809002687
 20
113.7913689276
 11
50.0809002687
 21
216.3913689276
  0
LINE
  5
2EC
100
AcDbEntity
  8
94339807000_BL0
100
AcDbLine
 62
7
  6
CONTINUOUS
 10
52.3809002687
 20
113.7913689276
 11
52.3809002687
 21
832.3913689276
  0
ARC
  5
2ED
100
AcDbEntity
  8
94339807000_BL0
100
AcDbCircle
 62
7
  6
CONTINUOUS
 10
142.4260466361
 20
154.6913689276
 40
3.0
100
AcDbArc
 50
0.0
 51
180.0
  0
ARC
  5
2EE
100
AcDbEntity
  8
94339807000_BL0
100
AcDbCircle
 62
7
  6
CONTINUOUS
 10
142.4260466361
 20
126.8913689276
 40
3.0
100
AcDbArc
 50
180.0
 51
360.0
  0
ARC
  5
2EF
100
AcDbEntity
  8
94339807000_BL0
100
AcDbCircle
 62
7
  6
CONTINUOUS
 10
142.4260466361
 20
218.1913689276
 40
3.0
100
AcDbArc
 50
0.0
 51
180.0
  0
ARC
  5
2F0
100
AcDbEntity
  8
94339807000_BL0
100
AcDbCircle
 62
7
  6
CONTINUOUS
 10
142.4260466361
 20
168.1913689276
 40
3.0
100
AcDbArc
 50
180.0
 51
360.0
  0
ENDBLK
  5
2F1
100
AcDbEntity
  8
0
  6
BYBLOCK
 62
0
100
AcDbBlockEnd
  0
BLOCK
  5
2F2
100
AcDbEntity
  8
94870650000_BL1
100
AcDbBlockBegin
  2
94870650000_BL1
 70
64
 10
99.7534734524
 20
549.3908724014
  3
94870650000_BL1
  1

  0
LINE
  5
2F3
100
AcDbEntity
  8
94870650000_BL1
100
AcDbLine
 62
7
  6
CONTINUOUS
 10
144.9024534025
 20
1012.5110806836
 11
144.7782443096
 21
1012.4341163238
  0
LINE
  5
2F4
100
AcDbEntity
  8
94870650000_BL1
100
AcDbLine
 62
7
  6
CONTINUOUS
 10
139.9496398697
 20
1008.2716571717
 11
140.0738489625
 21
1008.3486215314
  0
LINE
  5
2F5
100
AcDbEntity
  8
94870650000_BL1
100
AcDbLine
 62
7
  6
CONTINUOUS
 10
152.4260466361
 20
216.3913689276
 11
151.591198026
 21
216.3913689276
  0
LINE
  5
2F6
100
AcDbEntity
  8
94870650000_BL1
100
AcDbLine
 62
7
  6
CONTINUOUS
 10
132.4260466361
 20
216.3913689276
 11
133.2608952462
 21
216.3913689276
  0
LINE
  5
2F7
100
AcDbEntity
  8
94870650000_BL1
100
AcDbLine
 62
7
  6
CONTINUOUS
 10
140.9261754627
 20
919.614012653
 11
137.8149325508
 21
918.159012653
  0
LINE
  5
2F8
100
AcDbEntity
  8
94870650000_BL1
100
AcDbLine
 62
7
  6
CONTINUOUS
 10
140.989718956
 20
919.4781368845
 11
137.8784760441
 21
918.0231368845
  0
LINE
  5
2F9
100
AcDbEntity
  8
94870650000_BL1
100
AcDbLine
 62
7
  6
CONTINUOUS
 10
141.0532624493
 20
919.3422611161
 11
137.9420195374
 21
917.8872611161
  0
LINE
  5
2FA
100
AcDbEntity
  8
94870650000_BL1
100
AcDbLine
 62
7
  6
CONTINUOUS
 10
137.9619506413
 20
917.5289988615
 11
141.5379353185
 21
919.2012228986
  0
LINE
  5
2FB
100
AcDbEntity
  8
94870650000_BL1
100
AcDbLine
 62
7
  6
CONTINUOUS
 10
138.0309910796
 20
917.3956936084
 11
141.7294074332
 21
919.125169902
  0
LINE
  5
2FC
100
AcDbEntity
  8
94870650000_BL1
100
AcDbLine
 62
7
  6
CONTINUOUS
 10
138.100462837
 20
917.2625900513
 11
141.7988792924
 21
918.9920663925
  0
LINE
  5
2FD
100
AcDbEntity
  8
94870650000_BL1
100
AcDbLine
 62
9
  6
CONTINUOUS
 10
137.6417956722
 20
913.3783371207
 11
137.3965549421
 21
913.2050886247
  0
LINE
  5
2FE
100
AcDbEntity
  8
94870650000_BL1
100
AcDbLine
 62
7
  6
CONTINUOUS
 10
144.5082110468
 20
917.603500962
 11
148.4823289253
 21
921.5776188405
  0
LINE
  5
2FF
100
AcDbEntity
  8
94870650000_BL1
100
AcDbLine
 62
7
  6
CONTINUOUS
 10
144.5082110468
 20
917.3913689276
 11
148.6944430899
 21
921.5776009707
  0
LINE
  5
300
100
AcDbEntity
  8
94870650000_BL1
100
AcDbLine
 62
7
  6
CONTINUOUS
 10
144.5082110468
 20
917.1792368933
 11
148.9065572545
 21
921.577583101
  0
LINE
  5
301
100
AcDbEntity
  8
94870650000_BL1
100
AcDbLine
 62
9
  6
CONTINUOUS
 10
147.5995433151
 20
924.9468339488
 11
147.3873428646
 21
924.7347703526
  0
LINE
  5
302
100
AcDbEntity
  8
94870650000_BL1
100
AcDbLine
 62
9
  6
CONTINUOUS
 10
148.5295433151
 20
924.0162337774
 11
148.3173428646
 21
923.8041701812
  0
LINE
  5
303
100
AcDbEntity
  8
94870650000_BL1
100
AcDbLine
 62
9
  6
CONTINUOUS
 10
142.8284266676
 20
918.8590212724
 11
143.040558702
 21
919.0711533068
  0
LINE
  5
304
100
AcDbEntity
  8
94870650000_BL1
100
AcDbLine
 62
7
  6
CONTINUOUS
 10
146.6804433151
 20
924.9472691028
 11
146.1087720705
 21
924.3763112526
  0
LINE
  5
305
100
AcDbEntity
  8
94870650000_BL1
100
AcDbLine
 62
7
  6
CONTINUOUS
 10
146.7864430899
 20
924.8411368845
 11
146.1086879967
 21
924.1642275688
  0
LINE
  5
306
100
AcDbEntity
  8
94870650000_BL1
100
AcDbLine
 62
7
  6
CONTINUOUS
 10
146.8924428646
 20
924.7350046663
 11
146.3208683814
 21
924.1641434567
  0
LINE
  5
307
100
AcDbEntity
  8
94870650000_BL1
100
AcDbLine
 62
7
  6
CONTINUOUS
 10
147.8920146981
 20
922.5924675996
 11
148.3686535662
 21
923.3746308193
  0
LINE
  5
308
100
AcDbEntity
  8
94870650000_BL1
100
AcDbLine
 62
7
  6
CONTINUOUS
 10
147.9208201945
 20
922.3514846086
 11
148.4967440921
 21
923.2965743194
  0
LINE
  5
309
100
AcDbEntity
  8
94870650000_BL1
100
AcDbLine
 62
7
  6
CONTINUOUS
 10
148.1102776476
 20
922.3741310865
 11
148.624834618
 21
923.2185178195
  0
LINE
  5
30A
100
AcDbEntity
  8
94870650000_BL1
100
AcDbLine
 62
7
  6
CONTINUOUS
 10
138.7596737559
 20
906.6527346537
 11
137.9668698912
 21
905.5611935265
  0
LINE
  5
30B
100
AcDbEntity
  8
94870650000_BL1
100
AcDbLine
 62
7
  6
CONTINUOUS
 10
146.0924195163
 20
878.1300032016
 11
146.8852233809
 21
879.2215443287
  0
LINE
  5
30C
100
AcDbEntity
  8
94870650000_BL1
100
AcDbLine
 62
7
  6
CONTINUOUS
 10
144.9024534025
 20
797.0110806836
 11
144.7782443096
 21
796.9341163238
  0
LINE
  5
30D
100
AcDbEntity
  8
94870650000_BL1
100
AcDbLine
 62
7
  6
CONTINUOUS
 10
139.9496398697
 20
792.7716571717
 11
140.0738489625
 21
792.8486215314
  0
LINE
  5
30E
100
AcDbEntity
  8
94870650000_BL1
100
AcDbLine
 62
7
  6
CONTINUOUS
 10
132.4260466361
 20
216.3913689276
 11
132.4260466361
 21
1012.3913689276
  0
LINE
  5
30F
100
AcDbEntity
  8
94870650000_BL1
100
AcDbLine
 62
7
  6
CONTINUOUS
 10
136.7260466361
 20
901.7413689276
 11
136.7260466361
 21
894.7885827118
  0
LINE
  5
310
100
AcDbEntity
  8
94870650000_BL1
100
AcDbLine
 62
7
  6
CONTINUOUS
 10
136.7260466361
 20
889.9941551435
 11
136.7260466361
 21
883.0413689276
  0
LINE
  5
311
100
AcDbEntity
  8
94870650000_BL1
100
AcDbLine
 62
7
  6
CONTINUOUS
 10
139.9260466361
 20
257.4544371564
 11
139.9260466361
 21
264.3283006989
  0
LINE
  5
312
100
AcDbEntity
  8
94870650000_BL1
100
AcDbLine
 62
7
  6
CONTINUOUS
 10
141.0260466361
 20
878.8528067554
 11
141.0260466361
 21
879.3413689276
  0
LINE
  5
313
100
AcDbEntity
  8
94870650000_BL1
100
AcDbLine
 62
7
  6
CONTINUOUS
 10
141.0260466361
 20
905.4413689276
 11
141.0260466361
 21
905.9299310999
  0
LINE
  5
314
100
AcDbEntity
  8
94870650000_BL1
100
AcDbLine
 62
7
  6
CONTINUOUS
 10
143.8260466361
 20
905.9299310999
 11
143.8260466361
 21
905.4413689276
  0
LINE
  5
315
100
AcDbEntity
  8
94870650000_BL1
100
AcDbLine
 62
7
  6
CONTINUOUS
 10
143.8260466361
 20
879.3413689276
 11
143.8260466361
 21
878.8528067554
  0
LINE
  5
316
100
AcDbEntity
  8
94870650000_BL1
100
AcDbLine
 62
7
  6
CONTINUOUS
 10
144.5082110468
 20
917.1792368933
 11
144.5082110468
 21
917.603500962
  0
LINE
  5
317
100
AcDbEntity
  8
94870650000_BL1
100
AcDbLine
 62
7
  6
CONTINUOUS
 10
144.9260466361
 20
264.3283006989
 11
144.9260466361
 21
257.4544371564
  0
LINE
  5
318
100
AcDbEntity
  8
94870650000_BL1
100
AcDbLine
 62
7
  6
CONTINUOUS
 10
146.1087720705
 20
924.3763112526
 11
146.1086879967
 21
924.1642275688
  0
LINE
  5
319
100
AcDbEntity
  8
94870650000_BL1
100
AcDbLine
 62
7
  6
CONTINUOUS
 10
141.8285257899
 20
798.0958559754
 11
141.8330743342
 21
797.9498055658
  0
LINE
  5
31A
100
AcDbEntity
  8
94870650000_BL1
100
AcDbLine
 62
7
  6
CONTINUOUS
 10
143.0235674823
 20
791.6868818799
 11
143.0190189379
 21
791.8329322895
  0
LINE
  5
31B
100
AcDbEntity
  8
94870650000_BL1
100
AcDbLine
 62
7
  6
CONTINUOUS
 10
141.8285257899
 20
1013.5958559754
 11
141.8330743342
 21
1013.4498055658
  0
LINE
  5
31C
100
AcDbEntity
  8
94870650000_BL1
100
AcDbLine
 62
7
  6
CONTINUOUS
 10
143.0235674823
 20
1007.1868818799
 11
143.0190189379
 21
1007.3329322895
  0
LINE
  5
31D
100
AcDbEntity
  8
94870650000_BL1
100
AcDbLine
 62
7
  6
CONTINUOUS
 10
148.1260466361
 20
883.0413689276
 11
148.1260466361
 21
901.7413689276
  0
LINE
  5
31E
100
AcDbEntity
  8
94870650000_BL1
100
AcDbLine
 62
7
  6
CONTINUOUS
 10
152.4260466361
 20
216.3913689276
 11
152.4260466361
 21
1012.3913689276
  0
LINE
  5
31F
100
AcDbEntity
  8
94870650000_BL1
100
AcDbLine
 62
7
  6
CONTINUOUS
 10
147.8920146981
 20
922.5924675996
 11
147.9208201945
 21
922.3514846086
  0
LINE
  5
320
100
AcDbEntity
  8
94870650000_BL1
100
AcDbLine
 62
9
  6
CONTINUOUS
 10
137.8149325508
 20
918.159012653
 11
137.9420195374
 21
917.8872611161
  0
LINE
  5
321
100
AcDbEntity
  8
94870650000_BL1
100
AcDbLine
 62
9
  6
CONTINUOUS
 10
140.9261754627
 20
919.614012653
 11
141.0532624493
 21
919.3422611161
  0
LINE
  5
322
100
AcDbEntity
  8
94870650000_BL1
100
AcDbLine
 62
7
  6
CONTINUOUS
 10
141.5379353185
 20
919.2012228986
 11
141.3880163639
 21
919.5796455775
  0
LINE
  5
323
100
AcDbEntity
  8
94870650000_BL1
100
AcDbLine
 62
7
  6
CONTINUOUS
 10
141.7294074332
 20
919.125169902
 11
141.4301436923
 21
919.8805659545
  0
LINE
  5
324
100
AcDbEntity
  8
94870650000_BL1
100
AcDbLine
 62
7
  6
CONTINUOUS
 10
141.8098057654
 20
919.3294873122
 11
141.5904083413
 21
919.883286271
  0
LINE
  5
325
100
AcDbEntity
  8
94870650000_BL1
100
AcDbLine
 62
7
  6
CONTINUOUS
 10
137.9668698912
 20
879.2215443287
 11
138.7596737559
 21
878.1300032016
  0
LINE
  5
326
100
AcDbEntity
  8
94870650000_BL1
100
AcDbLine
 62
7
  6
CONTINUOUS
 10
139.3521190235
 20
795.9761442194
 11
139.4808766607
 21
795.9070581696
  0
LINE
  5
327
100
AcDbEntity
  8
94870650000_BL1
100
AcDbLine
 62
7
  6
CONTINUOUS
 10
145.4999742487
 20
793.8065936358
 11
145.3712166115
 21
793.8756796857
  0
LINE
  5
328
100
AcDbEntity
  8
94870650000_BL1
100
AcDbLine
 62
7
  6
CONTINUOUS
 10
146.8852233809
 20
905.5611935265
 11
146.0924195163
 21
906.6527346537
  0
LINE
  5
329
100
AcDbEntity
  8
94870650000_BL1
100
AcDbLine
 62
7
  6
CONTINUOUS
 10
142.8284266492
 20
918.8590212909
 11
144.5082110468
 21
917.1792368933
  0
LINE
  5
32A
100
AcDbEntity
  8
94870650000_BL1
100
AcDbLine
 62
7
  6
CONTINUOUS
 10
142.9344430899
 20
918.9651368845
 11
144.5082110468
 21
917.3913689276
  0
LINE
  5
32B
100
AcDbEntity
  8
94870650000_BL1
100
AcDbLine
 62
7
  6
CONTINUOUS
 10
143.040558681
 20
919.0711533277
 11
144.5082110468
 21
917.603500962
  0
LINE
  5
32C
100
AcDbEntity
  8
94870650000_BL1
100
AcDbLine
 62
7
  6
CONTINUOUS
 10
148.4823289253
 20
921.5776188405
 11
145.7927981879
 21
924.2680560595
  0
LINE
  5
32D
100
AcDbEntity
  8
94870650000_BL1
100
AcDbLine
 62
7
  6
CONTINUOUS
 10
148.6944430899
 20
921.5776009707
 11
145.8287598965
 21
924.4442500162
  0
LINE
  5
32E
100
AcDbEntity
  8
94870650000_BL1
100
AcDbLine
 62
7
  6
CONTINUOUS
 10
148.9065572545
 20
921.577583101
 11
148.1102776476
 21
922.3741310865
  0
LINE
  5
32F
100
AcDbEntity
  8
94870650000_BL1
100
AcDbLine
 62
7
  6
CONTINUOUS
 10
147.8920146981
 20
922.5924675996
 11
146.3208683814
 21
924.1641434567
  0
LINE
  5
330
100
AcDbEntity
  8
94870650000_BL1
100
AcDbLine
 62
7
  6
CONTINUOUS
 10
146.1087720705
 20
924.3763112526
 11
145.865699347
 21
924.6194659015
  0
LINE
  5
331
100
AcDbEntity
  8
94870650000_BL1
100
AcDbLine
 62
7
  6
CONTINUOUS
 10
148.3173428646
 20
923.8041701812
 11
147.3873428646
 21
924.7347703526
  0
LINE
  5
332
100
AcDbEntity
  8
94870650000_BL1
100
AcDbLine
 62
7
  6
CONTINUOUS
 10
148.4234430899
 20
923.9102019793
 11
147.4934430899
 21
924.8408021507
  0
LINE
  5
333
100
AcDbEntity
  8
94870650000_BL1
100
AcDbLine
 62
7
  6
CONTINUOUS
 10
148.5295433151
 20
924.0162337774
 11
147.5995433151
 21
924.9468339488
  0
LINE
  5
334
100
AcDbEntity
  8
94870650000_BL1
100
AcDbLine
 62
9
  6
CONTINUOUS
 10
146.6804433151
 20
924.9472691028
 11
146.8924428646
 21
924.7350046663
  0
LINE
  5
335
100
AcDbEntity
  8
94870650000_BL1
100
AcDbLine
 62
9
  6
CONTINUOUS
 10
148.624834618
 20
923.2185178195
 11
148.3686535662
 21
923.3746308193
  0
LINE
  5
336
100
AcDbEntity
  8
94870650000_BL1
100
AcDbLine
 62
9
  6
CONTINUOUS
 10
136.712928133
 20
913.3769607957
 11
136.9585828678
 21
913.2042998322
  0
LINE
  5
337
100
AcDbEntity
  8
94870650000_BL1
100
AcDbLine
 62
7
  6
CONTINUOUS
 10
139.3260466361
 20
877.8413689276
 11
140.2492639484
 21
877.8413689276
  0
LINE
  5
338
100
AcDbEntity
  8
94870650000_BL1
100
AcDbLine
 62
7
  6
CONTINUOUS
 10
144.6028293237
 20
877.8413689276
 11
145.5260466361
 21
877.8413689276
  0
LINE
  5
339
100
AcDbEntity
  8
94870650000_BL1
100
AcDbLine
 62
7
  6
CONTINUOUS
 10
141.5260466361
 20
879.8413689276
 11
143.3260466361
 21
879.8413689276
  0
LINE
  5
33A
100
AcDbEntity
  8
94870650000_BL1
100
AcDbLine
 62
7
  6
CONTINUOUS
 10
143.3260466361
 20
904.9413689276
 11
141.5260466361
 21
904.9413689276
  0
LINE
  5
33B
100
AcDbEntity
  8
94870650000_BL1
100
AcDbLine
 62
7
  6
CONTINUOUS
 10
141.7294074332
 20
919.125169902
 11
141.5379353185
 21
919.2012228986
  0
LINE
  5
33C
100
AcDbEntity
  8
94870650000_BL1
100
AcDbLine
 62
7
  6
CONTINUOUS
 10
148.1102776476
 20
922.3741310865
 11
147.9208201945
 21
922.3514846086
  0
LINE
  5
33D
100
AcDbEntity
  8
94870650000_BL1
100
AcDbLine
 62
7
  6
CONTINUOUS
 10
136.7838368148
 20
916.3770580438
 11
137.6924326762
 21
916.3778105524
  0
LINE
  5
33E
100
AcDbEntity
  8
94870650000_BL1
100
AcDbLine
 62
7
  6
CONTINUOUS
 10
136.9274550035
 20
916.5271770414
 11
137.5289685273
 21
916.5276752211
  0
LINE
  5
33F
100
AcDbEntity
  8
94870650000_BL1
100
AcDbLine
 62
7
  6
CONTINUOUS
 10
137.0848535983
 20
916.677307452
 11
137.3886689187
 21
916.677559075
  0
LINE
  5
340
100
AcDbEntity
  8
94870650000_BL1
100
AcDbLine
 62
7
  6
CONTINUOUS
 10
145.5260466361
 20
906.9413689276
 11
144.6028293237
 21
906.9413689276
  0
LINE
  5
341
100
AcDbEntity
  8
94870650000_BL1
100
AcDbLine
 62
7
  6
CONTINUOUS
 10
140.2492639484
 20
906.9413689276
 11
139.3260466361
 21
906.9413689276
  0
LINE
  5
342
100
AcDbEntity
  8
94870650000_BL1
100
AcDbLine
 62
9
  6
CONTINUOUS
 10
137.8783926703
 20
912.6333689276
 11
137.5781293575
 21
912.6333689276
  0
LINE
  5
343
100
AcDbEntity
  8
94870650000_BL1
100
AcDbLine
 62
7
  6
CONTINUOUS
 10
148.9065572545
 20
921.577583101
 11
148.4823289253
 21
921.5776188405
  0
LINE
  5
344
100
AcDbEntity
  8
94870650000_BL1
100
AcDbLine
 62
7
  6
CONTINUOUS
 10
146.3208683814
 20
924.1641434567
 11
146.1086879967
 21
924.1642275688
  0
LINE
  5
345
100
AcDbEntity
  8
94870650000_BL1
100
AcDbLine
 62
7
  6
CONTINUOUS
 10
137.3101471269
 20
914.4271902552
 11
137.0482466471
 21
914.4278529899
  0
LINE
  5
346
100
AcDbEntity
  8
94870650000_BL1
100
AcDbLine
 62
7
  6
CONTINUOUS
 10
139.3521190235
 20
1011.4761442194
 11
139.4808766607
 21
1011.4070581696
  0
LINE
  5
347
100
AcDbEntity
  8
94870650000_BL1
100
AcDbLine
 62
7
  6
CONTINUOUS
 10
145.4999742487
 20
1009.3065936358
 11
145.3712166115
 21
1009.3756796857
  0
LINE
  5
348
100
AcDbEntity
  8
94870650000_BL1
100
AcDbLine
 62
7
  6
CONTINUOUS
 10
50.0809002687
 20
216.3913689276
 11
47.0809002687
 21
216.3913689276
  0
LINE
  5
349
100
AcDbEntity
  8
94870650000_BL1
100
AcDbLine
 62
7
  6
CONTINUOUS
 10
47.0809002687
 20
216.3913689276
 11
47.0809002687
 21
1022.3913366769
  0
LINE
  5
34A
100
AcDbEntity
  8
94870650000_BL1
100
AcDbLine
 62
7
  6
CONTINUOUS
 10
50.0809002687
 20
216.3913689276
 11
50.0809002687
 21
1022.3913366769
  0
LINE
  5
34B
100
AcDbEntity
  8
94870650000_BL1
100
AcDbLine
 62
9
  6
CONTINUOUS
 10
50.0809002687
 20
1012.3913689276
 11
47.0809002687
 21
1012.3913689276
  0
LINE
  5
34C
100
AcDbEntity
  8
94870650000_BL1
100
AcDbLine
 62
7
  6
CONTINUOUS
 10
50.0809002687
 20
1022.3913689276
 11
47.0809002687
 21
1022.3913689276
  0
LINE
  5
34D
100
AcDbEntity
  8
94870650000_BL1
100
AcDbLine
 62
7
  6
CONTINUOUS
 10
47.0809002687
 20
96.3903758752
 11
47.0809002687
 21
76.3903758752
  0
LINE
  5
34E
100
AcDbEntity
  8
94870650000_BL1
100
AcDbLine
 62
7
  6
CONTINUOUS
 10
50.0809002687
 20
76.3903758752
 11
47.0809002687
 21
76.3903758752
  0
LINE
  5
34F
100
AcDbEntity
  8
94870650000_BL1
100
AcDbLine
 62
7
  6
CONTINUOUS
 10
50.0809002687
 20
76.3903758752
 11
50.0809002687
 21
96.3903758752
  0
LINE
  5
350
100
AcDbEntity
  8
94870650000_BL1
100
AcDbLine
 62
7
  6
CONTINUOUS
 10
50.0809002687
 20
96.3903758752
 11
47.0809002687
 21
96.3903758752
  0
ARC
  5
351
100
AcDbEntity
  8
94870650000_BL1
100
AcDbCircle
 62
7
  6
CONTINUOUS
 10
142.4260466361
 20
212.3913689276
 40
10.0
100
AcDbArc
 50
23.5781784782
 51
156.4218215218
  0
CIRCLE
  5
352
100
AcDbEntity
  8
94870650000_BL1
100
AcDbCircle
 62
7
  6
CONTINUOUS
 10
142.4260466361
 20
260.8913689276
 40
4.25
  0
ARC
  5
353
100
AcDbEntity
  8
94870650000_BL1
100
AcDbCircle
 62
7
  6
CONTINUOUS
 10
142.4260466361
 20
260.8913689276
 40
3.75
100
AcDbArc
 50
129.4285599509
 51
131.8103148958
  0
ARC
  5
354
100
AcDbEntity
  8
94870650000_BL1
100
AcDbCircle
 62
7
  6
CONTINUOUS
 10
142.4260466361
 20
260.8913689276
 40
3.75
100
AcDbArc
 50
48.1896851042
 51
50.5714400491
  0
ARC
  5
355
100
AcDbEntity
  8
94870650000_BL1
100
AcDbCircle
 62
7
  6
CONTINUOUS
 10
142.4260466361
 20
260.8913689276
 40
3.75
100
AcDbArc
 50
228.1896851042
 51
230.5714400491
  0
ARC
  5
356
100
AcDbEntity
  8
94870650000_BL1
100
AcDbCircle
 62
7
  6
CONTINUOUS
 10
142.4260466361
 20
260.8913689276
 40
3.75
100
AcDbArc
 50
309.4285599509
 51
311.8103148958
  0
ARC
  5
357
100
AcDbEntity
  8
94870650000_BL1
100
AcDbCircle
 62
7
  6
CONTINUOUS
 10
140.756256878
 20
797.7835296266
 40
1.0895795161
100
AcDbArc
 50
231.222044608
 51
8.777955392
  0
ARC
  5
358
100
AcDbEntity
  8
94870650000_BL1
100
AcDbCircle
 62
7
  6
CONTINUOUS
 10
140.756256878
 20
791.9992082287
 40
1.0895795161
100
AcDbArc
 50
351.222044608
 51
128.777955392
  0
ARC
  5
359
100
AcDbEntity
  8
94870650000_BL1
100
AcDbCircle
 62
7
  6
CONTINUOUS
 10
139.08646712
 20
794.8913689276
 40
1.0895795161
100
AcDbArc
 50
291.222044608
 51
68.777955392
  0
ARC
  5
35A
100
AcDbEntity
  8
94870650000_BL1
100
AcDbCircle
 62
7
  6
CONTINUOUS
 10
139.6980666142
 20
793.3163689276
 40
0.6
100
AcDbArc
 50
111.222044608
 51
294.7896920305
  0
ARC
  5
35B
100
AcDbEntity
  8
94870650000_BL1
100
AcDbCircle
 62
7
  6
CONTINUOUS
 10
139.6980666142
 20
796.4663689276
 40
0.6
100
AcDbArc
 50
51.222044608
 51
234.7896920304
  0
ARC
  5
35C
100
AcDbEntity
  8
94870650000_BL1
100
AcDbCircle
 62
7
  6
CONTINUOUS
 10
139.3260466361
 20
878.5413689276
 40
0.7
100
AcDbArc
 50
215.9915068811
 51
270.0
  0
ARC
  5
35D
100
AcDbEntity
  8
94870650000_BL1
100
AcDbCircle
 62
7
  6
CONTINUOUS
 10
139.3260466361
 20
906.2413689276
 40
0.7
100
AcDbArc
 50
90.0
 51
144.008493119
  0
ARC
  5
35E
100
AcDbEntity
  8
94870650000_BL1
100
AcDbCircle
 62
7
  6
CONTINUOUS
 10
142.2391973874
 20
876.9382733145
 40
42.9499134465
100
AcDbArc
 50
90.8655264935
 51
91.0793526758
  0
ARC
  5
35F
100
AcDbEntity
  8
94870650000_BL1
100
AcDbCircle
 62
7
  6
CONTINUOUS
 10
141.6260466361
 20
883.0413689276
 40
6.5
100
AcDbArc
 50
324.008493119
 51
360.0
  0
ARC
  5
360
100
AcDbEntity
  8
94870650000_BL1
100
AcDbCircle
 62
7
  6
CONTINUOUS
 10
141.5260466361
 20
879.3413689276
 40
0.5
100
AcDbArc
 50
90.0
 51
180.0
  0
ARC
  5
361
100
AcDbEntity
  8
94870650000_BL1
100
AcDbCircle
 62
7
  6
CONTINUOUS
 10
141.5260466361
 20
878.8528067554
 40
0.5
100
AcDbArc
 50
180.0
 51
221.4096221089
  0
ARC
  5
362
100
AcDbEntity
  8
94870650000_BL1
100
AcDbCircle
 62
7
  6
CONTINUOUS
 10
140.7760466361
 20
878.1913689276
 40
0.5
100
AcDbArc
 50
238.2116693829
 51
41.4096221097
  0
ARC
  5
363
100
AcDbEntity
  8
94870650000_BL1
100
AcDbCircle
 62
7
  6
CONTINUOUS
 10
140.2492639484
 20
877.3413689276
 40
0.5
100
AcDbArc
 50
58.211669383
 51
90.0
  0
ARC
  5
364
100
AcDbEntity
  8
94870650000_BL1
100
AcDbCircle
 62
7
  6
CONTINUOUS
 10
141.6260466361
 20
901.7413689276
 40
6.5
100
AcDbArc
 50
0.0
 51
35.991506881
  0
ARC
  5
365
100
AcDbEntity
  8
94870650000_BL1
100
AcDbCircle
 62
7
  6
CONTINUOUS
 10
140.7760466361
 20
906.5913689276
 40
0.5
100
AcDbArc
 50
318.5903778903
 51
121.7883306171
  0
ARC
  5
366
100
AcDbEntity
  8
94870650000_BL1
100
AcDbCircle
 62
7
  6
CONTINUOUS
 10
141.5260466361
 20
905.9299310999
 40
0.5
100
AcDbArc
 50
138.5903778911
 51
180.0
  0
ARC
  5
367
100
AcDbEntity
  8
94870650000_BL1
100
AcDbCircle
 62
7
  6
CONTINUOUS
 10
141.5260466361
 20
905.4413689276
 40
0.5
100
AcDbArc
 50
180.0
 51
270.0
  0
CIRCLE
  5
368
100
AcDbEntity
  8
94870650000_BL1
100
AcDbCircle
 62
7
  6
CONTINUOUS
 10
142.4260466361
 20
794.8913689276
 40
4.15
  0
CIRCLE
  5
369
100
AcDbEntity
  8
94870650000_BL1
100
AcDbCircle
 62
7
  6
CONTINUOUS
 10
142.4260466361
 20
835.8913689276
 40
4.15
  0
ARC
  5
36A
100
AcDbEntity
  8
94870650000_BL1
100
AcDbCircle
 62
7
  6
CONTINUOUS
 10
144.0958363941
 20
797.7835296266
 40
1.0895795161
100
AcDbArc
 50
171.222044608
 51
308.777955392
  0
ARC
  5
36B
100
AcDbEntity
  8
94870650000_BL1
100
AcDbCircle
 62
7
  6
CONTINUOUS
 10
145.7656261522
 20
794.8913689276
 40
1.0895795161
100
AcDbArc
 50
111.222044608
 51
248.777955392
  0
ARC
  5
36C
100
AcDbEntity
  8
94870650000_BL1
100
AcDbCircle
 62
7
  6
CONTINUOUS
 10
144.0958363941
 20
791.9992082287
 40
1.0895795161
100
AcDbArc
 50
51.222044608
 51
188.777955392
  0
ARC
  5
36D
100
AcDbEntity
  8
94870650000_BL1
100
AcDbCircle
 62
7
  6
CONTINUOUS
 10
142.4260466361
 20
798.0413689276
 40
0.6
100
AcDbArc
 50
351.222044608
 51
174.7896920304
  0
ARC
  5
36E
100
AcDbEntity
  8
94870650000_BL1
100
AcDbCircle
 62
7
  6
CONTINUOUS
 10
145.154026658
 20
796.4663689276
 40
0.6
100
AcDbArc
 50
291.222044608
 51
114.7896920304
  0
ARC
  5
36F
100
AcDbEntity
  8
94870650000_BL1
100
AcDbCircle
 62
7
  6
CONTINUOUS
 10
145.154026658
 20
793.3163689276
 40
0.6
100
AcDbArc
 50
231.222044608
 51
54.7896920304
  0
ARC
  5
370
100
AcDbEntity
  8
94870650000_BL1
100
AcDbCircle
 62
7
  6
CONTINUOUS
 10
142.4260466361
 20
791.7413689276
 40
0.6
100
AcDbArc
 50
171.2220446079
 51
354.7896920305
  0
ARC
  5
371
100
AcDbEntity
  8
94870650000_BL1
100
AcDbCircle
 62
7
  6
CONTINUOUS
 10
143.2260466361
 20
883.0413689276
 40
6.5
100
AcDbArc
 50
180.0
 51
215.991506881
  0
ARC
  5
372
100
AcDbEntity
  8
94870650000_BL1
100
AcDbCircle
 62
7
  6
CONTINUOUS
 10
144.6028293237
 20
877.3413689276
 40
0.5
100
AcDbArc
 50
90.0
 51
121.788330617
  0
ARC
  5
373
100
AcDbEntity
  8
94870650000_BL1
100
AcDbCircle
 62
7
  6
CONTINUOUS
 10
144.0760466361
 20
878.1913689276
 40
0.5
100
AcDbArc
 50
138.5903778903
 51
301.7883306171
  0
ARC
  5
374
100
AcDbEntity
  8
94870650000_BL1
100
AcDbCircle
 62
7
  6
CONTINUOUS
 10
143.3260466361
 20
878.8528067554
 40
0.5
100
AcDbArc
 50
318.5903778911
 51
360.0
  0
ARC
  5
375
100
AcDbEntity
  8
94870650000_BL1
100
AcDbCircle
 62
7
  6
CONTINUOUS
 10
143.3260466361
 20
879.3413689276
 40
0.5
100
AcDbArc
 50
0.0
 51
90.0
  0
ARC
  5
376
100
AcDbEntity
  8
94870650000_BL1
100
AcDbCircle
 62
7
  6
CONTINUOUS
 10
143.2260466361
 20
901.7413689276
 40
6.5
100
AcDbArc
 50
144.008493119
 51
180.0
  0
ARC
  5
377
100
AcDbEntity
  8
94870650000_BL1
100
AcDbCircle
 62
7
  6
CONTINUOUS
 10
143.3260466361
 20
905.4413689276
 40
0.5
100
AcDbArc
 50
270.0
 51
360.0
  0
ARC
  5
378
100
AcDbEntity
  8
94870650000_BL1
100
AcDbCircle
 62
7
  6
CONTINUOUS
 10
143.3260466361
 20
905.9299310999
 40
0.5
100
AcDbArc
 50
0.0
 51
41.4096221089
  0
ARC
  5
379
100
AcDbEntity
  8
94870650000_BL1
100
AcDbCircle
 62
7
  6
CONTINUOUS
 10
144.0760466361
 20
906.5913689276
 40
0.5
100
AcDbArc
 50
58.2116693829
 51
221.4096221097
  0
ARC
  5
37A
100
AcDbEntity
  8
94870650000_BL1
100
AcDbCircle
 62
7
  6
CONTINUOUS
 10
145.5260466361
 20
878.5413689276
 40
0.7
100
AcDbArc
 50
270.0
 51
324.0084931189
  0
ARC
  5
37B
100
AcDbEntity
  8
94870650000_BL1
100
AcDbCircle
 62
7
  6
CONTINUOUS
 10
145.5260466361
 20
906.2413689276
 40
0.7
100
AcDbArc
 50
35.9915068811
 51
90.0
  0
ARC
  5
37C
100
AcDbEntity
  8
94870650000_BL1
100
AcDbCircle
 62
7
  6
CONTINUOUS
 10
135.2044022173
 20
914.437243791
 40
2.1441316564
100
AcDbArc
 50
324.8981384185
 51
336.964619986
  0
ARC
  5
37D
100
AcDbEntity
  8
94870650000_BL1
100
AcDbCircle
 62
7
  6
CONTINUOUS
 10
135.2044022173
 20
914.437243791
 40
1.994
100
AcDbArc
 50
324.8981384185
 51
351.8666860394
  0
ARC
  5
37E
100
AcDbEntity
  8
94870650000_BL1
100
AcDbCircle
 62
7
  6
CONTINUOUS
 10
135.2044022173
 20
914.437243791
 40
1.8438683436
100
AcDbArc
 50
324.8981384185
 51
359.7081919685
  0
ARC
  5
37F
100
AcDbEntity
  8
94870650000_BL1
100
AcDbCircle
 62
7
  6
CONTINUOUS
 10
138.5774544704
 20
916.5285034313
 40
1.8
100
AcDbArc
 50
115.0635531445
 51
184.8263621072
  0
ARC
  5
380
100
AcDbEntity
  8
94870650000_BL1
100
AcDbCircle
 62
7
  6
CONTINUOUS
 10
138.5774544704
 20
916.5285034313
 40
1.65
100
AcDbArc
 50
115.0635531445
 51
180.0460585175
  0
ARC
  5
381
100
AcDbEntity
  8
94870650000_BL1
100
AcDbCircle
 62
7
  6
CONTINUOUS
 10
138.5774544704
 20
916.5285034313
 40
1.5
100
AcDbArc
 50
115.0635531445
 51
174.3067408672
  0
ARC
  5
382
100
AcDbEntity
  8
94870650000_BL1
100
AcDbCircle
 62
7
  6
CONTINUOUS
 10
137.770879273
 20
912.6333689276
 40
1.2931316564
100
AcDbArc
 50
144.8981384185
 51
187.5703754148
  0
ARC
  5
383
100
AcDbEntity
  8
94870650000_BL1
100
AcDbCircle
 62
7
  6
CONTINUOUS
 10
136.5872610139
 20
912.6333689276
 40
1.2911316564
100
AcDbArc
 50
0.0
 51
35.2390114238
  0
ARC
  5
384
100
AcDbEntity
  8
94870650000_BL1
100
AcDbCircle
 62
7
  6
CONTINUOUS
 10
138.5289681843
 20
916.5285034313
 40
1.15
100
AcDbArc
 50
119.5418222672
 51
172.5527354982
  0
ARC
  5
385
100
AcDbEntity
  8
94870650000_BL1
100
AcDbCircle
 62
7
  6
CONTINUOUS
 10
137.770879273
 20
912.6333689276
 40
1.143
100
AcDbArc
 50
144.8981384185
 51
187.1365495897
  0
ARC
  5
386
100
AcDbEntity
  8
94870650000_BL1
100
AcDbCircle
 62
7
  6
CONTINUOUS
 10
136.5872610139
 20
912.6333689276
 40
1.141
100
AcDbArc
 50
0.0
 51
35.239011424
  0
ARC
  5
387
100
AcDbEntity
  8
94870650000_BL1
100
AcDbCircle
 62
7
  6
CONTINUOUS
 10
138.5289681843
 20
916.5285034313
 40
1.0
100
AcDbArc
 50
119.866256322
 51
180.0474529521
  0
ARC
  5
388
100
AcDbEntity
  8
94870650000_BL1
100
AcDbCircle
 62
7
  6
CONTINUOUS
 10
137.770879273
 20
912.6333689276
 40
0.9928683436
100
AcDbArc
 50
144.8981384185
 51
186.5286670692
  0
ARC
  5
389
100
AcDbEntity
  8
94870650000_BL1
100
AcDbCircle
 62
7
  6
CONTINUOUS
 10
136.5872610139
 20
912.6333689276
 40
0.9908683436
100
AcDbArc
 50
0.0
 51
35.239011424
  0
ARC
  5
38A
100
AcDbEntity
  8
94870650000_BL1
100
AcDbCircle
 62
7
  6
CONTINUOUS
 10
138.5289681843
 20
916.5285034313
 40
0.85
100
AcDbArc
 50
120.2732147098
 51
190.2117015738
  0
ARC
  5
38B
100
AcDbEntity
  8
94870650000_BL1
100
AcDbCircle
 62
7
  6
CONTINUOUS
 10
137.1732610139
 20
912.6333689276
 40
0.7051316564
100
AcDbArc
 50
193.9811908638
 51
360.0
  0
ARC
  5
38C
100
AcDbEntity
  8
94870650000_BL1
100
AcDbCircle
 62
7
  6
CONTINUOUS
 10
137.1732610139
 20
912.6333689276
 40
0.555
100
AcDbArc
 50
194.8243045398
 51
360.0
  0
ARC
  5
38D
100
AcDbEntity
  8
94870650000_BL1
100
AcDbCircle
 62
7
  6
CONTINUOUS
 10
137.1732610139
 20
912.6333689276
 40
0.4048683436
100
AcDbArc
 50
196.1903920115
 51
360.0
  0
ARC
  5
38E
100
AcDbEntity
  8
94870650000_BL1
100
AcDbCircle
 62
7
  6
CONTINUOUS
 10
128.6225520189
 20
953.8325148098
 40
42.1107760461
100
AcDbArc
 50
280.7663350511
 51
280.9709874374
  0
ARC
  5
38F
100
AcDbEntity
  8
94870650000_BL1
100
AcDbCircle
 62
7
  6
CONTINUOUS
 10
132.3104038658
 20
934.8330696925
 40
22.7567292774
100
AcDbArc
 50
280.9593282529
 51
281.3383924196
  0
ARC
  5
390
100
AcDbEntity
  8
94870650000_BL1
100
AcDbCircle
 62
7
  6
CONTINUOUS
 10
148.6386737575
 20
917.3343689276
 40
7.795
100
AcDbArc
 50
110.8386555185
 51
160.4370541643
  0
ARC
  5
391
100
AcDbEntity
  8
94870650000_BL1
100
AcDbCircle
 62
7
  6
CONTINUOUS
 10
148.6386737575
 20
917.3343689276
 40
7.645
100
AcDbArc
 50
111.5645511097
 51
160.5457603246
  0
ARC
  5
392
100
AcDbEntity
  8
94870650000_BL1
100
AcDbCircle
 62
7
  6
CONTINUOUS
 10
148.6386737575
 20
917.3343689276
 40
7.495
100
AcDbArc
 50
112.3153001054
 51
160.1181075876
  0
ARC
  5
393
100
AcDbEntity
  8
94870650000_BL1
100
AcDbCircle
 62
7
  6
CONTINUOUS
 10
140.4541094681
 20
913.0094831847
 40
4.9811104969
100
AcDbArc
 50
135.0728817935
 51
137.4627734079
  0
ARC
  5
394
100
AcDbEntity
  8
94870650000_BL1
100
AcDbCircle
 62
7
  6
CONTINUOUS
 10
140.0035110004
 20
913.4597761027
 40
4.3440843701
100
AcDbArc
 50
132.2115112214
 51
135.0807196968
  0
ARC
  5
395
100
AcDbEntity
  8
94870650000_BL1
100
AcDbCircle
 62
7
  6
CONTINUOUS
 10
139.7502868625
 20
918.7475585458
 40
3.1404039742
100
AcDbArc
 50
221.2351322997
 51
224.9814869828
  0
ARC
  5
396
100
AcDbEntity
  8
94870650000_BL1
100
AcDbCircle
 62
7
  6
CONTINUOUS
 10
144.4997275577
 20
918.1530336086
 40
2.9359364035
100
AcDbArc
 50
156.3775429277
 51
160.663457824
  0
ARC
  5
397
100
AcDbEntity
  8
94870650000_BL1
100
AcDbCircle
 62
7
  6
CONTINUOUS
 10
139.120009676
 20
914.422610447
 40
2.1101316564
100
AcDbArc
 50
202.9961683067
 51
215.239011424
  0
ARC
  5
398
100
AcDbEntity
  8
94870650000_BL1
100
AcDbCircle
 62
7
  6
CONTINUOUS
 10
139.120009676
 20
914.422610447
 40
1.96
100
AcDbArc
 50
187.8433448277
 51
215.239011424
  0
ARC
  5
399
100
AcDbEntity
  8
94870650000_BL1
100
AcDbCircle
 62
7
  6
CONTINUOUS
 10
139.120009676
 20
914.422610447
 40
1.8098683436
100
AcDbArc
 50
179.8550148915
 51
215.2390114241
  0
ARC
  5
39A
100
AcDbEntity
  8
94870650000_BL1
100
AcDbCircle
 62
7
  6
CONTINUOUS
 10
142.2273859054
 20
918.2579805102
 40
1.15
100
AcDbArc
 50
45.0000014771
 51
111.291509706
  0
ARC
  5
39B
100
AcDbEntity
  8
94870650000_BL1
100
AcDbCircle
 62
7
  6
CONTINUOUS
 10
140.5660956673
 20
920.383975341
 40
1.15
100
AcDbArc
 50
295.0635531445
 51
315.6197365913
  0
ARC
  5
39C
100
AcDbEntity
  8
94870650000_BL1
100
AcDbCircle
 62
7
  6
CONTINUOUS
 10
142.2273859054
 20
918.2579805102
 40
1.0
100
AcDbArc
 50
45.0040186014
 51
119.8663466737
  0
ARC
  5
39D
100
AcDbEntity
  8
94870650000_BL1
100
AcDbCircle
 62
7
  6
CONTINUOUS
 10
140.5660956673
 20
920.383975341
 40
1.0
100
AcDbArc
 50
295.0635531445
 51
329.7741792875
  0
ARC
  5
39E
100
AcDbEntity
  8
94870650000_BL1
100
AcDbCircle
 62
7
  6
CONTINUOUS
 10
140.5660956673
 20
920.383975341
 40
0.85
100
AcDbArc
 50
295.0635531444
 51
328.8639616144
  0
ARC
  5
39F
100
AcDbEntity
  8
94870650000_BL1
100
AcDbCircle
 62
7
  6
CONTINUOUS
 10
142.2273859054
 20
918.2579805102
 40
0.85
100
AcDbArc
 50
45.0000017606
 51
120.2733134535
  0
ARC
  5
3A0
100
AcDbEntity
  8
94870650000_BL1
100
AcDbCircle
 62
7
  6
CONTINUOUS
 10
147.1397756724
 20
924.4873628237
 40
0.65
100
AcDbArc
 50
44.9815181765
 51
134.9642276904
  0
ARC
  5
3A1
100
AcDbEntity
  8
94870650000_BL1
100
AcDbCircle
 62
7
  6
CONTINUOUS
 10
148.0697756724
 20
923.5567626524
 40
0.65
100
AcDbArc
 50
328.6424791037
 51
44.9815181764
  0
ARC
  5
3A2
100
AcDbEntity
  8
94870650000_BL1
100
AcDbCircle
 62
7
  6
CONTINUOUS
 10
140.2492639484
 20
907.4413689276
 40
0.5
100
AcDbArc
 50
270.0
 51
301.788330617
  0
ARC
  5
3A3
100
AcDbEntity
  8
94870650000_BL1
100
AcDbCircle
 62
7
  6
CONTINUOUS
 10
144.6028293237
 20
907.4413689276
 40
0.5
100
AcDbArc
 50
238.211669383
 51
270.0
  0
ARC
  5
3A4
100
AcDbEntity
  8
94870650000_BL1
100
AcDbCircle
 62
7
  6
CONTINUOUS
 10
147.1397756724
 20
924.4873628237
 40
0.5
100
AcDbArc
 50
44.9815181764
 51
134.9642276904
  0
ARC
  5
3A5
100
AcDbEntity
  8
94870650000_BL1
100
AcDbCircle
 62
7
  6
CONTINUOUS
 10
148.0697756724
 20
923.5567626524
 40
0.5
100
AcDbArc
 50
328.6424791037
 51
44.9815181764
  0
ARC
  5
3A6
100
AcDbEntity
  8
94870650000_BL1
100
AcDbCircle
 62
7
  6
CONTINUOUS
 10
148.0697756724
 20
923.5567626524
 40
0.35
100
AcDbArc
 50
328.6424791037
 51
44.9815181764
  0
ARC
  5
3A7
100
AcDbEntity
  8
94870650000_BL1
100
AcDbCircle
 62
7
  6
CONTINUOUS
 10
147.1397756724
 20
924.4873628237
 40
0.35
100
AcDbArc
 50
44.9815181765
 51
134.9642276905
  0
ARC
  5
3A8
100
AcDbEntity
  8
94870650000_BL1
100
AcDbCircle
 62
7
  6
CONTINUOUS
 10
148.5480977002
 20
935.263420474
 40
16.9498519883
100
AcDbArc
 50
244.6596172283
 51
245.1690769785
  0
CIRCLE
  5
3A9
100
AcDbEntity
  8
94870650000_BL1
100
AcDbCircle
 62
7
  6
CONTINUOUS
 10
142.4260466361
 20
948.8913689276
 40
4.15
  0
ARC
  5
3AA
100
AcDbEntity
  8
94870650000_BL1
100
AcDbCircle
 62
7
  6
CONTINUOUS
 10
142.4260466361
 20
1012.3913689276
 40
10.0
100
AcDbArc
 50
0.0
 51
180.0
  0
CIRCLE
  5
3AB
100
AcDbEntity
  8
94870650000_BL1
100
AcDbCircle
 62
7
  6
CONTINUOUS
 10
142.4260466361
 20
1010.3913689276
 40
4.15
  0
ARC
  5
3AC
100
AcDbEntity
  8
94870650000_BL1
100
AcDbCircle
 62
7
  6
CONTINUOUS
 10
140.756256878
 20
1013.2835296266
 40
1.0895795161
100
AcDbArc
 50
231.222044608
 51
8.777955392
  0
ARC
  5
3AD
100
AcDbEntity
  8
94870650000_BL1
100
AcDbCircle
 62
7
  6
CONTINUOUS
 10
144.0958363941
 20
1013.2835296266
 40
1.0895795161
100
AcDbArc
 50
171.222044608
 51
308.777955392
  0
ARC
  5
3AE
100
AcDbEntity
  8
94870650000_BL1
100
AcDbCircle
 62
7
  6
CONTINUOUS
 10
145.7656261522
 20
1010.3913689276
 40
1.0895795161
100
AcDbArc
 50
111.222044608
 51
248.777955392
  0
ARC
  5
3AF
100
AcDbEntity
  8
94870650000_BL1
100
AcDbCircle
 62
7
  6
CONTINUOUS
 10
144.0958363941
 20
1007.4992082287
 40
1.0895795161
100
AcDbArc
 50
51.222044608
 51
188.777955392
  0
ARC
  5
3B0
100
AcDbEntity
  8
94870650000_BL1
100
AcDbCircle
 62
7
  6
CONTINUOUS
 10
140.756256878
 20
1007.4992082287
 40
1.0895795161
100
AcDbArc
 50
351.222044608
 51
128.777955392
  0
ARC
  5
3B1
100
AcDbEntity
  8
94870650000_BL1
100
AcDbCircle
 62
7
  6
CONTINUOUS
 10
139.08646712
 20
1010.3913689276
 40
1.0895795161
100
AcDbArc
 50
291.222044608
 51
68.777955392
  0
ARC
  5
3B2
100
AcDbEntity
  8
94870650000_BL1
100
AcDbCircle
 62
7
  6
CONTINUOUS
 10
142.4260466361
 20
1013.5413689276
 40
0.6
100
AcDbArc
 50
351.222044608
 51
174.7896920304
  0
ARC
  5
3B3
100
AcDbEntity
  8
94870650000_BL1
100
AcDbCircle
 62
7
  6
CONTINUOUS
 10
145.154026658
 20
1011.9663689276
 40
0.6
100
AcDbArc
 50
291.222044608
 51
114.7896920304
  0
ARC
  5
3B4
100
AcDbEntity
  8
94870650000_BL1
100
AcDbCircle
 62
7
  6
CONTINUOUS
 10
145.154026658
 20
1008.8163689276
 40
0.6
100
AcDbArc
 50
231.222044608
 51
54.7896920304
  0
ARC
  5
3B5
100
AcDbEntity
  8
94870650000_BL1
100
AcDbCircle
 62
7
  6
CONTINUOUS
 10
142.4260466361
 20
1007.2413689276
 40
0.6
100
AcDbArc
 50
171.222044608
 51
354.7896920305
  0
ARC
  5
3B6
100
AcDbEntity
  8
94870650000_BL1
100
AcDbCircle
 62
7
  6
CONTINUOUS
 10
139.6980666142
 20
1008.8163689276
 40
0.6
100
AcDbArc
 50
111.222044608
 51
294.7896920305
  0
ARC
  5
3B7
100
AcDbEntity
  8
94870650000_BL1
100
AcDbCircle
 62
7
  6
CONTINUOUS
 10
139.6980666142
 20
1011.9663689276
 40
0.6
100
AcDbArc
 50
51.222044608
 51
234.7896920304
  0
ARC
  5
3B8
100
AcDbEntity
  8
94870650000_BL1
100
AcDbCircle
 62
7
  6
CONTINUOUS
 10
185.0804745383
 20
941.8477337322
 40
53.0241092329
100
AcDbArc
 50
207.2990889674
 51
207.4613059136
  0
ARC
  5
3B9
100
AcDbEntity
  8
94870650000_BL1
100
AcDbCircle
 62
7
  6
CONTINUOUS
 10
175.5450219027
 20
936.8909933904
 40
42.2772896741
100
AcDbArc
 50
207.4600074634
 51
207.6634868596
  0
ARC
  5
3BA
100
AcDbEntity
  8
94870650000_BL1
100
AcDbCircle
 62
7
  6
CONTINUOUS
 10
179.2427177718
 20
938.6201327638
 40
42.2764950007
100
AcDbArc
 50
207.4600525613
 51
207.6635357896
  0
ARC
  5
3BB
100
AcDbEntity
  8
94870650000_BL1
100
AcDbCircle
 62
7
  6
CONTINUOUS
 10
173.5071919028
 20
918.700515631
 40
28.2681107083
100
AcDbArc
 50
167.9136197387
 51
168.2765666241
  0
ARC
  5
3BC
100
AcDbEntity
  8
94870650000_BL1
100
AcDbCircle
 62
7
  6
CONTINUOUS
 10
172.7043510059
 20
918.8670953147
 40
27.4481702859
100
AcDbArc
 50
168.2765193336
 51
168.6518928244
  0
ARC
  5
3BD
100
AcDbEntity
  8
94870650000_BL1
100
AcDbCircle
 62
7
  6
CONTINUOUS
 10
386.7638787628
 20
913.5281966781
 40
249.5863204824
100
AcDbArc
 50
179.85607711
 51
179.9839192173
  0
SPLINE
  5
3BE
100
AcDbEntity
  8
94870650000_BL1
100
AcDbSpline
 62
7
  6
CONTINUOUS
 70
0
 71
3
 72
8
 73
4
 74
0
 42
0.0000001
 43
0.0000001
 44
0.0000000001
 40
0.0
 40
0.0
 40
0.0
 40
0.0
 40
1.0
 40
1.0
 40
1.0
 40
1.0
 10
137.6924326762
 20
916.3778105524
 30
0.0
 10
137.6356979459
 20
916.4251984086
 30
0.0
 10
137.5812824353
 20
916.4754478952
 30
0.0
 10
137.5289685273
 20
916.5276752211
 30
0.0
  0
LINE
  5
3BF
100
AcDbEntity
  8
94870650000_BL1
100
AcDbLine
 62
7
  6
CONTINUOUS
 10
137.1791970877
 20
914.4275216172
 11
137.1783456979
 21
914.1551389605
  0
SPLINE
  5
3C0
100
AcDbEntity
  8
94870650000_BL1
100
AcDbSpline
 62
7
  6
CONTINUOUS
 70
0
 71
3
 72
9
 73
5
 74
0
 42
0.0000001
 43
0.0000001
 44
0.0000000001
 40
0.0
 40
0.0
 40
0.0
 40
0.0
 40
0.2589563269
 40
1.0
 40
1.0
 40
1.0
 40
1.0
 10
141.4301436923
 20
919.8805659545
 30
0.0
 10
141.4281731962
 20
919.8544017498
 30
0.0
 10
141.4187765712
 20
919.7535017061
 30
0.0
 10
141.4028371467
 20
919.6532532991
 30
0.0
 10
141.3880163639
 20
919.5796455775
 30
0.0
  0
ENDBLK
  5
3C1
100
AcDbEntity
  8
0
  6
BYBLOCK
 62
0
100
AcDbBlockEnd
  0
BLOCK
  5
3C2
100
AcDbEntity
  8
95043001000_M1_BL2
100
AcDbBlockBegin
  2
95043001000_M1_BL2
 70
64
 10
141.3801619426
 20
892.3913689108
  3
95043001000_M1_BL2
  1

  0
LWPOLYLINE
  5
3C3
100
AcDbEntity
  8
95043001000_M1_BL2
100
AcDbPolyline
 62
7
  6
CONTINUOUS
 90
25
 70
0
 10
142.4260466361
 20
894.1071647919
 10
142.4104832926
 20
894.1011009013
 10
142.3873552637
 20
894.0865399803
 10
142.3696152874
 20
894.0707055207
 10
142.3559477922
 20
894.0545214633
 10
142.3457474257
 20
894.0391843321
 10
142.3375244078
 20
894.0240546662
 10
142.330334767
 20
894.008314685
 10
142.3238816495
 20
893.9918588337
 10
142.3178549387
 20
893.9742634511
 10
142.3121086721
 20
893.9553179143
 10
142.3065049276
 20
893.9346890131
 10
142.3009891446
 20
893.9122323788
 10
142.2955088975
 20
893.8877607575
 10
142.2900308834
 20
893.8611247643
 10
142.2845267675
 20
893.8321674918
 10
142.2789786163
 20
893.8007625677
 10
142.2733697192
 20
893.7667753106
 10
142.2676911166
 20
893.7301075143
 10
142.261933713
 20
893.6906568117
 10
142.2560926482
 20
893.6483489772
 10
142.2501616715
 20
893.6031025449
 10
142.2441419677
 20
893.5548991175
 10
142.2380316396
 20
893.5037078922
 10
142.2255628686
 20
893.3925799712
  0
LWPOLYLINE
  5
3C4
100
AcDbEntity
  8
95043001000_M1_BL2
100
AcDbPolyline
 62
7
  6
CONTINUOUS
 90
11
 70
0
 10
141.6704879925
 20
893.7697719724
 10
141.6746567266
 20
893.7927265173
 10
141.6787283986
 20
893.8137692907
 10
141.6826846831
 20
893.8328711664
 10
141.6865074606
 20
893.8500256925
 10
141.6901637884
 20
893.8651866745
 10
141.6936213671
 20
893.8783462742
 10
141.6968154912
 20
893.8894200265
 10
141.6996827401
 20
893.8983938969
 10
141.7020844373
 20
893.905109841
 10
141.702516252
 20
893.9062280094
  0
LINE
  5
3C5
100
AcDbEntity
  8
95043001000_M1_BL2
100
AcDbLine
 62
7
  6
CONTINUOUS
 10
140.6311740711
 20
891.9108801833
 11
140.6960723263
 21
892.6653620608
  0
LINE
  5
3C6
100
AcDbEntity
  8
95043001000_M1_BL2
100
AcDbLine
 62
7
  6
CONTINUOUS
 10
142.3410600129
 20
891.9073622177
 11
142.4062681745
 21
892.6653255425
  0
LINE
  5
3C7
100
AcDbEntity
  8
95043001000_M1_BL2
100
AcDbLine
 62
7
  6
CONTINUOUS
 10
141.484363215
 20
891.8894522251
 11
141.5523355975
 21
892.6788142927
  0
LINE
  5
3C8
100
AcDbEntity
  8
95043001000_M1_BL2
100
AcDbLine
 62
7
  6
CONTINUOUS
 10
141.5523355975
 20
892.6788142927
 11
141.5690957798
 21
892.8696347873
  0
LINE
  5
3C9
100
AcDbEntity
  8
95043001000_M1_BL2
100
AcDbLine
 62
7
  6
CONTINUOUS
 10
142.1099616322
 20
892.1120944138
 11
142.0925107622
 21
891.9132866477
  0
LINE
  5
3CA
100
AcDbEntity
  8
95043001000_M1_BL2
100
AcDbLine
 62
7
  6
CONTINUOUS
 10
140.6960723263
 20
892.6653620608
 11
140.7166295295
 21
892.8990117934
  0
LINE
  5
3CB
100
AcDbEntity
  8
95043001000_M1_BL2
100
AcDbLine
 62
7
  6
CONTINUOUS
 10
141.2523845786
 20
892.0835007674
 11
141.2353446882
 21
891.8902146165
  0
LINE
  5
3CC
100
AcDbEntity
  8
95043001000_M1_BL2
100
AcDbLine
 62
7
  6
CONTINUOUS
 10
142.1799356112
 20
892.9235021006
 11
142.1099616322
 21
892.1120944138
  0
LINE
  5
3CD
100
AcDbEntity
  8
95043001000_M1_BL2
100
AcDbLine
 62
7
  6
CONTINUOUS
 10
141.3264357454
 20
892.9412509124
 11
141.2523845786
 21
892.0835007674
  0
LINE
  5
3CE
100
AcDbEntity
  8
95043001000_M1_BL2
100
AcDbLine
 62
7
  6
CONTINUOUS
 10
142.4062681745
 20
892.6653255425
 11
142.4260466361
 21
892.8903005556
  0
LINE
  5
3CF
100
AcDbEntity
  8
95043001000_M1_BL2
100
AcDbLine
 62
7
  6
CONTINUOUS
 10
140.7166295295
 20
892.8990117934
 11
140.7298533004
 21
893.0433670541
  0
LINE
  5
3D0
100
AcDbEntity
  8
95043001000_M1_BL2
100
AcDbLine
 62
7
  6
CONTINUOUS
 10
141.5690957798
 20
892.8696347873
 11
141.5850991263
 21
893.044931668
  0
LINE
  5
3D1
100
AcDbEntity
  8
95043001000_M1_BL2
100
AcDbLine
 62
7
  6
CONTINUOUS
 10
142.0925107622
 20
891.9132866477
 11
142.0756652794
 21
891.7289912864
  0
LINE
  5
3D2
100
AcDbEntity
  8
95043001000_M1_BL2
100
AcDbLine
 62
7
  6
CONTINUOUS
 10
142.3223069759
 20
891.7018298228
 11
142.3410600129
 21
891.9073622177
  0
LINE
  5
3D3
100
AcDbEntity
  8
95043001000_M1_BL2
100
AcDbLine
 62
7
  6
CONTINUOUS
 10
140.6107548721
 20
891.6874497643
 11
140.6311740711
 21
891.9108801833
  0
LINE
  5
3D4
100
AcDbEntity
  8
95043001000_M1_BL2
100
AcDbLine
 62
7
  6
CONTINUOUS
 10
141.2353446882
 20
891.8902146165
 11
141.2188883798
 21
891.7111618108
  0
LINE
  5
3D5
100
AcDbEntity
  8
95043001000_M1_BL2
100
AcDbLine
 62
7
  6
CONTINUOUS
 10
141.465738794
 20
891.6862245673
 11
141.484363215
 21
891.8894522251
  0
LINE
  5
3D6
100
AcDbEntity
  8
95043001000_M1_BL2
100
AcDbLine
 62
7
  6
CONTINUOUS
 10
142.1997829904
 20
893.1378881779
 11
142.1799356112
 21
892.9235021006
  0
LINE
  5
3D7
100
AcDbEntity
  8
95043001000_M1_BL2
100
AcDbLine
 62
7
  6
CONTINUOUS
 10
141.3452587501
 20
893.1438916589
 11
141.3264357454
 21
892.9412509124
  0
LINE
  5
3D8
100
AcDbEntity
  8
95043001000_M1_BL2
100
AcDbLine
 62
7
  6
CONTINUOUS
 10
142.0756652794
 20
891.7289912864
 11
142.064730394
 21
891.6147361843
  0
LINE
  5
3D9
100
AcDbEntity
  8
95043001000_M1_BL2
100
AcDbLine
 62
7
  6
CONTINUOUS
 10
140.7298533004
 20
893.0433670541
 11
140.7426879395
 21
893.1774695187
  0
LINE
  5
3DA
100
AcDbEntity
  8
95043001000_M1_BL2
100
AcDbLine
 62
7
  6
CONTINUOUS
 10
142.310099407
 20
891.5746741014
 11
142.3223069759
 21
891.7018298228
  0
LINE
  5
3DB
100
AcDbEntity
  8
95043001000_M1_BL2
100
AcDbLine
 62
7
  6
CONTINUOUS
 10
141.4538115581
 20
891.5626237107
 11
141.465738794
 21
891.6862245673
  0
LINE
  5
3DC
100
AcDbEntity
  8
95043001000_M1_BL2
100
AcDbLine
 62
7
  6
CONTINUOUS
 10
140.5978889143
 20
891.5543128744
 11
140.6107548721
 21
891.6874497643
  0
LINE
  5
3DD
100
AcDbEntity
  8
95043001000_M1_BL2
100
AcDbLine
 62
7
  6
CONTINUOUS
 10
141.5850991263
 20
893.044931668
 11
141.6005031518
 21
893.2049691554
  0
LINE
  5
3DE
100
AcDbEntity
  8
95043001000_M1_BL2
100
AcDbLine
 62
7
  6
CONTINUOUS
 10
141.3573919554
 20
893.2672872373
 11
141.3452587501
 21
893.1438916589
  0
LINE
  5
3DF
100
AcDbEntity
  8
95043001000_M1_BL2
100
AcDbLine
 62
7
  6
CONTINUOUS
 10
141.2188883798
 20
891.7111618108
 11
141.2029809397
 21
891.5477106567
  0
LINE
  5
3E0
100
AcDbEntity
  8
95043001000_M1_BL2
100
AcDbLine
 62
7
  6
CONTINUOUS
 10
142.21279816
 20
893.2703221099
 11
142.1997829904
 21
893.1378881779
  0
LINE
  5
3E1
100
AcDbEntity
  8
95043001000_M1_BL2
100
AcDbLine
 62
7
  6
CONTINUOUS
 10
142.064730394
 20
891.6147361843
 11
142.0540044998
 21
891.50763607
  0
LINE
  5
3E2
100
AcDbEntity
  8
95043001000_M1_BL2
100
AcDbLine
 62
7
  6
CONTINUOUS
 10
142.2981564985
 20
891.4564877983
 11
142.310099407
 21
891.5746741014
  0
LINE
  5
3E3
100
AcDbEntity
  8
95043001000_M1_BL2
100
AcDbLine
 62
7
  6
CONTINUOUS
 10
140.7426879395
 20
893.1774695187
 11
140.7551283903
 21
893.3006497233
  0
LINE
  5
3E4
100
AcDbEntity
  8
95043001000_M1_BL2
100
AcDbLine
 62
7
  6
CONTINUOUS
 10
141.6005031518
 20
893.2049691554
 11
141.6105085913
 21
893.303343374
  0
LINE
  5
3E5
100
AcDbEntity
  8
95043001000_M1_BL2
100
AcDbLine
 62
7
  6
CONTINUOUS
 10
141.4423754873
 20
891.4499477643
 11
141.4538115581
 21
891.5626237107
  0
LINE
  5
3E6
100
AcDbEntity
  8
95043001000_M1_BL2
100
AcDbLine
 62
7
  6
CONTINUOUS
 10
140.5855090856
 20
891.4330998126
 11
140.5978889143
 21
891.5543128744
  0
LINE
  5
3E7
100
AcDbEntity
  8
95043001000_M1_BL2
100
AcDbLine
 62
7
  6
CONTINUOUS
 10
141.2029809397
 20
891.5477106567
 11
141.1926732726
 21
891.44794492
  0
LINE
  5
3E8
100
AcDbEntity
  8
95043001000_M1_BL2
100
AcDbLine
 62
7
  6
CONTINUOUS
 10
141.3691057264
 20
893.3799679498
 11
141.3573919554
 21
893.2672872373
  0
LINE
  5
3E9
100
AcDbEntity
  8
95043001000_M1_BL2
100
AcDbLine
 62
7
  6
CONTINUOUS
 10
142.2255628686
 20
893.3925799712
 11
142.21279816
 21
893.2703221099
  0
LINE
  5
3EA
100
AcDbEntity
  8
95043001000_M1_BL2
100
AcDbLine
 62
7
  6
CONTINUOUS
 10
142.0540044998
 20
891.50763607
 11
142.0434646501
 21
891.4078544952
  0
LINE
  5
3EB
100
AcDbEntity
  8
95043001000_M1_BL2
100
AcDbLine
 62
7
  6
CONTINUOUS
 10
141.6105085913
 20
893.303343374
 11
141.6203169722
 21
893.3948922233
  0
LINE
  5
3EC
100
AcDbEntity
  8
95043001000_M1_BL2
100
AcDbLine
 62
7
  6
CONTINUOUS
 10
142.2865012104
 20
891.3479260883
 11
142.2981564985
 21
891.4564877983
  0
LINE
  5
3ED
100
AcDbEntity
  8
95043001000_M1_BL2
100
AcDbLine
 62
7
  6
CONTINUOUS
 10
141.4313920435
 20
891.3478390669
 11
141.4423754873
 21
891.4499477643
  0
LWPOLYLINE
  5
3EE
100
AcDbEntity
  8
95043001000_M1_BL2
100
AcDbPolyline
 62
7
  6
CONTINUOUS
 90
10
 70
0
 10
140.7551283903
 20
893.3006497233
 10
140.7671638733
 20
893.412440121
 10
140.7730227098
 20
893.4639539437
 10
140.7787702508
 20
893.5125073932
 10
140.7844016959
 20
893.5580859294
 10
140.7899117437
 20
893.6006884284
 10
140.7952960036
 20
893.6403373443
 10
140.8005479432
 20
893.6770552144
 10
140.805665335
 20
893.710908907
 10
140.8106440712
 20
893.7419627379
  0
LINE
  5
3EF
100
AcDbEntity
  8
95043001000_M1_BL2
100
AcDbLine
 62
7
  6
CONTINUOUS
 10
141.1926732726
 20
891.44794492
 11
141.1826094234
 21
891.3558747599
  0
LWPOLYLINE
  5
3F0
100
AcDbEntity
  8
95043001000_M1_BL2
100
AcDbPolyline
 62
7
  6
CONTINUOUS
 90
20
 70
0
 10
142.0434646501
 20
891.4078544952
 10
142.0330986231
 20
891.3156041149
 10
142.0279853758
 20
891.2724244959
 10
142.0229249035
 20
891.2312896942
 10
142.0179228526
 20
891.1922544807
 10
142.0129846996
 20
891.1553604519
 10
142.0081171312
 20
891.1206459969
 10
142.0033268424
 20
891.088136479
 10
141.998622585
 20
891.0578573835
 10
141.9940133673
 20
891.0298205835
 10
141.9895108075
 20
891.0040376663
 10
141.9851279523
 20
890.9805101606
 10
141.9808799228
 20
890.9592314872
 10
141.9767831351
 20
890.9401816718
 10
141.9728674882
 20
890.9233777703
 10
141.9691623873
 20
890.9088009811
 10
141.9657300636
 20
890.8965161864
 10
141.9626314264
 20
890.8865177503
 10
141.9600029813
 20
890.8789517021
 10
141.9594912465
 20
890.8775900916
  0
LINE
  5
3F1
100
AcDbEntity
  8
95043001000_M1_BL2
100
AcDbLine
 62
7
  6
CONTINUOUS
 10
141.6203169722
 20
893.3948922233
 11
141.6299270922
 21
893.4794169276
  0
LWPOLYLINE
  5
3F2
100
AcDbEntity
  8
95043001000_M1_BL2
100
AcDbPolyline
 62
7
  6
CONTINUOUS
 90
20
 70
0
 10
141.1826094234
 20
891.3558747599
 10
141.1727982727
 20
891.2716987067
 10
141.1679910418
 20
891.2326102924
 10
141.1632516246
 20
891.1955319438
 10
141.158582561
 20
891.1604695155
 10
141.1539867958
 20
891.1274245157
 10
141.1494667168
 20
891.0963873751
 10
141.1450255822
 20
891.067347902
 10
141.1406669213
 20
891.040290764
 10
141.1363946469
 20
891.0151963074
 10
141.1322164852
 20
890.9920591054
 10
141.1281399608
 20
890.9708622833
 10
141.1241799714
 20
890.9516146068
 10
141.1203508661
 20
890.9343051378
 10
141.1166823518
 20
890.9189702014
 10
141.1132039471
 20
890.9056134448
 10
141.1099745469
 20
890.894309347
 10
141.1070482579
 20
890.8850583991
 10
141.1045754298
 20
890.8780742654
 10
141.1041189328
 20
890.876880791
  0
LINE
  5
3F3
100
AcDbEntity
  8
95043001000_M1_BL2
100
AcDbLine
 62
7
  6
CONTINUOUS
 10
141.6299270922
 20
893.4794169276
 11
141.6393351482
 21
893.556771051
  0
LWPOLYLINE
  5
3F4
100
AcDbEntity
  8
95043001000_M1_BL2
100
AcDbPolyline
 62
7
  6
CONTINUOUS
 90
7
 70
0
 10
141.6393351482
 20
893.556771051
 10
141.6439612454
 20
893.5927258537
 10
141.6485333856
 20
893.6268510745
 10
141.6530498973
 20
893.6591407854
 10
141.657507759
 20
893.6895849601
 10
141.6619046485
 20
893.7181842957
 10
141.6662333936
 20
893.7449152963
  0
LWPOLYLINE
  5
3F5
100
AcDbEntity
  8
95043001000_M1_BL2
100
AcDbPolyline
 62
7
  6
CONTINUOUS
 90
11
 70
0
 10
140.8106440712
 20
893.7419627379
 10
140.8154772921
 20
893.7702755384
 10
140.8201579706
 20
893.7959178074
 10
140.8246714393
 20
893.818933311
 10
140.8290037685
 20
893.8393889877
 10
140.8331238643
 20
893.8572958642
 10
140.8370020469
 20
893.8727070444
 10
140.8405739564
 20
893.8855853741
 10
140.8437751339
 20
893.8959635045
 10
140.8464708508
 20
893.9037407741
 10
140.8470173316
 20
893.9051947728
  0
LINE
  5
3F6
100
AcDbEntity
  8
95043001000_M1_BL2
100
AcDbLine
 62
7
  6
CONTINUOUS
 10
141.6662333936
 20
893.7449152963
 11
141.6704879925
 21
893.7697719724
  0
LWPOLYLINE
  5
3F7
100
AcDbEntity
  8
95043001000_M1_BL2
100
AcDbPolyline
 62
7
  6
CONTINUOUS
 90
18
 70
0
 10
141.00528014
 20
890.932409734
 10
141.0104154774
 20
890.9065922232
 10
141.0155629056
 20
890.8826349383
 10
141.0207452087
 20
890.8604465995
 10
141.0259838828
 20
890.8399582917
 10
141.0313446859
 20
890.8209626399
 10
141.0368957943
 20
890.8033116316
 10
141.0427655571
 20
890.7867546092
 10
141.0490968224
 20
890.7711287265
 10
141.0561898859
 20
890.7560717043
 10
141.0643124847
 20
890.741546369
 10
141.0744299062
 20
890.7267077569
 10
141.0880504053
 20
890.7109167177
 10
141.1057116052
 20
890.6954367917
 10
141.1286430226
 20
890.6812283945
 10
141.1551626199
 20
890.6710501707
 10
141.1824738068
 20
890.6665666475
 10
141.189557218
 20
890.6663692783
  0
LWPOLYLINE
  5
3F8
100
AcDbEntity
  8
95043001000_M1_BL2
100
AcDbPolyline
 62
7
  6
CONTINUOUS
 90
18
 70
0
 10
140.9477676909
 20
893.8415907275
 10
140.9424305826
 20
893.869025606
 10
140.9371022534
 20
893.8943520413
 10
140.9317570319
 20
893.9176960734
 10
140.9263626069
 20
893.9391868351
 10
140.9208670262
 20
893.9589940182
 10
140.9152172716
 20
893.9772431808
 10
140.9092735491
 20
893.9942569471
 10
140.9028867674
 20
894.0102388671
 10
140.8957546762
 20
894.0255763303
 10
140.8875902007
 20
894.040352502
 10
140.8774654935
 20
894.0553619274
 10
140.8639245832
 20
894.0712231899
 10
140.8464194789
 20
894.0867422989
 10
140.8237332656
 20
894.1010111076
 10
140.7974949764
 20
894.1113360476
 10
140.7704291806
 20
894.1160770709
 10
140.7618321299
 20
894.1163685624
  0
LWPOLYLINE
  5
3F9
100
AcDbEntity
  8
95043001000_M1_BL2
100
AcDbPolyline
 62
7
  6
CONTINUOUS
 90
4
 70
0
 10
140.9631962788
 20
893.7506089345
 10
140.9585531602
 20
893.7798689293
 10
140.9531355875
 20
893.811916552
 10
140.9477676909
 20
893.8415907275
  0
LWPOLYLINE
  5
3FA
100
AcDbEntity
  8
95043001000_M1_BL2
100
AcDbPolyline
 62
7
  6
CONTINUOUS
 90
5
 70
0
 10
140.9877030906
 20
891.0353943245
 10
140.989826171
 20
891.0215874625
 10
140.9949976086
 20
890.9898424289
 10
141.0001434486
 20
890.9601477364
 10
141.00528014
 20
890.932409734
  0
LWPOLYLINE
  5
3FB
100
AcDbEntity
  8
95043001000_M1_BL2
100
AcDbPolyline
 62
7
  6
CONTINUOUS
 90
27
 70
0
 10
141.8186482553
 20
891.2111589594
 10
141.8235452411
 20
891.1723653009
 10
141.828627024
 20
891.1337634991
 10
141.8336590502
 20
891.0972079092
 10
141.8386456118
 20
891.0626613874
 10
141.8435945366
 20
891.030064085
 10
141.8485084745
 20
890.9993925242
 10
141.8533919612
 20
890.9706101579
 10
141.8582533662
 20
890.9436598736
 10
141.8631009596
 20
890.9184899122
 10
141.8679510344
 20
890.8950149294
 10
141.8728143422
 20
890.8731872212
 10
141.8777384601
 20
890.8528169909
 10
141.8827780154
 20
890.8337411078
 10
141.8879757595
 20
890.8158916939
 10
141.893394679
 20
890.7991733473
 10
141.8991415814
 20
890.7834247881
 10
141.9053159527
 20
890.7685886098
 10
141.9122510193
 20
890.754210202
 10
141.9202278574
 20
890.740227642
 10
141.9302152929
 20
890.7258097048
 10
141.9437406859
 20
890.7103180163
 10
141.9613017007
 20
890.695070179
 10
141.9840900247
 20
890.6810548047
 10
142.0104539843
 20
890.6709980283
 10
142.0376472842
 20
890.6665624872
 10
142.0446543168
 20
890.6663692591
  0
LWPOLYLINE
  5
3FC
100
AcDbEntity
  8
95043001000_M1_BL2
100
AcDbPolyline
 62
7
  6
CONTINUOUS
 90
28
 70
0
 10
141.8446212126
 20
893.5579119057
 10
141.8441520226
 20
893.5618083752
 10
141.8388709338
 20
893.6039410482
 10
141.8336674259
 20
893.6437243826
 10
141.8285399031
 20
893.6811968704
 10
141.8234819974
 20
893.7164344225
 10
141.8184885844
 20
893.7495029898
 10
141.8135509852
 20
893.7804896656
 10
141.8086609599
 20
893.8094733835
 10
141.8038061767
 20
893.8365502163
 10
141.7989745543
 20
893.8618046136
 10
141.794146148
 20
893.885348699
 10
141.7893059258
 20
893.9072541476
 10
141.7844051367
 20
893.9277173658
 10
141.7793861409
 20
893.9469130235
 10
141.7742088988
 20
893.9648962068
 10
141.7688115582
 20
893.9817576428
 10
141.763092166
 20
893.9976459049
 10
141.7569533572
 20
894.0126160587
 10
141.7500771963
 20
894.0271025226
 10
141.7422036925
 20
894.041149815
 10
141.7323755557
 20
894.0556137377
 10
141.7190999357
 20
894.0711450534
 10
141.7018206778
 20
894.086512453
 10
141.6792394259
 20
894.1008026818
 10
141.6529812847
 20
894.1112260651
 10
141.6257815337
 20
894.1160595452
 10
141.6169305074
 20
894.1163685531
  0
LWPOLYLINE
  5
3FD
100
AcDbEntity
  8
95043001000_M1_BL2
100
AcDbPolyline
 62
7
  6
CONTINUOUS
 90
28
 70
0
 10
142.044475969
 20
890.6663693389
 10
142.0536230427
 20
890.6666991959
 10
142.081088349
 20
890.6716723857
 10
142.1075782901
 20
890.6823441346
 10
142.1302844266
 20
890.6969289616
 10
142.1475477632
 20
890.7125262441
 10
142.1607765068
 20
890.7282631525
 10
142.1705904525
 20
890.7429665433
 10
142.178474771
 20
890.7573020149
 10
142.1853906079
 20
890.7721609737
 10
142.1915818262
 20
890.7875694404
 10
142.1973529539
 20
890.8039383031
 10
142.2028023278
 20
890.8213214795
 10
142.2080181689
 20
890.8398154489
 10
142.2130890514
 20
890.8596037949
 10
142.2180814691
 20
890.8808712456
 10
142.2230361158
 20
890.9037545166
 10
142.2279938801
 20
890.928435284
 10
142.2329730843
 20
890.9550181852
 10
142.237994316
 20
890.9836381693
 10
142.2430704785
 20
891.0144036439
 10
142.2482158159
 20
891.047442781
 10
142.2534362715
 20
891.0828389727
 10
142.2587412384
 20
891.1207017675
 10
142.2641289569
 20
891.1610606551
 10
142.269600223
 20
891.203954851
 10
142.2751536013
 20
891.2493973588
 10
142.2865012104
 20
891.3479260883
  0
LWPOLYLINE
  5
3FE
100
AcDbEntity
  8
95043001000_M1_BL2
100
AcDbPolyline
 62
7
  6
CONTINUOUS
 90
29
 70
0
 10
141.1893795433
 20
890.6663693124
 10
141.1984085025
 20
890.666690865
 10
141.2257180244
 20
890.6715940309
 10
141.2520102408
 20
890.6821005864
 10
141.2745645317
 20
890.6964502179
 10
141.2917736352
 20
890.7118236313
 10
141.3049725281
 20
890.7273190637
 10
141.3147363389
 20
890.7417226197
 10
141.3225554697
 20
890.7556899148
 10
141.3293885455
 20
890.7700875434
 10
141.3354928289
 20
890.7849626637
 10
141.3411863307
 20
890.8007575891
 10
141.3465679269
 20
890.8175409384
 10
141.3517478592
 20
890.8355019792
 10
141.3567723623
 20
890.854688565
 10
141.3616703164
 20
890.8751104039
 10
141.3664989474
 20
890.896931403
 10
141.371301963
 20
890.9203132587
 10
141.3760967765
 20
890.9453261301
 10
141.3809048337
 20
890.9720788949
 10
141.3857352196
 20
891.0006276571
 10
141.3905983668
 20
891.0310432241
 10
141.3955006845
 20
891.0633774825
 10
141.4004485485
 20
891.0976850415
 10
141.4054465802
 20
891.1340103646
 10
141.4104974258
 20
891.1723829844
 10
141.4156100025
 20
891.2128807131
 10
141.4207899322
 20
891.2555589304
 10
141.4313920435
 20
891.3478390669
  0
LWPOLYLINE
  5
3FF
100
AcDbEntity
  8
95043001000_M1_BL2
100
AcDbPolyline
 62
7
  6
CONTINUOUS
 90
28
 70
0
 10
140.3342772491
 20
890.6663693364
 10
140.3429377435
 20
890.6666648322
 10
140.3702160174
 20
890.6714786763
 10
140.3968367454
 20
890.6820623038
 10
140.4198644414
 20
890.6967578568
 10
140.4375463071
 20
890.7127336693
 10
140.4511858554
 20
890.7290893405
 10
140.4613794586
 20
890.7446269705
 10
140.4696049833
 20
890.7599803043
 10
140.476779082
 20
890.7759114984
 10
140.4832221226
 20
890.7925673584
 10
140.4892579604
 20
890.810421288
 10
140.4950157419
 20
890.829644675
 10
140.5006236661
 20
890.8505359049
 10
140.5061348445
 20
890.8732230248
 10
140.5115984124
 20
890.8978667553
 10
140.5170446054
 20
890.9245856278
 10
140.5224988343
 20
890.9535018483
 10
140.5279762115
 20
890.9847030363
 10
140.5334907109
 20
891.0182816378
 10
140.5390486771
 20
891.0542905667
 10
140.5446565667
 20
891.0927836596
 10
140.5503169118
 20
891.1337861659
 10
140.5560320954
 20
891.1773168668
 10
140.5618031232
 20
891.223377736
 10
140.5676270559
 20
891.2719294806
 10
140.5735147682
 20
891.3230418347
 10
140.5855090856
 20
891.4330998126
  0
LWPOLYLINE
  5
400
100
AcDbEntity
  8
95043001000_M1_BL2
100
AcDbPolyline
 62
7
  6
CONTINUOUS
 90
29
 70
0
 10
141.6171119643
 20
894.1163685355
 10
141.6095722358
 20
894.116144968
 10
141.5819176928
 20
894.1114685536
 10
141.5551744481
 20
894.1009941525
 10
141.5321944353
 20
894.0864931439
 10
141.514674667
 20
894.070870366
 10
141.5012403297
 20
894.0550481355
 10
141.4912843056
 20
894.0402429263
 10
141.4832932246
 20
894.025788133
 10
141.4762907026
 20
894.0107882446
 10
141.4700241006
 20
893.9952104524
 10
141.4641854264
 20
893.978643454
 10
141.4586662539
 20
893.9610063575
 10
141.4533711139
 20
893.9421728696
 10
141.4482095664
 20
893.9219412174
 10
141.4431062865
 20
893.900074453
 10
141.4380369133
 20
893.8764924635
 10
141.4329717125
 20
893.8510668332
 10
141.4278985511
 20
893.8237356212
 10
141.4228052194
 20
893.7944285848
 10
141.4176841677
 20
893.7630955463
 10
141.4125313737
 20
893.7297065033
 10
141.4073352715
 20
893.6941798071
 10
141.4020878447
 20
893.6564503666
 10
141.3967806801
 20
893.6164457069
 10
141.3914060336
 20
893.5740942922
 10
141.3859574003
 20
893.5293320702
 10
141.3804282972
 20
893.4820946898
 10
141.3691057264
 20
893.3799679498
  0
ENDBLK
  5
401
100
AcDbEntity
  8
0
  6
BYBLOCK
 62
0
100
AcDbBlockEnd
  0
BLOCK
  5
402
100
AcDbEntity
  8
94754901000_BL3
100
AcDbBlockBegin
  2
94754901000_BL3
 70
64
 10
85.0130558657
 20
492.5447884135
  3
94754901000_BL3
  1

  0
LINE
  5
403
100
AcDbEntity
  8
94754901000_BL3
100
AcDbLine
 62
7
  6
CONTINUOUS
 10
141.6473159647
 20
891.123284268
 11
141.6589053498
 21
891.127102119
  0
LINE
  5
404
100
AcDbEntity
  8
94754901000_BL3
100
AcDbLine
 62
7
  6
CONTINUOUS
 10
141.6589053498
 20
891.127102119
 11
142.0341197882
 21
891.3245402466
  0
LINE
  5
405
100
AcDbEntity
  8
94754901000_BL3
100
AcDbLine
 62
7
  6
CONTINUOUS
 10
142.2989136248
 20
891.4638749682
 11
142.4260466361
 21
891.5307724571
  0
LINE
  5
406
100
AcDbEntity
  8
94754901000_BL3
100
AcDbLine
 62
7
  6
CONTINUOUS
 10
136.9354817838
 20
894.8913689276
 11
135.499629107
 21
894.1866836597
  0
LINE
  5
407
100
AcDbEntity
  8
94754901000_BL3
100
AcDbLine
 62
7
  6
CONTINUOUS
 10
135.3699727808
 20
890.6628939238
 11
135.3699727808
 21
894.1198439315
  0
LINE
  5
408
100
AcDbEntity
  8
94754901000_BL3
100
AcDbLine
 62
9
  6
CONTINUOUS
 10
135.499629107
 20
890.5960541956
 11
135.499629107
 21
894.1866836597
  0
LINE
  5
409
100
AcDbEntity
  8
94754901000_BL3
100
AcDbLine
 62
9
  6
CONTINUOUS
 10
137.4895266745
 20
894.8913689276
 11
137.4895266745
 21
889.8913689276
  0
LINE
  5
40A
100
AcDbEntity
  8
94754901000_BL3
100
AcDbLine
 62
9
  6
CONTINUOUS
 10
138.9085748317
 20
894.8913689276
 11
138.9085748317
 21
889.8913689276
  0
LINE
  5
40B
100
AcDbEntity
  8
94754901000_BL3
100
AcDbLine
 62
9
  6
CONTINUOUS
 10
140.6888053918
 20
891.5012364118
 11
140.6888053918
 21
892.5809213615
  0
LINE
  5
40C
100
AcDbEntity
  8
94754901000_BL3
100
AcDbLine
 62
9
  6
CONTINUOUS
 10
142.1225941529
 20
894.8913689276
 11
142.1225941529
 21
893.4116423295
  0
LINE
  5
40D
100
AcDbEntity
  8
94754901000_BL3
100
AcDbLine
 62
9
  6
CONTINUOUS
 10
142.1225941529
 20
890.69198927
 11
142.1225941529
 21
889.8913689276
  0
LINE
  5
40E
100
AcDbEntity
  8
94754901000_BL3
100
AcDbLine
 62
9
  6
CONTINUOUS
 10
142.3644454843
 20
892.1757677714
 11
142.3644454843
 21
891.6815739525
  0
LINE
  5
40F
100
AcDbEntity
  8
94754901000_BL3
100
AcDbLine
 62
7
  6
CONTINUOUS
 10
136.9354817838
 20
889.8913689276
 11
135.499629107
 21
890.5960541956
  0
LINE
  5
410
100
AcDbEntity
  8
94754901000_BL3
100
AcDbLine
 62
7
  6
CONTINUOUS
 10
141.6589053498
 20
893.6556357363
 11
142.2220313087
 21
893.3593184212
  0
LINE
  5
411
100
AcDbEntity
  8
94754901000_BL3
100
AcDbLine
 62
7
  6
CONTINUOUS
 10
140.9171421917
 20
891.0259924561
 11
141.1432161633
 21
891.0561156228
  0
LINE
  5
412
100
AcDbEntity
  8
94754901000_BL3
100
AcDbLine
 62
7
  6
CONTINUOUS
 10
141.3993759089
 20
891.0902475606
 11
141.6473159647
 21
891.123284268
  0
LINE
  5
413
100
AcDbEntity
  8
94754901000_BL3
100
AcDbLine
 62
7
  6
CONTINUOUS
 10
142.4260466361
 20
889.8913689276
 11
138.9085748317
 21
889.8913689276
  0
LINE
  5
414
100
AcDbEntity
  8
94754901000_BL3
100
AcDbLine
 62
7
  6
CONTINUOUS
 10
138.9085748317
 20
889.8913689276
 11
136.9354817838
 21
889.8913689276
  0
LINE
  5
415
100
AcDbEntity
  8
94754901000_BL3
100
AcDbLine
 62
7
  6
CONTINUOUS
 10
138.9085748317
 20
894.8913689276
 11
136.9354817838
 21
894.8913689276
  0
LINE
  5
416
100
AcDbEntity
  8
94754901000_BL3
100
AcDbLine
 62
7
  6
CONTINUOUS
 10
138.9085748317
 20
894.8913689276
 11
142.4260466361
 21
894.8913689276
  0
LINE
  5
417
100
AcDbEntity
  8
94754901000_BL3
100
AcDbLine
 62
9
  6
CONTINUOUS
 10
140.9171421917
 20
893.7567453992
 11
140.9166850338
 21
893.7568030345
  0
LINE
  5
418
100
AcDbEntity
  8
94754901000_BL3
100
AcDbLine
 62
7
  6
CONTINUOUS
 10
140.9171421917
 20
893.7567453992
 11
141.4069597516
 21
893.6914797875
  0
LINE
  5
419
100
AcDbEntity
  8
94754901000_BL3
100
AcDbLine
 62
7
  6
CONTINUOUS
 10
27.6000650952
 20
894.8913689276
 11
27.6000650952
 21
889.8913689276
  0
LINE
  5
41A
100
AcDbEntity
  8
94754901000_BL3
100
AcDbLine
 62
9
  6
CONTINUOUS
 10
28.295402682
 20
894.8913689276
 11
28.295402682
 21
889.8913689276
  0
LINE
  5
41B
100
AcDbEntity
  8
94754901000_BL3
100
AcDbLine
 62
7
  6
CONTINUOUS
 10
28.295402682
 20
889.8913689276
 11
27.6003304505
 21
889.8913689276
  0
LINE
  5
41C
100
AcDbEntity
  8
94754901000_BL3
100
AcDbLine
 62
7
  6
CONTINUOUS
 10
30.0089426704
 20
889.8913689276
 11
28.295402682
 21
889.8913689276
  0
LINE
  5
41D
100
AcDbEntity
  8
94754901000_BL3
100
AcDbLine
 62
7
  6
CONTINUOUS
 10
30.0089426704
 20
894.8913689276
 11
28.295402682
 21
894.8913689276
  0
LINE
  5
41E
100
AcDbEntity
  8
94754901000_BL3
100
AcDbLine
 62
7
  6
CONTINUOUS
 10
28.295402682
 20
894.8913689276
 11
27.6003304505
 21
894.8913689276
  0
LINE
  5
41F
100
AcDbEntity
  8
94754901000_BL3
100
AcDbLine
 62
7
  6
CONTINUOUS
 10
27.8693978548
 20
91.3268958368
 11
30.0631795443
 21
93.3167934044
  0
LINE
  5
420
100
AcDbEntity
  8
94754901000_BL3
100
AcDbLine
 62
7
  6
CONTINUOUS
 10
39.1504455578
 20
92.5796397727
 11
39.1669128901
 21
91.7999964902
  0
LINE
  5
421
100
AcDbEntity
  8
94754901000_BL3
100
AcDbLine
 62
7
  6
CONTINUOUS
 10
34.3023307271
 20
93.0911953357
 11
35.5716997291
 21
91.5353496642
  0
LINE
  5
422
100
AcDbEntity
  8
94754901000_BL3
100
AcDbLine
 62
7
  6
CONTINUOUS
 10
42.3137449165
 20
92.4870262558
 11
43.7916824593
 21
91.7467498581
  0
LINE
  5
423
100
AcDbEntity
  8
94754901000_BL3
100
AcDbLine
 62
7
  6
CONTINUOUS
 10
28.480209967
 20
91.8809407275
 11
35.5716997291
 21
91.5353496642
  0
LINE
  5
424
100
AcDbEntity
  8
94754901000_BL3
100
AcDbLine
 62
7
  6
CONTINUOUS
 10
39.3653618973
 20
92.7833027964
 11
41.9407032553
 21
92.5901139241
  0
LINE
  5
425
100
AcDbEntity
  8
94754901000_BL3
100
AcDbLine
 62
7
  6
CONTINUOUS
 10
35.5716997291
 20
91.5353496642
 11
39.1669128901
 21
91.7999964902
  0
LINE
  5
426
100
AcDbEntity
  8
94754901000_BL3
100
AcDbLine
 62
7
  6
CONTINUOUS
 10
43.5025494531
 20
91.8915721758
 11
39.1669128901
 21
91.7999964902
  0
LINE
  5
427
100
AcDbEntity
  8
94754901000_BL3
100
AcDbLine
 62
7
  6
CONTINUOUS
 10
30.4234422034
 20
93.4458570546
 11
33.9392513659
 21
93.2745203866
  0
ARC
  5
428
100
AcDbEntity
  8
94754901000_BL3
100
AcDbCircle
 62
7
  6
CONTINUOUS
 10
74.8866861403
 20
707.5523114078
 40
197.4377219405
100
AcDbArc
 50
70.0655822897
 51
70.2458252475
  0
ARC
  5
429
100
AcDbEntity
  8
94754901000_BL3
100
AcDbCircle
 62
7
  6
CONTINUOUS
 10
64.3246224806
 20
1106.5336498861
 40
228.5863239258
100
AcDbArc
 50
289.7390447192
 51
289.8812600122
  0
ARC
  5
42A
100
AcDbEntity
  8
94754901000_BL3
100
AcDbCircle
 62
7
  6
CONTINUOUS
 10
138.3760466361
 20
889.5913689276
 40
0.3
100
AcDbArc
 50
30.0000002323
 51
89.9999946721
  0
ARC
  5
42B
100
AcDbEntity
  8
94754901000_BL3
100
AcDbCircle
 62
7
  6
CONTINUOUS
 10
138.3760466361
 20
895.1913689276
 40
0.3
100
AcDbArc
 50
284.9999989856
 51
329.9999995942
  0
ARC
  5
42C
100
AcDbEntity
  8
94754901000_BL3
100
AcDbCircle
 62
7
  6
CONTINUOUS
 10
141.4760466361
 20
889.5913689276
 40
0.3
100
AcDbArc
 50
90.0000053279
 51
149.9999997677
  0
ARC
  5
42D
100
AcDbEntity
  8
94754901000_BL3
100
AcDbCircle
 62
7
  6
CONTINUOUS
 10
141.4760466361
 20
895.1913689276
 40
0.3
100
AcDbArc
 50
210.0000004058
 51
270.0
  0
ARC
  5
42E
100
AcDbEntity
  8
94754901000_BL3
100
AcDbCircle
 62
7
  6
CONTINUOUS
 10
142.5029588475
 20
891.3019154644
 40
0.4041367582
100
AcDbArc
 50
100.9833473364
 51
110.0438270372
  0
ARC
  5
42F
100
AcDbEntity
  8
94754901000_BL3
100
AcDbCircle
 62
7
  6
CONTINUOUS
 10
41.8658985713
 20
91.5929157195
 40
1.0
100
AcDbArc
 50
63.3944085715
 51
85.71
  0
ARC
  5
430
100
AcDbEntity
  8
94754901000_BL3
100
AcDbCircle
 62
7
  6
CONTINUOUS
 10
28.4208258938
 20
90.7189686979
 40
0.8207607985
100
AcDbArc
 50
132.21
 51
231.7761257551
  0
ARC
  5
431
100
AcDbEntity
  8
94754901000_BL3
100
AcDbCircle
 62
7
  6
CONTINUOUS
 10
30.3991044812
 20
92.9464497305
 40
0.5
100
AcDbArc
 50
87.21
 51
132.21
  0
ARC
  5
432
100
AcDbEntity
  8
94754901000_BL3
100
AcDbCircle
 62
7
  6
CONTINUOUS
 10
33.9149136437
 20
92.7751130625
 40
0.5
100
AcDbArc
 50
39.21
 51
87.21
  0
ARC
  5
433
100
AcDbEntity
  8
94754901000_BL3
100
AcDbCircle
 62
7
  6
CONTINUOUS
 10
39.3504009605
 20
92.5838631555
 40
0.2
100
AcDbArc
 50
85.71
 51
181.21
  0
SPLINE
  5
434
100
AcDbEntity
  8
94754901000_BL3
100
AcDbSpline
 62
7
  6
CONTINUOUS
 70
0
 71
3
 72
10
 73
6
 74
0
 42
0.0000001
 43
0.0000001
 44
0.0000000001
 40
0.0
 40
0.0
 40
0.0
 40
0.0
 40
0.7121797441
 40
0.9172384848
 40
1.0
 40
1.0
 40
1.0
 40
1.0
 10
140.9171421917
 20
891.0259924561
 30
0.0
 10
140.8730261173
 20
891.0201142214
 30
0.0
 10
140.8169854873
 20
890.9951207556
 30
0.0
 10
140.7709938701
 20
890.9538516336
 30
0.0
 10
140.7585869338
 20
890.9400327988
 30
0.0
 10
140.756783889
 20
890.9351852797
 30
0.0
  0
SPLINE
  5
435
100
AcDbEntity
  8
94754901000_BL3
100
AcDbSpline
 62
7
  6
CONTINUOUS
 70
0
 71
3
 72
9
 73
5
 74
0
 42
0.0000001
 43
0.0000001
 44
0.0000000001
 40
0.0
 40
0.0
 40
0.0
 40
0.0
 40
0.2241682125
 40
1.0
 40
1.0
 40
1.0
 40
1.0
 10
140.8171350275
 20
893.7927849385
 30
0.0
 10
140.8239407403
 20
893.7886339563
 30
0.0
 10
140.8550854821
 20
893.7714790094
 30
0.0
 10
140.8897942693
 20
893.7603893659
 30
0.0
 10
140.9171421917
 20
893.7567453992
 30
0.0
  0
SPLINE
  5
436
100
AcDbEntity
  8
94754901000_BL3
100
AcDbSpline
 62
7
  6
CONTINUOUS
 70
0
 71
3
 72
9
 73
5
 74
0
 42
0.0000001
 43
0.0000001
 44
0.0000000001
 40
0.0
 40
0.0
 40
0.0
 40
0.0
 40
0.4910380585
 40
1.0
 40
1.0
 40
1.0
 40
1.0
 10
141.6528432743
 20
893.6581884058
 30
0.0
 10
141.6538702805
 20
893.6578612275
 30
0.0
 10
141.6559310492
 20
893.6570952345
 30
0.0
 10
141.6579161602
 20
893.6561516882
 30
0.0
 10
141.658905308
 20
893.6556323259
 30
0.0
  0
SPLINE
  5
437
100
AcDbEntity
  8
94754901000_BL3
100
AcDbSpline
 62
9
  6
CONTINUOUS
 70
0
 71
3
 72
12
 73
8
 74
0
 42
0.0000001
 43
0.0000001
 44
0.0000000001
 40
0.0
 40
0.0
 40
0.0
 40
0.0
 40
0.3994223562
 40
0.7018648428
 40
0.813134605
 40
0.897721162
 40
1.0
 40
1.0
 40
1.0
 40
1.0
 10
140.7550373396
 20
891.4980977935
 30
0.0
 10
140.7640404208
 20
891.4299663503
 30
0.0
 10
140.7831753527
 20
891.3105342153
 30
0.0
 10
140.8151014829
 20
891.1744443955
 30
0.0
 10
140.8469538656
 20
891.0937279973
 30
0.0
 10
140.8697579637
 20
891.0498289863
 30
0.0
 10
140.8996961439
 20
891.0236878308
 30
0.0
 10
140.9171421855
 20
891.0259944679
 30
0.0
  0
SPLINE
  5
438
100
AcDbEntity
  8
94754901000_BL3
100
AcDbSpline
 62
7
  6
CONTINUOUS
 70
0
 71
3
 72
10
 73
6
 74
0
 42
0.0000001
 43
0.0000001
 44
0.0000000001
 40
0.0
 40
0.0
 40
0.0
 40
0.0
 40
0.3971587812
 40
0.6961825089
 40
1.0
 40
1.0
 40
1.0
 40
1.0
 10
141.5266254381
 20
891.378918994
 30
0.0
 10
141.5342760887
 20
891.341140909
 30
0.0
 10
141.5507180196
 20
891.2730064636
 30
0.0
 10
141.5779717035
 20
891.1889733367
 30
0.0
 10
141.6180822275
 20
891.1194559512
 30
0.0
 10
141.6473158993
 20
891.1233055356
 30
0.0
  0
SPLINE
  5
439
100
AcDbEntity
  8
94754901000_BL3
100
AcDbSpline
 62
9
  6
CONTINUOUS
 70
0
 71
3
 72
9
 73
5
 74
0
 42
0.0000001
 43
0.0000001
 44
0.0000000001
 40
0.0
 40
0.0
 40
0.0
 40
0.0
 40
0.2871101969
 40
1.0
 40
1.0
 40
1.0
 40
1.0
 10
140.4506505387
 20
891.4036306941
 30
0.0
 10
140.4554371801
 20
891.3611995535
 30
0.0
 10
140.473905697
 20
891.2136753159
 30
0.0
 10
140.4984624411
 20
891.0665334045
 30
0.0
 10
140.5247303244
 20
890.9638148477
 30
0.0
  0
SPLINE
  5
43A
100
AcDbEntity
  8
94754901000_BL3
100
AcDbSpline
 62
9
  6
CONTINUOUS
 70
0
 71
3
 72
14
 73
10
 74
0
 42
0.0000001
 43
0.0000001
 44
0.0000000001
 40
0.0
 40
0.0
 40
0.0
 40
0.0
 40
0.362597074
 40
0.4791920064
 40
0.5590867134
 40
0.6240392776
 40
0.7092861099
 40
0.832992418
 40
1.0
 40
1.0
 40
1.0
 40
1.0
 10
140.5247303244
 20
890.9638148477
 30
0.0
 10
140.5390498939
 20
890.9078192619
 30
0.0
 10
140.5606319429
 20
890.8330134494
 30
0.0
 10
140.6054026161
 20
890.7565516399
 30
0.0
 10
140.6382149523
 20
890.7264331322
 30
0.0
 10
140.6785851773
 20
890.7297720601
 30
0.0
 10
140.7096295859
 20
890.7635458332
 30
0.0
 10
140.7383867244
 20
890.8157261951
 30
0.0
 10
140.7544859367
 20
890.8595297984
 30
0.0
 10
140.7627559975
 20
890.884833426
 30
0.0
  0
SPLINE
  5
43B
100
AcDbEntity
  8
94754901000_BL3
100
AcDbSpline
 62
9
  6
CONTINUOUS
 70
0
 71
3
 72
9
 73
5
 74
0
 42
0.0000001
 43
0.0000001
 44
0.0000000001
 40
0.0
 40
0.0
 40
0.0
 40
0.0
 40
0.233765962
 40
1.0
 40
1.0
 40
1.0
 40
1.0
 10
140.7627559975
 20
890.884833426
 30
0.0
 10
140.7647617972
 20
890.8909705038
 30
0.0
 10
140.7730781414
 20
890.9173098109
 30
0.0
 10
140.7804250029
 20
890.9439495298
 30
0.0
 10
140.7856600534
 20
890.9644549695
 30
0.0
  0
SPLINE
  5
43C
100
AcDbEntity
  8
94754901000_BL3
100
AcDbSpline
 62
7
  6
CONTINUOUS
 70
0
 71
3
 72
8
 73
4
 74
0
 42
0.0000001
 43
0.0000001
 44
0.0000000001
 40
0.0
 40
0.0
 40
0.0
 40
0.0
 40
1.0
 40
1.0
 40
1.0
 40
1.0
 10
140.6888053918
 20
891.5012364118
 30
0.0
 10
140.655194168
 20
891.4969563396
 30
0.0
 10
140.6217534371
 20
891.4905480311
 30
0.0
 10
140.5890683472
 20
891.4816195218
 30
0.0
  0
SPLINE
  5
43D
100
AcDbEntity
  8
94754901000_BL3
100
AcDbSpline
 62
7
  6
CONTINUOUS
 70
0
 71
3
 72
8
 73
4
 74
0
 42
0.0000001
 43
0.0000001
 44
0.0000000001
 40
0.0
 40
0.0
 40
0.0
 40
0.0
 40
1.0
 40
1.0
 40
1.0
 40
1.0
 10
140.6888053918
 20
891.5012364118
 30
0.0
 10
140.7107304336
 20
891.504028359
 30
0.0
 10
140.7334087886
 20
891.5026484205
 30
0.0
 10
140.7550373396
 20
891.4980977935
 30
0.0
  0
SPLINE
  5
43E
100
AcDbEntity
  8
94754901000_BL3
100
AcDbSpline
 62
9
  6
CONTINUOUS
 70
0
 71
3
 72
9
 73
5
 74
0
 42
0.0000001
 43
0.0000001
 44
0.0000000001
 40
0.0
 40
0.0
 40
0.0
 40
0.0
 40
0.3543434039
 40
1.0
 40
1.0
 40
1.0
 40
1.0
 10
140.916685014
 20
893.7567959279
 30
0.0
 10
140.9010081686
 20
893.7586732328
 30
0.0
 10
140.8595170685
 20
893.7256973245
 30
0.0
 10
140.8450379085
 20
893.6848141932
 30
0.0
 10
140.8348437068
 20
893.657911687
 30
0.0
  0
SPLINE
  5
43F
100
AcDbEntity
  8
94754901000_BL3
100
AcDbSpline
 62
9
  6
CONTINUOUS
 70
0
 71
3
 72
9
 73
5
 74
0
 42
0.0000001
 43
0.0000001
 44
0.0000000001
 40
0.0
 40
0.0
 40
0.0
 40
0.0
 40
0.4223985157
 40
1.0
 40
1.0
 40
1.0
 40
1.0
 10
140.8348437068
 20
893.657911687
 30
0.0
 10
140.8157738567
 20
893.6075863378
 30
0.0
 10
140.7847845238
 20
893.4833815402
 30
0.0
 10
140.7646781208
 20
893.3575973437
 30
0.0
 10
140.7550373396
 20
893.2846400618
 30
0.0
  0
LINE
  5
440
100
AcDbEntity
  8
94754901000_BL3
100
AcDbLine
 62
7
  6
CONTINUOUS
 10
142.318817372
 20
891.6649543597
 11
142.3644454843
 21
891.6815739525
  0
ELLIPSE
  5
441
100
AcDbEntity
  8
94754901000_BL3
100
AcDbEllipse
 62
7
  6
CONTINUOUS
 10
135.8699727808
 20
894.3515483133
 30
0.0
 11
0.4999811215
 21
0.2329672864
 31
0.0
 40
0.0186502618
 41
2.3961992652
 42
3.1324067283
  0
ELLIPSE
  5
442
100
AcDbEntity
  8
94754901000_BL3
100
AcDbEllipse
 62
7
  6
CONTINUOUS
 10
135.8699727808
 20
890.431189542
 30
0.0
 11
0.4999811215
 21
-0.2329672864
 31
0.0
 40
0.0186502618
 41
-3.1324067284
 42
-2.3961992652
  0
ELLIPSE
  5
443
100
AcDbEntity
  8
94754901000_BL3
100
AcDbEllipse
 62
7
  6
CONTINUOUS
 10
142.5336863148
 20
892.3913689276
 30
0.0
 11
3.2733820652
 21
-0.0
 31
0.0
 40
0.3250636971
 41
-1.9127974444
 42
-1.8835201524
  0
ELLIPSE
  5
444
100
AcDbEntity
  8
94754901000_BL3
100
AcDbEllipse
 62
7
  6
CONTINUOUS
 10
142.5336863148
 20
892.3913689276
 30
0.0
 11
3.2733820652
 21
0.0
 31
0.0
 40
0.3250636971
 41
-2.1452394281
 42
-1.9938612386
  0
ELLIPSE
  5
445
100
AcDbEntity
  8
94754901000_BL3
100
AcDbEllipse
 62
7
  6
CONTINUOUS
 10
142.5336863148
 20
892.3913689276
 30
0.0
 11
3.2733820652
 21
-0.0
 31
0.0
 40
0.3250636971
 41
1.9343371047
 42
2.1452394281
  0
ENDBLK
  5
446
100
AcDbEntity
  8
0
  6
BYBLOCK
 62
0
100
AcDbBlockEnd
  0
BLOCK
  5
447
100
AcDbEntity
  8
SUWN07008_A6_4_DR786_BL4
100
AcDbBlockBegin
  2
SUWN07008_A6_4_DR786_BL4
 70
64
 10
142.4260466361
 20
260.8913689276
  3
SUWN07008_A6_4_DR786_BL4
  1

  0
LINE
  5
448
100
AcDbEntity
  8
SUWN07008_A6_4_DR786_BL4
100
AcDbLine
 62
7
  6
CENTER
 10
142.4260466361
 20
260.8913689276
 11
137.5912017885
 21
260.8913689276
  0
LINE
  5
449
100
AcDbEntity
  8
SUWN07008_A6_4_DR786_BL4
100
AcDbLine
 62
7
  6
CENTER
 10
142.4260466361
 20
260.8913689276
 11
147.2608914837
 21
260.8913689276
  0
LINE
  5
44A
100
AcDbEntity
  8
SUWN07008_A6_4_DR786_BL4
100
AcDbLine
 62
7
  6
CENTER
 10
142.4260466361
 20
260.8913689276
 11
142.4260466361
 21
256.05652408
  0
LINE
  5
44B
100
AcDbEntity
  8
SUWN07008_A6_4_DR786_BL4
100
AcDbLine
 62
7
  6
CENTER
 10
142.4260466361
 20
260.8913689276
 11
142.4260466361
 21
265.7262137753
  0
ENDBLK
  5
44C
100
AcDbEntity
  8
0
  6
BYBLOCK
 62
0
100
AcDbBlockEnd
  0
BLOCK
  5
44D
100
AcDbEntity
  8
95198401000_M_BL5
100
AcDbBlockBegin
  2
95198401000_M_BL5
 70
64
 10
87.5534734524
 20
493.8158724014
  3
95198401000_M_BL5
  1

  0
LINE
  5
44E
100
AcDbEntity
  8
95198401000_M_BL5
100
AcDbLine
 62
7
  6
CONTINUOUS
 10
136.8260466361
 20
901.6413689276
 11
136.8260466361
 21
895.0413689276
  0
LINE
  5
44F
100
AcDbEntity
  8
95198401000_M_BL5
100
AcDbLine
 62
7
  6
CONTINUOUS
 10
136.8260466361
 20
889.7413689276
 11
136.8260466361
 21
883.1413689276
  0
LINE
  5
450
100
AcDbEntity
  8
95198401000_M_BL5
100
AcDbLine
 62
7
  6
CONTINUOUS
 10
137.8801085187
 20
886.3913689276
 11
137.8801085187
 21
889.7413689276
  0
LINE
  5
451
100
AcDbEntity
  8
95198401000_M_BL5
100
AcDbLine
 62
7
  6
CONTINUOUS
 10
137.8801085187
 20
895.0413689276
 11
137.8801085187
 21
898.3913689276
  0
LINE
  5
452
100
AcDbEntity
  8
95198401000_M_BL5
100
AcDbLine
 62
7
  6
CONTINUOUS
 10
138.1760466361
 20
905.6071601476
 11
138.1760466361
 21
903.8913689276
  0
LINE
  5
453
100
AcDbEntity
  8
95198401000_M_BL5
100
AcDbLine
 62
7
  6
CONTINUOUS
 10
138.1760466361
 20
879.1755777077
 11
138.1760466361
 21
880.8913689276
  0
LINE
  5
454
100
AcDbEntity
  8
95198401000_M_BL5
100
AcDbLine
 62
7
  6
CONTINUOUS
 10
138.8260466361
 20
905.8413689276
 11
138.8260466361
 21
898.3913689276
  0
LINE
  5
455
100
AcDbEntity
  8
95198401000_M_BL5
100
AcDbLine
 62
7
  6
CONTINUOUS
 10
138.8260466361
 20
886.3913689276
 11
138.8260466361
 21
878.9413689276
  0
LINE
  5
456
100
AcDbEntity
  8
95198401000_M_BL5
100
AcDbLine
 62
7
  6
CONTINUOUS
 10
140.1260466361
 20
905.8413689276
 11
140.1260466361
 21
898.3913689276
  0
LINE
  5
457
100
AcDbEntity
  8
95198401000_M_BL5
100
AcDbLine
 62
7
  6
CONTINUOUS
 10
140.1260466361
 20
886.3913689276
 11
140.1260466361
 21
878.9413689276
  0
LINE
  5
458
100
AcDbEntity
  8
95198401000_M_BL5
100
AcDbLine
 62
7
  6
CONTINUOUS
 10
140.9260466361
 20
906.3413689276
 11
140.9260466361
 21
905.1413689276
  0
LINE
  5
459
100
AcDbEntity
  8
95198401000_M_BL5
100
AcDbLine
 62
7
  6
CONTINUOUS
 10
140.9260466361
 20
878.4413689276
 11
140.9260466361
 21
879.6413689276
  0
LINE
  5
45A
100
AcDbEntity
  8
95198401000_M_BL5
100
AcDbLine
 62
7
  6
CONTINUOUS
 10
143.9260466361
 20
878.4413689276
 11
143.9260466361
 21
879.6413689276
  0
LINE
  5
45B
100
AcDbEntity
  8
95198401000_M_BL5
100
AcDbLine
 62
7
  6
CONTINUOUS
 10
143.9260466361
 20
905.1413689276
 11
143.9260466361
 21
906.3413689276
  0
LINE
  5
45C
100
AcDbEntity
  8
95198401000_M_BL5
100
AcDbLine
 62
7
  6
CONTINUOUS
 10
144.2920387509
 20
906.8230761901
 11
144.2920387509
 21
905.1413689276
  0
LINE
  5
45D
100
AcDbEntity
  8
95198401000_M_BL5
100
AcDbLine
 62
7
  6
CONTINUOUS
 10
144.2920387509
 20
877.9596616652
 11
144.2920387509
 21
879.6413689276
  0
LINE
  5
45E
100
AcDbEntity
  8
95198401000_M_BL5
100
AcDbLine
 62
7
  6
CONTINUOUS
 10
146.6760466361
 20
905.607169616
 11
146.6760466361
 21
903.8913689276
  0
LINE
  5
45F
100
AcDbEntity
  8
95198401000_M_BL5
100
AcDbLine
 62
7
  6
CONTINUOUS
 10
146.6760466361
 20
879.1755725019
 11
146.6760466361
 21
880.8913689276
  0
LINE
  5
460
100
AcDbEntity
  8
95198401000_M_BL5
100
AcDbLine
 62
9
  6
CONTINUOUS
 10
147.7574003377
 20
883.1413689276
 11
147.7574003377
 21
886.3913689276
  0
LINE
  5
461
100
AcDbEntity
  8
95198401000_M_BL5
100
AcDbLine
 62
9
  6
CONTINUOUS
 10
147.7574003377
 20
898.3913689276
 11
147.7574003377
 21
901.6413689276
  0
LINE
  5
462
100
AcDbEntity
  8
95198401000_M_BL5
100
AcDbLine
 62
7
  6
CONTINUOUS
 10
148.0260466361
 20
883.1413689276
 11
148.0260466361
 21
886.3913689276
  0
LINE
  5
463
100
AcDbEntity
  8
95198401000_M_BL5
100
AcDbLine
 62
7
  6
CONTINUOUS
 10
148.0260466361
 20
898.3913689276
 11
148.0260466361
 21
901.6413689276
  0
LINE
  5
464
100
AcDbEntity
  8
95198401000_M_BL5
100
AcDbLine
 62
7
  6
CONTINUOUS
 10
140.4260466361
 20
877.9413689276
 11
139.4260466361
 21
877.9413689276
  0
LINE
  5
465
100
AcDbEntity
  8
95198401000_M_BL5
100
AcDbLine
 62
7
  6
CONTINUOUS
 10
144.4260466361
 20
877.9413689276
 11
145.4260512772
 21
877.9413689276
  0
LINE
  5
466
100
AcDbEntity
  8
95198401000_M_BL5
100
AcDbLine
 62
9
  6
CONTINUOUS
 10
140.1260466361
 20
878.9413689276
 11
138.8260466361
 21
878.9413689276
  0
LINE
  5
467
100
AcDbEntity
  8
95198401000_M_BL5
100
AcDbLine
 62
9
  6
CONTINUOUS
 10
144.2920387509
 20
879.6413689276
 11
143.9260466361
 21
879.6413689276
  0
LINE
  5
468
100
AcDbEntity
  8
95198401000_M_BL5
100
AcDbLine
 62
7
  6
CONTINUOUS
 10
141.2260466361
 20
879.9413689276
 11
144.0780907319
 21
879.9413689276
  0
LINE
  5
469
100
AcDbEntity
  8
95198401000_M_BL5
100
AcDbLine
 62
7
  6
CONTINUOUS
 10
147.3943939332
 20
881.3913689276
 11
147.1760466361
 21
881.3913689276
  0
LINE
  5
46A
100
AcDbEntity
  8
95198401000_M_BL5
100
AcDbLine
 62
7
  6
CONTINUOUS
 10
137.4576993389
 20
881.3913689276
 11
137.6760466361
 21
881.3913689276
  0
LINE
  5
46B
100
AcDbEntity
  8
95198401000_M_BL5
100
AcDbLine
 62
9
  6
CONTINUOUS
 10
147.7574003377
 20
883.1413689276
 11
148.0260466361
 21
883.1413689276
  0
LINE
  5
46C
100
AcDbEntity
  8
95198401000_M_BL5
100
AcDbLine
 62
7
  6
CONTINUOUS
 10
138.8260466361
 20
886.3913689276
 11
137.8801085187
 21
886.3913689276
  0
LINE
  5
46D
100
AcDbEntity
  8
95198401000_M_BL5
100
AcDbLine
 62
7
  6
CONTINUOUS
 10
136.8260466361
 20
889.7413689276
 11
137.8801085187
 21
889.7413689276
  0
LINE
  5
46E
100
AcDbEntity
  8
95198401000_M_BL5
100
AcDbLine
 62
7
  6
CONTINUOUS
 10
136.8260466361
 20
895.0413689276
 11
137.8801085187
 21
895.0413689276
  0
LINE
  5
46F
100
AcDbEntity
  8
95198401000_M_BL5
100
AcDbLine
 62
7
  6
CONTINUOUS
 10
138.8260466361
 20
898.3913689276
 11
137.8801085187
 21
898.3913689276
  0
LINE
  5
470
100
AcDbEntity
  8
95198401000_M_BL5
100
AcDbLine
 62
9
  6
CONTINUOUS
 10
147.7574003377
 20
901.6413689276
 11
148.0260466361
 21
901.641368903
  0
LINE
  5
471
100
AcDbEntity
  8
95198401000_M_BL5
100
AcDbLine
 62
7
  6
CONTINUOUS
 10
147.3943939332
 20
903.3913689276
 11
147.1760466361
 21
903.3913689276
  0
LINE
  5
472
100
AcDbEntity
  8
95198401000_M_BL5
100
AcDbLine
 62
7
  6
CONTINUOUS
 10
137.4576993389
 20
903.3913689276
 11
137.6760466361
 21
903.3913689276
  0
LINE
  5
473
100
AcDbEntity
  8
95198401000_M_BL5
100
AcDbLine
 62
7
  6
CONTINUOUS
 10
144.0780907319
 20
904.8413689276
 11
141.2260466361
 21
904.8413689276
  0
LINE
  5
474
100
AcDbEntity
  8
95198401000_M_BL5
100
AcDbLine
 62
9
  6
CONTINUOUS
 10
143.9260466361
 20
905.1413689276
 11
144.2920387509
 21
905.1413689276
  0
LINE
  5
475
100
AcDbEntity
  8
95198401000_M_BL5
100
AcDbLine
 62
9
  6
CONTINUOUS
 10
138.8260466361
 20
905.8413689276
 11
140.1260466361
 21
905.8413689276
  0
LINE
  5
476
100
AcDbEntity
  8
95198401000_M_BL5
100
AcDbLine
 62
7
  6
CONTINUOUS
 10
139.4260466361
 20
906.8413689276
 11
140.4260466361
 21
906.8413689276
  0
LINE
  5
477
100
AcDbEntity
  8
95198401000_M_BL5
100
AcDbLine
 62
7
  6
CONTINUOUS
 10
144.4260466361
 20
906.8413689276
 11
145.4260478612
 21
906.8413689276
  0
LINE
  5
478
100
AcDbEntity
  8
95198401000_M_BL5
100
AcDbLine
 62
7
  6
CONTINUOUS
 10
27.0809002687
 20
905.8413689276
 11
27.0809002687
 21
898.3913689276
  0
LINE
  5
479
100
AcDbEntity
  8
95198401000_M_BL5
100
AcDbLine
 62
7
  6
CONTINUOUS
 10
27.0809002687
 20
886.3913689276
 11
27.0809002687
 21
878.9413689276
  0
LINE
  5
47A
100
AcDbEntity
  8
95198401000_M_BL5
100
AcDbLine
 62
7
  6
CONTINUOUS
 10
27.9387952367
 20
906.3413689276
 11
27.9387952367
 21
905.1413689276
  0
LINE
  5
47B
100
AcDbEntity
  8
95198401000_M_BL5
100
AcDbLine
 62
7
  6
CONTINUOUS
 10
27.9387952367
 20
878.4413689276
 11
27.9387952367
 21
879.6413689276
  0
LINE
  5
47C
100
AcDbEntity
  8
95198401000_M_BL5
100
AcDbLine
 62
7
  6
CONTINUOUS
 10
31.5483798587
 20
906.8230761901
 11
31.5483798587
 21
905.1413689276
  0
LINE
  5
47D
100
AcDbEntity
  8
95198401000_M_BL5
100
AcDbLine
 62
7
  6
CONTINUOUS
 10
31.5483798587
 20
877.9596616652
 11
31.5483798587
 21
879.6413689276
  0
LINE
  5
47E
100
AcDbEntity
  8
95198401000_M_BL5
100
AcDbLine
 62
7
  6
CONTINUOUS
 10
34.1049153193
 20
905.0548030386
 11
34.1049153193
 21
903.8913689276
  0
LINE
  5
47F
100
AcDbEntity
  8
95198401000_M_BL5
100
AcDbLine
 62
7
  6
CONTINUOUS
 10
34.1049153193
 20
879.7279348167
 11
34.1049153193
 21
880.8913689276
  0
LINE
  5
480
100
AcDbEntity
  8
95198401000_M_BL5
100
AcDbLine
 62
9
  6
CONTINUOUS
 10
35.2645251934
 20
883.1413689276
 11
35.2645251934
 21
886.3913689276
  0
LINE
  5
481
100
AcDbEntity
  8
95198401000_M_BL5
100
AcDbLine
 62
9
  6
CONTINUOUS
 10
35.2645251934
 20
898.3913689276
 11
35.2645251934
 21
901.6413689276
  0
LINE
  5
482
100
AcDbEntity
  8
95198401000_M_BL5
100
AcDbLine
 62
9
  6
CONTINUOUS
 10
35.9465235535
 20
883.1413689276
 11
35.9465235535
 21
886.3913689276
  0
LINE
  5
483
100
AcDbEntity
  8
95198401000_M_BL5
100
AcDbLine
 62
9
  6
CONTINUOUS
 10
35.9465235535
 20
898.3913689276
 11
35.9465235535
 21
901.6413689276
  0
LINE
  5
484
100
AcDbEntity
  8
95198401000_M_BL5
100
AcDbLine
 62
7
  6
CONTINUOUS
 10
37.0809002687
 20
886.3913689276
 11
37.0809002687
 21
898.3913689276
  0
LINE
  5
485
100
AcDbEntity
  8
95198401000_M_BL5
100
AcDbLine
 62
9
  6
CONTINUOUS
 10
52.2809002687
 20
895.8913689276
 11
52.2809002687
 21
888.8913689276
  0
LINE
  5
486
100
AcDbEntity
  8
95198401000_M_BL5
100
AcDbLine
 62
7
  6
CONTINUOUS
 10
52.7809002687
 20
895.8913689276
 11
52.7809002687
 21
888.8913689276
  0
LINE
  5
487
100
AcDbEntity
  8
95198401000_M_BL5
100
AcDbLine
 62
7
  6
CONTINUOUS
 10
31.5483798587
 20
877.9413689276
 11
28.0809002687
 21
877.9413689276
  0
LINE
  5
488
100
AcDbEntity
  8
95198401000_M_BL5
100
AcDbLine
 62
7
  6
CONTINUOUS
 10
31.6920857218
 20
877.9413689276
 11
47.0809002687
 21
877.9413689276
  0
LINE
  5
489
100
AcDbEntity
  8
95198401000_M_BL5
100
AcDbLine
 62
9
  6
CONTINUOUS
 10
31.5483798587
 20
878.4413689276
 11
27.9387952367
 21
878.4413689276
  0
LINE
  5
48A
100
AcDbEntity
  8
95198401000_M_BL5
100
AcDbLine
 62
7
  6
CONTINUOUS
 10
34.5982502125
 20
879.1755725019
 11
47.0809002687
 21
879.1755761768
  0
LINE
  5
48B
100
AcDbEntity
  8
95198401000_M_BL5
100
AcDbLine
 62
9
  6
CONTINUOUS
 10
27.9387952367
 20
879.6413689276
 11
31.5483798587
 21
879.6413689276
  0
LINE
  5
48C
100
AcDbEntity
  8
95198401000_M_BL5
100
AcDbLine
 62
7
  6
CONTINUOUS
 10
28.2605058497
 20
879.9413689276
 11
31.3189486977
 21
879.9413689276
  0
LINE
  5
48D
100
AcDbEntity
  8
95198401000_M_BL5
100
AcDbLine
 62
9
  6
CONTINUOUS
 10
47.0809002687
 20
880.8913689276
 11
34.1049153193
 21
880.8913689276
  0
LINE
  5
48E
100
AcDbEntity
  8
95198401000_M_BL5
100
AcDbLine
 62
7
  6
CONTINUOUS
 10
34.8752484837
 20
881.3913689276
 11
34.6410996743
 21
881.3913689276
  0
LINE
  5
48F
100
AcDbEntity
  8
95198401000_M_BL5
100
AcDbLine
 62
7
  6
CONTINUOUS
 10
34.9602767215
 20
881.3913689276
 11
47.0809002687
 21
881.3913689276
  0
LINE
  5
490
100
AcDbEntity
  8
95198401000_M_BL5
100
AcDbLine
 62
9
  6
CONTINUOUS
 10
35.8171083343
 20
881.787202261
 11
47.0809002687
 21
881.787202261
  0
LINE
  5
491
100
AcDbEntity
  8
95198401000_M_BL5
100
AcDbLine
 62
9
  6
CONTINUOUS
 10
35.2645251934
 20
883.1413689276
 11
47.0809002687
 21
883.1413689276
  0
LINE
  5
492
100
AcDbEntity
  8
95198401000_M_BL5
100
AcDbLine
 62
7
  6
CONTINUOUS
 10
35.6989608321
 20
886.3913689276
 11
37.0809002687
 21
886.3913689276
  0
LINE
  5
493
100
AcDbEntity
  8
95198401000_M_BL5
100
AcDbLine
 62
7
  6
CONTINUOUS
 10
35.6989608321
 20
898.3913689276
 11
37.0809002687
 21
898.3913689276
  0
LINE
  5
494
100
AcDbEntity
  8
95198401000_M_BL5
100
AcDbLine
 62
9
  6
CONTINUOUS
 10
35.2645251934
 20
901.6413689276
 11
47.0809002687
 21
901.6413689276
  0
LINE
  5
495
100
AcDbEntity
  8
95198401000_M_BL5
100
AcDbLine
 62
9
  6
CONTINUOUS
 10
47.0809002687
 20
902.9955355943
 11
35.8171083343
 21
902.9955355943
  0
LINE
  5
496
100
AcDbEntity
  8
95198401000_M_BL5
100
AcDbLine
 62
7
  6
CONTINUOUS
 10
47.0809002687
 20
903.3913689276
 11
34.9602761206
 21
903.3913689276
  0
LINE
  5
497
100
AcDbEntity
  8
95198401000_M_BL5
100
AcDbLine
 62
7
  6
CONTINUOUS
 10
34.8752484837
 20
903.3913689276
 11
34.6410996743
 21
903.3913689276
  0
LINE
  5
498
100
AcDbEntity
  8
95198401000_M_BL5
100
AcDbLine
 62
9
  6
CONTINUOUS
 10
47.0809002687
 20
903.8913689276
 11
34.1049153193
 21
903.8913689276
  0
LINE
  5
499
100
AcDbEntity
  8
95198401000_M_BL5
100
AcDbLine
 62
7
  6
CONTINUOUS
 10
31.3189486977
 20
904.8413689276
 11
28.2605058497
 21
904.8413689276
  0
LINE
  5
49A
100
AcDbEntity
  8
95198401000_M_BL5
100
AcDbLine
 62
9
  6
CONTINUOUS
 10
27.9387952367
 20
905.1413689276
 11
31.5483798587
 21
905.1413689276
  0
LINE
  5
49B
100
AcDbEntity
  8
95198401000_M_BL5
100
AcDbLine
 62
7
  6
CONTINUOUS
 10
34.5982734174
 20
905.607169616
 11
47.0809002687
 21
905.607162932
  0
LINE
  5
49C
100
AcDbEntity
  8
95198401000_M_BL5
100
AcDbLine
 62
9
  6
CONTINUOUS
 10
27.9387952367
 20
906.3413689276
 11
31.5483798587
 21
906.3413689276
  0
LINE
  5
49D
100
AcDbEntity
  8
95198401000_M_BL5
100
AcDbLine
 62
7
  6
CONTINUOUS
 10
28.0809002687
 20
906.8413689276
 11
31.5483798587
 21
906.8413689276
  0
LINE
  5
49E
100
AcDbEntity
  8
95198401000_M_BL5
100
AcDbLine
 62
7
  6
CONTINUOUS
 10
31.6920857218
 20
906.8413689276
 11
47.0809002687
 21
906.8413689276
  0
LINE
  5
49F
100
AcDbEntity
  8
95198401000_M_BL5
100
AcDbLine
 62
7
  6
CONTINUOUS
 10
27.0809002687
 20
89.9903758752
 11
27.0809002687
 21
88.6903758752
  0
LINE
  5
4A0
100
AcDbEntity
  8
95198401000_M_BL5
100
AcDbLine
 62
9
  6
CONTINUOUS
 10
28.0809002687
 20
89.3903758752
 11
28.0809002687
 21
88.3903758752
  0
LINE
  5
4A1
100
AcDbEntity
  8
95198401000_M_BL5
100
AcDbLine
 62
7
  6
CONTINUOUS
 10
27.0809002687
 20
88.6903758752
 11
35.2645251934
 21
81.0590221736
  0
LINE
  5
4A2
100
AcDbEntity
  8
95198401000_M_BL5
100
AcDbLine
 62
9
  6
CONTINUOUS
 10
32.101912039
 20
85.1903758752
 11
31.3189486977
 21
84.7383317794
  0
LINE
  5
4A3
100
AcDbEntity
  8
95198401000_M_BL5
100
AcDbLine
 62
7
  6
CONTINUOUS
 10
31.5483798587
 20
84.5243837605
 11
32.1822967967
 21
84.8903758752
  0
LINE
  5
4A4
100
AcDbEntity
  8
95198401000_M_BL5
100
AcDbLine
 62
7
  6
CONTINUOUS
 10
35.9465235535
 20
80.7903758752
 11
47.0809002687
 21
80.7903758752
  0
LINE
  5
4A5
100
AcDbEntity
  8
95198401000_M_BL5
100
AcDbLine
 62
9
  6
CONTINUOUS
 10
47.0809002687
 20
80.9329996367
 11
35.8171083343
 21
80.9329996367
  0
LINE
  5
4A6
100
AcDbEntity
  8
95198401000_M_BL5
100
AcDbLine
 62
9
  6
CONTINUOUS
 10
47.0809002687
 20
81.4220285781
 11
34.8752484837
 21
81.4220285781
  0
LINE
  5
4A7
100
AcDbEntity
  8
95198401000_M_BL5
100
AcDbLine
 62
9
  6
CONTINUOUS
 10
47.0809002687
 20
81.6403758752
 11
34.6410996743
 21
81.6403758752
  0
LINE
  5
4A8
100
AcDbEntity
  8
95198401000_M_BL5
100
AcDbLine
 62
7
  6
CONTINUOUS
 10
34.1049153193
 20
82.1403758752
 11
47.0809002687
 21
82.1403758752
  0
LINE
  5
4A9
100
AcDbEntity
  8
95198401000_M_BL5
100
AcDbLine
 62
7
  6
CONTINUOUS
 10
33.4227494993
 20
83.3903746502
 11
47.0809002687
 21
83.3903755374
  0
LINE
  5
4AA
100
AcDbEntity
  8
95198401000_M_BL5
100
AcDbLine
 62
9
  6
CONTINUOUS
 10
47.0809002687
 20
84.3903758752
 11
31.6920857218
 21
84.3903758752
  0
LINE
  5
4AB
100
AcDbEntity
  8
95198401000_M_BL5
100
AcDbLine
 62
7
  6
CONTINUOUS
 10
47.0809002687
 20
84.8903758752
 11
32.1822967967
 21
84.8903758752
  0
LINE
  5
4AC
100
AcDbEntity
  8
95198401000_M_BL5
100
AcDbLine
 62
9
  6
CONTINUOUS
 10
32.101912039
 20
85.1903758752
 11
47.0809002687
 21
85.1903758752
  0
LINE
  5
4AD
100
AcDbEntity
  8
95198401000_M_BL5
100
AcDbLine
 62
9
  6
CONTINUOUS
 10
28.2605058497
 20
87.5903758752
 11
47.0809002687
 21
87.5903758752
  0
LINE
  5
4AE
100
AcDbEntity
  8
95198401000_M_BL5
100
AcDbLine
 62
7
  6
CONTINUOUS
 10
27.9387952367
 20
87.8903758752
 11
47.0809002687
 21
87.8903758752
  0
LINE
  5
4AF
100
AcDbEntity
  8
95198401000_M_BL5
100
AcDbLine
 62
9
  6
CONTINUOUS
 10
28.0809002687
 20
88.3903758752
 11
47.0809002687
 21
88.3903758752
  0
LINE
  5
4B0
100
AcDbEntity
  8
95198401000_M_BL5
100
AcDbLine
 62
7
  6
CONTINUOUS
 10
28.0809002687
 20
89.3903758752
 11
47.0809002687
 21
89.3903758752
  0
LINE
  5
4B1
100
AcDbEntity
  8
95198401000_M_BL5
100
AcDbLine
 62
7
  6
CONTINUOUS
 10
33.2652371639
 20
90.6403758752
 11
47.0809002687
 21
90.6403758752
  0
LINE
  5
4B2
100
AcDbEntity
  8
95198401000_M_BL5
100
AcDbLine
 62
9
  6
CONTINUOUS
 10
47.0809002687
 20
91.1403758752
 11
38.022419391
 21
91.1403758752
  0
LINE
  5
4B3
100
AcDbEntity
  8
95198401000_M_BL5
100
AcDbLine
 62
9
  6
CONTINUOUS
 10
40.0998551537
 20
91.3587231724
 11
47.0809002687
 21
91.3587231724
  0
LINE
  5
4B4
100
AcDbEntity
  8
95198401000_M_BL5
100
AcDbLine
 62
7
  6
CONTINUOUS
 10
27.0809002687
 20
89.9903758752
 11
46.1096291771
 21
91.9903758752
  0
LINE
  5
4B5
100
AcDbEntity
  8
95198401000_M_BL5
100
AcDbLine
 62
9
  6
CONTINUOUS
 10
44.7526547311
 20
91.8477521138
 11
47.0809002687
 21
91.8477521138
  0
LINE
  5
4B6
100
AcDbEntity
  8
95198401000_M_BL5
100
AcDbLine
 62
7
  6
CONTINUOUS
 10
46.1096291771
 20
91.9903758752
 11
47.0809002687
 21
91.9903758752
  0
LINE
  5
4B7
100
AcDbEntity
  8
95198401000_M_BL5
100
AcDbLine
 62
7
  6
CONTINUOUS
 10
46.1096291771
 20
91.9903758752
 11
47.0809002687
 21
91.9903758752
  0
ARC
  5
4B8
100
AcDbEntity
  8
95198401000_M_BL5
100
AcDbCircle
 62
7
  6
CONTINUOUS
 10
137.6760466361
 20
880.8913689276
 40
0.5
100
AcDbArc
 50
0.0
 51
90.0
  0
ARC
  5
4B9
100
AcDbEntity
  8
95198401000_M_BL5
100
AcDbCircle
 62
7
  6
CONTINUOUS
 10
137.4576993389
 20
881.8913689276
 40
0.5
100
AcDbArc
 50
192.0246991805
 51
270.0
  0
ARC
  5
4BA
100
AcDbEntity
  8
95198401000_M_BL5
100
AcDbCircle
 62
7
  6
CONTINUOUS
 10
137.6760466361
 20
903.8913689276
 40
0.5
100
AcDbArc
 50
270.0
 51
360.0
  0
ARC
  5
4BB
100
AcDbEntity
  8
95198401000_M_BL5
100
AcDbCircle
 62
7
  6
CONTINUOUS
 10
137.4576993389
 20
902.8913689276
 40
0.5
100
AcDbArc
 50
90.0
 51
167.9753008194
  0
ARC
  5
4BC
100
AcDbEntity
  8
95198401000_M_BL5
100
AcDbCircle
 62
7
  6
CONTINUOUS
 10
141.5260466361
 20
883.1413689276
 40
6.5
100
AcDbArc
 50
306.8699375581
 51
322.4016502507
  0
ARC
  5
4BD
100
AcDbEntity
  8
95198401000_M_BL5
100
AcDbCircle
 62
7
  6
CONTINUOUS
 10
141.5260466361
 20
883.1413689276
 40
6.5
100
AcDbArc
 50
347.9753008194
 51
360.0
  0
ARC
  5
4BE
100
AcDbEntity
  8
95198401000_M_BL5
100
AcDbCircle
 62
9
  6
CONTINUOUS
 10
142.2541427855
 20
883.1418987284
 40
5.5032575777
100
AcDbArc
 50
341.5220136184
 51
359.9944841127
  0
ARC
  5
4BF
100
AcDbEntity
  8
95198401000_M_BL5
100
AcDbCircle
 62
7
  6
CONTINUOUS
 10
140.4260466361
 20
878.4413689276
 40
0.5
100
AcDbArc
 50
270.0
 51
360.0
  0
ARC
  5
4C0
100
AcDbEntity
  8
95198401000_M_BL5
100
AcDbCircle
 62
7
  6
CONTINUOUS
 10
141.2260466361
 20
879.6413689276
 40
0.3
100
AcDbArc
 50
89.9999999999
 51
179.9999999999
  0
ARC
  5
4C1
100
AcDbEntity
  8
95198401000_M_BL5
100
AcDbCircle
 62
7
  6
CONTINUOUS
 10
141.5260466361
 20
901.6413689276
 40
6.5
100
AcDbArc
 50
37.5983863282
 51
53.1300918187
  0
ARC
  5
4C2
100
AcDbEntity
  8
95198401000_M_BL5
100
AcDbCircle
 62
7
  6
CONTINUOUS
 10
141.5260466361
 20
901.6413689276
 40
6.5
100
AcDbArc
 50
0.0
 51
12.0246991806
  0
ARC
  5
4C3
100
AcDbEntity
  8
95198401000_M_BL5
100
AcDbCircle
 62
9
  6
CONTINUOUS
 10
142.1029922487
 20
901.6245747974
 40
5.7186537644
100
AcDbArc
 50
45.4619130041
 51
65.8169922574
  0
ARC
  5
4C4
100
AcDbEntity
  8
95198401000_M_BL5
100
AcDbCircle
 62
9
  6
CONTINUOUS
 10
142.2457199848
 20
901.6394685169
 40
5.5116806806
100
AcDbArc
 50
0.0197554109
 51
18.4637442401
  0
ARC
  5
4C5
100
AcDbEntity
  8
95198401000_M_BL5
100
AcDbCircle
 62
7
  6
CONTINUOUS
 10
140.4260466361
 20
906.3413689276
 40
0.5
100
AcDbArc
 50
0.0
 51
90.0
  0
ARC
  5
4C6
100
AcDbEntity
  8
95198401000_M_BL5
100
AcDbCircle
 62
7
  6
CONTINUOUS
 10
141.2260466361
 20
905.1413689276
 40
0.3
100
AcDbArc
 50
179.9999999999
 51
270.0000000001
  0
ARC
  5
4C7
100
AcDbEntity
  8
95198401000_M_BL5
100
AcDbCircle
 62
7
  6
CONTINUOUS
 10
143.3260466361
 20
883.1413689276
 40
6.5
100
AcDbArc
 50
217.5983050777
 51
233.1301023542
  0
ARC
  5
4C8
100
AcDbEntity
  8
95198401000_M_BL5
100
AcDbCircle
 62
7
  6
CONTINUOUS
 10
143.3260466361
 20
883.1413689276
 40
6.5
100
AcDbArc
 50
180.0
 51
192.0246991806
  0
ARC
  5
4C9
100
AcDbEntity
  8
95198401000_M_BL5
100
AcDbCircle
 62
7
  6
CONTINUOUS
 10
144.4260466361
 20
878.4413689276
 40
0.5
100
AcDbArc
 50
179.9999999999
 51
270.0
  0
ARC
  5
4CA
100
AcDbEntity
  8
95198401000_M_BL5
100
AcDbCircle
 62
7
  6
CONTINUOUS
 10
143.6260466361
 20
879.6413689276
 40
0.3
100
AcDbArc
 50
0.0000000001
 51
89.9999999999
  0
ARC
  5
4CB
100
AcDbEntity
  8
95198401000_M_BL5
100
AcDbCircle
 62
7
  6
CONTINUOUS
 10
143.3260466361
 20
901.6413689276
 40
6.5
100
AcDbArc
 50
167.9753008194
 51
180.0
  0
ARC
  5
4CC
100
AcDbEntity
  8
95198401000_M_BL5
100
AcDbCircle
 62
7
  6
CONTINUOUS
 10
143.3260466361
 20
901.6413689276
 40
6.5
100
AcDbArc
 50
126.8698976458
 51
142.4016949223
  0
ARC
  5
4CD
100
AcDbEntity
  8
95198401000_M_BL5
100
AcDbCircle
 62
7
  6
CONTINUOUS
 10
144.4260466361
 20
906.3413689276
 40
0.5
100
AcDbArc
 50
90.0
 51
180.0
  0
ARC
  5
4CE
100
AcDbEntity
  8
95198401000_M_BL5
100
AcDbCircle
 62
7
  6
CONTINUOUS
 10
143.6260466361
 20
905.1413689276
 40
0.3
100
AcDbArc
 50
270.0000000001
 51
360.0
  0
ARC
  5
4CF
100
AcDbEntity
  8
95198401000_M_BL5
100
AcDbCircle
 62
7
  6
CONTINUOUS
 10
147.1760466361
 20
880.8913689276
 40
0.5
100
AcDbArc
 50
90.0
 51
180.0
  0
ARC
  5
4D0
100
AcDbEntity
  8
95198401000_M_BL5
100
AcDbCircle
 62
7
  6
CONTINUOUS
 10
147.3943939332
 20
881.8913689276
 40
0.5
100
AcDbArc
 50
270.0
 51
347.9753008195
  0
ARC
  5
4D1
100
AcDbEntity
  8
95198401000_M_BL5
100
AcDbCircle
 62
7
  6
CONTINUOUS
 10
147.1760466361
 20
903.8913689276
 40
0.5
100
AcDbArc
 50
180.0
 51
270.0
  0
ARC
  5
4D2
100
AcDbEntity
  8
95198401000_M_BL5
100
AcDbCircle
 62
7
  6
CONTINUOUS
 10
147.3943939332
 20
902.8913689276
 40
0.5
100
AcDbArc
 50
12.0246991806
 51
90.0
  0
ARC
  5
4D3
100
AcDbEntity
  8
95198401000_M_BL5
100
AcDbCircle
 62
9
  6
CONTINUOUS
 10
28.7700015543
 20
883.1439486231
 40
7.1765224628
100
AcDbArc
 50
349.1024499602
 51
359.9794042777
  0
ARC
  5
4D4
100
AcDbEntity
  8
95198401000_M_BL5
100
AcDbCircle
 62
9
  6
CONTINUOUS
 10
29.4938895724
 20
882.8651478375
 40
6.2991642342
100
AcDbArc
 50
308.5876002367
 51
316.301372165
  0
ARC
  5
4D5
100
AcDbEntity
  8
95198401000_M_BL5
100
AcDbCircle
 62
9
  6
CONTINUOUS
 10
30.0869833384
 20
883.1464060448
 40
5.1775443052
100
AcDbArc
 50
340.2601993626
 51
359.9442582072
  0
ARC
  5
4D6
100
AcDbEntity
  8
95198401000_M_BL5
100
AcDbCircle
 62
7
  6
CONTINUOUS
 10
28.0809002687
 20
878.9413689276
 40
1.0
100
AcDbArc
 50
180.0
 51
270.0
  0
ARC
  5
4D7
100
AcDbEntity
  8
95198401000_M_BL5
100
AcDbCircle
 62
7
  6
CONTINUOUS
 10
34.8752315121
 20
881.9661918086
 40
0.5748228813
100
AcDbArc
 50
270.0016916534
 51
278.508010517
  0
ARC
  5
4D8
100
AcDbEntity
  8
95198401000_M_BL5
100
AcDbCircle
 62
9
  6
CONTINUOUS
 10
28.750049131
 20
901.6368824158
 40
7.196475821
100
AcDbArc
 50
0.0357200131
 51
10.882425749
  0
ARC
  5
4D9
100
AcDbEntity
  8
95198401000_M_BL5
100
AcDbCircle
 62
9
  6
CONTINUOUS
 10
30.0986550418
 20
901.6383682651
 40
5.1658710231
100
AcDbArc
 50
0.0332809909
 51
19.7622586428
  0
ARC
  5
4DA
100
AcDbEntity
  8
95198401000_M_BL5
100
AcDbCircle
 62
7
  6
CONTINUOUS
 10
28.0809002687
 20
905.8413689276
 40
1.0
100
AcDbArc
 50
90.0
 51
180.0
  0
ARC
  5
4DB
100
AcDbEntity
  8
95198401000_M_BL5
100
AcDbCircle
 62
7
  6
CONTINUOUS
 10
34.8752281975
 20
902.816541342
 40
0.574827586
100
AcDbArc
 50
81.4917130307
 51
89.9979779767
  0
ARC
  5
4DC
100
AcDbEntity
  8
95198401000_M_BL5
100
AcDbCircle
 62
7
  6
CONTINUOUS
 10
35.9464708798
 20
81.7904249942
 40
1.0
100
AcDbArc
 50
227.004126562
 51
270.0030175499
  0
SPLINE
  5
4DD
100
AcDbEntity
  8
95198401000_M_BL5
100
AcDbSpline
 62
9
  6
CONTINUOUS
 70
0
 71
3
 72
9
 73
5
 74
0
 42
0.0000001
 43
0.0000001
 44
0.0000000001
 40
0.0
 40
0.0
 40
0.0
 40
0.0
 40
0.2553342881
 40
1.0
 40
1.0
 40
1.0
 40
1.0
 10
146.6760466361
 20
879.7279348167
 30
0.0
 10
146.6324035618
 20
879.6695676111
 30
0.0
 10
146.4567834641
 20
879.4445436887
 30
0.0
 10
146.265595112
 20
879.2315219684
 30
0.0
 10
146.1142702453
 20
879.0822645123
 30
0.0
  0
SPLINE
  5
4DE
100
AcDbEntity
  8
95198401000_M_BL5
100
AcDbSpline
 62
9
  6
CONTINUOUS
 70
0
 71
3
 72
9
 73
5
 74
0
 42
0.0000001
 43
0.0000001
 44
0.0000000001
 40
0.0
 40
0.0
 40
0.0
 40
0.0
 40
0.2609680722
 40
1.0
 40
1.0
 40
1.0
 40
1.0
 10
146.1142702453
 20
879.0822645123
 30
0.0
 10
145.9887065324
 20
878.9584086799
 30
0.0
 10
145.4846974468
 20
878.5074763512
 30
0.0
 10
144.9013068437
 20
878.1459192972
 30
0.0
 10
144.4456531034
 20
877.9413689276
 30
0.0
  0
SPLINE
  5
4DF
100
AcDbEntity
  8
95198401000_M_BL5
100
AcDbSpline
 62
9
  6
CONTINUOUS
 70
0
 71
3
 72
9
 73
5
 74
0
 42
0.0000001
 43
0.0000001
 44
0.0000000001
 40
0.0
 40
0.0
 40
0.0
 40
0.0
 40
0.244854167
 40
1.0
 40
1.0
 40
1.0
 40
1.0
 10
146.113960143
 20
905.7007417994
 30
0.0
 10
146.1637446555
 20
905.6516447108
 30
0.0
 10
146.3626856633
 20
905.4467395131
 30
0.0
 10
146.5469110515
 20
905.2275041676
 30
0.0
 10
146.6760466361
 20
905.0548030386
 30
0.0
  0
SPLINE
  5
4E0
100
AcDbEntity
  8
95198401000_M_BL5
100
AcDbSpline
 62
7
  6
CONTINUOUS
 70
0
 71
3
 72
8
 73
4
 74
0
 42
0.0000001
 43
0.0000001
 44
0.0000000001
 40
0.0
 40
0.0
 40
0.0
 40
0.0
 40
1.0
 40
1.0
 40
1.0
 40
1.0
 10
34.9602761206
 20
903.3850420755
 30
0.0
 10
34.9887061557
 20
903.3807841457
 30
0.0
 10
35.0168973839
 20
903.3747881387
 30
0.0
 10
35.0447512832
 20
903.3676777836
 30
0.0
  0
SPLINE
  5
4E1
100
AcDbEntity
  8
95198401000_M_BL5
100
AcDbSpline
 62
7
  6
CONTINUOUS
 70
0
 71
3
 72
9
 73
5
 74
0
 42
0.0000001
 43
0.0000001
 44
0.0000000001
 40
0.0
 40
0.0
 40
0.0
 40
0.0
 40
0.4732837299
 40
1.0
 40
1.0
 40
1.0
 40
1.0
 10
35.0447512832
 20
903.3676777836
 30
0.0
 10
35.1761184335
 20
903.3341432658
 30
0.0
 10
35.4411037387
 20
903.2183120628
 30
0.0
 10
35.6888912897
 20
903.0750787447
 30
0.0
 10
35.8171083343
 20
902.9955355943
 30
0.0
  0
SPLINE
  5
4E2
100
AcDbEntity
  8
95198401000_M_BL5
100
AcDbSpline
 62
7
  6
CONTINUOUS
 70
0
 71
3
 72
9
 73
5
 74
0
 42
0.0000001
 43
0.0000001
 44
0.0000000001
 40
0.0
 40
0.0
 40
0.0
 40
0.0
 40
0.5266682787
 40
1.0
 40
1.0
 40
1.0
 40
1.0
 10
35.8171083343
 20
881.787202261
 30
0.0
 10
35.6890299851
 20
881.7076986535
 30
0.0
 10
35.4413658451
 20
881.564724972
 30
0.0
 10
35.1766859983
 20
881.4488357524
 30
0.0
 10
35.0454372932
 20
881.4152358006
 30
0.0
  0
SPLINE
  5
4E3
100
AcDbEntity
  8
95198401000_M_BL5
100
AcDbSpline
 62
7
  6
CONTINUOUS
 70
0
 71
3
 72
8
 73
4
 74
0
 42
0.0000001
 43
0.0000001
 44
0.0000000001
 40
0.0
 40
0.0
 40
0.0
 40
0.0
 40
1.0
 40
1.0
 40
1.0
 40
1.0
 10
35.0454372932
 20
881.4152358006
 30
0.0
 10
35.0173600435
 20
881.4080479641
 30
0.0
 10
34.9889397505
 20
881.4019886107
 30
0.0
 10
34.9602767215
 20
881.3976958599
 30
0.0
  0
SPLINE
  5
4E4
100
AcDbEntity
  8
95198401000_M_BL5
100
AcDbSpline
 62
9
  6
CONTINUOUS
 70
0
 71
3
 72
9
 73
5
 74
0
 42
0.0000001
 43
0.0000001
 44
0.0000000001
 40
0.0
 40
0.0
 40
0.0
 40
0.0
 40
0.2543715002
 40
1.0
 40
1.0
 40
1.0
 40
1.0
 10
34.1049153193
 20
879.7279348167
 30
0.0
 10
34.0580508273
 20
879.6694890115
 30
0.0
 10
33.8690103333
 20
879.4436344294
 30
0.0
 10
33.6641079996
 20
879.2309223226
 30
0.0
 10
33.5024838958
 20
879.0822645123
 30
0.0
  0
SPLINE
  5
4E5
100
AcDbEntity
  8
95198401000_M_BL5
100
AcDbSpline
 62
9
  6
CONTINUOUS
 70
0
 71
3
 72
9
 73
5
 74
0
 42
0.0000001
 43
0.0000001
 44
0.0000000001
 40
0.0
 40
0.0
 40
0.0
 40
0.0
 40
0.2587436658
 40
1.0
 40
1.0
 40
1.0
 40
1.0
 10
33.5024838958
 20
879.0822645123
 30
0.0
 10
33.3673861067
 20
878.9579973385
 30
0.0
 10
32.8220854731
 20
878.503364702
 30
0.0
 10
32.1981866025
 20
878.1444318127
 30
0.0
 10
31.7131110838
 20
877.9413689276
 30
0.0
  0
SPLINE
  5
4E6
100
AcDbEntity
  8
95198401000_M_BL5
100
AcDbSpline
 62
9
  6
CONTINUOUS
 70
0
 71
3
 72
9
 73
5
 74
0
 42
0.0000001
 43
0.0000001
 44
0.0000000001
 40
0.0
 40
0.0
 40
0.0
 40
0.0
 40
0.245251278
 40
1.0
 40
1.0
 40
1.0
 40
1.0
 10
34.0477500398
 20
906.2697819958
 30
0.0
 10
34.0963708421
 20
906.2187967921
 30
0.0
 10
34.2906895838
 20
906.0071954171
 30
0.0
 10
34.4710551389
 20
905.7827738474
 30
0.0
 10
34.5982163575
 20
905.6071674507
 30
0.0
  0
SPLINE
  5
4E7
100
AcDbEntity
  8
95198401000_M_BL5
100
AcDbSpline
 62
9
  6
CONTINUOUS
 70
0
 71
3
 72
9
 73
5
 74
0
 42
0.0000001
 43
0.0000001
 44
0.0000000001
 40
0.0
 40
0.0
 40
0.0
 40
0.0
 40
0.2456010218
 40
1.0
 40
1.0
 40
1.0
 40
1.0
 10
33.4227416761
 20
906.8413682105
 30
0.0
 10
33.4769719097
 20
906.7981146309
 30
0.0
 10
33.6946542892
 20
906.6181334404
 30
0.0
 10
33.9007150829
 20
906.42398951
 30
0.0
 10
34.0477500398
 20
906.2697819958
 30
0.0
  0
SPLINE
  5
4E8
100
AcDbEntity
  8
95198401000_M_BL5
100
AcDbSpline
 62
9
  6
CONTINUOUS
 70
0
 71
3
 72
9
 73
5
 74
0
 42
0.0000001
 43
0.0000001
 44
0.0000000001
 40
0.0
 40
0.0
 40
0.0
 40
0.0
 40
0.2549768791
 40
1.0
 40
1.0
 40
1.0
 40
1.0
 10
34.5982188453
 20
879.1755736924
 30
0.0
 10
34.5552833901
 20
879.1162794159
 30
0.0
 10
34.3827386943
 20
878.8867817044
 30
0.0
 10
34.195693508
 20
878.6680862819
 30
0.0
 10
34.0480825838
 20
878.5132751299
 30
0.0
  0
SPLINE
  5
4E9
100
AcDbEntity
  8
95198401000_M_BL5
100
AcDbSpline
 62
9
  6
CONTINUOUS
 70
0
 71
3
 72
9
 73
5
 74
0
 42
0.0000001
 43
0.0000001
 44
0.0000000001
 40
0.0
 40
0.0
 40
0.0
 40
0.0
 40
0.2430737057
 40
1.0
 40
1.0
 40
1.0
 40
1.0
 10
31.7131110838
 20
906.8413689276
 30
0.0
 10
31.8721198342
 20
906.7748041822
 30
0.0
 10
32.5147573117
 20
906.4745143471
 30
0.0
 10
33.1070565016
 20
906.0641133787
 30
0.0
 10
33.5021513518
 20
905.7007417994
 30
0.0
  0
SPLINE
  5
4EA
100
AcDbEntity
  8
95198401000_M_BL5
100
AcDbSpline
 62
9
  6
CONTINUOUS
 70
0
 71
3
 72
9
 73
5
 74
0
 42
0.0000001
 43
0.0000001
 44
0.0000000001
 40
0.0
 40
0.0
 40
0.0
 40
0.0
 40
0.2458111289
 40
1.0
 40
1.0
 40
1.0
 40
1.0
 10
33.5021513518
 20
905.7007417994
 30
0.0
 10
33.5554629432
 20
905.6517143845
 30
0.0
 10
33.7679990042
 20
905.4475997158
 30
0.0
 10
33.9658991735
 20
905.2281716034
 30
0.0
 10
34.1049153193
 20
905.0548030386
 30
0.0
  0
SPLINE
  5
4EB
100
AcDbEntity
  8
95198401000_M_BL5
100
AcDbSpline
 62
7
  6
CONTINUOUS
 70
0
 71
3
 72
10
 73
6
 74
0
 42
0.0000001
 43
0.0000001
 44
0.0000000001
 40
0.0
 40
0.0
 40
0.0
 40
0.0
 40
0.4964338287
 40
0.7480540911
 40
1.0
 40
1.0
 40
1.0
 40
1.0
 10
34.1049153193
 20
879.7279348167
 30
0.0
 10
34.1049145095
 20
879.5910267001
 30
0.0
 10
34.1527826655
 20
879.3647231675
 30
0.0
 10
34.3874425271
 20
879.1969605258
 30
0.0
 10
34.5287677601
 20
879.1755726508
 30
0.0
 10
34.5982502125
 20
879.1755725019
 30
0.0
  0
SPLINE
  5
4EC
100
AcDbEntity
  8
95198401000_M_BL5
100
AcDbSpline
 62
7
  6
CONTINUOUS
 70
0
 71
3
 72
10
 73
6
 74
0
 42
0.0000001
 43
0.0000001
 44
0.0000000001
 40
0.0
 40
0.0
 40
0.0
 40
0.0
 40
0.2519463854
 40
0.5035667251
 40
1.0
 40
1.0
 40
1.0
 40
1.0
 10
34.5982734174
 20
905.607169616
 30
0.0
 10
34.5287884355
 20
905.6071679629
 30
0.0
 10
34.3874563282
 20
905.5857952052
 30
0.0
 10
34.1527844239
 20
905.4180262795
 30
0.0
 10
34.1049134974
 20
905.1917157276
 30
0.0
 10
34.1049153193
 20
905.0548030386
 30
0.0
  0
SPLINE
  5
4ED
100
AcDbEntity
  8
95198401000_M_BL5
100
AcDbSpline
 62
7
  6
CONTINUOUS
 70
0
 71
3
 72
9
 73
5
 74
0
 42
0.0000001
 43
0.0000001
 44
0.0000000001
 40
0.0
 40
0.0
 40
0.0
 40
0.0
 40
0.267203743
 40
1.0
 40
1.0
 40
1.0
 40
1.0
 10
34.9602761206
 20
81.342739089
 30
0.0
 10
35.0226847411
 20
81.2845435667
 30
0.0
 10
35.2753091321
 20
81.0884328219
 30
0.0
 10
35.5851075813
 20
80.9636746705
 30
0.0
 10
35.8171083343
 20
80.9329996367
 30
0.0
  0
SPLINE
  5
4EE
100
AcDbEntity
  8
95198401000_M_BL5
100
AcDbSpline
 62
7
  6
CONTINUOUS
 70
0
 71
3
 72
9
 73
5
 74
0
 42
0.0000001
 43
0.0000001
 44
0.0000000001
 40
0.0
 40
0.0
 40
0.0
 40
0.0
 40
0.2542581631
 40
1.0
 40
1.0
 40
1.0
 40
1.0
 10
28.0809002687
 20
88.3903758752
 30
0.0
 10
28.0481362287
 20
88.3672082004
 30
0.0
 10
27.9192640171
 20
88.2761138833
 30
0.0
 10
27.7898669004
 20
88.1856918406
 30
0.0
 10
27.6916495196
 20
88.1208429849
 30
0.0
  0
LINE
  5
4EF
100
AcDbEntity
  8
95198401000_M_BL5
100
AcDbLine
 62
9
  6
CONTINUOUS
 10
35.9465235535
 20
80.7903758752
 11
35.8171083343
 21
80.9329996367
  0
SPLINE
  5
4F0
100
AcDbEntity
  8
95198401000_M_BL5
100
AcDbSpline
 62
9
  6
CONTINUOUS
 70
0
 71
3
 72
9
 73
5
 74
0
 42
0.0000001
 43
0.0000001
 44
0.0000000001
 40
0.0
 40
0.0
 40
0.0
 40
0.0
 40
0.2600888628
 40
1.0
 40
1.0
 40
1.0
 40
1.0
 10
34.0477500398
 20
82.7266282408
 30
0.0
 10
34.0955094886
 20
82.6758367063
 30
0.0
 10
34.278735359
 20
82.4801742899
 30
0.0
 10
34.4623443629
 20
82.2848714994
 30
0.0
 10
34.5982163575
 20
82.1403814991
 30
0.0
  0
SPLINE
  5
4F1
100
AcDbEntity
  8
95198401000_M_BL5
100
AcDbSpline
 62
9
  6
CONTINUOUS
 70
0
 71
3
 72
9
 73
5
 74
0
 42
0.0000001
 43
0.0000001
 44
0.0000000001
 40
0.0
 40
0.0
 40
0.0
 40
0.0
 40
0.2569588502
 40
1.0
 40
1.0
 40
1.0
 40
1.0
 10
33.4227416761
 20
83.3903749191
 30
0.0
 10
33.476237334
 20
83.3334871429
 30
0.0
 10
33.6842626996
 20
83.1119458161
 30
0.0
 10
33.8930706953
 20
82.891141015
 30
0.0
 10
34.0477500398
 20
82.7266282408
 30
0.0
  0
SPLINE
  5
4F2
100
AcDbEntity
  8
95198401000_M_BL5
100
AcDbSpline
 62
7
  6
CONTINUOUS
 70
0
 71
3
 72
10
 73
6
 74
0
 42
0.0000001
 43
0.0000001
 44
0.0000000001
 40
0.0
 40
0.0
 40
0.0
 40
0.0
 40
0.461787753
 40
0.722272542
 40
1.0
 40
1.0
 40
1.0
 40
1.0
 10
27.2026004425
 20
90.0031670789
 30
0.0
 10
27.2825243876
 20
89.8509663038
 30
0.0
 10
27.4567858924
 20
89.6339523352
 30
0.0
 10
27.7753055443
 20
89.4341403934
 30
0.0
 10
27.9775107399
 20
89.3903758752
 30
0.0
 10
28.0809002687
 20
89.3903758752
 30
0.0
  0
LINE
  5
4F3
100
AcDbEntity
  8
95198401000_M_BL5
100
AcDbLine
 62
7
  6
CONTINUOUS
 10
32.1822967967
 20
84.8903758752
 11
32.101912039
 21
85.1903758752
  0
SPLINE
  5
4F4
100
AcDbEntity
  8
95198401000_M_BL5
100
AcDbSpline
 62
7
  6
CONTINUOUS
 70
0
 71
3
 72
10
 73
6
 74
0
 42
0.0000001
 43
0.0000001
 44
0.0000000001
 40
0.0
 40
0.0
 40
0.0
 40
0.0
 40
0.500374879
 40
0.7506209717
 40
1.0
 40
1.0
 40
1.0
 40
1.0
 10
31.7131110838
 20
84.370769408
 30
0.0
 10
31.9575933926
 20
84.1427852911
 30
0.0
 10
32.3438422153
 20
83.8158902226
 30
0.0
 10
32.9254461439
 20
83.4874125657
 30
0.0
 10
33.2561456609
 20
83.3903688367
 30
0.0
 10
33.4227494993
 20
83.3903746502
 30
0.0
  0
ELLIPSE
  5
4F5
100
AcDbEntity
  8
95198401000_M_BL5
100
AcDbEllipse
 62
7
  6
CONTINUOUS
 10
138.7209424008
 20
905.8413689276
 30
0.0
 11
-0.0
 21
1.0
 31
0.0
 40
0.1051042353
 41
-1.5707963268
 42
-1.0722944727
  0
ELLIPSE
  5
4F6
100
AcDbEntity
  8
95198401000_M_BL5
100
AcDbEllipse
 62
7
  6
CONTINUOUS
 10
141.0585617222
 20
878.9413689276
 30
0.0
 11
-0.0
 21
1.0
 31
0.0
 40
0.9325150861
 41
-4.7123889804
 42
-3.5414107039
  0
ELLIPSE
  5
4F7
100
AcDbEntity
  8
95198401000_M_BL5
100
AcDbEllipse
 62
7
  6
CONTINUOUS
 10
141.0585617222
 20
905.8413689276
 30
0.0
 11
-0.0
 21
1.0
 31
0.0
 40
0.9325150861
 41
0.3998180503
 42
1.5707963268
  0
ELLIPSE
  5
4F8
100
AcDbEntity
  8
95198401000_M_BL5
100
AcDbEllipse
 62
7
  6
CONTINUOUS
 10
144.0780907319
 20
905.1413689276
 30
0.0
 11
-0.0
 21
0.3
 31
0.0
 40
0.7131600631
 41
-3.1415926536
 42
-1.5707963268
  0
ELLIPSE
  5
4F9
100
AcDbEntity
  8
95198401000_M_BL5
100
AcDbEllipse
 62
7
  6
CONTINUOUS
 10
144.0780907319
 20
879.6413689276
 30
0.0
 11
0.0
 21
0.3
 31
0.0
 40
0.7131600631
 41
-1.5707963268
 42
-0.0
  0
ELLIPSE
  5
4FA
100
AcDbEntity
  8
95198401000_M_BL5
100
AcDbEllipse
 62
7
  6
CONTINUOUS
 10
138.7209424008
 20
878.9413689276
 30
0.0
 11
-0.0
 21
1.0
 31
0.0
 40
0.1051042353
 41
-2.0692981809
 42
-1.5707963268
  0
ELLIPSE
  5
4FB
100
AcDbEntity
  8
95198401000_M_BL5
100
AcDbEllipse
 62
7
  6
CONTINUOUS
 10
31.6920857218
 20
878.4413689276
 30
0.0
 11
0.536184355
 21
0.0
 31
0.0
 40
0.9325150861
 41
-1.8421291862
 42
-1.5707963268
  0
ELLIPSE
  5
4FC
100
AcDbEntity
  8
95198401000_M_BL5
100
AcDbEllipse
 62
7
  6
CONTINUOUS
 10
31.6920857218
 20
906.3413689276
 30
0.0
 11
0.536184355
 21
0.0
 31
0.0
 40
0.9325150861
 41
7.853981634
 42
8.1253144934
  0
ELLIPSE
  5
4FD
100
AcDbEntity
  8
95198401000_M_BL5
100
AcDbEllipse
 62
7
  6
CONTINUOUS
 10
31.3189486977
 20
879.6413689276
 30
0.0
 11
-0.0
 21
0.3
 31
0.0
 40
0.7647705369
 41
-1.5707963268
 42
-0.0
  0
ELLIPSE
  5
4FE
100
AcDbEntity
  8
95198401000_M_BL5
100
AcDbEllipse
 62
7
  6
CONTINUOUS
 10
31.3189486977
 20
905.1413689276
 30
0.0
 11
-0.0
 21
0.3
 31
0.0
 40
0.7647705369
 41
-3.1415926536
 42
-1.5707963268
  0
ELLIPSE
  5
4FF
100
AcDbEntity
  8
95198401000_M_BL5
100
AcDbEllipse
 62
7
  6
CONTINUOUS
 10
34.6410996743
 20
903.8913689276
 30
0.0
 11
0.536184355
 21
0.0
 31
0.0
 40
0.9325150861
 41
-3.1415926536
 42
-1.5707963268
  0
ELLIPSE
  5
500
100
AcDbEntity
  8
95198401000_M_BL5
100
AcDbEllipse
 62
7
  6
CONTINUOUS
 10
34.6410996743
 20
880.8913689276
 30
0.0
 11
0.536184355
 21
0.0
 31
0.0
 40
0.9325150861
 41
1.5707963268
 42
3.1415926536
  0
ELLIPSE
  5
501
100
AcDbEntity
  8
95198401000_M_BL5
100
AcDbEllipse
 62
7
  6
CONTINUOUS
 10
28.2605058497
 20
905.1413689276
 30
0.0
 11
0.321710613
 21
0.0
 31
0.0
 40
0.9325150861
 41
-3.1415926536
 42
-1.5707963268
  0
ELLIPSE
  5
502
100
AcDbEntity
  8
95198401000_M_BL5
100
AcDbEllipse
 62
7
  6
CONTINUOUS
 10
28.2605058497
 20
879.6413689276
 30
0.0
 11
0.321710613
 21
0.0
 31
0.0
 40
0.9325150861
 41
1.5707963268
 42
3.1415926536
  0
ELLIPSE
  5
503
100
AcDbEntity
  8
95198401000_M_BL5
100
AcDbEllipse
 62
7
  6
CONTINUOUS
 10
27.4026108817
 20
878.4413689276
 30
0.0
 11
0.536184355
 21
0.0
 31
0.0
 40
0.9325150861
 41
-1.0014687884
 42
0.0
  0
ELLIPSE
  5
504
100
AcDbEntity
  8
95198401000_M_BL5
100
AcDbEllipse
 62
7
  6
CONTINUOUS
 10
27.4026108817
 20
906.3413689276
 30
0.0
 11
0.536184355
 21
0.0
 31
0.0
 40
0.9325150861
 41
0.0
 42
1.0014687884
  0
ENDBLK
  5
505
100
AcDbEntity
  8
0
  6
BYBLOCK
 62
0
100
AcDbBlockEnd
  0
BLOCK
  5
506
100
AcDbEntity
  8
93726700000_BL6
100
AcDbBlockBegin
  2
93726700000_BL6
 70
64
 10
100.4034734524
 20
893.624963148
  3
93726700000_BL6
  1

  0
LINE
  5
507
100
AcDbEntity
  8
93726700000_BL6
100
AcDbLine
 62
7
  6
CONTINUOUS
 10
136.8260466361
 20
881.9168502191
 11
136.8260466361
 21
883.0413689276
  0
LINE
  5
508
100
AcDbEntity
  8
93726700000_BL6
100
AcDbLine
 62
7
  6
CONTINUOUS
 10
136.8260466361
 20
889.7413689276
 11
136.8260466361
 21
889.9450773182
  0
LINE
  5
509
100
AcDbEntity
  8
93726700000_BL6
100
AcDbLine
 62
7
  6
CONTINUOUS
 10
136.8260466361
 20
894.837660537
 11
136.8260466361
 21
895.0413689276
  0
LINE
  5
50A
100
AcDbEntity
  8
93726700000_BL6
100
AcDbLine
 62
7
  6
CONTINUOUS
 10
136.8260466361
 20
901.7413689276
 11
136.8260466361
 21
902.8658876362
  0
LINE
  5
50B
100
AcDbEntity
  8
93726700000_BL6
100
AcDbLine
 62
9
  6
CONTINUOUS
 10
137.3260466361
 20
880.3178452849
 11
137.3260466361
 21
881.4109768753
  0
LINE
  5
50C
100
AcDbEntity
  8
93726700000_BL6
100
AcDbLine
 62
9
  6
CONTINUOUS
 10
137.3260466361
 20
889.7413689276
 11
137.3260466361
 21
889.8913689276
  0
LINE
  5
50D
100
AcDbEntity
  8
93726700000_BL6
100
AcDbLine
 62
9
  6
CONTINUOUS
 10
137.3260466361
 20
894.8913689276
 11
137.3260466361
 21
895.0413689276
  0
LINE
  5
50E
100
AcDbEntity
  8
93726700000_BL6
100
AcDbLine
 62
9
  6
CONTINUOUS
 10
137.3260466361
 20
903.3717609793
 11
137.3260466361
 21
904.4648925704
  0
LINE
  5
50F
100
AcDbEntity
  8
93726700000_BL6
100
AcDbLine
 62
9
  6
CONTINUOUS
 10
147.5260466361
 20
904.4648925704
 11
147.5260466361
 21
903.3850420755
  0
LINE
  5
510
100
AcDbEntity
  8
93726700000_BL6
100
AcDbLine
 62
9
  6
CONTINUOUS
 10
147.5260466361
 20
881.3976958599
 11
147.5260466361
 21
880.3178452849
  0
LINE
  5
511
100
AcDbEntity
  8
93726700000_BL6
100
AcDbLine
 62
7
  6
CONTINUOUS
 10
148.0260466361
 20
902.8658876362
 11
148.0260466361
 21
901.6413689276
  0
LINE
  5
512
100
AcDbEntity
  8
93726700000_BL6
100
AcDbLine
 62
7
  6
CONTINUOUS
 10
148.0260466361
 20
883.1413689276
 11
148.0260466361
 21
881.9168502191
  0
LINE
  5
513
100
AcDbEntity
  8
93726700000_BL6
100
AcDbLine
 62
7
  6
CONTINUOUS
 10
145.6353345526
 20
906.9320810112
 11
146.5641111049
 21
906.0033044588
  0
LINE
  5
514
100
AcDbEntity
  8
93726700000_BL6
100
AcDbLine
 62
7
  6
CONTINUOUS
 10
52.7809002687
 20
895.8913689276
 11
52.7809002687
 21
893.6413689276
  0
LINE
  5
515
100
AcDbEntity
  8
93726700000_BL6
100
AcDbLine
 62
7
  6
CONTINUOUS
 10
52.7809002687
 20
891.1413689276
 11
52.7809002687
 21
888.8913689276
  0
LINE
  5
516
100
AcDbEntity
  8
93726700000_BL6
100
AcDbLine
 62
9
  6
CONTINUOUS
 10
53.2809002687
 20
895.8913689276
 11
53.2809002687
 21
893.6413689276
  0
LINE
  5
517
100
AcDbEntity
  8
93726700000_BL6
100
AcDbLine
 62
9
  6
CONTINUOUS
 10
53.2809002687
 20
891.1413689276
 11
53.2809002687
 21
888.8913689276
  0
LINE
  5
518
100
AcDbEntity
  8
93726700000_BL6
100
AcDbLine
 62
9
  6
CONTINUOUS
 10
54.5809002687
 20
888.8913689276
 11
54.5809002687
 21
891.1413689276
  0
LINE
  5
519
100
AcDbEntity
  8
93726700000_BL6
100
AcDbLine
 62
7
  6
CONTINUOUS
 10
54.5809002687
 20
891.1413689276
 11
54.5809002687
 21
893.6413689276
  0
LINE
  5
51A
100
AcDbEntity
  8
93726700000_BL6
100
AcDbLine
 62
7
  6
CONTINUOUS
 10
55.0809002687
 20
888.8913689276
 11
55.0809002687
 21
891.1413689276
  0
LINE
  5
51B
100
AcDbEntity
  8
93726700000_BL6
100
AcDbLine
 62
9
  6
CONTINUOUS
 10
55.0809002687
 20
893.6413689276
 11
55.0809002687
 21
895.8913689276
  0
LINE
  5
51C
100
AcDbEntity
  8
93726700000_BL6
100
AcDbLine
 62
9
  6
CONTINUOUS
 10
55.3809002687
 20
888.8913689276
 11
55.3809002687
 21
891.1413689276
  0
LINE
  5
51D
100
AcDbEntity
  8
93726700000_BL6
100
AcDbLine
 62
7
  6
CONTINUOUS
 10
52.7809002687
 20
891.1413689276
 11
55.5809002687
 21
891.1413689276
  0
LINE
  5
51E
100
AcDbEntity
  8
93726700000_BL6
100
AcDbLine
 62
7
  6
CONTINUOUS
 10
52.7809002687
 20
893.6413689276
 11
55.5809002687
 21
893.6413689276
  0
ENDBLK
  5
51F
100
AcDbEntity
  8
0
  6
BYBLOCK
 62
0
100
AcDbBlockEnd
  0
BLOCK
  5
520
100
AcDbEntity
  8
94755099000_D_BL7
100
AcDbBlockBegin
  2
94755099000_D_BL7
 70
64
 10
87.4534734524
 20
489.5908724014
  3
94755099000_D_BL7
  1

  0
LINE
  5
521
100
AcDbEntity
  8
94755099000_D_BL7
100
AcDbLine
 62
7
  6
CONTINUOUS
 10
137.8801085187
 20
886.3913689276
 11
137.8801085187
 21
889.7413689276
  0
LINE
  5
522
100
AcDbEntity
  8
94755099000_D_BL7
100
AcDbLine
 62
7
  6
CONTINUOUS
 10
137.8801085187
 20
895.0413689276
 11
137.8801085187
 21
898.3913689276
  0
LINE
  5
523
100
AcDbEntity
  8
94755099000_D_BL7
100
AcDbLine
 62
9
  6
CONTINUOUS
 10
138.8282439129
 20
898.3913689276
 11
138.8282439129
 21
895.0413689276
  0
LINE
  5
524
100
AcDbEntity
  8
94755099000_D_BL7
100
AcDbLine
 62
9
  6
CONTINUOUS
 10
138.8282439129
 20
889.7413689276
 11
138.8282439129
 21
886.3913689276
  0
LINE
  5
525
100
AcDbEntity
  8
94755099000_D_BL7
100
AcDbLine
 62
9
  6
CONTINUOUS
 10
139.027148292
 20
898.3913689276
 11
139.027148292
 21
895.0413689276
  0
LINE
  5
526
100
AcDbEntity
  8
94755099000_D_BL7
100
AcDbLine
 62
9
  6
CONTINUOUS
 10
139.027148292
 20
889.7413689276
 11
139.027148292
 21
886.3913689276
  0
LINE
  5
527
100
AcDbEntity
  8
94755099000_D_BL7
100
AcDbLine
 62
9
  6
CONTINUOUS
 10
140.1260466361
 20
898.3913689276
 11
140.1260466361
 21
895.0413689276
  0
LINE
  5
528
100
AcDbEntity
  8
94755099000_D_BL7
100
AcDbLine
 62
9
  6
CONTINUOUS
 10
140.1260466361
 20
889.7413689276
 11
140.1260466361
 21
886.3913689276
  0
LINE
  5
529
100
AcDbEntity
  8
94755099000_D_BL7
100
AcDbLine
 62
9
  6
CONTINUOUS
 10
140.2723173764
 20
898.3913689276
 11
140.2723173764
 21
895.0413689276
  0
LINE
  5
52A
100
AcDbEntity
  8
94755099000_D_BL7
100
AcDbLine
 62
9
  6
CONTINUOUS
 10
140.2723173764
 20
889.7413689276
 11
140.2723173764
 21
886.3913689276
  0
LINE
  5
52B
100
AcDbEntity
  8
94755099000_D_BL7
100
AcDbLine
 62
7
  6
CONTINUOUS
 10
142.4260466361
 20
889.7413689276
 11
142.4260466361
 21
895.0413689276
  0
LINE
  5
52C
100
AcDbEntity
  8
94755099000_D_BL7
100
AcDbLine
 62
9
  6
CONTINUOUS
 10
142.9454527466
 20
889.7413689276
 11
142.9454527466
 21
895.0413689276
  0
LINE
  5
52D
100
AcDbEntity
  8
94755099000_D_BL7
100
AcDbLine
 62
9
  6
CONTINUOUS
 10
147.6230771885
 20
898.3913689276
 11
147.6230771885
 21
895.0413689276
  0
LINE
  5
52E
100
AcDbEntity
  8
94755099000_D_BL7
100
AcDbLine
 62
9
  6
CONTINUOUS
 10
147.6230771885
 20
889.7413689276
 11
147.6230771885
 21
886.3913689276
  0
LINE
  5
52F
100
AcDbEntity
  8
94755099000_D_BL7
100
AcDbLine
 62
9
  6
CONTINUOUS
 10
147.7574003377
 20
895.0413689276
 11
147.7574003377
 21
889.7413689276
  0
LINE
  5
530
100
AcDbEntity
  8
94755099000_D_BL7
100
AcDbLine
 62
7
  6
CONTINUOUS
 10
148.0260466361
 20
898.3913689276
 11
148.0260466361
 21
886.3913689276
  0
LINE
  5
531
100
AcDbEntity
  8
94755099000_D_BL7
100
AcDbLine
 62
7
  6
CONTINUOUS
 10
137.8801085187
 20
886.3913689276
 11
138.8282439129
 21
886.3913689276
  0
LINE
  5
532
100
AcDbEntity
  8
94755099000_D_BL7
100
AcDbLine
 62
7
  6
CONTINUOUS
 10
138.8282439129
 20
886.3913689276
 11
148.0260466361
 21
886.3913689276
  0
LINE
  5
533
100
AcDbEntity
  8
94755099000_D_BL7
100
AcDbLine
 62
7
  6
CONTINUOUS
 10
137.8801085187
 20
889.7413689276
 11
138.8282439129
 21
889.7413689276
  0
LINE
  5
534
100
AcDbEntity
  8
94755099000_D_BL7
100
AcDbLine
 62
7
  6
CONTINUOUS
 10
138.8282439129
 20
889.7413689276
 11
148.0256019365
 21
889.7413689276
  0
LINE
  5
535
100
AcDbEntity
  8
94755099000_D_BL7
100
AcDbLine
 62
7
  6
CONTINUOUS
 10
137.8801085187
 20
895.0413689276
 11
138.8282439129
 21
895.0413689276
  0
LINE
  5
536
100
AcDbEntity
  8
94755099000_D_BL7
100
AcDbLine
 62
7
  6
CONTINUOUS
 10
138.8282439129
 20
895.0413689276
 11
148.0256019365
 21
895.0413689276
  0
LINE
  5
537
100
AcDbEntity
  8
94755099000_D_BL7
100
AcDbLine
 62
7
  6
CONTINUOUS
 10
137.8801085187
 20
898.3913689276
 11
138.8282439129
 21
898.3913689276
  0
LINE
  5
538
100
AcDbEntity
  8
94755099000_D_BL7
100
AcDbLine
 62
7
  6
CONTINUOUS
 10
138.8282439129
 20
898.3913689276
 11
148.0260466361
 21
898.3913689276
  0
LINE
  5
539
100
AcDbEntity
  8
94755099000_D_BL7
100
AcDbLine
 62
7
  6
CONTINUOUS
 10
26.8809002687
 20
898.3913689276
 11
26.8809002687
 21
895.0413689276
  0
LINE
  5
53A
100
AcDbEntity
  8
94755099000_D_BL7
100
AcDbLine
 62
7
  6
CONTINUOUS
 10
26.8809002687
 20
889.7413689276
 11
26.8809002687
 21
886.3913689276
  0
LINE
  5
53B
100
AcDbEntity
  8
94755099000_D_BL7
100
AcDbLine
 62
9
  6
CONTINUOUS
 10
26.9445005966
 20
898.3913689276
 11
26.9445005966
 21
895.0413689276
  0
LINE
  5
53C
100
AcDbEntity
  8
94755099000_D_BL7
100
AcDbLine
 62
9
  6
CONTINUOUS
 10
26.9445005966
 20
889.7413689276
 11
26.9445005966
 21
886.3913689276
  0
LINE
  5
53D
100
AcDbEntity
  8
94755099000_D_BL7
100
AcDbLine
 62
7
  6
CONTINUOUS
 10
30.0089426704
 20
889.7413689276
 11
30.0089426704
 21
895.0413689276
  0
LINE
  5
53E
100
AcDbEntity
  8
94755099000_D_BL7
100
AcDbLine
 62
9
  6
CONTINUOUS
 10
30.1043431624
 20
889.7413689276
 11
30.1043431624
 21
895.0413689276
  0
LINE
  5
53F
100
AcDbEntity
  8
94755099000_D_BL7
100
AcDbLine
 62
9
  6
CONTINUOUS
 10
34.8272254141
 20
898.3913689276
 11
34.8272254141
 21
895.0413689276
  0
LINE
  5
540
100
AcDbEntity
  8
94755099000_D_BL7
100
AcDbLine
 62
9
  6
CONTINUOUS
 10
34.8272254141
 20
889.7413689276
 11
34.8272254141
 21
886.3913689276
  0
LINE
  5
541
100
AcDbEntity
  8
94755099000_D_BL7
100
AcDbLine
 62
9
  6
CONTINUOUS
 10
35.2645251934
 20
895.0413689276
 11
35.2645251934
 21
889.7413689276
  0
LINE
  5
542
100
AcDbEntity
  8
94755099000_D_BL7
100
AcDbLine
 62
9
  6
CONTINUOUS
 10
35.8502229541
 20
898.3913689276
 11
35.8502229541
 21
895.0413689276
  0
LINE
  5
543
100
AcDbEntity
  8
94755099000_D_BL7
100
AcDbLine
 62
9
  6
CONTINUOUS
 10
35.8502229541
 20
889.7413689276
 11
35.8502229541
 21
886.3913689276
  0
LINE
  5
544
100
AcDbEntity
  8
94755099000_D_BL7
100
AcDbLine
 62
9
  6
CONTINUOUS
 10
35.9465235535
 20
895.0413689276
 11
35.9465235535
 21
889.7413689276
  0
LINE
  5
545
100
AcDbEntity
  8
94755099000_D_BL7
100
AcDbLine
 62
7
  6
CONTINUOUS
 10
37.0809002687
 20
886.3913689276
 11
37.0809002687
 21
898.3913689276
  0
LINE
  5
546
100
AcDbEntity
  8
94755099000_D_BL7
100
AcDbLine
 62
7
  6
CONTINUOUS
 10
26.8809002687
 20
886.3913689276
 11
37.0809002687
 21
886.3913689276
  0
LINE
  5
547
100
AcDbEntity
  8
94755099000_D_BL7
100
AcDbLine
 62
7
  6
CONTINUOUS
 10
26.8809002687
 20
889.7413689276
 11
35.9465235535
 21
889.7413689276
  0
LINE
  5
548
100
AcDbEntity
  8
94755099000_D_BL7
100
AcDbLine
 62
7
  6
CONTINUOUS
 10
26.8809002687
 20
895.0413689276
 11
35.9465235535
 21
895.0413689276
  0
LINE
  5
549
100
AcDbEntity
  8
94755099000_D_BL7
100
AcDbLine
 62
7
  6
CONTINUOUS
 10
26.8809002687
 20
898.3913689276
 11
37.0809002687
 21
898.3913689276
  0
LINE
  5
54A
100
AcDbEntity
  8
94755099000_D_BL7
100
AcDbLine
 62
7
  6
CONTINUOUS
 10
26.8809002687
 20
89.7892742193
 11
26.8809002687
 21
88.6903758752
  0
LINE
  5
54B
100
AcDbEntity
  8
94755099000_D_BL7
100
AcDbLine
 62
7
  6
CONTINUOUS
 10
26.9445005966
 20
88.5441051349
 11
34.8272254141
 21
81.1933453228
  0
LINE
  5
54C
100
AcDbEntity
  8
94755099000_D_BL7
100
AcDbLine
 62
7
  6
CONTINUOUS
 10
35.8502229542
 20
80.7903758752
 11
35.9465235535
 21
80.7903758752
  0
LINE
  5
54D
100
AcDbEntity
  8
94755099000_D_BL7
100
AcDbLine
 62
7
  6
CONTINUOUS
 10
27.0809002687
 20
89.9903758752
 11
27.059994576
 21
89.9881785984
  0
ARC
  5
54E
100
AcDbEntity
  8
94755099000_D_BL7
100
AcDbCircle
 62
7
  6
CONTINUOUS
 10
35.8502229541
 20
82.2903758752
 40
1.5
100
AcDbArc
 50
227.0
 51
270.0
  0
ARC
  5
54F
100
AcDbEntity
  8
94755099000_D_BL7
100
AcDbCircle
 62
7
  6
CONTINUOUS
 10
27.0809002687
 20
88.6903758752
 40
0.2
100
AcDbArc
 50
180.0
 51
227.0
  0
ARC
  5
550
100
AcDbEntity
  8
94755099000_D_BL7
100
AcDbCircle
 62
7
  6
CONTINUOUS
 10
27.0809002687
 20
89.7892742193
 40
0.2
100
AcDbArc
 50
96.0
 51
180.0
  0
ENDBLK
  5
551
100
AcDbEntity
  8
0
  6
BYBLOCK
 62
0
100
AcDbBlockEnd
  0
BLOCK
  5
552
100
AcDbEntity
  8
93208800000_M2_BL8
100
AcDbBlockBegin
  2
93208800000_M2_BL8
 70
64
 10
94.8409734524
 20
260.8913689276
  3
93208800000_M2_BL8
  1

  0
LINE
  5
553
100
AcDbEntity
  8
93208800000_M2_BL8
100
AcDbLine
 62
7
  6
CONTINUOUS
 10
140.0510466361
 20
257.3669008827
 11
140.0510466361
 21
264.4158369726
  0
LINE
  5
554
100
AcDbEntity
  8
93208800000_M2_BL8
100
AcDbLine
 62
7
  6
CONTINUOUS
 10
144.8010466361
 20
264.4158369726
 11
144.8010466361
 21
257.3669008827
  0
LINE
  5
555
100
AcDbEntity
  8
93208800000_M2_BL8
100
AcDbLine
 62
7
  6
CONTINUOUS
 10
55.3809002687
 20
254.8913689276
 11
52.3809002687
 21
254.8913689276
  0
LINE
  5
556
100
AcDbEntity
  8
93208800000_M2_BL8
100
AcDbLine
 62
7
  6
CONTINUOUS
 10
54.1809002687
 20
256.6107441778
 11
52.3809002687
 21
256.6107441778
  0
LINE
  5
557
100
AcDbEntity
  8
93208800000_M2_BL8
100
AcDbLine
 62
9
  6
CONTINUOUS
 10
54.3809002687
 20
256.8913689276
 11
54.1809002687
 21
256.8913689276
  0
LINE
  5
558
100
AcDbEntity
  8
93208800000_M2_BL8
100
AcDbLine
 62
7
  6
CENTER
 10
58.3809002687
 20
260.8913689276
 11
44.8809002687
 21
260.8913689276
  0
LINE
  5
559
100
AcDbEntity
  8
93208800000_M2_BL8
100
AcDbLine
 62
9
  6
CONTINUOUS
 10
54.3809002687
 20
264.8913689276
 11
54.1809002687
 21
264.8913689276
  0
LINE
  5
55A
100
AcDbEntity
  8
93208800000_M2_BL8
100
AcDbLine
 62
7
  6
CONTINUOUS
 10
54.1809002687
 20
265.1719936774
 11
52.3809002687
 21
265.1719936774
  0
LINE
  5
55B
100
AcDbEntity
  8
93208800000_M2_BL8
100
AcDbLine
 62
7
  6
CONTINUOUS
 10
55.3809002687
 20
266.8913689276
 11
52.3809002687
 21
266.8913689276
  0
LINE
  5
55C
100
AcDbEntity
  8
93208800000_M2_BL8
100
AcDbLine
 62
7
  6
CONTINUOUS
 10
54.1809002687
 20
254.8913689276
 11
54.1809002687
 21
266.8913689276
  0
LINE
  5
55D
100
AcDbEntity
  8
93208800000_M2_BL8
100
AcDbLine
 62
9
  6
CONTINUOUS
 10
54.3809002687
 20
264.8913689276
 11
54.3809002687
 21
256.8913689276
  0
LINE
  5
55E
100
AcDbEntity
  8
93208800000_M2_BL8
100
AcDbLine
 62
7
  6
CONTINUOUS
 10
55.3809002687
 20
254.8913689276
 11
55.3809002687
 21
266.8913689276
  0
CIRCLE
  5
55F
100
AcDbEntity
  8
93208800000_M2_BL8
100
AcDbCircle
 62
7
  6
CONTINUOUS
 10
142.4260466361
 20
260.8913689276
 40
2.1
  0
SPLINE
  5
560
100
AcDbEntity
  8
93208800000_M2_BL8
100
AcDbSpline
 62
7
  6
CONTINUOUS
 70
0
 71
3
 72
12
 73
8
 74
0
 42
0.0000001
 43
0.0000001
 44
0.0000000001
 40
0.0
 40
0.0
 40
0.0
 40
0.0
 40
0.083041057
 40
0.1857373106
 40
0.4323568921
 40
0.7099357474
 40
1.0
 40
1.0
 40
1.0
 40
1.0
 10
55.3809002687
 20
255.1593181201
 30
0.0
 10
55.3809002687
 20
255.2151002152
 30
0.0
 10
55.3521385602
 20
255.3389432162
 30
0.0
 10
55.2373678975
 20
255.6056500122
 30
0.0
 10
55.0194787646
 20
255.9678286288
 30
0.0
 10
54.7137622638
 20
256.4209533091
 30
0.0
 10
54.4933958686
 20
256.7322761245
 30
0.0
 10
54.3809002687
 20
256.8913689276
 30
0.0
  0
SPLINE
  5
561
100
AcDbEntity
  8
93208800000_M2_BL8
100
AcDbSpline
 62
7
  6
CONTINUOUS
 70
0
 71
3
 72
12
 73
8
 74
0
 42
0.0000001
 43
0.0000001
 44
0.0000000001
 40
0.0
 40
0.0
 40
0.0
 40
0.0
 40
0.2900630267
 40
0.5676401667
 40
0.8142620556
 40
0.916958931
 40
1.0
 40
1.0
 40
1.0
 40
1.0
 10
54.3809002687
 20
264.8913689276
 30
0.0
 10
54.4933953933
 20
265.0504610586
 30
0.0
 10
54.7137607631
 20
265.3617822028
 30
0.0
 10
55.0194765521
 20
265.8149067694
 30
0.0
 10
55.2373674932
 20
266.1770853815
 30
0.0
 10
55.3521382271
 20
266.4437942749
 30
0.0
 10
55.3809002687
 20
266.5676376319
 30
0.0
 10
55.3809002687
 20
266.6234197352
 30
0.0
  0
ENDBLK
  5
562
100
AcDbEntity
  8
0
  6
BYBLOCK
 62
0
100
AcDbBlockEnd
  0
BLOCK
  5
563
100
AcDbEntity
  8
SUWN07008_A3_1_DR787_BL9
100
AcDbBlockBegin
  2
SUWN07008_A3_1_DR787_BL9
 70
64
 10
95.6026557664
 20
1010.3913689276
  3
SUWN07008_A3_1_DR787_BL9
  1

  0
LINE
  5
564
100
AcDbEntity
  8
SUWN07008_A3_1_DR787_BL9
100
AcDbLine
 62
7
  6
CENTER
 10
142.4260466361
 20
1010.3913689276
 11
142.4260466361
 21
1005.6930042996
  0
LINE
  5
565
100
AcDbEntity
  8
SUWN07008_A3_1_DR787_BL9
100
AcDbLine
 62
7
  6
CENTER
 10
142.4260466361
 20
1010.3913689276
 11
142.4260466361
 21
1015.0897335557
  0
LINE
  5
566
100
AcDbEntity
  8
SUWN07008_A3_1_DR787_BL9
100
AcDbLine
 62
7
  6
CENTER
 10
142.4260466361
 20
1010.3913689276
 11
137.727682008
 21
1010.3913689276
  0
LINE
  5
567
100
AcDbEntity
  8
SUWN07008_A3_1_DR787_BL9
100
AcDbLine
 62
7
  6
CENTER
 10
142.4260466361
 20
1010.3913689276
 11
147.1244112641
 21
1010.3913689276
  0
LINE
  5
568
100
AcDbEntity
  8
SUWN07008_A3_1_DR787_BL9
100
AcDbLine
 62
7
  6
CENTER
 10
55.0809002687
 20
1010.3913689276
 11
44.0809002687
 21
1010.3913689276
  0
ENDBLK
  5
569
100
AcDbEntity
  8
0
  6
BYBLOCK
 62
0
100
AcDbBlockEnd
  0
BLOCK
  5
56A
100
AcDbEntity
  8
SUWN07008_A3_1_DR788_BL10
100
AcDbBlockBegin
  2
SUWN07008_A3_1_DR788_BL10
 70
64
 10
95.6703853786
 20
794.8913689276
  3
SUWN07008_A3_1_DR788_BL10
  1

  0
LINE
  5
56B
100
AcDbEntity
  8
SUWN07008_A3_1_DR788_BL10
100
AcDbLine
 62
7
  6
CENTER
 10
142.4260466361
 20
794.8913689276
 11
142.4260466361
 21
790.0575450752
  0
LINE
  5
56C
100
AcDbEntity
  8
SUWN07008_A3_1_DR788_BL10
100
AcDbLine
 62
7
  6
CENTER
 10
142.4260466361
 20
794.8913689276
 11
142.4260466361
 21
799.72519278
  0
LINE
  5
56D
100
AcDbEntity
  8
SUWN07008_A3_1_DR788_BL10
100
AcDbLine
 62
7
  6
CENTER
 10
142.4260466361
 20
794.8913689276
 11
137.5922227837
 21
794.8913689276
  0
LINE
  5
56E
100
AcDbEntity
  8
SUWN07008_A3_1_DR788_BL10
100
AcDbLine
 62
7
  6
CENTER
 10
142.4260466361
 20
794.8913689276
 11
147.2598704885
 21
794.8913689276
  0
LINE
  5
56F
100
AcDbEntity
  8
SUWN07008_A3_1_DR788_BL10
100
AcDbLine
 62
7
  6
CENTER
 10
55.0809002687
 20
794.8913689276
 11
44.0809002687
 21
794.8913689276
  0
ENDBLK
  5
570
100
AcDbEntity
  8
0
  6
BYBLOCK
 62
0
100
AcDbBlockEnd
  0
BLOCK
  5
571
100
AcDbEntity
  8
62907801000_BL11
100
AcDbBlockBegin
  2
62907801000_BL11
 70
64
 10
142.1278999329
 20
892.3913689276
  3
62907801000_BL11
  1

  0
LINE
  5
572
100
AcDbEntity
  8
62907801000_BL11
100
AcDbLine
 62
7
  6
CENTER
 10
130.3302692619
 20
892.3913689276
 11
153.9255306039
 21
892.3913689276
  0
ENDBLK
  5
573
100
AcDbEntity
  8
0
  6
BYBLOCK
 62
0
100
AcDbBlockEnd
  0
BLOCK
  5
574
100
AcDbEntity
  8
93725700000_M_BL12
100
AcDbBlockBegin
  2
93725700000_M_BL12
 70
64
 10
70.5309002687
 20
516.0158724014
  3
93725700000_M_BL12
  1

  0
LINE
  5
575
100
AcDbEntity
  8
93725700000_M_BL12
100
AcDbLine
 62
7
  6
CONTINUOUS
 10
67.8695754033
 20
950.7913689276
 11
67.9273104302
 21
950.8913689276
  0
LINE
  5
576
100
AcDbEntity
  8
93725700000_M_BL12
100
AcDbLine
 62
7
  6
CONTINUOUS
 10
52.6809002687
 20
831.8913689276
 11
52.6809002687
 21
833.9913689276
  0
LINE
  5
577
100
AcDbEntity
  8
93725700000_M_BL12
100
AcDbLine
 62
7
  6
CONTINUOUS
 10
52.6809002687
 20
950.7913689276
 11
52.6809002687
 21
952.8913689276
  0
LINE
  5
578
100
AcDbEntity
  8
93725700000_M_BL12
100
AcDbLine
 62
7
  6
CONTINUOUS
 10
64.8809002687
 20
950.8913689276
 11
64.8809002687
 21
950.7913689276
  0
LINE
  5
579
100
AcDbEntity
  8
93725700000_M_BL12
100
AcDbLine
 62
9
  6
CONTINUOUS
 10
74.4809002687
 20
833.3913689276
 11
74.4809002685
 21
832.3913689276
  0
LINE
  5
57A
100
AcDbEntity
  8
93725700000_M_BL12
100
AcDbLine
 62
9
  6
CONTINUOUS
 10
74.4809002687
 20
951.3913689276
 11
74.4809002687
 21
952.3913689276
  0
LINE
  5
57B
100
AcDbEntity
  8
93725700000_M_BL12
100
AcDbLine
 62
7
  6
CONTINUOUS
 10
74.6809002687
 20
950.8913689276
 11
74.6809002687
 21
950.7913689276
  0
LINE
  5
57C
100
AcDbEntity
  8
93725700000_M_BL12
100
AcDbLine
 62
7
  6
CONTINUOUS
 10
76.1809002687
 20
950.7384799908
 11
76.1809002687
 21
950.8416284409
  0
LINE
  5
57D
100
AcDbEntity
  8
93725700000_M_BL12
100
AcDbLine
 62
7
  6
CONTINUOUS
 10
80.2309002687
 20
949.9075629186
 11
80.2309002687
 21
949.7882659898
  0
LINE
  5
57E
100
AcDbEntity
  8
93725700000_M_BL12
100
AcDbLine
 62
7
  6
CONTINUOUS
 10
80.2309002687
 20
834.9944718655
 11
80.2309002687
 21
834.8751749367
  0
LINE
  5
57F
100
AcDbEntity
  8
93725700000_M_BL12
100
AcDbLine
 62
7
  6
CONTINUOUS
 10
81.7309002687
 20
835.5583061599
 11
81.7309002687
 21
835.6864900091
  0
LINE
  5
580
100
AcDbEntity
  8
93725700000_M_BL12
100
AcDbLine
 62
7
  6
CONTINUOUS
 10
81.7309002687
 20
949.0962478462
 11
81.7309002687
 21
949.2244316954
  0
LINE
  5
581
100
AcDbEntity
  8
93725700000_M_BL12
100
AcDbLine
 62
7
  6
CONTINUOUS
 10
89.4809002687
 20
936.3913689276
 11
89.4809002687
 21
848.3913689276
  0
LINE
  5
582
100
AcDbEntity
  8
93725700000_M_BL12
100
AcDbLine
 62
9
  6
CONTINUOUS
 10
89.9809002687
 20
848.8913689276
 11
89.9809002687
 21
935.8913689276
  0
LINE
  5
583
100
AcDbEntity
  8
93725700000_M_BL12
100
AcDbLine
 62
7
  6
CONTINUOUS
 10
90.9809002687
 20
848.8913689276
 11
90.9809002687
 21
935.8913689276
  0
LINE
  5
584
100
AcDbEntity
  8
93725700000_M_BL12
100
AcDbLine
 62
7
  6
CONTINUOUS
 10
52.6809002687
 20
831.8913689276
 11
52.3809002687
 21
831.8913689276
  0
LINE
  5
585
100
AcDbEntity
  8
93725700000_M_BL12
100
AcDbLine
 62
7
  6
CONTINUOUS
 10
52.6809002687
 20
832.3913689276
 11
74.4809002687
 21
832.3913689276
  0
LINE
  5
586
100
AcDbEntity
  8
93725700000_M_BL12
100
AcDbLine
 62
7
  6
CONTINUOUS
 10
52.6809002687
 20
833.0347975562
 11
52.5809002687
 21
833.0347975562
  0
LINE
  5
587
100
AcDbEntity
  8
93725700000_M_BL12
100
AcDbLine
 62
9
  6
CONTINUOUS
 10
52.6809002687
 20
833.3913689276
 11
74.4809002687
 21
833.3913689276
  0
LINE
  5
588
100
AcDbEntity
  8
93725700000_M_BL12
100
AcDbLine
 62
7
  6
CONTINUOUS
 10
74.9809002687
 20
833.8913689276
 11
52.6809002687
 21
833.8913689276
  0
LINE
  5
589
100
AcDbEntity
  8
93725700000_M_BL12
100
AcDbLine
 62
7
  6
CONTINUOUS
 10
87.4197951046
 20
841.1413689276
 11
87.5267207847
 21
841.1413689276
  0
LINE
  5
58A
100
AcDbEntity
  8
93725700000_M_BL12
100
AcDbLine
 62
7
  6
CONTINUOUS
 10
88.2920797806
 20
842.6413689276
 11
88.1705450091
 21
842.6413689276
  0
LINE
  5
58B
100
AcDbEntity
  8
93725700000_M_BL12
100
AcDbLine
 62
7
  6
CONTINUOUS
 10
89.3280113318
 20
847.1913689276
 11
89.4311597819
 21
847.1913689276
  0
LINE
  5
58C
100
AcDbEntity
  8
93725700000_M_BL12
100
AcDbLine
 62
9
  6
CONTINUOUS
 10
89.9809002687
 20
848.8913689276
 11
90.9809002687
 21
848.8913689276
  0
LINE
  5
58D
100
AcDbEntity
  8
93725700000_M_BL12
100
AcDbLine
 62
7
  6
CONTINUOUS
 10
89.4809002687
 20
857.5913689276
 11
89.3809002687
 21
857.5913689276
  0
LINE
  5
58E
100
AcDbEntity
  8
93725700000_M_BL12
100
AcDbLine
 62
7
  6
CONTINUOUS
 10
89.3809002687
 20
874.7413689276
 11
89.4809002687
 21
874.7413689276
  0
LINE
  5
58F
100
AcDbEntity
  8
93725700000_M_BL12
100
AcDbLine
 62
7
  6
CONTINUOUS
 10
89.4809002687
 20
876.2413689276
 11
89.3809002687
 21
876.2413689276
  0
LINE
  5
590
100
AcDbEntity
  8
93725700000_M_BL12
100
AcDbLine
 62
7
  6
CONTINUOUS
 10
89.3809002687
 20
908.5413689276
 11
89.4809002687
 21
908.5413689276
  0
LINE
  5
591
100
AcDbEntity
  8
93725700000_M_BL12
100
AcDbLine
 62
7
  6
CONTINUOUS
 10
89.4809002687
 20
910.0413689276
 11
89.3809002687
 21
910.0413689276
  0
LINE
  5
592
100
AcDbEntity
  8
93725700000_M_BL12
100
AcDbLine
 62
7
  6
CONTINUOUS
 10
89.3809002687
 20
916.8913689276
 11
89.4809002687
 21
916.8913689276
  0
LINE
  5
593
100
AcDbEntity
  8
93725700000_M_BL12
100
AcDbLine
 62
7
  6
CONTINUOUS
 10
89.4809002687
 20
918.3913689276
 11
89.3809002687
 21
918.3913689276
  0
LINE
  5
594
100
AcDbEntity
  8
93725700000_M_BL12
100
AcDbLine
 62
7
  6
CONTINUOUS
 10
89.3809002687
 20
927.1913689276
 11
89.4809002687
 21
927.1913689276
  0
LINE
  5
595
100
AcDbEntity
  8
93725700000_M_BL12
100
AcDbLine
 62
9
  6
CONTINUOUS
 10
89.9809002687
 20
935.8913689276
 11
90.9809002687
 21
935.8913689275
  0
LINE
  5
596
100
AcDbEntity
  8
93725700000_M_BL12
100
AcDbLine
 62
7
  6
CONTINUOUS
 10
89.4311597819
 20
937.5913689276
 11
89.3280113318
 21
937.5913689276
  0
LINE
  5
597
100
AcDbEntity
  8
93725700000_M_BL12
100
AcDbLine
 62
7
  6
CONTINUOUS
 10
88.1705450091
 20
942.1413689276
 11
88.2920797806
 21
942.1413689276
  0
LINE
  5
598
100
AcDbEntity
  8
93725700000_M_BL12
100
AcDbLine
 62
7
  6
CONTINUOUS
 10
87.5267207847
 20
943.6413689276
 11
87.4197951046
 21
943.6413689276
  0
LINE
  5
599
100
AcDbEntity
  8
93725700000_M_BL12
100
AcDbLine
 62
7
  6
CONTINUOUS
 10
52.6809002687
 20
950.8913689276
 11
74.9809002687
 21
950.8913689276
  0
LINE
  5
59A
100
AcDbEntity
  8
93725700000_M_BL12
100
AcDbLine
 62
9
  6
CONTINUOUS
 10
74.4809002687
 20
951.3913689276
 11
52.6809002687
 21
951.3913689276
  0
LINE
  5
59B
100
AcDbEntity
  8
93725700000_M_BL12
100
AcDbLine
 62
7
  6
CONTINUOUS
 10
52.6809002687
 20
951.7479402991
 11
52.5809002687
 21
951.7479402991
  0
LINE
  5
59C
100
AcDbEntity
  8
93725700000_M_BL12
100
AcDbLine
 62
7
  6
CONTINUOUS
 10
74.4809002687
 20
952.3913689276
 11
52.6809002687
 21
952.3913689276
  0
LINE
  5
59D
100
AcDbEntity
  8
93725700000_M_BL12
100
AcDbLine
 62
7
  6
CONTINUOUS
 10
52.6809002687
 20
952.8913689276
 11
50.0809002687
 21
952.8913689276
  0
LINE
  5
59E
100
AcDbEntity
  8
93725700000_M_BL12
100
AcDbLine
 62
7
  6
CONTINUOUS
 10
52.7809002687
 20
93.6403758752
 11
53.1809002687
 21
94.0403758752
  0
LINE
  5
59F
100
AcDbEntity
  8
93725700000_M_BL12
100
AcDbLine
 62
7
  6
CONTINUOUS
 10
89.9809002687
 20
79.1403758752
 11
52.6809002687
 21
79.1403758752
  0
LINE
  5
5A0
100
AcDbEntity
  8
93725700000_M_BL12
100
AcDbLine
 62
7
  6
CONTINUOUS
 10
52.6809002687
 20
79.1403758752
 11
52.6809002687
 21
92.1403758752
  0
LINE
  5
5A1
100
AcDbEntity
  8
93725700000_M_BL12
100
AcDbLine
 62
9
  6
CONTINUOUS
 10
90.9809002687
 20
80.1403758752
 11
52.6809002687
 21
80.1403758752
  0
LINE
  5
5A2
100
AcDbEntity
  8
93725700000_M_BL12
100
AcDbLine
 62
7
  6
CONTINUOUS
 10
52.6809002687
 20
83.5903758752
 11
50.0809002687
 21
83.5903758752
  0
LINE
  5
5A3
100
AcDbEntity
  8
93725700000_M_BL12
100
AcDbLine
 62
7
  6
CONTINUOUS
 10
52.6809002687
 20
89.1903758752
 11
50.0809002687
 21
89.1903758752
  0
LINE
  5
5A4
100
AcDbEntity
  8
93725700000_M_BL12
100
AcDbLine
 62
7
  6
CONTINUOUS
 10
52.6809002687
 20
92.1403758752
 11
50.0809002687
 21
92.1403758752
  0
LINE
  5
5A5
100
AcDbEntity
  8
93725700000_M_BL12
100
AcDbLine
 62
9
  6
CONTINUOUS
 10
50.0809002687
 20
92.6403758752
 11
90.9809002687
 21
92.6403758752
  0
LINE
  5
5A6
100
AcDbEntity
  8
93725700000_M_BL12
100
AcDbLine
 62
7
  6
CONTINUOUS
 10
50.0809002687
 20
93.6403758752
 11
89.9809002687
 21
93.6403758752
  0
LINE
  5
5A7
100
AcDbEntity
  8
93725700000_M_BL12
100
AcDbLine
 62
7
  6
CONTINUOUS
 10
74.3809002687
 20
94.0403758752
 11
53.1809002687
 21
94.0403758752
  0
LINE
  5
5A8
100
AcDbEntity
  8
93725700000_M_BL12
100
AcDbLine
 62
9
  6
CONTINUOUS
 10
74.4809002687
 20
79.1403758752
 11
74.4809002687
 21
93.6403758752
  0
LINE
  5
5A9
100
AcDbEntity
  8
93725700000_M_BL12
100
AcDbLine
 62
7
  6
CONTINUOUS
 10
74.7809002687
 20
93.6403758752
 11
74.3809002687
 21
94.0403758752
  0
LINE
  5
5AA
100
AcDbEntity
  8
93725700000_M_BL12
100
AcDbLine
 62
7
  6
CONTINUOUS
 10
90.9809002687
 20
92.6403758752
 11
90.9809002687
 21
80.1403758752
  0
CIRCLE
  5
5AB
100
AcDbEntity
  8
93725700000_M_BL12
100
AcDbCircle
 62
7
  6
CONTINUOUS
 10
55.5809002687
 20
837.3913689276
 40
2.25
  0
ARC
  5
5AC
100
AcDbEntity
  8
93725700000_M_BL12
100
AcDbCircle
 62
7
  6
CONTINUOUS
 10
59.5809002687
 20
834.8913689276
 40
1.0
100
AcDbArc
 50
244.3846610808
 51
270.0
  0
CIRCLE
  5
5AD
100
AcDbEntity
  8
93725700000_M_BL12
100
AcDbCircle
 62
7
  6
CONTINUOUS
 10
54.1809002687
 20
947.3913689276
 40
2.25
  0
ARC
  5
5AE
100
AcDbEntity
  8
93725700000_M_BL12
100
AcDbCircle
 62
7
  6
CONTINUOUS
 10
59.5809002687
 20
949.8913689276
 40
1.0
100
AcDbArc
 50
90.0
 51
115.6153389192
  0
ARC
  5
5AF
100
AcDbEntity
  8
93725700000_M_BL12
100
AcDbCircle
 62
7
  6
CONTINUOUS
 10
74.4809002687
 20
848.8913689276
 40
16.5
100
AcDbArc
 50
270.0
 51
360.0
  0
ARC
  5
5B0
100
AcDbEntity
  8
93725700000_M_BL12
100
AcDbCircle
 62
9
  6
CONTINUOUS
 10
74.4809002687
 20
848.8913689276
 40
15.5000000602
100
AcDbArc
 50
270.0
 51
360.0
  0
ARC
  5
5B1
100
AcDbEntity
  8
93725700000_M_BL12
100
AcDbCircle
 62
7
  6
CONTINUOUS
 10
74.9809002687
 20
848.3913689276
 40
14.5
100
AcDbArc
 50
270.0
 51
360.0
  0
CIRCLE
  5
5B2
100
AcDbEntity
  8
93725700000_M_BL12
100
AcDbCircle
 62
7
  6
CONTINUOUS
 10
76.0809002687
 20
863.8913689276
 40
3.0
  0
CIRCLE
  5
5B3
100
AcDbEntity
  8
93725700000_M_BL12
100
AcDbCircle
 62
7
  6
CONTINUOUS
 10
76.0809002687
 20
863.8913689276
 40
0.4411542732
  0
ARC
  5
5B4
100
AcDbEntity
  8
93725700000_M_BL12
100
AcDbCircle
 62
7
  6
CONTINUOUS
 10
74.4809002687
 20
935.8913689276
 40
16.5
100
AcDbArc
 50
0.0
 51
90.0
  0
ARC
  5
5B5
100
AcDbEntity
  8
93725700000_M_BL12
100
AcDbCircle
 62
9
  6
CONTINUOUS
 10
74.4809002687
 20
935.8913689276
 40
15.5000000602
100
AcDbArc
 50
0.0
 51
90.0
  0
ARC
  5
5B6
100
AcDbEntity
  8
93725700000_M_BL12
100
AcDbCircle
 62
7
  6
CONTINUOUS
 10
74.9809002687
 20
936.3913689276
 40
14.5
100
AcDbArc
 50
0.0
 51
90.0
  0
CIRCLE
  5
5B7
100
AcDbEntity
  8
93725700000_M_BL12
100
AcDbCircle
 62
7
  6
CONTINUOUS
 10
84.4809002687
 20
914.8913689276
 40
2.5
  0
ARC
  5
5B8
100
AcDbEntity
  8
93725700000_M_BL12
100
AcDbCircle
 62
7
  6
CONTINUOUS
 10
89.9809002687
 20
92.6403758752
 40
1.0
100
AcDbArc
 50
0.0
 51
90.0
  0
ARC
  5
5B9
100
AcDbEntity
  8
93725700000_M_BL12
100
AcDbCircle
 62
7
  6
CONTINUOUS
 10
89.9809002687
 20
80.1403758752
 40
1.0
100
AcDbArc
 50
270.0
 51
360.0
  0
ENDBLK
  5
5BA
100
AcDbEntity
  8
0
  6
BYBLOCK
 62
0
100
AcDbBlockEnd
  0
BLOCK
  5
5BB
100
AcDbEntity
  8
93725800000_BL13
100
AcDbBlockBegin
  2
93725800000_BL13
 70
64
 10
69.7309002687
 20
515.7658724014
  3
93725800000_BL13
  1

  0
LINE
  5
5BC
100
AcDbEntity
  8
93725800000_BL13
100
AcDbLine
 62
3
  6
CONTINUOUS
 10
52.5809002687
 20
832.3913689276
 11
52.5809002687
 21
833.9913689276
  0
LINE
  5
5BD
100
AcDbEntity
  8
93725800000_BL13
100
AcDbLine
 62
3
  6
CONTINUOUS
 10
52.5809002687
 20
950.7913689276
 11
52.5809002687
 21
952.3913689276
  0
LINE
  5
5BE
100
AcDbEntity
  8
93725800000_BL13
100
AcDbLine
 62
3
  6
CONTINUOUS
 10
55.5809002687
 20
888.8913689276
 11
55.5809002687
 21
895.8913689276
  0
LINE
  5
5BF
100
AcDbEntity
  8
93725800000_BL13
100
AcDbLine
 62
9
  6
CONTINUOUS
 10
65.0394789124
 20
941.3913689276
 11
65.0394789124
 21
943.8913689276
  0
LINE
  5
5C0
100
AcDbEntity
  8
93725800000_BL13
100
AcDbLine
 62
9
  6
CONTINUOUS
 10
66.1708497623
 20
943.8913689276
 11
66.1708497623
 21
941.3913689276
  0
LINE
  5
5C1
100
AcDbEntity
  8
93725800000_BL13
100
AcDbLine
 62
3
  6
CONTINUOUS
 10
68.7022206122
 20
943.8913689276
 11
68.7022206122
 21
941.3913689276
  0
LINE
  5
5C2
100
AcDbEntity
  8
93725800000_BL13
100
AcDbLine
 62
3
  6
CONTINUOUS
 10
71.4595799251
 20
943.8913689276
 11
71.4595799251
 21
941.3913689276
  0
LINE
  5
5C3
100
AcDbEntity
  8
93725800000_BL13
100
AcDbLine
 62
9
  6
CONTINUOUS
 10
73.990950775
 20
943.8913689276
 11
73.990950775
 21
941.3913689276
  0
LINE
  5
5C4
100
AcDbEntity
  8
93725800000_BL13
100
AcDbLine
 62
9
  6
CONTINUOUS
 10
75.1223216249
 20
941.3913689276
 11
75.1223216249
 21
943.8913689276
  0
LINE
  5
5C5
100
AcDbEntity
  8
93725800000_BL13
100
AcDbLine
 62
3
  6
CONTINUOUS
 10
89.3809002687
 20
848.3913689276
 11
89.3809002687
 21
936.3913689276
  0
LINE
  5
5C6
100
AcDbEntity
  8
93725800000_BL13
100
AcDbLine
 62
3
  6
CONTINUOUS
 10
50.0809002687
 20
832.3913689276
 11
52.5809002687
 21
832.3913689276
  0
LINE
  5
5C7
100
AcDbEntity
  8
93725800000_BL13
100
AcDbLine
 62
3
  6
CONTINUOUS
 10
52.5809002687
 20
833.9913689276
 11
74.9809002687
 21
833.9913689276
  0
LINE
  5
5C8
100
AcDbEntity
  8
93725800000_BL13
100
AcDbLine
 62
3
  6
CONTINUOUS
 10
50.0809002687
 20
888.8913689276
 11
55.5809002687
 21
888.8913689276
  0
LINE
  5
5C9
100
AcDbEntity
  8
93725800000_BL13
100
AcDbLine
 62
3
  6
CONTINUOUS
 10
50.0809002687
 20
895.8913689276
 11
55.5809002687
 21
895.8913689276
  0
LINE
  5
5CA
100
AcDbEntity
  8
93725800000_BL13
100
AcDbLine
 62
3
  6
CONTINUOUS
 10
75.1223216249
 20
941.3913689276
 11
65.0394789124
 21
941.3913689276
  0
LINE
  5
5CB
100
AcDbEntity
  8
93725800000_BL13
100
AcDbLine
 62
3
  6
CONTINUOUS
 10
75.1223216249
 20
943.8913689276
 11
65.0394789124
 21
943.8913689276
  0
LINE
  5
5CC
100
AcDbEntity
  8
93725800000_BL13
100
AcDbLine
 62
3
  6
CONTINUOUS
 10
74.9809002687
 20
950.7913689276
 11
52.5809002687
 21
950.7913689276
  0
LINE
  5
5CD
100
AcDbEntity
  8
93725800000_BL13
100
AcDbLine
 62
3
  6
CONTINUOUS
 10
52.5809002687
 20
952.3913689276
 11
50.0809002687
 21
952.3913689276
  0
LINE
  5
5CE
100
AcDbEntity
  8
93725800000_BL13
100
AcDbLine
 62
3
  6
CONTINUOUS
 10
52.6809002687
 20
79.1403758752
 11
50.0809002687
 21
79.1403758752
  0
LINE
  5
5CF
100
AcDbEntity
  8
93725800000_BL13
100
AcDbLine
 62
7
  6
CONTINUOUS
 10
52.5809002687
 20
79.1403758752
 11
52.5809002687
 21
80.6403758752
  0
LINE
  5
5D0
100
AcDbEntity
  8
93725800000_BL13
100
AcDbLine
 62
7
  6
CONTINUOUS
 10
52.6809002687
 20
80.6403758752
 11
50.0809002687
 21
80.6403758752
  0
CIRCLE
  5
5D1
100
AcDbEntity
  8
93725800000_BL13
100
AcDbCircle
 62
3
  6
CONTINUOUS
 10
55.5809002687
 20
837.3913689276
 40
2.25
  0
CIRCLE
  5
5D2
100
AcDbEntity
  8
93725800000_BL13
100
AcDbCircle
 62
3
  6
CONTINUOUS
 10
54.1809002687
 20
947.3913689276
 40
2.25
  0
ARC
  5
5D3
100
AcDbEntity
  8
93725800000_BL13
100
AcDbCircle
 62
3
  6
CONTINUOUS
 10
74.9809002687
 20
848.3913689276
 40
14.4
100
AcDbArc
 50
270.0
 51
360.0
  0
CIRCLE
  5
5D4
100
AcDbEntity
  8
93725800000_BL13
100
AcDbCircle
 62
3
  6
CONTINUOUS
 10
76.0809002687
 20
863.8913689276
 40
3.05
  0
ARC
  5
5D5
100
AcDbEntity
  8
93725800000_BL13
100
AcDbCircle
 62
3
  6
CONTINUOUS
 10
74.9809002687
 20
936.3913689276
 40
14.4
100
AcDbArc
 50
0.0
 51
90.0
  0
CIRCLE
  5
5D6
100
AcDbEntity
  8
93725800000_BL13
100
AcDbCircle
 62
3
  6
CONTINUOUS
 10
84.4809002687
 20
914.8913689276
 40
2.55
  0
ENDBLK
  5
5D7
100
AcDbEntity
  8
0
  6
BYBLOCK
 62
0
100
AcDbBlockEnd
  0
BLOCK
  5
5D8
100
AcDbEntity
  8
93726300000_M_BL14
100
AcDbBlockBegin
  2
93726300000_M_BL14
 70
64
 10
89.3814655301
 20
924.6483860235
  3
93726300000_M_BL14
  1

  0
LINE
  5
5D9
100
AcDbEntity
  8
93726300000_M_BL14
100
AcDbLine
 62
7
  6
CONTINUOUS
 10
89.3809002687
 20
923.9536933863
 11
89.4809002687
 21
924.6982019364
  0
LINE
  5
5DA
100
AcDbEntity
  8
93726300000_M_BL14
100
AcDbLine
 62
9
  6
CONTINUOUS
 10
89.3809002687
 20
924.3230184322
 11
89.4296277318
 21
924.3164735157
  0
ARC
  5
5DB
100
AcDbEntity
  8
93726300000_M_BL14
100
AcDbCircle
 62
7
  6
CONTINUOUS
 10
89.2816937989
 20
925.0930786608
 40
0.25
100
AcDbArc
 50
293.4135872922
 51
322.9265363689
  0
ARC
  5
5DC
100
AcDbEntity
  8
93726300000_M_BL14
100
AcDbCircle
 62
7
  6
CONTINUOUS
 10
89.2816937989
 20
925.0930786608
 40
0.25
100
AcDbArc
 50
37.0439300283
 51
66.5932871088
  0
ENDBLK
  5
5DD
100
AcDbEntity
  8
0
  6
BYBLOCK
 62
0
100
AcDbBlockEnd
  0
BLOCK
  5
5DE
100
AcDbEntity
  8
93726100000_M_BL15
100
AcDbBlockBegin
  2
93726100000_M_BL15
 70
64
 10
90.5309002687
 20
506.2559841288
  3
93726100000_M_BL15
  1

  0
LINE
  5
5DF
100
AcDbEntity
  8
93726100000_M_BL15
100
AcDbLine
 62
7
  6
CONTINUOUS
 10
91.6809002687
 20
921.9913689276
 11
91.6809002687
 21
923.9913689276
  0
LINE
  5
5E0
100
AcDbEntity
  8
93726100000_M_BL15
100
AcDbLine
 62
7
  6
CONTINUOUS
 10
89.4490312258
 20
927.119813743
 11
89.3809002687
 21
927.1138530566
  0
LINE
  5
5E1
100
AcDbEntity
  8
93726100000_M_BL15
100
AcDbLine
 62
7
  6
CONTINUOUS
 10
90.9809002687
 20
921.4913689276
 11
91.1809002687
 21
921.4913689276
  0
LINE
  5
5E2
100
AcDbEntity
  8
93726100000_M_BL15
100
AcDbLine
 62
7
  6
CONTINUOUS
 10
91.1809002687
 20
924.4913689276
 11
90.9809002687
 21
924.4913689276
  0
LINE
  5
5E3
100
AcDbEntity
  8
93726100000_M_BL15
100
AcDbLine
 62
7
  6
CONTINUOUS
 10
89.3809002687
 20
918.8688847987
 11
89.4490312258
 21
918.8629241123
  0
LINE
  5
5E4
100
AcDbEntity
  8
93726100000_M_BL15
100
AcDbLine
 62
7
  6
CONTINUOUS
 10
91.6809002687
 20
85.3903758752
 11
90.9809002687
 21
85.3903758752
  0
LINE
  5
5E5
100
AcDbEntity
  8
93726100000_M_BL15
100
AcDbLine
 62
7
  6
CONTINUOUS
 10
90.9809002687
 20
87.3903758752
 11
91.6809002687
 21
87.3903758752
  0
LINE
  5
5E6
100
AcDbEntity
  8
93726100000_M_BL15
100
AcDbLine
 62
9
  6
CONTINUOUS
 10
91.1809002687
 20
85.3903758752
 11
91.1809002687
 21
87.3903758752
  0
LINE
  5
5E7
100
AcDbEntity
  8
93726100000_M_BL15
100
AcDbLine
 62
7
  6
CONTINUOUS
 10
91.6809002687
 20
85.3903758752
 11
91.6809002687
 21
87.3903758752
  0
ARC
  5
5E8
100
AcDbEntity
  8
93726100000_M_BL15
100
AcDbCircle
 62
7
  6
CONTINUOUS
 10
89.4926090972
 20
919.3610214614
 40
0.5
100
AcDbArc
 50
265.0
 51
268.7261109792
  0
ARC
  5
5E9
100
AcDbEntity
  8
93726100000_M_BL15
100
AcDbCircle
 62
7
  6
CONTINUOUS
 10
89.4926090972
 20
926.6217163939
 40
0.5
100
AcDbArc
 50
91.2761238805
 51
95.0
  0
ARC
  5
5EA
100
AcDbEntity
  8
93726100000_M_BL15
100
AcDbCircle
 62
7
  6
CONTINUOUS
 10
91.1809002687
 20
923.9913689276
 40
0.5
100
AcDbArc
 50
0.0
 51
90.0
  0
ARC
  5
5EB
100
AcDbEntity
  8
93726100000_M_BL15
100
AcDbCircle
 62
7
  6
CONTINUOUS
 10
91.1809002687
 20
921.9913689276
 40
0.5
100
AcDbArc
 50
270.0
 51
360.0
  0
ENDBLK
  5
5EC
100
AcDbEntity
  8
0
  6
BYBLOCK
 62
0
100
AcDbBlockEnd
  0
BLOCK
  5
5ED
100
AcDbEntity
  8
63711301L00_BL16
100
AcDbBlockBegin
  2
63711301L00_BL16
 70
64
 10
41.4667988237
 20
892.3913689276
  3
63711301L00_BL16
  1

  0
LINE
  5
5EE
100
AcDbEntity
  8
63711301L00_BL16
100
AcDbLine
 62
7
  6
CENTER
 10
24.7984562468
 20
892.3913689276
 11
58.1351414006
 21
892.3913689276
  0
ENDBLK
  5
5EF
100
AcDbEntity
  8
0
  6
BYBLOCK
 62
0
100
AcDbBlockEnd
  0
BLOCK
  5
5F0
100
AcDbEntity
  8
93725900000_BL17
100
AcDbBlockBegin
  2
93725900000_BL17
 70
64
 10
51.3843904254
 20
91.127635128
  3
93725900000_BL17
  1

  0
LINE
  5
5F1
100
AcDbEntity
  8
93725900000_BL17
100
AcDbLine
 62
7
  6
CONTINUOUS
 10
52.6809002687
 20
90.8611901167
 11
50.2111538029
 21
90.1403758752
  0
LINE
  5
5F2
100
AcDbEntity
  8
93725900000_BL17
100
AcDbLine
 62
7
  6
CONTINUOUS
 10
50.2111538029
 20
90.1403758752
 11
50.0809002687
 21
90.6158637987
  0
LINE
  5
5F3
100
AcDbEntity
  8
93725900000_BL17
100
AcDbLine
 62
7
  6
CONTINUOUS
 10
50.0809002687
 20
91.4007471169
 11
52.6878805821
 21
92.1148943807
  0
ENDBLK
  5
5F4
100
AcDbEntity
  8
0
  6
BYBLOCK
 62
0
100
AcDbBlockEnd
  0
BLOCK
  5
5F5
100
AcDbEntity
  8
62849100000_M3_BL18
100
AcDbBlockBegin
  2
62849100000_M3_BL18
 70
64
 10
59.7071431502
 20
86.3903758752
  3
62849100000_M3_BL18
  1

  0
LINE
  5
5F6
100
AcDbEntity
  8
62849100000_M3_BL18
100
AcDbLine
 62
7
  6
CENTER
 10
94.3299904478
 20
86.3903758752
 11
25.0842958526
 21
86.3903758752
  0
ENDBLK
  5
5F7
100
AcDbEntity
  8
0
  6
BYBLOCK
 62
0
100
AcDbBlockEnd
  0
BLOCK
  5
5F8
100
AcDbEntity
  8
93480207R00_BL19
100
AcDbBlockBegin
  2
93480207R00_BL19
 70
64
 10
142.4260466361
 20
835.8913689276
  3
93480207R00_BL19
  1

  0
ARC
  5
5F9
100
AcDbEntity
  8
93480207R00_BL19
100
AcDbCircle
 62
7
  6
CONTINUOUS
 10
141.3679216361
 20
837.7240951884
 40
0.69125
100
AcDbArc
 50
253.5424067861
 51
346.457593214
  0
ARC
  5
5FA
100
AcDbEntity
  8
93480207R00_BL19
100
AcDbCircle
 62
7
  6
CONTINUOUS
 10
141.3679216361
 20
834.0586426669
 40
0.69125
100
AcDbArc
 50
13.5424067861
 51
106.4575932139
  0
ARC
  5
5FB
100
AcDbEntity
  8
93480207R00_BL19
100
AcDbCircle
 62
7
  6
CONTINUOUS
 10
140.3097966361
 20
835.8913689276
 40
0.69125
100
AcDbArc
 50
313.5424067861
 51
46.457593214
  0
ARC
  5
5FC
100
AcDbEntity
  8
93480207R00_BL19
100
AcDbCircle
 62
7
  6
CONTINUOUS
 10
141.0595759141
 20
836.6803011668
 40
0.3971355217
100
AcDbArc
 50
73.542406786
 51
226.4575932139
  0
ARC
  5
5FD
100
AcDbEntity
  8
93480207R00_BL19
100
AcDbCircle
 62
7
  6
CONTINUOUS
 10
141.0595759141
 20
835.1024366885
 40
0.3971355217
100
AcDbArc
 50
133.542406786
 51
286.457593214
  0
CIRCLE
  5
5FE
100
AcDbEntity
  8
93480207R00_BL19
100
AcDbCircle
 62
7
  6
CONTINUOUS
 10
142.4260466361
 20
835.8913689276
 40
3.75
  0
CIRCLE
  5
5FF
100
AcDbEntity
  8
93480207R00_BL19
100
AcDbCircle
 62
7
  6
CONTINUOUS
 10
142.4260466361
 20
835.8913689276
 40
1.975
  0
ARC
  5
600
100
AcDbEntity
  8
93480207R00_BL19
100
AcDbCircle
 62
7
  6
CONTINUOUS
 10
143.4841716361
 20
834.0586426669
 40
0.69125
100
AcDbArc
 50
73.542406786
 51
166.4575932139
  0
ARC
  5
601
100
AcDbEntity
  8
93480207R00_BL19
100
AcDbCircle
 62
7
  6
CONTINUOUS
 10
143.4841716361
 20
837.7240951884
 40
0.69125
100
AcDbArc
 50
193.542406786
 51
286.457593214
  0
ARC
  5
602
100
AcDbEntity
  8
93480207R00_BL19
100
AcDbCircle
 62
7
  6
CONTINUOUS
 10
144.5422966361
 20
835.8913689276
 40
0.69125
100
AcDbArc
 50
133.542406786
 51
226.4575932139
  0
CIRCLE
  5
603
100
AcDbEntity
  8
93480207R00_BL19
100
AcDbCircle
 62
7
  6
CONTINUOUS
 10
142.4260466361
 20
835.8913689276
 40
0.6
  0
ARC
  5
604
100
AcDbEntity
  8
93480207R00_BL19
100
AcDbCircle
 62
7
  6
CONTINUOUS
 10
143.7925173581
 20
836.6803011668
 40
0.3971355217
100
AcDbArc
 50
313.5424067861
 51
106.4575932139
  0
ARC
  5
605
100
AcDbEntity
  8
93480207R00_BL19
100
AcDbCircle
 62
7
  6
CONTINUOUS
 10
143.7925173581
 20
835.1024366885
 40
0.3971355217
100
AcDbArc
 50
253.5424067861
 51
46.457593214
  0
ARC
  5
606
100
AcDbEntity
  8
93480207R00_BL19
100
AcDbCircle
 62
7
  6
CONTINUOUS
 10
142.4260466361
 20
834.3135044493
 40
0.3971355217
100
AcDbArc
 50
193.542406786
 51
346.457593214
  0
ARC
  5
607
100
AcDbEntity
  8
93480207R00_BL19
100
AcDbCircle
 62
7
  6
CONTINUOUS
 10
142.4260466361
 20
837.469233406
 40
0.3971355217
100
AcDbArc
 50
13.5424067861
 51
166.4575932139
  0
ENDBLK
  5
608
100
AcDbEntity
  8
0
  6
BYBLOCK
 62
0
100
AcDbBlockEnd
  0
BLOCK
  5
609
100
AcDbEntity
  8
93480207R00_BL20
100
AcDbBlockBegin
  2
93480207R00_BL20
 70
64
 10
142.4260466361
 20
948.8913689276
  3
93480207R00_BL20
  1

  0
CIRCLE
  5
60A
100
AcDbEntity
  8
93480207R00_BL20
100
AcDbCircle
 62
7
  6
CONTINUOUS
 10
142.4260466361
 20
948.8913689276
 40
3.75
  0
CIRCLE
  5
60B
100
AcDbEntity
  8
93480207R00_BL20
100
AcDbCircle
 62
7
  6
CONTINUOUS
 10
142.4260466361
 20
948.8913689276
 40
1.975
  0
ARC
  5
60C
100
AcDbEntity
  8
93480207R00_BL20
100
AcDbCircle
 62
7
  6
CONTINUOUS
 10
143.4841716361
 20
947.0586426669
 40
0.69125
100
AcDbArc
 50
73.542406786
 51
166.4575932139
  0
ARC
  5
60D
100
AcDbEntity
  8
93480207R00_BL20
100
AcDbCircle
 62
7
  6
CONTINUOUS
 10
143.4841716361
 20
950.7240951884
 40
0.69125
100
AcDbArc
 50
193.542406786
 51
286.457593214
  0
ARC
  5
60E
100
AcDbEntity
  8
93480207R00_BL20
100
AcDbCircle
 62
7
  6
CONTINUOUS
 10
141.3679216361
 20
950.7240951884
 40
0.69125
100
AcDbArc
 50
253.5424067861
 51
346.457593214
  0
ARC
  5
60F
100
AcDbEntity
  8
93480207R00_BL20
100
AcDbCircle
 62
7
  6
CONTINUOUS
 10
141.3679216361
 20
947.0586426669
 40
0.69125
100
AcDbArc
 50
13.5424067861
 51
106.4575932139
  0
ARC
  5
610
100
AcDbEntity
  8
93480207R00_BL20
100
AcDbCircle
 62
7
  6
CONTINUOUS
 10
144.5422966361
 20
948.8913689276
 40
0.69125
100
AcDbArc
 50
133.542406786
 51
226.4575932139
  0
ARC
  5
611
100
AcDbEntity
  8
93480207R00_BL20
100
AcDbCircle
 62
7
  6
CONTINUOUS
 10
140.3097966361
 20
948.8913689276
 40
0.69125
100
AcDbArc
 50
313.5424067861
 51
46.457593214
  0
CIRCLE
  5
612
100
AcDbEntity
  8
93480207R00_BL20
100
AcDbCircle
 62
7
  6
CONTINUOUS
 10
142.4260466361
 20
948.8913689276
 40
0.6
  0
ARC
  5
613
100
AcDbEntity
  8
93480207R00_BL20
100
AcDbCircle
 62
7
  6
CONTINUOUS
 10
143.7925173581
 20
949.6803011668
 40
0.3971355217
100
AcDbArc
 50
313.5424067861
 51
106.4575932139
  0
ARC
  5
614
100
AcDbEntity
  8
93480207R00_BL20
100
AcDbCircle
 62
7
  6
CONTINUOUS
 10
143.7925173581
 20
948.1024366885
 40
0.3971355217
100
AcDbArc
 50
253.5424067861
 51
46.457593214
  0
ARC
  5
615
100
AcDbEntity
  8
93480207R00_BL20
100
AcDbCircle
 62
7
  6
CONTINUOUS
 10
142.4260466361
 20
947.3135044493
 40
0.3971355217
100
AcDbArc
 50
193.542406786
 51
346.457593214
  0
ARC
  5
616
100
AcDbEntity
  8
93480207R00_BL20
100
AcDbCircle
 62
7
  6
CONTINUOUS
 10
142.4260466361
 20
950.469233406
 40
0.3971355217
100
AcDbArc
 50
13.5424067861
 51
166.4575932139
  0
ARC
  5
617
100
AcDbEntity
  8
93480207R00_BL20
100
AcDbCircle
 62
7
  6
CONTINUOUS
 10
141.0595759141
 20
949.6803011668
 40
0.3971355217
100
AcDbArc
 50
73.542406786
 51
226.4575932139
  0
ARC
  5
618
100
AcDbEntity
  8
93480207R00_BL20
100
AcDbCircle
 62
7
  6
CONTINUOUS
 10
141.0595759141
 20
948.1024366885
 40
0.3971355217
100
AcDbArc
 50
133.542406786
 51
286.457593214
  0
ENDBLK
  5
619
100
AcDbEntity
  8
0
  6
BYBLOCK
 62
0
100
AcDbBlockEnd
  0
BLOCK
  5
61A
100
AcDbEntity
  8
0
100
AcDbBlockBegin
  2
_FILLED
 70
64
 10
0.0
 20
0.0
  3
_FILLED
  1

  0
SOLID
  5
61B
100
AcDbEntity
  8
0
  6
BYBLOCK
 62
0
100
AcDbTrace
 10
0.0
 20
0.0
 11
-1.0
 21
0.1428571429
 12
-1.0
 22
-0.1428571429
 13
-1.0
 23
-0.1428571429
  0
ENDBLK
  5
61C
100
AcDbEntity
  8
0
  6
BYBLOCK
 62
0
100
AcDbBlockEnd
  0
BLOCK
  5
61D
100
AcDbEntity
  8
0
100
AcDbBlockBegin
  2
_DOT
 70
64
 10
0.0
 20
0.0
  3
_DOT
  1

  0
LWPOLYLINE
  5
61E
100
AcDbEntity
  8
0
  6
BYBLOCK
 62
0
100
AcDbPolyline
 90
2
 70
1
 43
0.1428571429
 10
-0.0714285714
 20
0.0
 42
1.0
 10
0.0714285714
 20
0.0
 42
1.0
  0
LINE
  5
61F
100
AcDbEntity
  8
0
  6
BYBLOCK
 62
0
100
AcDbLine
 10
-0.1428571429
 20
0.0
 11
-1.0
 21
0.0
  0
ENDBLK
  5
620
100
AcDbEntity
  8
0
  6
BYBLOCK
 62
0
100
AcDbBlockEnd
  0
BLOCK
  5
621
100
AcDbEntity
  8
0
100
AcDbBlockBegin
 62
2
  6
CONTINUOUS
  2
*D0
 70
65
 10
0.0
 20
0.0
  3
*D0
  1

  0
MTEXT
  5
622
100
AcDbEntity
  8
0
100
AcDbMText
 62
5
  6
CONTINUOUS
  7
STANDARD
 71
1
 72
1
 10
54.4864288081
 20
1035.5017028436
 30
0.0
 11
1.0
 21
0.0
 31
0.0
 73
2
 44
0.9
  1
3
 40
2.5
 41
1.9496268657
  0
LINE
  5
623
100
AcDbEntity
  8
0
100
AcDbLine
 62
2
  6
CONTINUOUS
 10
50.0809002687
 20
1022.3913689276
 11
50.0809002687
 21
1033.3767028436
  0
LINE
  5
624
100
AcDbEntity
  8
0
100
AcDbLine
 62
2
  6
CONTINUOUS
 10
47.0809002687
 20
1022.3913689276
 11
47.0809002687
 21
1033.3767028436
  0
LINE
  5
625
100
AcDbEntity
  8
0
100
AcDbLine
 62
2
  6
CONTINUOUS
 10
50.0809002687
 20
1032.3767028436
 11
56.4360556738
 21
1032.3767028436
  0
LINE
  5
626
100
AcDbEntity
  8
0
100
AcDbLine
 62
2
  6
CONTINUOUS
 10
56.4360556738
 20
1032.3767028436
 11
48.5809002687
 21
1032.3767028436
  0
LINE
  5
627
100
AcDbEntity
  8
0
100
AcDbLine
 62
2
  6
CONTINUOUS
 10
47.0809002687
 20
1032.3767028436
 11
40.0809002687
 21
1032.3767028436
  0
LINE
  5
628
100
AcDbEntity
  8
0
100
AcDbLine
 62
2
  6
CONTINUOUS
 10
40.0809002687
 20
1032.3767028436
 11
48.5809002687
 21
1032.3767028436
  0
INSERT
  5
629
100
AcDbEntity
  8
0
100
AcDbBlockReference
 62
2
  6
CONTINUOUS
  2
_FILLED
 10
50.0809002687
 20
1032.3767028436
 41
3.5
 42
3.5
 43
3.5
 50
180.0
  0
INSERT
  5
62A
100
AcDbEntity
  8
0
100
AcDbBlockReference
 62
2
  6
CONTINUOUS
  2
_FILLED
 10
47.0809002687
 20
1032.3767028436
 41
3.5
 42
3.5
 43
3.5
  0
ENDBLK
  5
62B
100
AcDbEntity
  8
0
  6
BYBLOCK
 62
0
100
AcDbBlockEnd
  0
BLOCK
  5
62C
100
AcDbEntity
  8
0
100
AcDbBlockBegin
 62
2
  6
CONTINUOUS
  2
*D1
 70
65
 10
0.0
 20
0.0
  3
*D1
  1

  0
MTEXT
  5
62D
100
AcDbEntity
  8
0
100
AcDbMText
 62
5
  6
CONTINUOUS
  7
STANDARD
 71
2
 72
1
 10
142.4260466361
 20
1035.5017028436
 30
0.0
 11
1.0
 21
0.0
 31
0.0
 73
2
 44
0.9
  1
20
 40
2.5
 41
3.8992537313
  0
LINE
  5
62E
100
AcDbEntity
  8
0
100
AcDbLine
 62
2
  6
CONTINUOUS
 10
132.4260466361
 20
1012.3913689276
 11
132.4260466361
 21
1033.3767028436
  0
LINE
  5
62F
100
AcDbEntity
  8
0
100
AcDbLine
 62
2
  6
CONTINUOUS
 10
152.4260466361
 20
1012.3913689276
 11
152.4260466361
 21
1019.0164960634
  0
LINE
  5
630
100
AcDbEntity
  8
0
100
AcDbLine
 62
2
  6
CONTINUOUS
 10
152.4260466361
 20
1021.9993204343
 11
152.4260466361
 21
1033.3767028436
  0
LINE
  5
631
100
AcDbEntity
  8
0
100
AcDbLine
 62
2
  6
CONTINUOUS
 10
132.4260466361
 20
1032.3767028436
 11
142.4260466361
 21
1032.3767028436
  0
LINE
  5
632
100
AcDbEntity
  8
0
100
AcDbLine
 62
2
  6
CONTINUOUS
 10
152.4260466361
 20
1032.3767028436
 11
142.4260466361
 21
1032.3767028436
  0
INSERT
  5
633
100
AcDbEntity
  8
0
100
AcDbBlockReference
 62
2
  6
CONTINUOUS
  2
_FILLED
 10
132.4260466361
 20
1032.3767028436
 41
3.5
 42
3.5
 43
3.5
 50
180.0
  0
INSERT
  5
634
100
AcDbEntity
  8
0
100
AcDbBlockReference
 62
2
  6
CONTINUOUS
  2
_FILLED
 10
152.4260466361
 20
1032.3767028436
 41
3.5
 42
3.5
 43
3.5
  0
ENDBLK
  5
635
100
AcDbEntity
  8
0
  6
BYBLOCK
 62
0
100
AcDbBlockEnd
  0
BLOCK
  5
636
100
AcDbEntity
  8
0
100
AcDbBlockBegin
 62
2
  6
CONTINUOUS
  2
*D2
 70
65
 10
0.0
 20
0.0
  3
*D2
  1

  0
MTEXT
  5
637
100
AcDbEntity
  8
0
100
AcDbMText
 62
5
  6
CONTINUOUS
  7
STANDARD
 71
2
 72
1
 10
98.5559002687
 20
987.3913689276
 30
0.0
 11
0.0
 21
1.0
 31
0.0
 73
2
 44
0.9
  1
70
 40
2.5
 41
3.8992537313
  0
LINE
  5
638
100
AcDbEntity
  8
0
100
AcDbLine
 62
2
  6
CONTINUOUS
 10
74.4809002687
 20
952.3913689276
 11
102.6809002687
 21
952.3913689276
  0
LINE
  5
639
100
AcDbEntity
  8
0
100
AcDbLine
 62
2
  6
CONTINUOUS
 10
50.0809002687
 20
1022.3913689276
 11
102.6809002687
 21
1022.3913689276
  0
LINE
  5
63A
100
AcDbEntity
  8
0
100
AcDbLine
 62
2
  6
CONTINUOUS
 10
101.6809002687
 20
952.3913689276
 11
101.6809002687
 21
987.3913689276
  0
LINE
  5
63B
100
AcDbEntity
  8
0
100
AcDbLine
 62
2
  6
CONTINUOUS
 10
101.6809002687
 20
1022.3913689276
 11
101.6809002687
 21
987.3913689276
  0
INSERT
  5
63C
100
AcDbEntity
  8
0
100
AcDbBlockReference
 62
2
  6
CONTINUOUS
  2
_FILLED
 10
101.6809002687
 20
952.3913689276
 41
3.5
 42
3.5
 43
3.5
 50
270.0
  0
INSERT
  5
63D
100
AcDbEntity
  8
0
100
AcDbBlockReference
 62
2
  6
CONTINUOUS
  2
_FILLED
 10
101.6809002687
 20
1022.3913689276
 41
3.5
 42
3.5
 43
3.5
 50
90.0
  0
ENDBLK
  5
63E
100
AcDbEntity
  8
0
  6
BYBLOCK
 62
0
100
AcDbBlockEnd
  0
BLOCK
  5
63F
100
AcDbEntity
  8
0
100
AcDbBlockBegin
 62
2
  6
CONTINUOUS
  2
*D3
 70
65
 10
0.0
 20
0.0
  3
*D3
  1

  0
MTEXT
  5
640
100
AcDbEntity
  8
0
100
AcDbMText
 62
5
  6
CONTINUOUS
  7
STANDARD
 71
2
 72
1
 10
98.5559002687
 20
892.3913689276
 30
0.0
 11
0.0
 21
1.0
 31
0.0
 73
2
 44
0.9
  1
120
 40
2.5
 41
5.848880597
  0
LINE
  5
641
100
AcDbEntity
  8
0
100
AcDbLine
 62
2
  6
CONTINUOUS
 10
74.4809002687
 20
952.3913689276
 11
102.6809002687
 21
952.3913689276
  0
LINE
  5
642
100
AcDbEntity
  8
0
100
AcDbLine
 62
2
  6
CONTINUOUS
 10
74.4809002685
 20
832.3913689276
 11
102.6809002687
 21
832.3913689276
  0
LINE
  5
643
100
AcDbEntity
  8
0
100
AcDbLine
 62
2
  6
CONTINUOUS
 10
101.6809002687
 20
952.3913689276
 11
101.6809002687
 21
892.3913689276
  0
LINE
  5
644
100
AcDbEntity
  8
0
100
AcDbLine
 62
2
  6
CONTINUOUS
 10
101.6809002687
 20
832.3913689276
 11
101.6809002687
 21
892.3913689276
  0
INSERT
  5
645
100
AcDbEntity
  8
0
100
AcDbBlockReference
 62
2
  6
CONTINUOUS
  2
_FILLED
 10
101.6809002687
 20
952.3913689276
 41
3.5
 42
3.5
 43
3.5
 50
90.0
  0
INSERT
  5
646
100
AcDbEntity
  8
0
100
AcDbBlockReference
 62
2
  6
CONTINUOUS
  2
_FILLED
 10
101.6809002687
 20
832.3913689276
 41
3.5
 42
3.5
 43
3.5
 50
270.0
  0
ENDBLK
  5
647
100
AcDbEntity
  8
0
  6
BYBLOCK
 62
0
100
AcDbBlockEnd
  0
BLOCK
  5
648
100
AcDbEntity
  8
0
100
AcDbBlockBegin
 62
2
  6
CONTINUOUS
  2
*D4
 70
65
 10
0.0
 20
0.0
  3
*D4
  1

  0
MTEXT
  5
649
100
AcDbEntity
  8
0
100
AcDbMText
 62
5
  6
CONTINUOUS
  7
STANDARD
 71
2
 72
1
 10
69.0309002687
 20
825.5163689276
 30
0.0
 11
1.0
 21
0.0
 31
0.0
 73
2
 44
0.9
  1
44
 40
2.5
 41
3.8992537313
  0
LINE
  5
64A
100
AcDbEntity
  8
0
100
AcDbLine
 62
2
  6
CONTINUOUS
 10
90.9809002687
 20
848.8913689276
 11
90.9809002687
 21
821.3913689276
  0
LINE
  5
64B
100
AcDbEntity
  8
0
100
AcDbLine
 62
2
  6
CONTINUOUS
 10
90.9809002687
 20
822.3913689276
 11
69.0309002687
 21
822.3913689276
  0
LINE
  5
64C
100
AcDbEntity
  8
0
100
AcDbLine
 62
2
  6
CONTINUOUS
 10
47.0809002687
 20
822.3913689276
 11
69.0309002687
 21
822.3913689276
  0
INSERT
  5
64D
100
AcDbEntity
  8
0
100
AcDbBlockReference
 62
2
  6
CONTINUOUS
  2
_FILLED
 10
90.9809002687
 20
822.3913689276
 41
3.5
 42
3.5
 43
3.5
  0
INSERT
  5
64E
100
AcDbEntity
  8
0
100
AcDbBlockReference
 62
2
  6
CONTINUOUS
  2
_FILLED
 10
47.0809002687
 20
822.3913689276
 41
3.5
 42
3.5
 43
3.5
 50
180.0
  0
ENDBLK
  5
64F
100
AcDbEntity
  8
0
  6
BYBLOCK
 62
0
100
AcDbBlockEnd
  0
BLOCK
  5
650
100
AcDbEntity
  8
0
100
AcDbBlockBegin
 62
2
  6
CONTINUOUS
  2
*D5
 70
65
 10
0.0
 20
0.0
  3
*D5
  1

  0
MTEXT
  5
651
100
AcDbEntity
  8
0
100
AcDbMText
 62
5
  6
CONTINUOUS
  7
STANDARD
 71
2
 72
1
 10
37.0809002687
 20
825.5163689276
 30
0.0
 11
1.0
 21
0.0
 31
0.0
 73
2
 44
0.9
  1
20
 40
2.5
 41
3.8992537313
  0
LINE
  5
652
100
AcDbEntity
  8
0
100
AcDbLine
 62
2
  6
CONTINUOUS
 10
27.0809002687
 20
878.9413689276
 11
27.0809002687
 21
821.3913689276
  0
LINE
  5
653
100
AcDbEntity
  8
0
100
AcDbLine
 62
2
  6
CONTINUOUS
 10
27.0809002687
 20
822.3913689276
 11
37.0809002687
 21
822.3913689276
  0
LINE
  5
654
100
AcDbEntity
  8
0
100
AcDbLine
 62
2
  6
CONTINUOUS
 10
47.0809002687
 20
822.3913689276
 11
37.0809002687
 21
822.3913689276
  0
INSERT
  5
655
100
AcDbEntity
  8
0
100
AcDbBlockReference
 62
2
  6
CONTINUOUS
  2
_FILLED
 10
27.0809002687
 20
822.3913689276
 41
3.5
 42
3.5
 43
3.5
 50
180.0
  0
INSERT
  5
656
100
AcDbEntity
  8
0
100
AcDbBlockReference
 62
2
  6
CONTINUOUS
  2
_FILLED
 10
47.0809002687
 20
822.3913689276
 41
3.5
 42
3.5
 43
3.5
  0
ENDBLK
  5
657
100
AcDbEntity
  8
0
  6
BYBLOCK
 62
0
100
AcDbBlockEnd
  0
BLOCK
  5
658
100
AcDbEntity
  8
0
100
AcDbBlockBegin
 62
2
  6
CONTINUOUS
  2
*D6
 70
65
 10
0.0
 20
0.0
  3
*D6
  1

  0
MTEXT
  5
659
100
AcDbEntity
  8
0
100
AcDbMText
 62
5
  6
CONTINUOUS
  7
STANDARD
 71
2
 72
1
 10
13.9559002687
 20
892.391371762
 30
0.0
 11
0.0
 21
1.0
 31
0.0
 73
2
 44
0.9
  1
29
 40
2.5
 41
3.8992537313
  0
LINE
  5
65A
100
AcDbEntity
  8
0
100
AcDbLine
 62
2
  6
CONTINUOUS
 10
33.4227441191
 20
877.9413716444
 11
16.080898187
 21
877.9413741427
  0
LINE
  5
65B
100
AcDbEntity
  8
0
100
AcDbLine
 62
2
  6
CONTINUOUS
 10
33.4227416761
 20
906.8413682105
 11
16.0809023504
 21
906.8413707088
  0
LINE
  5
65C
100
AcDbEntity
  8
0
100
AcDbLine
 62
2
  6
CONTINUOUS
 10
17.080898187
 20
877.9413739986
 11
17.0809002687
 21
892.3913722817
  0
LINE
  5
65D
100
AcDbEntity
  8
0
100
AcDbLine
 62
2
  6
CONTINUOUS
 10
17.0809023504
 20
906.8413705648
 11
17.0809002687
 21
892.3913722817
  0
INSERT
  5
65E
100
AcDbEntity
  8
0
100
AcDbBlockReference
 62
2
  6
CONTINUOUS
  2
_FILLED
 10
17.080898187
 20
877.9413739986
 41
3.5
 42
3.5
 43
3.5
 50
269.9999917459
  0
INSERT
  5
65F
100
AcDbEntity
  8
0
100
AcDbBlockReference
 62
2
  6
CONTINUOUS
  2
_FILLED
 10
17.0809023504
 20
906.8413705648
 41
3.5
 42
3.5
 43
3.5
 50
89.9999917459
  0
ENDBLK
  5
660
100
AcDbEntity
  8
0
  6
BYBLOCK
 62
0
100
AcDbBlockEnd
  0
BLOCK
  5
661
100
AcDbEntity
  8
0
100
AcDbBlockBegin
 62
2
  6
CONTINUOUS
  2
*D7
 70
65
 10
0.0
 20
0.0
  3
*D7
  1

  0
MTEXT
  5
662
100
AcDbEntity
  8
0
100
AcDbMText
 62
5
  6
CONTINUOUS
  7
STANDARD
 71
2
 72
1
 10
13.7559002687
 20
86.3903758752
 30
0.0
 11
0.0
 21
1.0
 31
0.0
 73
2
 44
0.9
  1
11.2
 40
2.5
 41
6.8190298507
  0
LINE
  5
663
100
AcDbEntity
  8
0
100
AcDbLine
 62
2
  6
CONTINUOUS
 10
35.9465235535
 20
80.7903758752
 11
15.8809002687
 21
80.7903758752
  0
LINE
  5
664
100
AcDbEntity
  8
0
100
AcDbLine
 62
2
  6
CONTINUOUS
 10
46.1096291771
 20
91.9903758752
 11
15.8809002687
 21
91.9903758752
  0
LINE
  5
665
100
AcDbEntity
  8
0
100
AcDbLine
 62
2
  6
CONTINUOUS
 10
16.8809002687
 20
80.7903758752
 11
16.8809002687
 21
73.7903758752
  0
LINE
  5
666
100
AcDbEntity
  8
0
100
AcDbLine
 62
2
  6
CONTINUOUS
 10
16.8809002687
 20
73.7903758752
 11
16.8809002687
 21
86.3903758752
  0
LINE
  5
667
100
AcDbEntity
  8
0
100
AcDbLine
 62
2
  6
CONTINUOUS
 10
16.8809002687
 20
91.9903758752
 11
16.8809002687
 21
98.9903758752
  0
LINE
  5
668
100
AcDbEntity
  8
0
100
AcDbLine
 62
2
  6
CONTINUOUS
 10
16.8809002687
 20
98.9903758752
 11
16.8809002687
 21
86.3903758752
  0
INSERT
  5
669
100
AcDbEntity
  8
0
100
AcDbBlockReference
 62
2
  6
CONTINUOUS
  2
_FILLED
 10
16.8809002687
 20
80.7903758752
 41
3.5
 42
3.5
 43
3.5
 50
90.0
  0
INSERT
  5
66A
100
AcDbEntity
  8
0
100
AcDbBlockReference
 62
2
  6
CONTINUOUS
  2
_FILLED
 10
16.8809002687
 20
91.9903758752
 41
3.5
 42
3.5
 43
3.5
 50
270.0
  0
ENDBLK
  5
66B
100
AcDbEntity
  8
0
  6
BYBLOCK
 62
0
100
AcDbBlockEnd
  0
BLOCK
  5
66C
100
AcDbEntity
  8
0
100
AcDbBlockBegin
 62
2
  6
CONTINUOUS
  2
*D8
 70
65
 10
0.0
 20
0.0
  3
*D8
  1

  0
MTEXT
  5
66D
100
AcDbEntity
  8
0
100
AcDbMText
 62
5
  6
CONTINUOUS
  7
STANDARD
 71
1
 72
1
 10
6.7559002687
 20
100.5219602221
 30
0.0
 11
0.0
 21
1.0
 31
0.0
 73
2
 44
0.9
  1
4.4
 40
2.5
 41
4.8694029851
  0
LINE
  5
66E
100
AcDbEntity
  8
0
100
AcDbLine
 62
2
  6
CONTINUOUS
 10
46.1096291771
 20
91.9903758752
 11
8.8809002687
 21
91.9903758752
  0
LINE
  5
66F
100
AcDbEntity
  8
0
100
AcDbLine
 62
2
  6
CONTINUOUS
 10
47.0809002687
 20
96.3903758752
 11
18.00253239
 21
96.3903758752
  0
LINE
  5
670
100
AcDbEntity
  8
0
100
AcDbLine
 62
2
  6
CONTINUOUS
 10
15.6047710197
 20
96.3903758752
 11
8.8809002687
 21
96.3903758752
  0
LINE
  5
671
100
AcDbEntity
  8
0
100
AcDbLine
 62
2
  6
CONTINUOUS
 10
9.8809002687
 20
91.9903758752
 11
9.8809002687
 21
84.9903758752
  0
LINE
  5
672
100
AcDbEntity
  8
0
100
AcDbLine
 62
2
  6
CONTINUOUS
 10
9.8809002687
 20
84.9903758752
 11
9.8809002687
 21
94.1903758752
  0
LINE
  5
673
100
AcDbEntity
  8
0
100
AcDbLine
 62
2
  6
CONTINUOUS
 10
9.8809002687
 20
96.3903758752
 11
9.8809002687
 21
105.3913632071
  0
LINE
  5
674
100
AcDbEntity
  8
0
100
AcDbLine
 62
2
  6
CONTINUOUS
 10
9.8809002687
 20
105.3913632071
 11
9.8809002687
 21
94.1903758752
  0
INSERT
  5
675
100
AcDbEntity
  8
0
100
AcDbBlockReference
 62
2
  6
CONTINUOUS
  2
_FILLED
 10
9.8809002687
 20
91.9903758752
 41
3.5
 42
3.5
 43
3.5
 50
90.0
  0
INSERT
  5
676
100
AcDbEntity
  8
0
100
AcDbBlockReference
 62
2
  6
CONTINUOUS
  2
_FILLED
 10
9.8809002687
 20
96.3903758752
 41
3.5
 42
3.5
 43
3.5
 50
270.0
  0
ENDBLK
  5
677
100
AcDbEntity
  8
0
  6
BYBLOCK
 62
0
100
AcDbBlockEnd
  0
BLOCK
  5
678
100
AcDbEntity
  8
0
100
AcDbBlockBegin
 62
2
  6
CONTINUOUS
  2
*D9
 70
65
 10
0.0
 20
0.0
  3
*D9
  1

  0
MTEXT
  5
679
100
AcDbEntity
  8
0
100
AcDbMText
 62
5
  6
CONTINUOUS
  7
STANDARD
 71
2
 72
1
 10
111.8559002687
 20
86.3903758752
 30
0.0
 11
0.0
 21
1.0
 31
0.0
 73
2
 44
0.9
  1
14.5
 40
2.5
 41
6.8190298507
  0
LINE
  5
67A
100
AcDbEntity
  8
0
100
AcDbLine
 62
2
  6
CONTINUOUS
 10
107.9809002687
 20
93.6403758752
 11
115.9809002687
 21
93.6403758752
  0
LINE
  5
67B
100
AcDbEntity
  8
0
100
AcDbLine
 62
2
  6
CONTINUOUS
 10
107.9809002687
 20
79.1403758752
 11
115.9809002687
 21
79.1403758752
  0
LINE
  5
67C
100
AcDbEntity
  8
0
100
AcDbLine
 62
2
  6
CONTINUOUS
 10
114.9809002687
 20
93.6403758752
 11
114.9809002687
 21
86.3903758752
  0
LINE
  5
67D
100
AcDbEntity
  8
0
100
AcDbLine
 62
2
  6
CONTINUOUS
 10
114.9809002687
 20
79.1403758752
 11
114.9809002687
 21
86.3903758752
  0
INSERT
  5
67E
100
AcDbEntity
  8
0
100
AcDbBlockReference
 62
2
  6
CONTINUOUS
  2
_DOT
 10
114.9809002687
 20
93.6403758752
 41
3.5
 42
3.5
 43
3.5
 50
90.0
  0
INSERT
  5
67F
100
AcDbEntity
  8
0
100
AcDbBlockReference
 62
2
  6
CONTINUOUS
  2
_DOT
 10
114.9809002687
 20
79.1403758752
 41
3.5
 42
3.5
 43
3.5
 50
270.0
  0
ENDBLK
  5
680
100
AcDbEntity
  8
0
  6
BYBLOCK
 62
0
100
AcDbBlockEnd
  0
BLOCK
  5
681
100
AcDbEntity
  8
0
100
AcDbBlockBegin
 62
2
  6
CONTINUOUS
  2
*D10
 70
65
 10
0.0
 20
0.0
  3
*D10
  1

  0
MTEXT
  5
682
100
AcDbEntity
  8
0
100
AcDbMText
 62
5
  6
CONTINUOUS
  7
STANDARD
 71
3
 72
1
 10
111.8559002687
 20
72.5391731404
 30
0.0
 11
0.0
 21
1.0
 31
0.0
 73
2
 44
0.9
  1
2.8
 40
2.5
 41
4.8694029851
  0
LINE
  5
683
100
AcDbEntity
  8
0
100
AcDbLine
 62
2
  6
CONTINUOUS
 10
50.0809002687
 20
76.3903758752
 11
100.0799921736
 21
76.3903758752
  0
LINE
  5
684
100
AcDbEntity
  8
0
100
AcDbLine
 62
2
  6
CONTINUOUS
 10
101.9719285103
 20
76.3903758752
 11
106.607149684
 21
76.3903758752
  0
LINE
  5
685
100
AcDbEntity
  8
0
100
AcDbLine
 62
2
  6
CONTINUOUS
 10
109.1691565752
 20
76.3903758752
 11
115.9809002687
 21
76.3903758752
  0
LINE
  5
686
100
AcDbEntity
  8
0
100
AcDbLine
 62
2
  6
CONTINUOUS
 10
107.2151276682
 20
79.1403758752
 11
115.9809002687
 21
79.1403758752
  0
LINE
  5
687
100
AcDbEntity
  8
0
100
AcDbLine
 62
2
  6
CONTINUOUS
 10
114.9809002687
 20
76.3903758752
 11
114.9809002687
 21
67.6697701554
  0
LINE
  5
688
100
AcDbEntity
  8
0
100
AcDbLine
 62
2
  6
CONTINUOUS
 10
114.9809002687
 20
67.6697701554
 11
114.9809002687
 21
77.7653758752
  0
LINE
  5
689
100
AcDbEntity
  8
0
100
AcDbLine
 62
2
  6
CONTINUOUS
 10
114.9809002687
 20
79.1403758752
 11
114.9809002687
 21
86.1403758752
  0
LINE
  5
68A
100
AcDbEntity
  8
0
100
AcDbLine
 62
2
  6
CONTINUOUS
 10
114.9809002687
 20
86.1403758752
 11
114.9809002687
 21
77.7653758752
  0
INSERT
  5
68B
100
AcDbEntity
  8
0
100
AcDbBlockReference
 62
2
  6
CONTINUOUS
  2
_FILLED
 10
114.9809002687
 20
76.3903758752
 41
3.5
 42
3.5
 43
3.5
 50
90.0
  0
INSERT
  5
68C
100
AcDbEntity
  8
0
100
AcDbBlockReference
 62
2
  6
CONTINUOUS
  2
_DOT
 10
114.9809002687
 20
79.1403758752
 41
3.5
 42
3.5
 43
3.5
 50
270.0
  0
ENDBLK
  5
68D
100
AcDbEntity
  8
0
  6
BYBLOCK
 62
0
100
AcDbBlockEnd
  0
BLOCK
  5
68E
100
AcDbEntity
  8
0
100
AcDbBlockBegin
 62
2
  6
CONTINUOUS
  2
*D11
 70
65
 10
0.0
 20
0.0
  3
*D11
  1

  0
MTEXT
  5
68F
100
AcDbEntity
  8
0
100
AcDbMText
 62
5
  6
CONTINUOUS
  7
STANDARD
 71
1
 72
1
 10
111.8559002687
 20
100.3119456422
 30
0.0
 11
0.0
 21
1.0
 31
0.0
 73
2
 44
0.9
  1
2.8
 40
2.5
 41
4.8694029851
  0
LINE
  5
690
100
AcDbEntity
  8
0
100
AcDbLine
 62
2
  6
CONTINUOUS
 10
50.0809002687
 20
96.3903758752
 11
99.9592101162
 21
96.3903758752
  0
LINE
  5
691
100
AcDbEntity
  8
0
100
AcDbLine
 62
2
  6
CONTINUOUS
 10
101.9380332442
 20
96.3903758752
 11
106.4952668155
 21
96.3903758752
  0
LINE
  5
692
100
AcDbEntity
  8
0
100
AcDbLine
 62
2
  6
CONTINUOUS
 10
109.1309145954
 20
96.3903758752
 11
115.9809002687
 21
96.3903758752
  0
LINE
  5
693
100
AcDbEntity
  8
0
100
AcDbLine
 62
2
  6
CONTINUOUS
 10
107.1298097111
 20
93.6403758752
 11
115.9809002687
 21
93.6403758752
  0
LINE
  5
694
100
AcDbEntity
  8
0
100
AcDbLine
 62
2
  6
CONTINUOUS
 10
114.9809002687
 20
96.3903758752
 11
114.9809002687
 21
105.1813486273
  0
LINE
  5
695
100
AcDbEntity
  8
0
100
AcDbLine
 62
2
  6
CONTINUOUS
 10
114.9809002687
 20
105.1813486273
 11
114.9809002687
 21
95.0153758752
  0
LINE
  5
696
100
AcDbEntity
  8
0
100
AcDbLine
 62
2
  6
CONTINUOUS
 10
114.9809002687
 20
93.6403758752
 11
114.9809002687
 21
86.6403758752
  0
LINE
  5
697
100
AcDbEntity
  8
0
100
AcDbLine
 62
2
  6
CONTINUOUS
 10
114.9809002687
 20
86.6403758752
 11
114.9809002687
 21
95.0153758752
  0
INSERT
  5
698
100
AcDbEntity
  8
0
100
AcDbBlockReference
 62
2
  6
CONTINUOUS
  2
_FILLED
 10
114.9809002687
 20
96.3903758752
 41
3.5
 42
3.5
 43
3.5
 50
270.0
  0
INSERT
  5
699
100
AcDbEntity
  8
0
100
AcDbBlockReference
 62
2
  6
CONTINUOUS
  2
_DOT
 10
114.9809002687
 20
93.6403758752
 41
3.5
 42
3.5
 43
3.5
 50
90.0
  0
ENDBLK
  5
69A
100
AcDbEntity
  8
0
  6
BYBLOCK
 62
0
100
AcDbBlockEnd
  0
BLOCK
  5
69B
100
AcDbEntity
  8
0
100
AcDbBlockBegin
 62
2
  6
CONTINUOUS
  2
*D12
 70
65
 10
0.0
 20
0.0
  3
*D12
  1

  0
MTEXT
  5
69C
100
AcDbEntity
  8
0
100
AcDbMText
 62
5
  6
CONTINUOUS
  7
STANDARD
 71
2
 72
1
 10
97.8559002687
 20
86.3903758752
 30
0.0
 11
0.0
 21
1.0
 31
0.0
 73
2
 44
0.9
  1
11.5
 40
2.5
 41
6.8190298507
  0
LINE
  5
69D
100
AcDbEntity
  8
0
100
AcDbLine
 62
2
  6
CONTINUOUS
 10
52.6809002687
 20
92.1403758752
 11
101.9809002687
 21
92.1403758752
  0
LINE
  5
69E
100
AcDbEntity
  8
0
100
AcDbLine
 62
2
  6
CONTINUOUS
 10
52.5809002687
 20
80.6403758752
 11
101.9809002687
 21
80.6403758752
  0
LINE
  5
69F
100
AcDbEntity
  8
0
100
AcDbLine
 62
2
  6
CONTINUOUS
 10
100.9809002687
 20
92.1403758752
 11
100.9809002687
 21
99.1403758752
  0
LINE
  5
6A0
100
AcDbEntity
  8
0
100
AcDbLine
 62
2
  6
CONTINUOUS
 10
100.9809002687
 20
99.1403758752
 11
100.9809002687
 21
86.3903758752
  0
LINE
  5
6A1
100
AcDbEntity
  8
0
100
AcDbLine
 62
2
  6
CONTINUOUS
 10
100.9809002687
 20
80.6403758752
 11
100.9809002687
 21
73.6403758752
  0
LINE
  5
6A2
100
AcDbEntity
  8
0
100
AcDbLine
 62
2
  6
CONTINUOUS
 10
100.9809002687
 20
73.6403758752
 11
100.9809002687
 21
86.3903758752
  0
INSERT
  5
6A3
100
AcDbEntity
  8
0
100
AcDbBlockReference
 62
2
  6
CONTINUOUS
  2
_FILLED
 10
100.9809002687
 20
92.1403758752
 41
3.5
 42
3.5
 43
3.5
 50
270.0
  0
INSERT
  5
6A4
100
AcDbEntity
  8
0
100
AcDbBlockReference
 62
2
  6
CONTINUOUS
  2
_FILLED
 10
100.9809002687
 20
80.6403758752
 41
3.5
 42
3.5
 43
3.5
 50
90.0
  0
ENDBLK
  5
6A5
100
AcDbEntity
  8
0
  6
BYBLOCK
 62
0
100
AcDbBlockEnd
  0
BLOCK
  5
6A6
100
AcDbEntity
  8
0
100
AcDbBlockBegin
 62
2
  6
CONTINUOUS
  2
*D13
 70
65
 10
0.0
 20
0.0
  3
*D13
  1

  0
MTEXT
  5
6A7
100
AcDbEntity
  8
0
100
AcDbMText
 62
5
  6
CONTINUOUS
  7
STANDARD
 71
2
 72
1
 10
98.5559002687
 20
524.3913689276
 30
0.0
 11
0.0
 21
1.0
 31
0.0
 73
2
 44
0.9
  1
616
 40
2.5
 41
5.848880597
  0
LINE
  5
6A8
100
AcDbEntity
  8
0
100
AcDbLine
 62
2
  6
CONTINUOUS
 10
74.4809002685
 20
832.3913689276
 11
102.6809002687
 21
832.3913689276
  0
LINE
  5
6A9
100
AcDbEntity
  8
0
100
AcDbLine
 62
2
  6
CONTINUOUS
 10
50.0809002687
 20
216.3913689276
 11
102.6809002687
 21
216.3913689276
  0
LINE
  5
6AA
100
AcDbEntity
  8
0
100
AcDbLine
 62
2
  6
CONTINUOUS
 10
101.6809002687
 20
832.3913689276
 11
101.6809002687
 21
524.3913689276
  0
LINE
  5
6AB
100
AcDbEntity
  8
0
100
AcDbLine
 62
2
  6
CONTINUOUS
 10
101.6809002687
 20
216.3913689276
 11
101.6809002687
 21
524.3913689276
  0
INSERT
  5
6AC
100
AcDbEntity
  8
0
100
AcDbBlockReference
 62
2
  6
CONTINUOUS
  2
_FILLED
 10
101.6809002687
 20
832.3913689276
 41
3.5
 42
3.5
 43
3.5
 50
90.0
  0
INSERT
  5
6AD
100
AcDbEntity
  8
0
100
AcDbBlockReference
 62
2
  6
CONTINUOUS
  2
_FILLED
 10
101.6809002687
 20
216.3913689276
 41
3.5
 42
3.5
 43
3.5
 50
270.0
  0
ENDBLK
  5
6AE
100
AcDbEntity
  8
0
  6
BYBLOCK
 62
0
100
AcDbBlockEnd
  0
BLOCK
  5
6AF
100
AcDbEntity
  8
0
100
AcDbBlockBegin
 62
2
  6
CONTINUOUS
  2
*D14
 70
65
 10
0.0
 20
0.0
  3
*D14
  1

  0
MTEXT
  5
6B0
100
AcDbEntity
  8
0
100
AcDbMText
 62
5
  6
CONTINUOUS
  7
STANDARD
 71
1
 72
1
 10
154.0901827491
 20
1025.7954594388
 30
0.0
 11
0.7788890705
 21
0.6271617142
 31
0.0
 73
2
 44
0.9
  1
R10
 40
2.5
 41
6.427238806
  0
LINE
  5
6B1
100
AcDbEntity
  8
0
100
AcDbLine
 62
2
  6
CONTINUOUS
 10
150.2149373415
 20
1018.6629860699
 11
161.0561691658
 21
1027.3923492007
  0
INSERT
  5
6B2
100
AcDbEntity
  8
0
100
AcDbBlockReference
 62
2
  6
CONTINUOUS
  2
_FILLED
 10
150.2149373415
 20
1018.6629860699
 41
3.5
 42
3.5
 43
3.5
 50
218.8410280113
  0
ENDBLK
  5
6B3
100
AcDbEntity
  8
0
  6
BYBLOCK
 62
0
100
AcDbBlockEnd
  0
BLOCK
  5
6B4
100
AcDbEntity
  8
0
100
AcDbBlockBegin
 62
2
  6
CONTINUOUS
  2
*D15
 70
65
 10
0.0
 20
0.0
  3
*D15
  1

  0
MTEXT
  5
6B5
100
AcDbEntity
  8
0
100
AcDbMText
 62
5
  6
CONTINUOUS
  7
STANDARD
 71
2
 72
1
 10
104.8559002687
 20
90.0153758752
 30
0.0
 11
0.0
 21
1.0
 31
0.0
 73
2
 44
0.9
  1
7.3
 40
2.5
 41
4.8694029851
  0
LINE
  5
6B6
100
AcDbEntity
  8
0
100
AcDbLine
 62
2
  6
CONTINUOUS
 10
89.9809003289
 20
93.6403758752
 11
99.8737613535
 21
93.6403758752
  0
LINE
  5
6B7
100
AcDbEntity
  8
0
100
AcDbLine
 62
2
  6
CONTINUOUS
 10
101.9582846096
 20
93.6403758752
 11
108.9809002687
 21
93.6403758752
  0
LINE
  5
6B8
100
AcDbEntity
  8
0
100
AcDbLine
 62
2
  6
CONTINUOUS
 10
107.9809002687
 20
86.3903758752
 11
108.9809002687
 21
86.3903758752
  0
LINE
  5
6B9
100
AcDbEntity
  8
0
100
AcDbLine
 62
2
  6
CONTINUOUS
 10
107.9809002687
 20
93.6403758752
 11
107.9809002687
 21
100.6403758752
  0
LINE
  5
6BA
100
AcDbEntity
  8
0
100
AcDbLine
 62
2
  6
CONTINUOUS
 10
107.9809002687
 20
100.6403758752
 11
107.9809002687
 21
90.0153758752
  0
LINE
  5
6BB
100
AcDbEntity
  8
0
100
AcDbLine
 62
2
  6
CONTINUOUS
 10
107.9809002687
 20
86.3903758752
 11
107.9809002687
 21
79.3903758752
  0
LINE
  5
6BC
100
AcDbEntity
  8
0
100
AcDbLine
 62
2
  6
CONTINUOUS
 10
107.9809002687
 20
79.3903758752
 11
107.9809002687
 21
90.0153758752
  0
INSERT
  5
6BD
100
AcDbEntity
  8
0
100
AcDbBlockReference
 62
2
  6
CONTINUOUS
  2
_FILLED
 10
107.9809002687
 20
93.6403758752
 41
3.5
 42
3.5
 43
3.5
 50
270.0
  0
INSERT
  5
6BE
100
AcDbEntity
  8
0
100
AcDbBlockReference
 62
2
  6
CONTINUOUS
  2
_DOT
 10
107.9809002687
 20
86.3903758752
 41
3.5
 42
3.5
 43
3.5
 50
90.0
  0
ENDBLK
  5
6BF
100
AcDbEntity
  8
0
  6
BYBLOCK
 62
0
100
AcDbBlockEnd
  0
BLOCK
  5
6C0
100
AcDbEntity
  8
0
100
AcDbBlockBegin
 62
2
  6
CONTINUOUS
  2
*D16
 70
65
 10
0.0
 20
0.0
  3
*D16
  1

  0
MTEXT
  5
6C1
100
AcDbEntity
  8
0
100
AcDbMText
 62
5
  6
CONTINUOUS
  7
STANDARD
 71
2
 72
1
 10
104.8559002687
 20
82.7653758752
 30
0.0
 11
0.0
 21
1.0
 31
0.0
 73
2
 44
0.9
  1
7.3
 40
2.5
 41
4.8694029851
  0
LINE
  5
6C2
100
AcDbEntity
  8
0
100
AcDbLine
 62
2
  6
CONTINUOUS
 10
94.3299904478
 20
86.3903758752
 11
96.9568487515
 21
86.3903758752
  0
LINE
  5
6C3
100
AcDbEntity
  8
0
100
AcDbLine
 62
2
  6
CONTINUOUS
 10
101.6935748079
 20
86.3903758752
 11
108.9809002687
 21
86.3903758752
  0
LINE
  5
6C4
100
AcDbEntity
  8
0
100
AcDbLine
 62
2
  6
CONTINUOUS
 10
88.5809002687
 20
79.1403758752
 11
99.9458104029
 21
79.1403758752
  0
LINE
  5
6C5
100
AcDbEntity
  8
0
100
AcDbLine
 62
2
  6
CONTINUOUS
 10
101.9330559069
 20
79.1403758752
 11
108.9809002687
 21
79.1403758752
  0
LINE
  5
6C6
100
AcDbEntity
  8
0
100
AcDbLine
 62
2
  6
CONTINUOUS
 10
107.9809002687
 20
86.3903758752
 11
107.9809002687
 21
93.3903758752
  0
LINE
  5
6C7
100
AcDbEntity
  8
0
100
AcDbLine
 62
2
  6
CONTINUOUS
 10
107.9809002687
 20
93.3903758752
 11
107.9809002687
 21
82.7653758752
  0
LINE
  5
6C8
100
AcDbEntity
  8
0
100
AcDbLine
 62
2
  6
CONTINUOUS
 10
107.9809002687
 20
79.1403758752
 11
107.9809002687
 21
72.1403758752
  0
LINE
  5
6C9
100
AcDbEntity
  8
0
100
AcDbLine
 62
2
  6
CONTINUOUS
 10
107.9809002687
 20
72.1403758752
 11
107.9809002687
 21
82.7653758752
  0
INSERT
  5
6CA
100
AcDbEntity
  8
0
100
AcDbBlockReference
 62
2
  6
CONTINUOUS
  2
_DOT
 10
107.9809002687
 20
86.3903758752
 41
3.5
 42
3.5
 43
3.5
 50
270.0
  0
INSERT
  5
6CB
100
AcDbEntity
  8
0
100
AcDbBlockReference
 62
2
  6
CONTINUOUS
  2
_FILLED
 10
107.9809002687
 20
79.1403758752
 41
3.5
 42
3.5
 43
3.5
 50
90.0
  0
ENDBLK
  5
6CC
100
AcDbEntity
  8
0
  6
BYBLOCK
 62
0
100
AcDbBlockEnd
  0
BLOCK
  5
6CD
100
AcDbEntity
  8
0
100
AcDbBlockBegin
 62
2
  6
CONTINUOUS
  2
*D17
 70
65
 10
0.0
 20
0.0
  3
*D17
  1

  0
MTEXT
  5
6CE
100
AcDbEntity
  8
0
100
AcDbMText
 62
5
  6
CONTINUOUS
  7
STANDARD
 71
2
 72
1
 10
159.3010466361
 20
241.6413689276
 30
0.0
 11
0.0
 21
1.0
 31
0.0
 73
2
 44
0.9
  1
38.5
 40
2.5
 41
6.8190298507
  0
LINE
  5
6CF
100
AcDbEntity
  8
0
100
AcDbLine
 62
2
  6
CONTINUOUS
 10
147.2608914837
 20
260.8913689276
 11
163.4260466361
 21
260.8913689276
  0
LINE
  5
6D0
100
AcDbEntity
  8
0
100
AcDbLine
 62
2
  6
CONTINUOUS
 10
142.4260466361
 20
222.3913689276
 11
163.4260466361
 21
222.3913689276
  0
LINE
  5
6D1
100
AcDbEntity
  8
0
100
AcDbLine
 62
2
  6
CONTINUOUS
 10
162.4260466361
 20
260.8913689276
 11
162.4260466361
 21
241.6413689276
  0
LINE
  5
6D2
100
AcDbEntity
  8
0
100
AcDbLine
 62
2
  6
CONTINUOUS
 10
162.4260466361
 20
222.3913689276
 11
162.4260466361
 21
241.6413689276
  0
INSERT
  5
6D3
100
AcDbEntity
  8
0
100
AcDbBlockReference
 62
2
  6
CONTINUOUS
  2
_FILLED
 10
162.4260466361
 20
260.8913689276
 41
3.5
 42
3.5
 43
3.5
 50
90.0
  0
INSERT
  5
6D4
100
AcDbEntity
  8
0
100
AcDbBlockReference
 62
2
  6
CONTINUOUS
  2
_FILLED
 10
162.4260466361
 20
222.3913689276
 41
3.5
 42
3.5
 43
3.5
 50
270.0
  0
ENDBLK
  5
6D5
100
AcDbEntity
  8
0
  6
BYBLOCK
 62
0
100
AcDbBlockEnd
  0
BLOCK
  5
6D6
100
AcDbEntity
  8
0
100
AcDbBlockBegin
 62
2
  6
CONTINUOUS
  2
*D18
 70
65
 10
0.0
 20
0.0
  3
*D18
  1

  0
MTEXT
  5
6D7
100
AcDbEntity
  8
0
100
AcDbMText
 62
5
  6
CONTINUOUS
  7
STANDARD
 71
2
 72
1
 10
166.3010466361
 20
508.6413689276
 30
0.0
 11
0.0
 21
1.0
 31
0.0
 73
2
 44
0.9
  1
572.5
 40
2.5
 41
8.7686567164
  0
LINE
  5
6D8
100
AcDbEntity
  8
0
100
AcDbLine
 62
2
  6
CONTINUOUS
 10
147.2598704885
 20
794.8913689276
 11
170.4260466361
 21
794.8913689276
  0
LINE
  5
6D9
100
AcDbEntity
  8
0
100
AcDbLine
 62
2
  6
CONTINUOUS
 10
142.4260466361
 20
222.3913689276
 11
170.4260466361
 21
222.3913689276
  0
LINE
  5
6DA
100
AcDbEntity
  8
0
100
AcDbLine
 62
2
  6
CONTINUOUS
 10
169.4260466361
 20
794.8913689276
 11
169.4260466361
 21
508.6413689276
  0
LINE
  5
6DB
100
AcDbEntity
  8
0
100
AcDbLine
 62
2
  6
CONTINUOUS
 10
169.4260466361
 20
222.3913689276
 11
169.4260466361
 21
508.6413689276
  0
INSERT
  5
6DC
100
AcDbEntity
  8
0
100
AcDbBlockReference
 62
2
  6
CONTINUOUS
  2
_FILLED
 10
169.4260466361
 20
794.8913689276
 41
3.5
 42
3.5
 43
3.5
 50
90.0
  0
INSERT
  5
6DD
100
AcDbEntity
  8
0
100
AcDbBlockReference
 62
2
  6
CONTINUOUS
  2
_FILLED
 10
169.4260466361
 20
222.3913689276
 41
3.5
 42
3.5
 43
3.5
 50
270.0
  0
ENDBLK
  5
6DE
100
AcDbEntity
  8
0
  6
BYBLOCK
 62
0
100
AcDbBlockEnd
  0
BLOCK
  5
6DF
100
AcDbEntity
  8
0
100
AcDbBlockBegin
 62
2
  6
CONTINUOUS
  2
*D19
 70
65
 10
0.0
 20
0.0
  3
*D19
  1

  0
MTEXT
  5
6E0
100
AcDbEntity
  8
0
100
AcDbMText
 62
5
  6
CONTINUOUS
  7
STANDARD
 71
2
 72
1
 10
173.3010466361
 20
616.3913689276
 30
0.0
 11
0.0
 21
1.0
 31
0.0
 73
2
 44
0.9
  1
788
 40
2.5
 41
5.848880597
  0
LINE
  5
6E1
100
AcDbEntity
  8
0
100
AcDbLine
 62
2
  6
CONTINUOUS
 10
147.1244112641
 20
1010.3913689276
 11
177.4260466361
 21
1010.3913689276
  0
LINE
  5
6E2
100
AcDbEntity
  8
0
100
AcDbLine
 62
2
  6
CONTINUOUS
 10
142.4260466361
 20
222.3913689276
 11
177.4260466361
 21
222.3913689276
  0
LINE
  5
6E3
100
AcDbEntity
  8
0
100
AcDbLine
 62
2
  6
CONTINUOUS
 10
176.4260466361
 20
1010.3913689276
 11
176.4260466361
 21
616.3913689276
  0
LINE
  5
6E4
100
AcDbEntity
  8
0
100
AcDbLine
 62
2
  6
CONTINUOUS
 10
176.4260466361
 20
222.3913689276
 11
176.4260466361
 21
616.3913689276
  0
INSERT
  5
6E5
100
AcDbEntity
  8
0
100
AcDbBlockReference
 62
2
  6
CONTINUOUS
  2
_FILLED
 10
176.4260466361
 20
1010.3913689276
 41
3.5
 42
3.5
 43
3.5
 50
90.0
  0
INSERT
  5
6E6
100
AcDbEntity
  8
0
100
AcDbBlockReference
 62
2
  6
CONTINUOUS
  2
_FILLED
 10
176.4260466361
 20
222.3913689276
 41
3.5
 42
3.5
 43
3.5
 50
270.0
  0
ENDBLK
  5
6E7
100
AcDbEntity
  8
0
  6
BYBLOCK
 62
0
100
AcDbBlockEnd
  0
BLOCK
  5
6E8
100
AcDbEntity
  8
0
100
AcDbBlockBegin
 62
2
  6
CONTINUOUS
  2
*D20
 70
65
 10
0.0
 20
0.0
  3
*D20
  1

  0
MTEXT
  5
6E9
100
AcDbEntity
  8
0
100
AcDbMText
 62
5
  6
CONTINUOUS
  7
STANDARD
 71
2
 72
1
 10
112.3010466361
 20
622.3913689276
 30
0.0
 11
0.0
 21
1.0
 31
0.0
 73
2
 44
0.9
  1
800
 40
2.5
 41
5.848880597
  0
LINE
  5
6EA
100
AcDbEntity
  8
0
100
AcDbLine
 62
2
  6
CONTINUOUS
 10
142.4260466361
 20
1022.3913689276
 11
114.4260466361
 21
1022.3913689276
  0
LINE
  5
6EB
100
AcDbEntity
  8
0
100
AcDbLine
 62
2
  6
CONTINUOUS
 10
142.4260466361
 20
222.3913689276
 11
114.4260466361
 21
222.3913689276
  0
LINE
  5
6EC
100
AcDbEntity
  8
0
100
AcDbLine
 62
2
  6
CONTINUOUS
 10
115.4260466361
 20
1022.3913689276
 11
115.4260466361
 21
622.3913689276
  0
LINE
  5
6ED
100
AcDbEntity
  8
0
100
AcDbLine
 62
2
  6
CONTINUOUS
 10
115.4260466361
 20
222.3913689276
 11
115.4260466361
 21
622.3913689276
  0
INSERT
  5
6EE
100
AcDbEntity
  8
0
100
AcDbBlockReference
 62
2
  6
CONTINUOUS
  2
_FILLED
 10
115.4260466361
 20
1022.3913689276
 41
3.5
 42
3.5
 43
3.5
 50
90.0
  0
INSERT
  5
6EF
100
AcDbEntity
  8
0
100
AcDbBlockReference
 62
2
  6
CONTINUOUS
  2
_FILLED
 10
115.4260466361
 20
222.3913689276
 41
3.5
 42
3.5
 43
3.5
 50
270.0
  0
ENDBLK
  5
6F0
100
AcDbEntity
  8
0
  6
BYBLOCK
 62
0
100
AcDbBlockEnd
  0
BLOCK
  5
6F1
100
AcDbEntity
  8
0
100
AcDbBlockBegin
 62
2
  6
CONTINUOUS
  2
*D21
 70
65
 10
0.0
 20
0.0
  3
*D21
  1

  0
MTEXT
  5
6F2
100
AcDbEntity
  8
0
100
AcDbMText
 62
5
  6
CONTINUOUS
  7
STANDARD
 71
2
 72
1
 10
119.3010466361
 20
557.3913689276
 30
0.0
 11
0.0
 21
1.0
 31
0.0
 73
2
 44
0.9
  1
670
 40
2.5
 41
5.848880597
  0
LINE
  5
6F3
100
AcDbEntity
  8
0
100
AcDbLine
 62
2
  6
CONTINUOUS
 10
130.3302692619
 20
892.3913689276
 11
121.4260466361
 21
892.3913689276
  0
LINE
  5
6F4
100
AcDbEntity
  8
0
100
AcDbLine
 62
2
  6
CONTINUOUS
 10
142.4260466361
 20
222.3913689276
 11
121.4260466361
 21
222.3913689276
  0
LINE
  5
6F5
100
AcDbEntity
  8
0
100
AcDbLine
 62
2
  6
CONTINUOUS
 10
122.4260466361
 20
892.3913689276
 11
122.4260466361
 21
557.3913689276
  0
LINE
  5
6F6
100
AcDbEntity
  8
0
100
AcDbLine
 62
2
  6
CONTINUOUS
 10
122.4260466361
 20
222.3913689276
 11
122.4260466361
 21
557.3913689276
  0
INSERT
  5
6F7
100
AcDbEntity
  8
0
100
AcDbBlockReference
 62
2
  6
CONTINUOUS
  2
_FILLED
 10
122.4260466361
 20
892.3913689276
 41
3.5
 42
3.5
 43
3.5
 50
90.0
  0
INSERT
  5
6F8
100
AcDbEntity
  8
0
100
AcDbBlockReference
 62
2
  6
CONTINUOUS
  2
_FILLED
 10
122.4260466361
 20
222.3913689276
 41
3.5
 42
3.5
 43
3.5
 50
270.0
  0
ENDBLK
  5
6F9
100
AcDbEntity
  8
0
  6
BYBLOCK
 62
0
100
AcDbBlockEnd
  0
ENDSEC
  0
SECTION
  2
ENTITIES
  0
DIMENSION
  5
6FA
100
AcDbEntity
  8
0
100
AcDbDimension
 62
2
  6
CONTINUOUS
  2
*D0
 10
47.0809002687
 20
1032.3767028436
 11
55.4659129051
 21
1032.3767028436
 70
160
 71
1
 72
2
 41
0.9
 42
3.0
  3
DIMSTYLE_1
100
AcDbAlignedDimension
 13
50.0809002687
 23
1022.3913689276
 14
47.0809002687
 24
1022.3913689276
 50
180.0
100
AcDbRotatedDimension
  0
DIMENSION
  5
6FB
100
AcDbEntity
  8
0
100
AcDbDimension
 62
2
  6
CONTINUOUS
  2
*D1
 10
152.4260466361
 20
1032.3767028436
 11
142.4006857639
 21
1032.3767028436
 70
160
 71
2
 72
2
 41
0.9
 42
20.0
  3
DIMSTYLE_2
100
AcDbAlignedDimension
 13
132.4260466361
 23
1012.3913689276
 14
152.4260466361
 24
1012.3913689276
100
AcDbRotatedDimension
  0
DIMENSION
  5
6FC
100
AcDbEntity
  8
0
100
AcDbDimension
 62
2
  6
CONTINUOUS
  2
*D2
 10
101.6809002687
 20
1022.3913689276
 11
101.6809002687
 21
987.3939696868
 70
160
 71
2
 72
2
 41
0.9
 42
70.0
  3
DIMSTYLE_3
100
AcDbAlignedDimension
 13
74.4809002687
 23
952.3913689276
 14
50.0809002687
 24
1022.3913689276
 50
90.0
100
AcDbRotatedDimension
  0
DIMENSION
  5
6FD
100
AcDbEntity
  8
0
100
AcDbDimension
 62
2
  6
CONTINUOUS
  2
*D3
 10
101.6809002687
 20
832.3913689276
 11
101.6809002687
 21
892.503843754
 70
160
 71
2
 72
2
 41
0.9
 42
120.0
  3
DIMSTYLE_3
100
AcDbAlignedDimension
 13
74.4809002687
 23
952.3913689276
 14
74.4809002685
 24
832.3913689276
 50
270.0
100
AcDbRotatedDimension
  0
DIMENSION
  5
6FE
100
AcDbEntity
  8
0
100
AcDbDimension
 62
2
  6
CONTINUOUS
  2
*D4
 10
47.0809002687
 20
822.3913689276
 11
68.9728602431
 21
822.3913689276
 70
160
 71
2
 72
2
 41
0.9
 42
43.9
  3
DIMSTYLE_4
100
AcDbAlignedDimension
 13
90.9809002687
 23
848.8913689276
 14
47.0809002687
 24
1012.3913689276
 50
180.0
100
AcDbRotatedDimension
  0
DIMENSION
  5
6FF
100
AcDbEntity
  8
0
100
AcDbDimension
 62
2
  6
CONTINUOUS
  2
*D5
 10
47.0809002687
 20
822.3913689276
 11
37.0555092593
 21
822.3913689276
 70
160
 71
2
 72
2
 41
0.9
 42
20.0
  3
DIMSTYLE_2
100
AcDbAlignedDimension
 13
27.0809002687
 23
878.9413689276
 14
47.0809002687
 24
1012.3913689276
100
AcDbRotatedDimension
  0
DIMENSION
  5
700
100
AcDbEntity
  8
0
100
AcDbDimension
 62
2
  6
CONTINUOUS
  2
*D6
 10
17.0809023504
 20
906.8413705648
 11
17.0809002657
 21
892.3706490471
 70
160
 71
2
 72
2
 41
0.9
 42
28.8999965661
  3
DIMSTYLE_5
100
AcDbAlignedDimension
 13
33.4227441191
 23
877.9413716444
 14
33.4227416761
 24
906.8413682105
 50
89.9999917459
100
AcDbRotatedDimension
  0
DIMENSION
  5
701
100
AcDbEntity
  8
0
100
AcDbDimension
 62
2
  6
CONTINUOUS
  2
*D7
 10
16.8809002687
 20
91.9903758752
 11
16.8809002687
 21
86.4944007854
 70
160
 71
2
 72
2
 41
0.9
 42
11.2
  3
DIMSTYLE_2
100
AcDbAlignedDimension
 13
35.9465235535
 23
80.7903758752
 14
46.1096291771
 24
91.9903758752
 50
90.0
100
AcDbRotatedDimension
  0
DIMENSION
  5
702
100
AcDbEntity
  8
0
100
AcDbDimension
 62
2
  6
CONTINUOUS
  2
*D8
 10
9.8809002687
 20
96.3903758752
 11
9.8809002687
 21
102.8994974534
 70
160
 71
1
 72
2
 41
0.9
 42
4.4
  3
DIMSTYLE_1
100
AcDbAlignedDimension
 13
46.1096291771
 23
91.9903758752
 14
47.0809002687
 24
96.3903758752
 50
90.0
100
AcDbRotatedDimension
  0
DIMENSION
  5
703
100
AcDbEntity
  8
0
100
AcDbDimension
 62
2
  6
CONTINUOUS
  2
*D9
 10
114.9809002687
 20
79.1403758752
 11
114.9809002687
 21
86.5130480655
 70
160
 71
2
 72
2
 41
0.9
 42
14.5
  3
DIMSTYLE_2
100
AcDbAlignedDimension
 13
107.9809002687
 23
93.6403758752
 14
107.9809002687
 24
79.1403758752
 50
270.0
100
AcDbRotatedDimension
1001
ACAD
1000
DSTYLE
1002
{
1070
173
1070
1
1070
6
1000
_DOT
1070
7
1000
_DOT
1002
}
  0
DIMENSION
  5
704
100
AcDbEntity
  8
0
100
AcDbDimension
 62
2
  6
CONTINUOUS
  2
*D10
 10
114.9809002687
 20
79.1403758752
 11
114.9809002687
 21
70.0846569237
 70
160
 71
3
 72
2
 41
0.9
 42
2.75
  3
DIMSTYLE_6
100
AcDbAlignedDimension
 13
50.0809002687
 23
76.3903758752
 14
107.2151276682
 24
79.1403758752
 50
90.0
100
AcDbRotatedDimension
1001
ACAD
1000
DSTYLE
1002
{
1070
173
1070
1
1070
7
1000
_DOT
1002
}
  0
DIMENSION
  5
705
100
AcDbEntity
  8
0
100
AcDbDimension
 62
2
  6
CONTINUOUS
  2
*D11
 10
114.9809002687
 20
93.6403758752
 11
114.9809002687
 21
102.7268324106
 70
160
 71
1
 72
2
 41
0.9
 42
2.75
  3
DIMSTYLE_6
100
AcDbAlignedDimension
 13
50.0809002687
 23
96.3903758752
 14
107.1298097111
 24
93.6403758752
 50
270.0
100
AcDbRotatedDimension
1001
ACAD
1000
DSTYLE
1002
{
1070
173
1070
1
1070
7
1000
_DOT
1002
}
  0
DIMENSION
  5
706
100
AcDbEntity
  8
0
100
AcDbDimension
 62
2
  6
CONTINUOUS
  2
*D12
 10
100.9809002687
 20
80.6403758752
 11
100.9809002687
 21
86.5130524058
 70
160
 71
2
 72
2
 41
0.9
 42
11.5
  3
DIMSTYLE_2
100
AcDbAlignedDimension
 13
52.6809002687
 23
92.1403758752
 14
52.5809002687
 24
80.6403758752
 50
270.0
100
AcDbRotatedDimension
  0
DIMENSION
  5
707
100
AcDbEntity
  8
0
100
AcDbDimension
 62
2
  6
CONTINUOUS
  2
*D13
 10
101.6809002687
 20
216.3913689276
 11
101.6809002687
 21
524.3872537656
 70
160
 71
2
 72
2
 41
0.9
 42
616.0
  3
DIMSTYLE_7
100
AcDbAlignedDimension
 13
74.4809002685
 23
832.3913689276
 14
50.0809002687
 24
216.3913689276
 50
270.0
100
AcDbRotatedDimension
  0
DIMENSION
  5
708
100
AcDbEntity
  8
0
100
AcDbDimension
 62
2
  6
CONTINUOUS
  2
*D14
 10
142.4260466361
 20
1012.3913689276
 11
158.5531161359
 21
1025.376890147
 70
164
 71
1
 72
2
 41
0.9
 42
10.0
  1
R<>
  3
DIMSTYLE_8
100
AcDbRadialDimension
 15
150.2149373415
 25
1018.6629860699
  0
DIMENSION
  5
709
100
AcDbEntity
  8
0
100
AcDbDimension
 62
2
  6
CONTINUOUS
  2
*D15
 10
107.9809002687
 20
86.3903758752
 11
107.9809002687
 21
90.0235024127
 70
160
 71
2
 72
2
 41
0.9
 42
7.25
  3
DIMSTYLE_9
100
AcDbAlignedDimension
 13
89.9809003289
 23
93.6403758752
 14
108.9809002687
 24
86.3903758752
 50
270.0
100
AcDbRotatedDimension
1001
ACAD
1000
DSTYLE
1002
{
1070
173
1070
1
1070
7
1000
_DOT
1002
}
  0
DIMENSION
  5
70A
100
AcDbEntity
  8
0
100
AcDbDimension
 62
2
  6
CONTINUOUS
  2
*D16
 10
107.9809002687
 20
79.1403758752
 11
107.9809002687
 21
82.7735024127
 70
160
 71
2
 72
2
 41
0.9
 42
7.25
  3
DIMSTYLE_9
100
AcDbAlignedDimension
 13
94.3299904478
 23
86.3903758752
 14
88.5809002687
 24
79.1403758752
 50
270.0
100
AcDbRotatedDimension
1001
ACAD
1000
DSTYLE
1002
{
1070
173
1070
1
1070
6
1000
_DOT
1002
}
  0
DIMENSION
  5
70B
100
AcDbEntity
  8
0
100
AcDbDimension
 62
2
  6
CONTINUOUS
  2
*D17
 10
162.4260466361
 20
222.3913689276
 11
162.4260466361
 21
241.6474335236
 70
160
 71
2
 72
2
 41
0.9
 42
38.5
  3
DIMSTYLE_3
100
AcDbAlignedDimension
 13
147.2608914837
 23
260.8913689276
 14
142.4260466361
 24
222.3913689276
 50
270.0
100
AcDbRotatedDimension
  0
DIMENSION
  5
70C
100
AcDbEntity
  8
0
100
AcDbDimension
 62
2
  6
CONTINUOUS
  2
*D18
 10
169.4260466361
 20
222.3913689276
 11
169.4260466361
 21
508.6406872204
 70
160
 71
2
 72
2
 41
0.9
 42
572.5
  3
DIMSTYLE_7
100
AcDbAlignedDimension
 13
147.2598704885
 23
794.8913689276
 14
142.4260466361
 24
222.3913689276
 50
270.0
100
AcDbRotatedDimension
  0
DIMENSION
  5
70D
100
AcDbEntity
  8
0
100
AcDbDimension
 62
2
  6
CONTINUOUS
  2
*D19
 10
176.4260466361
 20
222.3913689276
 11
176.4260466361
 21
616.3965648634
 70
160
 71
2
 72
2
 41
0.9
 42
788.0
  3
DIMSTYLE_7
100
AcDbAlignedDimension
 13
147.1244112641
 23
1010.3913689276
 14
142.4260466361
 24
222.3913689276
 50
270.0
100
AcDbRotatedDimension
  0
DIMENSION
  5
70E
100
AcDbEntity
  8
0
100
AcDbDimension
 62
2
  6
CONTINUOUS
  2
*D20
 10
115.4260466361
 20
222.3913689276
 11
115.4260466361
 21
622.3825920625
 70
160
 71
2
 72
2
 41
0.9
 42
800.0
  3
DIMSTYLE_7
100
AcDbAlignedDimension
 13
142.4260466361
 23
1022.3913689276
 14
142.4260466361
 24
222.3913689276
 50
270.0
100
AcDbRotatedDimension
  0
DIMENSION
  5
70F
100
AcDbEntity
  8
0
100
AcDbDimension
 62
2
  6
CONTINUOUS
  2
*D21
 10
122.4260466361
 20
222.3913689276
 11
122.4260466361
 21
557.3825804884
 70
160
 71
2
 72
2
 41
0.9
 42
670.0
  3
DIMSTYLE_7
100
AcDbAlignedDimension
 13
130.3302692619
 23
892.3913689276
 14
142.4260466361
 24
222.3913689276
 50
270.0
100
AcDbRotatedDimension
  0
INSERT
  5
710
100
AcDbEntity
  8
0
100
AcDbBlockReference
 62
2
  6
CONTINUOUS
  2
SCHRIFTKOPF_PRODUKTABBI_BL21
 10
30.8809002926
 20
34.9999999785
  0
INSERT
  5
711
100
AcDbEntity
  8
94339807000_BL0
100
AcDbBlockReference
  2
94339807000_BL0
 10
99.0034734524
 20
473.0913689276
  0
INSERT
  5
712
100
AcDbEntity
  8
94870650000_BL1
100
AcDbBlockReference
  2
94870650000_BL1
 10
99.7534734524
 20
549.3908724014
  0
INSERT
  5
713
100
AcDbEntity
  8
95043001000_M1_BL2
100
AcDbBlockReference
  2
95043001000_M1_BL2
 10
141.3801619426
 20
892.3913689108
  0
INSERT
  5
714
100
AcDbEntity
  8
94754901000_BL3
100
AcDbBlockReference
  2
94754901000_BL3
 10
85.0130558657
 20
492.5447884135
  0
INSERT
  5
715
100
AcDbEntity
  8
SUWN07008_A6_4_DR786_BL4
100
AcDbBlockReference
  2
SUWN07008_A6_4_DR786_BL4
 10
142.4260466361
 20
260.8913689276
  0
INSERT
  5
716
100
AcDbEntity
  8
95198401000_M_BL5
100
AcDbBlockReference
  2
95198401000_M_BL5
 10
87.5534734524
 20
493.8158724014
  0
INSERT
  5
717
100
AcDbEntity
  8
93726700000_BL6
100
AcDbBlockReference
  2
93726700000_BL6
 10
100.4034734524
 20
893.624963148
  0
INSERT
  5
718
100
AcDbEntity
  8
94755099000_D_BL7
100
AcDbBlockReference
  2
94755099000_D_BL7
 10
87.4534734524
 20
489.5908724014
  0
INSERT
  5
719
100
AcDbEntity
  8
93208800000_M2_BL8
100
AcDbBlockReference
  2
93208800000_M2_BL8
 10
94.8409734524
 20
260.8913689276
  0
INSERT
  5
71A
100
AcDbEntity
  8
SUWN07008_A3_1_DR787_BL9
100
AcDbBlockReference
  2
SUWN07008_A3_1_DR787_BL9
 10
95.6026557664
 20
1010.3913689276
  0
INSERT
  5
71B
100
AcDbEntity
  8
SUWN07008_A3_1_DR788_BL10
100
AcDbBlockReference
  2
SUWN07008_A3_1_DR788_BL10
 10
95.6703853786
 20
794.8913689276
  0
INSERT
  5
71C
100
AcDbEntity
  8
62907801000_BL11
100
AcDbBlockReference
  2
62907801000_BL11
 10
142.1278999329
 20
892.3913689276
  0
INSERT
  5
71D
100
AcDbEntity
  8
93725700000_M_BL12
100
AcDbBlockReference
  2
93725700000_M_BL12
 10
70.5309002687
 20
516.0158724014
  0
INSERT
  5
71E
100
AcDbEntity
  8
93725800000_BL13
100
AcDbBlockReference
  2
93725800000_BL13
 10
69.7309002687
 20
515.7658724014
  0
INSERT
  5
71F
100
AcDbEntity
  8
93726300000_M_BL14
100
AcDbBlockReference
  2
93726300000_M_BL14
 10
89.3814655301
 20
924.6483860235
  0
INSERT
  5
720
100
AcDbEntity
  8
93726100000_M_BL15
100
AcDbBlockReference
  2
93726100000_M_BL15
 10
90.5309002687
 20
506.2559841288
  0
INSERT
  5
721
100
AcDbEntity
  8
63711301L00_BL16
100
AcDbBlockReference
  2
63711301L00_BL16
 10
41.4667988237
 20
892.3913689276
  0
INSERT
  5
722
100
AcDbEntity
  8
93725900000_BL17
100
AcDbBlockReference
  2
93725900000_BL17
 10
51.3843904254
 20
91.127635128
  0
INSERT
  5
723
100
AcDbEntity
  8
62849100000_M3_BL18
100
AcDbBlockReference
  2
62849100000_M3_BL18
 10
59.7071431502
 20
86.3903758752
  0
INSERT
  5
724
100
AcDbEntity
  8
93480207R00_BL19
100
AcDbBlockReference
  2
93480207R00_BL19
 10
142.4260466361
 20
835.8913689276
  0
INSERT
  5
725
100
AcDbEntity
  8
93480207R00_BL20
100
AcDbBlockReference
  2
93480207R00_BL20
 10
142.4260466361
 20
948.8913689276
  0
ENDSEC
  0
SECTION
  2
OBJECTS
  0
DICTIONARY
  5
C
100
AcDbDictionary
280
0
281
1
  3
ACAD_GROUP
350
D
  3
ACAD_MLINESTYLE
350
17
  3
ACAD_LAYOUT
350
1A
  3
ACAD_PLOTSETTINGS
350
19
  3
ACAD_PLOTSTYLENAME
350
E
  0
DICTIONARY
  5
D
102
{ACAD_REACTORS
330
C
102
}
100
AcDbDictionary
280
0
281
1
  0
ACDBDICTIONARYWDFLT
  5
E
102
{ACAD_REACTORS
330
C
102
}
100
AcDbDictionary
281
1
  3
Normal
350
F
100
AcDbDictionaryWithDefault
340
F
  0
DICTIONARY
  5
17
102
{ACAD_REACTORS
330
C
102
}
100
AcDbDictionary
280
0
281
1
  3
Standard
350
18
  0
DICTIONARY
  5
19
102
{ACAD_REACTORS
330
C
102
}
100
AcDbDictionary
281
1
  0
DICTIONARY
  5
1A
102
{ACAD_REACTORS
330
C
102
}
100
AcDbDictionary
281
1
  3
Model
350
726
  3
Layout1
350
727
  0
ACDBPLACEHOLDER
  5
F
102
{ACAD_REACTORS
330
E
102
}
  0
MLINESTYLE
  5
18
102
{ACAD_REACTORS
330
17
102
}
100
AcDbMlineStyle
  2
STANDARD
 70
0
  3

 62
256
 51
90.0
 52
90.0
 71
2
 49
0.5
 62
256
  6
BYLAYER
 49
-0.5
 62
256
  6
BYLAYER
  0
LAYOUT
  5
726
102
{ACAD_REACTORS
330
1A
102
}
100
AcDbPlotSettings
  1

  2
none_device
  4

  6

 40
0.0
 41
0.0
 42
0.0
 43
0.0
 44
190.0
 45
1040.0
 46
0.0
 47
0.0
 48
0.0
 49
0.0
140
0.0
141
0.0
142
1.0
143
1.0
 70
1024
 72
1
 73
0
 74
0
  7

 75
0
147
1.0
148
0.0
149
0.0
100
AcDbLayout
  1
Model
 70
0
 71
0
 10
0.0
 20
0.0
 11
190.0
 21
1040.0
 12
0.0
 22
0.0
 32
0.0
 14
0.0
 24
0.0
 34
0.0
 15
0.0
 25
0.0
 35
0.0
146
0.0
 13
0.0
 23
0.0
 33
0.0
 16
1.0
 26
0.0
 36
0.0
 17
0.0
 27
1.0
 37
0.0
 76
0
330
243
345
0
346
0
  0
LAYOUT
  5
727
102
{ACAD_REACTORS
330
1A
102
}
100
AcDbPlotSettings
  1

  2
none_device
  4

  6

 40
0.0
 41
0.0
 42
0.0
 43
0.0
 44
190.0
 45
1040.0
 46
0.0
 47
0.0
 48
0.0
 49
0.0
140
0.0
141
0.0
142
1.0
143
1.0
 70
0
 72
1
 73
0
 74
0
  7

 75
0
147
1.0
148
0.0
149
0.0
100
AcDbLayout
  1
Layout1
 70
0
 71
1
 10
0.0
 20
0.0
 11
190.0
 21
1040.0
 12
0.0
 22
0.0
 32
0.0
 14
0.0
 24
0.0
 34
0.0
 15
0.0
 25
0.0
 35
0.0
146
0.0
 13
0.0
 23
0.0
 33
0.0
 16
1.0
 26
0.0
 36
0.0
 17
0.0
 27
1.0
 37
0.0
 76
0
330
244
345
0
346
0
  0
ENDSEC
  0
EOF
