999
DXF file: G:\TB70x\706\00 Mitarbeiter\0025 Arnhold\Beschlagsdaten bearbeitet\6-31985-00-0-x_bd01.dxf
999
Pro/ENGINEER 2019164 by Parametric Technology Corporation
  0
SECTION
  2
HEADER
  9
$ACADVER
  1
AC1024
  9
$DWGCODEPAGE
  3
ANSI_1252
  9
$EXTMAX
 10
112.0
 20
233.0
 30
0.0
  9
$EXTMIN
 10
0.0
 20
0.0
 30
0.0
  9
$LIMMIN
 10
0.0
 20
0.0
  9
$LIMMAX
 10
112.0
 20
233.0
  9
$VIEWCTR
 10
56.0
 20
116.5
  9
$VIEWSIZE
 40
233.0
  9
$CLAYER
  8
0
  9
$LTSCALE
 40
15.1881481481
  9
$CELTYPE
  6
BYLAYER
  9
$DIMSCALE
 40
1.0
  9
$DIMASZ
 40
3.5
  9
$DIMEXO
 40
0.0
  9
$DIMDLI
 40
10.4936296296
  9
$DIMEXE
 40
1.0
  9
$DIMCEN
 40
2.4853333333
  9
$DIMLFAC
 40
1.0
  9
$DIMBLK
  1
_FILLED
  9
$DIMALT
 70
0
  9
$DIMALTF
 40
0.0393700787
  9
$DIMTXT
 40
2.5
  9
$DIMTOL
 70
1
  9
$DIMLIM
 70
0
  9
$DIMTFAC
 40
1.0
  9
$DIMTP
 40
0.001
  9
$DIMTM
 40
0.001
  9
$DIMGAP
 40
0.625
  9
$DIMDSEP
 70
46
  9
$AUNITS
 70
0
  9
$PDMODE
 70
3
  9
$PDSIZE
 40
2.0
  9
$HANDSEED
  5
542
  9
$TILEMODE
 70
1
  9
$MEASUREMENT
 70
1
  9
$INSUNITS
 70
4
  0
ENDSEC
  0
SECTION
  2
CLASSES
  0
CLASS
  1
ACDBDICTIONARYWDFLT
  2
AcDbDictionaryWithDefault
  3
AutoCAD 2000
 90
0
 91
1
280
0
281
0
  0
CLASS
  1
ACDBPLACEHOLDER
  2
AcDbPlaceHolder
  3
AutoCAD 2000
 90
0
 91
1
280
0
281
0
  0
CLASS
  1
LAYOUT
  2
AcDbLayout
  3
AutoCAD 2000
 90
0
 91
0
280
0
281
0
  0
ENDSEC
  0
SECTION
  2
TABLES
  0
TABLE
  2
VPORT
  5
8
100
AcDbSymbolTable
 70
2
  0
VPORT
  5
1F4
100
AcDbSymbolTableRecord
100
AcDbViewportTableRecord
  2
*ACTIVE
 70
0
 10
0.0
 20
0.0
 11
1.0
 21
1.0
 12
56.0
 22
116.5
 13
0.0
 23
0.0
 14
1.0
 24
1.0
 15
0.0
 25
0.0
 16
0.0
 26
0.0
 36
1.0
 17
0.0
 27
0.0
 37
0.0
 40
233.0
 41
0.4806866953
 42
50.0
 43
0.0
 44
0.0
 50
0.0
 51
0.0
 71
0
 72
100
 73
1
 74
1
 75
0
 76
0
 77
0
 78
0
  0
ENDTAB
  0
TABLE
  2
LTYPE
  5
5
100
AcDbSymbolTable
 70
6
  0
LTYPE
  5
14
100
AcDbSymbolTableRecord
100
AcDbLinetypeTableRecord
  2
BYBLOCK
 70
0
  3

 72
65
 73
0
 40
0.0
  0
LTYPE
  5
15
100
AcDbSymbolTableRecord
100
AcDbLinetypeTableRecord
  2
BYLAYER
 70
0
  3

 72
65
 73
0
 40
0.0
  0
LTYPE
  5
16
100
AcDbSymbolTableRecord
100
AcDbLinetypeTableRecord
  2
CONTINUOUS
 70
64
  3
Solid line
 72
65
 73
0
 40
0.0
  0
LTYPE
  5
1F5
100
AcDbSymbolTableRecord
100
AcDbLinetypeTableRecord
  2
CENTER
 70
64
  3
____ _ ____ _ ____ _ ____ _ ____ _ ____ _ ____
 72
65
 73
4
 40
0.6
 49
0.375
 74
0
 49
-0.075
 74
0
 49
0.075
 74
0
 49
-0.075
 74
0
  0
LTYPE
  5
1F6
100
AcDbSymbolTableRecord
100
AcDbLinetypeTableRecord
  2
HIDDEN
 70
64
  3
- - - - - - - - - - - - - - - - - - - -
 72
65
 73
2
 40
0.2
 49
0.1
 74
0
 49
-0.1
 74
0
  0
LTYPE
  5
1F7
100
AcDbSymbolTableRecord
100
AcDbLinetypeTableRecord
  2
PHANTOM
 70
64
  3
_____ _ _ _____ _ _ _____ _ _ _____
 72
65
 73
6
 40
0.8
 49
0.45
 74
0
 49
-0.05
 74
0
 49
0.1
 74
0
 49
-0.05
 74
0
 49
0.1
 74
0
 49
-0.05
 74
0
  0
LTYPE
  5
1F8
100
AcDbSymbolTableRecord
100
AcDbLinetypeTableRecord
  2
DOT
 70
64
  3
. . . . . . . . . . . . . . . . . . . .
 72
65
 73
2
 40
0.2
 49
0.1
 74
0
 49
-0.1
 74
0
  0
LTYPE
  5
1F9
100
AcDbSymbolTableRecord
100
AcDbLinetypeTableRecord
  2
DASHED
 70
64
  3
- - - - - - - - - - - - - - - - - - - -
 72
65
 73
2
 40
0.2
 49
0.1
 74
0
 49
-0.1
 74
0
  0
ENDTAB
  0
TABLE
  2
LAYER
  5
2
100
AcDbSymbolTable
 70
36
  0
LAYER
  5
10
100
AcDbSymbolTableRecord
100
AcDbLayerTableRecord
  2
0
 70
0
 62
7
  6
CONTINUOUS
370
-3
390
F
  0
LAYER
  5
1FA
100
AcDbSymbolTableRecord
100
AcDbLayerTableRecord
  2
DEFAULT_1
 70
0
 62
7
  6
CENTER
370
-3
390
F
  0
LAYER
  5
1FB
100
AcDbSymbolTableRecord
100
AcDbLayerTableRecord
  2
DEFAULT_2
 70
0
 62
8
  6
HIDDEN
370
-3
390
F
  0
LAYER
  5
1FC
100
AcDbSymbolTableRecord
100
AcDbLayerTableRecord
  2
DEFAULT_3
 70
0
 62
7
  6
PHANTOM
370
-3
390
F
  0
LAYER
  5
1FD
100
AcDbSymbolTableRecord
100
AcDbLayerTableRecord
  2
AXIS
 70
0
 62
7
  6
CONTINUOUS
370
-3
390
F
  0
LAYER
  5
1FE
100
AcDbSymbolTableRecord
100
AcDbLayerTableRecord
  2
COORDSYS
 70
0
 62
7
  6
CONTINUOUS
370
-3
390
F
  0
LAYER
  5
1FF
100
AcDbSymbolTableRecord
100
AcDbLayerTableRecord
  2
CURVES
 70
0
 62
7
  6
CONTINUOUS
370
-3
390
F
  0
LAYER
  5
200
100
AcDbSymbolTableRecord
100
AcDbLayerTableRecord
  2
PLANES
 70
0
 62
7
  6
CONTINUOUS
370
-3
390
F
  0
LAYER
  5
201
100
AcDbSymbolTableRecord
100
AcDbLayerTableRecord
  2
POINTS
 70
0
 62
7
  6
CONTINUOUS
370
-3
390
F
  0
LAYER
  5
202
100
AcDbSymbolTableRecord
100
AcDbLayerTableRecord
  2
S-ASSY-COORDSYS
 70
0
 62
7
  6
CONTINUOUS
370
-3
390
F
  0
LAYER
  5
203
100
AcDbSymbolTableRecord
100
AcDbLayerTableRecord
  2
S-ASSY-PLANES
 70
0
 62
7
  6
CONTINUOUS
370
-3
390
F
  0
LAYER
  5
204
100
AcDbSymbolTableRecord
100
AcDbLayerTableRecord
  2
S-AXIS
 70
0
 62
7
  6
CONTINUOUS
370
-3
390
F
  0
LAYER
  5
205
100
AcDbSymbolTableRecord
100
AcDbLayerTableRecord
  2
S-COORDSYS
 70
0
 62
7
  6
CONTINUOUS
370
-3
390
F
  0
LAYER
  5
206
100
AcDbSymbolTableRecord
100
AcDbLayerTableRecord
  2
S-PLANES
 70
0
 62
7
  6
CONTINUOUS
370
-3
390
F
  0
LAYER
  5
207
100
AcDbSymbolTableRecord
100
AcDbLayerTableRecord
  2
THREADS
 70
0
 62
7
  6
CONTINUOUS
370
-3
390
F
  0
LAYER
  5
208
100
AcDbSymbolTableRecord
100
AcDbLayerTableRecord
  2
XSEC_DATUMS
 70
0
 62
7
  6
CONTINUOUS
370
-3
390
F
  0
LAYER
  5
209
100
AcDbSymbolTableRecord
100
AcDbLayerTableRecord
  2
94177300000_BL0
 70
0
 62
7
  6
CONTINUOUS
370
-3
390
F
  0
LAYER
  5
20A
100
AcDbSymbolTableRecord
100
AcDbLayerTableRecord
  2
94177400000_BL1
 70
0
 62
7
  6
CONTINUOUS
370
-3
390
F
  0
LAYER
  5
20B
100
AcDbSymbolTableRecord
100
AcDbLayerTableRecord
  2
93780801R00_BL2
 70
0
 62
7
  6
CONTINUOUS
370
-3
390
F
  0
LAYER
  5
20C
100
AcDbSymbolTableRecord
100
AcDbLayerTableRecord
  2
93780801R00_BL3
 70
0
 62
7
  6
CONTINUOUS
370
-3
390
F
  0
ENDTAB
  0
TABLE
  2
STYLE
  5
3
100
AcDbSymbolTable
 70
1
  0
STYLE
  5
11
100
AcDbSymbolTableRecord
100
AcDbTextStyleTableRecord
  2
STANDARD
 70
0
 40
0.0
 41
1.0
 50
0.0
 71
0
 42
0.2
  3
arialuni.ttf
  4

  0
STYLE
  5
20D
100
AcDbSymbolTableRecord
100
AcDbTextStyleTableRecord
  2
TEXTSTYLE_1
 70
0
 40
0.0
 41
0.8
 50
0.0
 71
0
 42
0.2
  3
gdt
  4

  0
STYLE
  5
20E
100
AcDbSymbolTableRecord
100
AcDbTextStyleTableRecord
  2
TEXTSTYLE_2
 70
0
 40
0.0
 41
1.0
 50
0.0
 71
0
 42
0.2
  3
arialbd.ttf
  4

  0
STYLE
  5
20F
100
AcDbSymbolTableRecord
100
AcDbTextStyleTableRecord
  2
TEXTSTYLE_3
 70
0
 40
0.0
 41
1.0
 50
0.0
 71
0
 42
0.2
  3
arial.ttf
  4

  0
ENDTAB
  0
TABLE
  2
VIEW
  5
6
100
AcDbSymbolTable
 70
0
  0
ENDTAB
  0
TABLE
  2
UCS
  5
7
100
AcDbSymbolTable
 70
0
  0
ENDTAB
  0
TABLE
  2
APPID
  5
9
100
AcDbSymbolTable
 70
1
  0
APPID
  5
210
100
AcDbSymbolTableRecord
100
AcDbRegAppTableRecord
  2
ACAD
 70
0
  0
ENDTAB
  0
TABLE
  2
BLOCK_RECORD
  5
1
100
AcDbSymbolTable
 70
0
  0
BLOCK_RECORD
  5
211
100
AcDbSymbolTableRecord
100
AcDbBlockTableRecord
  2
*Model_Space
  0
BLOCK_RECORD
  5
212
100
AcDbSymbolTableRecord
100
AcDbBlockTableRecord
  2
*Paper_Space
  0
BLOCK_RECORD
  5
213
100
AcDbSymbolTableRecord
100
AcDbBlockTableRecord
  2
_FILLED
  0
BLOCK_RECORD
  5
214
100
AcDbSymbolTableRecord
100
AcDbBlockTableRecord
  2
*D0
  0
BLOCK_RECORD
  5
215
100
AcDbSymbolTableRecord
100
AcDbBlockTableRecord
  2
*D1
  0
BLOCK_RECORD
  5
216
100
AcDbSymbolTableRecord
100
AcDbBlockTableRecord
  2
*D2
  0
BLOCK_RECORD
  5
217
100
AcDbSymbolTableRecord
100
AcDbBlockTableRecord
  2
*D3
  0
BLOCK_RECORD
  5
218
100
AcDbSymbolTableRecord
100
AcDbBlockTableRecord
  2
*D4
  0
BLOCK_RECORD
  5
219
100
AcDbSymbolTableRecord
100
AcDbBlockTableRecord
  2
*D5
  0
BLOCK_RECORD
  5
21A
100
AcDbSymbolTableRecord
100
AcDbBlockTableRecord
  2
*D6
  0
BLOCK_RECORD
  5
21B
100
AcDbSymbolTableRecord
100
AcDbBlockTableRecord
  2
SCHRIFTKOPF_PRODUKTABBIL_BL4
  0
BLOCK_RECORD
  5
21C
100
AcDbSymbolTableRecord
100
AcDbBlockTableRecord
  2
94177300000_BL0
  0
BLOCK_RECORD
  5
21D
100
AcDbSymbolTableRecord
100
AcDbBlockTableRecord
  2
94177400000_BL1
  0
BLOCK_RECORD
  5
21E
100
AcDbSymbolTableRecord
100
AcDbBlockTableRecord
  2
93780801R00_BL2
  0
BLOCK_RECORD
  5
21F
100
AcDbSymbolTableRecord
100
AcDbBlockTableRecord
  2
93780801R00_BL3
  0
ENDTAB
  0
TABLE
  2
DIMSTYLE
  5
A
100
AcDbSymbolTable
 70
1
100
AcDbDimStyleTable
 71
0
  0
DIMSTYLE
105
220
100
AcDbSymbolTableRecord
100
AcDbDimStyleTableRecord
  2
STANDARD
 70
0
  3

  4

 40
1.0
 41
3.5
 42
0.0
 43
0.38
 44
1.0
 45
0.0
 46
0.0
 47
0.001
 48
0.001
140
2.5
141
0.09
142
0.0
143
25.4
144
1.0
145
0.0
146
1.0
147
0.625
 71
1.0
 72
0.0
 73
0
 74
0
 75
0
 76
0
 77
1
 78
8
 79
2
170
0
171
2
172
0
173
0
174
0
175
0
176
0
177
0
178
5
270
2
179
3
271
3
272
3
273
2
274
2
275
0
280
0
281
0
282
0
283
1
284
8
285
0
286
0
287
3
288
0
340
11
278
46
341
213
342
213
343
213
344
213
  0
DIMSTYLE
105
221
100
AcDbSymbolTableRecord
100
AcDbDimStyleTableRecord
  2
DIMSTYLE_1
 70
0
  3

  4

 40
1.0
 41
3.5
 42
0.0
 43
0.38
 44
1.0
 45
0.0
 46
0.0
 47
0.2
 48
0.2
140
2.5
141
0.09
142
0.0
143
25.4
144
1.0
145
0.0
146
1.0
147
0.625
 71
0.0
 72
0.0
 73
0
 74
0
 75
0
 76
0
 77
1
 78
8
 79
2
170
0
171
2
172
0
173
0
174
0
175
0
176
0
177
0
178
5
270
2
179
3
271
3
272
3
273
2
274
2
275
0
280
0
281
0
282
0
283
1
284
8
285
0
286
0
287
3
288
0
340
11
278
46
341
213
342
213
343
213
344
213
  0
DIMSTYLE
105
222
100
AcDbSymbolTableRecord
100
AcDbDimStyleTableRecord
  2
DIMSTYLE_2
 70
0
  3

  4

 40
1.0
 41
3.5
 42
0.0
 43
0.38
 44
1.0
 45
0.0
 46
0.0
 47
0.3
 48
0.3
140
2.5
141
0.09
142
0.0
143
25.4
144
1.0
145
0.0
146
1.0
147
0.625
 71
0.0
 72
0.0
 73
0
 74
0
 75
0
 76
0
 77
1
 78
8
 79
2
170
0
171
2
172
0
173
0
174
0
175
0
176
0
177
0
178
5
270
2
179
3
271
3
272
3
273
2
274
2
275
0
280
0
281
0
282
0
283
1
284
8
285
0
286
0
287
3
288
0
340
11
278
46
341
213
342
213
343
213
344
213
  0
DIMSTYLE
105
223
100
AcDbSymbolTableRecord
100
AcDbDimStyleTableRecord
  2
DIMSTYLE_3
 70
0
  3
<>
  4

 40
1.0
 41
3.5
 42
0.0
 43
0.38
 44
1.0
 45
0.0
 46
0.0
 47
0.2
 48
0.2
140
2.5
141
0.09
142
0.0
143
25.4
144
1.0
145
0.0
146
1.0
147
0.625
 71
0.0
 72
0.0
 73
0
 74
0
 75
0
 76
0
 77
1
 78
8
 79
2
170
0
171
2
172
0
173
0
174
0
175
0
176
0
177
0
178
5
270
2
179
3
271
3
272
3
273
2
274
2
275
0
280
0
281
0
282
0
283
1
284
8
285
0
286
0
287
3
288
0
340
11
278
46
341
213
342
213
343
213
344
213
  0
DIMSTYLE
105
224
100
AcDbSymbolTableRecord
100
AcDbDimStyleTableRecord
  2
DIMSTYLE_4
 70
0
  3

  4

 40
1.0
 41
3.5
 42
0.0
 43
0.38
 44
1.0
 45
0.0
 46
0.0
 47
0.1
 48
0.1
140
2.5
141
0.09
142
0.0
143
25.4
144
1.0
145
0.0
146
1.0
147
0.625
 71
0.0
 72
0.0
 73
0
 74
0
 75
0
 76
0
 77
1
 78
8
 79
2
170
0
171
2
172
0
173
0
174
0
175
0
176
0
177
0
178
5
270
2
179
3
271
3
272
3
273
2
274
2
275
0
280
0
281
0
282
0
283
1
284
8
285
0
286
0
287
3
288
0
340
11
278
46
341
213
342
213
343
213
344
213
  0
ENDTAB
  0
ENDSEC
  0
SECTION
  2
BLOCKS
  0
BLOCK
  5
20
100
AcDbEntity
  8
0
100
AcDbBlockBegin
  2
*Model_Space
 70
0
 10
0.0
 20
0.0
 30
0.0
  3
*Model_Space
  1

  0
ENDBLK
  5
21
100
AcDbEntity
  8
0
100
AcDbBlockEnd
  0
BLOCK
  5
1C
100
AcDbEntity
  8
0
100
AcDbBlockBegin
  2
*Paper_Space
 70
0
 10
0.0
 20
0.0
 30
0.0
  3
*Paper_Space
  1

  0
ENDBLK
  5
1D
100
AcDbEntity
  8
0
100
AcDbBlockEnd
  0
BLOCK
  5
225
100
AcDbEntity
  8
0
100
AcDbBlockBegin
 62
2
  6
CONTINUOUS
  2
SCHRIFTKOPF_PRODUKTABBIL_BL4
 70
64
 10
31.0000000239
 20
34.9999999785
  3
SCHRIFTKOPF_PRODUKTABBIL_BL4
  1

  0
TEXT
  5
226
100
AcDbEntity
  8
0
100
AcDbText
 62
5
  6
CONTINUOUS
 10
11.6434778505
 20
32.1908716548
  7
TEXTSTYLE_2
 40
4.0
  1
6-31985-00-0
 41
1.0
 72
0
100
AcDbText
  0
TEXT
  5
227
100
AcDbEntity
  8
0
100
AcDbText
 62
5
  6
CONTINUOUS
 10
10.9089559916
 20
24.1776342906
  7
TEXTSTYLE_3
 40
2.5
  1
Scale
 41
1.0
 72
0
100
AcDbText
  0
TEXT
  5
228
100
AcDbEntity
  8
0
100
AcDbText
 62
5
  6
CONTINUOUS
 10
10.9089559916
 20
20.4276342906
  7
TEXTSTYLE_3
 40
2.5
  1
1:1
 41
1.0
 72
0
100
AcDbText
  0
TEXT
  5
229
100
AcDbEntity
  8
0
100
AcDbText
 62
5
  6
CONTINUOUS
 10
10.9089559916
 20
13.0518233866
  7
TEXTSTYLE_3
 40
2.5
  1
Draft
 41
1.0
 72
0
100
AcDbText
  0
TEXT
  5
22A
100
AcDbEntity
  8
0
100
AcDbText
 62
5
  6
CONTINUOUS
 10
23.3811982505
 20
13.113338109
  7
TEXTSTYLE_3
 40
2.5
  1
03.11.2020
 41
1.0
 72
0
100
AcDbText
  0
TEXT
  5
22B
100
AcDbEntity
  8
0
100
AcDbText
 62
5
  6
CONTINUOUS
 10
45.8151773032
 20
13.1067461609
  7
TEXTSTYLE_3
 40
2.5
  1
Ar
 41
1.0
 72
0
100
AcDbText
  0
LINE
  5
22C
100
AcDbEntity
  8
0
100
AcDbLine
 62
2
  6
CONTINUOUS
 10
10.0000000239
 20
59.9999999785
 11
52.0000000239
 21
59.9999999785
  0
LINE
  5
22D
100
AcDbEntity
  8
0
100
AcDbLine
 62
2
  6
CONTINUOUS
 10
52.0000000239
 20
59.9999999785
 11
52.0000000239
 21
9.9999999785
  0
LINE
  5
22E
100
AcDbEntity
  8
0
100
AcDbLine
 62
2
  6
CONTINUOUS
 10
10.0000000239
 20
9.9999999785
 11
52.0000000239
 21
9.9999999785
  0
LINE
  5
22F
100
AcDbEntity
  8
0
100
AcDbLine
 62
2
  6
CONTINUOUS
 10
10.0000000239
 20
39.9999999785
 11
21.0000000239
 21
39.9999999785
  0
LINE
  5
230
100
AcDbEntity
  8
0
100
AcDbLine
 62
2
  6
CONTINUOUS
 10
10.0000000239
 20
27.9999999785
 11
21.0000000239
 21
27.9999999785
  0
LINE
  5
231
100
AcDbEntity
  8
0
100
AcDbLine
 62
2
  6
CONTINUOUS
 10
10.0000000239
 20
18.9999999785
 11
21.0000000239
 21
18.9999999785
  0
LINE
  5
232
100
AcDbEntity
  8
0
100
AcDbLine
 62
2
  6
CONTINUOUS
 10
21.0000000239
 20
39.9999999785
 11
43.0000000239
 21
39.9999999785
  0
LINE
  5
233
100
AcDbEntity
  8
0
100
AcDbLine
 62
2
  6
CONTINUOUS
 10
43.0000000239
 20
39.9999999785
 11
52.0000000239
 21
39.9999999785
  0
LINE
  5
234
100
AcDbEntity
  8
0
100
AcDbLine
 62
2
  6
CONTINUOUS
 10
21.0000000239
 20
27.9999999785
 11
43.0000000239
 21
27.9999999785
  0
LINE
  5
235
100
AcDbEntity
  8
0
100
AcDbLine
 62
2
  6
CONTINUOUS
 10
43.0000000239
 20
27.9999999785
 11
52.0000000239
 21
27.9999999785
  0
LINE
  5
236
100
AcDbEntity
  8
0
100
AcDbLine
 62
2
  6
CONTINUOUS
 10
21.0000000239
 20
18.9999999785
 11
21.0000000239
 21
9.9999999785
  0
LINE
  5
237
100
AcDbEntity
  8
0
100
AcDbLine
 62
2
  6
CONTINUOUS
 10
21.0000000239
 20
18.9999999785
 11
43.0000000239
 21
18.9999999785
  0
LINE
  5
238
100
AcDbEntity
  8
0
100
AcDbLine
 62
2
  6
CONTINUOUS
 10
43.0000000239
 20
18.9999999785
 11
43.0000000239
 21
9.9999999785
  0
LINE
  5
239
100
AcDbEntity
  8
0
100
AcDbLine
 62
2
  6
CONTINUOUS
 10
43.0000000239
 20
18.9999999785
 11
52.0000000239
 21
18.9999999785
  0
LINE
  5
23A
100
AcDbEntity
  8
0
100
AcDbLine
 62
2
  6
CONTINUOUS
 10
10.0000000239
 20
9.9999999785
 11
10.0000000239
 21
59.9999999785
  0
ARC
  5
23B
100
AcDbEntity
  8
0
100
AcDbCircle
 62
2
  6
CONTINUOUS
 10
17.6290122978
 20
56.1308274644
 40
1.2679261569
100
AcDbArc
 50
90.0
 51
180.0
  0
LINE
  5
23C
100
AcDbEntity
  8
0
100
AcDbLine
 62
2
  6
CONTINUOUS
 10
17.6290122978
 20
57.3987536213
 11
44.0849627663
 21
57.3987536213
  0
ARC
  5
23D
100
AcDbEntity
  8
0
100
AcDbCircle
 62
2
  6
CONTINUOUS
 10
44.0849627663
 20
56.1308274644
 40
1.2679261569
100
AcDbArc
 50
0.0
 51
90.0
  0
LINE
  5
23E
100
AcDbEntity
  8
0
100
AcDbLine
 62
2
  6
CONTINUOUS
 10
45.3528889231
 20
56.1308274644
 11
45.3528889231
 21
43.6666783678
  0
ARC
  5
23F
100
AcDbEntity
  8
0
100
AcDbCircle
 62
2
  6
CONTINUOUS
 10
44.0849627663
 20
43.6666783678
 40
1.2679261569
100
AcDbArc
 50
270.0
 51
360.0
  0
LINE
  5
240
100
AcDbEntity
  8
0
100
AcDbLine
 62
2
  6
CONTINUOUS
 10
44.0849627663
 20
42.3987522109
 11
17.6290122978
 21
42.3987522109
  0
ARC
  5
241
100
AcDbEntity
  8
0
100
AcDbCircle
 62
2
  6
CONTINUOUS
 10
17.6290122978
 20
43.6666783678
 40
1.2679261569
100
AcDbArc
 50
180.0
 51
270.0
  0
LINE
  5
242
100
AcDbEntity
  8
0
100
AcDbLine
 62
2
  6
CONTINUOUS
 10
16.3610861409
 20
43.6666783678
 11
16.3610861409
 21
56.1308274644
  0
ARC
  5
243
100
AcDbEntity
  8
0
100
AcDbCircle
 62
2
  6
CONTINUOUS
 10
25.0981141224
 20
49.7181091975
 40
2.8108394023
100
AcDbArc
 50
35.2282226131
 51
336.934010569
  0
LINE
  5
244
100
AcDbEntity
  8
0
100
AcDbLine
 62
2
  6
CONTINUOUS
 10
27.3941788183
 20
51.3394990511
 11
29.5865173301
 21
52.961744213
  0
ARC
  5
245
100
AcDbEntity
  8
0
100
AcDbCircle
 62
2
  6
CONTINUOUS
 10
25.0981141224
 20
49.7181091975
 40
5.5377731507
100
AcDbArc
 50
35.8545159817
 51
11.4705154501
  0
LINE
  5
246
100
AcDbEntity
  8
0
100
AcDbLine
 62
2
  6
CONTINUOUS
 10
30.5252822719
 20
50.8193709036
 11
25.2029961896
 21
50.8193709036
  0
ARC
  5
247
100
AcDbEntity
  8
0
100
AcDbCircle
 62
2
  6
CONTINUOUS
 10
25.2029961896
 20
49.7181091975
 40
1.1012617061
100
AcDbArc
 50
90.0
 51
270.0
  0
LINE
  5
248
100
AcDbEntity
  8
0
100
AcDbLine
 62
2
  6
CONTINUOUS
 10
25.2029961896
 20
48.6168474914
 11
27.6842387906
 21
48.6168474914
  0
ARC
  5
249
100
AcDbEntity
  8
0
100
AcDbCircle
 62
2
  6
CONTINUOUS
 10
25.2029961896
 20
49.7181091975
 40
5.9153485927
100
AcDbArc
 50
349.2706340045
 51
10.7293659955
  0
LINE
  5
24A
100
AcDbEntity
  8
0
100
AcDbLine
 62
2
  6
CONTINUOUS
 10
31.014929743
 20
48.6168474914
 11
32.8593870987
 21
48.6168474914
  0
LINE
  5
24B
100
AcDbEntity
  8
0
100
AcDbLine
 62
2
  6
CONTINUOUS
 10
32.8593870987
 20
48.6168474914
 11
32.8593870987
 21
48.0399961216
  0
ARC
  5
24C
100
AcDbEntity
  8
0
100
AcDbCircle
 62
2
  6
CONTINUOUS
 10
36.7610000003
 20
48.0399961216
 40
3.9016129016
100
AcDbArc
 50
180.0
 51
360.0
  0
LINE
  5
24D
100
AcDbEntity
  8
0
100
AcDbLine
 62
2
  6
CONTINUOUS
 10
40.6626129019
 20
48.0399961216
 11
40.6626129019
 21
54.9622125599
  0
LINE
  5
24E
100
AcDbEntity
  8
0
100
AcDbLine
 62
2
  6
CONTINUOUS
 10
40.6626129019
 20
54.9622125599
 11
37.9356791535
 21
54.9622125599
  0
LINE
  5
24F
100
AcDbEntity
  8
0
100
AcDbLine
 62
2
  6
CONTINUOUS
 10
37.9356791535
 20
54.9622125599
 11
37.9356791535
 21
48.0399961216
  0
ARC
  5
250
100
AcDbEntity
  8
0
100
AcDbCircle
 62
2
  6
CONTINUOUS
 10
36.7610000003
 20
48.0399961216
 40
1.1746791532
100
AcDbArc
 50
180.0
 51
360.0
  0
LINE
  5
251
100
AcDbEntity
  8
0
100
AcDbLine
 62
2
  6
CONTINUOUS
 10
35.5863208471
 20
48.0399961216
 11
35.5863208471
 21
54.9622125599
  0
LINE
  5
252
100
AcDbEntity
  8
0
100
AcDbLine
 62
2
  6
CONTINUOUS
 10
35.5863208471
 20
54.9622125599
 11
32.8593870987
 21
54.9622125599
  0
LINE
  5
253
100
AcDbEntity
  8
0
100
AcDbLine
 62
2
  6
CONTINUOUS
 10
32.8593870987
 20
54.9622125599
 11
32.8593870987
 21
50.8193709036
  0
LINE
  5
254
100
AcDbEntity
  8
0
100
AcDbLine
 62
2
  6
CONTINUOUS
 10
32.8593870987
 20
50.8193709036
 11
31.014929743
 21
50.8193709036
  0
LINE
  5
255
100
AcDbEntity
  8
0
100
AcDbLine
 62
2
  6
CONTINUOUS
 10
45.1996126437
 20
56.7334185992
 11
45.2185459944
 21
56.6972621935
  0
LWPOLYLINE
  5
256
100
AcDbEntity
  8
0
100
AcDbPolyline
 62
2
  6
CONTINUOUS
 90
42
 70
0
 10
17.4964779251
 20
57.3918123624
 10
17.6290122978
 20
57.398757363
 10
44.0849627663
 20
57.398757363
 10
44.217497139
 20
57.3918123624
 10
44.3485794374
 20
57.3710523604
 10
44.4767734964
 20
57.3367023572
 10
44.600674795
 20
57.2891373527
 10
44.7189258447
 20
57.2288823471
 10
44.8302310623
 20
57.1565973403
 10
44.9333709645
 20
57.0730773324
 10
45.0272155289
 20
56.9792373236
 10
45.1107365748
 20
56.8760973139
 10
45.1830190283
 20
56.7647973034
 10
45.2432709475
 20
56.6465372923
 10
45.2908322
 20
56.5226372807
 10
45.3251816945
 20
56.3944472686
 10
45.345943091
 20
56.2633622563
 10
45.3528889232
 20
56.1308222438
 10
24.5102931399
 20
55.2245960958
 10
23.6929701738
 20
55.0746474408
 10
22.9072856488
 20
54.8040901322
 10
22.1709301607
 20
54.4190160805
 10
21.5004836049
 20
53.9280956735
 10
20.9110418611
 20
53.3423825519
 10
20.4158768919
 20
52.6750647241
 10
20.0261379092
 20
51.9411676226
 10
16.3610861409
 20
43.6666760719
 10
16.3610861409
 20
56.1308222438
 10
16.368031973
 20
56.2633622563
 10
16.3887933695
 20
56.3944472686
 10
16.4231428641
 20
56.5226372807
 10
16.4707041165
 20
56.6465372923
 10
16.5309560358
 20
56.7647973034
 10
16.6032384892
 20
56.8760973139
 10
16.6867595352
 20
56.9792373236
 10
16.7806040996
 20
57.0730773324
 10
16.8837440018
 20
57.1565973403
 10
16.9950492193
 20
57.2288823471
 10
17.113300269
 20
57.2891373527
 10
17.2372015677
 20
57.3367023572
 10
17.3653956267
 20
57.3710523604
 10
17.4964779251
 20
57.3918123624
  0
HATCH
  5
257
100
AcDbEntity
  8
0
100
AcDbHatch
 62
2
  6
CONTINUOUS
 10
0.0
 20
0.0
 30
0.0
210
0.0
220
0.0
230
1.0
  2
SOLID
 70
1
 71
1
 91
1
 92
1
 93
41
 72
1
 10
17.4964779251
 20
57.3918123624
 11
17.6290122978
 21
57.398757363
 72
1
 10
17.6290122978
 20
57.398757363
 11
44.0849627663
 21
57.398757363
 72
1
 10
44.0849627663
 20
57.398757363
 11
44.217497139
 21
57.3918123624
 72
1
 10
44.217497139
 20
57.3918123624
 11
44.3485794374
 21
57.3710523604
 72
1
 10
44.3485794374
 20
57.3710523604
 11
44.4767734964
 21
57.3367023572
 72
1
 10
44.4767734964
 20
57.3367023572
 11
44.600674795
 21
57.2891373527
 72
1
 10
44.600674795
 20
57.2891373527
 11
44.7189258447
 21
57.2288823471
 72
1
 10
44.7189258447
 20
57.2288823471
 11
44.8302310623
 21
57.1565973403
 72
1
 10
44.8302310623
 20
57.1565973403
 11
44.9333709645
 21
57.0730773324
 72
1
 10
44.9333709645
 20
57.0730773324
 11
45.0272155289
 21
56.9792373236
 72
1
 10
45.0272155289
 20
56.9792373236
 11
45.1107365748
 21
56.8760973139
 72
1
 10
45.1107365748
 20
56.8760973139
 11
45.1830190283
 21
56.7647973034
 72
1
 10
45.1830190283
 20
56.7647973034
 11
45.2432709475
 21
56.6465372923
 72
1
 10
45.2432709475
 20
56.6465372923
 11
45.2908322
 21
56.5226372807
 72
1
 10
45.2908322
 20
56.5226372807
 11
45.3251816945
 21
56.3944472686
 72
1
 10
45.3251816945
 20
56.3944472686
 11
45.345943091
 21
56.2633622563
 72
1
 10
45.345943091
 20
56.2633622563
 11
45.3528889232
 21
56.1308222438
 72
1
 10
45.3528889232
 20
56.1308222438
 11
24.5102931399
 21
55.2245960958
 72
1
 10
24.5102931399
 20
55.2245960958
 11
23.6929701738
 21
55.0746474408
 72
1
 10
23.6929701738
 20
55.0746474408
 11
22.9072856488
 21
54.8040901322
 72
1
 10
22.9072856488
 20
54.8040901322
 11
22.1709301607
 21
54.4190160805
 72
1
 10
22.1709301607
 20
54.4190160805
 11
21.5004836049
 21
53.9280956735
 72
1
 10
21.5004836049
 20
53.9280956735
 11
20.9110418611
 21
53.3423825519
 72
1
 10
20.9110418611
 20
53.3423825519
 11
20.4158768919
 21
52.6750647241
 72
1
 10
20.4158768919
 20
52.6750647241
 11
20.0261379092
 21
51.9411676226
 72
1
 10
20.0261379092
 20
51.9411676226
 11
16.3610861409
 21
43.6666760719
 72
1
 10
16.3610861409
 20
43.6666760719
 11
16.3610861409
 21
56.1308222438
 72
1
 10
16.3610861409
 20
56.1308222438
 11
16.368031973
 21
56.2633622563
 72
1
 10
16.368031973
 20
56.2633622563
 11
16.3887933695
 21
56.3944472686
 72
1
 10
16.3887933695
 20
56.3944472686
 11
16.4231428641
 21
56.5226372807
 72
1
 10
16.4231428641
 20
56.5226372807
 11
16.4707041165
 21
56.6465372923
 72
1
 10
16.4707041165
 20
56.6465372923
 11
16.5309560358
 21
56.7647973034
 72
1
 10
16.5309560358
 20
56.7647973034
 11
16.6032384892
 21
56.8760973139
 72
1
 10
16.6032384892
 20
56.8760973139
 11
16.6867595352
 21
56.9792373236
 72
1
 10
16.6867595352
 20
56.9792373236
 11
16.7806040996
 21
57.0730773324
 72
1
 10
16.7806040996
 20
57.0730773324
 11
16.8837440018
 21
57.1565973403
 72
1
 10
16.8837440018
 20
57.1565973403
 11
16.9950492193
 21
57.2288823471
 72
1
 10
16.9950492193
 20
57.2288823471
 11
17.113300269
 21
57.2891373527
 72
1
 10
17.113300269
 20
57.2891373527
 11
17.2372015677
 21
57.3367023572
 72
1
 10
17.2372015677
 20
57.3367023572
 11
17.3653956267
 21
57.3710523604
 72
1
 10
17.3653956267
 20
57.3710523604
 11
17.4964779251
 21
57.3918123624
 97
1
330
256
 75
0
 76
1
 98
1
 10
0.0
 20
0.0
  0
LWPOLYLINE
  5
258
100
AcDbEntity
  8
0
100
AcDbPolyline
 62
2
  6
CONTINUOUS
 90
23
 70
0
 10
26.9669939813
 20
54.9309989471
 10
26.1659444963
 20
55.151954039
 10
45.3528889232
 20
56.1308222438
 10
45.3528889231
 20
43.6666760719
 10
40.1398958888
 20
46.0891912997
 10
40.3656203039
 20
46.5469163427
 10
40.5296686661
 20
47.0301863881
 10
40.6292340626
 20
47.5307364352
 10
40.6626129019
 20
48.0400014831
 10
40.6626129019
 20
54.9622171339
 10
37.9356791535
 20
54.9622171339
 10
35.5863208471
 20
54.9622171339
 10
32.8593870987
 20
54.9622171339
 10
32.8593870987
 20
50.8193667444
 10
31.0149297429
 20
50.8193667444
 10
30.6289655903
 20
49.9949006497
 10
30.5252822719
 20
50.8193667444
 10
27.3941788183
 20
51.3394990511
 10
29.5865173301
 20
52.961744213
 10
29.0506384437
 20
53.5968310176
 10
28.425763901
 20
54.1445839144
 10
27.7259634749
 20
54.5926696135
 10
26.9669939813
 20
54.9309989471
  0
HATCH
  5
259
100
AcDbEntity
  8
0
100
AcDbHatch
 62
2
  6
CONTINUOUS
 10
0.0
 20
0.0
 30
0.0
210
0.0
220
0.0
230
1.0
  2
SOLID
 70
1
 71
1
 91
1
 92
1
 93
22
 72
1
 10
26.9669939813
 20
54.9309989471
 11
26.1659444963
 21
55.151954039
 72
1
 10
26.1659444963
 20
55.151954039
 11
45.3528889232
 21
56.1308222438
 72
1
 10
45.3528889232
 20
56.1308222438
 11
45.3528889231
 21
43.6666760719
 72
1
 10
45.3528889231
 20
43.6666760719
 11
40.1398958888
 21
46.0891912997
 72
1
 10
40.1398958888
 20
46.0891912997
 11
40.3656203039
 21
46.5469163427
 72
1
 10
40.3656203039
 20
46.5469163427
 11
40.5296686661
 21
47.0301863881
 72
1
 10
40.5296686661
 20
47.0301863881
 11
40.6292340626
 21
47.5307364352
 72
1
 10
40.6292340626
 20
47.5307364352
 11
40.6626129019
 21
48.0400014831
 72
1
 10
40.6626129019
 20
48.0400014831
 11
40.6626129019
 21
54.9622171339
 72
1
 10
40.6626129019
 20
54.9622171339
 11
37.9356791535
 21
54.9622171339
 72
1
 10
37.9356791535
 20
54.9622171339
 11
35.5863208471
 21
54.9622171339
 72
1
 10
35.5863208471
 20
54.9622171339
 11
32.8593870987
 21
54.9622171339
 72
1
 10
32.8593870987
 20
54.9622171339
 11
32.8593870987
 21
50.8193667444
 72
1
 10
32.8593870987
 20
50.8193667444
 11
31.0149297429
 21
50.8193667444
 72
1
 10
31.0149297429
 20
50.8193667444
 11
30.6289655903
 21
49.9949006497
 72
1
 10
30.6289655903
 20
49.9949006497
 11
30.5252822719
 21
50.8193667444
 72
1
 10
30.5252822719
 20
50.8193667444
 11
27.3941788183
 21
51.3394990511
 72
1
 10
27.3941788183
 20
51.3394990511
 11
29.5865173301
 21
52.961744213
 72
1
 10
29.5865173301
 20
52.961744213
 11
29.0506384437
 21
53.5968310176
 72
1
 10
29.0506384437
 20
53.5968310176
 11
28.425763901
 21
54.1445839144
 72
1
 10
28.425763901
 20
54.1445839144
 11
27.7259634749
 21
54.5926696135
 72
1
 10
27.7259634749
 20
54.5926696135
 11
26.9669939813
 21
54.9309989471
 97
1
330
258
 75
0
 76
1
 98
1
 10
0.0
 20
0.0
  0
LWPOLYLINE
  5
25A
100
AcDbEntity
  8
0
100
AcDbPolyline
 62
2
  6
CONTINUOUS
 90
20
 70
0
 10
24.5005684601
 20
52.4646993247
 10
24.9072650814
 20
52.5224620264
 10
25.3180376874
 20
52.5203318459
 10
25.7241133608
 20
52.4583542776
 10
26.1168194973
 20
52.3378529835
 10
26.4877690273
 20
52.1614015236
 10
26.8290395394
 20
51.9327683916
 10
27.1333424806
 20
51.6568365314
 10
27.3941788183
 20
51.3394990511
 10
30.5252822719
 20
50.8193667444
 10
25.2029961896
 20
50.8193667444
 10
25.0592526925
 20
50.8099494571
 10
22.4413895628
 20
50.6360595011
 10
22.6035508656
 20
51.0134749
 10
22.8189888395
 20
51.3632250264
 10
23.0831023513
 20
51.6778402269
 10
23.3902506985
 20
51.9506012291
 10
23.7338740791
 20
52.175682645
 10
24.1066336894
 20
52.3482773854
 10
24.5005684601
 20
52.4646993247
  0
HATCH
  5
25B
100
AcDbEntity
  8
0
100
AcDbHatch
 62
2
  6
CONTINUOUS
 10
0.0
 20
0.0
 30
0.0
210
0.0
220
0.0
230
1.0
  2
SOLID
 70
1
 71
1
 91
1
 92
1
 93
19
 72
1
 10
24.5005684601
 20
52.4646993247
 11
24.9072650814
 21
52.5224620264
 72
1
 10
24.9072650814
 20
52.5224620264
 11
25.3180376874
 21
52.5203318459
 72
1
 10
25.3180376874
 20
52.5203318459
 11
25.7241133608
 21
52.4583542776
 72
1
 10
25.7241133608
 20
52.4583542776
 11
26.1168194973
 21
52.3378529835
 72
1
 10
26.1168194973
 20
52.3378529835
 11
26.4877690273
 21
52.1614015236
 72
1
 10
26.4877690273
 20
52.1614015236
 11
26.8290395394
 21
51.9327683916
 72
1
 10
26.8290395394
 20
51.9327683916
 11
27.1333424806
 21
51.6568365314
 72
1
 10
27.1333424806
 20
51.6568365314
 11
27.3941788183
 21
51.3394990511
 72
1
 10
27.3941788183
 20
51.3394990511
 11
30.5252822719
 21
50.8193667444
 72
1
 10
30.5252822719
 20
50.8193667444
 11
25.2029961896
 21
50.8193667444
 72
1
 10
25.2029961896
 20
50.8193667444
 11
25.0592526925
 21
50.8099494571
 72
1
 10
25.0592526925
 20
50.8099494571
 11
22.4413895628
 21
50.6360595011
 72
1
 10
22.4413895628
 20
50.6360595011
 11
22.6035508656
 21
51.0134749
 72
1
 10
22.6035508656
 20
51.0134749
 11
22.8189888395
 21
51.3632250264
 72
1
 10
22.8189888395
 20
51.3632250264
 11
23.0831023513
 21
51.6778402269
 72
1
 10
23.0831023513
 20
51.6778402269
 11
23.3902506985
 21
51.9506012291
 72
1
 10
23.3902506985
 20
51.9506012291
 11
23.7338740791
 21
52.175682645
 72
1
 10
23.7338740791
 20
52.175682645
 11
24.1066336894
 21
52.3482773854
 72
1
 10
24.1066336894
 20
52.3482773854
 11
24.5005684601
 21
52.4646993247
 97
1
330
25A
 75
0
 76
1
 98
1
 10
0.0
 20
0.0
  0
LWPOLYLINE
  5
25C
100
AcDbEntity
  8
0
100
AcDbPolyline
 62
2
  6
CONTINUOUS
 90
8
 70
0
 10
24.6523653366
 20
50.6718298112
 10
24.5325905397
 20
50.5917988506
 10
22.3359682285
 20
50.2390393331
 10
22.4413895628
 20
50.6360595011
 10
25.0592526925
 20
50.8099494571
 10
24.9179686864
 20
50.7818463209
 10
24.78156158
 20
50.7355423477
 10
24.6523653366
 20
50.6718298112
  0
HATCH
  5
25D
100
AcDbEntity
  8
0
100
AcDbHatch
 62
2
  6
CONTINUOUS
 10
0.0
 20
0.0
 30
0.0
210
0.0
220
0.0
230
1.0
  2
SOLID
 70
1
 71
1
 91
1
 92
1
 93
7
 72
1
 10
24.6523653366
 20
50.6718298112
 11
24.5325905397
 21
50.5917988506
 72
1
 10
24.5325905397
 20
50.5917988506
 11
22.3359682285
 21
50.2390393331
 72
1
 10
22.3359682285
 20
50.2390393331
 11
22.4413895628
 21
50.6360595011
 72
1
 10
22.4413895628
 20
50.6360595011
 11
25.0592526925
 21
50.8099494571
 72
1
 10
25.0592526925
 20
50.8099494571
 11
24.9179686864
 21
50.7818463209
 72
1
 10
24.9179686864
 20
50.7818463209
 11
24.78156158
 21
50.7355423477
 72
1
 10
24.78156158
 20
50.7355423477
 11
24.6523653366
 21
50.6718298112
 97
1
330
25C
 75
0
 76
1
 98
1
 10
0.0
 20
0.0
  0
LWPOLYLINE
  5
25E
100
AcDbEntity
  8
0
100
AcDbPolyline
 62
2
  6
CONTINUOUS
 90
8
 70
0
 10
24.2492755759
 20
50.2687400506
 10
24.1855630394
 20
50.1395438071
 10
22.2895383581
 20
49.830893601
 10
22.3359682285
 20
50.2390393331
 10
24.5325905397
 20
50.5917988506
 10
24.4242865694
 20
50.4968188178
 10
24.3293065366
 20
50.3885148474
 10
24.2492755759
 20
50.2687400506
  0
HATCH
  5
25F
100
AcDbEntity
  8
0
100
AcDbHatch
 62
2
  6
CONTINUOUS
 10
0.0
 20
0.0
 30
0.0
210
0.0
220
0.0
230
1.0
  2
SOLID
 70
1
 71
1
 91
1
 92
1
 93
7
 72
1
 10
24.2492755759
 20
50.2687400506
 11
24.1855630394
 21
50.1395438071
 72
1
 10
24.1855630394
 20
50.1395438071
 11
22.2895383581
 21
49.830893601
 72
1
 10
22.2895383581
 20
49.830893601
 11
22.3359682285
 21
50.2390393331
 72
1
 10
22.3359682285
 20
50.2390393331
 11
24.5325905397
 21
50.5917988506
 72
1
 10
24.5325905397
 20
50.5917988506
 11
24.4242865694
 21
50.4968188178
 72
1
 10
24.4242865694
 20
50.4968188178
 11
24.3293065366
 21
50.3885148474
 72
1
 10
24.3293065366
 20
50.3885148474
 11
24.2492755759
 21
50.2687400506
 97
1
330
25E
 75
0
 76
1
 98
1
 10
0.0
 20
0.0
  0
LWPOLYLINE
  5
260
100
AcDbEntity
  8
0
100
AcDbPolyline
 62
2
  6
CONTINUOUS
 90
7
 70
0
 10
31.0993048012
 20
50.1923388153
 10
31.1162282192
 20
49.8763366836
 10
30.6081153911
 20
49.1641981161
 10
30.6289655903
 20
49.9949006497
 10
31.0149297429
 20
50.8193667444
 10
31.0655063992
 20
50.5069837221
 10
31.0993048012
 20
50.1923388153
  0
HATCH
  5
261
100
AcDbEntity
  8
0
100
AcDbHatch
 62
2
  6
CONTINUOUS
 10
0.0
 20
0.0
 30
0.0
210
0.0
220
0.0
230
1.0
  2
SOLID
 70
1
 71
1
 91
1
 92
1
 93
6
 72
1
 10
31.0993048012
 20
50.1923388153
 11
31.1162282192
 21
49.8763366836
 72
1
 10
31.1162282192
 20
49.8763366836
 11
30.6081153911
 21
49.1641981161
 72
1
 10
30.6081153911
 20
49.1641981161
 11
30.6289655903
 21
49.9949006497
 72
1
 10
30.6289655903
 20
49.9949006497
 11
31.0149297429
 21
50.8193667444
 72
1
 10
31.0149297429
 20
50.8193667444
 11
31.0655063992
 21
50.5069837221
 72
1
 10
31.0655063992
 20
50.5069837221
 11
31.0993048012
 21
50.1923388153
 97
1
330
260
 75
0
 76
1
 98
1
 10
0.0
 20
0.0
  0
LWPOLYLINE
  5
262
100
AcDbEntity
  8
0
100
AcDbPolyline
 62
2
  6
CONTINUOUS
 90
7
 70
0
 10
24.1111559301
 20
49.8618526947
 10
24.1017344835
 20
49.7181091975
 10
22.3030915597
 20
49.4203391196
 10
22.2895383581
 20
49.830893601
 10
24.1855630394
 20
50.1395438071
 10
24.1392590662
 20
50.0031367007
 10
24.1111559301
 20
49.8618526947
  0
HATCH
  5
263
100
AcDbEntity
  8
0
100
AcDbHatch
 62
2
  6
CONTINUOUS
 10
0.0
 20
0.0
 30
0.0
210
0.0
220
0.0
230
1.0
  2
SOLID
 70
1
 71
1
 91
1
 92
1
 93
6
 72
1
 10
24.1111559301
 20
49.8618526947
 11
24.1017344835
 21
49.7181091975
 72
1
 10
24.1017344835
 20
49.7181091975
 11
22.3030915597
 21
49.4203391196
 72
1
 10
22.3030915597
 20
49.4203391196
 11
22.2895383581
 21
49.830893601
 72
1
 10
22.2895383581
 20
49.830893601
 11
24.1855630394
 21
50.1395438071
 72
1
 10
24.1855630394
 20
50.1395438071
 11
24.1392590662
 21
50.0031367007
 72
1
 10
24.1392590662
 20
50.0031367007
 11
24.1111559301
 21
49.8618526947
 97
1
330
262
 75
0
 76
1
 98
1
 10
0.0
 20
0.0
  0
LWPOLYLINE
  5
264
100
AcDbEntity
  8
0
100
AcDbPolyline
 62
2
  6
CONTINUOUS
 90
7
 70
0
 10
24.1392590662
 20
49.4330816944
 10
24.1855630394
 20
49.2966745879
 10
22.3763383759
 20
49.0161441476
 10
22.3030915597
 20
49.4203391196
 10
24.1017344835
 20
49.7181091975
 10
24.1111559301
 20
49.5743657004
 10
24.1392590662
 20
49.4330816944
  0
HATCH
  5
265
100
AcDbEntity
  8
0
100
AcDbHatch
 62
2
  6
CONTINUOUS
 10
0.0
 20
0.0
 30
0.0
210
0.0
220
0.0
230
1.0
  2
SOLID
 70
1
 71
1
 91
1
 92
1
 93
6
 72
1
 10
24.1392590662
 20
49.4330816944
 11
24.1855630394
 21
49.2966745879
 72
1
 10
24.1855630394
 20
49.2966745879
 11
22.3763383759
 21
49.0161441476
 72
1
 10
22.3763383759
 20
49.0161441476
 11
22.3030915597
 21
49.4203391196
 72
1
 10
22.3030915597
 20
49.4203391196
 11
24.1017344835
 21
49.7181091975
 72
1
 10
24.1017344835
 20
49.7181091975
 11
24.1111559301
 21
49.5743657004
 72
1
 10
24.1111559301
 20
49.5743657004
 11
24.1392590662
 21
49.4330816944
 97
1
330
264
 75
0
 76
1
 98
1
 10
0.0
 20
0.0
  0
LWPOLYLINE
  5
266
100
AcDbEntity
  8
0
100
AcDbPolyline
 62
2
  6
CONTINUOUS
 90
7
 70
0
 10
31.0993048012
 20
49.2438795798
 10
31.0655063992
 20
48.929234673
 10
30.4632011408
 20
48.3459675312
 10
30.6081153911
 20
49.1641981161
 10
31.1162282192
 20
49.8763366836
 10
31.1162282192
 20
49.5598817115
 10
31.0993048012
 20
49.2438795798
  0
HATCH
  5
267
100
AcDbEntity
  8
0
100
AcDbHatch
 62
2
  6
CONTINUOUS
 10
0.0
 20
0.0
 30
0.0
210
0.0
220
0.0
230
1.0
  2
SOLID
 70
1
 71
1
 91
1
 92
1
 93
6
 72
1
 10
31.0993048012
 20
49.2438795798
 11
31.0655063992
 21
48.929234673
 72
1
 10
31.0655063992
 20
48.929234673
 11
30.4632011408
 21
48.3459675312
 72
1
 10
30.4632011408
 20
48.3459675312
 11
30.6081153911
 21
49.1641981161
 72
1
 10
30.6081153911
 20
49.1641981161
 11
31.1162282192
 21
49.8763366836
 72
1
 10
31.1162282192
 20
49.8763366836
 11
31.1162282192
 21
49.5598817115
 72
1
 10
31.1162282192
 20
49.5598817115
 11
31.0993048012
 21
49.2438795798
 97
1
330
266
 75
0
 76
1
 98
1
 10
0.0
 20
0.0
  0
LWPOLYLINE
  5
268
100
AcDbEntity
  8
0
100
AcDbPolyline
 62
2
  6
CONTINUOUS
 90
7
 70
0
 10
24.3293065366
 20
49.0477035476
 10
24.4242865694
 20
48.9393995773
 10
22.5077144663
 20
48.6269411229
 10
22.3763383759
 20
49.0161441476
 10
24.1855630394
 20
49.2966745879
 10
24.2492755759
 20
49.1674783445
 10
24.3293065366
 20
49.0477035476
  0
HATCH
  5
269
100
AcDbEntity
  8
0
100
AcDbHatch
 62
2
  6
CONTINUOUS
 10
0.0
 20
0.0
 30
0.0
210
0.0
220
0.0
230
1.0
  2
SOLID
 70
1
 71
1
 91
1
 92
1
 93
6
 72
1
 10
24.3293065366
 20
49.0477035476
 11
24.4242865694
 21
48.9393995773
 72
1
 10
24.4242865694
 20
48.9393995773
 11
22.5077144663
 21
48.6269411229
 72
1
 10
22.5077144663
 20
48.6269411229
 11
22.3763383759
 21
49.0161441476
 72
1
 10
22.3763383759
 20
49.0161441476
 11
24.1855630394
 21
49.2966745879
 72
1
 10
24.1855630394
 20
49.2966745879
 11
24.2492755759
 21
49.1674783445
 72
1
 10
24.2492755759
 20
49.1674783445
 11
24.3293065366
 21
49.0477035476
 97
1
330
268
 75
0
 76
1
 98
1
 10
0.0
 20
0.0
  0
LWPOLYLINE
  5
26A
100
AcDbEntity
  8
0
100
AcDbPolyline
 62
2
  6
CONTINUOUS
 90
9
 70
0
 10
24.9179686864
 20
48.6543720741
 10
25.0592526925
 20
48.626268938
 10
22.6944140166
 20
48.2610422989
 10
22.5077144663
 20
48.6269411229
 10
24.4242865694
 20
48.9393995773
 10
24.5325905397
 20
48.8444195445
 10
24.6523653366
 20
48.7643885839
 10
24.78156158
 20
48.7006760474
 10
24.9179686864
 20
48.6543720741
  0
HATCH
  5
26B
100
AcDbEntity
  8
0
100
AcDbHatch
 62
2
  6
CONTINUOUS
 10
0.0
 20
0.0
 30
0.0
210
0.0
220
0.0
230
1.0
  2
SOLID
 70
1
 71
1
 91
1
 92
1
 93
8
 72
1
 10
24.9179686864
 20
48.6543720741
 11
25.0592526925
 21
48.626268938
 72
1
 10
25.0592526925
 20
48.626268938
 11
22.6944140166
 21
48.2610422989
 72
1
 10
22.6944140166
 20
48.2610422989
 11
22.5077144663
 21
48.6269411229
 72
1
 10
22.5077144663
 20
48.6269411229
 11
24.4242865694
 21
48.9393995773
 72
1
 10
24.4242865694
 20
48.9393995773
 11
24.5325905397
 21
48.8444195445
 72
1
 10
24.5325905397
 20
48.8444195445
 11
24.6523653366
 21
48.7643885839
 72
1
 10
24.6523653366
 20
48.7643885839
 11
24.78156158
 21
48.7006760474
 72
1
 10
24.78156158
 20
48.7006760474
 11
24.9179686864
 21
48.6543720741
 97
1
330
26A
 75
0
 76
1
 98
1
 10
0.0
 20
0.0
  0
LWPOLYLINE
  5
26C
100
AcDbEntity
  8
0
100
AcDbPolyline
 62
2
  6
CONTINUOUS
 90
9
 70
0
 10
32.8593870987
 20
48.6168415373
 10
32.8593870987
 20
48.0400014831
 10
32.8927659379
 20
47.5307364352
 10
29.8169521117
 20
46.8199201942
 10
30.1974857512
 20
47.5586323028
 10
30.4632011408
 20
48.3459675312
 10
31.0655063992
 20
48.929234673
 10
31.0149297429
 20
48.6168415373
 10
32.8593870987
 20
48.6168415373
  0
HATCH
  5
26D
100
AcDbEntity
  8
0
100
AcDbHatch
 62
2
  6
CONTINUOUS
 10
0.0
 20
0.0
 30
0.0
210
0.0
220
0.0
230
1.0
  2
SOLID
 70
1
 71
1
 91
1
 92
1
 93
8
 72
1
 10
32.8593870987
 20
48.6168415373
 11
32.8593870987
 21
48.0400014831
 72
1
 10
32.8593870987
 20
48.0400014831
 11
32.8927659379
 21
47.5307364352
 72
1
 10
32.8927659379
 20
47.5307364352
 11
29.8169521117
 21
46.8199201942
 72
1
 10
29.8169521117
 20
46.8199201942
 11
30.1974857512
 21
47.5586323028
 72
1
 10
30.1974857512
 20
47.5586323028
 11
30.4632011408
 21
48.3459675312
 72
1
 10
30.4632011408
 20
48.3459675312
 11
31.0655063992
 21
48.929234673
 72
1
 10
31.0655063992
 20
48.929234673
 11
31.0149297429
 21
48.6168415373
 72
1
 10
31.0149297429
 20
48.6168415373
 11
32.8593870987
 21
48.6168415373
 97
1
330
26C
 75
0
 76
1
 98
1
 10
0.0
 20
0.0
  0
LWPOLYLINE
  5
26E
100
AcDbEntity
  8
0
100
AcDbPolyline
 62
2
  6
CONTINUOUS
 90
19
 70
0
 10
27.6842387906
 20
48.6168415373
 10
27.4961137435
 20
48.2516795326
 10
27.2567743458
 20
47.9178302789
 10
26.9713321963
 20
47.6224297867
 10
26.6458835153
 20
47.3717869581
 10
26.2873789475
 20
47.1712548002
 10
25.9034751155
 20
47.0251161014
 10
25.5023710973
 20
46.9364919623
 10
25.0926333168
 20
46.9072751387
 10
24.6830125906
 20
46.9380896178
 10
24.2822572349
 20
47.0282772912
 10
23.8989262276
 20
47.1759120104
 10
23.5412064125
 20
47.377840724
 10
23.2167376524
 20
47.6297508175
 10
22.9324496635
 20
47.9262622184
 10
22.6944140166
 20
48.2610422989
 10
25.0592526925
 20
48.626268938
 10
25.2029961896
 20
48.6168415373
 10
27.6842387906
 20
48.6168415373
  0
HATCH
  5
26F
100
AcDbEntity
  8
0
100
AcDbHatch
 62
2
  6
CONTINUOUS
 10
0.0
 20
0.0
 30
0.0
210
0.0
220
0.0
230
1.0
  2
SOLID
 70
1
 71
1
 91
1
 92
1
 93
18
 72
1
 10
27.6842387906
 20
48.6168415373
 11
27.4961137435
 21
48.2516795326
 72
1
 10
27.4961137435
 20
48.2516795326
 11
27.2567743458
 21
47.9178302789
 72
1
 10
27.2567743458
 20
47.9178302789
 11
26.9713321963
 21
47.6224297867
 72
1
 10
26.9713321963
 20
47.6224297867
 11
26.6458835153
 21
47.3717869581
 72
1
 10
26.6458835153
 20
47.3717869581
 11
26.2873789475
 21
47.1712548002
 72
1
 10
26.2873789475
 20
47.1712548002
 11
25.9034751155
 21
47.0251161014
 72
1
 10
25.9034751155
 20
47.0251161014
 11
25.5023710973
 21
46.9364919623
 72
1
 10
25.5023710973
 20
46.9364919623
 11
25.0926333168
 21
46.9072751387
 72
1
 10
25.0926333168
 20
46.9072751387
 11
24.6830125906
 21
46.9380896178
 72
1
 10
24.6830125906
 20
46.9380896178
 11
24.2822572349
 21
47.0282772912
 72
1
 10
24.2822572349
 20
47.0282772912
 11
23.8989262276
 21
47.1759120104
 72
1
 10
23.8989262276
 20
47.1759120104
 11
23.5412064125
 21
47.377840724
 72
1
 10
23.5412064125
 20
47.377840724
 11
23.2167376524
 21
47.6297508175
 72
1
 10
23.2167376524
 20
47.6297508175
 11
22.9324496635
 21
47.9262622184
 72
1
 10
22.9324496635
 20
47.9262622184
 11
22.6944140166
 21
48.2610422989
 72
1
 10
22.6944140166
 20
48.2610422989
 11
25.0592526925
 21
48.626268938
 72
1
 10
25.0592526925
 20
48.626268938
 11
25.2029961896
 21
48.6168415373
 72
1
 10
25.2029961896
 20
48.6168415373
 11
27.6842387906
 21
48.6168415373
 97
1
330
26E
 75
0
 76
1
 98
1
 10
0.0
 20
0.0
  0
LWPOLYLINE
  5
270
100
AcDbEntity
  8
0
100
AcDbPolyline
 62
2
  6
CONTINUOUS
 90
28
 70
0
 10
35.5863208471
 20
48.0400014831
 10
35.5863208471
 20
54.9622171339
 10
37.9356791535
 20
54.9622171339
 10
37.9356791535
 20
48.0400014831
 10
37.9256296104
 20
47.8866714687
 10
37.8956529319
 20
47.7359664545
 10
37.8462620271
 20
47.5904664408
 10
37.7783019882
 20
47.4526614279
 10
37.6929356302
 20
47.3248914159
 10
37.5916235952
 20
47.209376405
 10
37.4760993602
 20
47.1080663955
 10
37.3483395768
 20
47.0227013874
 10
37.2105302505
 20
46.9547363811
 10
37.065029337
 20
46.9053413764
 10
36.9143263972
 20
46.8753713736
 10
36.7610000003
 20
46.8653169684
 10
36.6076736033
 20
46.8753713736
 10
36.4569706635
 20
46.9053413764
 10
36.31146975
 20
46.9547363811
 10
36.1736604237
 20
47.0227013874
 10
36.0459006404
 20
47.1080663955
 10
35.9303764053
 20
47.209376405
 10
35.8290643703
 20
47.3248914159
 10
35.7436980123
 20
47.4526614279
 10
35.6757379734
 20
47.5904664408
 10
35.6263470686
 20
47.7359664545
 10
35.5963703901
 20
47.8866714687
 10
35.5863208471
 20
48.0400014831
  0
HATCH
  5
271
100
AcDbEntity
  8
0
100
AcDbHatch
 62
2
  6
CONTINUOUS
 10
0.0
 20
0.0
 30
0.0
210
0.0
220
0.0
230
1.0
  2
SOLID
 70
1
 71
1
 91
1
 92
1
 93
27
 72
1
 10
35.5863208471
 20
48.0400014831
 11
35.5863208471
 21
54.9622171339
 72
1
 10
35.5863208471
 20
54.9622171339
 11
37.9356791535
 21
54.9622171339
 72
1
 10
37.9356791535
 20
54.9622171339
 11
37.9356791535
 21
48.0400014831
 72
1
 10
37.9356791535
 20
48.0400014831
 11
37.9256296104
 21
47.8866714687
 72
1
 10
37.9256296104
 20
47.8866714687
 11
37.8956529319
 21
47.7359664545
 72
1
 10
37.8956529319
 20
47.7359664545
 11
37.8462620271
 21
47.5904664408
 72
1
 10
37.8462620271
 20
47.5904664408
 11
37.7783019882
 21
47.4526614279
 72
1
 10
37.7783019882
 20
47.4526614279
 11
37.6929356302
 21
47.3248914159
 72
1
 10
37.6929356302
 20
47.3248914159
 11
37.5916235952
 21
47.209376405
 72
1
 10
37.5916235952
 20
47.209376405
 11
37.4760993602
 21
47.1080663955
 72
1
 10
37.4760993602
 20
47.1080663955
 11
37.3483395768
 21
47.0227013874
 72
1
 10
37.3483395768
 20
47.0227013874
 11
37.2105302505
 21
46.9547363811
 72
1
 10
37.2105302505
 20
46.9547363811
 11
37.065029337
 21
46.9053413764
 72
1
 10
37.065029337
 20
46.9053413764
 11
36.9143263972
 21
46.8753713736
 72
1
 10
36.9143263972
 20
46.8753713736
 11
36.7610000003
 21
46.8653169684
 72
1
 10
36.7610000003
 20
46.8653169684
 11
36.6076736033
 21
46.8753713736
 72
1
 10
36.6076736033
 20
46.8753713736
 11
36.4569706635
 21
46.9053413764
 72
1
 10
36.4569706635
 20
46.9053413764
 11
36.31146975
 21
46.9547363811
 72
1
 10
36.31146975
 20
46.9547363811
 11
36.1736604237
 21
47.0227013874
 72
1
 10
36.1736604237
 20
47.0227013874
 11
36.0459006404
 21
47.1080663955
 72
1
 10
36.0459006404
 20
47.1080663955
 11
35.9303764053
 21
47.209376405
 72
1
 10
35.9303764053
 20
47.209376405
 11
35.8290643703
 21
47.3248914159
 72
1
 10
35.8290643703
 20
47.3248914159
 11
35.7436980123
 21
47.4526614279
 72
1
 10
35.7436980123
 20
47.4526614279
 11
35.6757379734
 21
47.5904664408
 72
1
 10
35.6757379734
 20
47.5904664408
 11
35.6263470686
 21
47.7359664545
 72
1
 10
35.6263470686
 20
47.7359664545
 11
35.5963703901
 21
47.8866714687
 72
1
 10
35.5963703901
 20
47.8866714687
 11
35.5863208471
 21
48.0400014831
 97
1
330
270
 75
0
 76
1
 98
1
 10
0.0
 20
0.0
  0
LWPOLYLINE
  5
272
100
AcDbEntity
  8
0
100
AcDbPolyline
 62
2
  6
CONTINUOUS
 90
8
 70
0
 10
32.9923313344
 20
47.0301863881
 10
33.1563796967
 20
46.5469163427
 10
33.3821041117
 20
46.0891912997
 10
28.7480950465
 20
45.5534278506
 10
29.3301683772
 20
46.146464163
 10
29.8169521117
 20
46.8199201942
 10
32.8927659379
 20
47.5307364352
 10
32.9923313344
 20
47.0301863881
  0
HATCH
  5
273
100
AcDbEntity
  8
0
100
AcDbHatch
 62
2
  6
CONTINUOUS
 10
0.0
 20
0.0
 30
0.0
210
0.0
220
0.0
230
1.0
  2
SOLID
 70
1
 71
1
 91
1
 92
1
 93
7
 72
1
 10
32.9923313344
 20
47.0301863881
 11
33.1563796967
 21
46.5469163427
 72
1
 10
33.1563796967
 20
46.5469163427
 11
33.3821041117
 21
46.0891912997
 72
1
 10
33.3821041117
 20
46.0891912997
 11
28.7480950465
 21
45.5534278506
 72
1
 10
28.7480950465
 20
45.5534278506
 11
29.3301683772
 21
46.146464163
 72
1
 10
29.3301683772
 20
46.146464163
 11
29.8169521117
 21
46.8199201942
 72
1
 10
29.8169521117
 20
46.8199201942
 11
32.8927659379
 21
47.5307364352
 72
1
 10
32.8927659379
 20
47.5307364352
 11
32.9923313344
 21
47.0301863881
 97
1
330
272
 75
0
 76
1
 98
1
 10
0.0
 20
0.0
  0
LWPOLYLINE
  5
274
100
AcDbEntity
  8
0
100
AcDbPolyline
 62
2
  6
CONTINUOUS
 90
8
 70
0
 10
33.6656423722
 20
45.6648412598
 10
34.00214306
 20
45.2811412237
 10
34.3858485548
 20
44.9446311921
 10
27.3523542712
 20
44.659914577
 10
28.0838381739
 20
45.0541641554
 10
28.7480950465
 20
45.5534278506
 10
33.3821041117
 20
46.0891912997
 10
33.6656423722
 20
45.6648412598
  0
HATCH
  5
275
100
AcDbEntity
  8
0
100
AcDbHatch
 62
2
  6
CONTINUOUS
 10
0.0
 20
0.0
 30
0.0
210
0.0
220
0.0
230
1.0
  2
SOLID
 70
1
 71
1
 91
1
 92
1
 93
7
 72
1
 10
33.6656423722
 20
45.6648412598
 11
34.00214306
 21
45.2811412237
 72
1
 10
34.00214306
 20
45.2811412237
 11
34.3858485548
 21
44.9446311921
 72
1
 10
34.3858485548
 20
44.9446311921
 11
27.3523542712
 21
44.659914577
 72
1
 10
27.3523542712
 20
44.659914577
 11
28.0838381739
 21
45.0541641554
 72
1
 10
28.0838381739
 20
45.0541641554
 11
28.7480950465
 21
45.5534278506
 72
1
 10
28.7480950465
 20
45.5534278506
 11
33.3821041117
 21
46.0891912997
 72
1
 10
33.3821041117
 20
46.0891912997
 11
33.6656423722
 21
45.6648412598
 97
1
330
274
 75
0
 76
1
 98
1
 10
0.0
 20
0.0
  0
LWPOLYLINE
  5
276
100
AcDbEntity
  8
0
100
AcDbPolyline
 62
2
  6
CONTINUOUS
 90
24
 70
0
 10
34.8101935494
 20
44.6611011654
 10
35.2679173833
 20
44.4353811442
 10
35.7511882747
 20
44.2713261287
 10
36.2517373247
 20
44.1717561194
 10
16.3610861409
 20
43.6666760719
 10
20.0261379092
 20
51.9411676226
 10
19.750600337
 20
51.1572157897
 10
19.5954682224
 20
50.3408608074
 10
19.5642345443
 20
49.5104838523
 10
19.6576025652
 20
48.684781822
 10
19.8734699961
 20
47.8823463527
 10
20.2069763321
 20
47.121245207
 10
20.6506122924
 20
46.4186154575
 10
21.1943889001
 20
45.7902776256
 10
21.8260623961
 20
45.2503794643
 10
22.5314099211
 20
44.8110774052
 10
23.2945497596
 20
44.4822628421
 10
24.0982989358
 20
44.2713261287
 10
24.9245601072
 20
44.1830563096
 10
25.754729048
 20
44.2194013213
 10
26.5701135443
 20
44.3795561005
 10
27.3523542712
 20
44.659914577
 10
34.3858485548
 20
44.9446311921
 10
34.8101935494
 20
44.6611011654
  0
HATCH
  5
277
100
AcDbEntity
  8
0
100
AcDbHatch
 62
2
  6
CONTINUOUS
 10
0.0
 20
0.0
 30
0.0
210
0.0
220
0.0
230
1.0
  2
SOLID
 70
1
 71
1
 91
1
 92
1
 93
23
 72
1
 10
34.8101935494
 20
44.6611011654
 11
35.2679173833
 21
44.4353811442
 72
1
 10
35.2679173833
 20
44.4353811442
 11
35.7511882747
 21
44.2713261287
 72
1
 10
35.7511882747
 20
44.2713261287
 11
36.2517373247
 21
44.1717561194
 72
1
 10
36.2517373247
 20
44.1717561194
 11
16.3610861409
 21
43.6666760719
 72
1
 10
16.3610861409
 20
43.6666760719
 11
20.0261379092
 21
51.9411676226
 72
1
 10
20.0261379092
 20
51.9411676226
 11
19.750600337
 21
51.1572157897
 72
1
 10
19.750600337
 20
51.1572157897
 11
19.5954682224
 21
50.3408608074
 72
1
 10
19.5954682224
 20
50.3408608074
 11
19.5642345443
 21
49.5104838523
 72
1
 10
19.5642345443
 20
49.5104838523
 11
19.6576025652
 21
48.684781822
 72
1
 10
19.6576025652
 20
48.684781822
 11
19.8734699961
 21
47.8823463527
 72
1
 10
19.8734699961
 20
47.8823463527
 11
20.2069763321
 21
47.121245207
 72
1
 10
20.2069763321
 20
47.121245207
 11
20.6506122924
 21
46.4186154575
 72
1
 10
20.6506122924
 20
46.4186154575
 11
21.1943889001
 21
45.7902776256
 72
1
 10
21.1943889001
 20
45.7902776256
 11
21.8260623961
 21
45.2503794643
 72
1
 10
21.8260623961
 20
45.2503794643
 11
22.5314099211
 21
44.8110774052
 72
1
 10
22.5314099211
 20
44.8110774052
 11
23.2945497596
 21
44.4822628421
 72
1
 10
23.2945497596
 20
44.4822628421
 11
24.0982989358
 21
44.2713261287
 72
1
 10
24.0982989358
 20
44.2713261287
 11
24.9245601072
 21
44.1830563096
 72
1
 10
24.9245601072
 20
44.1830563096
 11
25.754729048
 21
44.2194013213
 72
1
 10
25.754729048
 20
44.2194013213
 11
26.5701135443
 21
44.3795561005
 72
1
 10
26.5701135443
 20
44.3795561005
 11
27.3523542712
 21
44.659914577
 72
1
 10
27.3523542712
 20
44.659914577
 11
34.3858485548
 21
44.9446311921
 72
1
 10
34.3858485548
 20
44.9446311921
 11
34.8101935494
 21
44.6611011654
 97
1
330
276
 75
0
 76
1
 98
1
 10
0.0
 20
0.0
  0
LWPOLYLINE
  5
278
100
AcDbEntity
  8
0
100
AcDbPolyline
 62
2
  6
CONTINUOUS
 90
43
 70
0
 10
36.7610000003
 20
44.13838322
 10
37.2702626758
 20
44.1717561194
 10
37.7708117258
 20
44.2713261287
 10
38.2540826172
 20
44.4353811442
 10
38.7118064511
 20
44.6611011654
 10
39.1361514457
 20
44.9446311921
 10
39.5198569406
 20
45.2811412237
 10
39.8563576283
 20
45.6648412598
 10
40.1398958888
 20
46.0891912997
 10
45.3528889231
 20
43.6666760719
 10
45.345943091
 20
43.5341510594
 10
45.3251816945
 20
43.4030660471
 10
45.2908322
 20
43.2748610351
 10
45.2432709475
 20
43.1509610234
 10
45.1830190283
 20
43.0327160123
 10
45.1107365748
 20
42.9214160018
 10
45.0272155289
 20
42.8182759921
 10
44.9333709645
 20
42.7244209833
 10
44.8302310623
 20
42.6409009754
 10
44.7189258447
 20
42.5686159687
 10
44.600674795
 20
42.508375963
 10
44.4767734964
 20
42.4608109585
 10
44.3485794374
 20
42.4264609553
 10
44.217497139
 20
42.4057009533
 10
44.0849627663
 20
42.3987559527
 10
17.6290122978
 20
42.3987559527
 10
17.4964779251
 20
42.4057009533
 10
17.3653956267
 20
42.4264609553
 10
17.2372015677
 20
42.4608109585
 10
17.113300269
 20
42.508375963
 10
16.9950492193
 20
42.5686159687
 10
16.8837440018
 20
42.6409009754
 10
16.7806040996
 20
42.7244209833
 10
16.6867595352
 20
42.8182759921
 10
16.6032384892
 20
42.9214160018
 10
16.5309560358
 20
43.0327160123
 10
16.4707041165
 20
43.1509610234
 10
16.4231428641
 20
43.2748610351
 10
16.3887933695
 20
43.4030660471
 10
16.368031973
 20
43.5341510594
 10
16.3610861409
 20
43.6666760719
 10
36.2517373247
 20
44.1717561194
 10
36.7610000003
 20
44.13838322
  0
HATCH
  5
279
100
AcDbEntity
  8
0
100
AcDbHatch
 62
2
  6
CONTINUOUS
 10
0.0
 20
0.0
 30
0.0
210
0.0
220
0.0
230
1.0
  2
SOLID
 70
1
 71
1
 91
1
 92
1
 93
42
 72
1
 10
36.7610000003
 20
44.13838322
 11
37.2702626758
 21
44.1717561194
 72
1
 10
37.2702626758
 20
44.1717561194
 11
37.7708117258
 21
44.2713261287
 72
1
 10
37.7708117258
 20
44.2713261287
 11
38.2540826172
 21
44.4353811442
 72
1
 10
38.2540826172
 20
44.4353811442
 11
38.7118064511
 21
44.6611011654
 72
1
 10
38.7118064511
 20
44.6611011654
 11
39.1361514457
 21
44.9446311921
 72
1
 10
39.1361514457
 20
44.9446311921
 11
39.5198569406
 21
45.2811412237
 72
1
 10
39.5198569406
 20
45.2811412237
 11
39.8563576283
 21
45.6648412598
 72
1
 10
39.8563576283
 20
45.6648412598
 11
40.1398958888
 21
46.0891912997
 72
1
 10
40.1398958888
 20
46.0891912997
 11
45.3528889231
 21
43.6666760719
 72
1
 10
45.3528889231
 20
43.6666760719
 11
45.345943091
 21
43.5341510594
 72
1
 10
45.345943091
 20
43.5341510594
 11
45.3251816945
 21
43.4030660471
 72
1
 10
45.3251816945
 20
43.4030660471
 11
45.2908322
 21
43.2748610351
 72
1
 10
45.2908322
 20
43.2748610351
 11
45.2432709475
 21
43.1509610234
 72
1
 10
45.2432709475
 20
43.1509610234
 11
45.1830190283
 21
43.0327160123
 72
1
 10
45.1830190283
 20
43.0327160123
 11
45.1107365748
 21
42.9214160018
 72
1
 10
45.1107365748
 20
42.9214160018
 11
45.0272155289
 21
42.8182759921
 72
1
 10
45.0272155289
 20
42.8182759921
 11
44.9333709645
 21
42.7244209833
 72
1
 10
44.9333709645
 20
42.7244209833
 11
44.8302310623
 21
42.6409009754
 72
1
 10
44.8302310623
 20
42.6409009754
 11
44.7189258447
 21
42.5686159687
 72
1
 10
44.7189258447
 20
42.5686159687
 11
44.600674795
 21
42.508375963
 72
1
 10
44.600674795
 20
42.508375963
 11
44.4767734964
 21
42.4608109585
 72
1
 10
44.4767734964
 20
42.4608109585
 11
44.3485794374
 21
42.4264609553
 72
1
 10
44.3485794374
 20
42.4264609553
 11
44.217497139
 21
42.4057009533
 72
1
 10
44.217497139
 20
42.4057009533
 11
44.0849627663
 21
42.3987559527
 72
1
 10
44.0849627663
 20
42.3987559527
 11
17.6290122978
 21
42.3987559527
 72
1
 10
17.6290122978
 20
42.3987559527
 11
17.4964779251
 21
42.4057009533
 72
1
 10
17.4964779251
 20
42.4057009533
 11
17.3653956267
 21
42.4264609553
 72
1
 10
17.3653956267
 20
42.4264609553
 11
17.2372015677
 21
42.4608109585
 72
1
 10
17.2372015677
 20
42.4608109585
 11
17.113300269
 21
42.508375963
 72
1
 10
17.113300269
 20
42.508375963
 11
16.9950492193
 21
42.5686159687
 72
1
 10
16.9950492193
 20
42.5686159687
 11
16.8837440018
 21
42.6409009754
 72
1
 10
16.8837440018
 20
42.6409009754
 11
16.7806040996
 21
42.7244209833
 72
1
 10
16.7806040996
 20
42.7244209833
 11
16.6867595352
 21
42.8182759921
 72
1
 10
16.6867595352
 20
42.8182759921
 11
16.6032384892
 21
42.9214160018
 72
1
 10
16.6032384892
 20
42.9214160018
 11
16.5309560358
 21
43.0327160123
 72
1
 10
16.5309560358
 20
43.0327160123
 11
16.4707041165
 21
43.1509610234
 72
1
 10
16.4707041165
 20
43.1509610234
 11
16.4231428641
 21
43.2748610351
 72
1
 10
16.4231428641
 20
43.2748610351
 11
16.3887933695
 21
43.4030660471
 72
1
 10
16.3887933695
 20
43.4030660471
 11
16.368031973
 21
43.5341510594
 72
1
 10
16.368031973
 20
43.5341510594
 11
16.3610861409
 21
43.6666760719
 72
1
 10
16.3610861409
 20
43.6666760719
 11
36.2517373247
 21
44.1717561194
 72
1
 10
36.2517373247
 20
44.1717561194
 11
36.7610000003
 21
44.13838322
 97
1
330
278
 75
0
 76
1
 98
1
 10
0.0
 20
0.0
  0
SOLID
  5
27A
100
AcDbEntity
  8
0
100
AcDbTrace
 62
2
  6
CONTINUOUS
 10
25.3408515753
 20
55.2505598297
 11
24.5102931399
 21
55.2245960958
 12
26.1659444963
 22
55.151954039
 13
45.3528889232
 23
56.1308222438
  0
ENDBLK
  5
27B
100
AcDbEntity
  8
0
  6
BYBLOCK
 62
0
100
AcDbBlockEnd
  0
BLOCK
  5
27C
100
AcDbEntity
  8
94177300000_BL0
100
AcDbBlockBegin
  2
94177300000_BL0
 70
64
 10
68.0939812779
 20
142.7920461217
  3
94177300000_BL0
  1

  0
LINE
  5
27D
100
AcDbEntity
  8
94177300000_BL0
100
AcDbLine
 62
7
  6
CONTINUOUS
 10
49.0363277065
 20
120.1970782645
 11
31.0363277065
 21
120.1970782645
  0
LINE
  5
27E
100
AcDbEntity
  8
94177300000_BL0
100
AcDbLine
 62
9
  6
CONTINUOUS
 10
49.0363277065
 20
120.6970782645
 11
31.0363277065
 21
120.6970782645
  0
LINE
  5
27F
100
AcDbEntity
  8
94177300000_BL0
100
AcDbLine
 62
9
  6
CONTINUOUS
 10
50.0363277065
 20
121.1970782645
 11
49.5363277065
 21
121.1970782645
  0
LINE
  5
280
100
AcDbEntity
  8
94177300000_BL0
100
AcDbLine
 62
9
  6
CONTINUOUS
 10
30.0363277065
 20
121.1970782645
 11
30.5363277065
 21
121.1970782645
  0
LINE
  5
281
100
AcDbEntity
  8
94177300000_BL0
100
AcDbLine
 62
7
  6
CONTINUOUS
 10
32.3455959834
 20
127.6001289658
 11
33.6854058142
 21
127.6001289658
  0
LINE
  5
282
100
AcDbEntity
  8
94177300000_BL0
100
AcDbLine
 62
7
  6
CONTINUOUS
 10
34.3977097749
 20
127.6001289658
 11
34.5842655741
 21
127.6001289658
  0
LINE
  5
283
100
AcDbEntity
  8
94177300000_BL0
100
AcDbLine
 62
7
  6
CENTER
 10
49.8383258979
 20
128.1970782645
 11
33.9308486098
 21
128.1970782645
  0
LINE
  5
284
100
AcDbEntity
  8
94177300000_BL0
100
AcDbLine
 62
7
  6
CONTINUOUS
 10
34.5842655741
 20
128.4820291077
 11
32.3455959834
 21
128.4820291077
  0
LINE
  5
285
100
AcDbEntity
  8
94177300000_BL0
100
AcDbLine
 62
7
  6
CONTINUOUS
 10
32.3455959834
 20
129.2418199991
 11
34.5842655741
 21
129.2418199991
  0
LINE
  5
286
100
AcDbEntity
  8
94177300000_BL0
100
AcDbLine
 62
7
  6
CONTINUOUS
 10
34.5842655741
 20
130.1237201408
 11
32.3455959834
 21
130.1237201408
  0
LINE
  5
287
100
AcDbEntity
  8
94177300000_BL0
100
AcDbLine
 62
7
  6
CONTINUOUS
 10
33.0363277065
 20
131.6970782645
 11
34.0363277065
 21
131.6970782645
  0
LINE
  5
288
100
AcDbEntity
  8
94177300000_BL0
100
AcDbLine
 62
7
  6
CONTINUOUS
 10
33.5171945083
 20
125.8326610324
 11
32.9925546122
 21
126.5416711597
  0
LINE
  5
289
100
AcDbEntity
  8
94177300000_BL0
100
AcDbLine
 62
7
  6
CONTINUOUS
 10
31.1229302469
 20
190.4810528607
 11
31.4497251661
 21
191.0470782645
  0
LINE
  5
28A
100
AcDbEntity
  8
94177300000_BL0
100
AcDbLine
 62
7
  6
CONTINUOUS
 10
32.1229302469
 20
190.4810528607
 11
32.4497251661
 21
191.0470782645
  0
LINE
  5
28B
100
AcDbEntity
  8
94177300000_BL0
100
AcDbLine
 62
7
  6
CONTINUOUS
 10
30.9497251661
 20
134.3470782645
 11
30.6229302469
 21
134.9131036683
  0
LINE
  5
28C
100
AcDbEntity
  8
94177300000_BL0
100
AcDbLine
 62
7
  6
CONTINUOUS
 10
31.9497251661
 20
134.3470782645
 11
31.6229302469
 21
134.9131036683
  0
LINE
  5
28D
100
AcDbEntity
  8
94177300000_BL0
100
AcDbLine
 62
7
  6
CONTINUOUS
 10
32.9497251661
 20
134.3470782645
 11
32.6229302469
 21
134.9131036683
  0
LINE
  5
28E
100
AcDbEntity
  8
94177300000_BL0
100
AcDbLine
 62
7
  6
CONTINUOUS
 10
33.1229302469
 20
190.4810528607
 11
33.4497251661
 21
191.0470782645
  0
LINE
  5
28F
100
AcDbEntity
  8
94177300000_BL0
100
AcDbLine
 62
7
  6
CONTINUOUS
 10
34.1229302469
 20
190.4810528607
 11
34.4497251661
 21
191.0470782645
  0
LINE
  5
290
100
AcDbEntity
  8
94177300000_BL0
100
AcDbLine
 62
7
  6
CONTINUOUS
 10
35.1229302469
 20
190.4810528607
 11
35.4497251661
 21
191.0470782645
  0
LINE
  5
291
100
AcDbEntity
  8
94177300000_BL0
100
AcDbLine
 62
7
  6
CONTINUOUS
 10
36.1229302469
 20
190.4810528607
 11
36.4497251661
 21
191.0470782645
  0
LINE
  5
292
100
AcDbEntity
  8
94177300000_BL0
100
AcDbLine
 62
7
  6
CONTINUOUS
 10
33.9497251661
 20
134.3470782645
 11
33.6229302469
 21
134.9131036683
  0
LINE
  5
293
100
AcDbEntity
  8
94177300000_BL0
100
AcDbLine
 62
7
  6
CONTINUOUS
 10
34.9497251661
 20
134.3470782645
 11
34.6229302469
 21
134.9131036683
  0
LINE
  5
294
100
AcDbEntity
  8
94177300000_BL0
100
AcDbLine
 62
7
  6
CONTINUOUS
 10
35.9497251661
 20
134.3470782645
 11
35.6229302469
 21
134.9131036683
  0
LINE
  5
295
100
AcDbEntity
  8
94177300000_BL0
100
AcDbLine
 62
7
  6
CONTINUOUS
 10
37.1229302469
 20
190.4810528607
 11
37.4497251661
 21
191.0470782645
  0
LINE
  5
296
100
AcDbEntity
  8
94177300000_BL0
100
AcDbLine
 62
7
  6
CONTINUOUS
 10
38.1229302469
 20
190.4810528607
 11
38.4497251661
 21
191.0470782645
  0
LINE
  5
297
100
AcDbEntity
  8
94177300000_BL0
100
AcDbLine
 62
7
  6
CONTINUOUS
 10
39.1229302469
 20
190.4810528607
 11
39.4497251661
 21
191.0470782645
  0
LINE
  5
298
100
AcDbEntity
  8
94177300000_BL0
100
AcDbLine
 62
7
  6
CONTINUOUS
 10
36.9497251661
 20
134.3470782645
 11
36.6229302469
 21
134.9131036683
  0
LINE
  5
299
100
AcDbEntity
  8
94177300000_BL0
100
AcDbLine
 62
7
  6
CONTINUOUS
 10
37.9497251661
 20
134.3470782645
 11
37.6229302469
 21
134.9131036683
  0
LINE
  5
29A
100
AcDbEntity
  8
94177300000_BL0
100
AcDbLine
 62
7
  6
CONTINUOUS
 10
38.9497251661
 20
134.3470782645
 11
38.6229302469
 21
134.9131036683
  0
LINE
  5
29B
100
AcDbEntity
  8
94177300000_BL0
100
AcDbLine
 62
7
  6
CONTINUOUS
 10
39.9497251661
 20
134.3470782645
 11
39.6229302469
 21
134.9131036683
  0
LINE
  5
29C
100
AcDbEntity
  8
94177300000_BL0
100
AcDbLine
 62
7
  6
CONTINUOUS
 10
40.1229302469
 20
190.4810528607
 11
40.4497251661
 21
191.0470782645
  0
LINE
  5
29D
100
AcDbEntity
  8
94177300000_BL0
100
AcDbLine
 62
7
  6
CONTINUOUS
 10
41.1229302469
 20
190.4810528607
 11
41.4497251661
 21
191.0470782645
  0
LINE
  5
29E
100
AcDbEntity
  8
94177300000_BL0
100
AcDbLine
 62
7
  6
CONTINUOUS
 10
42.1229302469
 20
190.4810528607
 11
42.4497251661
 21
191.0470782645
  0
LINE
  5
29F
100
AcDbEntity
  8
94177300000_BL0
100
AcDbLine
 62
7
  6
CONTINUOUS
 10
40.9497251661
 20
134.3470782645
 11
40.6229302469
 21
134.9131036683
  0
LINE
  5
2A0
100
AcDbEntity
  8
94177300000_BL0
100
AcDbLine
 62
7
  6
CONTINUOUS
 10
41.9497251661
 20
134.3470782645
 11
41.6229302469
 21
134.9131036683
  0
LINE
  5
2A1
100
AcDbEntity
  8
94177300000_BL0
100
AcDbLine
 62
7
  6
CONTINUOUS
 10
42.9497251661
 20
134.3470782645
 11
42.6229302469
 21
134.9131036683
  0
LINE
  5
2A2
100
AcDbEntity
  8
94177300000_BL0
100
AcDbLine
 62
7
  6
CONTINUOUS
 10
30.0363277065
 20
121.1970782645
 11
30.0363277065
 21
204.1970782645
  0
LINE
  5
2A3
100
AcDbEntity
  8
94177300000_BL0
100
AcDbLine
 62
9
  6
CONTINUOUS
 10
30.5363277065
 20
121.1970782645
 11
30.5363277065
 21
204.1970782645
  0
LINE
  5
2A4
100
AcDbEntity
  8
94177300000_BL0
100
AcDbLine
 62
9
  6
CONTINUOUS
 10
31.0363277065
 20
120.1970782645
 11
31.0363277065
 21
120.6970782645
  0
LINE
  5
2A5
100
AcDbEntity
  8
94177300000_BL0
100
AcDbLine
 62
9
  6
CONTINUOUS
 10
31.0363277065
 20
204.6970782645
 11
31.0363277065
 21
205.1970782645
  0
LINE
  5
2A6
100
AcDbEntity
  8
94177300000_BL0
100
AcDbLine
 62
7
  6
CONTINUOUS
 10
43.1229302469
 20
190.4810528607
 11
43.4497251661
 21
191.0470782645
  0
LINE
  5
2A7
100
AcDbEntity
  8
94177300000_BL0
100
AcDbLine
 62
7
  6
CONTINUOUS
 10
44.1229302469
 20
190.4810528607
 11
44.4497251661
 21
191.0470782645
  0
LINE
  5
2A8
100
AcDbEntity
  8
94177300000_BL0
100
AcDbLine
 62
7
  6
CONTINUOUS
 10
45.1229302469
 20
190.4810528607
 11
45.4497251661
 21
191.0470782645
  0
LINE
  5
2A9
100
AcDbEntity
  8
94177300000_BL0
100
AcDbLine
 62
7
  6
CONTINUOUS
 10
46.1229302469
 20
190.4810528607
 11
46.4497251661
 21
191.0470782645
  0
LINE
  5
2AA
100
AcDbEntity
  8
94177300000_BL0
100
AcDbLine
 62
7
  6
CONTINUOUS
 10
43.9497251661
 20
134.3470782645
 11
43.6229302469
 21
134.9131036683
  0
LINE
  5
2AB
100
AcDbEntity
  8
94177300000_BL0
100
AcDbLine
 62
7
  6
CONTINUOUS
 10
44.9497251661
 20
134.3470782645
 11
44.6229302469
 21
134.9131036683
  0
LINE
  5
2AC
100
AcDbEntity
  8
94177300000_BL0
100
AcDbLine
 62
7
  6
CONTINUOUS
 10
45.9497251661
 20
134.3470782645
 11
45.6229302469
 21
134.9131036683
  0
LINE
  5
2AD
100
AcDbEntity
  8
94177300000_BL0
100
AcDbLine
 62
7
  6
CONTINUOUS
 10
32.3455959834
 20
130.1237201408
 11
32.3455959834
 21
129.2418199991
  0
LINE
  5
2AE
100
AcDbEntity
  8
94177300000_BL0
100
AcDbLine
 62
7
  6
CONTINUOUS
 10
32.3455959834
 20
128.4820291077
 11
32.3455959834
 21
127.6001289658
  0
LINE
  5
2AF
100
AcDbEntity
  8
94177300000_BL0
100
AcDbLine
 62
7
  6
CONTINUOUS
 10
33.0363277065
 20
134.2970782645
 11
33.0363277065
 21
131.6970782645
  0
LINE
  5
2B0
100
AcDbEntity
  8
94177300000_BL0
100
AcDbLine
 62
7
  6
CONTINUOUS
 10
33.5363277065
 20
131.6970782645
 11
33.5363277065
 21
134.9631036683
  0
LINE
  5
2B1
100
AcDbEntity
  8
94177300000_BL0
100
AcDbLine
 62
7
  6
CONTINUOUS
 10
33.6854058142
 20
127.6001289658
 11
33.6854058142
 21
127.0036248504
  0
LINE
  5
2B2
100
AcDbEntity
  8
94177300000_BL0
100
AcDbLine
 62
7
  6
CONTINUOUS
 10
33.6854058142
 20
126.8452711044
 11
33.6854058142
 21
125.1240247217
  0
LINE
  5
2B3
100
AcDbEntity
  8
94177300000_BL0
100
AcDbLine
 62
7
  6
CONTINUOUS
 10
34.0363277065
 20
134.2970782645
 11
34.0363277065
 21
131.6970782645
  0
LINE
  5
2B4
100
AcDbEntity
  8
94177300000_BL0
100
AcDbLine
 62
7
  6
CONTINUOUS
 10
34.3977097749
 20
125.9264674663
 11
34.3977097749
 21
125.1240247217
  0
LINE
  5
2B5
100
AcDbEntity
  8
94177300000_BL0
100
AcDbLine
 62
7
  6
CONTINUOUS
 10
34.3977097749
 20
127.0036248504
 11
34.3977097749
 21
127.6001289658
  0
LINE
  5
2B6
100
AcDbEntity
  8
94177300000_BL0
100
AcDbLine
 62
7
  6
CONTINUOUS
 10
47.1229302469
 20
190.4810528607
 11
47.4497251661
 21
191.0470782645
  0
LINE
  5
2B7
100
AcDbEntity
  8
94177300000_BL0
100
AcDbLine
 62
7
  6
CONTINUOUS
 10
48.1229302469
 20
190.4810528607
 11
48.4497251661
 21
191.0470782645
  0
LINE
  5
2B8
100
AcDbEntity
  8
94177300000_BL0
100
AcDbLine
 62
7
  6
CONTINUOUS
 10
49.1229302469
 20
190.4810528607
 11
49.4497251661
 21
191.0470782645
  0
LINE
  5
2B9
100
AcDbEntity
  8
94177300000_BL0
100
AcDbLine
 62
7
  6
CONTINUOUS
 10
46.9497251661
 20
134.3470782645
 11
46.6229302469
 21
134.9131036683
  0
LINE
  5
2BA
100
AcDbEntity
  8
94177300000_BL0
100
AcDbLine
 62
7
  6
CONTINUOUS
 10
47.9497251661
 20
134.3470782645
 11
47.6229302469
 21
134.9131036683
  0
LINE
  5
2BB
100
AcDbEntity
  8
94177300000_BL0
100
AcDbLine
 62
7
  6
CONTINUOUS
 10
48.9497251661
 20
134.3470782645
 11
48.6229302469
 21
134.9131036683
  0
LINE
  5
2BC
100
AcDbEntity
  8
94177300000_BL0
100
AcDbLine
 62
7
  6
CONTINUOUS
 10
49.6229302469
 20
134.9131036683
 11
49.9497251661
 21
134.3470782645
  0
LINE
  5
2BD
100
AcDbEntity
  8
94177300000_BL0
100
AcDbLine
 62
7
  6
CONTINUOUS
 10
30.1229302469
 20
134.3470782645
 11
30.4497251661
 21
134.9131036683
  0
LINE
  5
2BE
100
AcDbEntity
  8
94177300000_BL0
100
AcDbLine
 62
7
  6
CONTINUOUS
 10
30.6229302469
 20
191.0470782645
 11
30.9497251661
 21
190.4810528607
  0
LINE
  5
2BF
100
AcDbEntity
  8
94177300000_BL0
100
AcDbLine
 62
9
  6
CONTINUOUS
 10
49.0363277065
 20
120.1970782645
 11
49.0363277065
 21
120.6970782645
  0
LINE
  5
2C0
100
AcDbEntity
  8
94177300000_BL0
100
AcDbLine
 62
9
  6
CONTINUOUS
 10
49.0363277065
 20
204.6970782645
 11
49.0363277065
 21
205.1970782645
  0
LINE
  5
2C1
100
AcDbEntity
  8
94177300000_BL0
100
AcDbLine
 62
7
  6
CONTINUOUS
 10
31.4497251661
 20
134.9131036683
 11
31.1229302469
 21
134.3470782645
  0
LINE
  5
2C2
100
AcDbEntity
  8
94177300000_BL0
100
AcDbLine
 62
7
  6
CONTINUOUS
 10
32.4497251661
 20
134.9131036683
 11
32.1229302469
 21
134.3470782645
  0
LINE
  5
2C3
100
AcDbEntity
  8
94177300000_BL0
100
AcDbLine
 62
7
  6
CONTINUOUS
 10
33.4497251661
 20
134.9131036683
 11
33.1229302469
 21
134.3470782645
  0
LINE
  5
2C4
100
AcDbEntity
  8
94177300000_BL0
100
AcDbLine
 62
7
  6
CONTINUOUS
 10
34.4497251661
 20
134.9131036683
 11
34.1229302469
 21
134.3470782645
  0
LINE
  5
2C5
100
AcDbEntity
  8
94177300000_BL0
100
AcDbLine
 62
7
  6
CONTINUOUS
 10
31.6229302469
 20
191.0470782645
 11
31.9497251661
 21
190.4810528607
  0
LINE
  5
2C6
100
AcDbEntity
  8
94177300000_BL0
100
AcDbLine
 62
7
  6
CONTINUOUS
 10
32.6229302469
 20
191.0470782645
 11
32.9497251661
 21
190.4810528607
  0
LINE
  5
2C7
100
AcDbEntity
  8
94177300000_BL0
100
AcDbLine
 62
7
  6
CONTINUOUS
 10
33.6229302469
 20
191.0470782645
 11
33.9497251661
 21
190.4810528607
  0
LINE
  5
2C8
100
AcDbEntity
  8
94177300000_BL0
100
AcDbLine
 62
9
  6
CONTINUOUS
 10
49.5363277065
 20
121.1970782645
 11
49.5363277065
 21
204.1970782645
  0
LINE
  5
2C9
100
AcDbEntity
  8
94177300000_BL0
100
AcDbLine
 62
7
  6
CONTINUOUS
 10
50.0363277065
 20
121.1970782645
 11
50.0363277065
 21
204.1970782645
  0
LINE
  5
2CA
100
AcDbEntity
  8
94177300000_BL0
100
AcDbLine
 62
7
  6
CONTINUOUS
 10
35.4497251661
 20
134.9131036683
 11
35.1229302469
 21
134.3470782645
  0
LINE
  5
2CB
100
AcDbEntity
  8
94177300000_BL0
100
AcDbLine
 62
7
  6
CONTINUOUS
 10
36.4497251661
 20
134.9131036683
 11
36.1229302469
 21
134.3470782645
  0
LINE
  5
2CC
100
AcDbEntity
  8
94177300000_BL0
100
AcDbLine
 62
7
  6
CONTINUOUS
 10
37.4497251661
 20
134.9131036683
 11
37.1229302469
 21
134.3470782645
  0
LINE
  5
2CD
100
AcDbEntity
  8
94177300000_BL0
100
AcDbLine
 62
7
  6
CONTINUOUS
 10
34.6229302469
 20
191.0470782645
 11
34.9497251661
 21
190.4810528607
  0
LINE
  5
2CE
100
AcDbEntity
  8
94177300000_BL0
100
AcDbLine
 62
7
  6
CONTINUOUS
 10
35.6229302469
 20
191.0470782645
 11
35.9497251661
 21
190.4810528607
  0
LINE
  5
2CF
100
AcDbEntity
  8
94177300000_BL0
100
AcDbLine
 62
7
  6
CONTINUOUS
 10
36.6229302469
 20
191.0470782645
 11
36.9497251661
 21
190.4810528607
  0
LINE
  5
2D0
100
AcDbEntity
  8
94177300000_BL0
100
AcDbLine
 62
7
  6
CONTINUOUS
 10
38.4497251661
 20
134.9131036683
 11
38.1229302469
 21
134.3470782645
  0
LINE
  5
2D1
100
AcDbEntity
  8
94177300000_BL0
100
AcDbLine
 62
7
  6
CONTINUOUS
 10
39.4497251661
 20
134.9131036683
 11
39.1229302469
 21
134.3470782645
  0
LINE
  5
2D2
100
AcDbEntity
  8
94177300000_BL0
100
AcDbLine
 62
7
  6
CONTINUOUS
 10
40.4497251661
 20
134.9131036683
 11
40.1229302469
 21
134.3470782645
  0
LINE
  5
2D3
100
AcDbEntity
  8
94177300000_BL0
100
AcDbLine
 62
7
  6
CONTINUOUS
 10
37.6229302469
 20
191.0470782645
 11
37.9497251661
 21
190.4810528607
  0
LINE
  5
2D4
100
AcDbEntity
  8
94177300000_BL0
100
AcDbLine
 62
7
  6
CONTINUOUS
 10
38.6229302469
 20
191.0470782645
 11
38.9497251661
 21
190.4810528607
  0
LINE
  5
2D5
100
AcDbEntity
  8
94177300000_BL0
100
AcDbLine
 62
7
  6
CONTINUOUS
 10
39.6229302469
 20
191.0470782645
 11
39.9497251661
 21
190.4810528607
  0
LINE
  5
2D6
100
AcDbEntity
  8
94177300000_BL0
100
AcDbLine
 62
7
  6
CONTINUOUS
 10
40.6229302469
 20
191.0470782645
 11
40.9497251661
 21
190.4810528607
  0
LINE
  5
2D7
100
AcDbEntity
  8
94177300000_BL0
100
AcDbLine
 62
7
  6
CONTINUOUS
 10
41.4497251661
 20
134.9131036683
 11
41.1229302469
 21
134.3470782645
  0
LINE
  5
2D8
100
AcDbEntity
  8
94177300000_BL0
100
AcDbLine
 62
7
  6
CONTINUOUS
 10
42.4497251661
 20
134.9131036683
 11
42.1229302469
 21
134.3470782645
  0
LINE
  5
2D9
100
AcDbEntity
  8
94177300000_BL0
100
AcDbLine
 62
7
  6
CONTINUOUS
 10
43.4497251661
 20
134.9131036683
 11
43.1229302469
 21
134.3470782645
  0
LINE
  5
2DA
100
AcDbEntity
  8
94177300000_BL0
100
AcDbLine
 62
7
  6
CONTINUOUS
 10
44.4497251661
 20
134.9131036683
 11
44.1229302469
 21
134.3470782645
  0
LINE
  5
2DB
100
AcDbEntity
  8
94177300000_BL0
100
AcDbLine
 62
7
  6
CONTINUOUS
 10
41.6229302469
 20
191.0470782645
 11
41.9497251661
 21
190.4810528607
  0
LINE
  5
2DC
100
AcDbEntity
  8
94177300000_BL0
100
AcDbLine
 62
7
  6
CONTINUOUS
 10
42.6229302469
 20
191.0470782645
 11
42.9497251661
 21
190.4810528607
  0
LINE
  5
2DD
100
AcDbEntity
  8
94177300000_BL0
100
AcDbLine
 62
7
  6
CONTINUOUS
 10
43.6229302469
 20
191.0470782645
 11
43.9497251661
 21
190.4810528607
  0
LINE
  5
2DE
100
AcDbEntity
  8
94177300000_BL0
100
AcDbLine
 62
7
  6
CONTINUOUS
 10
45.4497251661
 20
134.9131036683
 11
45.1229302469
 21
134.3470782645
  0
LINE
  5
2DF
100
AcDbEntity
  8
94177300000_BL0
100
AcDbLine
 62
7
  6
CONTINUOUS
 10
46.4497251661
 20
134.9131036683
 11
46.1229302469
 21
134.3470782645
  0
LINE
  5
2E0
100
AcDbEntity
  8
94177300000_BL0
100
AcDbLine
 62
7
  6
CONTINUOUS
 10
47.4497251661
 20
134.9131036683
 11
47.1229302469
 21
134.3470782645
  0
LINE
  5
2E1
100
AcDbEntity
  8
94177300000_BL0
100
AcDbLine
 62
7
  6
CONTINUOUS
 10
44.6229302469
 20
191.0470782645
 11
44.9497251661
 21
190.4810528607
  0
LINE
  5
2E2
100
AcDbEntity
  8
94177300000_BL0
100
AcDbLine
 62
7
  6
CONTINUOUS
 10
45.6229302469
 20
191.0470782645
 11
45.9497251661
 21
190.4810528607
  0
LINE
  5
2E3
100
AcDbEntity
  8
94177300000_BL0
100
AcDbLine
 62
7
  6
CONTINUOUS
 10
46.6229302469
 20
191.0470782645
 11
46.9497251661
 21
190.4810528607
  0
LINE
  5
2E4
100
AcDbEntity
  8
94177300000_BL0
100
AcDbLine
 62
7
  6
CONTINUOUS
 10
47.6229302469
 20
191.0470782645
 11
47.9497251661
 21
190.4810528607
  0
LINE
  5
2E5
100
AcDbEntity
  8
94177300000_BL0
100
AcDbLine
 62
7
  6
CONTINUOUS
 10
48.4497251661
 20
134.9131036683
 11
48.1229302469
 21
134.3470782645
  0
LINE
  5
2E6
100
AcDbEntity
  8
94177300000_BL0
100
AcDbLine
 62
7
  6
CONTINUOUS
 10
49.4497251661
 20
134.9131036683
 11
49.1229302469
 21
134.3470782645
  0
LINE
  5
2E7
100
AcDbEntity
  8
94177300000_BL0
100
AcDbLine
 62
7
  6
CONTINUOUS
 10
48.6229302469
 20
191.0470782645
 11
48.9497251661
 21
190.4810528607
  0
LINE
  5
2E8
100
AcDbEntity
  8
94177300000_BL0
100
AcDbLine
 62
7
  6
CONTINUOUS
 10
50.0363277065
 20
191.0970782645
 11
49.5363277065
 21
191.0970782645
  0
LINE
  5
2E9
100
AcDbEntity
  8
94177300000_BL0
100
AcDbLine
 62
7
  6
CONTINUOUS
 10
30.5363277065
 20
191.0970782645
 11
30.0363277065
 21
191.0970782645
  0
LINE
  5
2EA
100
AcDbEntity
  8
94177300000_BL0
100
AcDbLine
 62
7
  6
CENTER
 10
49.8383258979
 20
197.1970782645
 11
33.9308486098
 21
197.1970782645
  0
LINE
  5
2EB
100
AcDbEntity
  8
94177300000_BL0
100
AcDbLine
 62
9
  6
CONTINUOUS
 10
30.5363277065
 20
204.1970782645
 11
30.0363277065
 21
204.1970782645
  0
LINE
  5
2EC
100
AcDbEntity
  8
94177300000_BL0
100
AcDbLine
 62
9
  6
CONTINUOUS
 10
49.5363277065
 20
204.1970782645
 11
50.0363277065
 21
204.1970782645
  0
LINE
  5
2ED
100
AcDbEntity
  8
94177300000_BL0
100
AcDbLine
 62
9
  6
CONTINUOUS
 10
49.0363277065
 20
204.6970782645
 11
31.0363277065
 21
204.6970782645
  0
LINE
  5
2EE
100
AcDbEntity
  8
94177300000_BL0
100
AcDbLine
 62
7
  6
CONTINUOUS
 10
49.0363277065
 20
205.1970782645
 11
31.0363277065
 21
205.1970782645
  0
LINE
  5
2EF
100
AcDbEntity
  8
94177300000_BL0
100
AcDbLine
 62
7
  6
CONTINUOUS
 10
98.6516348493
 20
120.1970782645
 11
99.1516348493
 21
120.1970782645
  0
LINE
  5
2F0
100
AcDbEntity
  8
94177300000_BL0
100
AcDbLine
 62
9
  6
CONTINUOUS
 10
98.6516348493
 20
121.1970782645
 11
99.6516348493
 21
121.1970782645
  0
LINE
  5
2F1
100
AcDbEntity
  8
94177300000_BL0
100
AcDbLine
 62
7
  6
CONTINUOUS
 10
98.6516348493
 20
122.1970782645
 11
98.1516348493
 21
122.1970782645
  0
LINE
  5
2F2
100
AcDbEntity
  8
94177300000_BL0
100
AcDbLine
 62
7
  6
CONTINUOUS
 10
99.1516348493
 20
134.2970782645
 11
96.6516348493
 21
134.2970782645
  0
LINE
  5
2F3
100
AcDbEntity
  8
94177300000_BL0
100
AcDbLine
 62
9
  6
CONTINUOUS
 10
96.9328865878
 20
134.3470782645
 11
99.4328865878
 21
134.3470782645
  0
LINE
  5
2F4
100
AcDbEntity
  8
94177300000_BL0
100
AcDbLine
 62
9
  6
CONTINUOUS
 10
99.6440777394
 20
134.9131036683
 11
97.1440777394
 21
134.9131036683
  0
LINE
  5
2F5
100
AcDbEntity
  8
94177300000_BL0
100
AcDbLine
 62
7
  6
CONTINUOUS
 10
97.1516348493
 20
134.9631036683
 11
99.6516348493
 21
134.9631036683
  0
LINE
  5
2F6
100
AcDbEntity
  8
94177300000_BL0
100
AcDbLine
 62
7
  6
CONTINUOUS
 10
90.1516348493
 20
195.1970782645
 11
90.1516348493
 21
130.1970782645
  0
LINE
  5
2F7
100
AcDbEntity
  8
94177300000_BL0
100
AcDbLine
 62
9
  6
CONTINUOUS
 10
96.6516348493
 20
134.2970782645
 11
96.6516348493
 21
191.0970782645
  0
LINE
  5
2F8
100
AcDbEntity
  8
94177300000_BL0
100
AcDbLine
 62
7
  6
CONTINUOUS
 10
97.1516348493
 20
134.9631036683
 11
97.1516348493
 21
191.0970782645
  0
LINE
  5
2F9
100
AcDbEntity
  8
94177300000_BL0
100
AcDbLine
 62
7
  6
CONTINUOUS
 10
98.6516348493
 20
205.1970782645
 11
98.6516348493
 21
203.1970782645
  0
LINE
  5
2FA
100
AcDbEntity
  8
94177300000_BL0
100
AcDbLine
 62
7
  6
CONTINUOUS
 10
98.6516348493
 20
120.1970782645
 11
98.6516348493
 21
122.1970782645
  0
LINE
  5
2FB
100
AcDbEntity
  8
94177300000_BL0
100
AcDbLine
 62
9
  6
CONTINUOUS
 10
99.1516348493
 20
205.1970782645
 11
99.1516348493
 21
191.0970782645
  0
LINE
  5
2FC
100
AcDbEntity
  8
94177300000_BL0
100
AcDbLine
 62
9
  6
CONTINUOUS
 10
99.1516348493
 20
120.1970782645
 11
99.1516348493
 21
134.2970782645
  0
LINE
  5
2FD
100
AcDbEntity
  8
94177300000_BL0
100
AcDbLine
 62
7
  6
CONTINUOUS
 10
99.6516348493
 20
204.6970782645
 11
99.6516348493
 21
191.0470782645
  0
LINE
  5
2FE
100
AcDbEntity
  8
94177300000_BL0
100
AcDbLine
 62
7
  6
CONTINUOUS
 10
99.6516348493
 20
191.0470782645
 11
99.6516348493
 21
190.4310528607
  0
LINE
  5
2FF
100
AcDbEntity
  8
94177300000_BL0
100
AcDbLine
 62
7
  6
CONTINUOUS
 10
99.6516348493
 20
120.6970782645
 11
99.6516348493
 21
134.9631036683
  0
LINE
  5
300
100
AcDbEntity
  8
94177300000_BL0
100
AcDbLine
 62
7
  6
CONTINUOUS
 10
97.1516348493
 20
190.4310528607
 11
99.6516348493
 21
190.4310528607
  0
LINE
  5
301
100
AcDbEntity
  8
94177300000_BL0
100
AcDbLine
 62
9
  6
CONTINUOUS
 10
99.6516348493
 20
190.4810528607
 11
97.1516348493
 21
190.4810528607
  0
LINE
  5
302
100
AcDbEntity
  8
94177300000_BL0
100
AcDbLine
 62
9
  6
CONTINUOUS
 10
99.6516348493
 20
191.0470782645
 11
97.1516348493
 21
191.0470782645
  0
LINE
  5
303
100
AcDbEntity
  8
94177300000_BL0
100
AcDbLine
 62
7
  6
CONTINUOUS
 10
96.6516348493
 20
191.0970782645
 11
99.6516348493
 21
191.0970782645
  0
LINE
  5
304
100
AcDbEntity
  8
94177300000_BL0
100
AcDbLine
 62
7
  6
CONTINUOUS
 10
98.6516348493
 20
203.1970782645
 11
98.1516348493
 21
203.1970782645
  0
LINE
  5
305
100
AcDbEntity
  8
94177300000_BL0
100
AcDbLine
 62
9
  6
CONTINUOUS
 10
98.6516348493
 20
204.1970782645
 11
99.6516348493
 21
204.1970782645
  0
LINE
  5
306
100
AcDbEntity
  8
94177300000_BL0
100
AcDbLine
 62
7
  6
CONTINUOUS
 10
98.6516348493
 20
205.1970782645
 11
99.1516348493
 21
205.1970782645
  0
LINE
  5
307
100
AcDbEntity
  8
94177300000_BL0
100
AcDbLine
 62
7
  6
CONTINUOUS
 10
30.0363277065
 20
80.8870139788
 11
30.0363277065
 21
89.8870139788
  0
LINE
  5
308
100
AcDbEntity
  8
94177300000_BL0
100
AcDbLine
 62
9
  6
CONTINUOUS
 10
31.0363277065
 20
80.3870139788
 11
31.0363277065
 21
81.3870139788
  0
LINE
  5
309
100
AcDbEntity
  8
94177300000_BL0
100
AcDbLine
 62
7
  6
CONTINUOUS
 10
49.5363277065
 20
80.3870139788
 11
30.5363277065
 21
80.3870139788
  0
LINE
  5
30A
100
AcDbEntity
  8
94177300000_BL0
100
AcDbLine
 62
9
  6
CONTINUOUS
 10
50.0363277065
 20
80.8870139788
 11
30.0363277065
 21
80.8870139788
  0
LINE
  5
30B
100
AcDbEntity
  8
94177300000_BL0
100
AcDbLine
 62
7
  6
CONTINUOUS
 10
30.0363277065
 20
81.3870139788
 11
50.0363277065
 21
81.3870139788
  0
LINE
  5
30C
100
AcDbEntity
  8
94177300000_BL0
100
AcDbLine
 62
9
  6
CONTINUOUS
 10
30.0363277065
 20
81.8870139788
 11
50.0363277065
 21
81.8870139788
  0
LINE
  5
30D
100
AcDbEntity
  8
94177300000_BL0
100
AcDbLine
 62
7
  6
CONTINUOUS
 10
30.0363277065
 20
89.8870139788
 11
50.0363277065
 21
89.8870139788
  0
LINE
  5
30E
100
AcDbEntity
  8
94177300000_BL0
100
AcDbLine
 62
9
  6
CONTINUOUS
 10
49.0363277065
 20
80.3870139788
 11
49.0363277065
 21
81.3870139788
  0
LINE
  5
30F
100
AcDbEntity
  8
94177300000_BL0
100
AcDbLine
 62
7
  6
CONTINUOUS
 10
50.0363277065
 20
80.8870139788
 11
50.0363277065
 21
89.8870139788
  0
ARC
  5
310
100
AcDbEntity
  8
94177300000_BL0
100
AcDbCircle
 62
7
  6
CONTINUOUS
 10
34.0415577945
 20
125.1240247217
 40
1.9130449229
100
AcDbArc
 50
79.2706340031
 51
100.7293659969
  0
ARC
  5
311
100
AcDbEntity
  8
94177300000_BL0
100
AcDbCircle
 62
7
  6
CONTINUOUS
 10
34.0415577945
 20
125.0901054854
 40
1.7909356725
100
AcDbArc
 50
125.8545159812
 51
101.4705154492
  0
ARC
  5
312
100
AcDbEntity
  8
94177300000_BL0
100
AcDbCircle
 62
7
  6
CONTINUOUS
 10
34.5842655741
 20
128.8619245533
 40
1.2617955875
100
AcDbArc
 50
270.0
 51
90.0
  0
ARC
  5
313
100
AcDbEntity
  8
94177300000_BL0
100
AcDbCircle
 62
7
  6
CONTINUOUS
 10
31.0363277065
 20
121.1970782645
 40
1.0
100
AcDbArc
 50
180.0
 51
270.0
  0
ARC
  5
314
100
AcDbEntity
  8
94177300000_BL0
100
AcDbCircle
 62
7
  6
CONTINUOUS
 10
34.0415577945
 20
125.0901054855
 40
0.9090355307
100
AcDbArc
 50
125.2282226131
 51
66.9340105629
  0
ARC
  5
315
100
AcDbEntity
  8
94177300000_BL0
100
AcDbCircle
 62
9
  6
CONTINUOUS
 10
31.0363277065
 20
121.1970782645
 40
0.4999999937
100
AcDbArc
 50
180.0
 51
270.0
  0
ARC
  5
316
100
AcDbEntity
  8
94177300000_BL0
100
AcDbCircle
 62
7
  6
CONTINUOUS
 10
34.5842655741
 20
128.8619245534
 40
0.3798954457
100
AcDbArc
 50
270.0
 51
90.0
  0
ARC
  5
317
100
AcDbEntity
  8
94177300000_BL0
100
AcDbCircle
 62
7
  6
CONTINUOUS
 10
34.0415577946
 20
125.1240247216
 40
0.3561519804
100
AcDbArc
 50
179.9999999896
 51
360.0
  0
ARC
  5
318
100
AcDbEntity
  8
94177300000_BL0
100
AcDbCircle
 62
7
  6
CONTINUOUS
 10
30.0363277065
 20
134.3970782645
 40
0.1
100
AcDbArc
 50
270.0
 51
330.0
  0
ARC
  5
319
100
AcDbEntity
  8
94177300000_BL0
100
AcDbCircle
 62
7
  6
CONTINUOUS
 10
33.5363277065
 20
134.8631036683
 40
0.1
100
AcDbArc
 50
30.0
 51
150.0
  0
ARC
  5
31A
100
AcDbEntity
  8
94177300000_BL0
100
AcDbCircle
 62
7
  6
CONTINUOUS
 10
34.0363277065
 20
134.3970782645
 40
0.1
100
AcDbArc
 50
210.0
 51
330.0
  0
ARC
  5
31B
100
AcDbEntity
  8
94177300000_BL0
100
AcDbCircle
 62
7
  6
CONTINUOUS
 10
33.0363277065
 20
134.3970782645
 40
0.1
100
AcDbArc
 50
210.0
 51
330.0
  0
ARC
  5
31C
100
AcDbEntity
  8
94177300000_BL0
100
AcDbCircle
 62
7
  6
CONTINUOUS
 10
32.0363277065
 20
134.3970782645
 40
0.1
100
AcDbArc
 50
210.0
 51
330.0
  0
ARC
  5
31D
100
AcDbEntity
  8
94177300000_BL0
100
AcDbCircle
 62
7
  6
CONTINUOUS
 10
31.0363277065
 20
134.3970782645
 40
0.1
100
AcDbArc
 50
210.0
 51
330.0
  0
ARC
  5
31E
100
AcDbEntity
  8
94177300000_BL0
100
AcDbCircle
 62
7
  6
CONTINUOUS
 10
30.5363277065
 20
134.8631036683
 40
0.1
100
AcDbArc
 50
30.0
 51
150.0
  0
ARC
  5
31F
100
AcDbEntity
  8
94177300000_BL0
100
AcDbCircle
 62
7
  6
CONTINUOUS
 10
31.5363277065
 20
134.8631036683
 40
0.1
100
AcDbArc
 50
30.0
 51
150.0
  0
ARC
  5
320
100
AcDbEntity
  8
94177300000_BL0
100
AcDbCircle
 62
7
  6
CONTINUOUS
 10
32.5363277065
 20
134.8631036683
 40
0.1
100
AcDbArc
 50
30.0
 51
150.0
  0
ARC
  5
321
100
AcDbEntity
  8
94177300000_BL0
100
AcDbCircle
 62
7
  6
CONTINUOUS
 10
34.5363277065
 20
134.8631036683
 40
0.1
100
AcDbArc
 50
30.0
 51
150.0
  0
ARC
  5
322
100
AcDbEntity
  8
94177300000_BL0
100
AcDbCircle
 62
7
  6
CONTINUOUS
 10
39.0363277065
 20
134.3970782645
 40
0.1
100
AcDbArc
 50
210.0
 51
330.0
  0
ARC
  5
323
100
AcDbEntity
  8
94177300000_BL0
100
AcDbCircle
 62
7
  6
CONTINUOUS
 10
38.0363277065
 20
134.3970782645
 40
0.1
100
AcDbArc
 50
210.0
 51
330.0
  0
ARC
  5
324
100
AcDbEntity
  8
94177300000_BL0
100
AcDbCircle
 62
7
  6
CONTINUOUS
 10
37.0363277065
 20
134.3970782645
 40
0.1
100
AcDbArc
 50
210.0
 51
330.0
  0
ARC
  5
325
100
AcDbEntity
  8
94177300000_BL0
100
AcDbCircle
 62
7
  6
CONTINUOUS
 10
36.0363277065
 20
134.3970782645
 40
0.1
100
AcDbArc
 50
210.0
 51
330.0
  0
ARC
  5
326
100
AcDbEntity
  8
94177300000_BL0
100
AcDbCircle
 62
7
  6
CONTINUOUS
 10
35.0363277065
 20
134.3970782645
 40
0.1
100
AcDbArc
 50
210.0
 51
330.0
  0
ARC
  5
327
100
AcDbEntity
  8
94177300000_BL0
100
AcDbCircle
 62
7
  6
CONTINUOUS
 10
35.5363277065
 20
134.8631036683
 40
0.1
100
AcDbArc
 50
30.0
 51
150.0
  0
ARC
  5
328
100
AcDbEntity
  8
94177300000_BL0
100
AcDbCircle
 62
7
  6
CONTINUOUS
 10
36.5363277065
 20
134.8631036683
 40
0.1
100
AcDbArc
 50
30.0
 51
150.0
  0
ARC
  5
329
100
AcDbEntity
  8
94177300000_BL0
100
AcDbCircle
 62
7
  6
CONTINUOUS
 10
37.5363277065
 20
134.8631036683
 40
0.1
100
AcDbArc
 50
30.0
 51
150.0
  0
ARC
  5
32A
100
AcDbEntity
  8
94177300000_BL0
100
AcDbCircle
 62
7
  6
CONTINUOUS
 10
38.5363277065
 20
134.8631036683
 40
0.1
100
AcDbArc
 50
30.0
 51
150.0
  0
ARC
  5
32B
100
AcDbEntity
  8
94177300000_BL0
100
AcDbCircle
 62
7
  6
CONTINUOUS
 10
39.5363277065
 20
134.8631036683
 40
0.1
100
AcDbArc
 50
30.0
 51
150.0
  0
ARC
  5
32C
100
AcDbEntity
  8
94177300000_BL0
100
AcDbCircle
 62
7
  6
CONTINUOUS
 10
34.5363277065
 20
190.9970782645
 40
0.1
100
AcDbArc
 50
30.0
 51
150.0
  0
ARC
  5
32D
100
AcDbEntity
  8
94177300000_BL0
100
AcDbCircle
 62
7
  6
CONTINUOUS
 10
33.5363277065
 20
190.9970782645
 40
0.1
100
AcDbArc
 50
30.0
 51
150.0
  0
ARC
  5
32E
100
AcDbEntity
  8
94177300000_BL0
100
AcDbCircle
 62
7
  6
CONTINUOUS
 10
32.5363277065
 20
190.9970782645
 40
0.1
100
AcDbArc
 50
30.0
 51
150.0
  0
ARC
  5
32F
100
AcDbEntity
  8
94177300000_BL0
100
AcDbCircle
 62
7
  6
CONTINUOUS
 10
31.5363277065
 20
190.9970782645
 40
0.1
100
AcDbArc
 50
30.0
 51
150.0
  0
ARC
  5
330
100
AcDbEntity
  8
94177300000_BL0
100
AcDbCircle
 62
7
  6
CONTINUOUS
 10
30.5363277065
 20
190.9970782645
 40
0.1
100
AcDbArc
 50
30.0
 51
90.0
  0
ARC
  5
331
100
AcDbEntity
  8
94177300000_BL0
100
AcDbCircle
 62
7
  6
CONTINUOUS
 10
31.0363277065
 20
190.5310528607
 40
0.1
100
AcDbArc
 50
210.0
 51
330.0
  0
ARC
  5
332
100
AcDbEntity
  8
94177300000_BL0
100
AcDbCircle
 62
7
  6
CONTINUOUS
 10
32.0363277065
 20
190.5310528607
 40
0.1
100
AcDbArc
 50
210.0
 51
330.0
  0
ARC
  5
333
100
AcDbEntity
  8
94177300000_BL0
100
AcDbCircle
 62
7
  6
CONTINUOUS
 10
33.0363277065
 20
190.5310528607
 40
0.1
100
AcDbArc
 50
210.0
 51
330.0
  0
ARC
  5
334
100
AcDbEntity
  8
94177300000_BL0
100
AcDbCircle
 62
7
  6
CONTINUOUS
 10
34.0363277065
 20
190.5310528607
 40
0.1
100
AcDbArc
 50
210.0
 51
330.0
  0
ARC
  5
335
100
AcDbEntity
  8
94177300000_BL0
100
AcDbCircle
 62
7
  6
CONTINUOUS
 10
31.0363277065
 20
204.1970782645
 40
1.0
100
AcDbArc
 50
90.0
 51
180.0
  0
ARC
  5
336
100
AcDbEntity
  8
94177300000_BL0
100
AcDbCircle
 62
9
  6
CONTINUOUS
 10
31.0363277065
 20
204.1970782645
 40
0.4999999883
100
AcDbArc
 50
90.0
 51
180.0
  0
ARC
  5
337
100
AcDbEntity
  8
94177300000_BL0
100
AcDbCircle
 62
7
  6
CONTINUOUS
 10
39.5363277065
 20
190.9970782645
 40
0.1
100
AcDbArc
 50
30.0
 51
150.0
  0
ARC
  5
338
100
AcDbEntity
  8
94177300000_BL0
100
AcDbCircle
 62
7
  6
CONTINUOUS
 10
38.5363277065
 20
190.9970782645
 40
0.1
100
AcDbArc
 50
30.0
 51
150.0
  0
ARC
  5
339
100
AcDbEntity
  8
94177300000_BL0
100
AcDbCircle
 62
7
  6
CONTINUOUS
 10
37.5363277065
 20
190.9970782645
 40
0.1
100
AcDbArc
 50
30.0
 51
150.0
  0
ARC
  5
33A
100
AcDbEntity
  8
94177300000_BL0
100
AcDbCircle
 62
7
  6
CONTINUOUS
 10
36.5363277065
 20
190.9970782645
 40
0.1
100
AcDbArc
 50
30.0
 51
150.0
  0
ARC
  5
33B
100
AcDbEntity
  8
94177300000_BL0
100
AcDbCircle
 62
7
  6
CONTINUOUS
 10
35.5363277065
 20
190.9970782645
 40
0.1
100
AcDbArc
 50
30.0
 51
150.0
  0
ARC
  5
33C
100
AcDbEntity
  8
94177300000_BL0
100
AcDbCircle
 62
7
  6
CONTINUOUS
 10
35.0363277065
 20
190.5310528607
 40
0.1
100
AcDbArc
 50
210.0
 51
330.0
  0
ARC
  5
33D
100
AcDbEntity
  8
94177300000_BL0
100
AcDbCircle
 62
7
  6
CONTINUOUS
 10
36.0363277065
 20
190.5310528607
 40
0.1
100
AcDbArc
 50
210.0
 51
330.0
  0
ARC
  5
33E
100
AcDbEntity
  8
94177300000_BL0
100
AcDbCircle
 62
7
  6
CONTINUOUS
 10
37.0363277065
 20
190.5310528607
 40
0.1
100
AcDbArc
 50
210.0
 51
330.0
  0
ARC
  5
33F
100
AcDbEntity
  8
94177300000_BL0
100
AcDbCircle
 62
7
  6
CONTINUOUS
 10
38.0363277065
 20
190.5310528607
 40
0.1
100
AcDbArc
 50
210.0
 51
330.0
  0
ARC
  5
340
100
AcDbEntity
  8
94177300000_BL0
100
AcDbCircle
 62
7
  6
CONTINUOUS
 10
39.0363277065
 20
190.5310528607
 40
0.1
100
AcDbArc
 50
210.0
 51
330.0
  0
ARC
  5
341
100
AcDbEntity
  8
94177300000_BL0
100
AcDbCircle
 62
7
  6
CONTINUOUS
 10
44.0363277065
 20
134.3970782645
 40
0.1
100
AcDbArc
 50
210.0
 51
330.0
  0
ARC
  5
342
100
AcDbEntity
  8
94177300000_BL0
100
AcDbCircle
 62
7
  6
CONTINUOUS
 10
43.0363277065
 20
134.3970782645
 40
0.1
100
AcDbArc
 50
210.0
 51
330.0
  0
ARC
  5
343
100
AcDbEntity
  8
94177300000_BL0
100
AcDbCircle
 62
7
  6
CONTINUOUS
 10
42.0363277065
 20
134.3970782645
 40
0.1
100
AcDbArc
 50
210.0
 51
330.0
  0
ARC
  5
344
100
AcDbEntity
  8
94177300000_BL0
100
AcDbCircle
 62
7
  6
CONTINUOUS
 10
41.0363277065
 20
134.3970782645
 40
0.1
100
AcDbArc
 50
210.0
 51
330.0
  0
ARC
  5
345
100
AcDbEntity
  8
94177300000_BL0
100
AcDbCircle
 62
7
  6
CONTINUOUS
 10
40.0363277065
 20
134.3970782645
 40
0.1
100
AcDbArc
 50
210.0
 51
330.0
  0
ARC
  5
346
100
AcDbEntity
  8
94177300000_BL0
100
AcDbCircle
 62
7
  6
CONTINUOUS
 10
40.5363277065
 20
134.8631036683
 40
0.1
100
AcDbArc
 50
30.0
 51
150.0
  0
ARC
  5
347
100
AcDbEntity
  8
94177300000_BL0
100
AcDbCircle
 62
7
  6
CONTINUOUS
 10
41.5363277065
 20
134.8631036683
 40
0.1
100
AcDbArc
 50
30.0
 51
150.0
  0
ARC
  5
348
100
AcDbEntity
  8
94177300000_BL0
100
AcDbCircle
 62
7
  6
CONTINUOUS
 10
42.5363277065
 20
134.8631036683
 40
0.1
100
AcDbArc
 50
30.0
 51
150.0
  0
ARC
  5
349
100
AcDbEntity
  8
94177300000_BL0
100
AcDbCircle
 62
7
  6
CONTINUOUS
 10
43.5363277065
 20
134.8631036683
 40
0.1
100
AcDbArc
 50
30.0
 51
150.0
  0
ARC
  5
34A
100
AcDbEntity
  8
94177300000_BL0
100
AcDbCircle
 62
7
  6
CONTINUOUS
 10
44.5363277065
 20
134.8631036683
 40
0.1
100
AcDbArc
 50
30.0
 51
150.0
  0
ARC
  5
34B
100
AcDbEntity
  8
94177300000_BL0
100
AcDbCircle
 62
7
  6
CONTINUOUS
 10
49.0363277065
 20
121.1970782645
 40
1.0
100
AcDbArc
 50
270.0
 51
360.0
  0
ARC
  5
34C
100
AcDbEntity
  8
94177300000_BL0
100
AcDbCircle
 62
9
  6
CONTINUOUS
 10
49.0363277065
 20
121.1970782645
 40
0.4999999937
100
AcDbArc
 50
270.0
 51
360.0
  0
ARC
  5
34D
100
AcDbEntity
  8
94177300000_BL0
100
AcDbCircle
 62
7
  6
CONTINUOUS
 10
50.0363277065
 20
134.3970782645
 40
0.1
100
AcDbArc
 50
210.0
 51
270.0
  0
ARC
  5
34E
100
AcDbEntity
  8
94177300000_BL0
100
AcDbCircle
 62
7
  6
CONTINUOUS
 10
49.0363277065
 20
134.3970782645
 40
0.1
100
AcDbArc
 50
210.0
 51
330.0
  0
ARC
  5
34F
100
AcDbEntity
  8
94177300000_BL0
100
AcDbCircle
 62
7
  6
CONTINUOUS
 10
48.0363277065
 20
134.3970782645
 40
0.1
100
AcDbArc
 50
210.0
 51
330.0
  0
ARC
  5
350
100
AcDbEntity
  8
94177300000_BL0
100
AcDbCircle
 62
7
  6
CONTINUOUS
 10
47.0363277065
 20
134.3970782645
 40
0.1
100
AcDbArc
 50
210.0
 51
330.0
  0
ARC
  5
351
100
AcDbEntity
  8
94177300000_BL0
100
AcDbCircle
 62
7
  6
CONTINUOUS
 10
46.0363277065
 20
134.3970782645
 40
0.1
100
AcDbArc
 50
210.0
 51
330.0
  0
ARC
  5
352
100
AcDbEntity
  8
94177300000_BL0
100
AcDbCircle
 62
7
  6
CONTINUOUS
 10
45.0363277065
 20
134.3970782645
 40
0.1
100
AcDbArc
 50
210.0
 51
330.0
  0
ARC
  5
353
100
AcDbEntity
  8
94177300000_BL0
100
AcDbCircle
 62
7
  6
CONTINUOUS
 10
45.5363277065
 20
134.8631036683
 40
0.1
100
AcDbArc
 50
30.0
 51
150.0
  0
ARC
  5
354
100
AcDbEntity
  8
94177300000_BL0
100
AcDbCircle
 62
7
  6
CONTINUOUS
 10
46.5363277065
 20
134.8631036683
 40
0.1
100
AcDbArc
 50
30.0
 51
150.0
  0
ARC
  5
355
100
AcDbEntity
  8
94177300000_BL0
100
AcDbCircle
 62
7
  6
CONTINUOUS
 10
47.5363277065
 20
134.8631036683
 40
0.1
100
AcDbArc
 50
30.0
 51
150.0
  0
ARC
  5
356
100
AcDbEntity
  8
94177300000_BL0
100
AcDbCircle
 62
7
  6
CONTINUOUS
 10
48.5363277065
 20
134.8631036683
 40
0.1
100
AcDbArc
 50
30.0
 51
150.0
  0
ARC
  5
357
100
AcDbEntity
  8
94177300000_BL0
100
AcDbCircle
 62
7
  6
CONTINUOUS
 10
49.5363277065
 20
134.8631036683
 40
0.1
100
AcDbArc
 50
30.0
 51
150.0
  0
ARC
  5
358
100
AcDbEntity
  8
94177300000_BL0
100
AcDbCircle
 62
7
  6
CONTINUOUS
 10
44.5363277065
 20
190.9970782645
 40
0.1
100
AcDbArc
 50
30.0
 51
150.0
  0
ARC
  5
359
100
AcDbEntity
  8
94177300000_BL0
100
AcDbCircle
 62
7
  6
CONTINUOUS
 10
43.5363277065
 20
190.9970782645
 40
0.1
100
AcDbArc
 50
30.0
 51
150.0
  0
ARC
  5
35A
100
AcDbEntity
  8
94177300000_BL0
100
AcDbCircle
 62
7
  6
CONTINUOUS
 10
42.5363277065
 20
190.9970782645
 40
0.1
100
AcDbArc
 50
30.0
 51
150.0
  0
ARC
  5
35B
100
AcDbEntity
  8
94177300000_BL0
100
AcDbCircle
 62
7
  6
CONTINUOUS
 10
41.5363277065
 20
190.9970782645
 40
0.1
100
AcDbArc
 50
30.0
 51
150.0
  0
ARC
  5
35C
100
AcDbEntity
  8
94177300000_BL0
100
AcDbCircle
 62
7
  6
CONTINUOUS
 10
40.5363277065
 20
190.9970782645
 40
0.1
100
AcDbArc
 50
30.0
 51
150.0
  0
ARC
  5
35D
100
AcDbEntity
  8
94177300000_BL0
100
AcDbCircle
 62
7
  6
CONTINUOUS
 10
40.0363277065
 20
190.5310528607
 40
0.1
100
AcDbArc
 50
210.0
 51
330.0
  0
ARC
  5
35E
100
AcDbEntity
  8
94177300000_BL0
100
AcDbCircle
 62
7
  6
CONTINUOUS
 10
41.0363277065
 20
190.5310528607
 40
0.1
100
AcDbArc
 50
210.0
 51
330.0
  0
ARC
  5
35F
100
AcDbEntity
  8
94177300000_BL0
100
AcDbCircle
 62
7
  6
CONTINUOUS
 10
42.0363277065
 20
190.5310528607
 40
0.1
100
AcDbArc
 50
210.0
 51
330.0
  0
ARC
  5
360
100
AcDbEntity
  8
94177300000_BL0
100
AcDbCircle
 62
7
  6
CONTINUOUS
 10
43.0363277065
 20
190.5310528607
 40
0.1
100
AcDbArc
 50
210.0
 51
330.0
  0
ARC
  5
361
100
AcDbEntity
  8
94177300000_BL0
100
AcDbCircle
 62
7
  6
CONTINUOUS
 10
44.0363277065
 20
190.5310528607
 40
0.1
100
AcDbArc
 50
210.0
 51
330.0
  0
ARC
  5
362
100
AcDbEntity
  8
94177300000_BL0
100
AcDbCircle
 62
7
  6
CONTINUOUS
 10
48.5363277065
 20
190.9970782645
 40
0.1
100
AcDbArc
 50
30.0
 51
150.0
  0
ARC
  5
363
100
AcDbEntity
  8
94177300000_BL0
100
AcDbCircle
 62
7
  6
CONTINUOUS
 10
47.5363277065
 20
190.9970782645
 40
0.1
100
AcDbArc
 50
30.0
 51
150.0
  0
ARC
  5
364
100
AcDbEntity
  8
94177300000_BL0
100
AcDbCircle
 62
7
  6
CONTINUOUS
 10
46.5363277065
 20
190.9970782645
 40
0.1
100
AcDbArc
 50
30.0
 51
150.0
  0
ARC
  5
365
100
AcDbEntity
  8
94177300000_BL0
100
AcDbCircle
 62
7
  6
CONTINUOUS
 10
45.5363277065
 20
190.9970782645
 40
0.1
100
AcDbArc
 50
30.0
 51
150.0
  0
ARC
  5
366
100
AcDbEntity
  8
94177300000_BL0
100
AcDbCircle
 62
7
  6
CONTINUOUS
 10
45.0363277065
 20
190.5310528607
 40
0.1
100
AcDbArc
 50
210.0
 51
330.0
  0
ARC
  5
367
100
AcDbEntity
  8
94177300000_BL0
100
AcDbCircle
 62
7
  6
CONTINUOUS
 10
46.0363277065
 20
190.5310528607
 40
0.1
100
AcDbArc
 50
210.0
 51
330.0
  0
ARC
  5
368
100
AcDbEntity
  8
94177300000_BL0
100
AcDbCircle
 62
7
  6
CONTINUOUS
 10
47.0363277065
 20
190.5310528607
 40
0.1
100
AcDbArc
 50
210.0
 51
330.0
  0
ARC
  5
369
100
AcDbEntity
  8
94177300000_BL0
100
AcDbCircle
 62
7
  6
CONTINUOUS
 10
48.0363277065
 20
190.5310528607
 40
0.1
100
AcDbArc
 50
210.0
 51
330.0
  0
ARC
  5
36A
100
AcDbEntity
  8
94177300000_BL0
100
AcDbCircle
 62
7
  6
CONTINUOUS
 10
49.0363277065
 20
190.5310528607
 40
0.1
100
AcDbArc
 50
210.0
 51
330.0
  0
ARC
  5
36B
100
AcDbEntity
  8
94177300000_BL0
100
AcDbCircle
 62
7
  6
CONTINUOUS
 10
49.5363277065
 20
190.9970782645
 40
0.1
100
AcDbArc
 50
90.0
 51
150.0
  0
ARC
  5
36C
100
AcDbEntity
  8
94177300000_BL0
100
AcDbCircle
 62
7
  6
CONTINUOUS
 10
49.0363277065
 20
204.1970782645
 40
1.0
100
AcDbArc
 50
0.0
 51
90.0
  0
ARC
  5
36D
100
AcDbEntity
  8
94177300000_BL0
100
AcDbCircle
 62
9
  6
CONTINUOUS
 10
49.0363277065
 20
204.1970782645
 40
0.4999999883
100
AcDbArc
 50
0.0
 51
90.0
  0
ARC
  5
36E
100
AcDbEntity
  8
94177300000_BL0
100
AcDbCircle
 62
7
  6
CONTINUOUS
 10
98.1516348493
 20
130.1970782645
 40
8.0
100
AcDbArc
 50
180.0
 51
270.0
  0
ARC
  5
36F
100
AcDbEntity
  8
94177300000_BL0
100
AcDbCircle
 62
7
  6
CONTINUOUS
 10
98.1516348493
 20
195.1970782645
 40
8.0
100
AcDbArc
 50
90.0
 51
180.0
  0
ARC
  5
370
100
AcDbEntity
  8
94177300000_BL0
100
AcDbCircle
 62
7
  6
CONTINUOUS
 10
97.6733695309
 20
134.8586764425
 40
0.5320828163
100
AcDbArc
 50
168.6815896871
 51
174.1288944564
  0
ARC
  5
371
100
AcDbEntity
  8
94177300000_BL0
100
AcDbCircle
 62
7
  6
CONTINUOUS
 10
100.1653096703
 20
134.8598946276
 40
0.5239407675
100
AcDbArc
 50
168.6392314214
 51
174.1712527221
  0
ARC
  5
372
100
AcDbEntity
  8
94177300000_BL0
100
AcDbCircle
 62
7
  6
CONTINUOUS
 10
99.1516348493
 20
204.6970782645
 40
0.5
100
AcDbArc
 50
0.0
 51
90.0
  0
ARC
  5
373
100
AcDbEntity
  8
94177300000_BL0
100
AcDbCircle
 62
7
  6
CONTINUOUS
 10
99.1516348493
 20
120.6970782645
 40
0.5
100
AcDbArc
 50
270.0
 51
360.0
  0
ARC
  5
374
100
AcDbEntity
  8
94177300000_BL0
100
AcDbCircle
 62
7
  6
CONTINUOUS
 10
49.5363277065
 20
80.8870139788
 40
0.5
100
AcDbArc
 50
270.0
 51
360.0
  0
ARC
  5
375
100
AcDbEntity
  8
94177300000_BL0
100
AcDbCircle
 62
7
  6
CONTINUOUS
 10
30.5363277065
 20
80.8870139788
 40
0.5
100
AcDbArc
 50
180.0
 51
270.0
  0
SPLINE
  5
376
100
AcDbEntity
  8
94177300000_BL0
100
AcDbSpline
 62
7
  6
CONTINUOUS
 70
0
 71
3
 72
15
 73
11
 74
0
 42
0.0000001
 43
0.0000001
 44
0.0000000001
 40
0.0
 40
0.0
 40
0.0
 40
0.0
 40
0.125810664
 40
0.2501647992
 40
0.3737074982
 40
0.497163416
 40
0.6211685998
 40
0.7461761427
 40
0.8724309898
 40
1.0
 40
1.0
 40
1.0
 40
1.0
 10
39.4410085656
 20
199.0122784698
 30
0.0
 10
39.5133499502
 20
198.9642410774
 30
0.0
 10
39.650283739
 20
198.8577388906
 30
0.0
 10
39.8274490188
 20
198.6688641342
 30
0.0
 10
39.9721106636
 20
198.45601306
 30
0.0
 10
40.0826679596
 20
198.2239830751
 30
0.0
 10
40.1587719742
 20
197.9775242417
 30
0.0
 10
40.2007833268
 20
197.7211512356
 30
0.0
 10
40.2094711853
 20
197.4591540495
 30
0.0
 10
40.1937550388
 20
197.2841677476
 30
0.0
 10
40.1807725052
 20
197.1970782645
 30
0.0
  0
SPLINE
  5
377
100
AcDbEntity
  8
94177300000_BL0
100
AcDbSpline
 62
7
  6
CONTINUOUS
 70
0
 71
3
 72
15
 73
11
 74
0
 42
0.0000001
 43
0.0000001
 44
0.0000000001
 40
0.0
 40
0.0
 40
0.0
 40
0.0
 40
0.125810664
 40
0.2501647992
 40
0.3737074982
 40
0.497163416
 40
0.6211685998
 40
0.7461761427
 40
0.8724309898
 40
1.0
 40
1.0
 40
1.0
 40
1.0
 10
39.4410085656
 20
126.3818780592
 30
0.0
 10
39.5133499502
 20
126.4299154516
 30
0.0
 10
39.650283739
 20
126.5364176384
 30
0.0
 10
39.8274490188
 20
126.7252923948
 30
0.0
 10
39.9721106636
 20
126.938143469
 30
0.0
 10
40.0826679596
 20
127.1701734539
 30
0.0
 10
40.1587719742
 20
127.4166322873
 30
0.0
 10
40.2007833268
 20
127.6730052934
 30
0.0
 10
40.2094711853
 20
127.9350024796
 30
0.0
 10
40.1937550388
 20
128.1099887814
 30
0.0
 10
40.1807725052
 20
128.1970782645
 30
0.0
  0
SPLINE
  5
378
100
AcDbEntity
  8
94177300000_BL0
100
AcDbSpline
 62
7
  6
CONTINUOUS
 70
0
 71
3
 72
11
 73
7
 74
0
 42
0.0000001
 43
0.0000001
 44
0.0000000001
 40
0.0
 40
0.0
 40
0.0
 40
0.0
 40
0.2465879086
 40
0.4962590324
 40
0.7477261441
 40
1.0
 40
1.0
 40
1.0
 40
1.0
 10
40.1807725052
 20
128.1970782645
 30
0.0
 10
40.1574171593
 20
128.3537506876
 30
0.0
 10
40.0770230715
 20
128.6649168005
 30
0.0
 10
39.8665013024
 20
129.0998802124
 30
0.0
 10
39.5745530473
 20
129.4894784242
 30
0.0
 10
39.3333944975
 20
129.7086137534
 30
0.0
 10
39.2038355562
 20
129.805962082
 30
0.0
  0
SPLINE
  5
379
100
AcDbEntity
  8
94177300000_BL0
100
AcDbSpline
 62
7
  6
CONTINUOUS
 70
0
 71
3
 72
19
 73
15
 74
0
 42
0.0000001
 43
0.0000001
 44
0.0000000001
 40
0.0
 40
0.0
 40
0.0
 40
0.0
 40
0.1335559825
 40
0.2658569771
 40
0.3312485607
 40
0.3959382851
 40
0.4598391434
 40
0.5228917376
 40
0.6462170404
 40
0.7662314183
 40
0.8252887146
 40
0.883827274
 40
0.9420058309
 40
1.0
 40
1.0
 40
1.0
 40
1.0
 10
38.5763712798
 20
197.1970782645
 30
0.0
 10
38.5763712798
 20
197.0567560235
 30
0.0
 10
38.6000907802
 20
196.7768828089
 30
0.0
 10
38.6886212063
 20
196.4384049097
 30
0.0
 10
38.7931244555
 20
196.1829614838
 30
0.0
 10
38.8870540487
 20
196.0017643913
 30
0.0
 10
38.9959361366
 20
195.8320268402
 30
0.0
 10
39.1583456498
 20
195.6248092531
 30
0.0
 10
39.3929565799
 20
195.4011111538
 30
0.0
 10
39.6650897614
 20
195.2322202663
 30
0.0
 10
39.8961735345
 20
195.1366232016
 30
0.0
 10
40.0739415315
 20
195.0851192811
 30
0.0
 10
40.2552222234
 20
195.0540177223
 30
0.0
 10
40.3773936085
 20
195.0470782645
 30
0.0
 10
40.4383258979
 20
195.0470782645
 30
0.0
  0
SPLINE
  5
37A
100
AcDbEntity
  8
94177300000_BL0
100
AcDbSpline
 62
7
  6
CONTINUOUS
 70
0
 71
3
 72
19
 73
15
 74
0
 42
0.0000001
 43
0.0000001
 44
0.0000000001
 40
0.0
 40
0.0
 40
0.0
 40
0.0
 40
0.1335559825
 40
0.2658569771
 40
0.3312485607
 40
0.3959382851
 40
0.4598391434
 40
0.5228917376
 40
0.6462170404
 40
0.7662314183
 40
0.8252887146
 40
0.883827274
 40
0.9420058309
 40
1.0
 40
1.0
 40
1.0
 40
1.0
 10
38.5763712798
 20
197.1970782645
 30
0.0
 10
38.5763712798
 20
197.3374005055
 30
0.0
 10
38.6000907802
 20
197.6172737201
 30
0.0
 10
38.6886212063
 20
197.9557516193
 30
0.0
 10
38.7931244555
 20
198.2111950452
 30
0.0
 10
38.8870540487
 20
198.3923921377
 30
0.0
 10
38.9959361366
 20
198.5621296888
 30
0.0
 10
39.1583456498
 20
198.769347276
 30
0.0
 10
39.3929565799
 20
198.9930453752
 30
0.0
 10
39.6650897614
 20
199.1619362628
 30
0.0
 10
39.8961735345
 20
199.2575333274
 30
0.0
 10
40.0739415315
 20
199.3090372479
 30
0.0
 10
40.2552222234
 20
199.3401388067
 30
0.0
 10
40.3773936085
 20
199.3470782645
 30
0.0
 10
40.4383258979
 20
199.3470782645
 30
0.0
  0
SPLINE
  5
37B
100
AcDbEntity
  8
94177300000_BL0
100
AcDbSpline
 62
7
  6
CONTINUOUS
 70
0
 71
3
 72
11
 73
7
 74
0
 42
0.0000001
 43
0.0000001
 44
0.0000000001
 40
0.0
 40
0.0
 40
0.0
 40
0.0
 40
0.2465879086
 40
0.4962590324
 40
0.7477261441
 40
1.0
 40
1.0
 40
1.0
 40
1.0
 10
40.1807725052
 20
197.1970782645
 30
0.0
 10
40.1574171593
 20
197.0404058414
 30
0.0
 10
40.0770230715
 20
196.7292397286
 30
0.0
 10
39.8665013024
 20
196.2942763166
 30
0.0
 10
39.5745530473
 20
195.9046781049
 30
0.0
 10
39.3333944975
 20
195.6855427757
 30
0.0
 10
39.2038355562
 20
195.588194447
 30
0.0
  0
SPLINE
  5
37C
100
AcDbEntity
  8
94177300000_BL0
100
AcDbSpline
 62
7
  6
CONTINUOUS
 70
0
 71
3
 72
19
 73
15
 74
0
 42
0.0000001
 43
0.0000001
 44
0.0000000001
 40
0.0
 40
0.0
 40
0.0
 40
0.0
 40
0.1335559825
 40
0.2658569771
 40
0.3312485607
 40
0.3959382851
 40
0.4598391434
 40
0.5228917376
 40
0.6462170404
 40
0.7662314183
 40
0.8252887146
 40
0.883827274
 40
0.9420058309
 40
1.0
 40
1.0
 40
1.0
 40
1.0
 10
38.5763712798
 20
128.1970782645
 30
0.0
 10
38.5763712798
 20
128.3374005055
 30
0.0
 10
38.6000907802
 20
128.6172737201
 30
0.0
 10
38.6886212063
 20
128.9557516193
 30
0.0
 10
38.7931244555
 20
129.2111950452
 30
0.0
 10
38.8870540487
 20
129.3923921377
 30
0.0
 10
38.9959361366
 20
129.5621296888
 30
0.0
 10
39.1583456498
 20
129.769347276
 30
0.0
 10
39.3929565799
 20
129.9930453752
 30
0.0
 10
39.6650897614
 20
130.1619362628
 30
0.0
 10
39.8961735345
 20
130.2575333274
 30
0.0
 10
40.0739415315
 20
130.3090372479
 30
0.0
 10
40.2552222234
 20
130.3401388067
 30
0.0
 10
40.3773936085
 20
130.3470782645
 30
0.0
 10
40.4383258979
 20
130.3470782645
 30
0.0
  0
SPLINE
  5
37D
100
AcDbEntity
  8
94177300000_BL0
100
AcDbSpline
 62
7
  6
CONTINUOUS
 70
0
 71
3
 72
19
 73
15
 74
0
 42
0.0000001
 43
0.0000001
 44
0.0000000001
 40
0.0
 40
0.0
 40
0.0
 40
0.0
 40
0.1335559825
 40
0.2658569771
 40
0.3312485607
 40
0.3959382851
 40
0.4598391434
 40
0.5228917376
 40
0.6462170404
 40
0.7662314183
 40
0.8252887146
 40
0.883827274
 40
0.9420058309
 40
1.0
 40
1.0
 40
1.0
 40
1.0
 10
38.5763712798
 20
128.1970782645
 30
0.0
 10
38.5763712798
 20
128.0567560235
 30
0.0
 10
38.6000907802
 20
127.7768828089
 30
0.0
 10
38.6886212063
 20
127.4384049097
 30
0.0
 10
38.7931244555
 20
127.1829614838
 30
0.0
 10
38.8870540487
 20
127.0017643913
 30
0.0
 10
38.9959361366
 20
126.8320268402
 30
0.0
 10
39.1583456498
 20
126.6248092531
 30
0.0
 10
39.3929565799
 20
126.4011111538
 30
0.0
 10
39.6650897614
 20
126.2322202663
 30
0.0
 10
39.8961735345
 20
126.1366232016
 30
0.0
 10
40.0739415315
 20
126.0851192811
 30
0.0
 10
40.2552222234
 20
126.0540177223
 30
0.0
 10
40.3773936085
 20
126.0470782645
 30
0.0
 10
40.4383258979
 20
126.0470782645
 30
0.0
  0
SPLINE
  5
37E
100
AcDbEntity
  8
94177300000_BL0
100
AcDbSpline
 62
7
  6
CONTINUOUS
 70
0
 71
3
 72
20
 73
16
 74
0
 42
0.0000001
 43
0.0000001
 44
0.0000000001
 40
0.0
 40
0.0
 40
0.0
 40
0.0
 40
0.0579027927
 40
0.1162348781
 40
0.175103794
 40
0.2345985038
 40
0.2947869686
 40
0.3557146435
 40
0.4174038526
 40
0.4798539549
 40
0.606820473
 40
0.7363056414
 40
0.8018342687
 40
0.8677185134
 40
1.0
 40
1.0
 40
1.0
 40
1.0
 10
42.1243200405
 20
132.2707800264
 30
0.0
 10
42.2259217246
 20
132.2479675015
 30
0.0
 10
42.427753565
 20
132.1920702344
 30
0.0
 10
42.722080288
 20
132.0788108835
 30
0.0
 10
43.0068433664
 20
131.9367156633
 30
0.0
 10
43.2798886222
 20
131.7668679753
 30
0.0
 10
43.5392052762
 20
131.5705430853
 30
0.0
 10
43.7828717725
 20
131.3492197134
 30
0.0
 10
44.0091035857
 20
131.1045316087
 30
0.0
 10
44.2867001075
 20
130.7477663226
 30
0.0
 10
44.5810754497
 20
130.2524041171
 30
0.0
 10
44.7953759958
 20
129.7118361829
 30
0.0
 10
44.9174136367
 20
129.2583708681
 30
0.0
 10
45.0057152174
 20
128.7921090938
 30
0.0
 10
45.0323313236
 20
128.4349706622
 30
0.0
 10
45.0323313236
 20
128.1970782645
 30
0.0
  0
SPLINE
  5
37F
100
AcDbEntity
  8
94177300000_BL0
100
AcDbSpline
 62
7
  6
CONTINUOUS
 70
0
 71
3
 72
19
 73
15
 74
0
 42
0.0000001
 43
0.0000001
 44
0.0000000001
 40
0.0
 40
0.0
 40
0.0
 40
0.0
 40
0.0579941691
 40
0.116172726
 40
0.1747112854
 40
0.2337685817
 40
0.3537829596
 40
0.4771082624
 40
0.5401608566
 40
0.6040617149
 40
0.6687514393
 40
0.7341430229
 40
0.8664440175
 40
1.0
 40
1.0
 40
1.0
 40
1.0
 10
40.4383258979
 20
130.3470782645
 30
0.0
 10
40.4992581873
 20
130.3470782645
 30
0.0
 10
40.6214295724
 20
130.3401388067
 30
0.0
 10
40.8027102643
 20
130.3090372479
 30
0.0
 10
40.9804782613
 20
130.2575333274
 30
0.0
 10
41.2115620344
 20
130.1619362628
 30
0.0
 10
41.4836952159
 20
129.9930453752
 30
0.0
 10
41.718306146
 20
129.769347276
 30
0.0
 10
41.8807156592
 20
129.5621296888
 30
0.0
 10
41.9895977472
 20
129.3923921377
 30
0.0
 10
42.0835273403
 20
129.2111950452
 30
0.0
 10
42.1880305896
 20
128.9557516193
 30
0.0
 10
42.2765610156
 20
128.6172737201
 30
0.0
 10
42.300280516
 20
128.3374005055
 30
0.0
 10
42.300280516
 20
128.1970782645
 30
0.0
  0
SPLINE
  5
380
100
AcDbEntity
  8
94177300000_BL0
100
AcDbSpline
 62
7
  6
CONTINUOUS
 70
0
 71
3
 72
20
 73
16
 74
0
 42
0.0000001
 43
0.0000001
 44
0.0000000001
 40
0.0
 40
0.0
 40
0.0
 40
0.0
 40
0.057902793
 40
0.116234879
 40
0.1751037957
 40
0.2345985064
 40
0.2947869721
 40
0.3557146477
 40
0.4174038574
 40
0.4798539602
 40
0.6068204783
 40
0.7363056456
 40
0.801834272
 40
0.8677185157
 40
1.0
 40
1.0
 40
1.0
 40
1.0
 10
42.1243212091
 20
124.123376765
 30
0.0
 10
42.2259228625
 20
124.1461893233
 30
0.0
 10
42.4277546393
 20
124.2020866519
 30
0.0
 10
42.7220812617
 20
124.3153460775
 30
0.0
 10
43.0068442369
 20
124.4574413553
 30
0.0
 10
43.2798893887
 20
124.6272890839
 30
0.0
 10
43.5392059396
 20
124.8236139977
 30
0.0
 10
43.7828723355
 20
125.0449373773
 30
0.0
 10
44.0091040526
 20
125.2896254742
 30
0.0
 10
44.2867004528
 20
125.6463907302
 30
0.0
 10
44.5810756613
 20
126.1417528635
 30
0.0
 10
44.7953761082
 20
126.6823206935
 30
0.0
 10
44.9174136916
 20
127.1357859104
 30
0.0
 10
45.0057152302
 20
127.6020475777
 30
0.0
 10
45.0323313236
 20
127.9591859237
 30
0.0
 10
45.0323313236
 20
128.1970782645
 30
0.0
  0
SPLINE
  5
381
100
AcDbEntity
  8
94177300000_BL0
100
AcDbSpline
 62
7
  6
CONTINUOUS
 70
0
 71
3
 72
19
 73
15
 74
0
 42
0.0000001
 43
0.0000001
 44
0.0000000001
 40
0.0
 40
0.0
 40
0.0
 40
0.0
 40
0.0579941691
 40
0.116172726
 40
0.1747112854
 40
0.2337685817
 40
0.3537829596
 40
0.4771082624
 40
0.5401608566
 40
0.6040617149
 40
0.6687514393
 40
0.7341430229
 40
0.8664440175
 40
1.0
 40
1.0
 40
1.0
 40
1.0
 10
40.4383258979
 20
126.0470782645
 30
0.0
 10
40.4992581873
 20
126.0470782645
 30
0.0
 10
40.6214295724
 20
126.0540177223
 30
0.0
 10
40.8027102643
 20
126.0851192811
 30
0.0
 10
40.9804782613
 20
126.1366232016
 30
0.0
 10
41.2115620344
 20
126.2322202663
 30
0.0
 10
41.4836952159
 20
126.4011111538
 30
0.0
 10
41.718306146
 20
126.6248092531
 30
0.0
 10
41.8807156592
 20
126.8320268402
 30
0.0
 10
41.9895977472
 20
127.0017643913
 30
0.0
 10
42.0835273403
 20
127.1829614838
 30
0.0
 10
42.1880305896
 20
127.4384049097
 30
0.0
 10
42.2765610156
 20
127.7768828089
 30
0.0
 10
42.300280516
 20
128.0567560235
 30
0.0
 10
42.300280516
 20
128.1970782645
 30
0.0
  0
SPLINE
  5
382
100
AcDbEntity
  8
94177300000_BL0
100
AcDbSpline
 62
7
  6
CONTINUOUS
 70
0
 71
3
 72
19
 73
15
 74
0
 42
0.0000001
 43
0.0000001
 44
0.0000000001
 40
0.0
 40
0.0
 40
0.0
 40
0.0
 40
0.0579941691
 40
0.116172726
 40
0.1747112854
 40
0.2337685817
 40
0.3537829596
 40
0.4771082624
 40
0.5401608566
 40
0.6040617149
 40
0.6687514393
 40
0.7341430229
 40
0.8664440175
 40
1.0
 40
1.0
 40
1.0
 40
1.0
 10
40.4383258979
 20
195.0470782645
 30
0.0
 10
40.4992581873
 20
195.0470782645
 30
0.0
 10
40.6214295724
 20
195.0540177223
 30
0.0
 10
40.8027102643
 20
195.0851192811
 30
0.0
 10
40.9804782613
 20
195.1366232016
 30
0.0
 10
41.2115620344
 20
195.2322202663
 30
0.0
 10
41.4836952159
 20
195.4011111538
 30
0.0
 10
41.718306146
 20
195.6248092531
 30
0.0
 10
41.8807156592
 20
195.8320268402
 30
0.0
 10
41.9895977472
 20
196.0017643913
 30
0.0
 10
42.0835273403
 20
196.1829614838
 30
0.0
 10
42.1880305896
 20
196.4384049097
 30
0.0
 10
42.2765610156
 20
196.7768828089
 30
0.0
 10
42.300280516
 20
197.0567560235
 30
0.0
 10
42.300280516
 20
197.1970782645
 30
0.0
  0
SPLINE
  5
383
100
AcDbEntity
  8
94177300000_BL0
100
AcDbSpline
 62
7
  6
CONTINUOUS
 70
0
 71
3
 72
20
 73
16
 74
0
 42
0.0000001
 43
0.0000001
 44
0.0000000001
 40
0.0
 40
0.0
 40
0.0
 40
0.0
 40
0.057902793
 40
0.116234879
 40
0.1751037957
 40
0.2345985064
 40
0.2947869721
 40
0.3557146477
 40
0.4174038574
 40
0.4798539602
 40
0.6068204783
 40
0.7363056456
 40
0.801834272
 40
0.8677185157
 40
1.0
 40
1.0
 40
1.0
 40
1.0
 10
42.1243212091
 20
201.270779764
 30
0.0
 10
42.2259228625
 20
201.2479672057
 30
0.0
 10
42.4277546393
 20
201.1920698771
 30
0.0
 10
42.7220812617
 20
201.0788104515
 30
0.0
 10
43.0068442369
 20
200.9367151737
 30
0.0
 10
43.2798893887
 20
200.7668674452
 30
0.0
 10
43.5392059396
 20
200.5705425313
 30
0.0
 10
43.7828723355
 20
200.3492191518
 30
0.0
 10
44.0091040526
 20
200.1045310548
 30
0.0
 10
44.2867004528
 20
199.7477657989
 30
0.0
 10
44.5810756613
 20
199.2524036655
 30
0.0
 10
44.7953761082
 20
198.7118358355
 30
0.0
 10
44.9174136916
 20
198.2583706186
 30
0.0
 10
45.0057152302
 20
197.7921089513
 30
0.0
 10
45.0323313236
 20
197.4349706053
 30
0.0
 10
45.0323313236
 20
197.1970782645
 30
0.0
  0
SPLINE
  5
384
100
AcDbEntity
  8
94177300000_BL0
100
AcDbSpline
 62
7
  6
CONTINUOUS
 70
0
 71
3
 72
19
 73
15
 74
0
 42
0.0000001
 43
0.0000001
 44
0.0000000001
 40
0.0
 40
0.0
 40
0.0
 40
0.0
 40
0.0579941691
 40
0.116172726
 40
0.1747112854
 40
0.2337685817
 40
0.3537829596
 40
0.4771082624
 40
0.5401608566
 40
0.6040617149
 40
0.6687514393
 40
0.7341430229
 40
0.8664440175
 40
1.0
 40
1.0
 40
1.0
 40
1.0
 10
40.4383258979
 20
199.3470782645
 30
0.0
 10
40.4992581873
 20
199.3470782645
 30
0.0
 10
40.6214295724
 20
199.3401388067
 30
0.0
 10
40.8027102643
 20
199.3090372479
 30
0.0
 10
40.9804782613
 20
199.2575333274
 30
0.0
 10
41.2115620344
 20
199.1619362628
 30
0.0
 10
41.4836952159
 20
198.9930453752
 30
0.0
 10
41.718306146
 20
198.769347276
 30
0.0
 10
41.8807156592
 20
198.5621296888
 30
0.0
 10
41.9895977472
 20
198.3923921377
 30
0.0
 10
42.0835273403
 20
198.2111950452
 30
0.0
 10
42.1880305896
 20
197.9557516193
 30
0.0
 10
42.2765610156
 20
197.6172737201
 30
0.0
 10
42.300280516
 20
197.3374005055
 30
0.0
 10
42.300280516
 20
197.1970782645
 30
0.0
  0
SPLINE
  5
385
100
AcDbEntity
  8
94177300000_BL0
100
AcDbSpline
 62
7
  6
CONTINUOUS
 70
0
 71
3
 72
20
 73
16
 74
0
 42
0.0000001
 43
0.0000001
 44
0.0000000001
 40
0.0
 40
0.0
 40
0.0
 40
0.0
 40
0.0579027927
 40
0.1162348781
 40
0.175103794
 40
0.2345985038
 40
0.2947869686
 40
0.3557146435
 40
0.4174038526
 40
0.4798539549
 40
0.606820473
 40
0.7363056414
 40
0.8018342687
 40
0.8677185134
 40
1.0
 40
1.0
 40
1.0
 40
1.0
 10
42.1243200405
 20
193.1233765026
 30
0.0
 10
42.2259217246
 20
193.1461890275
 30
0.0
 10
42.427753565
 20
193.2020862946
 30
0.0
 10
42.722080288
 20
193.3153456455
 30
0.0
 10
43.0068433664
 20
193.4574408658
 30
0.0
 10
43.2798886222
 20
193.6272885538
 30
0.0
 10
43.5392052762
 20
193.8236134437
 30
0.0
 10
43.7828717725
 20
194.0449368156
 30
0.0
 10
44.0091035857
 20
194.2896249203
 30
0.0
 10
44.2867001075
 20
194.6463902065
 30
0.0
 10
44.5810754497
 20
195.1417524119
 30
0.0
 10
44.7953759958
 20
195.6823203461
 30
0.0
 10
44.9174136367
 20
196.135785661
 30
0.0
 10
45.0057152174
 20
196.6020474352
 30
0.0
 10
45.0323313236
 20
196.9591858668
 30
0.0
 10
45.0323313236
 20
197.1970782645
 30
0.0
  0
SPLINE
  5
386
100
AcDbEntity
  8
94177300000_BL0
100
AcDbSpline
 62
7
  6
CONTINUOUS
 70
0
 71
3
 72
13
 73
9
 74
0
 42
0.0000001
 43
0.0000001
 44
0.0000000001
 40
0.0
 40
0.0
 40
0.0
 40
0.0
 40
0.1190295519
 40
0.2374086264
 40
0.358002453
 40
0.4816187896
 40
0.7370487896
 40
1.0
 40
1.0
 40
1.0
 40
1.0
 10
96.9328865878
 20
134.3470782645
 30
0.0
 10
96.9262701462
 20
134.3392815341
 30
0.0
 10
96.910164751
 20
134.326105807
 30
0.0
 10
96.8819274004
 20
134.3134351292
 30
0.0
 10
96.8516711785
 20
134.3056252947
 30
0.0
 10
96.809134358
 20
134.2995098143
 30
0.0
 10
96.7539455187
 20
134.2971934173
 30
0.0
 10
96.7094244474
 20
134.2971069072
 30
0.0
 10
96.686834457
 20
134.2970847586
 30
0.0
  0
LINE
  5
387
100
AcDbEntity
  8
94177300000_BL0
100
AcDbLine
 62
7
  6
CONTINUOUS
 10
96.686834457
 20
134.2970847586
 11
96.6516348493
 21
134.2970782645
  0
SPLINE
  5
388
100
AcDbEntity
  8
94177300000_BL0
100
AcDbSpline
 62
7
  6
CONTINUOUS
 70
0
 71
3
 72
13
 73
9
 74
0
 42
0.0000001
 43
0.0000001
 44
0.0000000001
 40
0.0
 40
0.0
 40
0.0
 40
0.0
 40
0.2628653232
 40
0.5194048346
 40
0.6435058752
 40
0.7642010012
 40
0.8820302371
 40
1.0
 40
1.0
 40
1.0
 40
1.0
 10
99.1516348493
 20
134.2970782645
 30
0.0
 10
99.1772968098
 20
134.2970782645
 30
0.0
 10
99.2279894509
 20
134.29697721
 30
0.0
 10
99.2908602812
 20
134.2982039126
 30
0.0
 10
99.339570698
 20
134.3034146055
 30
0.0
 10
99.3742962236
 20
134.3108201644
 30
0.0
 10
99.4068349569
 20
134.3237912475
 30
0.0
 10
99.4254348796
 20
134.3382972665
 30
0.0
 10
99.4328865878
 20
134.3470782645
 30
0.0
  0
SPLINE
  5
389
100
AcDbEntity
  8
94177300000_BL0
100
AcDbSpline
 62
7
  6
CONTINUOUS
 70
0
 71
3
 72
37
 73
33
 74
0
 42
0.0000001
 43
0.0000001
 44
0.0000000001
 40
0.0
 40
0.0
 40
0.0
 40
0.0
 40
0.0065629977
 40
0.0141189152
 40
0.0226815746
 40
0.0322279008
 40
0.0540775666
 40
0.0792322201
 40
0.1072316333
 40
0.1376621352
 40
0.1701718849
 40
0.2044687326
 40
0.2774952846
 40
0.35527162
 40
0.4366859281
 40
0.5206814281
 40
0.6058648531
 40
0.6899935654
 40
0.7696080577
 40
0.8064213177
 40
0.8405364359
 40
0.871543218
 40
0.8991576618
 40
0.9232387576
 40
0.9438018681
 40
0.9610542637
 40
0.9685902353
 40
0.9755115145
 40
0.9819443178
 40
0.9880460004
 40
0.9940002351
 40
1.0
 40
1.0
 40
1.0
 40
1.0
 10
35.2155601902
 20
89.6329806712
 30
0.0
 10
35.2216456097
 20
89.6224404154
 30
0.0
 10
35.2368604631
 20
89.6009853572
 30
0.0
 10
35.2652815076
 20
89.5698926289
 30
0.0
 10
35.3004800357
 20
89.5377781653
 30
0.0
 10
35.3585765706
 20
89.4917114126
 30
0.0
 10
35.4459852629
 20
89.4334787306
 30
0.0
 10
35.5668808959
 20
89.3645674723
 30
0.0
 10
35.7054417572
 20
89.2949530599
 30
0.0
 10
35.8592266538
 20
89.2256381363
 30
0.0
 10
36.0262295635
 20
89.1575238453
 30
0.0
 10
36.2694612942
 20
89.067512334
 30
0.0
 10
36.5968617304
 20
88.9636062466
 30
0.0
 10
37.0147329779
 20
88.8584042595
 30
0.0
 10
37.4587473191
 20
88.777338882
 30
0.0
 10
37.9214181859
 20
88.7286121894
 30
0.0
 10
38.3918663772
 20
88.7212281282
 30
0.0
 10
38.8525762107
 20
88.7629004021
 30
0.0
 10
39.2172565086
 20
88.8421599082
 30
0.0
 10
39.4821164212
 20
88.9311537637
 30
0.0
 10
39.6563087288
 20
89.0051118221
 30
0.0
 10
39.8086263266
 20
89.0854328495
 30
0.0
 10
39.937272101
 20
89.169382026
 30
0.0
 10
40.0412751156
 20
89.2543822318
 30
0.0
 10
40.1202670584
 20
89.3381479894
 30
0.0
 10
40.1673732038
 20
89.4085817505
 30
0.0
 10
40.1909324003
 20
89.462621575
 30
0.0
 10
40.2015256523
 20
89.5000272994
 30
0.0
 10
40.2058620907
 20
89.536012331
 30
0.0
 10
40.2039279646
 20
89.5704397283
 30
0.0
 10
40.1957526582
 20
89.6031122466
 30
0.0
 10
40.1863356774
 20
89.6233449743
 30
0.0
 10
40.1807725052
 20
89.6329806712
 30
0.0
  0
SPLINE
  5
38A
100
AcDbEntity
  8
94177300000_BL0
100
AcDbSpline
 62
7
  6
CONTINUOUS
 70
0
 71
3
 72
19
 73
15
 74
0
 42
0.0000001
 43
0.0000001
 44
0.0000000001
 40
0.0
 40
0.0
 40
0.0
 40
0.0
 40
0.0290510725
 40
0.0612031053
 40
0.0975140427
 40
0.1386268921
 40
0.1848791214
 40
0.2363974886
 40
0.2931610726
 40
0.3550426432
 40
0.4932619508
 40
0.648784089
 40
0.8187431531
 40
1.0
 40
1.0
 40
1.0
 40
1.0
 10
40.1807725052
 20
89.6329806712
 30
0.0
 10
40.1721692533
 20
89.6478819407
 30
0.0
 10
40.1496891809
 20
89.6768587701
 30
0.0
 10
40.1049497954
 20
89.7138969168
 30
0.0
 10
40.0485449932
 20
89.746470098
 30
0.0
 10
39.9808476144
 20
89.7748231083
 30
0.0
 10
39.9021888113
 20
89.7992137854
 30
0.0
 10
39.8129586492
 20
89.8198691813
 30
0.0
 10
39.7136070128
 20
89.8370489432
 30
0.0
 10
39.5626678449
 20
89.8563917829
 30
0.0
 10
39.3525252022
 20
89.872341627
 30
0.0
 10
39.0780401747
 20
89.8824004549
 30
0.0
 10
38.7779193999
 20
89.8865587287
 30
0.0
 10
38.5698991526
 20
89.8870139788
 30
0.0
 10
38.4625435071
 20
89.8870139788
 30
0.0
  0
SPLINE
  5
38B
100
AcDbEntity
  8
94177300000_BL0
100
AcDbSpline
 62
7
  6
CONTINUOUS
 70
0
 71
3
 72
26
 73
22
 74
0
 42
0.0000001
 43
0.0000001
 44
0.0000000001
 40
0.0
 40
0.0
 40
0.0
 40
0.0
 40
0.1984386419
 40
0.3842360202
 40
0.4709343459
 40
0.5525920988
 40
0.6284526884
 40
0.6977194436
 40
0.7595996975
 40
0.8133876623
 40
0.8586064827
 40
0.8779907414
 40
0.8952980015
 40
0.9106818213
 40
0.9243999133
 40
0.9368461988
 40
0.948555706
 40
0.9601596935
 40
0.9722833912
 40
0.9854437032
 40
1.0
 40
1.0
 40
1.0
 40
1.0
 10
36.6404567913
 20
89.8870139788
 30
0.0
 10
36.5368872209
 20
89.8870139788
 30
0.0
 10
36.3363460355
 20
89.8865863485
 30
0.0
 10
36.090562077
 20
89.8833382719
 30
0.0
 10
35.9058036421
 20
89.877634577
 30
0.0
 10
35.7784756796
 20
89.871630294
 30
0.0
 10
35.6603822453
 20
89.8634275321
 30
0.0
 10
35.5528599484
 20
89.852632498
 30
0.0
 10
35.457276152
 20
89.8388737115
 30
0.0
 10
35.3750022914
 20
89.8218015575
 30
0.0
 10
35.3157185482
 20
89.803790095
 30
0.0
 10
35.2764368298
 20
89.7867997091
 30
0.0
 10
35.2525699091
 20
89.7736918942
 30
0.0
 10
35.2328241086
 20
89.7595365525
 30
0.0
 10
35.2172701272
 20
89.7442729101
 30
0.0
 10
35.206001398
 20
89.7278513246
 30
0.0
 10
35.1991646643
 20
89.7102893336
 30
0.0
 10
35.1968472812
 20
89.6917558856
 30
0.0
 10
35.1989495546
 20
89.6724663519
 30
0.0
 10
35.2052540567
 20
89.6525407281
 30
0.0
 10
35.2117615616
 20
89.639560089
 30
0.0
 10
35.2155601902
 20
89.6329806712
 30
0.0
  0
ELLIPSE
  5
38C
100
AcDbEntity
  8
94177300000_BL0
100
AcDbEllipse
 62
7
  6
CONTINUOUS
 10
43.0363277065
 20
128.1970782645
 30
0.0
 11
4.7920072343
 21
0.0
 31
0.0
 40
0.8660254038
 41
0.0
 42
6.2831853072
  0
ELLIPSE
  5
38D
100
AcDbEntity
  8
94177300000_BL0
100
AcDbEllipse
 62
7
  6
CONTINUOUS
 10
43.0363277065
 20
197.1970782645
 30
0.0
 11
4.7920072343
 21
0.0
 31
0.0
 40
0.8660254038
 41
0.0
 42
6.2831853072
  0
ELLIPSE
  5
38E
100
AcDbEntity
  8
94177300000_BL0
100
AcDbEllipse
 62
7
  6
CONTINUOUS
 10
99.1516348493
 20
135.0631036683
 30
0.0
 11
-0.0
 21
0.8660254038
 31
0.0
 40
0.5773502692
 41
-2.5441820317
 42
-1.7448793374
  0
ELLIPSE
  5
38F
100
AcDbEntity
  8
94177300000_BL0
100
AcDbEllipse
 62
7
  6
CONTINUOUS
 10
96.6516348493
 20
135.0631036683
 30
0.0
 11
-0.0
 21
0.8660254038
 31
0.0
 40
0.5773502692
 41
-2.5441820317
 42
-1.7448793374
  0
ENDBLK
  5
390
100
AcDbEntity
  8
0
  6
BYBLOCK
 62
0
100
AcDbBlockEnd
  0
BLOCK
  5
391
100
AcDbEntity
  8
94177400000_BL1
100
AcDbBlockBegin
  2
94177400000_BL1
 70
64
 10
65.0939812779
 20
162.6970782645
  3
94177400000_BL1
  1

  0
LINE
  5
392
100
AcDbEntity
  8
94177400000_BL1
100
AcDbLine
 62
7
  6
CONTINUOUS
 10
49.0363277065
 20
135.2631036683
 11
48.5363277065
 21
135.2631036683
  0
LINE
  5
393
100
AcDbEntity
  8
94177400000_BL1
100
AcDbLine
 62
7
  6
CONTINUOUS
 10
31.0363277065
 20
135.2631036683
 11
31.5363277065
 21
135.2631036683
  0
LINE
  5
394
100
AcDbEntity
  8
94177400000_BL1
100
AcDbLine
 62
7
  6
CONTINUOUS
 10
41.1363277065
 20
135.6970782645
 11
38.9363277065
 21
135.6970782645
  0
LINE
  5
395
100
AcDbEntity
  8
94177400000_BL1
100
AcDbLine
 62
7
  6
CONTINUOUS
 10
34.0363277065
 20
136.6970782645
 11
33.0363277065
 21
136.6970782645
  0
LINE
  5
396
100
AcDbEntity
  8
94177400000_BL1
100
AcDbLine
 62
7
  6
CONTINUOUS
 10
31.166231517
 20
190.3560528607
 11
31.4064238959
 21
190.7720782645
  0
LINE
  5
397
100
AcDbEntity
  8
94177400000_BL1
100
AcDbLine
 62
7
  6
CONTINUOUS
 10
32.166231517
 20
190.3560528607
 11
32.4064238959
 21
190.7720782645
  0
LINE
  5
398
100
AcDbEntity
  8
94177400000_BL1
100
AcDbLine
 62
7
  6
CONTINUOUS
 10
31.0363277065
 20
184.6970782645
 11
33.0363277065
 21
186.6970782645
  0
LINE
  5
399
100
AcDbEntity
  8
94177400000_BL1
100
AcDbLine
 62
7
  6
CONTINUOUS
 10
38.9363277065
 20
141.6970782645
 11
41.1363277065
 21
141.6970782645
  0
LINE
  5
39A
100
AcDbEntity
  8
94177400000_BL1
100
AcDbLine
 62
7
  6
CONTINUOUS
 10
49.0363277065
 20
142.6970782645
 11
48.2363277065
 21
142.6970782645
  0
LINE
  5
39B
100
AcDbEntity
  8
94177400000_BL1
100
AcDbLine
 62
7
  6
CONTINUOUS
 10
31.8363277065
 20
142.6970782645
 11
31.0363277065
 21
142.6970782645
  0
LINE
  5
39C
100
AcDbEntity
  8
94177400000_BL1
100
AcDbLine
 62
7
  6
CONTINUOUS
 10
36.3363199887
 20
142.6970782645
 11
43.7363277064
 21
142.6970782645
  0
LINE
  5
39D
100
AcDbEntity
  8
94177400000_BL1
100
AcDbLine
 62
7
  6
CONTINUOUS
 10
31.5363277065
 20
135.2631036683
 11
31.9064238959
 21
134.6220782645
  0
LINE
  5
39E
100
AcDbEntity
  8
94177400000_BL1
100
AcDbLine
 62
7
  6
CONTINUOUS
 10
32.9064238959
 20
134.6220782645
 11
32.666231517
 21
135.0381036683
  0
LINE
  5
39F
100
AcDbEntity
  8
94177400000_BL1
100
AcDbLine
 62
7
  6
CONTINUOUS
 10
33.166231517
 20
190.3560528607
 11
33.4064238959
 21
190.7720782645
  0
LINE
  5
3A0
100
AcDbEntity
  8
94177400000_BL1
100
AcDbLine
 62
7
  6
CONTINUOUS
 10
34.166231517
 20
190.3560528607
 11
34.4064238959
 21
190.7720782645
  0
LINE
  5
3A1
100
AcDbEntity
  8
94177400000_BL1
100
AcDbLine
 62
7
  6
CONTINUOUS
 10
35.166231517
 20
190.3560528607
 11
35.4064238959
 21
190.7720782645
  0
LINE
  5
3A2
100
AcDbEntity
  8
94177400000_BL1
100
AcDbLine
 62
7
  6
CONTINUOUS
 10
36.166231517
 20
190.3560528607
 11
36.4064238959
 21
190.7720782645
  0
LINE
  5
3A3
100
AcDbEntity
  8
94177400000_BL1
100
AcDbLine
 62
9
  6
CONTINUOUS
 10
46.5363277065
 20
145.4970782645
 11
45.7363277065
 21
145.4970782645
  0
LINE
  5
3A4
100
AcDbEntity
  8
94177400000_BL1
100
AcDbLine
 62
9
  6
CONTINUOUS
 10
33.5363277065
 20
145.4970782645
 11
34.3363277065
 21
145.4970782645
  0
LINE
  5
3A5
100
AcDbEntity
  8
94177400000_BL1
100
AcDbLine
 62
7
  6
CONTINUOUS
 10
33.9064238959
 20
134.6220782645
 11
33.666231517
 21
135.0381036683
  0
LINE
  5
3A6
100
AcDbEntity
  8
94177400000_BL1
100
AcDbLine
 62
7
  6
CONTINUOUS
 10
34.9064238959
 20
134.6220782645
 11
34.666231517
 21
135.0381036683
  0
LINE
  5
3A7
100
AcDbEntity
  8
94177400000_BL1
100
AcDbLine
 62
7
  6
CONTINUOUS
 10
35.9064238959
 20
134.6220782645
 11
35.666231517
 21
135.0381036683
  0
LINE
  5
3A8
100
AcDbEntity
  8
94177400000_BL1
100
AcDbLine
 62
7
  6
CONTINUOUS
 10
37.166231517
 20
190.3560528607
 11
37.4064238959
 21
190.7720782645
  0
LINE
  5
3A9
100
AcDbEntity
  8
94177400000_BL1
100
AcDbLine
 62
7
  6
CONTINUOUS
 10
38.166231517
 20
190.3560528607
 11
38.4064238959
 21
190.7720782645
  0
LINE
  5
3AA
100
AcDbEntity
  8
94177400000_BL1
100
AcDbLine
 62
7
  6
CONTINUOUS
 10
39.166231517
 20
190.3560528607
 11
39.4064238959
 21
190.7720782645
  0
LINE
  5
3AB
100
AcDbEntity
  8
94177400000_BL1
100
AcDbLine
 62
7
  6
CONTINUOUS
 10
36.9064238959
 20
134.6220782645
 11
36.666231517
 21
135.0381036683
  0
LINE
  5
3AC
100
AcDbEntity
  8
94177400000_BL1
100
AcDbLine
 62
7
  6
CONTINUOUS
 10
37.9064238959
 20
134.6220782645
 11
37.666231517
 21
135.0381036683
  0
LINE
  5
3AD
100
AcDbEntity
  8
94177400000_BL1
100
AcDbLine
 62
7
  6
CONTINUOUS
 10
38.9064238959
 20
134.6220782645
 11
38.666231517
 21
135.0381036683
  0
LINE
  5
3AE
100
AcDbEntity
  8
94177400000_BL1
100
AcDbLine
 62
7
  6
CONTINUOUS
 10
40.166231517
 20
190.3560528607
 11
40.4064238959
 21
190.7720782645
  0
LINE
  5
3AF
100
AcDbEntity
  8
94177400000_BL1
100
AcDbLine
 62
7
  6
CONTINUOUS
 10
41.166231517
 20
190.3560528607
 11
41.4064238959
 21
190.7720782645
  0
LINE
  5
3B0
100
AcDbEntity
  8
94177400000_BL1
100
AcDbLine
 62
7
  6
CONTINUOUS
 10
42.166231517
 20
190.3560528607
 11
42.4064238959
 21
190.7720782645
  0
LINE
  5
3B1
100
AcDbEntity
  8
94177400000_BL1
100
AcDbLine
 62
7
  6
CONTINUOUS
 10
39.9064238959
 20
134.6220782645
 11
39.666231517
 21
135.0381036683
  0
LINE
  5
3B2
100
AcDbEntity
  8
94177400000_BL1
100
AcDbLine
 62
7
  6
CONTINUOUS
 10
40.9064238959
 20
134.6220782645
 11
40.666231517
 21
135.0381036683
  0
LINE
  5
3B3
100
AcDbEntity
  8
94177400000_BL1
100
AcDbLine
 62
7
  6
CONTINUOUS
 10
41.9064238959
 20
134.6220782645
 11
41.666231517
 21
135.0381036683
  0
LINE
  5
3B4
100
AcDbEntity
  8
94177400000_BL1
100
AcDbLine
 62
7
  6
CONTINUOUS
 10
42.9064238959
 20
134.6220782645
 11
42.666231517
 21
135.0381036683
  0
LINE
  5
3B5
100
AcDbEntity
  8
94177400000_BL1
100
AcDbLine
 62
7
  6
CONTINUOUS
 10
31.0363277065
 20
190.2810528607
 11
31.0363277065
 21
188.6970782645
  0
LINE
  5
3B6
100
AcDbEntity
  8
94177400000_BL1
100
AcDbLine
 62
7
  6
CONTINUOUS
 10
31.0363277065
 20
135.2631036683
 11
31.0363277065
 21
184.6970782645
  0
LINE
  5
3B7
100
AcDbEntity
  8
94177400000_BL1
100
AcDbLine
 62
7
  6
CONTINUOUS
 10
43.4064238959
 20
190.7720782645
 11
43.166231517
 21
190.3560528607
  0
LINE
  5
3B8
100
AcDbEntity
  8
94177400000_BL1
100
AcDbLine
 62
7
  6
CONTINUOUS
 10
44.4064238959
 20
190.7720782645
 11
44.166231517
 21
190.3560528607
  0
LINE
  5
3B9
100
AcDbEntity
  8
94177400000_BL1
100
AcDbLine
 62
7
  6
CONTINUOUS
 10
45.4064238959
 20
190.7720782645
 11
45.166231517
 21
190.3560528607
  0
LINE
  5
3BA
100
AcDbEntity
  8
94177400000_BL1
100
AcDbLine
 62
7
  6
CONTINUOUS
 10
46.166231517
 20
190.3560528607
 11
46.4064238959
 21
190.7720782645
  0
LINE
  5
3BB
100
AcDbEntity
  8
94177400000_BL1
100
AcDbLine
 62
7
  6
CONTINUOUS
 10
43.9064238959
 20
134.6220782645
 11
43.666231517
 21
135.0381036683
  0
LINE
  5
3BC
100
AcDbEntity
  8
94177400000_BL1
100
AcDbLine
 62
7
  6
CONTINUOUS
 10
44.9064238959
 20
134.6220782645
 11
44.666231517
 21
135.0381036683
  0
LINE
  5
3BD
100
AcDbEntity
  8
94177400000_BL1
100
AcDbLine
 62
7
  6
CONTINUOUS
 10
45.9064238959
 20
134.6220782645
 11
45.666231517
 21
135.0381036683
  0
LINE
  5
3BE
100
AcDbEntity
  8
94177400000_BL1
100
AcDbLine
 62
7
  6
CONTINUOUS
 10
31.8363277065
 20
142.6970782645
 11
31.8363277065
 21
182.6970782645
  0
LINE
  5
3BF
100
AcDbEntity
  8
94177400000_BL1
100
AcDbLine
 62
7
  6
CONTINUOUS
 10
33.0363277065
 20
134.5470782645
 11
33.0363277065
 21
136.6970782645
  0
LINE
  5
3C0
100
AcDbEntity
  8
94177400000_BL1
100
AcDbLine
 62
7
  6
CONTINUOUS
 10
33.5363277065
 20
136.6970782645
 11
33.5363277065
 21
135.1131036683
  0
LINE
  5
3C1
100
AcDbEntity
  8
94177400000_BL1
100
AcDbLine
 62
7
  6
CONTINUOUS
 10
33.5363277065
 20
145.4970782645
 11
33.5363277065
 21
179.8970782645
  0
LINE
  5
3C2
100
AcDbEntity
  8
94177400000_BL1
100
AcDbLine
 62
7
  6
CONTINUOUS
 10
34.0363277065
 20
134.5470782645
 11
34.0363277065
 21
136.6970782645
  0
LINE
  5
3C3
100
AcDbEntity
  8
94177400000_BL1
100
AcDbLine
 62
7
  6
CONTINUOUS
 10
34.3363277065
 20
144.6970782645
 11
34.3363277065
 21
180.6970782645
  0
LINE
  5
3C4
100
AcDbEntity
  8
94177400000_BL1
100
AcDbLine
 62
7
  6
CONTINUOUS
 10
47.4064238959
 20
190.7720782645
 11
47.166231517
 21
190.3560528607
  0
LINE
  5
3C5
100
AcDbEntity
  8
94177400000_BL1
100
AcDbLine
 62
7
  6
CONTINUOUS
 10
48.166231517
 20
190.3560528607
 11
48.4064238959
 21
190.7720782645
  0
LINE
  5
3C6
100
AcDbEntity
  8
94177400000_BL1
100
AcDbLine
 62
7
  6
CONTINUOUS
 10
46.9064238959
 20
134.6220782645
 11
46.666231517
 21
135.0381036683
  0
LINE
  5
3C7
100
AcDbEntity
  8
94177400000_BL1
100
AcDbLine
 62
7
  6
CONTINUOUS
 10
47.9064238959
 20
134.6220782645
 11
47.666231517
 21
135.0381036683
  0
LINE
  5
3C8
100
AcDbEntity
  8
94177400000_BL1
100
AcDbLine
 62
7
  6
CONTINUOUS
 10
45.5363277065
 20
190.8470782645
 11
45.5363277065
 21
188.6970782645
  0
LINE
  5
3C9
100
AcDbEntity
  8
94177400000_BL1
100
AcDbLine
 62
7
  6
CONTINUOUS
 10
45.7363277065
 20
144.6970782645
 11
45.7363277065
 21
180.6970782645
  0
LINE
  5
3CA
100
AcDbEntity
  8
94177400000_BL1
100
AcDbLine
 62
7
  6
CONTINUOUS
 10
46.0363277065
 20
188.6970782645
 11
46.0363277065
 21
190.2810528607
  0
LINE
  5
3CB
100
AcDbEntity
  8
94177400000_BL1
100
AcDbLine
 62
7
  6
CONTINUOUS
 10
46.5363277065
 20
190.8470782645
 11
46.5363277065
 21
188.6970782645
  0
LINE
  5
3CC
100
AcDbEntity
  8
94177400000_BL1
100
AcDbLine
 62
7
  6
CONTINUOUS
 10
46.5363277065
 20
145.4970782645
 11
46.5363277065
 21
179.8970782645
  0
LINE
  5
3CD
100
AcDbEntity
  8
94177400000_BL1
100
AcDbLine
 62
7
  6
CONTINUOUS
 10
48.2363277065
 20
142.6970782645
 11
48.2363277065
 21
182.6970782645
  0
LINE
  5
3CE
100
AcDbEntity
  8
94177400000_BL1
100
AcDbLine
 62
7
  6
CONTINUOUS
 10
49.0363277065
 20
135.2631036683
 11
49.0363277065
 21
190.2810528607
  0
LINE
  5
3CF
100
AcDbEntity
  8
94177400000_BL1
100
AcDbLine
 62
7
  6
CONTINUOUS
 10
32.4064238959
 20
135.0381036683
 11
32.166231517
 21
134.6220782645
  0
LINE
  5
3D0
100
AcDbEntity
  8
94177400000_BL1
100
AcDbLine
 62
7
  6
CONTINUOUS
 10
33.4064238959
 20
135.0381036683
 11
33.166231517
 21
134.6220782645
  0
LINE
  5
3D1
100
AcDbEntity
  8
94177400000_BL1
100
AcDbLine
 62
7
  6
CONTINUOUS
 10
34.4064238959
 20
135.0381036683
 11
34.166231517
 21
134.6220782645
  0
LINE
  5
3D2
100
AcDbEntity
  8
94177400000_BL1
100
AcDbLine
 62
7
  6
CONTINUOUS
 10
31.666231517
 20
190.7720782645
 11
31.9064238959
 21
190.3560528607
  0
LINE
  5
3D3
100
AcDbEntity
  8
94177400000_BL1
100
AcDbLine
 62
7
  6
CONTINUOUS
 10
32.666231517
 20
190.7720782645
 11
32.9064238959
 21
190.3560528607
  0
LINE
  5
3D4
100
AcDbEntity
  8
94177400000_BL1
100
AcDbLine
 62
7
  6
CONTINUOUS
 10
33.666231517
 20
190.7720782645
 11
33.9064238959
 21
190.3560528607
  0
LINE
  5
3D5
100
AcDbEntity
  8
94177400000_BL1
100
AcDbLine
 62
7
  6
CONTINUOUS
 10
35.4064238959
 20
135.0381036683
 11
35.166231517
 21
134.6220782645
  0
LINE
  5
3D6
100
AcDbEntity
  8
94177400000_BL1
100
AcDbLine
 62
7
  6
CONTINUOUS
 10
36.4064238959
 20
135.0381036683
 11
36.166231517
 21
134.6220782645
  0
LINE
  5
3D7
100
AcDbEntity
  8
94177400000_BL1
100
AcDbLine
 62
7
  6
CONTINUOUS
 10
37.4064238959
 20
135.0381036683
 11
37.166231517
 21
134.6220782645
  0
LINE
  5
3D8
100
AcDbEntity
  8
94177400000_BL1
100
AcDbLine
 62
7
  6
CONTINUOUS
 10
31.0363277065
 20
188.6970782645
 11
33.0363277065
 21
186.6970782645
  0
LINE
  5
3D9
100
AcDbEntity
  8
94177400000_BL1
100
AcDbLine
 62
7
  6
CONTINUOUS
 10
34.666231517
 20
190.7720782645
 11
34.9064238959
 21
190.3560528607
  0
LINE
  5
3DA
100
AcDbEntity
  8
94177400000_BL1
100
AcDbLine
 62
7
  6
CONTINUOUS
 10
35.666231517
 20
190.7720782645
 11
35.9064238959
 21
190.3560528607
  0
LINE
  5
3DB
100
AcDbEntity
  8
94177400000_BL1
100
AcDbLine
 62
7
  6
CONTINUOUS
 10
36.666231517
 20
190.7720782645
 11
36.9064238959
 21
190.3560528607
  0
LINE
  5
3DC
100
AcDbEntity
  8
94177400000_BL1
100
AcDbLine
 62
7
  6
CONTINUOUS
 10
37.666231517
 20
190.7720782645
 11
37.9064238959
 21
190.3560528607
  0
LINE
  5
3DD
100
AcDbEntity
  8
94177400000_BL1
100
AcDbLine
 62
7
  6
CONTINUOUS
 10
38.4064238959
 20
135.0381036683
 11
38.166231517
 21
134.6220782645
  0
LINE
  5
3DE
100
AcDbEntity
  8
94177400000_BL1
100
AcDbLine
 62
7
  6
CONTINUOUS
 10
39.4064238959
 20
135.0381036683
 11
39.166231517
 21
134.6220782645
  0
LINE
  5
3DF
100
AcDbEntity
  8
94177400000_BL1
100
AcDbLine
 62
7
  6
CONTINUOUS
 10
40.4064238959
 20
135.0381036683
 11
40.166231517
 21
134.6220782645
  0
LINE
  5
3E0
100
AcDbEntity
  8
94177400000_BL1
100
AcDbLine
 62
7
  6
CONTINUOUS
 10
38.666231517
 20
190.7720782645
 11
38.9064238959
 21
190.3560528607
  0
LINE
  5
3E1
100
AcDbEntity
  8
94177400000_BL1
100
AcDbLine
 62
7
  6
CONTINUOUS
 10
39.666231517
 20
190.7720782645
 11
39.9064238959
 21
190.3560528607
  0
LINE
  5
3E2
100
AcDbEntity
  8
94177400000_BL1
100
AcDbLine
 62
7
  6
CONTINUOUS
 10
40.666231517
 20
190.7720782645
 11
40.9064238959
 21
190.3560528607
  0
LINE
  5
3E3
100
AcDbEntity
  8
94177400000_BL1
100
AcDbLine
 62
7
  6
CONTINUOUS
 10
41.4064238959
 20
135.0381036683
 11
41.166231517
 21
134.6220782645
  0
LINE
  5
3E4
100
AcDbEntity
  8
94177400000_BL1
100
AcDbLine
 62
7
  6
CONTINUOUS
 10
42.4064238959
 20
135.0381036683
 11
42.166231517
 21
134.6220782645
  0
LINE
  5
3E5
100
AcDbEntity
  8
94177400000_BL1
100
AcDbLine
 62
7
  6
CONTINUOUS
 10
43.4064238959
 20
135.0381036683
 11
43.166231517
 21
134.6220782645
  0
LINE
  5
3E6
100
AcDbEntity
  8
94177400000_BL1
100
AcDbLine
 62
7
  6
CONTINUOUS
 10
44.4064238959
 20
135.0381036683
 11
44.166231517
 21
134.6220782645
  0
LINE
  5
3E7
100
AcDbEntity
  8
94177400000_BL1
100
AcDbLine
 62
9
  6
CONTINUOUS
 10
46.5363277065
 20
179.8970782645
 11
45.7363277065
 21
179.8970782645
  0
LINE
  5
3E8
100
AcDbEntity
  8
94177400000_BL1
100
AcDbLine
 62
9
  6
CONTINUOUS
 10
33.5363277065
 20
179.8970782645
 11
34.3363277065
 21
179.8970782645
  0
LINE
  5
3E9
100
AcDbEntity
  8
94177400000_BL1
100
AcDbLine
 62
7
  6
CONTINUOUS
 10
41.666231517
 20
190.7720782645
 11
41.9064238959
 21
190.3560528607
  0
LINE
  5
3EA
100
AcDbEntity
  8
94177400000_BL1
100
AcDbLine
 62
7
  6
CONTINUOUS
 10
42.666231517
 20
190.7720782645
 11
42.9064238959
 21
190.3560528607
  0
LINE
  5
3EB
100
AcDbEntity
  8
94177400000_BL1
100
AcDbLine
 62
7
  6
CONTINUOUS
 10
43.666231517
 20
190.7720782645
 11
43.9064238959
 21
190.3560528607
  0
LINE
  5
3EC
100
AcDbEntity
  8
94177400000_BL1
100
AcDbLine
 62
7
  6
CONTINUOUS
 10
45.4064238959
 20
135.0381036683
 11
45.166231517
 21
134.6220782645
  0
LINE
  5
3ED
100
AcDbEntity
  8
94177400000_BL1
100
AcDbLine
 62
7
  6
CONTINUOUS
 10
46.4064238959
 20
135.0381036683
 11
46.166231517
 21
134.6220782645
  0
LINE
  5
3EE
100
AcDbEntity
  8
94177400000_BL1
100
AcDbLine
 62
7
  6
CONTINUOUS
 10
47.4064238959
 20
135.0381036683
 11
47.166231517
 21
134.6220782645
  0
LINE
  5
3EF
100
AcDbEntity
  8
94177400000_BL1
100
AcDbLine
 62
7
  6
CONTINUOUS
 10
49.0363277065
 20
182.6970782645
 11
48.2363277065
 21
182.6970782645
  0
LINE
  5
3F0
100
AcDbEntity
  8
94177400000_BL1
100
AcDbLine
 62
7
  6
CONTINUOUS
 10
31.8363277065
 20
182.6970782645
 11
31.0363277065
 21
182.6970782645
  0
LINE
  5
3F1
100
AcDbEntity
  8
94177400000_BL1
100
AcDbLine
 62
7
  6
CONTINUOUS
 10
36.3363199887
 20
182.6970782645
 11
43.7363277064
 21
182.6970782645
  0
LINE
  5
3F2
100
AcDbEntity
  8
94177400000_BL1
100
AcDbLine
 62
7
  6
CONTINUOUS
 10
44.666231517
 20
190.7720782645
 11
44.9064238959
 21
190.3560528607
  0
LINE
  5
3F3
100
AcDbEntity
  8
94177400000_BL1
100
AcDbLine
 62
7
  6
CONTINUOUS
 10
45.666231517
 20
190.7720782645
 11
45.9064238959
 21
190.3560528607
  0
LINE
  5
3F4
100
AcDbEntity
  8
94177400000_BL1
100
AcDbLine
 62
7
  6
CONTINUOUS
 10
46.666231517
 20
190.7720782645
 11
46.9064238959
 21
190.3560528607
  0
LINE
  5
3F5
100
AcDbEntity
  8
94177400000_BL1
100
AcDbLine
 62
7
  6
CONTINUOUS
 10
47.666231517
 20
190.7720782645
 11
47.9064238959
 21
190.3560528607
  0
LINE
  5
3F6
100
AcDbEntity
  8
94177400000_BL1
100
AcDbLine
 62
7
  6
CONTINUOUS
 10
48.166231517
 20
134.6220782645
 11
48.5363277065
 21
135.2631036683
  0
LINE
  5
3F7
100
AcDbEntity
  8
94177400000_BL1
100
AcDbLine
 62
7
  6
CONTINUOUS
 10
38.9363277065
 20
183.6970782645
 11
41.1363277065
 21
183.6970782645
  0
LINE
  5
3F8
100
AcDbEntity
  8
94177400000_BL1
100
AcDbLine
 62
7
  6
CONTINUOUS
 10
48.666231517
 20
190.7720782645
 11
48.9064238959
 21
190.3560528607
  0
LINE
  5
3F9
100
AcDbEntity
  8
94177400000_BL1
100
AcDbLine
 62
7
  6
CONTINUOUS
 10
45.5363277065
 20
188.6970782645
 11
46.5363277065
 21
188.6970782645
  0
LINE
  5
3FA
100
AcDbEntity
  8
94177400000_BL1
100
AcDbLine
 62
7
  6
CONTINUOUS
 10
41.1363277065
 20
189.6970782645
 11
38.9363277065
 21
189.6970782645
  0
LINE
  5
3FB
100
AcDbEntity
  8
94177400000_BL1
100
AcDbLine
 62
7
  6
CONTINUOUS
 10
97.1516348493
 20
135.2631036683
 11
99.1516348493
 21
135.2631036683
  0
LINE
  5
3FC
100
AcDbEntity
  8
94177400000_BL1
100
AcDbLine
 62
7
  6
CONTINUOUS
 10
98.3516348493
 20
142.6970782645
 11
99.1516348493
 21
142.6970782645
  0
LINE
  5
3FD
100
AcDbEntity
  8
94177400000_BL1
100
AcDbLine
 62
7
  6
CONTINUOUS
 10
98.3516348493
 20
142.6970782645
 11
98.3516348493
 21
182.6970782645
  0
LINE
  5
3FE
100
AcDbEntity
  8
94177400000_BL1
100
AcDbLine
 62
7
  6
CONTINUOUS
 10
99.1516348493
 20
135.2631036683
 11
99.1516348493
 21
134.9631036683
  0
LINE
  5
3FF
100
AcDbEntity
  8
94177400000_BL1
100
AcDbLine
 62
7
  6
CONTINUOUS
 10
99.1516348493
 20
135.2631036683
 11
99.1516348493
 21
190.3560528607
  0
LINE
  5
400
100
AcDbEntity
  8
94177400000_BL1
100
AcDbLine
 62
7
  6
CONTINUOUS
 10
99.1516348493
 20
190.3560528607
 11
99.1516348493
 21
190.4310528607
  0
LINE
  5
401
100
AcDbEntity
  8
94177400000_BL1
100
AcDbLine
 62
7
  6
CONTINUOUS
 10
98.3516348493
 20
182.6970782645
 11
99.1516348493
 21
182.6970782645
  0
LINE
  5
402
100
AcDbEntity
  8
94177400000_BL1
100
AcDbLine
 62
7
  6
CONTINUOUS
 10
97.1516348493
 20
184.6970782645
 11
99.1516348493
 21
184.6970782645
  0
LINE
  5
403
100
AcDbEntity
  8
94177400000_BL1
100
AcDbLine
 62
7
  6
CONTINUOUS
 10
99.1516348493
 20
186.6970782645
 11
97.1516348493
 21
186.6970782645
  0
LINE
  5
404
100
AcDbEntity
  8
94177400000_BL1
100
AcDbLine
 62
7
  6
CONTINUOUS
 10
97.1516348493
 20
188.6970782645
 11
99.1516348493
 21
188.6970782645
  0
LINE
  5
405
100
AcDbEntity
  8
94177400000_BL1
100
AcDbLine
 62
7
  6
CONTINUOUS
 10
97.1516348493
 20
190.2810528607
 11
99.1516348493
 21
190.2810528607
  0
LINE
  5
406
100
AcDbEntity
  8
94177400000_BL1
100
AcDbLine
 62
9
  6
CONTINUOUS
 10
99.1516348493
 20
190.3560528607
 11
97.1516348493
 21
190.3560528607
  0
ARC
  5
407
100
AcDbEntity
  8
94177400000_BL1
100
AcDbCircle
 62
7
  6
CONTINUOUS
 10
32.0363277065
 20
134.6970782645
 40
0.15
100
AcDbArc
 50
210.0
 51
330.0
  0
ARC
  5
408
100
AcDbEntity
  8
94177400000_BL1
100
AcDbCircle
 62
7
  6
CONTINUOUS
 10
34.5363277065
 20
134.9631036683
 40
0.15
100
AcDbArc
 50
30.0
 51
150.0
  0
ARC
  5
409
100
AcDbEntity
  8
94177400000_BL1
100
AcDbCircle
 62
7
  6
CONTINUOUS
 10
32.5363277065
 20
134.9631036683
 40
0.15
100
AcDbArc
 50
30.0
 51
150.0
  0
ARC
  5
40A
100
AcDbEntity
  8
94177400000_BL1
100
AcDbCircle
 62
7
  6
CONTINUOUS
 10
33.0363277065
 20
134.6970782645
 40
0.15
100
AcDbArc
 50
210.0
 51
330.0
  0
ARC
  5
40B
100
AcDbEntity
  8
94177400000_BL1
100
AcDbCircle
 62
7
  6
CONTINUOUS
 10
33.5363277065
 20
134.9631036683
 40
0.15
100
AcDbArc
 50
30.0
 51
150.0
  0
ARC
  5
40C
100
AcDbEntity
  8
94177400000_BL1
100
AcDbCircle
 62
7
  6
CONTINUOUS
 10
34.0363277065
 20
134.6970782645
 40
0.15
100
AcDbArc
 50
210.0
 51
330.0
  0
ARC
  5
40D
100
AcDbEntity
  8
94177400000_BL1
100
AcDbCircle
 62
7
  6
CONTINUOUS
 10
38.9363277065
 20
138.6970782645
 40
3.0
100
AcDbArc
 50
90.0
 51
270.0
  0
ARC
  5
40E
100
AcDbEntity
  8
94177400000_BL1
100
AcDbCircle
 62
7
  6
CONTINUOUS
 10
36.3363277065
 20
145.4970782645
 40
2.8
100
AcDbArc
 50
180.0
 51
269.9998420722
  0
ARC
  5
40F
100
AcDbEntity
  8
94177400000_BL1
100
AcDbCircle
 62
7
  6
CONTINUOUS
 10
36.3363277065
 20
144.6970782645
 40
2.0
100
AcDbArc
 50
180.0
 51
270.0
  0
ARC
  5
410
100
AcDbEntity
  8
94177400000_BL1
100
AcDbCircle
 62
7
  6
CONTINUOUS
 10
39.5363277065
 20
134.9631036683
 40
0.15
100
AcDbArc
 50
30.0
 51
150.0
  0
ARC
  5
411
100
AcDbEntity
  8
94177400000_BL1
100
AcDbCircle
 62
7
  6
CONTINUOUS
 10
39.0363277065
 20
134.6970782645
 40
0.15
100
AcDbArc
 50
210.0
 51
330.0
  0
ARC
  5
412
100
AcDbEntity
  8
94177400000_BL1
100
AcDbCircle
 62
7
  6
CONTINUOUS
 10
38.5363277065
 20
134.9631036683
 40
0.15
100
AcDbArc
 50
30.0
 51
150.0
  0
ARC
  5
413
100
AcDbEntity
  8
94177400000_BL1
100
AcDbCircle
 62
7
  6
CONTINUOUS
 10
38.0363277065
 20
134.6970782645
 40
0.15
100
AcDbArc
 50
210.0
 51
330.0
  0
ARC
  5
414
100
AcDbEntity
  8
94177400000_BL1
100
AcDbCircle
 62
7
  6
CONTINUOUS
 10
37.5363277065
 20
134.9631036683
 40
0.15
100
AcDbArc
 50
30.0
 51
150.0
  0
ARC
  5
415
100
AcDbEntity
  8
94177400000_BL1
100
AcDbCircle
 62
7
  6
CONTINUOUS
 10
37.0363277065
 20
134.6970782645
 40
0.15
100
AcDbArc
 50
210.0
 51
330.0
  0
ARC
  5
416
100
AcDbEntity
  8
94177400000_BL1
100
AcDbCircle
 62
7
  6
CONTINUOUS
 10
36.5363277065
 20
134.9631036683
 40
0.15
100
AcDbArc
 50
30.0
 51
150.0
  0
ARC
  5
417
100
AcDbEntity
  8
94177400000_BL1
100
AcDbCircle
 62
7
  6
CONTINUOUS
 10
36.0363277065
 20
134.6970782645
 40
0.15
100
AcDbArc
 50
210.0
 51
330.0
  0
ARC
  5
418
100
AcDbEntity
  8
94177400000_BL1
100
AcDbCircle
 62
7
  6
CONTINUOUS
 10
35.5363277065
 20
134.9631036683
 40
0.15
100
AcDbArc
 50
30.0
 51
150.0
  0
ARC
  5
419
100
AcDbEntity
  8
94177400000_BL1
100
AcDbCircle
 62
7
  6
CONTINUOUS
 10
35.0363277065
 20
134.6970782645
 40
0.15
100
AcDbArc
 50
210.0
 51
330.0
  0
ARC
  5
41A
100
AcDbEntity
  8
94177400000_BL1
100
AcDbCircle
 62
7
  6
CONTINUOUS
 10
31.0363277065
 20
190.4310528607
 40
0.15
100
AcDbArc
 50
270.0
 51
330.0
  0
ARC
  5
41B
100
AcDbEntity
  8
94177400000_BL1
100
AcDbCircle
 62
7
  6
CONTINUOUS
 10
31.5363277065
 20
190.6970782645
 40
0.15
100
AcDbArc
 50
30.0
 51
150.0
  0
ARC
  5
41C
100
AcDbEntity
  8
94177400000_BL1
100
AcDbCircle
 62
7
  6
CONTINUOUS
 10
32.0363277065
 20
190.4310528607
 40
0.15
100
AcDbArc
 50
210.0
 51
330.0
  0
ARC
  5
41D
100
AcDbEntity
  8
94177400000_BL1
100
AcDbCircle
 62
7
  6
CONTINUOUS
 10
32.5363277065
 20
190.6970782645
 40
0.15
100
AcDbArc
 50
30.0
 51
150.0
  0
ARC
  5
41E
100
AcDbEntity
  8
94177400000_BL1
100
AcDbCircle
 62
7
  6
CONTINUOUS
 10
33.0363277065
 20
190.4310528607
 40
0.15
100
AcDbArc
 50
210.0
 51
330.0
  0
ARC
  5
41F
100
AcDbEntity
  8
94177400000_BL1
100
AcDbCircle
 62
7
  6
CONTINUOUS
 10
33.5363277065
 20
190.6970782645
 40
0.15
100
AcDbArc
 50
30.0
 51
150.0
  0
ARC
  5
420
100
AcDbEntity
  8
94177400000_BL1
100
AcDbCircle
 62
7
  6
CONTINUOUS
 10
34.0363277065
 20
190.4310528607
 40
0.15
100
AcDbArc
 50
210.0
 51
330.0
  0
ARC
  5
421
100
AcDbEntity
  8
94177400000_BL1
100
AcDbCircle
 62
7
  6
CONTINUOUS
 10
34.5363277065
 20
190.6970782645
 40
0.15
100
AcDbArc
 50
30.0
 51
150.0
  0
ARC
  5
422
100
AcDbEntity
  8
94177400000_BL1
100
AcDbCircle
 62
7
  6
CONTINUOUS
 10
38.9363277065
 20
186.6970782645
 40
3.0
100
AcDbArc
 50
90.0
 51
270.0
  0
ARC
  5
423
100
AcDbEntity
  8
94177400000_BL1
100
AcDbCircle
 62
7
  6
CONTINUOUS
 10
36.3363277065
 20
179.8970782645
 40
2.8
100
AcDbArc
 50
90.0001579278
 51
180.0
  0
ARC
  5
424
100
AcDbEntity
  8
94177400000_BL1
100
AcDbCircle
 62
7
  6
CONTINUOUS
 10
36.3363277065
 20
180.6970782645
 40
2.0
100
AcDbArc
 50
90.0
 51
180.0
  0
ARC
  5
425
100
AcDbEntity
  8
94177400000_BL1
100
AcDbCircle
 62
7
  6
CONTINUOUS
 10
35.0363277065
 20
190.4310528607
 40
0.15
100
AcDbArc
 50
210.0
 51
330.0
  0
ARC
  5
426
100
AcDbEntity
  8
94177400000_BL1
100
AcDbCircle
 62
7
  6
CONTINUOUS
 10
35.5363277065
 20
190.6970782645
 40
0.15
100
AcDbArc
 50
30.0
 51
150.0
  0
ARC
  5
427
100
AcDbEntity
  8
94177400000_BL1
100
AcDbCircle
 62
7
  6
CONTINUOUS
 10
36.0363277065
 20
190.4310528607
 40
0.15
100
AcDbArc
 50
210.0
 51
330.0
  0
ARC
  5
428
100
AcDbEntity
  8
94177400000_BL1
100
AcDbCircle
 62
7
  6
CONTINUOUS
 10
36.5363277065
 20
190.6970782645
 40
0.15
100
AcDbArc
 50
30.0
 51
150.0
  0
ARC
  5
429
100
AcDbEntity
  8
94177400000_BL1
100
AcDbCircle
 62
7
  6
CONTINUOUS
 10
37.0363277065
 20
190.4310528607
 40
0.15
100
AcDbArc
 50
210.0
 51
330.0
  0
ARC
  5
42A
100
AcDbEntity
  8
94177400000_BL1
100
AcDbCircle
 62
7
  6
CONTINUOUS
 10
37.5363277065
 20
190.6970782645
 40
0.15
100
AcDbArc
 50
30.0
 51
150.0
  0
ARC
  5
42B
100
AcDbEntity
  8
94177400000_BL1
100
AcDbCircle
 62
7
  6
CONTINUOUS
 10
38.0363277065
 20
190.4310528607
 40
0.15
100
AcDbArc
 50
210.0
 51
330.0
  0
ARC
  5
42C
100
AcDbEntity
  8
94177400000_BL1
100
AcDbCircle
 62
7
  6
CONTINUOUS
 10
38.5363277065
 20
190.6970782645
 40
0.15
100
AcDbArc
 50
30.0
 51
150.0
  0
ARC
  5
42D
100
AcDbEntity
  8
94177400000_BL1
100
AcDbCircle
 62
7
  6
CONTINUOUS
 10
39.0363277065
 20
190.4310528607
 40
0.15
100
AcDbArc
 50
210.0
 51
330.0
  0
ARC
  5
42E
100
AcDbEntity
  8
94177400000_BL1
100
AcDbCircle
 62
7
  6
CONTINUOUS
 10
39.5363277065
 20
190.6970782645
 40
0.15
100
AcDbArc
 50
30.0
 51
150.0
  0
ARC
  5
42F
100
AcDbEntity
  8
94177400000_BL1
100
AcDbCircle
 62
7
  6
CONTINUOUS
 10
41.1363277065
 20
138.6970782645
 40
3.0
100
AcDbArc
 50
270.0
 51
90.0
  0
ARC
  5
430
100
AcDbEntity
  8
94177400000_BL1
100
AcDbCircle
 62
7
  6
CONTINUOUS
 10
43.7363277065
 20
145.4970782645
 40
2.8
100
AcDbArc
 50
269.9999999981
 51
360.0
  0
ARC
  5
431
100
AcDbEntity
  8
94177400000_BL1
100
AcDbCircle
 62
7
  6
CONTINUOUS
 10
43.7363277065
 20
144.6970782645
 40
2.0
100
AcDbArc
 50
270.0
 51
360.0
  0
ARC
  5
432
100
AcDbEntity
  8
94177400000_BL1
100
AcDbCircle
 62
7
  6
CONTINUOUS
 10
44.5363277065
 20
134.9631036683
 40
0.15
100
AcDbArc
 50
30.0
 51
150.0
  0
ARC
  5
433
100
AcDbEntity
  8
94177400000_BL1
100
AcDbCircle
 62
7
  6
CONTINUOUS
 10
44.0363277065
 20
134.6970782645
 40
0.15
100
AcDbArc
 50
210.0
 51
330.0
  0
ARC
  5
434
100
AcDbEntity
  8
94177400000_BL1
100
AcDbCircle
 62
7
  6
CONTINUOUS
 10
43.5363277065
 20
134.9631036683
 40
0.15
100
AcDbArc
 50
30.0
 51
150.0
  0
ARC
  5
435
100
AcDbEntity
  8
94177400000_BL1
100
AcDbCircle
 62
7
  6
CONTINUOUS
 10
43.0363277065
 20
134.6970782645
 40
0.15
100
AcDbArc
 50
210.0
 51
330.0
  0
ARC
  5
436
100
AcDbEntity
  8
94177400000_BL1
100
AcDbCircle
 62
7
  6
CONTINUOUS
 10
42.5363277065
 20
134.9631036683
 40
0.15
100
AcDbArc
 50
30.0
 51
150.0
  0
ARC
  5
437
100
AcDbEntity
  8
94177400000_BL1
100
AcDbCircle
 62
7
  6
CONTINUOUS
 10
42.0363277065
 20
134.6970782645
 40
0.15
100
AcDbArc
 50
210.0
 51
330.0
  0
ARC
  5
438
100
AcDbEntity
  8
94177400000_BL1
100
AcDbCircle
 62
7
  6
CONTINUOUS
 10
41.5363277065
 20
134.9631036683
 40
0.15
100
AcDbArc
 50
30.0
 51
150.0
  0
ARC
  5
439
100
AcDbEntity
  8
94177400000_BL1
100
AcDbCircle
 62
7
  6
CONTINUOUS
 10
41.0363277065
 20
134.6970782645
 40
0.15
100
AcDbArc
 50
210.0
 51
330.0
  0
ARC
  5
43A
100
AcDbEntity
  8
94177400000_BL1
100
AcDbCircle
 62
7
  6
CONTINUOUS
 10
40.5363277065
 20
134.9631036683
 40
0.15
100
AcDbArc
 50
30.0
 51
150.0
  0
ARC
  5
43B
100
AcDbEntity
  8
94177400000_BL1
100
AcDbCircle
 62
7
  6
CONTINUOUS
 10
40.0363277065
 20
134.6970782645
 40
0.15
100
AcDbArc
 50
210.0
 51
330.0
  0
ARC
  5
43C
100
AcDbEntity
  8
94177400000_BL1
100
AcDbCircle
 62
7
  6
CONTINUOUS
 10
48.0363277065
 20
134.6970782645
 40
0.15
100
AcDbArc
 50
210.0
 51
330.0
  0
ARC
  5
43D
100
AcDbEntity
  8
94177400000_BL1
100
AcDbCircle
 62
7
  6
CONTINUOUS
 10
47.5363277065
 20
134.9631036683
 40
0.15
100
AcDbArc
 50
30.0
 51
150.0
  0
ARC
  5
43E
100
AcDbEntity
  8
94177400000_BL1
100
AcDbCircle
 62
7
  6
CONTINUOUS
 10
47.0363277065
 20
134.6970782645
 40
0.15
100
AcDbArc
 50
210.0
 51
330.0
  0
ARC
  5
43F
100
AcDbEntity
  8
94177400000_BL1
100
AcDbCircle
 62
7
  6
CONTINUOUS
 10
46.5363277065
 20
134.9631036683
 40
0.15
100
AcDbArc
 50
30.0
 51
150.0
  0
ARC
  5
440
100
AcDbEntity
  8
94177400000_BL1
100
AcDbCircle
 62
7
  6
CONTINUOUS
 10
46.0363277065
 20
134.6970782645
 40
0.15
100
AcDbArc
 50
210.0
 51
330.0
  0
ARC
  5
441
100
AcDbEntity
  8
94177400000_BL1
100
AcDbCircle
 62
7
  6
CONTINUOUS
 10
45.5363277065
 20
134.9631036683
 40
0.15
100
AcDbArc
 50
30.0
 51
150.0
  0
ARC
  5
442
100
AcDbEntity
  8
94177400000_BL1
100
AcDbCircle
 62
7
  6
CONTINUOUS
 10
45.0363277065
 20
134.6970782645
 40
0.15
100
AcDbArc
 50
210.0
 51
330.0
  0
ARC
  5
443
100
AcDbEntity
  8
94177400000_BL1
100
AcDbCircle
 62
7
  6
CONTINUOUS
 10
41.1363277065
 20
186.6970782645
 40
3.0
100
AcDbArc
 50
270.0
 51
90.0
  0
ARC
  5
444
100
AcDbEntity
  8
94177400000_BL1
100
AcDbCircle
 62
7
  6
CONTINUOUS
 10
43.7363277065
 20
179.8970782645
 40
2.8
100
AcDbArc
 50
0.0
 51
90.0000000019
  0
ARC
  5
445
100
AcDbEntity
  8
94177400000_BL1
100
AcDbCircle
 62
7
  6
CONTINUOUS
 10
43.7363277065
 20
180.6970782645
 40
2.0
100
AcDbArc
 50
0.0
 51
90.0
  0
ARC
  5
446
100
AcDbEntity
  8
94177400000_BL1
100
AcDbCircle
 62
7
  6
CONTINUOUS
 10
40.0363277065
 20
190.4310528607
 40
0.15
100
AcDbArc
 50
210.0
 51
330.0
  0
ARC
  5
447
100
AcDbEntity
  8
94177400000_BL1
100
AcDbCircle
 62
7
  6
CONTINUOUS
 10
40.5363277065
 20
190.6970782645
 40
0.15
100
AcDbArc
 50
30.0
 51
150.0
  0
ARC
  5
448
100
AcDbEntity
  8
94177400000_BL1
100
AcDbCircle
 62
7
  6
CONTINUOUS
 10
41.0363277065
 20
190.4310528607
 40
0.15
100
AcDbArc
 50
210.0
 51
330.0
  0
ARC
  5
449
100
AcDbEntity
  8
94177400000_BL1
100
AcDbCircle
 62
7
  6
CONTINUOUS
 10
41.5363277065
 20
190.6970782645
 40
0.15
100
AcDbArc
 50
30.0
 51
150.0
  0
ARC
  5
44A
100
AcDbEntity
  8
94177400000_BL1
100
AcDbCircle
 62
7
  6
CONTINUOUS
 10
42.0363277065
 20
190.4310528607
 40
0.15
100
AcDbArc
 50
210.0
 51
330.0
  0
ARC
  5
44B
100
AcDbEntity
  8
94177400000_BL1
100
AcDbCircle
 62
7
  6
CONTINUOUS
 10
42.5363277065
 20
190.6970782645
 40
0.15
100
AcDbArc
 50
30.0
 51
150.0
  0
ARC
  5
44C
100
AcDbEntity
  8
94177400000_BL1
100
AcDbCircle
 62
7
  6
CONTINUOUS
 10
43.0363277065
 20
190.4310528607
 40
0.15
100
AcDbArc
 50
210.0
 51
330.0
  0
ARC
  5
44D
100
AcDbEntity
  8
94177400000_BL1
100
AcDbCircle
 62
7
  6
CONTINUOUS
 10
43.5363277065
 20
190.6970782645
 40
0.15
100
AcDbArc
 50
30.0
 51
150.0
  0
ARC
  5
44E
100
AcDbEntity
  8
94177400000_BL1
100
AcDbCircle
 62
7
  6
CONTINUOUS
 10
44.0363277065
 20
190.4310528607
 40
0.15
100
AcDbArc
 50
210.0
 51
330.0
  0
ARC
  5
44F
100
AcDbEntity
  8
94177400000_BL1
100
AcDbCircle
 62
7
  6
CONTINUOUS
 10
44.5363277065
 20
190.6970782645
 40
0.15
100
AcDbArc
 50
30.0
 51
150.0
  0
ARC
  5
450
100
AcDbEntity
  8
94177400000_BL1
100
AcDbCircle
 62
7
  6
CONTINUOUS
 10
45.0363277065
 20
190.4310528607
 40
0.15
100
AcDbArc
 50
210.0
 51
330.0
  0
ARC
  5
451
100
AcDbEntity
  8
94177400000_BL1
100
AcDbCircle
 62
7
  6
CONTINUOUS
 10
47.0363277065
 20
190.4310528607
 40
0.15
100
AcDbArc
 50
210.0
 51
330.0
  0
ARC
  5
452
100
AcDbEntity
  8
94177400000_BL1
100
AcDbCircle
 62
7
  6
CONTINUOUS
 10
47.5363277065
 20
190.6970782645
 40
0.15
100
AcDbArc
 50
30.0
 51
150.0
  0
ARC
  5
453
100
AcDbEntity
  8
94177400000_BL1
100
AcDbCircle
 62
7
  6
CONTINUOUS
 10
48.0363277065
 20
190.4310528607
 40
0.15
100
AcDbArc
 50
210.0
 51
330.0
  0
ARC
  5
454
100
AcDbEntity
  8
94177400000_BL1
100
AcDbCircle
 62
7
  6
CONTINUOUS
 10
48.5363277065
 20
190.6970782645
 40
0.15
100
AcDbArc
 50
30.0
 51
150.0
  0
ARC
  5
455
100
AcDbEntity
  8
94177400000_BL1
100
AcDbCircle
 62
7
  6
CONTINUOUS
 10
49.0363277065
 20
190.4310528607
 40
0.15
100
AcDbArc
 50
210.0
 51
270.0
  0
ARC
  5
456
100
AcDbEntity
  8
94177400000_BL1
100
AcDbCircle
 62
7
  6
CONTINUOUS
 10
46.5363277065
 20
190.6970782645
 40
0.15
100
AcDbArc
 50
30.0
 51
150.0
  0
ARC
  5
457
100
AcDbEntity
  8
94177400000_BL1
100
AcDbCircle
 62
7
  6
CONTINUOUS
 10
46.0363277065
 20
190.4310528607
 40
0.15
100
AcDbArc
 50
210.0
 51
330.0
  0
ARC
  5
458
100
AcDbEntity
  8
94177400000_BL1
100
AcDbCircle
 62
7
  6
CONTINUOUS
 10
45.5363277065
 20
190.6970782645
 40
0.15
100
AcDbArc
 50
30.0
 51
150.0
  0
ENDBLK
  5
459
100
AcDbEntity
  8
0
  6
BYBLOCK
 62
0
100
AcDbBlockEnd
  0
BLOCK
  5
45A
100
AcDbEntity
  8
93780801R00_BL2
100
AcDbBlockBegin
  2
93780801R00_BL2
 70
64
 10
40.8170825614
 20
186.5744711177
  3
93780801R00_BL2
  1

  0
LINE
  5
45B
100
AcDbEntity
  8
93780801R00_BL2
100
AcDbLine
 62
7
  6
CONTINUOUS
 10
40.0363277065
 20
187.4533205846
 11
40.1274818239
 21
187.4883113719
  0
LINE
  5
45C
100
AcDbEntity
  8
93780801R00_BL2
100
AcDbLine
 62
7
  6
CONTINUOUS
 10
39.245094599
 20
186.7882323819
 11
39.4640499552
 21
186.9277223277
  0
LINE
  5
45D
100
AcDbEntity
  8
93780801R00_BL2
100
AcDbLine
 62
7
  6
CONTINUOUS
 10
40.0363277065
 20
185.9408359444
 11
39.9451735891
 21
185.9058451571
  0
LINE
  5
45E
100
AcDbEntity
  8
93780801R00_BL2
100
AcDbLine
 62
7
  6
CONTINUOUS
 10
38.3479431957
 20
185.6768966729
 11
39.245094599
 21
186.6059241471
  0
LINE
  5
45F
100
AcDbEntity
  8
93780801R00_BL2
100
AcDbLine
 62
7
  6
CONTINUOUS
 10
40.1274818239
 20
187.4883113719
 11
41.0565092981
 21
188.3854627752
  0
LINE
  5
460
100
AcDbEntity
  8
93780801R00_BL2
100
AcDbLine
 62
7
  6
CONTINUOUS
 10
40.8275608139
 20
186.6059241471
 11
40.6086054578
 21
186.4664342013
  0
LINE
  5
461
100
AcDbEntity
  8
93780801R00_BL2
100
AcDbLine
 62
7
  6
CONTINUOUS
 10
41.7247122172
 20
187.7172598561
 11
40.8275608139
 21
186.7882323819
  0
LINE
  5
462
100
AcDbEntity
  8
93780801R00_BL2
100
AcDbLine
 62
7
  6
CONTINUOUS
 10
39.9451735891
 20
185.9058451571
 11
39.0161461149
 21
185.0086937538
  0
LINE
  5
463
100
AcDbEntity
  8
93780801R00_BL2
100
AcDbLine
 62
7
  6
CONTINUOUS
 10
39.9451735891
 20
187.4883113719
 11
39.8056836433
 21
187.2693560158
  0
LINE
  5
464
100
AcDbEntity
  8
93780801R00_BL2
100
AcDbLine
 62
7
  6
CONTINUOUS
 10
40.1274818239
 20
185.9058451571
 11
40.2669717697
 21
186.1248005132
  0
LINE
  5
465
100
AcDbEntity
  8
93780801R00_BL2
100
AcDbLine
 62
7
  6
CONTINUOUS
 10
39.245094599
 20
186.6059241471
 11
39.2800853864
 21
186.6970782645
  0
LINE
  5
466
100
AcDbEntity
  8
93780801R00_BL2
100
AcDbLine
 62
7
  6
CONTINUOUS
 10
40.8275608139
 20
186.7882323819
 11
40.7925700266
 21
186.6970782645
  0
LINE
  5
467
100
AcDbEntity
  8
93780801R00_BL2
100
AcDbLine
 62
7
  6
CONTINUOUS
 10
40.0363277065
 20
187.4533205846
 11
40.0363277065
 21
187.1708000013
  0
LINE
  5
468
100
AcDbEntity
  8
93780801R00_BL2
100
AcDbLine
 62
7
  6
CONTINUOUS
 10
40.0363277065
 20
185.9408359444
 11
40.0363277065
 21
186.2233565277
  0
LINE
  5
469
100
AcDbEntity
  8
93780801R00_BL2
100
AcDbLine
 62
7
  6
CONTINUOUS
 10
39.2800853864
 20
186.6970782645
 11
39.245094599
 21
186.7882323819
  0
LINE
  5
46A
100
AcDbEntity
  8
93780801R00_BL2
100
AcDbLine
 62
7
  6
CONTINUOUS
 10
40.7925700266
 20
186.6970782645
 11
40.8275608139
 21
186.6059241471
  0
LINE
  5
46B
100
AcDbEntity
  8
93780801R00_BL2
100
AcDbLine
 62
7
  6
CONTINUOUS
 10
39.9451735891
 20
185.9058451571
 11
39.8056836433
 21
186.1248005132
  0
LINE
  5
46C
100
AcDbEntity
  8
93780801R00_BL2
100
AcDbLine
 62
7
  6
CONTINUOUS
 10
40.1274818239
 20
187.4883113719
 11
40.2669717697
 21
187.2693560158
  0
LINE
  5
46D
100
AcDbEntity
  8
93780801R00_BL2
100
AcDbLine
 62
7
  6
CONTINUOUS
 10
41.0565092981
 20
185.0086937538
 11
40.1274818239
 21
185.9058451571
  0
LINE
  5
46E
100
AcDbEntity
  8
93780801R00_BL2
100
AcDbLine
 62
7
  6
CONTINUOUS
 10
39.0161461149
 20
188.3854627752
 11
39.9451735891
 21
187.4883113719
  0
LINE
  5
46F
100
AcDbEntity
  8
93780801R00_BL2
100
AcDbLine
 62
7
  6
CONTINUOUS
 10
39.245094599
 20
186.7882323819
 11
38.3479431957
 21
187.7172598561
  0
LINE
  5
470
100
AcDbEntity
  8
93780801R00_BL2
100
AcDbLine
 62
7
  6
CONTINUOUS
 10
40.8275608139
 20
186.6059241471
 11
41.7247122172
 21
185.6768966729
  0
LINE
  5
471
100
AcDbEntity
  8
93780801R00_BL2
100
AcDbLine
 62
7
  6
CONTINUOUS
 10
39.245094599
 20
186.6059241471
 11
39.4640499552
 21
186.4664342013
  0
LINE
  5
472
100
AcDbEntity
  8
93780801R00_BL2
100
AcDbLine
 62
7
  6
CONTINUOUS
 10
40.8275608139
 20
186.7882323819
 11
40.6086054578
 21
186.9277223277
  0
LINE
  5
473
100
AcDbEntity
  8
93780801R00_BL2
100
AcDbLine
 62
7
  6
CONTINUOUS
 10
40.1274818239
 20
185.9058451571
 11
40.0363277065
 21
185.9408359444
  0
LINE
  5
474
100
AcDbEntity
  8
93780801R00_BL2
100
AcDbLine
 62
7
  6
CONTINUOUS
 10
39.9451735891
 20
187.4883113719
 11
40.0363277065
 21
187.4533205846
  0
LINE
  5
475
100
AcDbEntity
  8
93780801R00_BL2
100
AcDbLine
 62
7
  6
CONTINUOUS
 10
40.7925700266
 20
186.6970782645
 11
40.5100494433
 21
186.6970782645
  0
LINE
  5
476
100
AcDbEntity
  8
93780801R00_BL2
100
AcDbLine
 62
7
  6
CONTINUOUS
 10
39.2800853864
 20
186.6970782645
 11
39.5626059697
 21
186.6970782645
  0
ARC
  5
477
100
AcDbEntity
  8
93780801R00_BL2
100
AcDbCircle
 62
7
  6
CONTINUOUS
 10
-119.4059335056
 20
-68.1977310034
 40
300.5508021064
100
AcDbArc
 50
58.092527187
 51
58.2631563626
  0
ARC
  5
478
100
AcDbEntity
  8
93780801R00_BL2
100
AcDbCircle
 62
7
  6
CONTINUOUS
 10
-214.8584815483
 20
346.1393394684
 40
300.5508020909
100
AcDbArc
 50
328.092527187
 51
328.2631563626
  0
ARC
  5
479
100
AcDbEntity
  8
93780801R00_BL2
100
AcDbCircle
 62
7
  6
CONTINUOUS
 10
294.9311369612
 20
27.2548170606
 40
300.5508020909
100
AcDbArc
 50
148.092527187
 51
148.2631563626
  0
ARC
  5
47A
100
AcDbEntity
  8
93780801R00_BL2
100
AcDbCircle
 62
7
  6
CONTINUOUS
 10
40.0363277065
 20
186.6970782645
 40
3.25
100
AcDbArc
 50
292.3994866032
 51
67.6005133968
  0
ARC
  5
47B
100
AcDbEntity
  8
93780801R00_BL2
100
AcDbCircle
 62
7
  6
CONTINUOUS
 10
40.0363277065
 20
186.6970782645
 40
3.25
100
AcDbArc
 50
112.3994866032
 51
247.6005133968
  0
ARC
  5
47C
100
AcDbEntity
  8
93780801R00_BL2
100
AcDbCircle
 62
9
  6
CONTINUOUS
 10
40.0363277065
 20
186.6970782645
 40
1.9726664026
100
AcDbArc
 50
121.1397210534
 51
148.8640863863
  0
ARC
  5
47D
100
AcDbEntity
  8
93780801R00_BL2
100
AcDbCircle
 62
9
  6
CONTINUOUS
 10
40.0363277065
 20
186.6970782645
 40
1.9726664026
100
AcDbArc
 50
31.1393262378
 51
58.8682047598
  0
ARC
  5
47E
100
AcDbEntity
  8
93780801R00_BL2
100
AcDbCircle
 62
9
  6
CONTINUOUS
 10
40.0363277065
 20
186.6970782645
 40
1.9726664026
100
AcDbArc
 50
301.1397800414
 51
328.8639969715
  0
ARC
  5
47F
100
AcDbEntity
  8
93780801R00_BL2
100
AcDbCircle
 62
9
  6
CONTINUOUS
 10
40.0363277065
 20
186.6970782645
 40
1.9726664026
100
AcDbArc
 50
211.1394084161
 51
238.8685308245
  0
ARC
  5
480
100
AcDbEntity
  8
93780801R00_BL2
100
AcDbCircle
 62
9
  6
CONTINUOUS
 10
40.0363277065
 20
186.6970782645
 40
1.5251992218
100
AcDbArc
 50
117.9789520644
 51
152.0210479356
  0
ARC
  5
481
100
AcDbEntity
  8
93780801R00_BL2
100
AcDbCircle
 62
9
  6
CONTINUOUS
 10
40.0363277065
 20
186.6970782645
 40
1.5251992218
100
AcDbArc
 50
27.9789520644
 51
62.0210479356
  0
ARC
  5
482
100
AcDbEntity
  8
93780801R00_BL2
100
AcDbCircle
 62
9
  6
CONTINUOUS
 10
40.0363277065
 20
186.6970782645
 40
1.5251992218
100
AcDbArc
 50
297.9789520644
 51
332.0210479356
  0
ARC
  5
483
100
AcDbEntity
  8
93780801R00_BL2
100
AcDbCircle
 62
9
  6
CONTINUOUS
 10
40.0363277065
 20
186.6970782645
 40
1.5251992218
100
AcDbArc
 50
207.9789520644
 51
242.0210479356
  0
ARC
  5
484
100
AcDbEntity
  8
93780801R00_BL2
100
AcDbCircle
 62
7
  6
CONTINUOUS
 10
40.0363277065
 20
186.6970782645
 40
0.635
100
AcDbArc
 50
112.5578096573
 51
157.4421903427
  0
ARC
  5
485
100
AcDbEntity
  8
93780801R00_BL2
100
AcDbCircle
 62
7
  6
CONTINUOUS
 10
40.0363277065
 20
186.6970782645
 40
0.635
100
AcDbArc
 50
202.5578096573
 51
247.4421903427
  0
ARC
  5
486
100
AcDbEntity
  8
93780801R00_BL2
100
AcDbCircle
 62
7
  6
CONTINUOUS
 10
40.0363277065
 20
186.6970782645
 40
0.635
100
AcDbArc
 50
22.5578096573
 51
67.4421903427
  0
ARC
  5
487
100
AcDbEntity
  8
93780801R00_BL2
100
AcDbCircle
 62
7
  6
CONTINUOUS
 10
40.0363277065
 20
186.6970782645
 40
0.635
100
AcDbArc
 50
292.5578096573
 51
337.4421903427
  0
ARC
  5
488
100
AcDbEntity
  8
93780801R00_BL2
100
AcDbCircle
 62
7
  6
CONTINUOUS
 10
199.4785889238
 20
441.5918875408
 40
300.5508021163
100
AcDbArc
 50
238.092527187
 51
238.2631563626
  0
SPLINE
  5
489
100
AcDbEntity
  8
93780801R00_BL2
100
AcDbSpline
 62
7
  6
CONTINUOUS
 70
0
 71
3
 72
9
 73
5
 74
0
 42
0.0000001
 43
0.0000001
 44
0.0000000001
 40
0.0
 40
0.0
 40
0.0
 40
0.0
 40
0.2494291971
 40
1.0
 40
1.0
 40
1.0
 40
1.0
 10
38.6893937753
 20
185.981535358
 30
0.0
 10
38.7526575594
 20
186.02072263
 30
0.0
 10
39.0062700065
 20
186.1778654352
 30
0.0
 10
39.2598747178
 20
186.3350220642
 30
0.0
 10
39.4499096854
 20
186.4534824835
 30
0.0
  0
LINE
  5
48A
100
AcDbEntity
  8
93780801R00_BL2
100
AcDbLine
 62
7
  6
CONTINUOUS
 10
39.4499096854
 20
186.4534824835
 11
39.4640499552
 21
186.4664342013
  0
SPLINE
  5
48B
100
AcDbEntity
  8
93780801R00_BL2
100
AcDbSpline
 62
7
  6
CONTINUOUS
 70
0
 71
3
 72
9
 73
5
 74
0
 42
0.0000001
 43
0.0000001
 44
0.0000000001
 40
0.0
 40
0.0
 40
0.0
 40
0.0
 40
0.2456563032
 40
1.0
 40
1.0
 40
1.0
 40
1.0
 10
39.4640499552
 20
186.4664342013
 30
0.0
 10
39.4722970841
 20
186.4852442577
 30
0.0
 10
39.5057400791
 20
186.5618707878
 30
0.0
 10
39.5385447712
 20
186.6387800501
 30
0.0
 10
39.5626059697
 20
186.6970782645
 30
0.0
  0
SPLINE
  5
48C
100
AcDbEntity
  8
93780801R00_BL2
100
AcDbSpline
 62
7
  6
CONTINUOUS
 70
0
 71
3
 72
9
 73
5
 74
0
 42
0.0000001
 43
0.0000001
 44
0.0000000001
 40
0.0
 40
0.0
 40
0.0
 40
0.0
 40
0.254687125
 40
1.0
 40
1.0
 40
1.0
 40
1.0
 10
39.5626059697
 20
186.6970782645
 30
0.0
 10
39.5544822219
 20
186.7167614066
 30
0.0
 10
39.5222737396
 20
186.7939165712
 30
0.0
 10
39.4890715477
 20
186.8706530657
 30
0.0
 10
39.4640499552
 20
186.9277223277
 30
0.0
  0
LINE
  5
48D
100
AcDbEntity
  8
93780801R00_BL2
100
AcDbLine
 62
7
  6
CONTINUOUS
 10
39.4640499552
 20
186.9277223277
 11
39.4499096854
 21
186.9406740455
  0
SPLINE
  5
48E
100
AcDbEntity
  8
93780801R00_BL2
100
AcDbSpline
 62
7
  6
CONTINUOUS
 70
0
 71
3
 72
9
 73
5
 74
0
 42
0.0000001
 43
0.0000001
 44
0.0000000001
 40
0.0
 40
0.0
 40
0.0
 40
0.0
 40
0.2494291971
 40
1.0
 40
1.0
 40
1.0
 40
1.0
 10
41.3832616377
 20
187.4126211711
 30
0.0
 10
41.3199978536
 20
187.3734338991
 30
0.0
 10
41.0663854064
 20
187.2162910938
 30
0.0
 10
40.8127806952
 20
187.0591344649
 30
0.0
 10
40.6227457276
 20
186.9406740455
 30
0.0
  0
LINE
  5
48F
100
AcDbEntity
  8
93780801R00_BL2
100
AcDbLine
 62
7
  6
CONTINUOUS
 10
40.6227457276
 20
186.9406740455
 11
40.6086054578
 21
186.9277223277
  0
SPLINE
  5
490
100
AcDbEntity
  8
93780801R00_BL2
100
AcDbSpline
 62
7
  6
CONTINUOUS
 70
0
 71
3
 72
9
 73
5
 74
0
 42
0.0000001
 43
0.0000001
 44
0.0000000001
 40
0.0
 40
0.0
 40
0.0
 40
0.0
 40
0.2456563032
 40
1.0
 40
1.0
 40
1.0
 40
1.0
 10
40.6086054578
 20
186.9277223277
 30
0.0
 10
40.6003583288
 20
186.9089122714
 30
0.0
 10
40.5669153339
 20
186.8322857412
 30
0.0
 10
40.5341106418
 20
186.7553764789
 30
0.0
 10
40.5100494433
 20
186.6970782645
 30
0.0
  0
SPLINE
  5
491
100
AcDbEntity
  8
93780801R00_BL2
100
AcDbSpline
 62
7
  6
CONTINUOUS
 70
0
 71
3
 72
9
 73
5
 74
0
 42
0.0000001
 43
0.0000001
 44
0.0000000001
 40
0.0
 40
0.0
 40
0.0
 40
0.0
 40
0.254687125
 40
1.0
 40
1.0
 40
1.0
 40
1.0
 10
40.5100494433
 20
186.6970782645
 30
0.0
 10
40.518173191
 20
186.6773951225
 30
0.0
 10
40.5503816734
 20
186.6002399578
 30
0.0
 10
40.5835838653
 20
186.5235034633
 30
0.0
 10
40.6086054578
 20
186.4664342013
 30
0.0
  0
LINE
  5
492
100
AcDbEntity
  8
93780801R00_BL2
100
AcDbLine
 62
7
  6
CONTINUOUS
 10
40.6086054578
 20
186.4664342013
 11
40.6227457276
 21
186.4534824835
  0
SPLINE
  5
493
100
AcDbEntity
  8
93780801R00_BL2
100
AcDbSpline
 62
7
  6
CONTINUOUS
 70
0
 71
3
 72
9
 73
5
 74
0
 42
0.0000001
 43
0.0000001
 44
0.0000000001
 40
0.0
 40
0.0
 40
0.0
 40
0.0
 40
0.2494291971
 40
1.0
 40
1.0
 40
1.0
 40
1.0
 10
39.3207847999
 20
188.0440121957
 30
0.0
 10
39.3599720719
 20
187.9807484116
 30
0.0
 10
39.5171148772
 20
187.7271359644
 30
0.0
 10
39.6742715061
 20
187.4735312532
 30
0.0
 10
39.7927319255
 20
187.2834962856
 30
0.0
  0
LINE
  5
494
100
AcDbEntity
  8
93780801R00_BL2
100
AcDbLine
 62
7
  6
CONTINUOUS
 10
39.7927319255
 20
187.2834962856
 11
39.8056836433
 21
187.2693560158
  0
SPLINE
  5
495
100
AcDbEntity
  8
93780801R00_BL2
100
AcDbSpline
 62
7
  6
CONTINUOUS
 70
0
 71
3
 72
9
 73
5
 74
0
 42
0.0000001
 43
0.0000001
 44
0.0000000001
 40
0.0
 40
0.0
 40
0.0
 40
0.0
 40
0.2456563023
 40
1.0
 40
1.0
 40
1.0
 40
1.0
 10
39.8056836433
 20
187.2693560158
 30
0.0
 10
39.8244936996
 20
187.2611088869
 30
0.0
 10
39.9011202298
 20
187.227665892
 30
0.0
 10
39.978029492
 20
187.1948611998
 30
0.0
 10
40.0363277065
 20
187.1708000013
 30
0.0
  0
SPLINE
  5
496
100
AcDbEntity
  8
93780801R00_BL2
100
AcDbSpline
 62
7
  6
CONTINUOUS
 70
0
 71
3
 72
9
 73
5
 74
0
 42
0.0000001
 43
0.0000001
 44
0.0000000001
 40
0.0
 40
0.0
 40
0.0
 40
0.0
 40
0.254687126
 40
1.0
 40
1.0
 40
1.0
 40
1.0
 10
40.0363277065
 20
187.1708000013
 30
0.0
 10
40.0560108486
 20
187.1789237491
 30
0.0
 10
40.1331660132
 20
187.2111322314
 30
0.0
 10
40.2099025077
 20
187.2443344234
 30
0.0
 10
40.2669717697
 20
187.2693560158
 30
0.0
  0
LINE
  5
497
100
AcDbEntity
  8
93780801R00_BL2
100
AcDbLine
 62
7
  6
CONTINUOUS
 10
40.2669717697
 20
187.2693560158
 11
40.2799234874
 21
187.2834962856
  0
SPLINE
  5
498
100
AcDbEntity
  8
93780801R00_BL2
100
AcDbSpline
 62
7
  6
CONTINUOUS
 70
0
 71
3
 72
9
 73
5
 74
0
 42
0.0000001
 43
0.0000001
 44
0.0000000001
 40
0.0
 40
0.0
 40
0.0
 40
0.0
 40
0.2494291971
 40
1.0
 40
1.0
 40
1.0
 40
1.0
 10
40.751870613
 20
185.3501443333
 30
0.0
 10
40.712683341
 20
185.4134081174
 30
0.0
 10
40.5555405357
 20
185.6670205646
 30
0.0
 10
40.3983839068
 20
185.9206252758
 30
0.0
 10
40.2799234874
 20
186.1106602434
 30
0.0
  0
LINE
  5
499
100
AcDbEntity
  8
93780801R00_BL2
100
AcDbLine
 62
7
  6
CONTINUOUS
 10
40.2799234874
 20
186.1106602434
 11
40.2669717697
 21
186.1248005132
  0
SPLINE
  5
49A
100
AcDbEntity
  8
93780801R00_BL2
100
AcDbSpline
 62
7
  6
CONTINUOUS
 70
0
 71
3
 72
9
 73
5
 74
0
 42
0.0000001
 43
0.0000001
 44
0.0000000001
 40
0.0
 40
0.0
 40
0.0
 40
0.0
 40
0.2456563023
 40
1.0
 40
1.0
 40
1.0
 40
1.0
 10
40.2669717697
 20
186.1248005132
 30
0.0
 10
40.2481617134
 20
186.1330476421
 30
0.0
 10
40.1715351832
 20
186.166490637
 30
0.0
 10
40.0946259209
 20
186.1992953292
 30
0.0
 10
40.0363277065
 20
186.2233565277
 30
0.0
  0
SPLINE
  5
49B
100
AcDbEntity
  8
93780801R00_BL2
100
AcDbSpline
 62
7
  6
CONTINUOUS
 70
0
 71
3
 72
9
 73
5
 74
0
 42
0.0000001
 43
0.0000001
 44
0.0000000001
 40
0.0
 40
0.0
 40
0.0
 40
0.0
 40
0.254687126
 40
1.0
 40
1.0
 40
1.0
 40
1.0
 10
40.0363277065
 20
186.2233565277
 30
0.0
 10
40.0166445643
 20
186.2152327799
 30
0.0
 10
39.9394893997
 20
186.1830242976
 30
0.0
 10
39.8627529052
 20
186.1498221057
 30
0.0
 10
39.8056836433
 20
186.1248005132
 30
0.0
  0
LINE
  5
49C
100
AcDbEntity
  8
93780801R00_BL2
100
AcDbLine
 62
7
  6
CONTINUOUS
 10
39.8056836433
 20
186.1248005132
 11
39.7927319255
 21
186.1106602434
  0
SPLINE
  5
49D
100
AcDbEntity
  8
93780801R00_BL2
100
AcDbSpline
 62
7
  6
CONTINUOUS
 70
0
 71
3
 72
10
 73
6
 74
0
 42
0.0000001
 43
0.0000001
 44
0.0000000001
 40
0.0
 40
0.0
 40
0.0
 40
0.0
 40
0.1744759127
 40
0.4139642026
 40
1.0
 40
1.0
 40
1.0
 40
1.0
 10
38.6893937753
 20
187.4126211711
 30
0.0
 10
38.6667357772
 20
187.4266561382
 30
0.0
 10
38.6162028033
 20
187.4649695709
 30
0.0
 10
38.5001943882
 20
187.5643069866
 30
0.0
 10
38.4101303626
 20
187.6528631597
 30
0.0
 10
38.3479431957
 20
187.7172598561
 30
0.0
  0
SPLINE
  5
49E
100
AcDbEntity
  8
93780801R00_BL2
100
AcDbSpline
 62
7
  6
CONTINUOUS
 70
0
 71
3
 72
10
 73
6
 74
0
 42
0.0000001
 43
0.0000001
 44
0.0000000001
 40
0.0
 40
0.0
 40
0.0
 40
0.0
 40
0.5860357974
 40
0.8255240873
 40
1.0
 40
1.0
 40
1.0
 40
1.0
 10
39.0161461149
 20
188.3854627752
 30
0.0
 10
39.0805428113
 20
188.3232756084
 30
0.0
 10
39.1690989843
 20
188.2332115827
 30
0.0
 10
39.2684364001
 20
188.1172031677
 30
0.0
 10
39.3067498328
 20
188.0666701937
 30
0.0
 10
39.3207847999
 20
188.0440121957
 30
0.0
  0
SPLINE
  5
49F
100
AcDbEntity
  8
93780801R00_BL2
100
AcDbSpline
 62
7
  6
CONTINUOUS
 70
0
 71
3
 72
10
 73
6
 74
0
 42
0.0000001
 43
0.0000001
 44
0.0000000001
 40
0.0
 40
0.0
 40
0.0
 40
0.0
 40
0.1744759127
 40
0.4139642026
 40
1.0
 40
1.0
 40
1.0
 40
1.0
 10
40.751870613
 20
188.0440121957
 30
0.0
 10
40.7659055802
 20
188.0666701937
 30
0.0
 10
40.8042190128
 20
188.1172031677
 30
0.0
 10
40.9035564286
 20
188.2332115827
 30
0.0
 10
40.9921126017
 20
188.3232756084
 30
0.0
 10
41.0565092981
 20
188.3854627752
 30
0.0
  0
SPLINE
  5
4A0
100
AcDbEntity
  8
93780801R00_BL2
100
AcDbSpline
 62
7
  6
CONTINUOUS
 70
0
 71
3
 72
10
 73
6
 74
0
 42
0.0000001
 43
0.0000001
 44
0.0000000001
 40
0.0
 40
0.0
 40
0.0
 40
0.0
 40
0.5860357974
 40
0.8255240873
 40
1.0
 40
1.0
 40
1.0
 40
1.0
 10
41.7247122172
 20
187.7172598561
 30
0.0
 10
41.6625250504
 20
187.6528631597
 30
0.0
 10
41.5724610247
 20
187.5643069866
 30
0.0
 10
41.4564526096
 20
187.4649695709
 30
0.0
 10
41.4059196357
 20
187.4266561382
 30
0.0
 10
41.3832616377
 20
187.4126211711
 30
0.0
  0
SPLINE
  5
4A1
100
AcDbEntity
  8
93780801R00_BL2
100
AcDbSpline
 62
7
  6
CONTINUOUS
 70
0
 71
3
 72
10
 73
6
 74
0
 42
0.0000001
 43
0.0000001
 44
0.0000000001
 40
0.0
 40
0.0
 40
0.0
 40
0.0
 40
0.1744759127
 40
0.4139642026
 40
1.0
 40
1.0
 40
1.0
 40
1.0
 10
41.3832616377
 20
185.981535358
 30
0.0
 10
41.4059196357
 20
185.9675003908
 30
0.0
 10
41.4564526096
 20
185.9291869582
 30
0.0
 10
41.5724610247
 20
185.8298495424
 30
0.0
 10
41.6625250504
 20
185.7412933693
 30
0.0
 10
41.7247122172
 20
185.6768966729
 30
0.0
  0
SPLINE
  5
4A2
100
AcDbEntity
  8
93780801R00_BL2
100
AcDbSpline
 62
7
  6
CONTINUOUS
 70
0
 71
3
 72
10
 73
6
 74
0
 42
0.0000001
 43
0.0000001
 44
0.0000000001
 40
0.0
 40
0.0
 40
0.0
 40
0.0
 40
0.5860357974
 40
0.8255240873
 40
1.0
 40
1.0
 40
1.0
 40
1.0
 10
41.0565092981
 20
185.0086937538
 30
0.0
 10
40.9921126017
 20
185.0708809206
 30
0.0
 10
40.9035564286
 20
185.1609449463
 30
0.0
 10
40.8042190128
 20
185.2769533613
 30
0.0
 10
40.7659055802
 20
185.3274863353
 30
0.0
 10
40.751870613
 20
185.3501443333
 30
0.0
  0
SPLINE
  5
4A3
100
AcDbEntity
  8
93780801R00_BL2
100
AcDbSpline
 62
7
  6
CONTINUOUS
 70
0
 71
3
 72
10
 73
6
 74
0
 42
0.0000001
 43
0.0000001
 44
0.0000000001
 40
0.0
 40
0.0
 40
0.0
 40
0.0
 40
0.1744759127
 40
0.4139642026
 40
1.0
 40
1.0
 40
1.0
 40
1.0
 10
39.3207847999
 20
185.3501443333
 30
0.0
 10
39.3067498328
 20
185.3274863353
 30
0.0
 10
39.2684364001
 20
185.2769533613
 30
0.0
 10
39.1690989843
 20
185.1609449463
 30
0.0
 10
39.0805428113
 20
185.0708809206
 30
0.0
 10
39.0161461149
 20
185.0086937538
 30
0.0
  0
SPLINE
  5
4A4
100
AcDbEntity
  8
93780801R00_BL2
100
AcDbSpline
 62
7
  6
CONTINUOUS
 70
0
 71
3
 72
10
 73
6
 74
0
 42
0.0000001
 43
0.0000001
 44
0.0000000001
 40
0.0
 40
0.0
 40
0.0
 40
0.0
 40
0.5860357974
 40
0.8255240873
 40
1.0
 40
1.0
 40
1.0
 40
1.0
 10
38.3479431957
 20
185.6768966729
 30
0.0
 10
38.4101303626
 20
185.7412933693
 30
0.0
 10
38.5001943882
 20
185.8298495424
 30
0.0
 10
38.6162028033
 20
185.9291869582
 30
0.0
 10
38.6667357772
 20
185.9675003908
 30
0.0
 10
38.6893937753
 20
185.981535358
 30
0.0
  0
ENDBLK
  5
4A5
100
AcDbEntity
  8
0
  6
BYBLOCK
 62
0
100
AcDbBlockEnd
  0
BLOCK
  5
4A6
100
AcDbEntity
  8
93780801R00_BL3
100
AcDbBlockBegin
  2
93780801R00_BL3
 70
64
 10
40.8170825614
 20
138.5744711177
  3
93780801R00_BL3
  1

  0
LINE
  5
4A7
100
AcDbEntity
  8
93780801R00_BL3
100
AcDbLine
 62
7
  6
CONTINUOUS
 10
40.7925700266
 20
138.6970782645
 11
40.5100494433
 21
138.6970782645
  0
LINE
  5
4A8
100
AcDbEntity
  8
93780801R00_BL3
100
AcDbLine
 62
7
  6
CONTINUOUS
 10
39.2800853864
 20
138.6970782645
 11
39.5626059697
 21
138.6970782645
  0
LINE
  5
4A9
100
AcDbEntity
  8
93780801R00_BL3
100
AcDbLine
 62
7
  6
CONTINUOUS
 10
40.1274818239
 20
137.9058451571
 11
40.0363277065
 21
137.9408359444
  0
LINE
  5
4AA
100
AcDbEntity
  8
93780801R00_BL3
100
AcDbLine
 62
7
  6
CONTINUOUS
 10
39.9451735891
 20
139.4883113719
 11
40.0363277065
 21
139.4533205846
  0
LINE
  5
4AB
100
AcDbEntity
  8
93780801R00_BL3
100
AcDbLine
 62
7
  6
CONTINUOUS
 10
39.245094599
 20
138.6059241471
 11
39.4640499552
 21
138.4664342013
  0
LINE
  5
4AC
100
AcDbEntity
  8
93780801R00_BL3
100
AcDbLine
 62
7
  6
CONTINUOUS
 10
40.8275608139
 20
138.7882323819
 11
40.6086054578
 21
138.9277223277
  0
LINE
  5
4AD
100
AcDbEntity
  8
93780801R00_BL3
100
AcDbLine
 62
7
  6
CONTINUOUS
 10
41.0565092981
 20
137.0086937538
 11
40.1274818239
 21
137.9058451571
  0
LINE
  5
4AE
100
AcDbEntity
  8
93780801R00_BL3
100
AcDbLine
 62
7
  6
CONTINUOUS
 10
39.245094599
 20
138.7882323819
 11
38.3479431957
 21
139.7172598561
  0
LINE
  5
4AF
100
AcDbEntity
  8
93780801R00_BL3
100
AcDbLine
 62
7
  6
CONTINUOUS
 10
39.0161461149
 20
140.3854627752
 11
39.9451735891
 21
139.4883113719
  0
LINE
  5
4B0
100
AcDbEntity
  8
93780801R00_BL3
100
AcDbLine
 62
7
  6
CONTINUOUS
 10
40.8275608139
 20
138.6059241471
 11
41.7247122172
 21
137.6768966729
  0
LINE
  5
4B1
100
AcDbEntity
  8
93780801R00_BL3
100
AcDbLine
 62
7
  6
CONTINUOUS
 10
39.9451735891
 20
137.9058451571
 11
39.8056836433
 21
138.1248005132
  0
LINE
  5
4B2
100
AcDbEntity
  8
93780801R00_BL3
100
AcDbLine
 62
7
  6
CONTINUOUS
 10
40.1274818239
 20
139.4883113719
 11
40.2669717697
 21
139.2693560158
  0
LINE
  5
4B3
100
AcDbEntity
  8
93780801R00_BL3
100
AcDbLine
 62
7
  6
CONTINUOUS
 10
39.2800853864
 20
138.6970782645
 11
39.245094599
 21
138.7882323819
  0
LINE
  5
4B4
100
AcDbEntity
  8
93780801R00_BL3
100
AcDbLine
 62
7
  6
CONTINUOUS
 10
40.7925700266
 20
138.6970782645
 11
40.8275608139
 21
138.6059241471
  0
LINE
  5
4B5
100
AcDbEntity
  8
93780801R00_BL3
100
AcDbLine
 62
7
  6
CONTINUOUS
 10
40.0363277065
 20
139.4533205846
 11
40.0363277065
 21
139.1708000013
  0
LINE
  5
4B6
100
AcDbEntity
  8
93780801R00_BL3
100
AcDbLine
 62
7
  6
CONTINUOUS
 10
40.0363277065
 20
137.9408359444
 11
40.0363277065
 21
138.2233565277
  0
LINE
  5
4B7
100
AcDbEntity
  8
93780801R00_BL3
100
AcDbLine
 62
7
  6
CONTINUOUS
 10
39.245094599
 20
138.6059241471
 11
39.2800853864
 21
138.6970782645
  0
LINE
  5
4B8
100
AcDbEntity
  8
93780801R00_BL3
100
AcDbLine
 62
7
  6
CONTINUOUS
 10
40.8275608139
 20
138.7882323819
 11
40.7925700266
 21
138.6970782645
  0
LINE
  5
4B9
100
AcDbEntity
  8
93780801R00_BL3
100
AcDbLine
 62
7
  6
CONTINUOUS
 10
39.9451735891
 20
139.4883113719
 11
39.8056836433
 21
139.2693560158
  0
LINE
  5
4BA
100
AcDbEntity
  8
93780801R00_BL3
100
AcDbLine
 62
7
  6
CONTINUOUS
 10
40.1274818239
 20
137.9058451571
 11
40.2669717697
 21
138.1248005132
  0
LINE
  5
4BB
100
AcDbEntity
  8
93780801R00_BL3
100
AcDbLine
 62
7
  6
CONTINUOUS
 10
38.3479431957
 20
137.6768966729
 11
39.245094599
 21
138.6059241471
  0
LINE
  5
4BC
100
AcDbEntity
  8
93780801R00_BL3
100
AcDbLine
 62
7
  6
CONTINUOUS
 10
41.7247122172
 20
139.7172598561
 11
40.8275608139
 21
138.7882323819
  0
LINE
  5
4BD
100
AcDbEntity
  8
93780801R00_BL3
100
AcDbLine
 62
7
  6
CONTINUOUS
 10
40.1274818239
 20
139.4883113719
 11
41.0565092981
 21
140.3854627752
  0
LINE
  5
4BE
100
AcDbEntity
  8
93780801R00_BL3
100
AcDbLine
 62
7
  6
CONTINUOUS
 10
39.9451735891
 20
137.9058451571
 11
39.0161461149
 21
137.0086937538
  0
LINE
  5
4BF
100
AcDbEntity
  8
93780801R00_BL3
100
AcDbLine
 62
7
  6
CONTINUOUS
 10
39.245094599
 20
138.7882323819
 11
39.4640499552
 21
138.9277223277
  0
LINE
  5
4C0
100
AcDbEntity
  8
93780801R00_BL3
100
AcDbLine
 62
7
  6
CONTINUOUS
 10
40.8275608139
 20
138.6059241471
 11
40.6086054578
 21
138.4664342013
  0
LINE
  5
4C1
100
AcDbEntity
  8
93780801R00_BL3
100
AcDbLine
 62
7
  6
CONTINUOUS
 10
40.0363277065
 20
139.4533205846
 11
40.1274818239
 21
139.4883113719
  0
LINE
  5
4C2
100
AcDbEntity
  8
93780801R00_BL3
100
AcDbLine
 62
7
  6
CONTINUOUS
 10
40.0363277065
 20
137.9408359444
 11
39.9451735891
 21
137.9058451571
  0
ARC
  5
4C3
100
AcDbEntity
  8
93780801R00_BL3
100
AcDbCircle
 62
7
  6
CONTINUOUS
 10
-119.4059335098
 20
-116.1977310101
 40
300.5508021143
100
AcDbArc
 50
58.092527187
 51
58.2631563626
  0
ARC
  5
4C4
100
AcDbEntity
  8
93780801R00_BL3
100
AcDbCircle
 62
7
  6
CONTINUOUS
 10
-214.8584815682
 20
298.1393394808
 40
300.5508021143
100
AcDbArc
 50
328.092527187
 51
328.2631563626
  0
ARC
  5
4C5
100
AcDbEntity
  8
93780801R00_BL3
100
AcDbCircle
 62
7
  6
CONTINUOUS
 10
40.0363277065
 20
138.6970782645
 40
3.25
100
AcDbArc
 50
292.3994866032
 51
67.6005133968
  0
ARC
  5
4C6
100
AcDbEntity
  8
93780801R00_BL3
100
AcDbCircle
 62
7
  6
CONTINUOUS
 10
40.0363277065
 20
138.6970782645
 40
3.25
100
AcDbArc
 50
112.3994866032
 51
247.6005133968
  0
ARC
  5
4C7
100
AcDbEntity
  8
93780801R00_BL3
100
AcDbCircle
 62
9
  6
CONTINUOUS
 10
40.0363277065
 20
138.6970782645
 40
1.9726664026
100
AcDbArc
 50
121.1397210534
 51
148.8640863863
  0
ARC
  5
4C8
100
AcDbEntity
  8
93780801R00_BL3
100
AcDbCircle
 62
9
  6
CONTINUOUS
 10
40.0363277065
 20
138.6970782645
 40
1.9726664026
100
AcDbArc
 50
31.1393262378
 51
58.8682047598
  0
ARC
  5
4C9
100
AcDbEntity
  8
93780801R00_BL3
100
AcDbCircle
 62
9
  6
CONTINUOUS
 10
40.0363277065
 20
138.6970782645
 40
1.9726664026
100
AcDbArc
 50
301.1397800414
 51
328.8639969715
  0
ARC
  5
4CA
100
AcDbEntity
  8
93780801R00_BL3
100
AcDbCircle
 62
9
  6
CONTINUOUS
 10
40.0363277065
 20
138.6970782645
 40
1.9726664026
100
AcDbArc
 50
211.1394084161
 51
238.8685308245
  0
ARC
  5
4CB
100
AcDbEntity
  8
93780801R00_BL3
100
AcDbCircle
 62
9
  6
CONTINUOUS
 10
40.0363277065
 20
138.6970782645
 40
1.5251992218
100
AcDbArc
 50
117.9789520644
 51
152.0210479356
  0
ARC
  5
4CC
100
AcDbEntity
  8
93780801R00_BL3
100
AcDbCircle
 62
9
  6
CONTINUOUS
 10
40.0363277065
 20
138.6970782645
 40
1.5251992218
100
AcDbArc
 50
27.9789520644
 51
62.0210479356
  0
ARC
  5
4CD
100
AcDbEntity
  8
93780801R00_BL3
100
AcDbCircle
 62
9
  6
CONTINUOUS
 10
40.0363277065
 20
138.6970782645
 40
1.5251992218
100
AcDbArc
 50
297.9789520644
 51
332.0210479356
  0
ARC
  5
4CE
100
AcDbEntity
  8
93780801R00_BL3
100
AcDbCircle
 62
9
  6
CONTINUOUS
 10
40.0363277065
 20
138.6970782645
 40
1.5251992218
100
AcDbArc
 50
207.9789520644
 51
242.0210479356
  0
ARC
  5
4CF
100
AcDbEntity
  8
93780801R00_BL3
100
AcDbCircle
 62
7
  6
CONTINUOUS
 10
40.0363277065
 20
138.6970782645
 40
0.635
100
AcDbArc
 50
112.5578096573
 51
157.4421903427
  0
ARC
  5
4D0
100
AcDbEntity
  8
93780801R00_BL3
100
AcDbCircle
 62
7
  6
CONTINUOUS
 10
40.0363277065
 20
138.6970782645
 40
0.635
100
AcDbArc
 50
202.5578096573
 51
247.4421903427
  0
ARC
  5
4D1
100
AcDbEntity
  8
93780801R00_BL3
100
AcDbCircle
 62
7
  6
CONTINUOUS
 10
40.0363277065
 20
138.6970782645
 40
0.635
100
AcDbArc
 50
22.5578096573
 51
67.4421903427
  0
ARC
  5
4D2
100
AcDbEntity
  8
93780801R00_BL3
100
AcDbCircle
 62
7
  6
CONTINUOUS
 10
40.0363277065
 20
138.6970782645
 40
0.635
100
AcDbArc
 50
292.5578096573
 51
337.4421903427
  0
ARC
  5
4D3
100
AcDbEntity
  8
93780801R00_BL3
100
AcDbCircle
 62
7
  6
CONTINUOUS
 10
294.931136976
 20
-20.7451829486
 40
300.5508021083
100
AcDbArc
 50
148.092527187
 51
148.2631563626
  0
ARC
  5
4D4
100
AcDbEntity
  8
93780801R00_BL3
100
AcDbCircle
 62
7
  6
CONTINUOUS
 10
199.478588928
 20
393.5918875476
 40
300.5508021243
100
AcDbArc
 50
238.092527187
 51
238.2631563626
  0
SPLINE
  5
4D5
100
AcDbEntity
  8
93780801R00_BL3
100
AcDbSpline
 62
7
  6
CONTINUOUS
 70
0
 71
3
 72
9
 73
5
 74
0
 42
0.0000001
 43
0.0000001
 44
0.0000000001
 40
0.0
 40
0.0
 40
0.0
 40
0.0
 40
0.2494291971
 40
1.0
 40
1.0
 40
1.0
 40
1.0
 10
38.6893937753
 20
137.981535358
 30
0.0
 10
38.7526575594
 20
138.02072263
 30
0.0
 10
39.0062700065
 20
138.1778654352
 30
0.0
 10
39.2598747178
 20
138.3350220642
 30
0.0
 10
39.4499096854
 20
138.4534824835
 30
0.0
  0
LINE
  5
4D6
100
AcDbEntity
  8
93780801R00_BL3
100
AcDbLine
 62
7
  6
CONTINUOUS
 10
39.4499096854
 20
138.4534824835
 11
39.4640499552
 21
138.4664342013
  0
SPLINE
  5
4D7
100
AcDbEntity
  8
93780801R00_BL3
100
AcDbSpline
 62
7
  6
CONTINUOUS
 70
0
 71
3
 72
9
 73
5
 74
0
 42
0.0000001
 43
0.0000001
 44
0.0000000001
 40
0.0
 40
0.0
 40
0.0
 40
0.0
 40
0.2456563032
 40
1.0
 40
1.0
 40
1.0
 40
1.0
 10
39.4640499552
 20
138.4664342013
 30
0.0
 10
39.4722970841
 20
138.4852442577
 30
0.0
 10
39.5057400791
 20
138.5618707878
 30
0.0
 10
39.5385447712
 20
138.6387800501
 30
0.0
 10
39.5626059697
 20
138.6970782645
 30
0.0
  0
SPLINE
  5
4D8
100
AcDbEntity
  8
93780801R00_BL3
100
AcDbSpline
 62
7
  6
CONTINUOUS
 70
0
 71
3
 72
9
 73
5
 74
0
 42
0.0000001
 43
0.0000001
 44
0.0000000001
 40
0.0
 40
0.0
 40
0.0
 40
0.0
 40
0.254687125
 40
1.0
 40
1.0
 40
1.0
 40
1.0
 10
39.5626059697
 20
138.6970782645
 30
0.0
 10
39.5544822219
 20
138.7167614066
 30
0.0
 10
39.5222737396
 20
138.7939165712
 30
0.0
 10
39.4890715477
 20
138.8706530657
 30
0.0
 10
39.4640499552
 20
138.9277223277
 30
0.0
  0
LINE
  5
4D9
100
AcDbEntity
  8
93780801R00_BL3
100
AcDbLine
 62
7
  6
CONTINUOUS
 10
39.4640499552
 20
138.9277223277
 11
39.4499096854
 21
138.9406740455
  0
SPLINE
  5
4DA
100
AcDbEntity
  8
93780801R00_BL3
100
AcDbSpline
 62
7
  6
CONTINUOUS
 70
0
 71
3
 72
9
 73
5
 74
0
 42
0.0000001
 43
0.0000001
 44
0.0000000001
 40
0.0
 40
0.0
 40
0.0
 40
0.0
 40
0.2494291971
 40
1.0
 40
1.0
 40
1.0
 40
1.0
 10
41.3832616377
 20
139.4126211711
 30
0.0
 10
41.3199978536
 20
139.3734338991
 30
0.0
 10
41.0663854064
 20
139.2162910938
 30
0.0
 10
40.8127806952
 20
139.0591344649
 30
0.0
 10
40.6227457276
 20
138.9406740455
 30
0.0
  0
LINE
  5
4DB
100
AcDbEntity
  8
93780801R00_BL3
100
AcDbLine
 62
7
  6
CONTINUOUS
 10
40.6227457276
 20
138.9406740455
 11
40.6086054578
 21
138.9277223277
  0
SPLINE
  5
4DC
100
AcDbEntity
  8
93780801R00_BL3
100
AcDbSpline
 62
7
  6
CONTINUOUS
 70
0
 71
3
 72
9
 73
5
 74
0
 42
0.0000001
 43
0.0000001
 44
0.0000000001
 40
0.0
 40
0.0
 40
0.0
 40
0.0
 40
0.2456563032
 40
1.0
 40
1.0
 40
1.0
 40
1.0
 10
40.6086054578
 20
138.9277223277
 30
0.0
 10
40.6003583288
 20
138.9089122714
 30
0.0
 10
40.5669153339
 20
138.8322857412
 30
0.0
 10
40.5341106418
 20
138.7553764789
 30
0.0
 10
40.5100494433
 20
138.6970782645
 30
0.0
  0
SPLINE
  5
4DD
100
AcDbEntity
  8
93780801R00_BL3
100
AcDbSpline
 62
7
  6
CONTINUOUS
 70
0
 71
3
 72
9
 73
5
 74
0
 42
0.0000001
 43
0.0000001
 44
0.0000000001
 40
0.0
 40
0.0
 40
0.0
 40
0.0
 40
0.254687125
 40
1.0
 40
1.0
 40
1.0
 40
1.0
 10
40.5100494433
 20
138.6970782645
 30
0.0
 10
40.518173191
 20
138.6773951225
 30
0.0
 10
40.5503816734
 20
138.6002399578
 30
0.0
 10
40.5835838653
 20
138.5235034633
 30
0.0
 10
40.6086054578
 20
138.4664342013
 30
0.0
  0
LINE
  5
4DE
100
AcDbEntity
  8
93780801R00_BL3
100
AcDbLine
 62
7
  6
CONTINUOUS
 10
40.6086054578
 20
138.4664342013
 11
40.6227457276
 21
138.4534824835
  0
SPLINE
  5
4DF
100
AcDbEntity
  8
93780801R00_BL3
100
AcDbSpline
 62
7
  6
CONTINUOUS
 70
0
 71
3
 72
9
 73
5
 74
0
 42
0.0000001
 43
0.0000001
 44
0.0000000001
 40
0.0
 40
0.0
 40
0.0
 40
0.0
 40
0.2494291971
 40
1.0
 40
1.0
 40
1.0
 40
1.0
 10
39.3207847999
 20
140.0440121957
 30
0.0
 10
39.3599720719
 20
139.9807484116
 30
0.0
 10
39.5171148772
 20
139.7271359644
 30
0.0
 10
39.6742715061
 20
139.4735312532
 30
0.0
 10
39.7927319255
 20
139.2834962856
 30
0.0
  0
LINE
  5
4E0
100
AcDbEntity
  8
93780801R00_BL3
100
AcDbLine
 62
7
  6
CONTINUOUS
 10
39.7927319255
 20
139.2834962856
 11
39.8056836433
 21
139.2693560158
  0
SPLINE
  5
4E1
100
AcDbEntity
  8
93780801R00_BL3
100
AcDbSpline
 62
7
  6
CONTINUOUS
 70
0
 71
3
 72
9
 73
5
 74
0
 42
0.0000001
 43
0.0000001
 44
0.0000000001
 40
0.0
 40
0.0
 40
0.0
 40
0.0
 40
0.2456563023
 40
1.0
 40
1.0
 40
1.0
 40
1.0
 10
39.8056836433
 20
139.2693560158
 30
0.0
 10
39.8244936996
 20
139.2611088869
 30
0.0
 10
39.9011202298
 20
139.227665892
 30
0.0
 10
39.978029492
 20
139.1948611998
 30
0.0
 10
40.0363277065
 20
139.1708000013
 30
0.0
  0
SPLINE
  5
4E2
100
AcDbEntity
  8
93780801R00_BL3
100
AcDbSpline
 62
7
  6
CONTINUOUS
 70
0
 71
3
 72
9
 73
5
 74
0
 42
0.0000001
 43
0.0000001
 44
0.0000000001
 40
0.0
 40
0.0
 40
0.0
 40
0.0
 40
0.254687126
 40
1.0
 40
1.0
 40
1.0
 40
1.0
 10
40.0363277065
 20
139.1708000013
 30
0.0
 10
40.0560108486
 20
139.1789237491
 30
0.0
 10
40.1331660132
 20
139.2111322314
 30
0.0
 10
40.2099025077
 20
139.2443344234
 30
0.0
 10
40.2669717697
 20
139.2693560158
 30
0.0
  0
LINE
  5
4E3
100
AcDbEntity
  8
93780801R00_BL3
100
AcDbLine
 62
7
  6
CONTINUOUS
 10
40.2669717697
 20
139.2693560158
 11
40.2799234874
 21
139.2834962856
  0
SPLINE
  5
4E4
100
AcDbEntity
  8
93780801R00_BL3
100
AcDbSpline
 62
7
  6
CONTINUOUS
 70
0
 71
3
 72
9
 73
5
 74
0
 42
0.0000001
 43
0.0000001
 44
0.0000000001
 40
0.0
 40
0.0
 40
0.0
 40
0.0
 40
0.2494291971
 40
1.0
 40
1.0
 40
1.0
 40
1.0
 10
40.751870613
 20
137.3501443333
 30
0.0
 10
40.712683341
 20
137.4134081174
 30
0.0
 10
40.5555405357
 20
137.6670205646
 30
0.0
 10
40.3983839068
 20
137.9206252758
 30
0.0
 10
40.2799234874
 20
138.1106602434
 30
0.0
  0
LINE
  5
4E5
100
AcDbEntity
  8
93780801R00_BL3
100
AcDbLine
 62
7
  6
CONTINUOUS
 10
40.2799234874
 20
138.1106602434
 11
40.2669717697
 21
138.1248005132
  0
SPLINE
  5
4E6
100
AcDbEntity
  8
93780801R00_BL3
100
AcDbSpline
 62
7
  6
CONTINUOUS
 70
0
 71
3
 72
9
 73
5
 74
0
 42
0.0000001
 43
0.0000001
 44
0.0000000001
 40
0.0
 40
0.0
 40
0.0
 40
0.0
 40
0.2456563023
 40
1.0
 40
1.0
 40
1.0
 40
1.0
 10
40.2669717697
 20
138.1248005132
 30
0.0
 10
40.2481617134
 20
138.1330476421
 30
0.0
 10
40.1715351832
 20
138.166490637
 30
0.0
 10
40.0946259209
 20
138.1992953292
 30
0.0
 10
40.0363277065
 20
138.2233565277
 30
0.0
  0
SPLINE
  5
4E7
100
AcDbEntity
  8
93780801R00_BL3
100
AcDbSpline
 62
7
  6
CONTINUOUS
 70
0
 71
3
 72
9
 73
5
 74
0
 42
0.0000001
 43
0.0000001
 44
0.0000000001
 40
0.0
 40
0.0
 40
0.0
 40
0.0
 40
0.254687126
 40
1.0
 40
1.0
 40
1.0
 40
1.0
 10
40.0363277065
 20
138.2233565277
 30
0.0
 10
40.0166445643
 20
138.2152327799
 30
0.0
 10
39.9394893997
 20
138.1830242976
 30
0.0
 10
39.8627529052
 20
138.1498221057
 30
0.0
 10
39.8056836433
 20
138.1248005132
 30
0.0
  0
LINE
  5
4E8
100
AcDbEntity
  8
93780801R00_BL3
100
AcDbLine
 62
7
  6
CONTINUOUS
 10
39.8056836433
 20
138.1248005132
 11
39.7927319255
 21
138.1106602434
  0
SPLINE
  5
4E9
100
AcDbEntity
  8
93780801R00_BL3
100
AcDbSpline
 62
7
  6
CONTINUOUS
 70
0
 71
3
 72
10
 73
6
 74
0
 42
0.0000001
 43
0.0000001
 44
0.0000000001
 40
0.0
 40
0.0
 40
0.0
 40
0.0
 40
0.1744759127
 40
0.4139642026
 40
1.0
 40
1.0
 40
1.0
 40
1.0
 10
38.6893937753
 20
139.4126211711
 30
0.0
 10
38.6667357772
 20
139.4266561382
 30
0.0
 10
38.6162028033
 20
139.4649695709
 30
0.0
 10
38.5001943882
 20
139.5643069866
 30
0.0
 10
38.4101303626
 20
139.6528631597
 30
0.0
 10
38.3479431957
 20
139.7172598561
 30
0.0
  0
SPLINE
  5
4EA
100
AcDbEntity
  8
93780801R00_BL3
100
AcDbSpline
 62
7
  6
CONTINUOUS
 70
0
 71
3
 72
10
 73
6
 74
0
 42
0.0000001
 43
0.0000001
 44
0.0000000001
 40
0.0
 40
0.0
 40
0.0
 40
0.0
 40
0.5860357974
 40
0.8255240873
 40
1.0
 40
1.0
 40
1.0
 40
1.0
 10
39.0161461149
 20
140.3854627752
 30
0.0
 10
39.0805428113
 20
140.3232756084
 30
0.0
 10
39.1690989843
 20
140.2332115827
 30
0.0
 10
39.2684364001
 20
140.1172031677
 30
0.0
 10
39.3067498328
 20
140.0666701937
 30
0.0
 10
39.3207847999
 20
140.0440121957
 30
0.0
  0
SPLINE
  5
4EB
100
AcDbEntity
  8
93780801R00_BL3
100
AcDbSpline
 62
7
  6
CONTINUOUS
 70
0
 71
3
 72
10
 73
6
 74
0
 42
0.0000001
 43
0.0000001
 44
0.0000000001
 40
0.0
 40
0.0
 40
0.0
 40
0.0
 40
0.1744759127
 40
0.4139642026
 40
1.0
 40
1.0
 40
1.0
 40
1.0
 10
40.751870613
 20
140.0440121957
 30
0.0
 10
40.7659055802
 20
140.0666701937
 30
0.0
 10
40.8042190128
 20
140.1172031677
 30
0.0
 10
40.9035564286
 20
140.2332115827
 30
0.0
 10
40.9921126017
 20
140.3232756084
 30
0.0
 10
41.0565092981
 20
140.3854627752
 30
0.0
  0
SPLINE
  5
4EC
100
AcDbEntity
  8
93780801R00_BL3
100
AcDbSpline
 62
7
  6
CONTINUOUS
 70
0
 71
3
 72
10
 73
6
 74
0
 42
0.0000001
 43
0.0000001
 44
0.0000000001
 40
0.0
 40
0.0
 40
0.0
 40
0.0
 40
0.5860357974
 40
0.8255240873
 40
1.0
 40
1.0
 40
1.0
 40
1.0
 10
41.7247122172
 20
139.7172598561
 30
0.0
 10
41.6625250504
 20
139.6528631597
 30
0.0
 10
41.5724610247
 20
139.5643069866
 30
0.0
 10
41.4564526096
 20
139.4649695709
 30
0.0
 10
41.4059196357
 20
139.4266561382
 30
0.0
 10
41.3832616377
 20
139.4126211711
 30
0.0
  0
SPLINE
  5
4ED
100
AcDbEntity
  8
93780801R00_BL3
100
AcDbSpline
 62
7
  6
CONTINUOUS
 70
0
 71
3
 72
10
 73
6
 74
0
 42
0.0000001
 43
0.0000001
 44
0.0000000001
 40
0.0
 40
0.0
 40
0.0
 40
0.0
 40
0.1744759127
 40
0.4139642026
 40
1.0
 40
1.0
 40
1.0
 40
1.0
 10
41.3832616377
 20
137.981535358
 30
0.0
 10
41.4059196357
 20
137.9675003908
 30
0.0
 10
41.4564526096
 20
137.9291869582
 30
0.0
 10
41.5724610247
 20
137.8298495424
 30
0.0
 10
41.6625250504
 20
137.7412933693
 30
0.0
 10
41.7247122172
 20
137.6768966729
 30
0.0
  0
SPLINE
  5
4EE
100
AcDbEntity
  8
93780801R00_BL3
100
AcDbSpline
 62
7
  6
CONTINUOUS
 70
0
 71
3
 72
10
 73
6
 74
0
 42
0.0000001
 43
0.0000001
 44
0.0000000001
 40
0.0
 40
0.0
 40
0.0
 40
0.0
 40
0.5860357974
 40
0.8255240873
 40
1.0
 40
1.0
 40
1.0
 40
1.0
 10
41.0565092981
 20
137.0086937538
 30
0.0
 10
40.9921126017
 20
137.0708809206
 30
0.0
 10
40.9035564286
 20
137.1609449463
 30
0.0
 10
40.8042190128
 20
137.2769533613
 30
0.0
 10
40.7659055802
 20
137.3274863353
 30
0.0
 10
40.751870613
 20
137.3501443333
 30
0.0
  0
SPLINE
  5
4EF
100
AcDbEntity
  8
93780801R00_BL3
100
AcDbSpline
 62
7
  6
CONTINUOUS
 70
0
 71
3
 72
10
 73
6
 74
0
 42
0.0000001
 43
0.0000001
 44
0.0000000001
 40
0.0
 40
0.0
 40
0.0
 40
0.0
 40
0.1744759127
 40
0.4139642026
 40
1.0
 40
1.0
 40
1.0
 40
1.0
 10
39.3207847999
 20
137.3501443333
 30
0.0
 10
39.3067498328
 20
137.3274863353
 30
0.0
 10
39.2684364001
 20
137.2769533613
 30
0.0
 10
39.1690989843
 20
137.1609449463
 30
0.0
 10
39.0805428113
 20
137.0708809206
 30
0.0
 10
39.0161461149
 20
137.0086937538
 30
0.0
  0
SPLINE
  5
4F0
100
AcDbEntity
  8
93780801R00_BL3
100
AcDbSpline
 62
7
  6
CONTINUOUS
 70
0
 71
3
 72
10
 73
6
 74
0
 42
0.0000001
 43
0.0000001
 44
0.0000000001
 40
0.0
 40
0.0
 40
0.0
 40
0.0
 40
0.5860357974
 40
0.8255240873
 40
1.0
 40
1.0
 40
1.0
 40
1.0
 10
38.3479431957
 20
137.6768966729
 30
0.0
 10
38.4101303626
 20
137.7412933693
 30
0.0
 10
38.5001943882
 20
137.8298495424
 30
0.0
 10
38.6162028033
 20
137.9291869582
 30
0.0
 10
38.6667357772
 20
137.9675003908
 30
0.0
 10
38.6893937753
 20
137.981535358
 30
0.0
  0
ENDBLK
  5
4F1
100
AcDbEntity
  8
0
  6
BYBLOCK
 62
0
100
AcDbBlockEnd
  0
BLOCK
  5
4F2
100
AcDbEntity
  8
0
100
AcDbBlockBegin
  2
_FILLED
 70
64
 10
0.0
 20
0.0
  3
_FILLED
  1

  0
SOLID
  5
4F3
100
AcDbEntity
  8
0
  6
BYBLOCK
 62
0
100
AcDbTrace
 10
0.0
 20
0.0
 11
-1.0
 21
0.1428571429
 12
-1.0
 22
-0.1428571429
 13
-1.0
 23
-0.1428571429
  0
ENDBLK
  5
4F4
100
AcDbEntity
  8
0
  6
BYBLOCK
 62
0
100
AcDbBlockEnd
  0
BLOCK
  5
4F5
100
AcDbEntity
  8
0
100
AcDbBlockBegin
 62
2
  6
CONTINUOUS
  2
*D0
 70
65
 10
0.0
 20
0.0
  3
*D0
  1

  0
MTEXT
  5
4F6
100
AcDbEntity
  8
0
100
AcDbMText
 62
5
  6
CONTINUOUS
  7
STANDARD
 71
2
 72
1
 10
40.0363277065
 20
103.0120139788
 30
0.0
 11
1.0
 21
0.0
 31
0.0
 73
2
 44
0.9
  1
20
 40
2.5
 41
3.8992537313
  0
LINE
  5
4F7
100
AcDbEntity
  8
0
100
AcDbLine
 62
2
  6
CONTINUOUS
 10
30.0363277065
 20
89.8870139788
 11
30.0363277065
 21
100.8870139788
  0
LINE
  5
4F8
100
AcDbEntity
  8
0
100
AcDbLine
 62
2
  6
CONTINUOUS
 10
50.0363277065
 20
89.8870139788
 11
50.0363277065
 21
100.8870139788
  0
LINE
  5
4F9
100
AcDbEntity
  8
0
100
AcDbLine
 62
2
  6
CONTINUOUS
 10
30.0363277065
 20
99.8870139788
 11
40.0363277065
 21
99.8870139788
  0
LINE
  5
4FA
100
AcDbEntity
  8
0
100
AcDbLine
 62
2
  6
CONTINUOUS
 10
50.0363277065
 20
99.8870139788
 11
40.0363277065
 21
99.8870139788
  0
INSERT
  5
4FB
100
AcDbEntity
  8
0
100
AcDbBlockReference
 62
2
  6
CONTINUOUS
  2
_FILLED
 10
30.0363277065
 20
99.8870139788
 41
3.5
 42
3.5
 43
3.5
 50
180.0
  0
INSERT
  5
4FC
100
AcDbEntity
  8
0
100
AcDbBlockReference
 62
2
  6
CONTINUOUS
  2
_FILLED
 10
50.0363277065
 20
99.8870139788
 41
3.5
 42
3.5
 43
3.5
  0
ENDBLK
  5
4FD
100
AcDbEntity
  8
0
  6
BYBLOCK
 62
0
100
AcDbBlockEnd
  0
BLOCK
  5
4FE
100
AcDbEntity
  8
0
100
AcDbBlockBegin
 62
2
  6
CONTINUOUS
  2
*D1
 70
65
 10
0.0
 20
0.0
  3
*D1
  1

  0
MTEXT
  5
4FF
100
AcDbEntity
  8
0
100
AcDbMText
 62
5
  6
CONTINUOUS
  7
STANDARD
 71
2
 72
1
 10
9.9113277065
 20
162.6970782645
 30
0.0
 11
0.0
 21
1.0
 31
0.0
 73
2
 44
0.9
  1
85
 40
2.5
 41
3.8992537313
  0
LINE
  5
500
100
AcDbEntity
  8
0
100
AcDbLine
 62
2
  6
CONTINUOUS
 10
31.0363277065
 20
120.1970782645
 11
12.0363277065
 21
120.1970782645
  0
LINE
  5
501
100
AcDbEntity
  8
0
100
AcDbLine
 62
2
  6
CONTINUOUS
 10
31.0363277065
 20
205.1970782645
 11
12.0363277065
 21
205.1970782645
  0
LINE
  5
502
100
AcDbEntity
  8
0
100
AcDbLine
 62
2
  6
CONTINUOUS
 10
13.0363277065
 20
120.1970782645
 11
13.0363277065
 21
162.6970782645
  0
LINE
  5
503
100
AcDbEntity
  8
0
100
AcDbLine
 62
2
  6
CONTINUOUS
 10
13.0363277065
 20
205.1970782645
 11
13.0363277065
 21
162.6970782645
  0
INSERT
  5
504
100
AcDbEntity
  8
0
100
AcDbBlockReference
 62
2
  6
CONTINUOUS
  2
_FILLED
 10
13.0363277065
 20
120.1970782645
 41
3.5
 42
3.5
 43
3.5
 50
270.0
  0
INSERT
  5
505
100
AcDbEntity
  8
0
100
AcDbBlockReference
 62
2
  6
CONTINUOUS
  2
_FILLED
 10
13.0363277065
 20
205.1970782645
 41
3.5
 42
3.5
 43
3.5
 50
90.0
  0
ENDBLK
  5
506
100
AcDbEntity
  8
0
  6
BYBLOCK
 62
0
100
AcDbBlockEnd
  0
BLOCK
  5
507
100
AcDbEntity
  8
0
100
AcDbBlockBegin
 62
2
  6
CONTINUOUS
  2
*D2
 70
65
 10
0.0
 20
0.0
  3
*D2
  1

  0
MTEXT
  5
508
100
AcDbEntity
  8
0
100
AcDbMText
 62
5
  6
CONTINUOUS
  7
STANDARD
 71
2
 72
1
 10
56.9113277065
 20
162.6970782645
 30
0.0
 11
0.0
 21
1.0
 31
0.0
 73
2
 44
0.9
  1
69
 40
2.5
 41
3.8992537313
  0
LINE
  5
509
100
AcDbEntity
  8
0
100
AcDbLine
 62
2
  6
CONTINUOUS
 10
41.9727774299
 20
128.1970782645
 11
61.0363277065
 21
128.1970782645
  0
LINE
  5
50A
100
AcDbEntity
  8
0
100
AcDbLine
 62
2
  6
CONTINUOUS
 10
42.1424917156
 20
197.1970782645
 11
61.0363277065
 21
197.1970782645
  0
LINE
  5
50B
100
AcDbEntity
  8
0
100
AcDbLine
 62
2
  6
CONTINUOUS
 10
60.0363277065
 20
128.1970782645
 11
60.0363277065
 21
162.6970782645
  0
LINE
  5
50C
100
AcDbEntity
  8
0
100
AcDbLine
 62
2
  6
CONTINUOUS
 10
60.0363277065
 20
197.1970782645
 11
60.0363277065
 21
162.6970782645
  0
INSERT
  5
50D
100
AcDbEntity
  8
0
100
AcDbBlockReference
 62
2
  6
CONTINUOUS
  2
_FILLED
 10
60.0363277065
 20
128.1970782645
 41
3.5
 42
3.5
 43
3.5
 50
270.0
  0
INSERT
  5
50E
100
AcDbEntity
  8
0
100
AcDbBlockReference
 62
2
  6
CONTINUOUS
  2
_FILLED
 10
60.0363277065
 20
197.1970782645
 41
3.5
 42
3.5
 43
3.5
 50
90.0
  0
ENDBLK
  5
50F
100
AcDbEntity
  8
0
  6
BYBLOCK
 62
0
100
AcDbBlockEnd
  0
BLOCK
  5
510
100
AcDbEntity
  8
0
100
AcDbBlockBegin
 62
2
  6
CONTINUOUS
  2
*D3
 70
65
 10
0.0
 20
0.0
  3
*D3
  1

  0
MTEXT
  5
511
100
AcDbEntity
  8
0
100
AcDbMText
 62
5
  6
CONTINUOUS
  7
STANDARD
 71
2
 72
1
 10
16.9113277065
 20
162.6970782645
 30
0.0
 11
0.0
 21
1.0
 31
0.0
 73
2
 44
0.9
  1
40
 40
2.5
 41
3.8992537313
  0
LINE
  5
512
100
AcDbEntity
  8
0
100
AcDbLine
 62
2
  6
CONTINUOUS
 10
36.3363199887
 20
142.6970782645
 11
19.0363277065
 21
142.6970782645
  0
LINE
  5
513
100
AcDbEntity
  8
0
100
AcDbLine
 62
2
  6
CONTINUOUS
 10
36.3363199887
 20
182.6970782645
 11
19.0363277065
 21
182.6970782645
  0
LINE
  5
514
100
AcDbEntity
  8
0
100
AcDbLine
 62
2
  6
CONTINUOUS
 10
20.0363277065
 20
142.6970782645
 11
20.0363277065
 21
162.6970782645
  0
LINE
  5
515
100
AcDbEntity
  8
0
100
AcDbLine
 62
2
  6
CONTINUOUS
 10
20.0363277065
 20
182.6970782645
 11
20.0363277065
 21
162.6970782645
  0
INSERT
  5
516
100
AcDbEntity
  8
0
100
AcDbBlockReference
 62
2
  6
CONTINUOUS
  2
_FILLED
 10
20.0363277065
 20
142.6970782645
 41
3.5
 42
3.5
 43
3.5
 50
270.0
  0
INSERT
  5
517
100
AcDbEntity
  8
0
100
AcDbBlockReference
 62
2
  6
CONTINUOUS
  2
_FILLED
 10
20.0363277065
 20
182.6970782645
 41
3.5
 42
3.5
 43
3.5
 50
90.0
  0
ENDBLK
  5
518
100
AcDbEntity
  8
0
  6
BYBLOCK
 62
0
100
AcDbBlockEnd
  0
BLOCK
  5
519
100
AcDbEntity
  8
0
100
AcDbBlockBegin
 62
2
  6
CONTINUOUS
  2
*D4
 70
65
 10
0.0
 20
0.0
  3
*D4
  1

  0
MTEXT
  5
51A
100
AcDbEntity
  8
0
100
AcDbMText
 62
5
  6
CONTINUOUS
  7
STANDARD
 71
3
 72
1
 10
87.2374298612
 20
124.2665303729
 30
0.0
 11
0.7302831964
 21
0.6831445331
 31
0.0
 73
2
 44
0.9
  1
R8
 40
2.5
 41
4.4776119403
  0
LINE
  5
51B
100
AcDbEntity
  8
0
100
AcDbLine
 62
2
  6
CONTINUOUS
 10
92.3093692783
 20
124.7319219998
 11
86.1023317671
 21
118.9255392659
  0
INSERT
  5
51C
100
AcDbEntity
  8
0
100
AcDbBlockReference
 62
2
  6
CONTINUOUS
  2
_FILLED
 10
92.3093692783
 20
124.7319219998
 41
3.5
 42
3.5
 43
3.5
 50
43.0898593396
  0
ENDBLK
  5
51D
100
AcDbEntity
  8
0
  6
BYBLOCK
 62
0
100
AcDbBlockEnd
  0
BLOCK
  5
51E
100
AcDbEntity
  8
0
100
AcDbBlockBegin
 62
2
  6
CONTINUOUS
  2
*D5
 70
65
 10
0.0
 20
0.0
  3
*D5
  1

  0
MTEXT
  5
51F
100
AcDbEntity
  8
0
100
AcDbMText
 62
5
  6
CONTINUOUS
  7
STANDARD
 71
3
 72
1
 10
93.7341531707
 20
218.3220782645
 30
0.0
 11
1.0
 21
0.0
 31
0.0
 73
2
 44
0.9
  1
1
 40
2.5
 41
1.9496268657
  0
LINE
  5
520
100
AcDbEntity
  8
0
100
AcDbLine
 62
2
  6
CONTINUOUS
 10
99.6516348493
 20
204.1970782645
 11
99.6516348493
 21
216.1970782645
  0
LINE
  5
521
100
AcDbEntity
  8
0
100
AcDbLine
 62
2
  6
CONTINUOUS
 10
98.6516348493
 20
204.1970782645
 11
98.6516348493
 21
216.1970782645
  0
LINE
  5
522
100
AcDbEntity
  8
0
100
AcDbLine
 62
2
  6
CONTINUOUS
 10
99.6516348493
 20
215.1970782645
 11
106.6516348493
 21
215.1970782645
  0
LINE
  5
523
100
AcDbEntity
  8
0
100
AcDbLine
 62
2
  6
CONTINUOUS
 10
106.6516348493
 20
215.1970782645
 11
99.1516348493
 21
215.1970782645
  0
LINE
  5
524
100
AcDbEntity
  8
0
100
AcDbLine
 62
2
  6
CONTINUOUS
 10
98.6516348493
 20
215.1970782645
 11
91.784526305
 21
215.1970782645
  0
LINE
  5
525
100
AcDbEntity
  8
0
100
AcDbLine
 62
2
  6
CONTINUOUS
 10
91.784526305
 20
215.1970782645
 11
99.1516348493
 21
215.1970782645
  0
INSERT
  5
526
100
AcDbEntity
  8
0
100
AcDbBlockReference
 62
2
  6
CONTINUOUS
  2
_FILLED
 10
99.6516348493
 20
215.1970782645
 41
3.5
 42
3.5
 43
3.5
 50
180.0
  0
INSERT
  5
527
100
AcDbEntity
  8
0
100
AcDbBlockReference
 62
2
  6
CONTINUOUS
  2
_FILLED
 10
98.6516348493
 20
215.1970782645
 41
3.5
 42
3.5
 43
3.5
  0
ENDBLK
  5
528
100
AcDbEntity
  8
0
  6
BYBLOCK
 62
0
100
AcDbBlockEnd
  0
BLOCK
  5
529
100
AcDbEntity
  8
0
100
AcDbBlockBegin
 62
2
  6
CONTINUOUS
  2
*D6
 70
65
 10
0.0
 20
0.0
  3
*D6
  1

  0
MTEXT
  5
52A
100
AcDbEntity
  8
0
100
AcDbMText
 62
5
  6
CONTINUOUS
  7
STANDARD
 71
2
 72
1
 10
94.9016348493
 20
225.3220782645
 30
0.0
 11
1.0
 21
0.0
 31
0.0
 73
2
 44
0.9
  1
9.5
 40
2.5
 41
4.8694029851
  0
LINE
  5
52B
100
AcDbEntity
  8
0
100
AcDbLine
 62
2
  6
CONTINUOUS
 10
99.6516348493
 20
204.1970782645
 11
99.6516348493
 21
223.1970782645
  0
LINE
  5
52C
100
AcDbEntity
  8
0
100
AcDbLine
 62
2
  6
CONTINUOUS
 10
90.1516348493
 20
195.1970782645
 11
90.1516348493
 21
223.1970782645
  0
LINE
  5
52D
100
AcDbEntity
  8
0
100
AcDbLine
 62
2
  6
CONTINUOUS
 10
99.6516348493
 20
222.1970782645
 11
106.6516348493
 21
222.1970782645
  0
LINE
  5
52E
100
AcDbEntity
  8
0
100
AcDbLine
 62
2
  6
CONTINUOUS
 10
106.6516348493
 20
222.1970782645
 11
94.9016348493
 21
222.1970782645
  0
LINE
  5
52F
100
AcDbEntity
  8
0
100
AcDbLine
 62
2
  6
CONTINUOUS
 10
90.1516348493
 20
222.1970782645
 11
83.1516348493
 21
222.1970782645
  0
LINE
  5
530
100
AcDbEntity
  8
0
100
AcDbLine
 62
2
  6
CONTINUOUS
 10
83.1516348493
 20
222.1970782645
 11
94.9016348493
 21
222.1970782645
  0
INSERT
  5
531
100
AcDbEntity
  8
0
100
AcDbBlockReference
 62
2
  6
CONTINUOUS
  2
_FILLED
 10
99.6516348493
 20
222.1970782645
 41
3.5
 42
3.5
 43
3.5
 50
180.0
  0
INSERT
  5
532
100
AcDbEntity
  8
0
100
AcDbBlockReference
 62
2
  6
CONTINUOUS
  2
_FILLED
 10
90.1516348493
 20
222.1970782645
 41
3.5
 42
3.5
 43
3.5
  0
ENDBLK
  5
533
100
AcDbEntity
  8
0
  6
BYBLOCK
 62
0
100
AcDbBlockEnd
  0
ENDSEC
  0
SECTION
  2
ENTITIES
  0
DIMENSION
  5
534
100
AcDbEntity
  8
0
100
AcDbDimension
 62
2
  6
CONTINUOUS
  2
*D0
 10
50.0363277065
 20
99.8870139788
 11
40.010939634
 21
99.8870139788
 70
160
 71
2
 72
2
 41
0.9
 42
20.0
  3
DIMSTYLE_1
100
AcDbAlignedDimension
 13
30.0363277065
 23
89.8870139788
 14
50.0363277065
 24
89.8870139788
100
AcDbRotatedDimension
  0
DIMENSION
  5
535
100
AcDbEntity
  8
0
100
AcDbDimension
 62
2
  6
CONTINUOUS
  2
*D1
 10
13.0363277065
 20
205.1970782645
 11
13.0363277065
 21
162.6996776565
 70
160
 71
2
 72
2
 41
0.9
 42
85.0
  3
DIMSTYLE_2
100
AcDbAlignedDimension
 13
31.0363277065
 23
120.1970782645
 14
31.0363277065
 24
205.1970782645
 50
90.0
100
AcDbRotatedDimension
  0
DIMENSION
  5
536
100
AcDbEntity
  8
0
100
AcDbDimension
 62
2
  6
CONTINUOUS
  2
*D2
 10
60.0363277065
 20
197.1970782645
 11
60.0363277065
 21
162.6950141365
 70
160
 71
2
 72
2
 41
0.9
 42
69.0
  3
DIMSTYLE_2
100
AcDbAlignedDimension
 13
41.9727774299
 23
128.1970782645
 14
42.1424917156
 24
197.1970782645
 50
90.0
100
AcDbRotatedDimension
  0
DIMENSION
  5
537
100
AcDbEntity
  8
0
100
AcDbDimension
 62
2
  6
CONTINUOUS
  2
*D3
 10
20.0363277065
 20
182.6970782645
 11
20.0363277065
 21
162.6437063385
 70
160
 71
2
 72
2
 41
0.9
 42
40.0
  3
DIMSTYLE_2
100
AcDbAlignedDimension
 13
36.3363199887
 23
142.6970782645
 14
36.3363199887
 24
182.6970782645
 50
90.0
100
AcDbRotatedDimension
  0
DIMENSION
  5
538
100
AcDbEntity
  8
0
100
AcDbDimension
 62
2
  6
CONTINUOUS
  2
*D4
 10
98.1516348493
 20
130.1970782645
 11
86.4563981476
 21
121.8242483182
 70
164
 71
3
 72
2
 41
0.9
 42
8.0
  1
R<>
  3
DIMSTYLE_3
100
AcDbRadialDimension
 15
92.3093692783
 25
124.7319219998
  0
DIMENSION
  5
539
100
AcDbEntity
  8
0
100
AcDbDimension
 62
2
  6
CONTINUOUS
  2
*D5
 10
98.6516348493
 20
215.1970782645
 11
92.6380701678
 21
215.1970782645
 70
160
 71
3
 72
2
 41
0.9
 42
1.0
  3
DIMSTYLE_4
100
AcDbAlignedDimension
 13
99.6516348493
 23
204.1970782645
 14
98.6516348493
 24
204.1970782645
 50
180.0
100
AcDbRotatedDimension
  0
DIMENSION
  5
53A
100
AcDbEntity
  8
0
100
AcDbDimension
 62
2
  6
CONTINUOUS
  2
*D6
 10
90.1516348493
 20
222.1970782645
 11
94.9051092665
 21
222.1970782645
 70
160
 71
2
 72
2
 41
0.9
 42
9.5
  3
DIMSTYLE_1
100
AcDbAlignedDimension
 13
99.6516348493
 23
204.1970782645
 14
90.1516348493
 24
195.1970782645
 50
180.0
100
AcDbRotatedDimension
  0
INSERT
  5
53B
100
AcDbEntity
  8
0
100
AcDbBlockReference
 62
2
  6
CONTINUOUS
  2
SCHRIFTKOPF_PRODUKTABBIL_BL4
 10
31.0000000239
 20
34.9999999785
  0
INSERT
  5
53C
100
AcDbEntity
  8
94177300000_BL0
100
AcDbBlockReference
  2
94177300000_BL0
 10
68.0939812779
 20
142.7920461217
  0
INSERT
  5
53D
100
AcDbEntity
  8
94177400000_BL1
100
AcDbBlockReference
  2
94177400000_BL1
 10
65.0939812779
 20
162.6970782645
  0
INSERT
  5
53E
100
AcDbEntity
  8
93780801R00_BL2
100
AcDbBlockReference
  2
93780801R00_BL2
 10
40.8170825614
 20
186.5744711177
  0
INSERT
  5
53F
100
AcDbEntity
  8
93780801R00_BL3
100
AcDbBlockReference
  2
93780801R00_BL3
 10
40.8170825614
 20
138.5744711177
  0
ENDSEC
  0
SECTION
  2
OBJECTS
  0
DICTIONARY
  5
C
100
AcDbDictionary
280
0
281
1
  3
ACAD_GROUP
350
D
  3
ACAD_MLINESTYLE
350
17
  3
ACAD_LAYOUT
350
1A
  3
ACAD_PLOTSETTINGS
350
19
  3
ACAD_PLOTSTYLENAME
350
E
  0
DICTIONARY
  5
D
102
{ACAD_REACTORS
330
C
102
}
100
AcDbDictionary
280
0
281
1
  0
ACDBDICTIONARYWDFLT
  5
E
102
{ACAD_REACTORS
330
C
102
}
100
AcDbDictionary
281
1
  3
Normal
350
F
100
AcDbDictionaryWithDefault
340
F
  0
DICTIONARY
  5
17
102
{ACAD_REACTORS
330
C
102
}
100
AcDbDictionary
280
0
281
1
  3
Standard
350
18
  0
DICTIONARY
  5
19
102
{ACAD_REACTORS
330
C
102
}
100
AcDbDictionary
281
1
  0
DICTIONARY
  5
1A
102
{ACAD_REACTORS
330
C
102
}
100
AcDbDictionary
281
1
  3
Model
350
540
  3
Layout1
350
541
  0
ACDBPLACEHOLDER
  5
F
102
{ACAD_REACTORS
330
E
102
}
  0
MLINESTYLE
  5
18
102
{ACAD_REACTORS
330
17
102
}
100
AcDbMlineStyle
  2
STANDARD
 70
0
  3

 62
256
 51
90.0
 52
90.0
 71
2
 49
0.5
 62
256
  6
BYLAYER
 49
-0.5
 62
256
  6
BYLAYER
  0
LAYOUT
  5
540
102
{ACAD_REACTORS
330
1A
102
}
100
AcDbPlotSettings
  1

  2
none_device
  4

  6

 40
0.0
 41
0.0
 42
0.0
 43
0.0
 44
112.0
 45
233.0
 46
0.0
 47
0.0
 48
0.0
 49
0.0
140
0.0
141
0.0
142
1.0
143
1.0
 70
1024
 72
1
 73
0
 74
0
  7

 75
0
147
1.0
148
0.0
149
0.0
100
AcDbLayout
  1
Model
 70
0
 71
0
 10
0.0
 20
0.0
 11
112.0
 21
233.0
 12
0.0
 22
0.0
 32
0.0
 14
0.0
 24
0.0
 34
0.0
 15
0.0
 25
0.0
 35
0.0
146
0.0
 13
0.0
 23
0.0
 33
0.0
 16
1.0
 26
0.0
 36
0.0
 17
0.0
 27
1.0
 37
0.0
 76
0
330
211
345
0
346
0
  0
LAYOUT
  5
541
102
{ACAD_REACTORS
330
1A
102
}
100
AcDbPlotSettings
  1

  2
none_device
  4

  6

 40
0.0
 41
0.0
 42
0.0
 43
0.0
 44
112.0
 45
233.0
 46
0.0
 47
0.0
 48
0.0
 49
0.0
140
0.0
141
0.0
142
1.0
143
1.0
 70
0
 72
1
 73
0
 74
0
  7

 75
0
147
1.0
148
0.0
149
0.0
100
AcDbLayout
  1
Layout1
 70
0
 71
1
 10
0.0
 20
0.0
 11
112.0
 21
233.0
 12
0.0
 22
0.0
 32
0.0
 14
0.0
 24
0.0
 34
0.0
 15
0.0
 25
0.0
 35
0.0
146
0.0
 13
0.0
 23
0.0
 33
0.0
 16
1.0
 26
0.0
 36
0.0
 17
0.0
 27
1.0
 37
0.0
 76
0
330
212
345
0
346
0
  0
ENDSEC
  0
EOF
