999
DXF file: Z:\Entwicklung\5_Service\1_Beschlagsdaten\4_Schloss\B-1206X\Beschlagdaten\dxf\B-12060-88-L_bd01.dxf
999
Pro/ENGINEER 2018300 by Parametric Technology Corporation
  0
SECTION
  2
HEADER
  9
$ACADVER
  1
AC1021
  9
$DWGCODEPAGE
  3
ANSI_1252
  9
$EXTMAX
 10
594.0
 20
420.0
 30
0.0
  9
$EXTMIN
 10
0.0
 20
0.0
 30
0.0
  9
$LIMMIN
 10
0.0
 20
0.0
  9
$LIMMAX
 10
594.0
 20
420.0
  9
$VIEWCTR
 10
297.0
 20
210.0
  9
$VIEWSIZE
 40
420.0
  9
$CLAYER
  8
0
  9
$LTSCALE
 40
32.67
  9
$CELTYPE
  6
BYLAYER
  9
$DIMSCALE
 40
1.0
  9
$DIMASZ
 40
3.5
  9
$DIMEXO
 40
0.0
  9
$DIMDLI
 40
22.572
  9
$DIMEXE
 40
1.0
  9
$DIMCEN
 40
5.346
  9
$DIMLFAC
 40
1.0
  9
$DIMBLK
  1
_FILLED
  9
$DIMALT
 70
0
  9
$DIMALTF
 40
0.0393700787
  9
$DIMTXT
 40
2.5
  9
$DIMTOL
 70
1
  9
$DIMLIM
 70
0
  9
$DIMTFAC
 40
1.0
  9
$DIMTP
 40
0.001
  9
$DIMTM
 40
0.001
  9
$DIMGAP
 40
0.625
  9
$DIMDSEP
 70
46
  9
$AUNITS
 70
0
  9
$PDMODE
 70
3
  9
$PDSIZE
 40
2.0
  9
$HANDSEED
  5
7D3
  9
$TILEMODE
 70
1
  9
$MEASUREMENT
 70
1
  9
$INSUNITS
 70
4
  0
ENDSEC
  0
SECTION
  2
CLASSES
  0
CLASS
  1
ACDBDICTIONARYWDFLT
  2
AcDbDictionaryWithDefault
  3
AutoCAD 2000
 90
0
 91
1
280
0
281
0
  0
CLASS
  1
ACDBPLACEHOLDER
  2
AcDbPlaceHolder
  3
AutoCAD 2000
 90
0
 91
1
280
0
281
0
  0
CLASS
  1
LAYOUT
  2
AcDbLayout
  3
AutoCAD 2000
 90
0
 91
0
280
0
281
0
  0
CLASS
  1
TABLESTYLE
  2
AcDbTableStyle
  3
ObjectDBX Classes
 90
2047
 91
1
280
0
281
0
  0
CLASS
  1
ACAD_TABLE
  2
AcDbTable
  3
ObjectDBX Classes
 90
1025
 91
1
280
0
281
1
  0
ENDSEC
  0
SECTION
  2
TABLES
  0
TABLE
  2
VPORT
  5
8
100
AcDbSymbolTable
 70
2
  0
VPORT
  5
1F4
100
AcDbSymbolTableRecord
100
AcDbViewportTableRecord
  2
*ACTIVE
 70
0
 10
0.0
 20
0.0
 11
1.0
 21
1.0
 12
297.0
 22
210.0
 13
0.0
 23
0.0
 14
1.0
 24
1.0
 15
0.0
 25
0.0
 16
0.0
 26
0.0
 36
1.0
 17
0.0
 27
0.0
 37
0.0
 40
420.0
 41
1.4142857143
 42
50.0
 43
0.0
 44
0.0
 50
0.0
 51
0.0
 71
0
 72
100
 73
1
 74
1
 75
0
 76
0
 77
0
 78
0
  0
ENDTAB
  0
TABLE
  2
LTYPE
  5
5
100
AcDbSymbolTable
 70
6
  0
LTYPE
  5
14
100
AcDbSymbolTableRecord
100
AcDbLinetypeTableRecord
  2
BYBLOCK
 70
0
  3

 72
65
 73
0
 40
0.0
  0
LTYPE
  5
15
100
AcDbSymbolTableRecord
100
AcDbLinetypeTableRecord
  2
BYLAYER
 70
0
  3

 72
65
 73
0
 40
0.0
  0
LTYPE
  5
16
100
AcDbSymbolTableRecord
100
AcDbLinetypeTableRecord
  2
CONTINUOUS
 70
64
  3
Solid line
 72
65
 73
0
 40
0.0
  0
LTYPE
  5
1F5
100
AcDbSymbolTableRecord
100
AcDbLinetypeTableRecord
  2
CENTER
 70
64
  3
____ _ ____ _ ____ _ ____ _ ____ _ ____ _ ____
 72
65
 73
4
 40
0.6
 49
0.375
 74
0
 49
-0.075
 74
0
 49
0.075
 74
0
 49
-0.075
 74
0
  0
LTYPE
  5
1F6
100
AcDbSymbolTableRecord
100
AcDbLinetypeTableRecord
  2
HIDDEN
 70
64
  3
- - - - - - - - - - - - - - - - - - - -
 72
65
 73
2
 40
0.2
 49
0.1
 74
0
 49
-0.1
 74
0
  0
LTYPE
  5
1F7
100
AcDbSymbolTableRecord
100
AcDbLinetypeTableRecord
  2
PHANTOM
 70
64
  3
_____ _ _ _____ _ _ _____ _ _ _____
 72
65
 73
6
 40
0.8
 49
0.45
 74
0
 49
-0.05
 74
0
 49
0.1
 74
0
 49
-0.05
 74
0
 49
0.1
 74
0
 49
-0.05
 74
0
  0
LTYPE
  5
1F8
100
AcDbSymbolTableRecord
100
AcDbLinetypeTableRecord
  2
DOT
 70
64
  3
. . . . . . . . . . . . . . . . . . . .
 72
65
 73
2
 40
0.2
 49
0.1
 74
0
 49
-0.1
 74
0
  0
LTYPE
  5
1F9
100
AcDbSymbolTableRecord
100
AcDbLinetypeTableRecord
  2
DASHED
 70
64
  3
- - - - - - - - - - - - - - - - - - - -
 72
65
 73
2
 40
0.2
 49
0.1
 74
0
 49
-0.1
 74
0
  0
ENDTAB
  0
TABLE
  2
LAYER
  5
2
100
AcDbSymbolTable
 70
36
  0
LAYER
  5
10
100
AcDbSymbolTableRecord
100
AcDbLayerTableRecord
  2
0
 70
0
 62
7
  6
CONTINUOUS
370
-3
390
F
  0
LAYER
  5
1FA
100
AcDbSymbolTableRecord
100
AcDbLayerTableRecord
  2
DEFAULT_1
 70
0
 62
7
  6
CENTER
370
-3
390
F
  0
LAYER
  5
1FB
100
AcDbSymbolTableRecord
100
AcDbLayerTableRecord
  2
DEFAULT_2
 70
0
 62
8
  6
HIDDEN
370
-3
390
F
  0
LAYER
  5
1FC
100
AcDbSymbolTableRecord
100
AcDbLayerTableRecord
  2
DEFAULT_3
 70
0
 62
7
  6
PHANTOM
370
-3
390
F
  0
LAYER
  5
1FD
100
AcDbSymbolTableRecord
100
AcDbLayerTableRecord
  2
ACHSEN
 70
0
 62
7
  6
CONTINUOUS
370
-3
390
F
  0
LAYER
  5
1FE
100
AcDbSymbolTableRecord
100
AcDbLayerTableRecord
  2
AXIS
 70
0
 62
7
  6
CONTINUOUS
370
-3
390
F
  0
LAYER
  5
1FF
100
AcDbSymbolTableRecord
100
AcDbLayerTableRecord
  2
COORDSYS
 70
0
 62
7
  6
CONTINUOUS
370
-3
390
F
  0
LAYER
  5
200
100
AcDbSymbolTableRecord
100
AcDbLayerTableRecord
  2
CURVES
 70
0
 62
7
  6
CONTINUOUS
370
-3
390
F
  0
LAYER
  5
201
100
AcDbSymbolTableRecord
100
AcDbLayerTableRecord
  2
EBENEN
 70
0
 62
7
  6
CONTINUOUS
370
-3
390
F
  0
LAYER
  5
202
100
AcDbSymbolTableRecord
100
AcDbLayerTableRecord
  2
EINBAU
 70
0
 62
7
  6
CONTINUOUS
370
-3
390
F
  0
LAYER
  5
203
100
AcDbSymbolTableRecord
100
AcDbLayerTableRecord
  2
GEOMETRISCHETOLERANZ
 70
0
 62
7
  6
CONTINUOUS
370
-3
390
F
  0
LAYER
  5
204
100
AcDbSymbolTableRecord
100
AcDbLayerTableRecord
  2
GEOMETRISCHE_TOLERANZ
 70
0
 62
7
  6
CONTINUOUS
370
-3
390
F
  0
LAYER
  5
205
100
AcDbSymbolTableRecord
100
AcDbLayerTableRecord
  2
GEOMETRISCHE_TOLERANZEN
 70
0
 62
7
  6
CONTINUOUS
370
-3
390
F
  0
LAYER
  5
206
100
AcDbSymbolTableRecord
100
AcDbLayerTableRecord
  2
GEWINDE
 70
0
 62
7
  6
CONTINUOUS
370
-3
390
F
  0
LAYER
  5
207
100
AcDbSymbolTableRecord
100
AcDbLayerTableRecord
  2
HIDDEN
 70
0
 62
7
  6
CONTINUOUS
370
-3
390
F
  0
LAYER
  5
208
100
AcDbSymbolTableRecord
100
AcDbLayerTableRecord
  2
HIDDEN_BAUGRUPPE
 70
0
 62
7
  6
CONTINUOUS
370
-3
390
F
  0
LAYER
  5
209
100
AcDbSymbolTableRecord
100
AcDbLayerTableRecord
  2
HILFSMASSE_ZEICHNUNG
 70
0
 62
7
  6
CONTINUOUS
370
-3
390
F
  0
LAYER
  5
20A
100
AcDbSymbolTableRecord
100
AcDbLayerTableRecord
  2
PLANES
 70
0
 62
7
  6
CONTINUOUS
370
-3
390
F
  0
LAYER
  5
20B
100
AcDbSymbolTableRecord
100
AcDbLayerTableRecord
  2
POINTS
 70
0
 62
7
  6
CONTINUOUS
370
-3
390
F
  0
LAYER
  5
20C
100
AcDbSymbolTableRecord
100
AcDbLayerTableRecord
  2
S-ACHSEN
 70
0
 62
7
  6
CONTINUOUS
370
-3
390
F
  0
LAYER
  5
20D
100
AcDbSymbolTableRecord
100
AcDbLayerTableRecord
  2
S-AXIS
 70
0
 62
7
  6
CONTINUOUS
370
-3
390
F
  0
LAYER
  5
20E
100
AcDbSymbolTableRecord
100
AcDbLayerTableRecord
  2
S-COORDSYS
 70
0
 62
7
  6
CONTINUOUS
370
-3
390
F
  0
LAYER
  5
20F
100
AcDbSymbolTableRecord
100
AcDbLayerTableRecord
  2
S-EBENEN
 70
0
 62
7
  6
CONTINUOUS
370
-3
390
F
  0
LAYER
  5
210
100
AcDbSymbolTableRecord
100
AcDbLayerTableRecord
  2
S-KOORDSYS
 70
0
 62
7
  6
CONTINUOUS
370
-3
390
F
  0
LAYER
  5
211
100
AcDbSymbolTableRecord
100
AcDbLayerTableRecord
  2
S-PLANES
 70
0
 62
7
  6
CONTINUOUS
370
-3
390
F
  0
LAYER
  5
212
100
AcDbSymbolTableRecord
100
AcDbLayerTableRecord
  2
SKIZZE
 70
0
 62
7
  6
CONTINUOUS
370
-3
390
F
  0
LAYER
  5
213
100
AcDbSymbolTableRecord
100
AcDbLayerTableRecord
  2
SKIZZE_KONTUR-0-4
 70
0
 62
7
  6
CONTINUOUS
370
-3
390
F
  0
LAYER
  5
214
100
AcDbSymbolTableRecord
100
AcDbLayerTableRecord
  2
THREADS
 70
0
 62
7
  6
CONTINUOUS
370
-3
390
F
  0
LAYER
  5
215
100
AcDbSymbolTableRecord
100
AcDbLayerTableRecord
  2
XSEC_DATUMS
 70
0
 62
7
  6
CONTINUOUS
370
-3
390
F
  0
LAYER
  5
216
100
AcDbSymbolTableRecord
100
AcDbLayerTableRecord
  2
Grp_symbol_75_BL0
 70
0
 62
7
  6
CONTINUOUS
370
-3
390
F
  0
LAYER
  5
217
100
AcDbSymbolTableRecord
100
AcDbLayerTableRecord
  2
Grp_symbol_75_BL1
 70
0
 62
7
  6
CONTINUOUS
370
-3
390
F
  0
LAYER
  5
218
100
AcDbSymbolTableRecord
100
AcDbLayerTableRecord
  2
X14022004_BL2
 70
0
 62
7
  6
CONTINUOUS
370
-3
390
F
  0
LAYER
  5
219
100
AcDbSymbolTableRecord
100
AcDbLayerTableRecord
  2
X14200002_BL3
 70
0
 62
7
  6
CONTINUOUS
370
-3
390
F
  0
LAYER
  5
21A
100
AcDbSymbolTableRecord
100
AcDbLayerTableRecord
  2
X14110002_BL4
 70
0
 62
7
  6
CONTINUOUS
370
-3
390
F
  0
LAYER
  5
21B
100
AcDbSymbolTableRecord
100
AcDbLayerTableRecord
  2
X14454000_BL5
 70
0
 62
7
  6
CONTINUOUS
370
-3
390
F
  0
LAYER
  5
21C
100
AcDbSymbolTableRecord
100
AcDbLayerTableRecord
  2
X14306012_BL6
 70
0
 62
7
  6
CONTINUOUS
370
-3
390
F
  0
LAYER
  5
21D
100
AcDbSymbolTableRecord
100
AcDbLayerTableRecord
  2
X14624000_BL7
 70
0
 62
7
  6
CONTINUOUS
370
-3
390
F
  0
LAYER
  5
21E
100
AcDbSymbolTableRecord
100
AcDbLayerTableRecord
  2
X01041000_A1_BL8
 70
0
 62
7
  6
CONTINUOUS
370
-3
390
F
  0
LAYER
  5
21F
100
AcDbSymbolTableRecord
100
AcDbLayerTableRecord
  2
X14506001_BL9
 70
0
 62
7
  6
CONTINUOUS
370
-3
390
F
  0
LAYER
  5
220
100
AcDbSymbolTableRecord
100
AcDbLayerTableRecord
  2
X01040000_A1_BL10
 70
0
 62
7
  6
CONTINUOUS
370
-3
390
F
  0
LAYER
  5
221
100
AcDbSymbolTableRecord
100
AcDbLayerTableRecord
  2
X14507001_BL11
 70
0
 62
7
  6
CONTINUOUS
370
-3
390
F
  0
LAYER
  5
222
100
AcDbSymbolTableRecord
100
AcDbLayerTableRecord
  2
X14453002_BL12
 70
0
 62
7
  6
CONTINUOUS
370
-3
390
F
  0
LAYER
  5
223
100
AcDbSymbolTableRecord
100
AcDbLayerTableRecord
  2
X01822001_BL13
 70
0
 62
7
  6
CONTINUOUS
370
-3
390
F
  0
LAYER
  5
224
100
AcDbSymbolTableRecord
100
AcDbLayerTableRecord
  2
X14700000_BL14
 70
0
 62
7
  6
CONTINUOUS
370
-3
390
F
  0
LAYER
  5
225
100
AcDbSymbolTableRecord
100
AcDbLayerTableRecord
  2
X00210000_BL15
 70
0
 62
7
  6
CONTINUOUS
370
-3
390
F
  0
LAYER
  5
226
100
AcDbSymbolTableRecord
100
AcDbLayerTableRecord
  2
X01822001_BL16
 70
0
 62
7
  6
CONTINUOUS
370
-3
390
F
  0
LAYER
  5
227
100
AcDbSymbolTableRecord
100
AcDbLayerTableRecord
  2
X01822001_BL17
 70
0
 62
7
  6
CONTINUOUS
370
-3
390
F
  0
ENDTAB
  0
TABLE
  2
STYLE
  5
3
100
AcDbSymbolTable
 70
1
  0
STYLE
  5
11
100
AcDbSymbolTableRecord
100
AcDbTextStyleTableRecord
  2
STANDARD
 70
0
 40
0.0
 41
1.0
 50
0.0
 71
0
 42
0.2
  3
arialuni.ttf
  4

  0
STYLE
  5
228
100
AcDbSymbolTableRecord
100
AcDbTextStyleTableRecord
  2
TEXTSTYLE_1
 70
0
 40
0.0
 41
0.8
 50
0.0
 71
0
 42
0.2
  3
gdt
  4

  0
ENDTAB
  0
TABLE
  2
VIEW
  5
6
100
AcDbSymbolTable
 70
0
  0
ENDTAB
  0
TABLE
  2
UCS
  5
7
100
AcDbSymbolTable
 70
0
  0
ENDTAB
  0
TABLE
  2
APPID
  5
9
100
AcDbSymbolTable
 70
1
  0
APPID
  5
229
100
AcDbSymbolTableRecord
100
AcDbRegAppTableRecord
  2
ACAD
 70
0
  0
ENDTAB
  0
TABLE
  2
BLOCK_RECORD
  5
1
100
AcDbSymbolTable
 70
0
  0
BLOCK_RECORD
  5
22A
100
AcDbSymbolTableRecord
100
AcDbBlockTableRecord
  2
*Model_Space
  0
BLOCK_RECORD
  5
22B
100
AcDbSymbolTableRecord
100
AcDbBlockTableRecord
  2
*Paper_Space
  0
BLOCK_RECORD
  5
22C
100
AcDbSymbolTableRecord
100
AcDbBlockTableRecord
  2
_FILLED
  0
BLOCK_RECORD
  5
22D
100
AcDbSymbolTableRecord
100
AcDbBlockTableRecord
  2
*D0
  0
BLOCK_RECORD
  5
22E
100
AcDbSymbolTableRecord
100
AcDbBlockTableRecord
  2
*D1
  0
BLOCK_RECORD
  5
22F
100
AcDbSymbolTableRecord
100
AcDbBlockTableRecord
  2
*D2
  0
BLOCK_RECORD
  5
230
100
AcDbSymbolTableRecord
100
AcDbBlockTableRecord
  2
*D3
  0
BLOCK_RECORD
  5
231
100
AcDbSymbolTableRecord
100
AcDbBlockTableRecord
  2
*D4
  0
BLOCK_RECORD
  5
232
100
AcDbSymbolTableRecord
100
AcDbBlockTableRecord
  2
*D5
  0
BLOCK_RECORD
  5
233
100
AcDbSymbolTableRecord
100
AcDbBlockTableRecord
  2
*D6
  0
BLOCK_RECORD
  5
234
100
AcDbSymbolTableRecord
100
AcDbBlockTableRecord
  2
*D7
  0
BLOCK_RECORD
  5
235
100
AcDbSymbolTableRecord
100
AcDbBlockTableRecord
  2
*D8
  0
BLOCK_RECORD
  5
236
100
AcDbSymbolTableRecord
100
AcDbBlockTableRecord
  2
*D9
  0
BLOCK_RECORD
  5
237
100
AcDbSymbolTableRecord
100
AcDbBlockTableRecord
  2
*D10
  0
BLOCK_RECORD
  5
238
100
AcDbSymbolTableRecord
100
AcDbBlockTableRecord
  2
*D11
  0
BLOCK_RECORD
  5
239
100
AcDbSymbolTableRecord
100
AcDbBlockTableRecord
  2
*D12
  0
BLOCK_RECORD
  5
23A
100
AcDbSymbolTableRecord
100
AcDbBlockTableRecord
  2
*D13
  0
BLOCK_RECORD
  5
23B
100
AcDbSymbolTableRecord
100
AcDbBlockTableRecord
  2
*D14
  0
BLOCK_RECORD
  5
23C
100
AcDbSymbolTableRecord
100
AcDbBlockTableRecord
  2
*D15
  0
BLOCK_RECORD
  5
23D
100
AcDbSymbolTableRecord
100
AcDbBlockTableRecord
  2
*D16
  0
BLOCK_RECORD
  5
23E
100
AcDbSymbolTableRecord
100
AcDbBlockTableRecord
  2
*D17
  0
BLOCK_RECORD
  5
23F
100
AcDbSymbolTableRecord
100
AcDbBlockTableRecord
  2
*D18
  0
BLOCK_RECORD
  5
240
100
AcDbSymbolTableRecord
100
AcDbBlockTableRecord
  2
*D19
  0
BLOCK_RECORD
  5
241
100
AcDbSymbolTableRecord
100
AcDbBlockTableRecord
  2
*D20
  0
BLOCK_RECORD
  5
242
100
AcDbSymbolTableRecord
100
AcDbBlockTableRecord
  2
*D21
  0
BLOCK_RECORD
  5
243
100
AcDbSymbolTableRecord
100
AcDbBlockTableRecord
  2
*D22
  0
BLOCK_RECORD
  5
244
100
AcDbSymbolTableRecord
100
AcDbBlockTableRecord
  2
*D23
  0
BLOCK_RECORD
  5
245
100
AcDbSymbolTableRecord
100
AcDbBlockTableRecord
  2
*D24
  0
BLOCK_RECORD
  5
246
100
AcDbSymbolTableRecord
100
AcDbBlockTableRecord
  2
*D25
  0
BLOCK_RECORD
  5
247
100
AcDbSymbolTableRecord
100
AcDbBlockTableRecord
  2
*D26
  0
BLOCK_RECORD
  5
248
100
AcDbSymbolTableRecord
100
AcDbBlockTableRecord
  2
*D27
  0
BLOCK_RECORD
  5
249
100
AcDbSymbolTableRecord
100
AcDbBlockTableRecord
  2
*D28
  0
BLOCK_RECORD
  5
24A
100
AcDbSymbolTableRecord
100
AcDbBlockTableRecord
  2
*D29
  0
BLOCK_RECORD
  5
24B
100
AcDbSymbolTableRecord
100
AcDbBlockTableRecord
  2
*D30
  0
BLOCK_RECORD
  5
24C
100
AcDbSymbolTableRecord
100
AcDbBlockTableRecord
  2
*D31
  0
BLOCK_RECORD
  5
24D
100
AcDbSymbolTableRecord
100
AcDbBlockTableRecord
  2
*D32
  0
BLOCK_RECORD
  5
24E
100
AcDbSymbolTableRecord
100
AcDbBlockTableRecord
  2
*D33
  0
BLOCK_RECORD
  5
24F
100
AcDbSymbolTableRecord
100
AcDbBlockTableRecord
  2
*D34
  0
BLOCK_RECORD
  5
250
100
AcDbSymbolTableRecord
100
AcDbBlockTableRecord
  2
*D35
  0
BLOCK_RECORD
  5
251
100
AcDbSymbolTableRecord
100
AcDbBlockTableRecord
  2
*D36
  0
BLOCK_RECORD
  5
252
100
AcDbSymbolTableRecord
100
AcDbBlockTableRecord
  2
*D37
  0
BLOCK_RECORD
  5
253
100
AcDbSymbolTableRecord
100
AcDbBlockTableRecord
  2
*D38
  0
BLOCK_RECORD
  5
254
100
AcDbSymbolTableRecord
100
AcDbBlockTableRecord
  2
*D39
  0
BLOCK_RECORD
  5
255
100
AcDbSymbolTableRecord
100
AcDbBlockTableRecord
  2
*D40
  0
BLOCK_RECORD
  5
256
100
AcDbSymbolTableRecord
100
AcDbBlockTableRecord
  2
*D41
  0
BLOCK_RECORD
  5
257
100
AcDbSymbolTableRecord
100
AcDbBlockTableRecord
  2
GRP_SYMBOL_75_BL0
  0
BLOCK_RECORD
  5
258
100
AcDbSymbolTableRecord
100
AcDbBlockTableRecord
  2
GRP_SYMBOL_75_BL1
  0
BLOCK_RECORD
  5
259
100
AcDbSymbolTableRecord
100
AcDbBlockTableRecord
  2
X14022004_BL2
  0
BLOCK_RECORD
  5
25A
100
AcDbSymbolTableRecord
100
AcDbBlockTableRecord
  2
X14200002_BL3
  0
BLOCK_RECORD
  5
25B
100
AcDbSymbolTableRecord
100
AcDbBlockTableRecord
  2
X14110002_BL4
  0
BLOCK_RECORD
  5
25C
100
AcDbSymbolTableRecord
100
AcDbBlockTableRecord
  2
X14454000_BL5
  0
BLOCK_RECORD
  5
25D
100
AcDbSymbolTableRecord
100
AcDbBlockTableRecord
  2
X14306012_BL6
  0
BLOCK_RECORD
  5
25E
100
AcDbSymbolTableRecord
100
AcDbBlockTableRecord
  2
X14624000_BL7
  0
BLOCK_RECORD
  5
25F
100
AcDbSymbolTableRecord
100
AcDbBlockTableRecord
  2
X01041000_A1_BL8
  0
BLOCK_RECORD
  5
260
100
AcDbSymbolTableRecord
100
AcDbBlockTableRecord
  2
X14506001_BL9
  0
BLOCK_RECORD
  5
261
100
AcDbSymbolTableRecord
100
AcDbBlockTableRecord
  2
X01040000_A1_BL10
  0
BLOCK_RECORD
  5
262
100
AcDbSymbolTableRecord
100
AcDbBlockTableRecord
  2
X14507001_BL11
  0
BLOCK_RECORD
  5
263
100
AcDbSymbolTableRecord
100
AcDbBlockTableRecord
  2
X14453002_BL12
  0
BLOCK_RECORD
  5
264
100
AcDbSymbolTableRecord
100
AcDbBlockTableRecord
  2
X01822001_BL13
  0
BLOCK_RECORD
  5
265
100
AcDbSymbolTableRecord
100
AcDbBlockTableRecord
  2
X14700000_BL14
  0
BLOCK_RECORD
  5
266
100
AcDbSymbolTableRecord
100
AcDbBlockTableRecord
  2
X00210000_BL15
  0
BLOCK_RECORD
  5
267
100
AcDbSymbolTableRecord
100
AcDbBlockTableRecord
  2
X01822001_BL16
  0
BLOCK_RECORD
  5
268
100
AcDbSymbolTableRecord
100
AcDbBlockTableRecord
  2
X01822001_BL17
  0
BLOCK_RECORD
  5
269
100
AcDbSymbolTableRecord
100
AcDbBlockTableRecord
  2
*T1
  0
ENDTAB
  0
TABLE
  2
DIMSTYLE
  5
A
100
AcDbSymbolTable
 70
1
100
AcDbDimStyleTable
 71
0
  0
DIMSTYLE
105
26A
100
AcDbSymbolTableRecord
100
AcDbDimStyleTableRecord
  2
STANDARD
 70
0
  3

  4

 40
1.0
 41
3.5
 42
0.0
 43
0.38
 44
1.0
 45
0.0
 46
0.0
 47
0.001
 48
0.001
140
2.5
141
0.09
142
0.0
143
25.4
144
1.0
145
0.0
146
1.0
147
0.625
 71
1.0
 72
0.0
 73
0
 74
0
 75
0
 76
0
 77
1
 78
8
 79
2
170
0
171
2
172
0
173
0
174
0
175
0
176
0
177
0
178
5
270
2
179
3
271
3
272
3
273
2
274
2
275
0
280
0
281
0
282
0
283
1
284
8
285
0
286
0
287
3
288
0
340
11
278
46
341
22C
342
22C
343
22C
344
22C
  0
DIMSTYLE
105
26B
100
AcDbSymbolTableRecord
100
AcDbDimStyleTableRecord
  2
DIMSTYLE_1
 70
0
  3

  4

 40
1.0
 41
3.5
 42
0.0
 43
0.38
 44
1.0
 45
0.0
 46
0.0
 47
0.3
 48
0.3
140
4.0
141
0.09
142
0.0
143
25.4
144
1.0
145
0.0
146
1.0
147
1.0
 71
0.0
 72
0.0
 73
0
 74
0
 75
0
 76
0
 77
1
 78
8
 79
2
170
0
171
2
172
0
173
0
174
0
175
0
176
0
177
0
178
5
270
2
179
3
271
3
272
3
273
2
274
2
275
0
280
0
281
0
282
0
283
1
284
8
285
0
286
0
287
3
288
0
340
11
278
46
341
22C
342
22C
343
22C
344
22C
  0
DIMSTYLE
105
26C
100
AcDbSymbolTableRecord
100
AcDbDimStyleTableRecord
  2
DIMSTYLE_2
 70
0
  3

  4

 40
1.0
 41
3.5
 42
0.0
 43
0.38
 44
1.0
 45
0.0
 46
0.0
 47
0.3
 48
0.3
140
4.0
141
0.09
142
0.0
143
25.4
144
1.0
145
0.0
146
1.0
147
1.0
 71
0.0
 72
0.0
 73
0
 74
0
 75
0
 76
0
 77
1
 78
8
 79
2
170
0
171
2
172
0
173
0
174
0
175
0
176
0
177
0
178
5
270
2
179
3
271
0
272
0
273
2
274
2
275
0
280
0
281
0
282
0
283
1
284
8
285
0
286
0
287
3
288
0
340
11
278
46
341
22C
342
22C
343
22C
344
22C
  0
DIMSTYLE
105
26D
100
AcDbSymbolTableRecord
100
AcDbDimStyleTableRecord
  2
DIMSTYLE_3
 70
0
  3

  4

 40
1.0
 41
3.5
 42
0.0
 43
0.38
 44
1.0
 45
0.0
 46
0.0
 47
0.1
 48
0.1
140
4.0
141
0.09
142
0.0
143
25.4
144
1.0
145
0.0
146
1.0
147
1.0
 71
0.0
 72
0.0
 73
0
 74
0
 75
0
 76
0
 77
1
 78
8
 79
2
170
0
171
2
172
0
173
0
174
0
175
0
176
0
177
0
178
5
270
2
179
3
271
3
272
3
273
2
274
2
275
0
280
0
281
0
282
0
283
1
284
8
285
0
286
0
287
3
288
0
340
11
278
46
341
22C
342
22C
343
22C
344
22C
  0
DIMSTYLE
105
26E
100
AcDbSymbolTableRecord
100
AcDbDimStyleTableRecord
  2
DIMSTYLE_4
 70
0
  3

  4

 40
1.0
 41
3.5
 42
0.0
 43
0.38
 44
1.0
 45
0.0
 46
0.0
 47
0.5
 48
0.5
140
4.0
141
0.09
142
0.0
143
25.4
144
1.0
145
0.0
146
1.0
147
1.0
 71
0.0
 72
0.0
 73
0
 74
0
 75
0
 76
0
 77
1
 78
8
 79
2
170
0
171
2
172
0
173
0
174
0
175
0
176
0
177
0
178
5
270
2
179
3
271
3
272
3
273
2
274
2
275
0
280
0
281
0
282
0
283
1
284
8
285
0
286
0
287
3
288
0
340
11
278
46
341
22C
342
22C
343
22C
344
22C
  0
DIMSTYLE
105
26F
100
AcDbSymbolTableRecord
100
AcDbDimStyleTableRecord
  2
DIMSTYLE_5
 70
0
  3

  4

 40
1.0
 41
3.5
 42
0.0
 43
0.38
 44
1.0
 45
0.0
 46
0.0
 47
0.2
 48
0.2
140
4.0
141
0.09
142
0.0
143
25.4
144
1.0
145
0.0
146
1.0
147
1.0
 71
0.0
 72
0.0
 73
0
 74
0
 75
0
 76
0
 77
1
 78
8
 79
2
170
0
171
2
172
0
173
0
174
0
175
0
176
0
177
0
178
5
270
2
179
3
271
0
272
0
273
2
274
2
275
0
280
0
281
0
282
0
283
1
284
8
285
0
286
0
287
3
288
0
340
11
278
46
341
22C
342
22C
343
22C
344
22C
  0
DIMSTYLE
105
270
100
AcDbSymbolTableRecord
100
AcDbDimStyleTableRecord
  2
DIMSTYLE_6
 70
0
  3

  4

 40
1.0
 41
3.5
 42
0.0
 43
0.38
 44
1.0
 45
0.0
 46
0.0
 47
0.2
 48
0.2
140
4.0
141
0.09
142
0.0
143
25.4
144
1.0
145
0.0
146
1.0
147
1.0
 71
0.0
 72
0.0
 73
0
 74
0
 75
0
 76
0
 77
1
 78
8
 79
2
170
0
171
2
172
0
173
0
174
0
175
0
176
0
177
0
178
5
270
2
179
3
271
3
272
3
273
2
274
2
275
0
280
0
281
0
282
0
283
1
284
8
285
0
286
0
287
3
288
0
340
11
278
46
341
22C
342
22C
343
22C
344
22C
  0
DIMSTYLE
105
271
100
AcDbSymbolTableRecord
100
AcDbDimStyleTableRecord
  2
DIMSTYLE_7
 70
0
  3

  4

 40
1.0
 41
3.5
 42
0.0
 43
0.38
 44
1.0
 45
0.0
 46
0.0
 47
0.1
 48
0.1
140
4.0
141
0.09
142
0.0
143
25.4
144
1.0
145
0.0
146
1.0
147
1.0
 71
0.0
 72
0.0
 73
0
 74
0
 75
0
 76
0
 77
1
 78
8
 79
2
170
0
171
2
172
0
173
0
174
0
175
0
176
0
177
0
178
5
270
2
179
3
271
0
272
0
273
2
274
2
275
0
280
0
281
0
282
0
283
1
284
8
285
0
286
0
287
3
288
0
340
11
278
46
341
22C
342
22C
343
22C
344
22C
  0
DIMSTYLE
105
272
100
AcDbSymbolTableRecord
100
AcDbDimStyleTableRecord
  2
DIMSTYLE_8
 70
0
  3

  4

 40
1.0
 41
3.5
 42
0.0
 43
0.38
 44
1.0
 45
0.0
 46
0.0
 47
0.5
 48
0.5
140
4.0
141
0.09
142
0.0
143
25.4
144
1.0
145
0.0
146
1.0
147
1.0
 71
0.0
 72
0.0
 73
0
 74
0
 75
0
 76
0
 77
1
 78
8
 79
2
170
0
171
2
172
0
173
0
174
0
175
0
176
0
177
0
178
5
270
2
179
3
271
0
272
0
273
2
274
2
275
0
280
0
281
0
282
0
283
1
284
8
285
0
286
0
287
3
288
0
340
11
278
46
341
22C
342
22C
343
22C
344
22C
  0
DIMSTYLE
105
273
100
AcDbSymbolTableRecord
100
AcDbDimStyleTableRecord
  2
DIMSTYLE_9
 70
0
  3

  4

 40
1.0
 41
3.5
 42
0.0
 43
0.38
 44
1.0
 45
0.0
 46
0.0
 47
0.5
 48
0.5
140
4.0
141
0.09
142
0.0
143
25.4
144
1.0
145
0.0
146
1.0
147
4.0
 71
0.0
 72
0.0
 73
0
 74
0
 75
0
 76
0
 77
1
 78
8
 79
2
170
0
171
2
172
0
173
0
174
0
175
0
176
0
177
0
178
5
270
2
179
3
271
2
272
2
273
2
274
2
275
0
280
0
281
0
282
0
283
1
284
8
285
0
286
0
287
3
288
0
340
11
278
46
341
22C
342
22C
343
22C
344
22C
  0
ENDTAB
  0
ENDSEC
  0
SECTION
  2
BLOCKS
  0
BLOCK
  5
20
100
AcDbEntity
  8
0
100
AcDbBlockBegin
  2
*Model_Space
 70
0
 10
0.0
 20
0.0
 30
0.0
  3
*Model_Space
  1

  0
ENDBLK
  5
21
100
AcDbEntity
  8
0
100
AcDbBlockEnd
  0
BLOCK
  5
1C
100
AcDbEntity
  8
0
100
AcDbBlockBegin
  2
*Paper_Space
 70
0
 10
0.0
 20
0.0
 30
0.0
  3
*Paper_Space
  1

  0
ENDBLK
  5
1D
100
AcDbEntity
  8
0
100
AcDbBlockEnd
  0
BLOCK
  5
274
100
AcDbEntity
  8
Grp_symbol_75_BL0
100
AcDbBlockBegin
  2
GRP_SYMBOL_75_BL0
 70
64
 10
46.0313322015
 20
45.3702309773
  3
GRP_SYMBOL_75_BL0
  1

  0
LWPOLYLINE
  5
275
100
AcDbEntity
  8
Grp_symbol_75_BL0
100
AcDbPolyline
 62
2
  6
CONTINUOUS
 90
42
 70
0
 10
32.6708225945
 20
52.8632866819
 10
32.8033569672
 20
52.8702316825
 10
59.2593074357
 20
52.8702316825
 10
59.3918418085
 20
52.8632866819
 10
59.5229241069
 20
52.8425266799
 10
59.6511181658
 20
52.8081766767
 10
59.7750194645
 20
52.7606116722
 10
59.8932705142
 20
52.7003566665
 10
60.0045757318
 20
52.6280716597
 10
60.1077156339
 20
52.5445516519
 10
60.2015601983
 20
52.4507116431
 10
60.2850812443
 20
52.3475716334
 10
60.3573636977
 20
52.2362716229
 10
60.417615617
 20
52.1180116118
 10
60.4651768694
 20
51.9941116001
 10
60.499526364
 20
51.8659215881
 10
60.5202877605
 20
51.7348365758
 10
60.5272335926
 20
51.6022965633
 10
39.6846378094
 20
50.6960704153
 10
38.8673148432
 20
50.5461217603
 10
38.0816303182
 20
50.2755644516
 10
37.3452748301
 20
49.8904904
 10
36.6748282744
 20
49.399569993
 10
36.0853865306
 20
48.8138568714
 10
35.5902215614
 20
48.1465390435
 10
35.2004825787
 20
47.4126419421
 10
31.5354308103
 20
39.1381503914
 10
31.5354308103
 20
51.6022965633
 10
31.5423766425
 20
51.7348365758
 10
31.563138039
 20
51.8659215881
 10
31.5974875335
 20
51.9941116001
 10
31.645048786
 20
52.1180116118
 10
31.7053007052
 20
52.2362716229
 10
31.7775831587
 20
52.3475716334
 10
31.8611042047
 20
52.4507116431
 10
31.9549487691
 20
52.5445516519
 10
32.0580886712
 20
52.6280716597
 10
32.1693938888
 20
52.7003566665
 10
32.2876449385
 20
52.7606116722
 10
32.4115462371
 20
52.8081766767
 10
32.5397402961
 20
52.8425266799
 10
32.6708225945
 20
52.8632866819
  0
HATCH
  5
276
100
AcDbEntity
  8
Grp_symbol_75_BL0
100
AcDbHatch
 62
2
  6
CONTINUOUS
 10
0.0
 20
0.0
 30
0.0
210
0.0
220
0.0
230
1.0
  2
SOLID
 70
1
 71
1
 91
1
 92
1
 93
41
 72
1
 10
32.6708225945
 20
52.8632866819
 11
32.8033569672
 21
52.8702316825
 72
1
 10
32.8033569672
 20
52.8702316825
 11
59.2593074357
 21
52.8702316825
 72
1
 10
59.2593074357
 20
52.8702316825
 11
59.3918418085
 21
52.8632866819
 72
1
 10
59.3918418085
 20
52.8632866819
 11
59.5229241069
 21
52.8425266799
 72
1
 10
59.5229241069
 20
52.8425266799
 11
59.6511181658
 21
52.8081766767
 72
1
 10
59.6511181658
 20
52.8081766767
 11
59.7750194645
 21
52.7606116722
 72
1
 10
59.7750194645
 20
52.7606116722
 11
59.8932705142
 21
52.7003566665
 72
1
 10
59.8932705142
 20
52.7003566665
 11
60.0045757318
 21
52.6280716597
 72
1
 10
60.0045757318
 20
52.6280716597
 11
60.1077156339
 21
52.5445516519
 72
1
 10
60.1077156339
 20
52.5445516519
 11
60.2015601983
 21
52.4507116431
 72
1
 10
60.2015601983
 20
52.4507116431
 11
60.2850812443
 21
52.3475716334
 72
1
 10
60.2850812443
 20
52.3475716334
 11
60.3573636977
 21
52.2362716229
 72
1
 10
60.3573636977
 20
52.2362716229
 11
60.417615617
 21
52.1180116118
 72
1
 10
60.417615617
 20
52.1180116118
 11
60.4651768694
 21
51.9941116001
 72
1
 10
60.4651768694
 20
51.9941116001
 11
60.499526364
 21
51.8659215881
 72
1
 10
60.499526364
 20
51.8659215881
 11
60.5202877605
 21
51.7348365758
 72
1
 10
60.5202877605
 20
51.7348365758
 11
60.5272335926
 21
51.6022965633
 72
1
 10
60.5272335926
 20
51.6022965633
 11
39.6846378094
 21
50.6960704153
 72
1
 10
39.6846378094
 20
50.6960704153
 11
38.8673148432
 21
50.5461217603
 72
1
 10
38.8673148432
 20
50.5461217603
 11
38.0816303182
 21
50.2755644516
 72
1
 10
38.0816303182
 20
50.2755644516
 11
37.3452748301
 21
49.8904904
 72
1
 10
37.3452748301
 20
49.8904904
 11
36.6748282744
 21
49.399569993
 72
1
 10
36.6748282744
 20
49.399569993
 11
36.0853865306
 21
48.8138568714
 72
1
 10
36.0853865306
 20
48.8138568714
 11
35.5902215614
 21
48.1465390435
 72
1
 10
35.5902215614
 20
48.1465390435
 11
35.2004825787
 21
47.4126419421
 72
1
 10
35.2004825787
 20
47.4126419421
 11
31.5354308103
 21
39.1381503914
 72
1
 10
31.5354308103
 20
39.1381503914
 11
31.5354308103
 21
51.6022965633
 72
1
 10
31.5354308103
 20
51.6022965633
 11
31.5423766425
 21
51.7348365758
 72
1
 10
31.5423766425
 20
51.7348365758
 11
31.563138039
 21
51.8659215881
 72
1
 10
31.563138039
 20
51.8659215881
 11
31.5974875335
 21
51.9941116001
 72
1
 10
31.5974875335
 20
51.9941116001
 11
31.645048786
 21
52.1180116118
 72
1
 10
31.645048786
 20
52.1180116118
 11
31.7053007052
 21
52.2362716229
 72
1
 10
31.7053007052
 20
52.2362716229
 11
31.7775831587
 21
52.3475716334
 72
1
 10
31.7775831587
 20
52.3475716334
 11
31.8611042047
 21
52.4507116431
 72
1
 10
31.8611042047
 20
52.4507116431
 11
31.9549487691
 21
52.5445516519
 72
1
 10
31.9549487691
 20
52.5445516519
 11
32.0580886712
 21
52.6280716597
 72
1
 10
32.0580886712
 20
52.6280716597
 11
32.1693938888
 21
52.7003566665
 72
1
 10
32.1693938888
 20
52.7003566665
 11
32.2876449385
 21
52.7606116722
 72
1
 10
32.2876449385
 20
52.7606116722
 11
32.4115462371
 21
52.8081766767
 72
1
 10
32.4115462371
 20
52.8081766767
 11
32.5397402961
 21
52.8425266799
 72
1
 10
32.5397402961
 20
52.8425266799
 11
32.6708225945
 21
52.8632866819
 97
1
330
275
 75
0
 76
1
 98
1
 10
0.0
 20
0.0
  0
LWPOLYLINE
  5
277
100
AcDbEntity
  8
Grp_symbol_75_BL0
100
AcDbPolyline
 62
2
  6
CONTINUOUS
 90
23
 70
0
 10
42.1413386508
 20
50.4024732666
 10
41.3402891657
 20
50.6234283584
 10
60.5272335926
 20
51.6022965633
 10
60.5272335926
 20
39.1381503914
 10
55.3142405583
 20
41.5606656191
 10
55.5399649733
 20
42.0183906622
 10
55.7040133356
 20
42.5016607076
 10
55.8035787321
 20
43.0022107547
 10
55.8369575714
 20
43.5114758026
 10
55.8369575714
 20
50.4336914534
 10
53.1100238229
 20
50.4336914534
 10
50.7606655166
 20
50.4336914534
 10
48.0337317682
 20
50.4336914534
 10
48.0337317682
 20
46.2908410639
 10
46.1892744124
 20
46.2908410639
 10
45.8033102597
 20
45.4663749692
 10
45.6996269413
 20
46.2908410639
 10
42.5685234878
 20
46.8109733705
 10
44.7608619995
 20
48.4332185325
 10
44.2249831132
 20
49.068305337
 10
43.6001085705
 20
49.6160582339
 10
42.9003081443
 20
50.0641439329
 10
42.1413386508
 20
50.4024732666
  0
HATCH
  5
278
100
AcDbEntity
  8
Grp_symbol_75_BL0
100
AcDbHatch
 62
2
  6
CONTINUOUS
 10
0.0
 20
0.0
 30
0.0
210
0.0
220
0.0
230
1.0
  2
SOLID
 70
1
 71
1
 91
1
 92
1
 93
22
 72
1
 10
42.1413386508
 20
50.4024732666
 11
41.3402891657
 21
50.6234283584
 72
1
 10
41.3402891657
 20
50.6234283584
 11
60.5272335926
 21
51.6022965633
 72
1
 10
60.5272335926
 20
51.6022965633
 11
60.5272335926
 21
39.1381503914
 72
1
 10
60.5272335926
 20
39.1381503914
 11
55.3142405583
 21
41.5606656191
 72
1
 10
55.3142405583
 20
41.5606656191
 11
55.5399649733
 21
42.0183906622
 72
1
 10
55.5399649733
 20
42.0183906622
 11
55.7040133356
 21
42.5016607076
 72
1
 10
55.7040133356
 20
42.5016607076
 11
55.8035787321
 21
43.0022107547
 72
1
 10
55.8035787321
 20
43.0022107547
 11
55.8369575714
 21
43.5114758026
 72
1
 10
55.8369575714
 20
43.5114758026
 11
55.8369575714
 21
50.4336914534
 72
1
 10
55.8369575714
 20
50.4336914534
 11
53.1100238229
 21
50.4336914534
 72
1
 10
53.1100238229
 20
50.4336914534
 11
50.7606655166
 21
50.4336914534
 72
1
 10
50.7606655166
 20
50.4336914534
 11
48.0337317682
 21
50.4336914534
 72
1
 10
48.0337317682
 20
50.4336914534
 11
48.0337317682
 21
46.2908410639
 72
1
 10
48.0337317682
 20
46.2908410639
 11
46.1892744124
 21
46.2908410639
 72
1
 10
46.1892744124
 20
46.2908410639
 11
45.8033102597
 21
45.4663749692
 72
1
 10
45.8033102597
 20
45.4663749692
 11
45.6996269413
 21
46.2908410639
 72
1
 10
45.6996269413
 20
46.2908410639
 11
42.5685234878
 21
46.8109733705
 72
1
 10
42.5685234878
 20
46.8109733705
 11
44.7608619995
 21
48.4332185325
 72
1
 10
44.7608619995
 20
48.4332185325
 11
44.2249831132
 21
49.068305337
 72
1
 10
44.2249831132
 20
49.068305337
 11
43.6001085705
 21
49.6160582339
 72
1
 10
43.6001085705
 20
49.6160582339
 11
42.9003081443
 21
50.0641439329
 72
1
 10
42.9003081443
 20
50.0641439329
 11
42.1413386508
 21
50.4024732666
 97
1
330
277
 75
0
 76
1
 98
1
 10
0.0
 20
0.0
  0
LWPOLYLINE
  5
279
100
AcDbEntity
  8
Grp_symbol_75_BL0
100
AcDbPolyline
 62
2
  6
CONTINUOUS
 90
20
 70
0
 10
39.6749131296
 20
47.9361736442
 10
40.0816097509
 20
47.9939363459
 10
40.4923823569
 20
47.9918061653
 10
40.8984580303
 20
47.929828597
 10
41.2911641668
 20
47.809327303
 10
41.6621136967
 20
47.632875843
 10
42.0033842089
 20
47.4042427111
 10
42.3076871501
 20
47.1283108509
 10
42.5685234878
 20
46.8109733705
 10
45.6996269413
 20
46.2908410639
 10
40.3773408591
 20
46.2908410639
 10
40.2335973619
 20
46.2814237765
 10
37.6157342322
 20
46.1075338206
 10
37.7778955351
 20
46.4849492195
 10
37.993333509
 20
46.8346993459
 10
38.2574470207
 20
47.1493145464
 10
38.564595368
 20
47.4220755485
 10
38.9082187486
 20
47.6471569645
 10
39.2809783589
 20
47.8197517049
 10
39.6749131296
 20
47.9361736442
  0
HATCH
  5
27A
100
AcDbEntity
  8
Grp_symbol_75_BL0
100
AcDbHatch
 62
2
  6
CONTINUOUS
 10
0.0
 20
0.0
 30
0.0
210
0.0
220
0.0
230
1.0
  2
SOLID
 70
1
 71
1
 91
1
 92
1
 93
19
 72
1
 10
39.6749131296
 20
47.9361736442
 11
40.0816097509
 21
47.9939363459
 72
1
 10
40.0816097509
 20
47.9939363459
 11
40.4923823569
 21
47.9918061653
 72
1
 10
40.4923823569
 20
47.9918061653
 11
40.8984580303
 21
47.929828597
 72
1
 10
40.8984580303
 20
47.929828597
 11
41.2911641668
 21
47.809327303
 72
1
 10
41.2911641668
 20
47.809327303
 11
41.6621136967
 21
47.632875843
 72
1
 10
41.6621136967
 20
47.632875843
 11
42.0033842089
 21
47.4042427111
 72
1
 10
42.0033842089
 20
47.4042427111
 11
42.3076871501
 21
47.1283108509
 72
1
 10
42.3076871501
 20
47.1283108509
 11
42.5685234878
 21
46.8109733705
 72
1
 10
42.5685234878
 20
46.8109733705
 11
45.6996269413
 21
46.2908410639
 72
1
 10
45.6996269413
 20
46.2908410639
 11
40.3773408591
 21
46.2908410639
 72
1
 10
40.3773408591
 20
46.2908410639
 11
40.2335973619
 21
46.2814237765
 72
1
 10
40.2335973619
 20
46.2814237765
 11
37.6157342322
 21
46.1075338206
 72
1
 10
37.6157342322
 20
46.1075338206
 11
37.7778955351
 21
46.4849492195
 72
1
 10
37.7778955351
 20
46.4849492195
 11
37.993333509
 21
46.8346993459
 72
1
 10
37.993333509
 20
46.8346993459
 11
38.2574470207
 21
47.1493145464
 72
1
 10
38.2574470207
 20
47.1493145464
 11
38.564595368
 21
47.4220755485
 72
1
 10
38.564595368
 20
47.4220755485
 11
38.9082187486
 21
47.6471569645
 72
1
 10
38.9082187486
 20
47.6471569645
 11
39.2809783589
 21
47.8197517049
 72
1
 10
39.2809783589
 20
47.8197517049
 11
39.6749131296
 21
47.9361736442
 97
1
330
279
 75
0
 76
1
 98
1
 10
0.0
 20
0.0
  0
LWPOLYLINE
  5
27B
100
AcDbEntity
  8
Grp_symbol_75_BL0
100
AcDbPolyline
 62
2
  6
CONTINUOUS
 90
8
 70
0
 10
39.826710006
 20
46.1433041307
 10
39.7069352092
 20
46.0632731701
 10
37.5103128979
 20
45.7105136526
 10
37.6157342322
 20
46.1075338206
 10
40.2335973619
 20
46.2814237765
 10
40.0923133559
 20
46.2533206404
 10
39.9559062495
 20
46.2070166672
 10
39.826710006
 20
46.1433041307
  0
HATCH
  5
27C
100
AcDbEntity
  8
Grp_symbol_75_BL0
100
AcDbHatch
 62
2
  6
CONTINUOUS
 10
0.0
 20
0.0
 30
0.0
210
0.0
220
0.0
230
1.0
  2
SOLID
 70
1
 71
1
 91
1
 92
1
 93
7
 72
1
 10
39.826710006
 20
46.1433041307
 11
39.7069352092
 21
46.0632731701
 72
1
 10
39.7069352092
 20
46.0632731701
 11
37.5103128979
 21
45.7105136526
 72
1
 10
37.5103128979
 20
45.7105136526
 11
37.6157342322
 21
46.1075338206
 72
1
 10
37.6157342322
 20
46.1075338206
 11
40.2335973619
 21
46.2814237765
 72
1
 10
40.2335973619
 20
46.2814237765
 11
40.0923133559
 21
46.2533206404
 72
1
 10
40.0923133559
 20
46.2533206404
 11
39.9559062495
 21
46.2070166672
 72
1
 10
39.9559062495
 20
46.2070166672
 11
39.826710006
 21
46.1433041307
 97
1
330
27B
 75
0
 76
1
 98
1
 10
0.0
 20
0.0
  0
LWPOLYLINE
  5
27D
100
AcDbEntity
  8
Grp_symbol_75_BL0
100
AcDbPolyline
 62
2
  6
CONTINUOUS
 90
8
 70
0
 10
39.4236202454
 20
45.74021437
 10
39.3599077089
 20
45.6110181266
 10
37.4638830276
 20
45.3023679205
 10
37.5103128979
 20
45.7105136526
 10
39.7069352092
 20
46.0632731701
 10
39.5986312388
 20
45.9682931372
 10
39.503651206
 20
45.8599891669
 10
39.4236202454
 20
45.74021437
  0
HATCH
  5
27E
100
AcDbEntity
  8
Grp_symbol_75_BL0
100
AcDbHatch
 62
2
  6
CONTINUOUS
 10
0.0
 20
0.0
 30
0.0
210
0.0
220
0.0
230
1.0
  2
SOLID
 70
1
 71
1
 91
1
 92
1
 93
7
 72
1
 10
39.4236202454
 20
45.74021437
 11
39.3599077089
 21
45.6110181266
 72
1
 10
39.3599077089
 20
45.6110181266
 11
37.4638830276
 21
45.3023679205
 72
1
 10
37.4638830276
 20
45.3023679205
 11
37.5103128979
 21
45.7105136526
 72
1
 10
37.5103128979
 20
45.7105136526
 11
39.7069352092
 21
46.0632731701
 72
1
 10
39.7069352092
 20
46.0632731701
 11
39.5986312388
 21
45.9682931372
 72
1
 10
39.5986312388
 20
45.9682931372
 11
39.503651206
 21
45.8599891669
 72
1
 10
39.503651206
 20
45.8599891669
 11
39.4236202454
 21
45.74021437
 97
1
330
27D
 75
0
 76
1
 98
1
 10
0.0
 20
0.0
  0
LWPOLYLINE
  5
27F
100
AcDbEntity
  8
Grp_symbol_75_BL0
100
AcDbPolyline
 62
2
  6
CONTINUOUS
 90
7
 70
0
 10
46.2736494707
 20
45.6638131348
 10
46.2905728887
 20
45.347811003
 10
45.7824600606
 20
44.6356724356
 10
45.8033102597
 20
45.4663749692
 10
46.1892744124
 20
46.2908410639
 10
46.2398510687
 20
45.9784580416
 10
46.2736494707
 20
45.6638131348
  0
HATCH
  5
280
100
AcDbEntity
  8
Grp_symbol_75_BL0
100
AcDbHatch
 62
2
  6
CONTINUOUS
 10
0.0
 20
0.0
 30
0.0
210
0.0
220
0.0
230
1.0
  2
SOLID
 70
1
 71
1
 91
1
 92
1
 93
6
 72
1
 10
46.2736494707
 20
45.6638131348
 11
46.2905728887
 21
45.347811003
 72
1
 10
46.2905728887
 20
45.347811003
 11
45.7824600606
 21
44.6356724356
 72
1
 10
45.7824600606
 20
44.6356724356
 11
45.8033102597
 21
45.4663749692
 72
1
 10
45.8033102597
 20
45.4663749692
 11
46.1892744124
 21
46.2908410639
 72
1
 10
46.1892744124
 20
46.2908410639
 11
46.2398510687
 21
45.9784580416
 72
1
 10
46.2398510687
 20
45.9784580416
 11
46.2736494707
 21
45.6638131348
 97
1
330
27F
 75
0
 76
1
 98
1
 10
0.0
 20
0.0
  0
LWPOLYLINE
  5
281
100
AcDbEntity
  8
Grp_symbol_75_BL0
100
AcDbPolyline
 62
2
  6
CONTINUOUS
 90
7
 70
0
 10
39.2855005996
 20
45.3333270141
 10
39.276079153
 20
45.189583517
 10
37.4774362291
 20
44.8918134391
 10
37.4638830276
 20
45.3023679205
 10
39.3599077089
 20
45.6110181266
 10
39.3136037357
 20
45.4746110202
 10
39.2855005996
 20
45.3333270141
  0
HATCH
  5
282
100
AcDbEntity
  8
Grp_symbol_75_BL0
100
AcDbHatch
 62
2
  6
CONTINUOUS
 10
0.0
 20
0.0
 30
0.0
210
0.0
220
0.0
230
1.0
  2
SOLID
 70
1
 71
1
 91
1
 92
1
 93
6
 72
1
 10
39.2855005996
 20
45.3333270141
 11
39.276079153
 21
45.189583517
 72
1
 10
39.276079153
 20
45.189583517
 11
37.4774362291
 21
44.8918134391
 72
1
 10
37.4774362291
 20
44.8918134391
 11
37.4638830276
 21
45.3023679205
 72
1
 10
37.4638830276
 20
45.3023679205
 11
39.3599077089
 21
45.6110181266
 72
1
 10
39.3599077089
 20
45.6110181266
 11
39.3136037357
 21
45.4746110202
 72
1
 10
39.3136037357
 20
45.4746110202
 11
39.2855005996
 21
45.3333270141
 97
1
330
281
 75
0
 76
1
 98
1
 10
0.0
 20
0.0
  0
LWPOLYLINE
  5
283
100
AcDbEntity
  8
Grp_symbol_75_BL0
100
AcDbPolyline
 62
2
  6
CONTINUOUS
 90
7
 70
0
 10
39.3136037357
 20
44.9045560138
 10
39.3599077089
 20
44.7681489074
 10
37.5506830454
 20
44.487618467
 10
37.4774362291
 20
44.8918134391
 10
39.276079153
 20
45.189583517
 10
39.2855005996
 20
45.0458400199
 10
39.3136037357
 20
44.9045560138
  0
HATCH
  5
284
100
AcDbEntity
  8
Grp_symbol_75_BL0
100
AcDbHatch
 62
2
  6
CONTINUOUS
 10
0.0
 20
0.0
 30
0.0
210
0.0
220
0.0
230
1.0
  2
SOLID
 70
1
 71
1
 91
1
 92
1
 93
6
 72
1
 10
39.3136037357
 20
44.9045560138
 11
39.3599077089
 21
44.7681489074
 72
1
 10
39.3599077089
 20
44.7681489074
 11
37.5506830454
 21
44.487618467
 72
1
 10
37.5506830454
 20
44.487618467
 11
37.4774362291
 21
44.8918134391
 72
1
 10
37.4774362291
 20
44.8918134391
 11
39.276079153
 21
45.189583517
 72
1
 10
39.276079153
 20
45.189583517
 11
39.2855005996
 21
45.0458400199
 72
1
 10
39.2855005996
 20
45.0458400199
 11
39.3136037357
 21
44.9045560138
 97
1
330
283
 75
0
 76
1
 98
1
 10
0.0
 20
0.0
  0
LWPOLYLINE
  5
285
100
AcDbEntity
  8
Grp_symbol_75_BL0
100
AcDbPolyline
 62
2
  6
CONTINUOUS
 90
7
 70
0
 10
46.2736494707
 20
44.7153538992
 10
46.2398510687
 20
44.4007089924
 10
45.6375458103
 20
43.8174418506
 10
45.7824600606
 20
44.6356724356
 10
46.2905728887
 20
45.347811003
 10
46.2905728887
 20
45.031356031
 10
46.2736494707
 20
44.7153538992
  0
HATCH
  5
286
100
AcDbEntity
  8
Grp_symbol_75_BL0
100
AcDbHatch
 62
2
  6
CONTINUOUS
 10
0.0
 20
0.0
 30
0.0
210
0.0
220
0.0
230
1.0
  2
SOLID
 70
1
 71
1
 91
1
 92
1
 93
6
 72
1
 10
46.2736494707
 20
44.7153538992
 11
46.2398510687
 21
44.4007089924
 72
1
 10
46.2398510687
 20
44.4007089924
 11
45.6375458103
 21
43.8174418506
 72
1
 10
45.6375458103
 20
43.8174418506
 11
45.7824600606
 21
44.6356724356
 72
1
 10
45.7824600606
 20
44.6356724356
 11
46.2905728887
 21
45.347811003
 72
1
 10
46.2905728887
 20
45.347811003
 11
46.2905728887
 21
45.031356031
 72
1
 10
46.2905728887
 20
45.031356031
 11
46.2736494707
 21
44.7153538992
 97
1
330
285
 75
0
 76
1
 98
1
 10
0.0
 20
0.0
  0
LWPOLYLINE
  5
287
100
AcDbEntity
  8
Grp_symbol_75_BL0
100
AcDbPolyline
 62
2
  6
CONTINUOUS
 90
7
 70
0
 10
39.503651206
 20
44.5191778671
 10
39.5986312388
 20
44.4108738968
 10
37.6820591357
 20
44.0984154424
 10
37.5506830454
 20
44.487618467
 10
39.3599077089
 20
44.7681489074
 10
39.4236202454
 20
44.638952664
 10
39.503651206
 20
44.5191778671
  0
HATCH
  5
288
100
AcDbEntity
  8
Grp_symbol_75_BL0
100
AcDbHatch
 62
2
  6
CONTINUOUS
 10
0.0
 20
0.0
 30
0.0
210
0.0
220
0.0
230
1.0
  2
SOLID
 70
1
 71
1
 91
1
 92
1
 93
6
 72
1
 10
39.503651206
 20
44.5191778671
 11
39.5986312388
 21
44.4108738968
 72
1
 10
39.5986312388
 20
44.4108738968
 11
37.6820591357
 21
44.0984154424
 72
1
 10
37.6820591357
 20
44.0984154424
 11
37.5506830454
 21
44.487618467
 72
1
 10
37.5506830454
 20
44.487618467
 11
39.3599077089
 21
44.7681489074
 72
1
 10
39.3599077089
 20
44.7681489074
 11
39.4236202454
 21
44.638952664
 72
1
 10
39.4236202454
 20
44.638952664
 11
39.503651206
 21
44.5191778671
 97
1
330
287
 75
0
 76
1
 98
1
 10
0.0
 20
0.0
  0
LWPOLYLINE
  5
289
100
AcDbEntity
  8
Grp_symbol_75_BL0
100
AcDbPolyline
 62
2
  6
CONTINUOUS
 90
9
 70
0
 10
40.0923133559
 20
44.1258463936
 10
40.2335973619
 20
44.0977432575
 10
37.8687586861
 20
43.7325166184
 10
37.6820591357
 20
44.0984154424
 10
39.5986312388
 20
44.4108738968
 10
39.7069352092
 20
44.315893864
 10
39.826710006
 20
44.2358629033
 10
39.9559062495
 20
44.1721503668
 10
40.0923133559
 20
44.1258463936
  0
HATCH
  5
28A
100
AcDbEntity
  8
Grp_symbol_75_BL0
100
AcDbHatch
 62
2
  6
CONTINUOUS
 10
0.0
 20
0.0
 30
0.0
210
0.0
220
0.0
230
1.0
  2
SOLID
 70
1
 71
1
 91
1
 92
1
 93
8
 72
1
 10
40.0923133559
 20
44.1258463936
 11
40.2335973619
 21
44.0977432575
 72
1
 10
40.2335973619
 20
44.0977432575
 11
37.8687586861
 21
43.7325166184
 72
1
 10
37.8687586861
 20
43.7325166184
 11
37.6820591357
 21
44.0984154424
 72
1
 10
37.6820591357
 20
44.0984154424
 11
39.5986312388
 21
44.4108738968
 72
1
 10
39.5986312388
 20
44.4108738968
 11
39.7069352092
 21
44.315893864
 72
1
 10
39.7069352092
 20
44.315893864
 11
39.826710006
 21
44.2358629033
 72
1
 10
39.826710006
 20
44.2358629033
 11
39.9559062495
 21
44.1721503668
 72
1
 10
39.9559062495
 20
44.1721503668
 11
40.0923133559
 21
44.1258463936
 97
1
330
289
 75
0
 76
1
 98
1
 10
0.0
 20
0.0
  0
LWPOLYLINE
  5
28B
100
AcDbEntity
  8
Grp_symbol_75_BL0
100
AcDbPolyline
 62
2
  6
CONTINUOUS
 90
9
 70
0
 10
48.0337317682
 20
44.0883158568
 10
48.0337317682
 20
43.5114758026
 10
48.0671106073
 20
43.0022107547
 10
44.9912967811
 20
42.2913945137
 10
45.3718304207
 20
43.0301066222
 10
45.6375458103
 20
43.8174418506
 10
46.2398510687
 20
44.4007089924
 10
46.1892744124
 20
44.0883158568
 10
48.0337317682
 20
44.0883158568
  0
HATCH
  5
28C
100
AcDbEntity
  8
Grp_symbol_75_BL0
100
AcDbHatch
 62
2
  6
CONTINUOUS
 10
0.0
 20
0.0
 30
0.0
210
0.0
220
0.0
230
1.0
  2
SOLID
 70
1
 71
1
 91
1
 92
1
 93
8
 72
1
 10
48.0337317682
 20
44.0883158568
 11
48.0337317682
 21
43.5114758026
 72
1
 10
48.0337317682
 20
43.5114758026
 11
48.0671106073
 21
43.0022107547
 72
1
 10
48.0671106073
 20
43.0022107547
 11
44.9912967811
 21
42.2913945137
 72
1
 10
44.9912967811
 20
42.2913945137
 11
45.3718304207
 21
43.0301066222
 72
1
 10
45.3718304207
 20
43.0301066222
 11
45.6375458103
 21
43.8174418506
 72
1
 10
45.6375458103
 20
43.8174418506
 11
46.2398510687
 21
44.4007089924
 72
1
 10
46.2398510687
 20
44.4007089924
 11
46.1892744124
 21
44.0883158568
 72
1
 10
46.1892744124
 20
44.0883158568
 11
48.0337317682
 21
44.0883158568
 97
1
330
28B
 75
0
 76
1
 98
1
 10
0.0
 20
0.0
  0
LWPOLYLINE
  5
28D
100
AcDbEntity
  8
Grp_symbol_75_BL0
100
AcDbPolyline
 62
2
  6
CONTINUOUS
 90
19
 70
0
 10
42.8585834601
 20
44.0883158568
 10
42.670458413
 20
43.7231538521
 10
42.4311190153
 20
43.3893045984
 10
42.1456768657
 20
43.0939041062
 10
41.8202281848
 20
42.8432612775
 10
41.4617236169
 20
42.6427291197
 10
41.077819785
 20
42.4965904208
 10
40.6767157667
 20
42.4079662817
 10
40.2669779863
 20
42.3787494582
 10
39.85735726
 20
42.4095639373
 10
39.4566019044
 20
42.4997516106
 10
39.0732708971
 20
42.6473863299
 10
38.715551082
 20
42.8493150435
 10
38.3910823218
 20
43.101225137
 10
38.1067943329
 20
43.3977365379
 10
37.8687586861
 20
43.7325166184
 10
40.2335973619
 20
44.0977432575
 10
40.3773408591
 20
44.0883158568
 10
42.8585834601
 20
44.0883158568
  0
HATCH
  5
28E
100
AcDbEntity
  8
Grp_symbol_75_BL0
100
AcDbHatch
 62
2
  6
CONTINUOUS
 10
0.0
 20
0.0
 30
0.0
210
0.0
220
0.0
230
1.0
  2
SOLID
 70
1
 71
1
 91
1
 92
1
 93
18
 72
1
 10
42.8585834601
 20
44.0883158568
 11
42.670458413
 21
43.7231538521
 72
1
 10
42.670458413
 20
43.7231538521
 11
42.4311190153
 21
43.3893045984
 72
1
 10
42.4311190153
 20
43.3893045984
 11
42.1456768657
 21
43.0939041062
 72
1
 10
42.1456768657
 20
43.0939041062
 11
41.8202281848
 21
42.8432612775
 72
1
 10
41.8202281848
 20
42.8432612775
 11
41.4617236169
 21
42.6427291197
 72
1
 10
41.4617236169
 20
42.6427291197
 11
41.077819785
 21
42.4965904208
 72
1
 10
41.077819785
 20
42.4965904208
 11
40.6767157667
 21
42.4079662817
 72
1
 10
40.6767157667
 20
42.4079662817
 11
40.2669779863
 21
42.3787494582
 72
1
 10
40.2669779863
 20
42.3787494582
 11
39.85735726
 21
42.4095639373
 72
1
 10
39.85735726
 20
42.4095639373
 11
39.4566019044
 21
42.4997516106
 72
1
 10
39.4566019044
 20
42.4997516106
 11
39.0732708971
 21
42.6473863299
 72
1
 10
39.0732708971
 20
42.6473863299
 11
38.715551082
 21
42.8493150435
 72
1
 10
38.715551082
 20
42.8493150435
 11
38.3910823218
 21
43.101225137
 72
1
 10
38.3910823218
 20
43.101225137
 11
38.1067943329
 21
43.3977365379
 72
1
 10
38.1067943329
 20
43.3977365379
 11
37.8687586861
 21
43.7325166184
 72
1
 10
37.8687586861
 20
43.7325166184
 11
40.2335973619
 21
44.0977432575
 72
1
 10
40.2335973619
 20
44.0977432575
 11
40.3773408591
 21
44.0883158568
 72
1
 10
40.3773408591
 20
44.0883158568
 11
42.8585834601
 21
44.0883158568
 97
1
330
28D
 75
0
 76
1
 98
1
 10
0.0
 20
0.0
  0
LWPOLYLINE
  5
28F
100
AcDbEntity
  8
Grp_symbol_75_BL0
100
AcDbPolyline
 62
2
  6
CONTINUOUS
 90
28
 70
0
 10
50.7606655166
 20
43.5114758026
 10
50.7606655166
 20
50.4336914534
 10
53.1100238229
 20
50.4336914534
 10
53.110023823
 20
43.5114758026
 10
53.0999742799
 20
43.3581457881
 10
53.0699976014
 20
43.207440774
 10
53.0206066966
 20
43.0619407603
 10
52.9526466577
 20
42.9241357473
 10
52.8672802997
 20
42.7963657353
 10
52.7659682647
 20
42.6808507245
 10
52.6504440296
 20
42.5795407149
 10
52.5226842463
 20
42.4941757069
 10
52.38487492
 20
42.4262107005
 10
52.2393740065
 20
42.3768156959
 10
52.0886710667
 20
42.3468456931
 10
51.9353446697
 20
42.3367912879
 10
51.7820182728
 20
42.3468456931
 10
51.631315333
 20
42.3768156959
 10
51.4858144195
 20
42.4262107005
 10
51.3480050931
 20
42.4941757069
 10
51.2202453098
 20
42.5795407149
 10
51.1047210748
 20
42.6808507245
 10
51.0034090398
 20
42.7963657353
 10
50.9180426818
 20
42.9241357473
 10
50.8500826429
 20
43.0619407603
 10
50.8006917381
 20
43.207440774
 10
50.7707150596
 20
43.3581457881
 10
50.7606655166
 20
43.5114758026
  0
HATCH
  5
290
100
AcDbEntity
  8
Grp_symbol_75_BL0
100
AcDbHatch
 62
2
  6
CONTINUOUS
 10
0.0
 20
0.0
 30
0.0
210
0.0
220
0.0
230
1.0
  2
SOLID
 70
1
 71
1
 91
1
 92
1
 93
27
 72
1
 10
50.7606655166
 20
43.5114758026
 11
50.7606655166
 21
50.4336914534
 72
1
 10
50.7606655166
 20
50.4336914534
 11
53.1100238229
 21
50.4336914534
 72
1
 10
53.1100238229
 20
50.4336914534
 11
53.110023823
 21
43.5114758026
 72
1
 10
53.110023823
 20
43.5114758026
 11
53.0999742799
 21
43.3581457881
 72
1
 10
53.0999742799
 20
43.3581457881
 11
53.0699976014
 21
43.207440774
 72
1
 10
53.0699976014
 20
43.207440774
 11
53.0206066966
 21
43.0619407603
 72
1
 10
53.0206066966
 20
43.0619407603
 11
52.9526466577
 21
42.9241357473
 72
1
 10
52.9526466577
 20
42.9241357473
 11
52.8672802997
 21
42.7963657353
 72
1
 10
52.8672802997
 20
42.7963657353
 11
52.7659682647
 21
42.6808507245
 72
1
 10
52.7659682647
 20
42.6808507245
 11
52.6504440296
 21
42.5795407149
 72
1
 10
52.6504440296
 20
42.5795407149
 11
52.5226842463
 21
42.4941757069
 72
1
 10
52.5226842463
 20
42.4941757069
 11
52.38487492
 21
42.4262107005
 72
1
 10
52.38487492
 20
42.4262107005
 11
52.2393740065
 21
42.3768156959
 72
1
 10
52.2393740065
 20
42.3768156959
 11
52.0886710667
 21
42.3468456931
 72
1
 10
52.0886710667
 20
42.3468456931
 11
51.9353446697
 21
42.3367912879
 72
1
 10
51.9353446697
 20
42.3367912879
 11
51.7820182728
 21
42.3468456931
 72
1
 10
51.7820182728
 20
42.3468456931
 11
51.631315333
 21
42.3768156959
 72
1
 10
51.631315333
 20
42.3768156959
 11
51.4858144195
 21
42.4262107005
 72
1
 10
51.4858144195
 20
42.4262107005
 11
51.3480050931
 21
42.4941757069
 72
1
 10
51.3480050931
 20
42.4941757069
 11
51.2202453098
 21
42.5795407149
 72
1
 10
51.2202453098
 20
42.5795407149
 11
51.1047210748
 21
42.6808507245
 72
1
 10
51.1047210748
 20
42.6808507245
 11
51.0034090398
 21
42.7963657353
 72
1
 10
51.0034090398
 20
42.7963657353
 11
50.9180426818
 21
42.9241357473
 72
1
 10
50.9180426818
 20
42.9241357473
 11
50.8500826429
 21
43.0619407603
 72
1
 10
50.8500826429
 20
43.0619407603
 11
50.8006917381
 21
43.207440774
 72
1
 10
50.8006917381
 20
43.207440774
 11
50.7707150596
 21
43.3581457881
 72
1
 10
50.7707150596
 20
43.3581457881
 11
50.7606655166
 21
43.5114758026
 97
1
330
28F
 75
0
 76
1
 98
1
 10
0.0
 20
0.0
  0
LWPOLYLINE
  5
291
100
AcDbEntity
  8
Grp_symbol_75_BL0
100
AcDbPolyline
 62
2
  6
CONTINUOUS
 90
8
 70
0
 10
48.1666760039
 20
42.5016607076
 10
48.3307243661
 20
42.0183906622
 10
48.5564487812
 20
41.5606656191
 10
43.922439716
 20
41.0249021701
 10
44.5045130466
 20
41.6179384825
 10
44.9912967811
 20
42.2913945137
 10
48.0671106073
 20
43.0022107547
 10
48.1666760039
 20
42.5016607076
  0
HATCH
  5
292
100
AcDbEntity
  8
Grp_symbol_75_BL0
100
AcDbHatch
 62
2
  6
CONTINUOUS
 10
0.0
 20
0.0
 30
0.0
210
0.0
220
0.0
230
1.0
  2
SOLID
 70
1
 71
1
 91
1
 92
1
 93
7
 72
1
 10
48.1666760039
 20
42.5016607076
 11
48.3307243661
 21
42.0183906622
 72
1
 10
48.3307243661
 20
42.0183906622
 11
48.5564487812
 21
41.5606656191
 72
1
 10
48.5564487812
 20
41.5606656191
 11
43.922439716
 21
41.0249021701
 72
1
 10
43.922439716
 20
41.0249021701
 11
44.5045130466
 21
41.6179384825
 72
1
 10
44.5045130466
 20
41.6179384825
 11
44.9912967811
 21
42.2913945137
 72
1
 10
44.9912967811
 20
42.2913945137
 11
48.0671106073
 21
43.0022107547
 72
1
 10
48.0671106073
 20
43.0022107547
 11
48.1666760039
 21
42.5016607076
 97
1
330
291
 75
0
 76
1
 98
1
 10
0.0
 20
0.0
  0
LWPOLYLINE
  5
293
100
AcDbEntity
  8
Grp_symbol_75_BL0
100
AcDbPolyline
 62
2
  6
CONTINUOUS
 90
8
 70
0
 10
48.8399870417
 20
41.1363155792
 10
49.1764877294
 20
40.7526155432
 10
49.5601932243
 20
40.4161055115
 10
42.5266989406
 20
40.1313888964
 10
43.2581828434
 20
40.5256384749
 10
43.922439716
 20
41.0249021701
 10
48.5564487812
 20
41.5606656191
 10
48.8399870417
 20
41.1363155792
  0
HATCH
  5
294
100
AcDbEntity
  8
Grp_symbol_75_BL0
100
AcDbHatch
 62
2
  6
CONTINUOUS
 10
0.0
 20
0.0
 30
0.0
210
0.0
220
0.0
230
1.0
  2
SOLID
 70
1
 71
1
 91
1
 92
1
 93
7
 72
1
 10
48.8399870417
 20
41.1363155792
 11
49.1764877294
 21
40.7526155432
 72
1
 10
49.1764877294
 20
40.7526155432
 11
49.5601932243
 21
40.4161055115
 72
1
 10
49.5601932243
 20
40.4161055115
 11
42.5266989406
 21
40.1313888964
 72
1
 10
42.5266989406
 20
40.1313888964
 11
43.2581828434
 21
40.5256384749
 72
1
 10
43.2581828434
 20
40.5256384749
 11
43.922439716
 21
41.0249021701
 72
1
 10
43.922439716
 20
41.0249021701
 11
48.5564487812
 21
41.5606656191
 72
1
 10
48.5564487812
 20
41.5606656191
 11
48.8399870417
 21
41.1363155792
 97
1
330
293
 75
0
 76
1
 98
1
 10
0.0
 20
0.0
  0
LWPOLYLINE
  5
295
100
AcDbEntity
  8
Grp_symbol_75_BL0
100
AcDbPolyline
 62
2
  6
CONTINUOUS
 90
24
 70
0
 10
49.9845382189
 20
40.1325754849
 10
50.4422620528
 20
39.9068554636
 10
50.9255329442
 20
39.7428004482
 10
51.4260819942
 20
39.6432304389
 10
31.5354308103
 20
39.1381503914
 10
35.2004825787
 20
47.4126419421
 10
34.9249450065
 20
46.6286901091
 10
34.7698128918
 20
45.8123351268
 10
34.7385792138
 20
44.9819581718
 10
34.8319472347
 20
44.1562561415
 10
35.0478146656
 20
43.3538206722
 10
35.3813210016
 20
42.5927195265
 10
35.8249569618
 20
41.890089777
 10
36.3687335696
 20
41.2617519451
 10
37.0004070656
 20
40.7218537838
 10
37.7057545905
 20
40.2825517246
 10
38.4688944291
 20
39.9537371616
 10
39.2726436052
 20
39.7428004482
 10
40.0989047766
 20
39.6545306291
 10
40.9290737174
 20
39.6908756408
 10
41.7444582138
 20
39.85103042
 10
42.5266989406
 20
40.1313888964
 10
49.5601932243
 20
40.4161055115
 10
49.9845382189
 20
40.1325754849
  0
HATCH
  5
296
100
AcDbEntity
  8
Grp_symbol_75_BL0
100
AcDbHatch
 62
2
  6
CONTINUOUS
 10
0.0
 20
0.0
 30
0.0
210
0.0
220
0.0
230
1.0
  2
SOLID
 70
1
 71
1
 91
1
 92
1
 93
23
 72
1
 10
49.9845382189
 20
40.1325754849
 11
50.4422620528
 21
39.9068554636
 72
1
 10
50.4422620528
 20
39.9068554636
 11
50.9255329442
 21
39.7428004482
 72
1
 10
50.9255329442
 20
39.7428004482
 11
51.4260819942
 21
39.6432304389
 72
1
 10
51.4260819942
 20
39.6432304389
 11
31.5354308103
 21
39.1381503914
 72
1
 10
31.5354308103
 20
39.1381503914
 11
35.2004825787
 21
47.4126419421
 72
1
 10
35.2004825787
 20
47.4126419421
 11
34.9249450065
 21
46.6286901091
 72
1
 10
34.9249450065
 20
46.6286901091
 11
34.7698128918
 21
45.8123351268
 72
1
 10
34.7698128918
 20
45.8123351268
 11
34.7385792138
 21
44.9819581718
 72
1
 10
34.7385792138
 20
44.9819581718
 11
34.8319472347
 21
44.1562561415
 72
1
 10
34.8319472347
 20
44.1562561415
 11
35.0478146656
 21
43.3538206722
 72
1
 10
35.0478146656
 20
43.3538206722
 11
35.3813210016
 21
42.5927195265
 72
1
 10
35.3813210016
 20
42.5927195265
 11
35.8249569618
 21
41.890089777
 72
1
 10
35.8249569618
 20
41.890089777
 11
36.3687335696
 21
41.2617519451
 72
1
 10
36.3687335696
 20
41.2617519451
 11
37.0004070656
 21
40.7218537838
 72
1
 10
37.0004070656
 20
40.7218537838
 11
37.7057545905
 21
40.2825517246
 72
1
 10
37.7057545905
 20
40.2825517246
 11
38.4688944291
 21
39.9537371616
 72
1
 10
38.4688944291
 20
39.9537371616
 11
39.2726436052
 21
39.7428004482
 72
1
 10
39.2726436052
 20
39.7428004482
 11
40.0989047766
 21
39.6545306291
 72
1
 10
40.0989047766
 20
39.6545306291
 11
40.9290737174
 21
39.6908756408
 72
1
 10
40.9290737174
 20
39.6908756408
 11
41.7444582138
 21
39.85103042
 72
1
 10
41.7444582138
 20
39.85103042
 11
42.5266989406
 21
40.1313888964
 72
1
 10
42.5266989406
 20
40.1313888964
 11
49.5601932243
 21
40.4161055115
 72
1
 10
49.5601932243
 20
40.4161055115
 11
49.9845382189
 21
40.1325754849
 97
1
330
295
 75
0
 76
1
 98
1
 10
0.0
 20
0.0
  0
LWPOLYLINE
  5
297
100
AcDbEntity
  8
Grp_symbol_75_BL0
100
AcDbPolyline
 62
2
  6
CONTINUOUS
 90
43
 70
0
 10
51.9353446697
 20
39.6098575394
 10
52.4446073453
 20
39.6432304389
 10
52.9451563953
 20
39.7428004482
 10
53.4284272867
 20
39.9068554636
 10
53.8861511205
 20
40.1325754849
 10
54.3104961152
 20
40.4161055115
 10
54.69420161
 20
40.7526155432
 10
55.0307022978
 20
41.1363155792
 10
55.3142405583
 20
41.5606656191
 10
60.5272335926
 20
39.1381503914
 10
60.5202877605
 20
39.0056253789
 10
60.499526364
 20
38.8745403666
 10
60.4651768694
 20
38.7463353545
 10
60.417615617
 20
38.6224353429
 10
60.3573636977
 20
38.5041903318
 10
60.2850812443
 20
38.3928903213
 10
60.2015601983
 20
38.2897503116
 10
60.1077156339
 20
38.1958953028
 10
60.0045757318
 20
38.1123752949
 10
59.8932705142
 20
38.0400902881
 10
59.7750194645
 20
37.9798502825
 10
59.6511181658
 20
37.932285278
 10
59.5229241069
 20
37.8979352748
 10
59.3918418085
 20
37.8771752728
 10
59.2593074357
 20
37.8702302721
 10
32.8033569672
 20
37.8702302721
 10
32.6708225945
 20
37.8771752728
 10
32.5397402961
 20
37.8979352748
 10
32.4115462371
 20
37.932285278
 10
32.2876449385
 20
37.9798502825
 10
32.1693938888
 20
38.0400902881
 10
32.0580886712
 20
38.1123752949
 10
31.9549487691
 20
38.1958953028
 10
31.8611042047
 20
38.2897503116
 10
31.7775831587
 20
38.3928903213
 10
31.7053007052
 20
38.5041903318
 10
31.645048786
 20
38.6224353429
 10
31.5974875335
 20
38.7463353545
 10
31.563138039
 20
38.8745403666
 10
31.5423766425
 20
39.0056253789
 10
31.5354308103
 20
39.1381503914
 10
51.4260819942
 20
39.6432304389
 10
51.9353446697
 20
39.6098575394
  0
HATCH
  5
298
100
AcDbEntity
  8
Grp_symbol_75_BL0
100
AcDbHatch
 62
2
  6
CONTINUOUS
 10
0.0
 20
0.0
 30
0.0
210
0.0
220
0.0
230
1.0
  2
SOLID
 70
1
 71
1
 91
1
 92
1
 93
42
 72
1
 10
51.9353446697
 20
39.6098575394
 11
52.4446073453
 21
39.6432304389
 72
1
 10
52.4446073453
 20
39.6432304389
 11
52.9451563953
 21
39.7428004482
 72
1
 10
52.9451563953
 20
39.7428004482
 11
53.4284272867
 21
39.9068554636
 72
1
 10
53.4284272867
 20
39.9068554636
 11
53.8861511205
 21
40.1325754849
 72
1
 10
53.8861511205
 20
40.1325754849
 11
54.3104961152
 21
40.4161055115
 72
1
 10
54.3104961152
 20
40.4161055115
 11
54.69420161
 21
40.7526155432
 72
1
 10
54.69420161
 20
40.7526155432
 11
55.0307022978
 21
41.1363155792
 72
1
 10
55.0307022978
 20
41.1363155792
 11
55.3142405583
 21
41.5606656191
 72
1
 10
55.3142405583
 20
41.5606656191
 11
60.5272335926
 21
39.1381503914
 72
1
 10
60.5272335926
 20
39.1381503914
 11
60.5202877605
 21
39.0056253789
 72
1
 10
60.5202877605
 20
39.0056253789
 11
60.499526364
 21
38.8745403666
 72
1
 10
60.499526364
 20
38.8745403666
 11
60.4651768694
 21
38.7463353545
 72
1
 10
60.4651768694
 20
38.7463353545
 11
60.417615617
 21
38.6224353429
 72
1
 10
60.417615617
 20
38.6224353429
 11
60.3573636977
 21
38.5041903318
 72
1
 10
60.3573636977
 20
38.5041903318
 11
60.2850812443
 21
38.3928903213
 72
1
 10
60.2850812443
 20
38.3928903213
 11
60.2015601983
 21
38.2897503116
 72
1
 10
60.2015601983
 20
38.2897503116
 11
60.1077156339
 21
38.1958953028
 72
1
 10
60.1077156339
 20
38.1958953028
 11
60.0045757318
 21
38.1123752949
 72
1
 10
60.0045757318
 20
38.1123752949
 11
59.8932705142
 21
38.0400902881
 72
1
 10
59.8932705142
 20
38.0400902881
 11
59.7750194645
 21
37.9798502825
 72
1
 10
59.7750194645
 20
37.9798502825
 11
59.6511181658
 21
37.932285278
 72
1
 10
59.6511181658
 20
37.932285278
 11
59.5229241069
 21
37.8979352748
 72
1
 10
59.5229241069
 20
37.8979352748
 11
59.3918418085
 21
37.8771752728
 72
1
 10
59.3918418085
 20
37.8771752728
 11
59.2593074357
 21
37.8702302721
 72
1
 10
59.2593074357
 20
37.8702302721
 11
32.8033569672
 21
37.8702302721
 72
1
 10
32.8033569672
 20
37.8702302721
 11
32.6708225945
 21
37.8771752728
 72
1
 10
32.6708225945
 20
37.8771752728
 11
32.5397402961
 21
37.8979352748
 72
1
 10
32.5397402961
 20
37.8979352748
 11
32.4115462371
 21
37.932285278
 72
1
 10
32.4115462371
 20
37.932285278
 11
32.2876449385
 21
37.9798502825
 72
1
 10
32.2876449385
 20
37.9798502825
 11
32.1693938888
 21
38.0400902881
 72
1
 10
32.1693938888
 20
38.0400902881
 11
32.0580886712
 21
38.1123752949
 72
1
 10
32.0580886712
 20
38.1123752949
 11
31.9549487691
 21
38.1958953028
 72
1
 10
31.9549487691
 20
38.1958953028
 11
31.8611042047
 21
38.2897503116
 72
1
 10
31.8611042047
 20
38.2897503116
 11
31.7775831587
 21
38.3928903213
 72
1
 10
31.7775831587
 20
38.3928903213
 11
31.7053007052
 21
38.5041903318
 72
1
 10
31.7053007052
 20
38.5041903318
 11
31.645048786
 21
38.6224353429
 72
1
 10
31.645048786
 20
38.6224353429
 11
31.5974875335
 21
38.7463353545
 72
1
 10
31.5974875335
 20
38.7463353545
 11
31.563138039
 21
38.8745403666
 72
1
 10
31.563138039
 20
38.8745403666
 11
31.5423766425
 21
39.0056253789
 72
1
 10
31.5423766425
 20
39.0056253789
 11
31.5354308103
 21
39.1381503914
 72
1
 10
31.5354308103
 20
39.1381503914
 11
51.4260819942
 21
39.6432304389
 72
1
 10
51.4260819942
 20
39.6432304389
 11
51.9353446697
 21
39.6098575394
 97
1
330
297
 75
0
 76
1
 98
1
 10
0.0
 20
0.0
  0
SOLID
  5
299
100
AcDbEntity
  8
Grp_symbol_75_BL0
100
AcDbTrace
 62
2
  6
CONTINUOUS
 10
40.5151962448
 20
50.7220341491
 11
39.6846378094
 21
50.6960704153
 12
41.3402891657
 22
50.6234283584
 13
60.5272335926
 23
51.6022965633
  0
ENDBLK
  5
29A
100
AcDbEntity
  8
0
  6
BYBLOCK
 62
0
100
AcDbBlockEnd
  0
BLOCK
  5
29B
100
AcDbEntity
  8
Grp_symbol_75_BL1
100
AcDbBlockBegin
  2
GRP_SYMBOL_75_BL1
 70
64
 10
46.0313322015
 20
45.3702272356
  3
GRP_SYMBOL_75_BL1
  1

  0
LINE
  5
29C
100
AcDbEntity
  8
Grp_symbol_75_BL1
100
AcDbLine
 62
2
  6
CONTINUOUS
 10
60.3739573131
 20
52.2048929187
 11
60.3928906639
 21
52.1687365129
  0
LINE
  5
29D
100
AcDbEntity
  8
Grp_symbol_75_BL1
100
AcDbLine
 62
2
  6
CONTINUOUS
 10
31.5354308104
 20
39.1381526873
 11
31.5354308104
 21
51.6023017838
  0
LINE
  5
29E
100
AcDbEntity
  8
Grp_symbol_75_BL1
100
AcDbLine
 62
2
  6
CONTINUOUS
 10
48.0337317682
 20
50.4336868794
 11
48.0337317682
 21
46.2908452231
  0
LINE
  5
29F
100
AcDbEntity
  8
Grp_symbol_75_BL1
100
AcDbLine
 62
2
  6
CONTINUOUS
 10
48.0337317682
 20
44.0883218109
 11
48.0337317682
 21
43.511470441
  0
LINE
  5
2A0
100
AcDbEntity
  8
Grp_symbol_75_BL1
100
AcDbLine
 62
2
  6
CONTINUOUS
 10
50.7606655166
 20
43.511470441
 11
50.7606655166
 21
50.4336868794
  0
LINE
  5
2A1
100
AcDbEntity
  8
Grp_symbol_75_BL1
100
AcDbLine
 62
2
  6
CONTINUOUS
 10
53.110023823
 20
50.4336868794
 11
53.110023823
 21
43.511470441
  0
LINE
  5
2A2
100
AcDbEntity
  8
Grp_symbol_75_BL1
100
AcDbLine
 62
2
  6
CONTINUOUS
 10
55.8369575714
 20
43.511470441
 11
55.8369575714
 21
50.4336868794
  0
LINE
  5
2A3
100
AcDbEntity
  8
Grp_symbol_75_BL1
100
AcDbLine
 62
2
  6
CONTINUOUS
 10
60.5272335926
 20
51.6023017838
 11
60.5272335926
 21
39.1381526873
  0
LINE
  5
2A4
100
AcDbEntity
  8
Grp_symbol_75_BL1
100
AcDbLine
 62
2
  6
CONTINUOUS
 10
59.2593074357
 20
37.8702265304
 11
32.8033569672
 21
37.8702265304
  0
LINE
  5
2A5
100
AcDbEntity
  8
Grp_symbol_75_BL1
100
AcDbLine
 62
2
  6
CONTINUOUS
 10
40.3773408591
 20
44.0883218109
 11
42.8585834601
 21
44.0883218109
  0
LINE
  5
2A6
100
AcDbEntity
  8
Grp_symbol_75_BL1
100
AcDbLine
 62
2
  6
CONTINUOUS
 10
46.1892744124
 20
44.0883218109
 11
48.0337317682
 21
44.0883218109
  0
LINE
  5
2A7
100
AcDbEntity
  8
Grp_symbol_75_BL1
100
AcDbLine
 62
2
  6
CONTINUOUS
 10
48.0337317682
 20
46.2908452231
 11
46.1892744124
 21
46.2908452231
  0
LINE
  5
2A8
100
AcDbEntity
  8
Grp_symbol_75_BL1
100
AcDbLine
 62
2
  6
CONTINUOUS
 10
45.6996269413
 20
46.2908452231
 11
40.3773408591
 21
46.2908452231
  0
LINE
  5
2A9
100
AcDbEntity
  8
Grp_symbol_75_BL1
100
AcDbLine
 62
2
  6
CONTINUOUS
 10
55.8369575714
 20
50.4336868794
 11
53.1100238229
 21
50.4336868794
  0
LINE
  5
2AA
100
AcDbEntity
  8
Grp_symbol_75_BL1
100
AcDbLine
 62
2
  6
CONTINUOUS
 10
50.7606655166
 20
50.4336868794
 11
48.0337317682
 21
50.4336868794
  0
LINE
  5
2AB
100
AcDbEntity
  8
Grp_symbol_75_BL1
100
AcDbLine
 62
2
  6
CONTINUOUS
 10
32.8033569672
 20
52.8702279407
 11
59.2593074357
 21
52.8702279407
  0
LINE
  5
2AC
100
AcDbEntity
  8
Grp_symbol_75_BL1
100
AcDbLine
 62
2
  6
CONTINUOUS
 10
42.5685234878
 20
46.8109733705
 11
44.7608619995
 21
48.4332185325
  0
ARC
  5
2AD
100
AcDbEntity
  8
Grp_symbol_75_BL1
100
AcDbCircle
 62
2
  6
CONTINUOUS
 10
40.3773408591
 20
45.189583517
 40
5.9153485927
100
AcDbArc
 50
349.2706340045
 51
10.7293659955
  0
ARC
  5
2AE
100
AcDbEntity
  8
Grp_symbol_75_BL1
100
AcDbCircle
 62
2
  6
CONTINUOUS
 10
40.2724587918
 20
45.189583517
 40
5.5377731507
100
AcDbArc
 50
35.8545159817
 51
11.4705154501
  0
ARC
  5
2AF
100
AcDbEntity
  8
Grp_symbol_75_BL1
100
AcDbCircle
 62
2
  6
CONTINUOUS
 10
51.9353446697
 20
43.511470441
 40
3.9016129016
100
AcDbArc
 50
180.0
 51
360.0
  0
ARC
  5
2B0
100
AcDbEntity
  8
Grp_symbol_75_BL1
100
AcDbCircle
 62
2
  6
CONTINUOUS
 10
40.2724587918
 20
45.189583517
 40
2.8108394023
100
AcDbArc
 50
35.2282226131
 51
336.934010569
  0
ARC
  5
2B1
100
AcDbEntity
  8
Grp_symbol_75_BL1
100
AcDbCircle
 62
2
  6
CONTINUOUS
 10
32.8033569672
 20
51.6023017838
 40
1.2679261569
100
AcDbArc
 50
90.0
 51
180.0
  0
ARC
  5
2B2
100
AcDbEntity
  8
Grp_symbol_75_BL1
100
AcDbCircle
 62
2
  6
CONTINUOUS
 10
59.2593074357
 20
51.6023017838
 40
1.2679261569
100
AcDbArc
 50
0.0
 51
90.0
  0
ARC
  5
2B3
100
AcDbEntity
  8
Grp_symbol_75_BL1
100
AcDbCircle
 62
2
  6
CONTINUOUS
 10
59.2593074357
 20
39.1381526873
 40
1.2679261569
100
AcDbArc
 50
270.0
 51
360.0
  0
ARC
  5
2B4
100
AcDbEntity
  8
Grp_symbol_75_BL1
100
AcDbCircle
 62
2
  6
CONTINUOUS
 10
32.8033569672
 20
39.1381526873
 40
1.2679261569
100
AcDbArc
 50
180.0
 51
270.0
  0
ARC
  5
2B5
100
AcDbEntity
  8
Grp_symbol_75_BL1
100
AcDbCircle
 62
2
  6
CONTINUOUS
 10
51.9353446697
 20
43.511470441
 40
1.1746791532
100
AcDbArc
 50
180.0
 51
360.0
  0
ARC
  5
2B6
100
AcDbEntity
  8
Grp_symbol_75_BL1
100
AcDbCircle
 62
2
  6
CONTINUOUS
 10
40.3773408591
 20
45.189583517
 40
1.1012617061
100
AcDbArc
 50
90.0
 51
270.0
  0
ENDBLK
  5
2B7
100
AcDbEntity
  8
0
  6
BYBLOCK
 62
0
100
AcDbBlockEnd
  0
BLOCK
  5
2B8
100
AcDbEntity
  8
X14022004_BL2
100
AcDbBlockBegin
  2
X14022004_BL2
 70
64
 10
313.6598656109
 20
191.4534408387
  3
X14022004_BL2
  1

  0
LINE
  5
2B9
100
AcDbEntity
  8
X14022004_BL2
100
AcDbLine
 62
7
  6
CONTINUOUS
 10
198.5767514068
 20
116.7417295342
 11
195.5767514068
 21
116.7417295342
  0
LINE
  5
2BA
100
AcDbEntity
  8
X14022004_BL2
100
AcDbLine
 62
9
  6
CONTINUOUS
 10
198.5767514068
 20
126.7417295342
 11
195.5767514068
 21
126.7417295342
  0
LINE
  5
2BB
100
AcDbEntity
  8
X14022004_BL2
100
AcDbLine
 62
7
  6
CONTINUOUS
 10
195.5767514068
 20
116.741846737
 11
195.5767514068
 21
351.7416123313
  0
LINE
  5
2BC
100
AcDbEntity
  8
X14022004_BL2
100
AcDbLine
 62
7
  6
CONTINUOUS
 10
198.5767514068
 20
116.741846737
 11
198.5767514068
 21
351.7416123313
  0
LINE
  5
2BD
100
AcDbEntity
  8
X14022004_BL2
100
AcDbLine
 62
9
  6
CONTINUOUS
 10
198.5767514068
 20
341.7417295342
 11
195.5767514068
 21
341.7417295342
  0
LINE
  5
2BE
100
AcDbEntity
  8
X14022004_BL2
100
AcDbLine
 62
7
  6
CONTINUOUS
 10
198.5767514068
 20
351.7417295342
 11
195.5767514068
 21
351.7417295342
  0
LINE
  5
2BF
100
AcDbEntity
  8
X14022004_BL2
100
AcDbLine
 62
7
  6
CENTER
 10
421.6429798151
 20
129.7417295342
 11
411.5429798151
 21
129.7417295342
  0
LINE
  5
2C0
100
AcDbEntity
  8
X14022004_BL2
100
AcDbLine
 62
7
  6
CENTER
 10
421.6429798151
 20
129.7417295342
 11
431.7429798151
 21
129.7417295342
  0
LINE
  5
2C1
100
AcDbEntity
  8
X14022004_BL2
100
AcDbLine
 62
7
  6
CENTER
 10
419.9929798151
 20
162.7417295342
 11
409.8929798151
 21
162.7417295342
  0
LINE
  5
2C2
100
AcDbEntity
  8
X14022004_BL2
100
AcDbLine
 62
7
  6
CENTER
 10
419.9929798151
 20
162.7417295342
 11
430.0929798151
 21
162.7417295342
  0
LINE
  5
2C3
100
AcDbEntity
  8
X14022004_BL2
100
AcDbLine
 62
7
  6
CONTINUOUS
 10
417.1048748189
 20
181.0417295342
 11
422.8810848112
 21
181.0417295342
  0
LINE
  5
2C4
100
AcDbEntity
  8
X14022004_BL2
100
AcDbLine
 62
7
  6
CONTINUOUS
 10
422.8810848112
 20
216.2417295342
 11
417.1048748189
 21
216.2417295342
  0
LINE
  5
2C5
100
AcDbEntity
  8
X14022004_BL2
100
AcDbLine
 62
7
  6
CONTINUOUS
 10
411.6429798151
 20
341.7417295342
 11
411.6429798151
 21
126.7417295342
  0
LINE
  5
2C6
100
AcDbEntity
  8
X14022004_BL2
100
AcDbLine
 62
7
  6
CONTINUOUS
 10
415.0429798151
 20
296.2196428183
 11
415.0429798151
 21
267.76381625
  0
LINE
  5
2C7
100
AcDbEntity
  8
X14022004_BL2
100
AcDbLine
 62
7
  6
CONTINUOUS
 10
415.7429798151
 20
214.3196428183
 11
415.7429798151
 21
182.96381625
  0
LINE
  5
2C8
100
AcDbEntity
  8
X14022004_BL2
100
AcDbLine
 62
7
  6
CONTINUOUS
 10
418.3429798151
 20
266.6050544922
 11
418.3429798151
 21
267.7917295342
  0
LINE
  5
2C9
100
AcDbEntity
  8
X14022004_BL2
100
AcDbLine
 62
7
  6
CONTINUOUS
 10
418.3429798151
 20
296.1917295342
 11
418.3429798151
 21
297.3784045761
  0
LINE
  5
2CA
100
AcDbEntity
  8
X14022004_BL2
100
AcDbLine
 62
7
  6
CENTER
 10
419.9929798151
 20
162.7417295342
 11
419.9929798151
 21
152.6417295342
  0
LINE
  5
2CB
100
AcDbEntity
  8
X14022004_BL2
100
AcDbLine
 62
7
  6
CENTER
 10
419.9929798151
 20
162.7417295342
 11
419.9929798151
 21
172.8417295342
  0
LINE
  5
2CC
100
AcDbEntity
  8
X14022004_BL2
100
AcDbLine
 62
7
  6
CENTER
 10
421.6429798151
 20
338.7417295342
 11
421.6429798151
 21
328.6417295342
  0
LINE
  5
2CD
100
AcDbEntity
  8
X14022004_BL2
100
AcDbLine
 62
7
  6
CENTER
 10
421.6429798151
 20
129.7417295342
 11
421.6429798151
 21
119.6417295342
  0
LINE
  5
2CE
100
AcDbEntity
  8
X14022004_BL2
100
AcDbLine
 62
7
  6
CENTER
 10
421.6429798151
 20
129.7417295342
 11
421.6429798151
 21
139.8417295342
  0
LINE
  5
2CF
100
AcDbEntity
  8
X14022004_BL2
100
AcDbLine
 62
7
  6
CENTER
 10
421.6429798151
 20
338.7417295342
 11
421.6429798151
 21
348.8417295342
  0
LINE
  5
2D0
100
AcDbEntity
  8
X14022004_BL2
100
AcDbLine
 62
7
  6
CONTINUOUS
 10
424.2429798151
 20
182.96381625
 11
424.2429798151
 21
214.3196428183
  0
LINE
  5
2D1
100
AcDbEntity
  8
X14022004_BL2
100
AcDbLine
 62
7
  6
CONTINUOUS
 10
425.1429798151
 20
270.11381625
 11
425.1429798151
 21
276.4917295342
  0
LINE
  5
2D2
100
AcDbEntity
  8
X14022004_BL2
100
AcDbLine
 62
7
  6
CONTINUOUS
 10
425.1429798151
 20
287.4917295342
 11
425.1429798151
 21
293.8696428183
  0
LINE
  5
2D3
100
AcDbEntity
  8
X14022004_BL2
100
AcDbLine
 62
7
  6
CONTINUOUS
 10
427.1429798151
 20
278.6692962224
 11
427.1429798151
 21
285.3141628459
  0
LINE
  5
2D4
100
AcDbEntity
  8
X14022004_BL2
100
AcDbLine
 62
7
  6
CONTINUOUS
 10
431.6429798151
 20
126.7417299649
 11
431.6429798151
 21
341.7417295342
  0
LINE
  5
2D5
100
AcDbEntity
  8
X14022004_BL2
100
AcDbLine
 62
7
  6
CONTINUOUS
 10
416.4048748189
 20
265.8417295342
 11
416.9810848112
 21
265.8417295342
  0
LINE
  5
2D6
100
AcDbEntity
  8
X14022004_BL2
100
AcDbLine
 62
7
  6
CONTINUOUS
 10
418.7429798151
 20
268.1917295342
 11
424.1492544217
 21
268.1917295342
  0
LINE
  5
2D7
100
AcDbEntity
  8
X14022004_BL2
100
AcDbLine
 62
7
  6
CONTINUOUS
 10
425.3825837754
 20
276.6877691381
 11
426.8038709042
 21
276.4006404253
  0
LINE
  5
2D8
100
AcDbEntity
  8
X14022004_BL2
100
AcDbLine
 62
7
  6
CONTINUOUS
 10
426.8038709042
 20
287.5828186431
 11
425.3825837754
 21
287.2956899302
  0
LINE
  5
2D9
100
AcDbEntity
  8
X14022004_BL2
100
AcDbLine
 62
7
  6
CONTINUOUS
 10
424.1492544217
 20
295.7917295342
 11
418.7429798151
 21
295.7917295342
  0
LINE
  5
2DA
100
AcDbEntity
  8
X14022004_BL2
100
AcDbLine
 62
7
  6
CONTINUOUS
 10
416.9810848112
 20
298.1417295342
 11
416.4048748189
 21
298.1417295342
  0
LINE
  5
2DB
100
AcDbEntity
  8
X14022004_BL2
100
AcDbLine
 62
7
  6
CENTER
 10
421.6429798151
 20
338.7417295342
 11
411.5429798151
 21
338.7417295342
  0
LINE
  5
2DC
100
AcDbEntity
  8
X14022004_BL2
100
AcDbLine
 62
7
  6
CENTER
 10
421.6429798151
 20
338.7417295342
 11
431.7429798151
 21
338.7417295342
  0
LINE
  5
2DD
100
AcDbEntity
  8
X14022004_BL2
100
AcDbLine
 62
7
  6
CONTINUOUS
 10
195.5767514068
 20
51.1651521433
 11
195.5767514068
 21
31.1651521433
  0
LINE
  5
2DE
100
AcDbEntity
  8
X14022004_BL2
100
AcDbLine
 62
7
  6
CONTINUOUS
 10
198.5767514068
 20
31.1651521433
 11
198.5767514068
 21
51.1651521433
  0
LINE
  5
2DF
100
AcDbEntity
  8
X14022004_BL2
100
AcDbLine
 62
7
  6
CONTINUOUS
 10
198.5767514068
 20
31.1651521433
 11
195.5767514068
 21
31.1651521433
  0
LINE
  5
2E0
100
AcDbEntity
  8
X14022004_BL2
100
AcDbLine
 62
7
  6
CONTINUOUS
 10
198.5767514068
 20
51.1651521433
 11
195.5767514068
 21
51.1651521433
  0
ARC
  5
2E1
100
AcDbEntity
  8
X14022004_BL2
100
AcDbCircle
 62
7
  6
CONTINUOUS
 10
407.7429798151
 20
182.96381625
 40
8.0
100
AcDbArc
 50
347.4720945601
 51
360.0
  0
ARC
  5
2E2
100
AcDbEntity
  8
X14022004_BL2
100
AcDbCircle
 62
7
  6
CONTINUOUS
 10
407.7429798151
 20
214.3196428183
 40
8.0
100
AcDbArc
 50
0.0
 51
12.5279054399
  0
CIRCLE
  5
2E3
100
AcDbEntity
  8
X14022004_BL2
100
AcDbCircle
 62
7
  6
CONTINUOUS
 10
419.9929798151
 20
162.7417295342
 40
5.1
  0
ARC
  5
2E4
100
AcDbEntity
  8
X14022004_BL2
100
AcDbCircle
 62
7
  6
CONTINUOUS
 10
417.1048748189
 20
179.0417295342
 40
2.0
100
AcDbArc
 50
90.0
 51
118.9550243719
  0
ARC
  5
2E5
100
AcDbEntity
  8
X14022004_BL2
100
AcDbCircle
 62
7
  6
CONTINUOUS
 10
417.1048748189
 20
218.2417295342
 40
2.0
100
AcDbArc
 50
241.0449756281
 51
270.0
  0
ARC
  5
2E6
100
AcDbEntity
  8
X14022004_BL2
100
AcDbCircle
 62
7
  6
CONTINUOUS
 10
417.367933748
 20
165.3667756012
 40
0.7123757499
100
AcDbArc
 50
243.1592584857
 51
26.8407415143
  0
ARC
  5
2E7
100
AcDbEntity
  8
X14022004_BL2
100
AcDbCircle
 62
7
  6
CONTINUOUS
 10
417.367933748
 20
160.1166834671
 40
0.7123757499
100
AcDbArc
 50
333.1592584857
 51
116.8407415143
  0
ARC
  5
2E8
100
AcDbEntity
  8
X14022004_BL2
100
AcDbCircle
 62
7
  6
CONTINUOUS
 10
419.9929798151
 20
159.0293537843
 40
0.7123757499
100
AcDbArc
 50
18.1592584857
 51
161.8407415143
  0
ARC
  5
2E9
100
AcDbEntity
  8
X14022004_BL2
100
AcDbCircle
 62
7
  6
CONTINUOUS
 10
419.9929798151
 20
166.4541052841
 40
0.7123757499
100
AcDbArc
 50
198.1592584857
 51
341.8407415143
  0
ARC
  5
2EA
100
AcDbEntity
  8
X14022004_BL2
100
AcDbCircle
 62
7
  6
CONTINUOUS
 10
419.017933748
 20
132.3667756012
 40
0.7123757499
100
AcDbArc
 50
243.1592584857
 51
26.8407415143
  0
ARC
  5
2EB
100
AcDbEntity
  8
X14022004_BL2
100
AcDbCircle
 62
7
  6
CONTINUOUS
 10
419.017933748
 20
127.1166834671
 40
0.7123757499
100
AcDbArc
 50
333.1592584857
 51
116.8407415143
  0
ARC
  5
2EC
100
AcDbEntity
  8
X14022004_BL2
100
AcDbCircle
 62
7
  6
CONTINUOUS
 10
416.7246411767
 20
164.0955197246
 40
0.7123757499
100
AcDbArc
 50
63.1592584857
 51
251.8407415143
  0
ARC
  5
2ED
100
AcDbEntity
  8
X14022004_BL2
100
AcDbCircle
 62
7
  6
CONTINUOUS
 10
418.6391896246
 20
166.0100681726
 40
0.7123757499
100
AcDbArc
 50
18.1592584857
 51
206.8407415143
  0
ARC
  5
2EE
100
AcDbEntity
  8
X14022004_BL2
100
AcDbCircle
 62
7
  6
CONTINUOUS
 10
418.6391896246
 20
159.4733908958
 40
0.7123757499
100
AcDbArc
 50
153.1592584857
 51
341.8407415143
  0
ARC
  5
2EF
100
AcDbEntity
  8
X14022004_BL2
100
AcDbCircle
 62
7
  6
CONTINUOUS
 10
416.7246411767
 20
161.3879393437
 40
0.7123757499
100
AcDbArc
 50
108.1592584857
 51
296.8407415143
  0
ARC
  5
2F0
100
AcDbEntity
  8
X14022004_BL2
100
AcDbCircle
 62
7
  6
CONTINUOUS
 10
416.2806040652
 20
162.7417295342
 40
0.7123757499
100
AcDbArc
 50
288.1592584857
 51
71.8407415143
  0
ARC
  5
2F1
100
AcDbEntity
  8
X14022004_BL2
100
AcDbCircle
 62
7
  6
CONTINUOUS
 10
418.3746411767
 20
131.0955197246
 40
0.7123757499
100
AcDbArc
 50
63.1592584857
 51
251.8407415143
  0
ARC
  5
2F2
100
AcDbEntity
  8
X14022004_BL2
100
AcDbCircle
 62
7
  6
CONTINUOUS
 10
420.2891896246
 20
133.0100681726
 40
0.7123757499
100
AcDbArc
 50
18.1592584857
 51
206.8407415143
  0
ARC
  5
2F3
100
AcDbEntity
  8
X14022004_BL2
100
AcDbCircle
 62
7
  6
CONTINUOUS
 10
420.2891896246
 20
126.4733908958
 40
0.7123757499
100
AcDbArc
 50
153.1592584857
 51
341.8407415143
  0
ARC
  5
2F4
100
AcDbEntity
  8
X14022004_BL2
100
AcDbCircle
 62
7
  6
CONTINUOUS
 10
418.3746411767
 20
128.3879393437
 40
0.7123757499
100
AcDbArc
 50
108.1592584857
 51
296.8407415143
  0
ARC
  5
2F5
100
AcDbEntity
  8
X14022004_BL2
100
AcDbCircle
 62
7
  6
CONTINUOUS
 10
417.9306040652
 20
129.7417295342
 40
0.7123757499
100
AcDbArc
 50
288.1592584857
 51
71.8407415143
  0
ARC
  5
2F6
100
AcDbEntity
  8
X14022004_BL2
100
AcDbCircle
 62
7
  6
CONTINUOUS
 10
415.9429798151
 20
181.1417295342
 40
0.4
100
AcDbArc
 50
167.4720945601
 51
298.9550243719
  0
ARC
  5
2F7
100
AcDbEntity
  8
X14022004_BL2
100
AcDbCircle
 62
7
  6
CONTINUOUS
 10
415.9429798151
 20
216.1417295342
 40
0.4
100
AcDbArc
 50
61.0449756282
 51
192.5279054399
  0
ARC
  5
2F8
100
AcDbEntity
  8
X14022004_BL2
100
AcDbCircle
 62
7
  6
CONTINUOUS
 10
407.0429798151
 20
296.2196428183
 40
8.0
100
AcDbArc
 50
0.0
 51
12.5279054399
  0
ARC
  5
2F9
100
AcDbEntity
  8
X14022004_BL2
100
AcDbCircle
 62
7
  6
CONTINUOUS
 10
407.0429798151
 20
267.76381625
 40
8.0
100
AcDbArc
 50
347.4720945601
 51
360.0
  0
ARC
  5
2FA
100
AcDbEntity
  8
X14022004_BL2
100
AcDbCircle
 62
7
  6
CONTINUOUS
 10
416.4048748189
 20
300.1417295342
 40
2.0
100
AcDbArc
 50
241.0449756281
 51
270.0
  0
ARC
  5
2FB
100
AcDbEntity
  8
X14022004_BL2
100
AcDbCircle
 62
7
  6
CONTINUOUS
 10
416.4048748189
 20
263.8417295342
 40
2.0
100
AcDbArc
 50
90.0
 51
118.9550243719
  0
ARC
  5
2FC
100
AcDbEntity
  8
X14022004_BL2
100
AcDbCircle
 62
7
  6
CONTINUOUS
 10
416.9810848112
 20
263.8417295342
 40
2.0
100
AcDbArc
 50
61.0449756281
 51
90.0
  0
ARC
  5
2FD
100
AcDbEntity
  8
X14022004_BL2
100
AcDbCircle
 62
7
  6
CONTINUOUS
 10
416.9810848112
 20
300.1417295342
 40
2.0
100
AcDbArc
 50
270.0
 51
298.9550243719
  0
ARC
  5
2FE
100
AcDbEntity
  8
X14022004_BL2
100
AcDbCircle
 62
7
  6
CONTINUOUS
 10
419.1429798151
 20
266.6050544922
 40
0.8
100
AcDbArc
 50
180.0
 51
213.5573097619
  0
ARC
  5
2FF
100
AcDbEntity
  8
X14022004_BL2
100
AcDbCircle
 62
7
  6
CONTINUOUS
 10
419.1429798151
 20
297.3784045761
 40
0.8
100
AcDbArc
 50
146.4426902381
 51
180.0
  0
ARC
  5
300
100
AcDbEntity
  8
X14022004_BL2
100
AcDbCircle
 62
7
  6
CONTINUOUS
 10
419.017933748
 20
341.3667756012
 40
0.7123757499
100
AcDbArc
 50
243.1592584857
 51
26.8407415143
  0
ARC
  5
301
100
AcDbEntity
  8
X14022004_BL2
100
AcDbCircle
 62
7
  6
CONTINUOUS
 10
419.017933748
 20
336.1166834671
 40
0.7123757499
100
AcDbArc
 50
333.1592584857
 51
116.8407415143
  0
ARC
  5
302
100
AcDbEntity
  8
X14022004_BL2
100
AcDbCircle
 62
7
  6
CONTINUOUS
 10
418.3746411767
 20
340.0955197246
 40
0.7123757499
100
AcDbArc
 50
63.1592584857
 51
251.8407415143
  0
ARC
  5
303
100
AcDbEntity
  8
X14022004_BL2
100
AcDbCircle
 62
7
  6
CONTINUOUS
 10
420.2891896246
 20
342.0100681726
 40
0.7123757499
100
AcDbArc
 50
18.1592584857
 51
206.8407415143
  0
ARC
  5
304
100
AcDbEntity
  8
X14022004_BL2
100
AcDbCircle
 62
7
  6
CONTINUOUS
 10
420.2891896246
 20
335.4733908958
 40
0.7123757499
100
AcDbArc
 50
153.1592584857
 51
341.8407415143
  0
ARC
  5
305
100
AcDbEntity
  8
X14022004_BL2
100
AcDbCircle
 62
7
  6
CONTINUOUS
 10
418.3746411767
 20
337.3879393437
 40
0.7123757499
100
AcDbArc
 50
108.1592584857
 51
296.8407415143
  0
ARC
  5
306
100
AcDbEntity
  8
X14022004_BL2
100
AcDbCircle
 62
7
  6
CONTINUOUS
 10
417.9306040652
 20
338.7417295342
 40
0.7123757499
100
AcDbArc
 50
288.1592584857
 51
71.8407415143
  0
ARC
  5
307
100
AcDbEntity
  8
X14022004_BL2
100
AcDbCircle
 62
7
  6
CONTINUOUS
 10
415.2429798151
 20
298.0417295342
 40
0.4
100
AcDbArc
 50
61.0449756281
 51
192.5279054399
  0
ARC
  5
308
100
AcDbEntity
  8
X14022004_BL2
100
AcDbCircle
 62
7
  6
CONTINUOUS
 10
415.2429798151
 20
265.9417295342
 40
0.4
100
AcDbArc
 50
167.4720945601
 51
298.9550243719
  0
ARC
  5
309
100
AcDbEntity
  8
X14022004_BL2
100
AcDbCircle
 62
7
  6
CONTINUOUS
 10
418.1429798151
 20
265.9417295342
 40
0.4
100
AcDbArc
 50
241.0449756281
 51
33.5573097619
  0
ARC
  5
30A
100
AcDbEntity
  8
X14022004_BL2
100
AcDbCircle
 62
7
  6
CONTINUOUS
 10
418.7429798151
 20
267.7917295342
 40
0.4
100
AcDbArc
 50
90.0
 51
180.0
  0
ARC
  5
30B
100
AcDbEntity
  8
X14022004_BL2
100
AcDbCircle
 62
7
  6
CONTINUOUS
 10
418.7429798151
 20
296.1917295342
 40
0.4
100
AcDbArc
 50
180.0
 51
270.0
  0
ARC
  5
30C
100
AcDbEntity
  8
X14022004_BL2
100
AcDbCircle
 62
7
  6
CONTINUOUS
 10
418.1429798151
 20
298.0417295342
 40
0.4
100
AcDbArc
 50
326.4426902381
 51
118.9550243719
  0
ARC
  5
30D
100
AcDbEntity
  8
X14022004_BL2
100
AcDbCircle
 62
7
  6
CONTINUOUS
 10
421.6429798151
 20
126.7417295342
 40
10.0
100
AcDbArc
 50
180.0
 51
0.000002468
  0
ARC
  5
30E
100
AcDbEntity
  8
X14022004_BL2
100
AcDbCircle
 62
7
  6
CONTINUOUS
 10
432.2429798151
 20
182.96381625
 40
8.0
100
AcDbArc
 50
180.0
 51
192.5279054399
  0
ARC
  5
30F
100
AcDbEntity
  8
X14022004_BL2
100
AcDbCircle
 62
7
  6
CONTINUOUS
 10
432.2429798151
 20
214.3196428183
 40
8.0
100
AcDbArc
 50
167.4720945601
 51
180.0
  0
CIRCLE
  5
310
100
AcDbEntity
  8
X14022004_BL2
100
AcDbCircle
 62
7
  6
CONTINUOUS
 10
421.6429798151
 20
129.7417295342
 40
5.1
  0
ARC
  5
311
100
AcDbEntity
  8
X14022004_BL2
100
AcDbCircle
 62
7
  6
CONTINUOUS
 10
422.8810848112
 20
179.0417295342
 40
2.0
100
AcDbArc
 50
61.0449756281
 51
90.0
  0
ARC
  5
312
100
AcDbEntity
  8
X14022004_BL2
100
AcDbCircle
 62
7
  6
CONTINUOUS
 10
422.8810848112
 20
218.2417295342
 40
2.0
100
AcDbArc
 50
270.0
 51
298.9550243719
  0
ARC
  5
313
100
AcDbEntity
  8
X14022004_BL2
100
AcDbCircle
 62
7
  6
CONTINUOUS
 10
422.6180258821
 20
160.1166834671
 40
0.7123757499
100
AcDbArc
 50
63.1592584857
 51
206.8407415143
  0
ARC
  5
314
100
AcDbEntity
  8
X14022004_BL2
100
AcDbCircle
 62
7
  6
CONTINUOUS
 10
422.6180258821
 20
165.3667756012
 40
0.7123757499
100
AcDbArc
 50
153.1592584857
 51
296.8407415143
  0
ARC
  5
315
100
AcDbEntity
  8
X14022004_BL2
100
AcDbCircle
 62
7
  6
CONTINUOUS
 10
421.6429798151
 20
126.0293537843
 40
0.7123757499
100
AcDbArc
 50
18.1592584857
 51
161.8407415143
  0
ARC
  5
316
100
AcDbEntity
  8
X14022004_BL2
100
AcDbCircle
 62
7
  6
CONTINUOUS
 10
424.2680258821
 20
127.1166834671
 40
0.7123757499
100
AcDbArc
 50
63.1592584857
 51
206.8407415143
  0
ARC
  5
317
100
AcDbEntity
  8
X14022004_BL2
100
AcDbCircle
 62
7
  6
CONTINUOUS
 10
421.6429798151
 20
133.4541052841
 40
0.7123757499
100
AcDbArc
 50
198.1592584857
 51
341.8407415143
  0
ARC
  5
318
100
AcDbEntity
  8
X14022004_BL2
100
AcDbCircle
 62
7
  6
CONTINUOUS
 10
424.2680258821
 20
132.3667756012
 40
0.7123757499
100
AcDbArc
 50
153.1592584857
 51
296.8407415143
  0
ARC
  5
319
100
AcDbEntity
  8
X14022004_BL2
100
AcDbCircle
 62
7
  6
CONTINUOUS
 10
421.3467700055
 20
166.0100681726
 40
0.7123757499
100
AcDbArc
 50
333.1592584857
 51
161.8407415143
  0
ARC
  5
31A
100
AcDbEntity
  8
X14022004_BL2
100
AcDbCircle
 62
7
  6
CONTINUOUS
 10
423.2613184534
 20
164.0955197246
 40
0.7123757499
100
AcDbArc
 50
288.1592584857
 51
116.8407415143
  0
ARC
  5
31B
100
AcDbEntity
  8
X14022004_BL2
100
AcDbCircle
 62
7
  6
CONTINUOUS
 10
423.7053555649
 20
162.7417295342
 40
0.7123757499
100
AcDbArc
 50
108.1592584857
 51
251.8407415143
  0
ARC
  5
31C
100
AcDbEntity
  8
X14022004_BL2
100
AcDbCircle
 62
7
  6
CONTINUOUS
 10
423.2613184534
 20
161.3879393437
 40
0.7123757499
100
AcDbArc
 50
243.1592584857
 51
71.8407415143
  0
ARC
  5
31D
100
AcDbEntity
  8
X14022004_BL2
100
AcDbCircle
 62
7
  6
CONTINUOUS
 10
421.3467700055
 20
159.4733908958
 40
0.7123757499
100
AcDbArc
 50
198.1592584857
 51
26.8407415143
  0
ARC
  5
31E
100
AcDbEntity
  8
X14022004_BL2
100
AcDbCircle
 62
7
  6
CONTINUOUS
 10
422.9967700055
 20
133.0100681726
 40
0.7123757499
100
AcDbArc
 50
333.1592584857
 51
161.8407415143
  0
ARC
  5
31F
100
AcDbEntity
  8
X14022004_BL2
100
AcDbCircle
 62
7
  6
CONTINUOUS
 10
424.9113184534
 20
131.0955197246
 40
0.7123757499
100
AcDbArc
 50
288.1592584857
 51
116.8407415143
  0
ARC
  5
320
100
AcDbEntity
  8
X14022004_BL2
100
AcDbCircle
 62
7
  6
CONTINUOUS
 10
425.3553555649
 20
129.7417295342
 40
0.7123757499
100
AcDbArc
 50
108.1592584857
 51
251.8407415143
  0
ARC
  5
321
100
AcDbEntity
  8
X14022004_BL2
100
AcDbCircle
 62
7
  6
CONTINUOUS
 10
424.9113184534
 20
128.3879393437
 40
0.7123757499
100
AcDbArc
 50
243.1592584857
 51
71.8407415143
  0
ARC
  5
322
100
AcDbEntity
  8
X14022004_BL2
100
AcDbCircle
 62
7
  6
CONTINUOUS
 10
422.9967700055
 20
126.4733908958
 40
0.7123757499
100
AcDbArc
 50
198.1592584857
 51
26.8407415143
  0
ARC
  5
323
100
AcDbEntity
  8
X14022004_BL2
100
AcDbCircle
 62
7
  6
CONTINUOUS
 10
424.0429798151
 20
181.1417295342
 40
0.4
100
AcDbArc
 50
241.0449756281
 51
12.5279054399
  0
ARC
  5
324
100
AcDbEntity
  8
X14022004_BL2
100
AcDbCircle
 62
7
  6
CONTINUOUS
 10
424.0429798151
 20
216.1417295342
 40
0.4
100
AcDbArc
 50
347.4720945601
 51
118.9550243719
  0
ARC
  5
325
100
AcDbEntity
  8
X14022004_BL2
100
AcDbCircle
 62
7
  6
CONTINUOUS
 10
421.6429798151
 20
341.7417295342
 40
10.0
100
AcDbArc
 50
0.0
 51
180.0
  0
ARC
  5
326
100
AcDbEntity
  8
X14022004_BL2
100
AcDbCircle
 62
7
  6
CONTINUOUS
 10
433.1429798151
 20
270.11381625
 40
8.0
100
AcDbArc
 50
180.0
 51
192.5279054399
  0
ARC
  5
327
100
AcDbEntity
  8
X14022004_BL2
100
AcDbCircle
 62
7
  6
CONTINUOUS
 10
435.1429798151
 20
278.6692962224
 40
8.0
100
AcDbArc
 50
180.0
 51
192.4906377034
  0
ARC
  5
328
100
AcDbEntity
  8
X14022004_BL2
100
AcDbCircle
 62
7
  6
CONTINUOUS
 10
435.1429798151
 20
285.3141628459
 40
8.0
100
AcDbArc
 50
167.5093622966
 51
180.0
  0
ARC
  5
329
100
AcDbEntity
  8
X14022004_BL2
100
AcDbCircle
 62
7
  6
CONTINUOUS
 10
433.1429798151
 20
293.8696428183
 40
8.0
100
AcDbArc
 50
167.4720949683
 51
180.0
  0
CIRCLE
  5
32A
100
AcDbEntity
  8
X14022004_BL2
100
AcDbCircle
 62
7
  6
CONTINUOUS
 10
421.6429798151
 20
338.7417295342
 40
5.1
  0
ARC
  5
32B
100
AcDbEntity
  8
X14022004_BL2
100
AcDbCircle
 62
7
  6
CONTINUOUS
 10
424.1492544217
 20
267.3917295342
 40
0.8
100
AcDbArc
 50
48.5903778907
 51
90.0
  0
ARC
  5
32C
100
AcDbEntity
  8
X14022004_BL2
100
AcDbCircle
 62
7
  6
CONTINUOUS
 10
424.1492544217
 20
296.5917295342
 40
0.8
100
AcDbArc
 50
270.0
 51
311.4096221093
  0
ARC
  5
32D
100
AcDbEntity
  8
X14022004_BL2
100
AcDbCircle
 62
7
  6
CONTINUOUS
 10
421.6429798151
 20
335.0293537843
 40
0.7123757499
100
AcDbArc
 50
18.1592584857
 51
161.8407415143
  0
ARC
  5
32E
100
AcDbEntity
  8
X14022004_BL2
100
AcDbCircle
 62
7
  6
CONTINUOUS
 10
424.2680258821
 20
336.1166834671
 40
0.7123757499
100
AcDbArc
 50
63.1592584857
 51
206.8407415143
  0
ARC
  5
32F
100
AcDbEntity
  8
X14022004_BL2
100
AcDbCircle
 62
7
  6
CONTINUOUS
 10
421.6429798151
 20
342.4541052841
 40
0.7123757499
100
AcDbArc
 50
198.1592584857
 51
341.8407415143
  0
ARC
  5
330
100
AcDbEntity
  8
X14022004_BL2
100
AcDbCircle
 62
7
  6
CONTINUOUS
 10
424.2680258821
 20
341.3667756012
 40
0.7123757499
100
AcDbArc
 50
153.1592584857
 51
296.8407415143
  0
ARC
  5
331
100
AcDbEntity
  8
X14022004_BL2
100
AcDbCircle
 62
7
  6
CONTINUOUS
 10
422.9967700055
 20
342.0100681726
 40
0.7123757499
100
AcDbArc
 50
333.1592584857
 51
161.8407415143
  0
ARC
  5
332
100
AcDbEntity
  8
X14022004_BL2
100
AcDbCircle
 62
7
  6
CONTINUOUS
 10
424.9113184534
 20
340.0955197246
 40
0.7123757499
100
AcDbArc
 50
288.1592584857
 51
116.8407415143
  0
ARC
  5
333
100
AcDbEntity
  8
X14022004_BL2
100
AcDbCircle
 62
7
  6
CONTINUOUS
 10
425.3553555649
 20
338.7417295342
 40
0.7123757499
100
AcDbArc
 50
108.1592584857
 51
251.8407415143
  0
ARC
  5
334
100
AcDbEntity
  8
X14022004_BL2
100
AcDbCircle
 62
7
  6
CONTINUOUS
 10
424.9113184534
 20
337.3879393437
 40
0.7123757499
100
AcDbArc
 50
243.1592584857
 51
71.8407415143
  0
ARC
  5
335
100
AcDbEntity
  8
X14022004_BL2
100
AcDbCircle
 62
7
  6
CONTINUOUS
 10
422.9967700055
 20
335.4733908958
 40
0.7123757499
100
AcDbArc
 50
198.1592584857
 51
26.8407415143
  0
ARC
  5
336
100
AcDbEntity
  8
X14022004_BL2
100
AcDbCircle
 62
7
  6
CONTINUOUS
 10
426.8929798151
 20
276.8417295342
 40
0.45
100
AcDbArc
 50
258.578813725
 51
12.4906377034
  0
ARC
  5
337
100
AcDbEntity
  8
X14022004_BL2
100
AcDbCircle
 62
7
  6
CONTINUOUS
 10
426.8929798151
 20
287.1417295342
 40
0.45
100
AcDbArc
 50
347.5093622966
 51
101.421186275
  0
ARC
  5
338
100
AcDbEntity
  8
X14022004_BL2
100
AcDbCircle
 62
7
  6
CONTINUOUS
 10
424.9429798151
 20
268.2917295342
 40
0.4
100
AcDbArc
 50
228.5903778907
 51
12.5279054399
  0
ARC
  5
339
100
AcDbEntity
  8
X14022004_BL2
100
AcDbCircle
 62
7
  6
CONTINUOUS
 10
424.9429798151
 20
295.6917295342
 40
0.4
100
AcDbArc
 50
347.4720863975
 51
131.4096221093
  0
ARC
  5
33A
100
AcDbEntity
  8
X14022004_BL2
100
AcDbCircle
 62
7
  6
CONTINUOUS
 10
425.3429798151
 20
276.4917295342
 40
0.2
100
AcDbArc
 50
78.578813725
 51
180.0
  0
ARC
  5
33B
100
AcDbEntity
  8
X14022004_BL2
100
AcDbCircle
 62
7
  6
CONTINUOUS
 10
425.3429798151
 20
287.4917295342
 40
0.2
100
AcDbArc
 50
180.0
 51
281.421186275
  0
ENDBLK
  5
33C
100
AcDbEntity
  8
0
  6
BYBLOCK
 62
0
100
AcDbBlockEnd
  0
BLOCK
  5
33D
100
AcDbEntity
  8
X14200002_BL3
100
AcDbBlockBegin
  2
X14200002_BL3
 70
64
 10
311.5310822186
 20
181.4598440854
  3
X14200002_BL3
  1

  0
LINE
  5
33E
100
AcDbEntity
  8
X14200002_BL3
100
AcDbLine
 62
3
  6
CONTINUOUS
 10
201.4767514068
 20
151.7417295342
 11
285.0767514068
 21
151.7417295342
  0
LINE
  5
33F
100
AcDbEntity
  8
X14200002_BL3
100
AcDbLine
 62
7
  6
CONTINUOUS
 10
285.0767514068
 20
153.2417295342
 11
283.8887685539
 21
153.2417295342
  0
LINE
  5
340
100
AcDbEntity
  8
X14200002_BL3
100
AcDbLine
 62
9
  6
CONTINUOUS
 10
201.4767514068
 20
153.7417295342
 11
283.9203131652
 21
153.7417295342
  0
LINE
  5
341
100
AcDbEntity
  8
X14200002_BL3
100
AcDbLine
 62
3
  6
CONTINUOUS
 10
201.4767514068
 20
155.0417295342
 11
198.9767514068
 21
155.0417295342
  0
LINE
  5
342
100
AcDbEntity
  8
X14200002_BL3
100
AcDbLine
 62
3
  6
CONTINUOUS
 10
293.1767514068
 20
166.0417295342
 11
291.1767514068
 21
166.0417295342
  0
LINE
  5
343
100
AcDbEntity
  8
X14200002_BL3
100
AcDbLine
 62
7
  6
CENTER
 10
270.6767514068
 20
166.7417295342
 11
265.6766514068
 21
166.7417295342
  0
LINE
  5
344
100
AcDbEntity
  8
X14200002_BL3
100
AcDbLine
 62
7
  6
CENTER
 10
250.6767514068
 20
166.7417295342
 11
245.6766514068
 21
166.7417295342
  0
LINE
  5
345
100
AcDbEntity
  8
X14200002_BL3
100
AcDbLine
 62
7
  6
CENTER
 10
250.6767514068
 20
166.7417295342
 11
255.6768514068
 21
166.7417295342
  0
LINE
  5
346
100
AcDbEntity
  8
X14200002_BL3
100
AcDbLine
 62
7
  6
CENTER
 10
270.6767514068
 20
166.7417295342
 11
275.6768514068
 21
166.7417295342
  0
LINE
  5
347
100
AcDbEntity
  8
X14200002_BL3
100
AcDbLine
 62
7
  6
CENTER
 10
270.6767514068
 20
167.3417295342
 11
265.6766514068
 21
167.3417295342
  0
LINE
  5
348
100
AcDbEntity
  8
X14200002_BL3
100
AcDbLine
 62
7
  6
CENTER
 10
250.6767514068
 20
167.3417295342
 11
245.6766514068
 21
167.3417295342
  0
LINE
  5
349
100
AcDbEntity
  8
X14200002_BL3
100
AcDbLine
 62
7
  6
CENTER
 10
250.6767514068
 20
167.3417295342
 11
255.6768514068
 21
167.3417295342
  0
LINE
  5
34A
100
AcDbEntity
  8
X14200002_BL3
100
AcDbLine
 62
7
  6
CENTER
 10
270.6767514068
 20
167.3417295342
 11
275.6768514068
 21
167.3417295342
  0
LINE
  5
34B
100
AcDbEntity
  8
X14200002_BL3
100
AcDbLine
 62
3
  6
CONTINUOUS
 10
198.9767514068
 20
155.0417295342
 11
198.9767514068
 21
276.4917295342
  0
LINE
  5
34C
100
AcDbEntity
  8
X14200002_BL3
100
AcDbLine
 62
3
  6
CONTINUOUS
 10
198.9767514068
 20
287.4917295342
 11
198.9767514068
 21
313.4417295342
  0
LINE
  5
34D
100
AcDbEntity
  8
X14200002_BL3
100
AcDbLine
 62
3
  6
CONTINUOUS
 10
201.4767514068
 20
151.7417295342
 11
201.4767514068
 21
155.0417295342
  0
LINE
  5
34E
100
AcDbEntity
  8
X14200002_BL3
100
AcDbLine
 62
3
  6
CONTINUOUS
 10
201.4767514068
 20
313.4417295342
 11
201.4767514068
 21
316.7417295342
  0
LINE
  5
34F
100
AcDbEntity
  8
X14200002_BL3
100
AcDbLine
 62
3
  6
CONTINUOUS
 10
211.6767514068
 20
287.4917295342
 11
211.6767514068
 21
276.4917295342
  0
LINE
  5
350
100
AcDbEntity
  8
X14200002_BL3
100
AcDbLine
 62
3
  6
CONTINUOUS
 10
212.6767514068
 20
265.2417295342
 11
212.6767514068
 21
298.7417295342
  0
LINE
  5
351
100
AcDbEntity
  8
X14200002_BL3
100
AcDbLine
 62
9
  6
CONTINUOUS
 10
239.9807627403
 20
269.2148854216
 11
238.9844419453
 21
268.0275165347
  0
LINE
  5
352
100
AcDbEntity
  8
X14200002_BL3
100
AcDbLine
 62
9
  6
CONTINUOUS
 10
241.8448468084
 20
271.4364143066
 11
242.8411676034
 21
272.6237831934
  0
LINE
  5
353
100
AcDbEntity
  8
X14200002_BL3
100
AcDbLine
 62
7
  6
CONTINUOUS
 10
286.4861489201
 20
316.3206796692
 11
285.4254887484
 21
315.2600194974
  0
LINE
  5
354
100
AcDbEntity
  8
X14200002_BL3
100
AcDbLine
 62
7
  6
CONTINUOUS
 10
287.4715111062
 20
315.3353174831
 11
286.4108509344
 21
314.2746573114
  0
LINE
  5
355
100
AcDbEntity
  8
X14200002_BL3
100
AcDbLine
 62
3
  6
CONTINUOUS
 10
254.7767514068
 20
213.2417295342
 11
260.1767514068
 21
213.2417295342
  0
LINE
  5
356
100
AcDbEntity
  8
X14200002_BL3
100
AcDbLine
 62
3
  6
CONTINUOUS
 10
264.7767514068
 20
213.2417295342
 11
270.1767514068
 21
213.2417295342
  0
LINE
  5
357
100
AcDbEntity
  8
X14200002_BL3
100
AcDbLine
 62
7
  6
CONTINUOUS
 10
286.415438242
 20
152.2011957558
 11
285.3547780702
 21
153.2618559276
  0
LINE
  5
358
100
AcDbEntity
  8
X14200002_BL3
100
AcDbLine
 62
7
  6
CONTINUOUS
 10
287.4433221728
 20
153.2290796865
 11
286.382662001
 21
154.2897398583
  0
LINE
  5
359
100
AcDbEntity
  8
X14200002_BL3
100
AcDbLine
 62
9
  6
CONTINUOUS
 10
245.3430738422
 20
264.7153721538
 11
244.3467530471
 21
263.5280032669
  0
LINE
  5
35A
100
AcDbEntity
  8
X14200002_BL3
100
AcDbLine
 62
9
  6
CONTINUOUS
 10
247.2071579102
 20
266.9369010388
 11
248.2034787053
 21
268.1242699256
  0
LINE
  5
35B
100
AcDbEntity
  8
X14200002_BL3
100
AcDbLine
 62
7
  6
CONTINUOUS
 10
291.7623394055
 20
311.0444891839
 11
291.3667049342
 21
310.6488547126
  0
LINE
  5
35C
100
AcDbEntity
  8
X14200002_BL3
100
AcDbLine
 62
7
  6
CONTINUOUS
 10
292.8501099508
 20
309.9567186385
 11
291.789449779
 21
308.8960584667
  0
LINE
  5
35D
100
AcDbEntity
  8
X14200002_BL3
100
AcDbLine
 62
3
  6
CONTINUOUS
 10
276.7767514068
 20
223.9417295342
 11
283.3767514068
 21
223.9417295342
  0
LINE
  5
35E
100
AcDbEntity
  8
X14200002_BL3
100
AcDbLine
 62
3
  6
CONTINUOUS
 10
270.1767514068
 20
225.2417295342
 11
264.7767514068
 21
225.2417295342
  0
LINE
  5
35F
100
AcDbEntity
  8
X14200002_BL3
100
AcDbLine
 62
3
  6
CONTINUOUS
 10
260.1767514068
 20
225.2417295342
 11
254.7767514068
 21
225.2417295342
  0
LINE
  5
360
100
AcDbEntity
  8
X14200002_BL3
100
AcDbLine
 62
3
  6
CONTINUOUS
 10
283.3767514068
 20
226.0417295342
 11
276.7767514068
 21
226.0417295342
  0
LINE
  5
361
100
AcDbEntity
  8
X14200002_BL3
100
AcDbLine
 62
9
  6
CONTINUOUS
 10
265.0867823273
 20
197.3488951936
 11
274.9830950291
 21
190.9221545804
  0
LINE
  5
362
100
AcDbEntity
  8
X14200002_BL3
100
AcDbLine
 62
9
  6
CONTINUOUS
 10
276.5625482306
 20
193.3542992274
 11
266.6662355289
 21
199.7810398406
  0
LINE
  5
363
100
AcDbEntity
  8
X14200002_BL3
100
AcDbLine
 62
7
  6
CONTINUOUS
 10
292.2403401353
 20
158.0260976491
 11
291.1796799636
 21
159.0867578209
  0
LINE
  5
364
100
AcDbEntity
  8
X14200002_BL3
100
AcDbLine
 62
7
  6
CONTINUOUS
 10
292.7793992727
 20
158.5651567865
 11
291.7187391009
 21
159.6258169582
  0
LINE
  5
365
100
AcDbEntity
  8
X14200002_BL3
100
AcDbLine
 62
9
  6
CONTINUOUS
 10
246.3704077846
 20
190.9221545804
 11
247.2145982889
 21
189.6222152001
  0
LINE
  5
366
100
AcDbEntity
  8
X14200002_BL3
100
AcDbLine
 62
9
  6
CONTINUOUS
 10
244.790954583
 20
193.3542992274
 11
243.9467640788
 21
194.6542386077
  0
LINE
  5
367
100
AcDbEntity
  8
X14200002_BL3
100
AcDbLine
 62
9
  6
CONTINUOUS
 10
273.5335093489
 20
266.4226709511
 11
270.4693315765
 21
263.8515205123
  0
LINE
  5
368
100
AcDbEntity
  8
X14200002_BL3
100
AcDbLine
 62
7
  6
CENTER
 10
244.9767514068
 20
231.7417295342
 11
238.2267514068
 21
231.7417295342
  0
LINE
  5
369
100
AcDbEntity
  8
X14200002_BL3
100
AcDbLine
 62
7
  6
CENTER
 10
244.9767514068
 20
231.7417295342
 11
251.7267514068
 21
231.7417295342
  0
LINE
  5
36A
100
AcDbEntity
  8
X14200002_BL3
100
AcDbLine
 62
9
  6
CONTINUOUS
 10
256.2667204863
 20
197.3488951936
 11
257.1109109906
 21
196.0489558132
  0
LINE
  5
36B
100
AcDbEntity
  8
X14200002_BL3
100
AcDbLine
 62
9
  6
CONTINUOUS
 10
254.6872672848
 20
199.7810398406
 11
253.8430767805
 21
201.0809792209
  0
LINE
  5
36C
100
AcDbEntity
  8
X14200002_BL3
100
AcDbLine
 62
3
  6
CONTINUOUS
 10
237.6767514068
 20
173.7417295342
 11
237.6767514068
 21
175.7417295342
  0
LINE
  5
36D
100
AcDbEntity
  8
X14200002_BL3
100
AcDbLine
 62
7
  6
CENTER
 10
241.6767514068
 20
253.7417295342
 11
241.6767514068
 21
247.4811156629
  0
LINE
  5
36E
100
AcDbEntity
  8
X14200002_BL3
100
AcDbLine
 62
7
  6
CENTER
 10
241.6767514068
 20
253.7417295342
 11
241.6767514068
 21
262.6546782287
  0
LINE
  5
36F
100
AcDbEntity
  8
X14200002_BL3
100
AcDbLine
 62
9
  6
CONTINUOUS
 10
272.3334156445
 20
261.6299916273
 11
275.397593417
 21
264.201142066
  0
LINE
  5
370
100
AcDbEntity
  8
X14200002_BL3
100
AcDbLine
 62
7
  6
CENTER
 10
244.9767514068
 20
231.7417295342
 11
244.9767514068
 21
224.9917295342
  0
LINE
  5
371
100
AcDbEntity
  8
X14200002_BL3
100
AcDbLine
 62
7
  6
CENTER
 10
244.9767514068
 20
231.7417295342
 11
244.9767514068
 21
238.4917295342
  0
LINE
  5
372
100
AcDbEntity
  8
X14200002_BL3
100
AcDbLine
 62
3
  6
CONTINUOUS
 10
245.6767514068
 20
175.7417295342
 11
245.6767514068
 21
173.7417295342
  0
LINE
  5
373
100
AcDbEntity
  8
X14200002_BL3
100
AcDbLine
 62
3
  6
CONTINUOUS
 10
248.1767514068
 20
167.3417295342
 11
248.1767514068
 21
166.7417295342
  0
LINE
  5
374
100
AcDbEntity
  8
X14200002_BL3
100
AcDbLine
 62
7
  6
CENTER
 10
250.6767514068
 20
167.3417295342
 11
250.6767514068
 21
162.3416295342
  0
LINE
  5
375
100
AcDbEntity
  8
X14200002_BL3
100
AcDbLine
 62
7
  6
CENTER
 10
250.6767514068
 20
162.3416295342
 11
250.6767514068
 21
161.7416295342
  0
LINE
  5
376
100
AcDbEntity
  8
X14200002_BL3
100
AcDbLine
 62
7
  6
CENTER
 10
250.6767514068
 20
167.3417295342
 11
250.6767514068
 21
171.7418295342
  0
LINE
  5
377
100
AcDbEntity
  8
X14200002_BL3
100
AcDbLine
 62
7
  6
CENTER
 10
250.6767514068
 20
171.7418295342
 11
250.6767514068
 21
172.3418295342
  0
LINE
  5
378
100
AcDbEntity
  8
X14200002_BL3
100
AcDbLine
 62
3
  6
CONTINUOUS
 10
253.1767514068
 20
166.7417295342
 11
253.1767514068
 21
167.3417295342
  0
LINE
  5
379
100
AcDbEntity
  8
X14200002_BL3
100
AcDbLine
 62
3
  6
CONTINUOUS
 10
254.7767514068
 20
225.2417295342
 11
254.7767514068
 21
213.2417295342
  0
LINE
  5
37A
100
AcDbEntity
  8
X14200002_BL3
100
AcDbLine
 62
3
  6
CONTINUOUS
 10
255.5017514068
 20
160.8167295342
 11
255.5017514068
 21
169.8089869623
  0
LINE
  5
37B
100
AcDbEntity
  8
X14200002_BL3
100
AcDbLine
 62
3
  6
CONTINUOUS
 10
260.1767514068
 20
213.2417295342
 11
260.1767514068
 21
225.2417295342
  0
LINE
  5
37C
100
AcDbEntity
  8
X14200002_BL3
100
AcDbLine
 62
7
  6
CENTER
 10
260.6767514068
 20
299.7417295342
 11
260.6767514068
 21
294.4361957277
  0
LINE
  5
37D
100
AcDbEntity
  8
X14200002_BL3
100
AcDbLine
 62
7
  6
CENTER
 10
260.6767514068
 20
253.7417295342
 11
260.6767514068
 21
240.2417295342
  0
LINE
  5
37E
100
AcDbEntity
  8
X14200002_BL3
100
AcDbLine
 62
7
  6
CENTER
 10
260.6767514068
 20
253.7417295342
 11
260.6767514068
 21
276.6008521564
  0
LINE
  5
37F
100
AcDbEntity
  8
X14200002_BL3
100
AcDbLine
 62
7
  6
CENTER
 10
260.6767514068
 20
299.7417295342
 11
260.6767514068
 21
306.9640460472
  0
LINE
  5
380
100
AcDbEntity
  8
X14200002_BL3
100
AcDbLine
 62
7
  6
CENTER
 10
260.6767514068
 20
313.7295307148
 11
260.6767514068
 21
327.6545360276
  0
LINE
  5
381
100
AcDbEntity
  8
X14200002_BL3
100
AcDbLine
 62
9
  6
CONTINUOUS
 10
270.4693315765
 20
243.631938556
 11
269.4730107814
 21
242.4445696692
  0
LINE
  5
382
100
AcDbEntity
  8
X14200002_BL3
100
AcDbLine
 62
9
  6
CONTINUOUS
 10
272.3334156445
 20
245.8534674411
 11
273.3297364396
 21
247.0408363279
  0
LINE
  5
383
100
AcDbEntity
  8
X14200002_BL3
100
AcDbLine
 62
7
  6
CENTER
 10
279.6767514068
 20
253.7417295342
 11
270.6767514068
 21
253.7417295342
  0
LINE
  5
384
100
AcDbEntity
  8
X14200002_BL3
100
AcDbLine
 62
7
  6
CENTER
 10
260.6767514068
 20
253.7417295342
 11
247.1767514068
 21
253.7417295342
  0
LINE
  5
385
100
AcDbEntity
  8
X14200002_BL3
100
AcDbLine
 62
7
  6
CENTER
 10
241.6767514068
 20
253.7417295342
 11
227.9618787058
 21
253.7417295342
  0
LINE
  5
386
100
AcDbEntity
  8
X14200002_BL3
100
AcDbLine
 62
7
  6
CENTER
 10
217.8136517044
 20
253.7417295342
 11
192.9053974486
 21
253.7417295342
  0
LINE
  5
387
100
AcDbEntity
  8
X14200002_BL3
100
AcDbLine
 62
7
  6
CENTER
 10
241.6767514068
 20
253.7417295342
 11
270.6767514068
 21
253.7417295342
  0
LINE
  5
388
100
AcDbEntity
  8
X14200002_BL3
100
AcDbLine
 62
7
  6
CENTER
 10
260.6767514068
 20
253.7417295342
 11
274.1767514068
 21
253.7417295342
  0
LINE
  5
389
100
AcDbEntity
  8
X14200002_BL3
100
AcDbLine
 62
7
  6
CENTER
 10
279.6767514068
 20
253.7417295342
 11
288.6767514068
 21
253.7417295342
  0
LINE
  5
38A
100
AcDbEntity
  8
X14200002_BL3
100
AcDbLine
 62
3
  6
CONTINUOUS
 10
291.1767514068
 20
258.7417295342
 11
293.1767514068
 21
258.7417295342
  0
LINE
  5
38B
100
AcDbEntity
  8
X14200002_BL3
100
AcDbLine
 62
3
  6
CONTINUOUS
 10
248.5474731289
 20
257.8001292749
 11
251.8575523063
 21
256.692592275
  0
LINE
  5
38C
100
AcDbEntity
  8
X14200002_BL3
100
AcDbLine
 62
3
  6
CONTINUOUS
 10
264.7767514068
 20
225.2417295342
 11
264.7767514068
 21
213.2417295342
  0
LINE
  5
38D
100
AcDbEntity
  8
X14200002_BL3
100
AcDbLine
 62
3
  6
CONTINUOUS
 10
265.8517514068
 20
169.8089869623
 11
265.8517514068
 21
160.8167295342
  0
LINE
  5
38E
100
AcDbEntity
  8
X14200002_BL3
100
AcDbLine
 62
3
  6
CONTINUOUS
 10
268.1767514068
 20
167.3417295342
 11
268.1767514068
 21
166.7417295342
  0
LINE
  5
38F
100
AcDbEntity
  8
X14200002_BL3
100
AcDbLine
 62
3
  6
CONTINUOUS
 10
270.1767514068
 20
213.2417295342
 11
270.1767514068
 21
225.2417295342
  0
LINE
  5
390
100
AcDbEntity
  8
X14200002_BL3
100
AcDbLine
 62
9
  6
CONTINUOUS
 10
278.1297760076
 20
237.2040624592
 11
277.1334552126
 21
236.0166935723
  0
LINE
  5
391
100
AcDbEntity
  8
X14200002_BL3
100
AcDbLine
 62
9
  6
CONTINUOUS
 10
279.9938600757
 20
239.4255913442
 11
280.9901808708
 21
240.6129602311
  0
LINE
  5
392
100
AcDbEntity
  8
X14200002_BL3
100
AcDbLine
 62
3
  6
CONTINUOUS
 10
198.9767514068
 20
265.2417295342
 11
212.6767514068
 21
265.2417295342
  0
LINE
  5
393
100
AcDbEntity
  8
X14200002_BL3
100
AcDbLine
 62
3
  6
CONTINUOUS
 10
293.1767514068
 20
268.7417295342
 11
291.1767514068
 21
268.7417295342
  0
LINE
  5
394
100
AcDbEntity
  8
X14200002_BL3
100
AcDbLine
 62
9
  6
CONTINUOUS
 10
239.9807627403
 20
269.2148854216
 11
245.3430738422
 21
264.7153721538
  0
LINE
  5
395
100
AcDbEntity
  8
X14200002_BL3
100
AcDbLine
 62
9
  6
CONTINUOUS
 10
270.4693315765
 20
243.631938556
 11
278.1297760076
 21
237.2040624592
  0
LINE
  5
396
100
AcDbEntity
  8
X14200002_BL3
100
AcDbLine
 62
9
  6
CONTINUOUS
 10
279.9938600757
 20
239.4255913442
 11
272.3334156445
 21
245.8534674411
  0
LINE
  5
397
100
AcDbEntity
  8
X14200002_BL3
100
AcDbLine
 62
9
  6
CONTINUOUS
 10
247.2071579102
 20
266.9369010388
 11
241.8448468084
 21
271.4364143066
  0
LINE
  5
398
100
AcDbEntity
  8
X14200002_BL3
100
AcDbLine
 62
3
  6
CONTINUOUS
 10
251.8575523063
 20
256.692592275
 11
252.4523750931
 21
255.8887354143
  0
LINE
  5
399
100
AcDbEntity
  8
X14200002_BL3
100
AcDbLine
 62
3
  6
CONTINUOUS
 10
258.1914939391
 20
262.7032784521
 11
257.2587109391
 21
266.0667852891
  0
LINE
  5
39A
100
AcDbEntity
  8
X14200002_BL3
100
AcDbLine
 62
7
  6
CENTER
 10
270.6767514068
 20
167.3417295342
 11
270.6767514068
 21
162.3416295342
  0
LINE
  5
39B
100
AcDbEntity
  8
X14200002_BL3
100
AcDbLine
 62
7
  6
CENTER
 10
270.6767514068
 20
162.3416295342
 11
270.6767514068
 21
161.7416295342
  0
LINE
  5
39C
100
AcDbEntity
  8
X14200002_BL3
100
AcDbLine
 62
7
  6
CENTER
 10
270.6767514068
 20
167.3417295342
 11
270.6767514068
 21
171.7418295342
  0
LINE
  5
39D
100
AcDbEntity
  8
X14200002_BL3
100
AcDbLine
 62
7
  6
CENTER
 10
270.6767514068
 20
171.7418295342
 11
270.6767514068
 21
172.3418295342
  0
LINE
  5
39E
100
AcDbEntity
  8
X14200002_BL3
100
AcDbLine
 62
3
  6
CONTINUOUS
 10
273.1767514068
 20
166.7417295342
 11
273.1767514068
 21
167.3417295342
  0
LINE
  5
39F
100
AcDbEntity
  8
X14200002_BL3
100
AcDbLine
 62
3
  6
CONTINUOUS
 10
275.6767514068
 20
173.7417295342
 11
275.6767514068
 21
175.7417295342
  0
LINE
  5
3A0
100
AcDbEntity
  8
X14200002_BL3
100
AcDbLine
 62
3
  6
CONTINUOUS
 10
276.3767514068
 20
302.5417295342
 11
276.3767514068
 21
300.4417295342
  0
LINE
  5
3A1
100
AcDbEntity
  8
X14200002_BL3
100
AcDbLine
 62
3
  6
CONTINUOUS
 10
276.7767514068
 20
226.0417295342
 11
276.7767514068
 21
223.9417295342
  0
LINE
  5
3A2
100
AcDbEntity
  8
X14200002_BL3
100
AcDbLine
 62
9
  6
CONTINUOUS
 10
254.6872672848
 20
199.7810398406
 11
244.790954583
 21
193.3542992274
  0
LINE
  5
3A3
100
AcDbEntity
  8
X14200002_BL3
100
AcDbLine
 62
9
  6
CONTINUOUS
 10
246.3704077846
 20
190.9221545804
 11
256.2667204863
 21
197.3488951936
  0
LINE
  5
3A4
100
AcDbEntity
  8
X14200002_BL3
100
AcDbLine
 62
3
  6
CONTINUOUS
 10
211.6767514068
 20
276.4917295342
 11
198.9767514068
 21
276.4917295342
  0
LINE
  5
3A5
100
AcDbEntity
  8
X14200002_BL3
100
AcDbLine
 62
3
  6
CONTINUOUS
 10
258.9631185225
 20
262.0672002318
 11
258.1914939391
 21
262.7032784521
  0
LINE
  5
3A6
100
AcDbEntity
  8
X14200002_BL3
100
AcDbLine
 62
7
  6
CENTER
 10
279.6767514068
 20
253.7417295342
 11
279.6767514068
 21
244.7417295342
  0
LINE
  5
3A7
100
AcDbEntity
  8
X14200002_BL3
100
AcDbLine
 62
7
  6
CENTER
 10
279.6767514068
 20
253.7417295342
 11
279.6767514068
 21
262.7417295342
  0
LINE
  5
3A8
100
AcDbEntity
  8
X14200002_BL3
100
AcDbLine
 62
3
  6
CONTINUOUS
 10
283.3767514068
 20
223.9417295342
 11
283.3767514068
 21
226.0417295342
  0
LINE
  5
3A9
100
AcDbEntity
  8
X14200002_BL3
100
AcDbLine
 62
3
  6
CONTINUOUS
 10
283.6767514068
 20
175.7417295342
 11
283.6767514068
 21
173.7417295342
  0
LINE
  5
3AA
100
AcDbEntity
  8
X14200002_BL3
100
AcDbLine
 62
7
  6
CONTINUOUS
 10
283.8887685539
 20
316.7417295342
 11
283.8887685539
 21
315.2417295342
  0
LINE
  5
3AB
100
AcDbEntity
  8
X14200002_BL3
100
AcDbLine
 62
7
  6
CONTINUOUS
 10
283.8887685539
 20
151.7417295342
 11
283.8887685539
 21
153.2417295342
  0
LINE
  5
3AC
100
AcDbEntity
  8
X14200002_BL3
100
AcDbLine
 62
3
  6
CONTINUOUS
 10
284.9767514068
 20
300.4417295342
 11
284.9767514068
 21
302.5417295342
  0
LINE
  5
3AD
100
AcDbEntity
  8
X14200002_BL3
100
AcDbLine
 62
7
  6
CONTINUOUS
 10
285.0767514068
 20
316.7417295342
 11
285.0767514068
 21
315.2417295342
  0
LINE
  5
3AE
100
AcDbEntity
  8
X14200002_BL3
100
AcDbLine
 62
7
  6
CONTINUOUS
 10
285.0767514068
 20
151.7417295342
 11
285.0767514068
 21
153.2417295342
  0
LINE
  5
3AF
100
AcDbEntity
  8
X14200002_BL3
100
AcDbLine
 62
9
  6
CONTINUOUS
 10
265.0867823273
 20
197.3488951936
 11
264.2425918231
 21
196.0489558132
  0
LINE
  5
3B0
100
AcDbEntity
  8
X14200002_BL3
100
AcDbLine
 62
9
  6
CONTINUOUS
 10
266.6662355289
 20
199.7810398406
 11
267.5104260331
 21
201.0809792209
  0
LINE
  5
3B1
100
AcDbEntity
  8
X14200002_BL3
100
AcDbLine
 62
3
  6
CONTINUOUS
 10
198.9767514068
 20
287.4917295342
 11
211.6767514068
 21
287.4917295342
  0
LINE
  5
3B2
100
AcDbEntity
  8
X14200002_BL3
100
AcDbLine
 62
9
  6
CONTINUOUS
 10
272.3334156445
 20
261.6299916273
 11
273.3297364396
 21
260.4426227404
  0
LINE
  5
3B3
100
AcDbEntity
  8
X14200002_BL3
100
AcDbLine
 62
9
  6
CONTINUOUS
 10
270.4693315765
 20
263.8515205123
 11
269.4730107814
 21
265.0388893991
  0
LINE
  5
3B4
100
AcDbEntity
  8
X14200002_BL3
100
AcDbLine
 62
9
  6
CONTINUOUS
 10
275.397593417
 20
264.201142066
 11
276.393914212
 21
263.0137731792
  0
LINE
  5
3B5
100
AcDbEntity
  8
X14200002_BL3
100
AcDbLine
 62
9
  6
CONTINUOUS
 10
273.5335093489
 20
266.4226709511
 11
272.5371885539
 21
267.6100398379
  0
LINE
  5
3B6
100
AcDbEntity
  8
X14200002_BL3
100
AcDbLine
 62
3
  6
CONTINUOUS
 10
291.1767514068
 20
268.7417295342
 11
291.1767514068
 21
258.7417295342
  0
LINE
  5
3B7
100
AcDbEntity
  8
X14200002_BL3
100
AcDbLine
 62
3
  6
CONTINUOUS
 10
291.1767514068
 20
166.0417295342
 11
291.1767514068
 21
161.3155034545
  0
LINE
  5
3B8
100
AcDbEntity
  8
X14200002_BL3
100
AcDbLine
 62
9
  6
CONTINUOUS
 10
291.1767514068
 20
166.0417295342
 11
291.1767514068
 21
258.7417295342
  0
LINE
  5
3B9
100
AcDbEntity
  8
X14200002_BL3
100
AcDbLine
 62
9
  6
CONTINUOUS
 10
291.1767514068
 20
268.7417295342
 11
291.1767514068
 21
307.9679556139
  0
LINE
  5
3BA
100
AcDbEntity
  8
X14200002_BL3
100
AcDbLine
 62
7
  6
CONTINUOUS
 10
291.6767514068
 20
308.5417295342
 11
291.6767514068
 21
307.775049405
  0
LINE
  5
3BB
100
AcDbEntity
  8
X14200002_BL3
100
AcDbLine
 62
3
  6
CONTINUOUS
 10
293.1767514068
 20
166.0417295342
 11
293.1767514068
 21
258.7417295342
  0
LINE
  5
3BC
100
AcDbEntity
  8
X14200002_BL3
100
AcDbLine
 62
3
  6
CONTINUOUS
 10
293.1767514068
 20
268.7417295342
 11
293.1767514068
 21
308.5417295342
  0
LINE
  5
3BD
100
AcDbEntity
  8
X14200002_BL3
100
AcDbLine
 62
9
  6
CONTINUOUS
 10
274.9830950291
 20
190.9221545804
 11
274.1389045248
 21
189.6222152001
  0
LINE
  5
3BE
100
AcDbEntity
  8
X14200002_BL3
100
AcDbLine
 62
9
  6
CONTINUOUS
 10
276.5625482306
 20
193.3542992274
 11
277.4067387349
 21
194.6542386077
  0
LINE
  5
3BF
100
AcDbEntity
  8
X14200002_BL3
100
AcDbLine
 62
3
  6
CONTINUOUS
 10
212.6767514068
 20
298.7417295342
 11
198.9767514068
 21
298.7417295342
  0
LINE
  5
3C0
100
AcDbEntity
  8
X14200002_BL3
100
AcDbLine
 62
7
  6
CENTER
 10
260.6767514068
 20
299.7417295342
 11
251.6767514068
 21
299.7417295342
  0
LINE
  5
3C1
100
AcDbEntity
  8
X14200002_BL3
100
AcDbLine
 62
7
  6
CENTER
 10
260.6767514068
 20
299.7417295342
 11
269.6767514068
 21
299.7417295342
  0
LINE
  5
3C2
100
AcDbEntity
  8
X14200002_BL3
100
AcDbLine
 62
3
  6
CONTINUOUS
 10
276.3767514068
 20
300.4417295342
 11
284.9767514068
 21
300.4417295342
  0
LINE
  5
3C3
100
AcDbEntity
  8
X14200002_BL3
100
AcDbLine
 62
3
  6
CONTINUOUS
 10
284.9767514068
 20
302.5417295342
 11
276.3767514068
 21
302.5417295342
  0
LINE
  5
3C4
100
AcDbEntity
  8
X14200002_BL3
100
AcDbLine
 62
7
  6
CONTINUOUS
 10
293.1767514068
 20
307.5241707806
 11
292.7249210427
 21
307.5241707806
  0
LINE
  5
3C5
100
AcDbEntity
  8
X14200002_BL3
100
AcDbLine
 62
7
  6
CONTINUOUS
 10
293.1767514068
 20
308.5417295342
 11
291.6767514068
 21
308.5417295342
  0
LINE
  5
3C6
100
AcDbEntity
  8
X14200002_BL3
100
AcDbLine
 62
3
  6
CONTINUOUS
 10
198.9767514068
 20
313.4417295342
 11
201.4767514068
 21
313.4417295342
  0
LINE
  5
3C7
100
AcDbEntity
  8
X14200002_BL3
100
AcDbLine
 62
9
  6
CONTINUOUS
 10
201.4767514068
 20
314.7417295342
 11
283.9203131652
 21
314.7417295342
  0
LINE
  5
3C8
100
AcDbEntity
  8
X14200002_BL3
100
AcDbLine
 62
7
  6
CONTINUOUS
 10
283.8887685539
 20
315.2417295342
 11
285.0767514068
 21
315.2417295342
  0
LINE
  5
3C9
100
AcDbEntity
  8
X14200002_BL3
100
AcDbLine
 62
3
  6
CONTINUOUS
 10
201.4767514068
 20
316.7417295342
 11
285.0767514068
 21
316.7417295342
  0
LINE
  5
3CA
100
AcDbEntity
  8
X14200002_BL3
100
AcDbLine
 62
9
  6
CONTINUOUS
 10
290.7593438155
 20
159.373528454
 11
285.9980866069
 21
154.6122712455
  0
LINE
  5
3CB
100
AcDbEntity
  8
X14200002_BL3
100
AcDbLine
 62
7
  6
CONTINUOUS
 10
291.7187391009
 20
159.6258169582
 11
291.1796799636
 21
159.0867578209
  0
LINE
  5
3CC
100
AcDbEntity
  8
X14200002_BL3
100
AcDbLine
 62
7
  6
CONTINUOUS
 10
286.382662001
 20
154.2897398583
 11
285.3547780702
 21
153.2618559276
  0
LINE
  5
3CD
100
AcDbEntity
  8
X14200002_BL3
100
AcDbLine
 62
3
  6
CONTINUOUS
 10
286.415438242
 20
152.2011957558
 11
292.7793992727
 21
158.5651567865
  0
LINE
  5
3CE
100
AcDbEntity
  8
X14200002_BL3
100
AcDbLine
 62
9
  6
CONTINUOUS
 10
290.6300052276
 20
309.3483962369
 11
286.0795690374
 21
313.8988324272
  0
LINE
  5
3CF
100
AcDbEntity
  8
X14200002_BL3
100
AcDbLine
 62
7
  6
CONTINUOUS
 10
285.4254887484
 20
315.2600194974
 11
286.4108509344
 21
314.2746573114
  0
LINE
  5
3D0
100
AcDbEntity
  8
X14200002_BL3
100
AcDbLine
 62
7
  6
CONTINUOUS
 10
290.8551676827
 20
309.8303405631
 11
291.789449779
 21
308.8960584667
  0
LINE
  5
3D1
100
AcDbEntity
  8
X14200002_BL3
100
AcDbLine
 62
3
  6
CONTINUOUS
 10
286.4861489201
 20
316.3206796692
 11
292.8501099508
 21
309.9567186385
  0
LINE
  5
3D2
100
AcDbEntity
  8
X14200002_BL3
100
AcDbLine
 62
7
  6
CONTINUOUS
 10
417.9456013258
 20
159.6258169582
 11
419.6037045608
 21
159.6258169582
  0
LINE
  5
3D3
100
AcDbEntity
  8
X14200002_BL3
100
AcDbLine
 62
7
  6
CONTINUOUS
 10
420.3822692609
 20
159.6258169582
 11
422.0407085064
 21
159.6258169582
  0
LINE
  5
3D4
100
AcDbEntity
  8
X14200002_BL3
100
AcDbLine
 62
7
  6
CONTINUOUS
 10
417.9292375075
 20
166.0417295342
 11
419.4134686933
 21
166.0417295342
  0
LINE
  5
3D5
100
AcDbEntity
  8
X14200002_BL3
100
AcDbLine
 62
7
  6
CONTINUOUS
 10
420.5724922658
 20
166.0417295342
 11
422.0569998219
 21
166.0417295342
  0
LINE
  5
3D6
100
AcDbEntity
  8
X14200002_BL3
100
AcDbLine
 62
7
  6
CONTINUOUS
 10
416.4429779785
 20
180.9289909473
 11
416.4429779785
 21
181.2917295342
  0
LINE
  5
3D7
100
AcDbEntity
  8
X14200002_BL3
100
AcDbLine
 62
7
  6
CONTINUOUS
 10
421.4429779785
 20
181.1917295342
 11
421.4429779785
 21
181.0417295342
  0
LINE
  5
3D8
100
AcDbEntity
  8
X14200002_BL3
100
AcDbLine
 62
9
  6
CONTINUOUS
 10
424.6429798151
 20
295.4917295342
 11
424.6429798151
 21
295.9641549232
  0
LINE
  5
3D9
100
AcDbEntity
  8
X14200002_BL3
100
AcDbLine
 62
7
  6
CONTINUOUS
 10
425.1429798151
 20
267.9456450127
 11
425.1429798151
 21
270.11381625
  0
LINE
  5
3DA
100
AcDbEntity
  8
X14200002_BL3
100
AcDbLine
 62
7
  6
CONTINUOUS
 10
425.1429798151
 20
276.4917295342
 11
425.1429798151
 21
277.0417295342
  0
LINE
  5
3DB
100
AcDbEntity
  8
X14200002_BL3
100
AcDbLine
 62
7
  6
CONTINUOUS
 10
425.1429798151
 20
286.9417295342
 11
425.1429798151
 21
287.4917295342
  0
LINE
  5
3DC
100
AcDbEntity
  8
X14200002_BL3
100
AcDbLine
 62
7
  6
CONTINUOUS
 10
425.1429798151
 20
293.8696428183
 11
425.1429798151
 21
296.0378140534
  0
LINE
  5
3DD
100
AcDbEntity
  8
X14200002_BL3
100
AcDbLine
 62
7
  6
CONTINUOUS
 10
426.0429798151
 20
287.4291032715
 11
426.0429798151
 21
286.9417295342
  0
LINE
  5
3DE
100
AcDbEntity
  8
X14200002_BL3
100
AcDbLine
 62
7
  6
CONTINUOUS
 10
426.0429798151
 20
277.0417295342
 11
426.0429798151
 21
276.5543557968
  0
LINE
  5
3DF
100
AcDbEntity
  8
X14200002_BL3
100
AcDbLine
 62
7
  6
CONTINUOUS
 10
424.7929798151
 20
268.7417295342
 11
425.1429798151
 21
268.7417295342
  0
LINE
  5
3E0
100
AcDbEntity
  8
X14200002_BL3
100
AcDbLine
 62
7
  6
CONTINUOUS
 10
426.3529798151
 20
276.4917295342
 11
427.1736801123
 21
276.4917295342
  0
LINE
  5
3E1
100
AcDbEntity
  8
X14200002_BL3
100
AcDbLine
 62
7
  6
CENTER
 10
413.3783650129
 20
281.9417295342
 11
430.1567669885
 21
281.9417295342
  0
LINE
  5
3E2
100
AcDbEntity
  8
X14200002_BL3
100
AcDbLine
 62
7
  6
CONTINUOUS
 10
426.3529798151
 20
287.4917295342
 11
427.1736801123
 21
287.4917295342
  0
LINE
  5
3E3
100
AcDbEntity
  8
X14200002_BL3
100
AcDbLine
 62
7
  6
CONTINUOUS
 10
198.9767514068
 20
35.2651521433
 11
198.9767514068
 21
37.6651521433
  0
LINE
  5
3E4
100
AcDbEntity
  8
X14200002_BL3
100
AcDbLine
 62
3
  6
CONTINUOUS
 10
201.4767514068
 20
36.1651521433
 11
201.4767514068
 21
49.4643539799
  0
LINE
  5
3E5
100
AcDbEntity
  8
X14200002_BL3
100
AcDbLine
 62
7
  6
CONTINUOUS
 10
212.6767514068
 20
36.1651521433
 11
212.6767514068
 21
35.2651521433
  0
LINE
  5
3E6
100
AcDbEntity
  8
X14200002_BL3
100
AcDbLine
 62
3
  6
CONTINUOUS
 10
280.511798224
 20
35.2651521433
 11
264.4265448449
 21
35.2651521433
  0
LINE
  5
3E7
100
AcDbEntity
  8
X14200002_BL3
100
AcDbLine
 62
3
  6
CONTINUOUS
 10
256.9269585017
 20
35.2651521433
 11
239.4628245921
 21
35.2651521433
  0
LINE
  5
3E8
100
AcDbEntity
  8
X14200002_BL3
100
AcDbLine
 62
3
  6
CONTINUOUS
 10
212.6767514068
 20
35.2651521433
 11
198.9767514068
 21
35.2651521433
  0
LINE
  5
3E9
100
AcDbEntity
  8
X14200002_BL3
100
AcDbLine
 62
3
  6
CONTINUOUS
 10
198.9767514068
 20
36.1651521433
 11
291.1767514068
 21
36.1651521433
  0
LINE
  5
3EA
100
AcDbEntity
  8
X14200002_BL3
100
AcDbLine
 62
7
  6
CONTINUOUS
 10
286.0795690374
 20
37.6651521433
 11
283.9203131652
 21
37.6651521433
  0
LINE
  5
3EB
100
AcDbEntity
  8
X14200002_BL3
100
AcDbLine
 62
7
  6
CONTINUOUS
 10
198.9767514068
 20
37.6651521433
 11
201.4767514068
 21
37.6651521433
  0
LINE
  5
3EC
100
AcDbEntity
  8
X14200002_BL3
100
AcDbLine
 62
7
  6
CONTINUOUS
 10
293.1767514068
 20
38.1651521433
 11
291.7623394055
 21
38.1651521433
  0
LINE
  5
3ED
100
AcDbEntity
  8
X14200002_BL3
100
AcDbLine
 62
7
  6
CONTINUOUS
 10
287.4715111062
 20
38.1651521433
 11
286.4108509344
 21
38.1651521433
  0
LINE
  5
3EE
100
AcDbEntity
  8
X14200002_BL3
100
AcDbLine
 62
9
  6
CONTINUOUS
 10
201.4767514068
 20
38.1651521433
 11
283.8887685539
 21
38.1651521433
  0
LINE
  5
3EF
100
AcDbEntity
  8
X14200002_BL3
100
AcDbLine
 62
9
  6
CONTINUOUS
 10
286.382662001
 20
38.1651521433
 11
286.4108509344
 21
38.1651521433
  0
LINE
  5
3F0
100
AcDbEntity
  8
X14200002_BL3
100
AcDbLine
 62
9
  6
CONTINUOUS
 10
287.4715111062
 20
38.1651521433
 11
291.7623394055
 21
38.1651521433
  0
LINE
  5
3F1
100
AcDbEntity
  8
X14200002_BL3
100
AcDbLine
 62
7
  6
CONTINUOUS
 10
286.4861489201
 20
39.1075981438
 11
285.4254887484
 21
39.1075981438
  0
LINE
  5
3F2
100
AcDbEntity
  8
X14200002_BL3
100
AcDbLine
 62
7
  6
CONTINUOUS
 10
293.1767514068
 20
39.4336554731
 11
292.5497449577
 21
39.4336554731
  0
LINE
  5
3F3
100
AcDbEntity
  8
X14200002_BL3
100
AcDbLine
 62
3
  6
CONTINUOUS
 10
201.4767514068
 20
49.4643539799
 11
285.0767514068
 21
49.4643539799
  0
LINE
  5
3F4
100
AcDbEntity
  8
X14200002_BL3
100
AcDbLine
 62
7
  6
CONTINUOUS
 10
293.1767514068
 20
49.4647539799
 11
292.8501099508
 21
49.4647539799
  0
LINE
  5
3F5
100
AcDbEntity
  8
X14200002_BL3
100
AcDbLine
 62
3
  6
CONTINUOUS
 10
292.8501099508
 20
49.4647539799
 11
286.4861489201
 21
49.4647539799
  0
LINE
  5
3F6
100
AcDbEntity
  8
X14200002_BL3
100
AcDbLine
 62
7
  6
CONTINUOUS
 10
286.4861489201
 20
49.4647539799
 11
285.4254887484
 21
49.4647539799
  0
LINE
  5
3F7
100
AcDbEntity
  8
X14200002_BL3
100
AcDbLine
 62
7
  6
CONTINUOUS
 10
283.9203131652
 20
36.1651521433
 11
283.9203131652
 21
37.6651521433
  0
LINE
  5
3F8
100
AcDbEntity
  8
X14200002_BL3
100
AcDbLine
 62
3
  6
CONTINUOUS
 10
285.0767514068
 20
39.1334264836
 11
285.0767514068
 21
49.4643539799
  0
LINE
  5
3F9
100
AcDbEntity
  8
X14200002_BL3
100
AcDbLine
 62
7
  6
CONTINUOUS
 10
285.3547780702
 20
39.186747445
 11
285.3547780702
 21
39.689480004
  0
LINE
  5
3FA
100
AcDbEntity
  8
X14200002_BL3
100
AcDbLine
 62
7
  6
CONTINUOUS
 10
285.4254887484
 20
49.4647539799
 11
285.4254887484
 21
39.1075981438
  0
LINE
  5
3FB
100
AcDbEntity
  8
X14200002_BL3
100
AcDbLine
 62
7
  6
CONTINUOUS
 10
286.0795690374
 20
36.1651521433
 11
286.0795690374
 21
37.6651521433
  0
LINE
  5
3FC
100
AcDbEntity
  8
X14200002_BL3
100
AcDbLine
 62
3
  6
CONTINUOUS
 10
286.4861489201
 20
49.4647539799
 11
286.4861489201
 21
39.1075981438
  0
LINE
  5
3FD
100
AcDbEntity
  8
X14200002_BL3
100
AcDbLine
 62
7
  6
CONTINUOUS
 10
291.1767514068
 20
36.1651521433
 11
291.1767514068
 21
36.5061392782
  0
LINE
  5
3FE
100
AcDbEntity
  8
X14200002_BL3
100
AcDbLine
 62
3
  6
CONTINUOUS
 10
292.8501099508
 20
39.5311045663
 11
292.8501099508
 21
49.4647539799
  0
LINE
  5
3FF
100
AcDbEntity
  8
X14200002_BL3
100
AcDbLine
 62
3
  6
CONTINUOUS
 10
293.1767514068
 20
49.4647539799
 11
293.1767514068
 21
38.1651521433
  0
CIRCLE
  5
400
100
AcDbEntity
  8
X14200002_BL3
100
AcDbCircle
 62
3
  6
CONTINUOUS
 10
241.6767514068
 20
162.7417295342
 40
4.675
  0
CIRCLE
  5
401
100
AcDbEntity
  8
X14200002_BL3
100
AcDbCircle
 62
3
  6
CONTINUOUS
 10
241.6767514068
 20
162.7417295342
 40
4.1015092285
  0
ARC
  5
402
100
AcDbEntity
  8
X14200002_BL3
100
AcDbCircle
 62
3
  6
CONTINUOUS
 10
241.6767514068
 20
173.7417295342
 40
4.0
100
AcDbArc
 50
180.0
 51
360.0
  0
ARC
  5
403
100
AcDbEntity
  8
X14200002_BL3
100
AcDbCircle
 62
3
  6
CONTINUOUS
 10
241.6767514068
 20
175.7417295342
 40
4.0
100
AcDbArc
 50
0.0
 51
180.0
  0
CIRCLE
  5
404
100
AcDbEntity
  8
X14200002_BL3
100
AcDbCircle
 62
3
  6
CONTINUOUS
 10
217.6767514068
 20
174.7417295342
 40
3.75
  0
CIRCLE
  5
405
100
AcDbEntity
  8
X14200002_BL3
100
AcDbCircle
 62
3
  6
CONTINUOUS
 10
244.9767514068
 20
231.7417295342
 40
1.75
  0
ARC
  5
406
100
AcDbEntity
  8
X14200002_BL3
100
AcDbCircle
 62
9
  6
CONTINUOUS
 10
245.5806811838
 20
192.1382269039
 40
1.45
100
AcDbArc
 50
123.0
 51
303.0
  0
CIRCLE
  5
407
100
AcDbEntity
  8
X14200002_BL3
100
AcDbCircle
 62
3
  6
CONTINUOUS
 10
241.6767514068
 20
253.7417295342
 40
4.0
  0
CIRCLE
  5
408
100
AcDbEntity
  8
X14200002_BL3
100
AcDbCircle
 62
3
  6
CONTINUOUS
 10
245.1767514068
 20
281.9917295342
 40
3.75
  0
ARC
  5
409
100
AcDbEntity
  8
X14200002_BL3
100
AcDbCircle
 62
9
  6
CONTINUOUS
 10
240.9128047744
 20
270.3256498641
 40
1.45
100
AcDbArc
 50
50.0
 51
230.0
  0
ARC
  5
40A
100
AcDbEntity
  8
X14200002_BL3
100
AcDbCircle
 62
3
  6
CONTINUOUS
 10
260.6767514068
 20
179.7417295342
 40
11.2
100
AcDbArc
 50
297.5197003024
 51
242.4802996976
  0
ARC
  5
40B
100
AcDbEntity
  8
X14200002_BL3
100
AcDbCircle
 62
3
  6
CONTINUOUS
 10
260.6767514068
 20
160.8167295342
 40
5.175
100
AcDbArc
 50
180.0
 51
360.0
  0
CIRCLE
  5
40C
100
AcDbEntity
  8
X14200002_BL3
100
AcDbCircle
 62
3
  6
CONTINUOUS
 10
260.6767514068
 20
232.2417295342
 40
5.0
  0
ARC
  5
40D
100
AcDbEntity
  8
X14200002_BL3
100
AcDbCircle
 62
3
  6
CONTINUOUS
 10
279.6767514068
 20
173.7417295342
 40
4.0
100
AcDbArc
 50
180.0
 51
360.0
  0
ARC
  5
40E
100
AcDbEntity
  8
X14200002_BL3
100
AcDbCircle
 62
3
  6
CONTINUOUS
 10
279.6767514068
 20
175.7417295342
 40
4.0
100
AcDbArc
 50
0.0
 51
180.0
  0
CIRCLE
  5
40F
100
AcDbEntity
  8
X14200002_BL3
100
AcDbCircle
 62
3
  6
CONTINUOUS
 10
262.6767514068
 20
206.2417295342
 40
3.75
  0
ARC
  5
410
100
AcDbEntity
  8
X14200002_BL3
100
AcDbCircle
 62
3
  6
CONTINUOUS
 10
250.6767514068
 20
167.3417295342
 40
2.5
100
AcDbArc
 50
0.0
 51
180.0
  0
ARC
  5
411
100
AcDbEntity
  8
X14200002_BL3
100
AcDbCircle
 62
3
  6
CONTINUOUS
 10
250.6767514068
 20
166.7417295342
 40
2.5
100
AcDbArc
 50
180.0
 51
360.0
  0
ARC
  5
412
100
AcDbEntity
  8
X14200002_BL3
100
AcDbCircle
 62
3
  6
CONTINUOUS
 10
270.6767514068
 20
167.3417295342
 40
2.5
100
AcDbArc
 50
0.0
 51
180.0
  0
ARC
  5
413
100
AcDbEntity
  8
X14200002_BL3
100
AcDbCircle
 62
3
  6
CONTINUOUS
 10
270.6767514068
 20
166.7417295342
 40
2.5
100
AcDbArc
 50
180.0
 51
360.0
  0
ARC
  5
414
100
AcDbEntity
  8
X14200002_BL3
100
AcDbCircle
 62
3
  6
CONTINUOUS
 10
285.4767514068
 20
152.9417295342
 40
1.75
100
AcDbArc
 50
72.6681343307
 51
152.7971055878
  0
ARC
  5
415
100
AcDbEntity
  8
X14200002_BL3
100
AcDbCircle
 62
3
  6
CONTINUOUS
 10
292.3767514068
 20
160.0417295342
 40
1.75
100
AcDbArc
 50
133.2918075933
 51
202.4470329247
  0
ARC
  5
416
100
AcDbEntity
  8
X14200002_BL3
100
AcDbCircle
 62
9
  6
CONTINUOUS
 10
275.7728216299
 20
192.1382269039
 40
1.45
100
AcDbArc
 50
237.0
 51
57.0
  0
ARC
  5
417
100
AcDbEntity
  8
X14200002_BL3
100
AcDbCircle
 62
9
  6
CONTINUOUS
 10
265.8765089281
 20
198.5649675171
 40
1.45
100
AcDbArc
 50
57.0
 51
237.0
  0
ARC
  5
418
100
AcDbEntity
  8
X14200002_BL3
100
AcDbCircle
 62
9
  6
CONTINUOUS
 10
255.4769938856
 20
198.5649675171
 40
1.45
100
AcDbArc
 50
303.0
 51
123.0
  0
ARC
  5
419
100
AcDbEntity
  8
X14200002_BL3
100
AcDbCircle
 62
3
  6
CONTINUOUS
 10
260.6767514068
 20
253.7417295342
 40
13.3
100
AcDbArc
 50
107.7386859608
 51
159.2613140392
  0
ARC
  5
41A
100
AcDbEntity
  8
X14200002_BL3
100
AcDbCircle
 62
3
  6
CONTINUOUS
 10
260.6767514068
 20
253.7417295342
 40
8.5
100
AcDbArc
 50
0.0
 51
101.6307645993
  0
ARC
  5
41B
100
AcDbEntity
  8
X14200002_BL3
100
AcDbCircle
 62
3
  6
CONTINUOUS
 10
260.6767514068
 20
253.7417295342
 40
8.5
100
AcDbArc
 50
180.0
 51
360.0
  0
ARC
  5
41C
100
AcDbEntity
  8
X14200002_BL3
100
AcDbCircle
 62
3
  6
CONTINUOUS
 10
260.6767514068
 20
253.7417295342
 40
8.5
100
AcDbArc
 50
165.3692354007
 51
180.0
  0
CIRCLE
  5
41D
100
AcDbEntity
  8
X14200002_BL3
100
AcDbCircle
 62
3
  6
CONTINUOUS
 10
254.3644658372
 20
241.2455280758
 40
2.8571247279
  0
CIRCLE
  5
41E
100
AcDbEntity
  8
X14200002_BL3
100
AcDbCircle
 62
3
  6
CONTINUOUS
 10
266.6767514068
 20
272.7417295342
 40
1.75
  0
CIRCLE
  5
41F
100
AcDbEntity
  8
X14200002_BL3
100
AcDbCircle
 62
3
  6
CONTINUOUS
 10
254.6767514068
 20
272.7417295342
 40
1.75
  0
ARC
  5
420
100
AcDbEntity
  8
X14200002_BL3
100
AcDbCircle
 62
9
  6
CONTINUOUS
 10
246.2751158762
 20
265.8261365963
 40
1.45
100
AcDbArc
 50
230.0
 51
50.0
  0
CIRCLE
  5
421
100
AcDbEntity
  8
X14200002_BL3
100
AcDbCircle
 62
9
  6
CONTINUOUS
 10
254.3644658372
 20
241.2455280758
 40
1.45
  0
CIRCLE
  5
422
100
AcDbEntity
  8
X14200002_BL3
100
AcDbCircle
 62
3
  6
CONTINUOUS
 10
260.6767514068
 20
240.7417295342
 40
1.05
  0
ARC
  5
423
100
AcDbEntity
  8
X14200002_BL3
100
AcDbCircle
 62
3
  6
CONTINUOUS
 10
256.7768957125
 20
265.933166101
 40
0.5
100
AcDbArc
 50
15.5
 51
107.7386859608
  0
ARC
  5
424
100
AcDbEntity
  8
X14200002_BL3
100
AcDbCircle
 62
3
  6
CONTINUOUS
 10
248.7061254571
 20
258.2742911025
 40
0.5
100
AcDbArc
 50
159.2613140392
 51
251.5
  0
CIRCLE
  5
425
100
AcDbEntity
  8
X14200002_BL3
100
AcDbCircle
 62
3
  6
CONTINUOUS
 10
260.6767514068
 20
299.7417295342
 40
4.0
  0
CIRCLE
  5
426
100
AcDbEntity
  8
X14200002_BL3
100
AcDbCircle
 62
3
  6
CONTINUOUS
 10
279.6767514068
 20
253.7417295342
 40
4.0
  0
ARC
  5
427
100
AcDbEntity
  8
X14200002_BL3
100
AcDbCircle
 62
9
  6
CONTINUOUS
 10
274.465551383
 20
265.3119065085
 40
1.45
100
AcDbArc
 50
310.0
 51
130.0
  0
ARC
  5
428
100
AcDbEntity
  8
X14200002_BL3
100
AcDbCircle
 62
9
  6
CONTINUOUS
 10
271.4013736105
 20
262.7407560698
 40
1.45
100
AcDbArc
 50
130.0
 51
310.0
  0
ARC
  5
429
100
AcDbEntity
  8
X14200002_BL3
100
AcDbCircle
 62
9
  6
CONTINUOUS
 10
279.0618180417
 20
238.3148269017
 40
1.45
100
AcDbArc
 50
230.0
 51
50.0
  0
ARC
  5
42A
100
AcDbEntity
  8
X14200002_BL3
100
AcDbCircle
 62
9
  6
CONTINUOUS
 10
271.4013736105
 20
244.7427029986
 40
1.45
100
AcDbArc
 50
50.0
 51
230.0
  0
ARC
  5
42B
100
AcDbEntity
  8
X14200002_BL3
100
AcDbCircle
 62
3
  6
CONTINUOUS
 10
292.3767514068
 20
309.2417295342
 40
1.75
100
AcDbArc
 50
176.5055185761
 51
226.7081924067
  0
ARC
  5
42C
100
AcDbEntity
  8
X14200002_BL3
100
AcDbCircle
 62
3
  6
CONTINUOUS
 10
285.4767514068
 20
315.5417295342
 40
1.75
100
AcDbArc
 50
207.2028944122
 51
290.1492761417
  0
ARC
  5
42D
100
AcDbEntity
  8
X14200002_BL3
100
AcDbCircle
 62
3
  6
CONTINUOUS
 10
239.4628047744
 20
36.8151521433
 40
1.55
100
AcDbArc
 50
204.8127812976
 51
270.0
  0
ARC
  5
42E
100
AcDbEntity
  8
X14200002_BL3
100
AcDbCircle
 62
7
  6
CONTINUOUS
 10
284.3924591041
 20
37.5278549034
 40
2.0897500671
100
AcDbArc
 50
17.7559606614
 51
22.6106298099
  0
ARC
  5
42F
100
AcDbEntity
  8
X14200002_BL3
100
AcDbCircle
 62
3
  6
CONTINUOUS
 10
291.1767514068
 20
38.1651521433
 40
2.0
100
AcDbArc
 50
270.0
 51
360.0
  0
ARC
  5
430
100
AcDbEntity
  8
X14200002_BL3
100
AcDbCircle
 62
3
  6
CONTINUOUS
 10
285.4767514068
 20
37.4297539799
 40
1.75
100
AcDbArc
 50
103.2129803602
 51
155.1510472682
  0
ARC
  5
431
100
AcDbEntity
  8
X14200002_BL3
100
AcDbCircle
 62
3
  6
CONTINUOUS
 10
247.7251158762
 20
36.8151521433
 40
1.55
100
AcDbArc
 50
270.0
 51
335.1872187024
  0
ARC
  5
432
100
AcDbEntity
  8
X14200002_BL3
100
AcDbCircle
 62
3
  6
CONTINUOUS
 10
269.9513736105
 20
36.8151521433
 40
1.55
100
AcDbArc
 50
204.8127812976
 51
270.0
  0
ARC
  5
433
100
AcDbEntity
  8
X14200002_BL3
100
AcDbCircle
 62
3
  6
CONTINUOUS
 10
275.915551383
 20
36.8151521433
 40
1.55
100
AcDbArc
 50
270.0
 51
335.1872187024
  0
ARC
  5
434
100
AcDbEntity
  8
X14200002_BL3
100
AcDbCircle
 62
3
  6
CONTINUOUS
 10
280.5118180417
 20
36.8151521433
 40
1.55
100
AcDbArc
 50
270.0
 51
335.1872187024
  0
ARC
  5
435
100
AcDbEntity
  8
X14200002_BL3
100
AcDbCircle
 62
3
  6
CONTINUOUS
 10
264.4265089281
 20
36.8151521433
 40
1.55
100
AcDbArc
 50
204.8127812976
 51
270.0
  0
ARC
  5
436
100
AcDbEntity
  8
X14200002_BL3
100
AcDbCircle
 62
3
  6
CONTINUOUS
 10
256.9269938856
 20
36.8151521433
 40
1.55
100
AcDbArc
 50
270.0
 51
335.1872187024
  0
ARC
  5
437
100
AcDbEntity
  8
X14200002_BL3
100
AcDbCircle
 62
3
  6
CONTINUOUS
 10
255.8144658372
 20
36.8151521433
 40
1.55
100
AcDbArc
 50
270.0
 51
335.2061375369
  0
ARC
  5
438
100
AcDbEntity
  8
X14200002_BL3
100
AcDbCircle
 62
3
  6
CONTINUOUS
 10
252.9144658372
 20
36.8151521433
 40
1.55
100
AcDbArc
 50
204.7938624631
 51
270.0
  0
ARC
  5
439
100
AcDbEntity
  8
X14200002_BL3
100
AcDbCircle
 62
7
  6
CONTINUOUS
 10
285.2542845509
 20
38.3036563854
 40
0.8887906204
100
AcDbArc
 50
78.8777478653
 51
83.5078140138
  0
ARC
  5
43A
100
AcDbEntity
  8
X14200002_BL3
100
AcDbCircle
 62
7
  6
CONTINUOUS
 10
285.9903719327
 20
37.9191890037
 40
0.4630219905
100
AcDbArc
 50
30.4569601908
 51
32.0874255111
  0
SPLINE
  5
43B
100
AcDbEntity
  8
X14200002_BL3
100
AcDbSpline
 62
7
  6
CONTINUOUS
 70
0
 71
3
 72
9
 73
5
 74
0
 42
0.0000001
 43
0.0000001
 44
0.0000000001
 40
0.0
 40
0.0
 40
0.0
 40
0.0
 40
0.2776203703
 40
1.0
 40
1.0
 40
1.0
 40
1.0
 10
291.1796799636
 20
159.0867578209
 30
0.0
 10
291.1680473914
 20
159.0751252487
 30
0.0
 10
291.1249865557
 20
159.0351341107
 30
0.0
 10
291.0699247931
 20
159.0026999264
 30
0.0
 10
291.0273682302
 20
158.9980852908
 30
0.0
  0
SPLINE
  5
43C
100
AcDbEntity
  8
X14200002_BL3
100
AcDbSpline
 62
7
  6
CONTINUOUS
 70
0
 71
3
 72
9
 73
5
 74
0
 42
0.0000001
 43
0.0000001
 44
0.0000000001
 40
0.0
 40
0.0
 40
0.0
 40
0.0
 40
0.2350185924
 40
1.0
 40
1.0
 40
1.0
 40
1.0
 10
283.8178421267
 20
315.2334386879
 30
0.0
 10
283.8232440596
 20
315.2349317367
 30
0.0
 10
283.8465305053
 20
315.2402041528
 30
0.0
 10
283.870526105
 20
315.2417295342
 30
0.0
 10
283.8887685539
 20
315.2417295342
 30
0.0
  0
SPLINE
  5
43D
100
AcDbEntity
  8
X14200002_BL3
100
AcDbSpline
 62
7
  6
CONTINUOUS
 70
0
 71
3
 72
9
 73
5
 74
0
 42
0.0000001
 43
0.0000001
 44
0.0000000001
 40
0.0
 40
0.0
 40
0.0
 40
0.0
 40
0.2656014432
 40
1.0
 40
1.0
 40
1.0
 40
1.0
 10
283.8887685539
 20
153.2417295342
 30
0.0
 10
283.8824368812
 20
153.2417295342
 30
0.0
 10
283.8586204764
 20
153.242284839
 30
0.0
 10
283.8347172412
 20
153.2453562781
 30
0.0
 10
283.817842589
 20
153.2500202472
 30
0.0
  0
SPLINE
  5
43E
100
AcDbEntity
  8
X14200002_BL3
100
AcDbSpline
 62
7
  6
CONTINUOUS
 70
0
 71
3
 72
9
 73
5
 74
0
 42
0.0000001
 43
0.0000001
 44
0.0000000001
 40
0.0
 40
0.0
 40
0.0
 40
0.0
 40
0.2365996591
 40
1.0
 40
1.0
 40
1.0
 40
1.0
 10
286.4215686009
 20
154.3374127116
 30
0.0
 10
286.4190048181
 20
154.3332846702
 30
0.0
 10
286.4074940204
 20
154.3162550712
 30
0.0
 10
286.3937487785
 20
154.3008266358
 30
0.0
 10
286.382662001
 20
154.2897398583
 30
0.0
  0
SPLINE
  5
43F
100
AcDbEntity
  8
X14200002_BL3
100
AcDbSpline
 62
7
  6
CONTINUOUS
 70
0
 71
3
 72
9
 73
5
 74
0
 42
0.0000001
 43
0.0000001
 44
0.0000000001
 40
0.0
 40
0.0
 40
0.0
 40
0.0
 40
0.2729834056
 40
1.0
 40
1.0
 40
1.0
 40
1.0
 10
286.4108509344
 20
314.2746573114
 30
0.0
 10
286.4187841333
 20
314.2667241125
 30
0.0
 10
286.4467810041
 20
314.2368280885
 30
0.0
 10
286.4705005244
 20
314.201414833
 30
0.0
 10
286.4795598672
 20
314.1729419517
 30
0.0
  0
SPLINE
  5
440
100
AcDbEntity
  8
X14200002_BL3
100
AcDbSpline
 62
3
  6
CONTINUOUS
 70
0
 71
3
 72
12
 73
8
 74
0
 42
0.0000001
 43
0.0000001
 44
0.0000000001
 40
0.0
 40
0.0
 40
0.0
 40
0.0
 40
0.0660980598
 40
0.1547694527
 40
0.3901975299
 40
0.6816284723
 40
1.0
 40
1.0
 40
1.0
 40
1.0
 10
293.0599879041
 20
307.4917349603
 30
0.0
 10
293.0169925341
 20
307.4917379282
 30
0.0
 10
292.916379105
 20
307.4984801056
 30
0.0
 10
292.6644746021
 20
307.5297462969
 30
0.0
 10
292.2706860043
 20
307.6047615647
 30
0.0
 10
291.7385451753
 20
307.7442569334
 30
0.0
 10
291.3648637408
 20
307.8813437651
 30
0.0
 10
291.1767514068
 20
307.9679556139
 30
0.0
  0
SPLINE
  5
441
100
AcDbEntity
  8
X14200002_BL3
100
AcDbSpline
 62
3
  6
CONTINUOUS
 70
0
 71
3
 72
9
 73
5
 74
0
 42
0.0000001
 43
0.0000001
 44
0.0000000001
 40
0.0
 40
0.0
 40
0.0
 40
0.0
 40
0.4551628099
 40
1.0
 40
1.0
 40
1.0
 40
1.0
 10
283.7267643461
 20
152.2817679109
 30
0.0
 10
283.7267788122
 20
152.5055685116
 30
0.0
 10
283.7679785374
 20
152.9968813761
 30
0.0
 10
283.8550448296
 20
153.4819091024
 30
0.0
 10
283.9203131652
 20
153.7417295342
 30
0.0
  0
SPLINE
  5
442
100
AcDbEntity
  8
X14200002_BL3
100
AcDbSpline
 62
3
  6
CONTINUOUS
 70
0
 71
3
 72
9
 73
5
 74
0
 42
0.0000001
 43
0.0000001
 44
0.0000000001
 40
0.0
 40
0.0
 40
0.0
 40
0.0
 40
0.4624672529
 40
1.0
 40
1.0
 40
1.0
 40
1.0
 10
287.1607474104
 20
314.7508701037
 30
0.0
 10
287.0105031037
 20
314.6006076285
 30
0.0
 10
286.6622026966
 20
314.2993641364
 30
0.0
 10
286.2884569183
 20
314.0306101827
 30
0.0
 10
286.0795690374
 20
313.8988324272
 30
0.0
  0
SPLINE
  5
443
100
AcDbEntity
  8
X14200002_BL3
100
AcDbSpline
 62
3
  6
CONTINUOUS
 70
0
 71
3
 72
9
 73
5
 74
0
 42
0.0000001
 43
0.0000001
 44
0.0000000001
 40
0.0
 40
0.0
 40
0.0
 40
0.0
 40
0.4690250532
 40
1.0
 40
1.0
 40
1.0
 40
1.0
 10
291.5614982179
 20
158.3821233381
 30
0.0
 10
291.4203419776
 20
158.5232479255
 30
0.0
 10
291.138268271
 20
158.8429403954
 30
0.0
 10
290.8841505962
 20
159.1851559477
 30
0.0
 10
290.7593438155
 20
159.373528454
 30
0.0
  0
SPLINE
  5
444
100
AcDbEntity
  8
X14200002_BL3
100
AcDbSpline
 62
3
  6
CONTINUOUS
 70
0
 71
3
 72
11
 73
7
 74
0
 42
0.0000001
 43
0.0000001
 44
0.0000000001
 40
0.0
 40
0.0
 40
0.0
 40
0.0
 40
0.3133066664
 40
0.6015969215
 40
0.8381636167
 40
1.0
 40
1.0
 40
1.0
 40
1.0
 10
290.6300052276
 20
309.3483962369
 30
0.0
 10
290.7036083472
 20
309.5341772436
 30
0.0
 10
290.871234824
 20
309.8805159629
 30
0.0
 10
291.1463459939
 20
310.3395262741
 30
0.0
 10
291.3977353078
 20
310.6981149692
 30
0.0
 10
291.5572478871
 20
310.8970880367
 30
0.0
 10
291.6302326171
 20
310.9700795108
 30
0.0
  0
SPLINE
  5
445
100
AcDbEntity
  8
X14200002_BL3
100
AcDbSpline
 62
3
  6
CONTINUOUS
 70
0
 71
3
 72
9
 73
5
 74
0
 42
0.0000001
 43
0.0000001
 44
0.0000000001
 40
0.0
 40
0.0
 40
0.0
 40
0.0
 40
0.5463566431
 40
1.0
 40
1.0
 40
1.0
 40
1.0
 10
285.9980866069
 20
154.6122712455
 30
0.0
 10
286.2321166325
 20
154.4737142633
 30
0.0
 10
286.6425652315
 20
154.190069125
 30
0.0
 10
287.0245867692
 20
153.8687233335
 30
0.0
 10
287.1842782657
 20
153.7090585016
 30
0.0
  0
SPLINE
  5
446
100
AcDbEntity
  8
X14200002_BL3
100
AcDbSpline
 62
3
  6
CONTINUOUS
 70
0
 71
3
 72
9
 73
5
 74
0
 42
0.0000001
 43
0.0000001
 44
0.0000000001
 40
0.0
 40
0.0
 40
0.0
 40
0.0
 40
0.5448371901
 40
1.0
 40
1.0
 40
1.0
 40
1.0
 10
283.9203131652
 20
314.7417295342
 30
0.0
 10
283.8550448296
 20
315.0015499659
 30
0.0
 10
283.7679785374
 20
315.4865776923
 30
0.0
 10
283.7267788122
 20
315.9778905568
 30
0.0
 10
283.7267643461
 20
316.2016911574
 30
0.0
  0
SPLINE
  5
447
100
AcDbEntity
  8
X14200002_BL3
100
AcDbSpline
 62
3
  6
CONTINUOUS
 70
0
 71
3
 72
10
 73
6
 74
0
 42
0.0000001
 43
0.0000001
 44
0.0000000001
 40
0.0
 40
0.0
 40
0.0
 40
0.0
 40
0.3024477936
 40
0.5962616003
 40
1.0
 40
1.0
 40
1.0
 40
1.0
 10
293.1767514068
 20
307.5241707806
 30
0.0
 10
293.1767514068
 20
307.5114584447
 30
0.0
 10
293.1458222799
 20
307.4968249084
 30
0.0
 10
293.107195364
 20
307.4931416074
 30
0.0
 10
293.0769576366
 20
307.491733789
 30
0.0
 10
293.0599879041
 20
307.4917349603
 30
0.0
  0
SPLINE
  5
448
100
AcDbEntity
  8
X14200002_BL3
100
AcDbSpline
 62
3
  6
CONTINUOUS
 70
0
 71
3
 72
13
 73
9
 74
0
 42
0.0000001
 43
0.0000001
 44
0.0000000001
 40
0.0
 40
0.0
 40
0.0
 40
0.0
 40
0.3843437075
 40
0.6714645992
 40
0.7785230865
 40
0.8639256196
 40
0.933901686
 40
1.0
 40
1.0
 40
1.0
 40
1.0
 10
283.7267643461
 20
316.2016911574
 30
0.0
 10
283.7267593568
 20
316.278879428
 30
0.0
 10
283.7311547513
 20
316.4136497298
 30
0.0
 10
283.7531524612
 20
316.5695007692
 30
0.0
 10
283.7851492947
 20
316.6607337753
 30
0.0
 10
283.8124711192
 20
316.7064670259
 30
0.0
 10
283.8476082585
 20
316.735789159
 30
0.0
 10
283.8754939394
 20
316.7417295342
 30
0.0
 10
283.8887685539
 20
316.7417295342
 30
0.0
  0
SPLINE
  5
449
100
AcDbEntity
  8
X14200002_BL3
100
AcDbSpline
 62
3
  6
CONTINUOUS
 70
0
 71
3
 72
13
 73
9
 74
0
 42
0.0000001
 43
0.0000001
 44
0.0000000001
 40
0.0
 40
0.0
 40
0.0
 40
0.0
 40
0.0674023317
 40
0.138170381
 40
0.2240488273
 40
0.3313623791
 40
0.6182580907
 40
1.0
 40
1.0
 40
1.0
 40
1.0
 10
287.4715111062
 20
315.3353174831
 30
0.0
 10
287.4827650424
 20
315.324063547
 30
0.0
 10
287.5014484825
 20
315.2956617095
 30
0.0
 10
287.5068812486
 20
315.2414971031
 30
0.0
 10
287.4918539281
 20
315.1802905264
 30
0.0
 10
287.442953713
 20
315.0775357992
 30
0.0
 10
287.3322945105
 20
314.9299380629
 30
0.0
 10
287.2244816941
 20
314.8146120946
 30
0.0
 10
287.1607474104
 20
314.7508701037
 30
0.0
  0
SPLINE
  5
44A
100
AcDbEntity
  8
X14200002_BL3
100
AcDbSpline
 62
3
  6
CONTINUOUS
 70
0
 71
3
 72
13
 73
9
 74
0
 42
0.0000001
 43
0.0000001
 44
0.0000000001
 40
0.0
 40
0.0
 40
0.0
 40
0.0
 40
0.3848227297
 40
0.6719815776
 40
0.7789923716
 40
0.8643058448
 40
0.9341377343
 40
1.0
 40
1.0
 40
1.0
 40
1.0
 10
287.1842782657
 20
153.7090585016
 30
0.0
 10
287.2371341369
 20
153.6562114561
 30
0.0
 10
287.3263779984
 20
153.5609852056
 30
0.0
 10
287.4180066592
 20
153.4393222825
 30
0.0
 10
287.4585670204
 20
153.3550975384
 30
0.0
 10
287.4711978439
 20
153.3052092938
 30
0.0
 10
287.4673097892
 20
153.2612153508
 30
0.0
 10
287.4523676801
 20
153.2381251938
 30
0.0
 10
287.4433221728
 20
153.2290796865
 30
0.0
  0
SPLINE
  5
44B
100
AcDbEntity
  8
X14200002_BL3
100
AcDbSpline
 62
3
  6
CONTINUOUS
 70
0
 71
3
 72
10
 73
6
 74
0
 42
0.0000001
 43
0.0000001
 44
0.0000000001
 40
0.0
 40
0.0
 40
0.0
 40
0.0
 40
0.4029308663
 40
0.6968226899
 40
1.0
 40
1.0
 40
1.0
 40
1.0
 10
291.6302326171
 20
310.9700795108
 30
0.0
 10
291.6452196124
 20
310.9850678909
 30
0.0
 10
291.6731981574
 20
311.0105341159
 30
0.0
 10
291.7106720509
 20
311.0414806319
 30
0.0
 10
291.7510622182
 20
311.0557663712
 30
0.0
 10
291.7623394055
 20
311.0444891839
 30
0.0
  0
SPLINE
  5
44C
100
AcDbEntity
  8
X14200002_BL3
100
AcDbSpline
 62
3
  6
CONTINUOUS
 70
0
 71
3
 72
13
 73
9
 74
0
 42
0.0000001
 43
0.0000001
 44
0.0000000001
 40
0.0
 40
0.0
 40
0.0
 40
0.0
 40
0.066098314
 40
0.1360743804
 40
0.2214769135
 40
0.3285354008
 40
0.6156562925
 40
1.0
 40
1.0
 40
1.0
 40
1.0
 10
283.8887685539
 20
151.7417295342
 30
0.0
 10
283.8754939394
 20
151.7417295342
 30
0.0
 10
283.8476082585
 20
151.7476699094
 30
0.0
 10
283.8124711192
 20
151.7769920425
 30
0.0
 10
283.7851492947
 20
151.822725293
 30
0.0
 10
283.7531524612
 20
151.9139582991
 30
0.0
 10
283.7311547513
 20
152.0698093385
 30
0.0
 10
283.7267593568
 20
152.2045796404
 30
0.0
 10
283.7267643461
 20
152.2817679109
 30
0.0
  0
SPLINE
  5
44D
100
AcDbEntity
  8
X14200002_BL3
100
AcDbSpline
 62
3
  6
CONTINUOUS
 70
0
 71
3
 72
13
 73
9
 74
0
 42
0.0000001
 43
0.0000001
 44
0.0000000001
 40
0.0
 40
0.0
 40
0.0
 40
0.0
 40
0.0688454341
 40
0.1404777412
 40
0.2268549433
 40
0.3344457277
 40
0.6210866859
 40
1.0
 40
1.0
 40
1.0
 40
1.0
 10
292.2403401353
 20
158.0260976491
 30
0.0
 10
292.227007021
 20
158.0127645348
 30
0.0
 10
292.1937100963
 20
157.9905305089
 30
0.0
 10
292.1301644273
 20
157.9834628422
 30
0.0
 10
292.058581288
 20
158.0005306759
 30
0.0
 10
291.939029579
 20
158.0568322591
 30
0.0
 10
291.7681697712
 20
158.1844063486
 30
0.0
 10
291.634889592
 20
158.3087484213
 30
0.0
 10
291.5614982179
 20
158.3821233381
 30
0.0
  0
SPLINE
  5
44E
100
AcDbEntity
  8
X14200002_BL3
100
AcDbSpline
 62
7
  6
CONTINUOUS
 70
0
 71
3
 72
9
 73
5
 74
0
 42
0.0000001
 43
0.0000001
 44
0.0000000001
 40
0.0
 40
0.0
 40
0.0
 40
0.0
 40
0.2557515267
 40
1.0
 40
1.0
 40
1.0
 40
1.0
 10
286.3215886922
 20
38.3312939956
 30
0.0
 10
286.3107380494
 20
38.357313828
 30
0.0
 10
286.2661953009
 20
38.458148583
 30
0.0
 10
286.2129842124
 20
38.5552207297
 30
0.0
 10
286.1684002509
 20
38.6240876658
 30
0.0
  0
SPLINE
  5
44F
100
AcDbEntity
  8
X14200002_BL3
100
AcDbSpline
 62
7
  6
CONTINUOUS
 70
0
 71
3
 72
11
 73
7
 74
0
 42
0.0000001
 43
0.0000001
 44
0.0000000001
 40
0.0
 40
0.0
 40
0.0
 40
0.0
 40
0.2217263044
 40
0.4595243578
 40
0.7190488363
 40
1.0
 40
1.0
 40
1.0
 40
1.0
 10
285.4254887484
 20
39.1075981438
 30
0.0
 10
285.5301183197
 20
39.093759959
 30
0.0
 10
285.7430293582
 20
39.024916596
 30
0.0
 10
286.0222267185
 20
38.8188934258
 30
0.0
 10
286.2539464053
 20
38.5252287883
 30
0.0
 10
286.365173094
 20
38.2908408203
 30
0.0
 10
286.4108509344
 20
38.1651521433
 30
0.0
  0
SPLINE
  5
450
100
AcDbEntity
  8
X14200002_BL3
100
AcDbSpline
 62
7
  6
CONTINUOUS
 70
0
 71
3
 72
13
 73
9
 74
0
 42
0.0000001
 43
0.0000001
 44
0.0000000001
 40
0.0
 40
0.0
 40
0.0
 40
0.0
 40
0.2383459023
 40
0.3555256817
 40
0.4732401171
 40
0.5954864367
 40
0.7250054874
 40
1.0
 40
1.0
 40
1.0
 40
1.0
 10
286.4108509344
 20
38.1651521433
 30
0.0
 10
286.4468519678
 20
38.114479399
 30
0.0
 10
286.4881912486
 20
38.0260873219
 30
0.0
 10
286.4867361513
 20
37.9004969358
 30
0.0
 10
286.4513925455
 20
37.8117619171
 30
0.0
 10
286.3830407664
 20
37.7407646334
 30
0.0
 10
286.259260719
 20
37.6771584066
 30
0.0
 10
286.1512863053
 20
37.6651521433
 30
0.0
 10
286.0795690374
 20
37.6651521433
 30
0.0
  0
SPLINE
  5
451
100
AcDbEntity
  8
X14200002_BL3
100
AcDbSpline
 62
7
  6
CONTINUOUS
 70
0
 71
3
 72
9
 73
5
 74
0
 42
0.0000001
 43
0.0000001
 44
0.0000000001
 40
0.0
 40
0.0
 40
0.0
 40
0.0
 40
0.2729882716
 40
1.0
 40
1.0
 40
1.0
 40
1.0
 10
283.9203131652
 20
37.6651521433
 30
0.0
 10
283.909089743
 20
37.6651521433
 30
0.0
 10
283.8681389016
 20
37.6664957499
 30
0.0
 10
283.8263100373
 20
37.6747698687
 30
0.0
 10
283.7997640586
 20
37.6885070449
 30
0.0
  0
SPLINE
  5
452
100
AcDbEntity
  8
X14200002_BL3
100
AcDbSpline
 62
7
  6
CONTINUOUS
 70
0
 71
3
 72
8
 73
4
 74
0
 42
0.0000001
 43
0.0000001
 44
0.0000000001
 40
0.0
 40
0.0
 40
0.0
 40
0.0
 40
1.0
 40
1.0
 40
1.0
 40
1.0
 10
286.1433176215
 20
37.6773855775
 30
0.0
 10
286.1845395476
 20
37.6850037024
 30
0.0
 10
286.2254565215
 20
37.6967660961
 30
0.0
 10
286.2635464772
 20
37.7142714751
 30
0.0
  0
SPLINE
  5
453
100
AcDbEntity
  8
X14200002_BL3
100
AcDbSpline
 62
7
  6
CONTINUOUS
 70
0
 71
3
 72
9
 73
5
 74
0
 42
0.0000001
 43
0.0000001
 44
0.0000000001
 40
0.0
 40
0.0
 40
0.0
 40
0.0
 40
0.5145082967
 40
1.0
 40
1.0
 40
1.0
 40
1.0
 10
286.2635464772
 20
37.7142714751
 30
0.0
 10
286.3185745206
 20
37.7395612591
 30
0.0
 10
286.4190483105
 20
37.816079651
 30
0.0
 10
286.4465472578
 20
37.9411352521
 30
0.0
 10
286.4417101911
 20
37.9980759126
 30
0.0
  0
SPLINE
  5
454
100
AcDbEntity
  8
X14200002_BL3
100
AcDbSpline
 62
7
  6
CONTINUOUS
 70
0
 71
3
 72
8
 73
4
 74
0
 42
0.0000001
 43
0.0000001
 44
0.0000000001
 40
0.0
 40
0.0
 40
0.0
 40
0.0
 40
1.0
 40
1.0
 40
1.0
 40
1.0
 10
286.4417101911
 20
37.9980759126
 30
0.0
 10
286.4370736855
 20
38.0526556216
 30
0.0
 10
286.4172641892
 20
38.1066711804
 30
0.0
 10
286.3895015989
 20
38.1538906723
 30
0.0
  0
SPLINE
  5
455
100
AcDbEntity
  8
X14200002_BL3
100
AcDbSpline
 62
3
  6
CONTINUOUS
 70
0
 71
3
 72
9
 73
5
 74
0
 42
0.0000001
 43
0.0000001
 44
0.0000000001
 40
0.0
 40
0.0
 40
0.0
 40
0.0
 40
0.4624725281
 40
1.0
 40
1.0
 40
1.0
 40
1.0
 10
283.7267643461
 20
36.7982350485
 30
0.0
 10
283.726751485
 20
37.0107162013
 30
0.0
 10
283.7600202071
 20
37.4699880163
 30
0.0
 10
283.834251191
 20
37.9242797855
 30
0.0
 10
283.8887685539
 20
38.1651521433
 30
0.0
  0
SPLINE
  5
456
100
AcDbEntity
  8
X14200002_BL3
100
AcDbSpline
 62
3
  6
CONTINUOUS
 70
0
 71
3
 72
13
 73
9
 74
0
 42
0.0000001
 43
0.0000001
 44
0.0000000001
 40
0.0
 40
0.0
 40
0.0
 40
0.0
 40
0.0681854825
 40
0.1548661876
 40
0.2608144899
 40
0.3850329092
 40
0.6768139077
 40
1.0
 40
1.0
 40
1.0
 40
1.0
 10
290.6300052276
 20
36.1651521433
 30
0.0
 10
290.6855560821
 20
36.1651521433
 30
0.0
 10
290.8114310327
 20
36.1969859938
 30
0.0
 10
290.9936320244
 20
36.309987256
 30
0.0
 10
291.178711655
 20
36.4925321191
 30
0.0
 10
291.424762631
 20
36.841427388
 30
0.0
 10
291.6560167637
 20
37.4054264962
 30
0.0
 10
291.7423963462
 20
37.9026081173
 30
0.0
 10
291.7623394055
 20
38.1651521433
 30
0.0
  0
SPLINE
  5
457
100
AcDbEntity
  8
X14200002_BL3
100
AcDbSpline
 62
3
  6
CONTINUOUS
 70
0
 71
3
 72
11
 73
7
 74
0
 42
0.0000001
 43
0.0000001
 44
0.0000000001
 40
0.0
 40
0.0
 40
0.0
 40
0.0
 40
0.2848167933
 40
0.5482464875
 40
0.7850244142
 40
1.0
 40
1.0
 40
1.0
 40
1.0
 10
291.7623394055
 20
38.1651521433
 30
0.0
 10
291.7894207062
 20
38.3393934122
 30
0.0
 10
291.8786796308
 20
38.6706609765
 30
0.0
 10
292.1201571399
 20
39.0991709456
 30
0.0
 10
292.4481668312
 20
39.4087558828
 30
0.0
 10
292.7182788673
 20
39.5128146602
 30
0.0
 10
292.8501099508
 20
39.5311045663
 30
0.0
  0
SPLINE
  5
458
100
AcDbEntity
  8
X14200002_BL3
100
AcDbSpline
 62
9
  6
CONTINUOUS
 70
0
 71
3
 72
11
 73
7
 74
0
 42
0.0000001
 43
0.0000001
 44
0.0000000001
 40
0.0
 40
0.0
 40
0.0
 40
0.0
 40
0.2108521037
 40
0.4426375996
 40
0.7060100635
 40
1.0
 40
1.0
 40
1.0
 40
1.0
 10
241.8448468085
 20
35.2651521433
 30
0.0
 10
241.9403292578
 20
35.2651521433
 30
0.0
 10
242.1427034738
 20
35.3127810609
 30
0.0
 10
242.4043988171
 20
35.507577291
 30
0.0
 10
242.6157057123
 20
35.8009365864
 30
0.0
 10
242.7112543909
 20
36.0370449674
 30
0.0
 10
242.7491832052
 20
36.1646583563
 30
0.0
  0
SPLINE
  5
459
100
AcDbEntity
  8
X14200002_BL3
100
AcDbSpline
 62
3
  6
CONTINUOUS
 70
0
 71
3
 72
13
 73
9
 74
0
 42
0.0000001
 43
0.0000001
 44
0.0000000001
 40
0.0
 40
0.0
 40
0.0
 40
0.0
 40
0.0674033781
 40
0.138172059
 40
0.2240508775
 40
0.331364632
 40
0.6182601599
 40
1.0
 40
1.0
 40
1.0
 40
1.0
 10
283.9203131652
 20
36.1651521433
 30
0.0
 10
283.9043955724
 20
36.1651521433
 30
0.0
 10
283.8710969213
 20
36.1720248068
 30
0.0
 10
283.8289495849
 20
36.2064874676
 30
0.0
 10
283.7962916463
 20
36.2603994331
 30
0.0
 10
283.7582059068
 20
36.3676482904
 30
0.0
 10
283.7320831394
 20
36.550284555
 30
0.0
 10
283.7267698027
 20
36.7080855709
 30
0.0
 10
283.7267643461
 20
36.7982350485
 30
0.0
  0
SPLINE
  5
45A
100
AcDbEntity
  8
X14200002_BL3
100
AcDbSpline
 62
3
  6
CONTINUOUS
 70
0
 71
3
 72
13
 73
9
 74
0
 42
0.0000001
 43
0.0000001
 44
0.0000000001
 40
0.0
 40
0.0
 40
0.0
 40
0.0
 40
0.2734570454
 40
0.5283901487
 40
0.6488106989
 40
0.7657097762
 40
0.8817507886
 40
1.0
 40
1.0
 40
1.0
 40
1.0
 10
287.4715111062
 20
38.1651521433
 30
0.0
 10
287.5157704839
 20
37.9159655047
 30
0.0
 10
287.5165910068
 20
37.4145875313
 30
0.0
 10
287.2875312788
 20
36.8397403529
 30
0.0
 10
286.9852252719
 20
36.4937273072
 30
0.0
 10
286.7144920801
 20
36.3041571423
 30
0.0
 10
286.4068956517
 20
36.1892182026
 30
0.0
 10
286.1890096321
 20
36.1651521433
 30
0.0
 10
286.0795690374
 20
36.1651521433
 30
0.0
  0
SPLINE
  5
45B
100
AcDbEntity
  8
X14200002_BL3
100
AcDbSpline
 62
9
  6
CONTINUOUS
 70
0
 71
3
 72
9
 73
5
 74
0
 42
0.0000001
 43
0.0000001
 44
0.0000000001
 40
0.0
 40
0.0
 40
0.0
 40
0.0
 40
0.2448366372
 40
1.0
 40
1.0
 40
1.0
 40
1.0
 10
247.2071579103
 20
35.2651521433
 30
0.0
 10
247.2351035154
 20
35.2651521433
 30
0.0
 10
247.3492204862
 20
35.2725877059
 30
0.0
 10
247.4605186422
 20
35.3109204884
 30
0.0
 10
247.5362217855
 20
35.352133029
 30
0.0
  0
SPLINE
  5
45C
100
AcDbEntity
  8
X14200002_BL3
100
AcDbSpline
 62
9
  6
CONTINUOUS
 70
0
 71
3
 72
9
 73
5
 74
0
 42
0.0000001
 43
0.0000001
 44
0.0000000001
 40
0.0
 40
0.0
 40
0.0
 40
0.0
 40
0.2207282984
 40
1.0
 40
1.0
 40
1.0
 40
1.0
 10
247.5362217855
 20
35.352133029
 30
0.0
 10
247.6015279616
 20
35.387685495
 30
0.0
 10
247.8747154783
 20
35.5909871891
 30
0.0
 10
248.0367048357
 20
35.9130254502
 30
0.0
 10
248.1114943048
 20
36.1646583485
 30
0.0
  0
SPLINE
  5
45D
100
AcDbEntity
  8
X14200002_BL3
100
AcDbSpline
 62
3
  6
CONTINUOUS
 70
0
 71
3
 72
11
 73
7
 74
0
 42
0.0000001
 43
0.0000001
 44
0.0000000001
 40
0.0
 40
0.0
 40
0.0
 40
0.0
 40
0.2217263044
 40
0.4595243578
 40
0.7190488363
 40
1.0
 40
1.0
 40
1.0
 40
1.0
 10
286.4861489201
 20
39.1075981438
 30
0.0
 10
286.5907784915
 20
39.093759959
 30
0.0
 10
286.80368953
 20
39.024916596
 30
0.0
 10
287.0828868903
 20
38.8188934258
 30
0.0
 10
287.3146065771
 20
38.5252287883
 30
0.0
 10
287.4258332658
 20
38.2908408203
 30
0.0
 10
287.4715111062
 20
38.1651521433
 30
0.0
  0
SPLINE
  5
45E
100
AcDbEntity
  8
X14200002_BL3
100
AcDbSpline
 62
9
  6
CONTINUOUS
 70
0
 71
3
 72
9
 73
5
 74
0
 42
0.0000001
 43
0.0000001
 44
0.0000000001
 40
0.0
 40
0.0
 40
0.0
 40
0.0
 40
0.2448366372
 40
1.0
 40
1.0
 40
1.0
 40
1.0
 10
279.9938600758
 20
35.2651521433
 30
0.0
 10
280.0218056809
 20
35.2651521433
 30
0.0
 10
280.1359226517
 20
35.2725877059
 30
0.0
 10
280.2472208077
 20
35.3109204884
 30
0.0
 10
280.322923951
 20
35.352133029
 30
0.0
  0
SPLINE
  5
45F
100
AcDbEntity
  8
X14200002_BL3
100
AcDbSpline
 62
9
  6
CONTINUOUS
 70
0
 71
3
 72
9
 73
5
 74
0
 42
0.0000001
 43
0.0000001
 44
0.0000000001
 40
0.0
 40
0.0
 40
0.0
 40
0.0
 40
0.2207282984
 40
1.0
 40
1.0
 40
1.0
 40
1.0
 10
280.322923951
 20
35.352133029
 30
0.0
 10
280.3882301271
 20
35.387685495
 30
0.0
 10
280.6614176438
 20
35.5909871891
 30
0.0
 10
280.8234070012
 20
35.9130254502
 30
0.0
 10
280.8981964702
 20
36.1646583485
 30
0.0
  0
SPLINE
  5
460
100
AcDbEntity
  8
X14200002_BL3
100
AcDbSpline
 62
9
  6
CONTINUOUS
 70
0
 71
3
 72
11
 73
7
 74
0
 42
0.0000001
 43
0.0000001
 44
0.0000000001
 40
0.0
 40
0.0
 40
0.0
 40
0.0
 40
0.210852105
 40
0.4426376013
 40
0.7060100642
 40
1.0
 40
1.0
 40
1.0
 40
1.0
 10
273.5335093488
 20
35.2651521433
 30
0.0
 10
273.4380268995
 20
35.2651521433
 30
0.0
 10
273.2356526839
 20
35.3127810608
 30
0.0
 10
272.9739573419
 20
35.5075772897
 30
0.0
 10
272.7626504475
 20
35.8009365823
 30
0.0
 10
272.6671017689
 20
36.0370449608
 30
0.0
 10
272.6291729544
 20
36.1646583485
 30
0.0
  0
SPLINE
  5
461
100
AcDbEntity
  8
X14200002_BL3
100
AcDbSpline
 62
9
  6
CONTINUOUS
 70
0
 71
3
 72
9
 73
5
 74
0
 42
0.0000001
 43
0.0000001
 44
0.0000000001
 40
0.0
 40
0.0
 40
0.0
 40
0.0
 40
0.2448366455
 40
1.0
 40
1.0
 40
1.0
 40
1.0
 10
270.4693315764
 20
35.2651521433
 30
0.0
 10
270.4413859955
 20
35.2651521433
 30
0.0
 10
270.3272691273
 20
35.2725876927
 30
0.0
 10
270.2159710653
 20
35.3109204067
 30
0.0
 10
270.1402679746
 20
35.3521328801
 30
0.0
  0
SPLINE
  5
462
100
AcDbEntity
  8
X14200002_BL3
100
AcDbSpline
 62
9
  6
CONTINUOUS
 70
0
 71
3
 72
9
 73
5
 74
0
 42
0.0000001
 43
0.0000001
 44
0.0000000001
 40
0.0
 40
0.0
 40
0.0
 40
0.0
 40
0.2207282877
 40
1.0
 40
1.0
 40
1.0
 40
1.0
 10
270.1402679746
 20
35.3521328801
 30
0.0
 10
270.0749617679
 20
35.3876853296
 30
0.0
 10
269.8017741021
 20
35.5909870048
 30
0.0
 10
269.6397846715
 20
35.9130253779
 30
0.0
 10
269.5649951796
 20
36.1646583563
 30
0.0
  0
SPLINE
  5
463
100
AcDbEntity
  8
X14200002_BL3
100
AcDbSpline
 62
9
  6
CONTINUOUS
 70
0
 71
3
 72
11
 73
7
 74
0
 42
0.0000001
 43
0.0000001
 44
0.0000000001
 40
0.0
 40
0.0
 40
0.0
 40
0.0
 40
0.1945724161
 40
0.4199574733
 40
0.6894463839
 40
1.0
 40
1.0
 40
1.0
 40
1.0
 10
266.6662355289
 20
35.2651521433
 30
0.0
 10
266.747886446
 20
35.2651521433
 30
0.0
 10
266.9256129551
 20
35.316291867
 30
0.0
 10
267.1452308589
 20
35.5141551991
 30
0.0
 10
267.3216495582
 20
35.8062058713
 30
0.0
 10
267.4006612067
 20
36.0382825603
 30
0.0
 10
267.4324869237
 20
36.1646583563
 30
0.0
  0
ENDBLK
  5
464
100
AcDbEntity
  8
0
  6
BYBLOCK
 62
0
100
AcDbBlockEnd
  0
BLOCK
  5
465
100
AcDbEntity
  8
X14110002_BL4
100
AcDbBlockBegin
  2
X14110002_BL4
 70
64
 10
244.7767514068
 20
176.1034408387
  3
X14110002_BL4
  1

  0
LINE
  5
466
100
AcDbEntity
  8
X14110002_BL4
100
AcDbLine
 62
3
  6
CONTINUOUS
 10
198.8767514068
 20
153.9417295342
 11
201.4767514068
 21
153.9417295342
  0
LINE
  5
467
100
AcDbEntity
  8
X14110002_BL4
100
AcDbLine
 62
3
  6
CONTINUOUS
 10
284.0425052738
 20
153.9417295342
 11
284.6767514068
 21
153.9417295342
  0
LINE
  5
468
100
AcDbEntity
  8
X14110002_BL4
100
AcDbLine
 62
7
  6
CONTINUOUS
 10
198.9767514068
 20
169.2417295342
 11
198.5767514068
 21
169.2417295342
  0
LINE
  5
469
100
AcDbEntity
  8
X14110002_BL4
100
AcDbLine
 62
7
  6
CENTER
 10
279.6767514068
 20
173.7417295342
 11
274.6766514068
 21
173.7417295342
  0
LINE
  5
46A
100
AcDbEntity
  8
X14110002_BL4
100
AcDbLine
 62
7
  6
CENTER
 10
241.6767514068
 20
173.7417295342
 11
236.6766514068
 21
173.7417295342
  0
LINE
  5
46B
100
AcDbEntity
  8
X14110002_BL4
100
AcDbLine
 62
7
  6
CENTER
 10
241.6767514068
 20
173.7417295342
 11
246.6768514068
 21
173.7417295342
  0
LINE
  5
46C
100
AcDbEntity
  8
X14110002_BL4
100
AcDbLine
 62
7
  6
CENTER
 10
279.6767514068
 20
173.7417295342
 11
284.6768514068
 21
173.7417295342
  0
LINE
  5
46D
100
AcDbEntity
  8
X14110002_BL4
100
AcDbLine
 62
3
  6
CONTINUOUS
 10
198.8767514068
 20
166.2417295342
 11
198.9767514068
 21
166.2678961228
  0
LINE
  5
46E
100
AcDbEntity
  8
X14110002_BL4
100
AcDbLine
 62
7
  6
CENTER
 10
279.6767514068
 20
175.7417295342
 11
274.6766514068
 21
175.7417295342
  0
LINE
  5
46F
100
AcDbEntity
  8
X14110002_BL4
100
AcDbLine
 62
7
  6
CENTER
 10
241.6767514068
 20
175.7417295342
 11
236.6766514068
 21
175.7417295342
  0
LINE
  5
470
100
AcDbEntity
  8
X14110002_BL4
100
AcDbLine
 62
7
  6
CENTER
 10
241.6767514068
 20
175.7417295342
 11
246.6768514068
 21
175.7417295342
  0
LINE
  5
471
100
AcDbEntity
  8
X14110002_BL4
100
AcDbLine
 62
7
  6
CENTER
 10
279.6767514068
 20
175.7417295342
 11
284.6768514068
 21
175.7417295342
  0
LINE
  5
472
100
AcDbEntity
  8
X14110002_BL4
100
AcDbLine
 62
7
  6
CONTINUOUS
 10
198.9767514068
 20
178.7417295342
 11
198.5767514068
 21
178.7417295342
  0
LINE
  5
473
100
AcDbEntity
  8
X14110002_BL4
100
AcDbLine
 62
3
  6
CONTINUOUS
 10
198.8767514068
 20
314.5417295342
 11
198.8767514068
 21
312.2417295342
  0
LINE
  5
474
100
AcDbEntity
  8
X14110002_BL4
100
AcDbLine
 62
3
  6
CONTINUOUS
 10
198.8767514068
 20
297.7417295342
 11
198.8767514068
 21
295.4917295342
  0
LINE
  5
475
100
AcDbEntity
  8
X14110002_BL4
100
AcDbLine
 62
3
  6
CONTINUOUS
 10
198.8767514068
 20
266.0417295342
 11
198.8767514068
 21
245.7417295342
  0
LINE
  5
476
100
AcDbEntity
  8
X14110002_BL4
100
AcDbLine
 62
3
  6
CONTINUOUS
 10
198.8767514068
 20
166.2417295342
 11
198.8767514068
 21
153.9417295342
  0
LINE
  5
477
100
AcDbEntity
  8
X14110002_BL4
100
AcDbLine
 62
7
  6
CONTINUOUS
 10
198.9767514068
 20
217.7417295342
 11
198.5767514068
 21
217.7417295342
  0
LINE
  5
478
100
AcDbEntity
  8
X14110002_BL4
100
AcDbLine
 62
7
  6
CONTINUOUS
 10
283.0767514068
 20
224.2417295342
 11
277.0767514068
 21
224.2417295342
  0
LINE
  5
479
100
AcDbEntity
  8
X14110002_BL4
100
AcDbLine
 62
3
  6
CONTINUOUS
 10
283.0767514068
 20
225.7417295342
 11
277.0767514068
 21
225.7417295342
  0
LINE
  5
47A
100
AcDbEntity
  8
X14110002_BL4
100
AcDbLine
 62
7
  6
CENTER
 10
241.6767514068
 20
175.7417295342
 11
241.6767514068
 21
170.7416295342
  0
LINE
  5
47B
100
AcDbEntity
  8
X14110002_BL4
100
AcDbLine
 62
7
  6
CENTER
 10
241.6767514068
 20
170.7416295342
 11
241.6767514068
 21
168.7416295342
  0
LINE
  5
47C
100
AcDbEntity
  8
X14110002_BL4
100
AcDbLine
 62
7
  6
CENTER
 10
241.6767514068
 20
175.7417295342
 11
241.6767514068
 21
178.7418295342
  0
LINE
  5
47D
100
AcDbEntity
  8
X14110002_BL4
100
AcDbLine
 62
7
  6
CENTER
 10
241.6767514068
 20
178.7418295342
 11
241.6767514068
 21
180.7418295342
  0
LINE
  5
47E
100
AcDbEntity
  8
X14110002_BL4
100
AcDbLine
 62
7
  6
CONTINUOUS
 10
198.9767514068
 20
242.7417295342
 11
198.5767514068
 21
242.7417295342
  0
LINE
  5
47F
100
AcDbEntity
  8
X14110002_BL4
100
AcDbLine
 62
3
  6
CONTINUOUS
 10
198.9767514068
 20
245.7155629455
 11
198.8767514068
 21
245.7417295342
  0
LINE
  5
480
100
AcDbEntity
  8
X14110002_BL4
100
AcDbLine
 62
3
  6
CONTINUOUS
 10
198.8767514068
 20
265.2417295342
 11
198.9767514068
 21
265.2417295342
  0
LINE
  5
481
100
AcDbEntity
  8
X14110002_BL4
100
AcDbLine
 62
3
  6
CONTINUOUS
 10
276.6767514068
 20
300.7417295342
 11
276.6767514068
 21
300.4417295342
  0
LINE
  5
482
100
AcDbEntity
  8
X14110002_BL4
100
AcDbLine
 62
7
  6
CONTINUOUS
 10
276.6767514068
 20
300.7417295342
 11
276.6767514068
 21
302.2417295342
  0
LINE
  5
483
100
AcDbEntity
  8
X14110002_BL4
100
AcDbLine
 62
3
  6
CONTINUOUS
 10
276.6767514068
 20
302.2417295342
 11
276.6767514068
 21
302.5417295342
  0
LINE
  5
484
100
AcDbEntity
  8
X14110002_BL4
100
AcDbLine
 62
3
  6
CONTINUOUS
 10
277.0767514068
 20
224.2417295342
 11
277.0767514068
 21
223.9417295342
  0
LINE
  5
485
100
AcDbEntity
  8
X14110002_BL4
100
AcDbLine
 62
7
  6
CONTINUOUS
 10
277.0767514068
 20
224.2417295342
 11
277.0767514068
 21
225.7417295342
  0
LINE
  5
486
100
AcDbEntity
  8
X14110002_BL4
100
AcDbLine
 62
3
  6
CONTINUOUS
 10
277.0767514068
 20
225.7417295342
 11
277.0767514068
 21
226.0417295342
  0
LINE
  5
487
100
AcDbEntity
  8
X14110002_BL4
100
AcDbLine
 62
7
  6
CENTER
 10
279.6767514068
 20
175.7417295342
 11
279.6767514068
 21
170.7416295342
  0
LINE
  5
488
100
AcDbEntity
  8
X14110002_BL4
100
AcDbLine
 62
7
  6
CENTER
 10
279.6767514068
 20
170.7416295342
 11
279.6767514068
 21
168.7416295342
  0
LINE
  5
489
100
AcDbEntity
  8
X14110002_BL4
100
AcDbLine
 62
7
  6
CENTER
 10
279.6767514068
 20
175.7417295342
 11
279.6767514068
 21
178.7418295342
  0
LINE
  5
48A
100
AcDbEntity
  8
X14110002_BL4
100
AcDbLine
 62
7
  6
CENTER
 10
279.6767514068
 20
178.7418295342
 11
279.6767514068
 21
180.7418295342
  0
LINE
  5
48B
100
AcDbEntity
  8
X14110002_BL4
100
AcDbLine
 62
3
  6
CONTINUOUS
 10
283.0767514068
 20
226.0417295342
 11
283.0767514068
 21
225.7417295342
  0
LINE
  5
48C
100
AcDbEntity
  8
X14110002_BL4
100
AcDbLine
 62
3
  6
CONTINUOUS
 10
283.0767514068
 20
223.9417295342
 11
283.0767514068
 21
224.2417295342
  0
LINE
  5
48D
100
AcDbEntity
  8
X14110002_BL4
100
AcDbLine
 62
7
  6
CONTINUOUS
 10
283.0767514068
 20
224.2417295342
 11
283.0767514068
 21
225.7417295342
  0
LINE
  5
48E
100
AcDbEntity
  8
X14110002_BL4
100
AcDbLine
 62
3
  6
CONTINUOUS
 10
284.6767514068
 20
302.5417295342
 11
284.6767514068
 21
302.2417295342
  0
LINE
  5
48F
100
AcDbEntity
  8
X14110002_BL4
100
AcDbLine
 62
3
  6
CONTINUOUS
 10
284.6767514068
 20
300.4417295342
 11
284.6767514068
 21
300.7417295342
  0
LINE
  5
490
100
AcDbEntity
  8
X14110002_BL4
100
AcDbLine
 62
7
  6
CONTINUOUS
 10
284.6767514068
 20
300.7417295342
 11
284.6767514068
 21
302.2417295342
  0
LINE
  5
491
100
AcDbEntity
  8
X14110002_BL4
100
AcDbLine
 62
3
  6
CONTINUOUS
 10
290.9767514068
 20
160.2417295342
 11
290.9767514068
 21
161.0900247833
  0
LINE
  5
492
100
AcDbEntity
  8
X14110002_BL4
100
AcDbLine
 62
3
  6
CONTINUOUS
 10
290.9767514068
 20
308.1960011923
 11
290.9767514068
 21
308.2417295342
  0
LINE
  5
493
100
AcDbEntity
  8
X14110002_BL4
100
AcDbLine
 62
3
  6
CONTINUOUS
 10
198.8767514068
 20
297.7417295342
 11
198.9767514068
 21
297.7678961228
  0
LINE
  5
494
100
AcDbEntity
  8
X14110002_BL4
100
AcDbLine
 62
7
  6
CONTINUOUS
 10
284.6767514068
 20
300.7417295342
 11
276.6767514068
 21
300.7417295342
  0
LINE
  5
495
100
AcDbEntity
  8
X14110002_BL4
100
AcDbLine
 62
7
  6
CONTINUOUS
 10
198.9767514068
 20
300.7417295342
 11
198.5767514068
 21
300.7417295342
  0
LINE
  5
496
100
AcDbEntity
  8
X14110002_BL4
100
AcDbLine
 62
3
  6
CONTINUOUS
 10
284.6767514068
 20
302.2417295342
 11
276.6767514068
 21
302.2417295342
  0
LINE
  5
497
100
AcDbEntity
  8
X14110002_BL4
100
AcDbLine
 62
3
  6
CONTINUOUS
 10
198.9767514068
 20
312.2155629455
 11
198.8767514068
 21
312.2417295342
  0
LINE
  5
498
100
AcDbEntity
  8
X14110002_BL4
100
AcDbLine
 62
7
  6
CONTINUOUS
 10
198.9767514068
 20
309.2417295342
 11
198.5767514068
 21
309.2417295342
  0
LINE
  5
499
100
AcDbEntity
  8
X14110002_BL4
100
AcDbLine
 62
3
  6
CONTINUOUS
 10
284.6767514068
 20
314.5417295342
 11
284.0421884118
 21
314.5417295342
  0
LINE
  5
49A
100
AcDbEntity
  8
X14110002_BL4
100
AcDbLine
 62
3
  6
CONTINUOUS
 10
201.4767514068
 20
314.5417295342
 11
198.8767514068
 21
314.5417295342
  0
LINE
  5
49B
100
AcDbEntity
  8
X14110002_BL4
100
AcDbLine
 62
3
  6
CONTINUOUS
 10
284.6767514068
 20
153.9417295342
 11
285.4243710534
 21
154.6893491808
  0
LINE
  5
49C
100
AcDbEntity
  8
X14110002_BL4
100
AcDbLine
 62
3
  6
CONTINUOUS
 10
290.6331249114
 20
159.8981030388
 11
290.9767514068
 21
160.2417295342
  0
LINE
  5
49D
100
AcDbEntity
  8
X14110002_BL4
100
AcDbLine
 62
3
  6
CONTINUOUS
 10
290.9767514068
 20
308.2417295342
 11
290.8824650848
 21
308.3360158562
  0
LINE
  5
49E
100
AcDbEntity
  8
X14110002_BL4
100
AcDbLine
 62
3
  6
CONTINUOUS
 10
285.4240894342
 20
313.7943915068
 11
284.6767514068
 21
314.5417295342
  0
LINE
  5
49F
100
AcDbEntity
  8
X14110002_BL4
100
AcDbLine
 62
7
  6
CONTINUOUS
 10
198.8767514068
 20
47.9651521433
 11
198.8767514068
 21
50.3651521433
  0
LINE
  5
4A0
100
AcDbEntity
  8
X14110002_BL4
100
AcDbLine
 62
3
  6
CONTINUOUS
 10
200.0767514068
 20
46.9651521433
 11
200.0767514068
 21
37.9651484701
  0
LINE
  5
4A1
100
AcDbEntity
  8
X14110002_BL4
100
AcDbLine
 62
9
  6
CONTINUOUS
 10
200.9431803127
 20
49.4613659256
 11
200.9431803127
 21
50.3651521433
  0
LINE
  5
4A2
100
AcDbEntity
  8
X14110002_BL4
100
AcDbLine
 62
7
  6
CONTINUOUS
 10
201.6267514068
 20
49.4643539799
 11
201.6267514068
 21
50.3651521433
  0
LINE
  5
4A3
100
AcDbEntity
  8
X14110002_BL4
100
AcDbLine
 62
3
  6
CONTINUOUS
 10
201.4767514068
 20
47.3648317997
 11
200.0767514068
 21
45.9648317997
  0
LINE
  5
4A4
100
AcDbEntity
  8
X14110002_BL4
100
AcDbLine
 62
9
  6
CONTINUOUS
 10
200.7768629014
 20
47.9191264009
 11
200.7623943862
 21
47.9651521433
  0
LINE
  5
4A5
100
AcDbEntity
  8
X14110002_BL4
100
AcDbLine
 62
7
  6
CONTINUOUS
 10
212.5767514068
 20
49.4643539799
 11
212.5767514068
 21
50.3651521433
  0
LINE
  5
4A6
100
AcDbEntity
  8
X14110002_BL4
100
AcDbLine
 62
7
  6
CONTINUOUS
 10
219.5767514068
 20
49.4643539799
 11
219.5767514068
 21
50.3651521433
  0
LINE
  5
4A7
100
AcDbEntity
  8
X14110002_BL4
100
AcDbLine
 62
7
  6
CONTINUOUS
 10
230.5767514068
 20
49.4643539799
 11
230.5767514068
 21
50.3651521433
  0
LINE
  5
4A8
100
AcDbEntity
  8
X14110002_BL4
100
AcDbLine
 62
7
  6
CONTINUOUS
 10
200.0767514068
 20
37.9651484701
 11
198.5767514068
 21
37.9651484701
  0
LINE
  5
4A9
100
AcDbEntity
  8
X14110002_BL4
100
AcDbLine
 62
9
  6
CONTINUOUS
 10
198.5767514068
 20
46.9651521433
 11
200.0767514068
 21
46.9651521433
  0
LINE
  5
4AA
100
AcDbEntity
  8
X14110002_BL4
100
AcDbLine
 62
3
  6
CONTINUOUS
 10
285.4254887484
 20
47.9651521433
 11
285.0767514068
 21
47.9651521433
  0
LINE
  5
4AB
100
AcDbEntity
  8
X14110002_BL4
100
AcDbLine
 62
3
  6
CONTINUOUS
 10
201.4767514068
 20
47.9651521433
 11
198.8767514068
 21
47.9651521433
  0
LINE
  5
4AC
100
AcDbEntity
  8
X14110002_BL4
100
AcDbLine
 62
7
  6
CONTINUOUS
 10
285.4254887484
 20
49.4651521433
 11
285.0767514068
 21
49.4651521433
  0
LINE
  5
4AD
100
AcDbEntity
  8
X14110002_BL4
100
AcDbLine
 62
7
  6
CONTINUOUS
 10
201.4767514068
 20
49.4651521433
 11
198.8767514068
 21
49.4651521433
  0
LINE
  5
4AE
100
AcDbEntity
  8
X14110002_BL4
100
AcDbLine
 62
7
  6
CONTINUOUS
 10
198.8767514068
 20
50.3651521433
 11
230.5767514068
 21
50.3651521433
  0
LINE
  5
4AF
100
AcDbEntity
  8
X14110002_BL4
100
AcDbLine
 62
7
  6
CONTINUOUS
 10
239.4629328052
 20
50.3651521433
 11
256.9269305416
 21
50.3651521433
  0
LINE
  5
4B0
100
AcDbEntity
  8
X14110002_BL4
100
AcDbLine
 62
7
  6
CONTINUOUS
 10
264.4265712314
 20
50.3651521433
 11
280.5116900109
 21
50.3651521433
  0
LINE
  5
4B1
100
AcDbEntity
  8
X14110002_BL4
100
AcDbLine
 62
3
  6
CONTINUOUS
 10
284.6767514068
 20
38.9844872431
 11
284.6767514068
 21
37.6651521433
  0
CIRCLE
  5
4B2
100
AcDbEntity
  8
X14110002_BL4
100
AcDbCircle
 62
3
  6
CONTINUOUS
 10
244.9767514068
 20
231.7417295342
 40
1.5
  0
ARC
  5
4B3
100
AcDbEntity
  8
X14110002_BL4
100
AcDbCircle
 62
7
  6
CONTINUOUS
 10
201.0767514068
 20
46.9651521433
 40
2.5
100
AcDbArc
 50
151.7845410221
 51
180.0
  0
ARC
  5
4B4
100
AcDbEntity
  8
X14110002_BL4
100
AcDbCircle
 62
7
  6
CONTINUOUS
 10
239.4628047744
 20
48.8151521433
 40
1.55
100
AcDbArc
 50
90.0
 51
155.2191704944
  0
ARC
  5
4B5
100
AcDbEntity
  8
X14110002_BL4
100
AcDbCircle
 62
3
  6
CONTINUOUS
 10
201.0767514068
 20
46.9651521433
 40
1.0
100
AcDbArc
 50
90.0
 51
180.0
  0
ARC
  5
4B6
100
AcDbEntity
  8
X14110002_BL4
100
AcDbCircle
 62
7
  6
CONTINUOUS
 10
256.9269938856
 20
48.8151521433
 40
1.55
100
AcDbArc
 50
53.8675549537
 51
90.0
  0
ARC
  5
4B7
100
AcDbEntity
  8
X14110002_BL4
100
AcDbCircle
 62
7
  6
CONTINUOUS
 10
264.4265089281
 20
48.8151521433
 40
1.55
100
AcDbArc
 50
90.0
 51
126.1324450463
  0
ARC
  5
4B8
100
AcDbEntity
  8
X14110002_BL4
100
AcDbCircle
 62
7
  6
CONTINUOUS
 10
247.7251158762
 20
48.8151521433
 40
1.55
100
AcDbArc
 50
24.7808295056
 51
90.0
  0
ARC
  5
4B9
100
AcDbEntity
  8
X14110002_BL4
100
AcDbCircle
 62
7
  6
CONTINUOUS
 10
280.5118180417
 20
48.8151521433
 40
1.55
100
AcDbArc
 50
24.7808295056
 51
90.0
  0
ARC
  5
4BA
100
AcDbEntity
  8
X14110002_BL4
100
AcDbCircle
 62
7
  6
CONTINUOUS
 10
269.9513736105
 20
48.8151521433
 40
1.55
100
AcDbArc
 50
90.0
 51
155.2191704944
  0
ARC
  5
4BB
100
AcDbEntity
  8
X14110002_BL4
100
AcDbCircle
 62
7
  6
CONTINUOUS
 10
275.915551383
 20
48.8151521433
 40
1.55
100
AcDbArc
 50
24.7808295056
 51
90.0
  0
ARC
  5
4BC
100
AcDbEntity
  8
X14110002_BL4
100
AcDbCircle
 62
7
  6
CONTINUOUS
 10
252.9144658372
 20
48.8151521433
 40
1.55
100
AcDbArc
 50
90.0000000032
 51
155.2061375369
  0
ARC
  5
4BD
100
AcDbEntity
  8
X14110002_BL4
100
AcDbCircle
 62
7
  6
CONTINUOUS
 10
255.8144658372
 20
48.8151521433
 40
1.55
100
AcDbArc
 50
53.8305868879
 51
90.0
  0
SPLINE
  5
4BE
100
AcDbEntity
  8
X14110002_BL4
100
AcDbSpline
 62
9
  6
CONTINUOUS
 70
0
 71
3
 72
9
 73
5
 74
0
 42
0.0000001
 43
0.0000001
 44
0.0000000001
 40
0.0
 40
0.0
 40
0.0
 40
0.0
 40
0.2448366375
 40
1.0
 40
1.0
 40
1.0
 40
1.0
 10
270.4693315762
 20
50.3651521433
 30
0.0
 10
270.4413859721
 20
50.3651521433
 30
0.0
 10
270.3272690051
 20
50.3577165811
 30
0.0
 10
270.2159708526
 20
50.3193838011
 30
0.0
 10
270.1402677112
 20
50.278171263
 30
0.0
  0
SPLINE
  5
4BF
100
AcDbEntity
  8
X14110002_BL4
100
AcDbSpline
 62
9
  6
CONTINUOUS
 70
0
 71
3
 72
9
 73
5
 74
0
 42
0.0000001
 43
0.0000001
 44
0.0000000001
 40
0.0
 40
0.0
 40
0.0
 40
0.0
 40
0.2207130465
 40
1.0
 40
1.0
 40
1.0
 40
1.0
 10
270.1402677112
 20
50.278171263
 30
0.0
 10
270.0749142613
 20
50.2425930626
 30
0.0
 10
269.8015272469
 20
50.0390988179
 30
0.0
 10
269.6395116641
 20
49.7167290352
 30
0.0
 10
269.5647622661
 20
49.4648617061
 30
0.0
  0
SPLINE
  5
4C0
100
AcDbEntity
  8
X14110002_BL4
100
AcDbSpline
 62
9
  6
CONTINUOUS
 70
0
 71
3
 72
10
 73
6
 74
0
 42
0.0000001
 43
0.0000001
 44
0.0000000001
 40
0.0
 40
0.0
 40
0.0
 40
0.0
 40
0.2234967635
 40
0.4595218443
 40
1.0
 40
1.0
 40
1.0
 40
1.0
 10
266.6662355291
 20
50.3651521433
 30
0.0
 10
266.7108666469
 20
50.3651521432
 30
0.0
 10
266.8031269339
 20
50.3513513868
 30
0.0
 10
266.9866888933
 20
50.2678960369
 30
0.0
 10
267.0994762896
 20
50.153505101
 30
0.0
 10
267.1640226726
 20
50.0670020191
 30
0.0
  0
SPLINE
  5
4C1
100
AcDbEntity
  8
X14110002_BL4
100
AcDbSpline
 62
9
  6
CONTINUOUS
 70
0
 71
3
 72
9
 73
5
 74
0
 42
0.0000001
 43
0.0000001
 44
0.0000000001
 40
0.0
 40
0.0
 40
0.0
 40
0.0
 40
0.2448366478
 40
1.0
 40
1.0
 40
1.0
 40
1.0
 10
279.9938600759
 20
50.3651521433
 30
0.0
 10
280.02180565
 20
50.3651521433
 30
0.0
 10
280.1359224891
 20
50.3577165976
 30
0.0
 10
280.2472205244
 20
50.3193839029
 30
0.0
 10
280.3229236001
 20
50.2781714486
 30
0.0
  0
SPLINE
  5
4C2
100
AcDbEntity
  8
X14110002_BL4
100
AcDbSpline
 62
9
  6
CONTINUOUS
 70
0
 71
3
 72
9
 73
5
 74
0
 42
0.0000001
 43
0.0000001
 44
0.0000000001
 40
0.0
 40
0.0
 40
0.0
 40
0.0
 40
0.2207130332
 40
1.0
 40
1.0
 40
1.0
 40
1.0
 10
280.3229236001
 20
50.2781714486
 30
0.0
 10
280.3882770882
 20
50.2425932687
 30
0.0
 10
280.6616642885
 20
50.0390990477
 30
0.0
 10
280.8236799624
 20
49.7167291256
 30
0.0
 10
280.8984293889
 20
49.4648616966
 30
0.0
  0
SPLINE
  5
4C3
100
AcDbEntity
  8
X14110002_BL4
100
AcDbSpline
 62
9
  6
CONTINUOUS
 70
0
 71
3
 72
11
 73
7
 74
0
 42
0.0000001
 43
0.0000001
 44
0.0000000001
 40
0.0
 40
0.0
 40
0.0
 40
0.0
 40
0.2108317172
 40
0.442612521
 40
0.7059960873
 40
1.0
 40
1.0
 40
1.0
 40
1.0
 10
241.8448468087
 20
50.3651521433
 30
0.0
 10
241.9403770187
 20
50.3651521432
 30
0.0
 10
242.1428613544
 20
50.3174710741
 30
0.0
 10
242.4046550794
 20
50.1224851176
 30
0.0
 10
242.6159929282
 20
49.8288693781
 30
0.0
 10
242.7115139927
 20
49.5925725307
 30
0.0
 10
242.7494161188
 20
49.4648617061
 30
0.0
  0
SPLINE
  5
4C4
100
AcDbEntity
  8
X14110002_BL4
100
AcDbSpline
 62
9
  6
CONTINUOUS
 70
0
 71
3
 72
11
 73
7
 74
0
 42
0.0000001
 43
0.0000001
 44
0.0000000001
 40
0.0
 40
0.0
 40
0.0
 40
0.0
 40
0.2108317155
 40
0.4426125188
 40
0.7059960864
 40
1.0
 40
1.0
 40
1.0
 40
1.0
 10
273.5335093487
 20
50.3651521433
 30
0.0
 10
273.4379791388
 20
50.3651521432
 30
0.0
 10
273.2354948026
 20
50.317471074
 30
0.0
 10
272.9737010761
 20
50.1224851161
 30
0.0
 10
272.7623632262
 20
49.8288693731
 30
0.0
 10
272.6668421616
 20
49.5925725226
 30
0.0
 10
272.6289400358
 20
49.4648616966
 30
0.0
  0
SPLINE
  5
4C5
100
AcDbEntity
  8
X14110002_BL4
100
AcDbSpline
 62
9
  6
CONTINUOUS
 70
0
 71
3
 72
9
 73
5
 74
0
 42
0.0000001
 43
0.0000001
 44
0.0000000001
 40
0.0
 40
0.0
 40
0.0
 40
0.0
 40
0.2448366478
 40
1.0
 40
1.0
 40
1.0
 40
1.0
 10
247.2071579104
 20
50.3651521433
 30
0.0
 10
247.2351034845
 20
50.3651521433
 30
0.0
 10
247.3492203236
 20
50.3577165976
 30
0.0
 10
247.4605183589
 20
50.3193839029
 30
0.0
 10
247.5362214347
 20
50.2781714486
 30
0.0
  0
SPLINE
  5
4C6
100
AcDbEntity
  8
X14110002_BL4
100
AcDbSpline
 62
9
  6
CONTINUOUS
 70
0
 71
3
 72
9
 73
5
 74
0
 42
0.0000001
 43
0.0000001
 44
0.0000000001
 40
0.0
 40
0.0
 40
0.0
 40
0.0
 40
0.2207130332
 40
1.0
 40
1.0
 40
1.0
 40
1.0
 10
247.5362214347
 20
50.2781714486
 30
0.0
 10
247.6015749227
 20
50.2425932687
 30
0.0
 10
247.874962123
 20
50.0390990477
 30
0.0
 10
248.0369777969
 20
49.7167291256
 30
0.0
 10
248.1117272234
 20
49.4648616966
 30
0.0
  0
ENDBLK
  5
4C7
100
AcDbEntity
  8
0
  6
BYBLOCK
 62
0
100
AcDbBlockEnd
  0
BLOCK
  5
4C8
100
AcDbEntity
  8
X14454000_BL5
100
AcDbBlockBegin
  2
X14454000_BL5
 70
64
 10
297.1281746572
 20
127.4034408387
  3
X14454000_BL5
  1

  0
LINE
  5
4C9
100
AcDbEntity
  8
X14454000_BL5
100
AcDbLine
 62
7
  6
CONTINUOUS
 10
175.2767514068
 20
181.2917295342
 11
175.2767514068
 21
215.9917295342
  0
LINE
  5
4CA
100
AcDbEntity
  8
X14454000_BL5
100
AcDbLine
 62
7
  6
CONTINUOUS
 10
175.819919112
 20
181.7917295342
 11
175.819919112
 21
215.4917295342
  0
LINE
  5
4CB
100
AcDbEntity
  8
X14454000_BL5
100
AcDbLine
 62
7
  6
CONTINUOUS
 10
175.2771575562
 20
181.2917295342
 11
195.5767514068
 21
181.2917295342
  0
LINE
  5
4CC
100
AcDbEntity
  8
X14454000_BL5
100
AcDbLine
 62
7
  6
CONTINUOUS
 10
198.5767514068
 20
181.2917295342
 11
198.9767514068
 21
181.2917295342
  0
LINE
  5
4CD
100
AcDbEntity
  8
X14454000_BL5
100
AcDbLine
 62
9
  6
CONTINUOUS
 10
175.819919112
 20
181.7917295342
 11
195.5767514068
 21
181.7917295342
  0
LINE
  5
4CE
100
AcDbEntity
  8
X14454000_BL5
100
AcDbLine
 62
9
  6
CONTINUOUS
 10
198.5767514068
 20
181.7917295342
 11
198.9767514068
 21
181.7917295342
  0
LINE
  5
4CF
100
AcDbEntity
  8
X14454000_BL5
100
AcDbLine
 62
7
  6
CENTER
 10
211.2767514068
 20
198.6417295342
 11
170.2633694994
 21
198.6417295342
  0
LINE
  5
4D0
100
AcDbEntity
  8
X14454000_BL5
100
AcDbLine
 62
9
  6
CONTINUOUS
 10
198.9767514068
 20
215.4917295342
 11
198.5767514068
 21
215.4917295342
  0
LINE
  5
4D1
100
AcDbEntity
  8
X14454000_BL5
100
AcDbLine
 62
9
  6
CONTINUOUS
 10
195.5767514068
 20
215.4917295342
 11
175.819919112
 21
215.4917295342
  0
LINE
  5
4D2
100
AcDbEntity
  8
X14454000_BL5
100
AcDbLine
 62
7
  6
CONTINUOUS
 10
198.9767514068
 20
215.9917295342
 11
198.5767514068
 21
215.9917295342
  0
LINE
  5
4D3
100
AcDbEntity
  8
X14454000_BL5
100
AcDbLine
 62
7
  6
CONTINUOUS
 10
195.5767514068
 20
215.9917295342
 11
175.2771575562
 21
215.9917295342
  0
LINE
  5
4D4
100
AcDbEntity
  8
X14454000_BL5
100
AcDbLine
 62
7
  6
CONTINUOUS
 10
416.4929798151
 20
181.2917295342
 11
423.4929798151
 21
181.2917295342
  0
LINE
  5
4D5
100
AcDbEntity
  8
X14454000_BL5
100
AcDbLine
 62
7
  6
CONTINUOUS
 10
423.4929798151
 20
215.9917295342
 11
416.4929798151
 21
215.9917295342
  0
LINE
  5
4D6
100
AcDbEntity
  8
X14454000_BL5
100
AcDbLine
 62
7
  6
CONTINUOUS
 10
415.9929798151
 20
181.7917295342
 11
415.9929798151
 21
215.4917295342
  0
LINE
  5
4D7
100
AcDbEntity
  8
X14454000_BL5
100
AcDbLine
 62
7
  6
CONTINUOUS
 10
423.9929798151
 20
181.7917295342
 11
423.9929798151
 21
215.4917295342
  0
LINE
  5
4D8
100
AcDbEntity
  8
X14454000_BL5
100
AcDbLine
 62
7
  6
CONTINUOUS
 10
191.122905253
 20
38.8151521433
 11
175.819919112
 21
38.8151521433
  0
LINE
  5
4D9
100
AcDbEntity
  8
X14454000_BL5
100
AcDbLine
 62
9
  6
CONTINUOUS
 10
190.6132898684
 20
39.3151521433
 11
175.690799261
 21
39.3151521433
  0
LINE
  5
4DA
100
AcDbEntity
  8
X14454000_BL5
100
AcDbLine
 62
9
  6
CONTINUOUS
 10
175.690799261
 20
46.3151521433
 11
183.4786744838
 21
46.3151521433
  0
LINE
  5
4DB
100
AcDbEntity
  8
X14454000_BL5
100
AcDbLine
 62
7
  6
CONTINUOUS
 10
175.819919112
 20
46.8151521433
 11
183.3767514068
 21
46.8151521433
  0
ARC
  5
4DC
100
AcDbEntity
  8
X14454000_BL5
100
AcDbCircle
 62
7
  6
CONTINUOUS
 10
199.5767514068
 20
202.8917295342
 40
2.25
100
AcDbArc
 50
105.5281856989
 51
116.4084915495
  0
ARC
  5
4DD
100
AcDbEntity
  8
X14454000_BL5
100
AcDbCircle
 62
7
  6
CONTINUOUS
 10
199.5767514068
 20
202.8917295342
 40
2.25
100
AcDbArc
 50
243.5915084505
 51
254.4718143011
  0
ARC
  5
4DE
100
AcDbEntity
  8
X14454000_BL5
100
AcDbCircle
 62
7
  6
CONTINUOUS
 10
199.5767514068
 20
194.3917295342
 40
2.25
100
AcDbArc
 50
105.5281856989
 51
116.4084915495
  0
ARC
  5
4DF
100
AcDbEntity
  8
X14454000_BL5
100
AcDbCircle
 62
7
  6
CONTINUOUS
 10
199.5767514068
 20
194.3917295342
 40
2.25
100
AcDbArc
 50
243.5915084505
 51
254.4718143011
  0
ARC
  5
4E0
100
AcDbEntity
  8
X14454000_BL5
100
AcDbCircle
 62
7
  6
CONTINUOUS
 10
416.4929798151
 20
215.4917295342
 40
0.5
100
AcDbArc
 50
90.0
 51
180.0
  0
ARC
  5
4E1
100
AcDbEntity
  8
X14454000_BL5
100
AcDbCircle
 62
7
  6
CONTINUOUS
 10
416.4929798151
 20
181.7917295342
 40
0.5
100
AcDbArc
 50
180.0
 51
270.0
  0
ARC
  5
4E2
100
AcDbEntity
  8
X14454000_BL5
100
AcDbCircle
 62
7
  6
CONTINUOUS
 10
423.4929798151
 20
181.7917295342
 40
0.5
100
AcDbArc
 50
270.0
 51
360.0
  0
ARC
  5
4E3
100
AcDbEntity
  8
X14454000_BL5
100
AcDbCircle
 62
7
  6
CONTINUOUS
 10
423.4929798151
 20
215.4917295342
 40
0.5
100
AcDbArc
 50
0.0
 51
90.0
  0
ARC
  5
4E4
100
AcDbEntity
  8
X14454000_BL5
100
AcDbCircle
 62
7
  6
CONTINUOUS
 10
190.2767514068
 20
42.8151521433
 40
15.0
100
AcDbArc
 50
164.5339900466
 51
195.4660099534
  0
SPLINE
  5
4E5
100
AcDbEntity
  8
X14454000_BL5
100
AcDbSpline
 62
7
  6
CONTINUOUS
 70
0
 71
3
 72
12
 73
8
 74
0
 42
0.0000001
 43
0.0000001
 44
0.0000000001
 40
0.0
 40
0.0
 40
0.0
 40
0.0
 40
0.1117619789
 40
0.2062298039
 40
0.3270494597
 40
0.6360111826
 40
1.0
 40
1.0
 40
1.0
 40
1.0
 10
175.690799261
 20
181.2917295342
 30
0.0
 10
175.7106834431
 20
181.2917295342
 30
0.0
 10
175.7392584918
 20
181.3268420871
 30
0.0
 10
175.7620160283
 20
181.3775895671
 30
0.0
 10
175.7906404708
 20
181.4677916653
 30
0.0
 10
175.8134233847
 20
181.6069819296
 30
0.0
 10
175.819919112
 20
181.726970302
 30
0.0
 10
175.819919112
 20
181.7917295342
 30
0.0
  0
SPLINE
  5
4E6
100
AcDbEntity
  8
X14454000_BL5
100
AcDbSpline
 62
7
  6
CONTINUOUS
 70
0
 71
3
 72
12
 73
8
 74
0
 42
0.0000001
 43
0.0000001
 44
0.0000000001
 40
0.0
 40
0.0
 40
0.0
 40
0.0
 40
0.3639888174
 40
0.6729505403
 40
0.7937701961
 40
0.8882380211
 40
1.0
 40
1.0
 40
1.0
 40
1.0
 10
175.819919112
 20
215.4917295342
 30
0.0
 10
175.819919112
 20
215.5564887663
 30
0.0
 10
175.8134233847
 20
215.6764771388
 30
0.0
 10
175.7906404708
 20
215.8156674031
 30
0.0
 10
175.7620160283
 20
215.9058695013
 30
0.0
 10
175.7392584918
 20
215.9566169813
 30
0.0
 10
175.7106834431
 20
215.9917295342
 30
0.0
 10
175.690799261
 20
215.9917295342
 30
0.0
  0
ENDBLK
  5
4E7
100
AcDbEntity
  8
0
  6
BYBLOCK
 62
0
100
AcDbBlockEnd
  0
BLOCK
  5
4E8
100
AcDbEntity
  8
X14306012_BL6
100
AcDbBlockBegin
  2
X14306012_BL6
 70
64
 10
302.5848656109
 20
166.9784408387
  3
X14306012_BL6
  1

  0
LINE
  5
4E9
100
AcDbEntity
  8
X14306012_BL6
100
AcDbLine
 62
7
  6
CONTINUOUS
 10
183.3767514068
 20
297.9417295342
 11
183.3767514068
 21
266.0417295342
  0
LINE
  5
4EA
100
AcDbEntity
  8
X14306012_BL6
100
AcDbLine
 62
7
  6
CONTINUOUS
 10
185.2113667915
 20
297.9417295342
 11
185.2113667915
 21
295.4917295342
  0
LINE
  5
4EB
100
AcDbEntity
  8
X14306012_BL6
100
AcDbLine
 62
7
  6
CONTINUOUS
 10
185.2113667915
 20
266.0417295342
 11
185.2113667915
 21
268.4917295342
  0
LINE
  5
4EC
100
AcDbEntity
  8
X14306012_BL6
100
AcDbLine
 62
7
  6
CONTINUOUS
 10
191.9382898684
 20
295.4917295342
 11
191.9382898684
 21
286.9417295342
  0
LINE
  5
4ED
100
AcDbEntity
  8
X14306012_BL6
100
AcDbLine
 62
7
  6
CONTINUOUS
 10
191.9382898684
 20
277.0417295342
 11
191.9382898684
 21
268.4917295342
  0
LINE
  5
4EE
100
AcDbEntity
  8
X14306012_BL6
100
AcDbLine
 62
7
  6
CONTINUOUS
 10
193.9767514068
 20
286.9417295342
 11
193.9767514068
 21
277.0417295342
  0
LINE
  5
4EF
100
AcDbEntity
  8
X14306012_BL6
100
AcDbLine
 62
7
  6
CONTINUOUS
 10
199.5767514068
 20
278.1917295342
 11
199.5767514068
 21
284.9917295342
  0
LINE
  5
4F0
100
AcDbEntity
  8
X14306012_BL6
100
AcDbLine
 62
9
  6
CONTINUOUS
 10
200.5767514068
 20
278.1917295342
 11
200.5767514068
 21
285.9917295342
  0
LINE
  5
4F1
100
AcDbEntity
  8
X14306012_BL6
100
AcDbLine
 62
7
  6
CONTINUOUS
 10
198.9767514068
 20
266.0417295342
 11
198.5767514068
 21
266.0417295342
  0
LINE
  5
4F2
100
AcDbEntity
  8
X14306012_BL6
100
AcDbLine
 62
7
  6
CONTINUOUS
 10
195.5767514068
 20
266.0417295342
 11
183.3767514068
 21
266.0417295342
  0
LINE
  5
4F3
100
AcDbEntity
  8
X14306012_BL6
100
AcDbLine
 62
7
  6
CONTINUOUS
 10
198.9767514068
 20
268.4917295342
 11
198.5767514068
 21
268.4917295342
  0
LINE
  5
4F4
100
AcDbEntity
  8
X14306012_BL6
100
AcDbLine
 62
7
  6
CONTINUOUS
 10
195.5767514068
 20
268.4917295342
 11
191.9382898684
 21
268.4917295342
  0
LINE
  5
4F5
100
AcDbEntity
  8
X14306012_BL6
100
AcDbLine
 62
7
  6
CONTINUOUS
 10
191.9382898684
 20
268.4917295342
 11
185.2113667915
 21
268.4917295342
  0
LINE
  5
4F6
100
AcDbEntity
  8
X14306012_BL6
100
AcDbLine
 62
7
  6
CONTINUOUS
 10
195.5767514068
 20
277.0417295342
 11
193.9767514068
 21
277.0417295342
  0
LINE
  5
4F7
100
AcDbEntity
  8
X14306012_BL6
100
AcDbLine
 62
7
  6
CONTINUOUS
 10
193.9767514068
 20
277.0417295342
 11
191.9382898684
 21
277.0417295342
  0
LINE
  5
4F8
100
AcDbEntity
  8
X14306012_BL6
100
AcDbLine
 62
7
  6
CONTINUOUS
 10
200.5767514068
 20
278.1917295342
 11
198.5767514068
 21
278.1917295342
  0
LINE
  5
4F9
100
AcDbEntity
  8
X14306012_BL6
100
AcDbLine
 62
7
  6
CENTER
 10
216.8529324811
 20
281.9917295342
 11
178.3767514068
 21
281.9917295342
  0
LINE
  5
4FA
100
AcDbEntity
  8
X14306012_BL6
100
AcDbLine
 62
9
  6
CONTINUOUS
 10
199.5767514068
 20
284.9917295342
 11
211.6767514068
 21
284.9917295342
  0
LINE
  5
4FB
100
AcDbEntity
  8
X14306012_BL6
100
AcDbLine
 62
7
  6
CONTINUOUS
 10
200.5767514068
 20
285.9917295342
 11
211.6767514068
 21
285.9917295342
  0
LINE
  5
4FC
100
AcDbEntity
  8
X14306012_BL6
100
AcDbLine
 62
7
  6
CONTINUOUS
 10
195.5767514068
 20
286.9417295342
 11
191.9382898684
 21
286.9417295342
  0
LINE
  5
4FD
100
AcDbEntity
  8
X14306012_BL6
100
AcDbLine
 62
7
  6
CONTINUOUS
 10
198.9767514068
 20
295.4917295342
 11
198.5767514068
 21
295.4917295342
  0
LINE
  5
4FE
100
AcDbEntity
  8
X14306012_BL6
100
AcDbLine
 62
7
  6
CONTINUOUS
 10
185.2113667915
 20
295.4917295342
 11
195.5767514068
 21
295.4917295342
  0
LINE
  5
4FF
100
AcDbEntity
  8
X14306012_BL6
100
AcDbLine
 62
7
  6
CONTINUOUS
 10
183.3767514068
 20
297.9417295342
 11
195.5767514068
 21
297.9417295342
  0
LINE
  5
500
100
AcDbEntity
  8
X14306012_BL6
100
AcDbLine
 62
7
  6
CONTINUOUS
 10
415.1929798151
 20
297.9417295342
 11
415.1929798151
 21
266.0417295342
  0
LINE
  5
501
100
AcDbEntity
  8
X14306012_BL6
100
AcDbLine
 62
7
  6
CONTINUOUS
 10
415.6929798151
 20
297.9417295342
 11
415.6929798151
 21
266.0417295342
  0
LINE
  5
502
100
AcDbEntity
  8
X14306012_BL6
100
AcDbLine
 62
7
  6
CONTINUOUS
 10
416.3929798151
 20
297.9417295342
 11
416.3929798151
 21
266.0417295342
  0
LINE
  5
503
100
AcDbEntity
  8
X14306012_BL6
100
AcDbLine
 62
7
  6
CONTINUOUS
 10
418.1929798151
 20
297.9417295342
 11
418.1929798151
 21
295.4917295342
  0
LINE
  5
504
100
AcDbEntity
  8
X14306012_BL6
100
AcDbLine
 62
7
  6
CONTINUOUS
 10
418.1929798151
 20
266.0417295342
 11
418.1929798151
 21
268.4917295342
  0
LINE
  5
505
100
AcDbEntity
  8
X14306012_BL6
100
AcDbLine
 62
7
  6
CONTINUOUS
 10
418.5929798151
 20
295.8222838637
 11
418.5929798151
 21
295.4939011314
  0
LINE
  5
506
100
AcDbEntity
  8
X14306012_BL6
100
AcDbLine
 62
7
  6
CONTINUOUS
 10
421.3929798151
 20
268.1917295342
 11
421.3929798151
 21
268.4895579292
  0
LINE
  5
507
100
AcDbEntity
  8
X14306012_BL6
100
AcDbLine
 62
7
  6
CONTINUOUS
 10
424.1929798151
 20
295.4939018562
 11
424.1929798151
 21
295.7944134995
  0
LINE
  5
508
100
AcDbEntity
  8
X14306012_BL6
100
AcDbLine
 62
7
  6
CONTINUOUS
 10
424.6929798151
 20
268.4917295342
 11
424.6929798151
 21
267.9917295342
  0
LINE
  5
509
100
AcDbEntity
  8
X14306012_BL6
100
AcDbLine
 62
7
  6
CONTINUOUS
 10
424.7929798151
 20
295.4917295342
 11
424.7929798151
 21
286.9417295342
  0
LINE
  5
50A
100
AcDbEntity
  8
X14306012_BL6
100
AcDbLine
 62
7
  6
CONTINUOUS
 10
424.7929798151
 20
277.0417295342
 11
424.7929798151
 21
268.4917295342
  0
LINE
  5
50B
100
AcDbEntity
  8
X14306012_BL6
100
AcDbLine
 62
7
  6
CONTINUOUS
 10
426.7929798151
 20
286.9417295342
 11
426.7929798151
 21
277.0417295342
  0
LINE
  5
50C
100
AcDbEntity
  8
X14306012_BL6
100
AcDbLine
 62
7
  6
CONTINUOUS
 10
415.1929798151
 20
266.0417295342
 11
418.5302687053
 21
266.0417295342
  0
LINE
  5
50D
100
AcDbEntity
  8
X14306012_BL6
100
AcDbLine
 62
7
  6
CONTINUOUS
 10
424.7929798151
 20
268.4917295342
 11
418.1929798151
 21
268.4917295342
  0
LINE
  5
50E
100
AcDbEntity
  8
X14306012_BL6
100
AcDbLine
 62
7
  6
CONTINUOUS
 10
426.7929798151
 20
277.0417295342
 11
424.7929798151
 21
277.0417295342
  0
LINE
  5
50F
100
AcDbEntity
  8
X14306012_BL6
100
AcDbLine
 62
7
  6
CONTINUOUS
 10
426.7929798151
 20
286.9417295342
 11
424.7929798151
 21
286.9417295342
  0
LINE
  5
510
100
AcDbEntity
  8
X14306012_BL6
100
AcDbLine
 62
7
  6
CONTINUOUS
 10
418.1929798151
 20
295.4917295342
 11
424.7929798151
 21
295.4917295342
  0
LINE
  5
511
100
AcDbEntity
  8
X14306012_BL6
100
AcDbLine
 62
7
  6
CONTINUOUS
 10
418.1929798151
 20
297.9417295342
 11
415.1929798151
 21
297.9417295342
  0
LINE
  5
512
100
AcDbEntity
  8
X14306012_BL6
100
AcDbLine
 62
7
  6
CONTINUOUS
 10
183.3767514068
 20
46.4151521433
 11
183.3767514068
 21
47.1151521433
  0
LINE
  5
513
100
AcDbEntity
  8
X14306012_BL6
100
AcDbLine
 62
9
  6
CONTINUOUS
 10
200.5767514068
 20
44.2151521433
 11
200.5767514068
 21
46.4648317997
  0
LINE
  5
514
100
AcDbEntity
  8
X14306012_BL6
100
AcDbLine
 62
7
  6
CONTINUOUS
 10
183.3767514068
 20
46.4151521433
 11
193.9767514068
 21
36.0151521433
  0
LINE
  5
515
100
AcDbEntity
  8
X14306012_BL6
100
AcDbLine
 62
7
  6
CONTINUOUS
 10
195.5767514068
 20
36.0151521433
 11
193.9767514068
 21
36.0151521433
  0
LINE
  5
516
100
AcDbEntity
  8
X14306012_BL6
100
AcDbLine
 62
7
  6
CONTINUOUS
 10
195.5767514068
 20
38.0151521433
 11
191.9382898684
 21
38.0151521433
  0
LINE
  5
517
100
AcDbEntity
  8
X14306012_BL6
100
AcDbLine
 62
7
  6
CONTINUOUS
 10
200.0767514068
 20
38.6151521433
 11
201.4767514068
 21
38.6151521433
  0
LINE
  5
518
100
AcDbEntity
  8
X14306012_BL6
100
AcDbLine
 62
7
  6
CONTINUOUS
 10
201.4767514068
 20
44.2151521433
 11
200.0767514068
 21
44.2151521433
  0
LINE
  5
519
100
AcDbEntity
  8
X14306012_BL6
100
AcDbLine
 62
7
  6
CONTINUOUS
 10
185.2113667915
 20
44.6151521433
 11
195.5767514068
 21
44.6151521433
  0
LINE
  5
51A
100
AcDbEntity
  8
X14306012_BL6
100
AcDbLine
 62
9
  6
CONTINUOUS
 10
201.4767514068
 20
45.2151521433
 11
200.0767514068
 21
45.2151521433
  0
LINE
  5
51B
100
AcDbEntity
  8
X14306012_BL6
100
AcDbLine
 62
7
  6
CONTINUOUS
 10
201.3270717504
 20
47.2151521433
 11
201.4767514068
 21
47.2151521433
  0
LINE
  5
51C
100
AcDbEntity
  8
X14306012_BL6
100
AcDbLine
 62
7
  6
CONTINUOUS
 10
198.6665624107
 20
47.6151521433
 11
198.5767514068
 21
47.6151521433
  0
LINE
  5
51D
100
AcDbEntity
  8
X14306012_BL6
100
AcDbLine
 62
7
  6
CONTINUOUS
 10
189.0917775582
 20
47.6151521433
 11
195.5767514068
 21
47.6151521433
  0
LINE
  5
51E
100
AcDbEntity
  8
X14306012_BL6
100
AcDbLine
 62
7
  6
CONTINUOUS
 10
183.3767514068
 20
47.1151521433
 11
189.0917775582
 21
47.6151521433
  0
ARC
  5
51F
100
AcDbEntity
  8
X14306012_BL6
100
AcDbCircle
 62
7
  6
CONTINUOUS
 10
200.5767514068
 20
284.9917295342
 40
1.0
100
AcDbArc
 50
90.0
 51
180.0
  0
ARC
  5
520
100
AcDbEntity
  8
X14306012_BL6
100
AcDbCircle
 62
7
  6
CONTINUOUS
 10
200.5767514068
 20
45.2151521433
 40
1.0
100
AcDbArc
 50
239.8778830975
 51
270.0
  0
ENDBLK
  5
521
100
AcDbEntity
  8
0
  6
BYBLOCK
 62
0
100
AcDbBlockEnd
  0
BLOCK
  5
522
100
AcDbEntity
  8
X14624000_BL7
100
AcDbBlockBegin
  2
X14624000_BL7
 70
64
 10
340.5354224901
 20
212.6417295342
  3
X14624000_BL7
  1

  0
LINE
  5
523
100
AcDbEntity
  8
X14624000_BL7
100
AcDbLine
 62
3
  6
CONTINUOUS
 10
269.9767514068
 20
214.8417295342
 11
265.0267514068
 21
214.8417295342
  0
LINE
  5
524
100
AcDbEntity
  8
X14624000_BL7
100
AcDbLine
 62
3
  6
CONTINUOUS
 10
259.9517514068
 20
214.8417295342
 11
255.0017514068
 21
214.8417295342
  0
LINE
  5
525
100
AcDbEntity
  8
X14624000_BL7
100
AcDbLine
 62
7
  6
CONTINUOUS
 10
269.9767514068
 20
217.8417295342
 11
265.0267514068
 21
217.8417295342
  0
LINE
  5
526
100
AcDbEntity
  8
X14624000_BL7
100
AcDbLine
 62
7
  6
CONTINUOUS
 10
259.9517514068
 20
217.8417295342
 11
255.0017514068
 21
217.8417295342
  0
LINE
  5
527
100
AcDbEntity
  8
X14624000_BL7
100
AcDbLine
 62
7
  6
CONTINUOUS
 10
255.441308562
 20
214.3417295342
 11
255.4920194756
 21
213.9809026351
  0
LINE
  5
528
100
AcDbEntity
  8
X14624000_BL7
100
AcDbLine
 62
7
  6
CONTINUOUS
 10
255.0017514068
 20
214.8417295342
 11
255.0017514068
 21
217.8417295342
  0
LINE
  5
529
100
AcDbEntity
  8
X14624000_BL7
100
AcDbLine
 62
7
  6
CONTINUOUS
 10
259.9517514068
 20
214.8417295342
 11
259.9517514068
 21
217.8417295342
  0
LINE
  5
52A
100
AcDbEntity
  8
X14624000_BL7
100
AcDbLine
 62
7
  6
CONTINUOUS
 10
265.0267514068
 20
214.8417295342
 11
265.0267514068
 21
217.8417295342
  0
LINE
  5
52B
100
AcDbEntity
  8
X14624000_BL7
100
AcDbLine
 62
7
  6
CONTINUOUS
 10
269.9767514068
 20
214.8417295342
 11
269.9767514068
 21
217.8417295342
  0
LINE
  5
52C
100
AcDbEntity
  8
X14624000_BL7
100
AcDbLine
 62
7
  6
CONTINUOUS
 10
259.4614833381
 20
213.9809026351
 11
259.5121942517
 21
214.3417295342
  0
LINE
  5
52D
100
AcDbEntity
  8
X14624000_BL7
100
AcDbLine
 62
7
  6
CONTINUOUS
 10
265.466308562
 20
214.3417295342
 11
265.5170194756
 21
213.9809026351
  0
LINE
  5
52E
100
AcDbEntity
  8
X14624000_BL7
100
AcDbLine
 62
7
  6
CONTINUOUS
 10
276.9267514068
 20
223.9417295342
 11
276.9267514068
 21
226.0417295342
  0
LINE
  5
52F
100
AcDbEntity
  8
X14624000_BL7
100
AcDbLine
 62
7
  6
CONTINUOUS
 10
269.4864833381
 20
213.9809026351
 11
269.5371942517
 21
214.3417295342
  0
LINE
  5
530
100
AcDbEntity
  8
X14624000_BL7
100
AcDbLine
 62
3
  6
CONTINUOUS
 10
283.2267514068
 20
226.0417295342
 11
283.2267514068
 21
223.9417295342
  0
LINE
  5
531
100
AcDbEntity
  8
X14624000_BL7
100
AcDbLine
 62
7
  6
CENTER
 10
426.0690935735
 20
199.2417295342
 11
414.0845207337
 21
199.2417295342
  0
LINE
  5
532
100
AcDbEntity
  8
X14624000_BL7
100
AcDbLine
 62
7
  6
CONTINUOUS
 10
415.9929798151
 20
206.611504313
 11
415.7429798151
 21
206.611504313
  0
LINE
  5
533
100
AcDbEntity
  8
X14624000_BL7
100
AcDbLine
 62
7
  6
CONTINUOUS
 10
417.1048748189
 20
216.2417295342
 11
415.5563732779
 21
216.2417295342
  0
LINE
  5
534
100
AcDbEntity
  8
X14624000_BL7
100
AcDbLine
 62
3
  6
CONTINUOUS
 10
418.2429798151
 20
215.9917295342
 11
418.2429798151
 21
216.2417295342
  0
ARC
  5
535
100
AcDbEntity
  8
X14624000_BL7
100
AcDbCircle
 62
7
  6
CONTINUOUS
 10
270.4767514068
 20
213.8417295342
 40
1.0
100
AcDbArc
 50
172.0
 51
216.9960699728
  0
ARC
  5
536
100
AcDbEntity
  8
X14624000_BL7
100
AcDbCircle
 62
7
  6
CONTINUOUS
 10
254.5017514068
 20
213.8417295342
 40
1.0
100
AcDbArc
 50
323.0039300272
 51
8.0
  0
ARC
  5
537
100
AcDbEntity
  8
X14624000_BL7
100
AcDbCircle
 62
7
  6
CONTINUOUS
 10
260.4517514068
 20
213.8417295342
 40
1.0
100
AcDbArc
 50
172.0
 51
216.9960699728
  0
ARC
  5
538
100
AcDbEntity
  8
X14624000_BL7
100
AcDbCircle
 62
7
  6
CONTINUOUS
 10
264.5267514068
 20
213.8417295342
 40
1.0
100
AcDbArc
 50
323.0039300272
 51
8.0
  0
LINE
  5
539
100
AcDbEntity
  8
X14624000_BL7
100
AcDbLine
 62
7
  6
CONTINUOUS
 10
269.5670492826
 20
214.8417270062
 11
269.5371942517
 21
214.3417295342
  0
LINE
  5
53A
100
AcDbEntity
  8
X14624000_BL7
100
AcDbLine
 62
7
  6
CONTINUOUS
 10
265.466308562
 20
214.3417295342
 11
265.4364535307
 21
214.8417270075
  0
LINE
  5
53B
100
AcDbEntity
  8
X14624000_BL7
100
AcDbLine
 62
7
  6
CONTINUOUS
 10
259.5420492826
 20
214.8417270062
 11
259.5121942517
 21
214.3417295342
  0
LINE
  5
53C
100
AcDbEntity
  8
X14624000_BL7
100
AcDbLine
 62
7
  6
CONTINUOUS
 10
255.441308562
 20
214.3417295342
 11
255.4114535307
 21
214.8417270075
  0
ENDBLK
  5
53D
100
AcDbEntity
  8
0
  6
BYBLOCK
 62
0
100
AcDbBlockEnd
  0
BLOCK
  5
53E
100
AcDbEntity
  8
X01041000_A1_BL8
100
AcDbBlockBegin
  2
X01041000_A1_BL8
 70
64
 10
336.3098656109
 20
258.0886400603
  3
X01041000_A1_BL8
  1

  0
LINE
  5
53F
100
AcDbEntity
  8
X01041000_A1_BL8
100
AcDbLine
 62
6
  6
CONTINUOUS
 10
254.7767514068
 20
218.5947165032
 11
256.9635843531
 21
217.8417295342
  0
LINE
  5
540
100
AcDbEntity
  8
X01041000_A1_BL8
100
AcDbLine
 62
6
  6
CONTINUOUS
 10
254.7767514068
 20
219.9696233888
 11
257.448306278
 21
219.0497332762
  0
LINE
  5
541
100
AcDbEntity
  8
X01041000_A1_BL8
100
AcDbLine
 62
9
  6
CONTINUOUS
 10
255.6045450556
 20
219.6845911774
 11
255.1813064548
 21
218.4554170291
  0
LINE
  5
542
100
AcDbEntity
  8
X01041000_A1_BL8
100
AcDbLine
 62
7
  6
CONTINUOUS
 10
415.3429798151
 20
265.5558281927
 11
415.3429798151
 21
266.0417295342
  0
LINE
  5
543
100
AcDbEntity
  8
X01041000_A1_BL8
100
AcDbLine
 62
6
  6
CONTINUOUS
 10
416.1429798151
 20
265.8227400834
 11
416.1429798151
 21
266.0417295342
  0
LINE
  5
544
100
AcDbEntity
  8
X01041000_A1_BL8
100
AcDbLine
 62
6
  6
CONTINUOUS
 10
416.5429798151
 20
297.9417295342
 11
416.5429798151
 21
298.1417295342
  0
LINE
  5
545
100
AcDbEntity
  8
X01041000_A1_BL8
100
AcDbLine
 62
6
  6
CONTINUOUS
 10
417.8429798151
 20
297.9417295342
 11
417.8429798151
 21
298.3386566305
  0
ARC
  5
546
100
AcDbEntity
  8
X01041000_A1_BL8
100
AcDbCircle
 62
6
  6
CONTINUOUS
 10
257.2366869776
 20
218.4351462021
 40
0.65
100
AcDbArc
 50
293.6913911828
 51
246.596050728
  0
ARC
  5
547
100
AcDbEntity
  8
X01041000_A1_BL8
100
AcDbCircle
 62
7
  6
CONTINUOUS
 10
417.1307687762
 20
290.3516466898
 40
2.3019083565
100
AcDbArc
 50
147.4043351858
 51
148.12861057
  0
ARC
  5
548
100
AcDbEntity
  8
X01041000_A1_BL8
100
AcDbCircle
 62
6
  6
CONTINUOUS
 10
417.1199678977
 20
290.3585458618
 40
2.2891210987
100
AcDbArc
 50
147.483507745
 51
148.1326636953
  0
ARC
  5
549
100
AcDbEntity
  8
X01041000_A1_BL8
100
AcDbCircle
 62
7
  6
CONTINUOUS
 10
417.1128437394
 20
290.3626372997
 40
2.2808825838
100
AcDbArc
 50
148.1253183205
 51
151.0052217091
  0
ARC
  5
54A
100
AcDbEntity
  8
X01041000_A1_BL8
100
AcDbCircle
 62
6
  6
CONTINUOUS
 10
417.1035325164
 20
290.3686616077
 40
2.2698223268
100
AcDbArc
 50
148.1304902813
 51
151.0247143193
  0
ARC
  5
54B
100
AcDbEntity
  8
X01041000_A1_BL8
100
AcDbCircle
 62
6
  6
CONTINUOUS
 10
417.0838192375
 20
290.3795358116
 40
2.2473087684
100
AcDbArc
 50
151.0237790739
 51
155.4257786016
  0
ARC
  5
54C
100
AcDbEntity
  8
X01041000_A1_BL8
100
AcDbCircle
 62
7
  6
CONTINUOUS
 10
417.0758668984
 20
290.3830552455
 40
2.2386430882
100
AcDbArc
 50
151.0035596132
 51
155.4387491848
  0
SPLINE
  5
54D
100
AcDbEntity
  8
X01041000_A1_BL8
100
AcDbSpline
 62
9
  6
CONTINUOUS
 70
0
 71
3
 72
9
 73
5
 74
0
 42
0.0000001
 43
0.0000001
 44
0.0000000001
 40
0.0
 40
0.0
 40
0.0
 40
0.0
 40
0.2630209181
 40
1.0
 40
1.0
 40
1.0
 40
1.0
 10
415.191855792
 20
290.1326933906
 30
0.0
 10
415.1783114301
 20
290.1361757423
 30
0.0
 10
415.1271024823
 20
290.1504649812
 30
0.0
 10
415.0770376893
 20
290.1691520719
 30
0.0
 10
415.0416465201
 20
290.1859732842
 30
0.0
  0
SPLINE
  5
54E
100
AcDbEntity
  8
X01041000_A1_BL8
100
AcDbSpline
 62
9
  6
CONTINUOUS
 70
0
 71
3
 72
9
 73
5
 74
0
 42
0.0000001
 43
0.0000001
 44
0.0000000001
 40
0.0
 40
0.0
 40
0.0
 40
0.0
 40
0.2296374361
 40
1.0
 40
1.0
 40
1.0
 40
1.0
 10
415.0402278692
 20
278.8372802913
 30
0.0
 10
415.0518471789
 20
278.8383606282
 30
0.0
 10
415.1024783884
 20
278.8427131177
 30
0.0
 10
415.1532102644
 20
278.8458335234
 30
0.0
 10
415.1923087196
 20
278.847788737
 30
0.0
  0
SPLINE
  5
54F
100
AcDbEntity
  8
X01041000_A1_BL8
100
AcDbSpline
 62
9
  6
CONTINUOUS
 70
0
 71
3
 72
9
 73
5
 74
0
 42
0.0000001
 43
0.0000001
 44
0.0000000001
 40
0.0
 40
0.0
 40
0.0
 40
0.0
 40
0.2308235823
 40
1.0
 40
1.0
 40
1.0
 40
1.0
 10
415.0402278692
 20
279.3005723534
 30
0.0
 10
415.0518205311
 20
279.2981383235
 30
0.0
 10
415.1022031188
 20
279.2883538496
 30
0.0
 10
415.1530853321
 20
279.2812714875
 30
0.0
 10
415.1923087196
 20
279.2768421008
 30
0.0
  0
SPLINE
  5
550
100
AcDbEntity
  8
X01041000_A1_BL8
100
AcDbSpline
 62
9
  6
CONTINUOUS
 70
0
 71
3
 72
9
 73
5
 74
0
 42
0.0000001
 43
0.0000001
 44
0.0000000001
 40
0.0
 40
0.0
 40
0.0
 40
0.0
 40
0.2308235823
 40
1.0
 40
1.0
 40
1.0
 40
1.0
 10
415.0402278692
 20
285.7545691731
 30
0.0
 10
415.0518205311
 20
285.7521351431
 30
0.0
 10
415.1022031188
 20
285.7423506692
 30
0.0
 10
415.1530853321
 20
285.7352683071
 30
0.0
 10
415.1923087196
 20
285.7308389204
 30
0.0
  0
SPLINE
  5
551
100
AcDbEntity
  8
X01041000_A1_BL8
100
AcDbSpline
 62
9
  6
CONTINUOUS
 70
0
 71
3
 72
9
 73
5
 74
0
 42
0.0000001
 43
0.0000001
 44
0.0000000001
 40
0.0
 40
0.0
 40
0.0
 40
0.0
 40
0.2362577133
 40
1.0
 40
1.0
 40
1.0
 40
1.0
 10
415.0402278692
 20
286.1640061344
 30
0.0
 10
415.0517061506
 20
286.1585230909
 30
0.0
 10
415.1009606897
 20
286.136722538
 30
0.0
 10
415.1524806307
 20
286.1202499351
 30
0.0
 10
415.1923087196
 20
286.1100172399
 30
0.0
  0
SPLINE
  5
552
100
AcDbEntity
  8
X01041000_A1_BL8
100
AcDbSpline
 62
9
  6
CONTINUOUS
 70
0
 71
3
 72
9
 73
5
 74
0
 42
0.0000001
 43
0.0000001
 44
0.0000000001
 40
0.0
 40
0.0
 40
0.0
 40
0.0
 40
0.2364786201
 40
1.0
 40
1.0
 40
1.0
 40
1.0
 10
415.0401806917
 20
290.1866718309
 30
0.0
 10
415.0516556761
 20
290.1811827575
 30
0.0
 10
415.1008473378
 20
290.1593694801
 30
0.0
 10
415.1523062792
 20
290.1428713956
 30
0.0
 10
415.192083326
 20
290.1326470119
 30
0.0
  0
ENDBLK
  5
553
100
AcDbEntity
  8
0
  6
BYBLOCK
 62
0
100
AcDbBlockEnd
  0
BLOCK
  5
554
100
AcDbEntity
  8
X14506001_BL9
100
AcDbBlockBegin
  2
X14506001_BL9
 70
64
 10
337.2607920248
 20
258.6017295342
  3
X14506001_BL9
  1

  0
LINE
  5
555
100
AcDbEntity
  8
X14506001_BL9
100
AcDbLine
 62
3
  6
CONTINUOUS
 10
255.6467514068
 20
257.7717295342
 11
256.1467514068
 21
258.2717295342
  0
LINE
  5
556
100
AcDbEntity
  8
X14506001_BL9
100
AcDbLine
 62
3
  6
CONTINUOUS
 10
257.8854265414
 20
249.2117295342
 11
257.5967514068
 21
248.7117295342
  0
LINE
  5
557
100
AcDbEntity
  8
X14506001_BL9
100
AcDbLine
 62
3
  6
CONTINUOUS
 10
263.4680762722
 20
258.2717295342
 11
263.7567514068
 21
258.7717295342
  0
LINE
  5
558
100
AcDbEntity
  8
X14506001_BL9
100
AcDbLine
 62
3
  6
CONTINUOUS
 10
265.7067514068
 20
249.7117295342
 11
265.2067514068
 21
249.2117295342
  0
LINE
  5
559
100
AcDbEntity
  8
X14506001_BL9
100
AcDbLine
 62
3
  6
CONTINUOUS
 10
257.5967514068
 20
248.7117295342
 11
256.6467514068
 21
248.7117295342
  0
LINE
  5
55A
100
AcDbEntity
  8
X14506001_BL9
100
AcDbLine
 62
3
  6
CONTINUOUS
 10
265.2067514068
 20
249.2117295342
 11
257.8854265414
 21
249.2117295342
  0
LINE
  5
55B
100
AcDbEntity
  8
X14506001_BL9
100
AcDbLine
 62
3
  6
CONTINUOUS
 10
255.6467514068
 20
256.8217295342
 11
255.6467514068
 21
257.7717295342
  0
LINE
  5
55C
100
AcDbEntity
  8
X14506001_BL9
100
AcDbLine
 62
3
  6
CONTINUOUS
 10
256.1467514068
 20
249.2117295342
 11
256.1467514068
 21
256.5330543996
  0
LINE
  5
55D
100
AcDbEntity
  8
X14506001_BL9
100
AcDbLine
 62
3
  6
CONTINUOUS
 10
256.1467514068
 20
258.2717295342
 11
263.4680762722
 21
258.2717295342
  0
LINE
  5
55E
100
AcDbEntity
  8
X14506001_BL9
100
AcDbLine
 62
3
  6
CONTINUOUS
 10
263.7567514068
 20
258.7717295342
 11
264.7067514068
 21
258.7717295342
  0
LINE
  5
55F
100
AcDbEntity
  8
X14506001_BL9
100
AcDbLine
 62
3
  6
CONTINUOUS
 10
251.8575523063
 20
256.692592275
 11
251.9852215402
 21
256.6498747469
  0
LINE
  5
560
100
AcDbEntity
  8
X14506001_BL9
100
AcDbLine
 62
3
  6
CONTINUOUS
 10
256.6467514068
 20
248.7117295342
 11
256.1467514068
 21
249.2117295342
  0
LINE
  5
561
100
AcDbEntity
  8
X14506001_BL9
100
AcDbLine
 62
3
  6
CONTINUOUS
 10
265.2067514068
 20
258.2717295342
 11
265.2067514068
 21
250.9504046688
  0
LINE
  5
562
100
AcDbEntity
  8
X14506001_BL9
100
AcDbLine
 62
3
  6
CONTINUOUS
 10
265.7067514068
 20
250.6617295342
 11
265.7067514068
 21
249.7117295342
  0
LINE
  5
563
100
AcDbEntity
  8
X14506001_BL9
100
AcDbLine
 62
3
  6
CONTINUOUS
 10
265.2067514068
 20
250.9504046688
 11
265.7067514068
 21
250.6617295342
  0
LINE
  5
564
100
AcDbEntity
  8
X14506001_BL9
100
AcDbLine
 62
3
  6
CONTINUOUS
 10
256.1467514068
 20
256.5330543996
 11
255.6467514068
 21
256.8217295342
  0
LINE
  5
565
100
AcDbEntity
  8
X14506001_BL9
100
AcDbLine
 62
3
  6
CONTINUOUS
 10
254.9089347501
 20
260.864389923
 11
254.0673141871
 21
261.9037047631
  0
LINE
  5
566
100
AcDbEntity
  8
X14506001_BL9
100
AcDbLine
 62
3
  6
CONTINUOUS
 10
264.7067514068
 20
258.7717295342
 11
265.2067514068
 21
258.2717295342
  0
LINE
  5
567
100
AcDbEntity
  8
X14506001_BL9
100
AcDbLine
 62
3
  6
CONTINUOUS
 10
424.7429798151
 20
268.4917295342
 11
424.7429798151
 21
267.9464396386
  0
LINE
  5
568
100
AcDbEntity
  8
X14506001_BL9
100
AcDbLine
 62
9
  6
CONTINUOUS
 10
424.7429798151
 20
268.2274333453
 11
424.6929798151
 21
268.2274333453
  0
ARC
  5
569
100
AcDbEntity
  8
X14506001_BL9
100
AcDbCircle
 62
3
  6
CONTINUOUS
 10
260.6767514068
 20
253.7417295342
 40
11.55
100
AcDbArc
 50
134.4390449423
 51
156.0609550577
  0
ARC
  5
56A
100
AcDbEntity
  8
X14506001_BL9
100
AcDbCircle
 62
3
  6
CONTINUOUS
 10
260.6767514068
 20
253.7417295342
 40
8.4
100
AcDbArc
 50
166.4885419756
 51
124.0114580244
  0
ARC
  5
56B
100
AcDbEntity
  8
X14506001_BL9
100
AcDbCircle
 62
3
  6
CONTINUOUS
 10
250.6767514068
 20
263.7417295342
 40
2.55
100
AcDbArc
 50
249.3771714779
 51
20.5615925836
  0
ARC
  5
56C
100
AcDbEntity
  8
X14506001_BL9
100
AcDbCircle
 62
3
  6
CONTINUOUS
 10
251.0342871566
 20
258.0225452489
 40
1.0
100
AcDbArc
 50
156.0609550577
 51
251.5
  0
ARC
  5
56D
100
AcDbEntity
  8
X14506001_BL9
100
AcDbCircle
 62
3
  6
CONTINUOUS
 10
253.2901682256
 20
261.2743843721
 40
1.0
100
AcDbArc
 50
39.0
 51
134.4390449423
  0
ARC
  5
56E
100
AcDbEntity
  8
X14506001_BL9
100
AcDbCircle
 62
3
  6
CONTINUOUS
 10
251.7313778151
 20
255.8912158227
 40
0.8
100
AcDbArc
 50
346.4885419756
 51
71.5
  0
ARC
  5
56F
100
AcDbEntity
  8
X14506001_BL9
100
AcDbCircle
 62
3
  6
CONTINUOUS
 10
255.5306515193
 20
261.3678462358
 40
0.8
100
AcDbArc
 50
219.0
 51
304.0114580244
  0
ENDBLK
  5
570
100
AcDbEntity
  8
0
  6
BYBLOCK
 62
0
100
AcDbBlockEnd
  0
BLOCK
  5
571
100
AcDbEntity
  8
X01040000_A1_BL10
100
AcDbBlockBegin
  2
X01040000_A1_BL10
 70
64
 10
350.3232683887
 20
171.1028353708
  3
X01040000_A1_BL10
  1

  0
LINE
  5
572
100
AcDbEntity
  8
X01040000_A1_BL10
100
AcDbLine
 62
6
  6
CONTINUOUS
 10
276.4093114694
 20
302.0593467892
 11
276.5217135748
 21
302.5417295342
  0
LINE
  5
573
100
AcDbEntity
  8
X01040000_A1_BL10
100
AcDbLine
 62
6
  6
CONTINUOUS
 10
276.3767514068
 20
301.7668661879
 11
276.4093114694
 21
302.0593467892
  0
LINE
  5
574
100
AcDbEntity
  8
X01040000_A1_BL10
100
AcDbLine
 62
6
  6
CONTINUOUS
 10
276.4101576536
 20
300.4459392815
 11
276.3767514068
 21
300.7110329376
  0
LINE
  5
575
100
AcDbEntity
  8
X01040000_A1_BL10
100
AcDbLine
 62
6
  6
CONTINUOUS
 10
416.4600184392
 20
298.1463184706
 11
416.4764657431
 21
297.948677058
  0
LINE
  5
576
100
AcDbEntity
  8
X01040000_A1_BL10
100
AcDbLine
 62
7
  6
CONTINUOUS
 10
417.3429798151
 20
266.0417295342
 11
417.3429798151
 21
265.914270182
  0
LINE
  5
577
100
AcDbEntity
  8
X01040000_A1_BL10
100
AcDbLine
 62
6
  6
CONTINUOUS
 10
417.3429798151
 20
266.0417295342
 11
417.3429798151
 21
265.8077328895
  0
LINE
  5
578
100
AcDbEntity
  8
X01040000_A1_BL10
100
AcDbLine
 62
6
  6
CONTINUOUS
 10
424.2697853706
 20
295.8019994405
 11
424.2697853706
 21
295.4917295342
  0
LINE
  5
579
100
AcDbEntity
  8
X01040000_A1_BL10
100
AcDbLine
 62
6
  6
CONTINUOUS
 10
285.4031193849
 20
39.6939761592
 11
285.4254887484
 21
39.6961601886
  0
LINE
  5
57A
100
AcDbEntity
  8
X01040000_A1_BL10
100
AcDbLine
 62
7
  6
CONTINUOUS
 10
285.4031578707
 20
39.6939798213
 11
285.4254887484
 21
39.696156368
  0
LWPOLYLINE
  5
57B
100
AcDbEntity
  8
X01040000_A1_BL10
100
AcDbPolyline
 62
7
  6
CONTINUOUS
 90
3
 70
0
 10
285.4254887484
 20
42.2082114434
 10
285.1695713102
 20
42.1830450793
 10
285.0767514068
 20
42.1743741908
  0
LWPOLYLINE
  5
57C
100
AcDbEntity
  8
X01040000_A1_BL10
100
AcDbPolyline
 62
6
  6
CONTINUOUS
 90
3
 70
0
 10
285.4254887484
 20
42.2082141515
 10
285.1488160678
 20
42.1810730246
 10
285.0767514068
 20
42.174369108
  0
LINE
  5
57D
100
AcDbEntity
  8
X01040000_A1_BL10
100
AcDbLine
 62
7
  6
CONTINUOUS
 10
285.0767514068
 20
39.6639461662
 11
285.4031578707
 21
39.6939798213
  0
LINE
  5
57E
100
AcDbEntity
  8
X01040000_A1_BL10
100
AcDbLine
 62
6
  6
CONTINUOUS
 10
285.0767514068
 20
39.6639412075
 11
285.4031193849
 21
39.6939761592
  0
LWPOLYLINE
  5
57F
100
AcDbEntity
  8
X01040000_A1_BL10
100
AcDbPolyline
 62
7
  6
CONTINUOUS
 90
3
 70
0
 10
285.4254887484
 20
44.894251041
 10
285.1695713102
 20
44.8690846769
 10
285.0767514068
 20
44.8604137883
  0
LWPOLYLINE
  5
580
100
AcDbEntity
  8
X01040000_A1_BL10
100
AcDbPolyline
 62
6
  6
CONTINUOUS
 90
3
 70
0
 10
285.4254887484
 20
44.894253749
 10
285.1488160678
 20
44.8671126222
 10
285.0767514068
 20
44.8604087056
  0
LWPOLYLINE
  5
581
100
AcDbEntity
  8
X01040000_A1_BL10
100
AcDbPolyline
 62
7
  6
CONTINUOUS
 90
3
 70
0
 10
285.0767514068
 20
45.0360598649
 10
285.2540641418
 20
45.0520655864
 10
285.4254887484
 20
45.0683367251
  0
LWPOLYLINE
  5
582
100
AcDbEntity
  8
X01040000_A1_BL10
100
AcDbPolyline
 62
6
  6
CONTINUOUS
 90
3
 70
0
 10
285.0767514068
 20
45.0360598649
 10
285.2540641418
 20
45.0520655864
 10
285.4254887484
 20
45.0683367251
  0
LWPOLYLINE
  5
583
100
AcDbEntity
  8
X01040000_A1_BL10
100
AcDbPolyline
 62
7
  6
CONTINUOUS
 90
4
 70
0
 10
285.0767514068
 20
42.3499857637
 10
285.1606997749
 20
42.3574683312
 10
285.4031578707
 20
42.3800194188
 10
285.4254887484
 20
42.3821959655
  0
LWPOLYLINE
  5
584
100
AcDbEntity
  8
X01040000_A1_BL10
100
AcDbPolyline
 62
6
  6
CONTINUOUS
 90
4
 70
0
 10
285.0767514068
 20
42.349980805
 10
285.1421159076
 20
42.355779917
 10
285.4031193849
 20
42.3800157568
 10
285.4254887484
 20
42.3821997862
  0
LWPOLYLINE
  5
585
100
AcDbEntity
  8
X01040000_A1_BL10
100
AcDbPolyline
 62
7
  6
CONTINUOUS
 90
4
 70
0
 10
285.4254887484
 20
47.5802736556
 10
285.3851561392
 20
47.5761430923
 10
285.1876485206
 20
47.556841391
 10
285.0767514068
 20
47.5464627313
  0
LWPOLYLINE
  5
586
100
AcDbEntity
  8
X01040000_A1_BL10
100
AcDbPolyline
 62
6
  6
CONTINUOUS
 90
4
 70
0
 10
285.4254887484
 20
47.5802736556
 10
285.3851561392
 20
47.5761430923
 10
285.1876485206
 20
47.556841391
 10
285.0767514068
 20
47.5464627313
  0
ARC
  5
587
100
AcDbEntity
  8
X01040000_A1_BL10
100
AcDbCircle
 62
7
  6
CONTINUOUS
 10
280.1085767532
 20
99.242714161
 40
54.6111349427
100
AcDbArc
 50
275.2276399654
 51
275.5971203848
  0
ARC
  5
588
100
AcDbEntity
  8
X01040000_A1_BL10
100
AcDbCircle
 62
7
  6
CONTINUOUS
 10
280.1085767534
 20
96.5566745616
 40
54.6111349409
100
AcDbArc
 50
275.2276399654
 51
275.5971203848
  0
ELLIPSE
  5
589
100
AcDbEntity
  8
X01040000_A1_BL10
100
AcDbEllipse
 62
7
  6
CONTINUOUS
 10
416.0929798151
 20
265.9136395745
 30
0.0
 11
0.0
 21
23.8841532616
 31
0.0
 40
0.0523359562
 41
4.707955831
 42
4.7177519756
  0
ENDBLK
  5
58A
100
AcDbEntity
  8
0
  6
BYBLOCK
 62
0
100
AcDbBlockEnd
  0
BLOCK
  5
58B
100
AcDbEntity
  8
X14507001_BL11
100
AcDbBlockBegin
  2
X14507001_BL11
 70
64
 10
259.5473814768
 20
157.653041757
  3
X14507001_BL11
  1

  0
LINE
  5
58C
100
AcDbEntity
  8
X14507001_BL11
100
AcDbLine
 62
7
  6
CONTINUOUS
 10
252.5767514068
 20
263.7417295342
 11
253.2267514068
 21
263.7417295342
  0
LINE
  5
58D
100
AcDbEntity
  8
X14507001_BL11
100
AcDbLine
 62
7
  6
CONTINUOUS
 10
252.2767514068
 20
50.0651521433
 11
269.0387475989
 21
50.0651521433
  0
LINE
  5
58E
100
AcDbEntity
  8
X14507001_BL11
100
AcDbLine
 62
7
  6
CONTINUOUS
 10
252.2767514068
 20
49.4643539799
 11
252.2767514068
 21
50.0651521433
  0
ARC
  5
58F
100
AcDbEntity
  8
X14507001_BL11
100
AcDbCircle
 62
7
  6
CONTINUOUS
 10
250.6767514068
 20
263.7417295342
 40
2.1
100
AcDbArc
 50
252.8071644748
 51
360.0
  0
ARC
  5
590
100
AcDbEntity
  8
X14507001_BL11
100
AcDbCircle
 62
7
  6
CONTINUOUS
 10
250.6767514068
 20
263.7417295342
 40
1.9
100
AcDbArc
 50
0.0
 51
14.9191408677
  0
ARC
  5
591
100
AcDbEntity
  8
X14507001_BL11
100
AcDbCircle
 62
9
  6
CONTINUOUS
 10
250.6767514068
 20
263.7417295342
 40
1.5999993
100
AcDbArc
 50
259.6523392525
 51
10.280841931
  0
ENDBLK
  5
592
100
AcDbEntity
  8
0
  6
BYBLOCK
 62
0
100
AcDbBlockEnd
  0
BLOCK
  5
593
100
AcDbEntity
  8
X14453002_BL12
100
AcDbBlockBegin
  2
X14453002_BL12
 70
64
 10
419.9929798151
 20
198.6417295342
  3
X14453002_BL12
  1

  0
LINE
  5
594
100
AcDbEntity
  8
X14453002_BL12
100
AcDbLine
 62
7
  6
CONTINUOUS
 10
421.4929798151
 20
181.1917295342
 11
418.4929798151
 21
181.1917295342
  0
LINE
  5
595
100
AcDbEntity
  8
X14453002_BL12
100
AcDbLine
 62
7
  6
CONTINUOUS
 10
421.4929798151
 20
216.0917295342
 11
418.4929798151
 21
216.0917295342
  0
LINE
  5
596
100
AcDbEntity
  8
X14453002_BL12
100
AcDbLine
 62
7
  6
CONTINUOUS
 10
418.4929798151
 20
216.0917295342
 11
418.4929798151
 21
215.9917295342
  0
LINE
  5
597
100
AcDbEntity
  8
X14453002_BL12
100
AcDbLine
 62
7
  6
CONTINUOUS
 10
418.4929798151
 20
181.2917295342
 11
418.4929798151
 21
181.1917295342
  0
LINE
  5
598
100
AcDbEntity
  8
X14453002_BL12
100
AcDbLine
 62
3
  6
CONTINUOUS
 10
421.4929798151
 20
216.0917295342
 11
421.4929798151
 21
215.9917295342
  0
LINE
  5
599
100
AcDbEntity
  8
X14453002_BL12
100
AcDbLine
 62
3
  6
CONTINUOUS
 10
421.4929798151
 20
181.2917295342
 11
421.4929798151
 21
181.1917295342
  0
ENDBLK
  5
59A
100
AcDbEntity
  8
0
  6
BYBLOCK
 62
0
100
AcDbBlockEnd
  0
BLOCK
  5
59B
100
AcDbEntity
  8
X01822001_BL13
100
AcDbBlockBegin
  2
X01822001_BL13
 70
64
 10
341.7598656109
 20
206.2417295342
  3
X01822001_BL13
  1

  0
LINE
  5
59C
100
AcDbEntity
  8
X01822001_BL13
100
AcDbLine
 62
2
  6
CONTINUOUS
 10
424.2429798151
 20
204.5917295342
 11
423.9929798151
 21
204.5917295342
  0
LINE
  5
59D
100
AcDbEntity
  8
X01822001_BL13
100
AcDbLine
 62
2
  6
CONTINUOUS
 10
424.2429798151
 20
207.8917295342
 11
423.9929798151
 21
207.8917295342
  0
CIRCLE
  5
59E
100
AcDbEntity
  8
X01822001_BL13
100
AcDbCircle
 62
7
  6
CONTINUOUS
 10
262.6767514068
 20
206.2417295342
 40
3.4
  0
ARC
  5
59F
100
AcDbEntity
  8
X01822001_BL13
100
AcDbCircle
 62
7
  6
CONTINUOUS
 10
264.1552299832
 20
205.3881295301
 40
0.6072000081
100
AcDbArc
 50
95.2529123095
 51
204.7470876905
  0
ARC
  5
5A0
100
AcDbEntity
  8
X01822001_BL13
100
AcDbCircle
 62
7
  6
CONTINUOUS
 10
264.1552299832
 20
207.0953295382
 40
0.6072000081
100
AcDbArc
 50
155.2529123095
 51
264.7470876905
  0
ARC
  5
5A1
100
AcDbEntity
  8
X01822001_BL13
100
AcDbCircle
 62
7
  6
CONTINUOUS
 10
262.6767514068
 20
207.9489295422
 40
0.6072000081
100
AcDbArc
 50
215.2529123095
 51
324.7470876905
  0
ARC
  5
5A2
100
AcDbEntity
  8
X01822001_BL13
100
AcDbCircle
 62
7
  6
CONTINUOUS
 10
261.1982728305
 20
207.0953295382
 40
0.6072000081
100
AcDbArc
 50
275.2529123095
 51
24.7470876905
  0
ARC
  5
5A3
100
AcDbEntity
  8
X01822001_BL13
100
AcDbCircle
 62
7
  6
CONTINUOUS
 10
261.1982728305
 20
205.3881295301
 40
0.6072000081
100
AcDbArc
 50
335.2529123095
 51
84.7470876905
  0
ARC
  5
5A4
100
AcDbEntity
  8
X01822001_BL13
100
AcDbCircle
 62
7
  6
CONTINUOUS
 10
262.6767514068
 20
204.5345295261
 40
0.6072000081
100
AcDbArc
 50
35.2529123095
 51
144.7470876905
  0
ARC
  5
5A5
100
AcDbEntity
  8
X01822001_BL13
100
AcDbCircle
 62
7
  6
CONTINUOUS
 10
264.0767514068
 20
206.2417295342
 40
0.25
100
AcDbArc
 50
275.2529123095
 51
84.7470876905
  0
ARC
  5
5A6
100
AcDbEntity
  8
X01822001_BL13
100
AcDbCircle
 62
7
  6
CONTINUOUS
 10
261.2767514068
 20
206.2417295342
 40
0.25
100
AcDbArc
 50
95.2529123095
 51
264.7470876905
  0
ARC
  5
5A7
100
AcDbEntity
  8
X01822001_BL13
100
AcDbCircle
 62
7
  6
CONTINUOUS
 10
263.3767514068
 20
205.0292939689
 40
0.25
100
AcDbArc
 50
215.2529123095
 51
24.7470876905
  0
ARC
  5
5A8
100
AcDbEntity
  8
X01822001_BL13
100
AcDbCircle
 62
7
  6
CONTINUOUS
 10
261.9767514068
 20
205.0292939689
 40
0.25
100
AcDbArc
 50
155.2529123095
 51
324.7470876905
  0
ARC
  5
5A9
100
AcDbEntity
  8
X01822001_BL13
100
AcDbCircle
 62
7
  6
CONTINUOUS
 10
261.9767514068
 20
207.4541650995
 40
0.25
100
AcDbArc
 50
35.2529123095
 51
204.7470876905
  0
ARC
  5
5AA
100
AcDbEntity
  8
X01822001_BL13
100
AcDbCircle
 62
7
  6
CONTINUOUS
 10
263.3767514068
 20
207.4541650995
 40
0.25
100
AcDbArc
 50
335.2529123095
 51
144.7470876905
  0
ENDBLK
  5
5AB
100
AcDbEntity
  8
0
  6
BYBLOCK
 62
0
100
AcDbBlockEnd
  0
BLOCK
  5
5AC
100
AcDbEntity
  8
X14700000_BL14
100
AcDbBlockBegin
  2
X14700000_BL14
 70
64
 10
423.1429798151
 20
268.2555168397
  3
X14700000_BL14
  1

  0
LINE
  5
5AD
100
AcDbEntity
  8
X14700000_BL14
100
AcDbLine
 62
7
  6
CONTINUOUS
 10
421.6429798151
 20
268.4917295342
 11
421.6429798151
 21
268.1917295342
  0
LINE
  5
5AE
100
AcDbEntity
  8
X14700000_BL14
100
AcDbLine
 62
7
  6
CONTINUOUS
 10
424.6429798151
 20
268.4917295342
 11
424.6429798151
 21
268.0193041451
  0
ENDBLK
  5
5AF
100
AcDbEntity
  8
0
  6
BYBLOCK
 62
0
100
AcDbBlockEnd
  0
BLOCK
  5
5B0
100
AcDbEntity
  8
X00210000_BL15
100
AcDbBlockBegin
  2
X00210000_BL15
 70
64
 10
245.1767514068
 20
49.7647530616
  3
X00210000_BL15
  1

  0
LINE
  5
5B1
100
AcDbEntity
  8
X00210000_BL15
100
AcDbLine
 62
7
  6
CONTINUOUS
 10
243.1517514068
 20
49.4643539799
 11
243.1517514068
 21
50.0651521433
  0
LINE
  5
5B2
100
AcDbEntity
  8
X00210000_BL15
100
AcDbLine
 62
7
  6
CONTINUOUS
 10
243.1536448509
 20
50.0651521433
 11
247.1998579628
 21
50.0651521433
  0
LINE
  5
5B3
100
AcDbEntity
  8
X00210000_BL15
100
AcDbLine
 62
7
  6
CONTINUOUS
 10
247.2017514068
 20
49.4643539799
 11
247.2017514068
 21
50.0651521433
  0
ENDBLK
  5
5B4
100
AcDbEntity
  8
0
  6
BYBLOCK
 62
0
100
AcDbBlockEnd
  0
BLOCK
  5
5B5
100
AcDbEntity
  8
X01822001_BL16
100
AcDbBlockBegin
  2
X01822001_BL16
 70
64
 10
217.6767514068
 20
174.7417295342
  3
X01822001_BL16
  1

  0
CIRCLE
  5
5B6
100
AcDbEntity
  8
X01822001_BL16
100
AcDbCircle
 62
7
  6
CONTINUOUS
 10
217.6767514068
 20
174.7417295342
 40
3.4
  0
ARC
  5
5B7
100
AcDbEntity
  8
X01822001_BL16
100
AcDbCircle
 62
7
  6
CONTINUOUS
 10
219.1552299832
 20
173.8881295301
 40
0.6072000081
100
AcDbArc
 50
95.2529123095
 51
204.7470876905
  0
ARC
  5
5B8
100
AcDbEntity
  8
X01822001_BL16
100
AcDbCircle
 62
7
  6
CONTINUOUS
 10
219.1552299832
 20
175.5953295382
 40
0.6072000081
100
AcDbArc
 50
155.2529123095
 51
264.7470876905
  0
ARC
  5
5B9
100
AcDbEntity
  8
X01822001_BL16
100
AcDbCircle
 62
7
  6
CONTINUOUS
 10
217.6767514068
 20
176.4489295422
 40
0.6072000081
100
AcDbArc
 50
215.2529123095
 51
324.7470876905
  0
ARC
  5
5BA
100
AcDbEntity
  8
X01822001_BL16
100
AcDbCircle
 62
7
  6
CONTINUOUS
 10
216.1982728305
 20
175.5953295382
 40
0.6072000081
100
AcDbArc
 50
275.2529123095
 51
24.7470876905
  0
ARC
  5
5BB
100
AcDbEntity
  8
X01822001_BL16
100
AcDbCircle
 62
7
  6
CONTINUOUS
 10
216.1982728305
 20
173.8881295301
 40
0.6072000081
100
AcDbArc
 50
335.2529123095
 51
84.7470876905
  0
ARC
  5
5BC
100
AcDbEntity
  8
X01822001_BL16
100
AcDbCircle
 62
7
  6
CONTINUOUS
 10
217.6767514068
 20
173.0345295261
 40
0.6072000081
100
AcDbArc
 50
35.2529123095
 51
144.7470876905
  0
ARC
  5
5BD
100
AcDbEntity
  8
X01822001_BL16
100
AcDbCircle
 62
7
  6
CONTINUOUS
 10
219.0767514068
 20
174.7417295342
 40
0.25
100
AcDbArc
 50
275.2529123095
 51
84.7470876905
  0
ARC
  5
5BE
100
AcDbEntity
  8
X01822001_BL16
100
AcDbCircle
 62
7
  6
CONTINUOUS
 10
216.2767514068
 20
174.7417295342
 40
0.25
100
AcDbArc
 50
95.2529123095
 51
264.7470876905
  0
ARC
  5
5BF
100
AcDbEntity
  8
X01822001_BL16
100
AcDbCircle
 62
7
  6
CONTINUOUS
 10
218.3767514068
 20
173.5292939689
 40
0.25
100
AcDbArc
 50
215.2529123095
 51
24.7470876905
  0
ARC
  5
5C0
100
AcDbEntity
  8
X01822001_BL16
100
AcDbCircle
 62
7
  6
CONTINUOUS
 10
216.9767514068
 20
173.5292939689
 40
0.25
100
AcDbArc
 50
155.2529123095
 51
324.7470876905
  0
ARC
  5
5C1
100
AcDbEntity
  8
X01822001_BL16
100
AcDbCircle
 62
7
  6
CONTINUOUS
 10
216.9767514068
 20
175.9541650995
 40
0.25
100
AcDbArc
 50
35.2529123095
 51
204.7470876905
  0
ARC
  5
5C2
100
AcDbEntity
  8
X01822001_BL16
100
AcDbCircle
 62
7
  6
CONTINUOUS
 10
218.3767514068
 20
175.9541650995
 40
0.25
100
AcDbArc
 50
335.2529123095
 51
144.7470876905
  0
ENDBLK
  5
5C3
100
AcDbEntity
  8
0
  6
BYBLOCK
 62
0
100
AcDbBlockEnd
  0
BLOCK
  5
5C4
100
AcDbEntity
  8
X01822001_BL17
100
AcDbBlockBegin
  2
X01822001_BL17
 70
64
 10
245.1767514068
 20
281.9917295342
  3
X01822001_BL17
  1

  0
CIRCLE
  5
5C5
100
AcDbEntity
  8
X01822001_BL17
100
AcDbCircle
 62
7
  6
CONTINUOUS
 10
245.1767514068
 20
281.9917295342
 40
3.4
  0
ARC
  5
5C6
100
AcDbEntity
  8
X01822001_BL17
100
AcDbCircle
 62
7
  6
CONTINUOUS
 10
245.1767514068
 20
283.6989295422
 40
0.6072000081
100
AcDbArc
 50
215.2529123095
 51
324.7470876905
  0
ARC
  5
5C7
100
AcDbEntity
  8
X01822001_BL17
100
AcDbCircle
 62
7
  6
CONTINUOUS
 10
243.6982728305
 20
282.8453295382
 40
0.6072000081
100
AcDbArc
 50
275.2529123095
 51
24.7470876905
  0
ARC
  5
5C8
100
AcDbEntity
  8
X01822001_BL17
100
AcDbCircle
 62
7
  6
CONTINUOUS
 10
243.6982728305
 20
281.1381295301
 40
0.6072000081
100
AcDbArc
 50
335.2529123095
 51
84.7470876905
  0
ARC
  5
5C9
100
AcDbEntity
  8
X01822001_BL17
100
AcDbCircle
 62
7
  6
CONTINUOUS
 10
245.1767514068
 20
280.2845295261
 40
0.6072000081
100
AcDbArc
 50
35.2529123095
 51
144.7470876905
  0
ARC
  5
5CA
100
AcDbEntity
  8
X01822001_BL17
100
AcDbCircle
 62
7
  6
CONTINUOUS
 10
243.7767514068
 20
281.9917295342
 40
0.25
100
AcDbArc
 50
95.2529123095
 51
264.7470876905
  0
ARC
  5
5CB
100
AcDbEntity
  8
X01822001_BL17
100
AcDbCircle
 62
7
  6
CONTINUOUS
 10
245.8767514068
 20
280.7792939689
 40
0.25
100
AcDbArc
 50
215.2529123095
 51
24.7470876905
  0
ARC
  5
5CC
100
AcDbEntity
  8
X01822001_BL17
100
AcDbCircle
 62
7
  6
CONTINUOUS
 10
244.4767514068
 20
280.7792939689
 40
0.25
100
AcDbArc
 50
155.2529123095
 51
324.7470876905
  0
ARC
  5
5CD
100
AcDbEntity
  8
X01822001_BL17
100
AcDbCircle
 62
7
  6
CONTINUOUS
 10
244.4767514068
 20
283.2041650995
 40
0.25
100
AcDbArc
 50
35.2529123095
 51
204.7470876905
  0
ARC
  5
5CE
100
AcDbEntity
  8
X01822001_BL17
100
AcDbCircle
 62
7
  6
CONTINUOUS
 10
245.8767514068
 20
283.2041650995
 40
0.25
100
AcDbArc
 50
335.2529123095
 51
144.7470876905
  0
ARC
  5
5CF
100
AcDbEntity
  8
X01822001_BL17
100
AcDbCircle
 62
7
  6
CONTINUOUS
 10
246.6552299832
 20
281.1381295301
 40
0.6072000081
100
AcDbArc
 50
95.2529123095
 51
204.7470876905
  0
ARC
  5
5D0
100
AcDbEntity
  8
X01822001_BL17
100
AcDbCircle
 62
7
  6
CONTINUOUS
 10
246.6552299832
 20
282.8453295382
 40
0.6072000081
100
AcDbArc
 50
155.2529123095
 51
264.7470876905
  0
ARC
  5
5D1
100
AcDbEntity
  8
X01822001_BL17
100
AcDbCircle
 62
7
  6
CONTINUOUS
 10
246.5767514068
 20
281.9917295342
 40
0.25
100
AcDbArc
 50
275.2529123095
 51
84.7470876905
  0
ENDBLK
  5
5D2
100
AcDbEntity
  8
0
  6
BYBLOCK
 62
0
100
AcDbBlockEnd
  0
BLOCK
  5
5D3
100
AcDbEntity
  8
0
100
AcDbBlockBegin
  2
_FILLED
 70
64
 10
0.0
 20
0.0
  3
_FILLED
  1

  0
SOLID
  5
5D4
100
AcDbEntity
  8
0
  6
BYBLOCK
 62
0
100
AcDbTrace
 10
0.0
 20
0.0
 11
-1.0
 21
0.1428571429
 12
-1.0
 22
-0.1428571429
 13
-1.0
 23
-0.1428571429
  0
ENDBLK
  5
5D5
100
AcDbEntity
  8
0
  6
BYBLOCK
 62
0
100
AcDbBlockEnd
  0
BLOCK
  5
5D6
100
AcDbEntity
  8
0
100
AcDbBlockBegin
 62
2
  6
CONTINUOUS
  2
*D0
 70
65
 10
0.0
 20
0.0
  3
*D0
  1

  0
MTEXT
  5
5D7
100
AcDbEntity
  8
0
100
AcDbMText
 62
5
  6
CONTINUOUS
  7
STANDARD
 71
2
 72
1
 10
260.6767514068
 20
96.7696926196
 30
0.0
 11
1.0
 21
0.0
 31
0.0
 73
2
 44
0.9
  1
38
 40
4.0
 41
6.2388059701
  0
LINE
  5
5D8
100
AcDbEntity
  8
0
100
AcDbLine
 62
2
  6
CONTINUOUS
 10
241.6767514068
 20
168.7416295342
 11
241.6767514068
 21
102.725482193
  0
LINE
  5
5D9
100
AcDbEntity
  8
0
100
AcDbLine
 62
2
  6
CONTINUOUS
 10
241.6767514068
 20
100.9042557779
 11
241.6767514068
 21
90.7696926196
  0
LINE
  5
5DA
100
AcDbEntity
  8
0
100
AcDbLine
 62
2
  6
CONTINUOUS
 10
279.6767514068
 20
168.7416295342
 11
279.6767514068
 21
90.7696926196
  0
LINE
  5
5DB
100
AcDbEntity
  8
0
100
AcDbLine
 62
2
  6
CONTINUOUS
 10
241.6767514068
 20
91.7696926196
 11
260.6767514068
 21
91.7696926196
  0
LINE
  5
5DC
100
AcDbEntity
  8
0
100
AcDbLine
 62
2
  6
CONTINUOUS
 10
279.6767514068
 20
91.7696926196
 11
260.6767514068
 21
91.7696926196
  0
INSERT
  5
5DD
100
AcDbEntity
  8
0
100
AcDbBlockReference
 62
2
  6
CONTINUOUS
  2
_FILLED
 10
241.6767514068
 20
91.7696926196
 41
3.5
 42
3.5
 43
3.5
 50
180.0
  0
INSERT
  5
5DE
100
AcDbEntity
  8
0
100
AcDbBlockReference
 62
2
  6
CONTINUOUS
  2
_FILLED
 10
279.6767514068
 20
91.7696926196
 41
3.5
 42
3.5
 43
3.5
  0
ENDBLK
  5
5DF
100
AcDbEntity
  8
0
  6
BYBLOCK
 62
0
100
AcDbBlockEnd
  0
BLOCK
  5
5E0
100
AcDbEntity
  8
0
100
AcDbBlockBegin
 62
2
  6
CONTINUOUS
  2
*D1
 70
65
 10
0.0
 20
0.0
  3
*D1
  1

  0
MTEXT
  5
5E1
100
AcDbEntity
  8
0
100
AcDbMText
 62
5
  6
CONTINUOUS
  7
STANDARD
 71
2
 72
1
 10
276.9267514068
 20
86.7696926196
 30
0.0
 11
1.0
 21
0.0
 31
0.0
 73
2
 44
0.9
  1
32.5
 40
4.0
 41
10.9104477612
  0
LINE
  5
5E2
100
AcDbEntity
  8
0
100
AcDbLine
 62
2
  6
CONTINUOUS
 10
260.6767514068
 20
148.7728528334
 11
260.6767514068
 21
108.7206070225
  0
LINE
  5
5E3
100
AcDbEntity
  8
0
100
AcDbLine
 62
2
  6
CONTINUOUS
 10
260.6767514068
 20
90.4952027922
 11
260.6767514068
 21
80.7696926196
  0
LINE
  5
5E4
100
AcDbEntity
  8
0
100
AcDbLine
 62
2
  6
CONTINUOUS
 10
293.1767514068
 20
166.0417295342
 11
293.1767514068
 21
80.7696926196
  0
LINE
  5
5E5
100
AcDbEntity
  8
0
100
AcDbLine
 62
2
  6
CONTINUOUS
 10
260.6767514068
 20
81.7696926196
 11
276.9267514068
 21
81.7696926196
  0
LINE
  5
5E6
100
AcDbEntity
  8
0
100
AcDbLine
 62
2
  6
CONTINUOUS
 10
293.1767514068
 20
81.7696926196
 11
276.9267514068
 21
81.7696926196
  0
INSERT
  5
5E7
100
AcDbEntity
  8
0
100
AcDbBlockReference
 62
2
  6
CONTINUOUS
  2
_FILLED
 10
260.6767514068
 20
81.7696926196
 41
3.5
 42
3.5
 43
3.5
 50
180.0
  0
INSERT
  5
5E8
100
AcDbEntity
  8
0
100
AcDbBlockReference
 62
2
  6
CONTINUOUS
  2
_FILLED
 10
293.1767514068
 20
81.7696926196
 41
3.5
 42
3.5
 43
3.5
  0
ENDBLK
  5
5E9
100
AcDbEntity
  8
0
  6
BYBLOCK
 62
0
100
AcDbBlockEnd
  0
BLOCK
  5
5EA
100
AcDbEntity
  8
0
100
AcDbBlockBegin
 62
2
  6
CONTINUOUS
  2
*D2
 70
65
 10
0.0
 20
0.0
  3
*D2
  1

  0
MTEXT
  5
5EB
100
AcDbEntity
  8
0
100
AcDbMText
 62
5
  6
CONTINUOUS
  7
STANDARD
 71
2
 72
1
 10
155.3231177456
 20
281.9917295342
 30
0.0
 11
0.0
 21
1.0
 31
0.0
 73
2
 44
0.9
  1
32
 40
4.0
 41
6.2388059701
  0
LINE
  5
5EC
100
AcDbEntity
  8
0
100
AcDbLine
 62
2
  6
CONTINUOUS
 10
185.2113667915
 20
297.9417295342
 11
159.3231177456
 21
297.9417295342
  0
LINE
  5
5ED
100
AcDbEntity
  8
0
100
AcDbLine
 62
2
  6
CONTINUOUS
 10
185.2113667915
 20
266.0417295342
 11
159.3231177456
 21
266.0417295342
  0
LINE
  5
5EE
100
AcDbEntity
  8
0
100
AcDbLine
 62
2
  6
CONTINUOUS
 10
160.3231177456
 20
297.9417295342
 11
160.3231177456
 21
281.9917295342
  0
LINE
  5
5EF
100
AcDbEntity
  8
0
100
AcDbLine
 62
2
  6
CONTINUOUS
 10
160.3231177456
 20
266.0417295342
 11
160.3231177456
 21
281.9917295342
  0
INSERT
  5
5F0
100
AcDbEntity
  8
0
100
AcDbBlockReference
 62
2
  6
CONTINUOUS
  2
_FILLED
 10
160.3231177456
 20
297.9417295342
 41
3.5
 42
3.5
 43
3.5
 50
90.0
  0
INSERT
  5
5F1
100
AcDbEntity
  8
0
100
AcDbBlockReference
 62
2
  6
CONTINUOUS
  2
_FILLED
 10
160.3231177456
 20
266.0417295342
 41
3.5
 42
3.5
 43
3.5
 50
270.0
  0
ENDBLK
  5
5F2
100
AcDbEntity
  8
0
  6
BYBLOCK
 62
0
100
AcDbBlockEnd
  0
BLOCK
  5
5F3
100
AcDbEntity
  8
0
100
AcDbBlockBegin
 62
2
  6
CONTINUOUS
  2
*D3
 70
65
 10
0.0
 20
0.0
  3
*D3
  1

  0
MTEXT
  5
5F4
100
AcDbEntity
  8
0
100
AcDbMText
 62
5
  6
CONTINUOUS
  7
STANDARD
 71
2
 72
1
 10
155.3231177456
 20
198.6417295342
 30
0.0
 11
0.0
 21
1.0
 31
0.0
 73
2
 44
0.9
  1
35
 40
4.0
 41
6.2388059701
  0
LINE
  5
5F5
100
AcDbEntity
  8
0
100
AcDbLine
 62
2
  6
CONTINUOUS
 10
175.690799261
 20
215.9917295342
 11
159.3231177456
 21
215.9917295342
  0
LINE
  5
5F6
100
AcDbEntity
  8
0
100
AcDbLine
 62
2
  6
CONTINUOUS
 10
175.690799261
 20
181.2917295342
 11
159.3231177456
 21
181.2917295342
  0
LINE
  5
5F7
100
AcDbEntity
  8
0
100
AcDbLine
 62
2
  6
CONTINUOUS
 10
160.3231177456
 20
215.9917295342
 11
160.3231177456
 21
198.6417295342
  0
LINE
  5
5F8
100
AcDbEntity
  8
0
100
AcDbLine
 62
2
  6
CONTINUOUS
 10
160.3231177456
 20
181.2917295342
 11
160.3231177456
 21
198.6417295342
  0
INSERT
  5
5F9
100
AcDbEntity
  8
0
100
AcDbBlockReference
 62
2
  6
CONTINUOUS
  2
_FILLED
 10
160.3231177456
 20
215.9917295342
 41
3.5
 42
3.5
 43
3.5
 50
90.0
  0
INSERT
  5
5FA
100
AcDbEntity
  8
0
100
AcDbBlockReference
 62
2
  6
CONTINUOUS
  2
_FILLED
 10
160.3231177456
 20
181.2917295342
 41
3.5
 42
3.5
 43
3.5
 50
270.0
  0
ENDBLK
  5
5FB
100
AcDbEntity
  8
0
  6
BYBLOCK
 62
0
100
AcDbBlockEnd
  0
BLOCK
  5
5FC
100
AcDbEntity
  8
0
100
AcDbBlockBegin
 62
2
  6
CONTINUOUS
  2
*D4
 70
65
 10
0.0
 20
0.0
  3
*D4
  1

  0
MTEXT
  5
5FD
100
AcDbEntity
  8
0
100
AcDbMText
 62
5
  6
CONTINUOUS
  7
STANDARD
 71
2
 72
1
 10
333.1767514068
 20
216.7417295342
 30
0.0
 11
0.0
 21
1.0
 31
0.0
 73
2
 44
0.9
  1
74
 40
4.0
 41
6.2388059701
  0
LINE
  5
5FE
100
AcDbEntity
  8
0
100
AcDbLine
 62
2
  6
CONTINUOUS
 10
241.6767514068
 20
253.7417295342
 11
306.1166728888
 21
253.7417295342
  0
LINE
  5
5FF
100
AcDbEntity
  8
0
100
AcDbLine
 62
2
  6
CONTINUOUS
 10
311.5891080304
 20
253.7417295342
 11
339.1767514068
 21
253.7417295342
  0
LINE
  5
600
100
AcDbEntity
  8
0
100
AcDbLine
 62
2
  6
CONTINUOUS
 10
274.0055713378
 20
179.7417295342
 11
306.8319463644
 21
179.7417295342
  0
LINE
  5
601
100
AcDbEntity
  8
0
100
AcDbLine
 62
2
  6
CONTINUOUS
 10
309.527670721
 20
179.7417295342
 11
339.1767514068
 21
179.7417295342
  0
LINE
  5
602
100
AcDbEntity
  8
0
100
AcDbLine
 62
2
  6
CONTINUOUS
 10
338.1767514068
 20
253.7417295342
 11
338.1767514068
 21
216.7417295342
  0
LINE
  5
603
100
AcDbEntity
  8
0
100
AcDbLine
 62
2
  6
CONTINUOUS
 10
338.1767514068
 20
179.7417295342
 11
338.1767514068
 21
216.7417295342
  0
INSERT
  5
604
100
AcDbEntity
  8
0
100
AcDbBlockReference
 62
2
  6
CONTINUOUS
  2
_FILLED
 10
338.1767514068
 20
253.7417295342
 41
3.5
 42
3.5
 43
3.5
 50
90.0
  0
INSERT
  5
605
100
AcDbEntity
  8
0
100
AcDbBlockReference
 62
2
  6
CONTINUOUS
  2
_FILLED
 10
338.1767514068
 20
179.7417295342
 41
3.5
 42
3.5
 43
3.5
 50
270.0
  0
ENDBLK
  5
606
100
AcDbEntity
  8
0
  6
BYBLOCK
 62
0
100
AcDbBlockEnd
  0
BLOCK
  5
607
100
AcDbEntity
  8
0
100
AcDbBlockBegin
 62
2
  6
CONTINUOUS
  2
*D5
 70
65
 10
0.0
 20
0.0
  3
*D5
  1

  0
MTEXT
  5
608
100
AcDbEntity
  8
0
100
AcDbMText
 62
5
  6
CONTINUOUS
  7
STANDARD
 71
1
 72
1
 10
303.1767514068
 20
184.1187106663
 30
0.0
 11
0.0
 21
1.0
 31
0.0
 73
2
 44
0.9
  1
2
 40
4.0
 41
3.1194029851
  0
LINE
  5
609
100
AcDbEntity
  8
0
100
AcDbLine
 62
2
  6
CONTINUOUS
 10
284.6768514068
 20
173.7417295342
 11
309.1767514068
 21
173.7417295342
  0
LINE
  5
60A
100
AcDbEntity
  8
0
100
AcDbLine
 62
2
  6
CONTINUOUS
 10
284.6768514068
 20
175.7417295342
 11
309.1767514068
 21
175.7417295342
  0
LINE
  5
60B
100
AcDbEntity
  8
0
100
AcDbLine
 62
2
  6
CONTINUOUS
 10
308.1767514068
 20
173.7417295342
 11
308.1767514068
 21
168.7417295342
  0
LINE
  5
60C
100
AcDbEntity
  8
0
100
AcDbLine
 62
2
  6
CONTINUOUS
 10
308.1767514068
 20
168.7417295342
 11
308.1767514068
 21
174.7417295342
  0
LINE
  5
60D
100
AcDbEntity
  8
0
100
AcDbLine
 62
2
  6
CONTINUOUS
 10
308.1767514068
 20
175.7417295342
 11
308.1767514068
 21
187.2381136513
  0
LINE
  5
60E
100
AcDbEntity
  8
0
100
AcDbLine
 62
2
  6
CONTINUOUS
 10
308.1767514068
 20
187.2381136513
 11
308.1767514068
 21
174.7417295342
  0
INSERT
  5
60F
100
AcDbEntity
  8
0
100
AcDbBlockReference
 62
2
  6
CONTINUOUS
  2
_FILLED
 10
308.1767514068
 20
173.7417295342
 41
3.5
 42
3.5
 43
3.5
 50
90.0
  0
INSERT
  5
610
100
AcDbEntity
  8
0
100
AcDbBlockReference
 62
2
  6
CONTINUOUS
  2
_FILLED
 10
308.1767514068
 20
175.7417295342
 41
3.5
 42
3.5
 43
3.5
 50
270.0
  0
ENDBLK
  5
611
100
AcDbEntity
  8
0
  6
BYBLOCK
 62
0
100
AcDbBlockEnd
  0
BLOCK
  5
612
100
AcDbEntity
  8
0
100
AcDbBlockBegin
 62
2
  6
CONTINUOUS
  2
*D6
 70
65
 10
0.0
 20
0.0
  3
*D6
  1

  0
MTEXT
  5
613
100
AcDbEntity
  8
0
100
AcDbMText
 62
5
  6
CONTINUOUS
  7
STANDARD
 71
2
 72
1
 10
344.1014527978
 20
234.2417295342
 30
0.0
 11
0.0
 21
1.0
 31
0.0
 73
2
 44
0.9
  1
165
 40
4.0
 41
9.3582089552
  0
LINE
  5
614
100
AcDbEntity
  8
0
100
AcDbLine
 62
2
  6
CONTINUOUS
 10
283.8887685539
 20
316.7417295342
 11
350.1014527978
 21
316.7417295342
  0
LINE
  5
615
100
AcDbEntity
  8
0
100
AcDbLine
 62
2
  6
CONTINUOUS
 10
283.8887685539
 20
151.7417295342
 11
350.1014527978
 21
151.7417295342
  0
LINE
  5
616
100
AcDbEntity
  8
0
100
AcDbLine
 62
2
  6
CONTINUOUS
 10
349.1014527978
 20
316.7417295342
 11
349.1014527978
 21
234.2417295342
  0
LINE
  5
617
100
AcDbEntity
  8
0
100
AcDbLine
 62
2
  6
CONTINUOUS
 10
349.1014527978
 20
151.7417295342
 11
349.1014527978
 21
234.2417295342
  0
INSERT
  5
618
100
AcDbEntity
  8
0
100
AcDbBlockReference
 62
2
  6
CONTINUOUS
  2
_FILLED
 10
349.1014527978
 20
316.7417295342
 41
3.5
 42
3.5
 43
3.5
 50
90.0
  0
INSERT
  5
619
100
AcDbEntity
  8
0
100
AcDbBlockReference
 62
2
  6
CONTINUOUS
  2
_FILLED
 10
349.1014527978
 20
151.7417295342
 41
3.5
 42
3.5
 43
3.5
 50
270.0
  0
ENDBLK
  5
61A
100
AcDbEntity
  8
0
  6
BYBLOCK
 62
0
100
AcDbBlockEnd
  0
BLOCK
  5
61B
100
AcDbEntity
  8
0
100
AcDbBlockBegin
 62
2
  6
CONTINUOUS
  2
*D7
 70
65
 10
0.0
 20
0.0
  3
*D7
  1

  0
MTEXT
  5
61C
100
AcDbEntity
  8
0
100
AcDbMText
 62
5
  6
CONTINUOUS
  7
STANDARD
 71
2
 72
1
 10
185.4267514068
 20
171.9377140528
 30
0.0
 11
1.0
 21
0.0
 31
0.0
 73
2
 44
0.9
  1
20
 40
4.0
 41
6.2388059701
  0
LINE
  5
61D
100
AcDbEntity
  8
0
100
AcDbLine
 62
2
  6
CONTINUOUS
 10
175.2767514068
 20
181.2917295342
 11
175.2767514068
 21
165.9377140528
  0
LINE
  5
61E
100
AcDbEntity
  8
0
100
AcDbLine
 62
2
  6
CONTINUOUS
 10
175.2767514068
 20
166.9377140528
 11
185.4267514068
 21
166.9377140528
  0
LINE
  5
61F
100
AcDbEntity
  8
0
100
AcDbLine
 62
2
  6
CONTINUOUS
 10
195.5767514068
 20
166.9377140528
 11
185.4267514068
 21
166.9377140528
  0
INSERT
  5
620
100
AcDbEntity
  8
0
100
AcDbBlockReference
 62
2
  6
CONTINUOUS
  2
_FILLED
 10
175.2767514068
 20
166.9377140528
 41
3.5
 42
3.5
 43
3.5
 50
180.0
  0
INSERT
  5
621
100
AcDbEntity
  8
0
100
AcDbBlockReference
 62
2
  6
CONTINUOUS
  2
_FILLED
 10
195.5767514068
 20
166.9377140528
 41
3.5
 42
3.5
 43
3.5
  0
ENDBLK
  5
622
100
AcDbEntity
  8
0
  6
BYBLOCK
 62
0
100
AcDbBlockEnd
  0
BLOCK
  5
623
100
AcDbEntity
  8
0
100
AcDbBlockBegin
 62
2
  6
CONTINUOUS
  2
*D8
 70
65
 10
0.0
 20
0.0
  3
*D8
  1

  0
MTEXT
  5
624
100
AcDbEntity
  8
0
100
AcDbMText
 62
5
  6
CONTINUOUS
  7
STANDARD
 71
2
 72
1
 10
260.6767514068
 20
292.8947182259
 30
0.0
 11
1.0
 21
0.0
 31
0.0
 73
2
 44
0.9
  1
38
 40
4.0
 41
6.2388059701
  0
LINE
  5
625
100
AcDbEntity
  8
0
100
AcDbLine
 62
2
  6
CONTINUOUS
 10
241.6767514068
 20
262.7417295342
 11
241.6767514068
 21
288.8947182259
  0
LINE
  5
626
100
AcDbEntity
  8
0
100
AcDbLine
 62
2
  6
CONTINUOUS
 10
279.6767514068
 20
262.7417295342
 11
279.6767514068
 21
288.8947182259
  0
LINE
  5
627
100
AcDbEntity
  8
0
100
AcDbLine
 62
2
  6
CONTINUOUS
 10
241.6767514068
 20
287.8947182259
 11
260.6767514068
 21
287.8947182259
  0
LINE
  5
628
100
AcDbEntity
  8
0
100
AcDbLine
 62
2
  6
CONTINUOUS
 10
279.6767514068
 20
287.8947182259
 11
260.6767514068
 21
287.8947182259
  0
INSERT
  5
629
100
AcDbEntity
  8
0
100
AcDbBlockReference
 62
2
  6
CONTINUOUS
  2
_FILLED
 10
241.6767514068
 20
287.8947182259
 41
3.5
 42
3.5
 43
3.5
 50
180.0
  0
INSERT
  5
62A
100
AcDbEntity
  8
0
100
AcDbBlockReference
 62
2
  6
CONTINUOUS
  2
_FILLED
 10
279.6767514068
 20
287.8947182259
 41
3.5
 42
3.5
 43
3.5
  0
ENDBLK
  5
62B
100
AcDbEntity
  8
0
  6
BYBLOCK
 62
0
100
AcDbBlockEnd
  0
BLOCK
  5
62C
100
AcDbEntity
  8
0
100
AcDbBlockBegin
 62
2
  6
CONTINUOUS
  2
*D9
 70
65
 10
0.0
 20
0.0
  3
*D9
  1

  0
MTEXT
  5
62D
100
AcDbEntity
  8
0
100
AcDbMText
 62
5
  6
CONTINUOUS
  7
STANDARD
 71
2
 72
1
 10
323.1767514068
 20
276.7417295342
 30
0.0
 11
0.0
 21
1.0
 31
0.0
 73
2
 44
0.9
  1
46
 40
4.0
 41
6.2388059701
  0
LINE
  5
62E
100
AcDbEntity
  8
0
100
AcDbLine
 62
2
  6
CONTINUOUS
 10
269.6767514068
 20
299.7417295342
 11
329.1767514068
 21
299.7417295342
  0
LINE
  5
62F
100
AcDbEntity
  8
0
100
AcDbLine
 62
2
  6
CONTINUOUS
 10
314.8998113272
 20
253.7417295342
 11
329.1767514068
 21
253.7417295342
  0
LINE
  5
630
100
AcDbEntity
  8
0
100
AcDbLine
 62
2
  6
CONTINUOUS
 10
328.1767514068
 20
299.7417295342
 11
328.1767514068
 21
276.7417295342
  0
LINE
  5
631
100
AcDbEntity
  8
0
100
AcDbLine
 62
2
  6
CONTINUOUS
 10
328.1767514068
 20
253.7417295342
 11
328.1767514068
 21
276.7417295342
  0
INSERT
  5
632
100
AcDbEntity
  8
0
100
AcDbBlockReference
 62
2
  6
CONTINUOUS
  2
_FILLED
 10
328.1767514068
 20
299.7417295342
 41
3.5
 42
3.5
 43
3.5
 50
90.0
  0
INSERT
  5
633
100
AcDbEntity
  8
0
100
AcDbBlockReference
 62
2
  6
CONTINUOUS
  2
_FILLED
 10
328.1767514068
 20
253.7417295342
 41
3.5
 42
3.5
 43
3.5
 50
270.0
  0
ENDBLK
  5
634
100
AcDbEntity
  8
0
  6
BYBLOCK
 62
0
100
AcDbBlockEnd
  0
BLOCK
  5
635
100
AcDbEntity
  8
0
100
AcDbBlockBegin
 62
2
  6
CONTINUOUS
  2
*D10
 70
65
 10
0.0
 20
0.0
  3
*D10
  1

  0
MTEXT
  5
636
100
AcDbEntity
  8
0
100
AcDbMText
 62
5
  6
CONTINUOUS
  7
STANDARD
 71
2
 72
1
 10
228.1267514068
 20
86.7696926196
 30
0.0
 11
1.0
 21
0.0
 31
0.0
 73
2
 44
0.9
  1
65 
 40
4.0
 41
7.7910447761
  0
LINE
  5
637
100
AcDbEntity
  8
0
100
AcDbLine
 62
2
  6
CONTINUOUS
 10
195.5767514068
 20
118.2032619251
 11
195.5767514068
 21
80.7696926196
  0
LINE
  5
638
100
AcDbEntity
  8
0
100
AcDbLine
 62
2
  6
CONTINUOUS
 10
260.6767514068
 20
148.7211981514
 11
260.6767514068
 21
108.3756720432
  0
LINE
  5
639
100
AcDbEntity
  8
0
100
AcDbLine
 62
2
  6
CONTINUOUS
 10
260.6767514068
 20
90.1345674223
 11
260.6767514068
 21
80.7696926196
  0
LINE
  5
63A
100
AcDbEntity
  8
0
100
AcDbLine
 62
2
  6
CONTINUOUS
 10
195.5767514068
 20
81.7696926196
 11
228.1267514068
 21
81.7696926196
  0
LINE
  5
63B
100
AcDbEntity
  8
0
100
AcDbLine
 62
2
  6
CONTINUOUS
 10
260.6767514068
 20
81.7696926196
 11
228.1267514068
 21
81.7696926196
  0
INSERT
  5
63C
100
AcDbEntity
  8
0
100
AcDbBlockReference
 62
2
  6
CONTINUOUS
  2
_FILLED
 10
195.5767514068
 20
81.7696926196
 41
3.5
 42
3.5
 43
3.5
 50
180.0
  0
INSERT
  5
63D
100
AcDbEntity
  8
0
100
AcDbBlockReference
 62
2
  6
CONTINUOUS
  2
_FILLED
 10
260.6767514068
 20
81.7696926196
 41
3.5
 42
3.5
 43
3.5
  0
ENDBLK
  5
63E
100
AcDbEntity
  8
0
  6
BYBLOCK
 62
0
100
AcDbBlockEnd
  0
BLOCK
  5
63F
100
AcDbEntity
  8
0
100
AcDbBlockBegin
 62
2
  6
CONTINUOUS
  2
*D11
 70
65
 10
0.0
 20
0.0
  3
*D11
  1

  0
MTEXT
  5
640
100
AcDbEntity
  8
0
100
AcDbMText
 62
5
  6
CONTINUOUS
  7
STANDARD
 71
2
 72
1
 10
421.6429798151
 20
366.7137664334
 30
0.0
 11
1.0
 21
0.0
 31
0.0
 73
2
 44
0.9
  1
20
 40
4.0
 41
6.2388059701
  0
LINE
  5
641
100
AcDbEntity
  8
0
100
AcDbLine
 62
2
  6
CONTINUOUS
 10
411.6429798151
 20
341.7417295342
 11
411.6429798151
 21
362.7137664334
  0
LINE
  5
642
100
AcDbEntity
  8
0
100
AcDbLine
 62
2
  6
CONTINUOUS
 10
431.6429798151
 20
341.7417295342
 11
431.6429798151
 21
362.7137664334
  0
LINE
  5
643
100
AcDbEntity
  8
0
100
AcDbLine
 62
2
  6
CONTINUOUS
 10
411.6429798151
 20
361.7137664334
 11
421.6429798151
 21
361.7137664334
  0
LINE
  5
644
100
AcDbEntity
  8
0
100
AcDbLine
 62
2
  6
CONTINUOUS
 10
431.6429798151
 20
361.7137664334
 11
421.6429798151
 21
361.7137664334
  0
INSERT
  5
645
100
AcDbEntity
  8
0
100
AcDbBlockReference
 62
2
  6
CONTINUOUS
  2
_FILLED
 10
411.6429798151
 20
361.7137664334
 41
3.5
 42
3.5
 43
3.5
 50
180.0
  0
INSERT
  5
646
100
AcDbEntity
  8
0
100
AcDbBlockReference
 62
2
  6
CONTINUOUS
  2
_FILLED
 10
431.6429798151
 20
361.7137664334
 41
3.5
 42
3.5
 43
3.5
  0
ENDBLK
  5
647
100
AcDbEntity
  8
0
  6
BYBLOCK
 62
0
100
AcDbBlockEnd
  0
BLOCK
  5
648
100
AcDbEntity
  8
0
100
AcDbBlockBegin
 62
2
  6
CONTINUOUS
  2
*D12
 70
65
 10
0.0
 20
0.0
  3
*D12
  1

  0
MTEXT
  5
649
100
AcDbEntity
  8
0
100
AcDbMText
 62
5
  6
CONTINUOUS
  7
STANDARD
 71
2
 72
1
 10
189.4767514068
 20
314.1343473424
 30
0.0
 11
1.0
 21
0.0
 31
0.0
 73
2
 44
0.9
  1
12
 40
4.0
 41
6.2388059701
  0
LINE
  5
64A
100
AcDbEntity
  8
0
100
AcDbLine
 62
2
  6
CONTINUOUS
 10
183.3767514068
 20
297.9417295342
 11
183.3767514068
 21
310.1343473424
  0
LINE
  5
64B
100
AcDbEntity
  8
0
100
AcDbLine
 62
2
  6
CONTINUOUS
 10
183.3767514068
 20
309.1343473424
 11
189.4767514068
 21
309.1343473424
  0
LINE
  5
64C
100
AcDbEntity
  8
0
100
AcDbLine
 62
2
  6
CONTINUOUS
 10
195.5767514068
 20
309.1343473424
 11
189.4767514068
 21
309.1343473424
  0
INSERT
  5
64D
100
AcDbEntity
  8
0
100
AcDbBlockReference
 62
2
  6
CONTINUOUS
  2
_FILLED
 10
183.3767514068
 20
309.1343473424
 41
3.5
 42
3.5
 43
3.5
 50
180.0
  0
INSERT
  5
64E
100
AcDbEntity
  8
0
100
AcDbBlockReference
 62
2
  6
CONTINUOUS
  2
_FILLED
 10
195.5767514068
 20
309.1343473424
 41
3.5
 42
3.5
 43
3.5
  0
ENDBLK
  5
64F
100
AcDbEntity
  8
0
  6
BYBLOCK
 62
0
100
AcDbBlockEnd
  0
BLOCK
  5
650
100
AcDbEntity
  8
0
100
AcDbBlockBegin
 62
2
  6
CONTINUOUS
  2
*D13
 70
65
 10
0.0
 20
0.0
  3
*D13
  1

  0
MTEXT
  5
651
100
AcDbEntity
  8
0
100
AcDbMText
 62
5
  6
CONTINUOUS
  7
STANDARD
 71
2
 72
1
 10
323.1767514068
 20
243.0319084829
 30
0.0
 11
0.0
 21
1.0
 31
0.0
 73
2
 44
0.9
  1
21.5
 40
4.0
 41
10.9104477612
  0
LINE
  5
652
100
AcDbEntity
  8
0
100
AcDbLine
 62
2
  6
CONTINUOUS
 10
267.0385153154
 20
232.3220874316
 11
299.9202975605
 21
232.3220874316
  0
LINE
  5
653
100
AcDbEntity
  8
0
100
AcDbLine
 62
2
  6
CONTINUOUS
 10
310.9945922687
 20
232.3220874316
 11
329.1767514068
 21
232.3220874316
  0
LINE
  5
654
100
AcDbEntity
  8
0
100
AcDbLine
 62
2
  6
CONTINUOUS
 10
314.6098619843
 20
253.7417295342
 11
329.1767514068
 21
253.7417295342
  0
LINE
  5
655
100
AcDbEntity
  8
0
100
AcDbLine
 62
2
  6
CONTINUOUS
 10
328.1767514068
 20
232.3220874316
 11
328.1767514068
 21
243.0319084829
  0
LINE
  5
656
100
AcDbEntity
  8
0
100
AcDbLine
 62
2
  6
CONTINUOUS
 10
328.1767514068
 20
253.7417295342
 11
328.1767514068
 21
243.0319084829
  0
INSERT
  5
657
100
AcDbEntity
  8
0
100
AcDbBlockReference
 62
2
  6
CONTINUOUS
  2
_FILLED
 10
328.1767514068
 20
232.3220874316
 41
3.5
 42
3.5
 43
3.5
 50
270.0
  0
INSERT
  5
658
100
AcDbEntity
  8
0
100
AcDbBlockReference
 62
2
  6
CONTINUOUS
  2
_FILLED
 10
328.1767514068
 20
253.7417295342
 41
3.5
 42
3.5
 43
3.5
 50
90.0
  0
ENDBLK
  5
659
100
AcDbEntity
  8
0
  6
BYBLOCK
 62
0
100
AcDbBlockEnd
  0
BLOCK
  5
65A
100
AcDbEntity
  8
0
100
AcDbBlockBegin
 62
2
  6
CONTINUOUS
  2
*D14
 70
65
 10
0.0
 20
0.0
  3
*D14
  1

  0
MTEXT
  5
65B
100
AcDbEntity
  8
0
100
AcDbMText
 62
5
  6
CONTINUOUS
  7
STANDARD
 71
1
 72
1
 10
204.7018108068
 20
371.7137664334
 30
0.0
 11
1.0
 21
0.0
 31
0.0
 73
2
 44
0.9
  1
3
 40
4.0
 41
3.1194029851
  0
LINE
  5
65C
100
AcDbEntity
  8
0
100
AcDbLine
 62
2
  6
CONTINUOUS
 10
195.5767514068
 20
117.0362446946
 11
195.5767514068
 21
367.7137664334
  0
LINE
  5
65D
100
AcDbEntity
  8
0
100
AcDbLine
 62
2
  6
CONTINUOUS
 10
198.5767514068
 20
117.9800902118
 11
198.5767514068
 21
367.7137664334
  0
LINE
  5
65E
100
AcDbEntity
  8
0
100
AcDbLine
 62
2
  6
CONTINUOUS
 10
195.5767514068
 20
366.7137664334
 11
190.5767514068
 21
366.7137664334
  0
LINE
  5
65F
100
AcDbEntity
  8
0
100
AcDbLine
 62
2
  6
CONTINUOUS
 10
190.5767514068
 20
366.7137664334
 11
197.0767514068
 21
366.7137664334
  0
LINE
  5
660
100
AcDbEntity
  8
0
100
AcDbLine
 62
2
  6
CONTINUOUS
 10
198.5767514068
 20
366.7137664334
 11
207.8212137919
 21
366.7137664334
  0
LINE
  5
661
100
AcDbEntity
  8
0
100
AcDbLine
 62
2
  6
CONTINUOUS
 10
207.8212137919
 20
366.7137664334
 11
197.0767514068
 21
366.7137664334
  0
INSERT
  5
662
100
AcDbEntity
  8
0
100
AcDbBlockReference
 62
2
  6
CONTINUOUS
  2
_FILLED
 10
195.5767514068
 20
366.7137664334
 41
3.5
 42
3.5
 43
3.5
  0
INSERT
  5
663
100
AcDbEntity
  8
0
100
AcDbBlockReference
 62
2
  6
CONTINUOUS
  2
_FILLED
 10
198.5767514068
 20
366.7137664334
 41
3.5
 42
3.5
 43
3.5
 50
180.0
  0
ENDBLK
  5
664
100
AcDbEntity
  8
0
  6
BYBLOCK
 62
0
100
AcDbBlockEnd
  0
BLOCK
  5
665
100
AcDbEntity
  8
0
100
AcDbBlockBegin
 62
2
  6
CONTINUOUS
  2
*D15
 70
65
 10
0.0
 20
0.0
  3
*D15
  1

  0
MTEXT
  5
666
100
AcDbEntity
  8
0
100
AcDbMText
 62
5
  6
CONTINUOUS
  7
STANDARD
 71
2
 72
1
 10
421.0929798151
 20
322.1679183121
 30
0.0
 11
1.0
 21
0.0
 31
0.0
 73
2
 44
0.9
  1
12
 40
4.0
 41
6.2388059701
  0
LINE
  5
667
100
AcDbEntity
  8
0
100
AcDbLine
 62
2
  6
CONTINUOUS
 10
415.0429798151
 20
296.2196428183
 11
415.0429798151
 21
318.1679183121
  0
LINE
  5
668
100
AcDbEntity
  8
0
100
AcDbLine
 62
2
  6
CONTINUOUS
 10
427.1429798151
 20
285.3141628459
 11
427.1429798151
 21
318.1679183121
  0
LINE
  5
669
100
AcDbEntity
  8
0
100
AcDbLine
 62
2
  6
CONTINUOUS
 10
415.0429798151
 20
317.1679183121
 11
421.0929798151
 21
317.1679183121
  0
LINE
  5
66A
100
AcDbEntity
  8
0
100
AcDbLine
 62
2
  6
CONTINUOUS
 10
427.1429798151
 20
317.1679183121
 11
421.0929798151
 21
317.1679183121
  0
INSERT
  5
66B
100
AcDbEntity
  8
0
100
AcDbBlockReference
 62
2
  6
CONTINUOUS
  2
_FILLED
 10
415.0429798151
 20
317.1679183121
 41
3.5
 42
3.5
 43
3.5
 50
180.0
  0
INSERT
  5
66C
100
AcDbEntity
  8
0
100
AcDbBlockReference
 62
2
  6
CONTINUOUS
  2
_FILLED
 10
427.1429798151
 20
317.1679183121
 41
3.5
 42
3.5
 43
3.5
  0
ENDBLK
  5
66D
100
AcDbEntity
  8
0
  6
BYBLOCK
 62
0
100
AcDbBlockEnd
  0
BLOCK
  5
66E
100
AcDbEntity
  8
0
100
AcDbBlockBegin
 62
2
  6
CONTINUOUS
  2
*D16
 70
65
 10
0.0
 20
0.0
  3
*D16
  1

  0
MTEXT
  5
66F
100
AcDbEntity
  8
0
100
AcDbMText
 62
5
  6
CONTINUOUS
  7
STANDARD
 71
3
 72
1
 10
405.2638278682
 20
314.5928000899
 30
0.0
 11
1.0
 21
0.0
 31
0.0
 73
2
 44
0.9
  1
3
 40
4.0
 41
3.1194029851
  0
LINE
  5
670
100
AcDbEntity
  8
0
100
AcDbLine
 62
2
  6
CONTINUOUS
 10
415.0429798151
 20
296.2196428183
 11
415.0429798151
 21
310.5928000899
  0
LINE
  5
671
100
AcDbEntity
  8
0
100
AcDbLine
 62
2
  6
CONTINUOUS
 10
411.6429798151
 20
309.5928000899
 11
402.1444248831
 21
309.5928000899
  0
LINE
  5
672
100
AcDbEntity
  8
0
100
AcDbLine
 62
2
  6
CONTINUOUS
 10
402.1444248831
 20
309.5928000899
 11
413.3429798151
 21
309.5928000899
  0
LINE
  5
673
100
AcDbEntity
  8
0
100
AcDbLine
 62
2
  6
CONTINUOUS
 10
415.0429798151
 20
309.5928000899
 11
420.0429798151
 21
309.5928000899
  0
LINE
  5
674
100
AcDbEntity
  8
0
100
AcDbLine
 62
2
  6
CONTINUOUS
 10
420.0429798151
 20
309.5928000899
 11
413.3429798151
 21
309.5928000899
  0
INSERT
  5
675
100
AcDbEntity
  8
0
100
AcDbBlockReference
 62
2
  6
CONTINUOUS
  2
_FILLED
 10
411.6429798151
 20
309.5928000899
 41
3.5
 42
3.5
 43
3.5
  0
INSERT
  5
676
100
AcDbEntity
  8
0
100
AcDbBlockReference
 62
2
  6
CONTINUOUS
  2
_FILLED
 10
415.0429798151
 20
309.5928000899
 41
3.5
 42
3.5
 43
3.5
 50
180.0
  0
ENDBLK
  5
677
100
AcDbEntity
  8
0
  6
BYBLOCK
 62
0
100
AcDbBlockEnd
  0
BLOCK
  5
678
100
AcDbEntity
  8
0
100
AcDbBlockBegin
 62
2
  6
CONTINUOUS
  2
*D17
 70
65
 10
0.0
 20
0.0
  3
*D17
  1

  0
MTEXT
  5
679
100
AcDbEntity
  8
0
100
AcDbMText
 62
5
  6
CONTINUOUS
  7
STANDARD
 71
2
 72
1
 10
420.1179798151
 20
241.6878814465
 30
0.0
 11
1.0
 21
0.0
 31
0.0
 73
2
 44
0.9
  1
8
 40
4.0
 41
3.1194029851
  0
LINE
  5
67A
100
AcDbEntity
  8
0
100
AcDbLine
 62
2
  6
CONTINUOUS
 10
415.9929798151
 20
215.4917295342
 11
415.9929798151
 21
237.6878814465
  0
LINE
  5
67B
100
AcDbEntity
  8
0
100
AcDbLine
 62
2
  6
CONTINUOUS
 10
424.2429798151
 20
214.3196428183
 11
424.2429798151
 21
237.6878814465
  0
LINE
  5
67C
100
AcDbEntity
  8
0
100
AcDbLine
 62
2
  6
CONTINUOUS
 10
415.9929798151
 20
236.6878814465
 11
410.9929798151
 21
236.6878814465
  0
LINE
  5
67D
100
AcDbEntity
  8
0
100
AcDbLine
 62
2
  6
CONTINUOUS
 10
410.9929798151
 20
236.6878814465
 11
420.1179798151
 21
236.6878814465
  0
LINE
  5
67E
100
AcDbEntity
  8
0
100
AcDbLine
 62
2
  6
CONTINUOUS
 10
424.2429798151
 20
236.6878814465
 11
429.2429798151
 21
236.6878814465
  0
LINE
  5
67F
100
AcDbEntity
  8
0
100
AcDbLine
 62
2
  6
CONTINUOUS
 10
429.2429798151
 20
236.6878814465
 11
420.1179798151
 21
236.6878814465
  0
INSERT
  5
680
100
AcDbEntity
  8
0
100
AcDbBlockReference
 62
2
  6
CONTINUOUS
  2
_FILLED
 10
415.9929798151
 20
236.6878814465
 41
3.5
 42
3.5
 43
3.5
  0
INSERT
  5
681
100
AcDbEntity
  8
0
100
AcDbBlockReference
 62
2
  6
CONTINUOUS
  2
_FILLED
 10
424.2429798151
 20
236.6878814465
 41
3.5
 42
3.5
 43
3.5
 50
180.0
  0
ENDBLK
  5
682
100
AcDbEntity
  8
0
  6
BYBLOCK
 62
0
100
AcDbBlockEnd
  0
BLOCK
  5
683
100
AcDbEntity
  8
0
100
AcDbBlockBegin
 62
2
  6
CONTINUOUS
  2
*D18
 70
65
 10
0.0
 20
0.0
  3
*D18
  1

  0
MTEXT
  5
684
100
AcDbEntity
  8
0
100
AcDbMText
 62
5
  6
CONTINUOUS
  7
STANDARD
 71
3
 72
1
 10
406.5508951187
 20
232.3825425929
 30
0.0
 11
1.0
 21
0.0
 31
0.0
 73
2
 44
0.9
  1
4
 40
4.0
 41
3.1194029851
  0
LINE
  5
685
100
AcDbEntity
  8
0
100
AcDbLine
 62
2
  6
CONTINUOUS
 10
415.9929798151
 20
215.4917295342
 11
415.9929798151
 21
228.3825425929
  0
LINE
  5
686
100
AcDbEntity
  8
0
100
AcDbLine
 62
2
  6
CONTINUOUS
 10
411.6429798151
 20
227.3825425929
 11
403.4314921337
 21
227.3825425929
  0
LINE
  5
687
100
AcDbEntity
  8
0
100
AcDbLine
 62
2
  6
CONTINUOUS
 10
403.4314921337
 20
227.3825425929
 11
413.8179798151
 21
227.3825425929
  0
LINE
  5
688
100
AcDbEntity
  8
0
100
AcDbLine
 62
2
  6
CONTINUOUS
 10
415.9929798151
 20
227.3825425929
 11
420.9929798151
 21
227.3825425929
  0
LINE
  5
689
100
AcDbEntity
  8
0
100
AcDbLine
 62
2
  6
CONTINUOUS
 10
420.9929798151
 20
227.3825425929
 11
413.8179798151
 21
227.3825425929
  0
INSERT
  5
68A
100
AcDbEntity
  8
0
100
AcDbBlockReference
 62
2
  6
CONTINUOUS
  2
_FILLED
 10
411.6429798151
 20
227.3825425929
 41
3.5
 42
3.5
 43
3.5
  0
INSERT
  5
68B
100
AcDbEntity
  8
0
100
AcDbBlockReference
 62
2
  6
CONTINUOUS
  2
_FILLED
 10
415.9929798151
 20
227.3825425929
 41
3.5
 42
3.5
 43
3.5
 50
180.0
  0
ENDBLK
  5
68C
100
AcDbEntity
  8
0
  6
BYBLOCK
 62
0
100
AcDbBlockEnd
  0
BLOCK
  5
68D
100
AcDbEntity
  8
0
100
AcDbBlockBegin
 62
2
  6
CONTINUOUS
  2
*D19
 70
65
 10
0.0
 20
0.0
  3
*D19
  1

  0
MTEXT
  5
68E
100
AcDbEntity
  8
0
100
AcDbMText
 62
5
  6
CONTINUOUS
  7
STANDARD
 71
2
 72
1
 10
145.3231177456
 20
267.8667295342
 30
0.0
 11
0.0
 21
1.0
 31
0.0
 73
2
 44
0.9
  1
28
 40
4.0
 41
6.2388059701
  0
LINE
  5
68F
100
AcDbEntity
  8
0
100
AcDbLine
 62
2
  6
CONTINUOUS
 10
192.9053974486
 20
253.7417295342
 11
149.3231177456
 21
253.7417295342
  0
LINE
  5
690
100
AcDbEntity
  8
0
100
AcDbLine
 62
2
  6
CONTINUOUS
 10
178.3767514068
 20
281.9917295342
 11
160.6418895869
 21
281.9917295342
  0
LINE
  5
691
100
AcDbEntity
  8
0
100
AcDbLine
 62
2
  6
CONTINUOUS
 10
152.9075147789
 20
281.9917295342
 11
149.3231177456
 21
281.9917295342
  0
LINE
  5
692
100
AcDbEntity
  8
0
100
AcDbLine
 62
2
  6
CONTINUOUS
 10
150.3231177456
 20
253.7417295342
 11
150.3231177456
 21
267.8667295342
  0
LINE
  5
693
100
AcDbEntity
  8
0
100
AcDbLine
 62
2
  6
CONTINUOUS
 10
150.3231177456
 20
281.9917295342
 11
150.3231177456
 21
267.8667295342
  0
INSERT
  5
694
100
AcDbEntity
  8
0
100
AcDbBlockReference
 62
2
  6
CONTINUOUS
  2
_FILLED
 10
150.3231177456
 20
253.7417295342
 41
3.5
 42
3.5
 43
3.5
 50
270.0
  0
INSERT
  5
695
100
AcDbEntity
  8
0
100
AcDbBlockReference
 62
2
  6
CONTINUOUS
  2
_FILLED
 10
150.3231177456
 20
281.9917295342
 41
3.5
 42
3.5
 43
3.5
 50
90.0
  0
ENDBLK
  5
696
100
AcDbEntity
  8
0
  6
BYBLOCK
 62
0
100
AcDbBlockEnd
  0
BLOCK
  5
697
100
AcDbEntity
  8
0
100
AcDbBlockBegin
 62
2
  6
CONTINUOUS
  2
*D20
 70
65
 10
0.0
 20
0.0
  3
*D20
  1

  0
MTEXT
  5
698
100
AcDbEntity
  8
0
100
AcDbMText
 62
5
  6
CONTINUOUS
  7
STANDARD
 71
2
 72
1
 10
135.3231177456
 20
240.3167295342
 30
0.0
 11
0.0
 21
1.0
 31
0.0
 73
2
 44
0.9
  1
83
 40
4.0
 41
6.2388059701
  0
LINE
  5
699
100
AcDbEntity
  8
0
100
AcDbLine
 62
2
  6
CONTINUOUS
 10
150.3231177456
 20
281.9917295342
 11
139.3231177456
 21
281.9917295342
  0
LINE
  5
69A
100
AcDbEntity
  8
0
100
AcDbLine
 62
2
  6
CONTINUOUS
 10
170.2633694994
 20
198.6417295342
 11
161.5848270376
 21
198.6417295342
  0
LINE
  5
69B
100
AcDbEntity
  8
0
100
AcDbLine
 62
2
  6
CONTINUOUS
 10
153.7762902814
 20
198.6417295342
 11
139.3231177456
 21
198.6417295342
  0
LINE
  5
69C
100
AcDbEntity
  8
0
100
AcDbLine
 62
2
  6
CONTINUOUS
 10
140.3231177456
 20
281.9917295342
 11
140.3231177456
 21
240.3167295342
  0
LINE
  5
69D
100
AcDbEntity
  8
0
100
AcDbLine
 62
2
  6
CONTINUOUS
 10
140.3231177456
 20
198.6417295342
 11
140.3231177456
 21
240.3167295342
  0
INSERT
  5
69E
100
AcDbEntity
  8
0
100
AcDbBlockReference
 62
2
  6
CONTINUOUS
  2
_FILLED
 10
140.3231177456
 20
281.9917295342
 41
3.5
 42
3.5
 43
3.5
 50
90.0
  0
INSERT
  5
69F
100
AcDbEntity
  8
0
100
AcDbBlockReference
 62
2
  6
CONTINUOUS
  2
_FILLED
 10
140.3231177456
 20
198.6417295342
 41
3.5
 42
3.5
 43
3.5
 50
270.0
  0
ENDBLK
  5
6A0
100
AcDbEntity
  8
0
  6
BYBLOCK
 62
0
100
AcDbBlockEnd
  0
BLOCK
  5
6A1
100
AcDbEntity
  8
0
100
AcDbBlockBegin
 62
2
  6
CONTINUOUS
  2
*D21
 70
65
 10
0.0
 20
0.0
  3
*D21
  1

  0
MTEXT
  5
6A2
100
AcDbEntity
  8
0
100
AcDbMText
 62
5
  6
CONTINUOUS
  7
TEXTSTYLE_1
 71
2
 72
1
 10
260.6767514068
 20
312.4104987245
 30
0.0
 11
1.0
 21
0.0
 31
0.0
 73
2
 44
0.9
  1
{\fgdt;n}\fArial Unicode MS;8
 40
4.0
 41
8.4527363184
  0
LINE
  5
6A3
100
AcDbEntity
  8
0
100
AcDbLine
 62
2
  6
CONTINUOUS
 10
256.6767514068
 20
299.7417295342
 11
256.6767514068
 21
306.4104987245
  0
LINE
  5
6A4
100
AcDbEntity
  8
0
100
AcDbLine
 62
2
  6
CONTINUOUS
 10
264.6767514068
 20
299.7417295342
 11
264.6767514068
 21
306.4104987245
  0
LINE
  5
6A5
100
AcDbEntity
  8
0
100
AcDbLine
 62
2
  6
CONTINUOUS
 10
256.6767514068
 20
307.4104987245
 11
251.6767514068
 21
307.4104987245
  0
LINE
  5
6A6
100
AcDbEntity
  8
0
100
AcDbLine
 62
2
  6
CONTINUOUS
 10
251.6767514068
 20
307.4104987245
 11
260.6767514068
 21
307.4104987245
  0
LINE
  5
6A7
100
AcDbEntity
  8
0
100
AcDbLine
 62
2
  6
CONTINUOUS
 10
264.6767514068
 20
307.4104987245
 11
269.6767514068
 21
307.4104987245
  0
LINE
  5
6A8
100
AcDbEntity
  8
0
100
AcDbLine
 62
2
  6
CONTINUOUS
 10
269.6767514068
 20
307.4104987245
 11
260.6767514068
 21
307.4104987245
  0
INSERT
  5
6A9
100
AcDbEntity
  8
0
100
AcDbBlockReference
 62
2
  6
CONTINUOUS
  2
_FILLED
 10
256.6767514068
 20
307.4104987245
 41
3.5
 42
3.5
 43
3.5
  0
INSERT
  5
6AA
100
AcDbEntity
  8
0
100
AcDbBlockReference
 62
2
  6
CONTINUOUS
  2
_FILLED
 10
264.6767514068
 20
307.4104987245
 41
3.5
 42
3.5
 43
3.5
 50
180.0
  0
ENDBLK
  5
6AB
100
AcDbEntity
  8
0
  6
BYBLOCK
 62
0
100
AcDbBlockEnd
  0
BLOCK
  5
6AC
100
AcDbEntity
  8
0
100
AcDbBlockBegin
 62
2
  6
CONTINUOUS
  2
*D22
 70
65
 10
0.0
 20
0.0
  3
*D22
  1

  0
MTEXT
  5
6AD
100
AcDbEntity
  8
0
100
AcDbMText
 62
5
  6
CONTINUOUS
  7
TEXTSTYLE_1
 71
2
 72
1
 10
230.2904992358
 20
232.2417295342
 30
0.0
 11
0.0
 21
1.0
 31
0.0
 73
2
 44
0.9
  1
{\fgdt;n}\fArial Unicode MS;10
 40
4.0
 41
11.5721393035
  0
LINE
  5
6AE
100
AcDbEntity
  8
0
100
AcDbLine
 62
2
  6
CONTINUOUS
 10
260.6767514068
 20
237.2417295342
 11
236.2904992358
 21
237.2417295342
  0
LINE
  5
6AF
100
AcDbEntity
  8
0
100
AcDbLine
 62
2
  6
CONTINUOUS
 10
260.6767514068
 20
227.2417295342
 11
236.2904992358
 21
227.2417295342
  0
LINE
  5
6B0
100
AcDbEntity
  8
0
100
AcDbLine
 62
2
  6
CONTINUOUS
 10
235.2904992358
 20
237.2417295342
 11
235.2904992358
 21
242.2417295342
  0
LINE
  5
6B1
100
AcDbEntity
  8
0
100
AcDbLine
 62
2
  6
CONTINUOUS
 10
235.2904992358
 20
242.2417295342
 11
235.2904992358
 21
232.2417295342
  0
LINE
  5
6B2
100
AcDbEntity
  8
0
100
AcDbLine
 62
2
  6
CONTINUOUS
 10
235.2904992358
 20
227.2417295342
 11
235.2904992358
 21
222.2417295342
  0
LINE
  5
6B3
100
AcDbEntity
  8
0
100
AcDbLine
 62
2
  6
CONTINUOUS
 10
235.2904992358
 20
222.2417295342
 11
235.2904992358
 21
232.2417295342
  0
INSERT
  5
6B4
100
AcDbEntity
  8
0
100
AcDbBlockReference
 62
2
  6
CONTINUOUS
  2
_FILLED
 10
235.2904992358
 20
237.2417295342
 41
3.5
 42
3.5
 43
3.5
 50
270.0
  0
INSERT
  5
6B5
100
AcDbEntity
  8
0
100
AcDbBlockReference
 62
2
  6
CONTINUOUS
  2
_FILLED
 10
235.2904992358
 20
227.2417295342
 41
3.5
 42
3.5
 43
3.5
 50
90.0
  0
ENDBLK
  5
6B6
100
AcDbEntity
  8
0
  6
BYBLOCK
 62
0
100
AcDbBlockEnd
  0
BLOCK
  5
6B7
100
AcDbEntity
  8
0
100
AcDbBlockBegin
 62
2
  6
CONTINUOUS
  2
*D23
 70
65
 10
0.0
 20
0.0
  3
*D23
  1

  0
MTEXT
  5
6B8
100
AcDbEntity
  8
0
100
AcDbMText
 62
5
  6
CONTINUOUS
  7
TEXTSTYLE_1
 71
2
 72
1
 10
221.6409434298
 20
253.7417295342
 30
0.0
 11
0.0
 21
1.0
 31
0.0
 73
2
 44
0.9
  1
{\fgdt;n}\fArial Unicode MS;8
 40
4.0
 41
8.4527363184
  0
LINE
  5
6B9
100
AcDbEntity
  8
0
100
AcDbLine
 62
2
  6
CONTINUOUS
 10
241.6767514068
 20
249.7417295342
 11
227.6409434298
 21
249.7417295342
  0
LINE
  5
6BA
100
AcDbEntity
  8
0
100
AcDbLine
 62
2
  6
CONTINUOUS
 10
241.6767514068
 20
257.7417295342
 11
227.6409434298
 21
257.7417295342
  0
LINE
  5
6BB
100
AcDbEntity
  8
0
100
AcDbLine
 62
2
  6
CONTINUOUS
 10
226.6409434298
 20
249.7417295342
 11
226.6409434298
 21
244.7417295342
  0
LINE
  5
6BC
100
AcDbEntity
  8
0
100
AcDbLine
 62
2
  6
CONTINUOUS
 10
226.6409434298
 20
244.7417295342
 11
226.6409434298
 21
253.7417295342
  0
LINE
  5
6BD
100
AcDbEntity
  8
0
100
AcDbLine
 62
2
  6
CONTINUOUS
 10
226.6409434298
 20
257.7417295342
 11
226.6409434298
 21
262.7417295342
  0
LINE
  5
6BE
100
AcDbEntity
  8
0
100
AcDbLine
 62
2
  6
CONTINUOUS
 10
226.6409434298
 20
262.7417295342
 11
226.6409434298
 21
253.7417295342
  0
INSERT
  5
6BF
100
AcDbEntity
  8
0
100
AcDbBlockReference
 62
2
  6
CONTINUOUS
  2
_FILLED
 10
226.6409434298
 20
249.7417295342
 41
3.5
 42
3.5
 43
3.5
 50
90.0
  0
INSERT
  5
6C0
100
AcDbEntity
  8
0
100
AcDbBlockReference
 62
2
  6
CONTINUOUS
  2
_FILLED
 10
226.6409434298
 20
257.7417295342
 41
3.5
 42
3.5
 43
3.5
 50
270.0
  0
ENDBLK
  5
6C1
100
AcDbEntity
  8
0
  6
BYBLOCK
 62
0
100
AcDbBlockEnd
  0
BLOCK
  5
6C2
100
AcDbEntity
  8
0
100
AcDbBlockBegin
 62
2
  6
CONTINUOUS
  2
*D24
 70
65
 10
0.0
 20
0.0
  3
*D24
  1

  0
MTEXT
  5
6C3
100
AcDbEntity
  8
0
100
AcDbMText
 62
5
  6
CONTINUOUS
  7
TEXTSTYLE_1
 71
2
 72
1
 10
260.6767514068
 20
283.791978834
 30
0.0
 11
1.0
 21
0.0
 31
0.0
 73
2
 44
0.9
  1
{\fgdt;o}\fArial Unicode MS;9
 40
4.0
 41
8.6194029851
  0
LINE
  5
6C4
100
AcDbEntity
  8
0
100
AcDbLine
 62
2
  6
CONTINUOUS
 10
256.1467514068
 20
256.5330543996
 11
256.1467514068
 21
279.791978834
  0
LINE
  5
6C5
100
AcDbEntity
  8
0
100
AcDbLine
 62
2
  6
CONTINUOUS
 10
265.2067514068
 20
258.2717295342
 11
265.2067514068
 21
279.791978834
  0
LINE
  5
6C6
100
AcDbEntity
  8
0
100
AcDbLine
 62
2
  6
CONTINUOUS
 10
256.1467514068
 20
278.791978834
 11
251.1467514068
 21
278.791978834
  0
LINE
  5
6C7
100
AcDbEntity
  8
0
100
AcDbLine
 62
2
  6
CONTINUOUS
 10
251.1467514068
 20
278.791978834
 11
260.6767514068
 21
278.791978834
  0
LINE
  5
6C8
100
AcDbEntity
  8
0
100
AcDbLine
 62
2
  6
CONTINUOUS
 10
265.2067514068
 20
278.791978834
 11
270.2067514068
 21
278.791978834
  0
LINE
  5
6C9
100
AcDbEntity
  8
0
100
AcDbLine
 62
2
  6
CONTINUOUS
 10
270.2067514068
 20
278.791978834
 11
260.6767514068
 21
278.791978834
  0
INSERT
  5
6CA
100
AcDbEntity
  8
0
100
AcDbBlockReference
 62
2
  6
CONTINUOUS
  2
_FILLED
 10
256.1467514068
 20
278.791978834
 41
3.5
 42
3.5
 43
3.5
  0
INSERT
  5
6CB
100
AcDbEntity
  8
0
100
AcDbBlockReference
 62
2
  6
CONTINUOUS
  2
_FILLED
 10
265.2067514068
 20
278.791978834
 41
3.5
 42
3.5
 43
3.5
 50
180.0
  0
ENDBLK
  5
6CC
100
AcDbEntity
  8
0
  6
BYBLOCK
 62
0
100
AcDbBlockEnd
  0
BLOCK
  5
6CD
100
AcDbEntity
  8
0
100
AcDbBlockBegin
 62
2
  6
CONTINUOUS
  2
*D25
 70
65
 10
0.0
 20
0.0
  3
*D25
  1

  0
MTEXT
  5
6CE
100
AcDbEntity
  8
0
100
AcDbMText
 62
5
  6
CONTINUOUS
  7
STANDARD
 71
3
 72
1
 10
232.1565587812
 20
191.5073728266
 30
0.0
 11
1.0
 21
0.0
 31
0.0
 73
2
 44
0.9
  1
8
 40
4.0
 41
3.1194029851
  0
LINE
  5
6CF
100
AcDbEntity
  8
0
100
AcDbLine
 62
2
  6
CONTINUOUS
 10
237.6767514068
 20
175.7417295342
 11
237.6767514068
 21
187.5073728266
  0
LINE
  5
6D0
100
AcDbEntity
  8
0
100
AcDbLine
 62
2
  6
CONTINUOUS
 10
245.6767514068
 20
175.7417295342
 11
245.6767514068
 21
187.5073728266
  0
LINE
  5
6D1
100
AcDbEntity
  8
0
100
AcDbLine
 62
2
  6
CONTINUOUS
 10
237.6767514068
 20
186.5073728266
 11
229.0371557961
 21
186.5073728266
  0
LINE
  5
6D2
100
AcDbEntity
  8
0
100
AcDbLine
 62
2
  6
CONTINUOUS
 10
229.0371557961
 20
186.5073728266
 11
241.6767514068
 21
186.5073728266
  0
LINE
  5
6D3
100
AcDbEntity
  8
0
100
AcDbLine
 62
2
  6
CONTINUOUS
 10
245.6767514068
 20
186.5073728266
 11
250.6767514068
 21
186.5073728266
  0
LINE
  5
6D4
100
AcDbEntity
  8
0
100
AcDbLine
 62
2
  6
CONTINUOUS
 10
250.6767514068
 20
186.5073728266
 11
241.6767514068
 21
186.5073728266
  0
INSERT
  5
6D5
100
AcDbEntity
  8
0
100
AcDbBlockReference
 62
2
  6
CONTINUOUS
  2
_FILLED
 10
237.6767514068
 20
186.5073728266
 41
3.5
 42
3.5
 43
3.5
  0
INSERT
  5
6D6
100
AcDbEntity
  8
0
100
AcDbBlockReference
 62
2
  6
CONTINUOUS
  2
_FILLED
 10
245.6767514068
 20
186.5073728266
 41
3.5
 42
3.5
 43
3.5
 50
180.0
  0
ENDBLK
  5
6D7
100
AcDbEntity
  8
0
  6
BYBLOCK
 62
0
100
AcDbBlockEnd
  0
BLOCK
  5
6D8
100
AcDbEntity
  8
0
100
AcDbBlockBegin
 62
2
  6
CONTINUOUS
  2
*D26
 70
65
 10
0.0
 20
0.0
  3
*D26
  1

  0
MTEXT
  5
6D9
100
AcDbEntity
  8
0
100
AcDbMText
 62
5
  6
CONTINUOUS
  7
STANDARD
 71
2
 72
1
 10
303.1767514068
 20
42.8147530616
 30
0.0
 11
0.0
 21
1.0
 31
0.0
 73
2
 44
0.9
  1
13
 40
4.0
 41
6.2388059701
  0
LINE
  5
6DA
100
AcDbEntity
  8
0
100
AcDbLine
 62
2
  6
CONTINUOUS
 10
285.0767514068
 20
49.4643539799
 11
309.1767514068
 21
49.4643539799
  0
LINE
  5
6DB
100
AcDbEntity
  8
0
100
AcDbLine
 62
2
  6
CONTINUOUS
 10
283.9203131652
 20
36.1651521433
 11
309.1767514068
 21
36.1651521433
  0
LINE
  5
6DC
100
AcDbEntity
  8
0
100
AcDbLine
 62
2
  6
CONTINUOUS
 10
308.1767514068
 20
49.4643539799
 11
308.1767514068
 21
42.8147530616
  0
LINE
  5
6DD
100
AcDbEntity
  8
0
100
AcDbLine
 62
2
  6
CONTINUOUS
 10
308.1767514068
 20
36.1651521433
 11
308.1767514068
 21
42.8147530616
  0
INSERT
  5
6DE
100
AcDbEntity
  8
0
100
AcDbBlockReference
 62
2
  6
CONTINUOUS
  2
_FILLED
 10
308.1767514068
 20
49.4643539799
 41
3.5
 42
3.5
 43
3.5
 50
90.0
  0
INSERT
  5
6DF
100
AcDbEntity
  8
0
100
AcDbBlockReference
 62
2
  6
CONTINUOUS
  2
_FILLED
 10
308.1767514068
 20
36.1651521433
 41
3.5
 42
3.5
 43
3.5
 50
270.0
  0
ENDBLK
  5
6E0
100
AcDbEntity
  8
0
  6
BYBLOCK
 62
0
100
AcDbBlockEnd
  0
BLOCK
  5
6E1
100
AcDbEntity
  8
0
100
AcDbBlockBegin
 62
2
  6
CONTINUOUS
  2
*D27
 70
65
 10
0.0
 20
0.0
  3
*D27
  1

  0
MTEXT
  5
6E2
100
AcDbEntity
  8
0
100
AcDbMText
 62
5
  6
CONTINUOUS
  7
STANDARD
 71
2
 72
1
 10
451.6429798151
 20
123.2417295342
 30
0.0
 11
0.0
 21
1.0
 31
0.0
 73
2
 44
0.9
  1
13
 40
4.0
 41
6.2388059701
  0
LINE
  5
6E3
100
AcDbEntity
  8
0
100
AcDbLine
 62
2
  6
CONTINUOUS
 10
431.7429798151
 20
129.7417295342
 11
457.6429798151
 21
129.7417295342
  0
LINE
  5
6E4
100
AcDbEntity
  8
0
100
AcDbLine
 62
2
  6
CONTINUOUS
 10
421.6429798151
 20
116.7417295342
 11
457.6429798151
 21
116.7417295342
  0
LINE
  5
6E5
100
AcDbEntity
  8
0
100
AcDbLine
 62
2
  6
CONTINUOUS
 10
456.6429798151
 20
129.7417295342
 11
456.6429798151
 21
123.2417295342
  0
LINE
  5
6E6
100
AcDbEntity
  8
0
100
AcDbLine
 62
2
  6
CONTINUOUS
 10
456.6429798151
 20
116.7417295342
 11
456.6429798151
 21
123.2417295342
  0
INSERT
  5
6E7
100
AcDbEntity
  8
0
100
AcDbBlockReference
 62
2
  6
CONTINUOUS
  2
_FILLED
 10
456.6429798151
 20
129.7417295342
 41
3.5
 42
3.5
 43
3.5
 50
90.0
  0
INSERT
  5
6E8
100
AcDbEntity
  8
0
100
AcDbBlockReference
 62
2
  6
CONTINUOUS
  2
_FILLED
 10
456.6429798151
 20
116.7417295342
 41
3.5
 42
3.5
 43
3.5
 50
270.0
  0
ENDBLK
  5
6E9
100
AcDbEntity
  8
0
  6
BYBLOCK
 62
0
100
AcDbBlockEnd
  0
BLOCK
  5
6EA
100
AcDbEntity
  8
0
100
AcDbBlockBegin
 62
2
  6
CONTINUOUS
  2
*D28
 70
65
 10
0.0
 20
0.0
  3
*D28
  1

  0
MTEXT
  5
6EB
100
AcDbEntity
  8
0
100
AcDbMText
 62
5
  6
CONTINUOUS
  7
STANDARD
 71
2
 72
1
 10
451.6429798151
 20
205.8417295342
 30
0.0
 11
0.0
 21
1.0
 31
0.0
 73
2
 44
0.9
  1
152
 40
4.0
 41
9.3582089552
  0
LINE
  5
6EC
100
AcDbEntity
  8
0
100
AcDbLine
 62
2
  6
CONTINUOUS
 10
430.1567669885
 20
281.9417295342
 11
457.6429798151
 21
281.9417295342
  0
LINE
  5
6ED
100
AcDbEntity
  8
0
100
AcDbLine
 62
2
  6
CONTINUOUS
 10
431.7429798151
 20
129.7417295342
 11
457.6429798151
 21
129.7417295342
  0
LINE
  5
6EE
100
AcDbEntity
  8
0
100
AcDbLine
 62
2
  6
CONTINUOUS
 10
456.6429798151
 20
281.9417295342
 11
456.6429798151
 21
205.8417295342
  0
LINE
  5
6EF
100
AcDbEntity
  8
0
100
AcDbLine
 62
2
  6
CONTINUOUS
 10
456.6429798151
 20
129.7417295342
 11
456.6429798151
 21
205.8417295342
  0
INSERT
  5
6F0
100
AcDbEntity
  8
0
100
AcDbBlockReference
 62
2
  6
CONTINUOUS
  2
_FILLED
 10
456.6429798151
 20
281.9417295342
 41
3.5
 42
3.5
 43
3.5
 50
90.0
  0
INSERT
  5
6F1
100
AcDbEntity
  8
0
100
AcDbBlockReference
 62
2
  6
CONTINUOUS
  2
_FILLED
 10
456.6429798151
 20
129.7417295342
 41
3.5
 42
3.5
 43
3.5
 50
270.0
  0
ENDBLK
  5
6F2
100
AcDbEntity
  8
0
  6
BYBLOCK
 62
0
100
AcDbBlockEnd
  0
BLOCK
  5
6F3
100
AcDbEntity
  8
0
100
AcDbBlockBegin
 62
2
  6
CONTINUOUS
  2
*D29
 70
65
 10
0.0
 20
0.0
  3
*D29
  1

  0
MTEXT
  5
6F4
100
AcDbEntity
  8
0
100
AcDbMText
 62
5
  6
CONTINUOUS
  7
STANDARD
 71
2
 72
1
 10
386.6429798151
 20
234.2417295342
 30
0.0
 11
0.0
 21
1.0
 31
0.0
 73
2
 44
0.9
  1
235
 40
4.0
 41
9.3582089552
  0
LINE
  5
6F5
100
AcDbEntity
  8
0
100
AcDbLine
 62
2
  6
CONTINUOUS
 10
421.6429798151
 20
116.7417295342
 11
390.6429798151
 21
116.7417295342
  0
LINE
  5
6F6
100
AcDbEntity
  8
0
100
AcDbLine
 62
2
  6
CONTINUOUS
 10
421.6429798151
 20
351.7417295342
 11
390.6429798151
 21
351.7417295342
  0
LINE
  5
6F7
100
AcDbEntity
  8
0
100
AcDbLine
 62
2
  6
CONTINUOUS
 10
391.6429798151
 20
116.7417295342
 11
391.6429798151
 21
234.2417295342
  0
LINE
  5
6F8
100
AcDbEntity
  8
0
100
AcDbLine
 62
2
  6
CONTINUOUS
 10
391.6429798151
 20
351.7417295342
 11
391.6429798151
 21
234.2417295342
  0
INSERT
  5
6F9
100
AcDbEntity
  8
0
100
AcDbBlockReference
 62
2
  6
CONTINUOUS
  2
_FILLED
 10
391.6429798151
 20
116.7417295342
 41
3.5
 42
3.5
 43
3.5
 50
270.0
  0
INSERT
  5
6FA
100
AcDbEntity
  8
0
100
AcDbBlockReference
 62
2
  6
CONTINUOUS
  2
_FILLED
 10
391.6429798151
 20
351.7417295342
 41
3.5
 42
3.5
 43
3.5
 50
90.0
  0
ENDBLK
  5
6FB
100
AcDbEntity
  8
0
  6
BYBLOCK
 62
0
100
AcDbBlockEnd
  0
BLOCK
  5
6FC
100
AcDbEntity
  8
0
100
AcDbBlockBegin
 62
2
  6
CONTINUOUS
  2
*D30
 70
65
 10
0.0
 20
0.0
  3
*D30
  1

  0
MTEXT
  5
6FD
100
AcDbEntity
  8
0
100
AcDbMText
 62
5
  6
CONTINUOUS
  7
STANDARD
 71
2
 72
1
 10
451.6429798151
 20
310.3417295342
 30
0.0
 11
0.0
 21
1.0
 31
0.0
 73
2
 44
0.9
  1
57
 40
4.0
 41
6.2388059701
  0
LINE
  5
6FE
100
AcDbEntity
  8
0
100
AcDbLine
 62
2
  6
CONTINUOUS
 10
431.7429798151
 20
338.7417295342
 11
457.6429798151
 21
338.7417295342
  0
LINE
  5
6FF
100
AcDbEntity
  8
0
100
AcDbLine
 62
2
  6
CONTINUOUS
 10
430.1567669885
 20
281.9417295342
 11
457.6429798151
 21
281.9417295342
  0
LINE
  5
700
100
AcDbEntity
  8
0
100
AcDbLine
 62
2
  6
CONTINUOUS
 10
456.6429798151
 20
338.7417295342
 11
456.6429798151
 21
310.3417295342
  0
LINE
  5
701
100
AcDbEntity
  8
0
100
AcDbLine
 62
2
  6
CONTINUOUS
 10
456.6429798151
 20
281.9417295342
 11
456.6429798151
 21
310.3417295342
  0
INSERT
  5
702
100
AcDbEntity
  8
0
100
AcDbBlockReference
 62
2
  6
CONTINUOUS
  2
_FILLED
 10
456.6429798151
 20
338.7417295342
 41
3.5
 42
3.5
 43
3.5
 50
90.0
  0
INSERT
  5
703
100
AcDbEntity
  8
0
100
AcDbBlockReference
 62
2
  6
CONTINUOUS
  2
_FILLED
 10
456.6429798151
 20
281.9417295342
 41
3.5
 42
3.5
 43
3.5
 50
270.0
  0
ENDBLK
  5
704
100
AcDbEntity
  8
0
  6
BYBLOCK
 62
0
100
AcDbBlockEnd
  0
BLOCK
  5
705
100
AcDbEntity
  8
0
100
AcDbBlockBegin
 62
2
  6
CONTINUOUS
  2
*D31
 70
65
 10
0.0
 20
0.0
  3
*D31
  1

  0
MTEXT
  5
706
100
AcDbEntity
  8
0
100
AcDbMText
 62
5
  6
CONTINUOUS
  7
STANDARD
 71
2
 72
1
 10
333.1767514068
 20
285.2417295342
 30
0.0
 11
0.0
 21
1.0
 31
0.0
 73
2
 44
0.9
  1
63
 40
4.0
 41
6.2388059701
  0
LINE
  5
707
100
AcDbEntity
  8
0
100
AcDbLine
 62
2
  6
CONTINUOUS
 10
283.8887685539
 20
316.7417295342
 11
339.1767514068
 21
316.7417295342
  0
LINE
  5
708
100
AcDbEntity
  8
0
100
AcDbLine
 62
2
  6
CONTINUOUS
 10
314.8031615463
 20
253.7417295342
 11
339.1767514068
 21
253.7417295342
  0
LINE
  5
709
100
AcDbEntity
  8
0
100
AcDbLine
 62
2
  6
CONTINUOUS
 10
338.1767514068
 20
316.7417295342
 11
338.1767514068
 21
285.2417295342
  0
LINE
  5
70A
100
AcDbEntity
  8
0
100
AcDbLine
 62
2
  6
CONTINUOUS
 10
338.1767514068
 20
253.7417295342
 11
338.1767514068
 21
285.2417295342
  0
INSERT
  5
70B
100
AcDbEntity
  8
0
100
AcDbBlockReference
 62
2
  6
CONTINUOUS
  2
_FILLED
 10
338.1767514068
 20
316.7417295342
 41
3.5
 42
3.5
 43
3.5
 50
90.0
  0
INSERT
  5
70C
100
AcDbEntity
  8
0
100
AcDbBlockReference
 62
2
  6
CONTINUOUS
  2
_FILLED
 10
338.1767514068
 20
253.7417295342
 41
3.5
 42
3.5
 43
3.5
 50
270.0
  0
ENDBLK
  5
70D
100
AcDbEntity
  8
0
  6
BYBLOCK
 62
0
100
AcDbBlockEnd
  0
BLOCK
  5
70E
100
AcDbEntity
  8
0
100
AcDbBlockBegin
 62
2
  6
CONTINUOUS
  2
*D32
 70
65
 10
0.0
 20
0.0
  3
*D32
  1

  0
MTEXT
  5
70F
100
AcDbEntity
  8
0
100
AcDbMText
 62
5
  6
CONTINUOUS
  7
STANDARD
 71
2
 72
1
 10
298.3171389496
 20
245.7410181782
 30
0.0
 11
0.2079116908
 21
0.9781476007
 31
0.0
 73
2
 44
0.9
  1
24\fgdt;{\fgdt;~}\P\fArial Unicode MS;Drehwinkel
 40
4.0
 41
27.7164179104
  0
LINE
  5
710
100
AcDbEntity
  8
0
100
AcDbLine
 62
2
  6
CONTINUOUS
 10
260.5496147609
 20
253.7983344159
 11
300.3523536793
 21
236.0770132956
  0
LINE
  5
711
100
AcDbEntity
  8
0
100
AcDbLine
 62
2
  6
CONTINUOUS
 10
307.8239905321
 20
232.7504262425
 11
309.5343466114
 21
231.9889266539
  0
LINE
  5
712
100
AcDbEntity
  8
0
100
AcDbLine
 62
2
  6
CONTINUOUS
 10
270.6767514068
 20
253.7417295342
 11
304.1071050258
 21
253.7417295342
  0
LINE
  5
713
100
AcDbEntity
  8
0
100
AcDbLine
 62
2
  6
CONTINUOUS
 10
312.2858297848
 20
253.7417295342
 11
314.1580475983
 21
253.7417295342
  0
ARC
  5
714
100
AcDbEntity
  8
0
100
AcDbCircle
 62
2
  6
CONTINUOUS
 10
260.6767514068
 20
253.7417295342
 40
52.4812961914
100
AcDbArc
 50
336.0
 51
348.0
  0
ARC
  5
715
100
AcDbEntity
  8
0
100
AcDbCircle
 62
2
  6
CONTINUOUS
 10
260.6767514068
 20
253.7417295342
 40
52.4812961914
100
AcDbArc
 50
348.0
 51
360.0
  0
SOLID
  5
716
100
AcDbEntity
  8
0
100
AcDbTrace
 62
2
  6
CONTINUOUS
 10
309.4736905946
 20
235.8267825898
 11
308.6208011537
 21
232.395663297
 12
310.4002884189
 22
235.4507287747
 13
310.4002884189
 23
235.4507287747
  0
SOLID
  5
717
100
AcDbEntity
  8
0
100
AcDbTrace
 62
2
  6
CONTINUOUS
 10
313.5410830296
 20
250.2270056676
 11
313.1580475983
 21
253.7417295342
 12
312.5416389297
 22
250.2603447015
 13
312.5416389297
 23
250.2603447015
  0
ENDBLK
  5
718
100
AcDbEntity
  8
0
  6
BYBLOCK
 62
0
100
AcDbBlockEnd
  0
BLOCK
  5
719
100
AcDbEntity
  8
0
100
AcDbBlockBegin
 62
2
  6
CONTINUOUS
  2
*D33
 70
65
 10
0.0
 20
0.0
  3
*D33
  1

  0
MTEXT
  5
71A
100
AcDbEntity
  8
0
100
AcDbMText
 62
5
  6
CONTINUOUS
  7
STANDARD
 71
2
 72
1
 10
313.1767514068
 20
176.7417295342
 30
0.0
 11
0.0
 21
1.0
 31
0.0
 73
2
 44
0.9
  1
6
 40
4.0
 41
3.1194029851
  0
LINE
  5
71B
100
AcDbEntity
  8
0
100
AcDbLine
 62
2
  6
CONTINUOUS
 10
274.0055713378
 20
179.7417295342
 11
306.7524080285
 21
179.7417295342
  0
LINE
  5
71C
100
AcDbEntity
  8
0
100
AcDbLine
 62
2
  6
CONTINUOUS
 10
309.6554815486
 20
179.7417295342
 11
319.1767514068
 21
179.7417295342
  0
LINE
  5
71D
100
AcDbEntity
  8
0
100
AcDbLine
 62
2
  6
CONTINUOUS
 10
284.6768514068
 20
173.7417295342
 11
319.1767514068
 21
173.7417295342
  0
LINE
  5
71E
100
AcDbEntity
  8
0
100
AcDbLine
 62
2
  6
CONTINUOUS
 10
318.1767514068
 20
179.7417295342
 11
318.1767514068
 21
184.7417295342
  0
LINE
  5
71F
100
AcDbEntity
  8
0
100
AcDbLine
 62
2
  6
CONTINUOUS
 10
318.1767514068
 20
184.7417295342
 11
318.1767514068
 21
176.7417295342
  0
LINE
  5
720
100
AcDbEntity
  8
0
100
AcDbLine
 62
2
  6
CONTINUOUS
 10
318.1767514068
 20
173.7417295342
 11
318.1767514068
 21
168.7417295342
  0
LINE
  5
721
100
AcDbEntity
  8
0
100
AcDbLine
 62
2
  6
CONTINUOUS
 10
318.1767514068
 20
168.7417295342
 11
318.1767514068
 21
176.7417295342
  0
INSERT
  5
722
100
AcDbEntity
  8
0
100
AcDbBlockReference
 62
2
  6
CONTINUOUS
  2
_FILLED
 10
318.1767514068
 20
179.7417295342
 41
3.5
 42
3.5
 43
3.5
 50
270.0
  0
INSERT
  5
723
100
AcDbEntity
  8
0
100
AcDbBlockReference
 62
2
  6
CONTINUOUS
  2
_FILLED
 10
318.1767514068
 20
173.7417295342
 41
3.5
 42
3.5
 43
3.5
 50
90.0
  0
ENDBLK
  5
724
100
AcDbEntity
  8
0
  6
BYBLOCK
 62
0
100
AcDbBlockEnd
  0
BLOCK
  5
725
100
AcDbEntity
  8
0
100
AcDbBlockBegin
 62
2
  6
CONTINUOUS
  2
*D34
 70
65
 10
0.0
 20
0.0
  3
*D34
  1

  0
MTEXT
  5
726
100
AcDbEntity
  8
0
100
AcDbMText
 62
5
  6
CONTINUOUS
  7
STANDARD
 71
2
 72
1
 10
333.1767514068
 20
173.2417295342
 30
0.0
 11
0.0
 21
1.0
 31
0.0
 73
2
 44
0.9
  1
13
 40
4.0
 41
6.2388059701
  0
LINE
  5
727
100
AcDbEntity
  8
0
100
AcDbLine
 62
2
  6
CONTINUOUS
 10
274.0055713378
 20
179.7417295342
 11
306.6064764246
 21
179.7417295342
  0
LINE
  5
728
100
AcDbEntity
  8
0
100
AcDbLine
 62
2
  6
CONTINUOUS
 10
309.4144530537
 20
179.7417295342
 11
339.1767514068
 21
179.7417295342
  0
LINE
  5
729
100
AcDbEntity
  8
0
100
AcDbLine
 62
2
  6
CONTINUOUS
 10
275.6768514068
 20
166.7417295342
 11
339.1767514068
 21
166.7417295342
  0
LINE
  5
72A
100
AcDbEntity
  8
0
100
AcDbLine
 62
2
  6
CONTINUOUS
 10
338.1767514068
 20
179.7417295342
 11
338.1767514068
 21
173.2417295342
  0
LINE
  5
72B
100
AcDbEntity
  8
0
100
AcDbLine
 62
2
  6
CONTINUOUS
 10
338.1767514068
 20
166.7417295342
 11
338.1767514068
 21
173.2417295342
  0
INSERT
  5
72C
100
AcDbEntity
  8
0
100
AcDbBlockReference
 62
2
  6
CONTINUOUS
  2
_FILLED
 10
338.1767514068
 20
179.7417295342
 41
3.5
 42
3.5
 43
3.5
 50
90.0
  0
INSERT
  5
72D
100
AcDbEntity
  8
0
100
AcDbBlockReference
 62
2
  6
CONTINUOUS
  2
_FILLED
 10
338.1767514068
 20
166.7417295342
 41
3.5
 42
3.5
 43
3.5
 50
270.0
  0
ENDBLK
  5
72E
100
AcDbEntity
  8
0
  6
BYBLOCK
 62
0
100
AcDbBlockEnd
  0
BLOCK
  5
72F
100
AcDbEntity
  8
0
100
AcDbBlockBegin
 62
2
  6
CONTINUOUS
  2
*D35
 70
65
 10
0.0
 20
0.0
  3
*D35
  1

  0
MTEXT
  5
730
100
AcDbEntity
  8
0
100
AcDbMText
 62
5
  6
CONTINUOUS
  7
STANDARD
 71
3
 72
1
 10
323.1767514068
 20
162.5617083131
 30
0.0
 11
0.0
 21
1.0
 31
0.0
 73
2
 44
0.9
  1
0.6
 40
4.0
 41
7.7910447761
  0
LINE
  5
731
100
AcDbEntity
  8
0
100
AcDbLine
 62
2
  6
CONTINUOUS
 10
275.6768514068
 20
166.7417295342
 11
329.1767514068
 21
166.7417295342
  0
LINE
  5
732
100
AcDbEntity
  8
0
100
AcDbLine
 62
2
  6
CONTINUOUS
 10
275.6768514068
 20
167.3417295342
 11
329.1767514068
 21
167.3417295342
  0
LINE
  5
733
100
AcDbEntity
  8
0
100
AcDbLine
 62
2
  6
CONTINUOUS
 10
328.1767514068
 20
166.7417295342
 11
328.1767514068
 21
154.770663537
  0
LINE
  5
734
100
AcDbEntity
  8
0
100
AcDbLine
 62
2
  6
CONTINUOUS
 10
328.1767514068
 20
154.770663537
 11
328.1767514068
 21
167.0417295342
  0
LINE
  5
735
100
AcDbEntity
  8
0
100
AcDbLine
 62
2
  6
CONTINUOUS
 10
328.1767514068
 20
167.3417295342
 11
328.1767514068
 21
172.3417295342
  0
LINE
  5
736
100
AcDbEntity
  8
0
100
AcDbLine
 62
2
  6
CONTINUOUS
 10
328.1767514068
 20
172.3417295342
 11
328.1767514068
 21
167.0417295342
  0
INSERT
  5
737
100
AcDbEntity
  8
0
100
AcDbBlockReference
 62
2
  6
CONTINUOUS
  2
_FILLED
 10
328.1767514068
 20
166.7417295342
 41
3.5
 42
3.5
 43
3.5
 50
90.0
  0
INSERT
  5
738
100
AcDbEntity
  8
0
100
AcDbBlockReference
 62
2
  6
CONTINUOUS
  2
_FILLED
 10
328.1767514068
 20
167.3417295342
 41
3.5
 42
3.5
 43
3.5
 50
270.0
  0
ENDBLK
  5
739
100
AcDbEntity
  8
0
  6
BYBLOCK
 62
0
100
AcDbBlockEnd
  0
BLOCK
  5
73A
100
AcDbEntity
  8
0
100
AcDbBlockBegin
 62
2
  6
CONTINUOUS
  2
*D36
 70
65
 10
0.0
 20
0.0
  3
*D36
  1

  0
MTEXT
  5
73B
100
AcDbEntity
  8
0
100
AcDbMText
 62
5
  6
CONTINUOUS
  7
STANDARD
 71
2
 72
1
 10
250.6564276322
 20
141.3257669879
 30
0.0
 11
1.0
 21
0.0
 31
0.0
 73
2
 44
0.9
  1
5
 40
4.0
 41
3.1194029851
  0
LINE
  5
73C
100
AcDbEntity
  8
0
100
AcDbLine
 62
2
  6
CONTINUOUS
 10
248.1767514068
 20
166.7417295342
 11
248.1767514068
 21
135.3257669879
  0
LINE
  5
73D
100
AcDbEntity
  8
0
100
AcDbLine
 62
2
  6
CONTINUOUS
 10
253.1767514068
 20
166.7417295342
 11
253.1767514068
 21
135.3257669879
  0
LINE
  5
73E
100
AcDbEntity
  8
0
100
AcDbLine
 62
2
  6
CONTINUOUS
 10
248.1767514068
 20
136.3257669879
 11
243.1767514068
 21
136.3257669879
  0
LINE
  5
73F
100
AcDbEntity
  8
0
100
AcDbLine
 62
2
  6
CONTINUOUS
 10
243.1767514068
 20
136.3257669879
 11
250.6767514068
 21
136.3257669879
  0
LINE
  5
740
100
AcDbEntity
  8
0
100
AcDbLine
 62
2
  6
CONTINUOUS
 10
253.1767514068
 20
136.3257669879
 11
258.1767514068
 21
136.3257669879
  0
LINE
  5
741
100
AcDbEntity
  8
0
100
AcDbLine
 62
2
  6
CONTINUOUS
 10
258.1767514068
 20
136.3257669879
 11
250.6767514068
 21
136.3257669879
  0
INSERT
  5
742
100
AcDbEntity
  8
0
100
AcDbBlockReference
 62
2
  6
CONTINUOUS
  2
_FILLED
 10
248.1767514068
 20
136.3257669879
 41
3.5
 42
3.5
 43
3.5
  0
INSERT
  5
743
100
AcDbEntity
  8
0
100
AcDbBlockReference
 62
2
  6
CONTINUOUS
  2
_FILLED
 10
253.1767514068
 20
136.3257669879
 41
3.5
 42
3.5
 43
3.5
 50
180.0
  0
ENDBLK
  5
744
100
AcDbEntity
  8
0
  6
BYBLOCK
 62
0
100
AcDbBlockEnd
  0
BLOCK
  5
745
100
AcDbEntity
  8
0
100
AcDbBlockBegin
 62
2
  6
CONTINUOUS
  2
*D37
 70
65
 10
0.0
 20
0.0
  3
*D37
  1

  0
MTEXT
  5
746
100
AcDbEntity
  8
0
100
AcDbMText
 62
5
  6
CONTINUOUS
  7
STANDARD
 71
2
 72
1
 10
223.1267514068
 20
106.7696926196
 30
0.0
 11
1.0
 21
0.0
 31
0.0
 73
2
 44
0.9
  1
55
 40
4.0
 41
6.2388059701
  0
LINE
  5
747
100
AcDbEntity
  8
0
100
AcDbLine
 62
2
  6
CONTINUOUS
 10
195.5767514068
 20
116.7417295342
 11
195.5767514068
 21
100.7696926196
  0
LINE
  5
748
100
AcDbEntity
  8
0
100
AcDbLine
 62
2
  6
CONTINUOUS
 10
250.6767514068
 20
161.7416295342
 11
250.6767514068
 21
142.8362428062
  0
LINE
  5
749
100
AcDbEntity
  8
0
100
AcDbLine
 62
2
  6
CONTINUOUS
 10
250.6767514068
 20
134.7187973463
 11
250.6767514068
 21
100.7696926196
  0
LINE
  5
74A
100
AcDbEntity
  8
0
100
AcDbLine
 62
2
  6
CONTINUOUS
 10
195.5767514068
 20
101.7696926196
 11
223.1267514068
 21
101.7696926196
  0
LINE
  5
74B
100
AcDbEntity
  8
0
100
AcDbLine
 62
2
  6
CONTINUOUS
 10
250.6767514068
 20
101.7696926196
 11
223.1267514068
 21
101.7696926196
  0
INSERT
  5
74C
100
AcDbEntity
  8
0
100
AcDbBlockReference
 62
2
  6
CONTINUOUS
  2
_FILLED
 10
195.5767514068
 20
101.7696926196
 41
3.5
 42
3.5
 43
3.5
 50
180.0
  0
INSERT
  5
74D
100
AcDbEntity
  8
0
100
AcDbBlockReference
 62
2
  6
CONTINUOUS
  2
_FILLED
 10
250.6767514068
 20
101.7696926196
 41
3.5
 42
3.5
 43
3.5
  0
ENDBLK
  5
74E
100
AcDbEntity
  8
0
  6
BYBLOCK
 62
0
100
AcDbBlockEnd
  0
BLOCK
  5
74F
100
AcDbEntity
  8
0
100
AcDbBlockBegin
 62
2
  6
CONTINUOUS
  2
*D38
 70
65
 10
0.0
 20
0.0
  3
*D38
  1

  0
MTEXT
  5
750
100
AcDbEntity
  8
0
100
AcDbMText
 62
5
  6
CONTINUOUS
  7
STANDARD
 71
2
 72
1
 10
260.6767514068
 20
106.7696926196
 30
0.0
 11
1.0
 21
0.0
 31
0.0
 73
2
 44
0.9
  1
20
 40
4.0
 41
6.2388059701
  0
LINE
  5
751
100
AcDbEntity
  8
0
100
AcDbLine
 62
2
  6
CONTINUOUS
 10
250.6767514068
 20
161.7416295342
 11
250.6767514068
 21
142.7450355539
  0
LINE
  5
752
100
AcDbEntity
  8
0
100
AcDbLine
 62
2
  6
CONTINUOUS
 10
250.6767514068
 20
134.5363828416
 11
250.6767514068
 21
100.7696926196
  0
LINE
  5
753
100
AcDbEntity
  8
0
100
AcDbLine
 62
2
  6
CONTINUOUS
 10
270.6767514068
 20
162.3416295342
 11
270.6767514068
 21
100.7696926196
  0
LINE
  5
754
100
AcDbEntity
  8
0
100
AcDbLine
 62
2
  6
CONTINUOUS
 10
250.6767514068
 20
101.7696926196
 11
260.6767514068
 21
101.7696926196
  0
LINE
  5
755
100
AcDbEntity
  8
0
100
AcDbLine
 62
2
  6
CONTINUOUS
 10
270.6767514068
 20
101.7696926196
 11
260.6767514068
 21
101.7696926196
  0
INSERT
  5
756
100
AcDbEntity
  8
0
100
AcDbBlockReference
 62
2
  6
CONTINUOUS
  2
_FILLED
 10
250.6767514068
 20
101.7696926196
 41
3.5
 42
3.5
 43
3.5
 50
180.0
  0
INSERT
  5
757
100
AcDbEntity
  8
0
100
AcDbBlockReference
 62
2
  6
CONTINUOUS
  2
_FILLED
 10
270.6767514068
 20
101.7696926196
 41
3.5
 42
3.5
 43
3.5
  0
ENDBLK
  5
758
100
AcDbEntity
  8
0
  6
BYBLOCK
 62
0
100
AcDbBlockEnd
  0
BLOCK
  5
759
100
AcDbEntity
  8
0
100
AcDbBlockBegin
 62
2
  6
CONTINUOUS
  2
*D39
 70
65
 10
0.0
 20
0.0
  3
*D39
  1

  0
MTEXT
  5
75A
100
AcDbEntity
  8
0
100
AcDbMText
 62
5
  6
CONTINUOUS
  7
STANDARD
 71
2
 72
1
 10
441.6429798151
 20
222.3417295342
 30
0.0
 11
0.0
 21
1.0
 31
0.0
 73
2
 44
0.9
  1
119
 40
4.0
 41
9.3582089552
  0
LINE
  5
75B
100
AcDbEntity
  8
0
100
AcDbLine
 62
2
  6
CONTINUOUS
 10
430.1567669885
 20
281.9417295342
 11
447.6429798151
 21
281.9417295342
  0
LINE
  5
75C
100
AcDbEntity
  8
0
100
AcDbLine
 62
2
  6
CONTINUOUS
 10
430.0929798151
 20
162.7417295342
 11
447.6429798151
 21
162.7417295342
  0
LINE
  5
75D
100
AcDbEntity
  8
0
100
AcDbLine
 62
2
  6
CONTINUOUS
 10
446.6429798151
 20
281.9417295342
 11
446.6429798151
 21
222.3417295342
  0
LINE
  5
75E
100
AcDbEntity
  8
0
100
AcDbLine
 62
2
  6
CONTINUOUS
 10
446.6429798151
 20
162.7417295342
 11
446.6429798151
 21
222.3417295342
  0
INSERT
  5
75F
100
AcDbEntity
  8
0
100
AcDbBlockReference
 62
2
  6
CONTINUOUS
  2
_FILLED
 10
446.6429798151
 20
281.9417295342
 41
3.5
 42
3.5
 43
3.5
 50
90.0
  0
INSERT
  5
760
100
AcDbEntity
  8
0
100
AcDbBlockReference
 62
2
  6
CONTINUOUS
  2
_FILLED
 10
446.6429798151
 20
162.7417295342
 41
3.5
 42
3.5
 43
3.5
 50
270.0
  0
ENDBLK
  5
761
100
AcDbEntity
  8
0
  6
BYBLOCK
 62
0
100
AcDbBlockEnd
  0
BLOCK
  5
762
100
AcDbEntity
  8
0
100
AcDbBlockBegin
 62
2
  6
CONTINUOUS
  2
*D40
 70
65
 10
0.0
 20
0.0
  3
*D40
  1

  0
MTEXT
  5
763
100
AcDbEntity
  8
0
100
AcDbMText
 62
5
  6
CONTINUOUS
  7
STANDARD
 71
3
 72
1
 10
407.1073589942
 20
153.2907662685
 30
0.0
 11
1.0
 21
0.0
 31
0.0
 73
2
 44
0.9
  1
1.65
 40
4.0
 41
10.9104477612
  0
LINE
  5
764
100
AcDbEntity
  8
0
100
AcDbLine
 62
2
  6
CONTINUOUS
 10
421.6429798151
 20
139.8417295342
 11
421.6429798151
 21
149.2907662685
  0
LINE
  5
765
100
AcDbEntity
  8
0
100
AcDbLine
 62
2
  6
CONTINUOUS
 10
419.9929798151
 20
152.6417295342
 11
419.9929798151
 21
147.2907662685
  0
LINE
  5
766
100
AcDbEntity
  8
0
100
AcDbLine
 62
2
  6
CONTINUOUS
 10
421.6429798151
 20
148.2907662685
 11
426.6429798151
 21
148.2907662685
  0
LINE
  5
767
100
AcDbEntity
  8
0
100
AcDbLine
 62
2
  6
CONTINUOUS
 10
426.6429798151
 20
148.2907662685
 11
420.8179798151
 21
148.2907662685
  0
LINE
  5
768
100
AcDbEntity
  8
0
100
AcDbLine
 62
2
  6
CONTINUOUS
 10
419.9929798151
 20
148.2907662685
 11
396.196911233
 21
148.2907662685
  0
LINE
  5
769
100
AcDbEntity
  8
0
100
AcDbLine
 62
2
  6
CONTINUOUS
 10
396.196911233
 20
148.2907662685
 11
420.8179798151
 21
148.2907662685
  0
INSERT
  5
76A
100
AcDbEntity
  8
0
100
AcDbBlockReference
 62
2
  6
CONTINUOUS
  2
_FILLED
 10
421.6429798151
 20
148.2907662685
 41
3.5
 42
3.5
 43
3.5
 50
180.0
  0
INSERT
  5
76B
100
AcDbEntity
  8
0
100
AcDbBlockReference
 62
2
  6
CONTINUOUS
  2
_FILLED
 10
419.9929798151
 20
148.2907662685
 41
3.5
 42
3.5
 43
3.5
  0
ENDBLK
  5
76C
100
AcDbEntity
  8
0
  6
BYBLOCK
 62
0
100
AcDbBlockEnd
  0
BLOCK
  5
76D
100
AcDbEntity
  8
0
100
AcDbBlockBegin
 62
2
  6
CONTINUOUS
  2
*D41
 70
65
 10
0.0
 20
0.0
  3
*D41
  1

  0
MTEXT
  5
76E
100
AcDbEntity
  8
0
100
AcDbMText
 62
5
  6
CONTINUOUS
  7
STANDARD
 71
1
 72
1
 10
303.1767514068
 20
56.6772779315
 30
0.0
 11
0.0
 21
1.0
 31
0.0
 73
2
 44
0.9
  1
2
 40
4.0
 41
3.1194029851
  0
LINE
  5
76F
100
AcDbEntity
  8
0
100
AcDbLine
 62
2
  6
CONTINUOUS
 10
198.5767514068
 20
51.1651521433
 11
309.1767514068
 21
51.1651521433
  0
LINE
  5
770
100
AcDbEntity
  8
0
100
AcDbLine
 62
2
  6
CONTINUOUS
 10
289.1767514068
 20
49.4651521433
 11
309.1767514068
 21
49.4651521433
  0
LINE
  5
771
100
AcDbEntity
  8
0
100
AcDbLine
 62
2
  6
CONTINUOUS
 10
308.1767514068
 20
51.1651521433
 11
308.1767514068
 21
59.7966809166
  0
LINE
  5
772
100
AcDbEntity
  8
0
100
AcDbLine
 62
2
  6
CONTINUOUS
 10
308.1767514068
 20
59.7966809166
 11
308.1767514068
 21
50.3151521433
  0
LINE
  5
773
100
AcDbEntity
  8
0
100
AcDbLine
 62
2
  6
CONTINUOUS
 10
308.1767514068
 20
49.4651521433
 11
308.1767514068
 21
44.4651521433
  0
LINE
  5
774
100
AcDbEntity
  8
0
100
AcDbLine
 62
2
  6
CONTINUOUS
 10
308.1767514068
 20
44.4651521433
 11
308.1767514068
 21
50.3151521433
  0
INSERT
  5
775
100
AcDbEntity
  8
0
100
AcDbBlockReference
 62
2
  6
CONTINUOUS
  2
_FILLED
 10
308.1767514068
 20
51.1651521433
 41
3.5
 42
3.5
 43
3.5
 50
270.0
  0
INSERT
  5
776
100
AcDbEntity
  8
0
100
AcDbBlockReference
 62
2
  6
CONTINUOUS
  2
_FILLED
 10
308.1767514068
 20
49.4651521433
 41
3.5
 42
3.5
 43
3.5
 50
90.0
  0
ENDBLK
  5
777
100
AcDbEntity
  8
0
  6
BYBLOCK
 62
0
100
AcDbBlockEnd
  0
BLOCK
  5
778
100
AcDbEntity
  8
0
100
AcDbBlockBegin
  2
*T1
 70
1
 10
0.0
 20
0.0
  3
*T1
  1

  0
LINE
  5
779
100
AcDbEntity
  8
0
100
AcDbLine
 62
2
  6
CONTINUOUS
 10
0.0
 20
0.0
 11
42.0
 21
0.0
  0
LINE
  5
77A
100
AcDbEntity
  8
0
100
AcDbLine
 62
2
  6
CONTINUOUS
 10
0.0
 20
0.0
 11
0.0
 21
-50.0
  0
LINE
  5
77B
100
AcDbEntity
  8
0
100
AcDbLine
 62
2
  6
CONTINUOUS
 10
0.0
 20
-20.0
 11
42.0
 21
-20.0
  0
LINE
  5
77C
100
AcDbEntity
  8
0
100
AcDbLine
 62
2
  6
CONTINUOUS
 10
0.0
 20
-32.0
 11
42.0
 21
-32.0
  0
LINE
  5
77D
100
AcDbEntity
  8
0
100
AcDbLine
 62
2
  6
CONTINUOUS
 10
0.0
 20
-41.0
 11
42.0
 21
-41.0
  0
LINE
  5
77E
100
AcDbEntity
  8
0
100
AcDbLine
 62
2
  6
CONTINUOUS
 10
0.0
 20
-50.0
 11
42.0
 21
-50.0
  0
LINE
  5
77F
100
AcDbEntity
  8
0
100
AcDbLine
 62
2
  6
CONTINUOUS
 10
9.5
 20
-41.0
 11
9.5
 21
-50.0
  0
LINE
  5
780
100
AcDbEntity
  8
0
100
AcDbLine
 62
2
  6
CONTINUOUS
 10
29.5
 20
-41.0
 11
29.5
 21
-50.0
  0
LINE
  5
781
100
AcDbEntity
  8
0
100
AcDbLine
 62
2
  6
CONTINUOUS
 10
42.0
 20
0.0
 11
42.0
 21
-50.0
  0
MTEXT
  5
782
100
AcDbEntity
  8
0
100
AcDbMText
 62
5
  6
CONTINUOUS
  7
STANDARD
 71
2
 72
1
 10
21.0
 20
-24.5
 30
0.0
 11
1.0
 21
0.0
 31
0.0
 73
2
 44
0.9
  1
B-12060-88-L_BD01
 40
3.0
 41
76.6567164179
  0
MTEXT
  5
783
100
AcDbEntity
  8
0
100
AcDbMText
 62
5
  6
CONTINUOUS
  7
STANDARD
 71
1
 72
1
 10
1.4
 20
-33.75
 30
0.0
 11
1.0
 21
0.0
 31
0.0
 73
2
 44
0.9
  1
Scale\P1:1 
 40
2.5
 41
17.5186567164
  0
MTEXT
  5
784
100
AcDbEntity
  8
0
100
AcDbMText
 62
5
  6
CONTINUOUS
  7
STANDARD
 71
2
 72
1
 10
4.75
 20
-44.25
 30
0.0
 11
1.0
 21
0.0
 31
0.0
 73
2
 44
0.9
  1
Draft
 40
2.5
 41
15.1679104478
  0
MTEXT
  5
785
100
AcDbEntity
  8
0
100
AcDbMText
 62
5
  6
CONTINUOUS
  7
STANDARD
 71
2
 72
1
 10
19.5
 20
-44.25
 30
0.0
 11
1.0
 21
0.0
 31
0.0
 73
2
 44
0.9
  1
27.09.2019
 40
2.5
 41
35.0746268657
  0
MTEXT
  5
786
100
AcDbEntity
  8
0
100
AcDbMText
 62
5
  6
CONTINUOUS
  7
STANDARD
 71
2
 72
1
 10
35.75
 20
-44.25
 30
0.0
 11
1.0
 21
0.0
 31
0.0
 73
2
 44
0.9
  1
EB-RT
 40
2.5
 41
20.9888059701
  0
ENDBLK
  5
787
100
AcDbEntity
  8
0
  6
BYBLOCK
 62
0
100
AcDbBlockEnd
  0
ENDSEC
  0
SECTION
  2
ENTITIES
  0
INSERT
  5
788
100
AcDbEntity
  8
Grp_symbol_75_BL0
100
AcDbBlockReference
  2
GRP_SYMBOL_75_BL0
 10
46.0313322015
 20
45.3702309773
  0
DIMENSION
  5
789
100
AcDbEntity
  8
0
100
AcDbDimension
 62
2
  6
CONTINUOUS
  2
*D0
 10
279.6767514068
 20
91.7696926196
 11
260.68090979
 21
91.7696926196
 70
160
 71
2
 72
2
 41
0.9
 42
38.0
  3
DIMSTYLE_1
100
AcDbAlignedDimension
 13
241.6767514068
 23
168.7416295342
 14
279.6767514068
 24
168.7416295342
100
AcDbRotatedDimension
  0
DIMENSION
  5
78A
100
AcDbEntity
  8
0
100
AcDbDimension
 62
2
  6
CONTINUOUS
  2
*D1
 10
293.1767514068
 20
81.7696926196
 11
276.9364572144
 21
81.7696926196
 70
160
 71
2
 72
2
 41
0.9
 42
32.5
  3
DIMSTYLE_1
100
AcDbAlignedDimension
 13
260.6767514068
 23
148.7728528334
 14
293.1767514068
 24
166.0417295342
100
AcDbRotatedDimension
  0
DIMENSION
  5
78B
100
AcDbEntity
  8
0
100
AcDbDimension
 62
2
  6
CONTINUOUS
  2
*D2
 10
160.3231177456
 20
266.0417295342
 11
160.3231177456
 21
281.9734947532
 70
160
 71
2
 72
2
 41
0.9
 42
31.9
  3
DIMSTYLE_2
100
AcDbAlignedDimension
 13
185.2113667915
 23
297.9417295342
 14
185.2113667915
 24
266.0417295342
 50
270.0
100
AcDbRotatedDimension
  0
DIMENSION
  5
78C
100
AcDbEntity
  8
0
100
AcDbDimension
 62
2
  6
CONTINUOUS
  2
*D3
 10
160.3231177456
 20
181.2917295342
 11
160.3231177456
 21
198.6533506492
 70
160
 71
2
 72
2
 41
0.9
 42
34.7
  3
DIMSTYLE_2
100
AcDbAlignedDimension
 13
175.690799261
 23
215.9917295342
 14
175.690799261
 24
181.2917295342
 50
270.0
100
AcDbRotatedDimension
  0
DIMENSION
  5
78D
100
AcDbEntity
  8
0
100
AcDbDimension
 62
2
  6
CONTINUOUS
  2
*D4
 10
338.1767514068
 20
179.7417295342
 11
338.1767514068
 21
216.7384189533
 70
160
 71
2
 72
2
 41
0.9
 42
74.0
  3
DIMSTYLE_1
100
AcDbAlignedDimension
 13
241.6767514068
 23
253.7417295342
 14
274.0055713378
 24
179.7417295342
 50
270.0
100
AcDbRotatedDimension
  0
DIMENSION
  5
78E
100
AcDbEntity
  8
0
100
AcDbDimension
 62
2
  6
CONTINUOUS
  2
*D5
 10
308.1767514068
 20
175.7417295342
 11
308.1767514068
 21
185.6261647648
 70
160
 71
1
 72
2
 41
0.9
 42
2.0
  3
DIMSTYLE_3
100
AcDbAlignedDimension
 13
284.6768514068
 23
173.7417295342
 14
284.6768514068
 24
175.7417295342
 50
90.0
100
AcDbRotatedDimension
  0
DIMENSION
  5
78F
100
AcDbEntity
  8
0
100
AcDbDimension
 62
2
  6
CONTINUOUS
  2
*D6
 10
349.1014527978
 20
151.7417295342
 11
349.1014527978
 21
234.436608538
 70
160
 71
2
 72
2
 41
0.9
 42
165.0
  3
DIMSTYLE_4
100
AcDbAlignedDimension
 13
283.8887685539
 23
316.7417295342
 14
283.8887685539
 24
151.7417295342
 50
270.0
100
AcDbRotatedDimension
  0
DIMENSION
  5
790
100
AcDbEntity
  8
0
100
AcDbDimension
 62
2
  6
CONTINUOUS
  2
*D7
 10
195.5767514068
 20
166.9377140528
 11
185.3861347046
 21
166.9377140528
 70
160
 71
2
 72
2
 41
0.9
 42
20.3
  3
DIMSTYLE_5
100
AcDbAlignedDimension
 13
175.2767514068
 23
181.2917295342
 14
195.5767514068
 24
126.7417299649
100
AcDbRotatedDimension
  0
DIMENSION
  5
791
100
AcDbEntity
  8
0
100
AcDbDimension
 62
2
  6
CONTINUOUS
  2
*D8
 10
279.6767514068
 20
287.8947182259
 11
260.68090979
 21
287.8947182259
 70
160
 71
2
 72
2
 41
0.9
 42
38.0
  3
DIMSTYLE_1
100
AcDbAlignedDimension
 13
241.6767514068
 23
262.7417295342
 14
279.6767514068
 24
262.7417295342
100
AcDbRotatedDimension
  0
DIMENSION
  5
792
100
AcDbEntity
  8
0
100
AcDbDimension
 62
2
  6
CONTINUOUS
  2
*D9
 10
328.1767514068
 20
253.7417295342
 11
328.1767514068
 21
276.6638033527
 70
160
 71
2
 72
2
 41
0.9
 42
46.0
  3
DIMSTYLE_1
100
AcDbAlignedDimension
 13
269.6767514068
 23
299.7417295342
 14
314.8998113272
 24
253.7417295342
 50
270.0
100
AcDbRotatedDimension
  0
DIMENSION
  5
793
100
AcDbEntity
  8
0
100
AcDbDimension
 62
2
  6
CONTINUOUS
  2
*D10
 10
260.6767514068
 20
81.7696926196
 11
227.3506320039
 21
81.7696926196
 70
160
 71
2
 72
2
 41
0.9
 42
65.1
  1
<> 
  3
DIMSTYLE_2
100
AcDbAlignedDimension
 13
195.5767514068
 23
118.2032619251
 14
260.6767514068
 24
148.7211981514
100
AcDbRotatedDimension
  0
DIMENSION
  5
794
100
AcDbEntity
  8
0
100
AcDbDimension
 62
2
  6
CONTINUOUS
  2
*D11
 10
431.6429798151
 20
361.7137664334
 11
421.6023583374
 21
361.7137664334
 70
160
 71
2
 72
2
 41
0.9
 42
20.0
  3
DIMSTYLE_6
100
AcDbAlignedDimension
 13
411.6429798151
 23
341.7417295342
 14
431.6429798151
 24
341.7417295342
100
AcDbRotatedDimension
  0
DIMENSION
  5
795
100
AcDbEntity
  8
0
100
AcDbDimension
 62
2
  6
CONTINUOUS
  2
*D12
 10
195.5767514068
 20
309.1343473424
 11
189.6450864258
 21
309.1343473424
 70
160
 71
2
 72
2
 41
0.9
 42
12.2
  3
DIMSTYLE_5
100
AcDbAlignedDimension
 13
183.3767514068
 23
297.9417295342
 14
195.5767514068
 24
341.7417295342
100
AcDbRotatedDimension
  0
DIMENSION
  5
796
100
AcDbEntity
  8
0
100
AcDbDimension
 62
2
  6
CONTINUOUS
  2
*D13
 10
328.1767514068
 20
253.7417295342
 11
328.1767514068
 21
243.0042946456
 70
160
 71
2
 72
2
 41
0.9
 42
21.4196421026
  3
DIMSTYLE_6
100
AcDbAlignedDimension
 13
267.0385153154
 23
232.3220874316
 14
314.6098619843
 24
253.7417295342
 50
90.0
100
AcDbRotatedDimension
  0
DIMENSION
  5
797
100
AcDbEntity
  8
0
100
AcDbDimension
 62
2
  6
CONTINUOUS
  2
*D14
 10
198.5767514068
 20
366.7137664334
 11
206.2689743958
 21
366.7137664334
 70
160
 71
1
 72
2
 41
0.9
 42
3.0
  3
DIMSTYLE_3
100
AcDbAlignedDimension
 13
195.5767514068
 23
117.0362446946
 14
198.5767514068
 24
117.9800902118
 50
360.0
100
AcDbRotatedDimension
  0
DIMENSION
  5
798
100
AcDbEntity
  8
0
100
AcDbDimension
 62
2
  6
CONTINUOUS
  2
*D15
 10
427.1429798151
 20
317.1679183121
 11
421.2613086548
 21
317.1679183121
 70
160
 71
2
 72
2
 41
0.9
 42
12.1
  3
DIMSTYLE_5
100
AcDbAlignedDimension
 13
415.0429798151
 23
296.2196428183
 14
427.1429798151
 24
285.3141628459
100
AcDbRotatedDimension
  0
DIMENSION
  5
799
100
AcDbEntity
  8
0
100
AcDbDimension
 62
2
  6
CONTINUOUS
  2
*D16
 10
415.0429798151
 20
309.5928000899
 11
403.7115888062
 21
309.5928000899
 70
160
 71
3
 72
2
 41
0.9
 42
3.4
  3
DIMSTYLE_7
100
AcDbAlignedDimension
 13
411.6429798151
 23
341.7417295342
 14
415.0429798151
 24
296.2196428183
100
AcDbRotatedDimension
  0
DIMENSION
  5
79A
100
AcDbEntity
  8
0
100
AcDbDimension
 62
2
  6
CONTINUOUS
  2
*D17
 10
424.2429798151
 20
236.6878814465
 11
420.1179746704
 21
236.6878814465
 70
160
 71
2
 72
2
 41
0.9
 42
8.25
  3
DIMSTYLE_5
100
AcDbAlignedDimension
 13
415.9929798151
 23
215.4917295342
 14
424.2429798151
 24
214.3196428183
100
AcDbRotatedDimension
  0
DIMENSION
  5
79B
100
AcDbEntity
  8
0
100
AcDbDimension
 62
2
  6
CONTINUOUS
  2
*D18
 10
415.9929798151
 20
227.3825425929
 11
404.901637207
 21
227.3825425929
 70
160
 71
3
 72
2
 41
0.9
 42
4.35
  3
DIMSTYLE_7
100
AcDbAlignedDimension
 13
411.6429798151
 23
341.7417295342
 14
415.9929798151
 24
215.4917295342
100
AcDbRotatedDimension
  0
DIMENSION
  5
79C
100
AcDbEntity
  8
0
100
AcDbDimension
 62
2
  6
CONTINUOUS
  2
*D19
 10
150.3231177456
 20
281.9917295342
 11
150.3231177456
 21
267.833577349
 70
160
 71
2
 72
2
 41
0.9
 42
28.25
  3
DIMSTYLE_5
100
AcDbAlignedDimension
 13
192.9053974486
 23
253.7417295342
 14
178.3767514068
 24
281.9917295342
 50
90.0
100
AcDbRotatedDimension
  0
DIMENSION
  5
79D
100
AcDbEntity
  8
0
100
AcDbDimension
 62
2
  6
CONTINUOUS
  2
*D20
 10
140.3231177456
 20
198.6417295342
 11
140.3231177456
 21
240.3134211295
 70
160
 71
2
 72
2
 41
0.9
 42
83.35
  3
DIMSTYLE_2
100
AcDbAlignedDimension
 13
150.3231177456
 23
281.9917295342
 14
170.2633694994
 24
198.6417295342
 50
270.0
100
AcDbRotatedDimension
  0
DIMENSION
  5
79E
100
AcDbEntity
  8
0
100
AcDbDimension
 62
2
  6
CONTINUOUS
  2
*D21
 10
264.6767514068
 20
307.4104987245
 11
260.6767514068
 21
307.4104987245
 70
160
 71
2
 72
2
 41
0.9
 42
8.0
  1
%%c<>
  3
DIMSTYLE_6
100
AcDbAlignedDimension
 13
256.6767514068
 23
299.7417295342
 14
264.6767514068
 24
299.7417295342
100
AcDbRotatedDimension
  0
DIMENSION
  5
79F
100
AcDbEntity
  8
0
100
AcDbDimension
 62
2
  6
CONTINUOUS
  2
*D22
 10
235.2904992358
 20
227.2417295342
 11
235.2904992358
 21
232.2417295342
 70
160
 71
2
 72
2
 41
0.9
 42
10.0
  1
%%c<>
  3
DIMSTYLE_6
100
AcDbAlignedDimension
 13
260.6767514068
 23
237.2417295342
 14
260.6767514068
 24
227.2417295342
 50
270.0
100
AcDbRotatedDimension
  0
DIMENSION
  5
7A0
100
AcDbEntity
  8
0
100
AcDbDimension
 62
2
  6
CONTINUOUS
  2
*D23
 10
226.6409434298
 20
257.7417295342
 11
226.6409434298
 21
253.7417295342
 70
160
 71
2
 72
2
 41
0.9
 42
8.0
  1
%%c<>
  3
DIMSTYLE_6
100
AcDbAlignedDimension
 13
241.6767514068
 23
249.7417295342
 14
241.6767514068
 24
257.7417295342
 50
90.0
100
AcDbRotatedDimension
  0
DIMENSION
  5
7A1
100
AcDbEntity
  8
0
100
AcDbDimension
 62
2
  6
CONTINUOUS
  2
*D24
 10
265.2067514068
 20
278.791978834
 11
260.6767514068
 21
278.791978834
 70
160
 71
2
 72
2
 41
0.9
 42
9.06
  1
{\fgdt;o}<>
  3
DIMSTYLE_5
100
AcDbAlignedDimension
 13
256.1467514068
 23
256.5330543996
 14
265.2067514068
 24
258.2717295342
100
AcDbRotatedDimension
  0
DIMENSION
  5
7A2
100
AcDbEntity
  8
0
100
AcDbDimension
 62
2
  6
CONTINUOUS
  2
*D25
 10
245.6767514068
 20
186.5073728266
 11
230.5968618164
 21
186.5073728266
 70
160
 71
3
 72
2
 41
0.9
 42
8.0
  3
DIMSTYLE_6
100
AcDbAlignedDimension
 13
237.6767514068
 23
175.7417295342
 14
245.6767514068
 24
175.7417295342
100
AcDbRotatedDimension
  0
DIMENSION
  5
7A3
100
AcDbEntity
  8
0
100
AcDbDimension
 62
2
  6
CONTINUOUS
  2
*D26
 10
308.1767514068
 20
36.1651521433
 11
308.1767514068
 21
43.0054875857
 70
160
 71
2
 72
2
 41
0.9
 42
13.2992018366
  3
DIMSTYLE_5
100
AcDbAlignedDimension
 13
285.0767514068
 23
49.4643539799
 14
283.9203131652
 24
36.1651521433
 50
270.0
100
AcDbRotatedDimension
  0
DIMENSION
  5
7A4
100
AcDbEntity
  8
0
100
AcDbDimension
 62
2
  6
CONTINUOUS
  2
*D27
 10
456.6429798151
 20
116.7417295342
 11
456.6429798151
 21
123.4324460993
 70
160
 71
2
 72
2
 41
0.9
 42
13.0
  3
DIMSTYLE_6
100
AcDbAlignedDimension
 13
431.7429798151
 23
129.7417295342
 14
421.6429798151
 24
116.7417295342
 50
270.0
100
AcDbRotatedDimension
  0
DIMENSION
  5
7A5
100
AcDbEntity
  8
0
100
AcDbDimension
 62
2
  6
CONTINUOUS
  2
*D28
 10
456.6429798151
 20
129.7417295342
 11
456.6429798151
 21
206.0067612083
 70
160
 71
2
 72
2
 41
0.9
 42
152.2
  3
DIMSTYLE_8
100
AcDbAlignedDimension
 13
430.1567669885
 23
281.9417295342
 14
431.7429798151
 24
129.7417295342
 50
270.0
100
AcDbRotatedDimension
  0
DIMENSION
  5
7A6
100
AcDbEntity
  8
0
100
AcDbDimension
 62
2
  6
CONTINUOUS
  2
*D29
 10
391.6429798151
 20
351.7417295342
 11
391.6429798151
 21
234.212741494
 70
160
 71
2
 72
2
 41
0.9
 42
235.0
  3
DIMSTYLE_4
100
AcDbAlignedDimension
 13
421.6429798151
 23
116.7417295342
 14
421.6429798151
 24
351.7417295342
 50
90.0
100
AcDbRotatedDimension
  0
DIMENSION
  5
7A7
100
AcDbEntity
  8
0
100
AcDbDimension
 62
2
  6
CONTINUOUS
  2
*D30
 10
456.6429798151
 20
281.9417295342
 11
456.6429798151
 21
310.3309777155
 70
160
 71
2
 72
2
 41
0.9
 42
56.8
  3
DIMSTYLE_2
100
AcDbAlignedDimension
 13
431.7429798151
 23
338.7417295342
 14
430.1567669885
 24
281.9417295342
 50
270.0
100
AcDbRotatedDimension
  0
DIMENSION
  5
7A8
100
AcDbEntity
  8
0
100
AcDbDimension
 62
2
  6
CONTINUOUS
  2
*D31
 10
338.1767514068
 20
253.7417295342
 11
338.1767514068
 21
285.2384370807
 70
160
 71
2
 72
2
 41
0.9
 42
63.0
  3
DIMSTYLE_1
100
AcDbAlignedDimension
 13
283.8887685539
 23
316.7417295342
 14
314.8031615463
 24
253.7417295342
 50
270.0
100
AcDbRotatedDimension
  0
DIMENSION
  5
7A9
100
AcDbEntity
  8
0
100
AcDbDimension
 62
2
  6
CONTINUOUS
  2
*D32
 10
270.6767514068
 20
253.7417295342
 11
311.9094691567
 21
242.3621389485
 70
162
 71
2
 72
2
 41
0.9
 42
0.4188790205
  1
<>\PDrehwinkel
  3
DIMSTYLE_9
100
AcDb2LineAngularDimension
 13
260.0701742634
 23
254.0117950783
 14
260.5496147609
 24
253.7983344159
 15
270.1519384449
 25
253.7417295342
 16
312.0112053599
 26
242.8302545067
  0
DIMENSION
  5
7AA
100
AcDbEntity
  8
0
100
AcDbDimension
 62
2
  6
CONTINUOUS
  2
*D33
 10
318.1767514068
 20
173.7417295342
 11
318.1767514068
 21
176.7417284781
 70
160
 71
2
 72
2
 41
0.9
 42
6.0
  3
DIMSTYLE_3
100
AcDbAlignedDimension
 13
274.0055713378
 23
179.7417295342
 14
284.6768514068
 24
173.7417295342
 50
270.0
100
AcDbRotatedDimension
  0
DIMENSION
  5
7AB
100
AcDbEntity
  8
0
100
AcDbDimension
 62
2
  6
CONTINUOUS
  2
*D34
 10
338.1767514068
 20
166.7417295342
 11
338.1767514068
 21
173.4324550861
 70
160
 71
2
 72
2
 41
0.9
 42
13.0
  3
DIMSTYLE_6
100
AcDbAlignedDimension
 13
274.0055713378
 23
179.7417295342
 14
275.6768514068
 24
166.7417295342
 50
270.0
100
AcDbRotatedDimension
  0
DIMENSION
  5
7AC
100
AcDbEntity
  8
0
100
AcDbDimension
 62
2
  6
CONTINUOUS
  2
*D35
 10
328.1767514068
 20
167.3417295342
 11
328.1767514068
 21
158.6717436121
 70
160
 71
3
 72
2
 41
0.9
 42
0.6
  3
DIMSTYLE_3
100
AcDbAlignedDimension
 13
275.6768514068
 23
166.7417295342
 14
275.6768514068
 24
167.3417295342
 50
90.0
100
AcDbRotatedDimension
  0
DIMENSION
  5
7AD
100
AcDbEntity
  8
0
100
AcDbDimension
 62
2
  6
CONTINUOUS
  2
*D36
 10
253.1767514068
 20
136.3257669879
 11
250.6638850708
 21
136.3257669879
 70
160
 71
2
 72
2
 41
0.9
 42
5.0
  3
DIMSTYLE_3
100
AcDbAlignedDimension
 13
248.1767514068
 23
166.7417295342
 14
253.1767514068
 24
166.7417295342
100
AcDbRotatedDimension
  0
DIMENSION
  5
7AE
100
AcDbEntity
  8
0
100
AcDbDimension
 62
2
  6
CONTINUOUS
  2
*D37
 10
250.6767514068
 20
101.7696926196
 11
223.1309028625
 21
101.7696926196
 70
160
 71
2
 72
2
 41
0.9
 42
55.1
  3
DIMSTYLE_2
100
AcDbAlignedDimension
 13
195.5767514068
 23
116.7417295342
 14
250.6767514068
 24
161.7416295342
100
AcDbRotatedDimension
  0
DIMENSION
  5
7AF
100
AcDbEntity
  8
0
100
AcDbDimension
 62
2
  6
CONTINUOUS
  2
*D38
 10
270.6767514068
 20
101.7696926196
 11
260.6361350098
 21
101.7696926196
 70
160
 71
2
 72
2
 41
0.9
 42
20.0
  3
DIMSTYLE_6
100
AcDbAlignedDimension
 13
250.6767514068
 23
161.7416295342
 14
270.6767514068
 24
162.3416295342
100
AcDbRotatedDimension
  0
DIMENSION
  5
7B0
100
AcDbEntity
  8
0
100
AcDbDimension
 62
2
  6
CONTINUOUS
  2
*D39
 10
446.6429798151
 20
162.7417295342
 11
446.6429798151
 21
222.5291455467
 70
160
 71
2
 72
2
 41
0.9
 42
119.2
  3
DIMSTYLE_2
100
AcDbAlignedDimension
 13
430.1567669885
 23
281.9417295342
 14
430.0929798151
 24
162.7417295342
 50
270.0
100
AcDbRotatedDimension
  0
DIMENSION
  5
7B1
100
AcDbEntity
  8
0
100
AcDbDimension
 62
2
  6
CONTINUOUS
  2
*D40
 10
419.9929798151
 20
148.2907662685
 11
401.8483959961
 21
148.2907662685
 70
160
 71
3
 72
2
 41
0.9
 42
1.65
  3
DIMSTYLE_3
100
AcDbAlignedDimension
 13
421.6429798151
 23
139.8417295342
 14
419.9929798151
 24
152.6417295342
 50
180.0
100
AcDbRotatedDimension
  0
DIMENSION
  5
7B2
100
AcDbEntity
  8
0
100
AcDbDimension
 62
2
  6
CONTINUOUS
  2
*D41
 10
308.1767514068
 20
49.4651521433
 11
308.1767514068
 21
58.18473203
 70
160
 71
1
 72
2
 41
0.9
 42
1.7
  3
DIMSTYLE_7
100
AcDbAlignedDimension
 13
198.5767514068
 23
51.1651521433
 14
289.1767514068
 24
49.4651521433
 50
270.0
100
AcDbRotatedDimension
  0
ACAD_TABLE
  5
7B3
100
AcDbEntity
  8
0
 62
2
  6
CONTINUOUS
100
AcDbBlockReference
  2
*T1
 10
25.0000035102
 20
54.999995862
 30
0.0
100
AcDbTable
342
       7D1
343
269
 11
1.0
 21
0.0
 31
0.0
 90
22
 91
4
 92
3
 93
0
 94
0
 95
0
 96
0
141
20.0
141
12.0
141
9.0
141
9.0
142
9.5
142
20.0
142
12.5
171
1
172
0
173
0
174
0
175
3
176
1
 91
41
178
0
145
0.0
301
CELL_VALUE
 90
4
  1
 
304
ACVALUE_END
170
1
140
3.5
 64
5
171
1
172
0
173
1
174
0
175
1
176
1
 91
1
178
0
145
0.0
170
1
171
1
172
0
173
1
174
0
175
1
176
1
 91
1
178
0
145
0.0
170
1
171
1
172
0
173
0
174
0
175
3
176
1
 91
41
178
0
145
0.0
301
CELL_VALUE
 90
4
  1
B-12060-88-L_BD01
304
ACVALUE_END
170
5
140
3.0
 64
5
171
1
172
0
173
1
174
0
175
1
176
1
 91
1
178
0
145
0.0
170
1
171
1
172
0
173
1
174
0
175
1
176
1
 91
1
178
0
145
0.0
170
1
171
1
172
0
173
0
174
0
175
3
176
1
 91
41
178
0
145
0.0
301
CELL_VALUE
 90
4
  1
Scale\P1:1 
304
ACVALUE_END
170
1
140
2.5
 64
5
171
1
172
0
173
1
174
0
175
1
176
1
 91
1
178
0
145
0.0
170
1
171
1
172
0
173
1
174
0
175
1
176
1
 91
1
178
0
145
0.0
170
1
171
1
172
0
173
0
174
0
175
1
176
1
 91
41
178
0
145
0.0
301
CELL_VALUE
 90
4
  1
Draft
304
ACVALUE_END
170
5
140
2.5
 64
5
171
1
172
0
173
0
174
0
175
1
176
1
 91
41
178
0
145
0.0
301
CELL_VALUE
 90
4
  1
27.09.2019
304
ACVALUE_END
170
5
140
2.5
 64
5
171
1
172
0
173
0
174
0
175
1
176
1
 91
41
178
0
145
0.0
301
CELL_VALUE
 90
4
  1
EB-RT
304
ACVALUE_END
170
5
140
2.5
 64
5
  0
LINE
  5
7B4
100
AcDbEntity
  8
0
100
AcDbLine
 62
5
  6
CONTINUOUS
 10
25.0
 20
415.0
 11
25.0
 21
5.0
  0
LINE
  5
7B5
100
AcDbEntity
  8
0
100
AcDbLine
 62
5
  6
CONTINUOUS
 10
25.0
 20
5.0
 11
589.0
 21
5.0
  0
LINE
  5
7B6
100
AcDbEntity
  8
0
100
AcDbLine
 62
7
  6
CENTER
 10
255.1863129859
 20
232.3220874316
 11
267.0385153154
 21
232.3220874316
  0
LINE
  5
7B7
100
AcDbEntity
  8
0
100
AcDbLine
 62
5
  6
CONTINUOUS
 10
25.0
 20
415.0
 11
589.0
 21
415.0
  0
LINE
  5
7B8
100
AcDbEntity
  8
0
100
AcDbLine
 62
5
  6
CONTINUOUS
 10
589.0
 20
415.0
 11
589.0
 21
5.0
  0
LINE
  5
7B9
100
AcDbEntity
  8
AXIS
100
AcDbLine
 62
7
  6
CENTER
 10
260.6767514068
 20
179.7417295342
 11
247.3110854014
 21
179.7417295342
  0
LINE
  5
7BA
100
AcDbEntity
  8
AXIS
100
AcDbLine
 62
7
  6
CENTER
 10
260.6767514068
 20
179.7417295342
 11
274.0055713378
 21
179.7417295342
  0
LINE
  5
7BB
100
AcDbEntity
  8
AXIS
100
AcDbLine
 62
7
  6
CENTER
 10
260.6767514068
 20
179.7417295342
 11
260.6767514068
 21
147.959544114
  0
LINE
  5
7BC
100
AcDbEntity
  8
AXIS
100
AcDbLine
 62
7
  6
CENTER
 10
260.6767514068
 20
179.7417295342
 11
260.6767514068
 21
241.8902829069
  0
INSERT
  5
7BD
100
AcDbEntity
  8
Grp_symbol_75_BL1
100
AcDbBlockReference
  2
GRP_SYMBOL_75_BL1
 10
46.0313322015
 20
45.3702272356
  0
INSERT
  5
7BE
100
AcDbEntity
  8
X14022004_BL2
100
AcDbBlockReference
  2
X14022004_BL2
 10
313.6598656109
 20
191.4534408387
  0
INSERT
  5
7BF
100
AcDbEntity
  8
X14200002_BL3
100
AcDbBlockReference
  2
X14200002_BL3
 10
311.5310822186
 20
181.4598440854
  0
INSERT
  5
7C0
100
AcDbEntity
  8
X14110002_BL4
100
AcDbBlockReference
  2
X14110002_BL4
 10
244.7767514068
 20
176.1034408387
  0
INSERT
  5
7C1
100
AcDbEntity
  8
X14454000_BL5
100
AcDbBlockReference
  2
X14454000_BL5
 10
297.1281746572
 20
127.4034408387
  0
INSERT
  5
7C2
100
AcDbEntity
  8
X14306012_BL6
100
AcDbBlockReference
  2
X14306012_BL6
 10
302.5848656109
 20
166.9784408387
  0
INSERT
  5
7C3
100
AcDbEntity
  8
X14624000_BL7
100
AcDbBlockReference
  2
X14624000_BL7
 10
340.5354224901
 20
212.6417295342
  0
INSERT
  5
7C4
100
AcDbEntity
  8
X01041000_A1_BL8
100
AcDbBlockReference
  2
X01041000_A1_BL8
 10
336.3098656109
 20
258.0886400603
  0
INSERT
  5
7C5
100
AcDbEntity
  8
X14506001_BL9
100
AcDbBlockReference
  2
X14506001_BL9
 10
337.2607920248
 20
258.6017295342
  0
INSERT
  5
7C6
100
AcDbEntity
  8
X01040000_A1_BL10
100
AcDbBlockReference
  2
X01040000_A1_BL10
 10
350.3232683887
 20
171.1028353708
  0
INSERT
  5
7C7
100
AcDbEntity
  8
X14507001_BL11
100
AcDbBlockReference
  2
X14507001_BL11
 10
259.5473814768
 20
157.653041757
  0
INSERT
  5
7C8
100
AcDbEntity
  8
X14453002_BL12
100
AcDbBlockReference
  2
X14453002_BL12
 10
419.9929798151
 20
198.6417295342
  0
INSERT
  5
7C9
100
AcDbEntity
  8
X01822001_BL13
100
AcDbBlockReference
  2
X01822001_BL13
 10
341.7598656109
 20
206.2417295342
  0
INSERT
  5
7CA
100
AcDbEntity
  8
X14700000_BL14
100
AcDbBlockReference
  2
X14700000_BL14
 10
423.1429798151
 20
268.2555168397
  0
INSERT
  5
7CB
100
AcDbEntity
  8
X00210000_BL15
100
AcDbBlockReference
  2
X00210000_BL15
 10
245.1767514068
 20
49.7647530616
  0
INSERT
  5
7CC
100
AcDbEntity
  8
X01822001_BL16
100
AcDbBlockReference
  2
X01822001_BL16
 10
217.6767514068
 20
174.7417295342
  0
INSERT
  5
7CD
100
AcDbEntity
  8
X01822001_BL17
100
AcDbBlockReference
  2
X01822001_BL17
 10
245.1767514068
 20
281.9917295342
  0
ENDSEC
  0
SECTION
  2
OBJECTS
  0
DICTIONARY
  5
C
100
AcDbDictionary
280
0
281
1
  3
ACAD_GROUP
350
D
  3
ACAD_MLINESTYLE
350
17
  3
ACAD_LAYOUT
350
1A
  3
ACAD_PLOTSETTINGS
350
19
  3
ACAD_PLOTSTYLENAME
350
E
  3
ACAD_TABLESTYLE
350
       7CE
  0
DICTIONARY
  5
D
102
{ACAD_REACTORS
330
C
102
}
100
AcDbDictionary
280
0
281
1
  0
ACDBDICTIONARYWDFLT
  5
E
102
{ACAD_REACTORS
330
C
102
}
100
AcDbDictionary
281
1
  3
Normal
350
F
100
AcDbDictionaryWithDefault
340
F
  0
DICTIONARY
  5
17
102
{ACAD_REACTORS
330
C
102
}
100
AcDbDictionary
280
0
281
1
  3
Standard
350
18
  0
DICTIONARY
  5
7CE
330
C
100
AcDbDictionary
281
1
  3
Standard
350
       7D1
  3
Standard1
350
       7D2
  0
DICTIONARY
  5
19
102
{ACAD_REACTORS
330
C
102
}
100
AcDbDictionary
281
1
  0
DICTIONARY
  5
1A
102
{ACAD_REACTORS
330
C
102
}
100
AcDbDictionary
281
1
  3
Model
350
7CF
  3
Layout1
350
7D0
  0
ACDBPLACEHOLDER
  5
F
102
{ACAD_REACTORS
330
E
102
}
  0
MLINESTYLE
  5
18
102
{ACAD_REACTORS
330
17
102
}
100
AcDbMlineStyle
  2
STANDARD
 70
0
  3

 62
256
 51
90.0
 52
90.0
 71
2
 49
0.5
 62
256
  6
BYLAYER
 49
-0.5
 62
256
  6
BYLAYER
  0
LAYOUT
  5
7CF
102
{ACAD_REACTORS
330
1A
102
}
100
AcDbPlotSettings
  1

  2
none_device
  4
ISO_A2_(594.00_x_420.00_MM)
  6

 40
0.0
 41
0.0
 42
0.0
 43
0.0
 44
594.0
 45
420.0
 46
0.0
 47
0.0
 48
0.0
 49
0.0
140
0.0
141
0.0
142
1.0
143
1.0
 70
1024
 72
1
 73
0
 74
0
  7

 75
0
147
1.0
148
0.0
149
0.0
100
AcDbLayout
  1
Model
 70
0
 71
0
 10
0.0
 20
0.0
 11
594.0
 21
420.0
 12
0.0
 22
0.0
 32
0.0
 14
0.0
 24
0.0
 34
0.0
 15
0.0
 25
0.0
 35
0.0
146
0.0
 13
0.0
 23
0.0
 33
0.0
 16
1.0
 26
0.0
 36
0.0
 17
0.0
 27
1.0
 37
0.0
 76
0
330
22A
345
0
346
0
  0
LAYOUT
  5
7D0
102
{ACAD_REACTORS
330
1A
102
}
100
AcDbPlotSettings
  1

  2
none_device
  4
ISO_A2_(594.00_x_420.00_MM)
  6

 40
0.0
 41
0.0
 42
0.0
 43
0.0
 44
594.0
 45
420.0
 46
0.0
 47
0.0
 48
0.0
 49
0.0
140
0.0
141
0.0
142
1.0
143
1.0
 70
0
 72
1
 73
0
 74
0
  7

 75
0
147
1.0
148
0.0
149
0.0
100
AcDbLayout
  1
Layout1
 70
0
 71
1
 10
0.0
 20
0.0
 11
594.0
 21
420.0
 12
0.0
 22
0.0
 32
0.0
 14
0.0
 24
0.0
 34
0.0
 15
0.0
 25
0.0
 35
0.0
146
0.0
 13
0.0
 23
0.0
 33
0.0
 16
1.0
 26
0.0
 36
0.0
 17
0.0
 27
1.0
 37
0.0
 76
0
330
22B
345
0
346
0
  0
TABLESTYLE
  5
7D1
102
{ACAD_REACTORS
330
7CE
330
7B3
102
}
330
7CE
100
AcDbTableStyle
  3
Standard
 70
0
 71
0
 40
0.06
 41
0.06
280
1
281
1
  7
Standard
140
0.18
170
1
 62
0
 63
7
283
0
  7
Standard
140
0.18
170
1
 62
0
 63
7
283
0
  7
Standard
140
0.18
170
1
 62
0
 63
7
283
0
  0
TABLESTYLE
  5
7D2
102
{ACAD_REACTORS
330
7CE
102
}
330
7CE
100
AcDbTableStyle
  3
Standard1
 70
1
 71
0
 40
0.06
 41
0.06
280
1
281
1
  7
Standard
140
0.18
170
1
 62
0
 63
7
283
0
  7
Standard
140
0.18
170
1
 62
0
 63
7
283
0
  7
Standard
140
0.18
170
1
 62
0
 63
7
283
0
  0
ENDSEC
  0
EOF
