  0
SECTION
  2
HEADER
  9
$ACADVER
  1
AC1021
  9
$ACADMAINTVER
 70
    53
  9
$DWGCODEPAGE
  3
ANSI_1252
  9
$LASTSAVEDBY
  1
koa
  9
$CUSTOMPROPERTYTAG
  1
AmdtFileType
  9
$CUSTOMPROPERTY
  1
83
  9
$INSBASE
 10
0.0
 20
0.0
 30
0.0
  9
$EXTMIN
 10
-19.12542991113861
 20
129.1184782868116
 30
-0.00000001
  9
$EXTMAX
 10
214.8291690470114
 20
282.4079635196075
 30
0.00000001
  9
$LIMMIN
 10
0.0
 20
0.0
  9
$LIMMAX
 10
420.0
 20
297.0
  9
$ORTHOMODE
 70
     1
  9
$REGENMODE
 70
     1
  9
$FILLMODE
 70
     1
  9
$QTEXTMODE
 70
     0
  9
$MIRRTEXT
 70
     1
  9
$LTSCALE
 40
1.0
  9
$ATTMODE
 70
     1
  9
$TEXTSIZE
 40
3.5
  9
$TRACEWID
 40
1.0
  9
$TEXTSTYLE
  7
STANDARD
  9
$CLAYER
  8
AM_0
  9
$CELTYPE
  6
BYLAYER
  9
$CECOLOR
 62
   256
  9
$CELTSCALE
 40
1.0
  9
$DISPSILH
 70
     0
  9
$DIMSCALE
 40
2.0
  9
$DIMASZ
 40
3.0
  9
$DIMEXO
 40
0.0
  9
$DIMDLI
 40
10.0
  9
$DIMRND
 40
0.0
  9
$DIMDLE
 40
0.0
  9
$DIMEXE
 40
1.0
  9
$DIMTP
 40
0.1
  9
$DIMTM
 40
0.1
  9
$DIMTXT
 40
3.5
  9
$DIMCEN
 40
0.0
  9
$DIMTSZ
 40
0.0
  9
$DIMTOL
 70
     0
  9
$DIMLIM
 70
     0
  9
$DIMTIH
 70
     0
  9
$DIMTOH
 70
     0
  9
$DIMSE1
 70
     0
  9
$DIMSE2
 70
     0
  9
$DIMTAD
 70
     1
  9
$DIMZIN
 70
     8
  9
$DIMBLK
  1

  9
$DIMASO
 70
     1
  9
$DIMSHO
 70
     1
  9
$DIMPOST
  1

  9
$DIMAPOST
  1
"
  9
$DIMALT
 70
     0
  9
$DIMALTD
 70
     2
  9
$DIMALTF
 40
0.0393701
  9
$DIMLFAC
 40
1.0
  9
$DIMTOFL
 70
     1
  9
$DIMTVP
 40
0.0
  9
$DIMTIX
 70
     0
  9
$DIMSOXD
 70
     0
  9
$DIMSAH
 70
     0
  9
$DIMBLK1
  1

  9
$DIMBLK2
  1

  9
$DIMSTYLE
  2
AM_ISO
  9
$DIMCLRD
 70
   256
  9
$DIMCLRE
 70
   256
  9
$DIMCLRT
 70
     2
  9
$DIMTFAC
 40
0.71
  9
$DIMGAP
 40
1.5
  9
$DIMJUST
 70
     0
  9
$DIMSD1
 70
     0
  9
$DIMSD2
 70
     0
  9
$DIMTOLJ
 70
     0
  9
$DIMTZIN
 70
     0
  9
$DIMALTZ
 70
     0
  9
$DIMALTTZ
 70
     0
  9
$DIMUPT
 70
     0
  9
$DIMDEC
 70
     2
  9
$DIMTDEC
 70
     2
  9
$DIMALTU
 70
     2
  9
$DIMALTTD
 70
     2
  9
$DIMTXSTY
  7
STANDARD
  9
$DIMAUNIT
 70
     0
  9
$DIMADEC
 70
     0
  9
$DIMALTRND
 40
0.0
  9
$DIMAZIN
 70
     2
  9
$DIMDSEP
 70
    46
  9
$DIMATFIT
 70
     3
  9
$DIMFRAC
 70
     0
  9
$DIMLDRBLK
  1

  9
$DIMLUNIT
 70
     2
  9
$DIMLWD
 70
    -1
  9
$DIMLWE
 70
    -1
  9
$DIMTMOVE
 70
     0
  9
$DIMFXL
 40
1.0
  9
$DIMFXLON
 70
     0
  9
$DIMJOGANG
 40
0.7853981633974483
  9
$DIMTFILL
 70
     0
  9
$DIMTFILLCLR
 70
     0
  9
$DIMARCSYM
 70
     0
  9
$DIMLTYPE
  6

  9
$DIMLTEX1
  6

  9
$DIMLTEX2
  6

  9
$LUNITS
 70
     2
  9
$LUPREC
 70
     4
  9
$SKETCHINC
 40
1.0
  9
$FILLETRAD
 40
0.0
  9
$AUNITS
 70
     0
  9
$AUPREC
 70
     2
  9
$MENU
  1
.
  9
$ELEVATION
 40
0.0
  9
$PELEVATION
 40
0.0
  9
$THICKNESS
 40
0.0
  9
$LIMCHECK
 70
     0
  9
$CHAMFERA
 40
20.0
  9
$CHAMFERB
 40
1.0
  9
$CHAMFERC
 40
20.0
  9
$CHAMFERD
 40
0.0
  9
$SKPOLY
 70
     1
  9
$TDCREATE
 40
2452033.694590451
  9
$TDUCREATE
 40
2452033.611257118
  9
$TDUPDATE
 40
2455121.601742361
  9
$TDUUPDATE
 40
2455121.518409028
  9
$TDINDWG
 40
0.0648290856
  9
$TDUSRTIMER
 40
0.0648289699
  9
$USRTIMER
 70
     1
  9
$ANGBASE
 50
0.0
  9
$ANGDIR
 70
     0
  9
$PDMODE
 70
     0
  9
$PDSIZE
 40
0.0
  9
$PLINEWID
 40
0.0
  9
$SPLFRAME
 70
     0
  9
$SPLINETYPE
 70
     6
  9
$SPLINESEGS
 70
    16
  9
$HANDSEED
  5
28B8
  9
$SURFTAB1
 70
     6
  9
$SURFTAB2
 70
     6
  9
$SURFTYPE
 70
     6
  9
$SURFU
 70
     6
  9
$SURFV
 70
     6
  9
$UCSBASE
  2

  9
$UCSNAME
  2

  9
$UCSORG
 10
0.0
 20
0.0
 30
0.0
  9
$UCSXDIR
 10
1.0
 20
0.0
 30
0.0
  9
$UCSYDIR
 10
0.0
 20
1.0
 30
0.0
  9
$UCSORTHOREF
  2

  9
$UCSORTHOVIEW
 70
     0
  9
$UCSORGTOP
 10
0.0
 20
0.0
 30
0.0
  9
$UCSORGBOTTOM
 10
0.0
 20
0.0
 30
0.0
  9
$UCSORGLEFT
 10
0.0
 20
0.0
 30
0.0
  9
$UCSORGRIGHT
 10
0.0
 20
0.0
 30
0.0
  9
$UCSORGFRONT
 10
0.0
 20
0.0
 30
0.0
  9
$UCSORGBACK
 10
0.0
 20
0.0
 30
0.0
  9
$PUCSBASE
  2

  9
$PUCSNAME
  2

  9
$PUCSORG
 10
0.0
 20
0.0
 30
0.0
  9
$PUCSXDIR
 10
1.0
 20
0.0
 30
0.0
  9
$PUCSYDIR
 10
0.0
 20
1.0
 30
0.0
  9
$PUCSORTHOREF
  2

  9
$PUCSORTHOVIEW
 70
     0
  9
$PUCSORGTOP
 10
0.0
 20
0.0
 30
0.0
  9
$PUCSORGBOTTOM
 10
0.0
 20
0.0
 30
0.0
  9
$PUCSORGLEFT
 10
0.0
 20
0.0
 30
0.0
  9
$PUCSORGRIGHT
 10
0.0
 20
0.0
 30
0.0
  9
$PUCSORGFRONT
 10
0.0
 20
0.0
 30
0.0
  9
$PUCSORGBACK
 10
0.0
 20
0.0
 30
0.0
  9
$USERI1
 70
     0
  9
$USERI2
 70
     0
  9
$USERI3
 70
     0
  9
$USERI4
 70
     0
  9
$USERI5
 70
     0
  9
$USERR1
 40
0.0
  9
$USERR2
 40
0.0
  9
$USERR3
 40
0.0
  9
$USERR4
 40
0.0
  9
$USERR5
 40
0.0
  9
$WORLDVIEW
 70
     1
  9
$SHADEDGE
 70
     3
  9
$SHADEDIF
 70
    70
  9
$TILEMODE
 70
     1
  9
$MAXACTVP
 70
    48
  9
$PINSBASE
 10
0.0
 20
0.0
 30
0.0
  9
$PLIMCHECK
 70
     0
  9
$PEXTMIN
 10
1.000000000000000E+20
 20
1.000000000000000E+20
 30
1.000000000000000E+20
  9
$PEXTMAX
 10
-1.000000000000000E+20
 20
-1.000000000000000E+20
 30
-1.000000000000000E+20
  9
$PLIMMIN
 10
-5.027083396911621
 20
-5.111741065979003
  9
$PLIMMAX
 10
204.9885873794556
 20
291.8989095687866
  9
$UNITMODE
 70
     0
  9
$VISRETAIN
 70
     1
  9
$PLINEGEN
 70
     0
  9
$PSLTSCALE
 70
     1
  9
$TREEDEPTH
 70
  3020
  9
$CMLSTYLE
  2
STANDARD
  9
$CMLJUST
 70
     0
  9
$CMLSCALE
 40
1.0
  9
$PROXYGRAPHICS
 70
     1
  9
$MEASUREMENT
 70
     1
  9
$CELWEIGHT
370
    -1
  9
$ENDCAPS
280
     0
  9
$JOINSTYLE
280
     0
  9
$LWDISPLAY
290
     0
  9
$INSUNITS
 70
     0
  9
$HYPERLINKBASE
  1

  9
$STYLESHEET
  1
LAA4.ctb
  9
$XEDIT
290
     1
  9
$CEPSNTYPE
380
     0
  9
$PSTYLEMODE
290
     1
  9
$FINGERPRINTGUID
  2
{9DE0F4BE-022B-11D3-8698-0060B085A428}
  9
$VERSIONGUID
  2
{901E7319-AADC-4C62-81D8-B78BDFF4E668}
  9
$EXTNAMES
290
     1
  9
$PSVPSCALE
 40
0.0
  9
$OLESTARTUP
290
     0
  9
$SORTENTS
280
    96
  9
$INDEXCTL
280
     1
  9
$HIDETEXT
280
     0
  9
$XCLIPFRAME
290
     0
  9
$HALOGAP
280
     0
  9
$OBSCOLOR
 70
   257
  9
$OBSLTYPE
280
     0
  9
$INTERSECTIONDISPLAY
280
     0
  9
$INTERSECTIONCOLOR
 70
   257
  9
$DIMASSOC
280
     1
  9
$PROJECTNAME
  1

  9
$CAMERADISPLAY
290
     0
  9
$LENSLENGTH
 40
50.0
  9
$CAMERAHEIGHT
 40
0.0
  9
$STEPSPERSEC
 40
2.0
  9
$STEPSIZE
 40
6.0
  9
$3DDWFPREC
 40
2.0
  9
$PSOLWIDTH
 40
0.25
  9
$PSOLHEIGHT
 40
4.0
  9
$LOFTANG1
 40
1.570796326794896
  9
$LOFTANG2
 40
1.570796326794896
  9
$LOFTMAG1
 40
0.0
  9
$LOFTMAG2
 40
0.0
  9
$LOFTPARAM
 70
     7
  9
$LOFTNORMALS
280
     1
  9
$LATITUDE
 40
37.795
  9
$LONGITUDE
 40
-122.394
  9
$NORTHDIRECTION
 40
0.0
  9
$TIMEZONE
 70
 -8000
  9
$LIGHTGLYPHDISPLAY
280
     1
  9
$TILEMODELIGHTSYNCH
280
     1
  9
$CMATERIAL
347
2597
  9
$SOLIDHIST
280
     1
  9
$SHOWHIST
280
     1
  9
$DWFFRAME
280
     2
  9
$DGNFRAME
280
     0
  9
$REALWORLDSCALE
290
     1
  9
$INTERFERECOLOR
 62
     1
  9
$INTERFEREOBJVS
345
25B9
  9
$INTERFEREVPVS
346
25B6
  9
$CSHADOW
280
     0
  9
$SHADOWPLANELOCATION
 40
0.0
  0
ENDSEC
  0
SECTION
  2
CLASSES
  0
CLASS
  1
DICTIONARYVAR
  2
AcDbDictionaryVar
  3
ObjectDBX Classes
 90
        0
 91
       16
280
     0
281
     0
  0
CLASS
  1
ACMESTATEMGR
  2
AcMeStateMgr
  3
AcMeServices
 90
     1024
 91
        1
280
     0
281
     0
  0
CLASS
  1
ACMESCOPE
  2
AcMeScope
  3
AcMeServices
 90
     1024
 91
        1
280
     0
281
     0
  0
CLASS
  1
ACMECOMMANDHISTORY
  2
AcMeCommandHistory
  3
AcMeServices
 90
     1024
 91
        1
280
     0
281
     0
  0
CLASS
  1
ACRFINSADJUSTERMGR
  2
AcRfInsAdjusterMgr
  3
AcMeServices
 90
     1024
 91
        1
280
     0
281
     0
  0
CLASS
  1
ACMEDRAWINGMAN
  2
AcMeDrawingMan
  3
AcMeServices
 90
     1024
 91
        1
280
     0
281
     0
  0
CLASS
  1
AMATTR
  2
AcMeAttribute
  3
AcMeServices
 90
     1024
 91
        0
280
     0
281
     0
  0
CLASS
  1
ACMEBOMCOLUMN
  2
AcMeBOMColumn
  3
AcMeServices
 90
     1024
 91
        0
280
     0
281
     0
  0
CLASS
  1
ACMEBOMCONF
  2
AcMeBOMConf
  3
AcMeServices
 90
     1024
 91
        0
280
     0
281
     0
  0
CLASS
  1
ACMEBOMTABLE
  2
AcMeBOMTable
  3
AcMeServices
 90
     1024
 91
        0
280
     0
281
     0
  0
CLASS
  1
ACMEBOMENTRY
  2
AcMeBOMEntry
  3
AcMeServices
 90
     1024
 91
        0
280
     0
281
     0
  0
CLASS
  1
ACMEVIEW
  2
AcMeView
  3
AcMeServices
 90
     1024
 91
        0
280
     0
281
     0
  0
CLASS
  1
ACGREFMASTER
  2
AcGrefMaster
  3
AcAttribServices
 90
     1024
 91
        1
280
     0
281
     0
  0
CLASS
  1
AMIMASTER
  2
AmiMaster
  3
AmiServices
 90
     1024
 91
        1
280
     0
281
     0
  0
CLASS
  1
ACASGREFMASTER
  2
AcAsGrefMaster
  3
AutoSurfResolverServices
 90
     1024
 91
        1
280
     0
281
     0
  0
CLASS
  1
ADAPPL
  2
AcAdAppl
  3
DesignerServices
 90
     1024
 91
        1
280
     0
281
     0
  0
CLASS
  1
DEPMGR
  2
AcAdDepMgr
  3
DesignerServices
 90
     1024
 91
        1
280
     0
281
     0
  0
CLASS
  1
PARAMMGR
  2
AcAdParamMgr
  3
DesignerServices
 90
     1024
 91
        1
280
     0
281
     0
  0
CLASS
  1
PARAMSCOPE
  2
AcAdParamScope
  3
DesignerServices
 90
     1024
 91
        3
280
     0
281
     0
  0
CLASS
  1
ACIMSYSVARMAN
  2
AcImSysVarManager
  3
AcMeServices
 90
     1024
 91
        6
280
     0
281
     0
  0
CLASS
  1
ACIMINTSYSVAR
  2
AcImIntSysVar
  3
AcMeServices
 90
     1024
 91
       48
280
     0
281
     0
  0
CLASS
  1
ACIMREALSYSVAR
  2
AcImRealSysVar
  3
AcMeServices
 90
     1024
 91
       16
280
     0
281
     0
  0
CLASS
  1
ACIMSTRSYSVAR
  2
AcImStrSysVar
  3
AcMeServices
 90
     1024
 91
       14
280
     0
281
     0
  0
CLASS
  1
NAMEDAPPL
  2
AcAdNamedAppl
  3
DesignerServices
 90
     1024
 91
        1
280
     0
281
     0
  0
CLASS
  1
ADHNTMPLT
  2
AdHoleNoteTemplateMgr
  3
DesignerServices
 90
     1024
 91
        0
280
     0
281
     0
  0
CLASS
  1
AM_HNTEMPLATE_MGR_NAME
  2
AdHoleNoteTemplateMgrName
  3
DesignerServices
 90
     1024
 91
        0
280
     0
281
     0
  0
CLASS
  1
ACADGREFMODULE
  2
AcAdGrefModule
  3
AdGrefServices
 90
     1024
 91
        1
280
     0
281
     0
  0
CLASS
  1
AM_DRAWING_MGR
  2
AcDmDwgMgr
  3
AcMechDwgViewMgmt
 90
     1024
 91
        1
280
     0
281
     0
  0
CLASS
  1
AM_DWG_DOCUMENT
  2
AcDmDwgDocument
  3
AcMechDwgViewMgmt
 90
     1024
 91
        1
280
     0
281
     0
  0
CLASS
  1
AM_DWG_SHEET
  2
AcDmSheet
  3
AcMechDwgViewMgmt
 90
     1024
 91
        5
280
     0
281
     0
  0
CLASS
  1
AM_VIEWDIMPARMAP
  2
AcDmViewDimParMap
  3
AcMechDwgViewMgmt
 90
     1024
 91
        5
280
     0
281
     0
  0
CLASS
  1
AM_DWGMGR_NAME
  2
AcDmDwgMgrName
  3
AcMechDwgViewMgmt
 90
     1024
 91
        1
280
     0
281
     0
  0
CLASS
  1
ACAMPROJECT
  2
AcAmProject
  3
DesignerAssemblies
 90
     1024
 91
        1
280
     0
281
     0
  0
CLASS
  1
ACAMGRCOMPSET
  2
AcAmGrCompSet
  3
DesignerAssemblies
 90
        0
 91
        0
280
     0
281
     0
  0
CLASS
  1
ACAMGRCOMPDEFSET
  2
AcAmGrCompDefSet
  3
DesignerAssemblies
 90
     1024
 91
        1
280
     0
281
     0
  0
CLASS
  1
ACAMGRCOMPDEF
  2
AcAmGrCompDef
  3
DesignerAssemblies
 90
     1024
 91
        2
280
     0
281
     0
  0
CLASS
  1
ACCMCONTEXT
  2
AcCmContext
  3
DesignerAssemblies
 90
     1024
 91
        2
280
     0
281
     0
  0
CLASS
  1
ACAMCOMPDEF
  2
AcAmCompDef
  3
DesignerAssemblies
 90
     1024
 91
        2
280
     0
281
     0
  0
CLASS
  1
ACAMCOMPDEFMGR
  2
AcAmCompDefMgr
  3
DesignerAssemblies
 90
     1024
 91
        1
280
     0
281
     0
  0
CLASS
  1
AMCONTEXTMGR
  2
AcAmContextMgr
  3
DesignerAssemblies
 90
     1024
 91
        1
280
     0
281
     0
  0
CLASS
  1
ACAMCONTEXTMODELER
  2
AcAmContextModeler
  3
DesignerAssemblies
 90
     1024
 91
        0
280
     0
281
     0
  0
CLASS
  1
ACDMVIEWGEOM
  2
AcDmViewGeometry
  3
AcMechDwgViewMgmt
 90
     1024
 91
        1
280
     0
281
     1
  0
CLASS
  1
CBROWSERAPPOBJECT
  2
CBrowserAppObject
  3
McadcomServices
 90
     1024
 91
        3
280
     0
281
     0
  0
CLASS
  1
IM_STATIC_MAN
  2
AcImStaticVarManager
  3
AcMeServices
 90
     1024
 91
        1
280
     0
281
     0
  0
CLASS
  1
ASAPP
  2
AcAsAppObject
  3
AutoSurfServices
 90
     1024
 91
        1
280
     0
281
     0
  0
CLASS
  1
ACIMDBLSTATICVAR
  2
AcImDblStaticVar
  3
AcMeServices
 90
     1024
 91
       22
280
     0
281
     0
  0
CLASS
  1
ACIMSTRSTATICVAR
  2
AcImStrStaticVar
  3
AcMeServices
 90
     1024
 91
       13
280
     0
281
     0
  0
CLASS
  1
ACIMINTSTATICVAR
  2
AcImIntStaticVar
  3
AcMeServices
 90
     1024
 91
       17
280
     0
281
     0
  0
CLASS
  1
CATALOGSTATE
  2
AcAmCatalogState
  3
DesignerAssemblies
 90
     1024
 91
        1
280
     0
281
     0
  0
CLASS
  1
DM_PLACEHOLDER
  2
AcDmSelsetPlaceholder
  3
AcMechDwgViewMgmt
 90
     1024
 91
        1
280
     0
281
     0
  0
CLASS
  1
LAYER_INDEX
  2
AcDbLayerIndex
  3
ObjectDBX Classes
 90
        0
 91
        1
280
     0
281
     0
  0
CLASS
  1
IDBUFFER
  2
AcDbIdBuffer
  3
ObjectDBX Classes
 90
        0
 91
       29
280
     0
281
     0
  0
CLASS
  1
ACMSTANDARDJIS
  2
AcmStandardJIS
  3
"Amdt_StdImp|Product Description: AutoCAD Mechanical|Company: Autodesk, Inc."
 90
     1024
 91
        1
280
     0
281
     0
  0
CLASS
  1
ACMSTANDARDANSI
  2
AcmStandardANSI
  3
"Amdt_StdImp|Product Description: AutoCAD Mechanical|Company: Autodesk, Inc."
 90
     1024
 91
        1
280
     0
281
     0
  0
CLASS
  1
ACMSTANDARDBSI
  2
AcmStandardBSI
  3
"Amdt_StdImp|Product Description: AutoCAD Mechanical|Company: Autodesk, Inc."
 90
     1024
 91
        1
280
     0
281
     0
  0
CLASS
  1
ACMSTANDARDDIN
  2
AcmStandardDIN
  3
"Amdt_StdImp|Product Description: AutoCAD Mechanical|Company: Autodesk, Inc."
 90
     1024
 91
        1
280
     0
281
     0
  0
CLASS
  1
ACMSTANDARDISO
  2
AcmStandardISO
  3
"Amdt_StdImp|Product Description: AutoCAD Mechanical|Company: Autodesk, Inc."
 90
     1024
 91
        1
280
     0
281
     0
  0
CLASS
  1
ACDBDICTIONARYWDFLT
  2
AcDbDictionaryWithDefault
  3
ObjectDBX Classes
 90
        0
 91
        1
280
     0
281
     0
  0
CLASS
  1
ACME_DOCUMENT
  2
AcMeDbDoc
  3
AcMeServices
 90
     1024
 91
        2
280
     0
281
     0
  0
CLASS
  1
AMGSETTINGSOBJ
  2
AmgSettingsObj
  3
"AcadM|Product Description: AutoCAD Mechanical|Company: Autodesk, Inc."
 90
     1024
 91
        4
280
     0
281
     0
  0
CLASS
  1
AMGOBJPROPCFG
  2
AmgObjPropCfg
  3
"AmgLay|Product Description: AutoCAD Mechanical|Company: Autodesk, Inc."
 90
     1025
 91
        1
280
     0
281
     0
  0
CLASS
  1
ACDBENTITYCACHE
  2
AcMeEntityCache
  3
AcMeServices
 90
     1024
 91
        1
280
     0
281
     0
  0
CLASS
  1
GSMANAGER
  2
AcMeGSManager
  3
AcMeServices
 90
     1024
 91
        1
280
     0
281
     0
  0
CLASS
  1
AMDTINTERNALREACTOR
  2
AmdtInternalReactor
  3
AcMeServices
 90
     1024
 91
        6
280
     0
281
     0
  0
CLASS
  1
ACME_DATABASE
  2
AcMeDbDatabase
  3
AcMeServices
 90
     1024
 91
        1
280
     0
281
     0
  0
CLASS
  1
ACGREFACADMASTER
  2
AcGrefacadMaster
  3
AcGrefServices
 90
     1024
 91
        1
280
     0
281
     0
  0
CLASS
  1
AMDTMENUSTATEMGR
  2
AmdtMenuStateMgr
  3
McadcomServices
 90
     1024
 91
        1
280
     0
281
     0
  0
CLASS
  1
AMDTMCOMMENUSTATE
  2
AmdtMcomMenuState
  3
McadcomServices
 90
     1024
 91
        1
280
     0
281
     0
  0
CLASS
  1
MAPIADMODULE
  2
MApiAdModule
  3
MApiAdServices
 90
     1024
 91
        1
280
     0
281
     0
  0
CLASS
  1
AMDTDMMENUSTATE
  2
AmdtDmMenuState
  3
AcMechDwgViewMgmt
 90
     1024
 91
        1
280
     0
281
     0
  0
CLASS
  1
AMDTADMENUSTATE
  2
AmdtAdMenuState
  3
DesignerServices
 90
     1024
 91
        1
280
     0
281
     0
  0
CLASS
  1
AMDTAMMENUSTATE
  2
AmdtAmMenuState
  3
DesignerAssemblies
 90
     1024
 91
        1
280
     0
281
     0
  0
CLASS
  1
ACMDATADICTIONARY
  2
AcmDataDictionary
  3
"AcmSymBB|Product Description: AutoCAD Mechanical|Company: Autodesk, Inc."
 90
     1024
 91
        1
280
     0
281
     0
  0
CLASS
  1
ACMDATAENTRYBLOCK
  2
AcmDataEntryBlock
  3
AcmSymBB|Product Description: AutoCAD Mechanical|Company: Autodesk, Inc.
 90
     1024
 91
        1
280
     0
281
     0
  0
CLASS
  1
ACMSURFSTANDARDJIS
  2
AcmSurfTextStdJIS
  3
"Amdt_StdImp|Product Description: AutoCAD Mechanical|Company: Autodesk, Inc."
 90
     1024
 91
        1
280
     0
281
     0
  0
CLASS
  1
ACMFCFSTANDARDJIS
  2
AcmFCFStdJIS
  3
"Amdt_StdImp|Product Description: AutoCAD Mechanical|Company: Autodesk, Inc."
 90
     1024
 91
        1
280
     0
281
     0
  0
CLASS
  1
ACMWELDSTANDARDJIS
  2
AcmWeldingStdJIS
  3
"Amdt_StdImp|Product Description: AutoCAD Mechanical|Company: Autodesk, Inc."
 90
     1024
 91
        1
280
     0
281
     0
  0
CLASS
  1
ACMIDSTANDARDJIS
  2
AcmIdStdJIS
  3
"Amdt_StdImp|Product Description: AutoCAD Mechanical|Company: Autodesk, Inc."
 90
     1024
 91
        1
280
     0
281
     0
  0
CLASS
  1
ACMDATUMSTANDARDJIS
  2
AcmDatumStdJIS
  3
"Amdt_StdImp|Product Description: AutoCAD Mechanical|Company: Autodesk, Inc."
 90
     1024
 91
        1
280
     0
281
     0
  0
CLASS
  1
ACMBOMSTANDARDJIS
  2
AcmBOMStdJIS
  3
"Amdt_StdImp|Product Description: AutoCAD Mechanical|Company: Autodesk, Inc."
 90
     1024
 91
        1
280
     0
281
     0
  0
CLASS
  1
ACMSURFSTANDARDANSI
  2
AcmSurfTextStdANSI
  3
"Amdt_StdImp|Product Description: AutoCAD Mechanical|Company: Autodesk, Inc."
 90
     1024
 91
        1
280
     0
281
     0
  0
CLASS
  1
ACMFCFSTANDARDANSI
  2
AcmFCFStdANSI
  3
"Amdt_StdImp|Product Description: AutoCAD Mechanical|Company: Autodesk, Inc."
 90
     1024
 91
        1
280
     0
281
     0
  0
CLASS
  1
ACMWELDSTANDARDANSI
  2
AcmWeldingStdANSI
  3
"Amdt_StdImp|Product Description: AutoCAD Mechanical|Company: Autodesk, Inc."
 90
     1024
 91
        1
280
     0
281
     0
  0
CLASS
  1
ACMIDSTANDARDANSI
  2
AcmIdStdANSI
  3
"Amdt_StdImp|Product Description: AutoCAD Mechanical|Company: Autodesk, Inc."
 90
     1024
 91
        1
280
     0
281
     0
  0
CLASS
  1
ACMDATUMSTANDARDANSI
  2
AcmDatumStdANSI
  3
"Amdt_StdImp|Product Description: AutoCAD Mechanical|Company: Autodesk, Inc."
 90
     1024
 91
        1
280
     0
281
     0
  0
CLASS
  1
ACMBOMSTANDARDANSI
  2
AcmBOMStdANSI
  3
"Amdt_StdImp|Product Description: AutoCAD Mechanical|Company: Autodesk, Inc."
 90
     1024
 91
        1
280
     0
281
     0
  0
CLASS
  1
ACMSURFSTANDARDBSI
  2
AcmSurfTextStdBSI
  3
"Amdt_StdImp|Product Description: AutoCAD Mechanical|Company: Autodesk, Inc."
 90
     1024
 91
        1
280
     0
281
     0
  0
CLASS
  1
ACMFCFSTANDARDBSI
  2
AcmFCFStdBSI
  3
"Amdt_StdImp|Product Description: AutoCAD Mechanical|Company: Autodesk, Inc."
 90
     1024
 91
        1
280
     0
281
     0
  0
CLASS
  1
ACMWELDSTANDARDBSI
  2
AcmWeldingStdBSI
  3
"Amdt_StdImp|Product Description: AutoCAD Mechanical|Company: Autodesk, Inc."
 90
     1024
 91
        1
280
     0
281
     0
  0
CLASS
  1
ACMIDSTANDARDBSI
  2
AcmIdStdBSI
  3
"Amdt_StdImp|Product Description: AutoCAD Mechanical|Company: Autodesk, Inc."
 90
     1024
 91
        1
280
     0
281
     0
  0
CLASS
  1
ACMDATUMSTANDARDBSI
  2
AcmDatumStdBSI
  3
"Amdt_StdImp|Product Description: AutoCAD Mechanical|Company: Autodesk, Inc."
 90
     1024
 91
        1
280
     0
281
     0
  0
CLASS
  1
ACMBOMSTANDARDBSI
  2
AcmBOMStdBSI
  3
"Amdt_StdImp|Product Description: AutoCAD Mechanical|Company: Autodesk, Inc."
 90
     1024
 91
        1
280
     0
281
     0
  0
CLASS
  1
AMDTEDGESTANDARDDIN
  2
AmdtEdgeStdDIN
  3
"Amdt_StdImp|Product Description: AutoCAD Mechanical|Company: Autodesk, Inc."
 90
     1024
 91
        1
280
     0
281
     0
  0
CLASS
  1
ACMSURFSTANDARDDIN
  2
AcmSurfTextStdDIN
  3
"Amdt_StdImp|Product Description: AutoCAD Mechanical|Company: Autodesk, Inc."
 90
     1024
 91
        1
280
     0
281
     0
  0
CLASS
  1
ACMFCFSTANDARDDIN
  2
AcmFCFStdDIN
  3
"Amdt_StdImp|Product Description: AutoCAD Mechanical|Company: Autodesk, Inc."
 90
     1024
 91
        1
280
     0
281
     0
  0
CLASS
  1
ACMWELDSTANDARDDIN
  2
AcmWeldingStdDIN
  3
"Amdt_StdImp|Product Description: AutoCAD Mechanical|Company: Autodesk, Inc."
 90
     1024
 91
        1
280
     0
281
     0
  0
CLASS
  1
ACMIDSTANDARDDIN
  2
AcmIdStdDIN
  3
"Amdt_StdImp|Product Description: AutoCAD Mechanical|Company: Autodesk, Inc."
 90
     1024
 91
        1
280
     0
281
     0
  0
CLASS
  1
ACMDATUMSTANDARDDIN
  2
AcmDatumStdDIN
  3
"Amdt_StdImp|Product Description: AutoCAD Mechanical|Company: Autodesk, Inc."
 90
     1024
 91
        1
280
     0
281
     0
  0
CLASS
  1
ACMBOMSTANDARDDIN
  2
AcmBOMStdDIN
  3
"Amdt_StdImp|Product Description: AutoCAD Mechanical|Company: Autodesk, Inc."
 90
     1024
 91
        1
280
     0
281
     0
  0
CLASS
  1
ACMSURFSTANDARDISO
  2
AcmSurfTextStdISO
  3
"Amdt_StdImp|Product Description: AutoCAD Mechanical|Company: Autodesk, Inc."
 90
     1024
 91
        1
280
     0
281
     0
  0
CLASS
  1
ACMFCFSTANDARDISO
  2
AcmFCFStdISO
  3
"Amdt_StdImp|Product Description: AutoCAD Mechanical|Company: Autodesk, Inc."
 90
     1024
 91
        1
280
     0
281
     0
  0
CLASS
  1
ACMWELDSTANDARDISO
  2
AcmWeldingStdISO
  3
"Amdt_StdImp|Product Description: AutoCAD Mechanical|Company: Autodesk, Inc."
 90
     1024
 91
        1
280
     0
281
     0
  0
CLASS
  1
ACMIDSTANDARDISO
  2
AcmIdStdISO
  3
"Amdt_StdImp|Product Description: AutoCAD Mechanical|Company: Autodesk, Inc."
 90
     1024
 91
        1
280
     0
281
     0
  0
CLASS
  1
ACMDATUMSTANDARDISO
  2
AcmDatumStdISO
  3
"Amdt_StdImp|Product Description: AutoCAD Mechanical|Company: Autodesk, Inc."
 90
     1024
 91
        1
280
     0
281
     0
  0
CLASS
  1
ACMBOMSTANDARDISO
  2
AcmBOMStdISO
  3
"Amdt_StdImp|Product Description: AutoCAD Mechanical|Company: Autodesk, Inc."
 90
     1024
 91
        1
280
     0
281
     0
  0
CLASS
  1
AMDTBROWSERDBTAB
  2
AmdtBrowserDbTab
  3
McadcomServices
 90
     1024
 91
        1
280
     0
281
     0
  0
CLASS
  1
ACAMGFILTERDAT
  2
AcAmgFilterDat
  3
"AcadM|Product Description: AutoCAD Mechanical|Company: Autodesk, Inc."
 90
     1024
 91
        4
280
     0
281
     0
  0
CLASS
  1
MAPIAMMOUDLE
  2
MApiAmModule
  3
MApiAmServices
 90
     1024
 91
        1
280
     0
281
     0
  0
CLASS
  1
PLOTSETTINGS
  2
AcDbPlotSettings
  3
ObjectDBX Classes
 90
        0
 91
        7
280
     0
281
     0
  0
CLASS
  1
ACRFATTGENMGR
  2
AcRfAttGeneralMgr
  3
AcAttribServices
 90
     1024
 91
        1
280
     0
281
     0
  0
CLASS
  1
ACAMGRBLOCKRECORD
  2
AcAmGrBlockRecord
  3
DesignerAssemblies
 90
     1024
 91
        2
280
     0
281
     0
  0
CLASS
  1
ACAMVIEWREACTOR
  2
AcAmViewReactor
  3
DesignerAssemblies
 90
     1024
 91
        0
280
     0
281
     0
  0
CLASS
  1
ACAMCOMPENT
  2
AcAmCompEnt
  3
DesignerAssemblies
 90
     1024
 91
        0
280
     0
281
     1
  0
CLASS
  1
AMVIEW
  2
AcAmView
  3
DesignerAssemblies
 90
     1024
 91
        0
280
     0
281
     0
  0
CLASS
  1
ACAMVIEWCONTEXT
  2
AcAmViewContext
  3
DesignerAssemblies
 90
     1024
 91
        0
280
     0
281
     0
  0
CLASS
  1
ADPART
  2
AcAdPart
  3
DesignerServices
 90
     1024
 91
        2
280
     0
281
     1
  0
CLASS
  1
ADBASE
  2
AcAdBase
  3
DesignerServices
 90
     1024
 91
        2
280
     0
281
     0
  0
CLASS
  1
BODYID
  2
AcAdBodyId
  3
DesignerServices
 90
     1024
 91
        2
280
     0
281
     0
  0
CLASS
  1
WORKPLANEDISPLAYMGR
  2
AcAdDisplayMgr
  3
DesignerServices
 90
     1024
 91
        2
280
     0
281
     0
  0
CLASS
  1
ACCMBODY
  2
AcCmBody
  3
DesignerAssemblies
 90
     1024
 91
        0
280
     0
281
     0
  0
CLASS
  1
ACAMCOMPFEEDBACK
  2
AcAmCompFeedback
  3
DesignerAssemblies
 90
     1024
 91
        0
280
     0
281
     0
  0
CLASS
  1
ACAMCOMP
  2
AcAmComp
  3
DesignerAssemblies
 90
     1024
 91
        0
280
     0
281
     0
  0
CLASS
  1
ACAMCOMPENTCLONE
  2
AcAmCompEntClone
  3
DesignerAssemblies
 90
     1024
 91
        0
280
     0
281
     1
  0
CLASS
  1
ACAMCLONEREACTOR
  2
AcAmGrCompCloneReactor
  3
DesignerAssemblies
 90
     1024
 91
        0
280
     0
281
     0
  0
CLASS
  1
ADDATUMPLANEABS
  2
AcAdDatumPlaneAbs
  3
DesignerServices
 90
     1024
 91
        5
280
     0
281
     0
  0
CLASS
  1
ADDATUMAXISABS
  2
AcAdDatumAxisAbs
  3
DesignerServices
 90
     1024
 91
        4
280
     0
281
     0
  0
CLASS
  1
ADDATUMORIENTEDPLANE
  2
AcAdDatumOrientedPlane
  3
DesignerServices
 90
     1024
 91
        4
280
     0
281
     0
  0
CLASS
  1
ACAD_LINE
  2
AcAdLine
  3
DesignerServices
 90
     1024
 91
        0
280
     0
281
     1
  0
CLASS
  1
ACADLINEACAD
  2
AcAdVirtualBoundedLineAcad
  3
DesignerServices
 90
     1024
 91
       12
280
     0
281
     0
  0
CLASS
  1
ACADREFLINEACAD
  2
AcAdVirtualReferenceLine
  3
DesignerServices
 90
     1024
 91
        8
280
     0
281
     0
  0
CLASS
  1
ACADCONSLINE
  2
AcAdConstrainedLine
  3
DesignerServices
 90
     1024
 91
       21
280
     0
281
     0
  0
CLASS
  1
ACADCONSGROUP
  2
AcAdConstraintGroup
  3
DesignerServices
 90
     1024
 91
        4
280
     0
281
     0
  0
CLASS
  1
ACADIMPPTACAD
  2
AcAdVirtualImplicitPoint
  3
DesignerServices
 90
     1024
 91
       25
280
     0
281
     0
  0
CLASS
  1
ACADCONSPOINT
  2
AcAdConstrainedPoint
  3
DesignerServices
 90
     1024
 91
       20
280
     0
281
     0
  0
CLASS
  1
ADPCURCNS
  2
AcAdPointCurveConstr
  3
DesignerServices
 90
     1024
 91
       24
280
     0
281
     0
  0
CLASS
  1
ADHORCNS
  2
AcAdHorizontalConstr
  3
DesignerServices
 90
     1024
 91
        4
280
     0
281
     0
  0
CLASS
  1
ADVERCNS
  2
AcAdVerticalConstr
  3
DesignerServices
 90
     1024
 91
        4
280
     0
281
     0
  0
CLASS
  1
ADCLPROF2D
  2
AcAdClosedProfile2d
  3
DesignerServices
 90
     1024
 91
        3
280
     0
281
     0
  0
CLASS
  1
ACAD_FIXCONSTRAINT
  2
AcAdFixedConstraint
  3
DesignerServices
 90
     1024
 91
        1
280
     0
281
     0
  0
CLASS
  1
ACMELINEARARROW
  2
AcImLinearArrowDisplay
  3
AcMeServices
 90
     1024
 91
        0
280
     0
281
     1
  0
CLASS
  1
PARAM
  2
AcAdParam
  3
DesignerServices
 90
     1024
 91
       23
280
     0
281
     0
  0
CLASS
  1
ACADVOLFEATWITHTRIM
  2
AcAdVolFeatWithTrim
  3
DesignerServices
 90
     1024
 91
        3
280
     0
281
     0
  0
CLASS
  1
DEPEDGEFEATUREORDERING
  2
AcAdDepEdgeFeatureOrdering
  3
DesignerServices
 90
     1024
 91
        3
280
     0
281
     0
  0
CLASS
  1
ADWORKPOINTDISPLAY
  2
AcAdWorkPointDisplay
  3
DesignerServices
 90
     1024
 91
        1
280
     0
281
     1
  0
CLASS
  1
ADVIRTUALPOINTWORKPOINTFREE
  2
AcAdVirtualPointWorkPointFree
  3
DesignerServices
 90
     1024
 91
        1
280
     0
281
     0
  0
CLASS
  1
ADWORKPOINTSKETCH
  2
AcAdWorkPointSketch
  3
DesignerServices
 90
     1024
 91
        1
280
     0
281
     0
  0
CLASS
  1
ACADPARTDATUMPOINTRES
  2
AcAdPartDatumPointRes
  3
AdGrefServices
 90
     1024
 91
        0
280
     0
281
     0
  0
CLASS
  1
ACRFINSADJ
  2
AcRfInsAdjuster
  3
AcMeServices
 90
     1024
 91
        0
280
     0
281
     0
  0
CLASS
  1
DATUMPLANEDISPLAY
  2
AcAdDatumPlaneDisplay
  3
DesignerServices
 90
     1024
 91
        5
280
     0
281
     1
  0
CLASS
  1
ACADPARTDATUMPLANERES
  2
AcAdPartDatumPlaneRes
  3
AdGrefServices
 90
     1024
 91
        0
280
     0
281
     0
  0
CLASS
  1
ACMEPLINE
  2
AcImPlineDisplay
  3
AcMeServices
 90
     1024
 91
        0
280
     0
281
     1
  0
CLASS
  1
ACAD_CIRCLE
  2
AcAdCircle
  3
DesignerServices
 90
     1024
 91
        0
280
     0
281
     1
  0
CLASS
  1
ACADCIRCLEACAD
  2
AcAdVirtualCircleAcad
  3
DesignerServices
 90
     1024
 91
        1
280
     0
281
     0
  0
CLASS
  1
ACADCONSCIRCLE
  2
AcAdConstrainedCircle
  3
DesignerServices
 90
     1024
 91
        1
280
     0
281
     0
  0
CLASS
  1
ADCTRPTCNS
  2
AcAdCenterPointConstr
  3
DesignerServices
 90
     1024
 91
        1
280
     0
281
     0
  0
CLASS
  1
ACDBCIRCARCRES
  2
AcDbCircArcRes
  3
AcGrefServices
 90
     1024
 91
        0
280
     0
281
     0
  0
CLASS
  1
ACADSKETCHCIRCARCRES
  2
AcAdSketchCircArcRes
  3
DesignerServices
 90
     1024
 91
        1
280
     0
281
     0
  0
CLASS
  1
ADVIRTUALPOINTWORKPOINTFIXED
  2
AcAdVirtualPointWorkPointFixed
  3
DesignerServices
 90
     1024
 91
        6
280
     0
281
     0
  0
CLASS
  1
ADHDISTCNS
  2
AcAdHorizontalDistanceConstr
  3
DesignerServices
 90
     1024
 91
        5
280
     0
281
     0
  0
CLASS
  1
ACADSKETCHPOINTRES
  2
AcAdSketchPointRes
  3
DesignerServices
 90
     1024
 91
       20
280
     0
281
     0
  0
CLASS
  1
ADVDISTCNS
  2
AcAdVerticalDistanceConstr
  3
DesignerServices
 90
     1024
 91
        7
280
     0
281
     0
  0
CLASS
  1
ADACADDIACNS
  2
AcAdAcadDiameterConstr
  3
DesignerServices
 90
     1024
 91
        1
280
     0
281
     0
  0
CLASS
  1
AMIINSTATTCLASSRECORD
  2
AmiInstAttClassRecord
  3
AcAttribServices
 90
     1024
 91
        1
280
     0
281
     0
  0
CLASS
  1
AMIINSTATTIMP
  2
AmiInstAttImp
  3
AcAttribServices
 90
     1025
 91
        2
280
     0
281
     0
  0
CLASS
  1
ACRFOBJATTMGR
  2
AcRfObjAttGroupMgr
  3
AcAttribServices
 90
     1024
 91
        2
280
     0
281
     0
  0
CLASS
  1
ACRFMCADAPIATTHOLDER
  2
AcRfMCADAPIAttHolder
  3
AcAttribServices
 90
     1024
 91
        1
280
     0
281
     0
  0
CLASS
  1
FACEID
  2
AcAdFaceId
  3
DesignerServices
 90
     1024
 91
        0
280
     0
281
     0
  0
CLASS
  1
ACADPARTCYLINDERFACERES
  2
AcAdPartCylinderFaceRes
  3
AdGrefServices
 90
     1024
 91
        0
280
     0
281
     0
  0
CLASS
  1
ACADPARTPLANARFACERES
  2
AcAdPartPlanarFaceRes
  3
AdGrefServices
 90
     1024
 91
        0
280
     0
281
     0
  0
CLASS
  1
ADPLANEID
  2
AcAdPlaneId
  3
DesignerServices
 90
     1024
 91
        2
280
     0
281
     0
  0
CLASS
  1
ADDATUMPLANEFACE
  2
AcAdDatumPlaneFace
  3
DesignerServices
 90
     1024
 91
        2
280
     0
281
     0
  0
CLASS
  1
ADDATUMPLANEOFFSET
  2
AcAdDatumPlaneOffset
  3
DesignerServices
 90
     1024
 91
        3
280
     0
281
     0
  0
CLASS
  1
DATUMAXISDISPLAY
  2
AcAdDatumAxisDisplay
  3
DesignerServices
 90
     1024
 91
        1
280
     0
281
     1
  0
CLASS
  1
ADSURFGEOMID
  2
AcAdSurfGeomId
  3
DesignerServices
 90
     1024
 91
        1
280
     0
281
     0
  0
CLASS
  1
ADDATUMAXISCENTER
  2
AcAdDatumAxisCenter
  3
DesignerServices
 90
     1024
 91
        1
280
     0
281
     0
  0
CLASS
  1
ACADPARTAXISRES
  2
AcAdPartAxisRes
  3
AdGrefServices
 90
     1024
 91
        0
280
     0
281
     0
  0
CLASS
  1
ACDBLINERES
  2
AcDbLineRes
  3
AcGrefServices
 90
     1024
 91
        0
280
     0
281
     0
  0
CLASS
  1
ACADSKETCHLINERES
  2
AcAdSketchLineRes
  3
DesignerServices
 90
     1024
 91
        4
280
     0
281
     0
  0
CLASS
  1
ADCONSTDSP
  2
AcAdConstraintDisplayTag
  3
DesignerServices
 90
     1024
 91
        0
280
     0
281
     1
  0
CLASS
  1
ADCONSDISP
  2
AcAdConstraintDisplay
  3
DesignerServices
 90
     1024
 91
        0
280
     0
281
     1
  0
CLASS
  1
ADACADANGCNS
  2
AcAdAcadAngleConstr
  3
DesignerServices
 90
     1024
 91
        2
280
     0
281
     0
  0
CLASS
  1
ADPROJCNS
  2
AcAdProjectionConstr
  3
DesignerServices
 90
     1024
 91
        1
280
     0
281
     0
  0
CLASS
  1
ADCOLNCNS
  2
AcAdColinearConstr
  3
DesignerServices
 90
     1024
 91
        1
280
     0
281
     0
  0
CLASS
  1
ACADBOUNDEDLINEDATUMID
  2
AcAdVirtualBoundedLineDatumId
  3
DesignerServices
 90
     1024
 91
        1
280
     0
281
     0
  0
CLASS
  1
ACADPARTCONICALFACERES
  2
AcAdPartConicalFaceRes
  3
AdGrefServices
 90
     1024
 91
        0
280
     0
281
     0
  0
CLASS
  1
DEPEDGESECONDARYDEPID
  2
AcAdDepEdgeSecondaryDepId
  3
DesignerServices
 90
     1024
 91
        0
280
     0
281
     0
  0
CLASS
  1
AMACTIVEPARTSELECTFILTER
  2
AcDmActivePartViewEntFilter
  3
DesignerServices
 90
     1024
 91
        0
280
     0
281
     0
  0
CLASS
  1
AM_ABS_PLANE
  2
AcDmAbsPlnDef
  3
AcMechDwgViewMgmt
 90
     1024
 91
        0
280
     0
281
     0
  0
CLASS
  1
AM_ABS_AXIS
  2
AcDmAbsAxisDef
  3
AcMechDwgViewMgmt
 90
     1024
 91
        0
280
     0
281
     0
  0
CLASS
  1
AM_BASE_VIEW_ORIENT
  2
AcDmBaseViewOr
  3
AcMechDwgViewMgmt
 90
     1024
 91
        0
280
     0
281
     0
  0
CLASS
  1
AM_DWG_VIEWPORT
  2
AcDmViewport
  3
AcMechDwgViewMgmt
 90
     1024
 91
        0
280
     0
281
     0
  0
CLASS
  1
AM_VIEW_DISPLAY
  2
AcDmDwgViewDisplay
  3
AcMechDwgViewMgmt
 90
     1024
 91
        0
280
     0
281
     0
  0
CLASS
  1
AM_CLDFLTS
  2
AcDmClDflts
  3
AcMechDwgViewMgmt
 90
     1024
 91
        9
280
     0
281
     0
  0
CLASS
  1
AM_BASE_VIEW
  2
AcDmBaseView
  3
AcMechDwgViewMgmt
 90
     1024
 91
        0
280
     0
281
     0
  0
CLASS
  1
AM_ORTHO_VIEW_ORIENT
  2
AcDmOrthoViewOr
  3
AcMechDwgViewMgmt
 90
     1024
 91
        0
280
     0
281
     0
  0
CLASS
  1
AM_ORTHO_VIEW
  2
AcDmOrthoView
  3
AcMechDwgViewMgmt
 90
     1024
 91
        0
280
     0
281
     0
  0
CLASS
  1
AM_ISO_VIEW_ORIENT
  2
AcDmIsoViewOr
  3
AcMechDwgViewMgmt
 90
     1024
 91
        0
280
     0
281
     0
  0
CLASS
  1
AM_ISO_VIEW
  2
AcDmIsoView
  3
AcMechDwgViewMgmt
 90
     1024
 91
        0
280
     0
281
     0
  0
CLASS
  1
ACDMVWEDARC
  2
AcDmViewEdgeArc
  3
AcMechDwgViewMgmt
 90
     1024
 91
        0
280
     0
281
     1
  0
CLASS
  1
ACDMVWEDCIRC
  2
AcDmViewEdgeCircle
  3
AcMechDwgViewMgmt
 90
     1024
 91
        0
280
     0
281
     1
  0
CLASS
  1
ACDMVWEDLINE
  2
AcDmViewEdgeLine
  3
AcMechDwgViewMgmt
 90
     1024
 91
        0
280
     0
281
     1
  0
CLASS
  1
CNRREFID
  2
AcAdCornerId
  3
DesignerServices
 90
     1024
 91
        0
280
     0
281
     0
  0
CLASS
  1
ACADPARTPOINTRES
  2
AcAdPartPointRes
  3
AdGrefServices
 90
     1024
 91
        0
280
     0
281
     0
  0
CLASS
  1
ACADPARTSKETCHPLANEAXISRES
  2
AcAdPartSketchPlaneAxisRes
  3
DesignerServices
 90
     1024
 91
        0
280
     0
281
     0
  0
CLASS
  1
AM_VIEWDIMPARALLEL
  2
AcDmViewDimParallel
  3
AcMechDwgViewMgmt
 90
     1024
 91
        0
280
     0
281
     0
  0
CLASS
  1
AMDTDMPARMAPDATA
  2
AmdtDmDimParMapData
  3
AcMechDwgViewMgmt
 90
     1024
 91
        0
280
     0
281
     0
  0
CLASS
  1
AM_VIEWDIMLINEAR
  2
AcDmViewDimLinear
  3
AcMechDwgViewMgmt
 90
     1024
 91
        0
280
     0
281
     0
  0
CLASS
  1
AM_VIEWDIMANGULAR
  2
AcDmViewDimAngular
  3
AcMechDwgViewMgmt
 90
     1024
 91
        0
280
     0
281
     0
  0
CLASS
  1
AM_ADLINCTRLINE
  2
AcAdLineCl
  3
DesignerServices
 90
     1024
 91
        0
280
     0
281
     0
  0
CLASS
  1
AM_VIEWDIMDIAMETER
  2
AcDmViewDimDiameter
  3
AcMechDwgViewMgmt
 90
     1024
 91
        0
280
     0
281
     0
  0
CLASS
  1
AM_ADCIRCTRLINE
  2
AcAdBullsEyeCl
  3
DesignerServices
 90
     1024
 91
        0
280
     0
281
     0
  0
CLASS
  1
AMDTMAPISURFMOUDULE
  2
AmdtMApiSurfModule
  3
MApiSurfServices
 90
     1024
 91
        1
280
     0
281
     0
  0
CLASS
  1
ACAMGTITLESTD
  2
AcAmgTitleStd
  3
"AmgTitle|Product Description: AutoCAD Mechanical|Company: Autodesk, Inc."
 90
     4095
 91
        5
280
     0
281
     0
  0
CLASS
  1
ACMDETAILSTANDARDJIS
  2
AmdtDetailSymStdJIS
  3
"Amdt_StdImp|Product Description: AutoCAD Mechanical|Company: Autodesk, Inc."
 90
     1024
 91
        1
280
     0
281
     0
  0
CLASS
  1
ACMSECTIONSTANDARDJIS
  2
AmdtSectionSymStdJIS
  3
"Amdt_StdImp|Product Description: AutoCAD Mechanical|Company: Autodesk, Inc."
 90
     1024
 91
        1
280
     0
281
     0
  0
CLASS
  1
ACMCENTERLINESTANDARDJIS
  2
AmdtCenterLineStdJIS
  3
"Amdt_StdImp|Product Description: AutoCAD Mechanical|Company: Autodesk, Inc."
 90
     1024
 91
        1
280
     0
281
     0
  0
CLASS
  1
ACMTHREADLINESTANDARDCSN
  2
AmdtThreadLineStdCSN
  3
"Amdt_StdImp|Product Description: AutoCAD Mechanical|Company: Autodesk, Inc."
 90
     1024
 91
        5
280
     0
281
     0
  0
CLASS
  1
ACMDETAILSTANDARDANSI
  2
AmdtDetailSymStdANSI
  3
"Amdt_StdImp|Product Description: AutoCAD Mechanical|Company: Autodesk, Inc."
 90
     1024
 91
        1
280
     0
281
     0
  0
CLASS
  1
ACMSECTIONSTANDARDANSI
  2
AmdtSectionSymStdANSI
  3
"Amdt_StdImp|Product Description: AutoCAD Mechanical|Company: Autodesk, Inc."
 90
     1024
 91
        1
280
     0
281
     0
  0
CLASS
  1
ACMCENTERLINESTANDARDANSI
  2
AmdtCenterLineStdANSI
  3
"Amdt_StdImp|Product Description: AutoCAD Mechanical|Company: Autodesk, Inc."
 90
     1024
 91
        1
280
     0
281
     0
  0
CLASS
  1
ACMDETAILSTANDARDBSI
  2
AmdtDetailSymStdBSI
  3
"Amdt_StdImp|Product Description: AutoCAD Mechanical|Company: Autodesk, Inc."
 90
     1024
 91
        1
280
     0
281
     0
  0
CLASS
  1
ACMSECTIONSTANDARDBSI
  2
AmdtSectionSymStdBSI
  3
"Amdt_StdImp|Product Description: AutoCAD Mechanical|Company: Autodesk, Inc."
 90
     1024
 91
        1
280
     0
281
     0
  0
CLASS
  1
ACMCENTERLINESTANDARDBSI
  2
AmdtCenterLineStdBSI
  3
"Amdt_StdImp|Product Description: AutoCAD Mechanical|Company: Autodesk, Inc."
 90
     1024
 91
        1
280
     0
281
     0
  0
CLASS
  1
ACMDETAILSTANDARDDIN
  2
AmdtDetailSymStdDIN
  3
"Amdt_StdImp|Product Description: AutoCAD Mechanical|Company: Autodesk, Inc."
 90
     1024
 91
        1
280
     0
281
     0
  0
CLASS
  1
ACMSECTIONSTANDARDDIN
  2
AmdtSectionSymStdDIN
  3
"Amdt_StdImp|Product Description: AutoCAD Mechanical|Company: Autodesk, Inc."
 90
     1024
 91
        1
280
     0
281
     0
  0
CLASS
  1
ACMCENTERLINESTANDARDDIN
  2
AmdtCenterLineStdDIN
  3
"Amdt_StdImp|Product Description: AutoCAD Mechanical|Company: Autodesk, Inc."
 90
     1024
 91
        1
280
     0
281
     0
  0
CLASS
  1
AMDTEDGESTANDARDISO
  2
AmdtEdgeStdISO
  3
"Amdt_StdImp|Product Description: AutoCAD Mechanical|Company: Autodesk, Inc."
 90
     1024
 91
        1
280
     0
281
     0
  0
CLASS
  1
ACMDETAILSTANDARDISO
  2
AmdtDetailSymStdISO
  3
"Amdt_StdImp|Product Description: AutoCAD Mechanical|Company: Autodesk, Inc."
 90
     1024
 91
        1
280
     0
281
     0
  0
CLASS
  1
ACMSECTIONSTANDARDISO
  2
AmdtSectionSymStdISO
  3
"Amdt_StdImp|Product Description: AutoCAD Mechanical|Company: Autodesk, Inc."
 90
     1024
 91
        1
280
     0
281
     0
  0
CLASS
  1
ACMCENTERLINESTANDARDISO
  2
AmdtCenterLineStdISO
  3
"Amdt_StdImp|Product Description: AutoCAD Mechanical|Company: Autodesk, Inc."
 90
     1024
 91
        1
280
     0
281
     0
  0
CLASS
  1
ACAMGLAYSTD
  2
AcAmgLayStd
  3
"AmgLay|Product Description: AutoCAD Mechanical|Company: Autodesk, Inc."
 90
     1024
 91
        5
280
     0
281
     0
  0
CLASS
  1
ACAMGDIMSTD
  2
AcAmgDimStd
  3
"AmgDim|Product Description: AutoCAD Mechanical|Company: Autodesk, Inc."
 90
     1024
 91
        5
280
     0
281
     0
  0
CLASS
  1
ACDMPARTVIEWDATA
  2
AcDmPartViewData
  3
AcMechDwgViewMgmt
 90
     1024
 91
        0
280
     0
281
     0
  0
CLASS
  1
ACDMDISPLAYATTRIBS
  2
AcDmDisplayAttribs
  3
AcMechDwgViewMgmt
 90
     1024
 91
        0
280
     0
281
     0
  0
CLASS
  1
ACDMBODYINSTANCEDATA
  2
AcDmBodyInstanceData
  3
AcMechDwgViewMgmt
 90
     1024
 91
        0
280
     0
281
     0
  0
CLASS
  1
AMDTFORMULAUPDATEDISPATCHER
  2
AmdtFormulaUpdateDispatcher
  3
AcMeServices
 90
     1024
 91
        1
280
     0
281
     0
  0
CLASS
  1
ACAMCONTEXTPARTMODELER
  2
AcAmContextPartModeler
  3
DesignerAssemblies
 90
     1024
 91
        1
280
     0
281
     0
  0
CLASS
  1
MATERIAL
  2
AcDbMaterial
  3
ObjectDBX Classes
 90
     1153
 91
        3
280
     0
281
     0
  0
CLASS
  1
VISUALSTYLE
  2
AcDbVisualStyle
  3
ObjectDBX Classes
 90
     4095
 91
       16
280
     0
281
     0
  0
CLASS
  1
TABLESTYLE
  2
AcDbTableStyle
  3
ObjectDBX Classes
 90
     4095
 91
        1
280
     0
281
     0
  0
CLASS
  1
SCALE
  2
AcDbScale
  3
ObjectDBX Classes
 90
     1153
 91
       33
280
     0
281
     0
  0
CLASS
  1
MLEADERSTYLE
  2
AcDbMLeaderStyle
  3
ACDB_MLEADERSTYLE_CLASS
 90
     4095
 91
        1
280
     0
281
     0
  0
CLASS
  1
ACMNOTESTANDARDJIS
  2
AmdtNoteStdJIS
  3
"Amdt_StdImp|Product Description: AutoCAD Mechanical|Company: Autodesk, Inc."
 90
     1024
 91
        1
280
     0
281
     0
  0
CLASS
  1
AMDTNOTETEMPLATEDB
  2
AmdtNoteTemplateDB
  3
AcmSymBB|Product Description: AutoCAD Mechanical|Company: Autodesk, Inc.
 90
     1024
 91
       30
280
     0
281
     0
  0
CLASS
  1
ACMTAPERSTANDARDJIS
  2
AcmTaperStdJIS
  3
"Amdt_StdImp|Product Description: AutoCAD Mechanical|Company: Autodesk, Inc."
 90
     1024
 91
        1
280
     0
281
     0
  0
CLASS
  1
ACMANOOTATIONVIEWSTANDARDJIS
  2
AmdtAnViewStdJIS
  3
"Amdt_StdImp|Product Description: AutoCAD Mechanical|Company: Autodesk, Inc."
 90
     1024
 91
        1
280
     0
281
     0
  0
CLASS
  1
ACMNOTESTANDARDANSI
  2
AmdtNoteStdANSI
  3
"Amdt_StdImp|Product Description: AutoCAD Mechanical|Company: Autodesk, Inc."
 90
     1024
 91
        1
280
     0
281
     0
  0
CLASS
  1
ACMTAPERSTANDARDANSI
  2
AcmTaperStdANSI
  3
"Amdt_StdImp|Product Description: AutoCAD Mechanical|Company: Autodesk, Inc."
 90
     1024
 91
        1
280
     0
281
     0
  0
CLASS
  1
ACMANOOTATIONVIEWSTANDARDANSI
  2
AmdtAnViewStdANSI
  3
"Amdt_StdImp|Product Description: AutoCAD Mechanical|Company: Autodesk, Inc."
 90
     1024
 91
        1
280
     0
281
     0
  0
CLASS
  1
ACMNOTESTANDARDBSI
  2
AmdtNoteStdBSI
  3
"Amdt_StdImp|Product Description: AutoCAD Mechanical|Company: Autodesk, Inc."
 90
     1024
 91
        1
280
     0
281
     0
  0
CLASS
  1
ACMTAPERSTANDARDBSI
  2
AcmTaperStdBSI
  3
"Amdt_StdImp|Product Description: AutoCAD Mechanical|Company: Autodesk, Inc."
 90
     1024
 91
        1
280
     0
281
     0
  0
CLASS
  1
ACMANOOTATIONVIEWSTANDARDBSI
  2
AmdtAnViewStdBSI
  3
"Amdt_StdImp|Product Description: AutoCAD Mechanical|Company: Autodesk, Inc."
 90
     1024
 91
        1
280
     0
281
     0
  0
CLASS
  1
ACMNOTESTANDARDDIN
  2
AmdtNoteStdDIN
  3
"Amdt_StdImp|Product Description: AutoCAD Mechanical|Company: Autodesk, Inc."
 90
     1024
 91
        1
280
     0
281
     0
  0
CLASS
  1
ACMTAPERSTANDARDDIN
  2
AcmTaperStdDIN
  3
"Amdt_StdImp|Product Description: AutoCAD Mechanical|Company: Autodesk, Inc."
 90
     1024
 91
        1
280
     0
281
     0
  0
CLASS
  1
ACMANOOTATIONVIEWSTANDARDDIN
  2
AmdtAnViewStdDIN
  3
"Amdt_StdImp|Product Description: AutoCAD Mechanical|Company: Autodesk, Inc."
 90
     1024
 91
        1
280
     0
281
     0
  0
CLASS
  1
ACMNOTESTANDARDISO
  2
AmdtNoteStdISO
  3
"Amdt_StdImp|Product Description: AutoCAD Mechanical|Company: Autodesk, Inc."
 90
     1024
 91
        1
280
     0
281
     0
  0
CLASS
  1
ACMTAPERSTANDARDISO
  2
AcmTaperStdISO
  3
"Amdt_StdImp|Product Description: AutoCAD Mechanical|Company: Autodesk, Inc."
 90
     1024
 91
        1
280
     0
281
     0
  0
CLASS
  1
ACMANOOTATIONVIEWSTANDARDISO
  2
AmdtAnViewStdISO
  3
"Amdt_StdImp|Product Description: AutoCAD Mechanical|Company: Autodesk, Inc."
 90
     1024
 91
        1
280
     0
281
     0
  0
CLASS
  1
CELLSTYLEMAP
  2
AcDbCellStyleMap
  3
ObjectDBX Classes
 90
     1152
 91
        5
280
     0
281
     0
  0
CLASS
  1
SORTENTSTABLE
  2
AcDbSortentsTable
  3
ObjectDBX Classes
 90
        0
 91
        1
280
     0
281
     0
  0
CLASS
  1
AMDTEDGESTANDARDJIS
  2
AmdtEdgeStdJIS
  3
"Amdt_StdImp|Product Description: AutoCAD Mechanical|Company: Autodesk, Inc."
 90
     1024
 91
        1
280
     0
281
     0
  0
ENDSEC
  0
SECTION
  2
TABLES
  0
TABLE
  2
VPORT
  5
8
330
0
100
AcDbSymbolTable
 70
     3
  0
VPORT
  5
79C
330
8
100
AcDbSymbolTableRecord
100
AcDbViewportTableRecord
  2
asurf_wcs_vp_2
 70
     0
 10
0.0
 20
0.0
 11
0.5
 21
1.0
 12
0.0
 22
0.0
 13
0.0
 23
0.0
 14
10.0
 24
10.0
 15
10.0
 25
10.0
 16
0.0
 26
0.0
 36
1.0
 17
210.0
 27
148.5
 37
0.0
 40
664.2413317557894
 41
0.6397245798091085
 42
50.0
 43
0.0
 44
0.0
 50
0.0
 51
0.0
 71
     0
 72
  1000
 73
     1
 74
     0
 75
     0
 76
     0
 77
     0
 78
     0
281
     4
 65
     0
110
0.0
120
0.0
130
0.0
111
1.0
121
0.0
131
0.0
112
0.0
122
1.0
132
0.0
 79
     0
146
0.0
348
25B2
 60
     3
 61
     5
292
     1
282
     1
141
0.0
142
0.0
 63
   250
421
  3355443
  0
VPORT
  5
79D
330
8
100
AcDbSymbolTableRecord
100
AcDbViewportTableRecord
  2
asurf_wcs_vp_2
 70
     0
 10
0.5
 20
0.0
 11
1.0
 21
1.0
 12
-166.0188166206583
 22
35.22481755965711
 13
0.0
 23
0.0
 14
10.0
 24
10.0
 15
10.0
 25
10.0
 16
1.0
 26
-1.0
 36
1.0
 17
210.0
 27
148.5
 37
0.0
 40
482.8380307317477
 41
0.6397245798091085
 42
50.0
 43
0.0
 44
0.0
 50
0.0
 51
0.0
 71
     0
 72
  1000
 73
     1
 74
     0
 75
     0
 76
     0
 77
     0
 78
     0
281
     4
 65
     0
110
0.0
120
0.0
130
0.0
111
1.0
121
0.0
131
0.0
112
0.0
122
1.0
132
0.0
 79
     0
146
0.0
348
25B2
 60
     3
 61
     5
292
     1
282
     1
141
0.0
142
0.0
 63
   250
421
  3355443
  0
VPORT
  5
2594
330
8
100
AcDbSymbolTableRecord
100
AcDbViewportTableRecord
  2
*Active
 70
     0
 10
0.0
 20
0.0
 11
1.0
 21
1.0
 12
-143.6101925794148
 22
22.61553562208025
 13
0.0
 23
0.0
 14
10.0
 24
10.0
 15
10.0
 25
10.0
 16
0.0
 26
0.0
 36
1.0
 17
225.0419189867749
 27
164.8409058003548
 37
0.0
 40
225.9262541335271
 41
1.658484525080042
 42
50.0
 43
0.0
 44
0.0
 50
0.0
 51
0.0
 71
     0
 72
  1000
 73
     1
 74
     1
 75
     0
 76
     0
 77
     0
 78
     0
281
     0
 65
     0
110
0.0
120
0.0
130
0.0
111
1.0
121
0.0
131
0.0
112
0.0
122
1.0
132
0.0
 79
     0
146
0.0
348
25B5
 60
     3
 61
     5
292
     1
282
     1
141
0.0
142
0.0
 63
   250
421
  3355443
  0
ENDTAB
  0
TABLE
  2
LTYPE
  5
5
330
0
100
AcDbSymbolTable
 70
    35
  0
LTYPE
  5
14
330
5
100
AcDbSymbolTableRecord
100
AcDbLinetypeTableRecord
  2
BYBLOCK
 70
     0
  3

 72
    65
 73
     0
 40
0.0
  0
LTYPE
  5
15
330
5
100
AcDbSymbolTableRecord
100
AcDbLinetypeTableRecord
  2
BYLAYER
 70
     0
  3

 72
    65
 73
     0
 40
0.0
  0
LTYPE
  5
16
330
5
100
AcDbSymbolTableRecord
100
AcDbLinetypeTableRecord
  2
CONTINUOUS
 70
     0
  3
Solid line
 72
    65
 73
     0
 40
0.0
  0
LTYPE
  5
BD
330
5
100
AcDbSymbolTableRecord
100
AcDbLinetypeTableRecord
  2
HIDDEN
 70
     0
  3
__ __ __ __ __ __ __ __ __ __ __ __ __ __ __ __
 72
    65
 73
     2
 40
0.375
 49
0.25
 74
     0
 49
-0.125
 74
     0
  0
LTYPE
  5
BF
330
5
100
AcDbSymbolTableRecord
100
AcDbLinetypeTableRecord
  2
PHANTOM2
 70
     0
  3
___ _ _ ___ _ _ ___ _ _ ___ _ _ ___ _ _ ___ _ _
 72
    65
 73
     6
 40
1.25
 49
0.625
 74
     0
 49
-0.125
 74
     0
 49
0.125
 74
     0
 49
-0.125
 74
     0
 49
0.125
 74
     0
 49
-0.125
 74
     0
  0
LTYPE
  5
CA
330
5
100
AcDbSymbolTableRecord
100
AcDbLinetypeTableRecord
  2
CENTER
 70
     0
  3
____ _ ____ _ ____ _ ____ _ ____ _ ____ _ ____ 
 72
    65
 73
     4
 40
2.0
 49
1.25
 74
     0
 49
-0.25
 74
     0
 49
0.25
 74
     0
 49
-0.25
 74
     0
  0
LTYPE
  5
120
330
5
100
AcDbSymbolTableRecord
100
AcDbLinetypeTableRecord
  2
ASULTYPE
 70
     0
  3
Solid line
 72
    65
 73
     2
 40
3.0
 49
2.5
 74
     0
 49
0.5
 74
     0
  0
LTYPE
  5
121
330
5
100
AcDbSymbolTableRecord
100
AcDbLinetypeTableRecord
  2
ASVLTYPE
 70
     0
  3
__ __ __ __ __ __ __ __ __ __ __ __ __ __ __ __ __ __ __ __ __
 72
    65
 73
     2
 40
0.75
 49
0.5
 74
     0
 49
-0.25
 74
     0
  0
LTYPE
  5
149
330
5
100
AcDbSymbolTableRecord
100
AcDbLinetypeTableRecord
  2
ACJISTGB
 70
     0
  3
__ . . __ . .
 72
    65
 73
     6
 40
9.0
 49
4.0
 74
     0
 49
-1.0
 74
     0
 49
1.0
 74
     0
 49
-1.0
 74
     0
 49
1.0
 74
     0
 49
-1.0
 74
     0
  0
LTYPE
  5
14A
330
5
100
AcDbSymbolTableRecord
100
AcDbLinetypeTableRecord
  2
ACJISTGL
 70
     0
  3
_ _ _ _ _
 72
    65
 73
     2
 40
3.0
 49
2.0
 74
     0
 49
-1.0
 74
     0
  0
LTYPE
  5
14D
330
5
100
AcDbSymbolTableRecord
100
AcDbLinetypeTableRecord
  2
ACANSTGB
 70
     0
  3
__ . . __ . .
 72
    65
 73
     6
 40
0.35433070866
 49
0.15748031496
 74
     0
 49
-0.03937007874
 74
     0
 49
0.03937007874
 74
     0
 49
-0.03937007874
 74
     0
 49
0.03937007874
 74
     0
 49
-0.03937007874
 74
     0
  0
LTYPE
  5
14E
330
5
100
AcDbSymbolTableRecord
100
AcDbLinetypeTableRecord
  2
ACANSTGL
 70
     0
  3
_ _ _ _ _
 72
    65
 73
     2
 40
0.11811023622
 49
0.07874015748
 74
     0
 49
-0.03937007874
 74
     0
  0
LTYPE
  5
151
330
5
100
AcDbSymbolTableRecord
100
AcDbLinetypeTableRecord
  2
ACBSWELD
 70
     0
  3
_ _ _ _ _
 72
    65
 73
     2
 40
2.0
 49
2.0
 74
     0
 49
-1.0
 74
     0
  0
LTYPE
  5
152
330
5
100
AcDbSymbolTableRecord
100
AcDbLinetypeTableRecord
  2
ACBSITGB
 70
     0
  3
__ . . __ . .
 72
    65
 73
     6
 40
9.0
 49
4.0
 74
     0
 49
-1.0
 74
     0
 49
1.0
 74
     0
 49
-1.0
 74
     0
 49
1.0
 74
     0
 49
-1.0
 74
     0
  0
LTYPE
  5
153
330
5
100
AcDbSymbolTableRecord
100
AcDbLinetypeTableRecord
  2
ACBSITGL
 70
     0
  3
_ _ _ _ _
 72
    65
 73
     2
 40
3.0
 49
2.0
 74
     0
 49
-1.0
 74
     0
  0
LTYPE
  5
156
330
5
100
AcDbSymbolTableRecord
100
AcDbLinetypeTableRecord
  2
ACDINWELD
 70
     0
  3
_ _ _ _ _
 72
    65
 73
     2
 40
2.0
 49
2.0
 74
     0
 49
-1.0
 74
     0
  0
LTYPE
  5
157
330
5
100
AcDbSymbolTableRecord
100
AcDbLinetypeTableRecord
  2
ACDINTGB
 70
     0
  3
__ . . __ . .
 72
    65
 73
     6
 40
9.0
 49
4.0
 74
     0
 49
-1.0
 74
     0
 49
1.0
 74
     0
 49
-1.0
 74
     0
 49
1.0
 74
     0
 49
-1.0
 74
     0
  0
LTYPE
  5
158
330
5
100
AcDbSymbolTableRecord
100
AcDbLinetypeTableRecord
  2
ACDINTGL
 70
     0
  3
_ _ _ _ _
 72
    65
 73
     2
 40
3.0
 49
2.0
 74
     0
 49
-1.0
 74
     0
  0
LTYPE
  5
15B
330
5
100
AcDbSymbolTableRecord
100
AcDbLinetypeTableRecord
  2
ACISOWELD
 70
     0
  3
_ _ _ _ _
 72
    65
 73
     2
 40
2.0
 49
2.0
 74
     0
 49
-1.0
 74
     0
  0
LTYPE
  5
15C
330
5
100
AcDbSymbolTableRecord
100
AcDbLinetypeTableRecord
  2
ACISOTGB
 70
     0
  3
__ . . __ . .
 72
    65
 73
     6
 40
9.0
 49
4.0
 74
     0
 49
-1.0
 74
     0
 49
1.0
 74
     0
 49
-1.0
 74
     0
 49
1.0
 74
     0
 49
-1.0
 74
     0
  0
LTYPE
  5
15D
330
5
100
AcDbSymbolTableRecord
100
AcDbLinetypeTableRecord
  2
ACISOTGL
 70
     0
  3
_ _ _ _ _
 72
    65
 73
     2
 40
3.0
 49
2.0
 74
     0
 49
-1.0
 74
     0
  0
LTYPE
  5
175
330
5
100
AcDbSymbolTableRecord
100
AcDbLinetypeTableRecord
  2
AM_ISO02W050
 70
     0
  3
__ __ __ __ __ __ __ __ __ __ __ __ __ __ __
 72
    65
 73
     2
 40
7.5
 49
6.0
 74
     0
 49
-1.5
 74
     0
  0
LTYPE
  5
176
330
5
100
AcDbSymbolTableRecord
100
AcDbLinetypeTableRecord
  2
AM_ISO08W050
 70
     0
  3
____ . ____ . ____ . ____ . ____ . ____ . ____
 72
    65
 73
     4
 40
18.0
 49
12.0
 74
     0
 49
-1.5
 74
     0
 49
3.0
 74
     0
 49
-1.5
 74
     0
  0
LTYPE
  5
177
330
5
100
AcDbSymbolTableRecord
100
AcDbLinetypeTableRecord
  2
AM_ISO09W050
 70
     0
  3
_____ . . _____ . . _____ . . ____ .. ____
 72
    65
 73
     6
 40
22.5
 49
12.0
 74
     0
 49
-1.5
 74
     0
 49
3.0
 74
     0
 49
-1.5
 74
     0
 49
3.0
 74
     0
 49
-1.5
 74
     0
  0
LTYPE
  5
178
330
5
100
AcDbSymbolTableRecord
100
AcDbLinetypeTableRecord
  2
AM_ISO02W050x2
 70
     0
  3
 _ _ _ _ _ _ _ _ _ _ _ _
 72
    65
 73
     2
 40
3.75
 49
3.0
 74
     0
 49
-0.75
 74
     0
  0
LTYPE
  5
179
330
5
100
AcDbSymbolTableRecord
100
AcDbLinetypeTableRecord
  2
AM_ISO08W050x2
 70
     0
  3
__ . __ . __ . __ . __ . __
 72
    65
 73
     4
 40
9.0
 49
6.0
 74
     0
 49
-0.75
 74
     0
 49
1.5
 74
     0
 49
-0.75
 74
     0
  0
LTYPE
  5
17C
330
5
100
AcDbSymbolTableRecord
100
AcDbLinetypeTableRecord
  2
amzigzag
 70
     0
  3
/\/-/\/-/\/-/\/-/\/-/\/
 72
    65
 73
     2
 40
11.0001
 49
0.0001
 74
     4
 75
   135
340
17B
 46
0.04
 50
0.0
 44
0.0
 45
0.0
 49
-11.0
 74
     0
  0
LTYPE
  5
1814
330
5
100
AcDbSymbolTableRecord
100
AcDbLinetypeTableRecord
  2
ACANSTGBM
 70
     0
  3
__ . . __ . .
 72
    65
 73
     6
 40
9.0
 49
4.0
 74
     0
 49
-1.0
 74
     0
 49
1.0
 74
     0
 49
-1.0
 74
     0
 49
1.0
 74
     0
 49
-1.0
 74
     0
  0
LTYPE
  5
1815
330
5
100
AcDbSymbolTableRecord
100
AcDbLinetypeTableRecord
  2
ACANSTGLM
 70
     0
  3
_ _ _ _ _
 72
    65
 73
     2
 40
3.0
 49
2.0
 74
     0
 49
-1.0
 74
     0
  0
LTYPE
  5
1A3E
330
5
100
AcDbSymbolTableRecord
100
AcDbLinetypeTableRecord
  2
GEN7
 70
     0
  3
____ . ____ . ____ . ____ . ___
 72
    65
 73
     4
 40
13.75
 49
9.75
 74
     0
 49
-1.5
 74
     0
 49
1.0
 74
     0
 49
-1.5
 74
     0
  0
LTYPE
  5
1A3F
330
5
100
AcDbSymbolTableRecord
100
AcDbLinetypeTableRecord
  2
GEN3
 70
     0
  3
-- -- -- -- -- -- -- -- -- -- -
 72
    65
 73
     2
 40
6.25
 49
4.75
 74
     0
 49
-1.5
 74
     0
  0
LTYPE
  5
1A40
330
5
100
AcDbSymbolTableRecord
100
AcDbLinetypeTableRecord
  2
GEN3A
 70
     0
  3
 - - - - -
 72
    65
 73
     2
 40
3.125
 49
2.25
 74
     0
 49
-0.875
 74
     0
  0
LTYPE
  5
1A41
330
5
100
AcDbSymbolTableRecord
100
AcDbLinetypeTableRecord
  2
GEN4A
 70
     0
  3
_____ . . _____ . . _____ . . _
 72
    65
 73
     6
 40
16.25
 49
9.75
 74
     0
 49
-1.5
 74
     0
 49
1.0
 74
     0
 49
-1.5
 74
     0
 49
1.0
 74
     0
 49
-1.5
 74
     0
  0
LTYPE
  5
1A42
330
5
100
AcDbSymbolTableRecord
100
AcDbLinetypeTableRecord
  2
GEN7A
 70
     0
  3
__ . __ . __
 72
    65
 73
     4
 40
6.875
 49
4.75
 74
     0
 49
-0.875
 74
     0
 49
0.375
 74
     0
 49
-0.875
 74
     0
  0
LTYPE
  5
1A43
330
5
100
AcDbSymbolTableRecord
100
AcDbLinetypeTableRecord
  2
CONTINU
 70
     0
  3

 72
    65
 73
     0
 40
0.0
  0
LTYPE
  5
1A44
330
5
100
AcDbSymbolTableRecord
100
AcDbLinetypeTableRecord
  2
genzigzag
 70
     0
  3
/\/-/\/-/\/-/\/-/\/-/\/
 72
    65
 73
     2
 40
12.0001
 49
0.0001
 74
     4
 75
   135
340
1A4E
 46
2.0
 50
0.0
 44
0.0
 45
0.0
 49
-12.0
 74
     0
  0
ENDTAB
  0
TABLE
  2
LAYER
  5
2
102
{ACAD_XDICTIONARY
360
26DB
102
}
330
0
100
AcDbSymbolTable
 70
    29
  0
LAYER
  5
F
102
{ACAD_XDICTIONARY
360
263A
102
}
330
2
100
AcDbSymbolTableRecord
100
AcDbLayerTableRecord
  2
0
 70
     0
 62
     7
  6
CONTINUOUS
370
    -3
390
166
347
25A7
  0
LAYER
  5
35A
102
{ACAD_XDICTIONARY
360
263C
102
}
330
2
100
AcDbSymbolTableRecord
100
AcDbLayerTableRecord
  2
AM_0
 70
     0
 62
     7
  6
CONTINUOUS
370
    50
390
166
347
25A7
  0
LAYER
  5
35B
102
{ACAD_XDICTIONARY
360
263E
102
}
330
2
100
AcDbSymbolTableRecord
100
AcDbLayerTableRecord
  2
AM_1
 70
     0
 62
     4
  6
CONTINUOUS
370
    25
390
166
347
25A7
  0
LAYER
  5
35C
102
{ACAD_XDICTIONARY
360
2640
102
}
330
2
100
AcDbSymbolTableRecord
100
AcDbLayerTableRecord
  2
AM_2
 70
     0
 62
     5
  6
CONTINUOUS
370
    50
390
166
347
25A7
  0
LAYER
  5
35D
102
{ACAD_XDICTIONARY
360
2642
102
}
330
2
100
AcDbSymbolTableRecord
100
AcDbLayerTableRecord
  2
AM_3
 70
     0
 62
     6
  6
AM_ISO02W050
370
    25
390
166
347
25A7
  0
LAYER
  5
35E
102
{ACAD_XDICTIONARY
360
2644
102
}
330
2
100
AcDbSymbolTableRecord
100
AcDbLayerTableRecord
  2
AM_4
 70
     0
 62
     3
  6
CONTINUOUS
370
    25
390
166
347
25A7
  0
LAYER
  5
35F
102
{ACAD_XDICTIONARY
360
2646
102
}
330
2
100
AcDbSymbolTableRecord
100
AcDbLayerTableRecord
  2
AM_5
 70
     0
 62
     3
  6
CONTINUOUS
370
    25
390
166
347
25A7
  0
LAYER
  5
360
102
{ACAD_XDICTIONARY
360
2648
102
}
330
2
100
AcDbSymbolTableRecord
100
AcDbLayerTableRecord
  2
AM_6
 70
     0
 62
     2
  6
CONTINUOUS
370
    35
390
166
347
25A7
  0
LAYER
  5
361
102
{ACAD_XDICTIONARY
360
264A
102
}
330
2
100
AcDbSymbolTableRecord
100
AcDbLayerTableRecord
  2
AM_7
 70
     0
 62
     1
  6
AM_ISO08W050
370
    25
390
166
347
25A7
  0
LAYER
  5
362
102
{ACAD_XDICTIONARY
360
264C
102
}
330
2
100
AcDbSymbolTableRecord
100
AcDbLayerTableRecord
  2
AM_8
 70
     0
 62
     1
  6
CONTINUOUS
370
    25
390
166
347
25A7
  0
LAYER
  5
38E
102
{ACAD_XDICTIONARY
360
264E
102
}
330
2
100
AcDbSymbolTableRecord
100
AcDbLayerTableRecord
  2
AM_FR
 70
     5
 62
     7
  6
CONTINUOUS
370
    -3
390
166
347
25A7
  0
LAYER
  5
3F7
102
{ACAD_XDICTIONARY
360
2650
102
}
330
2
100
AcDbSymbolTableRecord
100
AcDbLayerTableRecord
  2
ASHADE
 70
     4
 62
     7
  6
CONTINUOUS
370
    -3
390
166
347
25A7
  0
LAYER
  5
5FC
102
{ACAD_XDICTIONARY
360
2652
102
}
330
2
100
AcDbSymbolTableRecord
100
AcDbLayerTableRecord
  2
AM_WORK
 70
     0
 62
     7
  6
CONTINUOUS
370
    -3
390
166
347
25A7
  0
LAYER
  5
614
102
{ACAD_XDICTIONARY
360
2654
102
}
330
2
100
AcDbSymbolTableRecord
100
AcDbLayerTableRecord
  2
AM_CL
 70
     0
 62
     1
  6
CONTINUOUS
370
    25
390
166
347
25A7
  0
LAYER
  5
643
330
2
100
AcDbSymbolTableRecord
100
AcDbLayerTableRecord
  2
Defpoints
 70
     0
 62
     7
  6
CONTINUOUS
290
     0
370
    -3
390
166
347
25A7
  0
LAYER
  5
79B
102
{ACAD_XDICTIONARY
360
2656
102
}
330
2
100
AcDbSymbolTableRecord
100
AcDbLayerTableRecord
  2
ASRF_TMP
 70
     0
 62
     7
  6
CONTINUOUS
370
    -3
390
166
347
25A7
  0
LAYER
  5
1054
102
{ACAD_XDICTIONARY
360
2658
102
}
330
2
100
AcDbSymbolTableRecord
100
AcDbLayerTableRecord
  2
AM_VIEWS
 70
     1
 62
    -1
  6
CONTINUOUS
290
     0
370
    25
390
166
347
25A7
  0
LAYER
  5
106E
102
{ACAD_XDICTIONARY
360
265A
102
}
330
2
100
AcDbSymbolTableRecord
100
AcDbLayerTableRecord
  2
AM_VIS
 70
     2
 62
     7
  6
CONTINUOUS
370
    50
390
166
347
25A7
  0
LAYER
  5
106F
102
{ACAD_XDICTIONARY
360
265C
102
}
330
2
100
AcDbSymbolTableRecord
100
AcDbLayerTableRecord
  2
AM_HID
 70
     2
 62
     6
  6
AM_ISO02W050
370
    25
390
166
347
25A7
  0
LAYER
  5
108B
102
{ACAD_XDICTIONARY
360
265E
102
}
330
2
100
AcDbSymbolTableRecord
100
AcDbLayerTableRecord
  2
AM_PARDIM
 70
     0
 62
     3
  6
CONTINUOUS
370
    25
390
166
347
25A7
  0
LAYER
  5
1969
102
{ACAD_XDICTIONARY
360
2660
102
}
330
2
100
AcDbSymbolTableRecord
100
AcDbLayerTableRecord
  2
AmdtBRLock
 70
     6
 62
     7
  6
CONTINUOUS
370
    -3
390
166
347
25A7
  0
LAYER
  5
1A45
102
{ACAD_XDICTIONARY
360
2662
102
}
330
2
100
AcDbSymbolTableRecord
100
AcDbLayerTableRecord
  2
5
 70
     0
 62
     3
  6
CONTINUOUS
370
    -3
390
166
347
25A7
  0
LAYER
  5
1A46
102
{ACAD_XDICTIONARY
360
2664
102
}
330
2
100
AcDbSymbolTableRecord
100
AcDbLayerTableRecord
  2
1
 70
     0
 62
     4
  6
CONTINUOUS
370
    -3
390
166
347
25A7
  0
LAYER
  5
1A47
102
{ACAD_XDICTIONARY
360
2666
102
}
330
2
100
AcDbSymbolTableRecord
100
AcDbLayerTableRecord
  2
2
 70
     0
 62
     5
  6
CONTINUOUS
370
    -3
390
166
347
25A7
  0
LAYER
  5
1A48
102
{ACAD_XDICTIONARY
360
2668
102
}
330
2
100
AcDbSymbolTableRecord
100
AcDbLayerTableRecord
  2
2A
 70
     0
 62
     7
  6
GEN7
370
    -3
390
166
347
25A7
  0
LAYER
  5
1A49
102
{ACAD_XDICTIONARY
360
266A
102
}
330
2
100
AcDbSymbolTableRecord
100
AcDbLayerTableRecord
  2
6
 70
     0
 62
     2
  6
CONTINUOUS
370
    -3
390
166
347
25A7
  0
LAYER
  5
1A4A
102
{ACAD_XDICTIONARY
360
266C
102
}
330
2
100
AcDbSymbolTableRecord
100
AcDbLayerTableRecord
  2
7
 70
     0
 62
     1
  6
GEN7
370
    -3
390
166
347
25A7
  0
LAYER
  5
1A4B
102
{ACAD_XDICTIONARY
360
266E
102
}
330
2
100
AcDbSymbolTableRecord
100
AcDbLayerTableRecord
  2
RAHM5
 70
     0
 62
     7
  6
CONTINUOUS
370
    -3
390
166
347
25A7
  0
LAYER
  5
223E
102
{ACAD_XDICTIONARY
360
2670
102
}
330
2
100
AcDbSymbolTableRecord
100
AcDbLayerTableRecord
  2
7A
 70
     0
 62
     1
  6
GEN7A
370
    -3
390
166
347
25A7
  0
ENDTAB
  0
TABLE
  2
STYLE
  5
3
330
0
100
AcDbSymbolTable
 70
    16
  0
STYLE
  5
10
330
3
100
AcDbSymbolTableRecord
100
AcDbTextStyleTableRecord
  2
STANDARD
 70
     0
 40
0.0
 41
1.0
 50
0.0
 71
     0
 42
3.5
  3
ISOCP
  4

  0
STYLE
  5
147
330
3
100
AcDbSymbolTableRecord
100
AcDbTextStyleTableRecord
  2
ACJISTS
 70
     0
 40
1.0
 41
1.0
 50
0.0
 71
     0
 42
3.5
  3
isocp.shx
  4
bigfont.shx
  0
STYLE
  5
148
330
3
100
AcDbSymbolTableRecord
100
AcDbTextStyleTableRecord
  2
ACJISGDT
 70
     0
 40
0.0
 41
1.0
 50
0.0
 71
     0
 42
3.5
  3
amgdt.shx
  4

  0
STYLE
  5
14B
330
3
100
AcDbSymbolTableRecord
100
AcDbTextStyleTableRecord
  2
ACANSTSI
 70
     0
 40
1.0
 41
1.0
 50
0.0
 71
     0
 42
3.5
  3
romans.shx
  4

  0
STYLE
  5
14C
330
3
100
AcDbSymbolTableRecord
100
AcDbTextStyleTableRecord
  2
ACANSGDT
 70
     0
 40
0.0
 41
1.0
 50
0.0
 71
     0
 42
3.5
  3
amgdt.shx
  4

  0
STYLE
  5
14F
330
3
100
AcDbSymbolTableRecord
100
AcDbTextStyleTableRecord
  2
ACBSITS
 70
     0
 40
1.0
 41
1.0
 50
0.0
 71
     0
 42
3.5
  3
isocp.shx
  4

  0
STYLE
  5
150
330
3
100
AcDbSymbolTableRecord
100
AcDbTextStyleTableRecord
  2
ACBSIGDT
 70
     0
 40
0.0
 41
1.0
 50
0.0
 71
     0
 42
3.5
  3
amgdt.shx
  4

  0
STYLE
  5
154
330
3
100
AcDbSymbolTableRecord
100
AcDbTextStyleTableRecord
  2
ACDINTS
 70
     0
 40
1.0
 41
1.0
 50
0.0
 71
     0
 42
3.5
  3
isocp.shx
  4

  0
STYLE
  5
155
330
3
100
AcDbSymbolTableRecord
100
AcDbTextStyleTableRecord
  2
ACDINGDT
 70
     0
 40
0.0
 41
1.0
 50
0.0
 71
     0
 42
3.5
  3
amgdt.shx
  4

  0
STYLE
  5
159
330
3
100
AcDbSymbolTableRecord
100
AcDbTextStyleTableRecord
  2
ACISOTS
 70
     0
 40
1.0
 41
1.0
 50
0.0
 71
     0
 42
3.5
  3
isocp.shx
  4

  0
STYLE
  5
15A
330
3
100
AcDbSymbolTableRecord
100
AcDbTextStyleTableRecord
  2
ACISOGDT
 70
     0
 40
0.0
 41
1.0
 50
0.0
 71
     0
 42
3.5
  3
amgdt.shx
  4

  0
STYLE
  5
17B
330
3
100
AcDbSymbolTableRecord
100
AcDbTextStyleTableRecord
  2

 70
     1
 40
0.0
 41
1.0
 50
0.0
 71
     0
 42
3.5
  3
ltypeshp.shx
  4

  0
STYLE
  5
3F4
330
3
100
AcDbSymbolTableRecord
100
AcDbTextStyleTableRecord
  2
ASHADE
 70
     0
 40
0.2
 41
1.0
 50
0.0
 71
     0
 42
3.5
  3
simplex.shx
  4

  0
STYLE
  5
1A4C
330
3
100
AcDbSymbolTableRecord
100
AcDbTextStyleTableRecord
  2
EUCLID03
 70
     0
 40
0.0
 41
1.0
 50
0.0
 71
     0
 42
3.5
  3
simplex.shx
  4

  0
STYLE
  5
1A4D
330
3
100
AcDbSymbolTableRecord
100
AcDbTextStyleTableRecord
  2
ACANSTS
 70
     0
 40
1.0
 41
1.0
 50
0.0
 71
     0
 42
2.5
  3
romans.shx
  4

  0
STYLE
  5
1A4E
330
3
100
AcDbSymbolTableRecord
100
AcDbTextStyleTableRecord
  2

 70
     1
 40
0.0
 41
1.0
 50
0.0
 71
     0
 42
2.5
  3
genltshp.shx
  4

  0
ENDTAB
  0
TABLE
  2
VIEW
  5
6
330
0
100
AcDbSymbolTable
 70
     3
  0
VIEW
  5
1C8
330
6
100
AcDbSymbolTableRecord
100
AcDbViewTableRecord
  2
AMDTVIEW1
 70
     0
 40
329.0721649484536
 10
210.0
 20
164.5360824742268
 41
420.0
 11
0.0
 21
0.0
 31
1.0
 12
0.0
 22
0.0
 32
0.0
 42
50.0
 43
0.0
 44
0.0
 50
0.0
 71
     0
281
     0
 72
     0
 73
     0
348
25B5
  0
VIEW
  5
1C9
330
6
100
AcDbSymbolTableRecord
100
AcDbViewTableRecord
  2
AMDTVIEW2
 70
     0
 40
329.0721649484536
 10
210.0
 20
164.5360824742268
 41
420.0
 11
0.0
 21
0.0
 31
1.0
 12
0.0
 22
0.0
 32
0.0
 42
50.0
 43
0.0
 44
0.0
 50
0.0
 71
     0
281
     0
 72
     0
 73
     0
348
25B5
  0
VIEW
  5
1CA
330
6
100
AcDbSymbolTableRecord
100
AcDbViewTableRecord
  2
AMDTVIEW3
 70
     0
 40
329.0721649484536
 10
210.0
 20
164.5360824742268
 41
420.0
 11
0.0
 21
0.0
 31
1.0
 12
0.0
 22
0.0
 32
0.0
 42
50.0
 43
0.0
 44
0.0
 50
0.0
 71
     0
281
     0
 72
     0
 73
     0
348
25B5
  0
ENDTAB
  0
TABLE
  2
UCS
  5
7
330
0
100
AcDbSymbolTable
 70
     0
  0
ENDTAB
  0
TABLE
  2
APPID
  5
9
330
0
100
AcDbSymbolTable
 70
    41
  0
APPID
  5
11
330
9
100
AcDbSymbolTableRecord
100
AcDbRegAppTableRecord
  2
ACAD
 70
     0
  0
APPID
  5
CD
330
9
100
AcDbSymbolTableRecord
100
AcDbRegAppTableRecord
  2
AD_DRAW
 70
     0
  0
APPID
  5
E7
330
9
100
AcDbSymbolTableRecord
100
AcDbRegAppTableRecord
  2
DESIGNERASSEMBLIES
 70
     0
  0
APPID
  5
EB
330
9
100
AcDbSymbolTableRecord
100
AcDbRegAppTableRecord
  2
MCAD_NO_VIS
 70
     0
  0
APPID
  5
122
330
9
100
AcDbSymbolTableRecord
100
AcDbRegAppTableRecord
  2
ASURF_PCURVE_APPNAME
 70
     0
  0
APPID
  5
17F
330
9
100
AcDbSymbolTableRecord
100
AcDbRegAppTableRecord
  2
ACAD_TEMP_GRAPHIC
 70
     0
  0
APPID
  5
189
330
9
100
AcDbSymbolTableRecord
100
AcDbRegAppTableRecord
  2
ACATTRIBSERVICES
 70
     0
  0
APPID
  5
1C4
330
9
100
AcDbSymbolTableRecord
100
AcDbRegAppTableRecord
  2
ACADM_DIM_EDIT
 70
     0
  0
APPID
  5
1D5
330
9
100
AcDbSymbolTableRecord
100
AcDbRegAppTableRecord
  2
GENIUS_GENDIM_13
 70
     0
  0
APPID
  5
1D6
330
9
100
AcDbSymbolTableRecord
100
AcDbRegAppTableRecord
  2
GENIUS_GENDTOL_13
 70
     0
  0
APPID
  5
1D7
330
9
100
AcDbSymbolTableRecord
100
AcDbRegAppTableRecord
  2
GENIUS_GE3DTOL_13
 70
     0
  0
APPID
  5
3F5
330
9
100
AcDbSymbolTableRecord
100
AcDbRegAppTableRecord
  2
AVE_RENDER
 70
     0
  0
APPID
  5
3F6
330
9
100
AcDbSymbolTableRecord
100
AcDbRegAppTableRecord
  2
AVE_ENTITY_MATERIAL
 70
     0
  0
APPID
  5
403
330
9
100
AcDbSymbolTableRecord
100
AcDbRegAppTableRecord
  2
AVE_FINISH
 70
     0
  0
APPID
  5
404
330
9
100
AcDbSymbolTableRecord
100
AcDbRegAppTableRecord
  2
AVE_MATERIAL
 70
     0
  0
APPID
  5
405
330
9
100
AcDbSymbolTableRecord
100
AcDbRegAppTableRecord
  2
AVE_GLOBAL
 70
     0
  0
APPID
  5
587
330
9
100
AcDbSymbolTableRecord
100
AcDbRegAppTableRecord
  2
GENIUS_GENREC_14
 70
     0
  0
APPID
  5
588
330
9
100
AcDbSymbolTableRecord
100
AcDbRegAppTableRecord
  2
GENIUS_GENODEF_13
 70
     0
  0
APPID
  5
589
330
9
100
AcDbSymbolTableRecord
100
AcDbRegAppTableRecord
  2
GENIUS_GENOBJ-N-REC_13
 70
     0
  0
APPID
  5
5F8
330
9
100
AcDbSymbolTableRecord
100
AcDbRegAppTableRecord
  2
GENIUS_GENOBJ-3-SH3D_13
 70
     0
  0
APPID
  5
651
330
9
100
AcDbSymbolTableRecord
100
AcDbRegAppTableRecord
  2
AD_SKETCHDIM
 70
     0
  0
APPID
  5
76F
330
9
100
AcDbSymbolTableRecord
100
AcDbRegAppTableRecord
  2
AM_EDITFEAT
 70
     0
  0
APPID
  5
799
330
9
100
AcDbSymbolTableRecord
100
AcDbRegAppTableRecord
  2
GENIUS_GE3SH_14_1
 70
     0
  0
APPID
  5
79A
330
9
100
AcDbSymbolTableRecord
100
AcDbRegAppTableRecord
  2
GENIUS_GE3MANIP_13
 70
     0
  0
APPID
  5
1066
330
9
100
AcDbSymbolTableRecord
100
AcDbRegAppTableRecord
  2
GENIUS_GENSCREG_15
 70
     0
  0
APPID
  5
1068
330
9
100
AcDbSymbolTableRecord
100
AcDbRegAppTableRecord
  2
GENIUS_GENOBJ-N-SDF_13
 70
     0
  0
APPID
  5
1069
330
9
100
AcDbSymbolTableRecord
100
AcDbRegAppTableRecord
  2
GENIUS_GENOENT_13
 70
     0
  0
APPID
  5
106A
330
9
100
AcDbSymbolTableRecord
100
AcDbRegAppTableRecord
  2
GENIUS_GENOREF_13
 70
     0
  0
APPID
  5
106B
330
9
100
AcDbSymbolTableRecord
100
AcDbRegAppTableRecord
  2
GENIUS_GENOLIS_13
 70
     0
  0
APPID
  5
1348
330
9
100
AcDbSymbolTableRecord
100
AcDbRegAppTableRecord
  2
GENIUS_GENDIMSH_14
 70
     0
  0
APPID
  5
17FE
330
9
100
AcDbSymbolTableRecord
100
AcDbRegAppTableRecord
  2
AMG_3D2D_5.0
 70
     0
  0
APPID
  5
1855
330
9
100
AcDbSymbolTableRecord
100
AcDbRegAppTableRecord
  2
AMDT_DM_ADJ
 70
     0
  0
APPID
  5
1A57
330
9
100
AcDbSymbolTableRecord
100
AcDbRegAppTableRecord
  2
GENIUS_GENDREL_13
 70
     0
  0
APPID
  5
1F51
330
9
100
AcDbSymbolTableRecord
100
AcDbRegAppTableRecord
  2
GENIUS_AMGTXT_16
 70
     0
  0
APPID
  5
214A
330
9
100
AcDbSymbolTableRecord
100
AcDbRegAppTableRecord
  2
GENIUS_GENOBJ-N-CEN_13
 70
     0
  0
APPID
  5
242C
330
9
100
AcDbSymbolTableRecord
100
AcDbRegAppTableRecord
  2
GENIUS_GENOBJ-N-CRS_13
 70
     0
  0
APPID
  5
25E7
330
9
100
AcDbSymbolTableRecord
100
AcDbRegAppTableRecord
  2
ACAD_MLEADERVER
 70
     0
  0
APPID
  5
2719
330
9
100
AcDbSymbolTableRecord
100
AcDbRegAppTableRecord
  2
ACAD_DSTYLE_DIMINSPECT
 70
     0
  0
APPID
  5
280E
330
9
100
AcDbSymbolTableRecord
100
AcDbRegAppTableRecord
  2
ACAD_EXEMPT_FROM_CAD_STANDARDS
 70
     0
  0
APPID
  5
2818
330
9
100
AcDbSymbolTableRecord
100
AcDbRegAppTableRecord
  2
GENIUS_GENFIL_13
 70
     0
  0
APPID
  5
2819
330
9
100
AcDbSymbolTableRecord
100
AcDbRegAppTableRecord
  2
GENIUS_GENOBJ-N-CHA_13
 70
     0
  0
ENDTAB
  0
TABLE
  2
DIMSTYLE
  5
A
330
0
100
AcDbSymbolTable
 70
    52
100
AcDbDimStyleTable
 71
     5
340
395
340
25
340
62
340
2A
340
29
  0
DIMSTYLE
105
1D
330
A
100
AcDbSymbolTableRecord
100
AcDbDimStyleTableRecord
  2
STANDARD
 70
     0
 41
2.5
 42
0.625
 43
3.75
 44
1.25
 73
     0
 74
     0
 77
     1
 78
     8
140
2.5
141
2.5
143
0.0394
147
0.625
171
     4
172
     1
273
     8
274
     4
277
     6
340
10
  0
DIMSTYLE
105
25
330
A
100
AcDbSymbolTableRecord
100
AcDbDimStyleTableRecord
  2
ISO-35
 70
     0
 41
3.5
 42
0.875
 43
5.25
 44
1.75
 73
     0
 74
     0
 77
     1
 78
     8
140
3.5
141
3.5
143
0.0394
147
0.875
171
     4
172
     1
273
     8
274
     4
277
     6
340
10
  0
DIMSTYLE
105
26
330
A
100
AcDbSymbolTableRecord
100
AcDbDimStyleTableRecord
  2
ISO-5
 70
     0
 41
5.0
 42
1.25
 43
7.5
 44
2.5
 73
     0
 74
     0
 77
     1
 78
     8
140
5.0
141
5.0
143
0.0394
147
1.25
171
     4
172
     1
273
     8
274
     4
277
     6
340
10
  0
DIMSTYLE
105
27
330
A
100
AcDbSymbolTableRecord
100
AcDbDimStyleTableRecord
  2
ISO-7
 70
     0
 41
7.0
 42
1.75
 43
10.5
 44
3.5
 73
     0
 74
     0
 77
     1
 78
     8
140
7.0
141
7.0
143
0.0394
147
1.75
171
     4
172
     1
273
     8
274
     4
277
     6
340
10
  0
DIMSTYLE
105
28
330
A
100
AcDbSymbolTableRecord
100
AcDbDimStyleTableRecord
  2
ISO1
 70
     0
 41
10.0
 42
2.5
 43
15.0
 44
5.0
 73
     0
 74
     0
 77
     1
 78
     8
140
10.0
141
10.0
143
0.0394
147
2.5
171
     4
172
     1
273
     8
274
     4
277
     6
340
10
  0
DIMSTYLE
105
29
330
A
100
AcDbSymbolTableRecord
100
AcDbDimStyleTableRecord
  2
ISO1-4
 70
     0
 41
14.0
 42
3.5
 43
21.0
 44
7.0
 74
     0
 77
     1
 78
     8
140
14.0
141
14.0
143
0.0394
145
5.599999999999999
147
3.5
172
     1
273
     8
277
     6
340
10
  0
DIMSTYLE
105
2A
330
A
100
AcDbSymbolTableRecord
100
AcDbDimStyleTableRecord
  2
ISO2
 70
     0
 41
20.0
 42
5.0
 43
30.0
 44
10.0
 73
     0
 74
     0
 77
     1
 78
     8
140
20.0
141
20.0
143
0.0394
147
5.0
171
     4
172
     1
273
     8
274
     4
277
     6
340
10
  0
DIMSTYLE
105
60
330
A
100
AcDbSymbolTableRecord
100
AcDbDimStyleTableRecord
  2
ISO-4
 70
     0
 41
14.0
 42
3.5
 43
21.0
 44
7.0
 73
     0
 74
     0
 77
     1
 78
     8
140
14.0
141
14.0
143
0.0394
147
3.5
171
     4
172
     1
273
     8
274
     4
277
     6
340
10
  0
DIMSTYLE
105
62
330
A
100
AcDbSymbolTableRecord
100
AcDbDimStyleTableRecord
  2
ISO-25
 70
     0
 41
2.5
 42
0.625
 43
3.75
 44
1.25
 73
     0
 74
     0
 77
     1
 78
     8
140
2.5
141
2.5
143
0.0394
147
0.625
171
     4
172
     1
273
     8
274
     4
277
     6
340
10
  0
DIMSTYLE
105
395
330
A
100
AcDbSymbolTableRecord
100
AcDbDimStyleTableRecord
  2
AM_ISO
 70
     0
  4
"
 41
3.0
 42
0.0
 43
10.0
 44
1.0
 47
0.1
 48
0.1
 73
     0
 74
     0
 77
     1
 78
     8
 79
     2
140
3.5
141
0.0
143
0.0393701
146
0.71
147
1.5
172
     1
176
   256
177
   256
178
     2
271
     2
272
     2
283
     0
340
10
371
    -1
372
    -1
  0
DIMSTYLE
105
396
330
A
100
AcDbSymbolTableRecord
100
AcDbDimStyleTableRecord
  2
AM_ISO$3
 70
     0
  4
"
 41
2.5
 42
1.0
 43
10.0
 44
1.0
 47
0.1
 48
0.1
 73
     0
 77
     1
 78
     8
 79
     2
140
3.5
141
0.0
143
0.0393701
146
0.71
147
1.5
176
   256
177
   256
178
     2
271
     2
272
     2
283
     0
288
     1
289
     0
340
10
371
    -1
372
    -1
  0
DIMSTYLE
105
397
330
A
100
AcDbSymbolTableRecord
100
AcDbDimStyleTableRecord
  2
AM_ISO$4
 70
     0
  4
"
 41
2.5
 42
1.0
 43
10.0
 44
1.0
 47
0.1
 48
0.1
 73
     0
 77
     1
 78
     8
 79
     2
140
3.5
141
0.0
143
0.0393701
146
0.71
147
1.5
176
   256
177
   256
178
     2
271
     2
272
     2
283
     0
288
     1
289
     0
340
10
371
    -1
372
    -1
  0
DIMSTYLE
105
398
330
A
100
AcDbSymbolTableRecord
100
AcDbDimStyleTableRecord
  2
AM_ISO$6
 70
     0
  4
"
 41
2.5
 42
1.0
 43
10.0
 44
1.0
 47
0.1
 48
0.1
 73
     0
 74
     0
 78
     8
 79
     2
140
3.5
141
0.0
143
0.0393701
146
0.71
147
1.5
172
     1
176
   256
177
   256
178
     2
271
     2
272
     3
274
     4
283
     0
340
10
371
    -1
372
    -1
  0
DIMSTYLE
105
399
330
A
100
AcDbSymbolTableRecord
100
AcDbDimStyleTableRecord
  2
AM_ISO$7
 70
     0
  4
"
 41
2.5
 42
1.0
 43
10.0
 44
1.0
 47
0.1
 48
0.1
 73
     0
 74
     0
 77
     1
 78
     8
 79
     2
140
5.0
141
0.0
143
0.0393701
146
0.71
147
1.5
172
     1
176
   256
177
   256
178
     2
271
     2
272
     3
274
     4
283
     0
340
10
371
    -1
372
    -1
  0
DIMSTYLE
105
39A
330
A
100
AcDbSymbolTableRecord
100
AcDbDimStyleTableRecord
  2
AM_ISO$SF
 70
     0
  4
"
 41
2.5
 42
1.0
 43
10.0
 44
1.0
 47
0.1
 48
0.1
 73
     0
 74
     0
 75
     1
 76
     1
 77
     1
 78
     8
 79
     2
140
3.5
141
0.0
143
0.0393701
146
0.71
147
1.5
172
     1
176
   256
177
   256
178
     2
271
     2
272
     3
274
     4
283
     0
340
10
371
    -1
372
    -1
  0
DIMSTYLE
105
39F
330
A
100
AcDbSymbolTableRecord
100
AcDbDimStyleTableRecord
  2
AM_ISO$SH
 70
     0
  4
"
 41
2.5
 42
1.0
 43
10.0
 44
1.0
 47
0.1
 48
0.1
 73
     0
 74
     0
 75
     1
 76
     1
 77
     1
 78
     8
 79
     2
140
3.5
141
0.0
143
0.0393701
144
2.0
146
0.71
147
1.5
172
     1
173
     1
176
   256
177
   256
178
     2
271
     2
272
     3
274
     4
283
     0
340
10
343
39B
371
    -1
372
    -1
  0
DIMSTYLE
105
1832
330
A
100
AcDbSymbolTableRecord
100
AcDbDimStyleTableRecord
  2
AM_BSI
 70
     0
  4
"
 41
4.0
 42
1.0
 43
10.0
 44
1.0
 47
0.1
 48
0.1
 73
     0
 74
     0
 77
     1
 78
     8
 79
     2
140
3.5
141
0.0
143
0.0393701
146
0.71
147
1.5
172
     1
176
   256
177
   256
178
     2
271
     2
272
     3
274
     4
283
     0
284
     8
340
10
371
    -1
372
    -1
  0
DIMSTYLE
105
1833
330
A
100
AcDbSymbolTableRecord
100
AcDbDimStyleTableRecord
  2
AM_BSI$3
 70
     0
  4
"
 41
4.0
 42
1.0
 43
10.0
 44
1.0
 47
0.1
 48
0.1
 73
     0
 77
     1
 78
     8
 79
     2
140
3.5
141
0.0
143
0.0393701
146
0.71
147
1.5
176
   256
177
   256
178
     2
271
     2
272
     3
274
     4
283
     0
284
     8
288
     1
289
     0
340
10
371
    -1
372
    -1
  0
DIMSTYLE
105
1834
330
A
100
AcDbSymbolTableRecord
100
AcDbDimStyleTableRecord
  2
AM_BSI$4
 70
     0
  4
"
 41
4.0
 42
1.0
 43
10.0
 44
1.0
 47
0.1
 48
0.1
 73
     0
 77
     1
 78
     8
 79
     2
140
3.5
141
0.0
143
0.0393701
146
0.71
147
1.5
176
   256
177
   256
178
     2
271
     2
272
     3
274
     4
283
     0
284
     8
288
     1
289
     0
340
10
371
    -1
372
    -1
  0
DIMSTYLE
105
1835
330
A
100
AcDbSymbolTableRecord
100
AcDbDimStyleTableRecord
  2
AM_BSI$6
 70
     0
  4
"
 41
4.0
 42
1.0
 43
10.0
 44
1.0
 47
0.1
 48
0.1
 73
     0
 74
     0
 78
     8
 79
     2
140
3.5
141
0.0
143
0.0393701
146
0.71
147
1.5
172
     1
176
   256
177
   256
178
     2
271
     2
272
     3
274
     4
283
     0
284
     8
340
10
371
    -1
372
    -1
  0
DIMSTYLE
105
1836
330
A
100
AcDbSymbolTableRecord
100
AcDbDimStyleTableRecord
  2
AM_BSI$7
 70
     0
  4
"
 41
2.5
 42
1.0
 43
10.0
 44
1.0
 47
0.1
 48
0.1
 73
     0
 74
     0
 77
     1
 78
     8
 79
     2
140
5.0
141
0.0
143
0.0393701
146
0.71
147
1.5
172
     1
176
   256
177
   256
178
     2
271
     2
272
     3
274
     4
283
     0
284
     8
340
10
371
    -1
372
    -1
  0
DIMSTYLE
105
1837
330
A
100
AcDbSymbolTableRecord
100
AcDbDimStyleTableRecord
  2
AM_BSI$SF
 70
     0
  4
"
 41
4.0
 42
1.0
 43
10.0
 44
1.0
 47
0.1
 48
0.1
 73
     0
 74
     0
 75
     1
 76
     1
 77
     1
 78
     8
 79
     2
140
3.5
141
0.0
143
0.0393701
146
0.71
147
1.5
172
     1
176
   256
177
   256
178
     2
271
     2
272
     3
274
     4
283
     0
284
     8
340
10
371
    -1
372
    -1
  0
DIMSTYLE
105
1838
330
A
100
AcDbSymbolTableRecord
100
AcDbDimStyleTableRecord
  2
AM_BSI$SH
 70
     0
  4
"
 41
4.0
 42
1.0
 43
10.0
 44
1.0
 47
0.1
 48
0.1
 73
     0
 74
     0
 75
     1
 76
     1
 77
     1
 78
     8
 79
     2
140
3.5
141
0.0
143
0.0393701
144
2.0
146
0.71
147
1.5
172
     1
173
     1
176
   256
177
   256
178
     2
271
     2
272
     3
274
     4
283
     0
284
     8
340
10
343
39B
371
    -1
372
    -1
  0
DIMSTYLE
105
183A
330
A
100
AcDbSymbolTableRecord
100
AcDbDimStyleTableRecord
  2
AM_DIN
 70
     0
  4
"
 41
2.5
 42
1.0
 43
10.0
 44
1.0
 47
0.1
 48
0.1
 73
     0
 74
     0
 77
     1
 78
     8
 79
     2
140
3.5
141
0.0
143
0.0393701
146
0.71
147
1.5
172
     1
176
   256
177
   256
178
     2
271
     2
272
     3
274
     4
283
     0
284
     8
340
10
371
    -1
372
    -1
  0
DIMSTYLE
105
183B
330
A
100
AcDbSymbolTableRecord
100
AcDbDimStyleTableRecord
  2
AM_DIN$3
 70
     0
  4
"
 41
2.5
 42
1.0
 43
10.0
 44
1.0
 47
0.1
 48
0.1
 73
     0
 77
     1
 78
     8
 79
     2
140
3.5
141
0.0
143
0.0393701
146
0.71
147
1.5
176
   256
177
   256
178
     2
271
     2
272
     3
274
     4
283
     0
284
     8
288
     1
289
     0
340
10
371
    -1
372
    -1
  0
DIMSTYLE
105
183C
330
A
100
AcDbSymbolTableRecord
100
AcDbDimStyleTableRecord
  2
AM_DIN$4
 70
     0
  4
"
 41
2.5
 42
1.0
 43
10.0
 44
1.0
 47
0.1
 48
0.1
 73
     0
 77
     1
 78
     8
 79
     2
140
3.5
141
0.0
143
0.0393701
146
0.71
147
1.5
176
   256
177
   256
178
     2
271
     2
272
     3
274
     4
283
     0
284
     8
288
     1
289
     0
340
10
371
    -1
372
    -1
  0
DIMSTYLE
105
183D
330
A
100
AcDbSymbolTableRecord
100
AcDbDimStyleTableRecord
  2
AM_DIN$6
 70
     0
  4
"
 41
2.5
 42
1.0
 43
10.0
 44
1.0
 47
0.1
 48
0.1
 73
     0
 74
     0
 78
     8
 79
     2
140
3.5
141
0.0
143
0.0393701
146
0.71
147
1.5
172
     1
176
   256
177
   256
178
     2
271
     2
272
     3
274
     4
283
     0
284
     8
340
10
371
    -1
372
    -1
  0
DIMSTYLE
105
183E
330
A
100
AcDbSymbolTableRecord
100
AcDbDimStyleTableRecord
  2
AM_DIN$7
 70
     0
  4
"
 41
2.5
 42
1.0
 43
10.0
 44
1.0
 47
0.1
 48
0.1
 73
     0
 74
     0
 77
     1
 78
     8
 79
     2
140
5.0
141
0.0
143
0.0393701
146
0.71
147
1.5
172
     1
176
   256
177
   256
178
     2
271
     2
272
     3
274
     4
283
     0
284
     8
340
10
371
    -1
372
    -1
  0
DIMSTYLE
105
183F
330
A
100
AcDbSymbolTableRecord
100
AcDbDimStyleTableRecord
  2
AM_DIN$SF
 70
     0
  4
"
 41
2.5
 42
1.0
 43
10.0
 44
1.0
 47
0.1
 48
0.1
 73
     0
 74
     0
 75
     1
 76
     1
 77
     1
 78
     8
 79
     2
140
3.5
141
0.0
143
0.0393701
146
0.71
147
1.5
172
     1
176
   256
177
   256
178
     2
271
     2
272
     3
274
     4
283
     0
284
     8
340
10
371
    -1
372
    -1
  0
DIMSTYLE
105
1840
330
A
100
AcDbSymbolTableRecord
100
AcDbDimStyleTableRecord
  2
AM_DIN$SH
 70
     0
  4
"
 41
2.5
 42
1.0
 43
10.0
 44
1.0
 47
0.1
 48
0.1
 73
     0
 74
     0
 75
     1
 76
     1
 77
     1
 78
     8
 79
     2
140
3.5
141
0.0
143
0.0393701
144
2.0
146
0.71
147
1.5
172
     1
173
     1
176
   256
177
   256
178
     2
271
     2
272
     3
274
     4
283
     0
284
     8
340
10
343
39B
371
    -1
372
    -1
  0
DIMSTYLE
105
1843
330
A
100
AcDbSymbolTableRecord
100
AcDbDimStyleTableRecord
  2
AM_JIS
 70
     0
  4
"
 41
2.5
 42
1.0
 43
10.0
 44
1.0
 47
0.1
 48
0.1
 73
     0
 74
     0
 77
     3
 78
     8
 79
     2
140
3.5
141
0.0
143
0.0393701
146
0.71
147
1.5
172
     1
176
   256
177
   256
178
     2
271
     2
272
     3
274
     4
283
     0
284
     8
340
10
341
1844
342
1844
343
1844
344
1844
371
    -1
372
    -1
  0
DIMSTYLE
105
184A
330
A
100
AcDbSymbolTableRecord
100
AcDbDimStyleTableRecord
  2
AM_JIS$3
 70
     0
  4
"
 41
2.5
 42
1.0
 43
10.0
 44
1.0
 47
0.1
 48
0.1
 73
     0
 77
     3
 78
     8
 79
     2
140
3.5
141
0.0
143
0.0393701
146
0.71
147
1.5
176
   256
177
   256
178
     2
271
     2
272
     3
274
     4
283
     0
284
     8
288
     1
289
     0
340
10
341
1844
342
1844
343
1844
344
1844
371
    -1
372
    -1
  0
DIMSTYLE
105
184B
330
A
100
AcDbSymbolTableRecord
100
AcDbDimStyleTableRecord
  2
AM_JIS$4
 70
     0
  4
"
 41
2.5
 42
1.0
 43
10.0
 44
1.0
 47
0.1
 48
0.1
 73
     0
 77
     3
 78
     8
 79
     2
140
3.5
141
0.0
143
0.0393701
146
0.71
147
1.5
176
   256
177
   256
178
     2
271
     2
272
     3
274
     4
283
     0
284
     8
288
     1
289
     0
340
10
341
1844
342
1844
343
1844
344
1844
371
    -1
372
    -1
  0
DIMSTYLE
105
184C
330
A
100
AcDbSymbolTableRecord
100
AcDbDimStyleTableRecord
  2
AM_JIS$6
 70
     0
  4
"
 41
2.5
 42
1.0
 43
10.0
 44
1.0
 47
0.1
 48
0.1
 73
     0
 74
     0
 78
     8
 79
     2
140
3.5
141
0.0
143
0.0393701
146
0.71
147
1.5
172
     1
176
   256
177
   256
178
     2
271
     2
272
     3
274
     4
283
     0
284
     8
340
10
341
1844
342
1844
343
1844
344
1844
371
    -1
372
    -1
  0
DIMSTYLE
105
184D
330
A
100
AcDbSymbolTableRecord
100
AcDbDimStyleTableRecord
  2
AM_JIS$7
 70
     0
  4
"
 41
2.5
 42
1.0
 43
10.0
 44
1.0
 47
0.1
 48
0.1
 73
     0
 74
     0
 77
     3
 78
     8
 79
     2
140
5.0
141
0.0
143
0.0393701
146
0.71
147
1.5
172
     1
176
   256
177
   256
178
     2
271
     2
272
     3
274
     4
283
     0
284
     8
340
10
341
1844
342
1844
343
1844
344
1844
371
    -1
372
    -1
  0
DIMSTYLE
105
184E
330
A
100
AcDbSymbolTableRecord
100
AcDbDimStyleTableRecord
  2
AM_JIS$SF
 70
     0
  4
"
 41
2.5
 42
1.0
 43
10.0
 44
1.0
 47
0.1
 48
0.1
 73
     0
 74
     0
 75
     1
 76
     1
 77
     3
 78
     8
 79
     2
140
3.5
141
0.0
143
0.0393701
146
0.71
147
1.5
172
     1
176
   256
177
   256
178
     2
271
     2
272
     3
274
     4
283
     0
284
     8
340
10
341
1844
342
1844
343
1844
344
1844
371
    -1
372
    -1
  0
DIMSTYLE
105
184F
330
A
100
AcDbSymbolTableRecord
100
AcDbDimStyleTableRecord
  2
AM_JIS$SH
 70
     0
  4
"
 41
2.5
 42
1.0
 43
10.0
 44
1.0
 47
0.1
 48
0.1
 73
     0
 74
     0
 75
     1
 76
     1
 77
     3
 78
     8
 79
     2
140
3.5
141
0.0
143
0.0393701
144
2.0
146
0.71
147
1.5
172
     1
173
     1
176
   256
177
   256
178
     2
271
     2
272
     3
274
     4
283
     0
284
     8
340
10
341
1844
342
1844
343
39B
344
1844
371
    -1
372
    -1
  0
DIMSTYLE
105
1A4F
330
A
100
AcDbSymbolTableRecord
100
AcDbDimStyleTableRecord
  2
GEN-ISO
 70
     0
  4
"
 41
3.0
 42
0.0
 43
10.0
 44
1.0
 47
0.1
 48
0.1
 73
     0
 74
     0
 77
     1
 78
     8
140
3.5
141
0.0
143
0.03937
146
0.71
147
1.0
172
     1
176
   256
177
   256
178
     2
340
10
  0
DIMSTYLE
105
1A50
330
A
100
AcDbSymbolTableRecord
100
AcDbDimStyleTableRecord
  2
GEN-ANSI
 70
     0
  3
<>
  4
"
 41
3.0
 42
0.0
 43
10.0
 44
1.0
 47
0.1
 48
0.1
 78
     8
140
3.5
141
0.0
143
0.0393701
146
0.71
147
1.0
176
   256
177
   256
178
     2
271
     2
272
     3
274
     4
340
10
  0
DIMSTYLE
105
1A51
330
A
100
AcDbSymbolTableRecord
100
AcDbDimStyleTableRecord
  2
GEN-ANSI$3
 70
     0
  3
<>
  4
"
 41
3.0
 42
0.0
 43
10.0
 44
1.0
 47
0.1
 48
0.1
 78
     8
140
3.5
141
0.0
143
0.0393701
146
0.71
147
1.0
176
   256
177
   256
178
     2
271
     2
272
     3
274
     4
288
     1
289
     0
340
10
  0
DIMSTYLE
105
1A52
330
A
100
AcDbSymbolTableRecord
100
AcDbDimStyleTableRecord
  2
GEN-ANSI$4
 70
     0
  3
<>
  4
"
 41
3.0
 42
0.0
 43
10.0
 44
1.0
 47
0.1
 48
0.1
 78
     8
140
3.5
141
0.0
143
0.0393701
146
0.71
147
1.0
176
   256
177
   256
178
     2
271
     2
272
     3
274
     4
288
     1
289
     0
340
10
  0
DIMSTYLE
105
1A53
330
A
100
AcDbSymbolTableRecord
100
AcDbDimStyleTableRecord
  2
GEN-ANSI$6
 70
     0
  3
<>
  4
"
 41
3.0
 42
0.0
 43
10.0
 44
1.0
 47
0.1
 48
0.1
 78
     8
140
3.5
141
0.0
143
0.0393701
146
0.71
147
1.0
176
   256
177
   256
178
     2
271
     2
272
     3
274
     4
340
10
  0
DIMSTYLE
105
1A54
330
A
100
AcDbSymbolTableRecord
100
AcDbDimStyleTableRecord
  2
GEN-ANSI-POS
 70
     0
  3
<>
  4
"
 41
2.5
 42
0.0
 43
10.0
 44
1.0
 47
0.1
 48
0.1
 73
     0
 74
     0
 78
     8
140
5.0
141
0.0
143
0.0393701
146
0.71
147
1.5
176
   256
177
   256
178
     2
271
     2
272
     3
274
     4
340
10
  0
DIMSTYLE
105
1A55
330
A
100
AcDbSymbolTableRecord
100
AcDbDimStyleTableRecord
  2
GEN-ANSI-AXE-F
 70
     0
  3
<>
  4
"
 41
3.0
 42
0.0
 43
10.0
 44
1.0
 47
0.1
 48
0.1
 75
     1
 76
     1
 78
     8
140
3.5
141
0.0
143
0.0393701
146
0.71
147
1.0
173
     1
176
   256
177
   256
178
     2
271
     2
272
     3
274
     4
340
10
343
39B
  0
DIMSTYLE
105
1A56
330
A
100
AcDbSymbolTableRecord
100
AcDbDimStyleTableRecord
  2
GEN-ANSI-AXE-H
 70
     0
  3
<>
  4
"
 41
3.0
 42
0.0
 43
10.0
 44
1.0
 47
0.1
 48
0.1
 73
     0
 74
     0
 75
     1
 76
     1
 78
     8
140
3.5
141
0.0
143
0.0393701
144
2.0
146
0.71
147
1.0
172
     1
173
     1
176
   256
177
   256
178
     2
271
     2
272
     3
274
     4
340
10
343
39B
  0
DIMSTYLE
105
223F
330
A
100
AcDbSymbolTableRecord
100
AcDbDimStyleTableRecord
  2
GEN-ISO$4
 70
     0
  4
"
 41
2.5
 42
1.0
 43
7.0
 44
1.0
 47
0.1
 48
0.1
 73
     0
 77
     1
 78
     8
140
3.5
141
0.0
143
0.0393701
146
0.71
147
0.6
176
   256
177
   256
178
     2
271
     2
272
     3
274
     4
283
     0
288
     1
289
     0
340
10
  0
DIMSTYLE
105
2240
330
A
100
AcDbSymbolTableRecord
100
AcDbDimStyleTableRecord
  2
GEN-ISO$3
 70
     0
  4
"
 41
2.5
 42
1.0
 43
7.0
 44
1.0
 47
0.1
 48
0.1
 73
     0
 77
     1
 78
     8
140
3.5
141
0.0
143
0.0393701
146
0.71
147
0.6
176
   256
177
   256
178
     2
271
     2
272
     3
274
     4
283
     0
288
     1
289
     0
340
10
  0
DIMSTYLE
105
2241
330
A
100
AcDbSymbolTableRecord
100
AcDbDimStyleTableRecord
  2
GEN-ISO$6
 70
     0
  4
"
 41
2.5
 42
1.0
 43
7.0
 44
1.0
 47
0.1
 48
0.1
 73
     0
 74
     0
 78
     8
140
3.5
141
0.0
143
0.0393701
146
0.71
147
0.6
176
   256
177
   256
178
     2
271
     2
272
     3
274
     4
283
     0
340
10
  0
DIMSTYLE
105
2242
330
A
100
AcDbSymbolTableRecord
100
AcDbDimStyleTableRecord
  2
GEN-ISO-POS
 70
     0
  4
"
 41
2.5
 42
1.0
 43
7.0
 44
1.0
 47
0.1
 48
0.1
 73
     0
 74
     0
 78
     8
140
5.0
141
0.0
143
0.0393701
146
0.71
147
1.5
176
   256
177
   256
178
     2
271
     2
272
     3
274
     4
283
     0
340
10
  0
DIMSTYLE
105
2243
330
A
100
AcDbSymbolTableRecord
100
AcDbDimStyleTableRecord
  2
GEN-ISO-AXE-F
 70
     0
  4
"
 41
2.5
 42
1.0
 43
7.0
 44
1.0
 47
0.1
 48
0.1
 73
     0
 74
     0
 75
     1
 76
     1
 77
     1
 78
     8
140
3.5
141
0.0
143
0.0393701
146
0.71
147
0.6
172
     1
176
   256
177
   256
178
     2
271
     2
272
     3
274
     4
283
     0
340
10
  0
DIMSTYLE
105
2244
330
A
100
AcDbSymbolTableRecord
100
AcDbDimStyleTableRecord
  2
GEN-ISO-AXE-H
 70
     0
  4
"
 41
2.5
 42
1.0
 43
7.0
 44
1.0
 47
0.1
 48
0.1
 73
     0
 74
     0
 75
     1
 76
     1
 77
     1
 78
     8
140
3.5
141
0.0
143
0.0393701
144
2.0
146
0.71
147
0.6
172
     1
173
     1
176
   256
177
   256
178
     2
271
     2
272
     3
274
     4
283
     0
340
10
343
39B
  0
DIMSTYLE
105
2701
102
{ACAD_REACTORS
330
2703
330
2735
330
2766
330
2798
330
283E
102
}
330
A
100
AcDbSymbolTableRecord
100
AcDbDimStyleTableRecord
  2
AM_ISO$0
 70
     0
  4
"
 41
3.0
 42
0.0
 43
10.0
 44
1.0
 47
0.1
 48
0.1
 73
     0
 74
     0
 77
     1
 78
     8
 79
     2
140
3.5
141
0.0
143
0.0393701
146
0.71
147
1.5
172
     1
176
   256
177
   256
178
     2
271
     2
272
     2
283
     0
340
10
371
    -1
372
    -1
  0
ENDTAB
  0
TABLE
  2
BLOCK_RECORD
  5
1
330
0
100
AcDbSymbolTable
 70
    27
  0
BLOCK_RECORD
  5
1A
102
{ACAD_XDICTIONARY
360
12A
102
}
330
1
100
AcDbSymbolTableRecord
100
AcDbBlockTableRecord
  2
*MODEL_SPACE
340
169
 70
     0
280
     1
281
     0
  0
BLOCK_RECORD
  5
17
330
1
100
AcDbSymbolTableRecord
100
AcDbBlockTableRecord
  2
*PAPER_SPACE
340
16A
 70
     0
280
     1
281
     0
  0
BLOCK_RECORD
  5
34D
330
1
100
AcDbSymbolTableRecord
100
AcDbBlockTableRecord
  2
*Paper_Space0
340
351
 70
     0
280
     1
281
     0
  0
BLOCK_RECORD
  5
313
330
1
100
AcDbSymbolTableRecord
100
AcDbBlockTableRecord
  2
*Paper_Space1
340
314
 70
     0
280
     1
281
     0
  0
BLOCK_RECORD
  5
2E0
330
1
100
AcDbSymbolTableRecord
100
AcDbBlockTableRecord
  2
*Paper_Space2
340
2E1
 70
     0
280
     1
281
     0
  0
BLOCK_RECORD
  5
345
330
1
100
AcDbSymbolTableRecord
100
AcDbBlockTableRecord
  2
*Paper_Space3
340
349
 70
     0
280
     1
281
     0
  0
BLOCK_RECORD
  5
39B
330
1
100
AcDbSymbolTableRecord
100
AcDbBlockTableRecord
  2
GENAXEH
340
0
 70
     0
280
     1
281
     0
  0
BLOCK_RECORD
  5
3F8
330
1
100
AcDbSymbolTableRecord
100
AcDbBlockTableRecord
  2
AVE_RENDER
340
0
102
{BLKREFS
331
3FB
331
3FC
331
3FD
331
3FE
331
3FF
331
400
331
401
331
402
102
}
 70
     0
280
     1
281
     0
  0
BLOCK_RECORD
  5
406
330
1
100
AcDbSymbolTableRecord
100
AcDbBlockTableRecord
  2
AVE_GLOBAL
340
0
102
{BLKREFS
331
409
102
}
 70
     0
280
     1
281
     0
  0
BLOCK_RECORD
  5
594
330
1
100
AcDbSymbolTableRecord
100
AcDbBlockTableRecord
  2
*U7
340
0
 70
     0
280
     1
281
     0
  0
BLOCK_RECORD
  5
5E5
330
1
100
AcDbSymbolTableRecord
100
AcDbBlockTableRecord
  2
*U8
340
0
 70
     0
280
     1
281
     0
  0
BLOCK_RECORD
  5
1366
330
1
100
AcDbSymbolTableRecord
100
AcDbBlockTableRecord
  2
GENDOT
340
0
102
{BLKREFS
331
1F88
331
1F79
102
}
 70
     0
280
     1
281
     0
  0
BLOCK_RECORD
  5
1844
330
1
100
AcDbSymbolTableRecord
100
AcDbBlockTableRecord
  2
_Open30
340
0
 70
     0
280
     1
281
     0
  0
BLOCK_RECORD
  5
19D3
330
1
100
AcDbSymbolTableRecord
100
AcDbBlockTableRecord
  2
BLK20
340
0
102
{BLKREFS
331
1FEB
102
}
 70
     0
280
     1
281
     0
  0
BLOCK_RECORD
  5
19DC
330
1
100
AcDbSymbolTableRecord
100
AcDbBlockTableRecord
  2
BLK22
340
0
102
{BLKREFS
331
1FDE
102
}
 70
     0
280
     1
281
     0
  0
BLOCK_RECORD
  5
19E4
330
1
100
AcDbSymbolTableRecord
100
AcDbBlockTableRecord
  2
BLK23
340
0
102
{BLKREFS
331
1FA6
102
}
 70
     0
280
     1
281
     0
  0
BLOCK_RECORD
  5
19EC
330
1
100
AcDbSymbolTableRecord
100
AcDbBlockTableRecord
  2
BLK24
340
0
102
{BLKREFS
331
1F95
102
}
 70
     0
280
     1
281
     0
  0
BLOCK_RECORD
  5
19FE
330
1
100
AcDbSymbolTableRecord
100
AcDbBlockTableRecord
  2
BLK25
340
0
102
{BLKREFS
331
1F94
102
}
 70
     0
280
     1
281
     0
  0
BLOCK_RECORD
  5
1A10
330
1
100
AcDbSymbolTableRecord
100
AcDbBlockTableRecord
  2
BLK27
340
0
102
{BLKREFS
331
1FAC
102
}
 70
     0
280
     1
281
     0
  0
BLOCK_RECORD
  5
1F5E
330
1
100
AcDbSymbolTableRecord
100
AcDbBlockTableRecord
  2
*D17
340
0
 70
     0
280
     1
281
     0
  0
BLOCK_RECORD
  5
1F73
330
1
100
AcDbSymbolTableRecord
100
AcDbBlockTableRecord
  2
*D18
340
0
 70
     0
280
     1
281
     0
  0
BLOCK_RECORD
  5
1F81
330
1
100
AcDbSymbolTableRecord
100
AcDbBlockTableRecord
  2
*D19
340
0
 70
     0
280
     1
281
     0
  0
BLOCK_RECORD
  5
1F8F
330
1
100
AcDbSymbolTableRecord
100
AcDbBlockTableRecord
  2
A$C386D5843
340
0
 70
     0
280
     1
281
     0
  0
BLOCK_RECORD
  5
256B
330
1
100
AcDbSymbolTableRecord
100
AcDbBlockTableRecord
  2
A$C4F6E13F8
340
0
 70
     0
280
     1
281
     0
  0
BLOCK_RECORD
  5
2704
330
1
100
AcDbSymbolTableRecord
100
AcDbBlockTableRecord
  2
*D22
340
0
 70
     0
280
     1
281
     0
  0
BLOCK_RECORD
  5
2736
330
1
100
AcDbSymbolTableRecord
100
AcDbBlockTableRecord
  2
*D23
340
0
 70
     0
280
     1
281
     0
  0
BLOCK_RECORD
  5
2767
330
1
100
AcDbSymbolTableRecord
100
AcDbBlockTableRecord
  2
*D24
340
0
 70
     0
280
     1
281
     0
  0
BLOCK_RECORD
  5
2799
330
1
100
AcDbSymbolTableRecord
100
AcDbBlockTableRecord
  2
*D25
340
0
 70
     0
280
     1
281
     0
  0
BLOCK_RECORD
  5
283F
330
1
100
AcDbSymbolTableRecord
100
AcDbBlockTableRecord
  2
*D26
340
0
 70
     0
280
     1
281
     0
  0
ENDTAB
  0
ENDSEC
  0
SECTION
  2
BLOCKS
  0
BLOCK
  5
1B
330
1A
100
AcDbEntity
  8
0
100
AcDbBlockBegin
  2
*MODEL_SPACE
 70
     0
 10
0.0
 20
0.0
 30
0.0
  3
*MODEL_SPACE
  1

  0
ENDBLK
  5
1C
330
1A
100
AcDbEntity
  8
0
100
AcDbBlockEnd
  0
BLOCK
  5
18
330
17
100
AcDbEntity
 67
     1
  8
0
100
AcDbBlockBegin
  2
*PAPER_SPACE
 70
     0
 10
0.0
 20
0.0
 30
0.0
  3
*PAPER_SPACE
  1

  0
ENDBLK
  5
19
330
17
100
AcDbEntity
 67
     1
  8
0
100
AcDbBlockEnd
  0
BLOCK
  5
34F
330
34D
100
AcDbEntity
 67
     1
  8
0
100
AcDbBlockBegin
  2
*Paper_Space0
 70
     0
 10
0.0
 20
0.0
 30
0.0
  3
*Paper_Space0
  1

  0
VIEWPORT
  5
34E
330
34D
100
AcDbEntity
 67
     1
  8
AM_VIEWS
100
AcDbViewport
 10
577.468994140625
 20
415.4593176841736
 30
0.0
 40
1195.734595476714
 41
932.8590910236622
 68
     0
 69
     0
 12
577.468994140625
 22
415.4593176841736
 13
0.0
 23
0.0
 14
10.0
 24
10.0
 15
10.0
 25
10.0
 16
0.0
 26
0.0
 36
1.0
 17
0.0
 27
0.0
 37
0.0
 42
50.0
 43
0.0
 44
0.0
 45
932.8590910236622
 50
0.0
 51
0.0
 72
   100
331
1969
 90
    32800
  1

281
     0
 71
     1
 74
     0
110
0.0
120
0.0
130
0.0
111
1.0
121
0.0
131
0.0
112
0.0
122
1.0
132
0.0
 79
     0
146
0.0
170
     0
 61
     5
348
25B5
292
     1
282
     1
141
0.0
142
0.0
 63
   250
421
  3355443
  0
ENDBLK
  5
350
330
34D
100
AcDbEntity
 67
     1
  8
0
100
AcDbBlockEnd
  0
BLOCK
  5
315
330
313
100
AcDbEntity
 67
     1
  8
0
100
AcDbBlockBegin
  2
*Paper_Space1
 70
     0
 10
0.0
 20
0.0
 30
0.0
  3
*Paper_Space1
  1

  0
VIEWPORT
  5
344
330
313
100
AcDbEntity
 67
     1
  8
AM_VIEWS
100
AcDbViewport
 10
279.9926452636719
 20
204.9779944419861
 30
0.0
 40
597.3137355517764
 41
465.9976808487594
 68
     0
 69
     0
 12
279.9926452636719
 22
204.9779944419861
 13
0.0
 23
0.0
 14
10.0
 24
10.0
 15
10.0
 25
10.0
 16
0.0
 26
0.0
 36
1.0
 17
0.0
 27
0.0
 37
0.0
 42
50.0
 43
0.0
 44
0.0
 45
465.9976808487594
 50
0.0
 51
0.0
 72
   100
331
1969
 90
    32800
  1

281
     0
 71
     1
 74
     0
110
0.0
120
0.0
130
0.0
111
1.0
121
0.0
131
0.0
112
0.0
122
1.0
132
0.0
 79
     0
146
0.0
170
     0
 61
     5
348
25B5
292
     1
282
     1
141
0.0
142
0.0
 63
   250
421
  3355443
  0
ENDBLK
  5
316
330
313
100
AcDbEntity
 67
     1
  8
0
100
AcDbBlockEnd
  0
BLOCK
  5
2E2
330
2E0
100
AcDbEntity
 67
     1
  8
0
100
AcDbBlockBegin
  2
*Paper_Space2
 70
     0
 10
0.0
 20
0.0
 30
0.0
  3
*Paper_Space2
  1

  0
VIEWPORT
  5
31D
330
2E0
100
AcDbEntity
 67
     1
  8
AM_VIEWS
100
AcDbViewport
 10
204.9674224853516
 20
143.4782419204712
 30
0.0
 40
422.4372280469156
 41
329.5667868615042
 68
     0
 69
     0
 12
204.9674224853516
 22
143.4782419204712
 13
0.0
 23
0.0
 14
10.0
 24
10.0
 15
10.0
 25
10.0
 16
0.0
 26
0.0
 36
1.0
 17
0.0
 27
0.0
 37
0.0
 42
50.0
 43
0.0
 44
0.0
 45
329.5667868615042
 50
0.0
 51
0.0
 72
   100
331
1969
 90
    32800
  1

281
     0
 71
     1
 74
     0
110
0.0
120
0.0
130
0.0
111
1.0
121
0.0
131
0.0
112
0.0
122
1.0
132
0.0
 79
     0
146
0.0
170
     0
 61
     5
348
25B5
292
     1
282
     1
141
0.0
142
0.0
 63
   250
421
  3355443
  0
ENDBLK
  5
2E3
330
2E0
100
AcDbEntity
 67
     1
  8
0
100
AcDbBlockEnd
  0
BLOCK
  5
347
330
345
100
AcDbEntity
 67
     1
  8
0
100
AcDbBlockBegin
  2
*Paper_Space3
 70
     0
 10
0.0
 20
0.0
 30
0.0
  3
*Paper_Space3
  1

  0
VIEWPORT
  5
346
330
345
100
AcDbEntity
 67
     1
  8
AM_VIEWS
100
AcDbViewport
 10
279.9926452636719
 20
204.9779944419861
 30
0.0
 40
597.3137355517764
 41
465.9976808487594
 68
     0
 69
     0
 12
279.9926452636719
 22
204.9779944419861
 13
0.0
 23
0.0
 14
10.0
 24
10.0
 15
10.0
 25
10.0
 16
0.0
 26
0.0
 36
1.0
 17
0.0
 27
0.0
 37
0.0
 42
50.0
 43
0.0
 44
0.0
 45
465.9976808487594
 50
0.0
 51
0.0
 72
   100
331
1969
 90
    32800
  1

281
     0
 71
     1
 74
     0
110
0.0
120
0.0
130
0.0
111
1.0
121
0.0
131
0.0
112
0.0
122
1.0
132
0.0
 79
     0
146
0.0
170
     0
 61
     5
348
25B5
292
     1
282
     1
141
0.0
142
0.0
 63
   250
421
  3355443
  0
ENDBLK
  5
348
330
345
100
AcDbEntity
 67
     1
  8
0
100
AcDbBlockEnd
  0
BLOCK
  5
39D
330
39B
100
AcDbEntity
  8
0
100
AcDbBlockBegin
  2
GENAXEH
 70
     0
 10
0.0
 20
0.0
 30
0.0
  3
GENAXEH
  1

  0
LINE
  5
39C
330
39B
100
AcDbEntity
  8
0
100
AcDbLine
 10
-1.0
 20
0.0
 30
0.0
 11
1.0
 21
0.0
 31
0.0
  0
ENDBLK
  5
39E
330
39B
100
AcDbEntity
  8
0
100
AcDbBlockEnd
  0
BLOCK
  5
3F9
330
3F8
100
AcDbEntity
  8
ASHADE
100
AcDbBlockBegin
  2
AVE_RENDER
 70
     0
 10
0.0
 20
0.0
 30
0.0
  3
AVE_RENDER
  1
AVE_RENDER
  0
ENDBLK
  5
3FA
330
3F8
100
AcDbEntity
  8
0
100
AcDbBlockEnd
  0
BLOCK
  5
407
330
406
100
AcDbEntity
  8
ASHADE
100
AcDbBlockBegin
  2
AVE_GLOBAL
 70
     0
 10
0.0
 20
0.0
 30
0.0
  3
AVE_GLOBAL
  1
AVE_GLOBAL
  0
ENDBLK
  5
408
330
406
100
AcDbEntity
  8
0
100
AcDbBlockEnd
  0
BLOCK
  5
595
330
594
100
AcDbEntity
  8
0
100
AcDbBlockBegin
  2
*U7
 70
     1
 10
0.0
 20
0.0
 30
0.0
  3
*U7
  1

  0
ENDBLK
  5
596
330
594
100
AcDbEntity
  8
0
100
AcDbBlockEnd
  0
BLOCK
  5
5E6
330
5E5
100
AcDbEntity
  8
0
100
AcDbBlockBegin
  2
*U8
 70
     1
 10
0.0
 20
0.0
 30
0.0
  3
*U8
  1

  0
ENDBLK
  5
5E7
330
5E5
100
AcDbEntity
  8
0
100
AcDbBlockEnd
  0
BLOCK
  5
1369
330
1366
100
AcDbEntity
  8
0
100
AcDbBlockBegin
  2
GENDOT
 70
     0
 10
0.0
 20
0.0
 30
0.0
  3
GENDOT
  1

  0
LINE
  5
1367
330
1366
100
AcDbEntity
  8
0
100
AcDbLine
 10
0.0
 20
0.0
 30
0.0
 11
-1.0
 21
0.0
 31
0.0
  0
LWPOLYLINE
  5
1368
330
1366
100
AcDbEntity
  8
0
100
AcDbPolyline
 90
        2
 70
     1
 43
0.25
 10
-0.125
 20
0.0
 42
1.0
 10
0.125
 20
0.0
 42
1.0
  0
ENDBLK
  5
136A
330
1366
100
AcDbEntity
  8
0
100
AcDbBlockEnd
  0
BLOCK
  5
1848
330
1844
100
AcDbEntity
  8
0
100
AcDbBlockBegin
  2
_Open30
 70
     0
 10
0.0
 20
0.0
 30
0.0
  3
_Open30
  1

  0
LINE
  5
1845
330
1844
100
AcDbEntity
  8
0
  6
ByBlock
 62
     0
370
    -2
100
AcDbLine
 10
-1.0
 20
0.26794919
 30
0.0
 11
0.0
 21
0.0
 31
0.0
  0
LINE
  5
1846
330
1844
100
AcDbEntity
  8
0
  6
ByBlock
 62
     0
370
    -2
100
AcDbLine
 10
0.0
 20
0.0
 30
0.0
 11
-1.0
 21
-0.26794919
 31
0.0
  0
LINE
  5
1847
330
1844
100
AcDbEntity
  8
0
  6
ByBlock
 62
     0
370
    -2
100
AcDbLine
 10
0.0
 20
0.0
 30
0.0
 11
-1.0
 21
0.0
 31
0.0
  0
ENDBLK
  5
1849
330
1844
100
AcDbEntity
  8
0
100
AcDbBlockEnd
  0
BLOCK
  5
19DA
330
19D3
100
AcDbEntity
  8
0
100
AcDbBlockBegin
  2
BLK20
 70
     2
 10
0.0
 20
0.0
 30
0.0
  3
BLK20
  1

  0
LINE
  5
19D4
330
19D3
100
AcDbEntity
  8
5
  6
Continuous
 62
     3
100
AcDbLine
 10
20.621084
 20
40.91477199999999
 30
0.0
 11
33.988018
 21
47.303543
 31
0.0
  0
POLYLINE
  5
19D5
330
19D3
100
AcDbEntity
  8
5
  6
Continuous
 62
     3
100
AcDb2dPolyline
 66
     1
 10
0.0
 20
0.0
 30
0.0
 70
     1
  0
VERTEX
  5
19D6
330
19D5
100
AcDbEntity
  8
5
  6
Continuous
 62
     3
100
AcDbVertex
100
AcDb2dVertex
 10
22.202347
 20
42.24425899999999
 30
0.0
  0
VERTEX
  5
19D7
330
19D5
100
AcDbEntity
  8
5
  6
Continuous
 62
     3
100
AcDbVertex
100
AcDb2dVertex
 10
20.621084
 20
40.914761
 30
0.0
  0
VERTEX
  5
19D8
330
19D5
100
AcDbEntity
  8
5
  6
Continuous
 62
     3
100
AcDbVertex
100
AcDb2dVertex
 10
22.648788
 20
41.31019199999999
 30
0.0
  0
SEQEND
  5
19D9
330
19D5
100
AcDbEntity
  8
5
  6
Continuous
 62
     3
  0
ENDBLK
  5
19DB
330
19D3
100
AcDbEntity
  8
0
100
AcDbBlockEnd
  0
BLOCK
  5
19E2
330
19DC
100
AcDbEntity
  8
0
100
AcDbBlockBegin
  2
BLK22
 70
     2
 10
0.0
 20
0.0
 30
0.0
  3
BLK22
  1

  0
LINE
  5
19DD
330
19DC
100
AcDbEntity
  8
1
100
AcDbLine
 10
15.499979
 20
-25.0
 30
0.0
 11
15.499979
 21
-18.500046
 31
0.0
  0
LINE
  5
19DE
330
19DC
100
AcDbEntity
  8
1
100
AcDbLine
 10
22.499979
 20
-25.0
 30
0.0
 11
22.499979
 21
-18.500046
 31
0.0
  0
LINE
  5
19DF
330
19DC
100
AcDbEntity
  8
1
100
AcDbLine
 10
15.499979
 20
-18.500046
 30
0.0
 11
22.499979
 21
-18.500046
 31
0.0
  0
LINE
  5
19E0
330
19DC
100
AcDbEntity
  8
1
100
AcDbLine
 10
14.999979
 20
-28.500046
 30
0.0
 11
22.999979
 21
-28.500046
 31
0.0
  0
LINE
  5
19E1
330
19DC
100
AcDbEntity
  8
1
100
AcDbLine
 10
22.999979
 20
-28.500046
 30
0.0
 11
22.999979
 21
-27.000046
 31
0.0
  0
ENDBLK
  5
19E3
330
19DC
100
AcDbEntity
  8
0
100
AcDbBlockEnd
  0
BLOCK
  5
19EA
330
19E4
100
AcDbEntity
  8
0
100
AcDbBlockBegin
  2
BLK23
 70
     2
 10
0.0
 20
0.0
 30
0.0
  3
BLK23
  1

  0
LINE
  5
19E5
330
19E4
100
AcDbEntity
  8
1
100
AcDbLine
 10
-22.499983
 20
-25.0
 30
0.0
 11
-22.499983
 21
-18.5
 31
0.0
  0
LINE
  5
19E6
330
19E4
100
AcDbEntity
  8
1
100
AcDbLine
 10
-22.999983
 20
-28.5
 30
0.0
 11
-22.999983
 21
-27.0
 31
0.0
  0
LINE
  5
19E7
330
19E4
100
AcDbEntity
  8
1
100
AcDbLine
 10
-15.499983
 20
-25.0
 30
0.0
 11
-15.499983
 21
-18.5
 31
0.0
  0
LINE
  5
19E8
330
19E4
100
AcDbEntity
  8
1
100
AcDbLine
 10
-22.499983
 20
-18.5
 30
0.0
 11
-15.499983
 21
-18.5
 31
0.0
  0
LINE
  5
19E9
330
19E4
100
AcDbEntity
  8
1
100
AcDbLine
 10
-22.999983
 20
-28.5
 30
0.0
 11
-14.999983
 21
-28.5
 31
0.0
  0
ENDBLK
  5
19EB
330
19E4
100
AcDbEntity
  8
0
100
AcDbBlockEnd
  0
BLOCK
  5
19FC
330
19EC
100
AcDbEntity
  8
0
100
AcDbBlockBegin
  2
BLK24
 70
     2
 10
0.0
 20
0.0
 30
0.0
  3
BLK24
  1

  0
TEXT
  5
19ED
330
19EC
100
AcDbEntity
  8
6
  6
Continuous
 62
     2
100
AcDbText
 10
-6.453122999999999
 20
-14.030498
 30
0.0
 40
3.5
  1
%%c
  7
EUCLID03
100
AcDbText
  0
TEXT
  5
19EE
330
19EC
100
AcDbEntity
  8
6
  6
Continuous
 62
     2
100
AcDbText
 10
-0.634373
 20
-14.030498
 30
0.0
 40
3.5
  1
18.5
 41
0.5619380000000001
  7
EUCLID03
100
AcDbText
  0
LINE
  5
19EF
330
19EC
100
AcDbEntity
  8
5
  6
Continuous
 62
     3
100
AcDbLine
 10
-9.249997999999999
 20
-15.430497
 30
0.0
 11
9.250002
 21
-15.430497
 31
0.0
  0
LINE
  5
19F0
330
19EC
100
AcDbEntity
  8
5
  6
Continuous
 62
     3
100
AcDbLine
 10
-9.249997999999999
 20
-22.75
 30
0.0
 11
-9.249997999999999
 21
-13.430498
 31
0.0
  0
LINE
  5
19F1
330
19EC
100
AcDbEntity
  8
5
  6
Continuous
 62
     3
100
AcDbLine
 10
9.250002
 20
-22.75
 30
0.0
 11
9.250002
 21
-13.430498
 31
0.0
  0
POLYLINE
  5
19F2
330
19EC
100
AcDbEntity
  8
5
  6
Continuous
 62
     3
100
AcDb2dPolyline
 66
     1
 10
0.0
 20
0.0
 30
0.0
 70
     1
  0
VERTEX
  5
19F3
330
19F2
100
AcDbEntity
  8
5
  6
Continuous
 62
     3
100
AcDbVertex
100
AcDb2dVertex
 10
-7.249997999999999
 20
-14.912853
 30
0.0
  0
VERTEX
  5
19F4
330
19F2
100
AcDbEntity
  8
5
  6
Continuous
 62
     3
100
AcDbVertex
100
AcDb2dVertex
 10
-9.249997999999999
 20
-15.430489
 30
0.0
  0
VERTEX
  5
19F5
330
19F2
100
AcDbEntity
  8
5
  6
Continuous
 62
     3
100
AcDbVertex
100
AcDb2dVertex
 10
-7.249997999999999
 20
-15.948143
 30
0.0
  0
SEQEND
  5
19F6
330
19F2
100
AcDbEntity
  8
5
  6
Continuous
 62
     3
  0
POLYLINE
  5
19F7
330
19EC
100
AcDbEntity
  8
5
  6
Continuous
 62
     3
100
AcDb2dPolyline
 66
     1
 10
0.0
 20
0.0
 30
0.0
 70
     1
  0
VERTEX
  5
19F8
330
19F7
100
AcDbEntity
  8
5
  6
Continuous
 62
     3
100
AcDbVertex
100
AcDb2dVertex
 10
7.250002
 20
-15.948143
 30
0.0
  0
VERTEX
  5
19F9
330
19F7
100
AcDbEntity
  8
5
  6
Continuous
 62
     3
100
AcDbVertex
100
AcDb2dVertex
 10
9.250002999999999
 20
-15.430489
 30
0.0
  0
VERTEX
  5
19FA
330
19F7
100
AcDbEntity
  8
5
  6
Continuous
 62
     3
100
AcDbVertex
100
AcDb2dVertex
 10
7.250002
 20
-14.912853
 30
0.0
  0
SEQEND
  5
19FB
330
19F7
100
AcDbEntity
  8
5
  6
Continuous
 62
     3
  0
ENDBLK
  5
19FD
330
19EC
100
AcDbEntity
  8
0
100
AcDbBlockEnd
  0
BLOCK
  5
1A0E
330
19FE
100
AcDbEntity
  8
0
100
AcDbBlockBegin
  2
BLK25
 70
     2
 10
0.0
 20
0.0
 30
0.0
  3
BLK25
  1

  0
TEXT
  5
19FF
330
19FE
100
AcDbEntity
  8
6
  6
Continuous
 62
     2
100
AcDbText
 10
-5.064059
 20
-44.886894
 30
0.0
 40
3.5
  1
%%c
  7
EUCLID03
100
AcDbText
  0
TEXT
  5
1A00
330
19FE
100
AcDbEntity
  8
6
  6
Continuous
 62
     2
100
AcDbText
 10
0.75469
 20
-44.886894
 30
0.0
 40
3.5
  1
53
 41
0.683344
  7
EUCLID03
100
AcDbText
  0
LINE
  5
1A01
330
19FE
100
AcDbEntity
  8
5
  6
Continuous
 62
     3
100
AcDbLine
 10
26.500013
 20
-46.286892
 30
0.0
 11
-26.50001
 21
-46.286892
 31
0.0
  0
LINE
  5
1A02
330
19FE
100
AcDbEntity
  8
5
  6
Continuous
 62
     3
100
AcDbLine
 10
26.500015
 20
-32.0
 30
0.0
 11
26.500013
 21
-48.286896
 31
0.0
  0
LINE
  5
1A03
330
19FE
100
AcDbEntity
  8
5
  6
Continuous
 62
     3
100
AcDbLine
 10
-26.500011
 20
-32.0
 30
0.0
 11
-26.50001
 21
-48.286896
 31
0.0
  0
POLYLINE
  5
1A04
330
19FE
100
AcDbEntity
  8
5
  6
Continuous
 62
     3
100
AcDb2dPolyline
 66
     1
 10
0.0
 20
0.0
 30
0.0
 70
     1
  0
VERTEX
  5
1A05
330
1A04
100
AcDbEntity
  8
5
  6
Continuous
 62
     3
100
AcDbVertex
100
AcDb2dVertex
 10
24.500011
 20
-46.804523
 30
0.0
  0
VERTEX
  5
1A06
330
1A04
100
AcDbEntity
  8
5
  6
Continuous
 62
     3
100
AcDbVertex
100
AcDb2dVertex
 10
26.500011
 20
-46.28688799999999
 30
0.0
  0
VERTEX
  5
1A07
330
1A04
100
AcDbEntity
  8
5
  6
Continuous
 62
     3
100
AcDbVertex
100
AcDb2dVertex
 10
24.500011
 20
-45.769253
 30
0.0
  0
SEQEND
  5
1A08
330
1A04
100
AcDbEntity
  8
5
  6
Continuous
 62
     3
  0
POLYLINE
  5
1A09
330
19FE
100
AcDbEntity
  8
5
  6
Continuous
 62
     3
100
AcDb2dPolyline
 66
     1
 10
0.0
 20
0.0
 30
0.0
 70
     1
  0
VERTEX
  5
1A0A
330
1A09
100
AcDbEntity
  8
5
  6
Continuous
 62
     3
100
AcDbVertex
100
AcDb2dVertex
 10
-24.500008
 20
-45.769253
 30
0.0
  0
VERTEX
  5
1A0B
330
1A09
100
AcDbEntity
  8
5
  6
Continuous
 62
     3
100
AcDbVertex
100
AcDb2dVertex
 10
-26.50001
 20
-46.28688799999999
 30
0.0
  0
VERTEX
  5
1A0C
330
1A09
100
AcDbEntity
  8
5
  6
Continuous
 62
     3
100
AcDbVertex
100
AcDb2dVertex
 10
-24.500008
 20
-46.804523
 30
0.0
  0
SEQEND
  5
1A0D
330
1A09
100
AcDbEntity
  8
5
  6
Continuous
 62
     3
  0
ENDBLK
  5
1A0F
330
19FE
100
AcDbEntity
  8
0
100
AcDbBlockEnd
  0
BLOCK
  5
1A20
330
1A10
100
AcDbEntity
  8
0
100
AcDbBlockBegin
  2
BLK27
 70
     2
 10
0.0
 20
0.0
 30
0.0
  3
BLK27
  1

  0
TEXT
  5
1A11
330
1A10
100
AcDbEntity
  8
6
  6
Continuous
 62
     2
100
AcDbText
 10
-22.849981
 20
-6.746789999999999
 30
0.0
 40
3.5
  1
%%c
  7
EUCLID03
100
AcDbText
  0
TEXT
  5
1A12
330
1A10
100
AcDbEntity
  8
6
  6
Continuous
 62
     2
100
AcDbText
 10
-17.031233
 20
-6.746789999999999
 30
0.0
 40
3.5
  1
7
 41
0.596625
  7
EUCLID03
100
AcDbText
  0
LINE
  5
1A13
330
1A10
100
AcDbEntity
  8
5
  6
Continuous
 62
     3
100
AcDbLine
 10
-28.499983
 20
-8.146789999999999
 30
0.0
 11
-9.499983
 21
-8.146789999999999
 31
0.0
  0
LINE
  5
1A14
330
1A10
100
AcDbEntity
  8
5
  6
Continuous
 62
     3
100
AcDbLine
 10
-22.499983
 20
-18.5
 30
0.0
 11
-22.499983
 21
-6.14679
 31
0.0
  0
LINE
  5
1A15
330
1A10
100
AcDbEntity
  8
5
  6
Continuous
 62
     3
100
AcDbLine
 10
-15.499983
 20
-18.5
 30
0.0
 11
-15.499983
 21
-6.14679
 31
0.0
  0
POLYLINE
  5
1A16
330
1A10
100
AcDbEntity
  8
5
  6
Continuous
 62
     3
100
AcDb2dPolyline
 66
     1
 10
0.0
 20
0.0
 30
0.0
 70
     1
  0
VERTEX
  5
1A17
330
1A16
100
AcDbEntity
  8
5
  6
Continuous
 62
     3
100
AcDbVertex
100
AcDb2dVertex
 10
-24.499985
 20
-8.664436
 30
0.0
  0
VERTEX
  5
1A18
330
1A16
100
AcDbEntity
  8
5
  6
Continuous
 62
     3
100
AcDbVertex
100
AcDb2dVertex
 10
-22.499985
 20
-8.146781999999999
 30
0.0
  0
VERTEX
  5
1A19
330
1A16
100
AcDbEntity
  8
5
  6
Continuous
 62
     3
100
AcDbVertex
100
AcDb2dVertex
 10
-24.499985
 20
-7.629146999999999
 30
0.0
  0
SEQEND
  5
1A1A
330
1A16
100
AcDbEntity
  8
5
  6
Continuous
 62
     3
  0
POLYLINE
  5
1A1B
330
1A10
100
AcDbEntity
  8
5
  6
Continuous
 62
     3
100
AcDb2dPolyline
 66
     1
 10
0.0
 20
0.0
 30
0.0
 70
     1
  0
VERTEX
  5
1A1C
330
1A1B
100
AcDbEntity
  8
5
  6
Continuous
 62
     3
100
AcDbVertex
100
AcDb2dVertex
 10
-13.499983
 20
-7.629146999999999
 30
0.0
  0
VERTEX
  5
1A1D
330
1A1B
100
AcDbEntity
  8
5
  6
Continuous
 62
     3
100
AcDbVertex
100
AcDb2dVertex
 10
-15.499984
 20
-8.146781999999999
 30
0.0
  0
VERTEX
  5
1A1E
330
1A1B
100
AcDbEntity
  8
5
  6
Continuous
 62
     3
100
AcDbVertex
100
AcDb2dVertex
 10
-13.499983
 20
-8.664436
 30
0.0
  0
SEQEND
  5
1A1F
330
1A1B
100
AcDbEntity
  8
5
  6
Continuous
 62
     3
  0
ENDBLK
  5
1A21
330
1A10
100
AcDbEntity
  8
0
100
AcDbBlockEnd
  0
BLOCK
  5
1F71
330
1F5E
100
AcDbEntity
  8
5
100
AcDbBlockBegin
  2
*D17
 70
     1
 10
0.0
 20
0.0
 30
0.0
  3
*D17
  1

  0
TEXT
  5
1F5F
330
1F5E
100
AcDbEntity
  8
6
  6
Continuous
 62
     2
100
AcDbText
 10
-2.154691
 20
75.90243499999999
 30
0.0
 40
3.5
  1
38
 41
0.683344
  7
EUCLID03
100
AcDbText
  0
LINE
  5
1F60
330
1F5E
100
AcDbEntity
  8
5
  6
Continuous
 62
     3
100
AcDbLine
 10
-19.000004
 20
74.502426
 30
0.0
 11
18.999996
 21
74.502426
 31
0.0
  0
LINE
  5
1F61
330
1F5E
100
AcDbEntity
  8
5
  6
Continuous
 62
     3
100
AcDbLine
 10
-19.000004
 20
42.849995
 30
0.0
 11
-19.000004
 21
76.502426
 31
0.0
  0
LINE
  5
1F62
330
1F5E
100
AcDbEntity
  8
5
  6
Continuous
 62
     3
100
AcDbLine
 10
18.999996
 20
42.849995
 30
0.0
 11
18.999996
 21
76.502426
 31
0.0
  0
POLYLINE
  5
1F63
330
1F5E
100
AcDbEntity
  8
5
  6
Continuous
 62
     3
100
AcDb2dPolyline
 66
     1
 10
0.0
 20
0.0
 30
0.0
 70
     1
  0
VERTEX
  5
1F64
330
1F63
100
AcDbEntity
  8
5
  6
Continuous
 62
     3
100
AcDbVertex
100
AcDb2dVertex
 10
-17.000002
 20
75.020065
 30
0.0
  0
VERTEX
  5
1F65
330
1F63
100
AcDbEntity
  8
5
  6
Continuous
 62
     3
100
AcDbVertex
100
AcDb2dVertex
 10
-19.000002
 20
74.502441
 30
0.0
  0
VERTEX
  5
1F66
330
1F63
100
AcDbEntity
  8
5
  6
Continuous
 62
     3
100
AcDbVertex
100
AcDb2dVertex
 10
-17.000002
 20
73.984787
 30
0.0
  0
SEQEND
  5
1F67
330
1F63
100
AcDbEntity
  8
5
  6
Continuous
 62
     3
  0
POLYLINE
  5
1F68
330
1F5E
100
AcDbEntity
  8
5
  6
Continuous
 62
     3
100
AcDb2dPolyline
 66
     1
 10
0.0
 20
0.0
 30
0.0
 70
     1
  0
VERTEX
  5
1F69
330
1F68
100
AcDbEntity
  8
5
  6
Continuous
 62
     3
100
AcDbVertex
100
AcDb2dVertex
 10
16.999998
 20
73.984787
 30
0.0
  0
VERTEX
  5
1F6A
330
1F68
100
AcDbEntity
  8
5
  6
Continuous
 62
     3
100
AcDbVertex
100
AcDb2dVertex
 10
18.999996
 20
74.502441
 30
0.0
  0
VERTEX
  5
1F6B
330
1F68
100
AcDbEntity
  8
5
  6
Continuous
 62
     3
100
AcDbVertex
100
AcDb2dVertex
 10
16.999998
 20
75.020065
 30
0.0
  0
SEQEND
  5
1F6C
330
1F68
100
AcDbEntity
  8
5
  6
Continuous
 62
     3
  0
POINT
  5
1F6D
330
1F5E
100
AcDbEntity
  8
5
  6
ByBlock
 62
     0
100
AcDbPoint
 10
-19.000006
 20
74.50243399999999
 30
0.0
  0
POINT
  5
1F6E
330
1F5E
100
AcDbEntity
  8
5
  6
ByBlock
 62
     0
100
AcDbPoint
 10
-0.000004
 20
77.652435
 30
0.0
  0
POINT
  5
1F6F
330
1F5E
100
AcDbEntity
  8
5
  6
ByBlock
 62
     0
100
AcDbPoint
 10
18.999998
 20
42.849995
 30
0.0
  0
POINT
  5
1F70
330
1F5E
100
AcDbEntity
  8
5
  6
ByBlock
 62
     0
100
AcDbPoint
 10
-19.000006
 20
42.849995
 30
0.0
  0
ENDBLK
  5
1F72
330
1F5E
100
AcDbEntity
  8
0
100
AcDbBlockEnd
  0
BLOCK
  5
1F7F
330
1F73
100
AcDbEntity
  8
0
100
AcDbBlockBegin
  2
*D18
 70
     1
 10
0.0
 20
0.0
 30
0.0
  3
*D18
  1
GEVFRAME
  0
LINE
  5
1F74
330
1F73
100
AcDbEntity
  8
0
  6
ByBlock
100
AcDbLine
 10
-25.499998
 20
-25.0
 30
0.0
 11
-37.95101688613579
 21
-25.0
 31
0.0
  0
LINE
  5
1F75
330
1F73
100
AcDbEntity
  8
0
  6
ByBlock
100
AcDbLine
 10
-25.500008
 20
-33.0
 30
0.0
 11
-37.95101688613579
 21
-33.0
 31
0.0
  0
LINE
  5
1F76
330
1F73
100
AcDbEntity
  8
0
  6
ByBlock
100
AcDbLine
 10
-36.95101688613579
 20
-22.0
 30
0.0
 11
-36.95101688613579
 21
-19.0
 31
0.0
  0
LINE
  5
1F77
330
1F73
100
AcDbEntity
  8
0
  6
ByBlock
100
AcDbLine
 10
-36.95101688613579
 20
-36.0
 30
0.0
 11
-36.95101688613579
 21
-39.0
 31
0.0
  0
LINE
  5
1F78
330
1F73
100
AcDbEntity
  8
0
  6
ByBlock
100
AcDbLine
 10
-36.95101688613579
 20
-25.0
 30
0.0
 11
-36.95101688613579
 21
-33.0
 31
0.0
  0
INSERT
  5
1F79
330
1F73
100
AcDbEntity
  8
0
  6
ByBlock
100
AcDbBlockReference
  2
GENDOT
 10
-36.95101688613579
 20
-25.0
 30
0.0
 41
3.0
 42
3.0
 43
3.0
 50
270.0
  0
SOLID
  5
1F7A
330
1F73
100
AcDbEntity
  8
0
  6
ByBlock
100
AcDbTrace
 10
-37.45101688613579
 20
-36.0
 30
0.0
 11
-36.45101688613579
 21
-36.0
 31
0.0
 12
-36.95101688613579
 22
-33.0
 32
0.0
 13
-36.95101688613579
 23
-33.0
 33
0.0
  0
MTEXT
  5
1F7B
330
1F73
100
AcDbEntity
  8
0
  6
ByBlock
 62
     2
100
AcDbMText
 10
-39.70101688613579
 20
-29.0
 30
0.0
 40
3.5
 41
0.0
 46
0.0
 71
     5
 72
     1
  1
8
 11
0.0000000000000001
 21
1.0
 31
0.0
 73
     1
 44
1.0
  0
POINT
  5
1F7C
330
1F73
100
AcDbEntity
  8
Defpoints
  6
ByBlock
 62
     0
100
AcDbPoint
 10
-25.499998
 20
-25.0
 30
0.0
  0
POINT
  5
1F7D
330
1F73
100
AcDbEntity
  8
Defpoints
  6
ByBlock
 62
     0
100
AcDbPoint
 10
-25.500008
 20
-33.0
 30
0.0
  0
POINT
  5
1F7E
330
1F73
100
AcDbEntity
  8
Defpoints
  6
ByBlock
 62
     0
100
AcDbPoint
 10
-36.95101688613579
 20
-33.0
 30
0.0
  0
ENDBLK
  5
1F80
330
1F73
100
AcDbEntity
  8
0
100
AcDbBlockEnd
  0
BLOCK
  5
1F8D
330
1F81
100
AcDbEntity
  8
0
100
AcDbBlockBegin
  2
*D19
 70
     1
 10
0.0
 20
0.0
 30
0.0
  3
*D19
  1

  0
LINE
  5
1F82
330
1F81
100
AcDbEntity
  8
0
  6
ByBlock
100
AcDbLine
 10
-22.499983
 20
-18.5
 30
0.0
 11
-37.95101688613579
 21
-18.49999999999999
 31
0.0
  0
LINE
  5
1F83
330
1F81
100
AcDbEntity
  8
0
  6
ByBlock
100
AcDbLine
 10
-25.499998
 20
-25.0
 30
0.0
 11
-37.95101688613579
 21
-25.0
 31
0.0
  0
LINE
  5
1F84
330
1F81
100
AcDbEntity
  8
0
  6
ByBlock
100
AcDbLine
 10
-36.95101688613579
 20
-15.5
 30
0.0
 11
-36.95101688613579
 21
-12.5
 31
0.0
  0
LINE
  5
1F85
330
1F81
100
AcDbEntity
  8
0
  6
ByBlock
100
AcDbLine
 10
-36.95101688613579
 20
-28.0
 30
0.0
 11
-36.95101688613579
 21
-31.0
 31
0.0
  0
LINE
  5
1F86
330
1F81
100
AcDbEntity
  8
0
  6
ByBlock
100
AcDbLine
 10
-36.95101688613579
 20
-18.49999999999999
 30
0.0
 11
-36.95101688613579
 21
-25.0
 31
0.0
  0
SOLID
  5
1F87
330
1F81
100
AcDbEntity
  8
0
  6
ByBlock
100
AcDbTrace
 10
-37.45101688613579
 20
-15.5
 30
0.0
 11
-36.45101688613579
 21
-15.5
 31
0.0
 12
-36.95101688613579
 22
-18.49999999999999
 32
0.0
 13
-36.95101688613579
 23
-18.49999999999999
 33
0.0
  0
INSERT
  5
1F88
330
1F81
100
AcDbEntity
  8
0
  6
ByBlock
100
AcDbBlockReference
  2
GENDOT
 10
-36.95101688613579
 20
-25.0
 30
0.0
 41
3.0
 42
3.0
 43
3.0
 50
90.0
  0
MTEXT
  5
1F89
330
1F81
100
AcDbEntity
  8
0
  6
ByBlock
 62
     2
100
AcDbMText
 10
-39.70101688613579
 20
-21.75
 30
0.0
 40
3.5
 41
0.0
 46
0.0
 71
     5
 72
     1
  1
6.5
 11
0.0000000000000001
 21
1.0
 31
0.0
 73
     1
 44
1.0
  0
POINT
  5
1F8A
330
1F81
100
AcDbEntity
  8
Defpoints
  6
ByBlock
 62
     0
100
AcDbPoint
 10
-22.499983
 20
-18.5
 30
0.0
  0
POINT
  5
1F8B
330
1F81
100
AcDbEntity
  8
Defpoints
  6
ByBlock
 62
     0
100
AcDbPoint
 10
-25.499998
 20
-25.0
 30
0.0
  0
POINT
  5
1F8C
330
1F81
100
AcDbEntity
  8
Defpoints
  6
ByBlock
 62
     0
100
AcDbPoint
 10
-36.95101688613579
 20
-25.0
 30
0.0
  0
ENDBLK
  5
1F8E
330
1F81
100
AcDbEntity
  8
0
100
AcDbBlockEnd
  0
BLOCK
  5
2004
330
1F8F
100
AcDbEntity
  8
0
100
AcDbBlockBegin
  2
A$C386D5843
 70
     0
 10
0.0
 20
0.0
 30
0.0
  3
A$C386D5843
  1

  0
DIMENSION
  5
1F90
330
1F8F
100
AcDbEntity
  8
5
100
AcDbDimension
  2
*D17
 10
22.27601088896527
 20
122.7893301097499
 30
0.0
 11
41.27601288896527
 21
125.9393311097499
 31
0.0
 12
41.27601688896527
 22
48.28689610974993
 32
0.0
 70
   128
 71
     5
 42
-1.0
 73
     0
 74
     0
 75
     0
  3
STANDARD
100
AcDbAlignedDimension
 13
60.27601488896528
 23
91.13689110974993
 33
0.0
 14
22.27601088896527
 24
91.13689110974993
 34
0.0
100
AcDbRotatedDimension
  0
ARC
  5
1F91
330
1F8F
100
AcDbEntity
  8
1
100
AcDbCircle
 10
41.27601388896527
 20
88.28689210974994
 30
0.0
 40
25.475
100
AcDbArc
 50
65.65884954618356
 51
80.96622170397774
  0
ARC
  5
1F92
330
1F8F
100
AcDbEntity
  8
1
100
AcDbCircle
 10
41.27601388896527
 20
88.28689210974994
 30
0.0
 40
25.475
100
AcDbArc
 50
279.3173427863928
 51
294.3411504538165
  0
LINE
  5
1F93
330
1F8F
100
AcDbEntity
  8
7
  6
GEN7A
100
AcDbLine
 10
54.8439242725658
 20
88.28689210974994
 30
0.0
 11
17.02601088896527
 21
88.28689210974994
 31
0.0
  0
INSERT
  5
1F94
330
1F8F
100
AcDbEntity
  8
5
 62
     3
100
AcDbBlockReference
  2
BLK25
 10
41.27601688896527
 20
48.28689610974993
 30
0.0
  0
INSERT
  5
1F95
330
1F8F
100
AcDbEntity
  8
5
 62
     3
100
AcDbBlockReference
  2
BLK24
 10
41.27601688896527
 20
48.28689610974993
 30
0.0
  0
LINE
  5
1F96
330
1F8F
100
AcDbEntity
  8
2A
100
AcDbLine
 10
15.77600888896527
 20
15.28689610974993
 30
0.0
 11
66.77602788896527
 21
15.28689610974993
 31
0.0
  0
LINE
  5
1F97
330
1F8F
100
AcDbEntity
  8
1
100
AcDbLine
 10
32.02601888896527
 20
23.28689610974993
 30
0.0
 11
50.52601888896528
 21
23.28689610974993
 31
0.0
  0
LINE
  5
1F98
330
1F8F
100
AcDbEntity
  8
1
100
AcDbLine
 10
57.77601888896526
 20
21.28689610974993
 30
0.0
 11
24.86585565605663
 21
21.28689610974993
 31
0.0
  0
LINE
  5
1F99
330
1F8F
100
AcDbEntity
  8
1
100
AcDbLine
 10
50.02601888896528
 20
26.03689610974993
 30
0.0
 11
41.27601888896527
 21
26.03689610974993
 31
0.0
  0
LINE
  5
1F9A
330
1F8F
100
AcDbEntity
  8
1
100
AcDbLine
 10
52.74049188896527
 20
17.28689610974993
 30
0.0
 11
41.27601888896527
 21
17.28689610974993
 31
0.0
  0
CIRCLE
  5
1F9B
330
1F8F
100
AcDbEntity
  8
2A
100
AcDbCircle
 10
41.27601388896527
 20
88.28689210974994
 30
0.0
 40
10.599999
  0
CIRCLE
  5
1F9C
330
1F8F
100
AcDbEntity
  8
2A
100
AcDbCircle
 10
41.27601388896527
 20
88.28689210974994
 30
0.0
 40
26.499996
  0
ARC
  5
1F9D
330
1F8F
100
AcDbEntity
  8
1
100
AcDbCircle
 10
41.27601388896527
 20
88.28689210974994
 30
0.0
 40
16.499998
100
AcDbArc
 50
10.11743200000017
 51
169.8825649999999
  0
ARC
  5
1F9E
330
1F8F
100
AcDbEntity
  8
1
100
AcDbCircle
 10
41.27601388896527
 20
88.28689210974994
 30
0.0
 40
16.499998
100
AcDbArc
 50
190.1174320000001
 51
349.8825649999999
  0
CIRCLE
  5
1F9F
330
1F8F
100
AcDbEntity
  8
1
100
AcDbCircle
 10
41.27601388896527
 20
88.28689210974994
 30
0.0
 40
7.999998999999999
  0
DIMENSION
  5
1FA0
330
1F8F
100
AcDbEntity
  8
5
100
AcDbDimension
  2
*D19
 10
4.325000002829483
 20
23.28689610974993
 30
0.0
 11
1.575000002829483
 21
26.53689610974994
 31
0.0
 12
41.27601688896527
 22
48.28689610974993
 32
0.0
  1
<>
 71
     5
 42
-1.0
 73
     0
 74
     0
 75
     0
  3
GEN-ISO
100
AcDbAlignedDimension
 13
18.77603388896527
 23
29.78689610974993
 33
0.0
 14
15.77601888896527
 24
23.28689610974993
 34
0.0
 50
90.0
100
AcDbRotatedDimension
1001
GENIUS_GENDTOL_13
1000

1000
h7
1000

1040
0.0
1000
<>
1001
GENIUS_GENDREL_13
1005
1FA1
1005
0
1040
0.0
1001
ACAD
1000
DSTYLE
1002
{
1070
   173
1070
     1
1070
   174
1070
     1
1070
   279
1070
     2
1070
   283
1070
     0
1070
   344
1005
1366
1002
}
  0
DIMENSION
  5
1FA1
330
1F8F
100
AcDbEntity
  8
5
100
AcDbDimension
  2
*D18
 10
4.325000002829483
 20
15.28689610974993
 30
0.0
 11
1.575000002829483
 21
19.28689610974993
 31
0.0
 12
41.27601688896527
 22
48.28689610974993
 32
0.0
  1
<>
 71
     5
 42
-1.0
 73
     0
 74
     0
 75
     0
  3
GEN-ISO
100
AcDbAlignedDimension
 13
15.77601888896527
 23
23.28689610974993
 33
0.0
 14
15.77600888896527
 24
15.28689610974993
 34
0.0
 50
90.0
100
AcDbRotatedDimension
1001
GENIUS_GENDREL_13
1005
0
1005
1FA0
1040
0.0
1001
GENIUS_GENDTOL_13
1000

1000
h7
1000

1040
0.0
1000
<>
1001
ACAD
1000
DSTYLE
1002
{
1070
   173
1070
     1
1070
   174
1070
     1
1070
   279
1070
     2
1070
   283
1070
     0
1070
   343
1005
1366
1002
}
  0
LINE
  5
1FA2
330
1F8F
100
AcDbEntity
  8
7
  6
GEN7A
100
AcDbLine
 10
41.27601888896527
 20
14.72486910974993
 30
0.0
 11
41.27601888896527
 21
26.09939610974993
 31
0.0
  0
LINE
  5
1FA3
330
1F8F
100
AcDbEntity
  8
7
  6
GEN7A
100
AcDbLine
 10
22.27603788896527
 20
18.31218410974993
 30
0.0
 11
22.27603788896527
 21
30.87554010974993
 31
0.0
  0
LINE
  5
1FA4
330
1F8F
100
AcDbEntity
  8
2A
100
AcDbLine
 10
14.77600688896527
 20
16.28689610974993
 30
0.0
 11
14.77600688896527
 21
23.28689610974993
 31
0.0
  0
LINE
  5
1FA5
330
1F8F
100
AcDbEntity
  8
1
100
AcDbLine
 10
15.77601888896527
 20
21.28689610974993
 30
0.0
 11
15.77601888896527
 21
23.28689610974993
 31
0.0
  0
INSERT
  5
1FA6
330
1F8F
100
AcDbEntity
  8
2
100
AcDbBlockReference
  2
BLK23
 10
41.27601688896527
 20
48.28689610974993
 30
0.0
  0
ARC
  5
1FA7
330
1F8F
100
AcDbEntity
  8
1
100
AcDbCircle
 10
29.81155288896527
 20
19.78689610974993
 30
0.0
 40
2.5
100
AcDbArc
 50
224.999985
 51
270.0
  0
LINE
  5
1FA8
330
1F8F
100
AcDbEntity
  8
1
100
AcDbLine
 10
15.77601888896527
 20
21.28689610974993
 30
0.0
 11
24.77601888896527
 21
21.28689610974993
 31
0.0
  0
ARC
  5
1FA9
330
1F8F
100
AcDbEntity
  8
2A
100
AcDbCircle
 10
15.77600688896527
 20
16.28689610974993
 30
0.0
 40
1.0
100
AcDbArc
 50
180.0
 51
270.0
  0
LINE
  5
1FAA
330
1F8F
100
AcDbEntity
  8
1
100
AcDbLine
 10
24.77601888896527
 20
21.28689610974993
 30
0.0
 11
28.04378588896528
 21
18.01912910974993
 31
0.0
  0
LINE
  5
1FAB
330
1F8F
100
AcDbEntity
  8
1
100
AcDbLine
 10
29.81154588896528
 20
17.28689610974993
 30
0.0
 11
41.27601888896527
 21
17.28689610974993
 31
0.0
  0
INSERT
  5
1FAC
330
1F8F
100
AcDbEntity
  8
5
 62
     3
100
AcDbBlockReference
  2
BLK27
 10
41.27601688896527
 20
48.28689610974993
 30
0.0
  0
LINE
  5
1FAD
330
1F8F
100
AcDbEntity
  8
1
100
AcDbLine
 10
25.07603888896527
 20
23.28689610974993
 30
0.0
 11
32.02601888896527
 21
23.28689610974993
 31
0.0
  0
LINE
  5
1FAE
330
1F8F
100
AcDbEntity
  8
1
100
AcDbLine
 10
15.77601888896527
 20
23.28689610974993
 30
0.0
 11
25.19023388896528
 21
23.28689610974993
 31
0.0
  0
LINE
  5
1FAF
330
1F8F
100
AcDbEntity
  8
2A
100
AcDbLine
 10
14.77600688896527
 20
23.28689610974993
 30
0.0
 11
15.77601888896527
 21
23.28689610974993
 31
0.0
  0
LINE
  5
1FB0
330
1F8F
100
AcDbEntity
  8
1
100
AcDbLine
 10
32.52601888896528
 20
26.03689610974993
 30
0.0
 11
41.27601888896527
 21
26.03689610974993
 31
0.0
  0
LINE
  5
1FB1
330
1F8F
100
AcDbEntity
  8
1
100
AcDbLine
 10
32.02601888896527
 20
23.28689610974993
 30
0.0
 11
32.02601888896527
 21
25.53689610974994
 31
0.0
  0
ARC
  5
1FB2
330
1F8F
100
AcDbEntity
  8
1
100
AcDbCircle
 10
32.52601888896528
 20
25.53689610974994
 30
0.0
 40
0.5
100
AcDbArc
 50
90.0
 51
179.999781
  0
ARC
  5
1FB3
330
1F8F
100
AcDbEntity
  8
1
100
AcDbCircle
 10
41.27601388896527
 20
88.28689210974994
 30
0.0
 40
25.475
100
AcDbArc
 50
130.0523797928233
 51
200.9662390580313
  0
LINE
  5
1FB4
330
1F8F
100
AcDbEntity
  8
7
  6
GEN7A
100
AcDbLine
 10
22.27601088896527
 20
93.53689210974994
 30
0.0
 11
22.27601088896527
 21
83.03689210974994
 31
0.0
  0
CIRCLE
  5
1FB5
330
1F8F
100
AcDbEntity
  8
1
100
AcDbCircle
 10
22.27601088896527
 20
88.28689210974994
 30
0.0
 40
3.5
  0
LINE
  5
1FB6
330
1F8F
100
AcDbEntity
  8
7
  6
GEN7A
100
AcDbLine
 10
22.27601088896527
 20
91.13689110974993
 30
0.0
 11
22.27601088896527
 21
85.43689410974993
 31
0.0
  0
LINE
  5
1FB7
330
1F8F
100
AcDbEntity
  8
7
  6
GEN7A
100
AcDbLine
 10
41.27601388896527
 20
59.32181610974993
 30
0.0
 11
41.27601388896527
 21
117.1448371097499
 31
0.0
  0
ARC
  5
1FB8
330
1F8F
100
AcDbEntity
  8
1
100
AcDbCircle
 10
29.27601188896527
 20
69.93689010974993
 30
0.0
 40
1.5
100
AcDbArc
 50
359.9999270000001
 51
180.000076
  0
ARC
  5
1FB9
330
1F8F
100
AcDbEntity
  8
1
100
AcDbCircle
 10
41.27601388896527
 20
88.28689210974994
 30
0.0
 40
25.279997
100
AcDbArc
 50
200.8959659999999
 51
219.1040530000002
  0
ARC
  5
1FBA
330
1F8F
100
AcDbEntity
  8
1
100
AcDbCircle
 10
41.27601388896527
 20
88.28689210974994
 30
0.0
 40
24.593996
100
AcDbArc
 50
200.6397739999998
 51
219.3602450000002
  0
LINE
  5
1FBB
330
1F8F
100
AcDbEntity
  8
1
100
AcDbLine
 10
25.41424088896528
 20
74.51028710974992
 30
0.0
 11
21.4876768608487
 21
72.24328457710098
 31
0.0
  0
ARC
  5
1FBC
330
1F8F
100
AcDbEntity
  8
1
100
AcDbCircle
 10
41.27601388896527
 20
88.28689210974994
 30
0.0
 40
25.475
100
AcDbArc
 50
219.0337832678738
 51
229.9476132168387
  0
LINE
  5
1FBD
330
1F8F
100
AcDbEntity
  8
1
100
AcDbLine
 10
24.88316340468415
 20
68.78689010974993
 30
0.0
 11
27.77601188896527
 21
68.78689010974993
 31
0.0
  0
LINE
  5
1FBE
330
1F8F
100
AcDbEntity
  8
1
100
AcDbLine
 10
27.77601188896527
 20
68.78687510974993
 30
0.0
 11
27.77601188896527
 21
69.93689010974993
 31
0.0
  0
LINE
  5
1FBF
330
1F8F
100
AcDbEntity
  8
1
100
AcDbLine
 10
21.41424088896528
 20
81.43848810974992
 30
0.0
 11
17.48767723519878
 21
79.17148404170001
 31
0.0
  0
LINE
  5
1FC0
330
1F8F
100
AcDbEntity
  8
1
100
AcDbLine
 10
21.43589288896528
 20
81.45098510974992
 30
0.0
 11
25.43588488896527
 21
74.52278410974994
 31
0.0
  0
CIRCLE
  5
1FC1
330
1F8F
100
AcDbEntity
  8
1
100
AcDbCircle
 10
22.27601088896527
 20
88.28689210974994
 30
0.0
 40
1.299998999999999
  0
ARC
  5
1FC2
330
1F8F
100
AcDbEntity
  8
RAHM5
 62
     7
100
AcDbCircle
 10
22.27601088896527
 20
88.28689210974994
 30
0.0
 40
2.0
100
AcDbArc
 50
0.0
 51
270.0
  0
LINE
  5
1FC3
330
1F8F
100
AcDbEntity
  8
7
  6
GEN7A
100
AcDbLine
 10
19.42601088896527
 20
88.28689210974994
 30
0.0
 11
25.12601188896527
 21
88.28689210974994
 31
0.0
  0
ARC
  5
1FC4
330
1F8F
100
AcDbEntity
  8
1
100
AcDbCircle
 10
41.27601388896527
 20
88.28689210974994
 30
0.0
 40
26.699997
100
AcDbArc
 50
262.4937740000001
 51
277.5089950000001
  0
LINE
  5
1FC5
330
1F8F
100
AcDbEntity
  8
1
100
AcDbLine
 10
30.77601188896527
 20
65.10386710974993
 30
0.0
 11
30.77601188896527
 21
69.93689010974993
 31
0.0
  0
ARC
  5
1FC6
330
1F8F
100
AcDbEntity
  8
1
100
AcDbCircle
 10
41.27601388896527
 20
88.28689210974994
 30
0.0
 40
25.449997
100
AcDbArc
 50
245.6333919999999
 51
260.9508510000001
  0
ARC
  5
1FC7
330
1F8F
100
AcDbEntity
  8
0
  6
CONTINU
 62
     3
100
AcDbCircle
 10
37.22601288896527
 20
62.85737910974993
 30
0.0
 40
0.3
100
AcDbArc
 50
0.0
 51
80.95081299999984
  0
ARC
  5
1FC8
330
1F8F
100
AcDbEntity
  8
0
  6
CONTINU
 62
     3
100
AcDbCircle
 10
37.82601288896528
 20
62.11328410974993
 30
0.0
 40
0.3
100
AcDbArc
 50
180.0
 51
262.4910510000002
  0
LINE
  5
1FC9
330
1F8F
100
AcDbEntity
  8
1
100
AcDbLine
 10
37.52601288896528
 20
62.11328410974993
 30
0.0
 11
37.52601288896528
 21
62.85737910974993
 31
0.0
  0
ARC
  5
1FCA
330
1F8F
100
AcDbEntity
  8
1
100
AcDbCircle
 10
45.32601388896527
 20
62.85737910974993
 30
0.0
 40
0.3
100
AcDbArc
 50
75.62763760806529
 51
180.0
  0
ARC
  5
1FCB
330
1F8F
100
AcDbEntity
  8
0
  6
CONTINU
 62
     3
100
AcDbCircle
 10
44.72601388896527
 20
62.11328410974993
 30
0.0
 40
0.3
100
AcDbArc
 50
277.5089489999998
 51
0.0
  0
LINE
  5
1FCC
330
1F8F
100
AcDbEntity
  8
0
  6
CONTINU
 62
     3
100
AcDbLine
 10
45.02601388896527
 20
62.85737910974993
 30
0.0
 11
45.02601388896527
 21
62.11328410974993
 31
0.0
  0
ARC
  5
1FCD
330
1F8F
100
AcDbEntity
  8
1
100
AcDbCircle
 10
29.27601188896527
 20
106.6368941097499
 30
0.0
 40
1.5
100
AcDbArc
 50
180.0001460000001
 51
359.9998469999998
  0
CIRCLE
  5
1FCE
330
1F8F
100
AcDbEntity
  8
1
100
AcDbCircle
 10
24.77601088896527
 20
97.78689210974995
 30
0.0
 40
2.25
  0
LINE
  5
1FCF
330
1F8F
100
AcDbEntity
  8
7
  6
GEN7A
100
AcDbLine
 10
24.77601088896527
 20
101.1618921097499
 30
0.0
 11
24.77601088896527
 21
94.41189210974995
 31
0.0
  0
CIRCLE
  5
1FD0
330
1F8F
100
AcDbEntity
  8
1
100
AcDbCircle
 10
24.77601088896527
 20
97.78689210974995
 30
0.0
 40
2.25
  0
LINE
  5
1FD1
330
1F8F
100
AcDbEntity
  8
7
  6
GEN7A
100
AcDbLine
 10
21.40101088896527
 20
97.78689210974995
 30
0.0
 11
28.15101188896527
 21
97.78689210974995
 31
0.0
  0
LINE
  5
1FD2
330
1F8F
100
AcDbEntity
  8
1
100
AcDbLine
 10
27.77601188896527
 20
106.6240661097499
 30
0.0
 11
27.77601188896527
 21
107.7868961097499
 31
0.0
  0
LINE
  5
1FD3
330
1F8F
100
AcDbEntity
  8
1
100
AcDbLine
 10
24.8831657837706
 20
107.7868961097499
 30
0.0
 11
27.77601188896527
 21
107.7868961097499
 31
0.0
  0
LINE
  5
1FD4
330
1F8F
100
AcDbEntity
  8
1
100
AcDbLine
 10
30.77601188896527
 20
106.6285901097499
 30
0.0
 11
30.77601188896527
 21
111.4973549013445
 31
0.0
  0
LINE
  5
1FD5
330
1F8F
100
AcDbEntity
  8
1
100
AcDbLine
 10
37.27601788896527
 20
108.8868981097499
 30
0.0
 11
45.27602488896527
 21
108.8868981097499
 31
0.0
  0
ARC
  5
1FD6
330
1F8F
100
AcDbEntity
  8
1
100
AcDbCircle
 10
41.27601388896527
 20
88.28689210974994
 30
0.0
 40
24.593996
100
AcDbArc
 50
80.63976300000007
 51
99.36022900000008
  0
ARC
  5
1FD7
330
1F8F
100
AcDbEntity
  8
1
100
AcDbCircle
 10
41.27601388896527
 20
88.28689210974994
 30
0.0
 40
25.279997
100
AcDbArc
 50
80.89595000000013
 51
99.10404199999987
  0
ARC
  5
1FD8
330
1F8F
100
AcDbEntity
  8
1
100
AcDbCircle
 10
41.27601388896527
 20
88.28689210974994
 30
0.0
 40
25.475
100
AcDbArc
 50
99.03376921220713
 51
114.3411529223486
  0
LINE
  5
1FD9
330
1F8F
100
AcDbEntity
  8
1
100
AcDbLine
 10
37.27601788896527
 20
108.9118961097499
 30
0.0
 11
37.27601688335094
 21
113.4458994223423
 31
0.0
  0
LINE
  5
1FDA
330
1F8F
100
AcDbEntity
  8
1
100
AcDbLine
 10
45.27601588896527
 20
108.9118921097499
 30
0.0
 11
45.27601488335108
 21
113.4458987881725
 31
0.0
  0
LINE
  5
1FDB
330
1F8F
100
AcDbEntity
  8
7
  6
GEN7A
100
AcDbLine
 10
60.27599988896527
 20
18.70711210974993
 30
0.0
 11
60.27599988896527
 21
30.66342010974993
 31
0.0
  0
LINE
  5
1FDC
330
1F8F
100
AcDbEntity
  8
2A
100
AcDbLine
 10
67.77603188896527
 20
16.28689610974993
 30
0.0
 11
67.77602988896527
 21
23.28689610974993
 31
0.0
  0
LINE
  5
1FDD
330
1F8F
100
AcDbEntity
  8
1
100
AcDbLine
 10
66.77601888896527
 20
21.28689610974993
 30
0.0
 11
66.77601888896527
 21
23.28689610974993
 31
0.0
  0
INSERT
  5
1FDE
330
1F8F
100
AcDbEntity
  8
2
100
AcDbBlockReference
  2
BLK22
 10
41.27601688896527
 20
48.28689610974993
 30
0.0
  0
LINE
  5
1FDF
330
1F8F
100
AcDbEntity
  8
1
100
AcDbLine
 10
66.77601888896527
 20
21.28689610974993
 30
0.0
 11
57.77601888896526
 21
21.28689610974993
 31
0.0
  0
ARC
  5
1FE0
330
1F8F
100
AcDbEntity
  8
1
100
AcDbCircle
 10
52.74048488896527
 20
19.78689610974993
 30
0.0
 40
2.5
100
AcDbArc
 50
270.0
 51
315.0000149999999
  0
LINE
  5
1FE1
330
1F8F
100
AcDbEntity
  8
1
100
AcDbLine
 10
57.77601888896526
 20
21.28689610974993
 30
0.0
 11
54.50825188896527
 21
18.01912910974993
 31
0.0
  0
ARC
  5
1FE2
330
1F8F
100
AcDbEntity
  8
2A
100
AcDbCircle
 10
66.77603188896528
 20
16.28689610974993
 30
0.0
 40
1.0
100
AcDbArc
 50
270.0
 51
0.0
  0
LINE
  5
1FE3
330
1F8F
100
AcDbEntity
  8
1
100
AcDbLine
 10
63.07599888896527
 20
23.28689610974993
 30
0.0
 11
50.52601888896528
 21
23.28689610974993
 31
0.0
  0
LINE
  5
1FE4
330
1F8F
100
AcDbEntity
  8
1
100
AcDbLine
 10
50.52601888896528
 20
23.28689610974993
 30
0.0
 11
50.52601888896528
 21
25.53689610974994
 31
0.0
  0
ARC
  5
1FE5
330
1F8F
100
AcDbEntity
  8
1
100
AcDbCircle
 10
50.02601888896528
 20
25.53689610974994
 30
0.0
 40
0.5
100
AcDbArc
 50
0.0002189999999759
 51
90.0
  0
LINE
  5
1FE6
330
1F8F
100
AcDbEntity
  8
1
100
AcDbLine
 10
66.77601888896527
 20
23.28689610974993
 30
0.0
 11
63.07599888896527
 21
23.28689610974993
 31
0.0
  0
LINE
  5
1FE7
330
1F8F
100
AcDbEntity
  8
2A
100
AcDbLine
 10
67.77602988896527
 20
23.28689610974993
 30
0.0
 11
66.77601888896527
 21
23.28689610974993
 31
0.0
  0
ARC
  5
1FE8
330
1F8F
100
AcDbEntity
  8
1
100
AcDbCircle
 10
41.27601388896527
 20
88.28689210974994
 30
0.0
 40
25.475
100
AcDbArc
 50
339.0465447439717
 51
49.94762020717669
  0
LINE
  5
1FE9
330
1F8F
100
AcDbEntity
  8
7
  6
GEN7A
100
AcDbLine
 10
60.27601488896528
 20
93.53689210974994
 30
0.0
 11
60.27601488896528
 21
83.03689210974994
 31
0.0
  0
CIRCLE
  5
1FEA
330
1F8F
100
AcDbEntity
  8
1
100
AcDbCircle
 10
60.27601488896528
 20
88.28689210974994
 30
0.0
 40
3.5
  0
INSERT
  5
1FEB
330
1F8F
100
AcDbEntity
  8
5
 62
     3
100
AcDbBlockReference
  2
BLK20
 10
41.27601688896527
 20
48.28689610974993
 30
0.0
  0
LINE
  5
1FEC
330
1F8F
100
AcDbEntity
  8
7
  6
GEN7A
100
AcDbLine
 10
60.27601488896528
 20
91.13689110974993
 30
0.0
 11
60.27601488896528
 21
85.43689410974993
 31
0.0
  0
ARC
  5
1FED
330
1F8F
100
AcDbEntity
  8
1
100
AcDbCircle
 10
41.27601388896527
 20
88.28689210974994
 30
0.0
 40
24.593996
100
AcDbArc
 50
320.6397549999997
 51
339.3602260000002
  0
ARC
  5
1FEE
330
1F8F
100
AcDbEntity
  8
1
100
AcDbCircle
 10
41.27601388896527
 20
88.28689210974994
 30
0.0
 40
25.279997
100
AcDbArc
 50
320.8959469999998
 51
339.1040340000001
  0
LINE
  5
1FEF
330
1F8F
100
AcDbEntity
  8
1
100
AcDbLine
 10
57.13778588896527
 20
74.51028710974992
 30
0.0
 11
61.06435059823765
 21
72.24328418383554
 31
0.0
  0
ARC
  5
1FF0
330
1F8F
100
AcDbEntity
  8
1
100
AcDbCircle
 10
41.27601388896527
 20
88.28689210974994
 30
0.0
 40
25.475
100
AcDbArc
 50
310.0523867831612
 51
320.9662155934528
  0
LINE
  5
1FF1
330
1F8F
100
AcDbEntity
  8
1
100
AcDbLine
 10
51.77601488896527
 20
69.99946810974993
 30
0.0
 11
51.77601488896527
 21
65.07642886577312
 31
0.0
  0
ARC
  5
1FF2
330
1F8F
100
AcDbEntity
  8
1
100
AcDbCircle
 10
53.27601488896527
 20
69.93689010974993
 30
0.0
 40
1.5
100
AcDbArc
 50
0.0
 51
180.000076
  0
LINE
  5
1FF3
330
1F8F
100
AcDbEntity
  8
1
100
AcDbLine
 10
54.77601488896527
 20
68.78689010974993
 30
0.0
 11
54.77601488896527
 21
69.93689010974993
 31
0.0
  0
LINE
  5
1FF4
330
1F8F
100
AcDbEntity
  8
1
100
AcDbLine
 10
54.77598488896528
 20
68.78689010974993
 30
0.0
 11
57.6688643732464
 21
68.78689010974993
 31
0.0
  0
LINE
  5
1FF5
330
1F8F
100
AcDbEntity
  8
1
100
AcDbLine
 10
61.11613388896527
 20
81.45098510974992
 30
0.0
 11
57.11614088896528
 21
74.52278410974994
 31
0.0
  0
LINE
  5
1FF6
330
1F8F
100
AcDbEntity
  8
7
  6
GEN7A
100
AcDbLine
 10
55.02601488896527
 20
88.28689210974994
 30
0.0
 11
65.52601688896527
 21
88.28689210974994
 31
0.0
  0
ARC
  5
1FF7
330
1F8F
100
AcDbEntity
  8
RAHM5
 62
     7
100
AcDbCircle
 10
60.27601488896528
 20
88.28689210974994
 30
0.0
 40
2.0
100
AcDbArc
 50
0.0
 51
270.0
  0
LINE
  5
1FF8
330
1F8F
100
AcDbEntity
  8
7
  6
GEN7A
100
AcDbLine
 10
55.81593888896527
 20
88.28689210974994
 30
0.0
 11
63.12601688896528
 21
88.28689210974994
 31
0.0
  0
LINE
  5
1FF9
330
1F8F
100
AcDbEntity
  8
1
100
AcDbLine
 10
61.13778588896527
 20
81.43848810974992
 30
0.0
 11
65.04243188896527
 21
79.18413910974994
 31
0.0
  0
CIRCLE
  5
1FFA
330
1F8F
100
AcDbEntity
  8
1
100
AcDbCircle
 10
60.27601488896528
 20
88.28689210974994
 30
0.0
 40
1.299998999999999
  0
LINE
  5
1FFB
330
1F8F
100
AcDbEntity
  8
1
100
AcDbLine
 10
51.77601488896527
 20
106.6368941097499
 30
0.0
 11
51.77601488896527
 21
111.4973553537267
 31
0.0
  0
CIRCLE
  5
1FFC
330
1F8F
100
AcDbEntity
  8
1
100
AcDbCircle
 10
57.77601488896528
 20
97.78689210974995
 30
0.0
 40
2.25
  0
LINE
  5
1FFD
330
1F8F
100
AcDbEntity
  8
7
  6
GEN7A
100
AcDbLine
 10
54.40101488896527
 20
97.78689210974995
 30
0.0
 11
61.15101488896527
 21
97.78689210974995
 31
0.0
  0
CIRCLE
  5
1FFE
330
1F8F
100
AcDbEntity
  8
1
100
AcDbCircle
 10
57.77601488896528
 20
97.78689210974995
 30
0.0
 40
2.25
  0
LINE
  5
1FFF
330
1F8F
100
AcDbEntity
  8
7
  6
GEN7A
100
AcDbLine
 10
57.77601488896528
 20
101.1618921097499
 30
0.0
 11
57.77601488896528
 21
94.41189210974995
 31
0.0
  0
ARC
  5
2000
330
1F8F
100
AcDbEntity
  8
1
100
AcDbCircle
 10
53.27601488896527
 20
106.6368941097499
 30
0.0
 40
1.5
100
AcDbArc
 50
180.0001460000001
 51
359.9998469999998
  0
LINE
  5
2001
330
1F8F
100
AcDbEntity
  8
1
100
AcDbLine
 10
54.77601488896527
 20
107.7868961097499
 30
0.0
 11
57.66886199415994
 21
107.7868961097499
 31
0.0
  0
LINE
  5
2002
330
1F8F
100
AcDbEntity
  8
1
100
AcDbLine
 10
54.77601488896527
 20
106.6374591097499
 30
0.0
 11
54.77601488896527
 21
107.7868961097499
 31
0.0
  0
TEXT
  5
2003
330
1F8F
100
AcDbEntity
  8
6
  6
Continuous
 62
     2
100
AcDbText
 10
76.47744788896527
 20
96.60796010974994
 30
0.0
 40
3.5
  1
M4
 41
0.9088119999999999
  7
EUCLID03
100
AcDbText
  0
ENDBLK
  5
2005
330
1F8F
100
AcDbEntity
  8
0
100
AcDbBlockEnd
  0
BLOCK
  5
2571
330
256B
100
AcDbEntity
  8
0
100
AcDbBlockBegin
  2
A$C4F6E13F8
 70
     0
 10
0.0
 20
0.0
 30
0.0
  3
A$C4F6E13F8
  1

  0
LINE
  5
256C
330
256B
100
AcDbEntity
  8
AM_1
100
AcDbLine
 10
10.81665393831802
 20
-0.0000000561695117
 30
0.0
 11
0.0000001119260595
 21
-0.0000000561694549
 31
0.0
  0
LINE
  5
256D
330
256B
100
AcDbEntity
  8
AM_1
100
AcDbLine
 10
10.81665393831803
 20
1.999999943830488
 30
0.0
 11
0.0000001119260666
 21
1.999999943830545
 31
0.0
  0
LINE
  5
256E
330
256B
100
AcDbEntity
  8
AM_1
100
AcDbLine
 10
60.72869173669828
 20
1.999999943830516
 30
0.0
 11
62.22869173669828
 21
1.999999943830488
 31
0.0
  0
LINE
  5
256F
330
256B
100
AcDbEntity
  8
AM_1
100
AcDbLine
 10
60.72869173669828
 20
-0.0000000561695117
 30
0.0
 11
62.22869173669829
 21
-0.0000000561695117
 31
0.0
  0
LINE
  5
2570
330
256B
100
AcDbEntity
  8
1
100
AcDbLine
 10
60.72869173669828
 20
-0.0000000561695117
 30
0.0
 11
60.72869173669828
 21
1.999999943830516
 31
0.0
  0
ENDBLK
  5
2572
330
256B
100
AcDbEntity
  8
0
100
AcDbBlockEnd
  0
BLOCK
  5
2705
330
2704
100
AcDbEntity
  8
0
100
AcDbBlockBegin
  2
*D22
 70
     1
 10
0.0
 20
0.0
 30
0.0
  3
*D22
  1

  0
LINE
  5
2834
330
2704
100
AcDbEntity
  8
AM_5
100
AcDbLine
 10
43.2339419884554
 20
245.2531795827987
 30
0.0
 11
75.9224598900518
 21
245.2531795827987
 31
0.0
  0
LINE
  5
2835
330
2704
100
AcDbEntity
  8
AM_5
100
AcDbLine
 10
43.23394198845541
 20
192.2531795827987
 30
0.0
 11
75.92245989005178
 21
192.2531795827986
 31
0.0
  0
LINE
  5
2836
330
2704
100
AcDbEntity
  8
AM_5
100
AcDbLine
 10
73.92245989005179
 20
198.2531795827986
 30
0.0
 11
73.92245989005179
 21
239.2531795827987
 31
0.0
  0
LINE
  5
2837
330
2704
100
AcDbEntity
  8
AM_5
100
AcDbLine
 10
73.92245989005179
 20
245.2531795827987
 30
0.0
 11
73.92245989005179
 21
271.5431290764599
 31
0.0
  0
SOLID
  5
2838
330
2704
100
AcDbEntity
  8
AM_5
100
AcDbTrace
 10
72.92245989005178
 20
198.2531795827986
 30
0.0
 11
74.92245989005178
 21
198.2531795827986
 31
0.0
 12
73.92245989005179
 22
192.2531795827986
 32
0.0
 13
73.92245989005179
 23
192.2531795827986
 33
0.0
  0
SOLID
  5
2839
330
2704
100
AcDbEntity
  8
AM_5
100
AcDbTrace
 10
72.9224598900518
 20
239.2531795827987
 30
0.0
 11
74.9224598900518
 21
239.2531795827987
 31
0.0
 12
73.92245989005179
 22
245.2531795827987
 32
0.0
 13
73.92245989005179
 23
245.2531795827987
 33
0.0
  0
MTEXT
  5
283A
330
2704
100
AcDbEntity
  8
AM_5
 62
     2
100
AcDbMText
 10
67.42245989005176
 20
261.3981543296293
 30
0.0
 40
7.0
 41
0.0
 46
0.0
 71
     5
 72
     1
  1
%%c53
 11
0.0000000000000001
 21
1.0
 31
0.0
 73
     1
 44
1.0
  0
POINT
  5
283B
330
2704
100
AcDbEntity
  8
Defpoints
 62
     0
100
AcDbPoint
 10
43.2339419884554
 20
245.2531795827987
 30
0.0
  0
POINT
  5
283C
330
2704
100
AcDbEntity
  8
Defpoints
 62
     0
100
AcDbPoint
 10
43.23394198845541
 20
192.2531795827987
 30
0.0
  0
POINT
  5
283D
330
2704
100
AcDbEntity
  8
Defpoints
 62
     0
100
AcDbPoint
 10
73.92245989005179
 20
192.2531795827986
 30
0.0
  0
ENDBLK
  5
2706
330
2704
100
AcDbEntity
  8
0
100
AcDbBlockEnd
  0
BLOCK
  5
2737
330
2736
100
AcDbEntity
  8
0
100
AcDbBlockBegin
  2
*D23
 70
     1
 10
0.0
 20
0.0
 30
0.0
  3
*D23
  1

  0
LINE
  5
27BD
330
2736
100
AcDbEntity
  8
AM_5
100
AcDbLine
 10
118.2339419884554
 20
208.7531795827987
 30
0.0
 11
118.2339419884554
 21
146.2531795827987
 31
0.0
  0
LINE
  5
27BE
330
2736
100
AcDbEntity
  8
AM_5
100
AcDbLine
 10
43.23394198845541
 20
192.2531795827987
 30
0.0
 11
43.23394198845541
 21
146.2531795827987
 31
0.0
  0
LINE
  5
27BF
330
2736
100
AcDbEntity
  8
AM_5
100
AcDbLine
 10
112.2339419884554
 20
148.2531795827987
 30
0.0
 11
49.23394198845541
 21
148.2531795827987
 31
0.0
  0
SOLID
  5
27C0
330
2736
100
AcDbEntity
  8
AM_5
100
AcDbTrace
 10
112.2339419884554
 20
149.2531795827987
 30
0.0
 11
112.2339419884554
 21
147.2531795827987
 31
0.0
 12
118.2339419884554
 22
148.2531795827987
 32
0.0
 13
118.2339419884554
 23
148.2531795827987
 33
0.0
  0
SOLID
  5
27C1
330
2736
100
AcDbEntity
  8
AM_5
100
AcDbTrace
 10
49.23394198845541
 20
149.2531795827987
 30
0.0
 11
49.23394198845541
 21
147.2531795827987
 31
0.0
 12
43.23394198845541
 22
148.2531795827987
 32
0.0
 13
43.23394198845541
 23
148.2531795827987
 33
0.0
  0
MTEXT
  5
27C2
330
2736
100
AcDbEntity
  8
AM_5
 62
     2
100
AcDbMText
 10
80.73394198845543
 20
154.7531795827987
 30
0.0
 40
7.0
 41
0.0
 46
0.0
 71
     5
 72
     1
  1
75/90
 73
     1
 44
1.0
  0
POINT
  5
27C3
330
2736
100
AcDbEntity
  8
Defpoints
 62
     0
100
AcDbPoint
 10
118.2339419884554
 20
208.7531795827987
 30
0.0
  0
POINT
  5
27C4
330
2736
100
AcDbEntity
  8
Defpoints
 62
     0
100
AcDbPoint
 10
43.23394198845541
 20
192.2531795827987
 30
0.0
  0
POINT
  5
27C5
330
2736
100
AcDbEntity
  8
Defpoints
 62
     0
100
AcDbPoint
 10
43.23394198845541
 20
148.2531795827987
 30
0.0
  0
ENDBLK
  5
2738
330
2736
100
AcDbEntity
  8
0
100
AcDbBlockEnd
  0
BLOCK
  5
2768
330
2767
100
AcDbEntity
  8
0
100
AcDbBlockBegin
  2
*D24
 70
     1
 10
0.0
 20
0.0
 30
0.0
  3
*D24
  1

  0
LINE
  5
278E
330
2767
100
AcDbEntity
  8
AM_5
100
AcDbLine
 10
118.2339419884554
 20
228.7531795827987
 30
0.0
 11
144.2339419884554
 21
228.7531795827987
 31
0.0
  0
LINE
  5
278F
330
2767
100
AcDbEntity
  8
AM_5
100
AcDbLine
 10
118.2339419884554
 20
208.7531795827987
 30
0.0
 11
144.2339419884554
 21
208.7531795827987
 31
0.0
  0
LINE
  5
2790
330
2767
100
AcDbEntity
  8
AM_5
100
AcDbLine
 10
142.2339419884554
 20
222.7531795827987
 30
0.0
 11
142.2339419884554
 21
214.7531795827987
 31
0.0
  0
LINE
  5
2791
330
2767
100
AcDbEntity
  8
AM_5
100
AcDbLine
 10
142.2339419884554
 20
208.7531795827987
 30
0.0
 11
142.2339419884554
 21
182.7476677717751
 31
0.0
  0
SOLID
  5
2792
330
2767
100
AcDbEntity
  8
AM_5
100
AcDbTrace
 10
141.2339419884554
 20
222.7531795827987
 30
0.0
 11
143.2339419884554
 21
222.7531795827987
 31
0.0
 12
142.2339419884554
 22
228.7531795827987
 32
0.0
 13
142.2339419884554
 23
228.7531795827987
 33
0.0
  0
SOLID
  5
2793
330
2767
100
AcDbEntity
  8
AM_5
100
AcDbTrace
 10
141.2339419884554
 20
214.7531795827987
 30
0.0
 11
143.2339419884554
 21
214.7531795827987
 31
0.0
 12
142.2339419884554
 22
208.7531795827987
 32
0.0
 13
142.2339419884554
 23
208.7531795827987
 33
0.0
  0
MTEXT
  5
2794
330
2767
100
AcDbEntity
  8
AM_5
 62
     2
100
AcDbMText
 10
135.7332530120774
 20
192.7504236772869
 30
0.0
 40
7.0
 41
0.0
 46
0.0
 71
     5
 72
     1
  1
%%c20
 11
0.0000000000000001
 21
1.0
 31
0.0
 73
     1
 44
1.0
  0
POINT
  5
2795
330
2767
100
AcDbEntity
  8
Defpoints
 62
     0
100
AcDbPoint
 10
118.2339419884554
 20
228.7531795827987
 30
0.0
  0
POINT
  5
2796
330
2767
100
AcDbEntity
  8
Defpoints
 62
     0
100
AcDbPoint
 10
118.2339419884554
 20
208.7531795827987
 30
0.0
  0
POINT
  5
2797
330
2767
100
AcDbEntity
  8
Defpoints
 62
     0
100
AcDbPoint
 10
142.2339419884554
 20
208.7531795827987
 30
0.0
  0
ENDBLK
  5
2769
330
2767
100
AcDbEntity
  8
0
100
AcDbBlockEnd
  0
BLOCK
  5
279A
330
2799
100
AcDbEntity
  8
0
100
AcDbBlockBegin
  2
*D25
 70
     1
 10
0.0
 20
0.0
 30
0.0
  3
*D25
  1

  0
LINE
  5
27C6
330
2799
100
AcDbEntity
  8
AM_5
100
AcDbLine
 10
51.23394198845542
 20
193.2531795827987
 30
0.0
 11
51.23394198845542
 21
166.2531795827987
 31
0.0
  0
LINE
  5
27C7
330
2799
100
AcDbEntity
  8
AM_5
100
AcDbLine
 10
43.23394198845541
 20
192.2531795827987
 30
0.0
 11
43.23394198845541
 21
166.2531795827987
 31
0.0
  0
LINE
  5
27C8
330
2799
100
AcDbEntity
  8
AM_5
100
AcDbLine
 10
57.23394198845541
 20
168.2531795827987
 30
0.0
 11
63.23394198845541
 21
168.2531795827987
 31
0.0
  0
LINE
  5
27C9
330
2799
100
AcDbEntity
  8
AM_5
100
AcDbLine
 10
37.23394198845542
 20
168.2531795827987
 30
0.0
 11
22.43394198845541
 21
168.2531795827987
 31
0.0
  0
LINE
  5
27CA
330
2799
100
AcDbEntity
  8
AM_5
100
AcDbLine
 10
51.23394198845542
 20
168.2531795827987
 30
0.0
 11
43.23394198845541
 21
168.2531795827987
 31
0.0
  0
SOLID
  5
27CB
330
2799
100
AcDbEntity
  8
AM_5
100
AcDbTrace
 10
57.23394198845541
 20
169.2531795827987
 30
0.0
 11
57.23394198845541
 21
167.2531795827987
 31
0.0
 12
51.23394198845542
 22
168.2531795827987
 32
0.0
 13
51.23394198845542
 23
168.2531795827987
 33
0.0
  0
SOLID
  5
27CC
330
2799
100
AcDbEntity
  8
AM_5
100
AcDbTrace
 10
37.23394198845542
 20
169.2531795827987
 30
0.0
 11
37.23394198845542
 21
167.2531795827987
 31
0.0
 12
43.23394198845541
 22
168.2531795827987
 32
0.0
 13
43.23394198845541
 23
168.2531795827987
 33
0.0
  0
MTEXT
  5
27CD
330
2799
100
AcDbEntity
  8
AM_5
 62
     2
100
AcDbMText
 10
26.83394198845542
 20
174.7531795827987
 30
0.0
 40
7.0
 41
0.0
 46
0.0
 71
     5
 72
     1
  1
8
 73
     1
 44
1.0
  0
POINT
  5
27CE
330
2799
100
AcDbEntity
  8
Defpoints
 62
     0
100
AcDbPoint
 10
51.23394198845542
 20
193.2531795827987
 30
0.0
  0
POINT
  5
27CF
330
2799
100
AcDbEntity
  8
Defpoints
 62
     0
100
AcDbPoint
 10
43.23394198845541
 20
192.2531795827987
 30
0.0
  0
POINT
  5
27D0
330
2799
100
AcDbEntity
  8
Defpoints
 62
     0
100
AcDbPoint
 10
43.23394198845541
 20
168.2531795827987
 30
0.0
  0
ENDBLK
  5
279B
330
2799
100
AcDbEntity
  8
0
100
AcDbBlockEnd
  0
BLOCK
  5
2840
330
283F
100
AcDbEntity
  8
0
100
AcDbBlockBegin
  2
*D26
 70
     1
 10
0.0
 20
0.0
 30
0.0
  3
*D26
  1

  0
LINE
  5
285D
330
283F
100
AcDbEntity
  8
AM_5
100
AcDbLine
 10
3.982558963166979
 20
237.7531795827987
 30
0.0
 11
-6.721675207507471
 21
237.7531795827987
 31
0.0
  0
LINE
  5
285E
330
283F
100
AcDbEntity
  8
AM_5
100
AcDbLine
 10
3.982558963166979
 20
199.7531795827987
 30
0.0
 11
-6.721675207507477
 21
199.7531795827987
 31
0.0
  0
LINE
  5
285F
330
283F
100
AcDbEntity
  8
AM_5
100
AcDbLine
 10
-4.721675207507471
 20
231.7531795827987
 30
0.0
 11
-4.721675207507477
 21
205.7531795827987
 31
0.0
  0
SOLID
  5
2860
330
283F
100
AcDbEntity
  8
AM_5
100
AcDbTrace
 10
-5.721675207507471
 20
231.7531795827987
 30
0.0
 11
-3.721675207507471
 21
231.7531795827987
 31
0.0
 12
-4.72167520750747
 22
237.7531795827987
 32
0.0
 13
-4.72167520750747
 23
237.7531795827987
 33
0.0
  0
SOLID
  5
2861
330
283F
100
AcDbEntity
  8
AM_5
100
AcDbTrace
 10
-5.721675207507477
 20
205.7531795827987
 30
0.0
 11
-3.721675207507476
 21
205.7531795827987
 31
0.0
 12
-4.721675207507478
 22
199.7531795827987
 32
0.0
 13
-4.721675207507478
 23
199.7531795827987
 33
0.0
  0
MTEXT
  5
2862
330
283F
100
AcDbEntity
  8
AM_5
 62
     2
100
AcDbMText
 10
-11.22167520750751
 20
218.7531795827987
 30
0.0
 40
7.0
 41
0.0
 46
0.0
 71
     5
 72
     1
  1
38
 11
0.0000000000000001
 21
1.0
 31
0.0
 73
     1
 44
1.0
  0
POINT
  5
2863
330
283F
100
AcDbEntity
  8
Defpoints
 62
     0
100
AcDbPoint
 10
3.982558963166979
 20
237.7531795827987
 30
0.0
  0
POINT
  5
2864
330
283F
100
AcDbEntity
  8
Defpoints
 62
     0
100
AcDbPoint
 10
3.982558963166979
 20
199.7531795827987
 30
0.0
  0
POINT
  5
2865
330
283F
100
AcDbEntity
  8
Defpoints
 62
     0
100
AcDbPoint
 10
-4.721675207507478
 20
199.7531795827987
 30
0.0
  0
ENDBLK
  5
2841
330
283F
100
AcDbEntity
  8
0
100
AcDbBlockEnd
  0
ENDSEC
  0
SECTION
  2
ENTITIES
  0
INSERT
  5
3FB
330
1A
100
AcDbEntity
  8
ASHADE
 62
     1
100
AcDbBlockReference
  2
AVE_RENDER
 10
0.0
 20
0.0
 30
0.0
1001
AVE_RENDER
1002
{
1070
     7
1000
Pref
1070
    60
1070
    30
1070
     1
1070
     0
1000

1070
    10
1070
     1
1070
    10
1040
1.0
1070
     1
1040
0.3
1040
0.7
1040
0.0
1040
10.0
1010
-1.0
1020
-1.0
1030
-1.0
1040
0.3
1070
    49
1070
     1
1070
     0
1010
1.0
1020
1.0
1030
1.0
1040
45.0
1070
     1
1070
     0
1000
WCS
1040
0.0
1070
     1
1040
10.0
1002
}
  0
INSERT
  5
3FC
330
1A
100
AcDbEntity
  8
ASHADE
 62
     3
100
AcDbBlockReference
  2
AVE_RENDER
 10
0.0
 20
0.0
 30
0.0
1001
AVE_RENDER
1002
{
1070
     0
1000
Full Opt
1070
     0
1070
     1
1070
     1
1070
     1
1070
     0
1070
     0
1070
     0
1070
     1
1070
     1
1040
0.0001
1040
0.0001
1002
}
  0
INSERT
  5
3FD
330
1A
100
AcDbEntity
  8
ASHADE
 62
     4
100
AcDbBlockReference
  2
AVE_RENDER
 10
0.0
 20
0.0
 30
0.0
1001
AVE_RENDER
1002
{
1070
     0
1000
Quick Opt
1070
     0
1070
     1
1070
     1
1070
     1
1070
     0
1070
     0
1070
     1
1002
}
  0
INSERT
  5
3FE
330
1A
100
AcDbEntity
  8
ASHADE
 62
     5
100
AcDbBlockReference
  2
AVE_RENDER
 10
0.0
 20
0.0
 30
0.0
1001
AVE_RENDER
1002
{
1070
     1
1000
Scanl Opt
1070
     2
1070
     0
1070
     2
1040
2.0
1040
4.0
1070
     0
1070
     1
1070
     0
1040
0.03
1002
}
  0
INSERT
  5
3FF
330
1A
100
AcDbEntity
  8
ASHADE
 62
     6
100
AcDbBlockReference
  2
AVE_RENDER
 10
0.0
 20
0.0
 30
0.0
1001
AVE_RENDER
1002
{
1070
     2
1000
Raytr Opt
1070
     3
1070
     0
1070
     2
1040
2.0
1040
4.0
1070
     0
1070
     1
1070
     1
1040
0.03
1070
     3
1040
0.03
1002
}
  0
INSERT
  5
400
330
1A
100
AcDbEntity
  8
ASHADE
 62
     7
100
AcDbBlockReference
  2
AVE_RENDER
 10
0.0
 20
0.0
 30
0.0
1001
AVE_RENDER
1002
{
1070
     0
1000
RFile Opt
1070
     5
1070
  1600
1070
  1280
1070
 10000
1070
     1
1070
    32
1070
    32
1070
     0
1070
     0
1070
     0
1070
     0
1070
     0
1070
     0
1070
     0
1002
}
  0
INSERT
  5
401
330
1A
100
AcDbEntity
  8
ASHADE
 62
     8
100
AcDbBlockReference
  2
AVE_RENDER
 10
0.0
 20
0.0
 30
0.0
1001
AVE_RENDER
1002
{
1070
     0
1000
Fog Opt
1070
     0
1070
     0
1040
0.0
1040
1.0
1040
0.0
1040
1.0
1010
0.5
1020
0.5
1030
0.5
1002
}
  0
INSERT
  5
402
330
1A
100
AcDbEntity
  8
ASHADE
 62
     9
100
AcDbBlockReference
  2
AVE_RENDER
 10
0.0
 20
0.0
 30
0.0
1001
AVE_RENDER
1002
{
1070
     0
1000
BG Opt
1070
     0
1070
     0
1010
1.0
1020
1.0
1030
1.0
1010
1.0
1020
0.0
1030
0.0
1010
0.0
1020
1.0
1030
0.0
1010
0.0
1020
0.0
1030
1.0
1040
0.5
1040
0.33
1040
0.0
1000

1070
     1
1000

1070
     1
1070
     1
1040
1.0
1040
1.0
1040
0.0
1040
0.0
1070
     0
1002
}
  0
INSERT
  5
409
330
1A
100
AcDbEntity
  8
ASHADE
 62
     1
100
AcDbBlockReference
  2
AVE_GLOBAL
 10
0.0
 20
0.0
 30
0.0
1001
AVE_MATERIAL
1002
{
1000
*GLOBAL*
1000
2
1000
Globales Material.
1002
{
1002
}
1002
{
1070
    63
1002
{
1002
{
1010
-1.0
1020
-1.0
1030
-1.0
1002
}
1040
0.1000000014901161
1000

1040
0.0
1002
{
1002
}
1040
0.0
1002
{
1002
}
1040
0.0
1002
}
1002
{
1002
{
1010
-1.0
1020
-1.0
1030
-1.0
1002
}
1040
0.6999999880790711
1000

1040
0.0
1002
{
1002
}
1040
0.0
1002
{
1002
}
1040
0.0
1002
}
1002
{
1002
{
1010
-1.0
1020
-1.0
1030
-1.0
1002
}
1040
0.2000000029802322
1000

1040
0.0
1002
{
1002
}
1040
0.0
1002
{
1002
}
1040
0.0
1002
}
1002
{
1070
     0
1002
{
1070
     1
1002
{
1040
1.0
1040
1.0
1000

1040
0.0
1002
{
1002
}
1040
0.0
1002
{
1002
}
1040
0.0
1002
}
1002
}
1040
1.0
1040
0.0
1040
0.0
1002
}
1002
{
1040
1.0
1040
1.0
1000

1040
0.0
1002
{
1002
}
1040
0.0
1002
{
1002
}
1040
0.0
1002
}
1002
{
1040
0.5
1040
1.0
1000

1040
0.0
1002
{
1002
}
1040
0.0
1002
{
1002
}
1040
0.0
1002
}
1002
{
1070
     0
1040
0.0
1002
{
1002
}
1040
1.0
1002
{
1002
}
1040
0.0
1002
}
1002
{
1040
0.0
1002
{
1002
{
1010
0.0
1020
0.0
1030
0.0
1002
}
1040
1.0
1000

1040
0.0
1002
{
1002
}
1040
0.0
1002
{
1002
}
1040
0.0
1002
}
1002
}
1002
{
1002
{
1070
     1
1002
{
1040
0.0
1040
1.0
1000

1040
0.0
1002
{
1002
}
1040
0.0
1002
{
1002
}
1040
0.0
1002
}
1002
}
1040
0.0
1002
{
1002
}
1010
1.0
1020
0.0
1030
0.0
1010
0.0
1020
1.0
1030
0.0
1010
0.0
1020
0.0
1030
1.0
1070
     0
1002
}
1002
{
1002
{
1040
1.0
1040
1.0
1002
{
1070
     1
1002
{
1040
1.0
1040
1.0
1000

1040
0.0
1002
{
1002
}
1040
0.0
1002
{
1002
}
1040
0.0
1002
}
1002
}
1002
}
1070
     0
1040
0.0
1002
{
1002
}
1002
}
1002
{
1002
}
1002
}
1002
{
1071
        3
1070
     3
1070
     0
1002
{
1070
     2
1070
     0
1070
     0
1040
0.0
1002
}
1070
     0
1070
     2
1002
{
1002
}
1002
}
1002
{
1040
8030.0
1040
190.3000030517578
1040
0.3050000071525574
1040
228.0
1040
545.0
1040
14.0
1040
17.39999961853027
1040
0.4560000002384186
1002
}
1002
}
  0
POINT
  5
1677
330
1A
100
AcDbEntity
  8
0
 60
     1
100
AcDbPoint
 10
0.0
 20
0.0
 30
0.0
1001
GENIUS_GENODEF_13
1002
{
1000
HIER
1070
     1
1002
}
1002
{
1000
MANEDIT
1070
     0
1002
}
1002
{
1000
NOSEL
1070
     0
1002
}
1002
{
1000
BEHIND
1070
     0
1002
}
1002
{
1000
REACTOR
1002
}
1001
GENIUS_GENOBJ-N-SDF_13
1002
{
1000
OWNER
1000
GEN
1002
}
1001
GENIUS_GENOENT_13
1002
{
1000
MYREF
1005
1677
1002
}
1002
{
1000
GRP
1005
0
1002
}
1001
GENIUS_GENOLIS_13
1002
{
1000
ENT
1005
22
1002
}
  0
LWPOLYLINE
  5
1DC9
330
1A
100
AcDbEntity
  8
AM_VIEWS
100
AcDbPolyline
 90
        4
 70
     1
 43
0.0
 10
-19.12542991113861
 20
129.1184782868116
 10
214.8291690470114
 20
129.1184782868116
 10
214.8291690470114
 20
282.4079635196075
 10
-19.12542991113861
 20
282.4079635196075
1001
GENIUS_GENSCREG_15
1040
2.0
1040
1.0
1011
-19.12542991113861
1021
129.1184782868116
1031
0.0
1011
214.8291690470114
1021
282.4079635196075
1031
0.0
1070
     2
1001
GENIUS_GENOBJ-N-SDF_13
1002
{
1000
OWNER
1000
GEN
1002
}
1001
GENIUS_GENODEF_13
1002
{
1000
HIER
1070
     0
1002
}
1002
{
1000
MANEDIT
1070
     0
1002
}
1002
{
1000
NOSEL
1070
     0
1002
}
1002
{
1000
BEHIND
1070
     0
1002
}
1002
{
1000
OTHER
1070
     0
1002
}
1002
{
1000
REACTOR
1002
}
  0
LINE
  5
26F1
330
1A
100
AcDbEntity
  8
AM_7
100
AcDbLine
 10
121.2339419884554
 20
218.7531795827987
 30
0.0
 11
40.23394198845539
 21
218.7531795827987
 31
0.0
  0
ARC
  5
26F2
330
1A
100
AcDbEntity
  8
AM_VIS
100
AcDbCircle
 10
50.23394198845541
 20
244.2531795827987
 30
0.0
 40
1.0
100
AcDbArc
 50
0.0
 51
90.0
  0
ARC
  5
26F3
330
1A
100
AcDbEntity
  8
AM_VIS
100
AcDbCircle
 10
50.23394198845541
 20
193.2531795827987
 30
0.0
 40
1.0
100
AcDbArc
 50
270.0
 51
0.0
  0
LINE
  5
26F4
330
1A
100
AcDbEntity
  8
AM_VIS
100
AcDbLine
 10
51.23394198845542
 20
244.2531795827987
 30
0.0
 11
51.23394198845542
 21
193.2531795827987
 31
0.0
  0
LINE
  5
26F5
330
1A
100
AcDbEntity
  8
AM_VIS
100
AcDbLine
 10
43.2339419884554
 20
245.2531795827987
 30
0.0
 11
43.23394198845541
 21
192.2531795827987
 31
0.0
  0
LINE
  5
26F6
330
1A
100
AcDbEntity
  8
AM_VIS
100
AcDbLine
 10
50.23394198845541
 20
192.2531795827987
 30
0.0
 11
43.23394198845541
 21
192.2531795827987
 31
0.0
  0
LINE
  5
26F7
330
1A
100
AcDbEntity
  8
AM_VIS
100
AcDbLine
 10
50.23394198845541
 20
245.2531795827987
 30
0.0
 11
43.2339419884554
 21
245.2531795827987
 31
0.0
  0
LINE
  5
26F8
330
1A
100
AcDbEntity
  8
AM_VIS
100
AcDbLine
 10
118.2339419884554
 20
228.7531795827987
 30
0.0
 11
118.2339419884554
 21
208.7531795827987
 31
0.0
  0
LINE
  5
26F9
330
1A
100
AcDbEntity
  8
AM_VIS
100
AcDbLine
 10
98.23394198845543
 20
208.7531795827988
 30
0.0
 11
98.23394198845543
 21
228.7531795827987
 31
0.0
  0
LINE
  5
26FA
330
1A
100
AcDbEntity
  8
AM_VIS
100
AcDbLine
 10
98.23394198845543
 20
228.7531795827987
 30
0.0
 11
118.2339419884554
 21
228.7531795827987
 31
0.0
  0
LINE
  5
26FB
330
1A
100
AcDbEntity
  8
AM_VIS
100
AcDbLine
 10
98.23394198845543
 20
208.7531795827988
 30
0.0
 11
118.2339419884554
 21
208.7531795827988
 31
0.0
  0
LINE
  5
26FC
330
1A
100
AcDbEntity
  8
AM_VIS
100
AcDbLine
 10
98.23394198845541
 20
228.7531795827987
 30
0.0
 11
98.23394198845541
 21
208.7531795827987
 31
0.0
  0
LINE
  5
26FD
330
1A
100
AcDbEntity
  8
AM_VIS
100
AcDbLine
 10
51.23394198845542
 20
228.7531795827987
 30
0.0
 11
98.23394198845541
 21
228.7531795827987
 31
0.0
  0
LINE
  5
26FE
330
1A
100
AcDbEntity
  8
AM_VIS
100
AcDbLine
 10
51.23394198845542
 20
208.7531795827987
 30
0.0
 11
98.23394198845543
 21
208.7531795827988
 31
0.0
  0
MTEXT
  5
2700
330
1A
100
AcDbEntity
  8
AM_6
100
AcDbMText
 10
127.6109165369083
 20
163.3587235148031
 30
0.0
 40
7.0
 41
46.065267036568
 46
0.0
 71
     1
 72
     5
  1
5947 A
 73
     1
 44
1.0
1001
GENIUS_AMGTXT_16
1040
3.5
1040
0.12
  0
DIMENSION
  5
2703
330
1A
100
AcDbEntity
  8
AM_5
100
AcDbDimension
  2
*D22
 10
73.92245989005179
 20
192.2531795827986
 30
0.0
 11
73.92245989005175
 21
261.3981543296293
 31
0.0
 70
   160
  1
%%c<>
 71
     5
 42
53.0
 73
     0
 74
     0
 75
     0
  3
AM_ISO$0
100
AcDbAlignedDimension
 13
43.2339419884554
 23
245.2531795827987
 33
0.0
 14
43.23394198845541
 24
192.2531795827987
 34
0.0
 50
90.0
100
AcDbRotatedDimension
1001
ACAD
1000
DSTYLE
1002
{
1070
    40
1040
2.0
1002
}
1001
ACAD_DSTYLE_DIMINSPECT
1070
   396
1000
100%
1070
   395
1000

1070
   394
1070
    33
1070
   393
1070
     0
  0
DIMENSION
  5
2735
330
1A
100
AcDbEntity
  8
AM_5
100
AcDbDimension
  2
*D23
 10
43.23394198845541
 20
148.2531795827987
 30
0.0
 11
80.73394198845543
 21
154.7531795827987
 31
0.0
 70
    32
  1
<>/90
 71
     5
 42
75.00000000000001
 73
     0
 74
     0
 75
     0
  3
AM_ISO$0
100
AcDbAlignedDimension
 13
118.2339419884554
 23
208.7531795827987
 33
0.0
 14
43.23394198845541
 24
192.2531795827987
 34
0.0
 50
0.0000000000001132
100
AcDbRotatedDimension
1001
ACAD
1000
DSTYLE
1002
{
1070
    40
1040
2.0
1002
}
1001
ACAD_DSTYLE_DIMINSPECT
1070
   396
1000
100%
1070
   395
1000

1070
   394
1070
    33
1070
   393
1070
     0
  0
DIMENSION
  5
2766
330
1A
100
AcDbEntity
  8
AM_5
100
AcDbDimension
  2
*D24
 10
142.2339419884554
 20
208.7531795827987
 30
0.0
 11
135.7332530120774
 21
192.7504236772869
 31
0.0
 70
    32
  1
%%c<>
 71
     5
 42
20.0
 73
     0
 74
     0
 75
     0
  3
AM_ISO$0
100
AcDbAlignedDimension
 13
118.2339419884554
 23
228.7531795827987
 33
0.0
 14
118.2339419884554
 24
208.7531795827987
 34
0.0
 50
90.0
100
AcDbRotatedDimension
1001
ACAD
1000
DSTYLE
1002
{
1070
    40
1040
2.0
1002
}
1001
ACAD_DSTYLE_DIMINSPECT
1070
   396
1000
100%
1070
   395
1000

1070
   394
1070
    33
1070
   393
1070
     0
  0
DIMENSION
  5
2798
330
1A
100
AcDbEntity
  8
AM_5
100
AcDbDimension
  2
*D25
 10
43.23394198845541
 20
168.2531795827987
 30
0.0
 11
26.83394198845542
 21
174.7531795827987
 31
0.0
 70
    32
 71
     5
 42
8.0
 73
     0
 74
     0
 75
     0
  3
AM_ISO$0
100
AcDbAlignedDimension
 13
51.23394198845542
 23
193.2531795827987
 33
0.0
 14
43.23394198845541
 24
192.2531795827987
 34
0.0
 50
0.0000000000001132
100
AcDbRotatedDimension
1001
ACAD
1000
DSTYLE
1002
{
1070
    40
1040
2.0
1002
}
1001
ACAD_DSTYLE_DIMINSPECT
1070
   396
1000
100%
1070
   395
1000

1070
   394
1070
    33
1070
   393
1070
     0
  0
LINE
  5
27FE
330
1A
100
AcDbEntity
  8
AM_7
100
AcDbLine
 10
54.93259876031686
 20
237.7531795827987
 30
0.0
 11
3.982558963166979
 21
237.7531795827987
 31
0.0
  0
LINE
  5
2800
330
1A
100
AcDbEntity
  8
AM_VIS
100
AcDbLine
 10
43.2339419884554
 20
240.2531795827987
 30
0.0
 11
28.2339419884554
 21
240.2531795827987
 31
0.0
  0
LINE
  5
2801
330
1A
100
AcDbEntity
  8
AM_VIS
100
AcDbLine
 10
43.2339419884554
 20
235.2531795827986
 30
0.0
 11
28.23394198845541
 21
235.2531795827987
 31
0.0
  0
LINE
  5
2802
330
1A
100
AcDbEntity
  8
AM_VIS
100
AcDbLine
 10
8.233941988455397
 20
239.2531795827987
 30
0.0
 11
8.233941988455402
 21
236.2531795827987
 31
0.0
  0
LINE
  5
2817
330
1A
100
AcDbEntity
  8
AM_VIS
100
AcDbLine
 10
28.2339419884554
 20
240.2531795827987
 30
0.0
 11
8.233941988455397
 21
239.2531795827987
 31
0.0
1001
GENIUS_GENFIL_13
1070
     0
1040
20.0
1040
1.0
1040
20.0
1040
0.0
1002
{
1002
}
1001
GENIUS_GENOBJ-N-CHA_13
1002
{
1000
OWNER
1000
GEN
1002
}
1001
GENIUS_GENODEF_13
1002
{
1000
HIER
1070
     0
1002
}
1002
{
1000
MANEDIT
1070
     0
1002
}
1002
{
1000
NOSEL
1070
     0
1002
}
1002
{
1000
BEHIND
1070
     0
1002
}
1002
{
1000
OTHER
1070
     0
1002
}
1002
{
1000
REACTOR
1002
}
  0
LINE
  5
281A
330
1A
100
AcDbEntity
  8
AM_VIS
100
AcDbLine
 10
28.23394198845541
 20
235.2531795827987
 30
0.0
 11
8.233941988455402
 21
236.2531795827987
 31
0.0
1001
GENIUS_GENFIL_13
1070
     0
1040
20.0
1040
1.0
1040
20.0
1040
0.0
1002
{
1002
}
1001
GENIUS_GENOBJ-N-CHA_13
1002
{
1000
OWNER
1000
GEN
1002
}
1001
GENIUS_GENODEF_13
1002
{
1000
HIER
1070
     0
1002
}
1002
{
1000
MANEDIT
1070
     0
1002
}
1002
{
1000
NOSEL
1070
     0
1002
}
1002
{
1000
BEHIND
1070
     0
1002
}
1002
{
1000
OTHER
1070
     0
1002
}
1002
{
1000
REACTOR
1002
}
  0
LINE
  5
281D
330
1A
100
AcDbEntity
  8
AM_7
100
AcDbLine
 10
54.93259876031686
 20
199.7531795827987
 30
0.0
 11
3.982558963166979
 21
199.7531795827987
 31
0.0
  0
DIMENSION
  5
283E
330
1A
100
AcDbEntity
  8
AM_5
100
AcDbDimension
  2
*D26
 10
-4.721675207507478
 20
199.7531795827987
 30
0.0
 11
-11.22167520750751
 21
218.7531795827987
 31
0.0
 70
    32
 71
     5
 42
38.0
 73
     0
 74
     0
 75
     0
  3
AM_ISO$0
100
AcDbAlignedDimension
 13
3.982558963166979
 23
237.7531795827987
 33
0.0
 14
3.982558963166979
 24
199.7531795827987
 34
0.0
 50
90.00000000000003
100
AcDbRotatedDimension
1001
ACAD
1000
DSTYLE
1002
{
1070
    40
1040
2.0
1002
}
1001
ACAD_DSTYLE_DIMINSPECT
1070
   396
1000
100%
1070
   395
1000

1070
   394
1070
    33
1070
   393
1070
     0
  0
LINE
  5
2867
330
1A
100
AcDbEntity
  8
AM_8
100
AcDbLine
 10
43.2339419884554
 20
240.2531795827987
 30
0.0
 11
41.24003811159985
 21
235.2531795827986
 31
0.0
  0
LINE
  5
2868
330
1A
100
AcDbEntity
  8
AM_8
100
AcDbLine
 10
37.23394198845541
 20
240.2531795827987
 30
0.0
 11
35.24003811159985
 21
235.2531795827987
 31
0.0
  0
LINE
  5
2869
330
1A
100
AcDbEntity
  8
AM_8
100
AcDbLine
 10
40.2339419884554
 20
240.2531795827987
 30
0.0
 11
38.24003811159985
 21
235.2531795827986
 31
0.0
  0
LINE
  5
286A
330
1A
100
AcDbEntity
  8
AM_8
100
AcDbLine
 10
34.23394198845541
 20
240.2531795827987
 30
0.0
 11
32.24003811159986
 21
235.2531795827987
 31
0.0
  0
LINE
  5
286B
330
1A
100
AcDbEntity
  8
AM_8
100
AcDbLine
 10
28.23394198845541
 20
240.2531795827987
 30
0.0
 11
26.27262705697988
 21
235.3512453293725
 31
0.0
  0
LINE
  5
286C
330
1A
100
AcDbEntity
  8
AM_8
100
AcDbLine
 10
31.23394198845541
 20
240.2531795827987
 30
0.0
 11
29.24003811159986
 21
235.2531795827987
 31
0.0
  0
LINE
  5
286D
330
1A
100
AcDbEntity
  8
AM_8
100
AcDbLine
 10
25.18325213575216
 20
240.1006450901635
 30
0.0
 11
23.32165993026677
 21
235.4987936857081
 31
0.0
  0
LINE
  5
286E
330
1A
100
AcDbEntity
  8
AM_8
100
AcDbLine
 10
19.08187243034568
 20
239.7955761048932
 30
0.0
 11
17.41972567684055
 21
235.7938903983794
 31
0.0
  0
LINE
  5
286F
330
1A
100
AcDbEntity
  8
AM_8
100
AcDbLine
 10
22.13256228304893
 20
239.9481105975283
 30
0.0
 11
20.37069280355366
 21
235.6463420420438
 31
0.0
  0
LINE
  5
2870
330
1A
100
AcDbEntity
  8
AM_8
100
AcDbLine
 10
16.03118257764242
 20
239.643041612258
 30
0.0
 11
14.46875855012743
 21
235.9414387547151
 31
0.0
  0
LINE
  5
2871
330
1A
100
AcDbEntity
  8
AM_8
100
AcDbLine
 10
9.929802872235958
 20
239.3379726269877
 30
0.0
 11
8.566824296701215
 21
236.2365354673864
 31
0.0
  0
LINE
  5
2872
330
1A
100
AcDbEntity
  8
AM_8
100
AcDbLine
 10
12.98049272493917
 20
239.4905071196228
 30
0.0
 11
11.51779142341431
 21
236.0889871110507
 31
0.0
  0
LINE
  5
2874
330
1A
100
AcDbEntity
  8
AM_VIS
100
AcDbLine
 10
8.233941988455397
 20
201.2531795827987
 30
0.0
 11
8.233941988455402
 21
198.2531795827987
 31
0.0
  0
LINE
  5
2875
330
1A
100
AcDbEntity
  8
AM_VIS
100
AcDbLine
 10
28.23394198845541
 20
197.2531795827987
 30
0.0
 11
8.233941988455402
 21
198.2531795827987
 31
0.0
1001
GENIUS_GENFIL_13
1070
     0
1040
20.0
1040
1.0
1040
20.0
1040
0.0
1002
{
1002
}
1001
GENIUS_GENOBJ-N-CHA_13
1002
{
1000
OWNER
1000
GEN
1002
}
1001
GENIUS_GENODEF_13
1002
{
1000
HIER
1070
     0
1002
}
1002
{
1000
MANEDIT
1070
     0
1002
}
1002
{
1000
NOSEL
1070
     0
1002
}
1002
{
1000
BEHIND
1070
     0
1002
}
1002
{
1000
OTHER
1070
     0
1002
}
1002
{
1000
REACTOR
1002
}
  0
LINE
  5
2876
330
1A
100
AcDbEntity
  8
AM_VIS
100
AcDbLine
 10
28.2339419884554
 20
202.2531795827987
 30
0.0
 11
8.233941988455397
 21
201.2531795827987
 31
0.0
1001
GENIUS_GENFIL_13
1070
     0
1040
20.0
1040
1.0
1040
20.0
1040
0.0
1002
{
1002
}
1001
GENIUS_GENOBJ-N-CHA_13
1002
{
1000
OWNER
1000
GEN
1002
}
1001
GENIUS_GENODEF_13
1002
{
1000
HIER
1070
     0
1002
}
1002
{
1000
MANEDIT
1070
     0
1002
}
1002
{
1000
NOSEL
1070
     0
1002
}
1002
{
1000
BEHIND
1070
     0
1002
}
1002
{
1000
OTHER
1070
     0
1002
}
1002
{
1000
REACTOR
1002
}
  0
LINE
  5
2877
330
1A
100
AcDbEntity
  8
AM_VIS
100
AcDbLine
 10
43.2339419884554
 20
202.2531795827987
 30
0.0
 11
28.2339419884554
 21
202.2531795827987
 31
0.0
  0
LINE
  5
2878
330
1A
100
AcDbEntity
  8
AM_VIS
100
AcDbLine
 10
43.2339419884554
 20
197.2531795827986
 30
0.0
 11
28.23394198845541
 21
197.2531795827987
 31
0.0
  0
LINE
  5
2879
330
1A
100
AcDbEntity
  8
AM_8
100
AcDbLine
 10
43.2339419884554
 20
202.2531795827987
 30
0.0
 11
41.24003811159985
 21
197.2531795827986
 31
0.0
  0
LINE
  5
287A
330
1A
100
AcDbEntity
  8
AM_8
100
AcDbLine
 10
37.23394198845541
 20
202.2531795827987
 30
0.0
 11
35.24003811159985
 21
197.2531795827987
 31
0.0
  0
LINE
  5
287B
330
1A
100
AcDbEntity
  8
AM_8
100
AcDbLine
 10
40.2339419884554
 20
202.2531795827987
 30
0.0
 11
38.24003811159985
 21
197.2531795827986
 31
0.0
  0
LINE
  5
287C
330
1A
100
AcDbEntity
  8
AM_8
100
AcDbLine
 10
34.23394198845541
 20
202.2531795827987
 30
0.0
 11
32.24003811159986
 21
197.2531795827987
 31
0.0
  0
LINE
  5
287D
330
1A
100
AcDbEntity
  8
AM_8
100
AcDbLine
 10
28.23394198845541
 20
202.2531795827987
 30
0.0
 11
26.27262705697988
 21
197.3512453293724
 31
0.0
  0
LINE
  5
287E
330
1A
100
AcDbEntity
  8
AM_8
100
AcDbLine
 10
31.23394198845541
 20
202.2531795827987
 30
0.0
 11
29.24003811159986
 21
197.2531795827987
 31
0.0
  0
LINE
  5
287F
330
1A
100
AcDbEntity
  8
AM_8
100
AcDbLine
 10
25.18325213575216
 20
202.1006450901635
 30
0.0
 11
23.32165993026677
 21
197.4987936857081
 31
0.0
  0
LINE
  5
2880
330
1A
100
AcDbEntity
  8
AM_8
100
AcDbLine
 10
19.08187243034568
 20
201.7955761048932
 30
0.0
 11
17.41972567684055
 21
197.7938903983794
 31
0.0
  0
LINE
  5
2881
330
1A
100
AcDbEntity
  8
AM_8
100
AcDbLine
 10
22.13256228304893
 20
201.9481105975283
 30
0.0
 11
20.37069280355366
 21
197.6463420420438
 31
0.0
  0
LINE
  5
2882
330
1A
100
AcDbEntity
  8
AM_8
100
AcDbLine
 10
16.03118257764242
 20
201.643041612258
 30
0.0
 11
14.46875855012743
 21
197.9414387547151
 31
0.0
  0
LINE
  5
2883
330
1A
100
AcDbEntity
  8
AM_8
100
AcDbLine
 10
9.929802872235958
 20
201.3379726269877
 30
0.0
 11
8.566824296701215
 21
198.2365354673864
 31
0.0
  0
LINE
  5
2884
330
1A
100
AcDbEntity
  8
AM_8
100
AcDbLine
 10
12.98049272493917
 20
201.4905071196228
 30
0.0
 11
11.51779142341431
 21
198.0889871110507
 31
0.0
  0
VIEWPORT
  5
22
330
17
100
AcDbEntity
 67
     1
  8
0
100
AcDbViewport
 10
112.2893422104056
 20
152.9962003562143
 30
0.0
 40
408.1687337183674
 41
318.4351405079092
 68
     1
 69
     1
 12
112.2893422104056
 22
152.9962003562143
 13
0.0
 23
0.0
 14
10.0
 24
10.0
 15
10.0
 25
10.0
 16
0.0
 26
0.0
 36
1.0
 17
0.0
 27
0.0
 37
0.0
 42
50.0
 43
0.0
 44
0.0
 45
318.4351405079092
 50
0.0
 51
0.0
 72
   100
331
1969
 90
    32800
  1

281
     0
 71
     1
 74
     0
110
0.0
120
0.0
130
0.0
111
1.0
121
0.0
131
0.0
112
0.0
122
1.0
132
0.0
 79
     0
146
0.0
170
     0
 61
     5
348
25B5
292
     1
282
     1
141
0.0
142
0.0
 63
   250
421
  3355443
1001
GENIUS_GENOREF_13
1005
1677
1001
GENIUS_GENSCREG_15
1000
PF
1040
1.0
1000
DF
1040
1.0
1000
MIN
1011
-91.79502464877804
1021
-6.22136989774026
1031
0.0
1000
MAX
1011
316.3737090695894
1021
312.2137706101689
1031
0.0
1000
FLAGS
1070
     2
  0
POINT
  5
1895
330
17
100
AcDbEntity
 67
     1
  8
AM_0
 60
     1
100
AcDbPoint
 10
0.0
 20
0.0
 30
0.0
  0
POINT
  5
189D
330
17
100
AcDbEntity
 67
     1
  8
AM_0
 60
     1
100
AcDbPoint
 10
0.0
 20
0.0
 30
0.0
  0
POINT
  5
1900
330
17
100
AcDbEntity
 67
     1
  8
AM_0
 60
     1
100
AcDbPoint
 10
0.0
 20
0.0
 30
0.0
  0
POINT
  5
1908
330
17
100
AcDbEntity
 67
     1
  8
AM_0
 60
     1
100
AcDbPoint
 10
0.0
 20
0.0
 30
0.0
  0
ENDSEC
  0
SECTION
  2
OBJECTS
  0
DICTIONARY
  5
C
330
0
100
AcDbDictionary
281
     1
  3
ACAD_COLOR
350
25C0
  3
ACAD_GROUP
350
D
  3
ACAD_LAYOUT
350
167
  3
ACAD_MATERIAL
350
2596
  3
ACAD_MLEADERSTYLE
350
25E5
  3
ACAD_MLINESTYLE
350
E
  3
ACAD_PLOTSETTINGS
350
168
  3
ACAD_PLOTSTYLENAME
350
165
  3
ACAD_SCALELIST
350
25C3
  3
ACAD_TABLESTYLE
350
25C1
  3
ACAD_VISUALSTYLE
350
25AF
  3
ACDB_RECOMPOSE_DATA
350
26B1
  3
ACDBVARIABLEDICTIONARY
350
5D
  3
ACMDICTIONARY
350
142
  3
AMG
350
171
  3
AMG_3D2D_DICT
350
18A8
  3
AMGSNAPSETTINGS
350
1F2
  3
MAPISURF_MODULE
350
17FD
  0
DICTIONARY
  5
26DB
330
2
100
AcDbDictionary
280
     1
281
     1
  3
ACAD_LAYERSTATES
360
26DC
  0
DICTIONARY
  5
263A
330
F
100
AcDbDictionary
280
     1
281
     1
  3
ADSK_XREC_LAYER_RECONCILED
360
263B
  0
DICTIONARY
  5
263C
330
35A
100
AcDbDictionary
280
     1
281
     1
  3
ADSK_XREC_LAYER_RECONCILED
360
263D
  0
DICTIONARY
  5
263E
330
35B
100
AcDbDictionary
280
     1
281
     1
  3
ADSK_XREC_LAYER_RECONCILED
360
263F
  0
DICTIONARY
  5
2640
330
35C
100
AcDbDictionary
280
     1
281
     1
  3
ADSK_XREC_LAYER_RECONCILED
360
2641
  0
DICTIONARY
  5
2642
330
35D
100
AcDbDictionary
280
     1
281
     1
  3
ADSK_XREC_LAYER_RECONCILED
360
2643
  0
DICTIONARY
  5
2644
330
35E
100
AcDbDictionary
280
     1
281
     1
  3
ADSK_XREC_LAYER_RECONCILED
360
2645
  0
DICTIONARY
  5
2646
330
35F
100
AcDbDictionary
280
     1
281
     1
  3
ADSK_XREC_LAYER_RECONCILED
360
2647
  0
DICTIONARY
  5
2648
330
360
100
AcDbDictionary
280
     1
281
     1
  3
ADSK_XREC_LAYER_RECONCILED
360
2649
  0
DICTIONARY
  5
264A
330
361
100
AcDbDictionary
280
     1
281
     1
  3
ADSK_XREC_LAYER_RECONCILED
360
264B
  0
DICTIONARY
  5
264C
330
362
100
AcDbDictionary
280
     1
281
     1
  3
ADSK_XREC_LAYER_RECONCILED
360
264D
  0
DICTIONARY
  5
264E
330
38E
100
AcDbDictionary
280
     1
281
     1
  3
ADSK_XREC_LAYER_RECONCILED
360
264F
  0
DICTIONARY
  5
2650
330
3F7
100
AcDbDictionary
280
     1
281
     1
  3
ADSK_XREC_LAYER_RECONCILED
360
2651
  0
DICTIONARY
  5
2652
330
5FC
100
AcDbDictionary
280
     1
281
     1
  3
ADSK_XREC_LAYER_RECONCILED
360
2653
  0
DICTIONARY
  5
2654
330
614
100
AcDbDictionary
280
     1
281
     1
  3
ADSK_XREC_LAYER_RECONCILED
360
2655
  0
DICTIONARY
  5
2656
330
79B
100
AcDbDictionary
280
     1
281
     1
  3
ADSK_XREC_LAYER_RECONCILED
360
2657
  0
DICTIONARY
  5
2658
330
1054
100
AcDbDictionary
280
     1
281
     1
  3
ADSK_XREC_LAYER_RECONCILED
360
2659
  0
DICTIONARY
  5
265A
330
106E
100
AcDbDictionary
280
     1
281
     1
  3
ADSK_XREC_LAYER_RECONCILED
360
265B
  0
DICTIONARY
  5
265C
330
106F
100
AcDbDictionary
280
     1
281
     1
  3
ADSK_XREC_LAYER_RECONCILED
360
265D
  0
DICTIONARY
  5
265E
330
108B
100
AcDbDictionary
280
     1
281
     1
  3
ADSK_XREC_LAYER_RECONCILED
360
265F
  0
DICTIONARY
  5
2660
330
1969
100
AcDbDictionary
280
     1
281
     1
  3
ADSK_XREC_LAYER_RECONCILED
360
2661
  0
DICTIONARY
  5
2662
330
1A45
100
AcDbDictionary
280
     1
281
     1
  3
ADSK_XREC_LAYER_RECONCILED
360
2663
  0
DICTIONARY
  5
2664
330
1A46
100
AcDbDictionary
280
     1
281
     1
  3
ADSK_XREC_LAYER_RECONCILED
360
2665
  0
DICTIONARY
  5
2666
330
1A47
100
AcDbDictionary
280
     1
281
     1
  3
ADSK_XREC_LAYER_RECONCILED
360
2667
  0
DICTIONARY
  5
2668
330
1A48
100
AcDbDictionary
280
     1
281
     1
  3
ADSK_XREC_LAYER_RECONCILED
360
2669
  0
DICTIONARY
  5
266A
330
1A49
100
AcDbDictionary
280
     1
281
     1
  3
ADSK_XREC_LAYER_RECONCILED
360
266B
  0
DICTIONARY
  5
266C
330
1A4A
100
AcDbDictionary
280
     1
281
     1
  3
ADSK_XREC_LAYER_RECONCILED
360
266D
  0
DICTIONARY
  5
266E
330
1A4B
100
AcDbDictionary
280
     1
281
     1
  3
ADSK_XREC_LAYER_RECONCILED
360
266F
  0
DICTIONARY
  5
2670
330
223E
100
AcDbDictionary
280
     1
281
     1
  3
ADSK_XREC_LAYER_RECONCILED
360
2671
  0
DICTIONARY
  5
12A
330
1A
100
AcDbDictionary
280
     1
281
     1
  3
ACAD_INDEX
360
2672
  3
ACAD_SORTENTS
360
2803
  0
DICTIONARY
  5
25C0
102
{ACAD_REACTORS
330
C
102
}
330
C
100
AcDbDictionary
281
     1
  0
DICTIONARY
  5
D
102
{ACAD_REACTORS
330
C
102
}
330
C
100
AcDbDictionary
281
     1
  0
DICTIONARY
  5
167
102
{ACAD_REACTORS
330
C
102
}
330
C
100
AcDbDictionary
281
     1
  3
A0
350
351
  3
A1
350
314
  3
A2
350
349
  3
A3
350
2E1
  3
A4
350
16A
  3
Model
350
169
  0
DICTIONARY
  5
2596
102
{ACAD_REACTORS
330
C
102
}
330
C
100
AcDbDictionary
281
     1
  3
ByBlock
350
259F
  3
ByLayer
350
2597
  3
Global
350
25A7
  0
DICTIONARY
  5
25E5
102
{ACAD_REACTORS
330
C
102
}
330
C
100
AcDbDictionary
281
     1
  3
Standard
350
25E6
  0
DICTIONARY
  5
E
102
{ACAD_REACTORS
330
C
102
}
330
C
100
AcDbDictionary
281
     1
  3
STANDARD
350
13
  0
DICTIONARY
  5
168
102
{ACAD_REACTORS
330
C
102
}
330
C
100
AcDbDictionary
281
     1
  3
A0
350
2EE
  3
A0-A3
350
2F2
  3
A0-A4
350
2F3
  3
A1
350
2ED
  3
A2
350
2EA
  3
A3
350
31E
  3
A4
350
319
  0
ACDBDICTIONARYWDFLT
  5
165
102
{ACAD_REACTORS
330
C
102
}
330
C
100
AcDbDictionary
281
     1
  3
Normal
350
166
100
AcDbDictionaryWithDefault
340
166
  0
DICTIONARY
  5
25C3
102
{ACAD_REACTORS
330
C
102
}
330
C
100
AcDbDictionary
281
     1
  3
A0
350
25C4
  3
A1
350
25C5
  3
A2
350
25C6
  3
A3
350
25C7
  3
A4
350
25C8
  3
A5
350
25C9
  3
A6
350
25CA
  3
A7
350
25CB
  3
A8
350
25CC
  3
A9
350
25CD
  3
B0
350
25CE
  3
B1
350
25CF
  3
B2
350
25D0
  3
B3
350
25D1
  3
B4
350
25D2
  3
B5
350
25D3
  3
B6
350
25D4
  3
B7
350
25D5
  3
B8
350
25D6
  3
B9
350
25D7
  3
C0
350
25D8
  3
C1
350
25D9
  3
C2
350
25DA
  3
C3
350
25DB
  3
C4
350
25DC
  3
C5
350
25DD
  3
C6
350
25DE
  3
C7
350
25DF
  3
C8
350
25E0
  3
C9
350
25E1
  3
D0
350
25E2
  3
D1
350
25E3
  3
D2
350
25E4
  0
DICTIONARY
  5
25C1
102
{ACAD_REACTORS
330
C
102
}
330
C
100
AcDbDictionary
281
     1
  3
Standard
350
25C2
  0
DICTIONARY
  5
25AF
102
{ACAD_REACTORS
330
C
102
}
330
C
100
AcDbDictionary
281
     1
  3
2dWireframe
350
25B5
  3
3D Hidden
350
25B7
  3
3dWireframe
350
25B6
  3
Basic
350
25B4
  3
Brighten
350
25BB
  3
ColorChange
350
25BF
  3
Conceptual
350
25B8
  3
Dim
350
25BA
  3
Facepattern
350
25BE
  3
Flat
350
25B0
  3
FlatWithEdges
350
25B1
  3
Gouraud
350
25B2
  3
GouraudWithEdges
350
25B3
  3
Linepattern
350
25BD
  3
Realistic
350
25B9
  3
Thicken
350
25BC
  0
XRECORD
  5
26B1
102
{ACAD_REACTORS
330
C
102
}
330
C
100
AcDbXrecord
280
     1
 90
        1
330
1FA0
330
1FA1
330
25C2
  0
DICTIONARY
  5
5D
102
{ACAD_REACTORS
330
C
102
}
330
C
100
AcDbDictionary
281
     1
  3
CANNOSCALE
350
26B5
  3
CMLEADERSTYLE
350
26B3
  3
CTABLESTYLE
350
26B2
  3
DIMADEC
350
5E
  3
INDEXCTL
350
128
  3
LAYEREVAL
350
28B5
  3
LAYERNOTIFY
350
28B6
  3
LIGHTINGUNITS
350
26B6
  3
MSLTSCALE
350
26B4
  3
SORTENTS
350
1044
  0
DICTIONARY
  5
142
102
{ACAD_REACTORS
330
C
102
}
330
C
100
AcDbDictionary
281
     1
  3
ACMSTDDICTIONARY
350
143
  3
AMDTSECTSYM_ARROWCOLOR
350
2633
  0
DICTIONARY
  5
171
102
{ACAD_REACTORS
330
C
102
}
330
C
100
AcDbDictionary
281
     1
  3
AcMgSettings
350
172
  3
AMGLAYCFG
350
174
  0
DICTIONARY
  5
18A8
102
{ACAD_REACTORS
330
C
102
}
330
C
100
AcDbDictionary
281
     1
  3
AMG_SUBLIST_DICT
350
18A9
  0
DICTIONARY
  5
1F2
102
{ACAD_REACTORS
330
C
102
}
330
C
100
AcDbDictionary
281
     1
  3
DIMENSION
350
164B
  3
FEA
350
164C
  3
HATCH
350
164D
  3
SYMBOLS
350
164E
  0
DICTIONARY
  5
26DC
102
{ACAD_REACTORS
330
26DB
102
}
330
26DB
100
AcDbDictionary
281
     1
  0
XRECORD
  5
263B
102
{ACAD_REACTORS
330
263A
102
}
330
263A
100
AcDbXrecord
280
     1
290
     1
  0
XRECORD
  5
263D
102
{ACAD_REACTORS
330
263C
102
}
330
263C
100
AcDbXrecord
280
     1
290
     1
  0
XRECORD
  5
263F
102
{ACAD_REACTORS
330
263E
102
}
330
263E
100
AcDbXrecord
280
     1
290
     1
  0
XRECORD
  5
2641
102
{ACAD_REACTORS
330
2640
102
}
330
2640
100
AcDbXrecord
280
     1
290
     1
  0
XRECORD
  5
2643
102
{ACAD_REACTORS
330
2642
102
}
330
2642
100
AcDbXrecord
280
     1
290
     1
  0
XRECORD
  5
2645
102
{ACAD_REACTORS
330
2644
102
}
330
2644
100
AcDbXrecord
280
     1
290
     1
  0
XRECORD
  5
2647
102
{ACAD_REACTORS
330
2646
102
}
330
2646
100
AcDbXrecord
280
     1
290
     1
  0
XRECORD
  5
2649
102
{ACAD_REACTORS
330
2648
102
}
330
2648
100
AcDbXrecord
280
     1
290
     1
  0
XRECORD
  5
264B
102
{ACAD_REACTORS
330
264A
102
}
330
264A
100
AcDbXrecord
280
     1
290
     1
  0
XRECORD
  5
264D
102
{ACAD_REACTORS
330
264C
102
}
330
264C
100
AcDbXrecord
280
     1
290
     1
  0
XRECORD
  5
264F
102
{ACAD_REACTORS
330
264E
102
}
330
264E
100
AcDbXrecord
280
     1
290
     1
  0
XRECORD
  5
2651
102
{ACAD_REACTORS
330
2650
102
}
330
2650
100
AcDbXrecord
280
     1
290
     1
  0
XRECORD
  5
2653
102
{ACAD_REACTORS
330
2652
102
}
330
2652
100
AcDbXrecord
280
     1
290
     1
  0
XRECORD
  5
2655
102
{ACAD_REACTORS
330
2654
102
}
330
2654
100
AcDbXrecord
280
     1
290
     1
  0
XRECORD
  5
2657
102
{ACAD_REACTORS
330
2656
102
}
330
2656
100
AcDbXrecord
280
     1
290
     1
  0
XRECORD
  5
2659
102
{ACAD_REACTORS
330
2658
102
}
330
2658
100
AcDbXrecord
280
     1
290
     1
  0
XRECORD
  5
265B
102
{ACAD_REACTORS
330
265A
102
}
330
265A
100
AcDbXrecord
280
     1
290
     1
  0
XRECORD
  5
265D
102
{ACAD_REACTORS
330
265C
102
}
330
265C
100
AcDbXrecord
280
     1
290
     1
  0
XRECORD
  5
265F
102
{ACAD_REACTORS
330
265E
102
}
330
265E
100
AcDbXrecord
280
     1
290
     1
  0
XRECORD
  5
2661
102
{ACAD_REACTORS
330
2660
102
}
330
2660
100
AcDbXrecord
280
     1
290
     1
  0
XRECORD
  5
2663
102
{ACAD_REACTORS
330
2662
102
}
330
2662
100
AcDbXrecord
280
     1
290
     1
  0
XRECORD
  5
2665
102
{ACAD_REACTORS
330
2664
102
}
330
2664
100
AcDbXrecord
280
     1
290
     1
  0
XRECORD
  5
2667
102
{ACAD_REACTORS
330
2666
102
}
330
2666
100
AcDbXrecord
280
     1
290
     1
  0
XRECORD
  5
2669
102
{ACAD_REACTORS
330
2668
102
}
330
2668
100
AcDbXrecord
280
     1
290
     1
  0
XRECORD
  5
266B
102
{ACAD_REACTORS
330
266A
102
}
330
266A
100
AcDbXrecord
280
     1
290
     1
  0
XRECORD
  5
266D
102
{ACAD_REACTORS
330
266C
102
}
330
266C
100
AcDbXrecord
280
     1
290
     1
  0
XRECORD
  5
266F
102
{ACAD_REACTORS
330
266E
102
}
330
266E
100
AcDbXrecord
280
     1
290
     1
  0
XRECORD
  5
2671
102
{ACAD_REACTORS
330
2670
102
}
330
2670
100
AcDbXrecord
280
     1
290
     1
  0
DICTIONARY
  5
2672
102
{ACAD_REACTORS
330
12A
102
}
330
12A
100
AcDbDictionary
281
     1
  3
*A1
350
2673
  0
SORTENTSTABLE
  5
2803
102
{ACAD_REACTORS
330
12A
102
}
330
12A
100
AcDbSortentsTable
330
1A
331
2801
  5
281A
331
401
  5
401
331
26F4
  5
26F4
331
2817
  5
26F8
331
26FD
  5
2703
331
3FD
  5
3FD
331
26F9
  5
26FC
331
402
  5
402
331
1DC9
  5
1DC9
331
2802
  5
26F6
331
26F5
  5
26F5
331
3FE
  5
3FE
331
27FE
  5
2802
331
26FE
  5
2735
331
26F1
  5
26F1
331
26FA
  5
26FD
331
2703
  5
2798
331
26F6
  5
26F9
331
3FF
  5
3FF
331
26F2
  5
26F2
331
2766
  5
2800
331
26FB
  5
26FE
331
3FB
  5
3FB
331
2798
  5
2801
331
26F7
  5
26FA
331
2735
  5
27FE
331
400
  5
400
331
2800
  5
2817
331
2700
  5
2766
331
26F3
  5
26F3
331
409
  5
409
331
281A
  5
26F7
331
26FC
  5
2700
331
3FC
  5
3FC
331
26F8
  5
26FB
  0
LAYOUT
  5
351
102
{ACAD_REACTORS
330
167
102
}
330
167
100
AcDbPlotSettings
  1
A0
  2
HPDJ220-A0
  4
User268
  6

 40
4.995333194732666
 41
16.93336677551269
 42
4.99530029296875
 43
16.933349609375
 44
840.9093017578125
 45
1188.8046875
 46
0.0
 47
0.0
 48
0.0
 49
0.0
140
0.0
141
0.0
142
1.0
143
1.0
 70
   752
 72
     1
 73
     1
 74
     5
  7
PLA0.ctb
 75
    16
147
1.0
 76
     0
 77
     2
 78
   300
148
0.0
149
0.0
100
AcDbLayout
  1
A0
 70
     1
 71
     5
 10
-16.933349609375
 20
-4.995333194732666
 11
1171.871337890625
 21
835.9139685630799
 12
0.0
 22
0.0
 32
0.0
 14
1.000000000000000E+20
 24
1.000000000000000E+20
 34
1.000000000000000E+20
 15
-1.000000000000000E+20
 25
-1.000000000000000E+20
 35
-1.000000000000000E+20
146
0.0
 13
0.0
 23
0.0
 33
0.0
 16
1.0
 26
0.0
 36
0.0
 17
0.0
 27
1.0
 37
0.0
 76
     0
330
34D
331
34E
  0
LAYOUT
  5
314
102
{ACAD_REACTORS
330
167
102
}
330
167
100
AcDbPlotSettings
  1
A2
  2
HPDJ220-A0
  4
User266
  6

 40
4.995333194732666
 41
16.93330574035644
 42
4.995330810546875
 43
16.933349609375
 44
419.9466552734374
 45
593.8519897460937
 46
0.0
 47
0.0
 48
0.0
 49
0.0
140
0.0
141
0.0
142
1.0
143
1.0
 70
   752
 72
     1
 73
     1
 74
     5
  7
PLA2.ctb
 75
    16
147
1.0
 76
     0
 77
     2
 78
   300
148
0.0
149
0.0
100
AcDbLayout
  1
A1
 70
     1
 71
     4
 10
-16.933349609375
 20
-4.995333194732666
 11
576.9186401367187
 21
414.9513220787047
 12
0.0
 22
0.0
 32
0.0
 14
1.000000000000000E+20
 24
1.000000000000000E+20
 34
1.000000000000000E+20
 15
-1.000000000000000E+20
 25
-1.000000000000000E+20
 35
-1.000000000000000E+20
146
0.0
 13
0.0
 23
0.0
 33
0.0
 16
1.0
 26
0.0
 36
0.0
 17
0.0
 27
1.0
 37
0.0
 76
     0
330
313
331
344
  0
LAYOUT
  5
349
102
{ACAD_REACTORS
330
167
102
}
330
167
100
AcDbPlotSettings
  1
A2
  2
HPDJ220-A0
  4
User266
  6

 40
4.995333194732666
 41
16.93330574035644
 42
4.995330810546875
 43
16.933349609375
 44
419.9466552734374
 45
593.8519897460937
 46
0.0
 47
0.0
 48
0.0
 49
0.0
140
0.0
141
0.0
142
1.0
143
1.0
 70
   752
 72
     1
 73
     1
 74
     5
  7
PLA2.ctb
 75
    16
147
1.0
 76
     0
 77
     2
 78
   300
148
0.0
149
0.0
100
AcDbLayout
  1
A2
 70
     1
 71
     3
 10
-16.933349609375
 20
-4.995333194732666
 11
576.9186401367187
 21
414.9513220787047
 12
0.0
 22
0.0
 32
0.0
 14
1.000000000000000E+20
 24
1.000000000000000E+20
 34
1.000000000000000E+20
 15
-1.000000000000000E+20
 25
-1.000000000000000E+20
 35
-1.000000000000000E+20
146
0.0
 13
0.0
 23
0.0
 33
0.0
 16
1.0
 26
0.0
 36
0.0
 17
0.0
 27
1.0
 37
0.0
 76
     0
330
345
331
346
  0
LAYOUT
  5
2E1
102
{ACAD_REACTORS
330
167
102
}
330
167
100
AcDbPlotSettings
  1
A3
  2
\\GLUTZCH_PDC\HP LaserJet 5000 N PCL 6
  4
A3
  6

 40
5.027083396911621
 41
5.111741065979003
 42
5.11175537109375
 43
5.027069091796875
 44
297.0106506347656
 45
419.9889831542968
 46
0.0
 47
0.0
 48
0.0
 49
0.0
140
0.0
141
0.0
142
1.0
143
1.0
 70
   752
 72
     1
 73
     1
 74
     5
  7
LAA3.ctb
 75
    16
147
1.0
 76
     0
 77
     2
 78
   300
148
0.0
149
0.0
100
AcDbLayout
  1
A3
 70
     1
 71
     2
 10
-5.027069091796875
 20
-5.027083396911621
 11
414.9619140625
 21
291.983567237854
 12
0.0
 22
0.0
 32
0.0
 14
1.000000000000000E+20
 24
1.000000000000000E+20
 34
1.000000000000000E+20
 15
-1.000000000000000E+20
 25
-1.000000000000000E+20
 35
-1.000000000000000E+20
146
0.0
 13
0.0
 23
0.0
 33
0.0
 16
1.0
 26
0.0
 36
0.0
 17
0.0
 27
1.0
 37
0.0
 76
     0
330
2E0
331
31D
  0
LAYOUT
  5
16A
102
{ACAD_REACTORS
330
167
102
}
330
167
100
AcDbPlotSettings
  1
A4
  2
\\GLUTZCH_PDC\HP LaserJet 5000 N PCL 6
  4
A4
  6

 40
5.027083396911621
 41
5.111741065979003
 42
5.11175537109375
 43
5.027069091796875
 44
210.0156707763672
 45
297.0106506347656
 46
0.0
 47
0.0
 48
0.0
 49
0.0
140
0.0
141
0.0
142
1.0
143
1.0
 70
   752
 72
     1
 73
     0
 74
     5
  7
LAA4.ctb
 75
    16
147
1.0
 76
     0
 77
     2
 78
   300
148
0.0
149
0.0
100
AcDbLayout
  1
A4
 70
     1
 71
     1
 10
-5.027083396911621
 20
-5.111741065979003
 11
204.9885873794556
 21
291.8989095687866
 12
0.0
 22
0.0
 32
0.0
 14
1.000000000000000E+20
 24
1.000000000000000E+20
 34
1.000000000000000E+20
 15
-1.000000000000000E+20
 25
-1.000000000000000E+20
 35
-1.000000000000000E+20
146
0.0
 13
0.0
 23
0.0
 33
0.0
 16
1.0
 26
0.0
 36
0.0
 17
0.0
 27
1.0
 37
0.0
 76
     0
330
17
331
22
  0
LAYOUT
  5
169
102
{ACAD_REACTORS
330
167
102
}
330
167
100
AcDbPlotSettings
  1

  2
TIFF Version 6 (CCITT G4 2D-Komprimierung).pc3
  4
UserDefinedRaster (16000.00 x 12800.00Pixel)
  6

 40
0.0
 41
0.0
 42
1.0
 43
1.0
 44
1280.0
 45
1600.0
 46
0.0
 47
490.8740001060518
 48
0.0
 49
0.0
140
0.0
141
0.0
142
1.0
143
0.1744090622111108
 70
 11956
 72
     2
 73
     0
 74
     1
  7
c:\amd5pp\Plot Styles\LAA4.ctb
 75
     0
147
5.733647021102407
 76
     0
 77
     2
 78
   300
148
15.16919270659696
149
-143.3789986611565
100
AcDbLayout
  1
Model
 70
     1
 71
     0
 10
0.0
 20
0.0
 11
12.0
 21
9.0
 12
0.0
 22
0.0
 32
0.0
 14
0.0
 24
0.0
 34
0.0
 15
0.0
 25
0.0
 35
0.0
146
0.0
 13
0.0
 23
0.0
 33
0.0
 16
1.0
 26
0.0
 36
0.0
 17
0.0
 27
1.0
 37
0.0
 76
     0
330
1A
331
2594
  0
MATERIAL
  5
259F
102
{ACAD_XDICTIONARY
360
25A0
102
}
102
{ACAD_REACTORS
330
2596
102
}
330
2596
100
AcDbMaterial
  1
ByBlock
 72
     0
 43
0.0208333333333333
 43
0.0
 43
0.0
 43
0.0
 43
0.0
 43
0.0208333333333333
 43
0.0
 43
0.0
 43
0.0
 43
0.0
 43
1.0
 43
0.0
 43
0.0
 43
0.0
 43
0.0
 43
1.0
 77
     0
 47
0.0208333333333333
 47
0.0
 47
0.0
 47
0.0
 47
0.0
 47
0.0208333333333333
 47
0.0
 47
0.0
 47
0.0
 47
0.0
 47
1.0
 47
0.0
 47
0.0
 47
0.0
 47
0.0
 47
1.0
171
     0
 49
0.0208333333333333
 49
0.0
 49
0.0
 49
0.0
 49
0.0
 49
0.0208333333333333
 49
0.0
 49
0.0
 49
0.0
 49
0.0
 49
1.0
 49
0.0
 49
0.0
 49
0.0
 49
0.0
 49
1.0
175
     0
142
0.0208333333333333
142
0.0
142
0.0
142
0.0
142
0.0
142
0.0208333333333333
142
0.0
142
0.0
142
0.0
142
0.0
142
1.0
142
0.0
142
0.0
142
0.0
142
0.0
142
1.0
179
     0
144
0.0208333333333333
144
0.0
144
0.0
144
0.0
144
0.0
144
0.0208333333333333
144
0.0
144
0.0
144
0.0
144
0.0
144
1.0
144
0.0
144
0.0
144
0.0
144
0.0
144
1.0
147
0.0208333333333333
147
0.0
147
0.0
147
0.0
147
0.0
147
0.0208333333333333
147
0.0
147
0.0
147
0.0
147
0.0
147
1.0
147
0.0
147
0.0
147
0.0
147
0.0
147
1.0
  0
MATERIAL
  5
2597
102
{ACAD_XDICTIONARY
360
2598
102
}
102
{ACAD_REACTORS
330
2596
102
}
330
2596
100
AcDbMaterial
  1
ByLayer
 72
     0
 43
0.0208333333333333
 43
0.0
 43
0.0
 43
0.0
 43
0.0
 43
0.0208333333333333
 43
0.0
 43
0.0
 43
0.0
 43
0.0
 43
1.0
 43
0.0
 43
0.0
 43
0.0
 43
0.0
 43
1.0
 77
     0
 47
0.0208333333333333
 47
0.0
 47
0.0
 47
0.0
 47
0.0
 47
0.0208333333333333
 47
0.0
 47
0.0
 47
0.0
 47
0.0
 47
1.0
 47
0.0
 47
0.0
 47
0.0
 47
0.0
 47
1.0
171
     0
 49
0.0208333333333333
 49
0.0
 49
0.0
 49
0.0
 49
0.0
 49
0.0208333333333333
 49
0.0
 49
0.0
 49
0.0
 49
0.0
 49
1.0
 49
0.0
 49
0.0
 49
0.0
 49
0.0
 49
1.0
175
     0
142
0.0208333333333333
142
0.0
142
0.0
142
0.0
142
0.0
142
0.0208333333333333
142
0.0
142
0.0
142
0.0
142
0.0
142
1.0
142
0.0
142
0.0
142
0.0
142
0.0
142
1.0
179
     0
144
0.0208333333333333
144
0.0
144
0.0
144
0.0
144
0.0
144
0.0208333333333333
144
0.0
144
0.0
144
0.0
144
0.0
144
1.0
144
0.0
144
0.0
144
0.0
144
0.0
144
1.0
147
0.0208333333333333
147
0.0
147
0.0
147
0.0
147
0.0
147
0.0208333333333333
147
0.0
147
0.0
147
0.0
147
0.0
147
1.0
147
0.0
147
0.0
147
0.0
147
0.0
147
1.0
  0
MATERIAL
  5
25A7
102
{ACAD_XDICTIONARY
360
25A8
102
}
102
{ACAD_REACTORS
330
2596
102
}
330
2596
100
AcDbMaterial
  1
Global
 72
     0
 43
0.0208333333333333
 43
0.0
 43
0.0
 43
0.0
 43
0.0
 43
0.0208333333333333
 43
0.0
 43
0.0
 43
0.0
 43
0.0
 43
1.0
 43
0.0
 43
0.0
 43
0.0
 43
0.0
 43
1.0
 77
     0
 47
0.0208333333333333
 47
0.0
 47
0.0
 47
0.0
 47
0.0
 47
0.0208333333333333
 47
0.0
 47
0.0
 47
0.0
 47
0.0
 47
1.0
 47
0.0
 47
0.0
 47
0.0
 47
0.0
 47
1.0
171
     0
 49
0.0208333333333333
 49
0.0
 49
0.0
 49
0.0
 49
0.0
 49
0.0208333333333333
 49
0.0
 49
0.0
 49
0.0
 49
0.0
 49
1.0
 49
0.0
 49
0.0
 49
0.0
 49
0.0
 49
1.0
175
     0
142
0.0208333333333333
142
0.0
142
0.0
142
0.0
142
0.0
142
0.0208333333333333
142
0.0
142
0.0
142
0.0
142
0.0
142
1.0
142
0.0
142
0.0
142
0.0
142
0.0
142
1.0
179
     0
144
0.0208333333333333
144
0.0
144
0.0
144
0.0
144
0.0
144
0.0208333333333333
144
0.0
144
0.0
144
0.0
144
0.0
144
1.0
144
0.0
144
0.0
144
0.0
144
0.0
144
1.0
147
0.0208333333333333
147
0.0
147
0.0
147
0.0
147
0.0
147
0.0208333333333333
147
0.0
147
0.0
147
0.0
147
0.0
147
1.0
147
0.0
147
0.0
147
0.0
147
0.0
147
1.0
  0
MLEADERSTYLE
  5
25E6
102
{ACAD_REACTORS
330
25E5
102
}
330
25E5
100
AcDbMLeaderStyle
170
     2
171
     1
172
     0
 90
        2
 40
0.0
 41
0.0
173
     1
 91
-1056964608
340
14
 92
       -2
290
     1
 42
2.0
291
     1
 43
0.36
  3
Standard
 44
4.0
300

342
10
174
     1
178
     6
175
     1
176
     0
 93
-1056964608
 45
4.0
292
     0
297
     0
 46
4.0
 94
-1056964608
 47
1.0
 49
1.0
140
1.0
293
     1
141
0.0
294
     1
177
     0
142
1.0
295
     0
296
     0
143
0.125
1001
ACAD_MLEADERVER
1070
     2
  0
MLINESTYLE
  5
13
102
{ACAD_REACTORS
330
E
102
}
330
E
100
AcDbMlineStyle
  2
STANDARD
 70
     0
  3

 62
     0
 51
90.0
 52
90.0
 71
     2
 49
0.5
 62
   256
  6
BYLAYER
 49
-0.5
 62
   256
  6
BYLAYER
  0
PLOTSETTINGS
  5
2EE
102
{ACAD_REACTORS
330
168
102
}
330
168
100
AcDbPlotSettings
  1
A0
  2
HPDJ220-A0
  4
User268
  6

 40
4.995333194732666
 41
16.93336677551269
 42
4.99530029296875
 43
16.933349609375
 44
840.9093017578125
 45
1188.8046875
 46
0.0
 47
0.0
 48
0.0
 49
0.0
140
0.0
141
0.0
142
1.0
143
1.0
 70
   752
 72
     1
 73
     1
 74
     5
  7
PLA0.ctb
 75
    16
147
1.0
 76
     0
 77
     2
 78
   300
148
0.0
149
0.0
  0
PLOTSETTINGS
  5
2F2
102
{ACAD_REACTORS
330
168
102
}
330
168
100
AcDbPlotSettings
  1
A0-A3
  2
\\GLUTZCH_PDC\HP LaserJet 5000 N PCL 6
  4
A3
  6

 40
5.027083396911621
 41
5.111741065979003
 42
5.11175537109375
 43
5.027069091796875
 44
297.0106506347656
 45
419.9889831542968
 46
0.0
 47
0.0
 48
0.0
 49
0.0
140
0.0
141
0.0
142
1.0
143
1.0
 70
   752
 72
     1
 73
     1
 74
     5
  7
LAA0-A3.ctb
 75
     0
147
1.0
 76
     0
 77
     2
 78
   300
148
0.0
149
0.0
  0
PLOTSETTINGS
  5
2F3
102
{ACAD_REACTORS
330
168
102
}
330
168
100
AcDbPlotSettings
  1
A0-A4
  2
\\GLUTZCH_PDC\HP LaserJet 5000 N PCL 6
  4
A4
  6

 40
5.027083396911621
 41
5.111741065979003
 42
5.11175537109375
 43
5.027069091796875
 44
210.0156707763672
 45
297.0106506347656
 46
0.0
 47
0.0
 48
0.0
 49
0.0
140
0.0
141
0.0
142
1.0
143
1.0
 70
   752
 72
     1
 73
     0
 74
     5
  7
LAA0-A4.ctb
 75
     0
147
1.0
 76
     0
 77
     2
 78
   300
148
0.0
149
0.0
  0
PLOTSETTINGS
  5
2ED
102
{ACAD_REACTORS
330
168
102
}
330
168
100
AcDbPlotSettings
  1
A1
  2
HPDJ220-A0
  4
User267
  6

 40
4.995333194732666
 41
16.93330574035644
 42
4.99530029296875
 43
16.933349609375
 44
593.9366455078125
 45
840.8246459960937
 46
0.0
 47
0.0
 48
0.0
 49
0.0
140
0.0
141
0.0
142
1.0
143
1.0
 70
   752
 72
     1
 73
     1
 74
     5
  7
PLA1.ctb
 75
    16
147
1.0
 76
     0
 77
     2
 78
   300
148
0.0
149
0.0
  0
PLOTSETTINGS
  5
2EA
102
{ACAD_REACTORS
330
168
102
}
330
168
100
AcDbPlotSettings
  1
A2
  2
HPDJ220-A0
  4
User266
  6

 40
4.995333194732666
 41
16.93330574035644
 42
4.995330810546875
 43
16.933349609375
 44
419.9466552734374
 45
593.8519897460937
 46
0.0
 47
0.0
 48
0.0
 49
0.0
140
0.0
141
0.0
142
1.0
143
1.0
 70
   752
 72
     1
 73
     1
 74
     5
  7
PLA2.ctb
 75
    16
147
1.0
 76
     0
 77
     2
 78
   300
148
0.0
149
0.0
  0
PLOTSETTINGS
  5
31E
102
{ACAD_REACTORS
330
168
102
}
330
168
100
AcDbPlotSettings
  1
A3
  2
\\GLUTZCH_PDC\HP LaserJet 5000 N PCL 6
  4
A3
  6

 40
5.027083396911621
 41
5.111741065979003
 42
5.11175537109375
 43
5.027069091796875
 44
297.0106506347656
 45
419.9889831542968
 46
0.0
 47
0.0
 48
0.0
 49
0.0
140
0.0
141
0.0
142
1.0
143
1.0
 70
   752
 72
     1
 73
     1
 74
     5
  7
LAA3.ctb
 75
    16
147
1.0
 76
     0
 77
     2
 78
   300
148
0.0
149
0.0
  0
PLOTSETTINGS
  5
319
102
{ACAD_REACTORS
330
168
102
}
330
168
100
AcDbPlotSettings
  1
A4
  2
\\GLUTZCH_PDC\HP LaserJet 5000 N PCL 6
  4
A4
  6

 40
5.027083396911621
 41
5.111741065979003
 42
5.11175537109375
 43
5.027069091796875
 44
210.0156707763672
 45
297.0106506347656
 46
0.0
 47
0.0
 48
0.0
 49
0.0
140
0.0
141
0.0
142
1.0
143
1.0
 70
   752
 72
     1
 73
     0
 74
     5
  7
LAA4.ctb
 75
    16
147
1.0
 76
     0
 77
     2
 78
   300
148
0.0
149
0.0
  0
ACDBPLACEHOLDER
  5
166
102
{ACAD_REACTORS
330
165
102
}
330
165
  0
SCALE
  5
25C4
102
{ACAD_REACTORS
330
25C3
102
}
330
25C3
100
AcDbScale
 70
     0
300
1:1
140
1.0
141
1.0
290
     1
  0
SCALE
  5
25C5
102
{ACAD_REACTORS
330
25C3
102
}
330
25C3
100
AcDbScale
 70
     0
300
1:2
140
1.0
141
2.0
290
     0
  0
SCALE
  5
25C6
102
{ACAD_REACTORS
330
25C3
102
}
330
25C3
100
AcDbScale
 70
     0
300
1:4
140
1.0
141
4.0
290
     0
  0
SCALE
  5
25C7
102
{ACAD_REACTORS
330
25C3
102
}
330
25C3
100
AcDbScale
 70
     0
300
1:5
140
1.0
141
5.0
290
     0
  0
SCALE
  5
25C8
102
{ACAD_REACTORS
330
25C3
102
}
330
25C3
100
AcDbScale
 70
     0
300
1:8
140
1.0
141
8.0
290
     0
  0
SCALE
  5
25C9
102
{ACAD_REACTORS
330
25C3
102
}
330
25C3
100
AcDbScale
 70
     0
300
1:10
140
1.0
141
10.0
290
     0
  0
SCALE
  5
25CA
102
{ACAD_REACTORS
330
25C3
102
}
330
25C3
100
AcDbScale
 70
     0
300
1:16
140
1.0
141
16.0
290
     0
  0
SCALE
  5
25CB
102
{ACAD_REACTORS
330
25C3
102
}
330
25C3
100
AcDbScale
 70
     0
300
1:20
140
1.0
141
20.0
290
     0
  0
SCALE
  5
25CC
102
{ACAD_REACTORS
330
25C3
102
}
330
25C3
100
AcDbScale
 70
     0
300
1:30
140
1.0
141
30.0
290
     0
  0
SCALE
  5
25CD
102
{ACAD_REACTORS
330
25C3
102
}
330
25C3
100
AcDbScale
 70
     0
300
1:40
140
1.0
141
40.0
290
     0
  0
SCALE
  5
25CE
102
{ACAD_REACTORS
330
25C3
102
}
330
25C3
100
AcDbScale
 70
     0
300
1:50
140
1.0
141
50.0
290
     0
  0
SCALE
  5
25CF
102
{ACAD_REACTORS
330
25C3
102
}
330
25C3
100
AcDbScale
 70
     0
300
1:100
140
1.0
141
100.0
290
     0
  0
SCALE
  5
25D0
102
{ACAD_REACTORS
330
25C3
102
}
330
25C3
100
AcDbScale
 70
     0
300
2:1
140
2.0
141
1.0
290
     0
  0
SCALE
  5
25D1
102
{ACAD_REACTORS
330
25C3
102
}
330
25C3
100
AcDbScale
 70
     0
300
4:1
140
4.0
141
1.0
290
     0
  0
SCALE
  5
25D2
102
{ACAD_REACTORS
330
25C3
102
}
330
25C3
100
AcDbScale
 70
     0
300
8:1
140
8.0
141
1.0
290
     0
  0
SCALE
  5
25D3
102
{ACAD_REACTORS
330
25C3
102
}
330
25C3
100
AcDbScale
 70
     0
300
10:1
140
10.0
141
1.0
290
     0
  0
SCALE
  5
25D4
102
{ACAD_REACTORS
330
25C3
102
}
330
25C3
100
AcDbScale
 70
     0
300
100:1
140
100.0
141
1.0
290
     0
  0
SCALE
  5
25D5
102
{ACAD_REACTORS
330
25C3
102
}
330
25C3
100
AcDbScale
 70
     0
300
1/128" = 1'-0"
140
0.0078125
141
12.0
290
     0
  0
SCALE
  5
25D6
102
{ACAD_REACTORS
330
25C3
102
}
330
25C3
100
AcDbScale
 70
     0
300
1/64" = 1'-0"
140
0.015625
141
12.0
290
     0
  0
SCALE
  5
25D7
102
{ACAD_REACTORS
330
25C3
102
}
330
25C3
100
AcDbScale
 70
     0
300
1/32" = 1'-0"
140
0.03125
141
12.0
290
     0
  0
SCALE
  5
25D8
102
{ACAD_REACTORS
330
25C3
102
}
330
25C3
100
AcDbScale
 70
     0
300
1/16" = 1'-0"
140
0.0625
141
12.0
290
     0
  0
SCALE
  5
25D9
102
{ACAD_REACTORS
330
25C3
102
}
330
25C3
100
AcDbScale
 70
     0
300
3/32" = 1'-0"
140
0.09375
141
12.0
290
     0
  0
SCALE
  5
25DA
102
{ACAD_REACTORS
330
25C3
102
}
330
25C3
100
AcDbScale
 70
     0
300
1/8" = 1'-0"
140
0.125
141
12.0
290
     0
  0
SCALE
  5
25DB
102
{ACAD_REACTORS
330
25C3
102
}
330
25C3
100
AcDbScale
 70
     0
300
3/16" = 1'-0"
140
0.1875
141
12.0
290
     0
  0
SCALE
  5
25DC
102
{ACAD_REACTORS
330
25C3
102
}
330
25C3
100
AcDbScale
 70
     0
300
1/4" = 1'-0"
140
0.25
141
12.0
290
     0
  0
SCALE
  5
25DD
102
{ACAD_REACTORS
330
25C3
102
}
330
25C3
100
AcDbScale
 70
     0
300
3/8" = 1'-0"
140
0.375
141
12.0
290
     0
  0
SCALE
  5
25DE
102
{ACAD_REACTORS
330
25C3
102
}
330
25C3
100
AcDbScale
 70
     0
300
1/2" = 1'-0"
140
0.5
141
12.0
290
     0
  0
SCALE
  5
25DF
102
{ACAD_REACTORS
330
25C3
102
}
330
25C3
100
AcDbScale
 70
     0
300
3/4" = 1'-0"
140
0.75
141
12.0
290
     0
  0
SCALE
  5
25E0
102
{ACAD_REACTORS
330
25C3
102
}
330
25C3
100
AcDbScale
 70
     0
300
1" = 1'-0"
140
1.0
141
12.0
290
     0
  0
SCALE
  5
25E1
102
{ACAD_REACTORS
330
25C3
102
}
330
25C3
100
AcDbScale
 70
     0
300
1-1/2" = 1'-0"
140
1.5
141
12.0
290
     0
  0
SCALE
  5
25E2
102
{ACAD_REACTORS
330
25C3
102
}
330
25C3
100
AcDbScale
 70
     0
300
3" = 1'-0"
140
3.0
141
12.0
290
     0
  0
SCALE
  5
25E3
102
{ACAD_REACTORS
330
25C3
102
}
330
25C3
100
AcDbScale
 70
     0
300
6" = 1'-0"
140
6.0
141
12.0
290
     0
  0
SCALE
  5
25E4
102
{ACAD_REACTORS
330
25C3
102
}
330
25C3
100
AcDbScale
 70
     0
300
1'-0" = 1'-0"
140
12.0
141
12.0
290
     0
  0
TABLESTYLE
  5
25C2
102
{ACAD_XDICTIONARY
360
26AF
102
}
102
{ACAD_REACTORS
330
25C1
102
}
330
25C1
100
AcDbTableStyle
  3
Standard
 70
     0
 71
     0
 40
1.5
 41
1.5
280
     0
281
     0
  7
STANDARD
140
4.5
170
     2
 62
     0
 63
     7
283
     0
 90
      512
 91
        0
  1

274
    -2
284
     1
 64
     0
275
    -2
285
     1
 65
     0
276
    -2
286
     1
 66
     0
277
    -2
287
     1
 67
     0
278
    -2
288
     1
 68
     0
279
    -2
289
     1
 69
     0
  7
STANDARD
140
6.0
170
     5
 62
     0
 63
     7
283
     0
 90
      512
 91
        0
  1

274
    -2
284
     1
 64
     0
275
    -2
285
     1
 65
     0
276
    -2
286
     1
 66
     0
277
    -2
287
     1
 67
     0
278
    -2
288
     1
 68
     0
279
    -2
289
     1
 69
     0
  7
STANDARD
140
4.5
170
     5
 62
     0
 63
     7
283
     0
 90
      512
 91
        0
  1

274
    -2
284
     1
 64
     0
275
    -2
285
     1
 65
     0
276
    -2
286
     1
 66
     0
277
    -2
287
     1
 67
     0
278
    -2
288
     1
 68
     0
279
    -2
289
     1
 69
     0
  0
VISUALSTYLE
  5
25B5
102
{ACAD_REACTORS
330
25AF
102
}
330
25AF
100
AcDbVisualStyle
  2
2dWireframe
 70
     4
 71
     0
 72
     2
 73
     0
 90
        0
 40
-0.6
 41
-30.0
 62
     5
 63
     7
421
 16777215
 74
     1
 91
        4
 64
     7
 65
   257
 75
     1
175
     1
 42
1.0
 92
        0
 66
   257
 43
1.0
 76
     1
 77
     6
 78
     2
 67
     7
 79
     5
170
     0
171
     0
290
     0
174
     0
 93
        1
 44
0.0
173
     0
291
     0
 45
0.0
  0
VISUALSTYLE
  5
25B7
102
{ACAD_REACTORS
330
25AF
102
}
330
25AF
100
AcDbVisualStyle
  2
3D Hidden
 70
     6
 71
     1
 72
     2
 73
     2
 90
        0
 40
-0.6
 41
-30.0
 62
     5
 63
     7
421
 16777215
 74
     2
 91
        2
 64
     7
 65
   257
 75
     2
175
     1
 42
40.0
 92
        0
 66
   257
 43
1.0
 76
     1
 77
     6
 78
     2
 67
     7
 79
     3
170
     0
171
     0
290
     0
174
     0
 93
        1
 44
0.0
173
     0
291
     0
 45
0.0
  0
VISUALSTYLE
  5
25B6
102
{ACAD_REACTORS
330
25AF
102
}
330
25AF
100
AcDbVisualStyle
  2
3dWireframe
 70
     5
 71
     0
 72
     2
 73
     0
 90
        0
 40
-0.6
 41
-30.0
 62
     5
 63
     7
421
 16777215
 74
     1
 91
        4
 64
     7
 65
   257
 75
     1
175
     1
 42
1.0
 92
        0
 66
   257
 43
1.0
 76
     1
 77
     6
 78
     2
 67
     7
 79
     5
170
     0
171
     0
290
     0
174
     0
 93
        1
 44
0.0
173
     0
291
     0
 45
0.0
  0
VISUALSTYLE
  5
25B4
102
{ACAD_REACTORS
330
25AF
102
}
330
25AF
100
AcDbVisualStyle
  2
Basic
 70
     7
 71
     1
 72
     0
 73
     1
 90
        0
 40
-0.6
 41
-30.0
 62
     5
 63
     7
421
 16777215
 74
     0
 91
        4
 64
     7
 65
   257
 75
     1
175
     1
 42
1.0
 92
        8
 66
     7
 43
1.0
 76
     1
 77
     6
 78
     2
 67
     7
 79
     5
170
     0
171
     0
290
     0
174
     0
 93
        1
 44
0.0
173
     0
291
     1
 45
0.0
  0
VISUALSTYLE
  5
25BB
102
{ACAD_REACTORS
330
25AF
102
}
330
25AF
100
AcDbVisualStyle
  2
Brighten
 70
    12
 71
     2
 72
     2
 73
     0
 90
        0
 40
-0.6
 41
-30.0
 62
     5
 63
     7
421
 16777215
 74
     1
 91
        4
 64
     7
 65
   257
 75
     1
175
     1
 42
1.0
 92
        8
 66
     7
 43
1.0
 76
     1
 77
     6
 78
     2
 67
     7
 79
     5
170
     0
171
     0
290
     0
174
     0
 93
        1
 44
50.0
173
     0
291
     1
 45
0.0
  0
VISUALSTYLE
  5
25BF
102
{ACAD_REACTORS
330
25AF
102
}
330
25AF
100
AcDbVisualStyle
  2
ColorChange
 70
    16
 71
     2
 72
     2
 73
     3
 90
        0
 40
-0.6
 41
-30.0
 62
     5
 63
     8
421
  8421504
 74
     1
 91
        4
 64
     7
 65
   257
 75
     1
175
     1
 42
1.0
 92
        8
 66
     8
424
  8421504
 43
1.0
 76
     1
 77
     6
 78
     2
 67
     7
 79
     5
170
     0
171
     0
290
     0
174
     0
 93
        1
 44
0.0
173
     0
291
     1
 45
0.0
  0
VISUALSTYLE
  5
25B8
102
{ACAD_REACTORS
330
25AF
102
}
330
25AF
100
AcDbVisualStyle
  2
Conceptual
 70
     9
 71
     3
 72
     2
 73
     0
 90
        0
 40
-0.6
 41
-30.0
 62
     5
 63
     7
421
 16777215
 74
     2
 91
        2
 64
     7
 65
   257
 75
     1
175
     1
 42
40.0
 92
        8
 66
     7
 43
1.0
 76
     1
 77
     6
 78
     2
 67
     7
 79
     3
170
     0
171
     0
290
     0
174
     0
 93
        1
 44
0.0
173
     0
291
     0
 45
0.0
  0
VISUALSTYLE
  5
25BA
102
{ACAD_REACTORS
330
25AF
102
}
330
25AF
100
AcDbVisualStyle
  2
Dim
 70
    11
 71
     2
 72
     2
 73
     0
 90
        0
 40
-0.6
 41
-30.0
 62
     5
 63
     7
421
 16777215
 74
     1
 91
        4
 64
     7
 65
   257
 75
     1
175
     1
 42
1.0
 92
        8
 66
     7
 43
1.0
 76
     1
 77
     6
 78
     2
 67
     7
 79
     5
170
     0
171
     0
290
     0
174
     0
 93
        1
 44
-50.0
173
     0
291
     1
 45
0.0
  0
VISUALSTYLE
  5
25BE
102
{ACAD_REACTORS
330
25AF
102
}
330
25AF
100
AcDbVisualStyle
  2
Facepattern
 70
    15
 71
     2
 72
     2
 73
     0
 90
        0
 40
-0.6
 41
-30.0
 62
     5
 63
     7
421
 16777215
 74
     1
 91
        4
 64
     7
 65
   257
 75
     1
175
     1
 42
1.0
 92
        8
 66
     7
 43
1.0
 76
     1
 77
     6
 78
     2
 67
     7
 79
     5
170
     0
171
     0
290
     0
174
     0
 93
        1
 44
0.0
173
     0
291
     1
 45
0.0
  0
VISUALSTYLE
  5
25B0
102
{ACAD_REACTORS
330
25AF
102
}
330
25AF
100
AcDbVisualStyle
  2
Flat
 70
     0
 71
     2
 72
     1
 73
     1
 90
        2
 40
-0.6
 41
30.0
 62
     5
 63
     7
421
 16777215
 74
     0
 91
        4
 64
     7
 65
   257
 75
     1
175
     1
 42
1.0
 92
        8
 66
     7
 43
1.0
 76
     1
 77
     6
 78
     2
 67
     7
 79
     5
170
     0
171
     0
290
     0
174
     0
 93
       13
 44
0.0
173
     0
291
     1
 45
0.0
  0
VISUALSTYLE
  5
25B1
102
{ACAD_REACTORS
330
25AF
102
}
330
25AF
100
AcDbVisualStyle
  2
FlatWithEdges
 70
     1
 71
     2
 72
     1
 73
     1
 90
        2
 40
-0.6
 41
30.0
 62
     5
 63
     7
421
 16777215
 74
     1
 91
        4
 64
     7
 65
   257
 75
     1
175
     1
 42
1.0
 92
        0
 66
   257
 43
1.0
 76
     1
 77
     6
 78
     2
 67
     7
 79
     5
170
     0
171
     0
290
     0
174
     0
 93
       13
 44
0.0
173
     0
291
     1
 45
0.0
  0
VISUALSTYLE
  5
25B2
102
{ACAD_REACTORS
330
25AF
102
}
330
25AF
100
AcDbVisualStyle
  2
Gouraud
 70
     2
 71
     2
 72
     2
 73
     1
 90
        2
 40
-0.6
 41
30.0
 62
     5
 63
     7
421
 16777215
 74
     0
 91
        4
 64
     7
 65
   257
 75
     1
175
     1
 42
1.0
 92
        0
 66
     7
 43
1.0
 76
     1
 77
     6
 78
     2
 67
     7
 79
     5
170
     0
171
     0
290
     0
174
     0
 93
       13
 44
0.0
173
     0
291
     1
 45
0.0
  0
VISUALSTYLE
  5
25B3
102
{ACAD_REACTORS
330
25AF
102
}
330
25AF
100
AcDbVisualStyle
  2
GouraudWithEdges
 70
     3
 71
     2
 72
     2
 73
     1
 90
        2
 40
-0.6
 41
30.0
 62
     5
 63
     7
421
 16777215
 74
     1
 91
        4
 64
     7
 65
   257
 75
     1
175
     1
 42
1.0
 92
        0
 66
   257
 43
1.0
 76
     1
 77
     6
 78
     2
 67
     7
 79
     5
170
     0
171
     0
290
     0
174
     0
 93
       13
 44
0.0
173
     0
291
     1
 45
0.0
  0
VISUALSTYLE
  5
25BD
102
{ACAD_REACTORS
330
25AF
102
}
330
25AF
100
AcDbVisualStyle
  2
Linepattern
 70
    14
 71
     2
 72
     2
 73
     0
 90
        0
 40
-0.6
 41
-30.0
 62
     5
 63
     7
421
 16777215
 74
     1
 91
        4
 64
     7
 65
   257
 75
     7
175
     7
 42
1.0
 92
        8
 66
     7
 43
1.0
 76
     1
 77
     6
 78
     2
 67
     7
 79
     5
170
     0
171
     0
290
     0
174
     0
 93
        1
 44
0.0
173
     0
291
     1
 45
0.0
  0
VISUALSTYLE
  5
25B9
102
{ACAD_REACTORS
330
25AF
102
}
330
25AF
100
AcDbVisualStyle
  2
Realistic
 70
     8
 71
     2
 72
     2
 73
     0
 90
        0
 40
-0.6
 41
-30.0
 62
     5
 63
     7
421
 16777215
 74
     1
 91
        0
 64
     7
 65
   257
 75
     1
175
     1
 42
1.0
 92
        8
 66
     8
424
  7895160
 43
1.0
 76
     1
 77
     6
 78
     2
 67
     7
 79
     5
170
     0
171
     0
290
     0
174
     0
 93
       13
 44
0.0
173
     0
291
     0
 45
0.0
  0
VISUALSTYLE
  5
25BC
102
{ACAD_REACTORS
330
25AF
102
}
330
25AF
100
AcDbVisualStyle
  2
Thicken
 70
    13
 71
     2
 72
     2
 73
     0
 90
        0
 40
-0.6
 41
-30.0
 62
     5
 63
     7
421
 16777215
 74
     1
 91
        4
 64
     7
 65
   257
 75
     1
175
     1
 42
1.0
 92
       12
 66
     7
 43
1.0
 76
     1
 77
     6
 78
     2
 67
     7
 79
     5
170
     0
171
     0
290
     0
174
     0
 93
        1
 44
0.0
173
     0
291
     1
 45
0.0
  0
DICTIONARYVAR
  5
26B5
102
{ACAD_REACTORS
330
5D
102
}
330
5D
100
DictionaryVariables
280
     0
  1
1:1
  0
DICTIONARYVAR
  5
26B3
102
{ACAD_REACTORS
330
5D
102
}
330
5D
100
DictionaryVariables
280
     0
  1
STANDARD
  0
DICTIONARYVAR
  5
26B2
102
{ACAD_REACTORS
330
5D
102
}
330
5D
100
DictionaryVariables
280
     0
  1
STANDARD
  0
DICTIONARYVAR
  5
5E
102
{ACAD_REACTORS
330
5D
102
}
330
5D
100
DictionaryVariables
280
     0
  1
0
  0
DICTIONARYVAR
  5
128
102
{ACAD_REACTORS
330
5D
102
}
330
5D
100
DictionaryVariables
280
     0
  1
1
  0
DICTIONARYVAR
  5
28B5
102
{ACAD_REACTORS
330
5D
102
}
330
5D
100
DictionaryVariables
280
     0
  1
1
  0
DICTIONARYVAR
  5
28B6
102
{ACAD_REACTORS
330
5D
102
}
330
5D
100
DictionaryVariables
280
     0
  1
15
  0
DICTIONARYVAR
  5
26B6
102
{ACAD_REACTORS
330
5D
102
}
330
5D
100
DictionaryVariables
280
     0
  1
0
  0
DICTIONARYVAR
  5
26B4
102
{ACAD_REACTORS
330
5D
102
}
330
5D
100
DictionaryVariables
280
     0
  1
0
  0
DICTIONARYVAR
  5
1044
102
{ACAD_REACTORS
330
5D
102
}
330
5D
100
DictionaryVariables
280
     0
  1
96
  0
DICTIONARY
  5
143
102
{ACAD_REACTORS
330
142
102
}
330
142
100
AcDbDictionary
281
     1
  0
XRECORD
  5
2633
102
{ACAD_REACTORS
330
142
102
}
330
142
100
AcDbXrecord
280
     1
 90
-1023410169
  0
DICTIONARY
  5
172
102
{ACAD_REACTORS
330
171
102
}
330
171
100
AcDbDictionary
281
     1
  3
DWGSETTINGS
350
173
  3
FEM
350
3A0
  3
Shaft
350
393
  3
TRANSSETTINGS
350
17D
  0
DICTIONARY
  5
18A9
102
{ACAD_REACTORS
330
18A8
102
}
330
18A8
100
AcDbDictionary
281
     1
  0
ACAMGFILTERDAT
  5
164B
102
{ACAD_REACTORS
330
1F2
102
}
330
1F2
100
AcAmgFilterDat
 70
    15
  1
DIMENSION,AMDT_*_DIM
  2
*
  3
*
  4
*
  5
*
290
     1
  0
ACAMGFILTERDAT
  5
164C
102
{ACAD_REACTORS
330
1F2
102
}
330
1F2
100
AcAmgFilterDat
 70
    15
  1
*
  2
AM_FEA-AM_*
  3
*
  4
*
  5
*
290
     1
  0
ACAMGFILTERDAT
  5
164D
102
{ACAD_REACTORS
330
1F2
102
}
330
1F2
100
AcAmgFilterDat
 70
    15
  1
HATCH
  2
*
  3
*
  4
*
  5
*
290
     1
  0
ACAMGFILTERDAT
  5
164E
102
{ACAD_REACTORS
330
1F2
102
}
330
1F2
100
AcAmgFilterDat
 70
    15
  1
ACMFCFRAME,ACMDATUMTARGET,ACMDATUMID,ACMWELDSYM,ACMSURFSYM,ACMFEATID,ACMPARTREF,ACMBALLOON
  2
*
  3
*
  4
*
  5
*
290
     1
  0
LAYER_INDEX
  5
2673
102
{ACAD_REACTORS
330
2672
102
}
330
2672
100
AcDbIndex
 40
2455121.601742361
100
AcDbLayerIndex
  8
0
360
2674
 90
        0
  8
AM_0
360
2675
 90
        0
  8
AM_1
360
2676
 90
        0
  8
AM_2
360
2677
 90
        0
  8
AM_3
360
2678
 90
        0
  8
AM_4
360
2679
 90
        0
  8
AM_5
360
267A
 90
        5
  8
AM_6
360
267B
 90
        1
  8
AM_7
360
267C
 90
        3
  8
AM_8
360
267D
 90
       24
  8
AM_FR
360
267E
 90
        0
  8
ASHADE
360
267F
 90
        9
  8
AM_WORK
360
2680
 90
        0
  8
AM_CL
360
2681
 90
        0
  8
Defpoints
360
2682
 90
        0
  8
ASRF_TMP
360
2683
 90
        0
  8
AM_VIEWS
360
2684
 90
        1
  8
AM_VIS
360
2685
 90
       23
  8
AM_HID
360
2686
 90
        0
  8
AM_PARDIM
360
2687
 90
        0
  8
AmdtBRLock
360
2688
 90
        0
  8
5
360
2689
 90
        0
  8
1
360
268A
 90
        0
  8
2
360
268B
 90
        0
  8
2A
360
268C
 90
        0
  8
6
360
268D
 90
        0
  8
7
360
268E
 90
        0
  8
RAHM5
360
268F
 90
        0
  8
7A
360
2690
 90
        0
  0
DICTIONARY
  5
25A0
330
259F
100
AcDbDictionary
280
     1
281
     1
  3
BUMPTILE
360
25A2
  3
DIFFUSETILE
360
25A1
  3
OPACITYTILE
360
25A5
  3
REFLECTIONTILE
360
25A4
  3
REFRACTIONTILE
360
25A6
  3
SPECULARTILE
360
25A3
  0
DICTIONARY
  5
2598
330
2597
100
AcDbDictionary
280
     1
281
     1
  3
BUMPTILE
360
259A
  3
DIFFUSETILE
360
2599
  3
OPACITYTILE
360
259D
  3
REFLECTIONTILE
360
259C
  3
REFRACTIONTILE
360
259E
  3
SPECULARTILE
360
259B
  0
DICTIONARY
  5
25A8
330
25A7
100
AcDbDictionary
280
     1
281
     1
  3
BUMPTILE
360
25AA
  3
DIFFUSETILE
360
25A9
  3
OPACITYTILE
360
25AD
  3
REFLECTIONTILE
360
25AC
  3
REFRACTIONTILE
360
25AE
  3
SPECULARTILE
360
25AB
  0
DICTIONARY
  5
26AF
330
25C2
100
AcDbDictionary
280
     1
281
     1
  3
ACAD_ROUNDTRIP_2008_TABLESTYLE_CELLSTYLEMAP
360
28B7
  0
IDBUFFER
  5
2674
330
0
100
AcDbIdBuffer
  0
IDBUFFER
  5
2675
330
0
100
AcDbIdBuffer
  0
IDBUFFER
  5
2676
330
0
100
AcDbIdBuffer
  0
IDBUFFER
  5
2677
330
0
100
AcDbIdBuffer
  0
IDBUFFER
  5
2678
330
0
100
AcDbIdBuffer
  0
IDBUFFER
  5
2679
330
0
100
AcDbIdBuffer
  0
IDBUFFER
  5
267A
330
0
100
AcDbIdBuffer
330
2703
330
2735
330
2766
330
2798
330
283E
  0
IDBUFFER
  5
267B
330
0
100
AcDbIdBuffer
330
2700
  0
IDBUFFER
  5
267C
330
0
100
AcDbIdBuffer
330
26F1
330
27FE
330
281D
  0
IDBUFFER
  5
267D
330
0
100
AcDbIdBuffer
330
2867
330
2868
330
2869
330
286A
330
286B
330
286C
330
286D
330
286E
330
286F
330
2870
330
2871
330
2872
330
2879
330
287A
330
287B
330
287C
330
287D
330
287E
330
287F
330
2880
330
2881
330
2882
330
2883
330
2884
  0
IDBUFFER
  5
267E
330
0
100
AcDbIdBuffer
  0
IDBUFFER
  5
267F
330
0
100
AcDbIdBuffer
330
3FB
330
3FC
330
3FD
330
3FE
330
3FF
330
400
330
401
330
402
330
409
  0
IDBUFFER
  5
2680
330
0
100
AcDbIdBuffer
  0
IDBUFFER
  5
2681
330
0
100
AcDbIdBuffer
  0
IDBUFFER
  5
2682
330
0
100
AcDbIdBuffer
  0
IDBUFFER
  5
2683
330
0
100
AcDbIdBuffer
  0
IDBUFFER
  5
2684
330
0
100
AcDbIdBuffer
330
1DC9
  0
IDBUFFER
  5
2685
330
0
100
AcDbIdBuffer
330
26F2
330
26F3
330
26F4
330
26F5
330
26F6
330
26F7
330
26F8
330
26F9
330
26FA
330
26FB
330
26FC
330
26FD
330
26FE
330
2800
330
2801
330
2802
330
2817
330
281A
330
2874
330
2875
330
2876
330
2877
330
2878
  0
IDBUFFER
  5
2686
330
0
100
AcDbIdBuffer
  0
IDBUFFER
  5
2687
330
0
100
AcDbIdBuffer
  0
IDBUFFER
  5
2688
330
0
100
AcDbIdBuffer
  0
IDBUFFER
  5
2689
330
0
100
AcDbIdBuffer
  0
IDBUFFER
  5
268A
330
0
100
AcDbIdBuffer
  0
IDBUFFER
  5
268B
330
0
100
AcDbIdBuffer
  0
IDBUFFER
  5
268C
330
0
100
AcDbIdBuffer
  0
IDBUFFER
  5
268D
330
0
100
AcDbIdBuffer
  0
IDBUFFER
  5
268E
330
0
100
AcDbIdBuffer
  0
IDBUFFER
  5
268F
330
0
100
AcDbIdBuffer
  0
IDBUFFER
  5
2690
330
0
100
AcDbIdBuffer
  0
XRECORD
  5
25A2
102
{ACAD_REACTORS
330
25A0
102
}
330
25A0
100
AcDbXrecord
280
     1
270
     1
271
     1
  0
XRECORD
  5
25A1
102
{ACAD_REACTORS
330
25A0
102
}
330
25A0
100
AcDbXrecord
280
     1
270
     1
271
     1
  0
XRECORD
  5
25A5
102
{ACAD_REACTORS
330
25A0
102
}
330
25A0
100
AcDbXrecord
280
     1
270
     1
271
     1
  0
XRECORD
  5
25A4
102
{ACAD_REACTORS
330
25A0
102
}
330
25A0
100
AcDbXrecord
280
     1
270
     1
271
     1
  0
XRECORD
  5
25A6
102
{ACAD_REACTORS
330
25A0
102
}
330
25A0
100
AcDbXrecord
280
     1
270
     1
271
     1
  0
XRECORD
  5
25A3
102
{ACAD_REACTORS
330
25A0
102
}
330
25A0
100
AcDbXrecord
280
     1
270
     1
271
     1
  0
XRECORD
  5
259A
102
{ACAD_REACTORS
330
2598
102
}
330
2598
100
AcDbXrecord
280
     1
270
     1
271
     1
  0
XRECORD
  5
2599
102
{ACAD_REACTORS
330
2598
102
}
330
2598
100
AcDbXrecord
280
     1
270
     1
271
     1
  0
XRECORD
  5
259D
102
{ACAD_REACTORS
330
2598
102
}
330
2598
100
AcDbXrecord
280
     1
270
     1
271
     1
  0
XRECORD
  5
259C
102
{ACAD_REACTORS
330
2598
102
}
330
2598
100
AcDbXrecord
280
     1
270
     1
271
     1
  0
XRECORD
  5
259E
102
{ACAD_REACTORS
330
2598
102
}
330
2598
100
AcDbXrecord
280
     1
270
     1
271
     1
  0
XRECORD
  5
259B
102
{ACAD_REACTORS
330
2598
102
}
330
2598
100
AcDbXrecord
280
     1
270
     1
271
     1
  0
XRECORD
  5
25AA
102
{ACAD_REACTORS
330
25A8
102
}
330
25A8
100
AcDbXrecord
280
     1
270
     1
271
     1
  0
XRECORD
  5
25A9
102
{ACAD_REACTORS
330
25A8
102
}
330
25A8
100
AcDbXrecord
280
     1
270
     1
271
     1
  0
XRECORD
  5
25AD
102
{ACAD_REACTORS
330
25A8
102
}
330
25A8
100
AcDbXrecord
280
     1
270
     1
271
     1
  0
XRECORD
  5
25AC
102
{ACAD_REACTORS
330
25A8
102
}
330
25A8
100
AcDbXrecord
280
     1
270
     1
271
     1
  0
XRECORD
  5
25AE
102
{ACAD_REACTORS
330
25A8
102
}
330
25A8
100
AcDbXrecord
280
     1
270
     1
271
     1
  0
XRECORD
  5
25AB
102
{ACAD_REACTORS
330
25A8
102
}
330
25A8
100
AcDbXrecord
280
     1
270
     1
271
     1
  0
CELLSTYLEMAP
  5
28B7
102
{ACAD_REACTORS
330
26AF
102
}
330
26AF
100
AcDbCellStyleMap
 90
        3
300
CELLSTYLE
  1
TABLEFORMAT_BEGIN
 90
        5
170
     1
 91
        0
 92
    32768
 62
   257
 93
        1
300
CONTENTFORMAT
  1
CONTENTFORMAT_BEGIN
 90
        0
 91
        0
 92
      512
 93
        0
300

 40
0.0
140
1.0
 94
        5
 62
     0
340
10
144
6.0
309
CONTENTFORMAT_END
171
     1
301
MARGIN
  1
CELLMARGIN_BEGIN
 40
1.5
 40
1.5
 40
1.5
 40
1.5
 40
4.5
 40
4.5
309
CELLMARGIN_END
 94
        6
 95
        1
302
GRIDFORMAT
  1
GRIDFORMAT_BEGIN
 90
        0
 91
        1
 62
     0
 92
       -2
340
0
 93
        0
 40
1.125
309
GRIDFORMAT_END
 95
        2
302
GRIDFORMAT
  1
GRIDFORMAT_BEGIN
 90
        0
 91
        1
 62
     0
 92
       -2
340
0
 93
        0
 40
1.125
309
GRIDFORMAT_END
 95
        4
302
GRIDFORMAT
  1
GRIDFORMAT_BEGIN
 90
        0
 91
        1
 62
     0
 92
       -2
340
0
 93
        0
 40
1.125
309
GRIDFORMAT_END
 95
        8
302
GRIDFORMAT
  1
GRIDFORMAT_BEGIN
 90
        0
 91
        1
 62
     0
 92
       -2
340
0
 93
        0
 40
1.125
309
GRIDFORMAT_END
 95
       16
302
GRIDFORMAT
  1
GRIDFORMAT_BEGIN
 90
        0
 91
        1
 62
     0
 92
       -2
340
0
 93
        0
 40
1.125
309
GRIDFORMAT_END
 95
       32
302
GRIDFORMAT
  1
GRIDFORMAT_BEGIN
 90
        0
 91
        1
 62
     0
 92
       -2
340
0
 93
        0
 40
1.125
309
GRIDFORMAT_END
309
TABLEFORMAT_END
  1
CELLSTYLE_BEGIN
 90
        1
 91
        1
300
_TITLE
309
CELLSTYLE_END
300
CELLSTYLE
  1
TABLEFORMAT_BEGIN
 90
        5
170
     1
 91
        0
 92
        0
 62
   257
 93
        1
300
CONTENTFORMAT
  1
CONTENTFORMAT_BEGIN
 90
        0
 91
        0
 92
      512
 93
        0
300

 40
0.0
140
1.0
 94
        5
 62
     0
340
10
144
4.5
309
CONTENTFORMAT_END
171
     1
301
MARGIN
  1
CELLMARGIN_BEGIN
 40
1.5
 40
1.5
 40
1.5
 40
1.5
 40
4.5
 40
4.5
309
CELLMARGIN_END
 94
        6
 95
        1
302
GRIDFORMAT
  1
GRIDFORMAT_BEGIN
 90
        0
 91
        1
 62
     0
 92
       -2
340
0
 93
        0
 40
1.125
309
GRIDFORMAT_END
 95
        2
302
GRIDFORMAT
  1
GRIDFORMAT_BEGIN
 90
        0
 91
        1
 62
     0
 92
       -2
340
0
 93
        0
 40
1.125
309
GRIDFORMAT_END
 95
        4
302
GRIDFORMAT
  1
GRIDFORMAT_BEGIN
 90
        0
 91
        1
 62
     0
 92
       -2
340
0
 93
        0
 40
1.125
309
GRIDFORMAT_END
 95
        8
302
GRIDFORMAT
  1
GRIDFORMAT_BEGIN
 90
        0
 91
        1
 62
     0
 92
       -2
340
0
 93
        0
 40
1.125
309
GRIDFORMAT_END
 95
       16
302
GRIDFORMAT
  1
GRIDFORMAT_BEGIN
 90
        0
 91
        1
 62
     0
 92
       -2
340
0
 93
        0
 40
1.125
309
GRIDFORMAT_END
 95
       32
302
GRIDFORMAT
  1
GRIDFORMAT_BEGIN
 90
        0
 91
        1
 62
     0
 92
       -2
340
0
 93
        0
 40
1.125
309
GRIDFORMAT_END
309
TABLEFORMAT_END
  1
CELLSTYLE_BEGIN
 90
        2
 91
        1
300
_HEADER
309
CELLSTYLE_END
300
CELLSTYLE
  1
TABLEFORMAT_BEGIN
 90
        5
170
     1
 91
        0
 92
        0
 62
   257
 93
        1
300
CONTENTFORMAT
  1
CONTENTFORMAT_BEGIN
 90
        0
 91
        0
 92
      512
 93
        0
300

 40
0.0
140
1.0
 94
        2
 62
     0
340
10
144
4.5
309
CONTENTFORMAT_END
171
     1
301
MARGIN
  1
CELLMARGIN_BEGIN
 40
1.5
 40
1.5
 40
1.5
 40
1.5
 40
4.5
 40
4.5
309
CELLMARGIN_END
 94
        6
 95
        1
302
GRIDFORMAT
  1
GRIDFORMAT_BEGIN
 90
        0
 91
        1
 62
     0
 92
       -2
340
0
 93
        0
 40
1.125
309
GRIDFORMAT_END
 95
        2
302
GRIDFORMAT
  1
GRIDFORMAT_BEGIN
 90
        0
 91
        1
 62
     0
 92
       -2
340
0
 93
        0
 40
1.125
309
GRIDFORMAT_END
 95
        4
302
GRIDFORMAT
  1
GRIDFORMAT_BEGIN
 90
        0
 91
        1
 62
     0
 92
       -2
340
0
 93
        0
 40
1.125
309
GRIDFORMAT_END
 95
        8
302
GRIDFORMAT
  1
GRIDFORMAT_BEGIN
 90
        0
 91
        1
 62
     0
 92
       -2
340
0
 93
        0
 40
1.125
309
GRIDFORMAT_END
 95
       16
302
GRIDFORMAT
  1
GRIDFORMAT_BEGIN
 90
        0
 91
        1
 62
     0
 92
       -2
340
0
 93
        0
 40
1.125
309
GRIDFORMAT_END
 95
       32
302
GRIDFORMAT
  1
GRIDFORMAT_BEGIN
 90
        0
 91
        1
 62
     0
 92
       -2
340
0
 93
        0
 40
1.125
309
GRIDFORMAT_END
309
TABLEFORMAT_END
  1
CELLSTYLE_BEGIN
 90
        3
 91
        2
300
_DATA
309
CELLSTYLE_END
  0
ENDSEC
  0
EOF
