  0
SECTION
  2
HEADER
  9
$ACADVER
  1
AC1021
  9
$ACADMAINTVER
 70
    52
  9
$DWGCODEPAGE
  3
ANSI_1252
  9
$LASTSAVEDBY
  1
bup
  9
$CUSTOMPROPERTYTAG
  1
AmdtFileType
  9
$CUSTOMPROPERTY
  1
83
  9
$INSBASE
 10
0.0
 20
0.0
 30
0.0
  9
$EXTMIN
 10
-9.045762499763554
 20
-12.22754789266764
 30
0.0
  9
$EXTMAX
 10
359.4041011814528
 20
305.255061680507
 30
0.0
  9
$LIMMIN
 10
0.0
 20
0.0
  9
$LIMMAX
 10
420.0
 20
297.0
  9
$ORTHOMODE
 70
     0
  9
$REGENMODE
 70
     1
  9
$FILLMODE
 70
     1
  9
$QTEXTMODE
 70
     0
  9
$MIRRTEXT
 70
     1
  9
$LTSCALE
 40
1.0
  9
$ATTMODE
 70
     1
  9
$TEXTSIZE
 40
3.5
  9
$TRACEWID
 40
1.0
  9
$TEXTSTYLE
  7
STANDARD
  9
$CLAYER
  8
7
  9
$CELTYPE
  6
BYLAYER
  9
$CECOLOR
 62
   256
  9
$CELTSCALE
 40
1.0
  9
$DISPSILH
 70
     0
  9
$DIMSCALE
 40
2.0
  9
$DIMASZ
 40
3.0
  9
$DIMEXO
 40
0.0
  9
$DIMDLI
 40
10.0
  9
$DIMRND
 40
0.0
  9
$DIMDLE
 40
0.0
  9
$DIMEXE
 40
1.0
  9
$DIMTP
 40
0.1
  9
$DIMTM
 40
0.1
  9
$DIMTXT
 40
3.5
  9
$DIMCEN
 40
0.0
  9
$DIMTSZ
 40
0.0
  9
$DIMTOL
 70
     0
  9
$DIMLIM
 70
     0
  9
$DIMTIH
 70
     0
  9
$DIMTOH
 70
     0
  9
$DIMSE1
 70
     0
  9
$DIMSE2
 70
     0
  9
$DIMTAD
 70
     1
  9
$DIMZIN
 70
     8
  9
$DIMBLK
  1

  9
$DIMASO
 70
     1
  9
$DIMSHO
 70
     1
  9
$DIMPOST
  1

  9
$DIMAPOST
  1
"
  9
$DIMALT
 70
     0
  9
$DIMALTD
 70
     2
  9
$DIMALTF
 40
0.0393701
  9
$DIMLFAC
 40
1.0
  9
$DIMTOFL
 70
     1
  9
$DIMTVP
 40
0.0
  9
$DIMTIX
 70
     0
  9
$DIMSOXD
 70
     0
  9
$DIMSAH
 70
     0
  9
$DIMBLK1
  1

  9
$DIMBLK2
  1

  9
$DIMSTYLE
  2
AM_ISO
  9
$DIMCLRD
 70
   256
  9
$DIMCLRE
 70
   256
  9
$DIMCLRT
 70
     2
  9
$DIMTFAC
 40
0.71
  9
$DIMGAP
 40
1.5
  9
$DIMJUST
 70
     0
  9
$DIMSD1
 70
     0
  9
$DIMSD2
 70
     0
  9
$DIMTOLJ
 70
     0
  9
$DIMTZIN
 70
     0
  9
$DIMALTZ
 70
     0
  9
$DIMALTTZ
 70
     0
  9
$DIMUPT
 70
     0
  9
$DIMDEC
 70
     0
  9
$DIMTDEC
 70
     2
  9
$DIMALTU
 70
     2
  9
$DIMALTTD
 70
     2
  9
$DIMTXSTY
  7
STANDARD
  9
$DIMAUNIT
 70
     0
  9
$DIMADEC
 70
     0
  9
$DIMALTRND
 40
0.0
  9
$DIMAZIN
 70
     2
  9
$DIMDSEP
 70
    46
  9
$DIMATFIT
 70
     3
  9
$DIMFRAC
 70
     0
  9
$DIMLDRBLK
  1

  9
$DIMLUNIT
 70
     2
  9
$DIMLWD
 70
    -1
  9
$DIMLWE
 70
    -1
  9
$DIMTMOVE
 70
     0
  9
$DIMFXL
 40
1.0
  9
$DIMFXLON
 70
     0
  9
$DIMJOGANG
 40
0.7853981633974483
  9
$DIMTFILL
 70
     0
  9
$DIMTFILLCLR
 70
     0
  9
$DIMARCSYM
 70
     0
  9
$DIMLTYPE
  6

  9
$DIMLTEX1
  6

  9
$DIMLTEX2
  6

  9
$LUNITS
 70
     2
  9
$LUPREC
 70
     4
  9
$SKETCHINC
 40
1.0
  9
$FILLETRAD
 40
0.0
  9
$AUNITS
 70
     0
  9
$AUPREC
 70
     2
  9
$MENU
  1
.
  9
$ELEVATION
 40
0.0
  9
$PELEVATION
 40
0.0
  9
$THICKNESS
 40
0.0
  9
$LIMCHECK
 70
     0
  9
$CHAMFERA
 40
10.0
  9
$CHAMFERB
 40
10.0
  9
$CHAMFERC
 40
20.0
  9
$CHAMFERD
 40
0.0
  9
$SKPOLY
 70
     1
  9
$TDCREATE
 40
2452060.512110868
  9
$TDUCREATE
 40
2452060.470444202
  9
$TDUPDATE
 40
2454866.347162686
  9
$TDUUPDATE
 40
2454866.305496018
  9
$TDINDWG
 40
0.2037901968
  9
$TDUSRTIMER
 40
0.2037900810
  9
$USRTIMER
 70
     1
  9
$ANGBASE
 50
0.0
  9
$ANGDIR
 70
     0
  9
$PDMODE
 70
     0
  9
$PDSIZE
 40
0.0
  9
$PLINEWID
 40
0.0
  9
$SPLFRAME
 70
     0
  9
$SPLINETYPE
 70
     6
  9
$SPLINESEGS
 70
    16
  9
$HANDSEED
  5
5049
  9
$SURFTAB1
 70
     6
  9
$SURFTAB2
 70
     6
  9
$SURFTYPE
 70
     6
  9
$SURFU
 70
     6
  9
$SURFV
 70
     6
  9
$UCSBASE
  2

  9
$UCSNAME
  2

  9
$UCSORG
 10
0.0
 20
0.0
 30
0.0
  9
$UCSXDIR
 10
1.0
 20
0.0
 30
0.0
  9
$UCSYDIR
 10
0.0
 20
1.0
 30
0.0
  9
$UCSORTHOREF
  2

  9
$UCSORTHOVIEW
 70
     0
  9
$UCSORGTOP
 10
0.0
 20
0.0
 30
0.0
  9
$UCSORGBOTTOM
 10
0.0
 20
0.0
 30
0.0
  9
$UCSORGLEFT
 10
0.0
 20
0.0
 30
0.0
  9
$UCSORGRIGHT
 10
0.0
 20
0.0
 30
0.0
  9
$UCSORGFRONT
 10
0.0
 20
0.0
 30
0.0
  9
$UCSORGBACK
 10
0.0
 20
0.0
 30
0.0
  9
$PUCSBASE
  2

  9
$PUCSNAME
  2

  9
$PUCSORG
 10
0.0
 20
0.0
 30
0.0
  9
$PUCSXDIR
 10
1.0
 20
0.0
 30
0.0
  9
$PUCSYDIR
 10
0.0
 20
1.0
 30
0.0
  9
$PUCSORTHOREF
  2

  9
$PUCSORTHOVIEW
 70
     0
  9
$PUCSORGTOP
 10
0.0
 20
0.0
 30
0.0
  9
$PUCSORGBOTTOM
 10
0.0
 20
0.0
 30
0.0
  9
$PUCSORGLEFT
 10
0.0
 20
0.0
 30
0.0
  9
$PUCSORGRIGHT
 10
0.0
 20
0.0
 30
0.0
  9
$PUCSORGFRONT
 10
0.0
 20
0.0
 30
0.0
  9
$PUCSORGBACK
 10
0.0
 20
0.0
 30
0.0
  9
$USERI1
 70
     0
  9
$USERI2
 70
     0
  9
$USERI3
 70
     0
  9
$USERI4
 70
     0
  9
$USERI5
 70
     0
  9
$USERR1
 40
0.0
  9
$USERR2
 40
0.0
  9
$USERR3
 40
0.0
  9
$USERR4
 40
0.0
  9
$USERR5
 40
0.0
  9
$WORLDVIEW
 70
     1
  9
$SHADEDGE
 70
     3
  9
$SHADEDIF
 70
    70
  9
$TILEMODE
 70
     1
  9
$MAXACTVP
 70
    48
  9
$PINSBASE
 10
0.0
 20
0.0
 30
0.0
  9
$PLIMCHECK
 70
     0
  9
$PEXTMIN
 10
1.000000000000000E+20
 20
1.000000000000000E+20
 30
1.000000000000000E+20
  9
$PEXTMAX
 10
-1.000000000000000E+20
 20
-1.000000000000000E+20
 30
-1.000000000000000E+20
  9
$PLIMMIN
 10
-5.027083396911621
 20
-5.111741065979003
  9
$PLIMMAX
 10
204.9885873794556
 20
291.8989095687866
  9
$UNITMODE
 70
     0
  9
$VISRETAIN
 70
     1
  9
$PLINEGEN
 70
     0
  9
$PSLTSCALE
 70
     1
  9
$TREEDEPTH
 70
  3020
  9
$CMLSTYLE
  2
STANDARD
  9
$CMLJUST
 70
     0
  9
$CMLSCALE
 40
1.0
  9
$PROXYGRAPHICS
 70
     1
  9
$MEASUREMENT
 70
     1
  9
$CELWEIGHT
370
    -1
  9
$ENDCAPS
280
     0
  9
$JOINSTYLE
280
     0
  9
$LWDISPLAY
290
     0
  9
$INSUNITS
 70
     0
  9
$HYPERLINKBASE
  1

  9
$STYLESHEET
  1
LAA4.ctb
  9
$XEDIT
290
     1
  9
$CEPSNTYPE
380
     0
  9
$PSTYLEMODE
290
     1
  9
$FINGERPRINTGUID
  2
{9DE0F4BE-022B-11D3-8698-0060B085A428}
  9
$VERSIONGUID
  2
{F945D680-318D-4BA9-BCE9-38F81A9E66F4}
  9
$EXTNAMES
290
     1
  9
$PSVPSCALE
 40
0.0
  9
$OLESTARTUP
290
     0
  9
$SORTENTS
280
    96
  9
$INDEXCTL
280
     1
  9
$HIDETEXT
280
     0
  9
$XCLIPFRAME
290
     0
  9
$HALOGAP
280
     0
  9
$OBSCOLOR
 70
   257
  9
$OBSLTYPE
280
     0
  9
$INTERSECTIONDISPLAY
280
     0
  9
$INTERSECTIONCOLOR
 70
   257
  9
$DIMASSOC
280
     2
  9
$PROJECTNAME
  1

  9
$CAMERADISPLAY
290
     0
  9
$LENSLENGTH
 40
50.0
  9
$CAMERAHEIGHT
 40
0.0
  9
$STEPSPERSEC
 40
2.0
  9
$STEPSIZE
 40
6.0
  9
$3DDWFPREC
 40
2.0
  9
$PSOLWIDTH
 40
0.25
  9
$PSOLHEIGHT
 40
4.0
  9
$LOFTANG1
 40
1.570796326794896
  9
$LOFTANG2
 40
1.570796326794896
  9
$LOFTMAG1
 40
0.0
  9
$LOFTMAG2
 40
0.0
  9
$LOFTPARAM
 70
     7
  9
$LOFTNORMALS
280
     1
  9
$LATITUDE
 40
37.795
  9
$LONGITUDE
 40
-122.394
  9
$NORTHDIRECTION
 40
0.0
  9
$TIMEZONE
 70
 -8000
  9
$LIGHTGLYPHDISPLAY
280
     1
  9
$TILEMODELIGHTSYNCH
280
     1
  9
$CMATERIAL
347
23BD
  9
$SOLIDHIST
280
     1
  9
$SHOWHIST
280
     1
  9
$DWFFRAME
280
     2
  9
$DGNFRAME
280
     0
  9
$REALWORLDSCALE
290
     1
  9
$INTERFERECOLOR
 62
     1
  9
$INTERFEREOBJVS
345
23CA
  9
$INTERFEREVPVS
346
23C7
  9
$CSHADOW
280
     0
  9
$SHADOWPLANELOCATION
 40
0.0
  0
ENDSEC
  0
SECTION
  2
CLASSES
  0
CLASS
  1
DICTIONARYVAR
  2
AcDbDictionaryVar
  3
ObjectDBX Classes
 90
        0
 91
       11
280
     0
281
     0
  0
CLASS
  1
ACMESTATEMGR
  2
AcMeStateMgr
  3
AcMeServices
 90
     1024
 91
        1
280
     0
281
     0
  0
CLASS
  1
ACMESCOPE
  2
AcMeScope
  3
AcMeServices
 90
     1024
 91
        1
280
     0
281
     0
  0
CLASS
  1
ACMECOMMANDHISTORY
  2
AcMeCommandHistory
  3
AcMeServices
 90
     1024
 91
        1
280
     0
281
     0
  0
CLASS
  1
ACRFINSADJUSTERMGR
  2
AcRfInsAdjusterMgr
  3
AcMeServices
 90
     1024
 91
        1
280
     0
281
     0
  0
CLASS
  1
ACMEDRAWINGMAN
  2
AcMeDrawingMan
  3
AcMeServices
 90
     1024
 91
        1
280
     0
281
     0
  0
CLASS
  1
AMATTR
  2
AcMeAttribute
  3
AcMeServices
 90
     1024
 91
        0
280
     0
281
     0
  0
CLASS
  1
ACMEBOMCOLUMN
  2
AcMeBOMColumn
  3
AcMeServices
 90
     1024
 91
        0
280
     0
281
     0
  0
CLASS
  1
ACMEBOMCONF
  2
AcMeBOMConf
  3
AcMeServices
 90
     1024
 91
        0
280
     0
281
     0
  0
CLASS
  1
ACMEBOMTABLE
  2
AcMeBOMTable
  3
AcMeServices
 90
     1024
 91
        0
280
     0
281
     0
  0
CLASS
  1
ACMEBOMENTRY
  2
AcMeBOMEntry
  3
AcMeServices
 90
     1024
 91
        0
280
     0
281
     0
  0
CLASS
  1
ACMEVIEW
  2
AcMeView
  3
AcMeServices
 90
     1024
 91
        0
280
     0
281
     0
  0
CLASS
  1
ACGREFMASTER
  2
AcGrefMaster
  3
AcAttribServices
 90
     1024
 91
        1
280
     0
281
     0
  0
CLASS
  1
AMIMASTER
  2
AmiMaster
  3
AmiServices
 90
     1024
 91
        1
280
     0
281
     0
  0
CLASS
  1
ACASGREFMASTER
  2
AcAsGrefMaster
  3
AutoSurfResolverServices
 90
     1024
 91
        1
280
     0
281
     0
  0
CLASS
  1
ADAPPL
  2
AcAdAppl
  3
DesignerServices
 90
     1024
 91
        1
280
     0
281
     0
  0
CLASS
  1
DEPMGR
  2
AcAdDepMgr
  3
DesignerServices
 90
     1024
 91
        1
280
     0
281
     0
  0
CLASS
  1
PARAMMGR
  2
AcAdParamMgr
  3
DesignerServices
 90
     1024
 91
        1
280
     0
281
     0
  0
CLASS
  1
PARAMSCOPE
  2
AcAdParamScope
  3
DesignerServices
 90
     1024
 91
        3
280
     0
281
     0
  0
CLASS
  1
ACIMSYSVARMAN
  2
AcImSysVarManager
  3
AcMeServices
 90
     1024
 91
        6
280
     0
281
     0
  0
CLASS
  1
ACIMINTSYSVAR
  2
AcImIntSysVar
  3
AcMeServices
 90
     1024
 91
       48
280
     0
281
     0
  0
CLASS
  1
ACIMREALSYSVAR
  2
AcImRealSysVar
  3
AcMeServices
 90
     1024
 91
       16
280
     0
281
     0
  0
CLASS
  1
ACIMSTRSYSVAR
  2
AcImStrSysVar
  3
AcMeServices
 90
     1024
 91
       14
280
     0
281
     0
  0
CLASS
  1
NAMEDAPPL
  2
AcAdNamedAppl
  3
DesignerServices
 90
     1024
 91
        1
280
     0
281
     0
  0
CLASS
  1
ADHNTMPLT
  2
AdHoleNoteTemplateMgr
  3
DesignerServices
 90
     1024
 91
        0
280
     0
281
     0
  0
CLASS
  1
AM_HNTEMPLATE_MGR_NAME
  2
AdHoleNoteTemplateMgrName
  3
DesignerServices
 90
     1024
 91
        0
280
     0
281
     0
  0
CLASS
  1
ACADGREFMODULE
  2
AcAdGrefModule
  3
AdGrefServices
 90
     1024
 91
        1
280
     0
281
     0
  0
CLASS
  1
AM_DRAWING_MGR
  2
AcDmDwgMgr
  3
AcMechDwgViewMgmt
 90
     1024
 91
        1
280
     0
281
     0
  0
CLASS
  1
AM_DWG_DOCUMENT
  2
AcDmDwgDocument
  3
AcMechDwgViewMgmt
 90
     1024
 91
        1
280
     0
281
     0
  0
CLASS
  1
AM_DWG_SHEET
  2
AcDmSheet
  3
AcMechDwgViewMgmt
 90
     1024
 91
        5
280
     0
281
     0
  0
CLASS
  1
AM_VIEWDIMPARMAP
  2
AcDmViewDimParMap
  3
AcMechDwgViewMgmt
 90
     1024
 91
        5
280
     0
281
     0
  0
CLASS
  1
AM_DWGMGR_NAME
  2
AcDmDwgMgrName
  3
AcMechDwgViewMgmt
 90
     1024
 91
        1
280
     0
281
     0
  0
CLASS
  1
ACAMPROJECT
  2
AcAmProject
  3
DesignerAssemblies
 90
     1024
 91
        1
280
     0
281
     0
  0
CLASS
  1
ACAMGRCOMPSET
  2
AcAmGrCompSet
  3
DesignerAssemblies
 90
        0
 91
        0
280
     0
281
     0
  0
CLASS
  1
ACAMGRCOMPDEFSET
  2
AcAmGrCompDefSet
  3
DesignerAssemblies
 90
     1024
 91
        1
280
     0
281
     0
  0
CLASS
  1
ACAMGRCOMPDEF
  2
AcAmGrCompDef
  3
DesignerAssemblies
 90
     1024
 91
        2
280
     0
281
     0
  0
CLASS
  1
ACCMCONTEXT
  2
AcCmContext
  3
DesignerAssemblies
 90
     1024
 91
        2
280
     0
281
     0
  0
CLASS
  1
ACAMCOMPDEF
  2
AcAmCompDef
  3
DesignerAssemblies
 90
     1024
 91
        2
280
     0
281
     0
  0
CLASS
  1
ACAMCOMPDEFMGR
  2
AcAmCompDefMgr
  3
DesignerAssemblies
 90
     1024
 91
        1
280
     0
281
     0
  0
CLASS
  1
AMCONTEXTMGR
  2
AcAmContextMgr
  3
DesignerAssemblies
 90
     1024
 91
        1
280
     0
281
     0
  0
CLASS
  1
ACAMCONTEXTMODELER
  2
AcAmContextModeler
  3
DesignerAssemblies
 90
     1024
 91
        0
280
     0
281
     0
  0
CLASS
  1
ACDMVIEWGEOM
  2
AcDmViewGeometry
  3
AcMechDwgViewMgmt
 90
     1024
 91
        1
280
     0
281
     1
  0
CLASS
  1
CBROWSERAPPOBJECT
  2
CBrowserAppObject
  3
McadcomServices
 90
     1024
 91
        3
280
     0
281
     0
  0
CLASS
  1
IM_STATIC_MAN
  2
AcImStaticVarManager
  3
AcMeServices
 90
     1024
 91
        1
280
     0
281
     0
  0
CLASS
  1
ASAPP
  2
AcAsAppObject
  3
AutoSurfServices
 90
     1024
 91
        1
280
     0
281
     0
  0
CLASS
  1
ACIMDBLSTATICVAR
  2
AcImDblStaticVar
  3
AcMeServices
 90
     1024
 91
       22
280
     0
281
     0
  0
CLASS
  1
ACIMSTRSTATICVAR
  2
AcImStrStaticVar
  3
AcMeServices
 90
     1024
 91
       13
280
     0
281
     0
  0
CLASS
  1
ACIMINTSTATICVAR
  2
AcImIntStaticVar
  3
AcMeServices
 90
     1024
 91
       17
280
     0
281
     0
  0
CLASS
  1
CATALOGSTATE
  2
AcAmCatalogState
  3
DesignerAssemblies
 90
     1024
 91
        1
280
     0
281
     0
  0
CLASS
  1
DM_PLACEHOLDER
  2
AcDmSelsetPlaceholder
  3
AcMechDwgViewMgmt
 90
     1024
 91
        1
280
     0
281
     0
  0
CLASS
  1
LAYER_INDEX
  2
AcDbLayerIndex
  3
ObjectDBX Classes
 90
        0
 91
        1
280
     0
281
     0
  0
CLASS
  1
IDBUFFER
  2
AcDbIdBuffer
  3
ObjectDBX Classes
 90
        0
 91
       30
280
     0
281
     0
  0
CLASS
  1
ACMSTANDARDJIS
  2
AcmStandardJIS
  3
"Amdt_StdImp|Product Description: AutoCAD Mechanical|Company: Autodesk, Inc."
 90
     1024
 91
        1
280
     0
281
     0
  0
CLASS
  1
ACMSTANDARDANSI
  2
AcmStandardANSI
  3
"Amdt_StdImp|Product Description: AutoCAD Mechanical|Company: Autodesk, Inc."
 90
     1024
 91
        1
280
     0
281
     0
  0
CLASS
  1
ACMSTANDARDBSI
  2
AcmStandardBSI
  3
"Amdt_StdImp|Product Description: AutoCAD Mechanical|Company: Autodesk, Inc."
 90
     1024
 91
        1
280
     0
281
     0
  0
CLASS
  1
ACMSTANDARDDIN
  2
AcmStandardDIN
  3
"Amdt_StdImp|Product Description: AutoCAD Mechanical|Company: Autodesk, Inc."
 90
     1024
 91
        1
280
     0
281
     0
  0
CLASS
  1
ACMSTANDARDISO
  2
AcmStandardISO
  3
"Amdt_StdImp|Product Description: AutoCAD Mechanical|Company: Autodesk, Inc."
 90
     1024
 91
        1
280
     0
281
     0
  0
CLASS
  1
ACDBDICTIONARYWDFLT
  2
AcDbDictionaryWithDefault
  3
ObjectDBX Classes
 90
        0
 91
        1
280
     0
281
     0
  0
CLASS
  1
ACME_DOCUMENT
  2
AcMeDbDoc
  3
AcMeServices
 90
     1024
 91
        2
280
     0
281
     0
  0
CLASS
  1
AMGSETTINGSOBJ
  2
AmgSettingsObj
  3
"AcadM|Product Description: AutoCAD Mechanical|Company: Autodesk, Inc."
 90
     1024
 91
        4
280
     0
281
     0
  0
CLASS
  1
AMGOBJPROPCFG
  2
AmgObjPropCfg
  3
"AmgLay|Product Description: AutoCAD Mechanical|Company: Autodesk, Inc."
 90
     1025
 91
        1
280
     0
281
     0
  0
CLASS
  1
ACDBENTITYCACHE
  2
AcMeEntityCache
  3
AcMeServices
 90
     1024
 91
        1
280
     0
281
     0
  0
CLASS
  1
GSMANAGER
  2
AcMeGSManager
  3
AcMeServices
 90
     1024
 91
        1
280
     0
281
     0
  0
CLASS
  1
AMDTINTERNALREACTOR
  2
AmdtInternalReactor
  3
AcMeServices
 90
     1024
 91
        6
280
     0
281
     0
  0
CLASS
  1
ACME_DATABASE
  2
AcMeDbDatabase
  3
AcMeServices
 90
     1024
 91
        1
280
     0
281
     0
  0
CLASS
  1
ACGREFACADMASTER
  2
AcGrefacadMaster
  3
AcGrefServices
 90
     1024
 91
        1
280
     0
281
     0
  0
CLASS
  1
AMDTMENUSTATEMGR
  2
AmdtMenuStateMgr
  3
McadcomServices
 90
     1024
 91
        1
280
     0
281
     0
  0
CLASS
  1
AMDTMCOMMENUSTATE
  2
AmdtMcomMenuState
  3
McadcomServices
 90
     1024
 91
        1
280
     0
281
     0
  0
CLASS
  1
MAPIADMODULE
  2
MApiAdModule
  3
MApiAdServices
 90
     1024
 91
        1
280
     0
281
     0
  0
CLASS
  1
AMDTDMMENUSTATE
  2
AmdtDmMenuState
  3
AcMechDwgViewMgmt
 90
     1024
 91
        1
280
     0
281
     0
  0
CLASS
  1
AMDTADMENUSTATE
  2
AmdtAdMenuState
  3
DesignerServices
 90
     1024
 91
        1
280
     0
281
     0
  0
CLASS
  1
AMDTAMMENUSTATE
  2
AmdtAmMenuState
  3
DesignerAssemblies
 90
     1024
 91
        1
280
     0
281
     0
  0
CLASS
  1
ACMDATADICTIONARY
  2
AcmDataDictionary
  3
"AcmSymBB|Product Description: AutoCAD Mechanical|Company: Autodesk, Inc."
 90
     1024
 91
        1
280
     0
281
     0
  0
CLASS
  1
ACMDATAENTRYBLOCK
  2
AcmDataEntryBlock
  3
AcmSymBB|Product Description: AutoCAD Mechanical|Company: Autodesk, Inc.
 90
     1024
 91
        1
280
     0
281
     0
  0
CLASS
  1
ACMSURFSTANDARDJIS
  2
AcmSurfTextStdJIS
  3
"Amdt_StdImp|Product Description: AutoCAD Mechanical|Company: Autodesk, Inc."
 90
     1024
 91
        1
280
     0
281
     0
  0
CLASS
  1
ACMFCFSTANDARDJIS
  2
AcmFCFStdJIS
  3
"Amdt_StdImp|Product Description: AutoCAD Mechanical|Company: Autodesk, Inc."
 90
     1024
 91
        1
280
     0
281
     0
  0
CLASS
  1
ACMWELDSTANDARDJIS
  2
AcmWeldingStdJIS
  3
"Amdt_StdImp|Product Description: AutoCAD Mechanical|Company: Autodesk, Inc."
 90
     1024
 91
        1
280
     0
281
     0
  0
CLASS
  1
ACMIDSTANDARDJIS
  2
AcmIdStdJIS
  3
"Amdt_StdImp|Product Description: AutoCAD Mechanical|Company: Autodesk, Inc."
 90
     1024
 91
        1
280
     0
281
     0
  0
CLASS
  1
ACMDATUMSTANDARDJIS
  2
AcmDatumStdJIS
  3
"Amdt_StdImp|Product Description: AutoCAD Mechanical|Company: Autodesk, Inc."
 90
     1024
 91
        1
280
     0
281
     0
  0
CLASS
  1
ACMBOMSTANDARDJIS
  2
AcmBOMStdJIS
  3
"Amdt_StdImp|Product Description: AutoCAD Mechanical|Company: Autodesk, Inc."
 90
     1024
 91
        1
280
     0
281
     0
  0
CLASS
  1
ACMSURFSTANDARDANSI
  2
AcmSurfTextStdANSI
  3
"Amdt_StdImp|Product Description: AutoCAD Mechanical|Company: Autodesk, Inc."
 90
     1024
 91
        1
280
     0
281
     0
  0
CLASS
  1
ACMFCFSTANDARDANSI
  2
AcmFCFStdANSI
  3
"Amdt_StdImp|Product Description: AutoCAD Mechanical|Company: Autodesk, Inc."
 90
     1024
 91
        1
280
     0
281
     0
  0
CLASS
  1
ACMWELDSTANDARDANSI
  2
AcmWeldingStdANSI
  3
"Amdt_StdImp|Product Description: AutoCAD Mechanical|Company: Autodesk, Inc."
 90
     1024
 91
        1
280
     0
281
     0
  0
CLASS
  1
ACMIDSTANDARDANSI
  2
AcmIdStdANSI
  3
"Amdt_StdImp|Product Description: AutoCAD Mechanical|Company: Autodesk, Inc."
 90
     1024
 91
        1
280
     0
281
     0
  0
CLASS
  1
ACMDATUMSTANDARDANSI
  2
AcmDatumStdANSI
  3
"Amdt_StdImp|Product Description: AutoCAD Mechanical|Company: Autodesk, Inc."
 90
     1024
 91
        1
280
     0
281
     0
  0
CLASS
  1
ACMBOMSTANDARDANSI
  2
AcmBOMStdANSI
  3
"Amdt_StdImp|Product Description: AutoCAD Mechanical|Company: Autodesk, Inc."
 90
     1024
 91
        1
280
     0
281
     0
  0
CLASS
  1
ACMSURFSTANDARDBSI
  2
AcmSurfTextStdBSI
  3
"Amdt_StdImp|Product Description: AutoCAD Mechanical|Company: Autodesk, Inc."
 90
     1024
 91
        1
280
     0
281
     0
  0
CLASS
  1
ACMFCFSTANDARDBSI
  2
AcmFCFStdBSI
  3
"Amdt_StdImp|Product Description: AutoCAD Mechanical|Company: Autodesk, Inc."
 90
     1024
 91
        1
280
     0
281
     0
  0
CLASS
  1
ACMWELDSTANDARDBSI
  2
AcmWeldingStdBSI
  3
"Amdt_StdImp|Product Description: AutoCAD Mechanical|Company: Autodesk, Inc."
 90
     1024
 91
        1
280
     0
281
     0
  0
CLASS
  1
ACMIDSTANDARDBSI
  2
AcmIdStdBSI
  3
"Amdt_StdImp|Product Description: AutoCAD Mechanical|Company: Autodesk, Inc."
 90
     1024
 91
        1
280
     0
281
     0
  0
CLASS
  1
ACMDATUMSTANDARDBSI
  2
AcmDatumStdBSI
  3
"Amdt_StdImp|Product Description: AutoCAD Mechanical|Company: Autodesk, Inc."
 90
     1024
 91
        1
280
     0
281
     0
  0
CLASS
  1
ACMBOMSTANDARDBSI
  2
AcmBOMStdBSI
  3
"Amdt_StdImp|Product Description: AutoCAD Mechanical|Company: Autodesk, Inc."
 90
     1024
 91
        1
280
     0
281
     0
  0
CLASS
  1
AMDTEDGESTANDARDDIN
  2
AmdtEdgeStdDIN
  3
"Amdt_StdImp|Product Description: AutoCAD Mechanical|Company: Autodesk, Inc."
 90
     1024
 91
        1
280
     0
281
     0
  0
CLASS
  1
ACMSURFSTANDARDDIN
  2
AcmSurfTextStdDIN
  3
"Amdt_StdImp|Product Description: AutoCAD Mechanical|Company: Autodesk, Inc."
 90
     1024
 91
        1
280
     0
281
     0
  0
CLASS
  1
ACMFCFSTANDARDDIN
  2
AcmFCFStdDIN
  3
"Amdt_StdImp|Product Description: AutoCAD Mechanical|Company: Autodesk, Inc."
 90
     1024
 91
        1
280
     0
281
     0
  0
CLASS
  1
ACMWELDSTANDARDDIN
  2
AcmWeldingStdDIN
  3
"Amdt_StdImp|Product Description: AutoCAD Mechanical|Company: Autodesk, Inc."
 90
     1024
 91
        1
280
     0
281
     0
  0
CLASS
  1
ACMIDSTANDARDDIN
  2
AcmIdStdDIN
  3
"Amdt_StdImp|Product Description: AutoCAD Mechanical|Company: Autodesk, Inc."
 90
     1024
 91
        1
280
     0
281
     0
  0
CLASS
  1
ACMDATUMSTANDARDDIN
  2
AcmDatumStdDIN
  3
"Amdt_StdImp|Product Description: AutoCAD Mechanical|Company: Autodesk, Inc."
 90
     1024
 91
        1
280
     0
281
     0
  0
CLASS
  1
ACMBOMSTANDARDDIN
  2
AcmBOMStdDIN
  3
"Amdt_StdImp|Product Description: AutoCAD Mechanical|Company: Autodesk, Inc."
 90
     1024
 91
        1
280
     0
281
     0
  0
CLASS
  1
ACMSURFSTANDARDISO
  2
AcmSurfTextStdISO
  3
"Amdt_StdImp|Product Description: AutoCAD Mechanical|Company: Autodesk, Inc."
 90
     1024
 91
        1
280
     0
281
     0
  0
CLASS
  1
ACMFCFSTANDARDISO
  2
AcmFCFStdISO
  3
"Amdt_StdImp|Product Description: AutoCAD Mechanical|Company: Autodesk, Inc."
 90
     1024
 91
        1
280
     0
281
     0
  0
CLASS
  1
ACMWELDSTANDARDISO
  2
AcmWeldingStdISO
  3
"Amdt_StdImp|Product Description: AutoCAD Mechanical|Company: Autodesk, Inc."
 90
     1024
 91
        1
280
     0
281
     0
  0
CLASS
  1
ACMIDSTANDARDISO
  2
AcmIdStdISO
  3
"Amdt_StdImp|Product Description: AutoCAD Mechanical|Company: Autodesk, Inc."
 90
     1024
 91
        1
280
     0
281
     0
  0
CLASS
  1
ACMDATUMSTANDARDISO
  2
AcmDatumStdISO
  3
"Amdt_StdImp|Product Description: AutoCAD Mechanical|Company: Autodesk, Inc."
 90
     1024
 91
        1
280
     0
281
     0
  0
CLASS
  1
ACMBOMSTANDARDISO
  2
AcmBOMStdISO
  3
"Amdt_StdImp|Product Description: AutoCAD Mechanical|Company: Autodesk, Inc."
 90
     1024
 91
        1
280
     0
281
     0
  0
CLASS
  1
AMDTBROWSERDBTAB
  2
AmdtBrowserDbTab
  3
McadcomServices
 90
     1024
 91
        1
280
     0
281
     0
  0
CLASS
  1
ACAMGFILTERDAT
  2
AcAmgFilterDat
  3
"AcadM|Product Description: AutoCAD Mechanical|Company: Autodesk, Inc."
 90
     1024
 91
        4
280
     0
281
     0
  0
CLASS
  1
MAPIAMMOUDLE
  2
MApiAmModule
  3
MApiAmServices
 90
     1024
 91
        1
280
     0
281
     0
  0
CLASS
  1
PLOTSETTINGS
  2
AcDbPlotSettings
  3
ObjectDBX Classes
 90
        0
 91
        7
280
     0
281
     0
  0
CLASS
  1
ACRFATTGENMGR
  2
AcRfAttGeneralMgr
  3
AcAttribServices
 90
     1024
 91
        1
280
     0
281
     0
  0
CLASS
  1
ACAMGRBLOCKRECORD
  2
AcAmGrBlockRecord
  3
DesignerAssemblies
 90
     1024
 91
        2
280
     0
281
     0
  0
CLASS
  1
ACAMVIEWREACTOR
  2
AcAmViewReactor
  3
DesignerAssemblies
 90
     1024
 91
        0
280
     0
281
     0
  0
CLASS
  1
ACAMCOMPENT
  2
AcAmCompEnt
  3
DesignerAssemblies
 90
     1024
 91
        0
280
     0
281
     1
  0
CLASS
  1
AMVIEW
  2
AcAmView
  3
DesignerAssemblies
 90
     1024
 91
        0
280
     0
281
     0
  0
CLASS
  1
ACAMVIEWCONTEXT
  2
AcAmViewContext
  3
DesignerAssemblies
 90
     1024
 91
        0
280
     0
281
     0
  0
CLASS
  1
ADPART
  2
AcAdPart
  3
DesignerServices
 90
     1024
 91
        2
280
     0
281
     1
  0
CLASS
  1
ADBASE
  2
AcAdBase
  3
DesignerServices
 90
     1024
 91
        2
280
     0
281
     0
  0
CLASS
  1
BODYID
  2
AcAdBodyId
  3
DesignerServices
 90
     1024
 91
        2
280
     0
281
     0
  0
CLASS
  1
WORKPLANEDISPLAYMGR
  2
AcAdDisplayMgr
  3
DesignerServices
 90
     1024
 91
        2
280
     0
281
     0
  0
CLASS
  1
ACCMBODY
  2
AcCmBody
  3
DesignerAssemblies
 90
     1024
 91
        0
280
     0
281
     0
  0
CLASS
  1
ACAMCOMPFEEDBACK
  2
AcAmCompFeedback
  3
DesignerAssemblies
 90
     1024
 91
        0
280
     0
281
     0
  0
CLASS
  1
ACAMCOMP
  2
AcAmComp
  3
DesignerAssemblies
 90
     1024
 91
        0
280
     0
281
     0
  0
CLASS
  1
ACAMCOMPENTCLONE
  2
AcAmCompEntClone
  3
DesignerAssemblies
 90
     1024
 91
        0
280
     0
281
     1
  0
CLASS
  1
ACAMCLONEREACTOR
  2
AcAmGrCompCloneReactor
  3
DesignerAssemblies
 90
     1024
 91
        0
280
     0
281
     0
  0
CLASS
  1
ADDATUMPLANEABS
  2
AcAdDatumPlaneAbs
  3
DesignerServices
 90
     1024
 91
        5
280
     0
281
     0
  0
CLASS
  1
ADDATUMAXISABS
  2
AcAdDatumAxisAbs
  3
DesignerServices
 90
     1024
 91
        4
280
     0
281
     0
  0
CLASS
  1
ADDATUMORIENTEDPLANE
  2
AcAdDatumOrientedPlane
  3
DesignerServices
 90
     1024
 91
        4
280
     0
281
     0
  0
CLASS
  1
ACAD_LINE
  2
AcAdLine
  3
DesignerServices
 90
     1024
 91
        0
280
     0
281
     1
  0
CLASS
  1
ACADLINEACAD
  2
AcAdVirtualBoundedLineAcad
  3
DesignerServices
 90
     1024
 91
       12
280
     0
281
     0
  0
CLASS
  1
ACADREFLINEACAD
  2
AcAdVirtualReferenceLine
  3
DesignerServices
 90
     1024
 91
        8
280
     0
281
     0
  0
CLASS
  1
ACADCONSLINE
  2
AcAdConstrainedLine
  3
DesignerServices
 90
     1024
 91
       21
280
     0
281
     0
  0
CLASS
  1
ACADCONSGROUP
  2
AcAdConstraintGroup
  3
DesignerServices
 90
     1024
 91
        4
280
     0
281
     0
  0
CLASS
  1
ACADIMPPTACAD
  2
AcAdVirtualImplicitPoint
  3
DesignerServices
 90
     1024
 91
       25
280
     0
281
     0
  0
CLASS
  1
ACADCONSPOINT
  2
AcAdConstrainedPoint
  3
DesignerServices
 90
     1024
 91
       20
280
     0
281
     0
  0
CLASS
  1
ADPCURCNS
  2
AcAdPointCurveConstr
  3
DesignerServices
 90
     1024
 91
       24
280
     0
281
     0
  0
CLASS
  1
ADHORCNS
  2
AcAdHorizontalConstr
  3
DesignerServices
 90
     1024
 91
        4
280
     0
281
     0
  0
CLASS
  1
ADVERCNS
  2
AcAdVerticalConstr
  3
DesignerServices
 90
     1024
 91
        4
280
     0
281
     0
  0
CLASS
  1
ADCLPROF2D
  2
AcAdClosedProfile2d
  3
DesignerServices
 90
     1024
 91
        3
280
     0
281
     0
  0
CLASS
  1
ACAD_FIXCONSTRAINT
  2
AcAdFixedConstraint
  3
DesignerServices
 90
     1024
 91
        1
280
     0
281
     0
  0
CLASS
  1
ACMELINEARARROW
  2
AcImLinearArrowDisplay
  3
AcMeServices
 90
     1024
 91
        0
280
     0
281
     1
  0
CLASS
  1
PARAM
  2
AcAdParam
  3
DesignerServices
 90
     1024
 91
       23
280
     0
281
     0
  0
CLASS
  1
ACADVOLFEATWITHTRIM
  2
AcAdVolFeatWithTrim
  3
DesignerServices
 90
     1024
 91
        3
280
     0
281
     0
  0
CLASS
  1
DEPEDGEFEATUREORDERING
  2
AcAdDepEdgeFeatureOrdering
  3
DesignerServices
 90
     1024
 91
        3
280
     0
281
     0
  0
CLASS
  1
ADWORKPOINTDISPLAY
  2
AcAdWorkPointDisplay
  3
DesignerServices
 90
     1024
 91
        1
280
     0
281
     1
  0
CLASS
  1
ADVIRTUALPOINTWORKPOINTFREE
  2
AcAdVirtualPointWorkPointFree
  3
DesignerServices
 90
     1024
 91
        1
280
     0
281
     0
  0
CLASS
  1
ADWORKPOINTSKETCH
  2
AcAdWorkPointSketch
  3
DesignerServices
 90
     1024
 91
        1
280
     0
281
     0
  0
CLASS
  1
ACADPARTDATUMPOINTRES
  2
AcAdPartDatumPointRes
  3
AdGrefServices
 90
     1024
 91
        0
280
     0
281
     0
  0
CLASS
  1
ACRFINSADJ
  2
AcRfInsAdjuster
  3
AcMeServices
 90
     1024
 91
        0
280
     0
281
     0
  0
CLASS
  1
DATUMPLANEDISPLAY
  2
AcAdDatumPlaneDisplay
  3
DesignerServices
 90
     1024
 91
        5
280
     0
281
     1
  0
CLASS
  1
ACADPARTDATUMPLANERES
  2
AcAdPartDatumPlaneRes
  3
AdGrefServices
 90
     1024
 91
        0
280
     0
281
     0
  0
CLASS
  1
ACMEPLINE
  2
AcImPlineDisplay
  3
AcMeServices
 90
     1024
 91
        0
280
     0
281
     1
  0
CLASS
  1
ACAD_CIRCLE
  2
AcAdCircle
  3
DesignerServices
 90
     1024
 91
        0
280
     0
281
     1
  0
CLASS
  1
ACADCIRCLEACAD
  2
AcAdVirtualCircleAcad
  3
DesignerServices
 90
     1024
 91
        1
280
     0
281
     0
  0
CLASS
  1
ACADCONSCIRCLE
  2
AcAdConstrainedCircle
  3
DesignerServices
 90
     1024
 91
        1
280
     0
281
     0
  0
CLASS
  1
ADCTRPTCNS
  2
AcAdCenterPointConstr
  3
DesignerServices
 90
     1024
 91
        1
280
     0
281
     0
  0
CLASS
  1
ACDBCIRCARCRES
  2
AcDbCircArcRes
  3
AcGrefServices
 90
     1024
 91
        0
280
     0
281
     0
  0
CLASS
  1
ACADSKETCHCIRCARCRES
  2
AcAdSketchCircArcRes
  3
DesignerServices
 90
     1024
 91
        1
280
     0
281
     0
  0
CLASS
  1
ADVIRTUALPOINTWORKPOINTFIXED
  2
AcAdVirtualPointWorkPointFixed
  3
DesignerServices
 90
     1024
 91
        6
280
     0
281
     0
  0
CLASS
  1
ADHDISTCNS
  2
AcAdHorizontalDistanceConstr
  3
DesignerServices
 90
     1024
 91
        5
280
     0
281
     0
  0
CLASS
  1
ACADSKETCHPOINTRES
  2
AcAdSketchPointRes
  3
DesignerServices
 90
     1024
 91
       20
280
     0
281
     0
  0
CLASS
  1
ADVDISTCNS
  2
AcAdVerticalDistanceConstr
  3
DesignerServices
 90
     1024
 91
        7
280
     0
281
     0
  0
CLASS
  1
ADACADDIACNS
  2
AcAdAcadDiameterConstr
  3
DesignerServices
 90
     1024
 91
        1
280
     0
281
     0
  0
CLASS
  1
AMIINSTATTCLASSRECORD
  2
AmiInstAttClassRecord
  3
AcAttribServices
 90
     1024
 91
        1
280
     0
281
     0
  0
CLASS
  1
AMIINSTATTIMP
  2
AmiInstAttImp
  3
AcAttribServices
 90
     1025
 91
        2
280
     0
281
     0
  0
CLASS
  1
ACRFOBJATTMGR
  2
AcRfObjAttGroupMgr
  3
AcAttribServices
 90
     1024
 91
        2
280
     0
281
     0
  0
CLASS
  1
ACRFMCADAPIATTHOLDER
  2
AcRfMCADAPIAttHolder
  3
AcAttribServices
 90
     1024
 91
        1
280
     0
281
     0
  0
CLASS
  1
FACEID
  2
AcAdFaceId
  3
DesignerServices
 90
     1024
 91
        0
280
     0
281
     0
  0
CLASS
  1
ACADPARTCYLINDERFACERES
  2
AcAdPartCylinderFaceRes
  3
AdGrefServices
 90
     1024
 91
        0
280
     0
281
     0
  0
CLASS
  1
ACADPARTPLANARFACERES
  2
AcAdPartPlanarFaceRes
  3
AdGrefServices
 90
     1024
 91
        0
280
     0
281
     0
  0
CLASS
  1
ADPLANEID
  2
AcAdPlaneId
  3
DesignerServices
 90
     1024
 91
        2
280
     0
281
     0
  0
CLASS
  1
ADDATUMPLANEFACE
  2
AcAdDatumPlaneFace
  3
DesignerServices
 90
     1024
 91
        2
280
     0
281
     0
  0
CLASS
  1
ADDATUMPLANEOFFSET
  2
AcAdDatumPlaneOffset
  3
DesignerServices
 90
     1024
 91
        3
280
     0
281
     0
  0
CLASS
  1
DATUMAXISDISPLAY
  2
AcAdDatumAxisDisplay
  3
DesignerServices
 90
     1024
 91
        1
280
     0
281
     1
  0
CLASS
  1
ADSURFGEOMID
  2
AcAdSurfGeomId
  3
DesignerServices
 90
     1024
 91
        1
280
     0
281
     0
  0
CLASS
  1
ADDATUMAXISCENTER
  2
AcAdDatumAxisCenter
  3
DesignerServices
 90
     1024
 91
        1
280
     0
281
     0
  0
CLASS
  1
ACADPARTAXISRES
  2
AcAdPartAxisRes
  3
AdGrefServices
 90
     1024
 91
        0
280
     0
281
     0
  0
CLASS
  1
ACDBLINERES
  2
AcDbLineRes
  3
AcGrefServices
 90
     1024
 91
        0
280
     0
281
     0
  0
CLASS
  1
ACADSKETCHLINERES
  2
AcAdSketchLineRes
  3
DesignerServices
 90
     1024
 91
        4
280
     0
281
     0
  0
CLASS
  1
ADCONSTDSP
  2
AcAdConstraintDisplayTag
  3
DesignerServices
 90
     1024
 91
        0
280
     0
281
     1
  0
CLASS
  1
ADCONSDISP
  2
AcAdConstraintDisplay
  3
DesignerServices
 90
     1024
 91
        0
280
     0
281
     1
  0
CLASS
  1
ADACADANGCNS
  2
AcAdAcadAngleConstr
  3
DesignerServices
 90
     1024
 91
        2
280
     0
281
     0
  0
CLASS
  1
ADPROJCNS
  2
AcAdProjectionConstr
  3
DesignerServices
 90
     1024
 91
        1
280
     0
281
     0
  0
CLASS
  1
ADCOLNCNS
  2
AcAdColinearConstr
  3
DesignerServices
 90
     1024
 91
        1
280
     0
281
     0
  0
CLASS
  1
ACADBOUNDEDLINEDATUMID
  2
AcAdVirtualBoundedLineDatumId
  3
DesignerServices
 90
     1024
 91
        1
280
     0
281
     0
  0
CLASS
  1
ACADPARTCONICALFACERES
  2
AcAdPartConicalFaceRes
  3
AdGrefServices
 90
     1024
 91
        0
280
     0
281
     0
  0
CLASS
  1
DEPEDGESECONDARYDEPID
  2
AcAdDepEdgeSecondaryDepId
  3
DesignerServices
 90
     1024
 91
        0
280
     0
281
     0
  0
CLASS
  1
AMACTIVEPARTSELECTFILTER
  2
AcDmActivePartViewEntFilter
  3
DesignerServices
 90
     1024
 91
        0
280
     0
281
     0
  0
CLASS
  1
AM_ABS_PLANE
  2
AcDmAbsPlnDef
  3
AcMechDwgViewMgmt
 90
     1024
 91
        0
280
     0
281
     0
  0
CLASS
  1
AM_ABS_AXIS
  2
AcDmAbsAxisDef
  3
AcMechDwgViewMgmt
 90
     1024
 91
        0
280
     0
281
     0
  0
CLASS
  1
AM_BASE_VIEW_ORIENT
  2
AcDmBaseViewOr
  3
AcMechDwgViewMgmt
 90
     1024
 91
        0
280
     0
281
     0
  0
CLASS
  1
AM_DWG_VIEWPORT
  2
AcDmViewport
  3
AcMechDwgViewMgmt
 90
     1024
 91
        0
280
     0
281
     0
  0
CLASS
  1
AM_VIEW_DISPLAY
  2
AcDmDwgViewDisplay
  3
AcMechDwgViewMgmt
 90
     1024
 91
        0
280
     0
281
     0
  0
CLASS
  1
AM_CLDFLTS
  2
AcDmClDflts
  3
AcMechDwgViewMgmt
 90
     1024
 91
        9
280
     0
281
     0
  0
CLASS
  1
AM_BASE_VIEW
  2
AcDmBaseView
  3
AcMechDwgViewMgmt
 90
     1024
 91
        0
280
     0
281
     0
  0
CLASS
  1
AM_ORTHO_VIEW_ORIENT
  2
AcDmOrthoViewOr
  3
AcMechDwgViewMgmt
 90
     1024
 91
        0
280
     0
281
     0
  0
CLASS
  1
AM_ORTHO_VIEW
  2
AcDmOrthoView
  3
AcMechDwgViewMgmt
 90
     1024
 91
        0
280
     0
281
     0
  0
CLASS
  1
AM_ISO_VIEW_ORIENT
  2
AcDmIsoViewOr
  3
AcMechDwgViewMgmt
 90
     1024
 91
        0
280
     0
281
     0
  0
CLASS
  1
AM_ISO_VIEW
  2
AcDmIsoView
  3
AcMechDwgViewMgmt
 90
     1024
 91
        0
280
     0
281
     0
  0
CLASS
  1
ACDMVWEDARC
  2
AcDmViewEdgeArc
  3
AcMechDwgViewMgmt
 90
     1024
 91
        0
280
     0
281
     1
  0
CLASS
  1
ACDMVWEDCIRC
  2
AcDmViewEdgeCircle
  3
AcMechDwgViewMgmt
 90
     1024
 91
        0
280
     0
281
     1
  0
CLASS
  1
ACDMVWEDLINE
  2
AcDmViewEdgeLine
  3
AcMechDwgViewMgmt
 90
     1024
 91
        0
280
     0
281
     1
  0
CLASS
  1
CNRREFID
  2
AcAdCornerId
  3
DesignerServices
 90
     1024
 91
        0
280
     0
281
     0
  0
CLASS
  1
ACADPARTPOINTRES
  2
AcAdPartPointRes
  3
AdGrefServices
 90
     1024
 91
        0
280
     0
281
     0
  0
CLASS
  1
ACADPARTSKETCHPLANEAXISRES
  2
AcAdPartSketchPlaneAxisRes
  3
DesignerServices
 90
     1024
 91
        0
280
     0
281
     0
  0
CLASS
  1
AM_VIEWDIMPARALLEL
  2
AcDmViewDimParallel
  3
AcMechDwgViewMgmt
 90
     1024
 91
        0
280
     0
281
     0
  0
CLASS
  1
AMDTDMPARMAPDATA
  2
AmdtDmDimParMapData
  3
AcMechDwgViewMgmt
 90
     1024
 91
        0
280
     0
281
     0
  0
CLASS
  1
AM_VIEWDIMLINEAR
  2
AcDmViewDimLinear
  3
AcMechDwgViewMgmt
 90
     1024
 91
        0
280
     0
281
     0
  0
CLASS
  1
AM_VIEWDIMANGULAR
  2
AcDmViewDimAngular
  3
AcMechDwgViewMgmt
 90
     1024
 91
        0
280
     0
281
     0
  0
CLASS
  1
AM_ADLINCTRLINE
  2
AcAdLineCl
  3
DesignerServices
 90
     1024
 91
        0
280
     0
281
     0
  0
CLASS
  1
AM_VIEWDIMDIAMETER
  2
AcDmViewDimDiameter
  3
AcMechDwgViewMgmt
 90
     1024
 91
        0
280
     0
281
     0
  0
CLASS
  1
AM_ADCIRCTRLINE
  2
AcAdBullsEyeCl
  3
DesignerServices
 90
     1024
 91
        0
280
     0
281
     0
  0
CLASS
  1
AMDTMAPISURFMOUDULE
  2
AmdtMApiSurfModule
  3
MApiSurfServices
 90
     1024
 91
        1
280
     0
281
     0
  0
CLASS
  1
ACAMGTITLESTD
  2
AcAmgTitleStd
  3
"AmgTitle|Product Description: AutoCAD Mechanical|Company: Autodesk, Inc."
 90
     4095
 91
        5
280
     0
281
     0
  0
CLASS
  1
ACMDETAILSTANDARDJIS
  2
AmdtDetailSymStdJIS
  3
"Amdt_StdImp|Product Description: AutoCAD Mechanical|Company: Autodesk, Inc."
 90
     1024
 91
        1
280
     0
281
     0
  0
CLASS
  1
ACMSECTIONSTANDARDJIS
  2
AmdtSectionSymStdJIS
  3
"Amdt_StdImp|Product Description: AutoCAD Mechanical|Company: Autodesk, Inc."
 90
     1024
 91
        1
280
     0
281
     0
  0
CLASS
  1
ACMCENTERLINESTANDARDJIS
  2
AmdtCenterLineStdJIS
  3
"Amdt_StdImp|Product Description: AutoCAD Mechanical|Company: Autodesk, Inc."
 90
     1024
 91
        1
280
     0
281
     0
  0
CLASS
  1
ACMTHREADLINESTANDARDCSN
  2
AmdtThreadLineStdCSN
  3
"Amdt_StdImp|Product Description: AutoCAD Mechanical|Company: Autodesk, Inc."
 90
     1024
 91
        5
280
     0
281
     0
  0
CLASS
  1
ACMDETAILSTANDARDANSI
  2
AmdtDetailSymStdANSI
  3
"Amdt_StdImp|Product Description: AutoCAD Mechanical|Company: Autodesk, Inc."
 90
     1024
 91
        1
280
     0
281
     0
  0
CLASS
  1
ACMSECTIONSTANDARDANSI
  2
AmdtSectionSymStdANSI
  3
"Amdt_StdImp|Product Description: AutoCAD Mechanical|Company: Autodesk, Inc."
 90
     1024
 91
        1
280
     0
281
     0
  0
CLASS
  1
ACMCENTERLINESTANDARDANSI
  2
AmdtCenterLineStdANSI
  3
"Amdt_StdImp|Product Description: AutoCAD Mechanical|Company: Autodesk, Inc."
 90
     1024
 91
        1
280
     0
281
     0
  0
CLASS
  1
ACMDETAILSTANDARDBSI
  2
AmdtDetailSymStdBSI
  3
"Amdt_StdImp|Product Description: AutoCAD Mechanical|Company: Autodesk, Inc."
 90
     1024
 91
        1
280
     0
281
     0
  0
CLASS
  1
ACMSECTIONSTANDARDBSI
  2
AmdtSectionSymStdBSI
  3
"Amdt_StdImp|Product Description: AutoCAD Mechanical|Company: Autodesk, Inc."
 90
     1024
 91
        1
280
     0
281
     0
  0
CLASS
  1
ACMCENTERLINESTANDARDBSI
  2
AmdtCenterLineStdBSI
  3
"Amdt_StdImp|Product Description: AutoCAD Mechanical|Company: Autodesk, Inc."
 90
     1024
 91
        1
280
     0
281
     0
  0
CLASS
  1
ACMDETAILSTANDARDDIN
  2
AmdtDetailSymStdDIN
  3
"Amdt_StdImp|Product Description: AutoCAD Mechanical|Company: Autodesk, Inc."
 90
     1024
 91
        1
280
     0
281
     0
  0
CLASS
  1
ACMSECTIONSTANDARDDIN
  2
AmdtSectionSymStdDIN
  3
"Amdt_StdImp|Product Description: AutoCAD Mechanical|Company: Autodesk, Inc."
 90
     1024
 91
        1
280
     0
281
     0
  0
CLASS
  1
ACMCENTERLINESTANDARDDIN
  2
AmdtCenterLineStdDIN
  3
"Amdt_StdImp|Product Description: AutoCAD Mechanical|Company: Autodesk, Inc."
 90
     1024
 91
        1
280
     0
281
     0
  0
CLASS
  1
AMDTEDGESTANDARDISO
  2
AmdtEdgeStdISO
  3
"Amdt_StdImp|Product Description: AutoCAD Mechanical|Company: Autodesk, Inc."
 90
     1024
 91
        1
280
     0
281
     0
  0
CLASS
  1
ACMDETAILSTANDARDISO
  2
AmdtDetailSymStdISO
  3
"Amdt_StdImp|Product Description: AutoCAD Mechanical|Company: Autodesk, Inc."
 90
     1024
 91
        1
280
     0
281
     0
  0
CLASS
  1
ACMSECTIONSTANDARDISO
  2
AmdtSectionSymStdISO
  3
"Amdt_StdImp|Product Description: AutoCAD Mechanical|Company: Autodesk, Inc."
 90
     1024
 91
        1
280
     0
281
     0
  0
CLASS
  1
ACMCENTERLINESTANDARDISO
  2
AmdtCenterLineStdISO
  3
"Amdt_StdImp|Product Description: AutoCAD Mechanical|Company: Autodesk, Inc."
 90
     1024
 91
        1
280
     0
281
     0
  0
CLASS
  1
ACAMGLAYSTD
  2
AcAmgLayStd
  3
"AmgLay|Product Description: AutoCAD Mechanical|Company: Autodesk, Inc."
 90
     1024
 91
        5
280
     0
281
     0
  0
CLASS
  1
ACAMGDIMSTD
  2
AcAmgDimStd
  3
"AmgDim|Product Description: AutoCAD Mechanical|Company: Autodesk, Inc."
 90
     1024
 91
        5
280
     0
281
     0
  0
CLASS
  1
ACDMPARTVIEWDATA
  2
AcDmPartViewData
  3
AcMechDwgViewMgmt
 90
     1024
 91
        0
280
     0
281
     0
  0
CLASS
  1
ACDMDISPLAYATTRIBS
  2
AcDmDisplayAttribs
  3
AcMechDwgViewMgmt
 90
     1024
 91
        0
280
     0
281
     0
  0
CLASS
  1
ACDMBODYINSTANCEDATA
  2
AcDmBodyInstanceData
  3
AcMechDwgViewMgmt
 90
     1024
 91
        0
280
     0
281
     0
  0
CLASS
  1
AMDTFORMULAUPDATEDISPATCHER
  2
AmdtFormulaUpdateDispatcher
  3
AcMeServices
 90
     1024
 91
        1
280
     0
281
     0
  0
CLASS
  1
ACAMCONTEXTPARTMODELER
  2
AcAmContextPartModeler
  3
DesignerAssemblies
 90
     1024
 91
        1
280
     0
281
     0
  0
CLASS
  1
ACMNOTESTANDARDJIS
  2
AmdtNoteStdJIS
  3
"Amdt_StdImp|Product Description: AutoCAD Mechanical|Company: Autodesk, Inc."
 90
     1024
 91
        1
280
     0
281
     0
  0
CLASS
  1
ACMNOTESTANDARDANSI
  2
AmdtNoteStdANSI
  3
"Amdt_StdImp|Product Description: AutoCAD Mechanical|Company: Autodesk, Inc."
 90
     1024
 91
        1
280
     0
281
     0
  0
CLASS
  1
ACMNOTESTANDARDBSI
  2
AmdtNoteStdBSI
  3
"Amdt_StdImp|Product Description: AutoCAD Mechanical|Company: Autodesk, Inc."
 90
     1024
 91
        1
280
     0
281
     0
  0
CLASS
  1
ACMNOTESTANDARDDIN
  2
AmdtNoteStdDIN
  3
"Amdt_StdImp|Product Description: AutoCAD Mechanical|Company: Autodesk, Inc."
 90
     1024
 91
        1
280
     0
281
     0
  0
CLASS
  1
ACMNOTESTANDARDISO
  2
AmdtNoteStdISO
  3
"Amdt_StdImp|Product Description: AutoCAD Mechanical|Company: Autodesk, Inc."
 90
     1024
 91
        1
280
     0
281
     0
  0
CLASS
  1
MATERIAL
  2
AcDbMaterial
  3
ObjectDBX Classes
 90
     1153
 91
        3
280
     0
281
     0
  0
CLASS
  1
VISUALSTYLE
  2
AcDbVisualStyle
  3
ObjectDBX Classes
 90
     4095
 91
       16
280
     0
281
     0
  0
CLASS
  1
TABLESTYLE
  2
AcDbTableStyle
  3
ObjectDBX Classes
 90
     4095
 91
        1
280
     0
281
     0
  0
CLASS
  1
ACMTAPERSTANDARDJIS
  2
AcmTaperStdJIS
  3
"Amdt_StdImp|Product Description: AutoCAD Mechanical|Company: Autodesk, Inc."
 90
     1024
 91
        1
280
     0
281
     0
  0
CLASS
  1
ACMTAPERSTANDARDANSI
  2
AcmTaperStdANSI
  3
"Amdt_StdImp|Product Description: AutoCAD Mechanical|Company: Autodesk, Inc."
 90
     1024
 91
        1
280
     0
281
     0
  0
CLASS
  1
ACMTAPERSTANDARDBSI
  2
AcmTaperStdBSI
  3
"Amdt_StdImp|Product Description: AutoCAD Mechanical|Company: Autodesk, Inc."
 90
     1024
 91
        1
280
     0
281
     0
  0
CLASS
  1
ACMTAPERSTANDARDDIN
  2
AcmTaperStdDIN
  3
"Amdt_StdImp|Product Description: AutoCAD Mechanical|Company: Autodesk, Inc."
 90
     1024
 91
        1
280
     0
281
     0
  0
CLASS
  1
ACMTAPERSTANDARDISO
  2
AcmTaperStdISO
  3
"Amdt_StdImp|Product Description: AutoCAD Mechanical|Company: Autodesk, Inc."
 90
     1024
 91
        1
280
     0
281
     0
  0
CLASS
  1
DIMASSOC
  2
AcDbDimAssoc
  3
"AcDbDimAssoc|Product Desc:     AcDim ARX App For Dimension|Company:          Autodesk, Inc.|WEB Address:      www.autodesk.com"
 90
        0
 91
        9
280
     0
281
     0
  0
CLASS
  1
SCALE
  2
AcDbScale
  3
ObjectDBX Classes
 90
     1153
 91
       33
280
     0
281
     0
  0
CLASS
  1
MLEADERSTYLE
  2
AcDbMLeaderStyle
  3
ACDB_MLEADERSTYLE_CLASS
 90
     4095
 91
        1
280
     0
281
     0
  0
CLASS
  1
ACMANOOTATIONVIEWSTANDARDJIS
  2
AmdtAnViewStdJIS
  3
"Amdt_StdImp|Product Description: AutoCAD Mechanical|Company: Autodesk, Inc."
 90
     1024
 91
        1
280
     0
281
     0
  0
CLASS
  1
ACMANOOTATIONVIEWSTANDARDANSI
  2
AmdtAnViewStdANSI
  3
"Amdt_StdImp|Product Description: AutoCAD Mechanical|Company: Autodesk, Inc."
 90
     1024
 91
        1
280
     0
281
     0
  0
CLASS
  1
ACMANOOTATIONVIEWSTANDARDBSI
  2
AmdtAnViewStdBSI
  3
"Amdt_StdImp|Product Description: AutoCAD Mechanical|Company: Autodesk, Inc."
 90
     1024
 91
        1
280
     0
281
     0
  0
CLASS
  1
ACMANOOTATIONVIEWSTANDARDDIN
  2
AmdtAnViewStdDIN
  3
"Amdt_StdImp|Product Description: AutoCAD Mechanical|Company: Autodesk, Inc."
 90
     1024
 91
        1
280
     0
281
     0
  0
CLASS
  1
ACMANOOTATIONVIEWSTANDARDISO
  2
AmdtAnViewStdISO
  3
"Amdt_StdImp|Product Description: AutoCAD Mechanical|Company: Autodesk, Inc."
 90
     1024
 91
        1
280
     0
281
     0
  0
CLASS
  1
CELLSTYLEMAP
  2
AcDbCellStyleMap
  3
ObjectDBX Classes
 90
     1152
 91
        2
280
     0
281
     0
  0
CLASS
  1
AMDTEDGESTANDARDJIS
  2
AmdtEdgeStdJIS
  3
"Amdt_StdImp|Product Description: AutoCAD Mechanical|Company: Autodesk, Inc."
 90
     1024
 91
        1
280
     0
281
     0
  0
ENDSEC
  0
SECTION
  2
TABLES
  0
TABLE
  2
VPORT
  5
8
330
0
100
AcDbSymbolTable
 70
     3
  0
VPORT
  5
79C
330
8
100
AcDbSymbolTableRecord
100
AcDbViewportTableRecord
  2
asurf_wcs_vp_2
 70
     0
 10
0.0
 20
0.0
 11
0.5
 21
1.0
 12
0.0
 22
0.0
 13
0.0
 23
0.0
 14
10.0
 24
10.0
 15
10.0
 25
10.0
 16
0.0
 26
0.0
 36
1.0
 17
210.0
 27
148.5
 37
0.0
 40
664.2413317557894
 41
0.6397245798091085
 42
50.0
 43
0.0
 44
0.0
 50
0.0
 51
0.0
 71
     0
 72
  1000
 73
     1
 74
     0
 75
     0
 76
     0
 77
     0
 78
     0
281
     4
 65
     0
110
0.0
120
0.0
130
0.0
111
1.0
121
0.0
131
0.0
112
0.0
122
1.0
132
0.0
 79
     0
146
0.0
348
23C3
 60
     3
 61
     5
292
     1
282
     1
141
0.0
142
0.0
 63
   250
421
  3355443
  0
VPORT
  5
79D
330
8
100
AcDbSymbolTableRecord
100
AcDbViewportTableRecord
  2
asurf_wcs_vp_2
 70
     0
 10
0.5
 20
0.0
 11
1.0
 21
1.0
 12
-166.0188166206583
 22
35.22481755965711
 13
0.0
 23
0.0
 14
10.0
 24
10.0
 15
10.0
 25
10.0
 16
1.0
 26
-1.0
 36
1.0
 17
210.0
 27
148.5
 37
0.0
 40
482.8380307317477
 41
0.6397245798091085
 42
50.0
 43
0.0
 44
0.0
 50
0.0
 51
0.0
 71
     0
 72
  1000
 73
     1
 74
     0
 75
     0
 76
     0
 77
     0
 78
     0
281
     4
 65
     0
110
0.0
120
0.0
130
0.0
111
1.0
121
0.0
131
0.0
112
0.0
122
1.0
132
0.0
 79
     0
146
0.0
348
23C3
 60
     3
 61
     5
292
     1
282
     1
141
0.0
142
0.0
 63
   250
421
  3355443
  0
VPORT
  5
23BB
330
8
100
AcDbSymbolTableRecord
100
AcDbViewportTableRecord
  2
*Active
 70
     0
 10
0.0
 20
0.0
 11
1.0
 21
1.0
 12
-33.67799267652089
 22
-9.300763334782857
 13
0.0
 23
0.0
 14
10.0
 24
10.0
 15
10.0
 25
10.0
 16
0.0
 26
0.0
 36
1.0
 17
225.0419189867749
 27
164.8409058003548
 37
0.0
 40
313.6866649238369
 41
1.754082612872238
 42
50.0
 43
0.0
 44
0.0
 50
0.0
 51
0.0
 71
     0
 72
  1000
 73
     1
 74
     1
 75
     0
 76
     0
 77
     0
 78
     0
281
     0
 65
     0
110
0.0
120
0.0
130
0.0
111
1.0
121
0.0
131
0.0
112
0.0
122
1.0
132
0.0
 79
     0
146
0.0
348
23C6
 60
     3
 61
     5
292
     1
282
     1
141
0.0
142
0.0
 63
   250
421
  3355443
  0
ENDTAB
  0
TABLE
  2
LTYPE
  5
5
330
0
100
AcDbSymbolTable
 70
    44
  0
LTYPE
  5
14
330
5
100
AcDbSymbolTableRecord
100
AcDbLinetypeTableRecord
  2
BYBLOCK
 70
     0
  3

 72
    65
 73
     0
 40
0.0
  0
LTYPE
  5
15
330
5
100
AcDbSymbolTableRecord
100
AcDbLinetypeTableRecord
  2
BYLAYER
 70
     0
  3

 72
    65
 73
     0
 40
0.0
  0
LTYPE
  5
16
330
5
100
AcDbSymbolTableRecord
100
AcDbLinetypeTableRecord
  2
CONTINUOUS
 70
     0
  3
Solid line
 72
    65
 73
     0
 40
0.0
  0
LTYPE
  5
BD
330
5
100
AcDbSymbolTableRecord
100
AcDbLinetypeTableRecord
  2
HIDDEN
 70
     0
  3
__ __ __ __ __ __ __ __ __ __ __ __ __ __ __ __
 72
    65
 73
     2
 40
0.375
 49
0.25
 74
     0
 49
-0.125
 74
     0
  0
LTYPE
  5
BF
330
5
100
AcDbSymbolTableRecord
100
AcDbLinetypeTableRecord
  2
PHANTOM2
 70
     0
  3
___ _ _ ___ _ _ ___ _ _ ___ _ _ ___ _ _ ___ _ _
 72
    65
 73
     6
 40
1.25
 49
0.625
 74
     0
 49
-0.125
 74
     0
 49
0.125
 74
     0
 49
-0.125
 74
     0
 49
0.125
 74
     0
 49
-0.125
 74
     0
  0
LTYPE
  5
CA
330
5
100
AcDbSymbolTableRecord
100
AcDbLinetypeTableRecord
  2
CENTER
 70
     0
  3
____ _ ____ _ ____ _ ____ _ ____ _ ____ _ ____ 
 72
    65
 73
     4
 40
2.0
 49
1.25
 74
     0
 49
-0.25
 74
     0
 49
0.25
 74
     0
 49
-0.25
 74
     0
  0
LTYPE
  5
120
330
5
100
AcDbSymbolTableRecord
100
AcDbLinetypeTableRecord
  2
ASULTYPE
 70
     0
  3
Solid line
 72
    65
 73
     2
 40
3.0
 49
2.5
 74
     0
 49
0.5
 74
     0
  0
LTYPE
  5
121
330
5
100
AcDbSymbolTableRecord
100
AcDbLinetypeTableRecord
  2
ASVLTYPE
 70
     0
  3
__ __ __ __ __ __ __ __ __ __ __ __ __ __ __ __ __ __ __ __ __
 72
    65
 73
     2
 40
0.75
 49
0.5
 74
     0
 49
-0.25
 74
     0
  0
LTYPE
  5
149
330
5
100
AcDbSymbolTableRecord
100
AcDbLinetypeTableRecord
  2
ACJISTGB
 70
     0
  3
__ . . __ . .
 72
    65
 73
     6
 40
9.0
 49
4.0
 74
     0
 49
-1.0
 74
     0
 49
1.0
 74
     0
 49
-1.0
 74
     0
 49
1.0
 74
     0
 49
-1.0
 74
     0
  0
LTYPE
  5
14A
330
5
100
AcDbSymbolTableRecord
100
AcDbLinetypeTableRecord
  2
ACJISTGL
 70
     0
  3
_ _ _ _ _
 72
    65
 73
     2
 40
3.0
 49
2.0
 74
     0
 49
-1.0
 74
     0
  0
LTYPE
  5
14D
330
5
100
AcDbSymbolTableRecord
100
AcDbLinetypeTableRecord
  2
ACANSTGB
 70
     0
  3
__ . . __ . .
 72
    65
 73
     6
 40
0.35433070866
 49
0.15748031496
 74
     0
 49
-0.03937007874
 74
     0
 49
0.03937007874
 74
     0
 49
-0.03937007874
 74
     0
 49
0.03937007874
 74
     0
 49
-0.03937007874
 74
     0
  0
LTYPE
  5
14E
330
5
100
AcDbSymbolTableRecord
100
AcDbLinetypeTableRecord
  2
ACANSTGL
 70
     0
  3
_ _ _ _ _
 72
    65
 73
     2
 40
0.11811023622
 49
0.07874015748
 74
     0
 49
-0.03937007874
 74
     0
  0
LTYPE
  5
151
330
5
100
AcDbSymbolTableRecord
100
AcDbLinetypeTableRecord
  2
ACBSWELD
 70
     0
  3
_ _ _ _ _
 72
    65
 73
     2
 40
2.0
 49
2.0
 74
     0
 49
-1.0
 74
     0
  0
LTYPE
  5
152
330
5
100
AcDbSymbolTableRecord
100
AcDbLinetypeTableRecord
  2
ACBSITGB
 70
     0
  3
__ . . __ . .
 72
    65
 73
     6
 40
9.0
 49
4.0
 74
     0
 49
-1.0
 74
     0
 49
1.0
 74
     0
 49
-1.0
 74
     0
 49
1.0
 74
     0
 49
-1.0
 74
     0
  0
LTYPE
  5
153
330
5
100
AcDbSymbolTableRecord
100
AcDbLinetypeTableRecord
  2
ACBSITGL
 70
     0
  3
_ _ _ _ _
 72
    65
 73
     2
 40
3.0
 49
2.0
 74
     0
 49
-1.0
 74
     0
  0
LTYPE
  5
156
330
5
100
AcDbSymbolTableRecord
100
AcDbLinetypeTableRecord
  2
ACDINWELD
 70
     0
  3
_ _ _ _ _
 72
    65
 73
     2
 40
2.0
 49
2.0
 74
     0
 49
-1.0
 74
     0
  0
LTYPE
  5
157
330
5
100
AcDbSymbolTableRecord
100
AcDbLinetypeTableRecord
  2
ACDINTGB
 70
     0
  3
__ . . __ . .
 72
    65
 73
     6
 40
9.0
 49
4.0
 74
     0
 49
-1.0
 74
     0
 49
1.0
 74
     0
 49
-1.0
 74
     0
 49
1.0
 74
     0
 49
-1.0
 74
     0
  0
LTYPE
  5
158
330
5
100
AcDbSymbolTableRecord
100
AcDbLinetypeTableRecord
  2
ACDINTGL
 70
     0
  3
_ _ _ _ _
 72
    65
 73
     2
 40
3.0
 49
2.0
 74
     0
 49
-1.0
 74
     0
  0
LTYPE
  5
15B
330
5
100
AcDbSymbolTableRecord
100
AcDbLinetypeTableRecord
  2
ACISOWELD
 70
     0
  3
_ _ _ _ _
 72
    65
 73
     2
 40
2.0
 49
2.0
 74
     0
 49
-1.0
 74
     0
  0
LTYPE
  5
15C
330
5
100
AcDbSymbolTableRecord
100
AcDbLinetypeTableRecord
  2
ACISOTGB
 70
     0
  3
__ . . __ . .
 72
    65
 73
     6
 40
9.0
 49
4.0
 74
     0
 49
-1.0
 74
     0
 49
1.0
 74
     0
 49
-1.0
 74
     0
 49
1.0
 74
     0
 49
-1.0
 74
     0
  0
LTYPE
  5
15D
330
5
100
AcDbSymbolTableRecord
100
AcDbLinetypeTableRecord
  2
ACISOTGL
 70
     0
  3
_ _ _ _ _
 72
    65
 73
     2
 40
3.0
 49
2.0
 74
     0
 49
-1.0
 74
     0
  0
LTYPE
  5
175
330
5
100
AcDbSymbolTableRecord
100
AcDbLinetypeTableRecord
  2
AM_ISO02W050
 70
     0
  3
__ __ __ __ __ __ __ __ __ __ __ __ __ __ __
 72
    65
 73
     2
 40
7.5
 49
6.0
 74
     0
 49
-1.5
 74
     0
  0
LTYPE
  5
176
330
5
100
AcDbSymbolTableRecord
100
AcDbLinetypeTableRecord
  2
AM_ISO08W050
 70
     0
  3
____ . ____ . ____ . ____ . ____ . ____ . ____
 72
    65
 73
     4
 40
18.0
 49
12.0
 74
     0
 49
-1.5
 74
     0
 49
3.0
 74
     0
 49
-1.5
 74
     0
  0
LTYPE
  5
177
330
5
100
AcDbSymbolTableRecord
100
AcDbLinetypeTableRecord
  2
AM_ISO09W050
 70
     0
  3
_____ . . _____ . . _____ . . ____ .. ____
 72
    65
 73
     6
 40
22.5
 49
12.0
 74
     0
 49
-1.5
 74
     0
 49
3.0
 74
     0
 49
-1.5
 74
     0
 49
3.0
 74
     0
 49
-1.5
 74
     0
  0
LTYPE
  5
178
330
5
100
AcDbSymbolTableRecord
100
AcDbLinetypeTableRecord
  2
AM_ISO02W050x2
 70
     0
  3
 _ _ _ _ _ _ _ _ _ _ _ _
 72
    65
 73
     2
 40
3.75
 49
3.0
 74
     0
 49
-0.75
 74
     0
  0
LTYPE
  5
179
330
5
100
AcDbSymbolTableRecord
100
AcDbLinetypeTableRecord
  2
AM_ISO08W050x2
 70
     0
  3
__ . __ . __ . __ . __ . __
 72
    65
 73
     4
 40
9.0
 49
6.0
 74
     0
 49
-0.75
 74
     0
 49
1.5
 74
     0
 49
-0.75
 74
     0
  0
LTYPE
  5
17C
330
5
100
AcDbSymbolTableRecord
100
AcDbLinetypeTableRecord
  2
amzigzag
 70
     0
  3
/\/-/\/-/\/-/\/-/\/-/\/
 72
    65
 73
     2
 40
11.0001
 49
0.0001
 74
     4
 75
   135
340
17B
 46
0.04
 50
0.0
 44
0.0
 45
0.0
 49
-11.0
 74
     0
  0
LTYPE
  5
1814
330
5
100
AcDbSymbolTableRecord
100
AcDbLinetypeTableRecord
  2
ACANSTGBM
 70
     0
  3
__ . . __ . .
 72
    65
 73
     6
 40
9.0
 49
4.0
 74
     0
 49
-1.0
 74
     0
 49
1.0
 74
     0
 49
-1.0
 74
     0
 49
1.0
 74
     0
 49
-1.0
 74
     0
  0
LTYPE
  5
1815
330
5
100
AcDbSymbolTableRecord
100
AcDbLinetypeTableRecord
  2
ACANSTGLM
 70
     0
  3
_ _ _ _ _
 72
    65
 73
     2
 40
3.0
 49
2.0
 74
     0
 49
-1.0
 74
     0
  0
LTYPE
  5
1A08
330
5
100
AcDbSymbolTableRecord
100
AcDbLinetypeTableRecord
  2
GEN7
 70
     0
  3
____ . ____ . ____ . ____ . ___
 72
    65
 73
     4
 40
13.75
 49
9.75
 74
     0
 49
-1.5
 74
     0
 49
1.0
 74
     0
 49
-1.5
 74
     0
  0
LTYPE
  5
1A09
330
5
100
AcDbSymbolTableRecord
100
AcDbLinetypeTableRecord
  2
GEN3
 70
     0
  3
-- -- -- -- -- -- -- -- -- -- -
 72
    65
 73
     2
 40
6.25
 49
4.75
 74
     0
 49
-1.5
 74
     0
  0
LTYPE
  5
1A0A
330
5
100
AcDbSymbolTableRecord
100
AcDbLinetypeTableRecord
  2
GEN3A
 70
     0
  3
 - - - - -
 72
    65
 73
     2
 40
3.125
 49
2.25
 74
     0
 49
-0.875
 74
     0
  0
LTYPE
  5
1A0B
330
5
100
AcDbSymbolTableRecord
100
AcDbLinetypeTableRecord
  2
GEN4A
 70
     0
  3
_____ . . _____ . . _____ . . _
 72
    65
 73
     6
 40
16.25
 49
9.75
 74
     0
 49
-1.5
 74
     0
 49
1.0
 74
     0
 49
-1.5
 74
     0
 49
1.0
 74
     0
 49
-1.5
 74
     0
  0
LTYPE
  5
1A0C
330
5
100
AcDbSymbolTableRecord
100
AcDbLinetypeTableRecord
  2
GEN7A
 70
     0
  3
__ . __ . __
 72
    65
 73
     4
 40
6.875
 49
4.75
 74
     0
 49
-0.875
 74
     0
 49
0.375
 74
     0
 49
-0.875
 74
     0
  0
LTYPE
  5
1A0D
330
5
100
AcDbSymbolTableRecord
100
AcDbLinetypeTableRecord
  2
CONTINU
 70
     0
  3

 72
    65
 73
     0
 40
0.0
  0
LTYPE
  5
1A0E
330
5
100
AcDbSymbolTableRecord
100
AcDbLinetypeTableRecord
  2
genzigzag
 70
     0
  3
/\/-/\/-/\/-/\/-/\/-/\/
 72
    65
 73
     2
 40
12.0001
 49
0.0001
 74
     4
 75
   135
340
1A13
 46
2.0
 50
0.0
 44
0.0
 45
0.0
 49
-12.0
 74
     0
  0
LTYPE
  5
21B4
330
5
100
AcDbSymbolTableRecord
100
AcDbLinetypeTableRecord
  2
Amconstr
 70
     0
  3
_______________________
 72
    65
 73
     2
 40
9999.0
 49
9999.0
 74
     0
 49
0.0
 74
     0
  0
LTYPE
  5
21B5
330
5
100
AcDbSymbolTableRecord
100
AcDbLinetypeTableRecord
  2
AM_DIN_F_W050
 70
     0
  3
__ __ __ __ __ __ __ __ __ __ __ __ __ __ __
 72
    65
 73
     2
 40
6.25
 49
4.75
 74
     0
 49
-1.5
 74
     0
  0
LTYPE
  5
21B6
330
5
100
AcDbSymbolTableRecord
100
AcDbLinetypeTableRecord
  2
AM_DIN_G_W050
 70
     0
  3
____ . ____ . ____ . ____ . ____ . ____ . ____
 72
    65
 73
     4
 40
13.75
 49
9.75
 74
     0
 49
-1.5
 74
     0
 49
1.0
 74
     0
 49
-1.5
 74
     0
  0
LTYPE
  5
21B7
330
5
100
AcDbSymbolTableRecord
100
AcDbLinetypeTableRecord
  2
AM_DIN_K_W050
 70
     0
  3
_____ . . _____ . . _____ . . ____ .. ____
 72
    65
 73
     6
 40
16.25
 49
9.75
 74
     0
 49
-1.5
 74
     0
 49
1.0
 74
     0
 49
-1.5
 74
     0
 49
1.0
 74
     0
 49
-1.5
 74
     0
  0
LTYPE
  5
21B8
330
5
100
AcDbSymbolTableRecord
100
AcDbLinetypeTableRecord
  2
AM_DIN_G_W050x2
 70
     0
  3
__ . __ . __ . __ . __ . __
 72
    65
 73
     4
 40
6.875
 49
4.75
 74
     0
 49
-0.875
 74
     0
 49
0.375
 74
     0
 49
-0.875
 74
     0
  0
LTYPE
  5
21B9
330
5
100
AcDbSymbolTableRecord
100
AcDbLinetypeTableRecord
  2
AM_DIN_F_W050x2
 70
     0
  3
 _ _ _ _ _ _ _ _ _ _ _ _
 72
    65
 73
     2
 40
3.125
 49
2.25
 74
     0
 49
-0.875
 74
     0
  0
LTYPE
  5
2850
330
5
100
AcDbSymbolTableRecord
100
AcDbLinetypeTableRecord
  2
CENTER2
 70
     0
  3
Center (.5x) ___ _ ___ _ ___ _ ___ _ ___ _ ___
 72
    65
 73
     4
 40
1.125
 49
0.75
 74
     0
 49
-0.125
 74
     0
 49
0.125
 74
     0
 49
-0.125
 74
     0
  0
LTYPE
  5
2851
330
5
100
AcDbSymbolTableRecord
100
AcDbLinetypeTableRecord
  2
HIDDEN2
 70
     0
  3
Hidden (.5x) _ _ _ _ _ _ _ _ _ _ _ _ _ _ _ _ _
 72
    65
 73
     2
 40
0.1875
 49
0.125
 74
     0
 49
-0.0625
 74
     0
  0
LTYPE
  5
2852
330
5
100
AcDbSymbolTableRecord
100
AcDbLinetypeTableRecord
  2
Amzigzag2
 70
     0
  3
/\/-/\/-/\/-/\/-/\/-/\/
 72
    65
 73
     2
 40
0.4401
 49
0.0001
 74
     4
 75
   136
340
1A13
 46
0.0016
 50
0.0
 44
0.0
 45
0.0
 49
-0.4400000000000001
 74
     0
  0
LTYPE
  5
2A0B
330
5
100
AcDbSymbolTableRecord
100
AcDbLinetypeTableRecord
  2
DASHED
 70
     0
  3
Dashed __ __ __ __ __ __ __ __ __ __ __ __ __ _
 72
    65
 73
     2
 40
0.2068
 49
0.1655
 74
     0
 49
-0.0413
 74
     0
  0
ENDTAB
  0
TABLE
  2
LAYER
  5
2
102
{ACAD_XDICTIONARY
360
262F
102
}
330
0
100
AcDbSymbolTable
 70
    30
  0
LAYER
  5
F
102
{ACAD_XDICTIONARY
360
36C7
102
}
330
2
100
AcDbSymbolTableRecord
100
AcDbLayerTableRecord
  2
0
 70
     0
 62
     7
  6
CONTINUOUS
370
    -3
390
166
347
23BF
  0
LAYER
  5
35A
102
{ACAD_XDICTIONARY
360
36C9
102
}
330
2
100
AcDbSymbolTableRecord
100
AcDbLayerTableRecord
  2
AM_0
 70
     0
 62
     7
  6
CONTINUOUS
370
    50
390
166
347
23BF
  0
LAYER
  5
35B
102
{ACAD_XDICTIONARY
360
36CB
102
}
330
2
100
AcDbSymbolTableRecord
100
AcDbLayerTableRecord
  2
AM_1
 70
     0
 62
     4
  6
CONTINUOUS
370
    25
390
166
347
23BF
  0
LAYER
  5
35C
102
{ACAD_XDICTIONARY
360
36CD
102
}
330
2
100
AcDbSymbolTableRecord
100
AcDbLayerTableRecord
  2
AM_2
 70
     0
 62
     5
  6
CONTINUOUS
370
    50
390
166
347
23BF
  0
LAYER
  5
35D
102
{ACAD_XDICTIONARY
360
36CF
102
}
330
2
100
AcDbSymbolTableRecord
100
AcDbLayerTableRecord
  2
AM_3
 70
     0
 62
     6
  6
AM_ISO02W050
370
    25
390
166
347
23BF
  0
LAYER
  5
35E
102
{ACAD_XDICTIONARY
360
36D1
102
}
330
2
100
AcDbSymbolTableRecord
100
AcDbLayerTableRecord
  2
AM_4
 70
     0
 62
     3
  6
CONTINUOUS
370
    25
390
166
347
23BF
  0
LAYER
  5
35F
102
{ACAD_XDICTIONARY
360
36D3
102
}
330
2
100
AcDbSymbolTableRecord
100
AcDbLayerTableRecord
  2
AM_5
 70
     0
 62
     3
  6
CONTINUOUS
370
    25
390
166
347
23BF
  0
LAYER
  5
360
102
{ACAD_XDICTIONARY
360
36D5
102
}
330
2
100
AcDbSymbolTableRecord
100
AcDbLayerTableRecord
  2
AM_6
 70
     0
 62
     2
  6
CONTINUOUS
370
    35
390
166
347
23BF
  0
LAYER
  5
361
102
{ACAD_XDICTIONARY
360
36D7
102
}
330
2
100
AcDbSymbolTableRecord
100
AcDbLayerTableRecord
  2
AM_7
 70
     0
 62
     1
  6
AM_ISO08W050
370
    25
390
166
347
23BF
  0
LAYER
  5
362
102
{ACAD_XDICTIONARY
360
36D9
102
}
330
2
100
AcDbSymbolTableRecord
100
AcDbLayerTableRecord
  2
AM_8
 70
     0
 62
     1
  6
CONTINUOUS
370
    25
390
166
347
23BF
  0
LAYER
  5
38E
102
{ACAD_XDICTIONARY
360
36DB
102
}
330
2
100
AcDbSymbolTableRecord
100
AcDbLayerTableRecord
  2
AM_FR
 70
     5
 62
     7
  6
CONTINUOUS
370
    -3
390
166
347
23BF
  0
LAYER
  5
3F7
102
{ACAD_XDICTIONARY
360
36DD
102
}
330
2
100
AcDbSymbolTableRecord
100
AcDbLayerTableRecord
  2
ASHADE
 70
     4
 62
     7
  6
CONTINUOUS
370
    -3
390
166
347
23BF
  0
LAYER
  5
5FC
102
{ACAD_XDICTIONARY
360
36DF
102
}
330
2
100
AcDbSymbolTableRecord
100
AcDbLayerTableRecord
  2
AM_WORK
 70
     0
 62
     7
  6
CONTINUOUS
370
    -3
390
166
347
23BF
  0
LAYER
  5
614
102
{ACAD_XDICTIONARY
360
36E1
102
}
330
2
100
AcDbSymbolTableRecord
100
AcDbLayerTableRecord
  2
AM_CL
 70
     0
 62
     1
  6
CONTINUOUS
370
    25
390
166
347
23BF
  0
LAYER
  5
643
330
2
100
AcDbSymbolTableRecord
100
AcDbLayerTableRecord
  2
Defpoints
 70
     0
 62
     7
  6
CONTINUOUS
290
     0
370
    -3
390
166
347
23BF
  0
LAYER
  5
79B
102
{ACAD_XDICTIONARY
360
36E3
102
}
330
2
100
AcDbSymbolTableRecord
100
AcDbLayerTableRecord
  2
ASRF_TMP
 70
     0
 62
     7
  6
CONTINUOUS
370
    -3
390
166
347
23BF
  0
LAYER
  5
1054
102
{ACAD_XDICTIONARY
360
36E5
102
}
330
2
100
AcDbSymbolTableRecord
100
AcDbLayerTableRecord
  2
AM_VIEWS
 70
     0
 62
    -1
  6
CONTINUOUS
290
     0
370
    25
390
166
347
23BF
  0
LAYER
  5
106E
102
{ACAD_XDICTIONARY
360
36E7
102
}
330
2
100
AcDbSymbolTableRecord
100
AcDbLayerTableRecord
  2
AM_VIS
 70
     2
 62
     7
  6
CONTINUOUS
370
    50
390
166
347
23BF
  0
LAYER
  5
106F
102
{ACAD_XDICTIONARY
360
36E9
102
}
330
2
100
AcDbSymbolTableRecord
100
AcDbLayerTableRecord
  2
AM_HID
 70
     2
 62
     6
  6
AM_ISO02W050
370
    25
390
166
347
23BF
  0
LAYER
  5
108B
102
{ACAD_XDICTIONARY
360
36EB
102
}
330
2
100
AcDbSymbolTableRecord
100
AcDbLayerTableRecord
  2
AM_PARDIM
 70
     0
 62
     3
  6
CONTINUOUS
370
    25
390
166
347
23BF
  0
LAYER
  5
1969
102
{ACAD_XDICTIONARY
360
36ED
102
}
330
2
100
AcDbSymbolTableRecord
100
AcDbLayerTableRecord
  2
AmdtBRLock
 70
     6
 62
     7
  6
CONTINUOUS
370
    -3
390
166
347
23BF
  0
LAYER
  5
1A0F
102
{ACAD_XDICTIONARY
360
36EF
102
}
330
2
100
AcDbSymbolTableRecord
100
AcDbLayerTableRecord
  2
5
 70
     0
 62
     3
  6
CONTINUOUS
370
    -3
390
166
347
23BF
  0
LAYER
  5
1A10
102
{ACAD_XDICTIONARY
360
36F1
102
}
330
2
100
AcDbSymbolTableRecord
100
AcDbLayerTableRecord
  2
1
 70
     0
 62
     4
  6
CONTINUOUS
370
    -3
390
166
347
23BF
  0
LAYER
  5
1A11
102
{ACAD_XDICTIONARY
360
36F3
102
}
330
2
100
AcDbSymbolTableRecord
100
AcDbLayerTableRecord
  2
7
 70
     0
 62
     1
  6
GEN7
370
    -3
390
166
347
23BF
  0
LAYER
  5
1FEC
102
{ACAD_XDICTIONARY
360
36F5
102
}
330
2
100
AcDbSymbolTableRecord
100
AcDbLayerTableRecord
  2
3A
 70
     0
 62
     6
  6
GEN3A
370
    -3
390
166
347
23BF
  0
LAYER
  5
2853
102
{ACAD_XDICTIONARY
360
36F7
102
}
330
2
100
AcDbSymbolTableRecord
100
AcDbLayerTableRecord
  2
7A
 70
     0
 62
     1
  6
GEN7A
370
    -3
390
166
347
23BF
  0
LAYER
  5
2A0C
102
{ACAD_XDICTIONARY
360
36F9
102
}
330
2
100
AcDbSymbolTableRecord
100
AcDbLayerTableRecord
  2
Sichtbare Kanten(ISO-ZOPH)
 70
     0
 62
     7
  6
CONTINUOUS
370
    50
390
166
347
23BF
  0
LAYER
  5
2A0D
102
{ACAD_XDICTIONARY
360
36FB
102
}
330
2
100
AcDbSymbolTableRecord
100
AcDbLayerTableRecord
  2
Sichtbare tangentiale Kanten(ISO-ZOPH)
 70
     0
 62
     7
  6
CONTINUOUS
370
    50
390
166
347
23BF
  0
LAYER
  5
2A0E
102
{ACAD_XDICTIONARY
360
36FD
102
}
330
2
100
AcDbSymbolTableRecord
100
AcDbLayerTableRecord
  2
Verdeckte Kanten(ISO-ZOPH)
 70
     0
 62
     7
  6
DASHED
370
    35
390
166
347
23BF
  0
LAYER
  5
2A0F
102
{ACAD_XDICTIONARY
360
36FF
102
}
330
2
100
AcDbSymbolTableRecord
100
AcDbLayerTableRecord
  2
Verdeckte tangentiale Kanten(ISO-ZOPH)
 70
     0
 62
     7
  6
DASHED
370
    35
390
166
347
23BF
  0
ENDTAB
  0
TABLE
  2
STYLE
  5
3
330
0
100
AcDbSymbolTable
 70
    15
  0
STYLE
  5
10
330
3
100
AcDbSymbolTableRecord
100
AcDbTextStyleTableRecord
  2
STANDARD
 70
     0
 40
0.0
 41
1.0
 50
0.0
 71
     0
 42
3.5
  3
ISOCP
  4

  0
STYLE
  5
147
330
3
100
AcDbSymbolTableRecord
100
AcDbTextStyleTableRecord
  2
ACJISTS
 70
     0
 40
1.0
 41
1.0
 50
0.0
 71
     0
 42
3.5
  3
isocp.shx
  4
bigfont.shx
  0
STYLE
  5
148
330
3
100
AcDbSymbolTableRecord
100
AcDbTextStyleTableRecord
  2
ACJISGDT
 70
     0
 40
0.0
 41
1.0
 50
0.0
 71
     0
 42
3.5
  3
amgdt.shx
  4

  0
STYLE
  5
14B
330
3
100
AcDbSymbolTableRecord
100
AcDbTextStyleTableRecord
  2
ACANSTSI
 70
     0
 40
1.0
 41
1.0
 50
0.0
 71
     0
 42
3.5
  3
romans.shx
  4

  0
STYLE
  5
14C
330
3
100
AcDbSymbolTableRecord
100
AcDbTextStyleTableRecord
  2
ACANSGDT
 70
     0
 40
0.0
 41
1.0
 50
0.0
 71
     0
 42
3.5
  3
amgdt.shx
  4

  0
STYLE
  5
14F
330
3
100
AcDbSymbolTableRecord
100
AcDbTextStyleTableRecord
  2
ACBSITS
 70
     0
 40
1.0
 41
1.0
 50
0.0
 71
     0
 42
3.5
  3
isocp.shx
  4

  0
STYLE
  5
150
330
3
100
AcDbSymbolTableRecord
100
AcDbTextStyleTableRecord
  2
ACBSIGDT
 70
     0
 40
0.0
 41
1.0
 50
0.0
 71
     0
 42
3.5
  3
amgdt.shx
  4

  0
STYLE
  5
154
330
3
100
AcDbSymbolTableRecord
100
AcDbTextStyleTableRecord
  2
ACDINTS
 70
     0
 40
1.0
 41
1.0
 50
0.0
 71
     0
 42
3.5
  3
isocp.shx
  4

  0
STYLE
  5
155
330
3
100
AcDbSymbolTableRecord
100
AcDbTextStyleTableRecord
  2
ACDINGDT
 70
     0
 40
0.0
 41
1.0
 50
0.0
 71
     0
 42
3.5
  3
amgdt.shx
  4

  0
STYLE
  5
159
330
3
100
AcDbSymbolTableRecord
100
AcDbTextStyleTableRecord
  2
ACISOTS
 70
     0
 40
1.0
 41
1.0
 50
0.0
 71
     0
 42
3.5
  3
isocp.shx
  4

  0
STYLE
  5
15A
330
3
100
AcDbSymbolTableRecord
100
AcDbTextStyleTableRecord
  2
ACISOGDT
 70
     0
 40
0.0
 41
1.0
 50
0.0
 71
     0
 42
3.5
  3
amgdt.shx
  4

  0
STYLE
  5
17B
330
3
100
AcDbSymbolTableRecord
100
AcDbTextStyleTableRecord
  2

 70
     1
 40
0.0
 41
1.0
 50
0.0
 71
     0
 42
3.5
  3
ltypeshp.shx
  4

  0
STYLE
  5
3F4
330
3
100
AcDbSymbolTableRecord
100
AcDbTextStyleTableRecord
  2
ASHADE
 70
     0
 40
0.2
 41
1.0
 50
0.0
 71
     0
 42
3.5
  3
simplex.shx
  4

  0
STYLE
  5
1A12
330
3
100
AcDbSymbolTableRecord
100
AcDbTextStyleTableRecord
  2
ACANSTS
 70
     0
 40
1.0
 41
1.0
 50
0.0
 71
     0
 42
2.5
  3
romans.shx
  4

  0
STYLE
  5
1A13
330
3
100
AcDbSymbolTableRecord
100
AcDbTextStyleTableRecord
  2

 70
     1
 40
0.0
 41
1.0
 50
0.0
 71
     0
 42
2.5
  3
genltshp.shx
  4

  0
ENDTAB
  0
TABLE
  2
VIEW
  5
6
330
0
100
AcDbSymbolTable
 70
     3
  0
VIEW
  5
1C8
330
6
100
AcDbSymbolTableRecord
100
AcDbViewTableRecord
  2
AMDTVIEW1
 70
     0
 40
329.0721649484536
 10
210.0
 20
164.5360824742268
 41
420.0
 11
0.0
 21
0.0
 31
1.0
 12
0.0
 22
0.0
 32
0.0
 42
50.0
 43
0.0
 44
0.0
 50
0.0
 71
     0
281
     0
 72
     0
 73
     0
348
23C6
  0
VIEW
  5
1C9
330
6
100
AcDbSymbolTableRecord
100
AcDbViewTableRecord
  2
AMDTVIEW2
 70
     0
 40
329.0721649484536
 10
210.0
 20
164.5360824742268
 41
420.0
 11
0.0
 21
0.0
 31
1.0
 12
0.0
 22
0.0
 32
0.0
 42
50.0
 43
0.0
 44
0.0
 50
0.0
 71
     0
281
     0
 72
     0
 73
     0
348
23C6
  0
VIEW
  5
1CA
330
6
100
AcDbSymbolTableRecord
100
AcDbViewTableRecord
  2
AMDTVIEW3
 70
     0
 40
329.0721649484536
 10
210.0
 20
164.5360824742268
 41
420.0
 11
0.0
 21
0.0
 31
1.0
 12
0.0
 22
0.0
 32
0.0
 42
50.0
 43
0.0
 44
0.0
 50
0.0
 71
     0
281
     0
 72
     0
 73
     0
348
23C6
  0
ENDTAB
  0
TABLE
  2
UCS
  5
7
330
0
100
AcDbSymbolTable
 70
     0
  0
ENDTAB
  0
TABLE
  2
APPID
  5
9
330
0
100
AcDbSymbolTable
 70
    38
  0
APPID
  5
11
330
9
100
AcDbSymbolTableRecord
100
AcDbRegAppTableRecord
  2
ACAD
 70
     0
  0
APPID
  5
CD
330
9
100
AcDbSymbolTableRecord
100
AcDbRegAppTableRecord
  2
AD_DRAW
 70
     0
  0
APPID
  5
E7
330
9
100
AcDbSymbolTableRecord
100
AcDbRegAppTableRecord
  2
DESIGNERASSEMBLIES
 70
     0
  0
APPID
  5
EB
330
9
100
AcDbSymbolTableRecord
100
AcDbRegAppTableRecord
  2
MCAD_NO_VIS
 70
     0
  0
APPID
  5
122
330
9
100
AcDbSymbolTableRecord
100
AcDbRegAppTableRecord
  2
ASURF_PCURVE_APPNAME
 70
     0
  0
APPID
  5
17F
330
9
100
AcDbSymbolTableRecord
100
AcDbRegAppTableRecord
  2
ACAD_TEMP_GRAPHIC
 70
     0
  0
APPID
  5
189
330
9
100
AcDbSymbolTableRecord
100
AcDbRegAppTableRecord
  2
ACATTRIBSERVICES
 70
     0
  0
APPID
  5
1C4
330
9
100
AcDbSymbolTableRecord
100
AcDbRegAppTableRecord
  2
ACADM_DIM_EDIT
 70
     0
  0
APPID
  5
1D5
330
9
100
AcDbSymbolTableRecord
100
AcDbRegAppTableRecord
  2
GENIUS_GENDIM_13
 70
     0
  0
APPID
  5
1D6
330
9
100
AcDbSymbolTableRecord
100
AcDbRegAppTableRecord
  2
GENIUS_GENDTOL_13
 70
     0
  0
APPID
  5
1D7
330
9
100
AcDbSymbolTableRecord
100
AcDbRegAppTableRecord
  2
GENIUS_GE3DTOL_13
 70
     0
  0
APPID
  5
3F5
330
9
100
AcDbSymbolTableRecord
100
AcDbRegAppTableRecord
  2
AVE_RENDER
 70
     0
  0
APPID
  5
3F6
330
9
100
AcDbSymbolTableRecord
100
AcDbRegAppTableRecord
  2
AVE_ENTITY_MATERIAL
 70
     0
  0
APPID
  5
403
330
9
100
AcDbSymbolTableRecord
100
AcDbRegAppTableRecord
  2
AVE_FINISH
 70
     0
  0
APPID
  5
404
330
9
100
AcDbSymbolTableRecord
100
AcDbRegAppTableRecord
  2
AVE_MATERIAL
 70
     0
  0
APPID
  5
405
330
9
100
AcDbSymbolTableRecord
100
AcDbRegAppTableRecord
  2
AVE_GLOBAL
 70
     0
  0
APPID
  5
587
330
9
100
AcDbSymbolTableRecord
100
AcDbRegAppTableRecord
  2
GENIUS_GENREC_14
 70
     0
  0
APPID
  5
588
330
9
100
AcDbSymbolTableRecord
100
AcDbRegAppTableRecord
  2
GENIUS_GENODEF_13
 70
     0
  0
APPID
  5
589
330
9
100
AcDbSymbolTableRecord
100
AcDbRegAppTableRecord
  2
GENIUS_GENOBJ-N-REC_13
 70
     0
  0
APPID
  5
5F8
330
9
100
AcDbSymbolTableRecord
100
AcDbRegAppTableRecord
  2
GENIUS_GENOBJ-3-SH3D_13
 70
     0
  0
APPID
  5
651
330
9
100
AcDbSymbolTableRecord
100
AcDbRegAppTableRecord
  2
AD_SKETCHDIM
 70
     0
  0
APPID
  5
76F
330
9
100
AcDbSymbolTableRecord
100
AcDbRegAppTableRecord
  2
AM_EDITFEAT
 70
     0
  0
APPID
  5
799
330
9
100
AcDbSymbolTableRecord
100
AcDbRegAppTableRecord
  2
GENIUS_GE3SH_14_1
 70
     0
  0
APPID
  5
79A
330
9
100
AcDbSymbolTableRecord
100
AcDbRegAppTableRecord
  2
GENIUS_GE3MANIP_13
 70
     0
  0
APPID
  5
1066
330
9
100
AcDbSymbolTableRecord
100
AcDbRegAppTableRecord
  2
GENIUS_GENSCREG_15
 70
     0
  0
APPID
  5
1068
330
9
100
AcDbSymbolTableRecord
100
AcDbRegAppTableRecord
  2
GENIUS_GENOBJ-N-SDF_13
 70
     0
  0
APPID
  5
1069
330
9
100
AcDbSymbolTableRecord
100
AcDbRegAppTableRecord
  2
GENIUS_GENOENT_13
 70
     0
  0
APPID
  5
106A
330
9
100
AcDbSymbolTableRecord
100
AcDbRegAppTableRecord
  2
GENIUS_GENOREF_13
 70
     0
  0
APPID
  5
106B
330
9
100
AcDbSymbolTableRecord
100
AcDbRegAppTableRecord
  2
GENIUS_GENOLIS_13
 70
     0
  0
APPID
  5
1348
330
9
100
AcDbSymbolTableRecord
100
AcDbRegAppTableRecord
  2
GENIUS_GENDIMSH_14
 70
     0
  0
APPID
  5
17FE
330
9
100
AcDbSymbolTableRecord
100
AcDbRegAppTableRecord
  2
AMG_3D2D_5.0
 70
     0
  0
APPID
  5
1855
330
9
100
AcDbSymbolTableRecord
100
AcDbRegAppTableRecord
  2
AMDT_DM_ADJ
 70
     0
  0
APPID
  5
1E7E
330
9
100
AcDbSymbolTableRecord
100
AcDbRegAppTableRecord
  2
GENIUS_AMGTXT_16
 70
     0
  0
APPID
  5
241E
330
9
100
AcDbSymbolTableRecord
100
AcDbRegAppTableRecord
  2
ACAD_EXEMPT_FROM_CAD_STANDARDS
 70
     0
  0
APPID
  5
285A
330
9
100
AcDbSymbolTableRecord
100
AcDbRegAppTableRecord
  2
GENIUS_GENOBJ-N-CRS_13
 70
     0
  0
APPID
  5
285B
330
9
100
AcDbSymbolTableRecord
100
AcDbRegAppTableRecord
  2
GENIUS_GENOBJ-N-CEN_13
 70
     0
  0
APPID
  5
29E3
330
9
100
AcDbSymbolTableRecord
100
AcDbRegAppTableRecord
  2
ACAD_MLEADERVER
 70
     0
  0
APPID
  5
361B
330
9
100
AcDbSymbolTableRecord
100
AcDbRegAppTableRecord
  2
ACAD_DSTYLE_DIMINSPECT
 70
     0
  0
ENDTAB
  0
TABLE
  2
DIMSTYLE
  5
A
330
0
100
AcDbSymbolTable
 70
    52
100
AcDbDimStyleTable
 71
     5
340
395
340
25
340
62
340
2A
340
29
  0
DIMSTYLE
105
1D
330
A
100
AcDbSymbolTableRecord
100
AcDbDimStyleTableRecord
  2
STANDARD
 70
     0
 41
2.5
 42
0.625
 43
3.75
 44
1.25
 73
     0
 74
     0
 77
     1
 78
     8
140
2.5
141
2.5
143
0.0394
147
0.625
171
     4
172
     1
273
     8
274
     4
277
     6
340
10
  0
DIMSTYLE
105
25
330
A
100
AcDbSymbolTableRecord
100
AcDbDimStyleTableRecord
  2
ISO-35
 70
     0
 41
3.5
 42
0.875
 43
5.25
 44
1.75
 73
     0
 74
     0
 77
     1
 78
     8
140
3.5
141
3.5
143
0.0394
147
0.875
171
     4
172
     1
273
     8
274
     4
277
     6
340
10
  0
DIMSTYLE
105
26
330
A
100
AcDbSymbolTableRecord
100
AcDbDimStyleTableRecord
  2
ISO-5
 70
     0
 41
5.0
 42
1.25
 43
7.5
 44
2.5
 73
     0
 74
     0
 77
     1
 78
     8
140
5.0
141
5.0
143
0.0394
147
1.25
171
     4
172
     1
273
     8
274
     4
277
     6
340
10
  0
DIMSTYLE
105
27
330
A
100
AcDbSymbolTableRecord
100
AcDbDimStyleTableRecord
  2
ISO-7
 70
     0
 41
7.0
 42
1.75
 43
10.5
 44
3.5
 73
     0
 74
     0
 77
     1
 78
     8
140
7.0
141
7.0
143
0.0394
147
1.75
171
     4
172
     1
273
     8
274
     4
277
     6
340
10
  0
DIMSTYLE
105
28
330
A
100
AcDbSymbolTableRecord
100
AcDbDimStyleTableRecord
  2
ISO1
 70
     0
 41
10.0
 42
2.5
 43
15.0
 44
5.0
 73
     0
 74
     0
 77
     1
 78
     8
140
10.0
141
10.0
143
0.0394
147
2.5
171
     4
172
     1
273
     8
274
     4
277
     6
340
10
  0
DIMSTYLE
105
29
330
A
100
AcDbSymbolTableRecord
100
AcDbDimStyleTableRecord
  2
ISO1-4
 70
     0
 41
14.0
 42
3.5
 43
21.0
 44
7.0
 74
     0
 77
     1
 78
     8
140
14.0
141
14.0
143
0.0394
145
5.599999999999999
147
3.5
172
     1
273
     8
277
     6
340
10
  0
DIMSTYLE
105
2A
330
A
100
AcDbSymbolTableRecord
100
AcDbDimStyleTableRecord
  2
ISO2
 70
     0
 41
20.0
 42
5.0
 43
30.0
 44
10.0
 73
     0
 74
     0
 77
     1
 78
     8
140
20.0
141
20.0
143
0.0394
147
5.0
171
     4
172
     1
273
     8
274
     4
277
     6
340
10
  0
DIMSTYLE
105
60
330
A
100
AcDbSymbolTableRecord
100
AcDbDimStyleTableRecord
  2
ISO-4
 70
     0
 41
14.0
 42
3.5
 43
21.0
 44
7.0
 73
     0
 74
     0
 77
     1
 78
     8
140
14.0
141
14.0
143
0.0394
147
3.5
171
     4
172
     1
273
     8
274
     4
277
     6
340
10
  0
DIMSTYLE
105
62
330
A
100
AcDbSymbolTableRecord
100
AcDbDimStyleTableRecord
  2
ISO-25
 70
     0
 41
2.5
 42
0.625
 43
3.75
 44
1.25
 73
     0
 74
     0
 77
     1
 78
     8
140
2.5
141
2.5
143
0.0394
147
0.625
171
     4
172
     1
273
     8
274
     4
277
     6
340
10
  0
DIMSTYLE
105
395
330
A
100
AcDbSymbolTableRecord
100
AcDbDimStyleTableRecord
  2
AM_ISO
 70
     0
  4
"
 41
3.0
 42
0.0
 43
10.0
 44
1.0
 47
0.1
 48
0.1
 73
     0
 74
     0
 77
     1
 78
     8
 79
     2
140
3.5
141
0.0
143
0.0393701
146
0.71
147
1.5
172
     1
176
   256
177
   256
178
     2
271
     2
272
     2
283
     0
340
10
371
    -1
372
    -1
  0
DIMSTYLE
105
396
330
A
100
AcDbSymbolTableRecord
100
AcDbDimStyleTableRecord
  2
AM_ISO$3
 70
     0
  4
"
 41
2.5
 42
1.0
 43
10.0
 44
1.0
 47
0.1
 48
0.1
 73
     0
 77
     1
 78
     8
 79
     2
140
3.5
141
0.0
143
0.0393701
146
0.71
147
1.5
176
   256
177
   256
178
     2
271
     2
272
     2
283
     0
288
     1
289
     0
340
10
371
    -1
372
    -1
  0
DIMSTYLE
105
397
330
A
100
AcDbSymbolTableRecord
100
AcDbDimStyleTableRecord
  2
AM_ISO$4
 70
     0
  4
"
 41
2.5
 42
1.0
 43
10.0
 44
1.0
 47
0.1
 48
0.1
 73
     0
 77
     1
 78
     8
 79
     2
140
3.5
141
0.0
143
0.0393701
146
0.71
147
1.5
176
   256
177
   256
178
     2
271
     2
272
     2
283
     0
288
     1
289
     0
340
10
371
    -1
372
    -1
  0
DIMSTYLE
105
398
330
A
100
AcDbSymbolTableRecord
100
AcDbDimStyleTableRecord
  2
AM_ISO$6
 70
     0
  4
"
 41
2.5
 42
1.0
 43
10.0
 44
1.0
 47
0.1
 48
0.1
 73
     0
 74
     0
 78
     8
 79
     2
140
3.5
141
0.0
143
0.0393701
146
0.71
147
1.5
172
     1
176
   256
177
   256
178
     2
271
     2
272
     3
274
     4
283
     0
340
10
371
    -1
372
    -1
  0
DIMSTYLE
105
399
330
A
100
AcDbSymbolTableRecord
100
AcDbDimStyleTableRecord
  2
AM_ISO$7
 70
     0
  4
"
 41
2.5
 42
1.0
 43
10.0
 44
1.0
 47
0.1
 48
0.1
 73
     0
 74
     0
 77
     1
 78
     8
 79
     2
140
5.0
141
0.0
143
0.0393701
146
0.71
147
1.5
172
     1
176
   256
177
   256
178
     2
271
     2
272
     3
274
     4
283
     0
340
10
371
    -1
372
    -1
  0
DIMSTYLE
105
39A
330
A
100
AcDbSymbolTableRecord
100
AcDbDimStyleTableRecord
  2
AM_ISO$SF
 70
     0
  4
"
 41
2.5
 42
1.0
 43
10.0
 44
1.0
 47
0.1
 48
0.1
 73
     0
 74
     0
 75
     1
 76
     1
 77
     1
 78
     8
 79
     2
140
3.5
141
0.0
143
0.0393701
146
0.71
147
1.5
172
     1
176
   256
177
   256
178
     2
271
     2
272
     3
274
     4
283
     0
340
10
371
    -1
372
    -1
  0
DIMSTYLE
105
39F
330
A
100
AcDbSymbolTableRecord
100
AcDbDimStyleTableRecord
  2
AM_ISO$SH
 70
     0
  4
"
 41
2.5
 42
1.0
 43
10.0
 44
1.0
 47
0.1
 48
0.1
 73
     0
 74
     0
 75
     1
 76
     1
 77
     1
 78
     8
 79
     2
140
3.5
141
0.0
143
0.0393701
144
2.0
146
0.71
147
1.5
172
     1
173
     1
176
   256
177
   256
178
     2
271
     2
272
     3
274
     4
283
     0
340
10
343
39B
371
    -1
372
    -1
  0
DIMSTYLE
105
1832
330
A
100
AcDbSymbolTableRecord
100
AcDbDimStyleTableRecord
  2
AM_BSI
 70
     0
  4
"
 41
4.0
 42
1.0
 43
10.0
 44
1.0
 47
0.1
 48
0.1
 73
     0
 74
     0
 77
     1
 78
     8
 79
     2
140
3.5
141
0.0
143
0.0393701
146
0.71
147
1.5
172
     1
176
   256
177
   256
178
     2
271
     2
272
     3
274
     4
283
     0
284
     8
340
10
371
    -1
372
    -1
  0
DIMSTYLE
105
1833
330
A
100
AcDbSymbolTableRecord
100
AcDbDimStyleTableRecord
  2
AM_BSI$3
 70
     0
  4
"
 41
4.0
 42
1.0
 43
10.0
 44
1.0
 47
0.1
 48
0.1
 73
     0
 77
     1
 78
     8
 79
     2
140
3.5
141
0.0
143
0.0393701
146
0.71
147
1.5
176
   256
177
   256
178
     2
271
     2
272
     3
274
     4
283
     0
284
     8
288
     1
289
     0
340
10
371
    -1
372
    -1
  0
DIMSTYLE
105
1834
330
A
100
AcDbSymbolTableRecord
100
AcDbDimStyleTableRecord
  2
AM_BSI$4
 70
     0
  4
"
 41
4.0
 42
1.0
 43
10.0
 44
1.0
 47
0.1
 48
0.1
 73
     0
 77
     1
 78
     8
 79
     2
140
3.5
141
0.0
143
0.0393701
146
0.71
147
1.5
176
   256
177
   256
178
     2
271
     2
272
     3
274
     4
283
     0
284
     8
288
     1
289
     0
340
10
371
    -1
372
    -1
  0
DIMSTYLE
105
1835
330
A
100
AcDbSymbolTableRecord
100
AcDbDimStyleTableRecord
  2
AM_BSI$6
 70
     0
  4
"
 41
4.0
 42
1.0
 43
10.0
 44
1.0
 47
0.1
 48
0.1
 73
     0
 74
     0
 78
     8
 79
     2
140
3.5
141
0.0
143
0.0393701
146
0.71
147
1.5
172
     1
176
   256
177
   256
178
     2
271
     2
272
     3
274
     4
283
     0
284
     8
340
10
371
    -1
372
    -1
  0
DIMSTYLE
105
1836
330
A
100
AcDbSymbolTableRecord
100
AcDbDimStyleTableRecord
  2
AM_BSI$7
 70
     0
  4
"
 41
2.5
 42
1.0
 43
10.0
 44
1.0
 47
0.1
 48
0.1
 73
     0
 74
     0
 77
     1
 78
     8
 79
     2
140
5.0
141
0.0
143
0.0393701
146
0.71
147
1.5
172
     1
176
   256
177
   256
178
     2
271
     2
272
     3
274
     4
283
     0
284
     8
340
10
371
    -1
372
    -1
  0
DIMSTYLE
105
1837
330
A
100
AcDbSymbolTableRecord
100
AcDbDimStyleTableRecord
  2
AM_BSI$SF
 70
     0
  4
"
 41
4.0
 42
1.0
 43
10.0
 44
1.0
 47
0.1
 48
0.1
 73
     0
 74
     0
 75
     1
 76
     1
 77
     1
 78
     8
 79
     2
140
3.5
141
0.0
143
0.0393701
146
0.71
147
1.5
172
     1
176
   256
177
   256
178
     2
271
     2
272
     3
274
     4
283
     0
284
     8
340
10
371
    -1
372
    -1
  0
DIMSTYLE
105
1838
330
A
100
AcDbSymbolTableRecord
100
AcDbDimStyleTableRecord
  2
AM_BSI$SH
 70
     0
  4
"
 41
4.0
 42
1.0
 43
10.0
 44
1.0
 47
0.1
 48
0.1
 73
     0
 74
     0
 75
     1
 76
     1
 77
     1
 78
     8
 79
     2
140
3.5
141
0.0
143
0.0393701
144
2.0
146
0.71
147
1.5
172
     1
173
     1
176
   256
177
   256
178
     2
271
     2
272
     3
274
     4
283
     0
284
     8
340
10
343
39B
371
    -1
372
    -1
  0
DIMSTYLE
105
183A
330
A
100
AcDbSymbolTableRecord
100
AcDbDimStyleTableRecord
  2
AM_DIN
 70
     0
  4
"
 41
2.5
 42
1.0
 43
10.0
 44
1.0
 47
0.1
 48
0.1
 73
     0
 74
     0
 77
     1
 78
     8
 79
     2
140
3.5
141
0.0
143
0.0393701
146
0.71
147
1.5
172
     1
176
   256
177
   256
178
     2
271
     2
272
     3
274
     4
283
     0
284
     8
340
10
371
    -1
372
    -1
  0
DIMSTYLE
105
183B
330
A
100
AcDbSymbolTableRecord
100
AcDbDimStyleTableRecord
  2
AM_DIN$3
 70
     0
  4
"
 41
2.5
 42
1.0
 43
10.0
 44
1.0
 47
0.1
 48
0.1
 73
     0
 77
     1
 78
     8
 79
     2
140
3.5
141
0.0
143
0.0393701
146
0.71
147
1.5
176
   256
177
   256
178
     2
271
     2
272
     3
274
     4
283
     0
284
     8
288
     1
289
     0
340
10
371
    -1
372
    -1
  0
DIMSTYLE
105
183C
330
A
100
AcDbSymbolTableRecord
100
AcDbDimStyleTableRecord
  2
AM_DIN$4
 70
     0
  4
"
 41
2.5
 42
1.0
 43
10.0
 44
1.0
 47
0.1
 48
0.1
 73
     0
 77
     1
 78
     8
 79
     2
140
3.5
141
0.0
143
0.0393701
146
0.71
147
1.5
176
   256
177
   256
178
     2
271
     2
272
     3
274
     4
283
     0
284
     8
288
     1
289
     0
340
10
371
    -1
372
    -1
  0
DIMSTYLE
105
183D
330
A
100
AcDbSymbolTableRecord
100
AcDbDimStyleTableRecord
  2
AM_DIN$6
 70
     0
  4
"
 41
2.5
 42
1.0
 43
10.0
 44
1.0
 47
0.1
 48
0.1
 73
     0
 74
     0
 78
     8
 79
     2
140
3.5
141
0.0
143
0.0393701
146
0.71
147
1.5
172
     1
176
   256
177
   256
178
     2
271
     2
272
     3
274
     4
283
     0
284
     8
340
10
371
    -1
372
    -1
  0
DIMSTYLE
105
183E
330
A
100
AcDbSymbolTableRecord
100
AcDbDimStyleTableRecord
  2
AM_DIN$7
 70
     0
  4
"
 41
2.5
 42
1.0
 43
10.0
 44
1.0
 47
0.1
 48
0.1
 73
     0
 74
     0
 77
     1
 78
     8
 79
     2
140
5.0
141
0.0
143
0.0393701
146
0.71
147
1.5
172
     1
176
   256
177
   256
178
     2
271
     2
272
     3
274
     4
283
     0
284
     8
340
10
371
    -1
372
    -1
  0
DIMSTYLE
105
183F
330
A
100
AcDbSymbolTableRecord
100
AcDbDimStyleTableRecord
  2
AM_DIN$SF
 70
     0
  4
"
 41
2.5
 42
1.0
 43
10.0
 44
1.0
 47
0.1
 48
0.1
 73
     0
 74
     0
 75
     1
 76
     1
 77
     1
 78
     8
 79
     2
140
3.5
141
0.0
143
0.0393701
146
0.71
147
1.5
172
     1
176
   256
177
   256
178
     2
271
     2
272
     3
274
     4
283
     0
284
     8
340
10
371
    -1
372
    -1
  0
DIMSTYLE
105
1840
330
A
100
AcDbSymbolTableRecord
100
AcDbDimStyleTableRecord
  2
AM_DIN$SH
 70
     0
  4
"
 41
2.5
 42
1.0
 43
10.0
 44
1.0
 47
0.1
 48
0.1
 73
     0
 74
     0
 75
     1
 76
     1
 77
     1
 78
     8
 79
     2
140
3.5
141
0.0
143
0.0393701
144
2.0
146
0.71
147
1.5
172
     1
173
     1
176
   256
177
   256
178
     2
271
     2
272
     3
274
     4
283
     0
284
     8
340
10
343
39B
371
    -1
372
    -1
  0
DIMSTYLE
105
1843
330
A
100
AcDbSymbolTableRecord
100
AcDbDimStyleTableRecord
  2
AM_JIS
 70
     0
  4
"
 41
2.5
 42
1.0
 43
10.0
 44
1.0
 47
0.1
 48
0.1
 73
     0
 74
     0
 77
     3
 78
     8
 79
     2
140
3.5
141
0.0
143
0.0393701
146
0.71
147
1.5
172
     1
176
   256
177
   256
178
     2
271
     2
272
     3
274
     4
283
     0
284
     8
340
10
341
1844
342
1844
343
1844
344
1844
371
    -1
372
    -1
  0
DIMSTYLE
105
184A
330
A
100
AcDbSymbolTableRecord
100
AcDbDimStyleTableRecord
  2
AM_JIS$3
 70
     0
  4
"
 41
2.5
 42
1.0
 43
10.0
 44
1.0
 47
0.1
 48
0.1
 73
     0
 77
     3
 78
     8
 79
     2
140
3.5
141
0.0
143
0.0393701
146
0.71
147
1.5
176
   256
177
   256
178
     2
271
     2
272
     3
274
     4
283
     0
284
     8
288
     1
289
     0
340
10
341
1844
342
1844
343
1844
344
1844
371
    -1
372
    -1
  0
DIMSTYLE
105
184B
330
A
100
AcDbSymbolTableRecord
100
AcDbDimStyleTableRecord
  2
AM_JIS$4
 70
     0
  4
"
 41
2.5
 42
1.0
 43
10.0
 44
1.0
 47
0.1
 48
0.1
 73
     0
 77
     3
 78
     8
 79
     2
140
3.5
141
0.0
143
0.0393701
146
0.71
147
1.5
176
   256
177
   256
178
     2
271
     2
272
     3
274
     4
283
     0
284
     8
288
     1
289
     0
340
10
341
1844
342
1844
343
1844
344
1844
371
    -1
372
    -1
  0
DIMSTYLE
105
184C
330
A
100
AcDbSymbolTableRecord
100
AcDbDimStyleTableRecord
  2
AM_JIS$6
 70
     0
  4
"
 41
2.5
 42
1.0
 43
10.0
 44
1.0
 47
0.1
 48
0.1
 73
     0
 74
     0
 78
     8
 79
     2
140
3.5
141
0.0
143
0.0393701
146
0.71
147
1.5
172
     1
176
   256
177
   256
178
     2
271
     2
272
     3
274
     4
283
     0
284
     8
340
10
341
1844
342
1844
343
1844
344
1844
371
    -1
372
    -1
  0
DIMSTYLE
105
184D
330
A
100
AcDbSymbolTableRecord
100
AcDbDimStyleTableRecord
  2
AM_JIS$7
 70
     0
  4
"
 41
2.5
 42
1.0
 43
10.0
 44
1.0
 47
0.1
 48
0.1
 73
     0
 74
     0
 77
     3
 78
     8
 79
     2
140
5.0
141
0.0
143
0.0393701
146
0.71
147
1.5
172
     1
176
   256
177
   256
178
     2
271
     2
272
     3
274
     4
283
     0
284
     8
340
10
341
1844
342
1844
343
1844
344
1844
371
    -1
372
    -1
  0
DIMSTYLE
105
184E
330
A
100
AcDbSymbolTableRecord
100
AcDbDimStyleTableRecord
  2
AM_JIS$SF
 70
     0
  4
"
 41
2.5
 42
1.0
 43
10.0
 44
1.0
 47
0.1
 48
0.1
 73
     0
 74
     0
 75
     1
 76
     1
 77
     3
 78
     8
 79
     2
140
3.5
141
0.0
143
0.0393701
146
0.71
147
1.5
172
     1
176
   256
177
   256
178
     2
271
     2
272
     3
274
     4
283
     0
284
     8
340
10
341
1844
342
1844
343
1844
344
1844
371
    -1
372
    -1
  0
DIMSTYLE
105
184F
330
A
100
AcDbSymbolTableRecord
100
AcDbDimStyleTableRecord
  2
AM_JIS$SH
 70
     0
  4
"
 41
2.5
 42
1.0
 43
10.0
 44
1.0
 47
0.1
 48
0.1
 73
     0
 74
     0
 75
     1
 76
     1
 77
     3
 78
     8
 79
     2
140
3.5
141
0.0
143
0.0393701
144
2.0
146
0.71
147
1.5
172
     1
173
     1
176
   256
177
   256
178
     2
271
     2
272
     3
274
     4
283
     0
284
     8
340
10
341
1844
342
1844
343
39B
344
1844
371
    -1
372
    -1
  0
DIMSTYLE
105
1A14
330
A
100
AcDbSymbolTableRecord
100
AcDbDimStyleTableRecord
  2
GEN-ISO
 70
     0
  3
<>
  4
"
 41
3.0
 42
0.0
 43
10.0
 44
1.0
 47
0.1
 48
0.1
 73
     0
 74
     0
 77
     1
 78
     8
140
3.5
141
0.0
143
0.0393701
144
2.0
146
0.71
147
1.0
172
     1
176
   256
177
   256
178
     2
271
     1
272
     3
274
     4
275
     1
283
     0
284
     8
340
10
  0
DIMSTYLE
105
1A15
330
A
100
AcDbSymbolTableRecord
100
AcDbDimStyleTableRecord
  2
GEN-ANSI
 70
     0
  3
<>
  4
"
 41
3.0
 42
0.0
 43
10.0
 44
1.0
 47
0.1
 48
0.1
 78
     8
140
3.5
141
0.0
143
0.0393701
144
2.0
146
0.71
147
1.0
176
   256
177
   256
178
     2
271
     1
272
     3
274
     4
275
     1
284
     8
340
10
  0
DIMSTYLE
105
1A16
330
A
100
AcDbSymbolTableRecord
100
AcDbDimStyleTableRecord
  2
GEN-ANSI$3
 70
     0
  3
<>
  4
"
 41
3.0
 42
0.0
 43
10.0
 44
1.0
 47
0.1
 48
0.1
 78
     8
140
3.5
141
0.0
143
0.0393701
144
2.0
146
0.71
147
1.0
176
   256
177
   256
178
     2
271
     1
272
     3
274
     4
275
     1
284
     8
288
     1
289
     0
340
10
  0
DIMSTYLE
105
1A17
330
A
100
AcDbSymbolTableRecord
100
AcDbDimStyleTableRecord
  2
GEN-ANSI$4
 70
     0
  3
<>
  4
"
 41
3.0
 42
0.0
 43
10.0
 44
1.0
 47
0.1
 48
0.1
 78
     8
140
3.5
141
0.0
143
0.0393701
144
2.0
146
0.71
147
1.0
176
   256
177
   256
178
     2
271
     1
272
     3
274
     4
275
     1
284
     8
288
     1
289
     0
340
10
  0
DIMSTYLE
105
1A18
330
A
100
AcDbSymbolTableRecord
100
AcDbDimStyleTableRecord
  2
GEN-ANSI$6
 70
     0
  3
<>
  4
"
 41
3.0
 42
0.0
 43
10.0
 44
1.0
 47
0.1
 48
0.1
 78
     8
140
3.5
141
0.0
143
0.0393701
144
2.0
146
0.71
147
1.0
176
   256
177
   256
178
     2
271
     1
272
     3
274
     4
275
     1
284
     8
340
10
  0
DIMSTYLE
105
1A19
330
A
100
AcDbSymbolTableRecord
100
AcDbDimStyleTableRecord
  2
GEN-ANSI-POS
 70
     0
  3
<>
  4
"
 41
2.5
 42
0.0
 43
10.0
 44
1.0
 47
0.1
 48
0.1
 73
     0
 74
     0
 78
     8
140
5.0
141
0.0
143
0.0393701
144
2.0
146
0.71
147
1.5
176
   256
177
   256
178
     2
271
     1
272
     3
274
     4
275
     1
284
     8
340
10
  0
DIMSTYLE
105
1A1A
330
A
100
AcDbSymbolTableRecord
100
AcDbDimStyleTableRecord
  2
GEN-ANSI-AXE-F
 70
     0
  3
<>
  4
"
 41
3.0
 42
0.0
 43
10.0
 44
1.0
 47
0.1
 48
0.1
 75
     1
 76
     1
 78
     8
140
3.5
141
0.0
143
0.0393701
144
2.0
146
0.71
147
1.0
173
     1
176
   256
177
   256
178
     2
271
     1
272
     3
274
     4
275
     1
284
     8
340
10
343
39B
  0
DIMSTYLE
105
1A1B
330
A
100
AcDbSymbolTableRecord
100
AcDbDimStyleTableRecord
  2
GEN-ANSI-AXE-H
 70
     0
  3
<>
  4
"
 41
3.0
 42
0.0
 43
10.0
 44
1.0
 47
0.1
 48
0.1
 73
     0
 74
     0
 75
     1
 76
     1
 78
     8
140
3.5
141
0.0
143
0.0393701
144
2.0
146
0.71
147
1.0
172
     1
173
     1
176
   256
177
   256
178
     2
271
     1
272
     3
274
     4
275
     1
284
     8
340
10
343
39B
  0
DIMSTYLE
105
2403
102
{ACAD_REACTORS
330
4DC5
330
4DEF
330
4E10
330
4E31
330
4E52
330
4E79
330
4EA0
330
4ECA
330
4EEB
102
}
330
A
100
AcDbSymbolTableRecord
100
AcDbDimStyleTableRecord
  2
AM_ISO$0
 70
     0
  4
"
 41
3.0
 42
0.0
 43
10.0
 44
1.0
 47
0.1
 48
0.1
 73
     0
 74
     0
 77
     1
 78
     8
 79
     2
140
3.5
141
0.0
143
0.0393701
146
0.71
147
1.5
172
     1
176
   256
177
   256
178
     2
271
     2
272
     2
283
     0
340
10
371
    -1
372
    -1
  0
DIMSTYLE
105
2854
330
A
100
AcDbSymbolTableRecord
100
AcDbDimStyleTableRecord
  2
AM_ANSI
 70
     0
  4
mm
 41
0.1
 42
0.05
 43
0.5
 44
0.1
 47
0.1
 48
0.1
 78
     7
 79
     2
 90
     1
140
0.12
141
0.0
146
0.71
147
0.06
176
   256
177
   256
178
     2
274
     4
284
     7
340
10
371
    -1
372
    -1
  0
DIMSTYLE
105
2855
330
A
100
AcDbSymbolTableRecord
100
AcDbDimStyleTableRecord
  2
AM_ANSI$3
 70
     0
  4
mm
 41
0.1
 42
0.05
 43
0.5
 44
0.1
 47
0.1
 48
0.1
 78
     7
 79
     2
 90
     1
140
0.12
141
0.0
146
0.71
147
0.06
176
   256
177
   256
178
     2
274
     4
284
     7
288
     1
289
     0
340
10
371
    -1
372
    -1
  0
DIMSTYLE
105
2856
330
A
100
AcDbSymbolTableRecord
100
AcDbDimStyleTableRecord
  2
AM_ANSI$4
 70
     0
  4
mm
 41
0.1
 42
0.05
 43
0.5
 44
0.1
 47
0.1
 48
0.1
 78
     7
 79
     2
 90
     1
140
0.12
141
0.0
146
0.71
147
0.06
176
   256
177
   256
178
     2
274
     4
284
     7
288
     1
289
     0
340
10
371
    -1
372
    -1
  0
DIMSTYLE
105
2857
330
A
100
AcDbSymbolTableRecord
100
AcDbDimStyleTableRecord
  2
AM_ANSI$7
 70
     0
  4
mm
 41
0.1
 42
0.05
 43
0.5
 44
0.1
 47
0.1
 48
0.1
 78
     7
 79
     2
 90
     1
140
0.24
141
0.0
146
0.71
147
0.06
176
   256
177
   256
178
     2
274
     4
284
     7
340
10
371
    -1
372
    -1
  0
DIMSTYLE
105
2858
330
A
100
AcDbSymbolTableRecord
100
AcDbDimStyleTableRecord
  2
AM_ANSI$SF
 70
     0
  4
mm
 41
0.1
 42
0.05
 43
0.5
 44
0.1
 47
0.1
 48
0.1
 75
     1
 76
     1
 78
     7
 79
     2
 90
     1
140
0.12
141
0.0
146
0.71
147
0.06
176
   256
177
   256
178
     2
274
     4
284
     7
340
10
371
    -1
372
    -1
  0
DIMSTYLE
105
2859
330
A
100
AcDbSymbolTableRecord
100
AcDbDimStyleTableRecord
  2
AM_ANSI$SH
 70
     0
  4
mm
 41
0.1
 42
0.05
 43
0.5
 44
0.1
 47
0.1
 48
0.1
 75
     1
 76
     1
 78
     7
 79
     2
 90
     1
140
0.12
141
0.0
146
0.71
147
0.06
173
     1
176
   256
177
   256
178
     2
274
     4
284
     7
340
10
343
39B
371
    -1
372
    -1
  0
ENDTAB
  0
TABLE
  2
BLOCK_RECORD
  5
1
330
0
100
AcDbSymbolTable
 70
    20
  0
BLOCK_RECORD
  5
1A
102
{ACAD_XDICTIONARY
360
12A
102
}
330
1
100
AcDbSymbolTableRecord
100
AcDbBlockTableRecord
  2
*MODEL_SPACE
340
169
 70
     0
280
     1
281
     0
  0
BLOCK_RECORD
  5
17
330
1
100
AcDbSymbolTableRecord
100
AcDbBlockTableRecord
  2
*PAPER_SPACE
340
16A
 70
     0
280
     1
281
     0
  0
BLOCK_RECORD
  5
34D
330
1
100
AcDbSymbolTableRecord
100
AcDbBlockTableRecord
  2
*Paper_Space0
340
351
 70
     0
280
     1
281
     0
  0
BLOCK_RECORD
  5
313
330
1
100
AcDbSymbolTableRecord
100
AcDbBlockTableRecord
  2
*Paper_Space1
340
314
 70
     0
280
     1
281
     0
  0
BLOCK_RECORD
  5
2E0
330
1
100
AcDbSymbolTableRecord
100
AcDbBlockTableRecord
  2
*Paper_Space2
340
2E1
 70
     0
280
     1
281
     0
  0
BLOCK_RECORD
  5
345
330
1
100
AcDbSymbolTableRecord
100
AcDbBlockTableRecord
  2
*Paper_Space3
340
349
 70
     0
280
     1
281
     0
  0
BLOCK_RECORD
  5
39B
330
1
100
AcDbSymbolTableRecord
100
AcDbBlockTableRecord
  2
GENAXEH
340
0
 70
     0
280
     1
281
     0
  0
BLOCK_RECORD
  5
3F8
330
1
100
AcDbSymbolTableRecord
100
AcDbBlockTableRecord
  2
AVE_RENDER
340
0
102
{BLKREFS
331
3FB
331
3FC
331
3FD
331
3FE
331
3FF
331
400
331
401
331
402
102
}
 70
     0
280
     1
281
     0
  0
BLOCK_RECORD
  5
406
330
1
100
AcDbSymbolTableRecord
100
AcDbBlockTableRecord
  2
AVE_GLOBAL
340
0
102
{BLKREFS
331
409
102
}
 70
     0
280
     1
281
     0
  0
BLOCK_RECORD
  5
594
330
1
100
AcDbSymbolTableRecord
100
AcDbBlockTableRecord
  2
*U7
340
0
 70
     0
280
     1
281
     0
  0
BLOCK_RECORD
  5
5E5
330
1
100
AcDbSymbolTableRecord
100
AcDbBlockTableRecord
  2
*U8
340
0
 70
     0
280
     1
281
     0
  0
BLOCK_RECORD
  5
1366
330
1
100
AcDbSymbolTableRecord
100
AcDbBlockTableRecord
  2
GENDOT
340
0
 70
     0
280
     1
281
     0
  0
BLOCK_RECORD
  5
1844
330
1
100
AcDbSymbolTableRecord
100
AcDbBlockTableRecord
  2
_Open30
340
0
 70
     0
280
     1
281
     0
  0
BLOCK_RECORD
  5
4DC6
330
1
100
AcDbSymbolTableRecord
100
AcDbBlockTableRecord
  2
*D11
340
0
 70
     0
280
     1
281
     0
  0
BLOCK_RECORD
  5
4DF0
330
1
100
AcDbSymbolTableRecord
100
AcDbBlockTableRecord
  2
*D12
340
0
 70
     0
280
     1
281
     0
  0
BLOCK_RECORD
  5
4E11
330
1
100
AcDbSymbolTableRecord
100
AcDbBlockTableRecord
  2
*D13
340
0
 70
     0
280
     1
281
     0
  0
BLOCK_RECORD
  5
4E32
330
1
100
AcDbSymbolTableRecord
100
AcDbBlockTableRecord
  2
*D14
340
0
 70
     0
280
     1
281
     0
  0
BLOCK_RECORD
  5
4E53
330
1
100
AcDbSymbolTableRecord
100
AcDbBlockTableRecord
  2
*D15
340
0
 70
     0
280
     1
281
     0
  0
BLOCK_RECORD
  5
4E7A
330
1
100
AcDbSymbolTableRecord
100
AcDbBlockTableRecord
  2
*D16
340
0
 70
     0
280
     1
281
     0
  0
BLOCK_RECORD
  5
4EA1
330
1
100
AcDbSymbolTableRecord
100
AcDbBlockTableRecord
  2
*D17
340
0
 70
     0
280
     1
281
     0
  0
BLOCK_RECORD
  5
4ECB
330
1
100
AcDbSymbolTableRecord
100
AcDbBlockTableRecord
  2
*D18
340
0
 70
     0
280
     1
281
     0
  0
BLOCK_RECORD
  5
4EEC
330
1
100
AcDbSymbolTableRecord
100
AcDbBlockTableRecord
  2
*D19
340
0
 70
     0
280
     1
281
     0
  0
ENDTAB
  0
ENDSEC
  0
SECTION
  2
BLOCKS
  0
BLOCK
  5
1B
330
1A
100
AcDbEntity
  8
0
100
AcDbBlockBegin
  2
*MODEL_SPACE
 70
     0
 10
0.0
 20
0.0
 30
0.0
  3
*MODEL_SPACE
  1

  0
ENDBLK
  5
1C
330
1A
100
AcDbEntity
  8
0
100
AcDbBlockEnd
  0
BLOCK
  5
18
330
17
100
AcDbEntity
 67
     1
  8
0
100
AcDbBlockBegin
  2
*PAPER_SPACE
 70
     0
 10
0.0
 20
0.0
 30
0.0
  3
*PAPER_SPACE
  1

  0
ENDBLK
  5
19
330
17
100
AcDbEntity
 67
     1
  8
0
100
AcDbBlockEnd
  0
BLOCK
  5
34F
330
34D
100
AcDbEntity
 67
     1
  8
0
100
AcDbBlockBegin
  2
*Paper_Space0
 70
     0
 10
0.0
 20
0.0
 30
0.0
  3
*Paper_Space0
  1

  0
VIEWPORT
  5
34E
330
34D
100
AcDbEntity
 67
     1
  8
AM_VIEWS
100
AcDbViewport
 10
577.468994140625
 20
415.4593176841736
 30
0.0
 40
1195.734595476714
 41
932.8590910236622
 68
     0
 69
     0
 12
577.468994140625
 22
415.4593176841736
 13
0.0
 23
0.0
 14
10.0
 24
10.0
 15
10.0
 25
10.0
 16
0.0
 26
0.0
 36
1.0
 17
0.0
 27
0.0
 37
0.0
 42
50.0
 43
0.0
 44
0.0
 45
932.8590910236622
 50
0.0
 51
0.0
 72
   100
331
1969
 90
    32800
  1

281
     0
 71
     1
 74
     0
110
0.0
120
0.0
130
0.0
111
1.0
121
0.0
131
0.0
112
0.0
122
1.0
132
0.0
 79
     0
146
0.0
170
     0
 61
     5
348
23C6
292
     1
282
     1
141
0.0
142
0.0
 63
   250
421
  3355443
  0
ENDBLK
  5
350
330
34D
100
AcDbEntity
 67
     1
  8
0
100
AcDbBlockEnd
  0
BLOCK
  5
315
330
313
100
AcDbEntity
 67
     1
  8
0
100
AcDbBlockBegin
  2
*Paper_Space1
 70
     0
 10
0.0
 20
0.0
 30
0.0
  3
*Paper_Space1
  1

  0
VIEWPORT
  5
344
330
313
100
AcDbEntity
 67
     1
  8
AM_VIEWS
100
AcDbViewport
 10
279.9926452636719
 20
204.9779944419861
 30
0.0
 40
597.3137355517764
 41
465.9976808487594
 68
     0
 69
     0
 12
279.9926452636719
 22
204.9779944419861
 13
0.0
 23
0.0
 14
10.0
 24
10.0
 15
10.0
 25
10.0
 16
0.0
 26
0.0
 36
1.0
 17
0.0
 27
0.0
 37
0.0
 42
50.0
 43
0.0
 44
0.0
 45
465.9976808487594
 50
0.0
 51
0.0
 72
   100
331
1969
 90
    32800
  1

281
     0
 71
     1
 74
     0
110
0.0
120
0.0
130
0.0
111
1.0
121
0.0
131
0.0
112
0.0
122
1.0
132
0.0
 79
     0
146
0.0
170
     0
 61
     5
348
23C6
292
     1
282
     1
141
0.0
142
0.0
 63
   250
421
  3355443
  0
ENDBLK
  5
316
330
313
100
AcDbEntity
 67
     1
  8
0
100
AcDbBlockEnd
  0
BLOCK
  5
2E2
330
2E0
100
AcDbEntity
 67
     1
  8
0
100
AcDbBlockBegin
  2
*Paper_Space2
 70
     0
 10
0.0
 20
0.0
 30
0.0
  3
*Paper_Space2
  1

  0
VIEWPORT
  5
31D
330
2E0
100
AcDbEntity
 67
     1
  8
AM_VIEWS
100
AcDbViewport
 10
204.9674224853516
 20
143.4782419204712
 30
0.0
 40
422.4372280469156
 41
329.5667868615042
 68
     0
 69
     0
 12
204.9674224853516
 22
143.4782419204712
 13
0.0
 23
0.0
 14
10.0
 24
10.0
 15
10.0
 25
10.0
 16
0.0
 26
0.0
 36
1.0
 17
0.0
 27
0.0
 37
0.0
 42
50.0
 43
0.0
 44
0.0
 45
329.5667868615042
 50
0.0
 51
0.0
 72
   100
331
1969
 90
    32800
  1

281
     0
 71
     1
 74
     0
110
0.0
120
0.0
130
0.0
111
1.0
121
0.0
131
0.0
112
0.0
122
1.0
132
0.0
 79
     0
146
0.0
170
     0
 61
     5
348
23C6
292
     1
282
     1
141
0.0
142
0.0
 63
   250
421
  3355443
  0
ENDBLK
  5
2E3
330
2E0
100
AcDbEntity
 67
     1
  8
0
100
AcDbBlockEnd
  0
BLOCK
  5
347
330
345
100
AcDbEntity
 67
     1
  8
0
100
AcDbBlockBegin
  2
*Paper_Space3
 70
     0
 10
0.0
 20
0.0
 30
0.0
  3
*Paper_Space3
  1

  0
VIEWPORT
  5
346
330
345
100
AcDbEntity
 67
     1
  8
AM_VIEWS
100
AcDbViewport
 10
279.9926452636719
 20
204.9779944419861
 30
0.0
 40
597.3137355517764
 41
465.9976808487594
 68
     0
 69
     0
 12
279.9926452636719
 22
204.9779944419861
 13
0.0
 23
0.0
 14
10.0
 24
10.0
 15
10.0
 25
10.0
 16
0.0
 26
0.0
 36
1.0
 17
0.0
 27
0.0
 37
0.0
 42
50.0
 43
0.0
 44
0.0
 45
465.9976808487594
 50
0.0
 51
0.0
 72
   100
331
1969
 90
    32800
  1

281
     0
 71
     1
 74
     0
110
0.0
120
0.0
130
0.0
111
1.0
121
0.0
131
0.0
112
0.0
122
1.0
132
0.0
 79
     0
146
0.0
170
     0
 61
     5
348
23C6
292
     1
282
     1
141
0.0
142
0.0
 63
   250
421
  3355443
  0
ENDBLK
  5
348
330
345
100
AcDbEntity
 67
     1
  8
0
100
AcDbBlockEnd
  0
BLOCK
  5
39D
330
39B
100
AcDbEntity
  8
0
100
AcDbBlockBegin
  2
GENAXEH
 70
     0
 10
0.0
 20
0.0
 30
0.0
  3
GENAXEH
  1

  0
LINE
  5
39C
330
39B
100
AcDbEntity
  8
0
100
AcDbLine
 10
-1.0
 20
0.0
 30
0.0
 11
1.0
 21
0.0
 31
0.0
  0
ENDBLK
  5
39E
330
39B
100
AcDbEntity
  8
0
100
AcDbBlockEnd
  0
BLOCK
  5
3F9
330
3F8
100
AcDbEntity
  8
ASHADE
100
AcDbBlockBegin
  2
AVE_RENDER
 70
     0
 10
0.0
 20
0.0
 30
0.0
  3
AVE_RENDER
  1
AVE_RENDER
  0
ENDBLK
  5
3FA
330
3F8
100
AcDbEntity
  8
0
100
AcDbBlockEnd
  0
BLOCK
  5
407
330
406
100
AcDbEntity
  8
ASHADE
100
AcDbBlockBegin
  2
AVE_GLOBAL
 70
     0
 10
0.0
 20
0.0
 30
0.0
  3
AVE_GLOBAL
  1
AVE_GLOBAL
  0
ENDBLK
  5
408
330
406
100
AcDbEntity
  8
0
100
AcDbBlockEnd
  0
BLOCK
  5
595
330
594
100
AcDbEntity
  8
0
100
AcDbBlockBegin
  2
*U7
 70
     1
 10
0.0
 20
0.0
 30
0.0
  3
*U7
  1

  0
ENDBLK
  5
596
330
594
100
AcDbEntity
  8
0
100
AcDbBlockEnd
  0
BLOCK
  5
5E6
330
5E5
100
AcDbEntity
  8
0
100
AcDbBlockBegin
  2
*U8
 70
     1
 10
0.0
 20
0.0
 30
0.0
  3
*U8
  1

  0
ENDBLK
  5
5E7
330
5E5
100
AcDbEntity
  8
0
100
AcDbBlockEnd
  0
BLOCK
  5
1369
330
1366
100
AcDbEntity
  8
0
100
AcDbBlockBegin
  2
GENDOT
 70
     0
 10
0.0
 20
0.0
 30
0.0
  3
GENDOT
  1

  0
LINE
  5
1367
330
1366
100
AcDbEntity
  8
0
100
AcDbLine
 10
0.0
 20
0.0
 30
0.0
 11
-1.0
 21
0.0
 31
0.0
  0
LWPOLYLINE
  5
1368
330
1366
100
AcDbEntity
  8
0
100
AcDbPolyline
 90
        2
 70
     1
 43
0.25
 10
-0.125
 20
0.0
 42
1.0
 10
0.125
 20
0.0
 42
1.0
  0
ENDBLK
  5
136A
330
1366
100
AcDbEntity
  8
0
100
AcDbBlockEnd
  0
BLOCK
  5
1848
330
1844
100
AcDbEntity
  8
0
100
AcDbBlockBegin
  2
_Open30
 70
     0
 10
0.0
 20
0.0
 30
0.0
  3
_Open30
  1

  0
LINE
  5
1845
330
1844
100
AcDbEntity
  8
0
  6
ByBlock
 62
     0
370
    -2
100
AcDbLine
 10
-1.0
 20
0.26794919
 30
0.0
 11
0.0
 21
0.0
 31
0.0
  0
LINE
  5
1846
330
1844
100
AcDbEntity
  8
0
  6
ByBlock
 62
     0
370
    -2
100
AcDbLine
 10
0.0
 20
0.0
 30
0.0
 11
-1.0
 21
-0.26794919
 31
0.0
  0
LINE
  5
1847
330
1844
100
AcDbEntity
  8
0
  6
ByBlock
 62
     0
370
    -2
100
AcDbLine
 10
0.0
 20
0.0
 30
0.0
 11
-1.0
 21
0.0
 31
0.0
  0
ENDBLK
  5
1849
330
1844
100
AcDbEntity
  8
0
100
AcDbBlockEnd
  0
BLOCK
  5
4DC7
330
4DC6
100
AcDbEntity
  8
0
100
AcDbBlockBegin
  2
*D11
 70
     1
 10
0.0
 20
0.0
 30
0.0
  3
*D11
  1

  0
LINE
  5
4DE6
330
4DC6
100
AcDbEntity
  8
AM_5
100
AcDbLine
 10
177.2210886344203
 20
232.3329365414398
 30
0.0
 11
229.5877115914406
 21
232.3329365414398
 31
0.0
  0
LINE
  5
4DE7
330
4DC6
100
AcDbEntity
  8
AM_5
100
AcDbLine
 10
173.8768842086086
 20
184.495633856656
 30
0.0
 11
229.5877115914405
 21
184.4956338566559
 31
0.0
  0
LINE
  5
4DE8
330
4DC6
100
AcDbEntity
  8
AM_5
100
AcDbLine
 10
227.5877115914406
 20
226.3329365414398
 30
0.0
 11
227.5877115914405
 21
190.4956338566559
 31
0.0
  0
SOLID
  5
4DE9
330
4DC6
100
AcDbEntity
  8
AM_5
100
AcDbTrace
 10
226.5877115914406
 20
226.3329365414398
 30
0.0
 11
228.5877115914406
 21
226.3329365414398
 31
0.0
 12
227.5877115914406
 22
232.3329365414398
 32
0.0
 13
227.5877115914406
 23
232.3329365414398
 33
0.0
  0
SOLID
  5
4DEA
330
4DC6
100
AcDbEntity
  8
AM_5
100
AcDbTrace
 10
226.5877115914405
 20
190.4956338566559
 30
0.0
 11
228.5877115914405
 21
190.4956338566559
 31
0.0
 12
227.5877115914405
 22
184.4956338566559
 32
0.0
 13
227.5877115914405
 23
184.4956338566559
 33
0.0
  0
MTEXT
  5
4DEB
330
4DC6
100
AcDbEntity
  8
AM_5
 62
     2
100
AcDbMText
 10
221.0877115914405
 20
208.4142851990479
 30
0.0
 40
7.0
 41
0.0
 46
0.0
 71
     5
 72
     1
  1
48
 11
0.0000000000000001
 21
1.0
 31
0.0
 73
     1
 44
1.0
  0
POINT
  5
4DEC
330
4DC6
100
AcDbEntity
  8
Defpoints
 62
     0
100
AcDbPoint
 10
177.2210886344203
 20
232.3329365414398
 30
0.0
  0
POINT
  5
4DED
330
4DC6
100
AcDbEntity
  8
Defpoints
 62
     0
100
AcDbPoint
 10
173.8768842086086
 20
184.495633856656
 30
0.0
  0
POINT
  5
4DEE
330
4DC6
100
AcDbEntity
  8
Defpoints
 62
     0
100
AcDbPoint
 10
227.5877115914405
 20
184.4956338566559
 30
0.0
  0
ENDBLK
  5
4DC8
330
4DC6
100
AcDbEntity
  8
0
100
AcDbBlockEnd
  0
BLOCK
  5
4DF1
330
4DF0
100
AcDbEntity
  8
0
100
AcDbBlockBegin
  2
*D12
 70
     1
 10
0.0
 20
0.0
 30
0.0
  3
*D12
  1

  0
LINE
  5
4E07
330
4DF0
100
AcDbEntity
  8
AM_5
100
AcDbLine
 10
131.3878967627773
 20
222.3801357801226
 30
0.0
 11
131.3878967627773
 21
246.471229094907
 31
0.0
  0
LINE
  5
4E08
330
4DF0
100
AcDbEntity
  8
AM_5
100
AcDbLine
 10
165.3878977164517
 20
236.1462018251848
 30
0.0
 11
165.3878977164517
 21
246.471229094907
 31
0.0
  0
LINE
  5
4E09
330
4DF0
100
AcDbEntity
  8
AM_5
100
AcDbLine
 10
137.3878967627773
 20
244.471229094907
 30
0.0
 11
159.3878977164516
 21
244.471229094907
 31
0.0
  0
SOLID
  5
4E0A
330
4DF0
100
AcDbEntity
  8
AM_5
100
AcDbTrace
 10
137.3878967627773
 20
245.471229094907
 30
0.0
 11
137.3878967627773
 21
243.471229094907
 31
0.0
 12
131.3878967627773
 22
244.471229094907
 32
0.0
 13
131.3878967627773
 23
244.471229094907
 33
0.0
  0
SOLID
  5
4E0B
330
4DF0
100
AcDbEntity
  8
AM_5
100
AcDbTrace
 10
159.3878977164516
 20
245.471229094907
 30
0.0
 11
159.3878977164516
 21
243.471229094907
 31
0.0
 12
165.3878977164517
 22
244.471229094907
 32
0.0
 13
165.3878977164517
 23
244.471229094907
 33
0.0
  0
MTEXT
  5
4E0C
330
4DF0
100
AcDbEntity
  8
AM_5
 62
     2
100
AcDbMText
 10
148.3878972396145
 20
250.971229094907
 30
0.0
 40
7.0
 41
0.0
 46
0.0
 71
     5
 72
     1
  1
34
 73
     1
 44
1.0
  0
POINT
  5
4E0D
330
4DF0
100
AcDbEntity
  8
Defpoints
 62
     0
100
AcDbPoint
 10
131.3878967627773
 20
222.3801357801226
 30
0.0
  0
POINT
  5
4E0E
330
4DF0
100
AcDbEntity
  8
Defpoints
 62
     0
100
AcDbPoint
 10
165.3878977164517
 20
236.1462018251848
 30
0.0
  0
POINT
  5
4E0F
330
4DF0
100
AcDbEntity
  8
Defpoints
 62
     0
100
AcDbPoint
 10
165.3878977164517
 20
244.471229094907
 30
0.0
  0
ENDBLK
  5
4DF2
330
4DF0
100
AcDbEntity
  8
0
100
AcDbBlockEnd
  0
BLOCK
  5
4E12
330
4E11
100
AcDbEntity
  8
0
100
AcDbBlockBegin
  2
*D13
 70
     1
 10
0.0
 20
0.0
 30
0.0
  3
*D13
  1

  0
LINE
  5
4E28
330
4E11
100
AcDbEntity
  8
AM_5
100
AcDbLine
 10
165.3878977164517
 20
236.1462018251848
 30
0.0
 11
165.3878977164517
 21
246.4712290949069
 31
0.0
  0
LINE
  5
4E29
330
4E11
100
AcDbEntity
  8
AM_5
100
AcDbLine
 10
183.404384675906
 20
236.272724098474
 30
0.0
 11
183.404384675906
 21
246.4712290949069
 31
0.0
  0
LINE
  5
4E2A
330
4E11
100
AcDbEntity
  8
AM_5
100
AcDbLine
 10
171.3878977164517
 20
244.4712290949069
 30
0.0
 11
177.404384675906
 21
244.4712290949069
 31
0.0
  0
SOLID
  5
4E2B
330
4E11
100
AcDbEntity
  8
AM_5
100
AcDbTrace
 10
171.3878977164517
 20
245.4712290949069
 30
0.0
 11
171.3878977164517
 21
243.4712290949069
 31
0.0
 12
165.3878977164517
 22
244.4712290949069
 32
0.0
 13
165.3878977164517
 23
244.4712290949069
 33
0.0
  0
SOLID
  5
4E2C
330
4E11
100
AcDbEntity
  8
AM_5
100
AcDbTrace
 10
177.404384675906
 20
245.4712290949069
 30
0.0
 11
177.404384675906
 21
243.4712290949069
 31
0.0
 12
183.404384675906
 22
244.4712290949069
 32
0.0
 13
183.404384675906
 23
244.4712290949069
 33
0.0
  0
MTEXT
  5
4E2D
330
4E11
100
AcDbEntity
  8
AM_5
 62
     2
100
AcDbMText
 10
174.3961411961788
 20
250.9712290949069
 30
0.0
 40
7.0
 41
0.0
 46
0.0
 71
     5
 72
     1
  1
18
 73
     1
 44
1.0
  0
POINT
  5
4E2E
330
4E11
100
AcDbEntity
  8
Defpoints
 62
     0
100
AcDbPoint
 10
165.3878977164517
 20
236.1462018251848
 30
0.0
  0
POINT
  5
4E2F
330
4E11
100
AcDbEntity
  8
Defpoints
 62
     0
100
AcDbPoint
 10
183.404384675906
 20
236.272724098474
 30
0.0
  0
POINT
  5
4E30
330
4E11
100
AcDbEntity
  8
Defpoints
 62
     0
100
AcDbPoint
 10
183.404384675906
 20
244.4712290949069
 30
0.0
  0
ENDBLK
  5
4E13
330
4E11
100
AcDbEntity
  8
0
100
AcDbBlockEnd
  0
BLOCK
  5
4E33
330
4E32
100
AcDbEntity
  8
0
100
AcDbBlockBegin
  2
*D14
 70
     1
 10
0.0
 20
0.0
 30
0.0
  3
*D14
  1

  0
LINE
  5
4F63
330
4E32
100
AcDbEntity
  8
AM_5
100
AcDbLine
 10
121.387896762824
 20
120.1100439802209
 30
0.0
 11
121.387896762824
 21
148.134945101361
 31
0.0
  0
LINE
  5
4F64
330
4E32
100
AcDbEntity
  8
AM_5
100
AcDbLine
 10
141.387896762824
 20
120.1100439802209
 30
0.0
 11
141.387896762824
 21
148.134945101361
 31
0.0
  0
LINE
  5
4F65
330
4E32
100
AcDbEntity
  8
AM_5
100
AcDbLine
 10
127.387896762824
 20
146.134945101361
 30
0.0
 11
135.387896762824
 21
146.134945101361
 31
0.0
  0
SOLID
  5
4F66
330
4E32
100
AcDbEntity
  8
AM_5
100
AcDbTrace
 10
127.387896762824
 20
147.134945101361
 30
0.0
 11
127.387896762824
 21
145.134945101361
 31
0.0
 12
121.387896762824
 22
146.134945101361
 32
0.0
 13
121.387896762824
 23
146.134945101361
 33
0.0
  0
SOLID
  5
4F67
330
4E32
100
AcDbEntity
  8
AM_5
100
AcDbTrace
 10
135.387896762824
 20
147.134945101361
 30
0.0
 11
135.387896762824
 21
145.134945101361
 31
0.0
 12
141.387896762824
 22
146.134945101361
 32
0.0
 13
141.387896762824
 23
146.134945101361
 33
0.0
  0
MTEXT
  5
4F68
330
4E32
100
AcDbEntity
  8
AM_5
 62
     2
100
AcDbMText
 10
131.3767502901161
 20
152.635634077739
 30
0.0
 40
7.0
 41
0.0
 46
0.0
 71
     5
 72
     1
  1
%%c20
 73
     1
 44
1.0
  0
POINT
  5
4F69
330
4E32
100
AcDbEntity
  8
Defpoints
 62
     0
100
AcDbPoint
 10
121.387896762824
 20
120.1100439802209
 30
0.0
  0
POINT
  5
4F6A
330
4E32
100
AcDbEntity
  8
Defpoints
 62
     0
100
AcDbPoint
 10
141.387896762824
 20
120.1100439802209
 30
0.0
  0
POINT
  5
4F6B
330
4E32
100
AcDbEntity
  8
Defpoints
 62
     0
100
AcDbPoint
 10
141.387896762824
 20
146.134945101361
 30
0.0
  0
ENDBLK
  5
4E34
330
4E32
100
AcDbEntity
  8
0
100
AcDbBlockEnd
  0
BLOCK
  5
4E54
330
4E53
100
AcDbEntity
  8
0
100
AcDbBlockBegin
  2
*D15
 70
     1
 10
0.0
 20
0.0
 30
0.0
  3
*D15
  1

  0
LINE
  5
4E6E
330
4E53
100
AcDbEntity
  8
AM_5
100
AcDbLine
 10
141.387896762824
 20
120.1100439802209
 30
0.0
 11
158.6510558987335
 21
120.1100439802209
 31
0.0
  0
LINE
  5
4E6F
330
4E53
100
AcDbEntity
  8
AM_5
100
AcDbLine
 10
143.387896762824
 20
105.8251930193563
 30
0.0
 11
158.6510558987335
 21
105.8251930193563
 31
0.0
  0
LINE
  5
4E70
330
4E53
100
AcDbEntity
  8
AM_5
100
AcDbLine
 10
156.6510558987335
 20
126.1100439802209
 30
0.0
 11
156.6510558987335
 21
132.1100439802209
 31
0.0
  0
LINE
  5
4E71
330
4E53
100
AcDbEntity
  8
AM_5
100
AcDbLine
 10
156.6510558987335
 20
99.82519301935631
 30
0.0
 11
156.6510558987335
 21
93.8251930193563
 31
0.0
  0
LINE
  5
4E72
330
4E53
100
AcDbEntity
  8
AM_5
100
AcDbLine
 10
156.6510558987335
 20
120.1100439802209
 30
0.0
 11
156.6510558987335
 21
105.8251930193563
 31
0.0
  0
SOLID
  5
4E73
330
4E53
100
AcDbEntity
  8
AM_5
100
AcDbTrace
 10
155.6510558987335
 20
126.1100439802209
 30
0.0
 11
157.6510558987335
 21
126.1100439802209
 31
0.0
 12
156.6510558987335
 22
120.1100439802209
 32
0.0
 13
156.6510558987335
 23
120.1100439802209
 33
0.0
  0
SOLID
  5
4E74
330
4E53
100
AcDbEntity
  8
AM_5
100
AcDbTrace
 10
155.6510558987335
 20
99.82519301935631
 30
0.0
 11
157.6510558987335
 21
99.82519301935631
 31
0.0
 12
156.6510558987335
 22
105.8251930193563
 32
0.0
 13
156.6510558987335
 23
105.8251930193563
 33
0.0
  0
MTEXT
  5
4E75
330
4E53
100
AcDbEntity
  8
AM_5
 62
     2
100
AcDbMText
 10
150.1510558987334
 20
112.9676184997886
 30
0.0
 40
7.0
 41
0.0
 46
0.0
 71
     5
 72
     1
  1
14
 11
0.0000000000000001
 21
1.0
 31
0.0
 73
     1
 44
1.0
  0
POINT
  5
4E76
330
4E53
100
AcDbEntity
  8
Defpoints
 62
     0
100
AcDbPoint
 10
141.387896762824
 20
120.1100439802209
 30
0.0
  0
POINT
  5
4E77
330
4E53
100
AcDbEntity
  8
Defpoints
 62
     0
100
AcDbPoint
 10
143.387896762824
 20
105.8251930193563
 30
0.0
  0
POINT
  5
4E78
330
4E53
100
AcDbEntity
  8
Defpoints
 62
     0
100
AcDbPoint
 10
156.6510558987335
 20
105.8251930193563
 30
0.0
  0
ENDBLK
  5
4E55
330
4E53
100
AcDbEntity
  8
0
100
AcDbBlockEnd
  0
BLOCK
  5
4E7B
330
4E7A
100
AcDbEntity
  8
0
100
AcDbBlockBegin
  2
*D16
 70
     1
 10
0.0
 20
0.0
 30
0.0
  3
*D16
  1

  0
LINE
  5
4F15
330
4E7A
100
AcDbEntity
  8
AM_5
100
AcDbLine
 10
207.2205691901829
 20
80.51802847087259
 30
0.0
 11
224.8074479549845
 21
80.51802847087257
 31
0.0
  0
LINE
  5
4F16
330
4E7A
100
AcDbEntity
  8
AM_5
100
AcDbLine
 10
193.9619715421978
 20
72.11004398022407
 30
0.0
 11
224.8074479549845
 21
72.11004398022405
 31
0.0
  0
LINE
  5
4F17
330
4E7A
100
AcDbEntity
  8
AM_5
100
AcDbLine
 10
222.8074479549845
 20
66.11004398022406
 30
0.0
 11
222.8074479549845
 21
60.11004398022405
 31
0.0
  0
LINE
  5
4F18
330
4E7A
100
AcDbEntity
  8
AM_5
100
AcDbLine
 10
222.8074479549845
 20
86.51802847087258
 30
0.0
 11
222.8074479549845
 21
101.3180284708725
 31
0.0
  0
LINE
  5
4F19
330
4E7A
100
AcDbEntity
  8
AM_5
100
AcDbLine
 10
222.8074479549845
 20
72.11004398022407
 30
0.0
 11
222.8074479549845
 21
80.51802847087259
 31
0.0
  0
SOLID
  5
4F1A
330
4E7A
100
AcDbEntity
  8
AM_5
100
AcDbTrace
 10
221.8074479549845
 20
66.11004398022406
 30
0.0
 11
223.8074479549845
 21
66.11004398022406
 31
0.0
 12
222.8074479549845
 22
72.11004398022407
 32
0.0
 13
222.8074479549845
 23
72.11004398022407
 33
0.0
  0
SOLID
  5
4F1B
330
4E7A
100
AcDbEntity
  8
AM_5
100
AcDbTrace
 10
221.8074479549845
 20
86.51802847087258
 30
0.0
 11
223.8074479549845
 21
86.51802847087258
 31
0.0
 12
222.8074479549845
 22
80.51802847087259
 32
0.0
 13
222.8074479549845
 23
80.51802847087259
 33
0.0
  0
MTEXT
  5
4F1C
330
4E7A
100
AcDbEntity
  8
AM_5
 62
     2
100
AcDbMText
 10
216.3074479549845
 20
96.91802847087261
 30
0.0
 40
7.0
 41
0.0
 46
0.0
 71
     5
 72
     1
  1
8
 11
0.0000000000000001
 21
1.0
 31
0.0
 73
     1
 44
1.0
  0
POINT
  5
4F1D
330
4E7A
100
AcDbEntity
  8
Defpoints
 62
     0
100
AcDbPoint
 10
207.2205691901829
 20
80.51802847087259
 30
0.0
  0
POINT
  5
4F1E
330
4E7A
100
AcDbEntity
  8
Defpoints
 62
     0
100
AcDbPoint
 10
193.9619715421978
 20
72.11004398022407
 30
0.0
  0
POINT
  5
4F1F
330
4E7A
100
AcDbEntity
  8
Defpoints
 62
     0
100
AcDbPoint
 10
222.8074479549845
 20
72.11004398022407
 30
0.0
  0
ENDBLK
  5
4E7C
330
4E7A
100
AcDbEntity
  8
0
100
AcDbBlockEnd
  0
BLOCK
  5
4EA2
330
4EA1
100
AcDbEntity
  8
0
100
AcDbBlockBegin
  2
*D17
 70
     1
 10
0.0
 20
0.0
 30
0.0
  3
*D17
  1

  0
LINE
  5
4EC1
330
4EA1
100
AcDbEntity
  8
AM_5
100
AcDbLine
 10
142.2514633609902
 20
208.6013676938215
 30
0.0
 11
142.2514633609902
 21
168.3729962366303
 31
0.0
  0
LINE
  5
4EC2
330
4EA1
100
AcDbEntity
  8
AM_5
100
AcDbLine
 10
207.3107654506529
 20
208.4138425370406
 30
0.0
 11
207.3107654506529
 21
168.3729962366303
 31
0.0
  0
LINE
  5
4EC3
330
4EA1
100
AcDbEntity
  8
AM_5
100
AcDbLine
 10
148.2514633609902
 20
170.3729962366303
 30
0.0
 11
201.3107654506529
 21
170.3729962366303
 31
0.0
  0
SOLID
  5
4EC4
330
4EA1
100
AcDbEntity
  8
AM_5
100
AcDbTrace
 10
148.2514633609902
 20
171.3729962366303
 30
0.0
 11
148.2514633609902
 21
169.3729962366303
 31
0.0
 12
142.2514633609902
 22
170.3729962366303
 32
0.0
 13
142.2514633609902
 23
170.3729962366303
 33
0.0
  0
SOLID
  5
4EC5
330
4EA1
100
AcDbEntity
  8
AM_5
100
AcDbTrace
 10
201.3107654506529
 20
171.3729962366303
 30
0.0
 11
201.3107654506529
 21
169.3729962366303
 31
0.0
 12
207.3107654506529
 22
170.3729962366303
 32
0.0
 13
207.3107654506529
 23
170.3729962366303
 33
0.0
  0
MTEXT
  5
4EC6
330
4EA1
100
AcDbEntity
  8
AM_5
 62
     2
100
AcDbMText
 10
174.7811144058215
 20
176.8729962366303
 30
0.0
 40
7.0
 41
0.0
 46
0.0
 71
     5
 72
     1
  1
65
 73
     1
 44
1.0
  0
POINT
  5
4EC7
330
4EA1
100
AcDbEntity
  8
Defpoints
 62
     0
100
AcDbPoint
 10
142.2514633609902
 20
208.6013676938215
 30
0.0
  0
POINT
  5
4EC8
330
4EA1
100
AcDbEntity
  8
Defpoints
 62
     0
100
AcDbPoint
 10
207.3107654506529
 20
208.4138425370406
 30
0.0
  0
POINT
  5
4EC9
330
4EA1
100
AcDbEntity
  8
Defpoints
 62
     0
100
AcDbPoint
 10
207.3107654506529
 20
170.3729962366303
 30
0.0
  0
ENDBLK
  5
4EA3
330
4EA1
100
AcDbEntity
  8
0
100
AcDbBlockEnd
  0
BLOCK
  5
4ECC
330
4ECB
100
AcDbEntity
  8
0
100
AcDbBlockBegin
  2
*D18
 70
     1
 10
0.0
 20
0.0
 30
0.0
  3
*D18
  1

  0
LINE
  5
4EE2
330
4ECB
100
AcDbEntity
  8
AM_5
100
AcDbLine
 10
154.8138219834502
 20
72.11004398022407
 30
0.0
 11
95.38789676282883
 21
72.11004398022407
 31
0.0
  0
LINE
  5
4EE3
330
4ECB
100
AcDbEntity
  8
AM_5
100
AcDbLine
 10
121.387896762824
 20
120.1100439802209
 30
0.0
 11
95.38789676282885
 21
120.1100439802209
 31
0.0
  0
LINE
  5
4EE4
330
4ECB
100
AcDbEntity
  8
AM_5
100
AcDbLine
 10
97.38789676282884
 20
78.11004398022406
 30
0.0
 11
97.38789676282884
 21
114.1100439802209
 31
0.0
  0
SOLID
  5
4EE5
330
4ECB
100
AcDbEntity
  8
AM_5
100
AcDbTrace
 10
96.38789676282883
 20
78.11004398022406
 30
0.0
 11
98.38789676282884
 21
78.11004398022406
 31
0.0
 12
97.38789676282884
 22
72.11004398022407
 32
0.0
 13
97.38789676282884
 23
72.11004398022407
 33
0.0
  0
SOLID
  5
4EE6
330
4ECB
100
AcDbEntity
  8
AM_5
100
AcDbTrace
 10
96.38789676282884
 20
114.1100439802209
 30
0.0
 11
98.38789676282885
 21
114.1100439802209
 31
0.0
 12
97.38789676282884
 22
120.1100439802209
 32
0.0
 13
97.38789676282884
 23
120.1100439802209
 33
0.0
  0
MTEXT
  5
4EE7
330
4ECB
100
AcDbEntity
  8
AM_5
 62
     2
100
AcDbMText
 10
90.88789676282882
 20
96.11004398022252
 30
0.0
 40
7.0
 41
0.0
 46
0.0
 71
     5
 72
     1
  1
48
 11
0.0000000000000001
 21
1.0
 31
0.0
 73
     1
 44
1.0
  0
POINT
  5
4EE8
330
4ECB
100
AcDbEntity
  8
Defpoints
 62
     0
100
AcDbPoint
 10
154.8138219834502
 20
72.11004398022407
 30
0.0
  0
POINT
  5
4EE9
330
4ECB
100
AcDbEntity
  8
Defpoints
 62
     0
100
AcDbPoint
 10
121.387896762824
 20
120.1100439802209
 30
0.0
  0
POINT
  5
4EEA
330
4ECB
100
AcDbEntity
  8
Defpoints
 62
     0
100
AcDbPoint
 10
97.38789676282884
 20
120.1100439802209
 30
0.0
  0
ENDBLK
  5
4ECD
330
4ECB
100
AcDbEntity
  8
0
100
AcDbBlockEnd
  0
BLOCK
  5
4EED
330
4EEC
100
AcDbEntity
  8
0
100
AcDbBlockBegin
  2
*D19
 70
     1
 10
0.0
 20
0.0
 30
0.0
  3
*D19
  1

  0
LINE
  5
4F0C
330
4EEC
100
AcDbEntity
  8
AM_5
100
AcDbLine
 10
121.387896762824
 20
109.1100439802209
 30
0.0
 11
121.387896762824
 21
48.73719651581257
 31
0.0
  0
LINE
  5
4F0D
330
4EEC
100
AcDbEntity
  8
AM_5
100
AcDbLine
 10
207.2205691901829
 20
80.51802847087259
 30
0.0
 11
207.2205691901829
 21
48.73719651581257
 31
0.0
  0
LINE
  5
4F0E
330
4EEC
100
AcDbEntity
  8
AM_5
100
AcDbLine
 10
127.387896762824
 20
50.73719651581257
 30
0.0
 11
201.2205691901829
 21
50.73719651581257
 31
0.0
  0
SOLID
  5
4F0F
330
4EEC
100
AcDbEntity
  8
AM_5
100
AcDbTrace
 10
127.387896762824
 20
51.73719651581257
 30
0.0
 11
127.387896762824
 21
49.73719651581257
 31
0.0
 12
121.387896762824
 22
50.73719651581257
 32
0.0
 13
121.387896762824
 23
50.73719651581257
 33
0.0
  0
SOLID
  5
4F10
330
4EEC
100
AcDbEntity
  8
AM_5
100
AcDbTrace
 10
201.2205691901829
 20
51.73719651581257
 30
0.0
 11
201.2205691901829
 21
49.73719651581257
 31
0.0
 12
207.2205691901829
 22
50.73719651581257
 32
0.0
 13
207.2205691901829
 23
50.73719651581257
 33
0.0
  0
MTEXT
  5
4F11
330
4EEC
100
AcDbEntity
  8
AM_5
 62
     2
100
AcDbMText
 10
164.3042329765034
 20
57.23719651581257
 30
0.0
 40
7.0
 41
0.0
 46
0.0
 71
     5
 72
     1
  1
86
 73
     1
 44
1.0
  0
POINT
  5
4F12
330
4EEC
100
AcDbEntity
  8
Defpoints
 62
     0
100
AcDbPoint
 10
121.387896762824
 20
109.1100439802209
 30
0.0
  0
POINT
  5
4F13
330
4EEC
100
AcDbEntity
  8
Defpoints
 62
     0
100
AcDbPoint
 10
207.2205691901829
 20
80.51802847087259
 30
0.0
  0
POINT
  5
4F14
330
4EEC
100
AcDbEntity
  8
Defpoints
 62
     0
100
AcDbPoint
 10
207.2205691901829
 20
50.73719651581257
 30
0.0
  0
ENDBLK
  5
4EEE
330
4EEC
100
AcDbEntity
  8
0
100
AcDbBlockEnd
  0
ENDSEC
  0
SECTION
  2
ENTITIES
  0
INSERT
  5
3FB
330
1A
100
AcDbEntity
  8
ASHADE
 62
     1
100
AcDbBlockReference
  2
AVE_RENDER
 10
0.0
 20
0.0
 30
0.0
1001
AVE_RENDER
1002
{
1070
     7
1000
Pref
1070
    60
1070
    30
1070
     1
1070
     0
1000

1070
    10
1070
     1
1070
    10
1040
1.0
1070
     1
1040
0.3
1040
0.7
1040
0.0
1040
10.0
1010
-1.0
1020
-1.0
1030
-1.0
1040
0.3
1070
    49
1070
     1
1070
     0
1010
1.0
1020
1.0
1030
1.0
1040
45.0
1070
     1
1070
     0
1000
WCS
1040
0.0
1070
     1
1040
10.0
1002
}
  0
INSERT
  5
3FC
330
1A
100
AcDbEntity
  8
ASHADE
 62
     3
100
AcDbBlockReference
  2
AVE_RENDER
 10
0.0
 20
0.0
 30
0.0
1001
AVE_RENDER
1002
{
1070
     0
1000
Full Opt
1070
     0
1070
     1
1070
     1
1070
     1
1070
     0
1070
     0
1070
     0
1070
     1
1070
     1
1040
0.0001
1040
0.0001
1002
}
  0
INSERT
  5
3FD
330
1A
100
AcDbEntity
  8
ASHADE
 62
     4
100
AcDbBlockReference
  2
AVE_RENDER
 10
0.0
 20
0.0
 30
0.0
1001
AVE_RENDER
1002
{
1070
     0
1000
Quick Opt
1070
     0
1070
     1
1070
     1
1070
     1
1070
     0
1070
     0
1070
     1
1002
}
  0
INSERT
  5
3FE
330
1A
100
AcDbEntity
  8
ASHADE
 62
     5
100
AcDbBlockReference
  2
AVE_RENDER
 10
0.0
 20
0.0
 30
0.0
1001
AVE_RENDER
1002
{
1070
     1
1000
Scanl Opt
1070
     2
1070
     0
1070
     2
1040
2.0
1040
4.0
1070
     0
1070
     1
1070
     0
1040
0.03
1002
}
  0
INSERT
  5
3FF
330
1A
100
AcDbEntity
  8
ASHADE
 62
     6
100
AcDbBlockReference
  2
AVE_RENDER
 10
0.0
 20
0.0
 30
0.0
1001
AVE_RENDER
1002
{
1070
     2
1000
Raytr Opt
1070
     3
1070
     0
1070
     2
1040
2.0
1040
4.0
1070
     0
1070
     1
1070
     1
1040
0.03
1070
     3
1040
0.03
1002
}
  0
INSERT
  5
400
330
1A
100
AcDbEntity
  8
ASHADE
 62
     7
100
AcDbBlockReference
  2
AVE_RENDER
 10
0.0
 20
0.0
 30
0.0
1001
AVE_RENDER
1002
{
1070
     0
1000
RFile Opt
1070
     5
1070
  1600
1070
  1280
1070
 10000
1070
     1
1070
    32
1070
    32
1070
     0
1070
     0
1070
     0
1070
     0
1070
     0
1070
     0
1070
     0
1002
}
  0
INSERT
  5
401
330
1A
100
AcDbEntity
  8
ASHADE
 62
     8
100
AcDbBlockReference
  2
AVE_RENDER
 10
0.0
 20
0.0
 30
0.0
1001
AVE_RENDER
1002
{
1070
     0
1000
Fog Opt
1070
     0
1070
     0
1040
0.0
1040
1.0
1040
0.0
1040
1.0
1010
0.5
1020
0.5
1030
0.5
1002
}
  0
INSERT
  5
402
330
1A
100
AcDbEntity
  8
ASHADE
 62
     9
100
AcDbBlockReference
  2
AVE_RENDER
 10
0.0
 20
0.0
 30
0.0
1001
AVE_RENDER
1002
{
1070
     0
1000
BG Opt
1070
     0
1070
     0
1010
1.0
1020
1.0
1030
1.0
1010
1.0
1020
0.0
1030
0.0
1010
0.0
1020
1.0
1030
0.0
1010
0.0
1020
0.0
1030
1.0
1040
0.5
1040
0.33
1040
0.0
1000

1070
     1
1000

1070
     1
1070
     1
1040
1.0
1040
1.0
1040
0.0
1040
0.0
1070
     0
1002
}
  0
INSERT
  5
409
330
1A
100
AcDbEntity
  8
ASHADE
 62
     1
100
AcDbBlockReference
  2
AVE_GLOBAL
 10
0.0
 20
0.0
 30
0.0
1001
AVE_MATERIAL
1002
{
1000
*GLOBAL*
1000
2
1000
Globales Material.
1002
{
1002
}
1002
{
1070
    63
1002
{
1002
{
1010
-1.0
1020
-1.0
1030
-1.0
1002
}
1040
0.1000000014901161
1000

1040
0.0
1002
{
1002
}
1040
0.0
1002
{
1002
}
1040
0.0
1002
}
1002
{
1002
{
1010
-1.0
1020
-1.0
1030
-1.0
1002
}
1040
0.6999999880790711
1000

1040
0.0
1002
{
1002
}
1040
0.0
1002
{
1002
}
1040
0.0
1002
}
1002
{
1002
{
1010
-1.0
1020
-1.0
1030
-1.0
1002
}
1040
0.2000000029802322
1000

1040
0.0
1002
{
1002
}
1040
0.0
1002
{
1002
}
1040
0.0
1002
}
1002
{
1070
     0
1002
{
1070
     1
1002
{
1040
1.0
1040
1.0
1000

1040
0.0
1002
{
1002
}
1040
0.0
1002
{
1002
}
1040
0.0
1002
}
1002
}
1040
1.0
1040
0.0
1040
0.0
1002
}
1002
{
1040
1.0
1040
1.0
1000

1040
0.0
1002
{
1002
}
1040
0.0
1002
{
1002
}
1040
0.0
1002
}
1002
{
1040
0.5
1040
1.0
1000

1040
0.0
1002
{
1002
}
1040
0.0
1002
{
1002
}
1040
0.0
1002
}
1002
{
1070
     0
1040
0.0
1002
{
1002
}
1040
1.0
1002
{
1002
}
1040
0.0
1002
}
1002
{
1040
0.0
1002
{
1002
{
1010
0.0
1020
0.0
1030
0.0
1002
}
1040
1.0
1000

1040
0.0
1002
{
1002
}
1040
0.0
1002
{
1002
}
1040
0.0
1002
}
1002
}
1002
{
1002
{
1070
     1
1002
{
1040
0.0
1040
1.0
1000

1040
0.0
1002
{
1002
}
1040
0.0
1002
{
1002
}
1040
0.0
1002
}
1002
}
1040
0.0
1002
{
1002
}
1010
1.0
1020
0.0
1030
0.0
1010
0.0
1020
1.0
1030
0.0
1010
0.0
1020
0.0
1030
1.0
1070
     0
1002
}
1002
{
1002
{
1040
1.0
1040
1.0
1002
{
1070
     1
1002
{
1040
1.0
1040
1.0
1000

1040
0.0
1002
{
1002
}
1040
0.0
1002
{
1002
}
1040
0.0
1002
}
1002
}
1002
}
1070
     0
1040
0.0
1002
{
1002
}
1002
}
1002
{
1002
}
1002
}
1002
{
1071
        3
1070
     3
1070
     0
1002
{
1070
     2
1070
     0
1070
     0
1040
0.0
1002
}
1070
     0
1070
     2
1002
{
1002
}
1002
}
1002
{
1040
8030.0
1040
190.3000030517578
1040
0.3050000071525574
1040
228.0
1040
545.0
1040
14.0
1040
17.39999961853027
1040
0.4560000002384186
1002
}
1002
}
  0
POINT
  5
1677
330
1A
100
AcDbEntity
  8
0
 60
     1
100
AcDbPoint
 10
0.0
 20
0.0
 30
0.0
1001
GENIUS_GENODEF_13
1002
{
1000
HIER
1070
     1
1002
}
1002
{
1000
MANEDIT
1070
     0
1002
}
1002
{
1000
NOSEL
1070
     0
1002
}
1002
{
1000
BEHIND
1070
     0
1002
}
1002
{
1000
REACTOR
1002
}
1001
GENIUS_GENOBJ-N-SDF_13
1002
{
1000
OWNER
1000
GEN
1002
}
1001
GENIUS_GENOENT_13
1002
{
1000
MYREF
1005
1677
1002
}
1002
{
1000
GRP
1005
0
1002
}
1001
GENIUS_GENOLIS_13
1002
{
1000
ENT
1005
22
1002
}
  0
LWPOLYLINE
  5
1B95
330
1A
100
AcDbEntity
  8
AM_VIEWS
100
AcDbPolyline
 90
        4
 70
     1
 43
0.0
 10
-9.045762499763554
 20
-12.22754789266764
 10
359.4041011814528
 20
-12.22754789266764
 10
359.4041011814528
 20
305.255061680507
 10
-9.045762499763554
 20
305.255061680507
1001
GENIUS_GENSCREG_15
1040
2.0
1040
1.0
1011
-9.045762499763554
1021
-12.22754789266764
1031
0.0
1011
359.4041011814528
1021
305.255061680507
1031
0.0
1070
     2
1001
GENIUS_GENOBJ-N-SDF_13
1002
{
1000
OWNER
1000
GEN
1002
}
1001
GENIUS_GENODEF_13
1002
{
1000
HIER
1070
     0
1002
}
1002
{
1000
MANEDIT
1070
     0
1002
}
1002
{
1000
NOSEL
1070
     0
1002
}
1002
{
1000
BEHIND
1070
     0
1002
}
1002
{
1000
OTHER
1070
     0
1002
}
1002
{
1000
REACTOR
1002
}
  0
TEXT
  5
289E
330
1A
100
AcDbEntity
  8
AM_6
100
AcDbText
 10
135.8723190761516
 20
275.9480493917097
 30
0.0
 40
7.0
  1
5841
100
AcDbText
1001
GENIUS_AMGTXT_16
1040
3.5
1040
0.12
  0
POLYLINE
  5
418E
330
1A
100
AcDbEntity
  8
Sichtbare Kanten(ISO-ZOPH)
100
AcDb2dPolyline
 66
     1
 10
0.0
 20
0.0
 30
0.0
 70
   128
  0
VERTEX
  5
418F
330
418E
100
AcDbEntity
  8
Sichtbare Kanten(ISO-ZOPH)
100
AcDbVertex
100
AcDb2dVertex
 10
127.6543500289211
 20
217.6907295149583
 30
0.0
  0
VERTEX
  5
4190
330
418E
100
AcDbEntity
  8
Sichtbare Kanten(ISO-ZOPH)
100
AcDbVertex
100
AcDb2dVertex
 10
127.2034304603825
 20
217.496042267682
 30
0.0
  0
VERTEX
  5
4191
330
418E
100
AcDbEntity
  8
Sichtbare Kanten(ISO-ZOPH)
100
AcDbVertex
100
AcDb2dVertex
 10
126.7608376607189
 20
217.2783094805497
 30
0.0
  0
VERTEX
  5
4192
330
418E
100
AcDbEntity
  8
Sichtbare Kanten(ISO-ZOPH)
100
AcDbVertex
100
AcDb2dVertex
 10
126.3278301820049
 20
217.0380759400147
 30
0.0
  0
VERTEX
  5
4193
330
418E
100
AcDbEntity
  8
Sichtbare Kanten(ISO-ZOPH)
100
AcDbVertex
100
AcDb2dVertex
 10
125.905665384222
 20
216.7758870285767
 30
0.0
  0
VERTEX
  5
4194
330
418E
100
AcDbEntity
  8
Sichtbare Kanten(ISO-ZOPH)
100
AcDbVertex
100
AcDb2dVertex
 10
125.4956027135143
 20
216.4922887247819
 30
0.0
  0
VERTEX
  5
4195
330
418E
100
AcDbEntity
  8
Sichtbare Kanten(ISO-ZOPH)
100
AcDbVertex
100
AcDb2dVertex
 10
125.0988992318401
 20
216.1878264111299
 30
0.0
  0
VERTEX
  5
4196
330
418E
100
AcDbEntity
  8
Sichtbare Kanten(ISO-ZOPH)
100
AcDbVertex
100
AcDb2dVertex
 10
124.7168137892971
 20
215.8630448740739
 30
0.0
  0
VERTEX
  5
4197
330
418E
100
AcDbEntity
  8
Sichtbare Kanten(ISO-ZOPH)
100
AcDbVertex
100
AcDb2dVertex
 10
124.35060404389
 20
215.5184894961136
 30
0.0
  0
VERTEX
  5
4198
330
418E
100
AcDbEntity
  8
Sichtbare Kanten(ISO-ZOPH)
100
AcDbVertex
100
AcDb2dVertex
 10
124.0014728173504
 20
215.1546520155687
 30
0.0
  0
VERTEX
  5
4199
330
418E
100
AcDbEntity
  8
Sichtbare Kanten(ISO-ZOPH)
100
AcDbVertex
100
AcDb2dVertex
 10
123.670358286787
 20
214.7722417277116
 30
0.0
  0
VERTEX
  5
419A
330
418E
100
AcDbEntity
  8
Sichtbare Kanten(ISO-ZOPH)
100
AcDbVertex
100
AcDb2dVertex
 10
123.3582206830273
 20
214.3725323838014
 30
0.0
  0
VERTEX
  5
419B
330
418E
100
AcDbEntity
  8
Sichtbare Kanten(ISO-ZOPH)
100
AcDbVertex
100
AcDb2dVertex
 10
123.0660309657345
 20
213.9568275374192
 30
0.0
  0
VERTEX
  5
419C
330
418E
100
AcDbEntity
  8
Sichtbare Kanten(ISO-ZOPH)
100
AcDbVertex
100
AcDb2dVertex
 10
122.7947594985256
 20
213.5264313381929
 30
0.0
  0
VERTEX
  5
419D
330
418E
100
AcDbEntity
  8
Sichtbare Kanten(ISO-ZOPH)
100
AcDbVertex
100
AcDb2dVertex
 10
122.5453754529247
 20
213.0826473397034
 30
0.0
  0
VERTEX
  5
419E
330
418E
100
AcDbEntity
  8
Sichtbare Kanten(ISO-ZOPH)
100
AcDbVertex
100
AcDb2dVertex
 10
122.3188503846416
 20
212.6267790955323
 30
0.0
  0
VERTEX
  5
419F
330
418E
100
AcDbEntity
  8
Sichtbare Kanten(ISO-ZOPH)
100
AcDbVertex
100
AcDb2dVertex
 10
122.1161427363644
 20
212.1601128739137
 30
0.0
  0
VERTEX
  5
41A0
330
418E
100
AcDbEntity
  8
Sichtbare Kanten(ISO-ZOPH)
100
AcDbVertex
100
AcDb2dVertex
 10
121.937388406683
 20
211.6828131836671
 30
0.0
  0
VERTEX
  5
41A1
330
418E
100
AcDbEntity
  8
Sichtbare Kanten(ISO-ZOPH)
100
AcDbVertex
100
AcDb2dVertex
 10
121.7827739581356
 20
211.1956557792443
 30
0.0
  0
VERTEX
  5
41A2
330
418E
100
AcDbEntity
  8
Sichtbare Kanten(ISO-ZOPH)
100
AcDbVertex
100
AcDb2dVertex
 10
121.6528942450771
 20
210.700153724553
 30
0.0
  0
VERTEX
  5
41A3
330
418E
100
AcDbEntity
  8
Sichtbare Kanten(ISO-ZOPH)
100
AcDbVertex
100
AcDb2dVertex
 10
121.5483405455837
 20
210.1978205305356
 30
0.0
  0
VERTEX
  5
41A4
330
418E
100
AcDbEntity
  8
Sichtbare Kanten(ISO-ZOPH)
100
AcDbVertex
100
AcDb2dVertex
 10
121.4697041377316
 20
209.6902614992875
 30
0.0
  0
VERTEX
  5
41A5
330
418E
100
AcDbEntity
  8
Sichtbare Kanten(ISO-ZOPH)
100
AcDbVertex
100
AcDb2dVertex
 10
121.417323575903
 20
209.1798981440085
 30
0.0
  0
VERTEX
  5
41A6
330
418E
100
AcDbEntity
  8
Sichtbare Kanten(ISO-ZOPH)
100
AcDbVertex
100
AcDb2dVertex
 10
121.3911636933575
 20
208.6689185512084
 30
0.0
  0
VERTEX
  5
41A7
330
418E
100
AcDbEntity
  8
Sichtbare Kanten(ISO-ZOPH)
100
AcDbVertex
100
AcDb2dVertex
 10
121.391214953352
 20
208.1587651905436
 30
0.0
  0
VERTEX
  5
41A8
330
418E
100
AcDbEntity
  8
Sichtbare Kanten(ISO-ZOPH)
100
AcDbVertex
100
AcDb2dVertex
 10
121.417665706564
 20
207.6477768433112
 30
0.0
  0
VERTEX
  5
41A9
330
418E
100
AcDbEntity
  8
Sichtbare Kanten(ISO-ZOPH)
100
AcDbVertex
100
AcDb2dVertex
 10
121.470321045805
 20
207.1374169152993
 30
0.0
  0
VERTEX
  5
41AA
330
418E
100
AcDbEntity
  8
Sichtbare Kanten(ISO-ZOPH)
100
AcDbVertex
100
AcDb2dVertex
 10
121.5489222869167
 20
206.6297719043511
 30
0.0
  0
VERTEX
  5
41AB
330
418E
100
AcDbEntity
  8
Sichtbare Kanten(ISO-ZOPH)
100
AcDbVertex
100
AcDb2dVertex
 10
121.6532131299267
 20
206.1269281965512
 30
0.0
  0
VERTEX
  5
41AC
330
418E
100
AcDbEntity
  8
Sichtbare Kanten(ISO-ZOPH)
100
AcDbVertex
100
AcDb2dVertex
 10
121.7829360827694
 20
205.6309726995248
 30
0.0
  0
VERTEX
  5
41AD
330
418E
100
AcDbEntity
  8
Sichtbare Kanten(ISO-ZOPH)
100
AcDbVertex
100
AcDb2dVertex
 10
121.937867628027
 20
205.1436215800065
 30
0.0
  0
VERTEX
  5
41AE
330
418E
100
AcDbEntity
  8
Sichtbare Kanten(ISO-ZOPH)
100
AcDbVertex
100
AcDb2dVertex
 10
122.1175601348171
 20
204.6655565661211
 30
0.0
  0
VERTEX
  5
41AF
330
418E
100
AcDbEntity
  8
Sichtbare Kanten(ISO-ZOPH)
100
AcDbVertex
100
AcDb2dVertex
 10
122.3212208613644
 20
204.1978719991464
 30
0.0
  0
VERTEX
  5
41B0
330
418E
100
AcDbEntity
  8
Sichtbare Kanten(ISO-ZOPH)
100
AcDbVertex
100
AcDb2dVertex
 10
122.54804752915
 20
203.7416932147759
 30
0.0
  0
VERTEX
  5
41B1
330
418E
100
AcDbEntity
  8
Sichtbare Kanten(ISO-ZOPH)
100
AcDbVertex
100
AcDb2dVertex
 10
122.7972390517483
 20
203.298146740796
 30
0.0
  0
VERTEX
  5
41B2
330
418E
100
AcDbEntity
  8
Sichtbare Kanten(ISO-ZOPH)
100
AcDbVertex
100
AcDb2dVertex
 10
123.067992554594
 20
202.8683585089463
 30
0.0
  0
VERTEX
  5
41B3
330
418E
100
AcDbEntity
  8
Sichtbare Kanten(ISO-ZOPH)
100
AcDbVertex
100
AcDb2dVertex
 10
123.3595063552151
 20
202.4534541529435
 30
0.0
  0
VERTEX
  5
41B4
330
418E
100
AcDbEntity
  8
Sichtbare Kanten(ISO-ZOPH)
100
AcDbVertex
100
AcDb2dVertex
 10
123.6709781750927
 20
202.0545607966203
 30
0.0
  0
VERTEX
  5
41B5
330
418E
100
AcDbEntity
  8
Sichtbare Kanten(ISO-ZOPH)
100
AcDbVertex
100
AcDb2dVertex
 10
124.0016063317547
 20
201.67280377567
 30
0.0
  0
VERTEX
  5
41B6
330
418E
100
AcDbEntity
  8
Sichtbare Kanten(ISO-ZOPH)
100
AcDbVertex
100
AcDb2dVertex
 10
124.3505593404064
 20
201.3092982929963
 30
0.0
  0
VERTEX
  5
41B7
330
418E
100
AcDbEntity
  8
Sichtbare Kanten(ISO-ZOPH)
100
AcDbVertex
100
AcDb2dVertex
 10
124.716700540472
 20
200.9648966950196
 30
0.0
  0
VERTEX
  5
41B8
330
418E
100
AcDbEntity
  8
Sichtbare Kanten(ISO-ZOPH)
100
AcDbVertex
100
AcDb2dVertex
 10
125.0987585648785
 20
200.6401771467942
 30
0.0
  0
VERTEX
  5
41B9
330
418E
100
AcDbEntity
  8
Sichtbare Kanten(ISO-ZOPH)
100
AcDbVertex
100
AcDb2dVertex
 10
125.4954650267849
 20
200.3357082766313
 30
0.0
  0
VERTEX
  5
41BA
330
418E
100
AcDbEntity
  8
Sichtbare Kanten(ISO-ZOPH)
100
AcDbVertex
100
AcDb2dVertex
 10
125.905552135397
 20
200.0520557326097
 30
0.0
  0
VERTEX
  5
41BB
330
418E
100
AcDbEntity
  8
Sichtbare Kanten(ISO-ZOPH)
100
AcDbVertex
100
AcDb2dVertex
 10
126.3277515038738
 20
199.7897869509476
 30
0.0
  0
VERTEX
  5
41BC
330
418E
100
AcDbEntity
  8
Sichtbare Kanten(ISO-ZOPH)
100
AcDbVertex
100
AcDb2dVertex
 10
126.760796533514
 20
199.5494693678636
 30
0.0
  0
VERTEX
  5
41BD
330
418E
100
AcDbEntity
  8
Sichtbare Kanten(ISO-ZOPH)
100
AcDbVertex
100
AcDb2dVertex
 10
127.2034185394535
 20
199.3316704195756
 30
0.0
  0
VERTEX
  5
41BE
330
418E
100
AcDbEntity
  8
Sichtbare Kanten(ISO-ZOPH)
100
AcDbVertex
100
AcDb2dVertex
 10
127.6543500289211
 20
199.1369563502091
 30
0.0
  0
SEQEND
  5
41BF
330
418E
100
AcDbEntity
  8
Sichtbare Kanten(ISO-ZOPH)
  0
POLYLINE
  5
41C0
330
1A
100
AcDbEntity
  8
Verdeckte tangentiale Kanten(ISO-ZOPH)
 48
0.9836758971214294
100
AcDb2dPolyline
 66
     1
 10
0.0
 20
0.0
 30
0.0
 70
   128
  0
VERTEX
  5
41C1
330
41C0
100
AcDbEntity
  8
Verdeckte tangentiale Kanten(ISO-ZOPH)
 48
0.9836758971214294
100
AcDbVertex
100
AcDb2dVertex
 10
128.1240277752171
 20
198.9590048950929
 30
0.0
  0
VERTEX
  5
41C2
330
41C0
100
AcDbEntity
  8
Verdeckte tangentiale Kanten(ISO-ZOPH)
 48
0.9836758971214294
100
AcDbVertex
100
AcDb2dVertex
 10
128.1043069824467
 20
198.9660376471299
 30
0.0
  0
VERTEX
  5
41C3
330
41C0
100
AcDbEntity
  8
Verdeckte tangentiale Kanten(ISO-ZOPH)
 48
0.9836758971214294
100
AcDbVertex
100
AcDb2dVertex
 10
128.0845998987446
 20
198.973103777768
 30
0.0
  0
VERTEX
  5
41C4
330
41C0
100
AcDbEntity
  8
Verdeckte tangentiale Kanten(ISO-ZOPH)
 48
0.9836758971214294
100
AcDbVertex
100
AcDb2dVertex
 10
128.0649071201573
 20
198.9802026909608
 30
0.0
  0
VERTEX
  5
41C5
330
41C0
100
AcDbEntity
  8
Verdeckte tangentiale Kanten(ISO-ZOPH)
 48
0.9836758971214294
100
AcDbVertex
100
AcDb2dVertex
 10
128.0452274545918
 20
198.9873343867081
 30
0.0
  0
VERTEX
  5
41C6
330
41C0
100
AcDbEntity
  8
Verdeckte tangentiale Kanten(ISO-ZOPH)
 48
0.9836758971214294
100
AcDbVertex
100
AcDb2dVertex
 10
128.0255612000713
 20
198.9944994610566
 30
0.0
  0
VERTEX
  5
41C7
330
41C0
100
AcDbEntity
  8
Verdeckte tangentiale Kanten(ISO-ZOPH)
 48
0.9836758971214294
100
AcDbVertex
100
AcDb2dVertex
 10
128.0059077605496
 20
199.0016973179597
 30
0.0
  0
VERTEX
  5
41C8
330
41C0
100
AcDbEntity
  8
Verdeckte tangentiale Kanten(ISO-ZOPH)
 48
0.9836758971214294
100
AcDbVertex
100
AcDb2dVertex
 10
127.9862677320728
 20
199.0089291495103
 30
0.0
  0
VERTEX
  5
41C9
330
41C0
100
AcDbEntity
  8
Verdeckte tangentiale Kanten(ISO-ZOPH)
 48
0.9836758971214294
100
AcDbVertex
100
AcDb2dVertex
 10
127.9666405185947
 20
199.0161937636155
 30
0.0
  0
VERTEX
  5
41CA
330
41C0
100
AcDbEntity
  8
Verdeckte tangentiale Kanten(ISO-ZOPH)
 48
0.9836758971214294
100
AcDbVertex
100
AcDb2dVertex
 10
127.9470258220921
 20
199.0234917563218
 30
0.0
  0
VERTEX
  5
41CB
330
41C0
100
AcDbEntity
  8
Verdeckte tangentiale Kanten(ISO-ZOPH)
 48
0.9836758971214294
100
AcDbVertex
100
AcDb2dVertex
 10
127.9274242386112
 20
199.0308225315827
 30
0.0
  0
VERTEX
  5
41CC
330
41C0
100
AcDbEntity
  8
Verdeckte tangentiale Kanten(ISO-ZOPH)
 48
0.9836758971214294
100
AcDbVertex
100
AcDb2dVertex
 10
127.9078351721058
 20
199.0381872814912
 30
0.0
  0
VERTEX
  5
41CD
330
41C0
100
AcDbEntity
  8
Verdeckte tangentiale Kanten(ISO-ZOPH)
 48
0.9836758971214294
100
AcDbVertex
100
AcDb2dVertex
 10
127.8882592186222
 20
199.0455854100007
 30
0.0
  0
VERTEX
  5
41CE
330
41C0
100
AcDbEntity
  8
Verdeckte tangentiale Kanten(ISO-ZOPH)
 48
0.9836758971214294
100
AcDbVertex
100
AcDb2dVertex
 10
127.868695782114
 20
199.0530169171113
 30
0.0
  0
VERTEX
  5
41CF
330
41C0
100
AcDbEntity
  8
Verdeckte tangentiale Kanten(ISO-ZOPH)
 48
0.9836758971214294
100
AcDbVertex
100
AcDb2dVertex
 10
127.8491451606045
 20
199.0604812067765
 30
0.0
  0
VERTEX
  5
41D0
330
41C0
100
AcDbEntity
  8
Verdeckte tangentiale Kanten(ISO-ZOPH)
 48
0.9836758971214294
100
AcDbVertex
100
AcDb2dVertex
 10
127.8296076521168
 20
199.0679788750428
 30
0.0
  0
VERTEX
  5
41D1
330
41C0
100
AcDbEntity
  8
Verdeckte tangentiale Kanten(ISO-ZOPH)
 48
0.9836758971214294
100
AcDbVertex
100
AcDb2dVertex
 10
127.8100826606045
 20
199.0755105179566
 30
0.0
  0
VERTEX
  5
41D2
330
41C0
100
AcDbEntity
  8
Verdeckte tangentiale Kanten(ISO-ZOPH)
 48
0.9836758971214294
100
AcDbVertex
100
AcDb2dVertex
 10
127.7905704840908
 20
199.0830749434251
 30
0.0
  0
VERTEX
  5
41D3
330
41C0
100
AcDbEntity
  8
Verdeckte tangentiale Kanten(ISO-ZOPH)
 48
0.9836758971214294
100
AcDbVertex
100
AcDb2dVertex
 10
127.771071420599
 20
199.0906727474946
 30
0.0
  0
VERTEX
  5
41D4
330
41C0
100
AcDbEntity
  8
Verdeckte tangentiale Kanten(ISO-ZOPH)
 48
0.9836758971214294
100
AcDbVertex
100
AcDb2dVertex
 10
127.751585470129
 20
199.0983033341187
 30
0.0
  0
VERTEX
  5
41D5
330
41C0
100
AcDbEntity
  8
Verdeckte tangentiale Kanten(ISO-ZOPH)
 48
0.9836758971214294
100
AcDbVertex
100
AcDb2dVertex
 10
127.7321123346577
 20
199.105967299344
 30
0.0
  0
VERTEX
  5
41D6
330
41C0
100
AcDbEntity
  8
Verdeckte tangentiale Kanten(ISO-ZOPH)
 48
0.9836758971214294
100
AcDbVertex
100
AcDb2dVertex
 10
127.712652014185
 20
199.1136652392167
 30
0.0
  0
VERTEX
  5
41D7
330
41C0
100
AcDbEntity
  8
Verdeckte tangentiale Kanten(ISO-ZOPH)
 48
0.9836758971214294
100
AcDbVertex
100
AcDb2dVertex
 10
127.6932051047573
 20
199.1213953655976
 30
0.0
  0
VERTEX
  5
41D8
330
41C0
100
AcDbEntity
  8
Verdeckte tangentiale Kanten(ISO-ZOPH)
 48
0.9836758971214294
100
AcDbVertex
100
AcDb2dVertex
 10
127.6737710103283
 20
199.1291594666261
 30
0.0
  0
VERTEX
  5
41D9
330
41C0
100
AcDbEntity
  8
Verdeckte tangentiale Kanten(ISO-ZOPH)
 48
0.9836758971214294
100
AcDbVertex
100
AcDb2dVertex
 10
127.6543500289211
 20
199.1369563502091
 30
0.0
  0
SEQEND
  5
41DA
330
41C0
100
AcDbEntity
  8
Verdeckte tangentiale Kanten(ISO-ZOPH)
 48
0.9836758971214294
  0
POLYLINE
  5
41DB
330
1A
100
AcDbEntity
  8
Verdeckte tangentiale Kanten(ISO-ZOPH)
 48
0.9836758971214294
100
AcDb2dPolyline
 66
     1
 10
0.0
 20
0.0
 30
0.0
 70
   128
  0
VERTEX
  5
41DC
330
41DB
100
AcDbEntity
  8
Verdeckte tangentiale Kanten(ISO-ZOPH)
 48
0.9836758971214294
100
AcDbVertex
100
AcDb2dVertex
 10
127.6543500289211
 20
217.6907295149583
 30
0.0
  0
VERTEX
  5
41DD
330
41DB
100
AcDbEntity
  8
Verdeckte tangentiale Kanten(ISO-ZOPH)
 48
0.9836758971214294
100
AcDbVertex
100
AcDb2dVertex
 10
127.6737710103283
 20
217.6985263985413
 30
0.0
  0
VERTEX
  5
41DE
330
41DB
100
AcDbEntity
  8
Verdeckte tangentiale Kanten(ISO-ZOPH)
 48
0.9836758971214294
100
AcDbVertex
100
AcDb2dVertex
 10
127.6932051047573
 20
217.7062904995698
 30
0.0
  0
VERTEX
  5
41DF
330
41DB
100
AcDbEntity
  8
Verdeckte tangentiale Kanten(ISO-ZOPH)
 48
0.9836758971214294
100
AcDbVertex
100
AcDb2dVertex
 10
127.712652014185
 20
217.7140206259507
 30
0.0
  0
VERTEX
  5
41E0
330
41DB
100
AcDbEntity
  8
Verdeckte tangentiale Kanten(ISO-ZOPH)
 48
0.9836758971214294
100
AcDbVertex
100
AcDb2dVertex
 10
127.7321123346577
 20
217.7217185658235
 30
0.0
  0
VERTEX
  5
41E1
330
41DB
100
AcDbEntity
  8
Verdeckte tangentiale Kanten(ISO-ZOPH)
 48
0.9836758971214294
100
AcDbVertex
100
AcDb2dVertex
 10
127.751585470129
 20
217.7293825310487
 30
0.0
  0
VERTEX
  5
41E2
330
41DB
100
AcDbEntity
  8
Verdeckte tangentiale Kanten(ISO-ZOPH)
 48
0.9836758971214294
100
AcDbVertex
100
AcDb2dVertex
 10
127.771071420599
 20
217.7370131176728
 30
0.0
  0
VERTEX
  5
41E3
330
41DB
100
AcDbEntity
  8
Verdeckte tangentiale Kanten(ISO-ZOPH)
 48
0.9836758971214294
100
AcDbVertex
100
AcDb2dVertex
 10
127.7905704840908
 20
217.7446109217424
 30
0.0
  0
VERTEX
  5
41E4
330
41DB
100
AcDbEntity
  8
Verdeckte tangentiale Kanten(ISO-ZOPH)
 48
0.9836758971214294
100
AcDbVertex
100
AcDb2dVertex
 10
127.8100826606045
 20
217.7521753472108
 30
0.0
  0
VERTEX
  5
41E5
330
41DB
100
AcDbEntity
  8
Verdeckte tangentiale Kanten(ISO-ZOPH)
 48
0.9836758971214294
100
AcDbVertex
100
AcDb2dVertex
 10
127.8296076521168
 20
217.7597069901246
 30
0.0
  0
VERTEX
  5
41E6
330
41DB
100
AcDbEntity
  8
Verdeckte tangentiale Kanten(ISO-ZOPH)
 48
0.9836758971214294
100
AcDbVertex
100
AcDb2dVertex
 10
127.8491451606045
 20
217.7672046583909
 30
0.0
  0
VERTEX
  5
41E7
330
41DB
100
AcDbEntity
  8
Verdeckte tangentiale Kanten(ISO-ZOPH)
 48
0.9836758971214294
100
AcDbVertex
100
AcDb2dVertex
 10
127.868695782114
 20
217.7746689480561
 30
0.0
  0
VERTEX
  5
41E8
330
41DB
100
AcDbEntity
  8
Verdeckte tangentiale Kanten(ISO-ZOPH)
 48
0.9836758971214294
100
AcDbVertex
100
AcDb2dVertex
 10
127.8882592186222
 20
217.7821004551667
 30
0.0
  0
VERTEX
  5
41E9
330
41DB
100
AcDbEntity
  8
Verdeckte tangentiale Kanten(ISO-ZOPH)
 48
0.9836758971214294
100
AcDbVertex
100
AcDb2dVertex
 10
127.9078351721058
 20
217.7894985836763
 30
0.0
  0
VERTEX
  5
41EA
330
41DB
100
AcDbEntity
  8
Verdeckte tangentiale Kanten(ISO-ZOPH)
 48
0.9836758971214294
100
AcDbVertex
100
AcDb2dVertex
 10
127.9274242386112
 20
217.7968633335847
 30
0.0
  0
VERTEX
  5
41EB
330
41DB
100
AcDbEntity
  8
Verdeckte tangentiale Kanten(ISO-ZOPH)
 48
0.9836758971214294
100
AcDbVertex
100
AcDb2dVertex
 10
127.9470258220921
 20
217.8041941088456
 30
0.0
  0
VERTEX
  5
41EC
330
41DB
100
AcDbEntity
  8
Verdeckte tangentiale Kanten(ISO-ZOPH)
 48
0.9836758971214294
100
AcDbVertex
100
AcDb2dVertex
 10
127.9666405185947
 20
217.8114921015519
 30
0.0
  0
VERTEX
  5
41ED
330
41DB
100
AcDbEntity
  8
Verdeckte tangentiale Kanten(ISO-ZOPH)
 48
0.9836758971214294
100
AcDbVertex
100
AcDb2dVertex
 10
127.9862677320728
 20
217.8187567156571
 30
0.0
  0
VERTEX
  5
41EE
330
41DB
100
AcDbEntity
  8
Verdeckte tangentiale Kanten(ISO-ZOPH)
 48
0.9836758971214294
100
AcDbVertex
100
AcDb2dVertex
 10
128.0059077605496
 20
217.8259885472078
 30
0.0
  0
VERTEX
  5
41EF
330
41DB
100
AcDbEntity
  8
Verdeckte tangentiale Kanten(ISO-ZOPH)
 48
0.9836758971214294
100
AcDbVertex
100
AcDb2dVertex
 10
128.0255612000713
 20
217.8331864041108
 30
0.0
  0
VERTEX
  5
41F0
330
41DB
100
AcDbEntity
  8
Verdeckte tangentiale Kanten(ISO-ZOPH)
 48
0.9836758971214294
100
AcDbVertex
100
AcDb2dVertex
 10
128.0452274545918
 20
217.8403514784593
 30
0.0
  0
VERTEX
  5
41F1
330
41DB
100
AcDbEntity
  8
Verdeckte tangentiale Kanten(ISO-ZOPH)
 48
0.9836758971214294
100
AcDbVertex
100
AcDb2dVertex
 10
128.0649071201573
 20
217.8474831742066
 30
0.0
  0
VERTEX
  5
41F2
330
41DB
100
AcDbEntity
  8
Verdeckte tangentiale Kanten(ISO-ZOPH)
 48
0.9836758971214294
100
AcDbVertex
100
AcDb2dVertex
 10
128.0845998987446
 20
217.8545820873994
 30
0.0
  0
VERTEX
  5
41F3
330
41DB
100
AcDbEntity
  8
Verdeckte tangentiale Kanten(ISO-ZOPH)
 48
0.9836758971214294
100
AcDbVertex
100
AcDb2dVertex
 10
128.1043069824467
 20
217.8616482180375
 30
0.0
  0
VERTEX
  5
41F4
330
41DB
100
AcDbEntity
  8
Verdeckte tangentiale Kanten(ISO-ZOPH)
 48
0.9836758971214294
100
AcDbVertex
100
AcDb2dVertex
 10
128.1240277752171
 20
217.8686809700746
 30
0.0
  0
SEQEND
  5
41F5
330
41DB
100
AcDbEntity
  8
Verdeckte tangentiale Kanten(ISO-ZOPH)
 48
0.9836758971214294
  0
POLYLINE
  5
4212
102
{ACAD_REACTORS
330
4EAE
102
}
330
1A
100
AcDbEntity
  8
Verdeckte Kanten(ISO-ZOPH)
 48
24.22848701477051
100
AcDb2dPolyline
 66
     1
 10
0.0
 20
0.0
 30
0.0
 70
   128
  0
VERTEX
  5
4213
330
4212
100
AcDbEntity
  8
Verdeckte Kanten(ISO-ZOPH)
 48
24.22848701477051
100
AcDbVertex
100
AcDb2dVertex
 10
134.9345096215496
 20
199.0638941687364
 30
0.0
  0
VERTEX
  5
4214
330
4212
100
AcDbEntity
  8
Verdeckte Kanten(ISO-ZOPH)
 48
24.22848701477051
100
AcDbVertex
100
AcDb2dVertex
 10
135.3637167081127
 20
199.23836769283
 30
0.0
  0
VERTEX
  5
4215
330
4212
100
AcDbEntity
  8
Verdeckte Kanten(ISO-ZOPH)
 48
24.22848701477051
100
AcDbVertex
100
AcDb2dVertex
 10
135.7861911520252
 20
199.4336217802781
 30
0.0
  0
VERTEX
  5
4216
330
4212
100
AcDbEntity
  8
Verdeckte Kanten(ISO-ZOPH)
 48
24.22848701477051
100
AcDbVertex
100
AcDb2dVertex
 10
136.2008502349148
 20
199.6492475432176
 30
0.0
  0
VERTEX
  5
4217
330
4212
100
AcDbEntity
  8
Verdeckte Kanten(ISO-ZOPH)
 48
24.22848701477051
100
AcDbVertex
100
AcDb2dVertex
 10
136.6066118344555
 20
199.8848354977387
 30
0.0
  0
VERTEX
  5
4218
330
4212
100
AcDbEntity
  8
Verdeckte Kanten(ISO-ZOPH)
 48
24.22848701477051
100
AcDbVertex
100
AcDb2dVertex
 10
137.0023926362286
 20
200.1399761599321
 30
0.0
  0
VERTEX
  5
4219
330
4212
100
AcDbEntity
  8
Verdeckte Kanten(ISO-ZOPH)
 48
24.22848701477051
100
AcDbVertex
100
AcDb2dVertex
 10
137.3871108159313
 20
200.4142600458878
 30
0.0
  0
VERTEX
  5
421A
330
4212
100
AcDbEntity
  8
Verdeckte Kanten(ISO-ZOPH)
 48
24.22848701477051
100
AcDbVertex
100
AcDb2dVertex
 10
137.7596833571682
 20
200.7072788637894
 30
0.0
  0
VERTEX
  5
421B
330
4212
100
AcDbEntity
  8
Verdeckte Kanten(ISO-ZOPH)
 48
24.22848701477051
100
AcDbVertex
100
AcDb2dVertex
 10
138.1190278395901
 20
201.0186219376344
 30
0.0
  0
VERTEX
  5
421C
330
4212
100
AcDbEntity
  8
Verdeckte Kanten(ISO-ZOPH)
 48
24.22848701477051
100
AcDbVertex
100
AcDb2dVertex
 10
138.4640683993588
 20
201.3478899163026
 30
0.0
  0
VERTEX
  5
421D
330
4212
100
AcDbEntity
  8
Verdeckte Kanten(ISO-ZOPH)
 48
24.22848701477051
100
AcDbVertex
100
AcDb2dVertex
 10
138.7942411765347
 20
201.6952407521027
 30
0.0
  0
VERTEX
  5
421E
330
4212
100
AcDbEntity
  8
Verdeckte Kanten(ISO-ZOPH)
 48
24.22848701477051
100
AcDbVertex
100
AcDb2dVertex
 10
139.1088380679379
 20
202.0600819748658
 30
0.0
  0
VERTEX
  5
421F
330
4212
100
AcDbEntity
  8
Verdeckte Kanten(ISO-ZOPH)
 48
24.22848701477051
100
AcDbVertex
100
AcDb2dVertex
 10
139.4068434104214
 20
202.4412751358766
 30
0.0
  0
VERTEX
  5
4220
330
4212
100
AcDbEntity
  8
Verdeckte Kanten(ISO-ZOPH)
 48
24.22848701477051
100
AcDbVertex
100
AcDb2dVertex
 10
139.687238560606
 20
202.8376811903733
 30
0.0
  0
VERTEX
  5
4221
330
4212
100
AcDbEntity
  8
Verdeckte Kanten(ISO-ZOPH)
 48
24.22848701477051
100
AcDbVertex
100
AcDb2dVertex
 10
139.9490078553448
 20
203.2481628817338
 30
0.0
  0
VERTEX
  5
4222
330
4212
100
AcDbEntity
  8
Verdeckte Kanten(ISO-ZOPH)
 48
24.22848701477051
100
AcDbVertex
100
AcDb2dVertex
 10
140.1911344393978
 20
203.6715808671731
 30
0.0
  0
VERTEX
  5
4223
330
4212
100
AcDbEntity
  8
Verdeckte Kanten(ISO-ZOPH)
 48
24.22848701477051
100
AcDbVertex
100
AcDb2dVertex
 10
140.4126002654324
 20
204.1067969959992
 30
0.0
  0
VERTEX
  5
4224
330
4212
100
AcDbEntity
  8
Verdeckte Kanten(ISO-ZOPH)
 48
24.22848701477051
100
AcDbVertex
100
AcDb2dVertex
 10
140.6124015912304
 20
204.5526972574014
 30
0.0
  0
VERTEX
  5
4225
330
4212
100
AcDbEntity
  8
Verdeckte Kanten(ISO-ZOPH)
 48
24.22848701477051
100
AcDbVertex
100
AcDb2dVertex
 10
140.7905354365597
 20
205.0098937910813
 30
0.0
  0
VERTEX
  5
4226
330
4212
100
AcDbEntity
  8
Verdeckte Kanten(ISO-ZOPH)
 48
24.22848701477051
100
AcDbVertex
100
AcDb2dVertex
 10
140.9468057021389
 20
205.4777968090791
 30
0.0
  0
VERTEX
  5
4227
330
4212
100
AcDbEntity
  8
Verdeckte Kanten(ISO-ZOPH)
 48
24.22848701477051
100
AcDbVertex
100
AcDb2dVertex
 10
141.0804405078182
 20
205.9545210164804
 30
0.0
  0
VERTEX
  5
4228
330
4212
100
AcDbEntity
  8
Verdeckte Kanten(ISO-ZOPH)
 48
24.22848701477051
100
AcDbVertex
100
AcDb2dVertex
 10
141.1906703576336
 20
206.4381823104638
 30
0.0
  0
VERTEX
  5
4229
330
4212
100
AcDbEntity
  8
Verdeckte Kanten(ISO-ZOPH)
 48
24.22848701477051
100
AcDbVertex
100
AcDb2dVertex
 10
141.2767275437603
 20
206.9268825811166
 30
0.0
  0
VERTEX
  5
422A
330
4212
100
AcDbEntity
  8
Verdeckte Kanten(ISO-ZOPH)
 48
24.22848701477051
100
AcDbVertex
100
AcDb2dVertex
 10
141.3382389411221
 20
207.4180980187672
 30
0.0
  0
VERTEX
  5
422B
330
4212
100
AcDbEntity
  8
Verdeckte Kanten(ISO-ZOPH)
 48
24.22848701477051
100
AcDbVertex
100
AcDb2dVertex
 10
141.3752820357571
 20
207.9109854412097
 30
0.0
  0
VERTEX
  5
422C
330
4212
100
AcDbEntity
  8
Verdeckte Kanten(ISO-ZOPH)
 48
24.22848701477051
100
AcDbVertex
100
AcDb2dVertex
 10
141.3878931864986
 20
208.4056105625648
 30
0.0
  0
VERTEX
  5
422D
330
4212
100
AcDbEntity
  8
Verdeckte Kanten(ISO-ZOPH)
 48
24.22848701477051
100
AcDbVertex
100
AcDb2dVertex
 10
141.3757922515164
 20
208.901740067901
 30
0.0
  0
VERTEX
  5
422E
330
4212
100
AcDbEntity
  8
Verdeckte Kanten(ISO-ZOPH)
 48
24.22848701477051
100
AcDbVertex
100
AcDb2dVertex
 10
141.3389005526791
 20
209.3977323335427
 30
0.0
  0
VERTEX
  5
422F
330
4212
100
AcDbEntity
  8
Verdeckte Kanten(ISO-ZOPH)
 48
24.22848701477051
100
AcDbVertex
100
AcDb2dVertex
 10
141.2775626048336
 20
209.8915402752179
 30
0.0
  0
VERTEX
  5
4230
330
4212
100
AcDbEntity
  8
Verdeckte Kanten(ISO-ZOPH)
 48
24.22848701477051
100
AcDbVertex
100
AcDb2dVertex
 10
141.192120538641
 20
210.3811168831605
 30
0.0
  0
VERTEX
  5
4231
330
4212
100
AcDbEntity
  8
Verdeckte Kanten(ISO-ZOPH)
 48
24.22848701477051
100
AcDbVertex
100
AcDb2dVertex
 10
141.0829182729015
 20
210.8644153338689
 30
0.0
  0
VERTEX
  5
4232
330
4212
100
AcDbEntity
  8
Verdeckte Kanten(ISO-ZOPH)
 48
24.22848701477051
100
AcDbVertex
100
AcDb2dVertex
 10
140.9502031668911
 20
211.3396924895066
 30
0.0
  0
VERTEX
  5
4233
330
4212
100
AcDbEntity
  8
Verdeckte Kanten(ISO-ZOPH)
 48
24.22848701477051
100
AcDbVertex
100
AcDb2dVertex
 10
140.7939323052654
 20
211.8071058553475
 30
0.0
  0
VERTEX
  5
4234
330
4212
100
AcDbEntity
  8
Verdeckte Kanten(ISO-ZOPH)
 48
24.22848701477051
100
AcDbVertex
100
AcDb2dVertex
 10
140.6148847207317
 20
212.2657191914338
 30
0.0
  0
VERTEX
  5
4235
330
4212
100
AcDbEntity
  8
Verdeckte Kanten(ISO-ZOPH)
 48
24.22848701477051
100
AcDbVertex
100
AcDb2dVertex
 10
140.41396819203
 20
212.7143007677811
 30
0.0
  0
VERTEX
  5
4236
330
4212
100
AcDbEntity
  8
Verdeckte Kanten(ISO-ZOPH)
 48
24.22848701477051
100
AcDbVertex
100
AcDb2dVertex
 10
140.1920916899929
 20
213.1516194504518
 30
0.0
  0
VERTEX
  5
4237
330
4212
100
AcDbEntity
  8
Verdeckte Kanten(ISO-ZOPH)
 48
24.22848701477051
100
AcDbVertex
100
AcDb2dVertex
 10
139.9501618012676
 20
213.5764438074845
 30
0.0
  0
VERTEX
  5
4238
330
4212
100
AcDbEntity
  8
Verdeckte Kanten(ISO-ZOPH)
 48
24.22848701477051
100
AcDbVertex
100
AcDb2dVertex
 10
139.6890874966869
 20
213.987541810872
 30
0.0
  0
VERTEX
  5
4239
330
4212
100
AcDbEntity
  8
Verdeckte Kanten(ISO-ZOPH)
 48
24.22848701477051
100
AcDbVertex
100
AcDb2dVertex
 10
139.4097765549908
 20
214.3836826246995
 30
0.0
  0
VERTEX
  5
423A
330
4212
100
AcDbEntity
  8
Verdeckte Kanten(ISO-ZOPH)
 48
24.22848701477051
100
AcDbVertex
100
AcDb2dVertex
 10
139.1131361588726
 20
214.7636354130524
 30
0.0
  0
VERTEX
  5
423B
330
4212
100
AcDbEntity
  8
Verdeckte Kanten(ISO-ZOPH)
 48
24.22848701477051
100
AcDbVertex
100
AcDb2dVertex
 10
138.7997742757091
 20
215.1265943211335
 30
0.0
  0
VERTEX
  5
423C
330
4212
100
AcDbEntity
  8
Verdeckte Kanten(ISO-ZOPH)
 48
24.22848701477051
100
AcDbVertex
100
AcDb2dVertex
 10
138.4697517022381
 20
215.4730147284287
 30
0.0
  0
VERTEX
  5
423D
330
4212
100
AcDbEntity
  8
Verdeckte Kanten(ISO-ZOPH)
 48
24.22848701477051
100
AcDbVertex
100
AcDb2dVertex
 10
138.1241335734615
 20
215.8024585407991
 30
0.0
  0
VERTEX
  5
423E
330
4212
100
AcDbEntity
  8
Verdeckte Kanten(ISO-ZOPH)
 48
24.22848701477051
100
AcDbVertex
100
AcDb2dVertex
 10
137.7640589341412
 20
216.1144006413239
 30
0.0
  0
VERTEX
  5
423F
330
4212
100
AcDbEntity
  8
Verdeckte Kanten(ISO-ZOPH)
 48
24.22848701477051
100
AcDbVertex
100
AcDb2dVertex
 10
137.390668617178
 20
216.4083153170365
 30
0.0
  0
VERTEX
  5
4240
330
4212
100
AcDbEntity
  8
Verdeckte Kanten(ISO-ZOPH)
 48
24.22848701477051
100
AcDbVertex
100
AcDb2dVertex
 10
137.0051016673336
 20
216.6836762589234
 30
0.0
  0
VERTEX
  5
4241
330
4212
100
AcDbEntity
  8
Verdeckte Kanten(ISO-ZOPH)
 48
24.22848701477051
100
AcDbVertex
100
AcDb2dVertex
 10
136.6084977254162
 20
216.9399589461106
 30
0.0
  0
VERTEX
  5
4242
330
4212
100
AcDbEntity
  8
Verdeckte Kanten(ISO-ZOPH)
 48
24.22848701477051
100
AcDbVertex
100
AcDb2dVertex
 10
136.2019970282803
 20
217.1766376656312
 30
0.0
  0
VERTEX
  5
4243
330
4212
100
AcDbEntity
  8
Verdeckte Kanten(ISO-ZOPH)
 48
24.22848701477051
100
AcDbVertex
100
AcDb2dVertex
 10
135.7867389187107
 20
217.3931861084718
 30
0.0
  0
VERTEX
  5
4244
330
4212
100
AcDbEntity
  8
Verdeckte Kanten(ISO-ZOPH)
 48
24.22848701477051
100
AcDbVertex
100
AcDb2dVertex
 10
135.3638630375156
 20
217.5890791577119
 30
0.0
  0
VERTEX
  5
4245
330
4212
100
AcDbEntity
  8
Verdeckte Kanten(ISO-ZOPH)
 48
24.22848701477051
100
AcDbVertex
100
AcDb2dVertex
 10
134.9345096215496
 20
217.7637916964311
 30
0.0
  0
SEQEND
  5
4246
330
4212
100
AcDbEntity
  8
Verdeckte Kanten(ISO-ZOPH)
 48
24.22848701477051
  0
POLYLINE
  5
427F
330
1A
100
AcDbEntity
  8
Verdeckte Kanten(ISO-ZOPH)
 48
14.69764900207519
100
AcDb2dPolyline
 66
     1
 10
0.0
 20
0.0
 30
0.0
 70
   128
  0
VERTEX
  5
4280
330
427F
100
AcDbEntity
  8
Verdeckte Kanten(ISO-ZOPH)
 48
14.69764900207519
100
AcDbVertex
100
AcDb2dVertex
 10
134.9345096215496
 20
217.7637916964311
 30
0.0
  0
VERTEX
  5
4281
330
427F
100
AcDbEntity
  8
Verdeckte Kanten(ISO-ZOPH)
 48
14.69764900207519
100
AcDbVertex
100
AcDb2dVertex
 10
134.6602823600063
 20
217.8632581394929
 30
0.0
  0
VERTEX
  5
4282
330
427F
100
AcDbEntity
  8
Verdeckte Kanten(ISO-ZOPH)
 48
14.69764900207519
100
AcDbVertex
100
AcDb2dVertex
 10
134.3831660613308
 20
217.9547190827149
 30
0.0
  0
VERTEX
  5
4283
330
427F
100
AcDbEntity
  8
Verdeckte Kanten(ISO-ZOPH)
 48
14.69764900207519
100
AcDbVertex
100
AcDb2dVertex
 10
134.1034545764217
 20
218.0380702179689
 30
0.0
  0
VERTEX
  5
4284
330
427F
100
AcDbEntity
  8
Verdeckte Kanten(ISO-ZOPH)
 48
14.69764900207519
100
AcDbVertex
100
AcDb2dVertex
 10
133.821445928503
 20
218.1132060450334
 30
0.0
  0
VERTEX
  5
4285
330
427F
100
AcDbEntity
  8
Verdeckte Kanten(ISO-ZOPH)
 48
14.69764900207519
100
AcDbVertex
100
AcDb2dVertex
 10
133.5374564692269
 20
218.1800586146135
 30
0.0
  0
VERTEX
  5
4286
330
427F
100
AcDbEntity
  8
Verdeckte Kanten(ISO-ZOPH)
 48
14.69764900207519
100
AcDbVertex
100
AcDb2dVertex
 10
133.2518064245472
 20
218.2385796469468
 30
0.0
  0
VERTEX
  5
4287
330
427F
100
AcDbEntity
  8
Verdeckte Kanten(ISO-ZOPH)
 48
14.69764900207519
100
AcDbVertex
100
AcDb2dVertex
 10
132.9648166164646
 20
218.2887196701783
 30
0.0
  0
VERTEX
  5
4288
330
427F
100
AcDbEntity
  8
Verdeckte Kanten(ISO-ZOPH)
 48
14.69764900207519
100
AcDbVertex
100
AcDb2dVertex
 10
132.6768144234905
 20
218.3304310005921
 30
0.0
  0
VERTEX
  5
4289
330
427F
100
AcDbEntity
  8
Verdeckte Kanten(ISO-ZOPH)
 48
14.69764900207519
100
AcDbVertex
100
AcDb2dVertex
 10
132.3882827177534
 20
218.3637142342347
 30
0.0
  0
VERTEX
  5
428A
330
427F
100
AcDbEntity
  8
Verdeckte Kanten(ISO-ZOPH)
 48
14.69764900207519
100
AcDbVertex
100
AcDb2dVertex
 10
132.0994202062378
 20
218.3885830801743
 30
0.0
  0
VERTEX
  5
428B
330
427F
100
AcDbEntity
  8
Verdeckte Kanten(ISO-ZOPH)
 48
14.69764900207519
100
AcDbVertex
100
AcDb2dVertex
 10
131.8102889895329
 20
218.405038730504
 30
0.0
  0
VERTEX
  5
428C
330
427F
100
AcDbEntity
  8
Verdeckte Kanten(ISO-ZOPH)
 48
14.69764900207519
100
AcDbVertex
100
AcDb2dVertex
 10
131.5209512241075
 20
218.4130829733629
 30
0.0
  0
VERTEX
  5
428D
330
427F
100
AcDbEntity
  8
Verdeckte Kanten(ISO-ZOPH)
 48
14.69764900207519
100
AcDbVertex
100
AcDb2dVertex
 10
131.2314690478036
 20
218.4127164047975
 30
0.0
  0
VERTEX
  5
428E
330
427F
100
AcDbEntity
  8
Verdeckte Kanten(ISO-ZOPH)
 48
14.69764900207519
100
AcDbVertex
100
AcDb2dVertex
 10
130.9419046729694
 20
218.4039420050401
 30
0.0
  0
VERTEX
  5
428F
330
427F
100
AcDbEntity
  8
Verdeckte Kanten(ISO-ZOPH)
 48
14.69764900207519
100
AcDbVertex
100
AcDb2dVertex
 10
130.6523202374468
 20
218.3867597740907
 30
0.0
  0
VERTEX
  5
4290
330
427F
100
AcDbEntity
  8
Verdeckte Kanten(ISO-ZOPH)
 48
14.69764900207519
100
AcDbVertex
100
AcDb2dVertex
 10
130.3628280028591
 20
218.3611548107881
 30
0.0
  0
VERTEX
  5
4291
330
427F
100
AcDbEntity
  8
Verdeckte Kanten(ISO-ZOPH)
 48
14.69764900207519
100
AcDbVertex
100
AcDb2dVertex
 10
130.0738633438835
 20
218.3270597618836
 30
0.0
  0
VERTEX
  5
4292
330
427F
100
AcDbEntity
  8
Verdeckte Kanten(ISO-ZOPH)
 48
14.69764900207519
100
AcDbVertex
100
AcDb2dVertex
 10
129.7857699558029
 20
218.2845199269074
 30
0.0
  0
VERTEX
  5
4293
330
427F
100
AcDbEntity
  8
Verdeckte Kanten(ISO-ZOPH)
 48
14.69764900207519
100
AcDbVertex
100
AcDb2dVertex
 10
129.4988580807934
 20
218.2335972946901
 30
0.0
  0
VERTEX
  5
4294
330
427F
100
AcDbEntity
  8
Verdeckte Kanten(ISO-ZOPH)
 48
14.69764900207519
100
AcDbVertex
100
AcDb2dVertex
 10
129.2134382590542
 20
218.1743526619691
 30
0.0
  0
VERTEX
  5
4295
330
427F
100
AcDbEntity
  8
Verdeckte Kanten(ISO-ZOPH)
 48
14.69764900207519
100
AcDbVertex
100
AcDb2dVertex
 10
128.9298207327614
 20
218.1068486136216
 30
0.0
  0
VERTEX
  5
4296
330
427F
100
AcDbEntity
  8
Verdeckte Kanten(ISO-ZOPH)
 48
14.69764900207519
100
AcDbVertex
100
AcDb2dVertex
 10
128.6483161911259
 20
218.0311465424317
 30
0.0
  0
VERTEX
  5
4297
330
427F
100
AcDbEntity
  8
Verdeckte Kanten(ISO-ZOPH)
 48
14.69764900207519
100
AcDbVertex
100
AcDb2dVertex
 10
128.3692344292889
 20
217.9473078411836
 30
0.0
  0
VERTEX
  5
4298
330
427F
100
AcDbEntity
  8
Verdeckte Kanten(ISO-ZOPH)
 48
14.69764900207519
100
AcDbVertex
100
AcDb2dVertex
 10
128.0928864344845
 20
217.8553950947542
 30
0.0
  0
SEQEND
  5
4299
330
427F
100
AcDbEntity
  8
Verdeckte Kanten(ISO-ZOPH)
 48
14.69764900207519
  0
ELLIPSE
  5
429A
330
1A
100
AcDbEntity
  8
Verdeckte tangentiale Kanten(ISO-ZOPH)
 48
0.1818466484546661
100
AcDbEllipse
 10
127.4338845382991
 20
219.7437055676126
 30
0.0
 11
0.6590020374134515
 21
-1.888310439169393
 31
0.0
210
0.0
220
0.0
230
1.0
 40
0.3535870742305905
 41
0.0000000000044105
 42
0.0477857395013137
  0
ELLIPSE
  5
42B6
330
1A
100
AcDbEntity
  8
Verdeckte tangentiale Kanten(ISO-ZOPH)
 48
0.1818466484546661
100
AcDbEllipse
 10
127.433884538302
 20
197.0839802975505
 30
0.0
 11
0.6590020374100769
 21
1.888310439173853
 31
0.0
210
0.0
220
0.0
230
1.0
 40
0.3535870742306715
 41
6.235399567682162
 42
6.283185307178968
  0
POLYLINE
  5
42B7
330
1A
100
AcDbEntity
  8
Verdeckte Kanten(ISO-ZOPH)
 48
14.69764900207519
100
AcDb2dPolyline
 66
     1
 10
0.0
 20
0.0
 30
0.0
 70
   128
  0
VERTEX
  5
42B8
330
42B7
100
AcDbEntity
  8
Verdeckte Kanten(ISO-ZOPH)
 48
14.69764900207519
100
AcDbVertex
100
AcDb2dVertex
 10
128.0928864344845
 20
198.9722907704133
 30
0.0
  0
VERTEX
  5
42B9
330
42B7
100
AcDbEntity
  8
Verdeckte Kanten(ISO-ZOPH)
 48
14.69764900207519
100
AcDbVertex
100
AcDb2dVertex
 10
128.3692344292889
 20
198.8803780239838
 30
0.0
  0
VERTEX
  5
42BA
330
42B7
100
AcDbEntity
  8
Verdeckte Kanten(ISO-ZOPH)
 48
14.69764900207519
100
AcDbVertex
100
AcDb2dVertex
 10
128.6483161911259
 20
198.7965393227357
 30
0.0
  0
VERTEX
  5
42BB
330
42B7
100
AcDbEntity
  8
Verdeckte Kanten(ISO-ZOPH)
 48
14.69764900207519
100
AcDbVertex
100
AcDb2dVertex
 10
128.9298207327614
 20
198.7208372515458
 30
0.0
  0
VERTEX
  5
42BC
330
42B7
100
AcDbEntity
  8
Verdeckte Kanten(ISO-ZOPH)
 48
14.69764900207519
100
AcDbVertex
100
AcDb2dVertex
 10
129.2134382590542
 20
198.6533332031983
 30
0.0
  0
VERTEX
  5
42BD
330
42B7
100
AcDbEntity
  8
Verdeckte Kanten(ISO-ZOPH)
 48
14.69764900207519
100
AcDbVertex
100
AcDb2dVertex
 10
129.4988580807934
 20
198.5940885704774
 30
0.0
  0
VERTEX
  5
42BE
330
42B7
100
AcDbEntity
  8
Verdeckte Kanten(ISO-ZOPH)
 48
14.69764900207519
100
AcDbVertex
100
AcDb2dVertex
 10
129.7857699558029
 20
198.54316593826
 30
0.0
  0
VERTEX
  5
42BF
330
42B7
100
AcDbEntity
  8
Verdeckte Kanten(ISO-ZOPH)
 48
14.69764900207519
100
AcDbVertex
100
AcDb2dVertex
 10
130.0738633438835
 20
198.5006261032838
 30
0.0
  0
VERTEX
  5
42C0
330
42B7
100
AcDbEntity
  8
Verdeckte Kanten(ISO-ZOPH)
 48
14.69764900207519
100
AcDbVertex
100
AcDb2dVertex
 10
130.3628280028591
 20
198.4665310543793
 30
0.0
  0
VERTEX
  5
42C1
330
42B7
100
AcDbEntity
  8
Verdeckte Kanten(ISO-ZOPH)
 48
14.69764900207519
100
AcDbVertex
100
AcDb2dVertex
 10
130.6523202374468
 20
198.4409260910767
 30
0.0
  0
VERTEX
  5
42C2
330
42B7
100
AcDbEntity
  8
Verdeckte Kanten(ISO-ZOPH)
 48
14.69764900207519
100
AcDbVertex
100
AcDb2dVertex
 10
130.9419046729694
 20
198.4237438601273
 30
0.0
  0
VERTEX
  5
42C3
330
42B7
100
AcDbEntity
  8
Verdeckte Kanten(ISO-ZOPH)
 48
14.69764900207519
100
AcDbVertex
100
AcDb2dVertex
 10
131.2314690478036
 20
198.41496946037
 30
0.0
  0
VERTEX
  5
42C4
330
42B7
100
AcDbEntity
  8
Verdeckte Kanten(ISO-ZOPH)
 48
14.69764900207519
100
AcDbVertex
100
AcDb2dVertex
 10
131.5209512241075
 20
198.4146028918046
 30
0.0
  0
VERTEX
  5
42C5
330
42B7
100
AcDbEntity
  8
Verdeckte Kanten(ISO-ZOPH)
 48
14.69764900207519
100
AcDbVertex
100
AcDb2dVertex
 10
131.8102889895329
 20
198.4226471346635
 30
0.0
  0
VERTEX
  5
42C6
330
42B7
100
AcDbEntity
  8
Verdeckte Kanten(ISO-ZOPH)
 48
14.69764900207519
100
AcDbVertex
100
AcDb2dVertex
 10
132.0994202062378
 20
198.439102784993
 30
0.0
  0
VERTEX
  5
42C7
330
42B7
100
AcDbEntity
  8
Verdeckte Kanten(ISO-ZOPH)
 48
14.69764900207519
100
AcDbVertex
100
AcDb2dVertex
 10
132.3882827177534
 20
198.4639716309327
 30
0.0
  0
VERTEX
  5
42C8
330
42B7
100
AcDbEntity
  8
Verdeckte Kanten(ISO-ZOPH)
 48
14.69764900207519
100
AcDbVertex
100
AcDb2dVertex
 10
132.6768144234905
 20
198.4972548645753
 30
0.0
  0
VERTEX
  5
42C9
330
42B7
100
AcDbEntity
  8
Verdeckte Kanten(ISO-ZOPH)
 48
14.69764900207519
100
AcDbVertex
100
AcDb2dVertex
 10
132.9648166164646
 20
198.5389661949891
 30
0.0
  0
VERTEX
  5
42CA
330
42B7
100
AcDbEntity
  8
Verdeckte Kanten(ISO-ZOPH)
 48
14.69764900207519
100
AcDbVertex
100
AcDb2dVertex
 10
133.2518064245472
 20
198.5891062182206
 30
0.0
  0
VERTEX
  5
42CB
330
42B7
100
AcDbEntity
  8
Verdeckte Kanten(ISO-ZOPH)
 48
14.69764900207519
100
AcDbVertex
100
AcDb2dVertex
 10
133.5374564692269
 20
198.647627250554
 30
0.0
  0
VERTEX
  5
42CC
330
42B7
100
AcDbEntity
  8
Verdeckte Kanten(ISO-ZOPH)
 48
14.69764900207519
100
AcDbVertex
100
AcDb2dVertex
 10
133.821445928503
 20
198.7144798201341
 30
0.0
  0
VERTEX
  5
42CD
330
42B7
100
AcDbEntity
  8
Verdeckte Kanten(ISO-ZOPH)
 48
14.69764900207519
100
AcDbVertex
100
AcDb2dVertex
 10
134.1034545764217
 20
198.7896156471986
 30
0.0
  0
VERTEX
  5
42CE
330
42B7
100
AcDbEntity
  8
Verdeckte Kanten(ISO-ZOPH)
 48
14.69764900207519
100
AcDbVertex
100
AcDb2dVertex
 10
134.3831660613308
 20
198.8729667824525
 30
0.0
  0
VERTEX
  5
42CF
330
42B7
100
AcDbEntity
  8
Verdeckte Kanten(ISO-ZOPH)
 48
14.69764900207519
100
AcDbVertex
100
AcDb2dVertex
 10
134.6602823600063
 20
198.9644277256745
 30
0.0
  0
VERTEX
  5
42D0
330
42B7
100
AcDbEntity
  8
Verdeckte Kanten(ISO-ZOPH)
 48
14.69764900207519
100
AcDbVertex
100
AcDb2dVertex
 10
134.9345096215496
 20
199.0638941687364
 30
0.0
  0
SEQEND
  5
42D1
330
42B7
100
AcDbEntity
  8
Verdeckte Kanten(ISO-ZOPH)
 48
14.69764900207519
  0
POLYLINE
  5
42D2
330
1A
100
AcDbEntity
  8
Verdeckte Kanten(ISO-ZOPH)
 48
0.9778501987457277
100
AcDb2dPolyline
 66
     1
 10
0.0
 20
0.0
 30
0.0
 70
   128
  0
VERTEX
  5
42D3
330
42D2
100
AcDbEntity
  8
Verdeckte Kanten(ISO-ZOPH)
 48
0.9778501987457277
100
AcDbVertex
100
AcDb2dVertex
 10
128.0928864344845
 20
217.8553950947542
 30
0.0
  0
VERTEX
  5
42D4
330
42D2
100
AcDbEntity
  8
Verdeckte Kanten(ISO-ZOPH)
 48
0.9778501987457277
100
AcDbVertex
100
AcDb2dVertex
 10
128.0744823083172
 20
217.8489518326539
 30
0.0
  0
VERTEX
  5
42D5
330
42D2
100
AcDbEntity
  8
Verdeckte Kanten(ISO-ZOPH)
 48
0.9778501987457277
100
AcDbVertex
100
AcDb2dVertex
 10
128.0560883149395
 20
217.8424722117204
 30
0.0
  0
VERTEX
  5
42D6
330
42D2
100
AcDbEntity
  8
Verdeckte Kanten(ISO-ZOPH)
 48
0.9778501987457277
100
AcDbVertex
100
AcDb2dVertex
 10
128.0377047523747
 20
217.8359556359071
 30
0.0
  0
VERTEX
  5
42D7
330
42D2
100
AcDbEntity
  8
Verdeckte Kanten(ISO-ZOPH)
 48
0.9778501987457277
100
AcDbVertex
100
AcDb2dVertex
 10
128.0193316206226
 20
217.8294027012605
 30
0.0
  0
VERTEX
  5
42D8
330
42D2
100
AcDbEntity
  8
Verdeckte Kanten(ISO-ZOPH)
 48
0.9778501987457277
100
AcDbVertex
100
AcDb2dVertex
 10
128.0009695157299
 20
217.8228134077806
 30
0.0
  0
VERTEX
  5
42D9
330
42D2
100
AcDbEntity
  8
Verdeckte Kanten(ISO-ZOPH)
 48
0.9778501987457277
100
AcDbVertex
100
AcDb2dVertex
 10
127.9826187357197
 20
217.8161871594209
 30
0.0
  0
VERTEX
  5
42DA
330
42D2
100
AcDbEntity
  8
Verdeckte Kanten(ISO-ZOPH)
 48
0.9778501987457277
100
AcDbVertex
100
AcDb2dVertex
 10
127.9642786845455
 20
217.8095251482743
 30
0.0
  0
VERTEX
  5
42DB
330
42D2
100
AcDbEntity
  8
Verdeckte Kanten(ISO-ZOPH)
 48
0.9778501987457277
100
AcDbVertex
100
AcDb2dVertex
 10
127.9459502562771
 20
217.802826182248
 30
0.0
  0
VERTEX
  5
42DC
330
42D2
100
AcDbEntity
  8
Verdeckte Kanten(ISO-ZOPH)
 48
0.9778501987457277
100
AcDbVertex
100
AcDb2dVertex
 10
127.9276334509144
 20
217.7960908573884
 30
0.0
  0
VERTEX
  5
42DD
330
42D2
100
AcDbEntity
  8
Verdeckte Kanten(ISO-ZOPH)
 48
0.9778501987457277
100
AcDbVertex
100
AcDb2dVertex
 10
127.9093282684574
 20
217.7893191736955
 30
0.0
  0
VERTEX
  5
42DE
330
42D2
100
AcDbEntity
  8
Verdeckte Kanten(ISO-ZOPH)
 48
0.9778501987457277
100
AcDbVertex
100
AcDb2dVertex
 10
127.8910347089062
 20
217.7825117272157
 30
0.0
  0
VERTEX
  5
42DF
330
42D2
100
AcDbEntity
  8
Verdeckte Kanten(ISO-ZOPH)
 48
0.9778501987457277
100
AcDbVertex
100
AcDb2dVertex
 10
127.8727530702839
 20
217.7756679219026
 30
0.0
  0
VERTEX
  5
42E0
330
42D2
100
AcDbEntity
  8
Verdeckte Kanten(ISO-ZOPH)
 48
0.9778501987457277
100
AcDbVertex
100
AcDb2dVertex
 10
127.8544836506138
 20
217.7687877577561
 30
0.0
  0
VERTEX
  5
42E1
330
42D2
100
AcDbEntity
  8
Verdeckte Kanten(ISO-ZOPH)
 48
0.9778501987457277
100
AcDbVertex
100
AcDb2dVertex
 10
127.8362264498959
 20
217.7618712347764
 30
0.0
  0
VERTEX
  5
42E2
330
42D2
100
AcDbEntity
  8
Verdeckte Kanten(ISO-ZOPH)
 48
0.9778501987457277
100
AcDbVertex
100
AcDb2dVertex
 10
127.8179814681301
 20
217.7549189490098
 30
0.0
  0
VERTEX
  5
42E3
330
42D2
100
AcDbEntity
  8
Verdeckte Kanten(ISO-ZOPH)
 48
0.9778501987457277
100
AcDbVertex
100
AcDb2dVertex
 10
127.7997490033398
 20
217.7479309004564
 30
0.0
  0
VERTEX
  5
42E4
330
42D2
100
AcDbEntity
  8
Verdeckte Kanten(ISO-ZOPH)
 48
0.9778501987457277
100
AcDbVertex
100
AcDb2dVertex
 10
127.7815290555248
 20
217.7409064930696
 30
0.0
  0
VERTEX
  5
42E5
330
42D2
100
AcDbEntity
  8
Verdeckte Kanten(ISO-ZOPH)
 48
0.9778501987457277
100
AcDbVertex
100
AcDb2dVertex
 10
127.7633219227085
 20
217.7338457268495
 30
0.0
  0
VERTEX
  5
42E6
330
42D2
100
AcDbEntity
  8
Verdeckte Kanten(ISO-ZOPH)
 48
0.9778501987457277
100
AcDbVertex
100
AcDb2dVertex
 10
127.7451273068676
 20
217.726749793889
 30
0.0
  0
VERTEX
  5
42E7
330
42D2
100
AcDbEntity
  8
Verdeckte Kanten(ISO-ZOPH)
 48
0.9778501987457277
100
AcDbVertex
100
AcDb2dVertex
 10
127.7269458040485
 20
217.7196175020951
 30
0.0
  0
VERTEX
  5
42E8
330
42D2
100
AcDbEntity
  8
Verdeckte Kanten(ISO-ZOPH)
 48
0.9778501987457277
100
AcDbVertex
100
AcDb2dVertex
 10
127.7087771162281
 20
217.7124494475144
 30
0.0
  0
VERTEX
  5
42E9
330
42D2
100
AcDbEntity
  8
Verdeckte Kanten(ISO-ZOPH)
 48
0.9778501987457277
100
AcDbVertex
100
AcDb2dVertex
 10
127.6906215414295
 20
217.7052450341005
 30
0.0
  0
VERTEX
  5
42EA
330
42D2
100
AcDbEntity
  8
Verdeckte Kanten(ISO-ZOPH)
 48
0.9778501987457277
100
AcDbVertex
100
AcDb2dVertex
 10
127.6724790796528
 20
217.698005453946
 30
0.0
  0
VERTEX
  5
42EB
330
42D2
100
AcDbEntity
  8
Verdeckte Kanten(ISO-ZOPH)
 48
0.9778501987457277
100
AcDbVertex
100
AcDb2dVertex
 10
127.6543500289211
 20
217.6907295149583
 30
0.0
  0
SEQEND
  5
42EC
330
42D2
100
AcDbEntity
  8
Verdeckte Kanten(ISO-ZOPH)
 48
0.9778501987457277
  0
POLYLINE
  5
42ED
330
1A
100
AcDbEntity
  8
Verdeckte Kanten(ISO-ZOPH)
 48
0.9778501987457277
100
AcDb2dPolyline
 66
     1
 10
0.0
 20
0.0
 30
0.0
 70
   128
  0
VERTEX
  5
42EE
330
42ED
100
AcDbEntity
  8
Verdeckte Kanten(ISO-ZOPH)
 48
0.9778501987457277
100
AcDbVertex
100
AcDb2dVertex
 10
127.6543500289211
 20
199.1369563502091
 30
0.0
  0
VERTEX
  5
42EF
330
42ED
100
AcDbEntity
  8
Verdeckte Kanten(ISO-ZOPH)
 48
0.9778501987457277
100
AcDbVertex
100
AcDb2dVertex
 10
127.6724790796528
 20
199.1296804112214
 30
0.0
  0
VERTEX
  5
42F0
330
42ED
100
AcDbEntity
  8
Verdeckte Kanten(ISO-ZOPH)
 48
0.9778501987457277
100
AcDbVertex
100
AcDb2dVertex
 10
127.6906215414295
 20
199.122440831067
 30
0.0
  0
VERTEX
  5
42F1
330
42ED
100
AcDbEntity
  8
Verdeckte Kanten(ISO-ZOPH)
 48
0.9778501987457277
100
AcDbVertex
100
AcDb2dVertex
 10
127.7087771162281
 20
199.115236417653
 30
0.0
  0
VERTEX
  5
42F2
330
42ED
100
AcDbEntity
  8
Verdeckte Kanten(ISO-ZOPH)
 48
0.9778501987457277
100
AcDbVertex
100
AcDb2dVertex
 10
127.7269458040485
 20
199.1080683630723
 30
0.0
  0
VERTEX
  5
42F3
330
42ED
100
AcDbEntity
  8
Verdeckte Kanten(ISO-ZOPH)
 48
0.9778501987457277
100
AcDbVertex
100
AcDb2dVertex
 10
127.7451273068676
 20
199.1009360712785
 30
0.0
  0
VERTEX
  5
42F4
330
42ED
100
AcDbEntity
  8
Verdeckte Kanten(ISO-ZOPH)
 48
0.9778501987457277
100
AcDbVertex
100
AcDb2dVertex
 10
127.7633219227085
 20
199.0938401383179
 30
0.0
  0
VERTEX
  5
42F5
330
42ED
100
AcDbEntity
  8
Verdeckte Kanten(ISO-ZOPH)
 48
0.9778501987457277
100
AcDbVertex
100
AcDb2dVertex
 10
127.7815290555248
 20
199.0867793720979
 30
0.0
  0
VERTEX
  5
42F6
330
42ED
100
AcDbEntity
  8
Verdeckte Kanten(ISO-ZOPH)
 48
0.9778501987457277
100
AcDbVertex
100
AcDb2dVertex
 10
127.7997490033398
 20
199.0797549647111
 30
0.0
  0
VERTEX
  5
42F7
330
42ED
100
AcDbEntity
  8
Verdeckte Kanten(ISO-ZOPH)
 48
0.9778501987457277
100
AcDbVertex
100
AcDb2dVertex
 10
127.8179814681301
 20
199.0727669161576
 30
0.0
  0
VERTEX
  5
42F8
330
42ED
100
AcDbEntity
  8
Verdeckte Kanten(ISO-ZOPH)
 48
0.9778501987457277
100
AcDbVertex
100
AcDb2dVertex
 10
127.8362264498959
 20
199.065814630391
 30
0.0
  0
VERTEX
  5
42F9
330
42ED
100
AcDbEntity
  8
Verdeckte Kanten(ISO-ZOPH)
 48
0.9778501987457277
100
AcDbVertex
100
AcDb2dVertex
 10
127.8544836506138
 20
199.0588981074113
 30
0.0
  0
VERTEX
  5
42FA
330
42ED
100
AcDbEntity
  8
Verdeckte Kanten(ISO-ZOPH)
 48
0.9778501987457277
100
AcDbVertex
100
AcDb2dVertex
 10
127.8727530702839
 20
199.0520179432649
 30
0.0
  0
VERTEX
  5
42FB
330
42ED
100
AcDbEntity
  8
Verdeckte Kanten(ISO-ZOPH)
 48
0.9778501987457277
100
AcDbVertex
100
AcDb2dVertex
 10
127.8910347089062
 20
199.0451741379517
 30
0.0
  0
VERTEX
  5
42FC
330
42ED
100
AcDbEntity
  8
Verdeckte Kanten(ISO-ZOPH)
 48
0.9778501987457277
100
AcDbVertex
100
AcDb2dVertex
 10
127.9093282684574
 20
199.0383666914719
 30
0.0
  0
VERTEX
  5
42FD
330
42ED
100
AcDbEntity
  8
Verdeckte Kanten(ISO-ZOPH)
 48
0.9778501987457277
100
AcDbVertex
100
AcDb2dVertex
 10
127.9276334509144
 20
199.031595007779
 30
0.0
  0
VERTEX
  5
42FE
330
42ED
100
AcDbEntity
  8
Verdeckte Kanten(ISO-ZOPH)
 48
0.9778501987457277
100
AcDbVertex
100
AcDb2dVertex
 10
127.9459502562771
 20
199.0248596829194
 30
0.0
  0
VERTEX
  5
42FF
330
42ED
100
AcDbEntity
  8
Verdeckte Kanten(ISO-ZOPH)
 48
0.9778501987457277
100
AcDbVertex
100
AcDb2dVertex
 10
127.9642786845455
 20
199.0181607168931
 30
0.0
  0
VERTEX
  5
4300
330
42ED
100
AcDbEntity
  8
Verdeckte Kanten(ISO-ZOPH)
 48
0.9778501987457277
100
AcDbVertex
100
AcDb2dVertex
 10
127.9826187357197
 20
199.0114987057465
 30
0.0
  0
VERTEX
  5
4301
330
42ED
100
AcDbEntity
  8
Verdeckte Kanten(ISO-ZOPH)
 48
0.9778501987457277
100
AcDbVertex
100
AcDb2dVertex
 10
128.0009695157299
 20
199.0048724573869
 30
0.0
  0
VERTEX
  5
4302
330
42ED
100
AcDbEntity
  8
Verdeckte Kanten(ISO-ZOPH)
 48
0.9778501987457277
100
AcDbVertex
100
AcDb2dVertex
 10
128.0193316206226
 20
198.9982831639069
 30
0.0
  0
VERTEX
  5
4303
330
42ED
100
AcDbEntity
  8
Verdeckte Kanten(ISO-ZOPH)
 48
0.9778501987457277
100
AcDbVertex
100
AcDb2dVertex
 10
128.0377047523747
 20
198.9917302292603
 30
0.0
  0
VERTEX
  5
4304
330
42ED
100
AcDbEntity
  8
Verdeckte Kanten(ISO-ZOPH)
 48
0.9778501987457277
100
AcDbVertex
100
AcDb2dVertex
 10
128.0560883149395
 20
198.985213653447
 30
0.0
  0
VERTEX
  5
4305
330
42ED
100
AcDbEntity
  8
Verdeckte Kanten(ISO-ZOPH)
 48
0.9778501987457277
100
AcDbVertex
100
AcDb2dVertex
 10
128.0744823083172
 20
198.9787340325135
 30
0.0
  0
VERTEX
  5
4306
330
42ED
100
AcDbEntity
  8
Verdeckte Kanten(ISO-ZOPH)
 48
0.9778501987457277
100
AcDbVertex
100
AcDb2dVertex
 10
128.0928864344845
 20
198.9722907704133
 30
0.0
  0
SEQEND
  5
4307
330
42ED
100
AcDbEntity
  8
Verdeckte Kanten(ISO-ZOPH)
 48
0.9778501987457277
  0
LINE
  5
4308
330
1A
100
AcDbEntity
  8
Verdeckte tangentiale Kanten(ISO-ZOPH)
 48
25.33393287658693
100
AcDbLine
 10
128.1240277752171
 20
198.9590048950929
 30
0.0
 11
163.9264538153896
 21
184.9842870396394
 31
0.0
  0
LINE
  5
4309
330
1A
100
AcDbEntity
  8
Verdeckte tangentiale Kanten(ISO-ZOPH)
 48
25.33393287658693
100
AcDbLine
 10
128.1240277752171
 20
217.8686809700746
 30
0.0
 11
163.9264538153896
 21
231.8433988255281
 31
0.0
  0
POLYLINE
  5
430C
330
1A
100
AcDbEntity
  8
Sichtbare Kanten(ISO-ZOPH)
100
AcDb2dPolyline
 66
     1
 10
0.0
 20
0.0
 30
0.0
 70
   128
  0
VERTEX
  5
430D
330
430C
100
AcDbEntity
  8
Sichtbare Kanten(ISO-ZOPH)
100
AcDbVertex
100
AcDb2dVertex
 10
155.0793626174221
 20
186.7393624943513
 30
0.0
  0
VERTEX
  5
430E
330
430C
100
AcDbEntity
  8
Sichtbare Kanten(ISO-ZOPH)
100
AcDbVertex
100
AcDb2dVertex
 10
151.579482780386
 20
188.3712732952851
 30
0.0
  0
VERTEX
  5
430F
330
430C
100
AcDbEntity
  8
Sichtbare Kanten(ISO-ZOPH)
100
AcDbVertex
100
AcDb2dVertex
 10
148.0572285517941
 20
190.0203228157777
 30
0.0
  0
VERTEX
  5
4310
330
430C
100
AcDbEntity
  8
Sichtbare Kanten(ISO-ZOPH)
100
AcDbVertex
100
AcDb2dVertex
 10
144.5340385302792
 20
191.6661989849824
 30
0.0
  0
VERTEX
  5
4311
330
430C
100
AcDbEntity
  8
Sichtbare Kanten(ISO-ZOPH)
100
AcDbVertex
100
AcDb2dVertex
 10
142.7787914141903
 20
192.4815976780671
 30
0.0
  0
VERTEX
  5
4312
330
430C
100
AcDbEntity
  8
Sichtbare Kanten(ISO-ZOPH)
100
AcDbVertex
100
AcDb2dVertex
 10
141.0313489302883
 20
193.2885837715882
 30
0.0
  0
VERTEX
  5
4313
330
430C
100
AcDbEntity
  8
Sichtbare Kanten(ISO-ZOPH)
100
AcDbVertex
100
AcDb2dVertex
 10
139.2943914994488
 20
194.0846204918641
 30
0.0
  0
VERTEX
  5
4314
330
430C
100
AcDbEntity
  8
Sichtbare Kanten(ISO-ZOPH)
100
AcDbVertex
100
AcDb2dVertex
 10
137.5705983504543
 20
194.8671674889344
 30
0.0
  0
VERTEX
  5
4315
330
430C
100
AcDbEntity
  8
Sichtbare Kanten(ISO-ZOPH)
100
AcDbVertex
100
AcDb2dVertex
 10
135.8626487120876
 20
195.6336844128388
 30
0.0
  0
VERTEX
  5
4316
330
430C
100
AcDbEntity
  8
Sichtbare Kanten(ISO-ZOPH)
100
AcDbVertex
100
AcDb2dVertex
 10
134.1732230052242
 20
196.3816321057099
 30
0.0
  0
VERTEX
  5
4317
330
430C
100
AcDbEntity
  8
Sichtbare Kanten(ISO-ZOPH)
100
AcDbVertex
100
AcDb2dVertex
 10
132.5050005331526
 20
197.1084726017732
 30
0.0
  0
VERTEX
  5
4318
330
430C
100
AcDbEntity
  8
Sichtbare Kanten(ISO-ZOPH)
100
AcDbVertex
100
AcDb2dVertex
 10
130.8606611207018
 20
197.8116667431611
 30
0.0
  0
VERTEX
  5
4319
330
430C
100
AcDbEntity
  8
Sichtbare Kanten(ISO-ZOPH)
100
AcDbVertex
100
AcDb2dVertex
 10
129.2428844436894
 20
198.4886741799134
 30
0.0
  0
VERTEX
  5
431A
330
430C
100
AcDbEntity
  8
Sichtbare Kanten(ISO-ZOPH)
100
AcDbVertex
100
AcDb2dVertex
 10
127.6543500289211
 20
199.1369563502091
 30
0.0
  0
SEQEND
  5
431B
330
430C
100
AcDbEntity
  8
Sichtbare Kanten(ISO-ZOPH)
  0
POLYLINE
  5
431C
330
1A
100
AcDbEntity
  8
Sichtbare Kanten(ISO-ZOPH)
100
AcDb2dPolyline
 66
     1
 10
0.0
 20
0.0
 30
0.0
 70
   128
  0
VERTEX
  5
431D
330
431C
100
AcDbEntity
  8
Sichtbare Kanten(ISO-ZOPH)
100
AcDbVertex
100
AcDb2dVertex
 10
127.6543500289211
 20
217.6907295149583
 30
0.0
  0
VERTEX
  5
431E
330
431C
100
AcDbEntity
  8
Sichtbare Kanten(ISO-ZOPH)
100
AcDbVertex
100
AcDb2dVertex
 10
128.4466286763439
 20
218.0125898283738
 30
0.0
  0
VERTEX
  5
431F
330
431C
100
AcDbEntity
  8
Sichtbare Kanten(ISO-ZOPH)
100
AcDbVertex
100
AcDb2dVertex
 10
129.2493481203804
 20
218.3444076937455
 30
0.0
  0
VERTEX
  5
4320
330
431C
100
AcDbEntity
  8
Sichtbare Kanten(ISO-ZOPH)
100
AcDbVertex
100
AcDb2dVertex
 10
130.0617710515747
 20
218.6855161350984
 30
0.0
  0
VERTEX
  5
4321
330
431C
100
AcDbEntity
  8
Sichtbare Kanten(ISO-ZOPH)
100
AcDbVertex
100
AcDb2dVertex
 10
130.8831607937703
 20
219.035246388318
 30
0.0
  0
VERTEX
  5
4322
330
431C
100
AcDbEntity
  8
Sichtbare Kanten(ISO-ZOPH)
100
AcDbVertex
100
AcDb2dVertex
 10
132.5498936340103
 20
219.7579062145967
 30
0.0
  0
VERTEX
  5
4323
330
431C
100
AcDbEntity
  8
Sichtbare Kanten(ISO-ZOPH)
100
AcDbVertex
100
AcDb2dVertex
 10
134.2436518534908
 20
220.5070424240846
 30
0.0
  0
VERTEX
  5
4324
330
431C
100
AcDbEntity
  8
Sichtbare Kanten(ISO-ZOPH)
100
AcDbVertex
100
AcDb2dVertex
 10
135.9585412606487
 20
221.2773132485169
 30
0.0
  0
VERTEX
  5
4325
330
431C
100
AcDbEntity
  8
Sichtbare Kanten(ISO-ZOPH)
100
AcDbVertex
100
AcDb2dVertex
 10
137.6886668071041
 20
222.0633793038148
 30
0.0
  0
VERTEX
  5
4326
330
431C
100
AcDbEntity
  8
Sichtbare Kanten(ISO-ZOPH)
100
AcDbVertex
100
AcDb2dVertex
 10
141.1710479125271
 20
223.6615228813905
 30
0.0
  0
VERTEX
  5
4327
330
431C
100
AcDbEntity
  8
Sichtbare Kanten(ISO-ZOPH)
100
AcDbVertex
100
AcDb2dVertex
 10
148.1193210944424
 20
226.8630778950471
 30
0.0
  0
VERTEX
  5
4328
330
431C
100
AcDbEntity
  8
Sichtbare Kanten(ISO-ZOPH)
100
AcDbVertex
100
AcDb2dVertex
 10
155.0793626174221
 20
230.0883233708162
 30
0.0
  0
SEQEND
  5
4329
330
431C
100
AcDbEntity
  8
Sichtbare Kanten(ISO-ZOPH)
  0
POLYLINE
  5
432A
330
1A
100
AcDbEntity
  8
Sichtbare tangentiale Kanten(ISO-ZOPH)
100
AcDb2dPolyline
 66
     1
 10
0.0
 20
0.0
 30
0.0
 70
   128
  0
VERTEX
  5
432B
330
432A
100
AcDbEntity
  8
Sichtbare tangentiale Kanten(ISO-ZOPH)
100
AcDbVertex
100
AcDb2dVertex
 10
154.0978100165615
 20
187.2352230709809
 30
0.0
  0
VERTEX
  5
432C
330
432A
100
AcDbEntity
  8
Sichtbare tangentiale Kanten(ISO-ZOPH)
100
AcDbVertex
100
AcDb2dVertex
 10
154.1379978522549
 20
187.2133147877473
 30
0.0
  0
VERTEX
  5
432D
330
432A
100
AcDbEntity
  8
Sichtbare tangentiale Kanten(ISO-ZOPH)
100
AcDbVertex
100
AcDb2dVertex
 10
154.1782524451504
 20
187.1915137928742
 30
0.0
  0
VERTEX
  5
432E
330
432A
100
AcDbEntity
  8
Sichtbare tangentiale Kanten(ISO-ZOPH)
100
AcDbVertex
100
AcDb2dVertex
 10
154.2185714110622
 20
187.1698200863618
 30
0.0
  0
VERTEX
  5
432F
330
432A
100
AcDbEntity
  8
Sichtbare tangentiale Kanten(ISO-ZOPH)
100
AcDbVertex
100
AcDb2dVertex
 10
154.2589547499905
 20
187.1482312840241
 30
0.0
  0
VERTEX
  5
4330
330
432A
100
AcDbEntity
  8
Sichtbare tangentiale Kanten(ISO-ZOPH)
100
AcDbVertex
100
AcDb2dVertex
 10
154.2994024619351
 20
187.1267497700471
 30
0.0
  0
VERTEX
  5
4331
330
432A
100
AcDbEntity
  8
Sichtbare tangentiale Kanten(ISO-ZOPH)
100
AcDbVertex
100
AcDb2dVertex
 10
154.339914546896
 20
187.1053755444306
 30
0.0
  0
VERTEX
  5
4332
330
432A
100
AcDbEntity
  8
Sichtbare tangentiale Kanten(ISO-ZOPH)
100
AcDbVertex
100
AcDb2dVertex
 10
154.3804886206875
 20
187.0841086071748
 30
0.0
  0
VERTEX
  5
4333
330
432A
100
AcDbEntity
  8
Sichtbare tangentiale Kanten(ISO-ZOPH)
100
AcDbVertex
100
AcDb2dVertex
 10
154.4211270674954
 20
187.0629489582795
 30
0.0
  0
VERTEX
  5
4334
330
432A
100
AcDbEntity
  8
Sichtbare tangentiale Kanten(ISO-ZOPH)
100
AcDbVertex
100
AcDb2dVertex
 10
154.461825118948
 20
187.0418989819306
 30
0.0
  0
VERTEX
  5
4335
330
432A
100
AcDbEntity
  8
Sichtbare tangentiale Kanten(ISO-ZOPH)
100
AcDbVertex
100
AcDb2dVertex
 10
154.5025851592312
 20
187.0209586781281
 30
0.0
  0
VERTEX
  5
4336
330
432A
100
AcDbEntity
  8
Sichtbare tangentiale Kanten(ISO-ZOPH)
100
AcDbVertex
100
AcDb2dVertex
 10
154.543407188345
 20
187.000128046872
 30
0.0
  0
VERTEX
  5
4337
330
432A
100
AcDbEntity
  8
Sichtbare tangentiale Kanten(ISO-ZOPH)
100
AcDbVertex
100
AcDb2dVertex
 10
154.5842912062893
 20
186.9794070881623
 30
0.0
  0
VERTEX
  5
4338
330
432A
100
AcDbEntity
  8
Sichtbare tangentiale Kanten(ISO-ZOPH)
100
AcDbVertex
100
AcDb2dVertex
 10
154.6252324446926
 20
186.9587934178132
 30
0.0
  0
VERTEX
  5
4339
330
432A
100
AcDbEntity
  8
Sichtbare tangentiale Kanten(ISO-ZOPH)
100
AcDbVertex
100
AcDb2dVertex
 10
154.6662356719265
 20
186.938294188382
 30
0.0
  0
VERTEX
  5
433A
330
432A
100
AcDbEntity
  8
Sichtbare tangentiale Kanten(ISO-ZOPH)
100
AcDbVertex
100
AcDb2dVertex
 10
154.7072961196194
 20
186.9179022473115
 30
0.0
  0
VERTEX
  5
433B
330
432A
100
AcDbEntity
  8
Sichtbare tangentiale Kanten(ISO-ZOPH)
100
AcDbVertex
100
AcDb2dVertex
 10
154.748416171957
 20
186.8976247471589
 30
0.0
  0
VERTEX
  5
433C
330
432A
100
AcDbEntity
  8
Sichtbare tangentiale Kanten(ISO-ZOPH)
100
AcDbVertex
100
AcDb2dVertex
 10
154.7895958289394
 20
186.8774569195527
 30
0.0
  0
VERTEX
  5
433D
330
432A
100
AcDbEntity
  8
Sichtbare tangentiale Kanten(ISO-ZOPH)
100
AcDbVertex
100
AcDb2dVertex
 10
154.8308303221951
 20
186.8574011486787
 30
0.0
  0
VERTEX
  5
433E
330
432A
100
AcDbEntity
  8
Sichtbare tangentiale Kanten(ISO-ZOPH)
100
AcDbVertex
100
AcDb2dVertex
 10
154.8721220359096
 20
186.8374574345368
 30
0.0
  0
VERTEX
  5
433F
330
432A
100
AcDbEntity
  8
Sichtbare tangentiale Kanten(ISO-ZOPH)
100
AcDbVertex
100
AcDb2dVertex
 10
154.9134709700832
 20
186.8176257771271
 30
0.0
  0
VERTEX
  5
4340
330
432A
100
AcDbEntity
  8
Sichtbare tangentiale Kanten(ISO-ZOPH)
100
AcDbVertex
100
AcDb2dVertex
 10
154.9548771247158
 20
186.7979085606354
 30
0.0
  0
VERTEX
  5
4341
330
432A
100
AcDbEntity
  8
Sichtbare tangentiale Kanten(ISO-ZOPH)
100
AcDbVertex
100
AcDb2dVertex
 10
154.9963381156216
 20
186.7783057850617
 30
0.0
  0
VERTEX
  5
4342
330
432A
100
AcDbEntity
  8
Sichtbare tangentiale Kanten(ISO-ZOPH)
100
AcDbVertex
100
AcDb2dVertex
 10
155.0378539428005
 20
186.7588150662202
 30
0.0
  0
VERTEX
  5
4343
330
432A
100
AcDbEntity
  8
Sichtbare tangentiale Kanten(ISO-ZOPH)
100
AcDbVertex
100
AcDb2dVertex
 10
155.0794222220669
 20
186.7394387882966
 30
0.0
  0
SEQEND
  5
4344
330
432A
100
AcDbEntity
  8
Sichtbare tangentiale Kanten(ISO-ZOPH)
  0
POLYLINE
  5
43B1
330
1A
100
AcDbEntity
  8
Sichtbare tangentiale Kanten(ISO-ZOPH)
100
AcDb2dPolyline
 66
     1
 10
0.0
 20
0.0
 30
0.0
 70
   128
  0
VERTEX
  5
43B2
330
43B1
100
AcDbEntity
  8
Sichtbare tangentiale Kanten(ISO-ZOPH)
100
AcDbVertex
100
AcDb2dVertex
 10
155.0794222220669
 20
230.0882542294282
 30
0.0
  0
VERTEX
  5
43B3
330
43B1
100
AcDbEntity
  8
Sichtbare tangentiale Kanten(ISO-ZOPH)
100
AcDbVertex
100
AcDb2dVertex
 10
155.0378420218716
 20
230.068873183133
 30
0.0
  0
VERTEX
  5
43B4
330
43B1
100
AcDbEntity
  8
Sichtbare tangentiale Kanten(ISO-ZOPH)
100
AcDbVertex
100
AcDb2dVertex
 10
154.9963166579495
 20
230.0493776959199
 30
0.0
  0
VERTEX
  5
43B5
330
43B1
100
AcDbEntity
  8
Sichtbare tangentiale Kanten(ISO-ZOPH)
100
AcDbVertex
100
AcDb2dVertex
 10
154.9548461303005
 20
230.0297701519746
 30
0.0
  0
VERTEX
  5
43B6
330
43B1
100
AcDbEntity
  8
Sichtbare tangentiale Kanten(ISO-ZOPH)
100
AcDbVertex
100
AcDb2dVertex
 10
154.9134328231106
 20
230.0100481671113
 30
0.0
  0
VERTEX
  5
43B7
330
43B1
100
AcDbEntity
  8
Sichtbare tangentiale Kanten(ISO-ZOPH)
100
AcDbVertex
100
AcDb2dVertex
 10
154.8720767363796
 20
229.9902141255159
 30
0.0
  0
VERTEX
  5
43B8
330
43B1
100
AcDbEntity
  8
Sichtbare tangentiale Kanten(ISO-ZOPH)
100
AcDbVertex
100
AcDb2dVertex
 10
154.8307778701077
 20
229.9702656430024
 30
0.0
  0
VERTEX
  5
43B9
330
43B1
100
AcDbEntity
  8
Sichtbare tangentiale Kanten(ISO-ZOPH)
100
AcDbVertex
100
AcDb2dVertex
 10
154.7895386084805
 20
229.9502074879426
 30
0.0
  0
VERTEX
  5
43BA
330
43B1
100
AcDbEntity
  8
Sichtbare tangentiale Kanten(ISO-ZOPH)
100
AcDbVertex
100
AcDb2dVertex
 10
154.7483565673122
 20
229.9300372761507
 30
0.0
  0
VERTEX
  5
43BB
330
43B1
100
AcDbEntity
  8
Sichtbare tangentiale Kanten(ISO-ZOPH)
100
AcDbVertex
100
AcDb2dVertex
 10
154.707231746603
 20
229.9097550076265
 30
0.0
  0
VERTEX
  5
43BC
330
43B1
100
AcDbEntity
  8
Sichtbare tangentiale Kanten(ISO-ZOPH)
100
AcDbVertex
100
AcDb2dVertex
 10
154.6661689147244
 20
229.8893630665559
 30
0.0
  0
VERTEX
  5
43BD
330
43B1
100
AcDbEntity
  8
Sichtbare tangentiale Kanten(ISO-ZOPH)
100
AcDbVertex
100
AcDb2dVertex
 10
154.6251656874905
 20
229.8688614529389
 30
0.0
  0
VERTEX
  5
43BE
330
43B1
100
AcDbEntity
  8
Sichtbare tangentiale Kanten(ISO-ZOPH)
100
AcDbVertex
100
AcDb2dVertex
 10
154.5842220649014
 20
229.8482501667757
 30
0.0
  0
VERTEX
  5
43BF
330
43B1
100
AcDbEntity
  8
Sichtbare tangentiale Kanten(ISO-ZOPH)
100
AcDbVertex
100
AcDb2dVertex
 10
154.5433404311428
 20
229.8275268238801
 30
0.0
  0
VERTEX
  5
43C0
330
43B1
100
AcDbEntity
  8
Sichtbare tangentiale Kanten(ISO-ZOPH)
100
AcDbVertex
100
AcDb2dVertex
 10
154.5025207862148
 20
229.806696192624
 30
0.0
  0
VERTEX
  5
43C1
330
43B1
100
AcDbEntity
  8
Sichtbare tangentiale Kanten(ISO-ZOPH)
100
AcDbVertex
100
AcDb2dVertex
 10
154.4617631301174
 20
229.7857558888215
 30
0.0
  0
VERTEX
  5
43C2
330
43B1
100
AcDbEntity
  8
Sichtbare tangentiale Kanten(ISO-ZOPH)
100
AcDbVertex
100
AcDb2dVertex
 10
154.4210674628506
 20
229.7647059124726
 30
0.0
  0
VERTEX
  5
43C3
330
43B1
100
AcDbEntity
  8
Sichtbare tangentiale Kanten(ISO-ZOPH)
100
AcDbVertex
100
AcDb2dVertex
 10
154.3804337844143
 20
229.7435510319489
 30
0.0
  0
VERTEX
  5
43C4
330
43B1
100
AcDbEntity
  8
Sichtbare tangentiale Kanten(ISO-ZOPH)
100
AcDbVertex
100
AcDb2dVertex
 10
154.3398644789944
 20
229.7222864788789
 30
0.0
  0
VERTEX
  5
43C5
330
43B1
100
AcDbEntity
  8
Sichtbare tangentiale Kanten(ISO-ZOPH)
100
AcDbVertex
100
AcDb2dVertex
 10
154.2993595465908
 20
229.7009146374482
 30
0.0
  0
VERTEX
  5
43C6
330
43B1
100
AcDbEntity
  8
Sichtbare tangentiale Kanten(ISO-ZOPH)
100
AcDbVertex
100
AcDb2dVertex
 10
154.2589189872036
 20
229.679435507657
 30
0.0
  0
VERTEX
  5
43C7
330
43B1
100
AcDbEntity
  8
Sichtbare tangentiale Kanten(ISO-ZOPH)
100
AcDbVertex
100
AcDb2dVertex
 10
154.2185428008328
 20
229.6578514736909
 30
0.0
  0
VERTEX
  5
43C8
330
43B1
100
AcDbEntity
  8
Sichtbare tangentiale Kanten(ISO-ZOPH)
100
AcDbVertex
100
AcDb2dVertex
 10
154.1782309874783
 20
229.6361601513642
 30
0.0
  0
VERTEX
  5
43C9
330
43B1
100
AcDbEntity
  8
Sichtbare tangentiale Kanten(ISO-ZOPH)
100
AcDbVertex
100
AcDb2dVertex
 10
154.1379883155117
 20
229.6143639248628
 30
0.0
  0
VERTEX
  5
43CA
330
43B1
100
AcDbEntity
  8
Sichtbare tangentiale Kanten(ISO-ZOPH)
100
AcDbVertex
100
AcDb2dVertex
 10
154.0978100165615
 20
229.5924627941865
 30
0.0
  0
SEQEND
  5
43CB
330
43B1
100
AcDbEntity
  8
Sichtbare tangentiale Kanten(ISO-ZOPH)
  0
ELLIPSE
  5
43CD
330
1A
100
AcDbEntity
  8
Sichtbare tangentiale Kanten(ISO-ZOPH)
100
AcDbEllipse
 10
183.3878967627775
 20
230.3367745710458
 30
0.0
 11
0.0164879131284668
 21
1.999932036023239
 31
0.0
210
0.0
220
0.0
230
1.0
 40
0.0781958376258559
 41
0.0000000000252222
 42
0.1050425763997612
  0
ELLIPSE
  5
4466
330
1A
100
AcDbEntity
  8
Sichtbare tangentiale Kanten(ISO-ZOPH)
100
AcDbEllipse
 10
165.3878967628658
 20
186.4901039775015
 30
0.0
 11
-0.0018016810507058
 21
-1.999999188485733
 31
0.0
210
0.0
220
0.0
230
1.0
 40
0.0085706100625634
 41
0.0
 42
0.1047236155679512
  0
POLYLINE
  5
4467
102
{ACAD_REACTORS
330
4DD3
102
}
330
1A
100
AcDbEntity
  8
Sichtbare tangentiale Kanten(ISO-ZOPH)
100
AcDb2dPolyline
 66
     1
 10
0.0
 20
0.0
 30
0.0
 70
   128
  0
VERTEX
  5
4468
330
4467
100
AcDbEntity
  8
Sichtbare tangentiale Kanten(ISO-ZOPH)
100
AcDbVertex
100
AcDb2dVertex
 10
181.8515303000698
 20
184.4946730297822
 30
0.0
  0
VERTEX
  5
4469
330
4467
100
AcDbEntity
  8
Sichtbare tangentiale Kanten(ISO-ZOPH)
100
AcDbVertex
100
AcDb2dVertex
 10
181.3370373114834
 20
184.494618193509
 30
0.0
  0
VERTEX
  5
446A
330
4467
100
AcDbEntity
  8
Sichtbare tangentiale Kanten(ISO-ZOPH)
100
AcDbVertex
100
AcDb2dVertex
 10
180.822544322897
 20
184.4945776623506
 30
0.0
  0
VERTEX
  5
446B
330
4467
100
AcDbEntity
  8
Sichtbare tangentiale Kanten(ISO-ZOPH)
100
AcDbVertex
100
AcDb2dVertex
 10
180.3080513343105
 20
184.4945562046784
 30
0.0
  0
VERTEX
  5
446C
330
4467
100
AcDbEntity
  8
Sichtbare tangentiale Kanten(ISO-ZOPH)
100
AcDbVertex
100
AcDb2dVertex
 10
179.7935583457241
 20
184.4945466679352
 30
0.0
  0
VERTEX
  5
446D
330
4467
100
AcDbEntity
  8
Sichtbare tangentiale Kanten(ISO-ZOPH)
100
AcDbVertex
100
AcDb2dVertex
 10
179.2790653571377
 20
184.4945562046784
 30
0.0
  0
VERTEX
  5
446E
330
4467
100
AcDbEntity
  8
Sichtbare tangentiale Kanten(ISO-ZOPH)
100
AcDbVertex
100
AcDb2dVertex
 10
178.7645723685512
 20
184.4945800465363
 30
0.0
  0
VERTEX
  5
446F
330
4467
100
AcDbEntity
  8
Sichtbare tangentiale Kanten(ISO-ZOPH)
100
AcDbVertex
100
AcDb2dVertex
 10
178.2500793799648
 20
184.4946205776948
 30
0.0
  0
VERTEX
  5
4470
330
4467
100
AcDbEntity
  8
Sichtbare tangentiale Kanten(ISO-ZOPH)
100
AcDbVertex
100
AcDb2dVertex
 10
177.7355863913784
 20
184.4946777981538
 30
0.0
  0
VERTEX
  5
4471
330
4467
100
AcDbEntity
  8
Sichtbare tangentiale Kanten(ISO-ZOPH)
100
AcDbVertex
100
AcDb2dVertex
 10
177.2210886344203
 20
184.4947493237275
 30
0.0
  0
VERTEX
  5
4472
330
4467
100
AcDbEntity
  8
Sichtbare tangentiale Kanten(ISO-ZOPH)
100
AcDbVertex
100
AcDb2dVertex
 10
176.7065956458339
 20
184.4948399227876
 30
0.0
  0
VERTEX
  5
4473
330
4467
100
AcDbEntity
  8
Sichtbare tangentiale Kanten(ISO-ZOPH)
100
AcDbVertex
100
AcDb2dVertex
 10
176.1921026572476
 20
184.4949472111482
 30
0.0
  0
VERTEX
  5
4474
330
4467
100
AcDbEntity
  8
Sichtbare tangentiale Kanten(ISO-ZOPH)
100
AcDbVertex
100
AcDb2dVertex
 10
175.6776096686611
 20
184.4950688046235
 30
0.0
  0
VERTEX
  5
4475
330
4467
100
AcDbEntity
  8
Sichtbare tangentiale Kanten(ISO-ZOPH)
100
AcDbVertex
100
AcDb2dVertex
 10
175.1631166800746
 20
184.4952094715852
 30
0.0
  0
VERTEX
  5
4476
330
4467
100
AcDbEntity
  8
Sichtbare tangentiale Kanten(ISO-ZOPH)
100
AcDbVertex
100
AcDb2dVertex
 10
174.6486236914883
 20
184.4953644436616
 30
0.0
  0
VERTEX
  5
4477
102
{ACAD_REACTORS
330
4DD3
102
}
330
4467
100
AcDbEntity
  8
Sichtbare tangentiale Kanten(ISO-ZOPH)
100
AcDbVertex
100
AcDb2dVertex
 10
174.1341307029018
 20
184.4955384892243
 30
0.0
  0
VERTEX
  5
4478
330
4467
100
AcDbEntity
  8
Sichtbare tangentiale Kanten(ISO-ZOPH)
100
AcDbVertex
100
AcDb2dVertex
 10
173.6196377143155
 20
184.4957292240876
 30
0.0
  0
VERTEX
  5
4479
330
4467
100
AcDbEntity
  8
Sichtbare tangentiale Kanten(ISO-ZOPH)
100
AcDbVertex
100
AcDb2dVertex
 10
173.1051447257289
 20
184.4959366482514
 30
0.0
  0
VERTEX
  5
447A
330
4467
100
AcDbEntity
  8
Sichtbare tangentiale Kanten(ISO-ZOPH)
100
AcDbVertex
100
AcDb2dVertex
 10
172.5906565055141
 20
184.4961607617158
 30
0.0
  0
VERTEX
  5
447B
330
4467
100
AcDbEntity
  8
Sichtbare tangentiale Kanten(ISO-ZOPH)
100
AcDbVertex
100
AcDb2dVertex
 10
172.0761635169278
 20
184.4964015644807
 30
0.0
  0
VERTEX
  5
447C
330
4467
100
AcDbEntity
  8
Sichtbare tangentiale Kanten(ISO-ZOPH)
100
AcDbVertex
100
AcDb2dVertex
 10
171.5616752967129
 20
184.4966614407319
 30
0.0
  0
VERTEX
  5
447D
330
4467
100
AcDbEntity
  8
Sichtbare tangentiale Kanten(ISO-ZOPH)
100
AcDbVertex
100
AcDb2dVertex
 10
171.047187076498
 20
184.4969356220978
 30
0.0
  0
VERTEX
  5
447E
330
4467
100
AcDbEntity
  8
Sichtbare tangentiale Kanten(ISO-ZOPH)
100
AcDbVertex
100
AcDb2dVertex
 10
170.5327012404689
 20
184.4972288769501
 30
0.0
  0
VERTEX
  5
447F
330
4467
100
AcDbEntity
  8
Sichtbare tangentiale Kanten(ISO-ZOPH)
100
AcDbVertex
100
AcDb2dVertex
 10
170.0182154044399
 20
184.4975364369172
 30
0.0
  0
VERTEX
  5
4480
330
4467
100
AcDbEntity
  8
Sichtbare tangentiale Kanten(ISO-ZOPH)
100
AcDbVertex
100
AcDb2dVertex
 10
169.5037295684109
 20
184.4978630703706
 30
0.0
  0
VERTEX
  5
4481
330
4467
100
AcDbEntity
  8
Sichtbare tangentiale Kanten(ISO-ZOPH)
100
AcDbVertex
100
AcDb2dVertex
 10
168.9892461165675
 20
184.4982063931245
 30
0.0
  0
VERTEX
  5
4482
330
4467
100
AcDbEntity
  8
Sichtbare tangentiale Kanten(ISO-ZOPH)
100
AcDbVertex
100
AcDb2dVertex
 10
168.4747626647244
 20
184.4985640209931
 30
0.0
  0
VERTEX
  5
4483
330
4467
100
AcDbEntity
  8
Sichtbare tangentiale Kanten(ISO-ZOPH)
100
AcDbVertex
100
AcDb2dVertex
 10
167.9602815970669
 20
184.4989407223481
 30
0.0
  0
VERTEX
  5
4484
330
4467
100
AcDbEntity
  8
Sichtbare tangentiale Kanten(ISO-ZOPH)
100
AcDbVertex
100
AcDb2dVertex
 10
167.4458005294094
 20
184.4993317288178
 30
0.0
  0
VERTEX
  5
4485
330
4467
100
AcDbEntity
  8
Sichtbare tangentiale Kanten(ISO-ZOPH)
100
AcDbVertex
100
AcDb2dVertex
 10
166.9313218459378
 20
184.4997394245881
 30
0.0
  0
VERTEX
  5
4486
330
4467
100
AcDbEntity
  8
Sichtbare tangentiale Kanten(ISO-ZOPH)
100
AcDbVertex
100
AcDb2dVertex
 10
166.4168455466518
 20
184.5001638096589
 30
0.0
  0
VERTEX
  5
4487
330
4467
100
AcDbEntity
  8
Sichtbare tangentiale Kanten(ISO-ZOPH)
100
AcDbVertex
100
AcDb2dVertex
 10
165.9023716315517
 20
184.5006048840302
 30
0.0
  0
VERTEX
  5
4488
330
4467
100
AcDbEntity
  8
Sichtbare tangentiale Kanten(ISO-ZOPH)
100
AcDbVertex
100
AcDb2dVertex
 10
165.3878977164517
 20
184.5010602635163
 30
0.0
  0
SEQEND
  5
4489
330
4467
100
AcDbEntity
  8
Sichtbare tangentiale Kanten(ISO-ZOPH)
  0
POLYLINE
  5
44F4
330
1A
100
AcDbEntity
  8
Sichtbare tangentiale Kanten(ISO-ZOPH)
100
AcDb2dPolyline
 66
     1
 10
0.0
 20
0.0
 30
0.0
 70
   128
  0
VERTEX
  5
44F5
330
44F4
100
AcDbEntity
  8
Sichtbare tangentiale Kanten(ISO-ZOPH)
100
AcDbVertex
100
AcDb2dVertex
 10
163.8095404967556
 20
184.54911591232
 30
0.0
  0
VERTEX
  5
44F6
330
44F4
100
AcDbEntity
  8
Sichtbare tangentiale Kanten(ISO-ZOPH)
100
AcDbVertex
100
AcDb2dVertex
 10
163.3869483336697
 20
184.578253046872
 30
0.0
  0
VERTEX
  5
44F7
330
44F4
100
AcDbEntity
  8
Sichtbare tangentiale Kanten(ISO-ZOPH)
100
AcDbVertex
100
AcDb2dVertex
 10
162.9648401602993
 20
184.6147811573762
 30
0.0
  0
VERTEX
  5
44F8
330
44F4
100
AcDbEntity
  8
Sichtbare tangentiale Kanten(ISO-ZOPH)
100
AcDbVertex
100
AcDb2dVertex
 10
162.5434114798794
 20
184.6586787861603
 30
0.0
  0
VERTEX
  5
44F9
330
44F4
100
AcDbEntity
  8
Sichtbare tangentiale Kanten(ISO-ZOPH)
100
AcDbVertex
100
AcDb2dVertex
 10
162.1228530272732
 20
184.7099340122956
 30
0.0
  0
VERTEX
  5
44FA
330
44F4
100
AcDbEntity
  8
Sichtbare tangentiale Kanten(ISO-ZOPH)
100
AcDbVertex
100
AcDb2dVertex
 10
161.7033960685024
 20
184.7685182255524
 30
0.0
  0
VERTEX
  5
44FB
330
44F4
100
AcDbEntity
  8
Sichtbare tangentiale Kanten(ISO-ZOPH)
100
AcDbVertex
100
AcDb2dVertex
 10
161.285224185873
 20
184.8343908947724
 30
0.0
  0
VERTEX
  5
44FC
330
44F4
100
AcDbEntity
  8
Sichtbare tangentiale Kanten(ISO-ZOPH)
100
AcDbVertex
100
AcDb2dVertex
 10
160.8683898314724
 20
184.9075377148408
 30
0.0
  0
VERTEX
  5
44FD
330
44F4
100
AcDbEntity
  8
Sichtbare tangentiale Kanten(ISO-ZOPH)
100
AcDbVertex
100
AcDb2dVertex
 10
160.4529359206448
 20
184.9879443806428
 30
0.0
  0
VERTEX
  5
44FE
330
44F4
100
AcDbEntity
  8
Sichtbare tangentiale Kanten(ISO-ZOPH)
100
AcDbVertex
100
AcDb2dVertex
 10
160.0389125212917
 20
185.0756013554352
 30
0.0
  0
VERTEX
  5
44FF
330
44F4
100
AcDbEntity
  8
Sichtbare tangentiale Kanten(ISO-ZOPH)
100
AcDbVertex
100
AcDb2dVertex
 10
159.6264293059597
 20
185.1704871815461
 30
0.0
  0
VERTEX
  5
4500
330
44F4
100
AcDbEntity
  8
Sichtbare tangentiale Kanten(ISO-ZOPH)
100
AcDbVertex
100
AcDb2dVertex
 10
159.2156889304409
 20
185.2725565594453
 30
0.0
  0
VERTEX
  5
4501
330
44F4
100
AcDbEntity
  8
Sichtbare tangentiale Kanten(ISO-ZOPH)
100
AcDbVertex
100
AcDb2dVertex
 10
158.8068797454129
 20
185.3817641896027
 30
0.0
  0
VERTEX
  5
4502
330
44F4
100
AcDbEntity
  8
Sichtbare tangentiale Kanten(ISO-ZOPH)
100
AcDbVertex
100
AcDb2dVertex
 10
158.4001853331814
 20
185.4980576199311
 30
0.0
  0
VERTEX
  5
4503
330
44F4
100
AcDbEntity
  8
Sichtbare tangentiale Kanten(ISO-ZOPH)
100
AcDbVertex
100
AcDb2dVertex
 10
157.9957964286099
 20
185.6213772457856
 30
0.0
  0
VERTEX
  5
4504
330
44F4
100
AcDbEntity
  8
Sichtbare tangentiale Kanten(ISO-ZOPH)
100
AcDbVertex
100
AcDb2dVertex
 10
157.5938584670315
 20
185.7516729992646
 30
0.0
  0
VERTEX
  5
4505
330
44F4
100
AcDbEntity
  8
Sichtbare tangentiale Kanten(ISO-ZOPH)
100
AcDbVertex
100
AcDb2dVertex
 10
157.1943309172879
 20
185.8889615696686
 30
0.0
  0
VERTEX
  5
4506
330
44F4
100
AcDbEntity
  8
Sichtbare tangentiale Kanten(ISO-ZOPH)
100
AcDbVertex
100
AcDb2dVertex
 10
156.797280536581
 20
186.0332214993256
 30
0.0
  0
VERTEX
  5
4507
330
44F4
100
AcDbEntity
  8
Sichtbare tangentiale Kanten(ISO-ZOPH)
100
AcDbVertex
100
AcDb2dVertex
 10
156.402857528616
 20
186.1844122570771
 30
0.0
  0
VERTEX
  5
4508
330
44F4
100
AcDbEntity
  8
Sichtbare tangentiale Kanten(ISO-ZOPH)
100
AcDbVertex
100
AcDb2dVertex
 10
156.0111882552395
 20
186.3424956959504
 30
0.0
  0
VERTEX
  5
4509
330
44F4
100
AcDbEntity
  8
Sichtbare tangentiale Kanten(ISO-ZOPH)
100
AcDbVertex
100
AcDb2dVertex
 10
155.6223895415554
 20
186.5074360531586
 30
0.0
  0
VERTEX
  5
450A
330
44F4
100
AcDbEntity
  8
Sichtbare tangentiale Kanten(ISO-ZOPH)
100
AcDbVertex
100
AcDb2dVertex
 10
155.2365066870937
 20
186.6792333287019
 30
0.0
  0
VERTEX
  5
450B
330
44F4
100
AcDbEntity
  8
Sichtbare tangentiale Kanten(ISO-ZOPH)
100
AcDbVertex
100
AcDb2dVertex
 10
154.853670822073
 20
186.8578398388642
 30
0.0
  0
VERTEX
  5
450C
330
44F4
100
AcDbEntity
  8
Sichtbare tangentiale Kanten(ISO-ZOPH)
100
AcDbVertex
100
AcDb2dVertex
 10
154.4740488394985
 20
187.0431912106294
 30
0.0
  0
VERTEX
  5
450D
330
44F4
100
AcDbEntity
  8
Sichtbare tangentiale Kanten(ISO-ZOPH)
100
AcDbVertex
100
AcDb2dVertex
 10
154.0978100165615
 20
187.2352230709809
 30
0.0
  0
SEQEND
  5
450E
330
44F4
100
AcDbEntity
  8
Sichtbare tangentiale Kanten(ISO-ZOPH)
  0
ELLIPSE
  5
450F
330
1A
100
AcDbEntity
  8
Sichtbare tangentiale Kanten(ISO-ZOPH)
100
AcDbEllipse
 10
163.9408040330713
 20
186.5338228960142
 30
0.0
 11
-0.1190586542782856
 21
-1.996453114109484
 31
0.0
210
0.0
220
0.0
230
1.0
 40
0.0615065742794261
 41
6.178266176375217
 42
6.283185307190279
  0
ELLIPSE
  5
4510
330
1A
100
AcDbEntity
  8
Sichtbare tangentiale Kanten(ISO-ZOPH)
100
AcDbEllipse
 10
163.9408040330728
 20
230.2938629691535
 30
0.0
 11
-0.1190586542798752
 21
1.996453114109208
 31
0.0
210
0.0
220
0.0
230
1.0
 40
0.0615065742794891
 41
0.0
 42
0.1049191308149551
  0
POLYLINE
  5
452C
330
1A
100
AcDbEntity
  8
Sichtbare tangentiale Kanten(ISO-ZOPH)
100
AcDb2dPolyline
 66
     1
 10
0.0
 20
0.0
 30
0.0
 70
   128
  0
VERTEX
  5
452D
330
452C
100
AcDbEntity
  8
Sichtbare tangentiale Kanten(ISO-ZOPH)
100
AcDbVertex
100
AcDb2dVertex
 10
165.3878977164517
 20
184.5010602635163
 30
0.0
  0
VERTEX
  5
452E
330
452C
100
AcDbEntity
  8
Sichtbare tangentiale Kanten(ISO-ZOPH)
100
AcDbVertex
100
AcDb2dVertex
 10
165.3220774993191
 20
184.5011961621064
 30
0.0
  0
VERTEX
  5
452F
330
452C
100
AcDbEntity
  8
Sichtbare tangentiale Kanten(ISO-ZOPH)
100
AcDbVertex
100
AcDb2dVertex
 10
165.2562501296291
 20
184.5014941853303
 30
0.0
  0
VERTEX
  5
4530
330
452C
100
AcDbEntity
  8
Sichtbare tangentiale Kanten(ISO-ZOPH)
100
AcDbVertex
100
AcDb2dVertex
 10
165.1904203757534
 20
184.5019543331879
 30
0.0
  0
VERTEX
  5
4531
330
452C
100
AcDbEntity
  8
Sichtbare tangentiale Kanten(ISO-ZOPH)
100
AcDbVertex
100
AcDb2dVertex
 10
165.1245858535061
 20
184.5025766056794
 30
0.0
  0
VERTEX
  5
4532
330
452C
100
AcDbEntity
  8
Sichtbare tangentiale Kanten(ISO-ZOPH)
100
AcDbVertex
100
AcDb2dVertex
 10
165.0587513312588
 20
184.5033610028046
 30
0.0
  0
VERTEX
  5
4533
330
452C
100
AcDbEntity
  8
Sichtbare tangentiale Kanten(ISO-ZOPH)
100
AcDbVertex
100
AcDb2dVertex
 10
164.9929168090115
 20
184.5043075245637
 30
0.0
  0
VERTEX
  5
4534
330
452C
100
AcDbEntity
  8
Sichtbare tangentiale Kanten(ISO-ZOPH)
100
AcDbVertex
100
AcDb2dVertex
 10
164.9270846709499
 20
184.5054161709565
 30
0.0
  0
VERTEX
  5
4535
330
452C
100
AcDbEntity
  8
Sichtbare tangentiale Kanten(ISO-ZOPH)
100
AcDbVertex
100
AcDb2dVertex
 10
164.8612549170742
 20
184.5066893261689
 30
0.0
  0
VERTEX
  5
4536
330
452C
100
AcDbEntity
  8
Sichtbare tangentiale Kanten(ISO-ZOPH)
100
AcDbVertex
100
AcDb2dVertex
 10
164.7954275473843
 20
184.5081246060151
 30
0.0
  0
VERTEX
  5
4537
330
452C
100
AcDbEntity
  8
Sichtbare tangentiale Kanten(ISO-ZOPH)
100
AcDbVertex
100
AcDb2dVertex
 10
164.7296097144375
 20
184.5097220104951
 30
0.0
  0
VERTEX
  5
4538
330
452C
100
AcDbEntity
  8
Sichtbare tangentiale Kanten(ISO-ZOPH)
100
AcDbVertex
100
AcDb2dVertex
 10
164.6637966498623
 20
184.5114815396089
 30
0.0
  0
VERTEX
  5
4539
330
452C
100
AcDbEntity
  8
Sichtbare tangentiale Kanten(ISO-ZOPH)
100
AcDbVertex
100
AcDb2dVertex
 10
164.5979907378445
 20
184.5134031933564
 30
0.0
  0
VERTEX
  5
453A
330
452C
100
AcDbEntity
  8
Sichtbare tangentiale Kanten(ISO-ZOPH)
100
AcDbVertex
100
AcDb2dVertex
 10
164.5321967467556
 20
184.5154869717378
 30
0.0
  0
VERTEX
  5
453B
330
452C
100
AcDbEntity
  8
Sichtbare tangentiale Kanten(ISO-ZOPH)
100
AcDbVertex
100
AcDb2dVertex
 10
164.4664146765957
 20
184.5177352589387
 30
0.0
  0
VERTEX
  5
453C
330
452C
100
AcDbEntity
  8
Sichtbare tangentiale Kanten(ISO-ZOPH)
100
AcDbVertex
100
AcDb2dVertex
 10
164.4006469115505
 20
184.5201432865876
 30
0.0
  0
VERTEX
  5
453D
330
452C
100
AcDbEntity
  8
Sichtbare tangentiale Kanten(ISO-ZOPH)
100
AcDbVertex
100
AcDb2dVertex
 10
164.3348910674343
 20
184.5227158230561
 30
0.0
  0
VERTEX
  5
453E
330
452C
100
AcDbEntity
  8
Sichtbare tangentiale Kanten(ISO-ZOPH)
100
AcDbVertex
100
AcDb2dVertex
 10
164.2691519126186
 20
184.5254480999726
 30
0.0
  0
VERTEX
  5
453F
330
452C
100
AcDbEntity
  8
Sichtbare tangentiale Kanten(ISO-ZOPH)
100
AcDbVertex
100
AcDb2dVertex
 10
164.2034294471035
 20
184.5283448857087
 30
0.0
  0
VERTEX
  5
4540
330
452C
100
AcDbEntity
  8
Sichtbare tangentiale Kanten(ISO-ZOPH)
100
AcDbVertex
100
AcDb2dVertex
 10
164.1377260550747
 20
184.5314014118928
 30
0.0
  0
VERTEX
  5
4541
330
452C
100
AcDbEntity
  8
Sichtbare tangentiale Kanten(ISO-ZOPH)
100
AcDbVertex
100
AcDb2dVertex
 10
164.072044120718
 20
184.5346224468964
 30
0.0
  0
VERTEX
  5
4542
330
452C
100
AcDbEntity
  8
Sichtbare tangentiale Kanten(ISO-ZOPH)
100
AcDbVertex
100
AcDb2dVertex
 10
164.0063812598476
 20
184.5380032223481
 30
0.0
  0
VERTEX
  5
4543
330
452C
100
AcDbEntity
  8
Sichtbare tangentiale Kanten(ISO-ZOPH)
100
AcDbVertex
100
AcDb2dVertex
 10
163.9407422408352
 20
184.5415461224336
 30
0.0
  0
VERTEX
  5
4544
330
452C
100
AcDbEntity
  8
Sichtbare tangentiale Kanten(ISO-ZOPH)
100
AcDbVertex
100
AcDb2dVertex
 10
163.8751294478664
 20
184.545248762967
 30
0.0
  0
VERTEX
  5
4545
330
452C
100
AcDbEntity
  8
Sichtbare tangentiale Kanten(ISO-ZOPH)
100
AcDbVertex
100
AcDb2dVertex
 10
163.8095404967556
 20
184.54911591232
 30
0.0
  0
SEQEND
  5
4546
330
452C
100
AcDbEntity
  8
Sichtbare tangentiale Kanten(ISO-ZOPH)
  0
ELLIPSE
  5
4547
330
1A
100
AcDbEntity
  8
Sichtbare tangentiale Kanten(ISO-ZOPH)
100
AcDbEllipse
 10
165.3878967628658
 20
230.3375818876645
 30
0.0
 11
-0.0018016810507238
 21
1.999999188487134
 31
0.0
210
0.0
220
0.0
230
1.0
 40
0.0085706100625632
 41
6.178461691792089
 42
6.283185307359907
  0
POLYLINE
  5
4548
102
{ACAD_REACTORS
330
4DD3
102
}
330
1A
100
AcDbEntity
  8
Sichtbare tangentiale Kanten(ISO-ZOPH)
100
AcDb2dPolyline
 66
     1
 10
0.0
 20
0.0
 30
0.0
 70
   128
  0
VERTEX
  5
4549
330
4548
100
AcDbEntity
  8
Sichtbare tangentiale Kanten(ISO-ZOPH)
100
AcDbVertex
100
AcDb2dVertex
 10
165.3878977164517
 20
232.3266256016511
 30
0.0
  0
VERTEX
  5
454A
330
4548
100
AcDbEntity
  8
Sichtbare tangentiale Kanten(ISO-ZOPH)
100
AcDbVertex
100
AcDb2dVertex
 10
165.9023716315517
 20
232.3270809811372
 30
0.0
  0
VERTEX
  5
454B
330
4548
100
AcDbEntity
  8
Sichtbare tangentiale Kanten(ISO-ZOPH)
100
AcDbVertex
100
AcDb2dVertex
 10
166.4168455466518
 20
232.3275220555085
 30
0.0
  0
VERTEX
  5
454C
330
4548
100
AcDbEntity
  8
Sichtbare tangentiale Kanten(ISO-ZOPH)
100
AcDbVertex
100
AcDb2dVertex
 10
166.9313218459378
 20
232.3279464405793
 30
0.0
  0
VERTEX
  5
454D
330
4548
100
AcDbEntity
  8
Sichtbare tangentiale Kanten(ISO-ZOPH)
100
AcDbVertex
100
AcDb2dVertex
 10
167.4458005294094
 20
232.3283541363496
 30
0.0
  0
VERTEX
  5
454E
330
4548
100
AcDbEntity
  8
Sichtbare tangentiale Kanten(ISO-ZOPH)
100
AcDbVertex
100
AcDb2dVertex
 10
167.9602815970669
 20
232.3287451428193
 30
0.0
  0
VERTEX
  5
454F
330
4548
100
AcDbEntity
  8
Sichtbare tangentiale Kanten(ISO-ZOPH)
100
AcDbVertex
100
AcDb2dVertex
 10
168.4747626647244
 20
232.3291218441743
 30
0.0
  0
VERTEX
  5
4550
330
4548
100
AcDbEntity
  8
Sichtbare tangentiale Kanten(ISO-ZOPH)
100
AcDbVertex
100
AcDb2dVertex
 10
168.9892461165675
 20
232.329479472043
 30
0.0
  0
VERTEX
  5
4551
330
4548
100
AcDbEntity
  8
Sichtbare tangentiale Kanten(ISO-ZOPH)
100
AcDbVertex
100
AcDb2dVertex
 10
169.5037295684109
 20
232.3298227947969
 30
0.0
  0
VERTEX
  5
4552
330
4548
100
AcDbEntity
  8
Sichtbare tangentiale Kanten(ISO-ZOPH)
100
AcDbVertex
100
AcDb2dVertex
 10
170.0182154044399
 20
232.3301494282502
 30
0.0
  0
VERTEX
  5
4553
330
4548
100
AcDbEntity
  8
Sichtbare tangentiale Kanten(ISO-ZOPH)
100
AcDbVertex
100
AcDb2dVertex
 10
170.5327012404689
 20
232.3304569882173
 30
0.0
  0
VERTEX
  5
4554
330
4548
100
AcDbEntity
  8
Sichtbare tangentiale Kanten(ISO-ZOPH)
100
AcDbVertex
100
AcDb2dVertex
 10
171.047187076498
 20
232.3307502430696
 30
0.0
  0
VERTEX
  5
4555
330
4548
100
AcDbEntity
  8
Sichtbare tangentiale Kanten(ISO-ZOPH)
100
AcDbVertex
100
AcDb2dVertex
 10
171.5616752967129
 20
232.3310244244355
 30
0.0
  0
VERTEX
  5
4556
330
4548
100
AcDbEntity
  8
Sichtbare tangentiale Kanten(ISO-ZOPH)
100
AcDbVertex
100
AcDb2dVertex
 10
172.0761635169278
 20
232.3312843006868
 30
0.0
  0
VERTEX
  5
4557
330
4548
100
AcDbEntity
  8
Sichtbare tangentiale Kanten(ISO-ZOPH)
100
AcDbVertex
100
AcDb2dVertex
 10
172.5906565055141
 20
232.3315251034517
 30
0.0
  0
VERTEX
  5
4558
330
4548
100
AcDbEntity
  8
Sichtbare tangentiale Kanten(ISO-ZOPH)
100
AcDbVertex
100
AcDb2dVertex
 10
173.1051447257289
 20
232.3317492169159
 30
0.0
  0
VERTEX
  5
4559
330
4548
100
AcDbEntity
  8
Sichtbare tangentiale Kanten(ISO-ZOPH)
100
AcDbVertex
100
AcDb2dVertex
 10
173.6196377143155
 20
232.3319566410798
 30
0.0
  0
VERTEX
  5
455A
330
4548
100
AcDbEntity
  8
Sichtbare tangentiale Kanten(ISO-ZOPH)
100
AcDbVertex
100
AcDb2dVertex
 10
174.1341307029018
 20
232.3321473759431
 30
0.0
  0
VERTEX
  5
455B
330
4548
100
AcDbEntity
  8
Sichtbare tangentiale Kanten(ISO-ZOPH)
100
AcDbVertex
100
AcDb2dVertex
 10
174.6486236914883
 20
232.3323214215059
 30
0.0
  0
VERTEX
  5
455C
330
4548
100
AcDbEntity
  8
Sichtbare tangentiale Kanten(ISO-ZOPH)
100
AcDbVertex
100
AcDb2dVertex
 10
175.1631166800746
 20
232.3324763935823
 30
0.0
  0
VERTEX
  5
455D
330
4548
100
AcDbEntity
  8
Sichtbare tangentiale Kanten(ISO-ZOPH)
100
AcDbVertex
100
AcDb2dVertex
 10
175.6776096686611
 20
232.3326170605439
 30
0.0
  0
VERTEX
  5
455E
330
4548
100
AcDbEntity
  8
Sichtbare tangentiale Kanten(ISO-ZOPH)
100
AcDbVertex
100
AcDb2dVertex
 10
176.1921026572476
 20
232.3327386540193
 30
0.0
  0
VERTEX
  5
455F
102
{ACAD_REACTORS
330
4DD3
102
}
330
4548
100
AcDbEntity
  8
Sichtbare tangentiale Kanten(ISO-ZOPH)
100
AcDbVertex
100
AcDb2dVertex
 10
176.7065956458339
 20
232.3328459423799
 30
0.0
  0
VERTEX
  5
4560
330
4548
100
AcDbEntity
  8
Sichtbare tangentiale Kanten(ISO-ZOPH)
100
AcDbVertex
100
AcDb2dVertex
 10
177.2210886344203
 20
232.3329365414398
 30
0.0
  0
VERTEX
  5
4561
330
4548
100
AcDbEntity
  8
Sichtbare tangentiale Kanten(ISO-ZOPH)
100
AcDbVertex
100
AcDb2dVertex
 10
177.7355863913784
 20
232.3330080670137
 30
0.0
  0
VERTEX
  5
4562
330
4548
100
AcDbEntity
  8
Sichtbare tangentiale Kanten(ISO-ZOPH)
100
AcDbVertex
100
AcDb2dVertex
 10
178.2500793799648
 20
232.3330652874726
 30
0.0
  0
VERTEX
  5
4563
330
4548
100
AcDbEntity
  8
Sichtbare tangentiale Kanten(ISO-ZOPH)
100
AcDbVertex
100
AcDb2dVertex
 10
178.7645723685512
 20
232.3331058186311
 30
0.0
  0
VERTEX
  5
4564
330
4548
100
AcDbEntity
  8
Sichtbare tangentiale Kanten(ISO-ZOPH)
100
AcDbVertex
100
AcDb2dVertex
 10
179.2790653571377
 20
232.333129660489
 30
0.0
  0
VERTEX
  5
4565
330
4548
100
AcDbEntity
  8
Sichtbare tangentiale Kanten(ISO-ZOPH)
100
AcDbVertex
100
AcDb2dVertex
 10
179.7935583457241
 20
232.3331391972322
 30
0.0
  0
VERTEX
  5
4566
330
4548
100
AcDbEntity
  8
Sichtbare tangentiale Kanten(ISO-ZOPH)
100
AcDbVertex
100
AcDb2dVertex
 10
180.3080513343105
 20
232.333129660489
 30
0.0
  0
VERTEX
  5
4567
330
4548
100
AcDbEntity
  8
Sichtbare tangentiale Kanten(ISO-ZOPH)
100
AcDbVertex
100
AcDb2dVertex
 10
180.822544322897
 20
232.3331082028169
 30
0.0
  0
VERTEX
  5
4568
330
4548
100
AcDbEntity
  8
Sichtbare tangentiale Kanten(ISO-ZOPH)
100
AcDbVertex
100
AcDb2dVertex
 10
181.3370373114834
 20
232.3330676716583
 30
0.0
  0
VERTEX
  5
4569
330
4548
100
AcDbEntity
  8
Sichtbare tangentiale Kanten(ISO-ZOPH)
100
AcDbVertex
100
AcDb2dVertex
 10
181.8515303000698
 20
232.3330128353853
 30
0.0
  0
SEQEND
  5
456A
330
4548
100
AcDbEntity
  8
Sichtbare tangentiale Kanten(ISO-ZOPH)
  0
POLYLINE
  5
456B
330
1A
100
AcDbEntity
  8
Sichtbare tangentiale Kanten(ISO-ZOPH)
100
AcDb2dPolyline
 66
     1
 10
0.0
 20
0.0
 30
0.0
 70
   128
  0
VERTEX
  5
456C
330
456B
100
AcDbEntity
  8
Sichtbare tangentiale Kanten(ISO-ZOPH)
100
AcDbVertex
100
AcDb2dVertex
 10
163.8095404967556
 20
232.2785699528473
 30
0.0
  0
VERTEX
  5
456D
330
456B
100
AcDbEntity
  8
Sichtbare tangentiale Kanten(ISO-ZOPH)
100
AcDbVertex
100
AcDb2dVertex
 10
163.8751294478664
 20
232.2824371022004
 30
0.0
  0
VERTEX
  5
456E
330
456B
100
AcDbEntity
  8
Sichtbare tangentiale Kanten(ISO-ZOPH)
100
AcDbVertex
100
AcDb2dVertex
 10
163.9407422408352
 20
232.2861397427339
 30
0.0
  0
VERTEX
  5
456F
330
456B
100
AcDbEntity
  8
Sichtbare tangentiale Kanten(ISO-ZOPH)
100
AcDbVertex
100
AcDb2dVertex
 10
164.0063812598476
 20
232.2896826428193
 30
0.0
  0
VERTEX
  5
4570
330
456B
100
AcDbEntity
  8
Sichtbare tangentiale Kanten(ISO-ZOPH)
100
AcDbVertex
100
AcDb2dVertex
 10
164.072044120718
 20
232.2930634182709
 30
0.0
  0
VERTEX
  5
4571
330
456B
100
AcDbEntity
  8
Sichtbare tangentiale Kanten(ISO-ZOPH)
100
AcDbVertex
100
AcDb2dVertex
 10
164.1377260550747
 20
232.2962844532747
 30
0.0
  0
VERTEX
  5
4572
330
456B
100
AcDbEntity
  8
Sichtbare tangentiale Kanten(ISO-ZOPH)
100
AcDbVertex
100
AcDb2dVertex
 10
164.2034294471035
 20
232.2993409794587
 30
0.0
  0
VERTEX
  5
4573
330
456B
100
AcDbEntity
  8
Sichtbare tangentiale Kanten(ISO-ZOPH)
100
AcDbVertex
100
AcDb2dVertex
 10
164.2691519126186
 20
232.3022377651948
 30
0.0
  0
VERTEX
  5
4574
330
456B
100
AcDbEntity
  8
Sichtbare tangentiale Kanten(ISO-ZOPH)
100
AcDbVertex
100
AcDb2dVertex
 10
164.3348910674343
 20
232.3049700421113
 30
0.0
  0
VERTEX
  5
4575
330
456B
100
AcDbEntity
  8
Sichtbare tangentiale Kanten(ISO-ZOPH)
100
AcDbVertex
100
AcDb2dVertex
 10
164.4006469115505
 20
232.3075425785798
 30
0.0
  0
VERTEX
  5
4576
330
456B
100
AcDbEntity
  8
Sichtbare tangentiale Kanten(ISO-ZOPH)
100
AcDbVertex
100
AcDb2dVertex
 10
164.4664146765957
 20
232.3099506062287
 30
0.0
  0
VERTEX
  5
4577
330
456B
100
AcDbEntity
  8
Sichtbare tangentiale Kanten(ISO-ZOPH)
100
AcDbVertex
100
AcDb2dVertex
 10
164.5321967467556
 20
232.3121988934297
 30
0.0
  0
VERTEX
  5
4578
330
456B
100
AcDbEntity
  8
Sichtbare tangentiale Kanten(ISO-ZOPH)
100
AcDbVertex
100
AcDb2dVertex
 10
164.5979907378445
 20
232.314282671811
 30
0.0
  0
VERTEX
  5
4579
330
456B
100
AcDbEntity
  8
Sichtbare tangentiale Kanten(ISO-ZOPH)
100
AcDbVertex
100
AcDb2dVertex
 10
164.6637966498623
 20
232.3162043255586
 30
0.0
  0
VERTEX
  5
457A
330
456B
100
AcDbEntity
  8
Sichtbare tangentiale Kanten(ISO-ZOPH)
100
AcDbVertex
100
AcDb2dVertex
 10
164.7296097144375
 20
232.3179638546724
 30
0.0
  0
VERTEX
  5
457B
330
456B
100
AcDbEntity
  8
Sichtbare tangentiale Kanten(ISO-ZOPH)
100
AcDbVertex
100
AcDb2dVertex
 10
164.7954275473843
 20
232.3195612591523
 30
0.0
  0
VERTEX
  5
457C
330
456B
100
AcDbEntity
  8
Sichtbare tangentiale Kanten(ISO-ZOPH)
100
AcDbVertex
100
AcDb2dVertex
 10
164.8612549170742
 20
232.3209965389985
 30
0.0
  0
VERTEX
  5
457D
330
456B
100
AcDbEntity
  8
Sichtbare tangentiale Kanten(ISO-ZOPH)
100
AcDbVertex
100
AcDb2dVertex
 10
164.9270846709499
 20
232.3222696942109
 30
0.0
  0
VERTEX
  5
457E
330
456B
100
AcDbEntity
  8
Sichtbare tangentiale Kanten(ISO-ZOPH)
100
AcDbVertex
100
AcDb2dVertex
 10
164.9929168090115
 20
232.3233783406037
 30
0.0
  0
VERTEX
  5
457F
330
456B
100
AcDbEntity
  8
Sichtbare tangentiale Kanten(ISO-ZOPH)
100
AcDbVertex
100
AcDb2dVertex
 10
165.0587513312588
 20
232.3243248623628
 30
0.0
  0
VERTEX
  5
4580
330
456B
100
AcDbEntity
  8
Sichtbare tangentiale Kanten(ISO-ZOPH)
100
AcDbVertex
100
AcDb2dVertex
 10
165.1245858535061
 20
232.325109259488
 30
0.0
  0
VERTEX
  5
4581
330
456B
100
AcDbEntity
  8
Sichtbare tangentiale Kanten(ISO-ZOPH)
100
AcDbVertex
100
AcDb2dVertex
 10
165.1904203757534
 20
232.3257315319795
 30
0.0
  0
VERTEX
  5
4582
330
456B
100
AcDbEntity
  8
Sichtbare tangentiale Kanten(ISO-ZOPH)
100
AcDbVertex
100
AcDb2dVertex
 10
165.2562501296291
 20
232.3261916798371
 30
0.0
  0
VERTEX
  5
4583
330
456B
100
AcDbEntity
  8
Sichtbare tangentiale Kanten(ISO-ZOPH)
100
AcDbVertex
100
AcDb2dVertex
 10
165.3220774993191
 20
232.326489703061
 30
0.0
  0
VERTEX
  5
4584
330
456B
100
AcDbEntity
  8
Sichtbare tangentiale Kanten(ISO-ZOPH)
100
AcDbVertex
100
AcDb2dVertex
 10
165.3878977164517
 20
232.3266256016511
 30
0.0
  0
SEQEND
  5
4585
330
456B
100
AcDbEntity
  8
Sichtbare tangentiale Kanten(ISO-ZOPH)
  0
POLYLINE
  5
4586
330
1A
100
AcDbEntity
  8
Sichtbare tangentiale Kanten(ISO-ZOPH)
100
AcDb2dPolyline
 66
     1
 10
0.0
 20
0.0
 30
0.0
 70
   128
  0
VERTEX
  5
4587
330
4586
100
AcDbEntity
  8
Sichtbare tangentiale Kanten(ISO-ZOPH)
100
AcDbVertex
100
AcDb2dVertex
 10
183.3878948554287
 20
184.5018685024995
 30
0.0
  0
VERTEX
  5
4588
330
4586
100
AcDbEntity
  8
Sichtbare tangentiale Kanten(ISO-ZOPH)
100
AcDbVertex
100
AcDb2dVertex
 10
183.3239986762295
 20
184.501348749997
 30
0.0
  0
VERTEX
  5
4589
330
4586
100
AcDbEntity
  8
Sichtbare tangentiale Kanten(ISO-ZOPH)
100
AcDbVertex
100
AcDb2dVertex
 10
183.2600834235439
 20
184.5008433026093
 30
0.0
  0
VERTEX
  5
458A
330
4586
100
AcDbEntity
  8
Sichtbare tangentiale Kanten(ISO-ZOPH)
100
AcDbVertex
100
AcDb2dVertex
 10
183.1961586341152
 20
184.500356928708
 30
0.0
  0
VERTEX
  5
458B
330
4586
100
AcDbEntity
  8
Sichtbare tangentiale Kanten(ISO-ZOPH)
100
AcDbVertex
100
AcDb2dVertex
 10
183.1322195395718
 20
184.4998848599214
 30
0.0
  0
VERTEX
  5
458C
330
4586
100
AcDbEntity
  8
Sichtbare tangentiale Kanten(ISO-ZOPH)
100
AcDbVertex
100
AcDb2dVertex
 10
183.0682709082851
 20
184.4994294804353
 30
0.0
  0
VERTEX
  5
458D
330
4586
100
AcDbEntity
  8
Sichtbare tangentiale Kanten(ISO-ZOPH)
100
AcDbVertex
100
AcDb2dVertex
 10
183.0043127402554
 20
184.4989907902497
 30
0.0
  0
VERTEX
  5
458E
330
4586
100
AcDbEntity
  8
Sichtbare tangentiale Kanten(ISO-ZOPH)
100
AcDbVertex
100
AcDb2dVertex
 10
182.9403402671109
 20
184.4985687893647
 30
0.0
  0
VERTEX
  5
458F
330
4586
100
AcDbEntity
  8
Sichtbare tangentiale Kanten(ISO-ZOPH)
100
AcDbVertex
100
AcDb2dVertex
 10
182.8763582572231
 20
184.498165861966
 30
0.0
  0
VERTEX
  5
4590
330
4586
100
AcDbEntity
  8
Sichtbare tangentiale Kanten(ISO-ZOPH)
100
AcDbVertex
100
AcDb2dVertex
 10
182.8123667105923
 20
184.4977820080537
 30
0.0
  0
VERTEX
  5
4591
330
4586
100
AcDbEntity
  8
Sichtbare tangentiale Kanten(ISO-ZOPH)
100
AcDbVertex
100
AcDb2dVertex
 10
182.7483656272183
 20
184.4974148434419
 30
0.0
  0
VERTEX
  5
4592
330
4586
100
AcDbEntity
  8
Sichtbare tangentiale Kanten(ISO-ZOPH)
100
AcDbVertex
100
AcDb2dVertex
 10
182.6843550071011
 20
184.4970691365022
 30
0.0
  0
VERTEX
  5
4593
330
4586
100
AcDbEntity
  8
Sichtbare tangentiale Kanten(ISO-ZOPH)
100
AcDbVertex
100
AcDb2dVertex
 10
182.6203348502407
 20
184.4967425030488
 30
0.0
  0
VERTEX
  5
4594
330
4586
100
AcDbEntity
  8
Sichtbare tangentiale Kanten(ISO-ZOPH)
100
AcDbVertex
100
AcDb2dVertex
 10
182.5563099250087
 20
184.4964373272675
 30
0.0
  0
VERTEX
  5
4595
330
4586
100
AcDbEntity
  8
Sichtbare tangentiale Kanten(ISO-ZOPH)
100
AcDbVertex
100
AcDb2dVertex
 10
182.4922754630336
 20
184.4961536091584
 30
0.0
  0
VERTEX
  5
4596
330
4586
100
AcDbEntity
  8
Sichtbare tangentiale Kanten(ISO-ZOPH)
100
AcDbVertex
100
AcDb2dVertex
 10
182.4282314643154
 20
184.4958937329072
 30
0.0
  0
VERTEX
  5
4597
330
4586
100
AcDbEntity
  8
Sichtbare tangentiale Kanten(ISO-ZOPH)
100
AcDbVertex
100
AcDb2dVertex
 10
182.3641779288539
 20
184.4956553143281
 30
0.0
  0
VERTEX
  5
4598
330
4586
100
AcDbEntity
  8
Sichtbare tangentiale Kanten(ISO-ZOPH)
100
AcDbVertex
100
AcDb2dVertex
 10
182.3001196250209
 20
184.4954383534211
 30
0.0
  0
VERTEX
  5
4599
330
4586
100
AcDbEntity
  8
Sichtbare tangentiale Kanten(ISO-ZOPH)
100
AcDbVertex
100
AcDb2dVertex
 10
182.2360470160733
 20
184.4952476185578
 30
0.0
  0
VERTEX
  5
459A
330
4586
100
AcDbEntity
  8
Sichtbare tangentiale Kanten(ISO-ZOPH)
100
AcDbVertex
100
AcDb2dVertex
 10
182.1719696387538
 20
184.4950831097382
 30
0.0
  0
VERTEX
  5
459B
330
4586
100
AcDbEntity
  8
Sichtbare tangentiale Kanten(ISO-ZOPH)
100
AcDbVertex
100
AcDb2dVertex
 10
182.1078874930629
 20
184.4949448269623
 30
0.0
  0
VERTEX
  5
459C
330
4586
100
AcDbEntity
  8
Sichtbare tangentiale Kanten(ISO-ZOPH)
100
AcDbVertex
100
AcDb2dVertex
 10
182.043805347372
 20
184.4948327702302
 30
0.0
  0
VERTEX
  5
459D
330
4586
100
AcDbEntity
  8
Sichtbare tangentiale Kanten(ISO-ZOPH)
100
AcDbVertex
100
AcDb2dVertex
 10
181.9797136649379
 20
184.4947493237275
 30
0.0
  0
VERTEX
  5
459E
330
4586
100
AcDbEntity
  8
Sichtbare tangentiale Kanten(ISO-ZOPH)
100
AcDbVertex
100
AcDb2dVertex
 10
181.9156219825038
 20
184.4946944874543
 30
0.0
  0
VERTEX
  5
459F
330
4586
100
AcDbEntity
  8
Sichtbare tangentiale Kanten(ISO-ZOPH)
100
AcDbVertex
100
AcDb2dVertex
 10
181.8515303000698
 20
184.4946730297822
 30
0.0
  0
SEQEND
  5
45A0
330
4586
100
AcDbEntity
  8
Sichtbare tangentiale Kanten(ISO-ZOPH)
  0
POLYLINE
  5
45A1
330
1A
100
AcDbEntity
  8
Sichtbare tangentiale Kanten(ISO-ZOPH)
100
AcDb2dPolyline
 66
     1
 10
0.0
 20
0.0
 30
0.0
 70
   128
  0
VERTEX
  5
45A2
330
45A1
100
AcDbEntity
  8
Sichtbare tangentiale Kanten(ISO-ZOPH)
100
AcDbVertex
100
AcDb2dVertex
 10
181.8515303000698
 20
232.3330128353853
 30
0.0
  0
VERTEX
  5
45A3
330
45A1
100
AcDbEntity
  8
Sichtbare tangentiale Kanten(ISO-ZOPH)
100
AcDbVertex
100
AcDb2dVertex
 10
181.9156219825038
 20
232.3329913777131
 30
0.0
  0
VERTEX
  5
45A4
330
45A1
100
AcDbEntity
  8
Sichtbare tangentiale Kanten(ISO-ZOPH)
100
AcDbVertex
100
AcDb2dVertex
 10
181.9797136649379
 20
232.3329365414398
 30
0.0
  0
VERTEX
  5
45A5
330
45A1
100
AcDbEntity
  8
Sichtbare tangentiale Kanten(ISO-ZOPH)
100
AcDbVertex
100
AcDb2dVertex
 10
182.0438005790004
 20
232.3328530949372
 30
0.0
  0
VERTEX
  5
45A6
330
45A1
100
AcDbEntity
  8
Sichtbare tangentiale Kanten(ISO-ZOPH)
100
AcDbVertex
100
AcDb2dVertex
 10
182.1078874930629
 20
232.3327410382051
 30
0.0
  0
VERTEX
  5
45A7
330
45A1
100
AcDbEntity
  8
Sichtbare tangentiale Kanten(ISO-ZOPH)
100
AcDbVertex
100
AcDb2dVertex
 10
182.1719696387538
 20
232.3326027554291
 30
0.0
  0
VERTEX
  5
45A8
330
45A1
100
AcDbEntity
  8
Sichtbare tangentiale Kanten(ISO-ZOPH)
100
AcDbVertex
100
AcDb2dVertex
 10
182.2360470160733
 20
232.3324382466096
 30
0.0
  0
VERTEX
  5
45A9
330
45A1
100
AcDbEntity
  8
Sichtbare tangentiale Kanten(ISO-ZOPH)
100
AcDbVertex
100
AcDb2dVertex
 10
182.3001196250209
 20
232.3322475117463
 30
0.0
  0
VERTEX
  5
45AA
330
45A1
100
AcDbEntity
  8
Sichtbare tangentiale Kanten(ISO-ZOPH)
100
AcDbVertex
100
AcDb2dVertex
 10
182.3641779288539
 20
232.3320305508393
 30
0.0
  0
VERTEX
  5
45AB
330
45A1
100
AcDbEntity
  8
Sichtbare tangentiale Kanten(ISO-ZOPH)
100
AcDbVertex
100
AcDb2dVertex
 10
182.4282314643154
 20
232.3317921322602
 30
0.0
  0
VERTEX
  5
45AC
330
45A1
100
AcDbEntity
  8
Sichtbare tangentiale Kanten(ISO-ZOPH)
100
AcDbVertex
100
AcDb2dVertex
 10
182.4922754630336
 20
232.331532256009
 30
0.0
  0
VERTEX
  5
45AD
330
45A1
100
AcDbEntity
  8
Sichtbare tangentiale Kanten(ISO-ZOPH)
100
AcDbVertex
100
AcDb2dVertex
 10
182.5563099250087
 20
232.3312485378998
 30
0.0
  0
VERTEX
  5
45AE
330
45A1
100
AcDbEntity
  8
Sichtbare tangentiale Kanten(ISO-ZOPH)
100
AcDbVertex
100
AcDb2dVertex
 10
182.6203396186123
 20
232.3309433621186
 30
0.0
  0
VERTEX
  5
45AF
330
45A1
100
AcDbEntity
  8
Sichtbare tangentiale Kanten(ISO-ZOPH)
100
AcDbVertex
100
AcDb2dVertex
 10
182.6843550071011
 20
232.3306167286653
 30
0.0
  0
VERTEX
  5
45B0
330
45A1
100
AcDbEntity
  8
Sichtbare tangentiale Kanten(ISO-ZOPH)
100
AcDbVertex
100
AcDb2dVertex
 10
182.7483656272183
 20
232.3302710217256
 30
0.0
  0
VERTEX
  5
45B1
330
45A1
100
AcDbEntity
  8
Sichtbare tangentiale Kanten(ISO-ZOPH)
100
AcDbVertex
100
AcDb2dVertex
 10
182.8123667105923
 20
232.3299038571138
 30
0.0
  0
VERTEX
  5
45B2
330
45A1
100
AcDbEntity
  8
Sichtbare tangentiale Kanten(ISO-ZOPH)
100
AcDbVertex
100
AcDb2dVertex
 10
182.8763582572231
 20
232.3295200032013
 30
0.0
  0
VERTEX
  5
45B3
330
45A1
100
AcDbEntity
  8
Sichtbare tangentiale Kanten(ISO-ZOPH)
100
AcDbVertex
100
AcDb2dVertex
 10
182.9403402671109
 20
232.3291170758027
 30
0.0
  0
VERTEX
  5
45B4
330
45A1
100
AcDbEntity
  8
Sichtbare tangentiale Kanten(ISO-ZOPH)
100
AcDbVertex
100
AcDb2dVertex
 10
183.0043127402554
 20
232.3286950749177
 30
0.0
  0
VERTEX
  5
45B5
330
45A1
100
AcDbEntity
  8
Sichtbare tangentiale Kanten(ISO-ZOPH)
100
AcDbVertex
100
AcDb2dVertex
 10
183.0682709082851
 20
232.3282563847322
 30
0.0
  0
VERTEX
  5
45B6
330
45A1
100
AcDbEntity
  8
Sichtbare tangentiale Kanten(ISO-ZOPH)
100
AcDbVertex
100
AcDb2dVertex
 10
183.1322195395718
 20
232.3278010052461
 30
0.0
  0
VERTEX
  5
45B7
330
45A1
100
AcDbEntity
  8
Sichtbare tangentiale Kanten(ISO-ZOPH)
100
AcDbVertex
100
AcDb2dVertex
 10
183.1961586341152
 20
232.3273289364595
 30
0.0
  0
VERTEX
  5
45B8
330
45A1
100
AcDbEntity
  8
Sichtbare tangentiale Kanten(ISO-ZOPH)
100
AcDbVertex
100
AcDb2dVertex
 10
183.2600834235439
 20
232.3268425625581
 30
0.0
  0
VERTEX
  5
45B9
330
45A1
100
AcDbEntity
  8
Sichtbare tangentiale Kanten(ISO-ZOPH)
100
AcDbVertex
100
AcDb2dVertex
 10
183.3239986762295
 20
232.3263371151703
 30
0.0
  0
VERTEX
  5
45BA
330
45A1
100
AcDbEntity
  8
Sichtbare tangentiale Kanten(ISO-ZOPH)
100
AcDbVertex
100
AcDb2dVertex
 10
183.3878948554287
 20
232.3258173626679
 30
0.0
  0
SEQEND
  5
45BB
330
45A1
100
AcDbEntity
  8
Sichtbare tangentiale Kanten(ISO-ZOPH)
  0
POLYLINE
  5
45FF
330
1A
100
AcDbEntity
  8
Sichtbare Kanten(ISO-ZOPH)
100
AcDb2dPolyline
 66
     1
 10
0.0
 20
0.0
 30
0.0
 70
   128
  0
VERTEX
  5
4600
330
45FF
100
AcDbEntity
  8
Sichtbare Kanten(ISO-ZOPH)
100
AcDbVertex
100
AcDb2dVertex
 10
181.8517734870204
 20
184.4837153118867
 30
0.0
  0
VERTEX
  5
4601
330
45FF
100
AcDbEntity
  8
Sichtbare Kanten(ISO-ZOPH)
100
AcDbVertex
100
AcDb2dVertex
 10
173.6188604697475
 20
184.484807268979
 30
0.0
  0
VERTEX
  5
4602
330
45FF
100
AcDbEntity
  8
Sichtbare Kanten(ISO-ZOPH)
100
AcDbVertex
100
AcDb2dVertex
 10
165.3860952719936
 20
184.4901049298066
 30
0.0
  0
SEQEND
  5
4603
330
45FF
100
AcDbEntity
  8
Sichtbare Kanten(ISO-ZOPH)
  0
POLYLINE
  5
4604
330
1A
100
AcDbEntity
  8
Sichtbare Kanten(ISO-ZOPH)
100
AcDb2dPolyline
 66
     1
 10
0.0
 20
0.0
 30
0.0
 70
   128
  0
VERTEX
  5
4605
330
4604
100
AcDbEntity
  8
Sichtbare Kanten(ISO-ZOPH)
100
AcDbVertex
100
AcDb2dVertex
 10
163.8217451438198
 20
184.5373690289277
 30
0.0
  0
VERTEX
  5
4606
330
4604
100
AcDbEntity
  8
Sichtbare Kanten(ISO-ZOPH)
100
AcDbVertex
100
AcDb2dVertex
 10
162.6932623252163
 20
184.6316158932465
 30
0.0
  0
VERTEX
  5
4607
330
4604
100
AcDbEntity
  8
Sichtbare Kanten(ISO-ZOPH)
100
AcDbVertex
100
AcDb2dVertex
 10
161.5678884848843
 20
184.7791755360383
 30
0.0
  0
VERTEX
  5
4608
330
4604
100
AcDbEntity
  8
Sichtbare Kanten(ISO-ZOPH)
100
AcDbVertex
100
AcDb2dVertex
 10
160.4492261275539
 20
184.9792444866914
 30
0.0
  0
VERTEX
  5
4609
330
4604
100
AcDbEntity
  8
Sichtbare Kanten(ISO-ZOPH)
100
AcDbVertex
100
AcDb2dVertex
 10
159.3408706053982
 20
185.2310145062226
 30
0.0
  0
VERTEX
  5
460A
330
4604
100
AcDbEntity
  8
Sichtbare Kanten(ISO-ZOPH)
100
AcDbVertex
100
AcDb2dVertex
 10
158.2464220389614
 20
185.5336749714631
 30
0.0
  0
VERTEX
  5
460B
330
4604
100
AcDbEntity
  8
Sichtbare Kanten(ISO-ZOPH)
100
AcDbVertex
100
AcDb2dVertex
 10
157.1694781646023
 20
185.8864176434297
 30
0.0
  0
VERTEX
  5
460C
330
4604
100
AcDbEntity
  8
Sichtbare Kanten(ISO-ZOPH)
100
AcDbVertex
100
AcDb2dVertex
 10
156.1136176451931
 20
186.2884438198823
 30
0.0
  0
VERTEX
  5
460D
330
4604
100
AcDbEntity
  8
Sichtbare Kanten(ISO-ZOPH)
100
AcDbVertex
100
AcDb2dVertex
 10
155.0793626174221
 20
186.7393624943513
 30
0.0
  0
SEQEND
  5
460E
330
4604
100
AcDbEntity
  8
Sichtbare Kanten(ISO-ZOPH)
  0
POLYLINE
  5
460F
330
1A
100
AcDbEntity
  8
Sichtbare Kanten(ISO-ZOPH)
100
AcDb2dPolyline
 66
     1
 10
0.0
 20
0.0
 30
0.0
 70
   128
  0
VERTEX
  5
4610
330
460F
100
AcDbEntity
  8
Sichtbare Kanten(ISO-ZOPH)
100
AcDbVertex
100
AcDb2dVertex
 10
155.0793626174221
 20
230.0883233708162
 30
0.0
  0
VERTEX
  5
4611
330
460F
100
AcDbEntity
  8
Sichtbare Kanten(ISO-ZOPH)
100
AcDbVertex
100
AcDb2dVertex
 10
156.1154963835964
 20
230.5395782154817
 30
0.0
  0
VERTEX
  5
4612
330
460F
100
AcDbEntity
  8
Sichtbare Kanten(ISO-ZOPH)
100
AcDbVertex
100
AcDb2dVertex
 10
157.1747734412441
 20
230.9423554104585
 30
0.0
  0
VERTEX
  5
4613
330
460F
100
AcDbEntity
  8
Sichtbare Kanten(ISO-ZOPH)
100
AcDbVertex
100
AcDb2dVertex
 10
158.2536675795803
 20
231.2957298916597
 30
0.0
  0
VERTEX
  5
4614
330
460F
100
AcDbEntity
  8
Sichtbare Kanten(ISO-ZOPH)
100
AcDbVertex
100
AcDb2dVertex
 10
159.3486549720059
 20
231.5987789791841
 30
0.0
  0
VERTEX
  5
4615
330
460F
100
AcDbEntity
  8
Sichtbare Kanten(ISO-ZOPH)
100
AcDbVertex
100
AcDb2dVertex
 10
160.45620702355
 20
231.850575224759
 30
0.0
  0
VERTEX
  5
4616
330
460F
100
AcDbEntity
  8
Sichtbare Kanten(ISO-ZOPH)
100
AcDbVertex
100
AcDb2dVertex
 10
161.572797523428
 20
232.0501935642976
 30
0.0
  0
VERTEX
  5
4617
330
460F
100
AcDbEntity
  8
Sichtbare Kanten(ISO-ZOPH)
100
AcDbVertex
100
AcDb2dVertex
 10
162.6949264868984
 20
232.1967184704559
 30
0.0
  0
VERTEX
  5
4618
330
460F
100
AcDbEntity
  8
Sichtbare Kanten(ISO-ZOPH)
100
AcDbVertex
100
AcDb2dVertex
 10
163.8217451438198
 20
232.2903168362397
 30
0.0
  0
SEQEND
  5
4619
330
460F
100
AcDbEntity
  8
Sichtbare Kanten(ISO-ZOPH)
  0
POLYLINE
  5
461A
330
1A
100
AcDbEntity
  8
Sichtbare Kanten(ISO-ZOPH)
100
AcDb2dPolyline
 66
     1
 10
0.0
 20
0.0
 30
0.0
 70
   128
  0
VERTEX
  5
461B
330
461A
100
AcDbEntity
  8
Sichtbare Kanten(ISO-ZOPH)
100
AcDbVertex
100
AcDb2dVertex
 10
165.3860952719936
 20
184.4901049298066
 30
0.0
  0
VERTEX
  5
461C
330
461A
100
AcDbEntity
  8
Sichtbare Kanten(ISO-ZOPH)
100
AcDbVertex
100
AcDb2dVertex
 10
164.6032621726284
 20
184.5022833508271
 30
0.0
  0
VERTEX
  5
461D
330
461A
100
AcDbEntity
  8
Sichtbare Kanten(ISO-ZOPH)
100
AcDbVertex
100
AcDb2dVertex
 10
163.8217451438198
 20
184.5373690289277
 30
0.0
  0
SEQEND
  5
461E
330
461A
100
AcDbEntity
  8
Sichtbare Kanten(ISO-ZOPH)
  0
POLYLINE
  5
461F
330
1A
100
AcDbEntity
  8
Sichtbare Kanten(ISO-ZOPH)
100
AcDb2dPolyline
 66
     1
 10
0.0
 20
0.0
 30
0.0
 70
   128
  0
VERTEX
  5
4620
330
461F
100
AcDbEntity
  8
Sichtbare Kanten(ISO-ZOPH)
100
AcDbVertex
100
AcDb2dVertex
 10
165.3860952719936
 20
232.3375809353608
 30
0.0
  0
VERTEX
  5
4621
330
461F
100
AcDbEntity
  8
Sichtbare Kanten(ISO-ZOPH)
100
AcDbVertex
100
AcDb2dVertex
 10
173.6188604697475
 20
232.3428785961885
 30
0.0
  0
VERTEX
  5
4622
330
461F
100
AcDbEntity
  8
Sichtbare Kanten(ISO-ZOPH)
100
AcDbVertex
100
AcDb2dVertex
 10
181.8517734870204
 20
232.3439705532808
 30
0.0
  0
SEQEND
  5
4623
330
461F
100
AcDbEntity
  8
Sichtbare Kanten(ISO-ZOPH)
  0
POLYLINE
  5
4624
330
1A
100
AcDbEntity
  8
Sichtbare Kanten(ISO-ZOPH)
100
AcDb2dPolyline
 66
     1
 10
0.0
 20
0.0
 30
0.0
 70
   128
  0
VERTEX
  5
4625
330
4624
100
AcDbEntity
  8
Sichtbare Kanten(ISO-ZOPH)
100
AcDbVertex
100
AcDb2dVertex
 10
163.8217451438198
 20
232.2903168362397
 30
0.0
  0
VERTEX
  5
4626
330
4624
100
AcDbEntity
  8
Sichtbare Kanten(ISO-ZOPH)
100
AcDbVertex
100
AcDb2dVertex
 10
164.6032621726284
 20
232.3254025143403
 30
0.0
  0
VERTEX
  5
4627
330
4624
100
AcDbEntity
  8
Sichtbare Kanten(ISO-ZOPH)
100
AcDbVertex
100
AcDb2dVertex
 10
165.3860952719936
 20
232.3375809353608
 30
0.0
  0
SEQEND
  5
4628
330
4624
100
AcDbEntity
  8
Sichtbare Kanten(ISO-ZOPH)
  0
POLYLINE
  5
4629
330
1A
100
AcDbEntity
  8
Sichtbare Kanten(ISO-ZOPH)
100
AcDb2dPolyline
 66
     1
 10
0.0
 20
0.0
 30
0.0
 70
   128
  0
VERTEX
  5
462A
330
4629
100
AcDbEntity
  8
Sichtbare Kanten(ISO-ZOPH)
100
AcDbVertex
100
AcDb2dVertex
 10
183.4043838843594
 20
184.4909799259919
 30
0.0
  0
VERTEX
  5
462B
330
4629
100
AcDbEntity
  8
Sichtbare Kanten(ISO-ZOPH)
100
AcDbVertex
100
AcDb2dVertex
 10
182.6286699637661
 20
184.4857752484101
 30
0.0
  0
VERTEX
  5
462C
330
4629
100
AcDbEntity
  8
Sichtbare Kanten(ISO-ZOPH)
100
AcDbVertex
100
AcDb2dVertex
 10
181.8517734870204
 20
184.4837153118867
 30
0.0
  0
SEQEND
  5
462D
330
4629
100
AcDbEntity
  8
Sichtbare Kanten(ISO-ZOPH)
  0
POLYLINE
  5
462E
330
1A
100
AcDbEntity
  8
Sichtbare Kanten(ISO-ZOPH)
100
AcDb2dPolyline
 66
     1
 10
0.0
 20
0.0
 30
0.0
 70
   128
  0
VERTEX
  5
462F
330
462E
100
AcDbEntity
  8
Sichtbare Kanten(ISO-ZOPH)
100
AcDbVertex
100
AcDb2dVertex
 10
181.8517734870204
 20
232.3439705532808
 30
0.0
  0
VERTEX
  5
4630
330
462E
100
AcDbEntity
  8
Sichtbare Kanten(ISO-ZOPH)
100
AcDbVertex
100
AcDb2dVertex
 10
182.6286699637661
 20
232.3419106167573
 30
0.0
  0
VERTEX
  5
4631
330
462E
100
AcDbEntity
  8
Sichtbare Kanten(ISO-ZOPH)
100
AcDbVertex
100
AcDb2dVertex
 10
183.4043838843594
 20
232.3367059391755
 30
0.0
  0
SEQEND
  5
4632
330
462E
100
AcDbEntity
  8
Sichtbare Kanten(ISO-ZOPH)
  0
ELLIPSE
  5
46FC
330
1A
100
AcDbEntity
  8
Verdeckte tangentiale Kanten(ISO-ZOPH)
 48
2.57290744781494
100
AcDbEllipse
 10
165.3878967628644
 20
186.4901039775019
 30
0.0
 11
-0.0018016810493204
 21
-1.999999188486136
 31
0.0
210
0.0
220
0.0
230
1.0
 40
0.0085706100626209
 41
5.607420919475448
 42
6.283185306878702
  0
ELLIPSE
  5
4722
330
1A
100
AcDbEntity
  8
Verdeckte tangentiale Kanten(ISO-ZOPH)
 48
2.611667871475219
100
AcDbEllipse
 10
163.9408040330732
 20
230.2938629691524
 30
0.0
 11
-0.1190586542802618
 21
1.996453114110305
 31
0.0
210
0.0
220
0.0
230
1.0
 40
0.0615065742794891
 41
5.597241028857761
 42
6.2831853071738
  0
ELLIPSE
  5
4762
330
1A
100
AcDbEntity
  8
Verdeckte tangentiale Kanten(ISO-ZOPH)
 48
2.57290744781494
100
AcDbEllipse
 10
165.3878967628645
 20
230.3375818876655
 30
0.0
 11
-0.0018016810494001
 21
1.999999188486146
 31
0.0
210
0.0
220
0.0
230
1.0
 40
0.0085706100626282
 41
0.0
 42
0.6757643874601067
  0
LINE
  5
47B4
330
1A
100
AcDbEntity
  8
Sichtbare tangentiale Kanten(ISO-ZOPH)
100
AcDbLine
 10
183.3878967627773
 20
184.5018675033873
 30
0.0
 11
183.3878967627773
 21
185.2766495830996
 31
0.0
  0
LINE
  5
47B5
330
1A
100
AcDbEntity
  8
Sichtbare tangentiale Kanten(ISO-ZOPH)
100
AcDbLine
 10
165.3878967628209
 20
184.5010601867654
 30
0.0
 11
165.3878967627774
 21
185.2766495830996
 31
0.0
  0
LINE
  5
47B6
330
1A
100
AcDbEntity
  8
Sichtbare tangentiale Kanten(ISO-ZOPH)
100
AcDbLine
 10
183.3878967627773
 20
232.3258183617802
 30
0.0
 11
183.3878967627773
 21
231.5510362820678
 31
0.0
  0
LINE
  5
47B7
330
1A
100
AcDbEntity
  8
Sichtbare tangentiale Kanten(ISO-ZOPH)
100
AcDbLine
 10
165.3878967628209
 20
232.326625678402
 30
0.0
 11
165.3878967627774
 21
231.5510362820678
 31
0.0
  0
LINE
  5
47B8
330
1A
100
AcDbEntity
  8
Sichtbare tangentiale Kanten(ISO-ZOPH)
100
AcDbLine
 10
165.3878967627774
 20
185.2766495830996
 30
0.0
 11
183.3878967627773
 21
185.2766495830996
 31
0.0
  0
ARC
  5
47B9
330
1A
100
AcDbEntity
  8
Sichtbare tangentiale Kanten(ISO-ZOPH)
100
AcDbCircle
 10
183.3878967627773
 20
208.4138429325837
 30
0.0
 40
23.13719334948411
100
AcDbArc
 50
270.0
 51
90.0
  0
LINE
  5
47BA
330
1A
100
AcDbEntity
  8
Sichtbare tangentiale Kanten(ISO-ZOPH)
100
AcDbLine
 10
183.3878967627773
 20
231.5510362820678
 30
0.0
 11
165.3878967627774
 21
231.5510362820678
 31
0.0
  0
LINE
  5
47BB
330
1A
100
AcDbEntity
  8
Sichtbare tangentiale Kanten(ISO-ZOPH)
100
AcDbLine
 10
183.3878967627773
 20
187.2656933738361
 30
0.0
 11
183.3878967627773
 21
185.2766495830996
 31
0.0
  0
LINE
  5
47BC
330
1A
100
AcDbEntity
  8
Sichtbare tangentiale Kanten(ISO-ZOPH)
100
AcDbLine
 10
183.3878967627773
 20
187.2656933738361
 30
0.0
 11
165.3878967627774
 21
187.2656933738361
 31
0.0
  0
LINE
  5
47BD
330
1A
100
AcDbEntity
  8
Sichtbare tangentiale Kanten(ISO-ZOPH)
100
AcDbLine
 10
165.3878967627774
 20
185.2766495830996
 30
0.0
 11
165.3878967627774
 21
187.2656933738361
 31
0.0
  0
LINE
  5
47BE
330
1A
100
AcDbEntity
  8
Sichtbare tangentiale Kanten(ISO-ZOPH)
100
AcDbLine
 10
183.3878967627773
 20
229.5619924913313
 30
0.0
 11
183.3878967627773
 21
231.5510362820678
 31
0.0
  0
ARC
  5
47BF
330
1A
100
AcDbEntity
  8
Sichtbare tangentiale Kanten(ISO-ZOPH)
100
AcDbCircle
 10
183.3878967627773
 20
208.4138429325837
 30
0.0
 40
21.14814955874756
100
AcDbArc
 50
270.0
 51
90.0
  0
LINE
  5
47C0
330
1A
100
AcDbEntity
  8
Sichtbare tangentiale Kanten(ISO-ZOPH)
100
AcDbLine
 10
165.3878967627774
 20
231.5510362820679
 30
0.0
 11
165.3878967627774
 21
229.5619924913313
 31
0.0
  0
ARC
  5
47C1
102
{ACAD_REACTORS
330
4EAE
102
}
330
1A
100
AcDbEntity
  8
Sichtbare tangentiale Kanten(ISO-ZOPH)
100
AcDbCircle
 10
165.3878967627774
 20
208.4138429325837
 30
0.0
 40
23.13719334948411
100
AcDbArc
 50
90.0
 51
270.0
  0
ARC
  5
47C2
330
1A
100
AcDbEntity
  8
Sichtbare tangentiale Kanten(ISO-ZOPH)
100
AcDbCircle
 10
165.3878967627774
 20
208.4138429325837
 30
0.0
 40
21.14814955874756
100
AcDbArc
 50
90.0
 51
270.0
  0
LINE
  5
47C3
330
1A
100
AcDbEntity
  8
Sichtbare tangentiale Kanten(ISO-ZOPH)
100
AcDbLine
 10
165.3878967627774
 20
229.5619924913313
 30
0.0
 11
183.3878967627773
 21
229.5619924913313
 31
0.0
  0
ARC
  5
4806
330
1A
100
AcDbEntity
  8
Sichtbare Kanten(ISO-ZOPH)
100
AcDbCircle
 10
123.387896762824
 20
98.11004398022092
 30
0.0
 40
1.999999999999999
100
AcDbArc
 50
180.0
 51
233.1301023541579
  0
ARC
  5
48AE
102
{ACAD_REACTORS
330
4E62
102
}
330
1A
100
AcDbEntity
  8
Sichtbare Kanten(ISO-ZOPH)
100
AcDbCircle
 10
143.387896762824
 20
105.8251930193563
 30
0.0
 40
2.000000000000018
100
AcDbArc
 50
180.0
 51
251.3470285434859
  0
LINE
  5
48B1
330
1A
100
AcDbEntity
  8
Sichtbare Kanten(ISO-ZOPH)
100
AcDbLine
 10
122.187896762824
 20
96.5100439802209
 30
0.0
 11
140.690035879255
 21
82.63343964289759
 31
0.0
  0
LINE
  5
48B2
330
1A
100
AcDbEntity
  8
Sichtbare Kanten(ISO-ZOPH)
100
AcDbLine
 10
205.8711962188541
 20
82.62203163485059
 30
0.0
 11
142.7482259434162
 21
103.9302467819136
 31
0.0
  0
ARC
  5
4AA3
102
{ACAD_REACTORS
330
4E89
330
4EF9
102
}
330
1A
100
AcDbEntity
  8
Sichtbare Kanten(ISO-ZOPH)
100
AcDbCircle
 10
205.2315253994464
 20
80.72708539740791
 30
0.0
 40
1.999999999999977
100
AcDbArc
 50
353.9999999999999
 51
71.34702854348951
  0
ARC
  5
4AA4
330
1A
100
AcDbEntity
  8
Sichtbare Kanten(ISO-ZOPH)
100
AcDbCircle
 10
139.490035879255
 20
81.03343964289758
 30
0.0
 40
1.999999999999995
100
AcDbArc
 50
5.99999999999848
 51
53.13010235415799
  0
LINE
  5
4AA7
330
1A
100
AcDbEntity
  8
Sichtbare Kanten(ISO-ZOPH)
100
AcDbLine
 10
206.5250901123081
 20
73.90098705368561
 30
0.0
 11
207.2205691901829
 21
80.51802847087259
 31
0.0
  0
LINE
  5
4AA8
330
1A
100
AcDbEntity
  8
Sichtbare Kanten(ISO-ZOPH)
100
AcDbLine
 10
142.2507034133399
 20
73.90098705368561
 30
0.0
 11
141.4790796699916
 21
81.24249656943291
 31
0.0
  0
LINE
  5
4AA9
330
1A
100
AcDbEntity
  8
Sichtbare tangentiale Kanten(ISO-ZOPH)
100
AcDbLine
 10
165.387896762824
 20
73.90098705369251
 30
0.0
 11
183.3878967628239
 21
73.90098705369251
 31
0.0
  0
LINE
  5
4AAA
330
1A
100
AcDbEntity
  8
Sichtbare tangentiale Kanten(ISO-ZOPH)
100
AcDbLine
 10
206.5250901123082
 20
73.90098705368561
 30
0.0
 11
183.3878967628239
 21
73.90098705369251
 31
0.0
  0
LINE
  5
4AAB
330
1A
100
AcDbEntity
  8
Sichtbare tangentiale Kanten(ISO-ZOPH)
100
AcDbLine
 10
183.3878967628239
 20
72.1100439802272
 30
0.0
 11
183.3878967628239
 21
73.90098705369251
 31
0.0
  0
LINE
  5
4AAC
330
1A
100
AcDbEntity
  8
Sichtbare Kanten(ISO-ZOPH)
100
AcDbLine
 10
183.3878967628239
 20
72.1100439802272
 30
0.0
 11
165.387896762824
 21
72.1100439802272
 31
0.0
  0
LINE
  5
4AAD
330
1A
100
AcDbEntity
  8
Sichtbare tangentiale Kanten(ISO-ZOPH)
100
AcDbLine
 10
165.387896762824
 20
73.90098705369251
 30
0.0
 11
165.387896762824
 21
72.1100439802272
 31
0.0
  0
LINE
  5
4AAE
102
{ACAD_REACTORS
330
4E89
102
}
330
1A
100
AcDbEntity
  8
Sichtbare Kanten(ISO-ZOPH)
100
AcDbLine
 10
183.3878967628239
 20
72.1100439802272
 30
0.0
 11
204.5360463215716
 21
72.11004398022092
 31
0.0
  0
LINE
  5
4AAF
330
1A
100
AcDbEntity
  8
Sichtbare tangentiale Kanten(ISO-ZOPH)
100
AcDbLine
 10
165.387896762824
 20
73.90098705369251
 30
0.0
 11
142.2507034133399
 21
73.90098705368561
 31
0.0
  0
LINE
  5
4AB0
102
{ACAD_REACTORS
330
4ED8
102
}
330
1A
100
AcDbEntity
  8
Sichtbare Kanten(ISO-ZOPH)
100
AcDbLine
 10
144.2397472040765
 20
72.11004398022092
 30
0.0
 11
165.387896762824
 21
72.1100439802272
 31
0.0
  0
ARC
  5
4AB1
330
1A
100
AcDbEntity
  8
Sichtbare Kanten(ISO-ZOPH)
100
AcDbCircle
 10
204.5360463215716
 20
74.11004398022092
 30
0.0
 40
2.0
100
AcDbArc
 50
270.0
 51
353.9999999999999
  0
ARC
  5
4AB2
330
1A
100
AcDbEntity
  8
Sichtbare Kanten(ISO-ZOPH)
100
AcDbCircle
 10
144.2397472040765
 20
74.11004398022092
 30
0.0
 40
2.0
100
AcDbArc
 50
186.0000000000001
 51
270.0
  0
LINE
  5
4AB3
102
{ACAD_REACTORS
330
4E3F
330
4E62
102
}
330
1A
100
AcDbEntity
  8
Sichtbare Kanten(ISO-ZOPH)
100
AcDbLine
 10
121.387896762824
 20
120.1100439802209
 30
0.0
 11
141.387896762824
 21
120.1100439802209
 31
0.0
  0
LINE
  5
4AB4
102
{ACAD_REACTORS
330
4E3F
330
4ED8
330
4EF9
102
}
330
1A
100
AcDbEntity
  8
Sichtbare Kanten(ISO-ZOPH)
100
AcDbLine
 10
121.387896762824
 20
120.1100439802209
 30
0.0
 11
121.387896762824
 21
98.11004398022092
 31
0.0
  0
LINE
  5
4AB5
330
1A
100
AcDbEntity
  8
Sichtbare Kanten(ISO-ZOPH)
100
AcDbLine
 10
141.387896762824
 20
120.1100439802209
 30
0.0
 11
141.387896762824
 21
105.8251930193563
 31
0.0
  0
LINE
  5
4ABE
330
1A
100
AcDbEntity
  8
Sichtbare Kanten(ISO-ZOPH)
100
AcDbLine
 10
125.3878965244054
 20
127.8100437894876
 30
0.0
 11
125.3878965244054
 21
128.8100440279057
 31
0.0
  0
LINE
  5
4ABF
330
1A
100
AcDbEntity
  8
Sichtbare Kanten(ISO-ZOPH)
100
AcDbLine
 10
137.387896762824
 20
128.810043980222
 30
0.0
 11
125.387896762824
 21
128.810043980222
 31
0.0
  0
LINE
  5
4AC0
330
1A
100
AcDbEntity
  8
Sichtbare Kanten(ISO-ZOPH)
100
AcDbLine
 10
137.3878970012426
 20
128.8100440279057
 30
0.0
 11
137.3878970012426
 21
127.8100437894876
 31
0.0
  0
LINE
  5
4AC2
330
1A
100
AcDbEntity
  8
Sichtbare Kanten(ISO-ZOPH)
100
AcDbLine
 10
125.387896762824
 20
120.1100439802225
 30
0.0
 11
125.387896762824
 21
127.8100439802225
 31
0.0
  0
LINE
  5
4AC3
330
1A
100
AcDbEntity
  8
Sichtbare Kanten(ISO-ZOPH)
100
AcDbLine
 10
137.387896762824
 20
120.1100439802225
 30
0.0
 11
137.387896762824
 21
127.8100439802225
 31
0.0
  0
ARC
  5
4DBB
102
{ACAD_REACTORS
330
4EAE
102
}
330
1A
100
AcDbEntity
  8
0
100
AcDbCircle
 10
183.3878967627773
 20
208.4138429325837
 30
0.0
 40
23.92286868787552
100
AcDbArc
 50
270.0394870101104
 51
89.96051109522145
  0
LINE
  5
4DBC
330
1A
100
AcDbEntity
  8
0
100
AcDbLine
 10
121.5990423808242
 20
97.21561678922098
 30
0.0
 11
141.7631903833794
 21
104.6588615139119
 31
0.0
  0
LINE
  5
4DBD
330
1A
100
AcDbEntity
  8
0
100
AcDbLine
 10
141.4790796699916
 20
81.24249656943289
 30
0.0
 11
207.2315253994463
 21
80.72708539740791
 31
0.0
  0
LINE
  5
4DBE
102
{ACAD_REACTORS
330
4EAE
102
}
330
1A
100
AcDbEntity
  8
7
100
AcDbLine
 10
116.5153566720943
 20
208.6689185512084
 30
0.0
 11
213.69625989969
 21
208.4138429325837
 31
0.0
  0
LINE
  5
4DBF
102
{ACAD_REACTORS
330
4E1E
102
}
330
1A
100
AcDbEntity
  8
7
100
AcDbLine
 10
183.404384675906
 20
236.272724098474
 30
0.0
 11
183.4043838843594
 21
179.590865876762
 31
0.0
  0
LINE
  5
4DC0
102
{ACAD_REACTORS
330
4DFD
330
4E1E
102
}
330
1A
100
AcDbEntity
  8
7
100
AcDbLine
 10
165.3878977164517
 20
180.096954279046
 30
0.0
 11
165.3878977164517
 21
236.1462018251848
 31
0.0
  0
LINE
  5
4DC1
102
{ACAD_REACTORS
330
4DFD
102
}
330
1A
100
AcDbEntity
  8
7
100
AcDbLine
 10
131.3878967627773
 20
222.3801357801226
 30
0.0
 11
131.3878967627773
 21
194.2675152112098
 31
0.0
  0
LINE
  5
4DC2
330
1A
100
AcDbEntity
  8
7
100
AcDbLine
 10
131.387896762824
 20
128.810043980222
 30
0.0
 11
131.387896762824
 21
99.2936397077335
 31
0.0
  0
LINE
  5
4DC3
330
1A
100
AcDbEntity
  8
7
100
AcDbLine
 10
165.3878977164517
 20
83.20998144190935
 30
0.0
 11
165.3878977164517
 21
67.66958031204865
 31
0.0
  0
LINE
  5
4DC4
330
1A
100
AcDbEntity
  8
7
100
AcDbLine
 10
183.4043838843594
 20
82.31190122044592
 30
0.0
 11
183.4043838843594
 21
68.07074035683149
 31
0.0
  0
DIMENSION
  5
4DC5
102
{ACAD_XDICTIONARY
360
4DD2
102
}
102
{ACAD_REACTORS
330
4DD3
102
}
330
1A
100
AcDbEntity
  8
AM_5
100
AcDbDimension
  2
*D11
 10
227.5877115914405
 20
184.4956338566559
 30
0.0
 11
221.0877115914405
 21
208.4142851990479
 31
0.0
 70
    32
 71
     5
 42
47.83730268478388
 73
     0
 74
     0
 75
     0
  3
AM_ISO$0
100
AcDbAlignedDimension
 13
177.2210886344203
 23
232.3329365414398
 33
0.0
 14
173.8768842086086
 24
184.495633856656
 34
0.0
 50
90.00000000000003
100
AcDbRotatedDimension
1001
ACAD
1000
DSTYLE
1002
{
1070
    40
1040
2.0
1070
   271
1070
     0
1002
}
1001
ACAD_DSTYLE_DIMINSPECT
1070
   396
1000
100%
1070
   395
1000

1070
   394
1070
    33
1070
   393
1070
     0
  0
DIMENSION
  5
4DEF
102
{ACAD_XDICTIONARY
360
4DFC
102
}
102
{ACAD_REACTORS
330
4DFD
102
}
330
1A
100
AcDbEntity
  8
AM_5
100
AcDbDimension
  2
*D12
 10
165.3878977164517
 20
244.471229094907
 30
0.0
 11
148.3878972396145
 21
250.971229094907
 31
0.0
 70
    32
 71
     5
 42
34.00000095367432
 73
     0
 74
     0
 75
     0
  3
AM_ISO$0
100
AcDbAlignedDimension
 13
131.3878967627773
 23
222.3801357801226
 33
0.0
 14
165.3878977164517
 24
236.1462018251848
 34
0.0
100
AcDbRotatedDimension
1001
ACAD
1000
DSTYLE
1002
{
1070
    40
1040
2.0
1070
   271
1070
     0
1002
}
1001
ACAD_DSTYLE_DIMINSPECT
1070
   396
1000
100%
1070
   395
1000

1070
   394
1070
    33
1070
   393
1070
     0
  0
DIMENSION
  5
4E10
102
{ACAD_XDICTIONARY
360
4E1D
102
}
102
{ACAD_REACTORS
330
4E1E
102
}
330
1A
100
AcDbEntity
  8
AM_5
100
AcDbDimension
  2
*D13
 10
183.404384675906
 20
244.4712290949069
 30
0.0
 11
174.3961411961788
 21
250.9712290949069
 31
0.0
 70
    32
 71
     5
 42
18.01648695945437
 73
     0
 74
     0
 75
     0
  3
AM_ISO$0
100
AcDbAlignedDimension
 13
165.3878977164517
 23
236.1462018251848
 33
0.0
 14
183.404384675906
 24
236.272724098474
 34
0.0
100
AcDbRotatedDimension
1001
ACAD
1000
DSTYLE
1002
{
1070
    40
1040
2.0
1070
   271
1070
     0
1002
}
1001
ACAD_DSTYLE_DIMINSPECT
1070
   396
1000
100%
1070
   395
1000

1070
   394
1070
    33
1070
   393
1070
     0
  0
DIMENSION
  5
4E31
102
{ACAD_XDICTIONARY
360
4E3E
102
}
102
{ACAD_REACTORS
330
4E3F
102
}
330
1A
100
AcDbEntity
  8
AM_5
100
AcDbDimension
  2
*D14
 10
141.387896762824
 20
146.134945101361
 30
0.0
 11
131.3767502901161
 21
146.134945101361
 31
0.0
 70
   160
  1
%%c<>
 71
     5
 42
20.00000000000003
 73
     0
 74
     0
 75
     0
  3
AM_ISO$0
100
AcDbAlignedDimension
 13
121.387896762824
 23
120.1100439802209
 33
0.0
 14
141.387896762824
 24
120.1100439802209
 34
0.0
100
AcDbRotatedDimension
1001
ACAD
1000
DSTYLE
1002
{
1070
    40
1040
2.0
1070
   271
1070
     0
1002
}
1001
ACAD_DSTYLE_DIMINSPECT
1070
   396
1000
100%
1070
   395
1000

1070
   394
1070
    33
1070
   393
1070
     0
  0
DIMENSION
  5
4E52
102
{ACAD_XDICTIONARY
360
4E61
102
}
102
{ACAD_REACTORS
330
4E62
102
}
330
1A
100
AcDbEntity
  8
AM_5
100
AcDbDimension
  2
*D15
 10
156.6510558987335
 20
105.8251930193563
 30
0.0
 11
150.1510558987334
 21
112.9676184997886
 31
0.0
 70
    32
 71
     5
 42
14.28485096086461
 73
     0
 74
     0
 75
     0
  3
AM_ISO$0
100
AcDbAlignedDimension
 13
141.387896762824
 23
120.1100439802209
 33
0.0
 14
143.387896762824
 24
105.8251930193563
 34
0.0
 50
90.00000000000003
100
AcDbRotatedDimension
1001
ACAD
1000
DSTYLE
1002
{
1070
    40
1040
2.0
1070
   271
1070
     0
1002
}
1001
ACAD_DSTYLE_DIMINSPECT
1070
   396
1000
100%
1070
   395
1000

1070
   394
1070
    33
1070
   393
1070
     0
  0
DIMENSION
  5
4E79
102
{ACAD_XDICTIONARY
360
4E88
102
}
102
{ACAD_REACTORS
330
4E89
102
}
330
1A
100
AcDbEntity
  8
AM_5
100
AcDbDimension
  2
*D16
 10
222.8074479549845
 20
72.11004398022407
 30
0.0
 11
222.8074479549845
 21
96.91802847087261
 31
0.0
 70
   160
 71
     5
 42
8.40798449064853
 73
     0
 74
     0
 75
     0
  3
AM_ISO$0
100
AcDbAlignedDimension
 13
207.2205691901829
 23
80.51802847087259
 33
0.0
 14
193.9619715421978
 24
72.11004398022407
 34
0.0
 50
89.99999999998298
100
AcDbRotatedDimension
1001
ACAD
1000
DSTYLE
1002
{
1070
    40
1040
2.0
1070
   271
1070
     0
1002
}
1001
ACAD_DSTYLE_DIMINSPECT
1070
   396
1000
100%
1070
   395
1000

1070
   394
1070
    33
1070
   393
1070
     0
  0
DIMENSION
  5
4EA0
102
{ACAD_XDICTIONARY
360
4EAD
102
}
102
{ACAD_REACTORS
330
4EAE
102
}
330
1A
100
AcDbEntity
  8
AM_5
100
AcDbDimension
  2
*D17
 10
207.3107654506529
 20
170.3729962366303
 30
0.0
 11
174.7811144058215
 21
176.8729962366303
 31
0.0
 70
    32
 71
     5
 42
65.05930208966268
 73
     0
 74
     0
 75
     0
  3
AM_ISO$0
100
AcDbAlignedDimension
 13
142.2514633609902
 23
208.6013676938215
 33
0.0
 14
207.3107654506529
 24
208.4138425370406
 34
0.0
 50
0.0000000000001132
100
AcDbRotatedDimension
1001
ACAD
1000
DSTYLE
1002
{
1070
    40
1040
2.0
1070
   271
1070
     0
1002
}
1001
ACAD_DSTYLE_DIMINSPECT
1070
   396
1000
100%
1070
   395
1000

1070
   394
1070
    33
1070
   393
1070
     0
  0
DIMENSION
  5
4ECA
102
{ACAD_XDICTIONARY
360
4ED7
102
}
102
{ACAD_REACTORS
330
4ED8
102
}
330
1A
100
AcDbEntity
  8
AM_5
100
AcDbDimension
  2
*D18
 10
97.38789676282884
 20
120.1100439802209
 30
0.0
 11
90.88789676282882
 21
96.11004398022252
 31
0.0
 70
    32
 71
     5
 42
47.99999999999686
 73
     0
 74
     0
 75
     0
  3
AM_ISO$0
100
AcDbAlignedDimension
 13
154.8138219834502
 23
72.11004398022407
 33
0.0
 14
121.387896762824
 24
120.1100439802209
 34
0.0
 50
90.00000000001705
100
AcDbRotatedDimension
1001
ACAD
1000
DSTYLE
1002
{
1070
    40
1040
2.0
1070
   271
1070
     0
1002
}
1001
ACAD_DSTYLE_DIMINSPECT
1070
   396
1000
100%
1070
   395
1000

1070
   394
1070
    33
1070
   393
1070
     0
  0
DIMENSION
  5
4EEB
102
{ACAD_XDICTIONARY
360
4EF8
102
}
102
{ACAD_REACTORS
330
4EF9
102
}
330
1A
100
AcDbEntity
  8
AM_5
100
AcDbDimension
  2
*D19
 10
207.2205691901829
 20
50.73719651581257
 30
0.0
 11
164.3042329765034
 21
57.23719651581257
 31
0.0
 70
    32
 71
     5
 42
85.83267242735891
 73
     0
 74
     0
 75
     0
  3
AM_ISO$0
100
AcDbAlignedDimension
 13
121.387896762824
 23
109.1100439802209
 33
0.0
 14
207.2205691901829
 24
80.51802847087259
 34
0.0
 50
0.0000000000001132
100
AcDbRotatedDimension
1001
ACAD
1000
DSTYLE
1002
{
1070
    40
1040
2.0
1070
   271
1070
     0
1002
}
1001
ACAD_DSTYLE_DIMINSPECT
1070
   396
1000
100%
1070
   395
1000

1070
   394
1070
    33
1070
   393
1070
     0
  0
VIEWPORT
  5
22
330
17
100
AcDbEntity
 67
     1
  8
0
100
AcDbViewport
 10
112.2893422104056
 20
155.6597362822716
 30
0.0
 40
408.1687337183673
 41
323.7622123600237
 68
     1
 69
     1
 12
112.2893422104056
 22
155.6597362822716
 13
0.0
 23
0.0
 14
10.0
 24
10.0
 15
10.0
 25
10.0
 16
0.0
 26
0.0
 36
1.0
 17
0.0
 27
0.0
 37
0.0
 42
50.0
 43
0.0
 44
0.0
 45
323.7622123600237
 50
0.0
 51
0.0
 72
   100
331
1969
 90
    32800
  1

281
     0
 71
     1
 74
     0
110
0.0
120
0.0
130
0.0
111
1.0
121
0.0
131
0.0
112
0.0
122
1.0
132
0.0
 79
     0
146
0.0
170
     0
 61
     5
348
23C6
292
     1
282
     1
141
0.0
142
0.0
 63
   250
421
  3355443
1001
GENIUS_GENSCREG_15
1000
PF
1040
1.0
1000
DF
1040
1.0
1000
MIN
1011
11.7063398794879
1021
69.23822698240406
1031
0.0
1000
MAX
1011
146.8807982645257
1021
174.6953433489414
1031
0.0
1000
FLAGS
1070
     4
1001
GENIUS_GENOREF_13
1005
1677
  0
POINT
  5
1895
330
17
100
AcDbEntity
 67
     1
  8
AM_0
 60
     1
100
AcDbPoint
 10
0.0
 20
0.0
 30
0.0
  0
POINT
  5
189D
330
17
100
AcDbEntity
 67
     1
  8
AM_0
 60
     1
100
AcDbPoint
 10
0.0
 20
0.0
 30
0.0
  0
POINT
  5
1900
330
17
100
AcDbEntity
 67
     1
  8
AM_0
 60
     1
100
AcDbPoint
 10
0.0
 20
0.0
 30
0.0
  0
POINT
  5
1908
330
17
100
AcDbEntity
 67
     1
  8
AM_0
 60
     1
100
AcDbPoint
 10
0.0
 20
0.0
 30
0.0
  0
ENDSEC
  0
SECTION
  2
OBJECTS
  0
DICTIONARY
  5
C
330
0
100
AcDbDictionary
281
     1
  3
ACAD_COLOR
350
22C4
  3
ACAD_GROUP
350
D
  3
ACAD_LAYOUT
350
167
  3
ACAD_MATERIAL
350
22C3
  3
ACAD_MLEADERSTYLE
350
29E1
  3
ACAD_MLINESTYLE
350
E
  3
ACAD_PLOTSETTINGS
350
168
  3
ACAD_PLOTSTYLENAME
350
165
  3
ACAD_SCALELIST
350
29BF
  3
ACAD_TABLESTYLE
350
23D1
  3
ACAD_VISUALSTYLE
350
23C0
  3
ACDB_RECOMPOSE_DATA
350
4F29
  3
ACDBVARIABLEDICTIONARY
350
5D
  3
ACMDICTIONARY
350
142
  3
AMG
350
171
  3
AMG_3D2D_DICT
350
18A8
  3
AMGSNAPSETTINGS
350
1F2
  3
MAPISURF_MODULE
350
17FD
  0
DICTIONARY
  5
262F
330
2
100
AcDbDictionary
280
     1
281
     1
  3
ACAD_LAYERSTATES
360
2630
  0
DICTIONARY
  5
36C7
330
F
100
AcDbDictionary
280
     1
281
     1
  3
ADSK_XREC_LAYER_RECONCILED
360
36C8
  0
DICTIONARY
  5
36C9
330
35A
100
AcDbDictionary
280
     1
281
     1
  3
ADSK_XREC_LAYER_RECONCILED
360
36CA
  0
DICTIONARY
  5
36CB
330
35B
100
AcDbDictionary
280
     1
281
     1
  3
ADSK_XREC_LAYER_RECONCILED
360
36CC
  0
DICTIONARY
  5
36CD
330
35C
100
AcDbDictionary
280
     1
281
     1
  3
ADSK_XREC_LAYER_RECONCILED
360
36CE
  0
DICTIONARY
  5
36CF
330
35D
100
AcDbDictionary
280
     1
281
     1
  3
ADSK_XREC_LAYER_RECONCILED
360
36D0
  0
DICTIONARY
  5
36D1
330
35E
100
AcDbDictionary
280
     1
281
     1
  3
ADSK_XREC_LAYER_RECONCILED
360
36D2
  0
DICTIONARY
  5
36D3
330
35F
100
AcDbDictionary
280
     1
281
     1
  3
ADSK_XREC_LAYER_RECONCILED
360
36D4
  0
DICTIONARY
  5
36D5
330
360
100
AcDbDictionary
280
     1
281
     1
  3
ADSK_XREC_LAYER_RECONCILED
360
36D6
  0
DICTIONARY
  5
36D7
330
361
100
AcDbDictionary
280
     1
281
     1
  3
ADSK_XREC_LAYER_RECONCILED
360
36D8
  0
DICTIONARY
  5
36D9
330
362
100
AcDbDictionary
280
     1
281
     1
  3
ADSK_XREC_LAYER_RECONCILED
360
36DA
  0
DICTIONARY
  5
36DB
330
38E
100
AcDbDictionary
280
     1
281
     1
  3
ADSK_XREC_LAYER_RECONCILED
360
36DC
  0
DICTIONARY
  5
36DD
330
3F7
100
AcDbDictionary
280
     1
281
     1
  3
ADSK_XREC_LAYER_RECONCILED
360
36DE
  0
DICTIONARY
  5
36DF
330
5FC
100
AcDbDictionary
280
     1
281
     1
  3
ADSK_XREC_LAYER_RECONCILED
360
36E0
  0
DICTIONARY
  5
36E1
330
614
100
AcDbDictionary
280
     1
281
     1
  3
ADSK_XREC_LAYER_RECONCILED
360
36E2
  0
DICTIONARY
  5
36E3
330
79B
100
AcDbDictionary
280
     1
281
     1
  3
ADSK_XREC_LAYER_RECONCILED
360
36E4
  0
DICTIONARY
  5
36E5
330
1054
100
AcDbDictionary
280
     1
281
     1
  3
ADSK_XREC_LAYER_RECONCILED
360
36E6
  0
DICTIONARY
  5
36E7
330
106E
100
AcDbDictionary
280
     1
281
     1
  3
ADSK_XREC_LAYER_RECONCILED
360
36E8
  0
DICTIONARY
  5
36E9
330
106F
100
AcDbDictionary
280
     1
281
     1
  3
ADSK_XREC_LAYER_RECONCILED
360
36EA
  0
DICTIONARY
  5
36EB
330
108B
100
AcDbDictionary
280
     1
281
     1
  3
ADSK_XREC_LAYER_RECONCILED
360
36EC
  0
DICTIONARY
  5
36ED
330
1969
100
AcDbDictionary
280
     1
281
     1
  3
ADSK_XREC_LAYER_RECONCILED
360
36EE
  0
DICTIONARY
  5
36EF
330
1A0F
100
AcDbDictionary
280
     1
281
     1
  3
ADSK_XREC_LAYER_RECONCILED
360
36F0
  0
DICTIONARY
  5
36F1
330
1A10
100
AcDbDictionary
280
     1
281
     1
  3
ADSK_XREC_LAYER_RECONCILED
360
36F2
  0
DICTIONARY
  5
36F3
330
1A11
100
AcDbDictionary
280
     1
281
     1
  3
ADSK_XREC_LAYER_RECONCILED
360
36F4
  0
DICTIONARY
  5
36F5
330
1FEC
100
AcDbDictionary
280
     1
281
     1
  3
ADSK_XREC_LAYER_RECONCILED
360
36F6
  0
DICTIONARY
  5
36F7
330
2853
100
AcDbDictionary
280
     1
281
     1
  3
ADSK_XREC_LAYER_RECONCILED
360
36F8
  0
DICTIONARY
  5
36F9
330
2A0C
100
AcDbDictionary
280
     1
281
     1
  3
ADSK_XREC_LAYER_RECONCILED
360
36FA
  0
DICTIONARY
  5
36FB
330
2A0D
100
AcDbDictionary
280
     1
281
     1
  3
ADSK_XREC_LAYER_RECONCILED
360
36FC
  0
DICTIONARY
  5
36FD
330
2A0E
100
AcDbDictionary
280
     1
281
     1
  3
ADSK_XREC_LAYER_RECONCILED
360
36FE
  0
DICTIONARY
  5
36FF
330
2A0F
100
AcDbDictionary
280
     1
281
     1
  3
ADSK_XREC_LAYER_RECONCILED
360
3700
  0
DICTIONARY
  5
12A
330
1A
100
AcDbDictionary
280
     1
281
     1
  3
ACAD_INDEX
360
17BE
  0
DICTIONARY
  5
4DD2
330
4DC5
100
AcDbDictionary
280
     1
281
     1
  3
ACAD_DIMASSOC
360
4DD3
  0
DICTIONARY
  5
4DFC
330
4DEF
100
AcDbDictionary
280
     1
281
     1
  3
ACAD_DIMASSOC
360
4DFD
  0
DICTIONARY
  5
4E1D
330
4E10
100
AcDbDictionary
280
     1
281
     1
  3
ACAD_DIMASSOC
360
4E1E
  0
DICTIONARY
  5
4E3E
330
4E31
100
AcDbDictionary
280
     1
281
     1
  3
ACAD_DIMASSOC
360
4E3F
  0
DICTIONARY
  5
4E61
330
4E52
100
AcDbDictionary
280
     1
281
     1
  3
ACAD_DIMASSOC
360
4E62
  0
DICTIONARY
  5
4E88
330
4E79
100
AcDbDictionary
280
     1
281
     1
  3
ACAD_DIMASSOC
360
4E89
  0
DICTIONARY
  5
4EAD
330
4EA0
100
AcDbDictionary
280
     1
281
     1
  3
ACAD_DIMASSOC
360
4EAE
  0
DICTIONARY
  5
4ED7
330
4ECA
100
AcDbDictionary
280
     1
281
     1
  3
ACAD_DIMASSOC
360
4ED8
  0
DICTIONARY
  5
4EF8
330
4EEB
100
AcDbDictionary
280
     1
281
     1
  3
ACAD_DIMASSOC
360
4EF9
  0
DICTIONARY
  5
22C4
102
{ACAD_REACTORS
330
C
102
}
330
C
100
AcDbDictionary
281
     1
  0
DICTIONARY
  5
D
102
{ACAD_REACTORS
330
C
102
}
330
C
100
AcDbDictionary
281
     1
  0
DICTIONARY
  5
167
102
{ACAD_REACTORS
330
C
102
}
330
C
100
AcDbDictionary
281
     1
  3
A0
350
351
  3
A1
350
314
  3
A2
350
349
  3
A3
350
2E1
  3
A4
350
16A
  3
Model
350
169
  0
DICTIONARY
  5
22C3
102
{ACAD_REACTORS
330
C
102
}
330
C
100
AcDbDictionary
281
     1
  3
ByBlock
350
23BE
  3
ByLayer
350
23BD
  3
Global
350
23BF
  0
DICTIONARY
  5
29E1
102
{ACAD_REACTORS
330
C
102
}
330
C
100
AcDbDictionary
281
     1
  3
Standard
350
29E2
  0
DICTIONARY
  5
E
102
{ACAD_REACTORS
330
C
102
}
330
C
100
AcDbDictionary
281
     1
  3
STANDARD
350
13
  0
DICTIONARY
  5
168
102
{ACAD_REACTORS
330
C
102
}
330
C
100
AcDbDictionary
281
     1
  3
A0
350
2EE
  3
A0-A3
350
2F2
  3
A0-A4
350
2F3
  3
A1
350
2ED
  3
A2
350
2EA
  3
A3
350
31E
  3
A4
350
319
  0
ACDBDICTIONARYWDFLT
  5
165
102
{ACAD_REACTORS
330
C
102
}
330
C
100
AcDbDictionary
281
     1
  3
Normal
350
166
100
AcDbDictionaryWithDefault
340
166
  0
DICTIONARY
  5
29BF
102
{ACAD_REACTORS
330
C
102
}
330
C
100
AcDbDictionary
281
     1
  3
A0
350
29C0
  3
A1
350
29C1
  3
A2
350
29C2
  3
A3
350
29C3
  3
A4
350
29C4
  3
A5
350
29C5
  3
A6
350
29C6
  3
A7
350
29C7
  3
A8
350
29C8
  3
A9
350
29C9
  3
B0
350
29CA
  3
B1
350
29CB
  3
B2
350
29CC
  3
B3
350
29CD
  3
B4
350
29CE
  3
B5
350
29CF
  3
B6
350
29D0
  3
B7
350
29D1
  3
B8
350
29D2
  3
B9
350
29D3
  3
C0
350
29D4
  3
C1
350
29D5
  3
C2
350
29D6
  3
C3
350
29D7
  3
C4
350
29D8
  3
C5
350
29D9
  3
C6
350
29DA
  3
C7
350
29DB
  3
C8
350
29DC
  3
C9
350
29DD
  3
D0
350
29DE
  3
D1
350
29DF
  3
D2
350
29E0
  0
DICTIONARY
  5
23D1
102
{ACAD_REACTORS
330
C
102
}
330
C
100
AcDbDictionary
281
     1
  3
Standard
350
23D2
  0
DICTIONARY
  5
23C0
102
{ACAD_REACTORS
330
C
102
}
330
C
100
AcDbDictionary
281
     1
  3
2dWireframe
350
23C6
  3
3D Hidden
350
23C8
  3
3dWireframe
350
23C7
  3
Basic
350
23C5
  3
Brighten
350
23CC
  3
ColorChange
350
23D0
  3
Conceptual
350
23C9
  3
Dim
350
23CB
  3
Facepattern
350
23CF
  3
Flat
350
23C1
  3
FlatWithEdges
350
23C2
  3
Gouraud
350
23C3
  3
GouraudWithEdges
350
23C4
  3
Linepattern
350
23CE
  3
Realistic
350
23CA
  3
Thicken
350
23CD
  0
XRECORD
  5
4F29
102
{ACAD_REACTORS
330
C
102
}
330
C
100
AcDbXrecord
280
     1
 90
        1
330
23D2
  0
DICTIONARY
  5
5D
102
{ACAD_REACTORS
330
C
102
}
330
C
100
AcDbDictionary
281
     1
  3
CANNOSCALE
350
4F2C
  3
CMLEADERSTYLE
350
4F2A
  3
CTABLESTYLE
350
2572
  3
DIMADEC
350
5E
  3
DIMASSOC
350
1ED9
  3
INDEXCTL
350
128
  3
LAYEREVAL
350
5046
  3
LAYERNOTIFY
350
5047
  3
LIGHTINGUNITS
350
4F2D
  3
MSLTSCALE
350
4F2B
  3
SORTENTS
350
1044
  0
DICTIONARY
  5
142
102
{ACAD_REACTORS
330
C
102
}
330
C
100
AcDbDictionary
281
     1
  3
ACMSTDDICTIONARY
350
143
  3
AMDTSECTSYM_ARROWCOLOR
350
23F3
  0
DICTIONARY
  5
171
102
{ACAD_REACTORS
330
C
102
}
330
C
100
AcDbDictionary
281
     1
  3
AcMgSettings
350
172
  3
AMGLAYCFG
350
174
  0
DICTIONARY
  5
18A8
102
{ACAD_REACTORS
330
C
102
}
330
C
100
AcDbDictionary
281
     1
  3
AMG_SUBLIST_DICT
350
18A9
  0
DICTIONARY
  5
1F2
102
{ACAD_REACTORS
330
C
102
}
330
C
100
AcDbDictionary
281
     1
  3
DIMENSION
350
164B
  3
FEA
350
164C
  3
HATCH
350
164D
  3
SYMBOLS
350
164E
  0
DICTIONARY
  5
2630
102
{ACAD_REACTORS
330
262F
102
}
330
262F
100
AcDbDictionary
281
     1
  0
XRECORD
  5
36C8
102
{ACAD_REACTORS
330
36C7
102
}
330
36C7
100
AcDbXrecord
280
     1
290
     1
  0
XRECORD
  5
36CA
102
{ACAD_REACTORS
330
36C9
102
}
330
36C9
100
AcDbXrecord
280
     1
290
     1
  0
XRECORD
  5
36CC
102
{ACAD_REACTORS
330
36CB
102
}
330
36CB
100
AcDbXrecord
280
     1
290
     1
  0
XRECORD
  5
36CE
102
{ACAD_REACTORS
330
36CD
102
}
330
36CD
100
AcDbXrecord
280
     1
290
     1
  0
XRECORD
  5
36D0
102
{ACAD_REACTORS
330
36CF
102
}
330
36CF
100
AcDbXrecord
280
     1
290
     1
  0
XRECORD
  5
36D2
102
{ACAD_REACTORS
330
36D1
102
}
330
36D1
100
AcDbXrecord
280
     1
290
     1
  0
XRECORD
  5
36D4
102
{ACAD_REACTORS
330
36D3
102
}
330
36D3
100
AcDbXrecord
280
     1
290
     1
  0
XRECORD
  5
36D6
102
{ACAD_REACTORS
330
36D5
102
}
330
36D5
100
AcDbXrecord
280
     1
290
     1
  0
XRECORD
  5
36D8
102
{ACAD_REACTORS
330
36D7
102
}
330
36D7
100
AcDbXrecord
280
     1
290
     1
  0
XRECORD
  5
36DA
102
{ACAD_REACTORS
330
36D9
102
}
330
36D9
100
AcDbXrecord
280
     1
290
     1
  0
XRECORD
  5
36DC
102
{ACAD_REACTORS
330
36DB
102
}
330
36DB
100
AcDbXrecord
280
     1
290
     1
  0
XRECORD
  5
36DE
102
{ACAD_REACTORS
330
36DD
102
}
330
36DD
100
AcDbXrecord
280
     1
290
     1
  0
XRECORD
  5
36E0
102
{ACAD_REACTORS
330
36DF
102
}
330
36DF
100
AcDbXrecord
280
     1
290
     1
  0
XRECORD
  5
36E2
102
{ACAD_REACTORS
330
36E1
102
}
330
36E1
100
AcDbXrecord
280
     1
290
     1
  0
XRECORD
  5
36E4
102
{ACAD_REACTORS
330
36E3
102
}
330
36E3
100
AcDbXrecord
280
     1
290
     1
  0
XRECORD
  5
36E6
102
{ACAD_REACTORS
330
36E5
102
}
330
36E5
100
AcDbXrecord
280
     1
290
     1
  0
XRECORD
  5
36E8
102
{ACAD_REACTORS
330
36E7
102
}
330
36E7
100
AcDbXrecord
280
     1
290
     1
  0
XRECORD
  5
36EA
102
{ACAD_REACTORS
330
36E9
102
}
330
36E9
100
AcDbXrecord
280
     1
290
     1
  0
XRECORD
  5
36EC
102
{ACAD_REACTORS
330
36EB
102
}
330
36EB
100
AcDbXrecord
280
     1
290
     1
  0
XRECORD
  5
36EE
102
{ACAD_REACTORS
330
36ED
102
}
330
36ED
100
AcDbXrecord
280
     1
290
     1
  0
XRECORD
  5
36F0
102
{ACAD_REACTORS
330
36EF
102
}
330
36EF
100
AcDbXrecord
280
     1
290
     1
  0
XRECORD
  5
36F2
102
{ACAD_REACTORS
330
36F1
102
}
330
36F1
100
AcDbXrecord
280
     1
290
     1
  0
XRECORD
  5
36F4
102
{ACAD_REACTORS
330
36F3
102
}
330
36F3
100
AcDbXrecord
280
     1
290
     1
  0
XRECORD
  5
36F6
102
{ACAD_REACTORS
330
36F5
102
}
330
36F5
100
AcDbXrecord
280
     1
290
     1
  0
XRECORD
  5
36F8
102
{ACAD_REACTORS
330
36F7
102
}
330
36F7
100
AcDbXrecord
280
     1
290
     1
  0
XRECORD
  5
36FA
102
{ACAD_REACTORS
330
36F9
102
}
330
36F9
100
AcDbXrecord
280
     1
290
     1
  0
XRECORD
  5
36FC
102
{ACAD_REACTORS
330
36FB
102
}
330
36FB
100
AcDbXrecord
280
     1
290
     1
  0
XRECORD
  5
36FE
102
{ACAD_REACTORS
330
36FD
102
}
330
36FD
100
AcDbXrecord
280
     1
290
     1
  0
XRECORD
  5
3700
102
{ACAD_REACTORS
330
36FF
102
}
330
36FF
100
AcDbXrecord
280
     1
290
     1
  0
DICTIONARY
  5
17BE
102
{ACAD_REACTORS
330
12A
102
}
330
12A
100
AcDbDictionary
281
     1
  3
*A1
350
17BF
  0
DIMASSOC
  5
4DD3
102
{ACAD_REACTORS
330
4DD2
102
}
330
4DD2
100
AcDbDimAssoc
330
4DC5
 90
        3
 70
     0
 71
     0
  1
AcDbOsnapPointRef
 72
     1
331
4548
331
455F
 73
     0
 91
        0
 40
0.0
 10
0.0
 20
0.0
 30
2.000000000000000E+50
 75
     0
  1
AcDbOsnapPointRef
 72
     2
331
4467
331
4477
 73
     0
 91
        0
 40
0.0
 10
0.0
 20
0.0
 30
0.0
 75
     0
  0
DIMASSOC
  5
4DFD
102
{ACAD_REACTORS
330
4DFC
102
}
330
4DFC
100
AcDbDimAssoc
330
4DEF
 90
        3
 70
     0
 71
     0
  1
AcDbOsnapPointRef
 72
    13
331
4DC1
 73
     0
 91
        0
 40
0.0
 10
0.0
 20
0.0
 30
2.000000000000000E+50
 75
     0
  1
AcDbOsnapPointRef
 72
     1
331
4DC0
 73
     0
 91
        0
 40
0.0
 10
0.0
 20
0.0
 30
2.000000000000000E+50
 75
     0
  0
DIMASSOC
  5
4E1E
102
{ACAD_REACTORS
330
4E1D
102
}
330
4E1D
100
AcDbDimAssoc
330
4E10
 90
        3
 70
     0
 71
     0
  1
AcDbOsnapPointRef
 72
     1
331
4DC0
 73
     0
 91
        0
 40
0.0
 10
0.0
 20
0.0
 30
2.000000000000000E+50
 75
     0
  1
AcDbOsnapPointRef
 72
    13
331
4DBF
 73
     0
 91
        0
 40
0.0
 10
0.0
 20
0.0
 30
2.000000000000000E+50
 75
     0
  0
DIMASSOC
  5
4E3F
102
{ACAD_REACTORS
330
4E3E
102
}
330
4E3E
100
AcDbDimAssoc
330
4E31
 90
        3
 70
     0
 71
     0
  1
AcDbOsnapPointRef
 72
    13
331
4AB4
 73
     0
 91
        0
 40
0.0
 10
0.0
 20
0.0
 30
2.000000000000000E+50
 75
     0
  1
AcDbOsnapPointRef
 72
     1
331
4AB3
 73
     0
 91
        0
 40
0.0
 10
0.0
 20
0.0
 30
2.000000000000000E+50
 75
     0
  0
DIMASSOC
  5
4E62
102
{ACAD_REACTORS
330
4E61
102
}
330
4E61
100
AcDbDimAssoc
330
4E52
 90
        3
 70
     0
 71
     0
  1
AcDbOsnapPointRef
 72
     1
331
4AB3
 73
     0
 91
        0
 40
0.0
 10
0.0
 20
0.0
 30
2.000000000000000E+50
 75
     0
  1
AcDbOsnapPointRef
 72
     3
331
48AE
 73
     0
 91
        0
 40
3.141592653589793
 10
0.0
 20
0.0
 30
0.0
 75
     0
  0
DIMASSOC
  5
4E89
102
{ACAD_REACTORS
330
4E88
102
}
330
4E88
100
AcDbDimAssoc
330
4E79
 90
        3
 70
     0
 71
     0
  1
AcDbOsnapPointRef
 72
    13
331
4AA3
 73
     0
 91
        0
 40
0.0
 10
0.0
 20
0.0
 30
2.000000000000000E+50
 75
     0
  1
AcDbOsnapPointRef
 72
     2
331
4AAE
 73
     0
 91
        0
 40
0.0
 10
0.0
 20
0.0
 30
0.0
 75
     0
  0
DIMASSOC
  5
4EAE
102
{ACAD_REACTORS
330
4EAD
102
}
330
4EAD
100
AcDbDimAssoc
330
4EA0
 90
        3
 70
     0
 71
     0
  1
AcDbOsnapPointRef
 72
     6
331
4212
331
47C1
 73
     0
 91
        0
 40
3.133487659542607
 10
0.0
 20
0.0
 30
0.0
332
4DBE
 74
     0
 92
        0
 75
     0
  1
AcDbOsnapPointRef
 72
     2
331
4DBB
 73
     0
 91
        0
 40
0.0
 10
0.0
 20
0.0
 30
0.0
 75
     0
  0
DIMASSOC
  5
4ED8
102
{ACAD_REACTORS
330
4ED7
102
}
330
4ED7
100
AcDbDimAssoc
330
4ECA
 90
        3
 70
     0
 71
     0
  1
AcDbOsnapPointRef
 72
     2
331
4AB0
 73
     0
 91
        0
 40
0.0
 10
0.0
 20
0.0
 30
0.0
 75
     0
  1
AcDbOsnapPointRef
 72
    13
331
4AB4
 73
     0
 91
        0
 40
0.0
 10
0.0
 20
0.0
 30
2.000000000000000E+50
 75
     0
  0
DIMASSOC
  5
4EF9
102
{ACAD_REACTORS
330
4EF8
102
}
330
4EF8
100
AcDbDimAssoc
330
4EEB
 90
        3
 70
     0
 71
     0
  1
AcDbOsnapPointRef
 72
     2
331
4AB4
 73
     0
 91
        0
 40
0.0
 10
0.0
 20
0.0
 30
0.0
 75
     0
  1
AcDbOsnapPointRef
 72
    13
331
4AA3
 73
     0
 91
        0
 40
0.0
 10
0.0
 20
0.0
 30
2.000000000000000E+50
 75
     0
  0
LAYOUT
  5
351
102
{ACAD_REACTORS
330
167
102
}
330
167
100
AcDbPlotSettings
  1
A0
  2
HPDJ220-A0
  4
User268
  6

 40
4.995333194732666
 41
16.93336677551269
 42
4.99530029296875
 43
16.933349609375
 44
840.9093017578125
 45
1188.8046875
 46
0.0
 47
0.0
 48
0.0
 49
0.0
140
0.0
141
0.0
142
1.0
143
1.0
 70
   752
 72
     1
 73
     1
 74
     5
  7
PLA0.ctb
 75
    16
147
1.0
 76
     0
 77
     2
 78
   300
148
0.0
149
0.0
100
AcDbLayout
  1
A0
 70
     1
 71
     5
 10
-16.933349609375
 20
-4.995333194732666
 11
1171.871337890625
 21
835.9139685630799
 12
0.0
 22
0.0
 32
0.0
 14
1.000000000000000E+20
 24
1.000000000000000E+20
 34
1.000000000000000E+20
 15
-1.000000000000000E+20
 25
-1.000000000000000E+20
 35
-1.000000000000000E+20
146
0.0
 13
0.0
 23
0.0
 33
0.0
 16
1.0
 26
0.0
 36
0.0
 17
0.0
 27
1.0
 37
0.0
 76
     0
330
34D
331
34E
  0
LAYOUT
  5
314
102
{ACAD_REACTORS
330
167
102
}
330
167
100
AcDbPlotSettings
  1
A2
  2
HPDJ220-A0
  4
User266
  6

 40
4.995333194732666
 41
16.93330574035644
 42
4.995330810546875
 43
16.933349609375
 44
419.9466552734374
 45
593.8519897460937
 46
0.0
 47
0.0
 48
0.0
 49
0.0
140
0.0
141
0.0
142
1.0
143
1.0
 70
   752
 72
     1
 73
     1
 74
     5
  7
PLA2.ctb
 75
    16
147
1.0
 76
     0
 77
     2
 78
   300
148
0.0
149
0.0
100
AcDbLayout
  1
A1
 70
     1
 71
     4
 10
-16.933349609375
 20
-4.995333194732666
 11
576.9186401367187
 21
414.9513220787047
 12
0.0
 22
0.0
 32
0.0
 14
1.000000000000000E+20
 24
1.000000000000000E+20
 34
1.000000000000000E+20
 15
-1.000000000000000E+20
 25
-1.000000000000000E+20
 35
-1.000000000000000E+20
146
0.0
 13
0.0
 23
0.0
 33
0.0
 16
1.0
 26
0.0
 36
0.0
 17
0.0
 27
1.0
 37
0.0
 76
     0
330
313
331
344
  0
LAYOUT
  5
349
102
{ACAD_REACTORS
330
167
102
}
330
167
100
AcDbPlotSettings
  1
A2
  2
HPDJ220-A0
  4
User266
  6

 40
4.995333194732666
 41
16.93330574035644
 42
4.995330810546875
 43
16.933349609375
 44
419.9466552734374
 45
593.8519897460937
 46
0.0
 47
0.0
 48
0.0
 49
0.0
140
0.0
141
0.0
142
1.0
143
1.0
 70
   752
 72
     1
 73
     1
 74
     5
  7
PLA2.ctb
 75
    16
147
1.0
 76
     0
 77
     2
 78
   300
148
0.0
149
0.0
100
AcDbLayout
  1
A2
 70
     1
 71
     3
 10
-16.933349609375
 20
-4.995333194732666
 11
576.9186401367187
 21
414.9513220787047
 12
0.0
 22
0.0
 32
0.0
 14
1.000000000000000E+20
 24
1.000000000000000E+20
 34
1.000000000000000E+20
 15
-1.000000000000000E+20
 25
-1.000000000000000E+20
 35
-1.000000000000000E+20
146
0.0
 13
0.0
 23
0.0
 33
0.0
 16
1.0
 26
0.0
 36
0.0
 17
0.0
 27
1.0
 37
0.0
 76
     0
330
345
331
346
  0
LAYOUT
  5
2E1
102
{ACAD_REACTORS
330
167
102
}
330
167
100
AcDbPlotSettings
  1
A3
  2
\\GLUTZCH_PDC\HP LaserJet 5000 N PCL 6
  4
A3
  6

 40
5.027083396911621
 41
5.111741065979003
 42
5.11175537109375
 43
5.027069091796875
 44
297.0106506347656
 45
419.9889831542968
 46
0.0
 47
0.0
 48
0.0
 49
0.0
140
0.0
141
0.0
142
1.0
143
1.0
 70
   752
 72
     1
 73
     1
 74
     5
  7
LAA3.ctb
 75
    16
147
1.0
 76
     0
 77
     2
 78
   300
148
0.0
149
0.0
100
AcDbLayout
  1
A3
 70
     1
 71
     2
 10
-5.027069091796875
 20
-5.027083396911621
 11
414.9619140625
 21
291.983567237854
 12
0.0
 22
0.0
 32
0.0
 14
1.000000000000000E+20
 24
1.000000000000000E+20
 34
1.000000000000000E+20
 15
-1.000000000000000E+20
 25
-1.000000000000000E+20
 35
-1.000000000000000E+20
146
0.0
 13
0.0
 23
0.0
 33
0.0
 16
1.0
 26
0.0
 36
0.0
 17
0.0
 27
1.0
 37
0.0
 76
     0
330
2E0
331
31D
  0
LAYOUT
  5
16A
102
{ACAD_REACTORS
330
167
102
}
330
167
100
AcDbPlotSettings
  1
A4
  2
\\GLUTZCH_PDC\HP LaserJet 5000 N PCL 6
  4
A4
  6

 40
5.027083396911621
 41
5.111741065979003
 42
5.11175537109375
 43
5.027069091796875
 44
210.0156707763672
 45
297.0106506347656
 46
0.0
 47
0.0
 48
0.0
 49
0.0
140
0.0
141
0.0
142
1.0
143
1.0
 70
   752
 72
     1
 73
     0
 74
     5
  7
LAA4.ctb
 75
    16
147
1.0
 76
     0
 77
     2
 78
   300
148
0.0
149
0.0
100
AcDbLayout
  1
A4
 70
     1
 71
     1
 10
-5.027083396911621
 20
-5.111741065979003
 11
204.9885873794556
 21
291.8989095687866
 12
0.0
 22
0.0
 32
0.0
 14
1.000000000000000E+20
 24
1.000000000000000E+20
 34
1.000000000000000E+20
 15
-1.000000000000000E+20
 25
-1.000000000000000E+20
 35
-1.000000000000000E+20
146
0.0
 13
0.0
 23
0.0
 33
0.0
 16
1.0
 26
0.0
 36
0.0
 17
0.0
 27
1.0
 37
0.0
 76
     0
330
17
331
22
  0
LAYOUT
  5
169
102
{ACAD_REACTORS
330
167
102
}
330
167
100
AcDbPlotSettings
  1

  2
HP Laserjet 5000 N PCL 6.pc3
  4
A4
  6

 40
0.0
 41
0.0
 42
0.0
 43
0.0
 44
210.0
 45
297.0
 46
49.64492803630992
 47
88.47963727682175
 48
0.0
 49
0.0
140
0.0
141
0.0
142
1.0
143
2.0
 70
 11956
 72
     1
 73
     0
 74
     1
  7
v:\vorlagen\LAA4.ctb
 75
    17
147
0.5
 76
     1
 77
     2
 78
   300
148
211.8848745365381
149
91.82996447716014
100
AcDbLayout
  1
Model
 70
     1
 71
     0
 10
0.0
 20
0.0
 11
12.0
 21
9.0
 12
0.0
 22
0.0
 32
0.0
 14
0.0
 24
0.0
 34
0.0
 15
0.0
 25
0.0
 35
0.0
146
0.0
 13
0.0
 23
0.0
 33
0.0
 16
1.0
 26
0.0
 36
0.0
 17
0.0
 27
1.0
 37
0.0
 76
     0
330
1A
331
23BB
  0
MATERIAL
  5
23BE
102
{ACAD_REACTORS
330
22C3
102
}
330
22C3
100
AcDbMaterial
  1
ByBlock
 73
     1
 78
     1
172
     1
176
     1
270
     1
274
     1
 94
       63
  0
MATERIAL
  5
23BD
102
{ACAD_REACTORS
330
22C3
102
}
330
22C3
100
AcDbMaterial
  1
ByLayer
 73
     1
 78
     1
172
     1
176
     1
270
     1
274
     1
 94
       63
  0
MATERIAL
  5
23BF
102
{ACAD_REACTORS
330
22C3
102
}
330
22C3
100
AcDbMaterial
  1
Global
 73
     1
 78
     1
172
     1
176
     1
270
     1
274
     1
 94
       63
  0
MLEADERSTYLE
  5
29E2
102
{ACAD_REACTORS
330
29E1
102
}
330
29E1
100
AcDbMLeaderStyle
170
     2
171
     1
172
     0
 90
        2
 40
0.0
 41
0.0
173
     1
 91
-1056964608
340
14
 92
       -2
290
     1
 42
2.0
291
     1
 43
0.36
  3
Standard
 44
4.0
300

342
10
174
     1
178
     6
175
     1
176
     0
 93
-1056964608
 45
4.0
292
     0
297
     0
 46
4.0
 94
-1056964608
 47
1.0
 49
1.0
140
1.0
293
     1
141
0.0
294
     1
177
     0
142
1.0
295
     0
296
     0
143
0.125
1001
ACAD_MLEADERVER
1070
     2
  0
MLINESTYLE
  5
13
102
{ACAD_REACTORS
330
E
102
}
330
E
100
AcDbMlineStyle
  2
STANDARD
 70
     0
  3

 62
     0
 51
90.0
 52
90.0
 71
     2
 49
0.5
 62
   256
  6
BYLAYER
 49
-0.5
 62
   256
  6
BYLAYER
  0
PLOTSETTINGS
  5
2EE
102
{ACAD_REACTORS
330
168
102
}
330
168
100
AcDbPlotSettings
  1
A0
  2
HPDJ220-A0
  4
User268
  6

 40
4.995333194732666
 41
16.93336677551269
 42
4.99530029296875
 43
16.933349609375
 44
840.9093017578125
 45
1188.8046875
 46
0.0
 47
0.0
 48
0.0
 49
0.0
140
0.0
141
0.0
142
1.0
143
1.0
 70
   752
 72
     1
 73
     1
 74
     5
  7
PLA0.ctb
 75
    16
147
1.0
 76
     0
 77
     2
 78
   300
148
0.0
149
0.0
  0
PLOTSETTINGS
  5
2F2
102
{ACAD_REACTORS
330
168
102
}
330
168
100
AcDbPlotSettings
  1
A0-A3
  2
\\GLUTZCH_PDC\HP LaserJet 5000 N PCL 6
  4
A3
  6

 40
5.027083396911621
 41
5.111741065979003
 42
5.11175537109375
 43
5.027069091796875
 44
297.0106506347656
 45
419.9889831542968
 46
0.0
 47
0.0
 48
0.0
 49
0.0
140
0.0
141
0.0
142
1.0
143
1.0
 70
   752
 72
     1
 73
     1
 74
     5
  7
LAA0-A3.ctb
 75
     0
147
1.0
 76
     0
 77
     2
 78
   300
148
0.0
149
0.0
  0
PLOTSETTINGS
  5
2F3
102
{ACAD_REACTORS
330
168
102
}
330
168
100
AcDbPlotSettings
  1
A0-A4
  2
\\GLUTZCH_PDC\HP LaserJet 5000 N PCL 6
  4
A4
  6

 40
5.027083396911621
 41
5.111741065979003
 42
5.11175537109375
 43
5.027069091796875
 44
210.0156707763672
 45
297.0106506347656
 46
0.0
 47
0.0
 48
0.0
 49
0.0
140
0.0
141
0.0
142
1.0
143
1.0
 70
   752
 72
     1
 73
     0
 74
     5
  7
LAA0-A4.ctb
 75
     0
147
1.0
 76
     0
 77
     2
 78
   300
148
0.0
149
0.0
  0
PLOTSETTINGS
  5
2ED
102
{ACAD_REACTORS
330
168
102
}
330
168
100
AcDbPlotSettings
  1
A1
  2
HPDJ220-A0
  4
User267
  6

 40
4.995333194732666
 41
16.93330574035644
 42
4.99530029296875
 43
16.933349609375
 44
593.9366455078125
 45
840.8246459960937
 46
0.0
 47
0.0
 48
0.0
 49
0.0
140
0.0
141
0.0
142
1.0
143
1.0
 70
   752
 72
     1
 73
     1
 74
     5
  7
PLA1.ctb
 75
    16
147
1.0
 76
     0
 77
     2
 78
   300
148
0.0
149
0.0
  0
PLOTSETTINGS
  5
2EA
102
{ACAD_REACTORS
330
168
102
}
330
168
100
AcDbPlotSettings
  1
A2
  2
HPDJ220-A0
  4
User266
  6

 40
4.995333194732666
 41
16.93330574035644
 42
4.995330810546875
 43
16.933349609375
 44
419.9466552734374
 45
593.8519897460937
 46
0.0
 47
0.0
 48
0.0
 49
0.0
140
0.0
141
0.0
142
1.0
143
1.0
 70
   752
 72
     1
 73
     1
 74
     5
  7
PLA2.ctb
 75
    16
147
1.0
 76
     0
 77
     2
 78
   300
148
0.0
149
0.0
  0
PLOTSETTINGS
  5
31E
102
{ACAD_REACTORS
330
168
102
}
330
168
100
AcDbPlotSettings
  1
A3
  2
\\GLUTZCH_PDC\HP LaserJet 5000 N PCL 6
  4
A3
  6

 40
5.027083396911621
 41
5.111741065979003
 42
5.11175537109375
 43
5.027069091796875
 44
297.0106506347656
 45
419.9889831542968
 46
0.0
 47
0.0
 48
0.0
 49
0.0
140
0.0
141
0.0
142
1.0
143
1.0
 70
   752
 72
     1
 73
     1
 74
     5
  7
LAA3.ctb
 75
    16
147
1.0
 76
     0
 77
     2
 78
   300
148
0.0
149
0.0
  0
PLOTSETTINGS
  5
319
102
{ACAD_REACTORS
330
168
102
}
330
168
100
AcDbPlotSettings
  1
A4
  2
\\GLUTZCH_PDC\HP LaserJet 5000 N PCL 6
  4
A4
  6

 40
5.027083396911621
 41
5.111741065979003
 42
5.11175537109375
 43
5.027069091796875
 44
210.0156707763672
 45
297.0106506347656
 46
0.0
 47
0.0
 48
0.0
 49
0.0
140
0.0
141
0.0
142
1.0
143
1.0
 70
   752
 72
     1
 73
     0
 74
     5
  7
LAA4.ctb
 75
    16
147
1.0
 76
     0
 77
     2
 78
   300
148
0.0
149
0.0
  0
ACDBPLACEHOLDER
  5
166
102
{ACAD_REACTORS
330
165
102
}
330
165
  0
SCALE
  5
29C0
102
{ACAD_REACTORS
330
29BF
102
}
330
29BF
100
AcDbScale
 70
     0
300
1:1
140
1.0
141
1.0
290
     1
  0
SCALE
  5
29C1
102
{ACAD_REACTORS
330
29BF
102
}
330
29BF
100
AcDbScale
 70
     0
300
1:2
140
1.0
141
2.0
290
     0
  0
SCALE
  5
29C2
102
{ACAD_REACTORS
330
29BF
102
}
330
29BF
100
AcDbScale
 70
     0
300
1:4
140
1.0
141
4.0
290
     0
  0
SCALE
  5
29C3
102
{ACAD_REACTORS
330
29BF
102
}
330
29BF
100
AcDbScale
 70
     0
300
1:5
140
1.0
141
5.0
290
     0
  0
SCALE
  5
29C4
102
{ACAD_REACTORS
330
29BF
102
}
330
29BF
100
AcDbScale
 70
     0
300
1:8
140
1.0
141
8.0
290
     0
  0
SCALE
  5
29C5
102
{ACAD_REACTORS
330
29BF
102
}
330
29BF
100
AcDbScale
 70
     0
300
1:10
140
1.0
141
10.0
290
     0
  0
SCALE
  5
29C6
102
{ACAD_REACTORS
330
29BF
102
}
330
29BF
100
AcDbScale
 70
     0
300
1:16
140
1.0
141
16.0
290
     0
  0
SCALE
  5
29C7
102
{ACAD_REACTORS
330
29BF
102
}
330
29BF
100
AcDbScale
 70
     0
300
1:20
140
1.0
141
20.0
290
     0
  0
SCALE
  5
29C8
102
{ACAD_REACTORS
330
29BF
102
}
330
29BF
100
AcDbScale
 70
     0
300
1:30
140
1.0
141
30.0
290
     0
  0
SCALE
  5
29C9
102
{ACAD_REACTORS
330
29BF
102
}
330
29BF
100
AcDbScale
 70
     0
300
1:40
140
1.0
141
40.0
290
     0
  0
SCALE
  5
29CA
102
{ACAD_REACTORS
330
29BF
102
}
330
29BF
100
AcDbScale
 70
     0
300
1:50
140
1.0
141
50.0
290
     0
  0
SCALE
  5
29CB
102
{ACAD_REACTORS
330
29BF
102
}
330
29BF
100
AcDbScale
 70
     0
300
1:100
140
1.0
141
100.0
290
     0
  0
SCALE
  5
29CC
102
{ACAD_REACTORS
330
29BF
102
}
330
29BF
100
AcDbScale
 70
     0
300
2:1
140
2.0
141
1.0
290
     0
  0
SCALE
  5
29CD
102
{ACAD_REACTORS
330
29BF
102
}
330
29BF
100
AcDbScale
 70
     0
300
4:1
140
4.0
141
1.0
290
     0
  0
SCALE
  5
29CE
102
{ACAD_REACTORS
330
29BF
102
}
330
29BF
100
AcDbScale
 70
     0
300
8:1
140
8.0
141
1.0
290
     0
  0
SCALE
  5
29CF
102
{ACAD_REACTORS
330
29BF
102
}
330
29BF
100
AcDbScale
 70
     0
300
10:1
140
10.0
141
1.0
290
     0
  0
SCALE
  5
29D0
102
{ACAD_REACTORS
330
29BF
102
}
330
29BF
100
AcDbScale
 70
     0
300
100:1
140
100.0
141
1.0
290
     0
  0
SCALE
  5
29D1
102
{ACAD_REACTORS
330
29BF
102
}
330
29BF
100
AcDbScale
 70
     0
300
1/128" = 1'-0"
140
0.0078125
141
12.0
290
     0
  0
SCALE
  5
29D2
102
{ACAD_REACTORS
330
29BF
102
}
330
29BF
100
AcDbScale
 70
     0
300
1/64" = 1'-0"
140
0.015625
141
12.0
290
     0
  0
SCALE
  5
29D3
102
{ACAD_REACTORS
330
29BF
102
}
330
29BF
100
AcDbScale
 70
     0
300
1/32" = 1'-0"
140
0.03125
141
12.0
290
     0
  0
SCALE
  5
29D4
102
{ACAD_REACTORS
330
29BF
102
}
330
29BF
100
AcDbScale
 70
     0
300
1/16" = 1'-0"
140
0.0625
141
12.0
290
     0
  0
SCALE
  5
29D5
102
{ACAD_REACTORS
330
29BF
102
}
330
29BF
100
AcDbScale
 70
     0
300
3/32" = 1'-0"
140
0.09375
141
12.0
290
     0
  0
SCALE
  5
29D6
102
{ACAD_REACTORS
330
29BF
102
}
330
29BF
100
AcDbScale
 70
     0
300
1/8" = 1'-0"
140
0.125
141
12.0
290
     0
  0
SCALE
  5
29D7
102
{ACAD_REACTORS
330
29BF
102
}
330
29BF
100
AcDbScale
 70
     0
300
3/16" = 1'-0"
140
0.1875
141
12.0
290
     0
  0
SCALE
  5
29D8
102
{ACAD_REACTORS
330
29BF
102
}
330
29BF
100
AcDbScale
 70
     0
300
1/4" = 1'-0"
140
0.25
141
12.0
290
     0
  0
SCALE
  5
29D9
102
{ACAD_REACTORS
330
29BF
102
}
330
29BF
100
AcDbScale
 70
     0
300
3/8" = 1'-0"
140
0.375
141
12.0
290
     0
  0
SCALE
  5
29DA
102
{ACAD_REACTORS
330
29BF
102
}
330
29BF
100
AcDbScale
 70
     0
300
1/2" = 1'-0"
140
0.5
141
12.0
290
     0
  0
SCALE
  5
29DB
102
{ACAD_REACTORS
330
29BF
102
}
330
29BF
100
AcDbScale
 70
     0
300
3/4" = 1'-0"
140
0.75
141
12.0
290
     0
  0
SCALE
  5
29DC
102
{ACAD_REACTORS
330
29BF
102
}
330
29BF
100
AcDbScale
 70
     0
300
1" = 1'-0"
140
1.0
141
12.0
290
     0
  0
SCALE
  5
29DD
102
{ACAD_REACTORS
330
29BF
102
}
330
29BF
100
AcDbScale
 70
     0
300
1-1/2" = 1'-0"
140
1.5
141
12.0
290
     0
  0
SCALE
  5
29DE
102
{ACAD_REACTORS
330
29BF
102
}
330
29BF
100
AcDbScale
 70
     0
300
3" = 1'-0"
140
3.0
141
12.0
290
     0
  0
SCALE
  5
29DF
102
{ACAD_REACTORS
330
29BF
102
}
330
29BF
100
AcDbScale
 70
     0
300
6" = 1'-0"
140
6.0
141
12.0
290
     0
  0
SCALE
  5
29E0
102
{ACAD_REACTORS
330
29BF
102
}
330
29BF
100
AcDbScale
 70
     0
300
1'-0" = 1'-0"
140
12.0
141
12.0
290
     0
  0
TABLESTYLE
  5
23D2
102
{ACAD_XDICTIONARY
360
4F27
102
}
102
{ACAD_REACTORS
330
23D1
102
}
330
23D1
100
AcDbTableStyle
  3
Standard
 70
     0
 71
     0
 40
1.5
 41
1.5
280
     0
281
     0
  7
STANDARD
140
4.5
170
     2
 62
     0
 63
     7
283
     0
 90
      512
 91
        0
  1

274
    -2
284
     1
 64
     0
275
    -2
285
     1
 65
     0
276
    -2
286
     1
 66
     0
277
    -2
287
     1
 67
     0
278
    -2
288
     1
 68
     0
279
    -2
289
     1
 69
     0
  7
STANDARD
140
6.0
170
     5
 62
     0
 63
     7
283
     0
 90
      512
 91
        0
  1

274
    -2
284
     1
 64
     0
275
    -2
285
     1
 65
     0
276
    -2
286
     1
 66
     0
277
    -2
287
     1
 67
     0
278
    -2
288
     1
 68
     0
279
    -2
289
     1
 69
     0
  7
STANDARD
140
4.5
170
     5
 62
     0
 63
     7
283
     0
 90
      512
 91
        0
  1

274
    -2
284
     1
 64
     0
275
    -2
285
     1
 65
     0
276
    -2
286
     1
 66
     0
277
    -2
287
     1
 67
     0
278
    -2
288
     1
 68
     0
279
    -2
289
     1
 69
     0
  0
VISUALSTYLE
  5
23C6
102
{ACAD_REACTORS
330
23C0
102
}
330
23C0
100
AcDbVisualStyle
  2
2dWireframe
 70
     4
 71
     0
 72
     2
 73
     0
 90
        0
 40
-0.6
 41
-30.0
 62
     5
 63
     7
421
 16777215
 74
     1
 91
        4
 64
     7
 65
   257
 75
     1
175
     1
 42
1.0
 92
        0
 66
   257
 43
1.0
 76
     1
 77
     6
 78
     2
 67
     7
 79
     5
170
     0
171
     0
290
     0
174
     0
 93
        1
 44
0.0
173
     0
291
     0
 45
0.0
  0
VISUALSTYLE
  5
23C8
102
{ACAD_REACTORS
330
23C0
102
}
330
23C0
100
AcDbVisualStyle
  2
3D Hidden
 70
     6
 71
     1
 72
     2
 73
     2
 90
        0
 40
-0.6
 41
-30.0
 62
     5
 63
     7
421
 16777215
 74
     2
 91
        2
 64
     7
 65
   257
 75
     2
175
     1
 42
40.0
 92
        0
 66
   257
 43
1.0
 76
     1
 77
     6
 78
     2
 67
     7
 79
     3
170
     0
171
     0
290
     0
174
     0
 93
        1
 44
0.0
173
     0
291
     0
 45
0.0
  0
VISUALSTYLE
  5
23C7
102
{ACAD_REACTORS
330
23C0
102
}
330
23C0
100
AcDbVisualStyle
  2
3dWireframe
 70
     5
 71
     0
 72
     2
 73
     0
 90
        0
 40
-0.6
 41
-30.0
 62
     5
 63
     7
421
 16777215
 74
     1
 91
        4
 64
     7
 65
   257
 75
     1
175
     1
 42
1.0
 92
        0
 66
   257
 43
1.0
 76
     1
 77
     6
 78
     2
 67
     7
 79
     5
170
     0
171
     0
290
     0
174
     0
 93
        1
 44
0.0
173
     0
291
     0
 45
0.0
  0
VISUALSTYLE
  5
23C5
102
{ACAD_REACTORS
330
23C0
102
}
330
23C0
100
AcDbVisualStyle
  2
Basic
 70
     7
 71
     1
 72
     0
 73
     1
 90
        0
 40
-0.6
 41
-30.0
 62
     5
 63
     7
421
 16777215
 74
     0
 91
        4
 64
     7
 65
   257
 75
     1
175
     1
 42
1.0
 92
        8
 66
     7
 43
1.0
 76
     1
 77
     6
 78
     2
 67
     7
 79
     5
170
     0
171
     0
290
     0
174
     0
 93
        1
 44
0.0
173
     0
291
     1
 45
0.0
  0
VISUALSTYLE
  5
23CC
102
{ACAD_REACTORS
330
23C0
102
}
330
23C0
100
AcDbVisualStyle
  2
Brighten
 70
    12
 71
     2
 72
     2
 73
     0
 90
        0
 40
-0.6
 41
-30.0
 62
     5
 63
     7
421
 16777215
 74
     1
 91
        4
 64
     7
 65
   257
 75
     1
175
     1
 42
1.0
 92
        8
 66
     7
 43
1.0
 76
     1
 77
     6
 78
     2
 67
     7
 79
     5
170
     0
171
     0
290
     0
174
     0
 93
        1
 44
50.0
173
     0
291
     1
 45
0.0
  0
VISUALSTYLE
  5
23D0
102
{ACAD_REACTORS
330
23C0
102
}
330
23C0
100
AcDbVisualStyle
  2
ColorChange
 70
    16
 71
     2
 72
     2
 73
     3
 90
        0
 40
-0.6
 41
-30.0
 62
     5
 63
     8
421
  8421504
 74
     1
 91
        4
 64
     7
 65
   257
 75
     1
175
     1
 42
1.0
 92
        8
 66
     8
424
  8421504
 43
1.0
 76
     1
 77
     6
 78
     2
 67
     7
 79
     5
170
     0
171
     0
290
     0
174
     0
 93
        1
 44
0.0
173
     0
291
     1
 45
0.0
  0
VISUALSTYLE
  5
23C9
102
{ACAD_REACTORS
330
23C0
102
}
330
23C0
100
AcDbVisualStyle
  2
Conceptual
 70
     9
 71
     3
 72
     2
 73
     0
 90
        0
 40
-0.6
 41
-30.0
 62
     5
 63
     7
421
 16777215
 74
     2
 91
        2
 64
     7
 65
   257
 75
     1
175
     1
 42
40.0
 92
        8
 66
     7
 43
1.0
 76
     1
 77
     6
 78
     2
 67
     7
 79
     3
170
     0
171
     0
290
     0
174
     0
 93
        1
 44
0.0
173
     0
291
     0
 45
0.0
  0
VISUALSTYLE
  5
23CB
102
{ACAD_REACTORS
330
23C0
102
}
330
23C0
100
AcDbVisualStyle
  2
Dim
 70
    11
 71
     2
 72
     2
 73
     0
 90
        0
 40
-0.6
 41
-30.0
 62
     5
 63
     7
421
 16777215
 74
     1
 91
        4
 64
     7
 65
   257
 75
     1
175
     1
 42
1.0
 92
        8
 66
     7
 43
1.0
 76
     1
 77
     6
 78
     2
 67
     7
 79
     5
170
     0
171
     0
290
     0
174
     0
 93
        1
 44
-50.0
173
     0
291
     1
 45
0.0
  0
VISUALSTYLE
  5
23CF
102
{ACAD_REACTORS
330
23C0
102
}
330
23C0
100
AcDbVisualStyle
  2
Facepattern
 70
    15
 71
     2
 72
     2
 73
     0
 90
        0
 40
-0.6
 41
-30.0
 62
     5
 63
     7
421
 16777215
 74
     1
 91
        4
 64
     7
 65
   257
 75
     1
175
     1
 42
1.0
 92
        8
 66
     7
 43
1.0
 76
     1
 77
     6
 78
     2
 67
     7
 79
     5
170
     0
171
     0
290
     0
174
     0
 93
        1
 44
0.0
173
     0
291
     1
 45
0.0
  0
VISUALSTYLE
  5
23C1
102
{ACAD_REACTORS
330
23C0
102
}
330
23C0
100
AcDbVisualStyle
  2
Flat
 70
     0
 71
     2
 72
     1
 73
     1
 90
        2
 40
-0.6
 41
30.0
 62
     5
 63
     7
421
 16777215
 74
     0
 91
        4
 64
     7
 65
   257
 75
     1
175
     1
 42
1.0
 92
        8
 66
     7
 43
1.0
 76
     1
 77
     6
 78
     2
 67
     7
 79
     5
170
     0
171
     0
290
     0
174
     0
 93
       13
 44
0.0
173
     0
291
     1
 45
0.0
  0
VISUALSTYLE
  5
23C2
102
{ACAD_REACTORS
330
23C0
102
}
330
23C0
100
AcDbVisualStyle
  2
FlatWithEdges
 70
     1
 71
     2
 72
     1
 73
     1
 90
        2
 40
-0.6
 41
30.0
 62
     5
 63
     7
421
 16777215
 74
     1
 91
        4
 64
     7
 65
   257
 75
     1
175
     1
 42
1.0
 92
        0
 66
   257
 43
1.0
 76
     1
 77
     6
 78
     2
 67
     7
 79
     5
170
     0
171
     0
290
     0
174
     0
 93
       13
 44
0.0
173
     0
291
     1
 45
0.0
  0
VISUALSTYLE
  5
23C3
102
{ACAD_REACTORS
330
23C0
102
}
330
23C0
100
AcDbVisualStyle
  2
Gouraud
 70
     2
 71
     2
 72
     2
 73
     1
 90
        2
 40
-0.6
 41
30.0
 62
     5
 63
     7
421
 16777215
 74
     0
 91
        4
 64
     7
 65
   257
 75
     1
175
     1
 42
1.0
 92
        0
 66
     7
 43
1.0
 76
     1
 77
     6
 78
     2
 67
     7
 79
     5
170
     0
171
     0
290
     0
174
     0
 93
       13
 44
0.0
173
     0
291
     1
 45
0.0
  0
VISUALSTYLE
  5
23C4
102
{ACAD_REACTORS
330
23C0
102
}
330
23C0
100
AcDbVisualStyle
  2
GouraudWithEdges
 70
     3
 71
     2
 72
     2
 73
     1
 90
        2
 40
-0.6
 41
30.0
 62
     5
 63
     7
421
 16777215
 74
     1
 91
        4
 64
     7
 65
   257
 75
     1
175
     1
 42
1.0
 92
        0
 66
   257
 43
1.0
 76
     1
 77
     6
 78
     2
 67
     7
 79
     5
170
     0
171
     0
290
     0
174
     0
 93
       13
 44
0.0
173
     0
291
     1
 45
0.0
  0
VISUALSTYLE
  5
23CE
102
{ACAD_REACTORS
330
23C0
102
}
330
23C0
100
AcDbVisualStyle
  2
Linepattern
 70
    14
 71
     2
 72
     2
 73
     0
 90
        0
 40
-0.6
 41
-30.0
 62
     5
 63
     7
421
 16777215
 74
     1
 91
        4
 64
     7
 65
   257
 75
     7
175
     7
 42
1.0
 92
        8
 66
     7
 43
1.0
 76
     1
 77
     6
 78
     2
 67
     7
 79
     5
170
     0
171
     0
290
     0
174
     0
 93
        1
 44
0.0
173
     0
291
     1
 45
0.0
  0
VISUALSTYLE
  5
23CA
102
{ACAD_REACTORS
330
23C0
102
}
330
23C0
100
AcDbVisualStyle
  2
Realistic
 70
     8
 71
     2
 72
     2
 73
     0
 90
        0
 40
-0.6
 41
-30.0
 62
     5
 63
     7
421
 16777215
 74
     1
 91
        0
 64
     7
 65
   257
 75
     1
175
     1
 42
1.0
 92
        8
 66
     8
424
  7895160
 43
1.0
 76
     1
 77
     6
 78
     2
 67
     7
 79
     5
170
     0
171
     0
290
     0
174
     0
 93
       13
 44
0.0
173
     0
291
     0
 45
0.0
  0
VISUALSTYLE
  5
23CD
102
{ACAD_REACTORS
330
23C0
102
}
330
23C0
100
AcDbVisualStyle
  2
Thicken
 70
    13
 71
     2
 72
     2
 73
     0
 90
        0
 40
-0.6
 41
-30.0
 62
     5
 63
     7
421
 16777215
 74
     1
 91
        4
 64
     7
 65
   257
 75
     1
175
     1
 42
1.0
 92
       12
 66
     7
 43
1.0
 76
     1
 77
     6
 78
     2
 67
     7
 79
     5
170
     0
171
     0
290
     0
174
     0
 93
        1
 44
0.0
173
     0
291
     1
 45
0.0
  0
DICTIONARYVAR
  5
4F2C
102
{ACAD_REACTORS
330
5D
102
}
330
5D
100
DictionaryVariables
280
     0
  1
1:1
  0
DICTIONARYVAR
  5
4F2A
102
{ACAD_REACTORS
330
5D
102
}
330
5D
100
DictionaryVariables
280
     0
  1
STANDARD
  0
DICTIONARYVAR
  5
2572
102
{ACAD_REACTORS
330
5D
102
}
330
5D
100
DictionaryVariables
280
     0
  1
STANDARD
  0
DICTIONARYVAR
  5
5E
102
{ACAD_REACTORS
330
5D
102
}
330
5D
100
DictionaryVariables
280
     0
  1
0
  0
DICTIONARYVAR
  5
1ED9
102
{ACAD_REACTORS
330
5D
102
}
330
5D
100
DictionaryVariables
280
     0
  1
1
  0
DICTIONARYVAR
  5
128
102
{ACAD_REACTORS
330
5D
102
}
330
5D
100
DictionaryVariables
280
     0
  1
1
  0
DICTIONARYVAR
  5
5046
102
{ACAD_REACTORS
330
5D
102
}
330
5D
100
DictionaryVariables
280
     0
  1
1
  0
DICTIONARYVAR
  5
5047
102
{ACAD_REACTORS
330
5D
102
}
330
5D
100
DictionaryVariables
280
     0
  1
15
  0
DICTIONARYVAR
  5
4F2D
102
{ACAD_REACTORS
330
5D
102
}
330
5D
100
DictionaryVariables
280
     0
  1
0
  0
DICTIONARYVAR
  5
4F2B
102
{ACAD_REACTORS
330
5D
102
}
330
5D
100
DictionaryVariables
280
     0
  1
0
  0
DICTIONARYVAR
  5
1044
102
{ACAD_REACTORS
330
5D
102
}
330
5D
100
DictionaryVariables
280
     0
  1
96
  0
DICTIONARY
  5
143
102
{ACAD_REACTORS
330
142
102
}
330
142
100
AcDbDictionary
281
     1
  0
XRECORD
  5
23F3
102
{ACAD_REACTORS
330
142
102
}
330
142
100
AcDbXrecord
280
     1
 90
-1023410169
  0
DICTIONARY
  5
172
102
{ACAD_REACTORS
330
171
102
}
330
171
100
AcDbDictionary
281
     1
  3
DWGSETTINGS
350
173
  3
FEM
350
3A0
  3
Shaft
350
393
  3
TRANSSETTINGS
350
17D
  0
DICTIONARY
  5
18A9
102
{ACAD_REACTORS
330
18A8
102
}
330
18A8
100
AcDbDictionary
281
     1
  0
ACAMGFILTERDAT
  5
164B
102
{ACAD_REACTORS
330
1F2
102
}
330
1F2
100
AcAmgFilterDat
 70
    15
  1
DIMENSION,AMDT_*_DIM
  2
*
  3
*
  4
*
  5
*
290
     1
  0
ACAMGFILTERDAT
  5
164C
102
{ACAD_REACTORS
330
1F2
102
}
330
1F2
100
AcAmgFilterDat
 70
    15
  1
*
  2
AM_FEA-AM_*
  3
*
  4
*
  5
*
290
     1
  0
ACAMGFILTERDAT
  5
164D
102
{ACAD_REACTORS
330
1F2
102
}
330
1F2
100
AcAmgFilterDat
 70
    15
  1
HATCH
  2
*
  3
*
  4
*
  5
*
290
     1
  0
ACAMGFILTERDAT
  5
164E
102
{ACAD_REACTORS
330
1F2
102
}
330
1F2
100
AcAmgFilterDat
 70
    15
  1
ACMFCFRAME,ACMDATUMTARGET,ACMDATUMID,ACMWELDSYM,ACMSURFSYM,ACMFEATID,ACMPARTREF,ACMBALLOON
  2
*
  3
*
  4
*
  5
*
290
     1
  0
LAYER_INDEX
  5
17BF
102
{ACAD_REACTORS
330
17BE
102
}
330
17BE
100
AcDbIndex
 40
2454866.347162686
100
AcDbLayerIndex
  8
0
360
17C0
 90
        4
  8
AM_0
360
17C1
 90
        0
  8
AM_1
360
17C2
 90
        0
  8
AM_2
360
17C3
 90
        0
  8
AM_3
360
17C4
 90
        0
  8
AM_4
360
17C5
 90
        0
  8
AM_5
360
17C6
 90
        9
  8
AM_6
360
17C7
 90
        1
  8
AM_7
360
17C8
 90
        0
  8
AM_8
360
17C9
 90
        0
  8
AM_FR
360
17CA
 90
        0
  8
ASHADE
360
17CB
 90
        9
  8
AM_WORK
360
17CC
 90
        0
  8
AM_CL
360
17CD
 90
        0
  8
Defpoints
360
17CE
 90
        0
  8
ASRF_TMP
360
17CF
 90
        0
  8
AM_VIEWS
360
17D0
 90
        1
  8
AM_VIS
360
17D1
 90
        0
  8
AM_HID
360
17D2
 90
        0
  8
AM_PARDIM
360
17D3
 90
        0
  8
AmdtBRLock
360
196B
 90
        0
  8
5
360
1E80
 90
        0
  8
1
360
1E81
 90
        0
  8
7
360
1E82
 90
        7
  8
3A
360
20C5
 90
        0
  8
7A
360
2970
 90
        0
  8
Sichtbare Kanten(ISO-ZOPH)
360
3701
 90
       32
  8
Sichtbare tangentiale Kanten(ISO-ZOPH)
360
3702
 90
       35
  8
Verdeckte Kanten(ISO-ZOPH)
360
3703
 90
        5
  8
Verdeckte tangentiale Kanten(ISO-ZOPH)
360
3704
 90
        9
  0
DICTIONARY
  5
4F27
330
23D2
100
AcDbDictionary
280
     1
281
     1
  3
ACAD_ROUNDTRIP_2008_TABLESTYLE_CELLSTYLEMAP
360
5048
  0
IDBUFFER
  5
17C0
330
0
100
AcDbIdBuffer
330
1677
330
4DBB
330
4DBC
330
4DBD
  0
IDBUFFER
  5
17C1
330
0
100
AcDbIdBuffer
  0
IDBUFFER
  5
17C2
330
0
100
AcDbIdBuffer
  0
IDBUFFER
  5
17C3
330
0
100
AcDbIdBuffer
  0
IDBUFFER
  5
17C4
330
0
100
AcDbIdBuffer
  0
IDBUFFER
  5
17C5
330
0
100
AcDbIdBuffer
  0
IDBUFFER
  5
17C6
330
0
100
AcDbIdBuffer
330
4DC5
330
4DEF
330
4E10
330
4E31
330
4E52
330
4E79
330
4EA0
330
4ECA
330
4EEB
  0
IDBUFFER
  5
17C7
330
0
100
AcDbIdBuffer
330
289E
  0
IDBUFFER
  5
17C8
330
0
100
AcDbIdBuffer
  0
IDBUFFER
  5
17C9
330
0
100
AcDbIdBuffer
  0
IDBUFFER
  5
17CA
330
0
100
AcDbIdBuffer
  0
IDBUFFER
  5
17CB
330
0
100
AcDbIdBuffer
330
3FB
330
3FC
330
3FD
330
3FE
330
3FF
330
400
330
401
330
402
330
409
  0
IDBUFFER
  5
17CC
330
0
100
AcDbIdBuffer
  0
IDBUFFER
  5
17CD
330
0
100
AcDbIdBuffer
  0
IDBUFFER
  5
17CE
330
0
100
AcDbIdBuffer
  0
IDBUFFER
  5
17CF
330
0
100
AcDbIdBuffer
  0
IDBUFFER
  5
17D0
330
0
100
AcDbIdBuffer
330
1B95
  0
IDBUFFER
  5
17D1
330
0
100
AcDbIdBuffer
  0
IDBUFFER
  5
17D2
330
0
100
AcDbIdBuffer
  0
IDBUFFER
  5
17D3
330
0
100
AcDbIdBuffer
  0
IDBUFFER
  5
196B
330
0
100
AcDbIdBuffer
  0
IDBUFFER
  5
1E80
330
0
100
AcDbIdBuffer
  0
IDBUFFER
  5
1E81
330
0
100
AcDbIdBuffer
  0
IDBUFFER
  5
1E82
330
0
100
AcDbIdBuffer
330
4DBE
330
4DBF
330
4DC0
330
4DC1
330
4DC2
330
4DC3
330
4DC4
  0
IDBUFFER
  5
20C5
330
0
100
AcDbIdBuffer
  0
IDBUFFER
  5
2970
330
0
100
AcDbIdBuffer
  0
IDBUFFER
  5
3701
330
0
100
AcDbIdBuffer
330
418E
330
430C
330
431C
330
45FF
330
4604
330
460F
330
461A
330
461F
330
4624
330
4629
330
462E
330
4806
330
48AE
330
48B1
330
48B2
330
4AA3
330
4AA4
330
4AA7
330
4AA8
330
4AAC
330
4AAE
330
4AB0
330
4AB1
330
4AB2
330
4AB3
330
4AB4
330
4AB5
330
4ABE
330
4ABF
330
4AC0
330
4AC2
330
4AC3
  0
IDBUFFER
  5
3702
330
0
100
AcDbIdBuffer
330
432A
330
43B1
330
43CD
330
4466
330
4467
330
44F4
330
450F
330
4510
330
452C
330
4547
330
4548
330
456B
330
4586
330
45A1
330
47B4
330
47B5
330
47B6
330
47B7
330
47B8
330
47B9
330
47BA
330
47BB
330
47BC
330
47BD
330
47BE
330
47BF
330
47C0
330
47C1
330
47C2
330
47C3
330
4AA9
330
4AAA
330
4AAB
330
4AAD
330
4AAF
  0
IDBUFFER
  5
3703
330
0
100
AcDbIdBuffer
330
4212
330
427F
330
42B7
330
42D2
330
42ED
  0
IDBUFFER
  5
3704
330
0
100
AcDbIdBuffer
330
41C0
330
41DB
330
429A
330
42B6
330
4308
330
4309
330
46FC
330
4722
330
4762
  0
CELLSTYLEMAP
  5
5048
102
{ACAD_REACTORS
330
4F27
102
}
330
4F27
100
AcDbCellStyleMap
 90
        3
300
CELLSTYLE
  1
TABLEFORMAT_BEGIN
 90
        5
170
     1
 91
        0
 92
    32768
 62
   257
 93
        1
300
CONTENTFORMAT
  1
CONTENTFORMAT_BEGIN
 90
        0
 91
        0
 92
      512
 93
        0
300

 40
0.0
140
1.0
 94
        5
 62
     0
340
10
144
6.0
309
CONTENTFORMAT_END
171
     1
301
MARGIN
  1
CELLMARGIN_BEGIN
 40
1.5
 40
1.5
 40
1.5
 40
1.5
 40
0.18
 40
0.18
309
CELLMARGIN_END
 94
        6
 95
        1
302
GRIDFORMAT
  1
GRIDFORMAT_BEGIN
 90
        0
 91
        1
 62
     0
 92
       -2
340
0
 93
        0
 40
0.045
309
GRIDFORMAT_END
 95
        2
302
GRIDFORMAT
  1
GRIDFORMAT_BEGIN
 90
        0
 91
        1
 62
     0
 92
       -2
340
0
 93
        0
 40
0.045
309
GRIDFORMAT_END
 95
        4
302
GRIDFORMAT
  1
GRIDFORMAT_BEGIN
 90
        0
 91
        1
 62
     0
 92
       -2
340
0
 93
        0
 40
0.045
309
GRIDFORMAT_END
 95
        8
302
GRIDFORMAT
  1
GRIDFORMAT_BEGIN
 90
        0
 91
        1
 62
     0
 92
       -2
340
0
 93
        0
 40
0.045
309
GRIDFORMAT_END
 95
       16
302
GRIDFORMAT
  1
GRIDFORMAT_BEGIN
 90
        0
 91
        1
 62
     0
 92
       -2
340
0
 93
        0
 40
0.045
309
GRIDFORMAT_END
 95
       32
302
GRIDFORMAT
  1
GRIDFORMAT_BEGIN
 90
        0
 91
        1
 62
     0
 92
       -2
340
0
 93
        0
 40
0.045
309
GRIDFORMAT_END
309
TABLEFORMAT_END
  1
CELLSTYLE_BEGIN
 90
        1
 91
        1
300
_TITLE
309
CELLSTYLE_END
300
CELLSTYLE
  1
TABLEFORMAT_BEGIN
 90
        5
170
     1
 91
        0
 92
        0
 62
   257
 93
        1
300
CONTENTFORMAT
  1
CONTENTFORMAT_BEGIN
 90
        0
 91
        0
 92
      512
 93
        0
300

 40
0.0
140
1.0
 94
        5
 62
     0
340
10
144
4.5
309
CONTENTFORMAT_END
171
     1
301
MARGIN
  1
CELLMARGIN_BEGIN
 40
1.5
 40
1.5
 40
1.5
 40
1.5
 40
0.18
 40
0.18
309
CELLMARGIN_END
 94
        6
 95
        1
302
GRIDFORMAT
  1
GRIDFORMAT_BEGIN
 90
        0
 91
        1
 62
     0
 92
       -2
340
0
 93
        0
 40
0.045
309
GRIDFORMAT_END
 95
        2
302
GRIDFORMAT
  1
GRIDFORMAT_BEGIN
 90
        0
 91
        1
 62
     0
 92
       -2
340
0
 93
        0
 40
0.045
309
GRIDFORMAT_END
 95
        4
302
GRIDFORMAT
  1
GRIDFORMAT_BEGIN
 90
        0
 91
        1
 62
     0
 92
       -2
340
0
 93
        0
 40
0.045
309
GRIDFORMAT_END
 95
        8
302
GRIDFORMAT
  1
GRIDFORMAT_BEGIN
 90
        0
 91
        1
 62
     0
 92
       -2
340
0
 93
        0
 40
0.045
309
GRIDFORMAT_END
 95
       16
302
GRIDFORMAT
  1
GRIDFORMAT_BEGIN
 90
        0
 91
        1
 62
     0
 92
       -2
340
0
 93
        0
 40
0.045
309
GRIDFORMAT_END
 95
       32
302
GRIDFORMAT
  1
GRIDFORMAT_BEGIN
 90
        0
 91
        1
 62
     0
 92
       -2
340
0
 93
        0
 40
0.045
309
GRIDFORMAT_END
309
TABLEFORMAT_END
  1
CELLSTYLE_BEGIN
 90
        2
 91
        1
300
_HEADER
309
CELLSTYLE_END
300
CELLSTYLE
  1
TABLEFORMAT_BEGIN
 90
        5
170
     1
 91
        0
 92
        0
 62
   257
 93
        1
300
CONTENTFORMAT
  1
CONTENTFORMAT_BEGIN
 90
        0
 91
        0
 92
      512
 93
        0
300

 40
0.0
140
1.0
 94
        2
 62
     0
340
10
144
4.5
309
CONTENTFORMAT_END
171
     1
301
MARGIN
  1
CELLMARGIN_BEGIN
 40
1.5
 40
1.5
 40
1.5
 40
1.5
 40
0.18
 40
0.18
309
CELLMARGIN_END
 94
        6
 95
        1
302
GRIDFORMAT
  1
GRIDFORMAT_BEGIN
 90
        0
 91
        1
 62
     0
 92
       -2
340
0
 93
        0
 40
0.045
309
GRIDFORMAT_END
 95
        2
302
GRIDFORMAT
  1
GRIDFORMAT_BEGIN
 90
        0
 91
        1
 62
     0
 92
       -2
340
0
 93
        0
 40
0.045
309
GRIDFORMAT_END
 95
        4
302
GRIDFORMAT
  1
GRIDFORMAT_BEGIN
 90
        0
 91
        1
 62
     0
 92
       -2
340
0
 93
        0
 40
0.045
309
GRIDFORMAT_END
 95
        8
302
GRIDFORMAT
  1
GRIDFORMAT_BEGIN
 90
        0
 91
        1
 62
     0
 92
       -2
340
0
 93
        0
 40
0.045
309
GRIDFORMAT_END
 95
       16
302
GRIDFORMAT
  1
GRIDFORMAT_BEGIN
 90
        0
 91
        1
 62
     0
 92
       -2
340
0
 93
        0
 40
0.045
309
GRIDFORMAT_END
 95
       32
302
GRIDFORMAT
  1
GRIDFORMAT_BEGIN
 90
        0
 91
        1
 62
     0
 92
       -2
340
0
 93
        0
 40
0.045
309
GRIDFORMAT_END
309
TABLEFORMAT_END
  1
CELLSTYLE_BEGIN
 90
        3
 91
        2
300
_DATA
309
CELLSTYLE_END
  0
ENDSEC
  0
EOF
