  0
SECTION
  2
HEADER
  9
$ACADVER
  1
AC1021
  9
$ACADMAINTVER
 70
    52
  9
$DWGCODEPAGE
  3
ANSI_1252
  9
$LASTSAVEDBY
  1
bup
  9
$CUSTOMPROPERTYTAG
  1
AmdtFileType
  9
$CUSTOMPROPERTY
  1
83
  9
$INSBASE
 10
0.0
 20
0.0
 30
0.0
  9
$EXTMIN
 10
-9.045762499763554
 20
-12.22754789266764
 30
0.0
  9
$EXTMAX
 10
359.4041011814528
 20
305.255061680507
 30
0.0
  9
$LIMMIN
 10
0.0
 20
0.0
  9
$LIMMAX
 10
420.0
 20
297.0
  9
$ORTHOMODE
 70
     0
  9
$REGENMODE
 70
     1
  9
$FILLMODE
 70
     1
  9
$QTEXTMODE
 70
     0
  9
$MIRRTEXT
 70
     1
  9
$LTSCALE
 40
1.0
  9
$ATTMODE
 70
     1
  9
$TEXTSIZE
 40
3.5
  9
$TRACEWID
 40
1.0
  9
$TEXTSTYLE
  7
STANDARD
  9
$CLAYER
  8
AM_7
  9
$CELTYPE
  6
BYLAYER
  9
$CECOLOR
 62
   256
  9
$CELTSCALE
 40
1.0
  9
$DISPSILH
 70
     0
  9
$DIMSCALE
 40
2.0
  9
$DIMASZ
 40
3.0
  9
$DIMEXO
 40
0.0
  9
$DIMDLI
 40
10.0
  9
$DIMRND
 40
0.0
  9
$DIMDLE
 40
0.0
  9
$DIMEXE
 40
1.0
  9
$DIMTP
 40
0.1
  9
$DIMTM
 40
0.1
  9
$DIMTXT
 40
3.5
  9
$DIMCEN
 40
0.0
  9
$DIMTSZ
 40
0.0
  9
$DIMTOL
 70
     0
  9
$DIMLIM
 70
     0
  9
$DIMTIH
 70
     0
  9
$DIMTOH
 70
     0
  9
$DIMSE1
 70
     0
  9
$DIMSE2
 70
     0
  9
$DIMTAD
 70
     1
  9
$DIMZIN
 70
     8
  9
$DIMBLK
  1

  9
$DIMASO
 70
     1
  9
$DIMSHO
 70
     1
  9
$DIMPOST
  1

  9
$DIMAPOST
  1
"
  9
$DIMALT
 70
     0
  9
$DIMALTD
 70
     2
  9
$DIMALTF
 40
0.0393701
  9
$DIMLFAC
 40
1.0
  9
$DIMTOFL
 70
     1
  9
$DIMTVP
 40
0.0
  9
$DIMTIX
 70
     0
  9
$DIMSOXD
 70
     0
  9
$DIMSAH
 70
     0
  9
$DIMBLK1
  1

  9
$DIMBLK2
  1

  9
$DIMSTYLE
  2
AM_ISO
  9
$DIMCLRD
 70
   256
  9
$DIMCLRE
 70
   256
  9
$DIMCLRT
 70
     2
  9
$DIMTFAC
 40
0.71
  9
$DIMGAP
 40
1.5
  9
$DIMJUST
 70
     0
  9
$DIMSD1
 70
     0
  9
$DIMSD2
 70
     0
  9
$DIMTOLJ
 70
     0
  9
$DIMTZIN
 70
     0
  9
$DIMALTZ
 70
     0
  9
$DIMALTTZ
 70
     0
  9
$DIMUPT
 70
     0
  9
$DIMDEC
 70
     0
  9
$DIMTDEC
 70
     2
  9
$DIMALTU
 70
     2
  9
$DIMALTTD
 70
     2
  9
$DIMTXSTY
  7
STANDARD
  9
$DIMAUNIT
 70
     0
  9
$DIMADEC
 70
     0
  9
$DIMALTRND
 40
0.0
  9
$DIMAZIN
 70
     2
  9
$DIMDSEP
 70
    46
  9
$DIMATFIT
 70
     3
  9
$DIMFRAC
 70
     0
  9
$DIMLDRBLK
  1

  9
$DIMLUNIT
 70
     2
  9
$DIMLWD
 70
    -1
  9
$DIMLWE
 70
    -1
  9
$DIMTMOVE
 70
     0
  9
$DIMFXL
 40
1.0
  9
$DIMFXLON
 70
     0
  9
$DIMJOGANG
 40
0.7853981633974483
  9
$DIMTFILL
 70
     0
  9
$DIMTFILLCLR
 70
     0
  9
$DIMARCSYM
 70
     0
  9
$DIMLTYPE
  6

  9
$DIMLTEX1
  6

  9
$DIMLTEX2
  6

  9
$LUNITS
 70
     2
  9
$LUPREC
 70
     4
  9
$SKETCHINC
 40
1.0
  9
$FILLETRAD
 40
0.0
  9
$AUNITS
 70
     0
  9
$AUPREC
 70
     2
  9
$MENU
  1
.
  9
$ELEVATION
 40
0.0
  9
$PELEVATION
 40
0.0
  9
$THICKNESS
 40
0.0
  9
$LIMCHECK
 70
     0
  9
$CHAMFERA
 40
10.0
  9
$CHAMFERB
 40
10.0
  9
$CHAMFERC
 40
20.0
  9
$CHAMFERD
 40
0.0
  9
$SKPOLY
 70
     1
  9
$TDCREATE
 40
2452060.512110868
  9
$TDUCREATE
 40
2452060.470444202
  9
$TDUPDATE
 40
2454866.345190509
  9
$TDUUPDATE
 40
2454866.303523843
  9
$TDINDWG
 40
0.1954874537
  9
$TDUSRTIMER
 40
0.1954873380
  9
$USRTIMER
 70
     1
  9
$ANGBASE
 50
0.0
  9
$ANGDIR
 70
     0
  9
$PDMODE
 70
     0
  9
$PDSIZE
 40
0.0
  9
$PLINEWID
 40
0.0
  9
$SPLFRAME
 70
     0
  9
$SPLINETYPE
 70
     6
  9
$SPLINESEGS
 70
    16
  9
$HANDSEED
  5
38EA
  9
$SURFTAB1
 70
     6
  9
$SURFTAB2
 70
     6
  9
$SURFTYPE
 70
     6
  9
$SURFU
 70
     6
  9
$SURFV
 70
     6
  9
$UCSBASE
  2

  9
$UCSNAME
  2

  9
$UCSORG
 10
0.0
 20
0.0
 30
0.0
  9
$UCSXDIR
 10
1.0
 20
0.0
 30
0.0
  9
$UCSYDIR
 10
0.0
 20
1.0
 30
0.0
  9
$UCSORTHOREF
  2

  9
$UCSORTHOVIEW
 70
     0
  9
$UCSORGTOP
 10
0.0
 20
0.0
 30
0.0
  9
$UCSORGBOTTOM
 10
0.0
 20
0.0
 30
0.0
  9
$UCSORGLEFT
 10
0.0
 20
0.0
 30
0.0
  9
$UCSORGRIGHT
 10
0.0
 20
0.0
 30
0.0
  9
$UCSORGFRONT
 10
0.0
 20
0.0
 30
0.0
  9
$UCSORGBACK
 10
0.0
 20
0.0
 30
0.0
  9
$PUCSBASE
  2

  9
$PUCSNAME
  2

  9
$PUCSORG
 10
0.0
 20
0.0
 30
0.0
  9
$PUCSXDIR
 10
1.0
 20
0.0
 30
0.0
  9
$PUCSYDIR
 10
0.0
 20
1.0
 30
0.0
  9
$PUCSORTHOREF
  2

  9
$PUCSORTHOVIEW
 70
     0
  9
$PUCSORGTOP
 10
0.0
 20
0.0
 30
0.0
  9
$PUCSORGBOTTOM
 10
0.0
 20
0.0
 30
0.0
  9
$PUCSORGLEFT
 10
0.0
 20
0.0
 30
0.0
  9
$PUCSORGRIGHT
 10
0.0
 20
0.0
 30
0.0
  9
$PUCSORGFRONT
 10
0.0
 20
0.0
 30
0.0
  9
$PUCSORGBACK
 10
0.0
 20
0.0
 30
0.0
  9
$USERI1
 70
     0
  9
$USERI2
 70
     0
  9
$USERI3
 70
     0
  9
$USERI4
 70
     0
  9
$USERI5
 70
     0
  9
$USERR1
 40
0.0
  9
$USERR2
 40
0.0
  9
$USERR3
 40
0.0
  9
$USERR4
 40
0.0
  9
$USERR5
 40
0.0
  9
$WORLDVIEW
 70
     1
  9
$SHADEDGE
 70
     3
  9
$SHADEDIF
 70
    70
  9
$TILEMODE
 70
     1
  9
$MAXACTVP
 70
    48
  9
$PINSBASE
 10
0.0
 20
0.0
 30
0.0
  9
$PLIMCHECK
 70
     0
  9
$PEXTMIN
 10
1.000000000000000E+20
 20
1.000000000000000E+20
 30
1.000000000000000E+20
  9
$PEXTMAX
 10
-1.000000000000000E+20
 20
-1.000000000000000E+20
 30
-1.000000000000000E+20
  9
$PLIMMIN
 10
-5.027083396911621
 20
-5.111741065979003
  9
$PLIMMAX
 10
204.9885873794556
 20
291.8989095687866
  9
$UNITMODE
 70
     0
  9
$VISRETAIN
 70
     1
  9
$PLINEGEN
 70
     0
  9
$PSLTSCALE
 70
     1
  9
$TREEDEPTH
 70
  3020
  9
$CMLSTYLE
  2
STANDARD
  9
$CMLJUST
 70
     0
  9
$CMLSCALE
 40
1.0
  9
$PROXYGRAPHICS
 70
     1
  9
$MEASUREMENT
 70
     1
  9
$CELWEIGHT
370
    -1
  9
$ENDCAPS
280
     0
  9
$JOINSTYLE
280
     0
  9
$LWDISPLAY
290
     0
  9
$INSUNITS
 70
     0
  9
$HYPERLINKBASE
  1

  9
$STYLESHEET
  1
LAA4.ctb
  9
$XEDIT
290
     1
  9
$CEPSNTYPE
380
     0
  9
$PSTYLEMODE
290
     1
  9
$FINGERPRINTGUID
  2
{9DE0F4BE-022B-11D3-8698-0060B085A428}
  9
$VERSIONGUID
  2
{85136D1B-616E-46BC-9C04-91C85A801CCB}
  9
$EXTNAMES
290
     1
  9
$PSVPSCALE
 40
0.0
  9
$OLESTARTUP
290
     0
  9
$SORTENTS
280
    96
  9
$INDEXCTL
280
     1
  9
$HIDETEXT
280
     0
  9
$XCLIPFRAME
290
     0
  9
$HALOGAP
280
     0
  9
$OBSCOLOR
 70
   257
  9
$OBSLTYPE
280
     0
  9
$INTERSECTIONDISPLAY
280
     0
  9
$INTERSECTIONCOLOR
 70
   257
  9
$DIMASSOC
280
     2
  9
$PROJECTNAME
  1

  9
$CAMERADISPLAY
290
     0
  9
$LENSLENGTH
 40
50.0
  9
$CAMERAHEIGHT
 40
0.0
  9
$STEPSPERSEC
 40
2.0
  9
$STEPSIZE
 40
6.0
  9
$3DDWFPREC
 40
2.0
  9
$PSOLWIDTH
 40
0.25
  9
$PSOLHEIGHT
 40
4.0
  9
$LOFTANG1
 40
1.570796326794896
  9
$LOFTANG2
 40
1.570796326794896
  9
$LOFTMAG1
 40
0.0
  9
$LOFTMAG2
 40
0.0
  9
$LOFTPARAM
 70
     7
  9
$LOFTNORMALS
280
     1
  9
$LATITUDE
 40
37.795
  9
$LONGITUDE
 40
-122.394
  9
$NORTHDIRECTION
 40
0.0
  9
$TIMEZONE
 70
 -8000
  9
$LIGHTGLYPHDISPLAY
280
     1
  9
$TILEMODELIGHTSYNCH
280
     1
  9
$CMATERIAL
347
23BD
  9
$SOLIDHIST
280
     1
  9
$SHOWHIST
280
     1
  9
$DWFFRAME
280
     2
  9
$DGNFRAME
280
     0
  9
$REALWORLDSCALE
290
     1
  9
$INTERFERECOLOR
 62
     1
  9
$INTERFEREOBJVS
345
23CA
  9
$INTERFEREVPVS
346
23C7
  9
$CSHADOW
280
     0
  9
$SHADOWPLANELOCATION
 40
0.0
  0
ENDSEC
  0
SECTION
  2
CLASSES
  0
CLASS
  1
DICTIONARYVAR
  2
AcDbDictionaryVar
  3
ObjectDBX Classes
 90
        0
 91
       11
280
     0
281
     0
  0
CLASS
  1
ACMESTATEMGR
  2
AcMeStateMgr
  3
AcMeServices
 90
     1024
 91
        1
280
     0
281
     0
  0
CLASS
  1
ACMESCOPE
  2
AcMeScope
  3
AcMeServices
 90
     1024
 91
        1
280
     0
281
     0
  0
CLASS
  1
ACMECOMMANDHISTORY
  2
AcMeCommandHistory
  3
AcMeServices
 90
     1024
 91
        1
280
     0
281
     0
  0
CLASS
  1
ACRFINSADJUSTERMGR
  2
AcRfInsAdjusterMgr
  3
AcMeServices
 90
     1024
 91
        1
280
     0
281
     0
  0
CLASS
  1
ACMEDRAWINGMAN
  2
AcMeDrawingMan
  3
AcMeServices
 90
     1024
 91
        1
280
     0
281
     0
  0
CLASS
  1
AMATTR
  2
AcMeAttribute
  3
AcMeServices
 90
     1024
 91
        0
280
     0
281
     0
  0
CLASS
  1
ACMEBOMCOLUMN
  2
AcMeBOMColumn
  3
AcMeServices
 90
     1024
 91
        0
280
     0
281
     0
  0
CLASS
  1
ACMEBOMCONF
  2
AcMeBOMConf
  3
AcMeServices
 90
     1024
 91
        0
280
     0
281
     0
  0
CLASS
  1
ACMEBOMTABLE
  2
AcMeBOMTable
  3
AcMeServices
 90
     1024
 91
        0
280
     0
281
     0
  0
CLASS
  1
ACMEBOMENTRY
  2
AcMeBOMEntry
  3
AcMeServices
 90
     1024
 91
        0
280
     0
281
     0
  0
CLASS
  1
ACMEVIEW
  2
AcMeView
  3
AcMeServices
 90
     1024
 91
        0
280
     0
281
     0
  0
CLASS
  1
ACGREFMASTER
  2
AcGrefMaster
  3
AcAttribServices
 90
     1024
 91
        1
280
     0
281
     0
  0
CLASS
  1
AMIMASTER
  2
AmiMaster
  3
AmiServices
 90
     1024
 91
        1
280
     0
281
     0
  0
CLASS
  1
ACASGREFMASTER
  2
AcAsGrefMaster
  3
AutoSurfResolverServices
 90
     1024
 91
        1
280
     0
281
     0
  0
CLASS
  1
ADAPPL
  2
AcAdAppl
  3
DesignerServices
 90
     1024
 91
        1
280
     0
281
     0
  0
CLASS
  1
DEPMGR
  2
AcAdDepMgr
  3
DesignerServices
 90
     1024
 91
        1
280
     0
281
     0
  0
CLASS
  1
PARAMMGR
  2
AcAdParamMgr
  3
DesignerServices
 90
     1024
 91
        1
280
     0
281
     0
  0
CLASS
  1
PARAMSCOPE
  2
AcAdParamScope
  3
DesignerServices
 90
     1024
 91
        3
280
     0
281
     0
  0
CLASS
  1
ACIMSYSVARMAN
  2
AcImSysVarManager
  3
AcMeServices
 90
     1024
 91
        6
280
     0
281
     0
  0
CLASS
  1
ACIMINTSYSVAR
  2
AcImIntSysVar
  3
AcMeServices
 90
     1024
 91
       48
280
     0
281
     0
  0
CLASS
  1
ACIMREALSYSVAR
  2
AcImRealSysVar
  3
AcMeServices
 90
     1024
 91
       16
280
     0
281
     0
  0
CLASS
  1
ACIMSTRSYSVAR
  2
AcImStrSysVar
  3
AcMeServices
 90
     1024
 91
       14
280
     0
281
     0
  0
CLASS
  1
NAMEDAPPL
  2
AcAdNamedAppl
  3
DesignerServices
 90
     1024
 91
        1
280
     0
281
     0
  0
CLASS
  1
ADHNTMPLT
  2
AdHoleNoteTemplateMgr
  3
DesignerServices
 90
     1024
 91
        0
280
     0
281
     0
  0
CLASS
  1
AM_HNTEMPLATE_MGR_NAME
  2
AdHoleNoteTemplateMgrName
  3
DesignerServices
 90
     1024
 91
        0
280
     0
281
     0
  0
CLASS
  1
ACADGREFMODULE
  2
AcAdGrefModule
  3
AdGrefServices
 90
     1024
 91
        1
280
     0
281
     0
  0
CLASS
  1
AM_DRAWING_MGR
  2
AcDmDwgMgr
  3
AcMechDwgViewMgmt
 90
     1024
 91
        1
280
     0
281
     0
  0
CLASS
  1
AM_DWG_DOCUMENT
  2
AcDmDwgDocument
  3
AcMechDwgViewMgmt
 90
     1024
 91
        1
280
     0
281
     0
  0
CLASS
  1
AM_DWG_SHEET
  2
AcDmSheet
  3
AcMechDwgViewMgmt
 90
     1024
 91
        5
280
     0
281
     0
  0
CLASS
  1
AM_VIEWDIMPARMAP
  2
AcDmViewDimParMap
  3
AcMechDwgViewMgmt
 90
     1024
 91
        5
280
     0
281
     0
  0
CLASS
  1
AM_DWGMGR_NAME
  2
AcDmDwgMgrName
  3
AcMechDwgViewMgmt
 90
     1024
 91
        1
280
     0
281
     0
  0
CLASS
  1
ACAMPROJECT
  2
AcAmProject
  3
DesignerAssemblies
 90
     1024
 91
        1
280
     0
281
     0
  0
CLASS
  1
ACAMGRCOMPSET
  2
AcAmGrCompSet
  3
DesignerAssemblies
 90
        0
 91
        0
280
     0
281
     0
  0
CLASS
  1
ACAMGRCOMPDEFSET
  2
AcAmGrCompDefSet
  3
DesignerAssemblies
 90
     1024
 91
        1
280
     0
281
     0
  0
CLASS
  1
ACAMGRCOMPDEF
  2
AcAmGrCompDef
  3
DesignerAssemblies
 90
     1024
 91
        2
280
     0
281
     0
  0
CLASS
  1
ACCMCONTEXT
  2
AcCmContext
  3
DesignerAssemblies
 90
     1024
 91
        2
280
     0
281
     0
  0
CLASS
  1
ACAMCOMPDEF
  2
AcAmCompDef
  3
DesignerAssemblies
 90
     1024
 91
        2
280
     0
281
     0
  0
CLASS
  1
ACAMCOMPDEFMGR
  2
AcAmCompDefMgr
  3
DesignerAssemblies
 90
     1024
 91
        1
280
     0
281
     0
  0
CLASS
  1
AMCONTEXTMGR
  2
AcAmContextMgr
  3
DesignerAssemblies
 90
     1024
 91
        1
280
     0
281
     0
  0
CLASS
  1
ACAMCONTEXTMODELER
  2
AcAmContextModeler
  3
DesignerAssemblies
 90
     1024
 91
        0
280
     0
281
     0
  0
CLASS
  1
ACDMVIEWGEOM
  2
AcDmViewGeometry
  3
AcMechDwgViewMgmt
 90
     1024
 91
        1
280
     0
281
     1
  0
CLASS
  1
CBROWSERAPPOBJECT
  2
CBrowserAppObject
  3
McadcomServices
 90
     1024
 91
        3
280
     0
281
     0
  0
CLASS
  1
IM_STATIC_MAN
  2
AcImStaticVarManager
  3
AcMeServices
 90
     1024
 91
        1
280
     0
281
     0
  0
CLASS
  1
ASAPP
  2
AcAsAppObject
  3
AutoSurfServices
 90
     1024
 91
        1
280
     0
281
     0
  0
CLASS
  1
ACIMDBLSTATICVAR
  2
AcImDblStaticVar
  3
AcMeServices
 90
     1024
 91
       22
280
     0
281
     0
  0
CLASS
  1
ACIMSTRSTATICVAR
  2
AcImStrStaticVar
  3
AcMeServices
 90
     1024
 91
       13
280
     0
281
     0
  0
CLASS
  1
ACIMINTSTATICVAR
  2
AcImIntStaticVar
  3
AcMeServices
 90
     1024
 91
       17
280
     0
281
     0
  0
CLASS
  1
CATALOGSTATE
  2
AcAmCatalogState
  3
DesignerAssemblies
 90
     1024
 91
        1
280
     0
281
     0
  0
CLASS
  1
DM_PLACEHOLDER
  2
AcDmSelsetPlaceholder
  3
AcMechDwgViewMgmt
 90
     1024
 91
        1
280
     0
281
     0
  0
CLASS
  1
LAYER_INDEX
  2
AcDbLayerIndex
  3
ObjectDBX Classes
 90
        0
 91
        1
280
     0
281
     0
  0
CLASS
  1
IDBUFFER
  2
AcDbIdBuffer
  3
ObjectDBX Classes
 90
        0
 91
       30
280
     0
281
     0
  0
CLASS
  1
ACMSTANDARDJIS
  2
AcmStandardJIS
  3
"Amdt_StdImp|Product Description: AutoCAD Mechanical|Company: Autodesk, Inc."
 90
     1024
 91
        1
280
     0
281
     0
  0
CLASS
  1
ACMSTANDARDANSI
  2
AcmStandardANSI
  3
"Amdt_StdImp|Product Description: AutoCAD Mechanical|Company: Autodesk, Inc."
 90
     1024
 91
        1
280
     0
281
     0
  0
CLASS
  1
ACMSTANDARDBSI
  2
AcmStandardBSI
  3
"Amdt_StdImp|Product Description: AutoCAD Mechanical|Company: Autodesk, Inc."
 90
     1024
 91
        1
280
     0
281
     0
  0
CLASS
  1
ACMSTANDARDDIN
  2
AcmStandardDIN
  3
"Amdt_StdImp|Product Description: AutoCAD Mechanical|Company: Autodesk, Inc."
 90
     1024
 91
        1
280
     0
281
     0
  0
CLASS
  1
ACMSTANDARDISO
  2
AcmStandardISO
  3
"Amdt_StdImp|Product Description: AutoCAD Mechanical|Company: Autodesk, Inc."
 90
     1024
 91
        1
280
     0
281
     0
  0
CLASS
  1
ACDBDICTIONARYWDFLT
  2
AcDbDictionaryWithDefault
  3
ObjectDBX Classes
 90
        0
 91
        1
280
     0
281
     0
  0
CLASS
  1
ACME_DOCUMENT
  2
AcMeDbDoc
  3
AcMeServices
 90
     1024
 91
        2
280
     0
281
     0
  0
CLASS
  1
AMGSETTINGSOBJ
  2
AmgSettingsObj
  3
"AcadM|Product Description: AutoCAD Mechanical|Company: Autodesk, Inc."
 90
     1024
 91
        4
280
     0
281
     0
  0
CLASS
  1
AMGOBJPROPCFG
  2
AmgObjPropCfg
  3
"AmgLay|Product Description: AutoCAD Mechanical|Company: Autodesk, Inc."
 90
     1025
 91
        1
280
     0
281
     0
  0
CLASS
  1
ACDBENTITYCACHE
  2
AcMeEntityCache
  3
AcMeServices
 90
     1024
 91
        1
280
     0
281
     0
  0
CLASS
  1
GSMANAGER
  2
AcMeGSManager
  3
AcMeServices
 90
     1024
 91
        1
280
     0
281
     0
  0
CLASS
  1
AMDTINTERNALREACTOR
  2
AmdtInternalReactor
  3
AcMeServices
 90
     1024
 91
        6
280
     0
281
     0
  0
CLASS
  1
ACME_DATABASE
  2
AcMeDbDatabase
  3
AcMeServices
 90
     1024
 91
        1
280
     0
281
     0
  0
CLASS
  1
ACGREFACADMASTER
  2
AcGrefacadMaster
  3
AcGrefServices
 90
     1024
 91
        1
280
     0
281
     0
  0
CLASS
  1
AMDTMENUSTATEMGR
  2
AmdtMenuStateMgr
  3
McadcomServices
 90
     1024
 91
        1
280
     0
281
     0
  0
CLASS
  1
AMDTMCOMMENUSTATE
  2
AmdtMcomMenuState
  3
McadcomServices
 90
     1024
 91
        1
280
     0
281
     0
  0
CLASS
  1
MAPIADMODULE
  2
MApiAdModule
  3
MApiAdServices
 90
     1024
 91
        1
280
     0
281
     0
  0
CLASS
  1
AMDTDMMENUSTATE
  2
AmdtDmMenuState
  3
AcMechDwgViewMgmt
 90
     1024
 91
        1
280
     0
281
     0
  0
CLASS
  1
AMDTADMENUSTATE
  2
AmdtAdMenuState
  3
DesignerServices
 90
     1024
 91
        1
280
     0
281
     0
  0
CLASS
  1
AMDTAMMENUSTATE
  2
AmdtAmMenuState
  3
DesignerAssemblies
 90
     1024
 91
        1
280
     0
281
     0
  0
CLASS
  1
ACMDATADICTIONARY
  2
AcmDataDictionary
  3
"AcmSymBB|Product Description: AutoCAD Mechanical|Company: Autodesk, Inc."
 90
     1024
 91
        1
280
     0
281
     0
  0
CLASS
  1
ACMDATAENTRYBLOCK
  2
AcmDataEntryBlock
  3
AcmSymBB|Product Description: AutoCAD Mechanical|Company: Autodesk, Inc.
 90
     1024
 91
        1
280
     0
281
     0
  0
CLASS
  1
ACMSURFSTANDARDJIS
  2
AcmSurfTextStdJIS
  3
"Amdt_StdImp|Product Description: AutoCAD Mechanical|Company: Autodesk, Inc."
 90
     1024
 91
        1
280
     0
281
     0
  0
CLASS
  1
ACMFCFSTANDARDJIS
  2
AcmFCFStdJIS
  3
"Amdt_StdImp|Product Description: AutoCAD Mechanical|Company: Autodesk, Inc."
 90
     1024
 91
        1
280
     0
281
     0
  0
CLASS
  1
ACMWELDSTANDARDJIS
  2
AcmWeldingStdJIS
  3
"Amdt_StdImp|Product Description: AutoCAD Mechanical|Company: Autodesk, Inc."
 90
     1024
 91
        1
280
     0
281
     0
  0
CLASS
  1
ACMIDSTANDARDJIS
  2
AcmIdStdJIS
  3
"Amdt_StdImp|Product Description: AutoCAD Mechanical|Company: Autodesk, Inc."
 90
     1024
 91
        1
280
     0
281
     0
  0
CLASS
  1
ACMDATUMSTANDARDJIS
  2
AcmDatumStdJIS
  3
"Amdt_StdImp|Product Description: AutoCAD Mechanical|Company: Autodesk, Inc."
 90
     1024
 91
        1
280
     0
281
     0
  0
CLASS
  1
ACMBOMSTANDARDJIS
  2
AcmBOMStdJIS
  3
"Amdt_StdImp|Product Description: AutoCAD Mechanical|Company: Autodesk, Inc."
 90
     1024
 91
        1
280
     0
281
     0
  0
CLASS
  1
ACMSURFSTANDARDANSI
  2
AcmSurfTextStdANSI
  3
"Amdt_StdImp|Product Description: AutoCAD Mechanical|Company: Autodesk, Inc."
 90
     1024
 91
        1
280
     0
281
     0
  0
CLASS
  1
ACMFCFSTANDARDANSI
  2
AcmFCFStdANSI
  3
"Amdt_StdImp|Product Description: AutoCAD Mechanical|Company: Autodesk, Inc."
 90
     1024
 91
        1
280
     0
281
     0
  0
CLASS
  1
ACMWELDSTANDARDANSI
  2
AcmWeldingStdANSI
  3
"Amdt_StdImp|Product Description: AutoCAD Mechanical|Company: Autodesk, Inc."
 90
     1024
 91
        1
280
     0
281
     0
  0
CLASS
  1
ACMIDSTANDARDANSI
  2
AcmIdStdANSI
  3
"Amdt_StdImp|Product Description: AutoCAD Mechanical|Company: Autodesk, Inc."
 90
     1024
 91
        1
280
     0
281
     0
  0
CLASS
  1
ACMDATUMSTANDARDANSI
  2
AcmDatumStdANSI
  3
"Amdt_StdImp|Product Description: AutoCAD Mechanical|Company: Autodesk, Inc."
 90
     1024
 91
        1
280
     0
281
     0
  0
CLASS
  1
ACMBOMSTANDARDANSI
  2
AcmBOMStdANSI
  3
"Amdt_StdImp|Product Description: AutoCAD Mechanical|Company: Autodesk, Inc."
 90
     1024
 91
        1
280
     0
281
     0
  0
CLASS
  1
ACMSURFSTANDARDBSI
  2
AcmSurfTextStdBSI
  3
"Amdt_StdImp|Product Description: AutoCAD Mechanical|Company: Autodesk, Inc."
 90
     1024
 91
        1
280
     0
281
     0
  0
CLASS
  1
ACMFCFSTANDARDBSI
  2
AcmFCFStdBSI
  3
"Amdt_StdImp|Product Description: AutoCAD Mechanical|Company: Autodesk, Inc."
 90
     1024
 91
        1
280
     0
281
     0
  0
CLASS
  1
ACMWELDSTANDARDBSI
  2
AcmWeldingStdBSI
  3
"Amdt_StdImp|Product Description: AutoCAD Mechanical|Company: Autodesk, Inc."
 90
     1024
 91
        1
280
     0
281
     0
  0
CLASS
  1
ACMIDSTANDARDBSI
  2
AcmIdStdBSI
  3
"Amdt_StdImp|Product Description: AutoCAD Mechanical|Company: Autodesk, Inc."
 90
     1024
 91
        1
280
     0
281
     0
  0
CLASS
  1
ACMDATUMSTANDARDBSI
  2
AcmDatumStdBSI
  3
"Amdt_StdImp|Product Description: AutoCAD Mechanical|Company: Autodesk, Inc."
 90
     1024
 91
        1
280
     0
281
     0
  0
CLASS
  1
ACMBOMSTANDARDBSI
  2
AcmBOMStdBSI
  3
"Amdt_StdImp|Product Description: AutoCAD Mechanical|Company: Autodesk, Inc."
 90
     1024
 91
        1
280
     0
281
     0
  0
CLASS
  1
AMDTEDGESTANDARDDIN
  2
AmdtEdgeStdDIN
  3
"Amdt_StdImp|Product Description: AutoCAD Mechanical|Company: Autodesk, Inc."
 90
     1024
 91
        1
280
     0
281
     0
  0
CLASS
  1
ACMSURFSTANDARDDIN
  2
AcmSurfTextStdDIN
  3
"Amdt_StdImp|Product Description: AutoCAD Mechanical|Company: Autodesk, Inc."
 90
     1024
 91
        1
280
     0
281
     0
  0
CLASS
  1
ACMFCFSTANDARDDIN
  2
AcmFCFStdDIN
  3
"Amdt_StdImp|Product Description: AutoCAD Mechanical|Company: Autodesk, Inc."
 90
     1024
 91
        1
280
     0
281
     0
  0
CLASS
  1
ACMWELDSTANDARDDIN
  2
AcmWeldingStdDIN
  3
"Amdt_StdImp|Product Description: AutoCAD Mechanical|Company: Autodesk, Inc."
 90
     1024
 91
        1
280
     0
281
     0
  0
CLASS
  1
ACMIDSTANDARDDIN
  2
AcmIdStdDIN
  3
"Amdt_StdImp|Product Description: AutoCAD Mechanical|Company: Autodesk, Inc."
 90
     1024
 91
        1
280
     0
281
     0
  0
CLASS
  1
ACMDATUMSTANDARDDIN
  2
AcmDatumStdDIN
  3
"Amdt_StdImp|Product Description: AutoCAD Mechanical|Company: Autodesk, Inc."
 90
     1024
 91
        1
280
     0
281
     0
  0
CLASS
  1
ACMBOMSTANDARDDIN
  2
AcmBOMStdDIN
  3
"Amdt_StdImp|Product Description: AutoCAD Mechanical|Company: Autodesk, Inc."
 90
     1024
 91
        1
280
     0
281
     0
  0
CLASS
  1
ACMSURFSTANDARDISO
  2
AcmSurfTextStdISO
  3
"Amdt_StdImp|Product Description: AutoCAD Mechanical|Company: Autodesk, Inc."
 90
     1024
 91
        1
280
     0
281
     0
  0
CLASS
  1
ACMFCFSTANDARDISO
  2
AcmFCFStdISO
  3
"Amdt_StdImp|Product Description: AutoCAD Mechanical|Company: Autodesk, Inc."
 90
     1024
 91
        1
280
     0
281
     0
  0
CLASS
  1
ACMWELDSTANDARDISO
  2
AcmWeldingStdISO
  3
"Amdt_StdImp|Product Description: AutoCAD Mechanical|Company: Autodesk, Inc."
 90
     1024
 91
        1
280
     0
281
     0
  0
CLASS
  1
ACMIDSTANDARDISO
  2
AcmIdStdISO
  3
"Amdt_StdImp|Product Description: AutoCAD Mechanical|Company: Autodesk, Inc."
 90
     1024
 91
        1
280
     0
281
     0
  0
CLASS
  1
ACMDATUMSTANDARDISO
  2
AcmDatumStdISO
  3
"Amdt_StdImp|Product Description: AutoCAD Mechanical|Company: Autodesk, Inc."
 90
     1024
 91
        1
280
     0
281
     0
  0
CLASS
  1
ACMBOMSTANDARDISO
  2
AcmBOMStdISO
  3
"Amdt_StdImp|Product Description: AutoCAD Mechanical|Company: Autodesk, Inc."
 90
     1024
 91
        1
280
     0
281
     0
  0
CLASS
  1
AMDTBROWSERDBTAB
  2
AmdtBrowserDbTab
  3
McadcomServices
 90
     1024
 91
        1
280
     0
281
     0
  0
CLASS
  1
ACAMGFILTERDAT
  2
AcAmgFilterDat
  3
"AcadM|Product Description: AutoCAD Mechanical|Company: Autodesk, Inc."
 90
     1024
 91
        4
280
     0
281
     0
  0
CLASS
  1
MAPIAMMOUDLE
  2
MApiAmModule
  3
MApiAmServices
 90
     1024
 91
        1
280
     0
281
     0
  0
CLASS
  1
PLOTSETTINGS
  2
AcDbPlotSettings
  3
ObjectDBX Classes
 90
        0
 91
        7
280
     0
281
     0
  0
CLASS
  1
ACRFATTGENMGR
  2
AcRfAttGeneralMgr
  3
AcAttribServices
 90
     1024
 91
        1
280
     0
281
     0
  0
CLASS
  1
ACAMGRBLOCKRECORD
  2
AcAmGrBlockRecord
  3
DesignerAssemblies
 90
     1024
 91
        2
280
     0
281
     0
  0
CLASS
  1
ACAMVIEWREACTOR
  2
AcAmViewReactor
  3
DesignerAssemblies
 90
     1024
 91
        0
280
     0
281
     0
  0
CLASS
  1
ACAMCOMPENT
  2
AcAmCompEnt
  3
DesignerAssemblies
 90
     1024
 91
        0
280
     0
281
     1
  0
CLASS
  1
AMVIEW
  2
AcAmView
  3
DesignerAssemblies
 90
     1024
 91
        0
280
     0
281
     0
  0
CLASS
  1
ACAMVIEWCONTEXT
  2
AcAmViewContext
  3
DesignerAssemblies
 90
     1024
 91
        0
280
     0
281
     0
  0
CLASS
  1
ADPART
  2
AcAdPart
  3
DesignerServices
 90
     1024
 91
        2
280
     0
281
     1
  0
CLASS
  1
ADBASE
  2
AcAdBase
  3
DesignerServices
 90
     1024
 91
        2
280
     0
281
     0
  0
CLASS
  1
BODYID
  2
AcAdBodyId
  3
DesignerServices
 90
     1024
 91
        2
280
     0
281
     0
  0
CLASS
  1
WORKPLANEDISPLAYMGR
  2
AcAdDisplayMgr
  3
DesignerServices
 90
     1024
 91
        2
280
     0
281
     0
  0
CLASS
  1
ACCMBODY
  2
AcCmBody
  3
DesignerAssemblies
 90
     1024
 91
        0
280
     0
281
     0
  0
CLASS
  1
ACAMCOMPFEEDBACK
  2
AcAmCompFeedback
  3
DesignerAssemblies
 90
     1024
 91
        0
280
     0
281
     0
  0
CLASS
  1
ACAMCOMP
  2
AcAmComp
  3
DesignerAssemblies
 90
     1024
 91
        0
280
     0
281
     0
  0
CLASS
  1
ACAMCOMPENTCLONE
  2
AcAmCompEntClone
  3
DesignerAssemblies
 90
     1024
 91
        0
280
     0
281
     1
  0
CLASS
  1
ACAMCLONEREACTOR
  2
AcAmGrCompCloneReactor
  3
DesignerAssemblies
 90
     1024
 91
        0
280
     0
281
     0
  0
CLASS
  1
ADDATUMPLANEABS
  2
AcAdDatumPlaneAbs
  3
DesignerServices
 90
     1024
 91
        5
280
     0
281
     0
  0
CLASS
  1
ADDATUMAXISABS
  2
AcAdDatumAxisAbs
  3
DesignerServices
 90
     1024
 91
        4
280
     0
281
     0
  0
CLASS
  1
ADDATUMORIENTEDPLANE
  2
AcAdDatumOrientedPlane
  3
DesignerServices
 90
     1024
 91
        4
280
     0
281
     0
  0
CLASS
  1
ACAD_LINE
  2
AcAdLine
  3
DesignerServices
 90
     1024
 91
        0
280
     0
281
     1
  0
CLASS
  1
ACADLINEACAD
  2
AcAdVirtualBoundedLineAcad
  3
DesignerServices
 90
     1024
 91
       12
280
     0
281
     0
  0
CLASS
  1
ACADREFLINEACAD
  2
AcAdVirtualReferenceLine
  3
DesignerServices
 90
     1024
 91
        8
280
     0
281
     0
  0
CLASS
  1
ACADCONSLINE
  2
AcAdConstrainedLine
  3
DesignerServices
 90
     1024
 91
       21
280
     0
281
     0
  0
CLASS
  1
ACADCONSGROUP
  2
AcAdConstraintGroup
  3
DesignerServices
 90
     1024
 91
        4
280
     0
281
     0
  0
CLASS
  1
ACADIMPPTACAD
  2
AcAdVirtualImplicitPoint
  3
DesignerServices
 90
     1024
 91
       25
280
     0
281
     0
  0
CLASS
  1
ACADCONSPOINT
  2
AcAdConstrainedPoint
  3
DesignerServices
 90
     1024
 91
       20
280
     0
281
     0
  0
CLASS
  1
ADPCURCNS
  2
AcAdPointCurveConstr
  3
DesignerServices
 90
     1024
 91
       24
280
     0
281
     0
  0
CLASS
  1
ADHORCNS
  2
AcAdHorizontalConstr
  3
DesignerServices
 90
     1024
 91
        4
280
     0
281
     0
  0
CLASS
  1
ADVERCNS
  2
AcAdVerticalConstr
  3
DesignerServices
 90
     1024
 91
        4
280
     0
281
     0
  0
CLASS
  1
ADCLPROF2D
  2
AcAdClosedProfile2d
  3
DesignerServices
 90
     1024
 91
        3
280
     0
281
     0
  0
CLASS
  1
ACAD_FIXCONSTRAINT
  2
AcAdFixedConstraint
  3
DesignerServices
 90
     1024
 91
        1
280
     0
281
     0
  0
CLASS
  1
ACMELINEARARROW
  2
AcImLinearArrowDisplay
  3
AcMeServices
 90
     1024
 91
        0
280
     0
281
     1
  0
CLASS
  1
PARAM
  2
AcAdParam
  3
DesignerServices
 90
     1024
 91
       23
280
     0
281
     0
  0
CLASS
  1
ACADVOLFEATWITHTRIM
  2
AcAdVolFeatWithTrim
  3
DesignerServices
 90
     1024
 91
        3
280
     0
281
     0
  0
CLASS
  1
DEPEDGEFEATUREORDERING
  2
AcAdDepEdgeFeatureOrdering
  3
DesignerServices
 90
     1024
 91
        3
280
     0
281
     0
  0
CLASS
  1
ADWORKPOINTDISPLAY
  2
AcAdWorkPointDisplay
  3
DesignerServices
 90
     1024
 91
        1
280
     0
281
     1
  0
CLASS
  1
ADVIRTUALPOINTWORKPOINTFREE
  2
AcAdVirtualPointWorkPointFree
  3
DesignerServices
 90
     1024
 91
        1
280
     0
281
     0
  0
CLASS
  1
ADWORKPOINTSKETCH
  2
AcAdWorkPointSketch
  3
DesignerServices
 90
     1024
 91
        1
280
     0
281
     0
  0
CLASS
  1
ACADPARTDATUMPOINTRES
  2
AcAdPartDatumPointRes
  3
AdGrefServices
 90
     1024
 91
        0
280
     0
281
     0
  0
CLASS
  1
ACRFINSADJ
  2
AcRfInsAdjuster
  3
AcMeServices
 90
     1024
 91
        0
280
     0
281
     0
  0
CLASS
  1
DATUMPLANEDISPLAY
  2
AcAdDatumPlaneDisplay
  3
DesignerServices
 90
     1024
 91
        5
280
     0
281
     1
  0
CLASS
  1
ACADPARTDATUMPLANERES
  2
AcAdPartDatumPlaneRes
  3
AdGrefServices
 90
     1024
 91
        0
280
     0
281
     0
  0
CLASS
  1
ACMEPLINE
  2
AcImPlineDisplay
  3
AcMeServices
 90
     1024
 91
        0
280
     0
281
     1
  0
CLASS
  1
ACAD_CIRCLE
  2
AcAdCircle
  3
DesignerServices
 90
     1024
 91
        0
280
     0
281
     1
  0
CLASS
  1
ACADCIRCLEACAD
  2
AcAdVirtualCircleAcad
  3
DesignerServices
 90
     1024
 91
        1
280
     0
281
     0
  0
CLASS
  1
ACADCONSCIRCLE
  2
AcAdConstrainedCircle
  3
DesignerServices
 90
     1024
 91
        1
280
     0
281
     0
  0
CLASS
  1
ADCTRPTCNS
  2
AcAdCenterPointConstr
  3
DesignerServices
 90
     1024
 91
        1
280
     0
281
     0
  0
CLASS
  1
ACDBCIRCARCRES
  2
AcDbCircArcRes
  3
AcGrefServices
 90
     1024
 91
        0
280
     0
281
     0
  0
CLASS
  1
ACADSKETCHCIRCARCRES
  2
AcAdSketchCircArcRes
  3
DesignerServices
 90
     1024
 91
        1
280
     0
281
     0
  0
CLASS
  1
ADVIRTUALPOINTWORKPOINTFIXED
  2
AcAdVirtualPointWorkPointFixed
  3
DesignerServices
 90
     1024
 91
        6
280
     0
281
     0
  0
CLASS
  1
ADHDISTCNS
  2
AcAdHorizontalDistanceConstr
  3
DesignerServices
 90
     1024
 91
        5
280
     0
281
     0
  0
CLASS
  1
ACADSKETCHPOINTRES
  2
AcAdSketchPointRes
  3
DesignerServices
 90
     1024
 91
       20
280
     0
281
     0
  0
CLASS
  1
ADVDISTCNS
  2
AcAdVerticalDistanceConstr
  3
DesignerServices
 90
     1024
 91
        7
280
     0
281
     0
  0
CLASS
  1
ADACADDIACNS
  2
AcAdAcadDiameterConstr
  3
DesignerServices
 90
     1024
 91
        1
280
     0
281
     0
  0
CLASS
  1
AMIINSTATTCLASSRECORD
  2
AmiInstAttClassRecord
  3
AcAttribServices
 90
     1024
 91
        1
280
     0
281
     0
  0
CLASS
  1
AMIINSTATTIMP
  2
AmiInstAttImp
  3
AcAttribServices
 90
     1025
 91
        2
280
     0
281
     0
  0
CLASS
  1
ACRFOBJATTMGR
  2
AcRfObjAttGroupMgr
  3
AcAttribServices
 90
     1024
 91
        2
280
     0
281
     0
  0
CLASS
  1
ACRFMCADAPIATTHOLDER
  2
AcRfMCADAPIAttHolder
  3
AcAttribServices
 90
     1024
 91
        1
280
     0
281
     0
  0
CLASS
  1
FACEID
  2
AcAdFaceId
  3
DesignerServices
 90
     1024
 91
        0
280
     0
281
     0
  0
CLASS
  1
ACADPARTCYLINDERFACERES
  2
AcAdPartCylinderFaceRes
  3
AdGrefServices
 90
     1024
 91
        0
280
     0
281
     0
  0
CLASS
  1
ACADPARTPLANARFACERES
  2
AcAdPartPlanarFaceRes
  3
AdGrefServices
 90
     1024
 91
        0
280
     0
281
     0
  0
CLASS
  1
ADPLANEID
  2
AcAdPlaneId
  3
DesignerServices
 90
     1024
 91
        2
280
     0
281
     0
  0
CLASS
  1
ADDATUMPLANEFACE
  2
AcAdDatumPlaneFace
  3
DesignerServices
 90
     1024
 91
        2
280
     0
281
     0
  0
CLASS
  1
ADDATUMPLANEOFFSET
  2
AcAdDatumPlaneOffset
  3
DesignerServices
 90
     1024
 91
        3
280
     0
281
     0
  0
CLASS
  1
DATUMAXISDISPLAY
  2
AcAdDatumAxisDisplay
  3
DesignerServices
 90
     1024
 91
        1
280
     0
281
     1
  0
CLASS
  1
ADSURFGEOMID
  2
AcAdSurfGeomId
  3
DesignerServices
 90
     1024
 91
        1
280
     0
281
     0
  0
CLASS
  1
ADDATUMAXISCENTER
  2
AcAdDatumAxisCenter
  3
DesignerServices
 90
     1024
 91
        1
280
     0
281
     0
  0
CLASS
  1
ACADPARTAXISRES
  2
AcAdPartAxisRes
  3
AdGrefServices
 90
     1024
 91
        0
280
     0
281
     0
  0
CLASS
  1
ACDBLINERES
  2
AcDbLineRes
  3
AcGrefServices
 90
     1024
 91
        0
280
     0
281
     0
  0
CLASS
  1
ACADSKETCHLINERES
  2
AcAdSketchLineRes
  3
DesignerServices
 90
     1024
 91
        4
280
     0
281
     0
  0
CLASS
  1
ADCONSTDSP
  2
AcAdConstraintDisplayTag
  3
DesignerServices
 90
     1024
 91
        0
280
     0
281
     1
  0
CLASS
  1
ADCONSDISP
  2
AcAdConstraintDisplay
  3
DesignerServices
 90
     1024
 91
        0
280
     0
281
     1
  0
CLASS
  1
ADACADANGCNS
  2
AcAdAcadAngleConstr
  3
DesignerServices
 90
     1024
 91
        2
280
     0
281
     0
  0
CLASS
  1
ADPROJCNS
  2
AcAdProjectionConstr
  3
DesignerServices
 90
     1024
 91
        1
280
     0
281
     0
  0
CLASS
  1
ADCOLNCNS
  2
AcAdColinearConstr
  3
DesignerServices
 90
     1024
 91
        1
280
     0
281
     0
  0
CLASS
  1
ACADBOUNDEDLINEDATUMID
  2
AcAdVirtualBoundedLineDatumId
  3
DesignerServices
 90
     1024
 91
        1
280
     0
281
     0
  0
CLASS
  1
ACADPARTCONICALFACERES
  2
AcAdPartConicalFaceRes
  3
AdGrefServices
 90
     1024
 91
        0
280
     0
281
     0
  0
CLASS
  1
DEPEDGESECONDARYDEPID
  2
AcAdDepEdgeSecondaryDepId
  3
DesignerServices
 90
     1024
 91
        0
280
     0
281
     0
  0
CLASS
  1
AMACTIVEPARTSELECTFILTER
  2
AcDmActivePartViewEntFilter
  3
DesignerServices
 90
     1024
 91
        0
280
     0
281
     0
  0
CLASS
  1
AM_ABS_PLANE
  2
AcDmAbsPlnDef
  3
AcMechDwgViewMgmt
 90
     1024
 91
        0
280
     0
281
     0
  0
CLASS
  1
AM_ABS_AXIS
  2
AcDmAbsAxisDef
  3
AcMechDwgViewMgmt
 90
     1024
 91
        0
280
     0
281
     0
  0
CLASS
  1
AM_BASE_VIEW_ORIENT
  2
AcDmBaseViewOr
  3
AcMechDwgViewMgmt
 90
     1024
 91
        0
280
     0
281
     0
  0
CLASS
  1
AM_DWG_VIEWPORT
  2
AcDmViewport
  3
AcMechDwgViewMgmt
 90
     1024
 91
        0
280
     0
281
     0
  0
CLASS
  1
AM_VIEW_DISPLAY
  2
AcDmDwgViewDisplay
  3
AcMechDwgViewMgmt
 90
     1024
 91
        0
280
     0
281
     0
  0
CLASS
  1
AM_CLDFLTS
  2
AcDmClDflts
  3
AcMechDwgViewMgmt
 90
     1024
 91
        9
280
     0
281
     0
  0
CLASS
  1
AM_BASE_VIEW
  2
AcDmBaseView
  3
AcMechDwgViewMgmt
 90
     1024
 91
        0
280
     0
281
     0
  0
CLASS
  1
AM_ORTHO_VIEW_ORIENT
  2
AcDmOrthoViewOr
  3
AcMechDwgViewMgmt
 90
     1024
 91
        0
280
     0
281
     0
  0
CLASS
  1
AM_ORTHO_VIEW
  2
AcDmOrthoView
  3
AcMechDwgViewMgmt
 90
     1024
 91
        0
280
     0
281
     0
  0
CLASS
  1
AM_ISO_VIEW_ORIENT
  2
AcDmIsoViewOr
  3
AcMechDwgViewMgmt
 90
     1024
 91
        0
280
     0
281
     0
  0
CLASS
  1
AM_ISO_VIEW
  2
AcDmIsoView
  3
AcMechDwgViewMgmt
 90
     1024
 91
        0
280
     0
281
     0
  0
CLASS
  1
ACDMVWEDARC
  2
AcDmViewEdgeArc
  3
AcMechDwgViewMgmt
 90
     1024
 91
        0
280
     0
281
     1
  0
CLASS
  1
ACDMVWEDCIRC
  2
AcDmViewEdgeCircle
  3
AcMechDwgViewMgmt
 90
     1024
 91
        0
280
     0
281
     1
  0
CLASS
  1
ACDMVWEDLINE
  2
AcDmViewEdgeLine
  3
AcMechDwgViewMgmt
 90
     1024
 91
        0
280
     0
281
     1
  0
CLASS
  1
CNRREFID
  2
AcAdCornerId
  3
DesignerServices
 90
     1024
 91
        0
280
     0
281
     0
  0
CLASS
  1
ACADPARTPOINTRES
  2
AcAdPartPointRes
  3
AdGrefServices
 90
     1024
 91
        0
280
     0
281
     0
  0
CLASS
  1
ACADPARTSKETCHPLANEAXISRES
  2
AcAdPartSketchPlaneAxisRes
  3
DesignerServices
 90
     1024
 91
        0
280
     0
281
     0
  0
CLASS
  1
AM_VIEWDIMPARALLEL
  2
AcDmViewDimParallel
  3
AcMechDwgViewMgmt
 90
     1024
 91
        0
280
     0
281
     0
  0
CLASS
  1
AMDTDMPARMAPDATA
  2
AmdtDmDimParMapData
  3
AcMechDwgViewMgmt
 90
     1024
 91
        0
280
     0
281
     0
  0
CLASS
  1
AM_VIEWDIMLINEAR
  2
AcDmViewDimLinear
  3
AcMechDwgViewMgmt
 90
     1024
 91
        0
280
     0
281
     0
  0
CLASS
  1
AM_VIEWDIMANGULAR
  2
AcDmViewDimAngular
  3
AcMechDwgViewMgmt
 90
     1024
 91
        0
280
     0
281
     0
  0
CLASS
  1
AM_ADLINCTRLINE
  2
AcAdLineCl
  3
DesignerServices
 90
     1024
 91
        0
280
     0
281
     0
  0
CLASS
  1
AM_VIEWDIMDIAMETER
  2
AcDmViewDimDiameter
  3
AcMechDwgViewMgmt
 90
     1024
 91
        0
280
     0
281
     0
  0
CLASS
  1
AM_ADCIRCTRLINE
  2
AcAdBullsEyeCl
  3
DesignerServices
 90
     1024
 91
        0
280
     0
281
     0
  0
CLASS
  1
AMDTMAPISURFMOUDULE
  2
AmdtMApiSurfModule
  3
MApiSurfServices
 90
     1024
 91
        1
280
     0
281
     0
  0
CLASS
  1
ACAMGTITLESTD
  2
AcAmgTitleStd
  3
"AmgTitle|Product Description: AutoCAD Mechanical|Company: Autodesk, Inc."
 90
     4095
 91
        5
280
     0
281
     0
  0
CLASS
  1
ACMDETAILSTANDARDJIS
  2
AmdtDetailSymStdJIS
  3
"Amdt_StdImp|Product Description: AutoCAD Mechanical|Company: Autodesk, Inc."
 90
     1024
 91
        1
280
     0
281
     0
  0
CLASS
  1
ACMSECTIONSTANDARDJIS
  2
AmdtSectionSymStdJIS
  3
"Amdt_StdImp|Product Description: AutoCAD Mechanical|Company: Autodesk, Inc."
 90
     1024
 91
        1
280
     0
281
     0
  0
CLASS
  1
ACMCENTERLINESTANDARDJIS
  2
AmdtCenterLineStdJIS
  3
"Amdt_StdImp|Product Description: AutoCAD Mechanical|Company: Autodesk, Inc."
 90
     1024
 91
        1
280
     0
281
     0
  0
CLASS
  1
ACMTHREADLINESTANDARDCSN
  2
AmdtThreadLineStdCSN
  3
"Amdt_StdImp|Product Description: AutoCAD Mechanical|Company: Autodesk, Inc."
 90
     1024
 91
        5
280
     0
281
     0
  0
CLASS
  1
ACMDETAILSTANDARDANSI
  2
AmdtDetailSymStdANSI
  3
"Amdt_StdImp|Product Description: AutoCAD Mechanical|Company: Autodesk, Inc."
 90
     1024
 91
        1
280
     0
281
     0
  0
CLASS
  1
ACMSECTIONSTANDARDANSI
  2
AmdtSectionSymStdANSI
  3
"Amdt_StdImp|Product Description: AutoCAD Mechanical|Company: Autodesk, Inc."
 90
     1024
 91
        1
280
     0
281
     0
  0
CLASS
  1
ACMCENTERLINESTANDARDANSI
  2
AmdtCenterLineStdANSI
  3
"Amdt_StdImp|Product Description: AutoCAD Mechanical|Company: Autodesk, Inc."
 90
     1024
 91
        1
280
     0
281
     0
  0
CLASS
  1
ACMDETAILSTANDARDBSI
  2
AmdtDetailSymStdBSI
  3
"Amdt_StdImp|Product Description: AutoCAD Mechanical|Company: Autodesk, Inc."
 90
     1024
 91
        1
280
     0
281
     0
  0
CLASS
  1
ACMSECTIONSTANDARDBSI
  2
AmdtSectionSymStdBSI
  3
"Amdt_StdImp|Product Description: AutoCAD Mechanical|Company: Autodesk, Inc."
 90
     1024
 91
        1
280
     0
281
     0
  0
CLASS
  1
ACMCENTERLINESTANDARDBSI
  2
AmdtCenterLineStdBSI
  3
"Amdt_StdImp|Product Description: AutoCAD Mechanical|Company: Autodesk, Inc."
 90
     1024
 91
        1
280
     0
281
     0
  0
CLASS
  1
ACMDETAILSTANDARDDIN
  2
AmdtDetailSymStdDIN
  3
"Amdt_StdImp|Product Description: AutoCAD Mechanical|Company: Autodesk, Inc."
 90
     1024
 91
        1
280
     0
281
     0
  0
CLASS
  1
ACMSECTIONSTANDARDDIN
  2
AmdtSectionSymStdDIN
  3
"Amdt_StdImp|Product Description: AutoCAD Mechanical|Company: Autodesk, Inc."
 90
     1024
 91
        1
280
     0
281
     0
  0
CLASS
  1
ACMCENTERLINESTANDARDDIN
  2
AmdtCenterLineStdDIN
  3
"Amdt_StdImp|Product Description: AutoCAD Mechanical|Company: Autodesk, Inc."
 90
     1024
 91
        1
280
     0
281
     0
  0
CLASS
  1
AMDTEDGESTANDARDISO
  2
AmdtEdgeStdISO
  3
"Amdt_StdImp|Product Description: AutoCAD Mechanical|Company: Autodesk, Inc."
 90
     1024
 91
        1
280
     0
281
     0
  0
CLASS
  1
ACMDETAILSTANDARDISO
  2
AmdtDetailSymStdISO
  3
"Amdt_StdImp|Product Description: AutoCAD Mechanical|Company: Autodesk, Inc."
 90
     1024
 91
        1
280
     0
281
     0
  0
CLASS
  1
ACMSECTIONSTANDARDISO
  2
AmdtSectionSymStdISO
  3
"Amdt_StdImp|Product Description: AutoCAD Mechanical|Company: Autodesk, Inc."
 90
     1024
 91
        1
280
     0
281
     0
  0
CLASS
  1
ACMCENTERLINESTANDARDISO
  2
AmdtCenterLineStdISO
  3
"Amdt_StdImp|Product Description: AutoCAD Mechanical|Company: Autodesk, Inc."
 90
     1024
 91
        1
280
     0
281
     0
  0
CLASS
  1
ACAMGLAYSTD
  2
AcAmgLayStd
  3
"AmgLay|Product Description: AutoCAD Mechanical|Company: Autodesk, Inc."
 90
     1024
 91
        5
280
     0
281
     0
  0
CLASS
  1
ACAMGDIMSTD
  2
AcAmgDimStd
  3
"AmgDim|Product Description: AutoCAD Mechanical|Company: Autodesk, Inc."
 90
     1024
 91
        5
280
     0
281
     0
  0
CLASS
  1
ACDMPARTVIEWDATA
  2
AcDmPartViewData
  3
AcMechDwgViewMgmt
 90
     1024
 91
        0
280
     0
281
     0
  0
CLASS
  1
ACDMDISPLAYATTRIBS
  2
AcDmDisplayAttribs
  3
AcMechDwgViewMgmt
 90
     1024
 91
        0
280
     0
281
     0
  0
CLASS
  1
ACDMBODYINSTANCEDATA
  2
AcDmBodyInstanceData
  3
AcMechDwgViewMgmt
 90
     1024
 91
        0
280
     0
281
     0
  0
CLASS
  1
AMDTFORMULAUPDATEDISPATCHER
  2
AmdtFormulaUpdateDispatcher
  3
AcMeServices
 90
     1024
 91
        1
280
     0
281
     0
  0
CLASS
  1
ACAMCONTEXTPARTMODELER
  2
AcAmContextPartModeler
  3
DesignerAssemblies
 90
     1024
 91
        1
280
     0
281
     0
  0
CLASS
  1
ACMNOTESTANDARDJIS
  2
AmdtNoteStdJIS
  3
"Amdt_StdImp|Product Description: AutoCAD Mechanical|Company: Autodesk, Inc."
 90
     1024
 91
        1
280
     0
281
     0
  0
CLASS
  1
ACMNOTESTANDARDANSI
  2
AmdtNoteStdANSI
  3
"Amdt_StdImp|Product Description: AutoCAD Mechanical|Company: Autodesk, Inc."
 90
     1024
 91
        1
280
     0
281
     0
  0
CLASS
  1
ACMNOTESTANDARDBSI
  2
AmdtNoteStdBSI
  3
"Amdt_StdImp|Product Description: AutoCAD Mechanical|Company: Autodesk, Inc."
 90
     1024
 91
        1
280
     0
281
     0
  0
CLASS
  1
ACMNOTESTANDARDDIN
  2
AmdtNoteStdDIN
  3
"Amdt_StdImp|Product Description: AutoCAD Mechanical|Company: Autodesk, Inc."
 90
     1024
 91
        1
280
     0
281
     0
  0
CLASS
  1
ACMNOTESTANDARDISO
  2
AmdtNoteStdISO
  3
"Amdt_StdImp|Product Description: AutoCAD Mechanical|Company: Autodesk, Inc."
 90
     1024
 91
        1
280
     0
281
     0
  0
CLASS
  1
MATERIAL
  2
AcDbMaterial
  3
ObjectDBX Classes
 90
     1153
 91
        3
280
     0
281
     0
  0
CLASS
  1
VISUALSTYLE
  2
AcDbVisualStyle
  3
ObjectDBX Classes
 90
     4095
 91
       16
280
     0
281
     0
  0
CLASS
  1
TABLESTYLE
  2
AcDbTableStyle
  3
ObjectDBX Classes
 90
     4095
 91
        1
280
     0
281
     0
  0
CLASS
  1
ACMTAPERSTANDARDJIS
  2
AcmTaperStdJIS
  3
"Amdt_StdImp|Product Description: AutoCAD Mechanical|Company: Autodesk, Inc."
 90
     1024
 91
        1
280
     0
281
     0
  0
CLASS
  1
ACMTAPERSTANDARDANSI
  2
AcmTaperStdANSI
  3
"Amdt_StdImp|Product Description: AutoCAD Mechanical|Company: Autodesk, Inc."
 90
     1024
 91
        1
280
     0
281
     0
  0
CLASS
  1
ACMTAPERSTANDARDBSI
  2
AcmTaperStdBSI
  3
"Amdt_StdImp|Product Description: AutoCAD Mechanical|Company: Autodesk, Inc."
 90
     1024
 91
        1
280
     0
281
     0
  0
CLASS
  1
ACMTAPERSTANDARDDIN
  2
AcmTaperStdDIN
  3
"Amdt_StdImp|Product Description: AutoCAD Mechanical|Company: Autodesk, Inc."
 90
     1024
 91
        1
280
     0
281
     0
  0
CLASS
  1
ACMTAPERSTANDARDISO
  2
AcmTaperStdISO
  3
"Amdt_StdImp|Product Description: AutoCAD Mechanical|Company: Autodesk, Inc."
 90
     1024
 91
        1
280
     0
281
     0
  0
CLASS
  1
DIMASSOC
  2
AcDbDimAssoc
  3
"AcDbDimAssoc|Product Desc:     AcDim ARX App For Dimension|Company:          Autodesk, Inc.|WEB Address:      www.autodesk.com"
 90
        0
 91
        7
280
     0
281
     0
  0
CLASS
  1
SCALE
  2
AcDbScale
  3
ObjectDBX Classes
 90
     1153
 91
       33
280
     0
281
     0
  0
CLASS
  1
MLEADERSTYLE
  2
AcDbMLeaderStyle
  3
ACDB_MLEADERSTYLE_CLASS
 90
     4095
 91
        1
280
     0
281
     0
  0
CLASS
  1
ACMANOOTATIONVIEWSTANDARDJIS
  2
AmdtAnViewStdJIS
  3
"Amdt_StdImp|Product Description: AutoCAD Mechanical|Company: Autodesk, Inc."
 90
     1024
 91
        1
280
     0
281
     0
  0
CLASS
  1
ACMANOOTATIONVIEWSTANDARDANSI
  2
AmdtAnViewStdANSI
  3
"Amdt_StdImp|Product Description: AutoCAD Mechanical|Company: Autodesk, Inc."
 90
     1024
 91
        1
280
     0
281
     0
  0
CLASS
  1
ACMANOOTATIONVIEWSTANDARDBSI
  2
AmdtAnViewStdBSI
  3
"Amdt_StdImp|Product Description: AutoCAD Mechanical|Company: Autodesk, Inc."
 90
     1024
 91
        1
280
     0
281
     0
  0
CLASS
  1
ACMANOOTATIONVIEWSTANDARDDIN
  2
AmdtAnViewStdDIN
  3
"Amdt_StdImp|Product Description: AutoCAD Mechanical|Company: Autodesk, Inc."
 90
     1024
 91
        1
280
     0
281
     0
  0
CLASS
  1
ACMANOOTATIONVIEWSTANDARDISO
  2
AmdtAnViewStdISO
  3
"Amdt_StdImp|Product Description: AutoCAD Mechanical|Company: Autodesk, Inc."
 90
     1024
 91
        1
280
     0
281
     0
  0
CLASS
  1
CELLSTYLEMAP
  2
AcDbCellStyleMap
  3
ObjectDBX Classes
 90
     1152
 91
        2
280
     0
281
     0
  0
CLASS
  1
AMDTEDGESTANDARDJIS
  2
AmdtEdgeStdJIS
  3
"Amdt_StdImp|Product Description: AutoCAD Mechanical|Company: Autodesk, Inc."
 90
     1024
 91
        1
280
     0
281
     0
  0
ENDSEC
  0
SECTION
  2
TABLES
  0
TABLE
  2
VPORT
  5
8
330
0
100
AcDbSymbolTable
 70
     3
  0
VPORT
  5
79C
330
8
100
AcDbSymbolTableRecord
100
AcDbViewportTableRecord
  2
asurf_wcs_vp_2
 70
     0
 10
0.0
 20
0.0
 11
0.5
 21
1.0
 12
0.0
 22
0.0
 13
0.0
 23
0.0
 14
10.0
 24
10.0
 15
10.0
 25
10.0
 16
0.0
 26
0.0
 36
1.0
 17
210.0
 27
148.5
 37
0.0
 40
664.2413317557894
 41
0.6397245798091085
 42
50.0
 43
0.0
 44
0.0
 50
0.0
 51
0.0
 71
     0
 72
  1000
 73
     1
 74
     0
 75
     0
 76
     0
 77
     0
 78
     0
281
     4
 65
     0
110
0.0
120
0.0
130
0.0
111
1.0
121
0.0
131
0.0
112
0.0
122
1.0
132
0.0
 79
     0
146
0.0
348
23C3
 60
     3
 61
     5
292
     1
282
     1
141
0.0
142
0.0
 63
   250
421
  3355443
  0
VPORT
  5
79D
330
8
100
AcDbSymbolTableRecord
100
AcDbViewportTableRecord
  2
asurf_wcs_vp_2
 70
     0
 10
0.5
 20
0.0
 11
1.0
 21
1.0
 12
-166.0188166206583
 22
35.22481755965711
 13
0.0
 23
0.0
 14
10.0
 24
10.0
 15
10.0
 25
10.0
 16
1.0
 26
-1.0
 36
1.0
 17
210.0
 27
148.5
 37
0.0
 40
482.8380307317477
 41
0.6397245798091085
 42
50.0
 43
0.0
 44
0.0
 50
0.0
 51
0.0
 71
     0
 72
  1000
 73
     1
 74
     0
 75
     0
 76
     0
 77
     0
 78
     0
281
     4
 65
     0
110
0.0
120
0.0
130
0.0
111
1.0
121
0.0
131
0.0
112
0.0
122
1.0
132
0.0
 79
     0
146
0.0
348
23C3
 60
     3
 61
     5
292
     1
282
     1
141
0.0
142
0.0
 63
   250
421
  3355443
  0
VPORT
  5
23BB
330
8
100
AcDbSymbolTableRecord
100
AcDbViewportTableRecord
  2
*Active
 70
     0
 10
0.0
 20
0.0
 11
1.0
 21
1.0
 12
29.6463705931634
 22
-45.06379080987824
 13
0.0
 23
0.0
 14
10.0
 24
10.0
 15
10.0
 25
10.0
 16
0.0
 26
0.0
 36
1.0
 17
225.0419189867749
 27
164.8409058003548
 37
0.0
 40
447.0639530625353
 41
1.754082612872238
 42
50.0
 43
0.0
 44
0.0
 50
0.0
 51
0.0
 71
     0
 72
  1000
 73
     1
 74
     1
 75
     0
 76
     0
 77
     0
 78
     0
281
     0
 65
     0
110
0.0
120
0.0
130
0.0
111
1.0
121
0.0
131
0.0
112
0.0
122
1.0
132
0.0
 79
     0
146
0.0
348
23C6
 60
     3
 61
     5
292
     1
282
     1
141
0.0
142
0.0
 63
   250
421
  3355443
  0
ENDTAB
  0
TABLE
  2
LTYPE
  5
5
330
0
100
AcDbSymbolTable
 70
    44
  0
LTYPE
  5
14
330
5
100
AcDbSymbolTableRecord
100
AcDbLinetypeTableRecord
  2
BYBLOCK
 70
     0
  3

 72
    65
 73
     0
 40
0.0
  0
LTYPE
  5
15
330
5
100
AcDbSymbolTableRecord
100
AcDbLinetypeTableRecord
  2
BYLAYER
 70
     0
  3

 72
    65
 73
     0
 40
0.0
  0
LTYPE
  5
16
330
5
100
AcDbSymbolTableRecord
100
AcDbLinetypeTableRecord
  2
CONTINUOUS
 70
     0
  3
Solid line
 72
    65
 73
     0
 40
0.0
  0
LTYPE
  5
BD
330
5
100
AcDbSymbolTableRecord
100
AcDbLinetypeTableRecord
  2
HIDDEN
 70
     0
  3
__ __ __ __ __ __ __ __ __ __ __ __ __ __ __ __
 72
    65
 73
     2
 40
0.375
 49
0.25
 74
     0
 49
-0.125
 74
     0
  0
LTYPE
  5
BF
330
5
100
AcDbSymbolTableRecord
100
AcDbLinetypeTableRecord
  2
PHANTOM2
 70
     0
  3
___ _ _ ___ _ _ ___ _ _ ___ _ _ ___ _ _ ___ _ _
 72
    65
 73
     6
 40
1.25
 49
0.625
 74
     0
 49
-0.125
 74
     0
 49
0.125
 74
     0
 49
-0.125
 74
     0
 49
0.125
 74
     0
 49
-0.125
 74
     0
  0
LTYPE
  5
CA
330
5
100
AcDbSymbolTableRecord
100
AcDbLinetypeTableRecord
  2
CENTER
 70
     0
  3
____ _ ____ _ ____ _ ____ _ ____ _ ____ _ ____ 
 72
    65
 73
     4
 40
2.0
 49
1.25
 74
     0
 49
-0.25
 74
     0
 49
0.25
 74
     0
 49
-0.25
 74
     0
  0
LTYPE
  5
120
330
5
100
AcDbSymbolTableRecord
100
AcDbLinetypeTableRecord
  2
ASULTYPE
 70
     0
  3
Solid line
 72
    65
 73
     2
 40
3.0
 49
2.5
 74
     0
 49
0.5
 74
     0
  0
LTYPE
  5
121
330
5
100
AcDbSymbolTableRecord
100
AcDbLinetypeTableRecord
  2
ASVLTYPE
 70
     0
  3
__ __ __ __ __ __ __ __ __ __ __ __ __ __ __ __ __ __ __ __ __
 72
    65
 73
     2
 40
0.75
 49
0.5
 74
     0
 49
-0.25
 74
     0
  0
LTYPE
  5
149
330
5
100
AcDbSymbolTableRecord
100
AcDbLinetypeTableRecord
  2
ACJISTGB
 70
     0
  3
__ . . __ . .
 72
    65
 73
     6
 40
9.0
 49
4.0
 74
     0
 49
-1.0
 74
     0
 49
1.0
 74
     0
 49
-1.0
 74
     0
 49
1.0
 74
     0
 49
-1.0
 74
     0
  0
LTYPE
  5
14A
330
5
100
AcDbSymbolTableRecord
100
AcDbLinetypeTableRecord
  2
ACJISTGL
 70
     0
  3
_ _ _ _ _
 72
    65
 73
     2
 40
3.0
 49
2.0
 74
     0
 49
-1.0
 74
     0
  0
LTYPE
  5
14D
330
5
100
AcDbSymbolTableRecord
100
AcDbLinetypeTableRecord
  2
ACANSTGB
 70
     0
  3
__ . . __ . .
 72
    65
 73
     6
 40
0.35433070866
 49
0.15748031496
 74
     0
 49
-0.03937007874
 74
     0
 49
0.03937007874
 74
     0
 49
-0.03937007874
 74
     0
 49
0.03937007874
 74
     0
 49
-0.03937007874
 74
     0
  0
LTYPE
  5
14E
330
5
100
AcDbSymbolTableRecord
100
AcDbLinetypeTableRecord
  2
ACANSTGL
 70
     0
  3
_ _ _ _ _
 72
    65
 73
     2
 40
0.11811023622
 49
0.07874015748
 74
     0
 49
-0.03937007874
 74
     0
  0
LTYPE
  5
151
330
5
100
AcDbSymbolTableRecord
100
AcDbLinetypeTableRecord
  2
ACBSWELD
 70
     0
  3
_ _ _ _ _
 72
    65
 73
     2
 40
2.0
 49
2.0
 74
     0
 49
-1.0
 74
     0
  0
LTYPE
  5
152
330
5
100
AcDbSymbolTableRecord
100
AcDbLinetypeTableRecord
  2
ACBSITGB
 70
     0
  3
__ . . __ . .
 72
    65
 73
     6
 40
9.0
 49
4.0
 74
     0
 49
-1.0
 74
     0
 49
1.0
 74
     0
 49
-1.0
 74
     0
 49
1.0
 74
     0
 49
-1.0
 74
     0
  0
LTYPE
  5
153
330
5
100
AcDbSymbolTableRecord
100
AcDbLinetypeTableRecord
  2
ACBSITGL
 70
     0
  3
_ _ _ _ _
 72
    65
 73
     2
 40
3.0
 49
2.0
 74
     0
 49
-1.0
 74
     0
  0
LTYPE
  5
156
330
5
100
AcDbSymbolTableRecord
100
AcDbLinetypeTableRecord
  2
ACDINWELD
 70
     0
  3
_ _ _ _ _
 72
    65
 73
     2
 40
2.0
 49
2.0
 74
     0
 49
-1.0
 74
     0
  0
LTYPE
  5
157
330
5
100
AcDbSymbolTableRecord
100
AcDbLinetypeTableRecord
  2
ACDINTGB
 70
     0
  3
__ . . __ . .
 72
    65
 73
     6
 40
9.0
 49
4.0
 74
     0
 49
-1.0
 74
     0
 49
1.0
 74
     0
 49
-1.0
 74
     0
 49
1.0
 74
     0
 49
-1.0
 74
     0
  0
LTYPE
  5
158
330
5
100
AcDbSymbolTableRecord
100
AcDbLinetypeTableRecord
  2
ACDINTGL
 70
     0
  3
_ _ _ _ _
 72
    65
 73
     2
 40
3.0
 49
2.0
 74
     0
 49
-1.0
 74
     0
  0
LTYPE
  5
15B
330
5
100
AcDbSymbolTableRecord
100
AcDbLinetypeTableRecord
  2
ACISOWELD
 70
     0
  3
_ _ _ _ _
 72
    65
 73
     2
 40
2.0
 49
2.0
 74
     0
 49
-1.0
 74
     0
  0
LTYPE
  5
15C
330
5
100
AcDbSymbolTableRecord
100
AcDbLinetypeTableRecord
  2
ACISOTGB
 70
     0
  3
__ . . __ . .
 72
    65
 73
     6
 40
9.0
 49
4.0
 74
     0
 49
-1.0
 74
     0
 49
1.0
 74
     0
 49
-1.0
 74
     0
 49
1.0
 74
     0
 49
-1.0
 74
     0
  0
LTYPE
  5
15D
330
5
100
AcDbSymbolTableRecord
100
AcDbLinetypeTableRecord
  2
ACISOTGL
 70
     0
  3
_ _ _ _ _
 72
    65
 73
     2
 40
3.0
 49
2.0
 74
     0
 49
-1.0
 74
     0
  0
LTYPE
  5
175
330
5
100
AcDbSymbolTableRecord
100
AcDbLinetypeTableRecord
  2
AM_ISO02W050
 70
     0
  3
__ __ __ __ __ __ __ __ __ __ __ __ __ __ __
 72
    65
 73
     2
 40
7.5
 49
6.0
 74
     0
 49
-1.5
 74
     0
  0
LTYPE
  5
176
330
5
100
AcDbSymbolTableRecord
100
AcDbLinetypeTableRecord
  2
AM_ISO08W050
 70
     0
  3
____ . ____ . ____ . ____ . ____ . ____ . ____
 72
    65
 73
     4
 40
18.0
 49
12.0
 74
     0
 49
-1.5
 74
     0
 49
3.0
 74
     0
 49
-1.5
 74
     0
  0
LTYPE
  5
177
330
5
100
AcDbSymbolTableRecord
100
AcDbLinetypeTableRecord
  2
AM_ISO09W050
 70
     0
  3
_____ . . _____ . . _____ . . ____ .. ____
 72
    65
 73
     6
 40
22.5
 49
12.0
 74
     0
 49
-1.5
 74
     0
 49
3.0
 74
     0
 49
-1.5
 74
     0
 49
3.0
 74
     0
 49
-1.5
 74
     0
  0
LTYPE
  5
178
330
5
100
AcDbSymbolTableRecord
100
AcDbLinetypeTableRecord
  2
AM_ISO02W050x2
 70
     0
  3
 _ _ _ _ _ _ _ _ _ _ _ _
 72
    65
 73
     2
 40
3.75
 49
3.0
 74
     0
 49
-0.75
 74
     0
  0
LTYPE
  5
179
330
5
100
AcDbSymbolTableRecord
100
AcDbLinetypeTableRecord
  2
AM_ISO08W050x2
 70
     0
  3
__ . __ . __ . __ . __ . __
 72
    65
 73
     4
 40
9.0
 49
6.0
 74
     0
 49
-0.75
 74
     0
 49
1.5
 74
     0
 49
-0.75
 74
     0
  0
LTYPE
  5
17C
330
5
100
AcDbSymbolTableRecord
100
AcDbLinetypeTableRecord
  2
amzigzag
 70
     0
  3
/\/-/\/-/\/-/\/-/\/-/\/
 72
    65
 73
     2
 40
11.0001
 49
0.0001
 74
     4
 75
   135
340
17B
 46
0.04
 50
0.0
 44
0.0
 45
0.0
 49
-11.0
 74
     0
  0
LTYPE
  5
1814
330
5
100
AcDbSymbolTableRecord
100
AcDbLinetypeTableRecord
  2
ACANSTGBM
 70
     0
  3
__ . . __ . .
 72
    65
 73
     6
 40
9.0
 49
4.0
 74
     0
 49
-1.0
 74
     0
 49
1.0
 74
     0
 49
-1.0
 74
     0
 49
1.0
 74
     0
 49
-1.0
 74
     0
  0
LTYPE
  5
1815
330
5
100
AcDbSymbolTableRecord
100
AcDbLinetypeTableRecord
  2
ACANSTGLM
 70
     0
  3
_ _ _ _ _
 72
    65
 73
     2
 40
3.0
 49
2.0
 74
     0
 49
-1.0
 74
     0
  0
LTYPE
  5
1A08
330
5
100
AcDbSymbolTableRecord
100
AcDbLinetypeTableRecord
  2
GEN7
 70
     0
  3
____ . ____ . ____ . ____ . ___
 72
    65
 73
     4
 40
13.75
 49
9.75
 74
     0
 49
-1.5
 74
     0
 49
1.0
 74
     0
 49
-1.5
 74
     0
  0
LTYPE
  5
1A09
330
5
100
AcDbSymbolTableRecord
100
AcDbLinetypeTableRecord
  2
GEN3
 70
     0
  3
-- -- -- -- -- -- -- -- -- -- -
 72
    65
 73
     2
 40
6.25
 49
4.75
 74
     0
 49
-1.5
 74
     0
  0
LTYPE
  5
1A0A
330
5
100
AcDbSymbolTableRecord
100
AcDbLinetypeTableRecord
  2
GEN3A
 70
     0
  3
 - - - - -
 72
    65
 73
     2
 40
3.125
 49
2.25
 74
     0
 49
-0.875
 74
     0
  0
LTYPE
  5
1A0B
330
5
100
AcDbSymbolTableRecord
100
AcDbLinetypeTableRecord
  2
GEN4A
 70
     0
  3
_____ . . _____ . . _____ . . _
 72
    65
 73
     6
 40
16.25
 49
9.75
 74
     0
 49
-1.5
 74
     0
 49
1.0
 74
     0
 49
-1.5
 74
     0
 49
1.0
 74
     0
 49
-1.5
 74
     0
  0
LTYPE
  5
1A0C
330
5
100
AcDbSymbolTableRecord
100
AcDbLinetypeTableRecord
  2
GEN7A
 70
     0
  3
__ . __ . __
 72
    65
 73
     4
 40
6.875
 49
4.75
 74
     0
 49
-0.875
 74
     0
 49
0.375
 74
     0
 49
-0.875
 74
     0
  0
LTYPE
  5
1A0D
330
5
100
AcDbSymbolTableRecord
100
AcDbLinetypeTableRecord
  2
CONTINU
 70
     0
  3

 72
    65
 73
     0
 40
0.0
  0
LTYPE
  5
1A0E
330
5
100
AcDbSymbolTableRecord
100
AcDbLinetypeTableRecord
  2
genzigzag
 70
     0
  3
/\/-/\/-/\/-/\/-/\/-/\/
 72
    65
 73
     2
 40
12.0001
 49
0.0001
 74
     4
 75
   135
340
1A13
 46
2.0
 50
0.0
 44
0.0
 45
0.0
 49
-12.0
 74
     0
  0
LTYPE
  5
21B4
330
5
100
AcDbSymbolTableRecord
100
AcDbLinetypeTableRecord
  2
Amconstr
 70
     0
  3
_______________________
 72
    65
 73
     2
 40
9999.0
 49
9999.0
 74
     0
 49
0.0
 74
     0
  0
LTYPE
  5
21B5
330
5
100
AcDbSymbolTableRecord
100
AcDbLinetypeTableRecord
  2
AM_DIN_F_W050
 70
     0
  3
__ __ __ __ __ __ __ __ __ __ __ __ __ __ __
 72
    65
 73
     2
 40
6.25
 49
4.75
 74
     0
 49
-1.5
 74
     0
  0
LTYPE
  5
21B6
330
5
100
AcDbSymbolTableRecord
100
AcDbLinetypeTableRecord
  2
AM_DIN_G_W050
 70
     0
  3
____ . ____ . ____ . ____ . ____ . ____ . ____
 72
    65
 73
     4
 40
13.75
 49
9.75
 74
     0
 49
-1.5
 74
     0
 49
1.0
 74
     0
 49
-1.5
 74
     0
  0
LTYPE
  5
21B7
330
5
100
AcDbSymbolTableRecord
100
AcDbLinetypeTableRecord
  2
AM_DIN_K_W050
 70
     0
  3
_____ . . _____ . . _____ . . ____ .. ____
 72
    65
 73
     6
 40
16.25
 49
9.75
 74
     0
 49
-1.5
 74
     0
 49
1.0
 74
     0
 49
-1.5
 74
     0
 49
1.0
 74
     0
 49
-1.5
 74
     0
  0
LTYPE
  5
21B8
330
5
100
AcDbSymbolTableRecord
100
AcDbLinetypeTableRecord
  2
AM_DIN_G_W050x2
 70
     0
  3
__ . __ . __ . __ . __ . __
 72
    65
 73
     4
 40
6.875
 49
4.75
 74
     0
 49
-0.875
 74
     0
 49
0.375
 74
     0
 49
-0.875
 74
     0
  0
LTYPE
  5
21B9
330
5
100
AcDbSymbolTableRecord
100
AcDbLinetypeTableRecord
  2
AM_DIN_F_W050x2
 70
     0
  3
 _ _ _ _ _ _ _ _ _ _ _ _
 72
    65
 73
     2
 40
3.125
 49
2.25
 74
     0
 49
-0.875
 74
     0
  0
LTYPE
  5
2850
330
5
100
AcDbSymbolTableRecord
100
AcDbLinetypeTableRecord
  2
CENTER2
 70
     0
  3
Center (.5x) ___ _ ___ _ ___ _ ___ _ ___ _ ___
 72
    65
 73
     4
 40
1.125
 49
0.75
 74
     0
 49
-0.125
 74
     0
 49
0.125
 74
     0
 49
-0.125
 74
     0
  0
LTYPE
  5
2851
330
5
100
AcDbSymbolTableRecord
100
AcDbLinetypeTableRecord
  2
HIDDEN2
 70
     0
  3
Hidden (.5x) _ _ _ _ _ _ _ _ _ _ _ _ _ _ _ _ _
 72
    65
 73
     2
 40
0.1875
 49
0.125
 74
     0
 49
-0.0625
 74
     0
  0
LTYPE
  5
2852
330
5
100
AcDbSymbolTableRecord
100
AcDbLinetypeTableRecord
  2
Amzigzag2
 70
     0
  3
/\/-/\/-/\/-/\/-/\/-/\/
 72
    65
 73
     2
 40
0.4401
 49
0.0001
 74
     4
 75
   136
340
1A13
 46
0.0016
 50
0.0
 44
0.0
 45
0.0
 49
-0.4400000000000001
 74
     0
  0
LTYPE
  5
2A0B
330
5
100
AcDbSymbolTableRecord
100
AcDbLinetypeTableRecord
  2
DASHED
 70
     0
  3
Dashed __ __ __ __ __ __ __ __ __ __ __ __ __ _
 72
    65
 73
     2
 40
0.2068
 49
0.1655
 74
     0
 49
-0.0413
 74
     0
  0
ENDTAB
  0
TABLE
  2
LAYER
  5
2
102
{ACAD_XDICTIONARY
360
262F
102
}
330
0
100
AcDbSymbolTable
 70
    30
  0
LAYER
  5
F
102
{ACAD_XDICTIONARY
360
36C7
102
}
330
2
100
AcDbSymbolTableRecord
100
AcDbLayerTableRecord
  2
0
 70
     0
 62
     7
  6
CONTINUOUS
370
    -3
390
166
347
23BF
  0
LAYER
  5
35A
102
{ACAD_XDICTIONARY
360
36C9
102
}
330
2
100
AcDbSymbolTableRecord
100
AcDbLayerTableRecord
  2
AM_0
 70
     0
 62
     7
  6
CONTINUOUS
370
    50
390
166
347
23BF
  0
LAYER
  5
35B
102
{ACAD_XDICTIONARY
360
36CB
102
}
330
2
100
AcDbSymbolTableRecord
100
AcDbLayerTableRecord
  2
AM_1
 70
     0
 62
     4
  6
CONTINUOUS
370
    25
390
166
347
23BF
  0
LAYER
  5
35C
102
{ACAD_XDICTIONARY
360
36CD
102
}
330
2
100
AcDbSymbolTableRecord
100
AcDbLayerTableRecord
  2
AM_2
 70
     0
 62
     5
  6
CONTINUOUS
370
    50
390
166
347
23BF
  0
LAYER
  5
35D
102
{ACAD_XDICTIONARY
360
36CF
102
}
330
2
100
AcDbSymbolTableRecord
100
AcDbLayerTableRecord
  2
AM_3
 70
     0
 62
     6
  6
AM_ISO02W050
370
    25
390
166
347
23BF
  0
LAYER
  5
35E
102
{ACAD_XDICTIONARY
360
36D1
102
}
330
2
100
AcDbSymbolTableRecord
100
AcDbLayerTableRecord
  2
AM_4
 70
     0
 62
     3
  6
CONTINUOUS
370
    25
390
166
347
23BF
  0
LAYER
  5
35F
102
{ACAD_XDICTIONARY
360
36D3
102
}
330
2
100
AcDbSymbolTableRecord
100
AcDbLayerTableRecord
  2
AM_5
 70
     0
 62
     3
  6
CONTINUOUS
370
    25
390
166
347
23BF
  0
LAYER
  5
360
102
{ACAD_XDICTIONARY
360
36D5
102
}
330
2
100
AcDbSymbolTableRecord
100
AcDbLayerTableRecord
  2
AM_6
 70
     0
 62
     2
  6
CONTINUOUS
370
    35
390
166
347
23BF
  0
LAYER
  5
361
102
{ACAD_XDICTIONARY
360
36D7
102
}
330
2
100
AcDbSymbolTableRecord
100
AcDbLayerTableRecord
  2
AM_7
 70
     0
 62
     1
  6
AM_ISO08W050
370
    25
390
166
347
23BF
  0
LAYER
  5
362
102
{ACAD_XDICTIONARY
360
36D9
102
}
330
2
100
AcDbSymbolTableRecord
100
AcDbLayerTableRecord
  2
AM_8
 70
     0
 62
     1
  6
CONTINUOUS
370
    25
390
166
347
23BF
  0
LAYER
  5
38E
102
{ACAD_XDICTIONARY
360
36DB
102
}
330
2
100
AcDbSymbolTableRecord
100
AcDbLayerTableRecord
  2
AM_FR
 70
     5
 62
     7
  6
CONTINUOUS
370
    -3
390
166
347
23BF
  0
LAYER
  5
3F7
102
{ACAD_XDICTIONARY
360
36DD
102
}
330
2
100
AcDbSymbolTableRecord
100
AcDbLayerTableRecord
  2
ASHADE
 70
     4
 62
     7
  6
CONTINUOUS
370
    -3
390
166
347
23BF
  0
LAYER
  5
5FC
102
{ACAD_XDICTIONARY
360
36DF
102
}
330
2
100
AcDbSymbolTableRecord
100
AcDbLayerTableRecord
  2
AM_WORK
 70
     0
 62
     7
  6
CONTINUOUS
370
    -3
390
166
347
23BF
  0
LAYER
  5
614
102
{ACAD_XDICTIONARY
360
36E1
102
}
330
2
100
AcDbSymbolTableRecord
100
AcDbLayerTableRecord
  2
AM_CL
 70
     0
 62
     1
  6
CONTINUOUS
370
    25
390
166
347
23BF
  0
LAYER
  5
643
330
2
100
AcDbSymbolTableRecord
100
AcDbLayerTableRecord
  2
Defpoints
 70
     0
 62
     7
  6
CONTINUOUS
290
     0
370
    -3
390
166
347
23BF
  0
LAYER
  5
79B
102
{ACAD_XDICTIONARY
360
36E3
102
}
330
2
100
AcDbSymbolTableRecord
100
AcDbLayerTableRecord
  2
ASRF_TMP
 70
     0
 62
     7
  6
CONTINUOUS
370
    -3
390
166
347
23BF
  0
LAYER
  5
1054
102
{ACAD_XDICTIONARY
360
36E5
102
}
330
2
100
AcDbSymbolTableRecord
100
AcDbLayerTableRecord
  2
AM_VIEWS
 70
     0
 62
    -1
  6
CONTINUOUS
290
     0
370
    25
390
166
347
23BF
  0
LAYER
  5
106E
102
{ACAD_XDICTIONARY
360
36E7
102
}
330
2
100
AcDbSymbolTableRecord
100
AcDbLayerTableRecord
  2
AM_VIS
 70
     2
 62
     7
  6
CONTINUOUS
370
    50
390
166
347
23BF
  0
LAYER
  5
106F
102
{ACAD_XDICTIONARY
360
36E9
102
}
330
2
100
AcDbSymbolTableRecord
100
AcDbLayerTableRecord
  2
AM_HID
 70
     2
 62
     6
  6
AM_ISO02W050
370
    25
390
166
347
23BF
  0
LAYER
  5
108B
102
{ACAD_XDICTIONARY
360
36EB
102
}
330
2
100
AcDbSymbolTableRecord
100
AcDbLayerTableRecord
  2
AM_PARDIM
 70
     0
 62
     3
  6
CONTINUOUS
370
    25
390
166
347
23BF
  0
LAYER
  5
1969
102
{ACAD_XDICTIONARY
360
36ED
102
}
330
2
100
AcDbSymbolTableRecord
100
AcDbLayerTableRecord
  2
AmdtBRLock
 70
     6
 62
     7
  6
CONTINUOUS
370
    -3
390
166
347
23BF
  0
LAYER
  5
1A0F
102
{ACAD_XDICTIONARY
360
36EF
102
}
330
2
100
AcDbSymbolTableRecord
100
AcDbLayerTableRecord
  2
5
 70
     0
 62
     3
  6
CONTINUOUS
370
    -3
390
166
347
23BF
  0
LAYER
  5
1A10
102
{ACAD_XDICTIONARY
360
36F1
102
}
330
2
100
AcDbSymbolTableRecord
100
AcDbLayerTableRecord
  2
1
 70
     0
 62
     4
  6
CONTINUOUS
370
    -3
390
166
347
23BF
  0
LAYER
  5
1A11
102
{ACAD_XDICTIONARY
360
36F3
102
}
330
2
100
AcDbSymbolTableRecord
100
AcDbLayerTableRecord
  2
7
 70
     0
 62
     1
  6
GEN7
370
    -3
390
166
347
23BF
  0
LAYER
  5
1FEC
102
{ACAD_XDICTIONARY
360
36F5
102
}
330
2
100
AcDbSymbolTableRecord
100
AcDbLayerTableRecord
  2
3A
 70
     0
 62
     6
  6
GEN3A
370
    -3
390
166
347
23BF
  0
LAYER
  5
2853
102
{ACAD_XDICTIONARY
360
36F7
102
}
330
2
100
AcDbSymbolTableRecord
100
AcDbLayerTableRecord
  2
7A
 70
     0
 62
     1
  6
GEN7A
370
    -3
390
166
347
23BF
  0
LAYER
  5
2A0C
102
{ACAD_XDICTIONARY
360
36F9
102
}
330
2
100
AcDbSymbolTableRecord
100
AcDbLayerTableRecord
  2
Sichtbare Kanten(ISO-ZOPH)
 70
     0
 62
     7
  6
CONTINUOUS
370
    50
390
166
347
23BF
  0
LAYER
  5
2A0D
102
{ACAD_XDICTIONARY
360
36FB
102
}
330
2
100
AcDbSymbolTableRecord
100
AcDbLayerTableRecord
  2
Sichtbare tangentiale Kanten(ISO-ZOPH)
 70
     0
 62
     7
  6
CONTINUOUS
370
    50
390
166
347
23BF
  0
LAYER
  5
2A0E
102
{ACAD_XDICTIONARY
360
36FD
102
}
330
2
100
AcDbSymbolTableRecord
100
AcDbLayerTableRecord
  2
Verdeckte Kanten(ISO-ZOPH)
 70
     0
 62
     7
  6
DASHED
370
    35
390
166
347
23BF
  0
LAYER
  5
2A0F
102
{ACAD_XDICTIONARY
360
36FF
102
}
330
2
100
AcDbSymbolTableRecord
100
AcDbLayerTableRecord
  2
Verdeckte tangentiale Kanten(ISO-ZOPH)
 70
     0
 62
     7
  6
DASHED
370
    35
390
166
347
23BF
  0
ENDTAB
  0
TABLE
  2
STYLE
  5
3
330
0
100
AcDbSymbolTable
 70
    15
  0
STYLE
  5
10
330
3
100
AcDbSymbolTableRecord
100
AcDbTextStyleTableRecord
  2
STANDARD
 70
     0
 40
0.0
 41
1.0
 50
0.0
 71
     0
 42
3.5
  3
ISOCP
  4

  0
STYLE
  5
147
330
3
100
AcDbSymbolTableRecord
100
AcDbTextStyleTableRecord
  2
ACJISTS
 70
     0
 40
1.0
 41
1.0
 50
0.0
 71
     0
 42
3.5
  3
isocp.shx
  4
bigfont.shx
  0
STYLE
  5
148
330
3
100
AcDbSymbolTableRecord
100
AcDbTextStyleTableRecord
  2
ACJISGDT
 70
     0
 40
0.0
 41
1.0
 50
0.0
 71
     0
 42
3.5
  3
amgdt.shx
  4

  0
STYLE
  5
14B
330
3
100
AcDbSymbolTableRecord
100
AcDbTextStyleTableRecord
  2
ACANSTSI
 70
     0
 40
1.0
 41
1.0
 50
0.0
 71
     0
 42
3.5
  3
romans.shx
  4

  0
STYLE
  5
14C
330
3
100
AcDbSymbolTableRecord
100
AcDbTextStyleTableRecord
  2
ACANSGDT
 70
     0
 40
0.0
 41
1.0
 50
0.0
 71
     0
 42
3.5
  3
amgdt.shx
  4

  0
STYLE
  5
14F
330
3
100
AcDbSymbolTableRecord
100
AcDbTextStyleTableRecord
  2
ACBSITS
 70
     0
 40
1.0
 41
1.0
 50
0.0
 71
     0
 42
3.5
  3
isocp.shx
  4

  0
STYLE
  5
150
330
3
100
AcDbSymbolTableRecord
100
AcDbTextStyleTableRecord
  2
ACBSIGDT
 70
     0
 40
0.0
 41
1.0
 50
0.0
 71
     0
 42
3.5
  3
amgdt.shx
  4

  0
STYLE
  5
154
330
3
100
AcDbSymbolTableRecord
100
AcDbTextStyleTableRecord
  2
ACDINTS
 70
     0
 40
1.0
 41
1.0
 50
0.0
 71
     0
 42
3.5
  3
isocp.shx
  4

  0
STYLE
  5
155
330
3
100
AcDbSymbolTableRecord
100
AcDbTextStyleTableRecord
  2
ACDINGDT
 70
     0
 40
0.0
 41
1.0
 50
0.0
 71
     0
 42
3.5
  3
amgdt.shx
  4

  0
STYLE
  5
159
330
3
100
AcDbSymbolTableRecord
100
AcDbTextStyleTableRecord
  2
ACISOTS
 70
     0
 40
1.0
 41
1.0
 50
0.0
 71
     0
 42
3.5
  3
isocp.shx
  4

  0
STYLE
  5
15A
330
3
100
AcDbSymbolTableRecord
100
AcDbTextStyleTableRecord
  2
ACISOGDT
 70
     0
 40
0.0
 41
1.0
 50
0.0
 71
     0
 42
3.5
  3
amgdt.shx
  4

  0
STYLE
  5
17B
330
3
100
AcDbSymbolTableRecord
100
AcDbTextStyleTableRecord
  2

 70
     1
 40
0.0
 41
1.0
 50
0.0
 71
     0
 42
3.5
  3
ltypeshp.shx
  4

  0
STYLE
  5
3F4
330
3
100
AcDbSymbolTableRecord
100
AcDbTextStyleTableRecord
  2
ASHADE
 70
     0
 40
0.2
 41
1.0
 50
0.0
 71
     0
 42
3.5
  3
simplex.shx
  4

  0
STYLE
  5
1A12
330
3
100
AcDbSymbolTableRecord
100
AcDbTextStyleTableRecord
  2
ACANSTS
 70
     0
 40
1.0
 41
1.0
 50
0.0
 71
     0
 42
2.5
  3
romans.shx
  4

  0
STYLE
  5
1A13
330
3
100
AcDbSymbolTableRecord
100
AcDbTextStyleTableRecord
  2

 70
     1
 40
0.0
 41
1.0
 50
0.0
 71
     0
 42
2.5
  3
genltshp.shx
  4

  0
ENDTAB
  0
TABLE
  2
VIEW
  5
6
330
0
100
AcDbSymbolTable
 70
     3
  0
VIEW
  5
1C8
330
6
100
AcDbSymbolTableRecord
100
AcDbViewTableRecord
  2
AMDTVIEW1
 70
     0
 40
329.0721649484536
 10
210.0
 20
164.5360824742268
 41
420.0
 11
0.0
 21
0.0
 31
1.0
 12
0.0
 22
0.0
 32
0.0
 42
50.0
 43
0.0
 44
0.0
 50
0.0
 71
     0
281
     0
 72
     0
 73
     0
348
23C6
  0
VIEW
  5
1C9
330
6
100
AcDbSymbolTableRecord
100
AcDbViewTableRecord
  2
AMDTVIEW2
 70
     0
 40
329.0721649484536
 10
210.0
 20
164.5360824742268
 41
420.0
 11
0.0
 21
0.0
 31
1.0
 12
0.0
 22
0.0
 32
0.0
 42
50.0
 43
0.0
 44
0.0
 50
0.0
 71
     0
281
     0
 72
     0
 73
     0
348
23C6
  0
VIEW
  5
1CA
330
6
100
AcDbSymbolTableRecord
100
AcDbViewTableRecord
  2
AMDTVIEW3
 70
     0
 40
329.0721649484536
 10
210.0
 20
164.5360824742268
 41
420.0
 11
0.0
 21
0.0
 31
1.0
 12
0.0
 22
0.0
 32
0.0
 42
50.0
 43
0.0
 44
0.0
 50
0.0
 71
     0
281
     0
 72
     0
 73
     0
348
23C6
  0
ENDTAB
  0
TABLE
  2
UCS
  5
7
330
0
100
AcDbSymbolTable
 70
     0
  0
ENDTAB
  0
TABLE
  2
APPID
  5
9
330
0
100
AcDbSymbolTable
 70
    38
  0
APPID
  5
11
330
9
100
AcDbSymbolTableRecord
100
AcDbRegAppTableRecord
  2
ACAD
 70
     0
  0
APPID
  5
CD
330
9
100
AcDbSymbolTableRecord
100
AcDbRegAppTableRecord
  2
AD_DRAW
 70
     0
  0
APPID
  5
E7
330
9
100
AcDbSymbolTableRecord
100
AcDbRegAppTableRecord
  2
DESIGNERASSEMBLIES
 70
     0
  0
APPID
  5
EB
330
9
100
AcDbSymbolTableRecord
100
AcDbRegAppTableRecord
  2
MCAD_NO_VIS
 70
     0
  0
APPID
  5
122
330
9
100
AcDbSymbolTableRecord
100
AcDbRegAppTableRecord
  2
ASURF_PCURVE_APPNAME
 70
     0
  0
APPID
  5
17F
330
9
100
AcDbSymbolTableRecord
100
AcDbRegAppTableRecord
  2
ACAD_TEMP_GRAPHIC
 70
     0
  0
APPID
  5
189
330
9
100
AcDbSymbolTableRecord
100
AcDbRegAppTableRecord
  2
ACATTRIBSERVICES
 70
     0
  0
APPID
  5
1C4
330
9
100
AcDbSymbolTableRecord
100
AcDbRegAppTableRecord
  2
ACADM_DIM_EDIT
 70
     0
  0
APPID
  5
1D5
330
9
100
AcDbSymbolTableRecord
100
AcDbRegAppTableRecord
  2
GENIUS_GENDIM_13
 70
     0
  0
APPID
  5
1D6
330
9
100
AcDbSymbolTableRecord
100
AcDbRegAppTableRecord
  2
GENIUS_GENDTOL_13
 70
     0
  0
APPID
  5
1D7
330
9
100
AcDbSymbolTableRecord
100
AcDbRegAppTableRecord
  2
GENIUS_GE3DTOL_13
 70
     0
  0
APPID
  5
3F5
330
9
100
AcDbSymbolTableRecord
100
AcDbRegAppTableRecord
  2
AVE_RENDER
 70
     0
  0
APPID
  5
3F6
330
9
100
AcDbSymbolTableRecord
100
AcDbRegAppTableRecord
  2
AVE_ENTITY_MATERIAL
 70
     0
  0
APPID
  5
403
330
9
100
AcDbSymbolTableRecord
100
AcDbRegAppTableRecord
  2
AVE_FINISH
 70
     0
  0
APPID
  5
404
330
9
100
AcDbSymbolTableRecord
100
AcDbRegAppTableRecord
  2
AVE_MATERIAL
 70
     0
  0
APPID
  5
405
330
9
100
AcDbSymbolTableRecord
100
AcDbRegAppTableRecord
  2
AVE_GLOBAL
 70
     0
  0
APPID
  5
587
330
9
100
AcDbSymbolTableRecord
100
AcDbRegAppTableRecord
  2
GENIUS_GENREC_14
 70
     0
  0
APPID
  5
588
330
9
100
AcDbSymbolTableRecord
100
AcDbRegAppTableRecord
  2
GENIUS_GENODEF_13
 70
     0
  0
APPID
  5
589
330
9
100
AcDbSymbolTableRecord
100
AcDbRegAppTableRecord
  2
GENIUS_GENOBJ-N-REC_13
 70
     0
  0
APPID
  5
5F8
330
9
100
AcDbSymbolTableRecord
100
AcDbRegAppTableRecord
  2
GENIUS_GENOBJ-3-SH3D_13
 70
     0
  0
APPID
  5
651
330
9
100
AcDbSymbolTableRecord
100
AcDbRegAppTableRecord
  2
AD_SKETCHDIM
 70
     0
  0
APPID
  5
76F
330
9
100
AcDbSymbolTableRecord
100
AcDbRegAppTableRecord
  2
AM_EDITFEAT
 70
     0
  0
APPID
  5
799
330
9
100
AcDbSymbolTableRecord
100
AcDbRegAppTableRecord
  2
GENIUS_GE3SH_14_1
 70
     0
  0
APPID
  5
79A
330
9
100
AcDbSymbolTableRecord
100
AcDbRegAppTableRecord
  2
GENIUS_GE3MANIP_13
 70
     0
  0
APPID
  5
1066
330
9
100
AcDbSymbolTableRecord
100
AcDbRegAppTableRecord
  2
GENIUS_GENSCREG_15
 70
     0
  0
APPID
  5
1068
330
9
100
AcDbSymbolTableRecord
100
AcDbRegAppTableRecord
  2
GENIUS_GENOBJ-N-SDF_13
 70
     0
  0
APPID
  5
1069
330
9
100
AcDbSymbolTableRecord
100
AcDbRegAppTableRecord
  2
GENIUS_GENOENT_13
 70
     0
  0
APPID
  5
106A
330
9
100
AcDbSymbolTableRecord
100
AcDbRegAppTableRecord
  2
GENIUS_GENOREF_13
 70
     0
  0
APPID
  5
106B
330
9
100
AcDbSymbolTableRecord
100
AcDbRegAppTableRecord
  2
GENIUS_GENOLIS_13
 70
     0
  0
APPID
  5
1348
330
9
100
AcDbSymbolTableRecord
100
AcDbRegAppTableRecord
  2
GENIUS_GENDIMSH_14
 70
     0
  0
APPID
  5
17FE
330
9
100
AcDbSymbolTableRecord
100
AcDbRegAppTableRecord
  2
AMG_3D2D_5.0
 70
     0
  0
APPID
  5
1855
330
9
100
AcDbSymbolTableRecord
100
AcDbRegAppTableRecord
  2
AMDT_DM_ADJ
 70
     0
  0
APPID
  5
1E7E
330
9
100
AcDbSymbolTableRecord
100
AcDbRegAppTableRecord
  2
GENIUS_AMGTXT_16
 70
     0
  0
APPID
  5
241E
330
9
100
AcDbSymbolTableRecord
100
AcDbRegAppTableRecord
  2
ACAD_EXEMPT_FROM_CAD_STANDARDS
 70
     0
  0
APPID
  5
285A
330
9
100
AcDbSymbolTableRecord
100
AcDbRegAppTableRecord
  2
GENIUS_GENOBJ-N-CRS_13
 70
     0
  0
APPID
  5
285B
330
9
100
AcDbSymbolTableRecord
100
AcDbRegAppTableRecord
  2
GENIUS_GENOBJ-N-CEN_13
 70
     0
  0
APPID
  5
29E3
330
9
100
AcDbSymbolTableRecord
100
AcDbRegAppTableRecord
  2
ACAD_MLEADERVER
 70
     0
  0
APPID
  5
361B
330
9
100
AcDbSymbolTableRecord
100
AcDbRegAppTableRecord
  2
ACAD_DSTYLE_DIMINSPECT
 70
     0
  0
ENDTAB
  0
TABLE
  2
DIMSTYLE
  5
A
330
0
100
AcDbSymbolTable
 70
    52
100
AcDbDimStyleTable
 71
     5
340
395
340
25
340
62
340
2A
340
29
  0
DIMSTYLE
105
1D
330
A
100
AcDbSymbolTableRecord
100
AcDbDimStyleTableRecord
  2
STANDARD
 70
     0
 41
2.5
 42
0.625
 43
3.75
 44
1.25
 73
     0
 74
     0
 77
     1
 78
     8
140
2.5
141
2.5
143
0.0394
147
0.625
171
     4
172
     1
273
     8
274
     4
277
     6
340
10
  0
DIMSTYLE
105
25
330
A
100
AcDbSymbolTableRecord
100
AcDbDimStyleTableRecord
  2
ISO-35
 70
     0
 41
3.5
 42
0.875
 43
5.25
 44
1.75
 73
     0
 74
     0
 77
     1
 78
     8
140
3.5
141
3.5
143
0.0394
147
0.875
171
     4
172
     1
273
     8
274
     4
277
     6
340
10
  0
DIMSTYLE
105
26
330
A
100
AcDbSymbolTableRecord
100
AcDbDimStyleTableRecord
  2
ISO-5
 70
     0
 41
5.0
 42
1.25
 43
7.5
 44
2.5
 73
     0
 74
     0
 77
     1
 78
     8
140
5.0
141
5.0
143
0.0394
147
1.25
171
     4
172
     1
273
     8
274
     4
277
     6
340
10
  0
DIMSTYLE
105
27
330
A
100
AcDbSymbolTableRecord
100
AcDbDimStyleTableRecord
  2
ISO-7
 70
     0
 41
7.0
 42
1.75
 43
10.5
 44
3.5
 73
     0
 74
     0
 77
     1
 78
     8
140
7.0
141
7.0
143
0.0394
147
1.75
171
     4
172
     1
273
     8
274
     4
277
     6
340
10
  0
DIMSTYLE
105
28
330
A
100
AcDbSymbolTableRecord
100
AcDbDimStyleTableRecord
  2
ISO1
 70
     0
 41
10.0
 42
2.5
 43
15.0
 44
5.0
 73
     0
 74
     0
 77
     1
 78
     8
140
10.0
141
10.0
143
0.0394
147
2.5
171
     4
172
     1
273
     8
274
     4
277
     6
340
10
  0
DIMSTYLE
105
29
330
A
100
AcDbSymbolTableRecord
100
AcDbDimStyleTableRecord
  2
ISO1-4
 70
     0
 41
14.0
 42
3.5
 43
21.0
 44
7.0
 74
     0
 77
     1
 78
     8
140
14.0
141
14.0
143
0.0394
145
5.599999999999999
147
3.5
172
     1
273
     8
277
     6
340
10
  0
DIMSTYLE
105
2A
330
A
100
AcDbSymbolTableRecord
100
AcDbDimStyleTableRecord
  2
ISO2
 70
     0
 41
20.0
 42
5.0
 43
30.0
 44
10.0
 73
     0
 74
     0
 77
     1
 78
     8
140
20.0
141
20.0
143
0.0394
147
5.0
171
     4
172
     1
273
     8
274
     4
277
     6
340
10
  0
DIMSTYLE
105
60
330
A
100
AcDbSymbolTableRecord
100
AcDbDimStyleTableRecord
  2
ISO-4
 70
     0
 41
14.0
 42
3.5
 43
21.0
 44
7.0
 73
     0
 74
     0
 77
     1
 78
     8
140
14.0
141
14.0
143
0.0394
147
3.5
171
     4
172
     1
273
     8
274
     4
277
     6
340
10
  0
DIMSTYLE
105
62
330
A
100
AcDbSymbolTableRecord
100
AcDbDimStyleTableRecord
  2
ISO-25
 70
     0
 41
2.5
 42
0.625
 43
3.75
 44
1.25
 73
     0
 74
     0
 77
     1
 78
     8
140
2.5
141
2.5
143
0.0394
147
0.625
171
     4
172
     1
273
     8
274
     4
277
     6
340
10
  0
DIMSTYLE
105
395
330
A
100
AcDbSymbolTableRecord
100
AcDbDimStyleTableRecord
  2
AM_ISO
 70
     0
  4
"
 41
3.0
 42
0.0
 43
10.0
 44
1.0
 47
0.1
 48
0.1
 73
     0
 74
     0
 77
     1
 78
     8
 79
     2
140
3.5
141
0.0
143
0.0393701
146
0.71
147
1.5
172
     1
176
   256
177
   256
178
     2
271
     2
272
     2
283
     0
340
10
371
    -1
372
    -1
  0
DIMSTYLE
105
396
330
A
100
AcDbSymbolTableRecord
100
AcDbDimStyleTableRecord
  2
AM_ISO$3
 70
     0
  4
"
 41
2.5
 42
1.0
 43
10.0
 44
1.0
 47
0.1
 48
0.1
 73
     0
 77
     1
 78
     8
 79
     2
140
3.5
141
0.0
143
0.0393701
146
0.71
147
1.5
176
   256
177
   256
178
     2
271
     2
272
     2
283
     0
288
     1
289
     0
340
10
371
    -1
372
    -1
  0
DIMSTYLE
105
397
330
A
100
AcDbSymbolTableRecord
100
AcDbDimStyleTableRecord
  2
AM_ISO$4
 70
     0
  4
"
 41
2.5
 42
1.0
 43
10.0
 44
1.0
 47
0.1
 48
0.1
 73
     0
 77
     1
 78
     8
 79
     2
140
3.5
141
0.0
143
0.0393701
146
0.71
147
1.5
176
   256
177
   256
178
     2
271
     2
272
     2
283
     0
288
     1
289
     0
340
10
371
    -1
372
    -1
  0
DIMSTYLE
105
398
330
A
100
AcDbSymbolTableRecord
100
AcDbDimStyleTableRecord
  2
AM_ISO$6
 70
     0
  4
"
 41
2.5
 42
1.0
 43
10.0
 44
1.0
 47
0.1
 48
0.1
 73
     0
 74
     0
 78
     8
 79
     2
140
3.5
141
0.0
143
0.0393701
146
0.71
147
1.5
172
     1
176
   256
177
   256
178
     2
271
     2
272
     3
274
     4
283
     0
340
10
371
    -1
372
    -1
  0
DIMSTYLE
105
399
330
A
100
AcDbSymbolTableRecord
100
AcDbDimStyleTableRecord
  2
AM_ISO$7
 70
     0
  4
"
 41
2.5
 42
1.0
 43
10.0
 44
1.0
 47
0.1
 48
0.1
 73
     0
 74
     0
 77
     1
 78
     8
 79
     2
140
5.0
141
0.0
143
0.0393701
146
0.71
147
1.5
172
     1
176
   256
177
   256
178
     2
271
     2
272
     3
274
     4
283
     0
340
10
371
    -1
372
    -1
  0
DIMSTYLE
105
39A
330
A
100
AcDbSymbolTableRecord
100
AcDbDimStyleTableRecord
  2
AM_ISO$SF
 70
     0
  4
"
 41
2.5
 42
1.0
 43
10.0
 44
1.0
 47
0.1
 48
0.1
 73
     0
 74
     0
 75
     1
 76
     1
 77
     1
 78
     8
 79
     2
140
3.5
141
0.0
143
0.0393701
146
0.71
147
1.5
172
     1
176
   256
177
   256
178
     2
271
     2
272
     3
274
     4
283
     0
340
10
371
    -1
372
    -1
  0
DIMSTYLE
105
39F
330
A
100
AcDbSymbolTableRecord
100
AcDbDimStyleTableRecord
  2
AM_ISO$SH
 70
     0
  4
"
 41
2.5
 42
1.0
 43
10.0
 44
1.0
 47
0.1
 48
0.1
 73
     0
 74
     0
 75
     1
 76
     1
 77
     1
 78
     8
 79
     2
140
3.5
141
0.0
143
0.0393701
144
2.0
146
0.71
147
1.5
172
     1
173
     1
176
   256
177
   256
178
     2
271
     2
272
     3
274
     4
283
     0
340
10
343
39B
371
    -1
372
    -1
  0
DIMSTYLE
105
1832
330
A
100
AcDbSymbolTableRecord
100
AcDbDimStyleTableRecord
  2
AM_BSI
 70
     0
  4
"
 41
4.0
 42
1.0
 43
10.0
 44
1.0
 47
0.1
 48
0.1
 73
     0
 74
     0
 77
     1
 78
     8
 79
     2
140
3.5
141
0.0
143
0.0393701
146
0.71
147
1.5
172
     1
176
   256
177
   256
178
     2
271
     2
272
     3
274
     4
283
     0
284
     8
340
10
371
    -1
372
    -1
  0
DIMSTYLE
105
1833
330
A
100
AcDbSymbolTableRecord
100
AcDbDimStyleTableRecord
  2
AM_BSI$3
 70
     0
  4
"
 41
4.0
 42
1.0
 43
10.0
 44
1.0
 47
0.1
 48
0.1
 73
     0
 77
     1
 78
     8
 79
     2
140
3.5
141
0.0
143
0.0393701
146
0.71
147
1.5
176
   256
177
   256
178
     2
271
     2
272
     3
274
     4
283
     0
284
     8
288
     1
289
     0
340
10
371
    -1
372
    -1
  0
DIMSTYLE
105
1834
330
A
100
AcDbSymbolTableRecord
100
AcDbDimStyleTableRecord
  2
AM_BSI$4
 70
     0
  4
"
 41
4.0
 42
1.0
 43
10.0
 44
1.0
 47
0.1
 48
0.1
 73
     0
 77
     1
 78
     8
 79
     2
140
3.5
141
0.0
143
0.0393701
146
0.71
147
1.5
176
   256
177
   256
178
     2
271
     2
272
     3
274
     4
283
     0
284
     8
288
     1
289
     0
340
10
371
    -1
372
    -1
  0
DIMSTYLE
105
1835
330
A
100
AcDbSymbolTableRecord
100
AcDbDimStyleTableRecord
  2
AM_BSI$6
 70
     0
  4
"
 41
4.0
 42
1.0
 43
10.0
 44
1.0
 47
0.1
 48
0.1
 73
     0
 74
     0
 78
     8
 79
     2
140
3.5
141
0.0
143
0.0393701
146
0.71
147
1.5
172
     1
176
   256
177
   256
178
     2
271
     2
272
     3
274
     4
283
     0
284
     8
340
10
371
    -1
372
    -1
  0
DIMSTYLE
105
1836
330
A
100
AcDbSymbolTableRecord
100
AcDbDimStyleTableRecord
  2
AM_BSI$7
 70
     0
  4
"
 41
2.5
 42
1.0
 43
10.0
 44
1.0
 47
0.1
 48
0.1
 73
     0
 74
     0
 77
     1
 78
     8
 79
     2
140
5.0
141
0.0
143
0.0393701
146
0.71
147
1.5
172
     1
176
   256
177
   256
178
     2
271
     2
272
     3
274
     4
283
     0
284
     8
340
10
371
    -1
372
    -1
  0
DIMSTYLE
105
1837
330
A
100
AcDbSymbolTableRecord
100
AcDbDimStyleTableRecord
  2
AM_BSI$SF
 70
     0
  4
"
 41
4.0
 42
1.0
 43
10.0
 44
1.0
 47
0.1
 48
0.1
 73
     0
 74
     0
 75
     1
 76
     1
 77
     1
 78
     8
 79
     2
140
3.5
141
0.0
143
0.0393701
146
0.71
147
1.5
172
     1
176
   256
177
   256
178
     2
271
     2
272
     3
274
     4
283
     0
284
     8
340
10
371
    -1
372
    -1
  0
DIMSTYLE
105
1838
330
A
100
AcDbSymbolTableRecord
100
AcDbDimStyleTableRecord
  2
AM_BSI$SH
 70
     0
  4
"
 41
4.0
 42
1.0
 43
10.0
 44
1.0
 47
0.1
 48
0.1
 73
     0
 74
     0
 75
     1
 76
     1
 77
     1
 78
     8
 79
     2
140
3.5
141
0.0
143
0.0393701
144
2.0
146
0.71
147
1.5
172
     1
173
     1
176
   256
177
   256
178
     2
271
     2
272
     3
274
     4
283
     0
284
     8
340
10
343
39B
371
    -1
372
    -1
  0
DIMSTYLE
105
183A
330
A
100
AcDbSymbolTableRecord
100
AcDbDimStyleTableRecord
  2
AM_DIN
 70
     0
  4
"
 41
2.5
 42
1.0
 43
10.0
 44
1.0
 47
0.1
 48
0.1
 73
     0
 74
     0
 77
     1
 78
     8
 79
     2
140
3.5
141
0.0
143
0.0393701
146
0.71
147
1.5
172
     1
176
   256
177
   256
178
     2
271
     2
272
     3
274
     4
283
     0
284
     8
340
10
371
    -1
372
    -1
  0
DIMSTYLE
105
183B
330
A
100
AcDbSymbolTableRecord
100
AcDbDimStyleTableRecord
  2
AM_DIN$3
 70
     0
  4
"
 41
2.5
 42
1.0
 43
10.0
 44
1.0
 47
0.1
 48
0.1
 73
     0
 77
     1
 78
     8
 79
     2
140
3.5
141
0.0
143
0.0393701
146
0.71
147
1.5
176
   256
177
   256
178
     2
271
     2
272
     3
274
     4
283
     0
284
     8
288
     1
289
     0
340
10
371
    -1
372
    -1
  0
DIMSTYLE
105
183C
330
A
100
AcDbSymbolTableRecord
100
AcDbDimStyleTableRecord
  2
AM_DIN$4
 70
     0
  4
"
 41
2.5
 42
1.0
 43
10.0
 44
1.0
 47
0.1
 48
0.1
 73
     0
 77
     1
 78
     8
 79
     2
140
3.5
141
0.0
143
0.0393701
146
0.71
147
1.5
176
   256
177
   256
178
     2
271
     2
272
     3
274
     4
283
     0
284
     8
288
     1
289
     0
340
10
371
    -1
372
    -1
  0
DIMSTYLE
105
183D
330
A
100
AcDbSymbolTableRecord
100
AcDbDimStyleTableRecord
  2
AM_DIN$6
 70
     0
  4
"
 41
2.5
 42
1.0
 43
10.0
 44
1.0
 47
0.1
 48
0.1
 73
     0
 74
     0
 78
     8
 79
     2
140
3.5
141
0.0
143
0.0393701
146
0.71
147
1.5
172
     1
176
   256
177
   256
178
     2
271
     2
272
     3
274
     4
283
     0
284
     8
340
10
371
    -1
372
    -1
  0
DIMSTYLE
105
183E
330
A
100
AcDbSymbolTableRecord
100
AcDbDimStyleTableRecord
  2
AM_DIN$7
 70
     0
  4
"
 41
2.5
 42
1.0
 43
10.0
 44
1.0
 47
0.1
 48
0.1
 73
     0
 74
     0
 77
     1
 78
     8
 79
     2
140
5.0
141
0.0
143
0.0393701
146
0.71
147
1.5
172
     1
176
   256
177
   256
178
     2
271
     2
272
     3
274
     4
283
     0
284
     8
340
10
371
    -1
372
    -1
  0
DIMSTYLE
105
183F
330
A
100
AcDbSymbolTableRecord
100
AcDbDimStyleTableRecord
  2
AM_DIN$SF
 70
     0
  4
"
 41
2.5
 42
1.0
 43
10.0
 44
1.0
 47
0.1
 48
0.1
 73
     0
 74
     0
 75
     1
 76
     1
 77
     1
 78
     8
 79
     2
140
3.5
141
0.0
143
0.0393701
146
0.71
147
1.5
172
     1
176
   256
177
   256
178
     2
271
     2
272
     3
274
     4
283
     0
284
     8
340
10
371
    -1
372
    -1
  0
DIMSTYLE
105
1840
330
A
100
AcDbSymbolTableRecord
100
AcDbDimStyleTableRecord
  2
AM_DIN$SH
 70
     0
  4
"
 41
2.5
 42
1.0
 43
10.0
 44
1.0
 47
0.1
 48
0.1
 73
     0
 74
     0
 75
     1
 76
     1
 77
     1
 78
     8
 79
     2
140
3.5
141
0.0
143
0.0393701
144
2.0
146
0.71
147
1.5
172
     1
173
     1
176
   256
177
   256
178
     2
271
     2
272
     3
274
     4
283
     0
284
     8
340
10
343
39B
371
    -1
372
    -1
  0
DIMSTYLE
105
1843
330
A
100
AcDbSymbolTableRecord
100
AcDbDimStyleTableRecord
  2
AM_JIS
 70
     0
  4
"
 41
2.5
 42
1.0
 43
10.0
 44
1.0
 47
0.1
 48
0.1
 73
     0
 74
     0
 77
     3
 78
     8
 79
     2
140
3.5
141
0.0
143
0.0393701
146
0.71
147
1.5
172
     1
176
   256
177
   256
178
     2
271
     2
272
     3
274
     4
283
     0
284
     8
340
10
341
1844
342
1844
343
1844
344
1844
371
    -1
372
    -1
  0
DIMSTYLE
105
184A
330
A
100
AcDbSymbolTableRecord
100
AcDbDimStyleTableRecord
  2
AM_JIS$3
 70
     0
  4
"
 41
2.5
 42
1.0
 43
10.0
 44
1.0
 47
0.1
 48
0.1
 73
     0
 77
     3
 78
     8
 79
     2
140
3.5
141
0.0
143
0.0393701
146
0.71
147
1.5
176
   256
177
   256
178
     2
271
     2
272
     3
274
     4
283
     0
284
     8
288
     1
289
     0
340
10
341
1844
342
1844
343
1844
344
1844
371
    -1
372
    -1
  0
DIMSTYLE
105
184B
330
A
100
AcDbSymbolTableRecord
100
AcDbDimStyleTableRecord
  2
AM_JIS$4
 70
     0
  4
"
 41
2.5
 42
1.0
 43
10.0
 44
1.0
 47
0.1
 48
0.1
 73
     0
 77
     3
 78
     8
 79
     2
140
3.5
141
0.0
143
0.0393701
146
0.71
147
1.5
176
   256
177
   256
178
     2
271
     2
272
     3
274
     4
283
     0
284
     8
288
     1
289
     0
340
10
341
1844
342
1844
343
1844
344
1844
371
    -1
372
    -1
  0
DIMSTYLE
105
184C
330
A
100
AcDbSymbolTableRecord
100
AcDbDimStyleTableRecord
  2
AM_JIS$6
 70
     0
  4
"
 41
2.5
 42
1.0
 43
10.0
 44
1.0
 47
0.1
 48
0.1
 73
     0
 74
     0
 78
     8
 79
     2
140
3.5
141
0.0
143
0.0393701
146
0.71
147
1.5
172
     1
176
   256
177
   256
178
     2
271
     2
272
     3
274
     4
283
     0
284
     8
340
10
341
1844
342
1844
343
1844
344
1844
371
    -1
372
    -1
  0
DIMSTYLE
105
184D
330
A
100
AcDbSymbolTableRecord
100
AcDbDimStyleTableRecord
  2
AM_JIS$7
 70
     0
  4
"
 41
2.5
 42
1.0
 43
10.0
 44
1.0
 47
0.1
 48
0.1
 73
     0
 74
     0
 77
     3
 78
     8
 79
     2
140
5.0
141
0.0
143
0.0393701
146
0.71
147
1.5
172
     1
176
   256
177
   256
178
     2
271
     2
272
     3
274
     4
283
     0
284
     8
340
10
341
1844
342
1844
343
1844
344
1844
371
    -1
372
    -1
  0
DIMSTYLE
105
184E
330
A
100
AcDbSymbolTableRecord
100
AcDbDimStyleTableRecord
  2
AM_JIS$SF
 70
     0
  4
"
 41
2.5
 42
1.0
 43
10.0
 44
1.0
 47
0.1
 48
0.1
 73
     0
 74
     0
 75
     1
 76
     1
 77
     3
 78
     8
 79
     2
140
3.5
141
0.0
143
0.0393701
146
0.71
147
1.5
172
     1
176
   256
177
   256
178
     2
271
     2
272
     3
274
     4
283
     0
284
     8
340
10
341
1844
342
1844
343
1844
344
1844
371
    -1
372
    -1
  0
DIMSTYLE
105
184F
330
A
100
AcDbSymbolTableRecord
100
AcDbDimStyleTableRecord
  2
AM_JIS$SH
 70
     0
  4
"
 41
2.5
 42
1.0
 43
10.0
 44
1.0
 47
0.1
 48
0.1
 73
     0
 74
     0
 75
     1
 76
     1
 77
     3
 78
     8
 79
     2
140
3.5
141
0.0
143
0.0393701
144
2.0
146
0.71
147
1.5
172
     1
173
     1
176
   256
177
   256
178
     2
271
     2
272
     3
274
     4
283
     0
284
     8
340
10
341
1844
342
1844
343
39B
344
1844
371
    -1
372
    -1
  0
DIMSTYLE
105
1A14
330
A
100
AcDbSymbolTableRecord
100
AcDbDimStyleTableRecord
  2
GEN-ISO
 70
     0
  3
<>
  4
"
 41
3.0
 42
0.0
 43
10.0
 44
1.0
 47
0.1
 48
0.1
 73
     0
 74
     0
 77
     1
 78
     8
140
3.5
141
0.0
143
0.0393701
144
2.0
146
0.71
147
1.0
172
     1
176
   256
177
   256
178
     2
271
     1
272
     3
274
     4
275
     1
283
     0
284
     8
340
10
  0
DIMSTYLE
105
1A15
330
A
100
AcDbSymbolTableRecord
100
AcDbDimStyleTableRecord
  2
GEN-ANSI
 70
     0
  3
<>
  4
"
 41
3.0
 42
0.0
 43
10.0
 44
1.0
 47
0.1
 48
0.1
 78
     8
140
3.5
141
0.0
143
0.0393701
144
2.0
146
0.71
147
1.0
176
   256
177
   256
178
     2
271
     1
272
     3
274
     4
275
     1
284
     8
340
10
  0
DIMSTYLE
105
1A16
330
A
100
AcDbSymbolTableRecord
100
AcDbDimStyleTableRecord
  2
GEN-ANSI$3
 70
     0
  3
<>
  4
"
 41
3.0
 42
0.0
 43
10.0
 44
1.0
 47
0.1
 48
0.1
 78
     8
140
3.5
141
0.0
143
0.0393701
144
2.0
146
0.71
147
1.0
176
   256
177
   256
178
     2
271
     1
272
     3
274
     4
275
     1
284
     8
288
     1
289
     0
340
10
  0
DIMSTYLE
105
1A17
330
A
100
AcDbSymbolTableRecord
100
AcDbDimStyleTableRecord
  2
GEN-ANSI$4
 70
     0
  3
<>
  4
"
 41
3.0
 42
0.0
 43
10.0
 44
1.0
 47
0.1
 48
0.1
 78
     8
140
3.5
141
0.0
143
0.0393701
144
2.0
146
0.71
147
1.0
176
   256
177
   256
178
     2
271
     1
272
     3
274
     4
275
     1
284
     8
288
     1
289
     0
340
10
  0
DIMSTYLE
105
1A18
330
A
100
AcDbSymbolTableRecord
100
AcDbDimStyleTableRecord
  2
GEN-ANSI$6
 70
     0
  3
<>
  4
"
 41
3.0
 42
0.0
 43
10.0
 44
1.0
 47
0.1
 48
0.1
 78
     8
140
3.5
141
0.0
143
0.0393701
144
2.0
146
0.71
147
1.0
176
   256
177
   256
178
     2
271
     1
272
     3
274
     4
275
     1
284
     8
340
10
  0
DIMSTYLE
105
1A19
330
A
100
AcDbSymbolTableRecord
100
AcDbDimStyleTableRecord
  2
GEN-ANSI-POS
 70
     0
  3
<>
  4
"
 41
2.5
 42
0.0
 43
10.0
 44
1.0
 47
0.1
 48
0.1
 73
     0
 74
     0
 78
     8
140
5.0
141
0.0
143
0.0393701
144
2.0
146
0.71
147
1.5
176
   256
177
   256
178
     2
271
     1
272
     3
274
     4
275
     1
284
     8
340
10
  0
DIMSTYLE
105
1A1A
330
A
100
AcDbSymbolTableRecord
100
AcDbDimStyleTableRecord
  2
GEN-ANSI-AXE-F
 70
     0
  3
<>
  4
"
 41
3.0
 42
0.0
 43
10.0
 44
1.0
 47
0.1
 48
0.1
 75
     1
 76
     1
 78
     8
140
3.5
141
0.0
143
0.0393701
144
2.0
146
0.71
147
1.0
173
     1
176
   256
177
   256
178
     2
271
     1
272
     3
274
     4
275
     1
284
     8
340
10
343
39B
  0
DIMSTYLE
105
1A1B
330
A
100
AcDbSymbolTableRecord
100
AcDbDimStyleTableRecord
  2
GEN-ANSI-AXE-H
 70
     0
  3
<>
  4
"
 41
3.0
 42
0.0
 43
10.0
 44
1.0
 47
0.1
 48
0.1
 73
     0
 74
     0
 75
     1
 76
     1
 78
     8
140
3.5
141
0.0
143
0.0393701
144
2.0
146
0.71
147
1.0
172
     1
173
     1
176
   256
177
   256
178
     2
271
     1
272
     3
274
     4
275
     1
284
     8
340
10
343
39B
  0
DIMSTYLE
105
2403
102
{ACAD_REACTORS
330
3603
330
3658
330
3679
330
36A0
330
370E
330
3738
330
37AC
102
}
330
A
100
AcDbSymbolTableRecord
100
AcDbDimStyleTableRecord
  2
AM_ISO$0
 70
     0
  4
"
 41
3.0
 42
0.0
 43
10.0
 44
1.0
 47
0.1
 48
0.1
 73
     0
 74
     0
 77
     1
 78
     8
 79
     2
140
3.5
141
0.0
143
0.0393701
146
0.71
147
1.5
172
     1
176
   256
177
   256
178
     2
271
     2
272
     2
283
     0
340
10
371
    -1
372
    -1
  0
DIMSTYLE
105
2854
330
A
100
AcDbSymbolTableRecord
100
AcDbDimStyleTableRecord
  2
AM_ANSI
 70
     0
  4
mm
 41
0.1
 42
0.05
 43
0.5
 44
0.1
 47
0.1
 48
0.1
 78
     7
 79
     2
 90
     1
140
0.12
141
0.0
146
0.71
147
0.06
176
   256
177
   256
178
     2
274
     4
284
     7
340
10
371
    -1
372
    -1
  0
DIMSTYLE
105
2855
330
A
100
AcDbSymbolTableRecord
100
AcDbDimStyleTableRecord
  2
AM_ANSI$3
 70
     0
  4
mm
 41
0.1
 42
0.05
 43
0.5
 44
0.1
 47
0.1
 48
0.1
 78
     7
 79
     2
 90
     1
140
0.12
141
0.0
146
0.71
147
0.06
176
   256
177
   256
178
     2
274
     4
284
     7
288
     1
289
     0
340
10
371
    -1
372
    -1
  0
DIMSTYLE
105
2856
330
A
100
AcDbSymbolTableRecord
100
AcDbDimStyleTableRecord
  2
AM_ANSI$4
 70
     0
  4
mm
 41
0.1
 42
0.05
 43
0.5
 44
0.1
 47
0.1
 48
0.1
 78
     7
 79
     2
 90
     1
140
0.12
141
0.0
146
0.71
147
0.06
176
   256
177
   256
178
     2
274
     4
284
     7
288
     1
289
     0
340
10
371
    -1
372
    -1
  0
DIMSTYLE
105
2857
330
A
100
AcDbSymbolTableRecord
100
AcDbDimStyleTableRecord
  2
AM_ANSI$7
 70
     0
  4
mm
 41
0.1
 42
0.05
 43
0.5
 44
0.1
 47
0.1
 48
0.1
 78
     7
 79
     2
 90
     1
140
0.24
141
0.0
146
0.71
147
0.06
176
   256
177
   256
178
     2
274
     4
284
     7
340
10
371
    -1
372
    -1
  0
DIMSTYLE
105
2858
330
A
100
AcDbSymbolTableRecord
100
AcDbDimStyleTableRecord
  2
AM_ANSI$SF
 70
     0
  4
mm
 41
0.1
 42
0.05
 43
0.5
 44
0.1
 47
0.1
 48
0.1
 75
     1
 76
     1
 78
     7
 79
     2
 90
     1
140
0.12
141
0.0
146
0.71
147
0.06
176
   256
177
   256
178
     2
274
     4
284
     7
340
10
371
    -1
372
    -1
  0
DIMSTYLE
105
2859
330
A
100
AcDbSymbolTableRecord
100
AcDbDimStyleTableRecord
  2
AM_ANSI$SH
 70
     0
  4
mm
 41
0.1
 42
0.05
 43
0.5
 44
0.1
 47
0.1
 48
0.1
 75
     1
 76
     1
 78
     7
 79
     2
 90
     1
140
0.12
141
0.0
146
0.71
147
0.06
173
     1
176
   256
177
   256
178
     2
274
     4
284
     7
340
10
343
39B
371
    -1
372
    -1
  0
ENDTAB
  0
TABLE
  2
BLOCK_RECORD
  5
1
330
0
100
AcDbSymbolTable
 70
    18
  0
BLOCK_RECORD
  5
1A
102
{ACAD_XDICTIONARY
360
12A
102
}
330
1
100
AcDbSymbolTableRecord
100
AcDbBlockTableRecord
  2
*MODEL_SPACE
340
169
 70
     0
280
     1
281
     0
  0
BLOCK_RECORD
  5
17
330
1
100
AcDbSymbolTableRecord
100
AcDbBlockTableRecord
  2
*PAPER_SPACE
340
16A
 70
     0
280
     1
281
     0
  0
BLOCK_RECORD
  5
34D
330
1
100
AcDbSymbolTableRecord
100
AcDbBlockTableRecord
  2
*Paper_Space0
340
351
 70
     0
280
     1
281
     0
  0
BLOCK_RECORD
  5
313
330
1
100
AcDbSymbolTableRecord
100
AcDbBlockTableRecord
  2
*Paper_Space1
340
314
 70
     0
280
     1
281
     0
  0
BLOCK_RECORD
  5
2E0
330
1
100
AcDbSymbolTableRecord
100
AcDbBlockTableRecord
  2
*Paper_Space2
340
2E1
 70
     0
280
     1
281
     0
  0
BLOCK_RECORD
  5
345
330
1
100
AcDbSymbolTableRecord
100
AcDbBlockTableRecord
  2
*Paper_Space3
340
349
 70
     0
280
     1
281
     0
  0
BLOCK_RECORD
  5
39B
330
1
100
AcDbSymbolTableRecord
100
AcDbBlockTableRecord
  2
GENAXEH
340
0
 70
     0
280
     1
281
     0
  0
BLOCK_RECORD
  5
3F8
330
1
100
AcDbSymbolTableRecord
100
AcDbBlockTableRecord
  2
AVE_RENDER
340
0
102
{BLKREFS
331
3FB
331
3FC
331
3FD
331
3FE
331
3FF
331
400
331
401
331
402
102
}
 70
     0
280
     1
281
     0
  0
BLOCK_RECORD
  5
406
330
1
100
AcDbSymbolTableRecord
100
AcDbBlockTableRecord
  2
AVE_GLOBAL
340
0
102
{BLKREFS
331
409
102
}
 70
     0
280
     1
281
     0
  0
BLOCK_RECORD
  5
594
330
1
100
AcDbSymbolTableRecord
100
AcDbBlockTableRecord
  2
*U7
340
0
 70
     0
280
     1
281
     0
  0
BLOCK_RECORD
  5
5E5
330
1
100
AcDbSymbolTableRecord
100
AcDbBlockTableRecord
  2
*U8
340
0
 70
     0
280
     1
281
     0
  0
BLOCK_RECORD
  5
1366
330
1
100
AcDbSymbolTableRecord
100
AcDbBlockTableRecord
  2
GENDOT
340
0
 70
     0
280
     1
281
     0
  0
BLOCK_RECORD
  5
1844
330
1
100
AcDbSymbolTableRecord
100
AcDbBlockTableRecord
  2
_Open30
340
0
 70
     0
280
     1
281
     0
  0
BLOCK_RECORD
  5
3604
330
1
100
AcDbSymbolTableRecord
100
AcDbBlockTableRecord
  2
*D11
340
0
 70
     0
280
     1
281
     0
  0
BLOCK_RECORD
  5
3659
330
1
100
AcDbSymbolTableRecord
100
AcDbBlockTableRecord
  2
*D12
340
0
 70
     0
280
     1
281
     0
  0
BLOCK_RECORD
  5
367A
330
1
100
AcDbSymbolTableRecord
100
AcDbBlockTableRecord
  2
*D13
340
0
 70
     0
280
     1
281
     0
  0
BLOCK_RECORD
  5
36A1
330
1
100
AcDbSymbolTableRecord
100
AcDbBlockTableRecord
  2
*D14
340
0
 70
     0
280
     1
281
     0
  0
BLOCK_RECORD
  5
370F
330
1
100
AcDbSymbolTableRecord
100
AcDbBlockTableRecord
  2
*D15
340
0
 70
     0
280
     1
281
     0
  0
BLOCK_RECORD
  5
3739
330
1
100
AcDbSymbolTableRecord
100
AcDbBlockTableRecord
  2
*D16
340
0
 70
     0
280
     1
281
     0
  0
BLOCK_RECORD
  5
37AD
330
1
100
AcDbSymbolTableRecord
100
AcDbBlockTableRecord
  2
*D17
340
0
 70
     0
280
     1
281
     0
  0
ENDTAB
  0
ENDSEC
  0
SECTION
  2
BLOCKS
  0
BLOCK
  5
1B
330
1A
100
AcDbEntity
  8
0
100
AcDbBlockBegin
  2
*MODEL_SPACE
 70
     0
 10
0.0
 20
0.0
 30
0.0
  3
*MODEL_SPACE
  1

  0
ENDBLK
  5
1C
330
1A
100
AcDbEntity
  8
0
100
AcDbBlockEnd
  0
BLOCK
  5
18
330
17
100
AcDbEntity
 67
     1
  8
0
100
AcDbBlockBegin
  2
*PAPER_SPACE
 70
     0
 10
0.0
 20
0.0
 30
0.0
  3
*PAPER_SPACE
  1

  0
ENDBLK
  5
19
330
17
100
AcDbEntity
 67
     1
  8
0
100
AcDbBlockEnd
  0
BLOCK
  5
34F
330
34D
100
AcDbEntity
 67
     1
  8
0
100
AcDbBlockBegin
  2
*Paper_Space0
 70
     0
 10
0.0
 20
0.0
 30
0.0
  3
*Paper_Space0
  1

  0
VIEWPORT
  5
34E
330
34D
100
AcDbEntity
 67
     1
  8
AM_VIEWS
100
AcDbViewport
 10
577.468994140625
 20
415.4593176841736
 30
0.0
 40
1195.734595476714
 41
932.8590910236622
 68
     0
 69
     0
 12
577.468994140625
 22
415.4593176841736
 13
0.0
 23
0.0
 14
10.0
 24
10.0
 15
10.0
 25
10.0
 16
0.0
 26
0.0
 36
1.0
 17
0.0
 27
0.0
 37
0.0
 42
50.0
 43
0.0
 44
0.0
 45
932.8590910236622
 50
0.0
 51
0.0
 72
   100
331
1969
 90
    32800
  1

281
     0
 71
     1
 74
     0
110
0.0
120
0.0
130
0.0
111
1.0
121
0.0
131
0.0
112
0.0
122
1.0
132
0.0
 79
     0
146
0.0
170
     0
 61
     5
348
23C6
292
     1
282
     1
141
0.0
142
0.0
 63
   250
421
  3355443
  0
ENDBLK
  5
350
330
34D
100
AcDbEntity
 67
     1
  8
0
100
AcDbBlockEnd
  0
BLOCK
  5
315
330
313
100
AcDbEntity
 67
     1
  8
0
100
AcDbBlockBegin
  2
*Paper_Space1
 70
     0
 10
0.0
 20
0.0
 30
0.0
  3
*Paper_Space1
  1

  0
VIEWPORT
  5
344
330
313
100
AcDbEntity
 67
     1
  8
AM_VIEWS
100
AcDbViewport
 10
279.9926452636719
 20
204.9779944419861
 30
0.0
 40
597.3137355517764
 41
465.9976808487594
 68
     0
 69
     0
 12
279.9926452636719
 22
204.9779944419861
 13
0.0
 23
0.0
 14
10.0
 24
10.0
 15
10.0
 25
10.0
 16
0.0
 26
0.0
 36
1.0
 17
0.0
 27
0.0
 37
0.0
 42
50.0
 43
0.0
 44
0.0
 45
465.9976808487594
 50
0.0
 51
0.0
 72
   100
331
1969
 90
    32800
  1

281
     0
 71
     1
 74
     0
110
0.0
120
0.0
130
0.0
111
1.0
121
0.0
131
0.0
112
0.0
122
1.0
132
0.0
 79
     0
146
0.0
170
     0
 61
     5
348
23C6
292
     1
282
     1
141
0.0
142
0.0
 63
   250
421
  3355443
  0
ENDBLK
  5
316
330
313
100
AcDbEntity
 67
     1
  8
0
100
AcDbBlockEnd
  0
BLOCK
  5
2E2
330
2E0
100
AcDbEntity
 67
     1
  8
0
100
AcDbBlockBegin
  2
*Paper_Space2
 70
     0
 10
0.0
 20
0.0
 30
0.0
  3
*Paper_Space2
  1

  0
VIEWPORT
  5
31D
330
2E0
100
AcDbEntity
 67
     1
  8
AM_VIEWS
100
AcDbViewport
 10
204.9674224853516
 20
143.4782419204712
 30
0.0
 40
422.4372280469156
 41
329.5667868615042
 68
     0
 69
     0
 12
204.9674224853516
 22
143.4782419204712
 13
0.0
 23
0.0
 14
10.0
 24
10.0
 15
10.0
 25
10.0
 16
0.0
 26
0.0
 36
1.0
 17
0.0
 27
0.0
 37
0.0
 42
50.0
 43
0.0
 44
0.0
 45
329.5667868615042
 50
0.0
 51
0.0
 72
   100
331
1969
 90
    32800
  1

281
     0
 71
     1
 74
     0
110
0.0
120
0.0
130
0.0
111
1.0
121
0.0
131
0.0
112
0.0
122
1.0
132
0.0
 79
     0
146
0.0
170
     0
 61
     5
348
23C6
292
     1
282
     1
141
0.0
142
0.0
 63
   250
421
  3355443
  0
ENDBLK
  5
2E3
330
2E0
100
AcDbEntity
 67
     1
  8
0
100
AcDbBlockEnd
  0
BLOCK
  5
347
330
345
100
AcDbEntity
 67
     1
  8
0
100
AcDbBlockBegin
  2
*Paper_Space3
 70
     0
 10
0.0
 20
0.0
 30
0.0
  3
*Paper_Space3
  1

  0
VIEWPORT
  5
346
330
345
100
AcDbEntity
 67
     1
  8
AM_VIEWS
100
AcDbViewport
 10
279.9926452636719
 20
204.9779944419861
 30
0.0
 40
597.3137355517764
 41
465.9976808487594
 68
     0
 69
     0
 12
279.9926452636719
 22
204.9779944419861
 13
0.0
 23
0.0
 14
10.0
 24
10.0
 15
10.0
 25
10.0
 16
0.0
 26
0.0
 36
1.0
 17
0.0
 27
0.0
 37
0.0
 42
50.0
 43
0.0
 44
0.0
 45
465.9976808487594
 50
0.0
 51
0.0
 72
   100
331
1969
 90
    32800
  1

281
     0
 71
     1
 74
     0
110
0.0
120
0.0
130
0.0
111
1.0
121
0.0
131
0.0
112
0.0
122
1.0
132
0.0
 79
     0
146
0.0
170
     0
 61
     5
348
23C6
292
     1
282
     1
141
0.0
142
0.0
 63
   250
421
  3355443
  0
ENDBLK
  5
348
330
345
100
AcDbEntity
 67
     1
  8
0
100
AcDbBlockEnd
  0
BLOCK
  5
39D
330
39B
100
AcDbEntity
  8
0
100
AcDbBlockBegin
  2
GENAXEH
 70
     0
 10
0.0
 20
0.0
 30
0.0
  3
GENAXEH
  1

  0
LINE
  5
39C
330
39B
100
AcDbEntity
  8
0
100
AcDbLine
 10
-1.0
 20
0.0
 30
0.0
 11
1.0
 21
0.0
 31
0.0
  0
ENDBLK
  5
39E
330
39B
100
AcDbEntity
  8
0
100
AcDbBlockEnd
  0
BLOCK
  5
3F9
330
3F8
100
AcDbEntity
  8
ASHADE
100
AcDbBlockBegin
  2
AVE_RENDER
 70
     0
 10
0.0
 20
0.0
 30
0.0
  3
AVE_RENDER
  1
AVE_RENDER
  0
ENDBLK
  5
3FA
330
3F8
100
AcDbEntity
  8
0
100
AcDbBlockEnd
  0
BLOCK
  5
407
330
406
100
AcDbEntity
  8
ASHADE
100
AcDbBlockBegin
  2
AVE_GLOBAL
 70
     0
 10
0.0
 20
0.0
 30
0.0
  3
AVE_GLOBAL
  1
AVE_GLOBAL
  0
ENDBLK
  5
408
330
406
100
AcDbEntity
  8
0
100
AcDbBlockEnd
  0
BLOCK
  5
595
330
594
100
AcDbEntity
  8
0
100
AcDbBlockBegin
  2
*U7
 70
     1
 10
0.0
 20
0.0
 30
0.0
  3
*U7
  1

  0
ENDBLK
  5
596
330
594
100
AcDbEntity
  8
0
100
AcDbBlockEnd
  0
BLOCK
  5
5E6
330
5E5
100
AcDbEntity
  8
0
100
AcDbBlockBegin
  2
*U8
 70
     1
 10
0.0
 20
0.0
 30
0.0
  3
*U8
  1

  0
ENDBLK
  5
5E7
330
5E5
100
AcDbEntity
  8
0
100
AcDbBlockEnd
  0
BLOCK
  5
1369
330
1366
100
AcDbEntity
  8
0
100
AcDbBlockBegin
  2
GENDOT
 70
     0
 10
0.0
 20
0.0
 30
0.0
  3
GENDOT
  1

  0
LINE
  5
1367
330
1366
100
AcDbEntity
  8
0
100
AcDbLine
 10
0.0
 20
0.0
 30
0.0
 11
-1.0
 21
0.0
 31
0.0
  0
LWPOLYLINE
  5
1368
330
1366
100
AcDbEntity
  8
0
100
AcDbPolyline
 90
        2
 70
     1
 43
0.25
 10
-0.125
 20
0.0
 42
1.0
 10
0.125
 20
0.0
 42
1.0
  0
ENDBLK
  5
136A
330
1366
100
AcDbEntity
  8
0
100
AcDbBlockEnd
  0
BLOCK
  5
1848
330
1844
100
AcDbEntity
  8
0
100
AcDbBlockBegin
  2
_Open30
 70
     0
 10
0.0
 20
0.0
 30
0.0
  3
_Open30
  1

  0
LINE
  5
1845
330
1844
100
AcDbEntity
  8
0
  6
ByBlock
 62
     0
370
    -2
100
AcDbLine
 10
-1.0
 20
0.26794919
 30
0.0
 11
0.0
 21
0.0
 31
0.0
  0
LINE
  5
1846
330
1844
100
AcDbEntity
  8
0
  6
ByBlock
 62
     0
370
    -2
100
AcDbLine
 10
0.0
 20
0.0
 30
0.0
 11
-1.0
 21
-0.26794919
 31
0.0
  0
LINE
  5
1847
330
1844
100
AcDbEntity
  8
0
  6
ByBlock
 62
     0
370
    -2
100
AcDbLine
 10
0.0
 20
0.0
 30
0.0
 11
-1.0
 21
0.0
 31
0.0
  0
ENDBLK
  5
1849
330
1844
100
AcDbEntity
  8
0
100
AcDbBlockEnd
  0
BLOCK
  5
3605
330
3604
100
AcDbEntity
  8
0
100
AcDbBlockBegin
  2
*D11
 70
     1
 10
0.0
 20
0.0
 30
0.0
  3
*D11
  1

  0
LINE
  5
362E
330
3604
100
AcDbEntity
  8
AM_5
100
AcDbLine
 10
163.2176365224843
 20
215.293911934511
 30
0.0
 11
215.7190669910674
 21
215.293911934511
 31
0.0
  0
LINE
  5
362F
330
3604
100
AcDbEntity
  8
AM_5
100
AcDbLine
 10
163.2176365224843
 20
162.2910530173448
 30
0.0
 11
215.7190669910674
 21
162.2910530173448
 31
0.0
  0
LINE
  5
3630
330
3604
100
AcDbEntity
  8
AM_5
100
AcDbLine
 10
213.7190669910674
 20
209.293911934511
 30
0.0
 11
213.7190669910674
 21
168.2910530173448
 31
0.0
  0
SOLID
  5
3631
330
3604
100
AcDbEntity
  8
AM_5
100
AcDbTrace
 10
212.7190669910675
 20
209.293911934511
 30
0.0
 11
214.7190669910675
 21
209.293911934511
 31
0.0
 12
213.7190669910674
 22
215.293911934511
 32
0.0
 13
213.7190669910674
 23
215.293911934511
 33
0.0
  0
SOLID
  5
3632
330
3604
100
AcDbEntity
  8
AM_5
100
AcDbTrace
 10
212.7190669910674
 20
168.2910530173448
 30
0.0
 11
214.7190669910674
 21
168.2910530173448
 31
0.0
 12
213.7190669910674
 22
162.2910530173448
 32
0.0
 13
213.7190669910674
 23
162.2910530173448
 33
0.0
  0
MTEXT
  5
3633
330
3604
100
AcDbEntity
  8
AM_5
 62
     2
100
AcDbMText
 10
207.2190669910674
 20
188.7924824759279
 30
0.0
 40
7.0
 41
0.0
 46
0.0
 71
     5
 72
     1
  1
%%c53
 11
0.0000000000000001
 21
1.0
 31
0.0
 73
     1
 44
1.0
  0
POINT
  5
3634
330
3604
100
AcDbEntity
  8
Defpoints
 62
     0
100
AcDbPoint
 10
163.2176365224843
 20
215.293911934511
 30
0.0
  0
POINT
  5
3635
330
3604
100
AcDbEntity
  8
Defpoints
 62
     0
100
AcDbPoint
 10
163.2176365224843
 20
162.2910530173448
 30
0.0
  0
POINT
  5
3636
330
3604
100
AcDbEntity
  8
Defpoints
 62
     0
100
AcDbPoint
 10
213.7190669910674
 20
162.2910530173448
 30
0.0
  0
ENDBLK
  5
3606
330
3604
100
AcDbEntity
  8
0
100
AcDbBlockEnd
  0
BLOCK
  5
365A
330
3659
100
AcDbEntity
  8
0
100
AcDbBlockBegin
  2
*D12
 70
     1
 10
0.0
 20
0.0
 30
0.0
  3
*D12
  1

  0
LINE
  5
3670
330
3659
100
AcDbEntity
  8
AM_5
100
AcDbLine
 10
110.2176365225351
 20
118.3414959548737
 30
0.0
 11
84.21763652253515
 21
118.3414959548738
 31
0.0
  0
LINE
  5
3671
330
3659
100
AcDbEntity
  8
AM_5
100
AcDbLine
 10
163.2176365224843
 20
70.34149595487369
 30
0.0
 11
84.21763652253513
 21
70.34149595487372
 31
0.0
  0
LINE
  5
3672
330
3659
100
AcDbEntity
  8
AM_5
100
AcDbLine
 10
86.21763652253514
 20
112.3414959548738
 30
0.0
 11
86.21763652253513
 21
76.34149595487372
 31
0.0
  0
SOLID
  5
3673
330
3659
100
AcDbEntity
  8
AM_5
100
AcDbTrace
 10
85.21763652253515
 20
112.3414959548738
 30
0.0
 11
87.21763652253514
 21
112.3414959548738
 31
0.0
 12
86.21763652253514
 22
118.3414959548738
 32
0.0
 13
86.21763652253514
 23
118.3414959548738
 33
0.0
  0
SOLID
  5
3674
330
3659
100
AcDbEntity
  8
AM_5
100
AcDbTrace
 10
85.21763652253513
 20
76.34149595487372
 30
0.0
 11
87.21763652253512
 21
76.34149595487372
 31
0.0
 12
86.21763652253513
 22
70.34149595487372
 32
0.0
 13
86.21763652253513
 23
70.34149595487372
 33
0.0
  0
MTEXT
  5
3675
330
3659
100
AcDbEntity
  8
AM_5
 62
     2
100
AcDbMText
 10
79.71763652253511
 20
94.34149595487378
 30
0.0
 40
7.0
 41
0.0
 46
0.0
 71
     5
 72
     1
  1
48
 11
0.0000000000000001
 21
1.0
 31
0.0
 73
     1
 44
1.0
  0
POINT
  5
3676
330
3659
100
AcDbEntity
  8
Defpoints
 62
     0
100
AcDbPoint
 10
110.2176365225351
 20
118.3414959548737
 30
0.0
  0
POINT
  5
3677
330
3659
100
AcDbEntity
  8
Defpoints
 62
     0
100
AcDbPoint
 10
163.2176365224843
 20
70.34149595487369
 30
0.0
  0
POINT
  5
3678
330
3659
100
AcDbEntity
  8
Defpoints
 62
     0
100
AcDbPoint
 10
86.21763652253513
 20
70.34149595487372
 30
0.0
  0
ENDBLK
  5
365B
330
3659
100
AcDbEntity
  8
0
100
AcDbBlockEnd
  0
BLOCK
  5
367B
330
367A
100
AcDbEntity
  8
0
100
AcDbBlockBegin
  2
*D13
 70
     1
 10
0.0
 20
0.0
 30
0.0
  3
*D13
  1

  0
LINE
  5
3782
330
367A
100
AcDbEntity
  8
AM_5
100
AcDbLine
 10
130.2176365225351
 20
118.3414959548737
 30
0.0
 11
157.5163040983578
 21
118.3414959548737
 31
0.0
  0
LINE
  5
3783
330
367A
100
AcDbEntity
  8
AM_5
100
AcDbLine
 10
132.2176365225351
 20
104.0076236716839
 30
0.0
 11
157.5163040983578
 21
104.0076236716839
 31
0.0
  0
LINE
  5
3784
330
367A
100
AcDbEntity
  8
AM_5
100
AcDbLine
 10
155.5163040983578
 20
124.3414959548738
 30
0.0
 11
155.5163040983578
 21
130.3414959548738
 31
0.0
  0
LINE
  5
3785
330
367A
100
AcDbEntity
  8
AM_5
100
AcDbLine
 10
155.5163040983578
 20
98.00762367168397
 30
0.0
 11
155.5163040983578
 21
92.00762367168398
 31
0.0
  0
LINE
  5
3786
330
367A
100
AcDbEntity
  8
AM_5
100
AcDbLine
 10
155.5163040983578
 20
118.3414959548737
 30
0.0
 11
155.5163040983578
 21
104.0076236716839
 31
0.0
  0
SOLID
  5
3787
330
367A
100
AcDbEntity
  8
AM_5
100
AcDbTrace
 10
154.5163040983578
 20
124.3414959548738
 30
0.0
 11
156.5163040983578
 21
124.3414959548738
 31
0.0
 12
155.5163040983578
 22
118.3414959548737
 32
0.0
 13
155.5163040983578
 23
118.3414959548737
 33
0.0
  0
SOLID
  5
3788
330
367A
100
AcDbEntity
  8
AM_5
100
AcDbTrace
 10
154.5163040983578
 20
98.00762367168397
 30
0.0
 11
156.5163040983578
 21
98.00762367168397
 31
0.0
 12
155.5163040983578
 22
104.0076236716839
 32
0.0
 13
155.5163040983578
 23
104.0076236716839
 33
0.0
  0
MTEXT
  5
3789
330
367A
100
AcDbEntity
  8
AM_5
 62
     2
100
AcDbMText
 10
149.0163040983578
 20
111.1745598132789
 30
0.0
 40
7.0
 41
0.0
 46
0.0
 71
     5
 72
     1
  1
14
 11
0.0000000000000001
 21
1.0
 31
0.0
 73
     1
 44
1.0
  0
POINT
  5
378A
330
367A
100
AcDbEntity
  8
Defpoints
 62
     0
100
AcDbPoint
 10
130.2176365225351
 20
118.3414959548737
 30
0.0
  0
POINT
  5
378B
330
367A
100
AcDbEntity
  8
Defpoints
 62
     0
100
AcDbPoint
 10
132.2176365225351
 20
104.0076236716839
 30
0.0
  0
POINT
  5
378C
330
367A
100
AcDbEntity
  8
Defpoints
 62
     0
100
AcDbPoint
 10
155.5163040983578
 20
104.0076236716839
 30
0.0
  0
ENDBLK
  5
367C
330
367A
100
AcDbEntity
  8
0
100
AcDbBlockEnd
  0
BLOCK
  5
36A2
330
36A1
100
AcDbEntity
  8
0
100
AcDbBlockBegin
  2
*D14
 70
     1
 10
0.0
 20
0.0
 30
0.0
  3
*D14
  1

  0
LINE
  5
3819
330
36A1
100
AcDbEntity
  8
AM_5
100
AcDbLine
 10
163.2176365225351
 20
70.34149595487369
 30
0.0
 11
215.2677680204461
 21
70.34149595487369
 31
0.0
  0
LINE
  5
381A
330
36A1
100
AcDbEntity
  8
AM_5
100
AcDbLine
 10
189.5558493379615
 20
78.80219371681876
 30
0.0
 11
215.2677680204461
 21
78.80219371681876
 31
0.0
  0
LINE
  5
381B
330
36A1
100
AcDbEntity
  8
AM_5
100
AcDbLine
 10
213.2677680204461
 20
64.34149595487369
 30
0.0
 11
213.2677680204461
 21
58.34149595487368
 31
0.0
  0
LINE
  5
381C
330
36A1
100
AcDbEntity
  8
AM_5
100
AcDbLine
 10
213.2677680204461
 20
84.80219371681876
 30
0.0
 11
213.2677680204461
 21
99.60219371681876
 31
0.0
  0
LINE
  5
381D
330
36A1
100
AcDbEntity
  8
AM_5
100
AcDbLine
 10
213.2677680204461
 20
70.34149595487369
 30
0.0
 11
213.2677680204461
 21
78.80219371681876
 31
0.0
  0
SOLID
  5
381E
330
36A1
100
AcDbEntity
  8
AM_5
100
AcDbTrace
 10
212.2677680204462
 20
64.34149595487369
 30
0.0
 11
214.2677680204462
 21
64.34149595487369
 31
0.0
 12
213.2677680204461
 22
70.34149595487369
 32
0.0
 13
213.2677680204461
 23
70.34149595487369
 33
0.0
  0
SOLID
  5
381F
330
36A1
100
AcDbEntity
  8
AM_5
100
AcDbTrace
 10
212.2677680204462
 20
84.80219371681876
 30
0.0
 11
214.2677680204462
 21
84.80219371681876
 31
0.0
 12
213.2677680204461
 22
78.80219371681876
 32
0.0
 13
213.2677680204461
 23
78.80219371681876
 33
0.0
  0
MTEXT
  5
3820
330
36A1
100
AcDbEntity
  8
AM_5
 62
     2
100
AcDbMText
 10
206.7677680204461
 20
95.2021937168188
 30
0.0
 40
7.0
 41
0.0
 46
0.0
 71
     5
 72
     1
  1
8
 11
0.0000000000000001
 21
1.0
 31
0.0
 73
     1
 44
1.0
  0
POINT
  5
3821
330
36A1
100
AcDbEntity
  8
Defpoints
 62
     0
100
AcDbPoint
 10
163.2176365225351
 20
70.34149595487369
 30
0.0
  0
POINT
  5
3822
330
36A1
100
AcDbEntity
  8
Defpoints
 62
     0
100
AcDbPoint
 10
189.5558493379615
 20
78.80219371681876
 30
0.0
  0
POINT
  5
3823
330
36A1
100
AcDbEntity
  8
Defpoints
 62
     0
100
AcDbPoint
 10
213.2677680204461
 20
78.80219371681876
 30
0.0
  0
ENDBLK
  5
36A3
330
36A1
100
AcDbEntity
  8
0
100
AcDbBlockEnd
  0
BLOCK
  5
3710
330
370F
100
AcDbEntity
  8
0
100
AcDbBlockBegin
  2
*D15
 70
     1
 10
0.0
 20
0.0
 30
0.0
  3
*D15
  1

  0
LINE
  5
372F
330
370F
100
AcDbEntity
  8
AM_5
100
AcDbLine
 10
120.2176365224843
 20
201.293046246366
 30
0.0
 11
120.2176365224843
 21
241.293912944511
 31
0.0
  0
LINE
  5
3730
330
370F
100
AcDbEntity
  8
AM_5
100
AcDbLine
 10
163.2176365224843
 20
220.6979928153811
 30
0.0
 11
163.2176365224843
 21
241.293912944511
 31
0.0
  0
LINE
  5
3731
330
370F
100
AcDbEntity
  8
AM_5
100
AcDbLine
 10
126.2176365224843
 20
239.293912944511
 30
0.0
 11
157.2176365224843
 21
239.293912944511
 31
0.0
  0
SOLID
  5
3732
330
370F
100
AcDbEntity
  8
AM_5
100
AcDbTrace
 10
126.2176365224843
 20
240.293912944511
 30
0.0
 11
126.2176365224843
 21
238.293912944511
 31
0.0
 12
120.2176365224843
 22
239.293912944511
 32
0.0
 13
120.2176365224843
 23
239.293912944511
 33
0.0
  0
SOLID
  5
3733
330
370F
100
AcDbEntity
  8
AM_5
100
AcDbTrace
 10
157.2176365224843
 20
240.293912944511
 30
0.0
 11
157.2176365224843
 21
238.293912944511
 31
0.0
 12
163.2176365224843
 22
239.293912944511
 32
0.0
 13
163.2176365224843
 23
239.293912944511
 33
0.0
  0
MTEXT
  5
3734
330
370F
100
AcDbEntity
  8
AM_5
 62
     2
100
AcDbMText
 10
141.7176365224843
 20
245.793912944511
 30
0.0
 40
7.0
 41
0.0
 46
0.0
 71
     5
 72
     1
  1
43
 73
     1
 44
1.0
  0
POINT
  5
3735
330
370F
100
AcDbEntity
  8
Defpoints
 62
     0
100
AcDbPoint
 10
120.2176365224843
 20
201.293046246366
 30
0.0
  0
POINT
  5
3736
330
370F
100
AcDbEntity
  8
Defpoints
 62
     0
100
AcDbPoint
 10
163.2176365224843
 20
220.6979928153811
 30
0.0
  0
POINT
  5
3737
330
370F
100
AcDbEntity
  8
Defpoints
 62
     0
100
AcDbPoint
 10
163.2176365224843
 20
239.293912944511
 30
0.0
  0
ENDBLK
  5
3711
330
370F
100
AcDbEntity
  8
0
100
AcDbBlockEnd
  0
BLOCK
  5
373A
330
3739
100
AcDbEntity
  8
0
100
AcDbBlockBegin
  2
*D16
 70
     1
 10
0.0
 20
0.0
 30
0.0
  3
*D16
  1

  0
LINE
  5
37A3
330
3739
100
AcDbEntity
  8
AM_5
100
AcDbLine
 10
110.2176365225351
 20
118.3414959548737
 30
0.0
 11
110.2176365225351
 21
144.5961798499579
 31
0.0
  0
LINE
  5
37A4
330
3739
100
AcDbEntity
  8
AM_5
100
AcDbLine
 10
130.2176365225351
 20
118.3414959548737
 30
0.0
 11
130.2176365225351
 21
144.5961798499579
 31
0.0
  0
LINE
  5
37A5
330
3739
100
AcDbEntity
  8
AM_5
100
AcDbLine
 10
116.2176365225351
 20
142.5961798499579
 30
0.0
 11
124.2176365225351
 21
142.5961798499579
 31
0.0
  0
SOLID
  5
37A6
330
3739
100
AcDbEntity
  8
AM_5
100
AcDbTrace
 10
116.2176365225351
 20
143.5961798499579
 30
0.0
 11
116.2176365225351
 21
141.5961798499579
 31
0.0
 12
110.2176365225351
 22
142.5961798499579
 32
0.0
 13
110.2176365225351
 23
142.5961798499579
 33
0.0
  0
SOLID
  5
37A7
330
3739
100
AcDbEntity
  8
AM_5
100
AcDbTrace
 10
124.2176365225351
 20
143.5961798499579
 30
0.0
 11
124.2176365225351
 21
141.5961798499579
 31
0.0
 12
130.2176365225351
 22
142.5961798499579
 32
0.0
 13
130.2176365225351
 23
142.5961798499579
 33
0.0
  0
MTEXT
  5
37A8
330
3739
100
AcDbEntity
  8
AM_5
 62
     2
100
AcDbMText
 10
121.1980480747255
 20
149.0968688263358
 30
0.0
 40
7.0
 41
0.0
 46
0.0
 71
     5
 72
     1
  1
%%c20
 73
     1
 44
1.0
  0
POINT
  5
37A9
330
3739
100
AcDbEntity
  8
Defpoints
 62
     0
100
AcDbPoint
 10
110.2176365225351
 20
118.3414959548737
 30
0.0
  0
POINT
  5
37AA
330
3739
100
AcDbEntity
  8
Defpoints
 62
     0
100
AcDbPoint
 10
130.2176365225351
 20
118.3414959548737
 30
0.0
  0
POINT
  5
37AB
330
3739
100
AcDbEntity
  8
Defpoints
 62
     0
100
AcDbPoint
 10
130.2176365225351
 20
142.5961798499579
 30
0.0
  0
ENDBLK
  5
373B
330
3739
100
AcDbEntity
  8
0
100
AcDbBlockEnd
  0
BLOCK
  5
37AE
330
37AD
100
AcDbEntity
  8
0
100
AcDbBlockBegin
  2
*D17
 70
     1
 10
0.0
 20
0.0
 30
0.0
  3
*D17
  1

  0
LINE
  5
380F
330
37AD
100
AcDbEntity
  8
AM_5
100
AcDbLine
 10
110.2176365225351
 20
118.3414959548737
 30
0.0
 11
110.2176365225351
 21
48.11881769077752
 31
0.0
  0
LINE
  5
3810
330
37AD
100
AcDbEntity
  8
AM_5
100
AcDbLine
 10
189.5558493379615
 20
78.80219371681878
 30
0.0
 11
189.5558493379615
 21
48.11881769077752
 31
0.0
  0
LINE
  5
3811
330
37AD
100
AcDbEntity
  8
AM_5
100
AcDbLine
 10
116.2176365225351
 20
50.11881769077752
 30
0.0
 11
183.5558493379615
 21
50.11881769077752
 31
0.0
  0
SOLID
  5
3812
330
37AD
100
AcDbEntity
  8
AM_5
100
AcDbTrace
 10
116.2176365225351
 20
51.11881769077752
 30
0.0
 11
116.2176365225351
 21
49.11881769077751
 31
0.0
 12
110.2176365225351
 22
50.11881769077752
 32
0.0
 13
110.2176365225351
 23
50.11881769077752
 33
0.0
  0
SOLID
  5
3813
330
37AD
100
AcDbEntity
  8
AM_5
100
AcDbTrace
 10
183.5558493379615
 20
51.11881769077752
 30
0.0
 11
183.5558493379615
 21
49.11881769077751
 31
0.0
 12
189.5558493379615
 22
50.11881769077752
 32
0.0
 13
189.5558493379615
 23
50.11881769077752
 33
0.0
  0
MTEXT
  5
3814
330
37AD
100
AcDbEntity
  8
AM_5
 62
     2
100
AcDbMText
 10
149.8867429302483
 20
56.61881769077751
 30
0.0
 40
7.0
 41
0.0
 46
0.0
 71
     5
 72
     1
  1
79
 73
     1
 44
1.0
  0
POINT
  5
3815
330
37AD
100
AcDbEntity
  8
Defpoints
 62
     0
100
AcDbPoint
 10
110.2176365225351
 20
118.3414959548737
 30
0.0
  0
POINT
  5
3816
330
37AD
100
AcDbEntity
  8
Defpoints
 62
     0
100
AcDbPoint
 10
189.5558493379615
 20
78.80219371681878
 30
0.0
  0
POINT
  5
3817
330
37AD
100
AcDbEntity
  8
Defpoints
 62
     0
100
AcDbPoint
 10
189.5558493379615
 20
50.11881769077752
 30
0.0
  0
ENDBLK
  5
37AF
330
37AD
100
AcDbEntity
  8
0
100
AcDbBlockEnd
  0
ENDSEC
  0
SECTION
  2
ENTITIES
  0
INSERT
  5
3FB
330
1A
100
AcDbEntity
  8
ASHADE
 62
     1
100
AcDbBlockReference
  2
AVE_RENDER
 10
0.0
 20
0.0
 30
0.0
1001
AVE_RENDER
1002
{
1070
     7
1000
Pref
1070
    60
1070
    30
1070
     1
1070
     0
1000

1070
    10
1070
     1
1070
    10
1040
1.0
1070
     1
1040
0.3
1040
0.7
1040
0.0
1040
10.0
1010
-1.0
1020
-1.0
1030
-1.0
1040
0.3
1070
    49
1070
     1
1070
     0
1010
1.0
1020
1.0
1030
1.0
1040
45.0
1070
     1
1070
     0
1000
WCS
1040
0.0
1070
     1
1040
10.0
1002
}
  0
INSERT
  5
3FC
330
1A
100
AcDbEntity
  8
ASHADE
 62
     3
100
AcDbBlockReference
  2
AVE_RENDER
 10
0.0
 20
0.0
 30
0.0
1001
AVE_RENDER
1002
{
1070
     0
1000
Full Opt
1070
     0
1070
     1
1070
     1
1070
     1
1070
     0
1070
     0
1070
     0
1070
     1
1070
     1
1040
0.0001
1040
0.0001
1002
}
  0
INSERT
  5
3FD
330
1A
100
AcDbEntity
  8
ASHADE
 62
     4
100
AcDbBlockReference
  2
AVE_RENDER
 10
0.0
 20
0.0
 30
0.0
1001
AVE_RENDER
1002
{
1070
     0
1000
Quick Opt
1070
     0
1070
     1
1070
     1
1070
     1
1070
     0
1070
     0
1070
     1
1002
}
  0
INSERT
  5
3FE
330
1A
100
AcDbEntity
  8
ASHADE
 62
     5
100
AcDbBlockReference
  2
AVE_RENDER
 10
0.0
 20
0.0
 30
0.0
1001
AVE_RENDER
1002
{
1070
     1
1000
Scanl Opt
1070
     2
1070
     0
1070
     2
1040
2.0
1040
4.0
1070
     0
1070
     1
1070
     0
1040
0.03
1002
}
  0
INSERT
  5
3FF
330
1A
100
AcDbEntity
  8
ASHADE
 62
     6
100
AcDbBlockReference
  2
AVE_RENDER
 10
0.0
 20
0.0
 30
0.0
1001
AVE_RENDER
1002
{
1070
     2
1000
Raytr Opt
1070
     3
1070
     0
1070
     2
1040
2.0
1040
4.0
1070
     0
1070
     1
1070
     1
1040
0.03
1070
     3
1040
0.03
1002
}
  0
INSERT
  5
400
330
1A
100
AcDbEntity
  8
ASHADE
 62
     7
100
AcDbBlockReference
  2
AVE_RENDER
 10
0.0
 20
0.0
 30
0.0
1001
AVE_RENDER
1002
{
1070
     0
1000
RFile Opt
1070
     5
1070
  1600
1070
  1280
1070
 10000
1070
     1
1070
    32
1070
    32
1070
     0
1070
     0
1070
     0
1070
     0
1070
     0
1070
     0
1070
     0
1002
}
  0
INSERT
  5
401
330
1A
100
AcDbEntity
  8
ASHADE
 62
     8
100
AcDbBlockReference
  2
AVE_RENDER
 10
0.0
 20
0.0
 30
0.0
1001
AVE_RENDER
1002
{
1070
     0
1000
Fog Opt
1070
     0
1070
     0
1040
0.0
1040
1.0
1040
0.0
1040
1.0
1010
0.5
1020
0.5
1030
0.5
1002
}
  0
INSERT
  5
402
330
1A
100
AcDbEntity
  8
ASHADE
 62
     9
100
AcDbBlockReference
  2
AVE_RENDER
 10
0.0
 20
0.0
 30
0.0
1001
AVE_RENDER
1002
{
1070
     0
1000
BG Opt
1070
     0
1070
     0
1010
1.0
1020
1.0
1030
1.0
1010
1.0
1020
0.0
1030
0.0
1010
0.0
1020
1.0
1030
0.0
1010
0.0
1020
0.0
1030
1.0
1040
0.5
1040
0.33
1040
0.0
1000

1070
     1
1000

1070
     1
1070
     1
1040
1.0
1040
1.0
1040
0.0
1040
0.0
1070
     0
1002
}
  0
INSERT
  5
409
330
1A
100
AcDbEntity
  8
ASHADE
 62
     1
100
AcDbBlockReference
  2
AVE_GLOBAL
 10
0.0
 20
0.0
 30
0.0
1001
AVE_MATERIAL
1002
{
1000
*GLOBAL*
1000
2
1000
Globales Material.
1002
{
1002
}
1002
{
1070
    63
1002
{
1002
{
1010
-1.0
1020
-1.0
1030
-1.0
1002
}
1040
0.1000000014901161
1000

1040
0.0
1002
{
1002
}
1040
0.0
1002
{
1002
}
1040
0.0
1002
}
1002
{
1002
{
1010
-1.0
1020
-1.0
1030
-1.0
1002
}
1040
0.6999999880790711
1000

1040
0.0
1002
{
1002
}
1040
0.0
1002
{
1002
}
1040
0.0
1002
}
1002
{
1002
{
1010
-1.0
1020
-1.0
1030
-1.0
1002
}
1040
0.2000000029802322
1000

1040
0.0
1002
{
1002
}
1040
0.0
1002
{
1002
}
1040
0.0
1002
}
1002
{
1070
     0
1002
{
1070
     1
1002
{
1040
1.0
1040
1.0
1000

1040
0.0
1002
{
1002
}
1040
0.0
1002
{
1002
}
1040
0.0
1002
}
1002
}
1040
1.0
1040
0.0
1040
0.0
1002
}
1002
{
1040
1.0
1040
1.0
1000

1040
0.0
1002
{
1002
}
1040
0.0
1002
{
1002
}
1040
0.0
1002
}
1002
{
1040
0.5
1040
1.0
1000

1040
0.0
1002
{
1002
}
1040
0.0
1002
{
1002
}
1040
0.0
1002
}
1002
{
1070
     0
1040
0.0
1002
{
1002
}
1040
1.0
1002
{
1002
}
1040
0.0
1002
}
1002
{
1040
0.0
1002
{
1002
{
1010
0.0
1020
0.0
1030
0.0
1002
}
1040
1.0
1000

1040
0.0
1002
{
1002
}
1040
0.0
1002
{
1002
}
1040
0.0
1002
}
1002
}
1002
{
1002
{
1070
     1
1002
{
1040
0.0
1040
1.0
1000

1040
0.0
1002
{
1002
}
1040
0.0
1002
{
1002
}
1040
0.0
1002
}
1002
}
1040
0.0
1002
{
1002
}
1010
1.0
1020
0.0
1030
0.0
1010
0.0
1020
1.0
1030
0.0
1010
0.0
1020
0.0
1030
1.0
1070
     0
1002
}
1002
{
1002
{
1040
1.0
1040
1.0
1002
{
1070
     1
1002
{
1040
1.0
1040
1.0
1000

1040
0.0
1002
{
1002
}
1040
0.0
1002
{
1002
}
1040
0.0
1002
}
1002
}
1002
}
1070
     0
1040
0.0
1002
{
1002
}
1002
}
1002
{
1002
}
1002
}
1002
{
1071
        3
1070
     3
1070
     0
1002
{
1070
     2
1070
     0
1070
     0
1040
0.0
1002
}
1070
     0
1070
     2
1002
{
1002
}
1002
}
1002
{
1040
8030.0
1040
190.3000030517578
1040
0.3050000071525574
1040
228.0
1040
545.0
1040
14.0
1040
17.39999961853027
1040
0.4560000002384186
1002
}
1002
}
  0
POINT
  5
1677
330
1A
100
AcDbEntity
  8
0
 60
     1
100
AcDbPoint
 10
0.0
 20
0.0
 30
0.0
1001
GENIUS_GENODEF_13
1002
{
1000
HIER
1070
     1
1002
}
1002
{
1000
MANEDIT
1070
     0
1002
}
1002
{
1000
NOSEL
1070
     0
1002
}
1002
{
1000
BEHIND
1070
     0
1002
}
1002
{
1000
REACTOR
1002
}
1001
GENIUS_GENOBJ-N-SDF_13
1002
{
1000
OWNER
1000
GEN
1002
}
1001
GENIUS_GENOENT_13
1002
{
1000
MYREF
1005
1677
1002
}
1002
{
1000
GRP
1005
0
1002
}
1001
GENIUS_GENOLIS_13
1002
{
1000
ENT
1005
22
1002
}
  0
LWPOLYLINE
  5
1B95
330
1A
100
AcDbEntity
  8
AM_VIEWS
100
AcDbPolyline
 90
        4
 70
     1
 43
0.0
 10
-9.045762499763554
 20
-12.22754789266764
 10
359.4041011814528
 20
-12.22754789266764
 10
359.4041011814528
 20
305.255061680507
 10
-9.045762499763554
 20
305.255061680507
1001
GENIUS_GENSCREG_15
1040
2.0
1040
1.0
1011
-9.045762499763554
1021
-12.22754789266764
1031
0.0
1011
359.4041011814528
1021
305.255061680507
1031
0.0
1070
     2
1001
GENIUS_GENOBJ-N-SDF_13
1002
{
1000
OWNER
1000
GEN
1002
}
1001
GENIUS_GENODEF_13
1002
{
1000
HIER
1070
     0
1002
}
1002
{
1000
MANEDIT
1070
     0
1002
}
1002
{
1000
NOSEL
1070
     0
1002
}
1002
{
1000
BEHIND
1070
     0
1002
}
1002
{
1000
OTHER
1070
     0
1002
}
1002
{
1000
REACTOR
1002
}
  0
TEXT
  5
289E
330
1A
100
AcDbEntity
  8
AM_6
100
AcDbText
 10
135.8723190761516
 20
275.9480493917097
 30
0.0
 40
7.0
  1
5840
100
AcDbText
1001
GENIUS_AMGTXT_16
1040
3.5
1040
0.12
  0
POLYLINE
  5
3005
330
1A
100
AcDbEntity
  8
Sichtbare Kanten(ISO-ZOPH)
100
AcDb2dPolyline
 66
     1
 10
0.0
 20
0.0
 30
0.0
 70
   128
  0
VERTEX
  5
3006
330
3005
100
AcDbEntity
  8
Sichtbare Kanten(ISO-ZOPH)
100
AcDbVertex
100
AcDb2dVertex
 10
116.3804271785741
 20
198.0269734665666
 30
0.0
  0
VERTEX
  5
3007
330
3005
100
AcDbEntity
  8
Sichtbare Kanten(ISO-ZOPH)
100
AcDbVertex
100
AcDb2dVertex
 10
115.9321296183591
 20
197.8273873135362
 30
0.0
  0
VERTEX
  5
3008
330
3005
100
AcDbEntity
  8
Sichtbare Kanten(ISO-ZOPH)
100
AcDbVertex
100
AcDb2dVertex
 10
115.4926463930135
 20
197.6049612566743
 30
0.0
  0
VERTEX
  5
3009
330
3005
100
AcDbEntity
  8
Sichtbare Kanten(ISO-ZOPH)
100
AcDbVertex
100
AcDb2dVertex
 10
115.0632652608877
 20
197.3603908821855
 30
0.0
  0
VERTEX
  5
300A
330
3005
100
AcDbEntity
  8
Sichtbare Kanten(ISO-ZOPH)
100
AcDbVertex
100
AcDb2dVertex
 10
114.6452745763784
 20
197.0943729683671
 30
0.0
  0
VERTEX
  5
300B
330
3005
100
AcDbEntity
  8
Sichtbare Kanten(ISO-ZOPH)
100
AcDbVertex
100
AcDb2dVertex
 10
114.2399617998128
 20
196.8076031014238
 30
0.0
  0
VERTEX
  5
300C
330
3005
100
AcDbEntity
  8
Sichtbare Kanten(ISO-ZOPH)
100
AcDbVertex
100
AcDb2dVertex
 10
113.8486143915181
 20
196.5007774636064
 30
0.0
  0
VERTEX
  5
300D
330
3005
100
AcDbEntity
  8
Sichtbare Kanten(ISO-ZOPH)
100
AcDbVertex
100
AcDb2dVertex
 10
113.4725204078679
 20
196.1745910450731
 30
0.0
  0
VERTEX
  5
300E
330
3005
100
AcDbEntity
  8
Sichtbare Kanten(ISO-ZOPH)
100
AcDbVertex
100
AcDb2dVertex
 10
113.1129673091894
 20
195.8297412201677
 30
0.0
  0
VERTEX
  5
300F
330
3005
100
AcDbEntity
  8
Sichtbare Kanten(ISO-ZOPH)
100
AcDbVertex
100
AcDb2dVertex
 10
112.7709594337468
 20
195.4666392609392
 30
0.0
  0
VERTEX
  5
3010
330
3005
100
AcDbEntity
  8
Sichtbare Kanten(ISO-ZOPH)
100
AcDbVertex
100
AcDb2dVertex
 10
112.4466940729146
 20
195.0853525206361
 30
0.0
  0
VERTEX
  5
3011
330
3005
100
AcDbEntity
  8
Sichtbare Kanten(ISO-ZOPH)
100
AcDbVertex
100
AcDb2dVertex
 10
112.1410849658971
 20
194.6871964737687
 30
0.0
  0
VERTEX
  5
3012
330
3005
100
AcDbEntity
  8
Sichtbare Kanten(ISO-ZOPH)
100
AcDbVertex
100
AcDb2dVertex
 10
111.8551179735189
 20
194.2735765978609
 30
0.0
  0
VERTEX
  5
3013
330
3005
100
AcDbEntity
  8
Sichtbare Kanten(ISO-ZOPH)
100
AcDbVertex
100
AcDb2dVertex
 10
111.5897771684652
 20
193.8458995625291
 30
0.0
  0
VERTEX
  5
3014
330
3005
100
AcDbEntity
  8
Sichtbare Kanten(ISO-ZOPH)
100
AcDbVertex
100
AcDb2dVertex
 10
111.3460484115606
 20
193.4055711433206
 30
0.0
  0
VERTEX
  5
3015
330
3005
100
AcDbEntity
  8
Sichtbare Kanten(ISO-ZOPH)
100
AcDbVertex
100
AcDb2dVertex
 10
111.1249169675832
 20
192.9539974138055
 30
0.0
  0
VERTEX
  5
3016
330
3005
100
AcDbEntity
  8
Sichtbare Kanten(ISO-ZOPH)
100
AcDbVertex
100
AcDb2dVertex
 10
110.9273508159642
 20
192.4925555393014
 30
0.0
  0
VERTEX
  5
3017
330
3005
100
AcDbEntity
  8
Sichtbare Kanten(ISO-ZOPH)
100
AcDbVertex
100
AcDb2dVertex
 10
110.7531896202093
 20
192.0207978889261
 30
0.0
  0
VERTEX
  5
3018
330
3005
100
AcDbEntity
  8
Sichtbare Kanten(ISO-ZOPH)
100
AcDbVertex
100
AcDb2dVertex
 10
110.6024679510122
 20
191.5392048761163
 30
0.0
  0
VERTEX
  5
3019
330
3005
100
AcDbEntity
  8
Sichtbare Kanten(ISO-ZOPH)
100
AcDbVertex
100
AcDb2dVertex
 10
110.4758229820256
 20
191.049434255055
 30
0.0
  0
VERTEX
  5
301A
330
3005
100
AcDbEntity
  8
Sichtbare Kanten(ISO-ZOPH)
100
AcDbVertex
100
AcDb2dVertex
 10
110.373890098763
 20
190.5531439289365
 30
0.0
  0
VERTEX
  5
301B
330
3005
100
AcDbEntity
  8
Sichtbare Kanten(ISO-ZOPH)
100
AcDbVertex
100
AcDb2dVertex
 10
110.2972891895299
 20
190.0520496174608
 30
0.0
  0
VERTEX
  5
301C
330
3005
100
AcDbEntity
  8
Sichtbare Kanten(ISO-ZOPH)
100
AcDbVertex
100
AcDb2dVertex
 10
110.2462848989492
 20
189.5483719661746
 30
0.0
  0
VERTEX
  5
301D
330
3005
100
AcDbEntity
  8
Sichtbare Kanten(ISO-ZOPH)
100
AcDbVertex
100
AcDb2dVertex
 10
110.2208170263295
 20
189.0441660687242
 30
0.0
  0
VERTEX
  5
301E
330
3005
100
AcDbEntity
  8
Sichtbare Kanten(ISO-ZOPH)
100
AcDbVertex
100
AcDb2dVertex
 10
110.2208670942312
 20
188.5407960519109
 30
0.0
  0
VERTEX
  5
301F
330
3005
100
AcDbEntity
  8
Sichtbare Kanten(ISO-ZOPH)
100
AcDbVertex
100
AcDb2dVertex
 10
110.2466210691457
 20
188.0365773394619
 30
0.0
  0
VERTEX
  5
3020
330
3005
100
AcDbEntity
  8
Sichtbare Kanten(ISO-ZOPH)
100
AcDbVertex
100
AcDb2dVertex
 10
110.2978983489995
 20
187.5328993901525
 30
0.0
  0
VERTEX
  5
3021
330
3005
100
AcDbEntity
  8
Sichtbare Kanten(ISO-ZOPH)
100
AcDbVertex
100
AcDb2dVertex
 10
110.3744581310277
 20
187.0317641004835
 30
0.0
  0
VERTEX
  5
3022
330
3005
100
AcDbEntity
  8
Sichtbare Kanten(ISO-ZOPH)
100
AcDbVertex
100
AcDb2dVertex
 10
110.4760614006047
 20
186.5351739630018
 30
0.0
  0
VERTEX
  5
3023
330
3005
100
AcDbEntity
  8
Sichtbare Kanten(ISO-ZOPH)
100
AcDbVertex
100
AcDb2dVertex
 10
110.6024661628728
 20
186.0451309487138
 30
0.0
  0
VERTEX
  5
3024
330
3005
100
AcDbEntity
  8
Sichtbare Kanten(ISO-ZOPH)
100
AcDbVertex
100
AcDb2dVertex
 10
110.7534798948293
 20
185.5633197829042
 30
0.0
  0
VERTEX
  5
3025
330
3005
100
AcDbEntity
  8
Sichtbare Kanten(ISO-ZOPH)
100
AcDbVertex
100
AcDb2dVertex
 10
110.9287634460454
 20
185.0903292104517
 30
0.0
  0
VERTEX
  5
3026
330
3005
100
AcDbEntity
  8
Sichtbare Kanten(ISO-ZOPH)
100
AcDbVertex
100
AcDb2dVertex
 10
111.127565797997
 20
184.6272142335687
 30
0.0
  0
VERTEX
  5
3027
330
3005
100
AcDbEntity
  8
Sichtbare Kanten(ISO-ZOPH)
100
AcDbVertex
100
AcDb2dVertex
 10
111.3491150705343
 20
184.175085882834
 30
0.0
  0
VERTEX
  5
3028
330
3005
100
AcDbEntity
  8
Sichtbare Kanten(ISO-ZOPH)
100
AcDbVertex
100
AcDb2dVertex
 10
111.5926405756002
 20
183.7350557848726
 30
0.0
  0
VERTEX
  5
3029
330
3005
100
AcDbEntity
  8
Sichtbare Kanten(ISO-ZOPH)
100
AcDbVertex
100
AcDb2dVertex
 10
111.8573710290914
 20
183.3082352682863
 30
0.0
  0
VERTEX
  5
302A
330
3005
100
AcDbEntity
  8
Sichtbare Kanten(ISO-ZOPH)
100
AcDbVertex
100
AcDb2dVertex
 10
112.1425363389974
 20
182.8957359597002
 30
0.0
  0
VERTEX
  5
302B
330
3005
100
AcDbEntity
  8
Sichtbare Kanten(ISO-ZOPH)
100
AcDbVertex
100
AcDb2dVertex
 10
112.4473652212148
 20
182.4986682936464
 30
0.0
  0
VERTEX
  5
302C
330
3005
100
AcDbEntity
  8
Sichtbare Kanten(ISO-ZOPH)
100
AcDbVertex
100
AcDb2dVertex
 10
112.7710857955938
 20
182.1181444927965
 30
0.0
  0
VERTEX
  5
302D
330
3005
100
AcDbEntity
  8
Sichtbare Kanten(ISO-ZOPH)
100
AcDbVertex
100
AcDb2dVertex
 10
113.1129667131429
 20
181.7552290961061
 30
0.0
  0
VERTEX
  5
302E
330
3005
100
AcDbEntity
  8
Sichtbare Kanten(ISO-ZOPH)
100
AcDbVertex
100
AcDb2dVertex
 10
113.472519215775
 20
181.4103905960832
 30
0.0
  0
VERTEX
  5
302F
330
3005
100
AcDbEntity
  8
Sichtbare Kanten(ISO-ZOPH)
100
AcDbVertex
100
AcDb2dVertex
 10
113.8486131994252
 20
181.0842089459215
 30
0.0
  0
VERTEX
  5
3030
330
3005
100
AcDbEntity
  8
Sichtbare Kanten(ISO-ZOPH)
100
AcDbVertex
100
AcDb2dVertex
 10
114.2399606077199
 20
180.7773833081041
 30
0.0
  0
VERTEX
  5
3031
330
3005
100
AcDbEntity
  8
Sichtbare Kanten(ISO-ZOPH)
100
AcDbVertex
100
AcDb2dVertex
 10
114.6452733842855
 20
180.4906092688356
 30
0.0
  0
VERTEX
  5
3032
330
3005
100
AcDbEntity
  8
Sichtbare Kanten(ISO-ZOPH)
100
AcDbVertex
100
AcDb2dVertex
 10
115.0632646648412
 20
180.2245859905992
 30
0.0
  0
VERTEX
  5
3033
330
3005
100
AcDbEntity
  8
Sichtbare Kanten(ISO-ZOPH)
100
AcDbVertex
100
AcDb2dVertex
 10
115.492645796967
 20
179.9800102516923
 30
0.0
  0
VERTEX
  5
3034
330
3005
100
AcDbEntity
  8
Sichtbare Kanten(ISO-ZOPH)
100
AcDbVertex
100
AcDb2dVertex
 10
115.9321293203359
 20
179.7575794264589
 30
0.0
  0
VERTEX
  5
3035
330
3005
100
AcDbEntity
  8
Sichtbare Kanten(ISO-ZOPH)
100
AcDbVertex
100
AcDb2dVertex
 10
116.3804271785741
 20
179.5579914852891
 30
0.0
  0
SEQEND
  5
3036
330
3005
100
AcDbEntity
  8
Sichtbare Kanten(ISO-ZOPH)
  0
POLYLINE
  5
3037
330
1A
100
AcDbEntity
  8
Verdeckte Kanten(ISO-ZOPH)
 48
25.21906471252441
100
AcDb2dPolyline
 66
     1
 10
0.0
 20
0.0
 30
0.0
 70
   128
  0
VERTEX
  5
3038
330
3037
100
AcDbEntity
  8
Verdeckte Kanten(ISO-ZOPH)
 48
25.21906471252441
100
AcDbVertex
100
AcDb2dVertex
 10
116.3804271785741
 20
179.5579914852891
 30
0.0
  0
VERTEX
  5
3039
330
3037
100
AcDbEntity
  8
Verdeckte Kanten(ISO-ZOPH)
 48
25.21906471252441
100
AcDbVertex
100
AcDb2dVertex
 10
116.8059909312253
 20
179.3927310511384
 30
0.0
  0
VERTEX
  5
303A
330
3037
100
AcDbEntity
  8
Verdeckte Kanten(ISO-ZOPH)
 48
25.21906471252441
100
AcDbVertex
100
AcDb2dVertex
 10
117.2388026086812
 20
179.247426848105
 30
0.0
  0
VERTEX
  5
303B
330
3037
100
AcDbEntity
  8
Verdeckte Kanten(ISO-ZOPH)
 48
25.21906471252441
100
AcDbVertex
100
AcDb2dVertex
 10
117.6779648630147
 20
179.1221837803636
 30
0.0
  0
VERTEX
  5
303C
330
3037
100
AcDbEntity
  8
Verdeckte Kanten(ISO-ZOPH)
 48
25.21906471252441
100
AcDbVertex
100
AcDb2dVertex
 10
118.1225791542058
 20
179.0171055599962
 30
0.0
  0
VERTEX
  5
303D
330
3037
100
AcDbEntity
  8
Verdeckte Kanten(ISO-ZOPH)
 48
25.21906471252441
100
AcDbVertex
100
AcDb2dVertex
 10
118.5717479853158
 20
178.9322958990846
 30
0.0
  0
VERTEX
  5
303E
330
3037
100
AcDbEntity
  8
Verdeckte Kanten(ISO-ZOPH)
 48
25.21906471252441
100
AcDbVertex
100
AcDb2dVertex
 10
119.0245732633596
 20
178.8678585097108
 30
0.0
  0
VERTEX
  5
303F
330
3037
100
AcDbEntity
  8
Verdeckte Kanten(ISO-ZOPH)
 48
25.21906471252441
100
AcDbVertex
100
AcDb2dVertex
 10
119.4801570443635
 20
178.8238982960496
 30
0.0
  0
VERTEX
  5
3040
330
3037
100
AcDbEntity
  8
Verdeckte Kanten(ISO-ZOPH)
 48
25.21906471252441
100
AcDbVertex
100
AcDb2dVertex
 10
119.9376015147393
 20
178.8005189701829
 30
0.0
  0
VERTEX
  5
3041
330
3037
100
AcDbEntity
  8
Verdeckte Kanten(ISO-ZOPH)
 48
25.21906471252441
100
AcDbVertex
100
AcDb2dVertex
 10
120.396008674634
 20
178.7978242441927
 30
0.0
  0
VERTEX
  5
3042
330
3037
100
AcDbEntity
  8
Verdeckte Kanten(ISO-ZOPH)
 48
25.21906471252441
100
AcDbVertex
100
AcDb2dVertex
 10
120.8544805614476
 20
178.8159178301607
 30
0.0
  0
VERTEX
  5
3043
330
3037
100
AcDbEntity
  8
Verdeckte Kanten(ISO-ZOPH)
 48
25.21906471252441
100
AcDbVertex
100
AcDb2dVertex
 10
121.3121193615918
 20
178.8549046322618
 30
0.0
  0
VERTEX
  5
3044
330
3037
100
AcDbEntity
  8
Verdeckte Kanten(ISO-ZOPH)
 48
25.21906471252441
100
AcDbVertex
100
AcDb2dVertex
 10
121.7680270938402
 20
178.914888362578
 30
0.0
  0
VERTEX
  5
3045
330
3037
100
AcDbEntity
  8
Verdeckte Kanten(ISO-ZOPH)
 48
25.21906471252441
100
AcDbVertex
100
AcDb2dVertex
 10
122.2213056652074
 20
178.9959721371446
 30
0.0
  0
VERTEX
  5
3046
330
3037
100
AcDbEntity
  8
Verdeckte Kanten(ISO-ZOPH)
 48
25.21906471252441
100
AcDbVertex
100
AcDb2dVertex
 10
122.6710574297433
 20
179.0982608601366
 30
0.0
  0
VERTEX
  5
3047
330
3037
100
AcDbEntity
  8
Verdeckte Kanten(ISO-ZOPH)
 48
25.21906471252441
100
AcDbVertex
100
AcDb2dVertex
 10
123.1164053051
 20
179.2218713566575
 30
0.0
  0
VERTEX
  5
3048
330
3037
100
AcDbEntity
  8
Verdeckte Kanten(ISO-ZOPH)
 48
25.21906471252441
100
AcDbVertex
100
AcDb2dVertex
 10
123.5568332640653
 20
179.367015819243
 30
0.0
  0
VERTEX
  5
3049
330
3037
100
AcDbEntity
  8
Verdeckte Kanten(ISO-ZOPH)
 48
25.21906471252441
100
AcDbVertex
100
AcDb2dVertex
 10
123.991509672833
 20
179.5334224507127
 30
0.0
  0
VERTEX
  5
304A
330
3037
100
AcDbEntity
  8
Verdeckte Kanten(ISO-ZOPH)
 48
25.21906471252441
100
AcDbVertex
100
AcDb2dVertex
 10
124.4194361536031
 20
179.7206764027391
 30
0.0
  0
VERTEX
  5
304B
330
3037
100
AcDbEntity
  8
Verdeckte Kanten(ISO-ZOPH)
 48
25.21906471252441
100
AcDbVertex
100
AcDb2dVertex
 10
124.8396140305524
 20
179.9283646151338
 30
0.0
  0
VERTEX
  5
304C
330
3037
100
AcDbEntity
  8
Verdeckte Kanten(ISO-ZOPH)
 48
25.21906471252441
100
AcDbVertex
100
AcDb2dVertex
 10
125.2510449258809
 20
180.1560722395692
 30
0.0
  0
VERTEX
  5
304D
330
3037
100
AcDbEntity
  8
Verdeckte Kanten(ISO-ZOPH)
 48
25.21906471252441
100
AcDbVertex
100
AcDb2dVertex
 10
125.6527313558583
 20
180.4033862158571
 30
0.0
  0
VERTEX
  5
304E
330
3037
100
AcDbEntity
  8
Verdeckte Kanten(ISO-ZOPH)
 48
25.21906471252441
100
AcDbVertex
100
AcDb2dVertex
 10
126.043674048615
 20
180.6698922917161
 30
0.0
  0
VERTEX
  5
304F
330
3037
100
AcDbEntity
  8
Verdeckte Kanten(ISO-ZOPH)
 48
25.21906471252441
100
AcDbVertex
100
AcDb2dVertex
 10
126.4228746263509
 20
180.9551756188188
 30
0.0
  0
VERTEX
  5
3050
330
3037
100
AcDbEntity
  8
Verdeckte Kanten(ISO-ZOPH)
 48
25.21906471252441
100
AcDbVertex
100
AcDb2dVertex
 10
126.789335903359
 20
181.2588237330232
 30
0.0
  0
VERTEX
  5
3051
330
3037
100
AcDbEntity
  8
Verdeckte Kanten(ISO-ZOPH)
 48
25.21906471252441
100
AcDbVertex
100
AcDb2dVertex
 10
127.1420577136999
 20
181.5804211899553
 30
0.0
  0
VERTEX
  5
3052
330
3037
100
AcDbEntity
  8
Verdeckte Kanten(ISO-ZOPH)
 48
25.21906471252441
100
AcDbVertex
100
AcDb2dVertex
 10
127.4800434677129
 20
181.9195549294267
 30
0.0
  0
VERTEX
  5
3053
330
3037
100
AcDbEntity
  8
Verdeckte Kanten(ISO-ZOPH)
 48
25.21906471252441
100
AcDbVertex
100
AcDb2dVertex
 10
127.8022935955053
 20
182.2758101031099
 30
0.0
  0
VERTEX
  5
3054
330
3037
100
AcDbEntity
  8
Verdeckte Kanten(ISO-ZOPH)
 48
25.21906471252441
100
AcDbVertex
100
AcDb2dVertex
 10
128.1078103153234
 20
182.6487736508165
 30
0.0
  0
VERTEX
  5
3055
330
3037
100
AcDbEntity
  8
Verdeckte Kanten(ISO-ZOPH)
 48
25.21906471252441
100
AcDbVertex
100
AcDb2dVertex
 10
128.3955541221624
 20
183.0375753447328
 30
0.0
  0
VERTEX
  5
3056
330
3037
100
AcDbEntity
  8
Verdeckte Kanten(ISO-ZOPH)
 48
25.21906471252441
100
AcDbVertex
100
AcDb2dVertex
 10
128.6647012798314
 20
183.4409444138322
 30
0.0
  0
VERTEX
  5
3057
330
3037
100
AcDbEntity
  8
Verdeckte Kanten(ISO-ZOPH)
 48
25.21906471252441
100
AcDbVertex
100
AcDb2dVertex
 10
128.9145824281698
 20
183.8578926131044
 30
0.0
  0
VERTEX
  5
3058
330
3037
100
AcDbEntity
  8
Verdeckte Kanten(ISO-ZOPH)
 48
25.21906471252441
100
AcDbVertex
100
AcDb2dVertex
 10
129.1445293991094
 20
184.2874313995157
 30
0.0
  0
VERTEX
  5
3059
330
3037
100
AcDbEntity
  8
Verdeckte Kanten(ISO-ZOPH)
 48
25.21906471252441
100
AcDbVertex
100
AcDb2dVertex
 10
129.353873428536
 20
184.7285725280557
 30
0.0
  0
VERTEX
  5
305A
330
3037
100
AcDbEntity
  8
Verdeckte Kanten(ISO-ZOPH)
 48
25.21906471252441
100
AcDbVertex
100
AcDb2dVertex
 10
129.5419457523351
 20
185.1803277537141
 30
0.0
  0
VERTEX
  5
305B
330
3037
100
AcDbEntity
  8
Verdeckte Kanten(ISO-ZOPH)
 48
25.21906471252441
100
AcDbVertex
100
AcDb2dVertex
 10
129.7080776063924
 20
185.6417091295038
 30
0.0
  0
VERTEX
  5
305C
330
3037
100
AcDbEntity
  8
Verdeckte Kanten(ISO-ZOPH)
 48
25.21906471252441
100
AcDbVertex
100
AcDb2dVertex
 10
129.8516002265935
 20
186.1117284104143
 30
0.0
  0
VERTEX
  5
305D
330
3037
100
AcDbEntity
  8
Verdeckte Kanten(ISO-ZOPH)
 48
25.21906471252441
100
AcDbVertex
100
AcDb2dVertex
 10
129.971868690682
 20
186.5890413626943
 30
0.0
  0
VERTEX
  5
305E
330
3037
100
AcDbEntity
  8
Verdeckte Kanten(ISO-ZOPH)
 48
25.21906471252441
100
AcDbVertex
100
AcDb2dVertex
 10
130.0685045091634
 20
187.0716951891695
 30
0.0
  0
VERTEX
  5
305F
330
3037
100
AcDbEntity
  8
Verdeckte Kanten(ISO-ZOPH)
 48
25.21906471252441
100
AcDbVertex
100
AcDb2dVertex
 10
130.1413008539205
 20
187.5588571384464
 30
0.0
  0
VERTEX
  5
3060
330
3037
100
AcDbEntity
  8
Verdeckte Kanten(ISO-ZOPH)
 48
25.21906471252441
100
AcDbVertex
100
AcDb2dVertex
 10
130.1900497047429
 20
188.0497715726409
 30
0.0
  0
VERTEX
  5
3061
330
3037
100
AcDbEntity
  8
Verdeckte Kanten(ISO-ZOPH)
 48
25.21906471252441
100
AcDbVertex
100
AcDb2dVertex
 10
130.2145466176992
 20
188.5436828911219
 30
0.0
  0
VERTEX
  5
3062
330
3037
100
AcDbEntity
  8
Verdeckte Kanten(ISO-ZOPH)
 48
25.21906471252441
100
AcDbVertex
100
AcDb2dVertex
 10
130.2145883409505
 20
189.0393997460518
 30
0.0
  0
VERTEX
  5
3063
330
3037
100
AcDbEntity
  8
Verdeckte Kanten(ISO-ZOPH)
 48
25.21906471252441
100
AcDbVertex
100
AcDb2dVertex
 10
130.190145668221
 20
189.5335076108489
 30
0.0
  0
VERTEX
  5
3064
330
3037
100
AcDbEntity
  8
Verdeckte Kanten(ISO-ZOPH)
 48
25.21906471252441
100
AcDbVertex
100
AcDb2dVertex
 10
130.1414313880926
 20
190.0247037514959
 30
0.0
  0
VERTEX
  5
3065
330
3037
100
AcDbEntity
  8
Verdeckte Kanten(ISO-ZOPH)
 48
25.21906471252441
100
AcDbVertex
100
AcDb2dVertex
 10
130.0686725942616
 20
190.5121167108331
 30
0.0
  0
VERTEX
  5
3066
330
3037
100
AcDbEntity
  8
Verdeckte Kanten(ISO-ZOPH)
 48
25.21906471252441
100
AcDbVertex
100
AcDb2dVertex
 10
129.972096380425
 20
190.9948748454366
 30
0.0
  0
VERTEX
  5
3067
330
3037
100
AcDbEntity
  8
Verdeckte Kanten(ISO-ZOPH)
 48
25.21906471252441
100
AcDbVertex
100
AcDb2dVertex
 10
129.8519304363255
 20
191.4721064373765
 30
0.0
  0
VERTEX
  5
3068
330
3037
100
AcDbEntity
  8
Verdeckte Kanten(ISO-ZOPH)
 48
25.21906471252441
100
AcDbVertex
100
AcDb2dVertex
 10
129.7084715930944
 20
191.9422702595506
 30
0.0
  0
VERTEX
  5
3069
330
3037
100
AcDbEntity
  8
Verdeckte Kanten(ISO-ZOPH)
 48
25.21906471252441
100
AcDbVertex
100
AcDb2dVertex
 10
129.5423278181081
 20
192.4037318035875
 30
0.0
  0
VERTEX
  5
306A
330
3037
100
AcDbEntity
  8
Verdeckte Kanten(ISO-ZOPH)
 48
25.21906471252441
100
AcDbVertex
100
AcDb2dVertex
 10
129.3541911212926
 20
192.8555299445901
 30
0.0
  0
VERTEX
  5
306B
330
3037
100
AcDbEntity
  8
Verdeckte Kanten(ISO-ZOPH)
 48
25.21906471252441
100
AcDbVertex
100
AcDb2dVertex
 10
129.1447558967595
 20
193.2967029616151
 30
0.0
  0
VERTEX
  5
306C
330
3037
100
AcDbEntity
  8
Verdeckte Kanten(ISO-ZOPH)
 48
25.21906471252441
100
AcDbVertex
100
AcDb2dVertex
 10
128.9147135583883
 20
193.7262894317422
 30
0.0
  0
VERTEX
  5
306D
330
3037
100
AcDbEntity
  8
Verdeckte Kanten(ISO-ZOPH)
 48
25.21906471252441
100
AcDbVertex
100
AcDb2dVertex
 10
128.6647585002904
 20
194.1433285280977
 30
0.0
  0
VERTEX
  5
306E
330
3037
100
AcDbEntity
  8
Verdeckte Kanten(ISO-ZOPH)
 48
25.21906471252441
100
AcDbVertex
100
AcDb2dVertex
 10
128.3955827323918
 20
194.546858529738
 30
0.0
  0
VERTEX
  5
306F
330
3037
100
AcDbEntity
  8
Verdeckte Kanten(ISO-ZOPH)
 48
25.21906471252441
100
AcDbVertex
100
AcDb2dVertex
 10
128.1078794567113
 20
194.9359183117662
 30
0.0
  0
VERTEX
  5
3070
330
3037
100
AcDbEntity
  8
Verdeckte Kanten(ISO-ZOPH)
 48
25.21906471252441
100
AcDbVertex
100
AcDb2dVertex
 10
127.8023460475927
 20
195.3095351263795
 30
0.0
  0
VERTEX
  5
3071
330
3037
100
AcDbEntity
  8
Verdeckte Kanten(ISO-ZOPH)
 48
25.21906471252441
100
AcDbVertex
100
AcDb2dVertex
 10
127.4799087612157
 20
195.6663839623247
 30
0.0
  0
VERTEX
  5
3072
330
3037
100
AcDbEntity
  8
Verdeckte Kanten(ISO-ZOPH)
 48
25.21906471252441
100
AcDbVertex
100
AcDb2dVertex
 10
127.1416357128148
 20
196.0057740017686
 30
0.0
  0
VERTEX
  5
3073
330
3037
100
AcDbEntity
  8
Verdeckte Kanten(ISO-ZOPH)
 48
25.21906471252441
100
AcDbVertex
100
AcDb2dVertex
 10
126.7885467378621
 20
196.3273583456788
 30
0.0
  0
VERTEX
  5
3074
330
3037
100
AcDbEntity
  8
Verdeckte Kanten(ISO-ZOPH)
 48
25.21906471252441
100
AcDbVertex
100
AcDb2dVertex
 10
126.4216610757833
 20
196.6307894989763
 30
0.0
  0
VERTEX
  5
3075
330
3037
100
AcDbEntity
  8
Verdeckte Kanten(ISO-ZOPH)
 48
25.21906471252441
100
AcDbVertex
100
AcDb2dVertex
 10
126.0419973699575
 20
196.9157205626283
 30
0.0
  0
VERTEX
  5
3076
330
3037
100
AcDbEntity
  8
Verdeckte Kanten(ISO-ZOPH)
 48
25.21906471252441
100
AcDbVertex
100
AcDb2dVertex
 10
125.6505748598104
 20
197.1818040415559
 30
0.0
  0
VERTEX
  5
3077
330
3037
100
AcDbEntity
  8
Verdeckte Kanten(ISO-ZOPH)
 48
25.21906471252441
100
AcDbVertex
100
AcDb2dVertex
 10
125.2484127847677
 20
197.428693632773
 30
0.0
  0
VERTEX
  5
3078
330
3037
100
AcDbEntity
  8
Verdeckte Kanten(ISO-ZOPH)
 48
25.21906471252441
100
AcDbVertex
100
AcDb2dVertex
 10
124.8365306822782
 20
197.6560424372468
 30
0.0
  0
VERTEX
  5
3079
330
3037
100
AcDbEntity
  8
Verdeckte Kanten(ISO-ZOPH)
 48
25.21906471252441
100
AcDbVertex
100
AcDb2dVertex
 10
124.4159474937444
 20
197.8635023638521
 30
0.0
  0
VERTEX
  5
307A
330
3037
100
AcDbEntity
  8
Verdeckte Kanten(ISO-ZOPH)
 48
25.21906471252441
100
AcDbVertex
100
AcDb2dVertex
 10
123.987682458592
 20
198.0507265135561
 30
0.0
  0
VERTEX
  5
307B
330
3037
100
AcDbEntity
  8
Verdeckte Kanten(ISO-ZOPH)
 48
25.21906471252441
100
AcDbVertex
100
AcDb2dVertex
 10
123.5527548162465
 20
198.2173685833726
 30
0.0
  0
VERTEX
  5
307C
330
3037
100
AcDbEntity
  8
Verdeckte Kanten(ISO-ZOPH)
 48
25.21906471252441
100
AcDbVertex
100
AcDb2dVertex
 10
123.1121835081106
 20
198.3630804821763
 30
0.0
  0
VERTEX
  5
307D
330
3037
100
AcDbEntity
  8
Verdeckte Kanten(ISO-ZOPH)
 48
25.21906471252441
100
AcDbVertex
100
AcDb2dVertex
 10
122.6669882206445
 20
198.487515906981
 30
0.0
  0
VERTEX
  5
307E
330
3037
100
AcDbEntity
  8
Verdeckte Kanten(ISO-ZOPH)
 48
25.21906471252441
100
AcDbVertex
100
AcDb2dVertex
 10
122.2181858090882
 20
198.5903285548006
 30
0.0
  0
VERTEX
  5
307F
330
3037
100
AcDbEntity
  8
Verdeckte Kanten(ISO-ZOPH)
 48
25.21906471252441
100
AcDbVertex
100
AcDb2dVertex
 10
121.7660951582914
 20
198.6716030642305
 30
0.0
  0
VERTEX
  5
3080
330
3037
100
AcDbEntity
  8
Verdeckte Kanten(ISO-ZOPH)
 48
25.21906471252441
100
AcDbVertex
100
AcDb2dVertex
 10
121.3111066041713
 20
198.73166845291
 30
0.0
  0
VERTEX
  5
3081
330
3037
100
AcDbEntity
  8
Verdeckte Kanten(ISO-ZOPH)
 48
25.21906471252441
100
AcDbVertex
100
AcDb2dVertex
 10
120.8541481165414
 20
198.770645718268
 30
0.0
  0
VERTEX
  5
3082
330
3037
100
AcDbEntity
  8
Verdeckte Kanten(ISO-ZOPH)
 48
25.21906471252441
100
AcDbVertex
100
AcDb2dVertex
 10
120.3961480936234
 20
198.788654069594
 30
0.0
  0
VERTEX
  5
3083
330
3037
100
AcDbEntity
  8
Verdeckte Kanten(ISO-ZOPH)
 48
25.21906471252441
100
AcDbVertex
100
AcDb2dVertex
 10
119.938034598363
 20
198.7858139082704
 30
0.0
  0
VERTEX
  5
3084
330
3037
100
AcDbEntity
  8
Verdeckte Kanten(ISO-ZOPH)
 48
25.21906471252441
100
AcDbVertex
100
AcDb2dVertex
 10
119.4807358799701
 20
198.7622456356798
 30
0.0
  0
VERTEX
  5
3085
330
3037
100
AcDbEntity
  8
Verdeckte Kanten(ISO-ZOPH)
 48
25.21906471252441
100
AcDbVertex
100
AcDb2dVertex
 10
119.0251801131492
 20
198.7180696532045
 30
0.0
  0
VERTEX
  5
3086
330
3037
100
AcDbEntity
  8
Verdeckte Kanten(ISO-ZOPH)
 48
25.21906471252441
100
AcDbVertex
100
AcDb2dVertex
 10
118.5722956029897
 20
198.6534057661805
 30
0.0
  0
VERTEX
  5
3087
330
3037
100
AcDbEntity
  8
Verdeckte Kanten(ISO-ZOPH)
 48
25.21906471252441
100
AcDbVertex
100
AcDb2dVertex
 10
118.1230103938108
 20
198.568373779944
 30
0.0
  0
VERTEX
  5
3088
330
3037
100
AcDbEntity
  8
Verdeckte Kanten(ISO-ZOPH)
 48
25.21906471252441
100
AcDbVertex
100
AcDb2dVertex
 10
117.678252753449
 20
198.4630946919237
 30
0.0
  0
VERTEX
  5
3089
330
3037
100
AcDbEntity
  8
Verdeckte Kanten(ISO-ZOPH)
 48
25.21906471252441
100
AcDbVertex
100
AcDb2dVertex
 10
117.2389507262235
 20
198.3376883074556
 30
0.0
  0
VERTEX
  5
308A
330
3037
100
AcDbEntity
  8
Verdeckte Kanten(ISO-ZOPH)
 48
25.21906471252441
100
AcDbVertex
100
AcDb2dVertex
 10
116.8060329524999
 20
198.1922744318757
 30
0.0
  0
VERTEX
  5
308B
330
3037
100
AcDbEntity
  8
Verdeckte Kanten(ISO-ZOPH)
 48
25.21906471252441
100
AcDbVertex
100
AcDb2dVertex
 10
116.3804271785741
 20
198.0269734665666
 30
0.0
  0
SEQEND
  5
308C
330
3037
100
AcDbEntity
  8
Verdeckte Kanten(ISO-ZOPH)
 48
25.21906471252441
  0
POLYLINE
  5
3164
330
1A
100
AcDbEntity
  8
Sichtbare tangentiale Kanten(ISO-ZOPH)
100
AcDb2dPolyline
 66
     1
 10
0.0
 20
0.0
 30
0.0
 70
   128
  0
VERTEX
  5
3165
330
3164
100
AcDbEntity
  8
Sichtbare tangentiale Kanten(ISO-ZOPH)
100
AcDbVertex
100
AcDb2dVertex
 10
151.9419869749074
 20
164.811037640265
 30
0.0
  0
VERTEX
  5
3166
330
3164
100
AcDbEntity
  8
Sichtbare tangentiale Kanten(ISO-ZOPH)
100
AcDbVertex
100
AcDb2dVertex
 10
151.9770202009206
 20
164.7940550848756
 30
0.0
  0
VERTEX
  5
3167
330
3164
100
AcDbEntity
  8
Sichtbare tangentiale Kanten(ISO-ZOPH)
100
AcDbVertex
100
AcDb2dVertex
 10
152.012084421349
 20
164.7771655127321
 30
0.0
  0
VERTEX
  5
3168
330
3164
100
AcDbEntity
  8
Sichtbare tangentiale Kanten(ISO-ZOPH)
100
AcDbVertex
100
AcDb2dVertex
 10
152.0471844045644
 20
164.7603689238344
 30
0.0
  0
VERTEX
  5
3169
330
3164
100
AcDbEntity
  8
Sichtbare tangentiale Kanten(ISO-ZOPH)
100
AcDbVertex
100
AcDb2dVertex
 10
152.082315382195
 20
164.7436629339967
 30
0.0
  0
VERTEX
  5
316A
330
3164
100
AcDbEntity
  8
Sichtbare tangentiale Kanten(ISO-ZOPH)
100
AcDbVertex
100
AcDb2dVertex
 10
152.1174797384267
 20
164.7270475432191
 30
0.0
  0
VERTEX
  5
316B
330
3164
100
AcDbEntity
  8
Sichtbare tangentiale Kanten(ISO-ZOPH)
100
AcDbVertex
100
AcDb2dVertex
 10
152.1526750890736
 20
164.7105251356874
 30
0.0
  0
VERTEX
  5
316C
330
3164
100
AcDbEntity
  8
Sichtbare tangentiale Kanten(ISO-ZOPH)
100
AcDbVertex
100
AcDb2dVertex
 10
152.1879014341359
 20
164.6940933272157
 30
0.0
  0
VERTEX
  5
316D
330
3164
100
AcDbEntity
  8
Sichtbare tangentiale Kanten(ISO-ZOPH)
100
AcDbVertex
100
AcDb2dVertex
 10
152.2231611577992
 20
164.6777521178041
 30
0.0
  0
VERTEX
  5
316E
330
3164
100
AcDbEntity
  8
Sichtbare tangentiale Kanten(ISO-ZOPH)
100
AcDbVertex
100
AcDb2dVertex
 10
152.2584518758778
 20
164.6615015074525
 30
0.0
  0
VERTEX
  5
316F
330
3164
100
AcDbEntity
  8
Sichtbare tangentiale Kanten(ISO-ZOPH)
100
AcDbVertex
100
AcDb2dVertex
 10
152.2937759725575
 20
164.645341496161
 30
0.0
  0
VERTEX
  5
3170
330
3164
100
AcDbEntity
  8
Sichtbare tangentiale Kanten(ISO-ZOPH)
100
AcDbVertex
100
AcDb2dVertex
 10
152.3291286794667
 20
164.6292720839296
 30
0.0
  0
VERTEX
  5
3171
330
3164
100
AcDbEntity
  8
Sichtbare tangentiale Kanten(ISO-ZOPH)
100
AcDbVertex
100
AcDb2dVertex
 10
152.3645123807912
 20
164.6132932707582
 30
0.0
  0
VERTEX
  5
3172
330
3164
100
AcDbEntity
  8
Sichtbare tangentiale Kanten(ISO-ZOPH)
100
AcDbVertex
100
AcDb2dVertex
 10
152.3999270765309
 20
164.5974050566469
 30
0.0
  0
VERTEX
  5
3173
330
3164
100
AcDbEntity
  8
Sichtbare tangentiale Kanten(ISO-ZOPH)
100
AcDbVertex
100
AcDb2dVertex
 10
152.4353751508717
 20
164.5816074415956
 30
0.0
  0
VERTEX
  5
3174
330
3164
100
AcDbEntity
  8
Sichtbare tangentiale Kanten(ISO-ZOPH)
100
AcDbVertex
100
AcDb2dVertex
 10
152.4708494512563
 20
164.5658956572328
 30
0.0
  0
VERTEX
  5
3175
330
3164
100
AcDbEntity
  8
Sichtbare tangentiale Kanten(ISO-ZOPH)
100
AcDbVertex
100
AcDb2dVertex
 10
152.5063571302418
 20
164.5502768561159
 30
0.0
  0
VERTEX
  5
3176
330
3164
100
AcDbEntity
  8
Sichtbare tangentiale Kanten(ISO-ZOPH)
100
AcDbVertex
100
AcDb2dVertex
 10
152.5418934194569
 20
164.5347462698732
 30
0.0
  0
VERTEX
  5
3177
330
3164
100
AcDbEntity
  8
Sichtbare tangentiale Kanten(ISO-ZOPH)
100
AcDbVertex
100
AcDb2dVertex
 10
152.5774607030873
 20
164.5193038985048
 30
0.0
  0
VERTEX
  5
3178
330
3164
100
AcDbEntity
  8
Sichtbare tangentiale Kanten(ISO-ZOPH)
100
AcDbVertex
100
AcDb2dVertex
 10
152.6130565969472
 20
164.5039497420106
 30
0.0
  0
VERTEX
  5
3179
330
3164
100
AcDbEntity
  8
Sichtbare tangentiale Kanten(ISO-ZOPH)
100
AcDbVertex
100
AcDb2dVertex
 10
152.6486834852223
 20
164.4886861845766
 30
0.0
  0
VERTEX
  5
317A
330
3164
100
AcDbEntity
  8
Sichtbare tangentiale Kanten(ISO-ZOPH)
100
AcDbVertex
100
AcDb2dVertex
 10
152.684338983727
 20
164.4735084578309
 30
0.0
  0
VERTEX
  5
317B
330
3164
100
AcDbEntity
  8
Sichtbare tangentiale Kanten(ISO-ZOPH)
100
AcDbVertex
100
AcDb2dVertex
 10
152.7200230924611
 20
164.4584213301454
 30
0.0
  0
VERTEX
  5
317C
330
3164
100
AcDbEntity
  8
Sichtbare tangentiale Kanten(ISO-ZOPH)
100
AcDbVertex
100
AcDb2dVertex
 10
152.7557381956105
 20
164.4434224173341
 30
0.0
  0
VERTEX
  5
317D
330
3164
100
AcDbEntity
  8
Sichtbare tangentiale Kanten(ISO-ZOPH)
100
AcDbVertex
100
AcDb2dVertex
 10
152.7914819089894
 20
164.4285093352113
 30
0.0
  0
SEQEND
  5
317E
330
3164
100
AcDbEntity
  8
Sichtbare tangentiale Kanten(ISO-ZOPH)
  0
POLYLINE
  5
317F
330
1A
100
AcDbEntity
  8
Sichtbare tangentiale Kanten(ISO-ZOPH)
100
AcDb2dPolyline
 66
     1
 10
0.0
 20
0.0
 30
0.0
 70
   128
  0
VERTEX
  5
3180
330
317F
100
AcDbEntity
  8
Sichtbare tangentiale Kanten(ISO-ZOPH)
100
AcDbVertex
100
AcDb2dVertex
 10
152.7915248243337
 20
213.1564055487428
 30
0.0
  0
VERTEX
  5
3181
330
317F
100
AcDbEntity
  8
Sichtbare tangentiale Kanten(ISO-ZOPH)
100
AcDbVertex
100
AcDb2dVertex
 10
152.7557787267689
 20
213.1414972349916
 30
0.0
  0
VERTEX
  5
3182
330
317F
100
AcDbEntity
  8
Sichtbare tangentiale Kanten(ISO-ZOPH)
100
AcDbVertex
100
AcDb2dVertex
 10
152.7200612394337
 20
213.1265007063661
 30
0.0
  0
VERTEX
  5
3183
330
317F
100
AcDbEntity
  8
Sichtbare tangentiale Kanten(ISO-ZOPH)
100
AcDbVertex
100
AcDb2dVertex
 10
152.684372362328
 20
213.1114159628664
 30
0.0
  0
VERTEX
  5
3184
330
317F
100
AcDbEntity
  8
Sichtbare tangentiale Kanten(ISO-ZOPH)
100
AcDbVertex
100
AcDb2dVertex
 10
152.6487144796376
 20
213.0962430044923
 30
0.0
  0
VERTEX
  5
3185
330
317F
100
AcDbEntity
  8
Sichtbare tangentiale Kanten(ISO-ZOPH)
100
AcDbVertex
100
AcDb2dVertex
 10
152.6130852071767
 20
213.0809818312441
 30
0.0
  0
VERTEX
  5
3186
330
317F
100
AcDbEntity
  8
Sichtbare tangentiale Kanten(ISO-ZOPH)
100
AcDbVertex
100
AcDb2dVertex
 10
152.5774845449452
 20
213.0656324431215
 30
0.0
  0
VERTEX
  5
3187
330
317F
100
AcDbEntity
  8
Sichtbare tangentiale Kanten(ISO-ZOPH)
100
AcDbVertex
100
AcDb2dVertex
 10
152.5419148771291
 20
213.0501924559389
 30
0.0
  0
VERTEX
  5
3188
330
317F
100
AcDbEntity
  8
Sichtbare tangentiale Kanten(ISO-ZOPH)
100
AcDbVertex
100
AcDb2dVertex
 10
152.5063762037282
 20
213.034664253882
 30
0.0
  0
VERTEX
  5
3189
330
317F
100
AcDbEntity
  8
Sichtbare tangentiale Kanten(ISO-ZOPH)
100
AcDbVertex
100
AcDb2dVertex
 10
152.4708661405568
 20
213.0190478369509
 30
0.0
  0
VERTEX
  5
318A
330
317F
100
AcDbEntity
  8
Sichtbare tangentiale Kanten(ISO-ZOPH)
100
AcDbVertex
100
AcDb2dVertex
 10
152.4353894559865
 20
213.0033408209596
 30
0.0
  0
VERTEX
  5
318B
330
317F
100
AcDbEntity
  8
Sichtbare tangentiale Kanten(ISO-ZOPH)
100
AcDbVertex
100
AcDb2dVertex
 10
152.3999413816457
 20
212.9875432059084
 30
0.0
  0
VERTEX
  5
318C
330
317F
100
AcDbEntity
  8
Sichtbare tangentiale Kanten(ISO-ZOPH)
100
AcDbVertex
100
AcDb2dVertex
 10
152.3645219175343
 20
212.9716573759828
 30
0.0
  0
VERTEX
  5
318D
330
317F
100
AcDbEntity
  8
Sichtbare tangentiale Kanten(ISO-ZOPH)
100
AcDbVertex
100
AcDb2dVertex
 10
152.3291358320241
 20
212.9556809469972
 30
0.0
  0
VERTEX
  5
318E
330
317F
100
AcDbEntity
  8
Sichtbare tangentiale Kanten(ISO-ZOPH)
100
AcDbVertex
100
AcDb2dVertex
 10
152.2937807409291
 20
212.9396139189516
 30
0.0
  0
VERTEX
  5
318F
330
317F
100
AcDbEntity
  8
Sichtbare tangentiale Kanten(ISO-ZOPH)
100
AcDbVertex
100
AcDb2dVertex
 10
152.2584590284352
 20
212.9234562918459
 30
0.0
  0
VERTEX
  5
3190
330
317F
100
AcDbEntity
  8
Sichtbare tangentiale Kanten(ISO-ZOPH)
100
AcDbVertex
100
AcDb2dVertex
 10
152.2231659261708
 20
212.9072056814943
 30
0.0
  0
VERTEX
  5
3191
330
317F
100
AcDbEntity
  8
Sichtbare tangentiale Kanten(ISO-ZOPH)
100
AcDbVertex
100
AcDb2dVertex
 10
152.1879062025075
 20
212.8908668562685
 30
0.0
  0
VERTEX
  5
3192
330
317F
100
AcDbEntity
  8
Sichtbare tangentiale Kanten(ISO-ZOPH)
100
AcDbVertex
100
AcDb2dVertex
 10
152.1526774732594
 20
212.8744374319826
 30
0.0
  0
VERTEX
  5
3193
330
317F
100
AcDbEntity
  8
Sichtbare tangentiale Kanten(ISO-ZOPH)
100
AcDbVertex
100
AcDb2dVertex
 10
152.1174797384267
 20
212.8579150244509
 30
0.0
  0
VERTEX
  5
3194
330
317F
100
AcDbEntity
  8
Sichtbare tangentiale Kanten(ISO-ZOPH)
100
AcDbVertex
100
AcDb2dVertex
 10
152.082315382195
 20
212.841302017859
 30
0.0
  0
VERTEX
  5
3195
330
317F
100
AcDbEntity
  8
Sichtbare tangentiale Kanten(ISO-ZOPH)
100
AcDbVertex
100
AcDb2dVertex
 10
152.0471844045644
 20
212.8245960280214
 30
0.0
  0
VERTEX
  5
3196
330
317F
100
AcDbEntity
  8
Sichtbare tangentiale Kanten(ISO-ZOPH)
100
AcDbVertex
100
AcDb2dVertex
 10
152.012084421349
 20
212.8077994391237
 30
0.0
  0
VERTEX
  5
3197
330
317F
100
AcDbEntity
  8
Sichtbare tangentiale Kanten(ISO-ZOPH)
100
AcDbVertex
100
AcDb2dVertex
 10
151.9770202009206
 20
212.7909098669801
 30
0.0
  0
VERTEX
  5
3198
330
317F
100
AcDbEntity
  8
Sichtbare tangentiale Kanten(ISO-ZOPH)
100
AcDbVertex
100
AcDb2dVertex
 10
151.9419869749074
 20
212.7739273115907
 30
0.0
  0
SEQEND
  5
3199
330
317F
100
AcDbEntity
  8
Sichtbare tangentiale Kanten(ISO-ZOPH)
  0
LINE
  5
33E2
330
1A
100
AcDbEntity
  8
Sichtbare Kanten(ISO-ZOPH)
100
AcDbLine
 10
152.7948511873652
 20
164.4267009533442
 30
0.0
 11
116.3804272201587
 21
179.557991435803
 31
0.0
  0
LINE
  5
33E3
330
1A
100
AcDbEntity
  8
Sichtbare Kanten(ISO-ZOPH)
100
AcDbLine
 10
116.3804272201587
 20
198.0269735160527
 30
0.0
 11
152.7948511873651
 21
213.1582639985115
 31
0.0
  0
CIRCLE
  5
33E4
330
1A
100
AcDbEntity
  8
Sichtbare tangentiale Kanten(ISO-ZOPH)
100
AcDbCircle
 10
163.2176365224843
 20
188.7924824759279
 30
0.0
 40
23.64814955874756
  0
CIRCLE
  5
33E5
330
1A
100
AcDbEntity
  8
Sichtbare tangentiale Kanten(ISO-ZOPH)
100
AcDbCircle
 10
163.2176365224843
 20
188.7924824759279
 30
0.0
 40
25.63719334948411
  0
ARC
  5
3482
330
1A
100
AcDbEntity
  8
Sichtbare Kanten(ISO-ZOPH)
100
AcDbCircle
 10
112.2176365225351
 20
96.50759255541487
 30
0.0
 40
1.999999999999989
100
AcDbArc
 50
180.0
 51
240.4885014429096
  0
ARC
  5
3483
102
{ACAD_REACTORS
330
3689
102
}
330
1A
100
AcDbEntity
  8
Sichtbare Kanten(ISO-ZOPH)
100
AcDbCircle
 10
132.2176365225351
 20
104.0076236716839
 30
0.0
 40
1.999999999999968
100
AcDbArc
 50
180.0
 51
249.4719000746597
  0
ARC
  5
35D8
330
1A
100
AcDbEntity
  8
Sichtbare Kanten(ISO-ZOPH)
100
AcDbCircle
 10
187.566805547225
 20
79.01125064335417
 30
0.0
 40
1.999999999999944
100
AcDbArc
 50
353.9999999999982
 51
69.47190007466049
  0
ARC
  5
35D9
330
1A
100
AcDbEntity
  8
Sichtbare Kanten(ISO-ZOPH)
100
AcDbCircle
 10
134.8362375834234
 20
79.10826667835795
 30
0.0
 40
2.000000000000078
100
AcDbArc
 50
6.000000000000078
 51
60.48850144290849
  0
LINE
  5
35DA
330
1A
100
AcDbEntity
  8
Sichtbare tangentiale Kanten(ISO-ZOPH)
100
AcDbLine
 10
131.5163025229013
 20
102.1346234916474
 30
0.0
 11
188.268140253309
 21
80.88425155866397
 31
0.0
  0
LINE
  5
35DB
330
1A
100
AcDbEntity
  8
Sichtbare Kanten(ISO-ZOPH)
100
AcDbLine
 10
188.2681389814022
 20
80.88425128780277
 30
0.0
 11
131.5163030883579
 21
102.1346230272353
 31
0.0
  0
LINE
  5
35DC
330
1A
100
AcDbEntity
  8
Sichtbare Kanten(ISO-ZOPH)
100
AcDbLine
 10
111.2324400828315
 20
94.76707884527195
 30
0.0
 11
135.821434023127
 21
80.84878038850098
 31
0.0
  0
LINE
  5
35DD
102
{ACAD_REACTORS
330
3666
330
36B0
102
}
330
1A
100
AcDbEntity
  8
Sichtbare Kanten(ISO-ZOPH)
100
AcDbLine
 10
139.5694869637875
 20
70.34149595487369
 30
0.0
 11
186.8657860812826
 21
70.34149595487369
 31
0.0
  0
LINE
  5
35DE
330
1A
100
AcDbEntity
  8
Sichtbare tangentiale Kanten(ISO-ZOPH)
100
AcDbLine
 10
188.8548298720191
 20
72.13243902833838
 30
0.0
 11
137.580443173051
 21
72.13243902833838
 31
0.0
  0
ARC
  5
35DF
330
1A
100
AcDbEntity
  8
Sichtbare Kanten(ISO-ZOPH)
100
AcDbCircle
 10
139.5694869637875
 20
72.3414959548737
 30
0.0
 40
2.0
100
AcDbArc
 50
186.0000000000001
 51
270.0
  0
ARC
  5
35E0
330
1A
100
AcDbEntity
  8
Sichtbare Kanten(ISO-ZOPH)
100
AcDbCircle
 10
186.8657860812826
 20
72.3414959548737
 30
0.0
 40
2.0
100
AcDbArc
 50
270.0
 51
353.9999999999999
  0
LINE
  5
35E9
330
1A
100
AcDbEntity
  8
Sichtbare Kanten(ISO-ZOPH)
100
AcDbLine
 10
114.2176362841165
 20
126.0414957641403
 30
0.0
 11
114.2176362841165
 21
127.0414960025585
 31
0.0
  0
LINE
  5
35EA
330
1A
100
AcDbEntity
  8
Sichtbare Kanten(ISO-ZOPH)
100
AcDbLine
 10
126.2176365225351
 20
127.0414959548748
 30
0.0
 11
114.2176365225351
 21
127.0414959548748
 31
0.0
  0
LINE
  5
35EB
330
1A
100
AcDbEntity
  8
Sichtbare Kanten(ISO-ZOPH)
100
AcDbLine
 10
126.2176367609537
 20
127.0414960025585
 30
0.0
 11
126.2176367609537
 21
126.0414957641403
 31
0.0
  0
LINE
  5
35ED
330
1A
100
AcDbEntity
  8
Sichtbare Kanten(ISO-ZOPH)
100
AcDbLine
 10
114.2176365225351
 20
118.3414959548753
 30
0.0
 11
114.2176365225351
 21
126.0414959548753
 31
0.0
  0
LINE
  5
35EE
330
1A
100
AcDbEntity
  8
Sichtbare Kanten(ISO-ZOPH)
100
AcDbLine
 10
126.2176365225351
 20
118.3414959548753
 30
0.0
 11
126.2176365225351
 21
126.0414959548753
 31
0.0
  0
LINE
  5
35EF
102
{ACAD_REACTORS
330
3689
330
3746
102
}
330
1A
100
AcDbEntity
  8
Sichtbare Kanten(ISO-ZOPH)
100
AcDbLine
 10
110.2176365225351
 20
118.3414959548737
 30
0.0
 11
130.2176365225351
 21
118.3414959548737
 31
0.0
  0
LINE
  5
35F0
102
{ACAD_REACTORS
330
3666
330
3746
330
37BA
102
}
330
1A
100
AcDbEntity
  8
Sichtbare Kanten(ISO-ZOPH)
100
AcDbLine
 10
110.2176365225351
 20
118.3414959548737
 30
0.0
 11
110.2176365225351
 21
96.50759255541487
 31
0.0
  0
LINE
  5
35F1
330
1A
100
AcDbEntity
  8
Sichtbare Kanten(ISO-ZOPH)
100
AcDbLine
 10
130.2176365225351
 20
118.3414959548737
 30
0.0
 11
130.2176365225351
 21
104.0076236716839
 31
0.0
  0
LINE
  5
35F2
330
1A
100
AcDbEntity
  8
Sichtbare Kanten(ISO-ZOPH)
100
AcDbLine
 10
188.8548298720191
 20
72.13243902833838
 30
0.0
 11
189.5558493379615
 21
78.80219371681878
 31
0.0
  0
LINE
  5
35F3
330
1A
100
AcDbEntity
  8
Sichtbare Kanten(ISO-ZOPH)
100
AcDbLine
 10
137.580443173051
 20
72.13243902833838
 30
0.0
 11
136.82528137416
 21
79.31732360489338
 31
0.0
  0
LINE
  5
35FB
330
1A
100
AcDbEntity
  8
AM_0
100
AcDbLine
 10
112.2176365225351
 20
96.50759255541487
 30
0.0
 11
130.574063149005
 21
102.8680331461781
 31
0.0
  0
LINE
  5
35FC
102
{ACAD_REACTORS
330
37BA
102
}
330
1A
100
AcDbEntity
  8
AM_0
100
AcDbLine
 10
136.82528137416
 20
79.31732360489338
 30
0.0
 11
189.5558493379615
 21
78.80219371681878
 31
0.0
  0
CIRCLE
  5
35FE
102
{ACAD_REACTORS
330
3611
102
}
330
1A
100
AcDbEntity
  8
AM_0
100
AcDbCircle
 10
163.2176365224843
 20
188.7924824759279
 30
0.0
 40
26.50142945858308
  0
LINE
  5
35FF
330
1A
100
AcDbEntity
  8
AM_7
100
AcDbLine
 10
104.1395954438052
 20
189.0441660687242
 30
0.0
 11
196.2159104114568
 21
188.7924824759279
 31
0.0
  0
LINE
  5
3600
102
{ACAD_REACTORS
330
371C
102
}
330
1A
100
AcDbEntity
  8
AM_7
100
AcDbLine
 10
163.2176365224843
 20
220.6979928153811
 30
0.0
 11
163.2176365224843
 21
158.4827751959576
 31
0.0
  0
LINE
  5
3601
330
1A
100
AcDbEntity
  8
AM_7
100
AcDbLine
 10
120.2176365225351
 20
131.9392936237897
 30
0.0
 11
120.2176365225351
 21
93.17435280610334
 31
0.0
  0
LINE
  5
3602
102
{ACAD_REACTORS
330
3666
102
}
330
1A
100
AcDbEntity
  8
AM_7
100
AcDbLine
 10
163.2176365224843
 20
102.7223676905362
 30
0.0
 11
163.2176365224843
 21
61.67592562442121
 31
0.0
  0
DIMENSION
  5
3603
102
{ACAD_XDICTIONARY
360
3610
102
}
102
{ACAD_REACTORS
330
3611
102
}
330
1A
100
AcDbEntity
  8
AM_5
100
AcDbDimension
  2
*D11
 10
213.7190669910674
 20
162.2910530173448
 30
0.0
 11
207.2190669910674
 21
188.7924824759279
 31
0.0
 70
    32
  1
%%c<>
 71
     5
 42
53.00285891716618
 73
     0
 74
     0
 75
     0
  3
AM_ISO$0
100
AcDbAlignedDimension
 13
163.2176365224843
 23
215.293911934511
 33
0.0
 14
163.2176365224843
 24
162.2910530173448
 34
0.0
 50
90.0
100
AcDbRotatedDimension
1001
ACAD
1000
DSTYLE
1002
{
1070
    40
1040
2.0
1002
}
1001
ACAD_DSTYLE_DIMINSPECT
1070
   396
1000
100%
1070
   395
1000

1070
   394
1070
    33
1070
   393
1070
     0
  0
DIMENSION
  5
3658
102
{ACAD_XDICTIONARY
360
3665
102
}
102
{ACAD_REACTORS
330
3666
102
}
330
1A
100
AcDbEntity
  8
AM_5
100
AcDbDimension
  2
*D12
 10
86.21763652253513
 20
70.34149595487372
 30
0.0
 11
79.71763652253511
 21
94.34149595487378
 31
0.0
 70
    32
 71
     5
 42
48.00000000000007
 73
     0
 74
     0
 75
     0
  3
AM_ISO$0
100
AcDbAlignedDimension
 13
110.2176365225351
 23
118.3414959548737
 33
0.0
 14
163.2176365224843
 24
70.34149595487369
 34
0.0
 50
90.0
100
AcDbRotatedDimension
1001
ACAD
1000
DSTYLE
1002
{
1070
    40
1040
2.0
1002
}
1001
ACAD_DSTYLE_DIMINSPECT
1070
   396
1000
100%
1070
   395
1000

1070
   394
1070
    33
1070
   393
1070
     0
  0
DIMENSION
  5
3679
102
{ACAD_XDICTIONARY
360
3688
102
}
102
{ACAD_REACTORS
330
3689
102
}
330
1A
100
AcDbEntity
  8
AM_5
100
AcDbDimension
  2
*D13
 10
155.5163040983578
 20
104.0076236716839
 30
0.0
 11
149.0163040983578
 21
111.1745598132789
 31
0.0
 70
    32
 71
     5
 42
14.3338722831898
 73
     0
 74
     0
 75
     0
  3
AM_ISO$0
100
AcDbAlignedDimension
 13
130.2176365225351
 23
118.3414959548737
 33
0.0
 14
132.2176365225351
 24
104.0076236716839
 34
0.0
 50
90.00000000000003
100
AcDbRotatedDimension
1001
ACAD_DSTYLE_DIMINSPECT
1070
   396
1000
100%
1070
   395
1000

1070
   394
1070
    33
1070
   393
1070
     0
1001
ACAD
1000
DSTYLE
1002
{
1070
    40
1040
2.0
1070
   271
1070
     0
1002
}
  0
DIMENSION
  5
36A0
102
{ACAD_XDICTIONARY
360
36AF
102
}
102
{ACAD_REACTORS
330
36B0
102
}
330
1A
100
AcDbEntity
  8
AM_5
100
AcDbDimension
  2
*D14
 10
213.2677680204461
 20
78.80219371681876
 30
0.0
 11
206.7677680204461
 21
95.2021937168188
 31
0.0
 70
    32
 71
     5
 42
8.46069776194507
 73
     0
 74
     0
 75
     0
  3
AM_ISO$0
100
AcDbAlignedDimension
 13
163.2176365225351
 23
70.34149595487369
 33
0.0
 14
189.5558493379615
 24
78.80219371681876
 34
0.0
 50
90.00000000000003
100
AcDbRotatedDimension
1001
ACAD_DSTYLE_DIMINSPECT
1070
   396
1000
100%
1070
   395
1000

1070
   394
1070
    33
1070
   393
1070
     0
1001
ACAD
1000
DSTYLE
1002
{
1070
    40
1040
2.0
1070
   271
1070
     0
1002
}
  0
LINE
  5
370D
102
{ACAD_REACTORS
330
371C
102
}
330
1A
100
AcDbEntity
  8
AM_7
100
AcDbLine
 10
120.2176365224843
 20
201.293046246366
 30
0.0
 11
120.2176365224843
 21
174.5364180235999
 31
0.0
  0
DIMENSION
  5
370E
102
{ACAD_XDICTIONARY
360
371B
102
}
102
{ACAD_REACTORS
330
371C
102
}
330
1A
100
AcDbEntity
  8
AM_5
100
AcDbDimension
  2
*D15
 10
163.2176365224843
 20
239.293912944511
 30
0.0
 11
141.7176365224843
 21
245.793912944511
 31
0.0
 70
    32
 71
     5
 42
43.0
 73
     0
 74
     0
 75
     0
  3
AM_ISO$0
100
AcDbAlignedDimension
 13
120.2176365224843
 23
201.293046246366
 33
0.0
 14
163.2176365224843
 24
220.6979928153811
 34
0.0
100
AcDbRotatedDimension
1001
ACAD
1000
DSTYLE
1002
{
1070
    40
1040
2.0
1002
}
1001
ACAD_DSTYLE_DIMINSPECT
1070
   396
1000
100%
1070
   395
1000

1070
   394
1070
    33
1070
   393
1070
     0
  0
DIMENSION
  5
3738
102
{ACAD_XDICTIONARY
360
3745
102
}
102
{ACAD_REACTORS
330
3746
102
}
330
1A
100
AcDbEntity
  8
AM_5
100
AcDbDimension
  2
*D16
 10
130.2176365225351
 20
142.5961798499579
 30
0.0
 11
121.1980480747255
 21
142.5961798499579
 31
0.0
 70
   160
  1
%%c<>
 71
     5
 42
20.0
 73
     0
 74
     0
 75
     0
  3
AM_ISO$0
100
AcDbAlignedDimension
 13
110.2176365225351
 23
118.3414959548737
 33
0.0
 14
130.2176365225351
 24
118.3414959548737
 34
0.0
100
AcDbRotatedDimension
1001
ACAD
1000
DSTYLE
1002
{
1070
    40
1040
2.0
1002
}
1001
ACAD_DSTYLE_DIMINSPECT
1070
   396
1000
100%
1070
   395
1000

1070
   394
1070
    33
1070
   393
1070
     0
  0
DIMENSION
  5
37AC
102
{ACAD_XDICTIONARY
360
37B9
102
}
102
{ACAD_REACTORS
330
37BA
102
}
330
1A
100
AcDbEntity
  8
AM_5
100
AcDbDimension
  2
*D17
 10
189.5558493379615
 20
50.11881769077752
 30
0.0
 11
149.8867429302483
 21
56.61881769077751
 31
0.0
 70
    32
 71
     5
 42
79.33821281542643
 73
     0
 74
     0
 75
     0
  3
AM_ISO$0
100
AcDbAlignedDimension
 13
110.2176365225351
 23
118.3414959548737
 33
0.0
 14
189.5558493379615
 24
78.80219371681878
 34
0.0
 50
0.0000000000001132
100
AcDbRotatedDimension
1001
ACAD_DSTYLE_DIMINSPECT
1070
   396
1000
100%
1070
   395
1000

1070
   394
1070
    33
1070
   393
1070
     0
1001
ACAD
1000
DSTYLE
1002
{
1070
    40
1040
2.0
1070
   271
1070
     0
1002
}
  0
VIEWPORT
  5
22
330
17
100
AcDbEntity
 67
     1
  8
0
100
AcDbViewport
 10
112.2893422104056
 20
155.6597362822716
 30
0.0
 40
408.1687337183673
 41
323.7622123600237
 68
     1
 69
     1
 12
112.2893422104056
 22
155.6597362822716
 13
0.0
 23
0.0
 14
10.0
 24
10.0
 15
10.0
 25
10.0
 16
0.0
 26
0.0
 36
1.0
 17
0.0
 27
0.0
 37
0.0
 42
50.0
 43
0.0
 44
0.0
 45
323.7622123600237
 50
0.0
 51
0.0
 72
   100
331
1969
 90
    32800
  1

281
     0
 71
     1
 74
     0
110
0.0
120
0.0
130
0.0
111
1.0
121
0.0
131
0.0
112
0.0
122
1.0
132
0.0
 79
     0
146
0.0
170
     0
 61
     5
348
23C6
292
     1
282
     1
141
0.0
142
0.0
 63
   250
421
  3355443
1001
GENIUS_GENSCREG_15
1000
PF
1040
1.0
1000
DF
1040
1.0
1000
MIN
1011
11.7063398794879
1021
69.23822698240406
1031
0.0
1000
MAX
1011
146.8807982645257
1021
174.6953433489414
1031
0.0
1000
FLAGS
1070
     4
1001
GENIUS_GENOREF_13
1005
1677
  0
POINT
  5
1895
330
17
100
AcDbEntity
 67
     1
  8
AM_0
 60
     1
100
AcDbPoint
 10
0.0
 20
0.0
 30
0.0
  0
POINT
  5
189D
330
17
100
AcDbEntity
 67
     1
  8
AM_0
 60
     1
100
AcDbPoint
 10
0.0
 20
0.0
 30
0.0
  0
POINT
  5
1900
330
17
100
AcDbEntity
 67
     1
  8
AM_0
 60
     1
100
AcDbPoint
 10
0.0
 20
0.0
 30
0.0
  0
POINT
  5
1908
330
17
100
AcDbEntity
 67
     1
  8
AM_0
 60
     1
100
AcDbPoint
 10
0.0
 20
0.0
 30
0.0
  0
ENDSEC
  0
SECTION
  2
OBJECTS
  0
DICTIONARY
  5
C
330
0
100
AcDbDictionary
281
     1
  3
ACAD_COLOR
350
22C4
  3
ACAD_GROUP
350
D
  3
ACAD_LAYOUT
350
167
  3
ACAD_MATERIAL
350
22C3
  3
ACAD_MLEADERSTYLE
350
29E1
  3
ACAD_MLINESTYLE
350
E
  3
ACAD_PLOTSETTINGS
350
168
  3
ACAD_PLOTSTYLENAME
350
165
  3
ACAD_SCALELIST
350
29BF
  3
ACAD_TABLESTYLE
350
23D1
  3
ACAD_VISUALSTYLE
350
23C0
  3
ACDB_RECOMPOSE_DATA
350
37E8
  3
ACDBVARIABLEDICTIONARY
350
5D
  3
ACMDICTIONARY
350
142
  3
AMG
350
171
  3
AMG_3D2D_DICT
350
18A8
  3
AMGSNAPSETTINGS
350
1F2
  3
MAPISURF_MODULE
350
17FD
  0
DICTIONARY
  5
262F
330
2
100
AcDbDictionary
280
     1
281
     1
  3
ACAD_LAYERSTATES
360
2630
  0
DICTIONARY
  5
36C7
330
F
100
AcDbDictionary
280
     1
281
     1
  3
ADSK_XREC_LAYER_RECONCILED
360
36C8
  0
DICTIONARY
  5
36C9
330
35A
100
AcDbDictionary
280
     1
281
     1
  3
ADSK_XREC_LAYER_RECONCILED
360
36CA
  0
DICTIONARY
  5
36CB
330
35B
100
AcDbDictionary
280
     1
281
     1
  3
ADSK_XREC_LAYER_RECONCILED
360
36CC
  0
DICTIONARY
  5
36CD
330
35C
100
AcDbDictionary
280
     1
281
     1
  3
ADSK_XREC_LAYER_RECONCILED
360
36CE
  0
DICTIONARY
  5
36CF
330
35D
100
AcDbDictionary
280
     1
281
     1
  3
ADSK_XREC_LAYER_RECONCILED
360
36D0
  0
DICTIONARY
  5
36D1
330
35E
100
AcDbDictionary
280
     1
281
     1
  3
ADSK_XREC_LAYER_RECONCILED
360
36D2
  0
DICTIONARY
  5
36D3
330
35F
100
AcDbDictionary
280
     1
281
     1
  3
ADSK_XREC_LAYER_RECONCILED
360
36D4
  0
DICTIONARY
  5
36D5
330
360
100
AcDbDictionary
280
     1
281
     1
  3
ADSK_XREC_LAYER_RECONCILED
360
36D6
  0
DICTIONARY
  5
36D7
330
361
100
AcDbDictionary
280
     1
281
     1
  3
ADSK_XREC_LAYER_RECONCILED
360
36D8
  0
DICTIONARY
  5
36D9
330
362
100
AcDbDictionary
280
     1
281
     1
  3
ADSK_XREC_LAYER_RECONCILED
360
36DA
  0
DICTIONARY
  5
36DB
330
38E
100
AcDbDictionary
280
     1
281
     1
  3
ADSK_XREC_LAYER_RECONCILED
360
36DC
  0
DICTIONARY
  5
36DD
330
3F7
100
AcDbDictionary
280
     1
281
     1
  3
ADSK_XREC_LAYER_RECONCILED
360
36DE
  0
DICTIONARY
  5
36DF
330
5FC
100
AcDbDictionary
280
     1
281
     1
  3
ADSK_XREC_LAYER_RECONCILED
360
36E0
  0
DICTIONARY
  5
36E1
330
614
100
AcDbDictionary
280
     1
281
     1
  3
ADSK_XREC_LAYER_RECONCILED
360
36E2
  0
DICTIONARY
  5
36E3
330
79B
100
AcDbDictionary
280
     1
281
     1
  3
ADSK_XREC_LAYER_RECONCILED
360
36E4
  0
DICTIONARY
  5
36E5
330
1054
100
AcDbDictionary
280
     1
281
     1
  3
ADSK_XREC_LAYER_RECONCILED
360
36E6
  0
DICTIONARY
  5
36E7
330
106E
100
AcDbDictionary
280
     1
281
     1
  3
ADSK_XREC_LAYER_RECONCILED
360
36E8
  0
DICTIONARY
  5
36E9
330
106F
100
AcDbDictionary
280
     1
281
     1
  3
ADSK_XREC_LAYER_RECONCILED
360
36EA
  0
DICTIONARY
  5
36EB
330
108B
100
AcDbDictionary
280
     1
281
     1
  3
ADSK_XREC_LAYER_RECONCILED
360
36EC
  0
DICTIONARY
  5
36ED
330
1969
100
AcDbDictionary
280
     1
281
     1
  3
ADSK_XREC_LAYER_RECONCILED
360
36EE
  0
DICTIONARY
  5
36EF
330
1A0F
100
AcDbDictionary
280
     1
281
     1
  3
ADSK_XREC_LAYER_RECONCILED
360
36F0
  0
DICTIONARY
  5
36F1
330
1A10
100
AcDbDictionary
280
     1
281
     1
  3
ADSK_XREC_LAYER_RECONCILED
360
36F2
  0
DICTIONARY
  5
36F3
330
1A11
100
AcDbDictionary
280
     1
281
     1
  3
ADSK_XREC_LAYER_RECONCILED
360
36F4
  0
DICTIONARY
  5
36F5
330
1FEC
100
AcDbDictionary
280
     1
281
     1
  3
ADSK_XREC_LAYER_RECONCILED
360
36F6
  0
DICTIONARY
  5
36F7
330
2853
100
AcDbDictionary
280
     1
281
     1
  3
ADSK_XREC_LAYER_RECONCILED
360
36F8
  0
DICTIONARY
  5
36F9
330
2A0C
100
AcDbDictionary
280
     1
281
     1
  3
ADSK_XREC_LAYER_RECONCILED
360
36FA
  0
DICTIONARY
  5
36FB
330
2A0D
100
AcDbDictionary
280
     1
281
     1
  3
ADSK_XREC_LAYER_RECONCILED
360
36FC
  0
DICTIONARY
  5
36FD
330
2A0E
100
AcDbDictionary
280
     1
281
     1
  3
ADSK_XREC_LAYER_RECONCILED
360
36FE
  0
DICTIONARY
  5
36FF
330
2A0F
100
AcDbDictionary
280
     1
281
     1
  3
ADSK_XREC_LAYER_RECONCILED
360
3700
  0
DICTIONARY
  5
12A
330
1A
100
AcDbDictionary
280
     1
281
     1
  3
ACAD_INDEX
360
17BE
  0
DICTIONARY
  5
3610
330
3603
100
AcDbDictionary
280
     1
281
     1
  3
ACAD_DIMASSOC
360
3611
  0
DICTIONARY
  5
3665
330
3658
100
AcDbDictionary
280
     1
281
     1
  3
ACAD_DIMASSOC
360
3666
  0
DICTIONARY
  5
3688
330
3679
100
AcDbDictionary
280
     1
281
     1
  3
ACAD_DIMASSOC
360
3689
  0
DICTIONARY
  5
36AF
330
36A0
100
AcDbDictionary
280
     1
281
     1
  3
ACAD_DIMASSOC
360
36B0
  0
DICTIONARY
  5
371B
330
370E
100
AcDbDictionary
280
     1
281
     1
  3
ACAD_DIMASSOC
360
371C
  0
DICTIONARY
  5
3745
330
3738
100
AcDbDictionary
280
     1
281
     1
  3
ACAD_DIMASSOC
360
3746
  0
DICTIONARY
  5
37B9
330
37AC
100
AcDbDictionary
280
     1
281
     1
  3
ACAD_DIMASSOC
360
37BA
  0
DICTIONARY
  5
22C4
102
{ACAD_REACTORS
330
C
102
}
330
C
100
AcDbDictionary
281
     1
  0
DICTIONARY
  5
D
102
{ACAD_REACTORS
330
C
102
}
330
C
100
AcDbDictionary
281
     1
  0
DICTIONARY
  5
167
102
{ACAD_REACTORS
330
C
102
}
330
C
100
AcDbDictionary
281
     1
  3
A0
350
351
  3
A1
350
314
  3
A2
350
349
  3
A3
350
2E1
  3
A4
350
16A
  3
Model
350
169
  0
DICTIONARY
  5
22C3
102
{ACAD_REACTORS
330
C
102
}
330
C
100
AcDbDictionary
281
     1
  3
ByBlock
350
23BE
  3
ByLayer
350
23BD
  3
Global
350
23BF
  0
DICTIONARY
  5
29E1
102
{ACAD_REACTORS
330
C
102
}
330
C
100
AcDbDictionary
281
     1
  3
Standard
350
29E2
  0
DICTIONARY
  5
E
102
{ACAD_REACTORS
330
C
102
}
330
C
100
AcDbDictionary
281
     1
  3
STANDARD
350
13
  0
DICTIONARY
  5
168
102
{ACAD_REACTORS
330
C
102
}
330
C
100
AcDbDictionary
281
     1
  3
A0
350
2EE
  3
A0-A3
350
2F2
  3
A0-A4
350
2F3
  3
A1
350
2ED
  3
A2
350
2EA
  3
A3
350
31E
  3
A4
350
319
  0
ACDBDICTIONARYWDFLT
  5
165
102
{ACAD_REACTORS
330
C
102
}
330
C
100
AcDbDictionary
281
     1
  3
Normal
350
166
100
AcDbDictionaryWithDefault
340
166
  0
DICTIONARY
  5
29BF
102
{ACAD_REACTORS
330
C
102
}
330
C
100
AcDbDictionary
281
     1
  3
A0
350
29C0
  3
A1
350
29C1
  3
A2
350
29C2
  3
A3
350
29C3
  3
A4
350
29C4
  3
A5
350
29C5
  3
A6
350
29C6
  3
A7
350
29C7
  3
A8
350
29C8
  3
A9
350
29C9
  3
B0
350
29CA
  3
B1
350
29CB
  3
B2
350
29CC
  3
B3
350
29CD
  3
B4
350
29CE
  3
B5
350
29CF
  3
B6
350
29D0
  3
B7
350
29D1
  3
B8
350
29D2
  3
B9
350
29D3
  3
C0
350
29D4
  3
C1
350
29D5
  3
C2
350
29D6
  3
C3
350
29D7
  3
C4
350
29D8
  3
C5
350
29D9
  3
C6
350
29DA
  3
C7
350
29DB
  3
C8
350
29DC
  3
C9
350
29DD
  3
D0
350
29DE
  3
D1
350
29DF
  3
D2
350
29E0
  0
DICTIONARY
  5
23D1
102
{ACAD_REACTORS
330
C
102
}
330
C
100
AcDbDictionary
281
     1
  3
Standard
350
23D2
  0
DICTIONARY
  5
23C0
102
{ACAD_REACTORS
330
C
102
}
330
C
100
AcDbDictionary
281
     1
  3
2dWireframe
350
23C6
  3
3D Hidden
350
23C8
  3
3dWireframe
350
23C7
  3
Basic
350
23C5
  3
Brighten
350
23CC
  3
ColorChange
350
23D0
  3
Conceptual
350
23C9
  3
Dim
350
23CB
  3
Facepattern
350
23CF
  3
Flat
350
23C1
  3
FlatWithEdges
350
23C2
  3
Gouraud
350
23C3
  3
GouraudWithEdges
350
23C4
  3
Linepattern
350
23CE
  3
Realistic
350
23CA
  3
Thicken
350
23CD
  0
XRECORD
  5
37E8
102
{ACAD_REACTORS
330
C
102
}
330
C
100
AcDbXrecord
280
     1
 90
        1
330
23D2
  0
DICTIONARY
  5
5D
102
{ACAD_REACTORS
330
C
102
}
330
C
100
AcDbDictionary
281
     1
  3
CANNOSCALE
350
37EB
  3
CMLEADERSTYLE
350
37E9
  3
CTABLESTYLE
350
2572
  3
DIMADEC
350
5E
  3
DIMASSOC
350
1ED9
  3
INDEXCTL
350
128
  3
LAYEREVAL
350
38E7
  3
LAYERNOTIFY
350
38E8
  3
LIGHTINGUNITS
350
37EC
  3
MSLTSCALE
350
37EA
  3
SORTENTS
350
1044
  0
DICTIONARY
  5
142
102
{ACAD_REACTORS
330
C
102
}
330
C
100
AcDbDictionary
281
     1
  3
ACMSTDDICTIONARY
350
143
  3
AMDTSECTSYM_ARROWCOLOR
350
23F3
  0
DICTIONARY
  5
171
102
{ACAD_REACTORS
330
C
102
}
330
C
100
AcDbDictionary
281
     1
  3
AcMgSettings
350
172
  3
AMGLAYCFG
350
174
  0
DICTIONARY
  5
18A8
102
{ACAD_REACTORS
330
C
102
}
330
C
100
AcDbDictionary
281
     1
  3
AMG_SUBLIST_DICT
350
18A9
  0
DICTIONARY
  5
1F2
102
{ACAD_REACTORS
330
C
102
}
330
C
100
AcDbDictionary
281
     1
  3
DIMENSION
350
164B
  3
FEA
350
164C
  3
HATCH
350
164D
  3
SYMBOLS
350
164E
  0
DICTIONARY
  5
2630
102
{ACAD_REACTORS
330
262F
102
}
330
262F
100
AcDbDictionary
281
     1
  0
XRECORD
  5
36C8
102
{ACAD_REACTORS
330
36C7
102
}
330
36C7
100
AcDbXrecord
280
     1
290
     1
  0
XRECORD
  5
36CA
102
{ACAD_REACTORS
330
36C9
102
}
330
36C9
100
AcDbXrecord
280
     1
290
     1
  0
XRECORD
  5
36CC
102
{ACAD_REACTORS
330
36CB
102
}
330
36CB
100
AcDbXrecord
280
     1
290
     1
  0
XRECORD
  5
36CE
102
{ACAD_REACTORS
330
36CD
102
}
330
36CD
100
AcDbXrecord
280
     1
290
     1
  0
XRECORD
  5
36D0
102
{ACAD_REACTORS
330
36CF
102
}
330
36CF
100
AcDbXrecord
280
     1
290
     1
  0
XRECORD
  5
36D2
102
{ACAD_REACTORS
330
36D1
102
}
330
36D1
100
AcDbXrecord
280
     1
290
     1
  0
XRECORD
  5
36D4
102
{ACAD_REACTORS
330
36D3
102
}
330
36D3
100
AcDbXrecord
280
     1
290
     1
  0
XRECORD
  5
36D6
102
{ACAD_REACTORS
330
36D5
102
}
330
36D5
100
AcDbXrecord
280
     1
290
     1
  0
XRECORD
  5
36D8
102
{ACAD_REACTORS
330
36D7
102
}
330
36D7
100
AcDbXrecord
280
     1
290
     1
  0
XRECORD
  5
36DA
102
{ACAD_REACTORS
330
36D9
102
}
330
36D9
100
AcDbXrecord
280
     1
290
     1
  0
XRECORD
  5
36DC
102
{ACAD_REACTORS
330
36DB
102
}
330
36DB
100
AcDbXrecord
280
     1
290
     1
  0
XRECORD
  5
36DE
102
{ACAD_REACTORS
330
36DD
102
}
330
36DD
100
AcDbXrecord
280
     1
290
     1
  0
XRECORD
  5
36E0
102
{ACAD_REACTORS
330
36DF
102
}
330
36DF
100
AcDbXrecord
280
     1
290
     1
  0
XRECORD
  5
36E2
102
{ACAD_REACTORS
330
36E1
102
}
330
36E1
100
AcDbXrecord
280
     1
290
     1
  0
XRECORD
  5
36E4
102
{ACAD_REACTORS
330
36E3
102
}
330
36E3
100
AcDbXrecord
280
     1
290
     1
  0
XRECORD
  5
36E6
102
{ACAD_REACTORS
330
36E5
102
}
330
36E5
100
AcDbXrecord
280
     1
290
     1
  0
XRECORD
  5
36E8
102
{ACAD_REACTORS
330
36E7
102
}
330
36E7
100
AcDbXrecord
280
     1
290
     1
  0
XRECORD
  5
36EA
102
{ACAD_REACTORS
330
36E9
102
}
330
36E9
100
AcDbXrecord
280
     1
290
     1
  0
XRECORD
  5
36EC
102
{ACAD_REACTORS
330
36EB
102
}
330
36EB
100
AcDbXrecord
280
     1
290
     1
  0
XRECORD
  5
36EE
102
{ACAD_REACTORS
330
36ED
102
}
330
36ED
100
AcDbXrecord
280
     1
290
     1
  0
XRECORD
  5
36F0
102
{ACAD_REACTORS
330
36EF
102
}
330
36EF
100
AcDbXrecord
280
     1
290
     1
  0
XRECORD
  5
36F2
102
{ACAD_REACTORS
330
36F1
102
}
330
36F1
100
AcDbXrecord
280
     1
290
     1
  0
XRECORD
  5
36F4
102
{ACAD_REACTORS
330
36F3
102
}
330
36F3
100
AcDbXrecord
280
     1
290
     1
  0
XRECORD
  5
36F6
102
{ACAD_REACTORS
330
36F5
102
}
330
36F5
100
AcDbXrecord
280
     1
290
     1
  0
XRECORD
  5
36F8
102
{ACAD_REACTORS
330
36F7
102
}
330
36F7
100
AcDbXrecord
280
     1
290
     1
  0
XRECORD
  5
36FA
102
{ACAD_REACTORS
330
36F9
102
}
330
36F9
100
AcDbXrecord
280
     1
290
     1
  0
XRECORD
  5
36FC
102
{ACAD_REACTORS
330
36FB
102
}
330
36FB
100
AcDbXrecord
280
     1
290
     1
  0
XRECORD
  5
36FE
102
{ACAD_REACTORS
330
36FD
102
}
330
36FD
100
AcDbXrecord
280
     1
290
     1
  0
XRECORD
  5
3700
102
{ACAD_REACTORS
330
36FF
102
}
330
36FF
100
AcDbXrecord
280
     1
290
     1
  0
DICTIONARY
  5
17BE
102
{ACAD_REACTORS
330
12A
102
}
330
12A
100
AcDbDictionary
281
     1
  3
*A1
350
17BF
  0
DIMASSOC
  5
3611
102
{ACAD_REACTORS
330
3610
102
}
330
3610
100
AcDbDimAssoc
330
3603
 90
        3
 70
     0
 71
     0
  1
AcDbOsnapPointRef
 72
     5
331
35FE
 73
     0
 91
        0
 40
1.570796326794896
 10
0.0
 20
0.0
 30
0.0
 75
     0
  1
AcDbOsnapPointRef
 72
     5
331
35FE
 73
     0
 91
        0
 40
4.712388980384689
 10
0.0
 20
0.0
 30
0.0
 75
     0
  0
DIMASSOC
  5
3666
102
{ACAD_REACTORS
330
3665
102
}
330
3665
100
AcDbDimAssoc
330
3658
 90
        3
 70
     0
 71
     0
  1
AcDbOsnapPointRef
 72
    13
331
35F0
 73
     0
 91
        0
 40
0.0
 10
0.0
 20
0.0
 30
2.000000000000000E+50
 75
     0
  1
AcDbOsnapPointRef
 72
     6
331
3602
 73
     0
 91
        0
 40
0.7888837644808646
 10
0.0
 20
0.0
 30
0.0
332
35DD
 74
     0
 92
        0
 75
     0
  0
DIMASSOC
  5
3689
102
{ACAD_REACTORS
330
3688
102
}
330
3688
100
AcDbDimAssoc
330
3679
 90
        3
 70
     0
 71
     0
  1
AcDbOsnapPointRef
 72
     1
331
35EF
 73
     0
 91
        0
 40
0.0
 10
0.0
 20
0.0
 30
2.000000000000000E+50
 75
     0
  1
AcDbOsnapPointRef
 72
     3
331
3483
 73
     0
 91
        0
 40
3.141592653589793
 10
0.0
 20
0.0
 30
0.0
 75
     0
  0
DIMASSOC
  5
36B0
102
{ACAD_REACTORS
330
36AF
102
}
330
36AF
100
AcDbDimAssoc
330
36A0
 90
        1
 70
     0
 71
     0
  1
AcDbOsnapPointRef
 72
     2
331
35DD
 73
     0
 91
        0
 40
0.0
 10
0.0
 20
0.0
 30
0.0
 75
     0
  0
DIMASSOC
  5
371C
102
{ACAD_REACTORS
330
371B
102
}
330
371B
100
AcDbDimAssoc
330
370E
 90
        3
 70
     0
 71
     0
  1
AcDbOsnapPointRef
 72
    13
331
370D
 73
     0
 91
        0
 40
0.0
 10
0.0
 20
0.0
 30
2.000000000000000E+50
 75
     0
  1
AcDbOsnapPointRef
 72
    13
331
3600
 73
     0
 91
        0
 40
0.0
 10
0.0
 20
0.0
 30
2.000000000000000E+50
 75
     0
  0
DIMASSOC
  5
3746
102
{ACAD_REACTORS
330
3745
102
}
330
3745
100
AcDbDimAssoc
330
3738
 90
        3
 70
     0
 71
     0
  1
AcDbOsnapPointRef
 72
    13
331
35F0
 73
     0
 91
        0
 40
0.0
 10
0.0
 20
0.0
 30
2.000000000000000E+50
 75
     0
  1
AcDbOsnapPointRef
 72
     1
331
35EF
 73
     0
 91
        0
 40
0.0
 10
0.0
 20
0.0
 30
2.000000000000000E+50
 75
     0
  0
DIMASSOC
  5
37BA
102
{ACAD_REACTORS
330
37B9
102
}
330
37B9
100
AcDbDimAssoc
330
37AC
 90
        3
 70
     0
 71
     0
  1
AcDbOsnapPointRef
 72
    13
331
35F0
 73
     0
 91
        0
 40
0.0
 10
0.0
 20
0.0
 30
2.000000000000000E+50
 75
     0
  1
AcDbOsnapPointRef
 72
     1
331
35FC
 73
     0
 91
        0
 40
0.0
 10
0.0
 20
0.0
 30
2.000000000000000E+50
 75
     0
  0
LAYOUT
  5
351
102
{ACAD_REACTORS
330
167
102
}
330
167
100
AcDbPlotSettings
  1
A0
  2
HPDJ220-A0
  4
User268
  6

 40
4.995333194732666
 41
16.93336677551269
 42
4.99530029296875
 43
16.933349609375
 44
840.9093017578125
 45
1188.8046875
 46
0.0
 47
0.0
 48
0.0
 49
0.0
140
0.0
141
0.0
142
1.0
143
1.0
 70
   752
 72
     1
 73
     1
 74
     5
  7
PLA0.ctb
 75
    16
147
1.0
 76
     0
 77
     2
 78
   300
148
0.0
149
0.0
100
AcDbLayout
  1
A0
 70
     1
 71
     5
 10
-16.933349609375
 20
-4.995333194732666
 11
1171.871337890625
 21
835.9139685630799
 12
0.0
 22
0.0
 32
0.0
 14
1.000000000000000E+20
 24
1.000000000000000E+20
 34
1.000000000000000E+20
 15
-1.000000000000000E+20
 25
-1.000000000000000E+20
 35
-1.000000000000000E+20
146
0.0
 13
0.0
 23
0.0
 33
0.0
 16
1.0
 26
0.0
 36
0.0
 17
0.0
 27
1.0
 37
0.0
 76
     0
330
34D
331
34E
  0
LAYOUT
  5
314
102
{ACAD_REACTORS
330
167
102
}
330
167
100
AcDbPlotSettings
  1
A2
  2
HPDJ220-A0
  4
User266
  6

 40
4.995333194732666
 41
16.93330574035644
 42
4.995330810546875
 43
16.933349609375
 44
419.9466552734374
 45
593.8519897460937
 46
0.0
 47
0.0
 48
0.0
 49
0.0
140
0.0
141
0.0
142
1.0
143
1.0
 70
   752
 72
     1
 73
     1
 74
     5
  7
PLA2.ctb
 75
    16
147
1.0
 76
     0
 77
     2
 78
   300
148
0.0
149
0.0
100
AcDbLayout
  1
A1
 70
     1
 71
     4
 10
-16.933349609375
 20
-4.995333194732666
 11
576.9186401367187
 21
414.9513220787047
 12
0.0
 22
0.0
 32
0.0
 14
1.000000000000000E+20
 24
1.000000000000000E+20
 34
1.000000000000000E+20
 15
-1.000000000000000E+20
 25
-1.000000000000000E+20
 35
-1.000000000000000E+20
146
0.0
 13
0.0
 23
0.0
 33
0.0
 16
1.0
 26
0.0
 36
0.0
 17
0.0
 27
1.0
 37
0.0
 76
     0
330
313
331
344
  0
LAYOUT
  5
349
102
{ACAD_REACTORS
330
167
102
}
330
167
100
AcDbPlotSettings
  1
A2
  2
HPDJ220-A0
  4
User266
  6

 40
4.995333194732666
 41
16.93330574035644
 42
4.995330810546875
 43
16.933349609375
 44
419.9466552734374
 45
593.8519897460937
 46
0.0
 47
0.0
 48
0.0
 49
0.0
140
0.0
141
0.0
142
1.0
143
1.0
 70
   752
 72
     1
 73
     1
 74
     5
  7
PLA2.ctb
 75
    16
147
1.0
 76
     0
 77
     2
 78
   300
148
0.0
149
0.0
100
AcDbLayout
  1
A2
 70
     1
 71
     3
 10
-16.933349609375
 20
-4.995333194732666
 11
576.9186401367187
 21
414.9513220787047
 12
0.0
 22
0.0
 32
0.0
 14
1.000000000000000E+20
 24
1.000000000000000E+20
 34
1.000000000000000E+20
 15
-1.000000000000000E+20
 25
-1.000000000000000E+20
 35
-1.000000000000000E+20
146
0.0
 13
0.0
 23
0.0
 33
0.0
 16
1.0
 26
0.0
 36
0.0
 17
0.0
 27
1.0
 37
0.0
 76
     0
330
345
331
346
  0
LAYOUT
  5
2E1
102
{ACAD_REACTORS
330
167
102
}
330
167
100
AcDbPlotSettings
  1
A3
  2
\\GLUTZCH_PDC\HP LaserJet 5000 N PCL 6
  4
A3
  6

 40
5.027083396911621
 41
5.111741065979003
 42
5.11175537109375
 43
5.027069091796875
 44
297.0106506347656
 45
419.9889831542968
 46
0.0
 47
0.0
 48
0.0
 49
0.0
140
0.0
141
0.0
142
1.0
143
1.0
 70
   752
 72
     1
 73
     1
 74
     5
  7
LAA3.ctb
 75
    16
147
1.0
 76
     0
 77
     2
 78
   300
148
0.0
149
0.0
100
AcDbLayout
  1
A3
 70
     1
 71
     2
 10
-5.027069091796875
 20
-5.027083396911621
 11
414.9619140625
 21
291.983567237854
 12
0.0
 22
0.0
 32
0.0
 14
1.000000000000000E+20
 24
1.000000000000000E+20
 34
1.000000000000000E+20
 15
-1.000000000000000E+20
 25
-1.000000000000000E+20
 35
-1.000000000000000E+20
146
0.0
 13
0.0
 23
0.0
 33
0.0
 16
1.0
 26
0.0
 36
0.0
 17
0.0
 27
1.0
 37
0.0
 76
     0
330
2E0
331
31D
  0
LAYOUT
  5
16A
102
{ACAD_REACTORS
330
167
102
}
330
167
100
AcDbPlotSettings
  1
A4
  2
\\GLUTZCH_PDC\HP LaserJet 5000 N PCL 6
  4
A4
  6

 40
5.027083396911621
 41
5.111741065979003
 42
5.11175537109375
 43
5.027069091796875
 44
210.0156707763672
 45
297.0106506347656
 46
0.0
 47
0.0
 48
0.0
 49
0.0
140
0.0
141
0.0
142
1.0
143
1.0
 70
   752
 72
     1
 73
     0
 74
     5
  7
LAA4.ctb
 75
    16
147
1.0
 76
     0
 77
     2
 78
   300
148
0.0
149
0.0
100
AcDbLayout
  1
A4
 70
     1
 71
     1
 10
-5.027083396911621
 20
-5.111741065979003
 11
204.9885873794556
 21
291.8989095687866
 12
0.0
 22
0.0
 32
0.0
 14
1.000000000000000E+20
 24
1.000000000000000E+20
 34
1.000000000000000E+20
 15
-1.000000000000000E+20
 25
-1.000000000000000E+20
 35
-1.000000000000000E+20
146
0.0
 13
0.0
 23
0.0
 33
0.0
 16
1.0
 26
0.0
 36
0.0
 17
0.0
 27
1.0
 37
0.0
 76
     0
330
17
331
22
  0
LAYOUT
  5
169
102
{ACAD_REACTORS
330
167
102
}
330
167
100
AcDbPlotSettings
  1

  2
HP Laserjet 5000 N PCL 6.pc3
  4
A4
  6

 40
0.0
 41
0.0
 42
0.0
 43
0.0
 44
210.0
 45
297.0
 46
49.64492803630992
 47
88.47963727682175
 48
0.0
 49
0.0
140
0.0
141
0.0
142
1.0
143
2.0
 70
 11956
 72
     1
 73
     0
 74
     1
  7
v:\vorlagen\LAA4.ctb
 75
    17
147
0.5
 76
     1
 77
     2
 78
   300
148
211.8848745365381
149
91.82996447716014
100
AcDbLayout
  1
Model
 70
     1
 71
     0
 10
0.0
 20
0.0
 11
12.0
 21
9.0
 12
0.0
 22
0.0
 32
0.0
 14
0.0
 24
0.0
 34
0.0
 15
0.0
 25
0.0
 35
0.0
146
0.0
 13
0.0
 23
0.0
 33
0.0
 16
1.0
 26
0.0
 36
0.0
 17
0.0
 27
1.0
 37
0.0
 76
     0
330
1A
331
23BB
  0
MATERIAL
  5
23BE
102
{ACAD_REACTORS
330
22C3
102
}
330
22C3
100
AcDbMaterial
  1
ByBlock
 73
     1
 78
     1
172
     1
176
     1
270
     1
274
     1
 94
       63
  0
MATERIAL
  5
23BD
102
{ACAD_REACTORS
330
22C3
102
}
330
22C3
100
AcDbMaterial
  1
ByLayer
 73
     1
 78
     1
172
     1
176
     1
270
     1
274
     1
 94
       63
  0
MATERIAL
  5
23BF
102
{ACAD_REACTORS
330
22C3
102
}
330
22C3
100
AcDbMaterial
  1
Global
 73
     1
 78
     1
172
     1
176
     1
270
     1
274
     1
 94
       63
  0
MLEADERSTYLE
  5
29E2
102
{ACAD_REACTORS
330
29E1
102
}
330
29E1
100
AcDbMLeaderStyle
170
     2
171
     1
172
     0
 90
        2
 40
0.0
 41
0.0
173
     1
 91
-1056964608
340
14
 92
       -2
290
     1
 42
2.0
291
     1
 43
0.36
  3
Standard
 44
4.0
300

342
10
174
     1
178
     6
175
     1
176
     0
 93
-1056964608
 45
4.0
292
     0
297
     0
 46
4.0
 94
-1056964608
 47
1.0
 49
1.0
140
1.0
293
     1
141
0.0
294
     1
177
     0
142
1.0
295
     0
296
     0
143
0.125
1001
ACAD_MLEADERVER
1070
     2
  0
MLINESTYLE
  5
13
102
{ACAD_REACTORS
330
E
102
}
330
E
100
AcDbMlineStyle
  2
STANDARD
 70
     0
  3

 62
     0
 51
90.0
 52
90.0
 71
     2
 49
0.5
 62
   256
  6
BYLAYER
 49
-0.5
 62
   256
  6
BYLAYER
  0
PLOTSETTINGS
  5
2EE
102
{ACAD_REACTORS
330
168
102
}
330
168
100
AcDbPlotSettings
  1
A0
  2
HPDJ220-A0
  4
User268
  6

 40
4.995333194732666
 41
16.93336677551269
 42
4.99530029296875
 43
16.933349609375
 44
840.9093017578125
 45
1188.8046875
 46
0.0
 47
0.0
 48
0.0
 49
0.0
140
0.0
141
0.0
142
1.0
143
1.0
 70
   752
 72
     1
 73
     1
 74
     5
  7
PLA0.ctb
 75
    16
147
1.0
 76
     0
 77
     2
 78
   300
148
0.0
149
0.0
  0
PLOTSETTINGS
  5
2F2
102
{ACAD_REACTORS
330
168
102
}
330
168
100
AcDbPlotSettings
  1
A0-A3
  2
\\GLUTZCH_PDC\HP LaserJet 5000 N PCL 6
  4
A3
  6

 40
5.027083396911621
 41
5.111741065979003
 42
5.11175537109375
 43
5.027069091796875
 44
297.0106506347656
 45
419.9889831542968
 46
0.0
 47
0.0
 48
0.0
 49
0.0
140
0.0
141
0.0
142
1.0
143
1.0
 70
   752
 72
     1
 73
     1
 74
     5
  7
LAA0-A3.ctb
 75
     0
147
1.0
 76
     0
 77
     2
 78
   300
148
0.0
149
0.0
  0
PLOTSETTINGS
  5
2F3
102
{ACAD_REACTORS
330
168
102
}
330
168
100
AcDbPlotSettings
  1
A0-A4
  2
\\GLUTZCH_PDC\HP LaserJet 5000 N PCL 6
  4
A4
  6

 40
5.027083396911621
 41
5.111741065979003
 42
5.11175537109375
 43
5.027069091796875
 44
210.0156707763672
 45
297.0106506347656
 46
0.0
 47
0.0
 48
0.0
 49
0.0
140
0.0
141
0.0
142
1.0
143
1.0
 70
   752
 72
     1
 73
     0
 74
     5
  7
LAA0-A4.ctb
 75
     0
147
1.0
 76
     0
 77
     2
 78
   300
148
0.0
149
0.0
  0
PLOTSETTINGS
  5
2ED
102
{ACAD_REACTORS
330
168
102
}
330
168
100
AcDbPlotSettings
  1
A1
  2
HPDJ220-A0
  4
User267
  6

 40
4.995333194732666
 41
16.93330574035644
 42
4.99530029296875
 43
16.933349609375
 44
593.9366455078125
 45
840.8246459960937
 46
0.0
 47
0.0
 48
0.0
 49
0.0
140
0.0
141
0.0
142
1.0
143
1.0
 70
   752
 72
     1
 73
     1
 74
     5
  7
PLA1.ctb
 75
    16
147
1.0
 76
     0
 77
     2
 78
   300
148
0.0
149
0.0
  0
PLOTSETTINGS
  5
2EA
102
{ACAD_REACTORS
330
168
102
}
330
168
100
AcDbPlotSettings
  1
A2
  2
HPDJ220-A0
  4
User266
  6

 40
4.995333194732666
 41
16.93330574035644
 42
4.995330810546875
 43
16.933349609375
 44
419.9466552734374
 45
593.8519897460937
 46
0.0
 47
0.0
 48
0.0
 49
0.0
140
0.0
141
0.0
142
1.0
143
1.0
 70
   752
 72
     1
 73
     1
 74
     5
  7
PLA2.ctb
 75
    16
147
1.0
 76
     0
 77
     2
 78
   300
148
0.0
149
0.0
  0
PLOTSETTINGS
  5
31E
102
{ACAD_REACTORS
330
168
102
}
330
168
100
AcDbPlotSettings
  1
A3
  2
\\GLUTZCH_PDC\HP LaserJet 5000 N PCL 6
  4
A3
  6

 40
5.027083396911621
 41
5.111741065979003
 42
5.11175537109375
 43
5.027069091796875
 44
297.0106506347656
 45
419.9889831542968
 46
0.0
 47
0.0
 48
0.0
 49
0.0
140
0.0
141
0.0
142
1.0
143
1.0
 70
   752
 72
     1
 73
     1
 74
     5
  7
LAA3.ctb
 75
    16
147
1.0
 76
     0
 77
     2
 78
   300
148
0.0
149
0.0
  0
PLOTSETTINGS
  5
319
102
{ACAD_REACTORS
330
168
102
}
330
168
100
AcDbPlotSettings
  1
A4
  2
\\GLUTZCH_PDC\HP LaserJet 5000 N PCL 6
  4
A4
  6

 40
5.027083396911621
 41
5.111741065979003
 42
5.11175537109375
 43
5.027069091796875
 44
210.0156707763672
 45
297.0106506347656
 46
0.0
 47
0.0
 48
0.0
 49
0.0
140
0.0
141
0.0
142
1.0
143
1.0
 70
   752
 72
     1
 73
     0
 74
     5
  7
LAA4.ctb
 75
    16
147
1.0
 76
     0
 77
     2
 78
   300
148
0.0
149
0.0
  0
ACDBPLACEHOLDER
  5
166
102
{ACAD_REACTORS
330
165
102
}
330
165
  0
SCALE
  5
29C0
102
{ACAD_REACTORS
330
29BF
102
}
330
29BF
100
AcDbScale
 70
     0
300
1:1
140
1.0
141
1.0
290
     1
  0
SCALE
  5
29C1
102
{ACAD_REACTORS
330
29BF
102
}
330
29BF
100
AcDbScale
 70
     0
300
1:2
140
1.0
141
2.0
290
     0
  0
SCALE
  5
29C2
102
{ACAD_REACTORS
330
29BF
102
}
330
29BF
100
AcDbScale
 70
     0
300
1:4
140
1.0
141
4.0
290
     0
  0
SCALE
  5
29C3
102
{ACAD_REACTORS
330
29BF
102
}
330
29BF
100
AcDbScale
 70
     0
300
1:5
140
1.0
141
5.0
290
     0
  0
SCALE
  5
29C4
102
{ACAD_REACTORS
330
29BF
102
}
330
29BF
100
AcDbScale
 70
     0
300
1:8
140
1.0
141
8.0
290
     0
  0
SCALE
  5
29C5
102
{ACAD_REACTORS
330
29BF
102
}
330
29BF
100
AcDbScale
 70
     0
300
1:10
140
1.0
141
10.0
290
     0
  0
SCALE
  5
29C6
102
{ACAD_REACTORS
330
29BF
102
}
330
29BF
100
AcDbScale
 70
     0
300
1:16
140
1.0
141
16.0
290
     0
  0
SCALE
  5
29C7
102
{ACAD_REACTORS
330
29BF
102
}
330
29BF
100
AcDbScale
 70
     0
300
1:20
140
1.0
141
20.0
290
     0
  0
SCALE
  5
29C8
102
{ACAD_REACTORS
330
29BF
102
}
330
29BF
100
AcDbScale
 70
     0
300
1:30
140
1.0
141
30.0
290
     0
  0
SCALE
  5
29C9
102
{ACAD_REACTORS
330
29BF
102
}
330
29BF
100
AcDbScale
 70
     0
300
1:40
140
1.0
141
40.0
290
     0
  0
SCALE
  5
29CA
102
{ACAD_REACTORS
330
29BF
102
}
330
29BF
100
AcDbScale
 70
     0
300
1:50
140
1.0
141
50.0
290
     0
  0
SCALE
  5
29CB
102
{ACAD_REACTORS
330
29BF
102
}
330
29BF
100
AcDbScale
 70
     0
300
1:100
140
1.0
141
100.0
290
     0
  0
SCALE
  5
29CC
102
{ACAD_REACTORS
330
29BF
102
}
330
29BF
100
AcDbScale
 70
     0
300
2:1
140
2.0
141
1.0
290
     0
  0
SCALE
  5
29CD
102
{ACAD_REACTORS
330
29BF
102
}
330
29BF
100
AcDbScale
 70
     0
300
4:1
140
4.0
141
1.0
290
     0
  0
SCALE
  5
29CE
102
{ACAD_REACTORS
330
29BF
102
}
330
29BF
100
AcDbScale
 70
     0
300
8:1
140
8.0
141
1.0
290
     0
  0
SCALE
  5
29CF
102
{ACAD_REACTORS
330
29BF
102
}
330
29BF
100
AcDbScale
 70
     0
300
10:1
140
10.0
141
1.0
290
     0
  0
SCALE
  5
29D0
102
{ACAD_REACTORS
330
29BF
102
}
330
29BF
100
AcDbScale
 70
     0
300
100:1
140
100.0
141
1.0
290
     0
  0
SCALE
  5
29D1
102
{ACAD_REACTORS
330
29BF
102
}
330
29BF
100
AcDbScale
 70
     0
300
1/128" = 1'-0"
140
0.0078125
141
12.0
290
     0
  0
SCALE
  5
29D2
102
{ACAD_REACTORS
330
29BF
102
}
330
29BF
100
AcDbScale
 70
     0
300
1/64" = 1'-0"
140
0.015625
141
12.0
290
     0
  0
SCALE
  5
29D3
102
{ACAD_REACTORS
330
29BF
102
}
330
29BF
100
AcDbScale
 70
     0
300
1/32" = 1'-0"
140
0.03125
141
12.0
290
     0
  0
SCALE
  5
29D4
102
{ACAD_REACTORS
330
29BF
102
}
330
29BF
100
AcDbScale
 70
     0
300
1/16" = 1'-0"
140
0.0625
141
12.0
290
     0
  0
SCALE
  5
29D5
102
{ACAD_REACTORS
330
29BF
102
}
330
29BF
100
AcDbScale
 70
     0
300
3/32" = 1'-0"
140
0.09375
141
12.0
290
     0
  0
SCALE
  5
29D6
102
{ACAD_REACTORS
330
29BF
102
}
330
29BF
100
AcDbScale
 70
     0
300
1/8" = 1'-0"
140
0.125
141
12.0
290
     0
  0
SCALE
  5
29D7
102
{ACAD_REACTORS
330
29BF
102
}
330
29BF
100
AcDbScale
 70
     0
300
3/16" = 1'-0"
140
0.1875
141
12.0
290
     0
  0
SCALE
  5
29D8
102
{ACAD_REACTORS
330
29BF
102
}
330
29BF
100
AcDbScale
 70
     0
300
1/4" = 1'-0"
140
0.25
141
12.0
290
     0
  0
SCALE
  5
29D9
102
{ACAD_REACTORS
330
29BF
102
}
330
29BF
100
AcDbScale
 70
     0
300
3/8" = 1'-0"
140
0.375
141
12.0
290
     0
  0
SCALE
  5
29DA
102
{ACAD_REACTORS
330
29BF
102
}
330
29BF
100
AcDbScale
 70
     0
300
1/2" = 1'-0"
140
0.5
141
12.0
290
     0
  0
SCALE
  5
29DB
102
{ACAD_REACTORS
330
29BF
102
}
330
29BF
100
AcDbScale
 70
     0
300
3/4" = 1'-0"
140
0.75
141
12.0
290
     0
  0
SCALE
  5
29DC
102
{ACAD_REACTORS
330
29BF
102
}
330
29BF
100
AcDbScale
 70
     0
300
1" = 1'-0"
140
1.0
141
12.0
290
     0
  0
SCALE
  5
29DD
102
{ACAD_REACTORS
330
29BF
102
}
330
29BF
100
AcDbScale
 70
     0
300
1-1/2" = 1'-0"
140
1.5
141
12.0
290
     0
  0
SCALE
  5
29DE
102
{ACAD_REACTORS
330
29BF
102
}
330
29BF
100
AcDbScale
 70
     0
300
3" = 1'-0"
140
3.0
141
12.0
290
     0
  0
SCALE
  5
29DF
102
{ACAD_REACTORS
330
29BF
102
}
330
29BF
100
AcDbScale
 70
     0
300
6" = 1'-0"
140
6.0
141
12.0
290
     0
  0
SCALE
  5
29E0
102
{ACAD_REACTORS
330
29BF
102
}
330
29BF
100
AcDbScale
 70
     0
300
1'-0" = 1'-0"
140
12.0
141
12.0
290
     0
  0
TABLESTYLE
  5
23D2
102
{ACAD_XDICTIONARY
360
37E6
102
}
102
{ACAD_REACTORS
330
23D1
102
}
330
23D1
100
AcDbTableStyle
  3
Standard
 70
     0
 71
     0
 40
1.5
 41
1.5
280
     0
281
     0
  7
STANDARD
140
4.5
170
     2
 62
     0
 63
     7
283
     0
 90
      512
 91
        0
  1

274
    -2
284
     1
 64
     0
275
    -2
285
     1
 65
     0
276
    -2
286
     1
 66
     0
277
    -2
287
     1
 67
     0
278
    -2
288
     1
 68
     0
279
    -2
289
     1
 69
     0
  7
STANDARD
140
6.0
170
     5
 62
     0
 63
     7
283
     0
 90
      512
 91
        0
  1

274
    -2
284
     1
 64
     0
275
    -2
285
     1
 65
     0
276
    -2
286
     1
 66
     0
277
    -2
287
     1
 67
     0
278
    -2
288
     1
 68
     0
279
    -2
289
     1
 69
     0
  7
STANDARD
140
4.5
170
     5
 62
     0
 63
     7
283
     0
 90
      512
 91
        0
  1

274
    -2
284
     1
 64
     0
275
    -2
285
     1
 65
     0
276
    -2
286
     1
 66
     0
277
    -2
287
     1
 67
     0
278
    -2
288
     1
 68
     0
279
    -2
289
     1
 69
     0
  0
VISUALSTYLE
  5
23C6
102
{ACAD_REACTORS
330
23C0
102
}
330
23C0
100
AcDbVisualStyle
  2
2dWireframe
 70
     4
 71
     0
 72
     2
 73
     0
 90
        0
 40
-0.6
 41
-30.0
 62
     5
 63
     7
421
 16777215
 74
     1
 91
        4
 64
     7
 65
   257
 75
     1
175
     1
 42
1.0
 92
        0
 66
   257
 43
1.0
 76
     1
 77
     6
 78
     2
 67
     7
 79
     5
170
     0
171
     0
290
     0
174
     0
 93
        1
 44
0.0
173
     0
291
     0
 45
0.0
  0
VISUALSTYLE
  5
23C8
102
{ACAD_REACTORS
330
23C0
102
}
330
23C0
100
AcDbVisualStyle
  2
3D Hidden
 70
     6
 71
     1
 72
     2
 73
     2
 90
        0
 40
-0.6
 41
-30.0
 62
     5
 63
     7
421
 16777215
 74
     2
 91
        2
 64
     7
 65
   257
 75
     2
175
     1
 42
40.0
 92
        0
 66
   257
 43
1.0
 76
     1
 77
     6
 78
     2
 67
     7
 79
     3
170
     0
171
     0
290
     0
174
     0
 93
        1
 44
0.0
173
     0
291
     0
 45
0.0
  0
VISUALSTYLE
  5
23C7
102
{ACAD_REACTORS
330
23C0
102
}
330
23C0
100
AcDbVisualStyle
  2
3dWireframe
 70
     5
 71
     0
 72
     2
 73
     0
 90
        0
 40
-0.6
 41
-30.0
 62
     5
 63
     7
421
 16777215
 74
     1
 91
        4
 64
     7
 65
   257
 75
     1
175
     1
 42
1.0
 92
        0
 66
   257
 43
1.0
 76
     1
 77
     6
 78
     2
 67
     7
 79
     5
170
     0
171
     0
290
     0
174
     0
 93
        1
 44
0.0
173
     0
291
     0
 45
0.0
  0
VISUALSTYLE
  5
23C5
102
{ACAD_REACTORS
330
23C0
102
}
330
23C0
100
AcDbVisualStyle
  2
Basic
 70
     7
 71
     1
 72
     0
 73
     1
 90
        0
 40
-0.6
 41
-30.0
 62
     5
 63
     7
421
 16777215
 74
     0
 91
        4
 64
     7
 65
   257
 75
     1
175
     1
 42
1.0
 92
        8
 66
     7
 43
1.0
 76
     1
 77
     6
 78
     2
 67
     7
 79
     5
170
     0
171
     0
290
     0
174
     0
 93
        1
 44
0.0
173
     0
291
     1
 45
0.0
  0
VISUALSTYLE
  5
23CC
102
{ACAD_REACTORS
330
23C0
102
}
330
23C0
100
AcDbVisualStyle
  2
Brighten
 70
    12
 71
     2
 72
     2
 73
     0
 90
        0
 40
-0.6
 41
-30.0
 62
     5
 63
     7
421
 16777215
 74
     1
 91
        4
 64
     7
 65
   257
 75
     1
175
     1
 42
1.0
 92
        8
 66
     7
 43
1.0
 76
     1
 77
     6
 78
     2
 67
     7
 79
     5
170
     0
171
     0
290
     0
174
     0
 93
        1
 44
50.0
173
     0
291
     1
 45
0.0
  0
VISUALSTYLE
  5
23D0
102
{ACAD_REACTORS
330
23C0
102
}
330
23C0
100
AcDbVisualStyle
  2
ColorChange
 70
    16
 71
     2
 72
     2
 73
     3
 90
        0
 40
-0.6
 41
-30.0
 62
     5
 63
     8
421
  8421504
 74
     1
 91
        4
 64
     7
 65
   257
 75
     1
175
     1
 42
1.0
 92
        8
 66
     8
424
  8421504
 43
1.0
 76
     1
 77
     6
 78
     2
 67
     7
 79
     5
170
     0
171
     0
290
     0
174
     0
 93
        1
 44
0.0
173
     0
291
     1
 45
0.0
  0
VISUALSTYLE
  5
23C9
102
{ACAD_REACTORS
330
23C0
102
}
330
23C0
100
AcDbVisualStyle
  2
Conceptual
 70
     9
 71
     3
 72
     2
 73
     0
 90
        0
 40
-0.6
 41
-30.0
 62
     5
 63
     7
421
 16777215
 74
     2
 91
        2
 64
     7
 65
   257
 75
     1
175
     1
 42
40.0
 92
        8
 66
     7
 43
1.0
 76
     1
 77
     6
 78
     2
 67
     7
 79
     3
170
     0
171
     0
290
     0
174
     0
 93
        1
 44
0.0
173
     0
291
     0
 45
0.0
  0
VISUALSTYLE
  5
23CB
102
{ACAD_REACTORS
330
23C0
102
}
330
23C0
100
AcDbVisualStyle
  2
Dim
 70
    11
 71
     2
 72
     2
 73
     0
 90
        0
 40
-0.6
 41
-30.0
 62
     5
 63
     7
421
 16777215
 74
     1
 91
        4
 64
     7
 65
   257
 75
     1
175
     1
 42
1.0
 92
        8
 66
     7
 43
1.0
 76
     1
 77
     6
 78
     2
 67
     7
 79
     5
170
     0
171
     0
290
     0
174
     0
 93
        1
 44
-50.0
173
     0
291
     1
 45
0.0
  0
VISUALSTYLE
  5
23CF
102
{ACAD_REACTORS
330
23C0
102
}
330
23C0
100
AcDbVisualStyle
  2
Facepattern
 70
    15
 71
     2
 72
     2
 73
     0
 90
        0
 40
-0.6
 41
-30.0
 62
     5
 63
     7
421
 16777215
 74
     1
 91
        4
 64
     7
 65
   257
 75
     1
175
     1
 42
1.0
 92
        8
 66
     7
 43
1.0
 76
     1
 77
     6
 78
     2
 67
     7
 79
     5
170
     0
171
     0
290
     0
174
     0
 93
        1
 44
0.0
173
     0
291
     1
 45
0.0
  0
VISUALSTYLE
  5
23C1
102
{ACAD_REACTORS
330
23C0
102
}
330
23C0
100
AcDbVisualStyle
  2
Flat
 70
     0
 71
     2
 72
     1
 73
     1
 90
        2
 40
-0.6
 41
30.0
 62
     5
 63
     7
421
 16777215
 74
     0
 91
        4
 64
     7
 65
   257
 75
     1
175
     1
 42
1.0
 92
        8
 66
     7
 43
1.0
 76
     1
 77
     6
 78
     2
 67
     7
 79
     5
170
     0
171
     0
290
     0
174
     0
 93
       13
 44
0.0
173
     0
291
     1
 45
0.0
  0
VISUALSTYLE
  5
23C2
102
{ACAD_REACTORS
330
23C0
102
}
330
23C0
100
AcDbVisualStyle
  2
FlatWithEdges
 70
     1
 71
     2
 72
     1
 73
     1
 90
        2
 40
-0.6
 41
30.0
 62
     5
 63
     7
421
 16777215
 74
     1
 91
        4
 64
     7
 65
   257
 75
     1
175
     1
 42
1.0
 92
        0
 66
   257
 43
1.0
 76
     1
 77
     6
 78
     2
 67
     7
 79
     5
170
     0
171
     0
290
     0
174
     0
 93
       13
 44
0.0
173
     0
291
     1
 45
0.0
  0
VISUALSTYLE
  5
23C3
102
{ACAD_REACTORS
330
23C0
102
}
330
23C0
100
AcDbVisualStyle
  2
Gouraud
 70
     2
 71
     2
 72
     2
 73
     1
 90
        2
 40
-0.6
 41
30.0
 62
     5
 63
     7
421
 16777215
 74
     0
 91
        4
 64
     7
 65
   257
 75
     1
175
     1
 42
1.0
 92
        0
 66
     7
 43
1.0
 76
     1
 77
     6
 78
     2
 67
     7
 79
     5
170
     0
171
     0
290
     0
174
     0
 93
       13
 44
0.0
173
     0
291
     1
 45
0.0
  0
VISUALSTYLE
  5
23C4
102
{ACAD_REACTORS
330
23C0
102
}
330
23C0
100
AcDbVisualStyle
  2
GouraudWithEdges
 70
     3
 71
     2
 72
     2
 73
     1
 90
        2
 40
-0.6
 41
30.0
 62
     5
 63
     7
421
 16777215
 74
     1
 91
        4
 64
     7
 65
   257
 75
     1
175
     1
 42
1.0
 92
        0
 66
   257
 43
1.0
 76
     1
 77
     6
 78
     2
 67
     7
 79
     5
170
     0
171
     0
290
     0
174
     0
 93
       13
 44
0.0
173
     0
291
     1
 45
0.0
  0
VISUALSTYLE
  5
23CE
102
{ACAD_REACTORS
330
23C0
102
}
330
23C0
100
AcDbVisualStyle
  2
Linepattern
 70
    14
 71
     2
 72
     2
 73
     0
 90
        0
 40
-0.6
 41
-30.0
 62
     5
 63
     7
421
 16777215
 74
     1
 91
        4
 64
     7
 65
   257
 75
     7
175
     7
 42
1.0
 92
        8
 66
     7
 43
1.0
 76
     1
 77
     6
 78
     2
 67
     7
 79
     5
170
     0
171
     0
290
     0
174
     0
 93
        1
 44
0.0
173
     0
291
     1
 45
0.0
  0
VISUALSTYLE
  5
23CA
102
{ACAD_REACTORS
330
23C0
102
}
330
23C0
100
AcDbVisualStyle
  2
Realistic
 70
     8
 71
     2
 72
     2
 73
     0
 90
        0
 40
-0.6
 41
-30.0
 62
     5
 63
     7
421
 16777215
 74
     1
 91
        0
 64
     7
 65
   257
 75
     1
175
     1
 42
1.0
 92
        8
 66
     8
424
  7895160
 43
1.0
 76
     1
 77
     6
 78
     2
 67
     7
 79
     5
170
     0
171
     0
290
     0
174
     0
 93
       13
 44
0.0
173
     0
291
     0
 45
0.0
  0
VISUALSTYLE
  5
23CD
102
{ACAD_REACTORS
330
23C0
102
}
330
23C0
100
AcDbVisualStyle
  2
Thicken
 70
    13
 71
     2
 72
     2
 73
     0
 90
        0
 40
-0.6
 41
-30.0
 62
     5
 63
     7
421
 16777215
 74
     1
 91
        4
 64
     7
 65
   257
 75
     1
175
     1
 42
1.0
 92
       12
 66
     7
 43
1.0
 76
     1
 77
     6
 78
     2
 67
     7
 79
     5
170
     0
171
     0
290
     0
174
     0
 93
        1
 44
0.0
173
     0
291
     1
 45
0.0
  0
DICTIONARYVAR
  5
37EB
102
{ACAD_REACTORS
330
5D
102
}
330
5D
100
DictionaryVariables
280
     0
  1
1:1
  0
DICTIONARYVAR
  5
37E9
102
{ACAD_REACTORS
330
5D
102
}
330
5D
100
DictionaryVariables
280
     0
  1
STANDARD
  0
DICTIONARYVAR
  5
2572
102
{ACAD_REACTORS
330
5D
102
}
330
5D
100
DictionaryVariables
280
     0
  1
STANDARD
  0
DICTIONARYVAR
  5
5E
102
{ACAD_REACTORS
330
5D
102
}
330
5D
100
DictionaryVariables
280
     0
  1
0
  0
DICTIONARYVAR
  5
1ED9
102
{ACAD_REACTORS
330
5D
102
}
330
5D
100
DictionaryVariables
280
     0
  1
1
  0
DICTIONARYVAR
  5
128
102
{ACAD_REACTORS
330
5D
102
}
330
5D
100
DictionaryVariables
280
     0
  1
1
  0
DICTIONARYVAR
  5
38E7
102
{ACAD_REACTORS
330
5D
102
}
330
5D
100
DictionaryVariables
280
     0
  1
1
  0
DICTIONARYVAR
  5
38E8
102
{ACAD_REACTORS
330
5D
102
}
330
5D
100
DictionaryVariables
280
     0
  1
15
  0
DICTIONARYVAR
  5
37EC
102
{ACAD_REACTORS
330
5D
102
}
330
5D
100
DictionaryVariables
280
     0
  1
0
  0
DICTIONARYVAR
  5
37EA
102
{ACAD_REACTORS
330
5D
102
}
330
5D
100
DictionaryVariables
280
     0
  1
0
  0
DICTIONARYVAR
  5
1044
102
{ACAD_REACTORS
330
5D
102
}
330
5D
100
DictionaryVariables
280
     0
  1
96
  0
DICTIONARY
  5
143
102
{ACAD_REACTORS
330
142
102
}
330
142
100
AcDbDictionary
281
     1
  0
XRECORD
  5
23F3
102
{ACAD_REACTORS
330
142
102
}
330
142
100
AcDbXrecord
280
     1
 90
-1023410169
  0
DICTIONARY
  5
172
102
{ACAD_REACTORS
330
171
102
}
330
171
100
AcDbDictionary
281
     1
  3
DWGSETTINGS
350
173
  3
FEM
350
3A0
  3
Shaft
350
393
  3
TRANSSETTINGS
350
17D
  0
DICTIONARY
  5
18A9
102
{ACAD_REACTORS
330
18A8
102
}
330
18A8
100
AcDbDictionary
281
     1
  0
ACAMGFILTERDAT
  5
164B
102
{ACAD_REACTORS
330
1F2
102
}
330
1F2
100
AcAmgFilterDat
 70
    15
  1
DIMENSION,AMDT_*_DIM
  2
*
  3
*
  4
*
  5
*
290
     1
  0
ACAMGFILTERDAT
  5
164C
102
{ACAD_REACTORS
330
1F2
102
}
330
1F2
100
AcAmgFilterDat
 70
    15
  1
*
  2
AM_FEA-AM_*
  3
*
  4
*
  5
*
290
     1
  0
ACAMGFILTERDAT
  5
164D
102
{ACAD_REACTORS
330
1F2
102
}
330
1F2
100
AcAmgFilterDat
 70
    15
  1
HATCH
  2
*
  3
*
  4
*
  5
*
290
     1
  0
ACAMGFILTERDAT
  5
164E
102
{ACAD_REACTORS
330
1F2
102
}
330
1F2
100
AcAmgFilterDat
 70
    15
  1
ACMFCFRAME,ACMDATUMTARGET,ACMDATUMID,ACMWELDSYM,ACMSURFSYM,ACMFEATID,ACMPARTREF,ACMBALLOON
  2
*
  3
*
  4
*
  5
*
290
     1
  0
LAYER_INDEX
  5
17BF
102
{ACAD_REACTORS
330
17BE
102
}
330
17BE
100
AcDbIndex
 40
2454866.345190509
100
AcDbLayerIndex
  8
0
360
17C0
 90
        1
  8
AM_0
360
17C1
 90
        3
  8
AM_1
360
17C2
 90
        0
  8
AM_2
360
17C3
 90
        0
  8
AM_3
360
17C4
 90
        0
  8
AM_4
360
17C5
 90
        0
  8
AM_5
360
17C6
 90
        7
  8
AM_6
360
17C7
 90
        1
  8
AM_7
360
17C8
 90
        5
  8
AM_8
360
17C9
 90
        0
  8
AM_FR
360
17CA
 90
        0
  8
ASHADE
360
17CB
 90
        9
  8
AM_WORK
360
17CC
 90
        0
  8
AM_CL
360
17CD
 90
        0
  8
Defpoints
360
17CE
 90
        0
  8
ASRF_TMP
360
17CF
 90
        0
  8
AM_VIEWS
360
17D0
 90
        1
  8
AM_VIS
360
17D1
 90
        0
  8
AM_HID
360
17D2
 90
        0
  8
AM_PARDIM
360
17D3
 90
        0
  8
AmdtBRLock
360
196B
 90
        0
  8
5
360
1E80
 90
        0
  8
1
360
1E81
 90
        0
  8
7
360
1E82
 90
        0
  8
3A
360
20C5
 90
        0
  8
7A
360
2970
 90
        0
  8
Sichtbare Kanten(ISO-ZOPH)
360
3701
 90
       22
  8
Sichtbare tangentiale Kanten(ISO-ZOPH)
360
3702
 90
        6
  8
Verdeckte Kanten(ISO-ZOPH)
360
3703
 90
        1
  8
Verdeckte tangentiale Kanten(ISO-ZOPH)
360
3704
 90
        0
  0
DICTIONARY
  5
37E6
330
23D2
100
AcDbDictionary
280
     1
281
     1
  3
ACAD_ROUNDTRIP_2008_TABLESTYLE_CELLSTYLEMAP
360
38E9
  0
IDBUFFER
  5
17C0
330
0
100
AcDbIdBuffer
330
1677
  0
IDBUFFER
  5
17C1
330
0
100
AcDbIdBuffer
330
35FB
330
35FC
330
35FE
  0
IDBUFFER
  5
17C2
330
0
100
AcDbIdBuffer
  0
IDBUFFER
  5
17C3
330
0
100
AcDbIdBuffer
  0
IDBUFFER
  5
17C4
330
0
100
AcDbIdBuffer
  0
IDBUFFER
  5
17C5
330
0
100
AcDbIdBuffer
  0
IDBUFFER
  5
17C6
330
0
100
AcDbIdBuffer
330
3603
330
3658
330
3679
330
36A0
330
370E
330
3738
330
37AC
  0
IDBUFFER
  5
17C7
330
0
100
AcDbIdBuffer
330
289E
  0
IDBUFFER
  5
17C8
330
0
100
AcDbIdBuffer
330
35FF
330
3600
330
3601
330
3602
330
370D
  0
IDBUFFER
  5
17C9
330
0
100
AcDbIdBuffer
  0
IDBUFFER
  5
17CA
330
0
100
AcDbIdBuffer
  0
IDBUFFER
  5
17CB
330
0
100
AcDbIdBuffer
330
3FB
330
3FC
330
3FD
330
3FE
330
3FF
330
400
330
401
330
402
330
409
  0
IDBUFFER
  5
17CC
330
0
100
AcDbIdBuffer
  0
IDBUFFER
  5
17CD
330
0
100
AcDbIdBuffer
  0
IDBUFFER
  5
17CE
330
0
100
AcDbIdBuffer
  0
IDBUFFER
  5
17CF
330
0
100
AcDbIdBuffer
  0
IDBUFFER
  5
17D0
330
0
100
AcDbIdBuffer
330
1B95
  0
IDBUFFER
  5
17D1
330
0
100
AcDbIdBuffer
  0
IDBUFFER
  5
17D2
330
0
100
AcDbIdBuffer
  0
IDBUFFER
  5
17D3
330
0
100
AcDbIdBuffer
  0
IDBUFFER
  5
196B
330
0
100
AcDbIdBuffer
  0
IDBUFFER
  5
1E80
330
0
100
AcDbIdBuffer
  0
IDBUFFER
  5
1E81
330
0
100
AcDbIdBuffer
  0
IDBUFFER
  5
1E82
330
0
100
AcDbIdBuffer
  0
IDBUFFER
  5
20C5
330
0
100
AcDbIdBuffer
  0
IDBUFFER
  5
2970
330
0
100
AcDbIdBuffer
  0
IDBUFFER
  5
3701
330
0
100
AcDbIdBuffer
330
3005
330
33E2
330
33E3
330
3482
330
3483
330
35D8
330
35D9
330
35DB
330
35DC
330
35DD
330
35DF
330
35E0
330
35E9
330
35EA
330
35EB
330
35ED
330
35EE
330
35EF
330
35F0
330
35F1
330
35F2
330
35F3
  0
IDBUFFER
  5
3702
330
0
100
AcDbIdBuffer
330
3164
330
317F
330
33E4
330
33E5
330
35DA
330
35DE
  0
IDBUFFER
  5
3703
330
0
100
AcDbIdBuffer
330
3037
  0
IDBUFFER
  5
3704
330
0
100
AcDbIdBuffer
  0
CELLSTYLEMAP
  5
38E9
102
{ACAD_REACTORS
330
37E6
102
}
330
37E6
100
AcDbCellStyleMap
 90
        3
300
CELLSTYLE
  1
TABLEFORMAT_BEGIN
 90
        5
170
     1
 91
        0
 92
    32768
 62
   257
 93
        1
300
CONTENTFORMAT
  1
CONTENTFORMAT_BEGIN
 90
        0
 91
        0
 92
      512
 93
        0
300

 40
0.0
140
1.0
 94
        5
 62
     0
340
10
144
6.0
309
CONTENTFORMAT_END
171
     1
301
MARGIN
  1
CELLMARGIN_BEGIN
 40
1.5
 40
1.5
 40
1.5
 40
1.5
 40
0.18
 40
0.18
309
CELLMARGIN_END
 94
        6
 95
        1
302
GRIDFORMAT
  1
GRIDFORMAT_BEGIN
 90
        0
 91
        1
 62
     0
 92
       -2
340
0
 93
        0
 40
0.045
309
GRIDFORMAT_END
 95
        2
302
GRIDFORMAT
  1
GRIDFORMAT_BEGIN
 90
        0
 91
        1
 62
     0
 92
       -2
340
0
 93
        0
 40
0.045
309
GRIDFORMAT_END
 95
        4
302
GRIDFORMAT
  1
GRIDFORMAT_BEGIN
 90
        0
 91
        1
 62
     0
 92
       -2
340
0
 93
        0
 40
0.045
309
GRIDFORMAT_END
 95
        8
302
GRIDFORMAT
  1
GRIDFORMAT_BEGIN
 90
        0
 91
        1
 62
     0
 92
       -2
340
0
 93
        0
 40
0.045
309
GRIDFORMAT_END
 95
       16
302
GRIDFORMAT
  1
GRIDFORMAT_BEGIN
 90
        0
 91
        1
 62
     0
 92
       -2
340
0
 93
        0
 40
0.045
309
GRIDFORMAT_END
 95
       32
302
GRIDFORMAT
  1
GRIDFORMAT_BEGIN
 90
        0
 91
        1
 62
     0
 92
       -2
340
0
 93
        0
 40
0.045
309
GRIDFORMAT_END
309
TABLEFORMAT_END
  1
CELLSTYLE_BEGIN
 90
        1
 91
        1
300
_TITLE
309
CELLSTYLE_END
300
CELLSTYLE
  1
TABLEFORMAT_BEGIN
 90
        5
170
     1
 91
        0
 92
        0
 62
   257
 93
        1
300
CONTENTFORMAT
  1
CONTENTFORMAT_BEGIN
 90
        0
 91
        0
 92
      512
 93
        0
300

 40
0.0
140
1.0
 94
        5
 62
     0
340
10
144
4.5
309
CONTENTFORMAT_END
171
     1
301
MARGIN
  1
CELLMARGIN_BEGIN
 40
1.5
 40
1.5
 40
1.5
 40
1.5
 40
0.18
 40
0.18
309
CELLMARGIN_END
 94
        6
 95
        1
302
GRIDFORMAT
  1
GRIDFORMAT_BEGIN
 90
        0
 91
        1
 62
     0
 92
       -2
340
0
 93
        0
 40
0.045
309
GRIDFORMAT_END
 95
        2
302
GRIDFORMAT
  1
GRIDFORMAT_BEGIN
 90
        0
 91
        1
 62
     0
 92
       -2
340
0
 93
        0
 40
0.045
309
GRIDFORMAT_END
 95
        4
302
GRIDFORMAT
  1
GRIDFORMAT_BEGIN
 90
        0
 91
        1
 62
     0
 92
       -2
340
0
 93
        0
 40
0.045
309
GRIDFORMAT_END
 95
        8
302
GRIDFORMAT
  1
GRIDFORMAT_BEGIN
 90
        0
 91
        1
 62
     0
 92
       -2
340
0
 93
        0
 40
0.045
309
GRIDFORMAT_END
 95
       16
302
GRIDFORMAT
  1
GRIDFORMAT_BEGIN
 90
        0
 91
        1
 62
     0
 92
       -2
340
0
 93
        0
 40
0.045
309
GRIDFORMAT_END
 95
       32
302
GRIDFORMAT
  1
GRIDFORMAT_BEGIN
 90
        0
 91
        1
 62
     0
 92
       -2
340
0
 93
        0
 40
0.045
309
GRIDFORMAT_END
309
TABLEFORMAT_END
  1
CELLSTYLE_BEGIN
 90
        2
 91
        1
300
_HEADER
309
CELLSTYLE_END
300
CELLSTYLE
  1
TABLEFORMAT_BEGIN
 90
        5
170
     1
 91
        0
 92
        0
 62
   257
 93
        1
300
CONTENTFORMAT
  1
CONTENTFORMAT_BEGIN
 90
        0
 91
        0
 92
      512
 93
        0
300

 40
0.0
140
1.0
 94
        2
 62
     0
340
10
144
4.5
309
CONTENTFORMAT_END
171
     1
301
MARGIN
  1
CELLMARGIN_BEGIN
 40
1.5
 40
1.5
 40
1.5
 40
1.5
 40
0.18
 40
0.18
309
CELLMARGIN_END
 94
        6
 95
        1
302
GRIDFORMAT
  1
GRIDFORMAT_BEGIN
 90
        0
 91
        1
 62
     0
 92
       -2
340
0
 93
        0
 40
0.045
309
GRIDFORMAT_END
 95
        2
302
GRIDFORMAT
  1
GRIDFORMAT_BEGIN
 90
        0
 91
        1
 62
     0
 92
       -2
340
0
 93
        0
 40
0.045
309
GRIDFORMAT_END
 95
        4
302
GRIDFORMAT
  1
GRIDFORMAT_BEGIN
 90
        0
 91
        1
 62
     0
 92
       -2
340
0
 93
        0
 40
0.045
309
GRIDFORMAT_END
 95
        8
302
GRIDFORMAT
  1
GRIDFORMAT_BEGIN
 90
        0
 91
        1
 62
     0
 92
       -2
340
0
 93
        0
 40
0.045
309
GRIDFORMAT_END
 95
       16
302
GRIDFORMAT
  1
GRIDFORMAT_BEGIN
 90
        0
 91
        1
 62
     0
 92
       -2
340
0
 93
        0
 40
0.045
309
GRIDFORMAT_END
 95
       32
302
GRIDFORMAT
  1
GRIDFORMAT_BEGIN
 90
        0
 91
        1
 62
     0
 92
       -2
340
0
 93
        0
 40
0.045
309
GRIDFORMAT_END
309
TABLEFORMAT_END
  1
CELLSTYLE_BEGIN
 90
        3
 91
        2
300
_DATA
309
CELLSTYLE_END
  0
ENDSEC
  0
EOF
