  0
SECTION
  2
HEADER
  9
$ACADVER
  1
AC1021
  9
$ACADMAINTVER
 70
    52
  9
$DWGCODEPAGE
  3
ANSI_1252
  9
$LASTSAVEDBY
  1
mop
  9
$CUSTOMPROPERTYTAG
  1
AmdtFileType
  9
$CUSTOMPROPERTY
  1
84
  9
$INSBASE
 10
0.0
 20
0.0
 30
0.0
  9
$EXTMIN
 10
-144.930047317174
 20
-117.4541457331514
 30
-0.0000000349181948
  9
$EXTMAX
 10
62.20579816698159
 20
207.6246696746568
 30
0.0000000814935746
  9
$LIMMIN
 10
0.0
 20
0.0
  9
$LIMMAX
 10
420.0
 20
297.0
  9
$ORTHOMODE
 70
     0
  9
$REGENMODE
 70
     1
  9
$FILLMODE
 70
     1
  9
$QTEXTMODE
 70
     0
  9
$MIRRTEXT
 70
     1
  9
$LTSCALE
 40
1.0
  9
$ATTMODE
 70
     1
  9
$TEXTSIZE
 40
2.5
  9
$TRACEWID
 40
1.0
  9
$TEXTSTYLE
  7
STANDARD
  9
$CLAYER
  8
3
  9
$CELTYPE
  6
BYLAYER
  9
$CECOLOR
 62
   256
  9
$CELTSCALE
 40
1.0
  9
$DISPSILH
 70
     0
  9
$DIMSCALE
 40
2.0
  9
$DIMASZ
 40
3.0
  9
$DIMEXO
 40
0.0
  9
$DIMDLI
 40
10.0
  9
$DIMRND
 40
0.0
  9
$DIMDLE
 40
0.0
  9
$DIMEXE
 40
1.0
  9
$DIMTP
 40
0.1
  9
$DIMTM
 40
0.1
  9
$DIMTXT
 40
3.5
  9
$DIMCEN
 40
0.0
  9
$DIMTSZ
 40
0.0
  9
$DIMTOL
 70
     0
  9
$DIMLIM
 70
     0
  9
$DIMTIH
 70
     0
  9
$DIMTOH
 70
     0
  9
$DIMSE1
 70
     0
  9
$DIMSE2
 70
     0
  9
$DIMTAD
 70
     1
  9
$DIMZIN
 70
     8
  9
$DIMBLK
  1

  9
$DIMASO
 70
     1
  9
$DIMSHO
 70
     1
  9
$DIMPOST
  1

  9
$DIMAPOST
  1
"
  9
$DIMALT
 70
     0
  9
$DIMALTD
 70
     2
  9
$DIMALTF
 40
0.03937
  9
$DIMLFAC
 40
1.0
  9
$DIMTOFL
 70
     1
  9
$DIMTVP
 40
0.0
  9
$DIMTIX
 70
     0
  9
$DIMSOXD
 70
     0
  9
$DIMSAH
 70
     0
  9
$DIMBLK1
  1

  9
$DIMBLK2
  1

  9
$DIMSTYLE
  2
GEN-ISO
  9
$DIMCLRD
 70
   256
  9
$DIMCLRE
 70
   256
  9
$DIMCLRT
 70
     2
  9
$DIMTFAC
 40
0.71
  9
$DIMGAP
 40
1.0
  9
$DIMJUST
 70
     0
  9
$DIMSD1
 70
     0
  9
$DIMSD2
 70
     0
  9
$DIMTOLJ
 70
     1
  9
$DIMTZIN
 70
     0
  9
$DIMALTZ
 70
     0
  9
$DIMALTTZ
 70
     0
  9
$DIMUPT
 70
     0
  9
$DIMDEC
 70
     4
  9
$DIMTDEC
 70
     4
  9
$DIMALTU
 70
     2
  9
$DIMALTTD
 70
     2
  9
$DIMTXSTY
  7
STANDARD
  9
$DIMAUNIT
 70
     0
  9
$DIMADEC
 70
     0
  9
$DIMALTRND
 40
0.0
  9
$DIMAZIN
 70
     0
  9
$DIMDSEP
 70
    46
  9
$DIMATFIT
 70
     3
  9
$DIMFRAC
 70
     0
  9
$DIMLDRBLK
  1

  9
$DIMLUNIT
 70
     2
  9
$DIMLWD
 70
    -2
  9
$DIMLWE
 70
    -2
  9
$DIMTMOVE
 70
     0
  9
$DIMFXL
 40
1.0
  9
$DIMFXLON
 70
     0
  9
$DIMJOGANG
 40
0.7853981633974483
  9
$DIMTFILL
 70
     0
  9
$DIMTFILLCLR
 70
     0
  9
$DIMARCSYM
 70
     0
  9
$DIMLTYPE
  6

  9
$DIMLTEX1
  6

  9
$DIMLTEX2
  6

  9
$LUNITS
 70
     2
  9
$LUPREC
 70
     2
  9
$SKETCHINC
 40
1.0
  9
$FILLETRAD
 40
0.0
  9
$AUNITS
 70
     0
  9
$AUPREC
 70
     0
  9
$MENU
  1
.
  9
$ELEVATION
 40
0.0
  9
$PELEVATION
 40
0.0
  9
$THICKNESS
 40
0.0
  9
$LIMCHECK
 70
     0
  9
$CHAMFERA
 40
1.0
  9
$CHAMFERB
 40
1.0
  9
$CHAMFERC
 40
0.0
  9
$CHAMFERD
 40
0.0
  9
$SKPOLY
 70
     1
  9
$TDCREATE
 40
2451267.377020243
  9
$TDUCREATE
 40
2451267.335353576
  9
$TDUPDATE
 40
2454866.619323507
  9
$TDUUPDATE
 40
2454866.577656841
  9
$TDINDWG
 40
0.2415642824
  9
$TDUSRTIMER
 40
0.2415642824
  9
$USRTIMER
 70
     1
  9
$ANGBASE
 50
0.0
  9
$ANGDIR
 70
     0
  9
$PDMODE
 70
     1
  9
$PDSIZE
 40
0.0
  9
$PLINEWID
 40
0.0
  9
$SPLFRAME
 70
     0
  9
$SPLINETYPE
 70
     6
  9
$SPLINESEGS
 70
     8
  9
$HANDSEED
  5
2119
  9
$SURFTAB1
 70
     6
  9
$SURFTAB2
 70
     6
  9
$SURFTYPE
 70
     6
  9
$SURFU
 70
     6
  9
$SURFV
 70
     6
  9
$UCSBASE
  2

  9
$UCSNAME
  2

  9
$UCSORG
 10
0.0
 20
0.0
 30
0.0
  9
$UCSXDIR
 10
1.0
 20
0.0
 30
0.0
  9
$UCSYDIR
 10
0.0
 20
1.0
 30
0.0
  9
$UCSORTHOREF
  2

  9
$UCSORTHOVIEW
 70
     0
  9
$UCSORGTOP
 10
0.0
 20
0.0
 30
0.0
  9
$UCSORGBOTTOM
 10
0.0
 20
0.0
 30
0.0
  9
$UCSORGLEFT
 10
0.0
 20
0.0
 30
0.0
  9
$UCSORGRIGHT
 10
0.0
 20
0.0
 30
0.0
  9
$UCSORGFRONT
 10
0.0
 20
0.0
 30
0.0
  9
$UCSORGBACK
 10
0.0
 20
0.0
 30
0.0
  9
$PUCSBASE
  2

  9
$PUCSNAME
  2

  9
$PUCSORG
 10
0.0
 20
0.0
 30
0.0
  9
$PUCSXDIR
 10
1.0
 20
0.0
 30
0.0
  9
$PUCSYDIR
 10
0.0
 20
1.0
 30
0.0
  9
$PUCSORTHOREF
  2

  9
$PUCSORTHOVIEW
 70
     0
  9
$PUCSORGTOP
 10
0.0
 20
0.0
 30
0.0
  9
$PUCSORGBOTTOM
 10
0.0
 20
0.0
 30
0.0
  9
$PUCSORGLEFT
 10
0.0
 20
0.0
 30
0.0
  9
$PUCSORGRIGHT
 10
0.0
 20
0.0
 30
0.0
  9
$PUCSORGFRONT
 10
0.0
 20
0.0
 30
0.0
  9
$PUCSORGBACK
 10
0.0
 20
0.0
 30
0.0
  9
$USERI1
 70
     0
  9
$USERI2
 70
     0
  9
$USERI3
 70
     0
  9
$USERI4
 70
     0
  9
$USERI5
 70
     0
  9
$USERR1
 40
0.0
  9
$USERR2
 40
0.0
  9
$USERR3
 40
0.0
  9
$USERR4
 40
0.0
  9
$USERR5
 40
0.0
  9
$WORLDVIEW
 70
     1
  9
$SHADEDGE
 70
     3
  9
$SHADEDIF
 70
    70
  9
$TILEMODE
 70
     1
  9
$MAXACTVP
 70
    48
  9
$PINSBASE
 10
0.0
 20
0.0
 30
0.0
  9
$PLIMCHECK
 70
     0
  9
$PEXTMIN
 10
20.12
 20
6.727344797985164
 30
0.0
  9
$PEXTMAX
 10
203.0
 20
290.0
 30
0.0
  9
$PLIMMIN
 10
15.69565615325626
 20
2.300574118090947
  9
$PLIMMAX
 10
428.8437737758792
 20
294.4255057704506
  9
$UNITMODE
 70
     0
  9
$VISRETAIN
 70
     1
  9
$PLINEGEN
 70
     0
  9
$PSLTSCALE
 70
     1
  9
$TREEDEPTH
 70
  3020
  9
$CMLSTYLE
  2
STANDARD
  9
$CMLJUST
 70
     0
  9
$CMLSCALE
 40
1.0
  9
$PROXYGRAPHICS
 70
     1
  9
$MEASUREMENT
 70
     1
  9
$CELWEIGHT
370
    -1
  9
$ENDCAPS
280
     0
  9
$JOINSTYLE
280
     0
  9
$LWDISPLAY
290
     0
  9
$INSUNITS
 70
     0
  9
$HYPERLINKBASE
  1

  9
$STYLESHEET
  1
LAA4.ctb
  9
$XEDIT
290
     1
  9
$CEPSNTYPE
380
     0
  9
$PSTYLEMODE
290
     1
  9
$FINGERPRINTGUID
  2
{80B1B611-37B6-11D5-8E5F-00500498855C}
  9
$VERSIONGUID
  2
{1875E2BF-F13C-4A4F-B561-E39B9EA2E8BC}
  9
$EXTNAMES
290
     1
  9
$PSVPSCALE
 40
0.0
  9
$OLESTARTUP
290
     0
  9
$SORTENTS
280
   127
  9
$INDEXCTL
280
     1
  9
$HIDETEXT
280
     0
  9
$XCLIPFRAME
290
     0
  9
$HALOGAP
280
     0
  9
$OBSCOLOR
 70
   257
  9
$OBSLTYPE
280
     0
  9
$INTERSECTIONDISPLAY
280
     0
  9
$INTERSECTIONCOLOR
 70
   257
  9
$DIMASSOC
280
     1
  9
$PROJECTNAME
  1

  9
$CAMERADISPLAY
290
     0
  9
$LENSLENGTH
 40
50.0
  9
$CAMERAHEIGHT
 40
0.0
  9
$STEPSPERSEC
 40
2.0
  9
$STEPSIZE
 40
6.0
  9
$3DDWFPREC
 40
2.0
  9
$PSOLWIDTH
 40
0.25
  9
$PSOLHEIGHT
 40
4.0
  9
$LOFTANG1
 40
1.570796326794896
  9
$LOFTANG2
 40
1.570796326794896
  9
$LOFTMAG1
 40
0.0
  9
$LOFTMAG2
 40
0.0
  9
$LOFTPARAM
 70
     7
  9
$LOFTNORMALS
280
     1
  9
$LATITUDE
 40
37.795
  9
$LONGITUDE
 40
-122.394
  9
$NORTHDIRECTION
 40
0.0
  9
$TIMEZONE
 70
 -8000
  9
$LIGHTGLYPHDISPLAY
280
     1
  9
$TILEMODELIGHTSYNCH
280
     1
  9
$CMATERIAL
347
1CF0
  9
$SOLIDHIST
280
     1
  9
$SHOWHIST
280
     1
  9
$DWFFRAME
280
     2
  9
$DGNFRAME
280
     0
  9
$REALWORLDSCALE
290
     1
  9
$INTERFERECOLOR
 62
     1
  9
$INTERFEREOBJVS
345
1CFD
  9
$INTERFEREVPVS
346
1CFA
  9
$CSHADOW
280
     0
  9
$SHADOWPLANELOCATION
 40
0.0
  0
ENDSEC
  0
SECTION
  2
CLASSES
  0
CLASS
  1
ACME_DOCUMENT
  2
AcMeDoc
  3
AcMeServices
 90
        0
 91
        0
280
     0
281
     0
  0
CLASS
  1
ACMESTATEMGR
  2
AcMeStateMgr
  3
AcMeServices
 90
     1024
 91
        1
280
     0
281
     0
  0
CLASS
  1
ACMESCOPE
  2
AcMeScope
  3
AcMeServices
 90
     1024
 91
        1
280
     0
281
     0
  0
CLASS
  1
ACMECOMMANDHISTORY
  2
AcMeCommandHistory
  3
AcMeServices
 90
     1024
 91
        1
280
     0
281
     0
  0
CLASS
  1
ACRFINSADJUSTERMGR
  2
AcRfInsAdjusterMgr
  3
AcMeServices
 90
     1024
 91
        1
280
     0
281
     0
  0
CLASS
  1
DICTIONARYVAR
  2
AcDbDictionaryVar
  3
ObjectDBX Classes
 90
        0
 91
        8
280
     0
281
     0
  0
CLASS
  1
ACIMSYSVARMAN
  2
AcImSysVarManager
  3
AcMeServices
 90
     1024
 91
        6
280
     0
281
     0
  0
CLASS
  1
ACIMREALSYSVAR
  2
AcImRealSysVar
  3
AcMeServices
 90
     1024
 91
       16
280
     0
281
     0
  0
CLASS
  1
ACIMINTSYSVAR
  2
AcImIntSysVar
  3
AcMeServices
 90
     1024
 91
       49
280
     0
281
     0
  0
CLASS
  1
ACMEDRAWINGMAN
  2
AcMeDrawingMan
  3
AcMeServices
 90
     1024
 91
        1
280
     0
281
     0
  0
CLASS
  1
ACMEVIEW
  2
AcMeView
  3
AcMeServices
 90
     1024
 91
        1
280
     0
281
     0
  0
CLASS
  1
ACDBENTITYCACHE
  2
AcMeEntityCache
  3
AcMeServices
 90
     1024
 91
        1
280
     0
281
     0
  0
CLASS
  1
ACGREFMASTER
  2
AcGrefMaster
  3
AcAttribServices
 90
     1024
 91
        1
280
     0
281
     0
  0
CLASS
  1
AMIMASTER
  2
AmiMaster
  3
AmiServices
 90
     1024
 91
        1
280
     0
281
     0
  0
CLASS
  1
ACASGREFMASTER
  2
AcAsGrefMaster
  3
AutoSurfResolverServices
 90
     1024
 91
        1
280
     0
281
     0
  0
CLASS
  1
ADAPPL
  2
AcAdAppl
  3
DesignerServices
 90
     1024
 91
        1
280
     0
281
     0
  0
CLASS
  1
DEPMGR
  2
AcAdDepMgr
  3
DesignerServices
 90
     1024
 91
        1
280
     0
281
     0
  0
CLASS
  1
PARAMMGR
  2
AcAdParamMgr
  3
DesignerServices
 90
     1024
 91
        1
280
     0
281
     0
  0
CLASS
  1
PARAMSCOPE
  2
AcAdParamScope
  3
DesignerServices
 90
     1024
 91
        1
280
     0
281
     0
  0
CLASS
  1
ACIMSTRSYSVAR
  2
AcImStrSysVar
  3
AcMeServices
 90
     1024
 91
       11
280
     0
281
     0
  0
CLASS
  1
NAMEDAPPL
  2
AcAdNamedAppl
  3
DesignerServices
 90
     1024
 91
        1
280
     0
281
     0
  0
CLASS
  1
ADHNTMPLT
  2
AdHoleNoteTemplateMgr
  3
DesignerServices
 90
     1024
 91
        0
280
     0
281
     0
  0
CLASS
  1
AM_HNTEMPLATE_MGR_NAME
  2
AdHoleNoteTemplateMgrName
  3
DesignerServices
 90
     1024
 91
        0
280
     0
281
     0
  0
CLASS
  1
ACADGREFMODULE
  2
AcAdGrefModule
  3
AdGrefServices
 90
     1024
 91
        1
280
     0
281
     0
  0
CLASS
  1
AM_DRAWING_MGR
  2
AcDmDwgMgr
  3
AcMechDwgViewMgmt
 90
     1024
 91
        1
280
     0
281
     0
  0
CLASS
  1
AM_DWG_DOCUMENT
  2
AcDmDwgDocument
  3
AcMechDwgViewMgmt
 90
     1024
 91
        1
280
     0
281
     0
  0
CLASS
  1
AM_DWG_SHEET
  2
AcDmSheet
  3
AcMechDwgViewMgmt
 90
     1024
 91
        1
280
     0
281
     0
  0
CLASS
  1
AM_VIEWDIMPARMAP
  2
AcDmViewDimParMap
  3
AcMechDwgViewMgmt
 90
     1024
 91
        1
280
     0
281
     0
  0
CLASS
  1
AM_DWGMGR_NAME
  2
AcDmDwgMgrName
  3
AcMechDwgViewMgmt
 90
     1024
 91
        1
280
     0
281
     0
  0
CLASS
  1
ACAMPROJECT
  2
AcAmProject
  3
DesignerAssemblies
 90
     1024
 91
        1
280
     0
281
     0
  0
CLASS
  1
ACAMGRCOMPSET
  2
AcAmGrCompSet
  3
DesignerAssemblies
 90
        0
 91
        0
280
     0
281
     0
  0
CLASS
  1
ACAMGRCOMPDEFSET
  2
AcAmGrCompDefSet
  3
DesignerAssemblies
 90
     1024
 91
        1
280
     0
281
     0
  0
CLASS
  1
ACAMGRCOMPDEF
  2
AcAmGrCompDef
  3
DesignerAssemblies
 90
     1024
 91
        1
280
     0
281
     0
  0
CLASS
  1
ACCMCONTEXT
  2
AcCmContext
  3
DesignerAssemblies
 90
     1024
 91
        1
280
     0
281
     0
  0
CLASS
  1
ACAMCOMPDEF
  2
AcAmCompDef
  3
DesignerAssemblies
 90
     1024
 91
        1
280
     0
281
     0
  0
CLASS
  1
ACAMCOMPDEFMGR
  2
AcAmCompDefMgr
  3
DesignerAssemblies
 90
     1024
 91
        1
280
     0
281
     0
  0
CLASS
  1
AMCONTEXTMGR
  2
AcAmContextMgr
  3
DesignerAssemblies
 90
     1024
 91
        1
280
     0
281
     0
  0
CLASS
  1
ACAMCONTEXTMODELER
  2
AcAmContextModeler
  3
DesignerAssemblies
 90
     1024
 91
        1
280
     0
281
     0
  0
CLASS
  1
ACMDATADICTIONARY
  2
AcmDataDictionary
  3
"AcmSymBB|Product Description: AutoCAD Mechanical|Company: Autodesk, Inc."
 90
     1024
 91
        1
280
     0
281
     0
  0
CLASS
  1
ACMDATAENTRYBLOCK
  2
AcmDataEntryBlock
  3
AcmSymBB|Product Description: AutoCAD Mechanical|Company: Autodesk, Inc.
 90
     1024
 91
        1
280
     0
281
     0
  0
CLASS
  1
ACDMVIEWGEOM
  2
AcDmViewGeometry
  3
AcMechDwgViewMgmt
 90
     1024
 91
        1
280
     0
281
     1
  0
CLASS
  1
CBROWSERAPPOBJECT
  2
CBrowserAppObject
  3
McadcomServices
 90
     1024
 91
        3
280
     0
281
     0
  0
CLASS
  1
IM_STATIC_MAN
  2
AcImStaticVarManager
  3
AcMeServices
 90
     1024
 91
        1
280
     0
281
     0
  0
CLASS
  1
ASAPP
  2
AcAsAppObject
  3
AutoSurfServices
 90
     1024
 91
        1
280
     0
281
     0
  0
CLASS
  1
ACIMDBLSTATICVAR
  2
AcImDblStaticVar
  3
AcMeServices
 90
     1024
 91
       20
280
     0
281
     0
  0
CLASS
  1
ACIMSTRSTATICVAR
  2
AcImStrStaticVar
  3
AcMeServices
 90
     1024
 91
       12
280
     0
281
     0
  0
CLASS
  1
ACIMINTSTATICVAR
  2
AcImIntStaticVar
  3
AcMeServices
 90
     1024
 91
       17
280
     0
281
     0
  0
CLASS
  1
CATALOGSTATE
  2
AcAmCatalogState
  3
DesignerAssemblies
 90
     1024
 91
        1
280
     0
281
     0
  0
CLASS
  1
DM_PLACEHOLDER
  2
AcDmSelsetPlaceholder
  3
AcMechDwgViewMgmt
 90
     1024
 91
        1
280
     0
281
     0
  0
CLASS
  1
ACMSTANDARDANSI
  2
AcmStandardANSI
  3
"Amdt_StdImp|Product Description: AutoCAD Mechanical|Company: Autodesk, Inc."
 90
     1024
 91
        1
280
     0
281
     0
  0
CLASS
  1
ACMSURFSTANDARDANSI
  2
AcmSurfTextStdANSI
  3
"Amdt_StdImp|Product Description: AutoCAD Mechanical|Company: Autodesk, Inc."
 90
     1024
 91
        1
280
     0
281
     0
  0
CLASS
  1
ACMFCFSTANDARDANSI
  2
AcmFCFStdANSI
  3
"Amdt_StdImp|Product Description: AutoCAD Mechanical|Company: Autodesk, Inc."
 90
     1024
 91
        1
280
     0
281
     0
  0
CLASS
  1
ACMWELDSTANDARDANSI
  2
AcmWeldingStdANSI
  3
"Amdt_StdImp|Product Description: AutoCAD Mechanical|Company: Autodesk, Inc."
 90
     1024
 91
        1
280
     0
281
     0
  0
CLASS
  1
ACMIDSTANDARDANSI
  2
AcmIdStdANSI
  3
"Amdt_StdImp|Product Description: AutoCAD Mechanical|Company: Autodesk, Inc."
 90
     1024
 91
        1
280
     0
281
     0
  0
CLASS
  1
ACMDATUMSTANDARDANSI
  2
AcmDatumStdANSI
  3
"Amdt_StdImp|Product Description: AutoCAD Mechanical|Company: Autodesk, Inc."
 90
     1024
 91
        1
280
     0
281
     0
  0
CLASS
  1
ACMBOMSTANDARDANSI
  2
AcmBOMStdANSI
  3
"Amdt_StdImp|Product Description: AutoCAD Mechanical|Company: Autodesk, Inc."
 90
     1024
 91
        1
280
     0
281
     0
  0
CLASS
  1
"COMPDEFATTRARRAY"
  2
CompDefAttr
  3
"GE314"
 90
        1
 91
        0
280
     0
281
     0
  0
CLASS
  1
ACRFATTGENMGR
  2
AcRfAttGeneralMgr
  3
AcAttribServices
 90
     1024
 91
        1
280
     0
281
     0
  0
CLASS
  1
LAYER_INDEX
  2
AcDbLayerIndex
  3
ObjectDBX Classes
 90
        0
 91
        1
280
     0
281
     0
  0
CLASS
  1
IDBUFFER
  2
AcDbIdBuffer
  3
ObjectDBX Classes
 90
        0
 91
       36
280
     0
281
     0
  0
CLASS
  1
ACDBDICTIONARYWDFLT
  2
AcDbDictionaryWithDefault
  3
ObjectDBX Classes
 90
        0
 91
        1
280
     0
281
     0
  0
CLASS
  1
ACME_DOCUMENT
  2
AcMeDbDoc
  3
AcMeServices
 90
     1024
 91
        2
280
     0
281
     0
  0
CLASS
  1
AMGSETTINGSOBJ
  2
AmgSettingsObj
  3
"AcadM|Product Description: AutoCAD Mechanical|Company: Autodesk, Inc."
 90
     1024
 91
        2
280
     0
281
     0
  0
CLASS
  1
GSMANAGER
  2
AcMeGSManager
  3
AcMeServices
 90
     1024
 91
        1
280
     0
281
     0
  0
CLASS
  1
AMDTINTERNALREACTOR
  2
AmdtInternalReactor
  3
AcMeServices
 90
     1024
 91
        2
280
     0
281
     0
  0
CLASS
  1
ACME_DATABASE
  2
AcMeDbDatabase
  3
AcMeServices
 90
     1024
 91
        1
280
     0
281
     0
  0
CLASS
  1
ACGREFACADMASTER
  2
AcGrefacadMaster
  3
AcGrefServices
 90
     1024
 91
        1
280
     0
281
     0
  0
CLASS
  1
AMDTMENUSTATEMGR
  2
AmdtMenuStateMgr
  3
McadcomServices
 90
     1024
 91
        1
280
     0
281
     0
  0
CLASS
  1
AMDTMCOMMENUSTATE
  2
AmdtMcomMenuState
  3
McadcomServices
 90
     1024
 91
        1
280
     0
281
     0
  0
CLASS
  1
AMDTMAPISURFMOUDULE
  2
AmdtMApiSurfModule
  3
MApiSurfServices
 90
     1024
 91
        1
280
     0
281
     0
  0
CLASS
  1
MAPIAMMOUDLE
  2
MApiAmModule
  3
MApiAmServices
 90
     1024
 91
        1
280
     0
281
     0
  0
CLASS
  1
AMDTADMENUSTATE
  2
AmdtAdMenuState
  3
DesignerServices
 90
     1024
 91
        1
280
     0
281
     0
  0
CLASS
  1
AMDTDMMENUSTATE
  2
AmdtDmMenuState
  3
AcMechDwgViewMgmt
 90
     1024
 91
        1
280
     0
281
     0
  0
CLASS
  1
MAPIADMODULE
  2
MApiAdModule
  3
MApiAdServices
 90
     1024
 91
        1
280
     0
281
     0
  0
CLASS
  1
AMDTAMMENUSTATE
  2
AmdtAmMenuState
  3
DesignerAssemblies
 90
     1024
 91
        1
280
     0
281
     0
  0
CLASS
  1
AMGOBJPROPCFG
  2
AmgObjPropCfg
  3
"AmgLay|Product Description: AutoCAD Mechanical|Company: Autodesk, Inc."
 90
     1025
 91
        1
280
     0
281
     0
  0
CLASS
  1
ACAMGTITLESTD
  2
AcAmgTitleStd
  3
"AmgTitle|Product Description: AutoCAD Mechanical|Company: Autodesk, Inc."
 90
     4095
 91
        2
280
     0
281
     0
  0
CLASS
  1
ACMDETAILSTANDARDANSI
  2
AmdtDetailSymStdANSI
  3
"Amdt_StdImp|Product Description: AutoCAD Mechanical|Company: Autodesk, Inc."
 90
     1024
 91
        1
280
     0
281
     0
  0
CLASS
  1
ACMSECTIONSTANDARDANSI
  2
AmdtSectionSymStdANSI
  3
"Amdt_StdImp|Product Description: AutoCAD Mechanical|Company: Autodesk, Inc."
 90
     1024
 91
        1
280
     0
281
     0
  0
CLASS
  1
ACMCENTERLINESTANDARDANSI
  2
AmdtCenterLineStdANSI
  3
"Amdt_StdImp|Product Description: AutoCAD Mechanical|Company: Autodesk, Inc."
 90
     1024
 91
        1
280
     0
281
     0
  0
CLASS
  1
ACMTHREADLINESTANDARDCSN
  2
AmdtThreadLineStdCSN
  3
"Amdt_StdImp|Product Description: AutoCAD Mechanical|Company: Autodesk, Inc."
 90
     1024
 91
        2
280
     0
281
     0
  0
CLASS
  1
ACAMGLAYSTD
  2
AcAmgLayStd
  3
"AmgLay|Product Description: AutoCAD Mechanical|Company: Autodesk, Inc."
 90
     1024
 91
        2
280
     0
281
     0
  0
CLASS
  1
ACAMGDIMSTD
  2
AcAmgDimStd
  3
"AmgDim|Product Description: AutoCAD Mechanical|Company: Autodesk, Inc."
 90
     1024
 91
        2
280
     0
281
     0
  0
CLASS
  1
AMDTBROWSERDBTAB
  2
AmdtBrowserDbTab
  3
McadcomServices
 90
     1024
 91
        1
280
     0
281
     0
  0
CLASS
  1
ACAMGFILTERDAT
  2
AcAmgFilterDat
  3
"AcadM|Product Description: AutoCAD Mechanical|Company: Autodesk, Inc."
 90
     1024
 91
        6
280
     0
281
     0
  0
CLASS
  1
AMDTFORMULAUPDATEDISPATCHER
  2
AmdtFormulaUpdateDispatcher
  3
AcMeServices
 90
     1024
 91
        1
280
     0
281
     0
  0
CLASS
  1
ACMSTANDARDISO
  2
AcmStandardISO
  3
"Amdt_StdImp|Product Description: AutoCAD Mechanical|Company: Autodesk, Inc."
 90
     1024
 91
        1
280
     0
281
     0
  0
CLASS
  1
ACMSURFSTANDARDISO
  2
AcmSurfTextStdISO
  3
"Amdt_StdImp|Product Description: AutoCAD Mechanical|Company: Autodesk, Inc."
 90
     1024
 91
        1
280
     0
281
     0
  0
CLASS
  1
ACMFCFSTANDARDISO
  2
AcmFCFStdISO
  3
"Amdt_StdImp|Product Description: AutoCAD Mechanical|Company: Autodesk, Inc."
 90
     1024
 91
        1
280
     0
281
     0
  0
CLASS
  1
ACMWELDSTANDARDISO
  2
AcmWeldingStdISO
  3
"Amdt_StdImp|Product Description: AutoCAD Mechanical|Company: Autodesk, Inc."
 90
     1024
 91
        1
280
     0
281
     0
  0
CLASS
  1
ACMIDSTANDARDISO
  2
AcmIdStdISO
  3
"Amdt_StdImp|Product Description: AutoCAD Mechanical|Company: Autodesk, Inc."
 90
     1024
 91
        1
280
     0
281
     0
  0
CLASS
  1
ACMDATUMSTANDARDISO
  2
AcmDatumStdISO
  3
"Amdt_StdImp|Product Description: AutoCAD Mechanical|Company: Autodesk, Inc."
 90
     1024
 91
        1
280
     0
281
     0
  0
CLASS
  1
ACMBOMSTANDARDISO
  2
AcmBOMStdISO
  3
"Amdt_StdImp|Product Description: AutoCAD Mechanical|Company: Autodesk, Inc."
 90
     1024
 91
        1
280
     0
281
     0
  0
CLASS
  1
AMDTEDGESTANDARDISO
  2
AmdtEdgeStdISO
  3
"Amdt_StdImp|Product Description: AutoCAD Mechanical|Company: Autodesk, Inc."
 90
     1024
 91
        1
280
     0
281
     0
  0
CLASS
  1
ACMDETAILSTANDARDISO
  2
AmdtDetailSymStdISO
  3
"Amdt_StdImp|Product Description: AutoCAD Mechanical|Company: Autodesk, Inc."
 90
     1024
 91
        1
280
     0
281
     0
  0
CLASS
  1
ACMSECTIONSTANDARDISO
  2
AmdtSectionSymStdISO
  3
"Amdt_StdImp|Product Description: AutoCAD Mechanical|Company: Autodesk, Inc."
 90
     1024
 91
        1
280
     0
281
     0
  0
CLASS
  1
ACMCENTERLINESTANDARDISO
  2
AmdtCenterLineStdISO
  3
"Amdt_StdImp|Product Description: AutoCAD Mechanical|Company: Autodesk, Inc."
 90
     1024
 91
        1
280
     0
281
     0
  0
CLASS
  1
ACMNOTESTANDARDANSI
  2
AmdtNoteStdANSI
  3
"Amdt_StdImp|Product Description: AutoCAD Mechanical|Company: Autodesk, Inc."
 90
     1024
 91
        1
280
     0
281
     0
  0
CLASS
  1
AMDTNOTETEMPLATEDB
  2
AmdtNoteTemplateDB
  3
AcmSymBB|Product Description: AutoCAD Mechanical|Company: Autodesk, Inc.
 90
     1024
 91
        8
280
     0
281
     0
  0
CLASS
  1
ACMNOTESTANDARDISO
  2
AmdtNoteStdISO
  3
"Amdt_StdImp|Product Description: AutoCAD Mechanical|Company: Autodesk, Inc."
 90
     1024
 91
        1
280
     0
281
     0
  0
CLASS
  1
MATERIAL
  2
AcDbMaterial
  3
ObjectDBX Classes
 90
     1153
 91
        3
280
     0
281
     0
  0
CLASS
  1
VISUALSTYLE
  2
AcDbVisualStyle
  3
ObjectDBX Classes
 90
     4095
 91
       16
280
     0
281
     0
  0
CLASS
  1
TABLESTYLE
  2
AcDbTableStyle
  3
ObjectDBX Classes
 90
     4095
 91
        1
280
     0
281
     0
  0
CLASS
  1
ACRFOBJATTMGR
  2
AcRfObjAttGroupMgr
  3
AcAttribServices
 90
     1024
 91
        1
280
     0
281
     0
  0
CLASS
  1
ACRFMCADAPIATTHOLDER
  2
AcRfMCADAPIAttHolder
  3
AcAttribServices
 90
     1024
 91
        1
280
     0
281
     0
  0
CLASS
  1
AMDTSYSATTR
  2
AmdtSystemAttribute
  3
AcAttribServices
 90
     1024
 91
        1
280
     0
281
     0
  0
CLASS
  1
ACMTAPERSTANDARDANSI
  2
AcmTaperStdANSI
  3
"Amdt_StdImp|Product Description: AutoCAD Mechanical|Company: Autodesk, Inc."
 90
     1024
 91
        1
280
     0
281
     0
  0
CLASS
  1
ACMTAPERSTANDARDISO
  2
AcmTaperStdISO
  3
"Amdt_StdImp|Product Description: AutoCAD Mechanical|Company: Autodesk, Inc."
 90
     1024
 91
        1
280
     0
281
     0
  0
CLASS
  1
SORTENTSTABLE
  2
AcDbSortentsTable
  3
ObjectDBX Classes
 90
        0
 91
        1
280
     0
281
     0
  0
CLASS
  1
SCALE
  2
AcDbScale
  3
ObjectDBX Classes
 90
     1153
 91
       33
280
     0
281
     0
  0
CLASS
  1
MLEADERSTYLE
  2
AcDbMLeaderStyle
  3
ACDB_MLEADERSTYLE_CLASS
 90
     4095
 91
        1
280
     0
281
     0
  0
CLASS
  1
ACMANOOTATIONVIEWSTANDARDANSI
  2
AmdtAnViewStdANSI
  3
"Amdt_StdImp|Product Description: AutoCAD Mechanical|Company: Autodesk, Inc."
 90
     1024
 91
        1
280
     0
281
     0
  0
CLASS
  1
ACMANOOTATIONVIEWSTANDARDISO
  2
AmdtAnViewStdISO
  3
"Amdt_StdImp|Product Description: AutoCAD Mechanical|Company: Autodesk, Inc."
 90
     1024
 91
        1
280
     0
281
     0
  0
CLASS
  1
CELLSTYLEMAP
  2
AcDbCellStyleMap
  3
ObjectDBX Classes
 90
     1152
 91
        2
280
     0
281
     0
  0
ENDSEC
  0
SECTION
  2
TABLES
  0
TABLE
  2
VPORT
  5
8
330
0
100
AcDbSymbolTable
 70
     1
  0
VPORT
  5
1CEE
330
8
100
AcDbSymbolTableRecord
100
AcDbViewportTableRecord
  2
*Active
 70
     0
 10
0.0
 20
0.0
 11
1.0
 21
1.0
 12
-23.88925490278314
 22
49.77132607111989
 13
0.0
 23
0.0
 14
1.0
 24
1.0
 15
0.0
 25
0.0
 16
0.0
 26
0.0
 36
1.0
 17
0.0
 27
0.0
 37
0.0
 40
337.4326397063052
 41
1.578125
 42
50.0
 43
0.0
 44
0.0
 50
0.0
 51
0.0
 71
     0
 72
   100
 73
     1
 74
     1
 75
     0
 76
     0
 77
     0
 78
     0
281
     0
 65
     1
110
0.0
120
0.0
130
0.0
111
1.0
121
0.0
131
0.0
112
0.0
122
1.0
132
0.0
 79
     0
146
0.0
348
1CF9
 60
     3
 61
     5
292
     1
282
     1
141
0.0
142
0.0
 63
   250
421
  3355443
  0
ENDTAB
  0
TABLE
  2
LTYPE
  5
5
330
0
100
AcDbSymbolTable
 70
    36
  0
LTYPE
  5
12
330
5
100
AcDbSymbolTableRecord
100
AcDbLinetypeTableRecord
  2
BYBLOCK
 70
     0
  3

 72
    65
 73
     0
 40
0.0
  0
LTYPE
  5
13
330
5
100
AcDbSymbolTableRecord
100
AcDbLinetypeTableRecord
  2
BYLAYER
 70
     0
  3

 72
    65
 73
     0
 40
0.0
  0
LTYPE
  5
14
330
5
100
AcDbSymbolTableRecord
100
AcDbLinetypeTableRecord
  2
CONTINUOUS
 70
     0
  3
Solid line
 72
    65
 73
     0
 40
0.0
  0
LTYPE
  5
20
330
5
100
AcDbSymbolTableRecord
100
AcDbLinetypeTableRecord
  2
BYBLOCK
 70
     0
  3

 72
    65
 73
     0
 40
0.0
  0
LTYPE
  5
21
330
5
100
AcDbSymbolTableRecord
100
AcDbLinetypeTableRecord
  2
BYLAYER
 70
     0
  3

 72
    65
 73
     0
 40
0.0
  0
LTYPE
  5
22
330
5
100
AcDbSymbolTableRecord
100
AcDbLinetypeTableRecord
  2
GEN7
 70
     0
  3
____ . ____ . ____ . ____ . ___
 72
    65
 73
     4
 40
13.75
 49
9.75
 74
     0
 49
-1.5
 74
     0
 49
1.0
 74
     0
 49
-1.5
 74
     0
  0
LTYPE
  5
23
330
5
100
AcDbSymbolTableRecord
100
AcDbLinetypeTableRecord
  2
GEN3
 70
     0
  3
-- -- -- -- -- -- -- -- -- -- -
 72
    65
 73
     2
 40
6.25
 49
4.75
 74
     0
 49
-1.5
 74
     0
  0
LTYPE
  5
24
330
5
100
AcDbSymbolTableRecord
100
AcDbLinetypeTableRecord
  2
GEN3A
 70
     0
  3
 - - - - -
 72
    65
 73
     2
 40
3.125
 49
2.25
 74
     0
 49
-0.875
 74
     0
  0
LTYPE
  5
25
330
5
100
AcDbSymbolTableRecord
100
AcDbLinetypeTableRecord
  2
GEN4A
 70
     0
  3
_____ . . _____ . . _____ . . _
 72
    65
 73
     6
 40
16.25
 49
9.75
 74
     0
 49
-1.5
 74
     0
 49
1.0
 74
     0
 49
-1.5
 74
     0
 49
1.0
 74
     0
 49
-1.5
 74
     0
  0
LTYPE
  5
26
330
5
100
AcDbSymbolTableRecord
100
AcDbLinetypeTableRecord
  2
GEN7A
 70
     0
  3
__ . __ . __
 72
    65
 73
     4
 40
6.875
 49
4.75
 74
     0
 49
-0.875
 74
     0
 49
0.375
 74
     0
 49
-0.875
 74
     0
  0
LTYPE
  5
27
330
5
100
AcDbSymbolTableRecord
100
AcDbLinetypeTableRecord
  2
CONTINU
 70
     0
  3

 72
    65
 73
     0
 40
0.0
  0
LTYPE
  5
28
330
5
100
AcDbSymbolTableRecord
100
AcDbLinetypeTableRecord
  2
AXES
 70
     0
  3

 72
    65
 73
     4
 40
0.5400000000000001
 49
0.3
 74
     0
 49
-0.08
 74
     0
 49
0.08
 74
     0
 49
-0.08
 74
     0
  0
LTYPE
  5
29
330
5
100
AcDbSymbolTableRecord
100
AcDbLinetypeTableRecord
  2
MIXTE_3
 70
     0
  3

 72
    65
 73
     6
 40
0.4650000000000001
 49
0.3
 74
     0
 49
-0.035
 74
     0
 49
0.03
 74
     0
 49
-0.035
 74
     0
 49
0.03
 74
     0
 49
-0.035
 74
     0
  0
LTYPE
  5
E07
330
5
100
AcDbSymbolTableRecord
100
AcDbLinetypeTableRecord
  2
VERDECKT
 70
     0
  3
Verdeckt __ __ __ __ __ __ __ __ __ __ __ __ __
 72
    65
 73
     2
 40
9.524999999999998
 49
6.349999999999999
 74
     0
 49
-3.174999999999999
 74
     0
  0
LTYPE
  5
E08
330
5
100
AcDbSymbolTableRecord
100
AcDbLinetypeTableRecord
  2
PHANTOM2
 70
     0
  3
Phantom (.5x) ___ _ _ ___ _ _ ___ _ _ ___ _ _
 72
    65
 73
     6
 40
31.75
 49
15.875
 74
     0
 49
-3.174999999999999
 74
     0
 49
3.174999999999999
 74
     0
 49
-3.174999999999999
 74
     0
 49
3.174999999999999
 74
     0
 49
-3.174999999999999
 74
     0
  0
LTYPE
  5
E09
330
5
100
AcDbSymbolTableRecord
100
AcDbLinetypeTableRecord
  2
MITTE
 70
     0
  3
Mitte ____ _ ____ _ ____ _ ____ _ ____ _ ____
 72
    65
 73
     4
 40
50.8
 49
31.75
 74
     0
 49
-6.349999999999999
 74
     0
 49
6.349999999999999
 74
     0
 49
-6.349999999999999
 74
     0
  0
LTYPE
  5
E0A
330
5
100
AcDbSymbolTableRecord
100
AcDbLinetypeTableRecord
  2
ASULTYPE
 70
     0
  3
Ausgezogene Linie
 72
    65
 73
     2
 40
3.0
 49
2.5
 74
     0
 49
0.5
 74
     0
  0
LTYPE
  5
E0B
330
5
100
AcDbSymbolTableRecord
100
AcDbLinetypeTableRecord
  2
ASVLTYPE
 70
     0
  3
__ __ __ __ __ __ __ __ __ __ __ __ __ __ __ __ __ __ __ __ __
 72
    65
 73
     2
 40
0.75
 49
0.5
 74
     0
 49
-0.25
 74
     0
  0
LTYPE
  5
E0C
330
5
100
AcDbSymbolTableRecord
100
AcDbLinetypeTableRecord
  2
ACANSTGBM
 70
     0
  3
__ . . __ . .
 72
    65
 73
     6
 40
9.0
 49
4.0
 74
     0
 49
-1.0
 74
     0
 49
1.0
 74
     0
 49
-1.0
 74
     0
 49
1.0
 74
     0
 49
-1.0
 74
     0
  0
LTYPE
  5
E0D
330
5
100
AcDbSymbolTableRecord
100
AcDbLinetypeTableRecord
  2
ACANSTGLM
 70
     0
  3
_ _ _ _ _
 72
    65
 73
     2
 40
3.0
 49
2.0
 74
     0
 49
-1.0
 74
     0
  0
LTYPE
  5
1161
330
5
100
AcDbSymbolTableRecord
100
AcDbLinetypeTableRecord
  2
AM_ISO02W050
 70
     0
  3
__ __ __ __ __ __ __ __ __ __ __ __ __ __ __
 72
    65
 73
     2
 40
7.5
 49
6.0
 74
     0
 49
-1.5
 74
     0
  0
LTYPE
  5
1162
330
5
100
AcDbSymbolTableRecord
100
AcDbLinetypeTableRecord
  2
AM_ISO08W050
 70
     0
  3
____ . ____ . ____ . ____ . ____ . ____ . ____
 72
    65
 73
     4
 40
18.0
 49
12.0
 74
     0
 49
-1.5
 74
     0
 49
3.0
 74
     0
 49
-1.5
 74
     0
  0
LTYPE
  5
1163
330
5
100
AcDbSymbolTableRecord
100
AcDbLinetypeTableRecord
  2
AM_ISO09W050
 70
     0
  3
_____ . . _____ . . _____ . . ____ .. ____
 72
    65
 73
     6
 40
22.5
 49
12.0
 74
     0
 49
-1.5
 74
     0
 49
3.0
 74
     0
 49
-1.5
 74
     0
 49
3.0
 74
     0
 49
-1.5
 74
     0
  0
LTYPE
  5
1164
330
5
100
AcDbSymbolTableRecord
100
AcDbLinetypeTableRecord
  2
Amconstr
 70
     0
  3
_______________________
 72
    65
 73
     2
 40
9999.0
 49
9999.0
 74
     0
 49
0.0
 74
     0
  0
LTYPE
  5
1165
330
5
100
AcDbSymbolTableRecord
100
AcDbLinetypeTableRecord
  2
AM_ISO08W050x2
 70
     0
  3
__ . __ . __ . __ . __ . __
 72
    65
 73
     4
 40
9.0
 49
6.0
 74
     0
 49
-0.75
 74
     0
 49
1.5
 74
     0
 49
-0.75
 74
     0
  0
LTYPE
  5
1166
330
5
100
AcDbSymbolTableRecord
100
AcDbLinetypeTableRecord
  2
AM_ISO02W050x2
 70
     0
  3
 _ _ _ _ _ _ _ _ _ _ _ _
 72
    65
 73
     2
 40
3.75
 49
3.0
 74
     0
 49
-0.75
 74
     0
  0
LTYPE
  5
1169
330
5
100
AcDbSymbolTableRecord
100
AcDbLinetypeTableRecord
  2
Amzigzag
 70
     0
  3
/\/-/\/-/\/-/\/-/\/-/\/
 72
    65
 73
     2
 40
11.0001
 49
0.0001
 74
     4
 75
   135
340
1168
 46
0.04
 50
0.0
 44
0.0
 45
0.0
 49
-11.0
 74
     0
  0
LTYPE
  5
116A
330
5
100
AcDbSymbolTableRecord
100
AcDbLinetypeTableRecord
  2
HIDDEN
 70
     0
  3
Hidden __ __ __ __ __ __ __ __ __ __ __ __ __ _
 72
    65
 73
     2
 40
0.375
 49
0.25
 74
     0
 49
-0.125
 74
     0
  0
LTYPE
  5
116B
330
5
100
AcDbSymbolTableRecord
100
AcDbLinetypeTableRecord
  2
CENTER
 70
     0
  3
Center ____ _ ____ _ ____ _ ____ _ ____ _ ____
 72
    65
 73
     4
 40
2.0
 49
1.25
 74
     0
 49
-0.25
 74
     0
 49
0.25
 74
     0
 49
-0.25
 74
     0
  0
LTYPE
  5
116C
330
5
100
AcDbSymbolTableRecord
100
AcDbLinetypeTableRecord
  2
CENTER2
 70
     0
  3
Center (.5x) ___ _ ___ _ ___ _ ___ _ ___ _ ___
 72
    65
 73
     4
 40
1.125
 49
0.75
 74
     0
 49
-0.125
 74
     0
 49
0.125
 74
     0
 49
-0.125
 74
     0
  0
LTYPE
  5
116D
330
5
100
AcDbSymbolTableRecord
100
AcDbLinetypeTableRecord
  2
HIDDEN2
 70
     0
  3
Hidden (.5x) _ _ _ _ _ _ _ _ _ _ _ _ _ _ _ _ _
 72
    65
 73
     2
 40
0.1875
 49
0.125
 74
     0
 49
-0.0625
 74
     0
  0
LTYPE
  5
116E
330
5
100
AcDbSymbolTableRecord
100
AcDbLinetypeTableRecord
  2
Amzigzag2
 70
     0
  3
/\/-/\/-/\/-/\/-/\/-/\/
 72
    65
 73
     2
 40
0.4401
 49
0.0001
 74
     4
 75
   135
340
1168
 46
0.0016
 50
0.0
 44
0.0
 45
0.0
 49
-0.4400000000000001
 74
     0
  0
LTYPE
  5
116F
330
5
100
AcDbSymbolTableRecord
100
AcDbLinetypeTableRecord
  2
ACANSTGB
 70
     0
  3
__ . . __ . .
 72
    65
 73
     6
 40
0.35433070866
 49
0.15748031496
 74
     0
 49
-0.03937007874
 74
     0
 49
0.03937007874
 74
     0
 49
-0.03937007874
 74
     0
 49
0.03937007874
 74
     0
 49
-0.03937007874
 74
     0
  0
LTYPE
  5
1170
330
5
100
AcDbSymbolTableRecord
100
AcDbLinetypeTableRecord
  2
ACANSTGL
 70
     0
  3
_ _ _ _ _
 72
    65
 73
     2
 40
0.11811023622
 49
0.07874015748
 74
     0
 49
-0.03937007874
 74
     0
  0
LTYPE
  5
1194
330
5
100
AcDbSymbolTableRecord
100
AcDbLinetypeTableRecord
  2
genzigzag
 70
     0
  3
/\/-/\/-/\/-/\/-/\/-/\/
 72
    65
 73
     2
 40
12.0001
 49
0.0001
 74
     4
 75
   135
340
1193
 46
2.0
 50
0.0
 44
0.0
 45
0.0
 49
-12.0
 74
     0
  0
LTYPE
  5
11E7
330
5
100
AcDbSymbolTableRecord
100
AcDbLinetypeTableRecord
  2
ACISOWELD
 70
     0
  3
_ _ _ _ _
 72
    65
 73
     2
 40
2.0
 49
2.0
 74
     0
 49
-1.0
 74
     0
  0
LTYPE
  5
11E8
330
5
100
AcDbSymbolTableRecord
100
AcDbLinetypeTableRecord
  2
ACISOTGB
 70
     0
  3
__ . . __ . .
 72
    65
 73
     6
 40
9.0
 49
4.0
 74
     0
 49
-1.0
 74
     0
 49
1.0
 74
     0
 49
-1.0
 74
     0
 49
1.0
 74
     0
 49
-1.0
 74
     0
  0
LTYPE
  5
11E9
330
5
100
AcDbSymbolTableRecord
100
AcDbLinetypeTableRecord
  2
ACISOTGL
 70
     0
  3
_ _ _ _ _
 72
    65
 73
     2
 40
3.0
 49
2.0
 74
     0
 49
-1.0
 74
     0
  0
ENDTAB
  0
TABLE
  2
LAYER
  5
2
330
0
100
AcDbSymbolTable
 70
    36
  0
LAYER
  5
E
102
{ACAD_XDICTIONARY
360
2078
102
}
330
2
100
AcDbSymbolTableRecord
100
AcDbLayerTableRecord
  2
0
 70
     0
 62
     7
  6
CONTINUOUS
370
    -3
390
1114
347
1CF2
  0
LAYER
  5
1F
102
{ACAD_XDICTIONARY
360
207A
102
}
330
2
100
AcDbSymbolTableRecord
100
AcDbLayerTableRecord
  2
5
 70
     0
 62
     3
  6
CONTINUOUS
370
    -3
390
1114
347
1CF2
  0
LAYER
  5
2A
102
{ACAD_XDICTIONARY
360
207C
102
}
330
2
100
AcDbSymbolTableRecord
100
AcDbLayerTableRecord
  2
1
 70
     0
 62
     4
  6
CONTINUOUS
370
    -3
390
1114
347
1CF2
  0
LAYER
  5
2B
330
2
100
AcDbSymbolTableRecord
100
AcDbLayerTableRecord
  2
DEFPOINTS
 70
     0
 62
     7
  6
CONTINUOUS
290
     0
370
    -3
390
1114
347
1CF2
  0
LAYER
  5
2C
102
{ACAD_XDICTIONARY
360
207E
102
}
330
2
100
AcDbSymbolTableRecord
100
AcDbLayerTableRecord
  2
GEVACTIVE
 70
     0
 62
     2
  6
CONTINUOUS
370
    -3
390
1114
347
1CF2
  0
LAYER
  5
2D
102
{ACAD_XDICTIONARY
360
2080
102
}
330
2
100
AcDbSymbolTableRecord
100
AcDbLayerTableRecord
  2
GEVINACTIVE
 70
     0
 62
     8
  6
CONTINUOUS
370
    -3
390
1114
347
1CF2
  0
LAYER
  5
2E
102
{ACAD_XDICTIONARY
360
2082
102
}
330
2
100
AcDbSymbolTableRecord
100
AcDbLayerTableRecord
  2
VCCNULL
 70
     0
 62
    -5
  6
CONTINUOUS
370
    -3
390
1114
347
1CF2
  0
LAYER
  5
2F
102
{ACAD_XDICTIONARY
360
2084
102
}
330
2
100
AcDbSymbolTableRecord
100
AcDbLayerTableRecord
  2
2
 70
     0
 62
     5
  6
CONTINUOUS
370
    -3
390
1114
347
1CF2
  0
LAYER
  5
30
102
{ACAD_XDICTIONARY
360
2086
102
}
330
2
100
AcDbSymbolTableRecord
100
AcDbLayerTableRecord
  2
2A
 70
     0
 62
     7
  6
GEN7
370
    -3
390
1114
347
1CF2
  0
LAYER
  5
31
102
{ACAD_XDICTIONARY
360
2088
102
}
330
2
100
AcDbSymbolTableRecord
100
AcDbLayerTableRecord
  2
3
 70
     0
 62
     6
  6
GEN3
370
    -3
390
1114
347
1CF2
  0
LAYER
  5
32
102
{ACAD_XDICTIONARY
360
208A
102
}
330
2
100
AcDbSymbolTableRecord
100
AcDbLayerTableRecord
  2
3A
 70
     0
 62
     6
  6
GEN3A
370
    -3
390
1114
347
1CF2
  0
LAYER
  5
33
102
{ACAD_XDICTIONARY
360
208C
102
}
330
2
100
AcDbSymbolTableRecord
100
AcDbLayerTableRecord
  2
4
 70
     0
 62
     3
  6
CONTINUOUS
370
    -3
390
1114
347
1CF2
  0
LAYER
  5
34
102
{ACAD_XDICTIONARY
360
208E
102
}
330
2
100
AcDbSymbolTableRecord
100
AcDbLayerTableRecord
  2
4A
 70
     0
 62
     3
  6
GEN4A
370
    -3
390
1114
347
1CF2
  0
LAYER
  5
35
102
{ACAD_XDICTIONARY
360
2090
102
}
330
2
100
AcDbSymbolTableRecord
100
AcDbLayerTableRecord
  2
6
 70
     0
 62
     2
  6
CONTINUOUS
370
    -3
390
1114
347
1CF2
  0
LAYER
  5
36
102
{ACAD_XDICTIONARY
360
2092
102
}
330
2
100
AcDbSymbolTableRecord
100
AcDbLayerTableRecord
  2
7
 70
     0
 62
     1
  6
GEN7
370
    -3
390
1114
347
1CF2
  0
LAYER
  5
37
102
{ACAD_XDICTIONARY
360
2094
102
}
330
2
100
AcDbSymbolTableRecord
100
AcDbLayerTableRecord
  2
7A
 70
     0
 62
     1
  6
GEN7A
370
    -3
390
1114
347
1CF2
  0
LAYER
  5
38
102
{ACAD_XDICTIONARY
360
2096
102
}
330
2
100
AcDbSymbolTableRecord
100
AcDbLayerTableRecord
  2
8
 70
     0
 62
     1
  6
CONTINUOUS
370
    -3
390
1114
347
1CF2
  0
LAYER
  5
4D
102
{ACAD_XDICTIONARY
360
2098
102
}
330
2
100
AcDbSymbolTableRecord
100
AcDbLayerTableRecord
  2
TEXT
 70
     0
 62
     7
  6
CONTINUOUS
370
    -3
390
1114
347
1CF2
  0
LAYER
  5
1D8
102
{ACAD_XDICTIONARY
360
209A
102
}
330
2
100
AcDbSymbolTableRecord
100
AcDbLayerTableRecord
  2
RAHM5
 70
     0
 62
     7
  6
CONTINUOUS
370
    -3
390
1114
347
1CF2
  0
LAYER
  5
1DD
102
{ACAD_XDICTIONARY
360
209C
102
}
330
2
100
AcDbSymbolTableRecord
100
AcDbLayerTableRecord
  2
RAHM3
 70
     0
 62
     2
  6
CONTINUOUS
370
    -3
390
1114
347
1CF2
  0
LAYER
  5
6CE
102
{ACAD_XDICTIONARY
360
209E
102
}
330
2
100
AcDbSymbolTableRecord
100
AcDbLayerTableRecord
  2
KLIN
 70
     0
 62
     1
  6
CONTINUOUS
370
    -3
390
1114
347
1CF2
  0
LAYER
  5
C12
102
{ACAD_XDICTIONARY
360
20A0
102
}
330
2
100
AcDbSymbolTableRecord
100
AcDbLayerTableRecord
  2
VIEW
 70
     1
 62
    -1
  6
CONTINUOUS
370
    -3
390
1114
347
1CF2
  0
LAYER
  5
DE2
102
{ACAD_XDICTIONARY
360
20A2
102
}
330
2
100
AcDbSymbolTableRecord
100
AcDbLayerTableRecord
  2
RAHM2
 70
     0
 62
     1
  6
CONTINUOUS
370
    -3
390
1114
347
1CF2
  0
LAYER
  5
DE3
102
{ACAD_XDICTIONARY
360
20A4
102
}
330
2
100
AcDbSymbolTableRecord
100
AcDbLayerTableRecord
  2
KOPF
 70
     0
 62
     7
  6
CONTINUOUS
370
    -3
390
1114
347
1CF2
  0
LAYER
  5
E0E
102
{ACAD_XDICTIONARY
360
20A6
102
}
330
2
100
AcDbSymbolTableRecord
100
AcDbLayerTableRecord
  2
AM_TR
 70
     0
 62
     7
  6
CONTINUOUS
370
    -3
390
1114
347
1CF2
  0
LAYER
  5
E0F
102
{ACAD_XDICTIONARY
360
20A8
102
}
330
2
100
AcDbSymbolTableRecord
100
AcDbLayerTableRecord
  2
AM_BM
 70
     0
 62
     7
  6
CONTINUOUS
370
    -3
390
1114
347
1CF2
  0
LAYER
  5
E10
102
{ACAD_XDICTIONARY
360
20AA
102
}
330
2
100
AcDbSymbolTableRecord
100
AcDbLayerTableRecord
  2
AM_BL
 70
     0
 62
     7
  6
CONTINUOUS
370
    -3
390
1114
347
1CF2
  0
LAYER
  5
E11
102
{ACAD_XDICTIONARY
360
20AC
102
}
330
2
100
AcDbSymbolTableRecord
100
AcDbLayerTableRecord
  2
AM_VIEWS
 70
     0
 62
    -7
  6
CONTINUOUS
370
    -3
390
1114
347
1CF2
  0
LAYER
  5
E12
102
{ACAD_XDICTIONARY
360
20AE
102
}
330
2
100
AcDbSymbolTableRecord
100
AcDbLayerTableRecord
  2
AM_PARDIM
 70
     0
 62
     3
  6
CONTINUOUS
370
    -3
390
1114
347
1CF2
  0
LAYER
  5
E13
102
{ACAD_XDICTIONARY
360
20B0
102
}
330
2
100
AcDbSymbolTableRecord
100
AcDbLayerTableRecord
  2
AM_REFDIM
 70
     0
 62
     1
  6
CONTINUOUS
370
    -3
390
1114
347
1CF2
  0
LAYER
  5
E14
102
{ACAD_XDICTIONARY
360
20B2
102
}
330
2
100
AcDbSymbolTableRecord
100
AcDbLayerTableRecord
  2
AM_VIS
 70
     0
 62
     7
  6
CONTINUOUS
370
    -3
390
1114
347
1CF2
  0
LAYER
  5
E15
102
{ACAD_XDICTIONARY
360
20B4
102
}
330
2
100
AcDbSymbolTableRecord
100
AcDbLayerTableRecord
  2
AM_HID
 70
     0
 62
     6
  6
GEN3
370
    -3
390
1114
347
1CF2
  0
LAYER
  5
E16
102
{ACAD_XDICTIONARY
360
20B6
102
}
330
2
100
AcDbSymbolTableRecord
100
AcDbLayerTableRecord
  2
AM_SUPPR
 70
     0
 62
     6
  6
CONTINUOUS
370
    -3
390
1114
347
1CF2
  0
LAYER
  5
11EA
102
{ACAD_XDICTIONARY
360
20B8
102
}
330
2
100
AcDbSymbolTableRecord
100
AcDbLayerTableRecord
  2
AM_0
 70
     0
 62
     7
  6
CONTINUOUS
370
    50
390
1114
347
1CF2
  0
LAYER
  5
11EB
102
{ACAD_XDICTIONARY
360
20BA
102
}
330
2
100
AcDbSymbolTableRecord
100
AcDbLayerTableRecord
  2
AM_5
 70
     0
 62
     3
  6
CONTINUOUS
370
    25
390
1114
347
1CF2
  0
LAYER
  5
1779
102
{ACAD_XDICTIONARY
360
20BC
102
}
330
2
100
AcDbSymbolTableRecord
100
AcDbLayerTableRecord
  2
AM_1
 70
     0
 62
     4
  6
CONTINUOUS
370
    25
390
1114
347
1CF2
  0
ENDTAB
  0
TABLE
  2
STYLE
  5
3
330
0
100
AcDbSymbolTable
 70
    15
  0
STYLE
  5
F
330
3
100
AcDbSymbolTableRecord
100
AcDbTextStyleTableRecord
  2
STANDARD
 70
     0
 40
0.0
 41
1.0
 50
0.0
 71
     0
 42
2.5
  3
ISOCP
  4

  0
STYLE
  5
39
330
3
100
AcDbSymbolTableRecord
100
AcDbTextStyleTableRecord
  2
EUCLID01
 70
     0
 40
0.0
 41
1.0
 50
0.0
 71
     0
 42
3.5
  3
simplex.shx
  4

  0
STYLE
  5
3A
330
3
100
AcDbSymbolTableRecord
100
AcDbTextStyleTableRecord
  2
EUCLID02
 70
     0
 40
0.0
 41
1.0
 50
0.0
 71
     0
 42
3.5
  3
simplex.shx
  4

  0
STYLE
  5
3B
330
3
100
AcDbSymbolTableRecord
100
AcDbTextStyleTableRecord
  2
EUCLID03
 70
     0
 40
0.0
 41
1.0
 50
0.0
 71
     0
 42
3.5
  3
simplex.shx
  4

  0
STYLE
  5
3C
330
3
100
AcDbSymbolTableRecord
100
AcDbTextStyleTableRecord
  2
EUCLID04
 70
     0
 40
0.0
 41
1.0
 50
0.0
 71
     0
 42
3.5
  3
simplex.shx
  4

  0
STYLE
  5
3D
330
3
100
AcDbSymbolTableRecord
100
AcDbTextStyleTableRecord
  2
EUCLID05
 70
     0
 40
0.0
 41
1.0
 50
0.0
 71
     0
 42
3.5
  3
simplex.shx
  4

  0
STYLE
  5
3E
330
3
100
AcDbSymbolTableRecord
100
AcDbTextStyleTableRecord
  2
EUCLID06
 70
     0
 40
0.0
 41
1.0
 50
0.0
 71
     0
 42
3.5
  3
simplex.shx
  4

  0
STYLE
  5
3F
330
3
100
AcDbSymbolTableRecord
100
AcDbTextStyleTableRecord
  2
EUCLID07
 70
     0
 40
0.0
 41
1.0
 50
0.0
 71
     0
 42
3.5
  3
simplex.shx
  4

  0
STYLE
  5
E17
330
3
100
AcDbSymbolTableRecord
100
AcDbTextStyleTableRecord
  2
ACANSTS
 70
     0
 40
1.0
 41
1.0
 50
0.0
 71
     0
 42
2.5
  3
romans.shx
  4

  0
STYLE
  5
E18
330
3
100
AcDbSymbolTableRecord
100
AcDbTextStyleTableRecord
  2
ACANSGDT
 70
     0
 40
0.0
 41
1.0
 50
0.0
 71
     0
 42
2.5
  3
amgdtans.shx
  4

  0
STYLE
  5
1168
330
3
100
AcDbSymbolTableRecord
100
AcDbTextStyleTableRecord
  2

 70
     1
 40
0.0
 41
1.0
 50
0.0
 71
     0
 42
2.5
  3
ltypeshp.shx
  4

  0
STYLE
  5
1193
330
3
100
AcDbSymbolTableRecord
100
AcDbTextStyleTableRecord
  2

 70
     1
 40
0.0
 41
1.0
 50
0.0
 71
     0
 42
2.5
  3
genltshp.shx
  4

  0
STYLE
  5
11EC
330
3
100
AcDbSymbolTableRecord
100
AcDbTextStyleTableRecord
  2
ACISOTS
 70
     0
 40
1.0
 41
1.0
 50
0.0
 71
     0
 42
3.5
  3
isocp.shx
  4

  0
STYLE
  5
11ED
330
3
100
AcDbSymbolTableRecord
100
AcDbTextStyleTableRecord
  2
ACISOGDT
 70
     0
 40
0.0
 41
1.0
 50
0.0
 71
     0
 42
3.5
  3
amgdt.shx
  4

  0
ENDTAB
  0
TABLE
  2
VIEW
  5
6
330
0
100
AcDbSymbolTable
 70
     6
  0
VIEW
  5
DFE
330
6
100
AcDbSymbolTableRecord
100
AcDbViewTableRecord
  2
GEN1
 70
     1
 40
141.5
 10
112.0062034739454
 20
212.25
 41
224.0124069478909
 11
0.0
 21
0.0
 31
1.0
 12
0.0
 22
0.0
 32
0.0
 42
50.0
 43
0.0
 44
0.0
 50
0.0
 71
     0
281
     0
 72
     0
 73
     0
348
1CF9
  0
VIEW
  5
DFF
330
6
100
AcDbSymbolTableRecord
100
AcDbViewTableRecord
  2
GEN2
 70
     1
 40
141.5
 10
70.8737965260546
 20
212.25
 41
224.0124069478909
 11
0.0
 21
0.0
 31
1.0
 12
0.0
 22
0.0
 32
0.0
 42
50.0
 43
0.0
 44
0.0
 50
0.0
 71
     0
281
     0
 72
     0
 73
     0
348
1CF9
  0
VIEW
  5
E00
330
6
100
AcDbSymbolTableRecord
100
AcDbViewTableRecord
  2
GEN3
 70
     1
 40
141.5
 10
112.0062034739454
 20
70.75
 41
224.0124069478909
 11
0.0
 21
0.0
 31
1.0
 12
0.0
 22
0.0
 32
0.0
 42
50.0
 43
0.0
 44
0.0
 50
0.0
 71
     0
281
     0
 72
     0
 73
     0
348
1CF9
  0
VIEW
  5
E01
330
6
100
AcDbSymbolTableRecord
100
AcDbViewTableRecord
  2
GEN4
 70
     1
 40
141.5
 10
70.8737965260546
 20
70.75
 41
224.0124069478909
 11
0.0
 21
0.0
 31
1.0
 12
0.0
 22
0.0
 32
0.0
 42
50.0
 43
0.0
 44
0.0
 50
0.0
 71
     0
281
     0
 72
     0
 73
     0
348
1CF9
  0
VIEW
  5
E02
330
6
100
AcDbSymbolTableRecord
100
AcDbViewTableRecord
  2
GEN5
 70
     1
 40
141.5
 10
91.44000000000003
 20
141.5
 41
224.0124069478909
 11
0.0
 21
0.0
 31
1.0
 12
0.0
 22
0.0
 32
0.0
 42
50.0
 43
0.0
 44
0.0
 50
0.0
 71
     0
281
     0
 72
     0
 73
     0
348
1CF9
  0
VIEW
  5
E03
330
6
100
AcDbSymbolTableRecord
100
AcDbViewTableRecord
  2
GEN6
 70
     1
 40
282.9971700000001
 10
91.44000000000003
 20
141.5
 41
448.0203336476427
 11
0.0
 21
0.0
 31
1.0
 12
0.0
 22
0.0
 32
0.0
 42
50.0
 43
0.0
 44
0.0
 50
0.0
 71
     0
281
     0
 72
     0
 73
     0
348
1CF9
  0
ENDTAB
  0
TABLE
  2
UCS
  5
7
330
0
100
AcDbSymbolTable
 70
     0
  0
ENDTAB
  0
TABLE
  2
APPID
  5
9
330
0
100
AcDbSymbolTable
 70
    45
  0
APPID
  5
10
330
9
100
AcDbSymbolTableRecord
100
AcDbRegAppTableRecord
  2
ACAD
 70
     0
  0
APPID
  5
34A
330
9
100
AcDbSymbolTableRecord
100
AcDbRegAppTableRecord
  2
GENIUS_GENCFG_13
 70
     0
1001
GENIUS_GENCFG0_13
1000
GEN@INFO_POS@XLATE
1001
GENIUS_GENCFG1_13
1000
GEN@INFO_POS
1001
GENIUS_GENCFG2_13
1000
GEN@LAYER@DEFS
1001
GENIUS_GENCFG3_13
1000
GEN@LAYER@ENTSORT
1001
GENIUS_GENCFG4_13
1000
GEN
1001
GENIUS_GEVCFG0_13
1000
GEV
1001
GENIUS_GE3CFG0_13
1000
GE3
  0
APPID
  5
34B
330
9
100
AcDbSymbolTableRecord
100
AcDbRegAppTableRecord
  2
GENIUS_GENCFG0_13
 70
     0
1001
GENIUS_GENCFG_13
1071
942681172
1000
34B
1000
GEN@INFO_POS@XLATE
1070
     7
1000
GenCfgObject
1000
GenCfgShort
1000
GenCfgReal
1000
GenCfgBool
1000
GenCfgString
1000
GenCfgDim
1000
GenCfgAttrInf
1000
ACADM_BOM
1070
     0
1002
{
1000
ACADM_BOM1
1070
     0
1002
{
1000
ITEM
1070
     4
1000
1
1002
{
1002
}
1000
QTY
1070
     4
1000
2
1002
{
1002
}
1000
PALINAME
1070
     4
1000
3
1002
{
1002
}
1000
DESCR
1070
     4
1000
5
1002
{
1002
}
1000
STANDARD
1070
     4
1000
7
1002
{
1002
}
1000
MATERIAL
1070
     4
1000
9
1002
{
1002
}
1000
MASS
1070
     4
1000
12
1002
{
1002
}
1000
NOTE
1070
     4
1000
24
1002
{
1002
}
1000
VENDOR
1070
     4
1000
25
1002
{
1002
}
1000
NAME
1070
     4
1000
28
1002
{
1002
}
1002
}
1002
}
1000
INFOPOINTS
1070
     0
1002
{
1000
GENINF14
1070
     0
1002
{
1000
2GENINF
1070
     4
1000
2
1002
{
1002
}
1000
3GENINF
1070
     4
1000
3
1002
{
1002
}
1000
4GENINF
1070
     4
1000
4
1002
{
1002
}
1000
5GENINF
1070
     4
1000
5
1002
{
1002
}
1000
6GENINF
1070
     4
1000
6
1002
{
1002
}
1000
7GENINF
1070
     4
1000
7
1002
{
1002
}
1000
8GENINF
1070
     4
1000
8
1002
{
1002
}
1000
9GENINF
1070
     4
1000
9
1002
{
1002
}
1000
10GENINF
1070
     4
1000
10
1002
{
1002
}
1000
11GENINF
1070
     4
1000
11
1002
{
1002
}
1000
12GENINF
1070
     4
1000
12
1002
{
1002
}
1000
13GENINF
1070
     4
1000
13
1002
{
1002
}
1000
14GENINF
1070
     4
1000
14
1002
{
1002
}
1000
15GENINF
1070
     4
1000
15
1002
{
1002
}
1000
16GENINF
1070
     4
1000
16
1002
{
1002
}
1000
17GENINF
1070
     4
1000
17
1002
{
1002
}
1000
18GENINF
1070
     4
1000
18
1002
{
1002
}
1000
19GENINF
1070
     4
1000
19
1002
{
1002
}
1000
20GENINF
1070
     4
1000
20
1002
{
1002
}
1000
21GENINF
1070
     4
1000
21
1002
{
1002
}
1000
22GENINF
1070
     4
1000
22
1002
{
1002
}
1000
23GENINF
1070
     4
1000
23
1002
{
1002
}
1000
24GENINF
1070
     4
1000
24
1002
{
1002
}
1000
25GENINF
1070
     4
1000
25
1002
{
1002
}
1000
26GENINF
1070
     4
1000
26
1002
{
1002
}
1000
27GENINF
1070
     4
1000
27
1002
{
1002
}
1000
0GENINF
1070
     4
1000
0
1002
{
1002
}
1002
}
1000
GENINF13
1070
     0
1002
{
1000
2GENINF
1070
     4
1000
2
1002
{
1002
}
1000
3GENINF
1070
     4
1000
3
1002
{
1002
}
1000
4GENINF
1070
     4
1000
4
1002
{
1002
}
1000
5GENINF
1070
     4
1000
5
1002
{
1002
}
1000
6GENINF
1070
     4
1000
6
1002
{
1002
}
1000
7GENINF
1070
     4
1000
7
1002
{
1002
}
1000
8GENINF
1070
     4
1000
8
1002
{
1002
}
1000
9GENINF
1070
     4
1000
9
1002
{
1002
}
1000
10GENINF
1070
     4
1000
10
1002
{
1002
}
1000
11GENINF
1070
     4
1000
11
1002
{
1002
}
1000
12GENINF
1070
     4
1000
12
1002
{
1002
}
1000
13GENINF
1070
     4
1000
13
1002
{
1002
}
1000
14GENINF
1070
     4
1000
14
1002
{
1002
}
1000
15GENINF
1070
     4
1000
15
1002
{
1002
}
1000
16GENINF
1070
     4
1000
16
1002
{
1002
}
1000
17GENINF
1070
     4
1000
17
1002
{
1002
}
1000
18GENINF
1070
     4
1000
18
1002
{
1002
}
1000
19GENINF
1070
     4
1000
19
1002
{
1002
}
1000
20GENINF
1070
     4
1000
20
1002
{
1002
}
1000
21GENINF
1070
     4
1000
21
1002
{
1002
}
1000
22GENINF
1070
     4
1000
22
1002
{
1002
}
1000
23GENINF
1070
     4
1000
23
1002
{
1002
}
1000
24GENINF
1070
     4
1000
24
1002
{
1002
}
1000
0GENINF
1070
     4
1000
0
1002
{
1002
}
1002
}
1000
GENINFO
1070
     0
1002
{
1000
3GENINF
1070
     4
1000
3
1002
{
1002
}
1000
4GENINF
1070
     4
1000
4
1002
{
1002
}
1000
5GENINF
1070
     4
1000
5
1002
{
1002
}
1000
6GENINF
1070
     4
1000
6
1002
{
1002
}
1000
7GENINF
1070
     4
1000
7
1002
{
1002
}
1000
8GENINF
1070
     4
1000
8
1002
{
1002
}
1000
9GENINF
1070
     4
1000
9
1002
{
1002
}
1000
10GENINF
1070
     4
1000
10
1002
{
1002
}
1000
11GENINF
1070
     4
1000
11
1002
{
1002
}
1000
12GENINF
1070
     4
1000
12
1002
{
1002
}
1000
13GENINF
1070
     4
1000
13
1002
{
1002
}
1000
14GENINF
1070
     4
1000
14
1002
{
1002
}
1000
15GENINF
1070
     4
1000
15
1002
{
1002
}
1000
16GENINF
1070
     4
1000
16
1002
{
1002
}
1000
17GENINF
1070
     4
1000
17
1002
{
1002
}
1000
18GENINF
1070
     4
1000
18
1002
{
1002
}
1000
19GENINF
1070
     4
1000
19
1002
{
1002
}
1000
20GENINF
1070
     4
1000
20
1002
{
1002
}
1000
21GENINF
1070
     4
1000
21
1002
{
1002
}
1000
22GENINF
1070
     4
1000
22
1002
{
1002
}
1002
}
1000
DININFO
1070
     0
1002
{
1000
ST-NAME1
1070
     4
1000
5
1002
{
1002
}
1000
ST-NAME2
1070
     4
1000
6
1002
{
1002
}
1000
ST-NORM1
1070
     4
1000
7
1002
{
1002
}
1000
ST-NORM2
1070
     4
1000
8
1002
{
1002
}
1000
ST-MAT1
1070
     4
1000
9
1002
{
1002
}
1000
ST-MAT2
1070
     4
1000
10
1002
{
1002
}
1002
}
1002
}
1000
POS_NUMBERS
1070
     0
1002
{
1000
GENPOS14
1070
     0
1002
{
1000
1GENPOS
1070
     4
1000
1
1002
{
1002
}
1000
2GENPOS
1070
     4
1000
2
1002
{
1002
}
1000
3GENPOS
1070
     4
1000
3
1002
{
1002
}
1000
4GENPOS
1070
     4
1000
4
1002
{
1002
}
1000
5GENPOS
1070
     4
1000
5
1002
{
1002
}
1000
6GENPOS
1070
     4
1000
6
1002
{
1002
}
1000
7GENPOS
1070
     4
1000
7
1002
{
1002
}
1000
8GENPOS
1070
     4
1000
8
1002
{
1002
}
1000
9GENPOS
1070
     4
1000
9
1002
{
1002
}
1000
10GENPOS
1070
     4
1000
10
1002
{
1002
}
1000
11GENPOS
1070
     4
1000
11
1002
{
1002
}
1000
12GENPOS
1070
     4
1000
12
1002
{
1002
}
1000
13GENPOS
1070
     4
1000
13
1002
{
1002
}
1000
14GENPOS
1070
     4
1000
14
1002
{
1002
}
1000
15GENPOS
1070
     4
1000
15
1002
{
1002
}
1000
16GENPOS
1070
     4
1000
16
1002
{
1002
}
1000
17GENPOS
1070
     4
1000
17
1002
{
1002
}
1000
18GENPOS
1070
     4
1000
18
1002
{
1002
}
1000
19GENPOS
1070
     4
1000
19
1002
{
1002
}
1000
20GENPOS
1070
     4
1000
20
1002
{
1002
}
1000
21GENPOS
1070
     4
1000
21
1002
{
1002
}
1000
22GENPOS
1070
     4
1000
22
1002
{
1002
}
1000
23GENPOS
1070
     4
1000
23
1002
{
1002
}
1000
24GENPOS
1070
     4
1000
24
1002
{
1002
}
1000
25GENPOS
1070
     4
1000
25
1002
{
1002
}
1000
26GENPOS
1070
     4
1000
26
1002
{
1002
}
1000
27GENPOS
1070
     4
1000
27
1002
{
1002
}
1000
0GENPOS
1070
     4
1000
0
1002
{
1002
}
1002
}
1000
GENPOS13
1070
     0
1002
{
1000
1GENPOS
1070
     4
1000
1
1002
{
1002
}
1000
2GENPOS
1070
     4
1000
2
1002
{
1002
}
1000
3GENPOS
1070
     4
1000
3
1002
{
1002
}
1000
4GENPOS
1070
     4
1000
4
1002
{
1002
}
1000
5GENPOS
1070
     4
1000
5
1002
{
1002
}
1000
6GENPOS
1070
     4
1000
6
1002
{
1002
}
1000
7GENPOS
1070
     4
1000
7
1002
{
1002
}
1000
8GENPOS
1070
     4
1000
8
1002
{
1002
}
1000
9GENPOS
1070
     4
1000
9
1002
{
1002
}
1000
10GENPOS
1070
     4
1000
10
1002
{
1002
}
1000
11GENPOS
1070
     4
1000
11
1002
{
1002
}
1000
12GENPOS
1070
     4
1000
12
1002
{
1002
}
1000
13GENPOS
1070
     4
1000
13
1002
{
1002
}
1000
14GENPOS
1070
     4
1000
14
1002
{
1002
}
1000
15GENPOS
1070
     4
1000
15
1002
{
1002
}
1000
16GENPOS
1070
     4
1000
16
1002
{
1002
}
1000
17GENPOS
1070
     4
1000
17
1002
{
1002
}
1000
18GENPOS
1070
     4
1000
18
1002
{
1002
}
1000
19GENPOS
1070
     4
1000
19
1002
{
1002
}
1000
20GENPOS
1070
     4
1000
20
1002
{
1002
}
1000
21GENPOS
1070
     4
1000
21
1002
{
1002
}
1000
22GENPOS
1070
     4
1000
22
1002
{
1002
}
1000
23GENPOS
1070
     4
1000
23
1002
{
1002
}
1000
24GENPOS
1070
     4
1000
24
1002
{
1002
}
1000
0GENPOS
1070
     4
1000
0
1002
{
1002
}
1002
}
1000
GENPOS
1070
     0
1002
{
1000
1GENPOS
1070
     4
1000
1
1002
{
1002
}
1000
2GENPOS
1070
     4
1000
2
1002
{
1002
}
1000
3GENPOS
1070
     4
1000
3
1002
{
1002
}
1000
4GENPOS
1070
     4
1000
4
1002
{
1002
}
1000
5GENPOS
1070
     4
1000
5
1002
{
1002
}
1000
6GENPOS
1070
     4
1000
6
1002
{
1002
}
1000
7GENPOS
1070
     4
1000
7
1002
{
1002
}
1000
8GENPOS
1070
     4
1000
8
1002
{
1002
}
1000
9GENPOS
1070
     4
1000
9
1002
{
1002
}
1000
10GENPOS
1070
     4
1000
10
1002
{
1002
}
1000
11GENPOS
1070
     4
1000
11
1002
{
1002
}
1000
12GENPOS
1070
     4
1000
12
1002
{
1002
}
1000
13GENPOS
1070
     4
1000
13
1002
{
1002
}
1000
14GENPOS
1070
     4
1000
14
1002
{
1002
}
1000
15GENPOS
1070
     4
1000
15
1002
{
1002
}
1000
16GENPOS
1070
     4
1000
16
1002
{
1002
}
1000
17GENPOS
1070
     4
1000
17
1002
{
1002
}
1000
18GENPOS
1070
     4
1000
18
1002
{
1002
}
1000
19GENPOS
1070
     4
1000
19
1002
{
1002
}
1000
20GENPOS
1070
     4
1000
20
1002
{
1002
}
1000
21GENPOS
1070
     4
1000
21
1002
{
1002
}
1000
22GENPOS
1070
     4
1000
22
1002
{
1002
}
1000
23GENPOS
1070
     4
1000
23
1002
{
1002
}
1002
}
1000
DIN985
1070
     0
1002
{
1000
POSITION
1070
     4
1000
1
1002
{
1002
}
1000
MENGE
1070
     4
1000
2
1002
{
1002
}
1000
BLATT
1070
     4
1000
3
1002
{
1002
}
1000
BENENN
1070
     4
1000
5
1002
{
1002
}
1000
BENENN2
1070
     4
1000
6
1002
{
1002
}
1000
NORM
1070
     4
1000
7
1002
{
1002
}
1000
NORM2
1070
     4
1000
8
1002
{
1002
}
1000
WERKSTOFF
1070
     4
1000
9
1002
{
1002
}
1000
WERKSTOFF2
1070
     4
1000
10
1002
{
1002
}
1002
}
1000
DIN986
1070
     0
1002
{
1000
POSITION
1070
     4
1000
1
1002
{
1002
}
1000
MENGE
1070
     4
1000
2
1002
{
1002
}
1000
BLATT
1070
     4
1000
3
1002
{
1002
}
1000
BENENN
1070
     4
1000
5
1002
{
1002
}
1000
BENENN2
1070
     4
1000
6
1002
{
1002
}
1000
NORM
1070
     4
1000
7
1002
{
1002
}
1000
NORM2
1070
     4
1000
8
1002
{
1002
}
1000
WERKSTOFF
1070
     4
1000
9
1002
{
1002
}
1000
WERKSTOFF2
1070
     4
1000
10
1002
{
1002
}
1002
}
1000
DIN987
1070
     0
1002
{
1000
POSITION
1070
     4
1000
1
1002
{
1002
}
1000
MENGE
1070
     4
1000
2
1002
{
1002
}
1000
BLATT
1070
     4
1000
3
1002
{
1002
}
1000
BENENN
1070
     4
1000
5
1002
{
1002
}
1000
BENENN2
1070
     4
1000
6
1002
{
1002
}
1000
NORM
1070
     4
1000
7
1002
{
1002
}
1000
NORM2
1070
     4
1000
8
1002
{
1002
}
1000
WERKSTOFF
1070
     4
1000
9
1002
{
1002
}
1000
WERKSTOFF2
1070
     4
1000
10
1002
{
1002
}
1002
}
1002
}
  0
APPID
  5
34C
330
9
100
AcDbSymbolTableRecord
100
AcDbRegAppTableRecord
  2
GENIUS_GENCFG1_13
 70
     0
1001
GENIUS_GENCFG_13
1071
942681172
1000
34C
1000
GEN@INFO_POS
1070
     7
1000
GenCfgObject
1000
GenCfgShort
1000
GenCfgReal
1000
GenCfgBool
1000
GenCfgString
1000
GenCfgDim
1000
GenCfgAttrInf
1000
DescrText
1070
     4
1000
5, ,6, ,7, ,8
1002
{
1002
}
1000
DescrText2
1070
     4
1000
26
1002
{
1002
}
1000
VisibleAttr1
1070
     4
1000
1
1002
{
1002
}
1000
VisibleAttr2
1070
     4
1000
26
1002
{
1002
}
1000
UpdateBlock
1070
     3
1070
     1
1002
{
1002
}
1000
UsedAcadMBom
1070
     4
1000
ACADM_BOM1
1002
{
1002
}
1000
AutoUpdAcadMBom
1070
     3
1070
     1
1002
{
1002
}
1000
Attrib
1070
     0
1002
{
1000
0
1070
     6
1002
{
1000
Prompt
1070
     4
1000
(genmsg gendwg 103)
1002
{
1002
}
1000
Value
1070
     4
1000

1002
{
1002
}
1000
EditFlag
1070
     1
1070
     0
1002
{
1002
}
1000
PosInDDATTE
1070
     1
1070
    27
1002
{
1002
}
1000
FieldLen
1070
     1
1070
    -1
1002
{
1002
}
1002
}
1000
1
1070
     6
1002
{
1000
Prompt
1070
     4
1000
(genmsg gendwg 31)
1002
{
1002
}
1000
Value
1070
     4
1000
1
1002
{
1002
}
1000
EditFlag
1070
     1
1070
     1
1002
{
1002
}
1000
PosInDDATTE
1070
     1
1070
     1
1002
{
1002
}
1000
FieldLen
1070
     1
1070
    -1
1002
{
1002
}
1002
}
1000
2
1070
     6
1002
{
1000
Prompt
1070
     4
1000
(genmsg gendwg 32)
1002
{
1002
}
1000
Value
1070
     4
1000
1
1002
{
1002
}
1000
EditFlag
1070
     1
1070
     1
1002
{
1002
}
1000
PosInDDATTE
1070
     1
1070
     2
1002
{
1002
}
1000
FieldLen
1070
     1
1070
    -1
1002
{
1002
}
1002
}
1000
3
1070
     6
1002
{
1000
Prompt
1070
     4
1000
(genmsg gendwg 33)
1002
{
1002
}
1000
Value
1070
     4
1000

1002
{
1002
}
1000
EditFlag
1070
     1
1070
     1
1002
{
1002
}
1000
PosInDDATTE
1070
     1
1070
     3
1002
{
1002
}
1000
FieldLen
1070
     1
1070
    -1
1002
{
1002
}
1002
}
1000
4
1070
     6
1002
{
1000
Prompt
1070
     4
1000
(genmsg gendwg 34)
1002
{
1002
}
1000
Value
1070
     4
1000

1002
{
1002
}
1000
EditFlag
1070
     1
1070
     1
1002
{
1002
}
1000
PosInDDATTE
1070
     1
1070
     4
1002
{
1002
}
1000
FieldLen
1070
     1
1070
    -1
1002
{
1002
}
1002
}
1000
5
1070
     6
1002
{
1000
Prompt
1070
     4
1000
(genmsg gendwg 35)
1002
{
1002
}
1000
Value
1070
     4
1000

1002
{
1002
}
1000
EditFlag
1070
     1
1070
     1
1002
{
1002
}
1000
PosInDDATTE
1070
     1
1070
     5
1002
{
1002
}
1000
FieldLen
1070
     1
1070
    -1
1002
{
1002
}
1002
}
1000
6
1070
     6
1002
{
1000
Prompt
1070
     4
1000
(genmsg gendwg 36)
1002
{
1002
}
1000
Value
1070
     4
1000

1002
{
1002
}
1000
EditFlag
1070
     1
1070
     1
1002
{
1002
}
1000
PosInDDATTE
1070
     1
1070
     6
1002
{
1002
}
1000
FieldLen
1070
     1
1070
    -1
1002
{
1002
}
1002
}
1000
7
1070
     6
1002
{
1000
Prompt
1070
     4
1000
(genmsg gendwg 37)
1002
{
1002
}
1000
Value
1070
     4
1000

1002
{
1002
}
1000
EditFlag
1070
     1
1070
     1
1002
{
1002
}
1000
PosInDDATTE
1070
     1
1070
     7
1002
{
1002
}
1000
FieldLen
1070
     1
1070
    -1
1002
{
1002
}
1002
}
1000
8
1070
     6
1002
{
1000
Prompt
1070
     4
1000
(genmsg gendwg 38)
1002
{
1002
}
1000
Value
1070
     4
1000

1002
{
1002
}
1000
EditFlag
1070
     1
1070
     1
1002
{
1002
}
1000
PosInDDATTE
1070
     1
1070
     8
1002
{
1002
}
1000
FieldLen
1070
     1
1070
    -1
1002
{
1002
}
1002
}
1000
9
1070
     6
1002
{
1000
Prompt
1070
     4
1000
(genmsg gendwg 39)
1002
{
1002
}
1000
Value
1070
     4
1000

1002
{
1002
}
1000
EditFlag
1070
     1
1070
     1
1002
{
1002
}
1000
PosInDDATTE
1070
     1
1070
     9
1002
{
1002
}
1000
FieldLen
1070
     1
1070
    -1
1002
{
1002
}
1002
}
1000
10
1070
     6
1002
{
1000
Prompt
1070
     4
1000
(genmsg gendwg 40)
1002
{
1002
}
1000
Value
1070
     4
1000

1002
{
1002
}
1000
EditFlag
1070
     1
1070
     1
1002
{
1002
}
1000
PosInDDATTE
1070
     1
1070
    10
1002
{
1002
}
1000
FieldLen
1070
     1
1070
    -1
1002
{
1002
}
1002
}
1000
11
1070
     6
1002
{
1000
Prompt
1070
     4
1000
(genmsg gendwg 41)
1002
{
1002
}
1000
Value
1070
     4
1000

1002
{
1002
}
1000
EditFlag
1070
     1
1070
     1
1002
{
1002
}
1000
PosInDDATTE
1070
     1
1070
    11
1002
{
1002
}
1000
FieldLen
1070
     1
1070
    -1
1002
{
1002
}
1002
}
1000
12
1070
     6
1002
{
1000
Prompt
1070
     4
1000
(genmsg gendwg 42)
1002
{
1002
}
1000
Value
1070
     4
1000

1002
{
1002
}
1000
EditFlag
1070
     1
1070
     1
1002
{
1002
}
1000
PosInDDATTE
1070
     1
1070
    12
1002
{
1002
}
1000
FieldLen
1070
     1
1070
    -1
1002
{
1002
}
1002
}
1000
13
1070
     6
1002
{
1000
Prompt
1070
     4
1000
(genmsg gendwg 43)
1002
{
1002
}
1000
Value
1070
     4
1000

1002
{
1002
}
1000
EditFlag
1070
     1
1070
     1
1002
{
1002
}
1000
PosInDDATTE
1070
     1
1070
    13
1002
{
1002
}
1000
FieldLen
1070
     1
1070
    -1
1002
{
1002
}
1002
}
1000
14
1070
     6
1002
{
1000
Prompt
1070
     4
1000
(genmsg gendwg 44)
1002
{
1002
}
1000
Value
1070
     4
1000

1002
{
1002
}
1000
EditFlag
1070
     1
1070
     1
1002
{
1002
}
1000
PosInDDATTE
1070
     1
1070
    14
1002
{
1002
}
1000
FieldLen
1070
     1
1070
    -1
1002
{
1002
}
1002
}
1000
15
1070
     6
1002
{
1000
Prompt
1070
     4
1000
(genmsg gendwg 45)
1002
{
1002
}
1000
Value
1070
     4
1000

1002
{
1002
}
1000
EditFlag
1070
     1
1070
     1
1002
{
1002
}
1000
PosInDDATTE
1070
     1
1070
    15
1002
{
1002
}
1000
FieldLen
1070
     1
1070
    -1
1002
{
1002
}
1002
}
1000
16
1070
     6
1002
{
1000
Prompt
1070
     4
1000
(genmsg gendwg 46)
1002
{
1002
}
1000
Value
1070
     4
1000

1002
{
1002
}
1000
EditFlag
1070
     1
1070
     1
1002
{
1002
}
1000
PosInDDATTE
1070
     1
1070
    16
1002
{
1002
}
1000
FieldLen
1070
     1
1070
    -1
1002
{
1002
}
1002
}
1000
17
1070
     6
1002
{
1000
Prompt
1070
     4
1000
(genmsg gendwg 47)
1002
{
1002
}
1000
Value
1070
     4
1000

1002
{
1002
}
1000
EditFlag
1070
     1
1070
     1
1002
{
1002
}
1000
PosInDDATTE
1070
     1
1070
    17
1002
{
1002
}
1000
FieldLen
1070
     1
1070
    -1
1002
{
1002
}
1002
}
1000
18
1070
     6
1002
{
1000
Prompt
1070
     4
1000
(genmsg gendwg 48)
1002
{
1002
}
1000
Value
1070
     4
1000

1002
{
1002
}
1000
EditFlag
1070
     1
1070
     1
1002
{
1002
}
1000
PosInDDATTE
1070
     1
1070
    18
1002
{
1002
}
1000
FieldLen
1070
     1
1070
    -1
1002
{
1002
}
1002
}
1000
19
1070
     6
1002
{
1000
Prompt
1070
     4
1000
(genmsg gendwg 99)
1002
{
1002
}
1000
Value
1070
     4
1000

1002
{
1002
}
1000
EditFlag
1070
     1
1070
     1
1002
{
1002
}
1000
PosInDDATTE
1070
     1
1070
    19
1002
{
1002
}
1000
FieldLen
1070
     1
1070
    -1
1002
{
1002
}
1002
}
1000
20
1070
     6
1002
{
1000
Prompt
1070
     4
1000
(genmsg gendwg 100)
1002
{
1002
}
1000
Value
1070
     4
1000

1002
{
1002
}
1000
EditFlag
1070
     1
1070
     1
1002
{
1002
}
1000
PosInDDATTE
1070
     1
1070
    20
1002
{
1002
}
1000
FieldLen
1070
     1
1070
    -1
1002
{
1002
}
1002
}
1000
21
1070
     6
1002
{
1000
Prompt
1070
     4
1000
(genmsg gendwg 101)
1002
{
1002
}
1000
Value
1070
     4
1000

1002
{
1002
}
1000
EditFlag
1070
     1
1070
     1
1002
{
1002
}
1000
PosInDDATTE
1070
     1
1070
    21
1002
{
1002
}
1000
FieldLen
1070
     1
1070
    -1
1002
{
1002
}
1002
}
1000
22
1070
     6
1002
{
1000
Prompt
1070
     4
1000
(genmsg gendwg 102)
1002
{
1002
}
1000
Value
1070
     4
1000

1002
{
1002
}
1000
EditFlag
1070
     1
1070
     1
1002
{
1002
}
1000
PosInDDATTE
1070
     1
1070
    22
1002
{
1002
}
1000
FieldLen
1070
     1
1070
    -1
1002
{
1002
}
1002
}
1000
23
1070
     6
1002
{
1000
Prompt
1070
     4
1000
(genmsg gendwg 30)
1002
{
1002
}
1000
Value
1070
     4
1000

1002
{
1002
}
1000
EditFlag
1070
     1
1070
     1
1002
{
1002
}
1000
PosInDDATTE
1070
     1
1070
    23
1002
{
1002
}
1000
FieldLen
1070
     1
1070
    -1
1002
{
1002
}
1002
}
1000
24
1070
     6
1002
{
1000
Prompt
1070
     4
1000
(genmsg gendwg 104)
1002
{
1002
}
1000
Value
1070
     4
1000

1002
{
1002
}
1000
EditFlag
1070
     1
1070
     1
1002
{
1002
}
1000
PosInDDATTE
1070
     1
1070
    24
1002
{
1002
}
1000
FieldLen
1070
     1
1070
    -1
1002
{
1002
}
1002
}
1000
25
1070
     6
1002
{
1000
Prompt
1070
     4
1000
(genmsg gendwg 105)
1002
{
1002
}
1000
Value
1070
     4
1000

1002
{
1002
}
1000
EditFlag
1070
     1
1070
     1
1002
{
1002
}
1000
PosInDDATTE
1070
     1
1070
    25
1002
{
1002
}
1000
FieldLen
1070
     1
1070
    -1
1002
{
1002
}
1002
}
1000
26
1070
     6
1002
{
1000
Prompt
1070
     4
1000
(genmsg gendwg 106)
1002
{
1002
}
1000
Value
1070
     4
1000

1002
{
1002
}
1000
EditFlag
1070
     1
1070
     1
1002
{
1002
}
1000
PosInDDATTE
1070
     1
1070
    26
1002
{
1002
}
1000
FieldLen
1070
     1
1070
    -1
1002
{
1002
}
1002
}
1000
27
1070
     6
1002
{
1000
Prompt
1070
     4
1000
(genmsg gendwg 109)
1002
{
1002
}
1000
Value
1070
     4
1000

1002
{
1002
}
1000
EditFlag
1070
     1
1070
     2
1002
{
1002
}
1000
PosInDDATTE
1070
     1
1070
    27
1002
{
1002
}
1000
FieldLen
1070
     1
1070
    -1
1002
{
1002
}
1002
}
1000
28
1070
     6
1002
{
1000
Prompt
1070
     4
1000
(genmsg gendwg 110)
1002
{
1002
}
1000
Value
1070
     4
1000

1002
{
1002
}
1000
EditFlag
1070
     1
1070
     1
1002
{
1002
}
1000
PosInDDATTE
1070
     1
1070
    28
1002
{
1002
}
1000
FieldLen
1070
     1
1070
    -1
1002
{
1002
}
1002
}
1002
}
1000
Xlate
1070
     0
1002
{
1000
>
1002
}
  0
APPID
  5
34D
330
9
100
AcDbSymbolTableRecord
100
AcDbRegAppTableRecord
  2
GENIUS_GENCFG2_13
 70
     0
1001
GENIUS_GENCFG_13
1071
942681172
1000
34D
1000
GEN@LAYER@DEFS
1070
     9
1000
GenCfgObject
1000
GenCfgShort
1000
GenCfgReal
1000
GenCfgBool
1000
GenCfgString
1000
GenCfgDim
1000
GenCfgAttrInf
1000
GenCfgLaySection
1000
GenCfgLayer
1000
Basic
1070
     0
1002
{
1000
0
1070
     8
1000
0
1002
{
1000
Color
1070
     1
1070
     7
1002
{
1002
}
1000
LType
1070
     4
1000
CONTINUOUS
1002
{
1002
}
1000
Base
1070
     3
1070
     0
1002
{
1002
}
1002
}
1000
1
1070
     8
1000
1
1002
{
1000
Color
1070
     1
1070
     4
1002
{
1002
}
1000
LType
1070
     4
1000
CONTINUOUS
1002
{
1002
}
1000
Base
1070
     3
1070
     0
1002
{
1002
}
1002
}
1000
2
1070
     8
1000
2
1002
{
1000
Color
1070
     1
1070
     5
1002
{
1002
}
1000
LType
1070
     4
1000
CONTINUOUS
1002
{
1002
}
1000
Base
1070
     3
1070
     0
1002
{
1002
}
1002
}
1000
3
1070
     8
1000
3
1002
{
1000
Color
1070
     1
1070
     6
1002
{
1002
}
1000
LType
1070
     4
1000
GEN3
1002
{
1002
}
1000
Base
1070
     3
1070
     0
1002
{
1002
}
1002
}
1000
4
1070
     8
1000
4
1002
{
1000
Color
1070
     1
1070
     3
1002
{
1002
}
1000
LType
1070
     4
1000
CONTINUOUS
1002
{
1002
}
1000
Base
1070
     3
1070
     0
1002
{
1002
}
1002
}
1000
5
1070
     8
1000
5
1002
{
1000
Color
1070
     1
1070
     3
1002
{
1002
}
1000
LType
1070
     4
1000
CONTINUOUS
1002
{
1002
}
1000
Base
1070
     3
1070
     0
1002
{
1002
}
1002
}
1000
6
1070
     8
1000
6
1002
{
1000
Color
1070
     1
1070
     2
1002
{
1002
}
1000
LType
1070
     4
1000
CONTINUOUS
1002
{
1002
}
1000
Base
1070
     3
1070
     0
1002
{
1002
}
1002
}
1000
7
1070
     8
1000
7
1002
{
1000
Color
1070
     1
1070
     1
1002
{
1002
}
1000
LType
1070
     4
1000
GEN7
1002
{
1002
}
1000
Base
1070
     3
1070
     0
1002
{
1002
}
1002
}
1000
8
1070
     8
1000
8
1002
{
1000
Color
1070
     1
1070
     1
1002
{
1002
}
1000
LType
1070
     4
1000
CONTINUOUS
1002
{
1002
}
1000
Base
1070
     3
1070
     0
1002
{
1002
}
1002
}
1000
3A
1070
     8
1000
3A
1002
{
1000
Color
1070
     1
1070
     6
1002
{
1002
}
1000
LType
1070
     4
1000
GEN3A
1002
{
1002
}
1000
Base
1070
     3
1070
     0
1002
{
1002
}
1002
}
1000
7A
1070
     8
1000
7A
1002
{
1000
Color
1070
     1
1070
     1
1002
{
1002
}
1000
LType
1070
     4
1000
GEN7A
1002
{
1002
}
1000
Base
1070
     3
1070
     0
1002
{
1002
}
1002
}
1000
2A
1070
     8
1000
2A
1002
{
1000
Color
1070
     1
1070
     7
1002
{
1002
}
1000
LType
1070
     4
1000
GEN7
1002
{
1002
}
1000
Base
1070
     3
1070
     0
1002
{
1002
}
1002
}
1000
4A
1070
     8
1000
4A
1002
{
1000
Color
1070
     1
1070
     3
1002
{
1002
}
1000
LType
1070
     4
1000
GEN4A
1002
{
1002
}
1000
Base
1070
     3
1070
     0
1002
{
1002
}
1002
}
1000
9
1070
     8
1000
9
1002
{
1000
Color
1070
     1
1070
   253
1002
{
1002
}
1000
LType
1070
     4
1000
CONTINUOUS
1002
{
1002
}
1000
Base
1070
     3
1070
     0
1002
{
1002
}
1002
}
1000
IP
1070
     8
1000
IP
1002
{
1000
Color
1070
     1
1070
     7
1002
{
1002
}
1000
LType
1070
     4
1000
CONTINUOUS
1002
{
1002
}
1000
Base
1070
     3
1070
     0
1002
{
1002
}
1002
}
1002
}
1000
Standard
1070
     0
1002
{
1000
0N
1070
     8
1000
0N
1002
{
1000
Color
1070
     1
1070
     7
1002
{
1002
}
1000
LType
1070
     4
1000
CONTINUOUS
1002
{
1002
}
1000
Base
1070
     3
1070
     0
1002
{
1002
}
1002
}
1000
1N
1070
     8
1000
1N
1002
{
1000
Color
1070
     1
1070
     4
1002
{
1002
}
1000
LType
1070
     4
1000
CONTINUOUS
1002
{
1002
}
1000
Base
1070
     3
1070
     0
1002
{
1002
}
1002
}
1000
2N
1070
     8
1000
2N
1002
{
1000
Color
1070
     1
1070
     5
1002
{
1002
}
1000
LType
1070
     4
1000
CONTINUOUS
1002
{
1002
}
1000
Base
1070
     3
1070
     0
1002
{
1002
}
1002
}
1000
3N
1070
     8
1000
3N
1002
{
1000
Color
1070
     1
1070
     6
1002
{
1002
}
1000
LType
1070
     4
1000
GEN3
1002
{
1002
}
1000
Base
1070
     3
1070
     0
1002
{
1002
}
1002
}
1000
4N
1070
     8
1000
4N
1002
{
1000
Color
1070
     1
1070
     3
1002
{
1002
}
1000
LType
1070
     4
1000
CONTINUOUS
1002
{
1002
}
1000
Base
1070
     3
1070
     0
1002
{
1002
}
1002
}
1000
5N
1070
     8
1000
5N
1002
{
1000
Color
1070
     1
1070
     3
1002
{
1002
}
1000
LType
1070
     4
1000
CONTINUOUS
1002
{
1002
}
1000
Base
1070
     3
1070
     0
1002
{
1002
}
1002
}
1000
6N
1070
     8
1000
6N
1002
{
1000
Color
1070
     1
1070
     2
1002
{
1002
}
1000
LType
1070
     4
1000
CONTINUOUS
1002
{
1002
}
1000
Base
1070
     3
1070
     0
1002
{
1002
}
1002
}
1000
7N
1070
     8
1000
7N
1002
{
1000
Color
1070
     1
1070
     1
1002
{
1002
}
1000
LType
1070
     4
1000
GEN7
1002
{
1002
}
1000
Base
1070
     3
1070
     0
1002
{
1002
}
1002
}
1000
8N
1070
     8
1000
8N
1002
{
1000
Color
1070
     1
1070
     1
1002
{
1002
}
1000
LType
1070
     4
1000
CONTINUOUS
1002
{
1002
}
1000
Base
1070
     3
1070
     0
1002
{
1002
}
1002
}
1000
3AN
1070
     8
1000
3AN
1002
{
1000
Color
1070
     1
1070
     6
1002
{
1002
}
1000
LType
1070
     4
1000
GEN3A
1002
{
1002
}
1000
Base
1070
     3
1070
     0
1002
{
1002
}
1002
}
1000
7AN
1070
     8
1000
7AN
1002
{
1000
Color
1070
     1
1070
     1
1002
{
1002
}
1000
LType
1070
     4
1000
GEN7A
1002
{
1002
}
1000
Base
1070
     3
1070
     0
1002
{
1002
}
1002
}
1000
2AN
1070
     8
1000
2AN
1002
{
1000
Color
1070
     1
1070
     7
1002
{
1002
}
1000
LType
1070
     4
1000
GEN7
1002
{
1002
}
1000
Base
1070
     3
1070
     0
1002
{
1002
}
1002
}
1000
4AN
1070
     8
1000
4AN
1002
{
1000
Color
1070
     1
1070
     3
1002
{
1002
}
1000
LType
1070
     4
1000
GEN4A
1002
{
1002
}
1000
Base
1070
     3
1070
     0
1002
{
1002
}
1002
}
1000
9N
1070
     8
1000
9N
1002
{
1000
Color
1070
     1
1070
   253
1002
{
1002
}
1000
LType
1070
     4
1000
CONTINUOUS
1002
{
1002
}
1000
Base
1070
     3
1070
     0
1002
{
1002
}
1002
}
1000
IPN
1070
     8
1000
IPN
1002
{
1000
Color
1070
     1
1070
     7
1002
{
1002
}
1000
LType
1070
     4
1000
CONTINUOUS
1002
{
1002
}
1000
Base
1070
     3
1070
     0
1002
{
1002
}
1002
}
1002
}
1000
Extra
1070
     0
1002
{
1000
Klin
1070
     8
1000
KLIN
1002
{
1000
Color
1070
     1
1070
     1
1002
{
1002
}
1000
LType
1070
     4
1000
CONTINUOUS
1002
{
1002
}
1000
Base
1070
     3
1070
     1
1002
{
1002
}
1002
}
1000
Info
1070
     8
1000
INFO
1002
{
1000
Color
1070
     1
1070
     4
1002
{
1002
}
1000
LType
1070
     4
1000
CONTINUOUS
1002
{
1002
}
1000
Base
1070
     3
1070
     1
1002
{
1002
}
1002
}
1000
Rahm2
1070
     8
1000
RAHM2
1002
{
1000
Color
1070
     1
1070
     1
1002
{
1002
}
1000
LType
1070
     4
1000
CONTINUOUS
1002
{
1002
}
1000
Base
1070
     3
1070
     1
1002
{
1002
}
1002
}
1000
Rahm3
1070
     8
1000
RAHM3
1002
{
1000
Color
1070
     1
1070
     2
1002
{
1002
}
1000
LType
1070
     4
1000
CONTINUOUS
1002
{
1002
}
1000
Base
1070
     3
1070
     1
1002
{
1002
}
1002
}
1000
Rahm5
1070
     8
1000
RAHM5
1002
{
1000
Color
1070
     1
1070
     7
1002
{
1002
}
1000
LType
1070
     4
1000
CONTINUOUS
1002
{
1002
}
1000
Base
1070
     3
1070
     1
1002
{
1002
}
1002
}
1000
View
1070
     8
1000
VIEW
1002
{
1000
Color
1070
     1
1070
     1
1002
{
1002
}
1000
LType
1070
     4
1000
CONTINUOUS
1002
{
1002
}
1000
Base
1070
     3
1070
     1
1002
{
1002
}
1002
}
1000
Behind
1070
     8
1000
BEHIND
1002
{
1000
Color
1070
     1
1070
   253
1002
{
1002
}
1000
LType
1070
     4
1000
CONTINUOUS
1002
{
1002
}
1000
Base
1070
     3
1070
     1
1002
{
1002
}
1002
}
1002
}
  0
APPID
  5
34E
330
9
100
AcDbSymbolTableRecord
100
AcDbRegAppTableRecord
  2
GENIUS_GENCFG3_13
 70
     0
1001
GENIUS_GENCFG_13
1071
942681172
1000
34E
1000
GEN@LAYER@ENTSORT
1070
    10
1000
GenCfgObject
1000
GenCfgShort
1000
GenCfgReal
1000
GenCfgBool
1000
GenCfgString
1000
GenCfgDim
1000
GenCfgAttrInf
1000
GenCfgLaySection
1000
GenCfgLayer
1000
GenCfgEntSort
1000
ADDL
1070
     9
1000
5
1002
{
1000
Class
1070
     4
1000
SYM
1002
{
1002
}
1000
Color
1070
     1
1070
     1
1002
{
1002
}
1000
LType
1070
     4
1000
BYLAYER
1002
{
1002
}
1002
}
1000
ALTR
1070
     9
1000
4
1002
{
1000
Class
1070
     4
1000

1002
{
1002
}
1000
Color
1070
     1
1070
     7
1002
{
1002
}
1000
LType
1070
     4
1000
GEN3A
1002
{
1002
}
1002
}
1000
BELI
1070
     9
1000
4
1002
{
1000
Class
1070
     4
1000

1002
{
1002
}
1000
Color
1070
     1
1070
   256
1002
{
1002
}
1000
LType
1070
     4
1000
BYLAYER
1002
{
1002
}
1002
}
1000
BHNV
1070
     9
1000
9
1002
{
1000
Class
1070
     4
1000
INV
1002
{
1002
}
1000
Color
1070
     1
1070
   256
1002
{
1002
}
1000
LType
1070
     4
1000
BYLAYER
1002
{
1002
}
1002
}
1000
BHNVS
1070
     9
1000
BEHIND
1002
{
1000
Class
1070
     4
1000
INV
1002
{
1002
}
1000
Color
1070
     1
1070
   256
1002
{
1002
}
1000
LType
1070
     4
1000
BYLAYER
1002
{
1002
}
1002
}
1000
BLID
1070
     9
1000
4A
1002
{
1000
Class
1070
     4
1000

1002
{
1002
}
1000
Color
1070
     1
1070
   256
1002
{
1002
}
1000
LType
1070
     4
1000
BYLAYER
1002
{
1002
}
1002
}
1000
BOAP
1070
     9
1000
4A
1002
{
1000
Class
1070
     4
1000

1002
{
1002
}
1000
Color
1070
     1
1070
   256
1002
{
1002
}
1000
LType
1070
     4
1000
BYLAYER
1002
{
1002
}
1002
}
1000
BOR2
1070
     9
1000
RAHM2
1002
{
1000
Class
1070
     4
1000
SPZ,SYM
1002
{
1002
}
1000
Color
1070
     1
1070
   256
1002
{
1002
}
1000
LType
1070
     4
1000
BYLAYER
1002
{
1002
}
1002
}
1000
BOR3
1070
     9
1000
RAHM3
1002
{
1000
Class
1070
     4
1000
SPZ,SYM
1002
{
1002
}
1000
Color
1070
     1
1070
   256
1002
{
1002
}
1000
LType
1070
     4
1000
BYLAYER
1002
{
1002
}
1002
}
1000
BOR5
1070
     9
1000
RAHM5
1002
{
1000
Class
1070
     4
1000
SPZ,SYM
1002
{
1002
}
1000
Color
1070
     1
1070
   256
1002
{
1002
}
1000
LType
1070
     4
1000
BYLAYER
1002
{
1002
}
1002
}
1000
BOR7
1070
     9
1000
RAHM5
1002
{
1000
Class
1070
     4
1000
SPZ,SYM
1002
{
1002
}
1000
Color
1070
     1
1070
     7
1002
{
1002
}
1000
LType
1070
     4
1000
CONTINUOUS
1002
{
1002
}
1002
}
1000
BPAP
1070
     9
1000
4A
1002
{
1000
Class
1070
     4
1000

1002
{
1002
}
1000
Color
1070
     1
1070
   256
1002
{
1002
}
1000
LType
1070
     4
1000
BYLAYER
1002
{
1002
}
1002
}
1000
BPEX
1070
     9
1000
4A
1002
{
1000
Class
1070
     4
1000

1002
{
1002
}
1000
Color
1070
     1
1070
   256
1002
{
1002
}
1000
LType
1070
     4
1000
BYLAYER
1002
{
1002
}
1002
}
1000
BTDI
1070
     9
1000
5
1002
{
1000
Class
1070
     4
1000
DIM,SYM
1002
{
1002
}
1000
Color
1070
     1
1070
   256
1002
{
1002
}
1000
LType
1070
     4
1000
BYLAYER
1002
{
1002
}
1002
}
1000
CAL2
1070
     9
1000
4
1002
{
1000
Class
1070
     4
1000
SYM
1002
{
1002
}
1000
Color
1070
     1
1070
   256
1002
{
1002
}
1000
LType
1070
     4
1000
BYLAYER
1002
{
1002
}
1002
}
1000
CAL3
1070
     9
1000
4
1002
{
1000
Class
1070
     4
1000
SYM
1002
{
1002
}
1000
Color
1070
     1
1070
     2
1002
{
1002
}
1000
LType
1070
     4
1000
BYLAYER
1002
{
1002
}
1002
}
1000
CAL5
1070
     9
1000
4
1002
{
1000
Class
1070
     4
1000
SYM
1002
{
1002
}
1000
Color
1070
     1
1070
     7
1002
{
1002
}
1000
LType
1070
     4
1000
BYLAYER
1002
{
1002
}
1002
}
1000
CAL7
1070
     9
1000
4
1002
{
1000
Class
1070
     4
1000
SYM
1002
{
1002
}
1000
Color
1070
     1
1070
     5
1002
{
1002
}
1000
LType
1070
     4
1000
BYLAYER
1002
{
1002
}
1002
}
1000
CENN
1070
     9
1000
7A
1002
{
1000
Class
1070
     4
1000
CEN
1002
{
1002
}
1000
Color
1070
     1
1070
   256
1002
{
1002
}
1000
LType
1070
     4
1000
BYLAYER
1002
{
1002
}
1002
}
1000
CENW
1070
     9
1000
7
1002
{
1000
Class
1070
     4
1000
CEN
1002
{
1002
}
1000
Color
1070
     1
1070
   256
1002
{
1002
}
1000
LType
1070
     4
1000
BYLAYER
1002
{
1002
}
1002
}
1000
CLIN
1070
     9
1000
KLIN
1002
{
1000
Class
1070
     4
1000
SPZ
1002
{
1002
}
1000
Color
1070
     1
1070
   256
1002
{
1002
}
1000
LType
1070
     4
1000
BYLAYER
1002
{
1002
}
1002
}
1000
CON1
1070
     9
1000
0
1002
{
1000
Class
1070
     4
1000
CON,BGD
1002
{
1002
}
1000
Color
1070
     1
1070
   256
1002
{
1002
}
1000
LType
1070
     4
1000
BYLAYER
1002
{
1002
}
1002
}
1000
CON2
1070
     9
1000
1
1002
{
1000
Class
1070
     4
1000
CON,BGD
1002
{
1002
}
1000
Color
1070
     1
1070
   256
1002
{
1002
}
1000
LType
1070
     4
1000
BYLAYER
1002
{
1002
}
1002
}
1000
CON3
1070
     9
1000
2
1002
{
1000
Class
1070
     4
1000
CON,BGD
1002
{
1002
}
1000
Color
1070
     1
1070
   256
1002
{
1002
}
1000
LType
1070
     4
1000
BYLAYER
1002
{
1002
}
1002
}
1000
CON4
1070
     9
1000
2
1002
{
1000
Class
1070
     4
1000
CON,BGD
1002
{
1002
}
1000
Color
1070
     1
1070
   256
1002
{
1002
}
1000
LType
1070
     4
1000
BYLAYER
1002
{
1002
}
1002
}
1000
DERP
1070
     9
1000
4
1002
{
1000
Class
1070
     4
1000

1002
{
1002
}
1000
Color
1070
     1
1070
   256
1002
{
1002
}
1000
LType
1070
     4
1000
BYLAYER
1002
{
1002
}
1002
}
1000
DETA
1070
     9
1000
4
1002
{
1000
Class
1070
     4
1000

1002
{
1002
}
1000
Color
1070
     1
1070
   256
1002
{
1002
}
1000
LType
1070
     4
1000
BYLAYER
1002
{
1002
}
1002
}
1000
DIAG
1070
     9
1000
5
1002
{
1000
Class
1070
     4
1000
SYM
1002
{
1002
}
1000
Color
1070
     1
1070
   256
1002
{
1002
}
1000
LType
1070
     4
1000
BYLAYER
1002
{
1002
}
1002
}
1000
DILI
1070
     9
1000
5
1002
{
1000
Class
1070
     4
1000
DIM,SYM
1002
{
1002
}
1000
Color
1070
     1
1070
   256
1002
{
1002
}
1000
LType
1070
     4
1000
BYLAYER
1002
{
1002
}
1002
}
1000
DITO2
1070
     9
1000
5
1002
{
1000
Class
1070
     4
1000
DIM,SYM
1002
{
1002
}
1000
Color
1070
     1
1070
     3
1002
{
1002
}
1000
LType
1070
     4
1000
BYLAYER
1002
{
1002
}
1002
}
1000
DITO3
1070
     9
1000
5
1002
{
1000
Class
1070
     4
1000
DIM,SYM
1002
{
1002
}
1000
Color
1070
     1
1070
     2
1002
{
1002
}
1000
LType
1070
     4
1000
BYLAYER
1002
{
1002
}
1002
}
1000
DITX
1070
     9
1000
5
1002
{
1000
Class
1070
     4
1000
DIM,SYM
1002
{
1002
}
1000
Color
1070
     1
1070
     2
1002
{
1002
}
1000
LType
1070
     4
1000
CONTINUOUS
1002
{
1002
}
1002
}
1000
DIXL
1070
     9
1000
5
1002
{
1000
Class
1070
     4
1000
DIM,SYM
1002
{
1002
}
1000
Color
1070
     1
1070
   256
1002
{
1002
}
1000
LType
1070
     4
1000
BYLAYER
1002
{
1002
}
1002
}
1000
EXMP
1070
     9
1000
4A
1002
{
1000
Class
1070
     4
1000

1002
{
1002
}
1000
Color
1070
     1
1070
   256
1002
{
1002
}
1000
LType
1070
     4
1000
BYLAYER
1002
{
1002
}
1002
}
1000
FEMN
1070
     9
1000
8
1002
{
1000
Class
1070
     4
1000

1002
{
1002
}
1000
Color
1070
     1
1070
   256
1002
{
1002
}
1000
LType
1070
     4
1000
BYLAYER
1002
{
1002
}
1002
}
1000
FEMPN
1070
     9
1000
8
1002
{
1000
Class
1070
     4
1000
SYM
1002
{
1002
}
1000
Color
1070
     1
1070
     3
1002
{
1002
}
1000
LType
1070
     4
1000
BYLAYER
1002
{
1002
}
1002
}
1000
FEMSP
1070
     9
1000
4A
1002
{
1000
Class
1070
     4
1000

1002
{
1002
}
1000
Color
1070
     1
1070
   256
1002
{
1002
}
1000
LType
1070
     4
1000
CONTINUOUS
1002
{
1002
}
1002
}
1000
FEMST
1070
     9
1000
4A
1002
{
1000
Class
1070
     4
1000
SYM
1002
{
1002
}
1000
Color
1070
     1
1070
     3
1002
{
1002
}
1000
LType
1070
     4
1000
BYLAYER
1002
{
1002
}
1002
}
1000
FEMVN
1070
     9
1000
2
1002
{
1000
Class
1070
     4
1000
CON
1002
{
1002
}
1000
Color
1070
     1
1070
   256
1002
{
1002
}
1000
LType
1070
     4
1000
BYLAYER
1002
{
1002
}
1002
}
1000
FEMVT
1070
     9
1000
2
1002
{
1000
Class
1070
     4
1000
SYM
1002
{
1002
}
1000
Color
1070
     1
1070
     3
1002
{
1002
}
1000
LType
1070
     4
1000
BYLAYER
1002
{
1002
}
1002
}
1000
FLAT
1070
     9
1000
0
1002
{
1000
Class
1070
     4
1000

1002
{
1002
}
1000
Color
1070
     1
1070
   256
1002
{
1002
}
1000
LType
1070
     4
1000
BYLAYER
1002
{
1002
}
1002
}
1000
FRAR
1070
     9
1000
4A
1002
{
1000
Class
1070
     4
1000

1002
{
1002
}
1000
Color
1070
     1
1070
   256
1002
{
1002
}
1000
LType
1070
     4
1000
BYLAYER
1002
{
1002
}
1002
}
1000
GRLI
1070
     9
1000
5
1002
{
1000
Class
1070
     4
1000
SYM
1002
{
1002
}
1000
Color
1070
     1
1070
   256
1002
{
1002
}
1000
LType
1070
     4
1000
BYLAYER
1002
{
1002
}
1002
}
1000
GVLI
1070
     9
1000
4A
1002
{
1000
Class
1070
     4
1000

1002
{
1002
}
1000
Color
1070
     1
1070
   256
1002
{
1002
}
1000
LType
1070
     4
1000
BYLAYER
1002
{
1002
}
1002
}
1000
HATC
1070
     9
1000
8
1002
{
1000
Class
1070
     4
1000
HTC,BGD
1002
{
1002
}
1000
Color
1070
     1
1070
   256
1002
{
1002
}
1000
LType
1070
     4
1000
BYLAYER
1002
{
1002
}
1002
}
1000
HIDN
1070
     9
1000
3A
1002
{
1000
Class
1070
     4
1000
HID,BGD
1002
{
1002
}
1000
Color
1070
     1
1070
   256
1002
{
1002
}
1000
LType
1070
     4
1000
BYLAYER
1002
{
1002
}
1002
}
1000
HIDW
1070
     9
1000
3
1002
{
1000
Class
1070
     4
1000
HID,BGD
1002
{
1002
}
1000
Color
1070
     1
1070
   256
1002
{
1002
}
1000
LType
1070
     4
1000
BYLAYER
1002
{
1002
}
1002
}
1000
HLIN
1070
     9
1000
4
1002
{
1000
Class
1070
     4
1000
BGD
1002
{
1002
}
1000
Color
1070
     1
1070
   256
1002
{
1002
}
1000
LType
1070
     4
1000
BYLAYER
1002
{
1002
}
1002
}
1000
HOCN
1070
     9
1000
7A
1002
{
1000
Class
1070
     4
1000
CEN
1002
{
1002
}
1000
Color
1070
     1
1070
   256
1002
{
1002
}
1000
LType
1070
     4
1000
BYLAYER
1002
{
1002
}
1002
}
1000
HOCW
1070
     9
1000
7
1002
{
1000
Class
1070
     4
1000
CEN
1002
{
1002
}
1000
Color
1070
     1
1070
   256
1002
{
1002
}
1000
LType
1070
     4
1000
BYLAYER
1002
{
1002
}
1002
}
1000
INFO
1070
     9
1000
INFO
1002
{
1000
Class
1070
     4
1000
SPZ,SYM
1002
{
1002
}
1000
Color
1070
     1
1070
   256
1002
{
1002
}
1000
LType
1070
     4
1000
BYLAYER
1002
{
1002
}
1002
}
1000
LADI
1070
     9
1000
4
1002
{
1000
Class
1070
     4
1000
BGD
1002
{
1002
}
1000
Color
1070
     1
1070
   256
1002
{
1002
}
1000
LType
1070
     4
1000
BYLAYER
1002
{
1002
}
1002
}
1000
LEAD
1070
     9
1000
5
1002
{
1000
Class
1070
     4
1000
SYM
1002
{
1002
}
1000
Color
1070
     1
1070
   256
1002
{
1002
}
1000
LType
1070
     4
1000
BYLAYER
1002
{
1002
}
1002
}
1000
N_ADDL
1070
     9
1000
5N
1002
{
1000
Class
1070
     4
1000
SYM
1002
{
1002
}
1000
Color
1070
     1
1070
     1
1002
{
1002
}
1000
LType
1070
     4
1000
BYLAYER
1002
{
1002
}
1002
}
1000
N_BHNV
1070
     9
1000
9N
1002
{
1000
Class
1070
     4
1000
INV
1002
{
1002
}
1000
Color
1070
     1
1070
   256
1002
{
1002
}
1000
LType
1070
     4
1000
BYLAYER
1002
{
1002
}
1002
}
1000
N_CON1
1070
     9
1000
0N
1002
{
1000
Class
1070
     4
1000
CON,BGD
1002
{
1002
}
1000
Color
1070
     1
1070
   256
1002
{
1002
}
1000
LType
1070
     4
1000
BYLAYER
1002
{
1002
}
1002
}
1000
N_CON2
1070
     9
1000
1N
1002
{
1000
Class
1070
     4
1000
CON,BGD
1002
{
1002
}
1000
Color
1070
     1
1070
   256
1002
{
1002
}
1000
LType
1070
     4
1000
BYLAYER
1002
{
1002
}
1002
}
1000
N_CON3
1070
     9
1000
2N
1002
{
1000
Class
1070
     4
1000
CON,BGD
1002
{
1002
}
1000
Color
1070
     1
1070
   256
1002
{
1002
}
1000
LType
1070
     4
1000
BYLAYER
1002
{
1002
}
1002
}
1000
N_CON4
1070
     9
1000
2N
1002
{
1000
Class
1070
     4
1000
CON,BGD
1002
{
1002
}
1000
Color
1070
     1
1070
   256
1002
{
1002
}
1000
LType
1070
     4
1000
BYLAYER
1002
{
1002
}
1002
}
1000
N_CENN
1070
     9
1000
7AN
1002
{
1000
Class
1070
     4
1000
CEN
1002
{
1002
}
1000
Color
1070
     1
1070
   256
1002
{
1002
}
1000
LType
1070
     4
1000
BYLAYER
1002
{
1002
}
1002
}
1000
N_CENW
1070
     9
1000
7N
1002
{
1000
Class
1070
     4
1000
CEN
1002
{
1002
}
1000
Color
1070
     1
1070
   256
1002
{
1002
}
1000
LType
1070
     4
1000
BYLAYER
1002
{
1002
}
1002
}
1000
N_DILI
1070
     9
1000
5N
1002
{
1000
Class
1070
     4
1000
DIM,SYM
1002
{
1002
}
1000
Color
1070
     1
1070
   256
1002
{
1002
}
1000
LType
1070
     4
1000
BYLAYER
1002
{
1002
}
1002
}
1000
N_DITX
1070
     9
1000
5N
1002
{
1000
Class
1070
     4
1000
DIM,SYM
1002
{
1002
}
1000
Color
1070
     1
1070
     2
1002
{
1002
}
1000
LType
1070
     4
1000
CONTINUOUS
1002
{
1002
}
1002
}
1000
N_DIXL
1070
     9
1000
5N
1002
{
1000
Class
1070
     4
1000
DIM,SYM
1002
{
1002
}
1000
Color
1070
     1
1070
   256
1002
{
1002
}
1000
LType
1070
     4
1000
BYLAYER
1002
{
1002
}
1002
}
1000
N_HATC
1070
     9
1000
8N
1002
{
1000
Class
1070
     4
1000
HTC,BGD
1002
{
1002
}
1000
Color
1070
     1
1070
   256
1002
{
1002
}
1000
LType
1070
     4
1000
BYLAYER
1002
{
1002
}
1002
}
1000
N_HIDN
1070
     9
1000
3AN
1002
{
1000
Class
1070
     4
1000
HID,BGD
1002
{
1002
}
1000
Color
1070
     1
1070
   256
1002
{
1002
}
1000
LType
1070
     4
1000
BYLAYER
1002
{
1002
}
1002
}
1000
N_HIDW
1070
     9
1000
3N
1002
{
1000
Class
1070
     4
1000
HID,BGD
1002
{
1002
}
1000
Color
1070
     1
1070
   256
1002
{
1002
}
1000
LType
1070
     4
1000
BYLAYER
1002
{
1002
}
1002
}
1000
N_NGIP
1070
     9
1000
IPN
1002
{
1000
Class
1070
     4
1000

1002
{
1002
}
1000
Color
1070
     1
1070
   256
1002
{
1002
}
1000
LType
1070
     4
1000
BYLAYER
1002
{
1002
}
1002
}
1000
N_PHAN
1070
     9
1000
4AN
1002
{
1000
Class
1070
     4
1000

1002
{
1002
}
1000
Color
1070
     1
1070
   256
1002
{
1002
}
1000
LType
1070
     4
1000
BYLAYER
1002
{
1002
}
1002
}
1000
N_POSL
1070
     9
1000
5N
1002
{
1000
Class
1070
     4
1000
SYM
1002
{
1002
}
1000
Color
1070
     1
1070
   256
1002
{
1002
}
1000
LType
1070
     4
1000
BYLAYER
1002
{
1002
}
1002
}
1000
N_TCON
1070
     9
1000
0N
1002
{
1000
Class
1070
     4
1000
CON,BGD
1002
{
1002
}
1000
Color
1070
     1
1070
   256
1002
{
1002
}
1000
LType
1070
     4
1000
BYLAYER
1002
{
1002
}
1002
}
1000
N_THLI
1070
     9
1000
4N
1002
{
1000
Class
1070
     4
1000
BGD
1002
{
1002
}
1000
Color
1070
     1
1070
   256
1002
{
1002
}
1000
LType
1070
     4
1000
BYLAYER
1002
{
1002
}
1002
}
1000
N_TLEN
1070
     9
1000
0N
1002
{
1000
Class
1070
     4
1000
CON,BGD
1002
{
1002
}
1000
Color
1070
     1
1070
   256
1002
{
1002
}
1000
LType
1070
     4
1000
BYLAYER
1002
{
1002
}
1002
}
1000
N_TXT3
1070
     9
1000
6N
1002
{
1000
Class
1070
     4
1000
SYM
1002
{
1002
}
1000
Color
1070
     1
1070
   256
1002
{
1002
}
1000
LType
1070
     4
1000
BYLAYER
1002
{
1002
}
1002
}
1000
N_VPLI
1070
     9
1000
2AN
1002
{
1000
Class
1070
     4
1000

1002
{
1002
}
1000
Color
1070
     1
1070
   256
1002
{
1002
}
1000
LType
1070
     4
1000
BYLAYER
1002
{
1002
}
1002
}
1000
NGIP
1070
     9
1000
IP
1002
{
1000
Class
1070
     4
1000

1002
{
1002
}
1000
Color
1070
     1
1070
   256
1002
{
1002
}
1000
LType
1070
     4
1000
BYLAYER
1002
{
1002
}
1002
}
1000
PAL2
1070
     9
1000
RAHM2
1002
{
1000
Class
1070
     4
1000
SPZ,SYM
1002
{
1002
}
1000
Color
1070
     1
1070
   256
1002
{
1002
}
1000
LType
1070
     4
1000
BYLAYER
1002
{
1002
}
1002
}
1000
PAL3
1070
     9
1000
RAHM3
1002
{
1000
Class
1070
     4
1000
SPZ,SYM
1002
{
1002
}
1000
Color
1070
     1
1070
   256
1002
{
1002
}
1000
LType
1070
     4
1000
BYLAYER
1002
{
1002
}
1002
}
1000
PAL5
1070
     9
1000
RAHM5
1002
{
1000
Class
1070
     4
1000
SPZ,SYM
1002
{
1002
}
1000
Color
1070
     1
1070
   256
1002
{
1002
}
1000
LType
1070
     4
1000
BYLAYER
1002
{
1002
}
1002
}
1000
PAL7
1070
     9
1000
RAHM5
1002
{
1000
Class
1070
     4
1000
SPZ,SYM
1002
{
1002
}
1000
Color
1070
     1
1070
     7
1002
{
1002
}
1000
LType
1070
     4
1000
CONTINUOUS
1002
{
1002
}
1002
}
1000
PHAN
1070
     9
1000
4A
1002
{
1000
Class
1070
     4
1000

1002
{
1002
}
1000
Color
1070
     1
1070
   256
1002
{
1002
}
1000
LType
1070
     4
1000
BYLAYER
1002
{
1002
}
1002
}
1000
POSL
1070
     9
1000
5
1002
{
1000
Class
1070
     4
1000
SYM
1002
{
1002
}
1000
Color
1070
     1
1070
   256
1002
{
1002
}
1000
LType
1070
     4
1000
BYLAYER
1002
{
1002
}
1002
}
1000
POSN
1070
     9
1000
6
1002
{
1000
Class
1070
     4
1000
SYM
1002
{
1002
}
1000
Color
1070
     1
1070
     7
1002
{
1002
}
1000
LType
1070
     4
1000
BYLAYER
1002
{
1002
}
1002
}
1000
POSREF
1070
     9
1000
6
1002
{
1000
Class
1070
     4
1000
SYM
1002
{
1002
}
1000
Color
1070
     1
1070
     5
1002
{
1002
}
1000
LType
1070
     4
1000
BYLAYER
1002
{
1002
}
1002
}
1000
POSX
1070
     9
1000
5
1002
{
1000
Class
1070
     4
1000
SYM
1002
{
1002
}
1000
Color
1070
     1
1070
     2
1002
{
1002
}
1000
LType
1070
     4
1000
CONTINUOUS
1002
{
1002
}
1002
}
1000
PSEC
1070
     9
1000
4A
1002
{
1000
Class
1070
     4
1000

1002
{
1002
}
1000
Color
1070
     1
1070
   256
1002
{
1002
}
1000
LType
1070
     4
1000
BYLAYER
1002
{
1002
}
1002
}
1000
RCGN
1070
     9
1000
7A
1002
{
1000
Class
1070
     4
1000
CEN
1002
{
1002
}
1000
Color
1070
     1
1070
   256
1002
{
1002
}
1000
LType
1070
     4
1000
BYLAYER
1002
{
1002
}
1002
}
1000
RCGW
1070
     9
1000
7
1002
{
1000
Class
1070
     4
1000
CEN
1002
{
1002
}
1000
Color
1070
     1
1070
   256
1002
{
1002
}
1000
LType
1070
     4
1000
BYLAYER
1002
{
1002
}
1002
}
1000
RFDI
1070
     9
1000
4
1002
{
1000
Class
1070
     4
1000
BGD
1002
{
1002
}
1000
Color
1070
     1
1070
   256
1002
{
1002
}
1000
LType
1070
     4
1000
BYLAYER
1002
{
1002
}
1002
}
1000
RQTR
1070
     9
1000
4
1002
{
1000
Class
1070
     4
1000

1002
{
1002
}
1000
Color
1070
     1
1070
     7
1002
{
1002
}
1000
LType
1070
     4
1000
GEN7A
1002
{
1002
}
1002
}
1000
RSBO
1070
     9
1000
4
1002
{
1000
Class
1070
     4
1000
BGD
1002
{
1002
}
1000
Color
1070
     1
1070
   256
1002
{
1002
}
1000
LType
1070
     4
1000
BYLAYER
1002
{
1002
}
1002
}
1000
SBRK
1070
     9
1000
4
1002
{
1000
Class
1070
     4
1000
BGD
1002
{
1002
}
1000
Color
1070
     1
1070
   256
1002
{
1002
}
1000
LType
1070
     4
1000
BYLAYER
1002
{
1002
}
1002
}
1000
SCEN
1070
     9
1000
7
1002
{
1000
Class
1070
     4
1000

1002
{
1002
}
1000
Color
1070
     1
1070
   256
1002
{
1002
}
1000
LType
1070
     4
1000
CONTINUOUS
1002
{
1002
}
1002
}
1000
SECT
1070
     9
1000
4
1002
{
1000
Class
1070
     4
1000
BGD
1002
{
1002
}
1000
Color
1070
     1
1070
   256
1002
{
1002
}
1000
LType
1070
     4
1000
BYLAYER
1002
{
1002
}
1002
}
1000
SELN
1070
     9
1000
7A
1002
{
1000
Class
1070
     4
1000

1002
{
1002
}
1000
Color
1070
     1
1070
   256
1002
{
1002
}
1000
LType
1070
     4
1000
BYLAYER
1002
{
1002
}
1002
}
1000
SELW
1070
     9
1000
7
1002
{
1000
Class
1070
     4
1000

1002
{
1002
}
1000
Color
1070
     1
1070
   256
1002
{
1002
}
1000
LType
1070
     4
1000
BYLAYER
1002
{
1002
}
1002
}
1000
SSYS
1070
     9
1000
0
1002
{
1000
Class
1070
     4
1000

1002
{
1002
}
1000
Color
1070
     1
1070
   256
1002
{
1002
}
1000
LType
1070
     4
1000
BYLAYER
1002
{
1002
}
1002
}
1000
STLI
1070
     9
1000
4
1002
{
1000
Class
1070
     4
1000

1002
{
1002
}
1000
Color
1070
     1
1070
     7
1002
{
1002
}
1000
LType
1070
     4
1000
GEN3A
1002
{
1002
}
1002
}
1000
SYB1
1070
     9
1000
5
1002
{
1000
Class
1070
     4
1000
SYM
1002
{
1002
}
1000
Color
1070
     1
1070
   256
1002
{
1002
}
1000
LType
1070
     4
1000
BYLAYER
1002
{
1002
}
1002
}
1000
SYB2
1070
     9
1000
5
1002
{
1000
Class
1070
     4
1000
SYM
1002
{
1002
}
1000
Color
1070
     1
1070
   256
1002
{
1002
}
1000
LType
1070
     4
1000
BYLAYER
1002
{
1002
}
1002
}
1000
SYB3
1070
     9
1000
6
1002
{
1000
Class
1070
     4
1000
SYM
1002
{
1002
}
1000
Color
1070
     1
1070
   256
1002
{
1002
}
1000
LType
1070
     4
1000
CONTINUOUS
1002
{
1002
}
1002
}
1000
SYB5
1070
     9
1000
5
1002
{
1000
Class
1070
     4
1000
SYM
1002
{
1002
}
1000
Color
1070
     1
1070
     7
1002
{
1002
}
1000
LType
1070
     4
1000
BYLAYER
1002
{
1002
}
1002
}
1000
SYMN
1070
     9
1000
7A
1002
{
1000
Class
1070
     4
1000
CEN
1002
{
1002
}
1000
Color
1070
     1
1070
   256
1002
{
1002
}
1000
LType
1070
     4
1000
BYLAYER
1002
{
1002
}
1002
}
1000
SYMW
1070
     9
1000
7
1002
{
1000
Class
1070
     4
1000
CEN
1002
{
1002
}
1000
Color
1070
     1
1070
   256
1002
{
1002
}
1000
LType
1070
     4
1000
BYLAYER
1002
{
1002
}
1002
}
1000
TCON
1070
     9
1000
0
1002
{
1000
Class
1070
     4
1000
CON,BGD
1002
{
1002
}
1000
Color
1070
     1
1070
   256
1002
{
1002
}
1000
LType
1070
     4
1000
BYLAYER
1002
{
1002
}
1002
}
1000
THLI
1070
     9
1000
4
1002
{
1000
Class
1070
     4
1000
BGD
1002
{
1002
}
1000
Color
1070
     1
1070
   256
1002
{
1002
}
1000
LType
1070
     4
1000
BYLAYER
1002
{
1002
}
1002
}
1000
TIT2
1070
     9
1000
RAHM2
1002
{
1000
Class
1070
     4
1000
SPZ,SYM
1002
{
1002
}
1000
Color
1070
     1
1070
   256
1002
{
1002
}
1000
LType
1070
     4
1000
BYLAYER
1002
{
1002
}
1002
}
1000
TIT3
1070
     9
1000
RAHM3
1002
{
1000
Class
1070
     4
1000
SPZ,SYM
1002
{
1002
}
1000
Color
1070
     1
1070
   256
1002
{
1002
}
1000
LType
1070
     4
1000
BYLAYER
1002
{
1002
}
1002
}
1000
TIT5
1070
     9
1000
RAHM5
1002
{
1000
Class
1070
     4
1000
SPZ,SYM
1002
{
1002
}
1000
Color
1070
     1
1070
   256
1002
{
1002
}
1000
LType
1070
     4
1000
BYLAYER
1002
{
1002
}
1002
}
1000
TIT7
1070
     9
1000
RAHM5
1002
{
1000
Class
1070
     4
1000
SPZ,SYM
1002
{
1002
}
1000
Color
1070
     1
1070
     7
1002
{
1002
}
1000
LType
1070
     4
1000
CONTINUOUS
1002
{
1002
}
1002
}
1000
TLEN
1070
     9
1000
0
1002
{
1000
Class
1070
     4
1000
CON,BGD
1002
{
1002
}
1000
Color
1070
     1
1070
   256
1002
{
1002
}
1000
LType
1070
     4
1000
BYLAYER
1002
{
1002
}
1002
}
1000
TRKN
1070
     9
1000
7A
1002
{
1000
Class
1070
     4
1000

1002
{
1002
}
1000
Color
1070
     1
1070
   256
1002
{
1002
}
1000
LType
1070
     4
1000
BYLAYER
1002
{
1002
}
1002
}
1000
TRKW
1070
     9
1000
7
1002
{
1000
Class
1070
     4
1000

1002
{
1002
}
1000
Color
1070
     1
1070
   256
1002
{
1002
}
1000
LType
1070
     4
1000
BYLAYER
1002
{
1002
}
1002
}
1000
TRLI
1070
     9
1000
4
1002
{
1000
Class
1070
     4
1000
BGD
1002
{
1002
}
1000
Color
1070
     1
1070
   256
1002
{
1002
}
1000
LType
1070
     4
1000
BYLAYER
1002
{
1002
}
1002
}
1000
TXT1
1070
     9
1000
6
1002
{
1000
Class
1070
     4
1000
SYM
1002
{
1002
}
1000
Color
1070
     1
1070
     2
1002
{
1002
}
1000
LType
1070
     4
1000
BYLAYER
1002
{
1002
}
1002
}
1000
TXT2
1070
     9
1000
6
1002
{
1000
Class
1070
     4
1000
SYM
1002
{
1002
}
1000
Color
1070
     1
1070
     2
1002
{
1002
}
1000
LType
1070
     4
1000
BYLAYER
1002
{
1002
}
1002
}
1000
TXT3
1070
     9
1000
6
1002
{
1000
Class
1070
     4
1000
SYM
1002
{
1002
}
1000
Color
1070
     1
1070
   256
1002
{
1002
}
1000
LType
1070
     4
1000
BYLAYER
1002
{
1002
}
1002
}
1000
TXT5
1070
     9
1000
6
1002
{
1000
Class
1070
     4
1000
SYM
1002
{
1002
}
1000
Color
1070
     1
1070
     7
1002
{
1002
}
1000
LType
1070
     4
1000
BYLAYER
1002
{
1002
}
1002
}
1000
TXT7
1070
     9
1000
6
1002
{
1000
Class
1070
     4
1000
SYM
1002
{
1002
}
1000
Color
1070
     1
1070
     7
1002
{
1002
}
1000
LType
1070
     4
1000
BYLAYER
1002
{
1002
}
1002
}
1000
VIEW
1070
     9
1000
VIEW
1002
{
1000
Class
1070
     4
1000
SPZ
1002
{
1002
}
1000
Color
1070
     1
1070
   256
1002
{
1002
}
1000
LType
1070
     4
1000
BYLAYER
1002
{
1002
}
1002
}
1000
VPLI
1070
     9
1000
2A
1002
{
1000
Class
1070
     4
1000

1002
{
1002
}
1000
Color
1070
     1
1070
   256
1002
{
1002
}
1000
LType
1070
     4
1000
BYLAYER
1002
{
1002
}
1002
}
1000
ZIZA
1070
     9
1000
4
1002
{
1000
Class
1070
     4
1000
BGD
1002
{
1002
}
1000
Color
1070
     1
1070
   256
1002
{
1002
}
1000
LType
1070
     4
1000
GENZIGZAG
1002
{
1002
}
1002
}
  0
APPID
  5
34F
330
9
100
AcDbSymbolTableRecord
100
AcDbRegAppTableRecord
  2
GENIUS_GENCFG4_13
 70
     0
1001
GENIUS_GENCFG_13
1071
942681172
1000
34F
1000
GEN
1070
    12
1000
GenCfgObject
1000
GenCfgShort
1000
GenCfgReal
1000
GenCfgBool
1000
GenCfgString
1000
GenCfgDim
1000
GenCfgAttrInf
1000
GenCfgLaySection
1000
GenCfgLayer
1000
GenCfgEntSort
1000
GenCfgLType
1000
GenCfgFilter
1000
Balloon
1070
     0
1002
{
1000
GenIF
1070
     1
1070
     0
1002
{
1002
}
1000
GenPosInc
1070
     1
1070
     1
1002
{
1002
}
1000
GenPosBlk
1070
     1
1070
     8
1002
{
1002
}
1000
GenPosVar
1070
     1
1070
     0
1002
{
1002
}
1000
GenZiCir
1070
     2
1040
1.5
1002
{
1002
}
1000
MaxCharForCenteredText
1070
     1
1070
    30
1002
{
1002
}
1000
Snap
1070
     0
1002
{
1000
ActivationRadius
1070
     2
1040
1.0
1002
{
1002
}
1000
M
1070
     0
1002
{
1000
SnapStepX
1070
     2
1040
20.0
1002
{
1002
}
1000
SnapStepY
1070
     2
1040
10.0
1002
{
1002
}
1002
}
1000
I
1070
     0
1002
{
1000
SnapStepX
1070
     2
1040
1.0
1002
{
1002
}
1000
SnapStepY
1070
     2
1040
0.5
1002
{
1002
}
1002
}
1002
}
1002
}
1000
Centerline
1070
     0
1002
{
1000
ScaleNot
1070
     3
1070
     0
1002
{
1002
}
1000
M
1070
     0
1002
{
1000
GenCenAng
1070
     4
1000
45|90|135
1002
{
1002
}
1000
GenCenDia
1070
     2
1040
10.0
1002
{
1002
}
1000
GenCenDias
1070
     4
1000
10|20|30
1002
{
1002
}
1000
GenCenDist
1070
     2
1040
3.0
1002
{
1002
}
1000
GenCenLen
1070
     2
1040
10.0
1002
{
1002
}
1000
GenCenOff
1070
     2
1040
10.0
1002
{
1002
}
1000
GENCENOFF1
1070
     2
1040
10.0
1002
{
1002
}
1000
GENCENOFF2
1070
     2
1040
10.0
1002
{
1002
}
1002
}
1000
I
1070
     0
1002
{
1000
GenCenAng
1070
     4
1000
45|90|135
1002
{
1002
}
1000
GenCenDia
1070
     2
1040
0.5
1002
{
1002
}
1000
GenCenDias
1070
     4
1000
0.5|1.0|1.5
1002
{
1002
}
1000
GenCenDist
1070
     2
1040
0.125
1002
{
1002
}
1000
GenCenLen
1070
     2
1040
0.5
1002
{
1002
}
1000
GenCenOff
1070
     2
1040
0.5
1002
{
1002
}
1002
}
1002
}
1000
CLine
1070
     0
1002
{
1000
CAngArray
1070
     4
1000
30|45|60
1002
{
1002
}
1000
Typ
1070
     4
1000
XLINE
1002
{
1002
}
1000
M
1070
     0
1002
{
1000
CLinArray
1070
     4
1000
20
1002
{
1002
}
1002
}
1000
I
1070
     0
1002
{
1000
CLinArray
1070
     4
1000
0.125|0.25|0.5
1002
{
1002
}
1002
}
1002
}
1000
Detail
1070
     0
1002
{
1002
}
1000
Dimension
1070
     5
1002
{
1000
DIMALT
1070
     1
1070
     0
1002
{
1002
}
1000
DIMALTD
1070
     1
1070
     2
1002
{
1002
}
1000
DIMALTTD
1070
     1
1070
     4
1002
{
1002
}
1000
DIMALTTZ
1070
     1
1070
     0
1002
{
1002
}
1000
DIMALTU
1070
     1
1070
     2
1002
{
1002
}
1000
DIMALTZ
1070
     1
1070
     0
1002
{
1002
}
1000
DIMAUNIT
1070
     1
1070
     1
1002
{
1002
}
1000
DIMBLK
1070
     4
1000

1002
{
1002
}
1000
DIMBLK1
1070
     4
1000

1002
{
1002
}
1000
DIMBLK2
1070
     4
1000

1002
{
1002
}
1000
DIMCLRD
1070
     1
1070
   256
1002
{
1002
}
1000
DIMCLRE
1070
     1
1070
   256
1002
{
1002
}
1000
DIMCLRT
1070
     1
1070
     2
1002
{
1002
}
1000
DIMDLE
1070
     2
1040
0.0
1002
{
1002
}
1000
DIMFIT
1070
     1
1070
     3
1002
{
1002
}
1000
DIMJUST
1070
     1
1070
     0
1002
{
1002
}
1000
DIMLFAC
1070
     2
1040
1.0
1002
{
1002
}
1000
DIMLIM
1070
     1
1070
     0
1002
{
1002
}
1000
DIMPOST
1070
     4
1000
<>
1002
{
1002
}
1000
DIMRND
1070
     2
1040
0.0
1002
{
1002
}
1000
DIMSAH
1070
     1
1070
     0
1002
{
1002
}
1000
DIMSCALE
1070
     2
1040
1.0
1002
{
1002
}
1000
DIMSD1
1070
     1
1070
     0
1002
{
1002
}
1000
DIMSD2
1070
     1
1070
     0
1002
{
1002
}
1000
DIMSE1
1070
     1
1070
     0
1002
{
1002
}
1000
DIMSE2
1070
     1
1070
     0
1002
{
1002
}
1000
DIMSOXD
1070
     1
1070
     0
1002
{
1002
}
1000
DIMTAD
1070
     1
1070
     0
1002
{
1002
}
1000
DIMTFAC
1070
     2
1040
0.71
1002
{
1002
}
1000
DIMTIH
1070
     1
1070
     0
1002
{
1002
}
1000
DIMTIX
1070
     1
1070
     0
1002
{
1002
}
1000
DIMTM
1070
     2
1040
0.1
1002
{
1002
}
1000
DIMTOFL
1070
     1
1070
     0
1002
{
1002
}
1000
DIMTOH
1070
     1
1070
     0
1002
{
1002
}
1000
DIMTOL
1070
     1
1070
     0
1002
{
1002
}
1000
DIMTOLJ
1070
     1
1070
     1
1002
{
1002
}
1000
DIMTP
1070
     2
1040
0.1
1002
{
1002
}
1000
DIMTSZ
1070
     2
1040
0.0
1002
{
1002
}
1000
DIMTVP
1070
     2
1040
0.0
1002
{
1002
}
1000
DIMTXSTY
1070
     4
1000
STANDARD
1002
{
1002
}
1000
DIMTZIN
1070
     1
1070
     8
1002
{
1002
}
1000
DIMUNIT
1070
     1
1070
     2
1002
{
1002
}
1000
DIMUPT
1070
     1
1070
     0
1002
{
1002
}
1000
M
1070
     0
1002
{
1000
DIMALTF
1070
     2
1040
0.0393701
1002
{
1002
}
1000
DIMAPOST
1070
     4
1000
"
1002
{
1002
}
1000
DIMASZ
1070
     2
1040
3.0
1002
{
1002
}
1000
DIMCEN
1070
     2
1040
0.0
1002
{
1002
}
1000
DIMDEC
1070
     1
1070
     1
1002
{
1002
}
1000
DIMDLI
1070
     2
1040
10.0
1002
{
1002
}
1000
DIMEXE
1070
     2
1040
1.0
1002
{
1002
}
1000
DIMEXO
1070
     2
1040
0.0
1002
{
1002
}
1000
DIMGAP
1070
     2
1040
1.0
1002
{
1002
}
1000
DIMTDEC
1070
     1
1070
     3
1002
{
1002
}
1000
DIMTXT
1070
     2
1040
3.5
1002
{
1002
}
1000
DIMZIN
1070
     1
1070
     8
1002
{
1002
}
1002
}
1000
I
1070
     0
1002
{
1000
DIMALTF
1070
     2
1040
25.4
1002
{
1002
}
1000
DIMAPOST
1070
     4
1000
mm
1002
{
1002
}
1000
DIMASZ
1070
     2
1040
0.1
1002
{
1002
}
1000
DIMCEN
1070
     2
1040
0.0
1002
{
1002
}
1000
DIMDEC
1070
     1
1070
     4
1002
{
1002
}
1000
DIMDLI
1070
     2
1040
0.5
1002
{
1002
}
1000
DIMEXE
1070
     2
1040
0.1
1002
{
1002
}
1000
DIMEXO
1070
     2
1040
0.05
1002
{
1002
}
1000
DIMGAP
1070
     2
1040
0.06
1002
{
1002
}
1000
DIMTDEC
1070
     1
1070
     4
1002
{
1002
}
1000
DIMTXT
1070
     2
1040
0.12
1002
{
1002
}
1000
DIMZIN
1070
     1
1070
     7
1002
{
1002
}
1002
}
1000
GEN-ISO
1070
     5
1002
{
1000
NAME
1070
     4
1000
GEN-ISO
1002
{
1002
}
1000
DIMTOLJ
1070
     1
1070
     0
1002
{
1002
}
1000
DIMTOFL
1070
     1
1070
     1
1002
{
1002
}
1000
M
1070
     0
1002
{
1002
}
1000
I
1070
     0
1002
{
1002
}
1000
DIMTAD
1070
     1
1070
     1
1002
{
1002
}
1002
}
1000
GEN-ISO-POS
1070
     5
1002
{
1000
NAME
1070
     4
1000
GEN-ISO-POS
1002
{
1002
}
1000
DIMTOLJ
1070
     1
1070
     0
1002
{
1002
}
1000
DIMTXSTY
1070
     4
1000
STANDARD
1002
{
1002
}
1000
M
1070
     0
1002
{
1000
DIMASZ
1070
     2
1040
2.5
1002
{
1002
}
1000
DIMGAP
1070
     2
1040
1.5
1002
{
1002
}
1000
DIMTXT
1070
     2
1040
5.0
1002
{
1002
}
1002
}
1000
I
1070
     0
1002
{
1000
DIMASZ
1070
     2
1040
0.1
1002
{
1002
}
1000
DIMGAP
1070
     2
1040
0.06
1002
{
1002
}
1000
DIMTXT
1070
     2
1040
0.2
1002
{
1002
}
1002
}
1002
}
1000
GEN-ISO-CIR
1070
     5
1002
{
1000
NAME
1070
     4
1000
GEN-ISO$3
1002
{
1002
}
1000
DIMFIT
1070
     1
1070
     0
1002
{
1002
}
1000
DIMTOLJ
1070
     1
1070
     0
1002
{
1002
}
1000
DIMUPT
1070
     1
1070
     1
1002
{
1002
}
1000
M
1070
     0
1002
{
1002
}
1000
I
1070
     0
1002
{
1002
}
1000
DIMTAD
1070
     1
1070
     1
1002
{
1002
}
1000
DIMTIH
1070
     1
1070
     0
1002
{
1002
}
1000
DIMTIX
1070
     1
1070
     0
1002
{
1002
}
1000
DIMTOH
1070
     1
1070
     1
1002
{
1002
}
1000
DIMTOFL
1070
     1
1070
     0
1002
{
1002
}
1002
}
1000
GEN-ISO-RAD
1070
     5
1002
{
1000
NAME
1070
     4
1000
GEN-ISO$4
1002
{
1002
}
1000
DIMFIT
1070
     1
1070
     0
1002
{
1002
}
1000
DIMTOH
1070
     1
1070
     1
1002
{
1002
}
1000
DIMTOLJ
1070
     1
1070
     0
1002
{
1002
}
1000
DIMUPT
1070
     1
1070
     1
1002
{
1002
}
1000
M
1070
     0
1002
{
1002
}
1000
I
1070
     0
1002
{
1002
}
1000
DIMTOFL
1070
     1
1070
     0
1002
{
1002
}
1000
DIMTAD
1070
     1
1070
     1
1002
{
1002
}
1000
DIMTIH
1070
     1
1070
     0
1002
{
1002
}
1000
DIMTIX
1070
     1
1070
     0
1002
{
1002
}
1002
}
1000
GEN-ISO-ORD
1070
     5
1002
{
1000
NAME
1070
     4
1000
GEN-ISO$6
1002
{
1002
}
1000
DIMTOLJ
1070
     1
1070
     0
1002
{
1002
}
1000
M
1070
     0
1002
{
1002
}
1000
I
1070
     0
1002
{
1002
}
1002
}
1000
GEN-ISO-AXE-F
1070
     5
1002
{
1000
NAME
1070
     4
1000
GEN-ISO-AXE-F
1002
{
1002
}
1000
DIMSE1
1070
     1
1070
     1
1002
{
1002
}
1000
DIMSE2
1070
     1
1070
     1
1002
{
1002
}
1000
DIMTOLJ
1070
     1
1070
     0
1002
{
1002
}
1000
DIMTOFL
1070
     1
1070
     1
1002
{
1002
}
1000
M
1070
     0
1002
{
1002
}
1000
I
1070
     0
1002
{
1002
}
1000
DIMTAD
1070
     1
1070
     1
1002
{
1002
}
1002
}
1000
GEN-ISO-AXE-H
1070
     5
1002
{
1000
NAME
1070
     4
1000
GEN-ISO-AXE-H
1002
{
1002
}
1000
DIMBLK1
1070
     4
1000
GENAXEH
1002
{
1002
}
1000
DIMLFAC
1070
     2
1040
2.0
1002
{
1002
}
1000
DIMSAH
1070
     1
1070
     1
1002
{
1002
}
1000
DIMSE1
1070
     1
1070
     1
1002
{
1002
}
1000
DIMSE2
1070
     1
1070
     1
1002
{
1002
}
1000
DIMTAD
1070
     1
1070
     1
1002
{
1002
}
1000
DIMTOLJ
1070
     1
1070
     0
1002
{
1002
}
1000
DIMTOFL
1070
     1
1070
     1
1002
{
1002
}
1000
M
1070
     0
1002
{
1002
}
1000
I
1070
     0
1002
{
1002
}
1002
}
1000
GEN-ANSI
1070
     5
1002
{
1000
NAME
1070
     4
1000
GEN-ANSI
1002
{
1002
}
1000
DIMTIH
1070
     1
1070
     1
1002
{
1002
}
1000
DIMTOH
1070
     1
1070
     1
1002
{
1002
}
1000
DIMTAD
1070
     1
1070
     0
1002
{
1002
}
1000
DIMTOLJ
1070
     1
1070
     1
1002
{
1002
}
1000
M
1070
     0
1002
{
1002
}
1000
I
1070
     0
1002
{
1002
}
1002
}
1000
GEN-ANSI-POS
1070
     5
1002
{
1000
NAME
1070
     4
1000
GEN-ANSI-POS
1002
{
1002
}
1000
DIMTOLJ
1070
     1
1070
     1
1002
{
1002
}
1000
DIMTXSTY
1070
     4
1000
STANDARD
1002
{
1002
}
1000
M
1070
     0
1002
{
1000
DIMASZ
1070
     2
1040
2.5
1002
{
1002
}
1000
DIMGAP
1070
     2
1040
1.5
1002
{
1002
}
1000
DIMTXT
1070
     2
1040
5.0
1002
{
1002
}
1002
}
1000
I
1070
     0
1002
{
1000
DIMASZ
1070
     2
1040
0.1
1002
{
1002
}
1000
DIMGAP
1070
     2
1040
0.06
1002
{
1002
}
1000
DIMTXT
1070
     2
1040
0.2
1002
{
1002
}
1002
}
1002
}
1000
GEN-ANSI-CIR
1070
     5
1002
{
1000
NAME
1070
     4
1000
GEN-ANSI$3
1002
{
1002
}
1000
DIMFIT
1070
     1
1070
     0
1002
{
1002
}
1000
DIMTAD
1070
     1
1070
     0
1002
{
1002
}
1000
DIMTIH
1070
     1
1070
     1
1002
{
1002
}
1000
DIMTIX
1070
     1
1070
     0
1002
{
1002
}
1000
DIMTOFL
1070
     1
1070
     0
1002
{
1002
}
1000
DIMTOH
1070
     1
1070
     1
1002
{
1002
}
1000
DIMTOLJ
1070
     1
1070
     1
1002
{
1002
}
1000
DIMUPT
1070
     1
1070
     1
1002
{
1002
}
1000
M
1070
     0
1002
{
1002
}
1000
I
1070
     0
1002
{
1002
}
1002
}
1000
GEN-ANSI-RAD
1070
     5
1002
{
1000
NAME
1070
     4
1000
GEN-ANSI$4
1002
{
1002
}
1000
DIMFIT
1070
     1
1070
     0
1002
{
1002
}
1000
DIMTAD
1070
     1
1070
     0
1002
{
1002
}
1000
DIMTIH
1070
     1
1070
     1
1002
{
1002
}
1000
DIMTIX
1070
     1
1070
     0
1002
{
1002
}
1000
DIMTOFL
1070
     1
1070
     0
1002
{
1002
}
1000
DIMTOH
1070
     1
1070
     1
1002
{
1002
}
1000
DIMTOLJ
1070
     1
1070
     1
1002
{
1002
}
1000
DIMUPT
1070
     1
1070
     1
1002
{
1002
}
1000
M
1070
     0
1002
{
1002
}
1000
I
1070
     0
1002
{
1002
}
1002
}
1000
GEN-ANSI-ORD
1070
     5
1002
{
1000
NAME
1070
     4
1000
GEN-ANSI$6
1002
{
1002
}
1000
DIMTAD
1070
     1
1070
     0
1002
{
1002
}
1000
DIMTIH
1070
     1
1070
     1
1002
{
1002
}
1000
DIMTOH
1070
     1
1070
     1
1002
{
1002
}
1000
DIMTOLJ
1070
     1
1070
     1
1002
{
1002
}
1000
M
1070
     0
1002
{
1002
}
1000
I
1070
     0
1002
{
1002
}
1002
}
1000
GEN-ANSI-AXE-F
1070
     5
1002
{
1000
NAME
1070
     4
1000
GEN-ANSI-AXE-F
1002
{
1002
}
1000
DIMBLK1
1070
     4
1000
GENAXEH
1002
{
1002
}
1000
DIMSAH
1070
     1
1070
     1
1002
{
1002
}
1000
DIMSE1
1070
     1
1070
     1
1002
{
1002
}
1000
DIMSE2
1070
     1
1070
     1
1002
{
1002
}
1000
DIMTAD
1070
     1
1070
     0
1002
{
1002
}
1000
DIMTIH
1070
     1
1070
     1
1002
{
1002
}
1000
DIMTOH
1070
     1
1070
     1
1002
{
1002
}
1000
DIMTOLJ
1070
     1
1070
     1
1002
{
1002
}
1000
M
1070
     0
1002
{
1002
}
1000
I
1070
     0
1002
{
1002
}
1002
}
1000
GEN-ANSI-AXE-H
1070
     5
1002
{
1000
NAME
1070
     4
1000
GEN-ANSI-AXE-H
1002
{
1002
}
1000
DIMBLK1
1070
     4
1000
GENAXEH
1002
{
1002
}
1000
DIMLFAC
1070
     2
1040
2.0
1002
{
1002
}
1000
DIMSAH
1070
     1
1070
     1
1002
{
1002
}
1000
DIMSE1
1070
     1
1070
     1
1002
{
1002
}
1000
DIMSE2
1070
     1
1070
     1
1002
{
1002
}
1000
DIMTAD
1070
     1
1070
     0
1002
{
1002
}
1000
DIMTOFL
1070
     1
1070
     1
1002
{
1002
}
1000
DIMTOLJ
1070
     1
1070
     1
1002
{
1002
}
1000
M
1070
     0
1002
{
1002
}
1000
I
1070
     0
1002
{
1002
}
1002
}
1002
}
1000
DimSet
1070
     0
1002
{
1000
ChainSum
1070
     3
1070
     0
1002
{
1002
}
1000
DIMDCLTYP0
1070
     4
1000
dim23
1002
{
1002
}
1000
HorBra
1070
     3
1070
     0
1002
{
1002
}
1000
StrDia
1070
     4
1000
%%c<>
1002
{
1002
}
1000
StrRad
1070
     4
1000
R<>
1002
{
1002
}
1000
TextMinus
1070
     4
1000
<>
1002
{
1002
}
1000
TextPlus
1070
     4
1000
<>
1002
{
1002
}
1000
M
1070
     0
1002
{
1000
DimdliFirst
1070
     2
1040
10.0
1002
{
1002
}
1000
PointMakeDist
1070
     2
1040
10.0
1002
{
1002
}
1002
}
1000
I
1070
     0
1002
{
1000
DimdliFirst
1070
     2
1040
0.5
1002
{
1002
}
1000
PointMakeDist
1070
     2
1040
0.5
1002
{
1002
}
1002
}
1000
FitGrade
1070
     4
1000
h7
1002
{
1002
}
1002
}
1000
Drawing
1070
     0
1002
{
1000
ChamferDimMode
1070
     1
1070
     2
1002
{
1002
}
1000
Gen_Fiso
1070
    -3
1040
1.0
1002
{
1002
}
1000
GenDimStil
1070
     4
1000
ISO
1002
{
1002
}
1000
GenDwgUScale
1070
     2
1040
1.0
1002
{
1002
}
1000
GenInch
1070
     4
1000
M
1002
{
1002
}
1000
GenPlotScale
1070
     4
1000
1:1
1002
{
1002
}
1000
Revisi
1070
     4
1000
0
1002
{
1002
}
1000
Version
1070
    -5
1000
14.01a/Sep 23 1998
1002
{
1002
}
1000
Platform
1070
    -5
1000
WINNT
1002
{
1002
}
1002
}
1000
DwgVar
1070
     0
1002
{
1000
M
1070
     0
1002
{
1002
}
1000
I
1070
     0
1002
{
1002
}
1002
}
1000
Hatch
1070
     0
1002
{
1000
GenHtcFlag
1070
     3
1070
     0
1002
{
1002
}
1002
}
1000
Info_Pos
1070
     0
1002
{
1000
>
1002
}
1000
Layer
1070
     7
1002
{
1000
Defs
1070
     0
1002
{
1000
>
1002
}
1000
EntSort
1070
     0
1002
{
1000
>
1002
}
1000
Match
1070
     0
1002
{
1002
}
1000
Settings
1070
     0
1002
{
1000
FocGrNC
1070
     3
1070
     0
1002
{
1002
}
1000
FocGrLo
1070
     3
1070
     0
1002
{
1002
}
1000
FocLoNC
1070
     3
1070
     0
1002
{
1002
}
1000
FocusCol
1070
     1
1070
   253
1002
{
1002
}
1000
GenStdLG
1070
     4
1000

1002
{
1002
}
1000
LayMatch
1070
     3
1070
     0
1002
{
1002
}
1000
LgOff
1070
     3
1070
     0
1002
{
1002
}
1000
CurLG
1070
    -5
1000

1002
{
1002
}
1002
}
1002
}
1000
LType
1070
     0
1002
{
1000
GEN3
1070
    10
1000
genius.lin
1002
{
1002
}
1000
GEN7
1070
    10
1000
genius.lin
1002
{
1002
}
1000
GEN4A
1070
    10
1000
genius.lin
1002
{
1002
}
1000
GEN3A
1070
    10
1000
genius.lin
1002
{
1002
}
1000
GEN7A
1070
    10
1000
genius.lin
1002
{
1002
}
1000
GENZIGZAG
1070
    10
1000
genius.lin
1002
{
1002
}
1002
}
1000
Objecter
1070
     0
1002
{
1000
CreateGroups
1070
     3
1070
     0
1002
{
1002
}
1000
LaySwitch
1070
     3
1070
     1
1002
{
1002
}
1000
LastObj
1070
    -5
1000
E95
1002
{
1002
}
1000
TimeStamp
1070
    -5
1000
19991115.16525248
1002
{
1002
}
1002
}
1000
OSWiz
1070
     0
1002
{
1000
Filter
1070
     0
1002
{
1000
HATCH
1070
    11
1002
{
1000
EntityType
1070
     4
1000
LINE
1002
{
1002
}
1000
Layer
1070
     4
1000
8,8N,*-8,*-8N
1002
{
1002
}
1000
Linetype
1070
     4
1000
*
1002
{
1002
}
1000
Color
1070
     4
1000
*
1002
{
1002
}
1000
ApplyInDims
1070
     3
1070
     1
1002
{
1002
}
1002
}
1000
SYMBOLS
1070
    11
1002
{
1000
EntityType
1070
     4
1000
*
1002
{
1002
}
1000
Layer
1070
     4
1000
[5-6],[5-6]N,*-[5-6],*-[5-6]N,AM_PARDIM,AM_REFDIM
1002
{
1002
}
1000
Linetype
1070
     4
1000
*
1002
{
1002
}
1000
Color
1070
     4
1000
*
1002
{
1002
}
1000
ApplyInDims
1070
     3
1070
     1
1002
{
1002
}
1002
}
1000
FEM
1070
    11
1002
{
1000
EntityType
1070
     4
1000
*
1002
{
1002
}
1000
Layer
1070
     4
1000
4A,4AN,*-4A,*-4AN
1002
{
1002
}
1000
Linetype
1070
     4
1000
*
1002
{
1002
}
1000
Color
1070
     4
1000
*
1002
{
1002
}
1000
ApplyInDims
1070
     3
1070
     1
1002
{
1002
}
1002
}
1002
}
1002
}
1000
PaList
1070
     0
1002
{
1000
AcadMBomWarning
1070
     3
1070
     1
1002
{
1002
}
1000
AutoUpdatePartList
1070
     1
1070
     0
1002
{
1002
}
1000
ReadInfoPoint
1070
     3
1070
     0
1002
{
1002
}
1000
ReadPosNr
1070
     3
1070
     1
1002
{
1002
}
1000
RevStr
1070
     4
1000
0
1002
{
1002
}
1002
}
1000
Paper
1070
     0
1002
{
1000
Layer
1070
    -5
1000

1002
{
1002
}
1000
LTScale
1070
    -3
1040
1.0
1002
{
1002
}
1000
PSpaceDefs
1070
    -4
1070
     1
1002
{
1002
}
1000
Viewport
1070
    -1
1002
{
1000
F4A
1070
    -1
1002
{
1000
Plotfactor
1070
    -3
1040
2.0
1002
{
1002
}
1000
Dwgfactor
1070
    -3
1040
1.0
1002
{
1002
}
1000
MSBorder
1070
    -5
1000
C13
1002
{
1002
}
1002
}
1002
}
1002
}
1000
PartDB
1070
     0
1002
{
1000
GenDbOwner
1070
     4
1000

1002
{
1002
}
1002
}
1000
System
1070
     0
1002
{
1000
Menu
1070
     4
1000
GEV
1002
{
1002
}
1002
}
1000
Title
1070
     0
1002
{
1000
MakeView
1070
     1
1070
     2
1002
{
1002
}
1002
}
1000
Tools
1070
     0
1002
{
1000
Trans
1070
     0
1002
{
1000
Drawingtranslation
1070
    -4
1070
     1
1002
{
1002
}
1000
upreserve
1070
     3
1070
     0
1002
{
1002
}
1000
originally_on
1070
    -4
1070
     0
1002
{
1002
}
1000
sourcelang
1070
    -5
1000
d
1002
{
1002
}
1002
}
1002
}
  0
APPID
  5
35A
330
9
100
AcDbSymbolTableRecord
100
AcDbRegAppTableRecord
  2
GENIUS_GEVCFG0_13
 70
     0
1001
GENIUS_GENCFG_13
1071
942681172
1000
35A
1000
GEV
1070
     1
1000
GenCfgObject
1000
VED
1070
     0
1002
{
1002
}
  0
APPID
  5
3B3
330
9
100
AcDbSymbolTableRecord
100
AcDbRegAppTableRecord
  2
GENIUS_GENOENT_13
 70
     0
  0
APPID
  5
452
330
9
100
AcDbSymbolTableRecord
100
AcDbRegAppTableRecord
  2
GEV_VCCNULL_SWITCH_OFF
 70
     0
  0
APPID
  5
460
330
9
100
AcDbSymbolTableRecord
100
AcDbRegAppTableRecord
  2
GENIUS_GENDTOL_13
 70
     0
  0
APPID
  5
76D
330
9
100
AcDbSymbolTableRecord
100
AcDbRegAppTableRecord
  2
GENIUS_GENODEF_13
 70
     0
  0
APPID
  5
76E
330
9
100
AcDbSymbolTableRecord
100
AcDbRegAppTableRecord
  2
GENIUS_GENOBJ-N-CEN_13
 70
     0
  0
APPID
  5
C19
330
9
100
AcDbSymbolTableRecord
100
AcDbRegAppTableRecord
  2
GENIUS_GENOBJ-N-SDF_13
 70
     0
  0
APPID
  5
C1A
330
9
100
AcDbSymbolTableRecord
100
AcDbRegAppTableRecord
  2
GENIUS_GENSCREG_13
 70
     0
  0
APPID
  5
DE4
330
9
100
AcDbSymbolTableRecord
100
AcDbRegAppTableRecord
  2
GENIUS_GENBLLY_14
 70
     0
  0
APPID
  5
DE5
330
9
100
AcDbSymbolTableRecord
100
AcDbRegAppTableRecord
  2
GENIUS_GENREC_14
 70
     0
  0
APPID
  5
DE6
330
9
100
AcDbSymbolTableRecord
100
AcDbRegAppTableRecord
  2
GENIUS_GENOBJ-N-REC_13
 70
     0
  0
APPID
  5
DE7
330
9
100
AcDbSymbolTableRecord
100
AcDbRegAppTableRecord
  2
GENIUS_GENTRA_14
 70
     0
  0
APPID
  5
DE8
330
9
100
AcDbSymbolTableRecord
100
AcDbRegAppTableRecord
  2
GENIUS_GENOREF_13
 70
     0
  0
APPID
  5
DE9
330
9
100
AcDbSymbolTableRecord
100
AcDbRegAppTableRecord
  2
GENIUS_GENOLIS_13
 70
     0
  0
APPID
  5
DEA
330
9
100
AcDbSymbolTableRecord
100
AcDbRegAppTableRecord
  2
GENIUS_GENOBJ-N-CRS_13
 70
     0
  0
APPID
  5
DEB
330
9
100
AcDbSymbolTableRecord
100
AcDbRegAppTableRecord
  2
GENIUS_GENOBJ-N-HTC_13
 70
     0
  0
APPID
  5
DEC
330
9
100
AcDbSymbolTableRecord
100
AcDbRegAppTableRecord
  2
GENIUS_GENHATCH_13
 70
     0
  0
APPID
  5
DED
330
9
100
AcDbSymbolTableRecord
100
AcDbRegAppTableRecord
  2
GENIUS_GENOBJ-N-TIT_13
 70
     0
  0
APPID
  5
DEE
330
9
100
AcDbSymbolTableRecord
100
AcDbRegAppTableRecord
  2
GENIUS_GENTITLE_13
 70
     0
  0
APPID
  5
DEF
330
9
100
AcDbSymbolTableRecord
100
AcDbRegAppTableRecord
  2
GENIUS_GENZVEED_13
 70
     0
  0
APPID
  5
E19
330
9
100
AcDbSymbolTableRecord
100
AcDbRegAppTableRecord
  2
MCAD_NO_VIS
 70
     0
  0
APPID
  5
E1A
330
9
100
AcDbSymbolTableRecord
100
AcDbRegAppTableRecord
  2
ACAD_TEMP_GRAPHIC
 70
     0
  0
APPID
  5
E1B
330
9
100
AcDbSymbolTableRecord
100
AcDbRegAppTableRecord
  2
AD_DRAW
 70
     0
  0
APPID
  5
E1C
330
9
100
AcDbSymbolTableRecord
100
AcDbRegAppTableRecord
  2
DESIGNERASSEMBLIES
 70
     0
  0
APPID
  5
E1D
330
9
100
AcDbSymbolTableRecord
100
AcDbRegAppTableRecord
  2
ASURF_PCURVE_APPNAME
 70
     0
  0
APPID
  5
E1E
330
9
100
AcDbSymbolTableRecord
100
AcDbRegAppTableRecord
  2
GENIUS_GE3CFG0_13
 70
     0
1001
GENIUS_GENCFG_13
1071
942681172
1000
E1E
1000
GE3
1070
     2
1000
GenCfgObject
1000
GenCfgShort
1000
Dimension
1070
     0
1002
{
1000
RefDimEnhance
1070
     1
1070
     1
1002
{
1002
}
1000
RefDim
1070
     0
1002
{
1000
DIMCLRD
1070
     1
1070
     1
1002
{
1002
}
1002
}
1002
}
1000
Drawing
1070
     0
1002
{
1000
MSpace3D
1070
     1
1070
     1
1002
{
1002
}
1000
UpdateList
1070
     1
1070
     1
1002
{
1002
}
1002
}
1000
Shaft
1070
     0
1002
{
1002
}
1000
View
1070
     0
1002
{
1002
}
  0
APPID
  5
1121
330
9
100
AcDbSymbolTableRecord
100
AcDbRegAppTableRecord
  2
GENIUS_GENDIM_13
 70
     0
  0
APPID
  5
1123
330
9
100
AcDbSymbolTableRecord
100
AcDbRegAppTableRecord
  2
GENIUS_GE3DTOL_13
 70
     0
  0
APPID
  5
112B
330
9
100
AcDbSymbolTableRecord
100
AcDbRegAppTableRecord
  2
ACATTRIBSERVICES
 70
     0
  0
APPID
  5
1146
330
9
100
AcDbSymbolTableRecord
100
AcDbRegAppTableRecord
  2
AMG_3D2D_5.0
 70
     0
  0
APPID
  5
1185
330
9
100
AcDbSymbolTableRecord
100
AcDbRegAppTableRecord
  2
ACADM_DIM_EDIT
 70
     0
  0
APPID
  5
1186
330
9
100
AcDbSymbolTableRecord
100
AcDbRegAppTableRecord
  2
AMDT_DM_ADJ
 70
     0
  0
APPID
  5
1195
330
9
100
AcDbSymbolTableRecord
100
AcDbRegAppTableRecord
  2
GENIUS_GENSCREG_15
 70
     0
  0
APPID
  5
1242
330
9
100
AcDbSymbolTableRecord
100
AcDbRegAppTableRecord
  2
GENIUS_GENDIMSH_14
 70
     0
  0
APPID
  5
12CC
330
9
100
AcDbSymbolTableRecord
100
AcDbRegAppTableRecord
  2
GENIUS_AMGTXT_16
 70
     0
  0
APPID
  5
1634
330
9
100
AcDbSymbolTableRecord
100
AcDbRegAppTableRecord
  2
GENIUS_GENOBJ-N-FIL_13
 70
     0
  0
APPID
  5
1D36
330
9
100
AcDbSymbolTableRecord
100
AcDbRegAppTableRecord
  2
ACAD_EXEMPT_FROM_CAD_STANDARDS
 70
     0
  0
APPID
  5
2058
330
9
100
AcDbSymbolTableRecord
100
AcDbRegAppTableRecord
  2
ACAD_MLEADERVER
 70
     0
  0
ENDTAB
  0
TABLE
  2
DIMSTYLE
  5
A
330
0
100
AcDbSymbolTable
 70
    31
100
AcDbDimStyleTable
 71
     1
340
43
  0
DIMSTYLE
105
40
102
{ACAD_REACTORS
330
3A5
102
}
330
A
100
AcDbSymbolTableRecord
100
AcDbDimStyleTableRecord
  2
STANDARD
 70
     0
 41
3.0
 42
0.0
 43
10.0
 44
1.0
 73
     0
 74
     0
 77
     1
 78
     8
140
3.5
141
0.0
143
0.0394
146
0.71
147
1.0
171
     4
172
     1
176
   256
177
   256
178
     2
340
F
  0
DIMSTYLE
105
41
330
A
100
AcDbSymbolTableRecord
100
AcDbDimStyleTableRecord
  2
GEN-ISO$4
 70
     0
  3
<>
  4
"
 41
3.0
 42
0.0
 43
10.0
 44
1.0
 47
0.1
 48
0.1
 73
     0
 77
     1
 78
     8
140
3.5
141
0.0
143
0.03937
146
0.71
147
1.0
176
   256
177
   256
178
     2
340
F
  0
DIMSTYLE
105
42
102
{ACAD_REACTORS
330
1FE0
102
}
330
A
100
AcDbSymbolTableRecord
100
AcDbDimStyleTableRecord
  2
GEN-ISO$3
 70
     0
  3
<>
  4
"
 41
3.0
 42
0.0
 43
10.0
 44
1.0
 47
0.1
 48
0.1
 73
     0
 77
     1
 78
     8
140
3.5
141
0.0
143
0.03937
146
0.71
147
1.0
176
   256
177
   256
178
     2
340
F
  0
DIMSTYLE
105
43
102
{ACAD_REACTORS
330
1A65
330
1ACA
330
1AFC
330
1B53
330
1C33
330
1C57
330
1C7F
330
1CA3
330
1CC7
102
}
330
A
100
AcDbSymbolTableRecord
100
AcDbDimStyleTableRecord
  2
GEN-ISO
 70
     0
  4
"
 41
3.0
 42
0.0
 43
10.0
 44
1.0
 47
0.1
 48
0.1
 73
     0
 74
     0
 77
     1
 78
     8
140
3.5
141
0.0
143
0.03937
146
0.71
147
1.0
172
     1
176
   256
177
   256
178
     2
340
F
  0
DIMSTYLE
105
441
330
A
100
AcDbSymbolTableRecord
100
AcDbDimStyleTableRecord
  2
ISO-25
 70
     0
 41
2.5
 42
0.625
 43
3.75
 44
1.25
 74
     0
 77
     1
 78
     8
140
2.5
141
2.5
143
0.0394
145
1.0
147
0.625
172
     1
340
F
  0
DIMSTYLE
105
1178
330
A
100
AcDbSymbolTableRecord
100
AcDbDimStyleTableRecord
  2
AM_ANSI
 70
     0
  4
"
 41
2.5
 42
1.0
 43
10.0
 44
1.0
 47
0.1
 48
0.1
 78
     8
 79
     2
140
3.5
141
0.0
143
0.0393701
146
0.71
147
1.5
176
   256
177
   256
178
     2
271
     2
272
     3
274
     4
284
     8
340
F
371
    -1
372
    -1
  0
DIMSTYLE
105
1179
330
A
100
AcDbSymbolTableRecord
100
AcDbDimStyleTableRecord
  2
AM_ANSI$3
 70
     0
  4
"
 41
2.5
 42
1.0
 43
10.0
 44
1.0
 47
0.1
 48
0.1
 78
     8
 79
     2
140
3.5
141
0.0
143
0.0393701
146
0.71
147
1.5
176
   256
177
   256
178
     2
271
     2
272
     3
274
     4
284
     8
288
     1
289
     0
340
F
371
    -1
372
    -1
  0
DIMSTYLE
105
117A
330
A
100
AcDbSymbolTableRecord
100
AcDbDimStyleTableRecord
  2
AM_ANSI$4
 70
     0
  4
"
 41
2.5
 42
1.0
 43
10.0
 44
1.0
 47
0.1
 48
0.1
 78
     8
 79
     2
140
3.5
141
0.0
143
0.0393701
146
0.71
147
1.5
176
   256
177
   256
178
     2
271
     2
272
     3
274
     4
284
     8
288
     1
289
     0
340
F
371
    -1
372
    -1
  0
DIMSTYLE
105
117B
330
A
100
AcDbSymbolTableRecord
100
AcDbDimStyleTableRecord
  2
AM_ANSI$7
 70
     0
  4
"
 41
2.5
 42
1.0
 43
10.0
 44
1.0
 47
0.1
 48
0.1
 78
     8
 79
     2
140
5.0
141
0.0
143
0.0393701
146
0.71
147
1.5
176
   256
177
   256
178
     2
271
     2
272
     3
274
     4
284
     8
340
F
371
    -1
372
    -1
  0
DIMSTYLE
105
117C
330
A
100
AcDbSymbolTableRecord
100
AcDbDimStyleTableRecord
  2
AM_ANSI$SF
 70
     0
  4
"
 41
2.5
 42
1.0
 43
10.0
 44
1.0
 47
0.1
 48
0.1
 75
     1
 76
     1
 78
     8
 79
     2
140
3.5
141
0.0
143
0.0393701
146
0.71
147
1.5
176
   256
177
   256
178
     2
271
     2
272
     3
274
     4
284
     8
340
F
371
    -1
372
    -1
  0
DIMSTYLE
105
1181
330
A
100
AcDbSymbolTableRecord
100
AcDbDimStyleTableRecord
  2
AM_ANSI$SH
 70
     0
  4
"
 41
2.5
 42
1.0
 43
10.0
 44
1.0
 47
0.1
 48
0.1
 75
     1
 76
     1
 78
     8
 79
     2
140
3.5
141
0.0
143
0.0393701
146
0.71
147
1.5
173
     1
176
   256
177
   256
178
     2
271
     2
272
     3
274
     4
284
     8
340
F
343
117D
371
    -1
372
    -1
  0
DIMSTYLE
105
118B
330
A
100
AcDbSymbolTableRecord
100
AcDbDimStyleTableRecord
  2
GEN-ANSI
 70
     0
  3
<>
  4
"
 41
3.0
 42
0.0
 43
10.0
 44
1.0
 47
0.1
 48
0.1
 78
     8
140
3.5
141
0.0
143
0.0393701
146
0.71
147
1.0
176
   256
177
   256
178
     2
271
     1
272
     3
274
     4
275
     1
284
     8
340
F
  0
DIMSTYLE
105
118C
330
A
100
AcDbSymbolTableRecord
100
AcDbDimStyleTableRecord
  2
GEN-ANSI$3
 70
     0
  3
<>
  4
"
 41
3.0
 42
0.0
 43
10.0
 44
1.0
 47
0.1
 48
0.1
 78
     8
140
3.5
141
0.0
143
0.0393701
146
0.71
147
1.0
176
   256
177
   256
178
     2
271
     1
272
     3
274
     4
275
     1
284
     8
288
     1
289
     0
340
F
  0
DIMSTYLE
105
118D
330
A
100
AcDbSymbolTableRecord
100
AcDbDimStyleTableRecord
  2
GEN-ANSI$4
 70
     0
  3
<>
  4
"
 41
3.0
 42
0.0
 43
10.0
 44
1.0
 47
0.1
 48
0.1
 78
     8
140
3.5
141
0.0
143
0.0393701
146
0.71
147
1.0
176
   256
177
   256
178
     2
271
     1
272
     3
274
     4
275
     1
284
     8
288
     1
289
     0
340
F
  0
DIMSTYLE
105
118E
330
A
100
AcDbSymbolTableRecord
100
AcDbDimStyleTableRecord
  2
GEN-ANSI$6
 70
     0
  3
<>
  4
"
 41
3.0
 42
0.0
 43
10.0
 44
1.0
 47
0.1
 48
0.1
 78
     8
140
3.5
141
0.0
143
0.0393701
146
0.71
147
1.0
176
   256
177
   256
178
     2
271
     1
272
     3
274
     4
275
     1
284
     8
340
F
  0
DIMSTYLE
105
118F
330
A
100
AcDbSymbolTableRecord
100
AcDbDimStyleTableRecord
  2
GEN-ANSI-POS
 70
     0
  3
<>
  4
"
 41
2.5
 42
0.0
 43
10.0
 44
1.0
 47
0.1
 48
0.1
 73
     0
 74
     0
 78
     8
140
5.0
141
0.0
143
0.0393701
146
0.71
147
1.5
176
   256
177
   256
178
     2
271
     1
272
     3
274
     4
275
     1
284
     8
340
F
  0
DIMSTYLE
105
1190
330
A
100
AcDbSymbolTableRecord
100
AcDbDimStyleTableRecord
  2
GEN-ANSI-AXE-F
 70
     0
  3
<>
  4
"
 41
3.0
 42
0.0
 43
10.0
 44
1.0
 47
0.1
 48
0.1
 75
     1
 76
     1
 78
     8
140
3.5
141
0.0
143
0.0393701
146
0.71
147
1.0
173
     1
176
   256
177
   256
178
     2
271
     1
272
     3
274
     4
275
     1
284
     8
340
F
343
117D
  0
DIMSTYLE
105
1191
330
A
100
AcDbSymbolTableRecord
100
AcDbDimStyleTableRecord
  2
GEN-ANSI-AXE-H
 70
     0
  3
<>
  4
"
 41
3.0
 42
0.0
 43
10.0
 44
1.0
 47
0.1
 48
0.1
 73
     0
 74
     0
 75
     1
 76
     1
 78
     8
140
3.5
141
0.0
143
0.0393701
144
2.0
146
0.71
147
1.0
172
     1
173
     1
176
   256
177
   256
178
     2
271
     1
272
     3
274
     4
275
     1
284
     8
340
F
343
117D
  0
DIMSTYLE
105
11EE
330
A
100
AcDbSymbolTableRecord
100
AcDbDimStyleTableRecord
  2
ISO-35
 70
     0
 41
3.5
 42
0.875
 43
5.25
 44
1.75
 73
     0
 74
     0
 77
     1
 78
     8
140
3.5
141
3.5
143
0.0394
147
0.875
171
     4
172
     1
273
     8
274
     4
277
     6
340
F
  0
DIMSTYLE
105
11EF
330
A
100
AcDbSymbolTableRecord
100
AcDbDimStyleTableRecord
  2
ISO1
 70
     0
 41
10.0
 42
2.5
 43
15.0
 44
5.0
 73
     0
 74
     0
 77
     1
 78
     8
140
10.0
141
10.0
143
0.0394
147
2.5
171
     4
172
     1
273
     8
274
     4
277
     6
340
F
  0
DIMSTYLE
105
11F0
330
A
100
AcDbSymbolTableRecord
100
AcDbDimStyleTableRecord
  2
ISO1-4
 70
     0
 41
14.0
 42
3.5
 43
21.0
 44
7.0
 74
     0
 77
     1
 78
     8
140
14.0
141
14.0
143
0.0394
145
5.599999999999999
147
3.5
172
     1
273
     8
277
     6
340
F
  0
DIMSTYLE
105
11F1
330
A
100
AcDbSymbolTableRecord
100
AcDbDimStyleTableRecord
  2
ISO2
 70
     0
 41
20.0
 42
5.0
 43
30.0
 44
10.0
 73
     0
 74
     0
 77
     1
 78
     8
140
20.0
141
20.0
143
0.0394
147
5.0
171
     4
172
     1
273
     8
274
     4
277
     6
340
F
  0
DIMSTYLE
105
11F2
330
A
100
AcDbSymbolTableRecord
100
AcDbDimStyleTableRecord
  2
AM_ISO
 70
     0
  4
"
 41
2.5
 42
1.0
 43
10.0
 44
1.0
 47
0.1
 48
0.1
 73
     0
 74
     0
 77
     1
 78
     8
 79
     2
140
3.5
141
0.0
143
0.0393701
146
0.71
147
1.5
172
     1
176
   256
177
   256
178
     2
271
     2
272
     3
274
     4
283
     0
340
F
371
    -1
372
    -1
  0
DIMSTYLE
105
11F3
330
A
100
AcDbSymbolTableRecord
100
AcDbDimStyleTableRecord
  2
AM_ISO$3
 70
     0
  4
"
 41
2.5
 42
1.0
 43
10.0
 44
1.0
 47
0.1
 48
0.1
 73
     0
 77
     1
 78
     8
 79
     2
140
3.5
141
0.0
143
0.0393701
146
0.71
147
1.5
176
   256
177
   256
178
     2
271
     2
272
     2
283
     0
288
     1
289
     0
340
F
371
    -1
372
    -1
  0
DIMSTYLE
105
11F4
330
A
100
AcDbSymbolTableRecord
100
AcDbDimStyleTableRecord
  2
AM_ISO$4
 70
     0
  4
"
 41
2.5
 42
1.0
 43
10.0
 44
1.0
 47
0.1
 48
0.1
 73
     0
 77
     1
 78
     8
 79
     2
140
3.5
141
0.0
143
0.0393701
146
0.71
147
1.5
176
   256
177
   256
178
     2
271
     2
272
     2
283
     0
288
     1
289
     0
340
F
371
    -1
372
    -1
  0
DIMSTYLE
105
11F5
330
A
100
AcDbSymbolTableRecord
100
AcDbDimStyleTableRecord
  2
AM_ISO$6
 70
     0
  4
"
 41
2.5
 42
1.0
 43
10.0
 44
1.0
 47
0.1
 48
0.1
 73
     0
 74
     0
 78
     8
 79
     2
140
3.5
141
0.0
143
0.0393701
146
0.71
147
1.5
172
     1
176
   256
177
   256
178
     2
271
     2
272
     3
274
     4
283
     0
340
F
371
    -1
372
    -1
  0
DIMSTYLE
105
11F6
330
A
100
AcDbSymbolTableRecord
100
AcDbDimStyleTableRecord
  2
AM_ISO$7
 70
     0
  4
"
 41
2.5
 42
1.0
 43
10.0
 44
1.0
 47
0.1
 48
0.1
 73
     0
 74
     0
 77
     1
 78
     8
 79
     2
140
5.0
141
0.0
143
0.0393701
146
0.71
147
1.5
172
     1
176
   256
177
   256
178
     2
271
     2
272
     3
274
     4
283
     0
340
F
371
    -1
372
    -1
  0
DIMSTYLE
105
11F7
330
A
100
AcDbSymbolTableRecord
100
AcDbDimStyleTableRecord
  2
AM_ISO$SF
 70
     0
  4
"
 41
2.5
 42
1.0
 43
10.0
 44
1.0
 47
0.1
 48
0.1
 73
     0
 74
     0
 75
     1
 76
     1
 77
     1
 78
     8
 79
     2
140
3.5
141
0.0
143
0.0393701
146
0.71
147
1.5
172
     1
176
   256
177
   256
178
     2
271
     2
272
     3
274
     4
283
     0
340
F
371
    -1
372
    -1
  0
DIMSTYLE
105
11F8
330
A
100
AcDbSymbolTableRecord
100
AcDbDimStyleTableRecord
  2
AM_ISO$SH
 70
     0
  4
"
 41
2.5
 42
1.0
 43
10.0
 44
1.0
 47
0.1
 48
0.1
 73
     0
 74
     0
 75
     1
 76
     1
 77
     1
 78
     8
 79
     2
140
3.5
141
0.0
143
0.0393701
144
2.0
146
0.71
147
1.5
172
     1
173
     1
176
   256
177
   256
178
     2
271
     2
272
     3
274
     4
283
     0
340
F
343
117D
371
    -1
372
    -1
  0
DIMSTYLE
105
1D74
102
{ACAD_REACTORS
330
1A65
330
1ACA
330
1AFC
330
1B53
330
1C33
330
1C57
330
1C7F
330
1CA3
330
1CC7
330
1F78
330
1F98
330
1FC6
102
}
330
A
100
AcDbSymbolTableRecord
100
AcDbDimStyleTableRecord
  2
GEN-ISO$0
 70
     0
  4
"
 41
3.0
 42
0.0
 43
10.0
 44
1.0
 47
0.1
 48
0.1
 73
     0
 74
     0
 77
     1
 78
     8
140
3.5
141
0.0
143
0.03937
146
0.71
147
1.0
172
     1
176
   256
177
   256
178
     2
340
F
  0
ENDTAB
  0
TABLE
  2
BLOCK_RECORD
  5
1
330
0
100
AcDbSymbolTable
 70
    45
  0
BLOCK_RECORD
  5
18
102
{ACAD_XDICTIONARY
360
10D7
102
}
330
1
100
AcDbSymbolTableRecord
100
AcDbBlockTableRecord
  2
*MODEL_SPACE
340
1117
 70
     0
280
     1
281
     0
  0
BLOCK_RECORD
  5
15
330
1
100
AcDbSymbolTableRecord
100
AcDbBlockTableRecord
  2
*PAPER_SPACE
340
1118
 70
     0
280
     1
281
     0
  0
BLOCK_RECORD
  5
45
330
1
100
AcDbSymbolTableRecord
100
AcDbBlockTableRecord
  2
DXF_DUMMY
340
0
 70
     0
280
     1
281
     0
  0
BLOCK_RECORD
  5
48
330
1
100
AcDbSymbolTableRecord
100
AcDbBlockTableRecord
  2
BLK0
340
0
102
{BLKREFS
331
1F0
102
}
 70
     0
280
     1
281
     0
  0
BLOCK_RECORD
  5
4B
330
1
100
AcDbSymbolTableRecord
100
AcDbBlockTableRecord
  2
BLK1
340
0
 70
     0
280
     1
281
     0
  0
BLOCK_RECORD
  5
50
330
1
100
AcDbSymbolTableRecord
100
AcDbBlockTableRecord
  2
BLK2
340
0
 70
     0
280
     1
281
     0
  0
BLOCK_RECORD
  5
54
330
1
100
AcDbSymbolTableRecord
100
AcDbBlockTableRecord
  2
BLK3
340
0
 70
     0
280
     1
281
     0
  0
BLOCK_RECORD
  5
58
330
1
100
AcDbSymbolTableRecord
100
AcDbBlockTableRecord
  2
BLK4
340
0
102
{BLKREFS
331
1F4
102
}
 70
     0
280
     1
281
     0
  0
BLOCK_RECORD
  5
5B
330
1
100
AcDbSymbolTableRecord
100
AcDbBlockTableRecord
  2
BLK5
340
0
 70
     0
280
     1
281
     0
  0
BLOCK_RECORD
  5
5F
330
1
100
AcDbSymbolTableRecord
100
AcDbBlockTableRecord
  2
BLK6
340
0
 70
     0
280
     1
281
     0
  0
BLOCK_RECORD
  5
63
330
1
100
AcDbSymbolTableRecord
100
AcDbBlockTableRecord
  2
BLK7
340
0
102
{BLKREFS
331
1F7
102
}
 70
     0
280
     1
281
     0
  0
BLOCK_RECORD
  5
66
330
1
100
AcDbSymbolTableRecord
100
AcDbBlockTableRecord
  2
BLK8
340
0
102
{BLKREFS
331
1F8
102
}
 70
     0
280
     1
281
     0
  0
BLOCK_RECORD
  5
69
330
1
100
AcDbSymbolTableRecord
100
AcDbBlockTableRecord
  2
BLK9
340
0
102
{BLKREFS
331
1F9
102
}
 70
     0
280
     1
281
     0
  0
BLOCK_RECORD
  5
6C
330
1
100
AcDbSymbolTableRecord
100
AcDbBlockTableRecord
  2
BLK10
340
0
102
{BLKREFS
331
1FA
102
}
 70
     0
280
     1
281
     0
  0
BLOCK_RECORD
  5
6F
330
1
100
AcDbSymbolTableRecord
100
AcDbBlockTableRecord
  2
BLK11
340
0
 70
     0
280
     1
281
     0
  0
BLOCK_RECORD
  5
73
330
1
100
AcDbSymbolTableRecord
100
AcDbBlockTableRecord
  2
BLK12
340
0
102
{BLKREFS
331
1FC
102
}
 70
     0
280
     1
281
     0
  0
BLOCK_RECORD
  5
76
330
1
100
AcDbSymbolTableRecord
100
AcDbBlockTableRecord
  2
BLK13
340
0
102
{BLKREFS
331
1FD
102
}
 70
     0
280
     1
281
     0
  0
BLOCK_RECORD
  5
79
330
1
100
AcDbSymbolTableRecord
100
AcDbBlockTableRecord
  2
BLK14
340
0
102
{BLKREFS
331
1FE
102
}
 70
     0
280
     1
281
     0
  0
BLOCK_RECORD
  5
7C
330
1
100
AcDbSymbolTableRecord
100
AcDbBlockTableRecord
  2
BLK15
340
0
102
{BLKREFS
331
1FF
102
}
 70
     0
280
     1
281
     0
  0
BLOCK_RECORD
  5
369
330
1
100
AcDbSymbolTableRecord
100
AcDbBlockTableRecord
  2
BLK19
340
0
102
{BLKREFS
331
391
102
}
 70
     0
280
     1
281
     0
  0
BLOCK_RECORD
  5
37B
330
1
100
AcDbSymbolTableRecord
100
AcDbBlockTableRecord
  2
*D18
340
0
 70
     0
280
     1
281
     0
  0
BLOCK_RECORD
  5
390
330
1
100
AcDbSymbolTableRecord
100
AcDbBlockTableRecord
  2
A$C7FD32EDB
340
0
 70
     0
280
     1
281
     0
  0
BLOCK_RECORD
  5
43E
330
1
100
AcDbSymbolTableRecord
100
AcDbBlockTableRecord
  2
GEVCON
340
0
 70
     0
280
     1
281
     0
  0
BLOCK_RECORD
  5
442
330
1
100
AcDbSymbolTableRecord
100
AcDbBlockTableRecord
  2
GEVEP
340
0
 70
     0
280
     1
281
     0
  0
BLOCK_RECORD
  5
44B
330
1
100
AcDbSymbolTableRecord
100
AcDbBlockTableRecord
  2
GEVFRAME
340
0
 70
     0
280
     1
281
     0
  0
BLOCK_RECORD
  5
6B5
330
1
100
AcDbSymbolTableRecord
100
AcDbBlockTableRecord
  2
A$C56802A2B
340
0
 70
     0
280
     1
281
     0
  0
BLOCK_RECORD
  5
D82
330
1
100
AcDbSymbolTableRecord
100
AcDbBlockTableRecord
  2
SCHUTZR1
340
0
 70
     0
280
     1
281
     0
  0
BLOCK_RECORD
  5
D87
330
1
100
AcDbSymbolTableRecord
100
AcDbBlockTableRecord
  2
GLUTZ1
340
0
102
{BLKREFS
331
1092
331
E3D
102
}
 70
     0
280
     1
281
     0
  0
BLOCK_RECORD
  5
DF0
330
1
100
AcDbSymbolTableRecord
100
AcDbBlockTableRecord
  2
GEN_A4
340
0
 70
     0
280
     1
281
     0
  0
BLOCK_RECORD
  5
E1F
330
1
100
AcDbSymbolTableRecord
100
AcDbBlockTableRecord
  2
GENTITLE
340
0
 70
     0
280
     1
281
     0
  0
BLOCK_RECORD
  5
1023
330
1
100
AcDbSymbolTableRecord
100
AcDbBlockTableRecord
  2
*U28
340
0
 70
     0
280
     1
281
     0
  0
BLOCK_RECORD
  5
107F
330
1
100
AcDbSymbolTableRecord
100
AcDbBlockTableRecord
  2
GLMASSB1
340
0
 70
     0
280
     1
281
     0
  0
BLOCK_RECORD
  5
117D
330
1
100
AcDbSymbolTableRecord
100
AcDbBlockTableRecord
  2
GENAXEH
340
0
 70
     0
280
     1
281
     0
  0
BLOCK_RECORD
  5
1A66
330
1
100
AcDbSymbolTableRecord
100
AcDbBlockTableRecord
  2
*D31
340
0
 70
     0
280
     1
281
     0
  0
BLOCK_RECORD
  5
1ACB
330
1
100
AcDbSymbolTableRecord
100
AcDbBlockTableRecord
  2
*D32
340
0
 70
     0
280
     1
281
     0
  0
BLOCK_RECORD
  5
1AFD
330
1
100
AcDbSymbolTableRecord
100
AcDbBlockTableRecord
  2
*D33
340
0
 70
     0
280
     1
281
     0
  0
BLOCK_RECORD
  5
1B54
330
1
100
AcDbSymbolTableRecord
100
AcDbBlockTableRecord
  2
*D34
340
0
 70
     0
280
     1
281
     0
  0
BLOCK_RECORD
  5
1C34
330
1
100
AcDbSymbolTableRecord
100
AcDbBlockTableRecord
  2
*D35
340
0
 70
     0
280
     1
281
     0
  0
BLOCK_RECORD
  5
1C58
330
1
100
AcDbSymbolTableRecord
100
AcDbBlockTableRecord
  2
*D36
340
0
 70
     0
280
     1
281
     0
  0
BLOCK_RECORD
  5
1C80
330
1
100
AcDbSymbolTableRecord
100
AcDbBlockTableRecord
  2
*D37
340
0
 70
     0
280
     1
281
     0
  0
BLOCK_RECORD
  5
1CA4
330
1
100
AcDbSymbolTableRecord
100
AcDbBlockTableRecord
  2
*D38
340
0
 70
     0
280
     1
281
     0
  0
BLOCK_RECORD
  5
1CC8
330
1
100
AcDbSymbolTableRecord
100
AcDbBlockTableRecord
  2
*D39
340
0
 70
     0
280
     1
281
     0
  0
BLOCK_RECORD
  5
1F79
330
1
100
AcDbSymbolTableRecord
100
AcDbBlockTableRecord
  2
*D40
340
0
 70
     0
280
     1
281
     0
  0
BLOCK_RECORD
  5
1F99
330
1
100
AcDbSymbolTableRecord
100
AcDbBlockTableRecord
  2
*D41
340
0
 70
     0
280
     1
281
     0
  0
BLOCK_RECORD
  5
1FC7
330
1
100
AcDbSymbolTableRecord
100
AcDbBlockTableRecord
  2
*D42
340
0
 70
     0
280
     1
281
     0
  0
BLOCK_RECORD
  5
1FE1
330
1
100
AcDbSymbolTableRecord
100
AcDbBlockTableRecord
  2
*D43
340
0
 70
     0
280
     1
281
     0
  0
ENDTAB
  0
ENDSEC
  0
SECTION
  2
BLOCKS
  0
BLOCK
  5
19
330
18
100
AcDbEntity
  8
0
100
AcDbBlockBegin
  2
*MODEL_SPACE
 70
     0
 10
0.0
 20
0.0
 30
0.0
  3
*MODEL_SPACE
  1

  0
ENDBLK
  5
1A
330
18
100
AcDbEntity
  8
0
100
AcDbBlockEnd
  0
BLOCK
  5
16
330
15
100
AcDbEntity
 67
     1
  8
0
100
AcDbBlockBegin
  2
*PAPER_SPACE
 70
     0
 10
0.0
 20
0.0
 30
0.0
  3
*PAPER_SPACE
  1

  0
ENDBLK
  5
17
330
15
100
AcDbEntity
 67
     1
  8
0
100
AcDbBlockEnd
  0
BLOCK
  5
46
330
45
100
AcDbEntity
  8
0
100
AcDbBlockBegin
  2
DXF_DUMMY
 70
     0
 10
0.0
 20
0.0
 30
0.0
  3
DXF_DUMMY
  1

  0
ENDBLK
  5
47
330
45
100
AcDbEntity
  8
0
100
AcDbBlockEnd
  0
BLOCK
  5
49
330
48
100
AcDbEntity
  8
0
100
AcDbBlockBegin
  2
BLK0
 70
     2
 10
0.0
 20
0.0
 30
0.0
  3
BLK0
  1

  0
ENDBLK
  5
4A
330
48
100
AcDbEntity
  8
0
100
AcDbBlockEnd
  0
BLOCK
  5
4C
330
4B
100
AcDbEntity
  8
0
100
AcDbBlockBegin
  2
BLK1
 70
     2
 10
0.0
 20
0.0
 30
0.0
  3
BLK1
  1

  0
TEXT
  5
4E
330
4B
100
AcDbEntity
  8
TEXT
  6
Continuous
 62
     7
100
AcDbText
 10
-20.015625
 20
-115.5
 30
0.0
 40
5.0
  1
5345
 41
0.7787340000000001
  7
EUCLID03
100
AcDbText
  0
ENDBLK
  5
4F
330
4B
100
AcDbEntity
  8
0
100
AcDbBlockEnd
  0
BLOCK
  5
51
330
50
100
AcDbEntity
  8
0
100
AcDbBlockBegin
  2
BLK2
 70
     2
 10
0.0
 20
0.0
 30
0.0
  3
BLK2
  1

  0
TEXT
  5
52
330
50
100
AcDbEntity
  8
6
  6
Continuous
 62
     2
100
AcDbText
 10
-22.439064
 20
-122.750008
 30
0.0
 40
3.5
  1
235x30x2
 41
0.7483830000000001
  7
EUCLID03
100
AcDbText
  0
ENDBLK
  5
53
330
50
100
AcDbEntity
  8
0
100
AcDbBlockEnd
  0
BLOCK
  5
55
330
54
100
AcDbEntity
  8
0
100
AcDbBlockBegin
  2
BLK3
 70
     2
 10
0.0
 20
0.0
 30
0.0
  3
BLK3
  1

  0
TEXT
  5
56
330
54
100
AcDbEntity
  8
TEXT
  6
Continuous
 62
     7
100
AcDbText
 10
39.0
 20
-138.5
 30
0.0
 40
5.0
  1
F-49039
 41
0.794839
  7
EUCLID03
100
AcDbText
  0
ENDBLK
  5
57
330
54
100
AcDbEntity
  8
0
100
AcDbBlockEnd
  0
BLOCK
  5
59
330
58
100
AcDbEntity
  8
0
100
AcDbBlockBegin
  2
BLK4
 70
     2
 10
0.0
 20
0.0
 30
0.0
  3
BLK4
  1

  0
ENDBLK
  5
5A
330
58
100
AcDbEntity
  8
0
100
AcDbBlockEnd
  0
BLOCK
  5
5C
330
5B
100
AcDbEntity
  8
0
100
AcDbBlockBegin
  2
BLK5
 70
     2
 10
0.0
 20
0.0
 30
0.0
  3
BLK5
  1

  0
TEXT
  5
5D
330
5B
100
AcDbEntity
  8
TEXT
  6
Continuous
 62
     1
100
AcDbText
 10
67.0
 20
-109.25
 30
0.0
 40
2.5
  1
bij
 41
0.52725
  7
EUCLID03
100
AcDbText
  0
ENDBLK
  5
5E
330
5B
100
AcDbEntity
  8
0
100
AcDbBlockEnd
  0
BLOCK
  5
60
330
5F
100
AcDbEntity
  8
0
100
AcDbBlockBegin
  2
BLK6
 70
     2
 10
0.0
 20
0.0
 30
0.0
  3
BLK6
  1

  0
TEXT
  5
61
330
5F
100
AcDbEntity
  8
TEXT
  6
Continuous
 62
     1
100
AcDbText
 10
84.00000799999999
 20
-109.25
 30
0.0
 40
2.5
  1
14.11.96
 41
0.5792810000000001
  7
EUCLID03
100
AcDbText
  0
ENDBLK
  5
62
330
5F
100
AcDbEntity
  8
0
100
AcDbBlockEnd
  0
BLOCK
  5
64
330
63
100
AcDbEntity
  8
0
100
AcDbBlockBegin
  2
BLK7
 70
     2
 10
0.0
 20
0.0
 30
0.0
  3
BLK7
  1

  0
ENDBLK
  5
65
330
63
100
AcDbEntity
  8
0
100
AcDbBlockEnd
  0
BLOCK
  5
67
330
66
100
AcDbEntity
  8
0
100
AcDbBlockBegin
  2
BLK8
 70
     2
 10
0.0
 20
0.0
 30
0.0
  3
BLK8
  1

  0
ENDBLK
  5
68
330
66
100
AcDbEntity
  8
0
100
AcDbBlockEnd
  0
BLOCK
  5
6A
330
69
100
AcDbEntity
  8
0
100
AcDbBlockBegin
  2
BLK9
 70
     2
 10
0.0
 20
0.0
 30
0.0
  3
BLK9
  1

  0
ENDBLK
  5
6B
330
69
100
AcDbEntity
  8
0
100
AcDbBlockEnd
  0
BLOCK
  5
6D
330
6C
100
AcDbEntity
  8
0
100
AcDbBlockBegin
  2
BLK10
 70
     2
 10
0.0
 20
0.0
 30
0.0
  3
BLK10
  1

  0
ENDBLK
  5
6E
330
6C
100
AcDbEntity
  8
0
100
AcDbBlockEnd
  0
BLOCK
  5
70
330
6F
100
AcDbEntity
  8
0
100
AcDbBlockBegin
  2
BLK11
 70
     2
 10
0.0
 20
0.0
 30
0.0
  3
BLK11
  1

  0
TEXT
  5
71
330
6F
100
AcDbEntity
  8
TEXT
  6
Continuous
 62
     1
100
AcDbText
 10
-82.0
 20
132.75
 30
0.0
 40
2.5
  1
SL-1448
 41
0.8146609999999999
  7
EUCLID03
100
AcDbText
  0
ENDBLK
  5
72
330
6F
100
AcDbEntity
  8
0
100
AcDbBlockEnd
  0
BLOCK
  5
74
330
73
100
AcDbEntity
  8
0
100
AcDbBlockBegin
  2
BLK12
 70
     2
 10
0.0
 20
0.0
 30
0.0
  3
BLK12
  1

  0
ENDBLK
  5
75
330
73
100
AcDbEntity
  8
0
100
AcDbBlockEnd
  0
BLOCK
  5
77
330
76
100
AcDbEntity
  8
0
100
AcDbBlockBegin
  2
BLK13
 70
     2
 10
0.0
 20
0.0
 30
0.0
  3
BLK13
  1

  0
ENDBLK
  5
78
330
76
100
AcDbEntity
  8
0
100
AcDbBlockEnd
  0
BLOCK
  5
7A
330
79
100
AcDbEntity
  8
0
100
AcDbBlockBegin
  2
BLK14
 70
     2
 10
0.0
 20
0.0
 30
0.0
  3
BLK14
  1

  0
ENDBLK
  5
7B
330
79
100
AcDbEntity
  8
0
100
AcDbBlockEnd
  0
BLOCK
  5
7D
330
7C
100
AcDbEntity
  8
0
100
AcDbBlockBegin
  2
BLK15
 70
     2
 10
0.0
 20
0.0
 30
0.0
  3
BLK15
  1

  0
ENDBLK
  5
7E
330
7C
100
AcDbEntity
  8
0
100
AcDbBlockEnd
  0
BLOCK
  5
379
330
369
100
AcDbEntity
  8
0
100
AcDbBlockBegin
  2
BLK19
 70
     2
 10
0.0
 20
0.0
 30
0.0
  3
BLK19
  1

  0
TEXT
  5
36A
330
369
100
AcDbEntity
  8
6
  6
Continuous
 62
     2
100
AcDbText
 10
27.512096
 20
71.64999400000001
 30
0.0
 40
3.5
  1
%%c
 50
90.0
  7
EUCLID03
100
AcDbText
  0
TEXT
  5
36B
330
369
100
AcDbEntity
  8
6
  6
Continuous
 62
     2
100
AcDbText
 10
27.512096
 20
77.46875
 30
0.0
 40
3.5
  1
6
 50
90.0
 41
0.596625
  7
EUCLID03
100
AcDbText
  0
LINE
  5
36C
330
369
100
AcDbEntity
  8
5
  6
Continuous
 62
     3
100
AcDbLine
 10
28.912096
 20
82.999992
 30
0.0
 11
28.912096
 21
68.0
 31
0.0
  0
LINE
  5
36D
330
369
100
AcDbEntity
  8
5
  6
Continuous
 62
     3
100
AcDbLine
 10
32.999981
 20
77.0
 30
0.0
 11
26.912096
 21
77.0
 31
0.0
  0
LINE
  5
36E
330
369
100
AcDbEntity
  8
5
  6
Continuous
 62
     3
100
AcDbLine
 10
32.999981
 20
74.0
 30
0.0
 11
26.912096
 21
74.0
 31
0.0
  0
POLYLINE
  5
36F
330
369
100
AcDbEntity
  8
5
  6
Continuous
 62
     3
100
AcDb2dPolyline
 66
     1
 10
0.0
 20
0.0
 30
0.0
 70
     1
  0
VERTEX
  5
370
330
36F
100
AcDbEntity
  8
5
  6
Continuous
 62
     3
100
AcDbVertex
100
AcDb2dVertex
 10
28.394466
 20
79.00001500000001
 30
0.0
  0
VERTEX
  5
371
330
36F
100
AcDbEntity
  8
5
  6
Continuous
 62
     3
100
AcDbVertex
100
AcDb2dVertex
 10
28.912083
 20
77.0
 30
0.0
  0
VERTEX
  5
372
330
36F
100
AcDbEntity
  8
5
  6
Continuous
 62
     3
100
AcDbVertex
100
AcDb2dVertex
 10
29.429737
 20
79.00001500000001
 30
0.0
  0
SEQEND
  5
373
330
36F
100
AcDbEntity
  8
5
  6
Continuous
 62
     3
  0
POLYLINE
  5
374
330
369
100
AcDbEntity
  8
5
  6
Continuous
 62
     3
100
AcDb2dPolyline
 66
     1
 10
0.0
 20
0.0
 30
0.0
 70
     1
  0
VERTEX
  5
375
330
374
100
AcDbEntity
  8
5
  6
Continuous
 62
     3
100
AcDbVertex
100
AcDb2dVertex
 10
29.429737
 20
72.0
 30
0.0
  0
VERTEX
  5
376
330
374
100
AcDbEntity
  8
5
  6
Continuous
 62
     3
100
AcDbVertex
100
AcDb2dVertex
 10
28.912083
 20
74.00001500000001
 30
0.0
  0
VERTEX
  5
377
330
374
100
AcDbEntity
  8
5
  6
Continuous
 62
     3
100
AcDbVertex
100
AcDb2dVertex
 10
28.394466
 20
72.0
 30
0.0
  0
SEQEND
  5
378
330
374
100
AcDbEntity
  8
5
  6
Continuous
 62
     3
  0
ENDBLK
  5
37A
330
369
100
AcDbEntity
  8
0
100
AcDbBlockEnd
  0
BLOCK
  5
38E
330
37B
100
AcDbEntity
  8
5
100
AcDbBlockBegin
  2
*D18
 70
     1
 10
0.0
 20
0.0
 30
0.0
  3
*D18
  1

  0
TEXT
  5
37C
330
37B
100
AcDbEntity
  8
6
  6
Continuous
 62
     2
100
AcDbText
 10
34.399994
 20
88.976608
 30
0.0
 40
3.5
  1
14
 41
0.6660000000000001
  7
EUCLID03
100
AcDbText
  0
LINE
  5
37D
330
37B
100
AcDbEntity
  8
5
  6
Continuous
 62
     3
100
AcDbLine
 10
32.999996
 20
87.576599
 30
0.0
 11
39.99999600000001
 21
87.57661400000001
 31
0.0
  0
LINE
  5
37E
330
37B
100
AcDbEntity
  8
5
  6
Continuous
 62
     3
100
AcDbLine
 10
32.999996
 20
77.0
 30
0.0
 11
32.999996
 21
89.57659900000001
 31
0.0
  0
LINE
  5
37F
330
37B
100
AcDbEntity
  8
5
  6
Continuous
 62
     3
100
AcDbLine
 10
39.99999600000001
 20
82.24998499999999
 30
0.0
 11
39.99999600000001
 21
89.576614
 31
0.0
  0
POLYLINE
  5
380
330
37B
100
AcDbEntity
  8
5
  6
Continuous
 62
     3
100
AcDb2dPolyline
 66
     1
 10
0.0
 20
0.0
 30
0.0
 70
     1
  0
VERTEX
  5
381
330
380
100
AcDbEntity
  8
5
  6
Continuous
 62
     3
100
AcDbVertex
100
AcDb2dVertex
 10
34.99999600000001
 20
88.094254
 30
0.0
  0
VERTEX
  5
382
330
380
100
AcDbEntity
  8
5
  6
Continuous
 62
     3
100
AcDbVertex
100
AcDb2dVertex
 10
32.999989
 20
87.576599
 30
0.0
  0
VERTEX
  5
383
330
380
100
AcDbEntity
  8
5
  6
Continuous
 62
     3
100
AcDbVertex
100
AcDb2dVertex
 10
34.99999600000001
 20
87.058975
 30
0.0
  0
SEQEND
  5
384
330
380
100
AcDbEntity
  8
5
  6
Continuous
 62
     3
  0
POLYLINE
  5
385
330
37B
100
AcDbEntity
  8
5
  6
Continuous
 62
     3
100
AcDb2dPolyline
 66
     1
 10
0.0
 20
0.0
 30
0.0
 70
     1
  0
VERTEX
  5
386
330
385
100
AcDbEntity
  8
5
  6
Continuous
 62
     3
100
AcDbVertex
100
AcDb2dVertex
 10
37.999989
 20
87.058975
 30
0.0
  0
VERTEX
  5
387
330
385
100
AcDbEntity
  8
5
  6
Continuous
 62
     3
100
AcDbVertex
100
AcDb2dVertex
 10
39.99999600000001
 20
87.57662999999999
 30
0.0
  0
VERTEX
  5
388
330
385
100
AcDbEntity
  8
5
  6
Continuous
 62
     3
100
AcDbVertex
100
AcDb2dVertex
 10
37.999989
 20
88.094254
 30
0.0
  0
SEQEND
  5
389
330
385
100
AcDbEntity
  8
5
  6
Continuous
 62
     3
  0
POINT
  5
38A
330
37B
100
AcDbEntity
  8
5
  6
ByBlock
 62
     0
100
AcDbPoint
 10
32.999996
 20
87.576599
 30
0.0
  0
POINT
  5
38B
330
37B
100
AcDbEntity
  8
5
  6
ByBlock
 62
     0
100
AcDbPoint
 10
36.499992
 20
90.72660799999999
 30
0.0
  0
POINT
  5
38C
330
37B
100
AcDbEntity
  8
5
  6
ByBlock
 62
     0
100
AcDbPoint
 10
39.99999600000001
 20
82.249992
 30
0.0
  0
POINT
  5
38D
330
37B
100
AcDbEntity
  8
5
  6
ByBlock
 62
     0
100
AcDbPoint
 10
32.999996
 20
77.0
 30
0.0
  0
ENDBLK
  5
38F
330
37B
100
AcDbEntity
  8
0
100
AcDbBlockEnd
  0
BLOCK
  5
3A7
330
390
100
AcDbEntity
  8
0
100
AcDbBlockBegin
  2
A$C7FD32EDB
 70
     0
 10
0.0
 20
0.0
 30
0.0
  3
A$C7FD32EDB
  1

  0
INSERT
  5
391
330
390
100
AcDbEntity
  8
5
 62
     3
100
AcDbBlockReference
  2
BLK19
 10
-24.01209587628705
 20
35.25000012298062
 30
0.0
  0
LINE
  5
392
330
390
100
AcDbEntity
  8
1
100
AcDbLine
 10
8.987900123712954
 20
109.2500001229806
 30
0.0
 11
8.987900123712954
 21
112.2500001229806
 31
0.0
  0
LINE
  5
393
330
390
100
AcDbEntity
  8
1
100
AcDbLine
 10
16.98790012371295
 20
0.000000122980623
 30
0.0
 11
16.98790012371295
 21
117.4999921229806
 31
0.0
  0
LINE
  5
394
330
390
100
AcDbEntity
  8
1
100
AcDbLine
 10
15.98790012371295
 20
0.000000122980623
 30
0.0
 11
15.98790012371295
 21
117.4999921229806
 31
0.0
  0
LINE
  5
395
330
390
100
AcDbEntity
  8
1
100
AcDbLine
 10
23.98790412371295
 20
42.12499212298062
 30
0.0
 11
16.98790012371295
 21
44.24999212298062
 31
0.0
  0
LINE
  5
396
330
390
100
AcDbEntity
  8
1
100
AcDbLine
 10
8.987900123712954
 20
8.499994122980623
 30
0.0
 11
8.987900123712954
 21
11.49999812298062
 31
0.0
  0
LINE
  5
397
330
390
100
AcDbEntity
  8
1
100
AcDbLine
 10
15.98790012371295
 20
0.000000122980623
 30
0.0
 11
16.98790012371295
 21
0.000000122980623
 31
0.0
  0
LINE
  5
398
330
390
100
AcDbEntity
  8
1
100
AcDbLine
 10
8.987885123712949
 20
8.499994122980623
 30
0.0
 11
15.98790012371295
 21
8.499994122980623
 31
0.0
  0
LINE
  5
399
330
390
100
AcDbEntity
  8
7
  6
GEN7A
100
AcDbLine
 10
6.790787123712952
 20
9.999994122980623
 30
0.0
 11
19.49938212371295
 21
9.999994122980623
 31
0.0
  0
LINE
  5
39A
330
390
100
AcDbEntity
  8
1
100
AcDbLine
 10
8.987885123712949
 20
11.49999812298062
 30
0.0
 11
15.98790012371295
 21
11.49999812298062
 31
0.0
  0
LINE
  5
39B
330
390
100
AcDbEntity
  8
7
  6
GEN7A
100
AcDbLine
 10
13.66593212371295
 20
36.24999212298062
 30
0.0
 11
25.02209512371295
 21
36.24999212298062
 31
0.0
  0
LINE
  5
39C
330
390
100
AcDbEntity
  8
1
100
AcDbLine
 10
23.98790412371295
 20
30.37498312298062
 30
0.0
 11
23.98790412371295
 21
42.12499212298062
 31
0.0
  0
LINE
  5
39D
330
390
100
AcDbEntity
  8
1
100
AcDbLine
 10
23.98790412371295
 20
30.37499012298062
 30
0.0
 11
16.98790012371295
 21
28.24999012298063
 31
0.0
  0
LINE
  5
39E
330
390
100
AcDbEntity
  8
1
100
AcDbLine
 10
12.73790012371295
 20
70.24999612298064
 30
0.0
 11
12.73790012371295
 21
80.24998912298062
 31
0.0
  0
LINE
  5
39F
330
390
100
AcDbEntity
  8
7
  6
GEN7A
100
AcDbLine
 10
10.54086312371295
 20
75.24999612298064
 30
0.0
 11
18.87436712371295
 21
75.24999612298064
 31
0.0
  0
LINE
  5
3A0
330
390
100
AcDbEntity
  8
1
100
AcDbLine
 10
12.73788512371295
 20
70.24999612298064
 30
0.0
 11
15.98790012371295
 21
70.24999612298064
 31
0.0
  0
LINE
  5
3A1
330
390
100
AcDbEntity
  8
1
100
AcDbLine
 10
12.73788512371295
 20
80.25000012298063
 30
0.0
 11
15.98790012371295
 21
80.25000012298063
 31
0.0
  0
LINE
  5
3A2
330
390
100
AcDbEntity
  8
7
  6
GEN7A
100
AcDbLine
 10
6.790787123712952
 20
110.7500001229806
 30
0.0
 11
19.49938212371295
 21
110.7500001229806
 31
0.0
  0
LINE
  5
3A3
330
390
100
AcDbEntity
  8
1
100
AcDbLine
 10
8.987885123712949
 20
109.2500001229806
 30
0.0
 11
15.98790012371295
 21
109.2500001229806
 31
0.0
  0
LINE
  5
3A4
330
390
100
AcDbEntity
  8
1
100
AcDbLine
 10
15.98790012371295
 20
117.5000151229806
 30
0.0
 11
16.98790012371295
 21
117.5000151229806
 31
0.0
  0
DIMENSION
  5
3A5
330
390
100
AcDbEntity
  8
5
100
AcDbDimension
  2
*D18
 10
8.987900123712954
 20
122.8265991229806
 30
0.0
 11
12.48789612371295
 21
125.9766081229806
 31
0.0
 12
-24.01209587628705
 22
35.25000012298062
 32
0.0
 70
   128
  1
14
 71
     5
 42
-1.0
 73
     0
 74
     0
 75
     0
  3
STANDARD
100
AcDbAlignedDimension
 13
15.98790012371295
 23
117.4999921229806
 33
0.0
 14
8.987900123712954
 24
112.2500001229806
 34
0.0
100
AcDbRotatedDimension
  0
LINE
  5
3A6
330
390
100
AcDbEntity
  8
1
100
AcDbLine
 10
8.987885123712949
 20
112.2500001229806
 30
0.0
 11
15.98790012371295
 21
112.2500001229806
 31
0.0
  0
ENDBLK
  5
3A8
330
390
100
AcDbEntity
  8
0
100
AcDbBlockEnd
  0
BLOCK
  5
43F
330
43E
100
AcDbEntity
  8
0
100
AcDbBlockBegin
  2
GEVCON
 70
     0
 10
0.0
 20
0.0
 30
0.0
  3
GEVCON
  1
GEVCON
  0
ENDBLK
  5
440
330
43E
100
AcDbEntity
  8
0
100
AcDbBlockEnd
  0
BLOCK
  5
449
330
442
100
AcDbEntity
  8
0
100
AcDbBlockBegin
  2
GEVEP
 70
     0
 10
0.0
 20
0.0
 30
0.0
  3
GEVEP
  1

  0
LINE
  5
443
330
442
100
AcDbEntity
  8
0
100
AcDbLine
 10
2.0
 20
-2.0
 30
0.0
 11
-2.0
 21
-2.0
 31
0.0
  0
LINE
  5
444
330
442
100
AcDbEntity
  8
0
100
AcDbLine
 10
-2.0
 20
2.0
 30
0.0
 11
2.0
 21
2.0
 31
0.0
  0
LINE
  5
445
330
442
100
AcDbEntity
  8
0
100
AcDbLine
 10
2.0
 20
-2.0
 30
0.0
 11
-2.0
 21
2.0
 31
0.0
  0
LINE
  5
446
330
442
100
AcDbEntity
  8
0
100
AcDbLine
 10
-2.0
 20
-2.0
 30
0.0
 11
2.0
 21
2.0
 31
0.0
  0
LINE
  5
447
330
442
100
AcDbEntity
  8
0
100
AcDbLine
 10
-2.0
 20
-2.0
 30
0.0
 11
-2.0
 21
2.0
 31
0.0
  0
LINE
  5
448
330
442
100
AcDbEntity
  8
0
100
AcDbLine
 10
2.0
 20
2.0
 30
0.0
 11
2.0
 21
-2.0
 31
0.0
  0
ENDBLK
  5
44A
330
442
100
AcDbEntity
  8
0
100
AcDbBlockEnd
  0
BLOCK
  5
44C
330
44B
100
AcDbEntity
  8
0
100
AcDbBlockBegin
  2
GEVFRAME
 70
     0
 10
0.0
 20
0.0
 30
0.0
  3
GEVFRAME
  1
GEVFRAME
  0
LINE
  5
44D
330
44B
100
AcDbEntity
  8
0
100
AcDbLine
 10
0.0
 20
0.0
 30
0.0
 11
1.0
 21
0.0
 31
0.0
  0
LINE
  5
44E
330
44B
100
AcDbEntity
  8
0
100
AcDbLine
 10
1.0
 20
0.0
 30
0.0
 11
1.0
 21
1.0
 31
0.0
  0
LINE
  5
44F
330
44B
100
AcDbEntity
  8
0
100
AcDbLine
 10
1.0
 20
1.0
 30
0.0
 11
0.0
 21
1.0
 31
0.0
  0
LINE
  5
450
330
44B
100
AcDbEntity
  8
0
100
AcDbLine
 10
0.0
 20
1.0
 30
0.0
 11
0.0
 21
0.0
 31
0.0
  0
ENDBLK
  5
451
330
44B
100
AcDbEntity
  8
0
100
AcDbBlockEnd
  0
BLOCK
  5
6B7
330
6B5
100
AcDbEntity
  8
0
100
AcDbBlockBegin
  2
A$C56802A2B
 70
     0
 10
0.0
 20
0.0
 30
0.0
  3
A$C56802A2B
  1

  0
CIRCLE
  5
6B6
330
6B5
100
AcDbEntity
  8
3A
  6
GEN3A
100
AcDbCircle
 10
1.49999955950817
 20
1.499999892432242
 30
0.0
 40
1.5
  0
ENDBLK
  5
6B8
330
6B5
100
AcDbEntity
  8
0
100
AcDbBlockEnd
  0
BLOCK
  5
D85
330
D82
100
AcDbEntity
  8
0
100
AcDbBlockBegin
  2
SCHUTZR1
 70
     0
 10
0.0
 20
0.0
 30
0.0
  3
SCHUTZR1
  1

  0
MTEXT
  5
D83
330
D82
100
AcDbEntity
  8
0
 62
     2
100
AcDbMText
 10
1.089563348508818
 20
-1.313268590755626
 30
0.0
 40
2.0
 41
65.0
 46
0.0
 71
     1
 72
     5
  1
\Fisocp.shx;Alle Rechte bei Glutz AG, auch für den Fall von Schutzrechtsanmeldungen. Jede Verfügungsbefugnis wie Kopier- und Weitergaberecht liegen bei uns.
 73
     1
 44
1.0
  0
LWPOLYLINE
  5
D84
330
D82
100
AcDbEntity
  8
6
100
AcDbPolyline
 90
        4
 70
     1
 43
0.0
 10
0.0
 20
0.0
 10
64.93884802418165
 20
0.0
 10
64.93884802418165
 20
-11.72312348725665
 10
0.0
 20
-11.72312348725665
1001
GENIUS_GENREC_14
1002
{
1000
PYDIR
1011
0.0
1021
-11.72312348725665
1031
0.0
1002
}
1002
{
1000
PXDIR
1011
64.93884802418165
1021
0.0
1031
0.0
1002
}
1002
{
1000
PORI
1011
0.0
1021
0.0
1031
0.0
1002
}
1002
{
1000
PINS
1011
0.0
1021
0.0
1031
0.0
1002
}
1002
{
1000
PINS2
1011
64.93884802418165
1021
-11.72312348725665
1031
0.0
1002
}
1002
{
1000
C
1070
     1
1002
}
1001
GENIUS_GENODEF_13
1002
{
1000
HIER
1070
     0
1002
}
1002
{
1000
MANEDIT
1070
     0
1002
}
1002
{
1000
NOSEL
1070
     0
1002
}
1002
{
1000
BEHIND
1070
     0
1002
}
1002
{
1000
REACTOR
1002
}
1001
GENIUS_GENOBJ-N-REC_13
1002
{
1000
OWNER
1000
GEN
1002
}
  0
ENDBLK
  5
D86
330
D82
100
AcDbEntity
  8
0
100
AcDbBlockEnd
  0
BLOCK
  5
DE0
330
D87
100
AcDbEntity
  8
0
100
AcDbBlockBegin
  2
GLUTZ1
 70
     0
 10
0.0
 20
0.0
 30
0.0
  3
GLUTZ1
  1

  0
POLYLINE
  5
D88
330
D87
100
AcDbEntity
  8
KOPF
  6
CONTINU
 62
     2
100
AcDb2dPolyline
 66
     1
 10
0.0
 20
0.0
 30
0.0
 70
     1
  0
VERTEX
  5
D89
330
D88
100
AcDbEntity
  8
KOPF
  6
CONTINU
 62
     2
100
AcDbVertex
100
AcDb2dVertex
 10
7.413302975328548
 20
3.465323178314264
 30
0.0
  0
VERTEX
  5
D8A
330
D88
100
AcDbEntity
  8
KOPF
  6
CONTINU
 62
     2
100
AcDbVertex
100
AcDb2dVertex
 10
8.659030475328563
 20
3.465323178314264
 30
0.0
  0
VERTEX
  5
D8B
330
D88
100
AcDbEntity
  8
KOPF
  6
CONTINU
 62
     2
100
AcDbVertex
100
AcDb2dVertex
 10
8.328937475328558
 20
1.484671678314271
 30
0.0
  0
VERTEX
  5
D8C
330
D88
100
AcDbEntity
  8
KOPF
  6
CONTINU
 62
     2
100
AcDbVertex
100
AcDb2dVertex
 10
8.495913975328534
 20
1.085639178314266
 30
0.0
  0
VERTEX
  5
D8D
330
D88
100
AcDbEntity
  8
KOPF
  6
CONTINU
 62
     2
100
AcDbVertex
100
AcDb2dVertex
 10
8.872790975328541
 20
1.034750678314253
 30
0.0
  0
VERTEX
  5
D8E
330
D88
100
AcDbEntity
  8
KOPF
  6
CONTINU
 62
     2
100
AcDbVertex
100
AcDb2dVertex
 10
9.136996975328543
 20
1.349997678314252
 30
0.0
  0
VERTEX
  5
D8F
330
D88
100
AcDbEntity
  8
KOPF
  6
CONTINU
 62
     2
100
AcDbVertex
100
AcDb2dVertex
 10
9.136996975328543
 20
1.349997678314252
 30
0.0
  0
VERTEX
  5
D90
330
D88
100
AcDbEntity
  8
KOPF
  6
CONTINU
 62
     2
100
AcDbVertex
100
AcDb2dVertex
 10
9.489535975328578
 20
3.465323178314264
 30
0.0
  0
VERTEX
  5
D91
330
D88
100
AcDbEntity
  8
KOPF
  6
CONTINU
 62
     2
100
AcDbVertex
100
AcDb2dVertex
 10
11.35815797532856
 20
3.465323178314264
 30
0.0
  0
VERTEX
  5
D92
330
D88
100
AcDbEntity
  8
KOPF
  6
CONTINU
 62
     2
100
AcDbVertex
100
AcDb2dVertex
 10
11.56296147532856
 20
4.694129178314256
 30
0.0
  0
VERTEX
  5
D93
330
D88
100
AcDbEntity
  8
KOPF
  6
CONTINU
 62
     2
100
AcDbVertex
100
AcDb2dVertex
 10
12.80870397532857
 20
4.694113678314266
 30
0.0
  0
VERTEX
  5
D94
330
D88
100
AcDbEntity
  8
KOPF
  6
CONTINU
 62
     2
100
AcDbVertex
100
AcDb2dVertex
 10
12.60391597532856
 20
3.465323178314264
 30
0.0
  0
VERTEX
  5
D95
330
D88
100
AcDbEntity
  8
KOPF
  6
CONTINU
 62
     2
100
AcDbVertex
100
AcDb2dVertex
 10
15.92592197532855
 20
3.465323178314264
 30
0.0
  0
VERTEX
  5
D96
330
D88
100
AcDbEntity
  8
KOPF
  6
CONTINU
 62
     2
100
AcDbVertex
100
AcDb2dVertex
 10
15.78938647532857
 20
2.646109678314275
 30
0.0
  0
VERTEX
  5
D97
330
D88
100
AcDbEntity
  8
KOPF
  6
CONTINU
 62
     2
100
AcDbVertex
100
AcDb2dVertex
 10
13.87791797532855
 20
1.00771217831425
 30
0.0
  0
VERTEX
  5
D98
330
D88
100
AcDbEntity
  8
KOPF
  6
CONTINU
 62
     2
100
AcDbVertex
100
AcDb2dVertex
 10
15.51633047532854
 20
1.00771217831425
 30
0.0
  0
VERTEX
  5
D99
330
D88
100
AcDbEntity
  8
KOPF
  6
CONTINU
 62
     2
100
AcDbVertex
100
AcDb2dVertex
 10
15.37979497532856
 20
0.1885136783142798
 30
0.0
  0
VERTEX
  5
D9A
330
D88
100
AcDbEntity
  8
KOPF
  6
CONTINU
 62
     2
100
AcDbVertex
100
AcDb2dVertex
 10
12.68066747532856
 20
0.1885291783142406
 30
0.0
  0
VERTEX
  5
D9B
330
D88
100
AcDbEntity
  8
KOPF
  6
CONTINU
 62
     2
100
AcDbVertex
100
AcDb2dVertex
 10
12.81720347532854
 20
1.00771217831425
 30
0.0
  0
VERTEX
  5
D9C
330
D88
100
AcDbEntity
  8
KOPF
  6
CONTINU
 62
     2
100
AcDbVertex
100
AcDb2dVertex
 10
14.72865647532856
 20
2.646109678314275
 30
0.0
  0
VERTEX
  5
D9D
330
D88
100
AcDbEntity
  8
KOPF
  6
CONTINU
 62
     2
100
AcDbVertex
100
AcDb2dVertex
 10
12.46738047532855
 20
2.646124678314265
 30
0.0
  0
VERTEX
  5
D9E
330
D88
100
AcDbEntity
  8
KOPF
  6
CONTINU
 62
     2
100
AcDbVertex
100
AcDb2dVertex
 10
12.05778847532855
 20
0.1885291783142406
 30
0.0
  0
VERTEX
  5
D9F
330
D88
100
AcDbEntity
  8
KOPF
  6
CONTINU
 62
     2
100
AcDbVertex
100
AcDb2dVertex
 10
10.81204597532854
 20
0.1885291783142406
 30
0.0
  0
VERTEX
  5
DA0
330
D88
100
AcDbEntity
  8
KOPF
  6
CONTINU
 62
     2
100
AcDbVertex
100
AcDb2dVertex
 10
11.22163747532855
 20
2.646124678314265
 30
0.0
  0
VERTEX
  5
DA1
330
D88
100
AcDbEntity
  8
KOPF
  6
CONTINU
 62
     2
100
AcDbVertex
100
AcDb2dVertex
 10
10.59875847532856
 20
2.646124678314265
 30
0.0
  0
VERTEX
  5
DA2
330
D88
100
AcDbEntity
  8
KOPF
  6
CONTINU
 62
     2
100
AcDbVertex
100
AcDb2dVertex
 10
10.18916697532856
 20
0.1885291783142406
 30
0.0
  0
VERTEX
  5
DA3
330
D88
100
AcDbEntity
  8
KOPF
  6
CONTINU
 62
     2
100
AcDbVertex
100
AcDb2dVertex
 10
8.943423975328556
 20
0.1885291783142406
 30
0.0
  0
VERTEX
  5
DA4
330
D88
100
AcDbEntity
  8
KOPF
  6
CONTINU
 62
     2
100
AcDbVertex
100
AcDb2dVertex
 10
8.960238975328536
 20
0.2895266783142745
 30
0.0
  0
VERTEX
  5
DA5
330
D88
100
AcDbEntity
  8
KOPF
  6
CONTINU
 62
     2
100
AcDbVertex
100
AcDb2dVertex
 10
8.491321475328561
 20
0.0298986783142539
 30
0.0
  0
VERTEX
  5
DA6
330
D88
100
AcDbEntity
  8
KOPF
  6
CONTINU
 62
     2
100
AcDbVertex
100
AcDb2dVertex
 10
7.975314975328558
 20
0.0042486783142692
 30
0.0
  0
VERTEX
  5
DA7
330
D88
100
AcDbEntity
  8
KOPF
  6
CONTINU
 62
     2
100
AcDbVertex
100
AcDb2dVertex
 10
7.487231975328569
 20
0.2220676783142608
 30
0.0
  0
VERTEX
  5
DA8
330
D88
100
AcDbEntity
  8
KOPF
  6
CONTINU
 62
     2
100
AcDbVertex
100
AcDb2dVertex
 10
7.137027475328551
 20
0.6718966783142549
 30
0.0
  0
VERTEX
  5
DA9
330
D88
100
AcDbEntity
  8
KOPF
  6
CONTINU
 62
     2
100
AcDbVertex
100
AcDb2dVertex
 10
7.054812975328559
 20
1.314475178314268
 30
0.0
  0
VERTEX
  5
DAA
330
D88
100
AcDbEntity
  8
KOPF
  6
CONTINU
 62
     2
100
AcDbVertex
100
AcDb2dVertex
 10
7.054812975328559
 20
1.314475178314268
 30
0.0
  0
VERTEX
  5
DAB
330
D88
100
AcDbEntity
  8
KOPF
  6
CONTINU
 62
     2
100
AcDbVertex
100
AcDb2dVertex
 10
7.413287975328557
 20
3.465323178314264
 30
0.0
  0
SEQEND
  5
DAC
330
D88
100
AcDbEntity
  8
KOPF
 62
     2
  0
HATCH
  5
DAD
330
D87
100
AcDbEntity
  8
KOPF
 62
     7
100
AcDbHatch
 10
0.0
 20
0.0
 30
0.0
210
0.0
220
0.0
230
1.0
  2
SOLID
 70
     1
 71
     0
 91
        1
 92
        1
 93
       32
 72
     1
 10
8.491321475328561
 20
0.0298986783142539
 11
8.960238975328536
 21
0.2895266783142745
 72
     1
 10
8.960238975328536
 20
0.2895266783142745
 11
8.943423975328556
 21
0.1885291783142406
 72
     1
 10
8.943423975328556
 20
0.1885291783142406
 11
10.18916697532856
 21
0.1885291783142406
 72
     1
 10
10.18916697532856
 20
0.1885291783142406
 11
10.59875847532856
 21
2.646124678314265
 72
     1
 10
10.59875847532856
 20
2.646124678314265
 11
11.22163747532855
 21
2.646124678314265
 72
     1
 10
11.22163747532855
 20
2.646124678314265
 11
10.81204597532854
 21
0.1885291783142406
 72
     1
 10
10.81204597532854
 20
0.1885291783142406
 11
12.05778847532855
 21
0.1885291783142406
 72
     1
 10
12.05778847532855
 20
0.1885291783142406
 11
12.46738047532855
 21
2.646124678314265
 72
     1
 10
12.46738047532855
 20
2.646124678314265
 11
14.72865647532856
 21
2.646109678314275
 72
     1
 10
14.72865647532856
 20
2.646109678314275
 11
12.81720347532854
 21
1.00771217831425
 72
     1
 10
12.81720347532854
 20
1.00771217831425
 11
12.68066747532856
 21
0.1885291783142406
 72
     1
 10
12.68066747532856
 20
0.1885291783142406
 11
15.37979497532856
 21
0.1885136783142798
 72
     1
 10
15.37979497532856
 20
0.1885136783142798
 11
15.51633047532854
 21
1.00771217831425
 72
     1
 10
15.51633047532854
 20
1.00771217831425
 11
13.87791797532855
 21
1.00771217831425
 72
     1
 10
13.87791797532855
 20
1.00771217831425
 11
15.78938647532857
 21
2.646109678314275
 72
     1
 10
15.78938647532857
 20
2.646109678314275
 11
15.92592197532855
 21
3.465323178314264
 72
     1
 10
15.92592197532855
 20
3.465323178314264
 11
12.60391597532856
 21
3.465323178314264
 72
     1
 10
12.60391597532856
 20
3.465323178314264
 11
12.80870397532857
 21
4.694113678314266
 72
     1
 10
12.80870397532857
 20
4.694113678314266
 11
11.56296147532856
 21
4.694129178314256
 72
     1
 10
11.56296147532856
 20
4.694129178314256
 11
11.35815797532856
 21
3.465323178314264
 72
     1
 10
11.35815797532856
 20
3.465323178314264
 11
9.489535975328578
 21
3.465323178314264
 72
     1
 10
9.489535975328578
 20
3.465323178314264
 11
9.136996975328543
 21
1.349997678314252
 72
     1
 10
9.136996975328543
 20
1.349997678314252
 11
8.872790975328541
 21
1.034750678314253
 72
     1
 10
8.872790975328541
 20
1.034750678314253
 11
8.495913975328534
 21
1.085639178314266
 72
     1
 10
8.495913975328534
 20
1.085639178314266
 11
8.328937475328558
 21
1.484671678314271
 72
     1
 10
8.328937475328558
 20
1.484671678314271
 11
8.659030475328563
 21
3.465323178314264
 72
     1
 10
8.659030475328563
 20
3.465323178314264
 11
7.413287975328557
 21
3.465323178314264
 72
     1
 10
7.413287975328557
 20
3.465323178314264
 11
7.054812975328559
 21
1.314475178314268
 72
     1
 10
7.054812975328559
 20
1.314475178314268
 11
7.137027475328551
 21
0.6718966783142549
 72
     1
 10
7.137027475328551
 20
0.6718966783142549
 11
7.487231975328569
 21
0.2220676783142608
 72
     1
 10
7.487231975328569
 20
0.2220676783142608
 11
7.975314975328558
 21
0.0042486783142692
 72
     1
 10
7.975314975328558
 20
0.0042486783142692
 11
8.491321475328561
 21
0.0298986783142539
 97
        0
 75
     0
 76
     1
 98
        1
 10
78.94342397532856
 20
-1.062905321685718
450
        0
451
        0
460
0.0
461
0.0
452
        0
462
0.0
453
        0
470

1001
GENIUS_GENODEF_13
1002
{
1000
HIER
1070
     0
1002
}
1002
{
1000
MANEDIT
1070
     0
1002
}
1002
{
1000
NOSEL
1070
     0
1002
}
1002
{
1000
BEHIND
1070
     0
1002
}
1002
{
1000
REACTOR
1002
}
1001
GENIUS_GENOBJ-N-HTC_13
1002
{
1000
OWNER
1000
GEN
1002
}
1001
GENIUS_GENHATCH_13
1002
{
1000
DATA
1040
0.0
1042
0.5
1000
SOLID
1070
     0
1011
7.884158670682694
1021
0.0684408459231634
1031
0.0
1002
}
1002
{
1000
UCS
1010
0.0
1020
0.0
1030
0.0
1010
1.0
1020
0.0
1030
0.0
1010
0.0
1020
1.0
1030
0.0
1002
}
  0
POLYLINE
  5
DAE
330
D87
100
AcDbEntity
  8
KOPF
  6
CONTINU
 62
     2
100
AcDb2dPolyline
 66
     1
 10
0.0
 20
0.0
 30
0.0
 70
     1
  0
VERTEX
  5
DAF
330
DAE
100
AcDbEntity
  8
KOPF
  6
CONTINU
 62
     2
100
AcDbVertex
100
AcDb2dVertex
 10
4.230807975328559
 20
0.2520206783142669
 30
0.0
  0
VERTEX
  5
DB0
330
DAE
100
AcDbEntity
  8
KOPF
  6
CONTINU
 62
     2
100
AcDbVertex
100
AcDb2dVertex
 10
3.628177475328556
 20
0.1549291783142621
 30
0.0
  0
VERTEX
  5
DB1
330
DAE
100
AcDbEntity
  8
KOPF
  6
CONTINU
 62
     2
100
AcDbVertex
100
AcDb2dVertex
 10
2.898837975328547
 20
0.069876678314273
 30
0.0
  0
VERTEX
  5
DB2
330
DAE
100
AcDbEntity
  8
KOPF
  6
CONTINU
 62
     2
100
AcDbVertex
100
AcDb2dVertex
 10
2.152301475328556
 20
0.038306178314258
 30
0.0
  0
VERTEX
  5
DB3
330
DAE
100
AcDbEntity
  8
KOPF
  6
CONTINU
 62
     2
100
AcDbVertex
100
AcDb2dVertex
 10
1.464725475328549
 20
0.112723178314269
 30
0.0
  0
VERTEX
  5
DB4
330
DAE
100
AcDbEntity
  8
KOPF
  6
CONTINU
 62
     2
100
AcDbVertex
100
AcDb2dVertex
 10
0.8865389753285342
 20
0.3333501783142765
 30
0.0
  0
VERTEX
  5
DB5
330
DAE
100
AcDbEntity
  8
KOPF
  6
CONTINU
 62
     2
100
AcDbVertex
100
AcDb2dVertex
 10
0.4486119753285323
 20
0.7156286783142605
 30
0.0
  0
VERTEX
  5
DB6
330
DAE
100
AcDbEntity
  8
KOPF
  6
CONTINU
 62
     2
100
AcDbVertex
100
AcDb2dVertex
 10
0.1673769753285512
 20
1.246237678314258
 30
0.0
  0
VERTEX
  5
DB7
330
DAE
100
AcDbEntity
  8
KOPF
  6
CONTINU
 62
     2
100
AcDbVertex
100
AcDb2dVertex
 10
0.0486334753285576
 20
1.885962678314285
 30
0.0
  0
VERTEX
  5
DB8
330
DAE
100
AcDbEntity
  8
KOPF
  6
CONTINU
 62
     2
100
AcDbVertex
100
AcDb2dVertex
 10
0.0903659753285524
 20
2.57732267831426
 30
0.0
  0
VERTEX
  5
DB9
330
DAE
100
AcDbEntity
  8
KOPF
  6
CONTINU
 62
     2
100
AcDbVertex
100
AcDb2dVertex
 10
0.2847019753285735
 20
3.254996178314257
 30
0.0
  0
VERTEX
  5
DBA
330
DAE
100
AcDbEntity
  8
KOPF
  6
CONTINU
 62
     2
100
AcDbVertex
100
AcDb2dVertex
 10
0.6188849753285695
 20
3.857199678314259
 30
0.0
  0
VERTEX
  5
DBB
330
DAE
100
AcDbEntity
  8
KOPF
  6
CONTINU
 62
     2
100
AcDbVertex
100
AcDb2dVertex
 10
1.075641475328552
 20
4.335898178314266
 30
0.0
  0
VERTEX
  5
DBC
330
DAE
100
AcDbEntity
  8
KOPF
  6
CONTINU
 62
     2
100
AcDbVertex
100
AcDb2dVertex
 10
1.632815975328554
 20
4.664038678314284
 30
0.0
  0
VERTEX
  5
DBD
330
DAE
100
AcDbEntity
  8
KOPF
  6
CONTINU
 62
     2
100
AcDbVertex
100
AcDb2dVertex
 10
2.262469975328542
 20
4.837775178314274
 30
0.0
  0
VERTEX
  5
DBE
330
DAE
100
AcDbEntity
  8
KOPF
  6
CONTINU
 62
     2
100
AcDbVertex
100
AcDb2dVertex
 10
2.929553975328559
 20
4.871710678314258
 30
0.0
  0
VERTEX
  5
DBF
330
DAE
100
AcDbEntity
  8
KOPF
  6
CONTINU
 62
     2
100
AcDbVertex
100
AcDb2dVertex
 10
3.590213475328567
 20
4.785315678314248
 30
0.0
  0
VERTEX
  5
DC0
330
DAE
100
AcDbEntity
  8
KOPF
  6
CONTINU
 62
     2
100
AcDbVertex
100
AcDb2dVertex
 10
4.189914475328549
 20
4.578391178314262
 30
0.0
  0
VERTEX
  5
DC1
330
DAE
100
AcDbEntity
  8
KOPF
  6
CONTINU
 62
     2
100
AcDbVertex
100
AcDb2dVertex
 10
4.661227975328557
 20
4.19379317831428
 30
0.0
  0
VERTEX
  5
DC2
330
DAE
100
AcDbEntity
  8
KOPF
  6
CONTINU
 62
     2
100
AcDbVertex
100
AcDb2dVertex
 10
4.921786975328558
 20
3.465338678314282
 30
0.0
  0
VERTEX
  5
DC3
330
DAE
100
AcDbEntity
  8
KOPF
  6
CONTINU
 62
     2
100
AcDbVertex
100
AcDb2dVertex
 10
4.921786975328558
 20
3.465338678314282
 30
0.0
  0
VERTEX
  5
DC4
330
DAE
100
AcDbEntity
  8
KOPF
  6
CONTINU
 62
     2
100
AcDbVertex
100
AcDb2dVertex
 10
3.676043975328553
 20
3.465338678314282
 30
0.0
  0
VERTEX
  5
DC5
330
DAE
100
AcDbEntity
  8
KOPF
  6
CONTINU
 62
     2
100
AcDbVertex
100
AcDb2dVertex
 10
3.658435475328559
 20
3.635474178314268
 30
0.0
  0
VERTEX
  5
DC6
330
DAE
100
AcDbEntity
  8
KOPF
  6
CONTINU
 62
     2
100
AcDbVertex
100
AcDb2dVertex
 10
3.60626597532854
 20
3.742651678314274
 30
0.0
  0
VERTEX
  5
DC7
330
DAE
100
AcDbEntity
  8
KOPF
  6
CONTINU
 62
     2
100
AcDbVertex
100
AcDb2dVertex
 10
3.50603097532857
 20
3.814627678314252
 30
0.0
 42
0.101147
  0
VERTEX
  5
DC8
330
DAE
100
AcDbEntity
  8
KOPF
  6
CONTINU
 62
     2
100
AcDbVertex
100
AcDb2dVertex
 10
2.163074475328556
 20
3.706198678314251
 30
0.0
  0
VERTEX
  5
DC9
330
DAE
100
AcDbEntity
  8
KOPF
  6
CONTINU
 62
     2
100
AcDbVertex
100
AcDb2dVertex
 10
1.757983975328556
 20
3.187644178314258
 30
0.0
  0
VERTEX
  5
DCA
330
DAE
100
AcDbEntity
  8
KOPF
  6
CONTINU
 62
     2
100
AcDbVertex
100
AcDb2dVertex
 10
1.532947475328569
 20
2.441336678314257
 30
0.0
  0
VERTEX
  5
DCB
330
DAE
100
AcDbEntity
  8
KOPF
  6
CONTINU
 62
     2
100
AcDbVertex
100
AcDb2dVertex
 10
1.523211975328536
 20
1.797781678314265
 30
0.0
  0
VERTEX
  5
DCC
330
DAE
100
AcDbEntity
  8
KOPF
  6
CONTINU
 62
     2
100
AcDbVertex
100
AcDb2dVertex
 10
1.754718475328559
 20
1.36037367831426
 30
0.0
  0
VERTEX
  5
DCD
330
DAE
100
AcDbEntity
  8
KOPF
  6
CONTINU
 62
     2
100
AcDbVertex
100
AcDb2dVertex
 10
2.223819475328554
 20
1.196402678314257
 30
0.0
 42
0.054838
  0
VERTEX
  5
DCE
330
DAE
100
AcDbEntity
  8
KOPF
  6
CONTINU
 62
     2
100
AcDbVertex
100
AcDb2dVertex
 10
3.313342975328538
 20
1.289114678314263
 30
0.0
  0
VERTEX
  5
DCF
330
DAE
100
AcDbEntity
  8
KOPF
  6
CONTINU
 62
     2
100
AcDbVertex
100
AcDb2dVertex
 10
3.454181475328539
 20
2.134131178314248
 30
0.0
  0
VERTEX
  5
DD0
330
DAE
100
AcDbEntity
  8
KOPF
  6
CONTINU
 62
     2
100
AcDbVertex
100
AcDb2dVertex
 10
2.416049475328549
 20
2.134131178314248
 30
0.0
  0
VERTEX
  5
DD1
330
DAE
100
AcDbEntity
  8
KOPF
  6
CONTINU
 62
     2
100
AcDbVertex
100
AcDb2dVertex
 10
2.552585475328555
 20
2.953330178314246
 30
0.0
  0
VERTEX
  5
DD2
330
DAE
100
AcDbEntity
  8
KOPF
  6
CONTINU
 62
     2
100
AcDbVertex
100
AcDb2dVertex
 10
4.83645997532858
 20
2.953330178314246
 30
0.0
  0
VERTEX
  5
DD3
330
DAE
100
AcDbEntity
  8
KOPF
  6
CONTINU
 62
     2
100
AcDbVertex
100
AcDb2dVertex
 10
4.392505475328562
 20
0.2895421783142638
 30
0.0
  0
VERTEX
  5
DD4
330
DAE
100
AcDbEntity
  8
KOPF
  6
CONTINU
 62
     2
100
AcDbVertex
100
AcDb2dVertex
 10
4.338580975328568
 20
0.2768011783142867
 30
0.0
  0
VERTEX
  5
DD5
330
DAE
100
AcDbEntity
  8
KOPF
  6
CONTINU
 62
     2
100
AcDbVertex
100
AcDb2dVertex
 10
4.284671475328565
 20
0.2642886783142728
 30
0.0
  0
VERTEX
  5
DD6
330
DAE
100
AcDbEntity
  8
KOPF
  6
CONTINU
 62
     2
100
AcDbVertex
100
AcDb2dVertex
 10
4.230807975328559
 20
0.2520206783142669
 30
0.0
  0
SEQEND
  5
DD7
330
DAE
100
AcDbEntity
  8
KOPF
 62
     2
  0
HATCH
  5
DD8
330
D87
100
AcDbEntity
  8
KOPF
 62
     7
100
AcDbHatch
 10
0.0
 20
0.0
 30
0.0
210
0.0
220
0.0
230
1.0
  2
SOLID
 70
     1
 71
     0
 91
        1
 92
        1
 93
       38
 72
     1
 10
2.223819475328554
 20
1.196402678314257
 11
1.754718475328559
 21
1.36037367831426
 72
     1
 10
1.754718475328559
 20
1.36037367831426
 11
1.523211975328536
 21
1.797781678314265
 72
     1
 10
1.523211975328536
 20
1.797781678314265
 11
1.532947475328569
 21
2.441336678314257
 72
     1
 10
1.532947475328569
 20
2.441336678314257
 11
1.757983975328556
 21
3.187644178314258
 72
     1
 10
1.757983975328556
 20
3.187644178314258
 11
2.163074475328556
 21
3.706198678314251
 72
     2
 10
3.09980946486911
 20
0.4750535186772141
 40
3.364189573028744
 50
253.8327008024395
 51
276.9353140195865
 73
     0
 72
     1
 10
3.50603097532857
 20
3.814627678314252
 11
3.60626597532854
 21
3.742651678314274
 72
     1
 10
3.60626597532854
 20
3.742651678314274
 11
3.658435475328559
 21
3.635474178314268
 72
     1
 10
3.658435475328559
 20
3.635474178314268
 11
3.676043975328553
 21
3.465338678314282
 72
     1
 10
3.676043975328553
 20
3.465338678314282
 11
4.921786975328558
 21
3.465338678314282
 72
     1
 10
4.921786975328558
 20
3.465338678314282
 11
4.661227975328557
 21
4.19379317831428
 72
     1
 10
4.661227975328557
 20
4.19379317831428
 11
4.189914475328549
 21
4.578391178314262
 72
     1
 10
4.189914475328549
 20
4.578391178314262
 11
3.590213475328567
 21
4.785315678314248
 72
     1
 10
3.590213475328567
 20
4.785315678314248
 11
2.929553975328559
 21
4.871710678314258
 72
     1
 10
2.929553975328559
 20
4.871710678314258
 11
2.262469975328542
 21
4.837775178314274
 72
     1
 10
2.262469975328542
 20
4.837775178314274
 11
1.632815975328554
 21
4.664038678314284
 72
     1
 10
1.632815975328554
 20
4.664038678314284
 11
1.075641475328552
 21
4.335898178314266
 72
     1
 10
1.075641475328552
 20
4.335898178314266
 11
0.6188849753285695
 21
3.857199678314259
 72
     1
 10
0.6188849753285695
 20
3.857199678314259
 11
0.2847019753285735
 21
3.254996178314257
 72
     1
 10
0.2847019753285735
 20
3.254996178314257
 11
0.0903659753285524
 21
2.57732267831426
 72
     1
 10
0.0903659753285524
 20
2.57732267831426
 11
0.0486334753285576
 21
1.885962678314285
 72
     1
 10
0.0486334753285576
 20
1.885962678314285
 11
0.1673769753285512
 21
1.246237678314258
 72
     1
 10
0.1673769753285512
 20
1.246237678314258
 11
0.4486119753285323
 21
0.7156286783142605
 72
     1
 10
0.4486119753285323
 20
0.7156286783142605
 11
0.8865389753285342
 21
0.3333501783142765
 72
     1
 10
0.8865389753285342
 20
0.3333501783142765
 11
1.464725475328549
 21
0.112723178314269
 72
     1
 10
1.464725475328549
 20
0.112723178314269
 11
2.152301475328556
 21
0.038306178314258
 72
     1
 10
2.152301475328556
 20
0.038306178314258
 11
2.898837975328547
 21
0.069876678314273
 72
     1
 10
2.898837975328547
 20
0.069876678314273
 11
3.628177475328556
 21
0.1549291783142621
 72
     1
 10
3.628177475328556
 20
0.1549291783142621
 11
4.230807975328559
 21
0.2520206783142669
 72
     1
 10
4.230807975328559
 20
0.2520206783142669
 11
4.284671475328565
 21
0.2642886783142728
 72
     1
 10
4.284671475328565
 20
0.2642886783142728
 11
4.338580975328568
 21
0.2768011783142867
 72
     1
 10
4.338580975328568
 20
0.2768011783142867
 11
4.392505475328562
 21
0.2895421783142638
 72
     1
 10
4.392505475328562
 20
0.2895421783142638
 11
4.83645997532858
 21
2.953330178314246
 72
     1
 10
4.83645997532858
 20
2.953330178314246
 11
2.552585475328555
 21
2.953330178314246
 72
     1
 10
2.552585475328555
 20
2.953330178314246
 11
2.416049475328549
 21
2.134131178314248
 72
     1
 10
2.416049475328549
 20
2.134131178314248
 11
3.454181475328539
 21
2.134131178314248
 72
     1
 10
3.454181475328539
 20
2.134131178314248
 11
3.313342975328538
 21
1.289114678314263
 72
     2
 10
2.347189143675734
 20
6.194831502486067
 40
4.999951078298644
 50
78.858501207424
 51
91.41386958452535
 73
     0
 97
        0
 75
     0
 76
     1
 98
        1
 10
78.94342397532856
 20
-1.062905321685718
450
        0
451
        0
460
0.0
461
0.0
452
        0
462
0.0
453
        0
470

1001
GENIUS_GENODEF_13
1002
{
1000
HIER
1070
     0
1002
}
1002
{
1000
MANEDIT
1070
     0
1002
}
1002
{
1000
NOSEL
1070
     0
1002
}
1002
{
1000
BEHIND
1070
     0
1002
}
1002
{
1000
REACTOR
1002
}
1001
GENIUS_GENOBJ-N-HTC_13
1002
{
1000
OWNER
1000
GEN
1002
}
1001
GENIUS_GENHATCH_13
1002
{
1000
DATA
1040
0.0
1042
0.5
1000
SOLID
1070
     0
1011
3.794008173068021
1021
0.9528598634049956
1031
0.0
1002
}
1002
{
1000
UCS
1010
0.0
1020
0.0
1030
0.0
1010
1.0
1020
0.0
1030
0.0
1010
0.0
1020
1.0
1030
0.0
1002
}
  0
POLYLINE
  5
DD9
330
D87
100
AcDbEntity
  8
KOPF
  6
CONTINU
 62
     2
100
AcDb2dPolyline
 66
     1
 10
0.0
 20
0.0
 30
0.0
 70
     1
  0
VERTEX
  5
DDA
330
DD9
100
AcDbEntity
  8
KOPF
  6
CONTINU
 62
     2
100
AcDbVertex
100
AcDb2dVertex
 10
5.749469475328567
 20
4.694129178314256
 30
0.0
  0
VERTEX
  5
DDB
330
DD9
100
AcDbEntity
  8
KOPF
  6
CONTINU
 62
     2
100
AcDbVertex
100
AcDb2dVertex
 10
6.995212475328571
 20
4.694129178314256
 30
0.0
  0
VERTEX
  5
DDC
330
DD9
100
AcDbEntity
  8
KOPF
  6
CONTINU
 62
     2
100
AcDbVertex
100
AcDb2dVertex
 10
6.244296975328552
 20
0.1885291783142406
 30
0.0
  0
VERTEX
  5
DDD
330
DD9
100
AcDbEntity
  8
KOPF
  6
CONTINU
 62
     2
100
AcDbVertex
100
AcDb2dVertex
 10
4.998538475328558
 20
0.1885291783142406
 30
0.0
  0
SEQEND
  5
DDE
330
DD9
100
AcDbEntity
  8
KOPF
 62
     2
  0
HATCH
  5
DDF
330
D87
100
AcDbEntity
  8
KOPF
 62
     7
100
AcDbHatch
 10
0.0
 20
0.0
 30
0.0
210
0.0
220
0.0
230
1.0
  2
SOLID
 70
     1
 71
     0
 91
        1
 92
        1
 93
        4
 72
     1
 10
5.749469475328567
 20
4.694129178314256
 11
4.998538475328558
 21
0.1885291783142406
 72
     1
 10
4.998538475328558
 20
0.1885291783142406
 11
6.244296975328552
 21
0.1885291783142406
 72
     1
 10
6.244296975328552
 20
0.1885291783142406
 11
6.995212475328571
 21
4.694129178314256
 72
     1
 10
6.995212475328571
 20
4.694129178314256
 11
5.749469475328567
 21
4.694129178314256
 97
        0
 75
     0
 76
     1
 98
        1
 10
78.94342397532856
 20
-1.062905321685718
450
        0
451
        0
460
0.0
461
0.0
452
        0
462
0.0
453
        0
470

1001
GENIUS_GENODEF_13
1002
{
1000
HIER
1070
     0
1002
}
1002
{
1000
MANEDIT
1070
     0
1002
}
1002
{
1000
NOSEL
1070
     0
1002
}
1002
{
1000
BEHIND
1070
     0
1002
}
1002
{
1000
REACTOR
1002
}
1001
GENIUS_GENOBJ-N-HTC_13
1002
{
1000
OWNER
1000
GEN
1002
}
1001
GENIUS_GENHATCH_13
1002
{
1000
DATA
1040
0.0
1042
0.5
1000
SOLID
1070
     0
1011
5.930903141474601
1021
0.6858655421573303
1031
0.0
1002
}
1002
{
1000
UCS
1010
0.0
1020
0.0
1030
0.0
1010
1.0
1020
0.0
1030
0.0
1010
0.0
1020
1.0
1030
0.0
1002
}
  0
ENDBLK
  5
DE1
330
D87
100
AcDbEntity
  8
0
100
AcDbBlockEnd
  0
BLOCK
  5
DFA
330
DF0
100
AcDbEntity
  8
0
100
AcDbBlockBegin
  2
GEN_A4
 70
     0
 10
0.0
 20
0.0
 30
0.0
  3
GEN_A4
  1

  0
LINE
  5
DF1
330
DF0
100
AcDbEntity
  8
0
100
AcDbLine
 10
20.12
 20
7.0
 30
0.0
 11
203.0
 21
7.0
 31
0.0
  0
LINE
  5
DF2
330
DF0
100
AcDbEntity
  8
0
100
AcDbLine
 10
203.0
 20
7.0
 30
0.0
 11
203.0
 21
290.0
 31
0.0
  0
LINE
  5
DF3
330
DF0
100
AcDbEntity
  8
0
100
AcDbLine
 10
20.12
 20
290.0
 30
0.0
 11
203.0
 21
290.0
 31
0.0
  0
TEXT
  5
DF4
330
DF0
100
AcDbEntity
  8
0
 60
     1
100
AcDbText
 10
208.0
 20
300.0
 30
0.0
 40
3.5
  1
!GENTITLE-MAX
100
AcDbText
  0
TEXT
  5
DF5
330
DF0
100
AcDbEntity
  8
0
 60
     1
100
AcDbText
 10
203.0
 20
290.0
 30
0.0
 40
3.5
  1
!GENTITLE-RU
100
AcDbText
  0
TEXT
  5
DF6
330
DF0
100
AcDbEntity
  8
0
 60
     1
100
AcDbText
 10
20.12
 20
61.99
 30
0.0
 40
3.5
  1
!GENTITLE-LL
100
AcDbText
  0
TEXT
  5
DF7
330
DF0
100
AcDbEntity
  8
0
 60
     1
100
AcDbText
 10
203.0
 20
7.0
 30
0.0
 40
3.5
  1
!GENTITLE-INSERT
100
AcDbText
  0
LINE
  5
DF8
330
DF0
100
AcDbEntity
  8
0
100
AcDbLine
 10
20.12
 20
290.0
 30
0.0
 11
20.12
 21
7.0
 31
0.0
  0
POINT
  5
DF9
330
DF0
100
AcDbEntity
  8
0
 60
     1
100
AcDbPoint
 10
0.0
 20
0.0
 30
0.0
  0
ENDBLK
  5
DFB
330
DF0
100
AcDbEntity
  8
0
100
AcDbBlockEnd
  0
BLOCK
  5
E7A
330
E1F
100
AcDbEntity
  8
0
100
AcDbBlockBegin
  2
GENTITLE
 70
     2
 10
0.0
 20
0.0
 30
0.0
  3
GENTITLE
  1

  0
LINE
  5
E20
330
E1F
100
AcDbEntity
  8
RAHM2
100
AcDbLine
 10
-182.88
 20
4.230000000000018
 30
0.0
 11
0.0
 21
4.230000000000018
 31
0.0
  0
POLYLINE
  5
E21
330
E1F
100
AcDbEntity
  8
0
100
AcDb2dPolyline
 66
     1
 10
0.0
 20
0.0
 30
0.0
 70
     1
  0
VERTEX
  5
E22
330
E21
100
AcDbEntity
  8
0
100
AcDbVertex
100
AcDb2dVertex
 10
-182.88
 20
0.0
 30
0.0
  0
VERTEX
  5
E23
330
E21
100
AcDbEntity
  8
0
100
AcDbVertex
100
AcDb2dVertex
 10
0.0
 20
0.0
 30
0.0
  0
VERTEX
  5
E24
330
E21
100
AcDbEntity
  8
0
100
AcDbVertex
100
AcDb2dVertex
 10
0.0
 20
54.99000000000001
 30
0.0
  0
VERTEX
  5
E25
330
E21
100
AcDbEntity
  8
0
100
AcDbVertex
100
AcDb2dVertex
 10
-182.88
 20
54.99000000000001
 30
0.0
  0
SEQEND
  5
E26
330
E21
100
AcDbEntity
  8
0
  0
LINE
  5
E27
330
E1F
100
AcDbEntity
  8
RAHM3
100
AcDbLine
 10
-129.54
 20
16.92000000000001
 30
0.0
 11
0.0
 21
16.92000000000001
 31
0.0
  0
LINE
  5
E28
330
E1F
100
AcDbEntity
  8
RAHM3
100
AcDbLine
 10
-182.88
 20
38.07000000000002
 30
0.0
 11
0.0
 21
38.07000000000002
 31
0.0
  0
LINE
  5
E29
330
E1F
100
AcDbEntity
  8
RAHM2
100
AcDbLine
 10
-86.35999999999995
 20
48.66000000000008
 30
0.0
 11
0.0
 21
48.66000000000005
 31
0.0
  0
LINE
  5
E2A
330
E1F
100
AcDbEntity
  8
RAHM2
100
AcDbLine
 10
-182.88
 20
21.15000000000003
 30
0.0
 11
-129.54
 21
21.15000000000003
 31
0.0
  0
LINE
  5
E2B
330
E1F
100
AcDbEntity
  8
RAHM2
100
AcDbLine
 10
-182.88
 20
16.92000000000001
 30
0.0
 11
-129.54
 21
16.92000000000001
 31
0.0
  0
LINE
  5
E2C
330
E1F
100
AcDbEntity
  8
RAHM2
100
AcDbLine
 10
-182.88
 20
12.69000000000003
 30
0.0
 11
-129.54
 21
12.69000000000005
 31
0.0
  0
LINE
  5
E2D
330
E1F
100
AcDbEntity
  8
RAHM2
100
AcDbLine
 10
-182.88
 20
8.460000000000036
 30
0.0
 11
-129.54
 21
8.460000000000036
 31
0.0
  0
LINE
  5
E2E
330
E1F
100
AcDbEntity
  8
RAHM2
100
AcDbLine
 10
-182.88
 20
33.84000000000003
 30
0.0
 11
-86.35999999999995
 21
33.84000000000003
 31
0.0
  0
LINE
  5
E2F
330
E1F
100
AcDbEntity
  8
RAHM2
100
AcDbLine
 10
-182.88
 20
29.61000000000002
 30
0.0
 11
-86.35999999999995
 21
29.61000000000002
 31
0.0
  0
LINE
  5
E30
330
E1F
100
AcDbEntity
  8
RAHM2
100
AcDbLine
 10
-182.88
 20
25.38000000000002
 30
0.0
 11
-86.35999999999995
 21
25.38000000000002
 31
0.0
  0
TEXT
  5
E31
330
E1F
100
AcDbEntity
  8
RAHM2
100
AcDbText
 10
-147.6104524425095
 20
1.199999999999988
 30
0.0
 40
2.000000000000294
  1
Datum
 72
     1
 11
-143.8742087558013
 21
1.199999999999988
 31
0.0
100
AcDbText
1001
GENIUS_GENTRA_14
1002
{
1070
     1
1000
GENTRATX,%s,(GENMSG gendwg 62)
1000
Datum
1000
d
1070
     0
1040
1.0
1070
     0
1002
}
  0
MTEXT
  5
E32
330
E1F
100
AcDbEntity
  8
RAHM2
100
AcDbMText
 10
-180.9558250241954
 20
52.71791659667087
 30
0.0
 40
2.0
 41
53.0
 46
0.0
 71
     1
 72
     5
  1
Alle Rechte bei Glutz AG, auch für den Fall \Pvon Schutzrechtsanmeldungen. Jede Verfügungsbefugnis wie Kopier- und Weitergaberecht liegen bei uns.
 73
     1
 44
1.0
  0
TEXT
  5
E33
330
E1F
100
AcDbEntity
  8
RAHM2
100
AcDbText
 10
-180.5883006538761
 20
1.199999999999988
 30
0.0
 40
2.000000000000294
  1
Nr.
 72
     1
 11
-178.8883006538758
 21
1.199999999999988
 31
0.0
100
AcDbText
  0
LINE
  5
E34
330
E1F
100
AcDbEntity
  8
RAHM2
100
AcDbLine
 10
-175.26
 20
38.07000000000002
 30
0.0
 11
-175.26
 21
0.0
 31
0.0
  0
LINE
  5
E35
330
E1F
100
AcDbEntity
  8
RAHM2
100
AcDbLine
 10
-149.8599999999999
 20
38.07000000000002
 30
0.0
 11
-149.8599999999999
 21
0.0
 31
0.0
  0
TEXT
  5
E36
330
E1F
100
AcDbEntity
  8
RAHM2
100
AcDbText
 10
-173.0163605444353
 20
1.199999999999988
 30
0.0
 40
2.000000000000294
  1
Änderung
 72
     1
 11
-167.2801168577268
 21
1.199999999999988
 31
0.0
100
AcDbText
1001
GENIUS_GENTRA_14
1002
{
1070
     1
1000
GENTRATX,%s,(GENMSG gendwg 61)
1000
Änderung
1000
d
1070
     0
1040
1.0
1070
     0
1002
}
  0
TEXT
  5
E37
330
E1F
100
AcDbEntity
  8
RAHM2
 62
     1
100
AcDbText
 10
-85.15692863201479
 20
1.073329287851606
 30
0.0
 40
2.0
  1
Ers. für:
100
AcDbText
  0
TEXT
  5
E38
330
E1F
100
AcDbEntity
  8
RAHM2
 62
     1
100
AcDbText
 10
-84.81966824586265
 20
44.22656045324742
 30
0.0
 40
2.5
  1
Dim.:
100
AcDbText
  0
TEXT
  5
E39
330
E1F
100
AcDbEntity
  8
RAHM2
100
AcDbText
 10
-85.140438076728
 20
50.60161290322582
 30
0.0
 40
2.000000000000294
  1
Massstab
100
AcDbText
  0
MTEXT
  5
E3A
330
E1F
100
AcDbEntity
  8
RAHM2
100
AcDbMText
 10
-127.7321914520351
 20
52.43824043511693
 30
0.0
 40
2.0
 41
45.0
 46
0.0
 71
     1
 72
     5
  1
Zul. Abweichung für nicht tol. \PMasse DIN 7168-m\PForm- und Lagetoleranzen nach \PDIN ISO 8015-S
 73
     1
 44
1.0
  0
LINE
  5
E3B
330
E1F
100
AcDbEntity
  8
RAHM3
100
AcDbLine
 10
-86.35999999999995
 20
54.99000000000006
 30
0.0
 11
-86.35999999999995
 21
0.0
 31
0.0
  0
LINE
  5
E3C
330
E1F
100
AcDbEntity
  8
RAHM3
100
AcDbLine
 10
-129.54
 20
54.99000000000006
 30
0.0
 11
-129.54
 21
21.15000000000003
 31
0.0
  0
INSERT
  5
E3D
330
E1F
100
AcDbEntity
  8
RAHM5
100
AcDbBlockReference
  2
GLUTZ1
 10
-128.5393330295188
 20
8.137302263146466
 30
0.0
  0
LINE
  5
E3E
330
E1F
100
AcDbEntity
  8
RAHM3
100
AcDbLine
 10
-129.54
 20
21.15000000000003
 30
0.0
 11
-86.35999999999995
 21
21.15000000000003
 31
0.0
  0
TEXT
  5
E3F
330
E1F
100
AcDbEntity
  8
RAHM2
100
AcDbText
 10
-128.427832744091
 20
18.09511665764091
 30
0.0
 40
2.000000000000294
  1
Oberfläche nach VSM 10231
100
AcDbText
  0
TEXT
  5
E40
330
E1F
100
AcDbEntity
  8
RAHM2
100
AcDbText
 10
-117.0692984212765
 20
35.04000000000002
 30
0.0
 40
2.000000000000294
  1
Datum
 41
0.983632218248894
 72
     1
 11
-113.3942087558013
 21
35.04000000000002
 31
0.0
100
AcDbText
1001
GENIUS_GENTRA_14
1002
{
1070
     1
1000
GENTRATX{3.38},%s,(GENMSG gendwg 62)
1000
Datum
1000
d
1070
     0
1040
1.0
1070
     0
1002
}
  0
LINE
  5
E41
330
E1F
100
AcDbEntity
  8
RAHM3
100
AcDbLine
 10
-129.54
 20
21.15000000000003
 30
0.0
 11
-129.54
 21
0.0
 31
0.0
  0
LINE
  5
E42
330
E1F
100
AcDbEntity
  8
RAHM2
100
AcDbLine
 10
-137.16
 20
38.07000000000002
 30
0.0
 11
-137.16
 21
0.0
 31
0.0
  0
TEXT
  5
E43
330
E1F
100
AcDbEntity
  8
RAHM2
100
AcDbText
 10
-136.5823351702584
 20
1.19999999999851
 30
0.0
 40
2.000000000000294
  1
Name
100
AcDbText
1001
GENIUS_GENTRA_14
1002
{
1070
     1
1000
GENTRATX{3.31},%s,(GENMSG gendwg 63)
1000
Name
1000
d
1070
     0
1040
1.0
1070
     0
1002
}
  0
TEXT
  5
E44
330
E1F
100
AcDbEntity
  8
RAHM2
100
AcDbText
 10
-128.4506977874778
 20
1.220747800586508
 30
0.0
 40
2.000000000000196
  1
Datei:
 41
0.8
100
AcDbText
  0
LINE
  5
E45
330
E1F
100
AcDbEntity
  8
RAHM2
100
AcDbLine
 10
-119.38
 20
38.07000000000002
 30
0.0
 11
-119.38
 21
21.15000000000003
 31
0.0
  0
TEXT
  5
E46
330
E1F
100
AcDbEntity
  8
RAHM2
100
AcDbText
 10
-128.34
 20
22.25000000000003
 30
0.0
 40
2.000000000000294
  1
Norm
100
AcDbText
1001
GENIUS_GENTRA_14
1002
{
1070
     1
1000
GENTRATX{4.13},%s,(GENMSG gendwg 69)
1000
Norm
1000
d
1070
     0
1040
1.0
1070
     0
1002
}
  0
TEXT
  5
E47
330
E1F
100
AcDbEntity
  8
RAHM2
100
AcDbText
 10
-128.34
 20
26.48000000000002
 30
0.0
 40
2.000000000000294
  1
Gepr.
100
AcDbText
1001
GENIUS_GENTRA_14
1002
{
1070
     1
1000
GENTRATX{4.19},%s,(GENMSG gendwg 68)
1000
Gepr.
1000
d
1070
     0
1040
1.0
1070
     0
1002
}
  0
TEXT
  5
E48
330
E1F
100
AcDbEntity
  8
RAHM2
100
AcDbText
 10
-128.34
 20
30.71000000000001
 30
0.0
 40
2.000000000000294
  1
Bearb.
100
AcDbText
1001
GENIUS_GENTRA_14
1002
{
1070
     1
1000
GENTRATX{4.13},%s,(GENMSG gendwg 67)
1000
Bearb.
1000
d
1070
     0
1040
1.0
1070
     0
1002
}
  0
MTEXT
  5
E49
330
E1F
100
AcDbEntity
  8
RAHM3
 62
     2
100
AcDbMText
 10
-109.3434521853635
 20
8.705840189037161
 30
0.0
 40
2.0
 41
76.23000000000001
 46
0.0
 71
     1
 72
     5
  1
CH-4502 Solothurn
 73
     1
 44
1.0
  0
TEXT
  5
E4A
330
E1F
100
AcDbEntity
  8
RAHM5
 62
     7
100
AcDbText
 10
-109.810847736663
 20
11.70157078455995
 30
0.0
 40
3.5
  1
Glutz AG
100
AcDbText
  0
TEXT
  5
E4B
330
E1F
100
AcDbEntity
  8
RAHM2
100
AcDbText
 10
-101.0179677247366
 20
35.04000000000002
 30
0.0
 40
2.000000000000294
  1
Name
 72
     2
 11
-95.11796772473577
 21
35.04000000000002
 31
0.0
100
AcDbText
1001
GENIUS_GENTRA_14
1002
{
1070
     1
1000
GENTRATX,%s,(GENMSG gendwg 63)
1000
Name
1000
d
1070
     0
1040
1.0
1070
     0
1002
}
  0
LINE
  5
E4C
330
E1F
100
AcDbEntity
  8
RAHM2
100
AcDbLine
 10
-104.1399999999999
 20
38.07000000000002
 30
0.0
 11
-104.1399999999999
 21
21.15000000000003
 31
0.0
  0
TEXT
  5
E4D
330
E1F
100
AcDbEntity
  8
RAHM2
 62
     1
100
AcDbText
 10
-44.97248047431821
 20
1.073329287851606
 30
0.0
 40
2.0
  1
Ers. durch:
100
AcDbText
  0
TEXT
  5
E4E
330
E1F
100
AcDbEntity
  8
RAHM2
100
AcDbText
 10
-49.20092087271348
 20
50.6016129032258
 30
0.0
 40
2.000000000000196
  1
Position
 41
0.8
100
AcDbText
1001
GENIUS_GENTRA_14
1002
{
1070
     1
1000
GENTRATX{6.37},%s,(GENMSG gendwg 74)
1000
Position
1000
d
1070
     0
1040
0.8
1070
     0
1002
}
  0
LINE
  5
E4F
330
E1F
100
AcDbEntity
  8
RAHM2
100
AcDbLine
 10
-50.80000000000007
 20
54.99000000000006
 30
0.0
 11
-50.80000000000007
 21
48.66000000000008
 31
0.0
  0
TEXT
  5
E50
330
E1F
100
AcDbEntity
  8
RAHM2
 62
     1
100
AcDbText
 10
-34.73648137028408
 20
44.05799334916093
 30
0.0
 40
2.5
  1
Mat.:
100
AcDbText
  0
TEXT
  5
E51
330
E1F
100
AcDbEntity
  8
RAHM2
100
AcDbText
 10
-27.39162270706311
 20
51.00241935483871
 30
0.0
 40
2.000000000000196
  1
Menge
 41
0.8
100
AcDbText
1001
GENIUS_GENTRA_14
1002
{
1070
     1
1000
GENTRATX{4.85},%s,(GENMSG gendwg 75)
1000
Menge
1000
d
1070
     0
1040
0.8
1070
     0
1002
}
  0
LINE
  5
E52
330
E1F
100
AcDbEntity
  8
RAHM2
100
AcDbLine
 10
-10.15999999999997
 20
38.07000000000002
 30
0.0
 11
-10.15999999999997
 21
0.0
 31
0.0
  0
TEXT
  5
E53
330
E1F
100
AcDbEntity
  8
RAHM2
100
AcDbText
 10
-3.184415883363063
 20
5.60997067448676
 30
0.0
 40
2.000000000000294
  1
Bl
 72
     1
 11
-1.984415883362885
 21
5.60997067448676
 31
0.0
100
AcDbText
1001
GENIUS_GENTRA_14
1002
{
1070
     1
1000
GENTRATX,%s,(GENMSG gendwg 77)
1000
Bl
1000
d
1070
     0
1040
1.0
1070
     0
1002
}
  0
LINE
  5
E54
330
E1F
100
AcDbEntity
  8
RAHM2
100
AcDbLine
 10
-10.15999999999997
 20
8.460000000000036
 30
0.0
 11
0.0
 21
8.460000000000036
 31
0.0
  0
TEXT
  5
E55
330
E1F
100
AcDbEntity
  8
RAHM2
100
AcDbText
 10
-8.890271956152652
 20
14.06744868035187
 30
0.0
 40
2.000000000000294
  1
Blatt
 72
     1
 11
-5.790271956152196
 21
14.06744868035187
 31
0.0
100
AcDbText
1001
GENIUS_GENTRA_14
1002
{
1070
     1
1000
GENTRATX,%s,(GENMSG gendwg 76)
1000
Blatt
1000
d
1070
     0
1040
1.0
1070
     0
1002
}
  0
TEXT
  5
E56
330
E1F
100
AcDbEntity
  8
RAHM2
 62
     1
100
AcDbText
 10
-9.679253904721178
 20
27.5319650583823
 30
0.0
 40
1.8
  1
Autocad
100
AcDbText
  0
LINE
  5
E57
330
E1F
100
AcDbEntity
  8
RAHM2
100
AcDbLine
 10
-10.15999999999997
 20
24.89307592814931
 30
0.0
 11
0.0
 21
24.89307592814931
 31
0.0
  0
LINE
  5
E58
330
E1F
100
AcDbEntity
  8
RAHM2
 62
     1
100
AcDbLine
 10
-3.001950787189798
 20
34.14040492715844
 30
0.0
 11
-9.501950787189798
 21
34.14040492715844
 31
0.0
1001
GENIUS_GENOREF_13
1005
E77
  0
LINE
  5
E59
330
E1F
100
AcDbEntity
  8
RAHM3
  6
Continuous
 62
     2
100
AcDbLine
 10
-5.501950787189798
 20
32.55926609707427
 30
0.0
 11
-8.501950787189798
 21
33.43329814597189
 31
0.0
  0
LINE
  5
E5A
330
E1F
100
AcDbEntity
  8
RAHM2
  6
Continuous
 62
     2
100
AcDbLine
 10
-5.501950787189798
 20
35.72154375724264
 30
0.0
 11
-8.501950787189798
 21
34.847511708345
 31
0.0
  0
LINE
  5
E5B
330
E1F
100
AcDbEntity
  8
RAHM3
  6
Continuous
 62
     2
100
AcDbLine
 10
-8.501950787189798
 20
34.847511708345
 30
0.0
 11
-8.501950787189798
 21
33.43329814597189
 31
0.0
  0
LINE
  5
E5C
330
E1F
100
AcDbEntity
  8
RAHM2
 62
     1
100
AcDbLine
 10
-3.001950787189798
 20
34.14040492715844
 30
0.0
 11
-3.001950787189798
 21
36.64040492715844
 31
0.0
1001
GENIUS_GENOREF_13
1005
E77
  0
CIRCLE
  5
E5D
330
E1F
100
AcDbEntity
  8
RAHM3
  6
Continuous
 62
     2
100
AcDbCircle
 10
-3.001950787189798
 20
34.14040492715844
 30
0.0
 40
0.7071067811865475
  0
CIRCLE
  5
E5E
330
E1F
100
AcDbEntity
  8
RAHM3
  6
Continuous
 62
     2
100
AcDbCircle
 10
-3.001950787189798
 20
34.14040492715844
 30
0.0
 40
1.581138830084189
  0
LINE
  5
E5F
330
E1F
100
AcDbEntity
  8
RAHM2
 62
     1
100
AcDbLine
 10
-3.001950787189798
 20
34.14040492715844
 30
0.0
 11
-1.184315815628394
 21
34.14040492715844
 31
0.0
1001
GENIUS_GENOREF_13
1005
E77
  0
LINE
  5
E60
330
E1F
100
AcDbEntity
  8
RAHM3
  6
Continuous
 62
     2
100
AcDbLine
 10
-5.501950787189798
 20
35.72154375724264
 30
0.0
 11
-5.501950787189798
 21
32.55926609707427
 31
0.0
  0
LINE
  5
E61
330
E1F
100
AcDbEntity
  8
RAHM2
 62
     1
100
AcDbLine
 10
-3.001950787189798
 20
34.14040492715844
 30
0.0
 11
-3.001950787189798
 21
31.64040492715844
 31
0.0
1001
GENIUS_GENOREF_13
1005
E77
  0
ATTDEF
  5
E62
330
E1F
100
AcDbEntity
  8
RAHM5
100
AcDbText
 10
-15.33828885467221
 20
6.901874423110257
 30
0.0
 40
7.0
  1

 72
     2
 11
-15.33828885467221
 21
6.901874423110257
 31
0.0
100
AcDbAttributeDefinition
  3
Zeichnungsnummer
  2
GEN-TITLE-NR{13.37}
 70
     0
280
     0
1001
GENIUS_GENTRA_14
1002
{
1070
     3
1000
GENTRAPR,%s,(GENMSG gendwg 84)
1000
Zeichnungsnummer
1000
d
1070
     0
1070
     0
1002
}
  0
ATTDEF
  5
E63
330
E1F
100
AcDbEntity
  8
RAHM5
100
AcDbText
 10
-81.2071643690715
 20
29.17459677419356
 30
0.0
 40
5.00000000000049
  1

100
AcDbAttributeDefinition
  3
Zeichnungsname (mx. 20 Z.)
  2
GEN-TITLE-DES1{15.54}
 70
     0
280
     0
1001
GENIUS_GENTRA_14
1002
{
1070
     3
1000
GENTRAPR,%s,(GENMSG gendwg 87)
1000
Zeichnungsname (mx. 20 Z.)
1000
d
1070
     0
1070
     0
1002
}
  0
ATTDEF
  5
E64
330
E1F
100
AcDbEntity
  8
RAHM3
100
AcDbText
 10
-80.70716436907151
 20
21.17459677419356
 30
0.0
 40
3.500000000000171
  1

100
AcDbAttributeDefinition
  3
Untertitel
  2
GEN-TITLE-DES2{21.21}
 70
     0
280
     0
  0
ATTDEF
  5
E65
330
E1F
100
AcDbEntity
  8
RAHM2
100
AcDbText
 10
-118.7019468872817
 20
30.41000000000003
 30
0.0
 40
2.500000000000367
  1

100
AcDbAttributeDefinition
  3
Bearbeitungsdatum
  2
GEN-TITLE-DAT{5.44}
 70
     0
280
     0
1001
GENIUS_GENTRA_14
1002
{
1070
     3
1000
GENTRAPR,%s,(GENMSG gendwg 80)
1000
Bearbeitungsdatum
1000
d
1070
     0
1070
     0
1002
}
  0
ATTDEF
  5
E66
330
E1F
100
AcDbEntity
  8
RAHM2
100
AcDbText
 10
-102.5325281430328
 20
30.41000000000003
 30
0.0
 40
2.500000000000367
  1

100
AcDbAttributeDefinition
  3
Name des Bearbeiters
  2
GEN-TITLE-NAME{5}
 70
     0
280
     0
1001
GENIUS_GENTRA_14
1002
{
1070
     3
1000
GENTRAPR,%s,(GENMSG gendwg 81)
1000
Name des Bearbeiters
1000
d
1070
     0
1070
     0
1002
}
  0
ATTDEF
  5
E67
330
E1F
100
AcDbEntity
  8
RAHM2
100
AcDbText
 10
-118.5451003624019
 20
26.17804422461478
 30
0.0
 40
2.500000000000367
  1

100
AcDbAttributeDefinition
  3
Prüfdatum
  2
GEN-TITLE-CHKD{5.41}
 70
     0
280
     0
1001
GENIUS_GENTRA_14
1002
{
1070
     3
1000
GENTRAPR,%s,(GENMSG gendwg 78)
1000
Prüfdatum
1000
d
1070
     0
1070
     0
1002
}
  0
ATTDEF
  5
E68
330
E1F
100
AcDbEntity
  8
RAHM2
100
AcDbText
 10
-102.0619852594997
 20
26.4915214039151
 30
0.0
 40
2.500000000000367
  1

100
AcDbAttributeDefinition
  3
Geprüft von
  2
GEN-TITLE-CHKM{5}
 70
     0
280
     0
1001
GENIUS_GENTRA_14
1002
{
1070
     3
1000
GENTRAPR,%s,(GENMSG gendwg 72)
1000
Geprüft von
1000
d
1070
     0
1070
     0
1002
}
  0
ATTDEF
  5
E69
330
E1F
100
AcDbEntity
  8
RAHM2
100
AcDbText
 10
-122.389950305102
 20
0.7960860790287257
 30
0.0
 40
2.5
  1

 41
0.8
100
AcDbAttributeDefinition
  3
Dateiname
  2
GEN-TITLE-DWG{8.92}
 70
     0
280
     0
1001
GENIUS_GENTRA_14
1002
{
1070
     3
1000
GENTRAPR,%s,(GENMSG gendwg 82)
1000
Dateiname
1000
d
1070
     0
1070
     0
1002
}
  0
ATTDEF
  5
E6A
330
E1F
100
AcDbEntity
  8
RAHM3
100
AcDbText
 10
-7.704962298164673
 20
19.80420931536736
 30
0.0
 40
3.0
  1
A 4
 41
0.8
100
AcDbAttributeDefinition
  3
Format
  2
FORMAT
 70
     0
280
     0
  0
ATTDEF
  5
E6B
330
E1F
100
AcDbEntity
  8
RAHM3
100
AcDbText
 10
-5.70040711384613
 20
9.420007355724408
 30
0.0
 40
3.0
  1
1
 41
0.8
 72
     1
 11
-5.100407113846131
 21
9.420007355724408
 31
0.0
100
AcDbAttributeDefinition
  3
Blatt
  2
GEN-TITLE-SHEET{2.62}
 70
     0
280
     0
1001
GENIUS_GENTRA_14
1002
{
1070
     3
1000
GENTRAPR,%s,(GENMSG gendwg 76)
1000
Blatt
1000
d
1070
     0
1070
     0
1002
}
  0
ATTDEF
  5
E6C
330
E1F
100
AcDbEntity
  8
RAHM2
 62
     2
100
AcDbText
 10
-8.704555265270869
 20
5.615349562008077
 30
0.0
 40
2.0
  1
1
100
AcDbAttributeDefinition
  3
Anzahl Blatt
  2
ANZBLATT
 70
     0
280
     0
  0
ATTDEF
  5
E6D
330
E1F
100
AcDbEntity
  8
RAHM2
 62
     2
100
AcDbText
 10
-74.59407938355946
 20
1.069999999999993
 30
0.0
 40
2.0
  1

100
AcDbAttributeDefinition
  3
Ersatz für
  2
ERS.FÜR
 70
     0
280
     0
  0
ATTDEF
  5
E6E
330
E1F
100
AcDbEntity
  8
RAHM2
 62
     2
100
AcDbText
 10
-31.51210471117906
 20
1.005195332250792
 30
0.0
 40
2.0
  1

100
AcDbAttributeDefinition
  3
Ersetzt durch:
  2
ERS.DURCH
 70
     0
280
     0
  0
ATTDEF
  5
E6F
330
E1F
100
AcDbEntity
  8
RAHM3
100
AcDbText
 10
-70.95960978726714
 20
50.01451612903077
 30
0.0
 40
3.5
  1

 41
0.8
100
AcDbAttributeDefinition
  3
Maßstab
  2
GEN-TITLE-SCA{5.42}
 70
     0
280
     0
1001
GENIUS_GENTRA_14
1002
{
1070
     3
1000
GENTRAPR,%s,(GENMSG gendwg 83)
1000
Maßstab
1000
d
1070
     0
1070
     0
1002
}
  0
ATTDEF
  5
E70
330
E1F
100
AcDbEntity
  8
RAHM3
100
AcDbText
 10
-35.713449226948
 20
50.01451612903224
 30
0.0
 40
3.500000000000343
  1

 41
0.8
100
AcDbAttributeDefinition
  3
Positionsnummer
  2
GEN-TITLE-POSI{2.20}
 70
     0
280
     0
1001
GENIUS_GENTRA_14
1002
{
1070
     3
1000
GENTRAPR,%s,(GENMSG gendwg 31)
1000
Positionsnummer
1000
d
1070
     0
1070
     0
1002
}
  0
ATTDEF
  5
E71
330
E1F
100
AcDbEntity
  8
RAHM3
100
AcDbText
 10
-16.73297243245099
 20
50.01451612903077
 30
0.0
 40
3.500000000000343
  1

 41
0.8
100
AcDbAttributeDefinition
  3
Menge
  2
GEN-TITLE-QTY{4.38}
 70
     0
280
     0
1001
GENIUS_GENTRA_14
1002
{
1070
     3
1000
GENTRAPR,%s,(GENMSG gendwg 32)
1000
Menge
1000
d
1070
     0
1070
     0
1002
}
  0
ATTDEF
  5
E72
330
E1F
100
AcDbEntity
  8
RAHM3
100
AcDbText
 10
-76.44237435552025
 20
44.14203488553849
 30
0.0
 40
3.0
  1

 41
0.8
100
AcDbAttributeDefinition
  3
Dimension 
  2
GEN-TITLE-NORM1{14.84}
 70
     0
280
     0
  0
ATTDEF
  5
E73
330
E1F
100
AcDbEntity
  8
RAHM3
100
AcDbText
 10
-26.96779464762585
 20
44.13359241578521
 30
0.0
 40
3.0
  1

 41
0.8
100
AcDbAttributeDefinition
  3
Material 
  2
GEN-TITLE-MAT1{11.15}
 70
     0
280
     0
  0
ATTDEF
  5
E74
330
E1F
100
AcDbEntity
  8
RAHM3
100
AcDbText
 10
-76.34994284560588
 20
39.78860215053771
 30
0.0
 40
3.0
  1

 41
0.8
100
AcDbAttributeDefinition
  3
Norm 
  2
GEN-TITLE-NORM2{14.89}
 70
     0
280
     0
  0
ATTDEF
  5
E75
330
E1F
100
AcDbEntity
  8
RAHM3
100
AcDbText
 10
-24.65644872549956
 20
39.78860215053771
 30
0.0
 40
3.0
  1

 41
0.8
100
AcDbAttributeDefinition
  3
Masse
  2
GEN-TITLE-MAT2{11.09}
 70
     0
280
     0
  0
ATTDEF
  5
E76
330
E1F
100
AcDbEntity
  8
RAHM2
100
AcDbText
 10
-5.369955967542637
 20
0.4161834165005303
 30
0.0
 40
3.000000000000294
  1

 72
     1
 11
-5.369955967542637
 21
0.4161834165005303
 31
0.0
100
AcDbAttributeDefinition
  3
Plot-Datum
  2
GEN-TITLE-PLOT{2.94}
 70
     0
280
     0
1001
GENIUS_GENTRA_14
1002
{
1070
     3
1000
GENTRAPR,%s,(GENMSG gendwg 91)
1000
Plot-Datum
1000
d
1070
     0
1070
     0
1002
}
  0
POINT
  5
E77
330
E1F
100
AcDbEntity
  8
0
 60
     1
100
AcDbPoint
 10
-24.81577449459507
 20
71.88149968582945
 30
0.0
1001
GENIUS_GENODEF_13
1002
{
1000
HIER
1070
    10
1002
}
1002
{
1000
MANEDIT
1070
     1
1002
}
1002
{
1000
NOSEL
1070
     0
1002
}
1002
{
1000
BEHIND
1070
     0
1002
}
1002
{
1000
REACTOR
1002
}
1001
GENIUS_GENOBJ-N-CRS_13
1002
{
1000
OWNER
1000
GEN
1002
}
1001
GENIUS_GENOENT_13
1002
{
1000
MYREF
1005
E77
1002
}
1002
{
1000
GRP
1005
0
1002
}
1001
GENIUS_GENOLIS_13
1002
{
1000
ENT
1005
E61
1005
E58
1005
E5C
1005
E5F
1002
}
  0
TEXT
  5
E78
330
E1F
100
AcDbEntity
  8
RAHM2
 62
     1
100
AcDbText
 10
-84.81966824586265
 20
40.02531971157469
 30
0.0
 40
2.5
  1
Norm:
100
AcDbText
  0
TEXT
  5
E79
330
E1F
100
AcDbEntity
  8
RAHM2
 62
     1
100
AcDbText
 10
-34.73648137028408
 20
40.02531971157469
 30
0.0
 40
2.5
  1
Masse:
100
AcDbText
  0
ENDBLK
  5
E7B
330
E1F
100
AcDbEntity
  8
0
100
AcDbBlockEnd
  0
BLOCK
  5
1024
330
1023
100
AcDbEntity
  8
0
100
AcDbBlockBegin
  2
*U28
 70
     1
 10
0.0
 20
0.0
 30
0.0
  3
*U28
  1

  0
ENDBLK
  5
1025
330
1023
100
AcDbEntity
  8
0
100
AcDbBlockEnd
  0
BLOCK
  5
10C0
330
107F
100
AcDbEntity
  8
0
100
AcDbBlockBegin
  2
GLMASSB1
 70
     2
 10
0.0
 20
0.0
 30
0.0
  3
GLMASSB1
  1

  0
LINE
  5
1080
330
107F
100
AcDbEntity
  8
RAHM2
100
AcDbLine
 10
-182.88
 20
4.230000000000018
 30
0.0
 11
0.0
 21
4.230000000000018
 31
0.0
  0
LINE
  5
1081
330
107F
100
AcDbEntity
  8
RAHM3
100
AcDbLine
 10
-129.54
 20
16.92000000000001
 30
0.0
 11
0.0
 21
16.92000000000001
 31
0.0
  0
LINE
  5
1082
330
107F
100
AcDbEntity
  8
0
100
AcDbLine
 10
-182.88
 20
38.07000000000002
 30
0.0
 11
0.0
 21
38.07000000000002
 31
0.0
  0
LINE
  5
1083
330
107F
100
AcDbEntity
  8
RAHM2
100
AcDbLine
 10
-182.88
 20
21.15000000000003
 30
0.0
 11
-129.54
 21
21.15000000000003
 31
0.0
  0
LINE
  5
1084
330
107F
100
AcDbEntity
  8
RAHM2
100
AcDbLine
 10
-182.88
 20
16.92000000000001
 30
0.0
 11
-129.54
 21
16.92000000000001
 31
0.0
  0
LINE
  5
1085
330
107F
100
AcDbEntity
  8
RAHM2
100
AcDbLine
 10
-182.88
 20
12.69000000000003
 30
0.0
 11
-129.54
 21
12.69000000000005
 31
0.0
  0
MTEXT
  5
1086
330
107F
100
AcDbEntity
  8
RAHM3
 62
     2
100
AcDbMText
 10
-179.4065153342974
 20
35.47807136137425
 30
0.0
 40
3.0
 41
45.0
 46
0.0
 71
     1
 72
     5
  1
Für Fabrikation ungültig !
 73
     1
 44
1.0
  0
TEXT
  5
1087
330
107F
100
AcDbEntity
  8
RAHM2
100
AcDbText
 10
-173.0163605444353
 20
1.199999999999988
 30
0.0
 40
2.000000000000294
  1
Änderung
 72
     1
 11
-167.2801168577268
 21
1.199999999999988
 31
0.0
100
AcDbText
1001
GENIUS_GENTRA_14
1002
{
1070
     1
1000
GENTRATX,%s,(GENMSG gendwg 61)
1000
Änderung
1000
d
1070
     0
1040
1.0
1070
     0
1002
}
  0
LINE
  5
1088
330
107F
100
AcDbEntity
  8
RAHM2
100
AcDbLine
 10
-182.88
 20
8.460000000000036
 30
0.0
 11
-129.54
 21
8.460000000000036
 31
0.0
  0
LINE
  5
1089
330
107F
100
AcDbEntity
  8
RAHM2
100
AcDbLine
 10
-129.54
 20
33.84000000000003
 30
0.0
 11
-86.35999999999995
 21
33.84000000000003
 31
0.0
  0
LINE
  5
108A
330
107F
100
AcDbEntity
  8
RAHM2
100
AcDbLine
 10
-182.88
 20
29.61000000000002
 30
0.0
 11
-86.35999999999995
 21
29.61000000000002
 31
0.0
  0
LINE
  5
108B
330
107F
100
AcDbEntity
  8
RAHM2
100
AcDbLine
 10
-182.88
 20
25.38000000000002
 30
0.0
 11
-86.35999999999995
 21
25.38000000000002
 31
0.0
  0
LINE
  5
108C
330
107F
100
AcDbEntity
  8
RAHM2
100
AcDbLine
 10
-175.26
 20
29.61000000000002
 30
0.0
 11
-175.26
 21
0.0
 31
0.0
  0
TEXT
  5
108D
330
107F
100
AcDbEntity
  8
RAHM2
100
AcDbText
 10
-180.5883006538761
 20
1.199999999999988
 30
0.0
 40
2.000000000000294
  1
Nr.
 72
     1
 11
-178.8883006538758
 21
1.199999999999988
 31
0.0
100
AcDbText
  0
LINE
  5
108E
330
107F
100
AcDbEntity
  8
RAHM3
100
AcDbLine
 10
-86.35999999999995
 20
38.07000000000003
 30
0.0
 11
-86.35999999999995
 21
0.0
 31
0.0
  0
LINE
  5
108F
330
107F
100
AcDbEntity
  8
RAHM3
100
AcDbLine
 10
-129.54
 20
21.15000000000003
 30
0.0
 11
-129.54
 21
0.0
 31
0.0
  0
LINE
  5
1090
330
107F
100
AcDbEntity
  8
RAHM2
100
AcDbLine
 10
-137.16
 20
29.61000000000002
 30
0.0
 11
-137.16
 21
0.0
 31
0.0
  0
LINE
  5
1091
330
107F
100
AcDbEntity
  8
RAHM2
100
AcDbLine
 10
-149.8599999999999
 20
29.61000000000002
 30
0.0
 11
-149.8599999999999
 21
0.0
 31
0.0
  0
INSERT
  5
1092
330
107F
100
AcDbEntity
  8
RAHM5
100
AcDbBlockReference
  2
GLUTZ1
 10
-128.5393330295188
 20
8.137302263146466
 30
0.0
  0
TEXT
  5
1093
330
107F
100
AcDbEntity
  8
RAHM2
100
AcDbText
 10
-147.6104524425095
 20
1.199999999999988
 30
0.0
 40
2.000000000000294
  1
Datum
 72
     1
 11
-143.8742087558013
 21
1.199999999999988
 31
0.0
100
AcDbText
1001
GENIUS_GENTRA_14
1002
{
1070
     1
1000
GENTRATX,%s,(GENMSG gendwg 62)
1000
Datum
1000
d
1070
     0
1040
1.0
1070
     0
1002
}
  0
TEXT
  5
1094
330
107F
100
AcDbEntity
  8
RAHM2
100
AcDbText
 10
-136.5823351702584
 20
1.19999999999851
 30
0.0
 40
2.000000000000294
  1
Name
100
AcDbText
1001
GENIUS_GENTRA_14
1002
{
1070
     1
1000
GENTRATX{3.31},%s,(GENMSG gendwg 63)
1000
Name
1000
d
1070
     0
1040
1.0
1070
     0
1002
}
  0
TEXT
  5
1095
330
107F
100
AcDbEntity
  8
RAHM2
100
AcDbText
 10
-128.4506977874778
 20
1.220747800586508
 30
0.0
 40
2.000000000000196
  1
Datei:
 41
0.8
100
AcDbText
  0
MTEXT
  5
1096
330
107F
100
AcDbEntity
  8
RAHM3
 62
     2
100
AcDbMText
 10
-109.3434521853635
 20
8.705840189037161
 30
0.0
 40
2.0
 41
76.23000000000001
 46
0.0
 71
     1
 72
     5
  1
CH-4502 Solothurn
 73
     1
 44
1.0
  0
TEXT
  5
1097
330
107F
100
AcDbEntity
  8
RAHM2
 62
     1
100
AcDbText
 10
-85.15692863201479
 20
1.073329287851606
 30
0.0
 40
2.0
  1
Ers. für:
100
AcDbText
  0
LINE
  5
1098
330
107F
100
AcDbEntity
  8
RAHM2
100
AcDbLine
 10
-129.54
 20
21.15000000000003
 30
0.0
 11
-86.35999999999995
 21
21.15000000000003
 31
0.0
  0
TEXT
  5
1099
330
107F
100
AcDbEntity
  8
RAHM2
100
AcDbText
 10
-128.34
 20
30.71000000000001
 30
0.0
 40
2.000000000000294
  1
Bearb.
100
AcDbText
1001
GENIUS_GENTRA_14
1002
{
1070
     1
1000
GENTRATX{4.13},%s,(GENMSG gendwg 67)
1000
Bearb.
1000
d
1070
     0
1040
1.0
1070
     0
1002
}
  0
LINE
  5
109A
330
107F
100
AcDbEntity
  8
RAHM2
100
AcDbLine
 10
-119.38
 20
38.07000000000002
 30
0.0
 11
-119.38
 21
25.38000000000002
 31
0.0
  0
LINE
  5
109B
330
107F
100
AcDbEntity
  8
RAHM3
100
AcDbLine
 10
-129.54
 20
38.07000000000002
 30
0.0
 11
-129.54
 21
21.15000000000003
 31
0.0
  0
TEXT
  5
109C
330
107F
100
AcDbEntity
  8
RAHM2
100
AcDbText
 10
-128.4098152078466
 20
18.06273924390339
 30
0.0
 40
2.000000000000294
  1
Format
100
AcDbText
  0
TEXT
  5
109D
330
107F
100
AcDbEntity
  8
RAHM2
100
AcDbText
 10
-128.34
 20
26.48000000000002
 30
0.0
 40
2.000000000000294
  1
Gepr.
100
AcDbText
1001
GENIUS_GENTRA_14
1002
{
1070
     1
1000
GENTRATX{4.19},%s,(GENMSG gendwg 68)
1000
Gepr.
1000
d
1070
     0
1040
1.0
1070
     0
1002
}
  0
LINE
  5
109E
330
107F
100
AcDbEntity
  8
RAHM2
100
AcDbLine
 10
-104.14
 20
38.07000000000002
 30
0.0
 11
-104.14
 21
16.92000000000001
 31
0.0
  0
TEXT
  5
109F
330
107F
100
AcDbEntity
  8
RAHM5
 62
     7
100
AcDbText
 10
-109.810847736663
 20
11.70157078455995
 30
0.0
 40
3.5
  1
Glutz AG
100
AcDbText
  0
TEXT
  5
10A0
330
107F
100
AcDbEntity
  8
RAHM2
100
AcDbText
 10
-117.0692984212765
 20
35.04000000000002
 30
0.0
 40
2.000000000000294
  1
Datum
 41
0.983632218248894
 72
     1
 11
-113.3942087558013
 21
35.04000000000002
 31
0.0
100
AcDbText
1001
GENIUS_GENTRA_14
1002
{
1070
     1
1000
GENTRATX{3.38},%s,(GENMSG gendwg 62)
1000
Datum
1000
d
1070
     0
1040
1.0
1070
     0
1002
}
  0
TEXT
  5
10A1
330
107F
100
AcDbEntity
  8
RAHM2
100
AcDbText
 10
-101.0179677247366
 20
35.04000000000002
 30
0.0
 40
2.000000000000294
  1
Name
 72
     2
 11
-95.11796772473577
 21
35.04000000000002
 31
0.0
100
AcDbText
1001
GENIUS_GENTRA_14
1002
{
1070
     1
1000
GENTRATX,%s,(GENMSG gendwg 63)
1000
Name
1000
d
1070
     0
1040
1.0
1070
     0
1002
}
  0
TEXT
  5
10A2
330
107F
100
AcDbEntity
  8
RAHM2
100
AcDbText
 10
-128.3124050782448
 20
22.24469448710818
 30
0.0
 40
2.000000000000294
  1
Massstab
100
AcDbText
  0
LINE
  5
10A3
330
107F
100
AcDbEntity
  8
RAHM2
100
AcDbLine
 10
-10.15999999999997
 20
16.92000000000001
 30
0.0
 11
-10.15999999999997
 21
0.0
 31
0.0
  0
TEXT
  5
10A4
330
107F
100
AcDbEntity
  8
RAHM2
 62
     1
100
AcDbText
 10
-44.97248047431821
 20
1.073329287851606
 30
0.0
 40
2.0
  1
Ers. durch:
100
AcDbText
  0
LINE
  5
10A5
330
107F
100
AcDbEntity
  8
RAHM2
100
AcDbLine
 10
-10.15999999999997
 20
8.460000000000036
 30
0.0
 11
0.0
 21
8.460000000000036
 31
0.0
  0
TEXT
  5
10A6
330
107F
100
AcDbEntity
  8
RAHM2
100
AcDbText
 10
-3.184415883363063
 20
5.60997067448676
 30
0.0
 40
2.000000000000294
  1
Bl
 72
     1
 11
-1.984415883362885
 21
5.60997067448676
 31
0.0
100
AcDbText
1001
GENIUS_GENTRA_14
1002
{
1070
     1
1000
GENTRATX,%s,(GENMSG gendwg 77)
1000
Bl
1000
d
1070
     0
1040
1.0
1070
     0
1002
}
  0
TEXT
  5
10A7
330
107F
100
AcDbEntity
  8
RAHM2
100
AcDbText
 10
-8.890271956152652
 20
14.06744868035187
 30
0.0
 40
2.000000000000294
  1
Blatt
 72
     1
 11
-5.790271956152196
 21
14.06744868035187
 31
0.0
100
AcDbText
1001
GENIUS_GENTRA_14
1002
{
1070
     1
1000
GENTRATX,%s,(GENMSG gendwg 76)
1000
Blatt
1000
d
1070
     0
1040
1.0
1070
     0
1002
}
  0
ATTDEF
  5
10A8
330
107F
100
AcDbEntity
  8
RAHM2
100
AcDbText
 10
-122.7072858550522
 20
0.5846257810491125
 30
0.0
 40
3.000000000000294
  1

 41
0.8
100
AcDbAttributeDefinition
  3
Dateiname
  2
GEN-TITLE-DWG{8.92}
 70
     0
280
     0
1001
GENIUS_GENTRA_14
1002
{
1070
     3
1000
GENTRAPR,%s,(GENMSG gendwg 82)
1000
Dateiname
1000
d
1070
     0
1070
     0
1002
}
  0
ATTDEF
  5
10A9
330
107F
100
AcDbEntity
  8
RAHM2
100
AcDbText
 10
-103.1077603831749
 20
21.87123384445602
 30
0.0
 40
2.500000000000367
  1

100
AcDbAttributeDefinition
  3
Maßstab
  2
GEN-TITLE-SCA{5.42}
 70
     0
280
     0
1001
GENIUS_GENTRA_14
1002
{
1070
     3
1000
GENTRAPR,%s,(GENMSG gendwg 83)
1000
Maßstab
1000
d
1070
     0
1070
     0
1002
}
  0
ATTDEF
  5
10AA
330
107F
100
AcDbEntity
  8
RAHM5
100
AcDbText
 10
-15.62317922068642
 20
7.875
 30
0.0
 40
5.000000000000735
  1
 
 41
0.8
 72
     2
 11
-14.02317922068619
 21
7.875
 31
0.0
100
AcDbAttributeDefinition
  3
Zeichnungsnummer
  2
GEN-TITLE-NR{13.37}
 70
     0
280
     0
1001
GENIUS_GENTRA_14
1002
{
1070
     3
1000
GENTRAPR,%s,(GENMSG gendwg 84)
1000
Zeichnungsnummer
1000
d
1070
     0
1070
     0
1002
}
  0
ATTDEF
  5
10AB
330
107F
100
AcDbEntity
  8
RAHM5
100
AcDbText
 10
-81.2071643690715
 20
29.17459677419356
 30
0.0
 40
5.00000000000049
  1

 41
0.8
100
AcDbAttributeDefinition
  3
Zeichnungsname (mx. 20 Z.)
  2
GEN-TITLE-DES1{15.54}
 70
     0
280
     0
1001
GENIUS_GENTRA_14
1002
{
1070
     3
1000
GENTRAPR,%s,(GENMSG gendwg 87)
1000
Zeichnungsname (mx. 20 Z.)
1000
d
1070
     0
1070
     0
1002
}
  0
ATTDEF
  5
10AC
330
107F
100
AcDbEntity
  8
RAHM3
100
AcDbText
 10
-80.70716436907151
 20
21.17459677419356
 30
0.0
 40
3.500000000000171
  1
Massbild
 41
0.8
100
AcDbAttributeDefinition
  3
Untertitel
  2
GEN-TITLE-DES2{21.21}
 70
     0
280
     0
  0
ATTDEF
  5
10AD
330
107F
100
AcDbEntity
  8
RAHM3
100
AcDbText
 10
-5.70040711384613
 20
9.420007355724408
 30
0.0
 40
3.0
  1
1
 41
0.8
 72
     1
 11
-5.100407113846131
 21
9.420007355724408
 31
0.0
100
AcDbAttributeDefinition
  3
Blatt
  2
GEN-TITLE-SHEET{2.62}
 70
     0
280
     0
1001
GENIUS_GENTRA_14
1002
{
1070
     3
1000
GENTRAPR,%s,(GENMSG gendwg 76)
1000
Blatt
1000
d
1070
     0
1070
     0
1002
}
  0
ATTDEF
  5
10AE
330
107F
100
AcDbEntity
  8
RAHM2
 62
     2
100
AcDbText
 10
-9.030313474146169
 20
5.354862930298622
 30
0.0
 40
2.0
  1
1
100
AcDbAttributeDefinition
  3
Anzahl Blatt
  2
ANZBLATT
 70
     0
280
     0
  0
ATTDEF
  5
10AF
330
107F
100
AcDbEntity
  8
RAHM2
100
AcDbText
 10
-118.7019468872817
 20
30.41000000000003
 30
0.0
 40
2.500000000000367
  1

100
AcDbAttributeDefinition
  3
Bearbeitungsdatum
  2
GEN-TITLE-DAT{5.44}
 70
     0
280
     0
1001
GENIUS_GENTRA_14
1002
{
1070
     3
1000
GENTRAPR,%s,(GENMSG gendwg 80)
1000
Bearbeitungsdatum
1000
d
1070
     0
1070
     0
1002
}
  0
ATTDEF
  5
10B0
330
107F
100
AcDbEntity
  8
RAHM2
100
AcDbText
 10
-102.5325281430328
 20
30.41000000000003
 30
0.0
 40
2.500000000000367
  1

100
AcDbAttributeDefinition
  3
Name des Bearbeiters
  2
GEN-TITLE-NAME{5}
 70
     0
280
     0
1001
GENIUS_GENTRA_14
1002
{
1070
     3
1000
GENTRAPR,%s,(GENMSG gendwg 81)
1000
Name des Bearbeiters
1000
d
1070
     0
1070
     0
1002
}
  0
ATTDEF
  5
10B1
330
107F
100
AcDbEntity
  8
RAHM2
100
AcDbText
 10
-118.5451003624019
 20
26.17804422461478
 30
0.0
 40
2.500000000000367
  1

100
AcDbAttributeDefinition
  3
Prüfdatum
  2
GEN-TITLE-CHKD{5.41}
 70
     0
280
     0
1001
GENIUS_GENTRA_14
1002
{
1070
     3
1000
GENTRAPR,%s,(GENMSG gendwg 78)
1000
Prüfdatum
1000
d
1070
     0
1070
     0
1002
}
  0
ATTDEF
  5
10B2
330
107F
100
AcDbEntity
  8
RAHM2
100
AcDbText
 10
-102.0619852594997
 20
26.4915214039151
 30
0.0
 40
2.500000000000367
  1

100
AcDbAttributeDefinition
  3
Geprüft von
  2
GEN-TITLE-CHKM{5}
 70
     0
280
     0
1001
GENIUS_GENTRA_14
1002
{
1070
     3
1000
GENTRAPR,%s,(GENMSG gendwg 72)
1000
Geprüft von
1000
d
1070
     0
1070
     0
1002
}
  0
ATTDEF
  5
10B3
330
107F
100
AcDbEntity
  8
RAHM2
100
AcDbText
 10
-102.9229702314162
 20
17.77922510127297
 30
0.0
 40
2.500000000000367
  1
A 4
100
AcDbAttributeDefinition
  3
Format
  2
FORMAT
 70
     0
280
     0
  0
ATTDEF
  5
10B4
330
107F
100
AcDbEntity
  8
RAHM2
 62
     2
100
AcDbText
 10
-74.59407938355946
 20
1.069999999999993
 30
0.0
 40
2.0
  1

100
AcDbAttributeDefinition
  3
Ersatz für
  2
ERS.FÜR
 70
     0
280
     0
  0
ATTDEF
  5
10B5
330
107F
100
AcDbEntity
  8
RAHM2
 62
     2
100
AcDbText
 10
-31.51210471117906
 20
1.005195332250792
 30
0.0
 40
2.0
  1

100
AcDbAttributeDefinition
  3
Ersetzt durch:
  2
ERS.DURCH
 70
     0
280
     0
  0
ATTDEF
  5
10B6
330
107F
100
AcDbEntity
  8
RAHM2
100
AcDbText
 10
-5.369955967542637
 20
0.4161834165005303
 30
0.0
 40
3.000000000000294
  1

 72
     1
 11
-5.369955967542637
 21
0.4161834165005303
 31
0.0
100
AcDbAttributeDefinition
  3
Plot-Datum
  2
GEN-TITLE-PLOT{2.94}
 70
     0
280
     0
1001
GENIUS_GENTRA_14
1002
{
1070
     3
1000
GENTRAPR,%s,(GENMSG gendwg 91)
1000
Plot-Datum
1000
d
1070
     0
1070
     0
1002
}
  0
POLYLINE
  5
10B7
330
107F
100
AcDbEntity
  8
0
100
AcDb2dPolyline
 66
     1
 10
0.0
 20
0.0
 30
0.0
  0
VERTEX
  5
10B8
330
10B7
100
AcDbEntity
  8
0
100
AcDbVertex
100
AcDb2dVertex
 10
-182.88
 20
0.0
 30
0.0
  0
VERTEX
  5
10B9
330
10B7
100
AcDbEntity
  8
0
100
AcDbVertex
100
AcDb2dVertex
 10
0.0
 20
0.0
 30
0.0
  0
VERTEX
  5
10BA
330
10B7
100
AcDbEntity
  8
0
100
AcDbVertex
100
AcDb2dVertex
 10
0.0
 20
38.07000000000002
 30
0.0
  0
SEQEND
  5
10BB
330
10B7
100
AcDbEntity
  8
0
  0
POLYLINE
  5
10BC
330
107F
100
AcDbEntity
  8
0
100
AcDb2dPolyline
 66
     1
 10
0.0
 20
0.0
 30
0.0
  0
VERTEX
  5
10BD
330
10BC
100
AcDbEntity
  8
0
100
AcDbVertex
100
AcDb2dVertex
 10
-182.88
 20
38.07000000000002
 30
0.0
  0
VERTEX
  5
10BE
330
10BC
100
AcDbEntity
  8
0
100
AcDbVertex
100
AcDb2dVertex
 10
-182.88
 20
0.0
 30
0.0
  0
SEQEND
  5
10BF
330
10BC
100
AcDbEntity
  8
0
  0
ENDBLK
  5
10C1
330
107F
100
AcDbEntity
  8
0
100
AcDbBlockEnd
  0
BLOCK
  5
117F
330
117D
100
AcDbEntity
  8
0
100
AcDbBlockBegin
  2
GENAXEH
 70
     0
 10
0.0
 20
0.0
 30
0.0
  3
GENAXEH
  1

  0
LINE
  5
117E
330
117D
100
AcDbEntity
  8
0
100
AcDbLine
 10
-1.0
 20
0.0
 30
0.0
 11
1.0
 21
0.0
 31
0.0
  0
ENDBLK
  5
1180
330
117D
100
AcDbEntity
  8
0
100
AcDbBlockEnd
  0
BLOCK
  5
1A70
330
1A66
100
AcDbEntity
  8
0
100
AcDbBlockBegin
  2
*D31
 70
     1
 10
0.0
 20
0.0
 30
0.0
  3
*D31
  1

  0
LINE
  5
1A95
330
1A66
100
AcDbEntity
  8
5
370
    -2
100
AcDbLine
 10
-73.64728313599925
 20
179.5902968823624
 30
0.0
 11
-138.2421260502876
 21
179.5902968823624
 31
0.0
  0
LINE
  5
1A96
330
1A66
100
AcDbEntity
  8
5
370
    -2
100
AcDbLine
 10
-73.64728313599929
 20
-70.40970311763761
 30
0.0
 11
-138.2421260502876
 21
-70.40970311763759
 31
0.0
  0
LINE
  5
1A97
330
1A66
100
AcDbEntity
  8
5
370
    -2
100
AcDbLine
 10
-136.2421260502876
 20
173.5902968823624
 30
0.0
 11
-136.2421260502876
 21
-64.40970311763759
 31
0.0
  0
SOLID
  5
1A98
330
1A66
100
AcDbEntity
  8
5
100
AcDbTrace
 10
-137.2421260502876
 20
173.5902968823624
 30
0.0
 11
-135.2421260502876
 21
173.5902968823624
 31
0.0
 12
-136.2421260502876
 22
179.5902968823624
 32
0.0
 13
-136.2421260502876
 23
179.5902968823624
 33
0.0
  0
SOLID
  5
1A99
330
1A66
100
AcDbEntity
  8
5
100
AcDbTrace
 10
-137.2421260502876
 20
-64.40970311763759
 30
0.0
 11
-135.2421260502876
 21
-64.40970311763759
 31
0.0
 12
-136.2421260502876
 22
-70.40970311763759
 32
0.0
 13
-136.2421260502876
 23
-70.40970311763759
 33
0.0
  0
MTEXT
  5
1A9A
330
1A66
100
AcDbEntity
  8
5
 62
     2
100
AcDbMText
 10
-141.7428150266655
 20
54.59029688236238
 30
0.0
 40
7.0
 41
0.0
 46
0.0
 71
     5
 72
     1
  1
\A1;250
 11
0.0000000000000001
 21
1.0
 31
0.0
 73
     1
 44
1.0
  0
POINT
  5
1A9B
330
1A66
100
AcDbEntity
  8
DEFPOINTS
 62
     0
100
AcDbPoint
 10
-73.64728313599925
 20
179.5902968823624
 30
0.0
  0
POINT
  5
1A9C
330
1A66
100
AcDbEntity
  8
DEFPOINTS
 62
     0
100
AcDbPoint
 10
-73.64728313599929
 20
-70.40970311763761
 30
0.0
  0
POINT
  5
1A9D
330
1A66
100
AcDbEntity
  8
DEFPOINTS
 62
     0
100
AcDbPoint
 10
-136.2421260502876
 20
-70.40970311763759
 30
0.0
  0
ENDBLK
  5
1A71
330
1A66
100
AcDbEntity
  8
0
100
AcDbBlockEnd
  0
BLOCK
  5
1AD5
330
1ACB
100
AcDbEntity
  8
0
100
AcDbBlockBegin
  2
*D32
 70
     1
 10
0.0
 20
0.0
 30
0.0
  3
*D32
  1

  0
LINE
  5
1AD7
330
1ACB
100
AcDbEntity
  8
5
370
    -2
100
AcDbLine
 10
-73.64728313599925
 20
179.5902968823624
 30
0.0
 11
-118.7291313435956
 21
179.5902968823624
 31
0.0
  0
LINE
  5
1AD8
330
1ACB
100
AcDbEntity
  8
5
370
    -2
100
AcDbLine
 10
-96.72913134359568
 20
84.5902968823624
 30
0.0
 11
-118.7291313435957
 21
84.5902968823624
 31
0.0
  0
LINE
  5
1AD9
330
1ACB
100
AcDbEntity
  8
5
370
    -2
100
AcDbLine
 10
-116.7291313435956
 20
173.5902968823624
 30
0.0
 11
-116.7291313435957
 21
90.5902968823624
 31
0.0
  0
SOLID
  5
1ADA
330
1ACB
100
AcDbEntity
  8
5
100
AcDbTrace
 10
-117.7291313435956
 20
173.5902968823624
 30
0.0
 11
-115.7291313435957
 21
173.5902968823624
 31
0.0
 12
-116.7291313435956
 22
179.5902968823624
 32
0.0
 13
-116.7291313435956
 23
179.5902968823624
 33
0.0
  0
SOLID
  5
1ADB
330
1ACB
100
AcDbEntity
  8
5
100
AcDbTrace
 10
-117.7291313435957
 20
90.5902968823624
 30
0.0
 11
-115.7291313435957
 21
90.5902968823624
 31
0.0
 12
-116.7291313435957
 22
84.5902968823624
 32
0.0
 13
-116.7291313435957
 23
84.5902968823624
 33
0.0
  0
MTEXT
  5
1ADC
330
1ACB
100
AcDbEntity
  8
5
 62
     2
100
AcDbMText
 10
-122.2291313435957
 20
132.0902968823624
 30
0.0
 40
7.0
 41
0.0
 46
0.0
 71
     5
 72
     1
  1
\A1;95
 11
0.0000000000000001
 21
1.0
 31
0.0
 73
     1
 44
1.0
  0
POINT
  5
1ADD
330
1ACB
100
AcDbEntity
  8
DEFPOINTS
 62
     0
100
AcDbPoint
 10
-73.64728313599925
 20
179.5902968823624
 30
0.0
  0
POINT
  5
1ADE
330
1ACB
100
AcDbEntity
  8
DEFPOINTS
 62
     0
100
AcDbPoint
 10
-96.72913134359568
 20
84.5902968823624
 30
0.0
  0
POINT
  5
1ADF
330
1ACB
100
AcDbEntity
  8
DEFPOINTS
 62
     0
100
AcDbPoint
 10
-116.7291313435957
 20
84.5902968823624
 30
0.0
  0
ENDBLK
  5
1AD6
330
1ACB
100
AcDbEntity
  8
0
100
AcDbBlockEnd
  0
BLOCK
  5
1B07
330
1AFD
100
AcDbEntity
  8
0
100
AcDbBlockBegin
  2
*D33
 70
     1
 10
0.0
 20
0.0
 30
0.0
  3
*D33
  1

  0
LINE
  5
1B12
330
1AFD
100
AcDbEntity
  8
5
370
    -2
100
AcDbLine
 10
-96.72913134359568
 20
84.5902968823624
 30
0.0
 11
-118.7291313435957
 21
84.5902968823624
 31
0.0
  0
LINE
  5
1B13
330
1AFD
100
AcDbEntity
  8
5
370
    -2
100
AcDbLine
 10
-96.72913134359568
 20
6.590296882362395
 30
0.0
 11
-118.7291313435957
 21
6.590296882362402
 31
0.0
  0
LINE
  5
1B14
330
1AFD
100
AcDbEntity
  8
5
370
    -2
100
AcDbLine
 10
-116.7291313435957
 20
78.5902968823624
 30
0.0
 11
-116.7291313435957
 21
12.5902968823624
 31
0.0
  0
SOLID
  5
1B15
330
1AFD
100
AcDbEntity
  8
5
100
AcDbTrace
 10
-117.7291313435957
 20
78.5902968823624
 30
0.0
 11
-115.7291313435957
 21
78.5902968823624
 31
0.0
 12
-116.7291313435957
 22
84.5902968823624
 32
0.0
 13
-116.7291313435957
 23
84.5902968823624
 33
0.0
  0
SOLID
  5
1B16
330
1AFD
100
AcDbEntity
  8
5
100
AcDbTrace
 10
-117.7291313435957
 20
12.5902968823624
 30
0.0
 11
-115.7291313435957
 21
12.5902968823624
 31
0.0
 12
-116.7291313435957
 22
6.5902968823624
 32
0.0
 13
-116.7291313435957
 23
6.5902968823624
 33
0.0
  0
MTEXT
  5
1B17
330
1AFD
100
AcDbEntity
  8
5
 62
     2
100
AcDbMText
 10
-122.2291313435957
 20
45.59029688236237
 30
0.0
 40
7.0
 41
0.0
 46
0.0
 71
     5
 72
     1
  1
\A1;E
 11
0.0000000000000001
 21
1.0
 31
0.0
 73
     1
 44
1.0
  0
POINT
  5
1B18
330
1AFD
100
AcDbEntity
  8
DEFPOINTS
 62
     0
100
AcDbPoint
 10
-96.72913134359568
 20
84.5902968823624
 30
0.0
  0
POINT
  5
1B19
330
1AFD
100
AcDbEntity
  8
DEFPOINTS
 62
     0
100
AcDbPoint
 10
-96.72913134359568
 20
6.590296882362395
 30
0.0
  0
POINT
  5
1B1A
330
1AFD
100
AcDbEntity
  8
DEFPOINTS
 62
     0
100
AcDbPoint
 10
-116.7291313435957
 20
6.5902968823624
 30
0.0
  0
ENDBLK
  5
1B08
330
1AFD
100
AcDbEntity
  8
0
100
AcDbBlockEnd
  0
BLOCK
  5
1B5E
330
1B54
100
AcDbEntity
  8
0
100
AcDbBlockBegin
  2
*D34
 70
     1
 10
0.0
 20
0.0
 30
0.0
  3
*D34
  1

  0
LINE
  5
1B60
330
1B54
100
AcDbEntity
  8
5
370
    -2
100
AcDbLine
 10
-91.14728313599929
 20
-52.90970311763761
 30
0.0
 11
-91.14728313599929
 21
-92.40970412763759
 31
0.0
  0
LINE
  5
1B61
330
1B54
100
AcDbEntity
  8
5
370
    -2
100
AcDbLine
 10
-56.14728313599929
 20
-52.90970311763761
 30
0.0
 11
-56.14728313599929
 21
-92.40970412763759
 31
0.0
  0
LINE
  5
1B62
330
1B54
100
AcDbEntity
  8
5
370
    -2
100
AcDbLine
 10
-85.14728313599929
 20
-90.4097041276376
 30
0.0
 11
-62.14728313599929
 21
-90.4097041276376
 31
0.0
  0
SOLID
  5
1B63
330
1B54
100
AcDbEntity
  8
5
100
AcDbTrace
 10
-85.14728313599929
 20
-89.40970412763759
 30
0.0
 11
-85.14728313599929
 21
-91.4097041276376
 31
0.0
 12
-91.14728313599929
 22
-90.4097041276376
 32
0.0
 13
-91.14728313599929
 23
-90.4097041276376
 33
0.0
  0
SOLID
  5
1B64
330
1B54
100
AcDbEntity
  8
5
100
AcDbTrace
 10
-62.14728313599929
 20
-89.40970412763759
 30
0.0
 11
-62.14728313599929
 21
-91.4097041276376
 31
0.0
 12
-56.14728313599929
 22
-90.4097041276376
 32
0.0
 13
-56.14728313599929
 23
-90.4097041276376
 33
0.0
  0
MTEXT
  5
1B65
330
1B54
100
AcDbEntity
  8
5
 62
     2
100
AcDbMText
 10
-73.64728313599929
 20
-84.90970412763759
 30
0.0
 40
7.0
 41
0.0
 46
0.0
 71
     5
 72
     1
  1
\A1;35
 73
     1
 44
1.0
  0
POINT
  5
1B66
330
1B54
100
AcDbEntity
  8
DEFPOINTS
 62
     0
100
AcDbPoint
 10
-91.14728313599929
 20
-52.90970311763761
 30
0.0
  0
POINT
  5
1B67
330
1B54
100
AcDbEntity
  8
DEFPOINTS
 62
     0
100
AcDbPoint
 10
-56.14728313599929
 20
-52.90970311763761
 30
0.0
  0
POINT
  5
1B68
330
1B54
100
AcDbEntity
  8
DEFPOINTS
 62
     0
100
AcDbPoint
 10
-56.14728313599929
 20
-90.4097041276376
 30
0.0
  0
ENDBLK
  5
1B5F
330
1B54
100
AcDbEntity
  8
0
100
AcDbBlockEnd
  0
BLOCK
  5
1C3E
330
1C34
100
AcDbEntity
  8
0
100
AcDbBlockBegin
  2
*D35
 70
     1
 10
0.0
 20
0.0
 30
0.0
  3
*D35
  1

  0
LINE
  5
1C40
330
1C34
100
AcDbEntity
  8
5
370
    -2
100
AcDbLine
 10
-66.46482558114655
 20
163.5902968823624
 30
0.0
 11
-29.14728313599925
 21
163.5902968823623
 31
0.0
  0
LINE
  5
1C41
330
1C34
100
AcDbEntity
  8
5
370
    -2
100
AcDbLine
 10
-51.14728313599925
 20
84.5902968823624
 30
0.0
 11
-29.14728313599927
 21
84.59029688236238
 31
0.0
  0
LINE
  5
1C42
330
1C34
100
AcDbEntity
  8
5
370
    -2
100
AcDbLine
 10
-31.14728313599925
 20
157.5902968823623
 30
0.0
 11
-31.14728313599926
 21
90.59029688236238
 31
0.0
  0
SOLID
  5
1C43
330
1C34
100
AcDbEntity
  8
5
100
AcDbTrace
 10
-32.14728313599926
 20
157.5902968823623
 30
0.0
 11
-30.14728313599925
 21
157.5902968823623
 31
0.0
 12
-31.14728313599925
 22
163.5902968823623
 32
0.0
 13
-31.14728313599925
 23
163.5902968823623
 33
0.0
  0
SOLID
  5
1C44
330
1C34
100
AcDbEntity
  8
5
100
AcDbTrace
 10
-32.14728313599927
 20
90.5902968823624
 30
0.0
 11
-30.14728313599926
 21
90.59029688236238
 31
0.0
 12
-31.14728313599927
 22
84.59029688236238
 32
0.0
 13
-31.14728313599927
 23
84.59029688236238
 33
0.0
  0
MTEXT
  5
1C45
330
1C34
100
AcDbEntity
  8
5
 62
     2
100
AcDbMText
 10
-36.64728313599928
 20
124.0902968823623
 30
0.0
 40
7.0
 41
0.0
 46
0.0
 71
     5
 72
     1
  1
\A1;79
 11
0.0000000000000001
 21
1.0
 31
0.0
 73
     1
 44
1.0
  0
POINT
  5
1C46
330
1C34
100
AcDbEntity
  8
DEFPOINTS
 62
     0
100
AcDbPoint
 10
-66.46482558114655
 20
163.5902968823624
 30
0.0
  0
POINT
  5
1C47
330
1C34
100
AcDbEntity
  8
DEFPOINTS
 62
     0
100
AcDbPoint
 10
-51.14728313599925
 20
84.5902968823624
 30
0.0
  0
POINT
  5
1C48
330
1C34
100
AcDbEntity
  8
DEFPOINTS
 62
     0
100
AcDbPoint
 10
-31.14728313599927
 20
84.59029688236238
 30
0.0
  0
ENDBLK
  5
1C3F
330
1C34
100
AcDbEntity
  8
0
100
AcDbBlockEnd
  0
BLOCK
  5
1C64
330
1C58
100
AcDbEntity
  8
0
100
AcDbBlockBegin
  2
*D36
 70
     1
 10
0.0
 20
0.0
 30
0.0
  3
*D36
  1

  0
LINE
  5
1C66
330
1C58
100
AcDbEntity
  8
5
370
    -2
100
AcDbLine
 10
-73.64728313599925
 20
179.5902968823624
 30
0.0
 11
-29.14728313599914
 21
179.5902968823623
 31
0.0
  0
LINE
  5
1C67
330
1C58
100
AcDbEntity
  8
5
370
    -2
100
AcDbLine
 10
-66.46482558114655
 20
163.5902968823624
 30
0.0
 11
-29.14728313599914
 21
163.5902968823623
 31
0.0
  0
LINE
  5
1C68
330
1C58
100
AcDbEntity
  8
5
370
    -2
100
AcDbLine
 10
-31.14728313599913
 20
185.5902968823624
 30
0.0
 11
-31.14728313599913
 21
191.5902968823623
 31
0.0
  0
LINE
  5
1C69
330
1C58
100
AcDbEntity
  8
5
370
    -2
100
AcDbLine
 10
-31.14728313599914
 20
157.5902968823623
 30
0.0
 11
-31.14728313599914
 21
151.5902968823623
 31
0.0
  0
LINE
  5
1C6A
330
1C58
100
AcDbEntity
  8
5
370
    -2
100
AcDbLine
 10
-31.14728313599913
 20
179.5902968823623
 30
0.0
 11
-31.14728313599914
 21
163.5902968823623
 31
0.0
  0
SOLID
  5
1C6B
330
1C58
100
AcDbEntity
  8
5
100
AcDbTrace
 10
-32.14728313599913
 20
185.5902968823624
 30
0.0
 11
-30.14728313599913
 21
185.5902968823624
 31
0.0
 12
-31.14728313599913
 22
179.5902968823623
 32
0.0
 13
-31.14728313599913
 23
179.5902968823623
 33
0.0
  0
SOLID
  5
1C6C
330
1C58
100
AcDbEntity
  8
5
100
AcDbTrace
 10
-32.14728313599914
 20
157.5902968823623
 30
0.0
 11
-30.14728313599914
 21
157.5902968823623
 31
0.0
 12
-31.14728313599914
 22
163.5902968823623
 32
0.0
 13
-31.14728313599914
 23
163.5902968823623
 33
0.0
  0
MTEXT
  5
1C6D
330
1C58
100
AcDbEntity
  8
5
 62
     2
100
AcDbMText
 10
-36.64728313599917
 20
171.5902968823623
 30
0.0
 40
7.0
 41
0.0
 46
0.0
 71
     5
 72
     1
  1
\A1;16
 11
0.0000000000000001
 21
1.0
 31
0.0
 73
     1
 44
1.0
  0
POINT
  5
1C6E
330
1C58
100
AcDbEntity
  8
DEFPOINTS
 62
     0
100
AcDbPoint
 10
-73.64728313599925
 20
179.5902968823624
 30
0.0
  0
POINT
  5
1C6F
330
1C58
100
AcDbEntity
  8
DEFPOINTS
 62
     0
100
AcDbPoint
 10
-66.46482558114655
 20
163.5902968823624
 30
0.0
  0
POINT
  5
1C70
330
1C58
100
AcDbEntity
  8
DEFPOINTS
 62
     0
100
AcDbPoint
 10
-31.14728313599914
 20
163.5902968823623
 30
0.0
  0
ENDBLK
  5
1C65
330
1C58
100
AcDbEntity
  8
0
100
AcDbBlockEnd
  0
BLOCK
  5
1C8A
330
1C80
100
AcDbEntity
  8
0
100
AcDbBlockBegin
  2
*D37
 70
     1
 10
0.0
 20
0.0
 30
0.0
  3
*D37
  1

  0
LINE
  5
1CE4
330
1C80
100
AcDbEntity
  8
5
370
    -2
100
AcDbLine
 10
-51.14728313599925
 20
84.5902968823624
 30
0.0
 11
-38.82141529428121
 21
84.5902968823624
 31
0.0
  0
LINE
  5
1CE5
330
1C80
100
AcDbEntity
  8
5
370
    -2
100
AcDbLine
 10
-66.46482558114657
 20
63.0902968823624
 30
0.0
 11
-38.82141529428121
 21
63.09029688236239
 31
0.0
  0
LINE
  5
1CE6
330
1C80
100
AcDbEntity
  8
5
370
    -2
100
AcDbLine
 10
-40.82141529428121
 20
78.5902968823624
 30
0.0
 11
-40.82141529428121
 21
69.09029688236239
 31
0.0
  0
SOLID
  5
1CE7
330
1C80
100
AcDbEntity
  8
5
100
AcDbTrace
 10
-41.82141529428121
 20
78.5902968823624
 30
0.0
 11
-39.82141529428122
 21
78.5902968823624
 31
0.0
 12
-40.8214152942812
 22
84.5902968823624
 32
0.0
 13
-40.8214152942812
 23
84.5902968823624
 33
0.0
  0
SOLID
  5
1CE8
330
1C80
100
AcDbEntity
  8
5
100
AcDbTrace
 10
-41.82141529428121
 20
69.09029688236239
 30
0.0
 11
-39.82141529428122
 21
69.09029688236239
 31
0.0
 12
-40.82141529428121
 22
63.09029688236239
 32
0.0
 13
-40.82141529428121
 23
63.09029688236239
 33
0.0
  0
MTEXT
  5
1CE9
330
1C80
100
AcDbEntity
  8
5
 62
     2
100
AcDbMText
 10
-46.32210427065917
 20
73.84029688236238
 30
0.0
 40
7.0
 41
0.0
 46
0.0
 71
     5
 72
     1
  1
\A1;21.5
 11
0.0000000000000001
 21
1.0
 31
0.0
 73
     1
 44
1.0
  0
POINT
  5
1CEA
330
1C80
100
AcDbEntity
  8
DEFPOINTS
 62
     0
100
AcDbPoint
 10
-51.14728313599925
 20
84.5902968823624
 30
0.0
  0
POINT
  5
1CEB
330
1C80
100
AcDbEntity
  8
DEFPOINTS
 62
     0
100
AcDbPoint
 10
-66.46482558114657
 20
63.0902968823624
 30
0.0
  0
POINT
  5
1CEC
330
1C80
100
AcDbEntity
  8
DEFPOINTS
 62
     0
100
AcDbPoint
 10
-40.82141529428121
 20
63.09029688236239
 30
0.0
  0
ENDBLK
  5
1C8B
330
1C80
100
AcDbEntity
  8
0
100
AcDbBlockEnd
  0
BLOCK
  5
1CAE
330
1CA4
100
AcDbEntity
  8
0
100
AcDbBlockBegin
  2
*D38
 70
     1
 10
0.0
 20
0.0
 30
0.0
  3
*D38
  1

  0
LINE
  5
1CB0
330
1CA4
100
AcDbEntity
  8
5
370
    -2
100
AcDbLine
 10
-51.14728313599925
 20
84.5902968823624
 30
0.0
 11
-29.1472831359992
 21
84.59029688236238
 31
0.0
  0
LINE
  5
1CB1
330
1CA4
100
AcDbEntity
  8
5
370
    -2
100
AcDbLine
 10
-66.46482558114659
 20
-54.4097031176376
 30
0.0
 11
-29.14728313599923
 21
-54.40970311763761
 31
0.0
  0
LINE
  5
1CB2
330
1CA4
100
AcDbEntity
  8
5
370
    -2
100
AcDbLine
 10
-31.1472831359992
 20
78.59029688236238
 30
0.0
 11
-31.14728313599923
 21
-48.40970311763761
 31
0.0
  0
SOLID
  5
1CB3
330
1CA4
100
AcDbEntity
  8
5
100
AcDbTrace
 10
-32.1472831359992
 20
78.5902968823624
 30
0.0
 11
-30.1472831359992
 21
78.59029688236238
 31
0.0
 12
-31.1472831359992
 22
84.59029688236238
 32
0.0
 13
-31.1472831359992
 23
84.59029688236238
 33
0.0
  0
SOLID
  5
1CB4
330
1CA4
100
AcDbEntity
  8
5
100
AcDbTrace
 10
-32.14728313599923
 20
-48.40970311763761
 30
0.0
 11
-30.14728313599923
 21
-48.40970311763761
 31
0.0
 12
-31.14728313599923
 22
-54.40970311763761
 32
0.0
 13
-31.14728313599923
 23
-54.40970311763761
 33
0.0
  0
MTEXT
  5
1CB5
330
1CA4
100
AcDbEntity
  8
5
 62
     2
100
AcDbMText
 10
-36.64728313599922
 20
15.09029688236238
 30
0.0
 40
7.0
 41
0.0
 46
0.0
 71
     5
 72
     1
  1
\A1;139
 11
0.0000000000000001
 21
1.0
 31
0.0
 73
     1
 44
1.0
  0
POINT
  5
1CB6
330
1CA4
100
AcDbEntity
  8
DEFPOINTS
 62
     0
100
AcDbPoint
 10
-51.14728313599925
 20
84.5902968823624
 30
0.0
  0
POINT
  5
1CB7
330
1CA4
100
AcDbEntity
  8
DEFPOINTS
 62
     0
100
AcDbPoint
 10
-66.46482558114659
 20
-54.4097031176376
 30
0.0
  0
POINT
  5
1CB8
330
1CA4
100
AcDbEntity
  8
DEFPOINTS
 62
     0
100
AcDbPoint
 10
-31.14728313599923
 20
-54.40970311763761
 30
0.0
  0
ENDBLK
  5
1CAF
330
1CA4
100
AcDbEntity
  8
0
100
AcDbBlockEnd
  0
BLOCK
  5
1CD4
330
1CC8
100
AcDbEntity
  8
0
100
AcDbBlockBegin
  2
*D39
 70
     1
 10
0.0
 20
0.0
 30
0.0
  3
*D39
  1

  0
LINE
  5
1CD6
330
1CC8
100
AcDbEntity
  8
5
370
    -2
100
AcDbLine
 10
-66.46482558114659
 20
-54.4097031176376
 30
0.0
 11
-29.14728313599926
 21
-54.40970311763761
 31
0.0
  0
LINE
  5
1CD7
330
1CC8
100
AcDbEntity
  8
5
370
    -2
100
AcDbLine
 10
-73.64728313599925
 20
-70.40970311763761
 30
0.0
 11
-29.14728313599926
 21
-70.40970311763762
 31
0.0
  0
LINE
  5
1CD8
330
1CC8
100
AcDbEntity
  8
5
370
    -2
100
AcDbLine
 10
-31.14728313599926
 20
-48.40970311763761
 30
0.0
 11
-31.14728313599926
 21
-42.40970311763761
 31
0.0
  0
LINE
  5
1CD9
330
1CC8
100
AcDbEntity
  8
5
370
    -2
100
AcDbLine
 10
-31.14728313599927
 20
-76.40970311763762
 30
0.0
 11
-31.14728313599927
 21
-82.40970311763762
 31
0.0
  0
LINE
  5
1CDA
330
1CC8
100
AcDbEntity
  8
5
370
    -2
100
AcDbLine
 10
-31.14728313599926
 20
-54.40970311763761
 30
0.0
 11
-31.14728313599926
 21
-70.40970311763762
 31
0.0
  0
SOLID
  5
1CDB
330
1CC8
100
AcDbEntity
  8
5
100
AcDbTrace
 10
-32.14728313599926
 20
-48.40970311763761
 30
0.0
 11
-30.14728313599926
 21
-48.40970311763761
 31
0.0
 12
-31.14728313599926
 22
-54.40970311763761
 32
0.0
 13
-31.14728313599926
 23
-54.40970311763761
 33
0.0
  0
SOLID
  5
1CDC
330
1CC8
100
AcDbEntity
  8
5
100
AcDbTrace
 10
-32.14728313599926
 20
-76.4097031176376
 30
0.0
 11
-30.14728313599927
 21
-76.40970311763762
 31
0.0
 12
-31.14728313599926
 22
-70.40970311763762
 32
0.0
 13
-31.14728313599926
 23
-70.40970311763762
 33
0.0
  0
MTEXT
  5
1CDD
330
1CC8
100
AcDbEntity
  8
5
 62
     2
100
AcDbMText
 10
-36.64728313599925
 20
-62.40970311763762
 30
0.0
 40
7.0
 41
0.0
 46
0.0
 71
     5
 72
     1
  1
\A1;16
 11
0.0000000000000001
 21
1.0
 31
0.0
 73
     1
 44
1.0
  0
POINT
  5
1CDE
330
1CC8
100
AcDbEntity
  8
DEFPOINTS
 62
     0
100
AcDbPoint
 10
-66.46482558114659
 20
-54.4097031176376
 30
0.0
  0
POINT
  5
1CDF
330
1CC8
100
AcDbEntity
  8
DEFPOINTS
 62
     0
100
AcDbPoint
 10
-73.64728313599925
 20
-70.40970311763761
 30
0.0
  0
POINT
  5
1CE0
330
1CC8
100
AcDbEntity
  8
DEFPOINTS
 62
     0
100
AcDbPoint
 10
-31.14728313599926
 20
-70.40970311763762
 30
0.0
  0
ENDBLK
  5
1CD5
330
1CC8
100
AcDbEntity
  8
0
100
AcDbBlockEnd
  0
BLOCK
  5
1F83
330
1F79
100
AcDbEntity
  8
0
100
AcDbBlockBegin
  2
*D40
 70
     1
 10
0.0
 20
0.0
 30
0.0
  3
*D40
  1

  0
LINE
  5
1FBD
330
1F79
100
AcDbEntity
  8
5
370
    -2
100
AcDbLine
 10
37.88295534721231
 20
95.55685761914686
 30
0.0
 11
18.04516817697483
 21
95.55685761914686
 31
0.0
  0
LINE
  5
1FBE
330
1F79
100
AcDbEntity
  8
5
370
    -2
100
AcDbLine
 10
37.88295534721232
 20
73.05685761914685
 30
0.0
 11
18.04516817697482
 21
73.05685761914687
 31
0.0
  0
LINE
  5
1FBF
330
1F79
100
AcDbEntity
  8
5
370
    -2
100
AcDbLine
 10
20.04516817697483
 20
89.55685761914686
 30
0.0
 11
20.04516817697483
 21
79.05685761914686
 31
0.0
  0
SOLID
  5
1FC0
330
1F79
100
AcDbEntity
  8
5
100
AcDbTrace
 10
19.04516817697483
 20
89.55685761914686
 30
0.0
 11
21.04516817697483
 21
89.55685761914686
 31
0.0
 12
20.04516817697483
 22
95.55685761914686
 32
0.0
 13
20.04516817697483
 23
95.55685761914686
 33
0.0
  0
SOLID
  5
1FC1
330
1F79
100
AcDbEntity
  8
5
100
AcDbTrace
 10
19.04516817697482
 20
79.05685761914686
 30
0.0
 11
21.04516817697483
 21
79.05685761914686
 31
0.0
 12
20.04516817697483
 22
73.05685761914687
 32
0.0
 13
20.04516817697483
 23
73.05685761914687
 33
0.0
  0
MTEXT
  5
1FC2
330
1F79
100
AcDbEntity
  8
5
 62
     2
100
AcDbMText
 10
14.54447920059686
 20
84.30685761914686
 30
0.0
 40
7.0
 41
0.0
 46
0.0
 71
     5
 72
     1
  1
\A1;%%c22.5
 11
0.0000000000000001
 21
1.0
 31
0.0
 73
     1
 44
1.0
  0
POINT
  5
1FC3
330
1F79
100
AcDbEntity
  8
DEFPOINTS
 62
     0
100
AcDbPoint
 10
37.88295534721231
 20
95.55685761914686
 30
0.0
  0
POINT
  5
1FC4
330
1F79
100
AcDbEntity
  8
DEFPOINTS
 62
     0
100
AcDbPoint
 10
37.88295534721232
 20
73.05685761914685
 30
0.0
  0
POINT
  5
1FC5
330
1F79
100
AcDbEntity
  8
DEFPOINTS
 62
     0
100
AcDbPoint
 10
20.04516817697483
 20
73.05685761914687
 30
0.0
  0
ENDBLK
  5
1F84
330
1F79
100
AcDbEntity
  8
0
100
AcDbBlockEnd
  0
BLOCK
  5
1FA5
330
1F99
100
AcDbEntity
  8
0
100
AcDbBlockBegin
  2
*D41
 70
     1
 10
0.0
 20
0.0
 30
0.0
  3
*D41
  1

  0
LINE
  5
1FB2
330
1F99
100
AcDbEntity
  8
5
370
    -2
100
AcDbLine
 10
37.88295534721231
 20
95.55685761914686
 30
0.0
 11
37.88295534721231
 21
116.8010228194247
 31
0.0
  0
LINE
  5
1FB3
330
1F99
100
AcDbEntity
  8
5
370
    -2
100
AcDbLine
 10
42.18295534721231
 20
95.55685761914686
 30
0.0
 11
42.18295534721231
 21
116.8010228194247
 31
0.0
  0
LINE
  5
1FB4
330
1F99
100
AcDbEntity
  8
5
370
    -2
100
AcDbLine
 10
48.18295534721231
 20
114.8010228194247
 30
0.0
 11
54.18295534721231
 21
114.8010228194247
 31
0.0
  0
LINE
  5
1FB5
330
1F99
100
AcDbEntity
  8
5
370
    -2
100
AcDbLine
 10
31.8829553472123
 20
114.8010228194247
 30
0.0
 11
11.09300585355113
 21
114.8010228194247
 31
0.0
  0
LINE
  5
1FB6
330
1F99
100
AcDbEntity
  8
5
370
    -2
100
AcDbLine
 10
42.18295534721231
 20
114.8010228194247
 30
0.0
 11
37.88295534721231
 21
114.8010228194247
 31
0.0
  0
SOLID
  5
1FB7
330
1F99
100
AcDbEntity
  8
5
100
AcDbTrace
 10
48.18295534721231
 20
115.8010228194247
 30
0.0
 11
48.18295534721231
 21
113.8010228194247
 31
0.0
 12
42.18295534721231
 22
114.8010228194247
 32
0.0
 13
42.18295534721231
 23
114.8010228194247
 33
0.0
  0
SOLID
  5
1FB8
330
1F99
100
AcDbEntity
  8
5
100
AcDbTrace
 10
31.8829553472123
 20
115.8010228194247
 30
0.0
 11
31.8829553472123
 21
113.8010228194247
 31
0.0
 12
37.88295534721231
 22
114.8010228194247
 32
0.0
 13
37.88295534721231
 23
114.8010228194247
 33
0.0
  0
MTEXT
  5
1FB9
330
1F99
100
AcDbEntity
  8
5
 62
     2
100
AcDbMText
 10
18.48798060038172
 20
120.3010228194247
 30
0.0
 40
7.0
 41
0.0
 46
0.0
 71
     5
 72
     1
  1
\A1;4.3
 73
     1
 44
1.0
  0
POINT
  5
1FBA
330
1F99
100
AcDbEntity
  8
DEFPOINTS
 62
     0
100
AcDbPoint
 10
37.88295534721231
 20
95.55685761914686
 30
0.0
  0
POINT
  5
1FBB
330
1F99
100
AcDbEntity
  8
DEFPOINTS
 62
     0
100
AcDbPoint
 10
42.18295534721231
 20
95.55685761914686
 30
0.0
  0
POINT
  5
1FBC
330
1F99
100
AcDbEntity
  8
DEFPOINTS
 62
     0
100
AcDbPoint
 10
42.18295534721231
 20
114.8010228194247
 30
0.0
  0
ENDBLK
  5
1FA6
330
1F99
100
AcDbEntity
  8
0
100
AcDbBlockEnd
  0
BLOCK
  5
1FD3
330
1FC7
100
AcDbEntity
  8
0
100
AcDbBlockBegin
  2
*D42
 70
     1
 10
0.0
 20
0.0
 30
0.0
  3
*D42
  1

  0
LINE
  5
1FD5
330
1FC7
100
AcDbEntity
  8
5
370
    -2
100
AcDbLine
 10
42.18295534721231
 20
-70.40968711763764
 30
0.0
 11
42.18295534721231
 21
-92.40968711763766
 31
0.0
  0
LINE
  5
1FD6
330
1FC7
100
AcDbEntity
  8
5
370
    -2
100
AcDbLine
 10
50.18295534721231
 20
-68.40968711763764
 30
0.0
 11
50.18295534721231
 21
-92.40968711763766
 31
0.0
  0
LINE
  5
1FD7
330
1FC7
100
AcDbEntity
  8
5
370
    -2
100
AcDbLine
 10
36.18295534721231
 20
-90.40968711763765
 30
0.0
 11
30.18295534721231
 21
-90.40968711763765
 31
0.0
  0
LINE
  5
1FD8
330
1FC7
100
AcDbEntity
  8
5
370
    -2
100
AcDbLine
 10
56.18295534721231
 20
-90.40968711763765
 30
0.0
 11
62.18295534721232
 21
-90.40968711763765
 31
0.0
  0
LINE
  5
1FD9
330
1FC7
100
AcDbEntity
  8
5
370
    -2
100
AcDbLine
 10
42.18295534721231
 20
-90.40968711763765
 30
0.0
 11
50.18295534721231
 21
-90.40968711763765
 31
0.0
  0
SOLID
  5
1FDA
330
1FC7
100
AcDbEntity
  8
5
100
AcDbTrace
 10
36.18295534721231
 20
-89.40968711763765
 30
0.0
 11
36.18295534721231
 21
-91.40968711763767
 31
0.0
 12
42.18295534721231
 22
-90.40968711763765
 32
0.0
 13
42.18295534721231
 23
-90.40968711763765
 33
0.0
  0
SOLID
  5
1FDB
330
1FC7
100
AcDbEntity
  8
5
100
AcDbTrace
 10
56.18295534721231
 20
-89.40968711763765
 30
0.0
 11
56.18295534721231
 21
-91.40968711763767
 31
0.0
 12
50.18295534721231
 22
-90.40968711763765
 32
0.0
 13
50.18295534721231
 23
-90.40968711763765
 33
0.0
  0
MTEXT
  5
1FDC
330
1FC7
100
AcDbEntity
  8
5
 62
     2
100
AcDbMText
 10
46.18295534721231
 20
-84.90968711763766
 30
0.0
 40
7.0
 41
0.0
 46
0.0
 71
     5
 72
     1
  1
\A1;8
 73
     1
 44
1.0
  0
POINT
  5
1FDD
330
1FC7
100
AcDbEntity
  8
DEFPOINTS
 62
     0
100
AcDbPoint
 10
42.18295534721231
 20
-70.40968711763764
 30
0.0
  0
POINT
  5
1FDE
330
1FC7
100
AcDbEntity
  8
DEFPOINTS
 62
     0
100
AcDbPoint
 10
50.18295534721231
 20
-68.40968711763764
 30
0.0
  0
POINT
  5
1FDF
330
1FC7
100
AcDbEntity
  8
DEFPOINTS
 62
     0
100
AcDbPoint
 10
50.18295534721231
 20
-90.40968711763765
 30
0.0
  0
ENDBLK
  5
1FD4
330
1FC7
100
AcDbEntity
  8
0
100
AcDbBlockEnd
  0
BLOCK
  5
1FEA
330
1FE1
100
AcDbEntity
  8
0
100
AcDbBlockBegin
  2
*D43
 70
     1
 10
0.0
 20
0.0
 30
0.0
  3
*D43
  1

  0
LINE
  5
1FFE
330
1FE1
100
AcDbEntity
  8
5
370
    -2
100
AcDbLine
 10
-24.11528097418305
 20
198.9557407199988
 30
0.0
 11
-54.81252506867125
 21
198.9557407199988
 31
0.0
  0
LINE
  5
1FFF
330
1FE1
100
AcDbEntity
  8
5
370
    -2
100
AcDbLine
 10
-54.81252506867125
 20
198.9557407199988
 30
0.0
 11
-69.41667849439936
 21
171.5339726289216
 31
0.0
  0
MTEXT
  5
2000
330
1FE1
100
AcDbEntity
  8
5
 62
     2
100
AcDbMText
 10
-37.23890302142716
 20
204.4557407199988
 30
0.0
 40
7.0
 41
0.0
 46
0.0
 71
     5
 72
     1
  1
\A1;Für M6
 73
     1
 44
1.0
  0
SOLID
  5
2001
330
1FE1
100
AcDbEntity
  8
5
100
AcDbTrace
 10
-70.29930913290595
 20
172.0040398113216
 30
0.0
 11
-68.53404785589278
 21
171.0639054465216
 31
0.0
 12
-72.23708158879929
 22
166.2381887978821
 32
0.0
 13
-72.23708158879929
 23
166.2381887978821
 33
0.0
  0
POINT
  5
2002
330
1FE1
100
AcDbEntity
  8
DEFPOINTS
 62
     0
100
AcDbPoint
 10
-72.23708158879929
 20
166.2381887978821
 30
0.0
  0
POINT
  5
2003
330
1FE1
100
AcDbEntity
  8
DEFPOINTS
 62
     0
100
AcDbPoint
 10
-75.05748468319921
 20
160.9424049668426
 30
0.0
  0
ENDBLK
  5
1FEB
330
1FE1
100
AcDbEntity
  8
0
100
AcDbBlockEnd
  0
ENDSEC
  0
SECTION
  2
ENTITIES
  0
INSERT
  5
1F0
330
18
100
AcDbEntity
  8
5
 62
     3
100
AcDbBlockReference
  2
BLK0
 10
0.0
 20
0.0
 30
0.0
  0
INSERT
  5
1F4
330
18
100
AcDbEntity
  8
5
 62
     3
100
AcDbBlockReference
  2
BLK4
 10
0.0
 20
0.0
 30
0.0
  0
INSERT
  5
1F7
330
18
100
AcDbEntity
  8
5
 62
     3
100
AcDbBlockReference
  2
BLK7
 10
0.0
 20
0.0
 30
0.0
  0
INSERT
  5
1F8
330
18
100
AcDbEntity
  8
5
 62
     3
100
AcDbBlockReference
  2
BLK8
 10
0.0
 20
0.0
 30
0.0
  0
INSERT
  5
1F9
330
18
100
AcDbEntity
  8
5
 62
     3
100
AcDbBlockReference
  2
BLK9
 10
0.0
 20
0.0
 30
0.0
  0
INSERT
  5
1FA
330
18
100
AcDbEntity
  8
5
 62
     3
100
AcDbBlockReference
  2
BLK10
 10
0.0
 20
0.0
 30
0.0
  0
INSERT
  5
1FC
330
18
100
AcDbEntity
  8
5
 62
     3
100
AcDbBlockReference
  2
BLK12
 10
0.0
 20
0.0
 30
0.0
  0
INSERT
  5
1FD
330
18
100
AcDbEntity
  8
5
 62
     3
100
AcDbBlockReference
  2
BLK13
 10
0.0
 20
0.0
 30
0.0
  0
INSERT
  5
1FE
330
18
100
AcDbEntity
  8
5
 62
     3
100
AcDbBlockReference
  2
BLK14
 10
0.0
 20
0.0
 30
0.0
  0
INSERT
  5
1FF
330
18
100
AcDbEntity
  8
5
 62
     3
100
AcDbBlockReference
  2
BLK15
 10
0.0
 20
0.0
 30
0.0
  0
LINE
  5
3B8
330
18
100
AcDbEntity
  8
1
100
AcDbLine
 10
42.18295534721231
 20
-70.40968711763764
 30
0.0
 11
42.18295534721231
 21
179.5902968823624
 31
0.0
  0
LINE
  5
3BD
330
18
100
AcDbEntity
  8
7
  6
GEN7A
100
AcDbLine
 10
33.34356596449197
 20
-54.69315838085316
 30
0.0
 11
57.79729199347696
 21
-54.69315838085316
 31
0.0
  0
LINE
  5
3BF
330
18
100
AcDbEntity
  8
7
  6
GEN7A
100
AcDbLine
 10
42.53166716700529
 20
6.30684761914685
 30
0.0
 11
58.21658190154884
 21
6.30684761914685
 31
0.0
  0
LINE
  5
3C3
330
18
100
AcDbEntity
  8
7
  6
GEN7A
100
AcDbLine
 10
56.34928121281166
 20
84.30685761914686
 30
0.0
 11
34.65685914533265
 21
84.30685761914686
 31
0.0
  0
LINE
  5
3C4
330
18
100
AcDbEntity
  8
3
100
AcDbLine
 10
47.8829553472123
 20
96.34029688236241
 30
0.0
 11
44.18295534721231
 21
96.34029688236237
 31
0.0
  0
LINE
  5
3C6
330
18
100
AcDbEntity
  8
7
  6
GEN7A
100
AcDbLine
 10
38.38707395347001
 20
163.3068576191468
 30
0.0
 11
57.4142917570847
 21
163.3068576191468
 31
0.0
  0
POLYLINE
  5
C13
330
18
100
AcDbEntity
  8
VIEW
100
AcDb2dPolyline
 66
     1
 10
0.0
 20
0.0
 30
0.0
 70
     1
1001
GENIUS_GENSCREG_13
1040
2.0
1040
1.0
1011
-136.526492096258
1021
-110.2453876760621
1031
0.0
1011
118.0198720278122
1021
217.8350392456118
1031
0.0
1001
GENIUS_GENODEF_13
1002
{
1000
HIER
1070
     0
1002
}
1002
{
1000
MANEDIT
1070
     0
1002
}
1002
{
1000
NOSEL
1070
     0
1002
}
1002
{
1000
BEHIND
1070
     0
1002
}
1002
{
1000
REACTOR
1002
}
1001
GENIUS_GENOBJ-N-SDF_13
1002
{
1000
OWNER
1000
GEN
1002
}
  0
VERTEX
  5
C14
330
C13
100
AcDbEntity
  8
VIEW
100
AcDbVertex
100
AcDb2dVertex
 10
-136.526492096258
 20
-110.2453876760621
 30
0.0
  0
VERTEX
  5
C15
330
C13
100
AcDbEntity
  8
VIEW
100
AcDbVertex
100
AcDb2dVertex
 10
118.0198720278122
 20
-110.2453876760621
 30
0.0
  0
VERTEX
  5
C16
330
C13
100
AcDbEntity
  8
VIEW
100
AcDbVertex
100
AcDb2dVertex
 10
118.0198720278122
 20
217.8350392456118
 30
0.0
  0
VERTEX
  5
C17
330
C13
100
AcDbEntity
  8
VIEW
100
AcDbVertex
100
AcDb2dVertex
 10
-136.526492096258
 20
217.8350392456118
 30
0.0
  0
SEQEND
  5
C18
330
C13
100
AcDbEntity
  8
VIEW
  0
POINT
  5
F26
330
18
100
AcDbEntity
  8
0
 60
     1
100
AcDbPoint
 10
0.0
 20
0.0
 30
0.0
  0
TEXT
  5
12F2
330
18
100
AcDbEntity
  8
6
100
AcDbText
 10
-10.27803710212788
 20
-117.7788525472789
 30
0.0
 40
7.0
  1
5363C
100
AcDbText
1001
GENIUS_AMGTXT_16
1040
3.5
1040
0.12
  0
LINE
  5
140D
330
18
100
AcDbEntity
  8
7A
100
AcDbLine
 10
57.4142917570847
 20
62.80685761914686
 30
0.0
 11
33.75155890272731
 21
62.80685761914686
 31
0.0
1001
GENIUS_GENODEF_13
1002
{
1000
HIER
1070
     0
1002
}
1002
{
1000
MANEDIT
1070
     0
1002
}
1002
{
1000
NOSEL
1070
     0
1002
}
1002
{
1000
BEHIND
1070
     0
1002
}
1002
{
1000
REACTOR
1002
}
1001
GENIUS_GENOBJ-N-CEN_13
1002
{
1000
OWNER
1000
GEN
1002
}
  0
ARC
  5
1787
330
18
100
AcDbEntity
  8
1
100
AcDbCircle
 10
-73.93820723979747
 20
-13.40970711763759
 30
0.0
 40
5.099999999999999
100
AcDbArc
 50
175.699999999999
 51
0.0000459999994186
  0
ARC
  5
1788
330
18
100
AcDbEntity
  8
1
100
AcDbCircle
 10
-73.93820723979747
 20
6.590296882362395
 30
0.0
 40
8.599999999999999
100
AcDbArc
 50
306.3718720000007
 51
233.6281740000011
  0
LINE
  5
1789
330
18
100
AcDbEntity
  8
1
100
AcDbLine
 10
-79.03820923979745
 20
-13.4097031176376
 30
0.0
 11
-79.03820923979745
 21
-0.3342791176376068
 31
0.0
  0
LINE
  5
178E
330
18
100
AcDbEntity
  8
1
100
AcDbLine
 10
-68.83820523979744
 20
-13.4097031176376
 30
0.0
 11
-68.83820523979744
 21
-0.3342791176376068
 31
0.0
  0
ARC
  5
1A29
330
18
100
AcDbEntity
  8
1
100
AcDbCircle
 10
-73.64728313599925
 20
162.0902968823624
 30
0.0
 40
17.5
100
AcDbArc
 50
0.0
 51
180.0
  0
ARC
  5
1A31
330
18
100
AcDbEntity
  8
1
100
AcDbCircle
 10
-73.64728313599929
 20
-52.90970311763761
 30
0.0
 40
17.5
100
AcDbArc
 50
180.0
 51
0.0
  0
LINE
  5
1A32
330
18
100
AcDbEntity
  8
1
100
AcDbLine
 10
-91.14728313599929
 20
-52.90970311763761
 30
0.0
 11
-91.14728313599925
 21
162.0902968823624
 31
0.0
  0
LINE
  5
1A33
330
18
100
AcDbEntity
  8
1
100
AcDbLine
 10
-56.14728313599925
 20
162.0902968823624
 30
0.0
 11
-56.14728313599929
 21
-52.90970311763761
 31
0.0
  0
LINE
  5
1A40
330
18
100
AcDbEntity
  8
7
100
AcDbLine
 10
-73.64728313599925
 20
184.5902968823624
 30
0.0
 11
-73.64728313599929
 21
-75.40970311763761
 31
0.0
1001
GENIUS_GENODEF_13
1002
{
1000
HIER
1070
     0
1002
}
1002
{
1000
MANEDIT
1070
     0
1002
}
1002
{
1000
NOSEL
1070
     0
1002
}
1002
{
1000
BEHIND
1070
     0
1002
}
1002
{
1000
OTHER
1070
     0
1002
}
1002
{
1000
REACTOR
1002
}
1001
GENIUS_GENOBJ-N-CEN_13
1002
{
1000
OWNER
1000
GEN
1002
}
  0
LINE
  5
1A4E
330
18
100
AcDbEntity
  8
7
100
AcDbLine
 10
-73.64728313599925
 20
162.0902968823624
 30
0.0
 11
-51.14728313599925
 21
162.0902968823624
 31
0.0
1001
GENIUS_GENOREF_13
1005
1A52
  0
LINE
  5
1A50
330
18
100
AcDbEntity
  8
7
100
AcDbLine
 10
-73.64728313599925
 20
162.0902968823624
 30
0.0
 11
-96.14728313599925
 21
162.0902968823624
 31
0.0
1001
GENIUS_GENOREF_13
1005
1A52
  0
POINT
  5
1A52
330
18
100
AcDbEntity
  8
0
 60
     1
100
AcDbPoint
 10
0.0
 20
0.0
 30
0.0
1001
GENIUS_GENOENT_13
1002
{
1000
MYREF
1005
1A52
1002
}
1002
{
1000
GRP
1005
0
1002
}
1001
GENIUS_GENOBJ-N-CRS_13
1002
{
1000
OWNER
1000
GEN
1002
}
1001
GENIUS_GENOLIS_13
1002
{
1000
ENT
1005
1A51
1005
1A50
1005
1A4F
1005
1A4E
1002
}
1001
GENIUS_GENODEF_13
1002
{
1000
HIER
1070
    10
1002
}
1002
{
1000
MANEDIT
1070
     1
1002
}
1002
{
1000
NOSEL
1070
     0
1002
}
1002
{
1000
BEHIND
1070
     0
1002
}
1002
{
1000
OTHER
1070
     0
1002
}
1002
{
1000
REACTOR
1002
}
  0
LINE
  5
1A53
330
18
100
AcDbEntity
  8
7
100
AcDbLine
 10
-73.64728313599929
 20
-52.90970311763761
 30
0.0
 11
-51.14728313599929
 21
-52.90970311763761
 31
0.0
1001
GENIUS_GENOREF_13
1005
1A55
  0
LINE
  5
1A54
330
18
100
AcDbEntity
  8
7
100
AcDbLine
 10
-73.64728313599929
 20
-52.90970311763761
 30
0.0
 11
-96.14728313599929
 21
-52.90970311763761
 31
0.0
1001
GENIUS_GENOREF_13
1005
1A55
  0
POINT
  5
1A55
330
18
100
AcDbEntity
  8
0
 60
     1
100
AcDbPoint
 10
-0.0000000000000284
 20
-200.0
 30
0.0
1001
GENIUS_GENOENT_13
1002
{
1000
MYREF
1005
1A55
1002
}
1002
{
1000
GRP
1005
0
1002
}
1001
GENIUS_GENOBJ-N-CRS_13
1002
{
1000
OWNER
1000
GEN
1002
}
1001
GENIUS_GENOLIS_13
1002
{
1000
ENT
1005
1A51
1005
1A54
1005
1A4F
1005
1A53
1002
}
1001
GENIUS_GENODEF_13
1002
{
1000
HIER
1070
    10
1002
}
1002
{
1000
MANEDIT
1070
     1
1002
}
1002
{
1000
NOSEL
1070
     0
1002
}
1002
{
1000
BEHIND
1070
     0
1002
}
1002
{
1000
OTHER
1070
     0
1002
}
1002
{
1000
REACTOR
1002
}
  0
DIMENSION
  5
1A65
330
18
100
AcDbEntity
  8
5
100
AcDbDimension
  2
*D31
 10
-136.2421260502876
 20
-70.40970311763759
 30
0.0
 11
-141.7428150266655
 21
54.59029688236238
 31
0.0
 70
    32
 71
     5
 42
250.0
 73
     0
 74
     0
 75
     0
  3
GEN-ISO
100
AcDbAlignedDimension
 13
-73.64728313599925
 23
179.5902968823624
 33
0.0
 14
-73.64728313599929
 24
-70.40970311763761
 34
0.0
 50
90.0
100
AcDbRotatedDimension
1001
ACAD
1000
DSTYLE
1002
{
1070
    40
1040
2.0
1002
}
  0
LINE
  5
1AAB
330
18
100
AcDbEntity
  8
7
100
AcDbLine
 10
-96.72913134359568
 20
84.5902968823624
 30
0.0
 11
-51.14728313599925
 21
84.5902968823624
 31
0.0
1001
GENIUS_GENOREF_13
1005
1A52
  0
DIMENSION
  5
1ACA
330
18
100
AcDbEntity
  8
5
100
AcDbDimension
  2
*D32
 10
-116.7291313435957
 20
84.5902968823624
 30
0.0
 11
-122.2291313435957
 21
132.0902968823624
 31
0.0
 70
    32
 71
     5
 42
95.0
 73
     0
 74
     0
 75
     0
  3
GEN-ISO
100
AcDbAlignedDimension
 13
-73.64728313599925
 23
179.5902968823624
 33
0.0
 14
-96.72913134359568
 24
84.5902968823624
 34
0.0
 50
90.0
100
AcDbRotatedDimension
1001
ACAD
1000
DSTYLE
1002
{
1070
    40
1040
2.0
1002
}
  0
LINE
  5
1AEC
330
18
100
AcDbEntity
  8
7
100
AcDbLine
 10
-96.72913134359568
 20
6.590296882362395
 30
0.0
 11
-51.14728313599925
 21
6.590296882362395
 31
0.0
1001
GENIUS_GENOREF_13
1005
1A52
  0
DIMENSION
  5
1AFC
330
18
100
AcDbEntity
  8
5
100
AcDbDimension
  2
*D33
 10
-116.7291313435957
 20
6.5902968823624
 30
0.0
 11
-122.2291313435957
 21
45.59029688236237
 31
0.0
 70
    32
  1
E
 71
     5
 42
78.0
 73
     0
 74
     0
 75
     0
  3
GEN-ISO
100
AcDbAlignedDimension
 13
-96.72913134359568
 23
84.5902968823624
 33
0.0
 14
-96.72913134359568
 24
6.590296882362395
 34
0.0
 50
90.00000000000003
100
AcDbRotatedDimension
1001
ACAD
1000
DSTYLE
1002
{
1070
    40
1040
2.0
1002
}
  0
LINE
  5
1B37
330
18
100
AcDbEntity
  8
7
100
AcDbLine
 10
-81.78236802629385
 20
163.5902968823624
 30
0.0
 11
-66.46482558114655
 21
163.5902968823624
 31
0.0
1001
GENIUS_GENOREF_13
1005
1A52
  0
CIRCLE
  5
1B38
330
18
100
AcDbEntity
  8
3
100
AcDbCircle
 10
-73.64728313599925
 20
163.5902968823624
 30
0.0
 40
3.0
  0
CIRCLE
  5
1B3B
330
18
100
AcDbEntity
  8
3
100
AcDbCircle
 10
-73.64728313599927
 20
63.0902968823624
 30
0.0
 40
3.0
  0
LINE
  5
1B3C
330
18
100
AcDbEntity
  8
7
100
AcDbLine
 10
-81.78236802629387
 20
63.0902968823624
 30
0.0
 11
-66.46482558114657
 21
63.0902968823624
 31
0.0
  0
LINE
  5
1B3D
330
18
100
AcDbEntity
  8
7
100
AcDbLine
 10
-81.78236802629388
 20
-54.4097031176376
 30
0.0
 11
-66.46482558114659
 21
-54.4097031176376
 31
0.0
  0
CIRCLE
  5
1B3E
330
18
100
AcDbEntity
  8
3
100
AcDbCircle
 10
-73.64728313599929
 20
-54.4097031176376
 30
0.0
 40
3.0
  0
CIRCLE
  5
1B42
330
18
100
AcDbEntity
  8
1
100
AcDbCircle
 10
-73.64728313599927
 20
84.5902968823624
 30
0.0
 40
10.5
  0
DIMENSION
  5
1B53
330
18
100
AcDbEntity
  8
5
100
AcDbDimension
  2
*D34
 10
-56.14728313599929
 20
-90.4097041276376
 30
0.0
 11
-73.64728313599929
 21
-84.90970412763759
 31
0.0
 70
    32
 71
     5
 42
35.0
 73
     0
 74
     0
 75
     0
  3
GEN-ISO
100
AcDbAlignedDimension
 13
-91.14728313599929
 23
-52.90970311763761
 33
0.0
 14
-56.14728313599929
 24
-52.90970311763761
 34
0.0
 50
0.0000000000001132
100
AcDbRotatedDimension
1001
ACAD
1000
DSTYLE
1002
{
1070
    40
1040
2.0
1002
}
  0
LINE
  5
1BF6
330
18
100
AcDbEntity
  8
3
100
AcDbLine
 10
47.88295534721232
 20
72.27341835593129
 30
0.0
 11
47.8829553472123
 21
96.34029688236241
 31
0.0
  0
DIMENSION
  5
1C33
330
18
100
AcDbEntity
  8
5
100
AcDbDimension
  2
*D35
 10
-31.14728313599927
 20
84.59029688236238
 30
0.0
 11
-36.64728313599928
 21
124.0902968823623
 31
0.0
 70
    32
 71
     5
 42
78.99999999999998
 73
     0
 74
     0
 75
     0
  3
GEN-ISO
100
AcDbAlignedDimension
 13
-66.46482558114655
 23
163.5902968823624
 33
0.0
 14
-51.14728313599925
 24
84.5902968823624
 34
0.0
 50
90.00000000000003
100
AcDbRotatedDimension
1001
ACAD
1000
DSTYLE
1002
{
1070
    40
1040
2.0
1002
}
  0
DIMENSION
  5
1C57
330
18
100
AcDbEntity
  8
5
100
AcDbDimension
  2
*D36
 10
-31.14728313599914
 20
163.5902968823623
 30
0.0
 11
-36.64728313599917
 21
171.5902968823623
 31
0.0
 70
    32
 71
     5
 42
16.0
 73
     0
 74
     0
 75
     0
  3
GEN-ISO
100
AcDbAlignedDimension
 13
-73.64728313599925
 23
179.5902968823624
 33
0.0
 14
-66.46482558114655
 24
163.5902968823624
 34
0.0
 50
90.0
100
AcDbRotatedDimension
1001
ACAD
1000
DSTYLE
1002
{
1070
    40
1040
2.0
1002
}
  0
DIMENSION
  5
1C7F
330
18
100
AcDbEntity
  8
5
100
AcDbDimension
  2
*D37
 10
-40.82141529428121
 20
63.09029688236239
 30
0.0
 11
-46.32210427065917
 21
73.84029688236238
 31
0.0
 70
    32
 71
     5
 42
21.5
 73
     0
 74
     0
 75
     0
  3
GEN-ISO
100
AcDbAlignedDimension
 13
-51.14728313599925
 23
84.5902968823624
 33
0.0
 14
-66.46482558114657
 24
63.0902968823624
 34
0.0
 50
90.00000000000003
100
AcDbRotatedDimension
1001
ACAD
1000
DSTYLE
1002
{
1070
    40
1040
2.0
1002
}
  0
DIMENSION
  5
1CA3
330
18
100
AcDbEntity
  8
5
100
AcDbDimension
  2
*D38
 10
-31.14728313599923
 20
-54.40970311763761
 30
0.0
 11
-36.64728313599922
 21
15.09029688236238
 31
0.0
 70
    32
 71
     5
 42
139.0
 73
     0
 74
     0
 75
     0
  3
GEN-ISO
100
AcDbAlignedDimension
 13
-51.14728313599925
 23
84.5902968823624
 33
0.0
 14
-66.46482558114659
 24
-54.4097031176376
 34
0.0
 50
90.00000000000003
100
AcDbRotatedDimension
1001
ACAD
1000
DSTYLE
1002
{
1070
    40
1040
2.0
1002
}
  0
DIMENSION
  5
1CC7
330
18
100
AcDbEntity
  8
5
100
AcDbDimension
  2
*D39
 10
-31.14728313599926
 20
-70.40970311763762
 30
0.0
 11
-36.64728313599925
 21
-62.40970311763762
 31
0.0
 70
    32
 71
     5
 42
16.0
 73
     0
 74
     0
 75
     0
  3
GEN-ISO
100
AcDbAlignedDimension
 13
-66.46482558114659
 23
-54.4097031176376
 33
0.0
 14
-73.64728313599925
 24
-70.40970311763761
 34
0.0
 50
90.00000000000003
100
AcDbRotatedDimension
1001
ACAD
1000
DSTYLE
1002
{
1070
    40
1040
2.0
1002
}
  0
LINE
  5
1D3C
330
18
100
AcDbEntity
  8
1
100
AcDbLine
 10
42.18295534721231
 20
179.5902968823624
 30
0.0
 11
48.18295534721231
 21
179.5902968823624
 31
0.0
  0
LINE
  5
1D43
330
18
100
AcDbEntity
  8
1
100
AcDbLine
 10
42.18295534721231
 20
-70.40968711763764
 30
0.0
 11
48.18295534721231
 21
-70.40968711763764
 31
0.0
  0
LINE
  5
1D4C
330
18
100
AcDbEntity
  8
1
100
AcDbLine
 10
50.18295534721231
 20
-68.40968711763764
 30
0.0
 11
50.18295534721231
 21
177.5902968823624
 31
0.0
  0
CIRCLE
  5
1D50
330
18
100
AcDbEntity
  8
3
100
AcDbCircle
 10
-73.64728313599925
 20
163.5902968823624
 30
0.0
 40
6.0
  0
CIRCLE
  5
1D51
330
18
100
AcDbEntity
  8
3
100
AcDbCircle
 10
-73.64728313599925
 20
63.0902968823624
 30
0.0
 40
6.0
  0
CIRCLE
  5
1D52
330
18
100
AcDbEntity
  8
3
100
AcDbCircle
 10
-73.64728313599925
 20
-54.4097031176376
 30
0.0
 40
6.0
  0
ARC
  5
1F3C
330
18
100
AcDbEntity
  8
1
100
AcDbCircle
 10
48.18295534721231
 20
177.5902968823624
 30
0.0
 40
2.0
100
AcDbArc
 50
0.0
 51
90.0
  0
ARC
  5
1F3D
330
18
100
AcDbEntity
  8
1
100
AcDbCircle
 10
48.18295534721231
 20
-68.40968711763764
 30
0.0
 40
2.0
100
AcDbArc
 50
270.0
 51
0.0
  0
LINE
  5
1F3E
330
18
100
AcDbEntity
  8
3
100
AcDbLine
 10
44.18295534721231
 20
-70.40968711763764
 30
0.0
 11
44.18295534721231
 21
179.5902968823624
 31
0.0
  0
LINE
  5
1F40
330
18
100
AcDbEntity
  8
3
  6
GEN7A
100
AcDbLine
 10
44.18295534721232
 20
95.55685761914686
 30
0.0
 11
37.88295534721231
 21
95.55685761914686
 31
0.0
  0
LINE
  5
1F41
330
18
100
AcDbEntity
  8
3
  6
GEN7A
100
AcDbLine
 10
44.1829553472123
 20
73.05685761914685
 30
0.0
 11
37.88295534721232
 21
73.05685761914685
 31
0.0
  0
LINE
  5
1F42
330
18
100
AcDbEntity
  8
3
100
AcDbLine
 10
37.88295534721232
 20
73.05685761914685
 30
0.0
 11
37.88295534721231
 21
95.55685761914686
 31
0.0
  0
LINE
  5
1F77
330
18
100
AcDbEntity
  8
3
100
AcDbLine
 10
47.88295534721232
 20
72.27341835593129
 30
0.0
 11
44.18295534721231
 21
72.27341835593134
 31
0.0
  0
DIMENSION
  5
1F78
330
18
100
AcDbEntity
  8
5
100
AcDbDimension
  2
*D40
 10
20.04516817697483
 20
73.05685761914687
 30
0.0
 11
20.04516817697481
 21
84.30685761914686
 31
0.0
 70
   160
  1
%%c<>
 71
     5
 42
22.5
 73
     0
 74
     0
 75
     0
  3
GEN-ISO$0
100
AcDbAlignedDimension
 13
37.88295534721231
 23
95.55685761914686
 33
0.0
 14
37.88295534721232
 24
73.05685761914685
 34
0.0
 50
90.0
100
AcDbRotatedDimension
1001
ACAD
1000
DSTYLE
1002
{
1070
    40
1040
2.0
1002
}
  0
DIMENSION
  5
1F98
330
18
100
AcDbEntity
  8
5
100
AcDbDimension
  2
*D41
 10
42.18295534721231
 20
114.8010228194247
 30
0.0
 11
18.48798060038172
 21
114.8010228194247
 31
0.0
 70
   160
 71
     5
 42
4.300000000000011
 73
     0
 74
     0
 75
     0
  3
GEN-ISO$0
100
AcDbAlignedDimension
 13
37.88295534721231
 23
95.55685761914686
 33
0.0
 14
42.18295534721231
 24
95.55685761914686
 34
0.0
100
AcDbRotatedDimension
1001
ACAD
1000
DSTYLE
1002
{
1070
    40
1040
2.0
1002
}
  0
DIMENSION
  5
1FC6
330
18
100
AcDbEntity
  8
5
100
AcDbDimension
  2
*D42
 10
50.18295534721231
 20
-90.40968711763765
 30
0.0
 11
46.18295534721231
 21
-84.90968711763766
 31
0.0
 70
    32
 71
     5
 42
8.0
 73
     0
 74
     0
 75
     0
  3
GEN-ISO$0
100
AcDbAlignedDimension
 13
42.18295534721231
 23
-70.40968711763764
 33
0.0
 14
50.18295534721231
 24
-68.40968711763764
 34
0.0
 50
0.0000000000001132
100
AcDbRotatedDimension
1001
ACAD
1000
DSTYLE
1002
{
1070
    40
1040
2.0
1002
}
  0
DIMENSION
  5
1FE0
330
18
100
AcDbEntity
  8
5
100
AcDbDimension
  2
*D43
 10
-75.05748468319921
 20
160.9424049668426
 30
0.0
 11
-37.23890302142716
 21
198.9557407199988
 31
0.0
 70
   163
  1
Für M<>
 71
     5
 42
6.0
 73
     0
 74
     0
 75
     0
  3
GEN-ISO$3
100
AcDbDiametricDimension
 15
-72.23708158879929
 25
166.2381887978821
 35
0.0
 40
0.0
1001
ACAD
1000
DSTYLE
1002
{
1070
    40
1040
2.0
1002
}
  0
VIEWPORT
  5
D80
330
15
100
AcDbEntity
 67
     1
  8
VIEW
100
AcDbViewport
 10
115.128639257581
 20
148.4957892534973
 30
0.0
 40
365.6089916981161
 41
285.231917647752
 68
     1
 69
     1
 12
115.128639257581
 22
148.4957892534973
 13
0.0
 23
0.0
 14
1.0
 24
1.0
 15
10.0
 25
10.0
 16
0.0
 26
0.0
 36
1.0
 17
0.0
 27
0.0
 37
0.0
 42
50.0
 43
0.0
 44
0.0
 45
285.231917647752
 50
0.0
 51
0.0
 72
   100
 90
    32800
  1

281
     0
 71
     1
 74
     0
110
0.0
120
0.0
130
0.0
111
1.0
121
0.0
131
0.0
112
0.0
122
1.0
132
0.0
 79
     0
146
0.0
170
     0
 61
     5
348
1CF9
292
     1
282
     1
141
0.0
142
0.0
 63
   250
421
  3355443
  0
ENDSEC
  0
SECTION
  2
OBJECTS
  0
DICTIONARY
  5
C
330
0
100
AcDbDictionary
281
     1
  3
ACAD_COLOR
350
1566
  3
ACAD_GROUP
350
D
  3
ACAD_LAYOUT
350
1115
  3
ACAD_MATERIAL
350
1565
  3
ACAD_MLEADERSTYLE
350
2056
  3
ACAD_MLINESTYLE
350
1B
  3
ACAD_PLOTSETTINGS
350
1116
  3
ACAD_PLOTSTYLENAME
350
1113
  3
ACAD_SCALELIST
350
2034
  3
ACAD_TABLESTYLE
350
1D04
  3
ACAD_VISUALSTYLE
350
1CF3
  3
ACDB_RECOMPOSE_DATA
350
20C0
  3
ACDBVARIABLEDICTIONARY
350
FDD
  3
ACMDICTIONARY
350
102C
  3
AMG
350
111E
  3
AMGSNAPSETTINGS
350
1196
  3
GENIUS
350
1075
  3
MAPISURF_MODULE
350
1144
  0
DICTIONARY
  5
2078
330
E
100
AcDbDictionary
280
     1
281
     1
  3
ADSK_XREC_LAYER_RECONCILED
360
2079
  0
DICTIONARY
  5
207A
330
1F
100
AcDbDictionary
280
     1
281
     1
  3
ADSK_XREC_LAYER_RECONCILED
360
207B
  0
DICTIONARY
  5
207C
330
2A
100
AcDbDictionary
280
     1
281
     1
  3
ADSK_XREC_LAYER_RECONCILED
360
207D
  0
DICTIONARY
  5
207E
330
2C
100
AcDbDictionary
280
     1
281
     1
  3
ADSK_XREC_LAYER_RECONCILED
360
207F
  0
DICTIONARY
  5
2080
330
2D
100
AcDbDictionary
280
     1
281
     1
  3
ADSK_XREC_LAYER_RECONCILED
360
2081
  0
DICTIONARY
  5
2082
330
2E
100
AcDbDictionary
280
     1
281
     1
  3
ADSK_XREC_LAYER_RECONCILED
360
2083
  0
DICTIONARY
  5
2084
330
2F
100
AcDbDictionary
280
     1
281
     1
  3
ADSK_XREC_LAYER_RECONCILED
360
2085
  0
DICTIONARY
  5
2086
330
30
100
AcDbDictionary
280
     1
281
     1
  3
ADSK_XREC_LAYER_RECONCILED
360
2087
  0
DICTIONARY
  5
2088
330
31
100
AcDbDictionary
280
     1
281
     1
  3
ADSK_XREC_LAYER_RECONCILED
360
2089
  0
DICTIONARY
  5
208A
330
32
100
AcDbDictionary
280
     1
281
     1
  3
ADSK_XREC_LAYER_RECONCILED
360
208B
  0
DICTIONARY
  5
208C
330
33
100
AcDbDictionary
280
     1
281
     1
  3
ADSK_XREC_LAYER_RECONCILED
360
208D
  0
DICTIONARY
  5
208E
330
34
100
AcDbDictionary
280
     1
281
     1
  3
ADSK_XREC_LAYER_RECONCILED
360
208F
  0
DICTIONARY
  5
2090
330
35
100
AcDbDictionary
280
     1
281
     1
  3
ADSK_XREC_LAYER_RECONCILED
360
2091
  0
DICTIONARY
  5
2092
330
36
100
AcDbDictionary
280
     1
281
     1
  3
ADSK_XREC_LAYER_RECONCILED
360
2093
  0
DICTIONARY
  5
2094
330
37
100
AcDbDictionary
280
     1
281
     1
  3
ADSK_XREC_LAYER_RECONCILED
360
2095
  0
DICTIONARY
  5
2096
330
38
100
AcDbDictionary
280
     1
281
     1
  3
ADSK_XREC_LAYER_RECONCILED
360
2097
  0
DICTIONARY
  5
2098
330
4D
100
AcDbDictionary
280
     1
281
     1
  3
ADSK_XREC_LAYER_RECONCILED
360
2099
  0
DICTIONARY
  5
209A
330
1D8
100
AcDbDictionary
280
     1
281
     1
  3
ADSK_XREC_LAYER_RECONCILED
360
209B
  0
DICTIONARY
  5
209C
330
1DD
100
AcDbDictionary
280
     1
281
     1
  3
ADSK_XREC_LAYER_RECONCILED
360
209D
  0
DICTIONARY
  5
209E
330
6CE
100
AcDbDictionary
280
     1
281
     1
  3
ADSK_XREC_LAYER_RECONCILED
360
209F
  0
DICTIONARY
  5
20A0
330
C12
100
AcDbDictionary
280
     1
281
     1
  3
ADSK_XREC_LAYER_RECONCILED
360
20A1
  0
DICTIONARY
  5
20A2
330
DE2
100
AcDbDictionary
280
     1
281
     1
  3
ADSK_XREC_LAYER_RECONCILED
360
20A3
  0
DICTIONARY
  5
20A4
330
DE3
100
AcDbDictionary
280
     1
281
     1
  3
ADSK_XREC_LAYER_RECONCILED
360
20A5
  0
DICTIONARY
  5
20A6
330
E0E
100
AcDbDictionary
280
     1
281
     1
  3
ADSK_XREC_LAYER_RECONCILED
360
20A7
  0
DICTIONARY
  5
20A8
330
E0F
100
AcDbDictionary
280
     1
281
     1
  3
ADSK_XREC_LAYER_RECONCILED
360
20A9
  0
DICTIONARY
  5
20AA
330
E10
100
AcDbDictionary
280
     1
281
     1
  3
ADSK_XREC_LAYER_RECONCILED
360
20AB
  0
DICTIONARY
  5
20AC
330
E11
100
AcDbDictionary
280
     1
281
     1
  3
ADSK_XREC_LAYER_RECONCILED
360
20AD
  0
DICTIONARY
  5
20AE
330
E12
100
AcDbDictionary
280
     1
281
     1
  3
ADSK_XREC_LAYER_RECONCILED
360
20AF
  0
DICTIONARY
  5
20B0
330
E13
100
AcDbDictionary
280
     1
281
     1
  3
ADSK_XREC_LAYER_RECONCILED
360
20B1
  0
DICTIONARY
  5
20B2
330
E14
100
AcDbDictionary
280
     1
281
     1
  3
ADSK_XREC_LAYER_RECONCILED
360
20B3
  0
DICTIONARY
  5
20B4
330
E15
100
AcDbDictionary
280
     1
281
     1
  3
ADSK_XREC_LAYER_RECONCILED
360
20B5
  0
DICTIONARY
  5
20B6
330
E16
100
AcDbDictionary
280
     1
281
     1
  3
ADSK_XREC_LAYER_RECONCILED
360
20B7
  0
DICTIONARY
  5
20B8
330
11EA
100
AcDbDictionary
280
     1
281
     1
  3
ADSK_XREC_LAYER_RECONCILED
360
20B9
  0
DICTIONARY
  5
20BA
330
11EB
100
AcDbDictionary
280
     1
281
     1
  3
ADSK_XREC_LAYER_RECONCILED
360
20BB
  0
DICTIONARY
  5
20BC
330
1779
100
AcDbDictionary
280
     1
281
     1
  3
ADSK_XREC_LAYER_RECONCILED
360
20BD
  0
DICTIONARY
  5
10D7
330
18
100
AcDbDictionary
280
     1
281
     1
  3
ACAD_INDEX
360
10D8
  3
ACAD_SORTENTS
360
1D40
  0
DICTIONARY
  5
1566
102
{ACAD_REACTORS
330
C
102
}
330
C
100
AcDbDictionary
281
     1
  0
DICTIONARY
  5
D
102
{ACAD_REACTORS
330
C
102
}
330
C
100
AcDbDictionary
281
     1
  0
DICTIONARY
  5
1115
102
{ACAD_REACTORS
330
C
102
}
330
C
100
AcDbDictionary
281
     1
  3
Layout1
350
1118
  3
Model
350
1117
  0
DICTIONARY
  5
1565
102
{ACAD_REACTORS
330
C
102
}
330
C
100
AcDbDictionary
281
     1
  3
ByBlock
350
1CF1
  3
ByLayer
350
1CF0
  3
Global
350
1CF2
  0
DICTIONARY
  5
2056
102
{ACAD_REACTORS
330
C
102
}
330
C
100
AcDbDictionary
281
     1
  3
Standard
350
2057
  0
DICTIONARY
  5
1B
102
{ACAD_REACTORS
330
C
102
}
330
C
100
AcDbDictionary
281
     1
  3
STANDARD
350
1C
  0
DICTIONARY
  5
1116
102
{ACAD_REACTORS
330
C
102
}
330
C
100
AcDbDictionary
281
     1
  0
ACDBDICTIONARYWDFLT
  5
1113
102
{ACAD_REACTORS
330
C
102
}
330
C
100
AcDbDictionary
281
     1
  3
Normal
350
1114
100
AcDbDictionaryWithDefault
340
1114
  0
DICTIONARY
  5
2034
102
{ACAD_REACTORS
330
C
102
}
330
C
100
AcDbDictionary
281
     1
  3
A0
350
2035
  3
A1
350
2036
  3
A2
350
2037
  3
A3
350
2038
  3
A4
350
2039
  3
A5
350
203A
  3
A6
350
203B
  3
A7
350
203C
  3
A8
350
203D
  3
A9
350
203E
  3
B0
350
203F
  3
B1
350
2040
  3
B2
350
2041
  3
B3
350
2042
  3
B4
350
2043
  3
B5
350
2044
  3
B6
350
2045
  3
B7
350
2046
  3
B8
350
2047
  3
B9
350
2048
  3
C0
350
2049
  3
C1
350
204A
  3
C2
350
204B
  3
C3
350
204C
  3
C4
350
204D
  3
C5
350
204E
  3
C6
350
204F
  3
C7
350
2050
  3
C8
350
2051
  3
C9
350
2052
  3
D0
350
2053
  3
D1
350
2054
  3
D2
350
2055
  0
DICTIONARY
  5
1D04
102
{ACAD_REACTORS
330
C
102
}
330
C
100
AcDbDictionary
281
     1
  3
Standard
350
1D05
  0
DICTIONARY
  5
1CF3
102
{ACAD_REACTORS
330
C
102
}
330
C
100
AcDbDictionary
281
     1
  3
2dWireframe
350
1CF9
  3
3D Hidden
350
1CFB
  3
3dWireframe
350
1CFA
  3
Basic
350
1CF8
  3
Brighten
350
1CFF
  3
ColorChange
350
1D03
  3
Conceptual
350
1CFC
  3
Dim
350
1CFE
  3
Facepattern
350
1D02
  3
Flat
350
1CF4
  3
FlatWithEdges
350
1CF5
  3
Gouraud
350
1CF6
  3
GouraudWithEdges
350
1CF7
  3
Linepattern
350
1D01
  3
Realistic
350
1CFD
  3
Thicken
350
1D00
  0
XRECORD
  5
20C0
102
{ACAD_REACTORS
330
C
102
}
330
C
100
AcDbXrecord
280
     1
 90
        1
330
1D05
  0
DICTIONARY
  5
FDD
102
{ACAD_REACTORS
330
C
102
}
330
C
100
AcDbDictionary
281
     1
  3
CANNOSCALE
350
20C3
  3
CMLEADERSTYLE
350
20C1
  3
CTABLESTYLE
350
1E14
  3
INDEXCTL
350
FDE
  3
LAYEREVAL
350
2116
  3
LAYERNOTIFY
350
2117
  3
LIGHTINGUNITS
350
20C4
  3
MSLTSCALE
350
20C2
  0
DICTIONARY
  5
102C
102
{ACAD_REACTORS
330
C
102
}
330
C
100
AcDbDictionary
281
     1
  3
ACMSTDDICTIONARY
350
106D
  3
AMDTSECTSYM_ARROWCOLOR
350
1D22
  0
DICTIONARY
  5
111E
102
{ACAD_REACTORS
330
C
102
}
330
C
100
AcDbDictionary
281
     1
  3
AcMgSettings
350
111F
  3
AMGLAYCFG
350
1160
  0
DICTIONARY
  5
1196
102
{ACAD_REACTORS
330
C
102
}
330
C
100
AcDbDictionary
281
     1
  3
DIMENSION
350
119B
  3
FEA
350
119A
  3
HATCH (1)
350
1197
  3
HATCH (2)
350
1198
  3
SIMPLE WELD
350
119C
  3
SYMBOLS
350
1199
  0
DICTIONARY
  5
1075
102
{ACAD_REACTORS
330
C
102
}
330
C
100
AcDbDictionary
281
     1
  3
COMPDEFATTR_CUSTOM
350
1076
  0
XRECORD
  5
2079
102
{ACAD_REACTORS
330
2078
102
}
330
2078
100
AcDbXrecord
280
     1
290
     1
  0
XRECORD
  5
207B
102
{ACAD_REACTORS
330
207A
102
}
330
207A
100
AcDbXrecord
280
     1
290
     1
  0
XRECORD
  5
207D
102
{ACAD_REACTORS
330
207C
102
}
330
207C
100
AcDbXrecord
280
     1
290
     1
  0
XRECORD
  5
207F
102
{ACAD_REACTORS
330
207E
102
}
330
207E
100
AcDbXrecord
280
     1
290
     1
  0
XRECORD
  5
2081
102
{ACAD_REACTORS
330
2080
102
}
330
2080
100
AcDbXrecord
280
     1
290
     1
  0
XRECORD
  5
2083
102
{ACAD_REACTORS
330
2082
102
}
330
2082
100
AcDbXrecord
280
     1
290
     1
  0
XRECORD
  5
2085
102
{ACAD_REACTORS
330
2084
102
}
330
2084
100
AcDbXrecord
280
     1
290
     1
  0
XRECORD
  5
2087
102
{ACAD_REACTORS
330
2086
102
}
330
2086
100
AcDbXrecord
280
     1
290
     1
  0
XRECORD
  5
2089
102
{ACAD_REACTORS
330
2088
102
}
330
2088
100
AcDbXrecord
280
     1
290
     1
  0
XRECORD
  5
208B
102
{ACAD_REACTORS
330
208A
102
}
330
208A
100
AcDbXrecord
280
     1
290
     1
  0
XRECORD
  5
208D
102
{ACAD_REACTORS
330
208C
102
}
330
208C
100
AcDbXrecord
280
     1
290
     1
  0
XRECORD
  5
208F
102
{ACAD_REACTORS
330
208E
102
}
330
208E
100
AcDbXrecord
280
     1
290
     1
  0
XRECORD
  5
2091
102
{ACAD_REACTORS
330
2090
102
}
330
2090
100
AcDbXrecord
280
     1
290
     1
  0
XRECORD
  5
2093
102
{ACAD_REACTORS
330
2092
102
}
330
2092
100
AcDbXrecord
280
     1
290
     1
  0
XRECORD
  5
2095
102
{ACAD_REACTORS
330
2094
102
}
330
2094
100
AcDbXrecord
280
     1
290
     1
  0
XRECORD
  5
2097
102
{ACAD_REACTORS
330
2096
102
}
330
2096
100
AcDbXrecord
280
     1
290
     1
  0
XRECORD
  5
2099
102
{ACAD_REACTORS
330
2098
102
}
330
2098
100
AcDbXrecord
280
     1
290
     1
  0
XRECORD
  5
209B
102
{ACAD_REACTORS
330
209A
102
}
330
209A
100
AcDbXrecord
280
     1
290
     1
  0
XRECORD
  5
209D
102
{ACAD_REACTORS
330
209C
102
}
330
209C
100
AcDbXrecord
280
     1
290
     1
  0
XRECORD
  5
209F
102
{ACAD_REACTORS
330
209E
102
}
330
209E
100
AcDbXrecord
280
     1
290
     1
  0
XRECORD
  5
20A1
102
{ACAD_REACTORS
330
20A0
102
}
330
20A0
100
AcDbXrecord
280
     1
290
     1
  0
XRECORD
  5
20A3
102
{ACAD_REACTORS
330
20A2
102
}
330
20A2
100
AcDbXrecord
280
     1
290
     1
  0
XRECORD
  5
20A5
102
{ACAD_REACTORS
330
20A4
102
}
330
20A4
100
AcDbXrecord
280
     1
290
     1
  0
XRECORD
  5
20A7
102
{ACAD_REACTORS
330
20A6
102
}
330
20A6
100
AcDbXrecord
280
     1
290
     1
  0
XRECORD
  5
20A9
102
{ACAD_REACTORS
330
20A8
102
}
330
20A8
100
AcDbXrecord
280
     1
290
     1
  0
XRECORD
  5
20AB
102
{ACAD_REACTORS
330
20AA
102
}
330
20AA
100
AcDbXrecord
280
     1
290
     1
  0
XRECORD
  5
20AD
102
{ACAD_REACTORS
330
20AC
102
}
330
20AC
100
AcDbXrecord
280
     1
290
     1
  0
XRECORD
  5
20AF
102
{ACAD_REACTORS
330
20AE
102
}
330
20AE
100
AcDbXrecord
280
     1
290
     1
  0
XRECORD
  5
20B1
102
{ACAD_REACTORS
330
20B0
102
}
330
20B0
100
AcDbXrecord
280
     1
290
     1
  0
XRECORD
  5
20B3
102
{ACAD_REACTORS
330
20B2
102
}
330
20B2
100
AcDbXrecord
280
     1
290
     1
  0
XRECORD
  5
20B5
102
{ACAD_REACTORS
330
20B4
102
}
330
20B4
100
AcDbXrecord
280
     1
290
     1
  0
XRECORD
  5
20B7
102
{ACAD_REACTORS
330
20B6
102
}
330
20B6
100
AcDbXrecord
280
     1
290
     1
  0
XRECORD
  5
20B9
102
{ACAD_REACTORS
330
20B8
102
}
330
20B8
100
AcDbXrecord
280
     1
290
     1
  0
XRECORD
  5
20BB
102
{ACAD_REACTORS
330
20BA
102
}
330
20BA
100
AcDbXrecord
280
     1
290
     1
  0
XRECORD
  5
20BD
102
{ACAD_REACTORS
330
20BC
102
}
330
20BC
100
AcDbXrecord
280
     1
290
     1
  0
DICTIONARY
  5
10D8
102
{ACAD_REACTORS
330
10D7
102
}
330
10D7
100
AcDbDictionary
281
     1
  3
*A1
350
10D9
  0
SORTENTSTABLE
  5
1D40
102
{ACAD_REACTORS
330
10D7
102
}
330
10D7
100
AcDbSortentsTable
330
18
331
1788
  5
1B39
331
1D50
  5
1F40
331
1F40
  5
1A31
331
1D51
  5
1F41
331
1F41
  5
1A29
331
1ACA
  5
1D3C
331
1D52
  5
1F42
331
1F42
  5
1D5E
331
C13
  5
1A65
331
1D3C
  5
1F3E
331
1C7F
  5
1F3B
331
3B8
  5
3B8
331
1D43
  5
1F3F
331
3BD
  5
1789
331
1BF6
  5
1D55
331
3BF
  5
178E
331
1F0
  5
1F0
331
1A50
  5
1BF6
331
12F2
  5
1AFC
331
1C33
  5
1D5F
331
1F4
  5
1F4
331
1A54
  5
1C57
331
1D4C
  5
140D
331
1B37
  5
1D44
331
1B38
  5
1D45
331
1A31
  5
1B3D
331
1FA
  5
1FA
331
1A32
  5
1B3E
331
1A33
  5
1B3F
331
1AAB
  5
1CC7
331
1B3B
  5
1D47
331
1F3C
  5
1788
331
140D
  5
1B37
331
1A65
  5
1C7F
331
1B3D
  5
1D49
331
1F3D
  5
1787
331
1F3E
  5
3BF
331
1C57
  5
1D60
331
1FF
  5
1FF
331
1FE
  5
1FE
331
1B3E
  5
1D4A
331
1FD
  5
1FD
331
1FC
  5
1FC
331
1B3C
  5
1D48
331
1CA3
  5
1F3C
331
1F9
  5
1F9
331
1F8
  5
1F8
331
1F7
  5
1F7
331
1787
  5
1B38
331
3C6
  5
1A53
331
3C4
  5
1A32
331
3C3
  5
18AC
331
1A53
  5
1C33
331
1A29
  5
1B3C
331
F26
  5
1ACA
331
1A4E
  5
1B43
331
1AFC
  5
1D43
331
1B53
  5
1D54
331
1CC7
  5
1F3D
331
178E
  5
1B3B
331
1AEC
  5
1D3D
331
1B42
  5
1D4C
331
1789
  5
1B3A
331
1A40
  5
1B42
  0
LAYOUT
  5
1118
102
{ACAD_REACTORS
330
1115
102
}
330
1115
100
AcDbPlotSettings
  1

  2
\\GLUTZCH_PDC\HP LaserJet 5000 N PCL 6
  4
A4
  6

 40
3.174999952316284
 41
3.174999952316284
 42
3.175003051757812
 43
3.17498779296875
 44
210.0
 45
297.0
 46
0.0
 47
0.0
 48
0.0
 49
0.0
140
0.0
141
0.0
142
1.0
143
1.391071103106474
 70
   688
 72
     1
 73
     1
 74
     1
  7
LAA4.ctb
 75
     0
147
0.7188705147902555
 76
     0
 77
     2
 78
   300
148
-20.11228992477089
149
-6.717224804122565
100
AcDbLayout
  1
Layout1
 70
     1
 71
     1
 10
15.69565615325626
 20
2.300574118090947
 11
428.8437737758792
 21
294.4255057704506
 12
0.0
 22
0.0
 32
0.0
 14
20.12
 24
6.727344797985164
 34
0.0
 15
203.0
 25
290.0
 35
0.0
146
0.0
 13
0.0
 23
0.0
 33
0.0
 16
1.0
 26
0.0
 36
0.0
 17
0.0
 27
1.0
 37
0.0
 76
     0
330
15
331
D80
  0
LAYOUT
  5
1117
102
{ACAD_REACTORS
330
1115
102
}
330
1115
100
AcDbPlotSettings
  1

  2
HP Laserjet 5000 N PCL 6.pc3
  4
A4
  6

 40
6.011333465576171
 41
4.233341693878173
 42
6.011322021484375
 43
4.23333740234375
 44
209.9733276367187
 45
296.9259948730469
 46
57.3040870564281
 47
68.41254947217084
 48
0.0
 49
0.0
140
0.0
141
0.0
142
1.0
143
2.0
 70
 11956
 72
     1
 73
     0
 74
     1
  7
v:\vorlagen\LAA4.ctb
 75
    17
147
0.5
 76
     1
 77
     2
 78
   300
148
108.4648209897918
149
117.4400602111468
100
AcDbLayout
  1
Model
 70
     1
 71
     0
 10
0.0
 20
0.0
 11
12.0
 21
9.0
 12
0.0
 22
0.0
 32
0.0
 14
0.0
 24
0.0
 34
0.0
 15
0.0
 25
0.0
 35
0.0
146
0.0
 13
0.0
 23
0.0
 33
0.0
 16
1.0
 26
0.0
 36
0.0
 17
0.0
 27
1.0
 37
0.0
 76
     0
330
18
331
1CEE
  0
MATERIAL
  5
1CF1
102
{ACAD_REACTORS
330
1565
102
}
330
1565
100
AcDbMaterial
  1
ByBlock
 73
     1
 78
     1
172
     1
176
     1
270
     1
274
     1
 94
       63
  0
MATERIAL
  5
1CF0
102
{ACAD_REACTORS
330
1565
102
}
330
1565
100
AcDbMaterial
  1
ByLayer
 73
     1
 78
     1
172
     1
176
     1
270
     1
274
     1
 94
       63
  0
MATERIAL
  5
1CF2
102
{ACAD_REACTORS
330
1565
102
}
330
1565
100
AcDbMaterial
  1
Global
 73
     1
 78
     1
172
     1
176
     1
270
     1
274
     1
 94
       63
  0
MLEADERSTYLE
  5
2057
102
{ACAD_REACTORS
330
2056
102
}
330
2056
100
AcDbMLeaderStyle
170
     2
171
     1
172
     0
 90
        2
 40
0.0
 41
0.0
173
     1
 91
-1056964608
340
12
 92
       -2
290
     1
 42
2.0
291
     1
 43
0.36
  3
Standard
 44
4.0
300

342
F
174
     1
178
     6
175
     1
176
     0
 93
-1056964608
 45
4.0
292
     0
297
     0
 46
4.0
 94
-1056964608
 47
1.0
 49
1.0
140
1.0
293
     1
141
0.0
294
     1
177
     0
142
1.0
295
     0
296
     0
143
0.125
1001
ACAD_MLEADERVER
1070
     2
  0
MLINESTYLE
  5
1C
102
{ACAD_REACTORS
330
1B
102
}
330
1B
100
AcDbMlineStyle
  2
STANDARD
 70
     0
  3

 62
   256
 51
90.0
 52
90.0
 71
     2
 49
0.5
 62
   256
  6
BYLAYER
 49
-0.5
 62
   256
  6
BYLAYER
  0
ACDBPLACEHOLDER
  5
1114
102
{ACAD_REACTORS
330
1113
102
}
330
1113
  0
SCALE
  5
2035
102
{ACAD_REACTORS
330
2034
102
}
330
2034
100
AcDbScale
 70
     0
300
1:1
140
1.0
141
1.0
290
     1
  0
SCALE
  5
2036
102
{ACAD_REACTORS
330
2034
102
}
330
2034
100
AcDbScale
 70
     0
300
1:2
140
1.0
141
2.0
290
     0
  0
SCALE
  5
2037
102
{ACAD_REACTORS
330
2034
102
}
330
2034
100
AcDbScale
 70
     0
300
1:4
140
1.0
141
4.0
290
     0
  0
SCALE
  5
2038
102
{ACAD_REACTORS
330
2034
102
}
330
2034
100
AcDbScale
 70
     0
300
1:5
140
1.0
141
5.0
290
     0
  0
SCALE
  5
2039
102
{ACAD_REACTORS
330
2034
102
}
330
2034
100
AcDbScale
 70
     0
300
1:8
140
1.0
141
8.0
290
     0
  0
SCALE
  5
203A
102
{ACAD_REACTORS
330
2034
102
}
330
2034
100
AcDbScale
 70
     0
300
1:10
140
1.0
141
10.0
290
     0
  0
SCALE
  5
203B
102
{ACAD_REACTORS
330
2034
102
}
330
2034
100
AcDbScale
 70
     0
300
1:16
140
1.0
141
16.0
290
     0
  0
SCALE
  5
203C
102
{ACAD_REACTORS
330
2034
102
}
330
2034
100
AcDbScale
 70
     0
300
1:20
140
1.0
141
20.0
290
     0
  0
SCALE
  5
203D
102
{ACAD_REACTORS
330
2034
102
}
330
2034
100
AcDbScale
 70
     0
300
1:30
140
1.0
141
30.0
290
     0
  0
SCALE
  5
203E
102
{ACAD_REACTORS
330
2034
102
}
330
2034
100
AcDbScale
 70
     0
300
1:40
140
1.0
141
40.0
290
     0
  0
SCALE
  5
203F
102
{ACAD_REACTORS
330
2034
102
}
330
2034
100
AcDbScale
 70
     0
300
1:50
140
1.0
141
50.0
290
     0
  0
SCALE
  5
2040
102
{ACAD_REACTORS
330
2034
102
}
330
2034
100
AcDbScale
 70
     0
300
1:100
140
1.0
141
100.0
290
     0
  0
SCALE
  5
2041
102
{ACAD_REACTORS
330
2034
102
}
330
2034
100
AcDbScale
 70
     0
300
2:1
140
2.0
141
1.0
290
     0
  0
SCALE
  5
2042
102
{ACAD_REACTORS
330
2034
102
}
330
2034
100
AcDbScale
 70
     0
300
4:1
140
4.0
141
1.0
290
     0
  0
SCALE
  5
2043
102
{ACAD_REACTORS
330
2034
102
}
330
2034
100
AcDbScale
 70
     0
300
8:1
140
8.0
141
1.0
290
     0
  0
SCALE
  5
2044
102
{ACAD_REACTORS
330
2034
102
}
330
2034
100
AcDbScale
 70
     0
300
10:1
140
10.0
141
1.0
290
     0
  0
SCALE
  5
2045
102
{ACAD_REACTORS
330
2034
102
}
330
2034
100
AcDbScale
 70
     0
300
100:1
140
100.0
141
1.0
290
     0
  0
SCALE
  5
2046
102
{ACAD_REACTORS
330
2034
102
}
330
2034
100
AcDbScale
 70
     0
300
1/128" = 1'-0"
140
0.0078125
141
12.0
290
     0
  0
SCALE
  5
2047
102
{ACAD_REACTORS
330
2034
102
}
330
2034
100
AcDbScale
 70
     0
300
1/64" = 1'-0"
140
0.015625
141
12.0
290
     0
  0
SCALE
  5
2048
102
{ACAD_REACTORS
330
2034
102
}
330
2034
100
AcDbScale
 70
     0
300
1/32" = 1'-0"
140
0.03125
141
12.0
290
     0
  0
SCALE
  5
2049
102
{ACAD_REACTORS
330
2034
102
}
330
2034
100
AcDbScale
 70
     0
300
1/16" = 1'-0"
140
0.0625
141
12.0
290
     0
  0
SCALE
  5
204A
102
{ACAD_REACTORS
330
2034
102
}
330
2034
100
AcDbScale
 70
     0
300
3/32" = 1'-0"
140
0.09375
141
12.0
290
     0
  0
SCALE
  5
204B
102
{ACAD_REACTORS
330
2034
102
}
330
2034
100
AcDbScale
 70
     0
300
1/8" = 1'-0"
140
0.125
141
12.0
290
     0
  0
SCALE
  5
204C
102
{ACAD_REACTORS
330
2034
102
}
330
2034
100
AcDbScale
 70
     0
300
3/16" = 1'-0"
140
0.1875
141
12.0
290
     0
  0
SCALE
  5
204D
102
{ACAD_REACTORS
330
2034
102
}
330
2034
100
AcDbScale
 70
     0
300
1/4" = 1'-0"
140
0.25
141
12.0
290
     0
  0
SCALE
  5
204E
102
{ACAD_REACTORS
330
2034
102
}
330
2034
100
AcDbScale
 70
     0
300
3/8" = 1'-0"
140
0.375
141
12.0
290
     0
  0
SCALE
  5
204F
102
{ACAD_REACTORS
330
2034
102
}
330
2034
100
AcDbScale
 70
     0
300
1/2" = 1'-0"
140
0.5
141
12.0
290
     0
  0
SCALE
  5
2050
102
{ACAD_REACTORS
330
2034
102
}
330
2034
100
AcDbScale
 70
     0
300
3/4" = 1'-0"
140
0.75
141
12.0
290
     0
  0
SCALE
  5
2051
102
{ACAD_REACTORS
330
2034
102
}
330
2034
100
AcDbScale
 70
     0
300
1" = 1'-0"
140
1.0
141
12.0
290
     0
  0
SCALE
  5
2052
102
{ACAD_REACTORS
330
2034
102
}
330
2034
100
AcDbScale
 70
     0
300
1-1/2" = 1'-0"
140
1.5
141
12.0
290
     0
  0
SCALE
  5
2053
102
{ACAD_REACTORS
330
2034
102
}
330
2034
100
AcDbScale
 70
     0
300
3" = 1'-0"
140
3.0
141
12.0
290
     0
  0
SCALE
  5
2054
102
{ACAD_REACTORS
330
2034
102
}
330
2034
100
AcDbScale
 70
     0
300
6" = 1'-0"
140
6.0
141
12.0
290
     0
  0
SCALE
  5
2055
102
{ACAD_REACTORS
330
2034
102
}
330
2034
100
AcDbScale
 70
     0
300
1'-0" = 1'-0"
140
12.0
141
12.0
290
     0
  0
TABLESTYLE
  5
1D05
102
{ACAD_XDICTIONARY
360
20BE
102
}
102
{ACAD_REACTORS
330
1D04
102
}
330
1D04
100
AcDbTableStyle
  3
Standard
 70
     0
 71
     0
 40
1.5
 41
1.5
280
     0
281
     0
  7
STANDARD
140
4.5
170
     2
 62
     0
 63
     7
283
     0
 90
      512
 91
        0
  1

274
    -2
284
     1
 64
     0
275
    -2
285
     1
 65
     0
276
    -2
286
     1
 66
     0
277
    -2
287
     1
 67
     0
278
    -2
288
     1
 68
     0
279
    -2
289
     1
 69
     0
  7
STANDARD
140
6.0
170
     5
 62
     0
 63
     7
283
     0
 90
      512
 91
        0
  1

274
    -2
284
     1
 64
     0
275
    -2
285
     1
 65
     0
276
    -2
286
     1
 66
     0
277
    -2
287
     1
 67
     0
278
    -2
288
     1
 68
     0
279
    -2
289
     1
 69
     0
  7
STANDARD
140
4.5
170
     5
 62
     0
 63
     7
283
     0
 90
      512
 91
        0
  1

274
    -2
284
     1
 64
     0
275
    -2
285
     1
 65
     0
276
    -2
286
     1
 66
     0
277
    -2
287
     1
 67
     0
278
    -2
288
     1
 68
     0
279
    -2
289
     1
 69
     0
  0
VISUALSTYLE
  5
1CF9
102
{ACAD_REACTORS
330
1CF3
102
}
330
1CF3
100
AcDbVisualStyle
  2
2dWireframe
 70
     4
 71
     0
 72
     2
 73
     0
 90
        0
 40
-0.6
 41
-30.0
 62
     5
 63
     7
421
 16777215
 74
     1
 91
        4
 64
     7
 65
   257
 75
     1
175
     1
 42
1.0
 92
        0
 66
   257
 43
1.0
 76
     1
 77
     6
 78
     2
 67
     7
 79
     5
170
     0
171
     0
290
     0
174
     0
 93
        1
 44
0.0
173
     0
291
     0
 45
0.0
  0
VISUALSTYLE
  5
1CFB
102
{ACAD_REACTORS
330
1CF3
102
}
330
1CF3
100
AcDbVisualStyle
  2
3D Hidden
 70
     6
 71
     1
 72
     2
 73
     2
 90
        0
 40
-0.6
 41
-30.0
 62
     5
 63
     7
421
 16777215
 74
     2
 91
        2
 64
     7
 65
   257
 75
     2
175
     1
 42
40.0
 92
        0
 66
   257
 43
1.0
 76
     1
 77
     6
 78
     2
 67
     7
 79
     3
170
     0
171
     0
290
     0
174
     0
 93
        1
 44
0.0
173
     0
291
     0
 45
0.0
  0
VISUALSTYLE
  5
1CFA
102
{ACAD_REACTORS
330
1CF3
102
}
330
1CF3
100
AcDbVisualStyle
  2
3dWireframe
 70
     5
 71
     0
 72
     2
 73
     0
 90
        0
 40
-0.6
 41
-30.0
 62
     5
 63
     7
421
 16777215
 74
     1
 91
        4
 64
     7
 65
   257
 75
     1
175
     1
 42
1.0
 92
        0
 66
   257
 43
1.0
 76
     1
 77
     6
 78
     2
 67
     7
 79
     5
170
     0
171
     0
290
     0
174
     0
 93
        1
 44
0.0
173
     0
291
     0
 45
0.0
  0
VISUALSTYLE
  5
1CF8
102
{ACAD_REACTORS
330
1CF3
102
}
330
1CF3
100
AcDbVisualStyle
  2
Basic
 70
     7
 71
     1
 72
     0
 73
     1
 90
        0
 40
-0.6
 41
-30.0
 62
     5
 63
     7
421
 16777215
 74
     0
 91
        4
 64
     7
 65
   257
 75
     1
175
     1
 42
1.0
 92
        8
 66
     7
 43
1.0
 76
     1
 77
     6
 78
     2
 67
     7
 79
     5
170
     0
171
     0
290
     0
174
     0
 93
        1
 44
0.0
173
     0
291
     1
 45
0.0
  0
VISUALSTYLE
  5
1CFF
102
{ACAD_REACTORS
330
1CF3
102
}
330
1CF3
100
AcDbVisualStyle
  2
Brighten
 70
    12
 71
     2
 72
     2
 73
     0
 90
        0
 40
-0.6
 41
-30.0
 62
     5
 63
     7
421
 16777215
 74
     1
 91
        4
 64
     7
 65
   257
 75
     1
175
     1
 42
1.0
 92
        8
 66
     7
 43
1.0
 76
     1
 77
     6
 78
     2
 67
     7
 79
     5
170
     0
171
     0
290
     0
174
     0
 93
        1
 44
50.0
173
     0
291
     1
 45
0.0
  0
VISUALSTYLE
  5
1D03
102
{ACAD_REACTORS
330
1CF3
102
}
330
1CF3
100
AcDbVisualStyle
  2
ColorChange
 70
    16
 71
     2
 72
     2
 73
     3
 90
        0
 40
-0.6
 41
-30.0
 62
     5
 63
     8
421
  8421504
 74
     1
 91
        4
 64
     7
 65
   257
 75
     1
175
     1
 42
1.0
 92
        8
 66
     8
424
  8421504
 43
1.0
 76
     1
 77
     6
 78
     2
 67
     7
 79
     5
170
     0
171
     0
290
     0
174
     0
 93
        1
 44
0.0
173
     0
291
     1
 45
0.0
  0
VISUALSTYLE
  5
1CFC
102
{ACAD_REACTORS
330
1CF3
102
}
330
1CF3
100
AcDbVisualStyle
  2
Conceptual
 70
     9
 71
     3
 72
     2
 73
     0
 90
        0
 40
-0.6
 41
-30.0
 62
     5
 63
     7
421
 16777215
 74
     2
 91
        2
 64
     7
 65
   257
 75
     1
175
     1
 42
40.0
 92
        8
 66
     7
 43
1.0
 76
     1
 77
     6
 78
     2
 67
     7
 79
     3
170
     0
171
     0
290
     0
174
     0
 93
        1
 44
0.0
173
     0
291
     0
 45
0.0
  0
VISUALSTYLE
  5
1CFE
102
{ACAD_REACTORS
330
1CF3
102
}
330
1CF3
100
AcDbVisualStyle
  2
Dim
 70
    11
 71
     2
 72
     2
 73
     0
 90
        0
 40
-0.6
 41
-30.0
 62
     5
 63
     7
421
 16777215
 74
     1
 91
        4
 64
     7
 65
   257
 75
     1
175
     1
 42
1.0
 92
        8
 66
     7
 43
1.0
 76
     1
 77
     6
 78
     2
 67
     7
 79
     5
170
     0
171
     0
290
     0
174
     0
 93
        1
 44
-50.0
173
     0
291
     1
 45
0.0
  0
VISUALSTYLE
  5
1D02
102
{ACAD_REACTORS
330
1CF3
102
}
330
1CF3
100
AcDbVisualStyle
  2
Facepattern
 70
    15
 71
     2
 72
     2
 73
     0
 90
        0
 40
-0.6
 41
-30.0
 62
     5
 63
     7
421
 16777215
 74
     1
 91
        4
 64
     7
 65
   257
 75
     1
175
     1
 42
1.0
 92
        8
 66
     7
 43
1.0
 76
     1
 77
     6
 78
     2
 67
     7
 79
     5
170
     0
171
     0
290
     0
174
     0
 93
        1
 44
0.0
173
     0
291
     1
 45
0.0
  0
VISUALSTYLE
  5
1CF4
102
{ACAD_REACTORS
330
1CF3
102
}
330
1CF3
100
AcDbVisualStyle
  2
Flat
 70
     0
 71
     2
 72
     1
 73
     1
 90
        2
 40
-0.6
 41
30.0
 62
     5
 63
     7
421
 16777215
 74
     0
 91
        4
 64
     7
 65
   257
 75
     1
175
     1
 42
1.0
 92
        8
 66
     7
 43
1.0
 76
     1
 77
     6
 78
     2
 67
     7
 79
     5
170
     0
171
     0
290
     0
174
     0
 93
       13
 44
0.0
173
     0
291
     1
 45
0.0
  0
VISUALSTYLE
  5
1CF5
102
{ACAD_REACTORS
330
1CF3
102
}
330
1CF3
100
AcDbVisualStyle
  2
FlatWithEdges
 70
     1
 71
     2
 72
     1
 73
     1
 90
        2
 40
-0.6
 41
30.0
 62
     5
 63
     7
421
 16777215
 74
     1
 91
        4
 64
     7
 65
   257
 75
     1
175
     1
 42
1.0
 92
        0
 66
   257
 43
1.0
 76
     1
 77
     6
 78
     2
 67
     7
 79
     5
170
     0
171
     0
290
     0
174
     0
 93
       13
 44
0.0
173
     0
291
     1
 45
0.0
  0
VISUALSTYLE
  5
1CF6
102
{ACAD_REACTORS
330
1CF3
102
}
330
1CF3
100
AcDbVisualStyle
  2
Gouraud
 70
     2
 71
     2
 72
     2
 73
     1
 90
        2
 40
-0.6
 41
30.0
 62
     5
 63
     7
421
 16777215
 74
     0
 91
        4
 64
     7
 65
   257
 75
     1
175
     1
 42
1.0
 92
        0
 66
     7
 43
1.0
 76
     1
 77
     6
 78
     2
 67
     7
 79
     5
170
     0
171
     0
290
     0
174
     0
 93
       13
 44
0.0
173
     0
291
     1
 45
0.0
  0
VISUALSTYLE
  5
1CF7
102
{ACAD_REACTORS
330
1CF3
102
}
330
1CF3
100
AcDbVisualStyle
  2
GouraudWithEdges
 70
     3
 71
     2
 72
     2
 73
     1
 90
        2
 40
-0.6
 41
30.0
 62
     5
 63
     7
421
 16777215
 74
     1
 91
        4
 64
     7
 65
   257
 75
     1
175
     1
 42
1.0
 92
        0
 66
   257
 43
1.0
 76
     1
 77
     6
 78
     2
 67
     7
 79
     5
170
     0
171
     0
290
     0
174
     0
 93
       13
 44
0.0
173
     0
291
     1
 45
0.0
  0
VISUALSTYLE
  5
1D01
102
{ACAD_REACTORS
330
1CF3
102
}
330
1CF3
100
AcDbVisualStyle
  2
Linepattern
 70
    14
 71
     2
 72
     2
 73
     0
 90
        0
 40
-0.6
 41
-30.0
 62
     5
 63
     7
421
 16777215
 74
     1
 91
        4
 64
     7
 65
   257
 75
     7
175
     7
 42
1.0
 92
        8
 66
     7
 43
1.0
 76
     1
 77
     6
 78
     2
 67
     7
 79
     5
170
     0
171
     0
290
     0
174
     0
 93
        1
 44
0.0
173
     0
291
     1
 45
0.0
  0
VISUALSTYLE
  5
1CFD
102
{ACAD_REACTORS
330
1CF3
102
}
330
1CF3
100
AcDbVisualStyle
  2
Realistic
 70
     8
 71
     2
 72
     2
 73
     0
 90
        0
 40
-0.6
 41
-30.0
 62
     5
 63
     7
421
 16777215
 74
     1
 91
        0
 64
     7
 65
   257
 75
     1
175
     1
 42
1.0
 92
        8
 66
     8
424
  7895160
 43
1.0
 76
     1
 77
     6
 78
     2
 67
     7
 79
     5
170
     0
171
     0
290
     0
174
     0
 93
       13
 44
0.0
173
     0
291
     0
 45
0.0
  0
VISUALSTYLE
  5
1D00
102
{ACAD_REACTORS
330
1CF3
102
}
330
1CF3
100
AcDbVisualStyle
  2
Thicken
 70
    13
 71
     2
 72
     2
 73
     0
 90
        0
 40
-0.6
 41
-30.0
 62
     5
 63
     7
421
 16777215
 74
     1
 91
        4
 64
     7
 65
   257
 75
     1
175
     1
 42
1.0
 92
       12
 66
     7
 43
1.0
 76
     1
 77
     6
 78
     2
 67
     7
 79
     5
170
     0
171
     0
290
     0
174
     0
 93
        1
 44
0.0
173
     0
291
     1
 45
0.0
  0
DICTIONARYVAR
  5
20C3
102
{ACAD_REACTORS
330
FDD
102
}
330
FDD
100
DictionaryVariables
280
     0
  1
1:1
  0
DICTIONARYVAR
  5
20C1
102
{ACAD_REACTORS
330
FDD
102
}
330
FDD
100
DictionaryVariables
280
     0
  1
STANDARD
  0
DICTIONARYVAR
  5
1E14
102
{ACAD_REACTORS
330
FDD
102
}
330
FDD
100
DictionaryVariables
280
     0
  1
STANDARD
  0
DICTIONARYVAR
  5
FDE
102
{ACAD_REACTORS
330
FDD
102
}
330
FDD
100
DictionaryVariables
280
     0
  1
1
  0
DICTIONARYVAR
  5
2116
102
{ACAD_REACTORS
330
FDD
102
}
330
FDD
100
DictionaryVariables
280
     0
  1
1
  0
DICTIONARYVAR
  5
2117
102
{ACAD_REACTORS
330
FDD
102
}
330
FDD
100
DictionaryVariables
280
     0
  1
15
  0
DICTIONARYVAR
  5
20C4
102
{ACAD_REACTORS
330
FDD
102
}
330
FDD
100
DictionaryVariables
280
     0
  1
0
  0
DICTIONARYVAR
  5
20C2
102
{ACAD_REACTORS
330
FDD
102
}
330
FDD
100
DictionaryVariables
280
     0
  1
0
  0
DICTIONARY
  5
106D
102
{ACAD_REACTORS
330
102C
102
}
330
102C
100
AcDbDictionary
281
     1
  0
XRECORD
  5
1D22
102
{ACAD_REACTORS
330
102C
102
}
330
102C
100
AcDbXrecord
280
     1
 90
-1023410169
  0
DICTIONARY
  5
111F
102
{ACAD_REACTORS
330
111E
102
}
330
111E
100
AcDbDictionary
281
     1
  3
DWGSETTINGS
350
1120
  3
TRANSSETTINGS
350
1124
  0
ACAMGFILTERDAT
  5
119B
102
{ACAD_REACTORS
330
1196
102
}
330
1196
100
AcAmgFilterDat
 70
    15
  1
DIMENSION,AMDT_*_DIM
  2
*
  3
*
  4
*
  5
*
290
     1
  0
ACAMGFILTERDAT
  5
119A
102
{ACAD_REACTORS
330
1196
102
}
330
1196
100
AcAmgFilterDat
 70
    15
  1
*
  2
AM_FEA-AM_*
  3
*
  4
*
  5
*
290
     1
  0
ACAMGFILTERDAT
  5
1197
102
{ACAD_REACTORS
330
1196
102
}
330
1196
100
AcAmgFilterDat
 70
    15
  1
HATCH
  2
*
  3
*
  4
*
  5
*
290
     1
  0
ACAMGFILTERDAT
  5
1198
102
{ACAD_REACTORS
330
1196
102
}
330
1196
100
AcAmgFilterDat
 70
    15
  1
LINE
  2
8,8N,*-8,*-8N,AM_8,AM_8N,*-AM_8,*-AM_8N
  3
*
  4
*
  5
INSERT,STDPART2D
290
     1
  0
ACAMGFILTERDAT
  5
119C
102
{ACAD_REACTORS
330
1196
102
}
330
1196
100
AcAmgFilterDat
 70
    15
  1
ARC
  2
AM_5
  3
*
  4
2
  5
INSERT
290
     0
  0
ACAMGFILTERDAT
  5
1199
102
{ACAD_REACTORS
330
1196
102
}
330
1196
100
AcAmgFilterDat
 70
    15
  1
ACMFCFRAME,ACMDATUMTARGET,ACMDATUMID,ACMWELDSYM,ACMSURFSYM,ACMFEATID,ACMPARTREF,ACMBALLOON,AMDTEDGESYM,AMGSCREWCALCTABLE
  2
*
  3
*
  4
*
  5
*
290
     1
  0
DICTIONARY
  5
1076
102
{ACAD_REACTORS
330
1075
102
}
330
1075
100
AcDbDictionary
281
     1
  3
COMPDEFATTR_XRECORD
350
1111
  0
LAYER_INDEX
  5
10D9
102
{ACAD_REACTORS
330
10D8
102
}
330
10D8
100
AcDbIndex
 40
2454866.619323507
100
AcDbLayerIndex
  8
0
360
10DA
 90
        3
  8
5
360
10DB
 90
       23
  8
1
360
10DC
 90
       15
  8
DEFPOINTS
360
10DD
 90
        0
  8
GEVACTIVE
360
10DE
 90
        0
  8
GEVINACTIVE
360
10DF
 90
        0
  8
VCCNULL
360
10E0
 90
        0
  8
2
360
10E1
 90
        0
  8
2A
360
10E2
 90
        0
  8
3
360
10E3
 90
       13
  8
3A
360
10E4
 90
        0
  8
4
360
10E5
 90
        0
  8
4A
360
10E6
 90
        0
  8
6
360
10E7
 90
        1
  8
7
360
10E8
 90
       14
  8
7A
360
10E9
 90
        1
  8
8
360
10EA
 90
        0
  8
TEXT
360
10EB
 90
        0
  8
RAHM5
360
10EC
 90
        0
  8
RAHM3
360
10ED
 90
        0
  8
KLIN
360
10EE
 90
        0
  8
VIEW
360
10EF
 90
        1
  8
RAHM2
360
10F0
 90
        0
  8
KOPF
360
10F1
 90
        0
  8
AM_TR
360
10F2
 90
        0
  8
AM_BM
360
10F3
 90
        0
  8
AM_BL
360
10F4
 90
        0
  8
AM_VIEWS
360
10F5
 90
        0
  8
AM_PARDIM
360
10F6
 90
        0
  8
AM_REFDIM
360
10F7
 90
        0
  8
AM_VIS
360
10F8
 90
        0
  8
AM_HID
360
10F9
 90
        0
  8
AM_SUPPR
360
10FA
 90
        0
  8
AM_0
360
12CD
 90
        0
  8
AM_5
360
12CE
 90
        0
  8
AM_1
360
17A5
 90
        0
  0
DICTIONARY
  5
20BE
330
1D05
100
AcDbDictionary
280
     1
281
     1
  3
ACAD_ROUNDTRIP_2008_TABLESTYLE_CELLSTYLEMAP
360
2118
  0
XRECORD
  5
1111
102
{ACAD_REACTORS
330
1076
102
}
330
1076
100
AcDbXrecord
280
     1
  1
2_0
 90
        0
  0
IDBUFFER
  5
10DA
330
0
100
AcDbIdBuffer
330
F26
330
1A52
330
1A55
  0
IDBUFFER
  5
10DB
330
0
100
AcDbIdBuffer
330
1F0
330
1F4
330
1F7
330
1F8
330
1F9
330
1FA
330
1FC
330
1FD
330
1FE
330
1FF
330
1A65
330
1ACA
330
1AFC
330
1B53
330
1C33
330
1C57
330
1C7F
330
1CA3
330
1CC7
330
1F78
330
1F98
330
1FC6
330
1FE0
  0
IDBUFFER
  5
10DC
330
0
100
AcDbIdBuffer
330
3B8
330
1787
330
1788
330
1789
330
178E
330
1A29
330
1A31
330
1A32
330
1A33
330
1B42
330
1D3C
330
1D43
330
1D4C
330
1F3C
330
1F3D
  0
IDBUFFER
  5
10DD
330
0
100
AcDbIdBuffer
  0
IDBUFFER
  5
10DE
330
0
100
AcDbIdBuffer
  0
IDBUFFER
  5
10DF
330
0
100
AcDbIdBuffer
  0
IDBUFFER
  5
10E0
330
0
100
AcDbIdBuffer
  0
IDBUFFER
  5
10E1
330
0
100
AcDbIdBuffer
  0
IDBUFFER
  5
10E2
330
0
100
AcDbIdBuffer
  0
IDBUFFER
  5
10E3
330
0
100
AcDbIdBuffer
330
3C4
330
1B38
330
1B3B
330
1B3E
330
1BF6
330
1D50
330
1D51
330
1D52
330
1F3E
330
1F40
330
1F41
330
1F42
330
1F77
  0
IDBUFFER
  5
10E4
330
0
100
AcDbIdBuffer
  0
IDBUFFER
  5
10E5
330
0
100
AcDbIdBuffer
  0
IDBUFFER
  5
10E6
330
0
100
AcDbIdBuffer
  0
IDBUFFER
  5
10E7
330
0
100
AcDbIdBuffer
330
12F2
  0
IDBUFFER
  5
10E8
330
0
100
AcDbIdBuffer
330
3BD
330
3BF
330
3C3
330
3C6
330
1A40
330
1A4E
330
1A50
330
1A53
330
1A54
330
1AAB
330
1AEC
330
1B37
330
1B3C
330
1B3D
  0
IDBUFFER
  5
10E9
330
0
100
AcDbIdBuffer
330
140D
  0
IDBUFFER
  5
10EA
330
0
100
AcDbIdBuffer
  0
IDBUFFER
  5
10EB
330
0
100
AcDbIdBuffer
  0
IDBUFFER
  5
10EC
330
0
100
AcDbIdBuffer
  0
IDBUFFER
  5
10ED
330
0
100
AcDbIdBuffer
  0
IDBUFFER
  5
10EE
330
0
100
AcDbIdBuffer
  0
IDBUFFER
  5
10EF
330
0
100
AcDbIdBuffer
330
C13
  0
IDBUFFER
  5
10F0
330
0
100
AcDbIdBuffer
  0
IDBUFFER
  5
10F1
330
0
100
AcDbIdBuffer
  0
IDBUFFER
  5
10F2
330
0
100
AcDbIdBuffer
  0
IDBUFFER
  5
10F3
330
0
100
AcDbIdBuffer
  0
IDBUFFER
  5
10F4
330
0
100
AcDbIdBuffer
  0
IDBUFFER
  5
10F5
330
0
100
AcDbIdBuffer
  0
IDBUFFER
  5
10F6
330
0
100
AcDbIdBuffer
  0
IDBUFFER
  5
10F7
330
0
100
AcDbIdBuffer
  0
IDBUFFER
  5
10F8
330
0
100
AcDbIdBuffer
  0
IDBUFFER
  5
10F9
330
0
100
AcDbIdBuffer
  0
IDBUFFER
  5
10FA
330
0
100
AcDbIdBuffer
  0
IDBUFFER
  5
12CD
330
0
100
AcDbIdBuffer
  0
IDBUFFER
  5
12CE
330
0
100
AcDbIdBuffer
  0
IDBUFFER
  5
17A5
330
0
100
AcDbIdBuffer
  0
CELLSTYLEMAP
  5
2118
102
{ACAD_REACTORS
330
20BE
102
}
330
20BE
100
AcDbCellStyleMap
 90
        3
300
CELLSTYLE
  1
TABLEFORMAT_BEGIN
 90
        5
170
     1
 91
        0
 92
    32768
 62
   257
 93
        1
300
CONTENTFORMAT
  1
CONTENTFORMAT_BEGIN
 90
        0
 91
        0
 92
      512
 93
        0
300

 40
0.0
140
1.0
 94
        5
 62
     0
340
F
144
6.0
309
CONTENTFORMAT_END
171
     1
301
MARGIN
  1
CELLMARGIN_BEGIN
 40
1.5
 40
1.5
 40
1.5
 40
1.5
 40
0.18
 40
0.18
309
CELLMARGIN_END
 94
        6
 95
        1
302
GRIDFORMAT
  1
GRIDFORMAT_BEGIN
 90
        0
 91
        1
 62
     0
 92
       -2
340
0
 93
        0
 40
0.045
309
GRIDFORMAT_END
 95
        2
302
GRIDFORMAT
  1
GRIDFORMAT_BEGIN
 90
        0
 91
        1
 62
     0
 92
       -2
340
0
 93
        0
 40
0.045
309
GRIDFORMAT_END
 95
        4
302
GRIDFORMAT
  1
GRIDFORMAT_BEGIN
 90
        0
 91
        1
 62
     0
 92
       -2
340
0
 93
        0
 40
0.045
309
GRIDFORMAT_END
 95
        8
302
GRIDFORMAT
  1
GRIDFORMAT_BEGIN
 90
        0
 91
        1
 62
     0
 92
       -2
340
0
 93
        0
 40
0.045
309
GRIDFORMAT_END
 95
       16
302
GRIDFORMAT
  1
GRIDFORMAT_BEGIN
 90
        0
 91
        1
 62
     0
 92
       -2
340
0
 93
        0
 40
0.045
309
GRIDFORMAT_END
 95
       32
302
GRIDFORMAT
  1
GRIDFORMAT_BEGIN
 90
        0
 91
        1
 62
     0
 92
       -2
340
0
 93
        0
 40
0.045
309
GRIDFORMAT_END
309
TABLEFORMAT_END
  1
CELLSTYLE_BEGIN
 90
        1
 91
        1
300
_TITLE
309
CELLSTYLE_END
300
CELLSTYLE
  1
TABLEFORMAT_BEGIN
 90
        5
170
     1
 91
        0
 92
        0
 62
   257
 93
        1
300
CONTENTFORMAT
  1
CONTENTFORMAT_BEGIN
 90
        0
 91
        0
 92
      512
 93
        0
300

 40
0.0
140
1.0
 94
        5
 62
     0
340
F
144
4.5
309
CONTENTFORMAT_END
171
     1
301
MARGIN
  1
CELLMARGIN_BEGIN
 40
1.5
 40
1.5
 40
1.5
 40
1.5
 40
0.18
 40
0.18
309
CELLMARGIN_END
 94
        6
 95
        1
302
GRIDFORMAT
  1
GRIDFORMAT_BEGIN
 90
        0
 91
        1
 62
     0
 92
       -2
340
0
 93
        0
 40
0.045
309
GRIDFORMAT_END
 95
        2
302
GRIDFORMAT
  1
GRIDFORMAT_BEGIN
 90
        0
 91
        1
 62
     0
 92
       -2
340
0
 93
        0
 40
0.045
309
GRIDFORMAT_END
 95
        4
302
GRIDFORMAT
  1
GRIDFORMAT_BEGIN
 90
        0
 91
        1
 62
     0
 92
       -2
340
0
 93
        0
 40
0.045
309
GRIDFORMAT_END
 95
        8
302
GRIDFORMAT
  1
GRIDFORMAT_BEGIN
 90
        0
 91
        1
 62
     0
 92
       -2
340
0
 93
        0
 40
0.045
309
GRIDFORMAT_END
 95
       16
302
GRIDFORMAT
  1
GRIDFORMAT_BEGIN
 90
        0
 91
        1
 62
     0
 92
       -2
340
0
 93
        0
 40
0.045
309
GRIDFORMAT_END
 95
       32
302
GRIDFORMAT
  1
GRIDFORMAT_BEGIN
 90
        0
 91
        1
 62
     0
 92
       -2
340
0
 93
        0
 40
0.045
309
GRIDFORMAT_END
309
TABLEFORMAT_END
  1
CELLSTYLE_BEGIN
 90
        2
 91
        1
300
_HEADER
309
CELLSTYLE_END
300
CELLSTYLE
  1
TABLEFORMAT_BEGIN
 90
        5
170
     1
 91
        0
 92
        0
 62
   257
 93
        1
300
CONTENTFORMAT
  1
CONTENTFORMAT_BEGIN
 90
        0
 91
        0
 92
      512
 93
        0
300

 40
0.0
140
1.0
 94
        2
 62
     0
340
F
144
4.5
309
CONTENTFORMAT_END
171
     1
301
MARGIN
  1
CELLMARGIN_BEGIN
 40
1.5
 40
1.5
 40
1.5
 40
1.5
 40
0.18
 40
0.18
309
CELLMARGIN_END
 94
        6
 95
        1
302
GRIDFORMAT
  1
GRIDFORMAT_BEGIN
 90
        0
 91
        1
 62
     0
 92
       -2
340
0
 93
        0
 40
0.045
309
GRIDFORMAT_END
 95
        2
302
GRIDFORMAT
  1
GRIDFORMAT_BEGIN
 90
        0
 91
        1
 62
     0
 92
       -2
340
0
 93
        0
 40
0.045
309
GRIDFORMAT_END
 95
        4
302
GRIDFORMAT
  1
GRIDFORMAT_BEGIN
 90
        0
 91
        1
 62
     0
 92
       -2
340
0
 93
        0
 40
0.045
309
GRIDFORMAT_END
 95
        8
302
GRIDFORMAT
  1
GRIDFORMAT_BEGIN
 90
        0
 91
        1
 62
     0
 92
       -2
340
0
 93
        0
 40
0.045
309
GRIDFORMAT_END
 95
       16
302
GRIDFORMAT
  1
GRIDFORMAT_BEGIN
 90
        0
 91
        1
 62
     0
 92
       -2
340
0
 93
        0
 40
0.045
309
GRIDFORMAT_END
 95
       32
302
GRIDFORMAT
  1
GRIDFORMAT_BEGIN
 90
        0
 91
        1
 62
     0
 92
       -2
340
0
 93
        0
 40
0.045
309
GRIDFORMAT_END
309
TABLEFORMAT_END
  1
CELLSTYLE_BEGIN
 90
        3
 91
        2
300
_DATA
309
CELLSTYLE_END
  0
ENDSEC
  0
EOF
