  0
SECTION
  2
HEADER
  9
$ACADVER
  1
AC1021
  9
$ACADMAINTVER
 70
    52
  9
$DWGCODEPAGE
  3
ANSI_1252
  9
$LASTSAVEDBY
  1
koa
  9
$CUSTOMPROPERTYTAG
  1
AmdtFileType
  9
$CUSTOMPROPERTY
  1
84
  9
$INSBASE
 10
0.0
 20
0.0
 30
0.0
  9
$EXTMIN
 10
40.90667827160416
 20
97.74316486779504
 30
-0.0000000349181948
  9
$EXTMAX
 10
174.9124152433505
 20
242.468125017672
 30
0.0000000814935746
  9
$LIMMIN
 10
0.0
 20
0.0
  9
$LIMMAX
 10
420.0
 20
297.0
  9
$ORTHOMODE
 70
     1
  9
$REGENMODE
 70
     1
  9
$FILLMODE
 70
     1
  9
$QTEXTMODE
 70
     0
  9
$MIRRTEXT
 70
     1
  9
$LTSCALE
 40
1.0
  9
$ATTMODE
 70
     1
  9
$TEXTSIZE
 40
3.5
  9
$TRACEWID
 40
1.0
  9
$TEXTSTYLE
  7
STANDARD
  9
$CLAYER
  8
AM_0
  9
$CELTYPE
  6
BYLAYER
  9
$CECOLOR
 62
   256
  9
$CELTSCALE
 40
1.0
  9
$DISPSILH
 70
     0
  9
$DIMSCALE
 40
1.0
  9
$DIMASZ
 40
3.5
  9
$DIMEXO
 40
0.0
  9
$DIMDLI
 40
10.0
  9
$DIMRND
 40
0.0
  9
$DIMDLE
 40
1.5
  9
$DIMEXE
 40
1.75
  9
$DIMTP
 40
0.0
  9
$DIMTM
 40
0.0
  9
$DIMTXT
 40
3.5
  9
$DIMCEN
 40
3.5
  9
$DIMTSZ
 40
0.0
  9
$DIMTOL
 70
     0
  9
$DIMLIM
 70
     0
  9
$DIMTIH
 70
     0
  9
$DIMTOH
 70
     0
  9
$DIMSE1
 70
     0
  9
$DIMSE2
 70
     0
  9
$DIMTAD
 70
     1
  9
$DIMZIN
 70
     8
  9
$DIMBLK
  1

  9
$DIMASO
 70
     1
  9
$DIMSHO
 70
     1
  9
$DIMPOST
  1

  9
$DIMAPOST
  1

  9
$DIMALT
 70
     0
  9
$DIMALTD
 70
     4
  9
$DIMALTF
 40
0.0394
  9
$DIMLFAC
 40
1.0
  9
$DIMTOFL
 70
     1
  9
$DIMTVP
 40
0.0
  9
$DIMTIX
 70
     0
  9
$DIMSOXD
 70
     0
  9
$DIMSAH
 70
     0
  9
$DIMBLK1
  1

  9
$DIMBLK2
  1

  9
$DIMSTYLE
  2
ISO-35
  9
$DIMCLRD
 70
   256
  9
$DIMCLRE
 70
   256
  9
$DIMCLRT
 70
     2
  9
$DIMTFAC
 40
0.7
  9
$DIMGAP
 40
1.0
  9
$DIMJUST
 70
     0
  9
$DIMSD1
 70
     0
  9
$DIMSD2
 70
     0
  9
$DIMTOLJ
 70
     0
  9
$DIMTZIN
 70
     8
  9
$DIMALTZ
 70
     0
  9
$DIMALTTZ
 70
     0
  9
$DIMUPT
 70
     0
  9
$DIMDEC
 70
     0
  9
$DIMTDEC
 70
     2
  9
$DIMALTU
 70
     8
  9
$DIMALTTD
 70
     4
  9
$DIMTXSTY
  7
STANDARD
  9
$DIMAUNIT
 70
     0
  9
$DIMADEC
 70
     2
  9
$DIMALTRND
 40
0.0
  9
$DIMAZIN
 70
     2
  9
$DIMDSEP
 70
    46
  9
$DIMATFIT
 70
     3
  9
$DIMFRAC
 70
     0
  9
$DIMLDRBLK
  1

  9
$DIMLUNIT
 70
     6
  9
$DIMLWD
 70
    -2
  9
$DIMLWE
 70
    -2
  9
$DIMTMOVE
 70
     0
  9
$DIMFXL
 40
1.0
  9
$DIMFXLON
 70
     0
  9
$DIMJOGANG
 40
0.7853981633974483
  9
$DIMTFILL
 70
     0
  9
$DIMTFILLCLR
 70
     0
  9
$DIMARCSYM
 70
     0
  9
$DIMLTYPE
  6

  9
$DIMLTEX1
  6

  9
$DIMLTEX2
  6

  9
$LUNITS
 70
     2
  9
$LUPREC
 70
     4
  9
$SKETCHINC
 40
1.0
  9
$FILLETRAD
 40
2.0
  9
$AUNITS
 70
     0
  9
$AUPREC
 70
     2
  9
$MENU
  1
.
  9
$ELEVATION
 40
0.0
  9
$PELEVATION
 40
0.0
  9
$THICKNESS
 40
0.0
  9
$LIMCHECK
 70
     0
  9
$CHAMFERA
 40
10.0
  9
$CHAMFERB
 40
10.0
  9
$CHAMFERC
 40
20.0
  9
$CHAMFERD
 40
0.0
  9
$SKPOLY
 70
     0
  9
$TDCREATE
 40
2451955.603301065
  9
$TDUCREATE
 40
2451955.519967732
  9
$TDUPDATE
 40
2454986.346353935
  9
$TDUUPDATE
 40
2454986.263020602
  9
$TDINDWG
 40
0.1045853356
  9
$TDUSRTIMER
 40
0.1045849884
  9
$USRTIMER
 70
     1
  9
$ANGBASE
 50
0.0
  9
$ANGDIR
 70
     0
  9
$PDMODE
 70
     0
  9
$PDSIZE
 40
0.0
  9
$PLINEWID
 40
0.0
  9
$SPLFRAME
 70
     0
  9
$SPLINETYPE
 70
     6
  9
$SPLINESEGS
 70
    16
  9
$HANDSEED
  5
D6D
  9
$SURFTAB1
 70
     6
  9
$SURFTAB2
 70
     6
  9
$SURFTYPE
 70
     6
  9
$SURFU
 70
     6
  9
$SURFV
 70
     6
  9
$UCSBASE
  2

  9
$UCSNAME
  2

  9
$UCSORG
 10
0.0
 20
0.0
 30
0.0
  9
$UCSXDIR
 10
1.0
 20
0.0
 30
0.0
  9
$UCSYDIR
 10
0.0
 20
1.0
 30
0.0
  9
$UCSORTHOREF
  2

  9
$UCSORTHOVIEW
 70
     0
  9
$UCSORGTOP
 10
0.0
 20
0.0
 30
0.0
  9
$UCSORGBOTTOM
 10
0.0
 20
0.0
 30
0.0
  9
$UCSORGLEFT
 10
0.0
 20
0.0
 30
0.0
  9
$UCSORGRIGHT
 10
0.0
 20
0.0
 30
0.0
  9
$UCSORGFRONT
 10
0.0
 20
0.0
 30
0.0
  9
$UCSORGBACK
 10
0.0
 20
0.0
 30
0.0
  9
$PUCSBASE
  2

  9
$PUCSNAME
  2

  9
$PUCSORG
 10
0.0
 20
0.0
 30
0.0
  9
$PUCSXDIR
 10
1.0
 20
0.0
 30
0.0
  9
$PUCSYDIR
 10
0.0
 20
1.0
 30
0.0
  9
$PUCSORTHOREF
  2

  9
$PUCSORTHOVIEW
 70
     0
  9
$PUCSORGTOP
 10
0.0
 20
0.0
 30
0.0
  9
$PUCSORGBOTTOM
 10
0.0
 20
0.0
 30
0.0
  9
$PUCSORGLEFT
 10
0.0
 20
0.0
 30
0.0
  9
$PUCSORGRIGHT
 10
0.0
 20
0.0
 30
0.0
  9
$PUCSORGFRONT
 10
0.0
 20
0.0
 30
0.0
  9
$PUCSORGBACK
 10
0.0
 20
0.0
 30
0.0
  9
$USERI1
 70
     0
  9
$USERI2
 70
     0
  9
$USERI3
 70
     0
  9
$USERI4
 70
     0
  9
$USERI5
 70
     0
  9
$USERR1
 40
0.0
  9
$USERR2
 40
0.0
  9
$USERR3
 40
0.0
  9
$USERR4
 40
0.0
  9
$USERR5
 40
0.0
  9
$WORLDVIEW
 70
     1
  9
$SHADEDGE
 70
     3
  9
$SHADEDIF
 70
    70
  9
$TILEMODE
 70
     1
  9
$MAXACTVP
 70
    48
  9
$PINSBASE
 10
0.0
 20
0.0
 30
0.0
  9
$PLIMCHECK
 70
     0
  9
$PEXTMIN
 10
20.12
 20
6.725894720926089
 30
0.0
  9
$PEXTMAX
 10
203.0
 20
290.0
 30
0.0
  9
$PLIMMIN
 10
-5.027083396911621
 20
-5.111741065979003
  9
$PLIMMAX
 10
204.9885873794556
 20
291.8989095687866
  9
$UNITMODE
 70
     0
  9
$VISRETAIN
 70
     1
  9
$PLINEGEN
 70
     0
  9
$PSLTSCALE
 70
     1
  9
$TREEDEPTH
 70
  3020
  9
$CMLSTYLE
  2
STANDARD
  9
$CMLJUST
 70
     0
  9
$CMLSCALE
 40
1.0
  9
$PROXYGRAPHICS
 70
     1
  9
$MEASUREMENT
 70
     1
  9
$CELWEIGHT
370
    -1
  9
$ENDCAPS
280
     0
  9
$JOINSTYLE
280
     0
  9
$LWDISPLAY
290
     0
  9
$INSUNITS
 70
     0
  9
$HYPERLINKBASE
  1

  9
$STYLESHEET
  1
v:\vorlagen\LAA4.ctb
  9
$XEDIT
290
     1
  9
$CEPSNTYPE
380
     0
  9
$PSTYLEMODE
290
     1
  9
$FINGERPRINTGUID
  2
{9DE0F4BE-022B-11D3-8698-0060B085A428}
  9
$VERSIONGUID
  2
{AC136F40-CC3E-47CE-A83C-FEE242D7A323}
  9
$EXTNAMES
290
     1
  9
$PSVPSCALE
 40
0.0
  9
$OLESTARTUP
290
     0
  9
$SORTENTS
280
   127
  9
$INDEXCTL
280
     1
  9
$HIDETEXT
280
     0
  9
$XCLIPFRAME
290
     0
  9
$HALOGAP
280
     0
  9
$OBSCOLOR
 70
   257
  9
$OBSLTYPE
280
     0
  9
$INTERSECTIONDISPLAY
280
     0
  9
$INTERSECTIONCOLOR
 70
   257
  9
$DIMASSOC
280
     1
  9
$PROJECTNAME
  1

  9
$CAMERADISPLAY
290
     0
  9
$LENSLENGTH
 40
50.0
  9
$CAMERAHEIGHT
 40
0.0
  9
$STEPSPERSEC
 40
2.0
  9
$STEPSIZE
 40
6.0
  9
$3DDWFPREC
 40
2.0
  9
$PSOLWIDTH
 40
0.25
  9
$PSOLHEIGHT
 40
4.0
  9
$LOFTANG1
 40
1.570796326794896
  9
$LOFTANG2
 40
1.570796326794896
  9
$LOFTMAG1
 40
0.0
  9
$LOFTMAG2
 40
0.0
  9
$LOFTPARAM
 70
     7
  9
$LOFTNORMALS
280
     1
  9
$LATITUDE
 40
37.795
  9
$LONGITUDE
 40
-122.394
  9
$NORTHDIRECTION
 40
0.0
  9
$TIMEZONE
 70
 -8000
  9
$LIGHTGLYPHDISPLAY
280
     1
  9
$TILEMODELIGHTSYNCH
280
     1
  9
$CMATERIAL
347
352
  9
$SOLIDHIST
280
     1
  9
$SHOWHIST
280
     1
  9
$DWFFRAME
280
     2
  9
$DGNFRAME
280
     0
  9
$REALWORLDSCALE
290
     1
  9
$INTERFERECOLOR
 62
     1
  9
$INTERFEREOBJVS
345
374
  9
$INTERFEREVPVS
346
371
  9
$CSHADOW
280
     0
  9
$SHADOWPLANELOCATION
 40
0.0
  0
ENDSEC
  0
SECTION
  2
CLASSES
  0
CLASS
  1
DICTIONARYVAR
  2
AcDbDictionaryVar
  3
ObjectDBX Classes
 90
        0
 91
       12
280
     0
281
     0
  0
CLASS
  1
ACMESTATEMGR
  2
AcMeStateMgr
  3
AcMeServices
 90
     1024
 91
        1
280
     0
281
     0
  0
CLASS
  1
ACMESCOPE
  2
AcMeScope
  3
AcMeServices
 90
     1024
 91
        1
280
     0
281
     0
  0
CLASS
  1
ACMECOMMANDHISTORY
  2
AcMeCommandHistory
  3
AcMeServices
 90
     1024
 91
        1
280
     0
281
     0
  0
CLASS
  1
ACRFINSADJUSTERMGR
  2
AcRfInsAdjusterMgr
  3
AcMeServices
 90
     1024
 91
        1
280
     0
281
     0
  0
CLASS
  1
ACMEDRAWINGMAN
  2
AcMeDrawingMan
  3
AcMeServices
 90
     1024
 91
        1
280
     0
281
     0
  0
CLASS
  1
AMATTR
  2
AcMeAttribute
  3
AcMeServices
 90
     1024
 91
        0
280
     0
281
     0
  0
CLASS
  1
ACMEBOMCOLUMN
  2
AcMeBOMColumn
  3
AcMeServices
 90
     1024
 91
        0
280
     0
281
     0
  0
CLASS
  1
ACMEBOMCONF
  2
AcMeBOMConf
  3
AcMeServices
 90
     1024
 91
        0
280
     0
281
     0
  0
CLASS
  1
ACMEBOMTABLE
  2
AcMeBOMTable
  3
AcMeServices
 90
     1024
 91
        0
280
     0
281
     0
  0
CLASS
  1
ACMEBOMENTRY
  2
AcMeBOMEntry
  3
AcMeServices
 90
     1024
 91
        0
280
     0
281
     0
  0
CLASS
  1
ACMEVIEW
  2
AcMeView
  3
AcMeServices
 90
     1024
 91
        1
280
     0
281
     0
  0
CLASS
  1
ACGREFMASTER
  2
AcGrefMaster
  3
AcAttribServices
 90
     1024
 91
        1
280
     0
281
     0
  0
CLASS
  1
AMIMASTER
  2
AmiMaster
  3
AmiServices
 90
     1024
 91
        1
280
     0
281
     0
  0
CLASS
  1
ACASGREFMASTER
  2
AcAsGrefMaster
  3
AutoSurfResolverServices
 90
     1024
 91
        1
280
     0
281
     0
  0
CLASS
  1
ADAPPL
  2
AcAdAppl
  3
DesignerServices
 90
     1024
 91
        1
280
     0
281
     0
  0
CLASS
  1
DEPMGR
  2
AcAdDepMgr
  3
DesignerServices
 90
     1024
 91
        1
280
     0
281
     0
  0
CLASS
  1
PARAMMGR
  2
AcAdParamMgr
  3
DesignerServices
 90
     1024
 91
        1
280
     0
281
     0
  0
CLASS
  1
PARAMSCOPE
  2
AcAdParamScope
  3
DesignerServices
 90
     1024
 91
        1
280
     0
281
     0
  0
CLASS
  1
ACIMSYSVARMAN
  2
AcImSysVarManager
  3
AcMeServices
 90
     1024
 91
        6
280
     0
281
     0
  0
CLASS
  1
ACIMINTSYSVAR
  2
AcImIntSysVar
  3
AcMeServices
 90
     1024
 91
       47
280
     0
281
     0
  0
CLASS
  1
ACIMREALSYSVAR
  2
AcImRealSysVar
  3
AcMeServices
 90
     1024
 91
       16
280
     0
281
     0
  0
CLASS
  1
ACIMSTRSYSVAR
  2
AcImStrSysVar
  3
AcMeServices
 90
     1024
 91
       11
280
     0
281
     0
  0
CLASS
  1
NAMEDAPPL
  2
AcAdNamedAppl
  3
DesignerServices
 90
     1024
 91
        1
280
     0
281
     0
  0
CLASS
  1
ADHNTMPLT
  2
AdHoleNoteTemplateMgr
  3
DesignerServices
 90
     1024
 91
        0
280
     0
281
     0
  0
CLASS
  1
AM_HNTEMPLATE_MGR_NAME
  2
AdHoleNoteTemplateMgrName
  3
DesignerServices
 90
     1024
 91
        0
280
     0
281
     0
  0
CLASS
  1
ACADGREFMODULE
  2
AcAdGrefModule
  3
AdGrefServices
 90
     1024
 91
        1
280
     0
281
     0
  0
CLASS
  1
AM_DRAWING_MGR
  2
AcDmDwgMgr
  3
AcMechDwgViewMgmt
 90
     1024
 91
        1
280
     0
281
     0
  0
CLASS
  1
AM_DWG_DOCUMENT
  2
AcDmDwgDocument
  3
AcMechDwgViewMgmt
 90
     1024
 91
        1
280
     0
281
     0
  0
CLASS
  1
AM_DWG_SHEET
  2
AcDmSheet
  3
AcMechDwgViewMgmt
 90
     1024
 91
        1
280
     0
281
     0
  0
CLASS
  1
AM_VIEWDIMPARMAP
  2
AcDmViewDimParMap
  3
AcMechDwgViewMgmt
 90
     1024
 91
        1
280
     0
281
     0
  0
CLASS
  1
AM_DWGMGR_NAME
  2
AcDmDwgMgrName
  3
AcMechDwgViewMgmt
 90
     1024
 91
        1
280
     0
281
     0
  0
CLASS
  1
ACAMPROJECT
  2
AcAmProject
  3
DesignerAssemblies
 90
     1024
 91
        1
280
     0
281
     0
  0
CLASS
  1
ACAMGRCOMPSET
  2
AcAmGrCompSet
  3
DesignerAssemblies
 90
        0
 91
        0
280
     1
281
     0
  0
CLASS
  1
ACAMGRCOMPDEFSET
  2
AcAmGrCompDefSet
  3
DesignerAssemblies
 90
     1024
 91
        1
280
     0
281
     0
  0
CLASS
  1
ACAMGRCOMPDEF
  2
AcAmGrCompDef
  3
DesignerAssemblies
 90
     1024
 91
        1
280
     0
281
     0
  0
CLASS
  1
ACCMCONTEXT
  2
AcCmContext
  3
DesignerAssemblies
 90
     1024
 91
        1
280
     0
281
     0
  0
CLASS
  1
ACAMCOMPDEF
  2
AcAmCompDef
  3
DesignerAssemblies
 90
     1024
 91
        1
280
     0
281
     0
  0
CLASS
  1
ACAMCOMPDEFMGR
  2
AcAmCompDefMgr
  3
DesignerAssemblies
 90
     1024
 91
        1
280
     0
281
     0
  0
CLASS
  1
AMCONTEXTMGR
  2
AcAmContextMgr
  3
DesignerAssemblies
 90
     1024
 91
        1
280
     0
281
     0
  0
CLASS
  1
ACAMCONTEXTMODELER
  2
AcAmContextModeler
  3
DesignerAssemblies
 90
     1024
 91
        1
280
     0
281
     0
  0
CLASS
  1
ACDMVIEWGEOM
  2
AcDmViewGeometry
  3
AcMechDwgViewMgmt
 90
     1024
 91
        0
280
     0
281
     1
  0
CLASS
  1
CBROWSERAPPOBJECT
  2
CBrowserAppObject
  3
McadcomServices
 90
     1024
 91
        3
280
     0
281
     0
  0
CLASS
  1
IM_STATIC_MAN
  2
AcImStaticVarManager
  3
AcMeServices
 90
     1024
 91
        1
280
     0
281
     0
  0
CLASS
  1
ASAPP
  2
AcAsAppObject
  3
AutoSurfServices
 90
     1024
 91
        1
280
     0
281
     0
  0
CLASS
  1
ACIMDBLSTATICVAR
  2
AcImDblStaticVar
  3
AcMeServices
 90
     1024
 91
       20
280
     0
281
     0
  0
CLASS
  1
ACIMSTRSTATICVAR
  2
AcImStrStaticVar
  3
AcMeServices
 90
     1024
 91
       12
280
     0
281
     0
  0
CLASS
  1
ACIMINTSTATICVAR
  2
AcImIntStaticVar
  3
AcMeServices
 90
     1024
 91
       17
280
     0
281
     0
  0
CLASS
  1
CATALOGSTATE
  2
AcAmCatalogState
  3
DesignerAssemblies
 90
     1024
 91
        1
280
     0
281
     0
  0
CLASS
  1
DM_PLACEHOLDER
  2
AcDmSelsetPlaceholder
  3
AcMechDwgViewMgmt
 90
     1024
 91
        1
280
     0
281
     0
  0
CLASS
  1
LAYER_INDEX
  2
AcDbLayerIndex
  3
ObjectDBX Classes
 90
        0
 91
        1
280
     0
281
     0
  0
CLASS
  1
IDBUFFER
  2
AcDbIdBuffer
  3
ObjectDBX Classes
 90
        0
 91
       25
280
     0
281
     0
  0
CLASS
  1
ACMSTANDARDJIS
  2
AcmStandardJIS
  3
"Amdt_StdImp|Product Description: AutoCAD Mechanical|Company: Autodesk, Inc."
 90
     1024
 91
        0
280
     0
281
     0
  0
CLASS
  1
ACMSTANDARDANSI
  2
AcmStandardANSI
  3
"Amdt_StdImp|Product Description: AutoCAD Mechanical|Company: Autodesk, Inc."
 90
     1024
 91
        1
280
     0
281
     0
  0
CLASS
  1
ACMSTANDARDBSI
  2
AcmStandardBSI
  3
"Amdt_StdImp|Product Description: AutoCAD Mechanical|Company: Autodesk, Inc."
 90
     1024
 91
        0
280
     0
281
     0
  0
CLASS
  1
ACMSTANDARDDIN
  2
AcmStandardDIN
  3
"Amdt_StdImp|Product Description: AutoCAD Mechanical|Company: Autodesk, Inc."
 90
     1024
 91
        1
280
     0
281
     0
  0
CLASS
  1
ACMSTANDARDISO
  2
AcmStandardISO
  3
"Amdt_StdImp|Product Description: AutoCAD Mechanical|Company: Autodesk, Inc."
 90
     1024
 91
        0
280
     0
281
     0
  0
CLASS
  1
ACDBDICTIONARYWDFLT
  2
AcDbDictionaryWithDefault
  3
ObjectDBX Classes
 90
        0
 91
        1
280
     0
281
     0
  0
CLASS
  1
ACME_DOCUMENT
  2
AcMeDbDoc
  3
AcMeServices
 90
     1024
 91
        2
280
     0
281
     0
  0
CLASS
  1
AMGSETTINGSOBJ
  2
AmgSettingsObj
  3
"AcadM|Product Description: AutoCAD Mechanical|Company: Autodesk, Inc."
 90
     1024
 91
        2
280
     0
281
     0
  0
CLASS
  1
AMGOBJPROPCFG
  2
AmgObjPropCfg
  3
"AmgLay|Product Description: AutoCAD Mechanical|Company: Autodesk, Inc."
 90
     1025
 91
        1
280
     0
281
     0
  0
CLASS
  1
ACDBENTITYCACHE
  2
AcMeEntityCache
  3
AcMeServices
 90
     1024
 91
        1
280
     0
281
     0
  0
CLASS
  1
GSMANAGER
  2
AcMeGSManager
  3
AcMeServices
 90
     1024
 91
        1
280
     0
281
     0
  0
CLASS
  1
AMDTINTERNALREACTOR
  2
AmdtInternalReactor
  3
AcMeServices
 90
     1024
 91
        2
280
     0
281
     0
  0
CLASS
  1
ACME_DATABASE
  2
AcMeDbDatabase
  3
AcMeServices
 90
     1024
 91
        1
280
     0
281
     0
  0
CLASS
  1
ACGREFACADMASTER
  2
AcGrefacadMaster
  3
AcGrefServices
 90
     1024
 91
        1
280
     0
281
     0
  0
CLASS
  1
AMDTMENUSTATEMGR
  2
AmdtMenuStateMgr
  3
McadcomServices
 90
     1024
 91
        1
280
     0
281
     0
  0
CLASS
  1
AMDTMCOMMENUSTATE
  2
AmdtMcomMenuState
  3
McadcomServices
 90
     1024
 91
        1
280
     0
281
     0
  0
CLASS
  1
MAPIADMODULE
  2
MApiAdModule
  3
MApiAdServices
 90
     1024
 91
        1
280
     0
281
     0
  0
CLASS
  1
AMDTDMMENUSTATE
  2
AmdtDmMenuState
  3
AcMechDwgViewMgmt
 90
     1024
 91
        1
280
     0
281
     0
  0
CLASS
  1
AMDTADMENUSTATE
  2
AmdtAdMenuState
  3
DesignerServices
 90
     1024
 91
        1
280
     0
281
     0
  0
CLASS
  1
AMDTAMMENUSTATE
  2
AmdtAmMenuState
  3
DesignerAssemblies
 90
     1024
 91
        1
280
     0
281
     0
  0
CLASS
  1
ACMDATADICTIONARY
  2
AcmDataDictionary
  3
"AcmSymBB|Product Description: AutoCAD Mechanical|Company: Autodesk, Inc."
 90
     1024
 91
        1
280
     0
281
     0
  0
CLASS
  1
ACMDATAENTRYBLOCK
  2
AcmDataEntryBlock
  3
AcmSymBB|Product Description: AutoCAD Mechanical|Company: Autodesk, Inc.
 90
     1024
 91
        1
280
     0
281
     0
  0
CLASS
  1
ACMSURFSTANDARDJIS
  2
AcmSurfTextStdJIS
  3
"Amdt_StdImp|Product Description: AutoCAD Mechanical|Company: Autodesk, Inc."
 90
     1024
 91
        0
280
     0
281
     0
  0
CLASS
  1
ACMFCFSTANDARDJIS
  2
AcmFCFStdJIS
  3
"Amdt_StdImp|Product Description: AutoCAD Mechanical|Company: Autodesk, Inc."
 90
     1024
 91
        0
280
     0
281
     0
  0
CLASS
  1
ACMWELDSTANDARDJIS
  2
AcmWeldingStdJIS
  3
"Amdt_StdImp|Product Description: AutoCAD Mechanical|Company: Autodesk, Inc."
 90
     1024
 91
        0
280
     0
281
     0
  0
CLASS
  1
ACMIDSTANDARDJIS
  2
AcmIdStdJIS
  3
"Amdt_StdImp|Product Description: AutoCAD Mechanical|Company: Autodesk, Inc."
 90
     1024
 91
        0
280
     0
281
     0
  0
CLASS
  1
ACMDATUMSTANDARDJIS
  2
AcmDatumStdJIS
  3
"Amdt_StdImp|Product Description: AutoCAD Mechanical|Company: Autodesk, Inc."
 90
     1024
 91
        0
280
     0
281
     0
  0
CLASS
  1
ACMBOMSTANDARDJIS
  2
AcmBOMStdJIS
  3
"Amdt_StdImp|Product Description: AutoCAD Mechanical|Company: Autodesk, Inc."
 90
     1024
 91
        0
280
     0
281
     0
  0
CLASS
  1
ACMSURFSTANDARDANSI
  2
AcmSurfTextStdANSI
  3
"Amdt_StdImp|Product Description: AutoCAD Mechanical|Company: Autodesk, Inc."
 90
     1024
 91
        1
280
     0
281
     0
  0
CLASS
  1
ACMFCFSTANDARDANSI
  2
AcmFCFStdANSI
  3
"Amdt_StdImp|Product Description: AutoCAD Mechanical|Company: Autodesk, Inc."
 90
     1024
 91
        1
280
     0
281
     0
  0
CLASS
  1
ACMWELDSTANDARDANSI
  2
AcmWeldingStdANSI
  3
"Amdt_StdImp|Product Description: AutoCAD Mechanical|Company: Autodesk, Inc."
 90
     1024
 91
        1
280
     0
281
     0
  0
CLASS
  1
ACMIDSTANDARDANSI
  2
AcmIdStdANSI
  3
"Amdt_StdImp|Product Description: AutoCAD Mechanical|Company: Autodesk, Inc."
 90
     1024
 91
        1
280
     0
281
     0
  0
CLASS
  1
ACMDATUMSTANDARDANSI
  2
AcmDatumStdANSI
  3
"Amdt_StdImp|Product Description: AutoCAD Mechanical|Company: Autodesk, Inc."
 90
     1024
 91
        1
280
     0
281
     0
  0
CLASS
  1
ACMBOMSTANDARDANSI
  2
AcmBOMStdANSI
  3
"Amdt_StdImp|Product Description: AutoCAD Mechanical|Company: Autodesk, Inc."
 90
     1024
 91
        1
280
     0
281
     0
  0
CLASS
  1
ACMSURFSTANDARDBSI
  2
AcmSurfTextStdBSI
  3
"Amdt_StdImp|Product Description: AutoCAD Mechanical|Company: Autodesk, Inc."
 90
     1024
 91
        0
280
     0
281
     0
  0
CLASS
  1
ACMFCFSTANDARDBSI
  2
AcmFCFStdBSI
  3
"Amdt_StdImp|Product Description: AutoCAD Mechanical|Company: Autodesk, Inc."
 90
     1024
 91
        0
280
     0
281
     0
  0
CLASS
  1
ACMWELDSTANDARDBSI
  2
AcmWeldingStdBSI
  3
"Amdt_StdImp|Product Description: AutoCAD Mechanical|Company: Autodesk, Inc."
 90
     1024
 91
        0
280
     0
281
     0
  0
CLASS
  1
ACMIDSTANDARDBSI
  2
AcmIdStdBSI
  3
"Amdt_StdImp|Product Description: AutoCAD Mechanical|Company: Autodesk, Inc."
 90
     1024
 91
        0
280
     0
281
     0
  0
CLASS
  1
ACMDATUMSTANDARDBSI
  2
AcmDatumStdBSI
  3
"Amdt_StdImp|Product Description: AutoCAD Mechanical|Company: Autodesk, Inc."
 90
     1024
 91
        0
280
     0
281
     0
  0
CLASS
  1
ACMBOMSTANDARDBSI
  2
AcmBOMStdBSI
  3
"Amdt_StdImp|Product Description: AutoCAD Mechanical|Company: Autodesk, Inc."
 90
     1024
 91
        0
280
     0
281
     0
  0
CLASS
  1
AMDTEDGESTANDARDDIN
  2
AmdtEdgeStdDIN
  3
"Amdt_StdImp|Product Description: AutoCAD Mechanical|Company: Autodesk, Inc."
 90
     1024
 91
        1
280
     0
281
     0
  0
CLASS
  1
ACMSURFSTANDARDDIN
  2
AcmSurfTextStdDIN
  3
"Amdt_StdImp|Product Description: AutoCAD Mechanical|Company: Autodesk, Inc."
 90
     1024
 91
        1
280
     0
281
     0
  0
CLASS
  1
ACMFCFSTANDARDDIN
  2
AcmFCFStdDIN
  3
"Amdt_StdImp|Product Description: AutoCAD Mechanical|Company: Autodesk, Inc."
 90
     1024
 91
        1
280
     0
281
     0
  0
CLASS
  1
ACMWELDSTANDARDDIN
  2
AcmWeldingStdDIN
  3
"Amdt_StdImp|Product Description: AutoCAD Mechanical|Company: Autodesk, Inc."
 90
     1024
 91
        1
280
     0
281
     0
  0
CLASS
  1
ACMIDSTANDARDDIN
  2
AcmIdStdDIN
  3
"Amdt_StdImp|Product Description: AutoCAD Mechanical|Company: Autodesk, Inc."
 90
     1024
 91
        1
280
     0
281
     0
  0
CLASS
  1
ACMDATUMSTANDARDDIN
  2
AcmDatumStdDIN
  3
"Amdt_StdImp|Product Description: AutoCAD Mechanical|Company: Autodesk, Inc."
 90
     1024
 91
        1
280
     0
281
     0
  0
CLASS
  1
ACMBOMSTANDARDDIN
  2
AcmBOMStdDIN
  3
"Amdt_StdImp|Product Description: AutoCAD Mechanical|Company: Autodesk, Inc."
 90
     1024
 91
        1
280
     0
281
     0
  0
CLASS
  1
ACMSURFSTANDARDISO
  2
AcmSurfTextStdISO
  3
"Amdt_StdImp|Product Description: AutoCAD Mechanical|Company: Autodesk, Inc."
 90
     1024
 91
        0
280
     0
281
     0
  0
CLASS
  1
ACMFCFSTANDARDISO
  2
AcmFCFStdISO
  3
"Amdt_StdImp|Product Description: AutoCAD Mechanical|Company: Autodesk, Inc."
 90
     1024
 91
        0
280
     0
281
     0
  0
CLASS
  1
ACMWELDSTANDARDISO
  2
AcmWeldingStdISO
  3
"Amdt_StdImp|Product Description: AutoCAD Mechanical|Company: Autodesk, Inc."
 90
     1024
 91
        0
280
     0
281
     0
  0
CLASS
  1
ACMIDSTANDARDISO
  2
AcmIdStdISO
  3
"Amdt_StdImp|Product Description: AutoCAD Mechanical|Company: Autodesk, Inc."
 90
     1024
 91
        0
280
     0
281
     0
  0
CLASS
  1
ACMDATUMSTANDARDISO
  2
AcmDatumStdISO
  3
"Amdt_StdImp|Product Description: AutoCAD Mechanical|Company: Autodesk, Inc."
 90
     1024
 91
        0
280
     0
281
     0
  0
CLASS
  1
ACMBOMSTANDARDISO
  2
AcmBOMStdISO
  3
"Amdt_StdImp|Product Description: AutoCAD Mechanical|Company: Autodesk, Inc."
 90
     1024
 91
        0
280
     0
281
     0
  0
CLASS
  1
AMDTBROWSERDBTAB
  2
AmdtBrowserDbTab
  3
McadcomServices
 90
     1024
 91
        1
280
     0
281
     0
  0
CLASS
  1
ACAMGFILTERDAT
  2
AcAmgFilterDat
  3
"AcadM|Product Description: AutoCAD Mechanical|Company: Autodesk, Inc."
 90
     1024
 91
        6
280
     0
281
     0
  0
CLASS
  1
MAPIAMMOUDLE
  2
MApiAmModule
  3
MApiAmServices
 90
     1024
 91
        1
280
     0
281
     0
  0
CLASS
  1
PLOTSETTINGS
  2
AcDbPlotSettings
  3
ObjectDBX Classes
 90
        0
 91
        0
280
     0
281
     0
  0
CLASS
  1
ACRFATTGENMGR
  2
AcRfAttGeneralMgr
  3
AcAttribServices
 90
     1024
 91
        1
280
     0
281
     0
  0
CLASS
  1
ACAMGRBLOCKRECORD
  2
AcAmGrBlockRecord
  3
DesignerAssemblies
 90
     1024
 91
        0
280
     0
281
     0
  0
CLASS
  1
ACAMVIEWREACTOR
  2
AcAmViewReactor
  3
DesignerAssemblies
 90
     1024
 91
        0
280
     0
281
     0
  0
CLASS
  1
ACAMCOMPENT
  2
AcAmCompEnt
  3
DesignerAssemblies
 90
     1024
 91
        0
280
     0
281
     1
  0
CLASS
  1
AMVIEW
  2
AcAmView
  3
DesignerAssemblies
 90
     1024
 91
        0
280
     0
281
     0
  0
CLASS
  1
ACAMVIEWCONTEXT
  2
AcAmViewContext
  3
DesignerAssemblies
 90
     1024
 91
        0
280
     0
281
     0
  0
CLASS
  1
ADPART
  2
AcAdPart
  3
DesignerServices
 90
     1024
 91
        0
280
     0
281
     1
  0
CLASS
  1
ADBASE
  2
AcAdBase
  3
DesignerServices
 90
     1024
 91
        0
280
     0
281
     0
  0
CLASS
  1
BODYID
  2
AcAdBodyId
  3
DesignerServices
 90
     1024
 91
        0
280
     0
281
     0
  0
CLASS
  1
WORKPLANEDISPLAYMGR
  2
AcAdDisplayMgr
  3
DesignerServices
 90
     1024
 91
        0
280
     0
281
     0
  0
CLASS
  1
ACCMBODY
  2
AcCmBody
  3
DesignerAssemblies
 90
     1024
 91
        0
280
     0
281
     0
  0
CLASS
  1
ACAMCOMPFEEDBACK
  2
AcAmCompFeedback
  3
DesignerAssemblies
 90
     1024
 91
        0
280
     0
281
     0
  0
CLASS
  1
ACAMCOMP
  2
AcAmComp
  3
DesignerAssemblies
 90
     1024
 91
        0
280
     0
281
     0
  0
CLASS
  1
ACAMCOMPENTCLONE
  2
AcAmCompEntClone
  3
DesignerAssemblies
 90
     1024
 91
        0
280
     0
281
     1
  0
CLASS
  1
ACAMCLONEREACTOR
  2
AcAmGrCompCloneReactor
  3
DesignerAssemblies
 90
     1024
 91
        0
280
     0
281
     0
  0
CLASS
  1
ADDATUMPLANEABS
  2
AcAdDatumPlaneAbs
  3
DesignerServices
 90
     1024
 91
        0
280
     0
281
     0
  0
CLASS
  1
ADDATUMAXISABS
  2
AcAdDatumAxisAbs
  3
DesignerServices
 90
     1024
 91
        0
280
     0
281
     0
  0
CLASS
  1
ADDATUMORIENTEDPLANE
  2
AcAdDatumOrientedPlane
  3
DesignerServices
 90
     1024
 91
        0
280
     0
281
     0
  0
CLASS
  1
ACAD_LINE
  2
AcAdLine
  3
DesignerServices
 90
     1024
 91
        0
280
     0
281
     1
  0
CLASS
  1
ACADLINEACAD
  2
AcAdVirtualBoundedLineAcad
  3
DesignerServices
 90
     1024
 91
        0
280
     0
281
     0
  0
CLASS
  1
ACADREFLINEACAD
  2
AcAdVirtualReferenceLine
  3
DesignerServices
 90
     1024
 91
        0
280
     0
281
     0
  0
CLASS
  1
ACADCONSLINE
  2
AcAdConstrainedLine
  3
DesignerServices
 90
     1024
 91
        0
280
     0
281
     0
  0
CLASS
  1
ACADCONSGROUP
  2
AcAdConstraintGroup
  3
DesignerServices
 90
     1024
 91
        0
280
     0
281
     0
  0
CLASS
  1
ACADIMPPTACAD
  2
AcAdVirtualImplicitPoint
  3
DesignerServices
 90
     1024
 91
        0
280
     0
281
     0
  0
CLASS
  1
ACADCONSPOINT
  2
AcAdConstrainedPoint
  3
DesignerServices
 90
     1024
 91
        0
280
     0
281
     0
  0
CLASS
  1
ADPCURCNS
  2
AcAdPointCurveConstr
  3
DesignerServices
 90
     1024
 91
        0
280
     0
281
     0
  0
CLASS
  1
ADHORCNS
  2
AcAdHorizontalConstr
  3
DesignerServices
 90
     1024
 91
        0
280
     0
281
     0
  0
CLASS
  1
ADVERCNS
  2
AcAdVerticalConstr
  3
DesignerServices
 90
     1024
 91
        0
280
     0
281
     0
  0
CLASS
  1
ADCLPROF2D
  2
AcAdClosedProfile2d
  3
DesignerServices
 90
     1024
 91
        0
280
     0
281
     0
  0
CLASS
  1
ACAD_FIXCONSTRAINT
  2
AcAdFixedConstraint
  3
DesignerServices
 90
     1024
 91
        0
280
     0
281
     0
  0
CLASS
  1
ACMELINEARARROW
  2
AcImLinearArrowDisplay
  3
AcMeServices
 90
     1024
 91
        0
280
     0
281
     1
  0
CLASS
  1
PARAM
  2
AcAdParam
  3
DesignerServices
 90
     1024
 91
        0
280
     0
281
     0
  0
CLASS
  1
ACADVOLFEATWITHTRIM
  2
AcAdVolFeatWithTrim
  3
DesignerServices
 90
     1024
 91
        0
280
     0
281
     0
  0
CLASS
  1
DEPEDGEFEATUREORDERING
  2
AcAdDepEdgeFeatureOrdering
  3
DesignerServices
 90
     1024
 91
        0
280
     0
281
     0
  0
CLASS
  1
ADWORKPOINTDISPLAY
  2
AcAdWorkPointDisplay
  3
DesignerServices
 90
     1024
 91
        0
280
     0
281
     1
  0
CLASS
  1
ADVIRTUALPOINTWORKPOINTFREE
  2
AcAdVirtualPointWorkPointFree
  3
DesignerServices
 90
     1024
 91
        0
280
     0
281
     0
  0
CLASS
  1
ADWORKPOINTSKETCH
  2
AcAdWorkPointSketch
  3
DesignerServices
 90
     1024
 91
        0
280
     0
281
     0
  0
CLASS
  1
ACADPARTDATUMPOINTRES
  2
AcAdPartDatumPointRes
  3
AdGrefServices
 90
     1024
 91
        0
280
     0
281
     0
  0
CLASS
  1
ACRFINSADJ
  2
AcRfInsAdjuster
  3
AcMeServices
 90
     1024
 91
        0
280
     0
281
     0
  0
CLASS
  1
DATUMPLANEDISPLAY
  2
AcAdDatumPlaneDisplay
  3
DesignerServices
 90
     1024
 91
        0
280
     0
281
     1
  0
CLASS
  1
ACADPARTDATUMPLANERES
  2
AcAdPartDatumPlaneRes
  3
AdGrefServices
 90
     1024
 91
        0
280
     0
281
     0
  0
CLASS
  1
ACMEPLINE
  2
AcImPlineDisplay
  3
AcMeServices
 90
     1024
 91
        0
280
     0
281
     1
  0
CLASS
  1
ACAD_CIRCLE
  2
AcAdCircle
  3
DesignerServices
 90
     1024
 91
        0
280
     0
281
     1
  0
CLASS
  1
ACADCIRCLEACAD
  2
AcAdVirtualCircleAcad
  3
DesignerServices
 90
     1024
 91
        0
280
     0
281
     0
  0
CLASS
  1
ACADCONSCIRCLE
  2
AcAdConstrainedCircle
  3
DesignerServices
 90
     1024
 91
        0
280
     0
281
     0
  0
CLASS
  1
ADCTRPTCNS
  2
AcAdCenterPointConstr
  3
DesignerServices
 90
     1024
 91
        0
280
     0
281
     0
  0
CLASS
  1
ACDBCIRCARCRES
  2
AcDbCircArcRes
  3
AcGrefServices
 90
     1024
 91
        0
280
     0
281
     0
  0
CLASS
  1
ACADSKETCHCIRCARCRES
  2
AcAdSketchCircArcRes
  3
DesignerServices
 90
     1024
 91
        0
280
     0
281
     0
  0
CLASS
  1
ADVIRTUALPOINTWORKPOINTFIXED
  2
AcAdVirtualPointWorkPointFixed
  3
DesignerServices
 90
     1024
 91
        0
280
     0
281
     0
  0
CLASS
  1
ADHDISTCNS
  2
AcAdHorizontalDistanceConstr
  3
DesignerServices
 90
     1024
 91
        0
280
     0
281
     0
  0
CLASS
  1
ACADSKETCHPOINTRES
  2
AcAdSketchPointRes
  3
DesignerServices
 90
     1024
 91
        0
280
     0
281
     0
  0
CLASS
  1
ADVDISTCNS
  2
AcAdVerticalDistanceConstr
  3
DesignerServices
 90
     1024
 91
        0
280
     0
281
     0
  0
CLASS
  1
ADACADDIACNS
  2
AcAdAcadDiameterConstr
  3
DesignerServices
 90
     1024
 91
        0
280
     0
281
     0
  0
CLASS
  1
AMIINSTATTCLASSRECORD
  2
AmiInstAttClassRecord
  3
AcAttribServices
 90
     1024
 91
        0
280
     0
281
     0
  0
CLASS
  1
AMIINSTATTIMP
  2
AmiInstAttImp
  3
AcAttribServices
 90
     1025
 91
        0
280
     0
281
     0
  0
CLASS
  1
ACRFOBJATTMGR
  2
AcRfObjAttGroupMgr
  3
AcAttribServices
 90
     1024
 91
        1
280
     0
281
     0
  0
CLASS
  1
ACRFMCADAPIATTHOLDER
  2
AcRfMCADAPIAttHolder
  3
AcAttribServices
 90
     1024
 91
        1
280
     0
281
     0
  0
CLASS
  1
FACEID
  2
AcAdFaceId
  3
DesignerServices
 90
     1024
 91
        0
280
     0
281
     0
  0
CLASS
  1
ACADPARTCYLINDERFACERES
  2
AcAdPartCylinderFaceRes
  3
AdGrefServices
 90
     1024
 91
        0
280
     0
281
     0
  0
CLASS
  1
ACADPARTPLANARFACERES
  2
AcAdPartPlanarFaceRes
  3
AdGrefServices
 90
     1024
 91
        0
280
     0
281
     0
  0
CLASS
  1
ADPLANEID
  2
AcAdPlaneId
  3
DesignerServices
 90
     1024
 91
        0
280
     0
281
     0
  0
CLASS
  1
ADDATUMPLANEFACE
  2
AcAdDatumPlaneFace
  3
DesignerServices
 90
     1024
 91
        0
280
     0
281
     0
  0
CLASS
  1
ADDATUMPLANEOFFSET
  2
AcAdDatumPlaneOffset
  3
DesignerServices
 90
     1024
 91
        0
280
     0
281
     0
  0
CLASS
  1
DATUMAXISDISPLAY
  2
AcAdDatumAxisDisplay
  3
DesignerServices
 90
     1024
 91
        0
280
     0
281
     1
  0
CLASS
  1
ADSURFGEOMID
  2
AcAdSurfGeomId
  3
DesignerServices
 90
     1024
 91
        0
280
     0
281
     0
  0
CLASS
  1
ADDATUMAXISCENTER
  2
AcAdDatumAxisCenter
  3
DesignerServices
 90
     1024
 91
        0
280
     0
281
     0
  0
CLASS
  1
ACADPARTAXISRES
  2
AcAdPartAxisRes
  3
AdGrefServices
 90
     1024
 91
        0
280
     0
281
     0
  0
CLASS
  1
ACDBLINERES
  2
AcDbLineRes
  3
AcGrefServices
 90
     1024
 91
        0
280
     0
281
     0
  0
CLASS
  1
ACADSKETCHLINERES
  2
AcAdSketchLineRes
  3
DesignerServices
 90
     1024
 91
        0
280
     0
281
     0
  0
CLASS
  1
ADCONSTDSP
  2
AcAdConstraintDisplayTag
  3
DesignerServices
 90
     1024
 91
        0
280
     0
281
     1
  0
CLASS
  1
ADCONSDISP
  2
AcAdConstraintDisplay
  3
DesignerServices
 90
     1024
 91
        0
280
     0
281
     1
  0
CLASS
  1
ADACADANGCNS
  2
AcAdAcadAngleConstr
  3
DesignerServices
 90
     1024
 91
        0
280
     0
281
     0
  0
CLASS
  1
ADPROJCNS
  2
AcAdProjectionConstr
  3
DesignerServices
 90
     1024
 91
        0
280
     0
281
     0
  0
CLASS
  1
ADCOLNCNS
  2
AcAdColinearConstr
  3
DesignerServices
 90
     1024
 91
        0
280
     0
281
     0
  0
CLASS
  1
ACADBOUNDEDLINEDATUMID
  2
AcAdVirtualBoundedLineDatumId
  3
DesignerServices
 90
     1024
 91
        0
280
     0
281
     0
  0
CLASS
  1
ACADPARTCONICALFACERES
  2
AcAdPartConicalFaceRes
  3
AdGrefServices
 90
     1024
 91
        0
280
     0
281
     0
  0
CLASS
  1
DEPEDGESECONDARYDEPID
  2
AcAdDepEdgeSecondaryDepId
  3
DesignerServices
 90
     1024
 91
        0
280
     0
281
     0
  0
CLASS
  1
AMACTIVEPARTSELECTFILTER
  2
AcDmActivePartViewEntFilter
  3
DesignerServices
 90
     1024
 91
        0
280
     0
281
     0
  0
CLASS
  1
AM_ABS_PLANE
  2
AcDmAbsPlnDef
  3
AcMechDwgViewMgmt
 90
     1024
 91
        0
280
     0
281
     0
  0
CLASS
  1
AM_ABS_AXIS
  2
AcDmAbsAxisDef
  3
AcMechDwgViewMgmt
 90
     1024
 91
        0
280
     0
281
     0
  0
CLASS
  1
AM_BASE_VIEW_ORIENT
  2
AcDmBaseViewOr
  3
AcMechDwgViewMgmt
 90
     1024
 91
        0
280
     0
281
     0
  0
CLASS
  1
AM_DWG_VIEWPORT
  2
AcDmViewport
  3
AcMechDwgViewMgmt
 90
     1024
 91
        0
280
     0
281
     0
  0
CLASS
  1
AM_VIEW_DISPLAY
  2
AcDmDwgViewDisplay
  3
AcMechDwgViewMgmt
 90
     1024
 91
        0
280
     0
281
     0
  0
CLASS
  1
AM_CLDFLTS
  2
AcDmClDflts
  3
AcMechDwgViewMgmt
 90
     1024
 91
        0
280
     0
281
     0
  0
CLASS
  1
AM_BASE_VIEW
  2
AcDmBaseView
  3
AcMechDwgViewMgmt
 90
     1024
 91
        0
280
     0
281
     0
  0
CLASS
  1
AM_ORTHO_VIEW_ORIENT
  2
AcDmOrthoViewOr
  3
AcMechDwgViewMgmt
 90
     1024
 91
        0
280
     0
281
     0
  0
CLASS
  1
AM_ORTHO_VIEW
  2
AcDmOrthoView
  3
AcMechDwgViewMgmt
 90
     1024
 91
        0
280
     0
281
     0
  0
CLASS
  1
AM_ISO_VIEW_ORIENT
  2
AcDmIsoViewOr
  3
AcMechDwgViewMgmt
 90
     1024
 91
        0
280
     0
281
     0
  0
CLASS
  1
AM_ISO_VIEW
  2
AcDmIsoView
  3
AcMechDwgViewMgmt
 90
     1024
 91
        0
280
     0
281
     0
  0
CLASS
  1
ACDMVWEDARC
  2
AcDmViewEdgeArc
  3
AcMechDwgViewMgmt
 90
     1024
 91
        0
280
     0
281
     1
  0
CLASS
  1
ACDMVWEDCIRC
  2
AcDmViewEdgeCircle
  3
AcMechDwgViewMgmt
 90
     1024
 91
        0
280
     0
281
     1
  0
CLASS
  1
ACDMVWEDLINE
  2
AcDmViewEdgeLine
  3
AcMechDwgViewMgmt
 90
     1024
 91
        0
280
     0
281
     1
  0
CLASS
  1
CNRREFID
  2
AcAdCornerId
  3
DesignerServices
 90
     1024
 91
        0
280
     0
281
     0
  0
CLASS
  1
ACADPARTPOINTRES
  2
AcAdPartPointRes
  3
AdGrefServices
 90
     1024
 91
        0
280
     0
281
     0
  0
CLASS
  1
ACADPARTSKETCHPLANEAXISRES
  2
AcAdPartSketchPlaneAxisRes
  3
DesignerServices
 90
     1024
 91
        0
280
     0
281
     0
  0
CLASS
  1
AM_VIEWDIMPARALLEL
  2
AcDmViewDimParallel
  3
AcMechDwgViewMgmt
 90
     1024
 91
        0
280
     0
281
     0
  0
CLASS
  1
AMDTDMPARMAPDATA
  2
AmdtDmDimParMapData
  3
AcMechDwgViewMgmt
 90
     1024
 91
        0
280
     0
281
     0
  0
CLASS
  1
AM_VIEWDIMLINEAR
  2
AcDmViewDimLinear
  3
AcMechDwgViewMgmt
 90
     1024
 91
        0
280
     0
281
     0
  0
CLASS
  1
AM_VIEWDIMANGULAR
  2
AcDmViewDimAngular
  3
AcMechDwgViewMgmt
 90
     1024
 91
        0
280
     0
281
     0
  0
CLASS
  1
AM_ADLINCTRLINE
  2
AcAdLineCl
  3
DesignerServices
 90
     1024
 91
        0
280
     0
281
     0
  0
CLASS
  1
AM_VIEWDIMDIAMETER
  2
AcDmViewDimDiameter
  3
AcMechDwgViewMgmt
 90
     1024
 91
        0
280
     0
281
     0
  0
CLASS
  1
AM_ADCIRCTRLINE
  2
AcAdBullsEyeCl
  3
DesignerServices
 90
     1024
 91
        0
280
     0
281
     0
  0
CLASS
  1
ACAMEXTERNALCOMPDEF
  2
AcAmExternalCompDef
  3
DesignerAssemblies
 90
     1024
 91
        0
280
     0
281
     0
  0
CLASS
  1
ACAMVIEWENTITYFILTER
  2
AcAmViewEntityFilter
  3
DesignerAssemblies
 90
     1024
 91
        0
280
     0
281
     0
  0
CLASS
  1
ACAMCOMPVIEWREACTOR
  2
AcAmGrCompViewReactor
  3
DesignerAssemblies
 90
     1024
 91
        0
280
     0
281
     0
  0
CLASS
  1
ACAMCOMPENTVIEW
  2
AcAmCompEntView
  3
DesignerAssemblies
 90
     1024
 91
        0
280
     0
281
     1
  0
CLASS
  1
AD_LINETAPH
  2
AcAdTapHoleLineDisp
  3
DesignerServices
 90
     1024
 91
        0
280
     0
281
     0
  0
CLASS
  1
SILEDGEID
  2
AcAdSilhouetteEdgeId
  3
DesignerServices
 90
     1024
 91
        0
280
     0
281
     0
  0
CLASS
  1
ACADPARTLINEDGRES
  2
AcAdPartLinEdgRes
  3
AdGrefServices
 90
     1024
 91
        0
280
     0
281
     0
  0
CLASS
  1
AM_PERPCTRLINE
  2
AcDmLineCl
  3
AcMechDwgViewMgmt
 90
     1024
 91
        0
280
     0
281
     0
  0
CLASS
  1
ACRFDMINSADJ
  2
AcRfDMInsAdjuster
  3
AcMechDwgViewMgmt
 90
     1024
 91
        0
280
     0
281
     0
  0
CLASS
  1
EDGEID
  2
AcAdEdgeId
  3
DesignerServices
 90
     1024
 91
        0
280
     0
281
     0
  0
CLASS
  1
ACADPARTCIRCEDGRES
  2
AcAdPartCircEdgRes
  3
AdGrefServices
 90
     1024
 91
        0
280
     0
281
     0
  0
CLASS
  1
CIRREFID
  2
AcAdCircleRefId
  3
DesignerServices
 90
     1024
 91
        0
280
     0
281
     0
  0
CLASS
  1
AM_VIEWDIMRADIUS
  2
AcDmViewDimRadius
  3
AcMechDwgViewMgmt
 90
     1024
 91
        0
280
     0
281
     0
  0
CLASS
  1
AMDTMAPISURFMOUDULE
  2
AmdtMApiSurfModule
  3
MApiSurfServices
 90
     1024
 91
        1
280
     0
281
     0
  0
CLASS
  1
ACDMPARTVIEWDATA
  2
AcDmPartViewData
  3
AcMechDwgViewMgmt
 90
     1024
 91
        0
280
     0
281
     0
  0
CLASS
  1
ACDMDISPLAYATTRIBS
  2
AcDmDisplayAttribs
  3
AcMechDwgViewMgmt
 90
     1024
 91
        0
280
     0
281
     0
  0
CLASS
  1
ACDMBODYINSTANCEDATA
  2
AcDmBodyInstanceData
  3
AcMechDwgViewMgmt
 90
     1024
 91
        0
280
     0
281
     0
  0
CLASS
  1
ACAMGTITLESTD
  2
AcAmgTitleStd
  3
"AmgTitle|Product Description: AutoCAD Mechanical|Company: Autodesk, Inc."
 90
     4095
 91
        2
280
     0
281
     0
  0
CLASS
  1
ACMDETAILSTANDARDJIS
  2
AmdtDetailSymStdJIS
  3
"Amdt_StdImp|Product Description: AutoCAD Mechanical|Company: Autodesk, Inc."
 90
     1024
 91
        0
280
     0
281
     0
  0
CLASS
  1
ACMSECTIONSTANDARDJIS
  2
AmdtSectionSymStdJIS
  3
"Amdt_StdImp|Product Description: AutoCAD Mechanical|Company: Autodesk, Inc."
 90
     1024
 91
        0
280
     0
281
     0
  0
CLASS
  1
ACMCENTERLINESTANDARDJIS
  2
AmdtCenterLineStdJIS
  3
"Amdt_StdImp|Product Description: AutoCAD Mechanical|Company: Autodesk, Inc."
 90
     1024
 91
        0
280
     0
281
     0
  0
CLASS
  1
ACMTHREADLINESTANDARDCSN
  2
AmdtThreadLineStdCSN
  3
"Amdt_StdImp|Product Description: AutoCAD Mechanical|Company: Autodesk, Inc."
 90
     1024
 91
        1
280
     0
281
     0
  0
CLASS
  1
ACMDETAILSTANDARDANSI
  2
AmdtDetailSymStdANSI
  3
"Amdt_StdImp|Product Description: AutoCAD Mechanical|Company: Autodesk, Inc."
 90
     1024
 91
        1
280
     0
281
     0
  0
CLASS
  1
ACMSECTIONSTANDARDANSI
  2
AmdtSectionSymStdANSI
  3
"Amdt_StdImp|Product Description: AutoCAD Mechanical|Company: Autodesk, Inc."
 90
     1024
 91
        1
280
     0
281
     0
  0
CLASS
  1
ACMCENTERLINESTANDARDANSI
  2
AmdtCenterLineStdANSI
  3
"Amdt_StdImp|Product Description: AutoCAD Mechanical|Company: Autodesk, Inc."
 90
     1024
 91
        1
280
     0
281
     0
  0
CLASS
  1
ACMDETAILSTANDARDBSI
  2
AmdtDetailSymStdBSI
  3
"Amdt_StdImp|Product Description: AutoCAD Mechanical|Company: Autodesk, Inc."
 90
     1024
 91
        0
280
     0
281
     0
  0
CLASS
  1
ACMSECTIONSTANDARDBSI
  2
AmdtSectionSymStdBSI
  3
"Amdt_StdImp|Product Description: AutoCAD Mechanical|Company: Autodesk, Inc."
 90
     1024
 91
        0
280
     0
281
     0
  0
CLASS
  1
ACMCENTERLINESTANDARDBSI
  2
AmdtCenterLineStdBSI
  3
"Amdt_StdImp|Product Description: AutoCAD Mechanical|Company: Autodesk, Inc."
 90
     1024
 91
        0
280
     0
281
     0
  0
CLASS
  1
ACMDETAILSTANDARDDIN
  2
AmdtDetailSymStdDIN
  3
"Amdt_StdImp|Product Description: AutoCAD Mechanical|Company: Autodesk, Inc."
 90
     1024
 91
        1
280
     0
281
     0
  0
CLASS
  1
ACMSECTIONSTANDARDDIN
  2
AmdtSectionSymStdDIN
  3
"Amdt_StdImp|Product Description: AutoCAD Mechanical|Company: Autodesk, Inc."
 90
     1024
 91
        1
280
     0
281
     0
  0
CLASS
  1
ACMCENTERLINESTANDARDDIN
  2
AmdtCenterLineStdDIN
  3
"Amdt_StdImp|Product Description: AutoCAD Mechanical|Company: Autodesk, Inc."
 90
     1024
 91
        1
280
     0
281
     0
  0
CLASS
  1
AMDTEDGESTANDARDISO
  2
AmdtEdgeStdISO
  3
"Amdt_StdImp|Product Description: AutoCAD Mechanical|Company: Autodesk, Inc."
 90
     1024
 91
        0
280
     0
281
     0
  0
CLASS
  1
ACMDETAILSTANDARDISO
  2
AmdtDetailSymStdISO
  3
"Amdt_StdImp|Product Description: AutoCAD Mechanical|Company: Autodesk, Inc."
 90
     1024
 91
        0
280
     0
281
     0
  0
CLASS
  1
ACMSECTIONSTANDARDISO
  2
AmdtSectionSymStdISO
  3
"Amdt_StdImp|Product Description: AutoCAD Mechanical|Company: Autodesk, Inc."
 90
     1024
 91
        0
280
     0
281
     0
  0
CLASS
  1
ACMCENTERLINESTANDARDISO
  2
AmdtCenterLineStdISO
  3
"Amdt_StdImp|Product Description: AutoCAD Mechanical|Company: Autodesk, Inc."
 90
     1024
 91
        0
280
     0
281
     0
  0
CLASS
  1
ACAMGLAYSTD
  2
AcAmgLayStd
  3
"AmgLay|Product Description: AutoCAD Mechanical|Company: Autodesk, Inc."
 90
     1024
 91
        2
280
     0
281
     0
  0
CLASS
  1
ACAMGDIMSTD
  2
AcAmgDimStd
  3
"AmgDim|Product Description: AutoCAD Mechanical|Company: Autodesk, Inc."
 90
     1024
 91
        2
280
     0
281
     0
  0
CLASS
  1
MATERIAL
  2
AcDbMaterial
  3
ObjectDBX Classes
 90
     1153
 91
        3
280
     0
281
     0
  0
CLASS
  1
VISUALSTYLE
  2
AcDbVisualStyle
  3
ObjectDBX Classes
 90
     4095
 91
       16
280
     0
281
     0
  0
CLASS
  1
TABLESTYLE
  2
AcDbTableStyle
  3
ObjectDBX Classes
 90
     4095
 91
        1
280
     0
281
     0
  0
CLASS
  1
SCALE
  2
AcDbScale
  3
ObjectDBX Classes
 90
     1153
 91
       33
280
     0
281
     0
  0
CLASS
  1
MLEADERSTYLE
  2
AcDbMLeaderStyle
  3
ACDB_MLEADERSTYLE_CLASS
 90
     4095
 91
        1
280
     0
281
     0
  0
CLASS
  1
AMDTSYSATTR
  2
AmdtSystemAttribute
  3
AcAttribServices
 90
     1024
 91
        1
280
     0
281
     0
  0
CLASS
  1
ACMNOTESTANDARDDIN
  2
AmdtNoteStdDIN
  3
"Amdt_StdImp|Product Description: AutoCAD Mechanical|Company: Autodesk, Inc."
 90
     1024
 91
        1
280
     0
281
     0
  0
CLASS
  1
AMDTNOTETEMPLATEDB
  2
AmdtNoteTemplateDB
  3
AcmSymBB|Product Description: AutoCAD Mechanical|Company: Autodesk, Inc.
 90
     1024
 91
       12
280
     0
281
     0
  0
CLASS
  1
ACMTAPERSTANDARDDIN
  2
AcmTaperStdDIN
  3
"Amdt_StdImp|Product Description: AutoCAD Mechanical|Company: Autodesk, Inc."
 90
     1024
 91
        1
280
     0
281
     0
  0
CLASS
  1
ACMANOOTATIONVIEWSTANDARDDIN
  2
AmdtAnViewStdDIN
  3
"Amdt_StdImp|Product Description: AutoCAD Mechanical|Company: Autodesk, Inc."
 90
     1024
 91
        1
280
     0
281
     0
  0
CLASS
  1
CELLSTYLEMAP
  2
AcDbCellStyleMap
  3
ObjectDBX Classes
 90
     1152
 91
        4
280
     0
281
     0
  0
CLASS
  1
SORTENTSTABLE
  2
AcDbSortentsTable
  3
ObjectDBX Classes
 90
        0
 91
        1
280
     0
281
     0
  0
CLASS
  1
ACMTHREADLINESTANDARDANSI
  2
AmdtThreadLineStdANSI
  3
"Amdt_StdImp|Product Description: AutoCAD Mechanical|Company: Autodesk, Inc."
 90
     1024
 91
        1
280
     0
281
     0
  0
CLASS
  1
ACMNOTESTANDARDANSI
  2
AmdtNoteStdANSI
  3
"Amdt_StdImp|Product Description: AutoCAD Mechanical|Company: Autodesk, Inc."
 90
     1024
 91
        1
280
     0
281
     0
  0
CLASS
  1
ACMTAPERSTANDARDANSI
  2
AcmTaperStdANSI
  3
"Amdt_StdImp|Product Description: AutoCAD Mechanical|Company: Autodesk, Inc."
 90
     1024
 91
        1
280
     0
281
     0
  0
CLASS
  1
ACMANOOTATIONVIEWSTANDARDANSI
  2
AmdtAnViewStdANSI
  3
"Amdt_StdImp|Product Description: AutoCAD Mechanical|Company: Autodesk, Inc."
 90
     1024
 91
        1
280
     0
281
     0
  0
CLASS
  1
ACAMGHOLECHARTSTDANSI
  2
AcAmgHoleChartStdANSI
  3
AmgDim|Product Description: AutoCAD Mechanical|Company: Autodesk, Inc.
 90
     1024
 91
        1
280
     0
281
     0
  0
ENDSEC
  0
SECTION
  2
TABLES
  0
TABLE
  2
VPORT
  5
1A
330
0
100
AcDbSymbolTable
 70
     1
  0
VPORT
  5
34F
330
1A
100
AcDbSymbolTableRecord
100
AcDbViewportTableRecord
  2
*Active
 70
     0
 10
0.0
 20
0.0
 11
1.0
 21
1.0
 12
-5.207896140581851
 22
9.301329241141814
 13
0.0
 23
0.0
 14
10.0
 24
10.0
 15
10.0
 25
10.0
 16
0.0
 26
0.0
 36
1.0
 17
133.3330199578282
 27
151.7531092167691
 37
0.0
 40
367.9065175630066
 41
1.599591419816138
 42
50.0
 43
0.0
 44
0.0
 50
0.0
 51
0.0
 71
     0
 72
  1000
 73
     1
 74
     1
 75
     0
 76
     0
 77
     0
 78
     0
281
     0
 65
     0
110
0.0
120
0.0
130
0.0
111
1.0
121
0.0
131
0.0
112
0.0
122
1.0
132
0.0
 79
     0
146
0.0
348
370
 60
     3
 61
     5
292
     1
282
     1
141
0.0
142
0.0
 63
   250
421
  3355443
  0
ENDTAB
  0
TABLE
  2
LTYPE
  5
15
330
0
100
AcDbSymbolTable
 70
    39
  0
LTYPE
  5
16
330
15
100
AcDbSymbolTableRecord
100
AcDbLinetypeTableRecord
  2
BYBLOCK
 70
     0
  3

 72
    65
 73
     0
 40
0.0
  0
LTYPE
  5
17
330
15
100
AcDbSymbolTableRecord
100
AcDbLinetypeTableRecord
  2
BYLAYER
 70
     0
  3

 72
    65
 73
     0
 40
0.0
  0
LTYPE
  5
9
330
15
100
AcDbSymbolTableRecord
100
AcDbLinetypeTableRecord
  2
CONTINUOUS
 70
     0
  3
Solid line
 72
    65
 73
     0
 40
0.0
  0
LTYPE
  5
148
330
15
100
AcDbSymbolTableRecord
100
AcDbLinetypeTableRecord
  2
AM_ISO02W050
 70
     0
  3
__ __ __ __ __ __ __ __ __ __ __ __ __ __ __
 72
    65
 73
     2
 40
7.5
 49
6.0
 74
     0
 49
-1.5
 74
     0
  0
LTYPE
  5
133
330
15
100
AcDbSymbolTableRecord
100
AcDbLinetypeTableRecord
  2
AM_ISO08W050
 70
     0
  3
____ . ____ . ____ . ____ . ____ . ____ . ____
 72
    65
 73
     4
 40
18.0
 49
12.0
 74
     0
 49
-1.5
 74
     0
 49
3.0
 74
     0
 49
-1.5
 74
     0
  0
LTYPE
  5
53
330
15
100
AcDbSymbolTableRecord
100
AcDbLinetypeTableRecord
  2
VERDECKT
 70
     0
  3
Verdeckt __ __ __ __ __ __ __ __ __ __ __ __ __
 72
    65
 73
     2
 40
9.524999999999998
 49
6.349999999999999
 74
     0
 49
-3.174999999999999
 74
     0
  0
LTYPE
  5
A5
330
15
100
AcDbSymbolTableRecord
100
AcDbLinetypeTableRecord
  2
CONTINU
 70
     0
  3

 72
    65
 73
     0
 40
0.0
  0
LTYPE
  5
1C4
330
15
100
AcDbSymbolTableRecord
100
AcDbLinetypeTableRecord
  2
HIDDEN
 70
     0
  3
Verdeckt
 72
    65
 73
     2
 40
9.525
 49
6.349999999999999
 74
     0
 49
-3.174999999999999
 74
     0
  0
LTYPE
  5
1C5
330
15
100
AcDbSymbolTableRecord
100
AcDbLinetypeTableRecord
  2
PHANTOM2
 70
     0
  3
Phantom (.5x) ___ _ _ ___ _ _ ___ _ _ ___ _ _
 72
    65
 73
     6
 40
31.75
 49
15.875
 74
     0
 49
-3.174999999999999
 74
     0
 49
3.174999999999999
 74
     0
 49
-3.174999999999999
 74
     0
 49
3.174999999999999
 74
     0
 49
-3.174999999999999
 74
     0
  0
LTYPE
  5
1C6
330
15
100
AcDbSymbolTableRecord
100
AcDbLinetypeTableRecord
  2
CENTER
 70
     0
  3
Mitte ____ _ ____ _ ____ _ ____ _ ____ _ ____
 72
    65
 73
     4
 40
50.8
 49
31.75
 74
     0
 49
-6.349999999999999
 74
     0
 49
6.349999999999999
 74
     0
 49
-6.349999999999999
 74
     0
  0
LTYPE
  5
226
330
15
100
AcDbSymbolTableRecord
100
AcDbLinetypeTableRecord
  2
ASULTYPE
 70
     0
  3
Ausgezogene Linie
 72
    65
 73
     2
 40
3.0
 49
2.5
 74
     0
 49
0.5
 74
     0
  0
LTYPE
  5
227
330
15
100
AcDbSymbolTableRecord
100
AcDbLinetypeTableRecord
  2
ASVLTYPE
 70
     0
  3
__ __ __ __ __ __ __ __ __ __ __ __ __ __ __ __ __ __ __ __ __
 72
    65
 73
     2
 40
0.75
 49
0.5
 74
     0
 49
-0.25
 74
     0
  0
LTYPE
  5
26E
330
15
100
AcDbSymbolTableRecord
100
AcDbLinetypeTableRecord
  2
AM_ISO09W050
 70
     0
  3
_____ . . _____ . . _____ . . ____ .. ____
 72
    65
 73
     6
 40
22.5
 49
12.0
 74
     0
 49
-1.5
 74
     0
 49
3.0
 74
     0
 49
-1.5
 74
     0
 49
3.0
 74
     0
 49
-1.5
 74
     0
  0
LTYPE
  5
26F
330
15
100
AcDbSymbolTableRecord
100
AcDbLinetypeTableRecord
  2
Amconstr
 70
     0
  3
_______________________
 72
    65
 73
     2
 40
9999.0
 49
9999.0
 74
     0
 49
0.0
 74
     0
  0
LTYPE
  5
270
330
15
100
AcDbSymbolTableRecord
100
AcDbLinetypeTableRecord
  2
AM_ISO08W050x2
 70
     0
  3
__ . __ . __ . __ . __ . __
 72
    65
 73
     4
 40
9.0
 49
6.0
 74
     0
 49
-0.75
 74
     0
 49
1.5
 74
     0
 49
-0.75
 74
     0
  0
LTYPE
  5
271
330
15
100
AcDbSymbolTableRecord
100
AcDbLinetypeTableRecord
  2
AM_ISO02W050x2
 70
     0
  3
 _ _ _ _ _ _ _ _ _ _ _ _
 72
    65
 73
     2
 40
3.75
 49
3.0
 74
     0
 49
-0.75
 74
     0
  0
LTYPE
  5
274
330
15
100
AcDbSymbolTableRecord
100
AcDbLinetypeTableRecord
  2
Amzigzag
 70
     0
  3
/\/-/\/-/\/-/\/-/\/-/\/
 72
    65
 73
     2
 40
11.0001
 49
0.0001
 74
     4
 75
   135
340
273
 46
0.04
 50
0.0
 44
0.0
 45
0.0
 49
-11.0
 74
     0
  0
LTYPE
  5
275
330
15
100
AcDbSymbolTableRecord
100
AcDbLinetypeTableRecord
  2
AM_DIN_F_W050
 70
     0
  3
__ __ __ __ __ __ __ __ __ __ __ __ __ __ __
 72
    65
 73
     2
 40
6.25
 49
4.75
 74
     0
 49
-1.5
 74
     0
  0
LTYPE
  5
276
330
15
100
AcDbSymbolTableRecord
100
AcDbLinetypeTableRecord
  2
AM_DIN_G_W050
 70
     0
  3
____ . ____ . ____ . ____ . ____ . ____ . ____
 72
    65
 73
     4
 40
13.75
 49
9.75
 74
     0
 49
-1.5
 74
     0
 49
1.0
 74
     0
 49
-1.5
 74
     0
  0
LTYPE
  5
277
330
15
100
AcDbSymbolTableRecord
100
AcDbLinetypeTableRecord
  2
AM_DIN_K_W050
 70
     0
  3
_____ . . _____ . . _____ . . ____ .. ____
 72
    65
 73
     6
 40
16.25
 49
9.75
 74
     0
 49
-1.5
 74
     0
 49
1.0
 74
     0
 49
-1.5
 74
     0
 49
1.0
 74
     0
 49
-1.5
 74
     0
  0
LTYPE
  5
278
330
15
100
AcDbSymbolTableRecord
100
AcDbLinetypeTableRecord
  2
AM_DIN_G_W050x2
 70
     0
  3
__ . __ . __ . __ . __ . __
 72
    65
 73
     4
 40
6.875
 49
4.75
 74
     0
 49
-0.875
 74
     0
 49
0.375
 74
     0
 49
-0.875
 74
     0
  0
LTYPE
  5
279
330
15
100
AcDbSymbolTableRecord
100
AcDbLinetypeTableRecord
  2
AM_DIN_F_W050x2
 70
     0
  3
 _ _ _ _ _ _ _ _ _ _ _ _
 72
    65
 73
     2
 40
3.125
 49
2.25
 74
     0
 49
-0.875
 74
     0
  0
LTYPE
  5
287
330
15
100
AcDbSymbolTableRecord
100
AcDbLinetypeTableRecord
  2
ACDINWELD
 70
     0
  3
_ _ _ _ _
 72
    65
 73
     2
 40
2.0
 49
2.0
 74
     0
 49
-1.0
 74
     0
  0
LTYPE
  5
288
330
15
100
AcDbSymbolTableRecord
100
AcDbLinetypeTableRecord
  2
ACDINTGB
 70
     0
  3
__ . . __ . .
 72
    65
 73
     6
 40
9.0
 49
4.0
 74
     0
 49
-1.0
 74
     0
 49
1.0
 74
     0
 49
-1.0
 74
     0
 49
1.0
 74
     0
 49
-1.0
 74
     0
  0
LTYPE
  5
289
330
15
100
AcDbSymbolTableRecord
100
AcDbLinetypeTableRecord
  2
ACDINTGL
 70
     0
  3
_ _ _ _ _
 72
    65
 73
     2
 40
3.0
 49
2.0
 74
     0
 49
-1.0
 74
     0
  0
LTYPE
  5
3F3
330
15
100
AcDbSymbolTableRecord
100
AcDbLinetypeTableRecord
  2
CENTER2
 70
     0
  3
Center (.5x) ___ _ ___ _ ___ _ ___ _ ___ _ ___
 72
    65
 73
     4
 40
28.575
 49
19.05
 74
     0
 49
-3.174999999999998
 74
     0
 49
3.174999999999998
 74
     0
 49
-3.174999999999998
 74
     0
  0
LTYPE
  5
3F4
330
15
100
AcDbSymbolTableRecord
100
AcDbLinetypeTableRecord
  2
HIDDEN2
 70
     0
  3
Hidden (.5x) _ _ _ _ _ _ _ _ _ _ _ _ _ _ _ _ _
 72
    65
 73
     2
 40
4.762499999999999
 49
3.174999999999998
 74
     0
 49
-1.587499999999999
 74
     0
  0
LTYPE
  5
3F5
330
15
100
AcDbSymbolTableRecord
100
AcDbLinetypeTableRecord
  2
ACANSTGB
 70
     0
  3
__ . . __ . .
 72
    65
 73
     6
 40
0.35433070866
 49
0.15748031496
 74
     0
 49
-0.03937007874
 74
     0
 49
0.03937007874
 74
     0
 49
-0.03937007874
 74
     0
 49
0.03937007874
 74
     0
 49
-0.03937007874
 74
     0
  0
LTYPE
  5
3F6
330
15
100
AcDbSymbolTableRecord
100
AcDbLinetypeTableRecord
  2
ACANSTGL
 70
     0
  3
_ _ _ _ _
 72
    65
 73
     2
 40
0.11811023622
 49
0.07874015748
 74
     0
 49
-0.03937007874
 74
     0
  0
LTYPE
  5
5DB
330
15
100
AcDbSymbolTableRecord
100
AcDbLinetypeTableRecord
  2
CHAIN
 70
     0
  3
Chain ____ _ ____ _ ____ _ ____ _ ____ _ ____
 72
    65
 73
     4
 40
0.3543
 49
0.2362
 74
     0
 49
-0.0295
 74
     0
 49
0.0591
 74
     0
 49
-0.0295
 74
     0
  0
LTYPE
  5
5DC
330
15
100
AcDbSymbolTableRecord
100
AcDbLinetypeTableRecord
  2
DASHED
 70
     0
  3
Dashed __ __ __ __ __ __ __ __ __ __ __ __ __ _
 72
    65
 73
     2
 40
0.2068
 49
0.1655
 74
     0
 49
-0.0413
 74
     0
  0
LTYPE
  5
5DD
330
15
100
AcDbSymbolTableRecord
100
AcDbLinetypeTableRecord
  2
LONG_DASH_DOTTED
 70
     0
  3
Long Dash Dotted ____ . ____ . ____ . ____ . _
 72
    65
 73
     4
 40
0.3001
 49
0.2362
 74
     0
 49
-0.0295
 74
     0
 49
0.0049
 74
     0
 49
-0.0295
 74
     0
  0
LTYPE
  5
B6B
330
15
100
AcDbSymbolTableRecord
100
AcDbLinetypeTableRecord
  2
GEN7
 70
     0
  3
____ . ____ . ____ . ____ . ___
 72
    65
 73
     4
 40
13.75
 49
9.75
 74
     0
 49
-1.5
 74
     0
 49
1.0
 74
     0
 49
-1.5
 74
     0
  0
LTYPE
  5
B6C
330
15
100
AcDbSymbolTableRecord
100
AcDbLinetypeTableRecord
  2
GEN3
 70
     0
  3
-- -- -- -- -- -- -- -- -- -- -
 72
    65
 73
     2
 40
6.25
 49
4.75
 74
     0
 49
-1.5
 74
     0
  0
LTYPE
  5
B6D
330
15
100
AcDbSymbolTableRecord
100
AcDbLinetypeTableRecord
  2
GEN3A
 70
     0
  3
 - - - - -
 72
    65
 73
     2
 40
3.125
 49
2.25
 74
     0
 49
-0.875
 74
     0
  0
LTYPE
  5
B6E
330
15
100
AcDbSymbolTableRecord
100
AcDbLinetypeTableRecord
  2
GEN4A
 70
     0
  3
_____ . . _____ . . _____ . . _
 72
    65
 73
     6
 40
16.25
 49
9.75
 74
     0
 49
-1.5
 74
     0
 49
1.0
 74
     0
 49
-1.5
 74
     0
 49
1.0
 74
     0
 49
-1.5
 74
     0
  0
LTYPE
  5
B6F
330
15
100
AcDbSymbolTableRecord
100
AcDbLinetypeTableRecord
  2
GEN7A
 70
     0
  3
__ . __ . __
 72
    65
 73
     4
 40
6.875
 49
4.75
 74
     0
 49
-0.875
 74
     0
 49
0.375
 74
     0
 49
-0.875
 74
     0
  0
LTYPE
  5
B70
330
15
100
AcDbSymbolTableRecord
100
AcDbLinetypeTableRecord
  2
ACANSTGBM
 70
     0
  3
__ . . __ . .
 72
    65
 73
     6
 40
9.0
 49
4.0
 74
     0
 49
-1.0
 74
     0
 49
1.0
 74
     0
 49
-1.0
 74
     0
 49
1.0
 74
     0
 49
-1.0
 74
     0
  0
LTYPE
  5
B71
330
15
100
AcDbSymbolTableRecord
100
AcDbLinetypeTableRecord
  2
ACANSTGLM
 70
     0
  3
_ _ _ _ _
 72
    65
 73
     2
 40
3.0
 49
2.0
 74
     0
 49
-1.0
 74
     0
  0
LTYPE
  5
B72
330
15
100
AcDbSymbolTableRecord
100
AcDbLinetypeTableRecord
  2
genzigzag
 70
     0
  3
/\/-/\/-/\/-/\/-/\/-/\/
 72
    65
 73
     2
 40
12.0001
 49
0.0001
 74
     4
 75
   135
340
B75
 46
2.0
 50
0.0
 44
0.0
 45
0.0
 49
-12.0
 74
     0
  0
ENDTAB
  0
TABLE
  2
LAYER
  5
11
102
{ACAD_XDICTIONARY
360
B7F
102
}
330
0
100
AcDbSymbolTable
 70
    25
  0
LAYER
  5
5
102
{ACAD_XDICTIONARY
360
3CE
102
}
330
11
100
AcDbSymbolTableRecord
100
AcDbLayerTableRecord
  2
0
 70
     0
 62
     7
  6
CONTINUOUS
370
    -3
390
6
347
362
  0
LAYER
  5
29
102
{ACAD_XDICTIONARY
360
3D0
102
}
330
11
100
AcDbSymbolTableRecord
100
AcDbLayerTableRecord
  2
AM_0
 70
     0
 62
     7
  6
CONTINUOUS
370
    50
390
6
347
362
  0
LAYER
  5
52
102
{ACAD_XDICTIONARY
360
3D2
102
}
330
11
100
AcDbSymbolTableRecord
100
AcDbLayerTableRecord
  2
AM_4
 70
     0
 62
     3
  6
CONTINUOUS
370
    25
390
6
347
362
  0
LAYER
  5
5A
102
{ACAD_XDICTIONARY
360
3D4
102
}
330
11
100
AcDbSymbolTableRecord
100
AcDbLayerTableRecord
  2
AM_5
 70
     0
 62
     3
  6
CONTINUOUS
370
    25
390
6
347
362
  0
LAYER
  5
132
102
{ACAD_XDICTIONARY
360
3D6
102
}
330
11
100
AcDbSymbolTableRecord
100
AcDbLayerTableRecord
  2
AM_7
 70
     0
 62
     1
  6
AM_ISO08W050
370
    25
390
6
347
362
  0
LAYER
  5
35
330
11
100
AcDbSymbolTableRecord
100
AcDbLayerTableRecord
  2
Defpoints
 70
     0
 62
     7
  6
CONTINUOUS
290
     0
370
    -3
390
6
347
362
  0
LAYER
  5
14B
102
{ACAD_XDICTIONARY
360
3D8
102
}
330
11
100
AcDbSymbolTableRecord
100
AcDbLayerTableRecord
  2
AM_VIS
 70
     0
 62
     7
  6
CONTINUOUS
370
    50
390
6
347
362
  0
LAYER
  5
147
102
{ACAD_XDICTIONARY
360
3DA
102
}
330
11
100
AcDbSymbolTableRecord
100
AcDbLayerTableRecord
  2
AM_HID
 70
     0
 62
     6
  6
AM_ISO02W050
370
    25
390
6
347
362
  0
LAYER
  5
2C
102
{ACAD_XDICTIONARY
360
3DC
102
}
330
11
100
AcDbSymbolTableRecord
100
AcDbLayerTableRecord
  2
AM_REFDIM
 70
     0
 62
     1
  6
CONTINUOUS
370
    25
390
6
347
362
  0
LAYER
  5
7C
102
{ACAD_XDICTIONARY
360
3DE
102
}
330
11
100
AcDbSymbolTableRecord
100
AcDbLayerTableRecord
  2
RAHM2
 70
     0
 62
     1
  6
CONTINUOUS
370
    -3
390
6
347
362
  0
LAYER
  5
82
102
{ACAD_XDICTIONARY
360
3E0
102
}
330
11
100
AcDbSymbolTableRecord
100
AcDbLayerTableRecord
  2
RAHM3
 70
     0
 62
     2
  6
CONTINUOUS
370
    -3
390
6
347
362
  0
LAYER
  5
7F
102
{ACAD_XDICTIONARY
360
3E2
102
}
330
11
100
AcDbSymbolTableRecord
100
AcDbLayerTableRecord
  2
RAHM5
 70
     0
 62
     7
  6
CONTINUOUS
370
    -3
390
6
347
362
  0
LAYER
  5
C8
102
{ACAD_XDICTIONARY
360
3E4
102
}
330
11
100
AcDbSymbolTableRecord
100
AcDbLayerTableRecord
  2
KOPF
 70
     0
 62
     7
  6
CONTINUOUS
370
    -3
390
6
347
362
  0
LAYER
  5
2B9
102
{ACAD_XDICTIONARY
360
3E6
102
}
330
11
100
AcDbSymbolTableRecord
100
AcDbLayerTableRecord
  2
AM_VIEWS
 70
     1
 62
    -1
  6
CONTINUOUS
290
     0
370
    25
390
6
347
362
  0
LAYER
  5
348
102
{ACAD_XDICTIONARY
360
3E8
102
}
330
11
100
AcDbSymbolTableRecord
100
AcDbLayerTableRecord
  2
AM_6
 70
     0
 62
     2
  6
CONTINUOUS
370
    35
390
6
347
362
  0
LAYER
  5
3F7
330
11
100
AcDbSymbolTableRecord
100
AcDbLayerTableRecord
  2
SICHTBARE_KANTEN_GLUTZ_IAM
 70
     0
 62
     7
  6
CONTINUOUS
370
    -3
390
6
347
362
  0
LAYER
  5
3F8
330
11
100
AcDbSymbolTableRecord
100
AcDbLayerTableRecord
  2
SKIZZIERGEOMETRIE_GLUTZ_IA
 70
     0
 62
     7
  6
CONTINUOUS
370
    -3
390
6
347
362
  0
LAYER
  5
54B
330
11
100
AcDbSymbolTableRecord
100
AcDbLayerTableRecord
  2
AM_CL
 70
     0
 62
     1
  6
Amconstr
370
    25
390
6
347
362
1001
AcAecLayerStandard
1000

1000

  0
LAYER
  5
5DE
330
11
100
AcDbSymbolTableRecord
100
AcDbLayerTableRecord
  2
BEMAßUNGEN_ISO-ZOPH_
 70
     0
 62
     7
  6
CONTINUOUS
370
    -3
390
6
347
362
  0
LAYER
  5
5DF
330
11
100
AcDbSymbolTableRecord
100
AcDbLayerTableRecord
  2
INFO_ISO-ZOPH_
 70
     0
 62
     7
  6
CONTINUOUS
370
    -3
390
6
347
362
  0
LAYER
  5
5E0
330
11
100
AcDbSymbolTableRecord
100
AcDbLayerTableRecord
  2
MITTELPUNKTMARKIERUNG_ISO-
 70
     0
 62
     7
  6
CONTINUOUS
370
    -3
390
6
347
362
  0
LAYER
  5
5E1
330
11
100
AcDbSymbolTableRecord
100
AcDbLayerTableRecord
  2
SCHNITTANSICHTSLINIEN_ISO-
 70
     0
 62
     7
  6
LONG_DASH_DOTTED
370
    -3
390
6
347
362
  0
LAYER
  5
5E2
330
11
100
AcDbSymbolTableRecord
100
AcDbLayerTableRecord
  2
SICHTBARE_KANTEN_ISO-ZOPH_
 70
     0
 62
     7
  6
CONTINUOUS
370
    -3
390
6
347
362
  0
LAYER
  5
5E3
330
11
100
AcDbSymbolTableRecord
100
AcDbLayerTableRecord
  2
VERDECKTE_KANTEN_ISO-ZOPH_
 70
     0
 62
     7
  6
DASHED
370
    -3
390
6
347
362
  0
LAYER
  5
B73
102
{ACAD_XDICTIONARY
360
B74
102
}
330
11
100
AcDbSymbolTableRecord
100
AcDbLayerTableRecord
  2
7
 70
     0
 62
     1
  6
GEN7
370
    -3
390
6
347
362
  0
ENDTAB
  0
TABLE
  2
STYLE
  5
12
330
0
100
AcDbSymbolTable
 70
     9
  0
STYLE
  5
13
330
12
100
AcDbSymbolTableRecord
100
AcDbTextStyleTableRecord
  2
STANDARD
 70
     0
 40
0.0
 41
1.0
 50
0.0
 71
     0
 42
3.5
  3
ISOCP
  4

  0
STYLE
  5
273
330
12
100
AcDbSymbolTableRecord
100
AcDbTextStyleTableRecord
  2

 70
     1
 40
0.0
 41
1.0
 50
0.0
 71
     0
 42
3.5
  3
ltypeshp.shx
  4

  0
STYLE
  5
27A
330
12
100
AcDbSymbolTableRecord
100
AcDbTextStyleTableRecord
  2
ACDINTS
 70
     0
 40
1.0
 41
1.0
 50
0.0
 71
     0
 42
3.5
  3
isocp.shx
  4

  0
STYLE
  5
286
330
12
100
AcDbSymbolTableRecord
100
AcDbTextStyleTableRecord
  2
ACDINGDT
 70
     0
 40
0.0
 41
1.0
 50
0.0
 71
     0
 42
3.5
  3
amgdt.shx
  4

  0
STYLE
  5
3F9
330
12
100
AcDbSymbolTableRecord
100
AcDbTextStyleTableRecord
  2
ACANSTS
 70
     0
 40
1.0
 41
1.0
 50
0.0
 71
     0
 42
0.2
  3
romans.shx
  4

  0
STYLE
  5
3FA
330
12
100
AcDbSymbolTableRecord
100
AcDbTextStyleTableRecord
  2
ACANSGDT
 70
     0
 40
0.0
 41
1.0
 50
0.0
 71
     0
 42
0.2
  3
amgdt.shx
  4

  0
STYLE
  5
5E4
330
12
100
AcDbSymbolTableRecord
100
AcDbTextStyleTableRecord
  2
STANDARD-DINGROßER_TEXT
 70
     0
 40
0.0
 41
1.0
 50
0.0
 71
     0
 42
0.2
  3
txt.shx
  4
bigfont.shx
  0
STYLE
  5
5E5
330
12
100
AcDbSymbolTableRecord
100
AcDbTextStyleTableRecord
  2
STANDARD-ISO-ZOPH-3_5-GLUT
 70
     0
 40
0.0
 41
1.0
 50
0.0
 71
     0
 42
0.2
  3
txt.shx
  4
bigfont.shx
  0
STYLE
  5
B75
330
12
100
AcDbSymbolTableRecord
100
AcDbTextStyleTableRecord
  2

 70
     1
 40
0.0
 41
1.0
 50
0.0
 71
     0
 42
2.5
  3
genltshp.shx
  4

  0
ENDTAB
  0
TABLE
  2
VIEW
  5
18
330
0
100
AcDbSymbolTable
 70
     0
  0
ENDTAB
  0
TABLE
  2
UCS
  5
19
330
0
100
AcDbSymbolTable
 70
     0
  0
ENDTAB
  0
TABLE
  2
APPID
  5
1C
330
0
100
AcDbSymbolTable
 70
    31
  0
APPID
  5
1D
330
1C
100
AcDbSymbolTableRecord
100
AcDbRegAppTableRecord
  2
ACAD
 70
     0
  0
APPID
  5
3A
330
1C
100
AcDbSymbolTableRecord
100
AcDbRegAppTableRecord
  2
GENIUS_GENDTOL_13
 70
     0
  0
APPID
  5
77
330
1C
100
AcDbSymbolTableRecord
100
AcDbRegAppTableRecord
  2
GENIUS_GENODEF_13
 70
     0
  0
APPID
  5
79
330
1C
100
AcDbSymbolTableRecord
100
AcDbRegAppTableRecord
  2
GENIUS_GENSCREG_15
 70
     0
  0
APPID
  5
78
330
1C
100
AcDbSymbolTableRecord
100
AcDbRegAppTableRecord
  2
GENIUS_GENOBJ-N-SDF_13
 70
     0
  0
APPID
  5
161
330
1C
100
AcDbSymbolTableRecord
100
AcDbRegAppTableRecord
  2
GENIUS_GENOENT_13
 70
     0
  0
APPID
  5
76
330
1C
100
AcDbSymbolTableRecord
100
AcDbRegAppTableRecord
  2
GENIUS_GENOREF_13
 70
     0
  0
APPID
  5
162
330
1C
100
AcDbSymbolTableRecord
100
AcDbRegAppTableRecord
  2
GENIUS_GENOLIS_13
 70
     0
  0
APPID
  5
96
330
1C
100
AcDbSymbolTableRecord
100
AcDbRegAppTableRecord
  2
GENIUS_GENTRA_14
 70
     0
  0
APPID
  5
CB
330
1C
100
AcDbSymbolTableRecord
100
AcDbRegAppTableRecord
  2
GENIUS_GENOBJ-N-HTC_13
 70
     0
  0
APPID
  5
CC
330
1C
100
AcDbSymbolTableRecord
100
AcDbRegAppTableRecord
  2
GENIUS_GENHATCH_13
 70
     0
  0
APPID
  5
160
330
1C
100
AcDbSymbolTableRecord
100
AcDbRegAppTableRecord
  2
GENIUS_GENOBJ-N-TIT_13
 70
     0
  0
APPID
  5
163
330
1C
100
AcDbSymbolTableRecord
100
AcDbRegAppTableRecord
  2
GENIUS_GENTITLE_13
 70
     0
  0
APPID
  5
137
330
1C
100
AcDbSymbolTableRecord
100
AcDbRegAppTableRecord
  2
GENIUS_GENOBJ-N-FIL_13
 70
     0
  0
APPID
  5
1A0
330
1C
100
AcDbSymbolTableRecord
100
AcDbRegAppTableRecord
  2
GENIUS_GENDIM_13
 70
     0
  0
APPID
  5
1A2
330
1C
100
AcDbSymbolTableRecord
100
AcDbRegAppTableRecord
  2
GENIUS_GE3DTOL_13
 70
     0
  0
APPID
  5
1A5
330
1C
100
AcDbSymbolTableRecord
100
AcDbRegAppTableRecord
  2
MCAD_NO_VIS
 70
     0
  0
APPID
  5
1A6
330
1C
100
AcDbSymbolTableRecord
100
AcDbRegAppTableRecord
  2
ACAD_TEMP_GRAPHIC
 70
     0
  0
APPID
  5
1D9
330
1C
100
AcDbSymbolTableRecord
100
AcDbRegAppTableRecord
  2
AD_DRAW
 70
     0
  0
APPID
  5
1DC
330
1C
100
AcDbSymbolTableRecord
100
AcDbRegAppTableRecord
  2
ACATTRIBSERVICES
 70
     0
  0
APPID
  5
228
330
1C
100
AcDbSymbolTableRecord
100
AcDbRegAppTableRecord
  2
ASURF_PCURVE_APPNAME
 70
     0
  0
APPID
  5
22D
330
1C
100
AcDbSymbolTableRecord
100
AcDbRegAppTableRecord
  2
AMG_3D2D_5.0
 70
     0
  0
APPID
  5
25B
330
1C
100
AcDbSymbolTableRecord
100
AcDbRegAppTableRecord
  2
DESIGNERASSEMBLIES
 70
     0
  0
APPID
  5
265
330
1C
100
AcDbSymbolTableRecord
100
AcDbRegAppTableRecord
  2
ACADM_DIM_EDIT
 70
     0
  0
APPID
  5
266
330
1C
100
AcDbSymbolTableRecord
100
AcDbRegAppTableRecord
  2
AMDT_DM_ADJ
 70
     0
  0
APPID
  5
31C
330
1C
100
AcDbSymbolTableRecord
100
AcDbRegAppTableRecord
  2
GENIUS_GENDIMSH_14
 70
     0
  0
APPID
  5
34A
330
1C
100
AcDbSymbolTableRecord
100
AcDbRegAppTableRecord
  2
GENIUS_AMGTXT_16
 70
     0
  0
APPID
  5
3A2
330
1C
100
AcDbSymbolTableRecord
100
AcDbRegAppTableRecord
  2
ACAD_MLEADERVER
 70
     0
  0
APPID
  5
45C
330
1C
100
AcDbSymbolTableRecord
100
AcDbRegAppTableRecord
  2
ACAD_DSTYLE_DIMINSPECT
 70
     0
  0
APPID
  5
54C
330
1C
100
AcDbSymbolTableRecord
100
AcDbRegAppTableRecord
  2
AcAecLayerStandard
 70
     0
  0
APPID
  5
559
330
1C
100
AcDbSymbolTableRecord
100
AcDbRegAppTableRecord
  2
ACAD_EXEMPT_FROM_CAD_STANDARDS
 70
     0
  0
ENDTAB
  0
TABLE
  2
DIMSTYLE
  5
1E
330
0
100
AcDbSymbolTable
 70
    30
100
AcDbDimStyleTable
 71
     5
340
1F
340
20
340
21
340
22
340
23
  0
DIMSTYLE
105
1F
330
1E
100
AcDbSymbolTableRecord
100
AcDbDimStyleTableRecord
  2
ISO-35
 70
     0
 41
3.5
 42
0.875
 43
5.25
 44
1.75
 73
     0
 74
     0
 77
     1
 78
     8
140
3.5
141
3.5
143
0.0394
147
0.875
171
     4
172
     1
273
     8
274
     4
277
     6
340
13
  0
DIMSTYLE
105
23
330
1E
100
AcDbSymbolTableRecord
100
AcDbDimStyleTableRecord
  2
ISO1
 70
     0
 41
10.0
 42
2.5
 43
15.0
 44
5.0
 73
     0
 74
     0
 77
     1
 78
     8
140
10.0
141
10.0
143
0.0394
147
2.5
171
     4
172
     1
273
     8
274
     4
277
     6
340
13
  0
DIMSTYLE
105
22
330
1E
100
AcDbSymbolTableRecord
100
AcDbDimStyleTableRecord
  2
ISO1-4
 70
     0
 41
14.0
 42
3.5
 43
21.0
 44
7.0
 74
     0
 77
     1
 78
     8
140
14.0
141
14.0
143
0.0394
145
5.599999999999999
147
3.5
172
     1
273
     8
277
     6
340
13
  0
DIMSTYLE
105
21
330
1E
100
AcDbSymbolTableRecord
100
AcDbDimStyleTableRecord
  2
ISO2
 70
     0
 41
20.0
 42
5.0
 43
30.0
 44
10.0
 73
     0
 74
     0
 77
     1
 78
     8
140
20.0
141
20.0
143
0.0394
147
5.0
171
     4
172
     1
273
     8
274
     4
277
     6
340
13
  0
DIMSTYLE
105
20
330
1E
100
AcDbSymbolTableRecord
100
AcDbDimStyleTableRecord
  2
ISO-25
 70
     0
 41
2.5
 42
0.625
 43
3.75
 44
1.25
 73
     0
 74
     0
 77
     1
 78
     8
140
2.5
141
2.5
143
0.0394
147
0.625
171
     4
172
     1
273
     8
274
     4
277
     6
340
13
  0
DIMSTYLE
105
24
330
1E
100
AcDbSymbolTableRecord
100
AcDbDimStyleTableRecord
  2
AM_ISO
 70
     0
  4
"
 41
2.5
 42
1.0
 43
10.0
 44
1.0
 47
0.1
 48
0.1
 73
     0
 74
     0
 77
     1
 78
     8
 79
     2
140
3.5
141
0.0
143
0.0393701
146
0.71
147
1.5
172
     1
176
   256
177
   256
178
     2
271
     2
272
     3
274
     4
283
     0
340
13
371
    -1
372
    -1
  0
DIMSTYLE
105
28C
330
1E
100
AcDbSymbolTableRecord
100
AcDbDimStyleTableRecord
  2
AM_DIN
 70
     0
  4
"
 41
2.5
 42
1.0
 43
10.0
 44
1.0
 47
0.1
 48
0.1
 73
     0
 74
     0
 77
     1
 78
     8
 79
     2
140
3.5
141
0.0
143
0.0393701
146
0.71
147
1.5
172
     1
176
   256
177
   256
178
     2
271
     2
272
     3
274
     4
283
     0
284
     8
340
13
371
    -1
372
    -1
  0
DIMSTYLE
105
28D
330
1E
100
AcDbSymbolTableRecord
100
AcDbDimStyleTableRecord
  2
AM_DIN$3
 70
     0
  4
"
 41
2.5
 42
1.0
 43
10.0
 44
1.0
 47
0.1
 48
0.1
 73
     0
 77
     1
 78
     8
 79
     2
140
3.5
141
0.0
143
0.0393701
146
0.71
147
1.5
176
   256
177
   256
178
     2
271
     2
272
     3
274
     4
283
     0
284
     8
288
     1
289
     0
340
13
371
    -1
372
    -1
  0
DIMSTYLE
105
28E
330
1E
100
AcDbSymbolTableRecord
100
AcDbDimStyleTableRecord
  2
AM_DIN$4
 70
     0
  4
"
 41
2.5
 42
1.0
 43
10.0
 44
1.0
 47
0.1
 48
0.1
 73
     0
 77
     1
 78
     8
 79
     2
140
3.5
141
0.0
143
0.0393701
146
0.71
147
1.5
176
   256
177
   256
178
     2
271
     2
272
     3
274
     4
283
     0
284
     8
288
     1
289
     0
340
13
371
    -1
372
    -1
  0
DIMSTYLE
105
28F
330
1E
100
AcDbSymbolTableRecord
100
AcDbDimStyleTableRecord
  2
AM_DIN$6
 70
     0
  4
"
 41
2.5
 42
1.0
 43
10.0
 44
1.0
 47
0.1
 48
0.1
 73
     0
 74
     0
 78
     8
 79
     2
140
3.5
141
0.0
143
0.0393701
146
0.71
147
1.5
172
     1
176
   256
177
   256
178
     2
271
     2
272
     3
274
     4
283
     0
284
     8
340
13
371
    -1
372
    -1
  0
DIMSTYLE
105
290
330
1E
100
AcDbSymbolTableRecord
100
AcDbDimStyleTableRecord
  2
AM_DIN$7
 70
     0
  4
"
 41
2.5
 42
1.0
 43
10.0
 44
1.0
 47
0.1
 48
0.1
 73
     0
 74
     0
 77
     1
 78
     8
 79
     2
140
5.0
141
0.0
143
0.0393701
146
0.71
147
1.5
172
     1
176
   256
177
   256
178
     2
271
     2
272
     3
274
     4
283
     0
284
     8
340
13
371
    -1
372
    -1
  0
DIMSTYLE
105
291
330
1E
100
AcDbSymbolTableRecord
100
AcDbDimStyleTableRecord
  2
AM_DIN$SF
 70
     0
  4
"
 41
2.5
 42
1.0
 43
10.0
 44
1.0
 47
0.1
 48
0.1
 73
     0
 74
     0
 75
     1
 76
     1
 77
     1
 78
     8
 79
     2
140
3.5
141
0.0
143
0.0393701
146
0.71
147
1.5
172
     1
176
   256
177
   256
178
     2
271
     2
272
     3
274
     4
283
     0
284
     8
340
13
371
    -1
372
    -1
  0
DIMSTYLE
105
296
330
1E
100
AcDbSymbolTableRecord
100
AcDbDimStyleTableRecord
  2
AM_DIN$SH
 70
     0
  4
"
 41
2.5
 42
1.0
 43
10.0
 44
1.0
 47
0.1
 48
0.1
 73
     0
 74
     0
 75
     1
 76
     1
 77
     1
 78
     8
 79
     2
140
3.5
141
0.0
143
0.0393701
144
2.0
146
0.71
147
1.5
172
     1
173
     1
176
   256
177
   256
178
     2
271
     2
272
     3
274
     4
283
     0
284
     8
340
13
343
292
371
    -1
372
    -1
  0
DIMSTYLE
105
3FB
330
1E
100
AcDbSymbolTableRecord
100
AcDbDimStyleTableRecord
  2
STANDARD
 70
     0
 41
2.5
 42
0.625
 43
3.75
 44
1.25
 45
0.00000001
 73
     0
 74
     0
 77
     1
 78
     8
140
2.5
143
0.03937
147
0.625
171
     4
172
     1
176
     7
177
     7
178
     7
279
     2
340
13
  0
DIMSTYLE
105
3FC
330
1E
100
AcDbSymbolTableRecord
100
AcDbDimStyleTableRecord
  2
AM_ANSI
 70
     0
  4
mm
 41
0.1
 42
0.05
 43
0.5
 44
0.1
 47
0.1
 48
0.1
 78
     7
 79
     2
 90
     1
140
0.12
141
0.0
146
0.71
147
0.06
176
   256
177
   256
178
     2
274
     4
284
     7
340
13
371
    -1
372
    -1
  0
DIMSTYLE
105
3FD
330
1E
100
AcDbSymbolTableRecord
100
AcDbDimStyleTableRecord
  2
AM_ANSI$3
 70
     0
  4
mm
 41
0.1
 42
0.05
 43
0.5
 44
0.1
 47
0.1
 48
0.1
 78
     7
 79
     2
 90
     1
140
0.12
141
0.0
146
0.71
147
0.06
176
   256
177
   256
178
     2
274
     4
284
     7
288
     1
289
     0
340
13
371
    -1
372
    -1
  0
DIMSTYLE
105
3FE
330
1E
100
AcDbSymbolTableRecord
100
AcDbDimStyleTableRecord
  2
AM_ANSI$4
 70
     0
  4
mm
 41
0.1
 42
0.05
 43
0.5
 44
0.1
 47
0.1
 48
0.1
 78
     7
 79
     2
 90
     1
140
0.12
141
0.0
146
0.71
147
0.06
176
   256
177
   256
178
     2
274
     4
284
     7
288
     1
289
     0
340
13
371
    -1
372
    -1
  0
DIMSTYLE
105
3FF
330
1E
100
AcDbSymbolTableRecord
100
AcDbDimStyleTableRecord
  2
AM_ANSI$7
 70
     0
  4
mm
 41
0.1
 42
0.05
 43
0.5
 44
0.1
 47
0.1
 48
0.1
 78
     7
 79
     2
 90
     1
140
0.24
141
0.0
146
0.71
147
0.06
176
   256
177
   256
178
     2
274
     4
284
     7
340
13
371
    -1
372
    -1
  0
DIMSTYLE
105
400
330
1E
100
AcDbSymbolTableRecord
100
AcDbDimStyleTableRecord
  2
AM_ANSI$SF
 70
     0
  4
mm
 41
0.1
 42
0.05
 43
0.5
 44
0.1
 47
0.1
 48
0.1
 75
     1
 76
     1
 78
     7
 79
     2
 90
     1
140
0.12
141
0.0
146
0.71
147
0.06
176
   256
177
   256
178
     2
274
     4
284
     7
340
13
371
    -1
372
    -1
  0
DIMSTYLE
105
401
330
1E
100
AcDbSymbolTableRecord
100
AcDbDimStyleTableRecord
  2
AM_ANSI$SH
 70
     0
  4
mm
 41
0.1
 42
0.05
 43
0.5
 44
0.1
 47
0.1
 48
0.1
 75
     1
 76
     1
 78
     7
 79
     2
 90
     1
140
0.12
141
0.0
146
0.71
147
0.06
173
     1
176
   256
177
   256
178
     2
274
     4
284
     7
340
13
343
292
371
    -1
372
    -1
  0
DIMSTYLE
105
444
102
{ACAD_REACTORS
330
497
330
4BC
330
446
330
8C9
330
8FB
330
962
330
AC2
330
B38
330
C9D
102
}
330
1E
100
AcDbSymbolTableRecord
100
AcDbDimStyleTableRecord
  2
ISO-35$0
 70
     0
 41
3.5
 42
0.875
 43
5.25
 44
1.75
 73
     0
 74
     0
 77
     1
 78
     8
140
3.5
141
3.5
143
0.0394
147
0.875
171
     4
172
     1
273
     8
274
     4
277
     6
340
13
  0
DIMSTYLE
105
B76
330
1E
100
AcDbSymbolTableRecord
100
AcDbDimStyleTableRecord
  2
GEN-ISO
 70
     0
  4
"
 41
3.0
 42
0.0
 43
10.0
 44
1.0
 47
0.1
 48
0.1
 73
     0
 74
     0
 77
     1
 78
     8
140
3.5
141
0.0
143
0.03937
146
0.71
147
1.0
172
     1
176
   256
177
   256
178
     2
340
13
  0
DIMSTYLE
105
B77
330
1E
100
AcDbSymbolTableRecord
100
AcDbDimStyleTableRecord
  2
GEN-ANSI
 70
     0
  3
<>
  4
"
 41
3.0
 42
0.0
 43
10.0
 44
1.0
 47
0.1
 48
0.1
 78
     8
140
3.5
141
0.0
143
0.0393701
146
0.71
147
1.0
176
   256
177
   256
178
     2
271
     1
272
     3
274
     4
275
     1
284
     8
340
13
  0
DIMSTYLE
105
B78
330
1E
100
AcDbSymbolTableRecord
100
AcDbDimStyleTableRecord
  2
GEN-ANSI$3
 70
     0
  3
<>
  4
"
 41
3.0
 42
0.0
 43
10.0
 44
1.0
 47
0.1
 48
0.1
 78
     8
140
3.5
141
0.0
143
0.0393701
146
0.71
147
1.0
176
   256
177
   256
178
     2
271
     1
272
     3
274
     4
275
     1
284
     8
288
     1
289
     0
340
13
  0
DIMSTYLE
105
B79
330
1E
100
AcDbSymbolTableRecord
100
AcDbDimStyleTableRecord
  2
GEN-ANSI$4
 70
     0
  3
<>
  4
"
 41
3.0
 42
0.0
 43
10.0
 44
1.0
 47
0.1
 48
0.1
 78
     8
140
3.5
141
0.0
143
0.0393701
146
0.71
147
1.0
176
   256
177
   256
178
     2
271
     1
272
     3
274
     4
275
     1
284
     8
288
     1
289
     0
340
13
  0
DIMSTYLE
105
B7A
330
1E
100
AcDbSymbolTableRecord
100
AcDbDimStyleTableRecord
  2
GEN-ANSI$6
 70
     0
  3
<>
  4
"
 41
3.0
 42
0.0
 43
10.0
 44
1.0
 47
0.1
 48
0.1
 78
     8
140
3.5
141
0.0
143
0.0393701
146
0.71
147
1.0
176
   256
177
   256
178
     2
271
     1
272
     3
274
     4
275
     1
284
     8
340
13
  0
DIMSTYLE
105
B7B
330
1E
100
AcDbSymbolTableRecord
100
AcDbDimStyleTableRecord
  2
GEN-ANSI-POS
 70
     0
  3
<>
  4
"
 41
2.5
 42
0.0
 43
10.0
 44
1.0
 47
0.1
 48
0.1
 73
     0
 74
     0
 78
     8
140
5.0
141
0.0
143
0.0393701
146
0.71
147
1.5
176
   256
177
   256
178
     2
271
     1
272
     3
274
     4
275
     1
284
     8
340
13
  0
DIMSTYLE
105
B7C
330
1E
100
AcDbSymbolTableRecord
100
AcDbDimStyleTableRecord
  2
GEN-ANSI-AXE-F
 70
     0
  3
<>
  4
"
 41
3.0
 42
0.0
 43
10.0
 44
1.0
 47
0.1
 48
0.1
 75
     1
 76
     1
 78
     8
140
3.5
141
0.0
143
0.0393701
146
0.71
147
1.0
173
     1
176
   256
177
   256
178
     2
271
     1
272
     3
274
     4
275
     1
284
     8
340
13
343
292
  0
DIMSTYLE
105
B7D
330
1E
100
AcDbSymbolTableRecord
100
AcDbDimStyleTableRecord
  2
GEN-ANSI-AXE-H
 70
     0
  3
<>
  4
"
 41
3.0
 42
0.0
 43
10.0
 44
1.0
 47
0.1
 48
0.1
 73
     0
 74
     0
 75
     1
 76
     1
 78
     8
140
3.5
141
0.0
143
0.0393701
144
2.0
146
0.71
147
1.0
172
     1
173
     1
176
   256
177
   256
178
     2
271
     1
272
     3
274
     4
275
     1
284
     8
340
13
343
292
  0
DIMSTYLE
105
B7E
330
1E
100
AcDbSymbolTableRecord
100
AcDbDimStyleTableRecord
  2
GEN-ISO$0
 70
     0
  4
"
 41
3.0
 42
0.0
 43
10.0
 44
1.0
 47
0.1
 48
0.1
 73
     0
 74
     0
 77
     1
 78
     8
140
3.5
141
0.0
143
0.03937
146
0.71
147
1.0
172
     1
176
   256
177
   256
178
     2
340
13
  0
ENDTAB
  0
TABLE
  2
BLOCK_RECORD
  5
1
330
0
100
AcDbSymbolTable
 70
    18
  0
BLOCK_RECORD
  5
2
102
{ACAD_XDICTIONARY
360
3
102
}
330
1
100
AcDbSymbolTableRecord
100
AcDbBlockTableRecord
  2
*MODEL_SPACE
340
B
 70
     0
280
     1
281
     0
  0
BLOCK_RECORD
  5
D
330
1
100
AcDbSymbolTableRecord
100
AcDbBlockTableRecord
  2
*PAPER_SPACE
340
10
 70
     0
280
     1
281
     0
  0
BLOCK_RECORD
  5
A2
330
1
100
AcDbSymbolTableRecord
100
AcDbBlockTableRecord
  2
GLUTZ1
340
0
102
{BLKREFS
331
A1
102
}
 70
     0
280
     1
281
     0
  0
BLOCK_RECORD
  5
6A
330
1
100
AcDbSymbolTableRecord
100
AcDbBlockTableRecord
  2
GEN_A4
340
0
 70
     0
280
     1
281
     0
  0
BLOCK_RECORD
  5
8D
330
1
100
AcDbSymbolTableRecord
100
AcDbBlockTableRecord
  2
GLMASSB1
340
0
 70
     0
280
     1
281
     0
  0
BLOCK_RECORD
  5
252
330
1
100
AcDbSymbolTableRecord
100
AcDbBlockTableRecord
  2
*U3
340
0
 70
     0
280
     1
281
     0
  0
BLOCK_RECORD
  5
292
330
1
100
AcDbSymbolTableRecord
100
AcDbBlockTableRecord
  2
GENAXEH
340
0
 70
     0
280
     1
281
     0
  0
BLOCK_RECORD
  5
447
330
1
100
AcDbSymbolTableRecord
100
AcDbBlockTableRecord
  2
*D5
340
0
 70
     0
280
     1
281
     0
  0
BLOCK_RECORD
  5
498
330
1
100
AcDbSymbolTableRecord
100
AcDbBlockTableRecord
  2
*D6
340
0
 70
     0
280
     1
281
     0
  0
BLOCK_RECORD
  5
4BD
330
1
100
AcDbSymbolTableRecord
100
AcDbBlockTableRecord
  2
*D7
340
0
 70
     0
280
     1
281
     0
  0
BLOCK_RECORD
  5
58A
330
1
100
AcDbSymbolTableRecord
100
AcDbBlockTableRecord
  2
FILLED-1
340
0
 70
     0
280
     1
281
     0
  0
BLOCK_RECORD
  5
598
330
1
100
AcDbSymbolTableRecord
100
AcDbBlockTableRecord
  2
2DTRANSSCHNITT0
340
0
 70
     0
280
     1
281
     0
  0
BLOCK_RECORD
  5
5B8
330
1
100
AcDbSymbolTableRecord
100
AcDbBlockTableRecord
  2
*U10
340
0
102
{BLKREFS
331
5B5
102
}
 70
     0
280
     1
281
     0
  0
BLOCK_RECORD
  5
5BC
330
1
100
AcDbSymbolTableRecord
100
AcDbBlockTableRecord
  2
*U11
340
0
102
{BLKREFS
331
5B6
102
}
 70
     0
280
     1
281
     0
  0
BLOCK_RECORD
  5
8CA
330
1
100
AcDbSymbolTableRecord
100
AcDbBlockTableRecord
  2
*D12
340
0
 70
     0
280
     1
281
     0
  0
BLOCK_RECORD
  5
8FC
330
1
100
AcDbSymbolTableRecord
100
AcDbBlockTableRecord
  2
*D13
340
0
 70
     0
280
     1
281
     0
  0
BLOCK_RECORD
  5
963
330
1
100
AcDbSymbolTableRecord
100
AcDbBlockTableRecord
  2
*D14
340
0
 70
     0
280
     1
281
     0
  0
BLOCK_RECORD
  5
AC3
330
1
100
AcDbSymbolTableRecord
100
AcDbBlockTableRecord
  2
*D15
340
0
 70
     0
280
     1
281
     0
  0
BLOCK_RECORD
  5
B39
330
1
100
AcDbSymbolTableRecord
100
AcDbBlockTableRecord
  2
*D16
340
0
 70
     0
280
     1
281
     0
  0
BLOCK_RECORD
  5
C9E
330
1
100
AcDbSymbolTableRecord
100
AcDbBlockTableRecord
  2
*D17
340
0
 70
     0
280
     1
281
     0
  0
ENDTAB
  0
ENDSEC
  0
SECTION
  2
BLOCKS
  0
BLOCK
  5
4
330
2
100
AcDbEntity
  8
0
100
AcDbBlockBegin
  2
*MODEL_SPACE
 70
     0
 10
0.0
 20
0.0
 30
0.0
  3
*MODEL_SPACE
  1

  0
ENDBLK
  5
A
330
2
100
AcDbEntity
  8
0
100
AcDbBlockEnd
  0
BLOCK
  5
E
330
D
100
AcDbEntity
 67
     1
  8
0
100
AcDbBlockBegin
  2
*PAPER_SPACE
 70
     0
 10
0.0
 20
0.0
 30
0.0
  3
*PAPER_SPACE
  1

  0
ENDBLK
  5
F
330
D
100
AcDbEntity
 67
     1
  8
0
100
AcDbBlockEnd
  0
BLOCK
  5
FF
330
A2
100
AcDbEntity
  8
0
100
AcDbBlockBegin
  2
GLUTZ1
 70
     0
 10
0.0
 20
0.0
 30
0.0
  3
GLUTZ1
  1

  0
POLYLINE
  5
A3
330
A2
100
AcDbEntity
  8
KOPF
  6
CONTINU
 62
     2
100
AcDb2dPolyline
 66
     1
 10
0.0
 20
0.0
 30
0.0
 70
     1
  0
VERTEX
  5
A4
330
A3
100
AcDbEntity
  8
KOPF
  6
CONTINU
 62
     2
100
AcDbVertex
100
AcDb2dVertex
 10
7.413302975328548
 20
3.465323178314264
 30
0.0
  0
VERTEX
  5
A6
330
A3
100
AcDbEntity
  8
KOPF
  6
CONTINU
 62
     2
100
AcDbVertex
100
AcDb2dVertex
 10
8.659030475328563
 20
3.465323178314264
 30
0.0
  0
VERTEX
  5
A7
330
A3
100
AcDbEntity
  8
KOPF
  6
CONTINU
 62
     2
100
AcDbVertex
100
AcDb2dVertex
 10
8.328937475328558
 20
1.484671678314271
 30
0.0
  0
VERTEX
  5
A8
330
A3
100
AcDbEntity
  8
KOPF
  6
CONTINU
 62
     2
100
AcDbVertex
100
AcDb2dVertex
 10
8.495913975328534
 20
1.085639178314266
 30
0.0
  0
VERTEX
  5
A9
330
A3
100
AcDbEntity
  8
KOPF
  6
CONTINU
 62
     2
100
AcDbVertex
100
AcDb2dVertex
 10
8.872790975328541
 20
1.034750678314253
 30
0.0
  0
VERTEX
  5
AA
330
A3
100
AcDbEntity
  8
KOPF
  6
CONTINU
 62
     2
100
AcDbVertex
100
AcDb2dVertex
 10
9.136996975328543
 20
1.349997678314252
 30
0.0
  0
VERTEX
  5
AB
330
A3
100
AcDbEntity
  8
KOPF
  6
CONTINU
 62
     2
100
AcDbVertex
100
AcDb2dVertex
 10
9.136996975328543
 20
1.349997678314252
 30
0.0
  0
VERTEX
  5
AC
330
A3
100
AcDbEntity
  8
KOPF
  6
CONTINU
 62
     2
100
AcDbVertex
100
AcDb2dVertex
 10
9.489535975328578
 20
3.465323178314264
 30
0.0
  0
VERTEX
  5
AD
330
A3
100
AcDbEntity
  8
KOPF
  6
CONTINU
 62
     2
100
AcDbVertex
100
AcDb2dVertex
 10
11.35815797532856
 20
3.465323178314264
 30
0.0
  0
VERTEX
  5
AE
330
A3
100
AcDbEntity
  8
KOPF
  6
CONTINU
 62
     2
100
AcDbVertex
100
AcDb2dVertex
 10
11.56296147532856
 20
4.694129178314256
 30
0.0
  0
VERTEX
  5
AF
330
A3
100
AcDbEntity
  8
KOPF
  6
CONTINU
 62
     2
100
AcDbVertex
100
AcDb2dVertex
 10
12.80870397532857
 20
4.694113678314266
 30
0.0
  0
VERTEX
  5
B0
330
A3
100
AcDbEntity
  8
KOPF
  6
CONTINU
 62
     2
100
AcDbVertex
100
AcDb2dVertex
 10
12.60391597532856
 20
3.465323178314264
 30
0.0
  0
VERTEX
  5
B1
330
A3
100
AcDbEntity
  8
KOPF
  6
CONTINU
 62
     2
100
AcDbVertex
100
AcDb2dVertex
 10
15.92592197532855
 20
3.465323178314264
 30
0.0
  0
VERTEX
  5
B2
330
A3
100
AcDbEntity
  8
KOPF
  6
CONTINU
 62
     2
100
AcDbVertex
100
AcDb2dVertex
 10
15.78938647532857
 20
2.646109678314275
 30
0.0
  0
VERTEX
  5
B3
330
A3
100
AcDbEntity
  8
KOPF
  6
CONTINU
 62
     2
100
AcDbVertex
100
AcDb2dVertex
 10
13.87791797532855
 20
1.00771217831425
 30
0.0
  0
VERTEX
  5
B4
330
A3
100
AcDbEntity
  8
KOPF
  6
CONTINU
 62
     2
100
AcDbVertex
100
AcDb2dVertex
 10
15.51633047532854
 20
1.00771217831425
 30
0.0
  0
VERTEX
  5
B5
330
A3
100
AcDbEntity
  8
KOPF
  6
CONTINU
 62
     2
100
AcDbVertex
100
AcDb2dVertex
 10
15.37979497532856
 20
0.1885136783142798
 30
0.0
  0
VERTEX
  5
B6
330
A3
100
AcDbEntity
  8
KOPF
  6
CONTINU
 62
     2
100
AcDbVertex
100
AcDb2dVertex
 10
12.68066747532856
 20
0.1885291783142406
 30
0.0
  0
VERTEX
  5
B7
330
A3
100
AcDbEntity
  8
KOPF
  6
CONTINU
 62
     2
100
AcDbVertex
100
AcDb2dVertex
 10
12.81720347532854
 20
1.00771217831425
 30
0.0
  0
VERTEX
  5
B8
330
A3
100
AcDbEntity
  8
KOPF
  6
CONTINU
 62
     2
100
AcDbVertex
100
AcDb2dVertex
 10
14.72865647532856
 20
2.646109678314275
 30
0.0
  0
VERTEX
  5
B9
330
A3
100
AcDbEntity
  8
KOPF
  6
CONTINU
 62
     2
100
AcDbVertex
100
AcDb2dVertex
 10
12.46738047532855
 20
2.646124678314265
 30
0.0
  0
VERTEX
  5
BA
330
A3
100
AcDbEntity
  8
KOPF
  6
CONTINU
 62
     2
100
AcDbVertex
100
AcDb2dVertex
 10
12.05778847532855
 20
0.1885291783142406
 30
0.0
  0
VERTEX
  5
BB
330
A3
100
AcDbEntity
  8
KOPF
  6
CONTINU
 62
     2
100
AcDbVertex
100
AcDb2dVertex
 10
10.81204597532854
 20
0.1885291783142406
 30
0.0
  0
VERTEX
  5
BC
330
A3
100
AcDbEntity
  8
KOPF
  6
CONTINU
 62
     2
100
AcDbVertex
100
AcDb2dVertex
 10
11.22163747532855
 20
2.646124678314265
 30
0.0
  0
VERTEX
  5
BD
330
A3
100
AcDbEntity
  8
KOPF
  6
CONTINU
 62
     2
100
AcDbVertex
100
AcDb2dVertex
 10
10.59875847532856
 20
2.646124678314265
 30
0.0
  0
VERTEX
  5
BE
330
A3
100
AcDbEntity
  8
KOPF
  6
CONTINU
 62
     2
100
AcDbVertex
100
AcDb2dVertex
 10
10.18916697532856
 20
0.1885291783142406
 30
0.0
  0
VERTEX
  5
BF
330
A3
100
AcDbEntity
  8
KOPF
  6
CONTINU
 62
     2
100
AcDbVertex
100
AcDb2dVertex
 10
8.943423975328556
 20
0.1885291783142406
 30
0.0
  0
VERTEX
  5
C0
330
A3
100
AcDbEntity
  8
KOPF
  6
CONTINU
 62
     2
100
AcDbVertex
100
AcDb2dVertex
 10
8.960238975328536
 20
0.2895266783142745
 30
0.0
  0
VERTEX
  5
C1
330
A3
100
AcDbEntity
  8
KOPF
  6
CONTINU
 62
     2
100
AcDbVertex
100
AcDb2dVertex
 10
8.491321475328561
 20
0.0298986783142539
 30
0.0
  0
VERTEX
  5
C2
330
A3
100
AcDbEntity
  8
KOPF
  6
CONTINU
 62
     2
100
AcDbVertex
100
AcDb2dVertex
 10
7.975314975328558
 20
0.0042486783142692
 30
0.0
  0
VERTEX
  5
C3
330
A3
100
AcDbEntity
  8
KOPF
  6
CONTINU
 62
     2
100
AcDbVertex
100
AcDb2dVertex
 10
7.487231975328569
 20
0.2220676783142608
 30
0.0
  0
VERTEX
  5
C4
330
A3
100
AcDbEntity
  8
KOPF
  6
CONTINU
 62
     2
100
AcDbVertex
100
AcDb2dVertex
 10
7.137027475328551
 20
0.6718966783142549
 30
0.0
  0
VERTEX
  5
C5
330
A3
100
AcDbEntity
  8
KOPF
  6
CONTINU
 62
     2
100
AcDbVertex
100
AcDb2dVertex
 10
7.054812975328559
 20
1.314475178314268
 30
0.0
  0
VERTEX
  5
C6
330
A3
100
AcDbEntity
  8
KOPF
  6
CONTINU
 62
     2
100
AcDbVertex
100
AcDb2dVertex
 10
7.054812975328559
 20
1.314475178314268
 30
0.0
  0
VERTEX
  5
C7
330
A3
100
AcDbEntity
  8
KOPF
  6
CONTINU
 62
     2
100
AcDbVertex
100
AcDb2dVertex
 10
7.413287975328557
 20
3.465323178314264
 30
0.0
  0
SEQEND
  5
C9
330
A3
100
AcDbEntity
  8
KOPF
 62
     2
  0
HATCH
  5
CA
330
A2
100
AcDbEntity
  8
KOPF
 62
     7
100
AcDbHatch
 10
0.0
 20
0.0
 30
0.0
210
0.0
220
0.0
230
1.0
  2
SOLID
 70
     1
 71
     0
 91
        1
 92
        1
 93
       32
 72
     1
 10
8.491321475328561
 20
0.0298986783142539
 11
8.960238975328536
 21
0.2895266783142745
 72
     1
 10
8.960238975328536
 20
0.2895266783142745
 11
8.943423975328556
 21
0.1885291783142406
 72
     1
 10
8.943423975328556
 20
0.1885291783142406
 11
10.18916697532856
 21
0.1885291783142406
 72
     1
 10
10.18916697532856
 20
0.1885291783142406
 11
10.59875847532856
 21
2.646124678314265
 72
     1
 10
10.59875847532856
 20
2.646124678314265
 11
11.22163747532855
 21
2.646124678314265
 72
     1
 10
11.22163747532855
 20
2.646124678314265
 11
10.81204597532854
 21
0.1885291783142406
 72
     1
 10
10.81204597532854
 20
0.1885291783142406
 11
12.05778847532855
 21
0.1885291783142406
 72
     1
 10
12.05778847532855
 20
0.1885291783142406
 11
12.46738047532855
 21
2.646124678314265
 72
     1
 10
12.46738047532855
 20
2.646124678314265
 11
14.72865647532856
 21
2.646109678314275
 72
     1
 10
14.72865647532856
 20
2.646109678314275
 11
12.81720347532854
 21
1.00771217831425
 72
     1
 10
12.81720347532854
 20
1.00771217831425
 11
12.68066747532856
 21
0.1885291783142406
 72
     1
 10
12.68066747532856
 20
0.1885291783142406
 11
15.37979497532856
 21
0.1885136783142798
 72
     1
 10
15.37979497532856
 20
0.1885136783142798
 11
15.51633047532854
 21
1.00771217831425
 72
     1
 10
15.51633047532854
 20
1.00771217831425
 11
13.87791797532855
 21
1.00771217831425
 72
     1
 10
13.87791797532855
 20
1.00771217831425
 11
15.78938647532857
 21
2.646109678314275
 72
     1
 10
15.78938647532857
 20
2.646109678314275
 11
15.92592197532855
 21
3.465323178314264
 72
     1
 10
15.92592197532855
 20
3.465323178314264
 11
12.60391597532856
 21
3.465323178314264
 72
     1
 10
12.60391597532856
 20
3.465323178314264
 11
12.80870397532857
 21
4.694113678314266
 72
     1
 10
12.80870397532857
 20
4.694113678314266
 11
11.56296147532856
 21
4.694129178314256
 72
     1
 10
11.56296147532856
 20
4.694129178314256
 11
11.35815797532856
 21
3.465323178314264
 72
     1
 10
11.35815797532856
 20
3.465323178314264
 11
9.489535975328578
 21
3.465323178314264
 72
     1
 10
9.489535975328578
 20
3.465323178314264
 11
9.136996975328543
 21
1.349997678314252
 72
     1
 10
9.136996975328543
 20
1.349997678314252
 11
8.872790975328541
 21
1.034750678314253
 72
     1
 10
8.872790975328541
 20
1.034750678314253
 11
8.495913975328534
 21
1.085639178314266
 72
     1
 10
8.495913975328534
 20
1.085639178314266
 11
8.328937475328558
 21
1.484671678314271
 72
     1
 10
8.328937475328558
 20
1.484671678314271
 11
8.659030475328563
 21
3.465323178314264
 72
     1
 10
8.659030475328563
 20
3.465323178314264
 11
7.413287975328557
 21
3.465323178314264
 72
     1
 10
7.413287975328557
 20
3.465323178314264
 11
7.054812975328559
 21
1.314475178314268
 72
     1
 10
7.054812975328559
 20
1.314475178314268
 11
7.137027475328551
 21
0.6718966783142549
 72
     1
 10
7.137027475328551
 20
0.6718966783142549
 11
7.487231975328569
 21
0.2220676783142608
 72
     1
 10
7.487231975328569
 20
0.2220676783142608
 11
7.975314975328558
 21
0.0042486783142692
 72
     1
 10
7.975314975328558
 20
0.0042486783142692
 11
8.491321475328561
 21
0.0298986783142539
 97
        0
 75
     0
 76
     1
 98
        1
 10
78.94342397532856
 20
-1.062905321685718
450
        0
451
        0
460
0.0
461
0.0
452
        0
462
0.0
453
        0
470

1001
GENIUS_GENODEF_13
1002
{
1000
HIER
1070
     0
1002
}
1002
{
1000
MANEDIT
1070
     0
1002
}
1002
{
1000
NOSEL
1070
     0
1002
}
1002
{
1000
BEHIND
1070
     0
1002
}
1002
{
1000
REACTOR
1002
}
1001
GENIUS_GENOBJ-N-HTC_13
1002
{
1000
OWNER
1000
GEN
1002
}
1001
GENIUS_GENHATCH_13
1002
{
1000
DATA
1040
0.0
1042
0.5
1000
SOLID
1070
     0
1011
7.884158670682694
1021
0.0684408459231634
1031
0.0
1002
}
1002
{
1000
UCS
1010
0.0
1020
0.0
1030
0.0
1010
1.0
1020
0.0
1030
0.0
1010
0.0
1020
1.0
1030
0.0
1002
}
  0
POLYLINE
  5
CD
330
A2
100
AcDbEntity
  8
KOPF
  6
CONTINU
 62
     2
100
AcDb2dPolyline
 66
     1
 10
0.0
 20
0.0
 30
0.0
 70
     1
  0
VERTEX
  5
CE
330
CD
100
AcDbEntity
  8
KOPF
  6
CONTINU
 62
     2
100
AcDbVertex
100
AcDb2dVertex
 10
4.230807975328559
 20
0.2520206783142669
 30
0.0
  0
VERTEX
  5
CF
330
CD
100
AcDbEntity
  8
KOPF
  6
CONTINU
 62
     2
100
AcDbVertex
100
AcDb2dVertex
 10
3.628177475328556
 20
0.1549291783142621
 30
0.0
  0
VERTEX
  5
D0
330
CD
100
AcDbEntity
  8
KOPF
  6
CONTINU
 62
     2
100
AcDbVertex
100
AcDb2dVertex
 10
2.898837975328547
 20
0.069876678314273
 30
0.0
  0
VERTEX
  5
D1
330
CD
100
AcDbEntity
  8
KOPF
  6
CONTINU
 62
     2
100
AcDbVertex
100
AcDb2dVertex
 10
2.152301475328556
 20
0.038306178314258
 30
0.0
  0
VERTEX
  5
D2
330
CD
100
AcDbEntity
  8
KOPF
  6
CONTINU
 62
     2
100
AcDbVertex
100
AcDb2dVertex
 10
1.464725475328549
 20
0.112723178314269
 30
0.0
  0
VERTEX
  5
D3
330
CD
100
AcDbEntity
  8
KOPF
  6
CONTINU
 62
     2
100
AcDbVertex
100
AcDb2dVertex
 10
0.8865389753285342
 20
0.3333501783142765
 30
0.0
  0
VERTEX
  5
D4
330
CD
100
AcDbEntity
  8
KOPF
  6
CONTINU
 62
     2
100
AcDbVertex
100
AcDb2dVertex
 10
0.4486119753285323
 20
0.7156286783142605
 30
0.0
  0
VERTEX
  5
D5
330
CD
100
AcDbEntity
  8
KOPF
  6
CONTINU
 62
     2
100
AcDbVertex
100
AcDb2dVertex
 10
0.1673769753285512
 20
1.246237678314258
 30
0.0
  0
VERTEX
  5
D6
330
CD
100
AcDbEntity
  8
KOPF
  6
CONTINU
 62
     2
100
AcDbVertex
100
AcDb2dVertex
 10
0.0486334753285576
 20
1.885962678314285
 30
0.0
  0
VERTEX
  5
D7
330
CD
100
AcDbEntity
  8
KOPF
  6
CONTINU
 62
     2
100
AcDbVertex
100
AcDb2dVertex
 10
0.0903659753285524
 20
2.57732267831426
 30
0.0
  0
VERTEX
  5
D8
330
CD
100
AcDbEntity
  8
KOPF
  6
CONTINU
 62
     2
100
AcDbVertex
100
AcDb2dVertex
 10
0.2847019753285735
 20
3.254996178314257
 30
0.0
  0
VERTEX
  5
D9
330
CD
100
AcDbEntity
  8
KOPF
  6
CONTINU
 62
     2
100
AcDbVertex
100
AcDb2dVertex
 10
0.6188849753285695
 20
3.857199678314259
 30
0.0
  0
VERTEX
  5
DA
330
CD
100
AcDbEntity
  8
KOPF
  6
CONTINU
 62
     2
100
AcDbVertex
100
AcDb2dVertex
 10
1.075641475328552
 20
4.335898178314266
 30
0.0
  0
VERTEX
  5
DB
330
CD
100
AcDbEntity
  8
KOPF
  6
CONTINU
 62
     2
100
AcDbVertex
100
AcDb2dVertex
 10
1.632815975328554
 20
4.664038678314284
 30
0.0
  0
VERTEX
  5
DC
330
CD
100
AcDbEntity
  8
KOPF
  6
CONTINU
 62
     2
100
AcDbVertex
100
AcDb2dVertex
 10
2.262469975328542
 20
4.837775178314274
 30
0.0
  0
VERTEX
  5
DD
330
CD
100
AcDbEntity
  8
KOPF
  6
CONTINU
 62
     2
100
AcDbVertex
100
AcDb2dVertex
 10
2.929553975328559
 20
4.871710678314258
 30
0.0
  0
VERTEX
  5
DE
330
CD
100
AcDbEntity
  8
KOPF
  6
CONTINU
 62
     2
100
AcDbVertex
100
AcDb2dVertex
 10
3.590213475328567
 20
4.785315678314248
 30
0.0
  0
VERTEX
  5
DF
330
CD
100
AcDbEntity
  8
KOPF
  6
CONTINU
 62
     2
100
AcDbVertex
100
AcDb2dVertex
 10
4.189914475328549
 20
4.578391178314262
 30
0.0
  0
VERTEX
  5
E0
330
CD
100
AcDbEntity
  8
KOPF
  6
CONTINU
 62
     2
100
AcDbVertex
100
AcDb2dVertex
 10
4.661227975328557
 20
4.19379317831428
 30
0.0
  0
VERTEX
  5
E1
330
CD
100
AcDbEntity
  8
KOPF
  6
CONTINU
 62
     2
100
AcDbVertex
100
AcDb2dVertex
 10
4.921786975328558
 20
3.465338678314282
 30
0.0
  0
VERTEX
  5
E2
330
CD
100
AcDbEntity
  8
KOPF
  6
CONTINU
 62
     2
100
AcDbVertex
100
AcDb2dVertex
 10
4.921786975328558
 20
3.465338678314282
 30
0.0
  0
VERTEX
  5
E3
330
CD
100
AcDbEntity
  8
KOPF
  6
CONTINU
 62
     2
100
AcDbVertex
100
AcDb2dVertex
 10
3.676043975328553
 20
3.465338678314282
 30
0.0
  0
VERTEX
  5
E4
330
CD
100
AcDbEntity
  8
KOPF
  6
CONTINU
 62
     2
100
AcDbVertex
100
AcDb2dVertex
 10
3.658435475328559
 20
3.635474178314268
 30
0.0
  0
VERTEX
  5
E5
330
CD
100
AcDbEntity
  8
KOPF
  6
CONTINU
 62
     2
100
AcDbVertex
100
AcDb2dVertex
 10
3.60626597532854
 20
3.742651678314274
 30
0.0
  0
VERTEX
  5
E6
330
CD
100
AcDbEntity
  8
KOPF
  6
CONTINU
 62
     2
100
AcDbVertex
100
AcDb2dVertex
 10
3.50603097532857
 20
3.814627678314252
 30
0.0
 42
0.101147
  0
VERTEX
  5
E7
330
CD
100
AcDbEntity
  8
KOPF
  6
CONTINU
 62
     2
100
AcDbVertex
100
AcDb2dVertex
 10
2.163074475328556
 20
3.706198678314251
 30
0.0
  0
VERTEX
  5
E8
330
CD
100
AcDbEntity
  8
KOPF
  6
CONTINU
 62
     2
100
AcDbVertex
100
AcDb2dVertex
 10
1.757983975328556
 20
3.187644178314258
 30
0.0
  0
VERTEX
  5
E9
330
CD
100
AcDbEntity
  8
KOPF
  6
CONTINU
 62
     2
100
AcDbVertex
100
AcDb2dVertex
 10
1.532947475328569
 20
2.441336678314257
 30
0.0
  0
VERTEX
  5
EA
330
CD
100
AcDbEntity
  8
KOPF
  6
CONTINU
 62
     2
100
AcDbVertex
100
AcDb2dVertex
 10
1.523211975328536
 20
1.797781678314265
 30
0.0
  0
VERTEX
  5
EB
330
CD
100
AcDbEntity
  8
KOPF
  6
CONTINU
 62
     2
100
AcDbVertex
100
AcDb2dVertex
 10
1.754718475328559
 20
1.36037367831426
 30
0.0
  0
VERTEX
  5
EC
330
CD
100
AcDbEntity
  8
KOPF
  6
CONTINU
 62
     2
100
AcDbVertex
100
AcDb2dVertex
 10
2.223819475328554
 20
1.196402678314257
 30
0.0
 42
0.054838
  0
VERTEX
  5
ED
330
CD
100
AcDbEntity
  8
KOPF
  6
CONTINU
 62
     2
100
AcDbVertex
100
AcDb2dVertex
 10
3.313342975328538
 20
1.289114678314263
 30
0.0
  0
VERTEX
  5
EE
330
CD
100
AcDbEntity
  8
KOPF
  6
CONTINU
 62
     2
100
AcDbVertex
100
AcDb2dVertex
 10
3.454181475328539
 20
2.134131178314248
 30
0.0
  0
VERTEX
  5
EF
330
CD
100
AcDbEntity
  8
KOPF
  6
CONTINU
 62
     2
100
AcDbVertex
100
AcDb2dVertex
 10
2.416049475328549
 20
2.134131178314248
 30
0.0
  0
VERTEX
  5
F0
330
CD
100
AcDbEntity
  8
KOPF
  6
CONTINU
 62
     2
100
AcDbVertex
100
AcDb2dVertex
 10
2.552585475328555
 20
2.953330178314246
 30
0.0
  0
VERTEX
  5
F1
330
CD
100
AcDbEntity
  8
KOPF
  6
CONTINU
 62
     2
100
AcDbVertex
100
AcDb2dVertex
 10
4.83645997532858
 20
2.953330178314246
 30
0.0
  0
VERTEX
  5
F2
330
CD
100
AcDbEntity
  8
KOPF
  6
CONTINU
 62
     2
100
AcDbVertex
100
AcDb2dVertex
 10
4.392505475328562
 20
0.2895421783142638
 30
0.0
  0
VERTEX
  5
F3
330
CD
100
AcDbEntity
  8
KOPF
  6
CONTINU
 62
     2
100
AcDbVertex
100
AcDb2dVertex
 10
4.338580975328568
 20
0.2768011783142867
 30
0.0
  0
VERTEX
  5
F4
330
CD
100
AcDbEntity
  8
KOPF
  6
CONTINU
 62
     2
100
AcDbVertex
100
AcDb2dVertex
 10
4.284671475328565
 20
0.2642886783142728
 30
0.0
  0
VERTEX
  5
F5
330
CD
100
AcDbEntity
  8
KOPF
  6
CONTINU
 62
     2
100
AcDbVertex
100
AcDb2dVertex
 10
4.230807975328559
 20
0.2520206783142669
 30
0.0
  0
SEQEND
  5
F6
330
CD
100
AcDbEntity
  8
KOPF
 62
     2
  0
HATCH
  5
F7
330
A2
100
AcDbEntity
  8
KOPF
 62
     7
100
AcDbHatch
 10
0.0
 20
0.0
 30
0.0
210
0.0
220
0.0
230
1.0
  2
SOLID
 70
     1
 71
     0
 91
        1
 92
        1
 93
       38
 72
     1
 10
2.223819475328554
 20
1.196402678314257
 11
1.754718475328559
 21
1.36037367831426
 72
     1
 10
1.754718475328559
 20
1.36037367831426
 11
1.523211975328536
 21
1.797781678314265
 72
     1
 10
1.523211975328536
 20
1.797781678314265
 11
1.532947475328569
 21
2.441336678314257
 72
     1
 10
1.532947475328569
 20
2.441336678314257
 11
1.757983975328556
 21
3.187644178314258
 72
     1
 10
1.757983975328556
 20
3.187644178314258
 11
2.163074475328556
 21
3.706198678314251
 72
     2
 10
3.09980946486911
 20
0.4750535186772141
 40
3.364189573028744
 50
253.8327008024395
 51
276.9353140195865
 73
     0
 72
     1
 10
3.50603097532857
 20
3.814627678314252
 11
3.60626597532854
 21
3.742651678314274
 72
     1
 10
3.60626597532854
 20
3.742651678314274
 11
3.658435475328559
 21
3.635474178314268
 72
     1
 10
3.658435475328559
 20
3.635474178314268
 11
3.676043975328553
 21
3.465338678314282
 72
     1
 10
3.676043975328553
 20
3.465338678314282
 11
4.921786975328558
 21
3.465338678314282
 72
     1
 10
4.921786975328558
 20
3.465338678314282
 11
4.661227975328557
 21
4.19379317831428
 72
     1
 10
4.661227975328557
 20
4.19379317831428
 11
4.189914475328549
 21
4.578391178314262
 72
     1
 10
4.189914475328549
 20
4.578391178314262
 11
3.590213475328567
 21
4.785315678314248
 72
     1
 10
3.590213475328567
 20
4.785315678314248
 11
2.929553975328559
 21
4.871710678314258
 72
     1
 10
2.929553975328559
 20
4.871710678314258
 11
2.262469975328542
 21
4.837775178314274
 72
     1
 10
2.262469975328542
 20
4.837775178314274
 11
1.632815975328554
 21
4.664038678314284
 72
     1
 10
1.632815975328554
 20
4.664038678314284
 11
1.075641475328552
 21
4.335898178314266
 72
     1
 10
1.075641475328552
 20
4.335898178314266
 11
0.6188849753285695
 21
3.857199678314259
 72
     1
 10
0.6188849753285695
 20
3.857199678314259
 11
0.2847019753285735
 21
3.254996178314257
 72
     1
 10
0.2847019753285735
 20
3.254996178314257
 11
0.0903659753285524
 21
2.57732267831426
 72
     1
 10
0.0903659753285524
 20
2.57732267831426
 11
0.0486334753285576
 21
1.885962678314285
 72
     1
 10
0.0486334753285576
 20
1.885962678314285
 11
0.1673769753285512
 21
1.246237678314258
 72
     1
 10
0.1673769753285512
 20
1.246237678314258
 11
0.4486119753285323
 21
0.7156286783142605
 72
     1
 10
0.4486119753285323
 20
0.7156286783142605
 11
0.8865389753285342
 21
0.3333501783142765
 72
     1
 10
0.8865389753285342
 20
0.3333501783142765
 11
1.464725475328549
 21
0.112723178314269
 72
     1
 10
1.464725475328549
 20
0.112723178314269
 11
2.152301475328556
 21
0.038306178314258
 72
     1
 10
2.152301475328556
 20
0.038306178314258
 11
2.898837975328547
 21
0.069876678314273
 72
     1
 10
2.898837975328547
 20
0.069876678314273
 11
3.628177475328556
 21
0.1549291783142621
 72
     1
 10
3.628177475328556
 20
0.1549291783142621
 11
4.230807975328559
 21
0.2520206783142669
 72
     1
 10
4.230807975328559
 20
0.2520206783142669
 11
4.284671475328565
 21
0.2642886783142728
 72
     1
 10
4.284671475328565
 20
0.2642886783142728
 11
4.338580975328568
 21
0.2768011783142867
 72
     1
 10
4.338580975328568
 20
0.2768011783142867
 11
4.392505475328562
 21
0.2895421783142638
 72
     1
 10
4.392505475328562
 20
0.2895421783142638
 11
4.83645997532858
 21
2.953330178314246
 72
     1
 10
4.83645997532858
 20
2.953330178314246
 11
2.552585475328555
 21
2.953330178314246
 72
     1
 10
2.552585475328555
 20
2.953330178314246
 11
2.416049475328549
 21
2.134131178314248
 72
     1
 10
2.416049475328549
 20
2.134131178314248
 11
3.454181475328539
 21
2.134131178314248
 72
     1
 10
3.454181475328539
 20
2.134131178314248
 11
3.313342975328538
 21
1.289114678314263
 72
     2
 10
2.347189143675734
 20
6.194831502486067
 40
4.999951078298644
 50
78.858501207424
 51
91.41386958452535
 73
     0
 97
        0
 75
     0
 76
     1
 98
        1
 10
78.94342397532856
 20
-1.062905321685718
450
        0
451
        0
460
0.0
461
0.0
452
        0
462
0.0
453
        0
470

1001
GENIUS_GENODEF_13
1002
{
1000
HIER
1070
     0
1002
}
1002
{
1000
MANEDIT
1070
     0
1002
}
1002
{
1000
NOSEL
1070
     0
1002
}
1002
{
1000
BEHIND
1070
     0
1002
}
1002
{
1000
REACTOR
1002
}
1001
GENIUS_GENOBJ-N-HTC_13
1002
{
1000
OWNER
1000
GEN
1002
}
1001
GENIUS_GENHATCH_13
1002
{
1000
DATA
1040
0.0
1042
0.5
1000
SOLID
1070
     0
1011
3.794008173068021
1021
0.9528598634049956
1031
0.0
1002
}
1002
{
1000
UCS
1010
0.0
1020
0.0
1030
0.0
1010
1.0
1020
0.0
1030
0.0
1010
0.0
1020
1.0
1030
0.0
1002
}
  0
POLYLINE
  5
F8
330
A2
100
AcDbEntity
  8
KOPF
  6
CONTINU
 62
     2
100
AcDb2dPolyline
 66
     1
 10
0.0
 20
0.0
 30
0.0
 70
     1
  0
VERTEX
  5
F9
330
F8
100
AcDbEntity
  8
KOPF
  6
CONTINU
 62
     2
100
AcDbVertex
100
AcDb2dVertex
 10
5.749469475328567
 20
4.694129178314256
 30
0.0
  0
VERTEX
  5
FA
330
F8
100
AcDbEntity
  8
KOPF
  6
CONTINU
 62
     2
100
AcDbVertex
100
AcDb2dVertex
 10
6.995212475328571
 20
4.694129178314256
 30
0.0
  0
VERTEX
  5
FB
330
F8
100
AcDbEntity
  8
KOPF
  6
CONTINU
 62
     2
100
AcDbVertex
100
AcDb2dVertex
 10
6.244296975328552
 20
0.1885291783142406
 30
0.0
  0
VERTEX
  5
FC
330
F8
100
AcDbEntity
  8
KOPF
  6
CONTINU
 62
     2
100
AcDbVertex
100
AcDb2dVertex
 10
4.998538475328558
 20
0.1885291783142406
 30
0.0
  0
SEQEND
  5
FD
330
F8
100
AcDbEntity
  8
KOPF
 62
     2
  0
HATCH
  5
FE
330
A2
100
AcDbEntity
  8
KOPF
 62
     7
100
AcDbHatch
 10
0.0
 20
0.0
 30
0.0
210
0.0
220
0.0
230
1.0
  2
SOLID
 70
     1
 71
     0
 91
        1
 92
        1
 93
        4
 72
     1
 10
5.749469475328567
 20
4.694129178314256
 11
4.998538475328558
 21
0.1885291783142406
 72
     1
 10
4.998538475328558
 20
0.1885291783142406
 11
6.244296975328552
 21
0.1885291783142406
 72
     1
 10
6.244296975328552
 20
0.1885291783142406
 11
6.995212475328571
 21
4.694129178314256
 72
     1
 10
6.995212475328571
 20
4.694129178314256
 11
5.749469475328567
 21
4.694129178314256
 97
        0
 75
     0
 76
     1
 98
        1
 10
78.94342397532856
 20
-1.062905321685718
450
        0
451
        0
460
0.0
461
0.0
452
        0
462
0.0
453
        0
470

1001
GENIUS_GENODEF_13
1002
{
1000
HIER
1070
     0
1002
}
1002
{
1000
MANEDIT
1070
     0
1002
}
1002
{
1000
NOSEL
1070
     0
1002
}
1002
{
1000
BEHIND
1070
     0
1002
}
1002
{
1000
REACTOR
1002
}
1001
GENIUS_GENOBJ-N-HTC_13
1002
{
1000
OWNER
1000
GEN
1002
}
1001
GENIUS_GENHATCH_13
1002
{
1000
DATA
1040
0.0
1042
0.5
1000
SOLID
1070
     0
1011
5.930903141474601
1021
0.6858655421573303
1031
0.0
1002
}
1002
{
1000
UCS
1010
0.0
1020
0.0
1030
0.0
1010
1.0
1020
0.0
1030
0.0
1010
0.0
1020
1.0
1030
0.0
1002
}
  0
ENDBLK
  5
100
330
A2
100
AcDbEntity
  8
0
100
AcDbBlockEnd
  0
BLOCK
  5
74
330
6A
100
AcDbEntity
  8
0
100
AcDbBlockBegin
  2
GEN_A4
 70
     0
 10
0.0
 20
0.0
 30
0.0
  3
GEN_A4
  1

  0
LINE
  5
6B
330
6A
100
AcDbEntity
  8
0
100
AcDbLine
 10
20.12
 20
7.0
 30
0.0
 11
203.0
 21
7.0
 31
0.0
  0
LINE
  5
6C
330
6A
100
AcDbEntity
  8
0
100
AcDbLine
 10
203.0
 20
7.0
 30
0.0
 11
203.0
 21
290.0
 31
0.0
  0
LINE
  5
6D
330
6A
100
AcDbEntity
  8
0
100
AcDbLine
 10
20.12
 20
290.0
 30
0.0
 11
203.0
 21
290.0
 31
0.0
  0
TEXT
  5
6E
330
6A
100
AcDbEntity
  8
0
 60
     1
100
AcDbText
 10
208.0
 20
300.0
 30
0.0
 40
3.5
  1
!GENTITLE-MAX
100
AcDbText
  0
TEXT
  5
6F
330
6A
100
AcDbEntity
  8
0
 60
     1
100
AcDbText
 10
203.0
 20
290.0
 30
0.0
 40
3.5
  1
!GENTITLE-RU
100
AcDbText
  0
TEXT
  5
70
330
6A
100
AcDbEntity
  8
0
 60
     1
100
AcDbText
 10
20.12
 20
61.99
 30
0.0
 40
3.5
  1
!GENTITLE-LL
100
AcDbText
  0
TEXT
  5
71
330
6A
100
AcDbEntity
  8
0
 60
     1
100
AcDbText
 10
203.0
 20
7.0
 30
0.0
 40
3.5
  1
!GENTITLE-INSERT
100
AcDbText
  0
LINE
  5
72
330
6A
100
AcDbEntity
  8
0
100
AcDbLine
 10
20.12
 20
290.0
 30
0.0
 11
20.12
 21
7.0
 31
0.0
  0
POINT
  5
73
330
6A
100
AcDbEntity
  8
0
 60
     1
100
AcDbPoint
 10
0.0
 20
0.0
 30
0.0
  0
ENDBLK
  5
75
330
6A
100
AcDbEntity
  8
0
100
AcDbBlockEnd
  0
BLOCK
  5
12E
330
8D
100
AcDbEntity
  8
0
100
AcDbBlockBegin
  2
GLMASSB1
 70
     2
 10
0.0
 20
0.0
 30
0.0
  3
GLMASSB1
  1

  0
LINE
  5
8E
330
8D
100
AcDbEntity
  8
RAHM2
100
AcDbLine
 10
-182.88
 20
4.230000000000018
 30
0.0
 11
0.0
 21
4.230000000000018
 31
0.0
  0
LINE
  5
8F
330
8D
100
AcDbEntity
  8
RAHM3
100
AcDbLine
 10
-129.54
 20
16.92000000000001
 30
0.0
 11
0.0
 21
16.92000000000001
 31
0.0
  0
LINE
  5
90
330
8D
100
AcDbEntity
  8
0
100
AcDbLine
 10
-182.88
 20
38.07000000000002
 30
0.0
 11
0.0
 21
38.07000000000002
 31
0.0
  0
LINE
  5
91
330
8D
100
AcDbEntity
  8
RAHM2
100
AcDbLine
 10
-182.88
 20
21.15000000000003
 30
0.0
 11
-129.54
 21
21.15000000000003
 31
0.0
  0
LINE
  5
92
330
8D
100
AcDbEntity
  8
RAHM2
100
AcDbLine
 10
-182.88
 20
16.92000000000001
 30
0.0
 11
-129.54
 21
16.92000000000001
 31
0.0
  0
LINE
  5
93
330
8D
100
AcDbEntity
  8
RAHM2
100
AcDbLine
 10
-182.88
 20
12.69000000000003
 30
0.0
 11
-129.54
 21
12.69000000000005
 31
0.0
  0
MTEXT
  5
94
330
8D
100
AcDbEntity
  8
RAHM3
 62
     2
100
AcDbMText
 10
-179.4065153342974
 20
35.47807136137425
 30
0.0
 40
3.0
 41
45.0
 46
0.0
 71
     1
 72
     5
  1
Für Fabrikation ungültig !
 73
     1
 44
1.0
  0
TEXT
  5
95
330
8D
100
AcDbEntity
  8
RAHM2
100
AcDbText
 10
-173.0163605444353
 20
1.199999999999988
 30
0.0
 40
2.000000000000294
  1
Änderung
 72
     1
 11
-167.2801168577268
 21
1.199999999999988
 31
0.0
100
AcDbText
1001
GENIUS_GENTRA_14
1002
{
1070
     1
1000
GENTRATX,%s,(GENMSG gendwg 61)
1000
Änderung
1000
d
1070
     0
1040
1.0
1070
     0
1002
}
  0
LINE
  5
97
330
8D
100
AcDbEntity
  8
RAHM2
100
AcDbLine
 10
-182.88
 20
8.460000000000036
 30
0.0
 11
-129.54
 21
8.460000000000036
 31
0.0
  0
LINE
  5
98
330
8D
100
AcDbEntity
  8
RAHM2
100
AcDbLine
 10
-129.54
 20
33.84000000000003
 30
0.0
 11
-86.35999999999995
 21
33.84000000000003
 31
0.0
  0
LINE
  5
99
330
8D
100
AcDbEntity
  8
RAHM2
100
AcDbLine
 10
-182.88
 20
29.61000000000002
 30
0.0
 11
-86.35999999999995
 21
29.61000000000002
 31
0.0
  0
LINE
  5
9A
330
8D
100
AcDbEntity
  8
RAHM2
100
AcDbLine
 10
-182.88
 20
25.38000000000002
 30
0.0
 11
-86.35999999999995
 21
25.38000000000002
 31
0.0
  0
LINE
  5
9B
330
8D
100
AcDbEntity
  8
RAHM2
100
AcDbLine
 10
-175.26
 20
29.61000000000002
 30
0.0
 11
-175.26
 21
0.0
 31
0.0
  0
TEXT
  5
9C
330
8D
100
AcDbEntity
  8
RAHM2
100
AcDbText
 10
-180.5883006538761
 20
1.199999999999988
 30
0.0
 40
2.000000000000294
  1
Nr.
 72
     1
 11
-178.8883006538758
 21
1.199999999999988
 31
0.0
100
AcDbText
  0
LINE
  5
9D
330
8D
100
AcDbEntity
  8
RAHM3
100
AcDbLine
 10
-86.35999999999995
 20
38.07000000000003
 30
0.0
 11
-86.35999999999995
 21
0.0
 31
0.0
  0
LINE
  5
9E
330
8D
100
AcDbEntity
  8
RAHM3
100
AcDbLine
 10
-129.54
 20
21.15000000000003
 30
0.0
 11
-129.54
 21
0.0
 31
0.0
  0
LINE
  5
9F
330
8D
100
AcDbEntity
  8
RAHM2
100
AcDbLine
 10
-137.16
 20
29.61000000000002
 30
0.0
 11
-137.16
 21
0.0
 31
0.0
  0
LINE
  5
A0
330
8D
100
AcDbEntity
  8
RAHM2
100
AcDbLine
 10
-149.8599999999999
 20
29.61000000000002
 30
0.0
 11
-149.8599999999999
 21
0.0
 31
0.0
  0
INSERT
  5
A1
330
8D
100
AcDbEntity
  8
RAHM5
100
AcDbBlockReference
  2
GLUTZ1
 10
-128.5393330295188
 20
8.137302263146466
 30
0.0
  0
TEXT
  5
101
330
8D
100
AcDbEntity
  8
RAHM2
100
AcDbText
 10
-147.6104524425095
 20
1.199999999999988
 30
0.0
 40
2.000000000000294
  1
Datum
 72
     1
 11
-143.8742087558013
 21
1.199999999999988
 31
0.0
100
AcDbText
1001
GENIUS_GENTRA_14
1002
{
1070
     1
1000
GENTRATX,%s,(GENMSG gendwg 62)
1000
Datum
1000
d
1070
     0
1040
1.0
1070
     0
1002
}
  0
TEXT
  5
102
330
8D
100
AcDbEntity
  8
RAHM2
100
AcDbText
 10
-136.5823351702584
 20
1.19999999999851
 30
0.0
 40
2.000000000000294
  1
Name
100
AcDbText
1001
GENIUS_GENTRA_14
1002
{
1070
     1
1000
GENTRATX{3.31},%s,(GENMSG gendwg 63)
1000
Name
1000
d
1070
     0
1040
1.0
1070
     0
1002
}
  0
TEXT
  5
103
330
8D
100
AcDbEntity
  8
RAHM2
100
AcDbText
 10
-128.4506977874778
 20
1.220747800586508
 30
0.0
 40
2.000000000000196
  1
Datei:
 41
0.8
100
AcDbText
  0
MTEXT
  5
104
330
8D
100
AcDbEntity
  8
RAHM3
 62
     2
100
AcDbMText
 10
-109.3434521853635
 20
8.705840189037161
 30
0.0
 40
2.0
 41
76.23000000000001
 46
0.0
 71
     1
 72
     5
  1
CH-4502 Solothurn
 73
     1
 44
1.0
  0
TEXT
  5
105
330
8D
100
AcDbEntity
  8
RAHM2
 62
     1
100
AcDbText
 10
-85.15692863201479
 20
1.073329287851606
 30
0.0
 40
2.0
  1
Ers. für:
100
AcDbText
  0
LINE
  5
106
330
8D
100
AcDbEntity
  8
RAHM2
100
AcDbLine
 10
-129.54
 20
21.15000000000003
 30
0.0
 11
-86.35999999999995
 21
21.15000000000003
 31
0.0
  0
TEXT
  5
107
330
8D
100
AcDbEntity
  8
RAHM2
100
AcDbText
 10
-128.34
 20
30.71000000000001
 30
0.0
 40
2.000000000000294
  1
Bearb.
100
AcDbText
1001
GENIUS_GENTRA_14
1002
{
1070
     1
1000
GENTRATX{4.13},%s,(GENMSG gendwg 67)
1000
Bearb.
1000
d
1070
     0
1040
1.0
1070
     0
1002
}
  0
LINE
  5
108
330
8D
100
AcDbEntity
  8
RAHM2
100
AcDbLine
 10
-119.38
 20
38.07000000000002
 30
0.0
 11
-119.38
 21
25.38000000000002
 31
0.0
  0
LINE
  5
109
330
8D
100
AcDbEntity
  8
RAHM3
100
AcDbLine
 10
-129.54
 20
38.07000000000002
 30
0.0
 11
-129.54
 21
21.15000000000003
 31
0.0
  0
TEXT
  5
10A
330
8D
100
AcDbEntity
  8
RAHM2
100
AcDbText
 10
-128.4098152078466
 20
18.06273924390339
 30
0.0
 40
2.000000000000294
  1
Format
100
AcDbText
  0
TEXT
  5
10B
330
8D
100
AcDbEntity
  8
RAHM2
100
AcDbText
 10
-128.34
 20
26.48000000000002
 30
0.0
 40
2.000000000000294
  1
Gepr.
100
AcDbText
1001
GENIUS_GENTRA_14
1002
{
1070
     1
1000
GENTRATX{4.19},%s,(GENMSG gendwg 68)
1000
Gepr.
1000
d
1070
     0
1040
1.0
1070
     0
1002
}
  0
LINE
  5
10C
330
8D
100
AcDbEntity
  8
RAHM2
100
AcDbLine
 10
-104.14
 20
38.07000000000002
 30
0.0
 11
-104.14
 21
16.92000000000001
 31
0.0
  0
TEXT
  5
10D
330
8D
100
AcDbEntity
  8
RAHM5
 62
     7
100
AcDbText
 10
-109.810847736663
 20
11.70157078455995
 30
0.0
 40
3.5
  1
Glutz AG
100
AcDbText
  0
TEXT
  5
10E
330
8D
100
AcDbEntity
  8
RAHM2
100
AcDbText
 10
-117.0692984212765
 20
35.04000000000002
 30
0.0
 40
2.000000000000294
  1
Datum
 41
0.983632218248894
 72
     1
 11
-113.3942087558013
 21
35.04000000000002
 31
0.0
100
AcDbText
1001
GENIUS_GENTRA_14
1002
{
1070
     1
1000
GENTRATX{3.38},%s,(GENMSG gendwg 62)
1000
Datum
1000
d
1070
     0
1040
1.0
1070
     0
1002
}
  0
TEXT
  5
10F
330
8D
100
AcDbEntity
  8
RAHM2
100
AcDbText
 10
-101.0179677247366
 20
35.04000000000002
 30
0.0
 40
2.000000000000294
  1
Name
 72
     2
 11
-95.11796772473577
 21
35.04000000000002
 31
0.0
100
AcDbText
1001
GENIUS_GENTRA_14
1002
{
1070
     1
1000
GENTRATX,%s,(GENMSG gendwg 63)
1000
Name
1000
d
1070
     0
1040
1.0
1070
     0
1002
}
  0
TEXT
  5
110
330
8D
100
AcDbEntity
  8
RAHM2
100
AcDbText
 10
-128.3124050782448
 20
22.24469448710818
 30
0.0
 40
2.000000000000294
  1
Massstab
100
AcDbText
  0
LINE
  5
111
330
8D
100
AcDbEntity
  8
RAHM2
100
AcDbLine
 10
-10.15999999999997
 20
16.92000000000001
 30
0.0
 11
-10.15999999999997
 21
0.0
 31
0.0
  0
TEXT
  5
112
330
8D
100
AcDbEntity
  8
RAHM2
 62
     1
100
AcDbText
 10
-44.97248047431821
 20
1.073329287851606
 30
0.0
 40
2.0
  1
Ers. durch:
100
AcDbText
  0
LINE
  5
113
330
8D
100
AcDbEntity
  8
RAHM2
100
AcDbLine
 10
-10.15999999999997
 20
8.460000000000036
 30
0.0
 11
0.0
 21
8.460000000000036
 31
0.0
  0
TEXT
  5
114
330
8D
100
AcDbEntity
  8
RAHM2
100
AcDbText
 10
-3.184415883363063
 20
5.60997067448676
 30
0.0
 40
2.000000000000294
  1
Bl
 72
     1
 11
-1.984415883362885
 21
5.60997067448676
 31
0.0
100
AcDbText
1001
GENIUS_GENTRA_14
1002
{
1070
     1
1000
GENTRATX,%s,(GENMSG gendwg 77)
1000
Bl
1000
d
1070
     0
1040
1.0
1070
     0
1002
}
  0
TEXT
  5
115
330
8D
100
AcDbEntity
  8
RAHM2
100
AcDbText
 10
-8.890271956152652
 20
14.06744868035187
 30
0.0
 40
2.000000000000294
  1
Blatt
 72
     1
 11
-5.790271956152196
 21
14.06744868035187
 31
0.0
100
AcDbText
1001
GENIUS_GENTRA_14
1002
{
1070
     1
1000
GENTRATX,%s,(GENMSG gendwg 76)
1000
Blatt
1000
d
1070
     0
1040
1.0
1070
     0
1002
}
  0
ATTDEF
  5
116
330
8D
100
AcDbEntity
  8
RAHM2
100
AcDbText
 10
-122.7072858550522
 20
0.5846257810491125
 30
0.0
 40
3.000000000000294
  1

 41
0.8
100
AcDbAttributeDefinition
  3
Dateiname
  2
GEN-TITLE-DWG{8.92}
 70
     0
280
     0
1001
GENIUS_GENTRA_14
1002
{
1070
     3
1000
GENTRAPR,%s,(GENMSG gendwg 82)
1000
Dateiname
1000
d
1070
     0
1070
     0
1002
}
  0
ATTDEF
  5
117
330
8D
100
AcDbEntity
  8
RAHM2
100
AcDbText
 10
-103.1077603831749
 20
21.87123384445602
 30
0.0
 40
2.500000000000367
  1

100
AcDbAttributeDefinition
  3
Maßstab
  2
GEN-TITLE-SCA{5.42}
 70
     0
280
     0
1001
GENIUS_GENTRA_14
1002
{
1070
     3
1000
GENTRAPR,%s,(GENMSG gendwg 83)
1000
Maßstab
1000
d
1070
     0
1070
     0
1002
}
  0
ATTDEF
  5
118
330
8D
100
AcDbEntity
  8
RAHM5
100
AcDbText
 10
-15.62317922068642
 20
7.875
 30
0.0
 40
5.000000000000735
  1
 
 41
0.8
 72
     2
 11
-14.02317922068619
 21
7.875
 31
0.0
100
AcDbAttributeDefinition
  3
Zeichnungsnummer
  2
GEN-TITLE-NR{13.37}
 70
     0
280
     0
1001
GENIUS_GENTRA_14
1002
{
1070
     3
1000
GENTRAPR,%s,(GENMSG gendwg 84)
1000
Zeichnungsnummer
1000
d
1070
     0
1070
     0
1002
}
  0
ATTDEF
  5
119
330
8D
100
AcDbEntity
  8
RAHM5
100
AcDbText
 10
-81.2071643690715
 20
29.17459677419356
 30
0.0
 40
5.00000000000049
  1

 41
0.8
100
AcDbAttributeDefinition
  3
Zeichnungsname (mx. 20 Z.)
  2
GEN-TITLE-DES1{15.54}
 70
     0
280
     0
1001
GENIUS_GENTRA_14
1002
{
1070
     3
1000
GENTRAPR,%s,(GENMSG gendwg 87)
1000
Zeichnungsname (mx. 20 Z.)
1000
d
1070
     0
1070
     0
1002
}
  0
ATTDEF
  5
11A
330
8D
100
AcDbEntity
  8
RAHM3
100
AcDbText
 10
-80.70716436907151
 20
21.17459677419356
 30
0.0
 40
3.500000000000171
  1
Massbild
 41
0.8
100
AcDbAttributeDefinition
  3
Untertitel
  2
GEN-TITLE-DES2{21.21}
 70
     0
280
     0
  0
ATTDEF
  5
11B
330
8D
100
AcDbEntity
  8
RAHM3
100
AcDbText
 10
-5.70040711384613
 20
9.420007355724408
 30
0.0
 40
3.0
  1
1
 41
0.8
 72
     1
 11
-5.100407113846131
 21
9.420007355724408
 31
0.0
100
AcDbAttributeDefinition
  3
Blatt
  2
GEN-TITLE-SHEET{2.62}
 70
     0
280
     0
1001
GENIUS_GENTRA_14
1002
{
1070
     3
1000
GENTRAPR,%s,(GENMSG gendwg 76)
1000
Blatt
1000
d
1070
     0
1070
     0
1002
}
  0
ATTDEF
  5
11C
330
8D
100
AcDbEntity
  8
RAHM2
 62
     2
100
AcDbText
 10
-9.030313474146169
 20
5.354862930298622
 30
0.0
 40
2.0
  1
1
100
AcDbAttributeDefinition
  3
Anzahl Blatt
  2
ANZBLATT
 70
     0
280
     0
  0
ATTDEF
  5
11D
330
8D
100
AcDbEntity
  8
RAHM2
100
AcDbText
 10
-118.7019468872817
 20
30.41000000000003
 30
0.0
 40
2.500000000000367
  1

100
AcDbAttributeDefinition
  3
Bearbeitungsdatum
  2
GEN-TITLE-DAT{5.44}
 70
     0
280
     0
1001
GENIUS_GENTRA_14
1002
{
1070
     3
1000
GENTRAPR,%s,(GENMSG gendwg 80)
1000
Bearbeitungsdatum
1000
d
1070
     0
1070
     0
1002
}
  0
ATTDEF
  5
11E
330
8D
100
AcDbEntity
  8
RAHM2
100
AcDbText
 10
-102.5325281430328
 20
30.41000000000003
 30
0.0
 40
2.500000000000367
  1

100
AcDbAttributeDefinition
  3
Name des Bearbeiters
  2
GEN-TITLE-NAME{5}
 70
     0
280
     0
1001
GENIUS_GENTRA_14
1002
{
1070
     3
1000
GENTRAPR,%s,(GENMSG gendwg 81)
1000
Name des Bearbeiters
1000
d
1070
     0
1070
     0
1002
}
  0
ATTDEF
  5
11F
330
8D
100
AcDbEntity
  8
RAHM2
100
AcDbText
 10
-118.5451003624019
 20
26.17804422461478
 30
0.0
 40
2.500000000000367
  1

100
AcDbAttributeDefinition
  3
Prüfdatum
  2
GEN-TITLE-CHKD{5.41}
 70
     0
280
     0
1001
GENIUS_GENTRA_14
1002
{
1070
     3
1000
GENTRAPR,%s,(GENMSG gendwg 78)
1000
Prüfdatum
1000
d
1070
     0
1070
     0
1002
}
  0
ATTDEF
  5
120
330
8D
100
AcDbEntity
  8
RAHM2
100
AcDbText
 10
-102.0619852594997
 20
26.4915214039151
 30
0.0
 40
2.500000000000367
  1

100
AcDbAttributeDefinition
  3
Geprüft von
  2
GEN-TITLE-CHKM{5}
 70
     0
280
     0
1001
GENIUS_GENTRA_14
1002
{
1070
     3
1000
GENTRAPR,%s,(GENMSG gendwg 72)
1000
Geprüft von
1000
d
1070
     0
1070
     0
1002
}
  0
ATTDEF
  5
121
330
8D
100
AcDbEntity
  8
RAHM2
100
AcDbText
 10
-102.9229702314162
 20
17.77922510127297
 30
0.0
 40
2.500000000000367
  1
A 4
100
AcDbAttributeDefinition
  3
Format
  2
FORMAT
 70
     0
280
     0
  0
ATTDEF
  5
122
330
8D
100
AcDbEntity
  8
RAHM2
 62
     2
100
AcDbText
 10
-74.59407938355946
 20
1.069999999999993
 30
0.0
 40
2.0
  1

100
AcDbAttributeDefinition
  3
Ersatz für
  2
ERS.FÜR
 70
     0
280
     0
  0
ATTDEF
  5
123
330
8D
100
AcDbEntity
  8
RAHM2
 62
     2
100
AcDbText
 10
-31.51210471117906
 20
1.005195332250792
 30
0.0
 40
2.0
  1

100
AcDbAttributeDefinition
  3
Ersetzt durch:
  2
ERS.DURCH
 70
     0
280
     0
  0
ATTDEF
  5
124
330
8D
100
AcDbEntity
  8
RAHM2
100
AcDbText
 10
-5.369955967542637
 20
0.4161834165005303
 30
0.0
 40
3.000000000000294
  1

 72
     1
 11
-5.369955967542637
 21
0.4161834165005303
 31
0.0
100
AcDbAttributeDefinition
  3
Plot-Datum
  2
GEN-TITLE-PLOT{2.94}
 70
     0
280
     0
1001
GENIUS_GENTRA_14
1002
{
1070
     3
1000
GENTRAPR,%s,(GENMSG gendwg 91)
1000
Plot-Datum
1000
d
1070
     0
1070
     0
1002
}
  0
POLYLINE
  5
125
330
8D
100
AcDbEntity
  8
0
100
AcDb2dPolyline
 66
     1
 10
0.0
 20
0.0
 30
0.0
  0
VERTEX
  5
126
330
125
100
AcDbEntity
  8
0
100
AcDbVertex
100
AcDb2dVertex
 10
-182.88
 20
0.0
 30
0.0
  0
VERTEX
  5
127
330
125
100
AcDbEntity
  8
0
100
AcDbVertex
100
AcDb2dVertex
 10
0.0
 20
0.0
 30
0.0
  0
VERTEX
  5
128
330
125
100
AcDbEntity
  8
0
100
AcDbVertex
100
AcDb2dVertex
 10
0.0
 20
38.07000000000002
 30
0.0
  0
SEQEND
  5
129
330
125
100
AcDbEntity
  8
0
  0
POLYLINE
  5
12A
330
8D
100
AcDbEntity
  8
0
100
AcDb2dPolyline
 66
     1
 10
0.0
 20
0.0
 30
0.0
  0
VERTEX
  5
12B
330
12A
100
AcDbEntity
  8
0
100
AcDbVertex
100
AcDb2dVertex
 10
-182.88
 20
38.07000000000002
 30
0.0
  0
VERTEX
  5
12C
330
12A
100
AcDbEntity
  8
0
100
AcDbVertex
100
AcDb2dVertex
 10
-182.88
 20
0.0
 30
0.0
  0
SEQEND
  5
12D
330
12A
100
AcDbEntity
  8
0
  0
ENDBLK
  5
12F
330
8D
100
AcDbEntity
  8
0
100
AcDbBlockEnd
  0
BLOCK
  5
253
330
252
100
AcDbEntity
  8
0
100
AcDbBlockBegin
  2
*U3
 70
     1
 10
0.0
 20
0.0
 30
0.0
  3
*U3
  1

  0
ENDBLK
  5
254
330
252
100
AcDbEntity
  8
0
100
AcDbBlockEnd
  0
BLOCK
  5
294
330
292
100
AcDbEntity
  8
0
100
AcDbBlockBegin
  2
GENAXEH
 70
     0
 10
0.0
 20
0.0
 30
0.0
  3
GENAXEH
  1

  0
LINE
  5
293
330
292
100
AcDbEntity
  8
0
100
AcDbLine
 10
-1.0
 20
0.0
 30
0.0
 11
1.0
 21
0.0
 31
0.0
  0
ENDBLK
  5
295
330
292
100
AcDbEntity
  8
0
100
AcDbBlockEnd
  0
BLOCK
  5
448
330
447
100
AcDbEntity
  8
0
100
AcDbBlockBegin
  2
*D5
 70
     1
 10
0.0
 20
0.0
 30
0.0
  3
*D5
  1

  0
LINE
  5
A1C
330
447
100
AcDbEntity
  8
AM_REFDIM
370
    -2
100
AcDbLine
 10
66.04216510435586
 20
184.0604617593418
 30
0.0
 11
66.04216510435586
 21
213.4697422661171
 31
0.0
  0
LINE
  5
A1D
330
447
100
AcDbEntity
  8
AM_REFDIM
370
    -2
100
AcDbLine
 10
98.542165104356
 20
181.8651769657398
 30
0.0
 11
98.542165104356
 21
213.4697422661171
 31
0.0
  0
LINE
  5
A1E
330
447
100
AcDbEntity
  8
AM_REFDIM
370
    -2
100
AcDbLine
 10
73.04216510435586
 20
209.969742266117
 30
0.0
 11
91.54216510435601
 21
209.969742266117
 31
0.0
  0
SOLID
  5
A1F
330
447
100
AcDbEntity
  8
AM_REFDIM
100
AcDbTrace
 10
73.04216510435586
 20
211.1364089327837
 30
0.0
 11
73.04216510435586
 21
208.8030755994504
 31
0.0
 12
66.04216510435586
 22
209.969742266117
 32
0.0
 13
66.04216510435586
 23
209.969742266117
 33
0.0
  0
SOLID
  5
A20
330
447
100
AcDbEntity
  8
AM_REFDIM
100
AcDbTrace
 10
91.54216510435601
 20
211.1364089327837
 30
0.0
 11
91.54216510435601
 21
208.8030755994504
 31
0.0
 12
98.542165104356
 22
209.969742266117
 32
0.0
 13
98.542165104356
 23
209.969742266117
 33
0.0
  0
MTEXT
  5
A21
330
447
100
AcDbEntity
  8
AM_REFDIM
 62
     2
100
AcDbMText
 10
82.85838083753976
 20
215.470431242495
 30
0.0
 40
7.0
 41
0.0
 46
0.0
 71
     5
 72
     1
  1
32.5
 73
     1
 44
1.0
  0
POINT
  5
A22
330
447
100
AcDbEntity
  8
Defpoints
 62
     0
100
AcDbPoint
 10
66.04216510435586
 20
184.0604617593418
 30
0.0
  0
POINT
  5
A23
330
447
100
AcDbEntity
  8
Defpoints
 62
     0
100
AcDbPoint
 10
98.542165104356
 20
181.8651769657398
 30
0.0
  0
POINT
  5
A24
330
447
100
AcDbEntity
  8
Defpoints
 62
     0
100
AcDbPoint
 10
98.542165104356
 20
209.969742266117
 30
0.0
  0
ENDBLK
  5
449
330
447
100
AcDbEntity
  8
0
100
AcDbBlockEnd
  0
BLOCK
  5
499
330
498
100
AcDbEntity
  8
0
100
AcDbBlockBegin
  2
*D6
 70
     1
 10
0.0
 20
0.0
 30
0.0
  3
*D6
  1

  0
LINE
  5
B06
330
498
100
AcDbEntity
  8
AM_REFDIM
370
    -2
100
AcDbLine
 10
141.2850698943128
 20
198.1151769657398
 30
0.0
 11
141.2850698943128
 21
216.2978811921768
 31
0.0
  0
LINE
  5
B07
330
498
100
AcDbEntity
  8
AM_REFDIM
370
    -2
100
AcDbLine
 10
155.2850698943086
 20
196.3151769657398
 30
0.0
 11
155.2850698943086
 21
216.2978811921768
 31
0.0
  0
LINE
  5
B08
330
498
100
AcDbEntity
  8
AM_REFDIM
370
    -2
100
AcDbLine
 10
134.2850698943128
 20
212.7978811921769
 30
0.0
 11
127.2850698943128
 21
212.7978811921769
 31
0.0
  0
LINE
  5
B09
330
498
100
AcDbEntity
  8
AM_REFDIM
370
    -2
100
AcDbLine
 10
162.2850698943086
 20
212.7978811921769
 30
0.0
 11
169.2850698943086
 21
212.7978811921769
 31
0.0
  0
LINE
  5
B0A
330
498
100
AcDbEntity
  8
AM_REFDIM
370
    -2
100
AcDbLine
 10
141.2850698943128
 20
212.7978811921769
 30
0.0
 11
155.2850698943086
 21
212.7978811921769
 31
0.0
  0
SOLID
  5
B0B
330
498
100
AcDbEntity
  8
AM_REFDIM
100
AcDbTrace
 10
134.2850698943128
 20
213.9645478588435
 30
0.0
 11
134.2850698943128
 21
211.6312145255102
 31
0.0
 12
141.2850698943128
 22
212.7978811921769
 32
0.0
 13
141.2850698943128
 23
212.7978811921769
 33
0.0
  0
SOLID
  5
B0C
330
498
100
AcDbEntity
  8
AM_REFDIM
100
AcDbTrace
 10
162.2850698943086
 20
213.9645478588435
 30
0.0
 11
162.2850698943086
 21
211.6312145255102
 31
0.0
 12
155.2850698943086
 22
212.7978811921769
 32
0.0
 13
155.2850698943086
 23
212.7978811921769
 33
0.0
  0
MTEXT
  5
B0D
330
498
100
AcDbEntity
  8
AM_REFDIM
 62
     2
100
AcDbMText
 10
148.2850698943107
 20
218.2978811921768
 30
0.0
 40
7.0
 41
0.0
 46
0.0
 71
     5
 72
     1
  1
14
 73
     1
 44
1.0
  0
POINT
  5
B0E
330
498
100
AcDbEntity
  8
Defpoints
 62
     0
100
AcDbPoint
 10
141.2850698943128
 20
198.1151769657398
 30
0.0
  0
POINT
  5
B0F
330
498
100
AcDbEntity
  8
Defpoints
 62
     0
100
AcDbPoint
 10
155.2850698943086
 20
196.3151769657398
 30
0.0
  0
POINT
  5
B10
330
498
100
AcDbEntity
  8
Defpoints
 62
     0
100
AcDbPoint
 10
155.2850698943086
 20
212.7978811921769
 30
0.0
  0
ENDBLK
  5
49A
330
498
100
AcDbEntity
  8
0
100
AcDbBlockEnd
  0
BLOCK
  5
4BE
330
4BD
100
AcDbEntity
  8
0
100
AcDbBlockBegin
  2
*D7
 70
     1
 10
0.0
 20
0.0
 30
0.0
  3
*D7
  1

  0
LINE
  5
AA5
330
4BD
100
AcDbEntity
  8
AM_REFDIM
370
    -2
100
AcDbLine
 10
82.29216510435591
 20
187.1151769657398
 30
0.0
 11
46.0841244585267
 21
187.1151769657398
 31
0.0
  0
LINE
  5
AA6
330
4BD
100
AcDbEntity
  8
AM_REFDIM
370
    -2
100
AcDbLine
 10
82.30098801254944
 20
137.1150471981588
 30
0.0
 11
46.08412445852668
 21
137.1150471981589
 31
0.0
  0
LINE
  5
AA7
330
4BD
100
AcDbEntity
  8
AM_REFDIM
370
    -2
100
AcDbLine
 10
49.5841244585267
 20
180.1151769657398
 30
0.0
 11
49.58412445852669
 21
144.1150471981589
 31
0.0
  0
SOLID
  5
AA8
330
4BD
100
AcDbEntity
  8
AM_REFDIM
100
AcDbTrace
 10
48.41745779186004
 20
180.1151769657398
 30
0.0
 11
50.75079112519336
 21
180.1151769657398
 31
0.0
 12
49.5841244585267
 22
187.1151769657398
 32
0.0
 13
49.5841244585267
 23
187.1151769657398
 33
0.0
  0
SOLID
  5
AA9
330
4BD
100
AcDbEntity
  8
AM_REFDIM
100
AcDbTrace
 10
48.41745779186003
 20
144.1150471981589
 30
0.0
 11
50.75079112519336
 21
144.1150471981589
 31
0.0
 12
49.58412445852669
 22
137.1150471981589
 32
0.0
 13
49.58412445852669
 23
137.1150471981589
 33
0.0
  0
MTEXT
  5
AAA
330
4BD
100
AcDbEntity
  8
AM_REFDIM
 62
     2
100
AcDbMText
 10
44.08412445852667
 20
162.1151120819493
 30
0.0
 40
7.0
 41
0.0
 46
0.0
 71
     5
 72
     1
  1
50
 11
0.0000000000000001
 21
1.0
 31
0.0
 73
     1
 44
1.0
  0
POINT
  5
AAB
330
4BD
100
AcDbEntity
  8
Defpoints
 62
     0
100
AcDbPoint
 10
82.29216510435591
 20
187.1151769657398
 30
0.0
  0
POINT
  5
AAC
330
4BD
100
AcDbEntity
  8
Defpoints
 62
     0
100
AcDbPoint
 10
82.30098801254944
 20
137.1150471981588
 30
0.0
  0
POINT
  5
AAD
330
4BD
100
AcDbEntity
  8
Defpoints
 62
     0
100
AcDbPoint
 10
49.58412445852669
 20
137.1150471981589
 30
0.0
  0
ENDBLK
  5
4BF
330
4BD
100
AcDbEntity
  8
0
100
AcDbBlockEnd
  0
BLOCK
  5
58B
330
58A
100
AcDbEntity
  8
0
100
AcDbBlockBegin
  2
FILLED-1
 70
     0
 10
0.0
 20
0.0
 30
0.0
  3
FILLED-1
  1

  0
LINE
  5
58C
330
58A
100
AcDbEntity
  8
0
 62
     0
100
AcDbLine
 10
-1.0
 20
0.0
 30
0.0
 11
0.0
 21
0.0
 31
0.0
  0
POLYLINE
  5
58D
330
58A
100
AcDbEntity
  8
0
 62
     0
100
AcDb2dPolyline
 66
     1
 10
0.0
 20
0.0
 30
0.0
 70
   128
  0
VERTEX
  5
58E
330
58D
100
AcDbEntity
  8
0
 62
     0
100
AcDbVertex
100
AcDb2dVertex
 10
-1.0
 20
-0.1666666666666667
 30
0.0
  0
VERTEX
  5
58F
330
58D
100
AcDbEntity
  8
0
 62
     0
100
AcDbVertex
100
AcDb2dVertex
 10
0.0
 20
0.0
 30
0.0
  0
VERTEX
  5
590
330
58D
100
AcDbEntity
  8
0
 62
     0
100
AcDbVertex
100
AcDb2dVertex
 10
-1.0
 20
0.1666666666666667
 30
0.0
  0
VERTEX
  5
591
330
58D
100
AcDbEntity
  8
0
 62
     0
100
AcDbVertex
100
AcDb2dVertex
 10
-1.0
 20
-0.1666666666666667
 30
0.0
  0
SEQEND
  5
592
330
58D
100
AcDbEntity
  8
0
 62
     0
  0
SOLID
  5
593
330
58A
100
AcDbEntity
  8
0
 62
     0
100
AcDbTrace
 10
-1.0
 20
-0.1666666666666667
 30
0.0
 11
0.0
 21
0.0
 31
0.0
 12
-1.0
 22
0.1666666666666667
 32
0.0
 13
-1.0
 23
-0.1666666666666667
 33
0.0
  0
LINE
  5
594
330
58A
100
AcDbEntity
  8
0
 62
     0
100
AcDbLine
 10
-1.0
 20
-0.1666666666666667
 30
0.0
 11
0.0
 21
0.0
 31
0.0
  0
LINE
  5
595
330
58A
100
AcDbEntity
  8
0
 62
     0
100
AcDbLine
 10
0.0
 20
0.0
 30
0.0
 11
-1.0
 21
0.1666666666666667
 31
0.0
  0
LINE
  5
596
330
58A
100
AcDbEntity
  8
0
 62
     0
100
AcDbLine
 10
-1.0
 20
0.1666666666666667
 30
0.0
 11
-1.0
 21
-0.1666666666666667
 31
0.0
  0
ENDBLK
  5
597
330
58A
100
AcDbEntity
  8
0
100
AcDbBlockEnd
  0
BLOCK
  5
599
330
598
100
AcDbEntity
  8
0
100
AcDbBlockBegin
  2
2DTRANSSCHNITT0
 70
     0
 10
0.0
 20
0.0
 30
0.0
  3
2DTRANSSCHNITT0
  1

  0
LINE
  5
59A
330
598
100
AcDbEntity
  8
SCHNITTANSICHTSLINIEN_ISO-
  6
CHAIN
100
AcDbLine
 10
55.59728660150177
 20
182.3018545331295
 30
0.0
 11
55.59728660150177
 21
83.49643359013567
 31
0.0
  0
LINE
  5
59B
330
598
100
AcDbEntity
  8
SCHNITTANSICHTSLINIEN_ISO-
100
AcDbLine
 10
55.59728660150177
 20
182.3018545331295
 30
0.0
 11
55.59728660150177
 21
172.9867943984161
 31
0.0
  0
LINE
  5
59C
330
598
100
AcDbEntity
  8
SCHNITTANSICHTSLINIEN_ISO-
100
AcDbLine
 10
55.59728660150177
 20
92.81149372484907
 30
0.0
 11
55.59728660150177
 21
83.49643359013567
 31
0.0
  0
LINE
  5
59D
330
598
100
AcDbEntity
  8
SCHNITTANSICHTSLINIEN_ISO-
  6
Continuous
100
AcDbLine
 10
50.59728660150177
 20
177.6443244657728
 30
0.0
 11
55.59728660150177
 21
177.6443244657728
 31
0.0
  0
POLYLINE
  5
59E
330
598
100
AcDbEntity
  8
SCHNITTANSICHTSLINIEN_ISO-
  6
Continuous
100
AcDb2dPolyline
 66
     1
 10
0.0
 20
0.0
 30
0.0
 70
   128
  0
VERTEX
  5
59F
330
59E
100
AcDbEntity
  8
SCHNITTANSICHTSLINIEN_ISO-
  6
Continuous
100
AcDbVertex
100
AcDb2dVertex
 10
50.59728660150177
 20
176.6443232379631
 30
0.0
  0
VERTEX
  5
5A0
330
59E
100
AcDbEntity
  8
SCHNITTANSICHTSLINIEN_ISO-
  6
Continuous
100
AcDbVertex
100
AcDb2dVertex
 10
55.59728660150177
 20
177.6443222842888
 30
0.0
  0
VERTEX
  5
5A1
330
59E
100
AcDbEntity
  8
SCHNITTANSICHTSLINIEN_ISO-
  6
Continuous
100
AcDbVertex
100
AcDb2dVertex
 10
50.59728660150177
 20
178.6443260989861
 30
0.0
  0
VERTEX
  5
5A2
330
59E
100
AcDbEntity
  8
SCHNITTANSICHTSLINIEN_ISO-
  6
Continuous
100
AcDbVertex
100
AcDb2dVertex
 10
50.59728660150177
 20
176.6443232379631
 30
0.0
  0
SEQEND
  5
5A3
330
59E
100
AcDbEntity
  8
SCHNITTANSICHTSLINIEN_ISO-
  6
Continuous
  0
SOLID
  5
5A4
330
598
100
AcDbEntity
  8
SCHNITTANSICHTSLINIEN_ISO-
100
AcDbTrace
 10
50.59728660150177
 20
176.6443232379631
 30
0.0
 11
55.59728660150177
 21
177.6443222842888
 31
0.0
 12
50.59728660150177
 22
178.6443260989861
 32
0.0
 13
50.59728660150177
 23
176.6443232379631
 33
0.0
  0
LINE
  5
5A5
330
598
100
AcDbEntity
  8
SCHNITTANSICHTSLINIEN_ISO-
  6
Continuous
100
AcDbLine
 10
50.59728660150177
 20
176.6443244657728
 30
0.0
 11
55.59728660150177
 21
177.6443244657728
 31
0.0
  0
LINE
  5
5A6
330
598
100
AcDbEntity
  8
SCHNITTANSICHTSLINIEN_ISO-
  6
Continuous
100
AcDbLine
 10
55.59728660150177
 20
177.6443244657728
 30
0.0
 11
50.59728660150177
 21
178.6443244657728
 31
0.0
  0
LINE
  5
5A7
330
598
100
AcDbEntity
  8
SCHNITTANSICHTSLINIEN_ISO-
  6
Continuous
100
AcDbLine
 10
50.59728660150177
 20
178.6443244657728
 30
0.0
 11
50.59728660150177
 21
176.6443244657728
 31
0.0
  0
LINE
  5
5A8
330
598
100
AcDbEntity
  8
SCHNITTANSICHTSLINIEN_ISO-
  6
Continuous
100
AcDbLine
 10
44.56585032473657
 20
177.6443244657728
 30
0.0
 11
50.59728660150177
 21
177.6443244657728
 31
0.0
  0
LINE
  5
5A9
330
598
100
AcDbEntity
  8
SCHNITTANSICHTSLINIEN_ISO-
  6
Continuous
100
AcDbLine
 10
50.59728660150177
 20
88.15396365749235
 30
0.0
 11
55.59728660150177
 21
88.15396365749235
 31
0.0
  0
POLYLINE
  5
5AA
330
598
100
AcDbEntity
  8
SCHNITTANSICHTSLINIEN_ISO-
  6
Continuous
100
AcDb2dPolyline
 66
     1
 10
0.0
 20
0.0
 30
0.0
 70
   128
  0
VERTEX
  5
5AB
330
5AA
100
AcDbEntity
  8
SCHNITTANSICHTSLINIEN_ISO-
  6
Continuous
100
AcDbVertex
100
AcDb2dVertex
 10
50.59728660150177
 20
87.15396202427905
 30
0.0
  0
VERTEX
  5
5AC
330
5AA
100
AcDbEntity
  8
SCHNITTANSICHTSLINIEN_ISO-
  6
Continuous
100
AcDbVertex
100
AcDb2dVertex
 10
55.59728660150177
 20
88.1539658389763
 30
0.0
  0
VERTEX
  5
5AD
330
5AA
100
AcDbEntity
  8
SCHNITTANSICHTSLINIEN_ISO-
  6
Continuous
100
AcDbVertex
100
AcDb2dVertex
 10
50.59728660150177
 20
89.15396488530198
 30
0.0
  0
VERTEX
  5
5AE
330
5AA
100
AcDbEntity
  8
SCHNITTANSICHTSLINIEN_ISO-
  6
Continuous
100
AcDbVertex
100
AcDb2dVertex
 10
50.59728660150177
 20
87.15396202427905
 30
0.0
  0
SEQEND
  5
5AF
330
5AA
100
AcDbEntity
  8
SCHNITTANSICHTSLINIEN_ISO-
  6
Continuous
  0
SOLID
  5
5B0
330
598
100
AcDbEntity
  8
SCHNITTANSICHTSLINIEN_ISO-
100
AcDbTrace
 10
50.59728660150177
 20
87.15396202427905
 30
0.0
 11
55.59728660150177
 21
88.1539658389763
 31
0.0
 12
50.59728660150177
 22
89.15396488530198
 32
0.0
 13
50.59728660150177
 23
87.15396202427905
 33
0.0
  0
LINE
  5
5B1
330
598
100
AcDbEntity
  8
SCHNITTANSICHTSLINIEN_ISO-
  6
Continuous
100
AcDbLine
 10
50.59728660150177
 20
87.15396365749235
 30
0.0
 11
55.59728660150177
 21
88.15396365749235
 31
0.0
  0
LINE
  5
5B2
330
598
100
AcDbEntity
  8
SCHNITTANSICHTSLINIEN_ISO-
  6
Continuous
100
AcDbLine
 10
55.59728660150177
 20
88.15396365749235
 30
0.0
 11
50.59728660150177
 21
89.15396365749236
 31
0.0
  0
LINE
  5
5B3
330
598
100
AcDbEntity
  8
SCHNITTANSICHTSLINIEN_ISO-
  6
Continuous
100
AcDbLine
 10
50.59728660150177
 20
89.15396365749236
 30
0.0
 11
50.59728660150177
 21
87.15396365749235
 31
0.0
  0
LINE
  5
5B4
330
598
100
AcDbEntity
  8
SCHNITTANSICHTSLINIEN_ISO-
  6
Continuous
100
AcDbLine
 10
44.56585032473657
 20
88.15396365749235
 30
0.0
 11
50.59728660150177
 21
88.15396365749235
 31
0.0
  0
INSERT
  5
5B5
330
598
100
AcDbEntity
  8
0
100
AcDbBlockReference
  2
*U10
 10
0.0
 20
0.0
 30
0.0
  0
INSERT
  5
5B6
330
598
100
AcDbEntity
  8
0
100
AcDbBlockReference
  2
*U11
 10
0.0
 20
0.0
 30
0.0
  0
ENDBLK
  5
5B7
330
598
100
AcDbEntity
  8
0
100
AcDbBlockEnd
  0
BLOCK
  5
5B9
330
5B8
100
AcDbEntity
  8
0
100
AcDbBlockBegin
  2
*U10
 70
     1
 10
0.0
 20
0.0
 30
0.0
  3
*U10
  1

  0
TEXT
  5
5BA
330
5B8
100
AcDbEntity
  8
SCHNITTANSICHTSLINIEN_ISO-
100
AcDbText
 10
37.173649390179
 20
175.0193245849821
 30
0.0
 40
5.24999976158142
  1
A
  7
STANDARD-DINGROßER_TEXT
100
AcDbText
  0
ENDBLK
  5
5BB
330
5B8
100
AcDbEntity
  8
0
100
AcDbBlockEnd
  0
BLOCK
  5
5BD
330
5BC
100
AcDbEntity
  8
0
100
AcDbBlockBegin
  2
*U11
 70
     1
 10
0.0
 20
0.0
 30
0.0
  3
*U11
  1

  0
TEXT
  5
5BE
330
5BC
100
AcDbEntity
  8
SCHNITTANSICHTSLINIEN_ISO-
100
AcDbText
 10
37.173649390179
 20
85.52896377670162
 30
0.0
 40
5.24999976158142
  1
A
  7
STANDARD-DINGROßER_TEXT
100
AcDbText
  0
ENDBLK
  5
5BF
330
5BC
100
AcDbEntity
  8
0
100
AcDbBlockEnd
  0
BLOCK
  5
8CB
330
8CA
100
AcDbEntity
  8
0
100
AcDbBlockBegin
  2
*D12
 70
     1
 10
0.0
 20
0.0
 30
0.0
  3
*D12
  1

  0
LINE
  5
B11
330
8CA
100
AcDbEntity
  8
AM_5
370
    -2
100
AcDbLine
 10
147.3850698943107
 20
198.1151769657398
 30
0.0
 11
174.8850698943108
 21
198.1151769657398
 31
0.0
  0
LINE
  5
B12
330
8CA
100
AcDbEntity
  8
AM_5
370
    -2
100
AcDbLine
 10
147.3850698943083
 20
121.1150472037478
 30
0.0
 11
174.8850698943108
 21
121.1150472037478
 31
0.0
  0
LINE
  5
B13
330
8CA
100
AcDbEntity
  8
AM_5
370
    -2
100
AcDbLine
 10
171.3850698943108
 20
191.1151769657399
 30
0.0
 11
171.3850698943108
 21
128.1150472037479
 31
0.0
  0
SOLID
  5
B14
330
8CA
100
AcDbEntity
  8
AM_5
100
AcDbTrace
 10
170.2184032276441
 20
191.1151769657399
 30
0.0
 11
172.5517365609775
 21
191.1151769657399
 31
0.0
 12
171.3850698943108
 22
198.1151769657398
 32
0.0
 13
171.3850698943108
 23
198.1151769657398
 33
0.0
  0
SOLID
  5
B15
330
8CA
100
AcDbEntity
  8
AM_5
100
AcDbTrace
 10
170.2184032276441
 20
128.1150472037479
 30
0.0
 11
172.5517365609775
 21
128.1150472037479
 31
0.0
 12
171.3850698943108
 22
121.1150472037478
 32
0.0
 13
171.3850698943108
 23
121.1150472037478
 33
0.0
  0
MTEXT
  5
B16
330
8CA
100
AcDbEntity
  8
AM_5
 62
     2
100
AcDbMText
 10
165.8850698943108
 20
159.6151120847439
 30
0.0
 40
7.0
 41
0.0
 46
0.0
 71
     5
 72
     1
  1
77
 11
0.0000000000000001
 21
1.0
 31
0.0
 73
     1
 44
1.0
  0
POINT
  5
B17
330
8CA
100
AcDbEntity
  8
Defpoints
 62
     0
100
AcDbPoint
 10
147.3850698943107
 20
198.1151769657398
 30
0.0
  0
POINT
  5
B18
330
8CA
100
AcDbEntity
  8
Defpoints
 62
     0
100
AcDbPoint
 10
147.3850698943083
 20
121.1150472037478
 30
0.0
  0
POINT
  5
B19
330
8CA
100
AcDbEntity
  8
Defpoints
 62
     0
100
AcDbPoint
 10
171.3850698943108
 20
121.1150472037478
 30
0.0
  0
ENDBLK
  5
8CC
330
8CA
100
AcDbEntity
  8
0
100
AcDbBlockEnd
  0
BLOCK
  5
8FD
330
8FC
100
AcDbEntity
  8
0
100
AcDbBlockBegin
  2
*D13
 70
     1
 10
0.0
 20
0.0
 30
0.0
  3
*D13
  1

  0
LINE
  5
A9A
330
8FC
100
AcDbEntity
  8
AM_5
370
    -2
100
AcDbLine
 10
82.29256614502354
 20
198.1151769607912
 30
0.0
 11
46.08412445852667
 21
198.1151769607912
 31
0.0
  0
LINE
  5
A9B
330
8FC
100
AcDbEntity
  8
AM_5
370
    -2
100
AcDbLine
 10
79.44216510435592
 20
187.1151769657398
 30
0.0
 11
46.08412445852667
 21
187.1151769657398
 31
0.0
  0
LINE
  5
A9C
330
8FC
100
AcDbEntity
  8
AM_5
370
    -2
100
AcDbLine
 10
49.58412445852666
 20
180.1151769657398
 30
0.0
 11
49.58412445852665
 21
173.1151769657398
 31
0.0
  0
LINE
  5
A9D
330
8FC
100
AcDbEntity
  8
AM_5
370
    -2
100
AcDbLine
 10
49.58412445852666
 20
205.1151769607912
 30
0.0
 11
49.58412445852667
 21
221.1651769607912
 31
0.0
  0
LINE
  5
A9E
330
8FC
100
AcDbEntity
  8
AM_5
370
    -2
100
AcDbLine
 10
49.58412445852666
 20
187.1151769657398
 30
0.0
 11
49.58412445852666
 21
198.1151769607912
 31
0.0
  0
SOLID
  5
A9F
330
8FC
100
AcDbEntity
  8
AM_5
100
AcDbTrace
 10
48.41745779186
 20
180.1151769657398
 30
0.0
 11
50.75079112519333
 21
180.1151769657398
 31
0.0
 12
49.58412445852666
 22
187.1151769657398
 32
0.0
 13
49.58412445852666
 23
187.1151769657398
 33
0.0
  0
SOLID
  5
AA0
330
8FC
100
AcDbEntity
  8
AM_5
100
AcDbTrace
 10
48.41745779186
 20
205.1151769607912
 30
0.0
 11
50.75079112519333
 21
205.1151769607912
 31
0.0
 12
49.58412445852666
 22
198.1151769607912
 32
0.0
 13
49.58412445852666
 23
198.1151769607912
 33
0.0
  0
MTEXT
  5
AA1
330
8FC
100
AcDbEntity
  8
AM_5
 62
     2
100
AcDbMText
 10
44.08412445852664
 20
216.7151769607912
 30
0.0
 40
7.0
 41
0.0
 46
0.0
 71
     5
 72
     1
  1
11
 11
0.0000000000000001
 21
1.0
 31
0.0
 73
     1
 44
1.0
  0
POINT
  5
AA2
330
8FC
100
AcDbEntity
  8
Defpoints
 62
     0
100
AcDbPoint
 10
82.29256614502354
 20
198.1151769607912
 30
0.0
  0
POINT
  5
AA3
330
8FC
100
AcDbEntity
  8
Defpoints
 62
     0
100
AcDbPoint
 10
79.44216510435592
 20
187.1151769657398
 30
0.0
  0
POINT
  5
AA4
330
8FC
100
AcDbEntity
  8
Defpoints
 62
     0
100
AcDbPoint
 10
49.58412445852666
 20
187.1151769657398
 30
0.0
  0
ENDBLK
  5
8FE
330
8FC
100
AcDbEntity
  8
0
100
AcDbBlockEnd
  0
BLOCK
  5
964
330
963
100
AcDbEntity
  8
0
100
AcDbBlockBegin
  2
*D14
 70
     1
 10
0.0
 20
0.0
 30
0.0
  3
*D14
  1

  0
LINE
  5
AF2
330
963
100
AcDbEntity
  8
AM_5
370
    -2
100
AcDbLine
 10
82.29216510435591
 20
198.1151769657399
 30
0.0
 11
131.6042891664341
 21
198.1151769657399
 31
0.0
  0
LINE
  5
AF3
330
963
100
AcDbEntity
  8
AM_5
370
    -2
100
AcDbLine
 10
90.89216510435591
 20
170.1151769657399
 30
0.0
 11
131.604289166434
 21
170.1151769657399
 31
0.0
  0
LINE
  5
AF4
330
963
100
AcDbEntity
  8
AM_5
370
    -2
100
AcDbLine
 10
128.104289166434
 20
191.1151769657399
 30
0.0
 11
128.104289166434
 21
177.1151769657399
 31
0.0
  0
SOLID
  5
AF5
330
963
100
AcDbEntity
  8
AM_5
100
AcDbTrace
 10
126.9376224997674
 20
191.1151769657399
 30
0.0
 11
129.2709558331007
 21
191.1151769657399
 31
0.0
 12
128.1042891664341
 22
198.1151769657399
 32
0.0
 13
128.1042891664341
 23
198.1151769657399
 33
0.0
  0
SOLID
  5
AF6
330
963
100
AcDbEntity
  8
AM_5
100
AcDbTrace
 10
126.9376224997674
 20
177.1151769657399
 30
0.0
 11
129.2709558331007
 21
177.1151769657399
 31
0.0
 12
128.104289166434
 22
170.1151769657399
 32
0.0
 13
128.104289166434
 23
170.1151769657399
 33
0.0
  0
MTEXT
  5
AF7
330
963
100
AcDbEntity
  8
AM_5
 62
     2
100
AcDbMText
 10
122.6036001900561
 20
184.1151769657399
 30
0.0
 40
7.0
 41
0.0
 46
0.0
 71
     5
 72
     1
  1
28
 11
0.0000000000000001
 21
1.0
 31
0.0
 73
     1
 44
1.0
  0
POINT
  5
AF8
330
963
100
AcDbEntity
  8
Defpoints
 62
     0
100
AcDbPoint
 10
82.29216510435591
 20
198.1151769657399
 30
0.0
  0
POINT
  5
AF9
330
963
100
AcDbEntity
  8
Defpoints
 62
     0
100
AcDbPoint
 10
90.89216510435591
 20
170.1151769657399
 30
0.0
  0
POINT
  5
AFA
330
963
100
AcDbEntity
  8
Defpoints
 62
     0
100
AcDbPoint
 10
128.104289166434
 20
170.1151769657399
 30
0.0
  0
ENDBLK
  5
965
330
963
100
AcDbEntity
  8
0
100
AcDbBlockEnd
  0
BLOCK
  5
AC4
330
AC3
100
AcDbEntity
  8
0
100
AcDbBlockBegin
  2
*D15
 70
     1
 10
0.0
 20
0.0
 30
0.0
  3
*D15
  1

  0
LINE
  5
AFB
330
AC3
100
AcDbEntity
  8
AM_5
370
    -2
100
AcDbLine
 10
90.29216510435592
 20
187.1151769657398
 30
0.0
 11
116.5818569047213
 21
187.1151769657398
 31
0.0
  0
LINE
  5
AFC
330
AC3
100
AcDbEntity
  8
AM_5
370
    -2
100
AcDbLine
 10
90.89216510435591
 20
170.1151769657399
 30
0.0
 11
116.5818569047213
 21
170.1151769657399
 31
0.0
  0
LINE
  5
AFD
330
AC3
100
AcDbEntity
  8
AM_5
370
    -2
100
AcDbLine
 10
113.0818569047213
 20
194.1151769657398
 30
0.0
 11
113.0818569047213
 21
201.1151769657398
 31
0.0
  0
LINE
  5
AFE
330
AC3
100
AcDbEntity
  8
AM_5
370
    -2
100
AcDbLine
 10
113.0818569047213
 20
163.1151769657399
 30
0.0
 11
113.0818569047213
 21
156.1151769657399
 31
0.0
  0
LINE
  5
AFF
330
AC3
100
AcDbEntity
  8
AM_5
370
    -2
100
AcDbLine
 10
113.0818569047213
 20
187.1151769657398
 30
0.0
 11
113.0818569047213
 21
170.1151769657399
 31
0.0
  0
SOLID
  5
B00
330
AC3
100
AcDbEntity
  8
AM_5
100
AcDbTrace
 10
111.9151902380546
 20
194.1151769657398
 30
0.0
 11
114.2485235713879
 21
194.1151769657398
 31
0.0
 12
113.0818569047213
 22
187.1151769657398
 32
0.0
 13
113.0818569047213
 23
187.1151769657398
 33
0.0
  0
SOLID
  5
B01
330
AC3
100
AcDbEntity
  8
AM_5
100
AcDbTrace
 10
111.9151902380546
 20
163.1151769657399
 30
0.0
 11
114.2485235713879
 21
163.1151769657399
 31
0.0
 12
113.0818569047213
 22
170.1151769657399
 32
0.0
 13
113.0818569047213
 23
170.1151769657399
 33
0.0
  0
MTEXT
  5
B02
330
AC3
100
AcDbEntity
  8
AM_5
 62
     2
100
AcDbMText
 10
107.5818569047212
 20
178.6151769657399
 30
0.0
 40
7.0
 41
0.0
 46
0.0
 71
     5
 72
     1
  1
17
 11
0.0000000000000001
 21
1.0
 31
0.0
 73
     1
 44
1.0
  0
POINT
  5
B03
330
AC3
100
AcDbEntity
  8
Defpoints
 62
     0
100
AcDbPoint
 10
90.29216510435592
 20
187.1151769657398
 30
0.0
  0
POINT
  5
B04
330
AC3
100
AcDbEntity
  8
Defpoints
 62
     0
100
AcDbPoint
 10
90.89216510435591
 20
170.1151769657399
 30
0.0
  0
POINT
  5
B05
330
AC3
100
AcDbEntity
  8
Defpoints
 62
     0
100
AcDbPoint
 10
113.0818569047213
 20
170.1151769657399
 30
0.0
  0
ENDBLK
  5
AC5
330
AC3
100
AcDbEntity
  8
0
100
AcDbBlockEnd
  0
BLOCK
  5
B3A
330
B39
100
AcDbEntity
  8
0
100
AcDbBlockBegin
  2
*D16
 70
     1
 10
0.0
 20
0.0
 30
0.0
  3
*D16
  1

  0
LINE
  5
B5D
330
B39
100
AcDbEntity
  8
AM_5
370
    -2
100
AcDbLine
 10
79.45098801254946
 20
137.1150471981588
 30
0.0
 11
46.08412445852669
 21
137.1150471981589
 31
0.0
  0
LINE
  5
B5E
330
B39
100
AcDbEntity
  8
AM_5
370
    -2
100
AcDbLine
 10
82.22598881135327
 20
121.1902202723167
 30
0.0
 11
46.08412445852669
 21
121.1902202723167
 31
0.0
  0
LINE
  5
B5F
330
B39
100
AcDbEntity
  8
AM_5
370
    -2
100
AcDbLine
 10
49.5841244585267
 20
144.1150471981589
 30
0.0
 11
49.5841244585267
 21
151.1150471981589
 31
0.0
  0
LINE
  5
B60
330
B39
100
AcDbEntity
  8
AM_5
370
    -2
100
AcDbLine
 10
49.58412445852669
 20
114.1902202723168
 30
0.0
 11
49.58412445852669
 21
107.1902202723167
 31
0.0
  0
LINE
  5
B61
330
B39
100
AcDbEntity
  8
AM_5
370
    -2
100
AcDbLine
 10
49.58412445852669
 20
137.1150471981589
 30
0.0
 11
49.58412445852669
 21
121.1902202723167
 31
0.0
  0
SOLID
  5
B62
330
B39
100
AcDbEntity
  8
AM_5
100
AcDbTrace
 10
48.41745779186004
 20
144.1150471981589
 30
0.0
 11
50.75079112519336
 21
144.1150471981589
 31
0.0
 12
49.58412445852669
 22
137.1150471981589
 32
0.0
 13
49.58412445852669
 23
137.1150471981589
 33
0.0
  0
SOLID
  5
B63
330
B39
100
AcDbEntity
  8
AM_5
100
AcDbTrace
 10
48.41745779186003
 20
114.1902202723168
 30
0.0
 11
50.75079112519336
 21
114.1902202723168
 31
0.0
 12
49.58412445852669
 22
121.1902202723167
 32
0.0
 13
49.58412445852669
 23
121.1902202723167
 33
0.0
  0
MTEXT
  5
B64
330
B39
100
AcDbEntity
  8
AM_5
 62
     2
100
AcDbMText
 10
44.08412445852667
 20
129.1526337352378
 30
0.0
 40
7.0
 41
0.0
 46
0.0
 71
     5
 72
     1
  1
16
 11
0.0000000000000001
 21
1.0
 31
0.0
 73
     1
 44
1.0
  0
POINT
  5
B65
330
B39
100
AcDbEntity
  8
Defpoints
 62
     0
100
AcDbPoint
 10
79.45098801254946
 20
137.1150471981588
 30
0.0
  0
POINT
  5
B66
330
B39
100
AcDbEntity
  8
Defpoints
 62
     0
100
AcDbPoint
 10
82.22598881135327
 20
121.1902202723167
 30
0.0
  0
POINT
  5
B67
330
B39
100
AcDbEntity
  8
Defpoints
 62
     0
100
AcDbPoint
 10
49.58412445852669
 20
121.1902202723167
 30
0.0
  0
ENDBLK
  5
B3B
330
B39
100
AcDbEntity
  8
0
100
AcDbBlockEnd
  0
BLOCK
  5
C9F
330
C9E
100
AcDbEntity
  8
0
100
AcDbBlockBegin
  2
*D17
 70
     1
 10
0.0
 20
0.0
 30
0.0
  3
*D17
  1

  0
LINE
  5
CD8
330
C9E
100
AcDbEntity
  8
AM_5
370
    -2
100
AcDbLine
 10
159.4206700781058
 20
143.51517696574
 30
0.0
 11
159.4206700781058
 21
97.75157515673246
 31
0.0
  0
LINE
  5
CD9
330
C9E
100
AcDbEntity
  8
AM_5
370
    -2
100
AcDbLine
 10
141.2850698943104
 20
121.1150472037478
 30
0.0
 11
141.2850698943104
 21
97.75157515673246
 31
0.0
  0
LINE
  5
CDA
330
C9E
100
AcDbEntity
  8
AM_5
370
    -2
100
AcDbLine
 10
152.4206700781058
 20
101.2515751567324
 30
0.0
 11
148.2850698943104
 21
101.2515751567324
 31
0.0
  0
LINE
  5
CDB
330
C9E
100
AcDbEntity
  8
AM_5
370
    -2
100
AcDbLine
 10
141.2850698943104
 20
101.2515751567324
 30
0.0
 11
83.79512040064927
 21
101.2515751567324
 31
0.0
  0
SOLID
  5
CDC
330
C9E
100
AcDbEntity
  8
AM_5
100
AcDbTrace
 10
152.4206700781058
 20
102.4182418233991
 30
0.0
 11
152.4206700781058
 21
100.0849084900658
 31
0.0
 12
159.4206700781058
 22
101.2515751567324
 32
0.0
 13
159.4206700781058
 23
101.2515751567324
 33
0.0
  0
SOLID
  5
CDD
330
C9E
100
AcDbEntity
  8
AM_5
100
AcDbTrace
 10
148.2850698943104
 20
102.4182418233991
 30
0.0
 11
148.2850698943104
 21
100.0849084900658
 31
0.0
 12
141.2850698943104
 22
101.2515751567324
 32
0.0
 13
141.2850698943104
 23
101.2515751567324
 33
0.0
  0
MTEXT
  5
CDE
330
C9E
100
AcDbEntity
  8
AM_5
 62
     2
100
AcDbMText
 10
109.0400951474798
 20
107.6272641331104
 30
0.0
 40
7.0
 41
0.0
 46
0.0
 71
     5
 72
     1
  1
Zyl. 12...18.5
 73
     1
 44
1.0
  0
POINT
  5
CDF
330
C9E
100
AcDbEntity
  8
Defpoints
 62
     0
100
AcDbPoint
 10
159.4206700781058
 20
143.51517696574
 30
0.0
  0
POINT
  5
CE0
330
C9E
100
AcDbEntity
  8
Defpoints
 62
     0
100
AcDbPoint
 10
141.2850698943104
 20
121.1150472037478
 30
0.0
  0
POINT
  5
CE1
330
C9E
100
AcDbEntity
  8
Defpoints
 62
     0
100
AcDbPoint
 10
141.2850698943104
 20
101.2515751567324
 30
0.0
  0
ENDBLK
  5
CA0
330
C9E
100
AcDbEntity
  8
0
100
AcDbBlockEnd
  0
ENDSEC
  0
SECTION
  2
ENTITIES
  0
POINT
  5
15F
330
2
100
AcDbEntity
  8
0
 60
     1
100
AcDbPoint
 10
0.0
 20
0.0
 30
0.0
1001
GENIUS_GENOBJ-N-TIT_13
1002
{
1000
OWNER
1000
GEN
1002
}
1001
GENIUS_GENOENT_13
1002
{
1000
MYREF
1005
15F
1002
}
1002
{
1000
GRP
1005
0
1002
}
1001
GENIUS_GENOLIS_13
1002
{
1000
ENT
1005
7A
1005
69
1002
}
1001
GENIUS_GENTITLE_13
1002
{
1000
SCALE
1000
1:1
1002
}
1002
{
1000
BORDER
1000
GEN_A4
1002
}
1002
{
1000
TITLE
1000
GLMASSB1
1002
}
1002
{
1000
UNCHG
1002
{
1000
GEN-TITLE-SCA
1000
GEN-TITLE-SIZ
1002
}
1002
}
1002
{
1000
HRA
1005
69
1002
}
1002
{
1000
HTIT
1005
7A
1002
}
1002
{
1000
GENIUSID
1005
15F
1002
}
1001
GENIUS_GENODEF_13
1002
{
1000
HIER
1070
     1
1002
}
1002
{
1000
MANEDIT
1070
     0
1002
}
1002
{
1000
NOSEL
1070
     0
1002
}
1002
{
1000
BEHIND
1070
     0
1002
}
1002
{
1000
REACTOR
1002
}
  0
LWPOLYLINE
  5
2B8
330
2
100
AcDbEntity
  8
AM_VIEWS
100
AcDbPolyline
 90
        4
 70
     1
 43
0.0
 10
16.24108260502402
 20
102.8325625116679
 10
216.3459610050594
 20
102.8325625116679
 10
216.3459610050594
 20
260.0771771250726
 10
16.24108260502402
 20
260.0771771250726
1001
GENIUS_GENSCREG_15
1040
2.0
1040
1.0
1011
16.24108260502402
1021
102.8325625116679
1031
0.0
1011
216.3459610050594
1021
260.0771771250726
1031
0.0
1070
     2
1001
GENIUS_GENODEF_13
1002
{
1000
HIER
1070
     0
1002
}
1002
{
1000
MANEDIT
1070
     0
1002
}
1002
{
1000
NOSEL
1070
     0
1002
}
1002
{
1000
BEHIND
1070
     0
1002
}
1002
{
1000
OTHER
1070
     0
1002
}
1002
{
1000
REACTOR
1002
}
1001
GENIUS_GENOBJ-N-SDF_13
1002
{
1000
OWNER
1000
GEN
1002
}
  0
TEXT
  5
349
330
2
100
AcDbEntity
  8
AM_6
100
AcDbText
 10
78.70875233264422
 20
235.8103382761656
 30
0.0
 40
7.0
  1
6126 PZ-ZA
100
AcDbText
1001
GENIUS_AMGTXT_16
1040
3.5
1040
0.12
  0
LINE
  5
435
330
2
100
AcDbEntity
  8
SICHTBARE_KANTEN_GLUTZ_IAM
100
AcDbLine
 10
66.03933032276668
 20
196.114779090556
 30
0.0
 11
66.05383787276334
 21
123.1896493211314
 31
0.0
  0
LINE
  5
437
330
2
100
AcDbEntity
  8
SICHTBARE_KANTEN_GLUTZ_IAM
100
AcDbLine
 10
98.55379836896272
 20
123.1904437303509
 30
0.0
 11
98.53933972067739
 21
196.1155734997755
 31
0.0
  0
LINE
  5
439
330
2
100
AcDbEntity
  8
SICHTBARE_KANTEN_GLUTZ_IAM
100
AcDbLine
 10
141.2850698943104
 20
121.1150472037478
 30
0.0
 11
141.285069894308
 21
137.0651769657399
 31
0.0
  0
LINE
  5
43A
330
2
100
AcDbEntity
  8
SICHTBARE_KANTEN_GLUTZ_IAM
100
AcDbLine
 10
141.285069894308
 20
181.8651769657398
 30
0.0
 11
141.285069894308
 21
137.0651769657399
 31
0.0
  0
LINE
  5
43B
330
2
100
AcDbEntity
  8
SICHTBARE_KANTEN_GLUTZ_IAM
100
AcDbLine
 10
141.285069894308
 20
181.8651769657398
 30
0.0
 11
141.2850698943128
 21
198.1151769657398
 31
0.0
  0
LINE
  5
43C
330
2
100
AcDbEntity
  8
SICHTBARE_KANTEN_GLUTZ_IAM
100
AcDbLine
 10
155.2850698943086
 20
122.1150472037478
 30
0.0
 11
155.2850698943086
 21
197.1151769657398
 31
0.0
  0
CIRCLE
  5
43E
330
2
100
AcDbEntity
  8
AM_HID
100
AcDbCircle
 10
82.29216510435591
 20
187.1151769657398
 30
0.0
 40
2.85
  0
CIRCLE
  5
43F
330
2
100
AcDbEntity
  8
AM_HID
100
AcDbCircle
 10
82.30098801254944
 20
137.1150471981588
 30
0.0
 40
2.85
  0
LINE
  5
440
330
2
100
AcDbEntity
  8
0
100
AcDbLine
 10
141.2850698943128
 20
198.1151769657398
 30
0.0
 11
154.2850698943086
 21
198.1151769657398
 31
0.0
  0
ARC
  5
442
330
2
100
AcDbEntity
  8
0
100
AcDbCircle
 10
157.0850698943086
 20
122.6151769657397
 30
0.0
 40
1.8
100
AcDbArc
 50
180.0
 51
180.0
  0
LINE
  5
443
330
2
100
AcDbEntity
  8
0
100
AcDbLine
 10
141.2850698943104
 20
121.1150472037478
 30
0.0
 11
154.2850698943086
 21
121.1150472037478
 31
0.0
  0
DIMENSION
  5
446
330
2
100
AcDbEntity
  8
AM_REFDIM
100
AcDbDimension
  2
*D5
 10
98.542165104356
 20
209.969742266117
 30
0.0
 11
82.85838083753976
 21
209.969742266117
 31
0.0
 70
   160
 71
     5
 42
32.50000000000014
 73
     0
 74
     0
 75
     0
  3
ISO-35$0
100
AcDbAlignedDimension
 13
66.04216510435586
 23
184.0604617593418
 33
0.0
 14
98.542165104356
 24
181.8651769657398
 34
0.0
100
AcDbRotatedDimension
1001
ACAD_DSTYLE_DIMINSPECT
1070
   396
1000
100%
1070
   395
1000

1070
   394
1070
    33
1070
   393
1070
     0
1001
ACAD
1000
DSTYLE
1002
{
1070
    40
1040
2.0
1070
    42
1040
0.0
1070
    43
1040
10.0
1070
    46
1040
1.5
1070
    79
1070
     2
1070
   146
1040
0.7
1070
   147
1040
1.0
1070
   176
1070
   256
1070
   177
1070
   256
1070
   178
1070
     2
1070
   179
1070
     2
1070
   271
1070
     2
1070
   272
1070
     2
1070
   283
1070
     0
1070
   284
1070
     8
1002
}
  0
DIMENSION
  5
497
330
2
100
AcDbEntity
  8
AM_REFDIM
100
AcDbDimension
  2
*D6
 10
155.2850698943086
 20
212.7978811921769
 30
0.0
 11
148.2850698943107
 21
218.2978811921768
 31
0.0
 70
    32
 71
     5
 42
13.99999999999579
 73
     0
 74
     0
 75
     0
  3
ISO-35$0
100
AcDbAlignedDimension
 13
141.2850698943128
 23
198.1151769657398
 33
0.0
 14
155.2850698943086
 24
196.3151769657398
 34
0.0
100
AcDbRotatedDimension
1001
ACAD_DSTYLE_DIMINSPECT
1070
   396
1000
100%
1070
   395
1000

1070
   394
1070
    33
1070
   393
1070
     0
1001
ACAD
1000
DSTYLE
1002
{
1070
    40
1040
2.0
1070
    42
1040
0.0
1070
    43
1040
10.0
1070
    46
1040
1.5
1070
    79
1070
     2
1070
   146
1040
0.7
1070
   147
1040
1.0
1070
   176
1070
   256
1070
   177
1070
   256
1070
   178
1070
     2
1070
   179
1070
     2
1070
   271
1070
     2
1070
   272
1070
     2
1070
   283
1070
     0
1070
   284
1070
     8
1002
}
  0
DIMENSION
  5
4BC
330
2
100
AcDbEntity
  8
AM_REFDIM
100
AcDbDimension
  2
*D7
 10
49.58412445852669
 20
137.1150471981589
 30
0.0
 11
44.08412445852667
 21
162.1151120819493
 31
0.0
 70
    32
 71
     5
 42
50.00012976758094
 73
     0
 74
     0
 75
     0
  3
ISO-35$0
100
AcDbAlignedDimension
 13
82.29216510435591
 23
187.1151769657398
 33
0.0
 14
82.30098801254944
 24
137.1150471981588
 34
0.0
 50
90.00000000000003
100
AcDbRotatedDimension
1001
ACAD_DSTYLE_DIMINSPECT
1070
   396
1000
100%
1070
   395
1000

1070
   394
1070
    33
1070
   393
1070
     0
1001
ACAD
1000
DSTYLE
1002
{
1070
    40
1040
2.0
1070
    42
1040
0.0
1070
    43
1040
10.0
1070
    46
1040
1.5
1070
    79
1070
     2
1070
   146
1040
0.7
1070
   147
1040
1.0
1070
   176
1070
   256
1070
   177
1070
   256
1070
   178
1070
     2
1070
   179
1070
     2
1070
   271
1070
     2
1070
   272
1070
     2
1070
   283
1070
     0
1070
   284
1070
     8
1002
}
  0
LINE
  5
55F
330
2
100
AcDbEntity
  8
AM_7
100
AcDbLine
 10
82.29216510435591
 20
201.9651769657398
 30
0.0
 11
82.30098801254952
 21
117.2650471981588
 31
0.0
  0
LINE
  5
560
330
2
100
AcDbEntity
  8
AM_7
100
AcDbLine
 10
70.22993678410433
 20
170.1151769657399
 30
0.0
 11
94.35439342460751
 21
170.1151769657399
 31
0.0
  0
LINE
  5
561
330
2
100
AcDbEntity
  8
AM_7
100
AcDbLine
 10
74.29216510435591
 20
187.1151769657398
 30
0.0
 11
90.29216510435592
 21
187.1151769657398
 31
0.0
  0
LINE
  5
563
330
2
100
AcDbEntity
  8
AM_7
100
AcDbLine
 10
74.30098801254946
 20
137.1150471981588
 30
0.0
 11
90.30098801254945
 21
137.1150471981588
 31
0.0
  0
DIMENSION
  5
8C9
330
2
100
AcDbEntity
  8
AM_5
100
AcDbDimension
  2
*D12
 10
171.3850698943108
 20
121.1150472037478
 30
0.0
 11
165.8850698943108
 21
159.6151120847439
 31
0.0
 70
    32
 71
     5
 42
77.000129761992
 73
     0
 74
     0
 75
     0
  3
ISO-35$0
100
AcDbAlignedDimension
 13
147.3850698943107
 23
198.1151769657398
 33
0.0
 14
147.3850698943083
 24
121.1150472037478
 34
0.0
 50
90.00000000000019
100
AcDbRotatedDimension
1001
ACAD
1000
DSTYLE
1002
{
1070
    40
1040
2.0
1070
    42
1040
0.0
1070
    43
1040
10.0
1070
    46
1040
1.5
1070
    79
1070
     2
1070
   146
1040
0.7
1070
   147
1040
1.0
1070
   176
1070
   256
1070
   177
1070
   256
1070
   178
1070
     2
1070
   179
1070
     2
1070
   271
1070
     2
1070
   272
1070
     2
1070
   283
1070
     0
1070
   284
1070
     8
1002
}
1001
ACAD_DSTYLE_DIMINSPECT
1070
   396
1000
100%
1070
   395
1000

1070
   394
1070
    33
1070
   393
1070
     0
  0
DIMENSION
  5
8FB
330
2
100
AcDbEntity
  8
AM_5
100
AcDbDimension
  2
*D13
 10
49.58412445852666
 20
187.1151769657398
 30
0.0
 11
49.58412445852664
 21
216.7151769607912
 31
0.0
 70
   160
 71
     5
 42
10.99999999505138
 73
     0
 74
     0
 75
     0
  3
ISO-35$0
100
AcDbAlignedDimension
 13
82.29256614502354
 23
198.1151769607912
 33
0.0
 14
79.44216510435592
 24
187.1151769657398
 34
0.0
 50
90.00000000000003
100
AcDbRotatedDimension
1001
ACAD_DSTYLE_DIMINSPECT
1070
   396
1000
100%
1070
   395
1000

1070
   394
1070
    33
1070
   393
1070
     0
1001
ACAD
1000
DSTYLE
1002
{
1070
    40
1040
2.0
1070
    42
1040
0.0
1070
    43
1040
10.0
1070
    46
1040
1.5
1070
    79
1070
     2
1070
   146
1040
0.7
1070
   147
1040
1.0
1070
   176
1070
   256
1070
   177
1070
   256
1070
   178
1070
     2
1070
   179
1070
     2
1070
   271
1070
     2
1070
   272
1070
     2
1070
   283
1070
     0
1002
}
  0
DIMENSION
  5
962
330
2
100
AcDbEntity
  8
AM_5
100
AcDbDimension
  2
*D14
 10
128.104289166434
 20
170.1151769657399
 30
0.0
 11
122.6036001900561
 21
184.1151769657399
 31
0.0
 70
    32
 71
     5
 42
28.0
 73
     0
 74
     0
 75
     0
  3
ISO-35$0
100
AcDbAlignedDimension
 13
82.29216510435591
 23
198.1151769657399
 33
0.0
 14
90.89216510435591
 24
170.1151769657399
 34
0.0
 50
90.00000000000003
100
AcDbRotatedDimension
1001
ACAD_DSTYLE_DIMINSPECT
1070
   396
1000
100%
1070
   395
1000

1070
   394
1070
    33
1070
   393
1070
     0
1001
ACAD
1000
DSTYLE
1002
{
1070
    40
1040
2.0
1070
    42
1040
0.0
1070
    43
1040
10.0
1070
    46
1040
1.5
1070
    79
1070
     2
1070
   146
1040
0.7
1070
   147
1040
1.0
1070
   176
1070
   256
1070
   177
1070
   256
1070
   178
1070
     2
1070
   179
1070
     2
1070
   271
1070
     2
1070
   272
1070
     2
1070
   283
1070
     0
1002
}
  0
DIMENSION
  5
AC2
330
2
100
AcDbEntity
  8
AM_5
100
AcDbDimension
  2
*D15
 10
113.0818569047213
 20
170.1151769657399
 30
0.0
 11
107.5818569047212
 21
178.6151769657399
 31
0.0
 70
    32
 71
     5
 42
16.99999999999988
 73
     0
 74
     0
 75
     0
  3
ISO-35$0
100
AcDbAlignedDimension
 13
90.29216510435592
 23
187.1151769657398
 33
0.0
 14
90.89216510435591
 24
170.1151769657399
 34
0.0
 50
90.00000000000003
100
AcDbRotatedDimension
1001
ACAD
1000
DSTYLE
1002
{
1070
    40
1040
2.0
1070
    42
1040
0.0
1070
    43
1040
10.0
1070
    46
1040
1.5
1070
    79
1070
     2
1070
   146
1040
0.7
1070
   147
1040
1.0
1070
   176
1070
   256
1070
   177
1070
   256
1070
   178
1070
     2
1070
   179
1070
     2
1070
   271
1070
     0
1070
   272
1070
     2
1070
   283
1070
     0
1070
   284
1070
     8
1002
}
1001
ACAD_DSTYLE_DIMINSPECT
1070
   396
1000
100%
1070
   395
1000

1070
   394
1070
    33
1070
   393
1070
     0
  0
DIMENSION
  5
B38
330
2
100
AcDbEntity
  8
AM_5
100
AcDbDimension
  2
*D16
 10
49.58412445852669
 20
121.1902202723167
 30
0.0
 11
44.08412445852667
 21
129.1526337352378
 31
0.0
 70
    32
 71
     5
 42
15.92482692584211
 73
     0
 74
     0
 75
     0
  3
ISO-35$0
100
AcDbAlignedDimension
 13
79.45098801254946
 23
137.1150471981588
 33
0.0
 14
82.22598881135327
 24
121.1902202723167
 34
0.0
 50
90.00000000000003
100
AcDbRotatedDimension
1001
ACAD
1000
DSTYLE
1002
{
1070
    40
1040
2.0
1070
    42
1040
0.0
1070
    43
1040
10.0
1070
    46
1040
1.5
1070
    79
1070
     2
1070
   146
1040
0.7
1070
   147
1040
1.0
1070
   176
1070
   256
1070
   177
1070
   256
1070
   178
1070
     2
1070
   179
1070
     2
1070
   271
1070
     0
1070
   272
1070
     2
1070
   283
1070
     0
1070
   284
1070
     8
1002
}
1001
ACAD_DSTYLE_DIMINSPECT
1070
   396
1000
100%
1070
   395
1000

1070
   394
1070
    33
1070
   393
1070
     0
  0
LINE
  5
BB3
330
2
100
AcDbEntity
  8
AM_7
100
AcDbLine
 10
71.34548280442004
 20
170.11517696574
 30
0.0
 11
78.79548280442006
 21
170.11517696574
 31
0.0
  0
LINE
  5
BB4
330
2
100
AcDbEntity
  8
AM_7
100
AcDbLine
 10
85.79548280442006
 20
170.11517696574
 30
0.0
 11
93.24548280442007
 21
170.11517696574
 31
0.0
  0
LINE
  5
BB5
330
2
100
AcDbEntity
  8
AM_7
100
AcDbLine
 10
82.29548280442006
 20
173.61517696574
 30
0.0
 11
82.29548280442006
 21
181.06517696574
 31
0.0
  0
LINE
  5
BB7
330
2
100
AcDbEntity
  8
AM_7
100
AcDbLine
 10
82.29548280442006
 20
147.6151769657399
 30
0.0
 11
82.29548280442006
 21
152.6151769657399
 31
0.0
  0
LINE
  5
BBA
330
2
100
AcDbEntity
  8
AM_7
100
AcDbLine
 10
82.29548280442006
 20
142.0651769657399
 30
0.0
 11
82.29548280442006
 21
146.6151769657399
 31
0.0
  0
LINE
  5
BBB
330
2
100
AcDbEntity
  8
AM_7
100
AcDbLine
 10
82.29548280442006
 20
153.6151769657399
 30
0.0
 11
82.29548280442006
 21
158.1651769657399
 31
0.0
  0
LINE
  5
BC0
330
2
100
AcDbEntity
  8
AM_7
100
AcDbLine
 10
82.29548280442006
 20
154.7151769657399
 30
0.0
 11
82.29548280442006
 21
166.61517696574
 31
0.0
  0
LINE
  5
BC3
330
2
100
AcDbEntity
  8
AM_7
100
AcDbLine
 10
82.29548280442008
 20
152.61517696574
 30
0.0
 11
82.29548280442008
 21
157.61517696574
 31
0.0
  0
LINE
  5
BE3
330
2
100
AcDbEntity
  8
AM_0
100
AcDbLine
 10
159.4206700781058
 20
143.51517696574
 30
0.0
 11
159.4206700781058
 21
181.7151768973809
 31
0.0
  0
LINE
  5
BE7
330
2
100
AcDbEntity
  8
AM_CL
100
AcDbLine
 10
136.7962699026234
 20
170.1151769657399
 30
0.0
 11
164.3980383231322
 21
170.1151769657399
 31
0.0
  0
LINE
  5
C36
330
2
100
AcDbEntity
  8
AM_7
100
AcDbLine
 10
71.34548280442004
 20
170.11517696574
 30
0.0
 11
78.79548280442006
 21
170.11517696574
 31
0.0
  0
LINE
  5
C37
330
2
100
AcDbEntity
  8
AM_7
100
AcDbLine
 10
85.79548280442006
 20
170.11517696574
 30
0.0
 11
93.24548280442007
 21
170.11517696574
 31
0.0
  0
LINE
  5
C38
330
2
100
AcDbEntity
  8
AM_7
100
AcDbLine
 10
82.29548280442006
 20
173.61517696574
 30
0.0
 11
82.29548280442006
 21
181.06517696574
 31
0.0
  0
LINE
  5
C39
330
2
100
AcDbEntity
  8
AM_7
100
AcDbLine
 10
79.79548280442006
 20
150.1151769657399
 30
0.0
 11
84.79548280442006
 21
150.1151769657399
 31
0.0
  0
LINE
  5
C3A
330
2
100
AcDbEntity
  8
AM_7
100
AcDbLine
 10
82.29548280442006
 20
147.6151769657399
 30
0.0
 11
82.29548280442006
 21
152.6151769657399
 31
0.0
  0
LINE
  5
C3B
330
2
100
AcDbEntity
  8
AM_7
100
AcDbLine
 10
74.24548280442005
 20
150.1151769657399
 30
0.0
 11
78.79548280442006
 21
150.1151769657399
 31
0.0
  0
LINE
  5
C3C
330
2
100
AcDbEntity
  8
AM_7
100
AcDbLine
 10
85.79548280442006
 20
150.1151769657399
 30
0.0
 11
90.34548280442008
 21
150.1151769657399
 31
0.0
  0
LINE
  5
C3D
330
2
100
AcDbEntity
  8
AM_7
100
AcDbLine
 10
82.29548280442006
 20
142.0651769657399
 30
0.0
 11
82.29548280442006
 21
146.6151769657399
 31
0.0
  0
LINE
  5
C3E
330
2
100
AcDbEntity
  8
AM_7
100
AcDbLine
 10
82.29548280442006
 20
153.6151769657399
 30
0.0
 11
82.29548280442006
 21
158.1651769657399
 31
0.0
  0
LINE
  5
C43
330
2
100
AcDbEntity
  8
AM_7
100
AcDbLine
 10
82.29548280442006
 20
154.7151769657399
 30
0.0
 11
82.29548280442006
 21
166.61517696574
 31
0.0
  0
LINE
  5
C46
330
2
100
AcDbEntity
  8
AM_7
100
AcDbLine
 10
82.29548280442008
 20
152.61517696574
 30
0.0
 11
82.29548280442008
 21
157.61517696574
 31
0.0
  0
ARC
  5
C4A
330
2
100
AcDbEntity
  8
AM_VIS
100
AcDbCircle
 10
82.29548280442006
 20
170.1151769657399
 30
0.0
 40
10.85
100
AcDbArc
 50
241.0614722598202
 51
298.9385277401797
  0
LINE
  5
C4B
330
2
100
AcDbEntity
  8
AM_VIS
100
AcDbLine
 10
69.69548280442007
 20
170.11517696574
 30
0.0
 11
69.69548280442007
 21
155.11517696574
 31
0.0
  0
LINE
  5
C4C
330
2
100
AcDbEntity
  8
AM_VIS
100
AcDbLine
 10
94.89548280442006
 20
155.11517696574
 30
0.0
 11
94.89548280442006
 21
170.11517696574
 31
0.0
  0
ARC
  5
C4D
330
2
100
AcDbEntity
  8
AM_VIS
100
AcDbCircle
 10
82.29548280442006
 20
170.11517696574
 30
0.0
 40
12.59999999999999
100
AcDbArc
 50
0.0
 51
7.223372448191461
  0
ARC
  5
C4E
330
2
100
AcDbEntity
  8
AM_VIS
100
AcDbCircle
 10
82.29548280442006
 20
170.11517696574
 30
0.0
 40
12.59999999999999
100
AcDbArc
 50
172.7766275518085
 51
180.0
  0
LINE
  5
C4F
330
2
100
AcDbEntity
  8
AM_HID
100
AcDbLine
 10
77.04548280442009
 20
157.31517696574
 30
0.0
 11
77.04548280442009
 21
160.6199149893646
 31
0.0
  0
LINE
  5
C50
330
2
100
AcDbEntity
  8
AM_HID
100
AcDbLine
 10
87.54548280442008
 20
154.9151769657399
 30
0.0
 11
87.54548280442008
 21
150.1151769657399
 31
0.0
  0
LINE
  5
C51
330
2
100
AcDbEntity
  8
AM_HID
100
AcDbLine
 10
77.04548280442009
 20
150.1151769657399
 30
0.0
 11
77.04548280442009
 21
154.9151769657399
 31
0.0
  0
LINE
  5
C52
330
2
100
AcDbEntity
  8
AM_HID
100
AcDbLine
 10
87.54548280442008
 20
160.6199149893645
 30
0.0
 11
87.54548280442008
 21
157.3151769657399
 31
0.0
  0
ARC
  5
C53
330
2
100
AcDbEntity
  8
AM_HID
100
AcDbCircle
 10
82.29548280442008
 20
150.1151769657399
 30
0.0
 40
5.25
100
AcDbArc
 50
180.0
 51
0.0
  0
CIRCLE
  5
C54
330
2
100
AcDbEntity
  8
AM_VIS
100
AcDbCircle
 10
82.29548280442008
 20
170.1151769657399
 30
0.0
 40
9.099999999999997
  0
CIRCLE
  5
C55
330
2
100
AcDbEntity
  8
AM_HID
100
AcDbCircle
 10
82.29548280442008
 20
170.1151769657399
 30
0.0
 40
10.85
  0
LINE
  5
C56
330
2
100
AcDbEntity
  8
AM_VIS
100
AcDbLine
 10
79.79548280442009
 20
164.36517696574
 30
0.0
 11
79.79548280442009
 21
175.8651769657399
 31
0.0
  0
LINE
  5
C57
330
2
100
AcDbEntity
  8
AM_VIS
100
AcDbLine
 10
84.79548280442012
 20
175.8651769657399
 30
0.0
 11
84.79548280442012
 21
164.36517696574
 31
0.0
  0
ARC
  5
C58
330
2
100
AcDbEntity
  8
AM_VIS
100
AcDbCircle
 10
82.29548280442008
 20
164.36517696574
 30
0.0
 40
2.5
100
AcDbArc
 50
180.0
 51
0.0
  0
ARC
  5
C59
330
2
100
AcDbEntity
  8
AM_VIS
100
AcDbCircle
 10
82.29548280442012
 20
175.8651769657399
 30
0.0
 40
2.5
100
AcDbArc
 50
0.0
 51
180.0
  0
LINE
  5
C5A
330
2
100
AcDbEntity
  8
AM_VIS
100
AcDbLine
 10
69.69548280442009
 20
155.1151769657399
 30
0.0
 11
69.69548280442011
 21
170.11517696574
 31
0.0
  0
LINE
  5
C5B
330
2
100
AcDbEntity
  8
AM_VIS
100
AcDbLine
 10
94.89548280442008
 20
170.1151769657399
 30
0.0
 11
94.89548280442008
 21
155.1151769657399
 31
0.0
  0
ARC
  5
C5C
330
2
100
AcDbEntity
  8
AM_VIS
100
AcDbCircle
 10
82.29548280442008
 20
170.1151769657399
 30
0.0
 40
12.59999999999999
100
AcDbArc
 50
0.0
 51
180.0
  0
ARC
  5
C5D
330
2
100
AcDbEntity
  8
AM_VIS
100
AcDbCircle
 10
82.29548280442006
 20
155.1151769657399
 30
0.0
 40
12.59999999999996
100
AcDbArc
 50
180.0
 51
0.0
  0
LINE
  5
C5E
330
2
100
AcDbEntity
  8
AM_0
100
AcDbLine
 10
155.2850698943086
 20
182.7151768973809
 30
0.0
 11
158.4206700781058
 21
182.7151768973809
 31
0.0
  0
LINE
  5
C5F
330
2
100
AcDbEntity
  8
AM_0
100
AcDbLine
 10
155.2850698943086
 20
142.51517696574
 30
0.0
 11
158.4206700781058
 21
142.51517696574
 31
0.0
  0
ARC
  5
C60
330
2
100
AcDbEntity
  8
AM_0
100
AcDbCircle
 10
158.4206700781058
 20
181.7151768973809
 30
0.0
 40
1.0
100
AcDbArc
 50
0.0
 51
90.0
  0
ARC
  5
C61
330
2
100
AcDbEntity
  8
AM_0
100
AcDbCircle
 10
158.4206700781058
 20
143.51517696574
 30
0.0
 40
1.0
100
AcDbArc
 50
270.0
 51
0.0
  0
DIMENSION
  5
C9D
330
2
100
AcDbEntity
  8
AM_5
100
AcDbDimension
  2
*D17
 10
141.2850698943104
 20
101.2515751567324
 30
0.0
 11
109.0400951474798
 21
107.6272641331104
 31
0.0
 70
    32
  1
Zyl. 12...18.5
 71
     5
 42
18.13560018379536
 73
     0
 74
     0
 75
     0
  3
ISO-35$0
100
AcDbAlignedDimension
 13
159.4206700781058
 23
143.51517696574
 33
0.0
 14
141.2850698943104
 24
121.1150472037478
 34
0.0
 50
0.0000000000001132
100
AcDbRotatedDimension
1001
ACAD
1000
DSTYLE
1002
{
1070
    40
1040
2.0
1070
    42
1040
0.0
1070
    43
1040
10.0
1070
    46
1040
1.5
1070
    79
1070
     2
1070
   146
1040
0.7
1070
   147
1040
1.0
1070
   176
1070
   256
1070
   177
1070
   256
1070
   178
1070
     2
1070
   179
1070
     2
1070
   271
1070
     0
1070
   272
1070
     2
1070
   283
1070
     0
1070
   284
1070
     8
1002
}
1001
ACAD_DSTYLE_DIMINSPECT
1070
   396
1000
100%
1070
   395
1000

1070
   394
1070
    33
1070
   393
1070
     0
  0
ARC
  5
D5F
330
2
100
AcDbEntity
  8
AM_0
100
AcDbCircle
 10
154.2850698943086
 20
197.1151769657398
 30
0.0
 40
1.0
100
AcDbArc
 50
0.0
 51
90.0000000000001
1001
GENIUS_GENOBJ-N-FIL_13
1002
{
1000
OWNER
1000
GEN
1002
}
1001
GENIUS_GENODEF_13
1002
{
1000
HIER
1070
     0
1002
}
1002
{
1000
MANEDIT
1070
     0
1002
}
1002
{
1000
NOSEL
1070
     0
1002
}
1002
{
1000
BEHIND
1070
     0
1002
}
1002
{
1000
OTHER
1070
     0
1002
}
1002
{
1000
REACTOR
1002
}
  0
ARC
  5
D60
330
2
100
AcDbEntity
  8
AM_0
100
AcDbCircle
 10
154.2850698943086
 20
122.1150472037478
 30
0.0
 40
1.0
100
AcDbArc
 50
270.0
 51
0.0
1001
GENIUS_GENODEF_13
1002
{
1000
HIER
1070
     0
1002
}
1002
{
1000
MANEDIT
1070
     0
1002
}
1002
{
1000
NOSEL
1070
     0
1002
}
1002
{
1000
BEHIND
1070
     0
1002
}
1002
{
1000
OTHER
1070
     0
1002
}
1002
{
1000
REACTOR
1002
}
1001
GENIUS_GENOBJ-N-FIL_13
1002
{
1000
OWNER
1000
GEN
1002
}
  0
LINE
  5
D61
330
2
100
AcDbEntity
  8
AM_0
100
AcDbLine
 10
96.5393397599872
 20
198.1151769657399
 30
0.0
 11
68.03933028319052
 21
198.1151769657399
 31
0.0
  0
LINE
  5
D62
330
2
100
AcDbEntity
  8
AM_0
100
AcDbLine
 10
68.05383783318717
 20
121.1900471963154
 30
0.0
 11
96.55379840827253
 21
121.1900471963154
 31
0.0
  0
ARC
  5
D63
330
2
100
AcDbEntity
  8
AM_0
100
AcDbCircle
 10
96.5393397599872
 20
196.1151769657399
 30
0.0
 40
2.0
100
AcDbArc
 50
0.0113598634103239
 51
90.0
1001
GENIUS_GENOBJ-N-FIL_13
1002
{
1000
OWNER
1000
GEN
1002
}
1001
GENIUS_GENODEF_13
1002
{
1000
HIER
1070
     0
1002
}
1002
{
1000
MANEDIT
1070
     0
1002
}
1002
{
1000
NOSEL
1070
     0
1002
}
1002
{
1000
BEHIND
1070
     0
1002
}
1002
{
1000
OTHER
1070
     0
1002
}
1002
{
1000
REACTOR
1002
}
  0
ARC
  5
D64
330
2
100
AcDbEntity
  8
AM_0
100
AcDbCircle
 10
68.03933028319052
 20
196.1151769657399
 30
0.0
 40
2.0
100
AcDbArc
 50
90.0
 51
180.0113982844809
1001
GENIUS_GENODEF_13
1002
{
1000
HIER
1070
     0
1002
}
1002
{
1000
MANEDIT
1070
     0
1002
}
1002
{
1000
NOSEL
1070
     0
1002
}
1002
{
1000
BEHIND
1070
     0
1002
}
1002
{
1000
OTHER
1070
     0
1002
}
1002
{
1000
REACTOR
1002
}
1001
GENIUS_GENOBJ-N-FIL_13
1002
{
1000
OWNER
1000
GEN
1002
}
  0
ARC
  5
D65
330
2
100
AcDbEntity
  8
AM_0
100
AcDbCircle
 10
68.05383783318717
 20
123.1900471963154
 30
0.0
 40
2.0
100
AcDbArc
 50
180.0113982844809
 51
270.0
1001
GENIUS_GENODEF_13
1002
{
1000
HIER
1070
     0
1002
}
1002
{
1000
MANEDIT
1070
     0
1002
}
1002
{
1000
NOSEL
1070
     0
1002
}
1002
{
1000
BEHIND
1070
     0
1002
}
1002
{
1000
OTHER
1070
     0
1002
}
1002
{
1000
REACTOR
1002
}
1001
GENIUS_GENOBJ-N-FIL_13
1002
{
1000
OWNER
1000
GEN
1002
}
  0
ARC
  5
D66
330
2
100
AcDbEntity
  8
AM_0
100
AcDbCircle
 10
96.55379840827253
 20
123.1900471963154
 30
0.0
 40
2.0
100
AcDbArc
 50
270.0
 51
0.0113598634102858
1001
GENIUS_GENODEF_13
1002
{
1000
HIER
1070
     0
1002
}
1002
{
1000
MANEDIT
1070
     0
1002
}
1002
{
1000
NOSEL
1070
     0
1002
}
1002
{
1000
BEHIND
1070
     0
1002
}
1002
{
1000
OTHER
1070
     0
1002
}
1002
{
1000
REACTOR
1002
}
1001
GENIUS_GENOBJ-N-FIL_13
1002
{
1000
OWNER
1000
GEN
1002
}
  0
ENDSEC
  0
SECTION
  2
OBJECTS
  0
DICTIONARY
  5
8
330
0
100
AcDbDictionary
281
     1
  3
ACAD_COLOR
350
37B
  3
ACAD_GROUP
350
26
  3
ACAD_LAYOUT
350
C
  3
ACAD_MATERIAL
350
351
  3
ACAD_MLEADERSTYLE
350
3A0
  3
ACAD_MLINESTYLE
350
27
  3
ACAD_PLOTSETTINGS
350
28
  3
ACAD_PLOTSTYLENAME
350
7
  3
ACAD_SCALELIST
350
37E
  3
ACAD_TABLESTYLE
350
37C
  3
ACAD_VISUALSTYLE
350
36A
  3
ACDB_RECOMPOSE_DATA
350
569
  3
AcDbVariableDictionary
350
1A9
  3
AcmDictionary
350
25E
  3
AMG
350
19D
  3
AMGSNAPSETTINGS
350
29A
  3
MAPISURF_MODULE
350
22B
  0
DICTIONARY
  5
B7F
330
11
100
AcDbDictionary
280
     1
281
     1
  3
ACAD_LAYERSTATES
360
B80
  0
DICTIONARY
  5
3CE
330
5
100
AcDbDictionary
280
     1
281
     1
  3
ADSK_XREC_LAYER_RECONCILED
360
3CF
  0
DICTIONARY
  5
3D0
330
29
100
AcDbDictionary
280
     1
281
     1
  3
ADSK_XREC_LAYER_RECONCILED
360
3D1
  0
DICTIONARY
  5
3D2
330
52
100
AcDbDictionary
280
     1
281
     1
  3
ADSK_XREC_LAYER_RECONCILED
360
3D3
  0
DICTIONARY
  5
3D4
330
5A
100
AcDbDictionary
280
     1
281
     1
  3
ADSK_XREC_LAYER_RECONCILED
360
3D5
  0
DICTIONARY
  5
3D6
330
132
100
AcDbDictionary
280
     1
281
     1
  3
ADSK_XREC_LAYER_RECONCILED
360
3D7
  0
DICTIONARY
  5
3D8
330
14B
100
AcDbDictionary
280
     1
281
     1
  3
ADSK_XREC_LAYER_RECONCILED
360
3D9
  0
DICTIONARY
  5
3DA
330
147
100
AcDbDictionary
280
     1
281
     1
  3
ADSK_XREC_LAYER_RECONCILED
360
3DB
  0
DICTIONARY
  5
3DC
330
2C
100
AcDbDictionary
280
     1
281
     1
  3
ADSK_XREC_LAYER_RECONCILED
360
3DD
  0
DICTIONARY
  5
3DE
330
7C
100
AcDbDictionary
280
     1
281
     1
  3
ADSK_XREC_LAYER_RECONCILED
360
3DF
  0
DICTIONARY
  5
3E0
330
82
100
AcDbDictionary
280
     1
281
     1
  3
ADSK_XREC_LAYER_RECONCILED
360
3E1
  0
DICTIONARY
  5
3E2
330
7F
100
AcDbDictionary
280
     1
281
     1
  3
ADSK_XREC_LAYER_RECONCILED
360
3E3
  0
DICTIONARY
  5
3E4
330
C8
100
AcDbDictionary
280
     1
281
     1
  3
ADSK_XREC_LAYER_RECONCILED
360
3E5
  0
DICTIONARY
  5
3E6
330
2B9
100
AcDbDictionary
280
     1
281
     1
  3
ADSK_XREC_LAYER_RECONCILED
360
3E7
  0
DICTIONARY
  5
3E8
330
348
100
AcDbDictionary
280
     1
281
     1
  3
ADSK_XREC_LAYER_RECONCILED
360
3E9
  0
DICTIONARY
  5
B74
330
B73
100
AcDbDictionary
280
     1
281
     1
  0
DICTIONARY
  5
3
330
2
100
AcDbDictionary
280
     1
281
     1
  3
ACAD_INDEX
360
18B
  3
ACAD_SORTENTS
360
BE5
  0
DICTIONARY
  5
37B
102
{ACAD_REACTORS
330
8
102
}
330
8
100
AcDbDictionary
281
     1
  0
DICTIONARY
  5
26
102
{ACAD_REACTORS
330
8
102
}
330
8
100
AcDbDictionary
281
     1
  0
DICTIONARY
  5
C
102
{ACAD_REACTORS
330
8
102
}
330
8
100
AcDbDictionary
281
     1
  3
A4
350
10
  3
Model
350
B
  0
DICTIONARY
  5
351
102
{ACAD_REACTORS
330
8
102
}
330
8
100
AcDbDictionary
281
     1
  3
ByBlock
350
35A
  3
ByLayer
350
352
  3
Global
350
362
  0
DICTIONARY
  5
3A0
102
{ACAD_REACTORS
330
8
102
}
330
8
100
AcDbDictionary
281
     1
  3
Standard
350
3A1
  0
DICTIONARY
  5
27
102
{ACAD_REACTORS
330
8
102
}
330
8
100
AcDbDictionary
281
     1
  3
STANDARD
350
2A
  0
DICTIONARY
  5
28
102
{ACAD_REACTORS
330
8
102
}
330
8
100
AcDbDictionary
281
     1
  0
ACDBDICTIONARYWDFLT
  5
7
102
{ACAD_REACTORS
330
8
102
}
330
8
100
AcDbDictionary
281
     1
  3
Normal
350
6
100
AcDbDictionaryWithDefault
340
6
  0
DICTIONARY
  5
37E
102
{ACAD_REACTORS
330
8
102
}
330
8
100
AcDbDictionary
281
     1
  3
A0
350
37F
  3
A1
350
380
  3
A2
350
381
  3
A3
350
382
  3
A4
350
383
  3
A5
350
384
  3
A6
350
385
  3
A7
350
386
  3
A8
350
387
  3
A9
350
388
  3
B0
350
389
  3
B1
350
38A
  3
B2
350
38B
  3
B3
350
38C
  3
B4
350
38D
  3
B5
350
38E
  3
B6
350
38F
  3
B7
350
390
  3
B8
350
391
  3
B9
350
392
  3
C0
350
393
  3
C1
350
394
  3
C2
350
395
  3
C3
350
396
  3
C4
350
397
  3
C5
350
398
  3
C6
350
399
  3
C7
350
39A
  3
C8
350
39B
  3
C9
350
39C
  3
D0
350
39D
  3
D1
350
39E
  3
D2
350
39F
  0
DICTIONARY
  5
37C
102
{ACAD_REACTORS
330
8
102
}
330
8
100
AcDbDictionary
281
     1
  3
Standard
350
37D
  0
DICTIONARY
  5
36A
102
{ACAD_REACTORS
330
8
102
}
330
8
100
AcDbDictionary
281
     1
  3
2dWireframe
350
370
  3
3D Hidden
350
372
  3
3dWireframe
350
371
  3
Basic
350
36F
  3
Brighten
350
376
  3
ColorChange
350
37A
  3
Conceptual
350
373
  3
Dim
350
375
  3
Facepattern
350
379
  3
Flat
350
36B
  3
FlatWithEdges
350
36C
  3
Gouraud
350
36D
  3
GouraudWithEdges
350
36E
  3
Linepattern
350
378
  3
Realistic
350
374
  3
Thicken
350
377
  0
XRECORD
  5
569
102
{ACAD_REACTORS
330
8
102
}
330
8
100
AcDbXrecord
280
     1
 90
        1
330
37D
  0
DICTIONARY
  5
1A9
102
{ACAD_REACTORS
330
8
102
}
330
8
100
AcDbDictionary
281
     1
  3
CANNOSCALE
350
56D
  3
CMLEADERSTYLE
350
56B
  3
CTABLESTYLE
350
56A
  3
INDEXCTL
350
1AA
  3
LAYEREVAL
350
D6A
  3
LAYERNOTIFY
350
D6B
  3
LIGHTINGUNITS
350
56E
  3
MSLTSCALE
350
56C
  0
DICTIONARY
  5
25E
102
{ACAD_REACTORS
330
8
102
}
330
8
100
AcDbDictionary
281
     1
  3
AcmStdDictionary
350
26B
  3
AMDTSECTSYM_ARROWCOLOR
350
3C7
  0
DICTIONARY
  5
19D
102
{ACAD_REACTORS
330
8
102
}
330
8
100
AcDbDictionary
281
     1
  3
AcMgSettings
350
19E
  3
AMGLAYCFG
350
26D
  0
DICTIONARY
  5
29A
102
{ACAD_REACTORS
330
8
102
}
330
8
100
AcDbDictionary
281
     1
  3
DIMENSION
350
29F
  3
FEA
350
29E
  3
HATCH (1)
350
29B
  3
HATCH (2)
350
29C
  3
SIMPLE WELD
350
2A0
  3
SYMBOLS
350
29D
  0
DICTIONARY
  5
B80
102
{ACAD_REACTORS
330
B7F
102
}
330
B7F
100
AcDbDictionary
281
     1
  0
XRECORD
  5
3CF
102
{ACAD_REACTORS
330
3CE
102
}
330
3CE
100
AcDbXrecord
280
     1
290
     1
  0
XRECORD
  5
3D1
102
{ACAD_REACTORS
330
3D0
102
}
330
3D0
100
AcDbXrecord
280
     1
290
     1
  0
XRECORD
  5
3D3
102
{ACAD_REACTORS
330
3D2
102
}
330
3D2
100
AcDbXrecord
280
     1
290
     1
  0
XRECORD
  5
3D5
102
{ACAD_REACTORS
330
3D4
102
}
330
3D4
100
AcDbXrecord
280
     1
290
     1
  0
XRECORD
  5
3D7
102
{ACAD_REACTORS
330
3D6
102
}
330
3D6
100
AcDbXrecord
280
     1
290
     1
  0
XRECORD
  5
3D9
102
{ACAD_REACTORS
330
3D8
102
}
330
3D8
100
AcDbXrecord
280
     1
290
     1
  0
XRECORD
  5
3DB
102
{ACAD_REACTORS
330
3DA
102
}
330
3DA
100
AcDbXrecord
280
     1
290
     1
  0
XRECORD
  5
3DD
102
{ACAD_REACTORS
330
3DC
102
}
330
3DC
100
AcDbXrecord
280
     1
290
     1
  0
XRECORD
  5
3DF
102
{ACAD_REACTORS
330
3DE
102
}
330
3DE
100
AcDbXrecord
280
     1
290
     1
  0
XRECORD
  5
3E1
102
{ACAD_REACTORS
330
3E0
102
}
330
3E0
100
AcDbXrecord
280
     1
290
     1
  0
XRECORD
  5
3E3
102
{ACAD_REACTORS
330
3E2
102
}
330
3E2
100
AcDbXrecord
280
     1
290
     1
  0
XRECORD
  5
3E5
102
{ACAD_REACTORS
330
3E4
102
}
330
3E4
100
AcDbXrecord
280
     1
290
     1
  0
XRECORD
  5
3E7
102
{ACAD_REACTORS
330
3E6
102
}
330
3E6
100
AcDbXrecord
280
     1
290
     1
  0
XRECORD
  5
3E9
102
{ACAD_REACTORS
330
3E8
102
}
330
3E8
100
AcDbXrecord
280
     1
290
     1
  0
DICTIONARY
  5
18B
102
{ACAD_REACTORS
330
3
102
}
330
3
100
AcDbDictionary
281
     1
  3
*A1
350
18C
  0
SORTENTSTABLE
  5
BE5
102
{ACAD_REACTORS
330
3
102
}
330
3
100
AcDbSortentsTable
330
2
331
C5C
  5
C9D
331
2B8
  5
2B8
331
C50
  5
C56
331
BBB
  5
BFF
331
BB7
  5
BE6
331
D66
  5
43A
331
C38
  5
C3E
331
C5D
  5
D5F
331
C51
  5
C57
331
C39
  5
C43
331
55F
  5
8FB
331
442
  5
55F
331
C5E
  5
D60
331
C52
  5
C58
331
C46
  5
C4F
331
C3A
  5
C46
331
560
  5
962
331
443
  5
560
331
C5F
  5
D61
331
C53
  5
C59
331
8FB
  5
BB4
331
C3B
  5
C4A
331
561
  5
AC2
331
C60
  5
C3A
331
BE3
  5
C39
331
C54
  5
C5A
331
C3C
  5
C4B
331
C9D
  5
D63
331
349
  5
349
331
C61
  5
D62
331
439
  5
43C
331
435
  5
435
331
C55
  5
C5B
331
BC0
  5
C37
331
AC2
  5
BB7
331
C3D
  5
C4C
331
563
  5
B38
331
D5F
  5
442
331
8C9
  5
BB3
331
446
  5
561
331
43A
  5
43D
331
C56
  5
C5C
331
C4A
  5
C50
331
497
  5
563
331
C3E
  5
C4D
331
D60
  5
441
331
4BC
  5
8C9
331
43B
  5
43E
331
437
  5
439
331
C57
  5
C5D
331
C4B
  5
C51
331
D61
  5
D64
331
BE7
  5
C3B
331
43C
  5
440
331
C58
  5
C5E
331
C4C
  5
C52
331
BC3
  5
C38
331
D62
  5
D65
331
BB3
  5
BBB
331
C59
  5
C5F
331
C4D
  5
C53
331
BB4
  5
BC0
331
D63
  5
43B
331
43E
  5
446
331
C5A
  5
C60
331
C4E
  5
C54
331
962
  5
BB5
331
BB5
  5
BC3
331
B38
  5
BBA
331
D64
  5
436
331
C36
  5
C3C
331
43F
  5
497
331
C5B
  5
C61
331
C4F
  5
C55
331
D65
  5
D66
331
BBA
  5
BE7
331
C43
  5
C4E
331
C37
  5
C3D
331
440
  5
4BC
  0
LAYOUT
  5
10
102
{ACAD_REACTORS
330
C
102
}
330
C
100
AcDbPlotSettings
  1
A4
  2
\\GLUTZCH_PDC\HP LaserJet 5000 N PCL 6
  4
A4
  6

 40
5.027083396911621
 41
5.111741065979003
 42
5.11175537109375
 43
5.027069091796875
 44
210.0156707763672
 45
297.0106506347656
 46
0.0
 47
0.0
 48
0.0
 49
0.0
140
0.0
141
0.0
142
1.0
143
1.0
 70
   752
 72
     1
 73
     0
 74
     5
  7
LAA4.ctb
 75
    16
147
1.0
 76
     0
 77
     2
 78
   300
148
0.0
149
0.0
100
AcDbLayout
  1
A4
 70
     1
 71
     1
 10
-5.027083396911621
 20
-5.111741065979003
 11
204.9885873794556
 21
291.8989095687866
 12
0.0
 22
0.0
 32
0.0
 14
20.12
 24
6.725894720926089
 34
0.0
 15
203.0
 25
290.0
 35
0.0
146
0.0
 13
0.0
 23
0.0
 33
0.0
 16
1.0
 26
0.0
 36
0.0
 17
0.0
 27
1.0
 37
0.0
 76
     0
330
D
  0
LAYOUT
  5
B
102
{ACAD_REACTORS
330
C
102
}
330
C
100
AcDbPlotSettings
  1

  2
TIFF Version 6 (CCITT G4 2D-Komprimierung).pc3
  4
UserDefinedRaster (16000.00 x 12800.00Pixel)
  6

 40
0.0
 41
0.0
 42
1.0
 43
1.0
 44
1280.0
 45
1600.0
 46
0.0
 47
364.9535120969062
 48
0.0
 49
0.0
140
0.0
141
0.0
142
1.0
143
0.1205325031023193
 70
 11956
 72
     2
 73
     0
 74
     1
  7
c:\amd5pp\Plot Styles\LAA4.ctb
 75
     0
147
8.296517323224472
 76
     0
 77
     2
 78
   300
148
-38.31115824905135
149
-126.6111153408549
100
AcDbLayout
  1
Model
 70
     1
 71
     0
 10
0.0
 20
0.0
 11
12.0
 21
9.0
 12
0.0
 22
0.0
 32
0.0
 14
0.0
 24
0.0
 34
0.0
 15
0.0
 25
0.0
 35
0.0
146
0.0
 13
0.0
 23
0.0
 33
0.0
 16
1.0
 26
0.0
 36
0.0
 17
0.0
 27
1.0
 37
0.0
 76
     0
330
2
331
34F
  0
MATERIAL
  5
35A
102
{ACAD_XDICTIONARY
360
35B
102
}
102
{ACAD_REACTORS
330
351
102
}
330
351
100
AcDbMaterial
  1
ByBlock
 72
     0
 43
0.0208333333333333
 43
0.0
 43
0.0
 43
0.0
 43
0.0
 43
0.0208333333333333
 43
0.0
 43
0.0
 43
0.0
 43
0.0
 43
1.0
 43
0.0
 43
0.0
 43
0.0
 43
0.0
 43
1.0
 77
     0
 47
0.0208333333333333
 47
0.0
 47
0.0
 47
0.0
 47
0.0
 47
0.0208333333333333
 47
0.0
 47
0.0
 47
0.0
 47
0.0
 47
1.0
 47
0.0
 47
0.0
 47
0.0
 47
0.0
 47
1.0
171
     0
 49
0.0208333333333333
 49
0.0
 49
0.0
 49
0.0
 49
0.0
 49
0.0208333333333333
 49
0.0
 49
0.0
 49
0.0
 49
0.0
 49
1.0
 49
0.0
 49
0.0
 49
0.0
 49
0.0
 49
1.0
175
     0
142
0.0208333333333333
142
0.0
142
0.0
142
0.0
142
0.0
142
0.0208333333333333
142
0.0
142
0.0
142
0.0
142
0.0
142
1.0
142
0.0
142
0.0
142
0.0
142
0.0
142
1.0
179
     0
144
0.0208333333333333
144
0.0
144
0.0
144
0.0
144
0.0
144
0.0208333333333333
144
0.0
144
0.0
144
0.0
144
0.0
144
1.0
144
0.0
144
0.0
144
0.0
144
0.0
144
1.0
147
0.0208333333333333
147
0.0
147
0.0
147
0.0
147
0.0
147
0.0208333333333333
147
0.0
147
0.0
147
0.0
147
0.0
147
1.0
147
0.0
147
0.0
147
0.0
147
0.0
147
1.0
  0
MATERIAL
  5
352
102
{ACAD_XDICTIONARY
360
353
102
}
102
{ACAD_REACTORS
330
351
102
}
330
351
100
AcDbMaterial
  1
ByLayer
 72
     0
 43
0.0208333333333333
 43
0.0
 43
0.0
 43
0.0
 43
0.0
 43
0.0208333333333333
 43
0.0
 43
0.0
 43
0.0
 43
0.0
 43
1.0
 43
0.0
 43
0.0
 43
0.0
 43
0.0
 43
1.0
 77
     0
 47
0.0208333333333333
 47
0.0
 47
0.0
 47
0.0
 47
0.0
 47
0.0208333333333333
 47
0.0
 47
0.0
 47
0.0
 47
0.0
 47
1.0
 47
0.0
 47
0.0
 47
0.0
 47
0.0
 47
1.0
171
     0
 49
0.0208333333333333
 49
0.0
 49
0.0
 49
0.0
 49
0.0
 49
0.0208333333333333
 49
0.0
 49
0.0
 49
0.0
 49
0.0
 49
1.0
 49
0.0
 49
0.0
 49
0.0
 49
0.0
 49
1.0
175
     0
142
0.0208333333333333
142
0.0
142
0.0
142
0.0
142
0.0
142
0.0208333333333333
142
0.0
142
0.0
142
0.0
142
0.0
142
1.0
142
0.0
142
0.0
142
0.0
142
0.0
142
1.0
179
     0
144
0.0208333333333333
144
0.0
144
0.0
144
0.0
144
0.0
144
0.0208333333333333
144
0.0
144
0.0
144
0.0
144
0.0
144
1.0
144
0.0
144
0.0
144
0.0
144
0.0
144
1.0
147
0.0208333333333333
147
0.0
147
0.0
147
0.0
147
0.0
147
0.0208333333333333
147
0.0
147
0.0
147
0.0
147
0.0
147
1.0
147
0.0
147
0.0
147
0.0
147
0.0
147
1.0
  0
MATERIAL
  5
362
102
{ACAD_XDICTIONARY
360
363
102
}
102
{ACAD_REACTORS
330
351
102
}
330
351
100
AcDbMaterial
  1
Global
 72
     0
 43
0.0208333333333333
 43
0.0
 43
0.0
 43
0.0
 43
0.0
 43
0.0208333333333333
 43
0.0
 43
0.0
 43
0.0
 43
0.0
 43
1.0
 43
0.0
 43
0.0
 43
0.0
 43
0.0
 43
1.0
 77
     0
 47
0.0208333333333333
 47
0.0
 47
0.0
 47
0.0
 47
0.0
 47
0.0208333333333333
 47
0.0
 47
0.0
 47
0.0
 47
0.0
 47
1.0
 47
0.0
 47
0.0
 47
0.0
 47
0.0
 47
1.0
171
     0
 49
0.0208333333333333
 49
0.0
 49
0.0
 49
0.0
 49
0.0
 49
0.0208333333333333
 49
0.0
 49
0.0
 49
0.0
 49
0.0
 49
1.0
 49
0.0
 49
0.0
 49
0.0
 49
0.0
 49
1.0
175
     0
142
0.0208333333333333
142
0.0
142
0.0
142
0.0
142
0.0
142
0.0208333333333333
142
0.0
142
0.0
142
0.0
142
0.0
142
1.0
142
0.0
142
0.0
142
0.0
142
0.0
142
1.0
179
     0
144
0.0208333333333333
144
0.0
144
0.0
144
0.0
144
0.0
144
0.0208333333333333
144
0.0
144
0.0
144
0.0
144
0.0
144
1.0
144
0.0
144
0.0
144
0.0
144
0.0
144
1.0
147
0.0208333333333333
147
0.0
147
0.0
147
0.0
147
0.0
147
0.0208333333333333
147
0.0
147
0.0
147
0.0
147
0.0
147
1.0
147
0.0
147
0.0
147
0.0
147
0.0
147
1.0
  0
MLEADERSTYLE
  5
3A1
102
{ACAD_REACTORS
330
3A0
102
}
330
3A0
100
AcDbMLeaderStyle
170
     2
171
     1
172
     0
 90
        2
 40
0.0
 41
0.0
173
     1
 91
-1056964608
340
16
 92
       -2
290
     1
 42
2.0
291
     1
 43
0.36
  3
Standard
 44
4.0
300

342
13
174
     1
178
     6
175
     1
176
     0
 93
-1056964608
 45
4.0
292
     0
297
     0
 46
4.0
 94
-1056964608
 47
1.0
 49
1.0
140
1.0
293
     1
141
0.0
294
     1
177
     0
142
1.0
295
     0
296
     0
143
0.125
1001
ACAD_MLEADERVER
1070
     2
  0
MLINESTYLE
  5
2A
102
{ACAD_REACTORS
330
27
102
}
330
27
100
AcDbMlineStyle
  2
STANDARD
 70
     0
  3

 62
     0
 51
90.0
 52
90.0
 71
     2
 49
0.5
 62
   256
  6
BYLAYER
 49
-0.5
 62
   256
  6
BYLAYER
  0
ACDBPLACEHOLDER
  5
6
102
{ACAD_REACTORS
330
7
102
}
330
7
  0
SCALE
  5
37F
102
{ACAD_REACTORS
330
37E
102
}
330
37E
100
AcDbScale
 70
     0
300
1:1
140
1.0
141
1.0
290
     1
  0
SCALE
  5
380
102
{ACAD_REACTORS
330
37E
102
}
330
37E
100
AcDbScale
 70
     0
300
1:2
140
1.0
141
2.0
290
     0
  0
SCALE
  5
381
102
{ACAD_REACTORS
330
37E
102
}
330
37E
100
AcDbScale
 70
     0
300
1:4
140
1.0
141
4.0
290
     0
  0
SCALE
  5
382
102
{ACAD_REACTORS
330
37E
102
}
330
37E
100
AcDbScale
 70
     0
300
1:5
140
1.0
141
5.0
290
     0
  0
SCALE
  5
383
102
{ACAD_REACTORS
330
37E
102
}
330
37E
100
AcDbScale
 70
     0
300
1:8
140
1.0
141
8.0
290
     0
  0
SCALE
  5
384
102
{ACAD_REACTORS
330
37E
102
}
330
37E
100
AcDbScale
 70
     0
300
1:10
140
1.0
141
10.0
290
     0
  0
SCALE
  5
385
102
{ACAD_REACTORS
330
37E
102
}
330
37E
100
AcDbScale
 70
     0
300
1:16
140
1.0
141
16.0
290
     0
  0
SCALE
  5
386
102
{ACAD_REACTORS
330
37E
102
}
330
37E
100
AcDbScale
 70
     0
300
1:20
140
1.0
141
20.0
290
     0
  0
SCALE
  5
387
102
{ACAD_REACTORS
330
37E
102
}
330
37E
100
AcDbScale
 70
     0
300
1:30
140
1.0
141
30.0
290
     0
  0
SCALE
  5
388
102
{ACAD_REACTORS
330
37E
102
}
330
37E
100
AcDbScale
 70
     0
300
1:40
140
1.0
141
40.0
290
     0
  0
SCALE
  5
389
102
{ACAD_REACTORS
330
37E
102
}
330
37E
100
AcDbScale
 70
     0
300
1:50
140
1.0
141
50.0
290
     0
  0
SCALE
  5
38A
102
{ACAD_REACTORS
330
37E
102
}
330
37E
100
AcDbScale
 70
     0
300
1:100
140
1.0
141
100.0
290
     0
  0
SCALE
  5
38B
102
{ACAD_REACTORS
330
37E
102
}
330
37E
100
AcDbScale
 70
     0
300
2:1
140
2.0
141
1.0
290
     0
  0
SCALE
  5
38C
102
{ACAD_REACTORS
330
37E
102
}
330
37E
100
AcDbScale
 70
     0
300
4:1
140
4.0
141
1.0
290
     0
  0
SCALE
  5
38D
102
{ACAD_REACTORS
330
37E
102
}
330
37E
100
AcDbScale
 70
     0
300
8:1
140
8.0
141
1.0
290
     0
  0
SCALE
  5
38E
102
{ACAD_REACTORS
330
37E
102
}
330
37E
100
AcDbScale
 70
     0
300
10:1
140
10.0
141
1.0
290
     0
  0
SCALE
  5
38F
102
{ACAD_REACTORS
330
37E
102
}
330
37E
100
AcDbScale
 70
     0
300
100:1
140
100.0
141
1.0
290
     0
  0
SCALE
  5
390
102
{ACAD_REACTORS
330
37E
102
}
330
37E
100
AcDbScale
 70
     0
300
1/128" = 1'-0"
140
0.0078125
141
12.0
290
     0
  0
SCALE
  5
391
102
{ACAD_REACTORS
330
37E
102
}
330
37E
100
AcDbScale
 70
     0
300
1/64" = 1'-0"
140
0.015625
141
12.0
290
     0
  0
SCALE
  5
392
102
{ACAD_REACTORS
330
37E
102
}
330
37E
100
AcDbScale
 70
     0
300
1/32" = 1'-0"
140
0.03125
141
12.0
290
     0
  0
SCALE
  5
393
102
{ACAD_REACTORS
330
37E
102
}
330
37E
100
AcDbScale
 70
     0
300
1/16" = 1'-0"
140
0.0625
141
12.0
290
     0
  0
SCALE
  5
394
102
{ACAD_REACTORS
330
37E
102
}
330
37E
100
AcDbScale
 70
     0
300
3/32" = 1'-0"
140
0.09375
141
12.0
290
     0
  0
SCALE
  5
395
102
{ACAD_REACTORS
330
37E
102
}
330
37E
100
AcDbScale
 70
     0
300
1/8" = 1'-0"
140
0.125
141
12.0
290
     0
  0
SCALE
  5
396
102
{ACAD_REACTORS
330
37E
102
}
330
37E
100
AcDbScale
 70
     0
300
3/16" = 1'-0"
140
0.1875
141
12.0
290
     0
  0
SCALE
  5
397
102
{ACAD_REACTORS
330
37E
102
}
330
37E
100
AcDbScale
 70
     0
300
1/4" = 1'-0"
140
0.25
141
12.0
290
     0
  0
SCALE
  5
398
102
{ACAD_REACTORS
330
37E
102
}
330
37E
100
AcDbScale
 70
     0
300
3/8" = 1'-0"
140
0.375
141
12.0
290
     0
  0
SCALE
  5
399
102
{ACAD_REACTORS
330
37E
102
}
330
37E
100
AcDbScale
 70
     0
300
1/2" = 1'-0"
140
0.5
141
12.0
290
     0
  0
SCALE
  5
39A
102
{ACAD_REACTORS
330
37E
102
}
330
37E
100
AcDbScale
 70
     0
300
3/4" = 1'-0"
140
0.75
141
12.0
290
     0
  0
SCALE
  5
39B
102
{ACAD_REACTORS
330
37E
102
}
330
37E
100
AcDbScale
 70
     0
300
1" = 1'-0"
140
1.0
141
12.0
290
     0
  0
SCALE
  5
39C
102
{ACAD_REACTORS
330
37E
102
}
330
37E
100
AcDbScale
 70
     0
300
1-1/2" = 1'-0"
140
1.5
141
12.0
290
     0
  0
SCALE
  5
39D
102
{ACAD_REACTORS
330
37E
102
}
330
37E
100
AcDbScale
 70
     0
300
3" = 1'-0"
140
3.0
141
12.0
290
     0
  0
SCALE
  5
39E
102
{ACAD_REACTORS
330
37E
102
}
330
37E
100
AcDbScale
 70
     0
300
6" = 1'-0"
140
6.0
141
12.0
290
     0
  0
SCALE
  5
39F
102
{ACAD_REACTORS
330
37E
102
}
330
37E
100
AcDbScale
 70
     0
300
1'-0" = 1'-0"
140
12.0
141
12.0
290
     0
  0
TABLESTYLE
  5
37D
102
{ACAD_XDICTIONARY
360
567
102
}
102
{ACAD_REACTORS
330
37C
102
}
330
37C
100
AcDbTableStyle
  3
Standard
 70
     0
 71
     0
 40
1.5
 41
1.5
280
     0
281
     0
  7
STANDARD
140
4.5
170
     2
 62
     0
 63
     7
283
     0
 90
      512
 91
        0
  1

274
    -2
284
     1
 64
     0
275
    -2
285
     1
 65
     0
276
    -2
286
     1
 66
     0
277
    -2
287
     1
 67
     0
278
    -2
288
     1
 68
     0
279
    -2
289
     1
 69
     0
  7
STANDARD
140
6.0
170
     5
 62
     0
 63
     7
283
     0
 90
      512
 91
        0
  1

274
    -2
284
     1
 64
     0
275
    -2
285
     1
 65
     0
276
    -2
286
     1
 66
     0
277
    -2
287
     1
 67
     0
278
    -2
288
     1
 68
     0
279
    -2
289
     1
 69
     0
  7
STANDARD
140
4.5
170
     5
 62
     0
 63
     7
283
     0
 90
      512
 91
        0
  1

274
    -2
284
     1
 64
     0
275
    -2
285
     1
 65
     0
276
    -2
286
     1
 66
     0
277
    -2
287
     1
 67
     0
278
    -2
288
     1
 68
     0
279
    -2
289
     1
 69
     0
  0
VISUALSTYLE
  5
370
102
{ACAD_REACTORS
330
36A
102
}
330
36A
100
AcDbVisualStyle
  2
2dWireframe
 70
     4
 71
     0
 72
     2
 73
     0
 90
        0
 40
-0.6
 41
-30.0
 62
     5
 63
     7
421
 16777215
 74
     1
 91
        4
 64
     7
 65
   257
 75
     1
175
     1
 42
1.0
 92
        0
 66
   257
 43
1.0
 76
     1
 77
     6
 78
     2
 67
     7
 79
     5
170
     0
171
     0
290
     0
174
     0
 93
        1
 44
0.0
173
     0
291
     0
 45
0.0
  0
VISUALSTYLE
  5
372
102
{ACAD_REACTORS
330
36A
102
}
330
36A
100
AcDbVisualStyle
  2
3D Hidden
 70
     6
 71
     1
 72
     2
 73
     2
 90
        0
 40
-0.6
 41
-30.0
 62
     5
 63
     7
421
 16777215
 74
     2
 91
        2
 64
     7
 65
   257
 75
     2
175
     1
 42
40.0
 92
        0
 66
   257
 43
1.0
 76
     1
 77
     6
 78
     2
 67
     7
 79
     3
170
     0
171
     0
290
     0
174
     0
 93
        1
 44
0.0
173
     0
291
     0
 45
0.0
  0
VISUALSTYLE
  5
371
102
{ACAD_REACTORS
330
36A
102
}
330
36A
100
AcDbVisualStyle
  2
3dWireframe
 70
     5
 71
     0
 72
     2
 73
     0
 90
        0
 40
-0.6
 41
-30.0
 62
     5
 63
     7
421
 16777215
 74
     1
 91
        4
 64
     7
 65
   257
 75
     1
175
     1
 42
1.0
 92
        0
 66
   257
 43
1.0
 76
     1
 77
     6
 78
     2
 67
     7
 79
     5
170
     0
171
     0
290
     0
174
     0
 93
        1
 44
0.0
173
     0
291
     0
 45
0.0
  0
VISUALSTYLE
  5
36F
102
{ACAD_REACTORS
330
36A
102
}
330
36A
100
AcDbVisualStyle
  2
Basic
 70
     7
 71
     1
 72
     0
 73
     1
 90
        0
 40
-0.6
 41
-30.0
 62
     5
 63
     7
421
 16777215
 74
     0
 91
        4
 64
     7
 65
   257
 75
     1
175
     1
 42
1.0
 92
        8
 66
     7
 43
1.0
 76
     1
 77
     6
 78
     2
 67
     7
 79
     5
170
     0
171
     0
290
     0
174
     0
 93
        1
 44
0.0
173
     0
291
     1
 45
0.0
  0
VISUALSTYLE
  5
376
102
{ACAD_REACTORS
330
36A
102
}
330
36A
100
AcDbVisualStyle
  2
Brighten
 70
    12
 71
     2
 72
     2
 73
     0
 90
        0
 40
-0.6
 41
-30.0
 62
     5
 63
     7
421
 16777215
 74
     1
 91
        4
 64
     7
 65
   257
 75
     1
175
     1
 42
1.0
 92
        8
 66
     7
 43
1.0
 76
     1
 77
     6
 78
     2
 67
     7
 79
     5
170
     0
171
     0
290
     0
174
     0
 93
        1
 44
50.0
173
     0
291
     1
 45
0.0
  0
VISUALSTYLE
  5
37A
102
{ACAD_REACTORS
330
36A
102
}
330
36A
100
AcDbVisualStyle
  2
ColorChange
 70
    16
 71
     2
 72
     2
 73
     3
 90
        0
 40
-0.6
 41
-30.0
 62
     5
 63
     8
421
  8421504
 74
     1
 91
        4
 64
     7
 65
   257
 75
     1
175
     1
 42
1.0
 92
        8
 66
     8
424
  8421504
 43
1.0
 76
     1
 77
     6
 78
     2
 67
     7
 79
     5
170
     0
171
     0
290
     0
174
     0
 93
        1
 44
0.0
173
     0
291
     1
 45
0.0
  0
VISUALSTYLE
  5
373
102
{ACAD_REACTORS
330
36A
102
}
330
36A
100
AcDbVisualStyle
  2
Conceptual
 70
     9
 71
     3
 72
     2
 73
     0
 90
        0
 40
-0.6
 41
-30.0
 62
     5
 63
     7
421
 16777215
 74
     2
 91
        2
 64
     7
 65
   257
 75
     1
175
     1
 42
40.0
 92
        8
 66
     7
 43
1.0
 76
     1
 77
     6
 78
     2
 67
     7
 79
     3
170
     0
171
     0
290
     0
174
     0
 93
        1
 44
0.0
173
     0
291
     0
 45
0.0
  0
VISUALSTYLE
  5
375
102
{ACAD_REACTORS
330
36A
102
}
330
36A
100
AcDbVisualStyle
  2
Dim
 70
    11
 71
     2
 72
     2
 73
     0
 90
        0
 40
-0.6
 41
-30.0
 62
     5
 63
     7
421
 16777215
 74
     1
 91
        4
 64
     7
 65
   257
 75
     1
175
     1
 42
1.0
 92
        8
 66
     7
 43
1.0
 76
     1
 77
     6
 78
     2
 67
     7
 79
     5
170
     0
171
     0
290
     0
174
     0
 93
        1
 44
-50.0
173
     0
291
     1
 45
0.0
  0
VISUALSTYLE
  5
379
102
{ACAD_REACTORS
330
36A
102
}
330
36A
100
AcDbVisualStyle
  2
Facepattern
 70
    15
 71
     2
 72
     2
 73
     0
 90
        0
 40
-0.6
 41
-30.0
 62
     5
 63
     7
421
 16777215
 74
     1
 91
        4
 64
     7
 65
   257
 75
     1
175
     1
 42
1.0
 92
        8
 66
     7
 43
1.0
 76
     1
 77
     6
 78
     2
 67
     7
 79
     5
170
     0
171
     0
290
     0
174
     0
 93
        1
 44
0.0
173
     0
291
     1
 45
0.0
  0
VISUALSTYLE
  5
36B
102
{ACAD_REACTORS
330
36A
102
}
330
36A
100
AcDbVisualStyle
  2
Flat
 70
     0
 71
     2
 72
     1
 73
     1
 90
        2
 40
-0.6
 41
30.0
 62
     5
 63
     7
421
 16777215
 74
     0
 91
        4
 64
     7
 65
   257
 75
     1
175
     1
 42
1.0
 92
        8
 66
     7
 43
1.0
 76
     1
 77
     6
 78
     2
 67
     7
 79
     5
170
     0
171
     0
290
     0
174
     0
 93
       13
 44
0.0
173
     0
291
     1
 45
0.0
  0
VISUALSTYLE
  5
36C
102
{ACAD_REACTORS
330
36A
102
}
330
36A
100
AcDbVisualStyle
  2
FlatWithEdges
 70
     1
 71
     2
 72
     1
 73
     1
 90
        2
 40
-0.6
 41
30.0
 62
     5
 63
     7
421
 16777215
 74
     1
 91
        4
 64
     7
 65
   257
 75
     1
175
     1
 42
1.0
 92
        0
 66
   257
 43
1.0
 76
     1
 77
     6
 78
     2
 67
     7
 79
     5
170
     0
171
     0
290
     0
174
     0
 93
       13
 44
0.0
173
     0
291
     1
 45
0.0
  0
VISUALSTYLE
  5
36D
102
{ACAD_REACTORS
330
36A
102
}
330
36A
100
AcDbVisualStyle
  2
Gouraud
 70
     2
 71
     2
 72
     2
 73
     1
 90
        2
 40
-0.6
 41
30.0
 62
     5
 63
     7
421
 16777215
 74
     0
 91
        4
 64
     7
 65
   257
 75
     1
175
     1
 42
1.0
 92
        0
 66
     7
 43
1.0
 76
     1
 77
     6
 78
     2
 67
     7
 79
     5
170
     0
171
     0
290
     0
174
     0
 93
       13
 44
0.0
173
     0
291
     1
 45
0.0
  0
VISUALSTYLE
  5
36E
102
{ACAD_REACTORS
330
36A
102
}
330
36A
100
AcDbVisualStyle
  2
GouraudWithEdges
 70
     3
 71
     2
 72
     2
 73
     1
 90
        2
 40
-0.6
 41
30.0
 62
     5
 63
     7
421
 16777215
 74
     1
 91
        4
 64
     7
 65
   257
 75
     1
175
     1
 42
1.0
 92
        0
 66
   257
 43
1.0
 76
     1
 77
     6
 78
     2
 67
     7
 79
     5
170
     0
171
     0
290
     0
174
     0
 93
       13
 44
0.0
173
     0
291
     1
 45
0.0
  0
VISUALSTYLE
  5
378
102
{ACAD_REACTORS
330
36A
102
}
330
36A
100
AcDbVisualStyle
  2
Linepattern
 70
    14
 71
     2
 72
     2
 73
     0
 90
        0
 40
-0.6
 41
-30.0
 62
     5
 63
     7
421
 16777215
 74
     1
 91
        4
 64
     7
 65
   257
 75
     7
175
     7
 42
1.0
 92
        8
 66
     7
 43
1.0
 76
     1
 77
     6
 78
     2
 67
     7
 79
     5
170
     0
171
     0
290
     0
174
     0
 93
        1
 44
0.0
173
     0
291
     1
 45
0.0
  0
VISUALSTYLE
  5
374
102
{ACAD_REACTORS
330
36A
102
}
330
36A
100
AcDbVisualStyle
  2
Realistic
 70
     8
 71
     2
 72
     2
 73
     0
 90
        0
 40
-0.6
 41
-30.0
 62
     5
 63
     7
421
 16777215
 74
     1
 91
        0
 64
     7
 65
   257
 75
     1
175
     1
 42
1.0
 92
        8
 66
     8
424
  7895160
 43
1.0
 76
     1
 77
     6
 78
     2
 67
     7
 79
     5
170
     0
171
     0
290
     0
174
     0
 93
       13
 44
0.0
173
     0
291
     0
 45
0.0
  0
VISUALSTYLE
  5
377
102
{ACAD_REACTORS
330
36A
102
}
330
36A
100
AcDbVisualStyle
  2
Thicken
 70
    13
 71
     2
 72
     2
 73
     0
 90
        0
 40
-0.6
 41
-30.0
 62
     5
 63
     7
421
 16777215
 74
     1
 91
        4
 64
     7
 65
   257
 75
     1
175
     1
 42
1.0
 92
       12
 66
     7
 43
1.0
 76
     1
 77
     6
 78
     2
 67
     7
 79
     5
170
     0
171
     0
290
     0
174
     0
 93
        1
 44
0.0
173
     0
291
     1
 45
0.0
  0
DICTIONARYVAR
  5
56D
102
{ACAD_REACTORS
330
1A9
102
}
330
1A9
100
DictionaryVariables
280
     0
  1
1:1
  0
DICTIONARYVAR
  5
56B
102
{ACAD_REACTORS
330
1A9
102
}
330
1A9
100
DictionaryVariables
280
     0
  1
STANDARD
  0
DICTIONARYVAR
  5
56A
102
{ACAD_REACTORS
330
1A9
102
}
330
1A9
100
DictionaryVariables
280
     0
  1
STANDARD
  0
DICTIONARYVAR
  5
1AA
102
{ACAD_REACTORS
330
1A9
102
}
330
1A9
100
DictionaryVariables
280
     0
  1
1
  0
DICTIONARYVAR
  5
D6A
102
{ACAD_REACTORS
330
1A9
102
}
330
1A9
100
DictionaryVariables
280
     0
  1
1
  0
DICTIONARYVAR
  5
D6B
102
{ACAD_REACTORS
330
1A9
102
}
330
1A9
100
DictionaryVariables
280
     0
  1
15
  0
DICTIONARYVAR
  5
56E
102
{ACAD_REACTORS
330
1A9
102
}
330
1A9
100
DictionaryVariables
280
     0
  1
0
  0
DICTIONARYVAR
  5
56C
102
{ACAD_REACTORS
330
1A9
102
}
330
1A9
100
DictionaryVariables
280
     0
  1
0
  0
DICTIONARY
  5
26B
102
{ACAD_REACTORS
330
25E
102
}
330
25E
100
AcDbDictionary
281
     1
  0
XRECORD
  5
3C7
102
{ACAD_REACTORS
330
25E
102
}
330
25E
100
AcDbXrecord
280
     1
 90
-1023410169
  0
DICTIONARY
  5
19E
102
{ACAD_REACTORS
330
19D
102
}
330
19D
100
AcDbDictionary
281
     1
  3
DWGSETTINGS
350
19F
  3
TRANSSETTINGS
350
1A3
  0
ACAMGFILTERDAT
  5
29F
102
{ACAD_REACTORS
330
29A
102
}
330
29A
100
AcAmgFilterDat
 70
    15
  1
DIMENSION,AMDT_*_DIM
  2
*
  3
*
  4
*
  5
*
290
     1
  0
ACAMGFILTERDAT
  5
29E
102
{ACAD_REACTORS
330
29A
102
}
330
29A
100
AcAmgFilterDat
 70
    15
  1
*
  2
AM_FEA-AM_*
  3
*
  4
*
  5
*
290
     1
  0
ACAMGFILTERDAT
  5
29B
102
{ACAD_REACTORS
330
29A
102
}
330
29A
100
AcAmgFilterDat
 70
    15
  1
HATCH
  2
*
  3
*
  4
*
  5
*
290
     1
  0
ACAMGFILTERDAT
  5
29C
102
{ACAD_REACTORS
330
29A
102
}
330
29A
100
AcAmgFilterDat
 70
    15
  1
LINE
  2
8,8N,*-8,*-8N,AM_8,AM_8N,*-AM_8,*-AM_8N
  3
*
  4
*
  5
INSERT,STDPART2D
290
     1
  0
ACAMGFILTERDAT
  5
2A0
102
{ACAD_REACTORS
330
29A
102
}
330
29A
100
AcAmgFilterDat
 70
    15
  1
ARC
  2
AM_5
  3
*
  4
2
  5
INSERT
290
     0
  0
ACAMGFILTERDAT
  5
29D
102
{ACAD_REACTORS
330
29A
102
}
330
29A
100
AcAmgFilterDat
 70
    15
  1
ACMFCFRAME,ACMDATUMTARGET,ACMDATUMID,ACMWELDSYM,ACMSURFSYM,ACMFEATID,ACMPARTREF,ACMBALLOON,AMDTEDGESYM,AMGSCREWCALCTABLE
  2
*
  3
*
  4
*
  5
*
290
     1
  0
LAYER_INDEX
  5
18C
102
{ACAD_REACTORS
330
18B
102
}
330
18B
100
AcDbIndex
 40
2454986.346353935
100
AcDbLayerIndex
  8
0
360
18D
 90
        3
  8
AM_0
360
18E
 90
       13
  8
AM_4
360
18F
 90
        0
  8
AM_5
360
190
 90
        6
  8
AM_7
360
191
 90
       23
  8
Defpoints
360
192
 90
        0
  8
AM_VIS
360
193
 90
       14
  8
AM_HID
360
194
 90
        8
  8
AM_REFDIM
360
195
 90
        3
  8
RAHM2
360
196
 90
        0
  8
RAHM3
360
197
 90
        0
  8
RAHM5
360
198
 90
        0
  8
KOPF
360
199
 90
        0
  8
AM_VIEWS
360
34B
 90
        1
  8
AM_6
360
34C
 90
        1
  8
SICHTBARE_KANTEN_GLUTZ_IAM
360
564
 90
        6
  8
SKIZZIERGEOMETRIE_GLUTZ_IA
360
565
 90
        0
  8
AM_CL
360
566
 90
        1
  8
BEMAßUNGEN_ISO-ZOPH_
360
7BF
 90
        0
  8
INFO_ISO-ZOPH_
360
7C0
 90
        0
  8
MITTELPUNKTMARKIERUNG_ISO-
360
7C1
 90
        0
  8
SCHNITTANSICHTSLINIEN_ISO-
360
7C2
 90
        0
  8
SICHTBARE_KANTEN_ISO-ZOPH_
360
7C3
 90
        0
  8
VERDECKTE_KANTEN_ISO-ZOPH_
360
7C4
 90
        0
  8
7
360
BE8
 90
        0
  0
DICTIONARY
  5
35B
330
35A
100
AcDbDictionary
280
     1
281
     1
  3
BUMPTILE
360
35D
  3
DIFFUSETILE
360
35C
  3
OPACITYTILE
360
360
  3
REFLECTIONTILE
360
35F
  3
REFRACTIONTILE
360
361
  3
SPECULARTILE
360
35E
  0
DICTIONARY
  5
353
330
352
100
AcDbDictionary
280
     1
281
     1
  3
BUMPTILE
360
355
  3
DIFFUSETILE
360
354
  3
OPACITYTILE
360
358
  3
REFLECTIONTILE
360
357
  3
REFRACTIONTILE
360
359
  3
SPECULARTILE
360
356
  0
DICTIONARY
  5
363
330
362
100
AcDbDictionary
280
     1
281
     1
  3
BUMPTILE
360
365
  3
DIFFUSETILE
360
364
  3
OPACITYTILE
360
368
  3
REFLECTIONTILE
360
367
  3
REFRACTIONTILE
360
369
  3
SPECULARTILE
360
366
  0
DICTIONARY
  5
567
330
37D
100
AcDbDictionary
280
     1
281
     1
  3
ACAD_ROUNDTRIP_2008_TABLESTYLE_CELLSTYLEMAP
360
D6C
  0
IDBUFFER
  5
18D
330
0
100
AcDbIdBuffer
330
442
330
443
330
440
  0
IDBUFFER
  5
18E
330
0
100
AcDbIdBuffer
330
D5F
330
D60
330
D61
330
D62
330
D63
330
D64
330
D65
330
D66
330
BE3
330
C5E
330
C5F
330
C60
330
C61
  0
IDBUFFER
  5
18F
330
0
100
AcDbIdBuffer
  0
IDBUFFER
  5
190
330
0
100
AcDbIdBuffer
330
8C9
330
8FB
330
962
330
AC2
330
B38
330
C9D
  0
IDBUFFER
  5
191
330
0
100
AcDbIdBuffer
330
55F
330
560
330
561
330
563
330
BB3
330
BB4
330
BB5
330
BB7
330
BBA
330
BBB
330
BC0
330
BC3
330
C36
330
C37
330
C38
330
C39
330
C3A
330
C3B
330
C3C
330
C3D
330
C3E
330
C43
330
C46
  0
IDBUFFER
  5
192
330
0
100
AcDbIdBuffer
  0
IDBUFFER
  5
193
330
0
100
AcDbIdBuffer
330
C4A
330
C4B
330
C4C
330
C4D
330
C4E
330
C54
330
C56
330
C57
330
C58
330
C59
330
C5A
330
C5B
330
C5C
330
C5D
  0
IDBUFFER
  5
194
330
0
100
AcDbIdBuffer
330
43E
330
43F
330
C4F
330
C50
330
C51
330
C52
330
C53
330
C55
  0
IDBUFFER
  5
195
330
0
100
AcDbIdBuffer
330
446
330
497
330
4BC
  0
IDBUFFER
  5
196
330
0
100
AcDbIdBuffer
  0
IDBUFFER
  5
197
330
0
100
AcDbIdBuffer
  0
IDBUFFER
  5
198
330
0
100
AcDbIdBuffer
  0
IDBUFFER
  5
199
330
0
100
AcDbIdBuffer
  0
IDBUFFER
  5
34B
330
0
100
AcDbIdBuffer
330
2B8
  0
IDBUFFER
  5
34C
330
0
100
AcDbIdBuffer
330
349
  0
IDBUFFER
  5
564
330
0
100
AcDbIdBuffer
330
43C
330
435
330
43B
330
437
330
439
330
43A
  0
IDBUFFER
  5
565
330
0
100
AcDbIdBuffer
  0
IDBUFFER
  5
566
330
0
100
AcDbIdBuffer
330
BE7
  0
IDBUFFER
  5
7BF
330
0
100
AcDbIdBuffer
  0
IDBUFFER
  5
7C0
330
0
100
AcDbIdBuffer
  0
IDBUFFER
  5
7C1
330
0
100
AcDbIdBuffer
  0
IDBUFFER
  5
7C2
330
0
100
AcDbIdBuffer
  0
IDBUFFER
  5
7C3
330
0
100
AcDbIdBuffer
  0
IDBUFFER
  5
7C4
330
0
100
AcDbIdBuffer
  0
IDBUFFER
  5
BE8
330
0
100
AcDbIdBuffer
  0
XRECORD
  5
35D
102
{ACAD_REACTORS
330
35B
102
}
330
35B
100
AcDbXrecord
280
     1
270
     1
271
     1
  0
XRECORD
  5
35C
102
{ACAD_REACTORS
330
35B
102
}
330
35B
100
AcDbXrecord
280
     1
270
     1
271
     1
  0
XRECORD
  5
360
102
{ACAD_REACTORS
330
35B
102
}
330
35B
100
AcDbXrecord
280
     1
270
     1
271
     1
  0
XRECORD
  5
35F
102
{ACAD_REACTORS
330
35B
102
}
330
35B
100
AcDbXrecord
280
     1
270
     1
271
     1
  0
XRECORD
  5
361
102
{ACAD_REACTORS
330
35B
102
}
330
35B
100
AcDbXrecord
280
     1
270
     1
271
     1
  0
XRECORD
  5
35E
102
{ACAD_REACTORS
330
35B
102
}
330
35B
100
AcDbXrecord
280
     1
270
     1
271
     1
  0
XRECORD
  5
355
102
{ACAD_REACTORS
330
353
102
}
330
353
100
AcDbXrecord
280
     1
270
     1
271
     1
  0
XRECORD
  5
354
102
{ACAD_REACTORS
330
353
102
}
330
353
100
AcDbXrecord
280
     1
270
     1
271
     1
  0
XRECORD
  5
358
102
{ACAD_REACTORS
330
353
102
}
330
353
100
AcDbXrecord
280
     1
270
     1
271
     1
  0
XRECORD
  5
357
102
{ACAD_REACTORS
330
353
102
}
330
353
100
AcDbXrecord
280
     1
270
     1
271
     1
  0
XRECORD
  5
359
102
{ACAD_REACTORS
330
353
102
}
330
353
100
AcDbXrecord
280
     1
270
     1
271
     1
  0
XRECORD
  5
356
102
{ACAD_REACTORS
330
353
102
}
330
353
100
AcDbXrecord
280
     1
270
     1
271
     1
  0
XRECORD
  5
365
102
{ACAD_REACTORS
330
363
102
}
330
363
100
AcDbXrecord
280
     1
270
     1
271
     1
  0
XRECORD
  5
364
102
{ACAD_REACTORS
330
363
102
}
330
363
100
AcDbXrecord
280
     1
270
     1
271
     1
  0
XRECORD
  5
368
102
{ACAD_REACTORS
330
363
102
}
330
363
100
AcDbXrecord
280
     1
270
     1
271
     1
  0
XRECORD
  5
367
102
{ACAD_REACTORS
330
363
102
}
330
363
100
AcDbXrecord
280
     1
270
     1
271
     1
  0
XRECORD
  5
369
102
{ACAD_REACTORS
330
363
102
}
330
363
100
AcDbXrecord
280
     1
270
     1
271
     1
  0
XRECORD
  5
366
102
{ACAD_REACTORS
330
363
102
}
330
363
100
AcDbXrecord
280
     1
270
     1
271
     1
  0
CELLSTYLEMAP
  5
D6C
102
{ACAD_REACTORS
330
567
102
}
330
567
100
AcDbCellStyleMap
 90
        3
300
CELLSTYLE
  1
TABLEFORMAT_BEGIN
 90
        5
170
     1
 91
        0
 92
    32768
 62
   257
 93
        1
300
CONTENTFORMAT
  1
CONTENTFORMAT_BEGIN
 90
        0
 91
        0
 92
      512
 93
        0
300

 40
0.0
140
1.0
 94
        5
 62
     0
340
13
144
6.0
309
CONTENTFORMAT_END
171
     1
301
MARGIN
  1
CELLMARGIN_BEGIN
 40
1.5
 40
1.5
 40
1.5
 40
1.5
 40
4.5
 40
4.5
309
CELLMARGIN_END
 94
        6
 95
        1
302
GRIDFORMAT
  1
GRIDFORMAT_BEGIN
 90
        0
 91
        1
 62
     0
 92
       -2
340
0
 93
        0
 40
1.125
309
GRIDFORMAT_END
 95
        2
302
GRIDFORMAT
  1
GRIDFORMAT_BEGIN
 90
        0
 91
        1
 62
     0
 92
       -2
340
0
 93
        0
 40
1.125
309
GRIDFORMAT_END
 95
        4
302
GRIDFORMAT
  1
GRIDFORMAT_BEGIN
 90
        0
 91
        1
 62
     0
 92
       -2
340
0
 93
        0
 40
1.125
309
GRIDFORMAT_END
 95
        8
302
GRIDFORMAT
  1
GRIDFORMAT_BEGIN
 90
        0
 91
        1
 62
     0
 92
       -2
340
0
 93
        0
 40
1.125
309
GRIDFORMAT_END
 95
       16
302
GRIDFORMAT
  1
GRIDFORMAT_BEGIN
 90
        0
 91
        1
 62
     0
 92
       -2
340
0
 93
        0
 40
1.125
309
GRIDFORMAT_END
 95
       32
302
GRIDFORMAT
  1
GRIDFORMAT_BEGIN
 90
        0
 91
        1
 62
     0
 92
       -2
340
0
 93
        0
 40
1.125
309
GRIDFORMAT_END
309
TABLEFORMAT_END
  1
CELLSTYLE_BEGIN
 90
        1
 91
        1
300
_TITLE
309
CELLSTYLE_END
300
CELLSTYLE
  1
TABLEFORMAT_BEGIN
 90
        5
170
     1
 91
        0
 92
        0
 62
   257
 93
        1
300
CONTENTFORMAT
  1
CONTENTFORMAT_BEGIN
 90
        0
 91
        0
 92
      512
 93
        0
300

 40
0.0
140
1.0
 94
        5
 62
     0
340
13
144
4.5
309
CONTENTFORMAT_END
171
     1
301
MARGIN
  1
CELLMARGIN_BEGIN
 40
1.5
 40
1.5
 40
1.5
 40
1.5
 40
4.5
 40
4.5
309
CELLMARGIN_END
 94
        6
 95
        1
302
GRIDFORMAT
  1
GRIDFORMAT_BEGIN
 90
        0
 91
        1
 62
     0
 92
       -2
340
0
 93
        0
 40
1.125
309
GRIDFORMAT_END
 95
        2
302
GRIDFORMAT
  1
GRIDFORMAT_BEGIN
 90
        0
 91
        1
 62
     0
 92
       -2
340
0
 93
        0
 40
1.125
309
GRIDFORMAT_END
 95
        4
302
GRIDFORMAT
  1
GRIDFORMAT_BEGIN
 90
        0
 91
        1
 62
     0
 92
       -2
340
0
 93
        0
 40
1.125
309
GRIDFORMAT_END
 95
        8
302
GRIDFORMAT
  1
GRIDFORMAT_BEGIN
 90
        0
 91
        1
 62
     0
 92
       -2
340
0
 93
        0
 40
1.125
309
GRIDFORMAT_END
 95
       16
302
GRIDFORMAT
  1
GRIDFORMAT_BEGIN
 90
        0
 91
        1
 62
     0
 92
       -2
340
0
 93
        0
 40
1.125
309
GRIDFORMAT_END
 95
       32
302
GRIDFORMAT
  1
GRIDFORMAT_BEGIN
 90
        0
 91
        1
 62
     0
 92
       -2
340
0
 93
        0
 40
1.125
309
GRIDFORMAT_END
309
TABLEFORMAT_END
  1
CELLSTYLE_BEGIN
 90
        2
 91
        1
300
_HEADER
309
CELLSTYLE_END
300
CELLSTYLE
  1
TABLEFORMAT_BEGIN
 90
        5
170
     1
 91
        0
 92
        0
 62
   257
 93
        1
300
CONTENTFORMAT
  1
CONTENTFORMAT_BEGIN
 90
        0
 91
        0
 92
      512
 93
        0
300

 40
0.0
140
1.0
 94
        2
 62
     0
340
13
144
4.5
309
CONTENTFORMAT_END
171
     1
301
MARGIN
  1
CELLMARGIN_BEGIN
 40
1.5
 40
1.5
 40
1.5
 40
1.5
 40
4.5
 40
4.5
309
CELLMARGIN_END
 94
        6
 95
        1
302
GRIDFORMAT
  1
GRIDFORMAT_BEGIN
 90
        0
 91
        1
 62
     0
 92
       -2
340
0
 93
        0
 40
1.125
309
GRIDFORMAT_END
 95
        2
302
GRIDFORMAT
  1
GRIDFORMAT_BEGIN
 90
        0
 91
        1
 62
     0
 92
       -2
340
0
 93
        0
 40
1.125
309
GRIDFORMAT_END
 95
        4
302
GRIDFORMAT
  1
GRIDFORMAT_BEGIN
 90
        0
 91
        1
 62
     0
 92
       -2
340
0
 93
        0
 40
1.125
309
GRIDFORMAT_END
 95
        8
302
GRIDFORMAT
  1
GRIDFORMAT_BEGIN
 90
        0
 91
        1
 62
     0
 92
       -2
340
0
 93
        0
 40
1.125
309
GRIDFORMAT_END
 95
       16
302
GRIDFORMAT
  1
GRIDFORMAT_BEGIN
 90
        0
 91
        1
 62
     0
 92
       -2
340
0
 93
        0
 40
1.125
309
GRIDFORMAT_END
 95
       32
302
GRIDFORMAT
  1
GRIDFORMAT_BEGIN
 90
        0
 91
        1
 62
     0
 92
       -2
340
0
 93
        0
 40
1.125
309
GRIDFORMAT_END
309
TABLEFORMAT_END
  1
CELLSTYLE_BEGIN
 90
        3
 91
        2
300
_DATA
309
CELLSTYLE_END
  0
ENDSEC
  0
EOF
