  0
SECTION
  2
HEADER
  9
$ACADVER
  1
AC1021
  9
$ACADMAINTVER
 70
    53
  9
$DWGCODEPAGE
  3
ANSI_1252
  9
$LASTSAVEDBY
  1
kup
  9
$CUSTOMPROPERTYTAG
  1
AmdtFileType
  9
$CUSTOMPROPERTY
  1
84
  9
$INSBASE
 10
0.0
 20
0.0
 30
0.0
  9
$EXTMIN
 10
31.99859720654627
 20
21.22270274258062
 30
-0.0000000349181948
  9
$EXTMAX
 10
185.7751471895901
 20
280.3091589972717
 30
0.0000000814935747
  9
$LIMMIN
 10
0.0
 20
0.0
  9
$LIMMAX
 10
420.0
 20
297.0
  9
$ORTHOMODE
 70
     1
  9
$REGENMODE
 70
     1
  9
$FILLMODE
 70
     1
  9
$QTEXTMODE
 70
     0
  9
$MIRRTEXT
 70
     1
  9
$LTSCALE
 40
1.0
  9
$ATTMODE
 70
     1
  9
$TEXTSIZE
 40
3.5
  9
$TRACEWID
 40
1.0
  9
$TEXTSTYLE
  7
STANDARD
  9
$CLAYER
  8
AM_0
  9
$CELTYPE
  6
BYLAYER
  9
$CECOLOR
 62
   256
  9
$CELTSCALE
 40
1.0
  9
$DISPSILH
 70
     0
  9
$DIMSCALE
 40
1.0
  9
$DIMASZ
 40
3.5
  9
$DIMEXO
 40
1.0
  9
$DIMDLI
 40
10.0
  9
$DIMRND
 40
0.0
  9
$DIMDLE
 40
0.0
  9
$DIMEXE
 40
1.0
  9
$DIMTP
 40
0.1
  9
$DIMTM
 40
0.1
  9
$DIMTXT
 40
3.5
  9
$DIMCEN
 40
0.0
  9
$DIMTSZ
 40
0.0
  9
$DIMTOL
 70
     0
  9
$DIMLIM
 70
     0
  9
$DIMTIH
 70
     0
  9
$DIMTOH
 70
     0
  9
$DIMSE1
 70
     0
  9
$DIMSE2
 70
     0
  9
$DIMTAD
 70
     1
  9
$DIMZIN
 70
     8
  9
$DIMBLK
  1

  9
$DIMASO
 70
     1
  9
$DIMSHO
 70
     1
  9
$DIMPOST
  1

  9
$DIMAPOST
  1
"
  9
$DIMALT
 70
     0
  9
$DIMALTD
 70
     2
  9
$DIMALTF
 40
0.0393701
  9
$DIMLFAC
 40
1.0
  9
$DIMTOFL
 70
     1
  9
$DIMTVP
 40
0.0
  9
$DIMTIX
 70
     0
  9
$DIMSOXD
 70
     0
  9
$DIMSAH
 70
     0
  9
$DIMBLK1
  1

  9
$DIMBLK2
  1

  9
$DIMSTYLE
  2
AM_ISO
  9
$DIMCLRD
 70
   256
  9
$DIMCLRE
 70
   256
  9
$DIMCLRT
 70
     2
  9
$DIMTFAC
 40
0.71
  9
$DIMGAP
 40
1.5
  9
$DIMJUST
 70
     0
  9
$DIMSD1
 70
     0
  9
$DIMSD2
 70
     0
  9
$DIMTOLJ
 70
     0
  9
$DIMTZIN
 70
     8
  9
$DIMALTZ
 70
     0
  9
$DIMALTTZ
 70
     0
  9
$DIMUPT
 70
     0
  9
$DIMDEC
 70
     2
  9
$DIMTDEC
 70
     3
  9
$DIMALTU
 70
     2
  9
$DIMALTTD
 70
     4
  9
$DIMTXSTY
  7
STANDARD
  9
$DIMAUNIT
 70
     0
  9
$DIMADEC
 70
     0
  9
$DIMALTRND
 40
0.0
  9
$DIMAZIN
 70
     2
  9
$DIMDSEP
 70
    46
  9
$DIMATFIT
 70
     3
  9
$DIMFRAC
 70
     0
  9
$DIMLDRBLK
  1

  9
$DIMLUNIT
 70
     2
  9
$DIMLWD
 70
    -1
  9
$DIMLWE
 70
    -1
  9
$DIMTMOVE
 70
     0
  9
$DIMFXL
 40
1.0
  9
$DIMFXLON
 70
     0
  9
$DIMJOGANG
 40
0.7853981633974483
  9
$DIMTFILL
 70
     0
  9
$DIMTFILLCLR
 70
     0
  9
$DIMARCSYM
 70
     1
  9
$DIMLTYPE
  6
BYBLOCK
  9
$DIMLTEX1
  6
BYBLOCK
  9
$DIMLTEX2
  6
BYBLOCK
  9
$LUNITS
 70
     2
  9
$LUPREC
 70
     4
  9
$SKETCHINC
 40
1.0
  9
$FILLETRAD
 40
10.0
  9
$AUNITS
 70
     0
  9
$AUPREC
 70
     2
  9
$MENU
  1
.
  9
$ELEVATION
 40
0.0
  9
$PELEVATION
 40
0.0
  9
$THICKNESS
 40
0.0
  9
$LIMCHECK
 70
     0
  9
$CHAMFERA
 40
10.0
  9
$CHAMFERB
 40
10.0
  9
$CHAMFERC
 40
20.0
  9
$CHAMFERD
 40
0.0
  9
$SKPOLY
 70
     1
  9
$TDCREATE
 40
2452040.521829248
  9
$TDUCREATE
 40
2452040.480162581
  9
$TDUPDATE
 40
2455279.572023924
  9
$TDUUPDATE
 40
2455279.530357257
  9
$TDINDWG
 40
0.0139029514
  9
$TDUSRTIMER
 40
0.0139028356
  9
$USRTIMER
 70
     1
  9
$ANGBASE
 50
0.0
  9
$ANGDIR
 70
     0
  9
$PDMODE
 70
     0
  9
$PDSIZE
 40
0.0
  9
$PLINEWID
 40
0.0
  9
$SPLFRAME
 70
     0
  9
$SPLINETYPE
 70
     6
  9
$SPLINESEGS
 70
    16
  9
$HANDSEED
  5
21BD
  9
$SURFTAB1
 70
     6
  9
$SURFTAB2
 70
     6
  9
$SURFTYPE
 70
     6
  9
$SURFU
 70
     6
  9
$SURFV
 70
     6
  9
$UCSBASE
  2

  9
$UCSNAME
  2

  9
$UCSORG
 10
0.0
 20
0.0
 30
0.0
  9
$UCSXDIR
 10
1.0
 20
0.0
 30
0.0
  9
$UCSYDIR
 10
0.0
 20
1.0
 30
0.0
  9
$UCSORTHOREF
  2

  9
$UCSORTHOVIEW
 70
     0
  9
$UCSORGTOP
 10
0.0
 20
0.0
 30
0.0
  9
$UCSORGBOTTOM
 10
0.0
 20
0.0
 30
0.0
  9
$UCSORGLEFT
 10
0.0
 20
0.0
 30
0.0
  9
$UCSORGRIGHT
 10
0.0
 20
0.0
 30
0.0
  9
$UCSORGFRONT
 10
0.0
 20
0.0
 30
0.0
  9
$UCSORGBACK
 10
0.0
 20
0.0
 30
0.0
  9
$PUCSBASE
  2

  9
$PUCSNAME
  2

  9
$PUCSORG
 10
0.0
 20
0.0
 30
0.0
  9
$PUCSXDIR
 10
1.0
 20
0.0
 30
0.0
  9
$PUCSYDIR
 10
0.0
 20
1.0
 30
0.0
  9
$PUCSORTHOREF
  2

  9
$PUCSORTHOVIEW
 70
     0
  9
$PUCSORGTOP
 10
0.0
 20
0.0
 30
0.0
  9
$PUCSORGBOTTOM
 10
0.0
 20
0.0
 30
0.0
  9
$PUCSORGLEFT
 10
0.0
 20
0.0
 30
0.0
  9
$PUCSORGRIGHT
 10
0.0
 20
0.0
 30
0.0
  9
$PUCSORGFRONT
 10
0.0
 20
0.0
 30
0.0
  9
$PUCSORGBACK
 10
0.0
 20
0.0
 30
0.0
  9
$USERI1
 70
     0
  9
$USERI2
 70
     0
  9
$USERI3
 70
     0
  9
$USERI4
 70
     0
  9
$USERI5
 70
     0
  9
$USERR1
 40
0.0
  9
$USERR2
 40
0.0
  9
$USERR3
 40
0.0
  9
$USERR4
 40
0.0
  9
$USERR5
 40
0.0
  9
$WORLDVIEW
 70
     1
  9
$SHADEDGE
 70
     3
  9
$SHADEDIF
 70
    70
  9
$TILEMODE
 70
     1
  9
$MAXACTVP
 70
    48
  9
$PINSBASE
 10
0.0
 20
0.0
 30
0.0
  9
$PLIMCHECK
 70
     0
  9
$PEXTMIN
 10
1.000000000000000E+20
 20
1.000000000000000E+20
 30
1.000000000000000E+20
  9
$PEXTMAX
 10
-1.000000000000000E+20
 20
-1.000000000000000E+20
 30
-1.000000000000000E+20
  9
$PLIMMIN
 10
-5.027083396911621
 20
-5.111741065979003
  9
$PLIMMAX
 10
204.9885873794555
 20
291.8989095687866
  9
$UNITMODE
 70
     0
  9
$VISRETAIN
 70
     1
  9
$PLINEGEN
 70
     0
  9
$PSLTSCALE
 70
     1
  9
$TREEDEPTH
 70
  3020
  9
$CMLSTYLE
  2
STANDARD
  9
$CMLJUST
 70
     0
  9
$CMLSCALE
 40
1.0
  9
$PROXYGRAPHICS
 70
     1
  9
$MEASUREMENT
 70
     1
  9
$CELWEIGHT
370
    -1
  9
$ENDCAPS
280
     0
  9
$JOINSTYLE
280
     0
  9
$LWDISPLAY
290
     0
  9
$INSUNITS
 70
     0
  9
$HYPERLINKBASE
  1

  9
$STYLESHEET
  1
v:\vorlagen\LAA4.ctb
  9
$XEDIT
290
     1
  9
$CEPSNTYPE
380
     0
  9
$PSTYLEMODE
290
     1
  9
$FINGERPRINTGUID
  2
{9DE0F4BE-022B-11D3-8698-0060B085A428}
  9
$VERSIONGUID
  2
{A413D1D9-4A6A-4E21-B029-C5828B8199E3}
  9
$EXTNAMES
290
     1
  9
$PSVPSCALE
 40
0.0
  9
$OLESTARTUP
290
     0
  9
$SORTENTS
280
    96
  9
$INDEXCTL
280
     1
  9
$HIDETEXT
280
     0
  9
$XCLIPFRAME
290
     0
  9
$HALOGAP
280
     0
  9
$OBSCOLOR
 70
   257
  9
$OBSLTYPE
280
     0
  9
$INTERSECTIONDISPLAY
280
     0
  9
$INTERSECTIONCOLOR
 70
   257
  9
$DIMASSOC
280
     2
  9
$PROJECTNAME
  1

  9
$CAMERADISPLAY
290
     0
  9
$LENSLENGTH
 40
50.0
  9
$CAMERAHEIGHT
 40
0.0
  9
$STEPSPERSEC
 40
2.0
  9
$STEPSIZE
 40
6.0
  9
$3DDWFPREC
 40
2.0
  9
$PSOLWIDTH
 40
0.25
  9
$PSOLHEIGHT
 40
4.0
  9
$LOFTANG1
 40
1.570796326794896
  9
$LOFTANG2
 40
1.570796326794896
  9
$LOFTMAG1
 40
0.0
  9
$LOFTMAG2
 40
0.0
  9
$LOFTPARAM
 70
     7
  9
$LOFTNORMALS
280
     1
  9
$LATITUDE
 40
37.795
  9
$LONGITUDE
 40
-122.394
  9
$NORTHDIRECTION
 40
0.0
  9
$TIMEZONE
 70
 -8000
  9
$LIGHTGLYPHDISPLAY
280
     1
  9
$TILEMODELIGHTSYNCH
280
     1
  9
$CMATERIAL
347
1E90
  9
$SOLIDHIST
280
     1
  9
$SHOWHIST
280
     1
  9
$DWFFRAME
280
     2
  9
$DGNFRAME
280
     0
  9
$REALWORLDSCALE
290
     1
  9
$INTERFERECOLOR
 62
     1
  9
$INTERFEREOBJVS
345
1EB2
  9
$INTERFEREVPVS
346
1EAF
  9
$CSHADOW
280
     0
  9
$SHADOWPLANELOCATION
 40
0.0
  0
ENDSEC
  0
SECTION
  2
CLASSES
  0
CLASS
  1
DICTIONARYVAR
  2
AcDbDictionaryVar
  3
ObjectDBX Classes
 90
        0
 91
       17
280
     0
281
     0
  0
CLASS
  1
ACMESTATEMGR
  2
AcMeStateMgr
  3
AcMeServices
 90
     1024
 91
        1
280
     0
281
     0
  0
CLASS
  1
ACMESCOPE
  2
AcMeScope
  3
AcMeServices
 90
     1024
 91
        1
280
     0
281
     0
  0
CLASS
  1
ACMECOMMANDHISTORY
  2
AcMeCommandHistory
  3
AcMeServices
 90
     1024
 91
        1
280
     0
281
     0
  0
CLASS
  1
ACRFINSADJUSTERMGR
  2
AcRfInsAdjusterMgr
  3
AcMeServices
 90
     1024
 91
        1
280
     0
281
     0
  0
CLASS
  1
ACMEDRAWINGMAN
  2
AcMeDrawingMan
  3
AcMeServices
 90
     1024
 91
        1
280
     0
281
     0
  0
CLASS
  1
AMATTR
  2
AcMeAttribute
  3
AcMeServices
 90
     1024
 91
        0
280
     0
281
     0
  0
CLASS
  1
ACMEBOMCOLUMN
  2
AcMeBOMColumn
  3
AcMeServices
 90
     1024
 91
        0
280
     0
281
     0
  0
CLASS
  1
ACMEBOMCONF
  2
AcMeBOMConf
  3
AcMeServices
 90
     1024
 91
        0
280
     0
281
     0
  0
CLASS
  1
ACMEBOMTABLE
  2
AcMeBOMTable
  3
AcMeServices
 90
     1024
 91
        0
280
     0
281
     0
  0
CLASS
  1
ACMEBOMENTRY
  2
AcMeBOMEntry
  3
AcMeServices
 90
     1024
 91
        0
280
     0
281
     0
  0
CLASS
  1
ACMEVIEW
  2
AcMeView
  3
AcMeServices
 90
     1024
 91
        1
280
     0
281
     0
  0
CLASS
  1
ACGREFMASTER
  2
AcGrefMaster
  3
AcAttribServices
 90
     1024
 91
        1
280
     0
281
     0
  0
CLASS
  1
AMIMASTER
  2
AmiMaster
  3
AmiServices
 90
     1024
 91
        1
280
     0
281
     0
  0
CLASS
  1
ACASGREFMASTER
  2
AcAsGrefMaster
  3
AutoSurfResolverServices
 90
     1024
 91
        1
280
     0
281
     0
  0
CLASS
  1
ADAPPL
  2
AcAdAppl
  3
DesignerServices
 90
     1024
 91
        1
280
     0
281
     0
  0
CLASS
  1
DEPMGR
  2
AcAdDepMgr
  3
DesignerServices
 90
     1024
 91
        1
280
     0
281
     0
  0
CLASS
  1
PARAMMGR
  2
AcAdParamMgr
  3
DesignerServices
 90
     1024
 91
        1
280
     0
281
     0
  0
CLASS
  1
PARAMSCOPE
  2
AcAdParamScope
  3
DesignerServices
 90
     1024
 91
        1
280
     0
281
     0
  0
CLASS
  1
ACIMSYSVARMAN
  2
AcImSysVarManager
  3
AcMeServices
 90
     1024
 91
        6
280
     0
281
     0
  0
CLASS
  1
ACIMINTSYSVAR
  2
AcImIntSysVar
  3
AcMeServices
 90
     1024
 91
       47
280
     0
281
     0
  0
CLASS
  1
ACIMREALSYSVAR
  2
AcImRealSysVar
  3
AcMeServices
 90
     1024
 91
       16
280
     0
281
     0
  0
CLASS
  1
ACIMSTRSYSVAR
  2
AcImStrSysVar
  3
AcMeServices
 90
     1024
 91
       11
280
     0
281
     0
  0
CLASS
  1
NAMEDAPPL
  2
AcAdNamedAppl
  3
DesignerServices
 90
     1024
 91
        1
280
     0
281
     0
  0
CLASS
  1
ADHNTMPLT
  2
AdHoleNoteTemplateMgr
  3
DesignerServices
 90
     1024
 91
        0
280
     0
281
     0
  0
CLASS
  1
AM_HNTEMPLATE_MGR_NAME
  2
AdHoleNoteTemplateMgrName
  3
DesignerServices
 90
     1024
 91
        0
280
     0
281
     0
  0
CLASS
  1
ACADGREFMODULE
  2
AcAdGrefModule
  3
AdGrefServices
 90
     1024
 91
        1
280
     0
281
     0
  0
CLASS
  1
AM_DRAWING_MGR
  2
AcDmDwgMgr
  3
AcMechDwgViewMgmt
 90
     1024
 91
        1
280
     0
281
     0
  0
CLASS
  1
AM_DWG_DOCUMENT
  2
AcDmDwgDocument
  3
AcMechDwgViewMgmt
 90
     1024
 91
        1
280
     0
281
     0
  0
CLASS
  1
AM_DWG_SHEET
  2
AcDmSheet
  3
AcMechDwgViewMgmt
 90
     1024
 91
        5
280
     0
281
     0
  0
CLASS
  1
AM_VIEWDIMPARMAP
  2
AcDmViewDimParMap
  3
AcMechDwgViewMgmt
 90
     1024
 91
        5
280
     0
281
     0
  0
CLASS
  1
AM_DWGMGR_NAME
  2
AcDmDwgMgrName
  3
AcMechDwgViewMgmt
 90
     1024
 91
        1
280
     0
281
     0
  0
CLASS
  1
ACAMPROJECT
  2
AcAmProject
  3
DesignerAssemblies
 90
     1024
 91
        1
280
     0
281
     0
  0
CLASS
  1
ACAMGRCOMPSET
  2
AcAmGrCompSet
  3
DesignerAssemblies
 90
        0
 91
        0
280
     0
281
     0
  0
CLASS
  1
ACAMGRCOMPDEFSET
  2
AcAmGrCompDefSet
  3
DesignerAssemblies
 90
     1024
 91
        1
280
     0
281
     0
  0
CLASS
  1
ACAMGRCOMPDEF
  2
AcAmGrCompDef
  3
DesignerAssemblies
 90
     1024
 91
        1
280
     0
281
     0
  0
CLASS
  1
ACCMCONTEXT
  2
AcCmContext
  3
DesignerAssemblies
 90
     1024
 91
        1
280
     0
281
     0
  0
CLASS
  1
ACAMCOMPDEF
  2
AcAmCompDef
  3
DesignerAssemblies
 90
     1024
 91
        1
280
     0
281
     0
  0
CLASS
  1
ACAMCOMPDEFMGR
  2
AcAmCompDefMgr
  3
DesignerAssemblies
 90
     1024
 91
        1
280
     0
281
     0
  0
CLASS
  1
AMCONTEXTMGR
  2
AcAmContextMgr
  3
DesignerAssemblies
 90
     1024
 91
        1
280
     0
281
     0
  0
CLASS
  1
ACAMCONTEXTMODELER
  2
AcAmContextModeler
  3
DesignerAssemblies
 90
     1024
 91
        1
280
     0
281
     0
  0
CLASS
  1
ACDMVIEWGEOM
  2
AcDmViewGeometry
  3
AcMechDwgViewMgmt
 90
     1024
 91
        0
280
     0
281
     1
  0
CLASS
  1
CBROWSERAPPOBJECT
  2
CBrowserAppObject
  3
McadcomServices
 90
     1024
 91
        3
280
     0
281
     0
  0
CLASS
  1
IM_STATIC_MAN
  2
AcImStaticVarManager
  3
AcMeServices
 90
     1024
 91
        1
280
     0
281
     0
  0
CLASS
  1
ASAPP
  2
AcAsAppObject
  3
AutoSurfServices
 90
     1024
 91
        1
280
     0
281
     0
  0
CLASS
  1
ACIMDBLSTATICVAR
  2
AcImDblStaticVar
  3
AcMeServices
 90
     1024
 91
       20
280
     0
281
     0
  0
CLASS
  1
ACIMSTRSTATICVAR
  2
AcImStrStaticVar
  3
AcMeServices
 90
     1024
 91
       12
280
     0
281
     0
  0
CLASS
  1
ACIMINTSTATICVAR
  2
AcImIntStaticVar
  3
AcMeServices
 90
     1024
 91
       17
280
     0
281
     0
  0
CLASS
  1
CATALOGSTATE
  2
AcAmCatalogState
  3
DesignerAssemblies
 90
     1024
 91
        1
280
     0
281
     0
  0
CLASS
  1
DM_PLACEHOLDER
  2
AcDmSelsetPlaceholder
  3
AcMechDwgViewMgmt
 90
     1024
 91
        1
280
     0
281
     0
  0
CLASS
  1
LAYER_INDEX
  2
AcDbLayerIndex
  3
ObjectDBX Classes
 90
        0
 91
        3
280
     0
281
     0
  0
CLASS
  1
IDBUFFER
  2
AcDbIdBuffer
  3
ObjectDBX Classes
 90
        0
 91
       75
280
     0
281
     0
  0
CLASS
  1
ACMSTANDARDJIS
  2
AcmStandardJIS
  3
"Amdt_StdImp|Product Description: AutoCAD Mechanical|Company: Autodesk, Inc."
 90
     1024
 91
        1
280
     0
281
     0
  0
CLASS
  1
ACMSTANDARDANSI
  2
AcmStandardANSI
  3
"Amdt_StdImp|Product Description: AutoCAD Mechanical|Company: Autodesk, Inc."
 90
     1024
 91
        1
280
     0
281
     0
  0
CLASS
  1
ACMSTANDARDBSI
  2
AcmStandardBSI
  3
"Amdt_StdImp|Product Description: AutoCAD Mechanical|Company: Autodesk, Inc."
 90
     1024
 91
        1
280
     0
281
     0
  0
CLASS
  1
ACMSTANDARDDIN
  2
AcmStandardDIN
  3
"Amdt_StdImp|Product Description: AutoCAD Mechanical|Company: Autodesk, Inc."
 90
     1024
 91
        1
280
     0
281
     0
  0
CLASS
  1
ACMSTANDARDISO
  2
AcmStandardISO
  3
"Amdt_StdImp|Product Description: AutoCAD Mechanical|Company: Autodesk, Inc."
 90
     1024
 91
        2
280
     0
281
     0
  0
CLASS
  1
ACDBDICTIONARYWDFLT
  2
AcDbDictionaryWithDefault
  3
ObjectDBX Classes
 90
        0
 91
        1
280
     0
281
     0
  0
CLASS
  1
ACME_DOCUMENT
  2
AcMeDbDoc
  3
AcMeServices
 90
     1024
 91
        1
280
     0
281
     0
  0
CLASS
  1
AMGSETTINGSOBJ
  2
AmgSettingsObj
  3
"AcadM|Product Description: AutoCAD Mechanical|Company: Autodesk, Inc."
 90
     1024
 91
        2
280
     0
281
     0
  0
CLASS
  1
AMGOBJPROPCFG
  2
AmgObjPropCfg
  3
"AmgLay|Product Description: AutoCAD Mechanical|Company: Autodesk, Inc."
 90
     1025
 91
        2
280
     0
281
     0
  0
CLASS
  1
ACDBENTITYCACHE
  2
AcMeEntityCache
  3
AcMeServices
 90
     1024
 91
        1
280
     0
281
     0
  0
CLASS
  1
GSMANAGER
  2
AcMeGSManager
  3
AcMeServices
 90
     1024
 91
        1
280
     0
281
     0
  0
CLASS
  1
AMDTINTERNALREACTOR
  2
AmdtInternalReactor
  3
AcMeServices
 90
     1024
 91
        2
280
     0
281
     0
  0
CLASS
  1
ACME_DATABASE
  2
AcMeDbDatabase
  3
AcMeServices
 90
     1024
 91
        1
280
     0
281
     0
  0
CLASS
  1
ACGREFACADMASTER
  2
AcGrefacadMaster
  3
AcGrefServices
 90
     1024
 91
        1
280
     0
281
     0
  0
CLASS
  1
AMDTMENUSTATEMGR
  2
AmdtMenuStateMgr
  3
McadcomServices
 90
     1024
 91
        1
280
     0
281
     0
  0
CLASS
  1
AMDTMCOMMENUSTATE
  2
AmdtMcomMenuState
  3
McadcomServices
 90
     1024
 91
        1
280
     0
281
     0
  0
CLASS
  1
MAPIADMODULE
  2
MApiAdModule
  3
MApiAdServices
 90
     1024
 91
        1
280
     0
281
     0
  0
CLASS
  1
AMDTDMMENUSTATE
  2
AmdtDmMenuState
  3
AcMechDwgViewMgmt
 90
     1024
 91
        1
280
     0
281
     0
  0
CLASS
  1
AMDTADMENUSTATE
  2
AmdtAdMenuState
  3
DesignerServices
 90
     1024
 91
        1
280
     0
281
     0
  0
CLASS
  1
AMDTAMMENUSTATE
  2
AmdtAmMenuState
  3
DesignerAssemblies
 90
     1024
 91
        1
280
     0
281
     0
  0
CLASS
  1
ACMDATADICTIONARY
  2
AcmDataDictionary
  3
"AcmSymBB|Product Description: AutoCAD Mechanical|Company: Autodesk, Inc."
 90
     1024
 91
        2
280
     0
281
     0
  0
CLASS
  1
ACMDATAENTRYBLOCK
  2
AcmDataEntryBlock
  3
AcmSymBB|Product Description: AutoCAD Mechanical|Company: Autodesk, Inc.
 90
     1024
 91
        4
280
     0
281
     0
  0
CLASS
  1
ACMSURFSTANDARDJIS
  2
AcmSurfTextStdJIS
  3
"Amdt_StdImp|Product Description: AutoCAD Mechanical|Company: Autodesk, Inc."
 90
     1024
 91
        1
280
     0
281
     0
  0
CLASS
  1
ACMFCFSTANDARDJIS
  2
AcmFCFStdJIS
  3
"Amdt_StdImp|Product Description: AutoCAD Mechanical|Company: Autodesk, Inc."
 90
     1024
 91
        1
280
     0
281
     0
  0
CLASS
  1
ACMWELDSTANDARDJIS
  2
AcmWeldingStdJIS
  3
"Amdt_StdImp|Product Description: AutoCAD Mechanical|Company: Autodesk, Inc."
 90
     1024
 91
        1
280
     0
281
     0
  0
CLASS
  1
ACMIDSTANDARDJIS
  2
AcmIdStdJIS
  3
"Amdt_StdImp|Product Description: AutoCAD Mechanical|Company: Autodesk, Inc."
 90
     1024
 91
        1
280
     0
281
     0
  0
CLASS
  1
ACMDATUMSTANDARDJIS
  2
AcmDatumStdJIS
  3
"Amdt_StdImp|Product Description: AutoCAD Mechanical|Company: Autodesk, Inc."
 90
     1024
 91
        1
280
     0
281
     0
  0
CLASS
  1
ACMBOMSTANDARDJIS
  2
AcmBOMStdJIS
  3
"Amdt_StdImp|Product Description: AutoCAD Mechanical|Company: Autodesk, Inc."
 90
     1024
 91
        1
280
     0
281
     0
  0
CLASS
  1
ACMSURFSTANDARDANSI
  2
AcmSurfTextStdANSI
  3
"Amdt_StdImp|Product Description: AutoCAD Mechanical|Company: Autodesk, Inc."
 90
     1024
 91
        1
280
     0
281
     0
  0
CLASS
  1
ACMFCFSTANDARDANSI
  2
AcmFCFStdANSI
  3
"Amdt_StdImp|Product Description: AutoCAD Mechanical|Company: Autodesk, Inc."
 90
     1024
 91
        1
280
     0
281
     0
  0
CLASS
  1
ACMWELDSTANDARDANSI
  2
AcmWeldingStdANSI
  3
"Amdt_StdImp|Product Description: AutoCAD Mechanical|Company: Autodesk, Inc."
 90
     1024
 91
        1
280
     0
281
     0
  0
CLASS
  1
ACMIDSTANDARDANSI
  2
AcmIdStdANSI
  3
"Amdt_StdImp|Product Description: AutoCAD Mechanical|Company: Autodesk, Inc."
 90
     1024
 91
        1
280
     0
281
     0
  0
CLASS
  1
ACMDATUMSTANDARDANSI
  2
AcmDatumStdANSI
  3
"Amdt_StdImp|Product Description: AutoCAD Mechanical|Company: Autodesk, Inc."
 90
     1024
 91
        1
280
     0
281
     0
  0
CLASS
  1
ACMBOMSTANDARDANSI
  2
AcmBOMStdANSI
  3
"Amdt_StdImp|Product Description: AutoCAD Mechanical|Company: Autodesk, Inc."
 90
     1024
 91
        1
280
     0
281
     0
  0
CLASS
  1
ACMSURFSTANDARDBSI
  2
AcmSurfTextStdBSI
  3
"Amdt_StdImp|Product Description: AutoCAD Mechanical|Company: Autodesk, Inc."
 90
     1024
 91
        1
280
     0
281
     0
  0
CLASS
  1
ACMFCFSTANDARDBSI
  2
AcmFCFStdBSI
  3
"Amdt_StdImp|Product Description: AutoCAD Mechanical|Company: Autodesk, Inc."
 90
     1024
 91
        1
280
     0
281
     0
  0
CLASS
  1
ACMWELDSTANDARDBSI
  2
AcmWeldingStdBSI
  3
"Amdt_StdImp|Product Description: AutoCAD Mechanical|Company: Autodesk, Inc."
 90
     1024
 91
        1
280
     0
281
     0
  0
CLASS
  1
ACMIDSTANDARDBSI
  2
AcmIdStdBSI
  3
"Amdt_StdImp|Product Description: AutoCAD Mechanical|Company: Autodesk, Inc."
 90
     1024
 91
        1
280
     0
281
     0
  0
CLASS
  1
ACMDATUMSTANDARDBSI
  2
AcmDatumStdBSI
  3
"Amdt_StdImp|Product Description: AutoCAD Mechanical|Company: Autodesk, Inc."
 90
     1024
 91
        1
280
     0
281
     0
  0
CLASS
  1
ACMBOMSTANDARDBSI
  2
AcmBOMStdBSI
  3
"Amdt_StdImp|Product Description: AutoCAD Mechanical|Company: Autodesk, Inc."
 90
     1024
 91
        1
280
     0
281
     0
  0
CLASS
  1
AMDTEDGESTANDARDDIN
  2
AmdtEdgeStdDIN
  3
"Amdt_StdImp|Product Description: AutoCAD Mechanical|Company: Autodesk, Inc."
 90
     1024
 91
        1
280
     0
281
     0
  0
CLASS
  1
ACMSURFSTANDARDDIN
  2
AcmSurfTextStdDIN
  3
"Amdt_StdImp|Product Description: AutoCAD Mechanical|Company: Autodesk, Inc."
 90
     1024
 91
        1
280
     0
281
     0
  0
CLASS
  1
ACMFCFSTANDARDDIN
  2
AcmFCFStdDIN
  3
"Amdt_StdImp|Product Description: AutoCAD Mechanical|Company: Autodesk, Inc."
 90
     1024
 91
        1
280
     0
281
     0
  0
CLASS
  1
ACMWELDSTANDARDDIN
  2
AcmWeldingStdDIN
  3
"Amdt_StdImp|Product Description: AutoCAD Mechanical|Company: Autodesk, Inc."
 90
     1024
 91
        1
280
     0
281
     0
  0
CLASS
  1
ACMIDSTANDARDDIN
  2
AcmIdStdDIN
  3
"Amdt_StdImp|Product Description: AutoCAD Mechanical|Company: Autodesk, Inc."
 90
     1024
 91
        1
280
     0
281
     0
  0
CLASS
  1
ACMDATUMSTANDARDDIN
  2
AcmDatumStdDIN
  3
"Amdt_StdImp|Product Description: AutoCAD Mechanical|Company: Autodesk, Inc."
 90
     1024
 91
        1
280
     0
281
     0
  0
CLASS
  1
ACMBOMSTANDARDDIN
  2
AcmBOMStdDIN
  3
"Amdt_StdImp|Product Description: AutoCAD Mechanical|Company: Autodesk, Inc."
 90
     1024
 91
        1
280
     0
281
     0
  0
CLASS
  1
ACMSURFSTANDARDISO
  2
AcmSurfTextStdISO
  3
"Amdt_StdImp|Product Description: AutoCAD Mechanical|Company: Autodesk, Inc."
 90
     1024
 91
        1
280
     0
281
     0
  0
CLASS
  1
ACMFCFSTANDARDISO
  2
AcmFCFStdISO
  3
"Amdt_StdImp|Product Description: AutoCAD Mechanical|Company: Autodesk, Inc."
 90
     1024
 91
        2
280
     0
281
     0
  0
CLASS
  1
ACMWELDSTANDARDISO
  2
AcmWeldingStdISO
  3
"Amdt_StdImp|Product Description: AutoCAD Mechanical|Company: Autodesk, Inc."
 90
     1024
 91
        2
280
     0
281
     0
  0
CLASS
  1
ACMIDSTANDARDISO
  2
AcmIdStdISO
  3
"Amdt_StdImp|Product Description: AutoCAD Mechanical|Company: Autodesk, Inc."
 90
     1024
 91
        2
280
     0
281
     0
  0
CLASS
  1
ACMDATUMSTANDARDISO
  2
AcmDatumStdISO
  3
"Amdt_StdImp|Product Description: AutoCAD Mechanical|Company: Autodesk, Inc."
 90
     1024
 91
        2
280
     0
281
     0
  0
CLASS
  1
ACMBOMSTANDARDISO
  2
AcmBOMStdISO
  3
"Amdt_StdImp|Product Description: AutoCAD Mechanical|Company: Autodesk, Inc."
 90
     1024
 91
        2
280
     0
281
     0
  0
CLASS
  1
AMDTBROWSERDBTAB
  2
AmdtBrowserDbTab
  3
McadcomServices
 90
     1024
 91
        1
280
     0
281
     0
  0
CLASS
  1
ACAMGFILTERDAT
  2
AcAmgFilterDat
  3
"AcadM|Product Description: AutoCAD Mechanical|Company: Autodesk, Inc."
 90
     1024
 91
        4
280
     0
281
     0
  0
CLASS
  1
MAPIAMMOUDLE
  2
MApiAmModule
  3
MApiAmServices
 90
     1024
 91
        1
280
     0
281
     0
  0
CLASS
  1
PLOTSETTINGS
  2
AcDbPlotSettings
  3
ObjectDBX Classes
 90
        0
 91
        7
280
     0
281
     0
  0
CLASS
  1
ACRFATTGENMGR
  2
AcRfAttGeneralMgr
  3
AcAttribServices
 90
     1024
 91
        1
280
     0
281
     0
  0
CLASS
  1
ACAMGRBLOCKRECORD
  2
AcAmGrBlockRecord
  3
DesignerAssemblies
 90
     1024
 91
        0
280
     0
281
     0
  0
CLASS
  1
ACAMVIEWREACTOR
  2
AcAmViewReactor
  3
DesignerAssemblies
 90
     1024
 91
        0
280
     0
281
     0
  0
CLASS
  1
ACAMCOMPENT
  2
AcAmCompEnt
  3
DesignerAssemblies
 90
     1024
 91
        0
280
     0
281
     1
  0
CLASS
  1
AMVIEW
  2
AcAmView
  3
DesignerAssemblies
 90
     1024
 91
        0
280
     0
281
     0
  0
CLASS
  1
ACAMVIEWCONTEXT
  2
AcAmViewContext
  3
DesignerAssemblies
 90
     1024
 91
        0
280
     0
281
     0
  0
CLASS
  1
ADPART
  2
AcAdPart
  3
DesignerServices
 90
     1024
 91
        0
280
     0
281
     1
  0
CLASS
  1
ADBASE
  2
AcAdBase
  3
DesignerServices
 90
     1024
 91
        0
280
     0
281
     0
  0
CLASS
  1
BODYID
  2
AcAdBodyId
  3
DesignerServices
 90
     1024
 91
        0
280
     0
281
     0
  0
CLASS
  1
WORKPLANEDISPLAYMGR
  2
AcAdDisplayMgr
  3
DesignerServices
 90
     1024
 91
        0
280
     0
281
     0
  0
CLASS
  1
ACCMBODY
  2
AcCmBody
  3
DesignerAssemblies
 90
     1024
 91
        0
280
     0
281
     0
  0
CLASS
  1
ACAMCOMPFEEDBACK
  2
AcAmCompFeedback
  3
DesignerAssemblies
 90
     1024
 91
        0
280
     0
281
     0
  0
CLASS
  1
ACAMCOMP
  2
AcAmComp
  3
DesignerAssemblies
 90
     1024
 91
        0
280
     0
281
     0
  0
CLASS
  1
ACAMCOMPENTCLONE
  2
AcAmCompEntClone
  3
DesignerAssemblies
 90
     1024
 91
        0
280
     0
281
     1
  0
CLASS
  1
ACAMCLONEREACTOR
  2
AcAmGrCompCloneReactor
  3
DesignerAssemblies
 90
     1024
 91
        0
280
     0
281
     0
  0
CLASS
  1
ADDATUMPLANEABS
  2
AcAdDatumPlaneAbs
  3
DesignerServices
 90
     1024
 91
        0
280
     0
281
     0
  0
CLASS
  1
ADDATUMAXISABS
  2
AcAdDatumAxisAbs
  3
DesignerServices
 90
     1024
 91
        0
280
     0
281
     0
  0
CLASS
  1
ADDATUMORIENTEDPLANE
  2
AcAdDatumOrientedPlane
  3
DesignerServices
 90
     1024
 91
        0
280
     0
281
     0
  0
CLASS
  1
ACAD_LINE
  2
AcAdLine
  3
DesignerServices
 90
     1024
 91
        0
280
     0
281
     1
  0
CLASS
  1
ACADLINEACAD
  2
AcAdVirtualBoundedLineAcad
  3
DesignerServices
 90
     1024
 91
        0
280
     0
281
     0
  0
CLASS
  1
ACADREFLINEACAD
  2
AcAdVirtualReferenceLine
  3
DesignerServices
 90
     1024
 91
        0
280
     0
281
     0
  0
CLASS
  1
ACADCONSLINE
  2
AcAdConstrainedLine
  3
DesignerServices
 90
     1024
 91
        0
280
     0
281
     0
  0
CLASS
  1
ACADCONSGROUP
  2
AcAdConstraintGroup
  3
DesignerServices
 90
     1024
 91
        0
280
     0
281
     0
  0
CLASS
  1
ACADIMPPTACAD
  2
AcAdVirtualImplicitPoint
  3
DesignerServices
 90
     1024
 91
        0
280
     0
281
     0
  0
CLASS
  1
ACADCONSPOINT
  2
AcAdConstrainedPoint
  3
DesignerServices
 90
     1024
 91
        0
280
     0
281
     0
  0
CLASS
  1
ADPCURCNS
  2
AcAdPointCurveConstr
  3
DesignerServices
 90
     1024
 91
        0
280
     0
281
     0
  0
CLASS
  1
ADHORCNS
  2
AcAdHorizontalConstr
  3
DesignerServices
 90
     1024
 91
        0
280
     0
281
     0
  0
CLASS
  1
ADVERCNS
  2
AcAdVerticalConstr
  3
DesignerServices
 90
     1024
 91
        0
280
     0
281
     0
  0
CLASS
  1
ADCLPROF2D
  2
AcAdClosedProfile2d
  3
DesignerServices
 90
     1024
 91
        0
280
     0
281
     0
  0
CLASS
  1
ACAD_FIXCONSTRAINT
  2
AcAdFixedConstraint
  3
DesignerServices
 90
     1024
 91
        0
280
     0
281
     0
  0
CLASS
  1
ACMELINEARARROW
  2
AcImLinearArrowDisplay
  3
AcMeServices
 90
     1024
 91
        0
280
     0
281
     1
  0
CLASS
  1
PARAM
  2
AcAdParam
  3
DesignerServices
 90
     1024
 91
        0
280
     0
281
     0
  0
CLASS
  1
ACADVOLFEATWITHTRIM
  2
AcAdVolFeatWithTrim
  3
DesignerServices
 90
     1024
 91
        0
280
     0
281
     0
  0
CLASS
  1
DEPEDGEFEATUREORDERING
  2
AcAdDepEdgeFeatureOrdering
  3
DesignerServices
 90
     1024
 91
        0
280
     0
281
     0
  0
CLASS
  1
ADWORKPOINTDISPLAY
  2
AcAdWorkPointDisplay
  3
DesignerServices
 90
     1024
 91
        0
280
     0
281
     1
  0
CLASS
  1
ADVIRTUALPOINTWORKPOINTFREE
  2
AcAdVirtualPointWorkPointFree
  3
DesignerServices
 90
     1024
 91
        0
280
     0
281
     0
  0
CLASS
  1
ADWORKPOINTSKETCH
  2
AcAdWorkPointSketch
  3
DesignerServices
 90
     1024
 91
        0
280
     0
281
     0
  0
CLASS
  1
ACADPARTDATUMPOINTRES
  2
AcAdPartDatumPointRes
  3
AdGrefServices
 90
     1024
 91
        0
280
     0
281
     0
  0
CLASS
  1
ACRFINSADJ
  2
AcRfInsAdjuster
  3
AcMeServices
 90
     1024
 91
        0
280
     0
281
     0
  0
CLASS
  1
DATUMPLANEDISPLAY
  2
AcAdDatumPlaneDisplay
  3
DesignerServices
 90
     1024
 91
        0
280
     0
281
     1
  0
CLASS
  1
ACADPARTDATUMPLANERES
  2
AcAdPartDatumPlaneRes
  3
AdGrefServices
 90
     1024
 91
        0
280
     0
281
     0
  0
CLASS
  1
ACMEPLINE
  2
AcImPlineDisplay
  3
AcMeServices
 90
     1024
 91
        0
280
     0
281
     1
  0
CLASS
  1
ACAD_CIRCLE
  2
AcAdCircle
  3
DesignerServices
 90
     1024
 91
        0
280
     0
281
     1
  0
CLASS
  1
ACADCIRCLEACAD
  2
AcAdVirtualCircleAcad
  3
DesignerServices
 90
     1024
 91
        0
280
     0
281
     0
  0
CLASS
  1
ACADCONSCIRCLE
  2
AcAdConstrainedCircle
  3
DesignerServices
 90
     1024
 91
        0
280
     0
281
     0
  0
CLASS
  1
ADCTRPTCNS
  2
AcAdCenterPointConstr
  3
DesignerServices
 90
     1024
 91
        0
280
     0
281
     0
  0
CLASS
  1
ACDBCIRCARCRES
  2
AcDbCircArcRes
  3
AcGrefServices
 90
     1024
 91
        0
280
     0
281
     0
  0
CLASS
  1
ACADSKETCHCIRCARCRES
  2
AcAdSketchCircArcRes
  3
DesignerServices
 90
     1024
 91
        0
280
     0
281
     0
  0
CLASS
  1
ADVIRTUALPOINTWORKPOINTFIXED
  2
AcAdVirtualPointWorkPointFixed
  3
DesignerServices
 90
     1024
 91
        0
280
     0
281
     0
  0
CLASS
  1
ADHDISTCNS
  2
AcAdHorizontalDistanceConstr
  3
DesignerServices
 90
     1024
 91
        0
280
     0
281
     0
  0
CLASS
  1
ACADSKETCHPOINTRES
  2
AcAdSketchPointRes
  3
DesignerServices
 90
     1024
 91
        0
280
     0
281
     0
  0
CLASS
  1
ADVDISTCNS
  2
AcAdVerticalDistanceConstr
  3
DesignerServices
 90
     1024
 91
        0
280
     0
281
     0
  0
CLASS
  1
ADACADDIACNS
  2
AcAdAcadDiameterConstr
  3
DesignerServices
 90
     1024
 91
        0
280
     0
281
     0
  0
CLASS
  1
AMIINSTATTCLASSRECORD
  2
AmiInstAttClassRecord
  3
AcAttribServices
 90
     1024
 91
        0
280
     0
281
     0
  0
CLASS
  1
AMIINSTATTIMP
  2
AmiInstAttImp
  3
AcAttribServices
 90
     1025
 91
        0
280
     0
281
     0
  0
CLASS
  1
ACRFOBJATTMGR
  2
AcRfObjAttGroupMgr
  3
AcAttribServices
 90
     1024
 91
        1
280
     0
281
     0
  0
CLASS
  1
ACRFMCADAPIATTHOLDER
  2
AcRfMCADAPIAttHolder
  3
AcAttribServices
 90
     1024
 91
        1
280
     0
281
     0
  0
CLASS
  1
FACEID
  2
AcAdFaceId
  3
DesignerServices
 90
     1024
 91
        0
280
     0
281
     0
  0
CLASS
  1
ACADPARTCYLINDERFACERES
  2
AcAdPartCylinderFaceRes
  3
AdGrefServices
 90
     1024
 91
        0
280
     0
281
     0
  0
CLASS
  1
ACADPARTPLANARFACERES
  2
AcAdPartPlanarFaceRes
  3
AdGrefServices
 90
     1024
 91
        0
280
     0
281
     0
  0
CLASS
  1
ADPLANEID
  2
AcAdPlaneId
  3
DesignerServices
 90
     1024
 91
        0
280
     0
281
     0
  0
CLASS
  1
ADDATUMPLANEFACE
  2
AcAdDatumPlaneFace
  3
DesignerServices
 90
     1024
 91
        0
280
     0
281
     0
  0
CLASS
  1
ADDATUMPLANEOFFSET
  2
AcAdDatumPlaneOffset
  3
DesignerServices
 90
     1024
 91
        0
280
     0
281
     0
  0
CLASS
  1
DATUMAXISDISPLAY
  2
AcAdDatumAxisDisplay
  3
DesignerServices
 90
     1024
 91
        0
280
     0
281
     1
  0
CLASS
  1
ADSURFGEOMID
  2
AcAdSurfGeomId
  3
DesignerServices
 90
     1024
 91
        0
280
     0
281
     0
  0
CLASS
  1
ADDATUMAXISCENTER
  2
AcAdDatumAxisCenter
  3
DesignerServices
 90
     1024
 91
        0
280
     0
281
     0
  0
CLASS
  1
ACADPARTAXISRES
  2
AcAdPartAxisRes
  3
AdGrefServices
 90
     1024
 91
        0
280
     0
281
     0
  0
CLASS
  1
ACDBLINERES
  2
AcDbLineRes
  3
AcGrefServices
 90
     1024
 91
        0
280
     0
281
     0
  0
CLASS
  1
ACADSKETCHLINERES
  2
AcAdSketchLineRes
  3
DesignerServices
 90
     1024
 91
        0
280
     0
281
     0
  0
CLASS
  1
ADCONSTDSP
  2
AcAdConstraintDisplayTag
  3
DesignerServices
 90
     1024
 91
        0
280
     0
281
     1
  0
CLASS
  1
ADCONSDISP
  2
AcAdConstraintDisplay
  3
DesignerServices
 90
     1024
 91
        0
280
     0
281
     1
  0
CLASS
  1
ADACADANGCNS
  2
AcAdAcadAngleConstr
  3
DesignerServices
 90
     1024
 91
        0
280
     0
281
     0
  0
CLASS
  1
ADPROJCNS
  2
AcAdProjectionConstr
  3
DesignerServices
 90
     1024
 91
        0
280
     0
281
     0
  0
CLASS
  1
ADCOLNCNS
  2
AcAdColinearConstr
  3
DesignerServices
 90
     1024
 91
        0
280
     0
281
     0
  0
CLASS
  1
ACADBOUNDEDLINEDATUMID
  2
AcAdVirtualBoundedLineDatumId
  3
DesignerServices
 90
     1024
 91
        0
280
     0
281
     0
  0
CLASS
  1
ACADPARTCONICALFACERES
  2
AcAdPartConicalFaceRes
  3
AdGrefServices
 90
     1024
 91
        0
280
     0
281
     0
  0
CLASS
  1
DEPEDGESECONDARYDEPID
  2
AcAdDepEdgeSecondaryDepId
  3
DesignerServices
 90
     1024
 91
        0
280
     0
281
     0
  0
CLASS
  1
AMACTIVEPARTSELECTFILTER
  2
AcDmActivePartViewEntFilter
  3
DesignerServices
 90
     1024
 91
        0
280
     0
281
     0
  0
CLASS
  1
AM_ABS_PLANE
  2
AcDmAbsPlnDef
  3
AcMechDwgViewMgmt
 90
     1024
 91
        0
280
     0
281
     0
  0
CLASS
  1
AM_ABS_AXIS
  2
AcDmAbsAxisDef
  3
AcMechDwgViewMgmt
 90
     1024
 91
        0
280
     0
281
     0
  0
CLASS
  1
AM_BASE_VIEW_ORIENT
  2
AcDmBaseViewOr
  3
AcMechDwgViewMgmt
 90
     1024
 91
        0
280
     0
281
     0
  0
CLASS
  1
AM_DWG_VIEWPORT
  2
AcDmViewport
  3
AcMechDwgViewMgmt
 90
     1024
 91
        0
280
     0
281
     0
  0
CLASS
  1
AM_VIEW_DISPLAY
  2
AcDmDwgViewDisplay
  3
AcMechDwgViewMgmt
 90
     1024
 91
        0
280
     0
281
     0
  0
CLASS
  1
AM_CLDFLTS
  2
AcDmClDflts
  3
AcMechDwgViewMgmt
 90
     1024
 91
        0
280
     0
281
     0
  0
CLASS
  1
AM_BASE_VIEW
  2
AcDmBaseView
  3
AcMechDwgViewMgmt
 90
     1024
 91
        0
280
     0
281
     0
  0
CLASS
  1
AM_ORTHO_VIEW_ORIENT
  2
AcDmOrthoViewOr
  3
AcMechDwgViewMgmt
 90
     1024
 91
        0
280
     0
281
     0
  0
CLASS
  1
AM_ORTHO_VIEW
  2
AcDmOrthoView
  3
AcMechDwgViewMgmt
 90
     1024
 91
        0
280
     0
281
     0
  0
CLASS
  1
AM_ISO_VIEW_ORIENT
  2
AcDmIsoViewOr
  3
AcMechDwgViewMgmt
 90
     1024
 91
        0
280
     0
281
     0
  0
CLASS
  1
AM_ISO_VIEW
  2
AcDmIsoView
  3
AcMechDwgViewMgmt
 90
     1024
 91
        0
280
     0
281
     0
  0
CLASS
  1
ACDMVWEDARC
  2
AcDmViewEdgeArc
  3
AcMechDwgViewMgmt
 90
     1024
 91
        0
280
     0
281
     1
  0
CLASS
  1
ACDMVWEDCIRC
  2
AcDmViewEdgeCircle
  3
AcMechDwgViewMgmt
 90
     1024
 91
        0
280
     0
281
     1
  0
CLASS
  1
ACDMVWEDLINE
  2
AcDmViewEdgeLine
  3
AcMechDwgViewMgmt
 90
     1024
 91
        0
280
     0
281
     1
  0
CLASS
  1
CNRREFID
  2
AcAdCornerId
  3
DesignerServices
 90
     1024
 91
        0
280
     0
281
     0
  0
CLASS
  1
ACADPARTPOINTRES
  2
AcAdPartPointRes
  3
AdGrefServices
 90
     1024
 91
        0
280
     0
281
     0
  0
CLASS
  1
ACADPARTSKETCHPLANEAXISRES
  2
AcAdPartSketchPlaneAxisRes
  3
DesignerServices
 90
     1024
 91
        0
280
     0
281
     0
  0
CLASS
  1
AM_VIEWDIMPARALLEL
  2
AcDmViewDimParallel
  3
AcMechDwgViewMgmt
 90
     1024
 91
        0
280
     0
281
     0
  0
CLASS
  1
AMDTDMPARMAPDATA
  2
AmdtDmDimParMapData
  3
AcMechDwgViewMgmt
 90
     1024
 91
        0
280
     0
281
     0
  0
CLASS
  1
AM_VIEWDIMLINEAR
  2
AcDmViewDimLinear
  3
AcMechDwgViewMgmt
 90
     1024
 91
        0
280
     0
281
     0
  0
CLASS
  1
AM_VIEWDIMANGULAR
  2
AcDmViewDimAngular
  3
AcMechDwgViewMgmt
 90
     1024
 91
        0
280
     0
281
     0
  0
CLASS
  1
AM_ADLINCTRLINE
  2
AcAdLineCl
  3
DesignerServices
 90
     1024
 91
        0
280
     0
281
     0
  0
CLASS
  1
AM_VIEWDIMDIAMETER
  2
AcDmViewDimDiameter
  3
AcMechDwgViewMgmt
 90
     1024
 91
        0
280
     0
281
     0
  0
CLASS
  1
AM_ADCIRCTRLINE
  2
AcAdBullsEyeCl
  3
DesignerServices
 90
     1024
 91
        0
280
     0
281
     0
  0
CLASS
  1
AMDTMAPISURFMOUDULE
  2
AmdtMApiSurfModule
  3
MApiSurfServices
 90
     1024
 91
        0
280
     0
281
     0
  0
CLASS
  1
ACAMGTITLESTD
  2
AcAmgTitleStd
  3
"AmgTitle|Product Description: AutoCAD Mechanical|Company: Autodesk, Inc."
 90
     4095
 91
        6
280
     0
281
     0
  0
CLASS
  1
ACMDETAILSTANDARDJIS
  2
AmdtDetailSymStdJIS
  3
"Amdt_StdImp|Product Description: AutoCAD Mechanical|Company: Autodesk, Inc."
 90
     1024
 91
        1
280
     0
281
     0
  0
CLASS
  1
ACMSECTIONSTANDARDJIS
  2
AmdtSectionSymStdJIS
  3
"Amdt_StdImp|Product Description: AutoCAD Mechanical|Company: Autodesk, Inc."
 90
     1024
 91
        1
280
     0
281
     0
  0
CLASS
  1
ACMCENTERLINESTANDARDJIS
  2
AmdtCenterLineStdJIS
  3
"Amdt_StdImp|Product Description: AutoCAD Mechanical|Company: Autodesk, Inc."
 90
     1024
 91
        1
280
     0
281
     0
  0
CLASS
  1
ACMTHREADLINESTANDARDCSN
  2
AmdtThreadLineStdCSN
  3
"Amdt_StdImp|Product Description: AutoCAD Mechanical|Company: Autodesk, Inc."
 90
     1024
 91
        5
280
     0
281
     0
  0
CLASS
  1
ACMDETAILSTANDARDANSI
  2
AmdtDetailSymStdANSI
  3
"Amdt_StdImp|Product Description: AutoCAD Mechanical|Company: Autodesk, Inc."
 90
     1024
 91
        1
280
     0
281
     0
  0
CLASS
  1
ACMSECTIONSTANDARDANSI
  2
AmdtSectionSymStdANSI
  3
"Amdt_StdImp|Product Description: AutoCAD Mechanical|Company: Autodesk, Inc."
 90
     1024
 91
        1
280
     0
281
     0
  0
CLASS
  1
ACMCENTERLINESTANDARDANSI
  2
AmdtCenterLineStdANSI
  3
"Amdt_StdImp|Product Description: AutoCAD Mechanical|Company: Autodesk, Inc."
 90
     1024
 91
        1
280
     0
281
     0
  0
CLASS
  1
ACMDETAILSTANDARDBSI
  2
AmdtDetailSymStdBSI
  3
"Amdt_StdImp|Product Description: AutoCAD Mechanical|Company: Autodesk, Inc."
 90
     1024
 91
        1
280
     0
281
     0
  0
CLASS
  1
ACMSECTIONSTANDARDBSI
  2
AmdtSectionSymStdBSI
  3
"Amdt_StdImp|Product Description: AutoCAD Mechanical|Company: Autodesk, Inc."
 90
     1024
 91
        1
280
     0
281
     0
  0
CLASS
  1
ACMCENTERLINESTANDARDBSI
  2
AmdtCenterLineStdBSI
  3
"Amdt_StdImp|Product Description: AutoCAD Mechanical|Company: Autodesk, Inc."
 90
     1024
 91
        1
280
     0
281
     0
  0
CLASS
  1
ACMDETAILSTANDARDDIN
  2
AmdtDetailSymStdDIN
  3
"Amdt_StdImp|Product Description: AutoCAD Mechanical|Company: Autodesk, Inc."
 90
     1024
 91
        1
280
     0
281
     0
  0
CLASS
  1
ACMSECTIONSTANDARDDIN
  2
AmdtSectionSymStdDIN
  3
"Amdt_StdImp|Product Description: AutoCAD Mechanical|Company: Autodesk, Inc."
 90
     1024
 91
        1
280
     0
281
     0
  0
CLASS
  1
ACMCENTERLINESTANDARDDIN
  2
AmdtCenterLineStdDIN
  3
"Amdt_StdImp|Product Description: AutoCAD Mechanical|Company: Autodesk, Inc."
 90
     1024
 91
        1
280
     0
281
     0
  0
CLASS
  1
AMDTEDGESTANDARDISO
  2
AmdtEdgeStdISO
  3
"Amdt_StdImp|Product Description: AutoCAD Mechanical|Company: Autodesk, Inc."
 90
     1024
 91
        1
280
     0
281
     0
  0
CLASS
  1
ACMDETAILSTANDARDISO
  2
AmdtDetailSymStdISO
  3
"Amdt_StdImp|Product Description: AutoCAD Mechanical|Company: Autodesk, Inc."
 90
     1024
 91
        2
280
     0
281
     0
  0
CLASS
  1
ACMSECTIONSTANDARDISO
  2
AmdtSectionSymStdISO
  3
"Amdt_StdImp|Product Description: AutoCAD Mechanical|Company: Autodesk, Inc."
 90
     1024
 91
        1
280
     0
281
     0
  0
CLASS
  1
ACMCENTERLINESTANDARDISO
  2
AmdtCenterLineStdISO
  3
"Amdt_StdImp|Product Description: AutoCAD Mechanical|Company: Autodesk, Inc."
 90
     1024
 91
        2
280
     0
281
     0
  0
CLASS
  1
ACAMGLAYSTD
  2
AcAmgLayStd
  3
"AmgLay|Product Description: AutoCAD Mechanical|Company: Autodesk, Inc."
 90
     1024
 91
        6
280
     0
281
     0
  0
CLASS
  1
ACAMGDIMSTD
  2
AcAmgDimStd
  3
"AmgDim|Product Description: AutoCAD Mechanical|Company: Autodesk, Inc."
 90
     1024
 91
        6
280
     0
281
     0
  0
CLASS
  1
ACDMPARTVIEWDATA
  2
AcDmPartViewData
  3
AcMechDwgViewMgmt
 90
     1024
 91
        0
280
     0
281
     0
  0
CLASS
  1
ACDMDISPLAYATTRIBS
  2
AcDmDisplayAttribs
  3
AcMechDwgViewMgmt
 90
     1024
 91
        0
280
     0
281
     0
  0
CLASS
  1
ACDMBODYINSTANCEDATA
  2
AcDmBodyInstanceData
  3
AcMechDwgViewMgmt
 90
     1024
 91
        0
280
     0
281
     0
  0
CLASS
  1
AMDTFORMULAUPDATEDISPATCHER
  2
AmdtFormulaUpdateDispatcher
  3
AcMeServices
 90
     1024
 91
        0
280
     0
281
     0
  0
CLASS
  1
ACAMCONTEXTPARTMODELER
  2
AcAmContextPartModeler
  3
DesignerAssemblies
 90
     1024
 91
        0
280
     0
281
     0
  0
CLASS
  1
MATERIAL
  2
AcDbMaterial
  3
ObjectDBX Classes
 90
     1153
 91
        3
280
     0
281
     0
  0
CLASS
  1
VISUALSTYLE
  2
AcDbVisualStyle
  3
ObjectDBX Classes
 90
     4095
 91
       16
280
     0
281
     0
  0
CLASS
  1
TABLESTYLE
  2
AcDbTableStyle
  3
ObjectDBX Classes
 90
     4095
 91
        1
280
     0
281
     0
  0
CLASS
  1
SCALE
  2
AcDbScale
  3
ObjectDBX Classes
 90
     1153
 91
       17
280
     0
281
     0
  0
CLASS
  1
MLEADERSTYLE
  2
AcDbMLeaderStyle
  3
ACDB_MLEADERSTYLE_CLASS
 90
     4095
 91
        1
280
     0
281
     0
  0
CLASS
  1
ACMNOTESTANDARDANSI
  2
AmdtNoteStdANSI
  3
"Amdt_StdImp|Product Description: AutoCAD Mechanical|Company: Autodesk, Inc."
 90
     1024
 91
        1
280
     0
281
     0
  0
CLASS
  1
AMDTNOTETEMPLATEDB
  2
AmdtNoteTemplateDB
  3
AcmSymBB|Product Description: AutoCAD Mechanical|Company: Autodesk, Inc.
 90
     1024
 91
       36
280
     0
281
     0
  0
CLASS
  1
ACMTAPERSTANDARDANSI
  2
AcmTaperStdANSI
  3
"Amdt_StdImp|Product Description: AutoCAD Mechanical|Company: Autodesk, Inc."
 90
     1024
 91
        1
280
     0
281
     0
  0
CLASS
  1
ACMANOOTATIONVIEWSTANDARDANSI
  2
AmdtAnViewStdANSI
  3
"Amdt_StdImp|Product Description: AutoCAD Mechanical|Company: Autodesk, Inc."
 90
     1024
 91
        1
280
     0
281
     0
  0
CLASS
  1
ACMNOTESTANDARDBSI
  2
AmdtNoteStdBSI
  3
"Amdt_StdImp|Product Description: AutoCAD Mechanical|Company: Autodesk, Inc."
 90
     1024
 91
        1
280
     0
281
     0
  0
CLASS
  1
ACMTAPERSTANDARDBSI
  2
AcmTaperStdBSI
  3
"Amdt_StdImp|Product Description: AutoCAD Mechanical|Company: Autodesk, Inc."
 90
     1024
 91
        1
280
     0
281
     0
  0
CLASS
  1
ACMANOOTATIONVIEWSTANDARDBSI
  2
AmdtAnViewStdBSI
  3
"Amdt_StdImp|Product Description: AutoCAD Mechanical|Company: Autodesk, Inc."
 90
     1024
 91
        1
280
     0
281
     0
  0
CLASS
  1
ACMNOTESTANDARDDIN
  2
AmdtNoteStdDIN
  3
"Amdt_StdImp|Product Description: AutoCAD Mechanical|Company: Autodesk, Inc."
 90
     1024
 91
        1
280
     0
281
     0
  0
CLASS
  1
ACMTAPERSTANDARDDIN
  2
AcmTaperStdDIN
  3
"Amdt_StdImp|Product Description: AutoCAD Mechanical|Company: Autodesk, Inc."
 90
     1024
 91
        1
280
     0
281
     0
  0
CLASS
  1
ACMANOOTATIONVIEWSTANDARDDIN
  2
AmdtAnViewStdDIN
  3
"Amdt_StdImp|Product Description: AutoCAD Mechanical|Company: Autodesk, Inc."
 90
     1024
 91
        1
280
     0
281
     0
  0
CLASS
  1
ACMNOTESTANDARDISO
  2
AmdtNoteStdISO
  3
"Amdt_StdImp|Product Description: AutoCAD Mechanical|Company: Autodesk, Inc."
 90
     1024
 91
        2
280
     0
281
     0
  0
CLASS
  1
ACMTAPERSTANDARDISO
  2
AcmTaperStdISO
  3
"Amdt_StdImp|Product Description: AutoCAD Mechanical|Company: Autodesk, Inc."
 90
     1024
 91
        2
280
     0
281
     0
  0
CLASS
  1
ACMANOOTATIONVIEWSTANDARDISO
  2
AmdtAnViewStdISO
  3
"Amdt_StdImp|Product Description: AutoCAD Mechanical|Company: Autodesk, Inc."
 90
     1024
 91
        2
280
     0
281
     0
  0
CLASS
  1
ACMNOTESTANDARDJIS
  2
AmdtNoteStdJIS
  3
"Amdt_StdImp|Product Description: AutoCAD Mechanical|Company: Autodesk, Inc."
 90
     1024
 91
        1
280
     0
281
     0
  0
CLASS
  1
ACMTAPERSTANDARDJIS
  2
AcmTaperStdJIS
  3
"Amdt_StdImp|Product Description: AutoCAD Mechanical|Company: Autodesk, Inc."
 90
     1024
 91
        1
280
     0
281
     0
  0
CLASS
  1
ACMANOOTATIONVIEWSTANDARDJIS
  2
AmdtAnViewStdJIS
  3
"Amdt_StdImp|Product Description: AutoCAD Mechanical|Company: Autodesk, Inc."
 90
     1024
 91
        1
280
     0
281
     0
  0
CLASS
  1
AMDTEDGESTANDARDJIS
  2
AmdtEdgeStdJIS
  3
"Amdt_StdImp|Product Description: AutoCAD Mechanical|Company: Autodesk, Inc."
 90
     1024
 91
        1
280
     0
281
     0
  0
CLASS
  1
AMDTSYSATTR
  2
AmdtSystemAttribute
  3
AcAttribServices
 90
     1024
 91
        1
280
     0
281
     0
  0
CLASS
  1
AMDTEDGESTANDARDISO13715
  2
AmdtEdgeStdISO13715
  3
"Amdt_StdImp|Product Description: AutoCAD Mechanical|Company: Autodesk, Inc."
 90
     1024
 91
        1
280
     0
281
     0
  0
CLASS
  1
ACMSURFSTANDARDISO2002
  2
AcmSurfTextStdISO2002
  3
"Amdt_StdImp|Product Description: AutoCAD Mechanical|Company: Autodesk, Inc."
 90
     1024
 91
        1
280
     0
281
     0
  0
CLASS
  1
ACMSECTIONSTANDARDISO2001
  2
AmdtSectionSymStdISO2001
  3
"Amdt_StdImp|Product Description: AutoCAD Mechanical|Company: Autodesk, Inc."
 90
     1024
 91
        1
280
     0
281
     0
  0
CLASS
  1
ACMTHREADLINESTANDARDISO
  2
AmdtThreadLineStdISO
  3
"Amdt_StdImp|Product Description: AutoCAD Mechanical|Company: Autodesk, Inc."
 90
     1024
 91
        1
280
     0
281
     0
  0
CLASS
  1
ACAMGHOLECHARTSTDISO
  2
AcAmgHoleChartStdISO
  3
AmgDim|Product Description: AutoCAD Mechanical|Company: Autodesk, Inc.
 90
     1024
 91
        1
280
     0
281
     0
  0
CLASS
  1
SORTENTSTABLE
  2
AcDbSortentsTable
  3
ObjectDBX Classes
 90
        0
 91
        1
280
     0
281
     0
  0
CLASS
  1
DIMASSOC
  2
AcDbDimAssoc
  3
"AcDbDimAssoc|Product Desc:     AcDim ARX App For Dimension|Company:          Autodesk, Inc.|WEB Address:      www.autodesk.com"
 90
        0
 91
        2
280
     0
281
     0
  0
CLASS
  1
CELLSTYLEMAP
  2
AcDbCellStyleMap
  3
ObjectDBX Classes
 90
     1152
 91
        2
280
     0
281
     0
  0
ENDSEC
  0
SECTION
  2
TABLES
  0
TABLE
  2
VPORT
  5
8
330
0
100
AcDbSymbolTable
 70
     3
  0
VPORT
  5
79C
330
8
100
AcDbSymbolTableRecord
100
AcDbViewportTableRecord
  2
asurf_wcs_vp_2
 70
     0
 10
0.0
 20
0.0
 11
0.5
 21
1.0
 12
0.0
 22
0.0
 13
0.0
 23
0.0
 14
10.0
 24
10.0
 15
10.0
 25
10.0
 16
0.0
 26
0.0
 36
1.0
 17
210.0
 27
148.5
 37
0.0
 40
664.2413317557894
 41
0.6397245798091085
 42
50.0
 43
0.0
 44
0.0
 50
0.0
 51
0.0
 71
     0
 72
  1000
 73
     1
 74
     0
 75
     0
 76
     0
 77
     0
 78
     0
281
     4
 65
     0
110
0.0
120
0.0
130
0.0
111
1.0
121
0.0
131
0.0
112
0.0
122
1.0
132
0.0
 79
     0
146
0.0
348
1EAB
 60
     3
 61
     5
292
     1
282
     1
141
0.0
142
0.0
 63
   250
421
  3355443
  0
VPORT
  5
79D
330
8
100
AcDbSymbolTableRecord
100
AcDbViewportTableRecord
  2
asurf_wcs_vp_2
 70
     0
 10
0.5
 20
0.0
 11
1.0
 21
1.0
 12
-166.0188166206582
 22
35.22481755965711
 13
0.0
 23
0.0
 14
10.0
 24
10.0
 15
10.0
 25
10.0
 16
1.0
 26
-1.0
 36
1.0
 17
210.0
 27
148.5
 37
0.0
 40
482.8380307317476
 41
0.6397245798091085
 42
50.0
 43
0.0
 44
0.0
 50
0.0
 51
0.0
 71
     0
 72
  1000
 73
     1
 74
     0
 75
     0
 76
     0
 77
     0
 78
     0
281
     4
 65
     0
110
0.0
120
0.0
130
0.0
111
1.0
121
0.0
131
0.0
112
0.0
122
1.0
132
0.0
 79
     0
146
0.0
348
1EAB
 60
     3
 61
     5
292
     1
282
     1
141
0.0
142
0.0
 63
   250
421
  3355443
  0
VPORT
  5
1E89
330
8
100
AcDbSymbolTableRecord
100
AcDbViewportTableRecord
  2
*Active
 70
     0
 10
0.0
 20
0.0
 11
1.0
 21
1.0
 12
-66.9366407932506
 22
-17.09262624417954
 13
0.0
 23
0.0
 14
10.0
 24
10.0
 15
10.0
 25
10.0
 16
0.0
 26
0.0
 36
1.0
 17
228.7938864760478
 27
166.0836188760395
 37
0.0
 40
585.6916474306889
 41
1.769230769230769
 42
50.0
 43
0.0
 44
0.0
 50
0.0
 51
0.0
 71
     0
 72
  1000
 73
     1
 74
     1
 75
     0
 76
     0
 77
     0
 78
     0
281
     0
 65
     0
110
0.0
120
0.0
130
0.0
111
1.0
121
0.0
131
0.0
112
0.0
122
1.0
132
0.0
 79
     0
146
0.0
348
1EAE
 60
     3
 61
     5
292
     1
282
     1
141
0.0
142
0.0
 63
   250
421
  3355443
  0
ENDTAB
  0
TABLE
  2
LTYPE
  5
5
330
0
100
AcDbSymbolTable
 70
    37
  0
LTYPE
  5
14
330
5
100
AcDbSymbolTableRecord
100
AcDbLinetypeTableRecord
  2
BYBLOCK
 70
     0
  3

 72
    65
 73
     0
 40
0.0
  0
LTYPE
  5
15
330
5
100
AcDbSymbolTableRecord
100
AcDbLinetypeTableRecord
  2
BYLAYER
 70
     0
  3

 72
    65
 73
     0
 40
0.0
  0
LTYPE
  5
16
330
5
100
AcDbSymbolTableRecord
100
AcDbLinetypeTableRecord
  2
CONTINUOUS
 70
     0
  3
Solid line
 72
    65
 73
     0
 40
0.0
  0
LTYPE
  5
BD
330
5
100
AcDbSymbolTableRecord
100
AcDbLinetypeTableRecord
  2
HIDDEN
 70
     0
  3
__ __ __ __ __ __ __ __ __ __ __ __ __ __ __ __
 72
    65
 73
     2
 40
0.375
 49
0.25
 74
     0
 49
-0.125
 74
     0
  0
LTYPE
  5
BF
330
5
100
AcDbSymbolTableRecord
100
AcDbLinetypeTableRecord
  2
PHANTOM2
 70
     0
  3
___ _ _ ___ _ _ ___ _ _ ___ _ _ ___ _ _ ___ _ _
 72
    65
 73
     6
 40
1.25
 49
0.625
 74
     0
 49
-0.125
 74
     0
 49
0.125
 74
     0
 49
-0.125
 74
     0
 49
0.125
 74
     0
 49
-0.125
 74
     0
  0
LTYPE
  5
CA
330
5
100
AcDbSymbolTableRecord
100
AcDbLinetypeTableRecord
  2
CENTER
 70
     0
  3
____ _ ____ _ ____ _ ____ _ ____ _ ____ _ ____ 
 72
    65
 73
     4
 40
2.0
 49
1.25
 74
     0
 49
-0.25
 74
     0
 49
0.25
 74
     0
 49
-0.25
 74
     0
  0
LTYPE
  5
120
330
5
100
AcDbSymbolTableRecord
100
AcDbLinetypeTableRecord
  2
ASULTYPE
 70
     0
  3
Solid line
 72
    65
 73
     2
 40
3.0
 49
2.5
 74
     0
 49
0.5
 74
     0
  0
LTYPE
  5
121
330
5
100
AcDbSymbolTableRecord
100
AcDbLinetypeTableRecord
  2
ASVLTYPE
 70
     0
  3
__ __ __ __ __ __ __ __ __ __ __ __ __ __ __ __ __ __ __ __ __
 72
    65
 73
     2
 40
0.75
 49
0.5
 74
     0
 49
-0.25
 74
     0
  0
LTYPE
  5
149
330
5
100
AcDbSymbolTableRecord
100
AcDbLinetypeTableRecord
  2
ACJISTGB
 70
     0
  3
__ . . __ . .
 72
    65
 73
     6
 40
9.0
 49
4.0
 74
     0
 49
-1.0
 74
     0
 49
1.0
 74
     0
 49
-1.0
 74
     0
 49
1.0
 74
     0
 49
-1.0
 74
     0
  0
LTYPE
  5
14A
330
5
100
AcDbSymbolTableRecord
100
AcDbLinetypeTableRecord
  2
ACJISTGL
 70
     0
  3
_ _ _ _ _
 72
    65
 73
     2
 40
3.0
 49
2.0
 74
     0
 49
-1.0
 74
     0
  0
LTYPE
  5
14D
330
5
100
AcDbSymbolTableRecord
100
AcDbLinetypeTableRecord
  2
ACANSTGB
 70
     0
  3
__ . . __ . .
 72
    65
 73
     6
 40
0.35433070866
 49
0.15748031496
 74
     0
 49
-0.03937007874
 74
     0
 49
0.03937007874
 74
     0
 49
-0.03937007874
 74
     0
 49
0.03937007874
 74
     0
 49
-0.03937007874
 74
     0
  0
LTYPE
  5
14E
330
5
100
AcDbSymbolTableRecord
100
AcDbLinetypeTableRecord
  2
ACANSTGL
 70
     0
  3
_ _ _ _ _
 72
    65
 73
     2
 40
0.11811023622
 49
0.07874015748
 74
     0
 49
-0.03937007874
 74
     0
  0
LTYPE
  5
151
330
5
100
AcDbSymbolTableRecord
100
AcDbLinetypeTableRecord
  2
ACBSWELD
 70
     0
  3
_ _ _ _ _
 72
    65
 73
     2
 40
2.0
 49
2.0
 74
     0
 49
-1.0
 74
     0
  0
LTYPE
  5
152
330
5
100
AcDbSymbolTableRecord
100
AcDbLinetypeTableRecord
  2
ACBSITGB
 70
     0
  3
__ . . __ . .
 72
    65
 73
     6
 40
9.0
 49
4.0
 74
     0
 49
-1.0
 74
     0
 49
1.0
 74
     0
 49
-1.0
 74
     0
 49
1.0
 74
     0
 49
-1.0
 74
     0
  0
LTYPE
  5
153
330
5
100
AcDbSymbolTableRecord
100
AcDbLinetypeTableRecord
  2
ACBSITGL
 70
     0
  3
_ _ _ _ _
 72
    65
 73
     2
 40
3.0
 49
2.0
 74
     0
 49
-1.0
 74
     0
  0
LTYPE
  5
156
330
5
100
AcDbSymbolTableRecord
100
AcDbLinetypeTableRecord
  2
ACDINWELD
 70
     0
  3
_ _ _ _ _
 72
    65
 73
     2
 40
2.0
 49
2.0
 74
     0
 49
-1.0
 74
     0
  0
LTYPE
  5
157
330
5
100
AcDbSymbolTableRecord
100
AcDbLinetypeTableRecord
  2
ACDINTGB
 70
     0
  3
__ . . __ . .
 72
    65
 73
     6
 40
9.0
 49
4.0
 74
     0
 49
-1.0
 74
     0
 49
1.0
 74
     0
 49
-1.0
 74
     0
 49
1.0
 74
     0
 49
-1.0
 74
     0
  0
LTYPE
  5
158
330
5
100
AcDbSymbolTableRecord
100
AcDbLinetypeTableRecord
  2
ACDINTGL
 70
     0
  3
_ _ _ _ _
 72
    65
 73
     2
 40
3.0
 49
2.0
 74
     0
 49
-1.0
 74
     0
  0
LTYPE
  5
15B
330
5
100
AcDbSymbolTableRecord
100
AcDbLinetypeTableRecord
  2
ACISOWELD
 70
     0
  3
_ _ _ _ _
 72
    65
 73
     2
 40
2.0
 49
2.0
 74
     0
 49
-1.0
 74
     0
  0
LTYPE
  5
15C
330
5
100
AcDbSymbolTableRecord
100
AcDbLinetypeTableRecord
  2
ACISOTGB
 70
     0
  3
__ . . __ . .
 72
    65
 73
     6
 40
9.0
 49
4.0
 74
     0
 49
-1.0
 74
     0
 49
1.0
 74
     0
 49
-1.0
 74
     0
 49
1.0
 74
     0
 49
-1.0
 74
     0
  0
LTYPE
  5
15D
330
5
100
AcDbSymbolTableRecord
100
AcDbLinetypeTableRecord
  2
ACISOTGL
 70
     0
  3
_ _ _ _ _
 72
    65
 73
     2
 40
3.0
 49
2.0
 74
     0
 49
-1.0
 74
     0
  0
LTYPE
  5
175
330
5
100
AcDbSymbolTableRecord
100
AcDbLinetypeTableRecord
  2
AM_ISO02W050
 70
     0
  3
__ __ __ __ __ __ __ __ __ __ __ __ __ __ __
 72
    65
 73
     2
 40
7.5
 49
6.0
 74
     0
 49
-1.5
 74
     0
  0
LTYPE
  5
176
330
5
100
AcDbSymbolTableRecord
100
AcDbLinetypeTableRecord
  2
AM_ISO08W050
 70
     0
  3
____ . ____ . ____ . ____ . ____ . ____ . ____
 72
    65
 73
     4
 40
18.0
 49
12.0
 74
     0
 49
-1.5
 74
     0
 49
3.0
 74
     0
 49
-1.5
 74
     0
  0
LTYPE
  5
177
330
5
100
AcDbSymbolTableRecord
100
AcDbLinetypeTableRecord
  2
AM_ISO09W050
 70
     0
  3
_____ . . _____ . . _____ . . ____ .. ____
 72
    65
 73
     6
 40
22.5
 49
12.0
 74
     0
 49
-1.5
 74
     0
 49
3.0
 74
     0
 49
-1.5
 74
     0
 49
3.0
 74
     0
 49
-1.5
 74
     0
  0
LTYPE
  5
178
330
5
100
AcDbSymbolTableRecord
100
AcDbLinetypeTableRecord
  2
AM_ISO02W050x2
 70
     0
  3
 _ _ _ _ _ _ _ _ _ _ _ _
 72
    65
 73
     2
 40
3.75
 49
3.0
 74
     0
 49
-0.75
 74
     0
  0
LTYPE
  5
179
330
5
100
AcDbSymbolTableRecord
100
AcDbLinetypeTableRecord
  2
AM_ISO08W050x2
 70
     0
  3
__ . __ . __ . __ . __ . __
 72
    65
 73
     4
 40
9.0
 49
6.0
 74
     0
 49
-0.75
 74
     0
 49
1.5
 74
     0
 49
-0.75
 74
     0
  0
LTYPE
  5
17C
330
5
100
AcDbSymbolTableRecord
100
AcDbLinetypeTableRecord
  2
amzigzag
 70
     0
  3
/\/-/\/-/\/-/\/-/\/-/\/
 72
    65
 73
     2
 40
11.0001
 49
0.0001
 74
     4
 75
   135
340
17B
 46
0.04
 50
0.0
 44
0.0
 45
0.0
 49
-11.0
 74
     0
  0
LTYPE
  5
1814
330
5
100
AcDbSymbolTableRecord
100
AcDbLinetypeTableRecord
  2
ACANSTGBM
 70
     0
  3
__ . . __ . .
 72
    65
 73
     6
 40
9.0
 49
4.0
 74
     0
 49
-1.0
 74
     0
 49
1.0
 74
     0
 49
-1.0
 74
     0
 49
1.0
 74
     0
 49
-1.0
 74
     0
  0
LTYPE
  5
1815
330
5
100
AcDbSymbolTableRecord
100
AcDbLinetypeTableRecord
  2
ACANSTGLM
 70
     0
  3
_ _ _ _ _
 72
    65
 73
     2
 40
3.0
 49
2.0
 74
     0
 49
-1.0
 74
     0
  0
LTYPE
  5
1A16
330
5
100
AcDbSymbolTableRecord
100
AcDbLinetypeTableRecord
  2
GEN7
 70
     0
  3
____ . ____ . ____ . ____ . ___
 72
    65
 73
     4
 40
13.75
 49
9.75
 74
     0
 49
-1.5
 74
     0
 49
1.0
 74
     0
 49
-1.5
 74
     0
  0
LTYPE
  5
1A17
330
5
100
AcDbSymbolTableRecord
100
AcDbLinetypeTableRecord
  2
GEN3
 70
     0
  3
-- -- -- -- -- -- -- -- -- -- -
 72
    65
 73
     2
 40
6.25
 49
4.75
 74
     0
 49
-1.5
 74
     0
  0
LTYPE
  5
1A18
330
5
100
AcDbSymbolTableRecord
100
AcDbLinetypeTableRecord
  2
GEN3A
 70
     0
  3
 - - - - -
 72
    65
 73
     2
 40
3.125
 49
2.25
 74
     0
 49
-0.875
 74
     0
  0
LTYPE
  5
1A19
330
5
100
AcDbSymbolTableRecord
100
AcDbLinetypeTableRecord
  2
GEN4A
 70
     0
  3
_____ . . _____ . . _____ . . _
 72
    65
 73
     6
 40
16.25
 49
9.75
 74
     0
 49
-1.5
 74
     0
 49
1.0
 74
     0
 49
-1.5
 74
     0
 49
1.0
 74
     0
 49
-1.5
 74
     0
  0
LTYPE
  5
1A1A
330
5
100
AcDbSymbolTableRecord
100
AcDbLinetypeTableRecord
  2
GEN7A
 70
     0
  3
__ . __ . __
 72
    65
 73
     4
 40
6.875
 49
4.75
 74
     0
 49
-0.875
 74
     0
 49
0.375
 74
     0
 49
-0.875
 74
     0
  0
LTYPE
  5
1A1B
330
5
100
AcDbSymbolTableRecord
100
AcDbLinetypeTableRecord
  2
CONTINU
 70
     0
  3

 72
    65
 73
     0
 40
0.0
  0
LTYPE
  5
1A1C
330
5
100
AcDbSymbolTableRecord
100
AcDbLinetypeTableRecord
  2
GENCLIN
 70
     0
  3
_______________________
 72
    65
 73
     2
 40
9999.0
 49
9999.0
 74
     0
 49
0.0
 74
     0
  0
LTYPE
  5
1A1D
330
5
100
AcDbSymbolTableRecord
100
AcDbLinetypeTableRecord
  2
genzigzag
 70
     0
  3
/\/-/\/-/\/-/\/-/\/-/\/
 72
    65
 73
     2
 40
12.0001
 49
0.0001
 74
     4
 75
   135
340
1A23
 46
2.0
 50
0.0
 44
0.0
 45
0.0
 49
-12.0
 74
     0
  0
LTYPE
  5
207C
330
5
100
AcDbSymbolTableRecord
100
AcDbLinetypeTableRecord
  2
Amconstr
 70
     0
  3
_______________________
 72
    65
 73
     2
 40
9999.0
 49
9999.0
 74
     0
 49
0.0
 74
     0
  0
ENDTAB
  0
TABLE
  2
LAYER
  5
2
330
0
100
AcDbSymbolTable
 70
    25
  0
LAYER
  5
F
102
{ACAD_XDICTIONARY
360
2138
102
}
330
2
100
AcDbSymbolTableRecord
100
AcDbLayerTableRecord
  2
0
 70
     0
 62
     7
  6
CONTINUOUS
370
    -3
390
166
347
1EA0
  0
LAYER
  5
35A
102
{ACAD_XDICTIONARY
360
213A
102
}
330
2
100
AcDbSymbolTableRecord
100
AcDbLayerTableRecord
  2
AM_0
 70
     0
 62
     7
  6
CONTINUOUS
370
    50
390
166
347
1EA0
  0
LAYER
  5
35B
102
{ACAD_XDICTIONARY
360
213C
102
}
330
2
100
AcDbSymbolTableRecord
100
AcDbLayerTableRecord
  2
AM_1
 70
     0
 62
     4
  6
CONTINUOUS
370
    25
390
166
347
1EA0
  0
LAYER
  5
35C
102
{ACAD_XDICTIONARY
360
213E
102
}
330
2
100
AcDbSymbolTableRecord
100
AcDbLayerTableRecord
  2
AM_2
 70
     0
 62
     5
  6
CONTINUOUS
370
    50
390
166
347
1EA0
  0
LAYER
  5
35D
102
{ACAD_XDICTIONARY
360
2140
102
}
330
2
100
AcDbSymbolTableRecord
100
AcDbLayerTableRecord
  2
AM_3
 70
     0
 62
     6
  6
AM_ISO02W050
370
    25
390
166
347
1EA0
  0
LAYER
  5
35E
102
{ACAD_XDICTIONARY
360
2142
102
}
330
2
100
AcDbSymbolTableRecord
100
AcDbLayerTableRecord
  2
AM_4
 70
     0
 62
     3
  6
CONTINUOUS
370
    25
390
166
347
1EA0
  0
LAYER
  5
35F
102
{ACAD_XDICTIONARY
360
2144
102
}
330
2
100
AcDbSymbolTableRecord
100
AcDbLayerTableRecord
  2
AM_5
 70
     0
 62
     3
  6
CONTINUOUS
370
    25
390
166
347
1EA0
  0
LAYER
  5
360
102
{ACAD_XDICTIONARY
360
2146
102
}
330
2
100
AcDbSymbolTableRecord
100
AcDbLayerTableRecord
  2
AM_6
 70
     0
 62
     2
  6
CONTINUOUS
370
    35
390
166
347
1EA0
  0
LAYER
  5
361
102
{ACAD_XDICTIONARY
360
2148
102
}
330
2
100
AcDbSymbolTableRecord
100
AcDbLayerTableRecord
  2
AM_7
 70
     0
 62
     1
  6
AM_ISO08W050
370
    25
390
166
347
1EA0
  0
LAYER
  5
362
102
{ACAD_XDICTIONARY
360
214A
102
}
330
2
100
AcDbSymbolTableRecord
100
AcDbLayerTableRecord
  2
AM_8
 70
     0
 62
     1
  6
CONTINUOUS
370
    25
390
166
347
1EA0
  0
LAYER
  5
38E
102
{ACAD_XDICTIONARY
360
214C
102
}
330
2
100
AcDbSymbolTableRecord
100
AcDbLayerTableRecord
  2
AM_FR
 70
     5
 62
     7
  6
CONTINUOUS
370
    -3
390
166
347
1EA0
  0
LAYER
  5
3F7
102
{ACAD_XDICTIONARY
360
214E
102
}
330
2
100
AcDbSymbolTableRecord
100
AcDbLayerTableRecord
  2
ASHADE
 70
     4
 62
     7
  6
CONTINUOUS
370
    -3
390
166
347
1EA0
  0
LAYER
  5
5FC
102
{ACAD_XDICTIONARY
360
2150
102
}
330
2
100
AcDbSymbolTableRecord
100
AcDbLayerTableRecord
  2
AM_WORK
 70
     0
 62
     7
  6
CONTINUOUS
370
    -3
390
166
347
1EA0
  0
LAYER
  5
614
102
{ACAD_XDICTIONARY
360
2152
102
}
330
2
100
AcDbSymbolTableRecord
100
AcDbLayerTableRecord
  2
AM_CL
 70
     0
 62
     1
  6
Amconstr
370
    25
390
166
347
1EA0
  0
LAYER
  5
643
330
2
100
AcDbSymbolTableRecord
100
AcDbLayerTableRecord
  2
Defpoints
 70
     0
 62
     7
  6
CONTINUOUS
290
     0
370
    -3
390
166
347
1EA0
  0
LAYER
  5
79B
102
{ACAD_XDICTIONARY
360
2154
102
}
330
2
100
AcDbSymbolTableRecord
100
AcDbLayerTableRecord
  2
ASRF_TMP
 70
     0
 62
     7
  6
CONTINUOUS
370
    -3
390
166
347
1EA0
  0
LAYER
  5
1054
102
{ACAD_XDICTIONARY
360
2156
102
}
330
2
100
AcDbSymbolTableRecord
100
AcDbLayerTableRecord
  2
AM_VIEWS
 70
     1
 62
    -1
  6
CONTINUOUS
290
     0
370
    25
390
166
347
1EA0
  0
LAYER
  5
106E
102
{ACAD_XDICTIONARY
360
2158
102
}
330
2
100
AcDbSymbolTableRecord
100
AcDbLayerTableRecord
  2
AM_VIS
 70
     2
 62
     7
  6
CONTINUOUS
370
    50
390
166
347
1EA0
  0
LAYER
  5
106F
102
{ACAD_XDICTIONARY
360
215A
102
}
330
2
100
AcDbSymbolTableRecord
100
AcDbLayerTableRecord
  2
AM_HID
 70
     2
 62
     6
  6
AM_ISO02W050
370
    25
390
166
347
1EA0
  0
LAYER
  5
108B
102
{ACAD_XDICTIONARY
360
215C
102
}
330
2
100
AcDbSymbolTableRecord
100
AcDbLayerTableRecord
  2
AM_PARDIM
 70
     0
 62
     3
  6
CONTINUOUS
370
    25
390
166
347
1EA0
  0
LAYER
  5
1969
102
{ACAD_XDICTIONARY
360
215E
102
}
330
2
100
AcDbSymbolTableRecord
100
AcDbLayerTableRecord
  2
AmdtBRLock
 70
     6
 62
     7
  6
CONTINUOUS
370
    -3
390
166
347
1EA0
  0
LAYER
  5
1A1E
102
{ACAD_XDICTIONARY
360
2160
102
}
330
2
100
AcDbSymbolTableRecord
100
AcDbLayerTableRecord
  2
5
 70
     0
 62
     3
  6
CONTINUOUS
370
    -3
390
166
347
1EA0
  0
LAYER
  5
1A1F
102
{ACAD_XDICTIONARY
360
2162
102
}
330
2
100
AcDbSymbolTableRecord
100
AcDbLayerTableRecord
  2
1
 70
     0
 62
     4
  6
CONTINUOUS
370
    -3
390
166
347
1EA0
  0
LAYER
  5
1A20
102
{ACAD_XDICTIONARY
360
2164
102
}
330
2
100
AcDbSymbolTableRecord
100
AcDbLayerTableRecord
  2
2
 70
     0
 62
     5
  6
CONTINUOUS
370
    -3
390
166
347
1EA0
  0
LAYER
  5
1A21
102
{ACAD_XDICTIONARY
360
2166
102
}
330
2
100
AcDbSymbolTableRecord
100
AcDbLayerTableRecord
  2
7
 70
     0
 62
     1
  6
GEN7
370
    -3
390
166
347
1EA0
  0
ENDTAB
  0
TABLE
  2
STYLE
  5
3
330
0
100
AcDbSymbolTable
 70
    15
  0
STYLE
  5
10
330
3
100
AcDbSymbolTableRecord
100
AcDbTextStyleTableRecord
  2
STANDARD
 70
     0
 40
0.0
 41
1.0
 50
0.0
 71
     0
 42
3.5
  3
ISOCP
  4

  0
STYLE
  5
147
330
3
100
AcDbSymbolTableRecord
100
AcDbTextStyleTableRecord
  2
ACJISTS
 70
     0
 40
1.0
 41
1.0
 50
0.0
 71
     0
 42
3.5
  3
isocp.shx
  4
bigfont.shx
  0
STYLE
  5
148
330
3
100
AcDbSymbolTableRecord
100
AcDbTextStyleTableRecord
  2
ACJISGDT
 70
     0
 40
0.0
 41
1.0
 50
0.0
 71
     0
 42
3.5
  3
amgdt.shx
  4

  0
STYLE
  5
14B
330
3
100
AcDbSymbolTableRecord
100
AcDbTextStyleTableRecord
  2
ACANSTSI
 70
     0
 40
1.0
 41
1.0
 50
0.0
 71
     0
 42
3.5
  3
romans.shx
  4

  0
STYLE
  5
14C
330
3
100
AcDbSymbolTableRecord
100
AcDbTextStyleTableRecord
  2
ACANSGDT
 70
     0
 40
0.0
 41
1.0
 50
0.0
 71
     0
 42
3.5
  3
amgdt.shx
  4

  0
STYLE
  5
14F
330
3
100
AcDbSymbolTableRecord
100
AcDbTextStyleTableRecord
  2
ACBSITS
 70
     0
 40
1.0
 41
1.0
 50
0.0
 71
     0
 42
3.5
  3
isocp.shx
  4

  0
STYLE
  5
150
330
3
100
AcDbSymbolTableRecord
100
AcDbTextStyleTableRecord
  2
ACBSIGDT
 70
     0
 40
0.0
 41
1.0
 50
0.0
 71
     0
 42
3.5
  3
amgdt.shx
  4

  0
STYLE
  5
154
330
3
100
AcDbSymbolTableRecord
100
AcDbTextStyleTableRecord
  2
ACDINTS
 70
     0
 40
1.0
 41
1.0
 50
0.0
 71
     0
 42
3.5
  3
isocp.shx
  4

  0
STYLE
  5
155
330
3
100
AcDbSymbolTableRecord
100
AcDbTextStyleTableRecord
  2
ACDINGDT
 70
     0
 40
0.0
 41
1.0
 50
0.0
 71
     0
 42
3.5
  3
amgdt.shx
  4

  0
STYLE
  5
159
330
3
100
AcDbSymbolTableRecord
100
AcDbTextStyleTableRecord
  2
ACISOTS
 70
     0
 40
1.0
 41
1.0
 50
0.0
 71
     0
 42
3.5
  3
isocp.shx
  4

  0
STYLE
  5
15A
330
3
100
AcDbSymbolTableRecord
100
AcDbTextStyleTableRecord
  2
ACISOGDT
 70
     0
 40
0.0
 41
1.0
 50
0.0
 71
     0
 42
3.5
  3
amgdt.shx
  4

  0
STYLE
  5
17B
330
3
100
AcDbSymbolTableRecord
100
AcDbTextStyleTableRecord
  2

 70
     1
 40
0.0
 41
1.0
 50
0.0
 71
     0
 42
3.5
  3
ltypeshp.shx
  4

  0
STYLE
  5
3F4
330
3
100
AcDbSymbolTableRecord
100
AcDbTextStyleTableRecord
  2
ASHADE
 70
     0
 40
0.2
 41
1.0
 50
0.0
 71
     0
 42
3.5
  3
simplex.shx
  4

  0
STYLE
  5
1A22
330
3
100
AcDbSymbolTableRecord
100
AcDbTextStyleTableRecord
  2
ACANSTS
 70
     0
 40
1.0
 41
1.0
 50
0.0
 71
     0
 42
2.5
  3
romans.shx
  4

  0
STYLE
  5
1A23
330
3
100
AcDbSymbolTableRecord
100
AcDbTextStyleTableRecord
  2

 70
     1
 40
0.0
 41
1.0
 50
0.0
 71
     0
 42
2.5
  3
genltshp.shx
  4

  0
ENDTAB
  0
TABLE
  2
VIEW
  5
6
330
0
100
AcDbSymbolTable
 70
     3
  0
VIEW
  5
1C8
330
6
100
AcDbSymbolTableRecord
100
AcDbViewTableRecord
  2
AMDTVIEW1
 70
     0
 40
329.0721649484535
 10
210.0
 20
164.5360824742267
 41
420.0
 11
0.0
 21
0.0
 31
1.0
 12
0.0
 22
0.0
 32
0.0
 42
50.0
 43
0.0
 44
0.0
 50
0.0
 71
     0
281
     0
 72
     0
 73
     0
348
1EAE
  0
VIEW
  5
1C9
330
6
100
AcDbSymbolTableRecord
100
AcDbViewTableRecord
  2
AMDTVIEW2
 70
     0
 40
329.0721649484535
 10
210.0
 20
164.5360824742267
 41
420.0
 11
0.0
 21
0.0
 31
1.0
 12
0.0
 22
0.0
 32
0.0
 42
50.0
 43
0.0
 44
0.0
 50
0.0
 71
     0
281
     0
 72
     0
 73
     0
348
1EAE
  0
VIEW
  5
1CA
330
6
100
AcDbSymbolTableRecord
100
AcDbViewTableRecord
  2
AMDTVIEW3
 70
     0
 40
329.0721649484535
 10
210.0
 20
164.5360824742267
 41
420.0
 11
0.0
 21
0.0
 31
1.0
 12
0.0
 22
0.0
 32
0.0
 42
50.0
 43
0.0
 44
0.0
 50
0.0
 71
     0
281
     0
 72
     0
 73
     0
348
1EAE
  0
ENDTAB
  0
TABLE
  2
UCS
  5
7
330
0
100
AcDbSymbolTable
 70
     0
  0
ENDTAB
  0
TABLE
  2
APPID
  5
9
330
0
100
AcDbSymbolTable
 70
    52
  0
APPID
  5
11
330
9
100
AcDbSymbolTableRecord
100
AcDbRegAppTableRecord
  2
ACAD
 70
     0
  0
APPID
  5
CD
330
9
100
AcDbSymbolTableRecord
100
AcDbRegAppTableRecord
  2
AD_DRAW
 70
     0
  0
APPID
  5
E7
330
9
100
AcDbSymbolTableRecord
100
AcDbRegAppTableRecord
  2
DESIGNERASSEMBLIES
 70
     0
  0
APPID
  5
EB
330
9
100
AcDbSymbolTableRecord
100
AcDbRegAppTableRecord
  2
MCAD_NO_VIS
 70
     0
  0
APPID
  5
122
330
9
100
AcDbSymbolTableRecord
100
AcDbRegAppTableRecord
  2
ASURF_PCURVE_APPNAME
 70
     0
  0
APPID
  5
17F
330
9
100
AcDbSymbolTableRecord
100
AcDbRegAppTableRecord
  2
ACAD_TEMP_GRAPHIC
 70
     0
  0
APPID
  5
189
330
9
100
AcDbSymbolTableRecord
100
AcDbRegAppTableRecord
  2
ACATTRIBSERVICES
 70
     0
  0
APPID
  5
1C4
330
9
100
AcDbSymbolTableRecord
100
AcDbRegAppTableRecord
  2
ACADM_DIM_EDIT
 70
     0
  0
APPID
  5
1D5
330
9
100
AcDbSymbolTableRecord
100
AcDbRegAppTableRecord
  2
GENIUS_GENDIM_13
 70
     0
  0
APPID
  5
1D6
330
9
100
AcDbSymbolTableRecord
100
AcDbRegAppTableRecord
  2
GENIUS_GENDTOL_13
 70
     0
  0
APPID
  5
1D7
330
9
100
AcDbSymbolTableRecord
100
AcDbRegAppTableRecord
  2
GENIUS_GE3DTOL_13
 70
     0
  0
APPID
  5
3F5
330
9
100
AcDbSymbolTableRecord
100
AcDbRegAppTableRecord
  2
AVE_RENDER
 70
     0
  0
APPID
  5
3F6
330
9
100
AcDbSymbolTableRecord
100
AcDbRegAppTableRecord
  2
AVE_ENTITY_MATERIAL
 70
     0
  0
APPID
  5
403
330
9
100
AcDbSymbolTableRecord
100
AcDbRegAppTableRecord
  2
AVE_FINISH
 70
     0
  0
APPID
  5
404
330
9
100
AcDbSymbolTableRecord
100
AcDbRegAppTableRecord
  2
AVE_MATERIAL
 70
     0
  0
APPID
  5
405
330
9
100
AcDbSymbolTableRecord
100
AcDbRegAppTableRecord
  2
AVE_GLOBAL
 70
     0
  0
APPID
  5
587
330
9
100
AcDbSymbolTableRecord
100
AcDbRegAppTableRecord
  2
GENIUS_GENREC_14
 70
     0
  0
APPID
  5
588
330
9
100
AcDbSymbolTableRecord
100
AcDbRegAppTableRecord
  2
GENIUS_GENODEF_13
 70
     0
  0
APPID
  5
589
330
9
100
AcDbSymbolTableRecord
100
AcDbRegAppTableRecord
  2
GENIUS_GENOBJ-N-REC_13
 70
     0
  0
APPID
  5
5F8
330
9
100
AcDbSymbolTableRecord
100
AcDbRegAppTableRecord
  2
GENIUS_GENOBJ-3-SH3D_13
 70
     0
  0
APPID
  5
651
330
9
100
AcDbSymbolTableRecord
100
AcDbRegAppTableRecord
  2
AD_SKETCHDIM
 70
     0
  0
APPID
  5
76F
330
9
100
AcDbSymbolTableRecord
100
AcDbRegAppTableRecord
  2
AM_EDITFEAT
 70
     0
  0
APPID
  5
799
330
9
100
AcDbSymbolTableRecord
100
AcDbRegAppTableRecord
  2
GENIUS_GE3SH_14_1
 70
     0
  0
APPID
  5
79A
330
9
100
AcDbSymbolTableRecord
100
AcDbRegAppTableRecord
  2
GENIUS_GE3MANIP_13
 70
     0
  0
APPID
  5
1066
330
9
100
AcDbSymbolTableRecord
100
AcDbRegAppTableRecord
  2
GENIUS_GENSCREG_15
 70
     0
  0
APPID
  5
1068
330
9
100
AcDbSymbolTableRecord
100
AcDbRegAppTableRecord
  2
GENIUS_GENOBJ-N-SDF_13
 70
     0
  0
APPID
  5
1069
330
9
100
AcDbSymbolTableRecord
100
AcDbRegAppTableRecord
  2
GENIUS_GENOENT_13
 70
     0
  0
APPID
  5
106A
330
9
100
AcDbSymbolTableRecord
100
AcDbRegAppTableRecord
  2
GENIUS_GENOREF_13
 70
     0
  0
APPID
  5
106B
330
9
100
AcDbSymbolTableRecord
100
AcDbRegAppTableRecord
  2
GENIUS_GENOLIS_13
 70
     0
  0
APPID
  5
1348
330
9
100
AcDbSymbolTableRecord
100
AcDbRegAppTableRecord
  2
GENIUS_GENDIMSH_14
 70
     0
  0
APPID
  5
17FE
330
9
100
AcDbSymbolTableRecord
100
AcDbRegAppTableRecord
  2
AMG_3D2D_5.0
 70
     0
  0
APPID
  5
1855
330
9
100
AcDbSymbolTableRecord
100
AcDbRegAppTableRecord
  2
AMDT_DM_ADJ
 70
     0
  0
APPID
  5
1E83
330
9
100
AcDbSymbolTableRecord
100
AcDbRegAppTableRecord
  2
GENIUS_AMGTXT_16
 70
     0
  0
APPID
  5
1ED0
330
9
100
AcDbSymbolTableRecord
100
AcDbRegAppTableRecord
  2
ACAD_MLEADERVER
 70
     0
  0
APPID
  5
1ED8
330
9
100
AcDbSymbolTableRecord
100
AcDbRegAppTableRecord
  2
DCO15
 70
     0
  0
APPID
  5
1ED9
330
9
100
AcDbSymbolTableRecord
100
AcDbRegAppTableRecord
  2
GENIUS_GENTRA_14
 70
     0
  0
APPID
  5
1EDA
330
9
100
AcDbSymbolTableRecord
100
AcDbRegAppTableRecord
  2
GENIUS_GENCFG_13
 70
     0
  0
APPID
  5
1EDB
330
9
100
AcDbSymbolTableRecord
100
AcDbRegAppTableRecord
  2
GENIUS_GENCFG0_13
 70
     0
  0
APPID
  5
1EDC
330
9
100
AcDbSymbolTableRecord
100
AcDbRegAppTableRecord
  2
GENIUS_GENCFG1_13
 70
     0
  0
APPID
  5
1EDD
330
9
100
AcDbSymbolTableRecord
100
AcDbRegAppTableRecord
  2
GENIUS_GENCFG2_13
 70
     0
  0
APPID
  5
1EDE
330
9
100
AcDbSymbolTableRecord
100
AcDbRegAppTableRecord
  2
GENIUS_GENCFG3_13
 70
     0
  0
APPID
  5
1EDF
330
9
100
AcDbSymbolTableRecord
100
AcDbRegAppTableRecord
  2
GENIUS_GENCFG4_13
 70
     0
  0
APPID
  5
1EE0
330
9
100
AcDbSymbolTableRecord
100
AcDbRegAppTableRecord
  2
GENIUS_GEVCFG0_13
 70
     0
  0
APPID
  5
1EE1
330
9
100
AcDbSymbolTableRecord
100
AcDbRegAppTableRecord
  2
GENIUS_GENOBJ-N-CRS_13
 70
     0
  0
APPID
  5
1EE2
330
9
100
AcDbSymbolTableRecord
100
AcDbRegAppTableRecord
  2
GENIUS_GENOBJ-N-HTC_13
 70
     0
  0
APPID
  5
1EE3
330
9
100
AcDbSymbolTableRecord
100
AcDbRegAppTableRecord
  2
GENIUS_GENHATCH_13
 70
     0
  0
APPID
  5
1EE4
330
9
100
AcDbSymbolTableRecord
100
AcDbRegAppTableRecord
  2
GENIUS_GE3CFG0_13
 70
     0
  0
APPID
  5
1EE5
330
9
100
AcDbSymbolTableRecord
100
AcDbRegAppTableRecord
  2
AcAecLayerStandard
 70
     0
  0
APPID
  5
20D2
330
9
100
AcDbSymbolTableRecord
100
AcDbRegAppTableRecord
  2
ACAD_EXEMPT_FROM_CAD_STANDARDS
 70
     0
  0
APPID
  5
20DC
330
9
100
AcDbSymbolTableRecord
100
AcDbRegAppTableRecord
  2
GENIUS_GENOBJ-N-CEN_13
 70
     0
  0
APPID
  5
20DD
330
9
100
AcDbSymbolTableRecord
100
AcDbRegAppTableRecord
  2
GENIUS_GENCEN_19
 70
     0
  0
APPID
  5
211C
330
9
100
AcDbSymbolTableRecord
100
AcDbRegAppTableRecord
  2
ACAD_DSTYLE_DIMINSPECT
 70
     0
  0
ENDTAB
  0
TABLE
  2
DIMSTYLE
  5
A
330
0
100
AcDbSymbolTable
 70
    47
100
AcDbDimStyleTable
 71
     5
340
395
340
25
340
62
340
2A
340
29
  0
DIMSTYLE
105
1D
102
{ACAD_REACTORS
330
1BCD
330
1BCE
330
1BE5
330
1BE6
330
1BF7
330
1BFC
102
}
330
A
100
AcDbSymbolTableRecord
100
AcDbDimStyleTableRecord
  2
STANDARD
 70
     0
 41
2.5
 42
0.625
 43
3.75
 44
1.25
 73
     0
 74
     0
 77
     1
 78
     8
140
2.5
141
2.5
143
0.0394
147
0.625
171
     4
172
     1
273
     8
274
     4
277
     6
340
10
  0
DIMSTYLE
105
25
330
A
100
AcDbSymbolTableRecord
100
AcDbDimStyleTableRecord
  2
ISO-35
 70
     0
 41
3.5
 42
0.875
 43
5.25
 44
1.75
 73
     0
 74
     0
 77
     1
 78
     8
140
3.5
141
3.5
143
0.0394
147
0.875
171
     4
172
     1
273
     8
274
     4
277
     6
340
10
  0
DIMSTYLE
105
26
330
A
100
AcDbSymbolTableRecord
100
AcDbDimStyleTableRecord
  2
ISO-5
 70
     0
 41
5.0
 42
1.25
 43
7.5
 44
2.5
 73
     0
 74
     0
 77
     1
 78
     8
140
5.0
141
5.0
143
0.0394
147
1.25
171
     4
172
     1
273
     8
274
     4
277
     6
340
10
  0
DIMSTYLE
105
27
330
A
100
AcDbSymbolTableRecord
100
AcDbDimStyleTableRecord
  2
ISO-7
 70
     0
 41
7.0
 42
1.75
 43
10.5
 44
3.5
 73
     0
 74
     0
 77
     1
 78
     8
140
7.0
141
7.0
143
0.0394
147
1.75
171
     4
172
     1
273
     8
274
     4
277
     6
340
10
  0
DIMSTYLE
105
28
330
A
100
AcDbSymbolTableRecord
100
AcDbDimStyleTableRecord
  2
ISO1
 70
     0
 41
10.0
 42
2.5
 43
15.0
 44
5.0
 73
     0
 74
     0
 77
     1
 78
     8
140
10.0
141
10.0
143
0.0394
147
2.5
171
     4
172
     1
273
     8
274
     4
277
     6
340
10
  0
DIMSTYLE
105
29
330
A
100
AcDbSymbolTableRecord
100
AcDbDimStyleTableRecord
  2
ISO1-4
 70
     0
 41
14.0
 42
3.5
 43
21.0
 44
7.0
 74
     0
 77
     1
 78
     8
140
14.0
141
14.0
143
0.0394
145
5.599999999999998
147
3.5
172
     1
273
     8
277
     6
340
10
  0
DIMSTYLE
105
2A
330
A
100
AcDbSymbolTableRecord
100
AcDbDimStyleTableRecord
  2
ISO2
 70
     0
 41
20.0
 42
5.0
 43
30.0
 44
10.0
 73
     0
 74
     0
 77
     1
 78
     8
140
20.0
141
20.0
143
0.0394
147
5.0
171
     4
172
     1
273
     8
274
     4
277
     6
340
10
  0
DIMSTYLE
105
60
330
A
100
AcDbSymbolTableRecord
100
AcDbDimStyleTableRecord
  2
ISO-4
 70
     0
 41
14.0
 42
3.5
 43
21.0
 44
7.0
 73
     0
 74
     0
 77
     1
 78
     8
140
14.0
141
14.0
143
0.0394
147
3.5
171
     4
172
     1
273
     8
274
     4
277
     6
340
10
  0
DIMSTYLE
105
62
330
A
100
AcDbSymbolTableRecord
100
AcDbDimStyleTableRecord
  2
ISO-25
 70
     0
 41
2.5
 42
0.625
 43
3.75
 44
1.25
 73
     0
 74
     0
 77
     1
 78
     8
140
2.5
141
2.5
143
0.0394
147
0.625
171
     4
172
     1
273
     8
274
     4
277
     6
340
10
  0
DIMSTYLE
105
395
102
{ACAD_REACTORS
330
1C7D
330
1CD7
330
1D16
330
1D5F
330
1DB7
330
1DF6
330
1E35
102
}
330
A
100
AcDbSymbolTableRecord
100
AcDbDimStyleTableRecord
  2
AM_ISO
 70
     0
  4
"
 41
3.5
 42
1.0
 43
10.0
 44
1.0
 47
0.1
 48
0.1
 73
     0
 74
     0
 77
     1
 78
     8
 79
     2
 90
     1
140
3.5
141
0.0
143
0.0393701
146
0.71
147
1.5
172
     1
176
   256
177
   256
178
     2
271
     2
272
     3
274
     4
283
     0
284
     8
340
10
345
14
346
14
347
14
371
    -1
372
    -1
  0
DIMSTYLE
105
396
330
A
100
AcDbSymbolTableRecord
100
AcDbDimStyleTableRecord
  2
AM_ISO$3
 70
     0
  4
"
 41
3.5
 42
1.0
 43
10.0
 44
1.0
 47
0.1
 48
0.1
 73
     0
 77
     1
 78
     8
 79
     2
 90
     1
140
3.5
141
0.0
143
0.0393701
146
0.71
147
1.5
176
   256
177
   256
178
     2
271
     2
272
     3
274
     4
283
     0
284
     8
288
     1
289
     0
340
10
345
14
346
14
347
14
371
    -1
372
    -1
  0
DIMSTYLE
105
397
330
A
100
AcDbSymbolTableRecord
100
AcDbDimStyleTableRecord
  2
AM_ISO$4
 70
     0
  4
"
 41
3.5
 42
1.0
 43
10.0
 44
1.0
 47
0.1
 48
0.1
 73
     0
 74
     0
 77
     1
 78
     8
 79
     2
 90
     1
140
3.5
141
0.0
143
0.0393701
146
0.71
147
1.5
172
     1
176
   256
177
   256
178
     2
271
     2
272
     3
274
     4
283
     0
284
     8
340
10
345
14
346
14
347
14
371
    -1
372
    -1
  0
DIMSTYLE
105
398
330
A
100
AcDbSymbolTableRecord
100
AcDbDimStyleTableRecord
  2
AM_ISO$6
 70
     0
  4
"
 41
3.5
 42
1.0
 43
10.0
 44
1.0
 47
0.1
 48
0.1
 73
     0
 74
     0
 78
     8
 79
     2
 90
     1
140
3.5
141
0.0
143
0.0393701
146
0.71
147
1.5
172
     1
176
   256
177
   256
178
     2
271
     2
272
     3
274
     4
283
     0
284
     8
340
10
345
14
346
14
347
14
371
    -1
372
    -1
  0
DIMSTYLE
105
399
330
A
100
AcDbSymbolTableRecord
100
AcDbDimStyleTableRecord
  2
AM_ISO$7
 70
     0
  4
"
 41
3.5
 42
1.0
 43
10.0
 44
1.0
 47
0.1
 48
0.1
 73
     0
 74
     0
 77
     1
 78
     8
 79
     2
 90
     1
140
3.5
141
0.0
143
0.0393701
146
0.71
147
1.5
172
     1
176
   256
177
   256
178
     2
271
     2
272
     3
274
     4
283
     0
284
     8
340
10
345
14
346
14
347
14
371
    -1
372
    -1
  0
DIMSTYLE
105
39A
330
A
100
AcDbSymbolTableRecord
100
AcDbDimStyleTableRecord
  2
AM_ISO$SF
 70
     0
  4
"
 41
3.5
 42
1.0
 43
10.0
 44
1.0
 47
0.1
 48
0.1
 73
     0
 74
     0
 75
     1
 76
     1
 77
     1
 78
     8
 79
     2
 90
     1
140
3.5
141
0.0
143
0.0393701
146
0.71
147
1.5
172
     1
176
   256
177
   256
178
     2
271
     2
272
     3
274
     4
283
     0
284
     8
340
10
345
14
346
14
347
14
371
    -1
372
    -1
  0
DIMSTYLE
105
39F
330
A
100
AcDbSymbolTableRecord
100
AcDbDimStyleTableRecord
  2
AM_ISO$SH
 70
     0
  4
"
 41
3.5
 42
1.0
 43
10.0
 44
1.0
 47
0.1
 48
0.1
 73
     0
 74
     0
 75
     1
 76
     1
 77
     1
 78
     8
 79
     2
 90
     1
140
3.5
141
0.0
143
0.0393701
144
2.0
146
0.71
147
1.5
172
     1
173
     1
176
   256
177
   256
178
     2
271
     2
272
     3
274
     4
283
     0
284
     8
340
10
343
39B
345
14
346
14
347
14
371
    -1
372
    -1
  0
DIMSTYLE
105
1832
330
A
100
AcDbSymbolTableRecord
100
AcDbDimStyleTableRecord
  2
AM_BSI
 70
     0
  4
"
 41
4.0
 42
1.0
 43
10.0
 44
1.0
 47
0.1
 48
0.1
 73
     0
 74
     0
 77
     1
 78
     8
 79
     2
140
3.5
141
0.0
143
0.0393701
146
0.71
147
1.5
172
     1
176
   256
177
   256
178
     2
271
     2
272
     3
274
     4
283
     0
284
     8
340
10
371
    -1
372
    -1
  0
DIMSTYLE
105
1833
330
A
100
AcDbSymbolTableRecord
100
AcDbDimStyleTableRecord
  2
AM_BSI$3
 70
     0
  4
"
 41
4.0
 42
1.0
 43
10.0
 44
1.0
 47
0.1
 48
0.1
 73
     0
 77
     1
 78
     8
 79
     2
140
3.5
141
0.0
143
0.0393701
146
0.71
147
1.5
176
   256
177
   256
178
     2
271
     2
272
     3
274
     4
283
     0
284
     8
288
     1
289
     0
340
10
371
    -1
372
    -1
  0
DIMSTYLE
105
1834
330
A
100
AcDbSymbolTableRecord
100
AcDbDimStyleTableRecord
  2
AM_BSI$4
 70
     0
  4
"
 41
4.0
 42
1.0
 43
10.0
 44
1.0
 47
0.1
 48
0.1
 73
     0
 77
     1
 78
     8
 79
     2
140
3.5
141
0.0
143
0.0393701
146
0.71
147
1.5
176
   256
177
   256
178
     2
271
     2
272
     3
274
     4
283
     0
284
     8
288
     1
289
     0
340
10
371
    -1
372
    -1
  0
DIMSTYLE
105
1835
330
A
100
AcDbSymbolTableRecord
100
AcDbDimStyleTableRecord
  2
AM_BSI$6
 70
     0
  4
"
 41
4.0
 42
1.0
 43
10.0
 44
1.0
 47
0.1
 48
0.1
 73
     0
 74
     0
 78
     8
 79
     2
140
3.5
141
0.0
143
0.0393701
146
0.71
147
1.5
172
     1
176
   256
177
   256
178
     2
271
     2
272
     3
274
     4
283
     0
284
     8
340
10
371
    -1
372
    -1
  0
DIMSTYLE
105
1836
330
A
100
AcDbSymbolTableRecord
100
AcDbDimStyleTableRecord
  2
AM_BSI$7
 70
     0
  4
"
 41
2.5
 42
1.0
 43
10.0
 44
1.0
 47
0.1
 48
0.1
 73
     0
 74
     0
 77
     1
 78
     8
 79
     2
140
5.0
141
0.0
143
0.0393701
146
0.71
147
1.5
172
     1
176
   256
177
   256
178
     2
271
     2
272
     3
274
     4
283
     0
284
     8
340
10
371
    -1
372
    -1
  0
DIMSTYLE
105
1837
330
A
100
AcDbSymbolTableRecord
100
AcDbDimStyleTableRecord
  2
AM_BSI$SF
 70
     0
  4
"
 41
4.0
 42
1.0
 43
10.0
 44
1.0
 47
0.1
 48
0.1
 73
     0
 74
     0
 75
     1
 76
     1
 77
     1
 78
     8
 79
     2
140
3.5
141
0.0
143
0.0393701
146
0.71
147
1.5
172
     1
176
   256
177
   256
178
     2
271
     2
272
     3
274
     4
283
     0
284
     8
340
10
371
    -1
372
    -1
  0
DIMSTYLE
105
1838
330
A
100
AcDbSymbolTableRecord
100
AcDbDimStyleTableRecord
  2
AM_BSI$SH
 70
     0
  4
"
 41
4.0
 42
1.0
 43
10.0
 44
1.0
 47
0.1
 48
0.1
 73
     0
 74
     0
 75
     1
 76
     1
 77
     1
 78
     8
 79
     2
140
3.5
141
0.0
143
0.0393701
144
2.0
146
0.71
147
1.5
172
     1
173
     1
176
   256
177
   256
178
     2
271
     2
272
     3
274
     4
283
     0
284
     8
340
10
343
39B
371
    -1
372
    -1
  0
DIMSTYLE
105
183A
330
A
100
AcDbSymbolTableRecord
100
AcDbDimStyleTableRecord
  2
AM_DIN
 70
     0
  4
"
 41
2.5
 42
1.0
 43
10.0
 44
1.0
 47
0.1
 48
0.1
 73
     0
 74
     0
 77
     1
 78
     8
 79
     2
140
3.5
141
0.0
143
0.0393701
146
0.71
147
1.5
172
     1
176
   256
177
   256
178
     2
271
     2
272
     3
274
     4
283
     0
284
     8
340
10
371
    -1
372
    -1
  0
DIMSTYLE
105
183B
330
A
100
AcDbSymbolTableRecord
100
AcDbDimStyleTableRecord
  2
AM_DIN$3
 70
     0
  4
"
 41
2.5
 42
1.0
 43
10.0
 44
1.0
 47
0.1
 48
0.1
 73
     0
 77
     1
 78
     8
 79
     2
140
3.5
141
0.0
143
0.0393701
146
0.71
147
1.5
176
   256
177
   256
178
     2
271
     2
272
     3
274
     4
283
     0
284
     8
288
     1
289
     0
340
10
371
    -1
372
    -1
  0
DIMSTYLE
105
183C
330
A
100
AcDbSymbolTableRecord
100
AcDbDimStyleTableRecord
  2
AM_DIN$4
 70
     0
  4
"
 41
2.5
 42
1.0
 43
10.0
 44
1.0
 47
0.1
 48
0.1
 73
     0
 77
     1
 78
     8
 79
     2
140
3.5
141
0.0
143
0.0393701
146
0.71
147
1.5
176
   256
177
   256
178
     2
271
     2
272
     3
274
     4
283
     0
284
     8
288
     1
289
     0
340
10
371
    -1
372
    -1
  0
DIMSTYLE
105
183D
330
A
100
AcDbSymbolTableRecord
100
AcDbDimStyleTableRecord
  2
AM_DIN$6
 70
     0
  4
"
 41
2.5
 42
1.0
 43
10.0
 44
1.0
 47
0.1
 48
0.1
 73
     0
 74
     0
 78
     8
 79
     2
140
3.5
141
0.0
143
0.0393701
146
0.71
147
1.5
172
     1
176
   256
177
   256
178
     2
271
     2
272
     3
274
     4
283
     0
284
     8
340
10
371
    -1
372
    -1
  0
DIMSTYLE
105
183E
330
A
100
AcDbSymbolTableRecord
100
AcDbDimStyleTableRecord
  2
AM_DIN$7
 70
     0
  4
"
 41
2.5
 42
1.0
 43
10.0
 44
1.0
 47
0.1
 48
0.1
 73
     0
 74
     0
 77
     1
 78
     8
 79
     2
140
5.0
141
0.0
143
0.0393701
146
0.71
147
1.5
172
     1
176
   256
177
   256
178
     2
271
     2
272
     3
274
     4
283
     0
284
     8
340
10
371
    -1
372
    -1
  0
DIMSTYLE
105
183F
330
A
100
AcDbSymbolTableRecord
100
AcDbDimStyleTableRecord
  2
AM_DIN$SF
 70
     0
  4
"
 41
2.5
 42
1.0
 43
10.0
 44
1.0
 47
0.1
 48
0.1
 73
     0
 74
     0
 75
     1
 76
     1
 77
     1
 78
     8
 79
     2
140
3.5
141
0.0
143
0.0393701
146
0.71
147
1.5
172
     1
176
   256
177
   256
178
     2
271
     2
272
     3
274
     4
283
     0
284
     8
340
10
371
    -1
372
    -1
  0
DIMSTYLE
105
1840
330
A
100
AcDbSymbolTableRecord
100
AcDbDimStyleTableRecord
  2
AM_DIN$SH
 70
     0
  4
"
 41
2.5
 42
1.0
 43
10.0
 44
1.0
 47
0.1
 48
0.1
 73
     0
 74
     0
 75
     1
 76
     1
 77
     1
 78
     8
 79
     2
140
3.5
141
0.0
143
0.0393701
144
2.0
146
0.71
147
1.5
172
     1
173
     1
176
   256
177
   256
178
     2
271
     2
272
     3
274
     4
283
     0
284
     8
340
10
343
39B
371
    -1
372
    -1
  0
DIMSTYLE
105
1843
330
A
100
AcDbSymbolTableRecord
100
AcDbDimStyleTableRecord
  2
AM_JIS
 70
     0
  4
"
 41
2.5
 42
1.0
 43
10.0
 44
1.0
 47
0.1
 48
0.1
 73
     0
 74
     0
 77
     3
 78
     8
 79
     2
140
3.5
141
0.0
143
0.0393701
146
0.71
147
1.5
172
     1
176
   256
177
   256
178
     2
271
     2
272
     3
274
     4
283
     0
284
     8
340
10
341
1844
342
1844
343
1844
344
1844
371
    -1
372
    -1
  0
DIMSTYLE
105
184A
330
A
100
AcDbSymbolTableRecord
100
AcDbDimStyleTableRecord
  2
AM_JIS$3
 70
     0
  4
"
 41
2.5
 42
1.0
 43
10.0
 44
1.0
 47
0.1
 48
0.1
 73
     0
 77
     3
 78
     8
 79
     2
140
3.5
141
0.0
143
0.0393701
146
0.71
147
1.5
176
   256
177
   256
178
     2
271
     2
272
     3
274
     4
283
     0
284
     8
288
     1
289
     0
340
10
341
1844
342
1844
343
1844
344
1844
371
    -1
372
    -1
  0
DIMSTYLE
105
184B
330
A
100
AcDbSymbolTableRecord
100
AcDbDimStyleTableRecord
  2
AM_JIS$4
 70
     0
  4
"
 41
2.5
 42
1.0
 43
10.0
 44
1.0
 47
0.1
 48
0.1
 73
     0
 77
     3
 78
     8
 79
     2
140
3.5
141
0.0
143
0.0393701
146
0.71
147
1.5
176
   256
177
   256
178
     2
271
     2
272
     3
274
     4
283
     0
284
     8
288
     1
289
     0
340
10
341
1844
342
1844
343
1844
344
1844
371
    -1
372
    -1
  0
DIMSTYLE
105
184C
330
A
100
AcDbSymbolTableRecord
100
AcDbDimStyleTableRecord
  2
AM_JIS$6
 70
     0
  4
"
 41
2.5
 42
1.0
 43
10.0
 44
1.0
 47
0.1
 48
0.1
 73
     0
 74
     0
 78
     8
 79
     2
140
3.5
141
0.0
143
0.0393701
146
0.71
147
1.5
172
     1
176
   256
177
   256
178
     2
271
     2
272
     3
274
     4
283
     0
284
     8
340
10
341
1844
342
1844
343
1844
344
1844
371
    -1
372
    -1
  0
DIMSTYLE
105
184D
330
A
100
AcDbSymbolTableRecord
100
AcDbDimStyleTableRecord
  2
AM_JIS$7
 70
     0
  4
"
 41
2.5
 42
1.0
 43
10.0
 44
1.0
 47
0.1
 48
0.1
 73
     0
 74
     0
 77
     3
 78
     8
 79
     2
140
5.0
141
0.0
143
0.0393701
146
0.71
147
1.5
172
     1
176
   256
177
   256
178
     2
271
     2
272
     3
274
     4
283
     0
284
     8
340
10
341
1844
342
1844
343
1844
344
1844
371
    -1
372
    -1
  0
DIMSTYLE
105
184E
330
A
100
AcDbSymbolTableRecord
100
AcDbDimStyleTableRecord
  2
AM_JIS$SF
 70
     0
  4
"
 41
2.5
 42
1.0
 43
10.0
 44
1.0
 47
0.1
 48
0.1
 73
     0
 74
     0
 75
     1
 76
     1
 77
     3
 78
     8
 79
     2
140
3.5
141
0.0
143
0.0393701
146
0.71
147
1.5
172
     1
176
   256
177
   256
178
     2
271
     2
272
     3
274
     4
283
     0
284
     8
340
10
341
1844
342
1844
343
1844
344
1844
371
    -1
372
    -1
  0
DIMSTYLE
105
184F
330
A
100
AcDbSymbolTableRecord
100
AcDbDimStyleTableRecord
  2
AM_JIS$SH
 70
     0
  4
"
 41
2.5
 42
1.0
 43
10.0
 44
1.0
 47
0.1
 48
0.1
 73
     0
 74
     0
 75
     1
 76
     1
 77
     3
 78
     8
 79
     2
140
3.5
141
0.0
143
0.0393701
144
2.0
146
0.71
147
1.5
172
     1
173
     1
176
   256
177
   256
178
     2
271
     2
272
     3
274
     4
283
     0
284
     8
340
10
341
1844
342
1844
343
39B
344
1844
371
    -1
372
    -1
  0
DIMSTYLE
105
1A24
102
{ACAD_REACTORS
330
1BF0
102
}
330
A
100
AcDbSymbolTableRecord
100
AcDbDimStyleTableRecord
  2
GEN-ISO
 70
     0
  3
<>
  4
"
 41
3.0
 42
0.0
 43
10.0
 44
1.0
 47
0.1
 48
0.1
 73
     0
 74
     0
 77
     1
 78
     8
140
3.5
141
0.0
143
0.0393701
144
2.0
146
0.71
147
1.0
172
     1
176
   256
177
   256
178
     2
271
     1
272
     3
274
     4
275
     1
283
     0
284
     8
340
10
  0
DIMSTYLE
105
1A25
330
A
100
AcDbSymbolTableRecord
100
AcDbDimStyleTableRecord
  2
GEN-ANSI
 70
     0
  3
<>
  4
"
 41
3.0
 42
0.0
 43
10.0
 44
1.0
 47
0.1
 48
0.1
 78
     8
140
3.5
141
0.0
143
0.0393701
144
2.0
146
0.71
147
1.0
176
   256
177
   256
178
     2
271
     1
272
     3
274
     4
275
     1
284
     8
340
10
  0
DIMSTYLE
105
1A26
330
A
100
AcDbSymbolTableRecord
100
AcDbDimStyleTableRecord
  2
GEN-ANSI$3
 70
     0
  3
<>
  4
"
 41
3.0
 42
0.0
 43
10.0
 44
1.0
 47
0.1
 48
0.1
 78
     8
140
3.5
141
0.0
143
0.0393701
144
2.0
146
0.71
147
1.0
176
   256
177
   256
178
     2
271
     1
272
     3
274
     4
275
     1
284
     8
288
     1
289
     0
340
10
  0
DIMSTYLE
105
1A27
330
A
100
AcDbSymbolTableRecord
100
AcDbDimStyleTableRecord
  2
GEN-ANSI$4
 70
     0
  3
<>
  4
"
 41
3.0
 42
0.0
 43
10.0
 44
1.0
 47
0.1
 48
0.1
 78
     8
140
3.5
141
0.0
143
0.0393701
144
2.0
146
0.71
147
1.0
176
   256
177
   256
178
     2
271
     1
272
     3
274
     4
275
     1
284
     8
288
     1
289
     0
340
10
  0
DIMSTYLE
105
1A28
330
A
100
AcDbSymbolTableRecord
100
AcDbDimStyleTableRecord
  2
GEN-ANSI$6
 70
     0
  3
<>
  4
"
 41
3.0
 42
0.0
 43
10.0
 44
1.0
 47
0.1
 48
0.1
 78
     8
140
3.5
141
0.0
143
0.0393701
144
2.0
146
0.71
147
1.0
176
   256
177
   256
178
     2
271
     1
272
     3
274
     4
275
     1
284
     8
340
10
  0
DIMSTYLE
105
1A29
330
A
100
AcDbSymbolTableRecord
100
AcDbDimStyleTableRecord
  2
GEN-ANSI-POS
 70
     0
  3
<>
  4
"
 41
2.5
 42
0.0
 43
10.0
 44
1.0
 47
0.1
 48
0.1
 73
     0
 74
     0
 78
     8
140
5.0
141
0.0
143
0.0393701
144
2.0
146
0.71
147
1.5
176
   256
177
   256
178
     2
271
     1
272
     3
274
     4
275
     1
284
     8
340
10
  0
DIMSTYLE
105
1A2A
330
A
100
AcDbSymbolTableRecord
100
AcDbDimStyleTableRecord
  2
GEN-ANSI-AXE-F
 70
     0
  3
<>
  4
"
 41
3.0
 42
0.0
 43
10.0
 44
1.0
 47
0.1
 48
0.1
 75
     1
 76
     1
 78
     8
140
3.5
141
0.0
143
0.0393701
144
2.0
146
0.71
147
1.0
173
     1
176
   256
177
   256
178
     2
271
     1
272
     3
274
     4
275
     1
284
     8
340
10
343
39B
  0
DIMSTYLE
105
1A2B
330
A
100
AcDbSymbolTableRecord
100
AcDbDimStyleTableRecord
  2
GEN-ANSI-AXE-H
 70
     0
  3
<>
  4
"
 41
3.0
 42
0.0
 43
10.0
 44
1.0
 47
0.1
 48
0.1
 73
     0
 74
     0
 75
     1
 76
     1
 78
     8
140
3.5
141
0.0
143
0.0393701
144
2.0
146
0.71
147
1.0
172
     1
173
     1
176
   256
177
   256
178
     2
271
     1
272
     3
274
     4
275
     1
284
     8
340
10
343
39B
  0
DIMSTYLE
105
2102
102
{ACAD_REACTORS
330
1C7D
330
1CD7
330
1D16
330
1D5F
330
1DB7
330
1DF6
330
1E35
330
2104
102
}
330
A
100
AcDbSymbolTableRecord
100
AcDbDimStyleTableRecord
  2
AM_ISO$0
 70
     0
  4
"
 41
3.5
 42
1.0
 43
10.0
 44
1.0
 47
0.1
 48
0.1
 73
     0
 74
     0
 77
     1
 78
     8
 79
     2
 90
     1
140
3.5
141
0.0
143
0.0393701
146
0.71
147
1.5
172
     1
176
   256
177
   256
178
     2
271
     2
272
     3
274
     4
283
     0
284
     8
340
10
345
14
346
14
347
14
371
    -1
372
    -1
  0
ENDTAB
  0
TABLE
  2
BLOCK_RECORD
  5
1
330
0
100
AcDbSymbolTable
 70
    47
  0
BLOCK_RECORD
  5
1A
102
{ACAD_XDICTIONARY
360
12A
102
}
330
1
100
AcDbSymbolTableRecord
100
AcDbBlockTableRecord
  2
*MODEL_SPACE
340
169
 70
     0
280
     1
281
     0
  0
BLOCK_RECORD
  5
17
330
1
100
AcDbSymbolTableRecord
100
AcDbBlockTableRecord
  2
*PAPER_SPACE
340
16A
 70
     0
280
     1
281
     0
  0
BLOCK_RECORD
  5
34D
330
1
100
AcDbSymbolTableRecord
100
AcDbBlockTableRecord
  2
*Paper_Space0
340
351
 70
     0
280
     1
281
     0
  0
BLOCK_RECORD
  5
313
330
1
100
AcDbSymbolTableRecord
100
AcDbBlockTableRecord
  2
*Paper_Space1
340
314
 70
     0
280
     1
281
     0
  0
BLOCK_RECORD
  5
2E0
330
1
100
AcDbSymbolTableRecord
100
AcDbBlockTableRecord
  2
*Paper_Space2
340
2E1
 70
     0
280
     1
281
     0
  0
BLOCK_RECORD
  5
345
330
1
100
AcDbSymbolTableRecord
100
AcDbBlockTableRecord
  2
*Paper_Space3
340
349
 70
     0
280
     1
281
     0
  0
BLOCK_RECORD
  5
36E
330
1
100
AcDbSymbolTableRecord
100
AcDbBlockTableRecord
  2
*U4
340
0
 70
     0
280
     1
281
     0
  0
BLOCK_RECORD
  5
372
330
1
100
AcDbSymbolTableRecord
100
AcDbBlockTableRecord
  2
*U5
340
0
 70
     0
280
     1
281
     0
  0
BLOCK_RECORD
  5
37E
330
1
100
AcDbSymbolTableRecord
100
AcDbBlockTableRecord
  2
*U6
340
0
 70
     0
280
     1
281
     0
  0
BLOCK_RECORD
  5
382
330
1
100
AcDbSymbolTableRecord
100
AcDbBlockTableRecord
  2
*U7
340
0
 70
     0
280
     1
281
     0
  0
BLOCK_RECORD
  5
39B
330
1
100
AcDbSymbolTableRecord
100
AcDbBlockTableRecord
  2
GENAXEH
340
0
 70
     0
280
     1
281
     0
  0
BLOCK_RECORD
  5
3F8
330
1
100
AcDbSymbolTableRecord
100
AcDbBlockTableRecord
  2
AVE_RENDER
340
0
102
{BLKREFS
331
3FB
331
3FC
331
3FD
331
3FE
331
3FF
331
400
331
401
331
402
102
}
 70
     0
280
     1
281
     0
  0
BLOCK_RECORD
  5
406
330
1
100
AcDbSymbolTableRecord
100
AcDbBlockTableRecord
  2
AVE_GLOBAL
340
0
102
{BLKREFS
331
409
102
}
 70
     0
280
     1
281
     0
  0
BLOCK_RECORD
  5
594
330
1
100
AcDbSymbolTableRecord
100
AcDbBlockTableRecord
  2
*U11
340
0
 70
     0
280
     1
281
     0
  0
BLOCK_RECORD
  5
5E5
330
1
100
AcDbSymbolTableRecord
100
AcDbBlockTableRecord
  2
*U12
340
0
 70
     0
280
     1
281
     0
  0
BLOCK_RECORD
  5
1366
330
1
100
AcDbSymbolTableRecord
100
AcDbBlockTableRecord
  2
GENDOT
340
0
 70
     0
280
     1
281
     0
  0
BLOCK_RECORD
  5
1844
330
1
100
AcDbSymbolTableRecord
100
AcDbBlockTableRecord
  2
_Open30
340
0
 70
     0
280
     1
281
     0
  0
BLOCK_RECORD
  5
19BE
330
1
100
AcDbSymbolTableRecord
100
AcDbBlockTableRecord
  2
*D15
340
0
 70
     0
280
     1
281
     0
  0
BLOCK_RECORD
  5
19CA
330
1
100
AcDbSymbolTableRecord
100
AcDbBlockTableRecord
  2
*D16
340
0
 70
     0
280
     1
281
     0
  0
BLOCK_RECORD
  5
19D6
330
1
100
AcDbSymbolTableRecord
100
AcDbBlockTableRecord
  2
*D17
340
0
 70
     0
280
     1
281
     0
  0
BLOCK_RECORD
  5
19E2
330
1
100
AcDbSymbolTableRecord
100
AcDbBlockTableRecord
  2
*D18
340
0
 70
     0
280
     1
281
     0
  0
BLOCK_RECORD
  5
19EE
330
1
100
AcDbSymbolTableRecord
100
AcDbBlockTableRecord
  2
*D19
340
0
 70
     0
280
     1
281
     0
  0
BLOCK_RECORD
  5
19FC
330
1
100
AcDbSymbolTableRecord
100
AcDbBlockTableRecord
  2
*D20
340
0
 70
     0
280
     1
281
     0
  0
BLOCK_RECORD
  5
1A0A
330
1
100
AcDbSymbolTableRecord
100
AcDbBlockTableRecord
  2
*D21
340
0
 70
     0
280
     1
281
     0
  0
BLOCK_RECORD
  5
1A94
330
1
100
AcDbSymbolTableRecord
100
AcDbBlockTableRecord
  2
*D22
340
0
 70
     0
280
     1
281
     0
  0
BLOCK_RECORD
  5
1AA0
330
1
100
AcDbSymbolTableRecord
100
AcDbBlockTableRecord
  2
*D23
340
0
 70
     0
280
     1
281
     0
  0
BLOCK_RECORD
  5
1AAC
330
1
100
AcDbSymbolTableRecord
100
AcDbBlockTableRecord
  2
*D24
340
0
 70
     0
280
     1
281
     0
  0
BLOCK_RECORD
  5
1AB8
330
1
100
AcDbSymbolTableRecord
100
AcDbBlockTableRecord
  2
*D25
340
0
 70
     0
280
     1
281
     0
  0
BLOCK_RECORD
  5
1AC4
330
1
100
AcDbSymbolTableRecord
100
AcDbBlockTableRecord
  2
*D26
340
0
 70
     0
280
     1
281
     0
  0
BLOCK_RECORD
  5
1AD0
330
1
100
AcDbSymbolTableRecord
100
AcDbBlockTableRecord
  2
*D27
340
0
 70
     0
280
     1
281
     0
  0
BLOCK_RECORD
  5
1ADE
330
1
100
AcDbSymbolTableRecord
100
AcDbBlockTableRecord
  2
*D28
340
0
 70
     0
280
     1
281
     0
  0
BLOCK_RECORD
  5
1B74
330
1
100
AcDbSymbolTableRecord
100
AcDbBlockTableRecord
  2
*D29
340
0
 70
     0
280
     1
281
     0
  0
BLOCK_RECORD
  5
1B80
330
1
100
AcDbSymbolTableRecord
100
AcDbBlockTableRecord
  2
*D30
340
0
 70
     0
280
     1
281
     0
  0
BLOCK_RECORD
  5
1B8C
330
1
100
AcDbSymbolTableRecord
100
AcDbBlockTableRecord
  2
*D31
340
0
 70
     0
280
     1
281
     0
  0
BLOCK_RECORD
  5
1B98
330
1
100
AcDbSymbolTableRecord
100
AcDbBlockTableRecord
  2
*D32
340
0
 70
     0
280
     1
281
     0
  0
BLOCK_RECORD
  5
1BA4
330
1
100
AcDbSymbolTableRecord
100
AcDbBlockTableRecord
  2
*D33
340
0
 70
     0
280
     1
281
     0
  0
BLOCK_RECORD
  5
1BB2
330
1
100
AcDbSymbolTableRecord
100
AcDbBlockTableRecord
  2
*D34
340
0
 70
     0
280
     1
281
     0
  0
BLOCK_RECORD
  5
1BC0
330
1
100
AcDbSymbolTableRecord
100
AcDbBlockTableRecord
  2
*D35
340
0
 70
     0
280
     1
281
     0
  0
BLOCK_RECORD
  5
1BCC
330
1
100
AcDbSymbolTableRecord
100
AcDbBlockTableRecord
  2
A$C274174D1
340
0
 70
     0
280
     1
281
     0
  0
BLOCK_RECORD
  5
1C7E
330
1
100
AcDbSymbolTableRecord
100
AcDbBlockTableRecord
  2
*D37
340
0
 70
     0
280
     1
281
     0
  0
BLOCK_RECORD
  5
1CD8
330
1
100
AcDbSymbolTableRecord
100
AcDbBlockTableRecord
  2
*D38
340
0
 70
     0
280
     1
281
     0
  0
BLOCK_RECORD
  5
1D17
330
1
100
AcDbSymbolTableRecord
100
AcDbBlockTableRecord
  2
*D39
340
0
 70
     0
280
     1
281
     0
  0
BLOCK_RECORD
  5
1D60
330
1
100
AcDbSymbolTableRecord
100
AcDbBlockTableRecord
  2
*D40
340
0
 70
     0
280
     1
281
     0
  0
BLOCK_RECORD
  5
1DB8
330
1
100
AcDbSymbolTableRecord
100
AcDbBlockTableRecord
  2
*D41
340
0
 70
     0
280
     1
281
     0
  0
BLOCK_RECORD
  5
1DF7
330
1
100
AcDbSymbolTableRecord
100
AcDbBlockTableRecord
  2
*D42
340
0
 70
     0
280
     1
281
     0
  0
BLOCK_RECORD
  5
1E36
330
1
100
AcDbSymbolTableRecord
100
AcDbBlockTableRecord
  2
*D43
340
0
 70
     0
280
     1
281
     0
  0
BLOCK_RECORD
  5
2052
330
1
100
AcDbSymbolTableRecord
100
AcDbBlockTableRecord
  2
*U44
340
0
 70
     0
280
     1
281
     0
  0
BLOCK_RECORD
  5
2105
330
1
100
AcDbSymbolTableRecord
100
AcDbBlockTableRecord
  2
*D46
340
0
 70
     0
280
     1
281
     0
  0
ENDTAB
  0
ENDSEC
  0
SECTION
  2
BLOCKS
  0
BLOCK
  5
1B
330
1A
100
AcDbEntity
  8
0
100
AcDbBlockBegin
  2
*MODEL_SPACE
 70
     0
 10
0.0
 20
0.0
 30
0.0
  3
*MODEL_SPACE
  1

  0
ENDBLK
  5
1C
330
1A
100
AcDbEntity
  8
0
100
AcDbBlockEnd
  0
BLOCK
  5
18
330
17
100
AcDbEntity
 67
     1
  8
0
100
AcDbBlockBegin
  2
*PAPER_SPACE
 70
     0
 10
0.0
 20
0.0
 30
0.0
  3
*PAPER_SPACE
  1

  0
ENDBLK
  5
19
330
17
100
AcDbEntity
 67
     1
  8
0
100
AcDbBlockEnd
  0
BLOCK
  5
34F
330
34D
100
AcDbEntity
 67
     1
  8
0
100
AcDbBlockBegin
  2
*Paper_Space0
 70
     0
 10
0.0
 20
0.0
 30
0.0
  3
*Paper_Space0
  1

  0
VIEWPORT
  5
34E
330
34D
100
AcDbEntity
 67
     1
  8
AM_VIEWS
100
AcDbViewport
 10
577.468994140625
 20
415.4593176841736
 30
0.0
 40
1195.734595476714
 41
932.8590910236622
 68
     0
 69
     0
 12
577.468994140625
 22
415.4593176841736
 13
0.0
 23
0.0
 14
10.0
 24
10.0
 15
10.0
 25
10.0
 16
0.0
 26
0.0
 36
1.0
 17
0.0
 27
0.0
 37
0.0
 42
50.0
 43
0.0
 44
0.0
 45
932.8590910236622
 50
0.0
 51
0.0
 72
   100
331
1969
 90
    32800
  1

281
     0
 71
     1
 74
     0
110
0.0
120
0.0
130
0.0
111
1.0
121
0.0
131
0.0
112
0.0
122
1.0
132
0.0
 79
     0
146
0.0
170
     0
 61
     5
348
1EAE
292
     1
282
     1
141
0.0
142
0.0
 63
   250
421
  3355443
1001
GENIUS_GENSCREG_15
1000
PF
1040
1.0
1000
DF
1040
1.0
1000
MIN
1011
-20.39830359773191
1021
-50.97022782765748
1031
0.0
1000
MAX
1011
1175.336291878982
1021
881.8888631960048
1031
0.0
1000
FLAGS
1070
     4
1001
GENIUS_GENODEF_13
1002
{
1000
HIER
1070
     0
1002
}
1002
{
1000
MANEDIT
1070
     0
1002
}
1002
{
1000
NOSEL
1070
     0
1002
}
1002
{
1000
BEHIND
1070
     0
1002
}
1002
{
1000
OTHER
1070
     0
1002
}
1002
{
1000
REACTOR
1002
}
1001
GENIUS_GENOBJ-N-SDF_13
1002
{
1000
OWNER
1000
GEN
1002
}
  0
ENDBLK
  5
350
330
34D
100
AcDbEntity
 67
     1
  8
0
100
AcDbBlockEnd
  0
BLOCK
  5
315
330
313
100
AcDbEntity
 67
     1
  8
0
100
AcDbBlockBegin
  2
*Paper_Space1
 70
     0
 10
0.0
 20
0.0
 30
0.0
  3
*Paper_Space1
  1

  0
VIEWPORT
  5
344
330
313
100
AcDbEntity
 67
     1
  8
AM_VIEWS
100
AcDbViewport
 10
279.9926452636718
 20
204.977994441986
 30
0.0
 40
597.3137355517764
 41
465.9976808487593
 68
     0
 69
     0
 12
279.9926452636718
 22
204.977994441986
 13
0.0
 23
0.0
 14
10.0
 24
10.0
 15
10.0
 25
10.0
 16
0.0
 26
0.0
 36
1.0
 17
0.0
 27
0.0
 37
0.0
 42
50.0
 43
0.0
 44
0.0
 45
465.9976808487593
 50
0.0
 51
0.0
 72
   100
331
1969
 90
    32800
  1

281
     0
 71
     1
 74
     0
110
0.0
120
0.0
130
0.0
111
1.0
121
0.0
131
0.0
112
0.0
122
1.0
132
0.0
 79
     0
146
0.0
170
     0
 61
     5
348
1EAE
292
     1
282
     1
141
0.0
142
0.0
 63
   250
421
  3355443
1001
GENIUS_GENSCREG_15
1000
PF
1040
1.0
1000
DF
1040
1.0
1000
MIN
1011
-18.66422251221638
1021
-28.02084598239367
1031
0.0
1000
MAX
1011
578.64951303956
1021
437.9768348663657
1031
0.0
1000
FLAGS
1070
     4
1001
GENIUS_GENOBJ-N-SDF_13
1002
{
1000
OWNER
1000
GEN
1002
}
1001
GENIUS_GENODEF_13
1002
{
1000
HIER
1070
     0
1002
}
1002
{
1000
MANEDIT
1070
     0
1002
}
1002
{
1000
NOSEL
1070
     0
1002
}
1002
{
1000
BEHIND
1070
     0
1002
}
1002
{
1000
OTHER
1070
     0
1002
}
1002
{
1000
REACTOR
1002
}
  0
ENDBLK
  5
316
330
313
100
AcDbEntity
 67
     1
  8
0
100
AcDbBlockEnd
  0
BLOCK
  5
2E2
330
2E0
100
AcDbEntity
 67
     1
  8
0
100
AcDbBlockBegin
  2
*Paper_Space2
 70
     0
 10
0.0
 20
0.0
 30
0.0
  3
*Paper_Space2
  1

  0
VIEWPORT
  5
31D
330
2E0
100
AcDbEntity
 67
     1
  8
AM_VIEWS
100
AcDbViewport
 10
204.9674224853515
 20
143.4782419204711
 30
0.0
 40
422.4372280469156
 41
329.5667868615041
 68
     0
 69
     0
 12
204.9674224853515
 22
143.4782419204711
 13
0.0
 23
0.0
 14
10.0
 24
10.0
 15
10.0
 25
10.0
 16
0.0
 26
0.0
 36
1.0
 17
0.0
 27
0.0
 37
0.0
 42
50.0
 43
0.0
 44
0.0
 45
329.5667868615041
 50
0.0
 51
0.0
 72
   100
331
1969
 90
    32800
  1

281
     0
 71
     1
 74
     0
110
0.0
120
0.0
130
0.0
111
1.0
121
0.0
131
0.0
112
0.0
122
1.0
132
0.0
 79
     0
146
0.0
170
     0
 61
     5
348
1EAE
292
     1
282
     1
141
0.0
142
0.0
 63
   250
421
  3355443
1001
GENIUS_GENSCREG_15
1000
PF
1040
1.0
1000
DF
1040
1.0
1000
MIN
1011
-6.251191538106354
1021
-21.30515151028095
1031
0.0
1000
MAX
1011
416.1860365088092
1021
308.2616353512232
1031
0.0
1000
FLAGS
1070
     4
1001
GENIUS_GENODEF_13
1002
{
1000
HIER
1070
     0
1002
}
1002
{
1000
MANEDIT
1070
     0
1002
}
1002
{
1000
NOSEL
1070
     0
1002
}
1002
{
1000
BEHIND
1070
     0
1002
}
1002
{
1000
OTHER
1070
     0
1002
}
1002
{
1000
REACTOR
1002
}
1001
GENIUS_GENOBJ-N-SDF_13
1002
{
1000
OWNER
1000
GEN
1002
}
  0
ENDBLK
  5
2E3
330
2E0
100
AcDbEntity
 67
     1
  8
0
100
AcDbBlockEnd
  0
BLOCK
  5
347
330
345
100
AcDbEntity
 67
     1
  8
0
100
AcDbBlockBegin
  2
*Paper_Space3
 70
     0
 10
0.0
 20
0.0
 30
0.0
  3
*Paper_Space3
  1

  0
VIEWPORT
  5
346
330
345
100
AcDbEntity
 67
     1
  8
AM_VIEWS
100
AcDbViewport
 10
279.9926452636718
 20
204.977994441986
 30
0.0
 40
597.3137355517764
 41
465.9976808487593
 68
     0
 69
     0
 12
279.9926452636718
 22
204.977994441986
 13
0.0
 23
0.0
 14
10.0
 24
10.0
 15
10.0
 25
10.0
 16
0.0
 26
0.0
 36
1.0
 17
0.0
 27
0.0
 37
0.0
 42
50.0
 43
0.0
 44
0.0
 45
465.9976808487593
 50
0.0
 51
0.0
 72
   100
331
1969
 90
    32800
  1

281
     0
 71
     1
 74
     0
110
0.0
120
0.0
130
0.0
111
1.0
121
0.0
131
0.0
112
0.0
122
1.0
132
0.0
 79
     0
146
0.0
170
     0
 61
     5
348
1EAE
292
     1
282
     1
141
0.0
142
0.0
 63
   250
421
  3355443
1001
GENIUS_GENSCREG_15
1000
PF
1040
1.0
1000
DF
1040
1.0
1000
MIN
1011
-18.66422251221638
1021
-28.02084598239367
1031
0.0
1000
MAX
1011
578.64951303956
1021
437.9768348663657
1031
0.0
1000
FLAGS
1070
     4
1001
GENIUS_GENODEF_13
1002
{
1000
HIER
1070
     0
1002
}
1002
{
1000
MANEDIT
1070
     0
1002
}
1002
{
1000
NOSEL
1070
     0
1002
}
1002
{
1000
BEHIND
1070
     0
1002
}
1002
{
1000
OTHER
1070
     0
1002
}
1002
{
1000
REACTOR
1002
}
1001
GENIUS_GENOBJ-N-SDF_13
1002
{
1000
OWNER
1000
GEN
1002
}
  0
ENDBLK
  5
348
330
345
100
AcDbEntity
 67
     1
  8
0
100
AcDbBlockEnd
  0
BLOCK
  5
36F
330
36E
100
AcDbEntity
  8
0
100
AcDbBlockBegin
  2
*U4
 70
     1
 10
0.0
 20
0.0
 30
0.0
  3
*U4
  1

  0
ENDBLK
  5
370
330
36E
100
AcDbEntity
  8
0
100
AcDbBlockEnd
  0
BLOCK
  5
373
330
372
100
AcDbEntity
  8
0
100
AcDbBlockBegin
  2
*U5
 70
     1
 10
0.0
 20
0.0
 30
0.0
  3
*U5
  1

  0
ENDBLK
  5
374
330
372
100
AcDbEntity
  8
0
100
AcDbBlockEnd
  0
BLOCK
  5
37F
330
37E
100
AcDbEntity
  8
0
100
AcDbBlockBegin
  2
*U6
 70
     1
 10
0.0
 20
0.0
 30
0.0
  3
*U6
  1

  0
ENDBLK
  5
380
330
37E
100
AcDbEntity
  8
0
100
AcDbBlockEnd
  0
BLOCK
  5
383
330
382
100
AcDbEntity
  8
0
100
AcDbBlockBegin
  2
*U7
 70
     1
 10
0.0
 20
0.0
 30
0.0
  3
*U7
  1

  0
ENDBLK
  5
384
330
382
100
AcDbEntity
  8
0
100
AcDbBlockEnd
  0
BLOCK
  5
1F92
330
39B
100
AcDbEntity
  8
0
100
AcDbBlockBegin
  2
GENAXEH
 70
     0
 10
0.0
 20
0.0
 30
0.0
  3
GENAXEH
  1

  0
LINE
  5
1F93
330
39B
100
AcDbEntity
  8
0
100
AcDbLine
 10
-1.0
 20
0.0
 30
0.0
 11
1.0
 21
0.0
 31
0.0
  0
ENDBLK
  5
1F94
330
39B
100
AcDbEntity
  8
0
100
AcDbBlockEnd
  0
BLOCK
  5
3F9
330
3F8
100
AcDbEntity
  8
ASHADE
100
AcDbBlockBegin
  2
AVE_RENDER
 70
     0
 10
0.0
 20
0.0
 30
0.0
  3
AVE_RENDER
  1
AVE_RENDER
  0
ENDBLK
  5
3FA
330
3F8
100
AcDbEntity
  8
0
100
AcDbBlockEnd
  0
BLOCK
  5
407
330
406
100
AcDbEntity
  8
ASHADE
100
AcDbBlockBegin
  2
AVE_GLOBAL
 70
     0
 10
0.0
 20
0.0
 30
0.0
  3
AVE_GLOBAL
  1
AVE_GLOBAL
  0
ENDBLK
  5
408
330
406
100
AcDbEntity
  8
0
100
AcDbBlockEnd
  0
BLOCK
  5
595
330
594
100
AcDbEntity
  8
0
100
AcDbBlockBegin
  2
*U11
 70
     1
 10
0.0
 20
0.0
 30
0.0
  3
*U11
  1

  0
ENDBLK
  5
596
330
594
100
AcDbEntity
  8
0
100
AcDbBlockEnd
  0
BLOCK
  5
5E6
330
5E5
100
AcDbEntity
  8
0
100
AcDbBlockBegin
  2
*U12
 70
     1
 10
0.0
 20
0.0
 30
0.0
  3
*U12
  1

  0
ENDBLK
  5
5E7
330
5E5
100
AcDbEntity
  8
0
100
AcDbBlockEnd
  0
BLOCK
  5
1369
330
1366
100
AcDbEntity
  8
0
100
AcDbBlockBegin
  2
GENDOT
 70
     0
 10
0.0
 20
0.0
 30
0.0
  3
GENDOT
  1

  0
LINE
  5
1367
330
1366
100
AcDbEntity
  8
0
100
AcDbLine
 10
0.0
 20
0.0
 30
0.0
 11
-1.0
 21
0.0
 31
0.0
  0
LWPOLYLINE
  5
1368
330
1366
100
AcDbEntity
  8
0
100
AcDbPolyline
 90
        2
 70
     1
 43
0.25
 10
-0.125
 20
0.0
 42
1.0
 10
0.125
 20
0.0
 42
1.0
  0
ENDBLK
  5
136A
330
1366
100
AcDbEntity
  8
0
100
AcDbBlockEnd
  0
BLOCK
  5
2017
330
1844
100
AcDbEntity
  8
0
100
AcDbBlockBegin
  2
_Open30
 70
     0
 10
0.0
 20
0.0
 30
0.0
  3
_Open30
  1

  0
LINE
  5
2018
330
1844
100
AcDbEntity
  8
0
  6
ByBlock
 62
     0
370
    -2
100
AcDbLine
 10
-1.0
 20
0.26794919
 30
0.0
 11
0.0
 21
0.0
 31
0.0
  0
LINE
  5
2019
330
1844
100
AcDbEntity
  8
0
  6
ByBlock
 62
     0
370
    -2
100
AcDbLine
 10
0.0
 20
0.0
 30
0.0
 11
-1.0
 21
-0.26794919
 31
0.0
  0
LINE
  5
201A
330
1844
100
AcDbEntity
  8
0
  6
ByBlock
 62
     0
370
    -2
100
AcDbLine
 10
0.0
 20
0.0
 30
0.0
 11
-1.0
 21
0.0
 31
0.0
  0
ENDBLK
  5
201B
330
1844
100
AcDbEntity
  8
0
100
AcDbBlockEnd
  0
BLOCK
  5
19C8
330
19BE
100
AcDbEntity
  8
0
100
AcDbBlockBegin
  2
*D15
 70
     1
 10
0.0
 20
0.0
 30
0.0
  3
*D15
  1
GEVFRAME
  0
LINE
  5
19BF
330
19BE
100
AcDbEntity
  8
0
  6
ByBlock
100
AcDbLine
 10
-20.000002
 20
50.000004
 30
0.0
 11
-44.050301
 21
50.000004
 31
0.0
  0
LINE
  5
19C0
330
19BE
100
AcDbEntity
  8
0
  6
ByBlock
100
AcDbLine
 10
-20.000002
 20
-10.000005
 30
0.0
 11
-44.050301
 21
-10.00000499999999
 31
0.0
  0
LINE
  5
19C1
330
19BE
100
AcDbEntity
  8
0
  6
ByBlock
100
AcDbLine
 10
-43.05030099999998
 20
47.00000399999999
 30
0.0
 11
-43.05030099999998
 21
-7.000004999999998
 31
0.0
  0
SOLID
  5
19C2
330
19BE
100
AcDbEntity
  8
0
  6
ByBlock
100
AcDbTrace
 10
-43.55030099999999
 20
47.00000399999999
 30
0.0
 11
-42.55030099999999
 21
47.00000399999999
 31
0.0
 12
-43.05030099999998
 22
50.000004
 32
0.0
 13
-43.05030099999998
 23
50.000004
 33
0.0
  0
SOLID
  5
19C3
330
19BE
100
AcDbEntity
  8
0
  6
ByBlock
100
AcDbTrace
 10
-43.55030099999999
 20
-7.000004999999998
 30
0.0
 11
-42.55030099999999
 21
-7.000004999999998
 31
0.0
 12
-43.05030099999998
 22
-10.00000499999999
 32
0.0
 13
-43.05030099999998
 23
-10.00000499999999
 33
0.0
  0
MTEXT
  5
19C4
330
19BE
100
AcDbEntity
  8
0
  6
ByBlock
 62
     2
100
AcDbMText
 10
-45.80064548818897
 20
20.0
 30
0.0
 40
3.5
 41
0.0
 46
0.0
 71
     5
 72
     1
  1
\A1;120
 11
0.0000000000000001
 21
1.0
 31
0.0
 73
     1
 44
1.0
  0
POINT
  5
19C5
330
19BE
100
AcDbEntity
  8
Defpoints
  6
ByBlock
 62
     0
100
AcDbPoint
 10
-20.000002
 20
50.000004
 30
0.0
  0
POINT
  5
19C6
330
19BE
100
AcDbEntity
  8
Defpoints
  6
ByBlock
 62
     0
100
AcDbPoint
 10
-20.000002
 20
-10.000005
 30
0.0
  0
POINT
  5
19C7
330
19BE
100
AcDbEntity
  8
Defpoints
  6
ByBlock
 62
     0
100
AcDbPoint
 10
-43.05030099999998
 20
-10.00000499999999
 30
0.0
  0
ENDBLK
  5
19C9
330
19BE
100
AcDbEntity
  8
0
100
AcDbBlockEnd
  0
BLOCK
  5
19D4
330
19CA
100
AcDbEntity
  8
0
100
AcDbBlockBegin
  2
*D16
 70
     1
 10
0.0
 20
0.0
 30
0.0
  3
*D16
  1
GEVFRAME
  0
LINE
  5
19CB
330
19CA
100
AcDbEntity
  8
0
  6
ByBlock
100
AcDbLine
 10
-22.913729
 20
-6.500004999999998
 30
0.0
 11
-33.712059
 21
-6.500004999999998
 31
0.0
  0
LINE
  5
19CC
330
19CA
100
AcDbEntity
  8
0
  6
ByBlock
100
AcDbLine
 10
-22.913729
 20
46.50000399999998
 30
0.0
 11
-33.712059
 21
46.50000399999998
 31
0.0
  0
LINE
  5
19CD
330
19CA
100
AcDbEntity
  8
0
  6
ByBlock
100
AcDbLine
 10
-32.712059
 20
-3.500004999999998
 30
0.0
 11
-32.712059
 21
43.50000399999998
 31
0.0
  0
SOLID
  5
19CE
330
19CA
100
AcDbEntity
  8
0
  6
ByBlock
100
AcDbTrace
 10
-33.21205900000001
 20
-3.500004999999998
 30
0.0
 11
-32.21205900000001
 21
-3.500004999999998
 31
0.0
 12
-32.712059
 22
-6.500004999999998
 32
0.0
 13
-32.712059
 23
-6.500004999999998
 33
0.0
  0
SOLID
  5
19CF
330
19CA
100
AcDbEntity
  8
0
  6
ByBlock
100
AcDbTrace
 10
-33.21205900000001
 20
43.50000399999998
 30
0.0
 11
-32.21205900000001
 21
43.50000399999998
 31
0.0
 12
-32.712059
 22
46.50000399999998
 32
0.0
 13
-32.712059
 23
46.50000399999998
 33
0.0
  0
MTEXT
  5
19D0
330
19CA
100
AcDbEntity
  8
0
  6
ByBlock
 62
     2
100
AcDbMText
 10
-35.462059
 20
20.0
 30
0.0
 40
3.5
 41
0.0
 46
0.0
 71
     5
 72
     1
  1
\A1;106
 11
0.0000000000000001
 21
1.0
 31
0.0
 73
     1
 44
1.0
  0
POINT
  5
19D1
330
19CA
100
AcDbEntity
  8
Defpoints
  6
ByBlock
 62
     0
100
AcDbPoint
 10
-22.913729
 20
-6.500004999999998
 30
0.0
  0
POINT
  5
19D2
330
19CA
100
AcDbEntity
  8
Defpoints
  6
ByBlock
 62
     0
100
AcDbPoint
 10
-22.913729
 20
46.50000399999998
 30
0.0
  0
POINT
  5
19D3
330
19CA
100
AcDbEntity
  8
Defpoints
  6
ByBlock
 62
     0
100
AcDbPoint
 10
-32.712059
 20
46.50000399999998
 30
0.0
  0
ENDBLK
  5
19D5
330
19CA
100
AcDbEntity
  8
0
100
AcDbBlockEnd
  0
BLOCK
  5
19E0
330
19D6
100
AcDbEntity
  8
0
100
AcDbBlockBegin
  2
*D17
 70
     1
 10
0.0
 20
0.0
 30
0.0
  3
*D17
  1
GEVFRAME
  0
LINE
  5
19D7
330
19D6
100
AcDbEntity
  8
0
  6
ByBlock
100
AcDbLine
 10
0.000001
 20
50.000004
 30
0.0
 11
0.0000010000000012
 21
70.076149
 31
0.0
  0
LINE
  5
19D8
330
19D6
100
AcDbEntity
  8
0
  6
ByBlock
100
AcDbLine
 10
-20.000004
 20
50.000004
 30
0.0
 11
-20.000004
 21
70.076149
 31
0.0
  0
LINE
  5
19D9
330
19D6
100
AcDbEntity
  8
0
  6
ByBlock
100
AcDbLine
 10
-2.999998999999998
 20
69.076149
 30
0.0
 11
-17.000004
 21
69.076149
 31
0.0
  0
SOLID
  5
19DA
330
19D6
100
AcDbEntity
  8
0
  6
ByBlock
100
AcDbTrace
 10
-2.999998999999998
 20
69.576149
 30
0.0
 11
-2.999998999999998
 21
68.576149
 31
0.0
 12
0.0000010000000012
 22
69.076149
 32
0.0
 13
0.0000010000000012
 23
69.076149
 33
0.0
  0
SOLID
  5
19DB
330
19D6
100
AcDbEntity
  8
0
  6
ByBlock
100
AcDbTrace
 10
-17.000004
 20
69.576149
 30
0.0
 11
-17.000004
 21
68.576149
 31
0.0
 12
-20.000004
 22
69.076149
 32
0.0
 13
-20.000004
 23
69.076149
 33
0.0
  0
MTEXT
  5
19DC
330
19D6
100
AcDbEntity
  8
0
  6
ByBlock
 62
     2
100
AcDbMText
 10
-10.0
 20
71.826149
 30
0.0
 40
3.5
 41
0.0
 46
0.0
 71
     5
 72
     1
  1
\A1;40
 73
     1
 44
1.0
  0
POINT
  5
19DD
330
19D6
100
AcDbEntity
  8
Defpoints
  6
ByBlock
 62
     0
100
AcDbPoint
 10
0.000001
 20
50.000004
 30
0.0
  0
POINT
  5
19DE
330
19D6
100
AcDbEntity
  8
Defpoints
  6
ByBlock
 62
     0
100
AcDbPoint
 10
-20.000004
 20
50.000004
 30
0.0
  0
POINT
  5
19DF
330
19D6
100
AcDbEntity
  8
Defpoints
  6
ByBlock
 62
     0
100
AcDbPoint
 10
-20.000004
 20
69.076149
 30
0.0
  0
ENDBLK
  5
19E1
330
19D6
100
AcDbEntity
  8
0
100
AcDbBlockEnd
  0
BLOCK
  5
19EC
330
19E2
100
AcDbEntity
  8
0
100
AcDbBlockBegin
  2
*D18
 70
     1
 10
0.0
 20
0.0
 30
0.0
  3
*D18
  1
GEVFRAME
  0
LINE
  5
19E3
330
19E2
100
AcDbEntity
  8
0
  6
ByBlock
100
AcDbLine
 10
-3.5
 20
48.75660299999999
 30
0.0
 11
-3.499999999999998
 21
61.480186
 31
0.0
  0
LINE
  5
19E4
330
19E2
100
AcDbEntity
  8
0
  6
ByBlock
100
AcDbLine
 10
-16.500002
 20
48.75660299999999
 30
0.0
 11
-16.500002
 21
61.480186
 31
0.0
  0
LINE
  5
19E5
330
19E2
100
AcDbEntity
  8
0
  6
ByBlock
100
AcDbLine
 10
-6.499999999999999
 20
60.48018599999999
 30
0.0
 11
-13.50000199999999
 21
60.48018599999999
 31
0.0
  0
SOLID
  5
19E6
330
19E2
100
AcDbEntity
  8
0
  6
ByBlock
100
AcDbTrace
 10
-6.499999999999999
 20
60.98018599999999
 30
0.0
 11
-6.499999999999999
 21
59.98018599999999
 31
0.0
 12
-3.499999999999998
 22
60.48018599999999
 32
0.0
 13
-3.499999999999998
 23
60.48018599999999
 33
0.0
  0
SOLID
  5
19E7
330
19E2
100
AcDbEntity
  8
0
  6
ByBlock
100
AcDbTrace
 10
-13.50000199999999
 20
60.98018599999999
 30
0.0
 11
-13.50000199999999
 21
59.98018599999999
 31
0.0
 12
-16.500002
 22
60.48018599999999
 32
0.0
 13
-16.500002
 23
60.48018599999999
 33
0.0
  0
MTEXT
  5
19E8
330
19E2
100
AcDbEntity
  8
0
  6
ByBlock
 62
     2
100
AcDbMText
 10
-10.0
 20
63.23053048818898
 30
0.0
 40
3.5
 41
0.0
 46
0.0
 71
     5
 72
     1
  1
\A1;26
 73
     1
 44
1.0
  0
POINT
  5
19E9
330
19E2
100
AcDbEntity
  8
Defpoints
  6
ByBlock
 62
     0
100
AcDbPoint
 10
-3.5
 20
48.75660299999999
 30
0.0
  0
POINT
  5
19EA
330
19E2
100
AcDbEntity
  8
Defpoints
  6
ByBlock
 62
     0
100
AcDbPoint
 10
-16.500002
 20
48.75660299999999
 30
0.0
  0
POINT
  5
19EB
330
19E2
100
AcDbEntity
  8
Defpoints
  6
ByBlock
 62
     0
100
AcDbPoint
 10
-16.500002
 20
60.48018599999999
 30
0.0
  0
ENDBLK
  5
19ED
330
19E2
100
AcDbEntity
  8
0
100
AcDbBlockEnd
  0
BLOCK
  5
19FA
330
19EE
100
AcDbEntity
  8
0
100
AcDbBlockBegin
  2
*D19
 70
     1
 10
0.0
 20
0.0
 30
0.0
  3
*D19
  1
GEVFRAME
  0
LINE
  5
19EF
330
19EE
100
AcDbEntity
  8
0
  6
ByBlock
100
AcDbLine
 10
59.49999599999999
 20
50.000011
 30
0.0
 11
59.49999599999999
 21
59.80649200000001
 31
0.0
  0
LINE
  5
19F0
330
19EE
100
AcDbEntity
  8
0
  6
ByBlock
100
AcDbLine
 10
59.99999599999999
 20
50.000011
 30
0.0
 11
59.99999599999999
 21
59.80649200000001
 31
0.0
  0
LINE
  5
19F1
330
19EE
100
AcDbEntity
  8
0
  6
ByBlock
100
AcDbLine
 10
56.49999600000001
 20
58.806492
 30
0.0
 11
53.499996
 21
58.806492
 31
0.0
  0
LINE
  5
19F2
330
19EE
100
AcDbEntity
  8
0
  6
ByBlock
100
AcDbLine
 10
62.99999599999999
 20
58.806492
 30
0.0
 11
70.09531600000001
 21
58.806492
 31
0.0
  0
LINE
  5
19F3
330
19EE
100
AcDbEntity
  8
0
  6
ByBlock
100
AcDbLine
 10
59.49999599999999
 20
58.806492
 30
0.0
 11
59.99999599999999
 21
58.806492
 31
0.0
  0
SOLID
  5
19F4
330
19EE
100
AcDbEntity
  8
0
  6
ByBlock
100
AcDbTrace
 10
56.49999600000001
 20
59.30649200000001
 30
0.0
 11
56.49999600000001
 21
58.30649199999999
 31
0.0
 12
59.49999599999999
 22
58.806492
 32
0.0
 13
59.49999599999999
 23
58.806492
 33
0.0
  0
SOLID
  5
19F5
330
19EE
100
AcDbEntity
  8
0
  6
ByBlock
100
AcDbTrace
 10
62.99999599999999
 20
59.30649200000001
 30
0.0
 11
62.99999599999999
 21
58.30649199999999
 31
0.0
 12
59.99999599999999
 22
58.806492
 32
0.0
 13
59.99999599999999
 23
58.806492
 33
0.0
  0
MTEXT
  5
19F6
330
19EE
100
AcDbEntity
  8
0
  6
ByBlock
 62
     2
100
AcDbMText
 10
68.745316
 20
61.556492
 30
0.0
 40
3.5
 41
0.0
 46
0.0
 71
     5
 72
     1
  1
\A1;1
 73
     1
 44
1.0
  0
POINT
  5
19F7
330
19EE
100
AcDbEntity
  8
Defpoints
  6
ByBlock
 62
     0
100
AcDbPoint
 10
59.49999599999999
 20
50.000011
 30
0.0
  0
POINT
  5
19F8
330
19EE
100
AcDbEntity
  8
Defpoints
  6
ByBlock
 62
     0
100
AcDbPoint
 10
59.99999599999999
 20
50.000011
 30
0.0
  0
POINT
  5
19F9
330
19EE
100
AcDbEntity
  8
Defpoints
  6
ByBlock
 62
     0
100
AcDbPoint
 10
59.99999599999999
 20
58.806492
 30
0.0
  0
ENDBLK
  5
19FB
330
19EE
100
AcDbEntity
  8
0
100
AcDbBlockEnd
  0
BLOCK
  5
1A08
330
19FC
100
AcDbEntity
  8
0
100
AcDbBlockBegin
  2
*D20
 70
     1
 10
0.0
 20
0.0
 30
0.0
  3
*D20
  1
GEVFRAME
  0
LINE
  5
19FD
330
19FC
100
AcDbEntity
  8
0
  6
ByBlock
100
AcDbLine
 10
54.64999399999999
 20
20.0
 30
0.0
 11
54.64999399999999
 21
68.69961499999999
 31
0.0
  0
LINE
  5
19FE
330
19FC
100
AcDbEntity
  8
0
  6
ByBlock
100
AcDbLine
 10
59.99999599999999
 20
50.000011
 30
0.0
 11
59.99999599999999
 21
68.69961499999999
 31
0.0
  0
LINE
  5
19FF
330
19FC
100
AcDbEntity
  8
0
  6
ByBlock
100
AcDbLine
 10
51.649994
 20
67.69961499999999
 30
0.0
 11
48.649994
 21
67.69961499999999
 31
0.0
  0
LINE
  5
1A00
330
19FC
100
AcDbEntity
  8
0
  6
ByBlock
100
AcDbLine
 10
62.99999599999999
 20
67.69961499999999
 30
0.0
 11
65.99999600000001
 21
67.69961499999999
 31
0.0
  0
LINE
  5
1A01
330
19FC
100
AcDbEntity
  8
0
  6
ByBlock
100
AcDbLine
 10
54.64999399999999
 20
67.69961499999999
 30
0.0
 11
59.99999599999999
 21
67.69961499999999
 31
0.0
  0
SOLID
  5
1A02
330
19FC
100
AcDbEntity
  8
0
  6
ByBlock
100
AcDbTrace
 10
51.649994
 20
68.19961499999999
 30
0.0
 11
51.649994
 21
67.19961500000001
 31
0.0
 12
54.64999399999999
 22
67.69961499999999
 32
0.0
 13
54.64999399999999
 23
67.69961499999999
 33
0.0
  0
SOLID
  5
1A03
330
19FC
100
AcDbEntity
  8
0
  6
ByBlock
100
AcDbTrace
 10
62.99999599999999
 20
68.19961499999999
 30
0.0
 11
62.99999599999999
 21
67.19961500000001
 31
0.0
 12
59.99999599999999
 22
67.69961499999999
 32
0.0
 13
59.99999599999999
 23
67.69961499999999
 33
0.0
  0
MTEXT
  5
1A04
330
19FC
100
AcDbEntity
  8
0
  6
ByBlock
 62
     2
100
AcDbMText
 10
57.32499499999999
 20
70.44961499999998
 30
0.0
 40
3.5
 41
0.0
 46
0.0
 71
     5
 72
     1
  1
\A1;10.7
 73
     1
 44
1.0
  0
POINT
  5
1A05
330
19FC
100
AcDbEntity
  8
Defpoints
  6
ByBlock
 62
     0
100
AcDbPoint
 10
54.64999399999999
 20
20.0
 30
0.0
  0
POINT
  5
1A06
330
19FC
100
AcDbEntity
  8
Defpoints
  6
ByBlock
 62
     0
100
AcDbPoint
 10
59.99999599999999
 20
50.000011
 30
0.0
  0
POINT
  5
1A07
330
19FC
100
AcDbEntity
  8
Defpoints
  6
ByBlock
 62
     0
100
AcDbPoint
 10
59.99999599999999
 20
67.69961499999999
 30
0.0
  0
ENDBLK
  5
1A09
330
19FC
100
AcDbEntity
  8
0
100
AcDbBlockEnd
  0
BLOCK
  5
1A14
330
1A0A
100
AcDbEntity
  8
0
100
AcDbBlockBegin
  2
*D21
 70
     1
 10
0.0
 20
0.0
 30
0.0
  3
*D21
  1
GEVFRAME
  0
LINE
  5
1A0B
330
1A0A
100
AcDbEntity
  8
0
  6
ByBlock
100
AcDbLine
 10
59.49999599999999
 20
41.000018
 30
0.0
 11
45.57063257327228
 21
41.000018
 31
0.0
  0
LINE
  5
1A0C
330
1A0A
100
AcDbEntity
  8
0
  6
ByBlock
100
AcDbLine
 10
59.49999599999999
 20
-1.000018
 30
0.0
 11
45.57063257327228
 21
-1.000017999999998
 31
0.0
  0
LINE
  5
1A0D
330
1A0A
100
AcDbEntity
  8
0
  6
ByBlock
100
AcDbLine
 10
46.57063257327228
 20
38.000018
 30
0.0
 11
46.57063257327228
 21
1.999981999999999
 31
0.0
  0
SOLID
  5
1A0E
330
1A0A
100
AcDbEntity
  8
0
  6
ByBlock
100
AcDbTrace
 10
46.07063257327228
 20
38.000018
 30
0.0
 11
47.07063257327228
 21
38.000018
 31
0.0
 12
46.57063257327228
 22
41.000018
 32
0.0
 13
46.57063257327228
 23
41.000018
 33
0.0
  0
SOLID
  5
1A0F
330
1A0A
100
AcDbEntity
  8
0
  6
ByBlock
100
AcDbTrace
 10
46.07063257327228
 20
1.999981999999999
 30
0.0
 11
47.07063257327228
 21
1.999981999999999
 31
0.0
 12
46.57063257327228
 22
-1.000017999999998
 32
0.0
 13
46.57063257327228
 23
-1.000017999999998
 33
0.0
  0
MTEXT
  5
1A10
330
1A0A
100
AcDbEntity
  8
0
  6
ByBlock
 62
     2
100
AcDbMText
 10
43.82063257327228
 20
20.0
 30
0.0
 40
3.5
 41
0.0
 46
0.0
 71
     5
 72
     1
  1
84
 11
0.0000000000000001
 21
1.0
 31
0.0
 73
     1
 44
1.0
  0
POINT
  5
1A11
330
1A0A
100
AcDbEntity
  8
Defpoints
  6
ByBlock
 62
     0
100
AcDbPoint
 10
59.49999599999999
 20
41.000018
 30
0.0
  0
POINT
  5
1A12
330
1A0A
100
AcDbEntity
  8
Defpoints
  6
ByBlock
 62
     0
100
AcDbPoint
 10
59.49999599999999
 20
-1.000018
 30
0.0
  0
POINT
  5
1A13
330
1A0A
100
AcDbEntity
  8
Defpoints
  6
ByBlock
 62
     0
100
AcDbPoint
 10
46.57063257327228
 20
-1.000017999999998
 30
0.0
  0
ENDBLK
  5
1A15
330
1A0A
100
AcDbEntity
  8
0
100
AcDbBlockEnd
  0
BLOCK
  5
1A9E
330
1A94
100
AcDbEntity
  8
0
100
AcDbBlockBegin
  2
*D22
 70
     1
 10
0.0
 20
0.0
 30
0.0
  3
*D22
  1

  0
LINE
  5
1C15
330
1A94
100
AcDbEntity
  8
5
 62
     0
370
    -2
100
AcDbLine
 10
78.8144692353402
 20
226.1160149811582
 30
0.0
 11
32.08887123534025
 21
226.1160149811583
 31
0.0
  0
LINE
  5
1C16
330
1A94
100
AcDbEntity
  8
5
 62
     0
370
    -2
100
AcDbLine
 10
78.8144692353402
 20
106.1159969811583
 30
0.0
 11
32.08887123534022
 21
106.1159969811583
 31
0.0
  0
LINE
  5
1C17
330
1A94
100
AcDbEntity
  8
5
 62
     0
370
    -2
100
AcDbLine
 10
33.33887123534025
 20
223.6160149811583
 30
0.0
 11
33.33887123534022
 21
108.6159969811583
 31
0.0
  0
SOLID
  5
1C18
330
1A94
100
AcDbEntity
  8
5
 62
     0
100
AcDbTrace
 10
32.92220456867358
 20
223.6160149811583
 30
0.0
 11
33.75553790200692
 21
223.6160149811583
 31
0.0
 12
33.33887123534025
 22
226.1160149811583
 32
0.0
 13
33.33887123534025
 23
226.1160149811583
 33
0.0
  0
SOLID
  5
1C19
330
1A94
100
AcDbEntity
  8
5
 62
     0
100
AcDbTrace
 10
32.92220456867355
 20
108.6159969811583
 30
0.0
 11
33.75553790200688
 21
108.6159969811583
 31
0.0
 12
33.33887123534022
 22
106.1159969811583
 32
0.0
 13
33.33887123534022
 23
106.1159969811583
 33
0.0
  0
MTEXT
  5
1C1A
330
1A94
100
AcDbEntity
  8
5
 62
     0
100
AcDbMText
 10
31.46362517234808
 20
166.1160069811583
 30
0.0
 40
2.5
 41
0.0
 46
0.0
 71
     5
 72
     1
  1
\A1;120
 11
0.0000000000000001
 21
1.0
 31
0.0
 73
     1
 44
1.0
  0
POINT
  5
1C1B
330
1A94
100
AcDbEntity
  8
Defpoints
 62
     0
100
AcDbPoint
 10
79.4394692353402
 20
226.1160149811582
 30
0.0
  0
POINT
  5
1C1C
330
1A94
100
AcDbEntity
  8
Defpoints
 62
     0
100
AcDbPoint
 10
79.4394692353402
 20
106.1159969811583
 30
0.0
  0
POINT
  5
1C1D
330
1A94
100
AcDbEntity
  8
Defpoints
 62
     0
100
AcDbPoint
 10
33.33887123534022
 20
106.1159969811583
 30
0.0
  0
ENDBLK
  5
1A9F
330
1A94
100
AcDbEntity
  8
0
100
AcDbBlockEnd
  0
BLOCK
  5
1AAA
330
1AA0
100
AcDbEntity
  8
0
100
AcDbBlockBegin
  2
*D23
 70
     1
 10
0.0
 20
0.0
 30
0.0
  3
*D23
  1

  0
LINE
  5
1C0C
330
1AA0
100
AcDbEntity
  8
5
 62
     0
370
    -2
100
AcDbLine
 10
72.98701523534018
 20
113.1159969811583
 30
0.0
 11
52.76535523534017
 21
113.1159969811583
 31
0.0
  0
LINE
  5
1C0D
330
1AA0
100
AcDbEntity
  8
5
 62
     0
370
    -2
100
AcDbLine
 10
72.98701523534018
 20
219.1160149811583
 30
0.0
 11
52.76535523534022
 21
219.1160149811583
 31
0.0
  0
LINE
  5
1C0E
330
1AA0
100
AcDbEntity
  8
5
 62
     0
370
    -2
100
AcDbLine
 10
54.01535523534017
 20
115.6159969811583
 30
0.0
 11
54.01535523534022
 21
216.6160149811583
 31
0.0
  0
SOLID
  5
1C0F
330
1AA0
100
AcDbEntity
  8
5
 62
     0
100
AcDbTrace
 10
53.59868856867352
 20
115.6159969811583
 30
0.0
 11
54.43202190200685
 21
115.6159969811583
 31
0.0
 12
54.01535523534017
 22
113.1159969811583
 32
0.0
 13
54.01535523534017
 23
113.1159969811583
 33
0.0
  0
SOLID
  5
1C10
330
1AA0
100
AcDbEntity
  8
5
 62
     0
100
AcDbTrace
 10
53.59868856867354
 20
216.6160149811583
 30
0.0
 11
54.43202190200686
 21
216.6160149811583
 31
0.0
 12
54.01535523534022
 22
219.1160149811583
 32
0.0
 13
54.01535523534022
 23
219.1160149811583
 33
0.0
  0
MTEXT
  5
1C11
330
1AA0
100
AcDbEntity
  8
5
 62
     0
100
AcDbMText
 10
52.14035523534017
 20
166.1160069811583
 30
0.0
 40
2.5
 41
0.0
 46
0.0
 71
     5
 72
     1
  1
\A1;106
 11
0.0000000000000001
 21
1.0
 31
0.0
 73
     1
 44
1.0
  0
POINT
  5
1C12
330
1AA0
100
AcDbEntity
  8
Defpoints
 62
     0
100
AcDbPoint
 10
73.61201523534018
 20
113.1159969811583
 30
0.0
  0
POINT
  5
1C13
330
1AA0
100
AcDbEntity
  8
Defpoints
 62
     0
100
AcDbPoint
 10
73.61201523534018
 20
219.1160149811583
 30
0.0
  0
POINT
  5
1C14
330
1AA0
100
AcDbEntity
  8
Defpoints
 62
     0
100
AcDbPoint
 10
54.01535523534022
 20
219.1160149811583
 30
0.0
  0
ENDBLK
  5
1AAB
330
1AA0
100
AcDbEntity
  8
0
100
AcDbBlockEnd
  0
BLOCK
  5
1AB6
330
1AAC
100
AcDbEntity
  8
0
100
AcDbBlockBegin
  2
*D24
 70
     1
 10
0.0
 20
0.0
 30
0.0
  3
*D24
  1

  0
LINE
  5
1C1E
330
1AAC
100
AcDbEntity
  8
5
 62
     0
370
    -2
100
AcDbLine
 10
119.4394752353401
 20
226.7410149811583
 30
0.0
 11
119.4394752353401
 21
265.5183049811582
 31
0.0
  0
LINE
  5
1C1F
330
1AAC
100
AcDbEntity
  8
5
 62
     0
370
    -2
100
AcDbLine
 10
79.43946523534018
 20
226.7410149811583
 30
0.0
 11
79.43946523534018
 21
265.5183049811582
 31
0.0
  0
LINE
  5
1C20
330
1AAC
100
AcDbEntity
  8
5
 62
     0
370
    -2
100
AcDbLine
 10
116.9394752353401
 20
264.2683049811582
 30
0.0
 11
81.93946523534018
 21
264.2683049811582
 31
0.0
  0
SOLID
  5
1C21
330
1AAC
100
AcDbEntity
  8
5
 62
     0
100
AcDbTrace
 10
116.9394752353401
 20
264.6849716478249
 30
0.0
 11
116.9394752353401
 21
263.8516383144915
 31
0.0
 12
119.4394752353401
 22
264.2683049811582
 32
0.0
 13
119.4394752353401
 23
264.2683049811582
 33
0.0
  0
SOLID
  5
1C22
330
1AAC
100
AcDbEntity
  8
5
 62
     0
100
AcDbTrace
 10
81.93946523534018
 20
264.6849716478249
 30
0.0
 11
81.93946523534018
 21
263.8516383144915
 31
0.0
 12
79.43946523534018
 22
264.2683049811582
 32
0.0
 13
79.43946523534018
 23
264.2683049811582
 33
0.0
  0
MTEXT
  5
1C23
330
1AAC
100
AcDbEntity
  8
5
 62
     0
100
AcDbMText
 10
99.43947323534018
 20
266.1433049811583
 30
0.0
 40
2.5
 41
0.0
 46
0.0
 71
     5
 72
     1
  1
\A1;40
 73
     1
 44
1.0
  0
POINT
  5
1C24
330
1AAC
100
AcDbEntity
  8
Defpoints
 62
     0
100
AcDbPoint
 10
119.4394752353401
 20
226.1160149811582
 30
0.0
  0
POINT
  5
1C25
330
1AAC
100
AcDbEntity
  8
Defpoints
 62
     0
100
AcDbPoint
 10
79.43946523534018
 20
226.1160149811582
 30
0.0
  0
POINT
  5
1C26
330
1AAC
100
AcDbEntity
  8
Defpoints
 62
     0
100
AcDbPoint
 10
79.43946523534018
 20
264.2683049811582
 30
0.0
  0
ENDBLK
  5
1AB7
330
1AAC
100
AcDbEntity
  8
0
100
AcDbBlockEnd
  0
BLOCK
  5
1AC2
330
1AB8
100
AcDbEntity
  8
0
100
AcDbBlockBegin
  2
*D25
 70
     1
 10
0.0
 20
0.0
 30
0.0
  3
*D25
  1

  0
LINE
  5
1C27
330
1AB8
100
AcDbEntity
  8
5
 62
     0
370
    -2
100
AcDbLine
 10
112.4394732353401
 20
224.2542129811582
 30
0.0
 11
112.4394732353401
 21
248.3263789811583
 31
0.0
  0
LINE
  5
1C28
330
1AB8
100
AcDbEntity
  8
5
 62
     0
370
    -2
100
AcDbLine
 10
86.4394692353402
 20
224.2542129811582
 30
0.0
 11
86.4394692353402
 21
248.3263789811583
 31
0.0
  0
LINE
  5
1C29
330
1AB8
100
AcDbEntity
  8
5
 62
     0
370
    -2
100
AcDbLine
 10
109.9394732353401
 20
247.0763789811583
 30
0.0
 11
88.9394692353402
 21
247.0763789811583
 31
0.0
  0
SOLID
  5
1C2A
330
1AB8
100
AcDbEntity
  8
5
 62
     0
100
AcDbTrace
 10
109.9394732353401
 20
247.4930456478249
 30
0.0
 11
109.9394732353401
 21
246.6597123144916
 31
0.0
 12
112.4394732353401
 22
247.0763789811583
 32
0.0
 13
112.4394732353401
 23
247.0763789811583
 33
0.0
  0
SOLID
  5
1C2B
330
1AB8
100
AcDbEntity
  8
5
 62
     0
100
AcDbTrace
 10
88.9394692353402
 20
247.4930456478249
 30
0.0
 11
88.9394692353402
 21
246.6597123144916
 31
0.0
 12
86.4394692353402
 22
247.0763789811583
 32
0.0
 13
86.4394692353402
 23
247.0763789811583
 33
0.0
  0
MTEXT
  5
1C2C
330
1AB8
100
AcDbEntity
  8
5
 62
     0
100
AcDbMText
 10
99.43947323534018
 20
248.9516250441504
 30
0.0
 40
2.5
 41
0.0
 46
0.0
 71
     5
 72
     1
  1
\A1;26
 73
     1
 44
1.0
  0
POINT
  5
1C2D
330
1AB8
100
AcDbEntity
  8
Defpoints
 62
     0
100
AcDbPoint
 10
112.4394732353401
 20
223.6292129811582
 30
0.0
  0
POINT
  5
1C2E
330
1AB8
100
AcDbEntity
  8
Defpoints
 62
     0
100
AcDbPoint
 10
86.4394692353402
 20
223.6292129811582
 30
0.0
  0
POINT
  5
1C2F
330
1AB8
100
AcDbEntity
  8
Defpoints
 62
     0
100
AcDbPoint
 10
86.4394692353402
 20
247.0763789811583
 30
0.0
  0
ENDBLK
  5
1AC3
330
1AB8
100
AcDbEntity
  8
0
100
AcDbBlockEnd
  0
BLOCK
  5
1ACE
330
1AC4
100
AcDbEntity
  8
0
100
AcDbBlockBegin
  2
*D26
 70
     1
 10
0.0
 20
0.0
 30
0.0
  3
*D26
  1

  0
LINE
  5
1C42
330
1AC4
100
AcDbEntity
  8
5
370
    -2
100
AcDbLine
 10
167.5926876694603
 20
208.1160429811583
 30
0.0
 11
140.7339608160049
 21
208.1160429811583
 31
0.0
  0
LINE
  5
1C43
330
1AC4
100
AcDbEntity
  8
5
370
    -2
100
AcDbLine
 10
167.5926876694603
 20
124.1159709811582
 30
0.0
 11
140.7339608160049
 21
124.1159709811582
 31
0.0
  0
LINE
  5
1C44
330
1AC4
100
AcDbEntity
  8
5
370
    -2
100
AcDbLine
 10
141.7339608160049
 20
205.1160429811583
 30
0.0
 11
141.7339608160049
 21
127.1159709811582
 31
0.0
  0
SOLID
  5
1C45
330
1AC4
100
AcDbEntity
  8
5
100
AcDbTrace
 10
141.2339608160049
 20
205.1160429811583
 30
0.0
 11
142.2339608160049
 21
205.1160429811583
 31
0.0
 12
141.7339608160049
 22
208.1160429811583
 32
0.0
 13
141.7339608160049
 23
208.1160429811583
 33
0.0
  0
SOLID
  5
1C46
330
1AC4
100
AcDbEntity
  8
5
100
AcDbTrace
 10
141.2339608160049
 20
127.1159709811582
 30
0.0
 11
142.2339608160049
 21
127.1159709811582
 31
0.0
 12
141.7339608160049
 22
124.1159709811582
 32
0.0
 13
141.7339608160049
 23
124.1159709811582
 33
0.0
  0
MTEXT
  5
1C47
330
1AC4
100
AcDbEntity
  8
5
 62
     2
100
AcDbMText
 10
138.9839608160049
 20
166.1160069811583
 30
0.0
 40
3.5
 41
0.0
 46
0.0
 71
     5
 72
     1
  1
168
 11
0.0000000000000001
 21
1.0
 31
0.0
 73
     1
 44
1.0
  0
POINT
  5
1C48
330
1AC4
100
AcDbEntity
  8
Defpoints
 62
     0
100
AcDbPoint
 10
167.5926876694603
 20
208.1160429811583
 30
0.0
  0
POINT
  5
1C49
330
1AC4
100
AcDbEntity
  8
Defpoints
 62
     0
100
AcDbPoint
 10
167.5926876694603
 20
124.1159709811582
 30
0.0
  0
POINT
  5
1C4A
330
1AC4
100
AcDbEntity
  8
Defpoints
 62
     0
100
AcDbPoint
 10
141.7339608160049
 20
124.1159709811582
 30
0.0
  0
ENDBLK
  5
1ACF
330
1AC4
100
AcDbEntity
  8
0
100
AcDbBlockEnd
  0
BLOCK
  5
1ADC
330
1AD0
100
AcDbEntity
  8
0
100
AcDbBlockBegin
  2
*D27
 70
     1
 10
0.0
 20
0.0
 30
0.0
  3
*D27
  1

  0
LINE
  5
1C4B
330
1AD0
100
AcDbEntity
  8
5
 62
     0
370
    -2
100
AcDbLine
 10
157.8926836694603
 20
166.7410069811583
 30
0.0
 11
157.8926836694603
 21
262.7652369811583
 31
0.0
  0
LINE
  5
1C4C
330
1AD0
100
AcDbEntity
  8
5
 62
     0
370
    -2
100
AcDbLine
 10
168.5926876694603
 20
226.7410289811583
 30
0.0
 11
168.5926876694603
 21
262.7652369811583
 31
0.0
  0
LINE
  5
1C4D
330
1AD0
100
AcDbEntity
  8
5
 62
     0
370
    -2
100
AcDbLine
 10
160.3926836694603
 20
261.5152369811582
 30
0.0
 11
166.0926876694603
 21
261.5152369811582
 31
0.0
  0
SOLID
  5
1C4E
330
1AD0
100
AcDbEntity
  8
5
 62
     0
100
AcDbTrace
 10
160.3926836694603
 20
261.9319036478249
 30
0.0
 11
160.3926836694603
 21
261.0985703144915
 31
0.0
 12
157.8926836694603
 22
261.5152369811582
 32
0.0
 13
157.8926836694603
 23
261.5152369811582
 33
0.0
  0
SOLID
  5
1C4F
330
1AD0
100
AcDbEntity
  8
5
 62
     0
100
AcDbTrace
 10
166.0926876694603
 20
261.9319036478249
 30
0.0
 11
166.0926876694603
 21
261.0985703144915
 31
0.0
 12
168.5926876694603
 22
261.5152369811582
 32
0.0
 13
168.5926876694603
 23
261.5152369811582
 33
0.0
  0
MTEXT
  5
1C50
330
1AD0
100
AcDbEntity
  8
5
 62
     0
100
AcDbMText
 10
163.2426856694603
 20
263.3902369811583
 30
0.0
 40
2.5
 41
0.0
 46
0.0
 71
     5
 72
     1
  1
\A1;10.7
 73
     1
 44
1.0
  0
POINT
  5
1C51
330
1AD0
100
AcDbEntity
  8
Defpoints
 62
     0
100
AcDbPoint
 10
157.8926836694603
 20
166.1160069811583
 30
0.0
  0
POINT
  5
1C52
330
1AD0
100
AcDbEntity
  8
Defpoints
 62
     0
100
AcDbPoint
 10
168.5926876694603
 20
226.1160289811583
 30
0.0
  0
POINT
  5
1C53
330
1AD0
100
AcDbEntity
  8
Defpoints
 62
     0
100
AcDbPoint
 10
168.5926876694603
 20
261.5152369811582
 30
0.0
  0
ENDBLK
  5
1ADD
330
1AD0
100
AcDbEntity
  8
0
100
AcDbBlockEnd
  0
BLOCK
  5
1AEA
330
1ADE
100
AcDbEntity
  8
0
100
AcDbBlockBegin
  2
*D28
 70
     1
 10
0.0
 20
0.0
 30
0.0
  3
*D28
  1

  0
LINE
  5
1C54
330
1ADE
100
AcDbEntity
  8
5
 62
     0
370
    -2
100
AcDbLine
 10
167.5926876694603
 20
226.7410289811583
 30
0.0
 11
167.5926876694603
 21
244.9789909811582
 31
0.0
  0
LINE
  5
1C55
330
1ADE
100
AcDbEntity
  8
5
 62
     0
370
    -2
100
AcDbLine
 10
168.5926876694603
 20
226.7410289811583
 30
0.0
 11
168.5926876694603
 21
244.9789909811582
 31
0.0
  0
LINE
  5
1C56
330
1ADE
100
AcDbEntity
  8
5
 62
     0
370
    -2
100
AcDbLine
 10
165.0926876694603
 20
243.7289909811582
 30
0.0
 11
162.5926876694603
 21
243.7289909811582
 31
0.0
  0
LINE
  5
1C57
330
1ADE
100
AcDbEntity
  8
5
 62
     0
370
    -2
100
AcDbLine
 10
171.0926876694603
 20
243.7289909811582
 30
0.0
 11
186.9583276694603
 21
243.7289909811582
 31
0.0
  0
LINE
  5
1C58
330
1ADE
100
AcDbEntity
  8
5
 62
     0
370
    -2
100
AcDbLine
 10
167.5926876694603
 20
243.7289909811582
 30
0.0
 11
168.5926876694603
 21
243.7289909811582
 31
0.0
  0
SOLID
  5
1C59
330
1ADE
100
AcDbEntity
  8
5
 62
     0
100
AcDbTrace
 10
165.0926876694603
 20
244.1456576478249
 30
0.0
 11
165.0926876694603
 21
243.3123243144916
 31
0.0
 12
167.5926876694603
 22
243.7289909811582
 32
0.0
 13
167.5926876694603
 23
243.7289909811582
 33
0.0
  0
SOLID
  5
1C5A
330
1ADE
100
AcDbEntity
  8
5
 62
     0
100
AcDbTrace
 10
171.0926876694603
 20
244.1456576478249
 30
0.0
 11
171.0926876694603
 21
243.3123243144916
 31
0.0
 12
168.5926876694603
 22
243.7289909811582
 32
0.0
 13
168.5926876694603
 23
243.7289909811582
 33
0.0
  0
MTEXT
  5
1C5B
330
1ADE
100
AcDbEntity
  8
5
 62
     0
100
AcDbMText
 10
186.0833276694603
 20
245.6039909811583
 30
0.0
 40
2.5
 41
0.0
 46
0.0
 71
     5
 72
     1
  1
\A1;1
 73
     1
 44
1.0
  0
POINT
  5
1C5C
330
1ADE
100
AcDbEntity
  8
Defpoints
 62
     0
100
AcDbPoint
 10
167.5926876694603
 20
226.1160289811583
 30
0.0
  0
POINT
  5
1C5D
330
1ADE
100
AcDbEntity
  8
Defpoints
 62
     0
100
AcDbPoint
 10
168.5926876694603
 20
226.1160289811583
 30
0.0
  0
POINT
  5
1C5E
330
1ADE
100
AcDbEntity
  8
Defpoints
 62
     0
100
AcDbPoint
 10
168.5926876694603
 20
243.7289909811582
 30
0.0
  0
ENDBLK
  5
1AEB
330
1ADE
100
AcDbEntity
  8
0
100
AcDbBlockEnd
  0
BLOCK
  5
1B7E
330
1B74
100
AcDbEntity
  8
0
100
AcDbBlockBegin
  2
*D29
 70
     1
 10
0.0
 20
0.0
 30
0.0
  3
*D29
  1
GEVFRAME
  0
LINE
  5
1B75
330
1B74
100
AcDbEntity
  8
0
  6
ByBlock
100
AcDbLine
 10
-20.000002
 20
50.000004
 30
0.0
 11
-44.050301
 21
50.000004
 31
0.0
  0
LINE
  5
1B76
330
1B74
100
AcDbEntity
  8
0
  6
ByBlock
100
AcDbLine
 10
-20.000002
 20
-10.000005
 30
0.0
 11
-44.050301
 21
-10.00000499999999
 31
0.0
  0
LINE
  5
1B77
330
1B74
100
AcDbEntity
  8
0
  6
ByBlock
100
AcDbLine
 10
-43.05030099999998
 20
47.00000399999999
 30
0.0
 11
-43.05030099999998
 21
-7.000004999999998
 31
0.0
  0
SOLID
  5
1B78
330
1B74
100
AcDbEntity
  8
0
  6
ByBlock
100
AcDbTrace
 10
-43.55030099999999
 20
47.00000399999999
 30
0.0
 11
-42.55030099999999
 21
47.00000399999999
 31
0.0
 12
-43.05030099999998
 22
50.000004
 32
0.0
 13
-43.05030099999998
 23
50.000004
 33
0.0
  0
SOLID
  5
1B79
330
1B74
100
AcDbEntity
  8
0
  6
ByBlock
100
AcDbTrace
 10
-43.55030099999999
 20
-7.000004999999998
 30
0.0
 11
-42.55030099999999
 21
-7.000004999999998
 31
0.0
 12
-43.05030099999998
 22
-10.00000499999999
 32
0.0
 13
-43.05030099999998
 23
-10.00000499999999
 33
0.0
  0
MTEXT
  5
1B7A
330
1B74
100
AcDbEntity
  8
0
  6
ByBlock
 62
     2
100
AcDbMText
 10
-45.80064548818897
 20
20.0
 30
0.0
 40
3.5
 41
0.0
 46
0.0
 71
     5
 72
     1
  1
\A1;120
 11
0.0000000000000001
 21
1.0
 31
0.0
 73
     1
 44
1.0
  0
POINT
  5
1B7B
330
1B74
100
AcDbEntity
  8
Defpoints
  6
ByBlock
 62
     0
100
AcDbPoint
 10
-20.000002
 20
50.000004
 30
0.0
  0
POINT
  5
1B7C
330
1B74
100
AcDbEntity
  8
Defpoints
  6
ByBlock
 62
     0
100
AcDbPoint
 10
-20.000002
 20
-10.000005
 30
0.0
  0
POINT
  5
1B7D
330
1B74
100
AcDbEntity
  8
Defpoints
  6
ByBlock
 62
     0
100
AcDbPoint
 10
-43.05030099999998
 20
-10.00000499999999
 30
0.0
  0
ENDBLK
  5
1B7F
330
1B74
100
AcDbEntity
  8
0
100
AcDbBlockEnd
  0
BLOCK
  5
1B8A
330
1B80
100
AcDbEntity
  8
0
100
AcDbBlockBegin
  2
*D30
 70
     1
 10
0.0
 20
0.0
 30
0.0
  3
*D30
  1
GEVFRAME
  0
LINE
  5
1B81
330
1B80
100
AcDbEntity
  8
0
  6
ByBlock
100
AcDbLine
 10
-22.913729
 20
-6.500004999999998
 30
0.0
 11
-33.712059
 21
-6.500004999999998
 31
0.0
  0
LINE
  5
1B82
330
1B80
100
AcDbEntity
  8
0
  6
ByBlock
100
AcDbLine
 10
-22.913729
 20
46.50000399999998
 30
0.0
 11
-33.712059
 21
46.50000399999998
 31
0.0
  0
LINE
  5
1B83
330
1B80
100
AcDbEntity
  8
0
  6
ByBlock
100
AcDbLine
 10
-32.712059
 20
-3.500004999999998
 30
0.0
 11
-32.712059
 21
43.50000399999998
 31
0.0
  0
SOLID
  5
1B84
330
1B80
100
AcDbEntity
  8
0
  6
ByBlock
100
AcDbTrace
 10
-33.21205900000001
 20
-3.500004999999998
 30
0.0
 11
-32.21205900000001
 21
-3.500004999999998
 31
0.0
 12
-32.712059
 22
-6.500004999999998
 32
0.0
 13
-32.712059
 23
-6.500004999999998
 33
0.0
  0
SOLID
  5
1B85
330
1B80
100
AcDbEntity
  8
0
  6
ByBlock
100
AcDbTrace
 10
-33.21205900000001
 20
43.50000399999998
 30
0.0
 11
-32.21205900000001
 21
43.50000399999998
 31
0.0
 12
-32.712059
 22
46.50000399999998
 32
0.0
 13
-32.712059
 23
46.50000399999998
 33
0.0
  0
MTEXT
  5
1B86
330
1B80
100
AcDbEntity
  8
0
  6
ByBlock
 62
     2
100
AcDbMText
 10
-35.462059
 20
20.0
 30
0.0
 40
3.5
 41
0.0
 46
0.0
 71
     5
 72
     1
  1
\A1;106
 11
0.0000000000000001
 21
1.0
 31
0.0
 73
     1
 44
1.0
  0
POINT
  5
1B87
330
1B80
100
AcDbEntity
  8
Defpoints
  6
ByBlock
 62
     0
100
AcDbPoint
 10
-22.913729
 20
-6.500004999999998
 30
0.0
  0
POINT
  5
1B88
330
1B80
100
AcDbEntity
  8
Defpoints
  6
ByBlock
 62
     0
100
AcDbPoint
 10
-22.913729
 20
46.50000399999998
 30
0.0
  0
POINT
  5
1B89
330
1B80
100
AcDbEntity
  8
Defpoints
  6
ByBlock
 62
     0
100
AcDbPoint
 10
-32.712059
 20
46.50000399999998
 30
0.0
  0
ENDBLK
  5
1B8B
330
1B80
100
AcDbEntity
  8
0
100
AcDbBlockEnd
  0
BLOCK
  5
1B96
330
1B8C
100
AcDbEntity
  8
0
100
AcDbBlockBegin
  2
*D31
 70
     1
 10
0.0
 20
0.0
 30
0.0
  3
*D31
  1
GEVFRAME
  0
LINE
  5
1B8D
330
1B8C
100
AcDbEntity
  8
0
  6
ByBlock
100
AcDbLine
 10
0.000001
 20
50.000004
 30
0.0
 11
0.0000010000000012
 21
70.076149
 31
0.0
  0
LINE
  5
1B8E
330
1B8C
100
AcDbEntity
  8
0
  6
ByBlock
100
AcDbLine
 10
-20.000004
 20
50.000004
 30
0.0
 11
-20.000004
 21
70.076149
 31
0.0
  0
LINE
  5
1B8F
330
1B8C
100
AcDbEntity
  8
0
  6
ByBlock
100
AcDbLine
 10
-2.999998999999998
 20
69.076149
 30
0.0
 11
-17.000004
 21
69.076149
 31
0.0
  0
SOLID
  5
1B90
330
1B8C
100
AcDbEntity
  8
0
  6
ByBlock
100
AcDbTrace
 10
-2.999998999999998
 20
69.576149
 30
0.0
 11
-2.999998999999998
 21
68.576149
 31
0.0
 12
0.0000010000000012
 22
69.076149
 32
0.0
 13
0.0000010000000012
 23
69.076149
 33
0.0
  0
SOLID
  5
1B91
330
1B8C
100
AcDbEntity
  8
0
  6
ByBlock
100
AcDbTrace
 10
-17.000004
 20
69.576149
 30
0.0
 11
-17.000004
 21
68.576149
 31
0.0
 12
-20.000004
 22
69.076149
 32
0.0
 13
-20.000004
 23
69.076149
 33
0.0
  0
MTEXT
  5
1B92
330
1B8C
100
AcDbEntity
  8
0
  6
ByBlock
 62
     2
100
AcDbMText
 10
-10.0
 20
71.826149
 30
0.0
 40
3.5
 41
0.0
 46
0.0
 71
     5
 72
     1
  1
\A1;40
 73
     1
 44
1.0
  0
POINT
  5
1B93
330
1B8C
100
AcDbEntity
  8
Defpoints
  6
ByBlock
 62
     0
100
AcDbPoint
 10
0.000001
 20
50.000004
 30
0.0
  0
POINT
  5
1B94
330
1B8C
100
AcDbEntity
  8
Defpoints
  6
ByBlock
 62
     0
100
AcDbPoint
 10
-20.000004
 20
50.000004
 30
0.0
  0
POINT
  5
1B95
330
1B8C
100
AcDbEntity
  8
Defpoints
  6
ByBlock
 62
     0
100
AcDbPoint
 10
-20.000004
 20
69.076149
 30
0.0
  0
ENDBLK
  5
1B97
330
1B8C
100
AcDbEntity
  8
0
100
AcDbBlockEnd
  0
BLOCK
  5
1BA2
330
1B98
100
AcDbEntity
  8
0
100
AcDbBlockBegin
  2
*D32
 70
     1
 10
0.0
 20
0.0
 30
0.0
  3
*D32
  1
GEVFRAME
  0
LINE
  5
1B99
330
1B98
100
AcDbEntity
  8
0
  6
ByBlock
100
AcDbLine
 10
-3.5
 20
48.75660299999999
 30
0.0
 11
-3.499999999999998
 21
61.480186
 31
0.0
  0
LINE
  5
1B9A
330
1B98
100
AcDbEntity
  8
0
  6
ByBlock
100
AcDbLine
 10
-16.500002
 20
48.75660299999999
 30
0.0
 11
-16.500002
 21
61.480186
 31
0.0
  0
LINE
  5
1B9B
330
1B98
100
AcDbEntity
  8
0
  6
ByBlock
100
AcDbLine
 10
-6.499999999999999
 20
60.48018599999999
 30
0.0
 11
-13.50000199999999
 21
60.48018599999999
 31
0.0
  0
SOLID
  5
1B9C
330
1B98
100
AcDbEntity
  8
0
  6
ByBlock
100
AcDbTrace
 10
-6.499999999999999
 20
60.98018599999999
 30
0.0
 11
-6.499999999999999
 21
59.98018599999999
 31
0.0
 12
-3.499999999999998
 22
60.48018599999999
 32
0.0
 13
-3.499999999999998
 23
60.48018599999999
 33
0.0
  0
SOLID
  5
1B9D
330
1B98
100
AcDbEntity
  8
0
  6
ByBlock
100
AcDbTrace
 10
-13.50000199999999
 20
60.98018599999999
 30
0.0
 11
-13.50000199999999
 21
59.98018599999999
 31
0.0
 12
-16.500002
 22
60.48018599999999
 32
0.0
 13
-16.500002
 23
60.48018599999999
 33
0.0
  0
MTEXT
  5
1B9E
330
1B98
100
AcDbEntity
  8
0
  6
ByBlock
 62
     2
100
AcDbMText
 10
-10.0
 20
63.23053048818898
 30
0.0
 40
3.5
 41
0.0
 46
0.0
 71
     5
 72
     1
  1
\A1;26
 73
     1
 44
1.0
  0
POINT
  5
1B9F
330
1B98
100
AcDbEntity
  8
Defpoints
  6
ByBlock
 62
     0
100
AcDbPoint
 10
-3.5
 20
48.75660299999999
 30
0.0
  0
POINT
  5
1BA0
330
1B98
100
AcDbEntity
  8
Defpoints
  6
ByBlock
 62
     0
100
AcDbPoint
 10
-16.500002
 20
48.75660299999999
 30
0.0
  0
POINT
  5
1BA1
330
1B98
100
AcDbEntity
  8
Defpoints
  6
ByBlock
 62
     0
100
AcDbPoint
 10
-16.500002
 20
60.48018599999999
 30
0.0
  0
ENDBLK
  5
1BA3
330
1B98
100
AcDbEntity
  8
0
100
AcDbBlockEnd
  0
BLOCK
  5
1BB0
330
1BA4
100
AcDbEntity
  8
0
100
AcDbBlockBegin
  2
*D33
 70
     1
 10
0.0
 20
0.0
 30
0.0
  3
*D33
  1
GEVFRAME
  0
LINE
  5
1BA5
330
1BA4
100
AcDbEntity
  8
0
  6
ByBlock
100
AcDbLine
 10
59.49999599999999
 20
50.000011
 30
0.0
 11
59.49999599999999
 21
59.80649200000001
 31
0.0
  0
LINE
  5
1BA6
330
1BA4
100
AcDbEntity
  8
0
  6
ByBlock
100
AcDbLine
 10
59.99999599999999
 20
50.000011
 30
0.0
 11
59.99999599999999
 21
59.80649200000001
 31
0.0
  0
LINE
  5
1BA7
330
1BA4
100
AcDbEntity
  8
0
  6
ByBlock
100
AcDbLine
 10
56.49999600000001
 20
58.806492
 30
0.0
 11
53.499996
 21
58.806492
 31
0.0
  0
LINE
  5
1BA8
330
1BA4
100
AcDbEntity
  8
0
  6
ByBlock
100
AcDbLine
 10
62.99999599999999
 20
58.806492
 30
0.0
 11
70.09531600000001
 21
58.806492
 31
0.0
  0
LINE
  5
1BA9
330
1BA4
100
AcDbEntity
  8
0
  6
ByBlock
100
AcDbLine
 10
59.49999599999999
 20
58.806492
 30
0.0
 11
59.99999599999999
 21
58.806492
 31
0.0
  0
SOLID
  5
1BAA
330
1BA4
100
AcDbEntity
  8
0
  6
ByBlock
100
AcDbTrace
 10
56.49999600000001
 20
59.30649200000001
 30
0.0
 11
56.49999600000001
 21
58.30649199999999
 31
0.0
 12
59.49999599999999
 22
58.806492
 32
0.0
 13
59.49999599999999
 23
58.806492
 33
0.0
  0
SOLID
  5
1BAB
330
1BA4
100
AcDbEntity
  8
0
  6
ByBlock
100
AcDbTrace
 10
62.99999599999999
 20
59.30649200000001
 30
0.0
 11
62.99999599999999
 21
58.30649199999999
 31
0.0
 12
59.99999599999999
 22
58.806492
 32
0.0
 13
59.99999599999999
 23
58.806492
 33
0.0
  0
MTEXT
  5
1BAC
330
1BA4
100
AcDbEntity
  8
0
  6
ByBlock
 62
     2
100
AcDbMText
 10
68.745316
 20
61.556492
 30
0.0
 40
3.5
 41
0.0
 46
0.0
 71
     5
 72
     1
  1
\A1;1
 73
     1
 44
1.0
  0
POINT
  5
1BAD
330
1BA4
100
AcDbEntity
  8
Defpoints
  6
ByBlock
 62
     0
100
AcDbPoint
 10
59.49999599999999
 20
50.000011
 30
0.0
  0
POINT
  5
1BAE
330
1BA4
100
AcDbEntity
  8
Defpoints
  6
ByBlock
 62
     0
100
AcDbPoint
 10
59.99999599999999
 20
50.000011
 30
0.0
  0
POINT
  5
1BAF
330
1BA4
100
AcDbEntity
  8
Defpoints
  6
ByBlock
 62
     0
100
AcDbPoint
 10
59.99999599999999
 20
58.806492
 30
0.0
  0
ENDBLK
  5
1BB1
330
1BA4
100
AcDbEntity
  8
0
100
AcDbBlockEnd
  0
BLOCK
  5
1BBE
330
1BB2
100
AcDbEntity
  8
0
100
AcDbBlockBegin
  2
*D34
 70
     1
 10
0.0
 20
0.0
 30
0.0
  3
*D34
  1
GEVFRAME
  0
LINE
  5
1BB3
330
1BB2
100
AcDbEntity
  8
0
  6
ByBlock
100
AcDbLine
 10
54.64999399999999
 20
20.0
 30
0.0
 11
54.64999399999999
 21
68.69961499999999
 31
0.0
  0
LINE
  5
1BB4
330
1BB2
100
AcDbEntity
  8
0
  6
ByBlock
100
AcDbLine
 10
59.99999599999999
 20
50.000011
 30
0.0
 11
59.99999599999999
 21
68.69961499999999
 31
0.0
  0
LINE
  5
1BB5
330
1BB2
100
AcDbEntity
  8
0
  6
ByBlock
100
AcDbLine
 10
51.649994
 20
67.69961499999999
 30
0.0
 11
48.649994
 21
67.69961499999999
 31
0.0
  0
LINE
  5
1BB6
330
1BB2
100
AcDbEntity
  8
0
  6
ByBlock
100
AcDbLine
 10
62.99999599999999
 20
67.69961499999999
 30
0.0
 11
65.99999600000001
 21
67.69961499999999
 31
0.0
  0
LINE
  5
1BB7
330
1BB2
100
AcDbEntity
  8
0
  6
ByBlock
100
AcDbLine
 10
54.64999399999999
 20
67.69961499999999
 30
0.0
 11
59.99999599999999
 21
67.69961499999999
 31
0.0
  0
SOLID
  5
1BB8
330
1BB2
100
AcDbEntity
  8
0
  6
ByBlock
100
AcDbTrace
 10
51.649994
 20
68.19961499999999
 30
0.0
 11
51.649994
 21
67.19961500000001
 31
0.0
 12
54.64999399999999
 22
67.69961499999999
 32
0.0
 13
54.64999399999999
 23
67.69961499999999
 33
0.0
  0
SOLID
  5
1BB9
330
1BB2
100
AcDbEntity
  8
0
  6
ByBlock
100
AcDbTrace
 10
62.99999599999999
 20
68.19961499999999
 30
0.0
 11
62.99999599999999
 21
67.19961500000001
 31
0.0
 12
59.99999599999999
 22
67.69961499999999
 32
0.0
 13
59.99999599999999
 23
67.69961499999999
 33
0.0
  0
MTEXT
  5
1BBA
330
1BB2
100
AcDbEntity
  8
0
  6
ByBlock
 62
     2
100
AcDbMText
 10
57.32499499999999
 20
70.44961499999998
 30
0.0
 40
3.5
 41
0.0
 46
0.0
 71
     5
 72
     1
  1
\A1;10.7
 73
     1
 44
1.0
  0
POINT
  5
1BBB
330
1BB2
100
AcDbEntity
  8
Defpoints
  6
ByBlock
 62
     0
100
AcDbPoint
 10
54.64999399999999
 20
20.0
 30
0.0
  0
POINT
  5
1BBC
330
1BB2
100
AcDbEntity
  8
Defpoints
  6
ByBlock
 62
     0
100
AcDbPoint
 10
59.99999599999999
 20
50.000011
 30
0.0
  0
POINT
  5
1BBD
330
1BB2
100
AcDbEntity
  8
Defpoints
  6
ByBlock
 62
     0
100
AcDbPoint
 10
59.99999599999999
 20
67.69961499999999
 30
0.0
  0
ENDBLK
  5
1BBF
330
1BB2
100
AcDbEntity
  8
0
100
AcDbBlockEnd
  0
BLOCK
  5
1BCA
330
1BC0
100
AcDbEntity
  8
0
100
AcDbBlockBegin
  2
*D35
 70
     1
 10
0.0
 20
0.0
 30
0.0
  3
*D35
  1
GEVFRAME
  0
LINE
  5
1BC1
330
1BC0
100
AcDbEntity
  8
0
  6
ByBlock
100
AcDbLine
 10
59.49999599999999
 20
41.000018
 30
0.0
 11
45.57063257327228
 21
41.000018
 31
0.0
  0
LINE
  5
1BC2
330
1BC0
100
AcDbEntity
  8
0
  6
ByBlock
100
AcDbLine
 10
59.49999599999999
 20
-1.000018
 30
0.0
 11
45.57063257327228
 21
-1.000017999999998
 31
0.0
  0
LINE
  5
1BC3
330
1BC0
100
AcDbEntity
  8
0
  6
ByBlock
100
AcDbLine
 10
46.57063257327228
 20
38.000018
 30
0.0
 11
46.57063257327228
 21
1.999981999999999
 31
0.0
  0
SOLID
  5
1BC4
330
1BC0
100
AcDbEntity
  8
0
  6
ByBlock
100
AcDbTrace
 10
46.07063257327228
 20
38.000018
 30
0.0
 11
47.07063257327228
 21
38.000018
 31
0.0
 12
46.57063257327228
 22
41.000018
 32
0.0
 13
46.57063257327228
 23
41.000018
 33
0.0
  0
SOLID
  5
1BC5
330
1BC0
100
AcDbEntity
  8
0
  6
ByBlock
100
AcDbTrace
 10
46.07063257327228
 20
1.999981999999999
 30
0.0
 11
47.07063257327228
 21
1.999981999999999
 31
0.0
 12
46.57063257327228
 22
-1.000017999999998
 32
0.0
 13
46.57063257327228
 23
-1.000017999999998
 33
0.0
  0
MTEXT
  5
1BC6
330
1BC0
100
AcDbEntity
  8
0
  6
ByBlock
 62
     2
100
AcDbMText
 10
43.82063257327228
 20
20.0
 30
0.0
 40
3.5
 41
0.0
 46
0.0
 71
     5
 72
     1
  1
84
 11
0.0000000000000001
 21
1.0
 31
0.0
 73
     1
 44
1.0
  0
POINT
  5
1BC7
330
1BC0
100
AcDbEntity
  8
Defpoints
  6
ByBlock
 62
     0
100
AcDbPoint
 10
59.49999599999999
 20
41.000018
 30
0.0
  0
POINT
  5
1BC8
330
1BC0
100
AcDbEntity
  8
Defpoints
  6
ByBlock
 62
     0
100
AcDbPoint
 10
59.49999599999999
 20
-1.000018
 30
0.0
  0
POINT
  5
1BC9
330
1BC0
100
AcDbEntity
  8
Defpoints
  6
ByBlock
 62
     0
100
AcDbPoint
 10
46.57063257327228
 20
-1.000017999999998
 30
0.0
  0
ENDBLK
  5
1BCB
330
1BC0
100
AcDbEntity
  8
0
100
AcDbBlockEnd
  0
BLOCK
  5
1BFE
330
1BCC
100
AcDbEntity
  8
0
100
AcDbBlockBegin
  2
A$C274174D1
 70
     0
 10
0.0
 20
0.0
 30
0.0
  3
A$C274174D1
  1

  0
DIMENSION
  5
1BCD
330
1BCC
100
AcDbEntity
  8
5
100
AcDbDimension
  2
*D29
 10
4.326722086777286
 20
1.765502757552655
 30
0.0
 11
4.326722086777286
 21
31.76550775755265
 31
0.0
 12
47.37702308677728
 22
11.76550775755265
 32
0.0
 70
   128
  1
120
 71
     5
 42
-1.0
 73
     0
 74
     0
 75
     0
  3
STANDARD
100
AcDbAlignedDimension
 13
27.37702108677729
 23
61.76551175755265
 33
0.0
 14
27.37702108677729
 24
1.765502757552654
 34
0.0
 50
90.0
100
AcDbRotatedDimension
  0
DIMENSION
  5
1BCE
330
1BCC
100
AcDbEntity
  8
5
100
AcDbDimension
  2
*D30
 10
14.66496408677728
 20
58.26551175755265
 30
0.0
 11
14.66496408677728
 21
31.76550775755265
 31
0.0
 12
47.37702308677728
 22
11.76550775755265
 32
0.0
 70
   128
  1
106
 71
     5
 42
-1.0
 73
     0
 74
     0
 75
     0
  3
STANDARD
100
AcDbAlignedDimension
 13
24.46329408677728
 23
5.265502757552653
 33
0.0
 14
24.46329408677728
 24
58.26551175755265
 34
0.0
 50
270.0
100
AcDbRotatedDimension
  0
LINE
  5
1BCF
330
1BCC
100
AcDbEntity
  8
1
100
AcDbLine
 10
31.52702108677728
 20
17.11550275755265
 30
0.0
 11
31.52702108677728
 21
46.41550175755265
 31
0.0
  0
LINE
  5
1BD0
330
1BCC
100
AcDbEntity
  8
1
100
AcDbLine
 10
43.22702208677728
 20
17.11550275755265
 30
0.0
 11
43.22702208677728
 21
46.41550175755265
 31
0.0
  0
LINE
  5
1BD1
330
1BCC
100
AcDbEntity
  8
1
100
AcDbLine
 10
27.37701908677728
 20
1.765517757552654
 30
0.0
 11
27.37701908677728
 21
61.76551175755265
 31
0.0
  0
LINE
  5
1BD2
330
1BCC
100
AcDbEntity
  8
1
100
AcDbLine
 10
47.37702408677727
 20
1.765517757552654
 30
0.0
 11
47.37702408677727
 21
61.76551175755265
 31
0.0
  0
LINE
  5
1BD3
330
1BCC
100
AcDbEntity
  8
7
  6
GEN7A
100
AcDbLine
 10
37.37702208677728
 20
-0.0000002424473458
 30
0.0
 11
37.37702208677728
 21
63.50264875755264
 31
0.0
  0
ARC
  5
1BD4
330
1BCC
100
AcDbEntity
  8
1
100
AcDbCircle
 10
37.37702108677729
 20
17.11550375755265
 30
0.0
 40
5.849998999999999
100
AcDbArc
 50
180.0000149999999
 51
359.9999909999998
  0
LINE
  5
1BD5
330
1BCC
100
AcDbEntity
  8
1
100
AcDbLine
 10
27.37702108677729
 20
1.765502757552654
 30
0.0
 11
47.37702308677728
 21
1.765502757552654
 31
0.0
  0
LINE
  5
1BD6
330
1BCC
100
AcDbEntity
  8
7
  6
GEN7A
100
AcDbLine
 10
30.87702108677728
 20
2.687949757552654
 30
0.0
 11
30.87702108677728
 21
9.659774757552654
 31
0.0
  0
LINE
  5
1BD7
330
1BCC
100
AcDbEntity
  8
7
  6
GEN7A
100
AcDbLine
 10
24.46329408677728
 20
5.265502757552653
 30
0.0
 11
33.38668008677728
 21
5.265502757552653
 31
0.0
  0
CIRCLE
  5
1BD8
330
1BCC
100
AcDbEntity
  8
0
  6
CONTINU
 62
     3
100
AcDbCircle
 10
30.87702108677728
 20
5.265502757552653
 30
0.0
 40
1.125
  0
CIRCLE
  5
1BD9
330
1BCC
100
AcDbEntity
  8
0
  6
CONTINU
 62
     3
100
AcDbCircle
 10
30.87702108677728
 20
5.265502757552653
 30
0.0
 40
1.5
  0
LINE
  5
1BDA
330
1BCC
100
AcDbEntity
  8
7
  6
GEN7A
100
AcDbLine
 10
43.87702308677727
 20
2.687942757552653
 30
0.0
 11
43.87702308677727
 21
9.323783757552654
 31
0.0
  0
LINE
  5
1BDB
330
1BCC
100
AcDbEntity
  8
7
  6
GEN7A
100
AcDbLine
 10
41.63658208677729
 20
5.265502757552653
 30
0.0
 11
49.46560008677728
 21
5.265502757552653
 31
0.0
  0
CIRCLE
  5
1BDC
330
1BCC
100
AcDbEntity
  8
0
  6
CONTINU
 62
     3
100
AcDbCircle
 10
43.87702308677727
 20
5.265502757552653
 30
0.0
 40
1.5
  0
CIRCLE
  5
1BDD
330
1BCC
100
AcDbEntity
  8
0
  6
CONTINU
 62
     3
100
AcDbCircle
 10
43.87702308677727
 20
5.265502757552653
 30
0.0
 40
1.125
  0
LINE
  5
1BDE
330
1BCC
100
AcDbEntity
  8
0
  6
CONTINU
 62
     3
100
AcDbLine
 10
35.06972308677728
 20
31.76550575755265
 30
0.0
 11
40.03329008677728
 21
31.76550575755265
 31
0.0
  0
ARC
  5
1BDF
330
1BCC
100
AcDbEntity
  8
1
100
AcDbCircle
 10
37.37702108677729
 20
46.41550975755265
 30
0.0
 40
5.849998999999999
100
AcDbArc
 50
359.9999249999998
 51
180.0
  0
LINE
  5
1BE0
330
1BCC
100
AcDbEntity
  8
0
  6
CONTINU
 62
     3
100
AcDbLine
 10
24.46329408677728
 20
31.76550575755265
 30
0.0
 11
29.90761508677728
 21
31.76550575755265
 31
0.0
  0
LINE
  5
1BE1
330
1BCC
100
AcDbEntity
  8
0
  6
CONTINU
 62
     3
100
AcDbLine
 10
33.18356808677729
 20
31.76550575755265
 30
0.0
 11
33.92810408677728
 21
31.76550575755265
 31
0.0
  0
LINE
  5
1BE2
330
1BCC
100
AcDbEntity
  8
0
  6
CONTINU
 62
     3
100
AcDbLine
 10
31.04923608677728
 20
31.76550575755265
 30
0.0
 11
32.24048908677728
 21
31.76550575755265
 31
0.0
  0
LINE
  5
1BE3
330
1BCC
100
AcDbEntity
  8
0
  6
CONTINU
 62
     3
100
AcDbLine
 10
42.66398108677728
 20
31.76550575755265
 30
0.0
 11
49.46559908677729
 21
31.76550575755265
 31
0.0
  0
LINE
  5
1BE4
330
1BCC
100
AcDbEntity
  8
0
  6
CONTINU
 62
     3
100
AcDbLine
 10
41.02600308677728
 20
31.76550575755265
 30
0.0
 11
42.01871708677727
 21
31.76550575755265
 31
0.0
  0
DIMENSION
  5
1BE5
330
1BCC
100
AcDbEntity
  8
5
100
AcDbDimension
  2
*D31
 10
27.37701908677728
 20
80.84165675755265
 30
0.0
 11
37.37702308677729
 21
80.84165675755265
 31
0.0
 12
47.37702308677728
 22
11.76550775755265
 32
0.0
 70
   128
  1
40
 71
     5
 42
-1.0
 73
     0
 74
     0
 75
     0
  3
STANDARD
100
AcDbAlignedDimension
 13
47.37702408677727
 23
61.76551175755265
 33
0.0
 14
27.37701908677728
 24
61.76551175755265
 34
0.0
100
AcDbRotatedDimension
  0
DIMENSION
  5
1BE6
330
1BCC
100
AcDbEntity
  8
5
100
AcDbDimension
  2
*D32
 10
30.87702108677728
 20
72.24569375755265
 30
0.0
 11
37.37702308677729
 21
72.24569375755265
 31
0.0
 12
47.37702308677728
 22
11.76550775755265
 32
0.0
 70
   128
  1
26
 71
     5
 42
-1.0
 73
     0
 74
     0
 75
     0
  3
STANDARD
100
AcDbAlignedDimension
 13
43.87702308677727
 23
60.52211075755265
 33
0.0
 14
30.87702108677728
 24
60.52211075755265
 34
0.0
100
AcDbRotatedDimension
  0
LINE
  5
1BE7
330
1BCC
100
AcDbEntity
  8
1
100
AcDbLine
 10
27.37702108677729
 20
61.76551175755265
 30
0.0
 11
47.37702308677728
 21
61.76551175755265
 31
0.0
  0
LINE
  5
1BE8
330
1BCC
100
AcDbEntity
  8
7
  6
GEN7A
100
AcDbLine
 10
24.46329408677728
 20
58.26551175755265
 30
0.0
 11
32.99783308677728
 21
58.26551175755265
 31
0.0
  0
CIRCLE
  5
1BE9
330
1BCC
100
AcDbEntity
  8
0
  6
CONTINU
 62
     3
100
AcDbCircle
 10
30.87702108677728
 20
58.26551175755265
 30
0.0
 40
1.5
  0
CIRCLE
  5
1BEA
330
1BCC
100
AcDbEntity
  8
0
  6
CONTINU
 62
     3
100
AcDbCircle
 10
30.87702108677728
 20
58.26551175755265
 30
0.0
 40
1.125
  0
LINE
  5
1BEB
330
1BCC
100
AcDbEntity
  8
7
  6
GEN7A
100
AcDbLine
 10
30.87702108677728
 20
55.50476575755265
 30
0.0
 11
30.87702108677728
 21
60.52211075755265
 31
0.0
  0
LINE
  5
1BEC
330
1BCC
100
AcDbEntity
  8
7
  6
GEN7A
100
AcDbLine
 10
41.81376008677728
 20
58.26551175755265
 30
0.0
 11
49.46559908677729
 21
58.26551175755265
 31
0.0
  0
CIRCLE
  5
1BED
330
1BCC
100
AcDbEntity
  8
0
  6
CONTINU
 62
     3
100
AcDbCircle
 10
43.87702308677727
 20
58.26551175755265
 30
0.0
 40
1.125
  0
CIRCLE
  5
1BEE
330
1BCC
100
AcDbEntity
  8
0
  6
CONTINU
 62
     3
100
AcDbCircle
 10
43.87702308677727
 20
58.26551175755265
 30
0.0
 40
1.5
  0
LINE
  5
1BEF
330
1BCC
100
AcDbEntity
  8
7
  6
GEN7A
100
AcDbLine
 10
43.87702308677727
 20
55.60681675755265
 30
0.0
 11
43.87702308677727
 21
60.52211075755265
 31
0.0
  0
DIMENSION
  5
1BF0
330
1BCC
100
AcDbEntity
  8
5
100
AcDbDimension
  2
*D35
 10
93.94765566004958
 20
10.76548975755265
 30
0.0
 11
91.19765566004957
 21
31.76550775755265
 31
0.0
 12
47.37702308677728
 22
11.76550775755265
 32
0.0
  1
<>
 71
     5
 42
-1.0
 73
     0
 74
     0
 75
     0
  3
GEN-ISO
100
AcDbAlignedDimension
 13
106.8770190867772
 23
52.76552575755265
 33
0.0
 14
106.8770190867772
 24
10.76548975755265
 34
0.0
 50
90.0
100
AcDbRotatedDimension
1001
ACAD
1000
DSTYLE
1002
{
1070
    40
1040
1.0
1002
}
1001
GENIUS_GENDTOL_13
1000

1000
h7
1000

1040
0.0
1000
<>
  0
ARC
  5
1BF1
330
1BCC
100
AcDbEntity
  8
1
100
AcDbCircle
 10
162.5270250867773
 20
31.76550775755265
 30
0.0
 40
60.49999200000001
100
AcDbArc
 50
179.988497376665
 51
199.8075069999999
  0
LINE
  5
1BF2
330
1BCC
100
AcDbEntity
  8
2
 62
     4
100
AcDbLine
 10
106.8770190867772
 20
1.765488757552654
 30
0.0
 11
106.8770190867772
 21
61.76551875755265
 31
0.0
  0
LINE
  5
1BF3
330
1BCC
100
AcDbEntity
  8
2
  6
GENCLIN
 62
     4
100
AcDbLine
 10
107.3770190867773
 20
1.765488757552654
 30
0.0
 11
107.3770190867773
 21
61.76551875755265
 31
0.0
  0
LINE
  5
1BF4
330
1BCC
100
AcDbEntity
  8
2
 62
     4
100
AcDbLine
 10
106.8770190867772
 20
1.765496757552654
 30
0.0
 11
107.3770190867773
 21
1.765496757552654
 31
0.0
  0
ARC
  5
1BF5
330
1BCC
100
AcDbEntity
  8
1
100
AcDbCircle
 10
106.3131460867772
 20
11.51548975755265
 30
0.0
 40
0.75
100
AcDbArc
 50
199.8104549999999
 51
270.0
  0
LINE
  5
1BF6
330
1BCC
100
AcDbEntity
  8
1
100
AcDbLine
 10
106.3032090867772
 20
10.76548975755265
 30
0.0
 11
106.8770190867772
 21
10.76548975755265
 31
0.0
  0
DIMENSION
  5
1BF7
330
1BCC
100
AcDbEntity
  8
5
100
AcDbDimension
  2
*D34
 10
107.3770190867773
 20
79.46512275755265
 30
0.0
 11
104.7020180867772
 21
79.46512275755265
 31
0.0
 12
47.37702308677728
 22
11.76550775755265
 32
0.0
 70
   128
  1
10.7
 71
     5
 42
-1.0
 73
     0
 74
     0
 75
     0
  3
STANDARD
100
AcDbAlignedDimension
 13
102.0270170867772
 23
31.76550775755265
 33
0.0
 14
107.3770190867773
 24
61.76551875755265
 34
0.0
 50
180.0
100
AcDbRotatedDimension
  0
ARC
  5
1BF8
330
1BCC
100
AcDbEntity
  8
1
100
AcDbCircle
 10
162.5270250867773
 20
31.76550775755265
 30
0.0
 40
60.49999200000001
100
AcDbArc
 50
160.192493
 51
180.0115026233349
  0
LINE
  5
1BF9
330
1BCC
100
AcDbEntity
  8
7
  6
GEN7A
100
AcDbLine
 10
99.66902708677729
 20
31.76550775755265
 30
0.0
 11
108.7678350867772
 21
31.76550775755265
 31
0.0
  0
ARC
  5
1BFA
330
1BCC
100
AcDbEntity
  8
1
100
AcDbCircle
 10
106.3131460867772
 20
52.01552575755265
 30
0.0
 40
0.75
100
AcDbArc
 50
90.0
 51
160.1895449999999
  0
LINE
  5
1BFB
330
1BCC
100
AcDbEntity
  8
1
100
AcDbLine
 10
106.3032090867772
 20
52.76552575755265
 30
0.0
 11
106.8770190867772
 21
52.76552575755265
 31
0.0
  0
DIMENSION
  5
1BFC
330
1BCC
100
AcDbEntity
  8
5
100
AcDbDimension
  2
*D33
 10
107.3770190867773
 20
70.57199975755264
 30
0.0
 11
116.1223390867772
 21
70.57199975755264
 31
0.0
 12
47.37702308677728
 22
11.76550775755265
 32
0.0
 70
   128
  1
1
 71
     5
 42
-1.0
 73
     0
 74
     0
 75
     0
  3
STANDARD
100
AcDbAlignedDimension
 13
106.8770190867772
 23
61.76551875755265
 33
0.0
 14
107.3770190867773
 24
61.76551875755265
 34
0.0
 50
180.0
100
AcDbRotatedDimension
  0
LINE
  5
1BFD
330
1BCC
100
AcDbEntity
  8
1
 62
     4
100
AcDbLine
 10
106.8770190867772
 20
61.76551875755265
 30
0.0
 11
107.3770190867773
 21
61.76551875755265
 31
0.0
  0
ENDBLK
  5
1BFF
330
1BCC
100
AcDbEntity
  8
0
100
AcDbBlockEnd
  0
BLOCK
  5
1C88
330
1C7E
100
AcDbEntity
  8
0
100
AcDbBlockBegin
  2
*D37
 70
     1
 10
0.0
 20
0.0
 30
0.0
  3
*D37
  1

  0
LINE
  5
2083
330
1C7E
100
AcDbEntity
  8
AM_5
  6
ByBlock
100
AcDbLine
 10
86.4394692353402
 20
225.6292129811582
 30
0.0
 11
86.4394692353402
 21
249.6292129811582
 31
0.0
  0
LINE
  5
2084
330
1C7E
100
AcDbEntity
  8
AM_5
  6
ByBlock
100
AcDbLine
 10
112.4394732353401
 20
224.1160149811582
 30
0.0
 11
112.4394732353401
 21
249.6292129811582
 31
0.0
  0
LINE
  5
2085
330
1C7E
100
AcDbEntity
  8
AM_5
  6
ByBlock
100
AcDbLine
 10
93.43946923534019
 20
247.6292129811582
 30
0.0
 11
105.4394732353401
 21
247.6292129811582
 31
0.0
  0
SOLID
  5
2086
330
1C7E
100
AcDbEntity
  8
AM_5
100
AcDbTrace
 10
93.43946923534019
 20
248.7958796478249
 30
0.0
 11
93.43946923534019
 21
246.4625463144916
 31
0.0
 12
86.4394692353402
 22
247.6292129811582
 32
0.0
 13
86.4394692353402
 23
247.6292129811582
 33
0.0
  0
SOLID
  5
2087
330
1C7E
100
AcDbEntity
  8
AM_5
100
AcDbTrace
 10
105.4394732353401
 20
248.7958796478249
 30
0.0
 11
105.4394732353401
 21
246.4625463144916
 31
0.0
 12
112.4394732353401
 22
247.6292129811582
 32
0.0
 13
112.4394732353401
 23
247.6292129811582
 33
0.0
  0
MTEXT
  5
2088
330
1C7E
100
AcDbEntity
  8
AM_5
 62
     2
100
AcDbMText
 10
99.43947123534016
 20
254.1299019575361
 30
0.0
 40
7.0
 41
0.0
 46
0.0
 71
     5
 72
     1
  1
26
 73
     1
 44
1.0
  0
POINT
  5
2089
330
1C7E
100
AcDbEntity
  8
Defpoints
 62
     0
100
AcDbPoint
 10
86.4394692353402
 20
223.6292129811582
 30
0.0
  0
POINT
  5
208A
330
1C7E
100
AcDbEntity
  8
Defpoints
 62
     0
100
AcDbPoint
 10
112.4394732353401
 20
222.1160149811582
 30
0.0
  0
POINT
  5
208B
330
1C7E
100
AcDbEntity
  8
Defpoints
 62
     0
100
AcDbPoint
 10
112.4394732353401
 20
247.6292129811582
 30
0.0
  0
ENDBLK
  5
1C89
330
1C7E
100
AcDbEntity
  8
0
100
AcDbBlockEnd
  0
BLOCK
  5
1CE2
330
1CD8
100
AcDbEntity
  8
0
100
AcDbBlockBegin
  2
*D38
 70
     1
 10
0.0
 20
0.0
 30
0.0
  3
*D38
  1

  0
LINE
  5
208C
330
1CD8
100
AcDbEntity
  8
AM_5
  6
ByBlock
100
AcDbLine
 10
79.43946523534018
 20
228.1160149811582
 30
0.0
 11
79.43946523534018
 21
272.6532489125253
 31
0.0
  0
LINE
  5
208D
330
1CD8
100
AcDbEntity
  8
AM_5
  6
ByBlock
100
AcDbLine
 10
119.4394752353401
 20
228.1160149811582
 30
0.0
 11
119.4394752353401
 21
272.6532489125253
 31
0.0
  0
LINE
  5
208E
330
1CD8
100
AcDbEntity
  8
AM_5
  6
ByBlock
100
AcDbLine
 10
86.43946523534017
 20
270.6532489125253
 30
0.0
 11
112.4394752353401
 21
270.6532489125253
 31
0.0
  0
SOLID
  5
208F
330
1CD8
100
AcDbEntity
  8
AM_5
100
AcDbTrace
 10
86.43946523534017
 20
271.819915579192
 30
0.0
 11
86.43946523534017
 21
269.4865822458587
 31
0.0
 12
79.43946523534018
 22
270.6532489125253
 32
0.0
 13
79.43946523534018
 23
270.6532489125253
 33
0.0
  0
SOLID
  5
2090
330
1CD8
100
AcDbEntity
  8
AM_5
100
AcDbTrace
 10
112.4394752353401
 20
271.819915579192
 30
0.0
 11
112.4394752353401
 21
269.4865822458587
 31
0.0
 12
119.4394752353401
 22
270.6532489125253
 32
0.0
 13
119.4394752353401
 23
270.6532489125253
 33
0.0
  0
MTEXT
  5
2091
330
1CD8
100
AcDbEntity
  8
AM_5
 62
     2
100
AcDbMText
 10
99.43947023534015
 20
277.1532489125253
 30
0.0
 40
7.0
 41
0.0
 46
0.0
 71
     5
 72
     1
  1
40
 73
     1
 44
1.0
  0
POINT
  5
2092
330
1CD8
100
AcDbEntity
  8
Defpoints
 62
     0
100
AcDbPoint
 10
79.43946523534018
 20
226.1160149811582
 30
0.0
  0
POINT
  5
2093
330
1CD8
100
AcDbEntity
  8
Defpoints
 62
     0
100
AcDbPoint
 10
119.4394752353401
 20
226.1160149811582
 30
0.0
  0
POINT
  5
2094
330
1CD8
100
AcDbEntity
  8
Defpoints
 62
     0
100
AcDbPoint
 10
119.4394752353401
 20
270.6532489125253
 30
0.0
  0
ENDBLK
  5
1CE3
330
1CD8
100
AcDbEntity
  8
0
100
AcDbBlockEnd
  0
BLOCK
  5
1D23
330
1D17
100
AcDbEntity
  8
0
100
AcDbBlockBegin
  2
*D39
 70
     1
 10
0.0
 20
0.0
 30
0.0
  3
*D39
  1

  0
LINE
  5
218D
330
1D17
100
AcDbEntity
  8
AM_5
  6
ByBlock
100
AcDbLine
 10
157.8927181078541
 20
168.1402987744116
 30
0.0
 11
157.8927181078541
 21
249.6547994327698
 31
0.0
  0
LINE
  5
218E
330
1D17
100
AcDbEntity
  8
AM_5
  6
ByBlock
100
AcDbLine
 10
168.5926876694603
 20
228.1160289811583
 30
0.0
 11
168.5926876694603
 21
249.6547994327698
 31
0.0
  0
LINE
  5
218F
330
1D17
100
AcDbEntity
  8
AM_5
  6
ByBlock
100
AcDbLine
 10
175.5926876694603
 20
247.6547994327699
 30
0.0
 11
182.5926876694603
 21
247.6547994327699
 31
0.0
  0
LINE
  5
2190
330
1D17
100
AcDbEntity
  8
AM_5
  6
ByBlock
100
AcDbLine
 10
150.8927181078541
 20
247.6547994327699
 30
0.0
 11
124.5927181078541
 21
247.6547994327699
 31
0.0
  0
LINE
  5
2191
330
1D17
100
AcDbEntity
  8
AM_5
  6
ByBlock
100
AcDbLine
 10
168.5926876694603
 20
247.6547994327699
 30
0.0
 11
157.8927181078541
 21
247.6547994327699
 31
0.0
  0
SOLID
  5
2192
330
1D17
100
AcDbEntity
  8
AM_5
100
AcDbTrace
 10
175.5926876694603
 20
248.8214660994365
 30
0.0
 11
175.5926876694603
 21
246.4881327661032
 31
0.0
 12
168.5926876694603
 22
247.6547994327699
 32
0.0
 13
168.5926876694603
 23
247.6547994327699
 33
0.0
  0
SOLID
  5
2193
330
1D17
100
AcDbEntity
  8
AM_5
100
AcDbTrace
 10
150.8927181078541
 20
248.8214660994365
 30
0.0
 11
150.8927181078541
 21
246.4881327661032
 31
0.0
 12
157.8927181078541
 22
247.6547994327699
 32
0.0
 13
157.8927181078541
 23
247.6547994327699
 33
0.0
  0
MTEXT
  5
2194
330
1D17
100
AcDbEntity
  8
AM_5
 62
     2
100
AcDbMText
 10
134.2427181078541
 20
254.1547994327699
 30
0.0
 40
7.0
 41
0.0
 46
0.0
 71
     5
 72
     1
  1
10.7
 73
     1
 44
1.0
  0
POINT
  5
2195
330
1D17
100
AcDbEntity
  8
Defpoints
 62
     0
100
AcDbPoint
 10
157.8927181078541
 20
166.1402987744116
 30
0.0
  0
POINT
  5
2196
330
1D17
100
AcDbEntity
  8
Defpoints
 62
     0
100
AcDbPoint
 10
168.5926876694603
 20
226.1160289811583
 30
0.0
  0
POINT
  5
2197
330
1D17
100
AcDbEntity
  8
Defpoints
 62
     0
100
AcDbPoint
 10
168.5926876694603
 20
247.6547994327699
 30
0.0
  0
ENDBLK
  5
1D24
330
1D17
100
AcDbEntity
  8
0
100
AcDbBlockEnd
  0
BLOCK
  5
1D6C
330
1D60
100
AcDbEntity
  8
0
100
AcDbBlockBegin
  2
*D40
 70
     1
 10
0.0
 20
0.0
 30
0.0
  3
*D40
  1

  0
LINE
  5
20A0
330
1D60
100
AcDbEntity
  8
AM_5
  6
ByBlock
100
AcDbLine
 10
167.5926876694603
 20
104.1159689811582
 30
0.0
 11
167.5926876694603
 21
86.6159689811583
 31
0.0
  0
LINE
  5
20A1
330
1D60
100
AcDbEntity
  8
AM_5
  6
ByBlock
100
AcDbLine
 10
168.5926876694603
 20
104.1159689811582
 30
0.0
 11
168.5926876694603
 21
86.6159689811583
 31
0.0
  0
LINE
  5
20A2
330
1D60
100
AcDbEntity
  8
AM_5
  6
ByBlock
100
AcDbLine
 10
175.5926876694603
 20
88.61596898115829
 30
0.0
 11
182.5926876694603
 21
88.61596898115829
 31
0.0
  0
LINE
  5
20A3
330
1D60
100
AcDbEntity
  8
AM_5
  6
ByBlock
100
AcDbLine
 10
160.5926876694603
 20
88.61596898115829
 30
0.0
 11
146.0335190850585
 21
88.61596898115829
 31
0.0
  0
LINE
  5
20A4
330
1D60
100
AcDbEntity
  8
AM_5
  6
ByBlock
100
AcDbLine
 10
168.5926876694603
 20
88.61596898115829
 30
0.0
 11
167.5926876694603
 21
88.61596898115829
 31
0.0
  0
SOLID
  5
20A5
330
1D60
100
AcDbEntity
  8
AM_5
100
AcDbTrace
 10
175.5926876694603
 20
89.78263564782496
 30
0.0
 11
175.5926876694603
 21
87.44930231449162
 31
0.0
 12
168.5926876694603
 22
88.61596898115829
 32
0.0
 13
168.5926876694603
 23
88.61596898115829
 33
0.0
  0
SOLID
  5
20A6
330
1D60
100
AcDbEntity
  8
AM_5
100
AcDbTrace
 10
160.5926876694603
 20
89.78263564782496
 30
0.0
 11
160.5926876694603
 21
87.44930231449162
 31
0.0
 12
167.5926876694603
 22
88.61596898115829
 32
0.0
 13
167.5926876694603
 23
88.61596898115829
 33
0.0
  0
MTEXT
  5
20A7
330
1D60
100
AcDbEntity
  8
AM_5
 62
     2
100
AcDbMText
 10
149.7335190850586
 20
95.11596898115829
 30
0.0
 40
7.0
 41
0.0
 46
0.0
 71
     5
 72
     1
  1
1
 73
     1
 44
1.0
  0
POINT
  5
20A8
330
1D60
100
AcDbEntity
  8
Defpoints
 62
     0
100
AcDbPoint
 10
167.5926876694603
 20
106.1159689811582
 30
0.0
  0
POINT
  5
20A9
330
1D60
100
AcDbEntity
  8
Defpoints
 62
     0
100
AcDbPoint
 10
168.5926876694603
 20
106.1159689811582
 30
0.0
  0
POINT
  5
20AA
330
1D60
100
AcDbEntity
  8
Defpoints
 62
     0
100
AcDbPoint
 10
168.5926876694603
 20
88.61596898115829
 30
0.0
  0
ENDBLK
  5
1D6D
330
1D60
100
AcDbEntity
  8
0
100
AcDbBlockEnd
  0
BLOCK
  5
1DC2
330
1DB8
100
AcDbEntity
  8
0
100
AcDbBlockBegin
  2
*D41
 70
     1
 10
0.0
 20
0.0
 30
0.0
  3
*D41
  1

  0
LINE
  5
20AB
330
1DB8
100
AcDbEntity
  8
AM_5
  6
ByBlock
100
AcDbLine
 10
165.5926876694603
 20
124.1159709811582
 30
0.0
 11
141.5926876694602
 21
124.1159709811582
 31
0.0
  0
LINE
  5
20AC
330
1DB8
100
AcDbEntity
  8
AM_5
  6
ByBlock
100
AcDbLine
 10
165.5926876694603
 20
208.1160429811583
 30
0.0
 11
141.5926876694603
 21
208.1160429811583
 31
0.0
  0
LINE
  5
20AD
330
1DB8
100
AcDbEntity
  8
AM_5
  6
ByBlock
100
AcDbLine
 10
143.5926876694602
 20
131.1159709811582
 30
0.0
 11
143.5926876694603
 21
201.1160429811583
 31
0.0
  0
SOLID
  5
20AE
330
1DB8
100
AcDbEntity
  8
AM_5
100
AcDbTrace
 10
142.4260210027936
 20
131.1159709811582
 30
0.0
 11
144.7593543361269
 21
131.1159709811582
 31
0.0
 12
143.5926876694602
 22
124.1159709811582
 32
0.0
 13
143.5926876694602
 23
124.1159709811582
 33
0.0
  0
SOLID
  5
20AF
330
1DB8
100
AcDbEntity
  8
AM_5
100
AcDbTrace
 10
142.4260210027936
 20
201.1160429811583
 30
0.0
 11
144.7593543361269
 21
201.1160429811583
 31
0.0
 12
143.5926876694603
 22
208.1160429811583
 32
0.0
 13
143.5926876694603
 23
208.1160429811583
 33
0.0
  0
MTEXT
  5
20B0
330
1DB8
100
AcDbEntity
  8
AM_5
 62
     2
100
AcDbMText
 10
137.0926876694602
 20
166.1160069811583
 30
0.0
 40
7.0
 41
0.0
 46
0.0
 71
     5
 72
     1
  1
84
 11
0.0000000000000001
 21
1.0
 31
0.0
 73
     1
 44
1.0
  0
POINT
  5
20B1
330
1DB8
100
AcDbEntity
  8
Defpoints
 62
     0
100
AcDbPoint
 10
167.5926876694603
 20
124.1159709811582
 30
0.0
  0
POINT
  5
20B2
330
1DB8
100
AcDbEntity
  8
Defpoints
 62
     0
100
AcDbPoint
 10
167.5926876694603
 20
208.1160429811583
 30
0.0
  0
POINT
  5
20B3
330
1DB8
100
AcDbEntity
  8
Defpoints
 62
     0
100
AcDbPoint
 10
143.5926876694603
 20
208.1160429811583
 30
0.0
  0
ENDBLK
  5
1DC3
330
1DB8
100
AcDbEntity
  8
0
100
AcDbBlockEnd
  0
BLOCK
  5
1E01
330
1DF7
100
AcDbEntity
  8
0
100
AcDbBlockBegin
  2
*D42
 70
     1
 10
0.0
 20
0.0
 30
0.0
  3
*D42
  1

  0
LINE
  5
20B4
330
1DF7
100
AcDbEntity
  8
AM_5
  6
ByBlock
100
AcDbLine
 10
71.61201523534018
 20
219.1160149811583
 30
0.0
 11
59.67637431177163
 21
219.1160149811583
 31
0.0
  0
LINE
  5
20B5
330
1DF7
100
AcDbEntity
  8
AM_5
  6
ByBlock
100
AcDbLine
 10
71.61201523534018
 20
113.1159969811583
 30
0.0
 11
59.6763743117716
 21
113.1159969811583
 31
0.0
  0
LINE
  5
20B6
330
1DF7
100
AcDbEntity
  8
AM_5
  6
ByBlock
100
AcDbLine
 10
61.67637431177162
 20
212.1160149811583
 30
0.0
 11
61.6763743117716
 21
120.1159969811583
 31
0.0
  0
SOLID
  5
20B7
330
1DF7
100
AcDbEntity
  8
AM_5
100
AcDbTrace
 10
60.50970764510496
 20
212.1160149811583
 30
0.0
 11
62.84304097843829
 21
212.1160149811583
 31
0.0
 12
61.67637431177162
 22
219.1160149811583
 32
0.0
 13
61.67637431177162
 23
219.1160149811583
 33
0.0
  0
SOLID
  5
20B8
330
1DF7
100
AcDbEntity
  8
AM_5
100
AcDbTrace
 10
60.50970764510494
 20
120.1159969811583
 30
0.0
 11
62.84304097843826
 21
120.1159969811583
 31
0.0
 12
61.6763743117716
 22
113.1159969811583
 32
0.0
 13
61.6763743117716
 23
113.1159969811583
 33
0.0
  0
MTEXT
  5
20B9
330
1DF7
100
AcDbEntity
  8
AM_5
 62
     2
100
AcDbMText
 10
55.17637431177158
 20
166.1160059811583
 30
0.0
 40
7.0
 41
0.0
 46
0.0
 71
     5
 72
     1
  1
106
 11
0.0000000000000001
 21
1.0
 31
0.0
 73
     1
 44
1.0
  0
POINT
  5
20BA
330
1DF7
100
AcDbEntity
  8
Defpoints
 62
     0
100
AcDbPoint
 10
73.61201523534018
 20
219.1160149811583
 30
0.0
  0
POINT
  5
20BB
330
1DF7
100
AcDbEntity
  8
Defpoints
 62
     0
100
AcDbPoint
 10
73.61201523534018
 20
113.1159969811583
 30
0.0
  0
POINT
  5
20BC
330
1DF7
100
AcDbEntity
  8
Defpoints
 62
     0
100
AcDbPoint
 10
61.6763743117716
 20
113.1159969811583
 30
0.0
  0
ENDBLK
  5
1E02
330
1DF7
100
AcDbEntity
  8
0
100
AcDbBlockEnd
  0
BLOCK
  5
1E40
330
1E36
100
AcDbEntity
  8
0
100
AcDbBlockBegin
  2
*D43
 70
     1
 10
0.0
 20
0.0
 30
0.0
  3
*D43
  1

  0
LINE
  5
20BD
330
1E36
100
AcDbEntity
  8
AM_5
  6
ByBlock
100
AcDbLine
 10
77.4394692353402
 20
106.1159969811583
 30
0.0
 11
39.67637431177156
 21
106.1159969811583
 31
0.0
  0
LINE
  5
20BE
330
1E36
100
AcDbEntity
  8
AM_5
  6
ByBlock
100
AcDbLine
 10
77.4394692353402
 20
226.1160149811582
 30
0.0
 11
39.67637431177158
 21
226.1160149811582
 31
0.0
  0
LINE
  5
20BF
330
1E36
100
AcDbEntity
  8
AM_5
  6
ByBlock
100
AcDbLine
 10
41.67637431177156
 20
113.1159969811583
 30
0.0
 11
41.67637431177158
 21
219.1160149811582
 31
0.0
  0
SOLID
  5
20C0
330
1E36
100
AcDbEntity
  8
AM_5
100
AcDbTrace
 10
40.50970764510489
 20
113.1159969811583
 30
0.0
 11
42.84304097843822
 21
113.1159969811583
 31
0.0
 12
41.67637431177155
 22
106.1159969811583
 32
0.0
 13
41.67637431177155
 23
106.1159969811583
 33
0.0
  0
SOLID
  5
20C1
330
1E36
100
AcDbEntity
  8
AM_5
100
AcDbTrace
 10
40.50970764510491
 20
219.1160149811582
 30
0.0
 11
42.84304097843825
 21
219.1160149811582
 31
0.0
 12
41.67637431177158
 22
226.1160149811582
 32
0.0
 13
41.67637431177158
 23
226.1160149811582
 33
0.0
  0
MTEXT
  5
20C2
330
1E36
100
AcDbEntity
  8
AM_5
 62
     2
100
AcDbMText
 10
35.17568533539359
 20
166.1160059811582
 30
0.0
 40
7.0
 41
0.0
 46
0.0
 71
     5
 72
     1
  1
120
 11
0.0000000000000001
 21
1.0
 31
0.0
 73
     1
 44
1.0
  0
POINT
  5
20C3
330
1E36
100
AcDbEntity
  8
Defpoints
 62
     0
100
AcDbPoint
 10
79.4394692353402
 20
106.1159969811583
 30
0.0
  0
POINT
  5
20C4
330
1E36
100
AcDbEntity
  8
Defpoints
 62
     0
100
AcDbPoint
 10
79.4394692353402
 20
226.1160149811582
 30
0.0
  0
POINT
  5
20C5
330
1E36
100
AcDbEntity
  8
Defpoints
 62
     0
100
AcDbPoint
 10
41.67637431177158
 20
226.1160149811582
 30
0.0
  0
ENDBLK
  5
1E41
330
1E36
100
AcDbEntity
  8
0
100
AcDbBlockEnd
  0
BLOCK
  5
2053
330
2052
100
AcDbEntity
  8
0
100
AcDbBlockBegin
  2
*U44
 70
     1
 10
0.0
 20
0.0
 30
0.0
  3
*U44
  1

  0
ENDBLK
  5
2054
330
2052
100
AcDbEntity
  8
0
100
AcDbBlockEnd
  0
BLOCK
  5
2106
330
2105
100
AcDbEntity
  8
0
100
AcDbBlockBegin
  2
*D46
 70
     1
 10
0.0
 20
0.0
 30
0.0
  3
*D46
  1

  0
LINE
  5
212F
330
2105
100
AcDbEntity
  8
AM_5
  6
ByBlock
100
AcDbLine
 10
86.73947223534014
 20
60.88768329439651
 30
0.0
 11
86.73947223534014
 21
77.34738308025029
 31
0.0
  0
LINE
  5
2130
330
2105
100
AcDbEntity
  8
AM_5
  6
ByBlock
100
AcDbLine
 10
112.1394722353401
 20
60.88768329439651
 30
0.0
 11
112.1394722353401
 21
77.34738308025029
 31
0.0
  0
LINE
  5
2131
330
2105
100
AcDbEntity
  8
AM_5
  6
ByBlock
100
AcDbLine
 10
93.73947223534015
 20
75.3473830802503
 30
0.0
 11
105.1394722353401
 21
75.3473830802503
 31
0.0
  0
SOLID
  5
2132
330
2105
100
AcDbEntity
  8
AM_5
100
AcDbTrace
 10
93.73947223534015
 20
76.51404974691697
 30
0.0
 11
93.73947223534015
 21
74.18071641358363
 31
0.0
 12
86.73947223534014
 22
75.3473830802503
 32
0.0
 13
86.73947223534014
 23
75.3473830802503
 33
0.0
  0
SOLID
  5
2133
330
2105
100
AcDbEntity
  8
AM_5
100
AcDbTrace
 10
105.1394722353401
 20
76.51404974691697
 30
0.0
 11
105.1394722353401
 21
74.18071641358363
 31
0.0
 12
112.1394722353401
 22
75.3473830802503
 32
0.0
 13
112.1394722353401
 23
75.3473830802503
 33
0.0
  0
MTEXT
  5
2134
330
2105
100
AcDbEntity
  8
AM_5
 62
     2
100
AcDbMText
 10
99.43947223534015
 20
81.84807205662826
 30
0.0
 40
7.0
 41
0.0
 46
0.0
 71
     5
 72
     1
  1
25.4
 73
     1
 44
1.0
  0
POINT
  5
2135
330
2105
100
AcDbEntity
  8
Defpoints
 62
     0
100
AcDbPoint
 10
86.73947223534014
 20
58.88768329439651
 30
0.0
  0
POINT
  5
2136
330
2105
100
AcDbEntity
  8
Defpoints
 62
     0
100
AcDbPoint
 10
112.1394722353401
 20
58.88768329439651
 30
0.0
  0
POINT
  5
2137
330
2105
100
AcDbEntity
  8
Defpoints
 62
     0
100
AcDbPoint
 10
112.1394722353401
 20
75.3473830802503
 30
0.0
  0
ENDBLK
  5
2107
330
2105
100
AcDbEntity
  8
0
100
AcDbBlockEnd
  0
ENDSEC
  0
SECTION
  2
ENTITIES
  0
INSERT
  5
3FB
330
1A
100
AcDbEntity
  8
ASHADE
 62
     1
100
AcDbBlockReference
  2
AVE_RENDER
 10
0.0
 20
0.0
 30
0.0
1001
AVE_RENDER
1002
{
1070
     7
1000
Pref
1070
    60
1070
    30
1070
     1
1070
     0
1000

1070
    10
1070
     1
1070
    10
1040
1.0
1070
     1
1040
0.3
1040
0.7
1040
0.0
1040
10.0
1010
-1.0
1020
-1.0
1030
-1.0
1040
0.3
1070
    49
1070
     1
1070
     0
1010
1.0
1020
1.0
1030
1.0
1040
45.0
1070
     1
1070
     0
1000
WCS
1040
0.0
1070
     1
1040
10.0
1002
}
  0
INSERT
  5
3FC
330
1A
100
AcDbEntity
  8
ASHADE
 62
     3
100
AcDbBlockReference
  2
AVE_RENDER
 10
0.0
 20
0.0
 30
0.0
1001
AVE_RENDER
1002
{
1070
     0
1000
Full Opt
1070
     0
1070
     1
1070
     1
1070
     1
1070
     0
1070
     0
1070
     0
1070
     1
1070
     1
1040
0.0001
1040
0.0001
1002
}
  0
INSERT
  5
3FD
330
1A
100
AcDbEntity
  8
ASHADE
 62
     4
100
AcDbBlockReference
  2
AVE_RENDER
 10
0.0
 20
0.0
 30
0.0
1001
AVE_RENDER
1002
{
1070
     0
1000
Quick Opt
1070
     0
1070
     1
1070
     1
1070
     1
1070
     0
1070
     0
1070
     1
1002
}
  0
INSERT
  5
3FE
330
1A
100
AcDbEntity
  8
ASHADE
 62
     5
100
AcDbBlockReference
  2
AVE_RENDER
 10
0.0
 20
0.0
 30
0.0
1001
AVE_RENDER
1002
{
1070
     1
1000
Scanl Opt
1070
     2
1070
     0
1070
     2
1040
2.0
1040
4.0
1070
     0
1070
     1
1070
     0
1040
0.03
1002
}
  0
INSERT
  5
3FF
330
1A
100
AcDbEntity
  8
ASHADE
 62
     6
100
AcDbBlockReference
  2
AVE_RENDER
 10
0.0
 20
0.0
 30
0.0
1001
AVE_RENDER
1002
{
1070
     2
1000
Raytr Opt
1070
     3
1070
     0
1070
     2
1040
2.0
1040
4.0
1070
     0
1070
     1
1070
     1
1040
0.03
1070
     3
1040
0.03
1002
}
  0
INSERT
  5
400
330
1A
100
AcDbEntity
  8
ASHADE
 62
     7
100
AcDbBlockReference
  2
AVE_RENDER
 10
0.0
 20
0.0
 30
0.0
1001
AVE_RENDER
1002
{
1070
     0
1000
RFile Opt
1070
     5
1070
  1600
1070
  1280
1070
 10000
1070
     1
1070
    32
1070
    32
1070
     0
1070
     0
1070
     0
1070
     0
1070
     0
1070
     0
1070
     0
1002
}
  0
INSERT
  5
401
330
1A
100
AcDbEntity
  8
ASHADE
 62
     8
100
AcDbBlockReference
  2
AVE_RENDER
 10
0.0
 20
0.0
 30
0.0
1001
AVE_RENDER
1002
{
1070
     0
1000
Fog Opt
1070
     0
1070
     0
1040
0.0
1040
1.0
1040
0.0
1040
1.0
1010
0.5
1020
0.5
1030
0.5
1002
}
  0
INSERT
  5
402
330
1A
100
AcDbEntity
  8
ASHADE
 62
     9
100
AcDbBlockReference
  2
AVE_RENDER
 10
0.0
 20
0.0
 30
0.0
1001
AVE_RENDER
1002
{
1070
     0
1000
BG Opt
1070
     0
1070
     0
1010
1.0
1020
1.0
1030
1.0
1010
1.0
1020
0.0
1030
0.0
1010
0.0
1020
1.0
1030
0.0
1010
0.0
1020
0.0
1030
1.0
1040
0.5
1040
0.33
1040
0.0
1000

1070
     1
1000

1070
     1
1070
     1
1040
1.0
1040
1.0
1040
0.0
1040
0.0
1070
     0
1002
}
  0
INSERT
  5
409
330
1A
100
AcDbEntity
  8
ASHADE
 62
     1
100
AcDbBlockReference
  2
AVE_GLOBAL
 10
0.0
 20
0.0
 30
0.0
1001
AVE_MATERIAL
1002
{
1000
*GLOBAL*
1000
2
1000
Globales Material.
1002
{
1002
}
1002
{
1070
    63
1002
{
1002
{
1010
-1.0
1020
-1.0
1030
-1.0
1002
}
1040
0.1000000014901161
1000

1040
0.0
1002
{
1002
}
1040
0.0
1002
{
1002
}
1040
0.0
1002
}
1002
{
1002
{
1010
-1.0
1020
-1.0
1030
-1.0
1002
}
1040
0.6999999880790711
1000

1040
0.0
1002
{
1002
}
1040
0.0
1002
{
1002
}
1040
0.0
1002
}
1002
{
1002
{
1010
-1.0
1020
-1.0
1030
-1.0
1002
}
1040
0.2000000029802322
1000

1040
0.0
1002
{
1002
}
1040
0.0
1002
{
1002
}
1040
0.0
1002
}
1002
{
1070
     0
1002
{
1070
     1
1002
{
1040
1.0
1040
1.0
1000

1040
0.0
1002
{
1002
}
1040
0.0
1002
{
1002
}
1040
0.0
1002
}
1002
}
1040
1.0
1040
0.0
1040
0.0
1002
}
1002
{
1040
1.0
1040
1.0
1000

1040
0.0
1002
{
1002
}
1040
0.0
1002
{
1002
}
1040
0.0
1002
}
1002
{
1040
0.5
1040
1.0
1000

1040
0.0
1002
{
1002
}
1040
0.0
1002
{
1002
}
1040
0.0
1002
}
1002
{
1070
     0
1040
0.0
1002
{
1002
}
1040
1.0
1002
{
1002
}
1040
0.0
1002
}
1002
{
1040
0.0
1002
{
1002
{
1010
0.0
1020
0.0
1030
0.0
1002
}
1040
1.0
1000

1040
0.0
1002
{
1002
}
1040
0.0
1002
{
1002
}
1040
0.0
1002
}
1002
}
1002
{
1002
{
1070
     1
1002
{
1040
0.0
1040
1.0
1000

1040
0.0
1002
{
1002
}
1040
0.0
1002
{
1002
}
1040
0.0
1002
}
1002
}
1040
0.0
1002
{
1002
}
1010
1.0
1020
0.0
1030
0.0
1010
0.0
1020
1.0
1030
0.0
1010
0.0
1020
0.0
1030
1.0
1070
     0
1002
}
1002
{
1002
{
1040
1.0
1040
1.0
1002
{
1070
     1
1002
{
1040
1.0
1040
1.0
1000

1040
0.0
1002
{
1002
}
1040
0.0
1002
{
1002
}
1040
0.0
1002
}
1002
}
1002
}
1070
     0
1040
0.0
1002
{
1002
}
1002
}
1002
{
1002
}
1002
}
1002
{
1071
        3
1070
     3
1070
     0
1002
{
1070
     2
1070
     0
1070
     0
1040
0.0
1002
}
1070
     0
1070
     2
1002
{
1002
}
1002
}
1002
{
1040
8030.0
1040
190.3000030517578
1040
0.3050000071525574
1040
228.0
1040
545.0
1040
14.0
1040
17.39999961853027
1040
0.4560000002384186
1002
}
1002
}
  0
POINT
  5
1677
330
1A
100
AcDbEntity
  8
0
 60
     1
100
AcDbPoint
 10
0.0
 20
0.0
 30
0.0
1001
GENIUS_GENODEF_13
1002
{
1000
HIER
1070
     1
1002
}
1002
{
1000
MANEDIT
1070
     0
1002
}
1002
{
1000
NOSEL
1070
     0
1002
}
1002
{
1000
BEHIND
1070
     0
1002
}
1002
{
1000
REACTOR
1002
}
1001
GENIUS_GENOBJ-N-SDF_13
1002
{
1000
OWNER
1000
GEN
1002
}
1001
GENIUS_GENOENT_13
1002
{
1000
MYREF
1005
1677
1002
}
1002
{
1000
GRP
1005
0
1002
}
1001
GENIUS_GENOLIS_13
1002
{
1000
ENT
1005
22
1002
}
  0
LINE
  5
1A65
330
1A
100
AcDbEntity
  8
1
100
AcDbLine
 10
87.73946923534017
 20
136.8159969811583
 30
0.0
 11
87.73946923534017
 21
195.4159949811582
 31
0.0
  0
LINE
  5
1A66
330
1A
100
AcDbEntity
  8
1
100
AcDbLine
 10
111.1394712353401
 20
136.8159969811583
 30
0.0
 11
111.1394712353401
 21
195.4159949811582
 31
0.0
  0
LINE
  5
1A67
330
1A
100
AcDbEntity
  8
1
100
AcDbLine
 10
79.43946523534018
 20
106.1160269811583
 30
0.0
 11
79.43946523534018
 21
226.1160149811582
 31
0.0
  0
LINE
  5
1A68
330
1A
100
AcDbEntity
  8
1
100
AcDbLine
 10
119.4394752353401
 20
106.1160269811583
 30
0.0
 11
119.4394752353401
 21
226.1160149811582
 31
0.0
  0
LINE
  5
1A69
330
1A
100
AcDbEntity
  8
7
  6
GEN7A
100
AcDbLine
 10
99.43947123534019
 20
102.5849909811582
 30
0.0
 11
99.43947123534019
 21
229.5902889811583
 31
0.0
  0
ARC
  5
1A6A
330
1A
100
AcDbEntity
  8
1
100
AcDbCircle
 10
99.43946923534021
 20
136.8159989811583
 30
0.0
 40
11.699998
100
AcDbArc
 50
180.0000149999998
 51
359.9999910000004
  0
LINE
  5
1A6B
330
1A
100
AcDbEntity
  8
1
100
AcDbLine
 10
79.4394692353402
 20
106.1159969811583
 30
0.0
 11
119.4394732353401
 21
106.1159969811583
 31
0.0
  0
LINE
  5
1A6C
330
1A
100
AcDbEntity
  8
7
  6
GEN7A
100
AcDbLine
 10
86.4394692353402
 20
107.9608909811582
 30
0.0
 11
86.4394692353402
 21
121.9045409811583
 31
0.0
  0
LINE
  5
1A6D
330
1A
100
AcDbEntity
  8
7
  6
GEN7A
100
AcDbLine
 10
73.61201523534018
 20
113.1159969811583
 30
0.0
 11
91.45878723534019
 21
113.1159969811583
 31
0.0
  0
CIRCLE
  5
1A6E
330
1A
100
AcDbEntity
  8
1
100
AcDbCircle
 10
86.4394692353402
 20
113.1159969811583
 30
0.0
 40
2.25
  0
CIRCLE
  5
1A6F
330
1A
100
AcDbEntity
  8
1
100
AcDbCircle
 10
86.4394692353402
 20
113.1159969811583
 30
0.0
 40
3.0
  0
LINE
  5
1A70
330
1A
100
AcDbEntity
  8
7
  6
GEN7A
100
AcDbLine
 10
112.4394732353401
 20
107.9608769811583
 30
0.0
 11
112.4394732353401
 21
121.2325589811583
 31
0.0
  0
LINE
  5
1A71
330
1A
100
AcDbEntity
  8
7
  6
GEN7A
100
AcDbLine
 10
107.9585912353401
 20
113.1159969811583
 30
0.0
 11
123.6166272353401
 21
113.1159969811583
 31
0.0
  0
CIRCLE
  5
1A72
330
1A
100
AcDbEntity
  8
1
100
AcDbCircle
 10
112.4394732353401
 20
113.1159969811583
 30
0.0
 40
3.0
  0
CIRCLE
  5
1A73
330
1A
100
AcDbEntity
  8
1
100
AcDbCircle
 10
112.4394732353401
 20
113.1159969811583
 30
0.0
 40
2.25
  0
LINE
  5
1A74
330
1A
100
AcDbEntity
  8
7
  6
GEN7A
100
AcDbLine
 10
94.82487323534019
 20
166.1160029811583
 30
0.0
 11
104.7520072353402
 21
166.1160029811583
 31
0.0
  0
ARC
  5
1A75
330
1A
100
AcDbEntity
  8
1
100
AcDbCircle
 10
99.43946923534021
 20
195.4160109811583
 30
0.0
 40
11.699998
100
AcDbArc
 50
359.9999250000005
 51
180.0
  0
LINE
  5
1A76
330
1A
100
AcDbEntity
  8
7
  6
GEN7A
100
AcDbLine
 10
73.61201523534018
 20
166.1160029811583
 30
0.0
 11
84.50065723534018
 21
166.1160029811583
 31
0.0
  0
LINE
  5
1A77
330
1A
100
AcDbEntity
  8
7
  6
GEN7A
100
AcDbLine
 10
91.05256323534019
 20
166.1160029811583
 30
0.0
 11
92.54163523534019
 21
166.1160029811583
 31
0.0
  0
LINE
  5
1A78
330
1A
100
AcDbEntity
  8
7
  6
GEN7A
100
AcDbLine
 10
86.7838992353402
 20
166.1160029811583
 30
0.0
 11
89.16640523534018
 21
166.1160029811583
 31
0.0
  0
LINE
  5
1A79
330
1A
100
AcDbEntity
  8
7
  6
GEN7A
100
AcDbLine
 10
110.0133892353401
 20
166.1160029811583
 30
0.0
 11
123.6166252353401
 21
166.1160029811583
 31
0.0
  0
LINE
  5
1A7A
330
1A
100
AcDbEntity
  8
7
  6
GEN7A
100
AcDbLine
 10
106.7374332353401
 20
166.1160029811583
 30
0.0
 11
108.7228612353401
 21
166.1160029811583
 31
0.0
  0
LINE
  5
1A7D
330
1A
100
AcDbEntity
  8
1
100
AcDbLine
 10
79.4394692353402
 20
226.1160149811582
 30
0.0
 11
119.4394732353401
 21
226.1160149811582
 31
0.0
  0
LINE
  5
1A7E
330
1A
100
AcDbEntity
  8
7
  6
GEN7A
100
AcDbLine
 10
73.61201523534018
 20
219.1160149811583
 30
0.0
 11
90.6810932353402
 21
219.1160149811583
 31
0.0
  0
CIRCLE
  5
1A7F
330
1A
100
AcDbEntity
  8
1
100
AcDbCircle
 10
86.4394692353402
 20
219.1160149811583
 30
0.0
 40
3.0
  0
CIRCLE
  5
1A80
330
1A
100
AcDbEntity
  8
1
100
AcDbCircle
 10
86.4394692353402
 20
219.1160149811583
 30
0.0
 40
2.25
  0
LINE
  5
1A81
330
1A
100
AcDbEntity
  8
7
  6
GEN7A
100
AcDbLine
 10
86.4394692353402
 20
213.5945229811583
 30
0.0
 11
86.4394692353402
 21
223.6292129811582
 31
0.0
  0
LINE
  5
1A82
330
1A
100
AcDbEntity
  8
7
  6
GEN7A
100
AcDbLine
 10
108.3129472353401
 20
219.1160149811583
 30
0.0
 11
123.6166252353401
 21
219.1160149811583
 31
0.0
  0
CIRCLE
  5
1A83
330
1A
100
AcDbEntity
  8
1
100
AcDbCircle
 10
112.4394732353401
 20
219.1160149811583
 30
0.0
 40
2.25
  0
CIRCLE
  5
1A84
330
1A
100
AcDbEntity
  8
1
100
AcDbCircle
 10
112.4394732353401
 20
219.1160149811583
 30
0.0
 40
3.0
  0
LINE
  5
1A85
330
1A
100
AcDbEntity
  8
7
  6
GEN7A
100
AcDbLine
 10
112.4394732353401
 20
213.7986249811583
 30
0.0
 11
112.4394732353401
 21
223.6292129811582
 31
0.0
  0
ARC
  5
1A87
330
1A
100
AcDbEntity
  8
1
100
AcDbCircle
 10
278.8926996694603
 20
166.1160069811583
 30
0.0
 40
120.999984
100
AcDbArc
 50
179.9884973766643
 51
199.8075070000005
  0
LINE
  5
1A88
330
1A
100
AcDbEntity
  8
2
 62
     4
100
AcDbLine
 10
167.5926876694603
 20
106.1159689811582
 30
0.0
 11
167.5926876694603
 21
226.1160289811583
 31
0.0
  0
LINE
  5
1A89
330
1A
100
AcDbEntity
  8
2
  6
GENCLIN
 62
     4
100
AcDbLine
 10
168.5926876694603
 20
106.1159689811582
 30
0.0
 11
168.5926876694603
 21
226.1160289811583
 31
0.0
  0
LINE
  5
1A8A
330
1A
100
AcDbEntity
  8
2
 62
     4
100
AcDbLine
 10
167.5926876694603
 20
106.1159849811583
 30
0.0
 11
168.5926876694603
 21
106.1159849811583
 31
0.0
  0
ARC
  5
1A8B
330
1A
100
AcDbEntity
  8
1
100
AcDbCircle
 10
166.4649416694603
 20
125.6159709811582
 30
0.0
 40
1.5
100
AcDbArc
 50
199.8104549999998
 51
270.0
  0
LINE
  5
1A8C
330
1A
100
AcDbEntity
  8
1
100
AcDbLine
 10
166.4450676694603
 20
124.1159709811582
 30
0.0
 11
167.5926876694603
 21
124.1159709811582
 31
0.0
  0
ARC
  5
1A8E
330
1A
100
AcDbEntity
  8
1
100
AcDbCircle
 10
278.8926996694603
 20
166.1160069811583
 30
0.0
 40
120.999984
100
AcDbArc
 50
160.1924929999994
 51
180.0115026233356
  0
LINE
  5
1A8F
330
1A
100
AcDbEntity
  8
7
  6
GEN7A
100
AcDbLine
 10
153.1767036694603
 20
166.1160069811583
 30
0.0
 11
171.3743196694603
 21
166.1160069811583
 31
0.0
  0
ARC
  5
1A90
330
1A
100
AcDbEntity
  8
1
100
AcDbCircle
 10
166.4649416694603
 20
206.6160429811583
 30
0.0
 40
1.5
100
AcDbArc
 50
90.0
 51
160.1895450000001
  0
LINE
  5
1A91
330
1A
100
AcDbEntity
  8
1
100
AcDbLine
 10
166.4450676694603
 20
208.1160429811583
 30
0.0
 11
167.5926876694603
 21
208.1160429811583
 31
0.0
  0
LINE
  5
1A93
330
1A
100
AcDbEntity
  8
1
 62
     4
100
AcDbLine
 10
167.5926876694603
 20
226.1160289811583
 30
0.0
 11
168.5926876694603
 21
226.1160289811583
 31
0.0
  0
LWPOLYLINE
  5
1C6D
330
1A
100
AcDbEntity
  8
AM_VIEWS
100
AcDbPolyline
 90
        4
 70
     1
 43
0.0
 10
9.133987990360424
 20
20.17250677994252
 10
228.547098026613
 20
20.17250677994252
 10
228.547098026613
 20
319.2902860806134
 10
9.133987990360424
 20
319.2902860806134
1001
GENIUS_GENSCREG_15
1040
2.0
1040
1.0
1011
9.133987990360424
1021
20.17250677994252
1031
0.0
1011
228.547098026613
1021
319.2902860806134
1031
0.0
1070
     2
1001
GENIUS_GENOBJ-N-SDF_13
1002
{
1000
OWNER
1000
GEN
1002
}
1001
GENIUS_GENODEF_13
1002
{
1000
HIER
1070
     0
1002
}
1002
{
1000
MANEDIT
1070
     0
1002
}
1002
{
1000
NOSEL
1070
     0
1002
}
1002
{
1000
BEHIND
1070
     0
1002
}
1002
{
1000
OTHER
1070
     0
1002
}
1002
{
1000
REACTOR
1002
}
  0
DIMENSION
  5
1C7D
330
1A
100
AcDbEntity
  8
AM_5
100
AcDbDimension
  2
*D37
 10
112.4394732353401
 20
247.6292129811582
 30
0.0
 11
99.43947123534016
 21
254.1299019575361
 31
0.0
 70
    32
 71
     5
 42
26.0000039999999
 73
     0
 74
     0
 75
     0
  3
AM_ISO
100
AcDbAlignedDimension
 13
86.4394692353402
 23
223.6292129811582
 33
0.0
 14
112.4394732353401
 24
222.1160149811582
 34
0.0
100
AcDbRotatedDimension
1001
ACAD
1000
DSTYLE
1002
{
1070
    40
1040
2.0
1002
}
  0
DIMENSION
  5
1CD7
330
1A
100
AcDbEntity
  8
AM_5
100
AcDbDimension
  2
*D38
 10
119.4394752353401
 20
270.6532489125253
 30
0.0
 11
99.43947023534015
 21
277.1532489125253
 31
0.0
 70
    32
 71
     5
 42
40.00000999999992
 73
     0
 74
     0
 75
     0
  3
AM_ISO
100
AcDbAlignedDimension
 13
79.43946523534018
 23
226.1160149811582
 33
0.0
 14
119.4394752353401
 24
226.1160149811582
 34
0.0
100
AcDbRotatedDimension
1001
ACAD
1000
DSTYLE
1002
{
1070
    40
1040
2.0
1002
}
  0
DIMENSION
  5
1D16
330
1A
100
AcDbEntity
  8
AM_5
100
AcDbDimension
  2
*D39
 10
168.5926876694603
 20
247.6547994327699
 30
0.0
 11
134.2427181078541
 21
247.6547994327699
 31
0.0
 70
   160
 71
     5
 42
10.69996956160619
 73
     0
 74
     0
 75
     0
  3
AM_ISO
100
AcDbAlignedDimension
 13
157.8927181078541
 23
166.1402987744116
 33
0.0
 14
168.5926876694603
 24
226.1160289811583
 34
0.0
100
AcDbRotatedDimension
1001
ACAD
1000
DSTYLE
1002
{
1070
    40
1040
2.0
1002
}
  0
DIMENSION
  5
1D5F
330
1A
100
AcDbEntity
  8
AM_5
100
AcDbDimension
  2
*D40
 10
168.5926876694603
 20
88.61596898115829
 30
0.0
 11
149.7335190850586
 21
88.61596898115829
 31
0.0
 70
   160
 71
     5
 73
     0
 74
     0
 75
     0
  3
AM_ISO
100
AcDbAlignedDimension
 13
167.5926876694603
 23
106.1159689811582
 33
0.0
 14
168.5926876694603
 24
106.1159689811582
 34
0.0
 50
0.0000000000001132
100
AcDbRotatedDimension
1001
ACAD
1000
DSTYLE
1002
{
1070
    40
1040
2.0
1002
}
  0
DIMENSION
  5
1DB7
330
1A
100
AcDbEntity
  8
AM_5
100
AcDbDimension
  2
*D41
 10
143.5926876694603
 20
208.1160429811583
 30
0.0
 11
137.0926876694602
 21
166.1160069811583
 31
0.0
 70
    32
 71
     5
 42
84.00007200000009
 73
     0
 74
     0
 75
     0
  3
AM_ISO
100
AcDbAlignedDimension
 13
167.5926876694603
 23
124.1159709811582
 33
0.0
 14
167.5926876694603
 24
208.1160429811583
 34
0.0
 50
90.0
100
AcDbRotatedDimension
1001
ACAD
1000
DSTYLE
1002
{
1070
    40
1040
2.0
1002
}
  0
DIMENSION
  5
1DF6
330
1A
100
AcDbEntity
  8
AM_5
100
AcDbDimension
  2
*D42
 10
61.6763743117716
 20
113.1159969811583
 30
0.0
 11
55.17637431177158
 21
166.1160059811583
 31
0.0
 70
    32
 71
     5
 42
106.000018
 73
     0
 74
     0
 75
     0
  3
AM_ISO
100
AcDbAlignedDimension
 13
73.61201523534018
 23
219.1160149811583
 33
0.0
 14
73.61201523534018
 24
113.1159969811583
 34
0.0
 50
90.00000000000005
100
AcDbRotatedDimension
1001
ACAD
1000
DSTYLE
1002
{
1070
    40
1040
2.0
1002
}
  0
DIMENSION
  5
1E35
330
1A
100
AcDbEntity
  8
AM_5
100
AcDbDimension
  2
*D43
 10
41.67637431177158
 20
226.1160149811582
 30
0.0
 11
35.17568533539359
 21
166.1160059811582
 31
0.0
 70
    32
 71
     5
 42
120.0000179999999
 73
     0
 74
     0
 75
     0
  3
AM_ISO
100
AcDbAlignedDimension
 13
79.4394692353402
 23
106.1159969811583
 33
0.0
 14
79.4394692353402
 24
226.1160149811582
 34
0.0
 50
90.00000000000005
100
AcDbRotatedDimension
1001
ACAD
1000
DSTYLE
1002
{
1070
    40
1040
2.0
1002
}
  0
TEXT
  5
1E82
330
1A
100
AcDbEntity
  8
AM_6
100
AcDbText
 10
166.5082889623569
 20
20.87390783535318
 30
0.0
 40
7.0
  1
5374
100
AcDbText
1001
GENIUS_AMGTXT_16
1040
3.5
1040
0.12
  0
LWPOLYLINE
  5
20CB
330
1A
100
AcDbEntity
  8
1
100
AcDbPolyline
 90
        4
 70
     1
 43
0.0
 10
79.4394692353402
 20
49.1876832943965
 10
119.4394752353401
 20
49.1876832943965
 10
119.4394752353401
 20
48.18768329439651
 10
79.4394692353402
 20
48.18768329439651
  0
LINE
  5
20D8
102
{ACAD_REACTORS
330
2112
102
}
330
1A
100
AcDbEntity
  8
1
100
AcDbLine
 10
86.73947223534014
 20
49.1876832943965
 30
0.0
 11
86.73947223534014
 21
58.88768329439651
 31
0.0
  0
LINE
  5
20D9
330
1A
100
AcDbEntity
  8
1
100
AcDbLine
 10
86.73947223534014
 20
58.88768329439651
 30
0.0
 11
112.1394722353401
 21
58.88768329439651
 31
0.0
  0
LINE
  5
20DA
102
{ACAD_REACTORS
330
2112
102
}
330
1A
100
AcDbEntity
  8
1
100
AcDbLine
 10
112.1394722353401
 20
58.88768329439651
 30
0.0
 11
112.1394722353401
 21
49.1876832943965
 31
0.0
  0
LINE
  5
20DB
330
1A
100
AcDbEntity
  8
7
  6
GEN7A
100
AcDbLine
 10
99.43947223534015
 20
61.88768329439651
 30
0.0
 11
99.43947223534015
 21
45.18768329439651
 31
0.0
1001
GENIUS_GENODEF_13
1002
{
1000
HIER
1070
     0
1002
}
1002
{
1000
MANEDIT
1070
     0
1002
}
1002
{
1000
NOSEL
1070
     0
1002
}
1002
{
1000
BEHIND
1070
     0
1002
}
1002
{
1000
OTHER
1070
     0
1002
}
1002
{
1000
REACTOR
1002
}
1001
GENIUS_GENOBJ-N-CEN_13
1002
{
1000
OWNER
1000
GEN
1002
}
1001
GENIUS_GENCEN_19
1002
{
1040
3.0
1002
}
  0
DIMENSION
  5
2104
102
{ACAD_XDICTIONARY
360
2111
102
}
102
{ACAD_REACTORS
330
2112
102
}
330
1A
100
AcDbEntity
  8
AM_5
100
AcDbDimension
  2
*D46
 10
112.1394722353401
 20
75.3473830802503
 30
0.0
 11
99.43947223534015
 21
81.84807205662826
 31
0.0
 70
    32
 71
     5
 42
25.40000000000001
 73
     0
 74
     0
 75
     0
  3
AM_ISO$0
100
AcDbAlignedDimension
 13
86.73947223534014
 23
58.88768329439651
 33
0.0
 14
112.1394722353401
 24
58.88768329439651
 34
0.0
100
AcDbRotatedDimension
1001
ACAD
1000
DSTYLE
1002
{
1070
    40
1040
2.0
1002
}
1001
ACAD_DSTYLE_DIMINSPECT
1070
   396
1000
100%
1070
   395
1000

1070
   394
1070
    33
1070
   393
1070
     0
  0
VIEWPORT
  5
22
330
17
100
AcDbEntity
 67
     1
  8
0
100
AcDbViewport
 10
112.2893422104056
 20
152.9962003562143
 30
0.0
 40
408.1687337183673
 41
318.4351405079091
 68
     1
 69
     1
 12
112.2893422104056
 22
152.9962003562143
 13
0.0
 23
0.0
 14
10.0
 24
10.0
 15
10.0
 25
10.0
 16
0.0
 26
0.0
 36
1.0
 17
0.0
 27
0.0
 37
0.0
 42
50.0
 43
0.0
 44
0.0
 45
318.4351405079091
 50
0.0
 51
0.0
 72
   100
331
1969
 90
    32800
  1

281
     0
 71
     1
 74
     0
110
0.0
120
0.0
130
0.0
111
1.0
121
0.0
131
0.0
112
0.0
122
1.0
132
0.0
 79
     0
146
0.0
170
     0
 61
     5
348
1EAE
292
     1
282
     1
141
0.0
142
0.0
 63
   250
421
  3355443
1001
GENIUS_GENOREF_13
1005
1677
1001
GENIUS_GENSCREG_15
1000
PF
1040
1.0
1000
DF
1040
1.0
1000
MIN
1011
-91.79502464877812
1021
-6.22136989774026
1031
0.0
1000
MAX
1011
316.3737090695893
1021
312.2137706101689
1031
0.0
1000
FLAGS
1070
     4
  0
POINT
  5
1895
330
17
100
AcDbEntity
 67
     1
  8
AM_0
 60
     1
100
AcDbPoint
 10
0.0
 20
0.0
 30
0.0
  0
POINT
  5
189D
330
17
100
AcDbEntity
 67
     1
  8
AM_0
 60
     1
100
AcDbPoint
 10
0.0
 20
0.0
 30
0.0
  0
POINT
  5
1900
330
17
100
AcDbEntity
 67
     1
  8
AM_0
 60
     1
100
AcDbPoint
 10
0.0
 20
0.0
 30
0.0
  0
POINT
  5
1908
330
17
100
AcDbEntity
 67
     1
  8
AM_0
 60
     1
100
AcDbPoint
 10
0.0
 20
0.0
 30
0.0
  0
ENDSEC
  0
SECTION
  2
OBJECTS
  0
DICTIONARY
  5
C
330
0
100
AcDbDictionary
281
     1
  3
ACAD_COLOR
350
1EB9
  3
ACAD_GROUP
350
D
  3
ACAD_LAYOUT
350
167
  3
ACAD_MATERIAL
350
1E8F
  3
ACAD_MLEADERSTYLE
350
1ECE
  3
ACAD_MLINESTYLE
350
E
  3
ACAD_PLOTSETTINGS
350
168
  3
ACAD_PLOTSTYLENAME
350
165
  3
ACAD_SCALELIST
350
1EBC
  3
ACAD_TABLESTYLE
350
1EBA
  3
ACAD_VISUALSTYLE
350
1EA8
  3
ACDB_RECOMPOSE_DATA
350
21BC
  3
ACDBVARIABLEDICTIONARY
350
5D
  3
ACMDICTIONARY
350
142
  3
AMG
350
171
  3
AMG_3D2D_DICT
350
18A8
  3
AMGSNAPSETTINGS
350
1F2
  0
DICTIONARY
  5
2138
330
F
100
AcDbDictionary
280
     1
281
     1
  3
ADSK_XREC_LAYER_RECONCILED
360
2139
  0
DICTIONARY
  5
213A
330
35A
100
AcDbDictionary
280
     1
281
     1
  3
ADSK_XREC_LAYER_RECONCILED
360
213B
  0
DICTIONARY
  5
213C
330
35B
100
AcDbDictionary
280
     1
281
     1
  3
ADSK_XREC_LAYER_RECONCILED
360
213D
  0
DICTIONARY
  5
213E
330
35C
100
AcDbDictionary
280
     1
281
     1
  3
ADSK_XREC_LAYER_RECONCILED
360
213F
  0
DICTIONARY
  5
2140
330
35D
100
AcDbDictionary
280
     1
281
     1
  3
ADSK_XREC_LAYER_RECONCILED
360
2141
  0
DICTIONARY
  5
2142
330
35E
100
AcDbDictionary
280
     1
281
     1
  3
ADSK_XREC_LAYER_RECONCILED
360
2143
  0
DICTIONARY
  5
2144
330
35F
100
AcDbDictionary
280
     1
281
     1
  3
ADSK_XREC_LAYER_RECONCILED
360
2145
  0
DICTIONARY
  5
2146
330
360
100
AcDbDictionary
280
     1
281
     1
  3
ADSK_XREC_LAYER_RECONCILED
360
2147
  0
DICTIONARY
  5
2148
330
361
100
AcDbDictionary
280
     1
281
     1
  3
ADSK_XREC_LAYER_RECONCILED
360
2149
  0
DICTIONARY
  5
214A
330
362
100
AcDbDictionary
280
     1
281
     1
  3
ADSK_XREC_LAYER_RECONCILED
360
214B
  0
DICTIONARY
  5
214C
330
38E
100
AcDbDictionary
280
     1
281
     1
  3
ADSK_XREC_LAYER_RECONCILED
360
214D
  0
DICTIONARY
  5
214E
330
3F7
100
AcDbDictionary
280
     1
281
     1
  3
ADSK_XREC_LAYER_RECONCILED
360
214F
  0
DICTIONARY
  5
2150
330
5FC
100
AcDbDictionary
280
     1
281
     1
  3
ADSK_XREC_LAYER_RECONCILED
360
2151
  0
DICTIONARY
  5
2152
330
614
100
AcDbDictionary
280
     1
281
     1
  3
ADSK_XREC_LAYER_RECONCILED
360
2153
  0
DICTIONARY
  5
2154
330
79B
100
AcDbDictionary
280
     1
281
     1
  3
ADSK_XREC_LAYER_RECONCILED
360
2155
  0
DICTIONARY
  5
2156
330
1054
100
AcDbDictionary
280
     1
281
     1
  3
ADSK_XREC_LAYER_RECONCILED
360
2157
  0
DICTIONARY
  5
2158
330
106E
100
AcDbDictionary
280
     1
281
     1
  3
ADSK_XREC_LAYER_RECONCILED
360
2159
  0
DICTIONARY
  5
215A
330
106F
100
AcDbDictionary
280
     1
281
     1
  3
ADSK_XREC_LAYER_RECONCILED
360
215B
  0
DICTIONARY
  5
215C
330
108B
100
AcDbDictionary
280
     1
281
     1
  3
ADSK_XREC_LAYER_RECONCILED
360
215D
  0
DICTIONARY
  5
215E
330
1969
100
AcDbDictionary
280
     1
281
     1
  3
ADSK_XREC_LAYER_RECONCILED
360
215F
  0
DICTIONARY
  5
2160
330
1A1E
100
AcDbDictionary
280
     1
281
     1
  3
ADSK_XREC_LAYER_RECONCILED
360
2161
  0
DICTIONARY
  5
2162
330
1A1F
100
AcDbDictionary
280
     1
281
     1
  3
ADSK_XREC_LAYER_RECONCILED
360
2163
  0
DICTIONARY
  5
2164
330
1A20
100
AcDbDictionary
280
     1
281
     1
  3
ADSK_XREC_LAYER_RECONCILED
360
2165
  0
DICTIONARY
  5
2166
330
1A21
100
AcDbDictionary
280
     1
281
     1
  3
ADSK_XREC_LAYER_RECONCILED
360
2167
  0
DICTIONARY
  5
12A
330
1A
100
AcDbDictionary
280
     1
281
     1
  3
ACAD_INDEX
360
2198
  3
ACAD_SORTENTS
360
20CA
  0
DICTIONARY
  5
2111
330
2104
100
AcDbDictionary
280
     1
281
     1
  3
ACAD_DIMASSOC
360
2112
  0
DICTIONARY
  5
1EB9
102
{ACAD_REACTORS
330
C
102
}
330
C
100
AcDbDictionary
281
     1
  0
DICTIONARY
  5
D
102
{ACAD_REACTORS
330
C
102
}
330
C
100
AcDbDictionary
281
     1
  0
DICTIONARY
  5
167
102
{ACAD_REACTORS
330
C
102
}
330
C
100
AcDbDictionary
281
     1
  3
A0
350
351
  3
A1
350
314
  3
A2
350
349
  3
A3
350
2E1
  3
A4
350
16A
  3
Model
350
169
  0
DICTIONARY
  5
1E8F
102
{ACAD_REACTORS
330
C
102
}
330
C
100
AcDbDictionary
281
     1
  3
ByBlock
350
1E98
  3
ByLayer
350
1E90
  3
Global
350
1EA0
  0
DICTIONARY
  5
1ECE
102
{ACAD_REACTORS
330
C
102
}
330
C
100
AcDbDictionary
281
     1
  3
Standard
350
1ECF
  0
DICTIONARY
  5
E
102
{ACAD_REACTORS
330
C
102
}
330
C
100
AcDbDictionary
281
     1
  3
STANDARD
350
13
  0
DICTIONARY
  5
168
102
{ACAD_REACTORS
330
C
102
}
330
C
100
AcDbDictionary
281
     1
  3
A0
350
2EE
  3
A0-A3
350
2F2
  3
A0-A4
350
2F3
  3
A1
350
2ED
  3
A2
350
2EA
  3
A3
350
31E
  3
A4
350
319
  0
ACDBDICTIONARYWDFLT
  5
165
102
{ACAD_REACTORS
330
C
102
}
330
C
100
AcDbDictionary
281
     1
  3
Normal
350
166
100
AcDbDictionaryWithDefault
340
166
  0
DICTIONARY
  5
1EBC
102
{ACAD_REACTORS
330
C
102
}
330
C
100
AcDbDictionary
281
     1
  3
A0
350
1EBD
  3
A1
350
1EBE
  3
A2
350
1EBF
  3
A3
350
1EC0
  3
A4
350
1EC1
  3
A5
350
1EC2
  3
A6
350
1EC3
  3
A7
350
1EC4
  3
A8
350
1EC5
  3
A9
350
1EC6
  3
B0
350
1EC7
  3
B1
350
1EC8
  3
B2
350
1EC9
  3
B3
350
1ECA
  3
B4
350
1ECB
  3
B5
350
1ECC
  3
B6
350
1ECD
  0
DICTIONARY
  5
1EBA
102
{ACAD_REACTORS
330
C
102
}
330
C
100
AcDbDictionary
281
     1
  3
Standard
350
1EBB
  0
DICTIONARY
  5
1EA8
102
{ACAD_REACTORS
330
C
102
}
330
C
100
AcDbDictionary
281
     1
  3
2dWireframe
350
1EAE
  3
3D Hidden
350
1EB0
  3
3dWireframe
350
1EAF
  3
Basic
350
1EAD
  3
Brighten
350
1EB4
  3
ColorChange
350
1EB8
  3
Conceptual
350
1EB1
  3
Dim
350
1EB3
  3
Facepattern
350
1EB7
  3
Flat
350
1EA9
  3
FlatWithEdges
350
1EAA
  3
Gouraud
350
1EAB
  3
GouraudWithEdges
350
1EAC
  3
Linepattern
350
1EB6
  3
Realistic
350
1EB2
  3
Thicken
350
1EB5
  0
XRECORD
  5
21BC
102
{ACAD_REACTORS
330
C
102
}
330
C
100
AcDbXrecord
280
     1
 90
        1
330
1EBB
  0
DICTIONARY
  5
5D
102
{ACAD_REACTORS
330
C
102
}
330
C
100
AcDbDictionary
281
     1
  3
CANNOSCALE
350
21B6
  3
CMLEADERSTYLE
350
21B4
  3
CTABLESTYLE
350
21B3
  3
DIMADEC
350
5E
  3
INDEXCTL
350
128
  3
LAYEREVAL
350
21B8
  3
LAYERNOTIFY
350
21B9
  3
LIGHTINGUNITS
350
21B7
  3
MSLTSCALE
350
21B5
  3
SORTENTS
350
1044
  0
DICTIONARY
  5
142
102
{ACAD_REACTORS
330
C
102
}
330
C
100
AcDbDictionary
281
     1
  3
AcmStdDictionary
350
2068
  0
DICTIONARY
  5
171
102
{ACAD_REACTORS
330
C
102
}
330
C
100
AcDbDictionary
281
     1
  3
AcMgSettings
350
172
  3
AMGLAYCFG
350
1EE7
  0
DICTIONARY
  5
18A8
102
{ACAD_REACTORS
330
C
102
}
330
C
100
AcDbDictionary
281
     1
  3
AMG_SUBLIST_DICT
350
18A9
  0
DICTIONARY
  5
1F2
102
{ACAD_REACTORS
330
C
102
}
330
C
100
AcDbDictionary
281
     1
  3
DIMENSION
350
164B
  3
FEA
350
164C
  3
HATCH
350
164D
  3
SYMBOLS
350
164E
  0
XRECORD
  5
2139
102
{ACAD_REACTORS
330
2138
102
}
330
2138
100
AcDbXrecord
280
     1
290
     1
  0
XRECORD
  5
213B
102
{ACAD_REACTORS
330
213A
102
}
330
213A
100
AcDbXrecord
280
     1
290
     1
  0
XRECORD
  5
213D
102
{ACAD_REACTORS
330
213C
102
}
330
213C
100
AcDbXrecord
280
     1
290
     1
  0
XRECORD
  5
213F
102
{ACAD_REACTORS
330
213E
102
}
330
213E
100
AcDbXrecord
280
     1
290
     1
  0
XRECORD
  5
2141
102
{ACAD_REACTORS
330
2140
102
}
330
2140
100
AcDbXrecord
280
     1
290
     1
  0
XRECORD
  5
2143
102
{ACAD_REACTORS
330
2142
102
}
330
2142
100
AcDbXrecord
280
     1
290
     1
  0
XRECORD
  5
2145
102
{ACAD_REACTORS
330
2144
102
}
330
2144
100
AcDbXrecord
280
     1
290
     1
  0
XRECORD
  5
2147
102
{ACAD_REACTORS
330
2146
102
}
330
2146
100
AcDbXrecord
280
     1
290
     1
  0
XRECORD
  5
2149
102
{ACAD_REACTORS
330
2148
102
}
330
2148
100
AcDbXrecord
280
     1
290
     1
  0
XRECORD
  5
214B
102
{ACAD_REACTORS
330
214A
102
}
330
214A
100
AcDbXrecord
280
     1
290
     1
  0
XRECORD
  5
214D
102
{ACAD_REACTORS
330
214C
102
}
330
214C
100
AcDbXrecord
280
     1
290
     1
  0
XRECORD
  5
214F
102
{ACAD_REACTORS
330
214E
102
}
330
214E
100
AcDbXrecord
280
     1
290
     1
  0
XRECORD
  5
2151
102
{ACAD_REACTORS
330
2150
102
}
330
2150
100
AcDbXrecord
280
     1
290
     1
  0
XRECORD
  5
2153
102
{ACAD_REACTORS
330
2152
102
}
330
2152
100
AcDbXrecord
280
     1
290
     1
  0
XRECORD
  5
2155
102
{ACAD_REACTORS
330
2154
102
}
330
2154
100
AcDbXrecord
280
     1
290
     1
  0
XRECORD
  5
2157
102
{ACAD_REACTORS
330
2156
102
}
330
2156
100
AcDbXrecord
280
     1
290
     1
  0
XRECORD
  5
2159
102
{ACAD_REACTORS
330
2158
102
}
330
2158
100
AcDbXrecord
280
     1
290
     1
  0
XRECORD
  5
215B
102
{ACAD_REACTORS
330
215A
102
}
330
215A
100
AcDbXrecord
280
     1
290
     1
  0
XRECORD
  5
215D
102
{ACAD_REACTORS
330
215C
102
}
330
215C
100
AcDbXrecord
280
     1
290
     1
  0
XRECORD
  5
215F
102
{ACAD_REACTORS
330
215E
102
}
330
215E
100
AcDbXrecord
280
     1
290
     1
  0
XRECORD
  5
2161
102
{ACAD_REACTORS
330
2160
102
}
330
2160
100
AcDbXrecord
280
     1
290
     1
  0
XRECORD
  5
2163
102
{ACAD_REACTORS
330
2162
102
}
330
2162
100
AcDbXrecord
280
     1
290
     1
  0
XRECORD
  5
2165
102
{ACAD_REACTORS
330
2164
102
}
330
2164
100
AcDbXrecord
280
     1
290
     1
  0
XRECORD
  5
2167
102
{ACAD_REACTORS
330
2166
102
}
330
2166
100
AcDbXrecord
280
     1
290
     1
  0
DICTIONARY
  5
2198
102
{ACAD_REACTORS
330
12A
102
}
330
12A
100
AcDbDictionary
281
     1
  3
*A1
350
2199
  0
SORTENTSTABLE
  5
20CA
102
{ACAD_REACTORS
330
12A
102
}
330
12A
100
AcDbSortentsTable
330
1A
331
1A83
  5
1A83
331
1A72
  5
1A72
331
3FB
  5
3FB
331
1A93
  5
1A93
331
1A81
  5
1A81
331
1A70
  5
1A70
331
20CB
  5
20CB
331
1A91
  5
1A91
331
1A7F
  5
1A7F
331
1A6E
  5
1A6E
331
1A7D
  5
1A7D
331
1A8E
  5
1A8E
331
1A6C
  5
1A6C
331
1DB7
  5
1DB7
331
1C7D
  5
1C7D
331
1D16
  5
1D16
331
1A8C
  5
1A8C
331
1A6A
  5
1A6A
331
1A79
  5
1A79
331
1A8A
  5
1A8A
331
1A68
  5
1A68
331
1A88
  5
1A88
331
1A77
  5
1A77
331
1A66
  5
1A66
331
402
  5
402
331
400
  5
400
331
1A75
  5
1A75
331
3FE
  5
3FE
331
1D5F
  5
1D5F
331
1A84
  5
1A84
331
1C6D
  5
1C6D
331
1A73
  5
1A73
331
3FC
  5
3FC
331
1DF6
  5
1DF6
331
1A82
  5
1A82
331
1A71
  5
1A71
331
1A80
  5
1A80
331
1E82
  5
1E82
331
1A6F
  5
1A6F
331
1A90
  5
1A90
331
1A7E
  5
1A7E
331
1A8F
  5
1A8F
331
1A6D
  5
1A6D
331
1A6B
  5
1A6B
331
409
  5
409
331
1A7A
  5
1A7A
331
1A8B
  5
1A8B
331
1A69
  5
1A69
331
1A78
  5
1A78
331
1E35
  5
1E35
331
1A89
  5
1A89
331
1A67
  5
1A67
331
1A87
  5
1A87
331
1A65
  5
1A65
331
401
  5
401
331
1A76
  5
1A76
331
3FF
  5
3FF
331
1A85
  5
1A85
331
1CD7
  5
1CD7
331
1A74
  5
1A74
331
3FD
  5
3FD
  0
DIMASSOC
  5
2112
102
{ACAD_REACTORS
330
2111
102
}
330
2111
100
AcDbDimAssoc
330
2104
 90
        3
 70
     0
 71
     0
  1
AcDbOsnapPointRef
 72
     1
331
20D8
 73
     0
 91
        0
 40
0.0
 10
0.0
 20
0.0
 30
2.000000000000000E+50
 75
     0
  1
AcDbOsnapPointRef
 72
    13
331
20DA
 73
     0
 91
        0
 40
0.0
 10
0.0
 20
0.0
 30
2.000000000000000E+50
 75
     0
  0
LAYOUT
  5
351
102
{ACAD_REACTORS
330
167
102
}
330
167
100
AcDbPlotSettings
  1
A0
  2
HPDJ220-A0
  4
User268
  6

 40
4.995333194732666
 41
16.93336677551269
 42
4.99530029296875
 43
16.933349609375
 44
840.9093017578125
 45
1188.8046875
 46
0.0
 47
0.0
 48
0.0
 49
0.0
140
0.0
141
0.0
142
1.0
143
1.0
 70
   752
 72
     1
 73
     1
 74
     5
  7
PLA0.ctb
 75
    16
147
1.0
 76
     0
 77
     2
 78
   300
148
0.0
149
0.0
100
AcDbLayout
  1
A0
 70
     1
 71
     5
 10
-16.933349609375
 20
-4.995333194732666
 11
1171.871337890624
 21
835.9139685630799
 12
0.0
 22
0.0
 32
0.0
 14
1.000000000000000E+20
 24
1.000000000000000E+20
 34
1.000000000000000E+20
 15
-1.000000000000000E+20
 25
-1.000000000000000E+20
 35
-1.000000000000000E+20
146
0.0
 13
0.0
 23
0.0
 33
0.0
 16
1.0
 26
0.0
 36
0.0
 17
0.0
 27
1.0
 37
0.0
 76
     0
330
34D
331
34E
  0
LAYOUT
  5
314
102
{ACAD_REACTORS
330
167
102
}
330
167
100
AcDbPlotSettings
  1
A2
  2
HPDJ220-A0
  4
User266
  6

 40
4.995333194732666
 41
16.93330574035644
 42
4.995330810546875
 43
16.933349609375
 44
419.9466552734373
 45
593.8519897460937
 46
0.0
 47
0.0
 48
0.0
 49
0.0
140
0.0
141
0.0
142
1.0
143
1.0
 70
   752
 72
     1
 73
     1
 74
     5
  7
PLA2.ctb
 75
    16
147
1.0
 76
     0
 77
     2
 78
   300
148
0.0
149
0.0
100
AcDbLayout
  1
A1
 70
     1
 71
     4
 10
-16.933349609375
 20
-4.995333194732666
 11
576.9186401367187
 21
414.9513220787047
 12
0.0
 22
0.0
 32
0.0
 14
1.000000000000000E+20
 24
1.000000000000000E+20
 34
1.000000000000000E+20
 15
-1.000000000000000E+20
 25
-1.000000000000000E+20
 35
-1.000000000000000E+20
146
0.0
 13
0.0
 23
0.0
 33
0.0
 16
1.0
 26
0.0
 36
0.0
 17
0.0
 27
1.0
 37
0.0
 76
     0
330
313
331
344
  0
LAYOUT
  5
349
102
{ACAD_REACTORS
330
167
102
}
330
167
100
AcDbPlotSettings
  1
A2
  2
HPDJ220-A0
  4
User266
  6

 40
4.995333194732666
 41
16.93330574035644
 42
4.995330810546875
 43
16.933349609375
 44
419.9466552734373
 45
593.8519897460937
 46
0.0
 47
0.0
 48
0.0
 49
0.0
140
0.0
141
0.0
142
1.0
143
1.0
 70
   752
 72
     1
 73
     1
 74
     5
  7
PLA2.ctb
 75
    16
147
1.0
 76
     0
 77
     2
 78
   300
148
0.0
149
0.0
100
AcDbLayout
  1
A2
 70
     1
 71
     3
 10
-16.933349609375
 20
-4.995333194732666
 11
576.9186401367187
 21
414.9513220787047
 12
0.0
 22
0.0
 32
0.0
 14
1.000000000000000E+20
 24
1.000000000000000E+20
 34
1.000000000000000E+20
 15
-1.000000000000000E+20
 25
-1.000000000000000E+20
 35
-1.000000000000000E+20
146
0.0
 13
0.0
 23
0.0
 33
0.0
 16
1.0
 26
0.0
 36
0.0
 17
0.0
 27
1.0
 37
0.0
 76
     0
330
345
331
346
  0
LAYOUT
  5
2E1
102
{ACAD_REACTORS
330
167
102
}
330
167
100
AcDbPlotSettings
  1
A3
  2
\\GLUTZCH_PDC\HP LaserJet 5000 N PCL 6
  4
A3
  6

 40
5.027083396911621
 41
5.111741065979003
 42
5.11175537109375
 43
5.027069091796875
 44
297.0106506347656
 45
419.9889831542968
 46
0.0
 47
0.0
 48
0.0
 49
0.0
140
0.0
141
0.0
142
1.0
143
1.0
 70
   752
 72
     1
 73
     1
 74
     5
  7
LAA3.ctb
 75
    16
147
1.0
 76
     0
 77
     2
 78
   300
148
0.0
149
0.0
100
AcDbLayout
  1
A3
 70
     1
 71
     2
 10
-5.027069091796875
 20
-5.027083396911621
 11
414.9619140625
 21
291.9835672378539
 12
0.0
 22
0.0
 32
0.0
 14
1.000000000000000E+20
 24
1.000000000000000E+20
 34
1.000000000000000E+20
 15
-1.000000000000000E+20
 25
-1.000000000000000E+20
 35
-1.000000000000000E+20
146
0.0
 13
0.0
 23
0.0
 33
0.0
 16
1.0
 26
0.0
 36
0.0
 17
0.0
 27
1.0
 37
0.0
 76
     0
330
2E0
331
31D
  0
LAYOUT
  5
16A
102
{ACAD_REACTORS
330
167
102
}
330
167
100
AcDbPlotSettings
  1
A4
  2
\\GLUTZCH_PDC\HP LaserJet 5000 N PCL 6
  4
A4
  6

 40
5.027083396911621
 41
5.111741065979003
 42
5.11175537109375
 43
5.027069091796875
 44
210.0156707763671
 45
297.0106506347656
 46
0.0
 47
0.0
 48
0.0
 49
0.0
140
0.0
141
0.0
142
1.0
143
1.0
 70
   752
 72
     1
 73
     0
 74
     5
  7
LAA4.ctb
 75
    16
147
1.0
 76
     0
 77
     2
 78
   300
148
0.0
149
0.0
100
AcDbLayout
  1
A4
 70
     1
 71
     1
 10
-5.027083396911621
 20
-5.111741065979003
 11
204.9885873794555
 21
291.8989095687866
 12
0.0
 22
0.0
 32
0.0
 14
1.000000000000000E+20
 24
1.000000000000000E+20
 34
1.000000000000000E+20
 15
-1.000000000000000E+20
 25
-1.000000000000000E+20
 35
-1.000000000000000E+20
146
0.0
 13
0.0
 23
0.0
 33
0.0
 16
1.0
 26
0.0
 36
0.0
 17
0.0
 27
1.0
 37
0.0
 76
     0
330
17
331
22
  0
LAYOUT
  5
169
102
{ACAD_REACTORS
330
167
102
}
330
167
100
AcDbPlotSettings
  1

  2
HP Laserjet 5000 N PCL 6.pc3
  4
A4
  6

 40
3.174999952316283
 41
3.174999952316283
 42
3.175003051757812
 43
3.17498779296875
 44
210.0
 45
297.0
 46
64.58249064227274
 47
96.72080388670529
 48
0.0
 49
0.0
140
0.0
141
0.0
142
1.0
143
2.0
 70
 11956
 72
     1
 73
     0
 74
     1
  7
c:\amd5pp\Plot Styles\LAA4.ctb
 75
    17
147
0.5
 76
     0
 77
     2
 78
   300
148
-31.64611917879222
149
-85.89235003466297
100
AcDbLayout
  1
Model
 70
     1
 71
     0
 10
0.0
 20
0.0
 11
12.0
 21
9.0
 12
0.0
 22
0.0
 32
0.0
 14
0.0
 24
0.0
 34
0.0
 15
0.0
 25
0.0
 35
0.0
146
0.0
 13
0.0
 23
0.0
 33
0.0
 16
1.0
 26
0.0
 36
0.0
 17
0.0
 27
1.0
 37
0.0
 76
     0
330
1A
331
1E89
  0
MATERIAL
  5
1E98
102
{ACAD_XDICTIONARY
360
1E99
102
}
102
{ACAD_REACTORS
330
1E8F
102
}
330
1E8F
100
AcDbMaterial
  1
ByBlock
 72
     0
 43
0.0208333333333333
 43
0.0
 43
0.0
 43
0.0
 43
0.0
 43
0.0208333333333333
 43
0.0
 43
0.0
 43
0.0
 43
0.0
 43
1.0
 43
0.0
 43
0.0
 43
0.0
 43
0.0
 43
1.0
 77
     0
 47
0.0208333333333333
 47
0.0
 47
0.0
 47
0.0
 47
0.0
 47
0.0208333333333333
 47
0.0
 47
0.0
 47
0.0
 47
0.0
 47
1.0
 47
0.0
 47
0.0
 47
0.0
 47
0.0
 47
1.0
171
     0
 49
0.0208333333333333
 49
0.0
 49
0.0
 49
0.0
 49
0.0
 49
0.0208333333333333
 49
0.0
 49
0.0
 49
0.0
 49
0.0
 49
1.0
 49
0.0
 49
0.0
 49
0.0
 49
0.0
 49
1.0
175
     0
142
0.0208333333333333
142
0.0
142
0.0
142
0.0
142
0.0
142
0.0208333333333333
142
0.0
142
0.0
142
0.0
142
0.0
142
1.0
142
0.0
142
0.0
142
0.0
142
0.0
142
1.0
179
     0
144
0.0208333333333333
144
0.0
144
0.0
144
0.0
144
0.0
144
0.0208333333333333
144
0.0
144
0.0
144
0.0
144
0.0
144
1.0
144
0.0
144
0.0
144
0.0
144
0.0
144
1.0
147
0.0208333333333333
147
0.0
147
0.0
147
0.0
147
0.0
147
0.0208333333333333
147
0.0
147
0.0
147
0.0
147
0.0
147
1.0
147
0.0
147
0.0
147
0.0
147
0.0
147
1.0
  0
MATERIAL
  5
1E90
102
{ACAD_XDICTIONARY
360
1E91
102
}
102
{ACAD_REACTORS
330
1E8F
102
}
330
1E8F
100
AcDbMaterial
  1
ByLayer
 72
     0
 43
0.0208333333333333
 43
0.0
 43
0.0
 43
0.0
 43
0.0
 43
0.0208333333333333
 43
0.0
 43
0.0
 43
0.0
 43
0.0
 43
1.0
 43
0.0
 43
0.0
 43
0.0
 43
0.0
 43
1.0
 77
     0
 47
0.0208333333333333
 47
0.0
 47
0.0
 47
0.0
 47
0.0
 47
0.0208333333333333
 47
0.0
 47
0.0
 47
0.0
 47
0.0
 47
1.0
 47
0.0
 47
0.0
 47
0.0
 47
0.0
 47
1.0
171
     0
 49
0.0208333333333333
 49
0.0
 49
0.0
 49
0.0
 49
0.0
 49
0.0208333333333333
 49
0.0
 49
0.0
 49
0.0
 49
0.0
 49
1.0
 49
0.0
 49
0.0
 49
0.0
 49
0.0
 49
1.0
175
     0
142
0.0208333333333333
142
0.0
142
0.0
142
0.0
142
0.0
142
0.0208333333333333
142
0.0
142
0.0
142
0.0
142
0.0
142
1.0
142
0.0
142
0.0
142
0.0
142
0.0
142
1.0
179
     0
144
0.0208333333333333
144
0.0
144
0.0
144
0.0
144
0.0
144
0.0208333333333333
144
0.0
144
0.0
144
0.0
144
0.0
144
1.0
144
0.0
144
0.0
144
0.0
144
0.0
144
1.0
147
0.0208333333333333
147
0.0
147
0.0
147
0.0
147
0.0
147
0.0208333333333333
147
0.0
147
0.0
147
0.0
147
0.0
147
1.0
147
0.0
147
0.0
147
0.0
147
0.0
147
1.0
  0
MATERIAL
  5
1EA0
102
{ACAD_XDICTIONARY
360
1EA1
102
}
102
{ACAD_REACTORS
330
1E8F
102
}
330
1E8F
100
AcDbMaterial
  1
Global
 72
     0
 43
0.0208333333333333
 43
0.0
 43
0.0
 43
0.0
 43
0.0
 43
0.0208333333333333
 43
0.0
 43
0.0
 43
0.0
 43
0.0
 43
1.0
 43
0.0
 43
0.0
 43
0.0
 43
0.0
 43
1.0
 77
     0
 47
0.0208333333333333
 47
0.0
 47
0.0
 47
0.0
 47
0.0
 47
0.0208333333333333
 47
0.0
 47
0.0
 47
0.0
 47
0.0
 47
1.0
 47
0.0
 47
0.0
 47
0.0
 47
0.0
 47
1.0
171
     0
 49
0.0208333333333333
 49
0.0
 49
0.0
 49
0.0
 49
0.0
 49
0.0208333333333333
 49
0.0
 49
0.0
 49
0.0
 49
0.0
 49
1.0
 49
0.0
 49
0.0
 49
0.0
 49
0.0
 49
1.0
175
     0
142
0.0208333333333333
142
0.0
142
0.0
142
0.0
142
0.0
142
0.0208333333333333
142
0.0
142
0.0
142
0.0
142
0.0
142
1.0
142
0.0
142
0.0
142
0.0
142
0.0
142
1.0
179
     0
144
0.0208333333333333
144
0.0
144
0.0
144
0.0
144
0.0
144
0.0208333333333333
144
0.0
144
0.0
144
0.0
144
0.0
144
1.0
144
0.0
144
0.0
144
0.0
144
0.0
144
1.0
147
0.0208333333333333
147
0.0
147
0.0
147
0.0
147
0.0
147
0.0208333333333333
147
0.0
147
0.0
147
0.0
147
0.0
147
1.0
147
0.0
147
0.0
147
0.0
147
0.0
147
1.0
  0
MLEADERSTYLE
  5
1ECF
102
{ACAD_REACTORS
330
1ECE
102
}
330
1ECE
100
AcDbMLeaderStyle
170
     2
171
     1
172
     0
 90
        2
 40
0.0
 41
0.0
173
     1
 91
-1056964608
340
14
 92
       -2
290
     1
 42
2.0
291
     1
 43
0.36
  3
Standard
 44
4.0
300

342
10
174
     1
178
     6
175
     1
176
     0
 93
-1056964608
 45
4.0
292
     0
297
     0
 46
4.0
 94
-1056964608
 47
1.0
 49
1.0
140
1.0
293
     1
141
0.0
294
     1
177
     0
142
1.0
295
     0
296
     0
143
0.125
1001
ACAD_MLEADERVER
1070
     2
  0
MLINESTYLE
  5
13
102
{ACAD_REACTORS
330
E
102
}
330
E
100
AcDbMlineStyle
  2
STANDARD
 70
     0
  3

 62
     0
 51
90.0
 52
90.0
 71
     2
 49
0.5
 62
   256
  6
BYLAYER
 49
-0.5
 62
   256
  6
BYLAYER
  0
PLOTSETTINGS
  5
2EE
102
{ACAD_REACTORS
330
168
102
}
330
168
100
AcDbPlotSettings
  1
A0
  2
HPDJ220-A0
  4
User268
  6

 40
4.995333194732666
 41
16.93336677551269
 42
4.99530029296875
 43
16.933349609375
 44
840.9093017578125
 45
1188.8046875
 46
0.0
 47
0.0
 48
0.0
 49
0.0
140
0.0
141
0.0
142
1.0
143
1.0
 70
   752
 72
     1
 73
     1
 74
     5
  7
PLA0.ctb
 75
    16
147
1.0
 76
     0
 77
     2
 78
   300
148
0.0
149
0.0
  0
PLOTSETTINGS
  5
2F2
102
{ACAD_REACTORS
330
168
102
}
330
168
100
AcDbPlotSettings
  1
A0-A3
  2
\\GLUTZCH_PDC\HP LaserJet 5000 N PCL 6
  4
A3
  6

 40
5.027083396911621
 41
5.111741065979003
 42
5.11175537109375
 43
5.027069091796875
 44
297.0106506347656
 45
419.9889831542968
 46
0.0
 47
0.0
 48
0.0
 49
0.0
140
0.0
141
0.0
142
1.0
143
1.0
 70
   752
 72
     1
 73
     1
 74
     5
  7
LAA0-A3.ctb
 75
     0
147
1.0
 76
     0
 77
     2
 78
   300
148
0.0
149
0.0
  0
PLOTSETTINGS
  5
2F3
102
{ACAD_REACTORS
330
168
102
}
330
168
100
AcDbPlotSettings
  1
A0-A4
  2
\\GLUTZCH_PDC\HP LaserJet 5000 N PCL 6
  4
A4
  6

 40
5.027083396911621
 41
5.111741065979003
 42
5.11175537109375
 43
5.027069091796875
 44
210.0156707763671
 45
297.0106506347656
 46
0.0
 47
0.0
 48
0.0
 49
0.0
140
0.0
141
0.0
142
1.0
143
1.0
 70
   752
 72
     1
 73
     0
 74
     5
  7
LAA0-A4.ctb
 75
     0
147
1.0
 76
     0
 77
     2
 78
   300
148
0.0
149
0.0
  0
PLOTSETTINGS
  5
2ED
102
{ACAD_REACTORS
330
168
102
}
330
168
100
AcDbPlotSettings
  1
A1
  2
HPDJ220-A0
  4
User267
  6

 40
4.995333194732666
 41
16.93330574035644
 42
4.99530029296875
 43
16.933349609375
 44
593.9366455078125
 45
840.8246459960937
 46
0.0
 47
0.0
 48
0.0
 49
0.0
140
0.0
141
0.0
142
1.0
143
1.0
 70
   752
 72
     1
 73
     1
 74
     5
  7
PLA1.ctb
 75
    16
147
1.0
 76
     0
 77
     2
 78
   300
148
0.0
149
0.0
  0
PLOTSETTINGS
  5
2EA
102
{ACAD_REACTORS
330
168
102
}
330
168
100
AcDbPlotSettings
  1
A2
  2
HPDJ220-A0
  4
User266
  6

 40
4.995333194732666
 41
16.93330574035644
 42
4.995330810546875
 43
16.933349609375
 44
419.9466552734373
 45
593.8519897460937
 46
0.0
 47
0.0
 48
0.0
 49
0.0
140
0.0
141
0.0
142
1.0
143
1.0
 70
   752
 72
     1
 73
     1
 74
     5
  7
PLA2.ctb
 75
    16
147
1.0
 76
     0
 77
     2
 78
   300
148
0.0
149
0.0
  0
PLOTSETTINGS
  5
31E
102
{ACAD_REACTORS
330
168
102
}
330
168
100
AcDbPlotSettings
  1
A3
  2
\\GLUTZCH_PDC\HP LaserJet 5000 N PCL 6
  4
A3
  6

 40
5.027083396911621
 41
5.111741065979003
 42
5.11175537109375
 43
5.027069091796875
 44
297.0106506347656
 45
419.9889831542968
 46
0.0
 47
0.0
 48
0.0
 49
0.0
140
0.0
141
0.0
142
1.0
143
1.0
 70
   752
 72
     1
 73
     1
 74
     5
  7
LAA3.ctb
 75
    16
147
1.0
 76
     0
 77
     2
 78
   300
148
0.0
149
0.0
  0
PLOTSETTINGS
  5
319
102
{ACAD_REACTORS
330
168
102
}
330
168
100
AcDbPlotSettings
  1
A4
  2
\\GLUTZCH_PDC\HP LaserJet 5000 N PCL 6
  4
A4
  6

 40
5.027083396911621
 41
5.111741065979003
 42
5.11175537109375
 43
5.027069091796875
 44
210.0156707763671
 45
297.0106506347656
 46
0.0
 47
0.0
 48
0.0
 49
0.0
140
0.0
141
0.0
142
1.0
143
1.0
 70
   752
 72
     1
 73
     0
 74
     5
  7
LAA4.ctb
 75
    16
147
1.0
 76
     0
 77
     2
 78
   300
148
0.0
149
0.0
  0
ACDBPLACEHOLDER
  5
166
102
{ACAD_REACTORS
330
165
102
}
330
165
  0
SCALE
  5
1EBD
102
{ACAD_REACTORS
330
1EBC
102
}
330
1EBC
100
AcDbScale
 70
     0
300
1:1
140
1.0
141
1.0
290
     1
  0
SCALE
  5
1EBE
102
{ACAD_REACTORS
330
1EBC
102
}
330
1EBC
100
AcDbScale
 70
     0
300
1:2
140
1.0
141
2.0
290
     0
  0
SCALE
  5
1EBF
102
{ACAD_REACTORS
330
1EBC
102
}
330
1EBC
100
AcDbScale
 70
     0
300
1:4
140
1.0
141
4.0
290
     0
  0
SCALE
  5
1EC0
102
{ACAD_REACTORS
330
1EBC
102
}
330
1EBC
100
AcDbScale
 70
     0
300
1:5
140
1.0
141
5.0
290
     0
  0
SCALE
  5
1EC1
102
{ACAD_REACTORS
330
1EBC
102
}
330
1EBC
100
AcDbScale
 70
     0
300
1:8
140
1.0
141
8.0
290
     0
  0
SCALE
  5
1EC2
102
{ACAD_REACTORS
330
1EBC
102
}
330
1EBC
100
AcDbScale
 70
     0
300
1:10
140
1.0
141
10.0
290
     0
  0
SCALE
  5
1EC3
102
{ACAD_REACTORS
330
1EBC
102
}
330
1EBC
100
AcDbScale
 70
     0
300
1:16
140
1.0
141
16.0
290
     0
  0
SCALE
  5
1EC4
102
{ACAD_REACTORS
330
1EBC
102
}
330
1EBC
100
AcDbScale
 70
     0
300
1:20
140
1.0
141
20.0
290
     0
  0
SCALE
  5
1EC5
102
{ACAD_REACTORS
330
1EBC
102
}
330
1EBC
100
AcDbScale
 70
     0
300
1:30
140
1.0
141
30.0
290
     0
  0
SCALE
  5
1EC6
102
{ACAD_REACTORS
330
1EBC
102
}
330
1EBC
100
AcDbScale
 70
     0
300
1:40
140
1.0
141
40.0
290
     0
  0
SCALE
  5
1EC7
102
{ACAD_REACTORS
330
1EBC
102
}
330
1EBC
100
AcDbScale
 70
     0
300
1:50
140
1.0
141
50.0
290
     0
  0
SCALE
  5
1EC8
102
{ACAD_REACTORS
330
1EBC
102
}
330
1EBC
100
AcDbScale
 70
     0
300
1:100
140
1.0
141
100.0
290
     0
  0
SCALE
  5
1EC9
102
{ACAD_REACTORS
330
1EBC
102
}
330
1EBC
100
AcDbScale
 70
     0
300
2:1
140
2.0
141
1.0
290
     0
  0
SCALE
  5
1ECA
102
{ACAD_REACTORS
330
1EBC
102
}
330
1EBC
100
AcDbScale
 70
     0
300
4:1
140
4.0
141
1.0
290
     0
  0
SCALE
  5
1ECB
102
{ACAD_REACTORS
330
1EBC
102
}
330
1EBC
100
AcDbScale
 70
     0
300
8:1
140
8.0
141
1.0
290
     0
  0
SCALE
  5
1ECC
102
{ACAD_REACTORS
330
1EBC
102
}
330
1EBC
100
AcDbScale
 70
     0
300
10:1
140
10.0
141
1.0
290
     0
  0
SCALE
  5
1ECD
102
{ACAD_REACTORS
330
1EBC
102
}
330
1EBC
100
AcDbScale
 70
     0
300
100:1
140
100.0
141
1.0
290
     0
  0
TABLESTYLE
  5
1EBB
102
{ACAD_XDICTIONARY
360
21BA
102
}
102
{ACAD_REACTORS
330
1EBA
102
}
330
1EBA
100
AcDbTableStyle
  3
Standard
 70
     0
 71
     0
 40
1.5
 41
1.5
280
     0
281
     0
  7
STANDARD
140
4.5
170
     2
 62
     0
 63
     7
283
     0
 90
      512
 91
        0
  1

274
    -2
284
     1
 64
     0
275
    -2
285
     1
 65
     0
276
    -2
286
     1
 66
     0
277
    -2
287
     1
 67
     0
278
    -2
288
     1
 68
     0
279
    -2
289
     1
 69
     0
  7
STANDARD
140
6.0
170
     5
 62
     0
 63
     7
283
     0
 90
      512
 91
        0
  1

274
    -2
284
     1
 64
     0
275
    -2
285
     1
 65
     0
276
    -2
286
     1
 66
     0
277
    -2
287
     1
 67
     0
278
    -2
288
     1
 68
     0
279
    -2
289
     1
 69
     0
  7
STANDARD
140
4.5
170
     5
 62
     0
 63
     7
283
     0
 90
      512
 91
        0
  1

274
    -2
284
     1
 64
     0
275
    -2
285
     1
 65
     0
276
    -2
286
     1
 66
     0
277
    -2
287
     1
 67
     0
278
    -2
288
     1
 68
     0
279
    -2
289
     1
 69
     0
  0
VISUALSTYLE
  5
1EAE
102
{ACAD_REACTORS
330
1EA8
102
}
330
1EA8
100
AcDbVisualStyle
  2
2dWireframe
 70
     4
 71
     0
 72
     2
 73
     0
 90
        0
 40
-0.6
 41
-30.0
 62
     5
 63
     7
421
 16777215
 74
     1
 91
        4
 64
     7
 65
   257
 75
     1
175
     1
 42
1.0
 92
        0
 66
   257
 43
1.0
 76
     1
 77
     6
 78
     2
 67
     7
 79
     5
170
     0
171
     0
290
     0
174
     0
 93
        1
 44
0.0
173
     0
291
     0
 45
0.0
  0
VISUALSTYLE
  5
1EB0
102
{ACAD_REACTORS
330
1EA8
102
}
330
1EA8
100
AcDbVisualStyle
  2
3D Hidden
 70
     6
 71
     1
 72
     2
 73
     2
 90
        0
 40
-0.6
 41
-30.0
 62
     5
 63
     7
421
 16777215
 74
     2
 91
        2
 64
     7
 65
   257
 75
     2
175
     1
 42
40.0
 92
        0
 66
   257
 43
1.0
 76
     1
 77
     6
 78
     2
 67
     7
 79
     3
170
     0
171
     0
290
     0
174
     0
 93
        1
 44
0.0
173
     0
291
     0
 45
0.0
  0
VISUALSTYLE
  5
1EAF
102
{ACAD_REACTORS
330
1EA8
102
}
330
1EA8
100
AcDbVisualStyle
  2
3dWireframe
 70
     5
 71
     0
 72
     2
 73
     0
 90
        0
 40
-0.6
 41
-30.0
 62
     5
 63
     7
421
 16777215
 74
     1
 91
        4
 64
     7
 65
   257
 75
     1
175
     1
 42
1.0
 92
        0
 66
   257
 43
1.0
 76
     1
 77
     6
 78
     2
 67
     7
 79
     5
170
     0
171
     0
290
     0
174
     0
 93
        1
 44
0.0
173
     0
291
     0
 45
0.0
  0
VISUALSTYLE
  5
1EAD
102
{ACAD_REACTORS
330
1EA8
102
}
330
1EA8
100
AcDbVisualStyle
  2
Basic
 70
     7
 71
     1
 72
     0
 73
     1
 90
        0
 40
-0.6
 41
-30.0
 62
     5
 63
     7
421
 16777215
 74
     0
 91
        4
 64
     7
 65
   257
 75
     1
175
     1
 42
1.0
 92
        8
 66
     7
 43
1.0
 76
     1
 77
     6
 78
     2
 67
     7
 79
     5
170
     0
171
     0
290
     0
174
     0
 93
        1
 44
0.0
173
     0
291
     1
 45
0.0
  0
VISUALSTYLE
  5
1EB4
102
{ACAD_REACTORS
330
1EA8
102
}
330
1EA8
100
AcDbVisualStyle
  2
Brighten
 70
    12
 71
     2
 72
     2
 73
     0
 90
        0
 40
-0.6
 41
-30.0
 62
     5
 63
     7
421
 16777215
 74
     1
 91
        4
 64
     7
 65
   257
 75
     1
175
     1
 42
1.0
 92
        8
 66
     7
 43
1.0
 76
     1
 77
     6
 78
     2
 67
     7
 79
     5
170
     0
171
     0
290
     0
174
     0
 93
        1
 44
50.0
173
     0
291
     1
 45
0.0
  0
VISUALSTYLE
  5
1EB8
102
{ACAD_REACTORS
330
1EA8
102
}
330
1EA8
100
AcDbVisualStyle
  2
ColorChange
 70
    16
 71
     2
 72
     2
 73
     3
 90
        0
 40
-0.6
 41
-30.0
 62
     5
 63
     8
421
  8421504
 74
     1
 91
        4
 64
     7
 65
   257
 75
     1
175
     1
 42
1.0
 92
        8
 66
     8
424
  8421504
 43
1.0
 76
     1
 77
     6
 78
     2
 67
     7
 79
     5
170
     0
171
     0
290
     0
174
     0
 93
        1
 44
0.0
173
     0
291
     1
 45
0.0
  0
VISUALSTYLE
  5
1EB1
102
{ACAD_REACTORS
330
1EA8
102
}
330
1EA8
100
AcDbVisualStyle
  2
Conceptual
 70
     9
 71
     3
 72
     2
 73
     0
 90
        0
 40
-0.6
 41
-30.0
 62
     5
 63
     7
421
 16777215
 74
     2
 91
        2
 64
     7
 65
   257
 75
     1
175
     1
 42
40.0
 92
        8
 66
     7
 43
1.0
 76
     1
 77
     6
 78
     2
 67
     7
 79
     3
170
     0
171
     0
290
     0
174
     0
 93
        1
 44
0.0
173
     0
291
     0
 45
0.0
  0
VISUALSTYLE
  5
1EB3
102
{ACAD_REACTORS
330
1EA8
102
}
330
1EA8
100
AcDbVisualStyle
  2
Dim
 70
    11
 71
     2
 72
     2
 73
     0
 90
        0
 40
-0.6
 41
-30.0
 62
     5
 63
     7
421
 16777215
 74
     1
 91
        4
 64
     7
 65
   257
 75
     1
175
     1
 42
1.0
 92
        8
 66
     7
 43
1.0
 76
     1
 77
     6
 78
     2
 67
     7
 79
     5
170
     0
171
     0
290
     0
174
     0
 93
        1
 44
-50.0
173
     0
291
     1
 45
0.0
  0
VISUALSTYLE
  5
1EB7
102
{ACAD_REACTORS
330
1EA8
102
}
330
1EA8
100
AcDbVisualStyle
  2
Facepattern
 70
    15
 71
     2
 72
     2
 73
     0
 90
        0
 40
-0.6
 41
-30.0
 62
     5
 63
     7
421
 16777215
 74
     1
 91
        4
 64
     7
 65
   257
 75
     1
175
     1
 42
1.0
 92
        8
 66
     7
 43
1.0
 76
     1
 77
     6
 78
     2
 67
     7
 79
     5
170
     0
171
     0
290
     0
174
     0
 93
        1
 44
0.0
173
     0
291
     1
 45
0.0
  0
VISUALSTYLE
  5
1EA9
102
{ACAD_REACTORS
330
1EA8
102
}
330
1EA8
100
AcDbVisualStyle
  2
Flat
 70
     0
 71
     2
 72
     1
 73
     1
 90
        2
 40
-0.6
 41
30.0
 62
     5
 63
     7
421
 16777215
 74
     0
 91
        4
 64
     7
 65
   257
 75
     1
175
     1
 42
1.0
 92
        8
 66
     7
 43
1.0
 76
     1
 77
     6
 78
     2
 67
     7
 79
     5
170
     0
171
     0
290
     0
174
     0
 93
       13
 44
0.0
173
     0
291
     1
 45
0.0
  0
VISUALSTYLE
  5
1EAA
102
{ACAD_REACTORS
330
1EA8
102
}
330
1EA8
100
AcDbVisualStyle
  2
FlatWithEdges
 70
     1
 71
     2
 72
     1
 73
     1
 90
        2
 40
-0.6
 41
30.0
 62
     5
 63
     7
421
 16777215
 74
     1
 91
        4
 64
     7
 65
   257
 75
     1
175
     1
 42
1.0
 92
        0
 66
   257
 43
1.0
 76
     1
 77
     6
 78
     2
 67
     7
 79
     5
170
     0
171
     0
290
     0
174
     0
 93
       13
 44
0.0
173
     0
291
     1
 45
0.0
  0
VISUALSTYLE
  5
1EAB
102
{ACAD_REACTORS
330
1EA8
102
}
330
1EA8
100
AcDbVisualStyle
  2
Gouraud
 70
     2
 71
     2
 72
     2
 73
     1
 90
        2
 40
-0.6
 41
30.0
 62
     5
 63
     7
421
 16777215
 74
     0
 91
        4
 64
     7
 65
   257
 75
     1
175
     1
 42
1.0
 92
        0
 66
     7
 43
1.0
 76
     1
 77
     6
 78
     2
 67
     7
 79
     5
170
     0
171
     0
290
     0
174
     0
 93
       13
 44
0.0
173
     0
291
     1
 45
0.0
  0
VISUALSTYLE
  5
1EAC
102
{ACAD_REACTORS
330
1EA8
102
}
330
1EA8
100
AcDbVisualStyle
  2
GouraudWithEdges
 70
     3
 71
     2
 72
     2
 73
     1
 90
        2
 40
-0.6
 41
30.0
 62
     5
 63
     7
421
 16777215
 74
     1
 91
        4
 64
     7
 65
   257
 75
     1
175
     1
 42
1.0
 92
        0
 66
   257
 43
1.0
 76
     1
 77
     6
 78
     2
 67
     7
 79
     5
170
     0
171
     0
290
     0
174
     0
 93
       13
 44
0.0
173
     0
291
     1
 45
0.0
  0
VISUALSTYLE
  5
1EB6
102
{ACAD_REACTORS
330
1EA8
102
}
330
1EA8
100
AcDbVisualStyle
  2
Linepattern
 70
    14
 71
     2
 72
     2
 73
     0
 90
        0
 40
-0.6
 41
-30.0
 62
     5
 63
     7
421
 16777215
 74
     1
 91
        4
 64
     7
 65
   257
 75
     7
175
     7
 42
1.0
 92
        8
 66
     7
 43
1.0
 76
     1
 77
     6
 78
     2
 67
     7
 79
     5
170
     0
171
     0
290
     0
174
     0
 93
        1
 44
0.0
173
     0
291
     1
 45
0.0
  0
VISUALSTYLE
  5
1EB2
102
{ACAD_REACTORS
330
1EA8
102
}
330
1EA8
100
AcDbVisualStyle
  2
Realistic
 70
     8
 71
     2
 72
     2
 73
     0
 90
        0
 40
-0.6
 41
-30.0
 62
     5
 63
     7
421
 16777215
 74
     1
 91
        0
 64
     7
 65
   257
 75
     1
175
     1
 42
1.0
 92
        8
 66
     8
424
  7895160
 43
1.0
 76
     1
 77
     6
 78
     2
 67
     7
 79
     5
170
     0
171
     0
290
     0
174
     0
 93
       13
 44
0.0
173
     0
291
     0
 45
0.0
  0
VISUALSTYLE
  5
1EB5
102
{ACAD_REACTORS
330
1EA8
102
}
330
1EA8
100
AcDbVisualStyle
  2
Thicken
 70
    13
 71
     2
 72
     2
 73
     0
 90
        0
 40
-0.6
 41
-30.0
 62
     5
 63
     7
421
 16777215
 74
     1
 91
        4
 64
     7
 65
   257
 75
     1
175
     1
 42
1.0
 92
       12
 66
     7
 43
1.0
 76
     1
 77
     6
 78
     2
 67
     7
 79
     5
170
     0
171
     0
290
     0
174
     0
 93
        1
 44
0.0
173
     0
291
     1
 45
0.0
  0
DICTIONARYVAR
  5
21B6
102
{ACAD_REACTORS
330
5D
102
}
330
5D
100
DictionaryVariables
280
     0
  1
1:1
  0
DICTIONARYVAR
  5
21B4
102
{ACAD_REACTORS
330
5D
102
}
330
5D
100
DictionaryVariables
280
     0
  1
STANDARD
  0
DICTIONARYVAR
  5
21B3
102
{ACAD_REACTORS
330
5D
102
}
330
5D
100
DictionaryVariables
280
     0
  1
STANDARD
  0
DICTIONARYVAR
  5
5E
102
{ACAD_REACTORS
330
5D
102
}
330
5D
100
DictionaryVariables
280
     0
  1
0
  0
DICTIONARYVAR
  5
128
102
{ACAD_REACTORS
330
5D
102
}
330
5D
100
DictionaryVariables
280
     0
  1
1
  0
DICTIONARYVAR
  5
21B8
102
{ACAD_REACTORS
330
5D
102
}
330
5D
100
DictionaryVariables
280
     0
  1
1
  0
DICTIONARYVAR
  5
21B9
102
{ACAD_REACTORS
330
5D
102
}
330
5D
100
DictionaryVariables
280
     0
  1
15
  0
DICTIONARYVAR
  5
21B7
102
{ACAD_REACTORS
330
5D
102
}
330
5D
100
DictionaryVariables
280
     0
  1
0
  0
DICTIONARYVAR
  5
21B5
102
{ACAD_REACTORS
330
5D
102
}
330
5D
100
DictionaryVariables
280
     0
  1
0
  0
DICTIONARYVAR
  5
1044
102
{ACAD_REACTORS
330
5D
102
}
330
5D
100
DictionaryVariables
280
     0
  1
96
  0
DICTIONARY
  5
2068
102
{ACAD_REACTORS
330
142
102
}
330
142
100
AcDbDictionary
281
     1
  0
DICTIONARY
  5
172
102
{ACAD_REACTORS
330
171
102
}
330
171
100
AcDbDictionary
281
     1
  3
DWGSETTINGS
350
1EE6
  3
TRANSSETTINGS
350
1EEA
  0
DICTIONARY
  5
18A9
102
{ACAD_REACTORS
330
18A8
102
}
330
18A8
100
AcDbDictionary
281
     1
  0
ACAMGFILTERDAT
  5
164B
102
{ACAD_REACTORS
330
1F2
102
}
330
1F2
100
AcAmgFilterDat
 70
    15
  1
DIMENSION,AMDT_*_DIM
  2
*
  3
*
  4
*
  5
*
290
     1
  0
ACAMGFILTERDAT
  5
164C
102
{ACAD_REACTORS
330
1F2
102
}
330
1F2
100
AcAmgFilterDat
 70
    15
  1
*
  2
AM_FEA-AM_*
  3
*
  4
*
  5
*
290
     1
  0
ACAMGFILTERDAT
  5
164D
102
{ACAD_REACTORS
330
1F2
102
}
330
1F2
100
AcAmgFilterDat
 70
    15
  1
HATCH
  2
*
  3
*
  4
*
  5
*
290
     1
  0
ACAMGFILTERDAT
  5
164E
102
{ACAD_REACTORS
330
1F2
102
}
330
1F2
100
AcAmgFilterDat
 70
    15
  1
ACMFCFRAME,ACMDATUMTARGET,ACMDATUMID,ACMWELDSYM,ACMSURFSYM,ACMFEATID,ACMPARTREF,ACMBALLOON
  2
*
  3
*
  4
*
  5
*
290
     1
  0
LAYER_INDEX
  5
2199
102
{ACAD_REACTORS
330
2198
102
}
330
2198
100
AcDbIndex
 40
2455279.572023924
100
AcDbLayerIndex
  8
0
360
219A
 90
        0
  8
AM_0
360
219B
 90
        0
  8
AM_1
360
219C
 90
        0
  8
AM_2
360
219D
 90
        0
  8
AM_3
360
219E
 90
        0
  8
AM_4
360
219F
 90
        0
  8
AM_5
360
21A0
 90
        8
  8
AM_6
360
21A1
 90
        1
  8
AM_7
360
21A2
 90
        0
  8
AM_8
360
21A3
 90
        0
  8
AM_FR
360
21A4
 90
        0
  8
ASHADE
360
21A5
 90
        9
  8
AM_WORK
360
21A6
 90
        0
  8
AM_CL
360
21A7
 90
        0
  8
Defpoints
360
21A8
 90
        0
  8
ASRF_TMP
360
21A9
 90
        0
  8
AM_VIEWS
360
21AA
 90
        1
  8
AM_VIS
360
21AB
 90
        0
  8
AM_HID
360
21AC
 90
        0
  8
AM_PARDIM
360
21AD
 90
        0
  8
AmdtBRLock
360
21AE
 90
        0
  8
5
360
21AF
 90
        0
  8
1
360
21B0
 90
       27
  8
2
360
21B1
 90
        3
  8
7
360
21B2
 90
       17
  0
DICTIONARY
  5
1E99
330
1E98
100
AcDbDictionary
280
     1
281
     1
  3
BUMPTILE
360
1E9B
  3
DIFFUSETILE
360
1E9A
  3
OPACITYTILE
360
1E9E
  3
REFLECTIONTILE
360
1E9D
  3
REFRACTIONTILE
360
1E9F
  3
SPECULARTILE
360
1E9C
  0
DICTIONARY
  5
1E91
330
1E90
100
AcDbDictionary
280
     1
281
     1
  3
BUMPTILE
360
1E93
  3
DIFFUSETILE
360
1E92
  3
OPACITYTILE
360
1E96
  3
REFLECTIONTILE
360
1E95
  3
REFRACTIONTILE
360
1E97
  3
SPECULARTILE
360
1E94
  0
DICTIONARY
  5
1EA1
330
1EA0
100
AcDbDictionary
280
     1
281
     1
  3
BUMPTILE
360
1EA3
  3
DIFFUSETILE
360
1EA2
  3
OPACITYTILE
360
1EA6
  3
REFLECTIONTILE
360
1EA5
  3
REFRACTIONTILE
360
1EA7
  3
SPECULARTILE
360
1EA4
  0
DICTIONARY
  5
21BA
330
1EBB
100
AcDbDictionary
280
     1
281
     1
  3
ACAD_ROUNDTRIP_2008_TABLESTYLE_CELLSTYLEMAP
360
21BB
  0
IDBUFFER
  5
219A
330
0
100
AcDbIdBuffer
  0
IDBUFFER
  5
219B
330
0
100
AcDbIdBuffer
  0
IDBUFFER
  5
219C
330
0
100
AcDbIdBuffer
  0
IDBUFFER
  5
219D
330
0
100
AcDbIdBuffer
  0
IDBUFFER
  5
219E
330
0
100
AcDbIdBuffer
  0
IDBUFFER
  5
219F
330
0
100
AcDbIdBuffer
  0
IDBUFFER
  5
21A0
330
0
100
AcDbIdBuffer
330
1C7D
330
1CD7
330
1D16
330
1D5F
330
1DB7
330
1DF6
330
1E35
330
2104
  0
IDBUFFER
  5
21A1
330
0
100
AcDbIdBuffer
330
1E82
  0
IDBUFFER
  5
21A2
330
0
100
AcDbIdBuffer
  0
IDBUFFER
  5
21A3
330
0
100
AcDbIdBuffer
  0
IDBUFFER
  5
21A4
330
0
100
AcDbIdBuffer
  0
IDBUFFER
  5
21A5
330
0
100
AcDbIdBuffer
330
3FB
330
3FC
330
3FD
330
3FE
330
3FF
330
400
330
401
330
402
330
409
  0
IDBUFFER
  5
21A6
330
0
100
AcDbIdBuffer
  0
IDBUFFER
  5
21A7
330
0
100
AcDbIdBuffer
  0
IDBUFFER
  5
21A8
330
0
100
AcDbIdBuffer
  0
IDBUFFER
  5
21A9
330
0
100
AcDbIdBuffer
  0
IDBUFFER
  5
21AA
330
0
100
AcDbIdBuffer
330
1C6D
  0
IDBUFFER
  5
21AB
330
0
100
AcDbIdBuffer
  0
IDBUFFER
  5
21AC
330
0
100
AcDbIdBuffer
  0
IDBUFFER
  5
21AD
330
0
100
AcDbIdBuffer
  0
IDBUFFER
  5
21AE
330
0
100
AcDbIdBuffer
  0
IDBUFFER
  5
21AF
330
0
100
AcDbIdBuffer
  0
IDBUFFER
  5
21B0
330
0
100
AcDbIdBuffer
330
1A87
330
1A8B
330
1A8C
330
1A8E
330
1A90
330
1A91
330
1A93
330
20CB
330
20D8
330
20D9
330
20DA
330
1A65
330
1A66
330
1A67
330
1A68
330
1A6A
330
1A6B
330
1A6E
330
1A6F
330
1A72
330
1A73
330
1A75
330
1A7D
330
1A7F
330
1A80
330
1A83
330
1A84
  0
IDBUFFER
  5
21B1
330
0
100
AcDbIdBuffer
330
1A88
330
1A89
330
1A8A
  0
IDBUFFER
  5
21B2
330
0
100
AcDbIdBuffer
330
20DB
330
1A69
330
1A6C
330
1A6D
330
1A70
330
1A71
330
1A74
330
1A76
330
1A77
330
1A78
330
1A79
330
1A7A
330
1A7E
330
1A81
330
1A82
330
1A85
330
1A8F
  0
XRECORD
  5
1E9B
102
{ACAD_REACTORS
330
1E99
102
}
330
1E99
100
AcDbXrecord
280
     1
270
     1
271
     1
  0
XRECORD
  5
1E9A
102
{ACAD_REACTORS
330
1E99
102
}
330
1E99
100
AcDbXrecord
280
     1
270
     1
271
     1
  0
XRECORD
  5
1E9E
102
{ACAD_REACTORS
330
1E99
102
}
330
1E99
100
AcDbXrecord
280
     1
270
     1
271
     1
  0
XRECORD
  5
1E9D
102
{ACAD_REACTORS
330
1E99
102
}
330
1E99
100
AcDbXrecord
280
     1
270
     1
271
     1
  0
XRECORD
  5
1E9F
102
{ACAD_REACTORS
330
1E99
102
}
330
1E99
100
AcDbXrecord
280
     1
270
     1
271
     1
  0
XRECORD
  5
1E9C
102
{ACAD_REACTORS
330
1E99
102
}
330
1E99
100
AcDbXrecord
280
     1
270
     1
271
     1
  0
XRECORD
  5
1E93
102
{ACAD_REACTORS
330
1E91
102
}
330
1E91
100
AcDbXrecord
280
     1
270
     1
271
     1
  0
XRECORD
  5
1E92
102
{ACAD_REACTORS
330
1E91
102
}
330
1E91
100
AcDbXrecord
280
     1
270
     1
271
     1
  0
XRECORD
  5
1E96
102
{ACAD_REACTORS
330
1E91
102
}
330
1E91
100
AcDbXrecord
280
     1
270
     1
271
     1
  0
XRECORD
  5
1E95
102
{ACAD_REACTORS
330
1E91
102
}
330
1E91
100
AcDbXrecord
280
     1
270
     1
271
     1
  0
XRECORD
  5
1E97
102
{ACAD_REACTORS
330
1E91
102
}
330
1E91
100
AcDbXrecord
280
     1
270
     1
271
     1
  0
XRECORD
  5
1E94
102
{ACAD_REACTORS
330
1E91
102
}
330
1E91
100
AcDbXrecord
280
     1
270
     1
271
     1
  0
XRECORD
  5
1EA3
102
{ACAD_REACTORS
330
1EA1
102
}
330
1EA1
100
AcDbXrecord
280
     1
270
     1
271
     1
  0
XRECORD
  5
1EA2
102
{ACAD_REACTORS
330
1EA1
102
}
330
1EA1
100
AcDbXrecord
280
     1
270
     1
271
     1
  0
XRECORD
  5
1EA6
102
{ACAD_REACTORS
330
1EA1
102
}
330
1EA1
100
AcDbXrecord
280
     1
270
     1
271
     1
  0
XRECORD
  5
1EA5
102
{ACAD_REACTORS
330
1EA1
102
}
330
1EA1
100
AcDbXrecord
280
     1
270
     1
271
     1
  0
XRECORD
  5
1EA7
102
{ACAD_REACTORS
330
1EA1
102
}
330
1EA1
100
AcDbXrecord
280
     1
270
     1
271
     1
  0
XRECORD
  5
1EA4
102
{ACAD_REACTORS
330
1EA1
102
}
330
1EA1
100
AcDbXrecord
280
     1
270
     1
271
     1
  0
CELLSTYLEMAP
  5
21BB
102
{ACAD_REACTORS
330
21BA
102
}
330
21BA
100
AcDbCellStyleMap
 90
        3
300
CELLSTYLE
  1
TABLEFORMAT_BEGIN
 90
        5
170
     1
 91
        0
 92
    32768
 62
   257
 93
        1
300
CONTENTFORMAT
  1
CONTENTFORMAT_BEGIN
 90
        0
 91
        0
 92
      512
 93
        0
300

 40
0.0
140
1.0
 94
        5
 62
     0
340
10
144
6.0
309
CONTENTFORMAT_END
171
     1
301
MARGIN
  1
CELLMARGIN_BEGIN
 40
1.5
 40
1.5
 40
1.5
 40
1.5
 40
4.5
 40
4.5
309
CELLMARGIN_END
 94
        6
 95
        1
302
GRIDFORMAT
  1
GRIDFORMAT_BEGIN
 90
        0
 91
        1
 62
     0
 92
       -2
340
0
 93
        0
 40
1.125
309
GRIDFORMAT_END
 95
        2
302
GRIDFORMAT
  1
GRIDFORMAT_BEGIN
 90
        0
 91
        1
 62
     0
 92
       -2
340
0
 93
        0
 40
1.125
309
GRIDFORMAT_END
 95
        4
302
GRIDFORMAT
  1
GRIDFORMAT_BEGIN
 90
        0
 91
        1
 62
     0
 92
       -2
340
0
 93
        0
 40
1.125
309
GRIDFORMAT_END
 95
        8
302
GRIDFORMAT
  1
GRIDFORMAT_BEGIN
 90
        0
 91
        1
 62
     0
 92
       -2
340
0
 93
        0
 40
1.125
309
GRIDFORMAT_END
 95
       16
302
GRIDFORMAT
  1
GRIDFORMAT_BEGIN
 90
        0
 91
        1
 62
     0
 92
       -2
340
0
 93
        0
 40
1.125
309
GRIDFORMAT_END
 95
       32
302
GRIDFORMAT
  1
GRIDFORMAT_BEGIN
 90
        0
 91
        1
 62
     0
 92
       -2
340
0
 93
        0
 40
1.125
309
GRIDFORMAT_END
309
TABLEFORMAT_END
  1
CELLSTYLE_BEGIN
 90
        1
 91
        1
300
_TITLE
309
CELLSTYLE_END
300
CELLSTYLE
  1
TABLEFORMAT_BEGIN
 90
        5
170
     1
 91
        0
 92
        0
 62
   257
 93
        1
300
CONTENTFORMAT
  1
CONTENTFORMAT_BEGIN
 90
        0
 91
        0
 92
      512
 93
        0
300

 40
0.0
140
1.0
 94
        5
 62
     0
340
10
144
4.5
309
CONTENTFORMAT_END
171
     1
301
MARGIN
  1
CELLMARGIN_BEGIN
 40
1.5
 40
1.5
 40
1.5
 40
1.5
 40
4.5
 40
4.5
309
CELLMARGIN_END
 94
        6
 95
        1
302
GRIDFORMAT
  1
GRIDFORMAT_BEGIN
 90
        0
 91
        1
 62
     0
 92
       -2
340
0
 93
        0
 40
1.125
309
GRIDFORMAT_END
 95
        2
302
GRIDFORMAT
  1
GRIDFORMAT_BEGIN
 90
        0
 91
        1
 62
     0
 92
       -2
340
0
 93
        0
 40
1.125
309
GRIDFORMAT_END
 95
        4
302
GRIDFORMAT
  1
GRIDFORMAT_BEGIN
 90
        0
 91
        1
 62
     0
 92
       -2
340
0
 93
        0
 40
1.125
309
GRIDFORMAT_END
 95
        8
302
GRIDFORMAT
  1
GRIDFORMAT_BEGIN
 90
        0
 91
        1
 62
     0
 92
       -2
340
0
 93
        0
 40
1.125
309
GRIDFORMAT_END
 95
       16
302
GRIDFORMAT
  1
GRIDFORMAT_BEGIN
 90
        0
 91
        1
 62
     0
 92
       -2
340
0
 93
        0
 40
1.125
309
GRIDFORMAT_END
 95
       32
302
GRIDFORMAT
  1
GRIDFORMAT_BEGIN
 90
        0
 91
        1
 62
     0
 92
       -2
340
0
 93
        0
 40
1.125
309
GRIDFORMAT_END
309
TABLEFORMAT_END
  1
CELLSTYLE_BEGIN
 90
        2
 91
        1
300
_HEADER
309
CELLSTYLE_END
300
CELLSTYLE
  1
TABLEFORMAT_BEGIN
 90
        5
170
     1
 91
        0
 92
        0
 62
   257
 93
        1
300
CONTENTFORMAT
  1
CONTENTFORMAT_BEGIN
 90
        0
 91
        0
 92
      512
 93
        0
300

 40
0.0
140
1.0
 94
        2
 62
     0
340
10
144
4.5
309
CONTENTFORMAT_END
171
     1
301
MARGIN
  1
CELLMARGIN_BEGIN
 40
1.5
 40
1.5
 40
1.5
 40
1.5
 40
4.5
 40
4.5
309
CELLMARGIN_END
 94
        6
 95
        1
302
GRIDFORMAT
  1
GRIDFORMAT_BEGIN
 90
        0
 91
        1
 62
     0
 92
       -2
340
0
 93
        0
 40
1.125
309
GRIDFORMAT_END
 95
        2
302
GRIDFORMAT
  1
GRIDFORMAT_BEGIN
 90
        0
 91
        1
 62
     0
 92
       -2
340
0
 93
        0
 40
1.125
309
GRIDFORMAT_END
 95
        4
302
GRIDFORMAT
  1
GRIDFORMAT_BEGIN
 90
        0
 91
        1
 62
     0
 92
       -2
340
0
 93
        0
 40
1.125
309
GRIDFORMAT_END
 95
        8
302
GRIDFORMAT
  1
GRIDFORMAT_BEGIN
 90
        0
 91
        1
 62
     0
 92
       -2
340
0
 93
        0
 40
1.125
309
GRIDFORMAT_END
 95
       16
302
GRIDFORMAT
  1
GRIDFORMAT_BEGIN
 90
        0
 91
        1
 62
     0
 92
       -2
340
0
 93
        0
 40
1.125
309
GRIDFORMAT_END
 95
       32
302
GRIDFORMAT
  1
GRIDFORMAT_BEGIN
 90
        0
 91
        1
 62
     0
 92
       -2
340
0
 93
        0
 40
1.125
309
GRIDFORMAT_END
309
TABLEFORMAT_END
  1
CELLSTYLE_BEGIN
 90
        3
 91
        2
300
_DATA
309
CELLSTYLE_END
  0
ENDSEC
  0
EOF
