  0
SECTION
  2
HEADER
  9
$ACADVER
  1
AC1021
  9
$ACADMAINTVER
 70
     1
  9
$DWGCODEPAGE
  3
ANSI_1252
  9
$LASTSAVEDBY
  1
uns
  9
$CUSTOMPROPERTYTAG
  1
AmdtFileType
  9
$CUSTOMPROPERTY
  1
84
  9
$INSBASE
 10
0.0
 20
0.0
 30
0.0
  9
$EXTMIN
 10
60.50465707847828
 20
18.19542767787467
 30
0.0
  9
$EXTMAX
 10
192.5649238226771
 20
333.2405730158171
 30
0.0
  9
$LIMMIN
 10
0.0
 20
0.0
  9
$LIMMAX
 10
420.0
 20
297.0
  9
$ORTHOMODE
 70
     0
  9
$REGENMODE
 70
     1
  9
$FILLMODE
 70
     1
  9
$QTEXTMODE
 70
     0
  9
$MIRRTEXT
 70
     1
  9
$LTSCALE
 40
1.0
  9
$ATTMODE
 70
     1
  9
$TEXTSIZE
 40
3.5
  9
$TRACEWID
 40
1.0
  9
$TEXTSTYLE
  7
STANDARD
  9
$CLAYER
  8
AM_0
  9
$CELTYPE
  6
BYLAYER
  9
$CECOLOR
 62
   256
  9
$CELTSCALE
 40
1.0
  9
$DISPSILH
 70
     0
  9
$DIMSCALE
 40
1.0
  9
$DIMASZ
 40
2.5
  9
$DIMEXO
 40
0.0
  9
$DIMDLI
 40
10.0
  9
$DIMRND
 40
0.0
  9
$DIMDLE
 40
0.0
  9
$DIMEXE
 40
1.0
  9
$DIMTP
 40
0.1
  9
$DIMTM
 40
0.1
  9
$DIMTXT
 40
3.5
  9
$DIMCEN
 40
0.0
  9
$DIMTSZ
 40
0.0
  9
$DIMTOL
 70
     0
  9
$DIMLIM
 70
     0
  9
$DIMTIH
 70
     0
  9
$DIMTOH
 70
     0
  9
$DIMSE1
 70
     0
  9
$DIMSE2
 70
     0
  9
$DIMTAD
 70
     1
  9
$DIMZIN
 70
     8
  9
$DIMBLK
  1

  9
$DIMASO
 70
     1
  9
$DIMSHO
 70
     1
  9
$DIMPOST
  1

  9
$DIMAPOST
  1
"
  9
$DIMALT
 70
     0
  9
$DIMALTD
 70
     2
  9
$DIMALTF
 40
0.0393701
  9
$DIMLFAC
 40
1.0
  9
$DIMTOFL
 70
     1
  9
$DIMTVP
 40
0.0
  9
$DIMTIX
 70
     0
  9
$DIMSOXD
 70
     0
  9
$DIMSAH
 70
     0
  9
$DIMBLK1
  1

  9
$DIMBLK2
  1

  9
$DIMSTYLE
  2
AM_ISO
  9
$DIMCLRD
 70
   256
  9
$DIMCLRE
 70
   256
  9
$DIMCLRT
 70
     2
  9
$DIMTFAC
 40
0.71
  9
$DIMGAP
 40
1.5
  9
$DIMJUST
 70
     0
  9
$DIMSD1
 70
     0
  9
$DIMSD2
 70
     0
  9
$DIMTOLJ
 70
     0
  9
$DIMTZIN
 70
     0
  9
$DIMALTZ
 70
     0
  9
$DIMALTTZ
 70
     0
  9
$DIMUPT
 70
     0
  9
$DIMDEC
 70
     2
  9
$DIMTDEC
 70
     2
  9
$DIMALTU
 70
     2
  9
$DIMALTTD
 70
     2
  9
$DIMTXSTY
  7
STANDARD
  9
$DIMAUNIT
 70
     0
  9
$DIMADEC
 70
     0
  9
$DIMALTRND
 40
0.0
  9
$DIMAZIN
 70
     2
  9
$DIMDSEP
 70
    46
  9
$DIMATFIT
 70
     3
  9
$DIMFRAC
 70
     0
  9
$DIMLDRBLK
  1

  9
$DIMLUNIT
 70
     2
  9
$DIMLWD
 70
    -1
  9
$DIMLWE
 70
    -1
  9
$DIMTMOVE
 70
     0
  9
$DIMFXL
 40
1.0
  9
$DIMFXLON
 70
     0
  9
$DIMJOGANG
 40
0.7853981633974483
  9
$DIMTFILL
 70
     0
  9
$DIMTFILLCLR
 70
     0
  9
$DIMARCSYM
 70
     0
  9
$DIMLTYPE
  6

  9
$DIMLTEX1
  6

  9
$DIMLTEX2
  6

  9
$LUNITS
 70
     2
  9
$LUPREC
 70
     4
  9
$SKETCHINC
 40
1.0
  9
$FILLETRAD
 40
10.0
  9
$AUNITS
 70
     0
  9
$AUPREC
 70
     2
  9
$MENU
  1
.
  9
$ELEVATION
 40
0.0
  9
$PELEVATION
 40
0.0
  9
$THICKNESS
 40
0.0
  9
$LIMCHECK
 70
     0
  9
$CHAMFERA
 40
10.0
  9
$CHAMFERB
 40
10.0
  9
$CHAMFERC
 40
20.0
  9
$CHAMFERD
 40
0.0
  9
$SKPOLY
 70
     1
  9
$TDCREATE
 40
2452020.527071158
  9
$TDUCREATE
 40
2452020.485404491
  9
$TDUPDATE
 40
2453942.409708750
  9
$TDUUPDATE
 40
2453942.368042083
  9
$TDINDWG
 40
0.0225439005
  9
$TDUSRTIMER
 40
0.0225437847
  9
$USRTIMER
 70
     1
  9
$ANGBASE
 50
0.0
  9
$ANGDIR
 70
     0
  9
$PDMODE
 70
     0
  9
$PDSIZE
 40
0.0
  9
$PLINEWID
 40
0.0
  9
$SPLFRAME
 70
     0
  9
$SPLINETYPE
 70
     6
  9
$SPLINESEGS
 70
    16
  9
$HANDSEED
  5
1F95
  9
$SURFTAB1
 70
     6
  9
$SURFTAB2
 70
     6
  9
$SURFTYPE
 70
     6
  9
$SURFU
 70
     6
  9
$SURFV
 70
     6
  9
$UCSBASE
  2

  9
$UCSNAME
  2

  9
$UCSORG
 10
0.0
 20
0.0
 30
0.0
  9
$UCSXDIR
 10
1.0
 20
0.0
 30
0.0
  9
$UCSYDIR
 10
0.0
 20
1.0
 30
0.0
  9
$UCSORTHOREF
  2

  9
$UCSORTHOVIEW
 70
     0
  9
$UCSORGTOP
 10
0.0
 20
0.0
 30
0.0
  9
$UCSORGBOTTOM
 10
0.0
 20
0.0
 30
0.0
  9
$UCSORGLEFT
 10
0.0
 20
0.0
 30
0.0
  9
$UCSORGRIGHT
 10
0.0
 20
0.0
 30
0.0
  9
$UCSORGFRONT
 10
0.0
 20
0.0
 30
0.0
  9
$UCSORGBACK
 10
0.0
 20
0.0
 30
0.0
  9
$PUCSBASE
  2

  9
$PUCSNAME
  2

  9
$PUCSORG
 10
0.0
 20
0.0
 30
0.0
  9
$PUCSXDIR
 10
1.0
 20
0.0
 30
0.0
  9
$PUCSYDIR
 10
0.0
 20
1.0
 30
0.0
  9
$PUCSORTHOREF
  2

  9
$PUCSORTHOVIEW
 70
     0
  9
$PUCSORGTOP
 10
0.0
 20
0.0
 30
0.0
  9
$PUCSORGBOTTOM
 10
0.0
 20
0.0
 30
0.0
  9
$PUCSORGLEFT
 10
0.0
 20
0.0
 30
0.0
  9
$PUCSORGRIGHT
 10
0.0
 20
0.0
 30
0.0
  9
$PUCSORGFRONT
 10
0.0
 20
0.0
 30
0.0
  9
$PUCSORGBACK
 10
0.0
 20
0.0
 30
0.0
  9
$USERI1
 70
     0
  9
$USERI2
 70
     0
  9
$USERI3
 70
     0
  9
$USERI4
 70
     0
  9
$USERI5
 70
     0
  9
$USERR1
 40
0.0
  9
$USERR2
 40
0.0
  9
$USERR3
 40
0.0
  9
$USERR4
 40
0.0
  9
$USERR5
 40
0.0
  9
$WORLDVIEW
 70
     1
  9
$SHADEDGE
 70
     3
  9
$SHADEDIF
 70
    70
  9
$TILEMODE
 70
     1
  9
$MAXACTVP
 70
    48
  9
$PINSBASE
 10
0.0
 20
0.0
 30
0.0
  9
$PLIMCHECK
 70
     0
  9
$PEXTMIN
 10
20.12
 20
6.727344797985158
 30
0.0
  9
$PEXTMAX
 10
203.0
 20
290.0
 30
0.0
  9
$PLIMMIN
 10
-5.027083396911621
 20
-5.111741065979003
  9
$PLIMMAX
 10
204.9885873794556
 20
291.8989095687866
  9
$UNITMODE
 70
     0
  9
$VISRETAIN
 70
     1
  9
$PLINEGEN
 70
     0
  9
$PSLTSCALE
 70
     1
  9
$TREEDEPTH
 70
  3020
  9
$CMLSTYLE
  2
STANDARD
  9
$CMLJUST
 70
     0
  9
$CMLSCALE
 40
1.0
  9
$PROXYGRAPHICS
 70
     1
  9
$MEASUREMENT
 70
     1
  9
$CELWEIGHT
370
    -1
  9
$ENDCAPS
280
     0
  9
$JOINSTYLE
280
     0
  9
$LWDISPLAY
290
     0
  9
$INSUNITS
 70
     0
  9
$HYPERLINKBASE
  1

  9
$STYLESHEET
  1
LAA4.ctb
  9
$XEDIT
290
     1
  9
$CEPSNTYPE
380
     0
  9
$PSTYLEMODE
290
     1
  9
$FINGERPRINTGUID
  2
{9DE0F4BE-022B-11D3-8698-0060B085A428}
  9
$VERSIONGUID
  2
{6071A16C-A5C4-43A5-BEC5-CB5793EA485F}
  9
$EXTNAMES
290
     1
  9
$PSVPSCALE
 40
0.0
  9
$OLESTARTUP
290
     0
  9
$SORTENTS
280
    96
  9
$INDEXCTL
280
     1
  9
$HIDETEXT
280
     0
  9
$XCLIPFRAME
290
     0
  9
$HALOGAP
280
     0
  9
$OBSCOLOR
 70
   257
  9
$OBSLTYPE
280
     0
  9
$INTERSECTIONDISPLAY
280
     0
  9
$INTERSECTIONCOLOR
 70
   257
  9
$DIMASSOC
280
     1
  9
$PROJECTNAME
  1

  9
$CAMERADISPLAY
290
     0
  9
$LENSLENGTH
 40
50.0
  9
$CAMERAHEIGHT
 40
0.0
  9
$STEPSPERSEC
 40
2.0
  9
$STEPSIZE
 40
6.0
  9
$3DDWFPREC
 40
2.0
  9
$PSOLWIDTH
 40
0.25
  9
$PSOLHEIGHT
 40
4.0
  9
$LOFTANG1
 40
1.570796326794896
  9
$LOFTANG2
 40
1.570796326794896
  9
$LOFTMAG1
 40
0.0
  9
$LOFTMAG2
 40
0.0
  9
$LOFTPARAM
 70
     7
  9
$LOFTNORMALS
280
     1
  9
$LATITUDE
 40
37.795
  9
$LONGITUDE
 40
-122.394
  9
$NORTHDIRECTION
 40
0.0
  9
$TIMEZONE
 70
 -8000
  9
$LIGHTGLYPHDISPLAY
280
     1
  9
$TILEMODELIGHTSYNCH
280
     1
  9
$CMATERIAL
347
1E97
  9
$SOLIDHIST
280
     1
  9
$SHOWHIST
280
     1
  9
$DWFFRAME
280
     2
  9
$DGNFRAME
280
     0
  9
$REALWORLDSCALE
290
     1
  9
$INTERFERECOLOR
 62
     1
  9
$INTERFEREOBJVS
345
1EA4
  9
$INTERFEREVPVS
346
1EA1
  9
$CSHADOW
280
     0
  9
$SHADOWPLANELOCATION
 40
0.0
  0
ENDSEC
  0
SECTION
  2
CLASSES
  0
CLASS
  1
DICTIONARYVAR
  2
AcDbDictionaryVar
  3
ObjectDBX Classes
 90
        0
 91
        4
280
     0
281
     0
  0
CLASS
  1
ACMESTATEMGR
  2
AcMeStateMgr
  3
AcMeServices
 90
        0
 91
        1
280
     0
281
     0
  0
CLASS
  1
ACMESCOPE
  2
AcMeScope
  3
AcMeServices
 90
        0
 91
        1
280
     0
281
     0
  0
CLASS
  1
ACMECOMMANDHISTORY
  2
AcMeCommandHistory
  3
AcMeServices
 90
        0
 91
        1
280
     0
281
     0
  0
CLASS
  1
ACRFINSADJUSTERMGR
  2
AcRfInsAdjusterMgr
  3
AcMeServices
 90
        0
 91
        1
280
     0
281
     0
  0
CLASS
  1
ACMEDRAWINGMAN
  2
AcMeDrawingMan
  3
AcMeServices
 90
        0
 91
        1
280
     0
281
     0
  0
CLASS
  1
AMATTR
  2
AcMeAttribute
  3
AcMeServices
 90
        0
 91
        0
280
     0
281
     0
  0
CLASS
  1
ACMEBOMCOLUMN
  2
AcMeBOMColumn
  3
AcMeServices
 90
        0
 91
        0
280
     0
281
     0
  0
CLASS
  1
ACMEBOMCONF
  2
AcMeBOMConf
  3
AcMeServices
 90
        0
 91
        0
280
     0
281
     0
  0
CLASS
  1
ACMEBOMTABLE
  2
AcMeBOMTable
  3
AcMeServices
 90
        0
 91
        0
280
     0
281
     0
  0
CLASS
  1
ACMEBOMENTRY
  2
AcMeBOMEntry
  3
AcMeServices
 90
        0
 91
        0
280
     0
281
     0
  0
CLASS
  1
ACMEVIEW
  2
AcMeView
  3
AcMeServices
 90
        0
 91
        2
280
     0
281
     0
  0
CLASS
  1
ACGREFMASTER
  2
AcGrefMaster
  3
AcAttribServices
 90
        0
 91
        1
280
     0
281
     0
  0
CLASS
  1
AMIMASTER
  2
AmiMaster
  3
AmiServices
 90
        0
 91
        1
280
     0
281
     0
  0
CLASS
  1
ACASGREFMASTER
  2
AcAsGrefMaster
  3
AutoSurfResolverServices
 90
        0
 91
        1
280
     0
281
     0
  0
CLASS
  1
ADAPPL
  2
AcAdAppl
  3
DesignerServices
 90
        0
 91
        1
280
     0
281
     0
  0
CLASS
  1
DEPMGR
  2
AcAdDepMgr
  3
DesignerServices
 90
        0
 91
        1
280
     0
281
     0
  0
CLASS
  1
PARAMMGR
  2
AcAdParamMgr
  3
DesignerServices
 90
        0
 91
        1
280
     0
281
     0
  0
CLASS
  1
PARAMSCOPE
  2
AcAdParamScope
  3
DesignerServices
 90
        0
 91
        3
280
     0
281
     0
  0
CLASS
  1
ACIMSYSVARMAN
  2
AcImSysVarManager
  3
AcMeServices
 90
        0
 91
        6
280
     0
281
     0
  0
CLASS
  1
ACIMINTSYSVAR
  2
AcImIntSysVar
  3
AcMeServices
 90
        0
 91
       47
280
     0
281
     0
  0
CLASS
  1
ACIMREALSYSVAR
  2
AcImRealSysVar
  3
AcMeServices
 90
        0
 91
       16
280
     0
281
     0
  0
CLASS
  1
ACIMSTRSYSVAR
  2
AcImStrSysVar
  3
AcMeServices
 90
        0
 91
       14
280
     0
281
     0
  0
CLASS
  1
NAMEDAPPL
  2
AcAdNamedAppl
  3
DesignerServices
 90
        0
 91
        1
280
     0
281
     0
  0
CLASS
  1
ADHNTMPLT
  2
AdHoleNoteTemplateMgr
  3
DesignerServices
 90
        0
 91
        0
280
     0
281
     0
  0
CLASS
  1
AM_HNTEMPLATE_MGR_NAME
  2
AdHoleNoteTemplateMgrName
  3
DesignerServices
 90
        0
 91
        0
280
     0
281
     0
  0
CLASS
  1
ACADGREFMODULE
  2
AcAdGrefModule
  3
AdGrefServices
 90
        0
 91
        1
280
     0
281
     0
  0
CLASS
  1
AM_DRAWING_MGR
  2
AcDmDwgMgr
  3
AcMechDwgViewMgmt
 90
        0
 91
        1
280
     0
281
     0
  0
CLASS
  1
AM_DWG_DOCUMENT
  2
AcDmDwgDocument
  3
AcMechDwgViewMgmt
 90
        0
 91
        1
280
     0
281
     0
  0
CLASS
  1
AM_DWG_SHEET
  2
AcDmSheet
  3
AcMechDwgViewMgmt
 90
        0
 91
        5
280
     0
281
     0
  0
CLASS
  1
AM_VIEWDIMPARMAP
  2
AcDmViewDimParMap
  3
AcMechDwgViewMgmt
 90
        0
 91
        5
280
     0
281
     0
  0
CLASS
  1
AM_DWGMGR_NAME
  2
AcDmDwgMgrName
  3
AcMechDwgViewMgmt
 90
        0
 91
        1
280
     0
281
     0
  0
CLASS
  1
ACAMPROJECT
  2
AcAmProject
  3
DesignerAssemblies
 90
        0
 91
        1
280
     0
281
     0
  0
CLASS
  1
ACAMGRCOMPSET
  2
AcAmGrCompSet
  3
DesignerAssemblies
 90
        0
 91
        0
280
     0
281
     0
  0
CLASS
  1
ACAMGRCOMPDEFSET
  2
AcAmGrCompDefSet
  3
DesignerAssemblies
 90
        0
 91
        1
280
     0
281
     0
  0
CLASS
  1
ACAMGRCOMPDEF
  2
AcAmGrCompDef
  3
DesignerAssemblies
 90
        0
 91
        7
280
     0
281
     0
  0
CLASS
  1
ACCMCONTEXT
  2
AcCmContext
  3
DesignerAssemblies
 90
        0
 91
        3
280
     0
281
     0
  0
CLASS
  1
ACAMCOMPDEF
  2
AcAmCompDef
  3
DesignerAssemblies
 90
        0
 91
        3
280
     0
281
     0
  0
CLASS
  1
ACAMCOMPDEFMGR
  2
AcAmCompDefMgr
  3
DesignerAssemblies
 90
        0
 91
        1
280
     0
281
     0
  0
CLASS
  1
AMCONTEXTMGR
  2
AcAmContextMgr
  3
DesignerAssemblies
 90
        0
 91
        1
280
     0
281
     0
  0
CLASS
  1
ACAMCONTEXTMODELER
  2
AcAmContextModeler
  3
DesignerAssemblies
 90
        0
 91
        1
280
     0
281
     0
  0
CLASS
  1
ACDMVIEWGEOM
  2
AcDmViewGeometry
  3
AcMechDwgViewMgmt
 90
        0
 91
        1
280
     0
281
     1
  0
CLASS
  1
CBROWSERAPPOBJECT
  2
CBrowserAppObject
  3
McadcomServices
 90
        0
 91
        3
280
     0
281
     0
  0
CLASS
  1
IM_STATIC_MAN
  2
AcImStaticVarManager
  3
AcMeServices
 90
        0
 91
        1
280
     0
281
     0
  0
CLASS
  1
ASAPP
  2
AcAsAppObject
  3
AutoSurfServices
 90
        0
 91
        1
280
     0
281
     0
  0
CLASS
  1
ACIMDBLSTATICVAR
  2
AcImDblStaticVar
  3
AcMeServices
 90
        0
 91
       22
280
     0
281
     0
  0
CLASS
  1
ACIMSTRSTATICVAR
  2
AcImStrStaticVar
  3
AcMeServices
 90
        0
 91
       13
280
     0
281
     0
  0
CLASS
  1
ACIMINTSTATICVAR
  2
AcImIntStaticVar
  3
AcMeServices
 90
        0
 91
       17
280
     0
281
     0
  0
CLASS
  1
CATALOGSTATE
  2
AcAmCatalogState
  3
DesignerAssemblies
 90
        0
 91
        1
280
     0
281
     0
  0
CLASS
  1
DM_PLACEHOLDER
  2
AcDmSelsetPlaceholder
  3
AcMechDwgViewMgmt
 90
        0
 91
        1
280
     0
281
     0
  0
CLASS
  1
LAYER_INDEX
  2
AcDbLayerIndex
  3
ObjectDBX Classes
 90
        0
 91
        1
280
     0
281
     0
  0
CLASS
  1
IDBUFFER
  2
AcDbIdBuffer
  3
ObjectDBX Classes
 90
        0
 91
       36
280
     0
281
     0
  0
CLASS
  1
ACMSTANDARDJIS
  2
AcmStandardJIS
  3
"Amdt_StdImp|Product Description: AutoCAD Mechanical|Company: Autodesk"
 90
        0
 91
        1
280
     0
281
     0
  0
CLASS
  1
ACMSTANDARDANSI
  2
AcmStandardANSI
  3
"Amdt_StdImp|Product Description: AutoCAD Mechanical|Company: Autodesk"
 90
        0
 91
        1
280
     0
281
     0
  0
CLASS
  1
ACMSTANDARDBSI
  2
AcmStandardBSI
  3
"Amdt_StdImp|Product Description: AutoCAD Mechanical|Company: Autodesk"
 90
        0
 91
        1
280
     0
281
     0
  0
CLASS
  1
ACMSTANDARDDIN
  2
AcmStandardDIN
  3
"Amdt_StdImp|Product Description: AutoCAD Mechanical|Company: Autodesk"
 90
        0
 91
        1
280
     0
281
     0
  0
CLASS
  1
ACMSTANDARDISO
  2
AcmStandardISO
  3
"Amdt_StdImp|Product Description: AutoCAD Mechanical|Company: Autodesk"
 90
        0
 91
        1
280
     0
281
     0
  0
CLASS
  1
ACDBDICTIONARYWDFLT
  2
AcDbDictionaryWithDefault
  3
ObjectDBX Classes
 90
        0
 91
        1
280
     0
281
     0
  0
CLASS
  1
ACME_DOCUMENT
  2
AcMeDbDoc
  3
AcMeServices
 90
        0
 91
        2
280
     0
281
     0
  0
CLASS
  1
AMGSETTINGSOBJ
  2
AmgSettingsObj
  3
"AcadM|Product Description: AutoCAD Mechanical|Company: Autodesk"
 90
        0
 91
        4
280
     0
281
     0
  0
CLASS
  1
AMGOBJPROPCFG
  2
AmgObjPropCfg
  3
"AmgLay|Product Description: AutoCAD Mechanical|Company: Autodesk"
 90
        1
 91
        1
280
     0
281
     0
  0
CLASS
  1
ACDBENTITYCACHE
  2
AcMeEntityCache
  3
AcMeServices
 90
        0
 91
        1
280
     0
281
     0
  0
CLASS
  1
GSMANAGER
  2
AcMeGSManager
  3
AcMeServices
 90
        0
 91
        1
280
     0
281
     0
  0
CLASS
  1
AMDTINTERNALREACTOR
  2
AmdtInternalReactor
  3
AcMeServices
 90
        0
 91
        8
280
     0
281
     0
  0
CLASS
  1
ACME_DATABASE
  2
AcMeDbDatabase
  3
AcMeServices
 90
        0
 91
        1
280
     0
281
     0
  0
CLASS
  1
ACGREFACADMASTER
  2
AcGrefacadMaster
  3
AcGrefServices
 90
        0
 91
        1
280
     0
281
     0
  0
CLASS
  1
AMDTMENUSTATEMGR
  2
AmdtMenuStateMgr
  3
McadcomServices
 90
        0
 91
        1
280
     0
281
     0
  0
CLASS
  1
AMDTMCOMMENUSTATE
  2
AmdtMcomMenuState
  3
McadcomServices
 90
        0
 91
        1
280
     0
281
     0
  0
CLASS
  1
MAPIADMODULE
  2
MApiAdModule
  3
MApiAdServices
 90
        0
 91
        1
280
     0
281
     0
  0
CLASS
  1
AMDTDMMENUSTATE
  2
AmdtDmMenuState
  3
AcMechDwgViewMgmt
 90
        0
 91
        1
280
     0
281
     0
  0
CLASS
  1
AMDTADMENUSTATE
  2
AmdtAdMenuState
  3
DesignerServices
 90
        0
 91
        1
280
     0
281
     0
  0
CLASS
  1
AMDTAMMENUSTATE
  2
AmdtAmMenuState
  3
DesignerAssemblies
 90
        0
 91
        1
280
     0
281
     0
  0
CLASS
  1
ACMDATADICTIONARY
  2
AcmDataDictionary
  3
"AcmSymBB|Product Description: AutoCAD Mechanical|Company: Autodesk"
 90
        0
 91
        1
280
     0
281
     0
  0
CLASS
  1
ACMDATAENTRYBLOCK
  2
AcmDataEntryBlock
  3
"AcmSymBB|Product Description: AutoCAD Mechanical|Company: Autodesk"
 90
        0
 91
        3
280
     0
281
     0
  0
CLASS
  1
ACMSURFSTANDARDJIS
  2
AcmSurfTextStdJIS
  3
"Amdt_StdImp|Product Description: AutoCAD Mechanical|Company: Autodesk"
 90
        0
 91
        1
280
     0
281
     0
  0
CLASS
  1
ACMFCFSTANDARDJIS
  2
AcmFCFStdJIS
  3
"Amdt_StdImp|Product Description: AutoCAD Mechanical|Company: Autodesk"
 90
        0
 91
        1
280
     0
281
     0
  0
CLASS
  1
ACMWELDSTANDARDJIS
  2
AcmWeldingStdJIS
  3
"Amdt_StdImp|Product Description: AutoCAD Mechanical|Company: Autodesk"
 90
        0
 91
        1
280
     0
281
     0
  0
CLASS
  1
ACMIDSTANDARDJIS
  2
AcmIdStdJIS
  3
"Amdt_StdImp|Product Description: AutoCAD Mechanical|Company: Autodesk"
 90
        0
 91
        1
280
     0
281
     0
  0
CLASS
  1
ACMDATUMSTANDARDJIS
  2
AcmDatumStdJIS
  3
"Amdt_StdImp|Product Description: AutoCAD Mechanical|Company: Autodesk"
 90
        0
 91
        1
280
     0
281
     0
  0
CLASS
  1
ACMBOMSTANDARDJIS
  2
AcmBOMStdJIS
  3
"Amdt_StdImp|Product Description: AutoCAD Mechanical|Company: Autodesk"
 90
        0
 91
        1
280
     0
281
     0
  0
CLASS
  1
ACMSURFSTANDARDANSI
  2
AcmSurfTextStdANSI
  3
"Amdt_StdImp|Product Description: AutoCAD Mechanical|Company: Autodesk"
 90
        0
 91
        1
280
     0
281
     0
  0
CLASS
  1
ACMFCFSTANDARDANSI
  2
AcmFCFStdANSI
  3
"Amdt_StdImp|Product Description: AutoCAD Mechanical|Company: Autodesk"
 90
        0
 91
        1
280
     0
281
     0
  0
CLASS
  1
ACMWELDSTANDARDANSI
  2
AcmWeldingStdANSI
  3
"Amdt_StdImp|Product Description: AutoCAD Mechanical|Company: Autodesk"
 90
        0
 91
        1
280
     0
281
     0
  0
CLASS
  1
ACMIDSTANDARDANSI
  2
AcmIdStdANSI
  3
"Amdt_StdImp|Product Description: AutoCAD Mechanical|Company: Autodesk"
 90
        0
 91
        1
280
     0
281
     0
  0
CLASS
  1
ACMDATUMSTANDARDANSI
  2
AcmDatumStdANSI
  3
"Amdt_StdImp|Product Description: AutoCAD Mechanical|Company: Autodesk"
 90
        0
 91
        1
280
     0
281
     0
  0
CLASS
  1
ACMBOMSTANDARDANSI
  2
AcmBOMStdANSI
  3
"Amdt_StdImp|Product Description: AutoCAD Mechanical|Company: Autodesk"
 90
        0
 91
        1
280
     0
281
     0
  0
CLASS
  1
ACMSURFSTANDARDBSI
  2
AcmSurfTextStdBSI
  3
"Amdt_StdImp|Product Description: AutoCAD Mechanical|Company: Autodesk"
 90
        0
 91
        1
280
     0
281
     0
  0
CLASS
  1
ACMFCFSTANDARDBSI
  2
AcmFCFStdBSI
  3
"Amdt_StdImp|Product Description: AutoCAD Mechanical|Company: Autodesk"
 90
        0
 91
        1
280
     0
281
     0
  0
CLASS
  1
ACMWELDSTANDARDBSI
  2
AcmWeldingStdBSI
  3
"Amdt_StdImp|Product Description: AutoCAD Mechanical|Company: Autodesk"
 90
        0
 91
        1
280
     0
281
     0
  0
CLASS
  1
ACMIDSTANDARDBSI
  2
AcmIdStdBSI
  3
"Amdt_StdImp|Product Description: AutoCAD Mechanical|Company: Autodesk"
 90
        0
 91
        1
280
     0
281
     0
  0
CLASS
  1
ACMDATUMSTANDARDBSI
  2
AcmDatumStdBSI
  3
"Amdt_StdImp|Product Description: AutoCAD Mechanical|Company: Autodesk"
 90
        0
 91
        1
280
     0
281
     0
  0
CLASS
  1
ACMBOMSTANDARDBSI
  2
AcmBOMStdBSI
  3
"Amdt_StdImp|Product Description: AutoCAD Mechanical|Company: Autodesk"
 90
        0
 91
        1
280
     0
281
     0
  0
CLASS
  1
AMDTEDGESTANDARDDIN
  2
AmdtEdgeStdDIN
  3
"Amdt_StdImp|Product Description: AutoCAD Mechanical|Company: Autodesk"
 90
        0
 91
        1
280
     0
281
     0
  0
CLASS
  1
ACMSURFSTANDARDDIN
  2
AcmSurfTextStdDIN
  3
"Amdt_StdImp|Product Description: AutoCAD Mechanical|Company: Autodesk"
 90
        0
 91
        1
280
     0
281
     0
  0
CLASS
  1
ACMFCFSTANDARDDIN
  2
AcmFCFStdDIN
  3
"Amdt_StdImp|Product Description: AutoCAD Mechanical|Company: Autodesk"
 90
        0
 91
        1
280
     0
281
     0
  0
CLASS
  1
ACMWELDSTANDARDDIN
  2
AcmWeldingStdDIN
  3
"Amdt_StdImp|Product Description: AutoCAD Mechanical|Company: Autodesk"
 90
        0
 91
        1
280
     0
281
     0
  0
CLASS
  1
ACMIDSTANDARDDIN
  2
AcmIdStdDIN
  3
"Amdt_StdImp|Product Description: AutoCAD Mechanical|Company: Autodesk"
 90
        0
 91
        1
280
     0
281
     0
  0
CLASS
  1
ACMDATUMSTANDARDDIN
  2
AcmDatumStdDIN
  3
"Amdt_StdImp|Product Description: AutoCAD Mechanical|Company: Autodesk"
 90
        0
 91
        1
280
     0
281
     0
  0
CLASS
  1
ACMBOMSTANDARDDIN
  2
AcmBOMStdDIN
  3
"Amdt_StdImp|Product Description: AutoCAD Mechanical|Company: Autodesk"
 90
        0
 91
        1
280
     0
281
     0
  0
CLASS
  1
ACMSURFSTANDARDISO
  2
AcmSurfTextStdISO
  3
"Amdt_StdImp|Product Description: AutoCAD Mechanical|Company: Autodesk"
 90
        0
 91
        1
280
     0
281
     0
  0
CLASS
  1
ACMFCFSTANDARDISO
  2
AcmFCFStdISO
  3
"Amdt_StdImp|Product Description: AutoCAD Mechanical|Company: Autodesk"
 90
        0
 91
        1
280
     0
281
     0
  0
CLASS
  1
ACMWELDSTANDARDISO
  2
AcmWeldingStdISO
  3
"Amdt_StdImp|Product Description: AutoCAD Mechanical|Company: Autodesk"
 90
        0
 91
        1
280
     0
281
     0
  0
CLASS
  1
ACMIDSTANDARDISO
  2
AcmIdStdISO
  3
"Amdt_StdImp|Product Description: AutoCAD Mechanical|Company: Autodesk"
 90
        0
 91
        1
280
     0
281
     0
  0
CLASS
  1
ACMDATUMSTANDARDISO
  2
AcmDatumStdISO
  3
"Amdt_StdImp|Product Description: AutoCAD Mechanical|Company: Autodesk"
 90
        0
 91
        1
280
     0
281
     0
  0
CLASS
  1
ACMBOMSTANDARDISO
  2
AcmBOMStdISO
  3
"Amdt_StdImp|Product Description: AutoCAD Mechanical|Company: Autodesk"
 90
        0
 91
        1
280
     0
281
     0
  0
CLASS
  1
AMDTBROWSERDBTAB
  2
AmdtBrowserDbTab
  3
McadcomServices
 90
        0
 91
        1
280
     0
281
     0
  0
CLASS
  1
ACAMGFILTERDAT
  2
AcAmgFilterDat
  3
"AcadM|Product Description: AutoCAD Mechanical|Company: Autodesk"
 90
        0
 91
        4
280
     0
281
     0
  0
CLASS
  1
MAPIAMMOUDLE
  2
MApiAmModule
  3
MApiAmServices
 90
        0
 91
        1
280
     0
281
     0
  0
CLASS
  1
PLOTSETTINGS
  2
AcDbPlotSettings
  3
ObjectDBX Classes
 90
        0
 91
        7
280
     0
281
     0
  0
CLASS
  1
ACRFATTGENMGR
  2
AcRfAttGeneralMgr
  3
AcAttribServices
 90
        0
 91
        1
280
     0
281
     0
  0
CLASS
  1
ACAMGRBLOCKRECORD
  2
AcAmGrBlockRecord
  3
DesignerAssemblies
 90
        0
 91
        2
280
     0
281
     0
  0
CLASS
  1
ACAMVIEWREACTOR
  2
AcAmViewReactor
  3
DesignerAssemblies
 90
        0
 91
        2
280
     0
281
     0
  0
CLASS
  1
ACAMCOMPENT
  2
AcAmCompEnt
  3
DesignerAssemblies
 90
        0
 91
        4
280
     0
281
     1
  0
CLASS
  1
AMVIEW
  2
AcAmView
  3
DesignerAssemblies
 90
        0
 91
        2
280
     0
281
     0
  0
CLASS
  1
ACAMVIEWCONTEXT
  2
AcAmViewContext
  3
DesignerAssemblies
 90
        0
 91
        2
280
     0
281
     0
  0
CLASS
  1
ADPART
  2
AcAdPart
  3
DesignerServices
 90
        0
 91
        2
280
     0
281
     1
  0
CLASS
  1
ADBASE
  2
AcAdBase
  3
DesignerServices
 90
        0
 91
        2
280
     0
281
     0
  0
CLASS
  1
BODYID
  2
AcAdBodyId
  3
DesignerServices
 90
        0
 91
        2
280
     0
281
     0
  0
CLASS
  1
WORKPLANEDISPLAYMGR
  2
AcAdDisplayMgr
  3
DesignerServices
 90
        0
 91
        2
280
     0
281
     0
  0
CLASS
  1
ACCMBODY
  2
AcCmBody
  3
DesignerAssemblies
 90
        0
 91
        0
280
     0
281
     0
  0
CLASS
  1
ACAMCOMPFEEDBACK
  2
AcAmCompFeedback
  3
DesignerAssemblies
 90
        0
 91
        0
280
     0
281
     0
  0
CLASS
  1
ACAMCOMP
  2
AcAmComp
  3
DesignerAssemblies
 90
        0
 91
        0
280
     0
281
     0
  0
CLASS
  1
ACAMCOMPENTCLONE
  2
AcAmCompEntClone
  3
DesignerAssemblies
 90
        0
 91
        0
280
     0
281
     1
  0
CLASS
  1
ACAMCLONEREACTOR
  2
AcAmGrCompCloneReactor
  3
DesignerAssemblies
 90
        0
 91
        0
280
     0
281
     0
  0
CLASS
  1
ADDATUMPLANEABS
  2
AcAdDatumPlaneAbs
  3
DesignerServices
 90
        0
 91
        5
280
     0
281
     0
  0
CLASS
  1
ADDATUMAXISABS
  2
AcAdDatumAxisAbs
  3
DesignerServices
 90
        0
 91
        4
280
     0
281
     0
  0
CLASS
  1
ADDATUMORIENTEDPLANE
  2
AcAdDatumOrientedPlane
  3
DesignerServices
 90
        0
 91
        4
280
     0
281
     0
  0
CLASS
  1
ACAD_LINE
  2
AcAdLine
  3
DesignerServices
 90
        0
 91
        0
280
     0
281
     1
  0
CLASS
  1
ACADLINEACAD
  2
AcAdVirtualBoundedLineAcad
  3
DesignerServices
 90
        0
 91
       12
280
     0
281
     0
  0
CLASS
  1
ACADREFLINEACAD
  2
AcAdVirtualReferenceLine
  3
DesignerServices
 90
        0
 91
        8
280
     0
281
     0
  0
CLASS
  1
ACADCONSLINE
  2
AcAdConstrainedLine
  3
DesignerServices
 90
        0
 91
       21
280
     0
281
     0
  0
CLASS
  1
ACADCONSGROUP
  2
AcAdConstraintGroup
  3
DesignerServices
 90
        0
 91
        4
280
     0
281
     0
  0
CLASS
  1
ACADIMPPTACAD
  2
AcAdVirtualImplicitPoint
  3
DesignerServices
 90
        0
 91
       25
280
     0
281
     0
  0
CLASS
  1
ACADCONSPOINT
  2
AcAdConstrainedPoint
  3
DesignerServices
 90
        0
 91
       20
280
     0
281
     0
  0
CLASS
  1
ADPCURCNS
  2
AcAdPointCurveConstr
  3
DesignerServices
 90
        0
 91
       24
280
     0
281
     0
  0
CLASS
  1
ADHORCNS
  2
AcAdHorizontalConstr
  3
DesignerServices
 90
        0
 91
        4
280
     0
281
     0
  0
CLASS
  1
ADVERCNS
  2
AcAdVerticalConstr
  3
DesignerServices
 90
        0
 91
        4
280
     0
281
     0
  0
CLASS
  1
ADCLPROF2D
  2
AcAdClosedProfile2d
  3
DesignerServices
 90
        0
 91
        3
280
     0
281
     0
  0
CLASS
  1
ACAD_FIXCONSTRAINT
  2
AcAdFixedConstraint
  3
DesignerServices
 90
        0
 91
        1
280
     0
281
     0
  0
CLASS
  1
ACMELINEARARROW
  2
AcImLinearArrowDisplay
  3
AcMeServices
 90
        0
 91
        0
280
     0
281
     1
  0
CLASS
  1
PARAM
  2
AcAdParam
  3
DesignerServices
 90
        0
 91
       23
280
     0
281
     0
  0
CLASS
  1
ACADVOLFEATWITHTRIM
  2
AcAdVolFeatWithTrim
  3
DesignerServices
 90
        0
 91
        3
280
     0
281
     0
  0
CLASS
  1
DEPEDGEFEATUREORDERING
  2
AcAdDepEdgeFeatureOrdering
  3
DesignerServices
 90
        0
 91
        3
280
     0
281
     0
  0
CLASS
  1
ADWORKPOINTDISPLAY
  2
AcAdWorkPointDisplay
  3
DesignerServices
 90
        0
 91
        1
280
     0
281
     1
  0
CLASS
  1
ADVIRTUALPOINTWORKPOINTFREE
  2
AcAdVirtualPointWorkPointFree
  3
DesignerServices
 90
        0
 91
        1
280
     0
281
     0
  0
CLASS
  1
ADWORKPOINTSKETCH
  2
AcAdWorkPointSketch
  3
DesignerServices
 90
        0
 91
        1
280
     0
281
     0
  0
CLASS
  1
ACADPARTDATUMPOINTRES
  2
AcAdPartDatumPointRes
  3
AdGrefServices
 90
        0
 91
        0
280
     0
281
     0
  0
CLASS
  1
ACRFINSADJ
  2
AcRfInsAdjuster
  3
AcMeServices
 90
        0
 91
        0
280
     0
281
     0
  0
CLASS
  1
DATUMPLANEDISPLAY
  2
AcAdDatumPlaneDisplay
  3
DesignerServices
 90
        0
 91
        5
280
     0
281
     1
  0
CLASS
  1
ACADPARTDATUMPLANERES
  2
AcAdPartDatumPlaneRes
  3
AdGrefServices
 90
        0
 91
        0
280
     0
281
     0
  0
CLASS
  1
ACMEPLINE
  2
AcImPlineDisplay
  3
AcMeServices
 90
        0
 91
        0
280
     0
281
     1
  0
CLASS
  1
ACAD_CIRCLE
  2
AcAdCircle
  3
DesignerServices
 90
        0
 91
        0
280
     0
281
     1
  0
CLASS
  1
ACADCIRCLEACAD
  2
AcAdVirtualCircleAcad
  3
DesignerServices
 90
        0
 91
        1
280
     0
281
     0
  0
CLASS
  1
ACADCONSCIRCLE
  2
AcAdConstrainedCircle
  3
DesignerServices
 90
        0
 91
        1
280
     0
281
     0
  0
CLASS
  1
ADCTRPTCNS
  2
AcAdCenterPointConstr
  3
DesignerServices
 90
        0
 91
        1
280
     0
281
     0
  0
CLASS
  1
ACDBCIRCARCRES
  2
AcDbCircArcRes
  3
AcGrefServices
 90
        0
 91
        0
280
     0
281
     0
  0
CLASS
  1
ACADSKETCHCIRCARCRES
  2
AcAdSketchCircArcRes
  3
DesignerServices
 90
        0
 91
        1
280
     0
281
     0
  0
CLASS
  1
ADVIRTUALPOINTWORKPOINTFIXED
  2
AcAdVirtualPointWorkPointFixed
  3
DesignerServices
 90
        0
 91
        6
280
     0
281
     0
  0
CLASS
  1
ADHDISTCNS
  2
AcAdHorizontalDistanceConstr
  3
DesignerServices
 90
        0
 91
        5
280
     0
281
     0
  0
CLASS
  1
ACADSKETCHPOINTRES
  2
AcAdSketchPointRes
  3
DesignerServices
 90
        0
 91
       20
280
     0
281
     0
  0
CLASS
  1
ADVDISTCNS
  2
AcAdVerticalDistanceConstr
  3
DesignerServices
 90
        0
 91
        7
280
     0
281
     0
  0
CLASS
  1
ADACADDIACNS
  2
AcAdAcadDiameterConstr
  3
DesignerServices
 90
        0
 91
        1
280
     0
281
     0
  0
CLASS
  1
AMIINSTATTCLASSRECORD
  2
AmiInstAttClassRecord
  3
AcAttribServices
 90
        0
 91
        1
280
     0
281
     0
  0
CLASS
  1
AMIINSTATTIMP
  2
AmiInstAttImp
  3
AcAttribServices
 90
        1
 91
        2
280
     0
281
     0
  0
CLASS
  1
ACRFOBJATTMGR
  2
AcRfObjAttGroupMgr
  3
AcAttribServices
 90
        0
 91
        5
280
     0
281
     0
  0
CLASS
  1
ACRFMCADAPIATTHOLDER
  2
AcRfMCADAPIAttHolder
  3
AcAttribServices
 90
        0
 91
        1
280
     0
281
     0
  0
CLASS
  1
FACEID
  2
AcAdFaceId
  3
DesignerServices
 90
        0
 91
        0
280
     0
281
     0
  0
CLASS
  1
ACADPARTCYLINDERFACERES
  2
AcAdPartCylinderFaceRes
  3
AdGrefServices
 90
        0
 91
        0
280
     0
281
     0
  0
CLASS
  1
ACADPARTPLANARFACERES
  2
AcAdPartPlanarFaceRes
  3
AdGrefServices
 90
        0
 91
        0
280
     0
281
     0
  0
CLASS
  1
ADPLANEID
  2
AcAdPlaneId
  3
DesignerServices
 90
        0
 91
        2
280
     0
281
     0
  0
CLASS
  1
ADDATUMPLANEFACE
  2
AcAdDatumPlaneFace
  3
DesignerServices
 90
        0
 91
        2
280
     0
281
     0
  0
CLASS
  1
ADDATUMPLANEOFFSET
  2
AcAdDatumPlaneOffset
  3
DesignerServices
 90
        0
 91
        3
280
     0
281
     0
  0
CLASS
  1
DATUMAXISDISPLAY
  2
AcAdDatumAxisDisplay
  3
DesignerServices
 90
        0
 91
        1
280
     0
281
     1
  0
CLASS
  1
ADSURFGEOMID
  2
AcAdSurfGeomId
  3
DesignerServices
 90
        0
 91
        1
280
     0
281
     0
  0
CLASS
  1
ADDATUMAXISCENTER
  2
AcAdDatumAxisCenter
  3
DesignerServices
 90
        0
 91
        1
280
     0
281
     0
  0
CLASS
  1
ACADPARTAXISRES
  2
AcAdPartAxisRes
  3
AdGrefServices
 90
        0
 91
        0
280
     0
281
     0
  0
CLASS
  1
ACDBLINERES
  2
AcDbLineRes
  3
AcGrefServices
 90
        0
 91
        0
280
     0
281
     0
  0
CLASS
  1
ACADSKETCHLINERES
  2
AcAdSketchLineRes
  3
DesignerServices
 90
        0
 91
        4
280
     0
281
     0
  0
CLASS
  1
ADCONSTDSP
  2
AcAdConstraintDisplayTag
  3
DesignerServices
 90
        0
 91
        0
280
     0
281
     1
  0
CLASS
  1
ADCONSDISP
  2
AcAdConstraintDisplay
  3
DesignerServices
 90
        0
 91
        0
280
     0
281
     1
  0
CLASS
  1
ADACADANGCNS
  2
AcAdAcadAngleConstr
  3
DesignerServices
 90
        0
 91
        2
280
     0
281
     0
  0
CLASS
  1
ADPROJCNS
  2
AcAdProjectionConstr
  3
DesignerServices
 90
        0
 91
        1
280
     0
281
     0
  0
CLASS
  1
ADCOLNCNS
  2
AcAdColinearConstr
  3
DesignerServices
 90
        0
 91
        1
280
     0
281
     0
  0
CLASS
  1
ACADBOUNDEDLINEDATUMID
  2
AcAdVirtualBoundedLineDatumId
  3
DesignerServices
 90
        0
 91
        1
280
     0
281
     0
  0
CLASS
  1
ACADPARTCONICALFACERES
  2
AcAdPartConicalFaceRes
  3
AdGrefServices
 90
        0
 91
        0
280
     0
281
     0
  0
CLASS
  1
DEPEDGESECONDARYDEPID
  2
AcAdDepEdgeSecondaryDepId
  3
DesignerServices
 90
        0
 91
        0
280
     0
281
     0
  0
CLASS
  1
AMACTIVEPARTSELECTFILTER
  2
AcDmActivePartViewEntFilter
  3
DesignerServices
 90
        0
 91
        0
280
     0
281
     0
  0
CLASS
  1
AM_ABS_PLANE
  2
AcDmAbsPlnDef
  3
AcMechDwgViewMgmt
 90
        0
 91
        0
280
     0
281
     0
  0
CLASS
  1
AM_ABS_AXIS
  2
AcDmAbsAxisDef
  3
AcMechDwgViewMgmt
 90
        0
 91
        0
280
     0
281
     0
  0
CLASS
  1
AM_BASE_VIEW_ORIENT
  2
AcDmBaseViewOr
  3
AcMechDwgViewMgmt
 90
        0
 91
        0
280
     0
281
     0
  0
CLASS
  1
AM_DWG_VIEWPORT
  2
AcDmViewport
  3
AcMechDwgViewMgmt
 90
        0
 91
        0
280
     0
281
     0
  0
CLASS
  1
AM_VIEW_DISPLAY
  2
AcDmDwgViewDisplay
  3
AcMechDwgViewMgmt
 90
        0
 91
        0
280
     0
281
     0
  0
CLASS
  1
AM_CLDFLTS
  2
AcDmClDflts
  3
AcMechDwgViewMgmt
 90
        0
 91
        9
280
     0
281
     0
  0
CLASS
  1
AM_BASE_VIEW
  2
AcDmBaseView
  3
AcMechDwgViewMgmt
 90
        0
 91
        0
280
     0
281
     0
  0
CLASS
  1
AM_ORTHO_VIEW_ORIENT
  2
AcDmOrthoViewOr
  3
AcMechDwgViewMgmt
 90
        0
 91
        0
280
     0
281
     0
  0
CLASS
  1
AM_ORTHO_VIEW
  2
AcDmOrthoView
  3
AcMechDwgViewMgmt
 90
        0
 91
        0
280
     0
281
     0
  0
CLASS
  1
AM_ISO_VIEW_ORIENT
  2
AcDmIsoViewOr
  3
AcMechDwgViewMgmt
 90
        0
 91
        0
280
     0
281
     0
  0
CLASS
  1
AM_ISO_VIEW
  2
AcDmIsoView
  3
AcMechDwgViewMgmt
 90
        0
 91
        0
280
     0
281
     0
  0
CLASS
  1
ACDMVWEDARC
  2
AcDmViewEdgeArc
  3
AcMechDwgViewMgmt
 90
        0
 91
        0
280
     0
281
     1
  0
CLASS
  1
ACDMVWEDCIRC
  2
AcDmViewEdgeCircle
  3
AcMechDwgViewMgmt
 90
        0
 91
        0
280
     0
281
     1
  0
CLASS
  1
ACDMVWEDLINE
  2
AcDmViewEdgeLine
  3
AcMechDwgViewMgmt
 90
        0
 91
        0
280
     0
281
     1
  0
CLASS
  1
CNRREFID
  2
AcAdCornerId
  3
DesignerServices
 90
        0
 91
        0
280
     0
281
     0
  0
CLASS
  1
ACADPARTPOINTRES
  2
AcAdPartPointRes
  3
AdGrefServices
 90
        0
 91
        0
280
     0
281
     0
  0
CLASS
  1
ACADPARTSKETCHPLANEAXISRES
  2
AcAdPartSketchPlaneAxisRes
  3
DesignerServices
 90
        0
 91
        0
280
     0
281
     0
  0
CLASS
  1
AM_VIEWDIMPARALLEL
  2
AcDmViewDimParallel
  3
AcMechDwgViewMgmt
 90
        0
 91
        0
280
     0
281
     0
  0
CLASS
  1
AMDTDMPARMAPDATA
  2
AmdtDmDimParMapData
  3
AcMechDwgViewMgmt
 90
        0
 91
        0
280
     0
281
     0
  0
CLASS
  1
AM_VIEWDIMLINEAR
  2
AcDmViewDimLinear
  3
AcMechDwgViewMgmt
 90
        0
 91
        0
280
     0
281
     0
  0
CLASS
  1
AM_VIEWDIMANGULAR
  2
AcDmViewDimAngular
  3
AcMechDwgViewMgmt
 90
        0
 91
        0
280
     0
281
     0
  0
CLASS
  1
AM_ADLINCTRLINE
  2
AcAdLineCl
  3
DesignerServices
 90
        0
 91
        0
280
     0
281
     0
  0
CLASS
  1
AM_VIEWDIMDIAMETER
  2
AcDmViewDimDiameter
  3
AcMechDwgViewMgmt
 90
        0
 91
        0
280
     0
281
     0
  0
CLASS
  1
AM_ADCIRCTRLINE
  2
AcAdBullsEyeCl
  3
DesignerServices
 90
        0
 91
        0
280
     0
281
     0
  0
CLASS
  1
AMDTMAPISURFMOUDULE
  2
AmdtMApiSurfModule
  3
MApiSurfServices
 90
        0
 91
        1
280
     0
281
     0
  0
CLASS
  1
ACAMGTITLESTD
  2
AcAmgTitleStd
  3
"AmgTitle|Product Description: AutoCAD Mechanical|Company: Autodesk"
 90
        0
 91
        5
280
     0
281
     0
  0
CLASS
  1
ACMDETAILSTANDARDJIS
  2
AmdtDetailSymStdJIS
  3
"Amdt_StdImp|Product Description: AutoCAD Mechanical|Company: Autodesk"
 90
        0
 91
        1
280
     0
281
     0
  0
CLASS
  1
ACMSECTIONSTANDARDJIS
  2
AmdtSectionSymStdJIS
  3
"Amdt_StdImp|Product Description: AutoCAD Mechanical|Company: Autodesk"
 90
        0
 91
        1
280
     0
281
     0
  0
CLASS
  1
ACMCENTERLINESTANDARDJIS
  2
AmdtCenterLineStdJIS
  3
"Amdt_StdImp|Product Description: AutoCAD Mechanical|Company: Autodesk"
 90
        0
 91
        1
280
     0
281
     0
  0
CLASS
  1
ACMTHREADLINESTANDARDCSN
  2
AmdtThreadLineStdCSN
  3
"Amdt_StdImp|Product Description: AutoCAD Mechanical|Company: Autodesk"
 90
        0
 91
        5
280
     0
281
     0
  0
CLASS
  1
ACMDETAILSTANDARDANSI
  2
AmdtDetailSymStdANSI
  3
"Amdt_StdImp|Product Description: AutoCAD Mechanical|Company: Autodesk"
 90
        0
 91
        1
280
     0
281
     0
  0
CLASS
  1
ACMSECTIONSTANDARDANSI
  2
AmdtSectionSymStdANSI
  3
"Amdt_StdImp|Product Description: AutoCAD Mechanical|Company: Autodesk"
 90
        0
 91
        1
280
     0
281
     0
  0
CLASS
  1
ACMCENTERLINESTANDARDANSI
  2
AmdtCenterLineStdANSI
  3
"Amdt_StdImp|Product Description: AutoCAD Mechanical|Company: Autodesk"
 90
        0
 91
        1
280
     0
281
     0
  0
CLASS
  1
ACMDETAILSTANDARDBSI
  2
AmdtDetailSymStdBSI
  3
"Amdt_StdImp|Product Description: AutoCAD Mechanical|Company: Autodesk"
 90
        0
 91
        1
280
     0
281
     0
  0
CLASS
  1
ACMSECTIONSTANDARDBSI
  2
AmdtSectionSymStdBSI
  3
"Amdt_StdImp|Product Description: AutoCAD Mechanical|Company: Autodesk"
 90
        0
 91
        1
280
     0
281
     0
  0
CLASS
  1
ACMCENTERLINESTANDARDBSI
  2
AmdtCenterLineStdBSI
  3
"Amdt_StdImp|Product Description: AutoCAD Mechanical|Company: Autodesk"
 90
        0
 91
        1
280
     0
281
     0
  0
CLASS
  1
ACMDETAILSTANDARDDIN
  2
AmdtDetailSymStdDIN
  3
"Amdt_StdImp|Product Description: AutoCAD Mechanical|Company: Autodesk"
 90
        0
 91
        1
280
     0
281
     0
  0
CLASS
  1
ACMSECTIONSTANDARDDIN
  2
AmdtSectionSymStdDIN
  3
"Amdt_StdImp|Product Description: AutoCAD Mechanical|Company: Autodesk"
 90
        0
 91
        1
280
     0
281
     0
  0
CLASS
  1
ACMCENTERLINESTANDARDDIN
  2
AmdtCenterLineStdDIN
  3
"Amdt_StdImp|Product Description: AutoCAD Mechanical|Company: Autodesk"
 90
        0
 91
        1
280
     0
281
     0
  0
CLASS
  1
AMDTEDGESTANDARDISO
  2
AmdtEdgeStdISO
  3
"Amdt_StdImp|Product Description: AutoCAD Mechanical|Company: Autodesk"
 90
        0
 91
        1
280
     0
281
     0
  0
CLASS
  1
ACMDETAILSTANDARDISO
  2
AmdtDetailSymStdISO
  3
"Amdt_StdImp|Product Description: AutoCAD Mechanical|Company: Autodesk"
 90
        0
 91
        1
280
     0
281
     0
  0
CLASS
  1
ACMSECTIONSTANDARDISO
  2
AmdtSectionSymStdISO
  3
"Amdt_StdImp|Product Description: AutoCAD Mechanical|Company: Autodesk"
 90
        0
 91
        1
280
     0
281
     0
  0
CLASS
  1
ACMCENTERLINESTANDARDISO
  2
AmdtCenterLineStdISO
  3
"Amdt_StdImp|Product Description: AutoCAD Mechanical|Company: Autodesk"
 90
        0
 91
        1
280
     0
281
     0
  0
CLASS
  1
ACAMGLAYSTD
  2
AcAmgLayStd
  3
"AmgLay|Product Description: AutoCAD Mechanical|Company: Autodesk"
 90
        0
 91
        5
280
     0
281
     0
  0
CLASS
  1
ACAMGDIMSTD
  2
AcAmgDimStd
  3
"AmgDim|Product Description: AutoCAD Mechanical|Company: Autodesk"
 90
        0
 91
        5
280
     0
281
     0
  0
CLASS
  1
ACDMPARTVIEWDATA
  2
AcDmPartViewData
  3
AcMechDwgViewMgmt
 90
        0
 91
        0
280
     0
281
     0
  0
CLASS
  1
ACDMDISPLAYATTRIBS
  2
AcDmDisplayAttribs
  3
AcMechDwgViewMgmt
 90
        0
 91
        0
280
     0
281
     0
  0
CLASS
  1
ACDMBODYINSTANCEDATA
  2
AcDmBodyInstanceData
  3
AcMechDwgViewMgmt
 90
        0
 91
        0
280
     0
281
     0
  0
CLASS
  1
AMDTFORMULAUPDATEDISPATCHER
  2
AmdtFormulaUpdateDispatcher
  3
AcMeServices
 90
        0
 91
        1
280
     0
281
     0
  0
CLASS
  1
ACMNOTESTANDARDJIS
  2
AmdtNoteStdJIS
  3
"Amdt_StdImp|Product Description: AutoCAD Mechanical|Company: Autodesk"
 90
        0
 91
        1
280
     0
281
     0
  0
CLASS
  1
AMDTNOTETEMPLATEDB
  2
AmdtNoteTemplateDB
  3
AMDT_STDIMP_MODULE_NAME
 90
        0
 91
       20
280
     0
281
     0
  0
CLASS
  1
ACMNOTESTANDARDANSI
  2
AmdtNoteStdANSI
  3
"Amdt_StdImp|Product Description: AutoCAD Mechanical|Company: Autodesk"
 90
        0
 91
        1
280
     0
281
     0
  0
CLASS
  1
ACMNOTESTANDARDBSI
  2
AmdtNoteStdBSI
  3
"Amdt_StdImp|Product Description: AutoCAD Mechanical|Company: Autodesk"
 90
        0
 91
        1
280
     0
281
     0
  0
CLASS
  1
ACMNOTESTANDARDDIN
  2
AmdtNoteStdDIN
  3
"Amdt_StdImp|Product Description: AutoCAD Mechanical|Company: Autodesk"
 90
        0
 91
        1
280
     0
281
     0
  0
CLASS
  1
ACMNOTESTANDARDISO
  2
AmdtNoteStdISO
  3
"Amdt_StdImp|Product Description: AutoCAD Mechanical|Company: Autodesk"
 90
        0
 91
        1
280
     0
281
     0
  0
CLASS
  1
MATERIAL
  2
AcDbMaterial
  3
ObjectDBX Classes
 90
     1024
 91
        3
280
     0
281
     0
  0
CLASS
  1
VISUALSTYLE
  2
AcDbVisualStyle
  3
ObjectDBX Classes
 90
     4095
 91
       16
280
     0
281
     0
  0
CLASS
  1
TABLESTYLE
  2
AcDbTableStyle
  3
ObjectDBX Classes
 90
     4095
 91
        1
280
     0
281
     0
  0
CLASS
  1
AMDTSYSATTR
  2
AmdtSystemAttribute
  3
AcAttribServices
 90
        0
 91
        3
280
     0
281
     0
  0
CLASS
  1
ACMTAPERSTANDARDJIS
  2
AcmTaperStdJIS
  3
"Amdt_StdImp|Product Description: AutoCAD Mechanical|Company: Autodesk"
 90
        0
 91
        1
280
     0
281
     0
  0
CLASS
  1
ACMTAPERSTANDARDANSI
  2
AcmTaperStdANSI
  3
"Amdt_StdImp|Product Description: AutoCAD Mechanical|Company: Autodesk"
 90
        0
 91
        1
280
     0
281
     0
  0
CLASS
  1
ACMTAPERSTANDARDBSI
  2
AcmTaperStdBSI
  3
"Amdt_StdImp|Product Description: AutoCAD Mechanical|Company: Autodesk"
 90
        0
 91
        1
280
     0
281
     0
  0
CLASS
  1
ACMTAPERSTANDARDDIN
  2
AcmTaperStdDIN
  3
"Amdt_StdImp|Product Description: AutoCAD Mechanical|Company: Autodesk"
 90
        0
 91
        1
280
     0
281
     0
  0
CLASS
  1
ACMTAPERSTANDARDISO
  2
AcmTaperStdISO
  3
"Amdt_StdImp|Product Description: AutoCAD Mechanical|Company: Autodesk"
 90
        0
 91
        1
280
     0
281
     0
  0
ENDSEC
  0
SECTION
  2
TABLES
  0
TABLE
  2
VPORT
  5
8
330
0
100
AcDbSymbolTable
 70
     3
  0
VPORT
  5
79C
330
8
100
AcDbSymbolTableRecord
100
AcDbViewportTableRecord
  2
asurf_wcs_vp_2
 70
     0
 10
0.0
 20
0.0
 11
0.5
 21
1.0
 12
0.0
 22
0.0
 13
0.0
 23
0.0
 14
10.0
 24
10.0
 15
10.0
 25
10.0
 16
0.0
 26
0.0
 36
1.0
 17
210.0
 27
148.5
 37
0.0
 40
664.2413317557894
 41
0.6397245798091085
 42
50.0
 43
0.0
 44
0.0
 50
0.0
 51
0.0
 71
     0
 72
  1000
 73
     1
 74
     0
 75
     0
 76
     0
 77
     0
 78
     0
281
     4
 65
     0
110
0.0
120
0.0
130
0.0
111
1.0
121
0.0
131
0.0
112
0.0
122
1.0
132
0.0
 79
     0
146
0.0
348
1E9D
 60
     3
 61
     5
292
     1
282
     1
141
0.0
142
0.0
 63
   250
421
  3355443
  0
VPORT
  5
79D
330
8
100
AcDbSymbolTableRecord
100
AcDbViewportTableRecord
  2
asurf_wcs_vp_2
 70
     0
 10
0.5
 20
0.0
 11
1.0
 21
1.0
 12
-166.0188166206583
 22
35.22481755965711
 13
0.0
 23
0.0
 14
10.0
 24
10.0
 15
10.0
 25
10.0
 16
1.0
 26
-1.0
 36
1.0
 17
210.0
 27
148.5
 37
0.0
 40
482.8380307317477
 41
0.6397245798091085
 42
50.0
 43
0.0
 44
0.0
 50
0.0
 51
0.0
 71
     0
 72
  1000
 73
     1
 74
     0
 75
     0
 76
     0
 77
     0
 78
     0
281
     4
 65
     0
110
0.0
120
0.0
130
0.0
111
1.0
121
0.0
131
0.0
112
0.0
122
1.0
132
0.0
 79
     0
146
0.0
348
1E9D
 60
     3
 61
     5
292
     1
282
     1
141
0.0
142
0.0
 63
   250
421
  3355443
  0
VPORT
  5
1E95
330
8
100
AcDbSymbolTableRecord
100
AcDbViewportTableRecord
  2
*Active
 70
     0
 10
0.0
 20
0.0
 11
1.0
 21
1.0
 12
-32.89849364876909
 22
18.44815207486627
 13
0.0
 23
0.0
 14
10.0
 24
10.0
 15
10.0
 25
10.0
 16
0.0
 26
0.0
 36
1.0
 17
225.0419189867749
 27
164.8409058003548
 37
0.0
 40
361.6965742514008
 41
1.622039134912461
 42
50.0
 43
0.0
 44
0.0
 50
0.0
 51
0.0
 71
     0
 72
  1000
 73
     1
 74
     1
 75
     0
 76
     0
 77
     0
 78
     0
281
     0
 65
     0
110
0.0
120
0.0
130
0.0
111
1.0
121
0.0
131
0.0
112
0.0
122
1.0
132
0.0
 79
     0
146
0.0
348
1EA0
 60
     3
 61
     5
292
     1
282
     1
141
0.0
142
0.0
 63
   250
421
  3355443
  0
ENDTAB
  0
TABLE
  2
LTYPE
  5
5
330
0
100
AcDbSymbolTable
 70
    36
  0
LTYPE
  5
14
330
5
100
AcDbSymbolTableRecord
100
AcDbLinetypeTableRecord
  2
BYBLOCK
 70
     0
  3

 72
    65
 73
     0
 40
0.0
  0
LTYPE
  5
15
330
5
100
AcDbSymbolTableRecord
100
AcDbLinetypeTableRecord
  2
BYLAYER
 70
     0
  3

 72
    65
 73
     0
 40
0.0
  0
LTYPE
  5
16
330
5
100
AcDbSymbolTableRecord
100
AcDbLinetypeTableRecord
  2
CONTINUOUS
 70
     0
  3
Solid line
 72
    65
 73
     0
 40
0.0
  0
LTYPE
  5
BD
330
5
100
AcDbSymbolTableRecord
100
AcDbLinetypeTableRecord
  2
HIDDEN
 70
     0
  3
__ __ __ __ __ __ __ __ __ __ __ __ __ __ __ __
 72
    65
 73
     2
 40
0.375
 49
0.25
 74
     0
 49
-0.125
 74
     0
  0
LTYPE
  5
BF
330
5
100
AcDbSymbolTableRecord
100
AcDbLinetypeTableRecord
  2
PHANTOM2
 70
     0
  3
___ _ _ ___ _ _ ___ _ _ ___ _ _ ___ _ _ ___ _ _
 72
    65
 73
     6
 40
1.25
 49
0.625
 74
     0
 49
-0.125
 74
     0
 49
0.125
 74
     0
 49
-0.125
 74
     0
 49
0.125
 74
     0
 49
-0.125
 74
     0
  0
LTYPE
  5
CA
330
5
100
AcDbSymbolTableRecord
100
AcDbLinetypeTableRecord
  2
CENTER
 70
     0
  3
____ _ ____ _ ____ _ ____ _ ____ _ ____ _ ____ 
 72
    65
 73
     4
 40
2.0
 49
1.25
 74
     0
 49
-0.25
 74
     0
 49
0.25
 74
     0
 49
-0.25
 74
     0
  0
LTYPE
  5
120
330
5
100
AcDbSymbolTableRecord
100
AcDbLinetypeTableRecord
  2
ASULTYPE
 70
     0
  3
Solid line
 72
    65
 73
     2
 40
3.0
 49
2.5
 74
     0
 49
0.5
 74
     0
  0
LTYPE
  5
121
330
5
100
AcDbSymbolTableRecord
100
AcDbLinetypeTableRecord
  2
ASVLTYPE
 70
     0
  3
__ __ __ __ __ __ __ __ __ __ __ __ __ __ __ __ __ __ __ __ __
 72
    65
 73
     2
 40
0.75
 49
0.5
 74
     0
 49
-0.25
 74
     0
  0
LTYPE
  5
149
330
5
100
AcDbSymbolTableRecord
100
AcDbLinetypeTableRecord
  2
ACJISTGB
 70
     0
  3
__ . . __ . .
 72
    65
 73
     6
 40
9.0
 49
4.0
 74
     0
 49
-1.0
 74
     0
 49
1.0
 74
     0
 49
-1.0
 74
     0
 49
1.0
 74
     0
 49
-1.0
 74
     0
  0
LTYPE
  5
14A
330
5
100
AcDbSymbolTableRecord
100
AcDbLinetypeTableRecord
  2
ACJISTGL
 70
     0
  3
_ _ _ _ _
 72
    65
 73
     2
 40
3.0
 49
2.0
 74
     0
 49
-1.0
 74
     0
  0
LTYPE
  5
14D
330
5
100
AcDbSymbolTableRecord
100
AcDbLinetypeTableRecord
  2
ACANSTGB
 70
     0
  3
__ . . __ . .
 72
    65
 73
     6
 40
0.35433070866
 49
0.15748031496
 74
     0
 49
-0.03937007874
 74
     0
 49
0.03937007874
 74
     0
 49
-0.03937007874
 74
     0
 49
0.03937007874
 74
     0
 49
-0.03937007874
 74
     0
  0
LTYPE
  5
14E
330
5
100
AcDbSymbolTableRecord
100
AcDbLinetypeTableRecord
  2
ACANSTGL
 70
     0
  3
_ _ _ _ _
 72
    65
 73
     2
 40
0.11811023622
 49
0.07874015748
 74
     0
 49
-0.03937007874
 74
     0
  0
LTYPE
  5
151
330
5
100
AcDbSymbolTableRecord
100
AcDbLinetypeTableRecord
  2
ACBSWELD
 70
     0
  3
_ _ _ _ _
 72
    65
 73
     2
 40
2.0
 49
2.0
 74
     0
 49
-1.0
 74
     0
  0
LTYPE
  5
152
330
5
100
AcDbSymbolTableRecord
100
AcDbLinetypeTableRecord
  2
ACBSITGB
 70
     0
  3
__ . . __ . .
 72
    65
 73
     6
 40
9.0
 49
4.0
 74
     0
 49
-1.0
 74
     0
 49
1.0
 74
     0
 49
-1.0
 74
     0
 49
1.0
 74
     0
 49
-1.0
 74
     0
  0
LTYPE
  5
153
330
5
100
AcDbSymbolTableRecord
100
AcDbLinetypeTableRecord
  2
ACBSITGL
 70
     0
  3
_ _ _ _ _
 72
    65
 73
     2
 40
3.0
 49
2.0
 74
     0
 49
-1.0
 74
     0
  0
LTYPE
  5
156
330
5
100
AcDbSymbolTableRecord
100
AcDbLinetypeTableRecord
  2
ACDINWELD
 70
     0
  3
_ _ _ _ _
 72
    65
 73
     2
 40
2.0
 49
2.0
 74
     0
 49
-1.0
 74
     0
  0
LTYPE
  5
157
330
5
100
AcDbSymbolTableRecord
100
AcDbLinetypeTableRecord
  2
ACDINTGB
 70
     0
  3
__ . . __ . .
 72
    65
 73
     6
 40
9.0
 49
4.0
 74
     0
 49
-1.0
 74
     0
 49
1.0
 74
     0
 49
-1.0
 74
     0
 49
1.0
 74
     0
 49
-1.0
 74
     0
  0
LTYPE
  5
158
330
5
100
AcDbSymbolTableRecord
100
AcDbLinetypeTableRecord
  2
ACDINTGL
 70
     0
  3
_ _ _ _ _
 72
    65
 73
     2
 40
3.0
 49
2.0
 74
     0
 49
-1.0
 74
     0
  0
LTYPE
  5
15B
330
5
100
AcDbSymbolTableRecord
100
AcDbLinetypeTableRecord
  2
ACISOWELD
 70
     0
  3
_ _ _ _ _
 72
    65
 73
     2
 40
2.0
 49
2.0
 74
     0
 49
-1.0
 74
     0
  0
LTYPE
  5
15C
330
5
100
AcDbSymbolTableRecord
100
AcDbLinetypeTableRecord
  2
ACISOTGB
 70
     0
  3
__ . . __ . .
 72
    65
 73
     6
 40
9.0
 49
4.0
 74
     0
 49
-1.0
 74
     0
 49
1.0
 74
     0
 49
-1.0
 74
     0
 49
1.0
 74
     0
 49
-1.0
 74
     0
  0
LTYPE
  5
15D
330
5
100
AcDbSymbolTableRecord
100
AcDbLinetypeTableRecord
  2
ACISOTGL
 70
     0
  3
_ _ _ _ _
 72
    65
 73
     2
 40
3.0
 49
2.0
 74
     0
 49
-1.0
 74
     0
  0
LTYPE
  5
175
330
5
100
AcDbSymbolTableRecord
100
AcDbLinetypeTableRecord
  2
AM_ISO02W050
 70
     0
  3
__ __ __ __ __ __ __ __ __ __ __ __ __ __ __
 72
    65
 73
     2
 40
7.5
 49
6.0
 74
     0
 49
-1.5
 74
     0
  0
LTYPE
  5
176
330
5
100
AcDbSymbolTableRecord
100
AcDbLinetypeTableRecord
  2
AM_ISO08W050
 70
     0
  3
____ . ____ . ____ . ____ . ____ . ____ . ____
 72
    65
 73
     4
 40
18.0
 49
12.0
 74
     0
 49
-1.5
 74
     0
 49
3.0
 74
     0
 49
-1.5
 74
     0
  0
LTYPE
  5
177
330
5
100
AcDbSymbolTableRecord
100
AcDbLinetypeTableRecord
  2
AM_ISO09W050
 70
     0
  3
_____ . . _____ . . _____ . . ____ .. ____
 72
    65
 73
     6
 40
22.5
 49
12.0
 74
     0
 49
-1.5
 74
     0
 49
3.0
 74
     0
 49
-1.5
 74
     0
 49
3.0
 74
     0
 49
-1.5
 74
     0
  0
LTYPE
  5
178
330
5
100
AcDbSymbolTableRecord
100
AcDbLinetypeTableRecord
  2
AM_ISO02W050x2
 70
     0
  3
 _ _ _ _ _ _ _ _ _ _ _ _
 72
    65
 73
     2
 40
3.75
 49
3.0
 74
     0
 49
-0.75
 74
     0
  0
LTYPE
  5
179
330
5
100
AcDbSymbolTableRecord
100
AcDbLinetypeTableRecord
  2
AM_ISO08W050x2
 70
     0
  3
__ . __ . __ . __ . __ . __
 72
    65
 73
     4
 40
9.0
 49
6.0
 74
     0
 49
-0.75
 74
     0
 49
1.5
 74
     0
 49
-0.75
 74
     0
  0
LTYPE
  5
17C
330
5
100
AcDbSymbolTableRecord
100
AcDbLinetypeTableRecord
  2
amzigzag
 70
     0
  3
/\/-/\/-/\/-/\/-/\/-/\/
 72
    65
 73
     2
 40
11.0001
 49
0.0001
 74
     4
 75
   135
340
17B
 46
0.04
 50
0.0
 44
0.0
 45
0.0
 49
-11.0
 74
     0
  0
LTYPE
  5
1814
330
5
100
AcDbSymbolTableRecord
100
AcDbLinetypeTableRecord
  2
ACANSTGBM
 70
     0
  3
__ . . __ . .
 72
    65
 73
     6
 40
9.0
 49
4.0
 74
     0
 49
-1.0
 74
     0
 49
1.0
 74
     0
 49
-1.0
 74
     0
 49
1.0
 74
     0
 49
-1.0
 74
     0
  0
LTYPE
  5
1815
330
5
100
AcDbSymbolTableRecord
100
AcDbLinetypeTableRecord
  2
ACANSTGLM
 70
     0
  3
_ _ _ _ _
 72
    65
 73
     2
 40
3.0
 49
2.0
 74
     0
 49
-1.0
 74
     0
  0
LTYPE
  5
1996
330
5
100
AcDbSymbolTableRecord
100
AcDbLinetypeTableRecord
  2
GEN7
 70
     0
  3
____ . ____ . ____ . ____ . ___
 72
    65
 73
     4
 40
13.75
 49
9.75
 74
     0
 49
-1.5
 74
     0
 49
1.0
 74
     0
 49
-1.5
 74
     0
  0
LTYPE
  5
1997
330
5
100
AcDbSymbolTableRecord
100
AcDbLinetypeTableRecord
  2
GEN3
 70
     0
  3
-- -- -- -- -- -- -- -- -- -- -
 72
    65
 73
     2
 40
6.25
 49
4.75
 74
     0
 49
-1.5
 74
     0
  0
LTYPE
  5
1998
330
5
100
AcDbSymbolTableRecord
100
AcDbLinetypeTableRecord
  2
GEN3A
 70
     0
  3
 - - - - -
 72
    65
 73
     2
 40
3.125
 49
2.25
 74
     0
 49
-0.875
 74
     0
  0
LTYPE
  5
1999
330
5
100
AcDbSymbolTableRecord
100
AcDbLinetypeTableRecord
  2
GEN4A
 70
     0
  3
_____ . . _____ . . _____ . . _
 72
    65
 73
     6
 40
16.25
 49
9.75
 74
     0
 49
-1.5
 74
     0
 49
1.0
 74
     0
 49
-1.5
 74
     0
 49
1.0
 74
     0
 49
-1.5
 74
     0
  0
LTYPE
  5
199A
330
5
100
AcDbSymbolTableRecord
100
AcDbLinetypeTableRecord
  2
GEN7A
 70
     0
  3
__ . __ . __
 72
    65
 73
     4
 40
6.875
 49
4.75
 74
     0
 49
-0.875
 74
     0
 49
0.375
 74
     0
 49
-0.875
 74
     0
  0
LTYPE
  5
199B
330
5
100
AcDbSymbolTableRecord
100
AcDbLinetypeTableRecord
  2
CONTINU
 70
     0
  3

 72
    65
 73
     0
 40
0.0
  0
LTYPE
  5
199C
330
5
100
AcDbSymbolTableRecord
100
AcDbLinetypeTableRecord
  2
genzigzag
 70
     0
  3
/\/-/\/-/\/-/\/-/\/-/\/
 72
    65
 73
     2
 40
12.0001
 49
0.0001
 74
     4
 75
   135
340
19A0
 46
2.0
 50
0.0
 44
0.0
 45
0.0
 49
-12.0
 74
     0
  0
LTYPE
  5
1CFF
330
5
100
AcDbSymbolTableRecord
100
AcDbLinetypeTableRecord
  2
VERDECKT
 70
     0
  3
Verdeckt __ __ __ __ __ __ __ __ __ __ __ __ __
 72
    65
 73
     2
 40
9.524999999999998
 49
6.349999999999999
 74
     0
 49
-3.174999999999999
 74
     0
  0
LTYPE
  5
1D00
330
5
100
AcDbSymbolTableRecord
100
AcDbLinetypeTableRecord
  2
MITTE
 70
     0
  3
Mitte ____ _ ____ _ ____ _ ____ _ ____ _ ____
 72
    65
 73
     4
 40
50.8
 49
31.75
 74
     0
 49
-6.349999999999999
 74
     0
 49
6.349999999999999
 74
     0
 49
-6.349999999999999
 74
     0
  0
ENDTAB
  0
TABLE
  2
LAYER
  5
2
330
0
100
AcDbSymbolTable
 70
    36
  0
LAYER
  5
F
330
2
100
AcDbSymbolTableRecord
100
AcDbLayerTableRecord
  2
0
 70
     0
 62
     7
  6
CONTINUOUS
370
    -3
390
166
347
1E99
  0
LAYER
  5
35A
330
2
100
AcDbSymbolTableRecord
100
AcDbLayerTableRecord
  2
AM_0
 70
     0
 62
     7
  6
CONTINUOUS
370
    50
390
166
347
1E99
  0
LAYER
  5
35B
330
2
100
AcDbSymbolTableRecord
100
AcDbLayerTableRecord
  2
AM_1
 70
     0
 62
     4
  6
CONTINUOUS
370
    25
390
166
347
1E99
  0
LAYER
  5
35C
330
2
100
AcDbSymbolTableRecord
100
AcDbLayerTableRecord
  2
AM_2
 70
     0
 62
     5
  6
CONTINUOUS
370
    50
390
166
347
1E99
  0
LAYER
  5
35D
330
2
100
AcDbSymbolTableRecord
100
AcDbLayerTableRecord
  2
AM_3
 70
     0
 62
     6
  6
AM_ISO02W050
370
    25
390
166
347
1E99
  0
LAYER
  5
35E
330
2
100
AcDbSymbolTableRecord
100
AcDbLayerTableRecord
  2
AM_4
 70
     0
 62
     3
  6
CONTINUOUS
370
    25
390
166
347
1E99
  0
LAYER
  5
35F
330
2
100
AcDbSymbolTableRecord
100
AcDbLayerTableRecord
  2
AM_5
 70
     0
 62
     3
  6
CONTINUOUS
370
    25
390
166
347
1E99
  0
LAYER
  5
360
330
2
100
AcDbSymbolTableRecord
100
AcDbLayerTableRecord
  2
AM_6
 70
     0
 62
     2
  6
CONTINUOUS
370
    35
390
166
347
1E99
  0
LAYER
  5
361
330
2
100
AcDbSymbolTableRecord
100
AcDbLayerTableRecord
  2
AM_7
 70
     0
 62
     1
  6
AM_ISO08W050
370
    25
390
166
347
1E99
  0
LAYER
  5
362
330
2
100
AcDbSymbolTableRecord
100
AcDbLayerTableRecord
  2
AM_8
 70
     0
 62
     1
  6
CONTINUOUS
370
    25
390
166
347
1E99
  0
LAYER
  5
38E
330
2
100
AcDbSymbolTableRecord
100
AcDbLayerTableRecord
  2
AM_FR
 70
     5
 62
     7
  6
CONTINUOUS
370
    -3
390
166
347
1E99
  0
LAYER
  5
3F7
330
2
100
AcDbSymbolTableRecord
100
AcDbLayerTableRecord
  2
ASHADE
 70
     4
 62
     7
  6
CONTINUOUS
370
    -3
390
166
347
1E99
  0
LAYER
  5
5FC
330
2
100
AcDbSymbolTableRecord
100
AcDbLayerTableRecord
  2
AM_WORK
 70
     0
 62
     7
  6
CONTINUOUS
370
    -3
390
166
347
1E99
  0
LAYER
  5
614
330
2
100
AcDbSymbolTableRecord
100
AcDbLayerTableRecord
  2
AM_CL
 70
     0
 62
     1
  6
CONTINUOUS
370
    25
390
166
347
1E99
  0
LAYER
  5
643
330
2
100
AcDbSymbolTableRecord
100
AcDbLayerTableRecord
  2
Defpoints
 70
     0
 62
     7
  6
CONTINUOUS
290
     0
370
    -3
390
166
347
1E99
  0
LAYER
  5
79B
330
2
100
AcDbSymbolTableRecord
100
AcDbLayerTableRecord
  2
ASRF_TMP
 70
     0
 62
     7
  6
CONTINUOUS
370
    -3
390
166
347
1E99
  0
LAYER
  5
1054
330
2
100
AcDbSymbolTableRecord
100
AcDbLayerTableRecord
  2
AM_VIEWS
 70
     1
 62
    -1
  6
CONTINUOUS
290
     0
370
    25
390
166
347
1E99
  0
LAYER
  5
106E
330
2
100
AcDbSymbolTableRecord
100
AcDbLayerTableRecord
  2
AM_VIS
 70
     2
 62
     7
  6
CONTINUOUS
370
    50
390
166
347
1E99
  0
LAYER
  5
106F
330
2
100
AcDbSymbolTableRecord
100
AcDbLayerTableRecord
  2
AM_HID
 70
     2
 62
     6
  6
AM_ISO02W050
370
    25
390
166
347
1E99
  0
LAYER
  5
108B
330
2
100
AcDbSymbolTableRecord
100
AcDbLayerTableRecord
  2
AM_PARDIM
 70
     0
 62
     3
  6
CONTINUOUS
370
    25
390
166
347
1E99
  0
LAYER
  5
1969
330
2
100
AcDbSymbolTableRecord
100
AcDbLayerTableRecord
  2
AmdtBRLock
 70
     6
 62
     7
  6
CONTINUOUS
370
    -3
390
166
347
1E99
  0
LAYER
  5
199D
330
2
100
AcDbSymbolTableRecord
100
AcDbLayerTableRecord
  2
5
 70
     0
 62
     3
  6
CONTINUOUS
370
    -3
390
166
347
1E99
  0
LAYER
  5
199E
330
2
100
AcDbSymbolTableRecord
100
AcDbLayerTableRecord
  2
1
 70
     0
 62
     4
  6
CONTINUOUS
370
    -3
390
166
347
1E99
  0
LAYER
  5
199F
330
2
100
AcDbSymbolTableRecord
100
AcDbLayerTableRecord
  2
7
 70
     0
 62
     1
  6
GEN7
370
    -3
390
166
347
1E99
  0
LAYER
  5
19F7
330
2
100
AcDbSymbolTableRecord
100
AcDbLayerTableRecord
  2
7A
 70
     0
 62
     1
  6
GEN7A
370
    -3
390
166
347
1E99
  0
LAYER
  5
1CD5
330
2
100
AcDbSymbolTableRecord
100
AcDbLayerTableRecord
  2
RAHM2
 70
     0
 62
     1
  6
CONTINUOUS
370
    -3
390
166
347
1E99
  0
LAYER
  5
1CD6
330
2
100
AcDbSymbolTableRecord
100
AcDbLayerTableRecord
  2
6
 70
     0
 62
     2
  6
CONTINUOUS
370
    -3
390
166
347
1E99
  0
LAYER
  5
1CD7
330
2
100
AcDbSymbolTableRecord
100
AcDbLayerTableRecord
  2
KLIN
 70
     0
 62
     1
  6
CONTINUOUS
370
    -3
390
166
347
1E99
  0
LAYER
  5
1CD8
330
2
100
AcDbSymbolTableRecord
100
AcDbLayerTableRecord
  2
RAHM3
 70
     0
 62
     2
  6
CONTINUOUS
370
    -3
390
166
347
1E99
  0
LAYER
  5
1CD9
330
2
100
AcDbSymbolTableRecord
100
AcDbLayerTableRecord
  2
RAHM5
 70
     0
 62
     7
  6
CONTINUOUS
370
    -3
390
166
347
1E99
  0
LAYER
  5
1CDA
330
2
100
AcDbSymbolTableRecord
100
AcDbLayerTableRecord
  2
KOPF
 70
     0
 62
     7
  6
CONTINUOUS
370
    -3
390
166
347
1E99
  0
LAYER
  5
1D01
330
2
100
AcDbSymbolTableRecord
100
AcDbLayerTableRecord
  2
AM_TR
 70
     0
 62
     3
  6
CONTINUOUS
370
    25
390
166
347
1E99
  0
LAYER
  5
1D02
330
2
100
AcDbSymbolTableRecord
100
AcDbLayerTableRecord
  2
AM_BM
 70
     0
 62
     7
  6
CONTINUOUS
370
    -3
390
166
347
1E99
  0
LAYER
  5
1D03
330
2
100
AcDbSymbolTableRecord
100
AcDbLayerTableRecord
  2
AM_BL
 70
     0
 62
     7
  6
CONTINUOUS
370
    -3
390
166
347
1E99
  0
LAYER
  5
1D04
330
2
100
AcDbSymbolTableRecord
100
AcDbLayerTableRecord
  2
AM_REFDIM
 70
     0
 62
     1
  6
CONTINUOUS
370
    25
390
166
347
1E99
  0
LAYER
  5
1D05
330
2
100
AcDbSymbolTableRecord
100
AcDbLayerTableRecord
  2
AM_SUPPR
 70
     0
 62
     6
  6
CONTINUOUS
370
    -3
390
166
347
1E99
  0
ENDTAB
  0
TABLE
  2
STYLE
  5
3
330
0
100
AcDbSymbolTable
 70
    15
  0
STYLE
  5
10
330
3
100
AcDbSymbolTableRecord
100
AcDbTextStyleTableRecord
  2
STANDARD
 70
     0
 40
0.0
 41
1.0
 50
0.0
 71
     0
 42
3.5
  3
ISOCP
  4

  0
STYLE
  5
147
330
3
100
AcDbSymbolTableRecord
100
AcDbTextStyleTableRecord
  2
ACJISTS
 70
     0
 40
1.0
 41
1.0
 50
0.0
 71
     0
 42
3.5
  3
isocp.shx
  4
bigfont.shx
  0
STYLE
  5
148
330
3
100
AcDbSymbolTableRecord
100
AcDbTextStyleTableRecord
  2
ACJISGDT
 70
     0
 40
0.0
 41
1.0
 50
0.0
 71
     0
 42
3.5
  3
amgdt.shx
  4

  0
STYLE
  5
14B
330
3
100
AcDbSymbolTableRecord
100
AcDbTextStyleTableRecord
  2
ACANSTSI
 70
     0
 40
1.0
 41
1.0
 50
0.0
 71
     0
 42
3.5
  3
romans.shx
  4

  0
STYLE
  5
14C
330
3
100
AcDbSymbolTableRecord
100
AcDbTextStyleTableRecord
  2
ACANSGDT
 70
     0
 40
0.0
 41
1.0
 50
0.0
 71
     0
 42
3.5
  3
amgdt.shx
  4

  0
STYLE
  5
14F
330
3
100
AcDbSymbolTableRecord
100
AcDbTextStyleTableRecord
  2
ACBSITS
 70
     0
 40
1.0
 41
1.0
 50
0.0
 71
     0
 42
3.5
  3
isocp.shx
  4

  0
STYLE
  5
150
330
3
100
AcDbSymbolTableRecord
100
AcDbTextStyleTableRecord
  2
ACBSIGDT
 70
     0
 40
0.0
 41
1.0
 50
0.0
 71
     0
 42
3.5
  3
amgdt.shx
  4

  0
STYLE
  5
154
330
3
100
AcDbSymbolTableRecord
100
AcDbTextStyleTableRecord
  2
ACDINTS
 70
     0
 40
1.0
 41
1.0
 50
0.0
 71
     0
 42
3.5
  3
isocp.shx
  4

  0
STYLE
  5
155
330
3
100
AcDbSymbolTableRecord
100
AcDbTextStyleTableRecord
  2
ACDINGDT
 70
     0
 40
0.0
 41
1.0
 50
0.0
 71
     0
 42
3.5
  3
amgdt.shx
  4

  0
STYLE
  5
159
330
3
100
AcDbSymbolTableRecord
100
AcDbTextStyleTableRecord
  2
ACISOTS
 70
     0
 40
1.0
 41
1.0
 50
0.0
 71
     0
 42
3.5
  3
isocp.shx
  4

  0
STYLE
  5
15A
330
3
100
AcDbSymbolTableRecord
100
AcDbTextStyleTableRecord
  2
ACISOGDT
 70
     0
 40
0.0
 41
1.0
 50
0.0
 71
     0
 42
3.5
  3
amgdt.shx
  4

  0
STYLE
  5
17B
330
3
100
AcDbSymbolTableRecord
100
AcDbTextStyleTableRecord
  2

 70
     1
 40
0.0
 41
1.0
 50
0.0
 71
     0
 42
3.5
  3
ltypeshp.shx
  4

  0
STYLE
  5
3F4
330
3
100
AcDbSymbolTableRecord
100
AcDbTextStyleTableRecord
  2
ASHADE
 70
     0
 40
0.2
 41
1.0
 50
0.0
 71
     0
 42
3.5
  3
simplex.shx
  4

  0
STYLE
  5
19A0
330
3
100
AcDbSymbolTableRecord
100
AcDbTextStyleTableRecord
  2

 70
     1
 40
0.0
 41
1.0
 50
0.0
 71
     0
 42
2.5
  3
genltshp.shx
  4

  0
STYLE
  5
1D06
330
3
100
AcDbSymbolTableRecord
100
AcDbTextStyleTableRecord
  2
ACANSTS
 70
     0
 40
1.0
 41
1.0
 50
0.0
 71
     0
 42
2.5
  3
romans.shx
  4

  0
ENDTAB
  0
TABLE
  2
VIEW
  5
6
330
0
100
AcDbSymbolTable
 70
     9
  0
VIEW
  5
1C8
330
6
100
AcDbSymbolTableRecord
100
AcDbViewTableRecord
  2
AMDTVIEW1
 70
     0
 40
329.0721649484536
 10
210.0
 20
164.5360824742268
 41
420.0
 11
0.0
 21
0.0
 31
1.0
 12
0.0
 22
0.0
 32
0.0
 42
50.0
 43
0.0
 44
0.0
 50
0.0
 71
     0
281
     0
 72
     0
 73
     0
348
1EA0
  0
VIEW
  5
1C9
330
6
100
AcDbSymbolTableRecord
100
AcDbViewTableRecord
  2
AMDTVIEW2
 70
     0
 40
329.0721649484536
 10
210.0
 20
164.5360824742268
 41
420.0
 11
0.0
 21
0.0
 31
1.0
 12
0.0
 22
0.0
 32
0.0
 42
50.0
 43
0.0
 44
0.0
 50
0.0
 71
     0
281
     0
 72
     0
 73
     0
348
1EA0
  0
VIEW
  5
1CA
330
6
100
AcDbSymbolTableRecord
100
AcDbViewTableRecord
  2
AMDTVIEW3
 70
     0
 40
329.0721649484536
 10
210.0
 20
164.5360824742268
 41
420.0
 11
0.0
 21
0.0
 31
1.0
 12
0.0
 22
0.0
 32
0.0
 42
50.0
 43
0.0
 44
0.0
 50
0.0
 71
     0
281
     0
 72
     0
 73
     0
348
1EA0
  0
VIEW
  5
1D67
330
6
100
AcDbSymbolTableRecord
100
AcDbViewTableRecord
  2
AM_VIEW1
 70
     1
 40
148.5053253173828
 10
90.12358892661698
 20
217.6462469100952
 41
190.3013446470572
 11
0.0
 21
0.0
 31
1.0
 12
0.0
 22
0.0
 32
0.0
 42
50.0
 43
0.0
 44
0.0
 50
0.0
 71
     0
281
     0
 72
     0
 73
     0
348
1EA0
  0
VIEW
  5
1D68
330
6
100
AcDbSymbolTableRecord
100
AcDbViewTableRecord
  2
AM_VIEW2
 70
     1
 40
148.5053253173828
 10
109.8379150559269
 20
217.6462469100952
 41
190.3013446470572
 11
0.0
 21
0.0
 31
1.0
 12
0.0
 22
0.0
 32
0.0
 42
50.0
 43
0.0
 44
0.0
 50
0.0
 71
     0
281
     0
 72
     0
 73
     0
348
1EA0
  0
VIEW
  5
1D69
330
6
100
AcDbSymbolTableRecord
100
AcDbViewTableRecord
  2
AM_VIEW3
 70
     1
 40
148.5053253173828
 10
90.12358892661698
 20
69.1409215927124
 41
190.3013446470572
 11
0.0
 21
0.0
 31
1.0
 12
0.0
 22
0.0
 32
0.0
 42
50.0
 43
0.0
 44
0.0
 50
0.0
 71
     0
281
     0
 72
     0
 73
     0
348
1EA0
  0
VIEW
  5
1D6A
330
6
100
AcDbSymbolTableRecord
100
AcDbViewTableRecord
  2
AM_VIEW4
 70
     1
 40
148.5053253173828
 10
109.8379150559269
 20
69.1409215927124
 41
190.3013446470572
 11
0.0
 21
0.0
 31
1.0
 12
0.0
 22
0.0
 32
0.0
 42
50.0
 43
0.0
 44
0.0
 50
0.0
 71
     0
281
     0
 72
     0
 73
     0
348
1EA0
  0
VIEW
  5
1D6B
330
6
100
AcDbSymbolTableRecord
100
AcDbViewTableRecord
  2
AM_VIEW5
 70
     1
 40
148.5053253173828
 10
99.98075199127198
 20
143.3935842514038
 41
190.3013446470572
 11
0.0
 21
0.0
 31
1.0
 12
0.0
 22
0.0
 32
0.0
 42
50.0
 43
0.0
 44
0.0
 50
0.0
 71
     0
281
     0
 72
     0
 73
     0
348
1EA0
  0
VIEW
  5
1D6C
330
6
100
AcDbSymbolTableRecord
100
AcDbViewTableRecord
  2
AM_VIEW6
 70
     1
 40
297.0076805282592
 10
99.98075199127198
 20
143.3935842514038
 41
380.5988832672215
 11
0.0
 21
0.0
 31
1.0
 12
0.0
 22
0.0
 32
0.0
 42
50.0
 43
0.0
 44
0.0
 50
0.0
 71
     0
281
     0
 72
     0
 73
     0
348
1EA0
  0
ENDTAB
  0
TABLE
  2
UCS
  5
7
330
0
100
AcDbSymbolTable
 70
     0
  0
ENDTAB
  0
TABLE
  2
APPID
  5
9
330
0
100
AcDbSymbolTable
 70
    52
  0
APPID
  5
11
330
9
100
AcDbSymbolTableRecord
100
AcDbRegAppTableRecord
  2
ACAD
 70
     0
  0
APPID
  5
CD
330
9
100
AcDbSymbolTableRecord
100
AcDbRegAppTableRecord
  2
AD_DRAW
 70
     0
  0
APPID
  5
E7
330
9
100
AcDbSymbolTableRecord
100
AcDbRegAppTableRecord
  2
DESIGNERASSEMBLIES
 70
     0
  0
APPID
  5
EB
330
9
100
AcDbSymbolTableRecord
100
AcDbRegAppTableRecord
  2
MCAD_NO_VIS
 70
     0
  0
APPID
  5
122
330
9
100
AcDbSymbolTableRecord
100
AcDbRegAppTableRecord
  2
ASURF_PCURVE_APPNAME
 70
     0
  0
APPID
  5
17F
330
9
100
AcDbSymbolTableRecord
100
AcDbRegAppTableRecord
  2
ACAD_TEMP_GRAPHIC
 70
     0
  0
APPID
  5
189
330
9
100
AcDbSymbolTableRecord
100
AcDbRegAppTableRecord
  2
ACATTRIBSERVICES
 70
     0
  0
APPID
  5
1C4
330
9
100
AcDbSymbolTableRecord
100
AcDbRegAppTableRecord
  2
ACADM_DIM_EDIT
 70
     0
  0
APPID
  5
1D5
330
9
100
AcDbSymbolTableRecord
100
AcDbRegAppTableRecord
  2
GENIUS_GENDIM_13
 70
     0
  0
APPID
  5
1D6
330
9
100
AcDbSymbolTableRecord
100
AcDbRegAppTableRecord
  2
GENIUS_GENDTOL_13
 70
     0
  0
APPID
  5
1D7
330
9
100
AcDbSymbolTableRecord
100
AcDbRegAppTableRecord
  2
GENIUS_GE3DTOL_13
 70
     0
  0
APPID
  5
3F5
330
9
100
AcDbSymbolTableRecord
100
AcDbRegAppTableRecord
  2
AVE_RENDER
 70
     0
  0
APPID
  5
3F6
330
9
100
AcDbSymbolTableRecord
100
AcDbRegAppTableRecord
  2
AVE_ENTITY_MATERIAL
 70
     0
  0
APPID
  5
403
330
9
100
AcDbSymbolTableRecord
100
AcDbRegAppTableRecord
  2
AVE_FINISH
 70
     0
  0
APPID
  5
404
330
9
100
AcDbSymbolTableRecord
100
AcDbRegAppTableRecord
  2
AVE_MATERIAL
 70
     0
  0
APPID
  5
405
330
9
100
AcDbSymbolTableRecord
100
AcDbRegAppTableRecord
  2
AVE_GLOBAL
 70
     0
  0
APPID
  5
587
330
9
100
AcDbSymbolTableRecord
100
AcDbRegAppTableRecord
  2
GENIUS_GENREC_14
 70
     0
  0
APPID
  5
588
330
9
100
AcDbSymbolTableRecord
100
AcDbRegAppTableRecord
  2
GENIUS_GENODEF_13
 70
     0
  0
APPID
  5
589
330
9
100
AcDbSymbolTableRecord
100
AcDbRegAppTableRecord
  2
GENIUS_GENOBJ-N-REC_13
 70
     0
  0
APPID
  5
5F8
330
9
100
AcDbSymbolTableRecord
100
AcDbRegAppTableRecord
  2
GENIUS_GENOBJ-3-SH3D_13
 70
     0
  0
APPID
  5
651
330
9
100
AcDbSymbolTableRecord
100
AcDbRegAppTableRecord
  2
AD_SKETCHDIM
 70
     0
  0
APPID
  5
76F
330
9
100
AcDbSymbolTableRecord
100
AcDbRegAppTableRecord
  2
AM_EDITFEAT
 70
     0
  0
APPID
  5
799
330
9
100
AcDbSymbolTableRecord
100
AcDbRegAppTableRecord
  2
GENIUS_GE3SH_14_1
 70
     0
  0
APPID
  5
79A
330
9
100
AcDbSymbolTableRecord
100
AcDbRegAppTableRecord
  2
GENIUS_GE3MANIP_13
 70
     0
  0
APPID
  5
1066
330
9
100
AcDbSymbolTableRecord
100
AcDbRegAppTableRecord
  2
GENIUS_GENSCREG_15
 70
     0
  0
APPID
  5
1068
330
9
100
AcDbSymbolTableRecord
100
AcDbRegAppTableRecord
  2
GENIUS_GENOBJ-N-SDF_13
 70
     0
  0
APPID
  5
1069
330
9
100
AcDbSymbolTableRecord
100
AcDbRegAppTableRecord
  2
GENIUS_GENOENT_13
 70
     0
  0
APPID
  5
106A
330
9
100
AcDbSymbolTableRecord
100
AcDbRegAppTableRecord
  2
GENIUS_GENOREF_13
 70
     0
  0
APPID
  5
106B
330
9
100
AcDbSymbolTableRecord
100
AcDbRegAppTableRecord
  2
GENIUS_GENOLIS_13
 70
     0
  0
APPID
  5
1348
330
9
100
AcDbSymbolTableRecord
100
AcDbRegAppTableRecord
  2
GENIUS_GENDIMSH_14
 70
     0
  0
APPID
  5
17FE
330
9
100
AcDbSymbolTableRecord
100
AcDbRegAppTableRecord
  2
AMG_3D2D_5.0
 70
     0
  0
APPID
  5
1855
330
9
100
AcDbSymbolTableRecord
100
AcDbRegAppTableRecord
  2
AMDT_DM_ADJ
 70
     0
  0
APPID
  5
19F8
330
9
100
AcDbSymbolTableRecord
100
AcDbRegAppTableRecord
  2
GENIUS_GENOBJ-N-CEN_13
 70
     0
  0
APPID
  5
1CDC
330
9
100
AcDbSymbolTableRecord
100
AcDbRegAppTableRecord
  2
GENIUS_GENBLLY_14
 70
     0
  0
APPID
  5
1CDD
330
9
100
AcDbSymbolTableRecord
100
AcDbRegAppTableRecord
  2
GENIUS_GENTRA_14
 70
     0
  0
APPID
  5
1CDE
330
9
100
AcDbSymbolTableRecord
100
AcDbRegAppTableRecord
  2
GENIUS_GENOBJ-N-CRS_13
 70
     0
  0
APPID
  5
1CDF
330
9
100
AcDbSymbolTableRecord
100
AcDbRegAppTableRecord
  2
GENIUS_GENOBJ-N-HTC_13
 70
     0
  0
APPID
  5
1CE0
330
9
100
AcDbSymbolTableRecord
100
AcDbRegAppTableRecord
  2
GENIUS_GENHATCH_13
 70
     0
  0
APPID
  5
1CE1
330
9
100
AcDbSymbolTableRecord
100
AcDbRegAppTableRecord
  2
GENIUS_GENOBJ-N-TIT_13
 70
     0
  0
APPID
  5
1CE2
330
9
100
AcDbSymbolTableRecord
100
AcDbRegAppTableRecord
  2
GENIUS_GENTITLE_13
 70
     0
  0
APPID
  5
1CE3
330
9
100
AcDbSymbolTableRecord
100
AcDbRegAppTableRecord
  2
GENIUS_GENZVEED_13
 70
     0
  0
APPID
  5
1CE4
330
9
100
AcDbSymbolTableRecord
100
AcDbRegAppTableRecord
  2
GENIUS_GENSCREG_13
 70
     0
  0
APPID
  5
1CE5
330
9
100
AcDbSymbolTableRecord
100
AcDbRegAppTableRecord
  2
GENIUS_GENCFG_13
 70
     0
  0
APPID
  5
1CE6
330
9
100
AcDbSymbolTableRecord
100
AcDbRegAppTableRecord
  2
GENIUS_GENCFG0_13
 70
     0
  0
APPID
  5
1CE7
330
9
100
AcDbSymbolTableRecord
100
AcDbRegAppTableRecord
  2
GENIUS_GENCFG1_13
 70
     0
  0
APPID
  5
1CE8
330
9
100
AcDbSymbolTableRecord
100
AcDbRegAppTableRecord
  2
GENIUS_GENCFG2_13
 70
     0
  0
APPID
  5
1CE9
330
9
100
AcDbSymbolTableRecord
100
AcDbRegAppTableRecord
  2
GENIUS_GENCFG3_13
 70
     0
  0
APPID
  5
1CEA
330
9
100
AcDbSymbolTableRecord
100
AcDbRegAppTableRecord
  2
GENIUS_GENCFG4_13
 70
     0
  0
APPID
  5
1CEB
330
9
100
AcDbSymbolTableRecord
100
AcDbRegAppTableRecord
  2
GENIUS_GEVCFG0_13
 70
     0
  0
APPID
  5
1D0D
330
9
100
AcDbSymbolTableRecord
100
AcDbRegAppTableRecord
  2
GENIUS_GE3CFG0_13
 70
     0
  0
APPID
  5
1DAE
330
9
100
AcDbSymbolTableRecord
100
AcDbRegAppTableRecord
  2
GENIUS_AMGTXT_16
 70
     0
  0
APPID
  5
1F17
330
9
100
AcDbSymbolTableRecord
100
AcDbRegAppTableRecord
  2
GENIUS_GENCEN_19
 70
     0
  0
ENDTAB
  0
TABLE
  2
DIMSTYLE
  5
A
330
0
100
AcDbSymbolTable
 70
    44
100
AcDbDimStyleTable
 71
     6
340
395
340
25
340
62
340
2A
340
29
340
28
  0
DIMSTYLE
105
1D
330
A
100
AcDbSymbolTableRecord
100
AcDbDimStyleTableRecord
  2
STANDARD
 70
     0
 41
2.5
 42
0.625
 43
3.75
 44
1.25
 73
     0
 74
     0
 77
     1
 78
     8
140
2.5
141
2.5
143
0.0394
147
0.625
171
     4
172
     1
273
     8
274
     4
277
     6
340
10
  0
DIMSTYLE
105
25
330
A
100
AcDbSymbolTableRecord
100
AcDbDimStyleTableRecord
  2
ISO-35
 70
     0
 41
3.5
 42
0.875
 43
5.25
 44
1.75
 73
     0
 74
     0
 77
     1
 78
     8
140
3.5
141
3.5
143
0.0394
147
0.875
171
     4
172
     1
273
     8
274
     4
277
     6
340
10
  0
DIMSTYLE
105
26
330
A
100
AcDbSymbolTableRecord
100
AcDbDimStyleTableRecord
  2
ISO-5
 70
     0
 41
5.0
 42
1.25
 43
7.5
 44
2.5
 73
     0
 74
     0
 77
     1
 78
     8
140
5.0
141
5.0
143
0.0394
147
1.25
171
     4
172
     1
273
     8
274
     4
277
     6
340
10
  0
DIMSTYLE
105
27
330
A
100
AcDbSymbolTableRecord
100
AcDbDimStyleTableRecord
  2
ISO-7
 70
     0
 41
7.0
 42
1.75
 43
10.5
 44
3.5
 73
     0
 74
     0
 77
     1
 78
     8
140
7.0
141
7.0
143
0.0394
147
1.75
171
     4
172
     1
273
     8
274
     4
277
     6
340
10
  0
DIMSTYLE
105
28
330
A
100
AcDbSymbolTableRecord
100
AcDbDimStyleTableRecord
  2
ISO1
 70
     0
 41
10.0
 42
2.5
 43
15.0
 44
5.0
 73
     0
 74
     0
 77
     1
 78
     8
140
10.0
141
10.0
143
0.0394
147
2.5
171
     4
172
     1
273
     8
274
     4
277
     6
340
10
  0
DIMSTYLE
105
29
330
A
100
AcDbSymbolTableRecord
100
AcDbDimStyleTableRecord
  2
ISO1-4
 70
     0
 41
14.0
 42
3.5
 43
21.0
 44
7.0
 74
     0
 77
     1
 78
     8
140
14.0
141
14.0
143
0.0394
145
5.599999999999999
147
3.5
172
     1
273
     8
277
     6
340
10
  0
DIMSTYLE
105
2A
330
A
100
AcDbSymbolTableRecord
100
AcDbDimStyleTableRecord
  2
ISO2
 70
     0
 41
20.0
 42
5.0
 43
30.0
 44
10.0
 73
     0
 74
     0
 77
     1
 78
     8
140
20.0
141
20.0
143
0.0394
147
5.0
171
     4
172
     1
273
     8
274
     4
277
     6
340
10
  0
DIMSTYLE
105
60
330
A
100
AcDbSymbolTableRecord
100
AcDbDimStyleTableRecord
  2
ISO-4
 70
     0
 41
14.0
 42
3.5
 43
21.0
 44
7.0
 73
     0
 74
     0
 77
     1
 78
     8
140
14.0
141
14.0
143
0.0394
147
3.5
171
     4
172
     1
273
     8
274
     4
277
     6
340
10
  0
DIMSTYLE
105
62
330
A
100
AcDbSymbolTableRecord
100
AcDbDimStyleTableRecord
  2
ISO-25
 70
     0
 41
2.5
 42
0.625
 43
3.75
 44
1.25
 73
     0
 74
     0
 77
     1
 78
     8
140
2.5
141
2.5
143
0.0394
147
0.625
171
     4
172
     1
273
     8
274
     4
277
     6
340
10
  0
DIMSTYLE
105
395
102
{ACAD_REACTORS
330
1A62
330
1ABC
330
1AFF
330
1B4D
330
1B8C
330
1BCB
330
1C0A
102
}
330
A
100
AcDbSymbolTableRecord
100
AcDbDimStyleTableRecord
  2
AM_ISO
 70
     0
  4
"
 41
2.5
 42
0.0
 43
10.0
 44
1.0
 47
0.1
 48
0.1
 73
     0
 74
     0
 77
     1
 78
     8
 79
     2
140
3.5
141
0.0
143
0.0393701
146
0.71
147
1.5
172
     1
176
   256
177
   256
178
     2
271
     2
272
     2
283
     0
340
10
371
    -1
372
    -1
  0
DIMSTYLE
105
396
330
A
100
AcDbSymbolTableRecord
100
AcDbDimStyleTableRecord
  2
AM_ISO$3
 70
     0
  4
"
 41
2.5
 42
1.0
 43
10.0
 44
1.0
 47
0.1
 48
0.1
 73
     0
 77
     1
 78
     8
 79
     2
140
3.5
141
0.0
143
0.0393701
146
0.71
147
1.5
176
   256
177
   256
178
     2
271
     2
272
     2
283
     0
288
     1
289
     0
340
10
371
    -1
372
    -1
  0
DIMSTYLE
105
397
330
A
100
AcDbSymbolTableRecord
100
AcDbDimStyleTableRecord
  2
AM_ISO$4
 70
     0
  4
"
 41
2.5
 42
1.0
 43
10.0
 44
1.0
 47
0.1
 48
0.1
 73
     0
 77
     1
 78
     8
 79
     2
140
3.5
141
0.0
143
0.0393701
146
0.71
147
1.5
176
   256
177
   256
178
     2
271
     2
272
     2
283
     0
288
     1
289
     0
340
10
371
    -1
372
    -1
  0
DIMSTYLE
105
398
330
A
100
AcDbSymbolTableRecord
100
AcDbDimStyleTableRecord
  2
AM_ISO$6
 70
     0
  4
"
 41
2.5
 42
1.0
 43
10.0
 44
1.0
 47
0.1
 48
0.1
 73
     0
 74
     0
 78
     8
 79
     2
140
3.5
141
0.0
143
0.0393701
146
0.71
147
1.5
172
     1
176
   256
177
   256
178
     2
271
     2
272
     3
274
     4
283
     0
340
10
371
    -1
372
    -1
  0
DIMSTYLE
105
399
330
A
100
AcDbSymbolTableRecord
100
AcDbDimStyleTableRecord
  2
AM_ISO$7
 70
     0
  4
"
 41
2.5
 42
1.0
 43
10.0
 44
1.0
 47
0.1
 48
0.1
 73
     0
 74
     0
 77
     1
 78
     8
 79
     2
140
5.0
141
0.0
143
0.0393701
146
0.71
147
1.5
172
     1
176
   256
177
   256
178
     2
271
     2
272
     3
274
     4
283
     0
340
10
371
    -1
372
    -1
  0
DIMSTYLE
105
39A
330
A
100
AcDbSymbolTableRecord
100
AcDbDimStyleTableRecord
  2
AM_ISO$SF
 70
     0
  4
"
 41
2.5
 42
1.0
 43
10.0
 44
1.0
 47
0.1
 48
0.1
 73
     0
 74
     0
 75
     1
 76
     1
 77
     1
 78
     8
 79
     2
140
3.5
141
0.0
143
0.0393701
146
0.71
147
1.5
172
     1
176
   256
177
   256
178
     2
271
     2
272
     3
274
     4
283
     0
340
10
371
    -1
372
    -1
  0
DIMSTYLE
105
39F
330
A
100
AcDbSymbolTableRecord
100
AcDbDimStyleTableRecord
  2
AM_ISO$SH
 70
     0
  4
"
 41
2.5
 42
1.0
 43
10.0
 44
1.0
 47
0.1
 48
0.1
 73
     0
 74
     0
 75
     1
 76
     1
 77
     1
 78
     8
 79
     2
140
3.5
141
0.0
143
0.0393701
144
2.0
146
0.71
147
1.5
172
     1
173
     1
176
   256
177
   256
178
     2
271
     2
272
     3
274
     4
283
     0
340
10
343
39B
371
    -1
372
    -1
  0
DIMSTYLE
105
1832
330
A
100
AcDbSymbolTableRecord
100
AcDbDimStyleTableRecord
  2
AM_BSI
 70
     0
  4
"
 41
4.0
 42
1.0
 43
10.0
 44
1.0
 47
0.1
 48
0.1
 73
     0
 74
     0
 77
     1
 78
     8
 79
     2
140
3.5
141
0.0
143
0.0393701
146
0.71
147
1.5
172
     1
176
   256
177
   256
178
     2
271
     2
272
     3
274
     4
283
     0
284
     8
340
10
371
    -1
372
    -1
  0
DIMSTYLE
105
1833
330
A
100
AcDbSymbolTableRecord
100
AcDbDimStyleTableRecord
  2
AM_BSI$3
 70
     0
  4
"
 41
4.0
 42
1.0
 43
10.0
 44
1.0
 47
0.1
 48
0.1
 73
     0
 77
     1
 78
     8
 79
     2
140
3.5
141
0.0
143
0.0393701
146
0.71
147
1.5
176
   256
177
   256
178
     2
271
     2
272
     3
274
     4
283
     0
284
     8
288
     1
289
     0
340
10
371
    -1
372
    -1
  0
DIMSTYLE
105
1834
330
A
100
AcDbSymbolTableRecord
100
AcDbDimStyleTableRecord
  2
AM_BSI$4
 70
     0
  4
"
 41
4.0
 42
1.0
 43
10.0
 44
1.0
 47
0.1
 48
0.1
 73
     0
 77
     1
 78
     8
 79
     2
140
3.5
141
0.0
143
0.0393701
146
0.71
147
1.5
176
   256
177
   256
178
     2
271
     2
272
     3
274
     4
283
     0
284
     8
288
     1
289
     0
340
10
371
    -1
372
    -1
  0
DIMSTYLE
105
1835
330
A
100
AcDbSymbolTableRecord
100
AcDbDimStyleTableRecord
  2
AM_BSI$6
 70
     0
  4
"
 41
4.0
 42
1.0
 43
10.0
 44
1.0
 47
0.1
 48
0.1
 73
     0
 74
     0
 78
     8
 79
     2
140
3.5
141
0.0
143
0.0393701
146
0.71
147
1.5
172
     1
176
   256
177
   256
178
     2
271
     2
272
     3
274
     4
283
     0
284
     8
340
10
371
    -1
372
    -1
  0
DIMSTYLE
105
1836
330
A
100
AcDbSymbolTableRecord
100
AcDbDimStyleTableRecord
  2
AM_BSI$7
 70
     0
  4
"
 41
2.5
 42
1.0
 43
10.0
 44
1.0
 47
0.1
 48
0.1
 73
     0
 74
     0
 77
     1
 78
     8
 79
     2
140
5.0
141
0.0
143
0.0393701
146
0.71
147
1.5
172
     1
176
   256
177
   256
178
     2
271
     2
272
     3
274
     4
283
     0
284
     8
340
10
371
    -1
372
    -1
  0
DIMSTYLE
105
1837
330
A
100
AcDbSymbolTableRecord
100
AcDbDimStyleTableRecord
  2
AM_BSI$SF
 70
     0
  4
"
 41
4.0
 42
1.0
 43
10.0
 44
1.0
 47
0.1
 48
0.1
 73
     0
 74
     0
 75
     1
 76
     1
 77
     1
 78
     8
 79
     2
140
3.5
141
0.0
143
0.0393701
146
0.71
147
1.5
172
     1
176
   256
177
   256
178
     2
271
     2
272
     3
274
     4
283
     0
284
     8
340
10
371
    -1
372
    -1
  0
DIMSTYLE
105
1838
330
A
100
AcDbSymbolTableRecord
100
AcDbDimStyleTableRecord
  2
AM_BSI$SH
 70
     0
  4
"
 41
4.0
 42
1.0
 43
10.0
 44
1.0
 47
0.1
 48
0.1
 73
     0
 74
     0
 75
     1
 76
     1
 77
     1
 78
     8
 79
     2
140
3.5
141
0.0
143
0.0393701
144
2.0
146
0.71
147
1.5
172
     1
173
     1
176
   256
177
   256
178
     2
271
     2
272
     3
274
     4
283
     0
284
     8
340
10
343
39B
371
    -1
372
    -1
  0
DIMSTYLE
105
183A
330
A
100
AcDbSymbolTableRecord
100
AcDbDimStyleTableRecord
  2
AM_DIN
 70
     0
  4
"
 41
2.5
 42
1.0
 43
10.0
 44
1.0
 47
0.1
 48
0.1
 73
     0
 74
     0
 77
     1
 78
     8
 79
     2
140
3.5
141
0.0
143
0.0393701
146
0.71
147
1.5
172
     1
176
   256
177
   256
178
     2
271
     2
272
     3
274
     4
283
     0
284
     8
340
10
371
    -1
372
    -1
  0
DIMSTYLE
105
183B
330
A
100
AcDbSymbolTableRecord
100
AcDbDimStyleTableRecord
  2
AM_DIN$3
 70
     0
  4
"
 41
2.5
 42
1.0
 43
10.0
 44
1.0
 47
0.1
 48
0.1
 73
     0
 77
     1
 78
     8
 79
     2
140
3.5
141
0.0
143
0.0393701
146
0.71
147
1.5
176
   256
177
   256
178
     2
271
     2
272
     3
274
     4
283
     0
284
     8
288
     1
289
     0
340
10
371
    -1
372
    -1
  0
DIMSTYLE
105
183C
330
A
100
AcDbSymbolTableRecord
100
AcDbDimStyleTableRecord
  2
AM_DIN$4
 70
     0
  4
"
 41
2.5
 42
1.0
 43
10.0
 44
1.0
 47
0.1
 48
0.1
 73
     0
 77
     1
 78
     8
 79
     2
140
3.5
141
0.0
143
0.0393701
146
0.71
147
1.5
176
   256
177
   256
178
     2
271
     2
272
     3
274
     4
283
     0
284
     8
288
     1
289
     0
340
10
371
    -1
372
    -1
  0
DIMSTYLE
105
183D
330
A
100
AcDbSymbolTableRecord
100
AcDbDimStyleTableRecord
  2
AM_DIN$6
 70
     0
  4
"
 41
2.5
 42
1.0
 43
10.0
 44
1.0
 47
0.1
 48
0.1
 73
     0
 74
     0
 78
     8
 79
     2
140
3.5
141
0.0
143
0.0393701
146
0.71
147
1.5
172
     1
176
   256
177
   256
178
     2
271
     2
272
     3
274
     4
283
     0
284
     8
340
10
371
    -1
372
    -1
  0
DIMSTYLE
105
183E
330
A
100
AcDbSymbolTableRecord
100
AcDbDimStyleTableRecord
  2
AM_DIN$7
 70
     0
  4
"
 41
2.5
 42
1.0
 43
10.0
 44
1.0
 47
0.1
 48
0.1
 73
     0
 74
     0
 77
     1
 78
     8
 79
     2
140
5.0
141
0.0
143
0.0393701
146
0.71
147
1.5
172
     1
176
   256
177
   256
178
     2
271
     2
272
     3
274
     4
283
     0
284
     8
340
10
371
    -1
372
    -1
  0
DIMSTYLE
105
183F
330
A
100
AcDbSymbolTableRecord
100
AcDbDimStyleTableRecord
  2
AM_DIN$SF
 70
     0
  4
"
 41
2.5
 42
1.0
 43
10.0
 44
1.0
 47
0.1
 48
0.1
 73
     0
 74
     0
 75
     1
 76
     1
 77
     1
 78
     8
 79
     2
140
3.5
141
0.0
143
0.0393701
146
0.71
147
1.5
172
     1
176
   256
177
   256
178
     2
271
     2
272
     3
274
     4
283
     0
284
     8
340
10
371
    -1
372
    -1
  0
DIMSTYLE
105
1840
330
A
100
AcDbSymbolTableRecord
100
AcDbDimStyleTableRecord
  2
AM_DIN$SH
 70
     0
  4
"
 41
2.5
 42
1.0
 43
10.0
 44
1.0
 47
0.1
 48
0.1
 73
     0
 74
     0
 75
     1
 76
     1
 77
     1
 78
     8
 79
     2
140
3.5
141
0.0
143
0.0393701
144
2.0
146
0.71
147
1.5
172
     1
173
     1
176
   256
177
   256
178
     2
271
     2
272
     3
274
     4
283
     0
284
     8
340
10
343
39B
371
    -1
372
    -1
  0
DIMSTYLE
105
1843
330
A
100
AcDbSymbolTableRecord
100
AcDbDimStyleTableRecord
  2
AM_JIS
 70
     0
  4
"
 41
2.5
 42
1.0
 43
10.0
 44
1.0
 47
0.1
 48
0.1
 73
     0
 74
     0
 77
     3
 78
     8
 79
     2
140
3.5
141
0.0
143
0.0393701
146
0.71
147
1.5
172
     1
176
   256
177
   256
178
     2
271
     2
272
     3
274
     4
283
     0
284
     8
340
10
341
1844
342
1844
343
1844
344
1844
371
    -1
372
    -1
  0
DIMSTYLE
105
184A
330
A
100
AcDbSymbolTableRecord
100
AcDbDimStyleTableRecord
  2
AM_JIS$3
 70
     0
  4
"
 41
2.5
 42
1.0
 43
10.0
 44
1.0
 47
0.1
 48
0.1
 73
     0
 77
     3
 78
     8
 79
     2
140
3.5
141
0.0
143
0.0393701
146
0.71
147
1.5
176
   256
177
   256
178
     2
271
     2
272
     3
274
     4
283
     0
284
     8
288
     1
289
     0
340
10
341
1844
342
1844
343
1844
344
1844
371
    -1
372
    -1
  0
DIMSTYLE
105
184B
330
A
100
AcDbSymbolTableRecord
100
AcDbDimStyleTableRecord
  2
AM_JIS$4
 70
     0
  4
"
 41
2.5
 42
1.0
 43
10.0
 44
1.0
 47
0.1
 48
0.1
 73
     0
 77
     3
 78
     8
 79
     2
140
3.5
141
0.0
143
0.0393701
146
0.71
147
1.5
176
   256
177
   256
178
     2
271
     2
272
     3
274
     4
283
     0
284
     8
288
     1
289
     0
340
10
341
1844
342
1844
343
1844
344
1844
371
    -1
372
    -1
  0
DIMSTYLE
105
184C
330
A
100
AcDbSymbolTableRecord
100
AcDbDimStyleTableRecord
  2
AM_JIS$6
 70
     0
  4
"
 41
2.5
 42
1.0
 43
10.0
 44
1.0
 47
0.1
 48
0.1
 73
     0
 74
     0
 78
     8
 79
     2
140
3.5
141
0.0
143
0.0393701
146
0.71
147
1.5
172
     1
176
   256
177
   256
178
     2
271
     2
272
     3
274
     4
283
     0
284
     8
340
10
341
1844
342
1844
343
1844
344
1844
371
    -1
372
    -1
  0
DIMSTYLE
105
184D
330
A
100
AcDbSymbolTableRecord
100
AcDbDimStyleTableRecord
  2
AM_JIS$7
 70
     0
  4
"
 41
2.5
 42
1.0
 43
10.0
 44
1.0
 47
0.1
 48
0.1
 73
     0
 74
     0
 77
     3
 78
     8
 79
     2
140
5.0
141
0.0
143
0.0393701
146
0.71
147
1.5
172
     1
176
   256
177
   256
178
     2
271
     2
272
     3
274
     4
283
     0
284
     8
340
10
341
1844
342
1844
343
1844
344
1844
371
    -1
372
    -1
  0
DIMSTYLE
105
184E
330
A
100
AcDbSymbolTableRecord
100
AcDbDimStyleTableRecord
  2
AM_JIS$SF
 70
     0
  4
"
 41
2.5
 42
1.0
 43
10.0
 44
1.0
 47
0.1
 48
0.1
 73
     0
 74
     0
 75
     1
 76
     1
 77
     3
 78
     8
 79
     2
140
3.5
141
0.0
143
0.0393701
146
0.71
147
1.5
172
     1
176
   256
177
   256
178
     2
271
     2
272
     3
274
     4
283
     0
284
     8
340
10
341
1844
342
1844
343
1844
344
1844
371
    -1
372
    -1
  0
DIMSTYLE
105
184F
330
A
100
AcDbSymbolTableRecord
100
AcDbDimStyleTableRecord
  2
AM_JIS$SH
 70
     0
  4
"
 41
2.5
 42
1.0
 43
10.0
 44
1.0
 47
0.1
 48
0.1
 73
     0
 74
     0
 75
     1
 76
     1
 77
     3
 78
     8
 79
     2
140
3.5
141
0.0
143
0.0393701
144
2.0
146
0.71
147
1.5
172
     1
173
     1
176
   256
177
   256
178
     2
271
     2
272
     3
274
     4
283
     0
284
     8
340
10
341
1844
342
1844
343
39B
344
1844
371
    -1
372
    -1
  0
DIMSTYLE
105
1CDB
330
A
100
AcDbSymbolTableRecord
100
AcDbDimStyleTableRecord
  2
GEN-ISO
 70
     0
  4
"
 41
2.5
 42
1.0
 43
7.0
 44
1.0
 47
0.1
 48
0.1
 73
     0
 74
     0
 77
     1
 78
     8
140
3.5
141
0.0
143
0.0393701
146
0.71
147
0.6
172
     1
176
   256
177
   256
178
     2
271
     2
272
     3
274
     4
283
     0
340
10
  0
DIMSTYLE
105
1D07
330
A
100
AcDbSymbolTableRecord
100
AcDbDimStyleTableRecord
  2
AM_ANSI
 70
     0
  4
"
 41
2.5
 42
1.0
 43
10.0
 44
1.0
 47
0.1
 48
0.1
 78
     8
 79
     2
140
3.5
141
0.0
143
0.0393701
146
0.71
147
1.5
176
   256
177
   256
178
     2
271
     2
272
     3
274
     4
284
     8
340
10
371
    -1
372
    -1
  0
DIMSTYLE
105
1D08
330
A
100
AcDbSymbolTableRecord
100
AcDbDimStyleTableRecord
  2
AM_ANSI$3
 70
     0
  4
"
 41
2.5
 42
1.0
 43
10.0
 44
1.0
 47
0.1
 48
0.1
 78
     8
 79
     2
140
3.5
141
0.0
143
0.0393701
146
0.71
147
1.5
176
   256
177
   256
178
     2
271
     2
272
     3
274
     4
284
     8
288
     1
289
     0
340
10
371
    -1
372
    -1
  0
DIMSTYLE
105
1D09
330
A
100
AcDbSymbolTableRecord
100
AcDbDimStyleTableRecord
  2
AM_ANSI$4
 70
     0
  4
"
 41
2.5
 42
1.0
 43
10.0
 44
1.0
 47
0.1
 48
0.1
 78
     8
 79
     2
140
3.5
141
0.0
143
0.0393701
146
0.71
147
1.5
176
   256
177
   256
178
     2
271
     2
272
     3
274
     4
284
     8
288
     1
289
     0
340
10
371
    -1
372
    -1
  0
DIMSTYLE
105
1D0A
330
A
100
AcDbSymbolTableRecord
100
AcDbDimStyleTableRecord
  2
AM_ANSI$7
 70
     0
  4
"
 41
2.5
 42
1.0
 43
10.0
 44
1.0
 47
0.1
 48
0.1
 78
     8
 79
     2
140
5.0
141
0.0
143
0.0393701
146
0.71
147
1.5
176
   256
177
   256
178
     2
271
     2
272
     3
274
     4
284
     8
340
10
371
    -1
372
    -1
  0
DIMSTYLE
105
1D0B
330
A
100
AcDbSymbolTableRecord
100
AcDbDimStyleTableRecord
  2
AM_ANSI$SF
 70
     0
  4
"
 41
2.5
 42
1.0
 43
10.0
 44
1.0
 47
0.1
 48
0.1
 75
     1
 76
     1
 78
     8
 79
     2
140
3.5
141
0.0
143
0.0393701
146
0.71
147
1.5
176
   256
177
   256
178
     2
271
     2
272
     3
274
     4
284
     8
340
10
371
    -1
372
    -1
  0
DIMSTYLE
105
1D0C
330
A
100
AcDbSymbolTableRecord
100
AcDbDimStyleTableRecord
  2
AM_ANSI$SH
 70
     0
  4
"
 41
2.5
 42
1.0
 43
10.0
 44
1.0
 47
0.1
 48
0.1
 75
     1
 76
     1
 78
     8
 79
     2
140
3.5
141
0.0
143
0.0393701
146
0.71
147
1.5
173
     1
176
   256
177
   256
178
     2
271
     2
272
     3
274
     4
284
     8
340
10
371
    -1
372
    -1
  0
ENDTAB
  0
TABLE
  2
BLOCK_RECORD
  5
1
330
0
100
AcDbSymbolTable
 70
    30
  0
BLOCK_RECORD
  5
1A
102
{ACAD_XDICTIONARY
360
12A
102
}
330
1
100
AcDbSymbolTableRecord
100
AcDbBlockTableRecord
  2
*MODEL_SPACE
340
169
 70
     0
280
     1
281
     0
  0
BLOCK_RECORD
  5
17
330
1
100
AcDbSymbolTableRecord
100
AcDbBlockTableRecord
  2
*PAPER_SPACE
340
16A
 70
     0
280
     1
281
     0
  0
BLOCK_RECORD
  5
DE
330
1
100
AcDbSymbolTableRecord
100
AcDbBlockTableRecord
  2
*U0
340
0
 70
     0
280
     1
281
     0
  0
BLOCK_RECORD
  5
34D
330
1
100
AcDbSymbolTableRecord
100
AcDbBlockTableRecord
  2
*Paper_Space1
340
351
 70
     0
280
     1
281
     0
  0
BLOCK_RECORD
  5
313
330
1
100
AcDbSymbolTableRecord
100
AcDbBlockTableRecord
  2
*Paper_Space2
340
314
 70
     0
280
     1
281
     0
  0
BLOCK_RECORD
  5
2E0
330
1
100
AcDbSymbolTableRecord
100
AcDbBlockTableRecord
  2
*Paper_Space3
340
2E1
 70
     0
280
     1
281
     0
  0
BLOCK_RECORD
  5
345
330
1
100
AcDbSymbolTableRecord
100
AcDbBlockTableRecord
  2
*Paper_Space4
340
349
 70
     0
280
     1
281
     0
  0
BLOCK_RECORD
  5
36E
330
1
100
AcDbSymbolTableRecord
100
AcDbBlockTableRecord
  2
*U5
340
0
102
{BLKREFS
331
379
102
}
 70
     0
280
     1
281
     0
  0
BLOCK_RECORD
  5
372
330
1
100
AcDbSymbolTableRecord
100
AcDbBlockTableRecord
  2
*U6
340
0
102
{BLKREFS
331
37A
102
}
 70
     0
280
     1
281
     0
  0
BLOCK_RECORD
  5
37E
330
1
100
AcDbSymbolTableRecord
100
AcDbBlockTableRecord
  2
*U7
340
0
102
{BLKREFS
331
389
102
}
 70
     0
280
     1
281
     0
  0
BLOCK_RECORD
  5
382
330
1
100
AcDbSymbolTableRecord
100
AcDbBlockTableRecord
  2
*U8
340
0
102
{BLKREFS
331
38A
102
}
 70
     0
280
     1
281
     0
  0
BLOCK_RECORD
  5
39B
330
1
100
AcDbSymbolTableRecord
100
AcDbBlockTableRecord
  2
GENAXEH
340
0
 70
     0
280
     1
281
     0
  0
BLOCK_RECORD
  5
3F8
330
1
100
AcDbSymbolTableRecord
100
AcDbBlockTableRecord
  2
AVE_RENDER
340
0
102
{BLKREFS
331
3FB
331
3FC
331
3FD
331
3FE
331
3FF
331
400
331
401
331
402
102
}
 70
     0
280
     1
281
     0
  0
BLOCK_RECORD
  5
406
330
1
100
AcDbSymbolTableRecord
100
AcDbBlockTableRecord
  2
AVE_GLOBAL
340
0
102
{BLKREFS
331
409
102
}
 70
     0
280
     1
281
     0
  0
BLOCK_RECORD
  5
594
330
1
100
AcDbSymbolTableRecord
100
AcDbBlockTableRecord
  2
*U12
340
0
 70
     0
280
     1
281
     0
  0
BLOCK_RECORD
  5
5E5
330
1
100
AcDbSymbolTableRecord
100
AcDbBlockTableRecord
  2
*U13
340
0
 70
     0
280
     1
281
     0
  0
BLOCK_RECORD
  5
1366
330
1
100
AcDbSymbolTableRecord
100
AcDbBlockTableRecord
  2
GENDOT
340
0
 70
     0
280
     1
281
     0
  0
BLOCK_RECORD
  5
1844
330
1
100
AcDbSymbolTableRecord
100
AcDbBlockTableRecord
  2
_Open30
340
0
 70
     0
280
     1
281
     0
  0
BLOCK_RECORD
  5
19D9
330
1
100
AcDbSymbolTableRecord
100
AcDbBlockTableRecord
  2
A$C53844914
340
0
 70
     0
280
     1
281
     0
  0
BLOCK_RECORD
  5
1A0A
330
1
100
AcDbSymbolTableRecord
100
AcDbBlockTableRecord
  2
A$C25AB59F1
340
0
 70
     0
280
     1
281
     0
  0
BLOCK_RECORD
  5
1A63
330
1
100
AcDbSymbolTableRecord
100
AcDbBlockTableRecord
  2
*D18
340
0
 70
     0
280
     1
281
     0
  0
BLOCK_RECORD
  5
1ABD
330
1
100
AcDbSymbolTableRecord
100
AcDbBlockTableRecord
  2
*D19
340
0
 70
     0
280
     1
281
     0
  0
BLOCK_RECORD
  5
1B00
330
1
100
AcDbSymbolTableRecord
100
AcDbBlockTableRecord
  2
*D20
340
0
 70
     0
280
     1
281
     0
  0
BLOCK_RECORD
  5
1B4E
330
1
100
AcDbSymbolTableRecord
100
AcDbBlockTableRecord
  2
*D21
340
0
 70
     0
280
     1
281
     0
  0
BLOCK_RECORD
  5
1B8D
330
1
100
AcDbSymbolTableRecord
100
AcDbBlockTableRecord
  2
*D22
340
0
 70
     0
280
     1
281
     0
  0
BLOCK_RECORD
  5
1BCC
330
1
100
AcDbSymbolTableRecord
100
AcDbBlockTableRecord
  2
*D23
340
0
 70
     0
280
     1
281
     0
  0
BLOCK_RECORD
  5
1C0B
330
1
100
AcDbSymbolTableRecord
100
AcDbBlockTableRecord
  2
*D24
340
0
 70
     0
280
     1
281
     0
  0
BLOCK_RECORD
  5
1C75
330
1
100
AcDbSymbolTableRecord
100
AcDbBlockTableRecord
  2
SCHUTZR1
340
0
 70
     0
280
     1
281
     0
  0
BLOCK_RECORD
  5
1C7A
330
1
100
AcDbSymbolTableRecord
100
AcDbBlockTableRecord
  2
GLUTZ1
340
0
102
{BLKREFS
331
1D21
102
}
 70
     0
280
     1
281
     0
  0
BLOCK_RECORD
  5
1CEC
330
1
100
AcDbSymbolTableRecord
100
AcDbBlockTableRecord
  2
ISO_A4
340
0
 70
     0
280
     1
281
     0
  0
BLOCK_RECORD
  5
1D0E
330
1
100
AcDbSymbolTableRecord
100
AcDbBlockTableRecord
  2
ISO_TITLEB
340
0
 70
     0
280
     1
281
     0
  0
ENDTAB
  0
ENDSEC
  0
SECTION
  2
BLOCKS
  0
BLOCK
  5
1B
330
1A
100
AcDbEntity
  8
0
100
AcDbBlockBegin
  2
*MODEL_SPACE
 70
     0
 10
0.0
 20
0.0
 30
0.0
  3
*MODEL_SPACE
  1

  0
ENDBLK
  5
1C
330
1A
100
AcDbEntity
  8
0
100
AcDbBlockEnd
  0
BLOCK
  5
18
330
17
100
AcDbEntity
 67
     1
  8
0
100
AcDbBlockBegin
  2
*PAPER_SPACE
 70
     0
 10
0.0
 20
0.0
 30
0.0
  3
*PAPER_SPACE
  1

  0
ENDBLK
  5
19
330
17
100
AcDbEntity
 67
     1
  8
0
100
AcDbBlockEnd
  0
BLOCK
  5
DF
330
DE
100
AcDbEntity
  8
0
100
AcDbBlockBegin
  2
*U0
 70
     1
 10
0.0
 20
0.0
 30
0.0
  3
*U0
  1

  0
ENDBLK
  5
E0
330
DE
100
AcDbEntity
  8
0
100
AcDbBlockEnd
  0
BLOCK
  5
34F
330
34D
100
AcDbEntity
 67
     1
  8
0
100
AcDbBlockBegin
  2
*Paper_Space1
 70
     0
 10
0.0
 20
0.0
 30
0.0
  3
*Paper_Space1
  1

  0
VIEWPORT
  5
34E
330
34D
100
AcDbEntity
 67
     1
  8
AM_VIEWS
100
AcDbViewport
 10
577.468994140625
 20
415.4593176841736
 30
0.0
 40
1195.734595476714
 41
932.8590910236622
 68
     0
 69
     0
 12
577.468994140625
 22
415.4593176841736
 13
0.0
 23
0.0
 14
10.0
 24
10.0
 15
10.0
 25
10.0
 16
0.0
 26
0.0
 36
1.0
 17
0.0
 27
0.0
 37
0.0
 42
50.0
 43
0.0
 44
0.0
 45
932.8590910236622
 50
0.0
 51
0.0
 72
   100
331
1969
 90
    32800
  1

281
     0
 71
     1
 74
     0
110
0.0
120
0.0
130
0.0
111
1.0
121
0.0
131
0.0
112
0.0
122
1.0
132
0.0
 79
     0
146
0.0
170
     0
 61
     5
348
1EA0
292
     1
282
     1
141
0.0
142
0.0
 63
   250
421
  3355443
  0
ENDBLK
  5
350
330
34D
100
AcDbEntity
 67
     1
  8
0
100
AcDbBlockEnd
  0
BLOCK
  5
315
330
313
100
AcDbEntity
 67
     1
  8
0
100
AcDbBlockBegin
  2
*Paper_Space2
 70
     0
 10
0.0
 20
0.0
 30
0.0
  3
*Paper_Space2
  1

  0
VIEWPORT
  5
344
330
313
100
AcDbEntity
 67
     1
  8
AM_VIEWS
100
AcDbViewport
 10
279.9926452636719
 20
204.9779944419861
 30
0.0
 40
597.3137355517764
 41
465.9976808487594
 68
     0
 69
     0
 12
279.9926452636719
 22
204.9779944419861
 13
0.0
 23
0.0
 14
10.0
 24
10.0
 15
10.0
 25
10.0
 16
0.0
 26
0.0
 36
1.0
 17
0.0
 27
0.0
 37
0.0
 42
50.0
 43
0.0
 44
0.0
 45
465.9976808487594
 50
0.0
 51
0.0
 72
   100
331
1969
 90
    32800
  1

281
     0
 71
     1
 74
     0
110
0.0
120
0.0
130
0.0
111
1.0
121
0.0
131
0.0
112
0.0
122
1.0
132
0.0
 79
     0
146
0.0
170
     0
 61
     5
348
1EA0
292
     1
282
     1
141
0.0
142
0.0
 63
   250
421
  3355443
  0
ENDBLK
  5
316
330
313
100
AcDbEntity
 67
     1
  8
0
100
AcDbBlockEnd
  0
BLOCK
  5
2E2
330
2E0
100
AcDbEntity
 67
     1
  8
0
100
AcDbBlockBegin
  2
*Paper_Space3
 70
     0
 10
0.0
 20
0.0
 30
0.0
  3
*Paper_Space3
  1

  0
VIEWPORT
  5
31D
330
2E0
100
AcDbEntity
 67
     1
  8
AM_VIEWS
100
AcDbViewport
 10
204.9674224853516
 20
143.4782419204712
 30
0.0
 40
422.4372280469156
 41
329.5667868615042
 68
     0
 69
     0
 12
204.9674224853516
 22
143.4782419204712
 13
0.0
 23
0.0
 14
10.0
 24
10.0
 15
10.0
 25
10.0
 16
0.0
 26
0.0
 36
1.0
 17
0.0
 27
0.0
 37
0.0
 42
50.0
 43
0.0
 44
0.0
 45
329.5667868615042
 50
0.0
 51
0.0
 72
   100
331
1969
 90
    32800
  1

281
     0
 71
     1
 74
     0
110
0.0
120
0.0
130
0.0
111
1.0
121
0.0
131
0.0
112
0.0
122
1.0
132
0.0
 79
     0
146
0.0
170
     0
 61
     5
348
1EA0
292
     1
282
     1
141
0.0
142
0.0
 63
   250
421
  3355443
  0
ENDBLK
  5
2E3
330
2E0
100
AcDbEntity
 67
     1
  8
0
100
AcDbBlockEnd
  0
BLOCK
  5
347
330
345
100
AcDbEntity
 67
     1
  8
0
100
AcDbBlockBegin
  2
*Paper_Space4
 70
     0
 10
0.0
 20
0.0
 30
0.0
  3
*Paper_Space4
  1

  0
VIEWPORT
  5
346
330
345
100
AcDbEntity
 67
     1
  8
AM_VIEWS
100
AcDbViewport
 10
279.9926452636719
 20
204.9779944419861
 30
0.0
 40
597.3137355517764
 41
465.9976808487594
 68
     0
 69
     0
 12
279.9926452636719
 22
204.9779944419861
 13
0.0
 23
0.0
 14
10.0
 24
10.0
 15
10.0
 25
10.0
 16
0.0
 26
0.0
 36
1.0
 17
0.0
 27
0.0
 37
0.0
 42
50.0
 43
0.0
 44
0.0
 45
465.9976808487594
 50
0.0
 51
0.0
 72
   100
331
1969
 90
    32800
  1

281
     0
 71
     1
 74
     0
110
0.0
120
0.0
130
0.0
111
1.0
121
0.0
131
0.0
112
0.0
122
1.0
132
0.0
 79
     0
146
0.0
170
     0
 61
     5
348
1EA0
292
     1
282
     1
141
0.0
142
0.0
 63
   250
421
  3355443
  0
ENDBLK
  5
348
330
345
100
AcDbEntity
 67
     1
  8
0
100
AcDbBlockEnd
  0
BLOCK
  5
36F
330
36E
100
AcDbEntity
  8
0
100
AcDbBlockBegin
  2
*U5
 70
     1
 10
0.0
 20
0.0
 30
0.0
  3
*U5
  1

  0
ENDBLK
  5
370
330
36E
100
AcDbEntity
  8
0
100
AcDbBlockEnd
  0
BLOCK
  5
373
330
372
100
AcDbEntity
  8
0
100
AcDbBlockBegin
  2
*U6
 70
     1
 10
0.0
 20
0.0
 30
0.0
  3
*U6
  1

  0
ENDBLK
  5
374
330
372
100
AcDbEntity
  8
0
100
AcDbBlockEnd
  0
BLOCK
  5
37F
330
37E
100
AcDbEntity
  8
0
100
AcDbBlockBegin
  2
*U7
 70
     1
 10
0.0
 20
0.0
 30
0.0
  3
*U7
  1

  0
ENDBLK
  5
380
330
37E
100
AcDbEntity
  8
0
100
AcDbBlockEnd
  0
BLOCK
  5
383
330
382
100
AcDbEntity
  8
0
100
AcDbBlockBegin
  2
*U8
 70
     1
 10
0.0
 20
0.0
 30
0.0
  3
*U8
  1

  0
ENDBLK
  5
384
330
382
100
AcDbEntity
  8
0
100
AcDbBlockEnd
  0
BLOCK
  5
39D
330
39B
100
AcDbEntity
  8
0
100
AcDbBlockBegin
  2
GENAXEH
 70
     0
 10
0.0
 20
0.0
 30
0.0
  3
GENAXEH
  1

  0
LINE
  5
39C
330
39B
100
AcDbEntity
  8
0
100
AcDbLine
 10
-1.0
 20
0.0
 30
0.0
 11
1.0
 21
0.0
 31
0.0
  0
ENDBLK
  5
39E
330
39B
100
AcDbEntity
  8
0
100
AcDbBlockEnd
  0
BLOCK
  5
3F9
330
3F8
100
AcDbEntity
  8
ASHADE
100
AcDbBlockBegin
  2
AVE_RENDER
 70
     0
 10
0.0
 20
0.0
 30
0.0
  3
AVE_RENDER
  1
AVE_RENDER
  0
ENDBLK
  5
3FA
330
3F8
100
AcDbEntity
  8
0
100
AcDbBlockEnd
  0
BLOCK
  5
407
330
406
100
AcDbEntity
  8
ASHADE
100
AcDbBlockBegin
  2
AVE_GLOBAL
 70
     0
 10
0.0
 20
0.0
 30
0.0
  3
AVE_GLOBAL
  1
AVE_GLOBAL
  0
ENDBLK
  5
408
330
406
100
AcDbEntity
  8
0
100
AcDbBlockEnd
  0
BLOCK
  5
595
330
594
100
AcDbEntity
  8
0
100
AcDbBlockBegin
  2
*U12
 70
     1
 10
0.0
 20
0.0
 30
0.0
  3
*U12
  1

  0
ENDBLK
  5
596
330
594
100
AcDbEntity
  8
0
100
AcDbBlockEnd
  0
BLOCK
  5
5E6
330
5E5
100
AcDbEntity
  8
0
100
AcDbBlockBegin
  2
*U13
 70
     1
 10
0.0
 20
0.0
 30
0.0
  3
*U13
  1

  0
ENDBLK
  5
5E7
330
5E5
100
AcDbEntity
  8
0
100
AcDbBlockEnd
  0
BLOCK
  5
1369
330
1366
100
AcDbEntity
  8
0
100
AcDbBlockBegin
  2
GENDOT
 70
     0
 10
0.0
 20
0.0
 30
0.0
  3
GENDOT
  1

  0
LINE
  5
1367
330
1366
100
AcDbEntity
  8
0
100
AcDbLine
 10
0.0
 20
0.0
 30
0.0
 11
-1.0
 21
0.0
 31
0.0
  0
LWPOLYLINE
  5
1368
330
1366
100
AcDbEntity
  8
0
100
AcDbPolyline
 90
        2
 70
     1
 43
0.25
 10
-0.125
 20
0.0
 42
1.0
 10
0.125
 20
0.0
 42
1.0
  0
ENDBLK
  5
136A
330
1366
100
AcDbEntity
  8
0
100
AcDbBlockEnd
  0
BLOCK
  5
1848
330
1844
100
AcDbEntity
  8
0
100
AcDbBlockBegin
  2
_Open30
 70
     0
 10
0.0
 20
0.0
 30
0.0
  3
_Open30
  1

  0
LINE
  5
1845
330
1844
100
AcDbEntity
  8
0
  6
ByBlock
 62
     0
370
    -2
100
AcDbLine
 10
-1.0
 20
0.26794919
 30
0.0
 11
0.0
 21
0.0
 31
0.0
  0
LINE
  5
1846
330
1844
100
AcDbEntity
  8
0
  6
ByBlock
 62
     0
370
    -2
100
AcDbLine
 10
0.0
 20
0.0
 30
0.0
 11
-1.0
 21
-0.26794919
 31
0.0
  0
LINE
  5
1847
330
1844
100
AcDbEntity
  8
0
  6
ByBlock
 62
     0
370
    -2
100
AcDbLine
 10
0.0
 20
0.0
 30
0.0
 11
-1.0
 21
0.0
 31
0.0
  0
ENDBLK
  5
1849
330
1844
100
AcDbEntity
  8
0
100
AcDbBlockEnd
  0
BLOCK
  5
19F2
330
19D9
100
AcDbEntity
  8
0
100
AcDbBlockBegin
  2
A$C53844914
 70
     0
 10
0.0
 20
0.0
 30
0.0
  3
A$C53844914
  1

  0
ARC
  5
19DA
330
19D9
100
AcDbEntity
  8
1
100
AcDbCircle
 10
13.75000154656544
 20
111.5304487503958
 30
0.0
 40
13.749999
100
AcDbArc
 50
359.9999679999998
 51
180.0
  0
LINE
  5
19DB
330
19D9
100
AcDbEntity
  8
7
  6
GEN7A
100
AcDbLine
 10
13.75000354656544
 20
-0.0000002496041347
 30
0.0
 11
13.75000354656544
 21
127.6062387503958
 31
0.0
  0
CIRCLE
  5
19DC
330
19D9
100
AcDbEntity
  8
0
  6
CONTINU
 62
     3
100
AcDbCircle
 10
8.500003546565437
 20
114.7804487503958
 30
0.0
 40
1.8
  0
CIRCLE
  5
19DD
330
19D9
100
AcDbEntity
  8
0
  6
CONTINU
 62
     3
100
AcDbCircle
 10
19.00000454656543
 20
114.7804487503958
 30
0.0
 40
1.8
  0
LINE
  5
19DE
330
19D9
100
AcDbEntity
  8
7
  6
GEN7A
100
AcDbLine
 10
8.500003546565437
 20
110.1053237503959
 30
0.0
 11
8.500003546565437
 21
118.9668047503958
 31
0.0
  0
LINE
  5
19DF
330
19D9
100
AcDbEntity
  8
7
  6
GEN7A
100
AcDbLine
 10
19.00000454656543
 20
110.1053237503959
 30
0.0
 11
19.00000454656543
 21
118.9668047503958
 31
0.0
  0
CIRCLE
  5
19E0
330
19D9
100
AcDbEntity
  8
1
100
AcDbCircle
 10
13.75000354656544
 20
79.28044875039586
 30
0.0
 40
5.0
  0
CIRCLE
  5
19E1
330
19D9
100
AcDbEntity
  8
1
100
AcDbCircle
 10
13.75000354656544
 20
79.28044875039586
 30
0.0
 40
4.0
  0
ARC
  5
19E2
330
19D9
100
AcDbEntity
  8
1
100
AcDbCircle
 10
13.75000154656544
 20
14.03044075039586
 30
0.0
 40
13.749999
100
AcDbArc
 50
180.0
 51
0.0
  0
LINE
  5
19E3
330
19D9
100
AcDbEntity
  8
7
  6
GEN7A
100
AcDbLine
 10
5.275469546565437
 20
79.28044875039586
 30
0.0
 11
21.44452254656544
 21
79.28044875039586
 31
0.0
  0
LINE
  5
19E4
330
19D9
100
AcDbEntity
  8
7
  6
GEN7A
100
AcDbLine
 10
4.939409546565437
 20
114.7804487503958
 30
0.0
 11
23.09714854656544
 21
114.7804487503958
 31
0.0
  0
LINE
  5
19E5
330
19D9
100
AcDbEntity
  8
7
  6
GEN7A
100
AcDbLine
 10
4.706812546565437
 20
40.28044475039586
 30
0.0
 11
23.15492554656544
 21
40.28044475039586
 31
0.0
  0
LINE
  5
19E6
330
19D9
100
AcDbEntity
  8
7
  6
GEN7A
100
AcDbLine
 10
4.249407546565437
 20
10.78044075039586
 30
0.0
 11
23.15490354656544
 21
10.78044075039586
 31
0.0
  0
CIRCLE
  5
19E7
330
19D9
100
AcDbEntity
  8
1
100
AcDbCircle
 10
13.75000354656544
 20
40.28044475039586
 30
0.0
 40
5.625
  0
LINE
  5
19E8
330
19D9
100
AcDbEntity
  8
1
100
AcDbLine
 10
-0.0000004534345623
 20
14.03044075039586
 30
0.0
 11
-0.0000004534345623
 21
111.5304487503958
 31
0.0
  0
LINE
  5
19E9
330
19D9
100
AcDbEntity
  8
7
  6
GEN7A
100
AcDbLine
 10
8.500003546565437
 20
6.809493750395866
 30
0.0
 11
8.500003546565437
 21
15.78511375039586
 31
0.0
  0
CIRCLE
  5
19EA
330
19D9
100
AcDbEntity
  8
0
  6
CONTINU
 62
     3
100
AcDbCircle
 10
8.500003546565437
 20
10.78044075039586
 30
0.0
 40
1.8
  0
CIRCLE
  5
19EB
330
19D9
100
AcDbEntity
  8
0
  6
CONTINU
 62
     3
100
AcDbCircle
 10
8.500003546565437
 20
10.78044075039586
 30
0.0
 40
1.324999999999999
  0
CIRCLE
  5
19EC
330
19D9
100
AcDbEntity
  8
0
  6
CONTINU
 62
     3
100
AcDbCircle
 10
8.500003546565437
 20
114.7804487503958
 30
0.0
 40
1.324999999999999
  0
LINE
  5
19ED
330
19D9
100
AcDbEntity
  8
1
100
AcDbLine
 10
27.50000354656544
 20
111.5304487503958
 30
0.0
 11
27.50000354656544
 21
14.03044075039586
 31
0.0
  0
LINE
  5
19EE
330
19D9
100
AcDbEntity
  8
7
  6
GEN7A
100
AcDbLine
 10
19.00000454656543
 20
6.809493750395866
 30
0.0
 11
19.00000454656543
 21
15.78511375039586
 31
0.0
  0
CIRCLE
  5
19EF
330
19D9
100
AcDbEntity
  8
0
  6
CONTINU
 62
     3
100
AcDbCircle
 10
19.00000454656543
 20
10.78044075039586
 30
0.0
 40
1.324999999999999
  0
CIRCLE
  5
19F0
330
19D9
100
AcDbEntity
  8
0
  6
CONTINU
 62
     3
100
AcDbCircle
 10
19.00000454656543
 20
10.78044075039586
 30
0.0
 40
1.8
  0
CIRCLE
  5
19F1
330
19D9
100
AcDbEntity
  8
0
  6
CONTINU
 62
     3
100
AcDbCircle
 10
19.00000454656543
 20
114.7804487503958
 30
0.0
 40
1.324999999999999
  0
ENDBLK
  5
19F3
330
19D9
100
AcDbEntity
  8
0
100
AcDbBlockEnd
  0
BLOCK
  5
1A10
330
1A0A
100
AcDbEntity
  8
0
100
AcDbBlockBegin
  2
A$C25AB59F1
 70
     0
 10
0.0
 20
0.0
 30
0.0
  3
A$C25AB59F1
  1

  0
ARC
  5
1A0B
330
1A0A
100
AcDbEntity
  8
1
100
AcDbCircle
 10
8.728074767139958
 20
25.24999911740679
 30
0.0
 40
8.75
100
AcDbArc
 50
306.8698976458434
 51
233.1301023541566
  0
LINE
  5
1A0C
330
1A0A
100
AcDbEntity
  8
1
100
AcDbLine
 10
3.478074767139958
 20
5.249999117406773
 30
0.0
 11
3.478074767139958
 21
18.24999911740679
 31
0.0
  0
LINE
  5
1A0D
330
1A0A
100
AcDbEntity
  8
1
100
AcDbLine
 10
13.97807476713996
 20
5.254494043819818
 30
0.0
 11
13.97807476713996
 21
18.24999911740679
 31
0.0
  0
LINE
  5
1A0E
330
1A0A
100
AcDbEntity
  8
7A
100
AcDbLine
 10
18.13201440897114
 20
5.249999117406773
 30
0.0
 11
0.4298794245155478
 21
5.249999117406773
 31
0.0
1001
GENIUS_GENODEF_13
1002
{
1000
HIER
1070
     0
1002
}
1002
{
1000
MANEDIT
1070
     0
1002
}
1002
{
1000
NOSEL
1070
     0
1002
}
1002
{
1000
BEHIND
1070
     0
1002
}
1002
{
1000
OTHER
1070
     0
1002
}
1002
{
1000
REACTOR
1002
}
1001
GENIUS_GENOBJ-N-CEN_13
1002
{
1000
OWNER
1000
GEN
1002
}
  0
ARC
  5
1A0F
330
1A0A
100
AcDbEntity
  8
1
100
AcDbCircle
 10
8.728076691365401
 20
5.249999117406773
 30
0.0
 40
5.25
100
AcDbArc
 50
180.0
 51
0.0490553036479662
  0
ENDBLK
  5
1A11
330
1A0A
100
AcDbEntity
  8
0
100
AcDbBlockEnd
  0
BLOCK
  5
1A6D
330
1A63
100
AcDbEntity
  8
0
100
AcDbBlockBegin
  2
*D18
 70
     1
 10
0.0
 20
0.0
 30
0.0
  3
*D18
  1

  0
LINE
  5
1DDD
330
1A63
100
AcDbEntity
  8
AM_5
100
AcDbLine
 10
128.5649298226813
 20
282.1290386778746
 30
0.0
 11
128.5649298226813
 21
325.4079076778746
 31
0.0
  0
LINE
  5
1DDE
330
1A63
100
AcDbEntity
  8
AM_5
100
AcDbLine
 10
149.5649318226813
 20
282.1290386778746
 30
0.0
 11
149.5649318226813
 21
325.4079076778746
 31
0.0
  0
LINE
  5
1DDF
330
1A63
100
AcDbEntity
  8
AM_5
100
AcDbLine
 10
133.5649298226813
 20
323.4079076778746
 30
0.0
 11
144.5649318226813
 21
323.4079076778746
 31
0.0
  0
SOLID
  5
1DE0
330
1A63
100
AcDbEntity
  8
AM_5
100
AcDbTrace
 10
133.5649298226813
 20
324.2412410112079
 30
0.0
 11
133.5649298226813
 21
322.5745743445413
 31
0.0
 12
128.5649298226813
 22
323.4079076778746
 32
0.0
 13
128.5649298226813
 23
323.4079076778746
 33
0.0
  0
SOLID
  5
1DE1
330
1A63
100
AcDbEntity
  8
AM_5
100
AcDbTrace
 10
144.5649318226813
 20
324.2412410112079
 30
0.0
 11
144.5649318226813
 21
322.5745743445413
 31
0.0
 12
149.5649318226813
 22
323.4079076778746
 32
0.0
 13
149.5649318226813
 23
323.4079076778746
 33
0.0
  0
MTEXT
  5
1DE2
330
1A63
100
AcDbEntity
  8
AM_5
 62
     2
100
AcDbMText
 10
139.0649308226813
 20
329.9085966542526
 30
0.0
 40
7.0
 41
0.0
 46
0.0
 71
     5
 72
     1
  1
21
 73
     1
 44
1.0
  0
POINT
  5
1DE3
330
1A63
100
AcDbEntity
  8
Defpoints
 62
     0
100
AcDbPoint
 10
128.5649298226813
 20
282.1290386778746
 30
0.0
  0
POINT
  5
1DE4
330
1A63
100
AcDbEntity
  8
Defpoints
 62
     0
100
AcDbPoint
 10
149.5649318226813
 20
282.1290386778746
 30
0.0
  0
POINT
  5
1DE5
330
1A63
100
AcDbEntity
  8
Defpoints
 62
     0
100
AcDbPoint
 10
149.5649318226813
 20
323.4079076778746
 30
0.0
  0
ENDBLK
  5
1A6E
330
1A63
100
AcDbEntity
  8
0
100
AcDbBlockEnd
  0
BLOCK
  5
1AC7
330
1ABD
100
AcDbEntity
  8
0
100
AcDbBlockBegin
  2
*D19
 70
     1
 10
0.0
 20
0.0
 30
0.0
  3
*D19
  1

  0
LINE
  5
1DE6
330
1ABD
100
AcDbEntity
  8
AM_5
100
AcDbLine
 10
111.5649218226813
 20
72.25631067787464
 30
0.0
 11
111.5649218226813
 21
18.19542767787467
 31
0.0
  0
LINE
  5
1DE7
330
1ABD
100
AcDbEntity
  8
AM_5
100
AcDbLine
 10
166.5649238226813
 20
72.25631067787464
 30
0.0
 11
166.5649238226813
 21
18.19542767787467
 31
0.0
  0
LINE
  5
1DE8
330
1ABD
100
AcDbEntity
  8
AM_5
100
AcDbLine
 10
116.5649218226813
 20
20.19542767787467
 30
0.0
 11
161.5649238226813
 21
20.19542767787467
 31
0.0
  0
SOLID
  5
1DE9
330
1ABD
100
AcDbEntity
  8
AM_5
100
AcDbTrace
 10
116.5649218226813
 20
21.028761011208
 30
0.0
 11
116.5649218226813
 21
19.36209434454134
 31
0.0
 12
111.5649218226813
 22
20.19542767787467
 32
0.0
 13
111.5649218226813
 23
20.19542767787467
 33
0.0
  0
SOLID
  5
1DEA
330
1ABD
100
AcDbEntity
  8
AM_5
100
AcDbTrace
 10
161.5649238226813
 20
21.028761011208
 30
0.0
 11
161.5649238226813
 21
19.36209434454134
 31
0.0
 12
166.5649238226813
 22
20.19542767787467
 32
0.0
 13
166.5649238226813
 23
20.19542767787467
 33
0.0
  0
MTEXT
  5
1DEB
330
1ABD
100
AcDbEntity
  8
AM_5
 62
     2
100
AcDbMText
 10
139.0649228226813
 20
26.69542767787467
 30
0.0
 40
7.0
 41
0.0
 46
0.0
 71
     5
 72
     1
  1
55
 73
     1
 44
1.0
  0
POINT
  5
1DEC
330
1ABD
100
AcDbEntity
  8
Defpoints
 62
     0
100
AcDbPoint
 10
111.5649218226813
 20
72.25631067787464
 30
0.0
  0
POINT
  5
1DED
330
1ABD
100
AcDbEntity
  8
Defpoints
 62
     0
100
AcDbPoint
 10
166.5649238226813
 20
72.25631067787464
 30
0.0
  0
POINT
  5
1DEE
330
1ABD
100
AcDbEntity
  8
Defpoints
 62
     0
100
AcDbPoint
 10
166.5649238226813
 20
20.19542767787467
 30
0.0
  0
ENDBLK
  5
1AC8
330
1ABD
100
AcDbEntity
  8
0
100
AcDbBlockEnd
  0
BLOCK
  5
1B0A
330
1B00
100
AcDbEntity
  8
0
100
AcDbBlockBegin
  2
*D20
 70
     1
 10
0.0
 20
0.0
 30
0.0
  3
*D20
  1

  0
LINE
  5
1DEF
330
1B00
100
AcDbEntity
  8
AM_5
100
AcDbLine
 10
157.7592198226813
 20
273.7563266778746
 30
0.0
 11
192.564923822677
 21
273.7563266778746
 31
0.0
  0
LINE
  5
1DF0
330
1B00
100
AcDbEntity
  8
AM_5
100
AcDbLine
 10
157.7592198226813
 20
202.7563266778746
 30
0.0
 11
192.564923822677
 21
202.7563266778746
 31
0.0
  0
LINE
  5
1DF1
330
1B00
100
AcDbEntity
  8
AM_5
100
AcDbLine
 10
190.564923822677
 20
268.7563266778747
 30
0.0
 11
190.564923822677
 21
207.7563266778747
 31
0.0
  0
SOLID
  5
1DF2
330
1B00
100
AcDbEntity
  8
AM_5
100
AcDbTrace
 10
189.7315904893437
 20
268.7563266778747
 30
0.0
 11
191.3982571560104
 21
268.7563266778747
 31
0.0
 12
190.564923822677
 22
273.7563266778746
 32
0.0
 13
190.564923822677
 23
273.7563266778746
 33
0.0
  0
SOLID
  5
1DF3
330
1B00
100
AcDbEntity
  8
AM_5
100
AcDbTrace
 10
189.7315904893437
 20
207.7563266778747
 30
0.0
 11
191.3982571560104
 21
207.7563266778747
 31
0.0
 12
190.564923822677
 22
202.7563266778746
 32
0.0
 13
190.564923822677
 23
202.7563266778746
 33
0.0
  0
MTEXT
  5
1DF4
330
1B00
100
AcDbEntity
  8
AM_5
 62
     2
100
AcDbMText
 10
184.064923822677
 20
238.2563266778747
 30
0.0
 40
7.0
 41
0.0
 46
0.0
 71
     5
 72
     1
  1
71
 11
0.0000000000000001
 21
1.0
 31
0.0
 73
     1
 44
1.0
  0
POINT
  5
1DF5
330
1B00
100
AcDbEntity
  8
Defpoints
 62
     0
100
AcDbPoint
 10
157.7592198226813
 20
273.7563266778746
 30
0.0
  0
POINT
  5
1DF6
330
1B00
100
AcDbEntity
  8
Defpoints
 62
     0
100
AcDbPoint
 10
157.7592198226813
 20
202.7563266778746
 30
0.0
  0
POINT
  5
1DF7
330
1B00
100
AcDbEntity
  8
Defpoints
 62
     0
100
AcDbPoint
 10
190.564923822677
 20
202.7563266778746
 30
0.0
  0
ENDBLK
  5
1B0B
330
1B00
100
AcDbEntity
  8
0
100
AcDbBlockEnd
  0
BLOCK
  5
1B58
330
1B4E
100
AcDbEntity
  8
0
100
AcDbBlockBegin
  2
*D21
 70
     1
 10
0.0
 20
0.0
 30
0.0
  3
*D21
  1

  0
LINE
  5
1DF8
330
1B4E
100
AcDbEntity
  8
AM_5
100
AcDbLine
 10
154.4539678226813
 20
202.7563266778746
 30
0.0
 11
192.5649238226771
 21
202.7563266778746
 31
0.0
  0
LINE
  5
1DF9
330
1B4E
100
AcDbEntity
  8
AM_5
100
AcDbLine
 10
157.8747298226813
 20
65.75631067787464
 30
0.0
 11
192.5649238226771
 21
65.75631067787462
 31
0.0
  0
LINE
  5
1DFA
330
1B4E
100
AcDbEntity
  8
AM_5
100
AcDbLine
 10
190.5649238226771
 20
197.7563266778746
 30
0.0
 11
190.5649238226771
 21
70.75631067787462
 31
0.0
  0
SOLID
  5
1DFB
330
1B4E
100
AcDbEntity
  8
AM_5
100
AcDbTrace
 10
189.7315904893438
 20
197.7563266778746
 30
0.0
 11
191.3982571560105
 21
197.7563266778746
 31
0.0
 12
190.5649238226771
 22
202.7563266778746
 32
0.0
 13
190.5649238226771
 23
202.7563266778746
 33
0.0
  0
SOLID
  5
1DFC
330
1B4E
100
AcDbEntity
  8
AM_5
100
AcDbTrace
 10
189.7315904893438
 20
70.75631067787462
 30
0.0
 11
191.3982571560104
 21
70.75631067787462
 31
0.0
 12
190.5649238226771
 22
65.75631067787462
 32
0.0
 13
190.5649238226771
 23
65.75631067787462
 33
0.0
  0
MTEXT
  5
1DFD
330
1B4E
100
AcDbEntity
  8
AM_5
 62
     2
100
AcDbMText
 10
184.0649238226771
 20
134.2563186778747
 30
0.0
 40
7.0
 41
0.0
 46
0.0
 71
     5
 72
     1
  1
137
 11
0.0000000000000001
 21
1.0
 31
0.0
 73
     1
 44
1.0
  0
POINT
  5
1DFE
330
1B4E
100
AcDbEntity
  8
Defpoints
 62
     0
100
AcDbPoint
 10
154.4539678226813
 20
202.7563266778746
 30
0.0
  0
POINT
  5
1DFF
330
1B4E
100
AcDbEntity
  8
Defpoints
 62
     0
100
AcDbPoint
 10
157.8747298226813
 20
65.75631067787464
 30
0.0
  0
POINT
  5
1E00
330
1B4E
100
AcDbEntity
  8
Defpoints
 62
     0
100
AcDbPoint
 10
190.5649238226771
 20
65.75631067787462
 30
0.0
  0
ENDBLK
  5
1B59
330
1B4E
100
AcDbEntity
  8
0
100
AcDbBlockEnd
  0
BLOCK
  5
1B97
330
1B8D
100
AcDbEntity
  8
0
100
AcDbBlockBegin
  2
*D22
 70
     1
 10
0.0
 20
0.0
 30
0.0
  3
*D22
  1

  0
LINE
  5
1E01
330
1B8D
100
AcDbEntity
  8
AM_5
100
AcDbLine
 10
139.0649258226813
 20
294.7563246778747
 30
0.0
 11
85.56492082268121
 21
294.7563246778747
 31
0.0
  0
LINE
  5
1E02
330
1B8D
100
AcDbEntity
  8
AM_5
100
AcDbLine
 10
122.1158618226813
 20
202.7563266778746
 30
0.0
 11
85.56492082268119
 21
202.7563266778746
 31
0.0
  0
LINE
  5
1E03
330
1B8D
100
AcDbEntity
  8
AM_5
100
AcDbLine
 10
87.56492082268122
 20
289.7563246778747
 30
0.0
 11
87.56492082268119
 21
207.7563266778747
 31
0.0
  0
SOLID
  5
1E04
330
1B8D
100
AcDbEntity
  8
AM_5
100
AcDbTrace
 10
86.73158748934788
 20
289.7563246778747
 30
0.0
 11
88.39825415601454
 21
289.7563246778747
 31
0.0
 12
87.56492082268122
 22
294.7563246778747
 32
0.0
 13
87.56492082268122
 23
294.7563246778747
 33
0.0
  0
SOLID
  5
1E05
330
1B8D
100
AcDbEntity
  8
AM_5
100
AcDbTrace
 10
86.73158748934786
 20
207.7563266778747
 30
0.0
 11
88.39825415601451
 21
207.7563266778747
 31
0.0
 12
87.56492082268119
 22
202.7563266778746
 32
0.0
 13
87.56492082268119
 23
202.7563266778746
 33
0.0
  0
MTEXT
  5
1E06
330
1B8D
100
AcDbEntity
  8
AM_5
 62
     2
100
AcDbMText
 10
81.06254008973428
 20
248.7563256778747
 30
0.0
 40
7.0
 41
0.0
 46
0.0
 71
     5
 72
     1
  1
92
 11
0.0000000000000001
 21
1.0
 31
0.0
 73
     1
 44
1.0
  0
POINT
  5
1E07
330
1B8D
100
AcDbEntity
  8
Defpoints
 62
     0
100
AcDbPoint
 10
139.0649258226813
 20
294.7563246778747
 30
0.0
  0
POINT
  5
1E08
330
1B8D
100
AcDbEntity
  8
Defpoints
 62
     0
100
AcDbPoint
 10
122.1158618226813
 20
202.7563266778746
 30
0.0
  0
POINT
  5
1E09
330
1B8D
100
AcDbEntity
  8
Defpoints
 62
     0
100
AcDbPoint
 10
87.56492082268119
 20
202.7563266778746
 30
0.0
  0
ENDBLK
  5
1B98
330
1B8D
100
AcDbEntity
  8
0
100
AcDbBlockEnd
  0
BLOCK
  5
1BD6
330
1BCC
100
AcDbEntity
  8
0
100
AcDbBlockBegin
  2
*D23
 70
     1
 10
0.0
 20
0.0
 30
0.0
  3
*D23
  1

  0
LINE
  5
1F29
330
1BCC
100
AcDbEntity
  8
AM_5
100
AcDbLine
 10
122.1158618226813
 20
202.7563266778746
 30
0.0
 11
85.56492082268128
 21
202.7563266778746
 31
0.0
  0
LINE
  5
1F2A
330
1BCC
100
AcDbEntity
  8
AM_5
100
AcDbLine
 10
124.7149298226813
 20
125.3281206487436
 30
0.0
 11
85.56492082268126
 21
125.3281206487436
 31
0.0
  0
LINE
  5
1F2B
330
1BCC
100
AcDbEntity
  8
AM_5
100
AcDbLine
 10
87.56492082268129
 20
197.7563266778746
 30
0.0
 11
87.56492082268128
 21
130.3281206487436
 31
0.0
  0
SOLID
  5
1F2C
330
1BCC
100
AcDbEntity
  8
AM_5
100
AcDbTrace
 10
86.73158748934795
 20
197.7563266778746
 30
0.0
 11
88.39825415601461
 21
197.7563266778746
 31
0.0
 12
87.56492082268129
 22
202.7563266778746
 32
0.0
 13
87.56492082268129
 23
202.7563266778746
 33
0.0
  0
SOLID
  5
1F2D
330
1BCC
100
AcDbEntity
  8
AM_5
100
AcDbTrace
 10
86.73158748934794
 20
130.3281206487436
 30
0.0
 11
88.3982541560146
 21
130.3281206487436
 31
0.0
 12
87.56492082268128
 22
125.3281206487436
 32
0.0
 13
87.56492082268128
 23
125.3281206487436
 33
0.0
  0
MTEXT
  5
1F2E
330
1BCC
100
AcDbEntity
  8
AM_5
 62
     2
100
AcDbMText
 10
81.06492082268125
 20
164.0422236633092
 30
0.0
 40
7.0
 41
0.0
 46
0.0
 71
     5
 72
     1
  1
E
 11
0.0000000000000001
 21
1.0
 31
0.0
 73
     1
 44
1.0
  0
POINT
  5
1F2F
330
1BCC
100
AcDbEntity
  8
Defpoints
 62
     0
100
AcDbPoint
 10
122.1158618226813
 20
202.7563266778746
 30
0.0
  0
POINT
  5
1F30
330
1BCC
100
AcDbEntity
  8
Defpoints
 62
     0
100
AcDbPoint
 10
124.7149298226813
 20
125.3281206487436
 30
0.0
  0
POINT
  5
1F31
330
1BCC
100
AcDbEntity
  8
Defpoints
 62
     0
100
AcDbPoint
 10
87.56492082268128
 20
125.3281206487436
 30
0.0
  0
ENDBLK
  5
1BD7
330
1BCC
100
AcDbEntity
  8
0
100
AcDbBlockEnd
  0
BLOCK
  5
1C15
330
1C0B
100
AcDbEntity
  8
0
100
AcDbBlockBegin
  2
*D24
 70
     1
 10
0.0
 20
0.0
 30
0.0
  3
*D24
  1

  0
LINE
  5
1E13
330
1C0B
100
AcDbEntity
  8
AM_5
100
AcDbLine
 10
139.0649258226813
 20
294.7563246778747
 30
0.0
 11
68.50465707847836
 21
294.7563246778747
 31
0.0
  0
LINE
  5
1E14
330
1C0B
100
AcDbEntity
  8
AM_5
100
AcDbLine
 10
139.0649258226813
 20
44.75631267787463
 30
0.0
 11
68.5046570784783
 21
44.75631267787465
 31
0.0
  0
LINE
  5
1E15
330
1C0B
100
AcDbEntity
  8
AM_5
100
AcDbLine
 10
70.50465707847836
 20
289.7563246778747
 30
0.0
 11
70.5046570784783
 21
49.75631267787465
 31
0.0
  0
SOLID
  5
1E16
330
1C0B
100
AcDbEntity
  8
AM_5
100
AcDbTrace
 10
69.67132374514503
 20
289.7563246778747
 30
0.0
 11
71.33799041181169
 21
289.7563246778747
 31
0.0
 12
70.50465707847836
 22
294.7563246778747
 32
0.0
 13
70.50465707847836
 23
294.7563246778747
 33
0.0
  0
SOLID
  5
1E17
330
1C0B
100
AcDbEntity
  8
AM_5
100
AcDbTrace
 10
69.67132374514497
 20
49.75631267787465
 30
0.0
 11
71.33799041181163
 21
49.75631267787465
 31
0.0
 12
70.5046570784783
 22
44.75631267787465
 32
0.0
 13
70.5046570784783
 23
44.75631267787465
 33
0.0
  0
MTEXT
  5
1E18
330
1C0B
100
AcDbEntity
  8
AM_5
 62
     2
100
AcDbMText
 10
64.00396810210034
 20
169.7563186778747
 30
0.0
 40
7.0
 41
0.0
 46
0.0
 71
     5
 72
     1
  1
250
 11
0.0000000000000001
 21
1.0
 31
0.0
 73
     1
 44
1.0
  0
POINT
  5
1E19
330
1C0B
100
AcDbEntity
  8
Defpoints
 62
     0
100
AcDbPoint
 10
139.0649258226813
 20
294.7563246778747
 30
0.0
  0
POINT
  5
1E1A
330
1C0B
100
AcDbEntity
  8
Defpoints
 62
     0
100
AcDbPoint
 10
139.0649258226813
 20
44.75631267787463
 30
0.0
  0
POINT
  5
1E1B
330
1C0B
100
AcDbEntity
  8
Defpoints
 62
     0
100
AcDbPoint
 10
70.5046570784783
 20
44.75631267787465
 30
0.0
  0
ENDBLK
  5
1C16
330
1C0B
100
AcDbEntity
  8
0
100
AcDbBlockEnd
  0
BLOCK
  5
1C78
330
1C75
100
AcDbEntity
  8
0
100
AcDbBlockBegin
  2
SCHUTZR1
 70
     0
 10
0.0
 20
0.0
 30
0.0
  3
SCHUTZR1
  1

  0
MTEXT
  5
1C76
330
1C75
100
AcDbEntity
  8
0
 62
     2
100
AcDbMText
 10
1.089563348508818
 20
-1.313268590755626
 30
0.0
 40
2.0
 41
65.0
 46
0.0
 71
     1
 72
     5
  1
\Fisocp.shx;Alle Rechte bei Glutz AG, auch für den Fall von Schutzrechtsanmeldungen. Jede Verfügungsbefugnis wie Kopier- und Weitergaberecht liegen bei uns.
 73
     1
 44
1.0
  0
LWPOLYLINE
  5
1C77
330
1C75
100
AcDbEntity
  8
6
100
AcDbPolyline
 90
        4
 70
     1
 43
0.0
 10
0.0
 20
0.0
 10
64.93884802418165
 20
0.0
 10
64.93884802418165
 20
-11.72312348725665
 10
0.0
 20
-11.72312348725665
1001
GENIUS_GENREC_14
1002
{
1000
PYDIR
1011
0.0
1021
-11.72312348725665
1031
0.0
1002
}
1002
{
1000
PXDIR
1011
64.93884802418165
1021
0.0
1031
0.0
1002
}
1002
{
1000
PORI
1011
0.0
1021
0.0
1031
0.0
1002
}
1002
{
1000
PINS
1011
0.0
1021
0.0
1031
0.0
1002
}
1002
{
1000
PINS2
1011
64.93884802418165
1021
-11.72312348725665
1031
0.0
1002
}
1002
{
1000
C
1070
     1
1002
}
1001
GENIUS_GENODEF_13
1002
{
1000
HIER
1070
     0
1002
}
1002
{
1000
MANEDIT
1070
     0
1002
}
1002
{
1000
NOSEL
1070
     0
1002
}
1002
{
1000
BEHIND
1070
     0
1002
}
1002
{
1000
REACTOR
1002
}
1001
GENIUS_GENOBJ-N-REC_13
1002
{
1000
OWNER
1000
GEN
1002
}
  0
ENDBLK
  5
1C79
330
1C75
100
AcDbEntity
  8
0
100
AcDbBlockEnd
  0
BLOCK
  5
1CD3
330
1C7A
100
AcDbEntity
  8
0
100
AcDbBlockBegin
  2
GLUTZ1
 70
     0
 10
0.0
 20
0.0
 30
0.0
  3
GLUTZ1
  1

  0
POLYLINE
  5
1C7B
330
1C7A
100
AcDbEntity
  8
KOPF
  6
CONTINU
 62
     2
100
AcDb2dPolyline
 66
     1
 10
0.0
 20
0.0
 30
0.0
 70
     1
  0
VERTEX
  5
1C7C
330
1C7B
100
AcDbEntity
  8
KOPF
  6
CONTINU
 62
     2
100
AcDbVertex
100
AcDb2dVertex
 10
7.413302975328548
 20
3.465323178314264
 30
0.0
  0
VERTEX
  5
1C7D
330
1C7B
100
AcDbEntity
  8
KOPF
  6
CONTINU
 62
     2
100
AcDbVertex
100
AcDb2dVertex
 10
8.659030475328563
 20
3.465323178314264
 30
0.0
  0
VERTEX
  5
1C7E
330
1C7B
100
AcDbEntity
  8
KOPF
  6
CONTINU
 62
     2
100
AcDbVertex
100
AcDb2dVertex
 10
8.328937475328558
 20
1.484671678314271
 30
0.0
  0
VERTEX
  5
1C7F
330
1C7B
100
AcDbEntity
  8
KOPF
  6
CONTINU
 62
     2
100
AcDbVertex
100
AcDb2dVertex
 10
8.495913975328534
 20
1.085639178314266
 30
0.0
  0
VERTEX
  5
1C80
330
1C7B
100
AcDbEntity
  8
KOPF
  6
CONTINU
 62
     2
100
AcDbVertex
100
AcDb2dVertex
 10
8.872790975328541
 20
1.034750678314253
 30
0.0
  0
VERTEX
  5
1C81
330
1C7B
100
AcDbEntity
  8
KOPF
  6
CONTINU
 62
     2
100
AcDbVertex
100
AcDb2dVertex
 10
9.136996975328543
 20
1.349997678314252
 30
0.0
  0
VERTEX
  5
1C82
330
1C7B
100
AcDbEntity
  8
KOPF
  6
CONTINU
 62
     2
100
AcDbVertex
100
AcDb2dVertex
 10
9.136996975328543
 20
1.349997678314252
 30
0.0
  0
VERTEX
  5
1C83
330
1C7B
100
AcDbEntity
  8
KOPF
  6
CONTINU
 62
     2
100
AcDbVertex
100
AcDb2dVertex
 10
9.489535975328578
 20
3.465323178314264
 30
0.0
  0
VERTEX
  5
1C84
330
1C7B
100
AcDbEntity
  8
KOPF
  6
CONTINU
 62
     2
100
AcDbVertex
100
AcDb2dVertex
 10
11.35815797532856
 20
3.465323178314264
 30
0.0
  0
VERTEX
  5
1C85
330
1C7B
100
AcDbEntity
  8
KOPF
  6
CONTINU
 62
     2
100
AcDbVertex
100
AcDb2dVertex
 10
11.56296147532856
 20
4.694129178314256
 30
0.0
  0
VERTEX
  5
1C86
330
1C7B
100
AcDbEntity
  8
KOPF
  6
CONTINU
 62
     2
100
AcDbVertex
100
AcDb2dVertex
 10
12.80870397532857
 20
4.694113678314266
 30
0.0
  0
VERTEX
  5
1C87
330
1C7B
100
AcDbEntity
  8
KOPF
  6
CONTINU
 62
     2
100
AcDbVertex
100
AcDb2dVertex
 10
12.60391597532856
 20
3.465323178314264
 30
0.0
  0
VERTEX
  5
1C88
330
1C7B
100
AcDbEntity
  8
KOPF
  6
CONTINU
 62
     2
100
AcDbVertex
100
AcDb2dVertex
 10
15.92592197532855
 20
3.465323178314264
 30
0.0
  0
VERTEX
  5
1C89
330
1C7B
100
AcDbEntity
  8
KOPF
  6
CONTINU
 62
     2
100
AcDbVertex
100
AcDb2dVertex
 10
15.78938647532857
 20
2.646109678314275
 30
0.0
  0
VERTEX
  5
1C8A
330
1C7B
100
AcDbEntity
  8
KOPF
  6
CONTINU
 62
     2
100
AcDbVertex
100
AcDb2dVertex
 10
13.87791797532855
 20
1.00771217831425
 30
0.0
  0
VERTEX
  5
1C8B
330
1C7B
100
AcDbEntity
  8
KOPF
  6
CONTINU
 62
     2
100
AcDbVertex
100
AcDb2dVertex
 10
15.51633047532854
 20
1.00771217831425
 30
0.0
  0
VERTEX
  5
1C8C
330
1C7B
100
AcDbEntity
  8
KOPF
  6
CONTINU
 62
     2
100
AcDbVertex
100
AcDb2dVertex
 10
15.37979497532856
 20
0.1885136783142798
 30
0.0
  0
VERTEX
  5
1C8D
330
1C7B
100
AcDbEntity
  8
KOPF
  6
CONTINU
 62
     2
100
AcDbVertex
100
AcDb2dVertex
 10
12.68066747532856
 20
0.1885291783142406
 30
0.0
  0
VERTEX
  5
1C8E
330
1C7B
100
AcDbEntity
  8
KOPF
  6
CONTINU
 62
     2
100
AcDbVertex
100
AcDb2dVertex
 10
12.81720347532854
 20
1.00771217831425
 30
0.0
  0
VERTEX
  5
1C8F
330
1C7B
100
AcDbEntity
  8
KOPF
  6
CONTINU
 62
     2
100
AcDbVertex
100
AcDb2dVertex
 10
14.72865647532856
 20
2.646109678314275
 30
0.0
  0
VERTEX
  5
1C90
330
1C7B
100
AcDbEntity
  8
KOPF
  6
CONTINU
 62
     2
100
AcDbVertex
100
AcDb2dVertex
 10
12.46738047532855
 20
2.646124678314265
 30
0.0
  0
VERTEX
  5
1C91
330
1C7B
100
AcDbEntity
  8
KOPF
  6
CONTINU
 62
     2
100
AcDbVertex
100
AcDb2dVertex
 10
12.05778847532855
 20
0.1885291783142406
 30
0.0
  0
VERTEX
  5
1C92
330
1C7B
100
AcDbEntity
  8
KOPF
  6
CONTINU
 62
     2
100
AcDbVertex
100
AcDb2dVertex
 10
10.81204597532854
 20
0.1885291783142406
 30
0.0
  0
VERTEX
  5
1C93
330
1C7B
100
AcDbEntity
  8
KOPF
  6
CONTINU
 62
     2
100
AcDbVertex
100
AcDb2dVertex
 10
11.22163747532855
 20
2.646124678314265
 30
0.0
  0
VERTEX
  5
1C94
330
1C7B
100
AcDbEntity
  8
KOPF
  6
CONTINU
 62
     2
100
AcDbVertex
100
AcDb2dVertex
 10
10.59875847532856
 20
2.646124678314265
 30
0.0
  0
VERTEX
  5
1C95
330
1C7B
100
AcDbEntity
  8
KOPF
  6
CONTINU
 62
     2
100
AcDbVertex
100
AcDb2dVertex
 10
10.18916697532856
 20
0.1885291783142406
 30
0.0
  0
VERTEX
  5
1C96
330
1C7B
100
AcDbEntity
  8
KOPF
  6
CONTINU
 62
     2
100
AcDbVertex
100
AcDb2dVertex
 10
8.943423975328556
 20
0.1885291783142406
 30
0.0
  0
VERTEX
  5
1C97
330
1C7B
100
AcDbEntity
  8
KOPF
  6
CONTINU
 62
     2
100
AcDbVertex
100
AcDb2dVertex
 10
8.960238975328536
 20
0.2895266783142745
 30
0.0
  0
VERTEX
  5
1C98
330
1C7B
100
AcDbEntity
  8
KOPF
  6
CONTINU
 62
     2
100
AcDbVertex
100
AcDb2dVertex
 10
8.491321475328561
 20
0.0298986783142539
 30
0.0
  0
VERTEX
  5
1C99
330
1C7B
100
AcDbEntity
  8
KOPF
  6
CONTINU
 62
     2
100
AcDbVertex
100
AcDb2dVertex
 10
7.975314975328558
 20
0.0042486783142692
 30
0.0
  0
VERTEX
  5
1C9A
330
1C7B
100
AcDbEntity
  8
KOPF
  6
CONTINU
 62
     2
100
AcDbVertex
100
AcDb2dVertex
 10
7.487231975328569
 20
0.2220676783142608
 30
0.0
  0
VERTEX
  5
1C9B
330
1C7B
100
AcDbEntity
  8
KOPF
  6
CONTINU
 62
     2
100
AcDbVertex
100
AcDb2dVertex
 10
7.137027475328551
 20
0.6718966783142549
 30
0.0
  0
VERTEX
  5
1C9C
330
1C7B
100
AcDbEntity
  8
KOPF
  6
CONTINU
 62
     2
100
AcDbVertex
100
AcDb2dVertex
 10
7.054812975328559
 20
1.314475178314268
 30
0.0
  0
VERTEX
  5
1C9D
330
1C7B
100
AcDbEntity
  8
KOPF
  6
CONTINU
 62
     2
100
AcDbVertex
100
AcDb2dVertex
 10
7.054812975328559
 20
1.314475178314268
 30
0.0
  0
VERTEX
  5
1C9E
330
1C7B
100
AcDbEntity
  8
KOPF
  6
CONTINU
 62
     2
100
AcDbVertex
100
AcDb2dVertex
 10
7.413287975328557
 20
3.465323178314264
 30
0.0
  0
SEQEND
  5
1C9F
330
1C7B
100
AcDbEntity
  8
KOPF
 62
     2
  0
HATCH
  5
1CA0
330
1C7A
100
AcDbEntity
  8
KOPF
 62
     7
100
AcDbHatch
 10
0.0
 20
0.0
 30
0.0
210
0.0
220
0.0
230
1.0
  2
SOLID
 70
     1
 71
     0
 91
        1
 92
        1
 93
       32
 72
     1
 10
8.491321475328561
 20
0.0298986783142539
 11
8.960238975328536
 21
0.2895266783142745
 72
     1
 10
8.960238975328536
 20
0.2895266783142745
 11
8.943423975328556
 21
0.1885291783142406
 72
     1
 10
8.943423975328556
 20
0.1885291783142406
 11
10.18916697532856
 21
0.1885291783142406
 72
     1
 10
10.18916697532856
 20
0.1885291783142406
 11
10.59875847532856
 21
2.646124678314265
 72
     1
 10
10.59875847532856
 20
2.646124678314265
 11
11.22163747532855
 21
2.646124678314265
 72
     1
 10
11.22163747532855
 20
2.646124678314265
 11
10.81204597532854
 21
0.1885291783142406
 72
     1
 10
10.81204597532854
 20
0.1885291783142406
 11
12.05778847532855
 21
0.1885291783142406
 72
     1
 10
12.05778847532855
 20
0.1885291783142406
 11
12.46738047532855
 21
2.646124678314265
 72
     1
 10
12.46738047532855
 20
2.646124678314265
 11
14.72865647532856
 21
2.646109678314275
 72
     1
 10
14.72865647532856
 20
2.646109678314275
 11
12.81720347532854
 21
1.00771217831425
 72
     1
 10
12.81720347532854
 20
1.00771217831425
 11
12.68066747532856
 21
0.1885291783142406
 72
     1
 10
12.68066747532856
 20
0.1885291783142406
 11
15.37979497532856
 21
0.1885136783142798
 72
     1
 10
15.37979497532856
 20
0.1885136783142798
 11
15.51633047532854
 21
1.00771217831425
 72
     1
 10
15.51633047532854
 20
1.00771217831425
 11
13.87791797532855
 21
1.00771217831425
 72
     1
 10
13.87791797532855
 20
1.00771217831425
 11
15.78938647532857
 21
2.646109678314275
 72
     1
 10
15.78938647532857
 20
2.646109678314275
 11
15.92592197532855
 21
3.465323178314264
 72
     1
 10
15.92592197532855
 20
3.465323178314264
 11
12.60391597532856
 21
3.465323178314264
 72
     1
 10
12.60391597532856
 20
3.465323178314264
 11
12.80870397532857
 21
4.694113678314266
 72
     1
 10
12.80870397532857
 20
4.694113678314266
 11
11.56296147532856
 21
4.694129178314256
 72
     1
 10
11.56296147532856
 20
4.694129178314256
 11
11.35815797532856
 21
3.465323178314264
 72
     1
 10
11.35815797532856
 20
3.465323178314264
 11
9.489535975328578
 21
3.465323178314264
 72
     1
 10
9.489535975328578
 20
3.465323178314264
 11
9.136996975328543
 21
1.349997678314252
 72
     1
 10
9.136996975328543
 20
1.349997678314252
 11
8.872790975328541
 21
1.034750678314253
 72
     1
 10
8.872790975328541
 20
1.034750678314253
 11
8.495913975328534
 21
1.085639178314266
 72
     1
 10
8.495913975328534
 20
1.085639178314266
 11
8.328937475328558
 21
1.484671678314271
 72
     1
 10
8.328937475328558
 20
1.484671678314271
 11
8.659030475328563
 21
3.465323178314264
 72
     1
 10
8.659030475328563
 20
3.465323178314264
 11
7.413287975328557
 21
3.465323178314264
 72
     1
 10
7.413287975328557
 20
3.465323178314264
 11
7.054812975328559
 21
1.314475178314268
 72
     1
 10
7.054812975328559
 20
1.314475178314268
 11
7.137027475328551
 21
0.6718966783142549
 72
     1
 10
7.137027475328551
 20
0.6718966783142549
 11
7.487231975328569
 21
0.2220676783142608
 72
     1
 10
7.487231975328569
 20
0.2220676783142608
 11
7.975314975328558
 21
0.0042486783142692
 72
     1
 10
7.975314975328558
 20
0.0042486783142692
 11
8.491321475328561
 21
0.0298986783142539
 97
        0
 75
     0
 76
     1
 98
        1
 10
78.94342397532856
 20
-1.062905321685718
450
        0
451
        0
460
0.0
461
0.0
452
        0
462
0.0
453
        0
470

1001
GENIUS_GENODEF_13
1002
{
1000
HIER
1070
     0
1002
}
1002
{
1000
MANEDIT
1070
     0
1002
}
1002
{
1000
NOSEL
1070
     0
1002
}
1002
{
1000
BEHIND
1070
     0
1002
}
1002
{
1000
REACTOR
1002
}
1001
GENIUS_GENOBJ-N-HTC_13
1002
{
1000
OWNER
1000
GEN
1002
}
1001
GENIUS_GENHATCH_13
1002
{
1000
DATA
1040
0.0
1042
0.5
1000
SOLID
1070
     0
1011
7.884158670682694
1021
0.0684408459231634
1031
0.0
1002
}
1002
{
1000
UCS
1010
0.0
1020
0.0
1030
0.0
1010
1.0
1020
0.0
1030
0.0
1010
0.0
1020
1.0
1030
0.0
1002
}
  0
POLYLINE
  5
1CA1
330
1C7A
100
AcDbEntity
  8
KOPF
  6
CONTINU
 62
     2
100
AcDb2dPolyline
 66
     1
 10
0.0
 20
0.0
 30
0.0
 70
     1
  0
VERTEX
  5
1CA2
330
1CA1
100
AcDbEntity
  8
KOPF
  6
CONTINU
 62
     2
100
AcDbVertex
100
AcDb2dVertex
 10
4.230807975328559
 20
0.2520206783142669
 30
0.0
  0
VERTEX
  5
1CA3
330
1CA1
100
AcDbEntity
  8
KOPF
  6
CONTINU
 62
     2
100
AcDbVertex
100
AcDb2dVertex
 10
3.628177475328556
 20
0.1549291783142621
 30
0.0
  0
VERTEX
  5
1CA4
330
1CA1
100
AcDbEntity
  8
KOPF
  6
CONTINU
 62
     2
100
AcDbVertex
100
AcDb2dVertex
 10
2.898837975328547
 20
0.069876678314273
 30
0.0
  0
VERTEX
  5
1CA5
330
1CA1
100
AcDbEntity
  8
KOPF
  6
CONTINU
 62
     2
100
AcDbVertex
100
AcDb2dVertex
 10
2.152301475328556
 20
0.038306178314258
 30
0.0
  0
VERTEX
  5
1CA6
330
1CA1
100
AcDbEntity
  8
KOPF
  6
CONTINU
 62
     2
100
AcDbVertex
100
AcDb2dVertex
 10
1.464725475328549
 20
0.112723178314269
 30
0.0
  0
VERTEX
  5
1CA7
330
1CA1
100
AcDbEntity
  8
KOPF
  6
CONTINU
 62
     2
100
AcDbVertex
100
AcDb2dVertex
 10
0.8865389753285342
 20
0.3333501783142765
 30
0.0
  0
VERTEX
  5
1CA8
330
1CA1
100
AcDbEntity
  8
KOPF
  6
CONTINU
 62
     2
100
AcDbVertex
100
AcDb2dVertex
 10
0.4486119753285323
 20
0.7156286783142605
 30
0.0
  0
VERTEX
  5
1CA9
330
1CA1
100
AcDbEntity
  8
KOPF
  6
CONTINU
 62
     2
100
AcDbVertex
100
AcDb2dVertex
 10
0.1673769753285512
 20
1.246237678314258
 30
0.0
  0
VERTEX
  5
1CAA
330
1CA1
100
AcDbEntity
  8
KOPF
  6
CONTINU
 62
     2
100
AcDbVertex
100
AcDb2dVertex
 10
0.0486334753285576
 20
1.885962678314285
 30
0.0
  0
VERTEX
  5
1CAB
330
1CA1
100
AcDbEntity
  8
KOPF
  6
CONTINU
 62
     2
100
AcDbVertex
100
AcDb2dVertex
 10
0.0903659753285524
 20
2.57732267831426
 30
0.0
  0
VERTEX
  5
1CAC
330
1CA1
100
AcDbEntity
  8
KOPF
  6
CONTINU
 62
     2
100
AcDbVertex
100
AcDb2dVertex
 10
0.2847019753285735
 20
3.254996178314257
 30
0.0
  0
VERTEX
  5
1CAD
330
1CA1
100
AcDbEntity
  8
KOPF
  6
CONTINU
 62
     2
100
AcDbVertex
100
AcDb2dVertex
 10
0.6188849753285695
 20
3.857199678314259
 30
0.0
  0
VERTEX
  5
1CAE
330
1CA1
100
AcDbEntity
  8
KOPF
  6
CONTINU
 62
     2
100
AcDbVertex
100
AcDb2dVertex
 10
1.075641475328552
 20
4.335898178314266
 30
0.0
  0
VERTEX
  5
1CAF
330
1CA1
100
AcDbEntity
  8
KOPF
  6
CONTINU
 62
     2
100
AcDbVertex
100
AcDb2dVertex
 10
1.632815975328554
 20
4.664038678314284
 30
0.0
  0
VERTEX
  5
1CB0
330
1CA1
100
AcDbEntity
  8
KOPF
  6
CONTINU
 62
     2
100
AcDbVertex
100
AcDb2dVertex
 10
2.262469975328542
 20
4.837775178314274
 30
0.0
  0
VERTEX
  5
1CB1
330
1CA1
100
AcDbEntity
  8
KOPF
  6
CONTINU
 62
     2
100
AcDbVertex
100
AcDb2dVertex
 10
2.929553975328559
 20
4.871710678314258
 30
0.0
  0
VERTEX
  5
1CB2
330
1CA1
100
AcDbEntity
  8
KOPF
  6
CONTINU
 62
     2
100
AcDbVertex
100
AcDb2dVertex
 10
3.590213475328567
 20
4.785315678314248
 30
0.0
  0
VERTEX
  5
1CB3
330
1CA1
100
AcDbEntity
  8
KOPF
  6
CONTINU
 62
     2
100
AcDbVertex
100
AcDb2dVertex
 10
4.189914475328549
 20
4.578391178314262
 30
0.0
  0
VERTEX
  5
1CB4
330
1CA1
100
AcDbEntity
  8
KOPF
  6
CONTINU
 62
     2
100
AcDbVertex
100
AcDb2dVertex
 10
4.661227975328557
 20
4.19379317831428
 30
0.0
  0
VERTEX
  5
1CB5
330
1CA1
100
AcDbEntity
  8
KOPF
  6
CONTINU
 62
     2
100
AcDbVertex
100
AcDb2dVertex
 10
4.921786975328558
 20
3.465338678314282
 30
0.0
  0
VERTEX
  5
1CB6
330
1CA1
100
AcDbEntity
  8
KOPF
  6
CONTINU
 62
     2
100
AcDbVertex
100
AcDb2dVertex
 10
4.921786975328558
 20
3.465338678314282
 30
0.0
  0
VERTEX
  5
1CB7
330
1CA1
100
AcDbEntity
  8
KOPF
  6
CONTINU
 62
     2
100
AcDbVertex
100
AcDb2dVertex
 10
3.676043975328553
 20
3.465338678314282
 30
0.0
  0
VERTEX
  5
1CB8
330
1CA1
100
AcDbEntity
  8
KOPF
  6
CONTINU
 62
     2
100
AcDbVertex
100
AcDb2dVertex
 10
3.658435475328559
 20
3.635474178314268
 30
0.0
  0
VERTEX
  5
1CB9
330
1CA1
100
AcDbEntity
  8
KOPF
  6
CONTINU
 62
     2
100
AcDbVertex
100
AcDb2dVertex
 10
3.60626597532854
 20
3.742651678314274
 30
0.0
  0
VERTEX
  5
1CBA
330
1CA1
100
AcDbEntity
  8
KOPF
  6
CONTINU
 62
     2
100
AcDbVertex
100
AcDb2dVertex
 10
3.50603097532857
 20
3.814627678314252
 30
0.0
 42
0.101147
  0
VERTEX
  5
1CBB
330
1CA1
100
AcDbEntity
  8
KOPF
  6
CONTINU
 62
     2
100
AcDbVertex
100
AcDb2dVertex
 10
2.163074475328556
 20
3.706198678314251
 30
0.0
  0
VERTEX
  5
1CBC
330
1CA1
100
AcDbEntity
  8
KOPF
  6
CONTINU
 62
     2
100
AcDbVertex
100
AcDb2dVertex
 10
1.757983975328556
 20
3.187644178314258
 30
0.0
  0
VERTEX
  5
1CBD
330
1CA1
100
AcDbEntity
  8
KOPF
  6
CONTINU
 62
     2
100
AcDbVertex
100
AcDb2dVertex
 10
1.532947475328569
 20
2.441336678314257
 30
0.0
  0
VERTEX
  5
1CBE
330
1CA1
100
AcDbEntity
  8
KOPF
  6
CONTINU
 62
     2
100
AcDbVertex
100
AcDb2dVertex
 10
1.523211975328536
 20
1.797781678314265
 30
0.0
  0
VERTEX
  5
1CBF
330
1CA1
100
AcDbEntity
  8
KOPF
  6
CONTINU
 62
     2
100
AcDbVertex
100
AcDb2dVertex
 10
1.754718475328559
 20
1.36037367831426
 30
0.0
  0
VERTEX
  5
1CC0
330
1CA1
100
AcDbEntity
  8
KOPF
  6
CONTINU
 62
     2
100
AcDbVertex
100
AcDb2dVertex
 10
2.223819475328554
 20
1.196402678314257
 30
0.0
 42
0.054838
  0
VERTEX
  5
1CC1
330
1CA1
100
AcDbEntity
  8
KOPF
  6
CONTINU
 62
     2
100
AcDbVertex
100
AcDb2dVertex
 10
3.313342975328538
 20
1.289114678314263
 30
0.0
  0
VERTEX
  5
1CC2
330
1CA1
100
AcDbEntity
  8
KOPF
  6
CONTINU
 62
     2
100
AcDbVertex
100
AcDb2dVertex
 10
3.454181475328539
 20
2.134131178314248
 30
0.0
  0
VERTEX
  5
1CC3
330
1CA1
100
AcDbEntity
  8
KOPF
  6
CONTINU
 62
     2
100
AcDbVertex
100
AcDb2dVertex
 10
2.416049475328549
 20
2.134131178314248
 30
0.0
  0
VERTEX
  5
1CC4
330
1CA1
100
AcDbEntity
  8
KOPF
  6
CONTINU
 62
     2
100
AcDbVertex
100
AcDb2dVertex
 10
2.552585475328555
 20
2.953330178314246
 30
0.0
  0
VERTEX
  5
1CC5
330
1CA1
100
AcDbEntity
  8
KOPF
  6
CONTINU
 62
     2
100
AcDbVertex
100
AcDb2dVertex
 10
4.83645997532858
 20
2.953330178314246
 30
0.0
  0
VERTEX
  5
1CC6
330
1CA1
100
AcDbEntity
  8
KOPF
  6
CONTINU
 62
     2
100
AcDbVertex
100
AcDb2dVertex
 10
4.392505475328562
 20
0.2895421783142638
 30
0.0
  0
VERTEX
  5
1CC7
330
1CA1
100
AcDbEntity
  8
KOPF
  6
CONTINU
 62
     2
100
AcDbVertex
100
AcDb2dVertex
 10
4.338580975328568
 20
0.2768011783142867
 30
0.0
  0
VERTEX
  5
1CC8
330
1CA1
100
AcDbEntity
  8
KOPF
  6
CONTINU
 62
     2
100
AcDbVertex
100
AcDb2dVertex
 10
4.284671475328565
 20
0.2642886783142728
 30
0.0
  0
VERTEX
  5
1CC9
330
1CA1
100
AcDbEntity
  8
KOPF
  6
CONTINU
 62
     2
100
AcDbVertex
100
AcDb2dVertex
 10
4.230807975328559
 20
0.2520206783142669
 30
0.0
  0
SEQEND
  5
1CCA
330
1CA1
100
AcDbEntity
  8
KOPF
 62
     2
  0
HATCH
  5
1CCB
330
1C7A
100
AcDbEntity
  8
KOPF
 62
     7
100
AcDbHatch
 10
0.0
 20
0.0
 30
0.0
210
0.0
220
0.0
230
1.0
  2
SOLID
 70
     1
 71
     0
 91
        1
 92
        1
 93
       38
 72
     1
 10
2.223819475328554
 20
1.196402678314257
 11
1.754718475328559
 21
1.36037367831426
 72
     1
 10
1.754718475328559
 20
1.36037367831426
 11
1.523211975328536
 21
1.797781678314265
 72
     1
 10
1.523211975328536
 20
1.797781678314265
 11
1.532947475328569
 21
2.441336678314257
 72
     1
 10
1.532947475328569
 20
2.441336678314257
 11
1.757983975328556
 21
3.187644178314258
 72
     1
 10
1.757983975328556
 20
3.187644178314258
 11
2.163074475328556
 21
3.706198678314251
 72
     2
 10
3.09980946486911
 20
0.4750535186772141
 40
3.364189573028744
 50
253.8327008024395
 51
276.9353140195865
 73
     0
 72
     1
 10
3.50603097532857
 20
3.814627678314252
 11
3.60626597532854
 21
3.742651678314274
 72
     1
 10
3.60626597532854
 20
3.742651678314274
 11
3.658435475328559
 21
3.635474178314268
 72
     1
 10
3.658435475328559
 20
3.635474178314268
 11
3.676043975328553
 21
3.465338678314282
 72
     1
 10
3.676043975328553
 20
3.465338678314282
 11
4.921786975328558
 21
3.465338678314282
 72
     1
 10
4.921786975328558
 20
3.465338678314282
 11
4.661227975328557
 21
4.19379317831428
 72
     1
 10
4.661227975328557
 20
4.19379317831428
 11
4.189914475328549
 21
4.578391178314262
 72
     1
 10
4.189914475328549
 20
4.578391178314262
 11
3.590213475328567
 21
4.785315678314248
 72
     1
 10
3.590213475328567
 20
4.785315678314248
 11
2.929553975328559
 21
4.871710678314258
 72
     1
 10
2.929553975328559
 20
4.871710678314258
 11
2.262469975328542
 21
4.837775178314274
 72
     1
 10
2.262469975328542
 20
4.837775178314274
 11
1.632815975328554
 21
4.664038678314284
 72
     1
 10
1.632815975328554
 20
4.664038678314284
 11
1.075641475328552
 21
4.335898178314266
 72
     1
 10
1.075641475328552
 20
4.335898178314266
 11
0.6188849753285695
 21
3.857199678314259
 72
     1
 10
0.6188849753285695
 20
3.857199678314259
 11
0.2847019753285735
 21
3.254996178314257
 72
     1
 10
0.2847019753285735
 20
3.254996178314257
 11
0.0903659753285524
 21
2.57732267831426
 72
     1
 10
0.0903659753285524
 20
2.57732267831426
 11
0.0486334753285576
 21
1.885962678314285
 72
     1
 10
0.0486334753285576
 20
1.885962678314285
 11
0.1673769753285512
 21
1.246237678314258
 72
     1
 10
0.1673769753285512
 20
1.246237678314258
 11
0.4486119753285323
 21
0.7156286783142605
 72
     1
 10
0.4486119753285323
 20
0.7156286783142605
 11
0.8865389753285342
 21
0.3333501783142765
 72
     1
 10
0.8865389753285342
 20
0.3333501783142765
 11
1.464725475328549
 21
0.112723178314269
 72
     1
 10
1.464725475328549
 20
0.112723178314269
 11
2.152301475328556
 21
0.038306178314258
 72
     1
 10
2.152301475328556
 20
0.038306178314258
 11
2.898837975328547
 21
0.069876678314273
 72
     1
 10
2.898837975328547
 20
0.069876678314273
 11
3.628177475328556
 21
0.1549291783142621
 72
     1
 10
3.628177475328556
 20
0.1549291783142621
 11
4.230807975328559
 21
0.2520206783142669
 72
     1
 10
4.230807975328559
 20
0.2520206783142669
 11
4.284671475328565
 21
0.2642886783142728
 72
     1
 10
4.284671475328565
 20
0.2642886783142728
 11
4.338580975328568
 21
0.2768011783142867
 72
     1
 10
4.338580975328568
 20
0.2768011783142867
 11
4.392505475328562
 21
0.2895421783142638
 72
     1
 10
4.392505475328562
 20
0.2895421783142638
 11
4.83645997532858
 21
2.953330178314246
 72
     1
 10
4.83645997532858
 20
2.953330178314246
 11
2.552585475328555
 21
2.953330178314246
 72
     1
 10
2.552585475328555
 20
2.953330178314246
 11
2.416049475328549
 21
2.134131178314248
 72
     1
 10
2.416049475328549
 20
2.134131178314248
 11
3.454181475328539
 21
2.134131178314248
 72
     1
 10
3.454181475328539
 20
2.134131178314248
 11
3.313342975328538
 21
1.289114678314263
 72
     2
 10
2.347189143675734
 20
6.194831502486067
 40
4.999951078298644
 50
78.858501207424
 51
91.41386958452535
 73
     0
 97
        0
 75
     0
 76
     1
 98
        1
 10
78.94342397532856
 20
-1.062905321685718
450
        0
451
        0
460
0.0
461
0.0
452
        0
462
0.0
453
        0
470

1001
GENIUS_GENODEF_13
1002
{
1000
HIER
1070
     0
1002
}
1002
{
1000
MANEDIT
1070
     0
1002
}
1002
{
1000
NOSEL
1070
     0
1002
}
1002
{
1000
BEHIND
1070
     0
1002
}
1002
{
1000
REACTOR
1002
}
1001
GENIUS_GENOBJ-N-HTC_13
1002
{
1000
OWNER
1000
GEN
1002
}
1001
GENIUS_GENHATCH_13
1002
{
1000
DATA
1040
0.0
1042
0.5
1000
SOLID
1070
     0
1011
3.794008173068021
1021
0.9528598634049956
1031
0.0
1002
}
1002
{
1000
UCS
1010
0.0
1020
0.0
1030
0.0
1010
1.0
1020
0.0
1030
0.0
1010
0.0
1020
1.0
1030
0.0
1002
}
  0
POLYLINE
  5
1CCC
330
1C7A
100
AcDbEntity
  8
KOPF
  6
CONTINU
 62
     2
100
AcDb2dPolyline
 66
     1
 10
0.0
 20
0.0
 30
0.0
 70
     1
  0
VERTEX
  5
1CCD
330
1CCC
100
AcDbEntity
  8
KOPF
  6
CONTINU
 62
     2
100
AcDbVertex
100
AcDb2dVertex
 10
5.749469475328567
 20
4.694129178314256
 30
0.0
  0
VERTEX
  5
1CCE
330
1CCC
100
AcDbEntity
  8
KOPF
  6
CONTINU
 62
     2
100
AcDbVertex
100
AcDb2dVertex
 10
6.995212475328571
 20
4.694129178314256
 30
0.0
  0
VERTEX
  5
1CCF
330
1CCC
100
AcDbEntity
  8
KOPF
  6
CONTINU
 62
     2
100
AcDbVertex
100
AcDb2dVertex
 10
6.244296975328552
 20
0.1885291783142406
 30
0.0
  0
VERTEX
  5
1CD0
330
1CCC
100
AcDbEntity
  8
KOPF
  6
CONTINU
 62
     2
100
AcDbVertex
100
AcDb2dVertex
 10
4.998538475328558
 20
0.1885291783142406
 30
0.0
  0
SEQEND
  5
1CD1
330
1CCC
100
AcDbEntity
  8
KOPF
 62
     2
  0
HATCH
  5
1CD2
330
1C7A
100
AcDbEntity
  8
KOPF
 62
     7
100
AcDbHatch
 10
0.0
 20
0.0
 30
0.0
210
0.0
220
0.0
230
1.0
  2
SOLID
 70
     1
 71
     0
 91
        1
 92
        1
 93
        4
 72
     1
 10
5.749469475328567
 20
4.694129178314256
 11
4.998538475328558
 21
0.1885291783142406
 72
     1
 10
4.998538475328558
 20
0.1885291783142406
 11
6.244296975328552
 21
0.1885291783142406
 72
     1
 10
6.244296975328552
 20
0.1885291783142406
 11
6.995212475328571
 21
4.694129178314256
 72
     1
 10
6.995212475328571
 20
4.694129178314256
 11
5.749469475328567
 21
4.694129178314256
 97
        0
 75
     0
 76
     1
 98
        1
 10
78.94342397532856
 20
-1.062905321685718
450
        0
451
        0
460
0.0
461
0.0
452
        0
462
0.0
453
        0
470

1001
GENIUS_GENODEF_13
1002
{
1000
HIER
1070
     0
1002
}
1002
{
1000
MANEDIT
1070
     0
1002
}
1002
{
1000
NOSEL
1070
     0
1002
}
1002
{
1000
BEHIND
1070
     0
1002
}
1002
{
1000
REACTOR
1002
}
1001
GENIUS_GENOBJ-N-HTC_13
1002
{
1000
OWNER
1000
GEN
1002
}
1001
GENIUS_GENHATCH_13
1002
{
1000
DATA
1040
0.0
1042
0.5
1000
SOLID
1070
     0
1011
5.930903141474601
1021
0.6858655421573303
1031
0.0
1002
}
1002
{
1000
UCS
1010
0.0
1020
0.0
1030
0.0
1010
1.0
1020
0.0
1030
0.0
1010
0.0
1020
1.0
1030
0.0
1002
}
  0
ENDBLK
  5
1CD4
330
1C7A
100
AcDbEntity
  8
0
100
AcDbBlockEnd
  0
BLOCK
  5
1CF6
330
1CEC
100
AcDbEntity
  8
0
100
AcDbBlockBegin
  2
ISO_A4
 70
     0
 10
0.0
 20
0.0
 30
0.0
  3
ISO_A4
  1

  0
LINE
  5
1CED
330
1CEC
100
AcDbEntity
  8
0
100
AcDbLine
 10
20.12
 20
7.0
 30
0.0
 11
203.0
 21
7.0
 31
0.0
  0
LINE
  5
1CEE
330
1CEC
100
AcDbEntity
  8
0
100
AcDbLine
 10
203.0
 20
7.0
 30
0.0
 11
203.0
 21
290.0
 31
0.0
  0
LINE
  5
1CEF
330
1CEC
100
AcDbEntity
  8
0
100
AcDbLine
 10
20.12
 20
290.0
 30
0.0
 11
203.0
 21
290.0
 31
0.0
  0
TEXT
  5
1CF0
330
1CEC
100
AcDbEntity
  8
0
 60
     1
100
AcDbText
 10
208.0
 20
300.0
 30
0.0
 40
3.5
  1
!GENTITLE-MAX
100
AcDbText
  0
TEXT
  5
1CF1
330
1CEC
100
AcDbEntity
  8
0
 60
     1
100
AcDbText
 10
203.0
 20
290.0
 30
0.0
 40
3.5
  1
!GENTITLE-RU
100
AcDbText
  0
TEXT
  5
1CF2
330
1CEC
100
AcDbEntity
  8
0
 60
     1
100
AcDbText
 10
20.12
 20
61.99
 30
0.0
 40
3.5
  1
!GENTITLE-LL
100
AcDbText
  0
TEXT
  5
1CF3
330
1CEC
100
AcDbEntity
  8
0
 60
     1
100
AcDbText
 10
203.0
 20
7.0
 30
0.0
 40
3.5
  1
!GENTITLE-INSERT
100
AcDbText
  0
LINE
  5
1CF4
330
1CEC
100
AcDbEntity
  8
0
100
AcDbLine
 10
20.12
 20
290.0
 30
0.0
 11
20.12
 21
7.0
 31
0.0
  0
POINT
  5
1CF5
330
1CEC
100
AcDbEntity
  8
0
 60
     1
100
AcDbPoint
 10
0.0
 20
0.0
 30
0.0
  0
ENDBLK
  5
1CF7
330
1CEC
100
AcDbEntity
  8
0
100
AcDbBlockEnd
  0
BLOCK
  5
1D4F
330
1D0E
100
AcDbEntity
  8
0
100
AcDbBlockBegin
  2
ISO_TITLEB
 70
     2
 10
0.0
 20
0.0
 30
0.0
  3
ISO_TITLEB
  1

  0
LINE
  5
1D0F
330
1D0E
100
AcDbEntity
  8
RAHM2
100
AcDbLine
 10
-182.88
 20
4.230000000000018
 30
0.0
 11
0.0
 21
4.230000000000018
 31
0.0
  0
LINE
  5
1D10
330
1D0E
100
AcDbEntity
  8
RAHM3
100
AcDbLine
 10
-129.54
 20
16.92000000000001
 30
0.0
 11
0.0
 21
16.92000000000001
 31
0.0
  0
LINE
  5
1D11
330
1D0E
100
AcDbEntity
  8
0
100
AcDbLine
 10
-182.88
 20
38.07000000000002
 30
0.0
 11
0.0
 21
38.07000000000002
 31
0.0
  0
LINE
  5
1D12
330
1D0E
100
AcDbEntity
  8
RAHM2
100
AcDbLine
 10
-182.88
 20
21.15000000000003
 30
0.0
 11
-129.54
 21
21.15000000000003
 31
0.0
  0
LINE
  5
1D13
330
1D0E
100
AcDbEntity
  8
RAHM2
100
AcDbLine
 10
-182.88
 20
16.92000000000001
 30
0.0
 11
-129.54
 21
16.92000000000001
 31
0.0
  0
LINE
  5
1D14
330
1D0E
100
AcDbEntity
  8
RAHM2
100
AcDbLine
 10
-182.88
 20
12.69000000000003
 30
0.0
 11
-129.54
 21
12.69000000000005
 31
0.0
  0
MTEXT
  5
1D15
330
1D0E
100
AcDbEntity
  8
RAHM3
 62
     2
100
AcDbMText
 10
-179.4065153342974
 20
35.47807136137425
 30
0.0
 40
3.0
 41
45.0
 46
0.0
 71
     1
 72
     5
  1
Für Fabrikation ungültig !
 73
     1
 44
1.0
  0
TEXT
  5
1D16
330
1D0E
100
AcDbEntity
  8
RAHM2
100
AcDbText
 10
-173.0163605444353
 20
1.199999999999988
 30
0.0
 40
2.000000000000294
  1
Änderung
 72
     1
 11
-167.2801168577268
 21
1.199999999999988
 31
0.0
100
AcDbText
1001
GENIUS_GENTRA_14
1002
{
1070
     1
1000
GENTRATX,%s,(GENMSG gendwg 61)
1000
Änderung
1000
d
1070
     0
1040
1.0
1070
     0
1002
}
  0
LINE
  5
1D17
330
1D0E
100
AcDbEntity
  8
RAHM2
100
AcDbLine
 10
-182.88
 20
8.460000000000036
 30
0.0
 11
-129.54
 21
8.460000000000036
 31
0.0
  0
LINE
  5
1D18
330
1D0E
100
AcDbEntity
  8
RAHM2
100
AcDbLine
 10
-129.54
 20
33.84000000000003
 30
0.0
 11
-86.35999999999995
 21
33.84000000000003
 31
0.0
  0
LINE
  5
1D19
330
1D0E
100
AcDbEntity
  8
RAHM2
100
AcDbLine
 10
-182.88
 20
29.61000000000002
 30
0.0
 11
-86.35999999999995
 21
29.61000000000002
 31
0.0
  0
LINE
  5
1D1A
330
1D0E
100
AcDbEntity
  8
RAHM2
100
AcDbLine
 10
-182.88
 20
25.38000000000002
 30
0.0
 11
-86.35999999999995
 21
25.38000000000002
 31
0.0
  0
LINE
  5
1D1B
330
1D0E
100
AcDbEntity
  8
RAHM2
100
AcDbLine
 10
-175.26
 20
29.61000000000002
 30
0.0
 11
-175.26
 21
0.0
 31
0.0
  0
TEXT
  5
1D1C
330
1D0E
100
AcDbEntity
  8
RAHM2
100
AcDbText
 10
-180.5883006538761
 20
1.199999999999988
 30
0.0
 40
2.000000000000294
  1
Nr.
 72
     1
 11
-178.8883006538758
 21
1.199999999999988
 31
0.0
100
AcDbText
  0
LINE
  5
1D1D
330
1D0E
100
AcDbEntity
  8
RAHM3
100
AcDbLine
 10
-86.35999999999995
 20
38.07000000000003
 30
0.0
 11
-86.35999999999995
 21
0.0
 31
0.0
  0
LINE
  5
1D1E
330
1D0E
100
AcDbEntity
  8
RAHM3
100
AcDbLine
 10
-129.54
 20
21.15000000000003
 30
0.0
 11
-129.54
 21
0.0
 31
0.0
  0
LINE
  5
1D1F
330
1D0E
100
AcDbEntity
  8
RAHM2
100
AcDbLine
 10
-137.16
 20
29.61000000000002
 30
0.0
 11
-137.16
 21
0.0
 31
0.0
  0
LINE
  5
1D20
330
1D0E
100
AcDbEntity
  8
RAHM2
100
AcDbLine
 10
-149.8599999999999
 20
29.61000000000002
 30
0.0
 11
-149.8599999999999
 21
0.0
 31
0.0
  0
INSERT
  5
1D21
330
1D0E
100
AcDbEntity
  8
RAHM5
100
AcDbBlockReference
  2
GLUTZ1
 10
-128.5393330295188
 20
8.137302263146466
 30
0.0
  0
TEXT
  5
1D22
330
1D0E
100
AcDbEntity
  8
RAHM2
100
AcDbText
 10
-147.6104524425095
 20
1.199999999999988
 30
0.0
 40
2.000000000000294
  1
Datum
 72
     1
 11
-143.8742087558013
 21
1.199999999999988
 31
0.0
100
AcDbText
1001
GENIUS_GENTRA_14
1002
{
1070
     1
1000
GENTRATX,%s,(GENMSG gendwg 62)
1000
Datum
1000
d
1070
     0
1040
1.0
1070
     0
1002
}
  0
TEXT
  5
1D23
330
1D0E
100
AcDbEntity
  8
RAHM2
100
AcDbText
 10
-136.5823351702584
 20
1.19999999999851
 30
0.0
 40
2.000000000000294
  1
Name
100
AcDbText
1001
GENIUS_GENTRA_14
1002
{
1070
     1
1000
GENTRATX{3.31},%s,(GENMSG gendwg 63)
1000
Name
1000
d
1070
     0
1040
1.0
1070
     0
1002
}
  0
TEXT
  5
1D24
330
1D0E
100
AcDbEntity
  8
RAHM2
100
AcDbText
 10
-128.4506977874778
 20
1.220747800586508
 30
0.0
 40
2.000000000000196
  1
Datei:
 41
0.8
100
AcDbText
  0
MTEXT
  5
1D25
330
1D0E
100
AcDbEntity
  8
RAHM3
 62
     2
100
AcDbMText
 10
-109.3434521853635
 20
8.705840189037161
 30
0.0
 40
2.0
 41
76.23000000000001
 46
0.0
 71
     1
 72
     5
  1
CH-4502 Solothurn
 73
     1
 44
1.0
  0
TEXT
  5
1D26
330
1D0E
100
AcDbEntity
  8
RAHM2
 62
     1
100
AcDbText
 10
-85.15692863201479
 20
1.073329287851606
 30
0.0
 40
2.0
  1
Ers. für:
100
AcDbText
  0
LINE
  5
1D27
330
1D0E
100
AcDbEntity
  8
RAHM2
100
AcDbLine
 10
-129.54
 20
21.15000000000003
 30
0.0
 11
-86.35999999999995
 21
21.15000000000003
 31
0.0
  0
TEXT
  5
1D28
330
1D0E
100
AcDbEntity
  8
RAHM2
100
AcDbText
 10
-128.34
 20
30.71000000000001
 30
0.0
 40
2.000000000000294
  1
Bearb.
100
AcDbText
1001
GENIUS_GENTRA_14
1002
{
1070
     1
1000
GENTRATX{4.13},%s,(GENMSG gendwg 67)
1000
Bearb.
1000
d
1070
     0
1040
1.0
1070
     0
1002
}
  0
LINE
  5
1D29
330
1D0E
100
AcDbEntity
  8
RAHM2
100
AcDbLine
 10
-119.38
 20
38.07000000000002
 30
0.0
 11
-119.38
 21
25.38000000000002
 31
0.0
  0
LINE
  5
1D2A
330
1D0E
100
AcDbEntity
  8
RAHM3
100
AcDbLine
 10
-129.54
 20
38.07000000000002
 30
0.0
 11
-129.54
 21
21.15000000000003
 31
0.0
  0
TEXT
  5
1D2B
330
1D0E
100
AcDbEntity
  8
RAHM2
100
AcDbText
 10
-128.4098152078466
 20
18.06273924390339
 30
0.0
 40
2.000000000000294
  1
Format
100
AcDbText
  0
TEXT
  5
1D2C
330
1D0E
100
AcDbEntity
  8
RAHM2
100
AcDbText
 10
-128.34
 20
26.48000000000002
 30
0.0
 40
2.000000000000294
  1
Gepr.
100
AcDbText
1001
GENIUS_GENTRA_14
1002
{
1070
     1
1000
GENTRATX{4.19},%s,(GENMSG gendwg 68)
1000
Gepr.
1000
d
1070
     0
1040
1.0
1070
     0
1002
}
  0
LINE
  5
1D2D
330
1D0E
100
AcDbEntity
  8
RAHM2
100
AcDbLine
 10
-104.14
 20
38.07000000000002
 30
0.0
 11
-104.14
 21
16.92000000000001
 31
0.0
  0
TEXT
  5
1D2E
330
1D0E
100
AcDbEntity
  8
RAHM5
 62
     7
100
AcDbText
 10
-109.810847736663
 20
11.70157078455995
 30
0.0
 40
3.5
  1
Glutz AG
100
AcDbText
  0
TEXT
  5
1D2F
330
1D0E
100
AcDbEntity
  8
RAHM2
100
AcDbText
 10
-117.0692984212765
 20
35.04000000000002
 30
0.0
 40
2.000000000000294
  1
Datum
 41
0.983632218248894
 72
     1
 11
-113.3942087558013
 21
35.04000000000002
 31
0.0
100
AcDbText
1001
GENIUS_GENTRA_14
1002
{
1070
     1
1000
GENTRATX{3.38},%s,(GENMSG gendwg 62)
1000
Datum
1000
d
1070
     0
1040
1.0
1070
     0
1002
}
  0
TEXT
  5
1D30
330
1D0E
100
AcDbEntity
  8
RAHM2
100
AcDbText
 10
-101.0179677247366
 20
35.04000000000002
 30
0.0
 40
2.000000000000294
  1
Name
 72
     2
 11
-95.11796772473577
 21
35.04000000000002
 31
0.0
100
AcDbText
1001
GENIUS_GENTRA_14
1002
{
1070
     1
1000
GENTRATX,%s,(GENMSG gendwg 63)
1000
Name
1000
d
1070
     0
1040
1.0
1070
     0
1002
}
  0
TEXT
  5
1D31
330
1D0E
100
AcDbEntity
  8
RAHM2
100
AcDbText
 10
-128.3124050782448
 20
22.24469448710818
 30
0.0
 40
2.000000000000294
  1
Massstab
100
AcDbText
  0
LINE
  5
1D32
330
1D0E
100
AcDbEntity
  8
RAHM2
100
AcDbLine
 10
-10.15999999999997
 20
16.92000000000001
 30
0.0
 11
-10.15999999999997
 21
0.0
 31
0.0
  0
TEXT
  5
1D33
330
1D0E
100
AcDbEntity
  8
RAHM2
 62
     1
100
AcDbText
 10
-44.97248047431821
 20
1.073329287851606
 30
0.0
 40
2.0
  1
Ers. durch:
100
AcDbText
  0
LINE
  5
1D34
330
1D0E
100
AcDbEntity
  8
RAHM2
100
AcDbLine
 10
-10.15999999999997
 20
8.460000000000036
 30
0.0
 11
0.0
 21
8.460000000000036
 31
0.0
  0
TEXT
  5
1D35
330
1D0E
100
AcDbEntity
  8
RAHM2
100
AcDbText
 10
-3.184415883363063
 20
5.60997067448676
 30
0.0
 40
2.000000000000294
  1
Bl
 72
     1
 11
-1.984415883362885
 21
5.60997067448676
 31
0.0
100
AcDbText
1001
GENIUS_GENTRA_14
1002
{
1070
     1
1000
GENTRATX,%s,(GENMSG gendwg 77)
1000
Bl
1000
d
1070
     0
1040
1.0
1070
     0
1002
}
  0
TEXT
  5
1D36
330
1D0E
100
AcDbEntity
  8
RAHM2
100
AcDbText
 10
-8.890271956152652
 20
14.06744868035187
 30
0.0
 40
2.000000000000294
  1
Blatt
 72
     1
 11
-5.790271956152196
 21
14.06744868035187
 31
0.0
100
AcDbText
1001
GENIUS_GENTRA_14
1002
{
1070
     1
1000
GENTRATX,%s,(GENMSG gendwg 76)
1000
Blatt
1000
d
1070
     0
1040
1.0
1070
     0
1002
}
  0
ATTDEF
  5
1D37
330
1D0E
100
AcDbEntity
  8
RAHM2
100
AcDbText
 10
-122.7072858550522
 20
0.5846257810491125
 30
0.0
 40
3.000000000000294
  1

 41
0.8
100
AcDbAttributeDefinition
  3
Dateiname
  2
GEN-TITLE-DWG{8.92}
 70
     0
280
     0
1001
GENIUS_GENTRA_14
1002
{
1070
     3
1000
GENTRAPR,%s,(GENMSG gendwg 82)
1000
Dateiname
1000
d
1070
     0
1070
     0
1002
}
  0
ATTDEF
  5
1D38
330
1D0E
100
AcDbEntity
  8
RAHM2
100
AcDbText
 10
-103.1077603831749
 20
21.87123384445602
 30
0.0
 40
2.500000000000367
  1

100
AcDbAttributeDefinition
  3
Maßstab
  2
GEN-TITLE-SCA{5.42}
 70
     0
280
     0
1001
GENIUS_GENTRA_14
1002
{
1070
     3
1000
GENTRAPR,%s,(GENMSG gendwg 83)
1000
Maßstab
1000
d
1070
     0
1070
     0
1002
}
  0
ATTDEF
  5
1D39
330
1D0E
100
AcDbEntity
  8
RAHM5
100
AcDbText
 10
-15.62317922068642
 20
7.875
 30
0.0
 40
5.000000000000735
  1
 
 41
0.8
 72
     2
 11
-14.02317922068619
 21
7.875
 31
0.0
100
AcDbAttributeDefinition
  3
Zeichnungsnummer
  2
GEN-TITLE-NR{13.37}
 70
     0
280
     0
1001
GENIUS_GENTRA_14
1002
{
1070
     3
1000
GENTRAPR,%s,(GENMSG gendwg 84)
1000
Zeichnungsnummer
1000
d
1070
     0
1070
     0
1002
}
  0
ATTDEF
  5
1D3A
330
1D0E
100
AcDbEntity
  8
RAHM5
100
AcDbText
 10
-81.2071643690715
 20
29.17459677419356
 30
0.0
 40
5.00000000000049
  1

 41
0.8
100
AcDbAttributeDefinition
  3
Zeichnungsname (mx. 20 Z.)
  2
GEN-TITLE-DES1{15.54}
 70
     0
280
     0
1001
GENIUS_GENTRA_14
1002
{
1070
     3
1000
GENTRAPR,%s,(GENMSG gendwg 87)
1000
Zeichnungsname (mx. 20 Z.)
1000
d
1070
     0
1070
     0
1002
}
  0
ATTDEF
  5
1D3B
330
1D0E
100
AcDbEntity
  8
RAHM3
100
AcDbText
 10
-80.70716436907151
 20
21.17459677419356
 30
0.0
 40
3.500000000000171
  1
Massbild
 41
0.8
100
AcDbAttributeDefinition
  3
Untertitel
  2
GEN-TITLE-DES2{21.21}
 70
     0
280
     0
  0
ATTDEF
  5
1D3C
330
1D0E
100
AcDbEntity
  8
RAHM3
100
AcDbText
 10
-5.70040711384613
 20
9.420007355724408
 30
0.0
 40
3.0
  1
1
 41
0.8
 72
     1
 11
-5.100407113846131
 21
9.420007355724408
 31
0.0
100
AcDbAttributeDefinition
  3
Blatt
  2
GEN-TITLE-SHEET{2.62}
 70
     0
280
     0
1001
GENIUS_GENTRA_14
1002
{
1070
     3
1000
GENTRAPR,%s,(GENMSG gendwg 76)
1000
Blatt
1000
d
1070
     0
1070
     0
1002
}
  0
ATTDEF
  5
1D3D
330
1D0E
100
AcDbEntity
  8
RAHM2
 62
     2
100
AcDbText
 10
-9.030313474146169
 20
5.354862930298622
 30
0.0
 40
2.0
  1
1
100
AcDbAttributeDefinition
  3
Anzahl Blatt
  2
ANZBLATT
 70
     0
280
     0
  0
ATTDEF
  5
1D3E
330
1D0E
100
AcDbEntity
  8
RAHM2
100
AcDbText
 10
-118.7019468872817
 20
30.41000000000003
 30
0.0
 40
2.500000000000367
  1

100
AcDbAttributeDefinition
  3
Bearbeitungsdatum
  2
GEN-TITLE-DAT{5.44}
 70
     0
280
     0
1001
GENIUS_GENTRA_14
1002
{
1070
     3
1000
GENTRAPR,%s,(GENMSG gendwg 80)
1000
Bearbeitungsdatum
1000
d
1070
     0
1070
     0
1002
}
  0
ATTDEF
  5
1D3F
330
1D0E
100
AcDbEntity
  8
RAHM2
100
AcDbText
 10
-102.5325281430328
 20
30.41000000000003
 30
0.0
 40
2.500000000000367
  1

100
AcDbAttributeDefinition
  3
Name des Bearbeiters
  2
GEN-TITLE-NAME{5}
 70
     0
280
     0
1001
GENIUS_GENTRA_14
1002
{
1070
     3
1000
GENTRAPR,%s,(GENMSG gendwg 81)
1000
Name des Bearbeiters
1000
d
1070
     0
1070
     0
1002
}
  0
ATTDEF
  5
1D40
330
1D0E
100
AcDbEntity
  8
RAHM2
100
AcDbText
 10
-118.5451003624019
 20
26.17804422461478
 30
0.0
 40
2.500000000000367
  1

100
AcDbAttributeDefinition
  3
Prüfdatum
  2
GEN-TITLE-CHKD{5.41}
 70
     0
280
     0
1001
GENIUS_GENTRA_14
1002
{
1070
     3
1000
GENTRAPR,%s,(GENMSG gendwg 78)
1000
Prüfdatum
1000
d
1070
     0
1070
     0
1002
}
  0
ATTDEF
  5
1D41
330
1D0E
100
AcDbEntity
  8
RAHM2
100
AcDbText
 10
-102.0619852594997
 20
26.4915214039151
 30
0.0
 40
2.500000000000367
  1

100
AcDbAttributeDefinition
  3
Geprüft von
  2
GEN-TITLE-CHKM{5}
 70
     0
280
     0
1001
GENIUS_GENTRA_14
1002
{
1070
     3
1000
GENTRAPR,%s,(GENMSG gendwg 72)
1000
Geprüft von
1000
d
1070
     0
1070
     0
1002
}
  0
ATTDEF
  5
1D42
330
1D0E
100
AcDbEntity
  8
RAHM2
100
AcDbText
 10
-102.9229702314162
 20
17.77922510127297
 30
0.0
 40
2.500000000000367
  1
A 4
100
AcDbAttributeDefinition
  3
Format
  2
FORMAT
 70
     0
280
     0
  0
ATTDEF
  5
1D43
330
1D0E
100
AcDbEntity
  8
RAHM2
 62
     2
100
AcDbText
 10
-74.59407938355946
 20
1.069999999999993
 30
0.0
 40
2.0
  1

100
AcDbAttributeDefinition
  3
Ersatz für
  2
ERS.FÜR
 70
     0
280
     0
  0
ATTDEF
  5
1D44
330
1D0E
100
AcDbEntity
  8
RAHM2
 62
     2
100
AcDbText
 10
-31.51210471117906
 20
1.005195332250792
 30
0.0
 40
2.0
  1

100
AcDbAttributeDefinition
  3
Ersetzt durch:
  2
ERS.DURCH
 70
     0
280
     0
  0
ATTDEF
  5
1D45
330
1D0E
100
AcDbEntity
  8
RAHM2
100
AcDbText
 10
-5.369955967542637
 20
0.4161834165005303
 30
0.0
 40
3.000000000000294
  1

 72
     1
 11
-5.369955967542637
 21
0.4161834165005303
 31
0.0
100
AcDbAttributeDefinition
  3
Plot-Datum
  2
GEN-TITLE-PLOT{2.94}
 70
     0
280
     0
1001
GENIUS_GENTRA_14
1002
{
1070
     3
1000
GENTRAPR,%s,(GENMSG gendwg 91)
1000
Plot-Datum
1000
d
1070
     0
1070
     0
1002
}
  0
POLYLINE
  5
1D46
330
1D0E
100
AcDbEntity
  8
0
100
AcDb2dPolyline
 66
     1
 10
0.0
 20
0.0
 30
0.0
  0
VERTEX
  5
1D47
330
1D46
100
AcDbEntity
  8
0
100
AcDbVertex
100
AcDb2dVertex
 10
-182.88
 20
0.0
 30
0.0
  0
VERTEX
  5
1D48
330
1D46
100
AcDbEntity
  8
0
100
AcDbVertex
100
AcDb2dVertex
 10
0.0
 20
0.0
 30
0.0
  0
VERTEX
  5
1D49
330
1D46
100
AcDbEntity
  8
0
100
AcDbVertex
100
AcDb2dVertex
 10
0.0
 20
38.07000000000002
 30
0.0
  0
SEQEND
  5
1D4A
330
1D46
100
AcDbEntity
  8
0
  0
POLYLINE
  5
1D4B
330
1D0E
100
AcDbEntity
  8
0
100
AcDb2dPolyline
 66
     1
 10
0.0
 20
0.0
 30
0.0
  0
VERTEX
  5
1D4C
330
1D4B
100
AcDbEntity
  8
0
100
AcDbVertex
100
AcDb2dVertex
 10
-182.88
 20
38.07000000000002
 30
0.0
  0
VERTEX
  5
1D4D
330
1D4B
100
AcDbEntity
  8
0
100
AcDbVertex
100
AcDb2dVertex
 10
-182.88
 20
0.0
 30
0.0
  0
SEQEND
  5
1D4E
330
1D4B
100
AcDbEntity
  8
0
  0
ENDBLK
  5
1D50
330
1D0E
100
AcDbEntity
  8
0
100
AcDbBlockEnd
  0
ENDSEC
  0
SECTION
  2
ENTITIES
  0
INSERT
  5
3FB
330
1A
100
AcDbEntity
  8
ASHADE
 62
     1
100
AcDbBlockReference
  2
AVE_RENDER
 10
0.0
 20
0.0
 30
0.0
1001
AVE_RENDER
1002
{
1070
     7
1000
Pref
1070
    60
1070
    30
1070
     1
1070
     0
1000

1070
    10
1070
     1
1070
    10
1040
1.0
1070
     1
1040
0.3
1040
0.7
1040
0.0
1040
10.0
1010
-1.0
1020
-1.0
1030
-1.0
1040
0.3
1070
    49
1070
     1
1070
     0
1010
1.0
1020
1.0
1030
1.0
1040
45.0
1070
     1
1070
     0
1000
WCS
1040
0.0
1070
     1
1040
10.0
1002
}
  0
INSERT
  5
3FC
330
1A
100
AcDbEntity
  8
ASHADE
 62
     3
100
AcDbBlockReference
  2
AVE_RENDER
 10
0.0
 20
0.0
 30
0.0
1001
AVE_RENDER
1002
{
1070
     0
1000
Full Opt
1070
     0
1070
     1
1070
     1
1070
     1
1070
     0
1070
     0
1070
     0
1070
     1
1070
     1
1040
0.0001
1040
0.0001
1002
}
  0
INSERT
  5
3FD
330
1A
100
AcDbEntity
  8
ASHADE
 62
     4
100
AcDbBlockReference
  2
AVE_RENDER
 10
0.0
 20
0.0
 30
0.0
1001
AVE_RENDER
1002
{
1070
     0
1000
Quick Opt
1070
     0
1070
     1
1070
     1
1070
     1
1070
     0
1070
     0
1070
     1
1002
}
  0
INSERT
  5
3FE
330
1A
100
AcDbEntity
  8
ASHADE
 62
     5
100
AcDbBlockReference
  2
AVE_RENDER
 10
0.0
 20
0.0
 30
0.0
1001
AVE_RENDER
1002
{
1070
     1
1000
Scanl Opt
1070
     2
1070
     0
1070
     2
1040
2.0
1040
4.0
1070
     0
1070
     1
1070
     0
1040
0.03
1002
}
  0
INSERT
  5
3FF
330
1A
100
AcDbEntity
  8
ASHADE
 62
     6
100
AcDbBlockReference
  2
AVE_RENDER
 10
0.0
 20
0.0
 30
0.0
1001
AVE_RENDER
1002
{
1070
     2
1000
Raytr Opt
1070
     3
1070
     0
1070
     2
1040
2.0
1040
4.0
1070
     0
1070
     1
1070
     1
1040
0.03
1070
     3
1040
0.03
1002
}
  0
INSERT
  5
400
330
1A
100
AcDbEntity
  8
ASHADE
 62
     7
100
AcDbBlockReference
  2
AVE_RENDER
 10
0.0
 20
0.0
 30
0.0
1001
AVE_RENDER
1002
{
1070
     0
1000
RFile Opt
1070
     5
1070
  1600
1070
  1280
1070
 10000
1070
     1
1070
    32
1070
    32
1070
     0
1070
     0
1070
     0
1070
     0
1070
     0
1070
     0
1070
     0
1002
}
  0
INSERT
  5
401
330
1A
100
AcDbEntity
  8
ASHADE
 62
     8
100
AcDbBlockReference
  2
AVE_RENDER
 10
0.0
 20
0.0
 30
0.0
1001
AVE_RENDER
1002
{
1070
     0
1000
Fog Opt
1070
     0
1070
     0
1040
0.0
1040
1.0
1040
0.0
1040
1.0
1010
0.5
1020
0.5
1030
0.5
1002
}
  0
INSERT
  5
402
330
1A
100
AcDbEntity
  8
ASHADE
 62
     9
100
AcDbBlockReference
  2
AVE_RENDER
 10
0.0
 20
0.0
 30
0.0
1001
AVE_RENDER
1002
{
1070
     0
1000
BG Opt
1070
     0
1070
     0
1010
1.0
1020
1.0
1030
1.0
1010
1.0
1020
0.0
1030
0.0
1010
0.0
1020
1.0
1030
0.0
1010
0.0
1020
0.0
1030
1.0
1040
0.5
1040
0.33
1040
0.0
1000

1070
     1
1000

1070
     1
1070
     1
1040
1.0
1040
1.0
1040
0.0
1040
0.0
1070
     0
1002
}
  0
INSERT
  5
409
330
1A
100
AcDbEntity
  8
ASHADE
 62
     1
100
AcDbBlockReference
  2
AVE_GLOBAL
 10
0.0
 20
0.0
 30
0.0
1001
AVE_MATERIAL
1002
{
1000
*GLOBAL*
1000
2
1000
Globales Material.
1002
{
1002
}
1002
{
1070
    63
1002
{
1002
{
1010
-1.0
1020
-1.0
1030
-1.0
1002
}
1040
0.1000000014901161
1000

1040
0.0
1002
{
1002
}
1040
0.0
1002
{
1002
}
1040
0.0
1002
}
1002
{
1002
{
1010
-1.0
1020
-1.0
1030
-1.0
1002
}
1040
0.6999999880790711
1000

1040
0.0
1002
{
1002
}
1040
0.0
1002
{
1002
}
1040
0.0
1002
}
1002
{
1002
{
1010
-1.0
1020
-1.0
1030
-1.0
1002
}
1040
0.2000000029802322
1000

1040
0.0
1002
{
1002
}
1040
0.0
1002
{
1002
}
1040
0.0
1002
}
1002
{
1070
     0
1002
{
1070
     1
1002
{
1040
1.0
1040
1.0
1000

1040
0.0
1002
{
1002
}
1040
0.0
1002
{
1002
}
1040
0.0
1002
}
1002
}
1040
1.0
1040
0.0
1040
0.0
1002
}
1002
{
1040
1.0
1040
1.0
1000

1040
0.0
1002
{
1002
}
1040
0.0
1002
{
1002
}
1040
0.0
1002
}
1002
{
1040
0.5
1040
1.0
1000

1040
0.0
1002
{
1002
}
1040
0.0
1002
{
1002
}
1040
0.0
1002
}
1002
{
1070
     0
1040
0.0
1002
{
1002
}
1040
1.0
1002
{
1002
}
1040
0.0
1002
}
1002
{
1040
0.0
1002
{
1002
{
1010
0.0
1020
0.0
1030
0.0
1002
}
1040
1.0
1000

1040
0.0
1002
{
1002
}
1040
0.0
1002
{
1002
}
1040
0.0
1002
}
1002
}
1002
{
1002
{
1070
     1
1002
{
1040
0.0
1040
1.0
1000

1040
0.0
1002
{
1002
}
1040
0.0
1002
{
1002
}
1040
0.0
1002
}
1002
}
1040
0.0
1002
{
1002
}
1010
1.0
1020
0.0
1030
0.0
1010
0.0
1020
1.0
1030
0.0
1010
0.0
1020
0.0
1030
1.0
1070
     0
1002
}
1002
{
1002
{
1040
1.0
1040
1.0
1002
{
1070
     1
1002
{
1040
1.0
1040
1.0
1000

1040
0.0
1002
{
1002
}
1040
0.0
1002
{
1002
}
1040
0.0
1002
}
1002
}
1002
}
1070
     0
1040
0.0
1002
{
1002
}
1002
}
1002
{
1002
}
1002
}
1002
{
1071
        3
1070
     3
1070
     0
1002
{
1070
     2
1070
     0
1070
     0
1040
0.0
1002
}
1070
     0
1070
     2
1002
{
1002
}
1002
}
1002
{
1040
8030.0
1040
190.3000030517578
1040
0.3050000071525574
1040
228.0
1040
545.0
1040
14.0
1040
17.39999961853027
1040
0.4560000002384186
1002
}
1002
}
  0
POINT
  5
1677
330
1A
100
AcDbEntity
  8
0
 60
     1
100
AcDbPoint
 10
0.0
 20
0.0
 30
0.0
1001
GENIUS_GENODEF_13
1002
{
1000
HIER
1070
     1
1002
}
1002
{
1000
MANEDIT
1070
     0
1002
}
1002
{
1000
NOSEL
1070
     0
1002
}
1002
{
1000
BEHIND
1070
     0
1002
}
1002
{
1000
REACTOR
1002
}
1001
GENIUS_GENOBJ-N-SDF_13
1002
{
1000
OWNER
1000
GEN
1002
}
1001
GENIUS_GENOENT_13
1002
{
1000
MYREF
1005
1677
1002
}
1002
{
1000
GRP
1005
0
1002
}
1001
GENIUS_GENOLIS_13
1002
{
1000
ENT
1005
22
1002
}
  0
ARC
  5
19BF
330
1A
100
AcDbEntity
  8
1
100
AcDbCircle
 10
139.0649258226813
 20
267.2563266778746
 30
0.0
 40
27.499998
100
AcDbArc
 50
359.9999679999998
 51
180.0
  0
CIRCLE
  5
19C1
330
1A
100
AcDbEntity
  8
0
  6
CONTINU
100
AcDbCircle
 10
128.5649298226813
 20
273.7563266778746
 30
0.0
 40
3.6
  0
CIRCLE
  5
19C2
330
1A
100
AcDbEntity
  8
0
  6
CONTINU
100
AcDbCircle
 10
149.5649318226813
 20
273.7563266778746
 30
0.0
 40
3.6
  0
CIRCLE
  5
19C6
330
1A
100
AcDbEntity
  8
1
100
AcDbCircle
 10
139.0649298226813
 20
202.7563266778746
 30
0.0
 40
8.0
  0
ARC
  5
19C7
330
1A
100
AcDbEntity
  8
1
100
AcDbCircle
 10
139.0649258226813
 20
72.25631067787464
 30
0.0
 40
27.499998
100
AcDbArc
 50
180.0
 51
0.0
  0
LINE
  5
19C8
330
1A
100
AcDbEntity
  8
AM_7
100
AcDbLine
 10
122.1158618226813
 20
202.7563266778746
 30
0.0
 11
154.4539678226813
 21
202.7563266778746
 31
0.0
  0
LINE
  5
19CD
330
1A
100
AcDbEntity
  8
1
100
AcDbLine
 10
111.5649218226813
 20
72.25631067787464
 30
0.0
 11
111.5649218226813
 21
267.2563266778746
 31
0.0
  0
CIRCLE
  5
19CF
330
1A
100
AcDbEntity
  8
0
  6
CONTINU
100
AcDbCircle
 10
128.5649298226813
 20
65.75631067787464
 30
0.0
 40
3.6
  0
CIRCLE
  5
19D0
330
1A
100
AcDbEntity
  8
0
  6
CONTINU
100
AcDbCircle
 10
128.5649298226813
 20
65.75631067787464
 30
0.0
 40
2.649999999999999
  0
CIRCLE
  5
19D1
330
1A
100
AcDbEntity
  8
0
  6
CONTINU
100
AcDbCircle
 10
128.5649298226813
 20
273.7563266778746
 30
0.0
 40
2.649999999999999
  0
LINE
  5
19D2
330
1A
100
AcDbEntity
  8
1
100
AcDbLine
 10
166.5649298226813
 20
267.2563266778746
 30
0.0
 11
166.5649298226813
 21
72.25631067787464
 31
0.0
  0
CIRCLE
  5
19D4
330
1A
100
AcDbEntity
  8
0
  6
CONTINU
100
AcDbCircle
 10
149.5649318226813
 20
65.75631067787464
 30
0.0
 40
2.649999999999999
  0
CIRCLE
  5
19D5
330
1A
100
AcDbEntity
  8
0
  6
CONTINU
100
AcDbCircle
 10
149.5649318226813
 20
65.75631067787464
 30
0.0
 40
3.6
  0
CIRCLE
  5
19D6
330
1A
100
AcDbEntity
  8
0
  6
CONTINU
100
AcDbCircle
 10
149.5649318226813
 20
273.7563266778746
 30
0.0
 40
2.649999999999999
  0
ARC
  5
1A03
330
1A
100
AcDbEntity
  8
1
100
AcDbCircle
 10
139.0649298226813
 20
124.7563186778746
 30
0.0
 40
8.75
100
AcDbArc
 50
306.8698976458434
 51
233.1301023541566
  0
LINE
  5
1A04
330
1A
100
AcDbEntity
  8
1
100
AcDbLine
 10
133.8149298226813
 20
104.7563186778746
 30
0.0
 11
133.8149298226813
 21
117.7563186778747
 31
0.0
  0
LINE
  5
1A05
330
1A
100
AcDbEntity
  8
1
100
AcDbLine
 10
144.3149298226813
 20
104.7608136042877
 30
0.0
 11
144.3149298226813
 21
117.7563186778747
 31
0.0
  0
ARC
  5
1A07
330
1A
100
AcDbEntity
  8
1
100
AcDbCircle
 10
139.0649317469067
 20
104.7563186778746
 30
0.0
 40
5.25
100
AcDbArc
 50
180.0
 51
0.0490553036479662
  0
LWPOLYLINE
  5
1A52
330
1A
100
AcDbEntity
  8
AM_VIEWS
100
AcDbPolyline
 90
        4
 70
     1
 43
0.0
 10
32.46740613793952
 20
-26.34607727349215
 10
237.6683696400693
 20
-26.34607727349215
 10
237.6683696400693
 20
362.9286596077406
 10
32.46740613793952
 20
362.9286596077406
1001
GENIUS_GENSCREG_15
1040
2.0
1040
1.0
1011
32.46740613793952
1021
-26.34607727349215
1031
0.0
1011
237.6683696400693
1021
362.9286596077406
1031
0.0
1070
     2
1001
GENIUS_GENOBJ-N-SDF_13
1002
{
1000
OWNER
1000
GEN
1002
}
1001
GENIUS_GENODEF_13
1002
{
1000
HIER
1070
     0
1002
}
1002
{
1000
MANEDIT
1070
     0
1002
}
1002
{
1000
NOSEL
1070
     0
1002
}
1002
{
1000
BEHIND
1070
     0
1002
}
1002
{
1000
OTHER
1070
     0
1002
}
1002
{
1000
REACTOR
1002
}
  0
DIMENSION
  5
1A62
330
1A
100
AcDbEntity
  8
AM_5
100
AcDbDimension
  2
*D18
 10
149.5649318226813
 20
323.4079076778746
 30
0.0
 11
139.0649308226813
 21
329.9085966542526
 31
0.0
 70
    32
 71
     5
 42
21.000002
 73
     0
 74
     0
 75
     0
  3
AM_ISO
100
AcDbAlignedDimension
 13
128.5649298226813
 23
282.1290386778746
 33
0.0
 14
149.5649318226813
 24
282.1290386778746
 34
0.0
100
AcDbRotatedDimension
1001
ACAD
1000
DSTYLE
1002
{
1070
    40
1040
2.0
1002
}
  0
DIMENSION
  5
1ABC
330
1A
100
AcDbEntity
  8
AM_5
100
AcDbDimension
  2
*D19
 10
166.5649238226813
 20
20.19542767787467
 30
0.0
 11
139.0649228226813
 21
26.69542767787467
 31
0.0
 70
    32
 71
     5
 42
55.00000200000002
 73
     0
 74
     0
 75
     0
  3
AM_ISO
100
AcDbAlignedDimension
 13
111.5649218226813
 23
72.25631067787464
 33
0.0
 14
166.5649238226813
 24
72.25631067787464
 34
0.0
 50
0.0000000000001132
100
AcDbRotatedDimension
1001
ACAD
1000
DSTYLE
1002
{
1070
    40
1040
2.0
1002
}
  0
DIMENSION
  5
1AFF
330
1A
100
AcDbEntity
  8
AM_5
100
AcDbDimension
  2
*D20
 10
190.564923822677
 20
202.7563266778746
 30
0.0
 11
184.064923822677
 21
238.2563266778747
 31
0.0
 70
    32
 71
     5
 42
71.00000000000003
 73
     0
 74
     0
 75
     0
  3
AM_ISO
100
AcDbAlignedDimension
 13
157.7592198226813
 23
273.7563266778746
 33
0.0
 14
157.7592198226813
 24
202.7563266778746
 34
0.0
 50
90.00000000000003
100
AcDbRotatedDimension
1001
ACAD
1000
DSTYLE
1002
{
1070
    40
1040
2.0
1002
}
  0
DIMENSION
  5
1B4D
330
1A
100
AcDbEntity
  8
AM_5
100
AcDbDimension
  2
*D21
 10
190.5649238226771
 20
65.75631067787462
 30
0.0
 11
184.0649238226771
 21
134.2563186778747
 31
0.0
 70
    32
 71
     5
 42
137.000016
 73
     0
 74
     0
 75
     0
  3
AM_ISO
100
AcDbAlignedDimension
 13
154.4539678226813
 23
202.7563266778746
 33
0.0
 14
157.8747298226813
 24
65.75631067787464
 34
0.0
 50
90.00000000000003
100
AcDbRotatedDimension
1001
ACAD
1000
DSTYLE
1002
{
1070
    40
1040
2.0
1002
}
  0
DIMENSION
  5
1B8C
330
1A
100
AcDbEntity
  8
AM_5
100
AcDbDimension
  2
*D22
 10
87.56492082268119
 20
202.7563266778746
 30
0.0
 11
81.06254008973428
 21
248.7563256778747
 31
0.0
 70
    32
 71
     5
 42
91.99999800000004
 73
     0
 74
     0
 75
     0
  3
AM_ISO
100
AcDbAlignedDimension
 13
139.0649258226813
 23
294.7563246778747
 33
0.0
 14
122.1158618226813
 24
202.7563266778746
 34
0.0
 50
90.00000000000003
100
AcDbRotatedDimension
1001
ACAD
1000
DSTYLE
1002
{
1070
    40
1040
2.0
1002
}
  0
DIMENSION
  5
1BCB
330
1A
100
AcDbEntity
  8
AM_5
100
AcDbDimension
  2
*D23
 10
87.56492082268128
 20
125.3281206487436
 30
0.0
 11
81.06492082268125
 21
164.0422236633092
 31
0.0
 70
    32
  1
E
 71
     5
 42
77.428206029131
 73
     0
 74
     0
 75
     0
  3
AM_ISO
100
AcDbAlignedDimension
 13
122.1158618226813
 23
202.7563266778746
 33
0.0
 14
124.7149298226813
 24
125.3281206487436
 34
0.0
 50
90.00000000000003
100
AcDbRotatedDimension
1001
ACAD
1000
DSTYLE
1002
{
1070
    40
1040
2.0
1002
}
  0
DIMENSION
  5
1C0A
330
1A
100
AcDbEntity
  8
AM_5
100
AcDbDimension
  2
*D24
 10
70.5046570784783
 20
44.75631267787465
 30
0.0
 11
64.00396810210034
 21
169.7563186778747
 31
0.0
 70
    32
 71
     5
 42
250.0000120000001
 73
     0
 74
     0
 75
     0
  3
AM_ISO
100
AcDbAlignedDimension
 13
139.0649258226813
 23
294.7563246778747
 33
0.0
 14
139.0649258226813
 24
44.75631267787463
 34
0.0
 50
90.00000000000003
100
AcDbRotatedDimension
1001
ACAD
1000
DSTYLE
1002
{
1070
    40
1040
2.0
1002
}
  0
TEXT
  5
1DD8
330
1A
100
AcDbEntity
  8
AM_6
100
AcDbText
 10
62.7579444969964
 20
25.17954607202444
 30
0.0
 40
7.0
  1
5369
100
AcDbText
1001
GENIUS_AMGTXT_16
1040
3.5
1040
0.12
  0
CIRCLE
  5
1E91
330
1A
100
AcDbEntity
  8
AM_0
100
AcDbCircle
 10
139.0649298226813
 20
202.7563266778746
 30
0.0
 40
11.0
  0
LINE
  5
1F11
330
1A
100
AcDbEntity
  8
AM_7
100
AcDbLine
 10
128.5649298226813
 20
273.7563266778746
 30
0.0
 11
137.7649298226813
 21
273.7563266778746
 31
0.0
1001
GENIUS_GENOREF_13
1005
1F15
  0
LINE
  5
1F12
330
1A
100
AcDbEntity
  8
AM_7
100
AcDbLine
 10
128.5649298226813
 20
273.7563266778746
 30
0.0
 11
128.5649298226813
 21
282.9563266778747
 31
0.0
1001
GENIUS_GENOREF_13
1005
1F15
  0
LINE
  5
1F13
330
1A
100
AcDbEntity
  8
AM_7
100
AcDbLine
 10
128.5649298226813
 20
273.7563266778746
 30
0.0
 11
119.3649298226813
 21
273.7563266778746
 31
0.0
1001
GENIUS_GENOREF_13
1005
1F15
  0
LINE
  5
1F14
330
1A
100
AcDbEntity
  8
AM_7
100
AcDbLine
 10
128.5649298226813
 20
273.7563266778746
 30
0.0
 11
128.5649298226813
 21
264.5563266778746
 31
0.0
1001
GENIUS_GENOREF_13
1005
1F15
  0
POINT
  5
1F15
330
1A
100
AcDbEntity
  8
0
 60
     1
100
AcDbPoint
 10
0.0
 20
0.0
 30
0.0
1001
GENIUS_GENOLIS_13
1002
{
1000
ENT
1005
1F14
1005
1F13
1005
1F12
1005
1F11
1002
}
1001
GENIUS_GENODEF_13
1002
{
1000
HIER
1070
    10
1002
}
1002
{
1000
MANEDIT
1070
     0
1002
}
1002
{
1000
NOSEL
1070
     0
1002
}
1002
{
1000
BEHIND
1070
     0
1002
}
1002
{
1000
OTHER
1070
     0
1002
}
1002
{
1000
REACTOR
1002
}
1001
GENIUS_GENOBJ-N-CRS_13
1002
{
1000
OWNER
1000
GEN
1002
}
1001
GENIUS_GENOENT_13
1002
{
1000
MYREF
1005
1F15
1002
}
1002
{
1000
GRP
1005
0
1002
}
  0
LINE
  5
1F16
330
1A
100
AcDbEntity
  8
AM_7
100
AcDbLine
 10
139.06493369541
 20
300.3563246778736
 30
0.0
 11
139.0649246802557
 21
39.15631267787465
 31
0.0
1001
GENIUS_GENODEF_13
1002
{
1000
HIER
1070
     0
1002
}
1002
{
1000
MANEDIT
1070
     0
1002
}
1002
{
1000
NOSEL
1070
     0
1002
}
1002
{
1000
BEHIND
1070
     0
1002
}
1002
{
1000
OTHER
1070
     0
1002
}
1002
{
1000
REACTOR
1002
}
1001
GENIUS_GENOBJ-N-CEN_13
1002
{
1000
OWNER
1000
GEN
1002
}
1001
GENIUS_GENCEN_19
1002
{
1040
5.599999999999999
1002
}
  0
LINE
  5
1F18
330
1A
100
AcDbEntity
  8
AM_7
  6
AM_ISO08W050x2
100
AcDbLine
 10
153.3962265480315
 20
125.3281206487436
 30
0.0
 11
124.7149298226813
 21
125.3281206487436
 31
0.0
1001
GENIUS_GENOBJ-N-CEN_13
1002
{
1000
OWNER
1000
GEN
1002
}
1001
GENIUS_GENODEF_13
1002
{
1000
HIER
1070
     0
1002
}
1002
{
1000
MANEDIT
1070
     0
1002
}
1002
{
1000
NOSEL
1070
     0
1002
}
1002
{
1000
BEHIND
1070
     0
1002
}
1002
{
1000
OTHER
1070
     0
1002
}
1002
{
1000
REACTOR
1002
}
1001
GENIUS_GENCEN_19
1002
{
1040
5.599999999999999
1002
}
  0
LINE
  5
1F1A
330
1A
100
AcDbEntity
  8
AM_7
100
AcDbLine
 10
149.5649318226813
 20
273.7563266778746
 30
0.0
 11
158.7649318226813
 21
273.7563266778746
 31
0.0
1001
GENIUS_GENOREF_13
1005
1F1E
  0
LINE
  5
1F1B
330
1A
100
AcDbEntity
  8
AM_7
100
AcDbLine
 10
149.5649318226813
 20
273.7563266778746
 30
0.0
 11
149.5649318226813
 21
282.9563266778747
 31
0.0
1001
GENIUS_GENOREF_13
1005
1F1E
  0
LINE
  5
1F1C
330
1A
100
AcDbEntity
  8
AM_7
100
AcDbLine
 10
149.5649318226813
 20
273.7563266778746
 30
0.0
 11
140.3649318226813
 21
273.7563266778746
 31
0.0
1001
GENIUS_GENOREF_13
1005
1F1E
  0
LINE
  5
1F1D
330
1A
100
AcDbEntity
  8
AM_7
100
AcDbLine
 10
149.5649318226813
 20
273.7563266778746
 30
0.0
 11
149.5649318226813
 21
264.5563266778746
 31
0.0
1001
GENIUS_GENOREF_13
1005
1F1E
  0
POINT
  5
1F1E
330
1A
100
AcDbEntity
  8
0
 60
     1
100
AcDbPoint
 10
21.000002
 20
0.0
 30
0.0
1001
GENIUS_GENOLIS_13
1002
{
1000
ENT
1005
1F1D
1005
1F1C
1005
1F1B
1005
1F1A
1002
}
1001
GENIUS_GENODEF_13
1002
{
1000
HIER
1070
    10
1002
}
1002
{
1000
MANEDIT
1070
     0
1002
}
1002
{
1000
NOSEL
1070
     0
1002
}
1002
{
1000
BEHIND
1070
     0
1002
}
1002
{
1000
OTHER
1070
     0
1002
}
1002
{
1000
REACTOR
1002
}
1001
GENIUS_GENOBJ-N-CRS_13
1002
{
1000
OWNER
1000
GEN
1002
}
1001
GENIUS_GENOENT_13
1002
{
1000
MYREF
1005
1F1E
1002
}
1002
{
1000
GRP
1005
0
1002
}
  0
LINE
  5
1F1F
330
1A
100
AcDbEntity
  8
AM_7
100
AcDbLine
 10
128.5649298226813
 20
65.75631067787464
 30
0.0
 11
137.7649298226813
 21
65.75631067787464
 31
0.0
1001
GENIUS_GENOREF_13
1005
1F23
  0
LINE
  5
1F20
330
1A
100
AcDbEntity
  8
AM_7
100
AcDbLine
 10
128.5649298226813
 20
65.75631067787464
 30
0.0
 11
128.5649298226813
 21
74.95631067787468
 31
0.0
1001
GENIUS_GENOREF_13
1005
1F23
  0
LINE
  5
1F21
330
1A
100
AcDbEntity
  8
AM_7
100
AcDbLine
 10
128.5649298226813
 20
65.75631067787464
 30
0.0
 11
119.3649298226813
 21
65.75631067787464
 31
0.0
1001
GENIUS_GENOREF_13
1005
1F23
  0
LINE
  5
1F22
330
1A
100
AcDbEntity
  8
AM_7
100
AcDbLine
 10
128.5649298226813
 20
65.75631067787464
 30
0.0
 11
128.5649298226813
 21
56.55631067787459
 31
0.0
1001
GENIUS_GENOREF_13
1005
1F23
  0
POINT
  5
1F23
330
1A
100
AcDbEntity
  8
0
 60
     1
100
AcDbPoint
 10
0.0
 20
-208.000016
 30
0.0
1001
GENIUS_GENOLIS_13
1002
{
1000
ENT
1005
1F22
1005
1F21
1005
1F20
1005
1F1F
1002
}
1001
GENIUS_GENODEF_13
1002
{
1000
HIER
1070
    10
1002
}
1002
{
1000
MANEDIT
1070
     0
1002
}
1002
{
1000
NOSEL
1070
     0
1002
}
1002
{
1000
BEHIND
1070
     0
1002
}
1002
{
1000
OTHER
1070
     0
1002
}
1002
{
1000
REACTOR
1002
}
1001
GENIUS_GENOBJ-N-CRS_13
1002
{
1000
OWNER
1000
GEN
1002
}
1001
GENIUS_GENOENT_13
1002
{
1000
MYREF
1005
1F23
1002
}
1002
{
1000
GRP
1005
0
1002
}
  0
LINE
  5
1F24
330
1A
100
AcDbEntity
  8
AM_7
100
AcDbLine
 10
149.5649318226813
 20
65.75631067787464
 30
0.0
 11
158.7649318226813
 21
65.75631067787464
 31
0.0
1001
GENIUS_GENOREF_13
1005
1F28
  0
LINE
  5
1F25
330
1A
100
AcDbEntity
  8
AM_7
100
AcDbLine
 10
149.5649318226813
 20
65.75631067787464
 30
0.0
 11
149.5649318226813
 21
74.95631067787468
 31
0.0
1001
GENIUS_GENOREF_13
1005
1F28
  0
LINE
  5
1F26
330
1A
100
AcDbEntity
  8
AM_7
100
AcDbLine
 10
149.5649318226813
 20
65.75631067787464
 30
0.0
 11
140.3649318226813
 21
65.75631067787464
 31
0.0
1001
GENIUS_GENOREF_13
1005
1F28
  0
LINE
  5
1F27
330
1A
100
AcDbEntity
  8
AM_7
100
AcDbLine
 10
149.5649318226813
 20
65.75631067787464
 30
0.0
 11
149.5649318226813
 21
56.55631067787459
 31
0.0
1001
GENIUS_GENOREF_13
1005
1F28
  0
POINT
  5
1F28
330
1A
100
AcDbEntity
  8
0
 60
     1
100
AcDbPoint
 10
21.000002
 20
-208.000016
 30
0.0
1001
GENIUS_GENOLIS_13
1002
{
1000
ENT
1005
1F27
1005
1F26
1005
1F25
1005
1F24
1002
}
1001
GENIUS_GENODEF_13
1002
{
1000
HIER
1070
    10
1002
}
1002
{
1000
MANEDIT
1070
     0
1002
}
1002
{
1000
NOSEL
1070
     0
1002
}
1002
{
1000
BEHIND
1070
     0
1002
}
1002
{
1000
OTHER
1070
     0
1002
}
1002
{
1000
REACTOR
1002
}
1001
GENIUS_GENOBJ-N-CRS_13
1002
{
1000
OWNER
1000
GEN
1002
}
1001
GENIUS_GENOENT_13
1002
{
1000
MYREF
1005
1F28
1002
}
1002
{
1000
GRP
1005
0
1002
}
  0
VIEWPORT
  5
22
330
17
100
AcDbEntity
 67
     1
  8
0
100
AcDbViewport
 10
99.98075199127198
 20
143.3935842514038
 30
0.0
 40
380.7031116995643
 41
297.0076805282592
 68
     1
 69
     1
 12
99.98075199127198
 22
143.3935842514038
 13
0.0
 23
0.0
 14
2.5
 24
2.5
 15
10.0
 25
10.0
 16
0.0
 26
0.0
 36
1.0
 17
0.0
 27
0.0
 37
0.0
 42
50.0
 43
0.0
 44
0.0
 45
297.0076805282592
 50
0.0
 51
0.0
 72
   100
331
1969
 90
    32800
  1

281
     0
 71
     1
 74
     0
110
0.0
120
0.0
130
0.0
111
1.0
121
0.0
131
0.0
112
0.0
122
1.0
132
0.0
 79
     0
146
0.0
170
     0
 61
     5
348
1EA0
292
     1
282
     1
141
0.0
142
0.0
 63
   250
421
  3355443
1001
GENIUS_GENOREF_13
1005
1677
1001
GENIUS_GENSCREG_15
1000
PF
1040
1.0
1000
DF
1040
1.0
1000
MIN
1011
-90.37080385851016
1021
-5.110256012725812
1031
0.0
1000
MAX
1011
290.3323078410541
1021
291.8974245155334
1031
0.0
1000
FLAGS
1070
     2
  0
POINT
  5
1895
330
17
100
AcDbEntity
 67
     1
  8
AM_0
 60
     1
100
AcDbPoint
 10
0.0
 20
0.0
 30
0.0
  0
POINT
  5
189D
330
17
100
AcDbEntity
 67
     1
  8
AM_0
 60
     1
100
AcDbPoint
 10
0.0
 20
0.0
 30
0.0
  0
POINT
  5
1900
330
17
100
AcDbEntity
 67
     1
  8
AM_0
 60
     1
100
AcDbPoint
 10
0.0
 20
0.0
 30
0.0
  0
POINT
  5
1908
330
17
100
AcDbEntity
 67
     1
  8
AM_0
 60
     1
100
AcDbPoint
 10
0.0
 20
0.0
 30
0.0
  0
ENDSEC
  0
SECTION
  2
OBJECTS
  0
DICTIONARY
  5
C
330
0
100
AcDbDictionary
281
     1
  3
ACAD_COLOR
350
1E4B
  3
ACAD_GROUP
350
D
  3
ACAD_LAYOUT
350
167
  3
ACAD_MATERIAL
350
1E4A
  3
ACAD_MLINESTYLE
350
E
  3
ACAD_PLOTSETTINGS
350
168
  3
ACAD_PLOTSTYLENAME
350
165
  3
ACAD_TABLESTYLE
350
1EAB
  3
ACAD_VISUALSTYLE
350
1E9A
  3
ACDBVARIABLEDICTIONARY
350
5D
  3
ACMDICTIONARY
350
142
  3
AMG
350
171
  3
AMG_3D2D_DICT
350
18A8
  3
AMGSNAPSETTINGS
350
1F2
  3
MAPISURF_MODULE
350
17FD
  0
DICTIONARY
  5
12A
330
1A
100
AcDbDictionary
280
     1
281
     1
  3
ACAD_INDEX
360
17BE
  0
DICTIONARY
  5
1E4B
102
{ACAD_REACTORS
330
C
102
}
330
C
100
AcDbDictionary
281
     1
  0
DICTIONARY
  5
D
102
{ACAD_REACTORS
330
C
102
}
330
C
100
AcDbDictionary
281
     1
  0
DICTIONARY
  5
167
102
{ACAD_REACTORS
330
C
102
}
330
C
100
AcDbDictionary
281
     1
  3
A0
350
351
  3
A1
350
314
  3
A2
350
349
  3
A3
350
2E1
  3
A4
350
16A
  3
Model
350
169
  0
DICTIONARY
  5
1E4A
102
{ACAD_REACTORS
330
C
102
}
330
C
100
AcDbDictionary
281
     1
  3
ByBlock
350
1E98
  3
ByLayer
350
1E97
  3
Global
350
1E99
  0
DICTIONARY
  5
E
102
{ACAD_REACTORS
330
C
102
}
330
C
100
AcDbDictionary
281
     1
  3
STANDARD
350
13
  0
DICTIONARY
  5
168
102
{ACAD_REACTORS
330
C
102
}
330
C
100
AcDbDictionary
281
     1
  3
A0
350
2EE
  3
A0-A3
350
2F2
  3
A0-A4
350
2F3
  3
A1
350
2ED
  3
A2
350
2EA
  3
A3
350
31E
  3
A4
350
319
  0
ACDBDICTIONARYWDFLT
  5
165
102
{ACAD_REACTORS
330
C
102
}
330
C
100
AcDbDictionary
281
     1
  3
Normal
350
166
100
AcDbDictionaryWithDefault
340
166
  0
DICTIONARY
  5
1EAB
102
{ACAD_REACTORS
330
C
102
}
330
C
100
AcDbDictionary
281
     1
  3
Standard
350
1EAC
  0
DICTIONARY
  5
1E9A
102
{ACAD_REACTORS
330
C
102
}
330
C
100
AcDbDictionary
281
     1
  3
2dWireframe
350
1EA0
  3
3D Hidden
350
1EA2
  3
3dWireframe
350
1EA1
  3
Basic
350
1E9F
  3
Brighten
350
1EA6
  3
ColorChange
350
1EAA
  3
Conceptual
350
1EA3
  3
Dim
350
1EA5
  3
Facepattern
350
1EA9
  3
Flat
350
1E9B
  3
FlatWithEdges
350
1E9C
  3
Gouraud
350
1E9D
  3
GouraudWithEdges
350
1E9E
  3
Linepattern
350
1EA8
  3
Realistic
350
1EA4
  3
Thicken
350
1EA7
  0
DICTIONARY
  5
5D
102
{ACAD_REACTORS
330
C
102
}
330
C
100
AcDbDictionary
281
     1
  3
CTABLESTYLE
350
1EEB
  3
DIMADEC
350
5E
  3
INDEXCTL
350
128
  3
SORTENTS
350
1044
  0
DICTIONARY
  5
142
102
{ACAD_REACTORS
330
C
102
}
330
C
100
AcDbDictionary
281
     1
  3
ACMSTDDICTIONARY
350
143
  3
AMDTSECTSYM_ARROWCOLOR
350
1ED3
  0
DICTIONARY
  5
171
102
{ACAD_REACTORS
330
C
102
}
330
C
100
AcDbDictionary
281
     1
  3
AcMgSettings
350
172
  3
AMGLAYCFG
350
174
  0
DICTIONARY
  5
18A8
102
{ACAD_REACTORS
330
C
102
}
330
C
100
AcDbDictionary
281
     1
  3
AMG_SUBLIST_DICT
350
18A9
  0
DICTIONARY
  5
1F2
102
{ACAD_REACTORS
330
C
102
}
330
C
100
AcDbDictionary
281
     1
  3
DIMENSION
350
164B
  3
FEA
350
164C
  3
HATCH
350
164D
  3
SYMBOLS
350
164E
  0
DICTIONARY
  5
17BE
102
{ACAD_REACTORS
330
12A
102
}
330
12A
100
AcDbDictionary
281
     1
  3
*A1
350
17BF
  0
LAYOUT
  5
351
102
{ACAD_REACTORS
330
167
102
}
330
167
100
AcDbPlotSettings
  1
A0
  2
HPDJ220-A0
  4
User268
  6

 40
4.995333194732666
 41
16.93336677551269
 42
4.99530029296875
 43
16.933349609375
 44
840.9093017578125
 45
1188.8046875
 46
0.0
 47
0.0
 48
0.0
 49
0.0
140
0.0
141
0.0
142
1.0
143
1.0
 70
   752
 72
     1
 73
     1
 74
     5
  7
PLA0.ctb
 75
    16
147
1.0
 76
     0
 77
     2
 78
   300
148
0.0
149
0.0
100
AcDbLayout
  1
A0
 70
     1
 71
     5
 10
-16.933349609375
 20
-4.995333194732666
 11
1171.871337890625
 21
835.9139685630799
 12
0.0
 22
0.0
 32
0.0
 14
1.000000000000000E+20
 24
1.000000000000000E+20
 34
1.000000000000000E+20
 15
-1.000000000000000E+20
 25
-1.000000000000000E+20
 35
-1.000000000000000E+20
146
0.0
 13
0.0
 23
0.0
 33
0.0
 16
1.0
 26
0.0
 36
0.0
 17
0.0
 27
1.0
 37
0.0
 76
     0
330
34D
331
34E
  0
LAYOUT
  5
314
102
{ACAD_REACTORS
330
167
102
}
330
167
100
AcDbPlotSettings
  1
A2
  2
HPDJ220-A0
  4
User266
  6

 40
4.995333194732666
 41
16.93330574035644
 42
4.995330810546875
 43
16.933349609375
 44
419.9466552734374
 45
593.8519897460937
 46
0.0
 47
0.0
 48
0.0
 49
0.0
140
0.0
141
0.0
142
1.0
143
1.0
 70
   752
 72
     1
 73
     1
 74
     5
  7
PLA2.ctb
 75
    16
147
1.0
 76
     0
 77
     2
 78
   300
148
0.0
149
0.0
100
AcDbLayout
  1
A1
 70
     1
 71
     4
 10
-16.933349609375
 20
-4.995333194732666
 11
576.9186401367187
 21
414.9513220787047
 12
0.0
 22
0.0
 32
0.0
 14
1.000000000000000E+20
 24
1.000000000000000E+20
 34
1.000000000000000E+20
 15
-1.000000000000000E+20
 25
-1.000000000000000E+20
 35
-1.000000000000000E+20
146
0.0
 13
0.0
 23
0.0
 33
0.0
 16
1.0
 26
0.0
 36
0.0
 17
0.0
 27
1.0
 37
0.0
 76
     0
330
313
331
344
  0
LAYOUT
  5
349
102
{ACAD_REACTORS
330
167
102
}
330
167
100
AcDbPlotSettings
  1
A2
  2
HPDJ220-A0
  4
User266
  6

 40
4.995333194732666
 41
16.93330574035644
 42
4.995330810546875
 43
16.933349609375
 44
419.9466552734374
 45
593.8519897460937
 46
0.0
 47
0.0
 48
0.0
 49
0.0
140
0.0
141
0.0
142
1.0
143
1.0
 70
   752
 72
     1
 73
     1
 74
     5
  7
PLA2.ctb
 75
    16
147
1.0
 76
     0
 77
     2
 78
   300
148
0.0
149
0.0
100
AcDbLayout
  1
A2
 70
     1
 71
     3
 10
-16.933349609375
 20
-4.995333194732666
 11
576.9186401367187
 21
414.9513220787047
 12
0.0
 22
0.0
 32
0.0
 14
1.000000000000000E+20
 24
1.000000000000000E+20
 34
1.000000000000000E+20
 15
-1.000000000000000E+20
 25
-1.000000000000000E+20
 35
-1.000000000000000E+20
146
0.0
 13
0.0
 23
0.0
 33
0.0
 16
1.0
 26
0.0
 36
0.0
 17
0.0
 27
1.0
 37
0.0
 76
     0
330
345
331
346
  0
LAYOUT
  5
2E1
102
{ACAD_REACTORS
330
167
102
}
330
167
100
AcDbPlotSettings
  1
A3
  2
\\GLUTZCH_PDC\HP LaserJet 5000 N PCL 6
  4
A3
  6

 40
5.027083396911621
 41
5.111741065979003
 42
5.11175537109375
 43
5.027069091796875
 44
297.0106506347656
 45
419.9889831542968
 46
0.0
 47
0.0
 48
0.0
 49
0.0
140
0.0
141
0.0
142
1.0
143
1.0
 70
   752
 72
     1
 73
     1
 74
     5
  7
LAA3.ctb
 75
    16
147
1.0
 76
     0
 77
     2
 78
   300
148
0.0
149
0.0
100
AcDbLayout
  1
A3
 70
     1
 71
     2
 10
-5.027069091796875
 20
-5.027083396911621
 11
414.9619140625
 21
291.983567237854
 12
0.0
 22
0.0
 32
0.0
 14
1.000000000000000E+20
 24
1.000000000000000E+20
 34
1.000000000000000E+20
 15
-1.000000000000000E+20
 25
-1.000000000000000E+20
 35
-1.000000000000000E+20
146
0.0
 13
0.0
 23
0.0
 33
0.0
 16
1.0
 26
0.0
 36
0.0
 17
0.0
 27
1.0
 37
0.0
 76
     0
330
2E0
331
31D
  0
LAYOUT
  5
16A
102
{ACAD_REACTORS
330
167
102
}
330
167
100
AcDbPlotSettings
  1
A4
  2
\\GLUTZCH_PDC\HP LaserJet 5000 N PCL 6
  4
A4
  6

 40
5.027083396911621
 41
5.111741065979003
 42
5.11175537109375
 43
5.027069091796875
 44
210.0156707763672
 45
297.0106506347656
 46
0.0
 47
0.0
 48
0.0
 49
0.0
140
0.0
141
0.0
142
1.0
143
1.0
 70
   752
 72
     1
 73
     0
 74
     5
  7
LAA4.ctb
 75
    16
147
1.0
 76
     0
 77
     2
 78
   300
148
0.0
149
0.0
100
AcDbLayout
  1
A4
 70
     1
 71
     1
 10
-5.027083396911621
 20
-5.111741065979003
 11
204.9885873794556
 21
291.8989095687866
 12
0.0
 22
0.0
 32
0.0
 14
20.12
 24
6.727344797985158
 34
0.0
 15
203.0
 25
290.0
 35
0.0
146
0.0
 13
0.0
 23
0.0
 33
0.0
 16
1.0
 26
0.0
 36
0.0
 17
0.0
 27
1.0
 37
0.0
 76
     0
330
17
331
22
  0
LAYOUT
  5
169
102
{ACAD_REACTORS
330
167
102
}
330
167
100
AcDbPlotSettings
  1

  2
TIFF Version 6 (CCITT G4 2D-Komprimierung).pc3
  4
UserDefinedRaster (16000.00 x 12800.00Pixel)
  6

 40
0.0
 41
0.0
 42
1.0
 43
1.0
 44
1280.0
 45
1600.0
 46
304.5280899002829
 47
0.0
 48
0.0
 49
0.0
140
0.0
141
0.0
142
1.0
143
0.1971555309045371
 70
 11956
 72
     2
 73
     0
 74
     1
  7
c:\amd5pp\Plot Styles\LAA4.ctb
 75
     0
147
5.072137694601128
 76
     0
 77
     2
 78
   300
148
-60.48523054049031
149
-18.17791256118107
100
AcDbLayout
  1
Model
 70
     1
 71
     0
 10
0.0
 20
0.0
 11
12.0
 21
9.0
 12
0.0
 22
0.0
 32
0.0
 14
0.0
 24
0.0
 34
0.0
 15
0.0
 25
0.0
 35
0.0
146
0.0
 13
0.0
 23
0.0
 33
0.0
 16
1.0
 26
0.0
 36
0.0
 17
0.0
 27
1.0
 37
0.0
 76
     0
330
1A
331
1E95
  0
MATERIAL
  5
1E98
102
{ACAD_REACTORS
330
1E4A
102
}
330
1E4A
100
AcDbMaterial
  1
ByBlock
  0
MATERIAL
  5
1E97
102
{ACAD_REACTORS
330
1E4A
102
}
330
1E4A
100
AcDbMaterial
  1
ByLayer
  0
MATERIAL
  5
1E99
102
{ACAD_REACTORS
330
1E4A
102
}
330
1E4A
100
AcDbMaterial
  1
Global
  0
MLINESTYLE
  5
13
102
{ACAD_REACTORS
330
E
102
}
330
E
100
AcDbMlineStyle
  2
STANDARD
 70
     0
  3

 62
     0
 51
90.0
 52
90.0
 71
     2
 49
0.5
 62
   256
  6
BYLAYER
 49
-0.5
 62
   256
  6
BYLAYER
  0
PLOTSETTINGS
  5
2EE
102
{ACAD_REACTORS
330
168
102
}
330
168
100
AcDbPlotSettings
  1
A0
  2
HPDJ220-A0
  4
User268
  6

 40
4.995333194732666
 41
16.93336677551269
 42
4.99530029296875
 43
16.933349609375
 44
840.9093017578125
 45
1188.8046875
 46
0.0
 47
0.0
 48
0.0
 49
0.0
140
0.0
141
0.0
142
1.0
143
1.0
 70
   752
 72
     1
 73
     1
 74
     5
  7
PLA0.ctb
 75
    16
147
1.0
 76
     0
 77
     2
 78
   300
148
0.0
149
0.0
  0
PLOTSETTINGS
  5
2F2
102
{ACAD_REACTORS
330
168
102
}
330
168
100
AcDbPlotSettings
  1
A0-A3
  2
\\GLUTZCH_PDC\HP LaserJet 5000 N PCL 6
  4
A3
  6

 40
5.027083396911621
 41
5.111741065979003
 42
5.11175537109375
 43
5.027069091796875
 44
297.0106506347656
 45
419.9889831542968
 46
0.0
 47
0.0
 48
0.0
 49
0.0
140
0.0
141
0.0
142
1.0
143
1.0
 70
   752
 72
     1
 73
     1
 74
     5
  7
LAA0-A3.ctb
 75
     0
147
1.0
 76
     0
 77
     2
 78
   300
148
0.0
149
0.0
  0
PLOTSETTINGS
  5
2F3
102
{ACAD_REACTORS
330
168
102
}
330
168
100
AcDbPlotSettings
  1
A0-A4
  2
\\GLUTZCH_PDC\HP LaserJet 5000 N PCL 6
  4
A4
  6

 40
5.027083396911621
 41
5.111741065979003
 42
5.11175537109375
 43
5.027069091796875
 44
210.0156707763672
 45
297.0106506347656
 46
0.0
 47
0.0
 48
0.0
 49
0.0
140
0.0
141
0.0
142
1.0
143
1.0
 70
   752
 72
     1
 73
     0
 74
     5
  7
LAA0-A4.ctb
 75
     0
147
1.0
 76
     0
 77
     2
 78
   300
148
0.0
149
0.0
  0
PLOTSETTINGS
  5
2ED
102
{ACAD_REACTORS
330
168
102
}
330
168
100
AcDbPlotSettings
  1
A1
  2
HPDJ220-A0
  4
User267
  6

 40
4.995333194732666
 41
16.93330574035644
 42
4.99530029296875
 43
16.933349609375
 44
593.9366455078125
 45
840.8246459960937
 46
0.0
 47
0.0
 48
0.0
 49
0.0
140
0.0
141
0.0
142
1.0
143
1.0
 70
   752
 72
     1
 73
     1
 74
     5
  7
PLA1.ctb
 75
    16
147
1.0
 76
     0
 77
     2
 78
   300
148
0.0
149
0.0
  0
PLOTSETTINGS
  5
2EA
102
{ACAD_REACTORS
330
168
102
}
330
168
100
AcDbPlotSettings
  1
A2
  2
HPDJ220-A0
  4
User266
  6

 40
4.995333194732666
 41
16.93330574035644
 42
4.995330810546875
 43
16.933349609375
 44
419.9466552734374
 45
593.8519897460937
 46
0.0
 47
0.0
 48
0.0
 49
0.0
140
0.0
141
0.0
142
1.0
143
1.0
 70
   752
 72
     1
 73
     1
 74
     5
  7
PLA2.ctb
 75
    16
147
1.0
 76
     0
 77
     2
 78
   300
148
0.0
149
0.0
  0
PLOTSETTINGS
  5
31E
102
{ACAD_REACTORS
330
168
102
}
330
168
100
AcDbPlotSettings
  1
A3
  2
\\GLUTZCH_PDC\HP LaserJet 5000 N PCL 6
  4
A3
  6

 40
5.027083396911621
 41
5.111741065979003
 42
5.11175537109375
 43
5.027069091796875
 44
297.0106506347656
 45
419.9889831542968
 46
0.0
 47
0.0
 48
0.0
 49
0.0
140
0.0
141
0.0
142
1.0
143
1.0
 70
   752
 72
     1
 73
     1
 74
     5
  7
LAA3.ctb
 75
    16
147
1.0
 76
     0
 77
     2
 78
   300
148
0.0
149
0.0
  0
PLOTSETTINGS
  5
319
102
{ACAD_REACTORS
330
168
102
}
330
168
100
AcDbPlotSettings
  1
A4
  2
\\GLUTZCH_PDC\HP LaserJet 5000 N PCL 6
  4
A4
  6

 40
5.027083396911621
 41
5.111741065979003
 42
5.11175537109375
 43
5.027069091796875
 44
210.0156707763672
 45
297.0106506347656
 46
0.0
 47
0.0
 48
0.0
 49
0.0
140
0.0
141
0.0
142
1.0
143
1.0
 70
   752
 72
     1
 73
     0
 74
     5
  7
LAA4.ctb
 75
    16
147
1.0
 76
     0
 77
     2
 78
   300
148
0.0
149
0.0
  0
ACDBPLACEHOLDER
  5
166
102
{ACAD_REACTORS
330
165
102
}
330
165
  0
TABLESTYLE
  5
1EAC
102
{ACAD_REACTORS
330
1EAB
102
}
330
1EAB
100
AcDbTableStyle
  3
Standard
 70
     0
 71
     0
 40
1.5
 41
1.5
280
     0
281
     0
  7
STANDARD
140
4.5
170
     2
 62
     0
 63
     7
283
     0
 90
      512
 91
        0
  1

274
    -2
284
     1
 64
     0
275
    -2
285
     1
 65
     0
276
    -2
286
     1
 66
     0
277
    -2
287
     1
 67
     0
278
    -2
288
     1
 68
     0
279
    -2
289
     1
 69
     0
  7
STANDARD
140
6.0
170
     5
 62
     0
 63
     7
283
     0
 90
      512
 91
        0
  1

274
    -2
284
     1
 64
     0
275
    -2
285
     1
 65
     0
276
    -2
286
     1
 66
     0
277
    -2
287
     1
 67
     0
278
    -2
288
     1
 68
     0
279
    -2
289
     1
 69
     0
  7
STANDARD
140
4.5
170
     5
 62
     0
 63
     7
283
     0
 90
      512
 91
        0
  1

274
    -2
284
     1
 64
     0
275
    -2
285
     1
 65
     0
276
    -2
286
     1
 66
     0
277
    -2
287
     1
 67
     0
278
    -2
288
     1
 68
     0
279
    -2
289
     1
 69
     0
  0
VISUALSTYLE
  5
1EA0
102
{ACAD_REACTORS
330
1E9A
102
}
330
1E9A
100
AcDbVisualStyle
  2
2dWireframe
 70
     4
 71
     0
 72
     2
 73
     0
 90
        0
 40
-0.6
 41
-30.0
 62
     5
 63
     7
421
 16777215
 74
     1
 91
        4
 64
     7
 65
   257
 75
     1
175
     1
 42
1.0
 92
        0
 66
   257
 43
1.0
 76
     1
 77
     6
 78
     2
 67
     7
 79
     5
170
     0
171
     0
290
     0
174
     0
 93
        1
 44
0.0
173
     0
291
     0
 45
0.0
  0
VISUALSTYLE
  5
1EA2
102
{ACAD_REACTORS
330
1E9A
102
}
330
1E9A
100
AcDbVisualStyle
  2
3D Hidden
 70
     6
 71
     1
 72
     2
 73
     2
 90
        0
 40
-0.6
 41
-30.0
 62
     5
 63
     7
421
 16777215
 74
     2
 91
        2
 64
     7
 65
   257
 75
     2
175
     1
 42
40.0
 92
        0
 66
   257
 43
1.0
 76
     1
 77
     6
 78
     2
 67
     7
 79
     3
170
     0
171
     0
290
     0
174
     0
 93
        1
 44
0.0
173
     0
291
     0
 45
0.0
  0
VISUALSTYLE
  5
1EA1
102
{ACAD_REACTORS
330
1E9A
102
}
330
1E9A
100
AcDbVisualStyle
  2
3dWireframe
 70
     5
 71
     0
 72
     2
 73
     0
 90
        0
 40
-0.6
 41
-30.0
 62
     5
 63
     7
421
 16777215
 74
     1
 91
        4
 64
     7
 65
   257
 75
     1
175
     1
 42
1.0
 92
        0
 66
   257
 43
1.0
 76
     1
 77
     6
 78
     2
 67
     7
 79
     5
170
     0
171
     0
290
     0
174
     0
 93
        1
 44
0.0
173
     0
291
     0
 45
0.0
  0
VISUALSTYLE
  5
1E9F
102
{ACAD_REACTORS
330
1E9A
102
}
330
1E9A
100
AcDbVisualStyle
  2
Basic
 70
     7
 71
     1
 72
     0
 73
     1
 90
        0
 40
-0.6
 41
-30.0
 62
     5
 63
     7
421
 16777215
 74
     0
 91
        4
 64
     7
 65
   257
 75
     1
175
     1
 42
1.0
 92
        8
 66
     7
 43
1.0
 76
     1
 77
     6
 78
     2
 67
     7
 79
     5
170
     0
171
     0
290
     0
174
     0
 93
        1
 44
0.0
173
     0
291
     1
 45
0.0
  0
VISUALSTYLE
  5
1EA6
102
{ACAD_REACTORS
330
1E9A
102
}
330
1E9A
100
AcDbVisualStyle
  2
Brighten
 70
    12
 71
     2
 72
     2
 73
     0
 90
        0
 40
-0.6
 41
-30.0
 62
     5
 63
     7
421
 16777215
 74
     1
 91
        4
 64
     7
 65
   257
 75
     1
175
     1
 42
1.0
 92
        8
 66
     7
 43
1.0
 76
     1
 77
     6
 78
     2
 67
     7
 79
     5
170
     0
171
     0
290
     0
174
     0
 93
        1
 44
50.0
173
     0
291
     1
 45
0.0
  0
VISUALSTYLE
  5
1EAA
102
{ACAD_REACTORS
330
1E9A
102
}
330
1E9A
100
AcDbVisualStyle
  2
ColorChange
 70
    16
 71
     2
 72
     2
 73
     3
 90
        0
 40
-0.6
 41
-30.0
 62
     5
 63
     8
421
  8421504
 74
     1
 91
        4
 64
     7
 65
   257
 75
     1
175
     1
 42
1.0
 92
        8
 66
     8
424
  8421504
 43
1.0
 76
     1
 77
     6
 78
     2
 67
     7
 79
     5
170
     0
171
     0
290
     0
174
     0
 93
        1
 44
0.0
173
     0
291
     1
 45
0.0
  0
VISUALSTYLE
  5
1EA3
102
{ACAD_REACTORS
330
1E9A
102
}
330
1E9A
100
AcDbVisualStyle
  2
Conceptual
 70
     9
 71
     3
 72
     2
 73
     0
 90
        0
 40
-0.6
 41
-30.0
 62
     5
 63
     7
421
 16777215
 74
     2
 91
        2
 64
     7
 65
   257
 75
     1
175
     1
 42
40.0
 92
        8
 66
     7
 43
1.0
 76
     1
 77
     6
 78
     2
 67
     7
 79
     3
170
     0
171
     0
290
     0
174
     0
 93
        1
 44
0.0
173
     0
291
     0
 45
0.0
  0
VISUALSTYLE
  5
1EA5
102
{ACAD_REACTORS
330
1E9A
102
}
330
1E9A
100
AcDbVisualStyle
  2
Dim
 70
    11
 71
     2
 72
     2
 73
     0
 90
        0
 40
-0.6
 41
-30.0
 62
     5
 63
     7
421
 16777215
 74
     1
 91
        4
 64
     7
 65
   257
 75
     1
175
     1
 42
1.0
 92
        8
 66
     7
 43
1.0
 76
     1
 77
     6
 78
     2
 67
     7
 79
     5
170
     0
171
     0
290
     0
174
     0
 93
        1
 44
-50.0
173
     0
291
     1
 45
0.0
  0
VISUALSTYLE
  5
1EA9
102
{ACAD_REACTORS
330
1E9A
102
}
330
1E9A
100
AcDbVisualStyle
  2
Facepattern
 70
    15
 71
     2
 72
     2
 73
     0
 90
        0
 40
-0.6
 41
-30.0
 62
     5
 63
     7
421
 16777215
 74
     1
 91
        4
 64
     7
 65
   257
 75
     1
175
     1
 42
1.0
 92
        8
 66
     7
 43
1.0
 76
     1
 77
     6
 78
     2
 67
     7
 79
     5
170
     0
171
     0
290
     0
174
     0
 93
        1
 44
0.0
173
     0
291
     1
 45
0.0
  0
VISUALSTYLE
  5
1E9B
102
{ACAD_REACTORS
330
1E9A
102
}
330
1E9A
100
AcDbVisualStyle
  2
Flat
 70
     0
 71
     2
 72
     1
 73
     1
 90
        2
 40
-0.6
 41
30.0
 62
     5
 63
     7
421
 16777215
 74
     0
 91
        4
 64
     7
 65
   257
 75
     1
175
     1
 42
1.0
 92
        8
 66
     7
 43
1.0
 76
     1
 77
     6
 78
     2
 67
     7
 79
     5
170
     0
171
     0
290
     0
174
     0
 93
       13
 44
0.0
173
     0
291
     1
 45
0.0
  0
VISUALSTYLE
  5
1E9C
102
{ACAD_REACTORS
330
1E9A
102
}
330
1E9A
100
AcDbVisualStyle
  2
FlatWithEdges
 70
     1
 71
     2
 72
     1
 73
     1
 90
        2
 40
-0.6
 41
30.0
 62
     5
 63
     7
421
 16777215
 74
     1
 91
        4
 64
     7
 65
   257
 75
     1
175
     1
 42
1.0
 92
        0
 66
   257
 43
1.0
 76
     1
 77
     6
 78
     2
 67
     7
 79
     5
170
     0
171
     0
290
     0
174
     0
 93
       13
 44
0.0
173
     0
291
     1
 45
0.0
  0
VISUALSTYLE
  5
1E9D
102
{ACAD_REACTORS
330
1E9A
102
}
330
1E9A
100
AcDbVisualStyle
  2
Gouraud
 70
     2
 71
     2
 72
     2
 73
     1
 90
        2
 40
-0.6
 41
30.0
 62
     5
 63
     7
421
 16777215
 74
     0
 91
        4
 64
     7
 65
   257
 75
     1
175
     1
 42
1.0
 92
        0
 66
     7
 43
1.0
 76
     1
 77
     6
 78
     2
 67
     7
 79
     5
170
     0
171
     0
290
     0
174
     0
 93
       13
 44
0.0
173
     0
291
     1
 45
0.0
  0
VISUALSTYLE
  5
1E9E
102
{ACAD_REACTORS
330
1E9A
102
}
330
1E9A
100
AcDbVisualStyle
  2
GouraudWithEdges
 70
     3
 71
     2
 72
     2
 73
     1
 90
        2
 40
-0.6
 41
30.0
 62
     5
 63
     7
421
 16777215
 74
     1
 91
        4
 64
     7
 65
   257
 75
     1
175
     1
 42
1.0
 92
        0
 66
   257
 43
1.0
 76
     1
 77
     6
 78
     2
 67
     7
 79
     5
170
     0
171
     0
290
     0
174
     0
 93
       13
 44
0.0
173
     0
291
     1
 45
0.0
  0
VISUALSTYLE
  5
1EA8
102
{ACAD_REACTORS
330
1E9A
102
}
330
1E9A
100
AcDbVisualStyle
  2
Linepattern
 70
    14
 71
     2
 72
     2
 73
     0
 90
        0
 40
-0.6
 41
-30.0
 62
     5
 63
     7
421
 16777215
 74
     1
 91
        4
 64
     7
 65
   257
 75
     7
175
     7
 42
1.0
 92
        8
 66
     7
 43
1.0
 76
     1
 77
     6
 78
     2
 67
     7
 79
     5
170
     0
171
     0
290
     0
174
     0
 93
        1
 44
0.0
173
     0
291
     1
 45
0.0
  0
VISUALSTYLE
  5
1EA4
102
{ACAD_REACTORS
330
1E9A
102
}
330
1E9A
100
AcDbVisualStyle
  2
Realistic
 70
     8
 71
     2
 72
     2
 73
     0
 90
        0
 40
-0.6
 41
-30.0
 62
     5
 63
     7
421
 16777215
 74
     1
 91
        0
 64
     7
 65
   257
 75
     1
175
     1
 42
1.0
 92
        8
 66
     8
424
  7895160
 43
1.0
 76
     1
 77
     6
 78
     2
 67
     7
 79
     5
170
     0
171
     0
290
     0
174
     0
 93
       13
 44
0.0
173
     0
291
     0
 45
0.0
  0
VISUALSTYLE
  5
1EA7
102
{ACAD_REACTORS
330
1E9A
102
}
330
1E9A
100
AcDbVisualStyle
  2
Thicken
 70
    13
 71
     2
 72
     2
 73
     0
 90
        0
 40
-0.6
 41
-30.0
 62
     5
 63
     7
421
 16777215
 74
     1
 91
        4
 64
     7
 65
   257
 75
     1
175
     1
 42
1.0
 92
       12
 66
     7
 43
1.0
 76
     1
 77
     6
 78
     2
 67
     7
 79
     5
170
     0
171
     0
290
     0
174
     0
 93
        1
 44
0.0
173
     0
291
     1
 45
0.0
  0
DICTIONARYVAR
  5
1EEB
102
{ACAD_REACTORS
330
5D
102
}
330
5D
100
DictionaryVariables
280
     0
  1
STANDARD
  0
DICTIONARYVAR
  5
5E
102
{ACAD_REACTORS
330
5D
102
}
330
5D
100
DictionaryVariables
280
     0
  1
0
  0
DICTIONARYVAR
  5
128
102
{ACAD_REACTORS
330
5D
102
}
330
5D
100
DictionaryVariables
280
     0
  1
1
  0
DICTIONARYVAR
  5
1044
102
{ACAD_REACTORS
330
5D
102
}
330
5D
100
DictionaryVariables
280
     0
  1
96
  0
DICTIONARY
  5
143
102
{ACAD_REACTORS
330
142
102
}
330
142
100
AcDbDictionary
281
     1
  0
XRECORD
  5
1ED3
102
{ACAD_REACTORS
330
142
102
}
330
142
100
AcDbXrecord
280
     1
 90
-1023410169
  0
DICTIONARY
  5
172
102
{ACAD_REACTORS
330
171
102
}
330
171
100
AcDbDictionary
281
     1
  3
DWGSETTINGS
350
173
  3
FEM
350
3A0
  3
Shaft
350
393
  3
TRANSSETTINGS
350
17D
  0
DICTIONARY
  5
18A9
102
{ACAD_REACTORS
330
18A8
102
}
330
18A8
100
AcDbDictionary
281
     1
  0
ACAMGFILTERDAT
  5
164B
102
{ACAD_REACTORS
330
1F2
102
}
330
1F2
100
AcAmgFilterDat
 70
    15
  1
DIMENSION,AMDT_*_DIM
  2
*
  3
*
  4
*
  5
*
290
     1
  0
ACAMGFILTERDAT
  5
164C
102
{ACAD_REACTORS
330
1F2
102
}
330
1F2
100
AcAmgFilterDat
 70
    15
  1
*
  2
AM_FEA-AM_*
  3
*
  4
*
  5
*
290
     1
  0
ACAMGFILTERDAT
  5
164D
102
{ACAD_REACTORS
330
1F2
102
}
330
1F2
100
AcAmgFilterDat
 70
    15
  1
HATCH
  2
*
  3
*
  4
*
  5
*
290
     1
  0
ACAMGFILTERDAT
  5
164E
102
{ACAD_REACTORS
330
1F2
102
}
330
1F2
100
AcAmgFilterDat
 70
    15
  1
ACMFCFRAME,ACMDATUMTARGET,ACMDATUMID,ACMWELDSYM,ACMSURFSYM,ACMFEATID,ACMPARTREF,ACMBALLOON
  2
*
  3
*
  4
*
  5
*
290
     1
  0
LAYER_INDEX
  5
17BF
102
{ACAD_REACTORS
330
17BE
102
}
330
17BE
100
AcDbIndex
 40
2453942.40970875
100
AcDbLayerIndex
  8
0
360
17C0
 90
        8
  8
AM_0
360
17C1
 90
        1
  8
AM_1
360
17C2
 90
        0
  8
AM_2
360
17C3
 90
        0
  8
AM_3
360
17C4
 90
        0
  8
AM_4
360
17C5
 90
        0
  8
AM_5
360
17C6
 90
        7
  8
AM_6
360
17C7
 90
        1
  8
AM_7
360
17C8
 90
       19
  8
AM_8
360
17C9
 90
        0
  8
AM_FR
360
17CA
 90
        2
  8
ASHADE
360
17CB
 90
        9
  8
AM_WORK
360
17CC
 90
        0
  8
AM_CL
360
17CD
 90
        0
  8
Defpoints
360
17CE
 90
        0
  8
ASRF_TMP
360
17CF
 90
        0
  8
AM_VIEWS
360
17D0
 90
        1
  8
AM_VIS
360
17D1
 90
        0
  8
AM_HID
360
17D2
 90
        0
  8
AM_PARDIM
360
17D3
 90
        0
  8
AmdtBRLock
360
196B
 90
        0
  8
5
360
1C71
 90
        0
  8
1
360
1C72
 90
        9
  8
7
360
1C73
 90
        0
  8
7A
360
1C74
 90
        0
  8
RAHM2
360
1D70
 90
        0
  8
6
360
1D71
 90
        0
  8
KLIN
360
1D72
 90
        0
  8
RAHM3
360
1D73
 90
        0
  8
RAHM5
360
1D74
 90
        0
  8
KOPF
360
1D75
 90
        0
  8
AM_TR
360
1D76
 90
        0
  8
AM_BM
360
1D77
 90
        0
  8
AM_BL
360
1D78
 90
        0
  8
AM_REFDIM
360
1D79
 90
        0
  8
AM_SUPPR
360
1D7A
 90
        0
  0
IDBUFFER
  5
17C0
330
0
100
AcDbIdBuffer
330
19C1
330
19C2
330
19CF
330
19D0
330
19D1
330
19D4
330
19D5
330
19D6
  0
IDBUFFER
  5
17C1
330
0
100
AcDbIdBuffer
330
1E91
  0
IDBUFFER
  5
17C2
330
0
100
AcDbIdBuffer
  0
IDBUFFER
  5
17C3
330
0
100
AcDbIdBuffer
  0
IDBUFFER
  5
17C4
330
0
100
AcDbIdBuffer
  0
IDBUFFER
  5
17C5
330
0
100
AcDbIdBuffer
  0
IDBUFFER
  5
17C6
330
0
100
AcDbIdBuffer
330
1A62
330
1ABC
330
1AFF
330
1B4D
330
1B8C
330
1BCB
330
1C0A
  0
IDBUFFER
  5
17C7
330
0
100
AcDbIdBuffer
330
1DD8
  0
IDBUFFER
  5
17C8
330
0
100
AcDbIdBuffer
330
19C8
330
1F11
330
1F12
330
1F13
330
1F14
330
1F16
330
1F18
330
1F1A
330
1F1B
330
1F1C
330
1F1D
330
1F1F
330
1F20
330
1F21
330
1F22
330
1F24
330
1F25
330
1F26
330
1F27
  0
IDBUFFER
  5
17C9
330
0
100
AcDbIdBuffer
  0
IDBUFFER
  5
17CA
330
0
100
AcDbIdBuffer
330
379
330
389
  0
IDBUFFER
  5
17CB
330
0
100
AcDbIdBuffer
330
3FB
330
3FC
330
3FD
330
3FE
330
3FF
330
400
330
401
330
402
330
409
  0
IDBUFFER
  5
17CC
330
0
100
AcDbIdBuffer
  0
IDBUFFER
  5
17CD
330
0
100
AcDbIdBuffer
  0
IDBUFFER
  5
17CE
330
0
100
AcDbIdBuffer
  0
IDBUFFER
  5
17CF
330
0
100
AcDbIdBuffer
  0
IDBUFFER
  5
17D0
330
0
100
AcDbIdBuffer
330
1A52
  0
IDBUFFER
  5
17D1
330
0
100
AcDbIdBuffer
  0
IDBUFFER
  5
17D2
330
0
100
AcDbIdBuffer
  0
IDBUFFER
  5
17D3
330
0
100
AcDbIdBuffer
  0
IDBUFFER
  5
196B
330
0
100
AcDbIdBuffer
  0
IDBUFFER
  5
1C71
330
0
100
AcDbIdBuffer
  0
IDBUFFER
  5
1C72
330
0
100
AcDbIdBuffer
330
19BF
330
19C6
330
19C7
330
19CD
330
19D2
330
1A03
330
1A04
330
1A05
330
1A07
  0
IDBUFFER
  5
1C73
330
0
100
AcDbIdBuffer
  0
IDBUFFER
  5
1C74
330
0
100
AcDbIdBuffer
  0
IDBUFFER
  5
1D70
330
0
100
AcDbIdBuffer
  0
IDBUFFER
  5
1D71
330
0
100
AcDbIdBuffer
  0
IDBUFFER
  5
1D72
330
0
100
AcDbIdBuffer
  0
IDBUFFER
  5
1D73
330
0
100
AcDbIdBuffer
  0
IDBUFFER
  5
1D74
330
0
100
AcDbIdBuffer
  0
IDBUFFER
  5
1D75
330
0
100
AcDbIdBuffer
  0
IDBUFFER
  5
1D76
330
0
100
AcDbIdBuffer
  0
IDBUFFER
  5
1D77
330
0
100
AcDbIdBuffer
  0
IDBUFFER
  5
1D78
330
0
100
AcDbIdBuffer
  0
IDBUFFER
  5
1D79
330
0
100
AcDbIdBuffer
  0
IDBUFFER
  5
1D7A
330
0
100
AcDbIdBuffer
  0
ENDSEC
  0
EOF
