  0
SECTION
  2
HEADER
  9
$ACADVER
  1
AC1021
  9
$ACADMAINTVER
 70
    52
  9
$DWGCODEPAGE
  3
ANSI_1252
  9
$LASTSAVEDBY
  1
bup
  9
$CUSTOMPROPERTYTAG
  1
AmdtFileType
  9
$CUSTOMPROPERTY
  1
83
  9
$INSBASE
 10
0.0
 20
0.0
 30
0.0
  9
$EXTMIN
 10
86.56860459429287
 20
98.78549274986779
 30
-0.0000000349181948
  9
$EXTMAX
 10
310.8407601281545
 20
265.8978430625259
 30
0.0000000814935746
  9
$LIMMIN
 10
0.0
 20
0.0
  9
$LIMMAX
 10
420.0
 20
297.0
  9
$ORTHOMODE
 70
     0
  9
$REGENMODE
 70
     1
  9
$FILLMODE
 70
     1
  9
$QTEXTMODE
 70
     0
  9
$MIRRTEXT
 70
     1
  9
$LTSCALE
 40
1.0
  9
$ATTMODE
 70
     1
  9
$TEXTSIZE
 40
3.5
  9
$TRACEWID
 40
1.0
  9
$TEXTSTYLE
  7
STANDARD
  9
$CLAYER
  8
AM_0
  9
$CELTYPE
  6
BYLAYER
  9
$CECOLOR
 62
   256
  9
$CELTSCALE
 40
1.0
  9
$DISPSILH
 70
     0
  9
$DIMSCALE
 40
1.0
  9
$DIMASZ
 40
3.0
  9
$DIMEXO
 40
0.0
  9
$DIMDLI
 40
10.0
  9
$DIMRND
 40
0.0
  9
$DIMDLE
 40
0.0
  9
$DIMEXE
 40
1.0
  9
$DIMTP
 40
0.1
  9
$DIMTM
 40
0.1
  9
$DIMTXT
 40
3.5
  9
$DIMCEN
 40
0.0
  9
$DIMTSZ
 40
0.0
  9
$DIMTOL
 70
     0
  9
$DIMLIM
 70
     0
  9
$DIMTIH
 70
     0
  9
$DIMTOH
 70
     0
  9
$DIMSE1
 70
     0
  9
$DIMSE2
 70
     0
  9
$DIMTAD
 70
     1
  9
$DIMZIN
 70
     8
  9
$DIMBLK
  1

  9
$DIMASO
 70
     1
  9
$DIMSHO
 70
     1
  9
$DIMPOST
  1

  9
$DIMAPOST
  1
"
  9
$DIMALT
 70
     0
  9
$DIMALTD
 70
     2
  9
$DIMALTF
 40
0.0393701
  9
$DIMLFAC
 40
1.0
  9
$DIMTOFL
 70
     1
  9
$DIMTVP
 40
0.0
  9
$DIMTIX
 70
     0
  9
$DIMSOXD
 70
     0
  9
$DIMSAH
 70
     0
  9
$DIMBLK1
  1

  9
$DIMBLK2
  1

  9
$DIMSTYLE
  2
AM_ISO
  9
$DIMCLRD
 70
   256
  9
$DIMCLRE
 70
   256
  9
$DIMCLRT
 70
     2
  9
$DIMTFAC
 40
0.71
  9
$DIMGAP
 40
1.5
  9
$DIMJUST
 70
     0
  9
$DIMSD1
 70
     0
  9
$DIMSD2
 70
     0
  9
$DIMTOLJ
 70
     0
  9
$DIMTZIN
 70
     0
  9
$DIMALTZ
 70
     0
  9
$DIMALTTZ
 70
     0
  9
$DIMUPT
 70
     0
  9
$DIMDEC
 70
     2
  9
$DIMTDEC
 70
     2
  9
$DIMALTU
 70
     2
  9
$DIMALTTD
 70
     2
  9
$DIMTXSTY
  7
STANDARD
  9
$DIMAUNIT
 70
     0
  9
$DIMADEC
 70
     0
  9
$DIMALTRND
 40
0.0
  9
$DIMAZIN
 70
     2
  9
$DIMDSEP
 70
    46
  9
$DIMATFIT
 70
     3
  9
$DIMFRAC
 70
     0
  9
$DIMLDRBLK
  1

  9
$DIMLUNIT
 70
     2
  9
$DIMLWD
 70
    -1
  9
$DIMLWE
 70
    -1
  9
$DIMTMOVE
 70
     0
  9
$DIMFXL
 40
1.0
  9
$DIMFXLON
 70
     0
  9
$DIMJOGANG
 40
0.7853981633974483
  9
$DIMTFILL
 70
     0
  9
$DIMTFILLCLR
 70
     0
  9
$DIMARCSYM
 70
     0
  9
$DIMLTYPE
  6

  9
$DIMLTEX1
  6

  9
$DIMLTEX2
  6

  9
$LUNITS
 70
     2
  9
$LUPREC
 70
     4
  9
$SKETCHINC
 40
1.0
  9
$FILLETRAD
 40
10.0
  9
$AUNITS
 70
     0
  9
$AUPREC
 70
     2
  9
$MENU
  1
.
  9
$ELEVATION
 40
0.0
  9
$PELEVATION
 40
0.0
  9
$THICKNESS
 40
0.0
  9
$LIMCHECK
 70
     0
  9
$CHAMFERA
 40
10.0
  9
$CHAMFERB
 40
10.0
  9
$CHAMFERC
 40
20.0
  9
$CHAMFERD
 40
0.0
  9
$SKPOLY
 70
     1
  9
$TDCREATE
 40
2452041.302890915
  9
$TDUCREATE
 40
2452041.261224247
  9
$TDUPDATE
 40
2454866.370353218
  9
$TDUUPDATE
 40
2454866.328686551
  9
$TDINDWG
 40
0.0977225231
  9
$TDUSRTIMER
 40
0.0977222917
  9
$USRTIMER
 70
     1
  9
$ANGBASE
 50
0.0
  9
$ANGDIR
 70
     0
  9
$PDMODE
 70
     0
  9
$PDSIZE
 40
0.0
  9
$PLINEWID
 40
0.0
  9
$SPLFRAME
 70
     0
  9
$SPLINETYPE
 70
     6
  9
$SPLINESEGS
 70
    16
  9
$HANDSEED
  5
2202
  9
$SURFTAB1
 70
     6
  9
$SURFTAB2
 70
     6
  9
$SURFTYPE
 70
     6
  9
$SURFU
 70
     6
  9
$SURFV
 70
     6
  9
$UCSBASE
  2

  9
$UCSNAME
  2

  9
$UCSORG
 10
0.0
 20
0.0
 30
0.0
  9
$UCSXDIR
 10
1.0
 20
0.0
 30
0.0
  9
$UCSYDIR
 10
0.0
 20
1.0
 30
0.0
  9
$UCSORTHOREF
  2

  9
$UCSORTHOVIEW
 70
     0
  9
$UCSORGTOP
 10
0.0
 20
0.0
 30
0.0
  9
$UCSORGBOTTOM
 10
0.0
 20
0.0
 30
0.0
  9
$UCSORGLEFT
 10
0.0
 20
0.0
 30
0.0
  9
$UCSORGRIGHT
 10
0.0
 20
0.0
 30
0.0
  9
$UCSORGFRONT
 10
0.0
 20
0.0
 30
0.0
  9
$UCSORGBACK
 10
0.0
 20
0.0
 30
0.0
  9
$PUCSBASE
  2

  9
$PUCSNAME
  2

  9
$PUCSORG
 10
0.0
 20
0.0
 30
0.0
  9
$PUCSXDIR
 10
1.0
 20
0.0
 30
0.0
  9
$PUCSYDIR
 10
0.0
 20
1.0
 30
0.0
  9
$PUCSORTHOREF
  2

  9
$PUCSORTHOVIEW
 70
     0
  9
$PUCSORGTOP
 10
0.0
 20
0.0
 30
0.0
  9
$PUCSORGBOTTOM
 10
0.0
 20
0.0
 30
0.0
  9
$PUCSORGLEFT
 10
0.0
 20
0.0
 30
0.0
  9
$PUCSORGRIGHT
 10
0.0
 20
0.0
 30
0.0
  9
$PUCSORGFRONT
 10
0.0
 20
0.0
 30
0.0
  9
$PUCSORGBACK
 10
0.0
 20
0.0
 30
0.0
  9
$USERI1
 70
     0
  9
$USERI2
 70
     0
  9
$USERI3
 70
     0
  9
$USERI4
 70
     0
  9
$USERI5
 70
     0
  9
$USERR1
 40
0.0
  9
$USERR2
 40
0.0
  9
$USERR3
 40
0.0
  9
$USERR4
 40
0.0
  9
$USERR5
 40
0.0
  9
$WORLDVIEW
 70
     1
  9
$SHADEDGE
 70
     3
  9
$SHADEDIF
 70
    70
  9
$TILEMODE
 70
     1
  9
$MAXACTVP
 70
    48
  9
$PINSBASE
 10
0.0
 20
0.0
 30
0.0
  9
$PLIMCHECK
 70
     0
  9
$PEXTMIN
 10
1.000000000000000E+20
 20
1.000000000000000E+20
 30
1.000000000000000E+20
  9
$PEXTMAX
 10
-1.000000000000000E+20
 20
-1.000000000000000E+20
 30
-1.000000000000000E+20
  9
$PLIMMIN
 10
-5.027083396911621
 20
-5.111741065979003
  9
$PLIMMAX
 10
204.9885873794556
 20
291.8989095687866
  9
$UNITMODE
 70
     0
  9
$VISRETAIN
 70
     1
  9
$PLINEGEN
 70
     0
  9
$PSLTSCALE
 70
     1
  9
$TREEDEPTH
 70
  3020
  9
$CMLSTYLE
  2
STANDARD
  9
$CMLJUST
 70
     0
  9
$CMLSCALE
 40
1.0
  9
$PROXYGRAPHICS
 70
     1
  9
$MEASUREMENT
 70
     1
  9
$CELWEIGHT
370
    -1
  9
$ENDCAPS
280
     0
  9
$JOINSTYLE
280
     0
  9
$LWDISPLAY
290
     0
  9
$INSUNITS
 70
     0
  9
$HYPERLINKBASE
  1

  9
$STYLESHEET
  1
LAA4.ctb
  9
$XEDIT
290
     1
  9
$CEPSNTYPE
380
     0
  9
$PSTYLEMODE
290
     1
  9
$FINGERPRINTGUID
  2
{9DE0F4BE-022B-11D3-8698-0060B085A428}
  9
$VERSIONGUID
  2
{80070245-0276-494C-8E4E-E3822A1E9953}
  9
$EXTNAMES
290
     1
  9
$PSVPSCALE
 40
0.0
  9
$OLESTARTUP
290
     0
  9
$SORTENTS
280
    96
  9
$INDEXCTL
280
     1
  9
$HIDETEXT
280
     0
  9
$XCLIPFRAME
290
     0
  9
$HALOGAP
280
     0
  9
$OBSCOLOR
 70
   257
  9
$OBSLTYPE
280
     0
  9
$INTERSECTIONDISPLAY
280
     0
  9
$INTERSECTIONCOLOR
 70
   257
  9
$DIMASSOC
280
     1
  9
$PROJECTNAME
  1

  9
$CAMERADISPLAY
290
     0
  9
$LENSLENGTH
 40
50.0
  9
$CAMERAHEIGHT
 40
0.0
  9
$STEPSPERSEC
 40
2.0
  9
$STEPSIZE
 40
6.0
  9
$3DDWFPREC
 40
2.0
  9
$PSOLWIDTH
 40
0.25
  9
$PSOLHEIGHT
 40
4.0
  9
$LOFTANG1
 40
1.570796326794896
  9
$LOFTANG2
 40
1.570796326794896
  9
$LOFTMAG1
 40
0.0
  9
$LOFTMAG2
 40
0.0
  9
$LOFTPARAM
 70
     7
  9
$LOFTNORMALS
280
     1
  9
$LATITUDE
 40
37.795
  9
$LONGITUDE
 40
-122.394
  9
$NORTHDIRECTION
 40
0.0
  9
$TIMEZONE
 70
 -8000
  9
$LIGHTGLYPHDISPLAY
280
     1
  9
$TILEMODELIGHTSYNCH
280
     1
  9
$CMATERIAL
347
20E0
  9
$SOLIDHIST
280
     1
  9
$SHOWHIST
280
     1
  9
$DWFFRAME
280
     2
  9
$DGNFRAME
280
     0
  9
$REALWORLDSCALE
290
     1
  9
$INTERFERECOLOR
 62
     1
  9
$INTERFEREOBJVS
345
20ED
  9
$INTERFEREVPVS
346
20EA
  9
$CSHADOW
280
     0
  9
$SHADOWPLANELOCATION
 40
0.0
  0
ENDSEC
  0
SECTION
  2
CLASSES
  0
CLASS
  1
DICTIONARYVAR
  2
AcDbDictionaryVar
  3
ObjectDBX Classes
 90
        0
 91
       10
280
     0
281
     0
  0
CLASS
  1
ACMESTATEMGR
  2
AcMeStateMgr
  3
AcMeServices
 90
     1024
 91
        1
280
     0
281
     0
  0
CLASS
  1
ACMESCOPE
  2
AcMeScope
  3
AcMeServices
 90
     1024
 91
        1
280
     0
281
     0
  0
CLASS
  1
ACMECOMMANDHISTORY
  2
AcMeCommandHistory
  3
AcMeServices
 90
     1024
 91
        1
280
     0
281
     0
  0
CLASS
  1
ACRFINSADJUSTERMGR
  2
AcRfInsAdjusterMgr
  3
AcMeServices
 90
     1024
 91
        1
280
     0
281
     0
  0
CLASS
  1
ACMEDRAWINGMAN
  2
AcMeDrawingMan
  3
AcMeServices
 90
     1024
 91
        1
280
     0
281
     0
  0
CLASS
  1
AMATTR
  2
AcMeAttribute
  3
AcMeServices
 90
     1024
 91
        0
280
     0
281
     0
  0
CLASS
  1
ACMEBOMCOLUMN
  2
AcMeBOMColumn
  3
AcMeServices
 90
     1024
 91
        0
280
     0
281
     0
  0
CLASS
  1
ACMEBOMCONF
  2
AcMeBOMConf
  3
AcMeServices
 90
     1024
 91
        0
280
     0
281
     0
  0
CLASS
  1
ACMEBOMTABLE
  2
AcMeBOMTable
  3
AcMeServices
 90
     1024
 91
        0
280
     0
281
     0
  0
CLASS
  1
ACMEBOMENTRY
  2
AcMeBOMEntry
  3
AcMeServices
 90
     1024
 91
        0
280
     0
281
     0
  0
CLASS
  1
ACMEVIEW
  2
AcMeView
  3
AcMeServices
 90
     1024
 91
        0
280
     0
281
     0
  0
CLASS
  1
ACGREFMASTER
  2
AcGrefMaster
  3
AcAttribServices
 90
     1024
 91
        1
280
     0
281
     0
  0
CLASS
  1
AMIMASTER
  2
AmiMaster
  3
AmiServices
 90
     1024
 91
        1
280
     0
281
     0
  0
CLASS
  1
ACASGREFMASTER
  2
AcAsGrefMaster
  3
AutoSurfResolverServices
 90
     1024
 91
        1
280
     0
281
     0
  0
CLASS
  1
ADAPPL
  2
AcAdAppl
  3
DesignerServices
 90
     1024
 91
        1
280
     0
281
     0
  0
CLASS
  1
DEPMGR
  2
AcAdDepMgr
  3
DesignerServices
 90
     1024
 91
        1
280
     0
281
     0
  0
CLASS
  1
PARAMMGR
  2
AcAdParamMgr
  3
DesignerServices
 90
     1024
 91
        1
280
     0
281
     0
  0
CLASS
  1
PARAMSCOPE
  2
AcAdParamScope
  3
DesignerServices
 90
     1024
 91
        3
280
     0
281
     0
  0
CLASS
  1
ACIMSYSVARMAN
  2
AcImSysVarManager
  3
AcMeServices
 90
     1024
 91
        6
280
     0
281
     0
  0
CLASS
  1
ACIMINTSYSVAR
  2
AcImIntSysVar
  3
AcMeServices
 90
     1024
 91
       47
280
     0
281
     0
  0
CLASS
  1
ACIMREALSYSVAR
  2
AcImRealSysVar
  3
AcMeServices
 90
     1024
 91
       16
280
     0
281
     0
  0
CLASS
  1
ACIMSTRSYSVAR
  2
AcImStrSysVar
  3
AcMeServices
 90
     1024
 91
       14
280
     0
281
     0
  0
CLASS
  1
NAMEDAPPL
  2
AcAdNamedAppl
  3
DesignerServices
 90
     1024
 91
        1
280
     0
281
     0
  0
CLASS
  1
ADHNTMPLT
  2
AdHoleNoteTemplateMgr
  3
DesignerServices
 90
     1024
 91
        0
280
     0
281
     0
  0
CLASS
  1
AM_HNTEMPLATE_MGR_NAME
  2
AdHoleNoteTemplateMgrName
  3
DesignerServices
 90
     1024
 91
        0
280
     0
281
     0
  0
CLASS
  1
ACADGREFMODULE
  2
AcAdGrefModule
  3
AdGrefServices
 90
     1024
 91
        1
280
     0
281
     0
  0
CLASS
  1
AM_DRAWING_MGR
  2
AcDmDwgMgr
  3
AcMechDwgViewMgmt
 90
     1024
 91
        1
280
     0
281
     0
  0
CLASS
  1
AM_DWG_DOCUMENT
  2
AcDmDwgDocument
  3
AcMechDwgViewMgmt
 90
     1024
 91
        1
280
     0
281
     0
  0
CLASS
  1
AM_DWG_SHEET
  2
AcDmSheet
  3
AcMechDwgViewMgmt
 90
     1024
 91
        5
280
     0
281
     0
  0
CLASS
  1
AM_VIEWDIMPARMAP
  2
AcDmViewDimParMap
  3
AcMechDwgViewMgmt
 90
     1024
 91
        5
280
     0
281
     0
  0
CLASS
  1
AM_DWGMGR_NAME
  2
AcDmDwgMgrName
  3
AcMechDwgViewMgmt
 90
     1024
 91
        1
280
     0
281
     0
  0
CLASS
  1
ACAMPROJECT
  2
AcAmProject
  3
DesignerAssemblies
 90
     1024
 91
        1
280
     0
281
     0
  0
CLASS
  1
ACAMGRCOMPSET
  2
AcAmGrCompSet
  3
DesignerAssemblies
 90
        0
 91
        0
280
     0
281
     0
  0
CLASS
  1
ACAMGRCOMPDEFSET
  2
AcAmGrCompDefSet
  3
DesignerAssemblies
 90
     1024
 91
        1
280
     0
281
     0
  0
CLASS
  1
ACAMGRCOMPDEF
  2
AcAmGrCompDef
  3
DesignerAssemblies
 90
     1024
 91
        2
280
     0
281
     0
  0
CLASS
  1
ACCMCONTEXT
  2
AcCmContext
  3
DesignerAssemblies
 90
     1024
 91
        2
280
     0
281
     0
  0
CLASS
  1
ACAMCOMPDEF
  2
AcAmCompDef
  3
DesignerAssemblies
 90
     1024
 91
        2
280
     0
281
     0
  0
CLASS
  1
ACAMCOMPDEFMGR
  2
AcAmCompDefMgr
  3
DesignerAssemblies
 90
     1024
 91
        1
280
     0
281
     0
  0
CLASS
  1
AMCONTEXTMGR
  2
AcAmContextMgr
  3
DesignerAssemblies
 90
     1024
 91
        1
280
     0
281
     0
  0
CLASS
  1
ACAMCONTEXTMODELER
  2
AcAmContextModeler
  3
DesignerAssemblies
 90
     1024
 91
        0
280
     0
281
     0
  0
CLASS
  1
ACDMVIEWGEOM
  2
AcDmViewGeometry
  3
AcMechDwgViewMgmt
 90
     1024
 91
        1
280
     0
281
     1
  0
CLASS
  1
CBROWSERAPPOBJECT
  2
CBrowserAppObject
  3
McadcomServices
 90
     1024
 91
        3
280
     0
281
     0
  0
CLASS
  1
IM_STATIC_MAN
  2
AcImStaticVarManager
  3
AcMeServices
 90
     1024
 91
        1
280
     0
281
     0
  0
CLASS
  1
ASAPP
  2
AcAsAppObject
  3
AutoSurfServices
 90
     1024
 91
        1
280
     0
281
     0
  0
CLASS
  1
ACIMDBLSTATICVAR
  2
AcImDblStaticVar
  3
AcMeServices
 90
     1024
 91
       22
280
     0
281
     0
  0
CLASS
  1
ACIMSTRSTATICVAR
  2
AcImStrStaticVar
  3
AcMeServices
 90
     1024
 91
       13
280
     0
281
     0
  0
CLASS
  1
ACIMINTSTATICVAR
  2
AcImIntStaticVar
  3
AcMeServices
 90
     1024
 91
       17
280
     0
281
     0
  0
CLASS
  1
CATALOGSTATE
  2
AcAmCatalogState
  3
DesignerAssemblies
 90
     1024
 91
        1
280
     0
281
     0
  0
CLASS
  1
DM_PLACEHOLDER
  2
AcDmSelsetPlaceholder
  3
AcMechDwgViewMgmt
 90
     1024
 91
        1
280
     0
281
     0
  0
CLASS
  1
LAYER_INDEX
  2
AcDbLayerIndex
  3
ObjectDBX Classes
 90
        0
 91
        1
280
     0
281
     0
  0
CLASS
  1
IDBUFFER
  2
AcDbIdBuffer
  3
ObjectDBX Classes
 90
        0
 91
       28
280
     0
281
     0
  0
CLASS
  1
ACMSTANDARDJIS
  2
AcmStandardJIS
  3
"Amdt_StdImp|Product Description: AutoCAD Mechanical|Company: Autodesk, Inc."
 90
     1024
 91
        1
280
     0
281
     0
  0
CLASS
  1
ACMSTANDARDANSI
  2
AcmStandardANSI
  3
"Amdt_StdImp|Product Description: AutoCAD Mechanical|Company: Autodesk, Inc."
 90
     1024
 91
        1
280
     0
281
     0
  0
CLASS
  1
ACMSTANDARDBSI
  2
AcmStandardBSI
  3
"Amdt_StdImp|Product Description: AutoCAD Mechanical|Company: Autodesk, Inc."
 90
     1024
 91
        1
280
     0
281
     0
  0
CLASS
  1
ACMSTANDARDDIN
  2
AcmStandardDIN
  3
"Amdt_StdImp|Product Description: AutoCAD Mechanical|Company: Autodesk, Inc."
 90
     1024
 91
        1
280
     0
281
     0
  0
CLASS
  1
ACMSTANDARDISO
  2
AcmStandardISO
  3
"Amdt_StdImp|Product Description: AutoCAD Mechanical|Company: Autodesk, Inc."
 90
     1024
 91
        1
280
     0
281
     0
  0
CLASS
  1
ACDBDICTIONARYWDFLT
  2
AcDbDictionaryWithDefault
  3
ObjectDBX Classes
 90
        0
 91
        1
280
     0
281
     0
  0
CLASS
  1
ACME_DOCUMENT
  2
AcMeDbDoc
  3
AcMeServices
 90
     1024
 91
        2
280
     0
281
     0
  0
CLASS
  1
AMGSETTINGSOBJ
  2
AmgSettingsObj
  3
"AcadM|Product Description: AutoCAD Mechanical|Company: Autodesk, Inc."
 90
     1024
 91
        4
280
     0
281
     0
  0
CLASS
  1
AMGOBJPROPCFG
  2
AmgObjPropCfg
  3
"AmgLay|Product Description: AutoCAD Mechanical|Company: Autodesk, Inc."
 90
     1025
 91
        1
280
     0
281
     0
  0
CLASS
  1
ACDBENTITYCACHE
  2
AcMeEntityCache
  3
AcMeServices
 90
     1024
 91
        1
280
     0
281
     0
  0
CLASS
  1
GSMANAGER
  2
AcMeGSManager
  3
AcMeServices
 90
     1024
 91
        1
280
     0
281
     0
  0
CLASS
  1
AMDTINTERNALREACTOR
  2
AmdtInternalReactor
  3
AcMeServices
 90
     1024
 91
        6
280
     0
281
     0
  0
CLASS
  1
ACME_DATABASE
  2
AcMeDbDatabase
  3
AcMeServices
 90
     1024
 91
        1
280
     0
281
     0
  0
CLASS
  1
ACGREFACADMASTER
  2
AcGrefacadMaster
  3
AcGrefServices
 90
     1024
 91
        1
280
     0
281
     0
  0
CLASS
  1
AMDTMENUSTATEMGR
  2
AmdtMenuStateMgr
  3
McadcomServices
 90
     1024
 91
        1
280
     0
281
     0
  0
CLASS
  1
AMDTMCOMMENUSTATE
  2
AmdtMcomMenuState
  3
McadcomServices
 90
     1024
 91
        1
280
     0
281
     0
  0
CLASS
  1
MAPIADMODULE
  2
MApiAdModule
  3
MApiAdServices
 90
     1024
 91
        1
280
     0
281
     0
  0
CLASS
  1
AMDTDMMENUSTATE
  2
AmdtDmMenuState
  3
AcMechDwgViewMgmt
 90
     1024
 91
        1
280
     0
281
     0
  0
CLASS
  1
AMDTADMENUSTATE
  2
AmdtAdMenuState
  3
DesignerServices
 90
     1024
 91
        1
280
     0
281
     0
  0
CLASS
  1
AMDTAMMENUSTATE
  2
AmdtAmMenuState
  3
DesignerAssemblies
 90
     1024
 91
        1
280
     0
281
     0
  0
CLASS
  1
ACMDATADICTIONARY
  2
AcmDataDictionary
  3
"AcmSymBB|Product Description: AutoCAD Mechanical|Company: Autodesk, Inc."
 90
     1024
 91
        1
280
     0
281
     0
  0
CLASS
  1
ACMDATAENTRYBLOCK
  2
AcmDataEntryBlock
  3
AcmSymBB|Product Description: AutoCAD Mechanical|Company: Autodesk, Inc.
 90
     1024
 91
        1
280
     0
281
     0
  0
CLASS
  1
ACMSURFSTANDARDJIS
  2
AcmSurfTextStdJIS
  3
"Amdt_StdImp|Product Description: AutoCAD Mechanical|Company: Autodesk, Inc."
 90
     1024
 91
        1
280
     0
281
     0
  0
CLASS
  1
ACMFCFSTANDARDJIS
  2
AcmFCFStdJIS
  3
"Amdt_StdImp|Product Description: AutoCAD Mechanical|Company: Autodesk, Inc."
 90
     1024
 91
        1
280
     0
281
     0
  0
CLASS
  1
ACMWELDSTANDARDJIS
  2
AcmWeldingStdJIS
  3
"Amdt_StdImp|Product Description: AutoCAD Mechanical|Company: Autodesk, Inc."
 90
     1024
 91
        1
280
     0
281
     0
  0
CLASS
  1
ACMIDSTANDARDJIS
  2
AcmIdStdJIS
  3
"Amdt_StdImp|Product Description: AutoCAD Mechanical|Company: Autodesk, Inc."
 90
     1024
 91
        1
280
     0
281
     0
  0
CLASS
  1
ACMDATUMSTANDARDJIS
  2
AcmDatumStdJIS
  3
"Amdt_StdImp|Product Description: AutoCAD Mechanical|Company: Autodesk, Inc."
 90
     1024
 91
        1
280
     0
281
     0
  0
CLASS
  1
ACMBOMSTANDARDJIS
  2
AcmBOMStdJIS
  3
"Amdt_StdImp|Product Description: AutoCAD Mechanical|Company: Autodesk, Inc."
 90
     1024
 91
        1
280
     0
281
     0
  0
CLASS
  1
ACMSURFSTANDARDANSI
  2
AcmSurfTextStdANSI
  3
"Amdt_StdImp|Product Description: AutoCAD Mechanical|Company: Autodesk, Inc."
 90
     1024
 91
        1
280
     0
281
     0
  0
CLASS
  1
ACMFCFSTANDARDANSI
  2
AcmFCFStdANSI
  3
"Amdt_StdImp|Product Description: AutoCAD Mechanical|Company: Autodesk, Inc."
 90
     1024
 91
        1
280
     0
281
     0
  0
CLASS
  1
ACMWELDSTANDARDANSI
  2
AcmWeldingStdANSI
  3
"Amdt_StdImp|Product Description: AutoCAD Mechanical|Company: Autodesk, Inc."
 90
     1024
 91
        1
280
     0
281
     0
  0
CLASS
  1
ACMIDSTANDARDANSI
  2
AcmIdStdANSI
  3
"Amdt_StdImp|Product Description: AutoCAD Mechanical|Company: Autodesk, Inc."
 90
     1024
 91
        1
280
     0
281
     0
  0
CLASS
  1
ACMDATUMSTANDARDANSI
  2
AcmDatumStdANSI
  3
"Amdt_StdImp|Product Description: AutoCAD Mechanical|Company: Autodesk, Inc."
 90
     1024
 91
        1
280
     0
281
     0
  0
CLASS
  1
ACMBOMSTANDARDANSI
  2
AcmBOMStdANSI
  3
"Amdt_StdImp|Product Description: AutoCAD Mechanical|Company: Autodesk, Inc."
 90
     1024
 91
        1
280
     0
281
     0
  0
CLASS
  1
ACMSURFSTANDARDBSI
  2
AcmSurfTextStdBSI
  3
"Amdt_StdImp|Product Description: AutoCAD Mechanical|Company: Autodesk, Inc."
 90
     1024
 91
        1
280
     0
281
     0
  0
CLASS
  1
ACMFCFSTANDARDBSI
  2
AcmFCFStdBSI
  3
"Amdt_StdImp|Product Description: AutoCAD Mechanical|Company: Autodesk, Inc."
 90
     1024
 91
        1
280
     0
281
     0
  0
CLASS
  1
ACMWELDSTANDARDBSI
  2
AcmWeldingStdBSI
  3
"Amdt_StdImp|Product Description: AutoCAD Mechanical|Company: Autodesk, Inc."
 90
     1024
 91
        1
280
     0
281
     0
  0
CLASS
  1
ACMIDSTANDARDBSI
  2
AcmIdStdBSI
  3
"Amdt_StdImp|Product Description: AutoCAD Mechanical|Company: Autodesk, Inc."
 90
     1024
 91
        1
280
     0
281
     0
  0
CLASS
  1
ACMDATUMSTANDARDBSI
  2
AcmDatumStdBSI
  3
"Amdt_StdImp|Product Description: AutoCAD Mechanical|Company: Autodesk, Inc."
 90
     1024
 91
        1
280
     0
281
     0
  0
CLASS
  1
ACMBOMSTANDARDBSI
  2
AcmBOMStdBSI
  3
"Amdt_StdImp|Product Description: AutoCAD Mechanical|Company: Autodesk, Inc."
 90
     1024
 91
        1
280
     0
281
     0
  0
CLASS
  1
AMDTEDGESTANDARDDIN
  2
AmdtEdgeStdDIN
  3
"Amdt_StdImp|Product Description: AutoCAD Mechanical|Company: Autodesk, Inc."
 90
     1024
 91
        1
280
     0
281
     0
  0
CLASS
  1
ACMSURFSTANDARDDIN
  2
AcmSurfTextStdDIN
  3
"Amdt_StdImp|Product Description: AutoCAD Mechanical|Company: Autodesk, Inc."
 90
     1024
 91
        1
280
     0
281
     0
  0
CLASS
  1
ACMFCFSTANDARDDIN
  2
AcmFCFStdDIN
  3
"Amdt_StdImp|Product Description: AutoCAD Mechanical|Company: Autodesk, Inc."
 90
     1024
 91
        1
280
     0
281
     0
  0
CLASS
  1
ACMWELDSTANDARDDIN
  2
AcmWeldingStdDIN
  3
"Amdt_StdImp|Product Description: AutoCAD Mechanical|Company: Autodesk, Inc."
 90
     1024
 91
        1
280
     0
281
     0
  0
CLASS
  1
ACMIDSTANDARDDIN
  2
AcmIdStdDIN
  3
"Amdt_StdImp|Product Description: AutoCAD Mechanical|Company: Autodesk, Inc."
 90
     1024
 91
        1
280
     0
281
     0
  0
CLASS
  1
ACMDATUMSTANDARDDIN
  2
AcmDatumStdDIN
  3
"Amdt_StdImp|Product Description: AutoCAD Mechanical|Company: Autodesk, Inc."
 90
     1024
 91
        1
280
     0
281
     0
  0
CLASS
  1
ACMBOMSTANDARDDIN
  2
AcmBOMStdDIN
  3
"Amdt_StdImp|Product Description: AutoCAD Mechanical|Company: Autodesk, Inc."
 90
     1024
 91
        1
280
     0
281
     0
  0
CLASS
  1
ACMSURFSTANDARDISO
  2
AcmSurfTextStdISO
  3
"Amdt_StdImp|Product Description: AutoCAD Mechanical|Company: Autodesk, Inc."
 90
     1024
 91
        1
280
     0
281
     0
  0
CLASS
  1
ACMFCFSTANDARDISO
  2
AcmFCFStdISO
  3
"Amdt_StdImp|Product Description: AutoCAD Mechanical|Company: Autodesk, Inc."
 90
     1024
 91
        1
280
     0
281
     0
  0
CLASS
  1
ACMWELDSTANDARDISO
  2
AcmWeldingStdISO
  3
"Amdt_StdImp|Product Description: AutoCAD Mechanical|Company: Autodesk, Inc."
 90
     1024
 91
        1
280
     0
281
     0
  0
CLASS
  1
ACMIDSTANDARDISO
  2
AcmIdStdISO
  3
"Amdt_StdImp|Product Description: AutoCAD Mechanical|Company: Autodesk, Inc."
 90
     1024
 91
        1
280
     0
281
     0
  0
CLASS
  1
ACMDATUMSTANDARDISO
  2
AcmDatumStdISO
  3
"Amdt_StdImp|Product Description: AutoCAD Mechanical|Company: Autodesk, Inc."
 90
     1024
 91
        1
280
     0
281
     0
  0
CLASS
  1
ACMBOMSTANDARDISO
  2
AcmBOMStdISO
  3
"Amdt_StdImp|Product Description: AutoCAD Mechanical|Company: Autodesk, Inc."
 90
     1024
 91
        1
280
     0
281
     0
  0
CLASS
  1
AMDTBROWSERDBTAB
  2
AmdtBrowserDbTab
  3
McadcomServices
 90
     1024
 91
        1
280
     0
281
     0
  0
CLASS
  1
ACAMGFILTERDAT
  2
AcAmgFilterDat
  3
"AcadM|Product Description: AutoCAD Mechanical|Company: Autodesk, Inc."
 90
     1024
 91
        4
280
     0
281
     0
  0
CLASS
  1
MAPIAMMOUDLE
  2
MApiAmModule
  3
MApiAmServices
 90
     1024
 91
        1
280
     0
281
     0
  0
CLASS
  1
PLOTSETTINGS
  2
AcDbPlotSettings
  3
ObjectDBX Classes
 90
        0
 91
        7
280
     0
281
     0
  0
CLASS
  1
ACRFATTGENMGR
  2
AcRfAttGeneralMgr
  3
AcAttribServices
 90
     1024
 91
        1
280
     0
281
     0
  0
CLASS
  1
ACAMGRBLOCKRECORD
  2
AcAmGrBlockRecord
  3
DesignerAssemblies
 90
     1024
 91
        2
280
     0
281
     0
  0
CLASS
  1
ACAMVIEWREACTOR
  2
AcAmViewReactor
  3
DesignerAssemblies
 90
     1024
 91
        0
280
     0
281
     0
  0
CLASS
  1
ACAMCOMPENT
  2
AcAmCompEnt
  3
DesignerAssemblies
 90
     1024
 91
        0
280
     0
281
     1
  0
CLASS
  1
AMVIEW
  2
AcAmView
  3
DesignerAssemblies
 90
     1024
 91
        0
280
     0
281
     0
  0
CLASS
  1
ACAMVIEWCONTEXT
  2
AcAmViewContext
  3
DesignerAssemblies
 90
     1024
 91
        0
280
     0
281
     0
  0
CLASS
  1
ADPART
  2
AcAdPart
  3
DesignerServices
 90
     1024
 91
        2
280
     0
281
     1
  0
CLASS
  1
ADBASE
  2
AcAdBase
  3
DesignerServices
 90
     1024
 91
        2
280
     0
281
     0
  0
CLASS
  1
BODYID
  2
AcAdBodyId
  3
DesignerServices
 90
     1024
 91
        2
280
     0
281
     0
  0
CLASS
  1
WORKPLANEDISPLAYMGR
  2
AcAdDisplayMgr
  3
DesignerServices
 90
     1024
 91
        2
280
     0
281
     0
  0
CLASS
  1
ACCMBODY
  2
AcCmBody
  3
DesignerAssemblies
 90
     1024
 91
        0
280
     0
281
     0
  0
CLASS
  1
ACAMCOMPFEEDBACK
  2
AcAmCompFeedback
  3
DesignerAssemblies
 90
     1024
 91
        0
280
     0
281
     0
  0
CLASS
  1
ACAMCOMP
  2
AcAmComp
  3
DesignerAssemblies
 90
     1024
 91
        0
280
     0
281
     0
  0
CLASS
  1
ACAMCOMPENTCLONE
  2
AcAmCompEntClone
  3
DesignerAssemblies
 90
     1024
 91
        0
280
     0
281
     1
  0
CLASS
  1
ACAMCLONEREACTOR
  2
AcAmGrCompCloneReactor
  3
DesignerAssemblies
 90
     1024
 91
        0
280
     0
281
     0
  0
CLASS
  1
ADDATUMPLANEABS
  2
AcAdDatumPlaneAbs
  3
DesignerServices
 90
     1024
 91
        5
280
     0
281
     0
  0
CLASS
  1
ADDATUMAXISABS
  2
AcAdDatumAxisAbs
  3
DesignerServices
 90
     1024
 91
        6
280
     0
281
     0
  0
CLASS
  1
ADDATUMORIENTEDPLANE
  2
AcAdDatumOrientedPlane
  3
DesignerServices
 90
     1024
 91
        6
280
     0
281
     0
  0
CLASS
  1
ACAD_LINE
  2
AcAdLine
  3
DesignerServices
 90
     1024
 91
        0
280
     0
281
     1
  0
CLASS
  1
ACADLINEACAD
  2
AcAdVirtualBoundedLineAcad
  3
DesignerServices
 90
     1024
 91
       12
280
     0
281
     0
  0
CLASS
  1
ACADREFLINEACAD
  2
AcAdVirtualReferenceLine
  3
DesignerServices
 90
     1024
 91
        8
280
     0
281
     0
  0
CLASS
  1
ACADCONSLINE
  2
AcAdConstrainedLine
  3
DesignerServices
 90
     1024
 91
       21
280
     0
281
     0
  0
CLASS
  1
ACADCONSGROUP
  2
AcAdConstraintGroup
  3
DesignerServices
 90
     1024
 91
        4
280
     0
281
     0
  0
CLASS
  1
ACADIMPPTACAD
  2
AcAdVirtualImplicitPoint
  3
DesignerServices
 90
     1024
 91
       25
280
     0
281
     0
  0
CLASS
  1
ACADCONSPOINT
  2
AcAdConstrainedPoint
  3
DesignerServices
 90
     1024
 91
       20
280
     0
281
     0
  0
CLASS
  1
ADPCURCNS
  2
AcAdPointCurveConstr
  3
DesignerServices
 90
     1024
 91
       24
280
     0
281
     0
  0
CLASS
  1
ADHORCNS
  2
AcAdHorizontalConstr
  3
DesignerServices
 90
     1024
 91
        4
280
     0
281
     0
  0
CLASS
  1
ADVERCNS
  2
AcAdVerticalConstr
  3
DesignerServices
 90
     1024
 91
        4
280
     0
281
     0
  0
CLASS
  1
ADCLPROF2D
  2
AcAdClosedProfile2d
  3
DesignerServices
 90
     1024
 91
        3
280
     0
281
     0
  0
CLASS
  1
ACAD_FIXCONSTRAINT
  2
AcAdFixedConstraint
  3
DesignerServices
 90
     1024
 91
        1
280
     0
281
     0
  0
CLASS
  1
ACMELINEARARROW
  2
AcImLinearArrowDisplay
  3
AcMeServices
 90
     1024
 91
        0
280
     0
281
     1
  0
CLASS
  1
PARAM
  2
AcAdParam
  3
DesignerServices
 90
     1024
 91
       23
280
     0
281
     0
  0
CLASS
  1
ACADVOLFEATWITHTRIM
  2
AcAdVolFeatWithTrim
  3
DesignerServices
 90
     1024
 91
        3
280
     0
281
     0
  0
CLASS
  1
DEPEDGEFEATUREORDERING
  2
AcAdDepEdgeFeatureOrdering
  3
DesignerServices
 90
     1024
 91
        3
280
     0
281
     0
  0
CLASS
  1
ADWORKPOINTDISPLAY
  2
AcAdWorkPointDisplay
  3
DesignerServices
 90
     1024
 91
        1
280
     0
281
     1
  0
CLASS
  1
ADVIRTUALPOINTWORKPOINTFREE
  2
AcAdVirtualPointWorkPointFree
  3
DesignerServices
 90
     1024
 91
        1
280
     0
281
     0
  0
CLASS
  1
ADWORKPOINTSKETCH
  2
AcAdWorkPointSketch
  3
DesignerServices
 90
     1024
 91
        1
280
     0
281
     0
  0
CLASS
  1
ACADPARTDATUMPOINTRES
  2
AcAdPartDatumPointRes
  3
AdGrefServices
 90
     1024
 91
        0
280
     0
281
     0
  0
CLASS
  1
ACRFINSADJ
  2
AcRfInsAdjuster
  3
AcMeServices
 90
     1024
 91
        0
280
     0
281
     0
  0
CLASS
  1
DATUMPLANEDISPLAY
  2
AcAdDatumPlaneDisplay
  3
DesignerServices
 90
     1024
 91
        5
280
     0
281
     1
  0
CLASS
  1
ACADPARTDATUMPLANERES
  2
AcAdPartDatumPlaneRes
  3
AdGrefServices
 90
     1024
 91
        0
280
     0
281
     0
  0
CLASS
  1
ACMEPLINE
  2
AcImPlineDisplay
  3
AcMeServices
 90
     1024
 91
        0
280
     0
281
     1
  0
CLASS
  1
ACAD_CIRCLE
  2
AcAdCircle
  3
DesignerServices
 90
     1024
 91
        0
280
     0
281
     1
  0
CLASS
  1
ACADCIRCLEACAD
  2
AcAdVirtualCircleAcad
  3
DesignerServices
 90
     1024
 91
        1
280
     0
281
     0
  0
CLASS
  1
ACADCONSCIRCLE
  2
AcAdConstrainedCircle
  3
DesignerServices
 90
     1024
 91
        1
280
     0
281
     0
  0
CLASS
  1
ADCTRPTCNS
  2
AcAdCenterPointConstr
  3
DesignerServices
 90
     1024
 91
        1
280
     0
281
     0
  0
CLASS
  1
ACDBCIRCARCRES
  2
AcDbCircArcRes
  3
AcGrefServices
 90
     1024
 91
        0
280
     0
281
     0
  0
CLASS
  1
ACADSKETCHCIRCARCRES
  2
AcAdSketchCircArcRes
  3
DesignerServices
 90
     1024
 91
        1
280
     0
281
     0
  0
CLASS
  1
ADVIRTUALPOINTWORKPOINTFIXED
  2
AcAdVirtualPointWorkPointFixed
  3
DesignerServices
 90
     1024
 91
        6
280
     0
281
     0
  0
CLASS
  1
ADHDISTCNS
  2
AcAdHorizontalDistanceConstr
  3
DesignerServices
 90
     1024
 91
        5
280
     0
281
     0
  0
CLASS
  1
ACADSKETCHPOINTRES
  2
AcAdSketchPointRes
  3
DesignerServices
 90
     1024
 91
       20
280
     0
281
     0
  0
CLASS
  1
ADVDISTCNS
  2
AcAdVerticalDistanceConstr
  3
DesignerServices
 90
     1024
 91
        7
280
     0
281
     0
  0
CLASS
  1
ADACADDIACNS
  2
AcAdAcadDiameterConstr
  3
DesignerServices
 90
     1024
 91
        1
280
     0
281
     0
  0
CLASS
  1
AMIINSTATTCLASSRECORD
  2
AmiInstAttClassRecord
  3
AcAttribServices
 90
     1024
 91
        1
280
     0
281
     0
  0
CLASS
  1
AMIINSTATTIMP
  2
AmiInstAttImp
  3
AcAttribServices
 90
     1025
 91
        2
280
     0
281
     0
  0
CLASS
  1
ACRFOBJATTMGR
  2
AcRfObjAttGroupMgr
  3
AcAttribServices
 90
     1024
 91
        2
280
     0
281
     0
  0
CLASS
  1
ACRFMCADAPIATTHOLDER
  2
AcRfMCADAPIAttHolder
  3
AcAttribServices
 90
     1024
 91
        1
280
     0
281
     0
  0
CLASS
  1
FACEID
  2
AcAdFaceId
  3
DesignerServices
 90
     1024
 91
        0
280
     0
281
     0
  0
CLASS
  1
ACADPARTCYLINDERFACERES
  2
AcAdPartCylinderFaceRes
  3
AdGrefServices
 90
     1024
 91
        0
280
     0
281
     0
  0
CLASS
  1
ACADPARTPLANARFACERES
  2
AcAdPartPlanarFaceRes
  3
AdGrefServices
 90
     1024
 91
        0
280
     0
281
     0
  0
CLASS
  1
ADPLANEID
  2
AcAdPlaneId
  3
DesignerServices
 90
     1024
 91
        2
280
     0
281
     0
  0
CLASS
  1
ADDATUMPLANEFACE
  2
AcAdDatumPlaneFace
  3
DesignerServices
 90
     1024
 91
        2
280
     0
281
     0
  0
CLASS
  1
ADDATUMPLANEOFFSET
  2
AcAdDatumPlaneOffset
  3
DesignerServices
 90
     1024
 91
        3
280
     0
281
     0
  0
CLASS
  1
DATUMAXISDISPLAY
  2
AcAdDatumAxisDisplay
  3
DesignerServices
 90
     1024
 91
        1
280
     0
281
     1
  0
CLASS
  1
ADSURFGEOMID
  2
AcAdSurfGeomId
  3
DesignerServices
 90
     1024
 91
        1
280
     0
281
     0
  0
CLASS
  1
ADDATUMAXISCENTER
  2
AcAdDatumAxisCenter
  3
DesignerServices
 90
     1024
 91
        1
280
     0
281
     0
  0
CLASS
  1
ACADPARTAXISRES
  2
AcAdPartAxisRes
  3
AdGrefServices
 90
     1024
 91
        0
280
     0
281
     0
  0
CLASS
  1
ACDBLINERES
  2
AcDbLineRes
  3
AcGrefServices
 90
     1024
 91
        0
280
     0
281
     0
  0
CLASS
  1
ACADSKETCHLINERES
  2
AcAdSketchLineRes
  3
DesignerServices
 90
     1024
 91
        4
280
     0
281
     0
  0
CLASS
  1
ADCONSTDSP
  2
AcAdConstraintDisplayTag
  3
DesignerServices
 90
     1024
 91
        0
280
     0
281
     1
  0
CLASS
  1
ADCONSDISP
  2
AcAdConstraintDisplay
  3
DesignerServices
 90
     1024
 91
        0
280
     0
281
     1
  0
CLASS
  1
ADACADANGCNS
  2
AcAdAcadAngleConstr
  3
DesignerServices
 90
     1024
 91
        2
280
     0
281
     0
  0
CLASS
  1
ADPROJCNS
  2
AcAdProjectionConstr
  3
DesignerServices
 90
     1024
 91
        1
280
     0
281
     0
  0
CLASS
  1
ADCOLNCNS
  2
AcAdColinearConstr
  3
DesignerServices
 90
     1024
 91
        1
280
     0
281
     0
  0
CLASS
  1
ACADBOUNDEDLINEDATUMID
  2
AcAdVirtualBoundedLineDatumId
  3
DesignerServices
 90
     1024
 91
        1
280
     0
281
     0
  0
CLASS
  1
ACADPARTCONICALFACERES
  2
AcAdPartConicalFaceRes
  3
AdGrefServices
 90
     1024
 91
        0
280
     0
281
     0
  0
CLASS
  1
DEPEDGESECONDARYDEPID
  2
AcAdDepEdgeSecondaryDepId
  3
DesignerServices
 90
     1024
 91
        0
280
     0
281
     0
  0
CLASS
  1
AMACTIVEPARTSELECTFILTER
  2
AcDmActivePartViewEntFilter
  3
DesignerServices
 90
     1024
 91
        0
280
     0
281
     0
  0
CLASS
  1
AM_ABS_PLANE
  2
AcDmAbsPlnDef
  3
AcMechDwgViewMgmt
 90
     1024
 91
        0
280
     0
281
     0
  0
CLASS
  1
AM_ABS_AXIS
  2
AcDmAbsAxisDef
  3
AcMechDwgViewMgmt
 90
     1024
 91
        0
280
     0
281
     0
  0
CLASS
  1
AM_BASE_VIEW_ORIENT
  2
AcDmBaseViewOr
  3
AcMechDwgViewMgmt
 90
     1024
 91
        0
280
     0
281
     0
  0
CLASS
  1
AM_DWG_VIEWPORT
  2
AcDmViewport
  3
AcMechDwgViewMgmt
 90
     1024
 91
        0
280
     0
281
     0
  0
CLASS
  1
AM_VIEW_DISPLAY
  2
AcDmDwgViewDisplay
  3
AcMechDwgViewMgmt
 90
     1024
 91
        0
280
     0
281
     0
  0
CLASS
  1
AM_CLDFLTS
  2
AcDmClDflts
  3
AcMechDwgViewMgmt
 90
     1024
 91
        9
280
     0
281
     0
  0
CLASS
  1
AM_BASE_VIEW
  2
AcDmBaseView
  3
AcMechDwgViewMgmt
 90
     1024
 91
        0
280
     0
281
     0
  0
CLASS
  1
AM_ORTHO_VIEW_ORIENT
  2
AcDmOrthoViewOr
  3
AcMechDwgViewMgmt
 90
     1024
 91
        0
280
     0
281
     0
  0
CLASS
  1
AM_ORTHO_VIEW
  2
AcDmOrthoView
  3
AcMechDwgViewMgmt
 90
     1024
 91
        0
280
     0
281
     0
  0
CLASS
  1
AM_ISO_VIEW_ORIENT
  2
AcDmIsoViewOr
  3
AcMechDwgViewMgmt
 90
     1024
 91
        0
280
     0
281
     0
  0
CLASS
  1
AM_ISO_VIEW
  2
AcDmIsoView
  3
AcMechDwgViewMgmt
 90
     1024
 91
        0
280
     0
281
     0
  0
CLASS
  1
ACDMVWEDARC
  2
AcDmViewEdgeArc
  3
AcMechDwgViewMgmt
 90
     1024
 91
        0
280
     0
281
     1
  0
CLASS
  1
ACDMVWEDCIRC
  2
AcDmViewEdgeCircle
  3
AcMechDwgViewMgmt
 90
     1024
 91
        0
280
     0
281
     1
  0
CLASS
  1
ACDMVWEDLINE
  2
AcDmViewEdgeLine
  3
AcMechDwgViewMgmt
 90
     1024
 91
        0
280
     0
281
     1
  0
CLASS
  1
CNRREFID
  2
AcAdCornerId
  3
DesignerServices
 90
     1024
 91
        0
280
     0
281
     0
  0
CLASS
  1
ACADPARTPOINTRES
  2
AcAdPartPointRes
  3
AdGrefServices
 90
     1024
 91
        0
280
     0
281
     0
  0
CLASS
  1
ACADPARTSKETCHPLANEAXISRES
  2
AcAdPartSketchPlaneAxisRes
  3
DesignerServices
 90
     1024
 91
        0
280
     0
281
     0
  0
CLASS
  1
AM_VIEWDIMPARALLEL
  2
AcDmViewDimParallel
  3
AcMechDwgViewMgmt
 90
     1024
 91
        0
280
     0
281
     0
  0
CLASS
  1
AMDTDMPARMAPDATA
  2
AmdtDmDimParMapData
  3
AcMechDwgViewMgmt
 90
     1024
 91
        0
280
     0
281
     0
  0
CLASS
  1
AM_VIEWDIMLINEAR
  2
AcDmViewDimLinear
  3
AcMechDwgViewMgmt
 90
     1024
 91
        0
280
     0
281
     0
  0
CLASS
  1
AM_VIEWDIMANGULAR
  2
AcDmViewDimAngular
  3
AcMechDwgViewMgmt
 90
     1024
 91
        0
280
     0
281
     0
  0
CLASS
  1
AM_ADLINCTRLINE
  2
AcAdLineCl
  3
DesignerServices
 90
     1024
 91
        0
280
     0
281
     0
  0
CLASS
  1
AM_VIEWDIMDIAMETER
  2
AcDmViewDimDiameter
  3
AcMechDwgViewMgmt
 90
     1024
 91
        0
280
     0
281
     0
  0
CLASS
  1
AM_ADCIRCTRLINE
  2
AcAdBullsEyeCl
  3
DesignerServices
 90
     1024
 91
        0
280
     0
281
     0
  0
CLASS
  1
AMDTMAPISURFMOUDULE
  2
AmdtMApiSurfModule
  3
MApiSurfServices
 90
     1024
 91
        1
280
     0
281
     0
  0
CLASS
  1
ACAMGTITLESTD
  2
AcAmgTitleStd
  3
"AmgTitle|Product Description: AutoCAD Mechanical|Company: Autodesk, Inc."
 90
     4095
 91
        5
280
     0
281
     0
  0
CLASS
  1
ACMDETAILSTANDARDJIS
  2
AmdtDetailSymStdJIS
  3
"Amdt_StdImp|Product Description: AutoCAD Mechanical|Company: Autodesk, Inc."
 90
     1024
 91
        1
280
     0
281
     0
  0
CLASS
  1
ACMSECTIONSTANDARDJIS
  2
AmdtSectionSymStdJIS
  3
"Amdt_StdImp|Product Description: AutoCAD Mechanical|Company: Autodesk, Inc."
 90
     1024
 91
        1
280
     0
281
     0
  0
CLASS
  1
ACMCENTERLINESTANDARDJIS
  2
AmdtCenterLineStdJIS
  3
"Amdt_StdImp|Product Description: AutoCAD Mechanical|Company: Autodesk, Inc."
 90
     1024
 91
        1
280
     0
281
     0
  0
CLASS
  1
ACMTHREADLINESTANDARDCSN
  2
AmdtThreadLineStdCSN
  3
"Amdt_StdImp|Product Description: AutoCAD Mechanical|Company: Autodesk, Inc."
 90
     1024
 91
        5
280
     0
281
     0
  0
CLASS
  1
ACMDETAILSTANDARDANSI
  2
AmdtDetailSymStdANSI
  3
"Amdt_StdImp|Product Description: AutoCAD Mechanical|Company: Autodesk, Inc."
 90
     1024
 91
        1
280
     0
281
     0
  0
CLASS
  1
ACMSECTIONSTANDARDANSI
  2
AmdtSectionSymStdANSI
  3
"Amdt_StdImp|Product Description: AutoCAD Mechanical|Company: Autodesk, Inc."
 90
     1024
 91
        1
280
     0
281
     0
  0
CLASS
  1
ACMCENTERLINESTANDARDANSI
  2
AmdtCenterLineStdANSI
  3
"Amdt_StdImp|Product Description: AutoCAD Mechanical|Company: Autodesk, Inc."
 90
     1024
 91
        1
280
     0
281
     0
  0
CLASS
  1
ACMDETAILSTANDARDBSI
  2
AmdtDetailSymStdBSI
  3
"Amdt_StdImp|Product Description: AutoCAD Mechanical|Company: Autodesk, Inc."
 90
     1024
 91
        1
280
     0
281
     0
  0
CLASS
  1
ACMSECTIONSTANDARDBSI
  2
AmdtSectionSymStdBSI
  3
"Amdt_StdImp|Product Description: AutoCAD Mechanical|Company: Autodesk, Inc."
 90
     1024
 91
        1
280
     0
281
     0
  0
CLASS
  1
ACMCENTERLINESTANDARDBSI
  2
AmdtCenterLineStdBSI
  3
"Amdt_StdImp|Product Description: AutoCAD Mechanical|Company: Autodesk, Inc."
 90
     1024
 91
        1
280
     0
281
     0
  0
CLASS
  1
ACMDETAILSTANDARDDIN
  2
AmdtDetailSymStdDIN
  3
"Amdt_StdImp|Product Description: AutoCAD Mechanical|Company: Autodesk, Inc."
 90
     1024
 91
        1
280
     0
281
     0
  0
CLASS
  1
ACMSECTIONSTANDARDDIN
  2
AmdtSectionSymStdDIN
  3
"Amdt_StdImp|Product Description: AutoCAD Mechanical|Company: Autodesk, Inc."
 90
     1024
 91
        1
280
     0
281
     0
  0
CLASS
  1
ACMCENTERLINESTANDARDDIN
  2
AmdtCenterLineStdDIN
  3
"Amdt_StdImp|Product Description: AutoCAD Mechanical|Company: Autodesk, Inc."
 90
     1024
 91
        1
280
     0
281
     0
  0
CLASS
  1
AMDTEDGESTANDARDISO
  2
AmdtEdgeStdISO
  3
"Amdt_StdImp|Product Description: AutoCAD Mechanical|Company: Autodesk, Inc."
 90
     1024
 91
        1
280
     0
281
     0
  0
CLASS
  1
ACMDETAILSTANDARDISO
  2
AmdtDetailSymStdISO
  3
"Amdt_StdImp|Product Description: AutoCAD Mechanical|Company: Autodesk, Inc."
 90
     1024
 91
        1
280
     0
281
     0
  0
CLASS
  1
ACMSECTIONSTANDARDISO
  2
AmdtSectionSymStdISO
  3
"Amdt_StdImp|Product Description: AutoCAD Mechanical|Company: Autodesk, Inc."
 90
     1024
 91
        1
280
     0
281
     0
  0
CLASS
  1
ACMCENTERLINESTANDARDISO
  2
AmdtCenterLineStdISO
  3
"Amdt_StdImp|Product Description: AutoCAD Mechanical|Company: Autodesk, Inc."
 90
     1024
 91
        1
280
     0
281
     0
  0
CLASS
  1
ACAMGLAYSTD
  2
AcAmgLayStd
  3
"AmgLay|Product Description: AutoCAD Mechanical|Company: Autodesk, Inc."
 90
     1024
 91
        5
280
     0
281
     0
  0
CLASS
  1
ACAMGDIMSTD
  2
AcAmgDimStd
  3
"AmgDim|Product Description: AutoCAD Mechanical|Company: Autodesk, Inc."
 90
     1024
 91
        5
280
     0
281
     0
  0
CLASS
  1
ACDMPARTVIEWDATA
  2
AcDmPartViewData
  3
AcMechDwgViewMgmt
 90
     1024
 91
        0
280
     0
281
     0
  0
CLASS
  1
ACDMDISPLAYATTRIBS
  2
AcDmDisplayAttribs
  3
AcMechDwgViewMgmt
 90
     1024
 91
        0
280
     0
281
     0
  0
CLASS
  1
ACDMBODYINSTANCEDATA
  2
AcDmBodyInstanceData
  3
AcMechDwgViewMgmt
 90
     1024
 91
        0
280
     0
281
     0
  0
CLASS
  1
AMDTFORMULAUPDATEDISPATCHER
  2
AmdtFormulaUpdateDispatcher
  3
AcMeServices
 90
     1024
 91
        1
280
     0
281
     0
  0
CLASS
  1
ACAMCONTEXTPARTMODELER
  2
AcAmContextPartModeler
  3
DesignerAssemblies
 90
     1024
 91
        1
280
     0
281
     0
  0
CLASS
  1
MATERIAL
  2
AcDbMaterial
  3
ObjectDBX Classes
 90
     1153
 91
        3
280
     0
281
     0
  0
CLASS
  1
VISUALSTYLE
  2
AcDbVisualStyle
  3
ObjectDBX Classes
 90
     4095
 91
       16
280
     0
281
     0
  0
CLASS
  1
TABLESTYLE
  2
AcDbTableStyle
  3
ObjectDBX Classes
 90
     4095
 91
        1
280
     0
281
     0
  0
CLASS
  1
ACMNOTESTANDARDJIS
  2
AmdtNoteStdJIS
  3
"Amdt_StdImp|Product Description: AutoCAD Mechanical|Company: Autodesk, Inc."
 90
     1024
 91
        1
280
     0
281
     0
  0
CLASS
  1
AMDTNOTETEMPLATEDB
  2
AmdtNoteTemplateDB
  3
AcmSymBB|Product Description: AutoCAD Mechanical|Company: Autodesk, Inc.
 90
     1024
 91
       30
280
     0
281
     0
  0
CLASS
  1
ACMTAPERSTANDARDJIS
  2
AcmTaperStdJIS
  3
"Amdt_StdImp|Product Description: AutoCAD Mechanical|Company: Autodesk, Inc."
 90
     1024
 91
        1
280
     0
281
     0
  0
CLASS
  1
ACMNOTESTANDARDANSI
  2
AmdtNoteStdANSI
  3
"Amdt_StdImp|Product Description: AutoCAD Mechanical|Company: Autodesk, Inc."
 90
     1024
 91
        1
280
     0
281
     0
  0
CLASS
  1
ACMTAPERSTANDARDANSI
  2
AcmTaperStdANSI
  3
"Amdt_StdImp|Product Description: AutoCAD Mechanical|Company: Autodesk, Inc."
 90
     1024
 91
        1
280
     0
281
     0
  0
CLASS
  1
ACMNOTESTANDARDBSI
  2
AmdtNoteStdBSI
  3
"Amdt_StdImp|Product Description: AutoCAD Mechanical|Company: Autodesk, Inc."
 90
     1024
 91
        1
280
     0
281
     0
  0
CLASS
  1
ACMTAPERSTANDARDBSI
  2
AcmTaperStdBSI
  3
"Amdt_StdImp|Product Description: AutoCAD Mechanical|Company: Autodesk, Inc."
 90
     1024
 91
        1
280
     0
281
     0
  0
CLASS
  1
ACMNOTESTANDARDDIN
  2
AmdtNoteStdDIN
  3
"Amdt_StdImp|Product Description: AutoCAD Mechanical|Company: Autodesk, Inc."
 90
     1024
 91
        1
280
     0
281
     0
  0
CLASS
  1
ACMTAPERSTANDARDDIN
  2
AcmTaperStdDIN
  3
"Amdt_StdImp|Product Description: AutoCAD Mechanical|Company: Autodesk, Inc."
 90
     1024
 91
        1
280
     0
281
     0
  0
CLASS
  1
ACMNOTESTANDARDISO
  2
AmdtNoteStdISO
  3
"Amdt_StdImp|Product Description: AutoCAD Mechanical|Company: Autodesk, Inc."
 90
     1024
 91
        1
280
     0
281
     0
  0
CLASS
  1
ACMTAPERSTANDARDISO
  2
AcmTaperStdISO
  3
"Amdt_StdImp|Product Description: AutoCAD Mechanical|Company: Autodesk, Inc."
 90
     1024
 91
        1
280
     0
281
     0
  0
CLASS
  1
SCALE
  2
AcDbScale
  3
ObjectDBX Classes
 90
     1153
 91
       17
280
     0
281
     0
  0
CLASS
  1
MLEADERSTYLE
  2
AcDbMLeaderStyle
  3
ACDB_MLEADERSTYLE_CLASS
 90
     4095
 91
        1
280
     0
281
     0
  0
CLASS
  1
ACMANOOTATIONVIEWSTANDARDJIS
  2
AmdtAnViewStdJIS
  3
"Amdt_StdImp|Product Description: AutoCAD Mechanical|Company: Autodesk, Inc."
 90
     1024
 91
        1
280
     0
281
     0
  0
CLASS
  1
AMDTEDGESTANDARDJIS
  2
AmdtEdgeStdJIS
  3
"Amdt_StdImp|Product Description: AutoCAD Mechanical|Company: Autodesk, Inc."
 90
     1024
 91
        1
280
     0
281
     0
  0
CLASS
  1
ACMANOOTATIONVIEWSTANDARDANSI
  2
AmdtAnViewStdANSI
  3
"Amdt_StdImp|Product Description: AutoCAD Mechanical|Company: Autodesk, Inc."
 90
     1024
 91
        1
280
     0
281
     0
  0
CLASS
  1
ACMANOOTATIONVIEWSTANDARDBSI
  2
AmdtAnViewStdBSI
  3
"Amdt_StdImp|Product Description: AutoCAD Mechanical|Company: Autodesk, Inc."
 90
     1024
 91
        1
280
     0
281
     0
  0
CLASS
  1
ACMANOOTATIONVIEWSTANDARDDIN
  2
AmdtAnViewStdDIN
  3
"Amdt_StdImp|Product Description: AutoCAD Mechanical|Company: Autodesk, Inc."
 90
     1024
 91
        1
280
     0
281
     0
  0
CLASS
  1
ACMANOOTATIONVIEWSTANDARDISO
  2
AmdtAnViewStdISO
  3
"Amdt_StdImp|Product Description: AutoCAD Mechanical|Company: Autodesk, Inc."
 90
     1024
 91
        1
280
     0
281
     0
  0
CLASS
  1
CELLSTYLEMAP
  2
AcDbCellStyleMap
  3
ObjectDBX Classes
 90
     1152
 91
        1
280
     0
281
     0
  0
ENDSEC
  0
SECTION
  2
TABLES
  0
TABLE
  2
VPORT
  5
8
330
0
100
AcDbSymbolTable
 70
     3
  0
VPORT
  5
79C
330
8
100
AcDbSymbolTableRecord
100
AcDbViewportTableRecord
  2
asurf_wcs_vp_2
 70
     0
 10
0.0
 20
0.0
 11
0.5
 21
1.0
 12
0.0
 22
0.0
 13
0.0
 23
0.0
 14
10.0
 24
10.0
 15
10.0
 25
10.0
 16
0.0
 26
0.0
 36
1.0
 17
210.0
 27
148.5
 37
0.0
 40
664.2413317557894
 41
0.6397245798091085
 42
50.0
 43
0.0
 44
0.0
 50
0.0
 51
0.0
 71
     0
 72
  1000
 73
     1
 74
     0
 75
     0
 76
     0
 77
     0
 78
     0
281
     4
 65
     0
110
0.0
120
0.0
130
0.0
111
1.0
121
0.0
131
0.0
112
0.0
122
1.0
132
0.0
 79
     0
146
0.0
348
20E6
 60
     3
 61
     5
292
     1
282
     1
141
0.0
142
0.0
 63
   250
421
  3355443
  0
VPORT
  5
79D
330
8
100
AcDbSymbolTableRecord
100
AcDbViewportTableRecord
  2
asurf_wcs_vp_2
 70
     0
 10
0.5
 20
0.0
 11
1.0
 21
1.0
 12
-166.0188166206583
 22
35.22481755965711
 13
0.0
 23
0.0
 14
10.0
 24
10.0
 15
10.0
 25
10.0
 16
1.0
 26
-1.0
 36
1.0
 17
210.0
 27
148.5
 37
0.0
 40
482.8380307317477
 41
0.6397245798091085
 42
50.0
 43
0.0
 44
0.0
 50
0.0
 51
0.0
 71
     0
 72
  1000
 73
     1
 74
     0
 75
     0
 76
     0
 77
     0
 78
     0
281
     4
 65
     0
110
0.0
120
0.0
130
0.0
111
1.0
121
0.0
131
0.0
112
0.0
122
1.0
132
0.0
 79
     0
146
0.0
348
20E6
 60
     3
 61
     5
292
     1
282
     1
141
0.0
142
0.0
 63
   250
421
  3355443
  0
VPORT
  5
20DD
330
8
100
AcDbSymbolTableRecord
100
AcDbViewportTableRecord
  2
*Active
 70
     0
 10
0.0
 20
0.0
 11
1.0
 21
1.0
 12
29.90891529753901
 22
23.68663107701788
 13
0.0
 23
0.0
 14
10.0
 24
10.0
 15
10.0
 25
10.0
 16
0.0
 26
0.0
 36
1.0
 17
225.0419189867749
 27
164.8409058003548
 37
0.0
 40
221.5183800637697
 41
1.754082612872238
 42
50.0
 43
0.0
 44
0.0
 50
0.0
 51
0.0
 71
     0
 72
  1000
 73
     1
 74
     1
 75
     0
 76
     0
 77
     0
 78
     0
281
     0
 65
     0
110
0.0
120
0.0
130
0.0
111
1.0
121
0.0
131
0.0
112
0.0
122
1.0
132
0.0
 79
     0
146
0.0
348
20E9
 60
     3
 61
     5
292
     1
282
     1
141
0.0
142
0.0
 63
   250
421
  3355443
  0
ENDTAB
  0
TABLE
  2
LTYPE
  5
5
330
0
100
AcDbSymbolTable
 70
    34
  0
LTYPE
  5
14
330
5
100
AcDbSymbolTableRecord
100
AcDbLinetypeTableRecord
  2
BYBLOCK
 70
     0
  3

 72
    65
 73
     0
 40
0.0
  0
LTYPE
  5
15
330
5
100
AcDbSymbolTableRecord
100
AcDbLinetypeTableRecord
  2
BYLAYER
 70
     0
  3

 72
    65
 73
     0
 40
0.0
  0
LTYPE
  5
16
330
5
100
AcDbSymbolTableRecord
100
AcDbLinetypeTableRecord
  2
CONTINUOUS
 70
     0
  3
Solid line
 72
    65
 73
     0
 40
0.0
  0
LTYPE
  5
BD
330
5
100
AcDbSymbolTableRecord
100
AcDbLinetypeTableRecord
  2
HIDDEN
 70
     0
  3
__ __ __ __ __ __ __ __ __ __ __ __ __ __ __ __
 72
    65
 73
     2
 40
0.375
 49
0.25
 74
     0
 49
-0.125
 74
     0
  0
LTYPE
  5
BF
330
5
100
AcDbSymbolTableRecord
100
AcDbLinetypeTableRecord
  2
PHANTOM2
 70
     0
  3
___ _ _ ___ _ _ ___ _ _ ___ _ _ ___ _ _ ___ _ _
 72
    65
 73
     6
 40
1.25
 49
0.625
 74
     0
 49
-0.125
 74
     0
 49
0.125
 74
     0
 49
-0.125
 74
     0
 49
0.125
 74
     0
 49
-0.125
 74
     0
  0
LTYPE
  5
CA
330
5
100
AcDbSymbolTableRecord
100
AcDbLinetypeTableRecord
  2
CENTER
 70
     0
  3
____ _ ____ _ ____ _ ____ _ ____ _ ____ _ ____ 
 72
    65
 73
     4
 40
2.0
 49
1.25
 74
     0
 49
-0.25
 74
     0
 49
0.25
 74
     0
 49
-0.25
 74
     0
  0
LTYPE
  5
120
330
5
100
AcDbSymbolTableRecord
100
AcDbLinetypeTableRecord
  2
ASULTYPE
 70
     0
  3
Solid line
 72
    65
 73
     2
 40
3.0
 49
2.5
 74
     0
 49
0.5
 74
     0
  0
LTYPE
  5
121
330
5
100
AcDbSymbolTableRecord
100
AcDbLinetypeTableRecord
  2
ASVLTYPE
 70
     0
  3
__ __ __ __ __ __ __ __ __ __ __ __ __ __ __ __ __ __ __ __ __
 72
    65
 73
     2
 40
0.75
 49
0.5
 74
     0
 49
-0.25
 74
     0
  0
LTYPE
  5
149
330
5
100
AcDbSymbolTableRecord
100
AcDbLinetypeTableRecord
  2
ACJISTGB
 70
     0
  3
__ . . __ . .
 72
    65
 73
     6
 40
9.0
 49
4.0
 74
     0
 49
-1.0
 74
     0
 49
1.0
 74
     0
 49
-1.0
 74
     0
 49
1.0
 74
     0
 49
-1.0
 74
     0
  0
LTYPE
  5
14A
330
5
100
AcDbSymbolTableRecord
100
AcDbLinetypeTableRecord
  2
ACJISTGL
 70
     0
  3
_ _ _ _ _
 72
    65
 73
     2
 40
3.0
 49
2.0
 74
     0
 49
-1.0
 74
     0
  0
LTYPE
  5
14D
330
5
100
AcDbSymbolTableRecord
100
AcDbLinetypeTableRecord
  2
ACANSTGB
 70
     0
  3
__ . . __ . .
 72
    65
 73
     6
 40
0.35433070866
 49
0.15748031496
 74
     0
 49
-0.03937007874
 74
     0
 49
0.03937007874
 74
     0
 49
-0.03937007874
 74
     0
 49
0.03937007874
 74
     0
 49
-0.03937007874
 74
     0
  0
LTYPE
  5
14E
330
5
100
AcDbSymbolTableRecord
100
AcDbLinetypeTableRecord
  2
ACANSTGL
 70
     0
  3
_ _ _ _ _
 72
    65
 73
     2
 40
0.11811023622
 49
0.07874015748
 74
     0
 49
-0.03937007874
 74
     0
  0
LTYPE
  5
151
330
5
100
AcDbSymbolTableRecord
100
AcDbLinetypeTableRecord
  2
ACBSWELD
 70
     0
  3
_ _ _ _ _
 72
    65
 73
     2
 40
2.0
 49
2.0
 74
     0
 49
-1.0
 74
     0
  0
LTYPE
  5
152
330
5
100
AcDbSymbolTableRecord
100
AcDbLinetypeTableRecord
  2
ACBSITGB
 70
     0
  3
__ . . __ . .
 72
    65
 73
     6
 40
9.0
 49
4.0
 74
     0
 49
-1.0
 74
     0
 49
1.0
 74
     0
 49
-1.0
 74
     0
 49
1.0
 74
     0
 49
-1.0
 74
     0
  0
LTYPE
  5
153
330
5
100
AcDbSymbolTableRecord
100
AcDbLinetypeTableRecord
  2
ACBSITGL
 70
     0
  3
_ _ _ _ _
 72
    65
 73
     2
 40
3.0
 49
2.0
 74
     0
 49
-1.0
 74
     0
  0
LTYPE
  5
156
330
5
100
AcDbSymbolTableRecord
100
AcDbLinetypeTableRecord
  2
ACDINWELD
 70
     0
  3
_ _ _ _ _
 72
    65
 73
     2
 40
2.0
 49
2.0
 74
     0
 49
-1.0
 74
     0
  0
LTYPE
  5
157
330
5
100
AcDbSymbolTableRecord
100
AcDbLinetypeTableRecord
  2
ACDINTGB
 70
     0
  3
__ . . __ . .
 72
    65
 73
     6
 40
9.0
 49
4.0
 74
     0
 49
-1.0
 74
     0
 49
1.0
 74
     0
 49
-1.0
 74
     0
 49
1.0
 74
     0
 49
-1.0
 74
     0
  0
LTYPE
  5
158
330
5
100
AcDbSymbolTableRecord
100
AcDbLinetypeTableRecord
  2
ACDINTGL
 70
     0
  3
_ _ _ _ _
 72
    65
 73
     2
 40
3.0
 49
2.0
 74
     0
 49
-1.0
 74
     0
  0
LTYPE
  5
15B
330
5
100
AcDbSymbolTableRecord
100
AcDbLinetypeTableRecord
  2
ACISOWELD
 70
     0
  3
_ _ _ _ _
 72
    65
 73
     2
 40
2.0
 49
2.0
 74
     0
 49
-1.0
 74
     0
  0
LTYPE
  5
15C
330
5
100
AcDbSymbolTableRecord
100
AcDbLinetypeTableRecord
  2
ACISOTGB
 70
     0
  3
__ . . __ . .
 72
    65
 73
     6
 40
9.0
 49
4.0
 74
     0
 49
-1.0
 74
     0
 49
1.0
 74
     0
 49
-1.0
 74
     0
 49
1.0
 74
     0
 49
-1.0
 74
     0
  0
LTYPE
  5
15D
330
5
100
AcDbSymbolTableRecord
100
AcDbLinetypeTableRecord
  2
ACISOTGL
 70
     0
  3
_ _ _ _ _
 72
    65
 73
     2
 40
3.0
 49
2.0
 74
     0
 49
-1.0
 74
     0
  0
LTYPE
  5
175
330
5
100
AcDbSymbolTableRecord
100
AcDbLinetypeTableRecord
  2
AM_ISO02W050
 70
     0
  3
__ __ __ __ __ __ __ __ __ __ __ __ __ __ __
 72
    65
 73
     2
 40
7.5
 49
6.0
 74
     0
 49
-1.5
 74
     0
  0
LTYPE
  5
176
330
5
100
AcDbSymbolTableRecord
100
AcDbLinetypeTableRecord
  2
AM_ISO08W050
 70
     0
  3
____ . ____ . ____ . ____ . ____ . ____ . ____
 72
    65
 73
     4
 40
18.0
 49
12.0
 74
     0
 49
-1.5
 74
     0
 49
3.0
 74
     0
 49
-1.5
 74
     0
  0
LTYPE
  5
177
330
5
100
AcDbSymbolTableRecord
100
AcDbLinetypeTableRecord
  2
AM_ISO09W050
 70
     0
  3
_____ . . _____ . . _____ . . ____ .. ____
 72
    65
 73
     6
 40
22.5
 49
12.0
 74
     0
 49
-1.5
 74
     0
 49
3.0
 74
     0
 49
-1.5
 74
     0
 49
3.0
 74
     0
 49
-1.5
 74
     0
  0
LTYPE
  5
178
330
5
100
AcDbSymbolTableRecord
100
AcDbLinetypeTableRecord
  2
AM_ISO02W050x2
 70
     0
  3
 _ _ _ _ _ _ _ _ _ _ _ _
 72
    65
 73
     2
 40
3.75
 49
3.0
 74
     0
 49
-0.75
 74
     0
  0
LTYPE
  5
179
330
5
100
AcDbSymbolTableRecord
100
AcDbLinetypeTableRecord
  2
AM_ISO08W050x2
 70
     0
  3
__ . __ . __ . __ . __ . __
 72
    65
 73
     4
 40
9.0
 49
6.0
 74
     0
 49
-0.75
 74
     0
 49
1.5
 74
     0
 49
-0.75
 74
     0
  0
LTYPE
  5
17C
330
5
100
AcDbSymbolTableRecord
100
AcDbLinetypeTableRecord
  2
amzigzag
 70
     0
  3
/\/-/\/-/\/-/\/-/\/-/\/
 72
    65
 73
     2
 40
11.0001
 49
0.0001
 74
     4
 75
   135
340
17B
 46
0.04
 50
0.0
 44
0.0
 45
0.0
 49
-11.0
 74
     0
  0
LTYPE
  5
1814
330
5
100
AcDbSymbolTableRecord
100
AcDbLinetypeTableRecord
  2
ACANSTGBM
 70
     0
  3
__ . . __ . .
 72
    65
 73
     6
 40
9.0
 49
4.0
 74
     0
 49
-1.0
 74
     0
 49
1.0
 74
     0
 49
-1.0
 74
     0
 49
1.0
 74
     0
 49
-1.0
 74
     0
  0
LTYPE
  5
1815
330
5
100
AcDbSymbolTableRecord
100
AcDbLinetypeTableRecord
  2
ACANSTGLM
 70
     0
  3
_ _ _ _ _
 72
    65
 73
     2
 40
3.0
 49
2.0
 74
     0
 49
-1.0
 74
     0
  0
LTYPE
  5
1A96
330
5
100
AcDbSymbolTableRecord
100
AcDbLinetypeTableRecord
  2
GEN7
 70
     0
  3
____ . ____ . ____ . ____ . ___
 72
    65
 73
     4
 40
13.75
 49
9.75
 74
     0
 49
-1.5
 74
     0
 49
1.0
 74
     0
 49
-1.5
 74
     0
  0
LTYPE
  5
1A97
330
5
100
AcDbSymbolTableRecord
100
AcDbLinetypeTableRecord
  2
GEN3
 70
     0
  3
-- -- -- -- -- -- -- -- -- -- -
 72
    65
 73
     2
 40
6.25
 49
4.75
 74
     0
 49
-1.5
 74
     0
  0
LTYPE
  5
1A98
330
5
100
AcDbSymbolTableRecord
100
AcDbLinetypeTableRecord
  2
GEN3A
 70
     0
  3
 - - - - -
 72
    65
 73
     2
 40
3.125
 49
2.25
 74
     0
 49
-0.875
 74
     0
  0
LTYPE
  5
1A99
330
5
100
AcDbSymbolTableRecord
100
AcDbLinetypeTableRecord
  2
GEN4A
 70
     0
  3
_____ . . _____ . . _____ . . _
 72
    65
 73
     6
 40
16.25
 49
9.75
 74
     0
 49
-1.5
 74
     0
 49
1.0
 74
     0
 49
-1.5
 74
     0
 49
1.0
 74
     0
 49
-1.5
 74
     0
  0
LTYPE
  5
1A9A
330
5
100
AcDbSymbolTableRecord
100
AcDbLinetypeTableRecord
  2
GEN7A
 70
     0
  3
__ . __ . __
 72
    65
 73
     4
 40
6.875
 49
4.75
 74
     0
 49
-0.875
 74
     0
 49
0.375
 74
     0
 49
-0.875
 74
     0
  0
LTYPE
  5
1A9B
330
5
100
AcDbSymbolTableRecord
100
AcDbLinetypeTableRecord
  2
CONTINU
 70
     0
  3

 72
    65
 73
     0
 40
0.0
  0
LTYPE
  5
1A9C
330
5
100
AcDbSymbolTableRecord
100
AcDbLinetypeTableRecord
  2
genzigzag
 70
     0
  3
/\/-/\/-/\/-/\/-/\/-/\/
 72
    65
 73
     2
 40
12.0001
 49
0.0001
 74
     4
 75
   135
340
1AA5
 46
2.0
 50
0.0
 44
0.0
 45
0.0
 49
-12.0
 74
     0
  0
ENDTAB
  0
TABLE
  2
LAYER
  5
2
330
0
100
AcDbSymbolTable
 70
    28
  0
LAYER
  5
F
102
{ACAD_XDICTIONARY
360
21C3
102
}
330
2
100
AcDbSymbolTableRecord
100
AcDbLayerTableRecord
  2
0
 70
     0
 62
     7
  6
CONTINUOUS
370
    -3
390
166
347
20E2
  0
LAYER
  5
35A
102
{ACAD_XDICTIONARY
360
21C5
102
}
330
2
100
AcDbSymbolTableRecord
100
AcDbLayerTableRecord
  2
AM_0
 70
     0
 62
     7
  6
CONTINUOUS
370
    50
390
166
347
20E2
  0
LAYER
  5
35B
102
{ACAD_XDICTIONARY
360
21C7
102
}
330
2
100
AcDbSymbolTableRecord
100
AcDbLayerTableRecord
  2
AM_1
 70
     0
 62
     4
  6
CONTINUOUS
370
    25
390
166
347
20E2
  0
LAYER
  5
35C
102
{ACAD_XDICTIONARY
360
21C9
102
}
330
2
100
AcDbSymbolTableRecord
100
AcDbLayerTableRecord
  2
AM_2
 70
     0
 62
     5
  6
CONTINUOUS
370
    50
390
166
347
20E2
  0
LAYER
  5
35D
102
{ACAD_XDICTIONARY
360
21CB
102
}
330
2
100
AcDbSymbolTableRecord
100
AcDbLayerTableRecord
  2
AM_3
 70
     0
 62
     6
  6
AM_ISO02W050
370
    25
390
166
347
20E2
  0
LAYER
  5
35E
102
{ACAD_XDICTIONARY
360
21CD
102
}
330
2
100
AcDbSymbolTableRecord
100
AcDbLayerTableRecord
  2
AM_4
 70
     0
 62
     3
  6
CONTINUOUS
370
    25
390
166
347
20E2
  0
LAYER
  5
35F
102
{ACAD_XDICTIONARY
360
21CF
102
}
330
2
100
AcDbSymbolTableRecord
100
AcDbLayerTableRecord
  2
AM_5
 70
     0
 62
     3
  6
CONTINUOUS
370
    25
390
166
347
20E2
  0
LAYER
  5
360
102
{ACAD_XDICTIONARY
360
21D1
102
}
330
2
100
AcDbSymbolTableRecord
100
AcDbLayerTableRecord
  2
AM_6
 70
     0
 62
     2
  6
CONTINUOUS
370
    35
390
166
347
20E2
  0
LAYER
  5
361
102
{ACAD_XDICTIONARY
360
21D3
102
}
330
2
100
AcDbSymbolTableRecord
100
AcDbLayerTableRecord
  2
AM_7
 70
     0
 62
     1
  6
AM_ISO08W050
370
    25
390
166
347
20E2
  0
LAYER
  5
362
102
{ACAD_XDICTIONARY
360
21D5
102
}
330
2
100
AcDbSymbolTableRecord
100
AcDbLayerTableRecord
  2
AM_8
 70
     0
 62
     1
  6
CONTINUOUS
370
    25
390
166
347
20E2
  0
LAYER
  5
38E
102
{ACAD_XDICTIONARY
360
21D7
102
}
330
2
100
AcDbSymbolTableRecord
100
AcDbLayerTableRecord
  2
AM_FR
 70
     5
 62
     7
  6
CONTINUOUS
370
    -3
390
166
347
20E2
  0
LAYER
  5
3F7
102
{ACAD_XDICTIONARY
360
21D9
102
}
330
2
100
AcDbSymbolTableRecord
100
AcDbLayerTableRecord
  2
ASHADE
 70
     4
 62
     7
  6
CONTINUOUS
370
    -3
390
166
347
20E2
  0
LAYER
  5
5FC
102
{ACAD_XDICTIONARY
360
21DB
102
}
330
2
100
AcDbSymbolTableRecord
100
AcDbLayerTableRecord
  2
AM_WORK
 70
     0
 62
     7
  6
CONTINUOUS
370
    -3
390
166
347
20E2
  0
LAYER
  5
614
102
{ACAD_XDICTIONARY
360
21DD
102
}
330
2
100
AcDbSymbolTableRecord
100
AcDbLayerTableRecord
  2
AM_CL
 70
     0
 62
     1
  6
CONTINUOUS
370
    25
390
166
347
20E2
  0
LAYER
  5
643
330
2
100
AcDbSymbolTableRecord
100
AcDbLayerTableRecord
  2
Defpoints
 70
     0
 62
     7
  6
CONTINUOUS
290
     0
370
    -3
390
166
347
20E2
  0
LAYER
  5
79B
102
{ACAD_XDICTIONARY
360
21DF
102
}
330
2
100
AcDbSymbolTableRecord
100
AcDbLayerTableRecord
  2
ASRF_TMP
 70
     0
 62
     7
  6
CONTINUOUS
370
    -3
390
166
347
20E2
  0
LAYER
  5
1054
102
{ACAD_XDICTIONARY
360
21E1
102
}
330
2
100
AcDbSymbolTableRecord
100
AcDbLayerTableRecord
  2
AM_VIEWS
 70
     1
 62
    -1
  6
CONTINUOUS
290
     0
370
    25
390
166
347
20E2
  0
LAYER
  5
106E
102
{ACAD_XDICTIONARY
360
21E3
102
}
330
2
100
AcDbSymbolTableRecord
100
AcDbLayerTableRecord
  2
AM_VIS
 70
     2
 62
     7
  6
CONTINUOUS
370
    50
390
166
347
20E2
  0
LAYER
  5
106F
102
{ACAD_XDICTIONARY
360
21E5
102
}
330
2
100
AcDbSymbolTableRecord
100
AcDbLayerTableRecord
  2
AM_HID
 70
     2
 62
     6
  6
AM_ISO02W050
370
    25
390
166
347
20E2
  0
LAYER
  5
108B
102
{ACAD_XDICTIONARY
360
21E7
102
}
330
2
100
AcDbSymbolTableRecord
100
AcDbLayerTableRecord
  2
AM_PARDIM
 70
     0
 62
     3
  6
CONTINUOUS
370
    25
390
166
347
20E2
  0
LAYER
  5
1969
102
{ACAD_XDICTIONARY
360
21E9
102
}
330
2
100
AcDbSymbolTableRecord
100
AcDbLayerTableRecord
  2
AmdtBRLock
 70
     6
 62
     7
  6
CONTINUOUS
370
    -3
390
166
347
20E2
  0
LAYER
  5
1A9D
102
{ACAD_XDICTIONARY
360
21EB
102
}
330
2
100
AcDbSymbolTableRecord
100
AcDbLayerTableRecord
  2
5
 70
     0
 62
     3
  6
CONTINUOUS
370
    -3
390
166
347
20E2
  0
LAYER
  5
1A9E
102
{ACAD_XDICTIONARY
360
21ED
102
}
330
2
100
AcDbSymbolTableRecord
100
AcDbLayerTableRecord
  2
1
 70
     0
 62
     4
  6
CONTINUOUS
370
    -3
390
166
347
20E2
  0
LAYER
  5
1A9F
102
{ACAD_XDICTIONARY
360
21EF
102
}
330
2
100
AcDbSymbolTableRecord
100
AcDbLayerTableRecord
  2
2
 70
     0
 62
     5
  6
CONTINUOUS
370
    -3
390
166
347
20E2
  0
LAYER
  5
1AA0
102
{ACAD_XDICTIONARY
360
21F1
102
}
330
2
100
AcDbSymbolTableRecord
100
AcDbLayerTableRecord
  2
3A
 70
     0
 62
     6
  6
GEN3A
370
    -3
390
166
347
20E2
  0
LAYER
  5
1AA1
102
{ACAD_XDICTIONARY
360
21F3
102
}
330
2
100
AcDbSymbolTableRecord
100
AcDbLayerTableRecord
  2
6
 70
     0
 62
     2
  6
CONTINUOUS
370
    -3
390
166
347
20E2
  0
LAYER
  5
1AA2
102
{ACAD_XDICTIONARY
360
21F5
102
}
330
2
100
AcDbSymbolTableRecord
100
AcDbLayerTableRecord
  2
7
 70
     0
 62
     1
  6
GEN7
370
    -3
390
166
347
20E2
  0
LAYER
  5
1AA3
102
{ACAD_XDICTIONARY
360
21F7
102
}
330
2
100
AcDbSymbolTableRecord
100
AcDbLayerTableRecord
  2
TEXT
 70
     0
 62
     7
  6
CONTINUOUS
370
    -3
390
166
347
20E2
  0
ENDTAB
  0
TABLE
  2
STYLE
  5
3
330
0
100
AcDbSymbolTable
 70
    15
  0
STYLE
  5
10
330
3
100
AcDbSymbolTableRecord
100
AcDbTextStyleTableRecord
  2
STANDARD
 70
     0
 40
0.0
 41
1.0
 50
0.0
 71
     0
 42
3.5
  3
ISOCP
  4

  0
STYLE
  5
147
330
3
100
AcDbSymbolTableRecord
100
AcDbTextStyleTableRecord
  2
ACJISTS
 70
     0
 40
1.0
 41
1.0
 50
0.0
 71
     0
 42
3.5
  3
isocp.shx
  4
bigfont.shx
  0
STYLE
  5
148
330
3
100
AcDbSymbolTableRecord
100
AcDbTextStyleTableRecord
  2
ACJISGDT
 70
     0
 40
0.0
 41
1.0
 50
0.0
 71
     0
 42
3.5
  3
amgdt.shx
  4

  0
STYLE
  5
14B
330
3
100
AcDbSymbolTableRecord
100
AcDbTextStyleTableRecord
  2
ACANSTSI
 70
     0
 40
1.0
 41
1.0
 50
0.0
 71
     0
 42
3.5
  3
romans.shx
  4

  0
STYLE
  5
14C
330
3
100
AcDbSymbolTableRecord
100
AcDbTextStyleTableRecord
  2
ACANSGDT
 70
     0
 40
0.0
 41
1.0
 50
0.0
 71
     0
 42
3.5
  3
amgdt.shx
  4

  0
STYLE
  5
14F
330
3
100
AcDbSymbolTableRecord
100
AcDbTextStyleTableRecord
  2
ACBSITS
 70
     0
 40
1.0
 41
1.0
 50
0.0
 71
     0
 42
3.5
  3
isocp.shx
  4

  0
STYLE
  5
150
330
3
100
AcDbSymbolTableRecord
100
AcDbTextStyleTableRecord
  2
ACBSIGDT
 70
     0
 40
0.0
 41
1.0
 50
0.0
 71
     0
 42
3.5
  3
amgdt.shx
  4

  0
STYLE
  5
154
330
3
100
AcDbSymbolTableRecord
100
AcDbTextStyleTableRecord
  2
ACDINTS
 70
     0
 40
1.0
 41
1.0
 50
0.0
 71
     0
 42
3.5
  3
isocp.shx
  4

  0
STYLE
  5
155
330
3
100
AcDbSymbolTableRecord
100
AcDbTextStyleTableRecord
  2
ACDINGDT
 70
     0
 40
0.0
 41
1.0
 50
0.0
 71
     0
 42
3.5
  3
amgdt.shx
  4

  0
STYLE
  5
159
330
3
100
AcDbSymbolTableRecord
100
AcDbTextStyleTableRecord
  2
ACISOTS
 70
     0
 40
1.0
 41
1.0
 50
0.0
 71
     0
 42
3.5
  3
isocp.shx
  4

  0
STYLE
  5
15A
330
3
100
AcDbSymbolTableRecord
100
AcDbTextStyleTableRecord
  2
ACISOGDT
 70
     0
 40
0.0
 41
1.0
 50
0.0
 71
     0
 42
3.5
  3
amgdt.shx
  4

  0
STYLE
  5
17B
330
3
100
AcDbSymbolTableRecord
100
AcDbTextStyleTableRecord
  2

 70
     1
 40
0.0
 41
1.0
 50
0.0
 71
     0
 42
3.5
  3
ltypeshp.shx
  4

  0
STYLE
  5
3F4
330
3
100
AcDbSymbolTableRecord
100
AcDbTextStyleTableRecord
  2
ASHADE
 70
     0
 40
0.2
 41
1.0
 50
0.0
 71
     0
 42
3.5
  3
simplex.shx
  4

  0
STYLE
  5
1AA4
330
3
100
AcDbSymbolTableRecord
100
AcDbTextStyleTableRecord
  2
EUCLID03
 70
     0
 40
0.0
 41
1.0
 50
0.0
 71
     0
 42
3.5
  3
simplex.shx
  4

  0
STYLE
  5
1AA5
330
3
100
AcDbSymbolTableRecord
100
AcDbTextStyleTableRecord
  2

 70
     1
 40
0.0
 41
1.0
 50
0.0
 71
     0
 42
2.5
  3
genltshp.shx
  4

  0
ENDTAB
  0
TABLE
  2
VIEW
  5
6
330
0
100
AcDbSymbolTable
 70
     3
  0
VIEW
  5
1C8
330
6
100
AcDbSymbolTableRecord
100
AcDbViewTableRecord
  2
AMDTVIEW1
 70
     0
 40
329.0721649484536
 10
210.0
 20
164.5360824742268
 41
420.0
 11
0.0
 21
0.0
 31
1.0
 12
0.0
 22
0.0
 32
0.0
 42
50.0
 43
0.0
 44
0.0
 50
0.0
 71
     0
281
     0
 72
     0
 73
     0
348
20E9
  0
VIEW
  5
1C9
330
6
100
AcDbSymbolTableRecord
100
AcDbViewTableRecord
  2
AMDTVIEW2
 70
     0
 40
329.0721649484536
 10
210.0
 20
164.5360824742268
 41
420.0
 11
0.0
 21
0.0
 31
1.0
 12
0.0
 22
0.0
 32
0.0
 42
50.0
 43
0.0
 44
0.0
 50
0.0
 71
     0
281
     0
 72
     0
 73
     0
348
20E9
  0
VIEW
  5
1CA
330
6
100
AcDbSymbolTableRecord
100
AcDbViewTableRecord
  2
AMDTVIEW3
 70
     0
 40
329.0721649484536
 10
210.0
 20
164.5360824742268
 41
420.0
 11
0.0
 21
0.0
 31
1.0
 12
0.0
 22
0.0
 32
0.0
 42
50.0
 43
0.0
 44
0.0
 50
0.0
 71
     0
281
     0
 72
     0
 73
     0
348
20E9
  0
ENDTAB
  0
TABLE
  2
UCS
  5
7
330
0
100
AcDbSymbolTable
 70
     0
  0
ENDTAB
  0
TABLE
  2
APPID
  5
9
330
0
100
AcDbSymbolTable
 70
    36
  0
APPID
  5
11
330
9
100
AcDbSymbolTableRecord
100
AcDbRegAppTableRecord
  2
ACAD
 70
     0
  0
APPID
  5
CD
330
9
100
AcDbSymbolTableRecord
100
AcDbRegAppTableRecord
  2
AD_DRAW
 70
     0
  0
APPID
  5
E7
330
9
100
AcDbSymbolTableRecord
100
AcDbRegAppTableRecord
  2
DESIGNERASSEMBLIES
 70
     0
  0
APPID
  5
EB
330
9
100
AcDbSymbolTableRecord
100
AcDbRegAppTableRecord
  2
MCAD_NO_VIS
 70
     0
  0
APPID
  5
122
330
9
100
AcDbSymbolTableRecord
100
AcDbRegAppTableRecord
  2
ASURF_PCURVE_APPNAME
 70
     0
  0
APPID
  5
17F
330
9
100
AcDbSymbolTableRecord
100
AcDbRegAppTableRecord
  2
ACAD_TEMP_GRAPHIC
 70
     0
  0
APPID
  5
189
330
9
100
AcDbSymbolTableRecord
100
AcDbRegAppTableRecord
  2
ACATTRIBSERVICES
 70
     0
  0
APPID
  5
1C4
330
9
100
AcDbSymbolTableRecord
100
AcDbRegAppTableRecord
  2
ACADM_DIM_EDIT
 70
     0
  0
APPID
  5
1D5
330
9
100
AcDbSymbolTableRecord
100
AcDbRegAppTableRecord
  2
GENIUS_GENDIM_13
 70
     0
  0
APPID
  5
1D6
330
9
100
AcDbSymbolTableRecord
100
AcDbRegAppTableRecord
  2
GENIUS_GENDTOL_13
 70
     0
  0
APPID
  5
1D7
330
9
100
AcDbSymbolTableRecord
100
AcDbRegAppTableRecord
  2
GENIUS_GE3DTOL_13
 70
     0
  0
APPID
  5
3F5
330
9
100
AcDbSymbolTableRecord
100
AcDbRegAppTableRecord
  2
AVE_RENDER
 70
     0
  0
APPID
  5
3F6
330
9
100
AcDbSymbolTableRecord
100
AcDbRegAppTableRecord
  2
AVE_ENTITY_MATERIAL
 70
     0
  0
APPID
  5
403
330
9
100
AcDbSymbolTableRecord
100
AcDbRegAppTableRecord
  2
AVE_FINISH
 70
     0
  0
APPID
  5
404
330
9
100
AcDbSymbolTableRecord
100
AcDbRegAppTableRecord
  2
AVE_MATERIAL
 70
     0
  0
APPID
  5
405
330
9
100
AcDbSymbolTableRecord
100
AcDbRegAppTableRecord
  2
AVE_GLOBAL
 70
     0
  0
APPID
  5
587
330
9
100
AcDbSymbolTableRecord
100
AcDbRegAppTableRecord
  2
GENIUS_GENREC_14
 70
     0
  0
APPID
  5
588
330
9
100
AcDbSymbolTableRecord
100
AcDbRegAppTableRecord
  2
GENIUS_GENODEF_13
 70
     0
  0
APPID
  5
589
330
9
100
AcDbSymbolTableRecord
100
AcDbRegAppTableRecord
  2
GENIUS_GENOBJ-N-REC_13
 70
     0
  0
APPID
  5
5F8
330
9
100
AcDbSymbolTableRecord
100
AcDbRegAppTableRecord
  2
GENIUS_GENOBJ-3-SH3D_13
 70
     0
  0
APPID
  5
651
330
9
100
AcDbSymbolTableRecord
100
AcDbRegAppTableRecord
  2
AD_SKETCHDIM
 70
     0
  0
APPID
  5
76F
330
9
100
AcDbSymbolTableRecord
100
AcDbRegAppTableRecord
  2
AM_EDITFEAT
 70
     0
  0
APPID
  5
799
330
9
100
AcDbSymbolTableRecord
100
AcDbRegAppTableRecord
  2
GENIUS_GE3SH_14_1
 70
     0
  0
APPID
  5
79A
330
9
100
AcDbSymbolTableRecord
100
AcDbRegAppTableRecord
  2
GENIUS_GE3MANIP_13
 70
     0
  0
APPID
  5
1066
330
9
100
AcDbSymbolTableRecord
100
AcDbRegAppTableRecord
  2
GENIUS_GENSCREG_15
 70
     0
  0
APPID
  5
1068
330
9
100
AcDbSymbolTableRecord
100
AcDbRegAppTableRecord
  2
GENIUS_GENOBJ-N-SDF_13
 70
     0
  0
APPID
  5
1069
330
9
100
AcDbSymbolTableRecord
100
AcDbRegAppTableRecord
  2
GENIUS_GENOENT_13
 70
     0
  0
APPID
  5
106A
330
9
100
AcDbSymbolTableRecord
100
AcDbRegAppTableRecord
  2
GENIUS_GENOREF_13
 70
     0
  0
APPID
  5
106B
330
9
100
AcDbSymbolTableRecord
100
AcDbRegAppTableRecord
  2
GENIUS_GENOLIS_13
 70
     0
  0
APPID
  5
1348
330
9
100
AcDbSymbolTableRecord
100
AcDbRegAppTableRecord
  2
GENIUS_GENDIMSH_14
 70
     0
  0
APPID
  5
17FE
330
9
100
AcDbSymbolTableRecord
100
AcDbRegAppTableRecord
  2
AMG_3D2D_5.0
 70
     0
  0
APPID
  5
1855
330
9
100
AcDbSymbolTableRecord
100
AcDbRegAppTableRecord
  2
AMDT_DM_ADJ
 70
     0
  0
APPID
  5
20D5
330
9
100
AcDbSymbolTableRecord
100
AcDbRegAppTableRecord
  2
GENIUS_AMGTXT_16
 70
     0
  0
APPID
  5
2144
330
9
100
AcDbSymbolTableRecord
100
AcDbRegAppTableRecord
  2
ACAD_PSEXT
 70
     0
  0
APPID
  5
2153
330
9
100
AcDbSymbolTableRecord
100
AcDbRegAppTableRecord
  2
ACAD_EXEMPT_FROM_CAD_STANDARDS
 70
     0
  0
APPID
  5
219A
330
9
100
AcDbSymbolTableRecord
100
AcDbRegAppTableRecord
  2
ACAD_MLEADERVER
 70
     0
  0
ENDTAB
  0
TABLE
  2
DIMSTYLE
  5
A
330
0
100
AcDbSymbolTable
 70
    44
100
AcDbDimStyleTable
 71
     5
340
395
340
25
340
62
340
2A
340
29
  0
DIMSTYLE
105
1D
330
A
100
AcDbSymbolTableRecord
100
AcDbDimStyleTableRecord
  2
STANDARD
 70
     0
 41
2.5
 42
0.625
 43
3.75
 44
1.25
 73
     0
 74
     0
 77
     1
 78
     8
140
2.5
141
2.5
143
0.0394
147
0.625
171
     4
172
     1
273
     8
274
     4
277
     6
340
10
  0
DIMSTYLE
105
25
330
A
100
AcDbSymbolTableRecord
100
AcDbDimStyleTableRecord
  2
ISO-35
 70
     0
 41
3.5
 42
0.875
 43
5.25
 44
1.75
 73
     0
 74
     0
 77
     1
 78
     8
140
3.5
141
3.5
143
0.0394
147
0.875
171
     4
172
     1
273
     8
274
     4
277
     6
340
10
  0
DIMSTYLE
105
26
330
A
100
AcDbSymbolTableRecord
100
AcDbDimStyleTableRecord
  2
ISO-5
 70
     0
 41
5.0
 42
1.25
 43
7.5
 44
2.5
 73
     0
 74
     0
 77
     1
 78
     8
140
5.0
141
5.0
143
0.0394
147
1.25
171
     4
172
     1
273
     8
274
     4
277
     6
340
10
  0
DIMSTYLE
105
27
330
A
100
AcDbSymbolTableRecord
100
AcDbDimStyleTableRecord
  2
ISO-7
 70
     0
 41
7.0
 42
1.75
 43
10.5
 44
3.5
 73
     0
 74
     0
 77
     1
 78
     8
140
7.0
141
7.0
143
0.0394
147
1.75
171
     4
172
     1
273
     8
274
     4
277
     6
340
10
  0
DIMSTYLE
105
28
330
A
100
AcDbSymbolTableRecord
100
AcDbDimStyleTableRecord
  2
ISO1
 70
     0
 41
10.0
 42
2.5
 43
15.0
 44
5.0
 73
     0
 74
     0
 77
     1
 78
     8
140
10.0
141
10.0
143
0.0394
147
2.5
171
     4
172
     1
273
     8
274
     4
277
     6
340
10
  0
DIMSTYLE
105
29
330
A
100
AcDbSymbolTableRecord
100
AcDbDimStyleTableRecord
  2
ISO1-4
 70
     0
 41
14.0
 42
3.5
 43
21.0
 44
7.0
 74
     0
 77
     1
 78
     8
140
14.0
141
14.0
143
0.0394
145
5.599999999999999
147
3.5
172
     1
273
     8
277
     6
340
10
  0
DIMSTYLE
105
2A
330
A
100
AcDbSymbolTableRecord
100
AcDbDimStyleTableRecord
  2
ISO2
 70
     0
 41
20.0
 42
5.0
 43
30.0
 44
10.0
 73
     0
 74
     0
 77
     1
 78
     8
140
20.0
141
20.0
143
0.0394
147
5.0
171
     4
172
     1
273
     8
274
     4
277
     6
340
10
  0
DIMSTYLE
105
60
330
A
100
AcDbSymbolTableRecord
100
AcDbDimStyleTableRecord
  2
ISO-4
 70
     0
 41
14.0
 42
3.5
 43
21.0
 44
7.0
 73
     0
 74
     0
 77
     1
 78
     8
140
14.0
141
14.0
143
0.0394
147
3.5
171
     4
172
     1
273
     8
274
     4
277
     6
340
10
  0
DIMSTYLE
105
62
330
A
100
AcDbSymbolTableRecord
100
AcDbDimStyleTableRecord
  2
ISO-25
 70
     0
 41
2.5
 42
0.625
 43
3.75
 44
1.25
 73
     0
 74
     0
 77
     1
 78
     8
140
2.5
141
2.5
143
0.0394
147
0.625
171
     4
172
     1
273
     8
274
     4
277
     6
340
10
  0
DIMSTYLE
105
395
102
{ACAD_REACTORS
330
1DB7
330
1E19
330
1E62
330
1EA1
330
1EE0
330
1F1F
330
1F68
330
1FB1
330
1FFA
330
2039
102
}
330
A
100
AcDbSymbolTableRecord
100
AcDbDimStyleTableRecord
  2
AM_ISO
 70
     0
  4
"
 41
3.0
 42
0.0
 43
10.0
 44
1.0
 47
0.1
 48
0.1
 73
     0
 74
     0
 77
     1
 78
     8
 79
     2
140
3.5
141
0.0
143
0.0393701
146
0.71
147
1.5
172
     1
176
   256
177
   256
178
     2
271
     2
272
     2
283
     0
340
10
371
    -1
372
    -1
  0
DIMSTYLE
105
396
330
A
100
AcDbSymbolTableRecord
100
AcDbDimStyleTableRecord
  2
AM_ISO$3
 70
     0
  4
"
 41
2.5
 42
1.0
 43
10.0
 44
1.0
 47
0.1
 48
0.1
 73
     0
 77
     1
 78
     8
 79
     2
140
3.5
141
0.0
143
0.0393701
146
0.71
147
1.5
176
   256
177
   256
178
     2
271
     2
272
     2
283
     0
288
     1
289
     0
340
10
371
    -1
372
    -1
  0
DIMSTYLE
105
397
330
A
100
AcDbSymbolTableRecord
100
AcDbDimStyleTableRecord
  2
AM_ISO$4
 70
     0
  4
"
 41
2.5
 42
1.0
 43
10.0
 44
1.0
 47
0.1
 48
0.1
 73
     0
 77
     1
 78
     8
 79
     2
140
3.5
141
0.0
143
0.0393701
146
0.71
147
1.5
176
   256
177
   256
178
     2
271
     2
272
     2
283
     0
288
     1
289
     0
340
10
371
    -1
372
    -1
  0
DIMSTYLE
105
398
330
A
100
AcDbSymbolTableRecord
100
AcDbDimStyleTableRecord
  2
AM_ISO$6
 70
     0
  4
"
 41
2.5
 42
1.0
 43
10.0
 44
1.0
 47
0.1
 48
0.1
 73
     0
 74
     0
 78
     8
 79
     2
140
3.5
141
0.0
143
0.0393701
146
0.71
147
1.5
172
     1
176
   256
177
   256
178
     2
271
     2
272
     3
274
     4
283
     0
340
10
371
    -1
372
    -1
  0
DIMSTYLE
105
399
330
A
100
AcDbSymbolTableRecord
100
AcDbDimStyleTableRecord
  2
AM_ISO$7
 70
     0
  4
"
 41
2.5
 42
1.0
 43
10.0
 44
1.0
 47
0.1
 48
0.1
 73
     0
 74
     0
 77
     1
 78
     8
 79
     2
140
5.0
141
0.0
143
0.0393701
146
0.71
147
1.5
172
     1
176
   256
177
   256
178
     2
271
     2
272
     3
274
     4
283
     0
340
10
371
    -1
372
    -1
  0
DIMSTYLE
105
39A
330
A
100
AcDbSymbolTableRecord
100
AcDbDimStyleTableRecord
  2
AM_ISO$SF
 70
     0
  4
"
 41
2.5
 42
1.0
 43
10.0
 44
1.0
 47
0.1
 48
0.1
 73
     0
 74
     0
 75
     1
 76
     1
 77
     1
 78
     8
 79
     2
140
3.5
141
0.0
143
0.0393701
146
0.71
147
1.5
172
     1
176
   256
177
   256
178
     2
271
     2
272
     3
274
     4
283
     0
340
10
371
    -1
372
    -1
  0
DIMSTYLE
105
39F
330
A
100
AcDbSymbolTableRecord
100
AcDbDimStyleTableRecord
  2
AM_ISO$SH
 70
     0
  4
"
 41
2.5
 42
1.0
 43
10.0
 44
1.0
 47
0.1
 48
0.1
 73
     0
 74
     0
 75
     1
 76
     1
 77
     1
 78
     8
 79
     2
140
3.5
141
0.0
143
0.0393701
144
2.0
146
0.71
147
1.5
172
     1
173
     1
176
   256
177
   256
178
     2
271
     2
272
     3
274
     4
283
     0
340
10
343
39B
371
    -1
372
    -1
  0
DIMSTYLE
105
1832
330
A
100
AcDbSymbolTableRecord
100
AcDbDimStyleTableRecord
  2
AM_BSI
 70
     0
  4
"
 41
4.0
 42
1.0
 43
10.0
 44
1.0
 47
0.1
 48
0.1
 73
     0
 74
     0
 77
     1
 78
     8
 79
     2
140
3.5
141
0.0
143
0.0393701
146
0.71
147
1.5
172
     1
176
   256
177
   256
178
     2
271
     2
272
     3
274
     4
283
     0
284
     8
340
10
371
    -1
372
    -1
  0
DIMSTYLE
105
1833
330
A
100
AcDbSymbolTableRecord
100
AcDbDimStyleTableRecord
  2
AM_BSI$3
 70
     0
  4
"
 41
4.0
 42
1.0
 43
10.0
 44
1.0
 47
0.1
 48
0.1
 73
     0
 77
     1
 78
     8
 79
     2
140
3.5
141
0.0
143
0.0393701
146
0.71
147
1.5
176
   256
177
   256
178
     2
271
     2
272
     3
274
     4
283
     0
284
     8
288
     1
289
     0
340
10
371
    -1
372
    -1
  0
DIMSTYLE
105
1834
330
A
100
AcDbSymbolTableRecord
100
AcDbDimStyleTableRecord
  2
AM_BSI$4
 70
     0
  4
"
 41
4.0
 42
1.0
 43
10.0
 44
1.0
 47
0.1
 48
0.1
 73
     0
 77
     1
 78
     8
 79
     2
140
3.5
141
0.0
143
0.0393701
146
0.71
147
1.5
176
   256
177
   256
178
     2
271
     2
272
     3
274
     4
283
     0
284
     8
288
     1
289
     0
340
10
371
    -1
372
    -1
  0
DIMSTYLE
105
1835
330
A
100
AcDbSymbolTableRecord
100
AcDbDimStyleTableRecord
  2
AM_BSI$6
 70
     0
  4
"
 41
4.0
 42
1.0
 43
10.0
 44
1.0
 47
0.1
 48
0.1
 73
     0
 74
     0
 78
     8
 79
     2
140
3.5
141
0.0
143
0.0393701
146
0.71
147
1.5
172
     1
176
   256
177
   256
178
     2
271
     2
272
     3
274
     4
283
     0
284
     8
340
10
371
    -1
372
    -1
  0
DIMSTYLE
105
1836
330
A
100
AcDbSymbolTableRecord
100
AcDbDimStyleTableRecord
  2
AM_BSI$7
 70
     0
  4
"
 41
2.5
 42
1.0
 43
10.0
 44
1.0
 47
0.1
 48
0.1
 73
     0
 74
     0
 77
     1
 78
     8
 79
     2
140
5.0
141
0.0
143
0.0393701
146
0.71
147
1.5
172
     1
176
   256
177
   256
178
     2
271
     2
272
     3
274
     4
283
     0
284
     8
340
10
371
    -1
372
    -1
  0
DIMSTYLE
105
1837
330
A
100
AcDbSymbolTableRecord
100
AcDbDimStyleTableRecord
  2
AM_BSI$SF
 70
     0
  4
"
 41
4.0
 42
1.0
 43
10.0
 44
1.0
 47
0.1
 48
0.1
 73
     0
 74
     0
 75
     1
 76
     1
 77
     1
 78
     8
 79
     2
140
3.5
141
0.0
143
0.0393701
146
0.71
147
1.5
172
     1
176
   256
177
   256
178
     2
271
     2
272
     3
274
     4
283
     0
284
     8
340
10
371
    -1
372
    -1
  0
DIMSTYLE
105
1838
330
A
100
AcDbSymbolTableRecord
100
AcDbDimStyleTableRecord
  2
AM_BSI$SH
 70
     0
  4
"
 41
4.0
 42
1.0
 43
10.0
 44
1.0
 47
0.1
 48
0.1
 73
     0
 74
     0
 75
     1
 76
     1
 77
     1
 78
     8
 79
     2
140
3.5
141
0.0
143
0.0393701
144
2.0
146
0.71
147
1.5
172
     1
173
     1
176
   256
177
   256
178
     2
271
     2
272
     3
274
     4
283
     0
284
     8
340
10
343
39B
371
    -1
372
    -1
  0
DIMSTYLE
105
183A
330
A
100
AcDbSymbolTableRecord
100
AcDbDimStyleTableRecord
  2
AM_DIN
 70
     0
  4
"
 41
2.5
 42
1.0
 43
10.0
 44
1.0
 47
0.1
 48
0.1
 73
     0
 74
     0
 77
     1
 78
     8
 79
     2
140
3.5
141
0.0
143
0.0393701
146
0.71
147
1.5
172
     1
176
   256
177
   256
178
     2
271
     2
272
     3
274
     4
283
     0
284
     8
340
10
371
    -1
372
    -1
  0
DIMSTYLE
105
183B
330
A
100
AcDbSymbolTableRecord
100
AcDbDimStyleTableRecord
  2
AM_DIN$3
 70
     0
  4
"
 41
2.5
 42
1.0
 43
10.0
 44
1.0
 47
0.1
 48
0.1
 73
     0
 77
     1
 78
     8
 79
     2
140
3.5
141
0.0
143
0.0393701
146
0.71
147
1.5
176
   256
177
   256
178
     2
271
     2
272
     3
274
     4
283
     0
284
     8
288
     1
289
     0
340
10
371
    -1
372
    -1
  0
DIMSTYLE
105
183C
330
A
100
AcDbSymbolTableRecord
100
AcDbDimStyleTableRecord
  2
AM_DIN$4
 70
     0
  4
"
 41
2.5
 42
1.0
 43
10.0
 44
1.0
 47
0.1
 48
0.1
 73
     0
 77
     1
 78
     8
 79
     2
140
3.5
141
0.0
143
0.0393701
146
0.71
147
1.5
176
   256
177
   256
178
     2
271
     2
272
     3
274
     4
283
     0
284
     8
288
     1
289
     0
340
10
371
    -1
372
    -1
  0
DIMSTYLE
105
183D
330
A
100
AcDbSymbolTableRecord
100
AcDbDimStyleTableRecord
  2
AM_DIN$6
 70
     0
  4
"
 41
2.5
 42
1.0
 43
10.0
 44
1.0
 47
0.1
 48
0.1
 73
     0
 74
     0
 78
     8
 79
     2
140
3.5
141
0.0
143
0.0393701
146
0.71
147
1.5
172
     1
176
   256
177
   256
178
     2
271
     2
272
     3
274
     4
283
     0
284
     8
340
10
371
    -1
372
    -1
  0
DIMSTYLE
105
183E
330
A
100
AcDbSymbolTableRecord
100
AcDbDimStyleTableRecord
  2
AM_DIN$7
 70
     0
  4
"
 41
2.5
 42
1.0
 43
10.0
 44
1.0
 47
0.1
 48
0.1
 73
     0
 74
     0
 77
     1
 78
     8
 79
     2
140
5.0
141
0.0
143
0.0393701
146
0.71
147
1.5
172
     1
176
   256
177
   256
178
     2
271
     2
272
     3
274
     4
283
     0
284
     8
340
10
371
    -1
372
    -1
  0
DIMSTYLE
105
183F
330
A
100
AcDbSymbolTableRecord
100
AcDbDimStyleTableRecord
  2
AM_DIN$SF
 70
     0
  4
"
 41
2.5
 42
1.0
 43
10.0
 44
1.0
 47
0.1
 48
0.1
 73
     0
 74
     0
 75
     1
 76
     1
 77
     1
 78
     8
 79
     2
140
3.5
141
0.0
143
0.0393701
146
0.71
147
1.5
172
     1
176
   256
177
   256
178
     2
271
     2
272
     3
274
     4
283
     0
284
     8
340
10
371
    -1
372
    -1
  0
DIMSTYLE
105
1840
330
A
100
AcDbSymbolTableRecord
100
AcDbDimStyleTableRecord
  2
AM_DIN$SH
 70
     0
  4
"
 41
2.5
 42
1.0
 43
10.0
 44
1.0
 47
0.1
 48
0.1
 73
     0
 74
     0
 75
     1
 76
     1
 77
     1
 78
     8
 79
     2
140
3.5
141
0.0
143
0.0393701
144
2.0
146
0.71
147
1.5
172
     1
173
     1
176
   256
177
   256
178
     2
271
     2
272
     3
274
     4
283
     0
284
     8
340
10
343
39B
371
    -1
372
    -1
  0
DIMSTYLE
105
1843
330
A
100
AcDbSymbolTableRecord
100
AcDbDimStyleTableRecord
  2
AM_JIS
 70
     0
  4
"
 41
2.5
 42
1.0
 43
10.0
 44
1.0
 47
0.1
 48
0.1
 73
     0
 74
     0
 77
     3
 78
     8
 79
     2
140
3.5
141
0.0
143
0.0393701
146
0.71
147
1.5
172
     1
176
   256
177
   256
178
     2
271
     2
272
     3
274
     4
283
     0
284
     8
340
10
341
1844
342
1844
343
1844
344
1844
371
    -1
372
    -1
  0
DIMSTYLE
105
184A
330
A
100
AcDbSymbolTableRecord
100
AcDbDimStyleTableRecord
  2
AM_JIS$3
 70
     0
  4
"
 41
2.5
 42
1.0
 43
10.0
 44
1.0
 47
0.1
 48
0.1
 73
     0
 77
     3
 78
     8
 79
     2
140
3.5
141
0.0
143
0.0393701
146
0.71
147
1.5
176
   256
177
   256
178
     2
271
     2
272
     3
274
     4
283
     0
284
     8
288
     1
289
     0
340
10
341
1844
342
1844
343
1844
344
1844
371
    -1
372
    -1
  0
DIMSTYLE
105
184B
330
A
100
AcDbSymbolTableRecord
100
AcDbDimStyleTableRecord
  2
AM_JIS$4
 70
     0
  4
"
 41
2.5
 42
1.0
 43
10.0
 44
1.0
 47
0.1
 48
0.1
 73
     0
 77
     3
 78
     8
 79
     2
140
3.5
141
0.0
143
0.0393701
146
0.71
147
1.5
176
   256
177
   256
178
     2
271
     2
272
     3
274
     4
283
     0
284
     8
288
     1
289
     0
340
10
341
1844
342
1844
343
1844
344
1844
371
    -1
372
    -1
  0
DIMSTYLE
105
184C
330
A
100
AcDbSymbolTableRecord
100
AcDbDimStyleTableRecord
  2
AM_JIS$6
 70
     0
  4
"
 41
2.5
 42
1.0
 43
10.0
 44
1.0
 47
0.1
 48
0.1
 73
     0
 74
     0
 78
     8
 79
     2
140
3.5
141
0.0
143
0.0393701
146
0.71
147
1.5
172
     1
176
   256
177
   256
178
     2
271
     2
272
     3
274
     4
283
     0
284
     8
340
10
341
1844
342
1844
343
1844
344
1844
371
    -1
372
    -1
  0
DIMSTYLE
105
184D
330
A
100
AcDbSymbolTableRecord
100
AcDbDimStyleTableRecord
  2
AM_JIS$7
 70
     0
  4
"
 41
2.5
 42
1.0
 43
10.0
 44
1.0
 47
0.1
 48
0.1
 73
     0
 74
     0
 77
     3
 78
     8
 79
     2
140
5.0
141
0.0
143
0.0393701
146
0.71
147
1.5
172
     1
176
   256
177
   256
178
     2
271
     2
272
     3
274
     4
283
     0
284
     8
340
10
341
1844
342
1844
343
1844
344
1844
371
    -1
372
    -1
  0
DIMSTYLE
105
184E
330
A
100
AcDbSymbolTableRecord
100
AcDbDimStyleTableRecord
  2
AM_JIS$SF
 70
     0
  4
"
 41
2.5
 42
1.0
 43
10.0
 44
1.0
 47
0.1
 48
0.1
 73
     0
 74
     0
 75
     1
 76
     1
 77
     3
 78
     8
 79
     2
140
3.5
141
0.0
143
0.0393701
146
0.71
147
1.5
172
     1
176
   256
177
   256
178
     2
271
     2
272
     3
274
     4
283
     0
284
     8
340
10
341
1844
342
1844
343
1844
344
1844
371
    -1
372
    -1
  0
DIMSTYLE
105
184F
330
A
100
AcDbSymbolTableRecord
100
AcDbDimStyleTableRecord
  2
AM_JIS$SH
 70
     0
  4
"
 41
2.5
 42
1.0
 43
10.0
 44
1.0
 47
0.1
 48
0.1
 73
     0
 74
     0
 75
     1
 76
     1
 77
     3
 78
     8
 79
     2
140
3.5
141
0.0
143
0.0393701
144
2.0
146
0.71
147
1.5
172
     1
173
     1
176
   256
177
   256
178
     2
271
     2
272
     3
274
     4
283
     0
284
     8
340
10
341
1844
342
1844
343
39B
344
1844
371
    -1
372
    -1
  0
DIMSTYLE
105
1AA6
330
A
100
AcDbSymbolTableRecord
100
AcDbDimStyleTableRecord
  2
GEN-ISO$4
 70
     0
  3
<>
  4
"
 41
3.0
 42
0.0
 43
10.0
 44
1.0
 47
0.1
 48
0.1
 73
     0
 77
     1
 78
     8
140
3.5
141
0.0
143
0.03937
146
0.71
147
1.0
176
   256
177
   256
178
     2
340
10
  0
DIMSTYLE
105
1AA7
330
A
100
AcDbSymbolTableRecord
100
AcDbDimStyleTableRecord
  2
GEN-ISO$3
 70
     0
  3
<>
  4
"
 41
3.0
 42
0.0
 43
10.0
 44
1.0
 47
0.1
 48
0.1
 73
     0
 77
     1
 78
     8
140
3.5
141
0.0
143
0.03937
146
0.71
147
1.0
176
   256
177
   256
178
     2
340
10
  0
DIMSTYLE
105
1AA8
330
A
100
AcDbSymbolTableRecord
100
AcDbDimStyleTableRecord
  2
GEN-ISO
 70
     0
  4
"
 41
3.0
 42
0.0
 43
10.0
 44
1.0
 47
0.1
 48
0.1
 73
     0
 74
     0
 77
     1
 78
     8
140
3.5
141
0.0
143
0.03937
146
0.71
147
1.0
172
     1
176
   256
177
   256
178
     2
340
10
  0
DIMSTYLE
105
1AA9
330
A
100
AcDbSymbolTableRecord
100
AcDbDimStyleTableRecord
  2
GEN-ISO$6
 70
     0
  3
<>
  4
"
 41
3.0
 42
0.0
 43
10.0
 44
1.0
 47
0.1
 48
0.1
 73
     0
 74
     0
 78
     8
140
3.5
141
0.0
143
0.0393701
146
0.71
147
1.0
176
   256
177
   256
178
     2
271
     1
272
     3
274
     4
275
     1
283
     0
284
     8
340
10
  0
DIMSTYLE
105
1AAA
330
A
100
AcDbSymbolTableRecord
100
AcDbDimStyleTableRecord
  2
GEN-ISO-POS
 70
     0
  3
<>
  4
"
 41
2.5
 42
0.0
 43
10.0
 44
1.0
 47
0.1
 48
0.1
 73
     0
 74
     0
 78
     8
140
5.0
141
0.0
143
0.0393701
146
0.71
147
1.5
176
   256
177
   256
178
     2
271
     1
272
     3
274
     4
275
     1
283
     0
284
     8
340
10
  0
DIMSTYLE
105
1AAB
330
A
100
AcDbSymbolTableRecord
100
AcDbDimStyleTableRecord
  2
GEN-ISO-AXE-F
 70
     0
  3
<>
  4
"
 41
3.0
 42
0.0
 43
10.0
 44
1.0
 47
0.1
 48
0.1
 73
     0
 74
     0
 75
     1
 76
     1
 77
     1
 78
     8
140
3.5
141
0.0
143
0.0393701
146
0.71
147
1.0
172
     1
176
   256
177
   256
178
     2
271
     1
272
     3
274
     4
275
     1
283
     0
284
     8
340
10
  0
DIMSTYLE
105
1AAC
330
A
100
AcDbSymbolTableRecord
100
AcDbDimStyleTableRecord
  2
GEN-ISO-AXE-H
 70
     0
  3
<>
  4
"
 41
3.0
 42
0.0
 43
10.0
 44
1.0
 47
0.1
 48
0.1
 73
     0
 74
     0
 75
     1
 76
     1
 77
     1
 78
     8
140
3.5
141
0.0
143
0.0393701
144
2.0
146
0.71
147
1.0
172
     1
173
     1
176
   256
177
   256
178
     2
271
     1
272
     3
274
     4
275
     1
283
     0
284
     8
340
10
343
39B
  0
ENDTAB
  0
TABLE
  2
BLOCK_RECORD
  5
1
330
0
100
AcDbSymbolTable
 70
    25
  0
BLOCK_RECORD
  5
1A
102
{ACAD_XDICTIONARY
360
12A
102
}
330
1
100
AcDbSymbolTableRecord
100
AcDbBlockTableRecord
  2
*MODEL_SPACE
340
169
 70
     0
280
     1
281
     0
  0
BLOCK_RECORD
  5
17
330
1
100
AcDbSymbolTableRecord
100
AcDbBlockTableRecord
  2
*PAPER_SPACE
340
16A
 70
     0
280
     1
281
     0
  0
BLOCK_RECORD
  5
34D
330
1
100
AcDbSymbolTableRecord
100
AcDbBlockTableRecord
  2
*Paper_Space0
340
351
 70
     0
280
     1
281
     0
  0
BLOCK_RECORD
  5
313
330
1
100
AcDbSymbolTableRecord
100
AcDbBlockTableRecord
  2
*Paper_Space1
340
314
 70
     0
280
     1
281
     0
  0
BLOCK_RECORD
  5
2E0
330
1
100
AcDbSymbolTableRecord
100
AcDbBlockTableRecord
  2
*Paper_Space2
340
2E1
 70
     0
280
     1
281
     0
  0
BLOCK_RECORD
  5
345
330
1
100
AcDbSymbolTableRecord
100
AcDbBlockTableRecord
  2
*Paper_Space3
340
349
 70
     0
280
     1
281
     0
  0
BLOCK_RECORD
  5
39B
330
1
100
AcDbSymbolTableRecord
100
AcDbBlockTableRecord
  2
GENAXEH
340
0
 70
     0
280
     1
281
     0
  0
BLOCK_RECORD
  5
3F8
330
1
100
AcDbSymbolTableRecord
100
AcDbBlockTableRecord
  2
AVE_RENDER
340
0
102
{BLKREFS
331
3FB
331
3FC
331
3FD
331
3FE
331
3FF
331
400
331
401
331
402
102
}
 70
     0
280
     1
281
     0
  0
BLOCK_RECORD
  5
406
330
1
100
AcDbSymbolTableRecord
100
AcDbBlockTableRecord
  2
AVE_GLOBAL
340
0
102
{BLKREFS
331
409
102
}
 70
     0
280
     1
281
     0
  0
BLOCK_RECORD
  5
594
330
1
100
AcDbSymbolTableRecord
100
AcDbBlockTableRecord
  2
*U7
340
0
 70
     0
280
     1
281
     0
  0
BLOCK_RECORD
  5
5E5
330
1
100
AcDbSymbolTableRecord
100
AcDbBlockTableRecord
  2
*U8
340
0
 70
     0
280
     1
281
     0
  0
BLOCK_RECORD
  5
1366
330
1
100
AcDbSymbolTableRecord
100
AcDbBlockTableRecord
  2
GENDOT
340
0
 70
     0
280
     1
281
     0
  0
BLOCK_RECORD
  5
1844
330
1
100
AcDbSymbolTableRecord
100
AcDbBlockTableRecord
  2
_Open30
340
0
 70
     0
280
     1
281
     0
  0
BLOCK_RECORD
  5
1A13
330
1
100
AcDbSymbolTableRecord
100
AcDbBlockTableRecord
  2
BLK41
340
0
 70
     0
280
     1
281
     0
  0
BLOCK_RECORD
  5
1A25
330
1
100
AcDbSymbolTableRecord
100
AcDbBlockTableRecord
  2
BLK42
340
0
 70
     0
280
     1
281
     0
  0
BLOCK_RECORD
  5
1A37
330
1
100
AcDbSymbolTableRecord
100
AcDbBlockTableRecord
  2
BLK43
340
0
 70
     0
280
     1
281
     0
  0
BLOCK_RECORD
  5
1A73
330
1
100
AcDbSymbolTableRecord
100
AcDbBlockTableRecord
  2
BLK46
340
0
 70
     0
280
     1
281
     0
  0
BLOCK_RECORD
  5
1DB8
330
1
100
AcDbSymbolTableRecord
100
AcDbBlockTableRecord
  2
*D15
340
0
 70
     0
280
     1
281
     0
  0
BLOCK_RECORD
  5
1E1A
330
1
100
AcDbSymbolTableRecord
100
AcDbBlockTableRecord
  2
*D16
340
0
 70
     0
280
     1
281
     0
  0
BLOCK_RECORD
  5
1E63
330
1
100
AcDbSymbolTableRecord
100
AcDbBlockTableRecord
  2
*D17
340
0
 70
     0
280
     1
281
     0
  0
BLOCK_RECORD
  5
1EA2
330
1
100
AcDbSymbolTableRecord
100
AcDbBlockTableRecord
  2
*D18
340
0
 70
     0
280
     1
281
     0
  0
BLOCK_RECORD
  5
1EE1
330
1
100
AcDbSymbolTableRecord
100
AcDbBlockTableRecord
  2
*D19
340
0
 70
     0
280
     1
281
     0
  0
BLOCK_RECORD
  5
1F20
330
1
100
AcDbSymbolTableRecord
100
AcDbBlockTableRecord
  2
*D20
340
0
 70
     0
280
     1
281
     0
  0
BLOCK_RECORD
  5
1F69
330
1
100
AcDbSymbolTableRecord
100
AcDbBlockTableRecord
  2
*D21
340
0
 70
     0
280
     1
281
     0
  0
BLOCK_RECORD
  5
1FB2
330
1
100
AcDbSymbolTableRecord
100
AcDbBlockTableRecord
  2
*D22
340
0
 70
     0
280
     1
281
     0
  0
BLOCK_RECORD
  5
1FFB
330
1
100
AcDbSymbolTableRecord
100
AcDbBlockTableRecord
  2
*D23
340
0
 70
     0
280
     1
281
     0
  0
BLOCK_RECORD
  5
203A
330
1
100
AcDbSymbolTableRecord
100
AcDbBlockTableRecord
  2
*D24
340
0
 70
     0
280
     1
281
     0
  0
ENDTAB
  0
ENDSEC
  0
SECTION
  2
BLOCKS
  0
BLOCK
  5
1B
330
1A
100
AcDbEntity
  8
0
100
AcDbBlockBegin
  2
*MODEL_SPACE
 70
     0
 10
0.0
 20
0.0
 30
0.0
  3
*MODEL_SPACE
  1

  0
ENDBLK
  5
1C
330
1A
100
AcDbEntity
  8
0
100
AcDbBlockEnd
  0
BLOCK
  5
18
330
17
100
AcDbEntity
 67
     1
  8
0
100
AcDbBlockBegin
  2
*PAPER_SPACE
 70
     0
 10
0.0
 20
0.0
 30
0.0
  3
*PAPER_SPACE
  1

  0
ENDBLK
  5
19
330
17
100
AcDbEntity
 67
     1
  8
0
100
AcDbBlockEnd
  0
BLOCK
  5
34F
330
34D
100
AcDbEntity
 67
     1
  8
0
100
AcDbBlockBegin
  2
*Paper_Space0
 70
     0
 10
0.0
 20
0.0
 30
0.0
  3
*Paper_Space0
  1

  0
VIEWPORT
  5
34E
330
34D
100
AcDbEntity
 67
     1
  8
AM_VIEWS
100
AcDbViewport
 10
577.468994140625
 20
415.4593176841736
 30
0.0
 40
1195.734595476714
 41
932.8590910236622
 68
     0
 69
     0
 12
577.468994140625
 22
415.4593176841736
 13
0.0
 23
0.0
 14
10.0
 24
10.0
 15
10.0
 25
10.0
 16
0.0
 26
0.0
 36
1.0
 17
0.0
 27
0.0
 37
0.0
 42
50.0
 43
0.0
 44
0.0
 45
932.8590910236622
 50
0.0
 51
0.0
 72
   100
331
1969
 90
    32800
  1

281
     0
 71
     1
 74
     0
110
0.0
120
0.0
130
0.0
111
1.0
121
0.0
131
0.0
112
0.0
122
1.0
132
0.0
 79
     0
146
0.0
170
     0
 61
     5
348
20E9
292
     1
282
     1
141
0.0
142
0.0
 63
   250
421
  3355443
  0
ENDBLK
  5
350
330
34D
100
AcDbEntity
 67
     1
  8
0
100
AcDbBlockEnd
  0
BLOCK
  5
315
330
313
100
AcDbEntity
 67
     1
  8
0
100
AcDbBlockBegin
  2
*Paper_Space1
 70
     0
 10
0.0
 20
0.0
 30
0.0
  3
*Paper_Space1
  1

  0
VIEWPORT
  5
344
330
313
100
AcDbEntity
 67
     1
  8
AM_VIEWS
100
AcDbViewport
 10
279.9926452636719
 20
204.9779944419861
 30
0.0
 40
597.3137355517764
 41
465.9976808487594
 68
     0
 69
     0
 12
279.9926452636719
 22
204.9779944419861
 13
0.0
 23
0.0
 14
10.0
 24
10.0
 15
10.0
 25
10.0
 16
0.0
 26
0.0
 36
1.0
 17
0.0
 27
0.0
 37
0.0
 42
50.0
 43
0.0
 44
0.0
 45
465.9976808487594
 50
0.0
 51
0.0
 72
   100
331
1969
 90
    32800
  1

281
     0
 71
     1
 74
     0
110
0.0
120
0.0
130
0.0
111
1.0
121
0.0
131
0.0
112
0.0
122
1.0
132
0.0
 79
     0
146
0.0
170
     0
 61
     5
348
20E9
292
     1
282
     1
141
0.0
142
0.0
 63
   250
421
  3355443
  0
ENDBLK
  5
316
330
313
100
AcDbEntity
 67
     1
  8
0
100
AcDbBlockEnd
  0
BLOCK
  5
2E2
330
2E0
100
AcDbEntity
 67
     1
  8
0
100
AcDbBlockBegin
  2
*Paper_Space2
 70
     0
 10
0.0
 20
0.0
 30
0.0
  3
*Paper_Space2
  1

  0
VIEWPORT
  5
31D
330
2E0
100
AcDbEntity
 67
     1
  8
AM_VIEWS
100
AcDbViewport
 10
204.9674224853516
 20
143.4782419204712
 30
0.0
 40
422.4372280469156
 41
329.5667868615042
 68
     0
 69
     0
 12
204.9674224853516
 22
143.4782419204712
 13
0.0
 23
0.0
 14
10.0
 24
10.0
 15
10.0
 25
10.0
 16
0.0
 26
0.0
 36
1.0
 17
0.0
 27
0.0
 37
0.0
 42
50.0
 43
0.0
 44
0.0
 45
329.5667868615042
 50
0.0
 51
0.0
 72
   100
331
1969
 90
    32800
  1

281
     0
 71
     1
 74
     0
110
0.0
120
0.0
130
0.0
111
1.0
121
0.0
131
0.0
112
0.0
122
1.0
132
0.0
 79
     0
146
0.0
170
     0
 61
     5
348
20E9
292
     1
282
     1
141
0.0
142
0.0
 63
   250
421
  3355443
  0
ENDBLK
  5
2E3
330
2E0
100
AcDbEntity
 67
     1
  8
0
100
AcDbBlockEnd
  0
BLOCK
  5
347
330
345
100
AcDbEntity
 67
     1
  8
0
100
AcDbBlockBegin
  2
*Paper_Space3
 70
     0
 10
0.0
 20
0.0
 30
0.0
  3
*Paper_Space3
  1

  0
VIEWPORT
  5
346
330
345
100
AcDbEntity
 67
     1
  8
AM_VIEWS
100
AcDbViewport
 10
279.9926452636719
 20
204.9779944419861
 30
0.0
 40
597.3137355517764
 41
465.9976808487594
 68
     0
 69
     0
 12
279.9926452636719
 22
204.9779944419861
 13
0.0
 23
0.0
 14
10.0
 24
10.0
 15
10.0
 25
10.0
 16
0.0
 26
0.0
 36
1.0
 17
0.0
 27
0.0
 37
0.0
 42
50.0
 43
0.0
 44
0.0
 45
465.9976808487594
 50
0.0
 51
0.0
 72
   100
331
1969
 90
    32800
  1

281
     0
 71
     1
 74
     0
110
0.0
120
0.0
130
0.0
111
1.0
121
0.0
131
0.0
112
0.0
122
1.0
132
0.0
 79
     0
146
0.0
170
     0
 61
     5
348
20E9
292
     1
282
     1
141
0.0
142
0.0
 63
   250
421
  3355443
  0
ENDBLK
  5
348
330
345
100
AcDbEntity
 67
     1
  8
0
100
AcDbBlockEnd
  0
BLOCK
  5
39D
330
39B
100
AcDbEntity
  8
0
100
AcDbBlockBegin
  2
GENAXEH
 70
     0
 10
0.0
 20
0.0
 30
0.0
  3
GENAXEH
  1

  0
LINE
  5
39C
330
39B
100
AcDbEntity
  8
0
100
AcDbLine
 10
-1.0
 20
0.0
 30
0.0
 11
1.0
 21
0.0
 31
0.0
  0
ENDBLK
  5
39E
330
39B
100
AcDbEntity
  8
0
100
AcDbBlockEnd
  0
BLOCK
  5
3F9
330
3F8
100
AcDbEntity
  8
ASHADE
100
AcDbBlockBegin
  2
AVE_RENDER
 70
     0
 10
0.0
 20
0.0
 30
0.0
  3
AVE_RENDER
  1
AVE_RENDER
  0
ENDBLK
  5
3FA
330
3F8
100
AcDbEntity
  8
0
100
AcDbBlockEnd
  0
BLOCK
  5
407
330
406
100
AcDbEntity
  8
ASHADE
100
AcDbBlockBegin
  2
AVE_GLOBAL
 70
     0
 10
0.0
 20
0.0
 30
0.0
  3
AVE_GLOBAL
  1
AVE_GLOBAL
  0
ENDBLK
  5
408
330
406
100
AcDbEntity
  8
0
100
AcDbBlockEnd
  0
BLOCK
  5
595
330
594
100
AcDbEntity
  8
0
100
AcDbBlockBegin
  2
*U7
 70
     1
 10
0.0
 20
0.0
 30
0.0
  3
*U7
  1

  0
ENDBLK
  5
596
330
594
100
AcDbEntity
  8
0
100
AcDbBlockEnd
  0
BLOCK
  5
5E6
330
5E5
100
AcDbEntity
  8
0
100
AcDbBlockBegin
  2
*U8
 70
     1
 10
0.0
 20
0.0
 30
0.0
  3
*U8
  1

  0
ENDBLK
  5
5E7
330
5E5
100
AcDbEntity
  8
0
100
AcDbBlockEnd
  0
BLOCK
  5
1369
330
1366
100
AcDbEntity
  8
0
100
AcDbBlockBegin
  2
GENDOT
 70
     0
 10
0.0
 20
0.0
 30
0.0
  3
GENDOT
  1

  0
LINE
  5
1367
330
1366
100
AcDbEntity
  8
0
100
AcDbLine
 10
0.0
 20
0.0
 30
0.0
 11
-1.0
 21
0.0
 31
0.0
  0
LWPOLYLINE
  5
1368
330
1366
100
AcDbEntity
  8
0
100
AcDbPolyline
 90
        2
 70
     1
 43
0.25
 10
-0.125
 20
0.0
 42
1.0
 10
0.125
 20
0.0
 42
1.0
  0
ENDBLK
  5
136A
330
1366
100
AcDbEntity
  8
0
100
AcDbBlockEnd
  0
BLOCK
  5
1848
330
1844
100
AcDbEntity
  8
0
100
AcDbBlockBegin
  2
_Open30
 70
     0
 10
0.0
 20
0.0
 30
0.0
  3
_Open30
  1

  0
LINE
  5
1845
330
1844
100
AcDbEntity
  8
0
  6
ByBlock
 62
     0
370
    -2
100
AcDbLine
 10
-1.0
 20
0.26794919
 30
0.0
 11
0.0
 21
0.0
 31
0.0
  0
LINE
  5
1846
330
1844
100
AcDbEntity
  8
0
  6
ByBlock
 62
     0
370
    -2
100
AcDbLine
 10
0.0
 20
0.0
 30
0.0
 11
-1.0
 21
-0.26794919
 31
0.0
  0
LINE
  5
1847
330
1844
100
AcDbEntity
  8
0
  6
ByBlock
 62
     0
370
    -2
100
AcDbLine
 10
0.0
 20
0.0
 30
0.0
 11
-1.0
 21
0.0
 31
0.0
  0
ENDBLK
  5
1849
330
1844
100
AcDbEntity
  8
0
100
AcDbBlockEnd
  0
BLOCK
  5
1A23
330
1A13
100
AcDbEntity
  8
0
100
AcDbBlockBegin
  2
BLK41
 70
     2
 10
0.0
 20
0.0
 30
0.0
  3
BLK41
  1

  0
TEXT
  5
1A14
330
1A13
100
AcDbEntity
  8
6
  6
Continuous
 62
     2
100
AcDbText
 10
3.387811999999999
 20
26.150007
 30
0.0
 40
3.5
  1
4kt
 50
90.0
  7
EUCLID03
100
AcDbText
  0
TEXT
  5
1A15
330
1A13
100
AcDbEntity
  8
6
  6
Continuous
 62
     2
100
AcDbText
 10
3.387811999999999
 20
31.968756
 30
0.0
 40
3.5
  1
7
 50
90.0
 41
0.596625
  7
EUCLID03
100
AcDbText
  0
LINE
  5
1A16
330
1A13
100
AcDbEntity
  8
5
  6
Continuous
 62
     3
100
AcDbLine
 10
4.787810999999999
 20
22.25001
 30
0.0
 11
4.787810999999999
 21
37.750004
 31
0.0
  0
LINE
  5
1A17
330
1A13
100
AcDbEntity
  8
5
  6
Continuous
 62
     3
100
AcDbLine
 10
10.000002
 20
28.25001
 30
0.0
 11
2.787811
 21
28.25001
 31
0.0
  0
LINE
  5
1A18
330
1A13
100
AcDbEntity
  8
5
  6
Continuous
 62
     3
100
AcDbLine
 10
10.000002
 20
31.750004
 30
0.0
 11
2.787811
 21
31.750004
 31
0.0
  0
POLYLINE
  5
1A19
330
1A13
100
AcDbEntity
  8
5
  6
Continuous
 62
     3
100
AcDb2dPolyline
 66
     1
 10
0.0
 20
0.0
 30
0.0
 70
     1
  0
VERTEX
  5
1A1A
330
1A19
100
AcDbEntity
  8
5
  6
Continuous
 62
     3
100
AcDbVertex
100
AcDb2dVertex
 10
5.305444999999999
 20
26.250002
 30
0.0
  0
VERTEX
  5
1A1B
330
1A19
100
AcDbEntity
  8
5
  6
Continuous
 62
     3
100
AcDbVertex
100
AcDb2dVertex
 10
4.787809
 20
28.25001
 30
0.0
  0
VERTEX
  5
1A1C
330
1A19
100
AcDbEntity
  8
5
  6
Continuous
 62
     3
100
AcDbVertex
100
AcDb2dVertex
 10
4.270173999999999
 20
26.250002
 30
0.0
  0
SEQEND
  5
1A1D
330
1A19
100
AcDbEntity
  8
5
  6
Continuous
 62
     3
  0
POLYLINE
  5
1A1E
330
1A13
100
AcDbEntity
  8
5
  6
Continuous
 62
     3
100
AcDb2dPolyline
 66
     1
 10
0.0
 20
0.0
 30
0.0
 70
     1
  0
VERTEX
  5
1A1F
330
1A1E
100
AcDbEntity
  8
5
  6
Continuous
 62
     3
100
AcDbVertex
100
AcDb2dVertex
 10
4.270173999999999
 20
33.75
 30
0.0
  0
VERTEX
  5
1A20
330
1A1E
100
AcDbEntity
  8
5
  6
Continuous
 62
     3
100
AcDbVertex
100
AcDb2dVertex
 10
4.787809
 20
31.750013
 30
0.0
  0
VERTEX
  5
1A21
330
1A1E
100
AcDbEntity
  8
5
  6
Continuous
 62
     3
100
AcDbVertex
100
AcDb2dVertex
 10
5.305444999999999
 20
33.75
 30
0.0
  0
SEQEND
  5
1A22
330
1A1E
100
AcDbEntity
  8
5
  6
Continuous
 62
     3
  0
ENDBLK
  5
1A24
330
1A13
100
AcDbEntity
  8
0
100
AcDbBlockEnd
  0
BLOCK
  5
1A35
330
1A25
100
AcDbEntity
  8
0
100
AcDbBlockBegin
  2
BLK42
 70
     2
 10
0.0
 20
0.0
 30
0.0
  3
BLK42
  1

  0
TEXT
  5
1A26
330
1A25
100
AcDbEntity
  8
6
  6
Continuous
 62
     2
100
AcDbText
 10
19.407812
 20
34.679691
 30
0.0
 40
3.5
  1
%%c
 50
90.0
  7
EUCLID03
100
AcDbText
  0
TEXT
  5
1A27
330
1A25
100
AcDbEntity
  8
6
  6
Continuous
 62
     2
100
AcDbText
 10
19.407812
 20
40.49844
 30
0.0
 40
3.5
  1
11.8
 50
90.0
 41
0.501234
  7
EUCLID03
100
AcDbText
  0
LINE
  5
1A28
330
1A25
100
AcDbEntity
  8
5
  6
Continuous
 62
     3
100
AcDbLine
 10
20.807812
 20
49.700005
 30
0.0
 11
20.807812
 21
31.800001
 31
0.0
  0
LINE
  5
1A29
330
1A25
100
AcDbEntity
  8
5
  6
Continuous
 62
     3
100
AcDbLine
 10
27.500002
 20
43.700001
 30
0.0
 11
18.807814
 21
43.700001
 31
0.0
  0
LINE
  5
1A2A
330
1A25
100
AcDbEntity
  8
5
  6
Continuous
 62
     3
100
AcDbLine
 10
27.500002
 20
37.800003
 30
0.0
 11
18.807814
 21
37.800003
 31
0.0
  0
POLYLINE
  5
1A2B
330
1A25
100
AcDbEntity
  8
5
  6
Continuous
 62
     3
100
AcDb2dPolyline
 66
     1
 10
0.0
 20
0.0
 30
0.0
 70
     1
  0
VERTEX
  5
1A2C
330
1A2B
100
AcDbEntity
  8
5
  6
Continuous
 62
     3
100
AcDbVertex
100
AcDb2dVertex
 10
20.290167
 20
45.699997
 30
0.0
  0
VERTEX
  5
1A2D
330
1A2B
100
AcDbEntity
  8
5
  6
Continuous
 62
     3
100
AcDbVertex
100
AcDb2dVertex
 10
20.807821
 20
43.70001199999999
 30
0.0
  0
VERTEX
  5
1A2E
330
1A2B
100
AcDbEntity
  8
5
  6
Continuous
 62
     3
100
AcDbVertex
100
AcDb2dVertex
 10
21.325457
 20
45.699997
 30
0.0
  0
SEQEND
  5
1A2F
330
1A2B
100
AcDbEntity
  8
5
  6
Continuous
 62
     3
  0
POLYLINE
  5
1A30
330
1A25
100
AcDbEntity
  8
5
  6
Continuous
 62
     3
100
AcDb2dPolyline
 66
     1
 10
0.0
 20
0.0
 30
0.0
 70
     1
  0
VERTEX
  5
1A31
330
1A30
100
AcDbEntity
  8
5
  6
Continuous
 62
     3
100
AcDbVertex
100
AcDb2dVertex
 10
21.325457
 20
35.800003
 30
0.0
  0
VERTEX
  5
1A32
330
1A30
100
AcDbEntity
  8
5
  6
Continuous
 62
     3
100
AcDbVertex
100
AcDb2dVertex
 10
20.807821
 20
37.800011
 30
0.0
  0
VERTEX
  5
1A33
330
1A30
100
AcDbEntity
  8
5
  6
Continuous
 62
     3
100
AcDbVertex
100
AcDb2dVertex
 10
20.290167
 20
35.800003
 30
0.0
  0
SEQEND
  5
1A34
330
1A30
100
AcDbEntity
  8
5
  6
Continuous
 62
     3
  0
ENDBLK
  5
1A36
330
1A25
100
AcDbEntity
  8
0
100
AcDbBlockEnd
  0
BLOCK
  5
1A47
330
1A37
100
AcDbEntity
  8
0
100
AcDbBlockBegin
  2
BLK43
 70
     2
 10
0.0
 20
0.0
 30
0.0
  3
BLK43
  1

  0
TEXT
  5
1A38
330
1A37
100
AcDbEntity
  8
6
  6
Continuous
 62
     2
100
AcDbText
 10
19.646921
 20
12.687502
 30
0.0
 40
3.5
  1
%%c
 50
90.0
  7
EUCLID03
100
AcDbText
  0
TEXT
  5
1A39
330
1A37
100
AcDbEntity
  8
6
  6
Continuous
 62
     2
100
AcDbText
 10
19.646921
 20
18.506252
 30
0.0
 40
3.5
  1
 9.5
 50
90.0
 41
0.5792810000000001
  7
EUCLID03
100
AcDbText
  0
LINE
  5
1A3A
330
1A37
100
AcDbEntity
  8
5
  6
Continuous
 62
     3
100
AcDbLine
 10
21.046921
 20
27.625002
 30
0.0
 11
21.046921
 21
10.875
 31
0.0
  0
LINE
  5
1A3B
330
1A37
100
AcDbEntity
  8
5
  6
Continuous
 62
     3
100
AcDbLine
 10
27.500002
 20
21.625002
 30
0.0
 11
19.046921
 21
21.625002
 31
0.0
  0
LINE
  5
1A3C
330
1A37
100
AcDbEntity
  8
5
  6
Continuous
 62
     3
100
AcDbLine
 10
27.500002
 20
16.875002
 30
0.0
 11
19.046921
 21
16.875002
 31
0.0
  0
POLYLINE
  5
1A3D
330
1A37
100
AcDbEntity
  8
5
  6
Continuous
 62
     3
100
AcDb2dPolyline
 66
     1
 10
0.0
 20
0.0
 30
0.0
 70
     1
  0
VERTEX
  5
1A3E
330
1A3D
100
AcDbEntity
  8
5
  6
Continuous
 62
     3
100
AcDbVertex
100
AcDb2dVertex
 10
20.529291
 20
23.624994
 30
0.0
  0
VERTEX
  5
1A3F
330
1A3D
100
AcDbEntity
  8
5
  6
Continuous
 62
     3
100
AcDbVertex
100
AcDb2dVertex
 10
21.046926
 20
21.625006
 30
0.0
  0
VERTEX
  5
1A40
330
1A3D
100
AcDbEntity
  8
5
  6
Continuous
 62
     3
100
AcDbVertex
100
AcDb2dVertex
 10
21.564562
 20
23.624994
 30
0.0
  0
SEQEND
  5
1A41
330
1A3D
100
AcDbEntity
  8
5
  6
Continuous
 62
     3
  0
POLYLINE
  5
1A42
330
1A37
100
AcDbEntity
  8
5
  6
Continuous
 62
     3
100
AcDb2dPolyline
 66
     1
 10
0.0
 20
0.0
 30
0.0
 70
     1
  0
VERTEX
  5
1A43
330
1A42
100
AcDbEntity
  8
5
  6
Continuous
 62
     3
100
AcDbVertex
100
AcDb2dVertex
 10
21.564562
 20
14.874994
 30
0.0
  0
VERTEX
  5
1A44
330
1A42
100
AcDbEntity
  8
5
  6
Continuous
 62
     3
100
AcDbVertex
100
AcDb2dVertex
 10
21.046926
 20
16.875002
 30
0.0
  0
VERTEX
  5
1A45
330
1A42
100
AcDbEntity
  8
5
  6
Continuous
 62
     3
100
AcDbVertex
100
AcDb2dVertex
 10
20.529291
 20
14.874994
 30
0.0
  0
SEQEND
  5
1A46
330
1A42
100
AcDbEntity
  8
5
  6
Continuous
 62
     3
  0
ENDBLK
  5
1A48
330
1A37
100
AcDbEntity
  8
0
100
AcDbBlockEnd
  0
BLOCK
  5
1A7F
330
1A73
100
AcDbEntity
  8
0
100
AcDbBlockBegin
  2
BLK46
 70
     2
 10
0.0
 20
0.0
 30
0.0
  3
BLK46
  1

  0
POLYLINE
  5
1A74
330
1A73
100
AcDbEntity
  8
5
  6
Continuous
 62
     3
100
AcDb2dPolyline
 66
     1
 10
0.0
 20
0.0
 30
0.0
  0
VERTEX
  5
1A75
330
1A74
100
AcDbEntity
  8
5
  6
Continuous
 62
     3
100
AcDbVertex
100
AcDb2dVertex
 10
34.449997
 20
44.30984099999999
 30
0.0
  0
VERTEX
  5
1A76
330
1A74
100
AcDbEntity
  8
5
  6
Continuous
 62
     3
100
AcDbVertex
100
AcDb2dVertex
 10
31.668537
 20
44.30984099999999
 30
0.0
  0
VERTEX
  5
1A77
330
1A74
100
AcDbEntity
  8
5
  6
Continuous
 62
     3
100
AcDbVertex
100
AcDb2dVertex
 10
25.468924
 20
59.68116
 30
0.0
  0
VERTEX
  5
1A78
330
1A74
100
AcDbEntity
  8
5
  6
Continuous
 62
     3
100
AcDbVertex
100
AcDb2dVertex
 10
15.887702
 20
59.68116
 30
0.0
  0
SEQEND
  5
1A79
330
1A74
100
AcDbEntity
  8
5
  6
Continuous
 62
     3
  0
POLYLINE
  5
1A7A
330
1A73
100
AcDbEntity
  8
5
  6
Continuous
 62
     3
100
AcDb2dPolyline
 66
     1
 10
0.0
 20
0.0
 30
0.0
 70
     1
  0
VERTEX
  5
1A7B
330
1A7A
100
AcDbEntity
  8
5
  6
Continuous
 62
     3
100
AcDbVertex
100
AcDb2dVertex
 10
32.44998900000001
 20
43.792213
 30
0.0
  0
VERTEX
  5
1A7C
330
1A7A
100
AcDbEntity
  8
5
  6
Continuous
 62
     3
100
AcDbVertex
100
AcDb2dVertex
 10
34.449997
 20
44.309845
 30
0.0
  0
VERTEX
  5
1A7D
330
1A7A
100
AcDbEntity
  8
5
  6
Continuous
 62
     3
100
AcDbVertex
100
AcDb2dVertex
 10
32.44998900000001
 20
44.827484
 30
0.0
  0
SEQEND
  5
1A7E
330
1A7A
100
AcDbEntity
  8
5
  6
Continuous
 62
     3
  0
ENDBLK
  5
1A80
330
1A73
100
AcDbEntity
  8
0
100
AcDbBlockEnd
  0
BLOCK
  5
1DC2
330
1DB8
100
AcDbEntity
  8
0
100
AcDbBlockBegin
  2
*D15
 70
     1
 10
0.0
 20
0.0
 30
0.0
  3
*D15
  1

  0
LINE
  5
1DFA
330
1DB8
100
AcDbEntity
  8
AM_5
100
AcDbLine
 10
89.24054218834829
 20
211.7669359807718
 30
0.0
 11
89.24054218834829
 21
255.9486089807718
 31
0.0
  0
LINE
  5
1DFB
330
1DB8
100
AcDbEntity
  8
AM_5
100
AcDbLine
 10
118.2405421883483
 20
211.7669439807718
 30
0.0
 11
118.2405421883483
 21
255.9486089807718
 31
0.0
  0
LINE
  5
1DFC
330
1DB8
100
AcDbEntity
  8
AM_5
100
AcDbLine
 10
95.24054218834828
 20
253.9486089807718
 30
0.0
 11
112.2405421883483
 21
253.9486089807718
 31
0.0
  0
SOLID
  5
1DFD
330
1DB8
100
AcDbEntity
  8
AM_5
100
AcDbTrace
 10
95.24054218834828
 20
254.9486089807718
 30
0.0
 11
95.24054218834828
 21
252.9486089807718
 31
0.0
 12
89.24054218834829
 22
253.9486089807718
 32
0.0
 13
89.24054218834829
 23
253.9486089807718
 33
0.0
  0
SOLID
  5
1DFE
330
1DB8
100
AcDbEntity
  8
AM_5
100
AcDbTrace
 10
112.2405421883483
 20
254.9486089807718
 30
0.0
 11
112.2405421883483
 21
252.9486089807718
 31
0.0
 12
118.2405421883483
 22
253.9486089807718
 32
0.0
 13
118.2405421883483
 23
253.9486089807718
 33
0.0
  0
MTEXT
  5
1DFF
330
1DB8
100
AcDbEntity
  8
AM_5
 62
     2
100
AcDbMText
 10
103.7405421883483
 20
260.4492979571498
 30
0.0
 40
7.0
 41
0.0
 46
0.0
 71
     5
 72
     1
  1
29
 73
     1
 44
1.0
  0
POINT
  5
1E00
330
1DB8
100
AcDbEntity
  8
Defpoints
 62
     0
100
AcDbPoint
 10
89.24054218834829
 20
211.7669359807718
 30
0.0
  0
POINT
  5
1E01
330
1DB8
100
AcDbEntity
  8
Defpoints
 62
     0
100
AcDbPoint
 10
118.2405421883483
 20
211.7669439807718
 30
0.0
  0
POINT
  5
1E02
330
1DB8
100
AcDbEntity
  8
Defpoints
 62
     0
100
AcDbPoint
 10
118.2405421883483
 20
253.9486089807718
 30
0.0
  0
ENDBLK
  5
1DC3
330
1DB8
100
AcDbEntity
  8
0
100
AcDbBlockEnd
  0
BLOCK
  5
1E26
330
1E1A
100
AcDbEntity
  8
0
100
AcDbBlockBegin
  2
*D16
 70
     1
 10
0.0
 20
0.0
 30
0.0
  3
*D16
  1

  0
LINE
  5
206D
330
1E1A
100
AcDbEntity
  8
AM_5
100
AcDbLine
 10
255.7405461883472
 20
156.0669340644002
 30
0.0
 11
255.7405461883472
 21
138.1693148700365
 31
0.0
  0
LINE
  5
206E
330
1E1A
100
AcDbEntity
  8
AM_5
100
AcDbLine
 10
243.7405461883483
 20
154.2669359807718
 30
0.0
 11
243.7405461883483
 21
138.1693148700365
 31
0.0
  0
LINE
  5
206F
330
1E1A
100
AcDbEntity
  8
AM_5
100
AcDbLine
 10
237.7405461883483
 20
140.1693148700365
 30
0.0
 11
231.7405461883483
 21
140.1693148700365
 31
0.0
  0
LINE
  5
2070
330
1E1A
100
AcDbEntity
  8
AM_5
100
AcDbLine
 10
261.7405461883473
 20
140.1693148700365
 30
0.0
 11
280.460959574174
 21
140.1693148700365
 31
0.0
  0
LINE
  5
2071
330
1E1A
100
AcDbEntity
  8
AM_5
100
AcDbLine
 10
243.7405461883483
 20
140.1693148700365
 30
0.0
 11
255.7405461883472
 21
140.1693148700365
 31
0.0
  0
SOLID
  5
2072
330
1E1A
100
AcDbEntity
  8
AM_5
100
AcDbTrace
 10
237.7405461883483
 20
141.1693148700365
 30
0.0
 11
237.7405461883483
 21
139.1693148700365
 31
0.0
 12
243.7405461883483
 22
140.1693148700365
 32
0.0
 13
243.7405461883483
 23
140.1693148700365
 33
0.0
  0
SOLID
  5
2073
330
1E1A
100
AcDbEntity
  8
AM_5
100
AcDbTrace
 10
261.7405461883473
 20
141.1693148700365
 30
0.0
 11
261.7405461883473
 21
139.1693148700365
 31
0.0
 12
255.7405461883472
 22
140.1693148700365
 32
0.0
 13
255.7405461883472
 23
140.1693148700365
 33
0.0
  0
MTEXT
  5
2074
330
1E1A
100
AcDbEntity
  8
AM_5
 62
     2
100
AcDbMText
 10
274.1007528812606
 20
146.6700038464144
 30
0.0
 40
7.0
 41
0.0
 46
0.0
 71
     5
 72
     1
  1
12
 73
     1
 44
1.0
  0
POINT
  5
2075
330
1E1A
100
AcDbEntity
  8
Defpoints
 62
     0
100
AcDbPoint
 10
255.7405461883472
 20
156.0669340644002
 30
0.0
  0
POINT
  5
2076
330
1E1A
100
AcDbEntity
  8
Defpoints
 62
     0
100
AcDbPoint
 10
243.7405461883483
 20
154.2669359807718
 30
0.0
  0
POINT
  5
2077
330
1E1A
100
AcDbEntity
  8
Defpoints
 62
     0
100
AcDbPoint
 10
243.7405461883483
 20
140.1693148700365
 30
0.0
  0
ENDBLK
  5
1E27
330
1E1A
100
AcDbEntity
  8
0
100
AcDbBlockEnd
  0
BLOCK
  5
1E6D
330
1E63
100
AcDbEntity
  8
0
100
AcDbBlockBegin
  2
*D17
 70
     1
 10
0.0
 20
0.0
 30
0.0
  3
*D17
  1

  0
LINE
  5
2099
330
1E63
100
AcDbEntity
  8
AM_5
100
AcDbLine
 10
211.7405261883483
 20
186.7669399807718
 30
0.0
 11
211.7405261883483
 21
114.0944167700304
 31
0.0
  0
LINE
  5
209A
330
1E63
100
AcDbEntity
  8
AM_5
100
AcDbLine
 10
243.7405461883483
 20
154.2669359807718
 30
0.0
 11
243.7405461883483
 21
114.0944167700304
 31
0.0
  0
LINE
  5
209B
330
1E63
100
AcDbEntity
  8
AM_5
100
AcDbLine
 10
217.7405261883483
 20
116.0944167700304
 30
0.0
 11
237.7405461883483
 21
116.0944167700304
 31
0.0
  0
SOLID
  5
209C
330
1E63
100
AcDbEntity
  8
AM_5
100
AcDbTrace
 10
217.7405261883483
 20
117.0944167700304
 30
0.0
 11
217.7405261883483
 21
115.0944167700304
 31
0.0
 12
211.7405261883483
 22
116.0944167700304
 32
0.0
 13
211.7405261883483
 23
116.0944167700304
 33
0.0
  0
SOLID
  5
209D
330
1E63
100
AcDbEntity
  8
AM_5
100
AcDbTrace
 10
237.7405461883483
 20
117.0944167700304
 30
0.0
 11
237.7405461883483
 21
115.0944167700304
 31
0.0
 12
243.7405461883483
 22
116.0944167700304
 32
0.0
 13
243.7405461883483
 23
116.0944167700304
 33
0.0
  0
MTEXT
  5
209E
330
1E63
100
AcDbEntity
  8
AM_5
 62
     2
100
AcDbMText
 10
227.7405361883483
 20
122.5951057464083
 30
0.0
 40
7.0
 41
0.0
 46
0.0
 71
     5
 72
     1
  1
32
 73
     1
 44
1.0
  0
POINT
  5
209F
330
1E63
100
AcDbEntity
  8
Defpoints
 62
     0
100
AcDbPoint
 10
211.7405261883483
 20
186.7669399807718
 30
0.0
  0
POINT
  5
20A0
330
1E63
100
AcDbEntity
  8
Defpoints
 62
     0
100
AcDbPoint
 10
243.7405461883483
 20
154.2669359807718
 30
0.0
  0
POINT
  5
20A1
330
1E63
100
AcDbEntity
  8
Defpoints
 62
     0
100
AcDbPoint
 10
243.7405461883483
 20
116.0944167700304
 30
0.0
  0
ENDBLK
  5
1E6E
330
1E63
100
AcDbEntity
  8
0
100
AcDbBlockEnd
  0
BLOCK
  5
1EAC
330
1EA2
100
AcDbEntity
  8
0
100
AcDbBlockBegin
  2
*D18
 70
     1
 10
0.0
 20
0.0
 30
0.0
  3
*D18
  1

  0
LINE
  5
1EC9
330
1EA2
100
AcDbEntity
  8
AM_5
100
AcDbLine
 10
203.7405421883483
 20
186.7669559807718
 30
0.0
 11
203.7405421883483
 21
98.79750323438944
 31
0.0
  0
LINE
  5
1ECA
330
1EA2
100
AcDbEntity
  8
AM_5
100
AcDbLine
 10
243.7405461883483
 20
154.2669359807718
 30
0.0
 11
243.7405461883483
 21
98.79750323438944
 31
0.0
  0
LINE
  5
1ECB
330
1EA2
100
AcDbEntity
  8
AM_5
100
AcDbLine
 10
209.7405421883483
 20
100.7975032343894
 30
0.0
 11
237.7405461883483
 21
100.7975032343894
 31
0.0
  0
SOLID
  5
1ECC
330
1EA2
100
AcDbEntity
  8
AM_5
100
AcDbTrace
 10
209.7405421883483
 20
101.7975032343894
 30
0.0
 11
209.7405421883483
 21
99.79750323438944
 31
0.0
 12
203.7405421883483
 22
100.7975032343894
 32
0.0
 13
203.7405421883483
 23
100.7975032343894
 33
0.0
  0
SOLID
  5
1ECD
330
1EA2
100
AcDbEntity
  8
AM_5
100
AcDbTrace
 10
237.7405461883483
 20
101.7975032343894
 30
0.0
 11
237.7405461883483
 21
99.79750323438944
 31
0.0
 12
243.7405461883483
 22
100.7975032343894
 32
0.0
 13
243.7405461883483
 23
100.7975032343894
 33
0.0
  0
MTEXT
  5
1ECE
330
1EA2
100
AcDbEntity
  8
AM_5
 62
     2
100
AcDbMText
 10
223.7405441883483
 20
107.2975032343894
 30
0.0
 40
7.0
 41
0.0
 46
0.0
 71
     5
 72
     1
  1
40
 73
     1
 44
1.0
  0
POINT
  5
1ECF
330
1EA2
100
AcDbEntity
  8
Defpoints
 62
     0
100
AcDbPoint
 10
203.7405421883483
 20
186.7669559807718
 30
0.0
  0
POINT
  5
1ED0
330
1EA2
100
AcDbEntity
  8
Defpoints
 62
     0
100
AcDbPoint
 10
243.7405461883483
 20
154.2669359807718
 30
0.0
  0
POINT
  5
1ED1
330
1EA2
100
AcDbEntity
  8
Defpoints
 62
     0
100
AcDbPoint
 10
243.7405461883483
 20
100.7975032343894
 30
0.0
  0
ENDBLK
  5
1EAD
330
1EA2
100
AcDbEntity
  8
0
100
AcDbBlockEnd
  0
BLOCK
  5
1EEB
330
1EE1
100
AcDbEntity
  8
0
100
AcDbBlockBegin
  2
*D19
 70
     1
 10
0.0
 20
0.0
 30
0.0
  3
*D19
  1

  0
LINE
  5
20A2
330
1EE1
100
AcDbEntity
  8
AM_5
100
AcDbLine
 10
243.7405461883483
 20
154.2669359807718
 30
0.0
 11
243.7405461883483
 21
114.0944167700304
 31
0.0
  0
LINE
  5
20A3
330
1EE1
100
AcDbEntity
  8
AM_5
100
AcDbLine
 10
281.1405521883483
 20
156.2669359807718
 30
0.0
 11
281.1405521883483
 21
114.0944167700304
 31
0.0
  0
LINE
  5
20A4
330
1EE1
100
AcDbEntity
  8
AM_5
100
AcDbLine
 10
249.7405461883483
 20
116.0944167700304
 30
0.0
 11
275.1405521883483
 21
116.0944167700304
 31
0.0
  0
SOLID
  5
20A5
330
1EE1
100
AcDbEntity
  8
AM_5
100
AcDbTrace
 10
249.7405461883483
 20
117.0944167700304
 30
0.0
 11
249.7405461883483
 21
115.0944167700304
 31
0.0
 12
243.7405461883483
 22
116.0944167700304
 32
0.0
 13
243.7405461883483
 23
116.0944167700304
 33
0.0
  0
SOLID
  5
20A6
330
1EE1
100
AcDbEntity
  8
AM_5
100
AcDbTrace
 10
275.1405521883483
 20
117.0944167700304
 30
0.0
 11
275.1405521883483
 21
115.0944167700304
 31
0.0
 12
281.1405521883483
 22
116.0944167700304
 32
0.0
 13
281.1405521883483
 23
116.0944167700304
 33
0.0
  0
MTEXT
  5
20A7
330
1EE1
100
AcDbEntity
  8
AM_5
 62
     2
100
AcDbMText
 10
261.0481098952142
 20
122.5944167700304
 30
0.0
 40
7.0
 41
0.0
 46
0.0
 71
     5
 72
     1
  1
37.4
 73
     1
 44
1.0
  0
POINT
  5
20A8
330
1EE1
100
AcDbEntity
  8
Defpoints
 62
     0
100
AcDbPoint
 10
243.7405461883483
 20
154.2669359807718
 30
0.0
  0
POINT
  5
20A9
330
1EE1
100
AcDbEntity
  8
Defpoints
 62
     0
100
AcDbPoint
 10
281.1405521883483
 20
156.2669359807718
 30
0.0
  0
POINT
  5
20AA
330
1EE1
100
AcDbEntity
  8
Defpoints
 62
     0
100
AcDbPoint
 10
281.1405521883483
 20
116.0944167700304
 30
0.0
  0
ENDBLK
  5
1EEC
330
1EE1
100
AcDbEntity
  8
0
100
AcDbBlockEnd
  0
BLOCK
  5
1F2C
330
1F20
100
AcDbEntity
  8
0
100
AcDbBlockBegin
  2
*D20
 70
     1
 10
0.0
 20
0.0
 30
0.0
  3
*D20
  1

  0
LINE
  5
208E
330
1F20
100
AcDbEntity
  8
AM_5
100
AcDbLine
 10
238.7405461883483
 20
205.8669419807718
 30
0.0
 11
225.2836649245706
 21
205.8669419807718
 31
0.0
  0
LINE
  5
208F
330
1F20
100
AcDbEntity
  8
AM_5
100
AcDbLine
 10
238.7405461883483
 20
217.6669459807718
 30
0.0
 11
225.2836649245706
 21
217.6669459807718
 31
0.0
  0
LINE
  5
2090
330
1F20
100
AcDbEntity
  8
AM_5
100
AcDbLine
 10
227.2836649245706
 20
199.8669419807718
 30
0.0
 11
227.2836649245706
 21
193.8669419807718
 31
0.0
  0
LINE
  5
2091
330
1F20
100
AcDbEntity
  8
AM_5
100
AcDbLine
 10
227.2836649245706
 20
223.6669459807718
 30
0.0
 11
227.2836649245706
 21
253.8669459807719
 31
0.0
  0
LINE
  5
2092
330
1F20
100
AcDbEntity
  8
AM_5
100
AcDbLine
 10
227.2836649245706
 20
205.8669419807718
 30
0.0
 11
227.2836649245706
 21
217.6669459807718
 31
0.0
  0
SOLID
  5
2093
330
1F20
100
AcDbEntity
  8
AM_5
100
AcDbTrace
 10
226.2836649245707
 20
199.8669419807718
 30
0.0
 11
228.2836649245707
 21
199.8669419807718
 31
0.0
 12
227.2836649245706
 22
205.8669419807718
 32
0.0
 13
227.2836649245706
 23
205.8669419807718
 33
0.0
  0
SOLID
  5
2094
330
1F20
100
AcDbEntity
  8
AM_5
100
AcDbTrace
 10
226.2836649245707
 20
223.6669459807718
 30
0.0
 11
228.2836649245707
 21
223.6669459807718
 31
0.0
 12
227.2836649245706
 22
217.6669459807718
 32
0.0
 13
227.2836649245706
 23
217.6669459807718
 33
0.0
  0
MTEXT
  5
2095
330
1F20
100
AcDbEntity
  8
AM_5
 62
     2
100
AcDbMText
 10
220.7836649245706
 20
241.7669459807719
 30
0.0
 40
7.0
 41
0.0
 46
0.0
 71
     5
 72
     1
  1
%%c11.8
 11
0.0000000000000001
 21
1.0
 31
0.0
 73
     1
 44
1.0
  0
POINT
  5
2096
330
1F20
100
AcDbEntity
  8
Defpoints
 62
     0
100
AcDbPoint
 10
238.7405461883483
 20
205.8669419807718
 30
0.0
  0
POINT
  5
2097
330
1F20
100
AcDbEntity
  8
Defpoints
 62
     0
100
AcDbPoint
 10
238.7405461883483
 20
217.6669459807718
 30
0.0
  0
POINT
  5
2098
330
1F20
100
AcDbEntity
  8
Defpoints
 62
     0
100
AcDbPoint
 10
227.2836649245706
 20
217.6669459807718
 30
0.0
  0
ENDBLK
  5
1F2D
330
1F20
100
AcDbEntity
  8
0
100
AcDbBlockEnd
  0
BLOCK
  5
1F75
330
1F69
100
AcDbEntity
  8
0
100
AcDbBlockBegin
  2
*D21
 70
     1
 10
0.0
 20
0.0
 30
0.0
  3
*D21
  1

  0
LINE
  5
2082
330
1F69
100
AcDbEntity
  8
AM_5
100
AcDbLine
 10
238.7405461883483
 20
173.5169359807718
 30
0.0
 11
223.1930986603244
 21
173.5169359807718
 31
0.0
  0
LINE
  5
2083
330
1F69
100
AcDbEntity
  8
AM_5
100
AcDbLine
 10
238.7405461883483
 20
164.0169359807718
 30
0.0
 11
223.1930986603244
 21
164.0169359807718
 31
0.0
  0
LINE
  5
2084
330
1F69
100
AcDbEntity
  8
AM_5
100
AcDbLine
 10
225.1930986603244
 20
179.5169359807718
 30
0.0
 11
225.1930986603244
 21
185.5169359807718
 31
0.0
  0
LINE
  5
2085
330
1F69
100
AcDbEntity
  8
AM_5
100
AcDbLine
 10
225.1930986603244
 20
158.0169359807718
 30
0.0
 11
225.1930986603244
 21
129.6025261736507
 31
0.0
  0
LINE
  5
2086
330
1F69
100
AcDbEntity
  8
AM_5
100
AcDbLine
 10
225.1930986603244
 20
173.5169359807718
 30
0.0
 11
225.1930986603244
 21
164.0169359807718
 31
0.0
  0
SOLID
  5
2087
330
1F69
100
AcDbEntity
  8
AM_5
100
AcDbTrace
 10
224.1930986603244
 20
179.5169359807718
 30
0.0
 11
226.1930986603244
 21
179.5169359807718
 31
0.0
 12
225.1930986603244
 22
173.5169359807718
 32
0.0
 13
225.1930986603244
 23
173.5169359807718
 33
0.0
  0
SOLID
  5
2088
330
1F69
100
AcDbEntity
  8
AM_5
100
AcDbTrace
 10
224.1930986603244
 20
158.0169359807718
 30
0.0
 11
226.1930986603244
 21
158.0169359807718
 31
0.0
 12
225.1930986603244
 22
164.0169359807718
 32
0.0
 13
225.1930986603244
 23
164.0169359807718
 33
0.0
  0
MTEXT
  5
2089
330
1F69
100
AcDbEntity
  8
AM_5
 62
     2
100
AcDbMText
 10
218.6930986603243
 20
140.8097310772113
 30
0.0
 40
7.0
 41
0.0
 46
0.0
 71
     5
 72
     1
  1
%%c9.5
 11
0.0000000000000001
 21
1.0
 31
0.0
 73
     1
 44
1.0
  0
POINT
  5
208A
330
1F69
100
AcDbEntity
  8
Defpoints
 62
     0
100
AcDbPoint
 10
238.7405461883483
 20
173.5169359807718
 30
0.0
  0
POINT
  5
208B
330
1F69
100
AcDbEntity
  8
Defpoints
 62
     0
100
AcDbPoint
 10
238.7405461883483
 20
164.0169359807718
 30
0.0
  0
POINT
  5
208C
330
1F69
100
AcDbEntity
  8
Defpoints
 62
     0
100
AcDbPoint
 10
225.1930986603244
 20
164.0169359807718
 30
0.0
  0
ENDBLK
  5
1F76
330
1F69
100
AcDbEntity
  8
0
100
AcDbBlockEnd
  0
BLOCK
  5
1FBE
330
1FB2
100
AcDbEntity
  8
0
100
AcDbBlockBegin
  2
*D22
 70
     1
 10
0.0
 20
0.0
 30
0.0
  3
*D22
  1

  0
LINE
  5
20B7
330
1FB2
100
AcDbEntity
  8
AM_5
100
AcDbLine
 10
203.7405421883483
 20
193.7669439807718
 30
0.0
 11
187.4429684557216
 21
193.7669439807718
 31
0.0
  0
LINE
  5
20B8
330
1FB2
100
AcDbEntity
  8
AM_5
100
AcDbLine
 10
203.7405304511513
 20
186.7669559807915
 30
0.0
 11
187.4429684557216
 21
186.7669559807915
 31
0.0
  0
LINE
  5
20B9
330
1FB2
100
AcDbEntity
  8
AM_5
100
AcDbLine
 10
189.4429684557216
 20
199.7669439807718
 30
0.0
 11
189.4429684557216
 21
205.7669439807718
 31
0.0
  0
LINE
  5
20BA
330
1FB2
100
AcDbEntity
  8
AM_5
100
AcDbLine
 10
189.4429684557216
 20
180.7669559807915
 30
0.0
 11
189.4429684557216
 21
174.7669559807915
 31
0.0
  0
LINE
  5
20BB
330
1FB2
100
AcDbEntity
  8
AM_5
100
AcDbLine
 10
189.4429684557216
 20
193.7669439807718
 30
0.0
 11
189.4429684557216
 21
186.7669559807915
 31
0.0
  0
SOLID
  5
20BC
330
1FB2
100
AcDbEntity
  8
AM_5
100
AcDbTrace
 10
188.4429684557216
 20
199.7669439807718
 30
0.0
 11
190.4429684557216
 21
199.7669439807718
 31
0.0
 12
189.4429684557216
 22
193.7669439807718
 32
0.0
 13
189.4429684557216
 23
193.7669439807718
 33
0.0
  0
SOLID
  5
20BD
330
1FB2
100
AcDbEntity
  8
AM_5
100
AcDbTrace
 10
188.4429684557216
 20
180.7669559807915
 30
0.0
 11
190.4429684557216
 21
180.7669559807915
 31
0.0
 12
189.4429684557216
 22
186.7669559807915
 32
0.0
 13
189.4429684557216
 23
186.7669559807915
 33
0.0
  0
MTEXT
  5
20BE
330
1FB2
100
AcDbEntity
  8
AM_5
 62
     2
100
AcDbMText
 10
182.9429684557216
 20
190.2669499807817
 30
0.0
 40
7.0
 41
0.0
 46
0.0
 71
     5
 72
     1
  1
{\Famgdt;o}7
 11
0.0000000000000001
 21
1.0
 31
0.0
 73
     1
 44
1.0
  0
POINT
  5
20BF
330
1FB2
100
AcDbEntity
  8
Defpoints
 62
     0
100
AcDbPoint
 10
203.7405421883483
 20
193.7669439807718
 30
0.0
  0
POINT
  5
20C0
330
1FB2
100
AcDbEntity
  8
Defpoints
 62
     0
100
AcDbPoint
 10
203.7405304511513
 20
186.7669559807915
 30
0.0
  0
POINT
  5
20C1
330
1FB2
100
AcDbEntity
  8
Defpoints
 62
     0
100
AcDbPoint
 10
189.4429684557216
 20
186.7669559807915
 30
0.0
  0
ENDBLK
  5
1FBF
330
1FB2
100
AcDbEntity
  8
0
100
AcDbBlockEnd
  0
BLOCK
  5
2005
330
1FFB
100
AcDbEntity
  8
0
100
AcDbBlockBegin
  2
*D23
 70
     1
 10
0.0
 20
0.0
 30
0.0
  3
*D23
  1

  0
LINE
  5
2022
330
1FFB
100
AcDbEntity
  8
AM_5
100
AcDbLine
 10
233.5932041883483
 20
211.7669439807718
 30
0.0
 11
169.4453895067412
 21
211.7669439807718
 31
0.0
  0
LINE
  5
2023
330
1FFB
100
AcDbEntity
  8
AM_5
100
AcDbLine
 10
233.5932041883483
 20
168.7669359807718
 30
0.0
 11
169.4453895067412
 21
168.7669359807718
 31
0.0
  0
LINE
  5
2024
330
1FFB
100
AcDbEntity
  8
AM_5
100
AcDbLine
 10
171.4453895067412
 20
205.7669439807718
 30
0.0
 11
171.4453895067412
 21
174.7669359807718
 31
0.0
  0
SOLID
  5
2025
330
1FFB
100
AcDbEntity
  8
AM_5
100
AcDbTrace
 10
170.4453895067412
 20
205.7669439807718
 30
0.0
 11
172.4453895067412
 21
205.7669439807718
 31
0.0
 12
171.4453895067412
 22
211.7669439807718
 32
0.0
 13
171.4453895067412
 23
211.7669439807718
 33
0.0
  0
SOLID
  5
2026
330
1FFB
100
AcDbEntity
  8
AM_5
100
AcDbTrace
 10
170.4453895067412
 20
174.7669359807718
 30
0.0
 11
172.4453895067412
 21
174.7669359807718
 31
0.0
 12
171.4453895067412
 22
168.7669359807718
 32
0.0
 13
171.4453895067412
 23
168.7669359807718
 33
0.0
  0
MTEXT
  5
2027
330
1FFB
100
AcDbEntity
  8
AM_5
 62
     2
100
AcDbMText
 10
164.9453895067412
 20
190.2669399807718
 30
0.0
 40
7.0
 41
0.0
 46
0.0
 71
     5
 72
     1
  1
43
 11
0.0000000000000001
 21
1.0
 31
0.0
 73
     1
 44
1.0
  0
POINT
  5
2028
330
1FFB
100
AcDbEntity
  8
Defpoints
 62
     0
100
AcDbPoint
 10
233.5932041883483
 20
211.7669439807718
 30
0.0
  0
POINT
  5
2029
330
1FFB
100
AcDbEntity
  8
Defpoints
 62
     0
100
AcDbPoint
 10
233.5932041883483
 20
168.7669359807718
 30
0.0
  0
POINT
  5
202A
330
1FFB
100
AcDbEntity
  8
Defpoints
 62
     0
100
AcDbPoint
 10
171.4453895067412
 20
168.7669359807718
 30
0.0
  0
ENDBLK
  5
2006
330
1FFB
100
AcDbEntity
  8
0
100
AcDbBlockEnd
  0
BLOCK
  5
2044
330
203A
100
AcDbEntity
  8
0
100
AcDbBlockBegin
  2
*D24
 70
     1
 10
0.0
 20
0.0
 30
0.0
  3
*D24
  1

  0
LINE
  5
2061
330
203A
100
AcDbEntity
  8
AM_5
100
AcDbLine
 10
243.7405461883483
 20
226.2669439807718
 30
0.0
 11
149.4453895067413
 21
226.2669439807718
 31
0.0
  0
LINE
  5
2062
330
203A
100
AcDbEntity
  8
AM_5
100
AcDbLine
 10
243.7405461883483
 20
154.2669359807718
 30
0.0
 11
149.4453895067413
 21
154.2669359807718
 31
0.0
  0
LINE
  5
2063
330
203A
100
AcDbEntity
  8
AM_5
100
AcDbLine
 10
151.4453895067413
 20
220.2669439807718
 30
0.0
 11
151.4453895067413
 21
160.2669359807718
 31
0.0
  0
SOLID
  5
2064
330
203A
100
AcDbEntity
  8
AM_5
100
AcDbTrace
 10
150.4453895067413
 20
220.2669439807718
 30
0.0
 11
152.4453895067413
 21
220.2669439807718
 31
0.0
 12
151.4453895067413
 22
226.2669439807718
 32
0.0
 13
151.4453895067413
 23
226.2669439807718
 33
0.0
  0
SOLID
  5
2065
330
203A
100
AcDbEntity
  8
AM_5
100
AcDbTrace
 10
150.4453895067413
 20
160.2669359807718
 30
0.0
 11
152.4453895067413
 21
160.2669359807718
 31
0.0
 12
151.4453895067413
 22
154.2669359807718
 32
0.0
 13
151.4453895067413
 23
154.2669359807718
 33
0.0
  0
MTEXT
  5
2066
330
203A
100
AcDbEntity
  8
AM_5
 62
     2
100
AcDbMText
 10
144.9447005303633
 20
190.2669399807718
 30
0.0
 40
7.0
 41
0.0
 46
0.0
 71
     5
 72
     1
  1
72
 11
0.0000000000000001
 21
1.0
 31
0.0
 73
     1
 44
1.0
  0
POINT
  5
2067
330
203A
100
AcDbEntity
  8
Defpoints
 62
     0
100
AcDbPoint
 10
243.7405461883483
 20
226.2669439807718
 30
0.0
  0
POINT
  5
2068
330
203A
100
AcDbEntity
  8
Defpoints
 62
     0
100
AcDbPoint
 10
243.7405461883483
 20
154.2669359807718
 30
0.0
  0
POINT
  5
2069
330
203A
100
AcDbEntity
  8
Defpoints
 62
     0
100
AcDbPoint
 10
151.4453895067413
 20
154.2669359807718
 30
0.0
  0
ENDBLK
  5
2045
330
203A
100
AcDbEntity
  8
0
100
AcDbBlockEnd
  0
ENDSEC
  0
SECTION
  2
ENTITIES
  0
INSERT
  5
3FB
330
1A
100
AcDbEntity
  8
ASHADE
 62
     1
100
AcDbBlockReference
  2
AVE_RENDER
 10
0.0
 20
0.0
 30
0.0
1001
AVE_RENDER
1002
{
1070
     7
1000
Pref
1070
    60
1070
    30
1070
     1
1070
     0
1000

1070
    10
1070
     1
1070
    10
1040
1.0
1070
     1
1040
0.3
1040
0.7
1040
0.0
1040
10.0
1010
-1.0
1020
-1.0
1030
-1.0
1040
0.3
1070
    49
1070
     1
1070
     0
1010
1.0
1020
1.0
1030
1.0
1040
45.0
1070
     1
1070
     0
1000
WCS
1040
0.0
1070
     1
1040
10.0
1002
}
  0
INSERT
  5
3FC
330
1A
100
AcDbEntity
  8
ASHADE
 62
     3
100
AcDbBlockReference
  2
AVE_RENDER
 10
0.0
 20
0.0
 30
0.0
1001
AVE_RENDER
1002
{
1070
     0
1000
Full Opt
1070
     0
1070
     1
1070
     1
1070
     1
1070
     0
1070
     0
1070
     0
1070
     1
1070
     1
1040
0.0001
1040
0.0001
1002
}
  0
INSERT
  5
3FD
330
1A
100
AcDbEntity
  8
ASHADE
 62
     4
100
AcDbBlockReference
  2
AVE_RENDER
 10
0.0
 20
0.0
 30
0.0
1001
AVE_RENDER
1002
{
1070
     0
1000
Quick Opt
1070
     0
1070
     1
1070
     1
1070
     1
1070
     0
1070
     0
1070
     1
1002
}
  0
INSERT
  5
3FE
330
1A
100
AcDbEntity
  8
ASHADE
 62
     5
100
AcDbBlockReference
  2
AVE_RENDER
 10
0.0
 20
0.0
 30
0.0
1001
AVE_RENDER
1002
{
1070
     1
1000
Scanl Opt
1070
     2
1070
     0
1070
     2
1040
2.0
1040
4.0
1070
     0
1070
     1
1070
     0
1040
0.03
1002
}
  0
INSERT
  5
3FF
330
1A
100
AcDbEntity
  8
ASHADE
 62
     6
100
AcDbBlockReference
  2
AVE_RENDER
 10
0.0
 20
0.0
 30
0.0
1001
AVE_RENDER
1002
{
1070
     2
1000
Raytr Opt
1070
     3
1070
     0
1070
     2
1040
2.0
1040
4.0
1070
     0
1070
     1
1070
     1
1040
0.03
1070
     3
1040
0.03
1002
}
  0
INSERT
  5
400
330
1A
100
AcDbEntity
  8
ASHADE
 62
     7
100
AcDbBlockReference
  2
AVE_RENDER
 10
0.0
 20
0.0
 30
0.0
1001
AVE_RENDER
1002
{
1070
     0
1000
RFile Opt
1070
     5
1070
  1600
1070
  1280
1070
 10000
1070
     1
1070
    32
1070
    32
1070
     0
1070
     0
1070
     0
1070
     0
1070
     0
1070
     0
1070
     0
1002
}
  0
INSERT
  5
401
330
1A
100
AcDbEntity
  8
ASHADE
 62
     8
100
AcDbBlockReference
  2
AVE_RENDER
 10
0.0
 20
0.0
 30
0.0
1001
AVE_RENDER
1002
{
1070
     0
1000
Fog Opt
1070
     0
1070
     0
1040
0.0
1040
1.0
1040
0.0
1040
1.0
1010
0.5
1020
0.5
1030
0.5
1002
}
  0
INSERT
  5
402
330
1A
100
AcDbEntity
  8
ASHADE
 62
     9
100
AcDbBlockReference
  2
AVE_RENDER
 10
0.0
 20
0.0
 30
0.0
1001
AVE_RENDER
1002
{
1070
     0
1000
BG Opt
1070
     0
1070
     0
1010
1.0
1020
1.0
1030
1.0
1010
1.0
1020
0.0
1030
0.0
1010
0.0
1020
1.0
1030
0.0
1010
0.0
1020
0.0
1030
1.0
1040
0.5
1040
0.33
1040
0.0
1000

1070
     1
1000

1070
     1
1070
     1
1040
1.0
1040
1.0
1040
0.0
1040
0.0
1070
     0
1002
}
  0
INSERT
  5
409
330
1A
100
AcDbEntity
  8
ASHADE
 62
     1
100
AcDbBlockReference
  2
AVE_GLOBAL
 10
0.0
 20
0.0
 30
0.0
1001
AVE_MATERIAL
1002
{
1000
*GLOBAL*
1000
2
1000
Globales Material.
1002
{
1002
}
1002
{
1070
    63
1002
{
1002
{
1010
-1.0
1020
-1.0
1030
-1.0
1002
}
1040
0.1000000014901161
1000

1040
0.0
1002
{
1002
}
1040
0.0
1002
{
1002
}
1040
0.0
1002
}
1002
{
1002
{
1010
-1.0
1020
-1.0
1030
-1.0
1002
}
1040
0.6999999880790711
1000

1040
0.0
1002
{
1002
}
1040
0.0
1002
{
1002
}
1040
0.0
1002
}
1002
{
1002
{
1010
-1.0
1020
-1.0
1030
-1.0
1002
}
1040
0.2000000029802322
1000

1040
0.0
1002
{
1002
}
1040
0.0
1002
{
1002
}
1040
0.0
1002
}
1002
{
1070
     0
1002
{
1070
     1
1002
{
1040
1.0
1040
1.0
1000

1040
0.0
1002
{
1002
}
1040
0.0
1002
{
1002
}
1040
0.0
1002
}
1002
}
1040
1.0
1040
0.0
1040
0.0
1002
}
1002
{
1040
1.0
1040
1.0
1000

1040
0.0
1002
{
1002
}
1040
0.0
1002
{
1002
}
1040
0.0
1002
}
1002
{
1040
0.5
1040
1.0
1000

1040
0.0
1002
{
1002
}
1040
0.0
1002
{
1002
}
1040
0.0
1002
}
1002
{
1070
     0
1040
0.0
1002
{
1002
}
1040
1.0
1002
{
1002
}
1040
0.0
1002
}
1002
{
1040
0.0
1002
{
1002
{
1010
0.0
1020
0.0
1030
0.0
1002
}
1040
1.0
1000

1040
0.0
1002
{
1002
}
1040
0.0
1002
{
1002
}
1040
0.0
1002
}
1002
}
1002
{
1002
{
1070
     1
1002
{
1040
0.0
1040
1.0
1000

1040
0.0
1002
{
1002
}
1040
0.0
1002
{
1002
}
1040
0.0
1002
}
1002
}
1040
0.0
1002
{
1002
}
1010
1.0
1020
0.0
1030
0.0
1010
0.0
1020
1.0
1030
0.0
1010
0.0
1020
0.0
1030
1.0
1070
     0
1002
}
1002
{
1002
{
1040
1.0
1040
1.0
1002
{
1070
     1
1002
{
1040
1.0
1040
1.0
1000

1040
0.0
1002
{
1002
}
1040
0.0
1002
{
1002
}
1040
0.0
1002
}
1002
}
1002
}
1070
     0
1040
0.0
1002
{
1002
}
1002
}
1002
{
1002
}
1002
}
1002
{
1071
        3
1070
     3
1070
     0
1002
{
1070
     2
1070
     0
1070
     0
1040
0.0
1002
}
1070
     0
1070
     2
1002
{
1002
}
1002
}
1002
{
1040
8030.0
1040
190.3000030517578
1040
0.3050000071525574
1040
228.0
1040
545.0
1040
14.0
1040
17.39999961853027
1040
0.4560000002384186
1002
}
1002
}
  0
POINT
  5
1677
330
1A
100
AcDbEntity
  8
0
 60
     1
100
AcDbPoint
 10
0.0
 20
0.0
 30
0.0
1001
GENIUS_GENODEF_13
1002
{
1000
HIER
1070
     1
1002
}
1002
{
1000
MANEDIT
1070
     0
1002
}
1002
{
1000
NOSEL
1070
     0
1002
}
1002
{
1000
BEHIND
1070
     0
1002
}
1002
{
1000
REACTOR
1002
}
1001
GENIUS_GENOBJ-N-SDF_13
1002
{
1000
OWNER
1000
GEN
1002
}
1001
GENIUS_GENOENT_13
1002
{
1000
MYREF
1005
1677
1002
}
1002
{
1000
GRP
1005
0
1002
}
1001
GENIUS_GENOLIS_13
1002
{
1000
ENT
1005
22
1002
}
  0
LINE
  5
1B39
330
1A
100
AcDbEntity
  8
0
  6
CONTINU
 62
     3
100
AcDbLine
 10
205.5735001883483
 20
193.7669439807718
 30
0.0
 11
203.7405421883483
 21
193.7669439807718
 31
0.0
  0
LINE
  5
1B3A
330
1A
100
AcDbEntity
  8
0
  6
CONTINU
 62
     3
100
AcDbLine
 10
206.1261161883483
 20
186.7669519807718
 30
0.0
 11
203.7405421883483
 21
186.7669559807718
 31
0.0
  0
LINE
  5
1B3C
330
1A
100
AcDbEntity
  8
7
  6
GEN7A
100
AcDbLine
 10
203.8441381883483
 20
260.0423069107994
 30
0.0
 11
213.5906961883483
 21
260.0423069107994
 31
0.0
  0
LINE
  5
1B42
330
1A
100
AcDbEntity
  8
7
  6
GEN7A
100
AcDbLine
 10
202.1727441883483
 20
190.2669399807718
 30
0.0
 11
285.5578341883483
 21
190.2669399807718
 31
0.0
  0
CIRCLE
  5
1B43
330
1A
100
AcDbEntity
  8
0
  6
CONTINU
 62
     3
100
AcDbCircle
 10
103.7405421883483
 20
211.7669359807718
 30
0.0
 40
10.999988
  0
CIRCLE
  5
1B44
330
1A
100
AcDbEntity
  8
0
  6
CONTINU
 62
     3
100
AcDbCircle
 10
103.7405421883483
 20
211.7669359807718
 30
0.0
 40
9.99999
  0
CIRCLE
  5
1B45
330
1A
100
AcDbEntity
  8
0
  6
CONTINU
 62
     3
100
AcDbCircle
 10
103.7405421883483
 20
211.7669359807718
 30
0.0
 40
7.0
  0
LINE
  5
1B46
330
1A
100
AcDbEntity
  8
7
  6
GEN7A
100
AcDbLine
 10
105.7405421883483
 20
207.0405259807718
 30
0.0
 11
105.7405421883483
 21
215.7616859807718
 31
0.0
  0
ARC
  5
1B48
330
1A
100
AcDbEntity
  8
1
100
AcDbCircle
 10
103.7405421883483
 20
211.7669059807719
 30
0.0
 40
12.499998
100
AcDbArc
 50
359.9999540000006
 51
180.0
  0
ARC
  5
1B49
330
1A
100
AcDbEntity
  8
1
100
AcDbCircle
 10
103.7405421883483
 20
211.7669359807718
 30
0.0
 40
14.499998
100
AcDbArc
 50
90.0
 51
180.0
  0
ARC
  5
1B4A
330
1A
100
AcDbEntity
  8
1
100
AcDbCircle
 10
103.7405421883483
 20
211.7669359807718
 30
0.0
 40
14.499998
100
AcDbArc
 50
0.0
 51
90.0
  0
LINE
  5
1B4B
330
1A
100
AcDbEntity
  8
7
  6
GEN7A
100
AcDbLine
 10
103.7405421883483
 20
149.0021039807718
 30
0.0
 11
103.7405421883483
 21
229.9486079807718
 31
0.0
  0
ARC
  5
1B4C
330
1A
100
AcDbEntity
  8
1
100
AcDbCircle
 10
103.7405421883483
 20
168.7669579807718
 30
0.0
 40
12.499998
100
AcDbArc
 50
180.0
 51
0.0000169999994311
  0
LINE
  5
1B4D
330
1A
100
AcDbEntity
  8
1
100
AcDbLine
 10
116.2405421883483
 20
168.7669579807718
 30
0.0
 11
116.2405421883483
 21
211.7668979807718
 31
0.0
  0
LINE
  5
1B4E
330
1A
100
AcDbEntity
  8
1
100
AcDbLine
 10
91.24054218834828
 20
168.7669579807718
 30
0.0
 11
91.24054218834828
 21
211.7669059807719
 31
0.0
  0
LINE
  5
1B4F
330
1A
100
AcDbEntity
  8
1
100
AcDbLine
 10
89.24054218834829
 20
168.7669319807718
 30
0.0
 11
89.24054218834829
 21
211.7669359807718
 31
0.0
  0
LINE
  5
1B50
330
1A
100
AcDbEntity
  8
1
100
AcDbLine
 10
118.2405421883483
 20
168.7669279807718
 30
0.0
 11
118.2405421883483
 21
211.7669439807718
 31
0.0
  0
ARC
  5
1B51
330
1A
100
AcDbEntity
  8
1
100
AcDbCircle
 10
103.7405421883483
 20
168.7669279807718
 30
0.0
 40
14.499998
100
AcDbArc
 50
180.0
 51
359.9999850000001
  0
LINE
  5
1B52
330
1A
100
AcDbEntity
  8
0
  6
CONTINU
 62
     3
100
AcDbLine
 10
107.2405581883483
 20
193.7669279807718
 30
0.0
 11
100.2405421883483
 21
193.7669279807718
 31
0.0
  0
LINE
  5
1B53
330
1A
100
AcDbEntity
  8
0
  6
CONTINU
 62
     3
100
AcDbLine
 10
107.2405421883483
 20
186.7669359807718
 30
0.0
 11
100.2405581883483
 21
186.7669359807718
 31
0.0
  0
CIRCLE
  5
1B54
330
1A
100
AcDbEntity
  8
0
  6
CONTINU
 62
     3
100
AcDbCircle
 10
103.7405421883483
 20
190.2669319807718
 30
0.0
 40
4.999994
  0
CIRCLE
  5
1B55
330
1A
100
AcDbEntity
  8
0
  6
CONTINU
 62
     3
100
AcDbCircle
 10
103.7405421883483
 20
190.2669319807718
 30
0.0
 40
7.375
  0
CIRCLE
  5
1B56
330
1A
100
AcDbEntity
  8
0
  6
CONTINU
 62
     3
100
AcDbCircle
 10
103.7405421883483
 20
190.2669319807718
 30
0.0
 40
8.499992
  0
ARC
  5
1B57
330
1A
100
AcDbEntity
  8
0
  6
CONTINU
 62
     3
100
AcDbCircle
 10
105.7405421883483
 20
211.7669359807718
 30
0.0
 40
3.0
100
AcDbArc
 50
19.47114599999999
 51
160.5287510000006
  0
LINE
  5
1B58
330
1A
100
AcDbEntity
  8
0
  6
CONTINU
 62
     3
100
AcDbLine
 10
101.7405261883483
 20
212.7669359807718
 30
0.0
 11
110.6687501883482
 21
212.7669359807718
 31
0.0
  0
LINE
  5
1B59
330
1A
100
AcDbEntity
  8
0
  6
CONTINU
 62
     3
100
AcDbLine
 10
101.7405261883483
 20
210.7669359807718
 30
0.0
 11
110.6687501883482
 21
210.7669359807718
 31
0.0
  0
ARC
  5
1B5A
330
1A
100
AcDbEntity
  8
0
  6
CONTINU
 62
     3
100
AcDbCircle
 10
105.7405421883483
 20
211.7669359807718
 30
0.0
 40
3.0
100
AcDbArc
 50
199.4712370000005
 51
340.5288490000001
  0
LINE
  5
1B5B
330
1A
100
AcDbEntity
  8
7
  6
GEN7A
100
AcDbLine
 10
92.66781818834829
 20
211.7669359807718
 30
0.0
 11
114.7692281883482
 21
211.7669359807718
 31
0.0
  0
LINE
  5
1B5C
330
1A
100
AcDbEntity
  8
7
  6
GEN7A
100
AcDbLine
 10
86.5917381883483
 20
190.2669319807718
 30
0.0
 11
120.8716301883482
 21
190.2669319807718
 31
0.0
  0
LINE
  5
1B5D
330
1A
100
AcDbEntity
  8
0
  6
CONTINU
 62
     3
100
AcDbLine
 10
100.2405421883483
 20
186.7669159807718
 30
0.0
 11
100.2405421883483
 21
193.7669359807718
 31
0.0
  0
LINE
  5
1B5E
330
1A
100
AcDbEntity
  8
0
  6
CONTINU
 62
     3
100
AcDbLine
 10
101.7405421883483
 20
210.7669359807718
 30
0.0
 11
101.7405421883483
 21
212.7669359807718
 31
0.0
  0
LINE
  5
1B5F
330
1A
100
AcDbEntity
  8
0
  6
CONTINU
 62
     3
100
AcDbLine
 10
107.2405421883483
 20
186.7669159807718
 30
0.0
 11
107.2405421883483
 21
193.7669359807718
 31
0.0
  0
LINE
  5
1B61
330
1A
100
AcDbEntity
  8
0
  6
CONTINU
 62
     3
100
AcDbLine
 10
203.7405421883483
 20
192.6441399807718
 30
0.0
 11
203.7405421883483
 21
193.7669439807718
 31
0.0
  0
LINE
  5
1B62
330
1A
100
AcDbEntity
  8
0
  6
CONTINU
 62
     3
100
AcDbLine
 10
203.7405421883483
 20
189.4205119807718
 30
0.0
 11
203.7405421883483
 21
191.5413199807718
 31
0.0
  0
LINE
  5
1B63
330
1A
100
AcDbEntity
  8
0
  6
CONTINU
 62
     3
100
AcDbLine
 10
203.7405421883483
 20
186.7669559807718
 30
0.0
 11
203.7405421883483
 21
188.2752739807718
 31
0.0
  0
LINE
  5
1B67
330
1A
100
AcDbEntity
  8
1
100
AcDbLine
 10
281.1405441883483
 20
200.7669439807718
 30
0.0
 11
291.6405141883483
 21
200.7669439807718
 31
0.0
  0
LINE
  5
1B68
330
1A
100
AcDbEntity
  8
1
100
AcDbLine
 10
281.1405441883483
 20
222.7669439807718
 30
0.0
 11
291.6405141883483
 21
222.7669439807718
 31
0.0
  0
LINE
  5
1B69
330
1A
100
AcDbEntity
  8
0
  6
CONTINU
 62
     3
100
AcDbLine
 10
277.9001261883483
 20
211.7669439807718
 30
0.0
 11
283.9900621883483
 21
211.7669439807718
 31
0.0
  0
LINE
  5
1B6A
330
1A
100
AcDbEntity
  8
3A
  6
GEN3A
100
AcDbLine
 10
252.6405441883483
 20
206.7669439807718
 30
0.0
 11
252.6405441883483
 21
216.7669279807718
 31
0.0
  0
LINE
  5
1B6B
330
1A
100
AcDbEntity
  8
3A
  6
GEN3A
100
AcDbLine
 10
257.6405441883483
 20
200.7669279807718
 30
0.0
 11
257.6405441883483
 21
222.7669439807718
 31
0.0
  0
LINE
  5
1B6D
330
1A
100
AcDbEntity
  8
1
100
AcDbLine
 10
281.1405521883483
 20
156.2669359807718
 30
0.0
 11
281.1405521883483
 21
224.2669139807718
 31
0.0
  0
LINE
  5
1B6E
330
1A
100
AcDbEntity
  8
0
  6
CONTINU
 62
     3
100
AcDbLine
 10
256.1405441883483
 20
156.2669359807718
 30
0.0
 11
256.1405441883483
 21
224.2669439807718
 31
0.0
  0
LINE
  5
1B6F
330
1A
100
AcDbEntity
  8
1
100
AcDbLine
 10
238.7405461883483
 20
207.0169439807718
 30
0.0
 11
238.7405461883483
 21
216.5169439807718
 31
0.0
  0
LINE
  5
1B70
330
1A
100
AcDbEntity
  8
1
100
AcDbLine
 10
255.7405501883483
 20
156.0669359807718
 30
0.0
 11
255.7405501883483
 21
224.4669559807718
 31
0.0
  0
LINE
  5
1B71
330
1A
100
AcDbEntity
  8
1
100
AcDbLine
 10
243.7405461883483
 20
154.2669359807718
 30
0.0
 11
243.7405461883483
 21
226.2669439807718
 31
0.0
  0
LINE
  5
1B72
330
1A
100
AcDbEntity
  8
7
  6
GEN7A
100
AcDbLine
 10
233.5932341883483
 20
211.7669579807718
 30
0.0
 11
246.3315301883483
 21
211.7669579807718
 31
0.0
  0
LINE
  5
1B73
330
1A
100
AcDbEntity
  8
7
  6
GEN7A
100
AcDbLine
 10
233.5932301883483
 20
168.7669359807718
 30
0.0
 11
246.3315301883483
 21
168.7669359807718
 31
0.0
  0
LINE
  5
1B74
330
1A
100
AcDbEntity
  8
7
  6
GEN7A
100
AcDbLine
 10
233.5932041883483
 20
211.7669439807718
 30
0.0
 11
246.3315301883483
 21
211.7669439807718
 31
0.0
  0
LINE
  5
1B75
330
1A
100
AcDbEntity
  8
1
100
AcDbLine
 10
243.7405461883483
 20
154.2669359807718
 30
0.0
 11
253.9405461883482
 21
154.2669359807718
 31
0.0
  0
LINE
  5
1B77
330
1A
100
AcDbEntity
  8
0
  6
CONTINU
 62
     3
100
AcDbLine
 10
238.7405461883483
 20
163.6379839807718
 30
0.0
 11
238.7405461883483
 21
164.0169359807718
 31
0.0
  0
LINE
  5
1B78
330
1A
100
AcDbEntity
  8
0
  6
CONTINU
 62
     3
100
AcDbLine
 10
242.5705821883483
 20
162.8669379807718
 30
0.0
 11
243.7405461883483
 21
162.8669379807718
 31
0.0
  0
LINE
  5
1B79
330
1A
100
AcDbEntity
  8
0
  6
CONTINU
 62
     3
100
AcDbLine
 10
240.2092241883483
 20
162.8669379807718
 30
0.0
 11
241.4762901883483
 21
162.8669379807718
 31
0.0
  0
LINE
  5
1B7A
330
1A
100
AcDbEntity
  8
0
  6
CONTINU
 62
     3
100
AcDbLine
 10
238.7405461883483
 20
162.8669379807718
 30
0.0
 11
238.7405461883483
 21
163.2331719807718
 31
0.0
  0
LINE
  5
1B7B
330
1A
100
AcDbEntity
  8
0
  6
CONTINU
 62
     3
100
AcDbLine
 10
238.7405461883483
 20
162.8669379807718
 30
0.0
 11
239.4604981883483
 21
162.8669379807718
 31
0.0
  0
LINE
  5
1B7C
330
1A
100
AcDbEntity
  8
0
  6
CONTINU
 62
     3
100
AcDbLine
 10
238.7405461883483
 20
174.0618879807717
 30
0.0
 11
238.7405461883483
 21
173.5169359807718
 31
0.0
  0
LINE
  5
1B7D
330
1A
100
AcDbEntity
  8
0
  6
CONTINU
 62
     3
100
AcDbLine
 10
242.3978001883483
 20
174.6669379807718
 30
0.0
 11
243.7405461883483
 21
174.6669379807718
 31
0.0
  0
LINE
  5
1B7E
330
1A
100
AcDbEntity
  8
0
  6
CONTINU
 62
     3
100
AcDbLine
 10
240.4396001883483
 20
174.6669379807718
 30
0.0
 11
241.5338841883483
 21
174.6669379807718
 31
0.0
  0
LINE
  5
1B7F
330
1A
100
AcDbEntity
  8
0
  6
CONTINU
 62
     3
100
AcDbLine
 10
238.7405461883483
 20
174.6669379807718
 30
0.0
 11
238.7405461883483
 21
174.3401939807718
 31
0.0
  0
LINE
  5
1B80
330
1A
100
AcDbEntity
  8
0
  6
CONTINU
 62
     3
100
AcDbLine
 10
238.7405461883483
 20
174.6669379807718
 30
0.0
 11
239.5756861883483
 21
174.6669379807718
 31
0.0
  0
LINE
  5
1B81
330
1A
100
AcDbEntity
  8
1
100
AcDbLine
 10
238.7405461883483
 20
164.0169359807718
 30
0.0
 11
243.7405461883483
 21
164.0169359807718
 31
0.0
  0
LINE
  5
1B82
330
1A
100
AcDbEntity
  8
1
100
AcDbLine
 10
238.7405461883483
 20
173.5169359807718
 30
0.0
 11
243.7405421883483
 21
173.5169359807718
 31
0.0
  0
LINE
  5
1B83
330
1A
100
AcDbEntity
  8
1
100
AcDbLine
 10
238.7405461883483
 20
164.0169359807718
 30
0.0
 11
238.7405461883483
 21
173.5169359807718
 31
0.0
  0
LINE
  5
1B84
330
1A
100
AcDbEntity
  8
1
100
AcDbLine
 10
211.7405261883483
 20
186.7669399807718
 30
0.0
 11
243.7405541883483
 21
186.7669399807718
 31
0.0
  0
LINE
  5
1B85
330
1A
100
AcDbEntity
  8
1
100
AcDbLine
 10
211.7405261883483
 20
193.7669439807718
 30
0.0
 11
243.7405541883483
 21
193.7669439807718
 31
0.0
  0
LINE
  5
1B86
330
1A
100
AcDbEntity
  8
0
  6
CONTINU
 62
     3
100
AcDbLine
 10
208.9742541883483
 20
193.7669439807718
 30
0.0
 11
206.8062701883483
 21
193.7669439807718
 31
0.0
  0
LINE
  5
1B87
330
1A
100
AcDbEntity
  8
0
  6
CONTINU
 62
     3
100
AcDbLine
 10
209.0167601883483
 20
186.7669439807718
 30
0.0
 11
207.4864181883483
 21
186.7669479807718
 31
0.0
  0
LINE
  5
1B88
330
1A
100
AcDbEntity
  8
0
  6
CONTINU
 62
     3
100
AcDbLine
 10
211.7405261883483
 20
186.7669399807718
 30
0.0
 11
209.9519681883483
 21
186.7669439807718
 31
0.0
  0
LINE
  5
1B89
330
1A
100
AcDbEntity
  8
0
  6
CONTINU
 62
     3
100
AcDbLine
 10
211.7405421883483
 20
193.7669439807718
 30
0.0
 11
209.8244381883483
 21
193.7669439807718
 31
0.0
  0
LINE
  5
1B8A
330
1A
100
AcDbEntity
  8
1
100
AcDbLine
 10
211.7405421883483
 20
186.7669399807718
 30
0.0
 11
211.7405421883483
 21
193.7669439807718
 31
0.0
  0
LINE
  5
1B8B
330
1A
100
AcDbEntity
  8
1
100
AcDbLine
 10
242.2405461883483
 20
193.7669439807718
 30
0.0
 11
242.2405461883483
 21
196.2669439807718
 31
0.0
  0
LINE
  5
1B8C
330
1A
100
AcDbEntity
  8
1
100
AcDbLine
 10
242.2405161883483
 20
184.2669399807718
 30
0.0
 11
243.7405461883483
 21
184.2669399807718
 31
0.0
  0
LINE
  5
1B8D
330
1A
100
AcDbEntity
  8
1
100
AcDbLine
 10
242.2405161883483
 20
196.2669439807718
 30
0.0
 11
243.7405461883483
 21
196.2669439807718
 31
0.0
  0
LINE
  5
1B8E
330
1A
100
AcDbEntity
  8
1
100
AcDbLine
 10
242.2405461883483
 20
184.2669099807718
 30
0.0
 11
242.2405461883483
 21
186.7669399807718
 31
0.0
  0
LINE
  5
1B8F
330
1A
100
AcDbEntity
  8
0
  6
CONTINU
 62
     3
100
AcDbLine
 10
238.7405461883483
 20
206.6570799807718
 30
0.0
 11
238.7405461883483
 21
207.0169439807718
 31
0.0
  0
LINE
  5
1B90
330
1A
100
AcDbEntity
  8
0
  6
CONTINU
 62
     3
100
AcDbLine
 10
238.7405461883483
 20
205.8669419807718
 30
0.0
 11
238.7405461883483
 21
206.3368739807718
 31
0.0
  0
LINE
  5
1B91
330
1A
100
AcDbEntity
  8
0
  6
CONTINU
 62
     3
100
AcDbLine
 10
240.5925121883483
 20
205.8669419807718
 30
0.0
 11
241.6528641883483
 21
205.8669419807718
 31
0.0
  0
LINE
  5
1B92
330
1A
100
AcDbEntity
  8
0
  6
CONTINU
 62
     3
100
AcDbLine
 10
242.8457581883483
 20
205.8669419807718
 30
0.0
 11
243.7405461883483
 21
205.8669419807718
 31
0.0
  0
LINE
  5
1B93
330
1A
100
AcDbEntity
  8
0
  6
CONTINU
 62
     3
100
AcDbLine
 10
238.7405461883483
 20
205.8669419807718
 30
0.0
 11
239.6647061883482
 21
205.8669419807718
 31
0.0
  0
LINE
  5
1B94
330
1A
100
AcDbEntity
  8
1
100
AcDbLine
 10
238.7405461883483
 20
207.0169439807718
 30
0.0
 11
243.7405461883483
 21
207.0169439807718
 31
0.0
  0
LINE
  5
1B95
330
1A
100
AcDbEntity
  8
1
100
AcDbLine
 10
256.1405441883483
 20
156.2669359807718
 30
0.0
 11
281.1405581883483
 21
156.2669359807718
 31
0.0
  0
ARC
  5
1B96
330
1A
100
AcDbEntity
  8
1
100
AcDbCircle
 10
253.9405461883482
 20
156.0669359807718
 30
0.0
 40
1.8
100
AcDbArc
 50
270.0
 51
359.9999389999991
  0
LINE
  5
1B97
330
1A
100
AcDbEntity
  8
3A
  6
GEN3A
100
AcDbLine
 10
257.6405441883483
 20
200.7669439807718
 30
0.0
 11
281.1405441883483
 21
200.7669439807718
 31
0.0
  0
LINE
  5
1B98
330
1A
100
AcDbEntity
  8
3A
  6
GEN3A
100
AcDbLine
 10
252.6405441883483
 20
206.7669439807718
 30
0.0
 11
257.6405441883483
 21
206.7669439807718
 31
0.0
  0
LINE
  5
1B99
330
1A
100
AcDbEntity
  8
0
  6
CONTINU
 62
     3
100
AcDbLine
 10
249.9084421883483
 20
211.7669439807718
 30
0.0
 11
258.4916561883483
 21
211.7669439807718
 31
0.0
  0
LINE
  5
1B9A
330
1A
100
AcDbEntity
  8
0
  6
CONTINU
 62
     3
100
AcDbLine
 10
260.5125381883483
 20
211.7669439807718
 30
0.0
 11
261.8338801883483
 21
211.7669439807718
 31
0.0
  0
LINE
  5
1B9B
330
1A
100
AcDbEntity
  8
0
  6
CONTINU
 62
     3
100
AcDbLine
 10
263.7770341883483
 20
211.7669439807718
 30
0.0
 11
268.8292341883482
 21
211.7669439807718
 31
0.0
  0
LINE
  5
1B9C
330
1A
100
AcDbEntity
  8
0
  6
CONTINU
 62
     3
100
AcDbLine
 10
270.6946661883482
 20
211.7669439807718
 30
0.0
 11
272.3269061883483
 21
211.7669439807718
 31
0.0
  0
LINE
  5
1B9D
330
1A
100
AcDbEntity
  8
0
  6
CONTINU
 62
     3
100
AcDbLine
 10
274.5032441883483
 20
211.7669439807718
 30
0.0
 11
276.0916321883483
 21
211.7669439807718
 31
0.0
  0
LINE
  5
1B9F
330
1A
100
AcDbEntity
  8
1
100
AcDbLine
 10
243.7405461883483
 20
226.2669439807718
 30
0.0
 11
253.9405621883483
 21
226.2669439807718
 31
0.0
  0
LINE
  5
1BA0
330
1A
100
AcDbEntity
  8
0
  6
CONTINU
 62
     3
100
AcDbLine
 10
209.4648041883483
 20
261.5423289107994
 30
0.0
 11
209.4648041883483
 21
260.0423069107994
 31
0.0
  0
LINE
  5
1BA1
330
1A
100
AcDbEntity
  8
0
  6
CONTINU
 62
     3
100
AcDbLine
 10
211.9648421883483
 20
261.5422989107994
 30
0.0
 11
211.9648421883483
 21
260.0423069107994
 31
0.0
  0
LINE
  5
1BA2
330
1A
100
AcDbEntity
  8
0
  6
CONTINU
 62
     3
100
AcDbLine
 10
207.9648421883483
 20
263.0423069107994
 30
0.0
 11
207.9648421883483
 21
260.0423069107994
 31
0.0
  0
LINE
  5
1BA3
330
1A
100
AcDbEntity
  8
0
  6
CONTINU
 62
     3
100
AcDbLine
 10
209.4647861883483
 20
259.1423049107994
 30
0.0
 11
211.9648421883483
 21
259.1423049107994
 31
0.0
  0
LINE
  5
1BA4
330
1A
100
AcDbEntity
  8
0
  6
CONTINU
 62
     3
100
AcDbLine
 10
211.9648421883483
 20
258.5423149107994
 30
0.0
 11
211.9648421883483
 21
260.0423069107994
 31
0.0
  0
LINE
  5
1BA5
330
1A
100
AcDbEntity
  8
0
  6
CONTINU
 62
     3
100
AcDbLine
 10
209.4648041883483
 20
258.5422829107994
 30
0.0
 11
209.4648041883483
 21
260.0423069107994
 31
0.0
  0
LINE
  5
1BA6
330
1A
100
AcDbEntity
  8
0
  6
CONTINU
 62
     3
100
AcDbLine
 10
209.4648501883483
 20
258.5423069107994
 30
0.0
 11
211.9648201883483
 21
258.5423069107994
 31
0.0
  0
LINE
  5
1BA7
330
1A
100
AcDbEntity
  8
0
  6
CONTINU
 62
     3
100
AcDbLine
 10
209.4648041883483
 20
258.5422829107994
 30
0.0
 11
207.9648421883483
 21
257.0423209107994
 31
0.0
  0
LINE
  5
1BA8
330
1A
100
AcDbEntity
  8
0
  6
CONTINU
 62
     3
100
AcDbLine
 10
207.9648421883483
 20
257.0423069107994
 30
0.0
 11
207.9648421883483
 21
260.0423069107994
 31
0.0
  0
LINE
  5
1BA9
330
1A
100
AcDbEntity
  8
0
  6
CONTINU
 62
     3
100
AcDbLine
 10
238.7405461883483
 20
217.2609999807718
 30
0.0
 11
238.7405461883483
 21
217.6669459807718
 31
0.0
  0
LINE
  5
1BAA
330
1A
100
AcDbEntity
  8
0
  6
CONTINU
 62
     3
100
AcDbLine
 10
242.7794901883483
 20
217.6669459807718
 30
0.0
 11
243.7405461883483
 21
217.6669459807718
 31
0.0
  0
LINE
  5
1BAB
330
1A
100
AcDbEntity
  8
0
  6
CONTINU
 62
     3
100
AcDbLine
 10
240.3936941883483
 20
217.6669459807718
 30
0.0
 11
241.7191381883483
 21
217.6669459807718
 31
0.0
  0
LINE
  5
1BAC
330
1A
100
AcDbEntity
  8
0
  6
CONTINU
 62
     3
100
AcDbLine
 10
238.7405461883483
 20
216.5169439807718
 30
0.0
 11
238.7405461883483
 21
216.8422919807718
 31
0.0
  0
LINE
  5
1BAD
330
1A
100
AcDbEntity
  8
0
  6
CONTINU
 62
     3
100
AcDbLine
 10
238.7405461883483
 20
217.6669459807718
 30
0.0
 11
239.2008001883483
 21
217.6669459807718
 31
0.0
  0
LINE
  5
1BAE
330
1A
100
AcDbEntity
  8
1
100
AcDbLine
 10
238.7405461883483
 20
216.5169439807718
 30
0.0
 11
243.7405421883483
 21
216.5169439807718
 31
0.0
  0
LINE
  5
1BAF
330
1A
100
AcDbEntity
  8
0
  6
CONTINU
 62
     3
100
AcDbLine
 10
209.4647861883483
 20
260.9423089107994
 30
0.0
 11
211.9648461883483
 21
260.9423089107994
 31
0.0
  0
LINE
  5
1BB0
330
1A
100
AcDbEntity
  8
0
  6
CONTINU
 62
     3
100
AcDbLine
 10
209.4648501883483
 20
261.5423069107994
 30
0.0
 11
211.9648201883483
 21
261.5423069107994
 31
0.0
  0
LINE
  5
1BB1
330
1A
100
AcDbEntity
  8
0
  6
CONTINU
 62
     3
100
AcDbLine
 10
209.4648041883483
 20
261.5423289107994
 30
0.0
 11
207.9648421883483
 21
263.0422909107995
 31
0.0
  0
LINE
  5
1BB2
330
1A
100
AcDbEntity
  8
3A
  6
GEN3A
100
AcDbLine
 10
257.6405441883483
 20
222.7669439807718
 30
0.0
 11
281.1405441883483
 21
222.7669439807718
 31
0.0
  0
LINE
  5
1BB3
330
1A
100
AcDbEntity
  8
1
100
AcDbLine
 10
256.1405441883483
 20
224.2669439807718
 30
0.0
 11
281.1405581883483
 21
224.2669439807718
 31
0.0
  0
LINE
  5
1BB4
330
1A
100
AcDbEntity
  8
3A
  6
GEN3A
100
AcDbLine
 10
252.6405441883483
 20
216.7669439807718
 30
0.0
 11
257.6405441883483
 21
216.7669439807718
 31
0.0
  0
ARC
  5
1BB5
330
1A
100
AcDbEntity
  8
1
100
AcDbCircle
 10
253.9405461883482
 20
224.4669399807718
 30
0.0
 40
1.8
100
AcDbArc
 50
0.0
 51
90.0
  0
LINE
  5
1BB6
330
1A
100
AcDbEntity
  8
2
100
AcDbLine
 10
303.6405521883483
 20
201.7669439807718
 30
0.0
 11
303.6405521883483
 21
221.7669279807719
 31
0.0
  0
LINE
  5
1BB7
330
1A
100
AcDbEntity
  8
1
100
AcDbLine
 10
291.6405521883483
 20
200.7669279807718
 30
0.0
 11
291.6405521883483
 21
222.7669439807718
 31
0.0
  0
LINE
  5
1BB8
330
1A
100
AcDbEntity
  8
2
100
AcDbLine
 10
291.6405441883483
 20
201.7669439807718
 30
0.0
 11
303.6405441883483
 21
201.7669439807718
 31
0.0
  0
LINE
  5
1BB9
330
1A
100
AcDbEntity
  8
0
  6
CONTINU
 62
     3
100
AcDbLine
 10
290.6001461883483
 20
211.7669439807718
 30
0.0
 11
295.6523461883483
 21
211.7669439807718
 31
0.0
  0
LINE
  5
1BBA
330
1A
100
AcDbEntity
  8
0
  6
CONTINU
 62
     3
100
AcDbLine
 10
287.3356421883483
 20
211.7669439807718
 30
0.0
 11
288.6569921883483
 21
211.7669439807718
 31
0.0
  0
LINE
  5
1BBB
330
1A
100
AcDbEntity
  8
0
  6
CONTINU
 62
     3
100
AcDbLine
 10
301.3263501883483
 20
211.7669439807718
 30
0.0
 11
302.9147441883483
 21
211.7669439807718
 31
0.0
  0
LINE
  5
1BBC
330
1A
100
AcDbEntity
  8
0
  6
CONTINU
 62
     3
100
AcDbLine
 10
297.5177721883483
 20
211.7669439807718
 30
0.0
 11
299.1500201883483
 21
211.7669439807718
 31
0.0
  0
LINE
  5
1BBD
330
1A
100
AcDbEntity
  8
0
  6
CONTINU
 62
     3
100
AcDbLine
 10
304.7232381883483
 20
211.7669439807718
 30
0.0
 11
310.8131661883483
 21
211.7669439807718
 31
0.0
  0
LINE
  5
1BBE
330
1A
100
AcDbEntity
  8
2
100
AcDbLine
 10
291.6405441883483
 20
221.7669439807718
 30
0.0
 11
303.6405441883483
 21
221.7669439807718
 31
0.0
  0
LWPOLYLINE
  5
1CE3
330
1A
100
AcDbEntity
  8
AM_VIEWS
100
AcDbPolyline
 90
        4
 70
     1
 43
0.0
 10
58.98068176915263
 20
78.67511017718266
 10
365.3817146333096
 20
78.67511017718266
 10
365.3817146333096
 20
300.1798513438705
 10
58.98068176915263
 20
300.1798513438705
1001
GENIUS_GENSCREG_15
1040
2.0
1040
1.0
1011
58.98068176915263
1021
78.67511017718266
1031
0.0
1011
365.3817146333096
1021
300.1798513438705
1031
0.0
1070
     2
1001
GENIUS_GENODEF_13
1002
{
1000
HIER
1070
     0
1002
}
1002
{
1000
MANEDIT
1070
     0
1002
}
1002
{
1000
NOSEL
1070
     0
1002
}
1002
{
1000
BEHIND
1070
     0
1002
}
1002
{
1000
OTHER
1070
     0
1002
}
1002
{
1000
REACTOR
1002
}
1001
GENIUS_GENOBJ-N-SDF_13
1002
{
1000
OWNER
1000
GEN
1002
}
  0
DIMENSION
  5
1DB7
330
1A
100
AcDbEntity
  8
AM_5
100
AcDbDimension
  2
*D15
 10
118.2405421883483
 20
253.9486089807718
 30
0.0
 11
103.7405421883483
 21
260.4492979571498
 31
0.0
 70
    32
 71
     5
 42
29.0
 73
     0
 74
     0
 75
     0
  3
AM_ISO
100
AcDbAlignedDimension
 13
89.24054218834829
 23
211.7669359807718
 33
0.0
 14
118.2405421883483
 24
211.7669439807718
 34
0.0
100
AcDbRotatedDimension
1001
ACAD
1000
DSTYLE
1002
{
1070
    40
1040
2.0
1002
}
  0
DIMENSION
  5
1E19
330
1A
100
AcDbEntity
  8
AM_5
100
AcDbDimension
  2
*D16
 10
243.7405461883483
 20
140.1693148700365
 30
0.0
 11
274.1007528812606
 21
140.1693148700365
 31
0.0
 70
   160
 71
     5
 42
11.99999999999898
 73
     0
 74
     0
 75
     0
  3
AM_ISO
100
AcDbAlignedDimension
 13
255.7405461883472
 23
156.0669340644002
 33
0.0
 14
243.7405461883483
 24
154.2669359807718
 34
0.0
 50
0.0000000000001132
100
AcDbRotatedDimension
1001
ACAD
1000
DSTYLE
1002
{
1070
    40
1040
2.0
1002
}
  0
DIMENSION
  5
1E62
330
1A
100
AcDbEntity
  8
AM_5
100
AcDbDimension
  2
*D17
 10
243.7405461883483
 20
116.0944167700304
 30
0.0
 11
227.7405361883483
 21
122.5951057464083
 31
0.0
 70
    32
 71
     5
 42
32.00002000000001
 73
     0
 74
     0
 75
     0
  3
AM_ISO
100
AcDbAlignedDimension
 13
211.7405261883483
 23
186.7669399807718
 33
0.0
 14
243.7405461883483
 24
154.2669359807718
 34
0.0
 50
0.0000000000001132
100
AcDbRotatedDimension
1001
ACAD
1000
DSTYLE
1002
{
1070
    40
1040
2.0
1002
}
  0
DIMENSION
  5
1EA1
330
1A
100
AcDbEntity
  8
AM_5
100
AcDbDimension
  2
*D18
 10
243.7405461883483
 20
100.7975032343894
 30
0.0
 11
223.7405441883483
 21
107.2975032343894
 31
0.0
 70
    32
 71
     5
 42
40.00000399999999
 73
     0
 74
     0
 75
     0
  3
AM_ISO
100
AcDbAlignedDimension
 13
203.7405421883483
 23
186.7669559807718
 33
0.0
 14
243.7405461883483
 24
154.2669359807718
 34
0.0
 50
0.0000000000001132
100
AcDbRotatedDimension
1001
ACAD
1000
DSTYLE
1002
{
1070
    40
1040
2.0
1002
}
  0
DIMENSION
  5
1EE0
330
1A
100
AcDbEntity
  8
AM_5
100
AcDbDimension
  2
*D19
 10
281.1405521883483
 20
116.0944167700304
 30
0.0
 11
261.0481098952142
 21
116.0944167700304
 31
0.0
 70
   160
 71
     5
 42
37.40000600000002
 73
     0
 74
     0
 75
     0
  3
AM_ISO
100
AcDbAlignedDimension
 13
243.7405461883483
 23
154.2669359807718
 33
0.0
 14
281.1405521883483
 24
156.2669359807718
 34
0.0
 50
0.0000000000001132
100
AcDbRotatedDimension
1001
ACAD
1000
DSTYLE
1002
{
1070
    40
1040
2.0
1002
}
  0
DIMENSION
  5
1F1F
330
1A
100
AcDbEntity
  8
AM_5
100
AcDbDimension
  2
*D20
 10
227.2836649245706
 20
217.6669459807718
 30
0.0
 11
220.7836649245706
 21
241.7669459807719
 31
0.0
 70
    32
  1
%%c<>
 71
     5
 42
11.800004
 73
     0
 74
     0
 75
     0
  3
AM_ISO
100
AcDbAlignedDimension
 13
238.7405461883483
 23
205.8669419807718
 33
0.0
 14
238.7405461883483
 24
217.6669459807718
 34
0.0
 50
90.0
100
AcDbRotatedDimension
1001
ACAD
1000
DSTYLE
1002
{
1070
    40
1040
2.0
1002
}
  0
DIMENSION
  5
1F68
330
1A
100
AcDbEntity
  8
AM_5
100
AcDbDimension
  2
*D21
 10
225.1930986603244
 20
164.0169359807718
 30
0.0
 11
218.6930986603243
 21
140.8097310772113
 31
0.0
 70
    32
  1
%%c<>
 71
     5
 42
9.5
 73
     0
 74
     0
 75
     0
  3
AM_ISO
100
AcDbAlignedDimension
 13
238.7405461883483
 23
173.5169359807718
 33
0.0
 14
238.7405461883483
 24
164.0169359807718
 34
0.0
 50
90.00000000000003
100
AcDbRotatedDimension
1001
ACAD
1000
DSTYLE
1002
{
1070
    40
1040
2.0
1002
}
  0
DIMENSION
  5
1FB1
330
1A
100
AcDbEntity
  8
AM_5
100
AcDbDimension
  2
*D22
 10
189.4429684557216
 20
186.7669559807915
 30
0.0
 11
189.4429684557216
 21
190.2669499807817
 31
0.0
 70
   160
  1
{\Famgdt;o}<>
 71
     5
 42
6.999987999980277
 73
     0
 74
     0
 75
     0
  3
AM_ISO
100
AcDbAlignedDimension
 13
203.7405421883483
 23
193.7669439807718
 33
0.0
 14
203.7405304511513
 24
186.7669559807915
 34
0.0
 50
90.00000000000003
100
AcDbRotatedDimension
1001
ACAD
1000
DSTYLE
1002
{
1070
    40
1040
2.0
1002
}
  0
DIMENSION
  5
1FFA
330
1A
100
AcDbEntity
  8
AM_5
100
AcDbDimension
  2
*D23
 10
171.4453895067412
 20
168.7669359807718
 30
0.0
 11
164.9453895067412
 21
190.2669399807718
 31
0.0
 70
    32
 71
     5
 42
43.00000799999998
 73
     0
 74
     0
 75
     0
  3
AM_ISO
100
AcDbAlignedDimension
 13
233.5932041883483
 23
211.7669439807718
 33
0.0
 14
233.5932041883483
 24
168.7669359807718
 34
0.0
 50
90.00000000000003
100
AcDbRotatedDimension
1001
ACAD
1000
DSTYLE
1002
{
1070
    40
1040
2.0
1002
}
  0
DIMENSION
  5
2039
330
1A
100
AcDbEntity
  8
AM_5
100
AcDbDimension
  2
*D24
 10
151.4453895067413
 20
154.2669359807718
 30
0.0
 11
144.9447005303633
 21
190.2669399807718
 31
0.0
 70
    32
 71
     5
 42
72.00000799999997
 73
     0
 74
     0
 75
     0
  3
AM_ISO
100
AcDbAlignedDimension
 13
243.7405461883483
 23
226.2669439807718
 33
0.0
 14
243.7405461883483
 24
154.2669359807718
 34
0.0
 50
90.0
100
AcDbRotatedDimension
1001
ACAD
1000
DSTYLE
1002
{
1070
    40
1040
2.0
1002
}
  0
LINE
  5
20C2
330
1A
100
AcDbEntity
  8
5
  6
Continuous
 62
     3
100
AcDbLine
 10
247.0776161883483
 20
218.8866179807718
 30
0.0
 11
228.9830509252835
 21
259.9069413214712
 31
0.0
  0
LINE
  5
20C3
330
1A
100
AcDbEntity
  8
5
  6
Continuous
 62
     3
100
AcDbLine
 10
228.9830509252835
 20
259.9069413214712
 30
0.0
 11
217.1276111013757
 21
259.9069413214712
 31
0.0
  0
POLYLINE
  5
20CB
330
1A
100
AcDbEntity
  8
5
  6
Continuous
 62
     3
100
AcDb2dPolyline
 66
     1
 10
0.0
 20
0.0
 30
0.0
 70
     1
  0
VERTEX
  5
20CC
330
20CB
100
AcDbEntity
  8
5
  6
Continuous
 62
     3
100
AcDbVertex
100
AcDb2dVertex
 10
248.6405201883483
 20
217.8513619807718
 30
0.0
  0
VERTEX
  5
20CD
330
20CB
100
AcDbEntity
  8
5
  6
Continuous
 62
     3
100
AcDbVertex
100
AcDb2dVertex
 10
252.6405361883483
 20
218.8866259807718
 30
0.0
  0
VERTEX
  5
20CE
330
20CB
100
AcDbEntity
  8
5
  6
Continuous
 62
     3
100
AcDbVertex
100
AcDb2dVertex
 10
248.6405201883483
 20
219.9219039807718
 30
0.0
  0
SEQEND
  5
20CF
330
20CB
100
AcDbEntity
  8
5
  6
Continuous
 62
     3
  0
LINE
  5
20D1
330
1A
100
AcDbEntity
  8
5
  6
Continuous
 62
     3
100
AcDbLine
 10
247.0776161883483
 20
218.8866179807718
 30
0.0
 11
248.6405201883483
 21
218.8866179807718
 31
0.0
  0
TEXT
  5
20D4
330
1A
100
AcDbEntity
  8
AM_6
100
AcDbText
 10
255.478532479597
 20
259.2348579911454
 30
0.0
 40
7.0
  1
5617 DCA
100
AcDbText
1001
GENIUS_AMGTXT_16
1040
3.5
1040
0.12
  0
LINE
  5
2159
330
1A
100
AcDbEntity
  8
1
100
AcDbLine
 10
281.1405521883483
 20
193.7669279807718
 30
0.0
 11
294.7405521883483
 21
193.7669279807718
 31
0.0
  0
LINE
  5
215A
330
1A
100
AcDbEntity
  8
1
100
AcDbLine
 10
294.7405521883483
 20
193.7669279807718
 30
0.0
 11
294.7405521883483
 21
186.7669359807718
 31
0.0
  0
LINE
  5
215B
330
1A
100
AcDbEntity
  8
1
100
AcDbLine
 10
294.7405521883483
 20
186.7669359807718
 30
0.0
 11
281.1405521883483
 21
186.7669359807718
 31
0.0
  0
LINE
  5
215C
330
1A
100
AcDbEntity
  8
3A
  6
GEN3A
100
AcDbLine
 10
243.7405541883483
 20
193.7669439807718
 30
0.0
 11
281.1405521883483
 21
193.7669279807718
 31
0.0
  0
LINE
  5
215D
330
1A
100
AcDbEntity
  8
3A
  6
GEN3A
100
AcDbLine
 10
281.1405521883483
 20
186.7669359807718
 30
0.0
 11
243.7405541883483
 21
186.7669399807718
 31
0.0
  0
VIEWPORT
  5
22
330
17
100
AcDbEntity
 67
     1
  8
0
100
AcDbViewport
 10
112.2893422104056
 20
152.9962003562143
 30
0.0
 40
408.1687337183674
 41
318.4351405079092
 68
     1
 69
     1
 12
112.2893422104056
 22
152.9962003562143
 13
0.0
 23
0.0
 14
10.0
 24
10.0
 15
10.0
 25
10.0
 16
0.0
 26
0.0
 36
1.0
 17
0.0
 27
0.0
 37
0.0
 42
50.0
 43
0.0
 44
0.0
 45
318.4351405079092
 50
0.0
 51
0.0
 72
   100
331
1969
 90
    32800
  1

281
     0
 71
     1
 74
     0
110
0.0
120
0.0
130
0.0
111
1.0
121
0.0
131
0.0
112
0.0
122
1.0
132
0.0
 79
     0
146
0.0
170
     0
 61
     5
348
20E9
292
     1
282
     1
141
0.0
142
0.0
 63
   250
421
  3355443
1001
GENIUS_GENSCREG_15
1000
PF
1040
1.0
1000
DF
1040
1.0
1000
MIN
1011
11.7063398794879
1021
69.23822698240406
1031
0.0
1000
MAX
1011
146.8807982645257
1021
174.6953433489414
1031
0.0
1000
FLAGS
1070
     4
1001
GENIUS_GENOREF_13
1005
1677
  0
POINT
  5
1895
330
17
100
AcDbEntity
 67
     1
  8
AM_0
 60
     1
100
AcDbPoint
 10
0.0
 20
0.0
 30
0.0
  0
POINT
  5
189D
330
17
100
AcDbEntity
 67
     1
  8
AM_0
 60
     1
100
AcDbPoint
 10
0.0
 20
0.0
 30
0.0
  0
POINT
  5
1900
330
17
100
AcDbEntity
 67
     1
  8
AM_0
 60
     1
100
AcDbPoint
 10
0.0
 20
0.0
 30
0.0
  0
POINT
  5
1908
330
17
100
AcDbEntity
 67
     1
  8
AM_0
 60
     1
100
AcDbPoint
 10
0.0
 20
0.0
 30
0.0
  0
ENDSEC
  0
SECTION
  2
OBJECTS
  0
DICTIONARY
  5
C
330
0
100
AcDbDictionary
281
     1
  3
ACAD_COLOR
350
20F4
  3
ACAD_GROUP
350
D
  3
ACAD_LAYOUT
350
167
  3
ACAD_MATERIAL
350
20DF
  3
ACAD_MLEADERSTYLE
350
2198
  3
ACAD_MLINESTYLE
350
E
  3
ACAD_PLOTSETTINGS
350
168
  3
ACAD_PLOTSTYLENAME
350
165
  3
ACAD_SCALELIST
350
2186
  3
ACAD_TABLESTYLE
350
20F5
  3
ACAD_VISUALSTYLE
350
20E3
  3
ACDB_RECOMPOSE_DATA
350
2201
  3
ACDBVARIABLEDICTIONARY
350
5D
  3
ACMDICTIONARY
350
142
  3
AMG
350
171
  3
AMG_3D2D_DICT
350
18A8
  3
AMGSNAPSETTINGS
350
1F2
  3
MAPISURF_MODULE
350
17FD
  0
DICTIONARY
  5
21C3
330
F
100
AcDbDictionary
280
     1
281
     1
  3
ADSK_XREC_LAYER_RECONCILED
360
21C4
  0
DICTIONARY
  5
21C5
330
35A
100
AcDbDictionary
280
     1
281
     1
  3
ADSK_XREC_LAYER_RECONCILED
360
21C6
  0
DICTIONARY
  5
21C7
330
35B
100
AcDbDictionary
280
     1
281
     1
  3
ADSK_XREC_LAYER_RECONCILED
360
21C8
  0
DICTIONARY
  5
21C9
330
35C
100
AcDbDictionary
280
     1
281
     1
  3
ADSK_XREC_LAYER_RECONCILED
360
21CA
  0
DICTIONARY
  5
21CB
330
35D
100
AcDbDictionary
280
     1
281
     1
  3
ADSK_XREC_LAYER_RECONCILED
360
21CC
  0
DICTIONARY
  5
21CD
330
35E
100
AcDbDictionary
280
     1
281
     1
  3
ADSK_XREC_LAYER_RECONCILED
360
21CE
  0
DICTIONARY
  5
21CF
330
35F
100
AcDbDictionary
280
     1
281
     1
  3
ADSK_XREC_LAYER_RECONCILED
360
21D0
  0
DICTIONARY
  5
21D1
330
360
100
AcDbDictionary
280
     1
281
     1
  3
ADSK_XREC_LAYER_RECONCILED
360
21D2
  0
DICTIONARY
  5
21D3
330
361
100
AcDbDictionary
280
     1
281
     1
  3
ADSK_XREC_LAYER_RECONCILED
360
21D4
  0
DICTIONARY
  5
21D5
330
362
100
AcDbDictionary
280
     1
281
     1
  3
ADSK_XREC_LAYER_RECONCILED
360
21D6
  0
DICTIONARY
  5
21D7
330
38E
100
AcDbDictionary
280
     1
281
     1
  3
ADSK_XREC_LAYER_RECONCILED
360
21D8
  0
DICTIONARY
  5
21D9
330
3F7
100
AcDbDictionary
280
     1
281
     1
  3
ADSK_XREC_LAYER_RECONCILED
360
21DA
  0
DICTIONARY
  5
21DB
330
5FC
100
AcDbDictionary
280
     1
281
     1
  3
ADSK_XREC_LAYER_RECONCILED
360
21DC
  0
DICTIONARY
  5
21DD
330
614
100
AcDbDictionary
280
     1
281
     1
  3
ADSK_XREC_LAYER_RECONCILED
360
21DE
  0
DICTIONARY
  5
21DF
330
79B
100
AcDbDictionary
280
     1
281
     1
  3
ADSK_XREC_LAYER_RECONCILED
360
21E0
  0
DICTIONARY
  5
21E1
330
1054
100
AcDbDictionary
280
     1
281
     1
  3
ADSK_XREC_LAYER_RECONCILED
360
21E2
  0
DICTIONARY
  5
21E3
330
106E
100
AcDbDictionary
280
     1
281
     1
  3
ADSK_XREC_LAYER_RECONCILED
360
21E4
  0
DICTIONARY
  5
21E5
330
106F
100
AcDbDictionary
280
     1
281
     1
  3
ADSK_XREC_LAYER_RECONCILED
360
21E6
  0
DICTIONARY
  5
21E7
330
108B
100
AcDbDictionary
280
     1
281
     1
  3
ADSK_XREC_LAYER_RECONCILED
360
21E8
  0
DICTIONARY
  5
21E9
330
1969
100
AcDbDictionary
280
     1
281
     1
  3
ADSK_XREC_LAYER_RECONCILED
360
21EA
  0
DICTIONARY
  5
21EB
330
1A9D
100
AcDbDictionary
280
     1
281
     1
  3
ADSK_XREC_LAYER_RECONCILED
360
21EC
  0
DICTIONARY
  5
21ED
330
1A9E
100
AcDbDictionary
280
     1
281
     1
  3
ADSK_XREC_LAYER_RECONCILED
360
21EE
  0
DICTIONARY
  5
21EF
330
1A9F
100
AcDbDictionary
280
     1
281
     1
  3
ADSK_XREC_LAYER_RECONCILED
360
21F0
  0
DICTIONARY
  5
21F1
330
1AA0
100
AcDbDictionary
280
     1
281
     1
  3
ADSK_XREC_LAYER_RECONCILED
360
21F2
  0
DICTIONARY
  5
21F3
330
1AA1
100
AcDbDictionary
280
     1
281
     1
  3
ADSK_XREC_LAYER_RECONCILED
360
21F4
  0
DICTIONARY
  5
21F5
330
1AA2
100
AcDbDictionary
280
     1
281
     1
  3
ADSK_XREC_LAYER_RECONCILED
360
21F6
  0
DICTIONARY
  5
21F7
330
1AA3
100
AcDbDictionary
280
     1
281
     1
  3
ADSK_XREC_LAYER_RECONCILED
360
21F8
  0
DICTIONARY
  5
12A
330
1A
100
AcDbDictionary
280
     1
281
     1
  3
ACAD_INDEX
360
2166
  0
DICTIONARY
  5
20F4
102
{ACAD_REACTORS
330
C
102
}
330
C
100
AcDbDictionary
281
     1
  0
DICTIONARY
  5
D
102
{ACAD_REACTORS
330
C
102
}
330
C
100
AcDbDictionary
281
     1
  0
DICTIONARY
  5
167
102
{ACAD_REACTORS
330
C
102
}
330
C
100
AcDbDictionary
281
     1
  3
A0
350
351
  3
A1
350
314
  3
A2
350
349
  3
A3
350
2E1
  3
A4
350
16A
  3
Model
350
169
  0
DICTIONARY
  5
20DF
102
{ACAD_REACTORS
330
C
102
}
330
C
100
AcDbDictionary
281
     1
  3
ByBlock
350
20E1
  3
ByLayer
350
20E0
  3
Global
350
20E2
  0
DICTIONARY
  5
2198
102
{ACAD_REACTORS
330
C
102
}
330
C
100
AcDbDictionary
281
     1
  3
Standard
350
2199
  0
DICTIONARY
  5
E
102
{ACAD_REACTORS
330
C
102
}
330
C
100
AcDbDictionary
281
     1
  3
STANDARD
350
13
  0
DICTIONARY
  5
168
102
{ACAD_REACTORS
330
C
102
}
330
C
100
AcDbDictionary
281
     1
  3
A0
350
2EE
  3
A0-A3
350
2F2
  3
A0-A4
350
2F3
  3
A1
350
2ED
  3
A2
350
2EA
  3
A3
350
31E
  3
A4
350
319
  0
ACDBDICTIONARYWDFLT
  5
165
102
{ACAD_REACTORS
330
C
102
}
330
C
100
AcDbDictionary
281
     1
  3
Normal
350
166
100
AcDbDictionaryWithDefault
340
166
  0
DICTIONARY
  5
2186
102
{ACAD_REACTORS
330
C
102
}
330
C
100
AcDbDictionary
281
     1
  3
A0
350
2187
  3
A1
350
2188
  3
A2
350
2189
  3
A3
350
218A
  3
A4
350
218B
  3
A5
350
218C
  3
A6
350
218D
  3
A7
350
218E
  3
A8
350
218F
  3
A9
350
2190
  3
B0
350
2191
  3
B1
350
2192
  3
B2
350
2193
  3
B3
350
2194
  3
B4
350
2195
  3
B5
350
2196
  3
B6
350
2197
  0
DICTIONARY
  5
20F5
102
{ACAD_REACTORS
330
C
102
}
330
C
100
AcDbDictionary
281
     1
  3
Standard
350
20F6
  0
DICTIONARY
  5
20E3
102
{ACAD_REACTORS
330
C
102
}
330
C
100
AcDbDictionary
281
     1
  3
2dWireframe
350
20E9
  3
3D Hidden
350
20EB
  3
3dWireframe
350
20EA
  3
Basic
350
20E8
  3
Brighten
350
20EF
  3
ColorChange
350
20F3
  3
Conceptual
350
20EC
  3
Dim
350
20EE
  3
Facepattern
350
20F2
  3
Flat
350
20E4
  3
FlatWithEdges
350
20E5
  3
Gouraud
350
20E6
  3
GouraudWithEdges
350
20E7
  3
Linepattern
350
20F1
  3
Realistic
350
20ED
  3
Thicken
350
20F0
  0
XRECORD
  5
2201
102
{ACAD_REACTORS
330
C
102
}
330
C
100
AcDbXrecord
280
     1
 90
        1
330
20F6
  0
DICTIONARY
  5
5D
102
{ACAD_REACTORS
330
C
102
}
330
C
100
AcDbDictionary
281
     1
  3
CANNOSCALE
350
21FB
  3
CMLEADERSTYLE
350
21F9
  3
CTABLESTYLE
350
2184
  3
DIMADEC
350
5E
  3
INDEXCTL
350
128
  3
LAYEREVAL
350
21FD
  3
LAYERNOTIFY
350
21FE
  3
LIGHTINGUNITS
350
21FC
  3
MSLTSCALE
350
21FA
  3
SORTENTS
350
1044
  0
DICTIONARY
  5
142
102
{ACAD_REACTORS
330
C
102
}
330
C
100
AcDbDictionary
281
     1
  3
ACMSTDDICTIONARY
350
143
  3
AMDTSECTSYM_ARROWCOLOR
350
213D
  0
DICTIONARY
  5
171
102
{ACAD_REACTORS
330
C
102
}
330
C
100
AcDbDictionary
281
     1
  3
AcMgSettings
350
172
  3
AMGLAYCFG
350
174
  0
DICTIONARY
  5
18A8
102
{ACAD_REACTORS
330
C
102
}
330
C
100
AcDbDictionary
281
     1
  3
AMG_SUBLIST_DICT
350
18A9
  0
DICTIONARY
  5
1F2
102
{ACAD_REACTORS
330
C
102
}
330
C
100
AcDbDictionary
281
     1
  3
DIMENSION
350
164B
  3
FEA
350
164C
  3
HATCH
350
164D
  3
SYMBOLS
350
164E
  0
XRECORD
  5
21C4
102
{ACAD_REACTORS
330
21C3
102
}
330
21C3
100
AcDbXrecord
280
     1
290
     1
  0
XRECORD
  5
21C6
102
{ACAD_REACTORS
330
21C5
102
}
330
21C5
100
AcDbXrecord
280
     1
290
     1
  0
XRECORD
  5
21C8
102
{ACAD_REACTORS
330
21C7
102
}
330
21C7
100
AcDbXrecord
280
     1
290
     1
  0
XRECORD
  5
21CA
102
{ACAD_REACTORS
330
21C9
102
}
330
21C9
100
AcDbXrecord
280
     1
290
     1
  0
XRECORD
  5
21CC
102
{ACAD_REACTORS
330
21CB
102
}
330
21CB
100
AcDbXrecord
280
     1
290
     1
  0
XRECORD
  5
21CE
102
{ACAD_REACTORS
330
21CD
102
}
330
21CD
100
AcDbXrecord
280
     1
290
     1
  0
XRECORD
  5
21D0
102
{ACAD_REACTORS
330
21CF
102
}
330
21CF
100
AcDbXrecord
280
     1
290
     1
  0
XRECORD
  5
21D2
102
{ACAD_REACTORS
330
21D1
102
}
330
21D1
100
AcDbXrecord
280
     1
290
     1
  0
XRECORD
  5
21D4
102
{ACAD_REACTORS
330
21D3
102
}
330
21D3
100
AcDbXrecord
280
     1
290
     1
  0
XRECORD
  5
21D6
102
{ACAD_REACTORS
330
21D5
102
}
330
21D5
100
AcDbXrecord
280
     1
290
     1
  0
XRECORD
  5
21D8
102
{ACAD_REACTORS
330
21D7
102
}
330
21D7
100
AcDbXrecord
280
     1
290
     1
  0
XRECORD
  5
21DA
102
{ACAD_REACTORS
330
21D9
102
}
330
21D9
100
AcDbXrecord
280
     1
290
     1
  0
XRECORD
  5
21DC
102
{ACAD_REACTORS
330
21DB
102
}
330
21DB
100
AcDbXrecord
280
     1
290
     1
  0
XRECORD
  5
21DE
102
{ACAD_REACTORS
330
21DD
102
}
330
21DD
100
AcDbXrecord
280
     1
290
     1
  0
XRECORD
  5
21E0
102
{ACAD_REACTORS
330
21DF
102
}
330
21DF
100
AcDbXrecord
280
     1
290
     1
  0
XRECORD
  5
21E2
102
{ACAD_REACTORS
330
21E1
102
}
330
21E1
100
AcDbXrecord
280
     1
290
     1
  0
XRECORD
  5
21E4
102
{ACAD_REACTORS
330
21E3
102
}
330
21E3
100
AcDbXrecord
280
     1
290
     1
  0
XRECORD
  5
21E6
102
{ACAD_REACTORS
330
21E5
102
}
330
21E5
100
AcDbXrecord
280
     1
290
     1
  0
XRECORD
  5
21E8
102
{ACAD_REACTORS
330
21E7
102
}
330
21E7
100
AcDbXrecord
280
     1
290
     1
  0
XRECORD
  5
21EA
102
{ACAD_REACTORS
330
21E9
102
}
330
21E9
100
AcDbXrecord
280
     1
290
     1
  0
XRECORD
  5
21EC
102
{ACAD_REACTORS
330
21EB
102
}
330
21EB
100
AcDbXrecord
280
     1
290
     1
  0
XRECORD
  5
21EE
102
{ACAD_REACTORS
330
21ED
102
}
330
21ED
100
AcDbXrecord
280
     1
290
     1
  0
XRECORD
  5
21F0
102
{ACAD_REACTORS
330
21EF
102
}
330
21EF
100
AcDbXrecord
280
     1
290
     1
  0
XRECORD
  5
21F2
102
{ACAD_REACTORS
330
21F1
102
}
330
21F1
100
AcDbXrecord
280
     1
290
     1
  0
XRECORD
  5
21F4
102
{ACAD_REACTORS
330
21F3
102
}
330
21F3
100
AcDbXrecord
280
     1
290
     1
  0
XRECORD
  5
21F6
102
{ACAD_REACTORS
330
21F5
102
}
330
21F5
100
AcDbXrecord
280
     1
290
     1
  0
XRECORD
  5
21F8
102
{ACAD_REACTORS
330
21F7
102
}
330
21F7
100
AcDbXrecord
280
     1
290
     1
  0
DICTIONARY
  5
2166
102
{ACAD_REACTORS
330
12A
102
}
330
12A
100
AcDbDictionary
281
     1
  3
*A1
350
2167
  0
LAYOUT
  5
351
102
{ACAD_REACTORS
330
167
102
}
330
167
100
AcDbPlotSettings
  1
A0
  2
HPDJ220-A0
  4
User268
  6

 40
4.995333194732666
 41
16.93336677551269
 42
4.99530029296875
 43
16.933349609375
 44
840.9093017578125
 45
1188.8046875
 46
0.0
 47
0.0
 48
0.0
 49
0.0
140
0.0
141
0.0
142
1.0
143
1.0
 70
   752
 72
     1
 73
     1
 74
     5
  7
PLA0.ctb
 75
    16
147
1.0
 76
     0
 77
     2
 78
   300
148
0.0
149
0.0
100
AcDbLayout
  1
A0
 70
     1
 71
     5
 10
-16.933349609375
 20
-4.995333194732666
 11
1171.871337890625
 21
835.9139685630799
 12
0.0
 22
0.0
 32
0.0
 14
1.000000000000000E+20
 24
1.000000000000000E+20
 34
1.000000000000000E+20
 15
-1.000000000000000E+20
 25
-1.000000000000000E+20
 35
-1.000000000000000E+20
146
0.0
 13
0.0
 23
0.0
 33
0.0
 16
1.0
 26
0.0
 36
0.0
 17
0.0
 27
1.0
 37
0.0
 76
     0
330
34D
331
34E
  0
LAYOUT
  5
314
102
{ACAD_REACTORS
330
167
102
}
330
167
100
AcDbPlotSettings
  1
A2
  2
HPDJ220-A0
  4
User266
  6

 40
4.995333194732666
 41
16.93330574035644
 42
4.995330810546875
 43
16.933349609375
 44
419.9466552734374
 45
593.8519897460937
 46
0.0
 47
0.0
 48
0.0
 49
0.0
140
0.0
141
0.0
142
1.0
143
1.0
 70
   752
 72
     1
 73
     1
 74
     5
  7
PLA2.ctb
 75
    16
147
1.0
 76
     0
 77
     2
 78
   300
148
0.0
149
0.0
100
AcDbLayout
  1
A1
 70
     1
 71
     4
 10
-16.933349609375
 20
-4.995333194732666
 11
576.9186401367187
 21
414.9513220787047
 12
0.0
 22
0.0
 32
0.0
 14
1.000000000000000E+20
 24
1.000000000000000E+20
 34
1.000000000000000E+20
 15
-1.000000000000000E+20
 25
-1.000000000000000E+20
 35
-1.000000000000000E+20
146
0.0
 13
0.0
 23
0.0
 33
0.0
 16
1.0
 26
0.0
 36
0.0
 17
0.0
 27
1.0
 37
0.0
 76
     0
330
313
331
344
  0
LAYOUT
  5
349
102
{ACAD_REACTORS
330
167
102
}
330
167
100
AcDbPlotSettings
  1
A2
  2
HPDJ220-A0
  4
User266
  6

 40
4.995333194732666
 41
16.93330574035644
 42
4.995330810546875
 43
16.933349609375
 44
419.9466552734374
 45
593.8519897460937
 46
0.0
 47
0.0
 48
0.0
 49
0.0
140
0.0
141
0.0
142
1.0
143
1.0
 70
   752
 72
     1
 73
     1
 74
     5
  7
PLA2.ctb
 75
    16
147
1.0
 76
     0
 77
     2
 78
   300
148
0.0
149
0.0
100
AcDbLayout
  1
A2
 70
     1
 71
     3
 10
-16.933349609375
 20
-4.995333194732666
 11
576.9186401367187
 21
414.9513220787047
 12
0.0
 22
0.0
 32
0.0
 14
1.000000000000000E+20
 24
1.000000000000000E+20
 34
1.000000000000000E+20
 15
-1.000000000000000E+20
 25
-1.000000000000000E+20
 35
-1.000000000000000E+20
146
0.0
 13
0.0
 23
0.0
 33
0.0
 16
1.0
 26
0.0
 36
0.0
 17
0.0
 27
1.0
 37
0.0
 76
     0
330
345
331
346
  0
LAYOUT
  5
2E1
102
{ACAD_REACTORS
330
167
102
}
330
167
100
AcDbPlotSettings
  1
A3
  2
\\GLUTZCH_PDC\HP LaserJet 5000 N PCL 6
  4
A3
  6

 40
5.027083396911621
 41
5.111741065979003
 42
5.11175537109375
 43
5.027069091796875
 44
297.0106506347656
 45
419.9889831542968
 46
0.0
 47
0.0
 48
0.0
 49
0.0
140
0.0
141
0.0
142
1.0
143
1.0
 70
   752
 72
     1
 73
     1
 74
     5
  7
LAA3.ctb
 75
    16
147
1.0
 76
     0
 77
     2
 78
   300
148
0.0
149
0.0
100
AcDbLayout
  1
A3
 70
     1
 71
     2
 10
-5.027069091796875
 20
-5.027083396911621
 11
414.9619140625
 21
291.983567237854
 12
0.0
 22
0.0
 32
0.0
 14
1.000000000000000E+20
 24
1.000000000000000E+20
 34
1.000000000000000E+20
 15
-1.000000000000000E+20
 25
-1.000000000000000E+20
 35
-1.000000000000000E+20
146
0.0
 13
0.0
 23
0.0
 33
0.0
 16
1.0
 26
0.0
 36
0.0
 17
0.0
 27
1.0
 37
0.0
 76
     0
330
2E0
331
31D
  0
LAYOUT
  5
16A
102
{ACAD_REACTORS
330
167
102
}
330
167
100
AcDbPlotSettings
  1
A4
  2
\\GLUTZCH_PDC\HP LaserJet 5000 N PCL 6
  4
A4
  6

 40
5.027083396911621
 41
5.111741065979003
 42
5.11175537109375
 43
5.027069091796875
 44
210.0156707763672
 45
297.0106506347656
 46
0.0
 47
0.0
 48
0.0
 49
0.0
140
0.0
141
0.0
142
1.0
143
1.0
 70
   752
 72
     1
 73
     0
 74
     5
  7
LAA4.ctb
 75
    16
147
1.0
 76
     0
 77
     2
 78
   300
148
0.0
149
0.0
100
AcDbLayout
  1
A4
 70
     1
 71
     1
 10
-5.027083396911621
 20
-5.111741065979003
 11
204.9885873794556
 21
291.8989095687866
 12
0.0
 22
0.0
 32
0.0
 14
1.000000000000000E+20
 24
1.000000000000000E+20
 34
1.000000000000000E+20
 15
-1.000000000000000E+20
 25
-1.000000000000000E+20
 35
-1.000000000000000E+20
146
0.0
 13
0.0
 23
0.0
 33
0.0
 16
1.0
 26
0.0
 36
0.0
 17
0.0
 27
1.0
 37
0.0
 76
     0
330
17
331
22
  0
LAYOUT
  5
169
102
{ACAD_REACTORS
330
167
102
}
330
167
100
AcDbPlotSettings
  1

  2
none_device
  4
ISO_A4_(210.00_x_297.00_MM)
  6

 40
7.5
 41
20.0
 42
7.5
 43
20.0
 44
210.0
 45
297.0
 46
0.0
 47
0.0
 48
0.0
 49
0.0
140
0.0
141
0.0
142
1.0
143
1.785123441343543
 70
 11952
 72
     1
 73
     1
 74
     0
  7

 75
     0
147
0.5601853501219875
 76
     0
 77
     2
 78
   300
148
203.0435634891768
149
121.1797648154232
100
AcDbLayout
  1
Model
 70
     1
 71
     0
 10
0.0
 20
0.0
 11
12.0
 21
9.0
 12
0.0
 22
0.0
 32
0.0
 14
0.0
 24
0.0
 34
0.0
 15
0.0
 25
0.0
 35
0.0
146
0.0
 13
0.0
 23
0.0
 33
0.0
 16
1.0
 26
0.0
 36
0.0
 17
0.0
 27
1.0
 37
0.0
 76
     0
330
1A
331
20DD
1001
ACAD_PSEXT
1000
Kein
1000
Kein
1000
Nicht anwendbar
1000
Das Layout wird erst geplottet, wenn ein neuer Plotter-Konfigurationsname ausgewählt wird.
1070
     0
  0
MATERIAL
  5
20E1
102
{ACAD_REACTORS
330
20DF
102
}
330
20DF
100
AcDbMaterial
  1
ByBlock
 73
     1
 78
     1
172
     1
176
     1
270
     1
274
     1
 94
       63
  0
MATERIAL
  5
20E0
102
{ACAD_REACTORS
330
20DF
102
}
330
20DF
100
AcDbMaterial
  1
ByLayer
 73
     1
 78
     1
172
     1
176
     1
270
     1
274
     1
 94
       63
  0
MATERIAL
  5
20E2
102
{ACAD_REACTORS
330
20DF
102
}
330
20DF
100
AcDbMaterial
  1
Global
 73
     1
 78
     1
172
     1
176
     1
270
     1
274
     1
 94
       63
  0
MLEADERSTYLE
  5
2199
102
{ACAD_REACTORS
330
2198
102
}
330
2198
100
AcDbMLeaderStyle
170
     2
171
     1
172
     0
 90
        2
 40
0.0
 41
0.0
173
     1
 91
-1056964608
340
14
 92
       -2
290
     1
 42
2.0
291
     1
 43
0.36
  3
Standard
 44
4.0
300

342
10
174
     1
178
     6
175
     1
176
     0
 93
-1056964608
 45
4.0
292
     0
297
     0
 46
4.0
 94
-1056964608
 47
1.0
 49
1.0
140
1.0
293
     1
141
0.0
294
     1
177
     0
142
1.0
295
     0
296
     0
143
0.125
1001
ACAD_MLEADERVER
1070
     2
  0
MLINESTYLE
  5
13
102
{ACAD_REACTORS
330
E
102
}
330
E
100
AcDbMlineStyle
  2
STANDARD
 70
     0
  3

 62
     0
 51
90.0
 52
90.0
 71
     2
 49
0.5
 62
   256
  6
BYLAYER
 49
-0.5
 62
   256
  6
BYLAYER
  0
PLOTSETTINGS
  5
2EE
102
{ACAD_REACTORS
330
168
102
}
330
168
100
AcDbPlotSettings
  1
A0
  2
HPDJ220-A0
  4
User268
  6

 40
4.995333194732666
 41
16.93336677551269
 42
4.99530029296875
 43
16.933349609375
 44
840.9093017578125
 45
1188.8046875
 46
0.0
 47
0.0
 48
0.0
 49
0.0
140
0.0
141
0.0
142
1.0
143
1.0
 70
   752
 72
     1
 73
     1
 74
     5
  7
PLA0.ctb
 75
    16
147
1.0
 76
     0
 77
     2
 78
   300
148
0.0
149
0.0
  0
PLOTSETTINGS
  5
2F2
102
{ACAD_REACTORS
330
168
102
}
330
168
100
AcDbPlotSettings
  1
A0-A3
  2
\\GLUTZCH_PDC\HP LaserJet 5000 N PCL 6
  4
A3
  6

 40
5.027083396911621
 41
5.111741065979003
 42
5.11175537109375
 43
5.027069091796875
 44
297.0106506347656
 45
419.9889831542968
 46
0.0
 47
0.0
 48
0.0
 49
0.0
140
0.0
141
0.0
142
1.0
143
1.0
 70
   752
 72
     1
 73
     1
 74
     5
  7
LAA0-A3.ctb
 75
     0
147
1.0
 76
     0
 77
     2
 78
   300
148
0.0
149
0.0
  0
PLOTSETTINGS
  5
2F3
102
{ACAD_REACTORS
330
168
102
}
330
168
100
AcDbPlotSettings
  1
A0-A4
  2
\\GLUTZCH_PDC\HP LaserJet 5000 N PCL 6
  4
A4
  6

 40
5.027083396911621
 41
5.111741065979003
 42
5.11175537109375
 43
5.027069091796875
 44
210.0156707763672
 45
297.0106506347656
 46
0.0
 47
0.0
 48
0.0
 49
0.0
140
0.0
141
0.0
142
1.0
143
1.0
 70
   752
 72
     1
 73
     0
 74
     5
  7
LAA0-A4.ctb
 75
     0
147
1.0
 76
     0
 77
     2
 78
   300
148
0.0
149
0.0
  0
PLOTSETTINGS
  5
2ED
102
{ACAD_REACTORS
330
168
102
}
330
168
100
AcDbPlotSettings
  1
A1
  2
HPDJ220-A0
  4
User267
  6

 40
4.995333194732666
 41
16.93330574035644
 42
4.99530029296875
 43
16.933349609375
 44
593.9366455078125
 45
840.8246459960937
 46
0.0
 47
0.0
 48
0.0
 49
0.0
140
0.0
141
0.0
142
1.0
143
1.0
 70
   752
 72
     1
 73
     1
 74
     5
  7
PLA1.ctb
 75
    16
147
1.0
 76
     0
 77
     2
 78
   300
148
0.0
149
0.0
  0
PLOTSETTINGS
  5
2EA
102
{ACAD_REACTORS
330
168
102
}
330
168
100
AcDbPlotSettings
  1
A2
  2
HPDJ220-A0
  4
User266
  6

 40
4.995333194732666
 41
16.93330574035644
 42
4.995330810546875
 43
16.933349609375
 44
419.9466552734374
 45
593.8519897460937
 46
0.0
 47
0.0
 48
0.0
 49
0.0
140
0.0
141
0.0
142
1.0
143
1.0
 70
   752
 72
     1
 73
     1
 74
     5
  7
PLA2.ctb
 75
    16
147
1.0
 76
     0
 77
     2
 78
   300
148
0.0
149
0.0
  0
PLOTSETTINGS
  5
31E
102
{ACAD_REACTORS
330
168
102
}
330
168
100
AcDbPlotSettings
  1
A3
  2
\\GLUTZCH_PDC\HP LaserJet 5000 N PCL 6
  4
A3
  6

 40
5.027083396911621
 41
5.111741065979003
 42
5.11175537109375
 43
5.027069091796875
 44
297.0106506347656
 45
419.9889831542968
 46
0.0
 47
0.0
 48
0.0
 49
0.0
140
0.0
141
0.0
142
1.0
143
1.0
 70
   752
 72
     1
 73
     1
 74
     5
  7
LAA3.ctb
 75
    16
147
1.0
 76
     0
 77
     2
 78
   300
148
0.0
149
0.0
  0
PLOTSETTINGS
  5
319
102
{ACAD_REACTORS
330
168
102
}
330
168
100
AcDbPlotSettings
  1
A4
  2
\\GLUTZCH_PDC\HP LaserJet 5000 N PCL 6
  4
A4
  6

 40
5.027083396911621
 41
5.111741065979003
 42
5.11175537109375
 43
5.027069091796875
 44
210.0156707763672
 45
297.0106506347656
 46
0.0
 47
0.0
 48
0.0
 49
0.0
140
0.0
141
0.0
142
1.0
143
1.0
 70
   752
 72
     1
 73
     0
 74
     5
  7
LAA4.ctb
 75
    16
147
1.0
 76
     0
 77
     2
 78
   300
148
0.0
149
0.0
  0
ACDBPLACEHOLDER
  5
166
102
{ACAD_REACTORS
330
165
102
}
330
165
  0
SCALE
  5
2187
102
{ACAD_REACTORS
330
2186
102
}
330
2186
100
AcDbScale
 70
     0
300
1:1
140
1.0
141
1.0
290
     1
  0
SCALE
  5
2188
102
{ACAD_REACTORS
330
2186
102
}
330
2186
100
AcDbScale
 70
     0
300
1:2
140
1.0
141
2.0
290
     0
  0
SCALE
  5
2189
102
{ACAD_REACTORS
330
2186
102
}
330
2186
100
AcDbScale
 70
     0
300
1:4
140
1.0
141
4.0
290
     0
  0
SCALE
  5
218A
102
{ACAD_REACTORS
330
2186
102
}
330
2186
100
AcDbScale
 70
     0
300
1:5
140
1.0
141
5.0
290
     0
  0
SCALE
  5
218B
102
{ACAD_REACTORS
330
2186
102
}
330
2186
100
AcDbScale
 70
     0
300
1:8
140
1.0
141
8.0
290
     0
  0
SCALE
  5
218C
102
{ACAD_REACTORS
330
2186
102
}
330
2186
100
AcDbScale
 70
     0
300
1:10
140
1.0
141
10.0
290
     0
  0
SCALE
  5
218D
102
{ACAD_REACTORS
330
2186
102
}
330
2186
100
AcDbScale
 70
     0
300
1:16
140
1.0
141
16.0
290
     0
  0
SCALE
  5
218E
102
{ACAD_REACTORS
330
2186
102
}
330
2186
100
AcDbScale
 70
     0
300
1:20
140
1.0
141
20.0
290
     0
  0
SCALE
  5
218F
102
{ACAD_REACTORS
330
2186
102
}
330
2186
100
AcDbScale
 70
     0
300
1:30
140
1.0
141
30.0
290
     0
  0
SCALE
  5
2190
102
{ACAD_REACTORS
330
2186
102
}
330
2186
100
AcDbScale
 70
     0
300
1:40
140
1.0
141
40.0
290
     0
  0
SCALE
  5
2191
102
{ACAD_REACTORS
330
2186
102
}
330
2186
100
AcDbScale
 70
     0
300
1:50
140
1.0
141
50.0
290
     0
  0
SCALE
  5
2192
102
{ACAD_REACTORS
330
2186
102
}
330
2186
100
AcDbScale
 70
     0
300
1:100
140
1.0
141
100.0
290
     0
  0
SCALE
  5
2193
102
{ACAD_REACTORS
330
2186
102
}
330
2186
100
AcDbScale
 70
     0
300
2:1
140
2.0
141
1.0
290
     0
  0
SCALE
  5
2194
102
{ACAD_REACTORS
330
2186
102
}
330
2186
100
AcDbScale
 70
     0
300
4:1
140
4.0
141
1.0
290
     0
  0
SCALE
  5
2195
102
{ACAD_REACTORS
330
2186
102
}
330
2186
100
AcDbScale
 70
     0
300
8:1
140
8.0
141
1.0
290
     0
  0
SCALE
  5
2196
102
{ACAD_REACTORS
330
2186
102
}
330
2186
100
AcDbScale
 70
     0
300
10:1
140
10.0
141
1.0
290
     0
  0
SCALE
  5
2197
102
{ACAD_REACTORS
330
2186
102
}
330
2186
100
AcDbScale
 70
     0
300
100:1
140
100.0
141
1.0
290
     0
  0
TABLESTYLE
  5
20F6
102
{ACAD_XDICTIONARY
360
21FF
102
}
102
{ACAD_REACTORS
330
20F5
102
}
330
20F5
100
AcDbTableStyle
  3
Standard
 70
     0
 71
     0
 40
1.5
 41
1.5
280
     0
281
     0
  7
STANDARD
140
4.5
170
     2
 62
     0
 63
     7
283
     0
 90
      512
 91
        0
  1

274
    -2
284
     1
 64
     0
275
    -2
285
     1
 65
     0
276
    -2
286
     1
 66
     0
277
    -2
287
     1
 67
     0
278
    -2
288
     1
 68
     0
279
    -2
289
     1
 69
     0
  7
STANDARD
140
6.0
170
     5
 62
     0
 63
     7
283
     0
 90
      512
 91
        0
  1

274
    -2
284
     1
 64
     0
275
    -2
285
     1
 65
     0
276
    -2
286
     1
 66
     0
277
    -2
287
     1
 67
     0
278
    -2
288
     1
 68
     0
279
    -2
289
     1
 69
     0
  7
STANDARD
140
4.5
170
     5
 62
     0
 63
     7
283
     0
 90
      512
 91
        0
  1

274
    -2
284
     1
 64
     0
275
    -2
285
     1
 65
     0
276
    -2
286
     1
 66
     0
277
    -2
287
     1
 67
     0
278
    -2
288
     1
 68
     0
279
    -2
289
     1
 69
     0
  0
VISUALSTYLE
  5
20E9
102
{ACAD_REACTORS
330
20E3
102
}
330
20E3
100
AcDbVisualStyle
  2
2dWireframe
 70
     4
 71
     0
 72
     2
 73
     0
 90
        0
 40
-0.6
 41
-30.0
 62
     5
 63
     7
421
 16777215
 74
     1
 91
        4
 64
     7
 65
   257
 75
     1
175
     1
 42
1.0
 92
        0
 66
   257
 43
1.0
 76
     1
 77
     6
 78
     2
 67
     7
 79
     5
170
     0
171
     0
290
     0
174
     0
 93
        1
 44
0.0
173
     0
291
     0
 45
0.0
  0
VISUALSTYLE
  5
20EB
102
{ACAD_REACTORS
330
20E3
102
}
330
20E3
100
AcDbVisualStyle
  2
3D Hidden
 70
     6
 71
     1
 72
     2
 73
     2
 90
        0
 40
-0.6
 41
-30.0
 62
     5
 63
     7
421
 16777215
 74
     2
 91
        2
 64
     7
 65
   257
 75
     2
175
     1
 42
40.0
 92
        0
 66
   257
 43
1.0
 76
     1
 77
     6
 78
     2
 67
     7
 79
     3
170
     0
171
     0
290
     0
174
     0
 93
        1
 44
0.0
173
     0
291
     0
 45
0.0
  0
VISUALSTYLE
  5
20EA
102
{ACAD_REACTORS
330
20E3
102
}
330
20E3
100
AcDbVisualStyle
  2
3dWireframe
 70
     5
 71
     0
 72
     2
 73
     0
 90
        0
 40
-0.6
 41
-30.0
 62
     5
 63
     7
421
 16777215
 74
     1
 91
        4
 64
     7
 65
   257
 75
     1
175
     1
 42
1.0
 92
        0
 66
   257
 43
1.0
 76
     1
 77
     6
 78
     2
 67
     7
 79
     5
170
     0
171
     0
290
     0
174
     0
 93
        1
 44
0.0
173
     0
291
     0
 45
0.0
  0
VISUALSTYLE
  5
20E8
102
{ACAD_REACTORS
330
20E3
102
}
330
20E3
100
AcDbVisualStyle
  2
Basic
 70
     7
 71
     1
 72
     0
 73
     1
 90
        0
 40
-0.6
 41
-30.0
 62
     5
 63
     7
421
 16777215
 74
     0
 91
        4
 64
     7
 65
   257
 75
     1
175
     1
 42
1.0
 92
        8
 66
     7
 43
1.0
 76
     1
 77
     6
 78
     2
 67
     7
 79
     5
170
     0
171
     0
290
     0
174
     0
 93
        1
 44
0.0
173
     0
291
     1
 45
0.0
  0
VISUALSTYLE
  5
20EF
102
{ACAD_REACTORS
330
20E3
102
}
330
20E3
100
AcDbVisualStyle
  2
Brighten
 70
    12
 71
     2
 72
     2
 73
     0
 90
        0
 40
-0.6
 41
-30.0
 62
     5
 63
     7
421
 16777215
 74
     1
 91
        4
 64
     7
 65
   257
 75
     1
175
     1
 42
1.0
 92
        8
 66
     7
 43
1.0
 76
     1
 77
     6
 78
     2
 67
     7
 79
     5
170
     0
171
     0
290
     0
174
     0
 93
        1
 44
50.0
173
     0
291
     1
 45
0.0
  0
VISUALSTYLE
  5
20F3
102
{ACAD_REACTORS
330
20E3
102
}
330
20E3
100
AcDbVisualStyle
  2
ColorChange
 70
    16
 71
     2
 72
     2
 73
     3
 90
        0
 40
-0.6
 41
-30.0
 62
     5
 63
     8
421
  8421504
 74
     1
 91
        4
 64
     7
 65
   257
 75
     1
175
     1
 42
1.0
 92
        8
 66
     8
424
  8421504
 43
1.0
 76
     1
 77
     6
 78
     2
 67
     7
 79
     5
170
     0
171
     0
290
     0
174
     0
 93
        1
 44
0.0
173
     0
291
     1
 45
0.0
  0
VISUALSTYLE
  5
20EC
102
{ACAD_REACTORS
330
20E3
102
}
330
20E3
100
AcDbVisualStyle
  2
Conceptual
 70
     9
 71
     3
 72
     2
 73
     0
 90
        0
 40
-0.6
 41
-30.0
 62
     5
 63
     7
421
 16777215
 74
     2
 91
        2
 64
     7
 65
   257
 75
     1
175
     1
 42
40.0
 92
        8
 66
     7
 43
1.0
 76
     1
 77
     6
 78
     2
 67
     7
 79
     3
170
     0
171
     0
290
     0
174
     0
 93
        1
 44
0.0
173
     0
291
     0
 45
0.0
  0
VISUALSTYLE
  5
20EE
102
{ACAD_REACTORS
330
20E3
102
}
330
20E3
100
AcDbVisualStyle
  2
Dim
 70
    11
 71
     2
 72
     2
 73
     0
 90
        0
 40
-0.6
 41
-30.0
 62
     5
 63
     7
421
 16777215
 74
     1
 91
        4
 64
     7
 65
   257
 75
     1
175
     1
 42
1.0
 92
        8
 66
     7
 43
1.0
 76
     1
 77
     6
 78
     2
 67
     7
 79
     5
170
     0
171
     0
290
     0
174
     0
 93
        1
 44
-50.0
173
     0
291
     1
 45
0.0
  0
VISUALSTYLE
  5
20F2
102
{ACAD_REACTORS
330
20E3
102
}
330
20E3
100
AcDbVisualStyle
  2
Facepattern
 70
    15
 71
     2
 72
     2
 73
     0
 90
        0
 40
-0.6
 41
-30.0
 62
     5
 63
     7
421
 16777215
 74
     1
 91
        4
 64
     7
 65
   257
 75
     1
175
     1
 42
1.0
 92
        8
 66
     7
 43
1.0
 76
     1
 77
     6
 78
     2
 67
     7
 79
     5
170
     0
171
     0
290
     0
174
     0
 93
        1
 44
0.0
173
     0
291
     1
 45
0.0
  0
VISUALSTYLE
  5
20E4
102
{ACAD_REACTORS
330
20E3
102
}
330
20E3
100
AcDbVisualStyle
  2
Flat
 70
     0
 71
     2
 72
     1
 73
     1
 90
        2
 40
-0.6
 41
30.0
 62
     5
 63
     7
421
 16777215
 74
     0
 91
        4
 64
     7
 65
   257
 75
     1
175
     1
 42
1.0
 92
        8
 66
     7
 43
1.0
 76
     1
 77
     6
 78
     2
 67
     7
 79
     5
170
     0
171
     0
290
     0
174
     0
 93
       13
 44
0.0
173
     0
291
     1
 45
0.0
  0
VISUALSTYLE
  5
20E5
102
{ACAD_REACTORS
330
20E3
102
}
330
20E3
100
AcDbVisualStyle
  2
FlatWithEdges
 70
     1
 71
     2
 72
     1
 73
     1
 90
        2
 40
-0.6
 41
30.0
 62
     5
 63
     7
421
 16777215
 74
     1
 91
        4
 64
     7
 65
   257
 75
     1
175
     1
 42
1.0
 92
        0
 66
   257
 43
1.0
 76
     1
 77
     6
 78
     2
 67
     7
 79
     5
170
     0
171
     0
290
     0
174
     0
 93
       13
 44
0.0
173
     0
291
     1
 45
0.0
  0
VISUALSTYLE
  5
20E6
102
{ACAD_REACTORS
330
20E3
102
}
330
20E3
100
AcDbVisualStyle
  2
Gouraud
 70
     2
 71
     2
 72
     2
 73
     1
 90
        2
 40
-0.6
 41
30.0
 62
     5
 63
     7
421
 16777215
 74
     0
 91
        4
 64
     7
 65
   257
 75
     1
175
     1
 42
1.0
 92
        0
 66
     7
 43
1.0
 76
     1
 77
     6
 78
     2
 67
     7
 79
     5
170
     0
171
     0
290
     0
174
     0
 93
       13
 44
0.0
173
     0
291
     1
 45
0.0
  0
VISUALSTYLE
  5
20E7
102
{ACAD_REACTORS
330
20E3
102
}
330
20E3
100
AcDbVisualStyle
  2
GouraudWithEdges
 70
     3
 71
     2
 72
     2
 73
     1
 90
        2
 40
-0.6
 41
30.0
 62
     5
 63
     7
421
 16777215
 74
     1
 91
        4
 64
     7
 65
   257
 75
     1
175
     1
 42
1.0
 92
        0
 66
   257
 43
1.0
 76
     1
 77
     6
 78
     2
 67
     7
 79
     5
170
     0
171
     0
290
     0
174
     0
 93
       13
 44
0.0
173
     0
291
     1
 45
0.0
  0
VISUALSTYLE
  5
20F1
102
{ACAD_REACTORS
330
20E3
102
}
330
20E3
100
AcDbVisualStyle
  2
Linepattern
 70
    14
 71
     2
 72
     2
 73
     0
 90
        0
 40
-0.6
 41
-30.0
 62
     5
 63
     7
421
 16777215
 74
     1
 91
        4
 64
     7
 65
   257
 75
     7
175
     7
 42
1.0
 92
        8
 66
     7
 43
1.0
 76
     1
 77
     6
 78
     2
 67
     7
 79
     5
170
     0
171
     0
290
     0
174
     0
 93
        1
 44
0.0
173
     0
291
     1
 45
0.0
  0
VISUALSTYLE
  5
20ED
102
{ACAD_REACTORS
330
20E3
102
}
330
20E3
100
AcDbVisualStyle
  2
Realistic
 70
     8
 71
     2
 72
     2
 73
     0
 90
        0
 40
-0.6
 41
-30.0
 62
     5
 63
     7
421
 16777215
 74
     1
 91
        0
 64
     7
 65
   257
 75
     1
175
     1
 42
1.0
 92
        8
 66
     8
424
  7895160
 43
1.0
 76
     1
 77
     6
 78
     2
 67
     7
 79
     5
170
     0
171
     0
290
     0
174
     0
 93
       13
 44
0.0
173
     0
291
     0
 45
0.0
  0
VISUALSTYLE
  5
20F0
102
{ACAD_REACTORS
330
20E3
102
}
330
20E3
100
AcDbVisualStyle
  2
Thicken
 70
    13
 71
     2
 72
     2
 73
     0
 90
        0
 40
-0.6
 41
-30.0
 62
     5
 63
     7
421
 16777215
 74
     1
 91
        4
 64
     7
 65
   257
 75
     1
175
     1
 42
1.0
 92
       12
 66
     7
 43
1.0
 76
     1
 77
     6
 78
     2
 67
     7
 79
     5
170
     0
171
     0
290
     0
174
     0
 93
        1
 44
0.0
173
     0
291
     1
 45
0.0
  0
DICTIONARYVAR
  5
21FB
102
{ACAD_REACTORS
330
5D
102
}
330
5D
100
DictionaryVariables
280
     0
  1
1:1
  0
DICTIONARYVAR
  5
21F9
102
{ACAD_REACTORS
330
5D
102
}
330
5D
100
DictionaryVariables
280
     0
  1
STANDARD
  0
DICTIONARYVAR
  5
2184
102
{ACAD_REACTORS
330
5D
102
}
330
5D
100
DictionaryVariables
280
     0
  1
STANDARD
  0
DICTIONARYVAR
  5
5E
102
{ACAD_REACTORS
330
5D
102
}
330
5D
100
DictionaryVariables
280
     0
  1
0
  0
DICTIONARYVAR
  5
128
102
{ACAD_REACTORS
330
5D
102
}
330
5D
100
DictionaryVariables
280
     0
  1
1
  0
DICTIONARYVAR
  5
21FD
102
{ACAD_REACTORS
330
5D
102
}
330
5D
100
DictionaryVariables
280
     0
  1
1
  0
DICTIONARYVAR
  5
21FE
102
{ACAD_REACTORS
330
5D
102
}
330
5D
100
DictionaryVariables
280
     0
  1
15
  0
DICTIONARYVAR
  5
21FC
102
{ACAD_REACTORS
330
5D
102
}
330
5D
100
DictionaryVariables
280
     0
  1
0
  0
DICTIONARYVAR
  5
21FA
102
{ACAD_REACTORS
330
5D
102
}
330
5D
100
DictionaryVariables
280
     0
  1
0
  0
DICTIONARYVAR
  5
1044
102
{ACAD_REACTORS
330
5D
102
}
330
5D
100
DictionaryVariables
280
     0
  1
96
  0
DICTIONARY
  5
143
102
{ACAD_REACTORS
330
142
102
}
330
142
100
AcDbDictionary
281
     1
  0
XRECORD
  5
213D
102
{ACAD_REACTORS
330
142
102
}
330
142
100
AcDbXrecord
280
     1
 90
-1023410169
  0
DICTIONARY
  5
172
102
{ACAD_REACTORS
330
171
102
}
330
171
100
AcDbDictionary
281
     1
  3
DWGSETTINGS
350
173
  3
FEM
350
3A0
  3
Shaft
350
393
  3
TRANSSETTINGS
350
17D
  0
DICTIONARY
  5
18A9
102
{ACAD_REACTORS
330
18A8
102
}
330
18A8
100
AcDbDictionary
281
     1
  0
ACAMGFILTERDAT
  5
164B
102
{ACAD_REACTORS
330
1F2
102
}
330
1F2
100
AcAmgFilterDat
 70
    15
  1
DIMENSION,AMDT_*_DIM
  2
*
  3
*
  4
*
  5
*
290
     1
  0
ACAMGFILTERDAT
  5
164C
102
{ACAD_REACTORS
330
1F2
102
}
330
1F2
100
AcAmgFilterDat
 70
    15
  1
*
  2
AM_FEA-AM_*
  3
*
  4
*
  5
*
290
     1
  0
ACAMGFILTERDAT
  5
164D
102
{ACAD_REACTORS
330
1F2
102
}
330
1F2
100
AcAmgFilterDat
 70
    15
  1
HATCH
  2
*
  3
*
  4
*
  5
*
290
     1
  0
ACAMGFILTERDAT
  5
164E
102
{ACAD_REACTORS
330
1F2
102
}
330
1F2
100
AcAmgFilterDat
 70
    15
  1
ACMFCFRAME,ACMDATUMTARGET,ACMDATUMID,ACMWELDSYM,ACMSURFSYM,ACMFEATID,ACMPARTREF,ACMBALLOON
  2
*
  3
*
  4
*
  5
*
290
     1
  0
LAYER_INDEX
  5
2167
102
{ACAD_REACTORS
330
2166
102
}
330
2166
100
AcDbIndex
 40
2454866.370353218
100
AcDbLayerIndex
  8
0
360
2168
 90
       69
  8
AM_0
360
2169
 90
        0
  8
AM_1
360
216A
 90
        0
  8
AM_2
360
216B
 90
        0
  8
AM_3
360
216C
 90
        0
  8
AM_4
360
216D
 90
        0
  8
AM_5
360
216E
 90
       10
  8
AM_6
360
216F
 90
        1
  8
AM_7
360
2170
 90
        0
  8
AM_8
360
2171
 90
        0
  8
AM_FR
360
2172
 90
        0
  8
ASHADE
360
2173
 90
        9
  8
AM_WORK
360
2174
 90
        0
  8
AM_CL
360
2175
 90
        0
  8
Defpoints
360
2176
 90
        0
  8
ASRF_TMP
360
2177
 90
        0
  8
AM_VIEWS
360
2178
 90
        1
  8
AM_VIS
360
2179
 90
        0
  8
AM_HID
360
217A
 90
        0
  8
AM_PARDIM
360
217B
 90
        0
  8
AmdtBRLock
360
217C
 90
        0
  8
5
360
217D
 90
        4
  8
1
360
217E
 90
       37
  8
2
360
217F
 90
        3
  8
3A
360
2180
 90
        8
  8
6
360
2181
 90
        0
  8
7
360
2182
 90
        9
  8
TEXT
360
2183
 90
        0
  0
DICTIONARY
  5
21FF
330
20F6
100
AcDbDictionary
280
     1
281
     1
  3
ACAD_ROUNDTRIP_2008_TABLESTYLE_CELLSTYLEMAP
360
2200
  0
IDBUFFER
  5
2168
330
0
100
AcDbIdBuffer
330
1677
330
1B39
330
1B3A
330
1B43
330
1B44
330
1B45
330
1B52
330
1B53
330
1B54
330
1B55
330
1B56
330
1B57
330
1B58
330
1B59
330
1B5A
330
1B5D
330
1B5E
330
1B5F
330
1B61
330
1B62
330
1B63
330
1B69
330
1B6E
330
1B77
330
1B78
330
1B79
330
1B7A
330
1B7B
330
1B7C
330
1B7D
330
1B7E
330
1B7F
330
1B80
330
1B86
330
1B87
330
1B88
330
1B89
330
1B8F
330
1B90
330
1B91
330
1B92
330
1B93
330
1B99
330
1B9A
330
1B9B
330
1B9C
330
1B9D
330
1BA0
330
1BA1
330
1BA2
330
1BA3
330
1BA4
330
1BA5
330
1BA6
330
1BA7
330
1BA8
330
1BA9
330
1BAA
330
1BAB
330
1BAC
330
1BAD
330
1BAF
330
1BB0
330
1BB1
330
1BB9
330
1BBA
330
1BBB
330
1BBC
330
1BBD
  0
IDBUFFER
  5
2169
330
0
100
AcDbIdBuffer
  0
IDBUFFER
  5
216A
330
0
100
AcDbIdBuffer
  0
IDBUFFER
  5
216B
330
0
100
AcDbIdBuffer
  0
IDBUFFER
  5
216C
330
0
100
AcDbIdBuffer
  0
IDBUFFER
  5
216D
330
0
100
AcDbIdBuffer
  0
IDBUFFER
  5
216E
330
0
100
AcDbIdBuffer
330
1DB7
330
1E19
330
1E62
330
1EA1
330
1EE0
330
1F1F
330
1F68
330
1FB1
330
1FFA
330
2039
  0
IDBUFFER
  5
216F
330
0
100
AcDbIdBuffer
330
20D4
  0
IDBUFFER
  5
2170
330
0
100
AcDbIdBuffer
  0
IDBUFFER
  5
2171
330
0
100
AcDbIdBuffer
  0
IDBUFFER
  5
2172
330
0
100
AcDbIdBuffer
  0
IDBUFFER
  5
2173
330
0
100
AcDbIdBuffer
330
3FB
330
3FC
330
3FD
330
3FE
330
3FF
330
400
330
401
330
402
330
409
  0
IDBUFFER
  5
2174
330
0
100
AcDbIdBuffer
  0
IDBUFFER
  5
2175
330
0
100
AcDbIdBuffer
  0
IDBUFFER
  5
2176
330
0
100
AcDbIdBuffer
  0
IDBUFFER
  5
2177
330
0
100
AcDbIdBuffer
  0
IDBUFFER
  5
2178
330
0
100
AcDbIdBuffer
330
1CE3
  0
IDBUFFER
  5
2179
330
0
100
AcDbIdBuffer
  0
IDBUFFER
  5
217A
330
0
100
AcDbIdBuffer
  0
IDBUFFER
  5
217B
330
0
100
AcDbIdBuffer
  0
IDBUFFER
  5
217C
330
0
100
AcDbIdBuffer
  0
IDBUFFER
  5
217D
330
0
100
AcDbIdBuffer
330
20C2
330
20C3
330
20CB
330
20D1
  0
IDBUFFER
  5
217E
330
0
100
AcDbIdBuffer
330
1B48
330
1B49
330
1B4A
330
1B4C
330
1B4D
330
1B4E
330
1B4F
330
1B50
330
1B51
330
1B67
330
1B68
330
1B6D
330
1B6F
330
1B70
330
1B71
330
1B75
330
1B81
330
1B82
330
1B83
330
1B84
330
1B85
330
1B8A
330
1B8B
330
1B8C
330
1B8D
330
1B8E
330
1B94
330
1B95
330
1B96
330
1B9F
330
1BAE
330
1BB3
330
1BB5
330
1BB7
330
2159
330
215A
330
215B
  0
IDBUFFER
  5
217F
330
0
100
AcDbIdBuffer
330
1BB6
330
1BB8
330
1BBE
  0
IDBUFFER
  5
2180
330
0
100
AcDbIdBuffer
330
1B6A
330
1B6B
330
1B97
330
1B98
330
1BB2
330
1BB4
330
215C
330
215D
  0
IDBUFFER
  5
2181
330
0
100
AcDbIdBuffer
  0
IDBUFFER
  5
2182
330
0
100
AcDbIdBuffer
330
1B3C
330
1B42
330
1B46
330
1B4B
330
1B5B
330
1B5C
330
1B72
330
1B73
330
1B74
  0
IDBUFFER
  5
2183
330
0
100
AcDbIdBuffer
  0
CELLSTYLEMAP
  5
2200
102
{ACAD_REACTORS
330
21FF
102
}
330
21FF
100
AcDbCellStyleMap
 90
        3
300
CELLSTYLE
  1
TABLEFORMAT_BEGIN
 90
        5
170
     1
 91
        0
 92
    32768
 62
   257
 93
        1
300
CONTENTFORMAT
  1
CONTENTFORMAT_BEGIN
 90
        0
 91
        0
 92
      512
 93
        0
300

 40
0.0
140
1.0
 94
        5
 62
     0
340
10
144
6.0
309
CONTENTFORMAT_END
171
     1
301
MARGIN
  1
CELLMARGIN_BEGIN
 40
1.5
 40
1.5
 40
1.5
 40
1.5
 40
0.18
 40
0.18
309
CELLMARGIN_END
 94
        6
 95
        1
302
GRIDFORMAT
  1
GRIDFORMAT_BEGIN
 90
        0
 91
        1
 62
     0
 92
       -2
340
0
 93
        0
 40
0.045
309
GRIDFORMAT_END
 95
        2
302
GRIDFORMAT
  1
GRIDFORMAT_BEGIN
 90
        0
 91
        1
 62
     0
 92
       -2
340
0
 93
        0
 40
0.045
309
GRIDFORMAT_END
 95
        4
302
GRIDFORMAT
  1
GRIDFORMAT_BEGIN
 90
        0
 91
        1
 62
     0
 92
       -2
340
0
 93
        0
 40
0.045
309
GRIDFORMAT_END
 95
        8
302
GRIDFORMAT
  1
GRIDFORMAT_BEGIN
 90
        0
 91
        1
 62
     0
 92
       -2
340
0
 93
        0
 40
0.045
309
GRIDFORMAT_END
 95
       16
302
GRIDFORMAT
  1
GRIDFORMAT_BEGIN
 90
        0
 91
        1
 62
     0
 92
       -2
340
0
 93
        0
 40
0.045
309
GRIDFORMAT_END
 95
       32
302
GRIDFORMAT
  1
GRIDFORMAT_BEGIN
 90
        0
 91
        1
 62
     0
 92
       -2
340
0
 93
        0
 40
0.045
309
GRIDFORMAT_END
309
TABLEFORMAT_END
  1
CELLSTYLE_BEGIN
 90
        1
 91
        1
300
_TITLE
309
CELLSTYLE_END
300
CELLSTYLE
  1
TABLEFORMAT_BEGIN
 90
        5
170
     1
 91
        0
 92
        0
 62
   257
 93
        1
300
CONTENTFORMAT
  1
CONTENTFORMAT_BEGIN
 90
        0
 91
        0
 92
      512
 93
        0
300

 40
0.0
140
1.0
 94
        5
 62
     0
340
10
144
4.5
309
CONTENTFORMAT_END
171
     1
301
MARGIN
  1
CELLMARGIN_BEGIN
 40
1.5
 40
1.5
 40
1.5
 40
1.5
 40
0.18
 40
0.18
309
CELLMARGIN_END
 94
        6
 95
        1
302
GRIDFORMAT
  1
GRIDFORMAT_BEGIN
 90
        0
 91
        1
 62
     0
 92
       -2
340
0
 93
        0
 40
0.045
309
GRIDFORMAT_END
 95
        2
302
GRIDFORMAT
  1
GRIDFORMAT_BEGIN
 90
        0
 91
        1
 62
     0
 92
       -2
340
0
 93
        0
 40
0.045
309
GRIDFORMAT_END
 95
        4
302
GRIDFORMAT
  1
GRIDFORMAT_BEGIN
 90
        0
 91
        1
 62
     0
 92
       -2
340
0
 93
        0
 40
0.045
309
GRIDFORMAT_END
 95
        8
302
GRIDFORMAT
  1
GRIDFORMAT_BEGIN
 90
        0
 91
        1
 62
     0
 92
       -2
340
0
 93
        0
 40
0.045
309
GRIDFORMAT_END
 95
       16
302
GRIDFORMAT
  1
GRIDFORMAT_BEGIN
 90
        0
 91
        1
 62
     0
 92
       -2
340
0
 93
        0
 40
0.045
309
GRIDFORMAT_END
 95
       32
302
GRIDFORMAT
  1
GRIDFORMAT_BEGIN
 90
        0
 91
        1
 62
     0
 92
       -2
340
0
 93
        0
 40
0.045
309
GRIDFORMAT_END
309
TABLEFORMAT_END
  1
CELLSTYLE_BEGIN
 90
        2
 91
        1
300
_HEADER
309
CELLSTYLE_END
300
CELLSTYLE
  1
TABLEFORMAT_BEGIN
 90
        5
170
     1
 91
        0
 92
        0
 62
   257
 93
        1
300
CONTENTFORMAT
  1
CONTENTFORMAT_BEGIN
 90
        0
 91
        0
 92
      512
 93
        0
300

 40
0.0
140
1.0
 94
        2
 62
     0
340
10
144
4.5
309
CONTENTFORMAT_END
171
     1
301
MARGIN
  1
CELLMARGIN_BEGIN
 40
1.5
 40
1.5
 40
1.5
 40
1.5
 40
0.18
 40
0.18
309
CELLMARGIN_END
 94
        6
 95
        1
302
GRIDFORMAT
  1
GRIDFORMAT_BEGIN
 90
        0
 91
        1
 62
     0
 92
       -2
340
0
 93
        0
 40
0.045
309
GRIDFORMAT_END
 95
        2
302
GRIDFORMAT
  1
GRIDFORMAT_BEGIN
 90
        0
 91
        1
 62
     0
 92
       -2
340
0
 93
        0
 40
0.045
309
GRIDFORMAT_END
 95
        4
302
GRIDFORMAT
  1
GRIDFORMAT_BEGIN
 90
        0
 91
        1
 62
     0
 92
       -2
340
0
 93
        0
 40
0.045
309
GRIDFORMAT_END
 95
        8
302
GRIDFORMAT
  1
GRIDFORMAT_BEGIN
 90
        0
 91
        1
 62
     0
 92
       -2
340
0
 93
        0
 40
0.045
309
GRIDFORMAT_END
 95
       16
302
GRIDFORMAT
  1
GRIDFORMAT_BEGIN
 90
        0
 91
        1
 62
     0
 92
       -2
340
0
 93
        0
 40
0.045
309
GRIDFORMAT_END
 95
       32
302
GRIDFORMAT
  1
GRIDFORMAT_BEGIN
 90
        0
 91
        1
 62
     0
 92
       -2
340
0
 93
        0
 40
0.045
309
GRIDFORMAT_END
309
TABLEFORMAT_END
  1
CELLSTYLE_BEGIN
 90
        3
 91
        2
300
_DATA
309
CELLSTYLE_END
  0
ENDSEC
  0
EOF
