  0
SECTION
  2
HEADER
  9
$ACADVER
  1
AC1021
  9
$ACADMAINTVER
 70
    50
  9
$DWGCODEPAGE
  3
ANSI_1252
  9
$AUTHOR
  1
koa
  9
$CUSTOMPROPERTYTAG
  1
Manager
  9
$CUSTOMPROPERTY
  1

  9
$CUSTOMPROPERTYTAG
  1
Firma
  9
$CUSTOMPROPERTY
  1

  9
$CUSTOMPROPERTYTAG
  1
Kategorie
  9
$CUSTOMPROPERTY
  1

  9
$CUSTOMPROPERTYTAG
  1
Bauteilnummer
  9
$CUSTOMPROPERTY
  1
50007-51002CF
  9
$CUSTOMPROPERTYTAG
  1
Bezeichnung
  9
$CUSTOMPROPERTY
  1
ist im Modell zu bezeichnen (Iproperties/Projekt)
  9
$CUSTOMPROPERTYTAG
  1
Projekt
  9
$CUSTOMPROPERTY
  1

  9
$CUSTOMPROPERTYTAG
  1
Konstrukteur
  9
$CUSTOMPROPERTY
  1
koa
  9
$CUSTOMPROPERTYTAG
  1
Ingenieur
  9
$CUSTOMPROPERTY
  1

  9
$CUSTOMPROPERTYTAG
  1
Bevollmächtigter
  9
$CUSTOMPROPERTY
  1

  9
$CUSTOMPROPERTYTAG
  1
Kostenstelle
  9
$CUSTOMPROPERTY
  1

  9
$CUSTOMPROPERTYTAG
  1
Zulieferer
  9
$CUSTOMPROPERTY
  1

  9
$CUSTOMPROPERTYTAG
  1
Benutzerstatus
  9
$CUSTOMPROPERTY
  1

  9
$CUSTOMPROPERTYTAG
  1
Konstruktionsstatus
  9
$CUSTOMPROPERTY
  1
InBearbeitung
  9
$CUSTOMPROPERTYTAG
  1
Kontrolliert von
  9
$CUSTOMPROPERTY
  1

  9
$CUSTOMPROPERTYTAG
  1
Konstruktion genehmigt von
  9
$CUSTOMPROPERTY
  1

  9
$CUSTOMPROPERTYTAG
  1
Fertigung genehmigt von
  9
$CUSTOMPROPERTY
  1

  9
$CUSTOMPROPERTYTAG
  1
Aend_Beschreibung_1
  9
$CUSTOMPROPERTY
  1

  9
$CUSTOMPROPERTYTAG
  1
Aend_Beschreibung_2
  9
$CUSTOMPROPERTY
  1

  9
$CUSTOMPROPERTYTAG
  1
Aend_Beschreibung_3
  9
$CUSTOMPROPERTY
  1

  9
$CUSTOMPROPERTYTAG
  1
Aend_Beschreibung_4
  9
$CUSTOMPROPERTY
  1

  9
$CUSTOMPROPERTYTAG
  1
Aend_Beschreibung_5
  9
$CUSTOMPROPERTY
  1

  9
$CUSTOMPROPERTYTAG
  1
Aend_Beschreibung_6
  9
$CUSTOMPROPERTY
  1

  9
$CUSTOMPROPERTYTAG
  1
Aend_Beschreibung_7
  9
$CUSTOMPROPERTY
  1

  9
$CUSTOMPROPERTYTAG
  1
Aend_Beschreibung_8
  9
$CUSTOMPROPERTY
  1

  9
$CUSTOMPROPERTYTAG
  1
Aend_Index_1
  9
$CUSTOMPROPERTY
  1

  9
$CUSTOMPROPERTYTAG
  1
Aend_Index_2
  9
$CUSTOMPROPERTY
  1

  9
$CUSTOMPROPERTYTAG
  1
Aend_Index_3
  9
$CUSTOMPROPERTY
  1

  9
$CUSTOMPROPERTYTAG
  1
Aend_Index_4
  9
$CUSTOMPROPERTY
  1

  9
$CUSTOMPROPERTYTAG
  1
Aend_Index_5
  9
$CUSTOMPROPERTY
  1

  9
$CUSTOMPROPERTYTAG
  1
Aend_Index_6
  9
$CUSTOMPROPERTY
  1

  9
$CUSTOMPROPERTYTAG
  1
Aend_Index_7
  9
$CUSTOMPROPERTY
  1

  9
$CUSTOMPROPERTYTAG
  1
Aend_Index_8
  9
$CUSTOMPROPERTY
  1

  9
$CUSTOMPROPERTYTAG
  1
Aend_Name_1
  9
$CUSTOMPROPERTY
  1

  9
$CUSTOMPROPERTYTAG
  1
Aend_Name_2
  9
$CUSTOMPROPERTY
  1

  9
$CUSTOMPROPERTYTAG
  1
Aend_Name_3
  9
$CUSTOMPROPERTY
  1

  9
$CUSTOMPROPERTYTAG
  1
Aend_Name_4
  9
$CUSTOMPROPERTY
  1

  9
$CUSTOMPROPERTYTAG
  1
Aend_Name_5
  9
$CUSTOMPROPERTY
  1

  9
$CUSTOMPROPERTYTAG
  1
Aend_Name_6
  9
$CUSTOMPROPERTY
  1

  9
$CUSTOMPROPERTYTAG
  1
Aend_Name_7
  9
$CUSTOMPROPERTY
  1

  9
$CUSTOMPROPERTYTAG
  1
Aend_Name_8
  9
$CUSTOMPROPERTY
  1

  9
$CUSTOMPROPERTYTAG
  1
Dimension
  9
$CUSTOMPROPERTY
  1

  9
$CUSTOMPROPERTYTAG
  1
Masse
  9
$CUSTOMPROPERTY
  1

  9
$CUSTOMPROPERTYTAG
  1
Material
  9
$CUSTOMPROPERTY
  1

  9
$CUSTOMPROPERTYTAG
  1
Menge
  9
$CUSTOMPROPERTY
  1

  9
$CUSTOMPROPERTYTAG
  1
Norm
  9
$CUSTOMPROPERTY
  1

  9
$CUSTOMPROPERTYTAG
  1
Position
  9
$CUSTOMPROPERTY
  1

  9
$CUSTOMPROPERTYTAG
  1
Ersatz_fuer
  9
$CUSTOMPROPERTY
  1

  9
$CUSTOMPROPERTYTAG
  1
Esetzt_durch
  9
$CUSTOMPROPERTY
  1

  9
$CUSTOMPROPERTYTAG
  1
Massstab
  9
$CUSTOMPROPERTY
  1
1 : 2
  9
$CUSTOMPROPERTYTAG
  1
SysDate
  9
$CUSTOMPROPERTY
  1
11.06.2012
  9
$CUSTOMPROPERTYTAG
  1
SysTime
  9
$CUSTOMPROPERTY
  1
12:16
  9
$INSBASE
 10
0.0
 20
0.0
 30
0.0
  9
$EXTMIN
 10
0.0
 20
0.0
 30
0.0
  9
$EXTMAX
 10
420.0
 20
594.0
 30
0.0
  9
$LIMMIN
 10
0.0
 20
0.0
  9
$LIMMAX
 10
420.0
 20
594.0
  9
$ORTHOMODE
 70
     0
  9
$REGENMODE
 70
     1
  9
$FILLMODE
 70
     1
  9
$QTEXTMODE
 70
     0
  9
$MIRRTEXT
 70
     0
  9
$LTSCALE
 40
2.0
  9
$ATTMODE
 70
     1
  9
$TEXTSIZE
 40
0.2
  9
$TRACEWID
 40
0.05
  9
$TEXTSTYLE
  7
Standard
  9
$CLAYER
  8
0
  9
$CELTYPE
  6
ByLayer
  9
$CECOLOR
 62
   256
  9
$CELTSCALE
 40
1.0
  9
$DISPSILH
 70
     0
  9
$DIMSCALE
 40
1.0
  9
$DIMASZ
 40
1.799999999999999
  9
$DIMEXO
 40
0.0625
  9
$DIMDLI
 40
0.38
  9
$DIMRND
 40
0.0
  9
$DIMDLE
 40
0.0
  9
$DIMEXE
 40
0.18
  9
$DIMTP
 40
0.0
  9
$DIMTM
 40
0.0
  9
$DIMTXT
 40
0.3499999940395355
  9
$DIMCEN
 40
0.09
  9
$DIMTSZ
 40
0.0
  9
$DIMTOL
 70
     0
  9
$DIMLIM
 70
     0
  9
$DIMTIH
 70
     1
  9
$DIMTOH
 70
     1
  9
$DIMSE1
 70
     0
  9
$DIMSE2
 70
     0
  9
$DIMTAD
 70
     0
  9
$DIMZIN
 70
     0
  9
$DIMBLK
  1

  9
$DIMASO
 70
     1
  9
$DIMSHO
 70
     1
  9
$DIMPOST
  1

  9
$DIMAPOST
  1

  9
$DIMALT
 70
     0
  9
$DIMALTD
 70
     2
  9
$DIMALTF
 40
25.4
  9
$DIMLFAC
 40
1.0
  9
$DIMTOFL
 70
     0
  9
$DIMTVP
 40
0.0
  9
$DIMTIX
 70
     0
  9
$DIMSOXD
 70
     0
  9
$DIMSAH
 70
     0
  9
$DIMBLK1
  1

  9
$DIMBLK2
  1

  9
$DIMSTYLE
  2
Standard
  9
$DIMCLRD
 70
     0
  9
$DIMCLRE
 70
     0
  9
$DIMCLRT
 70
     0
  9
$DIMTFAC
 40
1.0
  9
$DIMGAP
 40
0.09
  9
$DIMJUST
 70
     0
  9
$DIMSD1
 70
     0
  9
$DIMSD2
 70
     0
  9
$DIMTOLJ
 70
     1
  9
$DIMTZIN
 70
     0
  9
$DIMALTZ
 70
     0
  9
$DIMALTTZ
 70
     0
  9
$DIMUPT
 70
     0
  9
$DIMDEC
 70
     4
  9
$DIMTDEC
 70
     4
  9
$DIMALTU
 70
     2
  9
$DIMALTTD
 70
     2
  9
$DIMTXSTY
  7
Standard
  9
$DIMAUNIT
 70
     0
  9
$DIMADEC
 70
     0
  9
$DIMALTRND
 40
0.0
  9
$DIMAZIN
 70
     0
  9
$DIMDSEP
 70
    46
  9
$DIMATFIT
 70
     3
  9
$DIMFRAC
 70
     0
  9
$DIMLDRBLK
  1

  9
$DIMLUNIT
 70
     2
  9
$DIMLWD
 70
    -2
  9
$DIMLWE
 70
    -2
  9
$DIMTMOVE
 70
     0
  9
$DIMFXL
 40
1.0
  9
$DIMFXLON
 70
     0
  9
$DIMJOGANG
 40
0.7853981633974483
  9
$DIMTFILL
 70
     0
  9
$DIMTFILLCLR
 70
     0
  9
$DIMARCSYM
 70
     0
  9
$DIMLTYPE
  6

  9
$DIMLTEX1
  6

  9
$DIMLTEX2
  6

  9
$LUNITS
 70
     2
  9
$LUPREC
 70
     4
  9
$SKETCHINC
 40
0.1
  9
$FILLETRAD
 40
0.0
  9
$AUNITS
 70
     0
  9
$AUPREC
 70
     0
  9
$MENU
  1
.
  9
$ELEVATION
 40
0.0
  9
$PELEVATION
 40
0.0
  9
$THICKNESS
 40
0.0
  9
$LIMCHECK
 70
     0
  9
$CHAMFERA
 40
0.0
  9
$CHAMFERB
 40
0.0
  9
$CHAMFERC
 40
0.0
  9
$CHAMFERD
 40
0.0
  9
$SKPOLY
 70
     0
  9
$TDCREATE
 40
2456090.628783414
  9
$TDUCREATE
 40
2456090.545450081
  9
$TDUPDATE
 40
2456090.628783414
  9
$TDUUPDATE
 40
2456090.545450081
  9
$TDINDWG
 40
0.0000205787
  9
$TDUSRTIMER
 40
0.0000205787
  9
$USRTIMER
 70
     1
  9
$ANGBASE
 50
0.0
  9
$ANGDIR
 70
     0
  9
$PDMODE
 70
     0
  9
$PDSIZE
 40
0.0
  9
$PLINEWID
 40
0.0
  9
$SPLFRAME
 70
     0
  9
$SPLINETYPE
 70
     6
  9
$SPLINESEGS
 70
     8
  9
$HANDSEED
  5
890
  9
$SURFTAB1
 70
     6
  9
$SURFTAB2
 70
     6
  9
$SURFTYPE
 70
     6
  9
$SURFU
 70
     6
  9
$SURFV
 70
     6
  9
$UCSBASE
  2

  9
$UCSNAME
  2

  9
$UCSORG
 10
0.0
 20
0.0
 30
0.0
  9
$UCSXDIR
 10
1.0
 20
0.0
 30
0.0
  9
$UCSYDIR
 10
0.0
 20
1.0
 30
0.0
  9
$UCSORTHOREF
  2

  9
$UCSORTHOVIEW
 70
     0
  9
$UCSORGTOP
 10
0.0
 20
0.0
 30
0.0
  9
$UCSORGBOTTOM
 10
0.0
 20
0.0
 30
0.0
  9
$UCSORGLEFT
 10
0.0
 20
0.0
 30
0.0
  9
$UCSORGRIGHT
 10
0.0
 20
0.0
 30
0.0
  9
$UCSORGFRONT
 10
0.0
 20
0.0
 30
0.0
  9
$UCSORGBACK
 10
0.0
 20
0.0
 30
0.0
  9
$PUCSBASE
  2

  9
$PUCSNAME
  2

  9
$PUCSORG
 10
0.0
 20
0.0
 30
0.0
  9
$PUCSXDIR
 10
1.0
 20
0.0
 30
0.0
  9
$PUCSYDIR
 10
0.0
 20
1.0
 30
0.0
  9
$PUCSORTHOREF
  2

  9
$PUCSORTHOVIEW
 70
     0
  9
$PUCSORGTOP
 10
0.0
 20
0.0
 30
0.0
  9
$PUCSORGBOTTOM
 10
0.0
 20
0.0
 30
0.0
  9
$PUCSORGLEFT
 10
0.0
 20
0.0
 30
0.0
  9
$PUCSORGRIGHT
 10
0.0
 20
0.0
 30
0.0
  9
$PUCSORGFRONT
 10
0.0
 20
0.0
 30
0.0
  9
$PUCSORGBACK
 10
0.0
 20
0.0
 30
0.0
  9
$USERI1
 70
     0
  9
$USERI2
 70
     0
  9
$USERI3
 70
     0
  9
$USERI4
 70
     0
  9
$USERI5
 70
     0
  9
$USERR1
 40
0.0
  9
$USERR2
 40
0.0
  9
$USERR3
 40
0.0
  9
$USERR4
 40
0.0
  9
$USERR5
 40
0.0
  9
$WORLDVIEW
 70
     1
  9
$SHADEDGE
 70
     3
  9
$SHADEDIF
 70
    70
  9
$TILEMODE
 70
     1
  9
$MAXACTVP
 70
    64
  9
$PINSBASE
 10
0.0
 20
0.0
 30
0.0
  9
$PLIMCHECK
 70
     0
  9
$PEXTMIN
 10
0.0
 20
0.0
 30
0.0
  9
$PEXTMAX
 10
420.0
 20
594.0
 30
0.0
  9
$PLIMMIN
 10
0.0
 20
0.0
  9
$PLIMMAX
 10
420.0
 20
594.0
  9
$UNITMODE
 70
     0
  9
$VISRETAIN
 70
     1
  9
$PLINEGEN
 70
     0
  9
$PSLTSCALE
 70
     1
  9
$TREEDEPTH
 70
  3020
  9
$CMLSTYLE
  2
Standard
  9
$CMLJUST
 70
     0
  9
$CMLSCALE
 40
1.0
  9
$PROXYGRAPHICS
 70
     1
  9
$MEASUREMENT
 70
     1
  9
$CELWEIGHT
370
    -1
  9
$ENDCAPS
280
     0
  9
$JOINSTYLE
280
     0
  9
$LWDISPLAY
290
     0
  9
$INSUNITS
 70
     4
  9
$HYPERLINKBASE
  1

  9
$STYLESHEET
  1

  9
$XEDIT
290
     1
  9
$CEPSNTYPE
380
     0
  9
$PSTYLEMODE
290
     1
  9
$FINGERPRINTGUID
  2
{AFA4BC97-2E39-479F-823A-C439AEA0157B}
  9
$VERSIONGUID
  2
{981286D7-973C-4C87-9A30-BFA14E5130DA}
  9
$EXTNAMES
290
     1
  9
$PSVPSCALE
 40
0.0
  9
$OLESTARTUP
290
     0
  9
$SORTENTS
280
   127
  9
$INDEXCTL
280
     0
  9
$HIDETEXT
280
     1
  9
$XCLIPFRAME
290
     0
  9
$HALOGAP
280
     0
  9
$OBSCOLOR
 70
   257
  9
$OBSLTYPE
280
     0
  9
$INTERSECTIONDISPLAY
280
     0
  9
$INTERSECTIONCOLOR
 70
   257
  9
$DIMASSOC
280
     1
  9
$PROJECTNAME
  1

  9
$CAMERADISPLAY
290
     0
  9
$LENSLENGTH
 40
50.0
  9
$CAMERAHEIGHT
 40
0.0
  9
$STEPSPERSEC
 40
2.0
  9
$STEPSIZE
 40
6.0
  9
$3DDWFPREC
 40
2.0
  9
$PSOLWIDTH
 40
0.25
  9
$PSOLHEIGHT
 40
4.0
  9
$LOFTANG1
 40
1.570796326794896
  9
$LOFTANG2
 40
1.570796326794896
  9
$LOFTMAG1
 40
0.0
  9
$LOFTMAG2
 40
0.0
  9
$LOFTPARAM
 70
     7
  9
$LOFTNORMALS
280
     1
  9
$LATITUDE
 40
37.795
  9
$LONGITUDE
 40
-122.394
  9
$NORTHDIRECTION
 40
0.0
  9
$TIMEZONE
 70
 -8000
  9
$LIGHTGLYPHDISPLAY
280
     1
  9
$TILEMODELIGHTSYNCH
280
     1
  9
$CMATERIAL
347
11
  9
$SOLIDHIST
280
     0
  9
$SHOWHIST
280
     1
  9
$DWFFRAME
280
     2
  9
$DGNFRAME
280
     0
  9
$REALWORLDSCALE
290
     1
  9
$INTERFERECOLOR
 62
     1
  9
$INTERFEREOBJVS
345
33
  9
$INTERFEREVPVS
346
30
  9
$CSHADOW
280
     0
  9
$SHADOWPLANELOCATION
 40
0.0
  0
ENDSEC
  0
SECTION
  2
CLASSES
  0
CLASS
  1
ACDBDICTIONARYWDFLT
  2
AcDbDictionaryWithDefault
  3
ObjectDBX Classes
 90
        0
 91
        1
280
     0
281
     0
  0
CLASS
  1
MATERIAL
  2
AcDbMaterial
  3
ObjectDBX Classes
 90
     1153
 91
        3
280
     0
281
     0
  0
CLASS
  1
VISUALSTYLE
  2
AcDbVisualStyle
  3
ObjectDBX Classes
 90
     4095
 91
       24
280
     0
281
     0
  0
CLASS
  1
SCALE
  2
AcDbScale
  3
ObjectDBX Classes
 90
     1153
 91
       17
280
     0
281
     0
  0
CLASS
  1
TABLESTYLE
  2
AcDbTableStyle
  3
ObjectDBX Classes
 90
     4095
 91
        1
280
     0
281
     0
  0
CLASS
  1
MLEADERSTYLE
  2
AcDbMLeaderStyle
  3
ACDB_MLEADERSTYLE_CLASS
 90
     4095
 91
        1
280
     0
281
     0
  0
CLASS
  1
DICTIONARYVAR
  2
AcDbDictionaryVar
  3
ObjectDBX Classes
 90
        0
 91
        4
280
     0
281
     0
  0
CLASS
  1
CELLSTYLEMAP
  2
AcDbCellStyleMap
  3
ObjectDBX Classes
 90
     1152
 91
        1
280
     0
281
     0
  0
ENDSEC
  0
SECTION
  2
TABLES
  0
TABLE
  2
VPORT
  5
8
330
0
100
AcDbSymbolTable
 70
     1
  0
VPORT
  5
57
330
8
100
AcDbSymbolTableRecord
100
AcDbViewportTableRecord
  2
*Active
 70
     0
 10
0.0
 20
0.0
 11
1.0
 21
1.0
 12
210.0
 22
297.0
 13
0.0
 23
0.0
 14
1.0
 24
1.0
 15
0.0
 25
0.0
 16
0.0
 26
0.0
 36
1.0
 17
0.0
 27
0.0
 37
0.0
 40
594.0
 41
0.7070707070707071
 42
50.0
 43
0.0
 44
0.0
 50
0.0
 51
0.0
 71
     0
 72
   100
 73
     1
 74
     1
 75
     0
 76
     0
 77
     0
 78
     0
281
     0
 65
     1
110
0.0
120
0.0
130
0.0
111
1.0
121
0.0
131
0.0
112
0.0
122
1.0
132
0.0
 79
     0
146
0.0
 60
     3
 61
     5
292
     1
282
     1
141
0.0
142
0.0
 63
   250
421
  3355443
  0
ENDTAB
  0
TABLE
  2
LTYPE
  5
5
330
0
100
AcDbSymbolTable
 70
     1
  0
LTYPE
  5
5B
330
5
100
AcDbSymbolTableRecord
100
AcDbLinetypeTableRecord
  2
ByBlock
 70
     0
  3

 72
    65
 73
     0
 40
0.0
  0
LTYPE
  5
5C
330
5
100
AcDbSymbolTableRecord
100
AcDbLinetypeTableRecord
  2
ByLayer
 70
     0
  3

 72
    65
 73
     0
 40
0.0
  0
LTYPE
  5
5D
330
5
100
AcDbSymbolTableRecord
100
AcDbLinetypeTableRecord
  2
Continuous
 70
     0
  3
Solid line
 72
    65
 73
     0
 40
0.0
  0
ENDTAB
  0
TABLE
  2
LAYER
  5
2
330
0
100
AcDbSymbolTable
 70
    61
  0
LAYER
  5
54
330
2
100
AcDbSymbolTableRecord
100
AcDbLayerTableRecord
  2
0
 70
     0
 62
     7
  6
Continuous
370
    -3
390
F
347
21
  0
LAYER
  5
76
330
2
100
AcDbSymbolTableRecord
100
AcDbLayerTableRecord
  2
AM_0
 70
     0
 62
     7
  6
Continuous
370
    50
390
F
347
21
  0
LAYER
  5
77
330
2
100
AcDbSymbolTableRecord
100
AcDbLayerTableRecord
  2
AM_5
 70
     0
 62
     3
420
    65280
  6
Continuous
370
    25
390
F
347
21
  0
LAYER
  5
7F
330
2
100
AcDbSymbolTableRecord
100
AcDbLayerTableRecord
  2
Bemaßungen(DIN)
 70
     0
 62
     7
  6
Continuous
370
    25
390
F
347
21
  0
LAYER
  5
8D
330
2
100
AcDbSymbolTableRecord
100
AcDbLayerTableRecord
  2
Mittellinie(DIN)
 70
     0
 62
     7
  6
Continuous
370
    25
390
F
347
21
  0
LAYER
  5
8F
330
2
100
AcDbSymbolTableRecord
100
AcDbLayerTableRecord
  2
Mittelpunktmarkierung(DIN)
 70
     0
 62
     7
  6
Continuous
370
    25
390
F
347
21
  0
LAYER
  5
99
330
2
100
AcDbSymbolTableRecord
100
AcDbLayerTableRecord
  2
Schraffur
 70
     0
 62
     7
  6
Continuous
370
     9
390
F
347
21
  0
LAYER
  5
9A
330
2
100
AcDbSymbolTableRecord
100
AcDbLayerTableRecord
  2
Schraffur (ISO)
 70
     0
 62
     7
  6
Continuous
370
    18
390
F
347
21
  0
LAYER
  5
9D
330
2
100
AcDbSymbolTableRecord
100
AcDbLayerTableRecord
  2
Sichtbare Kanten(DIN)
 70
     0
 62
     7
  6
Continuous
370
    50
390
F
347
21
  0
LAYER
  5
A0
330
2
100
AcDbSymbolTableRecord
100
AcDbLayerTableRecord
  2
Skizziergeometrie(DIN)
 70
     0
 62
     7
  6
Continuous
370
    50
390
F
347
21
  0
LAYER
  5
A5
330
2
100
AcDbSymbolTableRecord
100
AcDbLayerTableRecord
  2
Symbole(DIN)
 70
     0
 62
     7
  6
Continuous
370
    25
390
F
347
21
  0
LAYER
  5
A8
330
2
100
AcDbSymbolTableRecord
100
AcDbLayerTableRecord
  2
Titel (ISO)
 70
     0
 62
     7
  6
Continuous
370
    50
390
F
347
21
  0
LAYER
  5
1DD
330
2
100
AcDbSymbolTableRecord
100
AcDbLayerTableRecord
  2
Defpoints
 70
     0
 62
     7
  6
Continuous
290
     0
370
    -3
390
F
347
21
  0
ENDTAB
  0
TABLE
  2
STYLE
  5
3
330
0
100
AcDbSymbolTable
 70
    16
  0
STYLE
  5
55
330
3
100
AcDbSymbolTableRecord
100
AcDbTextStyleTableRecord
  2
Standard
 70
     0
 40
0.0
 41
1.0
 50
0.0
 71
     0
 42
0.2
  3
ISOCP.shx
  4

  0
STYLE
  5
5A
330
3
100
AcDbSymbolTableRecord
100
AcDbTextStyleTableRecord
  2
Annotative
 70
     0
 40
0.0
 41
1.0
 50
0.0
 71
     0
 42
0.2
  3
txt
  4

1001
AcadAnnotative
1000
AnnotativeData
1002
{
1070
     1
1070
     1
1002
}
  0
STYLE
  5
AF
330
3
100
AcDbSymbolTableRecord
100
AcDbTextStyleTableRecord
  2
_Schriftfeld_2.5mm
 70
     0
 40
0.0
 41
1.0
 50
0.0
 71
     0
 42
0.2
  3
arial.ttf
  4

1001
ACAD
1000
Arial
1071
      256
  0
STYLE
  5
B0
330
3
100
AcDbSymbolTableRecord
100
AcDbTextStyleTableRecord
  2
_Schriftfeld_2mm
 70
     0
 40
0.0
 41
1.0
 50
0.0
 71
     0
 42
0.2
  3
arial.ttf
  4

1001
ACAD
1000
Arial
1071
      256
  0
STYLE
  5
B1
330
3
100
AcDbSymbolTableRecord
100
AcDbTextStyleTableRecord
  2
_Schriftfeld_3.5mm
 70
     0
 40
0.0
 41
1.0
 50
0.0
 71
     0
 42
0.2
  3
arial.ttf
  4

1001
ACAD
1000
Arial
1071
      256
  0
STYLE
  5
B2
330
3
100
AcDbSymbolTableRecord
100
AcDbTextStyleTableRecord
  2
_Schriftfeld_5mm
 70
     0
 40
0.0
 41
1.0
 50
0.0
 71
     0
 42
0.2
  3
arial.ttf
  4

1001
ACAD
1000
Arial
1071
      256
  0
STYLE
  5
B3
330
3
100
AcDbSymbolTableRecord
100
AcDbTextStyleTableRecord
  2
Aktuell-DIN
 70
     0
 40
0.0
 41
1.0
 50
0.0
 71
     0
 42
0.2
  3
arial.ttf
  4

1001
ACAD
1000
Arial
1071
      256
  0
STYLE
  5
B4
330
3
100
AcDbSymbolTableRecord
100
AcDbTextStyleTableRecord
  2
Bezeichnungstext (DIN)
 70
     0
 40
0.0
 41
1.0
 50
0.0
 71
     0
 42
0.2
  3
isocpeur.ttf
  4

1001
ACAD
1000
ISOCPEUR
1071
      256
  0
STYLE
  5
B5
330
3
100
AcDbSymbolTableRecord
100
AcDbTextStyleTableRecord
  2
Bezeichnungstext (ISO)
 70
     0
 40
0.0
 41
1.0
 50
0.0
 71
     0
 42
0.2
  3
tahoma.ttf
  4

1001
ACAD
1000
Tahoma
1071
      256
  0
STYLE
  5
B6
330
3
100
AcDbSymbolTableRecord
100
AcDbTextStyleTableRecord
  2
Notiztext (DIN)
 70
     0
 40
0.0
 41
1.0
 50
0.0
 71
     0
 42
0.2
  3
isocpeur.ttf
  4

1001
ACAD
1000
ISOCPEUR
1071
      256
  0
STYLE
  5
B7
330
3
100
AcDbSymbolTableRecord
100
AcDbTextStyleTableRecord
  2
Notiztext (ISO)
 70
     0
 40
0.0
 41
1.0
 50
0.0
 71
     0
 42
0.2
  3
tahoma.ttf
  4

1001
ACAD
1000
Tahoma
1071
      256
  0
STYLE
  5
B8
330
3
100
AcDbSymbolTableRecord
100
AcDbTextStyleTableRecord
  2
STANDARD-DIN
 70
     0
 40
0.0
 41
1.0
 50
0.0
 71
     0
 42
0.2
  3
arial.ttf
  4

1001
ACAD
1000
Arial
1071
      256
  0
STYLE
  5
B9
330
3
100
AcDbSymbolTableRecord
100
AcDbTextStyleTableRecord
  2
STANDARD-DIN~0
 70
     0
 40
0.0
 41
1.0
 50
0.0
 71
     0
 42
0.2
  3
arial.ttf
  4

1001
ACAD
1000
Arial
1071
      256
  0
STYLE
  5
BA
330
3
100
AcDbSymbolTableRecord
100
AcDbTextStyleTableRecord
  2
STANDARD-DINGroßer Text
 70
     0
 40
0.0
 41
1.0
 50
0.0
 71
     0
 42
0.2
  3
arial.ttf
  4

1001
ACAD
1000
Arial
1071
      256
  0
STYLE
  5
BB
330
3
100
AcDbSymbolTableRecord
100
AcDbTextStyleTableRecord
  2
STANDARD-DINNach Layer
 70
     0
 40
0.0
 41
1.0
 50
0.0
 71
     0
 42
0.2
  3
arial.ttf
  4

1001
ACAD
1000
Arial
1071
      256
  0
STYLE
  5
192
330
3
100
AcDbSymbolTableRecord
100
AcDbTextStyleTableRecord
  2
Textstil122
 70
     0
 40
0.0
 41
0.899999976158142
 50
0.0
 71
     0
 42
0.2
  3
ISOCP.shx
  4

  0
ENDTAB
  0
TABLE
  2
VIEW
  5
6
330
0
100
AcDbSymbolTable
 70
     0
  0
ENDTAB
  0
TABLE
  2
UCS
  5
7
330
0
100
AcDbSymbolTable
 70
     0
  0
ENDTAB
  0
TABLE
  2
APPID
  5
9
330
0
100
AcDbSymbolTable
 70
     4
  0
APPID
  5
56
330
9
100
AcDbSymbolTableRecord
100
AcDbRegAppTableRecord
  2
ACAD
 70
     0
  0
APPID
  5
5E
330
9
100
AcDbSymbolTableRecord
100
AcDbRegAppTableRecord
  2
AcadAnnotative
 70
     0
  0
APPID
  5
195
330
9
100
AcDbSymbolTableRecord
100
AcDbRegAppTableRecord
  2
AcadAnnoPO
 70
     0
  0
APPID
  5
88F
330
9
100
AcDbSymbolTableRecord
100
AcDbRegAppTableRecord
  2
ACAD_MLEADERVER
 70
     0
  0
ENDTAB
  0
TABLE
  2
DIMSTYLE
  5
A
330
0
100
AcDbSymbolTable
 70
    22
100
AcDbDimStyleTable
 71
     2
340
BC
340
58
  0
DIMSTYLE
105
58
330
A
100
AcDbSymbolTableRecord
100
AcDbDimStyleTableRecord
  2
Standard
 70
     0
340
55
  0
DIMSTYLE
105
59
330
A
100
AcDbSymbolTableRecord
100
AcDbDimStyleTableRecord
  2
Annotative
 70
     0
340
55
1001
AcadAnnotative
1000
AnnotativeData
1002
{
1070
     1
1070
     1
1002
}
  0
DIMSTYLE
105
BC
102
{ACAD_REACTORS
330
1DC
330
2C5
330
3AD
330
48F
330
58D
330
66F
330
75F
102
}
330
A
100
AcDbSymbolTableRecord
100
AcDbDimStyleTableRecord
  2
STANDARD-DIN - Methode 2b
 70
     0
 40
2.0
 41
2.5
 42
0.0
 43
5.999999999999999
 44
3.174999999999999
 45
0.00000001
 46
10.0
 73
     0
 77
     1
 78
     8
 79
     2
140
3.5
143
0.03937
146
0.7142857313156128
147
0.8
171
     3
172
     1
176
   250
177
   250
178
   250
271
     2
272
     2
274
     3
284
     8
285
     8
340
B9
371
    25
372
    25
  0
DIMSTYLE
105
BD
330
A
100
AcDbSymbolTableRecord
100
AcDbDimStyleTableRecord
  2
STANDARD-DIN - Methode 2b$7
 70
     0
 40
2.0
 41
2.5
 42
0.0
 43
5.999999999999999
 44
3.174999999999999
 45
0.00000001
 46
10.0
 73
     0
 77
     1
 78
     8
 79
     2
140
3.5
143
0.03937
146
0.7142857313156128
147
0.8
171
     3
172
     1
176
   179
177
   250
178
   250
271
     2
272
     2
274
     3
284
     8
285
     8
340
B9
371
    25
372
    25
  0
DIMSTYLE
105
BE
330
A
100
AcDbSymbolTableRecord
100
AcDbDimStyleTableRecord
  2
Standard - Methode 1b (ISO)
 70
     0
 40
2.0
 41
2.5
 42
0.0
 43
5.999999999999999
 44
3.174999999999999
 45
0.00000001
 46
10.0
 73
     0
 77
     1
 78
     8
 79
     2
140
3.5
143
0.03937
147
0.762
171
     3
172
     1
176
   256
177
   256
178
   256
179
     2
271
     2
272
     2
274
     3
278
    44
284
     8
286
     8
340
B7
371
    -1
372
    -1
  0
DIMSTYLE
105
BF
330
A
100
AcDbSymbolTableRecord
100
AcDbDimStyleTableRecord
  2
Standard - Methode 1b (ISO)$7
 70
     0
 40
2.0
 41
2.5
 42
0.0
 43
5.999999999999999
 44
3.174999999999999
 45
0.00000001
 46
10.0
 73
     0
 77
     1
 78
     8
 79
     2
140
3.5
143
0.03937
147
0.762
171
     3
172
     1
176
   256
177
   256
178
   256
179
     2
271
     2
272
     2
274
     3
278
    44
284
     8
286
     8
340
B7
371
    -1
372
    -1
  0
DIMSTYLE
105
C0
330
A
100
AcDbSymbolTableRecord
100
AcDbDimStyleTableRecord
  2
Standard - Methode 2a (DIN)
 70
     0
 40
2.0
 41
2.5
 42
0.8
 43
5.999999999999999
 44
3.174999999999999
 45
0.00000001
 46
10.0
 77
     1
 78
     8
 79
     2
140
3.5
143
0.03937
147
0.8
170
     1
171
     3
172
     1
176
   256
177
   256
178
   256
179
     2
271
     2
272
     2
274
     3
278
    44
284
     8
286
     8
340
B6
371
    -1
372
    -1
  0
DIMSTYLE
105
C1
330
A
100
AcDbSymbolTableRecord
100
AcDbDimStyleTableRecord
  2
Standard - Methode 2a (DIN)$7
 70
     0
 40
2.0
 41
2.5
 42
0.8
 43
5.999999999999999
 44
3.174999999999999
 45
0.00000001
 46
10.0
 77
     1
 78
     8
 79
     2
140
3.5
143
0.03937
147
0.8
170
     1
171
     3
172
     1
176
   256
177
   256
178
   256
179
     2
271
     2
272
     2
274
     3
278
    44
284
     8
286
     8
340
B6
371
    -1
372
    -1
  0
DIMSTYLE
105
C2
330
A
100
AcDbSymbolTableRecord
100
AcDbDimStyleTableRecord
  2
Standard - Methode 2b (DIN)
 70
     0
 40
2.0
 41
2.5
 42
0.0
 43
5.999999999999999
 44
3.174999999999999
 45
0.00000001
 46
10.0
 77
     1
 78
     8
 79
     2
140
3.5
143
0.03937
147
0.8
171
     3
172
     1
176
   256
177
   256
178
   256
271
     2
272
     2
274
     3
278
    44
284
     8
286
     8
340
B6
371
    -1
372
    -1
  0
DIMSTYLE
105
C3
330
A
100
AcDbSymbolTableRecord
100
AcDbDimStyleTableRecord
  2
Standard - Methode 2b (DIN)$7
 70
     0
 40
2.0
 41
2.5
 42
0.0
 43
5.999999999999999
 44
3.174999999999999
 45
0.00000001
 46
10.0
 77
     1
 78
     8
 79
     2
140
3.5
143
0.03937
147
0.8
171
     3
172
     1
176
   256
177
   256
178
   256
271
     2
272
     2
274
     3
278
    44
284
     8
286
     8
340
B6
371
    -1
372
    -1
  0
DIMSTYLE
105
C4
330
A
100
AcDbSymbolTableRecord
100
AcDbDimStyleTableRecord
  2
Standard (DIN)
 70
     0
 40
2.0
 41
2.5
 42
0.8
 43
5.999999999999999
 44
3.174999999999999
 45
0.00000001
 46
10.0
 73
     0
 74
     0
 77
     1
140
3.5
143
0.03937
147
0.8
171
     3
172
     1
176
   256
177
   256
178
   256
271
     2
272
     2
274
     3
278
    44
340
B6
371
    -1
372
    -1
  0
DIMSTYLE
105
C5
330
A
100
AcDbSymbolTableRecord
100
AcDbDimStyleTableRecord
  2
Standard (DIN)$7
 70
     0
 40
2.0
 41
2.5
 42
0.8
 43
5.999999999999999
 44
3.174999999999999
 45
0.00000001
 46
10.0
 73
     0
 74
     0
 77
     1
140
3.5
143
0.03937
147
0.8
171
     3
172
     1
176
   256
177
   256
178
   256
271
     2
272
     2
274
     3
278
    44
340
B6
371
    -1
372
    -1
  0
DIMSTYLE
105
C6
330
A
100
AcDbSymbolTableRecord
100
AcDbDimStyleTableRecord
  2
Standard (ISO)
 70
     0
 40
2.0
 41
2.5
 42
0.0
 43
5.999999999999999
 44
3.174999999999999
 45
0.00000001
 46
10.0
 73
     0
 74
     0
 77
     1
140
3.5
143
0.03937
146
1.001485705375671
147
0.762
171
     3
172
     1
176
   256
177
   256
178
   256
179
     2
271
     2
272
     2
274
     3
278
    44
340
B7
371
    -1
372
    -1
  0
DIMSTYLE
105
C7
330
A
100
AcDbSymbolTableRecord
100
AcDbDimStyleTableRecord
  2
Standard (ISO)$7
 70
     0
 40
2.0
 41
2.5
 42
0.0
 43
5.999999999999999
 44
3.174999999999999
 45
0.00000001
 46
10.0
 73
     0
 74
     0
 77
     1
140
3.5
143
0.03937
146
1.001485705375671
147
0.762
171
     3
172
     1
176
   256
177
   256
178
   256
179
     2
271
     2
272
     2
274
     3
278
    44
340
B7
371
    -1
372
    -1
  0
DIMSTYLE
105
C8
330
A
100
AcDbSymbolTableRecord
100
AcDbDimStyleTableRecord
  2
Alternativ (ISO)
 70
     0
 40
2.0
 41
2.5
340
55
342
C9
  0
DIMSTYLE
105
DB
330
A
100
AcDbSymbolTableRecord
100
AcDbDimStyleTableRecord
  2
Bezug (ISO)
 70
     0
 40
2.0
 41
2.5
340
55
342
C9
  0
DIMSTYLE
105
DC
330
A
100
AcDbSymbolTableRecord
100
AcDbDimStyleTableRecord
  2
Führungslinie-Ursprungsindikator(DIN)
 70
     0
 40
2.0
 41
2.5
340
55
342
C9
  0
DIMSTYLE
105
DD
330
A
100
AcDbSymbolTableRecord
100
AcDbDimStyleTableRecord
  2
Führungslinie - Bezugsstelle(DIN)
 70
     0
 40
2.0
 41
2.5
340
55
342
C9
  0
DIMSTYLE
105
DE
330
A
100
AcDbSymbolTableRecord
100
AcDbDimStyleTableRecord
  2
Führungslinie - groß(DIN)
 70
     0
 40
2.0
 41
5.0
340
55
342
C9
  0
DIMSTYLE
105
DF
330
A
100
AcDbSymbolTableRecord
100
AcDbDimStyleTableRecord
  2
Führungslinie - Punkt(DIN)
 70
     0
 40
2.0
 41
2.5
340
55
342
C9
  0
DIMSTYLE
105
E0
330
A
100
AcDbSymbolTableRecord
100
AcDbDimStyleTableRecord
  2
Führungslinie(DIN)
 70
     0
 40
2.0
 41
2.5
340
55
342
C9
  0
DIMSTYLE
105
EF
330
A
100
AcDbSymbolTableRecord
100
AcDbDimStyleTableRecord
  2
Groß (ISO)
 70
     0
 40
2.0
 41
5.0
340
55
342
C9
  0
ENDTAB
  0
TABLE
  2
BLOCK_RECORD
  5
1
330
0
100
AcDbSymbolTable
 70
    24
  0
BLOCK_RECORD
  5
6C
330
1
100
AcDbSymbolTableRecord
100
AcDbBlockTableRecord
  2
*Model_Space
340
6F
 70
     0
280
     1
281
     0
  0
BLOCK_RECORD
  5
68
330
1
100
AcDbSymbolTableRecord
100
AcDbBlockTableRecord
  2
*Paper_Space
340
6B
 70
     0
280
     1
281
     0
  0
BLOCK_RECORD
  5
70
330
1
100
AcDbSymbolTableRecord
100
AcDbBlockTableRecord
  2
*Paper_Space0
340
73
 70
     0
280
     1
281
     0
  0
BLOCK_RECORD
  5
C9
330
1
100
AcDbSymbolTableRecord
100
AcDbBlockTableRecord
  2
_Closed
340
0
 70
     0
280
     1
281
     0
  0
BLOCK_RECORD
  5
D0
330
1
100
AcDbSymbolTableRecord
100
AcDbBlockTableRecord
  2
DatumFilled45
340
0
 70
     0
280
     1
281
     0
  0
BLOCK_RECORD
  5
E1
330
1
100
AcDbSymbolTableRecord
100
AcDbBlockTableRecord
  2
Filled-1
340
0
 70
     0
280
     1
281
     0
  0
BLOCK_RECORD
  5
F0
330
1
100
AcDbSymbolTableRecord
100
AcDbBlockTableRecord
  2
Carbonitrieren
340
0
 70
     0
280
     1
281
     0
  0
BLOCK_RECORD
  5
F5
330
1
100
AcDbSymbolTableRecord
100
AcDbBlockTableRecord
  2
Federangaben
340
0
 70
     0
280
     1
281
     0
  0
BLOCK_RECORD
  5
F9
330
1
100
AcDbSymbolTableRecord
100
AcDbBlockTableRecord
  2
Nassschliff
340
0
 70
     0
280
     1
281
     0
  0
BLOCK_RECORD
  5
FD
330
1
100
AcDbSymbolTableRecord
100
AcDbBlockTableRecord
  2
Schleiffrichtung horizontal
340
0
 70
     0
280
     1
281
     0
  0
BLOCK_RECORD
  5
110
330
1
100
AcDbSymbolTableRecord
100
AcDbBlockTableRecord
  2
Schleiffrichtung vertikal
340
0
 70
     0
280
     1
281
     0
  0
BLOCK_RECORD
  5
123
330
1
100
AcDbSymbolTableRecord
100
AcDbBlockTableRecord
  2
Stanz-_Laserteil
340
0
 70
     0
280
     1
281
     0
  0
BLOCK_RECORD
  5
127
330
1
100
AcDbSymbolTableRecord
100
AcDbBlockTableRecord
  2
Stanzrundung_1
340
0
 70
     0
280
     1
281
     0
  0
BLOCK_RECORD
  5
12D
330
1
100
AcDbSymbolTableRecord
100
AcDbBlockTableRecord
  2
Stanzrundung_2
340
0
 70
     0
280
     1
281
     0
  0
BLOCK_RECORD
  5
133
330
1
100
AcDbSymbolTableRecord
100
AcDbBlockTableRecord
  2
Verzinkt
340
0
 70
     0
280
     1
281
     0
  0
BLOCK_RECORD
  5
137
330
1
100
AcDbSymbolTableRecord
100
AcDbBlockTableRecord
  2
Vierkant-Tabelle
340
0
 70
     0
280
     1
281
     0
  0
BLOCK_RECORD
  5
162
330
1
100
AcDbSymbolTableRecord
100
AcDbBlockTableRecord
  2
Laserpunkt_Text
340
0
 70
     0
280
     1
281
     0
  0
BLOCK_RECORD
  5
169
330
1
100
AcDbSymbolTableRecord
100
AcDbBlockTableRecord
  2
Laserpunkt
340
0
 70
     0
280
     1
281
     0
  0
BLOCK_RECORD
  5
16F
330
1
100
AcDbSymbolTableRecord
100
AcDbBlockTableRecord
  2
Kantenbruch
340
0
 70
     0
280
     1
281
     0
  0
BLOCK_RECORD
  5
1DE
330
1
100
AcDbSymbolTableRecord
100
AcDbBlockTableRecord
  2
*D17
340
0
 70
     0
280
     1
281
     0
  0
BLOCK_RECORD
  5
2C6
330
1
100
AcDbSymbolTableRecord
100
AcDbBlockTableRecord
  2
*D18
340
0
 70
     0
280
     1
281
     0
  0
BLOCK_RECORD
  5
3AE
330
1
100
AcDbSymbolTableRecord
100
AcDbBlockTableRecord
  2
*D19
340
0
 70
     0
280
     1
281
     0
  0
BLOCK_RECORD
  5
490
330
1
100
AcDbSymbolTableRecord
100
AcDbBlockTableRecord
  2
*D20
340
0
 70
     0
280
     1
281
     0
  0
BLOCK_RECORD
  5
58E
330
1
100
AcDbSymbolTableRecord
100
AcDbBlockTableRecord
  2
*D21
340
0
 70
     0
280
     1
281
     0
  0
BLOCK_RECORD
  5
670
330
1
100
AcDbSymbolTableRecord
100
AcDbBlockTableRecord
  2
*D22
340
0
 70
     0
280
     1
281
     0
  0
BLOCK_RECORD
  5
760
330
1
100
AcDbSymbolTableRecord
100
AcDbBlockTableRecord
  2
*D23
340
0
 70
     0
280
     1
281
     0
  0
ENDTAB
  0
ENDSEC
  0
SECTION
  2
BLOCKS
  0
BLOCK
  5
6D
330
6C
100
AcDbEntity
  8
0
100
AcDbBlockBegin
  2
*Model_Space
 70
     0
 10
0.0
 20
0.0
 30
0.0
  3
*Model_Space
  1

  0
ENDBLK
  5
6E
330
6C
100
AcDbEntity
  8
0
100
AcDbBlockEnd
  0
BLOCK
  5
69
330
68
100
AcDbEntity
 67
     1
  8
0
100
AcDbBlockBegin
  2
*Paper_Space
 70
     0
 10
0.0
 20
0.0
 30
0.0
  3
*Paper_Space
  1

  0
ENDBLK
  5
6A
330
68
100
AcDbEntity
 67
     1
  8
0
100
AcDbBlockEnd
  0
BLOCK
  5
71
330
70
100
AcDbEntity
 67
     1
  8
0
100
AcDbBlockBegin
  2
*Paper_Space0
 70
     0
 10
0.0
 20
0.0
 30
0.0
  3
*Paper_Space0
  1

  0
ENDBLK
  5
72
330
70
100
AcDbEntity
 67
     1
  8
0
100
AcDbBlockEnd
  0
BLOCK
  5
CE
330
C9
100
AcDbEntity
  8
0
100
AcDbBlockBegin
  2
_Closed
 70
     0
 10
0.0
 20
0.0
 30
0.0
  3
_Closed
  1

  0
LINE
  5
CA
330
C9
100
AcDbEntity
  8
0
  6
ByBlock
 62
     0
370
    -2
100
AcDbLine
 10
-1.0
 20
0.1666666666666666
 30
0.0
 11
0.0
 21
0.0
 31
0.0
  0
LINE
  5
CB
330
C9
100
AcDbEntity
  8
0
  6
ByBlock
 62
     0
370
    -2
100
AcDbLine
 10
0.0
 20
0.0
 30
0.0
 11
-1.0
 21
-0.1666666666666666
 31
0.0
  0
LINE
  5
CC
330
C9
100
AcDbEntity
  8
0
  6
ByBlock
 62
     0
370
    -2
100
AcDbLine
 10
-1.0
 20
0.1666666666666666
 30
0.0
 11
-1.0
 21
-0.1666666666666666
 31
0.0
  0
LINE
  5
CD
330
C9
100
AcDbEntity
  8
0
  6
ByBlock
 62
     0
370
    -2
100
AcDbLine
 10
0.0
 20
0.0
 30
0.0
 11
-1.0
 21
0.0
 31
0.0
  0
ENDBLK
  5
CF
330
C9
100
AcDbEntity
  8
0
100
AcDbBlockEnd
  0
BLOCK
  5
D1
330
D0
100
AcDbEntity
  8
0
100
AcDbBlockBegin
  2
DatumFilled45
 70
     0
 10
0.0
 20
0.0
 30
0.0
  3
DatumFilled45
  1

  0
POLYLINE
  5
D3
330
D0
100
AcDbEntity
  8
0
 62
     0
100
AcDb2dPolyline
 66
     1
 10
0.0
 20
0.0
 30
0.0
 70
   128
  0
VERTEX
  5
D4
330
D3
100
AcDbEntity
  8
0
 62
     0
100
AcDbVertex
100
AcDb2dVertex
 10
0.0
 20
1.0
 30
0.0
  0
VERTEX
  5
D5
330
D3
100
AcDbEntity
  8
0
 62
     0
100
AcDbVertex
100
AcDb2dVertex
 10
0.0
 20
-1.0
 30
0.0
  0
VERTEX
  5
D7
330
D3
100
AcDbEntity
  8
0
 62
     0
100
AcDbVertex
100
AcDb2dVertex
 10
-1.0
 20
0.0
 30
0.0
  0
VERTEX
  5
D8
330
D3
100
AcDbEntity
  8
0
 62
     0
100
AcDbVertex
100
AcDb2dVertex
 10
0.0
 20
1.0
 30
0.0
  0
SEQEND
  5
D6
330
D3
100
AcDbEntity
  8
0
 62
     0
  0
SOLID
  5
DA
330
D0
100
AcDbEntity
  8
0
 62
     0
100
AcDbTrace
 10
0.0
 20
1.0
 30
0.0
 11
0.0
 21
-1.0
 31
0.0
 12
-1.0
 22
0.0
 32
0.0
 13
0.0
 23
1.0
 33
0.0
  0
ENDBLK
  5
D2
330
D0
100
AcDbEntity
  8
0
100
AcDbBlockEnd
  0
BLOCK
  5
E2
330
E1
100
AcDbEntity
  8
0
100
AcDbBlockBegin
  2
Filled-1
 70
     0
 10
0.0
 20
0.0
 30
0.0
  3
Filled-1
  1

  0
LINE
  5
E4
330
E1
100
AcDbEntity
  8
0
 62
     0
100
AcDbLine
 10
-1.0
 20
0.0
 30
0.0
 11
0.0
 21
0.0
 31
0.0
  0
POLYLINE
  5
E5
330
E1
100
AcDbEntity
  8
0
 62
     0
100
AcDb2dPolyline
 66
     1
 10
0.0
 20
0.0
 30
0.0
 70
   128
  0
VERTEX
  5
E6
330
E5
100
AcDbEntity
  8
0
 62
     0
100
AcDbVertex
100
AcDb2dVertex
 10
-1.0
 20
-0.1
 30
0.0
  0
VERTEX
  5
E7
330
E5
100
AcDbEntity
  8
0
 62
     0
100
AcDbVertex
100
AcDb2dVertex
 10
0.0
 20
0.0
 30
0.0
  0
VERTEX
  5
E9
330
E5
100
AcDbEntity
  8
0
 62
     0
100
AcDbVertex
100
AcDb2dVertex
 10
-1.0
 20
0.1
 30
0.0
  0
VERTEX
  5
EA
330
E5
100
AcDbEntity
  8
0
 62
     0
100
AcDbVertex
100
AcDb2dVertex
 10
-1.0
 20
-0.1
 30
0.0
  0
SEQEND
  5
E8
330
E5
100
AcDbEntity
  8
0
 62
     0
  0
SOLID
  5
EB
330
E1
100
AcDbEntity
  8
0
 62
     0
100
AcDbTrace
 10
-1.0
 20
-0.1
 30
0.0
 11
0.0
 21
0.0
 31
0.0
 12
-1.0
 22
0.1
 32
0.0
 13
-1.0
 23
-0.1
 33
0.0
  0
LINE
  5
EC
330
E1
100
AcDbEntity
  8
0
 62
     0
100
AcDbLine
 10
-1.0
 20
-0.1
 30
0.0
 11
0.0
 21
0.0
 31
0.0
  0
LINE
  5
ED
330
E1
100
AcDbEntity
  8
0
 62
     0
100
AcDbLine
 10
0.0
 20
0.0
 30
0.0
 11
-1.0
 21
0.1
 31
0.0
  0
LINE
  5
EE
330
E1
100
AcDbEntity
  8
0
 62
     0
100
AcDbLine
 10
-1.0
 20
0.1
 30
0.0
 11
-1.0
 21
-0.1
 31
0.0
  0
ENDBLK
  5
E3
330
E1
100
AcDbEntity
  8
0
100
AcDbBlockEnd
  0
BLOCK
  5
F1
330
F0
100
AcDbEntity
  8
0
100
AcDbBlockBegin
  2
Carbonitrieren
 70
     0
 10
0.0
 20
0.0
 30
0.0
  3
Carbonitrieren
  1

  0
MTEXT
  5
F3
330
F0
100
AcDbEntity
  8
Titel (ISO)
100
AcDbMText
 10
-75.71151256561281
 20
15.48921793699264
 30
0.0
 40
3.499999940395355
 41
147.2330421884934
 46
0.0
 71
     1
 72
     1
  3
- Carbonitriert: 0.3 ±0.1 tief;HV 500...600 (Prüfkraft DIN 50133)\P- elektrolytisch verkupfert 1-2µ, el. vernickelt 8-10µ\fArial|b0|i0;\H3.3000;\P\fArial|b0|i0;\H3.5000;- Entspröden: glühen 190-210°C, ca 3h innerhalb 4h nach Veredelung\P \P-TriboCoat
  1
ing TC D1050, 4...8µ\P 
  7
_Schriftfeld_3.5mm
 73
     2
 44
0.9442214965820312
  0
ENDBLK
  5
F2
330
F0
100
AcDbEntity
  8
0
100
AcDbBlockEnd
  0
BLOCK
  5
F6
330
F5
100
AcDbEntity
  8
0
100
AcDbBlockBegin
  2
Federangaben
 70
     0
 10
0.0
 20
0.0
 30
0.0
  3
Federangaben
  1

  0
MTEXT
  5
F8
330
F5
100
AcDbEntity
  8
Titel (ISO)
100
AcDbMText
 10
-23.02877426147463
 20
32.04377174377441
 30
0.0
 40
3.499999940395355
 41
201.4264025634256
 46
0.0
 71
     1
 72
     1
  1
getrommelt\Pzunderfrei\Pohne Druckstellen\Pund Sicken\P \PEinfederung ...°\PMd ... Nmm\PSb ... N/mm2\P \PWindungszahl ...\P50 HRc +/- 2 eingeölt\P 
  7
_Schriftfeld_3.5mm
 73
     2
 44
0.9442216157913208
  0
ENDBLK
  5
F7
330
F5
100
AcDbEntity
  8
0
100
AcDbBlockEnd
  0
BLOCK
  5
FA
330
F9
100
AcDbEntity
  8
0
100
AcDbBlockBegin
  2
Nassschliff
 70
     0
 10
0.0
 20
0.0
 30
0.0
  3
Nassschliff
  1

  0
MTEXT
  5
FC
330
F9
100
AcDbEntity
  8
Titel (ISO)
100
AcDbMText
 10
-59.37195301055908
 20
2.29287352412939
 30
0.0
 40
3.499999940395355
 41
0.0
 46
0.0
 71
     1
 72
     1
  1
Verfahren IV: Nassschliff, Korn 220-240, Folie einseitig
  7
_Schriftfeld_3.5mm
 73
     1
 44
1.0
  0
ENDBLK
  5
FB
330
F9
100
AcDbEntity
  8
0
100
AcDbBlockEnd
  0
BLOCK
  5
FE
330
FD
100
AcDbEntity
  8
0
100
AcDbBlockBegin
  2
Schleiffrichtung horizontal
 70
     0
 10
0.0
 20
0.0
 30
0.0
  3
Schleiffrichtung horizontal
  1

  0
HATCH
  5
103
330
FD
100
AcDbEntity
  8
Schraffur (ISO)
100
AcDbHatch
 10
0.0
 20
0.0
 30
0.0
210
0.0
220
0.0
230
1.0
  2
SOLID
 70
     1
 71
     0
 91
        1
 92
        1
 93
        3
 72
     1
 10
-20.0
 20
0.0
 11
-17.50000000000001
 21
-0.4999999999999894
 72
     1
 10
-17.50000000000001
 20
-0.4999999999999894
 11
-17.50000000000001
 21
0.5000000000000071
 72
     1
 10
-17.50000000000001
 20
0.5000000000000071
 11
-20.0
 21
0.0
 97
        0
 75
     0
 76
     1
 98
        1
 10
0.0
 20
0.0
450
        0
451
        0
460
0.0
461
0.0
452
        0
462
0.0
453
        0
470

  0
HATCH
  5
107
330
FD
100
AcDbEntity
  8
Schraffur (ISO)
100
AcDbHatch
 10
0.0
 20
0.0
 30
0.0
210
0.0
220
0.0
230
1.0
  2
SOLID
 70
     1
 71
     0
 91
        1
 92
        1
 93
        3
 72
     1
 10
19.99999999999998
 20
0.0
 11
17.5
 21
0.5000000000000071
 72
     1
 10
17.5
 20
0.5000000000000071
 11
17.49999999999998
 21
-0.4999999999999894
 72
     1
 10
17.49999999999998
 20
-0.4999999999999894
 11
19.99999999999998
 21
0.0
 97
        0
 75
     0
 76
     1
 98
        1
 10
0.0
 20
0.0
450
        0
451
        0
460
0.0
461
0.0
452
        0
462
0.0
453
        0
470

  0
LINE
  5
108
330
FD
100
AcDbEntity
  8
Titel (ISO)
370
    25
100
AcDbLine
 10
-20.0
 20
0.0
 30
0.0
 11
19.99999999999998
 21
0.0
 31
0.0
  0
LINE
  5
109
330
FD
100
AcDbEntity
  8
Titel (ISO)
100
AcDbLine
 10
19.99999999999998
 20
0.0
 30
0.0
 11
17.5
 21
0.5000000000000071
 31
0.0
  0
LINE
  5
10A
330
FD
100
AcDbEntity
  8
Titel (ISO)
100
AcDbLine
 10
17.5
 20
0.5000000000000071
 30
0.0
 11
17.49999999999998
 21
-0.4999999999999894
 31
0.0
  0
LINE
  5
10B
330
FD
100
AcDbEntity
  8
Titel (ISO)
100
AcDbLine
 10
17.49999999999998
 20
-0.4999999999999894
 30
0.0
 11
19.99999999999998
 21
0.0
 31
0.0
  0
LINE
  5
10C
330
FD
100
AcDbEntity
  8
Titel (ISO)
100
AcDbLine
 10
-17.50000000000001
 20
0.5000000000000071
 30
0.0
 11
-20.0
 21
0.0
 31
0.0
  0
LINE
  5
10D
330
FD
100
AcDbEntity
  8
Titel (ISO)
100
AcDbLine
 10
-20.0
 20
0.0
 30
0.0
 11
-17.50000000000001
 21
-0.4999999999999894
 31
0.0
  0
LINE
  5
10E
330
FD
100
AcDbEntity
  8
Titel (ISO)
100
AcDbLine
 10
-17.50000000000001
 20
-0.4999999999999894
 30
0.0
 11
-17.50000000000001
 21
0.5000000000000071
 31
0.0
  0
MTEXT
  5
10F
330
FD
100
AcDbEntity
  8
Titel (ISO)
100
AcDbMText
 10
-15.50000000000001
 20
5.0
 30
0.0
 40
3.499999940395355
 41
0.0
 46
0.0
 71
     1
 72
     1
  1
Schliffrichtung
  7
_Schriftfeld_3.5mm
 73
     1
 44
1.0
  0
ENDBLK
  5
FF
330
FD
100
AcDbEntity
  8
0
100
AcDbBlockEnd
  0
BLOCK
  5
111
330
110
100
AcDbEntity
  8
0
100
AcDbBlockBegin
  2
Schleiffrichtung vertikal
 70
     0
 10
0.0
 20
0.0
 30
0.0
  3
Schleiffrichtung vertikal
  1

  0
HATCH
  5
116
330
110
100
AcDbEntity
  8
Schraffur (ISO)
100
AcDbHatch
 10
0.0
 20
0.0
 30
0.0
210
0.0
220
0.0
230
1.0
  2
SOLID
 70
     1
 71
     0
 91
        1
 92
        1
 93
        3
 72
     1
 10
0.0
 20
-20.0
 11
0.4999999999999983
 21
-17.5
 72
     1
 10
0.4999999999999983
 20
-17.5
 11
-0.4999999999999983
 21
-17.5
 72
     1
 10
-0.4999999999999983
 20
-17.5
 11
0.0
 21
-20.0
 97
        0
 75
     0
 76
     1
 98
        1
 10
0.0
 20
0.0
450
        0
451
        0
460
0.0
461
0.0
452
        0
462
0.0
453
        0
470

  0
HATCH
  5
11A
330
110
100
AcDbEntity
  8
Schraffur (ISO)
100
AcDbHatch
 10
0.0
 20
0.0
 30
0.0
210
0.0
220
0.0
230
1.0
  2
SOLID
 70
     1
 71
     0
 91
        1
 92
        1
 93
        3
 72
     1
 10
0.0
 20
20.0
 11
-0.5000000000000071
 21
17.5
 72
     1
 10
-0.5000000000000071
 20
17.5
 11
0.4999999999999983
 21
17.5
 72
     1
 10
0.4999999999999983
 20
17.5
 11
0.0
 21
20.0
 97
        0
 75
     0
 76
     1
 98
        1
 10
0.0
 20
0.0
450
        0
451
        0
460
0.0
461
0.0
452
        0
462
0.0
453
        0
470

  0
LINE
  5
11B
330
110
100
AcDbEntity
  8
Titel (ISO)
370
    25
100
AcDbLine
 10
0.0
 20
-20.0
 30
0.0
 11
0.0
 21
20.0
 31
0.0
  0
LINE
  5
11C
330
110
100
AcDbEntity
  8
Titel (ISO)
100
AcDbLine
 10
0.0
 20
20.0
 30
0.0
 11
-0.5000000000000071
 21
17.5
 31
0.0
  0
LINE
  5
11D
330
110
100
AcDbEntity
  8
Titel (ISO)
100
AcDbLine
 10
-0.5000000000000071
 20
17.5
 30
0.0
 11
0.4999999999999983
 21
17.5
 31
0.0
  0
LINE
  5
11E
330
110
100
AcDbEntity
  8
Titel (ISO)
100
AcDbLine
 10
0.4999999999999983
 20
17.5
 30
0.0
 11
0.0
 21
20.0
 31
0.0
  0
LINE
  5
11F
330
110
100
AcDbEntity
  8
Titel (ISO)
100
AcDbLine
 10
-0.4999999999999983
 20
-17.5
 30
0.0
 11
0.0
 21
-20.0
 31
0.0
  0
LINE
  5
120
330
110
100
AcDbEntity
  8
Titel (ISO)
100
AcDbLine
 10
0.0
 20
-20.0
 30
0.0
 11
0.4999999999999983
 21
-17.5
 31
0.0
  0
LINE
  5
121
330
110
100
AcDbEntity
  8
Titel (ISO)
100
AcDbLine
 10
0.4999999999999983
 20
-17.5
 30
0.0
 11
-0.4999999999999983
 21
-17.5
 31
0.0
  0
MTEXT
  5
122
330
110
100
AcDbEntity
  8
Titel (ISO)
100
AcDbMText
 10
-5.0
 20
-15.5
 30
0.0
 40
3.499999940395355
 41
0.0
 46
0.0
 71
     1
 72
     1
  1
Schliffrichtung
  7
_Schriftfeld_3.5mm
 11
0.0000000000000001
 21
1.0
 31
0.0
 73
     1
 44
1.0
  0
ENDBLK
  5
112
330
110
100
AcDbEntity
  8
0
100
AcDbBlockEnd
  0
BLOCK
  5
124
330
123
100
AcDbEntity
  8
0
100
AcDbBlockBegin
  2
Stanz-_Laserteil
 70
     0
 10
0.0
 20
0.0
 30
0.0
  3
Stanz-_Laserteil
  1

  0
MTEXT
  5
126
330
123
100
AcDbEntity
  8
Titel (ISO)
100
AcDbMText
 10
-49.3854808807373
 20
9.981259405612945
 30
0.0
 40
3.499999940395355
 41
193.6792332340631
 46
0.0
 71
     1
 72
     1
  1
Als Stanzteil konzipiert\PWenn als Laserteil hergestellt, \Pmuss ganze Kontur innerhalb +/- 0.1 mm sein\P
  7
_Schriftfeld_3.5mm
 73
     2
 44
0.9442214965820312
  0
ENDBLK
  5
125
330
123
100
AcDbEntity
  8
0
100
AcDbBlockEnd
  0
BLOCK
  5
128
330
127
100
AcDbEntity
  8
0
100
AcDbBlockBegin
  2
Stanzrundung_1
 70
     0
 10
0.0
 20
0.0
 30
0.0
  3
Stanzrundung_1
  1

  0
ARC
  5
12A
330
127
100
AcDbEntity
  8
Titel (ISO)
100
AcDbCircle
 10
-2.449972172222221
 20
1.477407396909722
 30
0.0
 40
1.999999999999999
100
AcDbArc
 50
270.0
 51
0.0
  0
LINE
  5
12B
330
127
100
AcDbEntity
  8
Titel (ISO)
100
AcDbLine
 10
-1.049223178106464
 20
0.0498562575512551
 30
0.0
 11
2.449972272222211
 21
-1.477407496909712
 31
0.0
  0
MTEXT
  5
12C
330
127
100
AcDbEntity
  8
Titel (ISO)
100
AcDbMText
 10
3.130367236014626
 20
-0.28633610801851
 30
0.0
 40
3.499999940395355
 41
0.0
 46
0.0
 71
     1
 72
     1
  1
Stanzrundung
  7
_Schriftfeld_3.5mm
 73
     1
 44
1.0
  0
ENDBLK
  5
129
330
127
100
AcDbEntity
  8
0
100
AcDbBlockEnd
  0
BLOCK
  5
12E
330
12D
100
AcDbEntity
  8
0
100
AcDbBlockBegin
  2
Stanzrundung_2
 70
     0
 10
0.0
 20
0.0
 30
0.0
  3
Stanzrundung_2
  1

  0
ARC
  5
130
330
12D
100
AcDbEntity
  8
Titel (ISO)
100
AcDbCircle
 10
1.855973276181241
 20
1.952432954041682
 30
0.0
 40
1.566421450686395
100
AcDbArc
 50
180.0
 51
270.0
  0
LINE
  5
131
330
12D
100
AcDbEntity
  8
Titel (ISO)
100
AcDbLine
 10
-1.855973376181214
 20
-1.952433054041673
 30
0.0
 11
0.7767462473268339
 21
0.8171157378590976
 31
0.0
  0
MTEXT
  5
132
330
12D
100
AcDbEntity
  8
Titel (ISO)
100
AcDbMText
 10
-35.05451959893436
 20
-0.5734039390297241
 30
0.0
 40
3.499999940395355
 41
0.0
 46
0.0
 71
     1
 72
     1
  1
Stanzrundung
  7
_Schriftfeld_3.5mm
 73
     1
 44
1.0
  0
ENDBLK
  5
12F
330
12D
100
AcDbEntity
  8
0
100
AcDbBlockEnd
  0
BLOCK
  5
134
330
133
100
AcDbEntity
  8
0
100
AcDbBlockBegin
  2
Verzinkt
 70
     0
 10
0.0
 20
0.0
 30
0.0
  3
Verzinkt
  1

  0
MTEXT
  5
136
330
133
100
AcDbEntity
  8
Titel (ISO)
100
AcDbMText
 10
-34.96665477752687
 20
2.242187596857547
 30
0.0
 40
3.499999940395355
 41
0.0
 46
0.0
 71
     1
 72
     1
  1
verzinkt und blau passiviert 8µm
  7
_Schriftfeld_3.5mm
 73
     1
 44
1.0
  0
ENDBLK
  5
135
330
133
100
AcDbEntity
  8
0
100
AcDbBlockEnd
  0
BLOCK
  5
138
330
137
100
AcDbEntity
  8
0
100
AcDbBlockBegin
  2
Vierkant-Tabelle
 70
     0
 10
0.0
 20
0.0
 30
0.0
  3
Vierkant-Tabelle
  1

  0
LINE
  5
13A
330
137
100
AcDbEntity
  8
Titel (ISO)
 62
     7
100
AcDbLine
 10
-33.99999999999998
 20
-24.00000000000006
 30
0.0
 11
33.99999999999999
 21
-23.99999999999999
 31
0.0
  0
LINE
  5
13B
330
137
100
AcDbEntity
  8
Titel (ISO)
 62
     7
100
AcDbLine
 10
-33.99999999999999
 20
0.0
 30
0.0
 11
33.99999999999999
 21
0.0
 31
0.0
  0
LINE
  5
13C
330
137
100
AcDbEntity
  8
Titel (ISO)
 62
     7
100
AcDbLine
 10
-33.99999999999999
 20
23.99999999999999
 30
0.0
 11
33.99999999999999
 21
24.00000000000006
 31
0.0
  0
LINE
  5
13D
330
137
100
AcDbEntity
  8
Titel (ISO)
 62
     7
100
AcDbLine
 10
-33.99999999999999
 20
15.99999999999998
 30
0.0
 11
34.0
 21
16.00000000000005
 31
0.0
  0
LINE
  5
13E
330
137
100
AcDbEntity
  8
Titel (ISO)
 62
     7
100
AcDbLine
 10
-33.99999999999999
 20
7.999999999999971
 30
0.0
 11
34.0
 21
8.000000000000042
 31
0.0
  0
LINE
  5
13F
330
137
100
AcDbEntity
  8
Titel (ISO)
 62
     7
100
AcDbLine
 10
-33.99999999999999
 20
-8.000000000000042
 30
0.0
 11
33.99999999999999
 21
-7.999999999999971
 31
0.0
  0
LINE
  5
140
330
137
100
AcDbEntity
  8
Titel (ISO)
 62
     7
100
AcDbLine
 10
-33.99999999999999
 20
-16.00000000000005
 30
0.0
 11
33.99999999999999
 21
-15.99999999999998
 31
0.0
  0
LINE
  5
141
330
137
100
AcDbEntity
  8
Titel (ISO)
 62
     7
100
AcDbLine
 10
-25.99999999999997
 20
-24.00000000000006
 30
0.0
 11
-26.0
 21
23.99999999999999
 31
0.0
  0
LINE
  5
142
330
137
100
AcDbEntity
  8
Titel (ISO)
 62
     7
100
AcDbLine
 10
-33.99999999999998
 20
-24.00000000000006
 30
0.0
 11
-33.99999999999999
 21
23.99999999999999
 31
0.0
  0
LINE
  5
143
330
137
100
AcDbEntity
  8
Titel (ISO)
 62
     7
100
AcDbLine
 10
-5.999999999999969
 20
-24.00000000000002
 30
0.0
 11
-5.999999999999996
 21
24.00000000000002
 31
0.0
  0
LINE
  5
144
330
137
100
AcDbEntity
  8
Titel (ISO)
 62
     7
100
AcDbLine
 10
13.99999999999999
 20
-24.00000000000002
 30
0.0
 11
14.0
 21
24.00000000000002
 31
0.0
  0
LINE
  5
145
330
137
100
AcDbEntity
  8
Titel (ISO)
 62
     7
100
AcDbLine
 10
33.99999999999999
 20
-23.99999999999999
 30
0.0
 11
33.99999999999999
 21
24.00000000000006
 31
0.0
  0
MTEXT
  5
146
330
137
100
AcDbEntity
  8
Titel (ISO)
100
AcDbMText
 10
-31.0
 20
-9.999999850988423
 30
0.0
 40
2.5
 41
0.0
 46
0.0
 71
     1
 72
     1
  1
\fArial|b0|i0;\W0.60;\H2.5000;4
  7
_Schriftfeld_3.5mm
 73
     1
 44
1.0
  0
MTEXT
  5
147
330
137
100
AcDbEntity
  8
Titel (ISO)
100
AcDbMText
 10
-31.0
 20
5.999999999999978
 30
0.0
 40
2.5
 41
0.0
 46
0.0
 71
     1
 72
     1
  1
\fArial|b0|i0;\W0.60;\H2.5000;2
  7
_Schriftfeld_3.5mm
 73
     1
 44
1.0
  0
MTEXT
  5
148
330
137
100
AcDbEntity
  8
Titel (ISO)
100
AcDbMText
 10
-31.42346487563099
 20
21.00000014901159
 30
0.0
 40
2.5
 41
0.0
 46
0.0
 71
     1
 72
     1
  1
\fArial|b0|i0;\W0.65;\H2.5000;Pos.
  7
_Schriftfeld_3.5mm
 73
     1
 44
1.0
  0
MTEXT
  5
149
330
137
100
AcDbEntity
  8
Titel (ISO)
100
AcDbMText
 10
-31.0
 20
13.99999999999998
 30
0.0
 40
2.5
 41
0.0
 46
0.0
 71
     1
 72
     1
  1
\fArial|b0|i0;\W0.60;\H2.5000;1
  7
_Schriftfeld_3.5mm
 73
     1
 44
1.0
  0
MTEXT
  5
14A
330
137
100
AcDbEntity
  8
Titel (ISO)
100
AcDbMText
 10
-0.9999999999999964
 20
-18.00000000000004
 30
0.0
 40
2.5
 41
0.0
 46
0.0
 71
     1
 72
     1
  1
\fArial|b0|i0;\W0.88;\H2.5000;4kt. 10
  7
_Schriftfeld_3.5mm
 73
     1
 44
1.0
  0
MTEXT
  5
14B
330
137
100
AcDbEntity
  8
Titel (ISO)
100
AcDbMText
 10
-21.0
 20
-18.00000000000004
 30
0.0
 40
2.5
 41
0.0
 46
0.0
 71
     1
 72
     1
  1
\fAIGDT|b0|i0;\W0.65;\H2.5000;n\fArial|b0|i0;\W0.65;\H2.5000; 11.5
  7
_Schriftfeld_3.5mm
 73
     1
 44
1.0
  0
MTEXT
  5
14C
330
137
100
AcDbEntity
  8
Titel (ISO)
100
AcDbMText
 10
19.0
 20
-18.00000000000004
 30
0.0
 40
2.5
 41
0.0
 46
0.0
 71
     1
 72
     1
  1
\fArial|b0|i0;\W0.88;\H2.5000;13.6
  7
_Schriftfeld_3.5mm
 73
     1
 44
1.0
  0
MTEXT
  5
14D
330
137
100
AcDbEntity
  8
Titel (ISO)
100
AcDbMText
 10
-3.999999999999994
 20
21.00000014901159
 30
0.0
 40
2.5
 41
0.0
 46
0.0
 71
     1
 72
     1
  1
\fArial|b0|i0;\W0.78;\H2.5000;Mass B
  7
_Schriftfeld_3.5mm
 73
     1
 44
1.0
  0
MTEXT
  5
14E
330
137
100
AcDbEntity
  8
Titel (ISO)
100
AcDbMText
 10
-0.9999999999999964
 20
5.999999999999978
 30
0.0
 40
2.5
 41
0.0
 46
0.0
 71
     1
 72
     1
  1
\fArial|b0|i0;\W0.90;\H2.5000;4kt.  8
  7
_Schriftfeld_3.5mm
 73
     1
 44
1.0
  0
MTEXT
  5
14F
330
137
100
AcDbEntity
  8
Titel (ISO)
100
AcDbMText
 10
-0.9999999999999964
 20
-2.000000000000028
 30
0.0
 40
2.5
 41
0.0
 46
0.0
 71
     1
 72
     1
  1
\fArial|b0|i0;\W0.83;\H2.5000;4kt. 8.5
  7
_Schriftfeld_3.5mm
 73
     1
 44
1.0
  0
MTEXT
  5
150
330
137
100
AcDbEntity
  8
Titel (ISO)
100
AcDbMText
 10
-0.9999999999999964
 20
14.00000014901159
 30
0.0
 40
2.5
 41
0.0
 46
0.0
 71
     1
 72
     1
  1
\fArial|b0|i0;\W0.90;\H2.5000;4kt.  7
  7
_Schriftfeld_3.5mm
 73
     1
 44
1.0
  0
MTEXT
  5
151
330
137
100
AcDbEntity
  8
Titel (ISO)
100
AcDbMText
 10
-0.9999999999999964
 20
-10.00000000000003
 30
0.0
 40
2.5
 41
0.0
 46
0.0
 71
     1
 72
     1
  1
\fArial|b0|i0;\W0.90;\H2.5000;4kt.  9
  7
_Schriftfeld_3.5mm
 73
     1
 44
1.0
  0
MTEXT
  5
152
330
137
100
AcDbEntity
  8
Titel (ISO)
100
AcDbMText
 10
-21.0
 20
-2.000000000000028
 30
0.0
 40
2.5
 41
0.0
 46
0.0
 71
     1
 72
     1
  1
\fAIGDT|b0|i0;\W0.76;\H2.5000;n\fArial|b0|i0;\W0.76;\H2.5000; 10.5
  7
_Schriftfeld_3.5mm
 73
     1
 44
1.0
  0
MTEXT
  5
153
330
137
100
AcDbEntity
  8
Titel (ISO)
100
AcDbMText
 10
-21.0
 20
5.999999999999978
 30
0.0
 40
2.5
 41
0.0
 46
0.0
 71
     1
 72
     1
  1
\fAIGDT|b0|i0;\W0.73;\H2.5000;n\fArial|b0|i0;\W0.73;\H2.5000; 10
  7
_Schriftfeld_3.5mm
 73
     1
 44
1.0
  0
MTEXT
  5
154
330
137
100
AcDbEntity
  8
Titel (ISO)
100
AcDbMText
 10
-21.0
 20
-10.00000000000003
 30
0.0
 40
2.5
 41
0.0
 46
0.0
 71
     1
 72
     1
  1
\fAIGDT|b0|i0;\W0.69;\H2.5000;n\fArial|b0|i0;\W0.69;\H2.5000; 11
  7
_Schriftfeld_3.5mm
 73
     1
 44
1.0
  0
MTEXT
  5
155
330
137
100
AcDbEntity
  8
Titel (ISO)
100
AcDbMText
 10
-21.0
 20
13.99999999999998
 30
0.0
 40
2.5
 41
0.0
 46
0.0
 71
     1
 72
     1
  1
\fAIGDT|b0|i0;\W0.84;\H2.5000;n\fArial|b0|i0;\W0.84;\H2.5000; 8
  7
_Schriftfeld_3.5mm
 73
     1
 44
1.0
  0
MTEXT
  5
156
330
137
100
AcDbEntity
  8
Titel (ISO)
100
AcDbMText
 10
-22.02576666302079
 20
21.00000014901159
 30
0.0
 40
2.5
 41
0.0
 46
0.0
 71
     1
 72
     1
  1
\fArial|b0|i0;\W0.79;\H2.5000;Mass A
  7
_Schriftfeld_3.5mm
 73
     1
 44
1.0
  0
MTEXT
  5
157
330
137
100
AcDbEntity
  8
Titel (ISO)
100
AcDbMText
 10
-31.0
 20
-17.96760666370396
 30
0.0
 40
2.5
 41
0.0
 46
0.0
 71
     1
 72
     1
  1
\fArial|b0|i0;\W0.56;\H2.5000;5
  7
_Schriftfeld_3.5mm
 73
     1
 44
1.0
  0
MTEXT
  5
158
330
137
100
AcDbEntity
  8
Titel (ISO)
100
AcDbMText
 10
19.0
 20
-2.000000000000028
 30
0.0
 40
2.5
 41
0.0
 46
0.0
 71
     1
 72
     1
  1
\fArial|b0|i0;\W0.83;\H2.5000;12
  7
_Schriftfeld_3.5mm
 73
     1
 44
1.0
  0
MTEXT
  5
159
330
137
100
AcDbEntity
  8
Titel (ISO)
100
AcDbMText
 10
19.0
 20
5.999999999999978
 30
0.0
 40
2.5
 41
0.0
 46
0.0
 71
     1
 72
     1
  1
\fArial|b0|i0;\W0.90;\H2.5000;11.3
  7
_Schriftfeld_3.5mm
 73
     1
 44
1.0
  0
MTEXT
  5
15A
330
137
100
AcDbEntity
  8
Titel (ISO)
100
AcDbMText
 10
16.0
 20
20.99999999999998
 30
0.0
 40
2.5
 41
0.0
 46
0.0
 71
     1
 72
     1
  1
\fArial|b0|i0;\W0.78;\H2.5000;Mass C
  7
_Schriftfeld_3.5mm
 73
     1
 44
1.0
  0
MTEXT
  5
15B
330
137
100
AcDbEntity
  8
Titel (ISO)
100
AcDbMText
 10
19.0
 20
-10.00000000000003
 30
0.0
 40
2.5
 41
0.0
 46
0.0
 71
     1
 72
     1
  1
\fArial|b0|i0;\W0.90;\H2.5000;12.7
  7
_Schriftfeld_3.5mm
 73
     1
 44
1.0
  0
MTEXT
  5
15C
330
137
100
AcDbEntity
  8
Titel (ISO)
100
AcDbMText
 10
19.0
 20
13.99999999999998
 30
0.0
 40
2.5
 41
0.0
 46
0.0
 71
     1
 72
     1
  1
\fArial|b0|i0;\W0.90;\H2.5000;10
  7
_Schriftfeld_3.5mm
 73
     1
 44
1.0
  0
MTEXT
  5
15D
330
137
100
AcDbEntity
  8
Titel (ISO)
100
AcDbMText
 10
7.52309499999999
 20
23.50279363516371
 30
0.0
 40
2.5
 41
0.0
 46
0.0
 71
     1
 72
     1
  1
\fArial|b0|i0;\W0.68;\H2.5000;+0.05
  7
_Schriftfeld_3.5mm
 73
     1
 44
1.0
  0
MTEXT
  5
15E
330
137
100
AcDbEntity
  8
Titel (ISO)
100
AcDbMText
 10
28.821548797772
 20
20.00279363516373
 30
0.0
 40
2.5
 41
0.0
 46
0.0
 71
     1
 72
     1
  1
\fArial|b0|i0;\W0.63;\H2.5000;0
  7
_Schriftfeld_3.5mm
 73
     1
 44
1.0
  0
MTEXT
  5
15F
330
137
100
AcDbEntity
  8
Titel (ISO)
100
AcDbMText
 10
27.523095
 20
23.50279363516371
 30
0.0
 40
2.5
 41
0.0
 46
0.0
 71
     1
 72
     1
  1
\fArial|b0|i0;\W0.68;\H2.5000;+0.2
  7
_Schriftfeld_3.5mm
 73
     1
 44
1.0
  0
MTEXT
  5
160
330
137
100
AcDbEntity
  8
Titel (ISO)
100
AcDbMText
 10
-31.0
 20
-2.000000000000028
 30
0.0
 40
2.5
 41
0.0
 46
0.0
 71
     1
 72
     1
  1
\fArial|b0|i0;\W0.60;\H2.5000;3
  7
_Schriftfeld_3.5mm
 73
     1
 44
1.0
  0
MTEXT
  5
161
330
137
100
AcDbEntity
  8
Titel (ISO)
100
AcDbMText
 10
7.52309499999999
 20
20.00279363516373
 30
0.0
 40
2.5
 41
0.0
 46
0.0
 71
     1
 72
     1
  1
\fArial|b0|i0;\W0.63;\H2.5000;+0.01
  7
_Schriftfeld_3.5mm
 73
     1
 44
1.0
  0
ENDBLK
  5
139
330
137
100
AcDbEntity
  8
0
100
AcDbBlockEnd
  0
BLOCK
  5
163
330
162
100
AcDbEntity
  8
0
100
AcDbBlockBegin
  2
Laserpunkt_Text
 70
     0
 10
0.0
 20
0.0
 30
0.0
  3
Laserpunkt_Text
  1

  0
CIRCLE
  5
165
330
162
100
AcDbEntity
  8
Skizziergeometrie(DIN)
370
    70
100
AcDbCircle
 10
3.715998998176779
 20
2.6456025353386
 30
0.0
 40
2.250000000000003
  0
LINE
  5
166
330
162
100
AcDbEntity
  8
Skizziergeometrie(DIN)
370
    70
100
AcDbLine
 10
6.014096037033063
 20
0.3475054964822988
 30
0.0
 11
1.417901959320495
 21
4.943699574194866
 31
0.0
  0
LINE
  5
167
330
162
100
AcDbEntity
  8
Skizziergeometrie(DIN)
370
    70
100
AcDbLine
 10
1.417901959320513
 20
0.3475054964822988
 30
0.0
 11
6.01409603703308
 21
4.943699574194866
 31
0.0
  0
MTEXT
  5
168
330
162
100
AcDbEntity
  8
Symbole(DIN)
 62
   179
420
  2500185
100
AcDbMText
 10
0.0
 20
-0.1396086563666721
 30
0.0
 40
3.499999940395355
 41
0.0
 46
0.0
 71
     7
 72
     1
  1
Kontur gelasert nach DXF-File\P      = Anfang/Ende Laserkontur 
  7
Aktuell-DIN
 73
     2
 44
0.9442214965820312
  0
ENDBLK
  5
164
330
162
100
AcDbEntity
  8
0
100
AcDbBlockEnd
  0
BLOCK
  5
16A
330
169
100
AcDbEntity
  8
0
100
AcDbBlockBegin
  2
Laserpunkt
 70
     0
 10
0.0
 20
0.0
 30
0.0
  3
Laserpunkt
  1

  0
CIRCLE
  5
16C
330
169
100
AcDbEntity
  8
Skizziergeometrie(DIN)
370
    70
100
AcDbCircle
 10
0.0
 20
0.0
 30
0.0
 40
2.250000000000003
  0
LINE
  5
16D
330
169
100
AcDbEntity
  8
Skizziergeometrie(DIN)
370
    70
100
AcDbLine
 10
2.298097038856283
 20
-2.298097038856301
 30
0.0
 11
-2.298097038856283
 21
2.298097038856266
 31
0.0
  0
LINE
  5
16E
330
169
100
AcDbEntity
  8
Skizziergeometrie(DIN)
370
    70
100
AcDbLine
 10
-2.298097038856266
 20
-2.298097038856301
 30
0.0
 11
2.298097038856301
 21
2.298097038856266
 31
0.0
  0
ENDBLK
  5
16B
330
169
100
AcDbEntity
  8
0
100
AcDbBlockEnd
  0
BLOCK
  5
170
330
16F
100
AcDbEntity
  8
0
100
AcDbBlockBegin
  2
Kantenbruch
 70
     2
 10
0.0
 20
0.0
 30
0.0
  3
Kantenbruch
  1

  0
HATCH
  5
175
330
16F
100
AcDbEntity
  8
Schraffur
100
AcDbHatch
 10
0.0
 20
0.0
 30
0.0
210
0.0
220
0.0
230
1.0
  2
SOLID
 70
     1
 71
     0
 91
        1
 92
        1
 93
        3
 72
     1
 10
2.5510451034053
 20
2.440182479852524
 11
0.0
 21
0.0
 72
     1
 10
0.0
 20
0.0
 11
1.832554653580373
 21
3.017294333708306
 72
     1
 10
1.832554653580373
 20
3.017294333708306
 11
2.5510451034053
 21
2.440182479852524
 97
        0
 75
     0
 76
     1
 98
        1
 10
0.0
 20
0.0
450
        0
451
        0
460
0.0
461
0.0
452
        0
462
0.0
453
        0
470

  0
HATCH
  5
179
330
16F
100
AcDbEntity
  8
Schraffur
100
AcDbHatch
 10
0.0
 20
0.0
 30
0.0
210
0.0
220
0.0
230
1.0
  2
SOLID
 70
     1
 71
     0
 91
        1
 92
        1
 93
        3
 72
     1
 10
23.39589716406273
 20
3.017294333708662
 11
21.56334251048213
 21
0.0
 72
     1
 10
21.56334251048213
 20
0.0
 11
24.11438761388769
 21
2.440182479852808
 72
     1
 10
24.11438761388769
 20
2.440182479852808
 11
23.39589716406273
 21
3.017294333708662
 97
        0
 75
     0
 76
     1
 98
        1
 10
0.0
 20
0.0
450
        0
451
        0
460
0.0
461
0.0
452
        0
462
0.0
453
        0
470

  0
LINE
  5
17A
330
16F
100
AcDbEntity
  8
AM_5
  6
Continuous
 62
     7
100
AcDbLine
 10
14.41413346606271
 20
6.58900972675962
 30
0.0
 11
5.486542746190785
 21
6.58900972675962
 31
0.0
  0
LINE
  5
17B
330
16F
100
AcDbEntity
  8
AM_5
  6
Continuous
 62
     7
100
AcDbLine
 10
6.021339289383167
 20
7.425192947268968
 30
0.0
 11
10.92133928938317
 21
7.425192947268968
 31
0.0
  0
LINE
  5
17C
330
16F
100
AcDbEntity
  8
AM_5
  6
Continuous
 62
     7
100
AcDbLine
 10
6.021339289383167
 20
12.32519294726897
 30
0.0
 11
6.021339289383167
 21
7.425192947268968
 31
0.0
  0
LINE
  5
17D
330
16F
100
AcDbEntity
  8
AM_5
  6
Continuous
 62
     7
100
AcDbLine
 10
27.49096644559973
 20
12.32519294726897
 30
0.0
 11
27.49096644559973
 21
7.425192947268968
 31
0.0
  0
LINE
  5
17E
330
16F
100
AcDbEntity
  8
AM_5
  6
Continuous
 62
     7
100
AcDbLine
 10
2.5510451034053
 20
2.440182479852559
 30
0.0
 11
1.832554653580373
 21
3.017294333708306
 31
0.0
  0
LINE
  5
17F
330
16F
100
AcDbEntity
  8
AM_5
 62
     7
100
AcDbLine
 10
5.486542746190785
 20
6.58900972675962
 30
0.0
 11
2.259523567491452
 21
2.674322428928999
 31
0.0
  0
LINE
  5
180
330
16F
100
AcDbEntity
  8
AM_5
  6
Continuous
 62
     7
100
AcDbLine
 10
0.0
 20
0.0
 30
0.0
 11
2.5510451034053
 21
2.440182479852524
 31
0.0
  0
LINE
  5
181
330
16F
100
AcDbEntity
  8
AM_5
  6
Continuous
 62
     7
100
AcDbLine
 10
21.56334251048156
 20
0.0
 30
0.0
 11
24.11438761388769
 21
2.440182479852808
 31
0.0
  0
LINE
  5
182
330
16F
100
AcDbEntity
  8
Skizziergeometrie(DIN)
100
AcDbLine
 10
2.5510451034053
 20
2.440182479852524
 30
0.0
 11
1.832554653580373
 21
3.017294333708306
 31
0.0
  0
LINE
  5
183
330
16F
100
AcDbEntity
  8
AM_5
  6
Continuous
 62
     7
100
AcDbLine
 10
1.832554653580373
 20
3.017294333708306
 30
0.0
 11
0.0
 21
0.0
 31
0.0
  0
LINE
  5
184
330
16F
100
AcDbEntity
  8
Skizziergeometrie(DIN)
100
AcDbLine
 10
1.832554653580373
 20
3.017294333708306
 30
0.0
 11
0.0
 21
0.0
 31
0.0
  0
LINE
  5
185
330
16F
100
AcDbEntity
  8
Skizziergeometrie(DIN)
100
AcDbLine
 10
0.0
 20
0.0
 30
0.0
 11
2.5510451034053
 21
2.440182479852524
 31
0.0
  0
LINE
  5
186
330
16F
100
AcDbEntity
  8
AM_0
370
    25
100
AcDbLine
 10
0.0
 20
0.0
 30
0.0
 11
-8.000000000000007
 21
0.0
 31
0.0
  0
LINE
  5
187
330
16F
100
AcDbEntity
  8
Skizziergeometrie(DIN)
370
    25
100
AcDbLine
 10
0.0
 20
0.0
 30
0.0
 11
0.0
 21
-7.999999999999998
 31
0.0
  0
LINE
  5
188
330
16F
100
AcDbEntity
  8
Skizziergeometrie(DIN)
100
AcDbLine
 10
24.11438761388769
 20
2.440182479852808
 30
0.0
 11
21.56334251048213
 21
0.0
 31
0.0
  0
LINE
  5
189
330
16F
100
AcDbEntity
  8
AM_5
  6
Continuous
 62
     7
100
AcDbLine
 10
27.49096644559973
 20
7.425192947268968
 30
0.0
 11
32.39096644559975
 21
7.425192947268968
 31
0.0
  0
LINE
  5
18A
330
16F
100
AcDbEntity
  8
AM_5
  6
Continuous
 62
     7
100
AcDbLine
 10
35.8837606222793
 20
6.58900972675962
 30
0.0
 11
26.95616990240735
 21
6.58900972675962
 31
0.0
  0
LINE
  5
18B
330
16F
100
AcDbEntity
  8
AM_5
  6
Continuous
 62
     7
100
AcDbLine
 10
26.95616990240735
 20
6.58900972675962
 30
0.0
 11
23.70310776989253
 21
2.640671625589323
 31
0.0
  0
LINE
  5
18C
330
16F
100
AcDbEntity
  8
Skizziergeometrie(DIN)
100
AcDbLine
 10
23.39589716406273
 20
3.017294333708662
 30
0.0
 11
24.11438761388769
 21
2.440182479852808
 31
0.0
  0
LINE
  5
18D
330
16F
100
AcDbEntity
  8
AM_5
  6
Continuous
 62
     7
100
AcDbLine
 10
24.11438761388677
 20
2.309315017511792
 30
0.0
 11
23.39589716406191
 21
2.88642687136754
 31
0.0
  0
LINE
  5
18E
330
16F
100
AcDbEntity
  8
AM_0
370
    25
100
AcDbLine
 10
21.56334251048213
 20
7.999999999999989
 30
0.0
 11
21.56334251048213
 21
0.0
 31
0.0
  0
LINE
  5
18F
330
16F
100
AcDbEntity
  8
AM_5
  6
Continuous
 62
     7
100
AcDbLine
 10
23.39589716406273
 20
3.017294333708662
 30
0.0
 11
21.56334251048213
 21
0.0
 31
0.0
  0
LINE
  5
190
330
16F
100
AcDbEntity
  8
Skizziergeometrie(DIN)
100
AcDbLine
 10
21.56334251048213
 20
0.0
 30
0.0
 11
23.39589716406273
 21
3.017294333708662
 31
0.0
  0
LINE
  5
191
330
16F
100
AcDbEntity
  8
AM_0
370
    25
100
AcDbLine
 10
21.56334251048145
 20
0.0
 30
0.0
 11
29.56334251048146
 21
0.0
 31
0.0
  0
ATTDEF
  5
193
102
{ACAD_XDICTIONARY
360
852
102
}
330
16F
100
AcDbEntity
  8
AM_5
 62
     7
100
AcDbText
 10
27.71846645364636
 20
13.12519300687363
 30
0.0
 40
3.499999940395355
  1
-1
 41
0.9
  7
Textstil122
100
AcDbAttributeDefinition
  3
Innenkante obere Grenze
  2
Innenkante_obere_Grenze_001
 70
     0
280
     0
  0
ATTDEF
  5
196
102
{ACAD_XDICTIONARY
360
855
102
}
330
16F
100
AcDbEntity
  8
AM_5
 62
     7
100
AcDbText
 10
27.71846645364636
 20
8.124504030507409
 30
0.0
 40
3.499999940395355
  1
-0.25
 41
0.9
  7
Textstil122
100
AcDbAttributeDefinition
  3
Innenkante untere Grenze
  2
Innenkante_untere_Grenze_001
 70
     0
280
     0
  0
ATTDEF
  5
197
102
{ACAD_XDICTIONARY
360
858
102
}
330
16F
100
AcDbEntity
  8
AM_5
 62
     7
100
AcDbText
 10
6.248839297429797
 20
13.12519300687363
 30
0.0
 40
3.499999940395355
  1
+0.3
 41
0.9
  7
Textstil122
100
AcDbAttributeDefinition
  3
Aussenkante obere Grenze
  2
Aussenkante_obere_Grenze_001
 70
     0
280
     0
  0
ATTDEF
  5
198
102
{ACAD_XDICTIONARY
360
85B
102
}
330
16F
100
AcDbEntity
  8
AM_5
 62
     7
100
AcDbText
 10
6.248839297429797
 20
8.125193006873629
 30
0.0
 40
3.499999940395355
  1
+0.1
 41
0.9
  7
Textstil122
100
AcDbAttributeDefinition
  3
Aussenkante untere Grenze
  2
Aussenkante_untere_Grenze_001
 70
     0
280
     0
  0
ENDBLK
  5
171
330
16F
100
AcDbEntity
  8
0
100
AcDbBlockEnd
  0
BLOCK
  5
1DF
330
1DE
100
AcDbEntity
  8
0
100
AcDbBlockBegin
  2
*D17
 70
     1
 10
0.0
 20
0.0
 30
0.0
  3
*D17
  1

  0
LINE
  5
2BC
330
1DE
100
AcDbEntity
  8
Bemaßungen(DIN)
  6
Continuous
 62
   250
420
  4144959
440
 16777216
370
    25
100
AcDbLine
 10
136.1497235005774
 20
358.7912702152617
 30
0.0
 11
109.7997235005775
 21
358.7912702152617
 31
0.0
  0
LINE
  5
2BD
330
1DE
100
AcDbEntity
  8
Bemaßungen(DIN)
  6
Continuous
 62
   250
420
  4144959
440
 16777216
370
    25
100
AcDbLine
 10
136.1497235005774
 20
315.7912702152616
 30
0.0
 11
109.7997235005775
 21
315.7912702152617
 31
0.0
  0
LINE
  5
2BE
330
1DE
100
AcDbEntity
  8
Bemaßungen(DIN)
  6
Continuous
 62
   250
420
  4144959
440
 16777216
370
    25
100
AcDbLine
 10
116.1497235005775
 20
353.7912702152617
 30
0.0
 11
116.1497235005775
 21
320.7912702152617
 31
0.0
  0
SOLID
  5
2BF
330
1DE
100
AcDbEntity
  8
Bemaßungen(DIN)
  6
Continuous
 62
   250
420
  4144959
440
 16777216
100
AcDbTrace
 10
115.3163901672442
 20
353.7912702152617
 30
0.0
 11
116.9830568339108
 21
353.7912702152617
 31
0.0
 12
116.1497235005775
 22
358.7912702152617
 32
0.0
 13
116.1497235005775
 23
358.7912702152617
 33
0.0
  0
SOLID
  5
2C0
330
1DE
100
AcDbEntity
  8
Bemaßungen(DIN)
  6
Continuous
 62
   250
420
  4144959
440
 16777216
100
AcDbTrace
 10
115.3163901672442
 20
320.7912702152617
 30
0.0
 11
116.9830568339108
 21
320.7912702152617
 31
0.0
 12
116.1497235005775
 22
315.7912702152617
 32
0.0
 13
116.1497235005775
 23
315.7912702152617
 33
0.0
  0
MTEXT
  5
2C1
330
1DE
100
AcDbEntity
  8
Bemaßungen(DIN)
  6
Continuous
 62
   250
420
  4144959
440
 16777216
370
    25
100
AcDbMText
 10
107.3969267331582
 20
332.1367681388738
 30
0.0
 40
7.0
 41
0.0
 46
0.0
 71
     1
 72
     1
  1
\A1;43
  7
STANDARD-DIN~0
 11
0.0000000000000001
 21
1.0
 31
0.0
 73
     1
 44
1.0
  0
POINT
  5
2C2
330
1DE
100
AcDbEntity
  8
Defpoints
  6
Continuous
 62
     0
440
 16777216
100
AcDbPoint
 10
136.1497235005774
 20
358.7912702152617
 30
0.0
  0
POINT
  5
2C3
330
1DE
100
AcDbEntity
  8
Defpoints
  6
Continuous
 62
     0
440
 16777216
100
AcDbPoint
 10
136.1497235005774
 20
315.7912702152616
 30
0.0
  0
POINT
  5
2C4
330
1DE
100
AcDbEntity
  8
Defpoints
  6
Continuous
 62
     0
440
 16777216
100
AcDbPoint
 10
116.1497235005775
 20
315.7912702152617
 30
0.0
  0
ENDBLK
  5
1E0
330
1DE
100
AcDbEntity
  8
0
100
AcDbBlockEnd
  0
BLOCK
  5
2C7
330
2C6
100
AcDbEntity
  8
0
100
AcDbBlockBegin
  2
*D18
 70
     1
 10
0.0
 20
0.0
 30
0.0
  3
*D18
  1

  0
LINE
  5
3A4
330
2C6
100
AcDbEntity
  8
Bemaßungen(DIN)
  6
Continuous
 62
   250
420
  4144959
440
 16777216
370
    25
100
AcDbLine
 10
133.9997235005774
 20
373.0412702152616
 30
0.0
 11
88.09426502274495
 21
373.0412702152617
 31
0.0
  0
LINE
  5
3A5
330
2C6
100
AcDbEntity
  8
Bemaßungen(DIN)
  6
Continuous
 62
   250
420
  4144959
440
 16777216
370
    25
100
AcDbLine
 10
133.9997235005774
 20
301.5412702152617
 30
0.0
 11
88.09426502274495
 21
301.5412702152618
 31
0.0
  0
LINE
  5
3A6
330
2C6
100
AcDbEntity
  8
Bemaßungen(DIN)
  6
Continuous
 62
   250
420
  4144959
440
 16777216
370
    25
100
AcDbLine
 10
94.44426502274497
 20
368.0412702152617
 30
0.0
 11
94.44426502274495
 21
306.5412702152618
 31
0.0
  0
SOLID
  5
3A7
330
2C6
100
AcDbEntity
  8
Bemaßungen(DIN)
  6
Continuous
 62
   250
420
  4144959
440
 16777216
100
AcDbTrace
 10
93.61093168941165
 20
368.0412702152617
 30
0.0
 11
95.27759835607829
 21
368.0412702152617
 31
0.0
 12
94.44426502274497
 22
373.0412702152617
 32
0.0
 13
94.44426502274497
 23
373.0412702152617
 33
0.0
  0
SOLID
  5
3A8
330
2C6
100
AcDbEntity
  8
Bemaßungen(DIN)
  6
Continuous
 62
   250
420
  4144959
440
 16777216
100
AcDbTrace
 10
93.61093168941163
 20
306.5412702152618
 30
0.0
 11
95.27759835607829
 21
306.5412702152618
 31
0.0
 12
94.44426502274495
 22
301.5412702152618
 32
0.0
 13
94.44426502274495
 23
301.5412702152618
 33
0.0
  0
MTEXT
  5
3A9
330
2C6
100
AcDbEntity
  8
Bemaßungen(DIN)
  6
Continuous
 62
   250
420
  4144959
440
 16777216
370
    25
100
AcDbMText
 10
85.8156155957482
 20
332.9819250332885
 30
0.0
 40
7.0
 41
0.0
 46
0.0
 71
     1
 72
     1
  1
\A1;71
  7
STANDARD-DIN~0
 11
0.0000000000000001
 21
1.0
 31
0.0
 73
     1
 44
1.0
  0
POINT
  5
3AA
330
2C6
100
AcDbEntity
  8
Defpoints
  6
Continuous
 62
     0
440
 16777216
100
AcDbPoint
 10
133.9997235005774
 20
373.0412702152616
 30
0.0
  0
POINT
  5
3AB
330
2C6
100
AcDbEntity
  8
Defpoints
  6
Continuous
 62
     0
440
 16777216
100
AcDbPoint
 10
133.9997235005774
 20
301.5412702152617
 30
0.0
  0
POINT
  5
3AC
330
2C6
100
AcDbEntity
  8
Defpoints
  6
Continuous
 62
     0
440
 16777216
100
AcDbPoint
 10
94.44426502274495
 20
301.5412702152618
 30
0.0
  0
ENDBLK
  5
2C8
330
2C6
100
AcDbEntity
  8
0
100
AcDbBlockEnd
  0
BLOCK
  5
3AF
330
3AE
100
AcDbEntity
  8
0
100
AcDbBlockBegin
  2
*D19
 70
     1
 10
0.0
 20
0.0
 30
0.0
  3
*D19
  1

  0
LINE
  5
486
330
3AE
100
AcDbEntity
  8
Bemaßungen(DIN)
  6
Continuous
 62
   250
420
  4144959
440
 16777216
370
    25
100
AcDbLine
 10
131.4997235005774
 20
370.5412702152616
 30
0.0
 11
131.4997235005774
 21
403.2716061172066
 31
0.0
  0
LINE
  5
487
330
3AE
100
AcDbEntity
  8
Bemaßungen(DIN)
  6
Continuous
 62
   250
420
  4144959
440
 16777216
370
    25
100
AcDbLine
 10
161.2997235005774
 20
370.5412702152616
 30
0.0
 11
161.2997235005774
 21
403.2716061172066
 31
0.0
  0
LINE
  5
488
330
3AE
100
AcDbEntity
  8
Bemaßungen(DIN)
  6
Continuous
 62
   250
420
  4144959
440
 16777216
370
    25
100
AcDbLine
 10
136.4997235005774
 20
396.9216061172066
 30
0.0
 11
156.2997235005774
 21
396.9216061172066
 31
0.0
  0
SOLID
  5
489
330
3AE
100
AcDbEntity
  8
Bemaßungen(DIN)
  6
Continuous
 62
   250
420
  4144959
440
 16777216
100
AcDbTrace
 10
136.4997235005774
 20
397.7549394505399
 30
0.0
 11
136.4997235005774
 21
396.0882727838733
 31
0.0
 12
131.4997235005774
 22
396.9216061172066
 32
0.0
 13
131.4997235005774
 23
396.9216061172066
 33
0.0
  0
SOLID
  5
48A
330
3AE
100
AcDbEntity
  8
Bemaßungen(DIN)
  6
Continuous
 62
   250
420
  4144959
440
 16777216
100
AcDbTrace
 10
156.2997235005774
 20
397.7549394505399
 30
0.0
 11
156.2997235005774
 21
396.0882727838733
 31
0.0
 12
161.2997235005774
 22
396.9216061172066
 32
0.0
 13
161.2997235005774
 23
396.9216061172066
 33
0.0
  0
MTEXT
  5
48B
330
3AE
100
AcDbEntity
  8
Bemaßungen(DIN)
  6
Continuous
 62
   250
420
  4144959
440
 16777216
370
    25
100
AcDbMText
 10
141.4004055997177
 20
405.6744028846257
 30
0.0
 40
7.0
 41
0.0
 46
0.0
 71
     1
 72
     1
  1
\A1;30
  7
STANDARD-DIN~0
 73
     1
 44
1.0
  0
POINT
  5
48C
330
3AE
100
AcDbEntity
  8
Defpoints
  6
Continuous
 62
     0
440
 16777216
100
AcDbPoint
 10
131.4997235005774
 20
370.5412702152616
 30
0.0
  0
POINT
  5
48D
330
3AE
100
AcDbEntity
  8
Defpoints
  6
Continuous
 62
     0
440
 16777216
100
AcDbPoint
 10
161.2997235005774
 20
370.5412702152616
 30
0.0
  0
POINT
  5
48E
330
3AE
100
AcDbEntity
  8
Defpoints
  6
Continuous
 62
     0
440
 16777216
100
AcDbPoint
 10
161.2997235005774
 20
396.9216061172066
 30
0.0
  0
ENDBLK
  5
3B0
330
3AE
100
AcDbEntity
  8
0
100
AcDbBlockEnd
  0
BLOCK
  5
491
330
490
100
AcDbEntity
  8
0
100
AcDbBlockBegin
  2
*D20
 70
     1
 10
0.0
 20
0.0
 30
0.0
  3
*D20
  1

  0
LINE
  5
582
330
490
100
AcDbEntity
  8
Bemaßungen(DIN)
  6
Continuous
 62
   250
420
  4144959
440
 16777216
370
    25
100
AcDbLine
 10
227.5634793785461
 20
370.5412702152616
 30
0.0
 11
227.5634793785461
 21
403.2716061172066
 31
0.0
  0
LINE
  5
583
330
490
100
AcDbEntity
  8
Bemaßungen(DIN)
  6
Continuous
 62
   250
420
  4144959
440
 16777216
370
    25
100
AcDbLine
 10
239.5634793785467
 20
370.5412702152616
 30
0.0
 11
239.5634793785467
 21
403.2716061172066
 31
0.0
  0
LINE
  5
584
330
490
100
AcDbEntity
  8
Bemaßungen(DIN)
  6
Continuous
 62
   250
420
  4144959
440
 16777216
370
    25
100
AcDbLine
 10
222.563479378546
 20
396.9216061172066
 30
0.0
 11
217.563479378546
 21
396.9216061172066
 31
0.0
  0
LINE
  5
585
330
490
100
AcDbEntity
  8
Bemaßungen(DIN)
  6
Continuous
 62
   250
420
  4144959
440
 16777216
370
    25
100
AcDbLine
 10
244.5634793785467
 20
396.9216061172066
 30
0.0
 11
249.5634793785467
 21
396.9216061172066
 31
0.0
  0
LINE
  5
586
330
490
100
AcDbEntity
  8
Bemaßungen(DIN)
  6
Continuous
 62
   250
420
  4144959
440
 16777216
370
    25
100
AcDbLine
 10
227.5634793785461
 20
396.9216061172066
 30
0.0
 11
239.5634793785467
 21
396.9216061172066
 31
0.0
  0
SOLID
  5
587
330
490
100
AcDbEntity
  8
Bemaßungen(DIN)
  6
Continuous
 62
   250
420
  4144959
440
 16777216
100
AcDbTrace
 10
222.563479378546
 20
397.7549394505399
 30
0.0
 11
222.563479378546
 21
396.0882727838733
 31
0.0
 12
227.5634793785461
 22
396.9216061172066
 32
0.0
 13
227.5634793785461
 23
396.9216061172066
 33
0.0
  0
SOLID
  5
588
330
490
100
AcDbEntity
  8
Bemaßungen(DIN)
  6
Continuous
 62
   250
420
  4144959
440
 16777216
100
AcDbTrace
 10
244.5634793785467
 20
397.7549394505399
 30
0.0
 11
244.5634793785467
 21
396.0882727838733
 31
0.0
 12
239.5634793785467
 22
396.9216061172066
 32
0.0
 13
239.5634793785467
 23
396.9216061172066
 33
0.0
  0
MTEXT
  5
589
330
490
100
AcDbEntity
  8
Bemaßungen(DIN)
  6
Continuous
 62
   250
420
  4144959
440
 16777216
370
    25
100
AcDbMText
 10
228.9151164592656
 20
405.5502555442033
 30
0.0
 40
7.0
 41
0.0
 46
0.0
 71
     1
 72
     1
  1
\A1;12
  7
STANDARD-DIN~0
 73
     1
 44
1.0
  0
POINT
  5
58A
330
490
100
AcDbEntity
  8
Defpoints
  6
Continuous
 62
     0
440
 16777216
100
AcDbPoint
 10
227.5634793785461
 20
370.5412702152616
 30
0.0
  0
POINT
  5
58B
330
490
100
AcDbEntity
  8
Defpoints
  6
Continuous
 62
     0
440
 16777216
100
AcDbPoint
 10
239.5634793785467
 20
370.5412702152616
 30
0.0
  0
POINT
  5
58C
330
490
100
AcDbEntity
  8
Defpoints
  6
Continuous
 62
     0
440
 16777216
100
AcDbPoint
 10
239.5634793785467
 20
396.9216061172066
 30
0.0
  0
ENDBLK
  5
492
330
490
100
AcDbEntity
  8
0
100
AcDbBlockEnd
  0
BLOCK
  5
58F
330
58E
100
AcDbEntity
  8
0
100
AcDbBlockBegin
  2
*D21
 70
     1
 10
0.0
 20
0.0
 30
0.0
  3
*D21
  1

  0
LINE
  5
666
330
58E
100
AcDbEntity
  8
Bemaßungen(DIN)
  6
Continuous
 62
   250
420
  4144959
440
 16777216
370
    25
100
AcDbLine
 10
239.5634793785467
 20
370.5412702152616
 30
0.0
 11
239.5634793785467
 21
403.2716061172066
 31
0.0
  0
LINE
  5
667
330
58E
100
AcDbEntity
  8
Bemaßungen(DIN)
  6
Continuous
 62
   250
420
  4144959
440
 16777216
370
    25
100
AcDbLine
 10
289.3634793785505
 20
346.2912702152617
 30
0.0
 11
289.3634793785505
 21
403.2716061172066
 31
0.0
  0
LINE
  5
668
330
58E
100
AcDbEntity
  8
Bemaßungen(DIN)
  6
Continuous
 62
   250
420
  4144959
440
 16777216
370
    25
100
AcDbLine
 10
244.5634793785467
 20
396.9216061172066
 30
0.0
 11
284.3634793785504
 21
396.9216061172066
 31
0.0
  0
SOLID
  5
669
330
58E
100
AcDbEntity
  8
Bemaßungen(DIN)
  6
Continuous
 62
   250
420
  4144959
440
 16777216
100
AcDbTrace
 10
244.5634793785467
 20
397.7549394505399
 30
0.0
 11
244.5634793785467
 21
396.0882727838733
 31
0.0
 12
239.5634793785467
 22
396.9216061172066
 32
0.0
 13
239.5634793785467
 23
396.9216061172066
 33
0.0
  0
SOLID
  5
66A
330
58E
100
AcDbEntity
  8
Bemaßungen(DIN)
  6
Continuous
 62
   250
420
  4144959
440
 16777216
100
AcDbTrace
 10
284.3634793785504
 20
397.7549394505399
 30
0.0
 11
284.3634793785504
 21
396.0882727838733
 31
0.0
 12
289.3634793785505
 22
396.9216061172066
 32
0.0
 13
289.3634793785505
 23
396.9216061172066
 33
0.0
  0
MTEXT
  5
66B
330
58E
100
AcDbEntity
  8
Bemaßungen(DIN)
  6
Continuous
 62
   250
420
  4144959
440
 16777216
370
    25
100
AcDbMText
 10
259.4617740288346
 20
405.6696279869172
 30
0.0
 40
7.0
 41
0.0
 46
0.0
 71
     1
 72
     1
  1
\A1;50
  7
STANDARD-DIN~0
 73
     1
 44
1.0
  0
POINT
  5
66C
330
58E
100
AcDbEntity
  8
Defpoints
  6
Continuous
 62
     0
440
 16777216
100
AcDbPoint
 10
239.5634793785467
 20
370.5412702152616
 30
0.0
  0
POINT
  5
66D
330
58E
100
AcDbEntity
  8
Defpoints
  6
Continuous
 62
     0
440
 16777216
100
AcDbPoint
 10
289.3634793785505
 20
346.2912702152617
 30
0.0
  0
POINT
  5
66E
330
58E
100
AcDbEntity
  8
Defpoints
  6
Continuous
 62
     0
440
 16777216
100
AcDbPoint
 10
289.3634793785505
 20
396.9216061172066
 30
0.0
  0
ENDBLK
  5
590
330
58E
100
AcDbEntity
  8
0
100
AcDbBlockEnd
  0
BLOCK
  5
671
330
670
100
AcDbEntity
  8
0
100
AcDbBlockBegin
  2
*D22
 70
     1
 10
0.0
 20
0.0
 30
0.0
  3
*D22
  1

  0
LINE
  5
755
330
670
100
AcDbEntity
  8
Bemaßungen(DIN)
  6
Continuous
 62
   250
420
  4144959
440
 16777216
370
    25
100
AcDbLine
 10
137.3997235005774
 20
236.2912702152617
 30
0.0
 11
137.3997235005774
 21
202.8814470708713
 31
0.0
  0
LINE
  5
756
330
670
100
AcDbEntity
  8
Bemaßungen(DIN)
  6
Continuous
 62
   250
420
  4144959
440
 16777216
370
    25
100
AcDbLine
 10
155.3997235005774
 20
236.2912702152617
 30
0.0
 11
155.3997235005774
 21
202.8814470708713
 31
0.0
  0
LINE
  5
757
330
670
100
AcDbEntity
  8
Bemaßungen(DIN)
  6
Continuous
 62
   250
420
  4144959
440
 16777216
370
    25
100
AcDbLine
 10
142.3997235005774
 20
209.2314470708712
 30
0.0
 11
150.3997235005774
 21
209.2314470708712
 31
0.0
  0
LINE
  5
758
330
670
100
AcDbEntity
  8
Bemaßungen(DIN)
  6
Continuous
 62
   250
420
  4144959
440
 16777216
370
    25
100
AcDbLine
 10
155.3997235005774
 20
209.2314470708712
 30
0.0
 11
181.2572952268232
 21
209.2314470708712
 31
0.0
  0
SOLID
  5
759
330
670
100
AcDbEntity
  8
Bemaßungen(DIN)
  6
Continuous
 62
   250
420
  4144959
440
 16777216
100
AcDbTrace
 10
142.3997235005774
 20
210.0647804042046
 30
0.0
 11
142.3997235005774
 21
208.3981137375379
 31
0.0
 12
137.3997235005774
 22
209.2314470708712
 32
0.0
 13
137.3997235005774
 23
209.2314470708712
 33
0.0
  0
SOLID
  5
75A
330
670
100
AcDbEntity
  8
Bemaßungen(DIN)
  6
Continuous
 62
   250
420
  4144959
440
 16777216
100
AcDbTrace
 10
150.3997235005774
 20
210.0647804042046
 30
0.0
 11
150.3997235005774
 21
208.3981137375379
 31
0.0
 12
155.3997235005774
 22
209.2314470708712
 32
0.0
 13
155.3997235005774
 23
209.2314470708712
 33
0.0
  0
MTEXT
  5
75B
330
670
100
AcDbEntity
  8
Bemaßungen(DIN)
  6
Continuous
 62
   250
420
  4144959
440
 16777216
370
    25
100
AcDbMText
 10
161.9997235005774
 20
218.3710105526836
 30
0.0
 40
7.0
 41
0.0
 46
0.0
 71
     1
 72
     1
  1
\A1;{Ø}18
  7
STANDARD-DIN~0
 73
     1
 44
1.0
  0
POINT
  5
75C
330
670
100
AcDbEntity
  8
Defpoints
  6
Continuous
 62
     0
440
 16777216
100
AcDbPoint
 10
137.3997235005774
 20
236.2912702152617
 30
0.0
  0
POINT
  5
75D
330
670
100
AcDbEntity
  8
Defpoints
  6
Continuous
 62
     0
440
 16777216
100
AcDbPoint
 10
155.3997235005774
 20
236.2912702152617
 30
0.0
  0
POINT
  5
75E
330
670
100
AcDbEntity
  8
Defpoints
  6
Continuous
 62
     0
440
 16777216
100
AcDbPoint
 10
155.3997235005774
 20
209.2314470708712
 30
0.0
  0
ENDBLK
  5
672
330
670
100
AcDbEntity
  8
0
100
AcDbBlockEnd
  0
BLOCK
  5
761
330
760
100
AcDbEntity
  8
0
100
AcDbBlockBegin
  2
*D23
 70
     1
 10
0.0
 20
0.0
 30
0.0
  3
*D23
  1

  0
LINE
  5
83E
330
760
100
AcDbEntity
  8
Bemaßungen(DIN)
  6
Continuous
 62
   250
420
  4144959
440
 16777216
370
    25
100
AcDbLine
 10
289.3634793785505
 20
346.2912702152618
 30
0.0
 11
325.3334777698768
 21
346.2912702152618
 31
0.0
  0
LINE
  5
83F
330
760
100
AcDbEntity
  8
Bemaßungen(DIN)
  6
Continuous
 62
   250
420
  4144959
440
 16777216
370
    25
100
AcDbLine
 10
289.3634793785506
 20
236.2912702152617
 30
0.0
 11
325.3334777698768
 21
236.2912702152617
 31
0.0
  0
LINE
  5
840
330
760
100
AcDbEntity
  8
Bemaßungen(DIN)
  6
Continuous
 62
   250
420
  4144959
440
 16777216
370
    25
100
AcDbLine
 10
318.9834777698768
 20
341.2912702152618
 30
0.0
 11
318.9834777698768
 21
241.2912702152617
 31
0.0
  0
SOLID
  5
841
330
760
100
AcDbEntity
  8
Bemaßungen(DIN)
  6
Continuous
 62
   250
420
  4144959
440
 16777216
100
AcDbTrace
 10
318.1501444365435
 20
341.2912702152618
 30
0.0
 11
319.8168111032101
 21
341.2912702152618
 31
0.0
 12
318.9834777698768
 22
346.2912702152618
 32
0.0
 13
318.9834777698768
 23
346.2912702152618
 33
0.0
  0
SOLID
  5
842
330
760
100
AcDbEntity
  8
Bemaßungen(DIN)
  6
Continuous
 62
   250
420
  4144959
440
 16777216
100
AcDbTrace
 10
318.1501444365435
 20
241.2912702152617
 30
0.0
 11
319.8168111032101
 21
241.2912702152617
 31
0.0
 12
318.9834777698768
 22
236.2912702152617
 32
0.0
 13
318.9834777698768
 23
236.2912702152617
 33
0.0
  0
MTEXT
  5
843
330
760
100
AcDbEntity
  8
Bemaßungen(DIN)
  6
Continuous
 62
   250
420
  4144959
440
 16777216
370
    25
100
AcDbMText
 10
310.2354559001661
 20
283.8997285624147
 30
0.0
 40
7.0
 41
0.0
 46
0.0
 71
     1
 72
     1
  1
\A1;110
  7
STANDARD-DIN~0
 11
0.0000000000000001
 21
1.0
 31
0.0
 73
     1
 44
1.0
  0
POINT
  5
844
330
760
100
AcDbEntity
  8
Defpoints
  6
Continuous
 62
     0
440
 16777216
100
AcDbPoint
 10
289.3634793785505
 20
346.2912702152618
 30
0.0
  0
POINT
  5
845
330
760
100
AcDbEntity
  8
Defpoints
  6
Continuous
 62
     0
440
 16777216
100
AcDbPoint
 10
289.3634793785506
 20
236.2912702152617
 30
0.0
  0
POINT
  5
846
330
760
100
AcDbEntity
  8
Defpoints
  6
Continuous
 62
     0
440
 16777216
100
AcDbPoint
 10
318.9834777698768
 20
236.2912702152617
 30
0.0
  0
ENDBLK
  5
762
330
760
100
AcDbEntity
  8
0
100
AcDbBlockEnd
  0
ENDSEC
  0
SECTION
  2
ENTITIES
  0
ARC
  5
199
330
6C
100
AcDbEntity
  8
Sichtbare Kanten(DIN)
100
AcDbCircle
 10
146.3997235005774
 20
337.2912702152616
 30
0.0
 40
9.000000000000008
100
AcDbArc
 50
0.0
 51
180.0
  0
LINE
  5
19A
330
6C
100
AcDbEntity
  8
Sichtbare Kanten(DIN)
100
AcDbLine
 10
155.3997235005774
 20
236.2912702152617
 30
0.0
 11
137.3997235005774
 21
236.2912702152617
 31
0.0
  0
LINE
  5
19B
330
6C
100
AcDbEntity
  8
Sichtbare Kanten(DIN)
100
AcDbLine
 10
137.3997235005774
 20
236.2912702152617
 30
0.0
 11
137.3997235005774
 21
337.2912702152616
 31
0.0
  0
LINE
  5
19C
330
6C
100
AcDbEntity
  8
Sichtbare Kanten(DIN)
100
AcDbLine
 10
155.3997235005773
 20
236.2912702152617
 30
0.0
 11
155.3997235005774
 21
337.2912702152616
 31
0.0
  0
ELLIPSE
  5
19D
330
6C
100
AcDbEntity
  8
Sichtbare Kanten(DIN)
100
AcDbEllipse
 10
155.8997235005774
 20
301.5653604174691
 30
0.0
 11
-0.5
 21
0.0
 31
0.0
210
0.0
220
0.0
230
1.0
 40
0.0240902022075074
 41
3.141592653589912
 42
4.712388980384689
  0
LINE
  5
19E
330
6C
100
AcDbEntity
  8
Sichtbare Kanten(DIN)
100
AcDbLine
 10
155.3997235005774
 20
301.577405518573
 30
0.0
 11
155.8997235005774
 21
301.577405518573
 31
0.0
  0
LINE
  5
19F
330
6C
100
AcDbEntity
  8
Sichtbare Kanten(DIN)
100
AcDbLine
 10
156.3997235005774
 20
301.5653604174691
 30
0.0
 11
156.3997235005774
 21
301.5412702152617
 31
0.0
  0
ELLIPSE
  5
1A0
330
6C
100
AcDbEntity
  8
Sichtbare Kanten(DIN)
100
AcDbEllipse
 10
136.8997235005774
 20
301.5653604174691
 30
0.0
 11
-0.5
 21
0.0
 31
0.0
210
0.0
220
0.0
230
1.0
 40
0.0240902022075074
 41
4.712388980384689
 42
6.283185307179466
  0
LINE
  5
1A1
330
6C
100
AcDbEntity
  8
Sichtbare Kanten(DIN)
100
AcDbLine
 10
136.8997235005774
 20
301.577405518573
 30
0.0
 11
137.3997235005774
 21
301.577405518573
 31
0.0
  0
LINE
  5
1A2
330
6C
100
AcDbEntity
  8
Sichtbare Kanten(DIN)
100
AcDbLine
 10
136.3997235005774
 20
301.5412702152617
 30
0.0
 11
136.3997235005774
 21
301.5653604174691
 31
0.0
  0
LINE
  5
1A3
330
6C
100
AcDbEntity
  8
Sichtbare Kanten(DIN)
100
AcDbLine
 10
133.9997235005774
 20
301.5412702152617
 30
0.0
 11
136.3997235005774
 21
301.5412702152617
 31
0.0
  0
ARC
  5
1A4
330
6C
100
AcDbEntity
  8
Sichtbare Kanten(DIN)
100
AcDbCircle
 10
133.9997235005774
 20
304.0412702152617
 30
0.0
 40
2.499999999999995
100
AcDbArc
 50
180.0
 51
270.0
  0
LINE
  5
1A5
330
6C
100
AcDbEntity
  8
Sichtbare Kanten(DIN)
100
AcDbLine
 10
131.4997235005774
 20
370.5412702152616
 30
0.0
 11
131.4997235005774
 21
304.0412702152617
 31
0.0
  0
ARC
  5
1A6
330
6C
100
AcDbEntity
  8
Sichtbare Kanten(DIN)
100
AcDbCircle
 10
133.9997235005774
 20
370.5412702152617
 30
0.0
 40
2.5
100
AcDbArc
 50
90.0
 51
180.0
  0
LINE
  5
1A7
330
6C
100
AcDbEntity
  8
Sichtbare Kanten(DIN)
100
AcDbLine
 10
158.7997235005774
 20
373.0412702152616
 30
0.0
 11
133.9997235005774
 21
373.0412702152617
 31
0.0
  0
ARC
  5
1A8
330
6C
100
AcDbEntity
  8
Sichtbare Kanten(DIN)
100
AcDbCircle
 10
158.7997235005774
 20
370.5412702152617
 30
0.0
 40
2.499999999999995
100
AcDbArc
 50
0.0
 51
90.0
  0
LINE
  5
1A9
330
6C
100
AcDbEntity
  8
Sichtbare Kanten(DIN)
100
AcDbLine
 10
161.2997235005774
 20
304.0412702152617
 30
0.0
 11
161.2997235005774
 21
370.5412702152616
 31
0.0
  0
ARC
  5
1AA
330
6C
100
AcDbEntity
  8
Sichtbare Kanten(DIN)
100
AcDbCircle
 10
158.7997235005774
 20
304.0412702152617
 30
0.0
 40
2.5
100
AcDbArc
 50
270.0
 51
0.0
  0
LINE
  5
1AB
330
6C
100
AcDbEntity
  8
Sichtbare Kanten(DIN)
100
AcDbLine
 10
156.3997235005774
 20
301.5412702152617
 30
0.0
 11
158.7997235005774
 21
301.5412702152617
 31
0.0
  0
ARC
  5
1AC
330
6C
100
AcDbEntity
  8
Sichtbare Kanten(DIN)
100
AcDbCircle
 10
146.3997235005774
 20
337.2912702152616
 30
0.0
 40
10.6
100
AcDbArc
 50
328.1092081981542
 51
211.8907918018458
  0
LINE
  5
1AD
330
6C
100
AcDbEntity
  8
Sichtbare Kanten(DIN)
100
AcDbLine
 10
222.5634793785505
 20
354.5458854575322
 30
0.0
 11
222.5634793785505
 21
363.036654972991
 31
0.0
  0
LINE
  5
1AE
330
6C
100
AcDbEntity
  8
Sichtbare Kanten(DIN)
100
AcDbLine
 10
223.4634793785505
 20
363.5562702152616
 30
0.0
 11
223.4634793785505
 21
354.0262702152615
 31
0.0
  0
LINE
  5
1AF
330
6C
100
AcDbEntity
  8
Sichtbare Kanten(DIN)
100
AcDbLine
 10
222.5634793785505
 20
363.036654972991
 30
0.0
 11
223.4634793785505
 21
363.5562702152616
 31
0.0
  0
LINE
  5
1B0
330
6C
100
AcDbEntity
  8
Sichtbare Kanten(DIN)
100
AcDbLine
 10
222.5634793785505
 20
354.5458854575322
 30
0.0
 11
223.4634793785505
 21
354.0262702152615
 31
0.0
  0
LINE
  5
1B1
330
6C
100
AcDbEntity
  8
Sichtbare Kanten(DIN)
100
AcDbLine
 10
222.5634793785505
 20
311.5458854575323
 30
0.0
 11
222.5634793785505
 21
320.036654972991
 31
0.0
  0
LINE
  5
1B2
330
6C
100
AcDbEntity
  8
Sichtbare Kanten(DIN)
100
AcDbLine
 10
223.4634793785505
 20
320.5562702152616
 30
0.0
 11
223.4634793785505
 21
311.0262702152616
 31
0.0
  0
LINE
  5
1B3
330
6C
100
AcDbEntity
  8
Sichtbare Kanten(DIN)
100
AcDbLine
 10
222.5634793785505
 20
320.036654972991
 30
0.0
 11
223.4634793785505
 21
320.5562702152616
 31
0.0
  0
LINE
  5
1B4
330
6C
100
AcDbEntity
  8
Sichtbare Kanten(DIN)
100
AcDbLine
 10
222.5634793785505
 20
311.5458854575323
 30
0.0
 11
223.4634793785505
 21
311.0262702152616
 31
0.0
  0
LINE
  5
1B5
330
6C
100
AcDbEntity
  8
Sichtbare Kanten(DIN)
100
AcDbLine
 10
227.5634793785505
 20
354.0262702152615
 30
0.0
 11
223.4634793785505
 21
354.0262702152615
 31
0.0
  0
LINE
  5
1B6
330
6C
100
AcDbEntity
  8
Sichtbare Kanten(DIN)
100
AcDbLine
 10
227.5634793785505
 20
363.5562702152616
 30
0.0
 11
223.4634793785505
 21
363.5562702152616
 31
0.0
  0
LINE
  5
1B7
330
6C
100
AcDbEntity
  8
Sichtbare Kanten(DIN)
100
AcDbLine
 10
227.5634793785505
 20
311.0262702152616
 30
0.0
 11
223.4634793785505
 21
311.0262702152616
 31
0.0
  0
LINE
  5
1B8
330
6C
100
AcDbEntity
  8
Sichtbare Kanten(DIN)
100
AcDbLine
 10
227.5634793785505
 20
320.5562702152616
 30
0.0
 11
223.4634793785505
 21
320.5562702152616
 31
0.0
  0
LINE
  5
1B9
330
6C
100
AcDbEntity
  8
Sichtbare Kanten(DIN)
100
AcDbLine
 10
271.3634793785505
 20
328.2912702152617
 30
0.0
 11
280.3634793785478
 21
337.2912702152616
 31
0.0
  0
LINE
  5
1BA
330
6C
100
AcDbEntity
  8
Sichtbare Kanten(DIN)
100
AcDbLine
 10
289.3634793785505
 20
346.2912702152617
 30
0.0
 11
280.3634793785478
 21
337.2912702152616
 31
0.0
  0
LINE
  5
1BB
330
6C
100
AcDbEntity
  8
Sichtbare Kanten(DIN)
100
AcDbLine
 10
289.3634793785507
 20
236.2912702152617
 30
0.0
 11
271.3634793785506
 21
236.2912702152617
 31
0.0
  0
LINE
  5
1BC
330
6C
100
AcDbEntity
  8
Sichtbare Kanten(DIN)
100
AcDbLine
 10
271.3634793785506
 20
328.2912702152617
 30
0.0
 11
239.5634793785505
 21
328.2912702152616
 31
0.0
  0
LINE
  5
1BD
330
6C
100
AcDbEntity
  8
Sichtbare Kanten(DIN)
100
AcDbLine
 10
289.3634793785505
 20
346.2912702152618
 30
0.0
 11
239.5634793785506
 21
346.2912702152617
 31
0.0
  0
LINE
  5
1BE
330
6C
100
AcDbEntity
  8
Sichtbare Kanten(DIN)
100
AcDbLine
 10
271.3634793785506
 20
236.2912702152617
 30
0.0
 11
271.3634793785505
 21
328.2912702152617
 31
0.0
  0
LINE
  5
1BF
330
6C
100
AcDbEntity
  8
Sichtbare Kanten(DIN)
100
AcDbLine
 10
289.3634793785507
 20
236.2912702152617
 30
0.0
 11
289.3634793785505
 21
346.2912702152617
 31
0.0
  0
LINE
  5
1C0
330
6C
100
AcDbEntity
  8
Sichtbare Kanten(DIN)
100
AcDbLine
 10
227.5634793785495
 20
340.7912702152616
 30
0.0
 11
187.5634793785494
 21
340.7912702152616
 31
0.0
  0
LINE
  5
1C1
330
6C
100
AcDbEntity
  8
Sichtbare Kanten(DIN)
100
AcDbLine
 10
187.5634793785494
 20
340.7912702152616
 30
0.0
 11
187.5634793785494
 21
333.7912702152616
 31
0.0
  0
LINE
  5
1C2
330
6C
100
AcDbEntity
  8
Sichtbare Kanten(DIN)
100
AcDbLine
 10
227.5634793785495
 20
333.7912702152616
 30
0.0
 11
187.5634793785494
 21
333.7912702152616
 31
0.0
  0
LINE
  5
1C3
330
6C
100
AcDbEntity
  8
Sichtbare Kanten(DIN)
100
AcDbLine
 10
227.5634793785468
 20
301.5412702152617
 30
0.0
 11
227.5634793785461
 21
304.0412702152617
 31
0.0
  0
LINE
  5
1C4
330
6C
100
AcDbEntity
  8
Sichtbare Kanten(DIN)
100
AcDbLine
 10
227.5634793785461
 20
370.5412702152616
 30
0.0
 11
227.5634793785461
 21
304.0412702152617
 31
0.0
  0
LINE
  5
1C5
330
6C
100
AcDbEntity
  8
Sichtbare Kanten(DIN)
100
AcDbLine
 10
227.5634793785461
 20
370.5412702152617
 30
0.0
 11
227.5634793785468
 21
373.0412702152617
 31
0.0
  0
LINE
  5
1C6
330
6C
100
AcDbEntity
  8
Sichtbare Kanten(DIN)
100
AcDbLine
 10
227.5634793785468
 20
301.5412702152617
 30
0.0
 11
237.611645808588
 21
301.783332576376
 31
0.0
  0
LINE
  5
1C7
330
6C
100
AcDbEntity
  8
Sichtbare Kanten(DIN)
100
AcDbLine
 10
227.5634793785468
 20
373.0412702152616
 30
0.0
 11
237.611645808588
 21
372.7992078541473
 31
0.0
  0
LINE
  5
1C8
330
6C
100
AcDbEntity
  8
Sichtbare Kanten(DIN)
100
AcDbLine
 10
239.5634793785467
 20
304.0412702152617
 30
0.0
 11
239.5634793785467
 21
370.5412702152616
 31
0.0
  0
ARC
  5
1C9
330
6C
100
AcDbEntity
  8
Sichtbare Kanten(DIN)
100
AcDbCircle
 10
237.5634793785468
 20
303.7827524910056
 30
0.0
 40
2.000000000000002
100
AcDbArc
 50
271.3800000000004
 51
0.0
  0
LINE
  5
1CA
330
6C
100
AcDbEntity
  8
Sichtbare Kanten(DIN)
100
AcDbLine
 10
239.5634793785467
 20
304.0412702152617
 30
0.0
 11
239.5634793785468
 21
303.7827524910056
 31
0.0
  0
ARC
  5
1CB
330
6C
100
AcDbEntity
  8
Sichtbare Kanten(DIN)
100
AcDbCircle
 10
237.5634793785468
 20
370.7997879395177
 30
0.0
 40
2.000000000000002
100
AcDbArc
 50
0.0
 51
88.61999999999957
  0
LINE
  5
1CC
330
6C
100
AcDbEntity
  8
Sichtbare Kanten(DIN)
100
AcDbLine
 10
239.5634793785468
 20
370.7997879395177
 30
0.0
 11
239.5634793785467
 21
370.5412702152616
 31
0.0
  0
MTEXT
  5
1CD
330
6C
100
AcDbEntity
  8
Symbole(DIN)
 62
   179
420
  2500185
100
AcDbMText
 10
183.6941264740608
 20
172.7963323116312
 30
0.0
 40
6.99999988079071
 41
70.66158771514892
 46
0.0
 71
     1
 72
     1
  1
{50007-51002CF}
  7
Aktuell-DIN
 73
     1
 44
1.0
  0
LINE
  5
1CE
330
6C
100
AcDbEntity
  8
Mittellinie(DIN)
  6
Continuous
100
AcDbLine
 10
285.3634793785505
 20
337.2912702152616
 30
0.0
 11
184.2894826755522
 21
337.2912702152616
 31
0.0
  0
LINE
  5
1CF
330
6C
100
AcDbEntity
  8
Mittellinie(DIN)
  6
Continuous
100
AcDbLine
 10
280.3634793785506
 20
231.2912702152616
 30
0.0
 11
280.3634793785505
 21
342.2912702152617
 31
0.0
  0
LINE
  5
1D0
330
6C
100
AcDbEntity
  8
Mittellinie(DIN)
  6
Continuous
100
AcDbLine
 10
232.5634793785505
 20
315.7912702152616
 30
0.0
 11
218.4634793785505
 21
315.7912702152616
 31
0.0
  0
LINE
  5
1D1
330
6C
100
AcDbEntity
  8
Mittellinie(DIN)
  6
Continuous
100
AcDbLine
 10
232.5634793785505
 20
358.7912702152616
 30
0.0
 11
218.4634793785505
 21
358.7912702152616
 31
0.0
  0
LINE
  5
1D2
330
6C
100
AcDbEntity
  8
Mittellinie(DIN)
  6
Continuous
100
AcDbLine
 10
146.3997235005774
 20
231.2912702152616
 30
0.0
 11
146.3997235005774
 21
342.2912702152618
 31
0.0
  0
LINE
  5
1D3
330
6C
100
AcDbEntity
  8
Mittelpunktmarkierung(DIN)
  6
Continuous
100
AcDbLine
 10
161.9997235005774
 20
337.2912702152616
 30
0.0
 11
130.7997235005774
 21
337.2912702152616
 31
0.0
  0
LINE
  5
1D4
330
6C
100
AcDbEntity
  8
Mittelpunktmarkierung(DIN)
  6
Continuous
100
AcDbLine
 10
146.3997235005774
 20
352.8912702152617
 30
0.0
 11
146.3997235005774
 21
321.6912702152616
 31
0.0
  0
LINE
  5
1D5
330
6C
100
AcDbEntity
  8
Mittelpunktmarkierung(DIN)
  6
Continuous
100
AcDbLine
 10
156.6497235005774
 20
358.7912702152617
 30
0.0
 11
136.1497235005774
 21
358.7912702152617
 31
0.0
  0
LINE
  5
1D6
330
6C
100
AcDbEntity
  8
Mittelpunktmarkierung(DIN)
  6
Continuous
100
AcDbLine
 10
146.3997235005774
 20
369.0412702152617
 30
0.0
 11
146.3997235005774
 21
353.7912702152616
 31
0.0
  0
LINE
  5
1D7
330
6C
100
AcDbEntity
  8
Mittelpunktmarkierung(DIN)
  6
Continuous
100
AcDbLine
 10
156.6497235005774
 20
315.7912702152616
 30
0.0
 11
136.1497235005774
 21
315.7912702152616
 31
0.0
  0
LINE
  5
1D8
330
6C
100
AcDbEntity
  8
Mittelpunktmarkierung(DIN)
  6
Continuous
100
AcDbLine
 10
146.3997235005774
 20
320.7912702152616
 30
0.0
 11
146.3997235005774
 21
305.5412702152616
 31
0.0
  0
CIRCLE
  5
1D9
330
6C
100
AcDbEntity
  8
Skizziergeometrie(DIN)
  6
Continuous
100
AcDbCircle
 10
146.3811669628323
 20
358.7706995623506
 30
0.0
 40
5.0
  0
CIRCLE
  5
1DA
330
6C
100
AcDbEntity
  8
Skizziergeometrie(DIN)
  6
Continuous
100
AcDbCircle
 10
146.3811669628323
 20
315.8030613033345
 30
0.0
 40
5.0
  0
LINE
  5
1DB
330
6C
100
AcDbEntity
  8
Skizziergeometrie(DIN)
  6
Continuous
100
AcDbLine
 10
137.3558856713724
 20
301.5755906234579
 30
0.0
 11
155.3397064281111
 21
301.5755906234579
 31
0.0
  0
DIMENSION
  5
1DC
330
6C
100
AcDbEntity
  8
Bemaßungen(DIN)
  6
Continuous
 62
   250
420
  4144959
370
    25
100
AcDbDimension
  2
*D17
 10
116.1497235005775
 20
315.7912702152617
 30
0.0
 11
116.1497235005774
 21
337.2912702152616
 31
0.0
 70
   160
  1
<>
 42
43.0
 73
     0
 74
     0
 75
     0
  3
STANDARD-DIN - Methode 2b
100
AcDbAlignedDimension
 13
136.1497235005774
 23
358.7912702152617
 33
0.0
 14
136.1497235005774
 24
315.7912702152616
 34
0.0
 50
90.0
100
AcDbRotatedDimension
1001
ACAD
1000
DSTYLE
1002
{
1070
   172
1070
     0
1070
   289
1070
     1
1070
    74
1070
     0
1070
   271
1070
     2
1070
   272
1070
     2
1070
    48
1040
0.0
1070
    47
1040
0.0
1002
}
  0
DIMENSION
  5
2C5
330
6C
100
AcDbEntity
  8
Bemaßungen(DIN)
  6
Continuous
 62
   250
420
  4144959
370
    25
100
AcDbDimension
  2
*D18
 10
94.44426502274495
 20
301.5412702152618
 30
0.0
 11
94.4442650227449
 21
337.2912702152616
 31
0.0
 70
   160
  1
<>
 42
71.49999999999995
 73
     0
 74
     0
 75
     0
  3
STANDARD-DIN - Methode 2b
100
AcDbAlignedDimension
 13
133.9997235005774
 23
373.0412702152616
 33
0.0
 14
133.9997235005774
 24
301.5412702152617
 34
0.0
 50
90.0
100
AcDbRotatedDimension
1001
ACAD
1000
DSTYLE
1002
{
1070
   172
1070
     0
1070
   289
1070
     1
1070
    74
1070
     0
1070
   271
1070
     0
1070
   272
1070
     2
1070
    48
1040
0.0
1070
    47
1040
0.0
1002
}
  0
DIMENSION
  5
3AD
330
6C
100
AcDbEntity
  8
Bemaßungen(DIN)
  6
Continuous
 62
   250
420
  4144959
370
    25
100
AcDbDimension
  2
*D19
 10
161.2997235005774
 20
396.9216061172066
 30
0.0
 11
146.3997235005774
 21
396.9216061172066
 31
0.0
 70
   160
  1
<>
 42
29.80000000000001
 73
     0
 74
     0
 75
     0
  3
STANDARD-DIN - Methode 2b
100
AcDbAlignedDimension
 13
131.4997235005774
 23
370.5412702152616
 33
0.0
 14
161.2997235005774
 24
370.5412702152616
 34
0.0
 50
180.0
100
AcDbRotatedDimension
1001
ACAD
1000
DSTYLE
1002
{
1070
   172
1070
     0
1070
   289
1070
     1
1070
    74
1070
     0
1070
   271
1070
     0
1070
   272
1070
     2
1070
    48
1040
0.0
1070
    47
1040
0.0
1002
}
  0
DIMENSION
  5
48F
330
6C
100
AcDbEntity
  8
Bemaßungen(DIN)
  6
Continuous
 62
   250
420
  4144959
370
    25
100
AcDbDimension
  2
*D20
 10
239.5634793785467
 20
396.9216061172066
 30
0.0
 11
233.5634793785464
 21
396.9216061172066
 31
0.0
 70
   160
  1
<>
 42
12.00000000000068
 73
     0
 74
     0
 75
     0
  3
STANDARD-DIN - Methode 2b
100
AcDbAlignedDimension
 13
227.5634793785461
 23
370.5412702152616
 33
0.0
 14
239.5634793785467
 24
370.5412702152616
 34
0.0
 50
180.0
100
AcDbRotatedDimension
1001
ACAD
1000
DSTYLE
1002
{
1070
   172
1070
     1
1070
   289
1070
     1
1070
    74
1070
     0
1070
   271
1070
     2
1070
   272
1070
     2
1070
    48
1040
0.0
1070
    47
1040
0.0
1002
}
  0
DIMENSION
  5
58D
330
6C
100
AcDbEntity
  8
Bemaßungen(DIN)
  6
Continuous
 62
   250
420
  4144959
370
    25
100
AcDbDimension
  2
*D21
 10
289.3634793785505
 20
396.9216061172066
 30
0.0
 11
264.4634793785486
 21
396.9216061172066
 31
0.0
 70
   160
  1
<>
 42
49.8000000000037
 73
     0
 74
     0
 75
     0
  3
STANDARD-DIN - Methode 2b
100
AcDbAlignedDimension
 13
239.5634793785467
 23
370.5412702152616
 33
0.0
 14
289.3634793785505
 24
346.2912702152617
 34
0.0
100
AcDbRotatedDimension
1001
ACAD
1000
DSTYLE
1002
{
1070
   172
1070
     0
1070
   289
1070
     1
1070
    74
1070
     0
1070
   271
1070
     0
1070
   272
1070
     2
1070
    48
1040
0.0
1070
    47
1040
0.0
1002
}
  0
DIMENSION
  5
66F
330
6C
100
AcDbEntity
  8
Bemaßungen(DIN)
  6
Continuous
 62
   250
420
  4144959
370
    25
100
AcDbDimension
  2
*D22
 10
155.3997235005774
 20
209.2314470708712
 30
0.0
 11
170.8285093637003
 21
209.2314470708712
 31
0.0
 70
   160
  1
{Ø}<>
 42
18.00000000000003
 73
     0
 74
     0
 75
     0
  3
STANDARD-DIN - Methode 2b
100
AcDbAlignedDimension
 13
137.3997235005774
 23
236.2912702152617
 33
0.0
 14
155.3997235005774
 24
236.2912702152617
 34
0.0
100
AcDbRotatedDimension
1001
ACAD
1000
DSTYLE
1002
{
1070
   172
1070
     0
1070
   289
1070
     2
1070
    74
1070
     0
1070
   271
1070
     2
1070
   272
1070
     2
1070
    48
1040
0.0
1070
    47
1040
0.0
1002
}
  0
DIMENSION
  5
75F
330
6C
100
AcDbEntity
  8
Bemaßungen(DIN)
  6
Continuous
 62
   250
420
  4144959
370
    25
100
AcDbDimension
  2
*D23
 10
318.9834777698768
 20
236.2912702152617
 30
0.0
 11
318.9834777698767
 21
291.2912702152618
 31
0.0
 70
   160
  1
<>
 42
110.0
 73
     0
 74
     0
 75
     0
  3
STANDARD-DIN - Methode 2b
100
AcDbAlignedDimension
 13
289.3634793785505
 23
346.2912702152618
 33
0.0
 14
289.3634793785506
 24
236.2912702152617
 34
0.0
 50
90.0
100
AcDbRotatedDimension
1001
ACAD
1000
DSTYLE
1002
{
1070
   172
1070
     0
1070
   289
1070
     1
1070
    74
1070
     0
1070
   271
1070
     2
1070
   272
1070
     2
1070
    48
1040
0.0
1070
    47
1040
0.0
1002
}
  0
ENDSEC
  0
SECTION
  2
OBJECTS
  0
DICTIONARY
  5
C
330
0
100
AcDbDictionary
281
     1
  3
ACAD_CIP_PREVIOUS_PRODUCT_INFO
350
847
  3
ACAD_COLOR
350
63
  3
ACAD_GROUP
350
D
  3
ACAD_LAYOUT
350
62
  3
ACAD_MATERIAL
350
10
  3
ACAD_MLEADERSTYLE
350
66
  3
ACAD_MLINESTYLE
350
5F
  3
ACAD_PLOTSETTINGS
350
61
  3
ACAD_PLOTSTYLENAME
350
E
  3
ACAD_SCALELIST
350
42
  3
ACAD_TABLESTYLE
350
64
  3
ACAD_VISUALSTYLE
350
29
  3
ACDB_RECOMPOSE_DATA
350
85E
  3
AcDbVariableDictionary
350
848
  0
DICTIONARY
  5
852
330
193
100
AcDbDictionary
280
     1
281
     1
  3
ACAD_MLATT
360
854
  3
ACAD_XREC_ROUNDTRIP
360
853
  0
DICTIONARY
  5
855
330
196
100
AcDbDictionary
280
     1
281
     1
  3
ACAD_MLATT
360
857
  3
ACAD_XREC_ROUNDTRIP
360
856
  0
DICTIONARY
  5
858
330
197
100
AcDbDictionary
280
     1
281
     1
  3
ACAD_MLATT
360
85A
  3
ACAD_XREC_ROUNDTRIP
360
859
  0
DICTIONARY
  5
85B
330
198
100
AcDbDictionary
280
     1
281
     1
  3
ACAD_MLATT
360
85D
  3
ACAD_XREC_ROUNDTRIP
360
85C
  0
XRECORD
  5
847
102
{ACAD_REACTORS
330
C
102
}
330
C
100
AcDbXrecord
280
     1
300
INVNTOR
300
2012
300
PDSP_F_S
  0
DICTIONARY
  5
63
102
{ACAD_REACTORS
330
C
102
}
330
C
100
AcDbDictionary
281
     1
  0
DICTIONARY
  5
D
102
{ACAD_REACTORS
330
C
102
}
330
C
100
AcDbDictionary
281
     1
  0
DICTIONARY
  5
62
102
{ACAD_REACTORS
330
C
102
}
330
C
100
AcDbDictionary
281
     1
  3
Layout1
350
6B
  3
Layout2
350
73
  3
Model
350
6F
  0
DICTIONARY
  5
10
102
{ACAD_REACTORS
330
C
102
}
330
C
100
AcDbDictionary
281
     1
  3
ByBlock
350
19
  3
ByLayer
350
11
  3
Global
350
21
  0
DICTIONARY
  5
66
102
{ACAD_REACTORS
330
C
102
}
330
C
100
AcDbDictionary
281
     1
  3
Standard
350
67
  0
DICTIONARY
  5
5F
102
{ACAD_REACTORS
330
C
102
}
330
C
100
AcDbDictionary
281
     1
  3
Standard
350
60
  0
DICTIONARY
  5
61
102
{ACAD_REACTORS
330
C
102
}
330
C
100
AcDbDictionary
281
     1
  0
ACDBDICTIONARYWDFLT
  5
E
102
{ACAD_REACTORS
330
C
102
}
330
C
100
AcDbDictionary
281
     1
  3
Normal
350
F
100
AcDbDictionaryWithDefault
340
F
  0
DICTIONARY
  5
42
102
{ACAD_REACTORS
330
C
102
}
330
C
100
AcDbDictionary
281
     1
  3
A0
350
43
  3
A1
350
44
  3
A2
350
45
  3
A3
350
46
  3
A4
350
47
  3
A5
350
48
  3
A6
350
49
  3
A7
350
4A
  3
A8
350
4B
  3
A9
350
4C
  3
B0
350
4D
  3
B1
350
4E
  3
B2
350
4F
  3
B3
350
50
  3
B4
350
51
  3
B5
350
52
  3
B6
350
53
  0
DICTIONARY
  5
64
102
{ACAD_REACTORS
330
C
102
}
330
C
100
AcDbDictionary
281
     1
  3
Standard
350
65
  0
DICTIONARY
  5
29
102
{ACAD_REACTORS
330
C
102
}
330
C
100
AcDbDictionary
281
     1
  3
2dWireframe
350
2F
  3
Basic
350
2E
  3
Brighten
350
35
  3
ColorChange
350
39
  3
Conceptual
350
32
  3
Dim
350
34
  3
EdgeColorOff
350
41
  3
Facepattern
350
38
  3
Flat
350
2A
  3
FlatWithEdges
350
2B
  3
Gouraud
350
2C
  3
GouraudWithEdges
350
2D
  3
Hidden
350
31
  3
JitterOff
350
3F
  3
Linepattern
350
37
  3
OverhangOff
350
40
  3
Realistic
350
33
  3
Shaded
350
3E
  3
Shaded with edges
350
3D
  3
Shades of Gray
350
3A
  3
Sketchy
350
3B
  3
Thicken
350
36
  3
Wireframe
350
30
  3
X-Ray
350
3C
  0
XRECORD
  5
85E
102
{ACAD_REACTORS
330
C
102
}
330
C
100
AcDbXrecord
280
     1
 90
        1
330
65
330
193
330
196
330
197
330
198
330
66F
  0
DICTIONARY
  5
848
102
{ACAD_REACTORS
330
C
102
}
330
C
100
AcDbDictionary
281
     1
  3
CANNOSCALE
350
84B
  3
CMLEADERSTYLE
350
84A
  3
CTABLESTYLE
350
849
  3
XCLIPFRAME
350
84C
  0
XRECORD
  5
854
102
{ACAD_REACTORS
330
852
102
}
330
852
100
AcDbXrecord
280
     1
 70
     4
 70
     0
 70
     0
 40
1.0
  2
Innenkante_obere_Grenze
  1
Embedded Object
 10
28.19096644559973
 20
16.62519294726898
 30
0.0
 40
3.499999940395355
 41
0.0
 46
0.0
 71
     1
 72
     5
  1
\W0.9000;-1
  7
Textstil122
 73
     1
 44
1.0
  0
XRECORD
  5
853
102
{ACAD_REACTORS
330
852
102
}
330
852
100
AcDbXrecord
280
     1
102
ACAD_MATT_HEIGHT
140
3.499999940395355
  0
XRECORD
  5
857
102
{ACAD_REACTORS
330
855
102
}
330
855
100
AcDbXrecord
280
     1
 70
     4
 70
     0
 70
     0
 40
1.0
  2
Innenkante_untere_Grenze
  1
Embedded Object
 10
28.19096644559973
 20
11.62519294726898
 30
0.0
 40
3.499999940395355
 41
0.0
 46
0.0
 71
     1
 72
     5
  1
\W0.9000;-0.25
  7
Textstil122
 73
     1
 44
1.0
  0
XRECORD
  5
856
102
{ACAD_REACTORS
330
855
102
}
330
855
100
AcDbXrecord
280
     1
102
ACAD_MATT_HEIGHT
140
3.499999940395355
  0
XRECORD
  5
85A
102
{ACAD_REACTORS
330
858
102
}
330
858
100
AcDbXrecord
280
     1
 70
     4
 70
     0
 70
     0
 40
1.0
  2
Aussenkante_obere_Grenze
  1
Embedded Object
 10
6.72133928938317
 20
16.62519294726898
 30
0.0
 40
3.499999940395355
 41
7.696662545204162
 46
0.0
 71
     1
 72
     5
  1
\W0.9000;+0.3
  7
Textstil122
 73
     1
 44
1.0
  0
XRECORD
  5
859
102
{ACAD_REACTORS
330
858
102
}
330
858
100
AcDbXrecord
280
     1
102
ACAD_MATT_HEIGHT
140
3.499999940395355
  0
XRECORD
  5
85D
102
{ACAD_REACTORS
330
85B
102
}
330
85B
100
AcDbXrecord
280
     1
 70
     4
 70
     0
 70
     0
 40
1.0
  2
Aussenkante_untere_Grenze
  1
Embedded Object
 10
6.72133928938317
 20
11.62519294726898
 30
0.0
 40
3.499999940395355
 41
0.0
 46
0.0
 71
     1
 72
     5
  1
\W0.9000;+0.1
  7
Textstil122
 73
     1
 44
1.0
  0
XRECORD
  5
85C
102
{ACAD_REACTORS
330
85B
102
}
330
85B
100
AcDbXrecord
280
     1
102
ACAD_MATT_HEIGHT
140
3.499999940395355
  0
LAYOUT
  5
6B
102
{ACAD_REACTORS
330
62
102
}
330
62
100
AcDbPlotSettings
  1

  2

  4

  6

 40
0.0
 41
0.0
 42
0.0
 43
0.0
 44
0.0
 45
0.0
 46
0.0
 47
0.0
 48
0.0
 49
0.0
140
0.0
141
0.0
142
1.0
143
1.0
 70
   688
 72
     0
 73
     0
 74
     5
  7

 75
    16
147
1.0
 76
     0
 77
     2
 78
   300
148
0.0
149
0.0
100
AcDbLayout
  1
Layout1
 70
     1
 71
     1
 10
0.0
 20
0.0
 11
12.0
 21
9.0
 12
0.0
 22
0.0
 32
0.0
 14
0.0
 24
0.0
 34
0.0
 15
0.0
 25
0.0
 35
0.0
146
0.0
 13
0.0
 23
0.0
 33
0.0
 16
1.0
 26
0.0
 36
0.0
 17
0.0
 27
1.0
 37
0.0
 76
     0
330
68
  0
LAYOUT
  5
73
102
{ACAD_REACTORS
330
62
102
}
330
62
100
AcDbPlotSettings
  1

  2

  4

  6

 40
0.0
 41
0.0
 42
0.0
 43
0.0
 44
0.0
 45
0.0
 46
0.0
 47
0.0
 48
0.0
 49
0.0
140
0.0
141
0.0
142
1.0
143
1.0
 70
   688
 72
     0
 73
     0
 74
     5
  7

 75
    16
147
1.0
 76
     0
 77
     2
 78
   300
148
0.0
149
0.0
100
AcDbLayout
  1
Layout2
 70
     1
 71
     2
 10
0.0
 20
0.0
 11
12.0
 21
9.0
 12
0.0
 22
0.0
 32
0.0
 14
0.0
 24
0.0
 34
0.0
 15
0.0
 25
0.0
 35
0.0
146
0.0
 13
0.0
 23
0.0
 33
0.0
 16
1.0
 26
0.0
 36
0.0
 17
0.0
 27
1.0
 37
0.0
 76
     0
330
70
  0
LAYOUT
  5
6F
102
{ACAD_REACTORS
330
62
102
}
330
62
100
AcDbPlotSettings
  1

  2

  4

  6

 40
0.0
 41
0.0
 42
0.0
 43
0.0
 44
0.0
 45
0.0
 46
0.0
 47
0.0
 48
0.0
 49
0.0
140
0.0
141
0.0
142
1.0
143
1.0
 70
  1712
 72
     0
 73
     0
 74
     0
  7

 75
     0
147
1.0
 76
     0
 77
     2
 78
   300
148
0.0
149
0.0
100
AcDbLayout
  1
Model
 70
     1
 71
     0
 10
0.0
 20
0.0
 11
12.0
 21
9.0
 12
0.0
 22
0.0
 32
0.0
 14
0.0
 24
0.0
 34
0.0
 15
0.0
 25
0.0
 35
0.0
146
0.0
 13
0.0
 23
0.0
 33
0.0
 16
1.0
 26
0.0
 36
0.0
 17
0.0
 27
1.0
 37
0.0
 76
     0
330
6C
  0
MATERIAL
  5
19
102
{ACAD_XDICTIONARY
360
1A
102
}
102
{ACAD_REACTORS
330
10
102
}
330
10
100
AcDbMaterial
  1
ByBlock
 72
     0
 43
0.0208333333333333
 43
0.0
 43
0.0
 43
0.0
 43
0.0
 43
0.0208333333333333
 43
0.0
 43
0.0
 43
0.0
 43
0.0
 43
1.0
 43
0.0
 43
0.0
 43
0.0
 43
0.0
 43
1.0
 77
     0
 47
0.0208333333333333
 47
0.0
 47
0.0
 47
0.0
 47
0.0
 47
0.0208333333333333
 47
0.0
 47
0.0
 47
0.0
 47
0.0
 47
1.0
 47
0.0
 47
0.0
 47
0.0
 47
0.0
 47
1.0
171
     0
 49
0.0208333333333333
 49
0.0
 49
0.0
 49
0.0
 49
0.0
 49
0.0208333333333333
 49
0.0
 49
0.0
 49
0.0
 49
0.0
 49
1.0
 49
0.0
 49
0.0
 49
0.0
 49
0.0
 49
1.0
175
     0
142
0.0208333333333333
142
0.0
142
0.0
142
0.0
142
0.0
142
0.0208333333333333
142
0.0
142
0.0
142
0.0
142
0.0
142
1.0
142
0.0
142
0.0
142
0.0
142
0.0
142
1.0
179
     0
144
0.0208333333333333
144
0.0
144
0.0
144
0.0
144
0.0
144
0.0208333333333333
144
0.0
144
0.0
144
0.0
144
0.0
144
1.0
144
0.0
144
0.0
144
0.0
144
0.0
144
1.0
147
0.0208333333333333
147
0.0
147
0.0
147
0.0
147
0.0
147
0.0208333333333333
147
0.0
147
0.0
147
0.0
147
0.0
147
1.0
147
0.0
147
0.0
147
0.0
147
0.0
147
1.0
  0
MATERIAL
  5
11
102
{ACAD_XDICTIONARY
360
12
102
}
102
{ACAD_REACTORS
330
10
102
}
330
10
100
AcDbMaterial
  1
ByLayer
 72
     0
 43
0.0208333333333333
 43
0.0
 43
0.0
 43
0.0
 43
0.0
 43
0.0208333333333333
 43
0.0
 43
0.0
 43
0.0
 43
0.0
 43
1.0
 43
0.0
 43
0.0
 43
0.0
 43
0.0
 43
1.0
 77
     0
 47
0.0208333333333333
 47
0.0
 47
0.0
 47
0.0
 47
0.0
 47
0.0208333333333333
 47
0.0
 47
0.0
 47
0.0
 47
0.0
 47
1.0
 47
0.0
 47
0.0
 47
0.0
 47
0.0
 47
1.0
171
     0
 49
0.0208333333333333
 49
0.0
 49
0.0
 49
0.0
 49
0.0
 49
0.0208333333333333
 49
0.0
 49
0.0
 49
0.0
 49
0.0
 49
1.0
 49
0.0
 49
0.0
 49
0.0
 49
0.0
 49
1.0
175
     0
142
0.0208333333333333
142
0.0
142
0.0
142
0.0
142
0.0
142
0.0208333333333333
142
0.0
142
0.0
142
0.0
142
0.0
142
1.0
142
0.0
142
0.0
142
0.0
142
0.0
142
1.0
179
     0
144
0.0208333333333333
144
0.0
144
0.0
144
0.0
144
0.0
144
0.0208333333333333
144
0.0
144
0.0
144
0.0
144
0.0
144
1.0
144
0.0
144
0.0
144
0.0
144
0.0
144
1.0
147
0.0208333333333333
147
0.0
147
0.0
147
0.0
147
0.0
147
0.0208333333333333
147
0.0
147
0.0
147
0.0
147
0.0
147
1.0
147
0.0
147
0.0
147
0.0
147
0.0
147
1.0
  0
MATERIAL
  5
21
102
{ACAD_XDICTIONARY
360
22
102
}
102
{ACAD_REACTORS
330
10
102
}
330
10
100
AcDbMaterial
  1
Global
 72
     0
 43
0.0208333333333333
 43
0.0
 43
0.0
 43
0.0
 43
0.0
 43
0.0208333333333333
 43
0.0
 43
0.0
 43
0.0
 43
0.0
 43
1.0
 43
0.0
 43
0.0
 43
0.0
 43
0.0
 43
1.0
 77
     0
 47
0.0208333333333333
 47
0.0
 47
0.0
 47
0.0
 47
0.0
 47
0.0208333333333333
 47
0.0
 47
0.0
 47
0.0
 47
0.0
 47
1.0
 47
0.0
 47
0.0
 47
0.0
 47
0.0
 47
1.0
171
     0
 49
0.0208333333333333
 49
0.0
 49
0.0
 49
0.0
 49
0.0
 49
0.0208333333333333
 49
0.0
 49
0.0
 49
0.0
 49
0.0
 49
1.0
 49
0.0
 49
0.0
 49
0.0
 49
0.0
 49
1.0
175
     0
142
0.0208333333333333
142
0.0
142
0.0
142
0.0
142
0.0
142
0.0208333333333333
142
0.0
142
0.0
142
0.0
142
0.0
142
1.0
142
0.0
142
0.0
142
0.0
142
0.0
142
1.0
179
     0
144
0.0208333333333333
144
0.0
144
0.0
144
0.0
144
0.0
144
0.0208333333333333
144
0.0
144
0.0
144
0.0
144
0.0
144
1.0
144
0.0
144
0.0
144
0.0
144
0.0
144
1.0
147
0.0208333333333333
147
0.0
147
0.0
147
0.0
147
0.0
147
0.0208333333333333
147
0.0
147
0.0
147
0.0
147
0.0
147
1.0
147
0.0
147
0.0
147
0.0
147
0.0
147
1.0
  0
MLEADERSTYLE
  5
67
102
{ACAD_XDICTIONARY
360
84F
102
}
102
{ACAD_REACTORS
330
66
102
}
330
66
100
AcDbMLeaderStyle
170
     2
171
     1
172
     0
 90
        2
 40
0.0
 41
0.0
173
     1
 91
-1056964608
340
5B
 92
       -2
290
     1
 42
0.09
291
     1
 43
0.36
  3
Standard
 44
0.18
300

342
55
174
     1
178
     6
175
     1
176
     0
 93
-1056964608
 45
0.18
292
     0
297
     0
 46
0.18
 94
-1056964608
 47
1.0
 49
1.0
140
1.0
293
     1
141
0.0
294
     1
177
     0
142
1.0
295
     0
296
     0
143
0.125
1001
ACAD_MLEADERVER
1070
     2
  0
MLINESTYLE
  5
60
102
{ACAD_REACTORS
330
5F
102
}
330
5F
100
AcDbMlineStyle
  2
STANDARD
 70
     0
  3

 62
   256
 51
90.0
 52
90.0
 71
     2
 49
0.5
 62
   256
  6
BYLAYER
 49
-0.5
 62
   256
  6
BYLAYER
  0
ACDBPLACEHOLDER
  5
F
102
{ACAD_REACTORS
330
E
102
}
330
E
  0
SCALE
  5
43
102
{ACAD_REACTORS
330
42
102
}
330
42
100
AcDbScale
 70
     0
300
1:1
140
1.0
141
1.0
290
     1
  0
SCALE
  5
44
102
{ACAD_REACTORS
330
42
102
}
330
42
100
AcDbScale
 70
     0
300
1/128" = 1'-0"
140
0.0078125
141
12.0
290
     0
  0
SCALE
  5
45
102
{ACAD_REACTORS
330
42
102
}
330
42
100
AcDbScale
 70
     0
300
1/64" = 1'-0"
140
0.015625
141
12.0
290
     0
  0
SCALE
  5
46
102
{ACAD_REACTORS
330
42
102
}
330
42
100
AcDbScale
 70
     0
300
1/32" = 1'-0"
140
0.03125
141
12.0
290
     0
  0
SCALE
  5
47
102
{ACAD_REACTORS
330
42
102
}
330
42
100
AcDbScale
 70
     0
300
1/16" = 1'-0"
140
0.0625
141
12.0
290
     0
  0
SCALE
  5
48
102
{ACAD_REACTORS
330
42
102
}
330
42
100
AcDbScale
 70
     0
300
3/32" = 1'-0"
140
0.09375
141
12.0
290
     0
  0
SCALE
  5
49
102
{ACAD_REACTORS
330
42
102
}
330
42
100
AcDbScale
 70
     0
300
1/8" = 1'-0"
140
0.125
141
12.0
290
     0
  0
SCALE
  5
4A
102
{ACAD_REACTORS
330
42
102
}
330
42
100
AcDbScale
 70
     0
300
3/16" = 1'-0"
140
0.1875
141
12.0
290
     0
  0
SCALE
  5
4B
102
{ACAD_REACTORS
330
42
102
}
330
42
100
AcDbScale
 70
     0
300
1/4" = 1'-0"
140
0.25
141
12.0
290
     0
  0
SCALE
  5
4C
102
{ACAD_REACTORS
330
42
102
}
330
42
100
AcDbScale
 70
     0
300
3/8" = 1'-0"
140
0.375
141
12.0
290
     0
  0
SCALE
  5
4D
102
{ACAD_REACTORS
330
42
102
}
330
42
100
AcDbScale
 70
     0
300
1/2" = 1'-0"
140
0.5
141
12.0
290
     0
  0
SCALE
  5
4E
102
{ACAD_REACTORS
330
42
102
}
330
42
100
AcDbScale
 70
     0
300
3/4" = 1'-0"
140
0.75
141
12.0
290
     0
  0
SCALE
  5
4F
102
{ACAD_REACTORS
330
42
102
}
330
42
100
AcDbScale
 70
     0
300
1" = 1'-0"
140
1.0
141
12.0
290
     0
  0
SCALE
  5
50
102
{ACAD_REACTORS
330
42
102
}
330
42
100
AcDbScale
 70
     0
300
1-1/2" = 1'-0"
140
1.5
141
12.0
290
     0
  0
SCALE
  5
51
102
{ACAD_REACTORS
330
42
102
}
330
42
100
AcDbScale
 70
     0
300
3" = 1'-0"
140
3.0
141
12.0
290
     0
  0
SCALE
  5
52
102
{ACAD_REACTORS
330
42
102
}
330
42
100
AcDbScale
 70
     0
300
6" = 1'-0"
140
6.0
141
12.0
290
     0
  0
SCALE
  5
53
102
{ACAD_REACTORS
330
42
102
}
330
42
100
AcDbScale
 70
     0
300
1'-0" = 1'-0"
140
12.0
141
12.0
290
     0
  0
TABLESTYLE
  5
65
102
{ACAD_XDICTIONARY
360
84D
102
}
102
{ACAD_REACTORS
330
64
102
}
330
64
100
AcDbTableStyle
  3
Standard
 70
     0
 71
     0
 40
0.06
 41
0.06
280
     0
281
     0
  7
Standard
140
0.18
170
     2
 62
     0
 63
     7
283
     0
 90
      512
 91
        0
  1

274
    -2
284
     1
 64
     0
275
    -2
285
     1
 65
     0
276
    -2
286
     1
 66
     0
277
    -2
287
     1
 67
     0
278
    -2
288
     1
 68
     0
279
    -2
289
     1
 69
     0
  7
Standard
140
0.25
170
     5
 62
     0
 63
     7
283
     0
 90
      512
 91
        0
  1

274
    -2
284
     1
 64
     0
275
    -2
285
     1
 65
     0
276
    -2
286
     1
 66
     0
277
    -2
287
     1
 67
     0
278
    -2
288
     1
 68
     0
279
    -2
289
     1
 69
     0
  7
Standard
140
0.18
170
     5
 62
     0
 63
     7
283
     0
 90
      512
 91
        0
  1

274
    -2
284
     1
 64
     0
275
    -2
285
     1
 65
     0
276
    -2
286
     1
 66
     0
277
    -2
287
     1
 67
     0
278
    -2
288
     1
 68
     0
279
    -2
289
     1
 69
     0
  0
VISUALSTYLE
  5
2F
102
{ACAD_XDICTIONARY
360
869
102
}
102
{ACAD_REACTORS
330
29
102
}
330
29
100
AcDbVisualStyle
  2
2dWireframe
 70
     4
 71
     0
 72
     2
 73
     0
 90
        0
 40
-0.6
 41
-30.0
 62
     5
 63
     7
421
 16777215
 74
     1
 91
        4
 64
     7
 65
   257
 75
     1
175
     1
 42
1.0
 92
        0
 66
   257
 43
1.0
 76
     1
 77
     6
 78
     2
 67
     7
 79
     5
170
     0
171
     0
290
     0
174
     0
 93
        1
 44
0.0
173
     0
291
     0
 45
0.0
1001
ACAD
1000
AcDbSavedByObjectVersion
1070
     0
  0
VISUALSTYLE
  5
2E
102
{ACAD_XDICTIONARY
360
867
102
}
102
{ACAD_REACTORS
330
29
102
}
330
29
100
AcDbVisualStyle
  2
Basic
 70
     7
 71
     1
 72
     0
 73
     1
 90
        0
 40
-0.6
 41
-30.0
 62
     5
 63
     7
421
 16777215
 74
     0
 91
        4
 64
     7
 65
   257
 75
     1
175
     1
 42
1.0
 92
        8
 66
     7
 43
1.0
 76
     1
 77
     6
 78
     2
 67
     7
 79
     5
170
     0
171
     0
290
     0
174
     0
 93
        1
 44
0.0
173
     0
291
     1
 45
0.0
1001
ACAD
1000
AcDbSavedByObjectVersion
1070
     0
  0
VISUALSTYLE
  5
35
102
{ACAD_XDICTIONARY
360
875
102
}
102
{ACAD_REACTORS
330
29
102
}
330
29
100
AcDbVisualStyle
  2
Brighten
 70
    12
 71
     2
 72
     2
 73
     0
 90
        0
 40
-0.6
 41
-30.0
 62
     5
 63
     7
421
 16777215
 74
     1
 91
        4
 64
     7
 65
   257
 75
     1
175
     1
 42
1.0
 92
        8
 66
     7
 43
1.0
 76
     1
 77
     6
 78
     2
 67
     7
 79
     5
170
     0
171
     0
290
     0
174
     0
 93
        1
 44
50.0
173
     0
291
     1
 45
0.0
1001
ACAD
1000
AcDbSavedByObjectVersion
1070
     0
  0
VISUALSTYLE
  5
39
102
{ACAD_XDICTIONARY
360
87D
102
}
102
{ACAD_REACTORS
330
29
102
}
330
29
100
AcDbVisualStyle
  2
ColorChange
 70
    16
 71
     2
 72
     2
 73
     3
 90
        0
 40
-0.6
 41
-30.0
 62
     5
 63
     8
421
  8421504
 74
     1
 91
        4
 64
     7
 65
   257
 75
     1
175
     1
 42
1.0
 92
        8
 66
     8
424
  8421504
 43
1.0
 76
     1
 77
     6
 78
     2
 67
     7
 79
     5
170
     0
171
     0
290
     0
174
     0
 93
        1
 44
0.0
173
     0
291
     1
 45
0.0
1001
ACAD
1000
AcDbSavedByObjectVersion
1070
     0
  0
VISUALSTYLE
  5
32
102
{ACAD_XDICTIONARY
360
86F
102
}
102
{ACAD_REACTORS
330
29
102
}
330
29
100
AcDbVisualStyle
  2
Conceptual
 70
     9
 71
     3
 72
     2
 73
     0
 90
        0
 40
-0.6
 41
-30.0
 62
     5
 63
     7
421
 16777215
 74
     2
 91
        2
 64
     7
 65
   257
 75
     1
175
     1
 42
179.0
 92
        8
 66
     7
 43
1.0
 76
     1
 77
     6
 78
     2
 67
     7
 79
     3
170
     0
171
     0
290
     0
174
     0
 93
        1
 44
0.0
173
     0
291
     0
 45
0.0
1001
ACAD
1000
AcDbSavedByObjectVersion
1070
     0
  0
VISUALSTYLE
  5
34
102
{ACAD_XDICTIONARY
360
873
102
}
102
{ACAD_REACTORS
330
29
102
}
330
29
100
AcDbVisualStyle
  2
Dim
 70
    11
 71
     2
 72
     2
 73
     0
 90
        0
 40
-0.6
 41
-30.0
 62
     5
 63
     7
421
 16777215
 74
     1
 91
        4
 64
     7
 65
   257
 75
     1
175
     1
 42
1.0
 92
        8
 66
     7
 43
1.0
 76
     1
 77
     6
 78
     2
 67
     7
 79
     5
170
     0
171
     0
290
     0
174
     0
 93
        1
 44
-50.0
173
     0
291
     1
 45
0.0
1001
ACAD
1000
AcDbSavedByObjectVersion
1070
     0
  0
VISUALSTYLE
  5
41
102
{ACAD_XDICTIONARY
360
88D
102
}
102
{ACAD_REACTORS
330
29
102
}
330
29
100
AcDbVisualStyle
  2
EdgeColorOff
 70
    22
 71
     2
 72
     2
 73
     0
 90
        0
 40
-0.6
 41
-30.0
 62
     5
 63
     7
421
 16777215
 74
     1
 91
        4
 64
     7
 65
   257
 75
     1
175
     1
 42
1.0
 92
        8
 66
     7
 43
1.0
 76
     1
 77
     6
 78
     2
 67
     7
 79
     5
170
     0
171
     0
290
     0
174
     0
 93
        1
 44
0.0
173
     0
291
     1
 45
0.0
1001
ACAD
1000
AcDbSavedByObjectVersion
1070
     0
  0
VISUALSTYLE
  5
38
102
{ACAD_XDICTIONARY
360
87B
102
}
102
{ACAD_REACTORS
330
29
102
}
330
29
100
AcDbVisualStyle
  2
Facepattern
 70
    15
 71
     2
 72
     2
 73
     0
 90
        0
 40
-0.6
 41
-30.0
 62
     5
 63
     7
421
 16777215
 74
     1
 91
        4
 64
     7
 65
   257
 75
     1
175
     1
 42
1.0
 92
        8
 66
     7
 43
1.0
 76
     1
 77
     6
 78
     2
 67
     7
 79
     5
170
     0
171
     0
290
     0
174
     0
 93
        1
 44
0.0
173
     0
291
     1
 45
0.0
1001
ACAD
1000
AcDbSavedByObjectVersion
1070
     0
  0
VISUALSTYLE
  5
2A
102
{ACAD_XDICTIONARY
360
85F
102
}
102
{ACAD_REACTORS
330
29
102
}
330
29
100
AcDbVisualStyle
  2
Flat
 70
     0
 71
     2
 72
     1
 73
     1
 90
        2
 40
-0.6
 41
30.0
 62
     5
 63
     7
421
 16777215
 74
     0
 91
        0
 64
     7
 65
   257
 75
     1
175
     1
 42
1.0
 92
        8
 66
     7
 43
1.0
 76
     1
 77
     6
 78
     2
 67
     7
 79
     5
170
     0
171
     0
290
     0
174
     0
 93
       13
 44
0.0
173
     0
291
     1
 45
0.0
1001
ACAD
1000
AcDbSavedByObjectVersion
1070
     0
  0
VISUALSTYLE
  5
2B
102
{ACAD_XDICTIONARY
360
861
102
}
102
{ACAD_REACTORS
330
29
102
}
330
29
100
AcDbVisualStyle
  2
FlatWithEdges
 70
     1
 71
     2
 72
     1
 73
     1
 90
        2
 40
-0.6
 41
30.0
 62
     5
 63
     7
421
 16777215
 74
     1
 91
        0
 64
     7
 65
   257
 75
     1
175
     1
 42
1.0
 92
        0
 66
   257
 43
1.0
 76
     1
 77
     6
 78
     2
 67
     7
 79
     5
170
     0
171
     0
290
     0
174
     0
 93
       13
 44
0.0
173
     0
291
     1
 45
0.0
1001
ACAD
1000
AcDbSavedByObjectVersion
1070
     0
  0
VISUALSTYLE
  5
2C
102
{ACAD_XDICTIONARY
360
863
102
}
102
{ACAD_REACTORS
330
29
102
}
330
29
100
AcDbVisualStyle
  2
Gouraud
 70
     2
 71
     2
 72
     2
 73
     1
 90
        2
 40
-0.6
 41
30.0
 62
     5
 63
     7
421
 16777215
 74
     0
 91
        0
 64
     7
 65
   257
 75
     1
175
     1
 42
1.0
 92
        0
 66
     7
 43
1.0
 76
     1
 77
     6
 78
     2
 67
     7
 79
     5
170
     0
171
     0
290
     0
174
     0
 93
       13
 44
0.0
173
     0
291
     1
 45
0.0
1001
ACAD
1000
AcDbSavedByObjectVersion
1070
     0
  0
VISUALSTYLE
  5
2D
102
{ACAD_XDICTIONARY
360
865
102
}
102
{ACAD_REACTORS
330
29
102
}
330
29
100
AcDbVisualStyle
  2
GouraudWithEdges
 70
     3
 71
     2
 72
     2
 73
     1
 90
        2
 40
-0.6
 41
30.0
 62
     5
 63
     7
421
 16777215
 74
     1
 91
        0
 64
     7
 65
   257
 75
     1
175
     1
 42
1.0
 92
        0
 66
   257
 43
1.0
 76
     1
 77
     6
 78
     2
 67
     7
 79
     5
170
     0
171
     0
290
     0
174
     0
 93
       13
 44
0.0
173
     0
291
     1
 45
0.0
1001
ACAD
1000
AcDbSavedByObjectVersion
1070
     0
  0
VISUALSTYLE
  5
31
102
{ACAD_XDICTIONARY
360
86D
102
}
102
{ACAD_REACTORS
330
29
102
}
330
29
100
AcDbVisualStyle
  2
Hidden
 70
     6
 71
     1
 72
     2
 73
     2
 90
        0
 40
-0.6
 41
-30.0
 62
     5
 63
     7
421
 16777215
 74
     2
 91
        2
 64
     7
 65
   257
 75
     2
175
     1
 42
40.0
 92
        0
 66
   257
 43
1.0
 76
     1
 77
     6
 78
     2
 67
     7
 79
     3
170
     0
171
     0
290
     0
174
     0
 93
        1
 44
0.0
173
     0
291
     0
 45
0.0
1001
ACAD
1000
AcDbSavedByObjectVersion
1070
     0
  0
VISUALSTYLE
  5
3F
102
{ACAD_XDICTIONARY
360
889
102
}
102
{ACAD_REACTORS
330
29
102
}
330
29
100
AcDbVisualStyle
  2
JitterOff
 70
    20
 71
     2
 72
     2
 73
     0
 90
        0
 40
-0.6
 41
-30.0
 62
     5
 63
     7
421
 16777215
 74
     1
 91
        4
 64
     7
 65
   257
 75
     1
175
     1
 42
1.0
 92
       10
 66
     7
 43
1.0
 76
     1
 77
     6
 78
     2
 67
     7
 79
     5
170
     0
171
     0
290
     0
174
     0
 93
        1
 44
0.0
173
     0
291
     1
 45
0.0
1001
ACAD
1000
AcDbSavedByObjectVersion
1070
     0
  0
VISUALSTYLE
  5
37
102
{ACAD_XDICTIONARY
360
879
102
}
102
{ACAD_REACTORS
330
29
102
}
330
29
100
AcDbVisualStyle
  2
Linepattern
 70
    14
 71
     2
 72
     2
 73
     0
 90
        0
 40
-0.6
 41
-30.0
 62
     5
 63
     7
421
 16777215
 74
     1
 91
        4
 64
     7
 65
   257
 75
     7
175
     7
 42
1.0
 92
        8
 66
     7
 43
1.0
 76
     1
 77
     6
 78
     2
 67
     7
 79
     5
170
     0
171
     0
290
     0
174
     0
 93
        1
 44
0.0
173
     0
291
     1
 45
0.0
1001
ACAD
1000
AcDbSavedByObjectVersion
1070
     0
  0
VISUALSTYLE
  5
40
102
{ACAD_XDICTIONARY
360
88B
102
}
102
{ACAD_REACTORS
330
29
102
}
330
29
100
AcDbVisualStyle
  2
OverhangOff
 70
    21
 71
     2
 72
     2
 73
     0
 90
        0
 40
-0.6
 41
-30.0
 62
     5
 63
     7
421
 16777215
 74
     1
 91
        4
 64
     7
 65
   257
 75
     1
175
     1
 42
1.0
 92
        9
 66
     7
 43
1.0
 76
     1
 77
     6
 78
     2
 67
     7
 79
     5
170
     0
171
     0
290
     0
174
     0
 93
        1
 44
0.0
173
     0
291
     1
 45
0.0
1001
ACAD
1000
AcDbSavedByObjectVersion
1070
     0
  0
VISUALSTYLE
  5
33
102
{ACAD_XDICTIONARY
360
871
102
}
102
{ACAD_REACTORS
330
29
102
}
330
29
100
AcDbVisualStyle
  2
Realistic
 70
     8
 71
     2
 72
     3
 73
     0
 90
        2
 40
-0.6
 41
30.0
 62
     5
 63
     7
421
 16777215
 74
     0
 91
        0
 64
     7
 65
   257
 75
     1
175
     1
 42
1.0
 92
        8
 66
   257
 43
1.0
 76
     1
 77
     6
 78
     2
 67
     7
 79
     3
170
     0
171
     0
290
     0
174
     0
 93
       13
 44
0.0
173
     0
291
     0
 45
0.0
1001
ACAD
1000
AcDbSavedByObjectVersion
1070
     0
  0
VISUALSTYLE
  5
3E
102
{ACAD_XDICTIONARY
360
887
102
}
102
{ACAD_REACTORS
330
29
102
}
330
29
100
AcDbVisualStyle
  2
Shaded
 70
    27
 71
     2
 72
     2
 73
     1
 90
        2
 40
-0.6
 41
30.0
 62
     5
 63
     7
421
 16777215
 74
     0
 91
        4
 64
     7
 65
   257
 75
     1
175
     1
 42
1.0
 92
        8
 66
   257
 43
1.0
 76
     1
 77
     6
 78
     2
 67
     8
425
  7895160
 79
     3
170
     0
171
     0
290
     0
174
     0
 93
        5
 44
0.0
173
     0
291
     0
 45
0.0
1001
ACAD
1000
AcDbSavedByObjectVersion
1070
     0
  0
VISUALSTYLE
  5
3D
102
{ACAD_XDICTIONARY
360
885
102
}
102
{ACAD_REACTORS
330
29
102
}
330
29
100
AcDbVisualStyle
  2
Shaded with edges
 70
    26
 71
     2
 72
     2
 73
     1
 90
        2
 40
-0.6
 41
30.0
 62
     5
 63
     7
421
 16777215
 74
     1
 91
       10
 64
     7
 65
   257
 75
     2
175
     1
 42
1.0
 92
        8
 66
   257
 43
1.0
 76
     1
 77
     6
 78
     2
 67
     7
 79
     3
170
     0
171
     0
290
     0
174
     0
 93
        5
 44
0.0
173
     0
291
     0
 45
0.0
1001
ACAD
1000
AcDbSavedByObjectVersion
1070
     0
  0
VISUALSTYLE
  5
3A
102
{ACAD_XDICTIONARY
360
87F
102
}
102
{ACAD_REACTORS
330
29
102
}
330
29
100
AcDbVisualStyle
  2
Shades of Gray
 70
    23
 71
     2
 72
     2
 73
     3
 90
        0
 40
-0.6
 41
-30.0
 62
     5
 63
     7
421
 16777215
 74
     2
 91
        2
 64
     7
 65
     7
 75
     1
175
     1
 42
40.0
 92
        8
 66
     7
 43
1.0
 76
     1
 77
     6
 78
     2
 67
     7
 79
     3
170
     0
171
     0
290
     0
174
     0
 93
        1
 44
0.0
173
     0
291
     0
 45
0.0
1001
ACAD
1000
AcDbSavedByObjectVersion
1070
     0
  0
VISUALSTYLE
  5
3B
102
{ACAD_XDICTIONARY
360
881
102
}
102
{ACAD_REACTORS
330
29
102
}
330
29
100
AcDbVisualStyle
  2
Sketchy
 70
    24
 71
     1
 72
     2
 73
     2
 90
        0
 40
-0.6
 41
-30.0
 62
     5
 63
     7
421
 16777215
 74
     2
 91
        2
 64
     7
 65
     7
 75
     1
175
     1
 42
40.0
 92
       11
 66
     7
 43
1.0
 76
     1
 77
     6
 78
     2
 67
     7
 79
     6
170
     0
171
     0
290
     0
174
     0
 93
        1
 44
0.0
173
     0
291
     0
 45
0.0
1001
ACAD
1000
AcDbSavedByObjectVersion
1070
     0
  0
VISUALSTYLE
  5
36
102
{ACAD_XDICTIONARY
360
877
102
}
102
{ACAD_REACTORS
330
29
102
}
330
29
100
AcDbVisualStyle
  2
Thicken
 70
    13
 71
     2
 72
     2
 73
     0
 90
        0
 40
-0.6
 41
-30.0
 62
     5
 63
     7
421
 16777215
 74
     1
 91
        4
 64
     7
 65
   257
 75
     1
175
     1
 42
1.0
 92
       12
 66
     7
 43
1.0
 76
     1
 77
     6
 78
     2
 67
     7
 79
     5
170
     0
171
     0
290
     0
174
     0
 93
        1
 44
0.0
173
     0
291
     1
 45
0.0
1001
ACAD
1000
AcDbSavedByObjectVersion
1070
     0
  0
VISUALSTYLE
  5
30
102
{ACAD_XDICTIONARY
360
86B
102
}
102
{ACAD_REACTORS
330
29
102
}
330
29
100
AcDbVisualStyle
  2
Wireframe
 70
     5
 71
     0
 72
     2
 73
     0
 90
        0
 40
-0.6
 41
-30.0
 62
     5
 63
     7
421
 16777215
 74
     1
 91
        4
 64
     7
 65
   257
 75
     1
175
     1
 42
1.0
 92
        0
 66
   257
 43
1.0
 76
     1
 77
     6
 78
     2
 67
     7
 79
     3
170
     0
171
     0
290
     0
174
     0
 93
        1
 44
0.0
173
     0
291
     0
 45
0.0
1001
ACAD
1000
AcDbSavedByObjectVersion
1070
     0
  0
VISUALSTYLE
  5
3C
102
{ACAD_XDICTIONARY
360
883
102
}
102
{ACAD_REACTORS
330
29
102
}
330
29
100
AcDbVisualStyle
  2
X-Ray
 70
    25
 71
     2
 72
     2
 73
     1
 90
        1
 40
0.5
 41
-30.0
 62
     5
 63
     7
421
 16777215
 74
     1
 91
        0
 64
     7
 65
   257
 75
     1
175
     1
 42
1.0
 92
        8
 66
     7
 43
1.0
 76
     1
 77
     6
 78
     2
 67
     7
 79
     3
170
     0
171
     0
290
     0
174
     0
 93
       13
 44
0.0
173
     0
291
     0
 45
0.0
1001
ACAD
1000
AcDbSavedByObjectVersion
1070
     0
  0
DICTIONARYVAR
  5
84B
102
{ACAD_REACTORS
330
848
102
}
330
848
100
DictionaryVariables
280
     0
  1
1:1
  0
DICTIONARYVAR
  5
84A
102
{ACAD_REACTORS
330
848
102
}
330
848
100
DictionaryVariables
280
     0
  1
STANDARD
  0
DICTIONARYVAR
  5
849
102
{ACAD_REACTORS
330
848
102
}
330
848
100
DictionaryVariables
280
     0
  1
STANDARD
  0
DICTIONARYVAR
  5
84C
102
{ACAD_REACTORS
330
848
102
}
330
848
100
DictionaryVariables
280
     0
  1
2
  0
DICTIONARY
  5
1A
330
19
100
AcDbDictionary
280
     1
281
     1
  3
BUMPTILE
360
1C
  3
DIFFUSETILE
360
1B
  3
OPACITYTILE
360
1F
  3
REFLECTIONTILE
360
1E
  3
REFRACTIONTILE
360
20
  3
SPECULARTILE
360
1D
  0
DICTIONARY
  5
12
330
11
100
AcDbDictionary
280
     1
281
     1
  3
BUMPTILE
360
14
  3
DIFFUSETILE
360
13
  3
FBXASSET
360
D9
  3
OPACITYTILE
360
17
  3
REFLECTIONTILE
360
16
  3
REFRACTIONTILE
360
18
  3
SPECULARTILE
360
15
  0
DICTIONARY
  5
22
330
21
100
AcDbDictionary
280
     1
281
     1
  3
BUMPTILE
360
24
  3
DIFFUSETILE
360
23
  3
OPACITYTILE
360
27
  3
REFLECTIONTILE
360
26
  3
REFRACTIONTILE
360
28
  3
SPECULARTILE
360
25
  0
DICTIONARY
  5
84F
330
67
100
AcDbDictionary
280
     1
281
     1
  3
ACAD_XREC_ROUNDTRIP
360
850
  0
DICTIONARY
  5
84D
330
65
100
AcDbDictionary
280
     1
281
     1
  3
ACAD_ROUNDTRIP_2008_TABLESTYLE_CELLSTYLEMAP
360
84E
  0
DICTIONARY
  5
869
330
2F
100
AcDbDictionary
280
     1
281
     1
  3
ACAD_XREC_ROUNDTRIP
360
86A
  0
DICTIONARY
  5
867
330
2E
100
AcDbDictionary
280
     1
281
     1
  3
ACAD_XREC_ROUNDTRIP
360
868
  0
DICTIONARY
  5
875
330
35
100
AcDbDictionary
280
     1
281
     1
  3
ACAD_XREC_ROUNDTRIP
360
876
  0
DICTIONARY
  5
87D
330
39
100
AcDbDictionary
280
     1
281
     1
  3
ACAD_XREC_ROUNDTRIP
360
87E
  0
DICTIONARY
  5
86F
330
32
100
AcDbDictionary
280
     1
281
     1
  3
ACAD_XREC_ROUNDTRIP
360
870
  0
DICTIONARY
  5
873
330
34
100
AcDbDictionary
280
     1
281
     1
  3
ACAD_XREC_ROUNDTRIP
360
874
  0
DICTIONARY
  5
88D
330
41
100
AcDbDictionary
280
     1
281
     1
  3
ACAD_XREC_ROUNDTRIP
360
88E
  0
DICTIONARY
  5
87B
330
38
100
AcDbDictionary
280
     1
281
     1
  3
ACAD_XREC_ROUNDTRIP
360
87C
  0
DICTIONARY
  5
85F
330
2A
100
AcDbDictionary
280
     1
281
     1
  3
ACAD_XREC_ROUNDTRIP
360
860
  0
DICTIONARY
  5
861
330
2B
100
AcDbDictionary
280
     1
281
     1
  3
ACAD_XREC_ROUNDTRIP
360
862
  0
DICTIONARY
  5
863
330
2C
100
AcDbDictionary
280
     1
281
     1
  3
ACAD_XREC_ROUNDTRIP
360
864
  0
DICTIONARY
  5
865
330
2D
100
AcDbDictionary
280
     1
281
     1
  3
ACAD_XREC_ROUNDTRIP
360
866
  0
DICTIONARY
  5
86D
330
31
100
AcDbDictionary
280
     1
281
     1
  3
ACAD_XREC_ROUNDTRIP
360
86E
  0
DICTIONARY
  5
889
330
3F
100
AcDbDictionary
280
     1
281
     1
  3
ACAD_XREC_ROUNDTRIP
360
88A
  0
DICTIONARY
  5
879
330
37
100
AcDbDictionary
280
     1
281
     1
  3
ACAD_XREC_ROUNDTRIP
360
87A
  0
DICTIONARY
  5
88B
330
40
100
AcDbDictionary
280
     1
281
     1
  3
ACAD_XREC_ROUNDTRIP
360
88C
  0
DICTIONARY
  5
871
330
33
100
AcDbDictionary
280
     1
281
     1
  3
ACAD_XREC_ROUNDTRIP
360
872
  0
DICTIONARY
  5
887
330
3E
100
AcDbDictionary
280
     1
281
     1
  3
ACAD_XREC_ROUNDTRIP
360
888
  0
DICTIONARY
  5
885
330
3D
100
AcDbDictionary
280
     1
281
     1
  3
ACAD_XREC_ROUNDTRIP
360
886
  0
DICTIONARY
  5
87F
330
3A
100
AcDbDictionary
280
     1
281
     1
  3
ACAD_XREC_ROUNDTRIP
360
880
  0
DICTIONARY
  5
881
330
3B
100
AcDbDictionary
280
     1
281
     1
  3
ACAD_XREC_ROUNDTRIP
360
882
  0
DICTIONARY
  5
877
330
36
100
AcDbDictionary
280
     1
281
     1
  3
ACAD_XREC_ROUNDTRIP
360
878
  0
DICTIONARY
  5
86B
330
30
100
AcDbDictionary
280
     1
281
     1
  3
ACAD_XREC_ROUNDTRIP
360
86C
  0
DICTIONARY
  5
883
330
3C
100
AcDbDictionary
280
     1
281
     1
  3
ACAD_XREC_ROUNDTRIP
360
884
  0
XRECORD
  5
1C
102
{ACAD_REACTORS
330
1A
102
}
330
1A
100
AcDbXrecord
280
     1
270
     1
271
     1
  0
XRECORD
  5
1B
102
{ACAD_REACTORS
330
1A
102
}
330
1A
100
AcDbXrecord
280
     1
270
     1
271
     1
  0
XRECORD
  5
1F
102
{ACAD_REACTORS
330
1A
102
}
330
1A
100
AcDbXrecord
280
     1
270
     1
271
     1
  0
XRECORD
  5
1E
102
{ACAD_REACTORS
330
1A
102
}
330
1A
100
AcDbXrecord
280
     1
270
     1
271
     1
  0
XRECORD
  5
20
102
{ACAD_REACTORS
330
1A
102
}
330
1A
100
AcDbXrecord
280
     1
270
     1
271
     1
  0
XRECORD
  5
1D
102
{ACAD_REACTORS
330
1A
102
}
330
1A
100
AcDbXrecord
280
     1
270
     1
271
     1
  0
XRECORD
  5
14
102
{ACAD_REACTORS
330
12
102
}
330
12
100
AcDbXrecord
280
     1
270
     1
271
     1
  0
XRECORD
  5
13
102
{ACAD_REACTORS
330
12
102
}
330
12
100
AcDbXrecord
280
     1
270
     1
271
     1
  0
XRECORD
  5
D9
102
{ACAD_REACTORS
330
12
102
}
330
12
100
AcDbXrecord
280
     1
 70
     1
 90
1959938040
 71
     1
  1
FB10C69E-78E4-4254-85E8-706CE89DA301
311
504B03040A0000080000AE78CB403DEE336E79000000790000001B0000006175746F6465736B2D64657369676E2D7061636B6167652E786D6C3C3F786D6C2076657273696F6E3D22312E302220656E636F64696E673D227574662D3822203F3E3C666F726D6174733E3C666F726D61743E687474703A2F2F736368656D612E
311
6175746F6465736B2E636F6D2F64657369676E2D7061636B6167652F323030393C2F666F726D61743E3C2F666F726D6174733E504B0304140006080800AE78CB40D486FD9CA0000000F4000000130000005B436F6E74656E745F54797065735D2E786D6C7D8EC10E82300C865F65E91D8A1E8C310C0EEA1BF002731658846E
311
D98AC1B77784ABF1D8FE5FBFBF75BBCE937A534CCEB38643598122B6FEE978D0B0485F9C41B54DDD7D022595594E1A469170414C76A4D9A4D207E29CF43ECE46F218070CC6BECC4078ACAA135ACF422C856C0E68EA1BF5669944DDD7BCDE7B1F8E415D77AECB980613C2E4AC91FC167A2B244592486606FC29C8FD7F045B9A
311
EF7053A7E60B504B0304140006080800AE78CB40552A8F74EB0000007C01000008000000636F72652E786D6C8D904D6EC3201085AF82665BE100FEA96561A2244E4FD00B20200E4A0C9681AAC72F4E1CA9DD7535A337EF9B193DBEFF9EEEE8CB2CC17AD7032D0820E394D7D68D3DA478C12DA0BDE08BF7F1970D909393E961
311
9541F071F169DE24E55D342E66D5796D36518660222075CF4D0F415DCD240B996276845B314B7593A329E8ABCB704A56A3E711ABF33E7BB16601511D086BEBD30137F4BDC6D5E9CC707BAC063C9CCB66683F8EA46C18DFADB0E0D14EAFFB6A31321A0D8211CA306930A59FB4EE48DDB1F68DD08E10BE5BED7FA034EB7F42C9
311
BA58B2EDDD271640D0FCC86320F86ECD22974750B9AEB9891F504B0304140006080800AE78CB4055019EA25F0000007C00000007000000636E782E786D6C4DCB3B0E80201045D1AD90E915ED2CF8AC45050C11660C8261F98AB1B07AC9C97D42D718D865D3E909258CFD00CCE24AC6E326A164D74DC0B4128928FF32603847
311
2BA13128B1252AC747C6BAB984FC68F0B87FE8960A5C09FE86CFB69FBA01504B0304140006080800AE78CB400755DE8367010000020300000C0000006662782F636F72652E786D6C8D52ED8E8320107C15C2DF8B02563DD3204DBFEE09EE05A852CF54C120983EFEAD1F4DAF97A6694C90CCECECCE8EF2CDB56DD0A06C5F1B
311
9D6316528C942E4C59EB2AC7DE9D830CA38DE0D618F7A70C232D5B95E311C68257D6F86E810AA39DD20E506D4AB580B2EF95C3A868E092E3BEF851AD0CA57750D15FC24E161759A9908540439DE0BDB36000CD43C6138BF3E9CAC98C0BEE7D5D2E6C5DC2B4FA5C2B8B45BCA55196ECB741CA3E9320DE1FA320DBC587E0705C
311
A587EC6B475769C4C92816DCD5EDCD5D619574AAC422A22C0A681A30F6CD92354DD651F641D99A524EC6F20791EFCA3745BED66E152D7667598F05032313F16F5B88C8A15E0EE087084EC610E13525FC18340402213B796A6E7B5C001A54E18C8D81298DBF53836CBC82A9144D0F27330B9DA706B0D9D33ED18B3EAF7BC007
311
94BA026BD2C1F5E4DD389DCF5397283A6583C15D9136B695CDDDDC6CF17EDE073D9517A631F61D355956254B9864FC7BC52F504B0304140006080800AE78CB400662D7B57D0000009D0000000B0000006662782F636E782E786D6C4DCCD10A83201886E15B91FFDCD5748D023514F53E6259C84CC3D9D8E5AF46073BFAE0E1
311
E365FD6709E8EDF2CBA7C8E17AA901B9F848A38F3387AD4CB805D40B96532A7F374071581C878341B039A76D3D6974D3B085B26BF0F17962476C47EE4663DDEA06DF946CB0AC95C44A1263286DA8B6162AC1AA5F69DF232CBE504B0304140006080800AE78CB4016C9E27C2D01000015020000310000006662782F39324639
311
323645442D443844352D344241352D413042412D4241324545333335334446462F636F72652E786D6C8D515B6EC32010BC8AC557AACA36606325112672E4E404BD000592A2C460F1A872FC42ED48ED5F7E58343B333BDAA587C7742FBE95F3DA9A1EA00A82421961A536D71EC47029B7A03830EAAC0D7F68A0307C523DC830
311
60F4EA6C9C574858139409093556AA15E4DEAB000A714F9F1E78F1A5265EF11812C3DFAA998B1BBFAA0A55A99D788CFAE052806219925FC076F8BCC3DD692CC7ED48CAF638907280C7A13C0EF8746A1AD28CE733AD1721A3316AB9CAB54C71F4452BF7AA4916331AF4F48C2F9CE24149C03044B8845D89D007227B48F678FB
311
0ED11E425A67FA3F519CE58BA2A84D68F01A779179C010AD9706A3D2C6CFFB338C7ACCD68522CFDB7825DE008315842D69208684D60B376D209976ED6AEA837569C39BDB67A2A3C4CACE5DCB689D8F94CAEF0553CD07653F504B0304140006080800AE78CB4003CFE7EB4E01000033030000300000006662782F3932463932
311
3645442D443844352D344241352D413042412D4241324545333335334446462F636E782E786D6CD593CD6E022114855F85B06DE607ABC61806932EFA045D74CBC0D5521998F0D3D4B7EF45D1BA71D165376472EEE19C9B2F0CDF7D4F967C4188C6BB81B2B6A7049CF2DAB8C34073DA371B4A768207EFD39D8D122727186891
311
A9E087E0F35C250D7B996D42D51A77AC6280E8735010512E3789F54A5A0C00D76414611A416BD0E466C4AF3D045C05C5F144D20790D79777E2C74F5029F2AEA408DE950EC1CB599BEE4C94282B631C68541F30C956E6E435C463AB65922D6BAF5D0F76FA4D22E5C2B53207434AF940CB4945DDA8458EBCC3A1E03105A4574D
311
E9340315729EAD513221E4EE6CBC7804CFC6A5F5B27A0D820FE866EBE7E512C3CE33C19399A03A5400994053B1E8D9A2E9D70D636F6CB5ED57DBC5E6A967DBBEE75DB10B3E7A6FEB258C81E067A2BC4BE012158C7765FC085FF5116D02B2F6E1F4079008A0B65EE8DC32FE339FEEFCBE1157C0BF40FC00504B030414000608
311
0800AE78CB40329F1344A405000081100000340000006662782F39324639323645442D443844352D344241352D413042412D4241324545333335334446462F6F626A656374732E786D6CAD57DB6EDB3810FD1541FBB2FB20CBB29DD459282A123B298C366D51A3C53E1830288952B8A12E20A9D4D9AFDF43899225D74EBD8B
311
BEE8C2CB70E6CC990BFDB7BB8C5BCF544856E4D7B6371ADB16CDA32266797A6D572A71E6B6F536F04551A8DE32DBCA4946AF6D3D6C077E2A8AAA3443314D48C5D5C1E8FDED5F968C684E6D2BE244CA6B5B468F34232352A922A6F2691413454669B21B79A366E1506C2A48F97820B42482E60A9A623C8714AB51CA1BFE8E6D
311
37F05D3D1FF8FA69564D4FAF726B7B86E7B35C2A92473F1C762066EACD9677938B2BE762369B3AB3CB89E7DCDEDF2E1DEFCD74BCB85C2CAE6EEEAE70B05402928C26822676F00ED80816F96E3315F815CBD57462961807B9823E33ED293B98589EEF366B3AEB8C91C7D48F8A3CA7518D15D0A8ED33A2635AD23C86CF1995D0
311
AC87D078F8EB691C7BD353FD6F8EEC0F9F87407F474F50AB7BFBEE6B5A847FC304790E8384A49A810D96C6D086ABE33DC261517033C7A49511450523DCE22C1444BCD80196EA25813F10A3992C7434680BEC005E68A687744118FD9CE7C7B44C2ACE358DEDA08E822D62852A596BC6FEA162AF7D1F19E8045F6936CC8D41EA
311
A5A47670D550647EC0A606482BE12485CB61A6DE399D1C18BAD071BA5ADAC1FBFB70B7D6B17BFCF0521425154AD307D46A1DD7BE354A4627EF2CCFE90DF6812A7B50BE00F98F08F5BD2AF09B60BBD96E664E5182E432294406DF5863CB19E331B6BCFAA9BF7B5FBEDB6D1E7AEF149E70B686EA17E039B4A1EFCB1E9C81FF0C
311
C217626A4C5B4784236D3CB01C00699258BCC010F27012EEEC60852C87AC8C5D84071E4C86BACFF8F45D230689A23EA9F7CE81E5415A3C234103B69A9150A321BF5170EFA71FD2597DB059760ADE8B5F42D79BE5FAFDBA120989E88389E9254D58CE144ADC9E377D8506980F2C7AA22FDF0B11C3D01FF15EF7F1CECC511268
311
6BCC35F0699BD3F5CFFEE4C10111F6A5854E37FE4F4E8011BAB0F6E43F301951CE494E8BAA3DF7D5FA81B2D140AC835D33B92B30FBC202D23433073188221D09566A10BB6AD525CDD109EBBEAE3E82917670FBF281BCF4B357B8CFBD51C10BB10D5FB64D5A3A0AF5B721B70D06AE9602BAD741D2C6BF017D1BB324A92492E0
311
115CBFAD167DDFE9B48014D14A6DA26506FB115C4418D2B67251AD0541252DF22D43DD44DC1D3DA02F1F901A06D4024F692C294FB68CF32ADB268CA31A6D33529E80E3FFEB1F5659B9255951E5EA84EC81EAA80E43DD07EC95DF898A1EED605DBF9D5BE4DE98C627C8A06BC911AC06AEBDBFF5D0275DDD396FE677336736B9
311
9839F38BBBB9F3667CB9B89B5F2D6FA6E33D9A751315F86DA9E94734BC84D2E6578219F77D5D217E4C12B08307A2E4E65D139EEDFBEB6A845ED877B107F5B2DB78133FA3EFA3F1CF05EC571E15B4CA4A4E339A2BA263E8417FF02F047DC64099667C9591949E21E5D3BBF58131183963DF671DEFF4FBC15E33BAD001795488
311
7AACB230278C1F6C4C1B2447659E1AFC5A9F74EFA6D0B4BFFACF38069DA92C388B9107632BA5454615B2E11945486454827AFD9E3E36778F33763F371DA22221A7AD268F044D3297080B90BC8AD470DCFA0D4D9DEEABAE6D94DBD1131E2653D81638736DA349572CA27214A240EB56A8160E2EF53B797096E42947AFDD6CEA
311
FEBB5D1A9B4149EE969CD33F19BB9A146E0C401A29D137A02182776A6502BFD6CDCC47FFC9F0561D8B287C8695EA6CD90F74C6D4C720441BA3CC6D014DCC93397A87407DDD2C6F54AF192072D62DEB551234521D45445ADF14B47E46A59BE567171D8AB5FA6495BC4AE1CBF325398282CC950E70B008AC30324BA240D5C59F
311
9BCFA2C04D36B3EE192860FDBE9B5FFEB159145956E4CDD0E6C6DC87ADF5236EB7F106C981EA6B89DC4CC6DE64535F07CC0D651B12494724964F18806705EB801EB81FBC6CEE8CC89CCD44B7CED5AE3860E86A6999C236835043977E6ED5E0A0F1C8A98518D2574A1D31FD05E5AB3702B75E0A15047AF9E05F504B03041400
311
06080000AE78CB40000000000000000000000000350000006662782F39324639323645442D443844352D344241352D413042412D4241324545333335334446462F76657274696365732E62696E504B0304140006080800AE78CB40F270F1330600000004000000360000006662782F39324639323645442D443844352D3442
311
41352D413042412D4241324545333335334446462F747269616E676C65732E62696E636660600000504B0304140006080000AE78CB40000000000000000000000000370000006662782F39324639323645442D443844352D344241352D413042412D4241324545333335334446462F617474726962757465732E62696E504B
311
0304140006080800AE78CB40D5987DFC8F00000041010000360000006662782F39324639323645442D443844352D344241352D413042412D4241324545333335334446462F6469726563746F72792E786D6C858F410EC2201045AF4266AF15DDB800BA74E7C21B903225242D6328188F2FA5C4183471359997F9FF81E89FF3
311
C41E1816475E02DF1F80A11FC8386F25A438EECEC07A250251FC3803E6F58C12560C4AD840E95E91C151A72936F496F35732D860FE635F62C8F2DA16B505C545B74125BAA2FA9E05D7CC053D063734D5C7665FD55B6B8D15D5E9BFEAFD8490FFA45E504B0304140006080800AE78CB40E8E3ECB5FE000000A00100003B0000
311
006662782F39324639323645442D443844352D344241352D413042412D4241324545333335334446462F7265736F75726365732F636F72652E786D6C8D50596EC32010BD8A35BF153690D8752D4CD42C3D412F80F0C445892162A97AFC42E24AED5F7F66466FD13C3DB1FB5AAED527FA609C1D81D5142AB4DA4DC6CE23A478
311
263D543B29BC73F1970C2AAB161CA1C020C5EC5DBAAD907636A28D19B56EC215542160844A5FF33142D01FB8A85AA59815E152DF94BEA8196B56673AEBA408D1E700D5E34999203D0697BCC6209A072B454A665A3566CA3FCDD9A007B97DA5BC6F0F2FA463CF2DD91E4E9CF4FBED911C4F9BEED8BFEDE9A6E3A2296629A259
311
7E326A8F2AE2049253C609ED0863EFAC1D683BF0FE89B28152D114F91F53BA4DFF342563E386AF711FB60092E52077428AA6F495D7BDCCBC4BB7F21B504B010214000A0000080000AE78CB403DEE336E79000000790000001B00000000000000000000000000000000006175746F6465736B2D64657369676E2D7061636B61
311
67652E786D6C504B01021400140006080800AE78CB40D486FD9CA0000000F40000001300000000000000000000000000B20000005B436F6E74656E745F54797065735D2E786D6C504B01021400140006080800AE78CB40552A8F74EB0000007C010000080000000000000000000000000083010000636F72652E786D6C504B
311
01021400140006080800AE78CB4055019EA25F0000007C000000070000000000000000000000000094020000636E782E786D6C504B01021400140006080800AE78CB400755DE8367010000020300000C00000000000000000000000000180300006662782F636F72652E786D6C504B01021400140006080800AE78CB400662
311
D7B57D0000009D0000000B00000000000000000000000000A90400006662782F636E782E786D6C504B01021400140006080800AE78CB4016C9E27C2D0100001502000031000000000000000000000000004F0500006662782F39324639323645442D443844352D344241352D413042412D4241324545333335334446462F63
311
6F72652E786D6C504B01021400140006080800AE78CB4003CFE7EB4E010000330300003000000000000000000000000000CB0600006662782F39324639323645442D443844352D344241352D413042412D4241324545333335334446462F636E782E786D6C504B01021400140006080800AE78CB40329F1344A40500008110
311
00003400000000000000000000000000670800006662782F39324639323645442D443844352D344241352D413042412D4241324545333335334446462F6F626A656374732E786D6C504B01021400140006080000AE78CB4000000000000000000000000035000000000000000000000000005D0E00006662782F3932463932
311
3645442D443844352D344241352D413042412D4241324545333335334446462F76657274696365732E62696E504B01021400140006080800AE78CB40F270F13306000000040000003600000000000000000000000000B00E00006662782F39324639323645442D443844352D344241352D413042412D424132454533333533
311
4446462F747269616E676C65732E62696E504B01021400140006080000AE78CB4000000000000000000000000037000000000000000000000000000A0F00006662782F39324639323645442D443844352D344241352D413042412D4241324545333335334446462F617474726962757465732E62696E504B01021400140006
311
080800AE78CB40D5987DFC8F0000004101000036000000000000000000000000005F0F00006662782F39324639323645442D443844352D344241352D413042412D4241324545333335334446462F6469726563746F72792E786D6C504B01021400140006080800AE78CB40E8E3ECB5FE000000A00100003B00000000000000
311
000000000000421000006662782F39324639323645442D443844352D344241352D413042412D4241324545333335334446462F7265736F75726365732F636F72652E786D6C504B0506000000000E000E0080040000991100000000
310
504B03040A0000080000AE78CB403DEE336E79000000790000001B0000006175746F6465736B2D64657369676E2D7061636B6167652E786D6C3C3F786D6C2076657273696F6E3D22312E302220656E636F64696E673D227574662D3822203F3E3C666F726D6174733E3C666F726D61743E687474703A2F2F736368656D612E
310
6175746F6465736B2E636F6D2F64657369676E2D7061636B6167652F323030393C2F666F726D61743E3C2F666F726D6174733E504B0304140006080800AE78CB40D486FD9CA0000000F4000000130000005B436F6E74656E745F54797065735D2E786D6C7D8EC10E82300C865F65E91D8A1E8C310C0EEA1BF002731658846E
310
D98AC1B77784ABF1D8FE5FBFBF75BBCE937A534CCEB38643598122B6FEE978D0B0485F9C41B54DDD7D022595594E1A469170414C76A4D9A4D207E29CF43ECE46F218070CC6BECC4078ACAA135ACF422C856C0E68EA1BF5669944DDD7BCDE7B1F8E415D77AECB980613C2E4AC91FC167A2B244592486606FC29C8FD7F045B9A
310
EF7053A7E60B504B0304140006080800AE78CB40B47A8FA9EB0000007C01000008000000636F72652E786D6C8D90416EC3201045AF82665B6103B693D8C2446DEA9CA0174098B828315806AA1EBF903852BBEB6A467FFE9B197D7EFC9E6FE84BAFDE38DB032D08206D951B8D9D7A88E1820F808E82AFCE855F364056CEBA87
310
2C83E0D3EAE2B249CAD9A06D48AA75A3DE44E9BD0E80D42D353D78F5A96759C81892C35F8B45AAAB9C74419F5D826334237A1C3163DA672E46AF20F6A7AA6E9B738DDFDBDD09D7EC95E2B761A8F0C0DAFDB9A60D652DE56586050F667EDE57AB96418F2018A10C931DA6F483361D693A767821B4238497D9FE078ACBF84F28
310
1A1B2AB6BDFBC03C88FCC87D207899B348E51E54AA3937F103504B0304140006080800AE78CB4055019EA25F0000007C00000007000000636E782E786D6C4DCB3B0E80201045D1AD90E915ED2CF8AC45050C11660C8261F98AB1B07AC9C97D42D718D865D3E909258CFD00CCE24AC6E326A164D74DC0B4128928FF32603847
310
2BA13128B1252AC747C6BAB984FC68F0B87FE8960A5C09FE86CFB69FBA01504B0304140006080800AE78CB40E6827D7A68010000020300000C0000006662782F636F72652E786D6C8D52ED8E8230107C95A67F2F508AA0624ACD9DA74F702F50A1728DD092D2121FFF960FC379B91843529A999DDDD901B6BF3535EAA5ED94
310
D139A6618491D4852995AE72ECDD25D862B4E7CC1AE37E9561A44523733CC098B3CA1ADFCE5061B493DA01AA4D296750749D741815355C72DC15DFB211A1F00E2ABA6BD88AE22A2A19D21068A8E3AC73160CA069C870627E39DF189970CEBC57E5CCAA12A6A98B9216F3CD619564E929093EB3F52148E2771A7C1C8FABE018
310
679B5342531A67949141CC9953CDDD5D61A570B2C43C8E681C44EB80D22F9AEEA274176FDF22BA8B224686F207916FCB17455E69B78A67BB93ACC37C3032127FB685881CEA440F7E08676408115E63C28F41432010B213E7FABEC715A05E16CED80498D2F885EA45ED254C8DD0F83032B1D0796C009BFDDB277ED2E7790FF8
310
804257604D38B89EBD1BA6B369EA1C452B6DD0BB1BD2C636A25ECC4D16977319F4AFBC30B5B1AFA8C9BC2A99C324C3DFCB7F00504B0304140006080800AE78CB402DFC6F1C7E0000009D0000000B0000006662782F636E782E786D6C4DCCD10E82201886E15B61FF392A98FA1F00AE28EFC3253A164223685D7EDA3CE8E8DB
310
9E7D7B45FF591D799BF8B2C14B604505C4F87B98AC5F24E4345304D22B1143487F37207E5C8D849D41892586FC3C6832F3985DDAD459FF38101BC6CFD75AD316074E4F37CD28F28BA65D53210E2DEFB466502A51FE4ADBEE61F505504B0304140006080800AE78CB40069B4A192C01000015020000310000006662782F3835
310
3132414433432D363846322D344543312D383242432D3735303838463632374343312F636F72652E786D6C8D515B6EC32010BC8AC557AACA3690D82611266ADDE604BD8003244189C1E251E5F85DD78ED4FEE58745B333B303CBF7F7E1967D6B1F8CB32D22054699B6D22963CF2D4AF1943394ED05F7CEC53F3494D97ED02D
310
9A6024F8D9BB342E9074366A1B01B54EE905EC43D01165F20697160579D1435FF42902235C8BB197D7FEAC0B52401B788287E82140360F994E245845E8DBC7BACB6B76A0F9E6B32339A3EF5DDE5498B1434D9BAE23BC9C8582A764D422370AE29893D1FE5993492C7834C323BEF4BA8F5A214131A139AE7342BE48B5C3D58E
310
B2574C7618F372A2FF13A5513D294AC6C6355DE2CEB28004BC666E08AE5C3ADE1E61F47D743E66D3BC55D0F205095C605C6DE9B669182F672EFC0098D69BC53444E7E18757D723D0D78B73BD11BC9C9604E5778350A7858A1F504B0304140006080800AE78CB40656828FC5601000033030000300000006662782F38353132
310
414433432D363846322D344543312D383242432D3735303838463632374343312F636E782E786D6CBD93CD6EC32010845F0571ADFC839358568489D4439FA0875E316C521A1B2CC055F3F65D1292E69243A5AA1764CD0E33AB4F98EFBEA6917C820FC6D99EB2B2A604AC72DAD8434F97B82F3A4A76827BE7E29D8D122B27E8
310
6992A9E007EF96394B1AF6721923AAA3B1C72C7A086EF10A02CAE926199D922306802D1614611A406BD0E466C4AF3D785C05C5E144E23B9097E737E2860F5031F02AA5085EA50EC1D3999BEE4C94A85186D0D3A0DE6192A55CA2D3108EA5965196ACBC763DD8E92789A40BD7CAC51B92CA7B9A4E2AF2462572E4150E050FD1
310
23BD6C8AA719A890F33C1A252342AECEC68B47F0C5D8D8AEB3D720788FEE55D3761D869D678247334176280F3282A6A2A95953D46DC1D82BDB6CEBCDB6E99E6AB6AD6B5E25BBE0837363BE8431E0DD4C94B3116CA482F12A8D1FE1CB3EA28D47D6CE9F7E011201E4D60B9D5BC65FF261ED6ABDFE473ED5F97D232E8F7F81F8
310
06504B0304140006080800AE78CB4045C38213630700009A1B0000340000006662782F38353132414433432D363846322D344543312D383242432D3735303838463632374343312F6F626A656374732E786D6CED59DD739B3810FF5718EEE5EEC1D8C44E9ADC103A8993743CBDB49DFADAB907CF3032C8441721184924F1FD
310
F5B7FA00033109BEE6DEFA6003425AEDFEF6534BF0FE29A3CE03E682E4ECDCF5BD89EB6016E70961E9B95BCACDE8D475DE8701CF73D998E63A0C65F8DC55C36E18A43C2F0B3B94E00D2AA9EC8CDE5CFEE5881833EC3A3145429CBB22BEC319F25029F3048B7B2F411279E9E6C9F33D33B14D36E5A8B8EB102D10C74C02A730
310
CE808A6398F2DB8F13771C0663F53E0CD4BF9D351D346BD63F6BACA56E7349989088C5CF58EA90990E6269EACFAEAE8F8ECF46C7B3D974343B39F2479737975723FFDD74323F99CFCF2EAECF80BD759E532B53820BCC12D0DFD60DFD60ACDED4A25B04F6711DE78CE15803095069B1BA040916B05503BE49FBD15712355E6B
310
091BCF33F5DEB2D0189EB6A9F4CD1A06448B2E0862B7AB24AEAE4DF9F2F5DF20B81862945C6009DC0AC941BB161E0E5EE18693606C46C360BDD305114E8624E60451879235471C940253D59430300B2C19E51C1C48394A02AD39F3BA6D5BE099AFBBCE3E2E3725A5CA33DC503B5604EE87A5D09C917F30DF71DF4406780269
310
4BC2E4A9E5526E0BEC8667C1580F8681BA4C8FEC4B03A4B3A128151A11F3B623E85CB9FEE2CA0D3FDEAC9F962A1CECDFBCE07981B95446A7F4A8F90243B6578592DDD61FA439B5008431A0DA953B50BE02F29F207AEC5801BD71F2347B9AD9B99223263639CF4037CEC4194DE06FE2F8FA5FDD37EE8271BDB8ADBD3E3CC14D
310
1554A73F8E675B068D95E5BF0167183C80C1E77C6A5F2D6344C19E6F09038094913834872108ED9BF5931B2E207042A0875588863E880CEC3EC06D30B664765AA9DCCB7A1D0344ED1ED3214A02D8B445021B3D7AFA00D9839378A7A6A6887DF01EBF89B95E5C2D3F2E4BBE4131BEB53E7D853784110959733F432DCC5B12DD
310
E3ED63CE1310F439DECB26DE99DD4A00DA0A73057C5A81A01E763BB73688615D9AAB7013BCB20308A1727583FE2D1131A614319C97D5BE757453865A7BBCAD19DCF0C8403C3DEA9830C70F445515E034BB192D4621EFC79C140A4437FC6024AB83A6D723DDB7C527B0C87A7ECFAC0583D0CB10FD5307AD3D38B42CBB42DA02
310
510BBCDE85F338A7398FD6DBC8443A176A0960A3ED2DDF5B4421D61B25292AE041DAEFAA90921A69A3846C36A580B8BA87C5EF8B79D31C26DED43F769AFF1D679C41B405DF45DCFA5D678F886428C5D106257DDB3577AB690B4DB28734C71B0A72910722B71192D124C1E921D01C44FCEC4DA9A7341782302C205FED05BF89
310
C6C4834062B459B1ACB4DA019A8828C312D1431050647AC0D56947D7B831940EAFF3585BEF4B1A6B12FD9F2C8223A82573161128452187BCCAB8EF1D430C69A36B50EEE00BD656D1D662D0124A88781B3D6292DEC9435037E47B708FE14852CA282F500C663D80EC335F514AEDF0BE46F1BDCA1F515CD2B7321081E9262294
310
9659043FC2E0E431C4B5EBC0F4220A0DE226F6499C41518664C9876C72723C79B68FA919BA21B0B1D1865008DB51868A1ED45B0151D7234E0DBEA5DEA3D475991511CAF2920D32146FDAF5264BBEAB56457620BFAA5484B2B1226C09860161B2CEAA55CC0653D78115DC4807AA6D24505650730A7B25F1F8B53769CABD1B70
310
EBA76FBB4106855F8FF69A117556C160796C1506E211C9F8CE0D97FA3ABA84FA3BC1C92ED557B566B30204C454242F39B12AFAB680F2C6D6686E788BA4587D3059B7BA7E5B78D0FD08C6B0066A977AE142019D612691AA4C6ED50DFD8A2004B76898F185CAA98750B948125D35227A43FAD4D92A235A9B66C42BEE30CB33F8
310
B11561312D13BC4289B88F6E258D9644B16EA5F4325261FCA2809F3F2C3BF0C0C80091BEA8020F3F76D6DAD1B92A97F612917765B6668840106C89961ADD78054BAD462A2DD75775A680BA0B0CCCAA78F6F364D16C47FC3C59A4D6307EE86471B9FD036D9B7D91463A8F955D1F740CA8F393A2F216C700DD76A8A9D659C424
310
732BBF75A608826215E507576355D03004FB38FECF59BB2F0B9AED3AFC1F96B5FD6715C74159A5355975A9F654AE8B660EBBB9F4A1117B763D7A777A3D1BCD8E8E67A3D3E3EBD3D1BBC9C9FCFAF4ECEA623AA9F5648887411DCC74EE826713D4AA61F5643180AEACC82949E0349F382986982FE14C3FA07DCE332C2079369B
310
DD896DCA0F58FD60FA9C12AD29AE38B943D020A602D23A8851C6B23DEEFC02AD490907ED73179A46DE3DFC59AB741DC83CE72EB40A2489B1F0D6D066520D3D4D1C52AECEFD96180432C4529512CDA2FAB95EA5B06985FF7ACA903460E56AF530A0702BA0FBD5EA5068DE2C4FF1418257EC3848C2EDBA9450AD19597603B530
310
7A9B9DFA8D6C94B07BBBF513B8EECB62F99E9ED34264D02783178DC0501D49C453DDEF568C59962EAEBE8CA1CFE62C3E3B052D53D0E5704A238EC1984B555081158155589A059260AAF3DF575F780E9F7832475745CEAF4FA727BFADE67996E5CC0CAD2EE05496C087226779079F7D9215140F5835D7C5EA68E21FAD7453DB
310
F6D9A33512D85355110C54C58412A463726097CF1A54B67D3956AAE84C5F5C3936884233C0D8D1B31EAFF9C8E5800FA9CF29CA63B49F57D2BED8D71EEBA960131C3AD2E1BF504B0304140006080000AE78CB40000000000000000000000000350000006662782F38353132414433432D363846322D344543312D383242432D
310
3735303838463632374343312F76657274696365732E62696E504B0304140006080800AE78CB40F270F1330600000004000000360000006662782F38353132414433432D363846322D344543312D383242432D3735303838463632374343312F747269616E676C65732E62696E636660600000504B0304140006080000AE78
310
CB40000000000000000000000000370000006662782F38353132414433432D363846322D344543312D383242432D3735303838463632374343312F617474726962757465732E62696E504B0304140006080800AE78CB40D5987DFC8F00000041010000360000006662782F38353132414433432D363846322D344543312D38
310
3242432D3735303838463632374343312F6469726563746F72792E786D6C858F410EC2201045AF4266AF15DDB800BA74E7C21B903225242D6328188F2FA5C4183471359997F9FF81E89FF3C41E1816475E02DF1F80A11FC8386F25A438EECEC07A250251FC3803E6F58C12560C4AD840E95E91C151A72936F496F35732D860
310
FE635F62C8F2DA16B505C545B74125BAA2FA9E05D7CC053D063734D5C7665FD55B6B8D15D5E9BFEAFD8490FFA45E504B0304140006080800AE78CB406B144511FD000000A00100003B0000006662782F38353132414433432D363846322D344543312D383242432D3735303838463632374343312F7265736F75726365732F
310
636F72652E786D6C8D504B6EC23010BD4A34DBCA89ED1020C8316A299CA017B09C2158101BF953F5F8B52195DA5D3733A3F7D13C3DB1FF9A6FD527FA609C1D80D5142AB4DA8DC64E03A478265BA8F65278E7E22F195456CD384081418AC9BB745F20ED6C441B336ADD880BA842C00895BEE56380A02F38AB5AA59815E15ADF
310
95BEAA096B56673AEBA408D1E700D5F34999203D0697BCC6209A272B454A665C3466CC3FCDD9A007B939B4ABBE3BB5E4BD5F1FC88ABF32F2763CB6E4C8FBCD69C53AC67B269A6296229AF927A3F6A8228E2039659CD03561EC83753BDAEDF8F685B21DA5A229F23FA6741FFF694AC6C6962F719FB600B20479105234A5AFBC
310
1E65E65DBA95DF504B010214000A0000080000AE78CB403DEE336E79000000790000001B00000000000000000000000000000000006175746F6465736B2D64657369676E2D7061636B6167652E786D6C504B01021400140006080800AE78CB40D486FD9CA0000000F40000001300000000000000000000000000B20000005B
310
436F6E74656E745F54797065735D2E786D6C504B01021400140006080800AE78CB40B47A8FA9EB0000007C010000080000000000000000000000000083010000636F72652E786D6C504B01021400140006080800AE78CB4055019EA25F0000007C000000070000000000000000000000000094020000636E782E786D6C504B
310
01021400140006080800AE78CB40E6827D7A68010000020300000C00000000000000000000000000180300006662782F636F72652E786D6C504B01021400140006080800AE78CB402DFC6F1C7E0000009D0000000B00000000000000000000000000AA0400006662782F636E782E786D6C504B01021400140006080800AE78
310
CB40069B4A192C010000150200003100000000000000000000000000510500006662782F38353132414433432D363846322D344543312D383242432D3735303838463632374343312F636F72652E786D6C504B01021400140006080800AE78CB40656828FC56010000330300003000000000000000000000000000CC060000
310
6662782F38353132414433432D363846322D344543312D383242432D3735303838463632374343312F636E782E786D6C504B01021400140006080800AE78CB4045C38213630700009A1B00003400000000000000000000000000700800006662782F38353132414433432D363846322D344543312D383242432D3735303838
310
463632374343312F6F626A656374732E786D6C504B01021400140006080000AE78CB400000000000000000000000003500000000000000000000000000251000006662782F38353132414433432D363846322D344543312D383242432D3735303838463632374343312F76657274696365732E62696E504B01021400140006
310
080800AE78CB40F270F13306000000040000003600000000000000000000000000781000006662782F38353132414433432D363846322D344543312D383242432D3735303838463632374343312F747269616E676C65732E62696E504B01021400140006080000AE78CB400000000000000000000000003700000000000000
310
000000000000D21000006662782F38353132414433432D363846322D344543312D383242432D3735303838463632374343312F617474726962757465732E62696E504B01021400140006080800AE78CB40D5987DFC8F000000410100003600000000000000000000000000271100006662782F38353132414433432D363846
310
322D344543312D383242432D3735303838463632374343312F6469726563746F72792E786D6C504B01021400140006080800AE78CB406B144511FD000000A00100003B000000000000000000000000000A1200006662782F38353132414433432D363846322D344543312D383242432D3735303838463632374343312F7265
310
736F75726365732F636F72652E786D6C504B0506000000000E000E0080040000601300000000
  0
XRECORD
  5
17
102
{ACAD_REACTORS
330
12
102
}
330
12
100
AcDbXrecord
280
     1
270
     1
271
     1
  0
XRECORD
  5
16
102
{ACAD_REACTORS
330
12
102
}
330
12
100
AcDbXrecord
280
     1
270
     1
271
     1
  0
XRECORD
  5
18
102
{ACAD_REACTORS
330
12
102
}
330
12
100
AcDbXrecord
280
     1
270
     1
271
     1
  0
XRECORD
  5
15
102
{ACAD_REACTORS
330
12
102
}
330
12
100
AcDbXrecord
280
     1
270
     1
271
     1
  0
XRECORD
  5
24
102
{ACAD_REACTORS
330
22
102
}
330
22
100
AcDbXrecord
280
     1
270
     1
271
     1
  0
XRECORD
  5
23
102
{ACAD_REACTORS
330
22
102
}
330
22
100
AcDbXrecord
280
     1
270
     1
271
     1
  0
XRECORD
  5
27
102
{ACAD_REACTORS
330
22
102
}
330
22
100
AcDbXrecord
280
     1
270
     1
271
     1
  0
XRECORD
  5
26
102
{ACAD_REACTORS
330
22
102
}
330
22
100
AcDbXrecord
280
     1
270
     1
271
     1
  0
XRECORD
  5
28
102
{ACAD_REACTORS
330
22
102
}
330
22
100
AcDbXrecord
280
     1
270
     1
271
     1
  0
XRECORD
  5
25
102
{ACAD_REACTORS
330
22
102
}
330
22
100
AcDbXrecord
280
     1
270
     1
271
     1
  0
XRECORD
  5
850
102
{ACAD_REACTORS
330
84F
102
}
330
84F
100
AcDbXrecord
280
     1
102
ACAD_ROUNDTRIP_2012_MLEADER_STYLE
298
     1
  0
CELLSTYLEMAP
  5
84E
102
{ACAD_REACTORS
330
84D
102
}
330
84D
100
AcDbCellStyleMap
 90
        3
300
CELLSTYLE
  1
TABLEFORMAT_BEGIN
 90
        5
170
     1
 91
        0
 92
    32768
 62
   257
 93
        1
300
CONTENTFORMAT
  1
CONTENTFORMAT_BEGIN
 90
        0
 91
        0
 92
      512
 93
        0
300

 40
0.0
140
1.0
 94
        5
 62
     0
340
55
144
0.25
309
CONTENTFORMAT_END
171
     0
 94
        0
309
TABLEFORMAT_END
  1
CELLSTYLE_BEGIN
 90
        1
 91
        1
300
_TITLE
309
CELLSTYLE_END
300
CELLSTYLE
  1
TABLEFORMAT_BEGIN
 90
        5
170
     1
 91
        0
 92
        0
 62
   257
 93
        1
300
CONTENTFORMAT
  1
CONTENTFORMAT_BEGIN
 90
        0
 91
        0
 92
      512
 93
        0
300

 40
0.0
140
1.0
 94
        5
 62
     0
340
55
144
0.18
309
CONTENTFORMAT_END
171
     0
 94
        0
309
TABLEFORMAT_END
  1
CELLSTYLE_BEGIN
 90
        2
 91
        1
300
_HEADER
309
CELLSTYLE_END
300
CELLSTYLE
  1
TABLEFORMAT_BEGIN
 90
        5
170
     1
 91
        0
 92
        0
 62
   257
 93
        1
300
CONTENTFORMAT
  1
CONTENTFORMAT_BEGIN
 90
        0
 91
        0
 92
      512
 93
        0
300

 40
0.0
140
1.0
 94
        2
 62
     0
340
55
144
0.18
309
CONTENTFORMAT_END
171
     0
 94
        0
309
TABLEFORMAT_END
  1
CELLSTYLE_BEGIN
 90
        3
 91
        2
300
_DATA
309
CELLSTYLE_END
  0
XRECORD
  5
86A
102
{ACAD_REACTORS
330
869
102
}
330
869
100
AcDbXrecord
280
     1
102
RTVSPropertyOp0
 70
     1
102
RTVSPropertyOp1
 70
     1
102
RTVSPropertyOp2
 70
     1
102
RTVSPropertyOp3
 70
     1
102
RTVSPropertyOp4
 70
     1
102
RTVSPropertyOp5
 70
     1
102
RTVSPropertyOp6
 70
     1
102
RTVSPropertyOp7
 70
     1
102
RTVSPropertyOp8
 70
     1
102
RTVSPropertyOp9
 70
     1
102
RTVSPropertyOp10
 70
     1
102
RTVSPropertyOp11
 70
     1
102
RTVSPropertyOp12
 70
     1
102
RTVSPropertyOp13
 70
     1
102
RTVSPropertyOp14
 70
     1
102
RTVSPropertyOp15
 70
     1
102
RTVSPropertyOp16
 70
     1
102
RTVSPropertyOp17
 70
     1
102
RTVSPropertyOp18
 70
     1
102
RTVSPropertyOp19
 70
     1
102
RTVSPropertyOp20
 70
     1
102
RTVSPropertyOp21
 70
     1
102
RTVSPropertyOp22
 70
     1
102
RTVSPropertyOp23
 70
     1
102
RTVSPropertyOp24
 70
     1
102
RTVSPropertyOp25
 70
     1
102
RTVSPropertyOp26
 70
     1
102
RTVSPropertyOp27
 70
     1
102
RTVSPropertyOp28
 70
     1
102
RTVSPropertyOp29
 70
     1
102
RTVSPropertyOp30
 70
     1
102
RTVSPropertyOp31
 70
     1
102
RTVSPropertyOp32
 70
     1
  0
XRECORD
  5
868
102
{ACAD_REACTORS
330
867
102
}
330
867
100
AcDbXrecord
280
     1
102
RTVSPropertyOp0
 70
     1
102
RTVSPropertyOp1
 70
     1
102
RTVSPropertyOp2
 70
     1
102
RTVSPropertyOp3
 70
     1
102
RTVSPropertyOp4
 70
     1
102
RTVSPropertyOp5
 70
     1
102
RTVSPropertyOp6
 70
     1
102
RTVSPropertyOp7
 70
     1
102
RTVSPropertyOp8
 70
     1
102
RTVSPropertyOp9
 70
     1
102
RTVSPropertyOp10
 70
     1
102
RTVSPropertyOp11
 70
     1
102
RTVSPropertyOp12
 70
     1
102
RTVSPropertyOp13
 70
     1
102
RTVSPropertyOp14
 70
     1
102
RTVSPropertyOp15
 70
     1
102
RTVSPropertyOp16
 70
     1
102
RTVSPropertyOp17
 70
     1
102
RTVSPropertyOp18
 70
     1
102
RTVSPropertyOp19
 70
     1
102
RTVSPropertyOp20
 70
     1
102
RTVSPropertyOp21
 70
     1
102
RTVSPropertyOp22
 70
     1
102
RTVSPropertyOp23
 70
     1
102
RTVSPropertyOp24
 70
     1
102
RTVSPropertyOp25
 70
     1
102
RTVSPropertyOp26
 70
     1
102
RTVSPropertyOp27
 70
     1
102
RTVSPropertyOp28
 70
     1
102
RTVSPropertyOp29
 70
     1
102
RTVSPropertyOp30
 70
     1
102
RTVSPropertyOp31
 70
     1
102
RTVSPropertyOp32
 70
     1
  0
XRECORD
  5
876
102
{ACAD_REACTORS
330
875
102
}
330
875
100
AcDbXrecord
280
     1
102
RTVSPropertyOp0
 70
     1
102
RTVSPropertyOp1
 70
     1
102
RTVSPropertyOp2
 70
     1
102
RTVSPropertyOp3
 70
     1
102
RTVSPropertyOp4
 70
     1
102
RTVSPropertyOp5
 70
     1
102
RTVSPropertyOp6
 70
     1
102
RTVSPropertyOp7
 70
     1
102
RTVSPropertyOp8
 70
     1
102
RTVSPropertyOp9
 70
     1
102
RTVSPropertyOp10
 70
     1
102
RTVSPropertyOp11
 70
     1
102
RTVSPropertyOp12
 70
     1
102
RTVSPropertyOp13
 70
     1
102
RTVSPropertyOp14
 70
     1
102
RTVSPropertyOp15
 70
     1
102
RTVSPropertyOp16
 70
     1
102
RTVSPropertyOp17
 70
     1
102
RTVSPropertyOp18
 70
     1
102
RTVSPropertyOp19
 70
     1
102
RTVSPropertyOp20
 70
     1
102
RTVSPropertyOp21
 70
     1
102
RTVSPropertyOp22
 70
     1
102
RTVSPropertyOp23
 70
     1
102
RTVSPropertyOp24
 70
     1
102
RTVSPropertyOp25
 70
     1
102
RTVSPropertyOp26
 70
     1
102
RTVSPropertyOp27
 70
     1
102
RTVSPropertyOp28
 70
     1
102
RTVSPropertyOp29
 70
     1
102
RTVSPropertyOp30
 70
     1
102
RTVSPropertyOp31
 70
     1
102
RTVSPropertyOp32
 70
     1
  0
XRECORD
  5
87E
102
{ACAD_REACTORS
330
87D
102
}
330
87D
100
AcDbXrecord
280
     1
102
RTVSPropertyOp0
 70
     1
102
RTVSPropertyOp1
 70
     1
102
RTVSPropertyOp2
 70
     1
102
RTVSPropertyOp3
 70
     1
102
RTVSPropertyOp4
 70
     1
102
RTVSPropertyOp5
 70
     1
102
RTVSPropertyOp6
 70
     1
102
RTVSPropertyOp7
 70
     1
102
RTVSPropertyOp8
 70
     1
102
RTVSPropertyOp9
 70
     1
102
RTVSPropertyOp10
 70
     1
102
RTVSPropertyOp11
 70
     1
102
RTVSPropertyOp12
 70
     1
102
RTVSPropertyOp13
 70
     1
102
RTVSPropertyOp14
 70
     1
102
RTVSPropertyOp15
 70
     1
102
RTVSPropertyOp16
 70
     1
102
RTVSPropertyOp17
 70
     1
102
RTVSPropertyOp18
 70
     1
102
RTVSPropertyOp19
 70
     1
102
RTVSPropertyOp20
 70
     1
102
RTVSPropertyOp21
 70
     1
102
RTVSPropertyOp22
 70
     1
102
RTVSPropertyOp23
 70
     1
102
RTVSPropertyOp24
 70
     1
102
RTVSPropertyOp25
 70
     1
102
RTVSPropertyOp26
 70
     1
102
RTVSPropertyOp27
 70
     1
102
RTVSPropertyOp28
 70
     1
102
RTVSPropertyOp29
 70
     1
102
RTVSPropertyOp30
 70
     1
102
RTVSPropertyOp31
 70
     1
102
RTVSPropertyOp32
 70
     1
  0
XRECORD
  5
870
102
{ACAD_REACTORS
330
86F
102
}
330
86F
100
AcDbXrecord
280
     1
102
RTVSPropertyOp0
 70
     1
102
RTVSPropertyOp1
 70
     1
102
RTVSPropertyOp2
 70
     1
102
RTVSPropertyOp3
 70
     1
102
RTVSPropertyOp4
 70
     1
102
RTVSPropertyOp5
 70
     1
102
RTVSPropertyOp6
 70
     1
102
RTVSPropertyOp7
 70
     1
102
RTVSPropertyOp8
 70
     1
102
RTVSPropertyOp9
 70
     1
102
RTVSPropertyOp10
 70
     1
102
RTVSPropertyOp11
 70
     1
102
RTVSPropertyOp12
 70
     1
102
RTVSPropertyOp13
 70
     1
102
RTVSPropertyOp14
 70
     1
102
RTVSPropertyOp15
 70
     1
102
RTVSPropertyOp16
 70
     1
102
RTVSPropertyOp17
 70
     1
102
RTVSPropertyOp18
 70
     1
102
RTVSPropertyOp19
 70
     1
102
RTVSPropertyOp20
 70
     1
102
RTVSPropertyOp21
 70
     1
102
RTVSPropertyOp22
 70
     1
102
RTVSPropertyOp23
 70
     1
102
RTVSPropertyOp24
 70
     1
102
RTVSPropertyOp25
 70
     1
102
RTVSPropertyOp26
 70
     1
102
RTVSPropertyOp27
 70
     1
102
RTVSPropertyOp28
 70
     1
102
RTVSPropertyOp29
 70
     1
102
RTVSPropertyOp30
 70
     1
102
RTVSPropertyOp31
 70
     1
102
RTVSPropertyOp32
 70
     1
  0
XRECORD
  5
874
102
{ACAD_REACTORS
330
873
102
}
330
873
100
AcDbXrecord
280
     1
102
RTVSPropertyOp0
 70
     1
102
RTVSPropertyOp1
 70
     1
102
RTVSPropertyOp2
 70
     1
102
RTVSPropertyOp3
 70
     1
102
RTVSPropertyOp4
 70
     1
102
RTVSPropertyOp5
 70
     1
102
RTVSPropertyOp6
 70
     1
102
RTVSPropertyOp7
 70
     1
102
RTVSPropertyOp8
 70
     1
102
RTVSPropertyOp9
 70
     1
102
RTVSPropertyOp10
 70
     1
102
RTVSPropertyOp11
 70
     1
102
RTVSPropertyOp12
 70
     1
102
RTVSPropertyOp13
 70
     1
102
RTVSPropertyOp14
 70
     1
102
RTVSPropertyOp15
 70
     1
102
RTVSPropertyOp16
 70
     1
102
RTVSPropertyOp17
 70
     1
102
RTVSPropertyOp18
 70
     1
102
RTVSPropertyOp19
 70
     1
102
RTVSPropertyOp20
 70
     1
102
RTVSPropertyOp21
 70
     1
102
RTVSPropertyOp22
 70
     1
102
RTVSPropertyOp23
 70
     1
102
RTVSPropertyOp24
 70
     1
102
RTVSPropertyOp25
 70
     1
102
RTVSPropertyOp26
 70
     1
102
RTVSPropertyOp27
 70
     1
102
RTVSPropertyOp28
 70
     1
102
RTVSPropertyOp29
 70
     1
102
RTVSPropertyOp30
 70
     1
102
RTVSPropertyOp31
 70
     1
102
RTVSPropertyOp32
 70
     1
  0
XRECORD
  5
88E
102
{ACAD_REACTORS
330
88D
102
}
330
88D
100
AcDbXrecord
280
     1
102
RTVSPropertyOp0
 70
     0
102
RTVSPropertyOp1
 70
     0
102
RTVSPropertyOp2
 70
     0
102
RTVSPropertyOp3
 70
     0
102
RTVSPropertyOp4
 70
     0
102
RTVSPropertyOp5
 70
     0
102
RTVSPropertyOp6
 70
     0
102
RTVSPropertyOp7
 70
     0
102
RTVSPropertyOp8
 70
     0
102
RTVSPropertyOp9
 70
     0
102
RTVSPropertyOp10
 70
     0
102
RTVSPropertyOp11
 70
     0
102
RTVSPropertyOp12
 70
     0
102
RTVSPropertyOp13
 70
     0
102
RTVSPropertyOp14
 70
     2
102
RTVSPropertyOp15
 70
     0
102
RTVSPropertyOp16
 70
     0
102
RTVSPropertyOp17
 70
     0
102
RTVSPropertyOp18
 70
     0
102
RTVSPropertyOp19
 70
     0
102
RTVSPropertyOp20
 70
     0
102
RTVSPropertyOp21
 70
     0
102
RTVSPropertyOp22
 70
     0
102
RTVSPropertyOp23
 70
     0
102
RTVSPropertyOp24
 70
     0
102
RTVSPropertyOp25
 70
     0
102
RTVSPropertyOp26
 70
     0
102
RTVSPropertyOp27
 70
     0
102
RTVSPropertyOp28
 70
     0
102
RTVSPropertyOp29
 70
     0
102
RTVSPropertyOp30
 70
     0
102
RTVSPropertyOp31
 70
     0
102
RTVSPropertyOp32
 70
     0
  0
XRECORD
  5
87C
102
{ACAD_REACTORS
330
87B
102
}
330
87B
100
AcDbXrecord
280
     1
102
RTVSPropertyOp0
 70
     1
102
RTVSPropertyOp1
 70
     1
102
RTVSPropertyOp2
 70
     1
102
RTVSPropertyOp3
 70
     1
102
RTVSPropertyOp4
 70
     1
102
RTVSPropertyOp5
 70
     1
102
RTVSPropertyOp6
 70
     1
102
RTVSPropertyOp7
 70
     1
102
RTVSPropertyOp8
 70
     1
102
RTVSPropertyOp9
 70
     1
102
RTVSPropertyOp10
 70
     1
102
RTVSPropertyOp11
 70
     1
102
RTVSPropertyOp12
 70
     1
102
RTVSPropertyOp13
 70
     1
102
RTVSPropertyOp14
 70
     1
102
RTVSPropertyOp15
 70
     1
102
RTVSPropertyOp16
 70
     1
102
RTVSPropertyOp17
 70
     1
102
RTVSPropertyOp18
 70
     1
102
RTVSPropertyOp19
 70
     1
102
RTVSPropertyOp20
 70
     1
102
RTVSPropertyOp21
 70
     1
102
RTVSPropertyOp22
 70
     1
102
RTVSPropertyOp23
 70
     1
102
RTVSPropertyOp24
 70
     1
102
RTVSPropertyOp25
 70
     1
102
RTVSPropertyOp26
 70
     1
102
RTVSPropertyOp27
 70
     1
102
RTVSPropertyOp28
 70
     1
102
RTVSPropertyOp29
 70
     1
102
RTVSPropertyOp30
 70
     1
102
RTVSPropertyOp31
 70
     1
102
RTVSPropertyOp32
 70
     1
  0
XRECORD
  5
860
102
{ACAD_REACTORS
330
85F
102
}
330
85F
100
AcDbXrecord
280
     1
102
RTVSPropertyOp0
 70
     1
102
RTVSPropertyOp1
 70
     1
102
RTVSPropertyOp2
 70
     1
102
RTVSPropertyOp3
 70
     1
102
RTVSPropertyOp4
 70
     1
102
RTVSPropertyOp5
 70
     1
102
RTVSPropertyOp6
 70
     1
102
RTVSPropertyOp7
 70
     1
102
RTVSPropertyOp8
 70
     1
102
RTVSPropertyOp9
 70
     1
102
RTVSPropertyOp10
 70
     1
102
RTVSPropertyOp11
 70
     1
102
RTVSPropertyOp12
 70
     1
102
RTVSPropertyOp13
 70
     1
102
RTVSPropertyOp14
 70
     1
102
RTVSPropertyOp15
 70
     1
102
RTVSPropertyOp16
 70
     1
102
RTVSPropertyOp17
 70
     1
102
RTVSPropertyOp18
 70
     1
102
RTVSPropertyOp19
 70
     1
102
RTVSPropertyOp20
 70
     1
102
RTVSPropertyOp21
 70
     1
102
RTVSPropertyOp22
 70
     1
102
RTVSPropertyOp23
 70
     1
102
RTVSPropertyOp24
 70
     1
102
RTVSPropertyOp25
 70
     1
102
RTVSPropertyOp26
 70
     1
102
RTVSPropertyOp27
 70
     1
102
RTVSPropertyOp28
 70
     1
102
RTVSPropertyOp29
 70
     1
102
RTVSPropertyOp30
 70
     1
102
RTVSPropertyOp31
 70
     1
102
RTVSPropertyOp32
 70
     1
  0
XRECORD
  5
862
102
{ACAD_REACTORS
330
861
102
}
330
861
100
AcDbXrecord
280
     1
102
RTVSPropertyOp0
 70
     1
102
RTVSPropertyOp1
 70
     1
102
RTVSPropertyOp2
 70
     1
102
RTVSPropertyOp3
 70
     1
102
RTVSPropertyOp4
 70
     1
102
RTVSPropertyOp5
 70
     1
102
RTVSPropertyOp6
 70
     1
102
RTVSPropertyOp7
 70
     1
102
RTVSPropertyOp8
 70
     1
102
RTVSPropertyOp9
 70
     1
102
RTVSPropertyOp10
 70
     1
102
RTVSPropertyOp11
 70
     1
102
RTVSPropertyOp12
 70
     1
102
RTVSPropertyOp13
 70
     1
102
RTVSPropertyOp14
 70
     1
102
RTVSPropertyOp15
 70
     1
102
RTVSPropertyOp16
 70
     1
102
RTVSPropertyOp17
 70
     1
102
RTVSPropertyOp18
 70
     1
102
RTVSPropertyOp19
 70
     1
102
RTVSPropertyOp20
 70
     1
102
RTVSPropertyOp21
 70
     1
102
RTVSPropertyOp22
 70
     1
102
RTVSPropertyOp23
 70
     1
102
RTVSPropertyOp24
 70
     1
102
RTVSPropertyOp25
 70
     1
102
RTVSPropertyOp26
 70
     1
102
RTVSPropertyOp27
 70
     1
102
RTVSPropertyOp28
 70
     1
102
RTVSPropertyOp29
 70
     1
102
RTVSPropertyOp30
 70
     1
102
RTVSPropertyOp31
 70
     1
102
RTVSPropertyOp32
 70
     1
  0
XRECORD
  5
864
102
{ACAD_REACTORS
330
863
102
}
330
863
100
AcDbXrecord
280
     1
102
RTVSPropertyOp0
 70
     1
102
RTVSPropertyOp1
 70
     1
102
RTVSPropertyOp2
 70
     1
102
RTVSPropertyOp3
 70
     1
102
RTVSPropertyOp4
 70
     1
102
RTVSPropertyOp5
 70
     1
102
RTVSPropertyOp6
 70
     1
102
RTVSPropertyOp7
 70
     1
102
RTVSPropertyOp8
 70
     1
102
RTVSPropertyOp9
 70
     1
102
RTVSPropertyOp10
 70
     1
102
RTVSPropertyOp11
 70
     1
102
RTVSPropertyOp12
 70
     1
102
RTVSPropertyOp13
 70
     1
102
RTVSPropertyOp14
 70
     1
102
RTVSPropertyOp15
 70
     1
102
RTVSPropertyOp16
 70
     1
102
RTVSPropertyOp17
 70
     1
102
RTVSPropertyOp18
 70
     1
102
RTVSPropertyOp19
 70
     1
102
RTVSPropertyOp20
 70
     1
102
RTVSPropertyOp21
 70
     1
102
RTVSPropertyOp22
 70
     1
102
RTVSPropertyOp23
 70
     1
102
RTVSPropertyOp24
 70
     1
102
RTVSPropertyOp25
 70
     1
102
RTVSPropertyOp26
 70
     1
102
RTVSPropertyOp27
 70
     1
102
RTVSPropertyOp28
 70
     1
102
RTVSPropertyOp29
 70
     1
102
RTVSPropertyOp30
 70
     1
102
RTVSPropertyOp31
 70
     1
102
RTVSPropertyOp32
 70
     1
  0
XRECORD
  5
866
102
{ACAD_REACTORS
330
865
102
}
330
865
100
AcDbXrecord
280
     1
102
RTVSPropertyOp0
 70
     1
102
RTVSPropertyOp1
 70
     1
102
RTVSPropertyOp2
 70
     1
102
RTVSPropertyOp3
 70
     1
102
RTVSPropertyOp4
 70
     1
102
RTVSPropertyOp5
 70
     1
102
RTVSPropertyOp6
 70
     1
102
RTVSPropertyOp7
 70
     1
102
RTVSPropertyOp8
 70
     1
102
RTVSPropertyOp9
 70
     1
102
RTVSPropertyOp10
 70
     1
102
RTVSPropertyOp11
 70
     1
102
RTVSPropertyOp12
 70
     1
102
RTVSPropertyOp13
 70
     1
102
RTVSPropertyOp14
 70
     1
102
RTVSPropertyOp15
 70
     1
102
RTVSPropertyOp16
 70
     1
102
RTVSPropertyOp17
 70
     1
102
RTVSPropertyOp18
 70
     1
102
RTVSPropertyOp19
 70
     1
102
RTVSPropertyOp20
 70
     1
102
RTVSPropertyOp21
 70
     1
102
RTVSPropertyOp22
 70
     1
102
RTVSPropertyOp23
 70
     1
102
RTVSPropertyOp24
 70
     1
102
RTVSPropertyOp25
 70
     1
102
RTVSPropertyOp26
 70
     1
102
RTVSPropertyOp27
 70
     1
102
RTVSPropertyOp28
 70
     1
102
RTVSPropertyOp29
 70
     1
102
RTVSPropertyOp30
 70
     1
102
RTVSPropertyOp31
 70
     1
102
RTVSPropertyOp32
 70
     1
  0
XRECORD
  5
86E
102
{ACAD_REACTORS
330
86D
102
}
330
86D
100
AcDbXrecord
280
     1
102
RTVSPropertyOp0
 70
     1
102
RTVSPropertyOp1
 70
     1
102
RTVSPropertyOp2
 70
     1
102
RTVSPropertyOp3
 70
     1
102
RTVSPropertyOp4
 70
     1
102
RTVSPropertyOp5
 70
     1
102
RTVSPropertyOp6
 70
     1
102
RTVSPropertyOp7
 70
     1
102
RTVSPropertyOp8
 70
     1
102
RTVSPropertyOp9
 70
     1
102
RTVSPropertyOp10
 70
     1
102
RTVSPropertyOp11
 70
     1
102
RTVSPropertyOp12
 70
     1
102
RTVSPropertyOp13
 70
     1
102
RTVSPropertyOp14
 70
     1
102
RTVSPropertyOp15
 70
     1
102
RTVSPropertyOp16
 70
     1
102
RTVSPropertyOp17
 70
     1
102
RTVSPropertyOp18
 70
     1
102
RTVSPropertyOp19
 70
     1
102
RTVSPropertyOp20
 70
     1
102
RTVSPropertyOp21
 70
     1
102
RTVSPropertyOp22
 70
     1
102
RTVSPropertyOp23
 70
     1
102
RTVSPropertyOp24
 70
     1
102
RTVSPropertyOp25
 70
     1
102
RTVSPropertyOp26
 70
     1
102
RTVSPropertyOp27
 70
     1
102
RTVSPropertyOp28
 70
     1
102
RTVSPropertyOp29
 70
     1
102
RTVSPropertyOp30
 70
     1
102
RTVSPropertyOp31
 70
     1
102
RTVSPropertyOp32
 70
     1
  0
XRECORD
  5
88A
102
{ACAD_REACTORS
330
889
102
}
330
889
100
AcDbXrecord
280
     1
102
RTVSPropertyOp0
 70
     0
102
RTVSPropertyOp1
 70
     0
102
RTVSPropertyOp2
 70
     0
102
RTVSPropertyOp3
 70
     0
102
RTVSPropertyOp4
 70
     0
102
RTVSPropertyOp5
 70
     0
102
RTVSPropertyOp6
 70
     0
102
RTVSPropertyOp7
 70
     0
102
RTVSPropertyOp8
 70
     0
102
RTVSPropertyOp9
 70
     0
102
RTVSPropertyOp10
 70
     0
102
RTVSPropertyOp11
 70
     0
102
RTVSPropertyOp12
 70
     0
102
RTVSPropertyOp13
 70
     0
102
RTVSPropertyOp14
 70
     2
102
RTVSPropertyOp15
 70
     0
102
RTVSPropertyOp16
 70
     0
102
RTVSPropertyOp17
 70
     0
102
RTVSPropertyOp18
 70
     0
102
RTVSPropertyOp19
 70
     0
102
RTVSPropertyOp20
 70
     0
102
RTVSPropertyOp21
 70
     0
102
RTVSPropertyOp22
 70
     0
102
RTVSPropertyOp23
 70
     0
102
RTVSPropertyOp24
 70
     0
102
RTVSPropertyOp25
 70
     0
102
RTVSPropertyOp26
 70
     0
102
RTVSPropertyOp27
 70
     0
102
RTVSPropertyOp28
 70
     0
102
RTVSPropertyOp29
 70
     0
102
RTVSPropertyOp30
 70
     0
102
RTVSPropertyOp31
 70
     0
102
RTVSPropertyOp32
 70
     0
  0
XRECORD
  5
87A
102
{ACAD_REACTORS
330
879
102
}
330
879
100
AcDbXrecord
280
     1
102
RTVSPropertyOp0
 70
     1
102
RTVSPropertyOp1
 70
     1
102
RTVSPropertyOp2
 70
     1
102
RTVSPropertyOp3
 70
     1
102
RTVSPropertyOp4
 70
     1
102
RTVSPropertyOp5
 70
     1
102
RTVSPropertyOp6
 70
     1
102
RTVSPropertyOp7
 70
     1
102
RTVSPropertyOp8
 70
     1
102
RTVSPropertyOp9
 70
     1
102
RTVSPropertyOp10
 70
     1
102
RTVSPropertyOp11
 70
     1
102
RTVSPropertyOp12
 70
     1
102
RTVSPropertyOp13
 70
     1
102
RTVSPropertyOp14
 70
     1
102
RTVSPropertyOp15
 70
     1
102
RTVSPropertyOp16
 70
     1
102
RTVSPropertyOp17
 70
     1
102
RTVSPropertyOp18
 70
     1
102
RTVSPropertyOp19
 70
     1
102
RTVSPropertyOp20
 70
     1
102
RTVSPropertyOp21
 70
     1
102
RTVSPropertyOp22
 70
     1
102
RTVSPropertyOp23
 70
     1
102
RTVSPropertyOp24
 70
     1
102
RTVSPropertyOp25
 70
     1
102
RTVSPropertyOp26
 70
     1
102
RTVSPropertyOp27
 70
     1
102
RTVSPropertyOp28
 70
     1
102
RTVSPropertyOp29
 70
     1
102
RTVSPropertyOp30
 70
     1
102
RTVSPropertyOp31
 70
     1
102
RTVSPropertyOp32
 70
     1
  0
XRECORD
  5
88C
102
{ACAD_REACTORS
330
88B
102
}
330
88B
100
AcDbXrecord
280
     1
102
RTVSPropertyOp0
 70
     0
102
RTVSPropertyOp1
 70
     0
102
RTVSPropertyOp2
 70
     0
102
RTVSPropertyOp3
 70
     0
102
RTVSPropertyOp4
 70
     0
102
RTVSPropertyOp5
 70
     0
102
RTVSPropertyOp6
 70
     0
102
RTVSPropertyOp7
 70
     0
102
RTVSPropertyOp8
 70
     0
102
RTVSPropertyOp9
 70
     0
102
RTVSPropertyOp10
 70
     0
102
RTVSPropertyOp11
 70
     0
102
RTVSPropertyOp12
 70
     0
102
RTVSPropertyOp13
 70
     0
102
RTVSPropertyOp14
 70
     2
102
RTVSPropertyOp15
 70
     0
102
RTVSPropertyOp16
 70
     0
102
RTVSPropertyOp17
 70
     0
102
RTVSPropertyOp18
 70
     0
102
RTVSPropertyOp19
 70
     0
102
RTVSPropertyOp20
 70
     0
102
RTVSPropertyOp21
 70
     0
102
RTVSPropertyOp22
 70
     0
102
RTVSPropertyOp23
 70
     0
102
RTVSPropertyOp24
 70
     0
102
RTVSPropertyOp25
 70
     0
102
RTVSPropertyOp26
 70
     0
102
RTVSPropertyOp27
 70
     0
102
RTVSPropertyOp28
 70
     0
102
RTVSPropertyOp29
 70
     0
102
RTVSPropertyOp30
 70
     0
102
RTVSPropertyOp31
 70
     0
102
RTVSPropertyOp32
 70
     0
  0
XRECORD
  5
872
102
{ACAD_REACTORS
330
871
102
}
330
871
100
AcDbXrecord
280
     1
102
RTVSPropertyOp0
 70
     1
102
RTVSPropertyOp1
 70
     1
102
RTVSPropertyOp2
 70
     1
102
RTVSPropertyOp3
 70
     1
102
RTVSPropertyOp4
 70
     1
102
RTVSPropertyOp5
 70
     1
102
RTVSPropertyOp6
 70
     1
102
RTVSPropertyOp7
 70
     1
102
RTVSPropertyOp8
 70
     1
102
RTVSPropertyOp9
 70
     1
102
RTVSPropertyOp10
 70
     1
102
RTVSPropertyOp11
 70
     1
102
RTVSPropertyOp12
 70
     1
102
RTVSPropertyOp13
 70
     1
102
RTVSPropertyOp14
 70
     1
102
RTVSPropertyOp15
 70
     1
102
RTVSPropertyOp16
 70
     1
102
RTVSPropertyOp17
 70
     1
102
RTVSPropertyOp18
 70
     1
102
RTVSPropertyOp19
 70
     1
102
RTVSPropertyOp20
 70
     1
102
RTVSPropertyOp21
 70
     1
102
RTVSPropertyOp22
 70
     1
102
RTVSPropertyOp23
 70
     1
102
RTVSPropertyOp24
 70
     1
102
RTVSPropertyOp25
 70
     1
102
RTVSPropertyOp26
 70
     1
102
RTVSPropertyOp27
 70
     1
102
RTVSPropertyOp28
 70
     1
102
RTVSPropertyOp29
 70
     1
102
RTVSPropertyOp30
 70
     1
102
RTVSPropertyOp31
 70
     1
102
RTVSPropertyOp32
 70
     1
  0
XRECORD
  5
888
102
{ACAD_REACTORS
330
887
102
}
330
887
100
AcDbXrecord
280
     1
102
RTVSPropertyOp0
 70
     1
102
RTVSPropertyOp1
 70
     1
102
RTVSPropertyOp2
 70
     1
102
RTVSPropertyOp3
 70
     1
102
RTVSPropertyOp4
 70
     1
102
RTVSPropertyOp5
 70
     1
102
RTVSPropertyOp6
 70
     1
102
RTVSPropertyOp7
 70
     1
102
RTVSPropertyOp8
 70
     1
102
RTVSPropertyOp9
 70
     1
102
RTVSPropertyOp10
 70
     1
102
RTVSPropertyOp11
 70
     1
102
RTVSPropertyOp12
 70
     1
102
RTVSPropertyOp13
 70
     1
102
RTVSPropertyOp14
 70
     1
102
RTVSPropertyOp15
 70
     1
102
RTVSPropertyOp16
 70
     1
102
RTVSPropertyOp17
 70
     1
102
RTVSPropertyOp18
 70
     1
102
RTVSPropertyOp19
 70
     1
102
RTVSPropertyOp20
 70
     1
102
RTVSPropertyOp21
 70
     1
102
RTVSPropertyOp22
 70
     1
102
RTVSPropertyOp23
 70
     1
102
RTVSPropertyOp24
 70
     1
102
RTVSPropertyOp25
 70
     1
102
RTVSPropertyOp26
 70
     1
102
RTVSPropertyOp27
 70
     1
102
RTVSPropertyOp28
 70
     1
102
RTVSPropertyOp29
 70
     1
102
RTVSPropertyOp30
 70
     1
102
RTVSPropertyOp31
 70
     1
102
RTVSPropertyOp32
 70
     1
  0
XRECORD
  5
886
102
{ACAD_REACTORS
330
885
102
}
330
885
100
AcDbXrecord
280
     1
102
RTVSPropertyOp0
 70
     1
102
RTVSPropertyOp1
 70
     1
102
RTVSPropertyOp2
 70
     1
102
RTVSPropertyOp3
 70
     1
102
RTVSPropertyOp4
 70
     1
102
RTVSPropertyOp5
 70
     1
102
RTVSPropertyOp6
 70
     1
102
RTVSPropertyOp7
 70
     1
102
RTVSPropertyOp8
 70
     1
102
RTVSPropertyOp9
 70
     1
102
RTVSPropertyOp10
 70
     1
102
RTVSPropertyOp11
 70
     1
102
RTVSPropertyOp12
 70
     1
102
RTVSPropertyOp13
 70
     1
102
RTVSPropertyOp14
 70
     1
102
RTVSPropertyOp15
 70
     1
102
RTVSPropertyOp16
 70
     1
102
RTVSPropertyOp17
 70
     1
102
RTVSPropertyOp18
 70
     1
102
RTVSPropertyOp19
 70
     1
102
RTVSPropertyOp20
 70
     1
102
RTVSPropertyOp21
 70
     1
102
RTVSPropertyOp22
 70
     1
102
RTVSPropertyOp23
 70
     1
102
RTVSPropertyOp24
 70
     1
102
RTVSPropertyOp25
 70
     1
102
RTVSPropertyOp26
 70
     1
102
RTVSPropertyOp27
 70
     1
102
RTVSPropertyOp28
 70
     1
102
RTVSPropertyOp29
 70
     1
102
RTVSPropertyOp30
 70
     1
102
RTVSPropertyOp31
 70
     1
102
RTVSPropertyOp32
 70
     1
  0
XRECORD
  5
880
102
{ACAD_REACTORS
330
87F
102
}
330
87F
100
AcDbXrecord
280
     1
102
RTVSPropertyOp0
 70
     1
102
RTVSPropertyOp1
 70
     1
102
RTVSPropertyOp2
 70
     1
102
RTVSPropertyOp3
 70
     1
102
RTVSPropertyOp4
 70
     1
102
RTVSPropertyOp5
 70
     1
102
RTVSPropertyOp6
 70
     1
102
RTVSPropertyOp7
 70
     1
102
RTVSPropertyOp8
 70
     1
102
RTVSPropertyOp9
 70
     1
102
RTVSPropertyOp10
 70
     1
102
RTVSPropertyOp11
 70
     1
102
RTVSPropertyOp12
 70
     1
102
RTVSPropertyOp13
 70
     1
102
RTVSPropertyOp14
 70
     1
102
RTVSPropertyOp15
 70
     1
102
RTVSPropertyOp16
 70
     1
102
RTVSPropertyOp17
 70
     1
102
RTVSPropertyOp18
 70
     1
102
RTVSPropertyOp19
 70
     1
102
RTVSPropertyOp20
 70
     1
102
RTVSPropertyOp21
 70
     1
102
RTVSPropertyOp22
 70
     1
102
RTVSPropertyOp23
 70
     1
102
RTVSPropertyOp24
 70
     1
102
RTVSPropertyOp25
 70
     1
102
RTVSPropertyOp26
 70
     1
102
RTVSPropertyOp27
 70
     1
102
RTVSPropertyOp28
 70
     1
102
RTVSPropertyOp29
 70
     1
102
RTVSPropertyOp30
 70
     1
102
RTVSPropertyOp31
 70
     1
102
RTVSPropertyOp32
 70
     1
  0
XRECORD
  5
882
102
{ACAD_REACTORS
330
881
102
}
330
881
100
AcDbXrecord
280
     1
102
RTVSPropertyOp0
 70
     1
102
RTVSPropertyOp1
 70
     1
102
RTVSPropertyOp2
 70
     1
102
RTVSPropertyOp3
 70
     1
102
RTVSPropertyOp4
 70
     1
102
RTVSPropertyOp5
 70
     1
102
RTVSPropertyOp6
 70
     1
102
RTVSPropertyOp7
 70
     1
102
RTVSPropertyOp8
 70
     1
102
RTVSPropertyOp9
 70
     1
102
RTVSPropertyOp10
 70
     1
102
RTVSPropertyOp11
 70
     1
102
RTVSPropertyOp12
 70
     1
102
RTVSPropertyOp13
 70
     1
102
RTVSPropertyOp14
 70
     1
102
RTVSPropertyOp15
 70
     1
102
RTVSPropertyOp16
 70
     1
102
RTVSPropertyOp17
 70
     1
102
RTVSPropertyOp18
 70
     1
102
RTVSPropertyOp19
 70
     1
102
RTVSPropertyOp20
 70
     1
102
RTVSPropertyOp21
 70
     1
102
RTVSPropertyOp22
 70
     1
102
RTVSPropertyOp23
 70
     1
102
RTVSPropertyOp24
 70
     1
102
RTVSPropertyOp25
 70
     1
102
RTVSPropertyOp26
 70
     1
102
RTVSPropertyOp27
 70
     1
102
RTVSPropertyOp28
 70
     1
102
RTVSPropertyOp29
 70
     1
102
RTVSPropertyOp30
 70
     1
102
RTVSPropertyOp31
 70
     1
102
RTVSPropertyOp32
 70
     1
  0
XRECORD
  5
878
102
{ACAD_REACTORS
330
877
102
}
330
877
100
AcDbXrecord
280
     1
102
RTVSPropertyOp0
 70
     1
102
RTVSPropertyOp1
 70
     1
102
RTVSPropertyOp2
 70
     1
102
RTVSPropertyOp3
 70
     1
102
RTVSPropertyOp4
 70
     1
102
RTVSPropertyOp5
 70
     1
102
RTVSPropertyOp6
 70
     1
102
RTVSPropertyOp7
 70
     1
102
RTVSPropertyOp8
 70
     1
102
RTVSPropertyOp9
 70
     1
102
RTVSPropertyOp10
 70
     1
102
RTVSPropertyOp11
 70
     1
102
RTVSPropertyOp12
 70
     1
102
RTVSPropertyOp13
 70
     1
102
RTVSPropertyOp14
 70
     1
102
RTVSPropertyOp15
 70
     1
102
RTVSPropertyOp16
 70
     1
102
RTVSPropertyOp17
 70
     1
102
RTVSPropertyOp18
 70
     1
102
RTVSPropertyOp19
 70
     1
102
RTVSPropertyOp20
 70
     1
102
RTVSPropertyOp21
 70
     1
102
RTVSPropertyOp22
 70
     1
102
RTVSPropertyOp23
 70
     1
102
RTVSPropertyOp24
 70
     1
102
RTVSPropertyOp25
 70
     1
102
RTVSPropertyOp26
 70
     1
102
RTVSPropertyOp27
 70
     1
102
RTVSPropertyOp28
 70
     1
102
RTVSPropertyOp29
 70
     1
102
RTVSPropertyOp30
 70
     1
102
RTVSPropertyOp31
 70
     1
102
RTVSPropertyOp32
 70
     1
  0
XRECORD
  5
86C
102
{ACAD_REACTORS
330
86B
102
}
330
86B
100
AcDbXrecord
280
     1
102
RTVSPropertyOp0
 70
     1
102
RTVSPropertyOp1
 70
     1
102
RTVSPropertyOp2
 70
     1
102
RTVSPropertyOp3
 70
     1
102
RTVSPropertyOp4
 70
     1
102
RTVSPropertyOp5
 70
     1
102
RTVSPropertyOp6
 70
     1
102
RTVSPropertyOp7
 70
     1
102
RTVSPropertyOp8
 70
     1
102
RTVSPropertyOp9
 70
     1
102
RTVSPropertyOp10
 70
     1
102
RTVSPropertyOp11
 70
     1
102
RTVSPropertyOp12
 70
     1
102
RTVSPropertyOp13
 70
     1
102
RTVSPropertyOp14
 70
     1
102
RTVSPropertyOp15
 70
     1
102
RTVSPropertyOp16
 70
     1
102
RTVSPropertyOp17
 70
     1
102
RTVSPropertyOp18
 70
     1
102
RTVSPropertyOp19
 70
     1
102
RTVSPropertyOp20
 70
     1
102
RTVSPropertyOp21
 70
     1
102
RTVSPropertyOp22
 70
     1
102
RTVSPropertyOp23
 70
     1
102
RTVSPropertyOp24
 70
     1
102
RTVSPropertyOp25
 70
     1
102
RTVSPropertyOp26
 70
     1
102
RTVSPropertyOp27
 70
     1
102
RTVSPropertyOp28
 70
     1
102
RTVSPropertyOp29
 70
     1
102
RTVSPropertyOp30
 70
     1
102
RTVSPropertyOp31
 70
     1
102
RTVSPropertyOp32
 70
     1
  0
XRECORD
  5
884
102
{ACAD_REACTORS
330
883
102
}
330
883
100
AcDbXrecord
280
     1
102
RTVSPropertyOp0
 70
     1
102
RTVSPropertyOp1
 70
     1
102
RTVSPropertyOp2
 70
     1
102
RTVSPropertyOp3
 70
     1
102
RTVSPropertyOp4
 70
     1
102
RTVSPropertyOp5
 70
     1
102
RTVSPropertyOp6
 70
     1
102
RTVSPropertyOp7
 70
     1
102
RTVSPropertyOp8
 70
     1
102
RTVSPropertyOp9
 70
     1
102
RTVSPropertyOp10
 70
     1
102
RTVSPropertyOp11
 70
     1
102
RTVSPropertyOp12
 70
     1
102
RTVSPropertyOp13
 70
     1
102
RTVSPropertyOp14
 70
     1
102
RTVSPropertyOp15
 70
     1
102
RTVSPropertyOp16
 70
     1
102
RTVSPropertyOp17
 70
     1
102
RTVSPropertyOp18
 70
     1
102
RTVSPropertyOp19
 70
     1
102
RTVSPropertyOp20
 70
     1
102
RTVSPropertyOp21
 70
     1
102
RTVSPropertyOp22
 70
     1
102
RTVSPropertyOp23
 70
     1
102
RTVSPropertyOp24
 70
     1
102
RTVSPropertyOp25
 70
     1
102
RTVSPropertyOp26
 70
     1
102
RTVSPropertyOp27
 70
     1
102
RTVSPropertyOp28
 70
     1
102
RTVSPropertyOp29
 70
     1
102
RTVSPropertyOp30
 70
     1
102
RTVSPropertyOp31
 70
     1
102
RTVSPropertyOp32
 70
     1
  0
ENDSEC
  0
EOF
