  0
SECTION
  2
HEADER
  9
$ACADVER
  1
AC1021
  9
$ACADMAINTVER
 70
    50
  9
$DWGCODEPAGE
  3
ANSI_1252
  9
$AUTHOR
  1
wit
  9
$CUSTOMPROPERTYTAG
  1
Manager
  9
$CUSTOMPROPERTY
  1

  9
$CUSTOMPROPERTYTAG
  1
Firma
  9
$CUSTOMPROPERTY
  1

  9
$CUSTOMPROPERTYTAG
  1
Kategorie
  9
$CUSTOMPROPERTY
  1

  9
$CUSTOMPROPERTYTAG
  1
Bauteilnummer
  9
$CUSTOMPROPERTY
  1
50006-51001CF
  9
$CUSTOMPROPERTYTAG
  1
Bezeichnung
  9
$CUSTOMPROPERTY
  1
ist im Modell zu bezeichnen (Iproperties/Projekt)
  9
$CUSTOMPROPERTYTAG
  1
Projekt
  9
$CUSTOMPROPERTY
  1

  9
$CUSTOMPROPERTYTAG
  1
Konstrukteur
  9
$CUSTOMPROPERTY
  1
wit
  9
$CUSTOMPROPERTYTAG
  1
Ingenieur
  9
$CUSTOMPROPERTY
  1

  9
$CUSTOMPROPERTYTAG
  1
Bevollmächtigter
  9
$CUSTOMPROPERTY
  1

  9
$CUSTOMPROPERTYTAG
  1
Kostenstelle
  9
$CUSTOMPROPERTY
  1

  9
$CUSTOMPROPERTYTAG
  1
Zulieferer
  9
$CUSTOMPROPERTY
  1

  9
$CUSTOMPROPERTYTAG
  1
Benutzerstatus
  9
$CUSTOMPROPERTY
  1

  9
$CUSTOMPROPERTYTAG
  1
Konstruktionsstatus
  9
$CUSTOMPROPERTY
  1
InBearbeitung
  9
$CUSTOMPROPERTYTAG
  1
Kontrolliert von
  9
$CUSTOMPROPERTY
  1

  9
$CUSTOMPROPERTYTAG
  1
Konstruktion genehmigt von
  9
$CUSTOMPROPERTY
  1

  9
$CUSTOMPROPERTYTAG
  1
Fertigung genehmigt von
  9
$CUSTOMPROPERTY
  1

  9
$CUSTOMPROPERTYTAG
  1
Aend_Beschreibung_1
  9
$CUSTOMPROPERTY
  1

  9
$CUSTOMPROPERTYTAG
  1
Aend_Beschreibung_2
  9
$CUSTOMPROPERTY
  1

  9
$CUSTOMPROPERTYTAG
  1
Aend_Beschreibung_3
  9
$CUSTOMPROPERTY
  1

  9
$CUSTOMPROPERTYTAG
  1
Aend_Beschreibung_4
  9
$CUSTOMPROPERTY
  1

  9
$CUSTOMPROPERTYTAG
  1
Aend_Beschreibung_5
  9
$CUSTOMPROPERTY
  1

  9
$CUSTOMPROPERTYTAG
  1
Aend_Beschreibung_6
  9
$CUSTOMPROPERTY
  1

  9
$CUSTOMPROPERTYTAG
  1
Aend_Beschreibung_7
  9
$CUSTOMPROPERTY
  1

  9
$CUSTOMPROPERTYTAG
  1
Aend_Beschreibung_8
  9
$CUSTOMPROPERTY
  1

  9
$CUSTOMPROPERTYTAG
  1
Aend_Index_1
  9
$CUSTOMPROPERTY
  1

  9
$CUSTOMPROPERTYTAG
  1
Aend_Index_2
  9
$CUSTOMPROPERTY
  1

  9
$CUSTOMPROPERTYTAG
  1
Aend_Index_3
  9
$CUSTOMPROPERTY
  1

  9
$CUSTOMPROPERTYTAG
  1
Aend_Index_4
  9
$CUSTOMPROPERTY
  1

  9
$CUSTOMPROPERTYTAG
  1
Aend_Index_5
  9
$CUSTOMPROPERTY
  1

  9
$CUSTOMPROPERTYTAG
  1
Aend_Index_6
  9
$CUSTOMPROPERTY
  1

  9
$CUSTOMPROPERTYTAG
  1
Aend_Index_7
  9
$CUSTOMPROPERTY
  1

  9
$CUSTOMPROPERTYTAG
  1
Aend_Index_8
  9
$CUSTOMPROPERTY
  1

  9
$CUSTOMPROPERTYTAG
  1
Aend_Name_1
  9
$CUSTOMPROPERTY
  1

  9
$CUSTOMPROPERTYTAG
  1
Aend_Name_2
  9
$CUSTOMPROPERTY
  1

  9
$CUSTOMPROPERTYTAG
  1
Aend_Name_3
  9
$CUSTOMPROPERTY
  1

  9
$CUSTOMPROPERTYTAG
  1
Aend_Name_4
  9
$CUSTOMPROPERTY
  1

  9
$CUSTOMPROPERTYTAG
  1
Aend_Name_5
  9
$CUSTOMPROPERTY
  1

  9
$CUSTOMPROPERTYTAG
  1
Aend_Name_6
  9
$CUSTOMPROPERTY
  1

  9
$CUSTOMPROPERTYTAG
  1
Aend_Name_7
  9
$CUSTOMPROPERTY
  1

  9
$CUSTOMPROPERTYTAG
  1
Aend_Name_8
  9
$CUSTOMPROPERTY
  1

  9
$CUSTOMPROPERTYTAG
  1
Dimension
  9
$CUSTOMPROPERTY
  1

  9
$CUSTOMPROPERTYTAG
  1
Masse
  9
$CUSTOMPROPERTY
  1

  9
$CUSTOMPROPERTYTAG
  1
Material
  9
$CUSTOMPROPERTY
  1

  9
$CUSTOMPROPERTYTAG
  1
Menge
  9
$CUSTOMPROPERTY
  1

  9
$CUSTOMPROPERTYTAG
  1
Norm
  9
$CUSTOMPROPERTY
  1

  9
$CUSTOMPROPERTYTAG
  1
Position
  9
$CUSTOMPROPERTY
  1

  9
$CUSTOMPROPERTYTAG
  1
Ersatz_fuer
  9
$CUSTOMPROPERTY
  1

  9
$CUSTOMPROPERTYTAG
  1
Esetzt_durch
  9
$CUSTOMPROPERTY
  1

  9
$CUSTOMPROPERTYTAG
  1
Massstab
  9
$CUSTOMPROPERTY
  1
1 : 2
  9
$CUSTOMPROPERTYTAG
  1
SysDate
  9
$CUSTOMPROPERTY
  1
05.06.2012
  9
$CUSTOMPROPERTYTAG
  1
SysTime
  9
$CUSTOMPROPERTY
  1
12:16
  9
$INSBASE
 10
0.0
 20
0.0
 30
0.0
  9
$EXTMIN
 10
0.0
 20
0.0
 30
0.0
  9
$EXTMAX
 10
420.0
 20
594.0
 30
0.0
  9
$LIMMIN
 10
0.0
 20
0.0
  9
$LIMMAX
 10
420.0
 20
594.0
  9
$ORTHOMODE
 70
     0
  9
$REGENMODE
 70
     1
  9
$FILLMODE
 70
     1
  9
$QTEXTMODE
 70
     0
  9
$MIRRTEXT
 70
     0
  9
$LTSCALE
 40
2.0
  9
$ATTMODE
 70
     1
  9
$TEXTSIZE
 40
0.2
  9
$TRACEWID
 40
0.05
  9
$TEXTSTYLE
  7
Standard
  9
$CLAYER
  8
0
  9
$CELTYPE
  6
ByLayer
  9
$CECOLOR
 62
   256
  9
$CELTSCALE
 40
1.0
  9
$DISPSILH
 70
     0
  9
$DIMSCALE
 40
1.0
  9
$DIMASZ
 40
1.799999999999999
  9
$DIMEXO
 40
0.0625
  9
$DIMDLI
 40
0.38
  9
$DIMRND
 40
0.0
  9
$DIMDLE
 40
0.0
  9
$DIMEXE
 40
0.18
  9
$DIMTP
 40
0.0
  9
$DIMTM
 40
0.0
  9
$DIMTXT
 40
0.3499999940395355
  9
$DIMCEN
 40
0.09
  9
$DIMTSZ
 40
0.0
  9
$DIMTOL
 70
     0
  9
$DIMLIM
 70
     0
  9
$DIMTIH
 70
     1
  9
$DIMTOH
 70
     1
  9
$DIMSE1
 70
     0
  9
$DIMSE2
 70
     0
  9
$DIMTAD
 70
     0
  9
$DIMZIN
 70
     0
  9
$DIMBLK
  1

  9
$DIMASO
 70
     1
  9
$DIMSHO
 70
     1
  9
$DIMPOST
  1

  9
$DIMAPOST
  1

  9
$DIMALT
 70
     0
  9
$DIMALTD
 70
     2
  9
$DIMALTF
 40
25.4
  9
$DIMLFAC
 40
1.0
  9
$DIMTOFL
 70
     0
  9
$DIMTVP
 40
0.0
  9
$DIMTIX
 70
     0
  9
$DIMSOXD
 70
     0
  9
$DIMSAH
 70
     0
  9
$DIMBLK1
  1

  9
$DIMBLK2
  1

  9
$DIMSTYLE
  2
Standard
  9
$DIMCLRD
 70
     0
  9
$DIMCLRE
 70
     0
  9
$DIMCLRT
 70
     0
  9
$DIMTFAC
 40
1.0
  9
$DIMGAP
 40
0.09
  9
$DIMJUST
 70
     0
  9
$DIMSD1
 70
     0
  9
$DIMSD2
 70
     0
  9
$DIMTOLJ
 70
     1
  9
$DIMTZIN
 70
     0
  9
$DIMALTZ
 70
     0
  9
$DIMALTTZ
 70
     0
  9
$DIMUPT
 70
     0
  9
$DIMDEC
 70
     4
  9
$DIMTDEC
 70
     4
  9
$DIMALTU
 70
     2
  9
$DIMALTTD
 70
     2
  9
$DIMTXSTY
  7
Standard
  9
$DIMAUNIT
 70
     0
  9
$DIMADEC
 70
     0
  9
$DIMALTRND
 40
0.0
  9
$DIMAZIN
 70
     0
  9
$DIMDSEP
 70
    46
  9
$DIMATFIT
 70
     3
  9
$DIMFRAC
 70
     0
  9
$DIMLDRBLK
  1

  9
$DIMLUNIT
 70
     2
  9
$DIMLWD
 70
    -2
  9
$DIMLWE
 70
    -2
  9
$DIMTMOVE
 70
     0
  9
$DIMFXL
 40
1.0
  9
$DIMFXLON
 70
     0
  9
$DIMJOGANG
 40
0.7853981633974483
  9
$DIMTFILL
 70
     0
  9
$DIMTFILLCLR
 70
     0
  9
$DIMARCSYM
 70
     0
  9
$DIMLTYPE
  6

  9
$DIMLTEX1
  6

  9
$DIMLTEX2
  6

  9
$LUNITS
 70
     2
  9
$LUPREC
 70
     4
  9
$SKETCHINC
 40
0.1
  9
$FILLETRAD
 40
0.0
  9
$AUNITS
 70
     0
  9
$AUPREC
 70
     0
  9
$MENU
  1
.
  9
$ELEVATION
 40
0.0
  9
$PELEVATION
 40
0.0
  9
$THICKNESS
 40
0.0
  9
$LIMCHECK
 70
     0
  9
$CHAMFERA
 40
0.0
  9
$CHAMFERB
 40
0.0
  9
$CHAMFERC
 40
0.0
  9
$CHAMFERD
 40
0.0
  9
$SKPOLY
 70
     0
  9
$TDCREATE
 40
2456090.634423032
  9
$TDUCREATE
 40
2456090.551089699
  9
$TDUPDATE
 40
2456090.634423032
  9
$TDUUPDATE
 40
2456090.551089699
  9
$TDINDWG
 40
0.0000217477
  9
$TDUSRTIMER
 40
0.0000217477
  9
$USRTIMER
 70
     1
  9
$ANGBASE
 50
0.0
  9
$ANGDIR
 70
     0
  9
$PDMODE
 70
     0
  9
$PDSIZE
 40
0.0
  9
$PLINEWID
 40
0.0
  9
$SPLFRAME
 70
     0
  9
$SPLINETYPE
 70
     6
  9
$SPLINESEGS
 70
     8
  9
$HANDSEED
  5
87D
  9
$SURFTAB1
 70
     6
  9
$SURFTAB2
 70
     6
  9
$SURFTYPE
 70
     6
  9
$SURFU
 70
     6
  9
$SURFV
 70
     6
  9
$UCSBASE
  2

  9
$UCSNAME
  2

  9
$UCSORG
 10
0.0
 20
0.0
 30
0.0
  9
$UCSXDIR
 10
1.0
 20
0.0
 30
0.0
  9
$UCSYDIR
 10
0.0
 20
1.0
 30
0.0
  9
$UCSORTHOREF
  2

  9
$UCSORTHOVIEW
 70
     0
  9
$UCSORGTOP
 10
0.0
 20
0.0
 30
0.0
  9
$UCSORGBOTTOM
 10
0.0
 20
0.0
 30
0.0
  9
$UCSORGLEFT
 10
0.0
 20
0.0
 30
0.0
  9
$UCSORGRIGHT
 10
0.0
 20
0.0
 30
0.0
  9
$UCSORGFRONT
 10
0.0
 20
0.0
 30
0.0
  9
$UCSORGBACK
 10
0.0
 20
0.0
 30
0.0
  9
$PUCSBASE
  2

  9
$PUCSNAME
  2

  9
$PUCSORG
 10
0.0
 20
0.0
 30
0.0
  9
$PUCSXDIR
 10
1.0
 20
0.0
 30
0.0
  9
$PUCSYDIR
 10
0.0
 20
1.0
 30
0.0
  9
$PUCSORTHOREF
  2

  9
$PUCSORTHOVIEW
 70
     0
  9
$PUCSORGTOP
 10
0.0
 20
0.0
 30
0.0
  9
$PUCSORGBOTTOM
 10
0.0
 20
0.0
 30
0.0
  9
$PUCSORGLEFT
 10
0.0
 20
0.0
 30
0.0
  9
$PUCSORGRIGHT
 10
0.0
 20
0.0
 30
0.0
  9
$PUCSORGFRONT
 10
0.0
 20
0.0
 30
0.0
  9
$PUCSORGBACK
 10
0.0
 20
0.0
 30
0.0
  9
$USERI1
 70
     0
  9
$USERI2
 70
     0
  9
$USERI3
 70
     0
  9
$USERI4
 70
     0
  9
$USERI5
 70
     0
  9
$USERR1
 40
0.0
  9
$USERR2
 40
0.0
  9
$USERR3
 40
0.0
  9
$USERR4
 40
0.0
  9
$USERR5
 40
0.0
  9
$WORLDVIEW
 70
     1
  9
$SHADEDGE
 70
     3
  9
$SHADEDIF
 70
    70
  9
$TILEMODE
 70
     1
  9
$MAXACTVP
 70
    64
  9
$PINSBASE
 10
0.0
 20
0.0
 30
0.0
  9
$PLIMCHECK
 70
     0
  9
$PEXTMIN
 10
0.0
 20
0.0
 30
0.0
  9
$PEXTMAX
 10
420.0
 20
594.0
 30
0.0
  9
$PLIMMIN
 10
0.0
 20
0.0
  9
$PLIMMAX
 10
420.0
 20
594.0
  9
$UNITMODE
 70
     0
  9
$VISRETAIN
 70
     1
  9
$PLINEGEN
 70
     0
  9
$PSLTSCALE
 70
     1
  9
$TREEDEPTH
 70
  3020
  9
$CMLSTYLE
  2
Standard
  9
$CMLJUST
 70
     0
  9
$CMLSCALE
 40
1.0
  9
$PROXYGRAPHICS
 70
     1
  9
$MEASUREMENT
 70
     1
  9
$CELWEIGHT
370
    -1
  9
$ENDCAPS
280
     0
  9
$JOINSTYLE
280
     0
  9
$LWDISPLAY
290
     0
  9
$INSUNITS
 70
     4
  9
$HYPERLINKBASE
  1

  9
$STYLESHEET
  1

  9
$XEDIT
290
     1
  9
$CEPSNTYPE
380
     0
  9
$PSTYLEMODE
290
     1
  9
$FINGERPRINTGUID
  2
{795457FF-E168-40C4-91C0-358ECA475DA6}
  9
$VERSIONGUID
  2
{F660707C-2AA6-41CA-9865-047E4771B39C}
  9
$EXTNAMES
290
     1
  9
$PSVPSCALE
 40
0.0
  9
$OLESTARTUP
290
     0
  9
$SORTENTS
280
   127
  9
$INDEXCTL
280
     0
  9
$HIDETEXT
280
     1
  9
$XCLIPFRAME
290
     0
  9
$HALOGAP
280
     0
  9
$OBSCOLOR
 70
   257
  9
$OBSLTYPE
280
     0
  9
$INTERSECTIONDISPLAY
280
     0
  9
$INTERSECTIONCOLOR
 70
   257
  9
$DIMASSOC
280
     1
  9
$PROJECTNAME
  1

  9
$CAMERADISPLAY
290
     0
  9
$LENSLENGTH
 40
50.0
  9
$CAMERAHEIGHT
 40
0.0
  9
$STEPSPERSEC
 40
2.0
  9
$STEPSIZE
 40
6.0
  9
$3DDWFPREC
 40
2.0
  9
$PSOLWIDTH
 40
0.25
  9
$PSOLHEIGHT
 40
4.0
  9
$LOFTANG1
 40
1.570796326794896
  9
$LOFTANG2
 40
1.570796326794896
  9
$LOFTMAG1
 40
0.0
  9
$LOFTMAG2
 40
0.0
  9
$LOFTPARAM
 70
     7
  9
$LOFTNORMALS
280
     1
  9
$LATITUDE
 40
37.795
  9
$LONGITUDE
 40
-122.394
  9
$NORTHDIRECTION
 40
0.0
  9
$TIMEZONE
 70
 -8000
  9
$LIGHTGLYPHDISPLAY
280
     1
  9
$TILEMODELIGHTSYNCH
280
     1
  9
$CMATERIAL
347
11
  9
$SOLIDHIST
280
     0
  9
$SHOWHIST
280
     1
  9
$DWFFRAME
280
     2
  9
$DGNFRAME
280
     0
  9
$REALWORLDSCALE
290
     1
  9
$INTERFERECOLOR
 62
     1
  9
$INTERFEREOBJVS
345
33
  9
$INTERFEREVPVS
346
30
  9
$CSHADOW
280
     0
  9
$SHADOWPLANELOCATION
 40
0.0
  0
ENDSEC
  0
SECTION
  2
CLASSES
  0
CLASS
  1
ACDBDICTIONARYWDFLT
  2
AcDbDictionaryWithDefault
  3
ObjectDBX Classes
 90
        0
 91
        1
280
     0
281
     0
  0
CLASS
  1
MATERIAL
  2
AcDbMaterial
  3
ObjectDBX Classes
 90
     1153
 91
        3
280
     0
281
     0
  0
CLASS
  1
VISUALSTYLE
  2
AcDbVisualStyle
  3
ObjectDBX Classes
 90
     4095
 91
       24
280
     0
281
     0
  0
CLASS
  1
SCALE
  2
AcDbScale
  3
ObjectDBX Classes
 90
     1153
 91
       17
280
     0
281
     0
  0
CLASS
  1
TABLESTYLE
  2
AcDbTableStyle
  3
ObjectDBX Classes
 90
     4095
 91
        1
280
     0
281
     0
  0
CLASS
  1
MLEADERSTYLE
  2
AcDbMLeaderStyle
  3
ACDB_MLEADERSTYLE_CLASS
 90
     4095
 91
        1
280
     0
281
     0
  0
CLASS
  1
DICTIONARYVAR
  2
AcDbDictionaryVar
  3
ObjectDBX Classes
 90
        0
 91
        4
280
     0
281
     0
  0
CLASS
  1
CELLSTYLEMAP
  2
AcDbCellStyleMap
  3
ObjectDBX Classes
 90
     1152
 91
        1
280
     0
281
     0
  0
ENDSEC
  0
SECTION
  2
TABLES
  0
TABLE
  2
VPORT
  5
8
330
0
100
AcDbSymbolTable
 70
     1
  0
VPORT
  5
57
330
8
100
AcDbSymbolTableRecord
100
AcDbViewportTableRecord
  2
*Active
 70
     0
 10
0.0
 20
0.0
 11
1.0
 21
1.0
 12
210.0
 22
297.0
 13
0.0
 23
0.0
 14
1.0
 24
1.0
 15
0.0
 25
0.0
 16
0.0
 26
0.0
 36
1.0
 17
0.0
 27
0.0
 37
0.0
 40
594.0
 41
0.7070707070707071
 42
50.0
 43
0.0
 44
0.0
 50
0.0
 51
0.0
 71
     0
 72
   100
 73
     1
 74
     1
 75
     0
 76
     0
 77
     0
 78
     0
281
     0
 65
     1
110
0.0
120
0.0
130
0.0
111
1.0
121
0.0
131
0.0
112
0.0
122
1.0
132
0.0
 79
     0
146
0.0
 60
     3
 61
     5
292
     1
282
     1
141
0.0
142
0.0
 63
   250
421
  3355443
  0
ENDTAB
  0
TABLE
  2
LTYPE
  5
5
330
0
100
AcDbSymbolTable
 70
     1
  0
LTYPE
  5
5B
330
5
100
AcDbSymbolTableRecord
100
AcDbLinetypeTableRecord
  2
ByBlock
 70
     0
  3

 72
    65
 73
     0
 40
0.0
  0
LTYPE
  5
5C
330
5
100
AcDbSymbolTableRecord
100
AcDbLinetypeTableRecord
  2
ByLayer
 70
     0
  3

 72
    65
 73
     0
 40
0.0
  0
LTYPE
  5
5D
330
5
100
AcDbSymbolTableRecord
100
AcDbLinetypeTableRecord
  2
Continuous
 70
     0
  3
Solid line
 72
    65
 73
     0
 40
0.0
  0
ENDTAB
  0
TABLE
  2
LAYER
  5
2
330
0
100
AcDbSymbolTable
 70
    59
  0
LAYER
  5
54
330
2
100
AcDbSymbolTableRecord
100
AcDbLayerTableRecord
  2
0
 70
     0
 62
     7
  6
Continuous
370
    -3
390
F
347
21
  0
LAYER
  5
7D
330
2
100
AcDbSymbolTableRecord
100
AcDbLayerTableRecord
  2
Bemaßungen(DIN)
 70
     0
 62
     7
  6
Continuous
370
    25
390
F
347
21
  0
LAYER
  5
8B
330
2
100
AcDbSymbolTableRecord
100
AcDbLayerTableRecord
  2
Mittellinie(DIN)
 70
     0
 62
     7
  6
Continuous
370
    25
390
F
347
21
  0
LAYER
  5
8D
330
2
100
AcDbSymbolTableRecord
100
AcDbLayerTableRecord
  2
Mittelpunktmarkierung(DIN)
 70
     0
 62
     7
  6
Continuous
370
    25
390
F
347
21
  0
LAYER
  5
98
330
2
100
AcDbSymbolTableRecord
100
AcDbLayerTableRecord
  2
Schraffur (ISO)
 70
     0
 62
     7
  6
Continuous
370
    18
390
F
347
21
  0
LAYER
  5
9B
330
2
100
AcDbSymbolTableRecord
100
AcDbLayerTableRecord
  2
Sichtbare Kanten(DIN)
 70
     0
 62
     7
  6
Continuous
370
    50
390
F
347
21
  0
LAYER
  5
9E
330
2
100
AcDbSymbolTableRecord
100
AcDbLayerTableRecord
  2
Skizziergeometrie(DIN)
 70
     0
 62
     7
  6
Continuous
370
    50
390
F
347
21
  0
LAYER
  5
A3
330
2
100
AcDbSymbolTableRecord
100
AcDbLayerTableRecord
  2
Symbole(DIN)
 70
     0
 62
     7
  6
Continuous
370
    25
390
F
347
21
  0
LAYER
  5
A6
330
2
100
AcDbSymbolTableRecord
100
AcDbLayerTableRecord
  2
Titel (ISO)
 70
     0
 62
     7
  6
Continuous
370
    50
390
F
347
21
  0
LAYER
  5
1D2
330
2
100
AcDbSymbolTableRecord
100
AcDbLayerTableRecord
  2
Defpoints
 70
     0
 62
     7
  6
Continuous
290
     0
370
    -3
390
F
347
21
  0
ENDTAB
  0
TABLE
  2
STYLE
  5
3
330
0
100
AcDbSymbolTable
 70
    15
  0
STYLE
  5
55
330
3
100
AcDbSymbolTableRecord
100
AcDbTextStyleTableRecord
  2
Standard
 70
     0
 40
0.0
 41
1.0
 50
0.0
 71
     0
 42
0.2
  3
arial.ttf
  4

1001
ACAD
1000
Arial
1071
      256
  0
STYLE
  5
5A
330
3
100
AcDbSymbolTableRecord
100
AcDbTextStyleTableRecord
  2
Annotative
 70
     0
 40
0.0
 41
1.0
 50
0.0
 71
     0
 42
0.2
  3
txt
  4

1001
AcadAnnotative
1000
AnnotativeData
1002
{
1070
     1
1070
     1
1002
}
  0
STYLE
  5
AD
330
3
100
AcDbSymbolTableRecord
100
AcDbTextStyleTableRecord
  2
_Schriftfeld_2.5mm
 70
     0
 40
0.0
 41
1.0
 50
0.0
 71
     0
 42
0.2
  3
arial.ttf
  4

1001
ACAD
1000
Arial
1071
      256
  0
STYLE
  5
AE
330
3
100
AcDbSymbolTableRecord
100
AcDbTextStyleTableRecord
  2
_Schriftfeld_2mm
 70
     0
 40
0.0
 41
1.0
 50
0.0
 71
     0
 42
0.2
  3
arial.ttf
  4

1001
ACAD
1000
Arial
1071
      256
  0
STYLE
  5
AF
330
3
100
AcDbSymbolTableRecord
100
AcDbTextStyleTableRecord
  2
_Schriftfeld_3.5mm
 70
     0
 40
0.0
 41
1.0
 50
0.0
 71
     0
 42
0.2
  3
arial.ttf
  4

1001
ACAD
1000
Arial
1071
      256
  0
STYLE
  5
B0
330
3
100
AcDbSymbolTableRecord
100
AcDbTextStyleTableRecord
  2
_Schriftfeld_5mm
 70
     0
 40
0.0
 41
1.0
 50
0.0
 71
     0
 42
0.2
  3
arial.ttf
  4

1001
ACAD
1000
Arial
1071
      256
  0
STYLE
  5
B1
330
3
100
AcDbSymbolTableRecord
100
AcDbTextStyleTableRecord
  2
Aktuell-DIN
 70
     0
 40
0.0
 41
1.0
 50
0.0
 71
     0
 42
0.2
  3
arial.ttf
  4

1001
ACAD
1000
Arial
1071
      256
  0
STYLE
  5
B2
330
3
100
AcDbSymbolTableRecord
100
AcDbTextStyleTableRecord
  2
Bezeichnungstext (DIN)
 70
     0
 40
0.0
 41
1.0
 50
0.0
 71
     0
 42
0.2
  3
isocpeur.ttf
  4

1001
ACAD
1000
ISOCPEUR
1071
      256
  0
STYLE
  5
B3
330
3
100
AcDbSymbolTableRecord
100
AcDbTextStyleTableRecord
  2
Bezeichnungstext (ISO)
 70
     0
 40
0.0
 41
1.0
 50
0.0
 71
     0
 42
0.2
  3
tahoma.ttf
  4

1001
ACAD
1000
Tahoma
1071
      256
  0
STYLE
  5
B4
330
3
100
AcDbSymbolTableRecord
100
AcDbTextStyleTableRecord
  2
Notiztext (DIN)
 70
     0
 40
0.0
 41
1.0
 50
0.0
 71
     0
 42
0.2
  3
isocpeur.ttf
  4

1001
ACAD
1000
ISOCPEUR
1071
      256
  0
STYLE
  5
B5
330
3
100
AcDbSymbolTableRecord
100
AcDbTextStyleTableRecord
  2
Notiztext (ISO)
 70
     0
 40
0.0
 41
1.0
 50
0.0
 71
     0
 42
0.2
  3
tahoma.ttf
  4

1001
ACAD
1000
Tahoma
1071
      256
  0
STYLE
  5
B6
330
3
100
AcDbSymbolTableRecord
100
AcDbTextStyleTableRecord
  2
STANDARD-DIN
 70
     0
 40
0.0
 41
1.0
 50
0.0
 71
     0
 42
0.2
  3
arial.ttf
  4

1001
ACAD
1000
Arial
1071
      256
  0
STYLE
  5
B7
330
3
100
AcDbSymbolTableRecord
100
AcDbTextStyleTableRecord
  2
STANDARD-DIN~0
 70
     0
 40
0.0
 41
1.0
 50
0.0
 71
     0
 42
0.2
  3
arial.ttf
  4

1001
ACAD
1000
Arial
1071
      256
  0
STYLE
  5
B8
330
3
100
AcDbSymbolTableRecord
100
AcDbTextStyleTableRecord
  2
STANDARD-DINGroßer Text
 70
     0
 40
0.0
 41
1.0
 50
0.0
 71
     0
 42
0.2
  3
arial.ttf
  4

1001
ACAD
1000
Arial
1071
      256
  0
STYLE
  5
B9
330
3
100
AcDbSymbolTableRecord
100
AcDbTextStyleTableRecord
  2
STANDARD-DINNach Layer
 70
     0
 40
0.0
 41
1.0
 50
0.0
 71
     0
 42
0.2
  3
arial.ttf
  4

1001
ACAD
1000
Arial
1071
      256
  0
ENDTAB
  0
TABLE
  2
VIEW
  5
6
330
0
100
AcDbSymbolTable
 70
     0
  0
ENDTAB
  0
TABLE
  2
UCS
  5
7
330
0
100
AcDbSymbolTable
 70
     0
  0
ENDTAB
  0
TABLE
  2
APPID
  5
9
330
0
100
AcDbSymbolTable
 70
     3
  0
APPID
  5
56
330
9
100
AcDbSymbolTableRecord
100
AcDbRegAppTableRecord
  2
ACAD
 70
     0
  0
APPID
  5
5E
330
9
100
AcDbSymbolTableRecord
100
AcDbRegAppTableRecord
  2
AcadAnnotative
 70
     0
  0
APPID
  5
87C
330
9
100
AcDbSymbolTableRecord
100
AcDbRegAppTableRecord
  2
ACAD_MLEADERVER
 70
     0
  0
ENDTAB
  0
TABLE
  2
DIMSTYLE
  5
A
330
0
100
AcDbSymbolTable
 70
    22
100
AcDbDimStyleTable
 71
     2
340
BA
340
58
  0
DIMSTYLE
105
58
330
A
100
AcDbSymbolTableRecord
100
AcDbDimStyleTableRecord
  2
Standard
 70
     0
340
55
  0
DIMSTYLE
105
59
330
A
100
AcDbSymbolTableRecord
100
AcDbDimStyleTableRecord
  2
Annotative
 70
     0
340
55
1001
AcadAnnotative
1000
AnnotativeData
1002
{
1070
     1
1070
     1
1002
}
  0
DIMSTYLE
105
BA
102
{ACAD_REACTORS
330
1D1
330
2B4
330
3A5
330
488
330
570
330
658
330
757
102
}
330
A
100
AcDbSymbolTableRecord
100
AcDbDimStyleTableRecord
  2
STANDARD-DIN - Methode 2b
 70
     0
 40
2.0
 41
2.5
 42
0.0
 43
5.999999999999999
 44
3.174999999999999
 45
0.00000001
 46
10.0
 73
     0
 77
     1
 78
     8
 79
     2
140
3.5
143
0.03937
146
0.7142857313156128
147
0.8
171
     3
172
     1
176
   250
177
   250
178
   250
271
     2
272
     2
274
     3
284
     8
285
     8
340
B7
371
    25
372
    25
  0
DIMSTYLE
105
BB
330
A
100
AcDbSymbolTableRecord
100
AcDbDimStyleTableRecord
  2
STANDARD-DIN - Methode 2b$7
 70
     0
 40
2.0
 41
2.5
 42
0.0
 43
5.999999999999999
 44
3.174999999999999
 45
0.00000001
 46
10.0
 73
     0
 77
     1
 78
     8
 79
     2
140
3.5
143
0.03937
146
0.7142857313156128
147
0.8
171
     3
172
     1
176
   179
177
   250
178
   250
271
     2
272
     2
274
     3
284
     8
285
     8
340
B7
371
    25
372
    25
  0
DIMSTYLE
105
BC
330
A
100
AcDbSymbolTableRecord
100
AcDbDimStyleTableRecord
  2
Standard - Methode 1b (ISO)
 70
     0
 40
2.0
 41
2.5
 42
0.0
 43
5.999999999999999
 44
3.174999999999999
 45
0.00000001
 46
10.0
 73
     0
 77
     1
 78
     8
 79
     2
140
3.5
143
0.03937
147
0.762
171
     3
172
     1
176
   256
177
   256
178
   256
179
     2
271
     2
272
     2
274
     3
278
    44
284
     8
286
     8
340
B5
371
    -1
372
    -1
  0
DIMSTYLE
105
BD
330
A
100
AcDbSymbolTableRecord
100
AcDbDimStyleTableRecord
  2
Standard - Methode 1b (ISO)$7
 70
     0
 40
2.0
 41
2.5
 42
0.0
 43
5.999999999999999
 44
3.174999999999999
 45
0.00000001
 46
10.0
 73
     0
 77
     1
 78
     8
 79
     2
140
3.5
143
0.03937
147
0.762
171
     3
172
     1
176
   256
177
   256
178
   256
179
     2
271
     2
272
     2
274
     3
278
    44
284
     8
286
     8
340
B5
371
    -1
372
    -1
  0
DIMSTYLE
105
BE
330
A
100
AcDbSymbolTableRecord
100
AcDbDimStyleTableRecord
  2
Standard - Methode 2a (DIN)
 70
     0
 40
2.0
 41
2.5
 42
0.8
 43
5.999999999999999
 44
3.174999999999999
 45
0.00000001
 46
10.0
 77
     1
 78
     8
 79
     2
140
3.5
143
0.03937
147
0.8
170
     1
171
     3
172
     1
176
   256
177
   256
178
   256
179
     2
271
     2
272
     2
274
     3
278
    44
284
     8
286
     8
340
B4
371
    -1
372
    -1
  0
DIMSTYLE
105
BF
330
A
100
AcDbSymbolTableRecord
100
AcDbDimStyleTableRecord
  2
Standard - Methode 2a (DIN)$7
 70
     0
 40
2.0
 41
2.5
 42
0.8
 43
5.999999999999999
 44
3.174999999999999
 45
0.00000001
 46
10.0
 77
     1
 78
     8
 79
     2
140
3.5
143
0.03937
147
0.8
170
     1
171
     3
172
     1
176
   256
177
   256
178
   256
179
     2
271
     2
272
     2
274
     3
278
    44
284
     8
286
     8
340
B4
371
    -1
372
    -1
  0
DIMSTYLE
105
C0
330
A
100
AcDbSymbolTableRecord
100
AcDbDimStyleTableRecord
  2
Standard - Methode 2b (DIN)
 70
     0
 40
2.0
 41
2.5
 42
0.0
 43
5.999999999999999
 44
3.174999999999999
 45
0.00000001
 46
10.0
 77
     1
 78
     8
 79
     2
140
3.5
143
0.03937
147
0.8
171
     3
172
     1
176
   256
177
   256
178
   256
271
     2
272
     2
274
     3
278
    44
284
     8
286
     8
340
B4
371
    -1
372
    -1
  0
DIMSTYLE
105
C1
330
A
100
AcDbSymbolTableRecord
100
AcDbDimStyleTableRecord
  2
Standard - Methode 2b (DIN)$7
 70
     0
 40
2.0
 41
2.5
 42
0.0
 43
5.999999999999999
 44
3.174999999999999
 45
0.00000001
 46
10.0
 77
     1
 78
     8
 79
     2
140
3.5
143
0.03937
147
0.8
171
     3
172
     1
176
   256
177
   256
178
   256
271
     2
272
     2
274
     3
278
    44
284
     8
286
     8
340
B4
371
    -1
372
    -1
  0
DIMSTYLE
105
C2
330
A
100
AcDbSymbolTableRecord
100
AcDbDimStyleTableRecord
  2
Standard (DIN)
 70
     0
 40
2.0
 41
2.5
 42
0.8
 43
5.999999999999999
 44
3.174999999999999
 45
0.00000001
 46
10.0
 73
     0
 74
     0
 77
     1
140
3.5
143
0.03937
147
0.8
171
     3
172
     1
176
   256
177
   256
178
   256
271
     2
272
     2
274
     3
278
    44
340
B4
371
    -1
372
    -1
  0
DIMSTYLE
105
C3
330
A
100
AcDbSymbolTableRecord
100
AcDbDimStyleTableRecord
  2
Standard (DIN)$7
 70
     0
 40
2.0
 41
2.5
 42
0.8
 43
5.999999999999999
 44
3.174999999999999
 45
0.00000001
 46
10.0
 73
     0
 74
     0
 77
     1
140
3.5
143
0.03937
147
0.8
171
     3
172
     1
176
   256
177
   256
178
   256
271
     2
272
     2
274
     3
278
    44
340
B4
371
    -1
372
    -1
  0
DIMSTYLE
105
C4
330
A
100
AcDbSymbolTableRecord
100
AcDbDimStyleTableRecord
  2
Standard (ISO)
 70
     0
 40
2.0
 41
2.5
 42
0.0
 43
5.999999999999999
 44
3.174999999999999
 45
0.00000001
 46
10.0
 73
     0
 74
     0
 77
     1
140
3.5
143
0.03937
146
1.001485705375671
147
0.762
171
     3
172
     1
176
   256
177
   256
178
   256
179
     2
271
     2
272
     2
274
     3
278
    44
340
B5
371
    -1
372
    -1
  0
DIMSTYLE
105
C5
330
A
100
AcDbSymbolTableRecord
100
AcDbDimStyleTableRecord
  2
Standard (ISO)$7
 70
     0
 40
2.0
 41
2.5
 42
0.0
 43
5.999999999999999
 44
3.174999999999999
 45
0.00000001
 46
10.0
 73
     0
 74
     0
 77
     1
140
3.5
143
0.03937
146
1.001485705375671
147
0.762
171
     3
172
     1
176
   256
177
   256
178
   256
179
     2
271
     2
272
     2
274
     3
278
    44
340
B5
371
    -1
372
    -1
  0
DIMSTYLE
105
C6
330
A
100
AcDbSymbolTableRecord
100
AcDbDimStyleTableRecord
  2
Alternativ (ISO)
 70
     0
 40
2.0
 41
2.5
340
55
342
C7
  0
DIMSTYLE
105
D9
330
A
100
AcDbSymbolTableRecord
100
AcDbDimStyleTableRecord
  2
Bezug (ISO)
 70
     0
 40
2.0
 41
2.5
340
55
342
C7
  0
DIMSTYLE
105
DA
330
A
100
AcDbSymbolTableRecord
100
AcDbDimStyleTableRecord
  2
Führungslinie-Ursprungsindikator(DIN)
 70
     0
 40
2.0
 41
2.5
340
55
342
C7
  0
DIMSTYLE
105
DB
330
A
100
AcDbSymbolTableRecord
100
AcDbDimStyleTableRecord
  2
Führungslinie - Bezugsstelle(DIN)
 70
     0
 40
2.0
 41
2.5
340
55
342
C7
  0
DIMSTYLE
105
DC
330
A
100
AcDbSymbolTableRecord
100
AcDbDimStyleTableRecord
  2
Führungslinie - groß(DIN)
 70
     0
 40
2.0
 41
5.0
340
55
342
C7
  0
DIMSTYLE
105
DD
330
A
100
AcDbSymbolTableRecord
100
AcDbDimStyleTableRecord
  2
Führungslinie - Punkt(DIN)
 70
     0
 40
2.0
 41
2.5
340
55
342
C7
  0
DIMSTYLE
105
DE
330
A
100
AcDbSymbolTableRecord
100
AcDbDimStyleTableRecord
  2
Führungslinie(DIN)
 70
     0
 40
2.0
 41
2.5
340
55
342
C7
  0
DIMSTYLE
105
ED
330
A
100
AcDbSymbolTableRecord
100
AcDbDimStyleTableRecord
  2
Groß (ISO)
 70
     0
 40
2.0
 41
5.0
340
55
342
C7
  0
ENDTAB
  0
TABLE
  2
BLOCK_RECORD
  5
1
330
0
100
AcDbSymbolTable
 70
    23
  0
BLOCK_RECORD
  5
6C
330
1
100
AcDbSymbolTableRecord
100
AcDbBlockTableRecord
  2
*Model_Space
340
6F
 70
     0
280
     1
281
     0
  0
BLOCK_RECORD
  5
68
330
1
100
AcDbSymbolTableRecord
100
AcDbBlockTableRecord
  2
*Paper_Space
340
6B
 70
     0
280
     1
281
     0
  0
BLOCK_RECORD
  5
70
330
1
100
AcDbSymbolTableRecord
100
AcDbBlockTableRecord
  2
*Paper_Space0
340
73
 70
     0
280
     1
281
     0
  0
BLOCK_RECORD
  5
C7
330
1
100
AcDbSymbolTableRecord
100
AcDbBlockTableRecord
  2
_Closed
340
0
 70
     0
280
     1
281
     0
  0
BLOCK_RECORD
  5
CE
330
1
100
AcDbSymbolTableRecord
100
AcDbBlockTableRecord
  2
DatumFilled45
340
0
 70
     0
280
     1
281
     0
  0
BLOCK_RECORD
  5
DF
330
1
100
AcDbSymbolTableRecord
100
AcDbBlockTableRecord
  2
Filled-1
340
0
 70
     0
280
     1
281
     0
  0
BLOCK_RECORD
  5
EE
330
1
100
AcDbSymbolTableRecord
100
AcDbBlockTableRecord
  2
Carbonitrieren
340
0
 70
     0
280
     1
281
     0
  0
BLOCK_RECORD
  5
F3
330
1
100
AcDbSymbolTableRecord
100
AcDbBlockTableRecord
  2
Federangaben
340
0
 70
     0
280
     1
281
     0
  0
BLOCK_RECORD
  5
F7
330
1
100
AcDbSymbolTableRecord
100
AcDbBlockTableRecord
  2
Nassschliff
340
0
 70
     0
280
     1
281
     0
  0
BLOCK_RECORD
  5
FB
330
1
100
AcDbSymbolTableRecord
100
AcDbBlockTableRecord
  2
Schleiffrichtung horizontal
340
0
 70
     0
280
     1
281
     0
  0
BLOCK_RECORD
  5
10E
330
1
100
AcDbSymbolTableRecord
100
AcDbBlockTableRecord
  2
Schleiffrichtung vertikal
340
0
 70
     0
280
     1
281
     0
  0
BLOCK_RECORD
  5
121
330
1
100
AcDbSymbolTableRecord
100
AcDbBlockTableRecord
  2
Stanz-_Laserteil
340
0
 70
     0
280
     1
281
     0
  0
BLOCK_RECORD
  5
125
330
1
100
AcDbSymbolTableRecord
100
AcDbBlockTableRecord
  2
Stanzrundung_1
340
0
 70
     0
280
     1
281
     0
  0
BLOCK_RECORD
  5
12B
330
1
100
AcDbSymbolTableRecord
100
AcDbBlockTableRecord
  2
Stanzrundung_2
340
0
 70
     0
280
     1
281
     0
  0
BLOCK_RECORD
  5
131
330
1
100
AcDbSymbolTableRecord
100
AcDbBlockTableRecord
  2
Verzinkt
340
0
 70
     0
280
     1
281
     0
  0
BLOCK_RECORD
  5
135
330
1
100
AcDbSymbolTableRecord
100
AcDbBlockTableRecord
  2
Vierkant-Tabelle
340
0
 70
     0
280
     1
281
     0
  0
BLOCK_RECORD
  5
160
330
1
100
AcDbSymbolTableRecord
100
AcDbBlockTableRecord
  2
Laserpunkt_Text
340
0
 70
     0
280
     1
281
     0
  0
BLOCK_RECORD
  5
167
330
1
100
AcDbSymbolTableRecord
100
AcDbBlockTableRecord
  2
Laserpunkt
340
0
 70
     0
280
     1
281
     0
  0
BLOCK_RECORD
  5
1D3
330
1
100
AcDbSymbolTableRecord
100
AcDbBlockTableRecord
  2
*D16
340
0
 70
     0
280
     1
281
     0
  0
BLOCK_RECORD
  5
2B5
330
1
100
AcDbSymbolTableRecord
100
AcDbBlockTableRecord
  2
*D17
340
0
 70
     0
280
     1
281
     0
  0
BLOCK_RECORD
  5
3A6
330
1
100
AcDbSymbolTableRecord
100
AcDbBlockTableRecord
  2
*D18
340
0
 70
     0
280
     1
281
     0
  0
BLOCK_RECORD
  5
489
330
1
100
AcDbSymbolTableRecord
100
AcDbBlockTableRecord
  2
*D19
340
0
 70
     0
280
     1
281
     0
  0
BLOCK_RECORD
  5
571
330
1
100
AcDbSymbolTableRecord
100
AcDbBlockTableRecord
  2
*D20
340
0
 70
     0
280
     1
281
     0
  0
BLOCK_RECORD
  5
659
330
1
100
AcDbSymbolTableRecord
100
AcDbBlockTableRecord
  2
*D21
340
0
 70
     0
280
     1
281
     0
  0
BLOCK_RECORD
  5
758
330
1
100
AcDbSymbolTableRecord
100
AcDbBlockTableRecord
  2
*D22
340
0
 70
     0
280
     1
281
     0
  0
ENDTAB
  0
ENDSEC
  0
SECTION
  2
BLOCKS
  0
BLOCK
  5
6D
330
6C
100
AcDbEntity
  8
0
100
AcDbBlockBegin
  2
*Model_Space
 70
     0
 10
0.0
 20
0.0
 30
0.0
  3
*Model_Space
  1

  0
ENDBLK
  5
6E
330
6C
100
AcDbEntity
  8
0
100
AcDbBlockEnd
  0
BLOCK
  5
69
330
68
100
AcDbEntity
 67
     1
  8
0
100
AcDbBlockBegin
  2
*Paper_Space
 70
     0
 10
0.0
 20
0.0
 30
0.0
  3
*Paper_Space
  1

  0
ENDBLK
  5
6A
330
68
100
AcDbEntity
 67
     1
  8
0
100
AcDbBlockEnd
  0
BLOCK
  5
71
330
70
100
AcDbEntity
 67
     1
  8
0
100
AcDbBlockBegin
  2
*Paper_Space0
 70
     0
 10
0.0
 20
0.0
 30
0.0
  3
*Paper_Space0
  1

  0
ENDBLK
  5
72
330
70
100
AcDbEntity
 67
     1
  8
0
100
AcDbBlockEnd
  0
BLOCK
  5
CC
330
C7
100
AcDbEntity
  8
0
100
AcDbBlockBegin
  2
_Closed
 70
     0
 10
0.0
 20
0.0
 30
0.0
  3
_Closed
  1

  0
LINE
  5
C8
330
C7
100
AcDbEntity
  8
0
  6
ByBlock
 62
     0
370
    -2
100
AcDbLine
 10
-1.0
 20
0.1666666666666666
 30
0.0
 11
0.0
 21
0.0
 31
0.0
  0
LINE
  5
C9
330
C7
100
AcDbEntity
  8
0
  6
ByBlock
 62
     0
370
    -2
100
AcDbLine
 10
0.0
 20
0.0
 30
0.0
 11
-1.0
 21
-0.1666666666666666
 31
0.0
  0
LINE
  5
CA
330
C7
100
AcDbEntity
  8
0
  6
ByBlock
 62
     0
370
    -2
100
AcDbLine
 10
-1.0
 20
0.1666666666666666
 30
0.0
 11
-1.0
 21
-0.1666666666666666
 31
0.0
  0
LINE
  5
CB
330
C7
100
AcDbEntity
  8
0
  6
ByBlock
 62
     0
370
    -2
100
AcDbLine
 10
0.0
 20
0.0
 30
0.0
 11
-1.0
 21
0.0
 31
0.0
  0
ENDBLK
  5
CD
330
C7
100
AcDbEntity
  8
0
100
AcDbBlockEnd
  0
BLOCK
  5
CF
330
CE
100
AcDbEntity
  8
0
100
AcDbBlockBegin
  2
DatumFilled45
 70
     0
 10
0.0
 20
0.0
 30
0.0
  3
DatumFilled45
  1

  0
POLYLINE
  5
D1
330
CE
100
AcDbEntity
  8
0
 62
     0
100
AcDb2dPolyline
 66
     1
 10
0.0
 20
0.0
 30
0.0
 70
   128
  0
VERTEX
  5
D2
330
D1
100
AcDbEntity
  8
0
 62
     0
100
AcDbVertex
100
AcDb2dVertex
 10
0.0
 20
1.0
 30
0.0
  0
VERTEX
  5
D3
330
D1
100
AcDbEntity
  8
0
 62
     0
100
AcDbVertex
100
AcDb2dVertex
 10
0.0
 20
-1.0
 30
0.0
  0
VERTEX
  5
D5
330
D1
100
AcDbEntity
  8
0
 62
     0
100
AcDbVertex
100
AcDb2dVertex
 10
-1.0
 20
0.0
 30
0.0
  0
VERTEX
  5
D6
330
D1
100
AcDbEntity
  8
0
 62
     0
100
AcDbVertex
100
AcDb2dVertex
 10
0.0
 20
1.0
 30
0.0
  0
SEQEND
  5
D4
330
D1
100
AcDbEntity
  8
0
 62
     0
  0
SOLID
  5
D8
330
CE
100
AcDbEntity
  8
0
 62
     0
100
AcDbTrace
 10
0.0
 20
1.0
 30
0.0
 11
0.0
 21
-1.0
 31
0.0
 12
-1.0
 22
0.0
 32
0.0
 13
0.0
 23
1.0
 33
0.0
  0
ENDBLK
  5
D0
330
CE
100
AcDbEntity
  8
0
100
AcDbBlockEnd
  0
BLOCK
  5
E0
330
DF
100
AcDbEntity
  8
0
100
AcDbBlockBegin
  2
Filled-1
 70
     0
 10
0.0
 20
0.0
 30
0.0
  3
Filled-1
  1

  0
LINE
  5
E2
330
DF
100
AcDbEntity
  8
0
 62
     0
100
AcDbLine
 10
-1.0
 20
0.0
 30
0.0
 11
0.0
 21
0.0
 31
0.0
  0
POLYLINE
  5
E3
330
DF
100
AcDbEntity
  8
0
 62
     0
100
AcDb2dPolyline
 66
     1
 10
0.0
 20
0.0
 30
0.0
 70
   128
  0
VERTEX
  5
E4
330
E3
100
AcDbEntity
  8
0
 62
     0
100
AcDbVertex
100
AcDb2dVertex
 10
-1.0
 20
-0.1
 30
0.0
  0
VERTEX
  5
E5
330
E3
100
AcDbEntity
  8
0
 62
     0
100
AcDbVertex
100
AcDb2dVertex
 10
0.0
 20
0.0
 30
0.0
  0
VERTEX
  5
E7
330
E3
100
AcDbEntity
  8
0
 62
     0
100
AcDbVertex
100
AcDb2dVertex
 10
-1.0
 20
0.1
 30
0.0
  0
VERTEX
  5
E8
330
E3
100
AcDbEntity
  8
0
 62
     0
100
AcDbVertex
100
AcDb2dVertex
 10
-1.0
 20
-0.1
 30
0.0
  0
SEQEND
  5
E6
330
E3
100
AcDbEntity
  8
0
 62
     0
  0
SOLID
  5
E9
330
DF
100
AcDbEntity
  8
0
 62
     0
100
AcDbTrace
 10
-1.0
 20
-0.1
 30
0.0
 11
0.0
 21
0.0
 31
0.0
 12
-1.0
 22
0.1
 32
0.0
 13
-1.0
 23
-0.1
 33
0.0
  0
LINE
  5
EA
330
DF
100
AcDbEntity
  8
0
 62
     0
100
AcDbLine
 10
-1.0
 20
-0.1
 30
0.0
 11
0.0
 21
0.0
 31
0.0
  0
LINE
  5
EB
330
DF
100
AcDbEntity
  8
0
 62
     0
100
AcDbLine
 10
0.0
 20
0.0
 30
0.0
 11
-1.0
 21
0.1
 31
0.0
  0
LINE
  5
EC
330
DF
100
AcDbEntity
  8
0
 62
     0
100
AcDbLine
 10
-1.0
 20
0.1
 30
0.0
 11
-1.0
 21
-0.1
 31
0.0
  0
ENDBLK
  5
E1
330
DF
100
AcDbEntity
  8
0
100
AcDbBlockEnd
  0
BLOCK
  5
EF
330
EE
100
AcDbEntity
  8
0
100
AcDbBlockBegin
  2
Carbonitrieren
 70
     0
 10
0.0
 20
0.0
 30
0.0
  3
Carbonitrieren
  1

  0
MTEXT
  5
F1
330
EE
100
AcDbEntity
  8
Titel (ISO)
100
AcDbMText
 10
-75.71151256561281
 20
15.48921793699264
 30
0.0
 40
3.499999940395355
 41
147.2330421884934
 46
0.0
 71
     1
 72
     1
  3
- Carbonitriert: 0.3 ±0.1 tief;HV 500...600 (Prüfkraft DIN 50133)\P- elektrolytisch verkupfert 1-2µ, el. vernickelt 8-10µ\fArial|b0|i0;\H3.3000;\P\fArial|b0|i0;\H3.5000;- Entspröden: glühen 190-210°C, ca 3h innerhalb 4h nach Veredelung\P \P-TriboCoat
  1
ing TC D1050, 4...8µ\P 
  7
_Schriftfeld_3.5mm
 73
     2
 44
0.9442214965820312
  0
ENDBLK
  5
F0
330
EE
100
AcDbEntity
  8
0
100
AcDbBlockEnd
  0
BLOCK
  5
F4
330
F3
100
AcDbEntity
  8
0
100
AcDbBlockBegin
  2
Federangaben
 70
     0
 10
0.0
 20
0.0
 30
0.0
  3
Federangaben
  1

  0
MTEXT
  5
F6
330
F3
100
AcDbEntity
  8
Titel (ISO)
100
AcDbMText
 10
-23.02877426147463
 20
32.04377174377441
 30
0.0
 40
3.499999940395355
 41
201.4264025634256
 46
0.0
 71
     1
 72
     1
  1
getrommelt\Pzunderfrei\Pohne Druckstellen\Pund Sicken\P \PEinfederung ...°\PMd ... Nmm\PSb ... N/mm2\P \PWindungszahl ...\P50 HRc +/- 2 eingeölt\P 
  7
_Schriftfeld_3.5mm
 73
     2
 44
0.9442216157913208
  0
ENDBLK
  5
F5
330
F3
100
AcDbEntity
  8
0
100
AcDbBlockEnd
  0
BLOCK
  5
F8
330
F7
100
AcDbEntity
  8
0
100
AcDbBlockBegin
  2
Nassschliff
 70
     0
 10
0.0
 20
0.0
 30
0.0
  3
Nassschliff
  1

  0
MTEXT
  5
FA
330
F7
100
AcDbEntity
  8
Titel (ISO)
100
AcDbMText
 10
-59.37195301055908
 20
2.29287352412939
 30
0.0
 40
3.499999940395355
 41
0.0
 46
0.0
 71
     1
 72
     1
  1
Verfahren IV: Nassschliff, Korn 220-240, Folie einseitig
  7
_Schriftfeld_3.5mm
 73
     1
 44
1.0
  0
ENDBLK
  5
F9
330
F7
100
AcDbEntity
  8
0
100
AcDbBlockEnd
  0
BLOCK
  5
FC
330
FB
100
AcDbEntity
  8
0
100
AcDbBlockBegin
  2
Schleiffrichtung horizontal
 70
     0
 10
0.0
 20
0.0
 30
0.0
  3
Schleiffrichtung horizontal
  1

  0
HATCH
  5
101
330
FB
100
AcDbEntity
  8
Schraffur (ISO)
100
AcDbHatch
 10
0.0
 20
0.0
 30
0.0
210
0.0
220
0.0
230
1.0
  2
SOLID
 70
     1
 71
     0
 91
        1
 92
        1
 93
        3
 72
     1
 10
-20.0
 20
0.0
 11
-17.50000000000001
 21
-0.4999999999999894
 72
     1
 10
-17.50000000000001
 20
-0.4999999999999894
 11
-17.50000000000001
 21
0.5000000000000071
 72
     1
 10
-17.50000000000001
 20
0.5000000000000071
 11
-20.0
 21
0.0
 97
        0
 75
     0
 76
     1
 98
        1
 10
0.0
 20
0.0
450
        0
451
        0
460
0.0
461
0.0
452
        0
462
0.0
453
        0
470

  0
HATCH
  5
105
330
FB
100
AcDbEntity
  8
Schraffur (ISO)
100
AcDbHatch
 10
0.0
 20
0.0
 30
0.0
210
0.0
220
0.0
230
1.0
  2
SOLID
 70
     1
 71
     0
 91
        1
 92
        1
 93
        3
 72
     1
 10
19.99999999999998
 20
0.0
 11
17.5
 21
0.5000000000000071
 72
     1
 10
17.5
 20
0.5000000000000071
 11
17.49999999999998
 21
-0.4999999999999894
 72
     1
 10
17.49999999999998
 20
-0.4999999999999894
 11
19.99999999999998
 21
0.0
 97
        0
 75
     0
 76
     1
 98
        1
 10
0.0
 20
0.0
450
        0
451
        0
460
0.0
461
0.0
452
        0
462
0.0
453
        0
470

  0
LINE
  5
106
330
FB
100
AcDbEntity
  8
Titel (ISO)
370
    25
100
AcDbLine
 10
-20.0
 20
0.0
 30
0.0
 11
19.99999999999998
 21
0.0
 31
0.0
  0
LINE
  5
107
330
FB
100
AcDbEntity
  8
Titel (ISO)
100
AcDbLine
 10
19.99999999999998
 20
0.0
 30
0.0
 11
17.5
 21
0.5000000000000071
 31
0.0
  0
LINE
  5
108
330
FB
100
AcDbEntity
  8
Titel (ISO)
100
AcDbLine
 10
17.5
 20
0.5000000000000071
 30
0.0
 11
17.49999999999998
 21
-0.4999999999999894
 31
0.0
  0
LINE
  5
109
330
FB
100
AcDbEntity
  8
Titel (ISO)
100
AcDbLine
 10
17.49999999999998
 20
-0.4999999999999894
 30
0.0
 11
19.99999999999998
 21
0.0
 31
0.0
  0
LINE
  5
10A
330
FB
100
AcDbEntity
  8
Titel (ISO)
100
AcDbLine
 10
-17.50000000000001
 20
0.5000000000000071
 30
0.0
 11
-20.0
 21
0.0
 31
0.0
  0
LINE
  5
10B
330
FB
100
AcDbEntity
  8
Titel (ISO)
100
AcDbLine
 10
-20.0
 20
0.0
 30
0.0
 11
-17.50000000000001
 21
-0.4999999999999894
 31
0.0
  0
LINE
  5
10C
330
FB
100
AcDbEntity
  8
Titel (ISO)
100
AcDbLine
 10
-17.50000000000001
 20
-0.4999999999999894
 30
0.0
 11
-17.50000000000001
 21
0.5000000000000071
 31
0.0
  0
MTEXT
  5
10D
330
FB
100
AcDbEntity
  8
Titel (ISO)
100
AcDbMText
 10
-15.50000000000001
 20
5.0
 30
0.0
 40
3.499999940395355
 41
0.0
 46
0.0
 71
     1
 72
     1
  1
Schliffrichtung
  7
_Schriftfeld_3.5mm
 73
     1
 44
1.0
  0
ENDBLK
  5
FD
330
FB
100
AcDbEntity
  8
0
100
AcDbBlockEnd
  0
BLOCK
  5
10F
330
10E
100
AcDbEntity
  8
0
100
AcDbBlockBegin
  2
Schleiffrichtung vertikal
 70
     0
 10
0.0
 20
0.0
 30
0.0
  3
Schleiffrichtung vertikal
  1

  0
HATCH
  5
114
330
10E
100
AcDbEntity
  8
Schraffur (ISO)
100
AcDbHatch
 10
0.0
 20
0.0
 30
0.0
210
0.0
220
0.0
230
1.0
  2
SOLID
 70
     1
 71
     0
 91
        1
 92
        1
 93
        3
 72
     1
 10
0.0
 20
-20.0
 11
0.4999999999999983
 21
-17.5
 72
     1
 10
0.4999999999999983
 20
-17.5
 11
-0.4999999999999983
 21
-17.5
 72
     1
 10
-0.4999999999999983
 20
-17.5
 11
0.0
 21
-20.0
 97
        0
 75
     0
 76
     1
 98
        1
 10
0.0
 20
0.0
450
        0
451
        0
460
0.0
461
0.0
452
        0
462
0.0
453
        0
470

  0
HATCH
  5
118
330
10E
100
AcDbEntity
  8
Schraffur (ISO)
100
AcDbHatch
 10
0.0
 20
0.0
 30
0.0
210
0.0
220
0.0
230
1.0
  2
SOLID
 70
     1
 71
     0
 91
        1
 92
        1
 93
        3
 72
     1
 10
0.0
 20
20.0
 11
-0.5000000000000071
 21
17.5
 72
     1
 10
-0.5000000000000071
 20
17.5
 11
0.4999999999999983
 21
17.5
 72
     1
 10
0.4999999999999983
 20
17.5
 11
0.0
 21
20.0
 97
        0
 75
     0
 76
     1
 98
        1
 10
0.0
 20
0.0
450
        0
451
        0
460
0.0
461
0.0
452
        0
462
0.0
453
        0
470

  0
LINE
  5
119
330
10E
100
AcDbEntity
  8
Titel (ISO)
370
    25
100
AcDbLine
 10
0.0
 20
-20.0
 30
0.0
 11
0.0
 21
20.0
 31
0.0
  0
LINE
  5
11A
330
10E
100
AcDbEntity
  8
Titel (ISO)
100
AcDbLine
 10
0.0
 20
20.0
 30
0.0
 11
-0.5000000000000071
 21
17.5
 31
0.0
  0
LINE
  5
11B
330
10E
100
AcDbEntity
  8
Titel (ISO)
100
AcDbLine
 10
-0.5000000000000071
 20
17.5
 30
0.0
 11
0.4999999999999983
 21
17.5
 31
0.0
  0
LINE
  5
11C
330
10E
100
AcDbEntity
  8
Titel (ISO)
100
AcDbLine
 10
0.4999999999999983
 20
17.5
 30
0.0
 11
0.0
 21
20.0
 31
0.0
  0
LINE
  5
11D
330
10E
100
AcDbEntity
  8
Titel (ISO)
100
AcDbLine
 10
-0.4999999999999983
 20
-17.5
 30
0.0
 11
0.0
 21
-20.0
 31
0.0
  0
LINE
  5
11E
330
10E
100
AcDbEntity
  8
Titel (ISO)
100
AcDbLine
 10
0.0
 20
-20.0
 30
0.0
 11
0.4999999999999983
 21
-17.5
 31
0.0
  0
LINE
  5
11F
330
10E
100
AcDbEntity
  8
Titel (ISO)
100
AcDbLine
 10
0.4999999999999983
 20
-17.5
 30
0.0
 11
-0.4999999999999983
 21
-17.5
 31
0.0
  0
MTEXT
  5
120
330
10E
100
AcDbEntity
  8
Titel (ISO)
100
AcDbMText
 10
-5.0
 20
-15.5
 30
0.0
 40
3.499999940395355
 41
0.0
 46
0.0
 71
     1
 72
     1
  1
Schliffrichtung
  7
_Schriftfeld_3.5mm
 11
0.0000000000000001
 21
1.0
 31
0.0
 73
     1
 44
1.0
  0
ENDBLK
  5
110
330
10E
100
AcDbEntity
  8
0
100
AcDbBlockEnd
  0
BLOCK
  5
122
330
121
100
AcDbEntity
  8
0
100
AcDbBlockBegin
  2
Stanz-_Laserteil
 70
     0
 10
0.0
 20
0.0
 30
0.0
  3
Stanz-_Laserteil
  1

  0
MTEXT
  5
124
330
121
100
AcDbEntity
  8
Titel (ISO)
100
AcDbMText
 10
-49.3854808807373
 20
9.981259405612945
 30
0.0
 40
3.499999940395355
 41
193.6792332340631
 46
0.0
 71
     1
 72
     1
  1
Als Stanzteil konzipiert\PWenn als Laserteil hergestellt, \Pmuss ganze Kontur innerhalb +/- 0.1 mm sein\P
  7
_Schriftfeld_3.5mm
 73
     2
 44
0.9442214965820312
  0
ENDBLK
  5
123
330
121
100
AcDbEntity
  8
0
100
AcDbBlockEnd
  0
BLOCK
  5
126
330
125
100
AcDbEntity
  8
0
100
AcDbBlockBegin
  2
Stanzrundung_1
 70
     0
 10
0.0
 20
0.0
 30
0.0
  3
Stanzrundung_1
  1

  0
ARC
  5
128
330
125
100
AcDbEntity
  8
Titel (ISO)
100
AcDbCircle
 10
-2.449972172222221
 20
1.477407396909722
 30
0.0
 40
1.999999999999999
100
AcDbArc
 50
270.0
 51
0.0
  0
LINE
  5
129
330
125
100
AcDbEntity
  8
Titel (ISO)
100
AcDbLine
 10
-1.049223178106464
 20
0.0498562575512551
 30
0.0
 11
2.449972272222211
 21
-1.477407496909712
 31
0.0
  0
MTEXT
  5
12A
330
125
100
AcDbEntity
  8
Titel (ISO)
100
AcDbMText
 10
3.130367236014626
 20
-0.28633610801851
 30
0.0
 40
3.499999940395355
 41
0.0
 46
0.0
 71
     1
 72
     1
  1
Stanzrundung
  7
_Schriftfeld_3.5mm
 73
     1
 44
1.0
  0
ENDBLK
  5
127
330
125
100
AcDbEntity
  8
0
100
AcDbBlockEnd
  0
BLOCK
  5
12C
330
12B
100
AcDbEntity
  8
0
100
AcDbBlockBegin
  2
Stanzrundung_2
 70
     0
 10
0.0
 20
0.0
 30
0.0
  3
Stanzrundung_2
  1

  0
ARC
  5
12E
330
12B
100
AcDbEntity
  8
Titel (ISO)
100
AcDbCircle
 10
1.855973276181241
 20
1.952432954041682
 30
0.0
 40
1.566421450686395
100
AcDbArc
 50
180.0
 51
270.0
  0
LINE
  5
12F
330
12B
100
AcDbEntity
  8
Titel (ISO)
100
AcDbLine
 10
-1.855973376181214
 20
-1.952433054041673
 30
0.0
 11
0.7767462473268339
 21
0.8171157378590976
 31
0.0
  0
MTEXT
  5
130
330
12B
100
AcDbEntity
  8
Titel (ISO)
100
AcDbMText
 10
-35.05451959893436
 20
-0.5734039390297241
 30
0.0
 40
3.499999940395355
 41
0.0
 46
0.0
 71
     1
 72
     1
  1
Stanzrundung
  7
_Schriftfeld_3.5mm
 73
     1
 44
1.0
  0
ENDBLK
  5
12D
330
12B
100
AcDbEntity
  8
0
100
AcDbBlockEnd
  0
BLOCK
  5
132
330
131
100
AcDbEntity
  8
0
100
AcDbBlockBegin
  2
Verzinkt
 70
     0
 10
0.0
 20
0.0
 30
0.0
  3
Verzinkt
  1

  0
MTEXT
  5
134
330
131
100
AcDbEntity
  8
Titel (ISO)
100
AcDbMText
 10
-34.96665477752687
 20
2.242187596857547
 30
0.0
 40
3.499999940395355
 41
0.0
 46
0.0
 71
     1
 72
     1
  1
verzinkt und blau passiviert 8µm
  7
_Schriftfeld_3.5mm
 73
     1
 44
1.0
  0
ENDBLK
  5
133
330
131
100
AcDbEntity
  8
0
100
AcDbBlockEnd
  0
BLOCK
  5
136
330
135
100
AcDbEntity
  8
0
100
AcDbBlockBegin
  2
Vierkant-Tabelle
 70
     0
 10
0.0
 20
0.0
 30
0.0
  3
Vierkant-Tabelle
  1

  0
LINE
  5
138
330
135
100
AcDbEntity
  8
Titel (ISO)
 62
     7
100
AcDbLine
 10
-33.99999999999998
 20
-24.00000000000006
 30
0.0
 11
33.99999999999999
 21
-23.99999999999999
 31
0.0
  0
LINE
  5
139
330
135
100
AcDbEntity
  8
Titel (ISO)
 62
     7
100
AcDbLine
 10
-33.99999999999999
 20
0.0
 30
0.0
 11
33.99999999999999
 21
0.0
 31
0.0
  0
LINE
  5
13A
330
135
100
AcDbEntity
  8
Titel (ISO)
 62
     7
100
AcDbLine
 10
-33.99999999999999
 20
23.99999999999999
 30
0.0
 11
33.99999999999999
 21
24.00000000000006
 31
0.0
  0
LINE
  5
13B
330
135
100
AcDbEntity
  8
Titel (ISO)
 62
     7
100
AcDbLine
 10
-33.99999999999999
 20
15.99999999999998
 30
0.0
 11
34.0
 21
16.00000000000005
 31
0.0
  0
LINE
  5
13C
330
135
100
AcDbEntity
  8
Titel (ISO)
 62
     7
100
AcDbLine
 10
-33.99999999999999
 20
7.999999999999971
 30
0.0
 11
34.0
 21
8.000000000000042
 31
0.0
  0
LINE
  5
13D
330
135
100
AcDbEntity
  8
Titel (ISO)
 62
     7
100
AcDbLine
 10
-33.99999999999999
 20
-8.000000000000042
 30
0.0
 11
33.99999999999999
 21
-7.999999999999971
 31
0.0
  0
LINE
  5
13E
330
135
100
AcDbEntity
  8
Titel (ISO)
 62
     7
100
AcDbLine
 10
-33.99999999999999
 20
-16.00000000000005
 30
0.0
 11
33.99999999999999
 21
-15.99999999999998
 31
0.0
  0
LINE
  5
13F
330
135
100
AcDbEntity
  8
Titel (ISO)
 62
     7
100
AcDbLine
 10
-25.99999999999997
 20
-24.00000000000006
 30
0.0
 11
-26.0
 21
23.99999999999999
 31
0.0
  0
LINE
  5
140
330
135
100
AcDbEntity
  8
Titel (ISO)
 62
     7
100
AcDbLine
 10
-33.99999999999998
 20
-24.00000000000006
 30
0.0
 11
-33.99999999999999
 21
23.99999999999999
 31
0.0
  0
LINE
  5
141
330
135
100
AcDbEntity
  8
Titel (ISO)
 62
     7
100
AcDbLine
 10
-5.999999999999969
 20
-24.00000000000002
 30
0.0
 11
-5.999999999999996
 21
24.00000000000002
 31
0.0
  0
LINE
  5
142
330
135
100
AcDbEntity
  8
Titel (ISO)
 62
     7
100
AcDbLine
 10
13.99999999999999
 20
-24.00000000000002
 30
0.0
 11
14.0
 21
24.00000000000002
 31
0.0
  0
LINE
  5
143
330
135
100
AcDbEntity
  8
Titel (ISO)
 62
     7
100
AcDbLine
 10
33.99999999999999
 20
-23.99999999999999
 30
0.0
 11
33.99999999999999
 21
24.00000000000006
 31
0.0
  0
MTEXT
  5
144
330
135
100
AcDbEntity
  8
Titel (ISO)
100
AcDbMText
 10
-31.0
 20
-9.999999850988423
 30
0.0
 40
2.5
 41
0.0
 46
0.0
 71
     1
 72
     1
  1
\fArial|b0|i0;\W0.60;\H2.5000;4
  7
_Schriftfeld_3.5mm
 73
     1
 44
1.0
  0
MTEXT
  5
145
330
135
100
AcDbEntity
  8
Titel (ISO)
100
AcDbMText
 10
-31.0
 20
5.999999999999978
 30
0.0
 40
2.5
 41
0.0
 46
0.0
 71
     1
 72
     1
  1
\fArial|b0|i0;\W0.60;\H2.5000;2
  7
_Schriftfeld_3.5mm
 73
     1
 44
1.0
  0
MTEXT
  5
146
330
135
100
AcDbEntity
  8
Titel (ISO)
100
AcDbMText
 10
-31.42346487563099
 20
21.00000014901159
 30
0.0
 40
2.5
 41
0.0
 46
0.0
 71
     1
 72
     1
  1
\fArial|b0|i0;\W0.65;\H2.5000;Pos.
  7
_Schriftfeld_3.5mm
 73
     1
 44
1.0
  0
MTEXT
  5
147
330
135
100
AcDbEntity
  8
Titel (ISO)
100
AcDbMText
 10
-31.0
 20
13.99999999999998
 30
0.0
 40
2.5
 41
0.0
 46
0.0
 71
     1
 72
     1
  1
\fArial|b0|i0;\W0.60;\H2.5000;1
  7
_Schriftfeld_3.5mm
 73
     1
 44
1.0
  0
MTEXT
  5
148
330
135
100
AcDbEntity
  8
Titel (ISO)
100
AcDbMText
 10
-0.9999999999999964
 20
-18.00000000000004
 30
0.0
 40
2.5
 41
0.0
 46
0.0
 71
     1
 72
     1
  1
\fArial|b0|i0;\W0.88;\H2.5000;4kt. 10
  7
_Schriftfeld_3.5mm
 73
     1
 44
1.0
  0
MTEXT
  5
149
330
135
100
AcDbEntity
  8
Titel (ISO)
100
AcDbMText
 10
-21.0
 20
-18.00000000000004
 30
0.0
 40
2.5
 41
0.0
 46
0.0
 71
     1
 72
     1
  1
\fAIGDT|b0|i0;\W0.65;\H2.5000;n\fArial|b0|i0;\W0.65;\H2.5000; 11.5
  7
_Schriftfeld_3.5mm
 73
     1
 44
1.0
  0
MTEXT
  5
14A
330
135
100
AcDbEntity
  8
Titel (ISO)
100
AcDbMText
 10
19.0
 20
-18.00000000000004
 30
0.0
 40
2.5
 41
0.0
 46
0.0
 71
     1
 72
     1
  1
\fArial|b0|i0;\W0.88;\H2.5000;13.6
  7
_Schriftfeld_3.5mm
 73
     1
 44
1.0
  0
MTEXT
  5
14B
330
135
100
AcDbEntity
  8
Titel (ISO)
100
AcDbMText
 10
-3.999999999999994
 20
21.00000014901159
 30
0.0
 40
2.5
 41
0.0
 46
0.0
 71
     1
 72
     1
  1
\fArial|b0|i0;\W0.78;\H2.5000;Mass B
  7
_Schriftfeld_3.5mm
 73
     1
 44
1.0
  0
MTEXT
  5
14C
330
135
100
AcDbEntity
  8
Titel (ISO)
100
AcDbMText
 10
-0.9999999999999964
 20
5.999999999999978
 30
0.0
 40
2.5
 41
0.0
 46
0.0
 71
     1
 72
     1
  1
\fArial|b0|i0;\W0.90;\H2.5000;4kt.  8
  7
_Schriftfeld_3.5mm
 73
     1
 44
1.0
  0
MTEXT
  5
14D
330
135
100
AcDbEntity
  8
Titel (ISO)
100
AcDbMText
 10
-0.9999999999999964
 20
-2.000000000000028
 30
0.0
 40
2.5
 41
0.0
 46
0.0
 71
     1
 72
     1
  1
\fArial|b0|i0;\W0.83;\H2.5000;4kt. 8.5
  7
_Schriftfeld_3.5mm
 73
     1
 44
1.0
  0
MTEXT
  5
14E
330
135
100
AcDbEntity
  8
Titel (ISO)
100
AcDbMText
 10
-0.9999999999999964
 20
14.00000014901159
 30
0.0
 40
2.5
 41
0.0
 46
0.0
 71
     1
 72
     1
  1
\fArial|b0|i0;\W0.90;\H2.5000;4kt.  7
  7
_Schriftfeld_3.5mm
 73
     1
 44
1.0
  0
MTEXT
  5
14F
330
135
100
AcDbEntity
  8
Titel (ISO)
100
AcDbMText
 10
-0.9999999999999964
 20
-10.00000000000003
 30
0.0
 40
2.5
 41
0.0
 46
0.0
 71
     1
 72
     1
  1
\fArial|b0|i0;\W0.90;\H2.5000;4kt.  9
  7
_Schriftfeld_3.5mm
 73
     1
 44
1.0
  0
MTEXT
  5
150
330
135
100
AcDbEntity
  8
Titel (ISO)
100
AcDbMText
 10
-21.0
 20
-2.000000000000028
 30
0.0
 40
2.5
 41
0.0
 46
0.0
 71
     1
 72
     1
  1
\fAIGDT|b0|i0;\W0.76;\H2.5000;n\fArial|b0|i0;\W0.76;\H2.5000; 10.5
  7
_Schriftfeld_3.5mm
 73
     1
 44
1.0
  0
MTEXT
  5
151
330
135
100
AcDbEntity
  8
Titel (ISO)
100
AcDbMText
 10
-21.0
 20
5.999999999999978
 30
0.0
 40
2.5
 41
0.0
 46
0.0
 71
     1
 72
     1
  1
\fAIGDT|b0|i0;\W0.73;\H2.5000;n\fArial|b0|i0;\W0.73;\H2.5000; 10
  7
_Schriftfeld_3.5mm
 73
     1
 44
1.0
  0
MTEXT
  5
152
330
135
100
AcDbEntity
  8
Titel (ISO)
100
AcDbMText
 10
-21.0
 20
-10.00000000000003
 30
0.0
 40
2.5
 41
0.0
 46
0.0
 71
     1
 72
     1
  1
\fAIGDT|b0|i0;\W0.69;\H2.5000;n\fArial|b0|i0;\W0.69;\H2.5000; 11
  7
_Schriftfeld_3.5mm
 73
     1
 44
1.0
  0
MTEXT
  5
153
330
135
100
AcDbEntity
  8
Titel (ISO)
100
AcDbMText
 10
-21.0
 20
13.99999999999998
 30
0.0
 40
2.5
 41
0.0
 46
0.0
 71
     1
 72
     1
  1
\fAIGDT|b0|i0;\W0.84;\H2.5000;n\fArial|b0|i0;\W0.84;\H2.5000; 8
  7
_Schriftfeld_3.5mm
 73
     1
 44
1.0
  0
MTEXT
  5
154
330
135
100
AcDbEntity
  8
Titel (ISO)
100
AcDbMText
 10
-22.02576666302079
 20
21.00000014901159
 30
0.0
 40
2.5
 41
0.0
 46
0.0
 71
     1
 72
     1
  1
\fArial|b0|i0;\W0.79;\H2.5000;Mass A
  7
_Schriftfeld_3.5mm
 73
     1
 44
1.0
  0
MTEXT
  5
155
330
135
100
AcDbEntity
  8
Titel (ISO)
100
AcDbMText
 10
-31.0
 20
-17.96760666370396
 30
0.0
 40
2.5
 41
0.0
 46
0.0
 71
     1
 72
     1
  1
\fArial|b0|i0;\W0.56;\H2.5000;5
  7
_Schriftfeld_3.5mm
 73
     1
 44
1.0
  0
MTEXT
  5
156
330
135
100
AcDbEntity
  8
Titel (ISO)
100
AcDbMText
 10
19.0
 20
-2.000000000000028
 30
0.0
 40
2.5
 41
0.0
 46
0.0
 71
     1
 72
     1
  1
\fArial|b0|i0;\W0.83;\H2.5000;12
  7
_Schriftfeld_3.5mm
 73
     1
 44
1.0
  0
MTEXT
  5
157
330
135
100
AcDbEntity
  8
Titel (ISO)
100
AcDbMText
 10
19.0
 20
5.999999999999978
 30
0.0
 40
2.5
 41
0.0
 46
0.0
 71
     1
 72
     1
  1
\fArial|b0|i0;\W0.90;\H2.5000;11.3
  7
_Schriftfeld_3.5mm
 73
     1
 44
1.0
  0
MTEXT
  5
158
330
135
100
AcDbEntity
  8
Titel (ISO)
100
AcDbMText
 10
16.0
 20
20.99999999999998
 30
0.0
 40
2.5
 41
0.0
 46
0.0
 71
     1
 72
     1
  1
\fArial|b0|i0;\W0.78;\H2.5000;Mass C
  7
_Schriftfeld_3.5mm
 73
     1
 44
1.0
  0
MTEXT
  5
159
330
135
100
AcDbEntity
  8
Titel (ISO)
100
AcDbMText
 10
19.0
 20
-10.00000000000003
 30
0.0
 40
2.5
 41
0.0
 46
0.0
 71
     1
 72
     1
  1
\fArial|b0|i0;\W0.90;\H2.5000;12.7
  7
_Schriftfeld_3.5mm
 73
     1
 44
1.0
  0
MTEXT
  5
15A
330
135
100
AcDbEntity
  8
Titel (ISO)
100
AcDbMText
 10
19.0
 20
13.99999999999998
 30
0.0
 40
2.5
 41
0.0
 46
0.0
 71
     1
 72
     1
  1
\fArial|b0|i0;\W0.90;\H2.5000;10
  7
_Schriftfeld_3.5mm
 73
     1
 44
1.0
  0
MTEXT
  5
15B
330
135
100
AcDbEntity
  8
Titel (ISO)
100
AcDbMText
 10
7.52309499999999
 20
23.50279363516371
 30
0.0
 40
2.5
 41
0.0
 46
0.0
 71
     1
 72
     1
  1
\fArial|b0|i0;\W0.68;\H2.5000;+0.05
  7
_Schriftfeld_3.5mm
 73
     1
 44
1.0
  0
MTEXT
  5
15C
330
135
100
AcDbEntity
  8
Titel (ISO)
100
AcDbMText
 10
28.821548797772
 20
20.00279363516373
 30
0.0
 40
2.5
 41
0.0
 46
0.0
 71
     1
 72
     1
  1
\fArial|b0|i0;\W0.63;\H2.5000;0
  7
_Schriftfeld_3.5mm
 73
     1
 44
1.0
  0
MTEXT
  5
15D
330
135
100
AcDbEntity
  8
Titel (ISO)
100
AcDbMText
 10
27.523095
 20
23.50279363516371
 30
0.0
 40
2.5
 41
0.0
 46
0.0
 71
     1
 72
     1
  1
\fArial|b0|i0;\W0.68;\H2.5000;+0.2
  7
_Schriftfeld_3.5mm
 73
     1
 44
1.0
  0
MTEXT
  5
15E
330
135
100
AcDbEntity
  8
Titel (ISO)
100
AcDbMText
 10
-31.0
 20
-2.000000000000028
 30
0.0
 40
2.5
 41
0.0
 46
0.0
 71
     1
 72
     1
  1
\fArial|b0|i0;\W0.60;\H2.5000;3
  7
_Schriftfeld_3.5mm
 73
     1
 44
1.0
  0
MTEXT
  5
15F
330
135
100
AcDbEntity
  8
Titel (ISO)
100
AcDbMText
 10
7.52309499999999
 20
20.00279363516373
 30
0.0
 40
2.5
 41
0.0
 46
0.0
 71
     1
 72
     1
  1
\fArial|b0|i0;\W0.63;\H2.5000;+0.01
  7
_Schriftfeld_3.5mm
 73
     1
 44
1.0
  0
ENDBLK
  5
137
330
135
100
AcDbEntity
  8
0
100
AcDbBlockEnd
  0
BLOCK
  5
161
330
160
100
AcDbEntity
  8
0
100
AcDbBlockBegin
  2
Laserpunkt_Text
 70
     0
 10
0.0
 20
0.0
 30
0.0
  3
Laserpunkt_Text
  1

  0
CIRCLE
  5
163
330
160
100
AcDbEntity
  8
Skizziergeometrie(DIN)
370
    70
100
AcDbCircle
 10
3.715998998176779
 20
2.6456025353386
 30
0.0
 40
2.250000000000003
  0
LINE
  5
164
330
160
100
AcDbEntity
  8
Skizziergeometrie(DIN)
370
    70
100
AcDbLine
 10
6.014096037033063
 20
0.3475054964822988
 30
0.0
 11
1.417901959320495
 21
4.943699574194866
 31
0.0
  0
LINE
  5
165
330
160
100
AcDbEntity
  8
Skizziergeometrie(DIN)
370
    70
100
AcDbLine
 10
1.417901959320513
 20
0.3475054964822988
 30
0.0
 11
6.01409603703308
 21
4.943699574194866
 31
0.0
  0
MTEXT
  5
166
330
160
100
AcDbEntity
  8
Symbole(DIN)
 62
   179
420
  2500185
100
AcDbMText
 10
0.0
 20
-0.1396086563666721
 30
0.0
 40
3.499999940395355
 41
0.0
 46
0.0
 71
     7
 72
     1
  1
Kontur gelasert nach DXF-File\P      = Anfang/Ende Laserkontur 
  7
Aktuell-DIN
 73
     2
 44
0.9442214965820312
  0
ENDBLK
  5
162
330
160
100
AcDbEntity
  8
0
100
AcDbBlockEnd
  0
BLOCK
  5
168
330
167
100
AcDbEntity
  8
0
100
AcDbBlockBegin
  2
Laserpunkt
 70
     0
 10
0.0
 20
0.0
 30
0.0
  3
Laserpunkt
  1

  0
CIRCLE
  5
16A
330
167
100
AcDbEntity
  8
Skizziergeometrie(DIN)
370
    70
100
AcDbCircle
 10
0.0
 20
0.0
 30
0.0
 40
2.250000000000003
  0
LINE
  5
16B
330
167
100
AcDbEntity
  8
Skizziergeometrie(DIN)
370
    70
100
AcDbLine
 10
2.298097038856283
 20
-2.298097038856301
 30
0.0
 11
-2.298097038856283
 21
2.298097038856266
 31
0.0
  0
LINE
  5
16C
330
167
100
AcDbEntity
  8
Skizziergeometrie(DIN)
370
    70
100
AcDbLine
 10
-2.298097038856266
 20
-2.298097038856301
 30
0.0
 11
2.298097038856301
 21
2.298097038856266
 31
0.0
  0
ENDBLK
  5
169
330
167
100
AcDbEntity
  8
0
100
AcDbBlockEnd
  0
BLOCK
  5
1D4
330
1D3
100
AcDbEntity
  8
0
100
AcDbBlockBegin
  2
*D16
 70
     1
 10
0.0
 20
0.0
 30
0.0
  3
*D16
  1

  0
LINE
  5
2AB
330
1D3
100
AcDbEntity
  8
Bemaßungen(DIN)
  6
Continuous
 62
   250
420
  4144959
440
 16777216
370
    25
100
AcDbLine
 10
172.91794920336
 20
373.5737086165932
 30
0.0
 11
172.91794920336
 21
429.8740910831719
 31
0.0
  0
LINE
  5
2AC
330
1D3
100
AcDbEntity
  8
Bemaßungen(DIN)
  6
Continuous
 62
   250
420
  4144959
440
 16777216
370
    25
100
AcDbLine
 10
143.1179492033599
 20
373.5737086165932
 30
0.0
 11
143.1179492033599
 21
429.8740910831719
 31
0.0
  0
LINE
  5
2AD
330
1D3
100
AcDbEntity
  8
Bemaßungen(DIN)
  6
Continuous
 62
   250
420
  4144959
440
 16777216
370
    25
100
AcDbLine
 10
167.91794920336
 20
423.5240910831719
 30
0.0
 11
148.1179492033599
 21
423.5240910831719
 31
0.0
  0
SOLID
  5
2AE
330
1D3
100
AcDbEntity
  8
Bemaßungen(DIN)
  6
Continuous
 62
   250
420
  4144959
440
 16777216
100
AcDbTrace
 10
167.91794920336
 20
424.3574244165053
 30
0.0
 11
167.91794920336
 21
422.6907577498386
 31
0.0
 12
172.91794920336
 22
423.5240910831719
 32
0.0
 13
172.91794920336
 23
423.5240910831719
 33
0.0
  0
SOLID
  5
2AF
330
1D3
100
AcDbEntity
  8
Bemaßungen(DIN)
  6
Continuous
 62
   250
420
  4144959
440
 16777216
100
AcDbTrace
 10
148.1179492033599
 20
424.3574244165053
 30
0.0
 11
148.1179492033599
 21
422.6907577498386
 31
0.0
 12
143.1179492033599
 22
423.5240910831719
 32
0.0
 13
143.1179492033599
 23
423.5240910831719
 33
0.0
  0
MTEXT
  5
2B0
330
1D3
100
AcDbEntity
  8
Bemaßungen(DIN)
  6
Continuous
 62
   250
420
  4144959
440
 16777216
370
    25
100
AcDbMText
 10
153.0186313025002
 20
432.2768878505912
 30
0.0
 40
7.0
 41
0.0
 46
0.0
 71
     1
 72
     1
  1
\A1;30
  7
STANDARD-DIN~0
 73
     1
 44
1.0
  0
POINT
  5
2B1
330
1D3
100
AcDbEntity
  8
Defpoints
  6
Continuous
 62
     0
440
 16777216
100
AcDbPoint
 10
172.91794920336
 20
373.5737086165932
 30
0.0
  0
POINT
  5
2B2
330
1D3
100
AcDbEntity
  8
Defpoints
  6
Continuous
 62
     0
440
 16777216
100
AcDbPoint
 10
143.1179492033599
 20
373.5737086165932
 30
0.0
  0
POINT
  5
2B3
330
1D3
100
AcDbEntity
  8
Defpoints
  6
Continuous
 62
     0
440
 16777216
100
AcDbPoint
 10
143.1179492033599
 20
423.5240910831719
 30
0.0
  0
ENDBLK
  5
1D5
330
1D3
100
AcDbEntity
  8
0
100
AcDbBlockEnd
  0
BLOCK
  5
2B6
330
2B5
100
AcDbEntity
  8
0
100
AcDbBlockBegin
  2
*D17
 70
     1
 10
0.0
 20
0.0
 30
0.0
  3
*D17
  1

  0
LINE
  5
39B
330
2B5
100
AcDbEntity
  8
Bemaßungen(DIN)
  6
Continuous
 62
   250
420
  4144959
440
 16777216
370
    25
100
AcDbLine
 10
293.706905007582
 20
239.8237086165932
 30
0.0
 11
293.706905007582
 21
213.4737086165932
 31
0.0
  0
LINE
  5
39C
330
2B5
100
AcDbEntity
  8
Bemaßungen(DIN)
  6
Continuous
 62
   250
420
  4144959
440
 16777216
370
    25
100
AcDbLine
 10
313.7069050075821
 20
239.8237086165932
 30
0.0
 11
313.7069050075821
 21
213.4737086165932
 31
0.0
  0
LINE
  5
39D
330
2B5
100
AcDbEntity
  8
Bemaßungen(DIN)
  6
Continuous
 62
   250
420
  4144959
440
 16777216
370
    25
100
AcDbLine
 10
308.7069050075821
 20
219.8237086165931
 30
0.0
 11
298.7069050075821
 21
219.8237086165931
 31
0.0
  0
LINE
  5
39E
330
2B5
100
AcDbEntity
  8
Bemaßungen(DIN)
  6
Continuous
 62
   250
420
  4144959
440
 16777216
370
    25
100
AcDbLine
 10
293.706905007582
 20
219.8237086165931
 30
0.0
 11
265.7945052638509
 21
219.8237086165931
 31
0.0
  0
SOLID
  5
39F
330
2B5
100
AcDbEntity
  8
Bemaßungen(DIN)
  6
Continuous
 62
   250
420
  4144959
440
 16777216
100
AcDbTrace
 10
308.7069050075821
 20
220.6570419499265
 30
0.0
 11
308.7069050075821
 21
218.9903752832598
 31
0.0
 12
313.7069050075821
 22
219.8237086165931
 32
0.0
 13
313.7069050075821
 23
219.8237086165931
 33
0.0
  0
SOLID
  5
3A0
330
2B5
100
AcDbEntity
  8
Bemaßungen(DIN)
  6
Continuous
 62
   250
420
  4144959
440
 16777216
100
AcDbTrace
 10
298.7069050075821
 20
220.6570419499265
 30
0.0
 11
298.7069050075821
 21
218.9903752832598
 31
0.0
 12
293.706905007582
 22
219.8237086165931
 32
0.0
 13
293.706905007582
 23
219.8237086165931
 33
0.0
  0
MTEXT
  5
3A1
330
2B5
100
AcDbEntity
  8
Bemaßungen(DIN)
  6
Continuous
 62
   250
420
  4144959
440
 16777216
370
    25
100
AcDbMText
 10
267.3945052638509
 20
231.9559028290214
 30
0.0
 40
7.0
 41
0.0
 46
0.0
 71
     1
 72
     1
  1
\A1;{\fAIGDT|b0|i0;\H7.0000;\ln\fArial|b0|i0;\H7.0000;}20
  7
STANDARD-DIN~0
 73
     1
 44
1.0
  0
POINT
  5
3A2
330
2B5
100
AcDbEntity
  8
Defpoints
  6
Continuous
 62
     0
440
 16777216
100
AcDbPoint
 10
293.706905007582
 20
239.8237086165932
 30
0.0
  0
POINT
  5
3A3
330
2B5
100
AcDbEntity
  8
Defpoints
  6
Continuous
 62
     0
440
 16777216
100
AcDbPoint
 10
313.7069050075821
 20
239.8237086165932
 30
0.0
  0
POINT
  5
3A4
330
2B5
100
AcDbEntity
  8
Defpoints
  6
Continuous
 62
     0
440
 16777216
100
AcDbPoint
 10
313.7069050075821
 20
219.8237086165931
 30
0.0
  0
ENDBLK
  5
2B7
330
2B5
100
AcDbEntity
  8
0
100
AcDbBlockEnd
  0
BLOCK
  5
3A7
330
3A6
100
AcDbEntity
  8
0
100
AcDbBlockBegin
  2
*D18
 70
     1
 10
0.0
 20
0.0
 30
0.0
  3
*D18
  1

  0
LINE
  5
47E
330
3A6
100
AcDbEntity
  8
Bemaßungen(DIN)
  6
Continuous
 62
   250
420
  4144959
440
 16777216
370
    25
100
AcDbLine
 10
242.7069050075864
 20
331.0737086165931
 30
0.0
 11
242.7069050075864
 21
187.8641595357231
 31
0.0
  0
LINE
  5
47F
330
3A6
100
AcDbEntity
  8
Bemaßungen(DIN)
  6
Continuous
 62
   250
420
  4144959
440
 16777216
370
    25
100
AcDbLine
 10
313.7069050075821
 20
239.8237086165932
 30
0.0
 11
313.7069050075821
 21
187.8641595357231
 31
0.0
  0
LINE
  5
480
330
3A6
100
AcDbEntity
  8
Bemaßungen(DIN)
  6
Continuous
 62
   250
420
  4144959
440
 16777216
370
    25
100
AcDbLine
 10
247.7069050075864
 20
194.2141595357231
 30
0.0
 11
308.7069050075821
 21
194.2141595357231
 31
0.0
  0
SOLID
  5
481
330
3A6
100
AcDbEntity
  8
Bemaßungen(DIN)
  6
Continuous
 62
   250
420
  4144959
440
 16777216
100
AcDbTrace
 10
247.7069050075864
 20
195.0474928690564
 30
0.0
 11
247.7069050075864
 21
193.3808262023897
 31
0.0
 12
242.7069050075864
 22
194.2141595357231
 32
0.0
 13
242.7069050075864
 23
194.2141595357231
 33
0.0
  0
SOLID
  5
482
330
3A6
100
AcDbEntity
  8
Bemaßungen(DIN)
  6
Continuous
 62
   250
420
  4144959
440
 16777216
100
AcDbTrace
 10
308.7069050075821
 20
195.0474928690564
 30
0.0
 11
308.7069050075821
 21
193.3808262023897
 31
0.0
 12
313.7069050075821
 22
194.2141595357231
 32
0.0
 13
313.7069050075821
 23
194.2141595357231
 33
0.0
  0
MTEXT
  5
483
330
3A6
100
AcDbEntity
  8
Bemaßungen(DIN)
  6
Continuous
 62
   250
420
  4144959
440
 16777216
370
    25
100
AcDbMText
 10
273.8975598256111
 20
202.8428089627198
 30
0.0
 40
7.0
 41
0.0
 46
0.0
 71
     1
 72
     1
  1
\A1;71
  7
STANDARD-DIN~0
 73
     1
 44
1.0
  0
POINT
  5
484
330
3A6
100
AcDbEntity
  8
Defpoints
  6
Continuous
 62
     0
440
 16777216
100
AcDbPoint
 10
242.7069050075864
 20
331.0737086165931
 30
0.0
  0
POINT
  5
485
330
3A6
100
AcDbEntity
  8
Defpoints
  6
Continuous
 62
     0
440
 16777216
100
AcDbPoint
 10
313.7069050075821
 20
239.8237086165932
 30
0.0
  0
POINT
  5
486
330
3A6
100
AcDbEntity
  8
Defpoints
  6
Continuous
 62
     0
440
 16777216
100
AcDbPoint
 10
313.7069050075821
 20
194.2141595357231
 30
0.0
  0
ENDBLK
  5
3A8
330
3A6
100
AcDbEntity
  8
0
100
AcDbBlockEnd
  0
BLOCK
  5
48A
330
489
100
AcDbEntity
  8
0
100
AcDbBlockBegin
  2
*D19
 70
     1
 10
0.0
 20
0.0
 30
0.0
  3
*D19
  1

  0
LINE
  5
567
330
489
100
AcDbEntity
  8
Bemaßungen(DIN)
  6
Continuous
 62
   250
420
  4144959
440
 16777216
370
    25
100
AcDbLine
 10
158.0179492033599
 20
388.4492727912689
 30
0.0
 11
95.66794920335928
 21
388.4492727912689
 31
0.0
  0
LINE
  5
568
330
489
100
AcDbEntity
  8
Bemaßungen(DIN)
  6
Continuous
 62
   250
420
  4144959
440
 16777216
370
    25
100
AcDbLine
 10
158.0179492033592
 20
316.1864828817134
 30
0.0
 11
95.66794920335928
 21
316.1864828817134
 31
0.0
  0
LINE
  5
569
330
489
100
AcDbEntity
  8
Bemaßungen(DIN)
  6
Continuous
 62
   250
420
  4144959
440
 16777216
370
    25
100
AcDbLine
 10
102.0179492033592
 20
383.4492727912689
 30
0.0
 11
102.0179492033592
 21
321.1864828817135
 31
0.0
  0
SOLID
  5
56A
330
489
100
AcDbEntity
  8
Bemaßungen(DIN)
  6
Continuous
 62
   250
420
  4144959
440
 16777216
100
AcDbTrace
 10
101.1846158700259
 20
383.4492727912689
 30
0.0
 11
102.8512825366926
 21
383.4492727912689
 31
0.0
 12
102.0179492033592
 22
388.4492727912689
 32
0.0
 13
102.0179492033592
 23
388.4492727912689
 33
0.0
  0
SOLID
  5
56B
330
489
100
AcDbEntity
  8
Bemaßungen(DIN)
  6
Continuous
 62
   250
420
  4144959
440
 16777216
100
AcDbTrace
 10
101.1846158700259
 20
321.1864828817135
 30
0.0
 11
102.8512825366926
 21
321.1864828817135
 31
0.0
 12
102.0179492033592
 22
316.1864828817134
 32
0.0
 13
102.0179492033592
 23
316.1864828817134
 33
0.0
  0
MTEXT
  5
56C
330
489
100
AcDbEntity
  8
Bemaßungen(DIN)
  6
Continuous
 62
   250
420
  4144959
440
 16777216
370
    25
100
AcDbMText
 10
93.38929977636253
 20
347.3686963615713
 30
0.0
 40
7.0
 41
0.0
 46
0.0
 71
     1
 72
     1
  1
\A1;72
  7
STANDARD-DIN~0
 11
0.0000000000000001
 21
1.0
 31
0.0
 73
     1
 44
1.0
  0
POINT
  5
56D
330
489
100
AcDbEntity
  8
Defpoints
  6
Continuous
 62
     0
440
 16777216
100
AcDbPoint
 10
158.0179492033599
 20
388.4492727912689
 30
0.0
  0
POINT
  5
56E
330
489
100
AcDbEntity
  8
Defpoints
  6
Continuous
 62
     0
440
 16777216
100
AcDbPoint
 10
158.0179492033592
 20
316.1864828817134
 30
0.0
  0
POINT
  5
56F
330
489
100
AcDbEntity
  8
Defpoints
  6
Continuous
 62
     0
440
 16777216
100
AcDbPoint
 10
102.0179492033592
 20
316.1864828817134
 30
0.0
  0
ENDBLK
  5
48B
330
489
100
AcDbEntity
  8
0
100
AcDbBlockEnd
  0
BLOCK
  5
572
330
571
100
AcDbEntity
  8
0
100
AcDbBlockBegin
  2
*D20
 70
     1
 10
0.0
 20
0.0
 30
0.0
  3
*D20
  1

  0
LINE
  5
64F
330
571
100
AcDbEntity
  8
Bemaßungen(DIN)
  6
Continuous
 62
   250
420
  4144959
440
 16777216
370
    25
100
AcDbLine
 10
265.706905007582
 20
362.3237086165931
 30
0.0
 11
356.5687945662907
 21
362.3237086165931
 31
0.0
  0
LINE
  5
650
330
571
100
AcDbEntity
  8
Bemaßungen(DIN)
  6
Continuous
 62
   250
420
  4144959
440
 16777216
370
    25
100
AcDbLine
 10
312.506905007582
 20
236.8237086165931
 30
0.0
 11
356.5687945662907
 21
236.8237086165931
 31
0.0
  0
LINE
  5
651
330
571
100
AcDbEntity
  8
Bemaßungen(DIN)
  6
Continuous
 62
   250
420
  4144959
440
 16777216
370
    25
100
AcDbLine
 10
350.2187945662907
 20
357.3237086165931
 30
0.0
 11
350.2187945662907
 21
241.8237086165931
 31
0.0
  0
SOLID
  5
652
330
571
100
AcDbEntity
  8
Bemaßungen(DIN)
  6
Continuous
 62
   250
420
  4144959
440
 16777216
100
AcDbTrace
 10
349.3854612329574
 20
357.3237086165931
 30
0.0
 11
351.052127899624
 21
357.3237086165931
 31
0.0
 12
350.2187945662907
 22
362.3237086165931
 32
0.0
 13
350.2187945662907
 23
362.3237086165931
 33
0.0
  0
SOLID
  5
653
330
571
100
AcDbEntity
  8
Bemaßungen(DIN)
  6
Continuous
 62
   250
420
  4144959
440
 16777216
100
AcDbTrace
 10
349.3854612329574
 20
241.8237086165931
 30
0.0
 11
351.052127899624
 21
241.8237086165931
 31
0.0
 12
350.2187945662907
 22
236.8237086165931
 32
0.0
 13
350.2187945662907
 23
236.8237086165931
 33
0.0
  0
MTEXT
  5
654
330
571
100
AcDbEntity
  8
Bemaßungen(DIN)
  6
Continuous
 62
   250
420
  4144959
440
 16777216
370
    25
100
AcDbMText
 10
341.4707726965799
 20
292.172617168329
 30
0.0
 40
7.0
 41
0.0
 46
0.0
 71
     1
 72
     1
  1
\A1;126
  7
STANDARD-DIN~0
 11
0.0000000000000001
 21
1.0
 31
0.0
 73
     1
 44
1.0
  0
POINT
  5
655
330
571
100
AcDbEntity
  8
Defpoints
  6
Continuous
 62
     0
440
 16777216
100
AcDbPoint
 10
265.706905007582
 20
362.3237086165931
 30
0.0
  0
POINT
  5
656
330
571
100
AcDbEntity
  8
Defpoints
  6
Continuous
 62
     0
440
 16777216
100
AcDbPoint
 10
312.506905007582
 20
236.8237086165931
 30
0.0
  0
POINT
  5
657
330
571
100
AcDbEntity
  8
Defpoints
  6
Continuous
 62
     0
440
 16777216
100
AcDbPoint
 10
350.2187945662907
 20
236.8237086165931
 30
0.0
  0
ENDBLK
  5
573
330
571
100
AcDbEntity
  8
0
100
AcDbBlockEnd
  0
BLOCK
  5
65A
330
659
100
AcDbEntity
  8
0
100
AcDbBlockBegin
  2
*D21
 70
     1
 10
0.0
 20
0.0
 30
0.0
  3
*D21
  1

  0
LINE
  5
74B
330
659
100
AcDbEntity
  8
Bemaßungen(DIN)
  6
Continuous
 62
   250
420
  4144959
440
 16777216
370
    25
100
AcDbLine
 10
242.7069050075776
 20
373.5737086165932
 30
0.0
 11
242.7069050075776
 21
429.8740910831719
 31
0.0
  0
LINE
  5
74C
330
659
100
AcDbEntity
  8
Bemaßungen(DIN)
  6
Continuous
 62
   250
420
  4144959
440
 16777216
370
    25
100
AcDbLine
 10
254.7069050075782
 20
373.5737086165932
 30
0.0
 11
254.7069050075782
 21
429.8740910831719
 31
0.0
  0
LINE
  5
74D
330
659
100
AcDbEntity
  8
Bemaßungen(DIN)
  6
Continuous
 62
   250
420
  4144959
440
 16777216
370
    25
100
AcDbLine
 10
237.7069050075776
 20
423.5240910831719
 30
0.0
 11
232.7069050075776
 21
423.5240910831719
 31
0.0
  0
LINE
  5
74E
330
659
100
AcDbEntity
  8
Bemaßungen(DIN)
  6
Continuous
 62
   250
420
  4144959
440
 16777216
370
    25
100
AcDbLine
 10
259.7069050075782
 20
423.5240910831719
 30
0.0
 11
264.7069050075782
 21
423.5240910831719
 31
0.0
  0
LINE
  5
74F
330
659
100
AcDbEntity
  8
Bemaßungen(DIN)
  6
Continuous
 62
   250
420
  4144959
440
 16777216
370
    25
100
AcDbLine
 10
242.7069050075776
 20
423.5240910831719
 30
0.0
 11
254.7069050075782
 21
423.5240910831719
 31
0.0
  0
SOLID
  5
750
330
659
100
AcDbEntity
  8
Bemaßungen(DIN)
  6
Continuous
 62
   250
420
  4144959
440
 16777216
100
AcDbTrace
 10
237.7069050075776
 20
424.3574244165053
 30
0.0
 11
237.7069050075776
 21
422.6907577498386
 31
0.0
 12
242.7069050075776
 22
423.5240910831719
 32
0.0
 13
242.7069050075776
 23
423.5240910831719
 33
0.0
  0
SOLID
  5
751
330
659
100
AcDbEntity
  8
Bemaßungen(DIN)
  6
Continuous
 62
   250
420
  4144959
440
 16777216
100
AcDbTrace
 10
259.7069050075782
 20
424.3574244165053
 30
0.0
 11
259.7069050075782
 21
422.6907577498386
 31
0.0
 12
254.7069050075782
 22
423.5240910831719
 32
0.0
 13
254.7069050075782
 23
423.5240910831719
 33
0.0
  0
MTEXT
  5
752
330
659
100
AcDbEntity
  8
Bemaßungen(DIN)
  6
Continuous
 62
   250
420
  4144959
440
 16777216
370
    25
100
AcDbMText
 10
244.0585420882971
 20
432.1527405101686
 30
0.0
 40
7.0
 41
0.0
 46
0.0
 71
     1
 72
     1
  1
\A1;12
  7
STANDARD-DIN~0
 73
     1
 44
1.0
  0
POINT
  5
753
330
659
100
AcDbEntity
  8
Defpoints
  6
Continuous
 62
     0
440
 16777216
100
AcDbPoint
 10
242.7069050075776
 20
373.5737086165932
 30
0.0
  0
POINT
  5
754
330
659
100
AcDbEntity
  8
Defpoints
  6
Continuous
 62
     0
440
 16777216
100
AcDbPoint
 10
254.7069050075782
 20
373.5737086165932
 30
0.0
  0
POINT
  5
755
330
659
100
AcDbEntity
  8
Defpoints
  6
Continuous
 62
     0
440
 16777216
100
AcDbPoint
 10
254.7069050075782
 20
423.5240910831719
 30
0.0
  0
ENDBLK
  5
65B
330
659
100
AcDbEntity
  8
0
100
AcDbBlockEnd
  0
BLOCK
  5
759
330
758
100
AcDbEntity
  8
0
100
AcDbBlockBegin
  2
*D22
 70
     1
 10
0.0
 20
0.0
 30
0.0
  3
*D22
  1

  0
LINE
  5
836
330
758
100
AcDbEntity
  8
Bemaßungen(DIN)
  6
Continuous
 62
   250
420
  4144959
440
 16777216
370
    25
100
AcDbLine
 10
135.118506140056
 20
331.0737086165931
 30
0.0
 11
115.4612500094819
 21
331.0737086165932
 31
0.0
  0
LINE
  5
837
330
758
100
AcDbEntity
  8
Bemaßungen(DIN)
  6
Continuous
 62
   250
420
  4144959
440
 16777216
370
    25
100
AcDbLine
 10
136.4596461375506
 20
373.5737086165932
 30
0.0
 11
115.4612500094819
 21
373.5737086165932
 31
0.0
  0
LINE
  5
838
330
758
100
AcDbEntity
  8
Bemaßungen(DIN)
  6
Continuous
 62
   250
420
  4144959
440
 16777216
370
    25
100
AcDbLine
 10
121.8112500094819
 20
336.0737086165932
 30
0.0
 11
121.8112500094819
 21
368.5737086165933
 31
0.0
  0
SOLID
  5
839
330
758
100
AcDbEntity
  8
Bemaßungen(DIN)
  6
Continuous
 62
   250
420
  4144959
440
 16777216
100
AcDbTrace
 10
120.9779166761486
 20
336.0737086165932
 30
0.0
 11
122.6445833428152
 21
336.0737086165932
 31
0.0
 12
121.8112500094819
 22
331.0737086165932
 32
0.0
 13
121.8112500094819
 23
331.0737086165932
 33
0.0
  0
SOLID
  5
83A
330
758
100
AcDbEntity
  8
Bemaßungen(DIN)
  6
Continuous
 62
   250
420
  4144959
440
 16777216
100
AcDbTrace
 10
120.9779166761486
 20
368.5737086165933
 30
0.0
 11
122.6445833428152
 21
368.5737086165933
 31
0.0
 12
121.8112500094819
 22
373.5737086165932
 32
0.0
 13
121.8112500094819
 23
373.5737086165932
 33
0.0
  0
MTEXT
  5
83B
330
758
100
AcDbEntity
  8
Bemaßungen(DIN)
  6
Continuous
 62
   250
420
  4144959
440
 16777216
370
    25
100
AcDbMText
 10
113.0584532420627
 20
347.1692065402053
 30
0.0
 40
7.0
 41
0.0
 46
0.0
 71
     1
 72
     1
  1
\A1;43
  7
STANDARD-DIN~0
 11
0.0000000000000001
 21
1.0
 31
0.0
 73
     1
 44
1.0
  0
POINT
  5
83C
330
758
100
AcDbEntity
  8
Defpoints
  6
Continuous
 62
     0
440
 16777216
100
AcDbPoint
 10
135.118506140056
 20
331.0737086165931
 30
0.0
  0
POINT
  5
83D
330
758
100
AcDbEntity
  8
Defpoints
  6
Continuous
 62
     0
440
 16777216
100
AcDbPoint
 10
136.4596461375506
 20
373.5737086165932
 30
0.0
  0
POINT
  5
83E
330
758
100
AcDbEntity
  8
Defpoints
  6
Continuous
 62
     0
440
 16777216
100
AcDbPoint
 10
121.8112500094819
 20
373.5737086165932
 30
0.0
  0
ENDBLK
  5
75A
330
758
100
AcDbEntity
  8
0
100
AcDbBlockEnd
  0
ENDSEC
  0
SECTION
  2
ENTITIES
  0
LINE
  5
16D
330
6C
100
AcDbEntity
  8
Sichtbare Kanten(DIN)
100
AcDbLine
 10
168.0179492033599
 20
327.8237086165932
 30
0.0
 11
148.0179492033599
 21
327.8237086165932
 31
0.0
  0
LINE
  5
16E
330
6C
100
AcDbEntity
  8
Sichtbare Kanten(DIN)
100
AcDbLine
 10
168.0179492033599
 20
330.8237086165931
 30
0.0
 11
168.0179492033599
 21
327.8237086165932
 31
0.0
  0
LINE
  5
16F
330
6C
100
AcDbEntity
  8
Sichtbare Kanten(DIN)
100
AcDbLine
 10
148.0179492033599
 20
330.8237086165931
 30
0.0
 11
148.0179492033599
 21
327.8237086165932
 31
0.0
  0
LINE
  5
170
330
6C
100
AcDbEntity
  8
Sichtbare Kanten(DIN)
100
AcDbLine
 10
168.0179492033599
 20
330.8237086165931
 30
0.0
 11
148.0179492033599
 21
330.8237086165931
 31
0.0
  0
ARC
  5
171
330
6C
100
AcDbEntity
  8
Sichtbare Kanten(DIN)
100
AcDbCircle
 10
144.01794920336
 20
335.2958445715927
 30
0.0
 40
6.0
100
AcDbArc
 50
311.8103148957785
 51
0.0
  0
ARC
  5
172
330
6C
100
AcDbEntity
  8
Sichtbare Kanten(DIN)
100
AcDbCircle
 10
172.0179492033599
 20
335.2958445715927
 30
0.0
 40
6.0
100
AcDbArc
 50
180.0
 51
228.1896851042214
  0
ARC
  5
173
330
6C
100
AcDbEntity
  8
Sichtbare Kanten(DIN)
100
AcDbCircle
 10
158.0179492033599
 20
352.3237086165931
 30
0.0
 40
10.0
100
AcDbArc
 50
323.1301023541561
 51
216.8698976458441
  0
ARC
  5
174
330
6C
100
AcDbEntity
  8
Sichtbare Kanten(DIN)
100
AcDbCircle
 10
158.0179492033599
 20
352.3237086165931
 30
0.0
 40
8.0
100
AcDbArc
 50
0.0
 51
180.0
  0
LINE
  5
175
330
6C
100
AcDbEntity
  8
Sichtbare Kanten(DIN)
100
AcDbLine
 10
150.0179492033599
 20
336.3237086165931
 30
0.0
 11
150.0179492033599
 21
335.2958445715927
 31
0.0
  0
LINE
  5
176
330
6C
100
AcDbEntity
  8
Sichtbare Kanten(DIN)
100
AcDbLine
 10
166.01794920336
 20
336.3237086165931
 30
0.0
 11
166.01794920336
 21
352.3237086165931
 31
0.0
  0
LINE
  5
177
330
6C
100
AcDbEntity
  8
Sichtbare Kanten(DIN)
100
AcDbLine
 10
150.0179492033599
 20
352.3237086165931
 30
0.0
 11
150.0179492033599
 21
336.3237086165931
 31
0.0
  0
LINE
  5
178
330
6C
100
AcDbEntity
  8
Sichtbare Kanten(DIN)
100
AcDbLine
 10
149.2179492033599
 20
236.8237086165931
 30
0.0
 11
166.81794920336
 21
236.8237086165931
 31
0.0
  0
ARC
  5
179
330
6C
100
AcDbEntity
  8
Sichtbare Kanten(DIN)
100
AcDbCircle
 10
166.81794920336
 20
237.8237086165932
 30
0.0
 40
1.0
100
AcDbArc
 50
270.0
 51
0.0
  0
ARC
  5
17A
330
6C
100
AcDbEntity
  8
Sichtbare Kanten(DIN)
100
AcDbCircle
 10
149.2179492033599
 20
237.8237086165932
 30
0.0
 40
1.0
100
AcDbArc
 50
180.0
 51
270.0
  0
LINE
  5
17B
330
6C
100
AcDbEntity
  8
Sichtbare Kanten(DIN)
100
AcDbLine
 10
148.2179492033599
 20
237.8237086165932
 30
0.0
 11
148.2179492033599
 21
239.8237086165932
 31
0.0
  0
LINE
  5
17C
330
6C
100
AcDbEntity
  8
Sichtbare Kanten(DIN)
100
AcDbLine
 10
167.8179492033599
 20
237.8237086165932
 30
0.0
 11
167.8179492033599
 21
239.8237086165932
 31
0.0
  0
LINE
  5
17D
330
6C
100
AcDbEntity
  8
Sichtbare Kanten(DIN)
100
AcDbLine
 10
168.01794920336
 20
239.8237086165932
 30
0.0
 11
148.01794920336
 21
239.8237086165932
 31
0.0
  0
LINE
  5
17E
330
6C
100
AcDbEntity
  8
Sichtbare Kanten(DIN)
100
AcDbLine
 10
168.01794920336
 20
327.8237086165932
 30
0.0
 11
148.01794920336
 21
327.8237086165932
 31
0.0
  0
LINE
  5
17F
330
6C
100
AcDbEntity
  8
Sichtbare Kanten(DIN)
100
AcDbLine
 10
168.01794920336
 20
327.8237086165932
 30
0.0
 11
168.0179492033599
 21
239.8237086165932
 31
0.0
  0
LINE
  5
180
330
6C
100
AcDbEntity
  8
Sichtbare Kanten(DIN)
100
AcDbLine
 10
148.01794920336
 20
327.8237086165932
 30
0.0
 11
148.01794920336
 21
239.8237086165932
 31
0.0
  0
ARC
  5
181
330
6C
100
AcDbEntity
  8
Sichtbare Kanten(DIN)
100
AcDbCircle
 10
158.0179492033599
 20
373.5737086165932
 30
0.0
 40
14.87556417467563
100
AcDbArc
 50
78.36519004675996
 51
101.6348099532398
  0
LINE
  5
182
330
6C
100
AcDbEntity
  8
Sichtbare Kanten(DIN)
100
AcDbLine
 10
155.0179492033599
 20
388.1436231501411
 30
0.0
 11
155.0179492033599
 21
388.1556429238737
 31
0.0
  0
SPLINE
  5
183
330
6C
100
AcDbEntity
  8
Sichtbare Kanten(DIN)
100
AcDbSpline
210
0.0
220
0.0
230
1.0
 70
     8
 71
     3
 72
    10
 73
     6
 74
     0
 42
0.0000000001
 43
0.0000000001
 40
0.2939349803598468
 40
0.2939349803598468
 40
0.2939349803598468
 40
0.2939349803598468
 40
0.5678870730468364
 40
0.5678870730468364
 40
0.5922654964208738
 40
0.5922654964208738
 40
0.5922654964208738
 40
0.5922654964208738
 10
155.0179492033599
 20
388.1556429238737
 30
0.0
 10
154.0801197079235
 20
387.9627661780249
 30
0.0
 10
153.1489671377459
 20
387.6758128186827
 30
0.0
 10
152.1760780281287
 20
387.2675664017219
 30
0.0
 10
152.096861442204
 20
387.2335132922486
 30
0.0
 10
152.0179492033599
 20
387.1987759851003
 30
0.0
  0
LINE
  5
184
330
6C
100
AcDbEntity
  8
Sichtbare Kanten(DIN)
100
AcDbLine
 10
152.0179492033599
 20
387.1987772022658
 30
0.0
 11
152.0179492033599
 21
387.2122569264391
 31
0.0
  0
ARC
  5
185
330
6C
100
AcDbEntity
  8
Sichtbare Kanten(DIN)
100
AcDbCircle
 10
158.0179492033599
 20
373.5737086165932
 30
0.0
 40
14.90000000000006
100
AcDbArc
 50
0.0
 51
66.25388885125873
  0
LINE
  5
186
330
6C
100
AcDbEntity
  8
Sichtbare Kanten(DIN)
100
AcDbLine
 10
172.91794920336
 20
331.0737086165931
 30
0.0
 11
172.91794920336
 21
373.5737086165932
 31
0.0
  0
ARC
  5
187
330
6C
100
AcDbEntity
  8
Sichtbare Kanten(DIN)
100
AcDbCircle
 10
158.0179492033599
 20
331.0737086165931
 30
0.0
 40
14.90000000000005
100
AcDbArc
 50
312.15518425081
 51
0.0
  0
ARC
  5
188
330
6C
100
AcDbEntity
  8
Sichtbare Kanten(DIN)
100
AcDbCircle
 10
158.0179492033599
 20
331.0737086165931
 30
0.0
 40
14.90000000000003
100
AcDbArc
 50
180.0
 51
227.8448157491903
  0
LINE
  5
189
330
6C
100
AcDbEntity
  8
Sichtbare Kanten(DIN)
100
AcDbLine
 10
143.1179492033599
 20
373.5737086165932
 30
0.0
 11
143.1179492033599
 21
331.0737086165931
 31
0.0
  0
ARC
  5
18A
330
6C
100
AcDbEntity
  8
Sichtbare Kanten(DIN)
100
AcDbCircle
 10
158.0179492033599
 20
373.5737086165932
 30
0.0
 40
14.90000000000005
100
AcDbArc
 50
113.746111148741
 51
180.0
  0
LINE
  5
18B
330
6C
100
AcDbEntity
  8
Mittellinie(DIN)
  6
Continuous
100
AcDbLine
 10
158.01794920336
 20
369.0801607975577
 30
0.0
 11
158.01794920336
 21
234.8237086165931
 31
0.0
  0
LINE
  5
18C
330
6C
100
AcDbEntity
  8
Mittelpunktmarkierung(DIN)
  6
Continuous
100
AcDbLine
 10
173.0179492033599
 20
352.3237086165931
 30
0.0
 11
143.0179492033599
 21
352.3237086165931
 31
0.0
  0
LINE
  5
18D
330
6C
100
AcDbEntity
  8
Mittelpunktmarkierung(DIN)
  6
Continuous
100
AcDbLine
 10
158.0179492033599
 20
367.3237086165932
 30
0.0
 11
158.0179492033599
 21
337.3237086165931
 31
0.0
  0
LINE
  5
18E
330
6C
100
AcDbEntity
  8
Mittelpunktmarkierung(DIN)
  6
Continuous
100
AcDbLine
 10
177.91794920336
 20
331.0737086165931
 30
0.0
 11
135.118506140056
 21
331.0737086165931
 31
0.0
  0
LINE
  5
18F
330
6C
100
AcDbEntity
  8
Mittelpunktmarkierung(DIN)
  6
Continuous
100
AcDbLine
 10
158.0179492033599
 20
336.0737086165932
 30
0.0
 11
158.0179492033599
 21
306.6930402854723
 31
0.0
  0
LINE
  5
190
330
6C
100
AcDbEntity
  8
Sichtbare Kanten(DIN)
100
AcDbLine
 10
237.906905007582
 20
369.5783238588638
 30
0.0
 11
237.906905007582
 21
378.0690933743224
 31
0.0
  0
LINE
  5
191
330
6C
100
AcDbEntity
  8
Sichtbare Kanten(DIN)
100
AcDbLine
 10
238.806905007582
 20
378.5887086165931
 30
0.0
 11
238.806905007582
 21
369.0587086165931
 31
0.0
  0
LINE
  5
192
330
6C
100
AcDbEntity
  8
Sichtbare Kanten(DIN)
100
AcDbLine
 10
237.906905007582
 20
378.0690933743224
 30
0.0
 11
238.806905007582
 21
378.5887086165931
 31
0.0
  0
LINE
  5
193
330
6C
100
AcDbEntity
  8
Sichtbare Kanten(DIN)
100
AcDbLine
 10
237.906905007582
 20
369.5783238588638
 30
0.0
 11
238.806905007582
 21
369.0587086165931
 31
0.0
  0
LINE
  5
194
330
6C
100
AcDbEntity
  8
Sichtbare Kanten(DIN)
100
AcDbLine
 10
237.906905007582
 20
326.5783238588638
 30
0.0
 11
237.906905007582
 21
335.0690933743225
 31
0.0
  0
LINE
  5
195
330
6C
100
AcDbEntity
  8
Sichtbare Kanten(DIN)
100
AcDbLine
 10
238.806905007582
 20
335.5887086165932
 30
0.0
 11
238.806905007582
 21
326.0587086165931
 31
0.0
  0
LINE
  5
196
330
6C
100
AcDbEntity
  8
Sichtbare Kanten(DIN)
100
AcDbLine
 10
237.906905007582
 20
335.0690933743225
 30
0.0
 11
238.806905007582
 21
335.5887086165932
 31
0.0
  0
LINE
  5
197
330
6C
100
AcDbEntity
  8
Sichtbare Kanten(DIN)
100
AcDbLine
 10
237.906905007582
 20
326.5783238588638
 30
0.0
 11
238.806905007582
 21
326.0587086165931
 31
0.0
  0
LINE
  5
198
330
6C
100
AcDbEntity
  8
Sichtbare Kanten(DIN)
100
AcDbLine
 10
242.706905007582
 20
369.0587086165931
 30
0.0
 11
238.806905007582
 21
369.0587086165931
 31
0.0
  0
LINE
  5
199
330
6C
100
AcDbEntity
  8
Sichtbare Kanten(DIN)
100
AcDbLine
 10
242.706905007582
 20
378.5887086165931
 30
0.0
 11
238.806905007582
 21
378.5887086165931
 31
0.0
  0
LINE
  5
19A
330
6C
100
AcDbEntity
  8
Sichtbare Kanten(DIN)
100
AcDbLine
 10
242.706905007582
 20
326.0587086165931
 30
0.0
 11
238.806905007582
 21
326.0587086165931
 31
0.0
  0
LINE
  5
19B
330
6C
100
AcDbEntity
  8
Sichtbare Kanten(DIN)
100
AcDbLine
 10
242.706905007582
 20
335.5887086165932
 30
0.0
 11
238.806905007582
 21
335.5887086165932
 31
0.0
  0
LINE
  5
19C
330
6C
100
AcDbEntity
  8
Sichtbare Kanten(DIN)
100
AcDbLine
 10
313.706905007582
 20
327.8237086165932
 30
0.0
 11
293.706905007582
 21
327.8237086165932
 31
0.0
  0
LINE
  5
19D
330
6C
100
AcDbEntity
  8
Sichtbare Kanten(DIN)
100
AcDbLine
 10
313.706905007582
 20
330.8237086165931
 30
0.0
 11
313.706905007582
 21
327.8237086165932
 31
0.0
  0
LINE
  5
19E
330
6C
100
AcDbEntity
  8
Sichtbare Kanten(DIN)
100
AcDbLine
 10
293.706905007582
 20
330.8237086165931
 30
0.0
 11
293.706905007582
 21
327.8237086165932
 31
0.0
  0
LINE
  5
19F
330
6C
100
AcDbEntity
  8
Sichtbare Kanten(DIN)
100
AcDbLine
 10
313.706905007582
 20
330.8237086165931
 30
0.0
 11
293.706905007582
 21
330.8237086165931
 31
0.0
  0
ARC
  5
1A0
330
6C
100
AcDbEntity
  8
Sichtbare Kanten(DIN)
100
AcDbCircle
 10
289.706905007582
 20
335.2958445715927
 30
0.0
 40
6.0
100
AcDbArc
 50
311.8103148957786
 51
0.0
  0
ARC
  5
1A1
330
6C
100
AcDbEntity
  8
Sichtbare Kanten(DIN)
100
AcDbCircle
 10
317.706905007582
 20
335.2958445715927
 30
0.0
 40
6.000000000000001
100
AcDbArc
 50
180.0
 51
228.1896851042216
  0
LINE
  5
1A2
330
6C
100
AcDbEntity
  8
Sichtbare Kanten(DIN)
100
AcDbLine
 10
265.706905007582
 20
362.3237086165931
 30
0.0
 11
265.706905007582
 21
342.3237086165932
 31
0.0
  0
ARC
  5
1A3
330
6C
100
AcDbEntity
  8
Sichtbare Kanten(DIN)
100
AcDbCircle
 10
270.1790409625816
 20
366.3237086165931
 30
0.0
 40
6.0
100
AcDbArc
 50
221.8103148957784
 51
270.0
  0
ARC
  5
1A4
330
6C
100
AcDbEntity
  8
Sichtbare Kanten(DIN)
100
AcDbCircle
 10
270.1790409625816
 20
338.3237086165931
 30
0.0
 40
6.0
100
AcDbArc
 50
90.0
 51
138.1896851042214
  0
LINE
  5
1A5
330
6C
100
AcDbEntity
  8
Sichtbare Kanten(DIN)
100
AcDbLine
 10
311.706905007582
 20
336.3237086165931
 30
0.0
 11
311.706905007582
 21
335.2958445715927
 31
0.0
  0
LINE
  5
1A6
330
6C
100
AcDbEntity
  8
Sichtbare Kanten(DIN)
100
AcDbLine
 10
295.706905007582
 20
336.3237086165931
 30
0.0
 11
295.706905007582
 21
335.2958445715927
 31
0.0
  0
LINE
  5
1A7
330
6C
100
AcDbEntity
  8
Sichtbare Kanten(DIN)
100
AcDbLine
 10
270.1790409625816
 20
360.3237086165931
 30
0.0
 11
287.706905007582
 21
360.3237086165932
 31
0.0
  0
LINE
  5
1A8
330
6C
100
AcDbEntity
  8
Sichtbare Kanten(DIN)
100
AcDbLine
 10
270.1790409625816
 20
344.3237086165932
 30
0.0
 11
287.706905007582
 21
344.3237086165932
 31
0.0
  0
ARC
  5
1A9
330
6C
100
AcDbEntity
  8
Sichtbare Kanten(DIN)
100
AcDbCircle
 10
287.706905007582
 20
336.3237086165931
 30
0.0
 40
24.0
100
AcDbArc
 50
0.0
 51
90.0
  0
ARC
  5
1AA
330
6C
100
AcDbEntity
  8
Sichtbare Kanten(DIN)
100
AcDbCircle
 10
287.706905007582
 20
336.3237086165931
 30
0.0
 40
8.000000000000003
100
AcDbArc
 50
0.0
 51
90.0
  0
LINE
  5
1AB
330
6C
100
AcDbEntity
  8
Sichtbare Kanten(DIN)
100
AcDbLine
 10
254.706905007582
 20
362.3237086165931
 30
0.0
 11
265.706905007582
 21
362.3237086165931
 31
0.0
  0
LINE
  5
1AC
330
6C
100
AcDbEntity
  8
Sichtbare Kanten(DIN)
100
AcDbLine
 10
254.706905007582
 20
342.3237086165932
 30
0.0
 11
265.706905007582
 21
342.3237086165932
 31
0.0
  0
LINE
  5
1AD
330
6C
100
AcDbEntity
  8
Sichtbare Kanten(DIN)
100
AcDbLine
 10
294.906905007582
 20
236.8237086165931
 30
0.0
 11
312.506905007582
 21
236.8237086165931
 31
0.0
  0
ARC
  5
1AE
330
6C
100
AcDbEntity
  8
Sichtbare Kanten(DIN)
100
AcDbCircle
 10
312.506905007582
 20
237.8237086165931
 30
0.0
 40
1.000000000000001
100
AcDbArc
 50
270.0
 51
0.0
  0
ARC
  5
1AF
330
6C
100
AcDbEntity
  8
Sichtbare Kanten(DIN)
100
AcDbCircle
 10
294.906905007582
 20
237.8237086165932
 30
0.0
 40
1.000000000000001
100
AcDbArc
 50
180.0
 51
270.0
  0
LINE
  5
1B0
330
6C
100
AcDbEntity
  8
Sichtbare Kanten(DIN)
100
AcDbLine
 10
293.9069050075819
 20
237.8237086165932
 30
0.0
 11
293.9069050075819
 21
239.8237086165932
 31
0.0
  0
LINE
  5
1B1
330
6C
100
AcDbEntity
  8
Sichtbare Kanten(DIN)
100
AcDbLine
 10
313.5069050075821
 20
237.8237086165932
 30
0.0
 11
313.5069050075821
 21
239.8237086165932
 31
0.0
  0
LINE
  5
1B2
330
6C
100
AcDbEntity
  8
Sichtbare Kanten(DIN)
100
AcDbLine
 10
313.7069050075821
 20
239.8237086165932
 30
0.0
 11
293.706905007582
 21
239.8237086165932
 31
0.0
  0
LINE
  5
1B3
330
6C
100
AcDbEntity
  8
Sichtbare Kanten(DIN)
100
AcDbLine
 10
313.7069050075822
 20
327.8237086165932
 30
0.0
 11
293.7069050075821
 21
327.8237086165932
 31
0.0
  0
LINE
  5
1B4
330
6C
100
AcDbEntity
  8
Sichtbare Kanten(DIN)
100
AcDbLine
 10
313.7069050075821
 20
327.8237086165932
 30
0.0
 11
313.7069050075821
 21
239.8237086165932
 31
0.0
  0
LINE
  5
1B5
330
6C
100
AcDbEntity
  8
Sichtbare Kanten(DIN)
100
AcDbLine
 10
293.706905007582
 20
327.8237086165932
 30
0.0
 11
293.706905007582
 21
239.8237086165932
 31
0.0
  0
LINE
  5
1B6
330
6C
100
AcDbEntity
  8
Sichtbare Kanten(DIN)
100
AcDbLine
 10
242.7069050075811
 20
356.3237086165932
 30
0.0
 11
202.9069050075811
 21
356.3237086165932
 31
0.0
  0
LINE
  5
1B7
330
6C
100
AcDbEntity
  8
Sichtbare Kanten(DIN)
100
AcDbLine
 10
202.9069050075811
 20
356.3237086165932
 30
0.0
 11
202.9069050075811
 21
349.3237086165931
 31
0.0
  0
LINE
  5
1B8
330
6C
100
AcDbEntity
  8
Sichtbare Kanten(DIN)
100
AcDbLine
 10
242.7069050075811
 20
349.3237086165931
 30
0.0
 11
202.9069050075811
 21
349.3237086165931
 31
0.0
  0
LINE
  5
1B9
330
6C
100
AcDbEntity
  8
Sichtbare Kanten(DIN)
100
AcDbLine
 10
244.7069050075811
 20
388.1436231501411
 30
0.0
 11
244.706905007582
 21
388.4492727912687
 31
0.0
  0
SPLINE
  5
1BA
330
6C
100
AcDbEntity
  8
Sichtbare Kanten(DIN)
100
AcDbSpline
210
0.0
220
0.0
230
1.0
 70
    12
 71
     2
 72
     6
 73
     3
 74
     0
 42
0.0000000001
 43
0.0000000001
 40
0.0010510658056941
 40
0.0010510658056941
 40
0.0010510658056941
 40
0.1158589740378025
 40
0.1158589740378025
 40
0.1158589740378025
 10
243.7433198217632
 20
388.1556429238737
 30
0.0
 41
1.000002530809127
 10
243.2163157093855
 20
387.9048869359914
 30
0.0
 41
1.000139485533336
 10
242.7069050075811
 20
387.6621654961865
 30
0.0
 41
1.0
  0
LINE
  5
1BB
330
6C
100
AcDbEntity
  8
Sichtbare Kanten(DIN)
100
AcDbLine
 10
244.7069050075811
 20
388.1436231501411
 30
0.0
 11
243.7433198217632
 21
388.1556429238737
 31
0.0
  0
LINE
  5
1BC
330
6C
100
AcDbEntity
  8
Sichtbare Kanten(DIN)
100
AcDbLine
 10
242.7069050075812
 20
387.6621654961865
 30
0.0
 11
242.7069050075807
 21
387.2122569264391
 31
0.0
  0
SPLINE
  5
1BD
330
6C
100
AcDbEntity
  8
Sichtbare Kanten(DIN)
100
AcDbSpline
210
0.0
220
0.0
230
1.0
 70
     8
 71
     3
 72
    10
 73
     6
 74
     0
 42
0.0000000001
 43
0.0000000001
 40
0.2939349803598468
 40
0.2939349803598468
 40
0.2939349803598468
 40
0.2939349803598468
 40
0.5678870730468364
 40
0.5678870730468364
 40
0.5922654964208738
 40
0.5922654964208738
 40
0.5922654964208738
 40
0.5922654964208738
 10
243.7433198217632
 20
388.1556429238737
 30
0.0
 10
243.7379735286408
 20
387.9627661780249
 30
0.0
 10
243.7300185180408
 20
387.6758128186827
 30
0.0
 10
243.7186943746086
 20
387.2675664017219
 30
0.0
 10
243.7177497537157
 20
387.2335132922486
 30
0.0
 10
243.7167861106125
 20
387.1987759851003
 30
0.0
  0
LINE
  5
1BE
330
6C
100
AcDbEntity
  8
Sichtbare Kanten(DIN)
100
AcDbLine
 10
243.7167861106125
 20
387.1987759851003
 30
0.0
 11
242.7069050075802
 21
387.2122569264391
 31
0.0
  0
LINE
  5
1BF
330
6C
100
AcDbEntity
  8
Sichtbare Kanten(DIN)
100
AcDbLine
 10
242.7069050075811
 20
316.4788465069327
 30
0.0
 11
243.743319821763
 21
316.4917743093125
 31
0.0
  0
SPLINE
  5
1C0
330
6C
100
AcDbEntity
  8
Sichtbare Kanten(DIN)
100
AcDbSpline
210
0.0
220
0.0
230
1.0
 70
     8
 71
     3
 72
    10
 73
     6
 74
     0
 42
0.0000000001
 43
0.0000000001
 40
-0.2939349803598434
 40
-0.2939349803598434
 40
-0.2939349803598434
 40
-0.2939349803598434
 40
-0.2839435365234166
 40
-0.2839435365234166
 40
0.0
 40
0.0
 40
0.0
 40
0.0000000000000017
 10
243.743319821763
 20
316.4917743093125
 30
0.0
 10
243.7435148090944
 20
316.4847398050143
 30
0.0
 10
243.7437063677897
 20
316.4778289327323
 30
0.0
 10
243.7492409445466
 20
316.2781560743959
 30
0.0
 10
243.7517812492968
 20
316.1864748232572
 30
0.0
 10
243.751781249297
 20
316.1864748232572
 30
0.0
  0
LINE
  5
1C1
330
6C
100
AcDbEntity
  8
Sichtbare Kanten(DIN)
100
AcDbLine
 10
243.1139011352775
 20
316.4839232054093
 30
0.0
 11
243.751781249297
 21
316.1864748232572
 31
0.0
  0
LINE
  5
1C2
330
6C
100
AcDbEntity
  8
Sichtbare Kanten(DIN)
100
AcDbLine
 10
242.7069050075811
 20
316.4788465069328
 30
0.0
 11
242.7069050075776
 21
331.0737086165931
 31
0.0
  0
LINE
  5
1C3
330
6C
100
AcDbEntity
  8
Sichtbare Kanten(DIN)
100
AcDbLine
 10
242.7069050075776
 20
373.5737086165932
 30
0.0
 11
242.7069050075776
 21
331.0737086165931
 31
0.0
  0
LINE
  5
1C4
330
6C
100
AcDbEntity
  8
Sichtbare Kanten(DIN)
100
AcDbLine
 10
242.7069050075776
 20
373.5737086165932
 30
0.0
 11
242.7069050075802
 21
387.2122569264391
 31
0.0
  0
LINE
  5
1C5
330
6C
100
AcDbEntity
  8
Sichtbare Kanten(DIN)
100
AcDbLine
 10
252.9288956090855
 20
388.34881722819
 30
0.0
 11
244.706905007582
 21
388.4492727912687
 31
0.0
  0
LINE
  5
1C6
330
6C
100
AcDbEntity
  8
Sichtbare Kanten(DIN)
100
AcDbLine
 10
252.9288956090855
 20
316.2986000049963
 30
0.0
 11
243.751781249297
 21
316.1864748232572
 31
0.0
  0
LINE
  5
1C7
330
6C
100
AcDbEntity
  8
Sichtbare Kanten(DIN)
100
AcDbLine
 10
254.7069050075782
 20
331.0737086165931
 30
0.0
 11
254.706905007582
 21
318.0984656703851
 31
0.0
  0
LINE
  5
1C8
330
6C
100
AcDbEntity
  8
Sichtbare Kanten(DIN)
100
AcDbLine
 10
254.7069050075782
 20
331.0737086165931
 30
0.0
 11
254.7069050075782
 21
373.5737086165932
 31
0.0
  0
LINE
  5
1C9
330
6C
100
AcDbEntity
  8
Sichtbare Kanten(DIN)
100
AcDbLine
 10
254.7069050075821
 20
386.5489515628012
 30
0.0
 11
254.7069050075782
 21
373.5737086165932
 31
0.0
  0
ARC
  5
1CA
330
6C
100
AcDbEntity
  8
Sichtbare Kanten(DIN)
100
AcDbCircle
 10
252.906905007582
 20
318.0984656703851
 30
0.0
 40
1.800000000000002
100
AcDbArc
 50
270.6999999999994
 51
0.0
  0
ARC
  5
1CB
330
6C
100
AcDbEntity
  8
Sichtbare Kanten(DIN)
100
AcDbCircle
 10
252.906905007582
 20
386.5489515628012
 30
0.0
 40
1.800000000000002
100
AcDbArc
 50
0.0
 51
89.30000000000061
  0
LINE
  5
1CC
330
6C
100
AcDbEntity
  8
Mittellinie(DIN)
  6
Continuous
100
AcDbLine
 10
303.7069050075821
 20
332.8237086165932
 30
0.0
 11
303.7069050075821
 21
234.8237086165931
 31
0.0
  0
ARC
  5
1CD
330
6C
100
AcDbEntity
  8
Mittellinie(DIN)
  6
Continuous
100
AcDbCircle
 10
287.706905007582
 20
336.3237086165932
 30
0.0
 40
16.0
100
AcDbArc
 50
349.2570413412969
 51
100.7429586587029
  0
LINE
  5
1CE
330
6C
100
AcDbEntity
  8
Mittellinie(DIN)
  6
Continuous
100
AcDbLine
 10
200.3615871952524
 20
352.3237086165932
 30
0.0
 11
292.706905007582
 21
352.3237086165932
 31
0.0
  0
LINE
  5
1CF
330
6C
100
AcDbEntity
  8
Mittelpunktmarkierung(DIN)
  6
Continuous
100
AcDbLine
 10
180.2911348603197
 20
373.5737086165932
 30
0.0
 11
136.4596461375506
 21
373.5737086165932
 31
0.0
  0
LINE
  5
1D0
330
6C
100
AcDbEntity
  8
Mittelpunktmarkierung(DIN)
  6
Continuous
100
AcDbLine
 10
158.0179492033599
 20
395.6880810482352
 30
0.0
 11
158.0179492033599
 21
355.5369578214413
 31
0.0
  0
DIMENSION
  5
1D1
330
6C
100
AcDbEntity
  8
Bemaßungen(DIN)
  6
Continuous
 62
   250
420
  4144959
370
    25
100
AcDbDimension
  2
*D16
 10
143.1179492033599
 20
423.5240910831719
 30
0.0
 11
158.01794920336
 21
423.5240910831719
 31
0.0
 70
   160
  1
<>
 42
29.80000000000013
 73
     0
 74
     0
 75
     0
  3
STANDARD-DIN - Methode 2b
100
AcDbAlignedDimension
 13
172.91794920336
 23
373.5737086165932
 33
0.0
 14
143.1179492033599
 24
373.5737086165932
 34
0.0
 50
180.0
100
AcDbRotatedDimension
1001
ACAD
1000
DSTYLE
1002
{
1070
   172
1070
     0
1070
   289
1070
     1
1070
    74
1070
     0
1070
   271
1070
     0
1070
   272
1070
     0
1070
    48
1040
0.0
1070
    47
1040
0.0
1002
}
  0
DIMENSION
  5
2B4
330
6C
100
AcDbEntity
  8
Bemaßungen(DIN)
  6
Continuous
 62
   250
420
  4144959
370
    25
100
AcDbDimension
  2
*D17
 10
313.7069050075821
 20
219.8237086165931
 30
0.0
 11
276.3796955751812
 21
219.8237086165931
 31
0.0
 70
   160
  1
{\fAIGDT|b0|i0;\H7.0000;\ln\fArial|b0|i0;\H7.0000;}<>
 42
20.0
 73
     0
 74
     0
 75
     0
  3
STANDARD-DIN - Methode 2b
100
AcDbAlignedDimension
 13
293.706905007582
 23
239.8237086165932
 33
0.0
 14
313.7069050075821
 24
239.8237086165932
 34
0.0
 50
180.0
100
AcDbRotatedDimension
1001
ACAD
1000
DSTYLE
1002
{
1070
   172
1070
     0
1070
   289
1070
     2
1070
    74
1070
     0
1070
   271
1070
     2
1070
   272
1070
     2
1070
    48
1040
0.0
1070
    47
1040
0.0
1002
}
  0
DIMENSION
  5
3A5
330
6C
100
AcDbEntity
  8
Bemaßungen(DIN)
  6
Continuous
 62
   250
420
  4144959
370
    25
100
AcDbDimension
  2
*D18
 10
313.7069050075821
 20
194.2141595357231
 30
0.0
 11
278.2069050075843
 21
194.2141595357231
 31
0.0
 70
   160
  1
<>
 42
70.99999999999567
 73
     0
 74
     0
 75
     0
  3
STANDARD-DIN - Methode 2b
100
AcDbAlignedDimension
 13
242.7069050075864
 23
331.0737086165931
 33
0.0
 14
313.7069050075821
 24
239.8237086165932
 34
0.0
 50
180.0
100
AcDbRotatedDimension
1001
ACAD
1000
DSTYLE
1002
{
1070
   172
1070
     0
1070
   289
1070
     1
1070
    74
1070
     0
1070
   271
1070
     0
1070
   272
1070
     0
1070
    48
1040
0.0
1070
    47
1040
0.0
1002
}
  0
MTEXT
  5
487
330
6C
100
AcDbEntity
  8
Symbole(DIN)
 62
   179
420
  2500185
100
AcDbMText
 10
205.6680010790333
 20
156.5857040766536
 30
0.0
 40
6.99999988079071
 41
162.7186604690169
 46
0.0
 71
     1
 72
     1
  1
{50006/51001CF}
  7
Aktuell-DIN
 73
     1
 44
1.0
  0
DIMENSION
  5
488
330
6C
100
AcDbEntity
  8
Bemaßungen(DIN)
  6
Continuous
 62
   250
420
  4144959
370
    25
100
AcDbDimension
  2
*D19
 10
102.0179492033592
 20
316.1864828817134
 30
0.0
 11
102.0179492033592
 21
352.3178778364912
 31
0.0
 70
   160
  1
<>
 42
72.26278990955546
 73
     0
 74
     0
 75
     0
  3
STANDARD-DIN - Methode 2b
100
AcDbAlignedDimension
 13
158.0179492033599
 23
388.4492727912689
 33
0.0
 14
158.0179492033592
 24
316.1864828817134
 34
0.0
 50
90.0
100
AcDbRotatedDimension
1001
ACAD
1000
DSTYLE
1002
{
1070
   172
1070
     0
1070
   289
1070
     1
1070
    74
1070
     0
1070
   271
1070
     0
1070
   272
1070
     0
1070
    48
1040
0.0
1070
    47
1040
0.0
1002
}
  0
DIMENSION
  5
570
330
6C
100
AcDbEntity
  8
Bemaßungen(DIN)
  6
Continuous
 62
   250
420
  4144959
370
    25
100
AcDbDimension
  2
*D20
 10
350.2187945662907
 20
236.8237086165931
 30
0.0
 11
350.2187945662906
 21
299.5737086165932
 31
0.0
 70
   160
  1
<>
 42
125.5
 73
     0
 74
     0
 75
     0
  3
STANDARD-DIN - Methode 2b
100
AcDbAlignedDimension
 13
265.706905007582
 23
362.3237086165931
 33
0.0
 14
312.506905007582
 24
236.8237086165931
 34
0.0
 50
270.0
100
AcDbRotatedDimension
1001
ACAD
1000
DSTYLE
1002
{
1070
   172
1070
     0
1070
   289
1070
     1
1070
    74
1070
     0
1070
   271
1070
     0
1070
   272
1070
     0
1070
    48
1040
0.0
1070
    47
1040
0.0
1002
}
  0
DIMENSION
  5
658
330
6C
100
AcDbEntity
  8
Bemaßungen(DIN)
  6
Continuous
 62
   250
420
  4144959
370
    25
100
AcDbDimension
  2
*D21
 10
254.7069050075782
 20
423.5240910831719
 30
0.0
 11
248.7069050075779
 21
423.5240910831719
 31
0.0
 70
   160
  1
<>
 42
12.00000000000062
 73
     0
 74
     0
 75
     0
  3
STANDARD-DIN - Methode 2b
100
AcDbAlignedDimension
 13
242.7069050075776
 23
373.5737086165932
 33
0.0
 14
254.7069050075782
 24
373.5737086165932
 34
0.0
 50
180.0
100
AcDbRotatedDimension
1001
ACAD
1000
DSTYLE
1002
{
1070
   172
1070
     1
1070
   289
1070
     1
1070
    74
1070
     0
1070
   271
1070
     2
1070
   272
1070
     2
1070
    48
1040
0.0
1070
    47
1040
0.0
1002
}
  0
ARC
  5
756
330
6C
100
AcDbEntity
  8
Skizziergeometrie(DIN)
100
AcDbCircle
 10
157.7791300931407
 20
372.4138506083026
 30
0.0
 40
16.05975384140126
100
AcDbArc
 50
67.14033317565693
 51
78.36519004676006
  0
DIMENSION
  5
757
330
6C
100
AcDbEntity
  8
Bemaßungen(DIN)
  6
Continuous
 62
   250
420
  4144959
370
    25
100
AcDbDimension
  2
*D22
 10
121.8112500094819
 20
373.5737086165932
 30
0.0
 11
121.8112500094818
 21
352.3237086165932
 31
0.0
 70
   160
  1
<>
 42
42.50000000000006
 73
     0
 74
     0
 75
     0
  3
STANDARD-DIN - Methode 2b
100
AcDbAlignedDimension
 13
135.118506140056
 23
331.0737086165931
 33
0.0
 14
136.4596461375506
 24
373.5737086165932
 34
0.0
 50
90.0
100
AcDbRotatedDimension
1001
ACAD
1000
DSTYLE
1002
{
1070
   172
1070
     0
1070
   289
1070
     1
1070
    74
1070
     0
1070
   271
1070
     0
1070
   272
1070
     2
1070
    48
1040
0.0
1070
    47
1040
0.0
1002
}
  0
CIRCLE
  5
83F
330
6C
100
AcDbEntity
  8
Skizziergeometrie(DIN)
  6
Continuous
100
AcDbCircle
 10
158.0142458837946
 20
373.5086776959841
 30
0.0
 40
6.0
  0
CIRCLE
  5
840
330
6C
100
AcDbEntity
  8
Skizziergeometrie(DIN)
  6
Continuous
100
AcDbCircle
 10
158.0142458837946
 20
331.0424944451185
 30
0.0
 40
6.0
  0
ENDSEC
  0
SECTION
  2
OBJECTS
  0
DICTIONARY
  5
C
330
0
100
AcDbDictionary
281
     1
  3
ACAD_CIP_PREVIOUS_PRODUCT_INFO
350
841
  3
ACAD_COLOR
350
63
  3
ACAD_GROUP
350
D
  3
ACAD_LAYOUT
350
62
  3
ACAD_MATERIAL
350
10
  3
ACAD_MLEADERSTYLE
350
66
  3
ACAD_MLINESTYLE
350
5F
  3
ACAD_PLOTSETTINGS
350
61
  3
ACAD_PLOTSTYLENAME
350
E
  3
ACAD_SCALELIST
350
42
  3
ACAD_TABLESTYLE
350
64
  3
ACAD_VISUALSTYLE
350
29
  3
ACDB_RECOMPOSE_DATA
350
84B
  3
AcDbVariableDictionary
350
842
  0
XRECORD
  5
841
102
{ACAD_REACTORS
330
C
102
}
330
C
100
AcDbXrecord
280
     1
300
INVNTOR
300
2012
300
PDSP_F_S
  0
DICTIONARY
  5
63
102
{ACAD_REACTORS
330
C
102
}
330
C
100
AcDbDictionary
281
     1
  0
DICTIONARY
  5
D
102
{ACAD_REACTORS
330
C
102
}
330
C
100
AcDbDictionary
281
     1
  0
DICTIONARY
  5
62
102
{ACAD_REACTORS
330
C
102
}
330
C
100
AcDbDictionary
281
     1
  3
Layout1
350
6B
  3
Layout2
350
73
  3
Model
350
6F
  0
DICTIONARY
  5
10
102
{ACAD_REACTORS
330
C
102
}
330
C
100
AcDbDictionary
281
     1
  3
ByBlock
350
19
  3
ByLayer
350
11
  3
Global
350
21
  0
DICTIONARY
  5
66
102
{ACAD_REACTORS
330
C
102
}
330
C
100
AcDbDictionary
281
     1
  3
Standard
350
67
  0
DICTIONARY
  5
5F
102
{ACAD_REACTORS
330
C
102
}
330
C
100
AcDbDictionary
281
     1
  3
Standard
350
60
  0
DICTIONARY
  5
61
102
{ACAD_REACTORS
330
C
102
}
330
C
100
AcDbDictionary
281
     1
  0
ACDBDICTIONARYWDFLT
  5
E
102
{ACAD_REACTORS
330
C
102
}
330
C
100
AcDbDictionary
281
     1
  3
Normal
350
F
100
AcDbDictionaryWithDefault
340
F
  0
DICTIONARY
  5
42
102
{ACAD_REACTORS
330
C
102
}
330
C
100
AcDbDictionary
281
     1
  3
A0
350
43
  3
A1
350
44
  3
A2
350
45
  3
A3
350
46
  3
A4
350
47
  3
A5
350
48
  3
A6
350
49
  3
A7
350
4A
  3
A8
350
4B
  3
A9
350
4C
  3
B0
350
4D
  3
B1
350
4E
  3
B2
350
4F
  3
B3
350
50
  3
B4
350
51
  3
B5
350
52
  3
B6
350
53
  0
DICTIONARY
  5
64
102
{ACAD_REACTORS
330
C
102
}
330
C
100
AcDbDictionary
281
     1
  3
Standard
350
65
  0
DICTIONARY
  5
29
102
{ACAD_REACTORS
330
C
102
}
330
C
100
AcDbDictionary
281
     1
  3
2dWireframe
350
2F
  3
Basic
350
2E
  3
Brighten
350
35
  3
ColorChange
350
39
  3
Conceptual
350
32
  3
Dim
350
34
  3
EdgeColorOff
350
41
  3
Facepattern
350
38
  3
Flat
350
2A
  3
FlatWithEdges
350
2B
  3
Gouraud
350
2C
  3
GouraudWithEdges
350
2D
  3
Hidden
350
31
  3
JitterOff
350
3F
  3
Linepattern
350
37
  3
OverhangOff
350
40
  3
Realistic
350
33
  3
Shaded
350
3E
  3
Shaded with edges
350
3D
  3
Shades of Gray
350
3A
  3
Sketchy
350
3B
  3
Thicken
350
36
  3
Wireframe
350
30
  3
X-Ray
350
3C
  0
XRECORD
  5
84B
102
{ACAD_REACTORS
330
C
102
}
330
C
100
AcDbXrecord
280
     1
 90
        1
330
65
330
2B4
  0
DICTIONARY
  5
842
102
{ACAD_REACTORS
330
C
102
}
330
C
100
AcDbDictionary
281
     1
  3
CANNOSCALE
350
845
  3
CMLEADERSTYLE
350
844
  3
CTABLESTYLE
350
843
  3
XCLIPFRAME
350
846
  0
LAYOUT
  5
6B
102
{ACAD_REACTORS
330
62
102
}
330
62
100
AcDbPlotSettings
  1

  2

  4

  6

 40
0.0
 41
0.0
 42
0.0
 43
0.0
 44
0.0
 45
0.0
 46
0.0
 47
0.0
 48
0.0
 49
0.0
140
0.0
141
0.0
142
1.0
143
1.0
 70
   688
 72
     0
 73
     0
 74
     5
  7

 75
    16
147
1.0
 76
     0
 77
     2
 78
   300
148
0.0
149
0.0
100
AcDbLayout
  1
Layout1
 70
     1
 71
     1
 10
0.0
 20
0.0
 11
12.0
 21
9.0
 12
0.0
 22
0.0
 32
0.0
 14
0.0
 24
0.0
 34
0.0
 15
0.0
 25
0.0
 35
0.0
146
0.0
 13
0.0
 23
0.0
 33
0.0
 16
1.0
 26
0.0
 36
0.0
 17
0.0
 27
1.0
 37
0.0
 76
     0
330
68
  0
LAYOUT
  5
73
102
{ACAD_REACTORS
330
62
102
}
330
62
100
AcDbPlotSettings
  1

  2

  4

  6

 40
0.0
 41
0.0
 42
0.0
 43
0.0
 44
0.0
 45
0.0
 46
0.0
 47
0.0
 48
0.0
 49
0.0
140
0.0
141
0.0
142
1.0
143
1.0
 70
   688
 72
     0
 73
     0
 74
     5
  7

 75
    16
147
1.0
 76
     0
 77
     2
 78
   300
148
0.0
149
0.0
100
AcDbLayout
  1
Layout2
 70
     1
 71
     2
 10
0.0
 20
0.0
 11
12.0
 21
9.0
 12
0.0
 22
0.0
 32
0.0
 14
0.0
 24
0.0
 34
0.0
 15
0.0
 25
0.0
 35
0.0
146
0.0
 13
0.0
 23
0.0
 33
0.0
 16
1.0
 26
0.0
 36
0.0
 17
0.0
 27
1.0
 37
0.0
 76
     0
330
70
  0
LAYOUT
  5
6F
102
{ACAD_REACTORS
330
62
102
}
330
62
100
AcDbPlotSettings
  1

  2

  4

  6

 40
0.0
 41
0.0
 42
0.0
 43
0.0
 44
0.0
 45
0.0
 46
0.0
 47
0.0
 48
0.0
 49
0.0
140
0.0
141
0.0
142
1.0
143
1.0
 70
  1712
 72
     0
 73
     0
 74
     0
  7

 75
     0
147
1.0
 76
     0
 77
     2
 78
   300
148
0.0
149
0.0
100
AcDbLayout
  1
Model
 70
     1
 71
     0
 10
0.0
 20
0.0
 11
12.0
 21
9.0
 12
0.0
 22
0.0
 32
0.0
 14
0.0
 24
0.0
 34
0.0
 15
0.0
 25
0.0
 35
0.0
146
0.0
 13
0.0
 23
0.0
 33
0.0
 16
1.0
 26
0.0
 36
0.0
 17
0.0
 27
1.0
 37
0.0
 76
     0
330
6C
  0
MATERIAL
  5
19
102
{ACAD_XDICTIONARY
360
1A
102
}
102
{ACAD_REACTORS
330
10
102
}
330
10
100
AcDbMaterial
  1
ByBlock
 72
     0
 43
0.0208333333333333
 43
0.0
 43
0.0
 43
0.0
 43
0.0
 43
0.0208333333333333
 43
0.0
 43
0.0
 43
0.0
 43
0.0
 43
1.0
 43
0.0
 43
0.0
 43
0.0
 43
0.0
 43
1.0
 77
     0
 47
0.0208333333333333
 47
0.0
 47
0.0
 47
0.0
 47
0.0
 47
0.0208333333333333
 47
0.0
 47
0.0
 47
0.0
 47
0.0
 47
1.0
 47
0.0
 47
0.0
 47
0.0
 47
0.0
 47
1.0
171
     0
 49
0.0208333333333333
 49
0.0
 49
0.0
 49
0.0
 49
0.0
 49
0.0208333333333333
 49
0.0
 49
0.0
 49
0.0
 49
0.0
 49
1.0
 49
0.0
 49
0.0
 49
0.0
 49
0.0
 49
1.0
175
     0
142
0.0208333333333333
142
0.0
142
0.0
142
0.0
142
0.0
142
0.0208333333333333
142
0.0
142
0.0
142
0.0
142
0.0
142
1.0
142
0.0
142
0.0
142
0.0
142
0.0
142
1.0
179
     0
144
0.0208333333333333
144
0.0
144
0.0
144
0.0
144
0.0
144
0.0208333333333333
144
0.0
144
0.0
144
0.0
144
0.0
144
1.0
144
0.0
144
0.0
144
0.0
144
0.0
144
1.0
147
0.0208333333333333
147
0.0
147
0.0
147
0.0
147
0.0
147
0.0208333333333333
147
0.0
147
0.0
147
0.0
147
0.0
147
1.0
147
0.0
147
0.0
147
0.0
147
0.0
147
1.0
  0
MATERIAL
  5
11
102
{ACAD_XDICTIONARY
360
12
102
}
102
{ACAD_REACTORS
330
10
102
}
330
10
100
AcDbMaterial
  1
ByLayer
 72
     0
 43
0.0208333333333333
 43
0.0
 43
0.0
 43
0.0
 43
0.0
 43
0.0208333333333333
 43
0.0
 43
0.0
 43
0.0
 43
0.0
 43
1.0
 43
0.0
 43
0.0
 43
0.0
 43
0.0
 43
1.0
 77
     0
 47
0.0208333333333333
 47
0.0
 47
0.0
 47
0.0
 47
0.0
 47
0.0208333333333333
 47
0.0
 47
0.0
 47
0.0
 47
0.0
 47
1.0
 47
0.0
 47
0.0
 47
0.0
 47
0.0
 47
1.0
171
     0
 49
0.0208333333333333
 49
0.0
 49
0.0
 49
0.0
 49
0.0
 49
0.0208333333333333
 49
0.0
 49
0.0
 49
0.0
 49
0.0
 49
1.0
 49
0.0
 49
0.0
 49
0.0
 49
0.0
 49
1.0
175
     0
142
0.0208333333333333
142
0.0
142
0.0
142
0.0
142
0.0
142
0.0208333333333333
142
0.0
142
0.0
142
0.0
142
0.0
142
1.0
142
0.0
142
0.0
142
0.0
142
0.0
142
1.0
179
     0
144
0.0208333333333333
144
0.0
144
0.0
144
0.0
144
0.0
144
0.0208333333333333
144
0.0
144
0.0
144
0.0
144
0.0
144
1.0
144
0.0
144
0.0
144
0.0
144
0.0
144
1.0
147
0.0208333333333333
147
0.0
147
0.0
147
0.0
147
0.0
147
0.0208333333333333
147
0.0
147
0.0
147
0.0
147
0.0
147
1.0
147
0.0
147
0.0
147
0.0
147
0.0
147
1.0
  0
MATERIAL
  5
21
102
{ACAD_XDICTIONARY
360
22
102
}
102
{ACAD_REACTORS
330
10
102
}
330
10
100
AcDbMaterial
  1
Global
 72
     0
 43
0.0208333333333333
 43
0.0
 43
0.0
 43
0.0
 43
0.0
 43
0.0208333333333333
 43
0.0
 43
0.0
 43
0.0
 43
0.0
 43
1.0
 43
0.0
 43
0.0
 43
0.0
 43
0.0
 43
1.0
 77
     0
 47
0.0208333333333333
 47
0.0
 47
0.0
 47
0.0
 47
0.0
 47
0.0208333333333333
 47
0.0
 47
0.0
 47
0.0
 47
0.0
 47
1.0
 47
0.0
 47
0.0
 47
0.0
 47
0.0
 47
1.0
171
     0
 49
0.0208333333333333
 49
0.0
 49
0.0
 49
0.0
 49
0.0
 49
0.0208333333333333
 49
0.0
 49
0.0
 49
0.0
 49
0.0
 49
1.0
 49
0.0
 49
0.0
 49
0.0
 49
0.0
 49
1.0
175
     0
142
0.0208333333333333
142
0.0
142
0.0
142
0.0
142
0.0
142
0.0208333333333333
142
0.0
142
0.0
142
0.0
142
0.0
142
1.0
142
0.0
142
0.0
142
0.0
142
0.0
142
1.0
179
     0
144
0.0208333333333333
144
0.0
144
0.0
144
0.0
144
0.0
144
0.0208333333333333
144
0.0
144
0.0
144
0.0
144
0.0
144
1.0
144
0.0
144
0.0
144
0.0
144
0.0
144
1.0
147
0.0208333333333333
147
0.0
147
0.0
147
0.0
147
0.0
147
0.0208333333333333
147
0.0
147
0.0
147
0.0
147
0.0
147
1.0
147
0.0
147
0.0
147
0.0
147
0.0
147
1.0
  0
MLEADERSTYLE
  5
67
102
{ACAD_XDICTIONARY
360
849
102
}
102
{ACAD_REACTORS
330
66
102
}
330
66
100
AcDbMLeaderStyle
170
     2
171
     1
172
     0
 90
        2
 40
0.0
 41
0.0
173
     1
 91
-1056964608
340
5B
 92
       -2
290
     1
 42
0.09
291
     1
 43
0.36
  3
Standard
 44
0.18
300

342
55
174
     1
178
     6
175
     1
176
     0
 93
-1056964608
 45
0.18
292
     0
297
     0
 46
0.18
 94
-1056964608
 47
1.0
 49
1.0
140
1.0
293
     1
141
0.0
294
     1
177
     0
142
1.0
295
     0
296
     0
143
0.125
1001
ACAD_MLEADERVER
1070
     2
  0
MLINESTYLE
  5
60
102
{ACAD_REACTORS
330
5F
102
}
330
5F
100
AcDbMlineStyle
  2
STANDARD
 70
     0
  3

 62
   256
 51
90.0
 52
90.0
 71
     2
 49
0.5
 62
   256
  6
BYLAYER
 49
-0.5
 62
   256
  6
BYLAYER
  0
ACDBPLACEHOLDER
  5
F
102
{ACAD_REACTORS
330
E
102
}
330
E
  0
SCALE
  5
43
102
{ACAD_REACTORS
330
42
102
}
330
42
100
AcDbScale
 70
     0
300
1:1
140
1.0
141
1.0
290
     1
  0
SCALE
  5
44
102
{ACAD_REACTORS
330
42
102
}
330
42
100
AcDbScale
 70
     0
300
1/128" = 1'-0"
140
0.0078125
141
12.0
290
     0
  0
SCALE
  5
45
102
{ACAD_REACTORS
330
42
102
}
330
42
100
AcDbScale
 70
     0
300
1/64" = 1'-0"
140
0.015625
141
12.0
290
     0
  0
SCALE
  5
46
102
{ACAD_REACTORS
330
42
102
}
330
42
100
AcDbScale
 70
     0
300
1/32" = 1'-0"
140
0.03125
141
12.0
290
     0
  0
SCALE
  5
47
102
{ACAD_REACTORS
330
42
102
}
330
42
100
AcDbScale
 70
     0
300
1/16" = 1'-0"
140
0.0625
141
12.0
290
     0
  0
SCALE
  5
48
102
{ACAD_REACTORS
330
42
102
}
330
42
100
AcDbScale
 70
     0
300
3/32" = 1'-0"
140
0.09375
141
12.0
290
     0
  0
SCALE
  5
49
102
{ACAD_REACTORS
330
42
102
}
330
42
100
AcDbScale
 70
     0
300
1/8" = 1'-0"
140
0.125
141
12.0
290
     0
  0
SCALE
  5
4A
102
{ACAD_REACTORS
330
42
102
}
330
42
100
AcDbScale
 70
     0
300
3/16" = 1'-0"
140
0.1875
141
12.0
290
     0
  0
SCALE
  5
4B
102
{ACAD_REACTORS
330
42
102
}
330
42
100
AcDbScale
 70
     0
300
1/4" = 1'-0"
140
0.25
141
12.0
290
     0
  0
SCALE
  5
4C
102
{ACAD_REACTORS
330
42
102
}
330
42
100
AcDbScale
 70
     0
300
3/8" = 1'-0"
140
0.375
141
12.0
290
     0
  0
SCALE
  5
4D
102
{ACAD_REACTORS
330
42
102
}
330
42
100
AcDbScale
 70
     0
300
1/2" = 1'-0"
140
0.5
141
12.0
290
     0
  0
SCALE
  5
4E
102
{ACAD_REACTORS
330
42
102
}
330
42
100
AcDbScale
 70
     0
300
3/4" = 1'-0"
140
0.75
141
12.0
290
     0
  0
SCALE
  5
4F
102
{ACAD_REACTORS
330
42
102
}
330
42
100
AcDbScale
 70
     0
300
1" = 1'-0"
140
1.0
141
12.0
290
     0
  0
SCALE
  5
50
102
{ACAD_REACTORS
330
42
102
}
330
42
100
AcDbScale
 70
     0
300
1-1/2" = 1'-0"
140
1.5
141
12.0
290
     0
  0
SCALE
  5
51
102
{ACAD_REACTORS
330
42
102
}
330
42
100
AcDbScale
 70
     0
300
3" = 1'-0"
140
3.0
141
12.0
290
     0
  0
SCALE
  5
52
102
{ACAD_REACTORS
330
42
102
}
330
42
100
AcDbScale
 70
     0
300
6" = 1'-0"
140
6.0
141
12.0
290
     0
  0
SCALE
  5
53
102
{ACAD_REACTORS
330
42
102
}
330
42
100
AcDbScale
 70
     0
300
1'-0" = 1'-0"
140
12.0
141
12.0
290
     0
  0
TABLESTYLE
  5
65
102
{ACAD_XDICTIONARY
360
847
102
}
102
{ACAD_REACTORS
330
64
102
}
330
64
100
AcDbTableStyle
  3
Standard
 70
     0
 71
     0
 40
0.06
 41
0.06
280
     0
281
     0
  7
Standard
140
0.18
170
     2
 62
     0
 63
     7
283
     0
 90
      512
 91
        0
  1

274
    -2
284
     1
 64
     0
275
    -2
285
     1
 65
     0
276
    -2
286
     1
 66
     0
277
    -2
287
     1
 67
     0
278
    -2
288
     1
 68
     0
279
    -2
289
     1
 69
     0
  7
Standard
140
0.25
170
     5
 62
     0
 63
     7
283
     0
 90
      512
 91
        0
  1

274
    -2
284
     1
 64
     0
275
    -2
285
     1
 65
     0
276
    -2
286
     1
 66
     0
277
    -2
287
     1
 67
     0
278
    -2
288
     1
 68
     0
279
    -2
289
     1
 69
     0
  7
Standard
140
0.18
170
     5
 62
     0
 63
     7
283
     0
 90
      512
 91
        0
  1

274
    -2
284
     1
 64
     0
275
    -2
285
     1
 65
     0
276
    -2
286
     1
 66
     0
277
    -2
287
     1
 67
     0
278
    -2
288
     1
 68
     0
279
    -2
289
     1
 69
     0
  0
VISUALSTYLE
  5
2F
102
{ACAD_XDICTIONARY
360
856
102
}
102
{ACAD_REACTORS
330
29
102
}
330
29
100
AcDbVisualStyle
  2
2dWireframe
 70
     4
 71
     0
 72
     2
 73
     0
 90
        0
 40
-0.6
 41
-30.0
 62
     5
 63
     7
421
 16777215
 74
     1
 91
        4
 64
     7
 65
   257
 75
     1
175
     1
 42
1.0
 92
        0
 66
   257
 43
1.0
 76
     1
 77
     6
 78
     2
 67
     7
 79
     5
170
     0
171
     0
290
     0
174
     0
 93
        1
 44
0.0
173
     0
291
     0
 45
0.0
1001
ACAD
1000
AcDbSavedByObjectVersion
1070
     0
  0
VISUALSTYLE
  5
2E
102
{ACAD_XDICTIONARY
360
854
102
}
102
{ACAD_REACTORS
330
29
102
}
330
29
100
AcDbVisualStyle
  2
Basic
 70
     7
 71
     1
 72
     0
 73
     1
 90
        0
 40
-0.6
 41
-30.0
 62
     5
 63
     7
421
 16777215
 74
     0
 91
        4
 64
     7
 65
   257
 75
     1
175
     1
 42
1.0
 92
        8
 66
     7
 43
1.0
 76
     1
 77
     6
 78
     2
 67
     7
 79
     5
170
     0
171
     0
290
     0
174
     0
 93
        1
 44
0.0
173
     0
291
     1
 45
0.0
1001
ACAD
1000
AcDbSavedByObjectVersion
1070
     0
  0
VISUALSTYLE
  5
35
102
{ACAD_XDICTIONARY
360
862
102
}
102
{ACAD_REACTORS
330
29
102
}
330
29
100
AcDbVisualStyle
  2
Brighten
 70
    12
 71
     2
 72
     2
 73
     0
 90
        0
 40
-0.6
 41
-30.0
 62
     5
 63
     7
421
 16777215
 74
     1
 91
        4
 64
     7
 65
   257
 75
     1
175
     1
 42
1.0
 92
        8
 66
     7
 43
1.0
 76
     1
 77
     6
 78
     2
 67
     7
 79
     5
170
     0
171
     0
290
     0
174
     0
 93
        1
 44
50.0
173
     0
291
     1
 45
0.0
1001
ACAD
1000
AcDbSavedByObjectVersion
1070
     0
  0
VISUALSTYLE
  5
39
102
{ACAD_XDICTIONARY
360
86A
102
}
102
{ACAD_REACTORS
330
29
102
}
330
29
100
AcDbVisualStyle
  2
ColorChange
 70
    16
 71
     2
 72
     2
 73
     3
 90
        0
 40
-0.6
 41
-30.0
 62
     5
 63
     8
421
  8421504
 74
     1
 91
        4
 64
     7
 65
   257
 75
     1
175
     1
 42
1.0
 92
        8
 66
     8
424
  8421504
 43
1.0
 76
     1
 77
     6
 78
     2
 67
     7
 79
     5
170
     0
171
     0
290
     0
174
     0
 93
        1
 44
0.0
173
     0
291
     1
 45
0.0
1001
ACAD
1000
AcDbSavedByObjectVersion
1070
     0
  0
VISUALSTYLE
  5
32
102
{ACAD_XDICTIONARY
360
85C
102
}
102
{ACAD_REACTORS
330
29
102
}
330
29
100
AcDbVisualStyle
  2
Conceptual
 70
     9
 71
     3
 72
     2
 73
     0
 90
        0
 40
-0.6
 41
-30.0
 62
     5
 63
     7
421
 16777215
 74
     2
 91
        2
 64
     7
 65
   257
 75
     1
175
     1
 42
179.0
 92
        8
 66
     7
 43
1.0
 76
     1
 77
     6
 78
     2
 67
     7
 79
     3
170
     0
171
     0
290
     0
174
     0
 93
        1
 44
0.0
173
     0
291
     0
 45
0.0
1001
ACAD
1000
AcDbSavedByObjectVersion
1070
     0
  0
VISUALSTYLE
  5
34
102
{ACAD_XDICTIONARY
360
860
102
}
102
{ACAD_REACTORS
330
29
102
}
330
29
100
AcDbVisualStyle
  2
Dim
 70
    11
 71
     2
 72
     2
 73
     0
 90
        0
 40
-0.6
 41
-30.0
 62
     5
 63
     7
421
 16777215
 74
     1
 91
        4
 64
     7
 65
   257
 75
     1
175
     1
 42
1.0
 92
        8
 66
     7
 43
1.0
 76
     1
 77
     6
 78
     2
 67
     7
 79
     5
170
     0
171
     0
290
     0
174
     0
 93
        1
 44
-50.0
173
     0
291
     1
 45
0.0
1001
ACAD
1000
AcDbSavedByObjectVersion
1070
     0
  0
VISUALSTYLE
  5
41
102
{ACAD_XDICTIONARY
360
87A
102
}
102
{ACAD_REACTORS
330
29
102
}
330
29
100
AcDbVisualStyle
  2
EdgeColorOff
 70
    22
 71
     2
 72
     2
 73
     0
 90
        0
 40
-0.6
 41
-30.0
 62
     5
 63
     7
421
 16777215
 74
     1
 91
        4
 64
     7
 65
   257
 75
     1
175
     1
 42
1.0
 92
        8
 66
     7
 43
1.0
 76
     1
 77
     6
 78
     2
 67
     7
 79
     5
170
     0
171
     0
290
     0
174
     0
 93
        1
 44
0.0
173
     0
291
     1
 45
0.0
1001
ACAD
1000
AcDbSavedByObjectVersion
1070
     0
  0
VISUALSTYLE
  5
38
102
{ACAD_XDICTIONARY
360
868
102
}
102
{ACAD_REACTORS
330
29
102
}
330
29
100
AcDbVisualStyle
  2
Facepattern
 70
    15
 71
     2
 72
     2
 73
     0
 90
        0
 40
-0.6
 41
-30.0
 62
     5
 63
     7
421
 16777215
 74
     1
 91
        4
 64
     7
 65
   257
 75
     1
175
     1
 42
1.0
 92
        8
 66
     7
 43
1.0
 76
     1
 77
     6
 78
     2
 67
     7
 79
     5
170
     0
171
     0
290
     0
174
     0
 93
        1
 44
0.0
173
     0
291
     1
 45
0.0
1001
ACAD
1000
AcDbSavedByObjectVersion
1070
     0
  0
VISUALSTYLE
  5
2A
102
{ACAD_XDICTIONARY
360
84C
102
}
102
{ACAD_REACTORS
330
29
102
}
330
29
100
AcDbVisualStyle
  2
Flat
 70
     0
 71
     2
 72
     1
 73
     1
 90
        2
 40
-0.6
 41
30.0
 62
     5
 63
     7
421
 16777215
 74
     0
 91
        0
 64
     7
 65
   257
 75
     1
175
     1
 42
1.0
 92
        8
 66
     7
 43
1.0
 76
     1
 77
     6
 78
     2
 67
     7
 79
     5
170
     0
171
     0
290
     0
174
     0
 93
       13
 44
0.0
173
     0
291
     1
 45
0.0
1001
ACAD
1000
AcDbSavedByObjectVersion
1070
     0
  0
VISUALSTYLE
  5
2B
102
{ACAD_XDICTIONARY
360
84E
102
}
102
{ACAD_REACTORS
330
29
102
}
330
29
100
AcDbVisualStyle
  2
FlatWithEdges
 70
     1
 71
     2
 72
     1
 73
     1
 90
        2
 40
-0.6
 41
30.0
 62
     5
 63
     7
421
 16777215
 74
     1
 91
        0
 64
     7
 65
   257
 75
     1
175
     1
 42
1.0
 92
        0
 66
   257
 43
1.0
 76
     1
 77
     6
 78
     2
 67
     7
 79
     5
170
     0
171
     0
290
     0
174
     0
 93
       13
 44
0.0
173
     0
291
     1
 45
0.0
1001
ACAD
1000
AcDbSavedByObjectVersion
1070
     0
  0
VISUALSTYLE
  5
2C
102
{ACAD_XDICTIONARY
360
850
102
}
102
{ACAD_REACTORS
330
29
102
}
330
29
100
AcDbVisualStyle
  2
Gouraud
 70
     2
 71
     2
 72
     2
 73
     1
 90
        2
 40
-0.6
 41
30.0
 62
     5
 63
     7
421
 16777215
 74
     0
 91
        0
 64
     7
 65
   257
 75
     1
175
     1
 42
1.0
 92
        0
 66
     7
 43
1.0
 76
     1
 77
     6
 78
     2
 67
     7
 79
     5
170
     0
171
     0
290
     0
174
     0
 93
       13
 44
0.0
173
     0
291
     1
 45
0.0
1001
ACAD
1000
AcDbSavedByObjectVersion
1070
     0
  0
VISUALSTYLE
  5
2D
102
{ACAD_XDICTIONARY
360
852
102
}
102
{ACAD_REACTORS
330
29
102
}
330
29
100
AcDbVisualStyle
  2
GouraudWithEdges
 70
     3
 71
     2
 72
     2
 73
     1
 90
        2
 40
-0.6
 41
30.0
 62
     5
 63
     7
421
 16777215
 74
     1
 91
        0
 64
     7
 65
   257
 75
     1
175
     1
 42
1.0
 92
        0
 66
   257
 43
1.0
 76
     1
 77
     6
 78
     2
 67
     7
 79
     5
170
     0
171
     0
290
     0
174
     0
 93
       13
 44
0.0
173
     0
291
     1
 45
0.0
1001
ACAD
1000
AcDbSavedByObjectVersion
1070
     0
  0
VISUALSTYLE
  5
31
102
{ACAD_XDICTIONARY
360
85A
102
}
102
{ACAD_REACTORS
330
29
102
}
330
29
100
AcDbVisualStyle
  2
Hidden
 70
     6
 71
     1
 72
     2
 73
     2
 90
        0
 40
-0.6
 41
-30.0
 62
     5
 63
     7
421
 16777215
 74
     2
 91
        2
 64
     7
 65
   257
 75
     2
175
     1
 42
40.0
 92
        0
 66
   257
 43
1.0
 76
     1
 77
     6
 78
     2
 67
     7
 79
     3
170
     0
171
     0
290
     0
174
     0
 93
        1
 44
0.0
173
     0
291
     0
 45
0.0
1001
ACAD
1000
AcDbSavedByObjectVersion
1070
     0
  0
VISUALSTYLE
  5
3F
102
{ACAD_XDICTIONARY
360
876
102
}
102
{ACAD_REACTORS
330
29
102
}
330
29
100
AcDbVisualStyle
  2
JitterOff
 70
    20
 71
     2
 72
     2
 73
     0
 90
        0
 40
-0.6
 41
-30.0
 62
     5
 63
     7
421
 16777215
 74
     1
 91
        4
 64
     7
 65
   257
 75
     1
175
     1
 42
1.0
 92
       10
 66
     7
 43
1.0
 76
     1
 77
     6
 78
     2
 67
     7
 79
     5
170
     0
171
     0
290
     0
174
     0
 93
        1
 44
0.0
173
     0
291
     1
 45
0.0
1001
ACAD
1000
AcDbSavedByObjectVersion
1070
     0
  0
VISUALSTYLE
  5
37
102
{ACAD_XDICTIONARY
360
866
102
}
102
{ACAD_REACTORS
330
29
102
}
330
29
100
AcDbVisualStyle
  2
Linepattern
 70
    14
 71
     2
 72
     2
 73
     0
 90
        0
 40
-0.6
 41
-30.0
 62
     5
 63
     7
421
 16777215
 74
     1
 91
        4
 64
     7
 65
   257
 75
     7
175
     7
 42
1.0
 92
        8
 66
     7
 43
1.0
 76
     1
 77
     6
 78
     2
 67
     7
 79
     5
170
     0
171
     0
290
     0
174
     0
 93
        1
 44
0.0
173
     0
291
     1
 45
0.0
1001
ACAD
1000
AcDbSavedByObjectVersion
1070
     0
  0
VISUALSTYLE
  5
40
102
{ACAD_XDICTIONARY
360
878
102
}
102
{ACAD_REACTORS
330
29
102
}
330
29
100
AcDbVisualStyle
  2
OverhangOff
 70
    21
 71
     2
 72
     2
 73
     0
 90
        0
 40
-0.6
 41
-30.0
 62
     5
 63
     7
421
 16777215
 74
     1
 91
        4
 64
     7
 65
   257
 75
     1
175
     1
 42
1.0
 92
        9
 66
     7
 43
1.0
 76
     1
 77
     6
 78
     2
 67
     7
 79
     5
170
     0
171
     0
290
     0
174
     0
 93
        1
 44
0.0
173
     0
291
     1
 45
0.0
1001
ACAD
1000
AcDbSavedByObjectVersion
1070
     0
  0
VISUALSTYLE
  5
33
102
{ACAD_XDICTIONARY
360
85E
102
}
102
{ACAD_REACTORS
330
29
102
}
330
29
100
AcDbVisualStyle
  2
Realistic
 70
     8
 71
     2
 72
     3
 73
     0
 90
        2
 40
-0.6
 41
30.0
 62
     5
 63
     7
421
 16777215
 74
     0
 91
        0
 64
     7
 65
   257
 75
     1
175
     1
 42
1.0
 92
        8
 66
   257
 43
1.0
 76
     1
 77
     6
 78
     2
 67
     7
 79
     3
170
     0
171
     0
290
     0
174
     0
 93
       13
 44
0.0
173
     0
291
     0
 45
0.0
1001
ACAD
1000
AcDbSavedByObjectVersion
1070
     0
  0
VISUALSTYLE
  5
3E
102
{ACAD_XDICTIONARY
360
874
102
}
102
{ACAD_REACTORS
330
29
102
}
330
29
100
AcDbVisualStyle
  2
Shaded
 70
    27
 71
     2
 72
     2
 73
     1
 90
        2
 40
-0.6
 41
30.0
 62
     5
 63
     7
421
 16777215
 74
     0
 91
        4
 64
     7
 65
   257
 75
     1
175
     1
 42
1.0
 92
        8
 66
   257
 43
1.0
 76
     1
 77
     6
 78
     2
 67
     8
425
  7895160
 79
     3
170
     0
171
     0
290
     0
174
     0
 93
        5
 44
0.0
173
     0
291
     0
 45
0.0
1001
ACAD
1000
AcDbSavedByObjectVersion
1070
     0
  0
VISUALSTYLE
  5
3D
102
{ACAD_XDICTIONARY
360
872
102
}
102
{ACAD_REACTORS
330
29
102
}
330
29
100
AcDbVisualStyle
  2
Shaded with edges
 70
    26
 71
     2
 72
     2
 73
     1
 90
        2
 40
-0.6
 41
30.0
 62
     5
 63
     7
421
 16777215
 74
     1
 91
       10
 64
     7
 65
   257
 75
     2
175
     1
 42
1.0
 92
        8
 66
   257
 43
1.0
 76
     1
 77
     6
 78
     2
 67
     7
 79
     3
170
     0
171
     0
290
     0
174
     0
 93
        5
 44
0.0
173
     0
291
     0
 45
0.0
1001
ACAD
1000
AcDbSavedByObjectVersion
1070
     0
  0
VISUALSTYLE
  5
3A
102
{ACAD_XDICTIONARY
360
86C
102
}
102
{ACAD_REACTORS
330
29
102
}
330
29
100
AcDbVisualStyle
  2
Shades of Gray
 70
    23
 71
     2
 72
     2
 73
     3
 90
        0
 40
-0.6
 41
-30.0
 62
     5
 63
     7
421
 16777215
 74
     2
 91
        2
 64
     7
 65
     7
 75
     1
175
     1
 42
40.0
 92
        8
 66
     7
 43
1.0
 76
     1
 77
     6
 78
     2
 67
     7
 79
     3
170
     0
171
     0
290
     0
174
     0
 93
        1
 44
0.0
173
     0
291
     0
 45
0.0
1001
ACAD
1000
AcDbSavedByObjectVersion
1070
     0
  0
VISUALSTYLE
  5
3B
102
{ACAD_XDICTIONARY
360
86E
102
}
102
{ACAD_REACTORS
330
29
102
}
330
29
100
AcDbVisualStyle
  2
Sketchy
 70
    24
 71
     1
 72
     2
 73
     2
 90
        0
 40
-0.6
 41
-30.0
 62
     5
 63
     7
421
 16777215
 74
     2
 91
        2
 64
     7
 65
     7
 75
     1
175
     1
 42
40.0
 92
       11
 66
     7
 43
1.0
 76
     1
 77
     6
 78
     2
 67
     7
 79
     6
170
     0
171
     0
290
     0
174
     0
 93
        1
 44
0.0
173
     0
291
     0
 45
0.0
1001
ACAD
1000
AcDbSavedByObjectVersion
1070
     0
  0
VISUALSTYLE
  5
36
102
{ACAD_XDICTIONARY
360
864
102
}
102
{ACAD_REACTORS
330
29
102
}
330
29
100
AcDbVisualStyle
  2
Thicken
 70
    13
 71
     2
 72
     2
 73
     0
 90
        0
 40
-0.6
 41
-30.0
 62
     5
 63
     7
421
 16777215
 74
     1
 91
        4
 64
     7
 65
   257
 75
     1
175
     1
 42
1.0
 92
       12
 66
     7
 43
1.0
 76
     1
 77
     6
 78
     2
 67
     7
 79
     5
170
     0
171
     0
290
     0
174
     0
 93
        1
 44
0.0
173
     0
291
     1
 45
0.0
1001
ACAD
1000
AcDbSavedByObjectVersion
1070
     0
  0
VISUALSTYLE
  5
30
102
{ACAD_XDICTIONARY
360
858
102
}
102
{ACAD_REACTORS
330
29
102
}
330
29
100
AcDbVisualStyle
  2
Wireframe
 70
     5
 71
     0
 72
     2
 73
     0
 90
        0
 40
-0.6
 41
-30.0
 62
     5
 63
     7
421
 16777215
 74
     1
 91
        4
 64
     7
 65
   257
 75
     1
175
     1
 42
1.0
 92
        0
 66
   257
 43
1.0
 76
     1
 77
     6
 78
     2
 67
     7
 79
     3
170
     0
171
     0
290
     0
174
     0
 93
        1
 44
0.0
173
     0
291
     0
 45
0.0
1001
ACAD
1000
AcDbSavedByObjectVersion
1070
     0
  0
VISUALSTYLE
  5
3C
102
{ACAD_XDICTIONARY
360
870
102
}
102
{ACAD_REACTORS
330
29
102
}
330
29
100
AcDbVisualStyle
  2
X-Ray
 70
    25
 71
     2
 72
     2
 73
     1
 90
        1
 40
0.5
 41
-30.0
 62
     5
 63
     7
421
 16777215
 74
     1
 91
        0
 64
     7
 65
   257
 75
     1
175
     1
 42
1.0
 92
        8
 66
     7
 43
1.0
 76
     1
 77
     6
 78
     2
 67
     7
 79
     3
170
     0
171
     0
290
     0
174
     0
 93
       13
 44
0.0
173
     0
291
     0
 45
0.0
1001
ACAD
1000
AcDbSavedByObjectVersion
1070
     0
  0
DICTIONARYVAR
  5
845
102
{ACAD_REACTORS
330
842
102
}
330
842
100
DictionaryVariables
280
     0
  1
1:1
  0
DICTIONARYVAR
  5
844
102
{ACAD_REACTORS
330
842
102
}
330
842
100
DictionaryVariables
280
     0
  1
STANDARD
  0
DICTIONARYVAR
  5
843
102
{ACAD_REACTORS
330
842
102
}
330
842
100
DictionaryVariables
280
     0
  1
STANDARD
  0
DICTIONARYVAR
  5
846
102
{ACAD_REACTORS
330
842
102
}
330
842
100
DictionaryVariables
280
     0
  1
2
  0
DICTIONARY
  5
1A
330
19
100
AcDbDictionary
280
     1
281
     1
  3
BUMPTILE
360
1C
  3
DIFFUSETILE
360
1B
  3
OPACITYTILE
360
1F
  3
REFLECTIONTILE
360
1E
  3
REFRACTIONTILE
360
20
  3
SPECULARTILE
360
1D
  0
DICTIONARY
  5
12
330
11
100
AcDbDictionary
280
     1
281
     1
  3
BUMPTILE
360
14
  3
DIFFUSETILE
360
13
  3
FBXASSET
360
D7
  3
OPACITYTILE
360
17
  3
REFLECTIONTILE
360
16
  3
REFRACTIONTILE
360
18
  3
SPECULARTILE
360
15
  0
DICTIONARY
  5
22
330
21
100
AcDbDictionary
280
     1
281
     1
  3
BUMPTILE
360
24
  3
DIFFUSETILE
360
23
  3
OPACITYTILE
360
27
  3
REFLECTIONTILE
360
26
  3
REFRACTIONTILE
360
28
  3
SPECULARTILE
360
25
  0
DICTIONARY
  5
849
330
67
100
AcDbDictionary
280
     1
281
     1
  3
ACAD_XREC_ROUNDTRIP
360
84A
  0
DICTIONARY
  5
847
330
65
100
AcDbDictionary
280
     1
281
     1
  3
ACAD_ROUNDTRIP_2008_TABLESTYLE_CELLSTYLEMAP
360
848
  0
DICTIONARY
  5
856
330
2F
100
AcDbDictionary
280
     1
281
     1
  3
ACAD_XREC_ROUNDTRIP
360
857
  0
DICTIONARY
  5
854
330
2E
100
AcDbDictionary
280
     1
281
     1
  3
ACAD_XREC_ROUNDTRIP
360
855
  0
DICTIONARY
  5
862
330
35
100
AcDbDictionary
280
     1
281
     1
  3
ACAD_XREC_ROUNDTRIP
360
863
  0
DICTIONARY
  5
86A
330
39
100
AcDbDictionary
280
     1
281
     1
  3
ACAD_XREC_ROUNDTRIP
360
86B
  0
DICTIONARY
  5
85C
330
32
100
AcDbDictionary
280
     1
281
     1
  3
ACAD_XREC_ROUNDTRIP
360
85D
  0
DICTIONARY
  5
860
330
34
100
AcDbDictionary
280
     1
281
     1
  3
ACAD_XREC_ROUNDTRIP
360
861
  0
DICTIONARY
  5
87A
330
41
100
AcDbDictionary
280
     1
281
     1
  3
ACAD_XREC_ROUNDTRIP
360
87B
  0
DICTIONARY
  5
868
330
38
100
AcDbDictionary
280
     1
281
     1
  3
ACAD_XREC_ROUNDTRIP
360
869
  0
DICTIONARY
  5
84C
330
2A
100
AcDbDictionary
280
     1
281
     1
  3
ACAD_XREC_ROUNDTRIP
360
84D
  0
DICTIONARY
  5
84E
330
2B
100
AcDbDictionary
280
     1
281
     1
  3
ACAD_XREC_ROUNDTRIP
360
84F
  0
DICTIONARY
  5
850
330
2C
100
AcDbDictionary
280
     1
281
     1
  3
ACAD_XREC_ROUNDTRIP
360
851
  0
DICTIONARY
  5
852
330
2D
100
AcDbDictionary
280
     1
281
     1
  3
ACAD_XREC_ROUNDTRIP
360
853
  0
DICTIONARY
  5
85A
330
31
100
AcDbDictionary
280
     1
281
     1
  3
ACAD_XREC_ROUNDTRIP
360
85B
  0
DICTIONARY
  5
876
330
3F
100
AcDbDictionary
280
     1
281
     1
  3
ACAD_XREC_ROUNDTRIP
360
877
  0
DICTIONARY
  5
866
330
37
100
AcDbDictionary
280
     1
281
     1
  3
ACAD_XREC_ROUNDTRIP
360
867
  0
DICTIONARY
  5
878
330
40
100
AcDbDictionary
280
     1
281
     1
  3
ACAD_XREC_ROUNDTRIP
360
879
  0
DICTIONARY
  5
85E
330
33
100
AcDbDictionary
280
     1
281
     1
  3
ACAD_XREC_ROUNDTRIP
360
85F
  0
DICTIONARY
  5
874
330
3E
100
AcDbDictionary
280
     1
281
     1
  3
ACAD_XREC_ROUNDTRIP
360
875
  0
DICTIONARY
  5
872
330
3D
100
AcDbDictionary
280
     1
281
     1
  3
ACAD_XREC_ROUNDTRIP
360
873
  0
DICTIONARY
  5
86C
330
3A
100
AcDbDictionary
280
     1
281
     1
  3
ACAD_XREC_ROUNDTRIP
360
86D
  0
DICTIONARY
  5
86E
330
3B
100
AcDbDictionary
280
     1
281
     1
  3
ACAD_XREC_ROUNDTRIP
360
86F
  0
DICTIONARY
  5
864
330
36
100
AcDbDictionary
280
     1
281
     1
  3
ACAD_XREC_ROUNDTRIP
360
865
  0
DICTIONARY
  5
858
330
30
100
AcDbDictionary
280
     1
281
     1
  3
ACAD_XREC_ROUNDTRIP
360
859
  0
DICTIONARY
  5
870
330
3C
100
AcDbDictionary
280
     1
281
     1
  3
ACAD_XREC_ROUNDTRIP
360
871
  0
XRECORD
  5
1C
102
{ACAD_REACTORS
330
1A
102
}
330
1A
100
AcDbXrecord
280
     1
270
     1
271
     1
  0
XRECORD
  5
1B
102
{ACAD_REACTORS
330
1A
102
}
330
1A
100
AcDbXrecord
280
     1
270
     1
271
     1
  0
XRECORD
  5
1F
102
{ACAD_REACTORS
330
1A
102
}
330
1A
100
AcDbXrecord
280
     1
270
     1
271
     1
  0
XRECORD
  5
1E
102
{ACAD_REACTORS
330
1A
102
}
330
1A
100
AcDbXrecord
280
     1
270
     1
271
     1
  0
XRECORD
  5
20
102
{ACAD_REACTORS
330
1A
102
}
330
1A
100
AcDbXrecord
280
     1
270
     1
271
     1
  0
XRECORD
  5
1D
102
{ACAD_REACTORS
330
1A
102
}
330
1A
100
AcDbXrecord
280
     1
270
     1
271
     1
  0
XRECORD
  5
14
102
{ACAD_REACTORS
330
12
102
}
330
12
100
AcDbXrecord
280
     1
270
     1
271
     1
  0
XRECORD
  5
13
102
{ACAD_REACTORS
330
12
102
}
330
12
100
AcDbXrecord
280
     1
270
     1
271
     1
  0
XRECORD
  5
D7
102
{ACAD_REACTORS
330
12
102
}
330
12
100
AcDbXrecord
280
     1
 70
     1
 90
1959938040
 71
     1
  1
AED3F94D-B06D-4263-8AA4-9E9F46B62EA2
311
504B03040A0000080000B179CB403DEE336E79000000790000001B0000006175746F6465736B2D64657369676E2D7061636B6167652E786D6C3C3F786D6C2076657273696F6E3D22312E302220656E636F64696E673D227574662D3822203F3E3C666F726D6174733E3C666F726D61743E687474703A2F2F736368656D612E
311
6175746F6465736B2E636F6D2F64657369676E2D7061636B6167652F323030393C2F666F726D61743E3C2F666F726D6174733E504B0304140006080800B179CB40D486FD9CA0000000F4000000130000005B436F6E74656E745F54797065735D2E786D6C7D8EC10E82300C865F65E91D8A1E8C310C0EEA1BF002731658846E
311
D98AC1B77784ABF1D8FE5FBFBF75BBCE937A534CCEB38643598122B6FEE978D0B0485F9C41B54DDD7D022595594E1A469170414C76A4D9A4D207E29CF43ECE46F218070CC6BECC4078ACAA135ACF422C856C0E68EA1BF5669944DDD7BCDE7B1F8E415D77AECB980613C2E4AC91FC167A2B244592486606FC29C8FD7F045B9A
311
EF7053A7E60B504B0304140006080800B179CB40959D37FEE70000007C01000008000000636F72652E786D6C8D50D16EC3200CFC15E4D789048725DA2242D5ACDA17EC0750A0196A035180699F3F6853697BDB8B7D3ADFD9D689C3F772255F660BD6BB01B062408C9BBCB66E1E20C5337D01729062F33EFE9201716A310314
311
1AA498379FD69D9ABC8BC6C5CC3AAFCD4EAA104C04325D3318204C9F6651954A312BC2A55AD57451B3A9F081B23925ABC9FD88D5799F3D5BB3811C11F95B771AE9F3B1E3B9BC8E743CBE9F28C3917719342D475117B314D12E8FFBD36654341A64C3B0A1ACA3881FD8F6C87BDE3E31EC19137591FF31A555FFD394AC8BBCD9
311
DFBDDB02C8F2C86D20455DB2C8ED1654EE2537F903504B0304140006080800B179CB4055019EA25F0000007C00000007000000636E782E786D6C4DCB3B0E80201045D1AD90E915ED2CF8AC45050C11660C8261F98AB1B07AC9C97D42D718D865D3E909258CFD00CCE24AC6E326A164D74DC0B4128928FF326038472BA13128
311
B1252AC747C6BAB984FC68F0B87FE8960A5C09FE86CFB69FBA01504B0304140006080800B179CB409E88CB7163010000020300000C0000006662782F636F72652E786D6C8D52ED6A8330147D9590BF4393682B5B892975654FB017483575524D2426D2C7DF8D5A5C472945B85ECEFD38E71EE5FB6BD7A251D9A1313AC72CA6
311
18295D9AAAD1758EBD3B47EF18ED05B7C6B83F6D1869D9A91C07180B5E5BE3FB052A8D764A3B40B5A9D402CA61500EA3B28524C743F9A33A194BEFA063B8C4BD2C2FB256318BA10C7D820FCE820034938488C5F974E564C605F7BEA9966A53015B736E94C5A2602CFDCC8E45B4396429848F222A0E5FC788B222CD2049B629
311
E3240C0BEE9AEEA6AEB44A3A556191509644348B18FB66DB1D4B77E9F68DB21DA59C84F6BB21DF572F0EF946BB3459E4CE63031641C854F8772D58E4D02047D0430427C144784D0EDF1B0D8680C94E9EDADB1D178046553A633750A98C5F4BA36CBD02568AA68793B90A9BA70570D9C33DC9933DCF77C00794BA0669D2417A
311
F22EB0F39975B1A257361ADD1569633BD9AEE266896B5C891E8E97A635F69569B29C4A163349F87BC52F504B0304140006080800B179CB408C1507077E0000009D0000000B0000006662782F636E782E786D6C4DCCD10E82201886E15B61FF398918681BE032B81097E858088DA075F969F3A0A36F7BF6ED15FD67F5E86DD3
311
CBC520A13E114036DCE3E4C222A1E41977807A25528CF9EF06288CAB95B03328B1A4589E074D761E8BCF9B7A171E07726368C3A8C19A7282CFAC26F8425B8D8796F1EBAD6BB81E18544A54BFD2B67B587D01504B0304140006080800B179CB401FE112C72D01000015020000310000006662782F36454532333532452D4432
311
36302D343531302D393237442D4237353641433833364442352F636F72652E786D6C8D515B6EC32010BC0AE22B55850DD890873051D3E406BD00B5498A1283C5A3CAF10BB523B57FF961D1ECCCEC6857ECEFE30D7C6B1F8CB31D24158640DBDE0DC65E3A98E2196D20D84BE19D8B7F68105835EA0E16184A71F12E4D0BD43B
311
1BB58D19B56ED00BA842D01182FE963F1D0CFD971E55A552CC8C70AD26D55FD54557A4CAEDCC9322449F0380794879A1E4A7136D183DA123E518B58C60B4A5EB233AAC197F7BDF34FC7860A29E8552A46486456E861CC79C8DF6CF9A14B114D18C8FF8BDD72AEA014A8A09459823423E08DB9166D7B0574C76188BBAD0FF89
311
D2343C294AC6C6862E7167598092887A6E4831B8F4797B84D1F7C9F908CABC55D0FD0B94B8C2B8659B2DC35CD433376F209BF276310DD1F9BCE1D5F533D349DE5371E6AD147539522EBF17CCB51C54FE00504B0304140006080800B179CB40EC3357B64D01000033030000300000006662782F36454532333532452D443236
311
302D343531302D393237442D4237353641433833364442352F636E782E786D6CD593BB6E032110457F05D146FBC02F45168BA514F982146959183BC42CAC7844F1DF67B0B1E3C645CA346875E772EFE888E5BBEFC9922F08D1783750D6F69480535E1B7718684EFBE699929DE0C1FB7467A3C4C909065A642AF821F83C5749
311
C35E669B50B5C61DAB1820FA1C144494CB4D62BD921603C03519459846D01A34B919F16B0F015741713C91F401E4F5E59DF8F113548ABC2B298277A543F072D6A63B1325CACA18071AD5074CB29539790DF1D86A9964CBDA6BD7839D7E9348B970ADCCC190523ED0725251376A9123EF7028784C01E955533ACD40859C676B
311
944C08B93B1B2F1EC1B37169B3AA5E83E003BAD966B95A61D8792678321354870A2013682A163D5B34FDA661EC8DADB76CB95DAE9F7AB6ED7BDE15BBE0A3F7B65EC218087E26CABB042E51C17857C68FF0551FD126206B1F4E7F0089006AEB85CE2DE33FF3E9CEEF1B7105FC0BC40F504B0304140006080800B179CB408AED
311
EADBA405000081100000340000006662782F36454532333532452D443236302D343531302D393237442D4237353641433833364442352F6F626A656374732E786D6CAD57D98EDB3614FD15417D691FBCC876DC71A151E0652630D249821809FA60C0A0254AC30EB580A4269E7E7D0F454A961C7BE21679D1C2E5F2DE73CF5D
311
E8BF3DA4DC79A642B23CBB75BDFED0756816E611CB925BB75471EFC675DE06BEC873D55AE63A1949E9ADAB87DDC04F445E167628A23129B93A19BD5FFCE5C89066D475424EA4BC7565F84853D227A5CA232A9FFA1151A49FC487BED7370BBB6213418AC713A105113453D014E319A4384629AFFB3B7407813FD0F381AF9F76
311
D5F8F2AA41654FF77C964945B2F0BBC34EC48CBDC9EA6EF466D67B33998C7B93E9C8EB2DEE17AB9EF7FB78B89C2E97B3F9DD0C074B2520C96A2268EC06EF808D60A13F3053815FB24C8D47768975D040D067A63DE50623C7F307664D639D35F29CFA619E6534ACB0021A957D5674440B9A45F039A3129AB5101A767F3D8D63
311
6B7AACFFED91EDE1EB1068EF6809AA75AFDF6D4DF3FDDF30415EC32021A966A0C1D21A6AB83A3C22BCCF736EE7987452A2A860843B9CED05112F6E80A57A49E077C468260B1D0DDA02378017CC74972E08A31FF3FC9C9671C9B9A6B11B5451B043AC50252BCDD83F541CB56F23039DE02BCD861B6B907A29A81BCC0C456E4E
311
D8648074624E12B81C66EA9DE3D189A14B1DA7EB951BBCBFDF1F363A76CF1F5E88BCA04269FA805AB5E3EAB746C9EAE45DE539BDC13D51E508CA6720FF01A17E54057E13EC30394CEC294A904CC6B948E11B67E8F486780C1DAF7AEAEFD6973F683677BD77094F385B43F513F0ECDAD0F6650BCEC07F06E17331B6A66D42C2
311
91361E58068034491C9E63087938DE1FDC608D2C87AC8C5D84071E4C86BACFF8F407560C12457552EB9D01CB93B4784582066C1523A18621BF55F0E8A7EFD25975B05D7609DE373F85AEF3D5E6FDA6143109E9838DE9158D59C6144ADC91376D853A98772C7AA22FDF7211C1D0EFF1DEB4F14EED5112686BCC35F0499DD3F5
311
CFF1E4CE0121F625B94E37FE0F4E8011BAB0B6E43F301952CE4946F3B23EF7D5FA81B26120D6C1AE99DC149863610169CCCC490CA2488782151AC4A65A3549B37FC1BA2FEB0F60A41B2C5EFE242FEDECB53FE6DE30E7B9D8ED5F76262D9D85FA6B97DB1683819602BA574152C7BF057D17B1382E2592E0195CBFAE976DDFE9
311
B48014514B35D13281FD082E222C696BB9A8D682A092E6D98EA16E22EECE1ED0960F482D032A8197349694C73BC67999EE62C6518D7629292EC0F1FFF5DF9769B123695E66EA82EC8EEAA80E5DDD3BEC95DF880A1FDD6053BD7B0BE4DE884617C8A06BC919AC3AAE9DDFADC6F7B3C9AAB7184E57BDC9683AEEDDCCE793DEEC
311
6E763F992EA6A3BBF9A8F693D124F0EB52D38E687809A5CD2F05B3EEFBB246FCD824E0060F44C9ED3B139EF5FBCBBA8F5ED81F600FEA65B3711E3DA3EFA3D18F051C579E15B44E0B4E539A29A263E8417FF0CF047D46471933BE4E4942AF90F2F1DDE6C4188C5CB1EF938E77FAED64AF1D5DEA803C2B443D96E93E238C9F6C
311
4C0C92FD224B2C7EB54F9AB72934F5AFFEB38E41672A73CE22E4C1C849689E52856C784511122995A05EBBA78FECDDE38ADDCFA6435464CF69ADC9234193CC25C202D42A43D51D777E4153A7FBAA5B17E5B6FF8487CD14AE03CEDCBA68D2150BA9ECEF51A0752B54090797DA9D3C1A7F92251CBDB6D9D4FC37BB34369D92DC
311
2CB9A67FB27699146E0D401A29D037A02182772A6502BFD2CDCE87FFC9F05A1D87287CEE4BD5D8721C688CA98E41881AA3EC6D014DCC933DFA80407DDD2CAF5FADE92072D52DEB551218A93D454452DD14B47E56A5F9EAD3001D8AB3FEE814BC4CE0CBEB25F50405994B1DE06011586165164481AACB3FB69F448E9B6CEADC
311
3350C0F9F57033FD6DBBCCD334CFCCD0766EEFC3CEE611B7DB688BE440F5B5446E47436FB4ADAE03F686B2DB1349FB24924F188067056B80EEB81FBC347746D42133D1AC1B68579C3074BD726C619B40A8A54B3BB76A70D07864D4410CE92BA58E98F682E2D51BC1A05A0A15047AF9E05F504B0304140006080000B179CB40
311
000000000000000000000000350000006662782F36454532333532452D443236302D343531302D393237442D4237353641433833364442352F76657274696365732E62696E504B0304140006080800B179CB40F270F1330600000004000000360000006662782F36454532333532452D443236302D343531302D393237442D
311
4237353641433833364442352F747269616E676C65732E62696E636660600000504B0304140006080000B179CB40000000000000000000000000370000006662782F36454532333532452D443236302D343531302D393237442D4237353641433833364442352F617474726962757465732E62696E504B0304140006080800
311
B179CB40D5987DFC8F00000041010000360000006662782F36454532333532452D443236302D343531302D393237442D4237353641433833364442352F6469726563746F72792E786D6C858F410EC2201045AF4266AF15DDB800BA74E7C21B903225242D6328188F2FA5C4183471359997F9FF81E89FF3C41E1816475E02DF
311
1F80A11FC8386F25A438EECEC07A250251FC3803E6F58C12560C4AD840E95E91C151A72936F496F35732D860FE635F62C8F2DA16B505C545B74125BAA2FA9E05D7CC053D063734D5C7665FD55B6B8D15D5E9BFEAFD8490FFA45E504B0304140006080800B179CB40FD776ACFFA000000A00100003B0000006662782F364545
311
32333532452D443236302D343531302D393237442D4237353641433833364442352F7265736F75726365732F636F72652E786D6C8D50DB6A843010FD1599D7A226A64A2B318B76E917F407429C75C3AE89E452FAF94D560BED5B5F668673610E879FBED67BF189CE6B6B06A01581028DB2B336CB00315CCA17284E823B6BC3
311
2F191446AE38408641F0C5D9B81D90B226A009093576C60394DE638042DDD3318057575C652563480A7FAB36A96E72C18A56894E3AC17D702940B13FC91384436FA353E879BDB382C7A8E743A3E7F4535F343A1013A5ECAD3B8FE5F3D8B1345EA7721ADFCF25A113EBD2D1B48CF23A9B050F7AFDC9A81CCA80338886D0A624
311
5D49E9076D7BCA7AD63E11DA13C2EB2CFF638ADBFC4F53D426B0E688BBDB3C881CE441085EE7BED27A949976EE567C03504B010214000A0000080000B179CB403DEE336E79000000790000001B00000000000000000000000000000000006175746F6465736B2D64657369676E2D7061636B6167652E786D6C504B01021400
311
140006080800B179CB40D486FD9CA0000000F40000001300000000000000000000000000B20000005B436F6E74656E745F54797065735D2E786D6C504B01021400140006080800B179CB40959D37FEE70000007C010000080000000000000000000000000083010000636F72652E786D6C504B01021400140006080800B179
311
CB4055019EA25F0000007C000000070000000000000000000000000090020000636E782E786D6C504B01021400140006080800B179CB409E88CB7163010000020300000C00000000000000000000000000140300006662782F636F72652E786D6C504B01021400140006080800B179CB408C1507077E0000009D0000000B00
311
000000000000000000000000A10400006662782F636E782E786D6C504B01021400140006080800B179CB401FE112C72D010000150200003100000000000000000000000000480500006662782F36454532333532452D443236302D343531302D393237442D4237353641433833364442352F636F72652E786D6C504B010214
311
00140006080800B179CB40EC3357B64D010000330300003000000000000000000000000000C40600006662782F36454532333532452D443236302D343531302D393237442D4237353641433833364442352F636E782E786D6C504B01021400140006080800B179CB408AEDEADBA40500008110000034000000000000000000
311
000000005F0800006662782F36454532333532452D443236302D343531302D393237442D4237353641433833364442352F6F626A656374732E786D6C504B01021400140006080000B179CB400000000000000000000000003500000000000000000000000000550E00006662782F36454532333532452D443236302D343531
311
302D393237442D4237353641433833364442352F76657274696365732E62696E504B01021400140006080800B179CB40F270F13306000000040000003600000000000000000000000000A80E00006662782F36454532333532452D443236302D343531302D393237442D4237353641433833364442352F747269616E676C65
311
732E62696E504B01021400140006080000B179CB400000000000000000000000003700000000000000000000000000020F00006662782F36454532333532452D443236302D343531302D393237442D4237353641433833364442352F617474726962757465732E62696E504B01021400140006080800B179CB40D5987DFC8F
311
000000410100003600000000000000000000000000570F00006662782F36454532333532452D443236302D343531302D393237442D4237353641433833364442352F6469726563746F72792E786D6C504B01021400140006080800B179CB40FD776ACFFA000000A00100003B000000000000000000000000003A1000006662
311
782F36454532333532452D443236302D343531302D393237442D4237353641433833364442352F7265736F75726365732F636F72652E786D6C504B0506000000000E000E00800400008D1100000000
310
504B03040A0000080000B179CB403DEE336E79000000790000001B0000006175746F6465736B2D64657369676E2D7061636B6167652E786D6C3C3F786D6C2076657273696F6E3D22312E302220656E636F64696E673D227574662D3822203F3E3C666F726D6174733E3C666F726D61743E687474703A2F2F736368656D612E
310
6175746F6465736B2E636F6D2F64657369676E2D7061636B6167652F323030393C2F666F726D61743E3C2F666F726D6174733E504B0304140006080800B179CB40D486FD9CA0000000F4000000130000005B436F6E74656E745F54797065735D2E786D6C7D8EC10E82300C865F65E91D8A1E8C310C0EEA1BF002731658846E
310
D98AC1B77784ABF1D8FE5FBFBF75BBCE937A534CCEB38643598122B6FEE978D0B0485F9C41B54DDD7D022595594E1A469170414C76A4D9A4D207E29CF43ECE46F218070CC6BECC4078ACAA135ACF422C856C0E68EA1BF5669944DDD7BCDE7B1F8E415D77AECB980613C2E4AC91FC167A2B244592486606FC29C8FD7F045B9A
310
EF7053A7E60B504B0304140006080800B179CB403A7D6013E80000007C01000008000000636F72652E786D6C8D905B6EC3201045B782F8ADB079D44F61A25ACA0EBA0104C44189C1325075F985C491DABF7ECDE8CE3D33A3CB4FDFEB1D7C993D58EF26482A0C8171CA6BEB9609A678413D0427C177EFE32F1B044EAE668245
310
86822FBB4FDB2129EFA27131ABCE6B73883204132150F7DC4C30A8AB59652553CC8E70AB36A96E7231157975194EC96AF03C6275DE672FD6EC5050DC906E606784CF7446EF5D8BD1307CCC88F533EE3BDAF60366BC2EB0E0D1AEAFFB6A37321A5D7842116E11219FA419091B59F386C98831AF8BFD0F9436FD4F285917193D
310
DE7D62010A921F790C04AF4B16B93C82CAB5E4267E00504B0304140006080800B179CB4055019EA25F0000007C00000007000000636E782E786D6C4DCB3B0E80201045D1AD90E915ED2CF8AC45050C11660C8261F98AB1B07AC9C97D42D718D865D3E909258CFD00CCE24AC6E326A164D74DC0B4128928FF326038472BA131
310
28B1252AC747C6BAB984FC68F0B87FE8960A5C09FE86CFB69FBA01504B0304140006080800B179CB403AC0218265010000020300000C0000006662782F636F72652E786D6C8D52ED8E8320107C15C2DF8B02DA0F6D90E69AF40DEE05A8528F54C120983EFEAD1F8DD74BD35C4C90CCECECCE8EF2E3BD6DD0A05CAFAD29308B
310
2946CA94B6D2A62E70F0D728C3E828B8B3D6FF2AC3C8C856157884B1E0B5B3A15BA0D21AAF8C07D4D84A2DA0EC7BE5312A1BB814B82FBF552B63193C54F4B7B893E54DD62A6631D0502778EF1D1840F390F1C4E27AB97332E38287A0AB85D5154CD357AD1C1609DDB27D9E9E237A4E4ED166BFA3519E7F9EA2343BD16C9FEC
310
B29CA69C8C62C1BD6E1FEE4AA7A457D5A86749447711635F6C7B60E921DD7E5076A09493B1FC4914BAEA9FA2A08D4F93C5EE2CEBB160606422FE6C0B1179D4CB01FC10C1C91822BCA6849F83864020642F2FCD638F1B40832ABD751B602A1B566A904D503095A2E9E16466A1F3D400367BD92779D3E77D0FF880D2D4604D7A
310
B85E821FA7F379EA1245A75C34F83B32D6B5B259CDCD16D7731DF4525EDAC6BAFFA8C9B22A59C224E3DF2B7E00504B0304140006080800B179CB40C50367B37C0000009D0000000B0000006662782F636E782E786D6C4DCCD10A83201886E15B91FFDCF5DB3212D4B0AE249685CC349C8E5DFE6A74B0A30F1E3E5ED97F364F
310
DE36BD5C0C0AD80D81D8F088B30BAB829217DA01E9B54C31E6BF1B90306D56C1C9A0E59A62D92F9AED32159F0FF52E3C2FE41C1933D852338E8236286A6A3A3E5031B428B04671370D545A56BFD2B167587F01504B0304140006080800B179CB40BEB0901F2901000015020000310000006662782F35353031314130362D41
310
4343392D343039322D413835422D3942363039303230393341342F636F72652E786D6C8D515B6EC32010BC0AE22B55651BFCAA1D61222757E80508901425068B4795E3775D3B52FB971F16CDCECC8E76D9E131DDD1B7F6C1383B609A138CB4954E197B1D708A97ACC3E8C099772EFEA16164C5A407BCC098B3AB7769DE20E9
310
6CD436026A9DD21B2842D011237987CF8083FCD293C8458AC008B77C16F226AE3AA739B481C759881E02A075C8F262DE3484D291B4D9783AF5594DFA321BBBE698F5C796F4A4247D35D6AC58859CA564D426370AE2988BD1FE559345CC5934D333BEF45A44AD302F092D33C840E9276DF6B4DA57CD3BA17B4258B1D0FF89D2
310
AC5E14256363556E715759C09CB2626D70A65C3ADF9F61F463763EA265DE2E68F98639C909696845BB8F8E152B173600A66DBD9986E83C6C78773B03BDDA9CDB9AB362391294DF0B425D0ECA7F00504B0304140006080800B179CB408A9498A15601000033030000300000006662782F35353031314130362D414343392D34
310
3039322D413835422D3942363039303230393341342F636E782E786D6CBD93CD6EC32010845F0571ADFC439C44518489D4439FA0875E316C521A0C16E0AA79FB2E094973C9A152D50BB2668799D527CC775FA3259F10A2F1AEA7AC6E2901A7BC36EED0D339EDAB0D253BC183F7E9CE46899323F434CB54F043F0F354240D7B
310
39DB84AA35EE58C400D1CF41414439DF24D62B6931005C35A308E3005A832637237EED21E02A280E2792DE81BC3CBF113F7C804A91373945F02677089ECFD27467A2445919634FA37A8751D6724E5E433CD65A2659B3FADAF560A79F24922F5C2BE760482EEF693EA9281BD5C8913738143CA680F48A299D26A0424E93354A
310
2684DC9C8D178FE0B37169BD2C5E83E003BABBC57AB3C1B0F34CF06446280E154026D0542C5AB6A8DA75C5D82B5B6D59B7ED564F2DDBB62D6FB25DF0C17B5B2E610C043F11E55D0297A860BCC9E347F88A8F681390B50FA75F804400A5F542E796F1977CD8BA5B2EFF914F737EDF882BE05F20BE01504B0304140006080800
310
B179CB40A8861586630700009A1B0000340000006662782F35353031314130362D414343392D343039322D413835422D3942363039303230393341342F6F626A656374732E786D6CED59DD73A33610FF5718FAD23E181BDB49930EA1E3C4C98DE79AF6E6DCBBE98367181964A246084612B9B87F7D571F602026C16DFAD607
310
1B10D26AF7B79F5A829F9F33EA3C612E48CEAE5CDF9BB80E66719E10965EB9A5DC8D2E5CE7E730E0792E1BD35C87A10C5FB96AD80D8394E765618712BC4325959DD1BBEB3F1C1163865D27A648882B57C40F38431E2A659E60F1E82548222FDD3D7BBE6726B6C9A61C150F1DA205E29849E014C61950710C537EFB71E28EC3
310
60ACDE8781FAB7B3668366CDFB678DB5D46D2E091312B1F8054B1D32B3412CCDFCF9F2767A76393A9BCF67A3F9F9D41F5DDF5D2F47FE8FB3C9CDF9CDCDE5E2F612D8DBE639B53225B8C02C01FDEDDDD00FC6EA4D2DBA45E018D771CE188E3590009516AB4B9060015B35E09BB41F7D2551E3B596B0F13C57EF2D0B8DE1599B
310
4ADFAC6140B4E8822076BB4AE2EADA942FDFFE09828B2146C90596C0AD901CB46BE1E1E0156E3809C666340CB6075D10E16448624E107528D972C4412930554D0903B3C09251CEC18194A324D09A33AFDBB6059EF9B6EB1CE3725752AA3CC30DB56345E07E580ACD19F90BF303F74D64802790B6244C5E582EE5BEC06E7819
310
8CF56018A8CB6C6A5F1A209D1D45A9D08898B71D416F94EBAF966EF8F16EFBBC56E1E0F8E605CF0BCCA5323AA547CD1718B2BD2A94ECB6FE20CDA905208C01D5AE3C80F21990FF15A2C78115D01B27CFF3E7B99D2B39626297F30C74E34C9CD104FE268EAFFFD57DE32E18D78BDBDAEBC313DC544175F1EFF16CCBA0B1B2FC
310
37E00C832730F89CCFECAB758C28D8F33D610090321287E63004A17DB77D76C315044E08F4B00AD1D0079181DD27B80DC696CC412B957B59AF6380A8DD63364449009BB64860A3474F1F207B70121FD4D414B10FDEB37731D7C572FD715DF21D8AF1BDF5E925DE11462464CDE30CB5306F49F488F7DF729E80A02FF15E37F1
310
CEEC5602D056982BE0D30A04F570D8B9B5410CEBD25C859BE08D1D400895AB1BF4EF898831A588E1BCACF6ADA39B32D4DAE36DCDE0865303F16CDA31618E9F88AA2AC0690E335A8C42DE8F392914886EF8C14856074DAF47BA2FAB5FC122EBF93DB3560C422F43F4771DB48EE0D0B2EC0A690B442DF0F610CEE39CE63CDAEE
310
2313E95CA825808DB6B77C6D1185586F94A4A8800769BFAB424A6AA48D12B2DB9502E2EA1116BFAE6E9AE630F166FE99D3FCEF38E31CA22DF82EE2D6EF3A7B442443298E7628E9DBAEB95B4D5B68923DA439DE51908B3C11B98F908C26094E4F81E624E297EF4A3DA5B910846101F9EA28F84D34261E0412A3CD8A65A5D50E
310
D044441996889E828022D303AE4E3BBAC68DA174789BC7DA7A5FD35893E87F64111C412D99B38840290A39E44DC67DEF0C62481B5D8372075FB0B68AB61683965042C4FBE81B26E9833C057543BE07F7188E24A58CF202C560D603C8BEF015A5D40EEF5B143FAAFC11C5257D2F031198EE2242699945F0230C4E1E435CBB0E
310
4CAFA2D0206E629FC419146548967CC826E7679317FB989AA11B021B1BED0885B01D65A8E841BD1510753DE2D4E05BEA3D4ADD965911A12C2FD92043F1665D6FB2E4BB6A556407F2AB4A45281B2BC29660181026EBAC5AC56C30751D58C18D74A0DA4702650535A7B037128F5F7B93A6DCBB01B77EFABE1B6450F8F568AF19
310
51E7150C96C7566120BE21193FB8E15A5F47D7507F273839A4FAAAD66C568080988AE4252756455F5650DED81ACD0DEF91149B0F26EB56D72F2B0FBA1FC118D640ED522F5C29A033CC245295C9BDBAA19F1184E0160D33BE5239F5142A8B24D15523A277A44F9DAD32A2B56946BCE201B33C831FDB1016D332C11B9488C7E8
310
5ED2684D14EB564A2F2315C6AF0AF8DB8775071E181920D22755E0E16F9DB576F446954B4789C88732DB32442008B6444B8D6EBC82A556239596EBAB3A5340DD050666553CFFFF64D16C47FC7FB248AD61FCAB93C5F5FE17B46FF6451AE93C56767DD231A0CE4F8ACA7B1C0374DBA1A65A671193CCADFCD69922088A55941F
310
5C8D5541C310ECE3F81F67EDBE2C68B6EBF07F5AD6F65F541C276595D664D5A53A52B9AE9A396C71BB9CDD5DCE97A3EBC9F972349F9ECF46178BC57C74797B79373FBF3E9FDE2EEA546C8887411DCC74EE826713D4AA61F5643180AEACC82949E0349F382986982FE14C3FA07DCE332C2079369BDD896DCA0F58FD64FA9C12
310
6D29AE387940D020A602D23A8851C6B23DEE7C07AD490907ED2B179A46DE23FC59AB741DC83C572EB40A2489B1F0B6D066520D3D4D1C52AECEFD96180432C4529512CDA2FAB95EA5B06985FF7ACA903460E56AF530A0702BA0FBD5EA5068DE2C4FF1498257EC3848C2EDB69450AD19590E03B5307A9B83FA8D6C94B047BBF5
310
33B8EEEB62F99E9ED34264D02783578DC0501D49C453DDEF568C599616CB4F63E8B339ABDF9C829629E87238A511C760CCA52AA8C08AC02A2CCD024930D59B9F369F780E9F7832475745CEF7CF17E73F6C6EF22CCB9919DA2CE05496C0872267FD009F7D920D140F5835D7C5663AF1A71BDDD4B67DF6688B04F65455040355
310
31A104E9981CD8E58B06956D5F8E952A3AD3574BC706516806183B7AD1E3351FB91CF021F53945798CF6F34ADA57FBDA633D156C8243473AFC1B504B0304140006080000B179CB40000000000000000000000000350000006662782F35353031314130362D414343392D343039322D413835422D3942363039303230393341
310
342F76657274696365732E62696E504B0304140006080800B179CB40F270F1330600000004000000360000006662782F35353031314130362D414343392D343039322D413835422D3942363039303230393341342F747269616E676C65732E62696E636660600000504B0304140006080000B179CB40000000000000000000
310
000000370000006662782F35353031314130362D414343392D343039322D413835422D3942363039303230393341342F617474726962757465732E62696E504B0304140006080800B179CB40D5987DFC8F00000041010000360000006662782F35353031314130362D414343392D343039322D413835422D39423630393032
310
30393341342F6469726563746F72792E786D6C858F410EC2201045AF4266AF15DDB800BA74E7C21B903225242D6328188F2FA5C4183471359997F9FF81E89FF3C41E1816475E02DF1F80A11FC8386F25A438EECEC07A250251FC3803E6F58C12560C4AD840E95E91C151A72936F496F35732D860FE635F62C8F2DA16B505C5
310
45B74125BAA2FA9E05D7CC053D063734D5C7665FD55B6B8D15D5E9BFEAFD8490FFA45E504B0304140006080800B179CB4029D64E8BFA000000A00100003B0000006662782F35353031314130362D414343392D343039322D413835422D3942363039303230393341342F7265736F75726365732F636F72652E786D6C8D50DB
310
6AC42010FD95E06B31D1D85C312E0DED1FF407C4CCA6B21B0D5E4A3FBFBA49A17DEBCBCC702ECCE1F0CBD7762F3EC1796DCD846849500146D9459B7542315C718F8A8BE0CEDAF04B860A233798508691E0ABB3713F21654D0013126AEC022728BD87800A754FC784BCFA804D963286A4F0B77297EA2657286999E8A413DC07
310
970214C7933C9170E06D740A3CAF0E56F018F5726AF4927EEAAB0687444D1ADA0DEC1593B77AC6CF5D4BF030BCCC98F533E9BBBAED07C27895CD8207BDFD64540E648025FB698D498B297DA7CD48D9C89A274247427895E57F4C715FFE698ADA04569F710F9B4782A6200F42F02AF795D6A3CCB473B7E21B504B010214000A
310
0000080000B179CB403DEE336E79000000790000001B00000000000000000000000000000000006175746F6465736B2D64657369676E2D7061636B6167652E786D6C504B01021400140006080800B179CB40D486FD9CA0000000F40000001300000000000000000000000000B20000005B436F6E74656E745F54797065735D
310
2E786D6C504B01021400140006080800B179CB403A7D6013E80000007C010000080000000000000000000000000083010000636F72652E786D6C504B01021400140006080800B179CB4055019EA25F0000007C000000070000000000000000000000000091020000636E782E786D6C504B01021400140006080800B179CB40
310
3AC0218265010000020300000C00000000000000000000000000150300006662782F636F72652E786D6C504B01021400140006080800B179CB40C50367B37C0000009D0000000B00000000000000000000000000A40400006662782F636E782E786D6C504B01021400140006080800B179CB40BEB0901F2901000015020000
310
3100000000000000000000000000490500006662782F35353031314130362D414343392D343039322D413835422D3942363039303230393341342F636F72652E786D6C504B01021400140006080800B179CB408A9498A156010000330300003000000000000000000000000000C10600006662782F35353031314130362D41
310
4343392D343039322D413835422D3942363039303230393341342F636E782E786D6C504B01021400140006080800B179CB40A8861586630700009A1B00003400000000000000000000000000650800006662782F35353031314130362D414343392D343039322D413835422D3942363039303230393341342F6F626A656374
310
732E786D6C504B01021400140006080000B179CB4000000000000000000000000035000000000000000000000000001A1000006662782F35353031314130362D414343392D343039322D413835422D3942363039303230393341342F76657274696365732E62696E504B01021400140006080800B179CB40F270F133060000
310
000400000036000000000000000000000000006D1000006662782F35353031314130362D414343392D343039322D413835422D3942363039303230393341342F747269616E676C65732E62696E504B01021400140006080000B179CB400000000000000000000000003700000000000000000000000000C71000006662782F
310
35353031314130362D414343392D343039322D413835422D3942363039303230393341342F617474726962757465732E62696E504B01021400140006080800B179CB40D5987DFC8F0000004101000036000000000000000000000000001C1100006662782F35353031314130362D414343392D343039322D413835422D3942
310
363039303230393341342F6469726563746F72792E786D6C504B01021400140006080800B179CB4029D64E8BFA000000A00100003B00000000000000000000000000FF1100006662782F35353031314130362D414343392D343039322D413835422D3942363039303230393341342F7265736F75726365732F636F72652E78
310
6D6C504B0506000000000E000E0080040000521300000000
  0
XRECORD
  5
17
102
{ACAD_REACTORS
330
12
102
}
330
12
100
AcDbXrecord
280
     1
270
     1
271
     1
  0
XRECORD
  5
16
102
{ACAD_REACTORS
330
12
102
}
330
12
100
AcDbXrecord
280
     1
270
     1
271
     1
  0
XRECORD
  5
18
102
{ACAD_REACTORS
330
12
102
}
330
12
100
AcDbXrecord
280
     1
270
     1
271
     1
  0
XRECORD
  5
15
102
{ACAD_REACTORS
330
12
102
}
330
12
100
AcDbXrecord
280
     1
270
     1
271
     1
  0
XRECORD
  5
24
102
{ACAD_REACTORS
330
22
102
}
330
22
100
AcDbXrecord
280
     1
270
     1
271
     1
  0
XRECORD
  5
23
102
{ACAD_REACTORS
330
22
102
}
330
22
100
AcDbXrecord
280
     1
270
     1
271
     1
  0
XRECORD
  5
27
102
{ACAD_REACTORS
330
22
102
}
330
22
100
AcDbXrecord
280
     1
270
     1
271
     1
  0
XRECORD
  5
26
102
{ACAD_REACTORS
330
22
102
}
330
22
100
AcDbXrecord
280
     1
270
     1
271
     1
  0
XRECORD
  5
28
102
{ACAD_REACTORS
330
22
102
}
330
22
100
AcDbXrecord
280
     1
270
     1
271
     1
  0
XRECORD
  5
25
102
{ACAD_REACTORS
330
22
102
}
330
22
100
AcDbXrecord
280
     1
270
     1
271
     1
  0
XRECORD
  5
84A
102
{ACAD_REACTORS
330
849
102
}
330
849
100
AcDbXrecord
280
     1
102
ACAD_ROUNDTRIP_2012_MLEADER_STYLE
298
     1
  0
CELLSTYLEMAP
  5
848
102
{ACAD_REACTORS
330
847
102
}
330
847
100
AcDbCellStyleMap
 90
        3
300
CELLSTYLE
  1
TABLEFORMAT_BEGIN
 90
        5
170
     1
 91
        0
 92
    32768
 62
   257
 93
        1
300
CONTENTFORMAT
  1
CONTENTFORMAT_BEGIN
 90
        0
 91
        0
 92
      512
 93
        0
300

 40
0.0
140
1.0
 94
        5
 62
     0
340
55
144
0.25
309
CONTENTFORMAT_END
171
     0
 94
        0
309
TABLEFORMAT_END
  1
CELLSTYLE_BEGIN
 90
        1
 91
        1
300
_TITLE
309
CELLSTYLE_END
300
CELLSTYLE
  1
TABLEFORMAT_BEGIN
 90
        5
170
     1
 91
        0
 92
        0
 62
   257
 93
        1
300
CONTENTFORMAT
  1
CONTENTFORMAT_BEGIN
 90
        0
 91
        0
 92
      512
 93
        0
300

 40
0.0
140
1.0
 94
        5
 62
     0
340
55
144
0.18
309
CONTENTFORMAT_END
171
     0
 94
        0
309
TABLEFORMAT_END
  1
CELLSTYLE_BEGIN
 90
        2
 91
        1
300
_HEADER
309
CELLSTYLE_END
300
CELLSTYLE
  1
TABLEFORMAT_BEGIN
 90
        5
170
     1
 91
        0
 92
        0
 62
   257
 93
        1
300
CONTENTFORMAT
  1
CONTENTFORMAT_BEGIN
 90
        0
 91
        0
 92
      512
 93
        0
300

 40
0.0
140
1.0
 94
        2
 62
     0
340
55
144
0.18
309
CONTENTFORMAT_END
171
     0
 94
        0
309
TABLEFORMAT_END
  1
CELLSTYLE_BEGIN
 90
        3
 91
        2
300
_DATA
309
CELLSTYLE_END
  0
XRECORD
  5
857
102
{ACAD_REACTORS
330
856
102
}
330
856
100
AcDbXrecord
280
     1
102
RTVSPropertyOp0
 70
     1
102
RTVSPropertyOp1
 70
     1
102
RTVSPropertyOp2
 70
     1
102
RTVSPropertyOp3
 70
     1
102
RTVSPropertyOp4
 70
     1
102
RTVSPropertyOp5
 70
     1
102
RTVSPropertyOp6
 70
     1
102
RTVSPropertyOp7
 70
     1
102
RTVSPropertyOp8
 70
     1
102
RTVSPropertyOp9
 70
     1
102
RTVSPropertyOp10
 70
     1
102
RTVSPropertyOp11
 70
     1
102
RTVSPropertyOp12
 70
     1
102
RTVSPropertyOp13
 70
     1
102
RTVSPropertyOp14
 70
     1
102
RTVSPropertyOp15
 70
     1
102
RTVSPropertyOp16
 70
     1
102
RTVSPropertyOp17
 70
     1
102
RTVSPropertyOp18
 70
     1
102
RTVSPropertyOp19
 70
     1
102
RTVSPropertyOp20
 70
     1
102
RTVSPropertyOp21
 70
     1
102
RTVSPropertyOp22
 70
     1
102
RTVSPropertyOp23
 70
     1
102
RTVSPropertyOp24
 70
     1
102
RTVSPropertyOp25
 70
     1
102
RTVSPropertyOp26
 70
     1
102
RTVSPropertyOp27
 70
     1
102
RTVSPropertyOp28
 70
     1
102
RTVSPropertyOp29
 70
     1
102
RTVSPropertyOp30
 70
     1
102
RTVSPropertyOp31
 70
     1
102
RTVSPropertyOp32
 70
     1
  0
XRECORD
  5
855
102
{ACAD_REACTORS
330
854
102
}
330
854
100
AcDbXrecord
280
     1
102
RTVSPropertyOp0
 70
     1
102
RTVSPropertyOp1
 70
     1
102
RTVSPropertyOp2
 70
     1
102
RTVSPropertyOp3
 70
     1
102
RTVSPropertyOp4
 70
     1
102
RTVSPropertyOp5
 70
     1
102
RTVSPropertyOp6
 70
     1
102
RTVSPropertyOp7
 70
     1
102
RTVSPropertyOp8
 70
     1
102
RTVSPropertyOp9
 70
     1
102
RTVSPropertyOp10
 70
     1
102
RTVSPropertyOp11
 70
     1
102
RTVSPropertyOp12
 70
     1
102
RTVSPropertyOp13
 70
     1
102
RTVSPropertyOp14
 70
     1
102
RTVSPropertyOp15
 70
     1
102
RTVSPropertyOp16
 70
     1
102
RTVSPropertyOp17
 70
     1
102
RTVSPropertyOp18
 70
     1
102
RTVSPropertyOp19
 70
     1
102
RTVSPropertyOp20
 70
     1
102
RTVSPropertyOp21
 70
     1
102
RTVSPropertyOp22
 70
     1
102
RTVSPropertyOp23
 70
     1
102
RTVSPropertyOp24
 70
     1
102
RTVSPropertyOp25
 70
     1
102
RTVSPropertyOp26
 70
     1
102
RTVSPropertyOp27
 70
     1
102
RTVSPropertyOp28
 70
     1
102
RTVSPropertyOp29
 70
     1
102
RTVSPropertyOp30
 70
     1
102
RTVSPropertyOp31
 70
     1
102
RTVSPropertyOp32
 70
     1
  0
XRECORD
  5
863
102
{ACAD_REACTORS
330
862
102
}
330
862
100
AcDbXrecord
280
     1
102
RTVSPropertyOp0
 70
     1
102
RTVSPropertyOp1
 70
     1
102
RTVSPropertyOp2
 70
     1
102
RTVSPropertyOp3
 70
     1
102
RTVSPropertyOp4
 70
     1
102
RTVSPropertyOp5
 70
     1
102
RTVSPropertyOp6
 70
     1
102
RTVSPropertyOp7
 70
     1
102
RTVSPropertyOp8
 70
     1
102
RTVSPropertyOp9
 70
     1
102
RTVSPropertyOp10
 70
     1
102
RTVSPropertyOp11
 70
     1
102
RTVSPropertyOp12
 70
     1
102
RTVSPropertyOp13
 70
     1
102
RTVSPropertyOp14
 70
     1
102
RTVSPropertyOp15
 70
     1
102
RTVSPropertyOp16
 70
     1
102
RTVSPropertyOp17
 70
     1
102
RTVSPropertyOp18
 70
     1
102
RTVSPropertyOp19
 70
     1
102
RTVSPropertyOp20
 70
     1
102
RTVSPropertyOp21
 70
     1
102
RTVSPropertyOp22
 70
     1
102
RTVSPropertyOp23
 70
     1
102
RTVSPropertyOp24
 70
     1
102
RTVSPropertyOp25
 70
     1
102
RTVSPropertyOp26
 70
     1
102
RTVSPropertyOp27
 70
     1
102
RTVSPropertyOp28
 70
     1
102
RTVSPropertyOp29
 70
     1
102
RTVSPropertyOp30
 70
     1
102
RTVSPropertyOp31
 70
     1
102
RTVSPropertyOp32
 70
     1
  0
XRECORD
  5
86B
102
{ACAD_REACTORS
330
86A
102
}
330
86A
100
AcDbXrecord
280
     1
102
RTVSPropertyOp0
 70
     1
102
RTVSPropertyOp1
 70
     1
102
RTVSPropertyOp2
 70
     1
102
RTVSPropertyOp3
 70
     1
102
RTVSPropertyOp4
 70
     1
102
RTVSPropertyOp5
 70
     1
102
RTVSPropertyOp6
 70
     1
102
RTVSPropertyOp7
 70
     1
102
RTVSPropertyOp8
 70
     1
102
RTVSPropertyOp9
 70
     1
102
RTVSPropertyOp10
 70
     1
102
RTVSPropertyOp11
 70
     1
102
RTVSPropertyOp12
 70
     1
102
RTVSPropertyOp13
 70
     1
102
RTVSPropertyOp14
 70
     1
102
RTVSPropertyOp15
 70
     1
102
RTVSPropertyOp16
 70
     1
102
RTVSPropertyOp17
 70
     1
102
RTVSPropertyOp18
 70
     1
102
RTVSPropertyOp19
 70
     1
102
RTVSPropertyOp20
 70
     1
102
RTVSPropertyOp21
 70
     1
102
RTVSPropertyOp22
 70
     1
102
RTVSPropertyOp23
 70
     1
102
RTVSPropertyOp24
 70
     1
102
RTVSPropertyOp25
 70
     1
102
RTVSPropertyOp26
 70
     1
102
RTVSPropertyOp27
 70
     1
102
RTVSPropertyOp28
 70
     1
102
RTVSPropertyOp29
 70
     1
102
RTVSPropertyOp30
 70
     1
102
RTVSPropertyOp31
 70
     1
102
RTVSPropertyOp32
 70
     1
  0
XRECORD
  5
85D
102
{ACAD_REACTORS
330
85C
102
}
330
85C
100
AcDbXrecord
280
     1
102
RTVSPropertyOp0
 70
     1
102
RTVSPropertyOp1
 70
     1
102
RTVSPropertyOp2
 70
     1
102
RTVSPropertyOp3
 70
     1
102
RTVSPropertyOp4
 70
     1
102
RTVSPropertyOp5
 70
     1
102
RTVSPropertyOp6
 70
     1
102
RTVSPropertyOp7
 70
     1
102
RTVSPropertyOp8
 70
     1
102
RTVSPropertyOp9
 70
     1
102
RTVSPropertyOp10
 70
     1
102
RTVSPropertyOp11
 70
     1
102
RTVSPropertyOp12
 70
     1
102
RTVSPropertyOp13
 70
     1
102
RTVSPropertyOp14
 70
     1
102
RTVSPropertyOp15
 70
     1
102
RTVSPropertyOp16
 70
     1
102
RTVSPropertyOp17
 70
     1
102
RTVSPropertyOp18
 70
     1
102
RTVSPropertyOp19
 70
     1
102
RTVSPropertyOp20
 70
     1
102
RTVSPropertyOp21
 70
     1
102
RTVSPropertyOp22
 70
     1
102
RTVSPropertyOp23
 70
     1
102
RTVSPropertyOp24
 70
     1
102
RTVSPropertyOp25
 70
     1
102
RTVSPropertyOp26
 70
     1
102
RTVSPropertyOp27
 70
     1
102
RTVSPropertyOp28
 70
     1
102
RTVSPropertyOp29
 70
     1
102
RTVSPropertyOp30
 70
     1
102
RTVSPropertyOp31
 70
     1
102
RTVSPropertyOp32
 70
     1
  0
XRECORD
  5
861
102
{ACAD_REACTORS
330
860
102
}
330
860
100
AcDbXrecord
280
     1
102
RTVSPropertyOp0
 70
     1
102
RTVSPropertyOp1
 70
     1
102
RTVSPropertyOp2
 70
     1
102
RTVSPropertyOp3
 70
     1
102
RTVSPropertyOp4
 70
     1
102
RTVSPropertyOp5
 70
     1
102
RTVSPropertyOp6
 70
     1
102
RTVSPropertyOp7
 70
     1
102
RTVSPropertyOp8
 70
     1
102
RTVSPropertyOp9
 70
     1
102
RTVSPropertyOp10
 70
     1
102
RTVSPropertyOp11
 70
     1
102
RTVSPropertyOp12
 70
     1
102
RTVSPropertyOp13
 70
     1
102
RTVSPropertyOp14
 70
     1
102
RTVSPropertyOp15
 70
     1
102
RTVSPropertyOp16
 70
     1
102
RTVSPropertyOp17
 70
     1
102
RTVSPropertyOp18
 70
     1
102
RTVSPropertyOp19
 70
     1
102
RTVSPropertyOp20
 70
     1
102
RTVSPropertyOp21
 70
     1
102
RTVSPropertyOp22
 70
     1
102
RTVSPropertyOp23
 70
     1
102
RTVSPropertyOp24
 70
     1
102
RTVSPropertyOp25
 70
     1
102
RTVSPropertyOp26
 70
     1
102
RTVSPropertyOp27
 70
     1
102
RTVSPropertyOp28
 70
     1
102
RTVSPropertyOp29
 70
     1
102
RTVSPropertyOp30
 70
     1
102
RTVSPropertyOp31
 70
     1
102
RTVSPropertyOp32
 70
     1
  0
XRECORD
  5
87B
102
{ACAD_REACTORS
330
87A
102
}
330
87A
100
AcDbXrecord
280
     1
102
RTVSPropertyOp0
 70
     0
102
RTVSPropertyOp1
 70
     0
102
RTVSPropertyOp2
 70
     0
102
RTVSPropertyOp3
 70
     0
102
RTVSPropertyOp4
 70
     0
102
RTVSPropertyOp5
 70
     0
102
RTVSPropertyOp6
 70
     0
102
RTVSPropertyOp7
 70
     0
102
RTVSPropertyOp8
 70
     0
102
RTVSPropertyOp9
 70
     0
102
RTVSPropertyOp10
 70
     0
102
RTVSPropertyOp11
 70
     0
102
RTVSPropertyOp12
 70
     0
102
RTVSPropertyOp13
 70
     0
102
RTVSPropertyOp14
 70
     2
102
RTVSPropertyOp15
 70
     0
102
RTVSPropertyOp16
 70
     0
102
RTVSPropertyOp17
 70
     0
102
RTVSPropertyOp18
 70
     0
102
RTVSPropertyOp19
 70
     0
102
RTVSPropertyOp20
 70
     0
102
RTVSPropertyOp21
 70
     0
102
RTVSPropertyOp22
 70
     0
102
RTVSPropertyOp23
 70
     0
102
RTVSPropertyOp24
 70
     0
102
RTVSPropertyOp25
 70
     0
102
RTVSPropertyOp26
 70
     0
102
RTVSPropertyOp27
 70
     0
102
RTVSPropertyOp28
 70
     0
102
RTVSPropertyOp29
 70
     0
102
RTVSPropertyOp30
 70
     0
102
RTVSPropertyOp31
 70
     0
102
RTVSPropertyOp32
 70
     0
  0
XRECORD
  5
869
102
{ACAD_REACTORS
330
868
102
}
330
868
100
AcDbXrecord
280
     1
102
RTVSPropertyOp0
 70
     1
102
RTVSPropertyOp1
 70
     1
102
RTVSPropertyOp2
 70
     1
102
RTVSPropertyOp3
 70
     1
102
RTVSPropertyOp4
 70
     1
102
RTVSPropertyOp5
 70
     1
102
RTVSPropertyOp6
 70
     1
102
RTVSPropertyOp7
 70
     1
102
RTVSPropertyOp8
 70
     1
102
RTVSPropertyOp9
 70
     1
102
RTVSPropertyOp10
 70
     1
102
RTVSPropertyOp11
 70
     1
102
RTVSPropertyOp12
 70
     1
102
RTVSPropertyOp13
 70
     1
102
RTVSPropertyOp14
 70
     1
102
RTVSPropertyOp15
 70
     1
102
RTVSPropertyOp16
 70
     1
102
RTVSPropertyOp17
 70
     1
102
RTVSPropertyOp18
 70
     1
102
RTVSPropertyOp19
 70
     1
102
RTVSPropertyOp20
 70
     1
102
RTVSPropertyOp21
 70
     1
102
RTVSPropertyOp22
 70
     1
102
RTVSPropertyOp23
 70
     1
102
RTVSPropertyOp24
 70
     1
102
RTVSPropertyOp25
 70
     1
102
RTVSPropertyOp26
 70
     1
102
RTVSPropertyOp27
 70
     1
102
RTVSPropertyOp28
 70
     1
102
RTVSPropertyOp29
 70
     1
102
RTVSPropertyOp30
 70
     1
102
RTVSPropertyOp31
 70
     1
102
RTVSPropertyOp32
 70
     1
  0
XRECORD
  5
84D
102
{ACAD_REACTORS
330
84C
102
}
330
84C
100
AcDbXrecord
280
     1
102
RTVSPropertyOp0
 70
     1
102
RTVSPropertyOp1
 70
     1
102
RTVSPropertyOp2
 70
     1
102
RTVSPropertyOp3
 70
     1
102
RTVSPropertyOp4
 70
     1
102
RTVSPropertyOp5
 70
     1
102
RTVSPropertyOp6
 70
     1
102
RTVSPropertyOp7
 70
     1
102
RTVSPropertyOp8
 70
     1
102
RTVSPropertyOp9
 70
     1
102
RTVSPropertyOp10
 70
     1
102
RTVSPropertyOp11
 70
     1
102
RTVSPropertyOp12
 70
     1
102
RTVSPropertyOp13
 70
     1
102
RTVSPropertyOp14
 70
     1
102
RTVSPropertyOp15
 70
     1
102
RTVSPropertyOp16
 70
     1
102
RTVSPropertyOp17
 70
     1
102
RTVSPropertyOp18
 70
     1
102
RTVSPropertyOp19
 70
     1
102
RTVSPropertyOp20
 70
     1
102
RTVSPropertyOp21
 70
     1
102
RTVSPropertyOp22
 70
     1
102
RTVSPropertyOp23
 70
     1
102
RTVSPropertyOp24
 70
     1
102
RTVSPropertyOp25
 70
     1
102
RTVSPropertyOp26
 70
     1
102
RTVSPropertyOp27
 70
     1
102
RTVSPropertyOp28
 70
     1
102
RTVSPropertyOp29
 70
     1
102
RTVSPropertyOp30
 70
     1
102
RTVSPropertyOp31
 70
     1
102
RTVSPropertyOp32
 70
     1
  0
XRECORD
  5
84F
102
{ACAD_REACTORS
330
84E
102
}
330
84E
100
AcDbXrecord
280
     1
102
RTVSPropertyOp0
 70
     1
102
RTVSPropertyOp1
 70
     1
102
RTVSPropertyOp2
 70
     1
102
RTVSPropertyOp3
 70
     1
102
RTVSPropertyOp4
 70
     1
102
RTVSPropertyOp5
 70
     1
102
RTVSPropertyOp6
 70
     1
102
RTVSPropertyOp7
 70
     1
102
RTVSPropertyOp8
 70
     1
102
RTVSPropertyOp9
 70
     1
102
RTVSPropertyOp10
 70
     1
102
RTVSPropertyOp11
 70
     1
102
RTVSPropertyOp12
 70
     1
102
RTVSPropertyOp13
 70
     1
102
RTVSPropertyOp14
 70
     1
102
RTVSPropertyOp15
 70
     1
102
RTVSPropertyOp16
 70
     1
102
RTVSPropertyOp17
 70
     1
102
RTVSPropertyOp18
 70
     1
102
RTVSPropertyOp19
 70
     1
102
RTVSPropertyOp20
 70
     1
102
RTVSPropertyOp21
 70
     1
102
RTVSPropertyOp22
 70
     1
102
RTVSPropertyOp23
 70
     1
102
RTVSPropertyOp24
 70
     1
102
RTVSPropertyOp25
 70
     1
102
RTVSPropertyOp26
 70
     1
102
RTVSPropertyOp27
 70
     1
102
RTVSPropertyOp28
 70
     1
102
RTVSPropertyOp29
 70
     1
102
RTVSPropertyOp30
 70
     1
102
RTVSPropertyOp31
 70
     1
102
RTVSPropertyOp32
 70
     1
  0
XRECORD
  5
851
102
{ACAD_REACTORS
330
850
102
}
330
850
100
AcDbXrecord
280
     1
102
RTVSPropertyOp0
 70
     1
102
RTVSPropertyOp1
 70
     1
102
RTVSPropertyOp2
 70
     1
102
RTVSPropertyOp3
 70
     1
102
RTVSPropertyOp4
 70
     1
102
RTVSPropertyOp5
 70
     1
102
RTVSPropertyOp6
 70
     1
102
RTVSPropertyOp7
 70
     1
102
RTVSPropertyOp8
 70
     1
102
RTVSPropertyOp9
 70
     1
102
RTVSPropertyOp10
 70
     1
102
RTVSPropertyOp11
 70
     1
102
RTVSPropertyOp12
 70
     1
102
RTVSPropertyOp13
 70
     1
102
RTVSPropertyOp14
 70
     1
102
RTVSPropertyOp15
 70
     1
102
RTVSPropertyOp16
 70
     1
102
RTVSPropertyOp17
 70
     1
102
RTVSPropertyOp18
 70
     1
102
RTVSPropertyOp19
 70
     1
102
RTVSPropertyOp20
 70
     1
102
RTVSPropertyOp21
 70
     1
102
RTVSPropertyOp22
 70
     1
102
RTVSPropertyOp23
 70
     1
102
RTVSPropertyOp24
 70
     1
102
RTVSPropertyOp25
 70
     1
102
RTVSPropertyOp26
 70
     1
102
RTVSPropertyOp27
 70
     1
102
RTVSPropertyOp28
 70
     1
102
RTVSPropertyOp29
 70
     1
102
RTVSPropertyOp30
 70
     1
102
RTVSPropertyOp31
 70
     1
102
RTVSPropertyOp32
 70
     1
  0
XRECORD
  5
853
102
{ACAD_REACTORS
330
852
102
}
330
852
100
AcDbXrecord
280
     1
102
RTVSPropertyOp0
 70
     1
102
RTVSPropertyOp1
 70
     1
102
RTVSPropertyOp2
 70
     1
102
RTVSPropertyOp3
 70
     1
102
RTVSPropertyOp4
 70
     1
102
RTVSPropertyOp5
 70
     1
102
RTVSPropertyOp6
 70
     1
102
RTVSPropertyOp7
 70
     1
102
RTVSPropertyOp8
 70
     1
102
RTVSPropertyOp9
 70
     1
102
RTVSPropertyOp10
 70
     1
102
RTVSPropertyOp11
 70
     1
102
RTVSPropertyOp12
 70
     1
102
RTVSPropertyOp13
 70
     1
102
RTVSPropertyOp14
 70
     1
102
RTVSPropertyOp15
 70
     1
102
RTVSPropertyOp16
 70
     1
102
RTVSPropertyOp17
 70
     1
102
RTVSPropertyOp18
 70
     1
102
RTVSPropertyOp19
 70
     1
102
RTVSPropertyOp20
 70
     1
102
RTVSPropertyOp21
 70
     1
102
RTVSPropertyOp22
 70
     1
102
RTVSPropertyOp23
 70
     1
102
RTVSPropertyOp24
 70
     1
102
RTVSPropertyOp25
 70
     1
102
RTVSPropertyOp26
 70
     1
102
RTVSPropertyOp27
 70
     1
102
RTVSPropertyOp28
 70
     1
102
RTVSPropertyOp29
 70
     1
102
RTVSPropertyOp30
 70
     1
102
RTVSPropertyOp31
 70
     1
102
RTVSPropertyOp32
 70
     1
  0
XRECORD
  5
85B
102
{ACAD_REACTORS
330
85A
102
}
330
85A
100
AcDbXrecord
280
     1
102
RTVSPropertyOp0
 70
     1
102
RTVSPropertyOp1
 70
     1
102
RTVSPropertyOp2
 70
     1
102
RTVSPropertyOp3
 70
     1
102
RTVSPropertyOp4
 70
     1
102
RTVSPropertyOp5
 70
     1
102
RTVSPropertyOp6
 70
     1
102
RTVSPropertyOp7
 70
     1
102
RTVSPropertyOp8
 70
     1
102
RTVSPropertyOp9
 70
     1
102
RTVSPropertyOp10
 70
     1
102
RTVSPropertyOp11
 70
     1
102
RTVSPropertyOp12
 70
     1
102
RTVSPropertyOp13
 70
     1
102
RTVSPropertyOp14
 70
     1
102
RTVSPropertyOp15
 70
     1
102
RTVSPropertyOp16
 70
     1
102
RTVSPropertyOp17
 70
     1
102
RTVSPropertyOp18
 70
     1
102
RTVSPropertyOp19
 70
     1
102
RTVSPropertyOp20
 70
     1
102
RTVSPropertyOp21
 70
     1
102
RTVSPropertyOp22
 70
     1
102
RTVSPropertyOp23
 70
     1
102
RTVSPropertyOp24
 70
     1
102
RTVSPropertyOp25
 70
     1
102
RTVSPropertyOp26
 70
     1
102
RTVSPropertyOp27
 70
     1
102
RTVSPropertyOp28
 70
     1
102
RTVSPropertyOp29
 70
     1
102
RTVSPropertyOp30
 70
     1
102
RTVSPropertyOp31
 70
     1
102
RTVSPropertyOp32
 70
     1
  0
XRECORD
  5
877
102
{ACAD_REACTORS
330
876
102
}
330
876
100
AcDbXrecord
280
     1
102
RTVSPropertyOp0
 70
     0
102
RTVSPropertyOp1
 70
     0
102
RTVSPropertyOp2
 70
     0
102
RTVSPropertyOp3
 70
     0
102
RTVSPropertyOp4
 70
     0
102
RTVSPropertyOp5
 70
     0
102
RTVSPropertyOp6
 70
     0
102
RTVSPropertyOp7
 70
     0
102
RTVSPropertyOp8
 70
     0
102
RTVSPropertyOp9
 70
     0
102
RTVSPropertyOp10
 70
     0
102
RTVSPropertyOp11
 70
     0
102
RTVSPropertyOp12
 70
     0
102
RTVSPropertyOp13
 70
     0
102
RTVSPropertyOp14
 70
     2
102
RTVSPropertyOp15
 70
     0
102
RTVSPropertyOp16
 70
     0
102
RTVSPropertyOp17
 70
     0
102
RTVSPropertyOp18
 70
     0
102
RTVSPropertyOp19
 70
     0
102
RTVSPropertyOp20
 70
     0
102
RTVSPropertyOp21
 70
     0
102
RTVSPropertyOp22
 70
     0
102
RTVSPropertyOp23
 70
     0
102
RTVSPropertyOp24
 70
     0
102
RTVSPropertyOp25
 70
     0
102
RTVSPropertyOp26
 70
     0
102
RTVSPropertyOp27
 70
     0
102
RTVSPropertyOp28
 70
     0
102
RTVSPropertyOp29
 70
     0
102
RTVSPropertyOp30
 70
     0
102
RTVSPropertyOp31
 70
     0
102
RTVSPropertyOp32
 70
     0
  0
XRECORD
  5
867
102
{ACAD_REACTORS
330
866
102
}
330
866
100
AcDbXrecord
280
     1
102
RTVSPropertyOp0
 70
     1
102
RTVSPropertyOp1
 70
     1
102
RTVSPropertyOp2
 70
     1
102
RTVSPropertyOp3
 70
     1
102
RTVSPropertyOp4
 70
     1
102
RTVSPropertyOp5
 70
     1
102
RTVSPropertyOp6
 70
     1
102
RTVSPropertyOp7
 70
     1
102
RTVSPropertyOp8
 70
     1
102
RTVSPropertyOp9
 70
     1
102
RTVSPropertyOp10
 70
     1
102
RTVSPropertyOp11
 70
     1
102
RTVSPropertyOp12
 70
     1
102
RTVSPropertyOp13
 70
     1
102
RTVSPropertyOp14
 70
     1
102
RTVSPropertyOp15
 70
     1
102
RTVSPropertyOp16
 70
     1
102
RTVSPropertyOp17
 70
     1
102
RTVSPropertyOp18
 70
     1
102
RTVSPropertyOp19
 70
     1
102
RTVSPropertyOp20
 70
     1
102
RTVSPropertyOp21
 70
     1
102
RTVSPropertyOp22
 70
     1
102
RTVSPropertyOp23
 70
     1
102
RTVSPropertyOp24
 70
     1
102
RTVSPropertyOp25
 70
     1
102
RTVSPropertyOp26
 70
     1
102
RTVSPropertyOp27
 70
     1
102
RTVSPropertyOp28
 70
     1
102
RTVSPropertyOp29
 70
     1
102
RTVSPropertyOp30
 70
     1
102
RTVSPropertyOp31
 70
     1
102
RTVSPropertyOp32
 70
     1
  0
XRECORD
  5
879
102
{ACAD_REACTORS
330
878
102
}
330
878
100
AcDbXrecord
280
     1
102
RTVSPropertyOp0
 70
     0
102
RTVSPropertyOp1
 70
     0
102
RTVSPropertyOp2
 70
     0
102
RTVSPropertyOp3
 70
     0
102
RTVSPropertyOp4
 70
     0
102
RTVSPropertyOp5
 70
     0
102
RTVSPropertyOp6
 70
     0
102
RTVSPropertyOp7
 70
     0
102
RTVSPropertyOp8
 70
     0
102
RTVSPropertyOp9
 70
     0
102
RTVSPropertyOp10
 70
     0
102
RTVSPropertyOp11
 70
     0
102
RTVSPropertyOp12
 70
     0
102
RTVSPropertyOp13
 70
     0
102
RTVSPropertyOp14
 70
     2
102
RTVSPropertyOp15
 70
     0
102
RTVSPropertyOp16
 70
     0
102
RTVSPropertyOp17
 70
     0
102
RTVSPropertyOp18
 70
     0
102
RTVSPropertyOp19
 70
     0
102
RTVSPropertyOp20
 70
     0
102
RTVSPropertyOp21
 70
     0
102
RTVSPropertyOp22
 70
     0
102
RTVSPropertyOp23
 70
     0
102
RTVSPropertyOp24
 70
     0
102
RTVSPropertyOp25
 70
     0
102
RTVSPropertyOp26
 70
     0
102
RTVSPropertyOp27
 70
     0
102
RTVSPropertyOp28
 70
     0
102
RTVSPropertyOp29
 70
     0
102
RTVSPropertyOp30
 70
     0
102
RTVSPropertyOp31
 70
     0
102
RTVSPropertyOp32
 70
     0
  0
XRECORD
  5
85F
102
{ACAD_REACTORS
330
85E
102
}
330
85E
100
AcDbXrecord
280
     1
102
RTVSPropertyOp0
 70
     1
102
RTVSPropertyOp1
 70
     1
102
RTVSPropertyOp2
 70
     1
102
RTVSPropertyOp3
 70
     1
102
RTVSPropertyOp4
 70
     1
102
RTVSPropertyOp5
 70
     1
102
RTVSPropertyOp6
 70
     1
102
RTVSPropertyOp7
 70
     1
102
RTVSPropertyOp8
 70
     1
102
RTVSPropertyOp9
 70
     1
102
RTVSPropertyOp10
 70
     1
102
RTVSPropertyOp11
 70
     1
102
RTVSPropertyOp12
 70
     1
102
RTVSPropertyOp13
 70
     1
102
RTVSPropertyOp14
 70
     1
102
RTVSPropertyOp15
 70
     1
102
RTVSPropertyOp16
 70
     1
102
RTVSPropertyOp17
 70
     1
102
RTVSPropertyOp18
 70
     1
102
RTVSPropertyOp19
 70
     1
102
RTVSPropertyOp20
 70
     1
102
RTVSPropertyOp21
 70
     1
102
RTVSPropertyOp22
 70
     1
102
RTVSPropertyOp23
 70
     1
102
RTVSPropertyOp24
 70
     1
102
RTVSPropertyOp25
 70
     1
102
RTVSPropertyOp26
 70
     1
102
RTVSPropertyOp27
 70
     1
102
RTVSPropertyOp28
 70
     1
102
RTVSPropertyOp29
 70
     1
102
RTVSPropertyOp30
 70
     1
102
RTVSPropertyOp31
 70
     1
102
RTVSPropertyOp32
 70
     1
  0
XRECORD
  5
875
102
{ACAD_REACTORS
330
874
102
}
330
874
100
AcDbXrecord
280
     1
102
RTVSPropertyOp0
 70
     1
102
RTVSPropertyOp1
 70
     1
102
RTVSPropertyOp2
 70
     1
102
RTVSPropertyOp3
 70
     1
102
RTVSPropertyOp4
 70
     1
102
RTVSPropertyOp5
 70
     1
102
RTVSPropertyOp6
 70
     1
102
RTVSPropertyOp7
 70
     1
102
RTVSPropertyOp8
 70
     1
102
RTVSPropertyOp9
 70
     1
102
RTVSPropertyOp10
 70
     1
102
RTVSPropertyOp11
 70
     1
102
RTVSPropertyOp12
 70
     1
102
RTVSPropertyOp13
 70
     1
102
RTVSPropertyOp14
 70
     1
102
RTVSPropertyOp15
 70
     1
102
RTVSPropertyOp16
 70
     1
102
RTVSPropertyOp17
 70
     1
102
RTVSPropertyOp18
 70
     1
102
RTVSPropertyOp19
 70
     1
102
RTVSPropertyOp20
 70
     1
102
RTVSPropertyOp21
 70
     1
102
RTVSPropertyOp22
 70
     1
102
RTVSPropertyOp23
 70
     1
102
RTVSPropertyOp24
 70
     1
102
RTVSPropertyOp25
 70
     1
102
RTVSPropertyOp26
 70
     1
102
RTVSPropertyOp27
 70
     1
102
RTVSPropertyOp28
 70
     1
102
RTVSPropertyOp29
 70
     1
102
RTVSPropertyOp30
 70
     1
102
RTVSPropertyOp31
 70
     1
102
RTVSPropertyOp32
 70
     1
  0
XRECORD
  5
873
102
{ACAD_REACTORS
330
872
102
}
330
872
100
AcDbXrecord
280
     1
102
RTVSPropertyOp0
 70
     1
102
RTVSPropertyOp1
 70
     1
102
RTVSPropertyOp2
 70
     1
102
RTVSPropertyOp3
 70
     1
102
RTVSPropertyOp4
 70
     1
102
RTVSPropertyOp5
 70
     1
102
RTVSPropertyOp6
 70
     1
102
RTVSPropertyOp7
 70
     1
102
RTVSPropertyOp8
 70
     1
102
RTVSPropertyOp9
 70
     1
102
RTVSPropertyOp10
 70
     1
102
RTVSPropertyOp11
 70
     1
102
RTVSPropertyOp12
 70
     1
102
RTVSPropertyOp13
 70
     1
102
RTVSPropertyOp14
 70
     1
102
RTVSPropertyOp15
 70
     1
102
RTVSPropertyOp16
 70
     1
102
RTVSPropertyOp17
 70
     1
102
RTVSPropertyOp18
 70
     1
102
RTVSPropertyOp19
 70
     1
102
RTVSPropertyOp20
 70
     1
102
RTVSPropertyOp21
 70
     1
102
RTVSPropertyOp22
 70
     1
102
RTVSPropertyOp23
 70
     1
102
RTVSPropertyOp24
 70
     1
102
RTVSPropertyOp25
 70
     1
102
RTVSPropertyOp26
 70
     1
102
RTVSPropertyOp27
 70
     1
102
RTVSPropertyOp28
 70
     1
102
RTVSPropertyOp29
 70
     1
102
RTVSPropertyOp30
 70
     1
102
RTVSPropertyOp31
 70
     1
102
RTVSPropertyOp32
 70
     1
  0
XRECORD
  5
86D
102
{ACAD_REACTORS
330
86C
102
}
330
86C
100
AcDbXrecord
280
     1
102
RTVSPropertyOp0
 70
     1
102
RTVSPropertyOp1
 70
     1
102
RTVSPropertyOp2
 70
     1
102
RTVSPropertyOp3
 70
     1
102
RTVSPropertyOp4
 70
     1
102
RTVSPropertyOp5
 70
     1
102
RTVSPropertyOp6
 70
     1
102
RTVSPropertyOp7
 70
     1
102
RTVSPropertyOp8
 70
     1
102
RTVSPropertyOp9
 70
     1
102
RTVSPropertyOp10
 70
     1
102
RTVSPropertyOp11
 70
     1
102
RTVSPropertyOp12
 70
     1
102
RTVSPropertyOp13
 70
     1
102
RTVSPropertyOp14
 70
     1
102
RTVSPropertyOp15
 70
     1
102
RTVSPropertyOp16
 70
     1
102
RTVSPropertyOp17
 70
     1
102
RTVSPropertyOp18
 70
     1
102
RTVSPropertyOp19
 70
     1
102
RTVSPropertyOp20
 70
     1
102
RTVSPropertyOp21
 70
     1
102
RTVSPropertyOp22
 70
     1
102
RTVSPropertyOp23
 70
     1
102
RTVSPropertyOp24
 70
     1
102
RTVSPropertyOp25
 70
     1
102
RTVSPropertyOp26
 70
     1
102
RTVSPropertyOp27
 70
     1
102
RTVSPropertyOp28
 70
     1
102
RTVSPropertyOp29
 70
     1
102
RTVSPropertyOp30
 70
     1
102
RTVSPropertyOp31
 70
     1
102
RTVSPropertyOp32
 70
     1
  0
XRECORD
  5
86F
102
{ACAD_REACTORS
330
86E
102
}
330
86E
100
AcDbXrecord
280
     1
102
RTVSPropertyOp0
 70
     1
102
RTVSPropertyOp1
 70
     1
102
RTVSPropertyOp2
 70
     1
102
RTVSPropertyOp3
 70
     1
102
RTVSPropertyOp4
 70
     1
102
RTVSPropertyOp5
 70
     1
102
RTVSPropertyOp6
 70
     1
102
RTVSPropertyOp7
 70
     1
102
RTVSPropertyOp8
 70
     1
102
RTVSPropertyOp9
 70
     1
102
RTVSPropertyOp10
 70
     1
102
RTVSPropertyOp11
 70
     1
102
RTVSPropertyOp12
 70
     1
102
RTVSPropertyOp13
 70
     1
102
RTVSPropertyOp14
 70
     1
102
RTVSPropertyOp15
 70
     1
102
RTVSPropertyOp16
 70
     1
102
RTVSPropertyOp17
 70
     1
102
RTVSPropertyOp18
 70
     1
102
RTVSPropertyOp19
 70
     1
102
RTVSPropertyOp20
 70
     1
102
RTVSPropertyOp21
 70
     1
102
RTVSPropertyOp22
 70
     1
102
RTVSPropertyOp23
 70
     1
102
RTVSPropertyOp24
 70
     1
102
RTVSPropertyOp25
 70
     1
102
RTVSPropertyOp26
 70
     1
102
RTVSPropertyOp27
 70
     1
102
RTVSPropertyOp28
 70
     1
102
RTVSPropertyOp29
 70
     1
102
RTVSPropertyOp30
 70
     1
102
RTVSPropertyOp31
 70
     1
102
RTVSPropertyOp32
 70
     1
  0
XRECORD
  5
865
102
{ACAD_REACTORS
330
864
102
}
330
864
100
AcDbXrecord
280
     1
102
RTVSPropertyOp0
 70
     1
102
RTVSPropertyOp1
 70
     1
102
RTVSPropertyOp2
 70
     1
102
RTVSPropertyOp3
 70
     1
102
RTVSPropertyOp4
 70
     1
102
RTVSPropertyOp5
 70
     1
102
RTVSPropertyOp6
 70
     1
102
RTVSPropertyOp7
 70
     1
102
RTVSPropertyOp8
 70
     1
102
RTVSPropertyOp9
 70
     1
102
RTVSPropertyOp10
 70
     1
102
RTVSPropertyOp11
 70
     1
102
RTVSPropertyOp12
 70
     1
102
RTVSPropertyOp13
 70
     1
102
RTVSPropertyOp14
 70
     1
102
RTVSPropertyOp15
 70
     1
102
RTVSPropertyOp16
 70
     1
102
RTVSPropertyOp17
 70
     1
102
RTVSPropertyOp18
 70
     1
102
RTVSPropertyOp19
 70
     1
102
RTVSPropertyOp20
 70
     1
102
RTVSPropertyOp21
 70
     1
102
RTVSPropertyOp22
 70
     1
102
RTVSPropertyOp23
 70
     1
102
RTVSPropertyOp24
 70
     1
102
RTVSPropertyOp25
 70
     1
102
RTVSPropertyOp26
 70
     1
102
RTVSPropertyOp27
 70
     1
102
RTVSPropertyOp28
 70
     1
102
RTVSPropertyOp29
 70
     1
102
RTVSPropertyOp30
 70
     1
102
RTVSPropertyOp31
 70
     1
102
RTVSPropertyOp32
 70
     1
  0
XRECORD
  5
859
102
{ACAD_REACTORS
330
858
102
}
330
858
100
AcDbXrecord
280
     1
102
RTVSPropertyOp0
 70
     1
102
RTVSPropertyOp1
 70
     1
102
RTVSPropertyOp2
 70
     1
102
RTVSPropertyOp3
 70
     1
102
RTVSPropertyOp4
 70
     1
102
RTVSPropertyOp5
 70
     1
102
RTVSPropertyOp6
 70
     1
102
RTVSPropertyOp7
 70
     1
102
RTVSPropertyOp8
 70
     1
102
RTVSPropertyOp9
 70
     1
102
RTVSPropertyOp10
 70
     1
102
RTVSPropertyOp11
 70
     1
102
RTVSPropertyOp12
 70
     1
102
RTVSPropertyOp13
 70
     1
102
RTVSPropertyOp14
 70
     1
102
RTVSPropertyOp15
 70
     1
102
RTVSPropertyOp16
 70
     1
102
RTVSPropertyOp17
 70
     1
102
RTVSPropertyOp18
 70
     1
102
RTVSPropertyOp19
 70
     1
102
RTVSPropertyOp20
 70
     1
102
RTVSPropertyOp21
 70
     1
102
RTVSPropertyOp22
 70
     1
102
RTVSPropertyOp23
 70
     1
102
RTVSPropertyOp24
 70
     1
102
RTVSPropertyOp25
 70
     1
102
RTVSPropertyOp26
 70
     1
102
RTVSPropertyOp27
 70
     1
102
RTVSPropertyOp28
 70
     1
102
RTVSPropertyOp29
 70
     1
102
RTVSPropertyOp30
 70
     1
102
RTVSPropertyOp31
 70
     1
102
RTVSPropertyOp32
 70
     1
  0
XRECORD
  5
871
102
{ACAD_REACTORS
330
870
102
}
330
870
100
AcDbXrecord
280
     1
102
RTVSPropertyOp0
 70
     1
102
RTVSPropertyOp1
 70
     1
102
RTVSPropertyOp2
 70
     1
102
RTVSPropertyOp3
 70
     1
102
RTVSPropertyOp4
 70
     1
102
RTVSPropertyOp5
 70
     1
102
RTVSPropertyOp6
 70
     1
102
RTVSPropertyOp7
 70
     1
102
RTVSPropertyOp8
 70
     1
102
RTVSPropertyOp9
 70
     1
102
RTVSPropertyOp10
 70
     1
102
RTVSPropertyOp11
 70
     1
102
RTVSPropertyOp12
 70
     1
102
RTVSPropertyOp13
 70
     1
102
RTVSPropertyOp14
 70
     1
102
RTVSPropertyOp15
 70
     1
102
RTVSPropertyOp16
 70
     1
102
RTVSPropertyOp17
 70
     1
102
RTVSPropertyOp18
 70
     1
102
RTVSPropertyOp19
 70
     1
102
RTVSPropertyOp20
 70
     1
102
RTVSPropertyOp21
 70
     1
102
RTVSPropertyOp22
 70
     1
102
RTVSPropertyOp23
 70
     1
102
RTVSPropertyOp24
 70
     1
102
RTVSPropertyOp25
 70
     1
102
RTVSPropertyOp26
 70
     1
102
RTVSPropertyOp27
 70
     1
102
RTVSPropertyOp28
 70
     1
102
RTVSPropertyOp29
 70
     1
102
RTVSPropertyOp30
 70
     1
102
RTVSPropertyOp31
 70
     1
102
RTVSPropertyOp32
 70
     1
  0
ENDSEC
  0
EOF
