  0
SECTION
  2
HEADER
  9
$ACADVER
  1
AC1021
  9
$ACADMAINTVER
 70
    50
  9
$DWGCODEPAGE
  3
ANSI_1252
  9
$LASTSAVEDBY
  1
koa
  9
$CUSTOMPROPERTYTAG
  1
AmdtFileType
  9
$CUSTOMPROPERTY
  1
83
  9
$INSBASE
 10
0.0
 20
0.0
 30
0.0
  9
$EXTMIN
 10
81.05712997850162
 20
8.488236905201688
 30
-0.0000000000000053
  9
$EXTMAX
 10
412.8991708914973
 20
390.9062333862428
 30
0.0000000000000099
  9
$LIMMIN
 10
0.0
 20
0.0
  9
$LIMMAX
 10
420.0
 20
297.0
  9
$ORTHOMODE
 70
     1
  9
$REGENMODE
 70
     1
  9
$FILLMODE
 70
     1
  9
$QTEXTMODE
 70
     0
  9
$MIRRTEXT
 70
     1
  9
$LTSCALE
 40
1.0
  9
$ATTMODE
 70
     1
  9
$TEXTSIZE
 40
3.5
  9
$TRACEWID
 40
1.0
  9
$TEXTSTYLE
  7
STANDARD
  9
$CLAYER
  8
AM_0
  9
$CELTYPE
  6
BYLAYER
  9
$CECOLOR
 62
   256
  9
$CELTSCALE
 40
1.0
  9
$DISPSILH
 70
     0
  9
$DIMSCALE
 40
1.0
  9
$DIMASZ
 40
3.0
  9
$DIMEXO
 40
0.0
  9
$DIMDLI
 40
10.0
  9
$DIMRND
 40
0.0
  9
$DIMDLE
 40
0.0
  9
$DIMEXE
 40
1.0
  9
$DIMTP
 40
0.1
  9
$DIMTM
 40
0.1
  9
$DIMTXT
 40
3.5
  9
$DIMCEN
 40
0.0
  9
$DIMTSZ
 40
0.0
  9
$DIMTOL
 70
     0
  9
$DIMLIM
 70
     0
  9
$DIMTIH
 70
     0
  9
$DIMTOH
 70
     0
  9
$DIMSE1
 70
     0
  9
$DIMSE2
 70
     0
  9
$DIMTAD
 70
     1
  9
$DIMZIN
 70
     8
  9
$DIMBLK
  1

  9
$DIMASO
 70
     1
  9
$DIMSHO
 70
     1
  9
$DIMPOST
  1

  9
$DIMAPOST
  1
"
  9
$DIMALT
 70
     0
  9
$DIMALTD
 70
     2
  9
$DIMALTF
 40
0.0393701
  9
$DIMLFAC
 40
1.0
  9
$DIMTOFL
 70
     1
  9
$DIMTVP
 40
0.0
  9
$DIMTIX
 70
     0
  9
$DIMSOXD
 70
     0
  9
$DIMSAH
 70
     0
  9
$DIMBLK1
  1

  9
$DIMBLK2
  1

  9
$DIMSTYLE
  2
AM_ISO
  9
$DIMCLRD
 70
   256
  9
$DIMCLRE
 70
   256
  9
$DIMCLRT
 70
     2
  9
$DIMTFAC
 40
0.71
  9
$DIMGAP
 40
1.5
  9
$DIMJUST
 70
     0
  9
$DIMSD1
 70
     0
  9
$DIMSD2
 70
     0
  9
$DIMTOLJ
 70
     0
  9
$DIMTZIN
 70
     0
  9
$DIMALTZ
 70
     0
  9
$DIMALTTZ
 70
     0
  9
$DIMUPT
 70
     0
  9
$DIMDEC
 70
     2
  9
$DIMTDEC
 70
     2
  9
$DIMALTU
 70
     2
  9
$DIMALTTD
 70
     2
  9
$DIMTXSTY
  7
STANDARD
  9
$DIMAUNIT
 70
     0
  9
$DIMADEC
 70
     0
  9
$DIMALTRND
 40
0.0
  9
$DIMAZIN
 70
     2
  9
$DIMDSEP
 70
    46
  9
$DIMATFIT
 70
     3
  9
$DIMFRAC
 70
     0
  9
$DIMLDRBLK
  1

  9
$DIMLUNIT
 70
     2
  9
$DIMLWD
 70
    -1
  9
$DIMLWE
 70
    -1
  9
$DIMTMOVE
 70
     0
  9
$DIMFXL
 40
1.0
  9
$DIMFXLON
 70
     0
  9
$DIMJOGANG
 40
0.7853981633974483
  9
$DIMTFILL
 70
     0
  9
$DIMTFILLCLR
 70
     0
  9
$DIMARCSYM
 70
     0
  9
$DIMLTYPE
  6

  9
$DIMLTEX1
  6

  9
$DIMLTEX2
  6

  9
$LUNITS
 70
     2
  9
$LUPREC
 70
     4
  9
$SKETCHINC
 40
1.0
  9
$FILLETRAD
 40
10.0
  9
$AUNITS
 70
     0
  9
$AUPREC
 70
     2
  9
$MENU
  1
.
  9
$ELEVATION
 40
0.0
  9
$PELEVATION
 40
0.0
  9
$THICKNESS
 40
0.0
  9
$LIMCHECK
 70
     0
  9
$CHAMFERA
 40
10.0
  9
$CHAMFERB
 40
10.0
  9
$CHAMFERC
 40
20.0
  9
$CHAMFERD
 40
0.0
  9
$SKPOLY
 70
     1
  9
$TDCREATE
 40
2452051.376541064
  9
$TDUCREATE
 40
2452051.293207732
  9
$TDUPDATE
 40
2455751.383753773
  9
$TDUUPDATE
 40
2455751.300420440
  9
$TDINDWG
 40
0.1259761921
  9
$TDUSRTIMER
 40
0.1259759606
  9
$USRTIMER
 70
     1
  9
$ANGBASE
 50
0.0
  9
$ANGDIR
 70
     0
  9
$PDMODE
 70
     0
  9
$PDSIZE
 40
0.0
  9
$PLINEWID
 40
0.0
  9
$SPLFRAME
 70
     0
  9
$SPLINETYPE
 70
     6
  9
$SPLINESEGS
 70
    16
  9
$HANDSEED
  5
34E6
  9
$SURFTAB1
 70
     6
  9
$SURFTAB2
 70
     6
  9
$SURFTYPE
 70
     6
  9
$SURFU
 70
     6
  9
$SURFV
 70
     6
  9
$UCSBASE
  2

  9
$UCSNAME
  2

  9
$UCSORG
 10
0.0
 20
0.0
 30
0.0
  9
$UCSXDIR
 10
1.0
 20
0.0
 30
0.0
  9
$UCSYDIR
 10
0.0
 20
1.0
 30
0.0
  9
$UCSORTHOREF
  2

  9
$UCSORTHOVIEW
 70
     0
  9
$UCSORGTOP
 10
0.0
 20
0.0
 30
0.0
  9
$UCSORGBOTTOM
 10
0.0
 20
0.0
 30
0.0
  9
$UCSORGLEFT
 10
0.0
 20
0.0
 30
0.0
  9
$UCSORGRIGHT
 10
0.0
 20
0.0
 30
0.0
  9
$UCSORGFRONT
 10
0.0
 20
0.0
 30
0.0
  9
$UCSORGBACK
 10
0.0
 20
0.0
 30
0.0
  9
$PUCSBASE
  2

  9
$PUCSNAME
  2

  9
$PUCSORG
 10
0.0
 20
0.0
 30
0.0
  9
$PUCSXDIR
 10
1.0
 20
0.0
 30
0.0
  9
$PUCSYDIR
 10
0.0
 20
1.0
 30
0.0
  9
$PUCSORTHOREF
  2

  9
$PUCSORTHOVIEW
 70
     0
  9
$PUCSORGTOP
 10
0.0
 20
0.0
 30
0.0
  9
$PUCSORGBOTTOM
 10
0.0
 20
0.0
 30
0.0
  9
$PUCSORGLEFT
 10
0.0
 20
0.0
 30
0.0
  9
$PUCSORGRIGHT
 10
0.0
 20
0.0
 30
0.0
  9
$PUCSORGFRONT
 10
0.0
 20
0.0
 30
0.0
  9
$PUCSORGBACK
 10
0.0
 20
0.0
 30
0.0
  9
$USERI1
 70
     0
  9
$USERI2
 70
     0
  9
$USERI3
 70
     0
  9
$USERI4
 70
     0
  9
$USERI5
 70
     0
  9
$USERR1
 40
0.0
  9
$USERR2
 40
0.0
  9
$USERR3
 40
0.0
  9
$USERR4
 40
0.0
  9
$USERR5
 40
0.0
  9
$WORLDVIEW
 70
     1
  9
$SHADEDGE
 70
     3
  9
$SHADEDIF
 70
    70
  9
$TILEMODE
 70
     1
  9
$MAXACTVP
 70
    48
  9
$PINSBASE
 10
0.0
 20
0.0
 30
0.0
  9
$PLIMCHECK
 70
     0
  9
$PEXTMIN
 10
1.000000000000000E+20
 20
1.000000000000000E+20
 30
1.000000000000000E+20
  9
$PEXTMAX
 10
-1.000000000000000E+20
 20
-1.000000000000000E+20
 30
-1.000000000000000E+20
  9
$PLIMMIN
 10
-5.027083396911621
 20
-5.111741065979003
  9
$PLIMMAX
 10
204.9885873794556
 20
291.8989095687866
  9
$UNITMODE
 70
     0
  9
$VISRETAIN
 70
     1
  9
$PLINEGEN
 70
     0
  9
$PSLTSCALE
 70
     1
  9
$TREEDEPTH
 70
  3020
  9
$CMLSTYLE
  2
STANDARD
  9
$CMLJUST
 70
     0
  9
$CMLSCALE
 40
1.0
  9
$PROXYGRAPHICS
 70
     1
  9
$MEASUREMENT
 70
     1
  9
$CELWEIGHT
370
    -1
  9
$ENDCAPS
280
     0
  9
$JOINSTYLE
280
     0
  9
$LWDISPLAY
290
     0
  9
$INSUNITS
 70
     0
  9
$HYPERLINKBASE
  1

  9
$STYLESHEET
  1
LAA4.ctb
  9
$XEDIT
290
     1
  9
$CEPSNTYPE
380
     0
  9
$PSTYLEMODE
290
     1
  9
$FINGERPRINTGUID
  2
{9DE0F4BE-022B-11D3-8698-0060B085A428}
  9
$VERSIONGUID
  2
{26E0977A-AF7F-45B7-AD57-55A08F7CE436}
  9
$EXTNAMES
290
     1
  9
$PSVPSCALE
 40
0.0
  9
$OLESTARTUP
290
     0
  9
$SORTENTS
280
    96
  9
$INDEXCTL
280
     1
  9
$HIDETEXT
280
     0
  9
$XCLIPFRAME
290
     0
  9
$HALOGAP
280
     0
  9
$OBSCOLOR
 70
   257
  9
$OBSLTYPE
280
     0
  9
$INTERSECTIONDISPLAY
280
     0
  9
$INTERSECTIONCOLOR
 70
   257
  9
$DIMASSOC
280
     1
  9
$PROJECTNAME
  1

  9
$CAMERADISPLAY
290
     0
  9
$LENSLENGTH
 40
50.0
  9
$CAMERAHEIGHT
 40
0.0
  9
$STEPSPERSEC
 40
2.0
  9
$STEPSIZE
 40
6.0
  9
$3DDWFPREC
 40
2.0
  9
$PSOLWIDTH
 40
0.25
  9
$PSOLHEIGHT
 40
4.0
  9
$LOFTANG1
 40
1.570796326794896
  9
$LOFTANG2
 40
1.570796326794896
  9
$LOFTMAG1
 40
0.0
  9
$LOFTMAG2
 40
0.0
  9
$LOFTPARAM
 70
     7
  9
$LOFTNORMALS
280
     1
  9
$LATITUDE
 40
37.795
  9
$LONGITUDE
 40
-122.394
  9
$NORTHDIRECTION
 40
0.0
  9
$TIMEZONE
 70
 -8000
  9
$LIGHTGLYPHDISPLAY
280
     1
  9
$TILEMODELIGHTSYNCH
280
     1
  9
$CMATERIAL
347
334E
  9
$SOLIDHIST
280
     1
  9
$SHOWHIST
280
     1
  9
$DWFFRAME
280
     2
  9
$DGNFRAME
280
     0
  9
$REALWORLDSCALE
290
     1
  9
$INTERFERECOLOR
 62
     1
  9
$INTERFEREOBJVS
345
3370
  9
$INTERFEREVPVS
346
336D
  9
$CSHADOW
280
     0
  9
$SHADOWPLANELOCATION
 40
0.0
  0
ENDSEC
  0
SECTION
  2
CLASSES
  0
CLASS
  1
DICTIONARYVAR
  2
AcDbDictionaryVar
  3
ObjectDBX Classes
 90
        0
 91
       10
280
     0
281
     0
  0
CLASS
  1
ACMESTATEMGR
  2
AcMeStateMgr
  3
AcMeServices
 90
     1024
 91
        1
280
     0
281
     0
  0
CLASS
  1
ACMESCOPE
  2
AcMeScope
  3
AcMeServices
 90
     1024
 91
        1
280
     0
281
     0
  0
CLASS
  1
ACMECOMMANDHISTORY
  2
AcMeCommandHistory
  3
AcMeServices
 90
     1024
 91
        1
280
     0
281
     0
  0
CLASS
  1
ACRFINSADJUSTERMGR
  2
AcRfInsAdjusterMgr
  3
AcMeServices
 90
     1024
 91
        1
280
     0
281
     0
  0
CLASS
  1
ACMEDRAWINGMAN
  2
AcMeDrawingMan
  3
AcMeServices
 90
     1024
 91
        1
280
     0
281
     0
  0
CLASS
  1
AMATTR
  2
AcMeAttribute
  3
AcMeServices
 90
     1024
 91
        0
280
     0
281
     0
  0
CLASS
  1
ACMEBOMCOLUMN
  2
AcMeBOMColumn
  3
AcMeServices
 90
     1024
 91
        0
280
     0
281
     0
  0
CLASS
  1
ACMEBOMCONF
  2
AcMeBOMConf
  3
AcMeServices
 90
     1024
 91
        0
280
     0
281
     0
  0
CLASS
  1
ACMEBOMTABLE
  2
AcMeBOMTable
  3
AcMeServices
 90
     1024
 91
        0
280
     0
281
     0
  0
CLASS
  1
ACMEBOMENTRY
  2
AcMeBOMEntry
  3
AcMeServices
 90
     1024
 91
        0
280
     0
281
     0
  0
CLASS
  1
ACMEVIEW
  2
AcMeView
  3
AcMeServices
 90
     1024
 91
        0
280
     0
281
     0
  0
CLASS
  1
ACGREFMASTER
  2
AcGrefMaster
  3
AcAttribServices
 90
     1024
 91
        1
280
     0
281
     0
  0
CLASS
  1
AMIMASTER
  2
AmiMaster
  3
AmiServices
 90
     1024
 91
        1
280
     0
281
     0
  0
CLASS
  1
ACASGREFMASTER
  2
AcAsGrefMaster
  3
AutoSurfResolverServices
 90
     1024
 91
        1
280
     0
281
     0
  0
CLASS
  1
ADAPPL
  2
AcAdAppl
  3
DesignerServices
 90
     1024
 91
        1
280
     0
281
     0
  0
CLASS
  1
DEPMGR
  2
AcAdDepMgr
  3
DesignerServices
 90
     1024
 91
        1
280
     0
281
     0
  0
CLASS
  1
PARAMMGR
  2
AcAdParamMgr
  3
DesignerServices
 90
     1024
 91
        1
280
     0
281
     0
  0
CLASS
  1
PARAMSCOPE
  2
AcAdParamScope
  3
DesignerServices
 90
     1024
 91
        3
280
     0
281
     0
  0
CLASS
  1
ACIMSYSVARMAN
  2
AcImSysVarManager
  3
AcMeServices
 90
     1024
 91
        6
280
     0
281
     0
  0
CLASS
  1
ACIMINTSYSVAR
  2
AcImIntSysVar
  3
AcMeServices
 90
     1024
 91
       48
280
     0
281
     0
  0
CLASS
  1
ACIMREALSYSVAR
  2
AcImRealSysVar
  3
AcMeServices
 90
     1024
 91
       16
280
     0
281
     0
  0
CLASS
  1
ACIMSTRSYSVAR
  2
AcImStrSysVar
  3
AcMeServices
 90
     1024
 91
       14
280
     0
281
     0
  0
CLASS
  1
NAMEDAPPL
  2
AcAdNamedAppl
  3
DesignerServices
 90
     1024
 91
        1
280
     0
281
     0
  0
CLASS
  1
ADHNTMPLT
  2
AdHoleNoteTemplateMgr
  3
DesignerServices
 90
     1024
 91
        0
280
     0
281
     0
  0
CLASS
  1
AM_HNTEMPLATE_MGR_NAME
  2
AdHoleNoteTemplateMgrName
  3
DesignerServices
 90
     1024
 91
        0
280
     0
281
     0
  0
CLASS
  1
ACADGREFMODULE
  2
AcAdGrefModule
  3
AdGrefServices
 90
     1024
 91
        1
280
     0
281
     0
  0
CLASS
  1
AM_DRAWING_MGR
  2
AcDmDwgMgr
  3
AcMechDwgViewMgmt
 90
     1024
 91
        1
280
     0
281
     0
  0
CLASS
  1
AM_DWG_DOCUMENT
  2
AcDmDwgDocument
  3
AcMechDwgViewMgmt
 90
     1024
 91
        1
280
     0
281
     0
  0
CLASS
  1
AM_DWG_SHEET
  2
AcDmSheet
  3
AcMechDwgViewMgmt
 90
     1024
 91
        5
280
     0
281
     0
  0
CLASS
  1
AM_VIEWDIMPARMAP
  2
AcDmViewDimParMap
  3
AcMechDwgViewMgmt
 90
     1024
 91
        5
280
     0
281
     0
  0
CLASS
  1
AM_DWGMGR_NAME
  2
AcDmDwgMgrName
  3
AcMechDwgViewMgmt
 90
     1024
 91
        1
280
     0
281
     0
  0
CLASS
  1
ACAMPROJECT
  2
AcAmProject
  3
DesignerAssemblies
 90
     1024
 91
        1
280
     0
281
     0
  0
CLASS
  1
ACAMGRCOMPSET
  2
AcAmGrCompSet
  3
DesignerAssemblies
 90
        0
 91
        0
280
     0
281
     0
  0
CLASS
  1
ACAMGRCOMPDEFSET
  2
AcAmGrCompDefSet
  3
DesignerAssemblies
 90
     1024
 91
        1
280
     0
281
     0
  0
CLASS
  1
ACAMGRCOMPDEF
  2
AcAmGrCompDef
  3
DesignerAssemblies
 90
     1024
 91
        2
280
     0
281
     0
  0
CLASS
  1
ACCMCONTEXT
  2
AcCmContext
  3
DesignerAssemblies
 90
     1024
 91
        2
280
     0
281
     0
  0
CLASS
  1
ACAMCOMPDEF
  2
AcAmCompDef
  3
DesignerAssemblies
 90
     1024
 91
        2
280
     0
281
     0
  0
CLASS
  1
ACAMCOMPDEFMGR
  2
AcAmCompDefMgr
  3
DesignerAssemblies
 90
     1024
 91
        1
280
     0
281
     0
  0
CLASS
  1
AMCONTEXTMGR
  2
AcAmContextMgr
  3
DesignerAssemblies
 90
     1024
 91
        1
280
     0
281
     0
  0
CLASS
  1
ACAMCONTEXTMODELER
  2
AcAmContextModeler
  3
DesignerAssemblies
 90
     1024
 91
        0
280
     0
281
     0
  0
CLASS
  1
ACDMVIEWGEOM
  2
AcDmViewGeometry
  3
AcMechDwgViewMgmt
 90
     1024
 91
        1
280
     0
281
     1
  0
CLASS
  1
CBROWSERAPPOBJECT
  2
CBrowserAppObject
  3
McadcomServices
 90
     1024
 91
        3
280
     0
281
     0
  0
CLASS
  1
IM_STATIC_MAN
  2
AcImStaticVarManager
  3
AcMeServices
 90
     1024
 91
        1
280
     0
281
     0
  0
CLASS
  1
ASAPP
  2
AcAsAppObject
  3
AutoSurfServices
 90
     1024
 91
        1
280
     0
281
     0
  0
CLASS
  1
ACIMDBLSTATICVAR
  2
AcImDblStaticVar
  3
AcMeServices
 90
     1024
 91
       22
280
     0
281
     0
  0
CLASS
  1
ACIMSTRSTATICVAR
  2
AcImStrStaticVar
  3
AcMeServices
 90
     1024
 91
       13
280
     0
281
     0
  0
CLASS
  1
ACIMINTSTATICVAR
  2
AcImIntStaticVar
  3
AcMeServices
 90
     1024
 91
       17
280
     0
281
     0
  0
CLASS
  1
CATALOGSTATE
  2
AcAmCatalogState
  3
DesignerAssemblies
 90
     1024
 91
        1
280
     0
281
     0
  0
CLASS
  1
DM_PLACEHOLDER
  2
AcDmSelsetPlaceholder
  3
AcMechDwgViewMgmt
 90
     1024
 91
        1
280
     0
281
     0
  0
CLASS
  1
LAYER_INDEX
  2
AcDbLayerIndex
  3
ObjectDBX Classes
 90
        0
 91
        1
280
     0
281
     0
  0
CLASS
  1
IDBUFFER
  2
AcDbIdBuffer
  3
ObjectDBX Classes
 90
        0
 91
       25
280
     0
281
     0
  0
CLASS
  1
ACMSTANDARDJIS
  2
AcmStandardJIS
  3
"Amdt_StdImp|Product Description: AutoCAD Mechanical|Company: Autodesk, Inc."
 90
     1024
 91
        1
280
     0
281
     0
  0
CLASS
  1
ACMSTANDARDANSI
  2
AcmStandardANSI
  3
"Amdt_StdImp|Product Description: AutoCAD Mechanical|Company: Autodesk, Inc."
 90
     1024
 91
        1
280
     0
281
     0
  0
CLASS
  1
ACMSTANDARDBSI
  2
AcmStandardBSI
  3
"Amdt_StdImp|Product Description: AutoCAD Mechanical|Company: Autodesk, Inc."
 90
     1024
 91
        1
280
     0
281
     0
  0
CLASS
  1
ACMSTANDARDDIN
  2
AcmStandardDIN
  3
"Amdt_StdImp|Product Description: AutoCAD Mechanical|Company: Autodesk, Inc."
 90
     1024
 91
        1
280
     0
281
     0
  0
CLASS
  1
ACMSTANDARDISO
  2
AcmStandardISO
  3
"Amdt_StdImp|Product Description: AutoCAD Mechanical|Company: Autodesk, Inc."
 90
     1024
 91
        1
280
     0
281
     0
  0
CLASS
  1
ACDBDICTIONARYWDFLT
  2
AcDbDictionaryWithDefault
  3
ObjectDBX Classes
 90
        0
 91
        1
280
     0
281
     0
  0
CLASS
  1
ACME_DOCUMENT
  2
AcMeDbDoc
  3
AcMeServices
 90
     1024
 91
        2
280
     0
281
     0
  0
CLASS
  1
AMGSETTINGSOBJ
  2
AmgSettingsObj
  3
"AcadM|Product Description: AutoCAD Mechanical|Company: Autodesk, Inc."
 90
     1024
 91
        4
280
     0
281
     0
  0
CLASS
  1
AMGOBJPROPCFG
  2
AmgObjPropCfg
  3
"AmgLay|Product Description: AutoCAD Mechanical|Company: Autodesk, Inc."
 90
     1025
 91
        1
280
     0
281
     0
  0
CLASS
  1
ACDBENTITYCACHE
  2
AcMeEntityCache
  3
AcMeServices
 90
     1024
 91
        1
280
     0
281
     0
  0
CLASS
  1
GSMANAGER
  2
AcMeGSManager
  3
AcMeServices
 90
     1024
 91
        1
280
     0
281
     0
  0
CLASS
  1
AMDTINTERNALREACTOR
  2
AmdtInternalReactor
  3
AcMeServices
 90
     1024
 91
        6
280
     0
281
     0
  0
CLASS
  1
ACME_DATABASE
  2
AcMeDbDatabase
  3
AcMeServices
 90
     1024
 91
        1
280
     0
281
     0
  0
CLASS
  1
ACGREFACADMASTER
  2
AcGrefacadMaster
  3
AcGrefServices
 90
     1024
 91
        1
280
     0
281
     0
  0
CLASS
  1
AMDTMENUSTATEMGR
  2
AmdtMenuStateMgr
  3
McadcomServices
 90
     1024
 91
        1
280
     0
281
     0
  0
CLASS
  1
AMDTMCOMMENUSTATE
  2
AmdtMcomMenuState
  3
McadcomServices
 90
     1024
 91
        1
280
     0
281
     0
  0
CLASS
  1
MAPIADMODULE
  2
MApiAdModule
  3
MApiAdServices
 90
     1024
 91
        1
280
     0
281
     0
  0
CLASS
  1
AMDTDMMENUSTATE
  2
AmdtDmMenuState
  3
AcMechDwgViewMgmt
 90
     1024
 91
        1
280
     0
281
     0
  0
CLASS
  1
AMDTADMENUSTATE
  2
AmdtAdMenuState
  3
DesignerServices
 90
     1024
 91
        1
280
     0
281
     0
  0
CLASS
  1
AMDTAMMENUSTATE
  2
AmdtAmMenuState
  3
DesignerAssemblies
 90
     1024
 91
        1
280
     0
281
     0
  0
CLASS
  1
ACMDATADICTIONARY
  2
AcmDataDictionary
  3
"AcmSymBB|Product Description: AutoCAD Mechanical|Company: Autodesk, Inc."
 90
     1024
 91
        1
280
     0
281
     0
  0
CLASS
  1
ACMDATAENTRYBLOCK
  2
AcmDataEntryBlock
  3
AcmSymBB|Product Description: AutoCAD Mechanical|Company: Autodesk, Inc.
 90
     1024
 91
        1
280
     0
281
     0
  0
CLASS
  1
ACMSURFSTANDARDJIS
  2
AcmSurfTextStdJIS
  3
"Amdt_StdImp|Product Description: AutoCAD Mechanical|Company: Autodesk, Inc."
 90
     1024
 91
        1
280
     0
281
     0
  0
CLASS
  1
ACMFCFSTANDARDJIS
  2
AcmFCFStdJIS
  3
"Amdt_StdImp|Product Description: AutoCAD Mechanical|Company: Autodesk, Inc."
 90
     1024
 91
        1
280
     0
281
     0
  0
CLASS
  1
ACMWELDSTANDARDJIS
  2
AcmWeldingStdJIS
  3
"Amdt_StdImp|Product Description: AutoCAD Mechanical|Company: Autodesk, Inc."
 90
     1024
 91
        1
280
     0
281
     0
  0
CLASS
  1
ACMIDSTANDARDJIS
  2
AcmIdStdJIS
  3
"Amdt_StdImp|Product Description: AutoCAD Mechanical|Company: Autodesk, Inc."
 90
     1024
 91
        1
280
     0
281
     0
  0
CLASS
  1
ACMDATUMSTANDARDJIS
  2
AcmDatumStdJIS
  3
"Amdt_StdImp|Product Description: AutoCAD Mechanical|Company: Autodesk, Inc."
 90
     1024
 91
        1
280
     0
281
     0
  0
CLASS
  1
ACMBOMSTANDARDJIS
  2
AcmBOMStdJIS
  3
"Amdt_StdImp|Product Description: AutoCAD Mechanical|Company: Autodesk, Inc."
 90
     1024
 91
        1
280
     0
281
     0
  0
CLASS
  1
ACMSURFSTANDARDANSI
  2
AcmSurfTextStdANSI
  3
"Amdt_StdImp|Product Description: AutoCAD Mechanical|Company: Autodesk, Inc."
 90
     1024
 91
        1
280
     0
281
     0
  0
CLASS
  1
ACMFCFSTANDARDANSI
  2
AcmFCFStdANSI
  3
"Amdt_StdImp|Product Description: AutoCAD Mechanical|Company: Autodesk, Inc."
 90
     1024
 91
        1
280
     0
281
     0
  0
CLASS
  1
ACMWELDSTANDARDANSI
  2
AcmWeldingStdANSI
  3
"Amdt_StdImp|Product Description: AutoCAD Mechanical|Company: Autodesk, Inc."
 90
     1024
 91
        1
280
     0
281
     0
  0
CLASS
  1
ACMIDSTANDARDANSI
  2
AcmIdStdANSI
  3
"Amdt_StdImp|Product Description: AutoCAD Mechanical|Company: Autodesk, Inc."
 90
     1024
 91
        1
280
     0
281
     0
  0
CLASS
  1
ACMDATUMSTANDARDANSI
  2
AcmDatumStdANSI
  3
"Amdt_StdImp|Product Description: AutoCAD Mechanical|Company: Autodesk, Inc."
 90
     1024
 91
        1
280
     0
281
     0
  0
CLASS
  1
ACMBOMSTANDARDANSI
  2
AcmBOMStdANSI
  3
"Amdt_StdImp|Product Description: AutoCAD Mechanical|Company: Autodesk, Inc."
 90
     1024
 91
        1
280
     0
281
     0
  0
CLASS
  1
ACMSURFSTANDARDBSI
  2
AcmSurfTextStdBSI
  3
"Amdt_StdImp|Product Description: AutoCAD Mechanical|Company: Autodesk, Inc."
 90
     1024
 91
        1
280
     0
281
     0
  0
CLASS
  1
ACMFCFSTANDARDBSI
  2
AcmFCFStdBSI
  3
"Amdt_StdImp|Product Description: AutoCAD Mechanical|Company: Autodesk, Inc."
 90
     1024
 91
        1
280
     0
281
     0
  0
CLASS
  1
ACMWELDSTANDARDBSI
  2
AcmWeldingStdBSI
  3
"Amdt_StdImp|Product Description: AutoCAD Mechanical|Company: Autodesk, Inc."
 90
     1024
 91
        1
280
     0
281
     0
  0
CLASS
  1
ACMIDSTANDARDBSI
  2
AcmIdStdBSI
  3
"Amdt_StdImp|Product Description: AutoCAD Mechanical|Company: Autodesk, Inc."
 90
     1024
 91
        1
280
     0
281
     0
  0
CLASS
  1
ACMDATUMSTANDARDBSI
  2
AcmDatumStdBSI
  3
"Amdt_StdImp|Product Description: AutoCAD Mechanical|Company: Autodesk, Inc."
 90
     1024
 91
        1
280
     0
281
     0
  0
CLASS
  1
ACMBOMSTANDARDBSI
  2
AcmBOMStdBSI
  3
"Amdt_StdImp|Product Description: AutoCAD Mechanical|Company: Autodesk, Inc."
 90
     1024
 91
        1
280
     0
281
     0
  0
CLASS
  1
AMDTEDGESTANDARDDIN
  2
AmdtEdgeStdDIN
  3
"Amdt_StdImp|Product Description: AutoCAD Mechanical|Company: Autodesk, Inc."
 90
     1024
 91
        1
280
     0
281
     0
  0
CLASS
  1
ACMSURFSTANDARDDIN
  2
AcmSurfTextStdDIN
  3
"Amdt_StdImp|Product Description: AutoCAD Mechanical|Company: Autodesk, Inc."
 90
     1024
 91
        1
280
     0
281
     0
  0
CLASS
  1
ACMFCFSTANDARDDIN
  2
AcmFCFStdDIN
  3
"Amdt_StdImp|Product Description: AutoCAD Mechanical|Company: Autodesk, Inc."
 90
     1024
 91
        1
280
     0
281
     0
  0
CLASS
  1
ACMWELDSTANDARDDIN
  2
AcmWeldingStdDIN
  3
"Amdt_StdImp|Product Description: AutoCAD Mechanical|Company: Autodesk, Inc."
 90
     1024
 91
        1
280
     0
281
     0
  0
CLASS
  1
ACMIDSTANDARDDIN
  2
AcmIdStdDIN
  3
"Amdt_StdImp|Product Description: AutoCAD Mechanical|Company: Autodesk, Inc."
 90
     1024
 91
        1
280
     0
281
     0
  0
CLASS
  1
ACMDATUMSTANDARDDIN
  2
AcmDatumStdDIN
  3
"Amdt_StdImp|Product Description: AutoCAD Mechanical|Company: Autodesk, Inc."
 90
     1024
 91
        1
280
     0
281
     0
  0
CLASS
  1
ACMBOMSTANDARDDIN
  2
AcmBOMStdDIN
  3
"Amdt_StdImp|Product Description: AutoCAD Mechanical|Company: Autodesk, Inc."
 90
     1024
 91
        1
280
     0
281
     0
  0
CLASS
  1
ACMSURFSTANDARDISO
  2
AcmSurfTextStdISO
  3
"Amdt_StdImp|Product Description: AutoCAD Mechanical|Company: Autodesk, Inc."
 90
     1024
 91
        1
280
     0
281
     0
  0
CLASS
  1
ACMFCFSTANDARDISO
  2
AcmFCFStdISO
  3
"Amdt_StdImp|Product Description: AutoCAD Mechanical|Company: Autodesk, Inc."
 90
     1024
 91
        1
280
     0
281
     0
  0
CLASS
  1
ACMWELDSTANDARDISO
  2
AcmWeldingStdISO
  3
"Amdt_StdImp|Product Description: AutoCAD Mechanical|Company: Autodesk, Inc."
 90
     1024
 91
        1
280
     0
281
     0
  0
CLASS
  1
ACMIDSTANDARDISO
  2
AcmIdStdISO
  3
"Amdt_StdImp|Product Description: AutoCAD Mechanical|Company: Autodesk, Inc."
 90
     1024
 91
        1
280
     0
281
     0
  0
CLASS
  1
ACMDATUMSTANDARDISO
  2
AcmDatumStdISO
  3
"Amdt_StdImp|Product Description: AutoCAD Mechanical|Company: Autodesk, Inc."
 90
     1024
 91
        1
280
     0
281
     0
  0
CLASS
  1
ACMBOMSTANDARDISO
  2
AcmBOMStdISO
  3
"Amdt_StdImp|Product Description: AutoCAD Mechanical|Company: Autodesk, Inc."
 90
     1024
 91
        1
280
     0
281
     0
  0
CLASS
  1
AMDTBROWSERDBTAB
  2
AmdtBrowserDbTab
  3
McadcomServices
 90
     1024
 91
        1
280
     0
281
     0
  0
CLASS
  1
ACAMGFILTERDAT
  2
AcAmgFilterDat
  3
"AcadM|Product Description: AutoCAD Mechanical|Company: Autodesk, Inc."
 90
     1024
 91
        4
280
     0
281
     0
  0
CLASS
  1
MAPIAMMOUDLE
  2
MApiAmModule
  3
MApiAmServices
 90
     1024
 91
        1
280
     0
281
     0
  0
CLASS
  1
PLOTSETTINGS
  2
AcDbPlotSettings
  3
ObjectDBX Classes
 90
        0
 91
        7
280
     0
281
     0
  0
CLASS
  1
ACRFATTGENMGR
  2
AcRfAttGeneralMgr
  3
AcAttribServices
 90
     1024
 91
        1
280
     0
281
     0
  0
CLASS
  1
ACAMGRBLOCKRECORD
  2
AcAmGrBlockRecord
  3
DesignerAssemblies
 90
     1024
 91
        2
280
     0
281
     0
  0
CLASS
  1
ACAMVIEWREACTOR
  2
AcAmViewReactor
  3
DesignerAssemblies
 90
     1024
 91
        0
280
     0
281
     0
  0
CLASS
  1
ACAMCOMPENT
  2
AcAmCompEnt
  3
DesignerAssemblies
 90
     1024
 91
        0
280
     0
281
     1
  0
CLASS
  1
AMVIEW
  2
AcAmView
  3
DesignerAssemblies
 90
     1024
 91
        0
280
     0
281
     0
  0
CLASS
  1
ACAMVIEWCONTEXT
  2
AcAmViewContext
  3
DesignerAssemblies
 90
     1024
 91
        0
280
     0
281
     0
  0
CLASS
  1
ADPART
  2
AcAdPart
  3
DesignerServices
 90
     1024
 91
        2
280
     0
281
     1
  0
CLASS
  1
ADBASE
  2
AcAdBase
  3
DesignerServices
 90
     1024
 91
        2
280
     0
281
     0
  0
CLASS
  1
BODYID
  2
AcAdBodyId
  3
DesignerServices
 90
     1024
 91
        2
280
     0
281
     0
  0
CLASS
  1
WORKPLANEDISPLAYMGR
  2
AcAdDisplayMgr
  3
DesignerServices
 90
     1024
 91
        2
280
     0
281
     0
  0
CLASS
  1
ACCMBODY
  2
AcCmBody
  3
DesignerAssemblies
 90
     1024
 91
        0
280
     0
281
     0
  0
CLASS
  1
ACAMCOMPFEEDBACK
  2
AcAmCompFeedback
  3
DesignerAssemblies
 90
     1024
 91
        0
280
     0
281
     0
  0
CLASS
  1
ACAMCOMP
  2
AcAmComp
  3
DesignerAssemblies
 90
     1024
 91
        0
280
     0
281
     0
  0
CLASS
  1
ACAMCOMPENTCLONE
  2
AcAmCompEntClone
  3
DesignerAssemblies
 90
     1024
 91
        0
280
     0
281
     1
  0
CLASS
  1
ACAMCLONEREACTOR
  2
AcAmGrCompCloneReactor
  3
DesignerAssemblies
 90
     1024
 91
        0
280
     0
281
     0
  0
CLASS
  1
ADDATUMPLANEABS
  2
AcAdDatumPlaneAbs
  3
DesignerServices
 90
     1024
 91
        5
280
     0
281
     0
  0
CLASS
  1
ADDATUMAXISABS
  2
AcAdDatumAxisAbs
  3
DesignerServices
 90
     1024
 91
        4
280
     0
281
     0
  0
CLASS
  1
ADDATUMORIENTEDPLANE
  2
AcAdDatumOrientedPlane
  3
DesignerServices
 90
     1024
 91
        4
280
     0
281
     0
  0
CLASS
  1
ACAD_LINE
  2
AcAdLine
  3
DesignerServices
 90
     1024
 91
        0
280
     0
281
     1
  0
CLASS
  1
ACADLINEACAD
  2
AcAdVirtualBoundedLineAcad
  3
DesignerServices
 90
     1024
 91
       12
280
     0
281
     0
  0
CLASS
  1
ACADREFLINEACAD
  2
AcAdVirtualReferenceLine
  3
DesignerServices
 90
     1024
 91
        8
280
     0
281
     0
  0
CLASS
  1
ACADCONSLINE
  2
AcAdConstrainedLine
  3
DesignerServices
 90
     1024
 91
       21
280
     0
281
     0
  0
CLASS
  1
ACADCONSGROUP
  2
AcAdConstraintGroup
  3
DesignerServices
 90
     1024
 91
        4
280
     0
281
     0
  0
CLASS
  1
ACADIMPPTACAD
  2
AcAdVirtualImplicitPoint
  3
DesignerServices
 90
     1024
 91
       25
280
     0
281
     0
  0
CLASS
  1
ACADCONSPOINT
  2
AcAdConstrainedPoint
  3
DesignerServices
 90
     1024
 91
       20
280
     0
281
     0
  0
CLASS
  1
ADPCURCNS
  2
AcAdPointCurveConstr
  3
DesignerServices
 90
     1024
 91
       24
280
     0
281
     0
  0
CLASS
  1
ADHORCNS
  2
AcAdHorizontalConstr
  3
DesignerServices
 90
     1024
 91
        4
280
     0
281
     0
  0
CLASS
  1
ADVERCNS
  2
AcAdVerticalConstr
  3
DesignerServices
 90
     1024
 91
        4
280
     0
281
     0
  0
CLASS
  1
ADCLPROF2D
  2
AcAdClosedProfile2d
  3
DesignerServices
 90
     1024
 91
        3
280
     0
281
     0
  0
CLASS
  1
ACAD_FIXCONSTRAINT
  2
AcAdFixedConstraint
  3
DesignerServices
 90
     1024
 91
        1
280
     0
281
     0
  0
CLASS
  1
ACMELINEARARROW
  2
AcImLinearArrowDisplay
  3
AcMeServices
 90
     1024
 91
        0
280
     0
281
     1
  0
CLASS
  1
PARAM
  2
AcAdParam
  3
DesignerServices
 90
     1024
 91
       23
280
     0
281
     0
  0
CLASS
  1
ACADVOLFEATWITHTRIM
  2
AcAdVolFeatWithTrim
  3
DesignerServices
 90
     1024
 91
        3
280
     0
281
     0
  0
CLASS
  1
DEPEDGEFEATUREORDERING
  2
AcAdDepEdgeFeatureOrdering
  3
DesignerServices
 90
     1024
 91
        3
280
     0
281
     0
  0
CLASS
  1
ADWORKPOINTDISPLAY
  2
AcAdWorkPointDisplay
  3
DesignerServices
 90
     1024
 91
        1
280
     0
281
     1
  0
CLASS
  1
ADVIRTUALPOINTWORKPOINTFREE
  2
AcAdVirtualPointWorkPointFree
  3
DesignerServices
 90
     1024
 91
        1
280
     0
281
     0
  0
CLASS
  1
ADWORKPOINTSKETCH
  2
AcAdWorkPointSketch
  3
DesignerServices
 90
     1024
 91
        1
280
     0
281
     0
  0
CLASS
  1
ACADPARTDATUMPOINTRES
  2
AcAdPartDatumPointRes
  3
AdGrefServices
 90
     1024
 91
        0
280
     0
281
     0
  0
CLASS
  1
ACRFINSADJ
  2
AcRfInsAdjuster
  3
AcMeServices
 90
     1024
 91
        0
280
     0
281
     0
  0
CLASS
  1
DATUMPLANEDISPLAY
  2
AcAdDatumPlaneDisplay
  3
DesignerServices
 90
     1024
 91
        5
280
     0
281
     1
  0
CLASS
  1
ACADPARTDATUMPLANERES
  2
AcAdPartDatumPlaneRes
  3
AdGrefServices
 90
     1024
 91
        0
280
     0
281
     0
  0
CLASS
  1
ACMEPLINE
  2
AcImPlineDisplay
  3
AcMeServices
 90
     1024
 91
        0
280
     0
281
     1
  0
CLASS
  1
ACAD_CIRCLE
  2
AcAdCircle
  3
DesignerServices
 90
     1024
 91
        0
280
     0
281
     1
  0
CLASS
  1
ACADCIRCLEACAD
  2
AcAdVirtualCircleAcad
  3
DesignerServices
 90
     1024
 91
        1
280
     0
281
     0
  0
CLASS
  1
ACADCONSCIRCLE
  2
AcAdConstrainedCircle
  3
DesignerServices
 90
     1024
 91
        1
280
     0
281
     0
  0
CLASS
  1
ADCTRPTCNS
  2
AcAdCenterPointConstr
  3
DesignerServices
 90
     1024
 91
        1
280
     0
281
     0
  0
CLASS
  1
ACDBCIRCARCRES
  2
AcDbCircArcRes
  3
AcGrefServices
 90
     1024
 91
        0
280
     0
281
     0
  0
CLASS
  1
ACADSKETCHCIRCARCRES
  2
AcAdSketchCircArcRes
  3
DesignerServices
 90
     1024
 91
        1
280
     0
281
     0
  0
CLASS
  1
ADVIRTUALPOINTWORKPOINTFIXED
  2
AcAdVirtualPointWorkPointFixed
  3
DesignerServices
 90
     1024
 91
        6
280
     0
281
     0
  0
CLASS
  1
ADHDISTCNS
  2
AcAdHorizontalDistanceConstr
  3
DesignerServices
 90
     1024
 91
        5
280
     0
281
     0
  0
CLASS
  1
ACADSKETCHPOINTRES
  2
AcAdSketchPointRes
  3
DesignerServices
 90
     1024
 91
       20
280
     0
281
     0
  0
CLASS
  1
ADVDISTCNS
  2
AcAdVerticalDistanceConstr
  3
DesignerServices
 90
     1024
 91
        7
280
     0
281
     0
  0
CLASS
  1
ADACADDIACNS
  2
AcAdAcadDiameterConstr
  3
DesignerServices
 90
     1024
 91
        1
280
     0
281
     0
  0
CLASS
  1
AMIINSTATTCLASSRECORD
  2
AmiInstAttClassRecord
  3
AcAttribServices
 90
     1024
 91
        1
280
     0
281
     0
  0
CLASS
  1
AMIINSTATTIMP
  2
AmiInstAttImp
  3
AcAttribServices
 90
     1025
 91
        2
280
     0
281
     0
  0
CLASS
  1
ACRFOBJATTMGR
  2
AcRfObjAttGroupMgr
  3
AcAttribServices
 90
     1024
 91
        2
280
     0
281
     0
  0
CLASS
  1
ACRFMCADAPIATTHOLDER
  2
AcRfMCADAPIAttHolder
  3
AcAttribServices
 90
     1024
 91
        1
280
     0
281
     0
  0
CLASS
  1
FACEID
  2
AcAdFaceId
  3
DesignerServices
 90
     1024
 91
        0
280
     0
281
     0
  0
CLASS
  1
ACADPARTCYLINDERFACERES
  2
AcAdPartCylinderFaceRes
  3
AdGrefServices
 90
     1024
 91
        0
280
     0
281
     0
  0
CLASS
  1
ACADPARTPLANARFACERES
  2
AcAdPartPlanarFaceRes
  3
AdGrefServices
 90
     1024
 91
        0
280
     0
281
     0
  0
CLASS
  1
ADPLANEID
  2
AcAdPlaneId
  3
DesignerServices
 90
     1024
 91
        2
280
     0
281
     0
  0
CLASS
  1
ADDATUMPLANEFACE
  2
AcAdDatumPlaneFace
  3
DesignerServices
 90
     1024
 91
        2
280
     0
281
     0
  0
CLASS
  1
ADDATUMPLANEOFFSET
  2
AcAdDatumPlaneOffset
  3
DesignerServices
 90
     1024
 91
        3
280
     0
281
     0
  0
CLASS
  1
DATUMAXISDISPLAY
  2
AcAdDatumAxisDisplay
  3
DesignerServices
 90
     1024
 91
        1
280
     0
281
     1
  0
CLASS
  1
ADSURFGEOMID
  2
AcAdSurfGeomId
  3
DesignerServices
 90
     1024
 91
        1
280
     0
281
     0
  0
CLASS
  1
ADDATUMAXISCENTER
  2
AcAdDatumAxisCenter
  3
DesignerServices
 90
     1024
 91
        1
280
     0
281
     0
  0
CLASS
  1
ACADPARTAXISRES
  2
AcAdPartAxisRes
  3
AdGrefServices
 90
     1024
 91
        0
280
     0
281
     0
  0
CLASS
  1
ACDBLINERES
  2
AcDbLineRes
  3
AcGrefServices
 90
     1024
 91
        0
280
     0
281
     0
  0
CLASS
  1
ACADSKETCHLINERES
  2
AcAdSketchLineRes
  3
DesignerServices
 90
     1024
 91
        4
280
     0
281
     0
  0
CLASS
  1
ADCONSTDSP
  2
AcAdConstraintDisplayTag
  3
DesignerServices
 90
     1024
 91
        0
280
     0
281
     1
  0
CLASS
  1
ADCONSDISP
  2
AcAdConstraintDisplay
  3
DesignerServices
 90
     1024
 91
        0
280
     0
281
     1
  0
CLASS
  1
ADACADANGCNS
  2
AcAdAcadAngleConstr
  3
DesignerServices
 90
     1024
 91
        2
280
     0
281
     0
  0
CLASS
  1
ADPROJCNS
  2
AcAdProjectionConstr
  3
DesignerServices
 90
     1024
 91
        1
280
     0
281
     0
  0
CLASS
  1
ADCOLNCNS
  2
AcAdColinearConstr
  3
DesignerServices
 90
     1024
 91
        1
280
     0
281
     0
  0
CLASS
  1
ACADBOUNDEDLINEDATUMID
  2
AcAdVirtualBoundedLineDatumId
  3
DesignerServices
 90
     1024
 91
        1
280
     0
281
     0
  0
CLASS
  1
ACADPARTCONICALFACERES
  2
AcAdPartConicalFaceRes
  3
AdGrefServices
 90
     1024
 91
        0
280
     0
281
     0
  0
CLASS
  1
DEPEDGESECONDARYDEPID
  2
AcAdDepEdgeSecondaryDepId
  3
DesignerServices
 90
     1024
 91
        0
280
     0
281
     0
  0
CLASS
  1
AMACTIVEPARTSELECTFILTER
  2
AcDmActivePartViewEntFilter
  3
DesignerServices
 90
     1024
 91
        0
280
     0
281
     0
  0
CLASS
  1
AM_ABS_PLANE
  2
AcDmAbsPlnDef
  3
AcMechDwgViewMgmt
 90
     1024
 91
        0
280
     0
281
     0
  0
CLASS
  1
AM_ABS_AXIS
  2
AcDmAbsAxisDef
  3
AcMechDwgViewMgmt
 90
     1024
 91
        0
280
     0
281
     0
  0
CLASS
  1
AM_BASE_VIEW_ORIENT
  2
AcDmBaseViewOr
  3
AcMechDwgViewMgmt
 90
     1024
 91
        0
280
     0
281
     0
  0
CLASS
  1
AM_DWG_VIEWPORT
  2
AcDmViewport
  3
AcMechDwgViewMgmt
 90
     1024
 91
        0
280
     0
281
     0
  0
CLASS
  1
AM_VIEW_DISPLAY
  2
AcDmDwgViewDisplay
  3
AcMechDwgViewMgmt
 90
     1024
 91
        0
280
     0
281
     0
  0
CLASS
  1
AM_CLDFLTS
  2
AcDmClDflts
  3
AcMechDwgViewMgmt
 90
     1024
 91
        9
280
     0
281
     0
  0
CLASS
  1
AM_BASE_VIEW
  2
AcDmBaseView
  3
AcMechDwgViewMgmt
 90
     1024
 91
        0
280
     0
281
     0
  0
CLASS
  1
AM_ORTHO_VIEW_ORIENT
  2
AcDmOrthoViewOr
  3
AcMechDwgViewMgmt
 90
     1024
 91
        0
280
     0
281
     0
  0
CLASS
  1
AM_ORTHO_VIEW
  2
AcDmOrthoView
  3
AcMechDwgViewMgmt
 90
     1024
 91
        0
280
     0
281
     0
  0
CLASS
  1
AM_ISO_VIEW_ORIENT
  2
AcDmIsoViewOr
  3
AcMechDwgViewMgmt
 90
     1024
 91
        0
280
     0
281
     0
  0
CLASS
  1
AM_ISO_VIEW
  2
AcDmIsoView
  3
AcMechDwgViewMgmt
 90
     1024
 91
        0
280
     0
281
     0
  0
CLASS
  1
ACDMVWEDARC
  2
AcDmViewEdgeArc
  3
AcMechDwgViewMgmt
 90
     1024
 91
        0
280
     0
281
     1
  0
CLASS
  1
ACDMVWEDCIRC
  2
AcDmViewEdgeCircle
  3
AcMechDwgViewMgmt
 90
     1024
 91
        0
280
     0
281
     1
  0
CLASS
  1
ACDMVWEDLINE
  2
AcDmViewEdgeLine
  3
AcMechDwgViewMgmt
 90
     1024
 91
        0
280
     0
281
     1
  0
CLASS
  1
CNRREFID
  2
AcAdCornerId
  3
DesignerServices
 90
     1024
 91
        0
280
     0
281
     0
  0
CLASS
  1
ACADPARTPOINTRES
  2
AcAdPartPointRes
  3
AdGrefServices
 90
     1024
 91
        0
280
     0
281
     0
  0
CLASS
  1
ACADPARTSKETCHPLANEAXISRES
  2
AcAdPartSketchPlaneAxisRes
  3
DesignerServices
 90
     1024
 91
        0
280
     0
281
     0
  0
CLASS
  1
AM_VIEWDIMPARALLEL
  2
AcDmViewDimParallel
  3
AcMechDwgViewMgmt
 90
     1024
 91
        0
280
     0
281
     0
  0
CLASS
  1
AMDTDMPARMAPDATA
  2
AmdtDmDimParMapData
  3
AcMechDwgViewMgmt
 90
     1024
 91
        0
280
     0
281
     0
  0
CLASS
  1
AM_VIEWDIMLINEAR
  2
AcDmViewDimLinear
  3
AcMechDwgViewMgmt
 90
     1024
 91
        0
280
     0
281
     0
  0
CLASS
  1
AM_VIEWDIMANGULAR
  2
AcDmViewDimAngular
  3
AcMechDwgViewMgmt
 90
     1024
 91
        0
280
     0
281
     0
  0
CLASS
  1
AM_ADLINCTRLINE
  2
AcAdLineCl
  3
DesignerServices
 90
     1024
 91
        0
280
     0
281
     0
  0
CLASS
  1
AM_VIEWDIMDIAMETER
  2
AcDmViewDimDiameter
  3
AcMechDwgViewMgmt
 90
     1024
 91
        0
280
     0
281
     0
  0
CLASS
  1
AM_ADCIRCTRLINE
  2
AcAdBullsEyeCl
  3
DesignerServices
 90
     1024
 91
        0
280
     0
281
     0
  0
CLASS
  1
AMDTMAPISURFMOUDULE
  2
AmdtMApiSurfModule
  3
MApiSurfServices
 90
     1024
 91
        1
280
     0
281
     0
  0
CLASS
  1
ACAMGTITLESTD
  2
AcAmgTitleStd
  3
"AmgTitle|Product Description: AutoCAD Mechanical|Company: Autodesk, Inc."
 90
     4095
 91
        5
280
     0
281
     0
  0
CLASS
  1
ACMDETAILSTANDARDJIS
  2
AmdtDetailSymStdJIS
  3
"Amdt_StdImp|Product Description: AutoCAD Mechanical|Company: Autodesk, Inc."
 90
     1024
 91
        1
280
     0
281
     0
  0
CLASS
  1
ACMSECTIONSTANDARDJIS
  2
AmdtSectionSymStdJIS
  3
"Amdt_StdImp|Product Description: AutoCAD Mechanical|Company: Autodesk, Inc."
 90
     1024
 91
        1
280
     0
281
     0
  0
CLASS
  1
ACMCENTERLINESTANDARDJIS
  2
AmdtCenterLineStdJIS
  3
"Amdt_StdImp|Product Description: AutoCAD Mechanical|Company: Autodesk, Inc."
 90
     1024
 91
        1
280
     0
281
     0
  0
CLASS
  1
ACMTHREADLINESTANDARDCSN
  2
AmdtThreadLineStdCSN
  3
"Amdt_StdImp|Product Description: AutoCAD Mechanical|Company: Autodesk, Inc."
 90
     1024
 91
        5
280
     0
281
     0
  0
CLASS
  1
ACMDETAILSTANDARDANSI
  2
AmdtDetailSymStdANSI
  3
"Amdt_StdImp|Product Description: AutoCAD Mechanical|Company: Autodesk, Inc."
 90
     1024
 91
        1
280
     0
281
     0
  0
CLASS
  1
ACMSECTIONSTANDARDANSI
  2
AmdtSectionSymStdANSI
  3
"Amdt_StdImp|Product Description: AutoCAD Mechanical|Company: Autodesk, Inc."
 90
     1024
 91
        1
280
     0
281
     0
  0
CLASS
  1
ACMCENTERLINESTANDARDANSI
  2
AmdtCenterLineStdANSI
  3
"Amdt_StdImp|Product Description: AutoCAD Mechanical|Company: Autodesk, Inc."
 90
     1024
 91
        1
280
     0
281
     0
  0
CLASS
  1
ACMDETAILSTANDARDBSI
  2
AmdtDetailSymStdBSI
  3
"Amdt_StdImp|Product Description: AutoCAD Mechanical|Company: Autodesk, Inc."
 90
     1024
 91
        1
280
     0
281
     0
  0
CLASS
  1
ACMSECTIONSTANDARDBSI
  2
AmdtSectionSymStdBSI
  3
"Amdt_StdImp|Product Description: AutoCAD Mechanical|Company: Autodesk, Inc."
 90
     1024
 91
        1
280
     0
281
     0
  0
CLASS
  1
ACMCENTERLINESTANDARDBSI
  2
AmdtCenterLineStdBSI
  3
"Amdt_StdImp|Product Description: AutoCAD Mechanical|Company: Autodesk, Inc."
 90
     1024
 91
        1
280
     0
281
     0
  0
CLASS
  1
ACMDETAILSTANDARDDIN
  2
AmdtDetailSymStdDIN
  3
"Amdt_StdImp|Product Description: AutoCAD Mechanical|Company: Autodesk, Inc."
 90
     1024
 91
        1
280
     0
281
     0
  0
CLASS
  1
ACMSECTIONSTANDARDDIN
  2
AmdtSectionSymStdDIN
  3
"Amdt_StdImp|Product Description: AutoCAD Mechanical|Company: Autodesk, Inc."
 90
     1024
 91
        1
280
     0
281
     0
  0
CLASS
  1
ACMCENTERLINESTANDARDDIN
  2
AmdtCenterLineStdDIN
  3
"Amdt_StdImp|Product Description: AutoCAD Mechanical|Company: Autodesk, Inc."
 90
     1024
 91
        1
280
     0
281
     0
  0
CLASS
  1
AMDTEDGESTANDARDISO
  2
AmdtEdgeStdISO
  3
"Amdt_StdImp|Product Description: AutoCAD Mechanical|Company: Autodesk, Inc."
 90
     1024
 91
        1
280
     0
281
     0
  0
CLASS
  1
ACMDETAILSTANDARDISO
  2
AmdtDetailSymStdISO
  3
"Amdt_StdImp|Product Description: AutoCAD Mechanical|Company: Autodesk, Inc."
 90
     1024
 91
        1
280
     0
281
     0
  0
CLASS
  1
ACMSECTIONSTANDARDISO
  2
AmdtSectionSymStdISO
  3
"Amdt_StdImp|Product Description: AutoCAD Mechanical|Company: Autodesk, Inc."
 90
     1024
 91
        1
280
     0
281
     0
  0
CLASS
  1
ACMCENTERLINESTANDARDISO
  2
AmdtCenterLineStdISO
  3
"Amdt_StdImp|Product Description: AutoCAD Mechanical|Company: Autodesk, Inc."
 90
     1024
 91
        1
280
     0
281
     0
  0
CLASS
  1
ACAMGLAYSTD
  2
AcAmgLayStd
  3
"AmgLay|Product Description: AutoCAD Mechanical|Company: Autodesk, Inc."
 90
     1024
 91
        5
280
     0
281
     0
  0
CLASS
  1
ACAMGDIMSTD
  2
AcAmgDimStd
  3
"AmgDim|Product Description: AutoCAD Mechanical|Company: Autodesk, Inc."
 90
     1024
 91
        5
280
     0
281
     0
  0
CLASS
  1
ACDMPARTVIEWDATA
  2
AcDmPartViewData
  3
AcMechDwgViewMgmt
 90
     1024
 91
        0
280
     0
281
     0
  0
CLASS
  1
ACDMDISPLAYATTRIBS
  2
AcDmDisplayAttribs
  3
AcMechDwgViewMgmt
 90
     1024
 91
        0
280
     0
281
     0
  0
CLASS
  1
ACDMBODYINSTANCEDATA
  2
AcDmBodyInstanceData
  3
AcMechDwgViewMgmt
 90
     1024
 91
        0
280
     0
281
     0
  0
CLASS
  1
AMDTFORMULAUPDATEDISPATCHER
  2
AmdtFormulaUpdateDispatcher
  3
AcMeServices
 90
     1024
 91
        1
280
     0
281
     0
  0
CLASS
  1
ACAMCONTEXTPARTMODELER
  2
AcAmContextPartModeler
  3
DesignerAssemblies
 90
     1024
 91
        1
280
     0
281
     0
  0
CLASS
  1
ACMNOTESTANDARDJIS
  2
AmdtNoteStdJIS
  3
"Amdt_StdImp|Product Description: AutoCAD Mechanical|Company: Autodesk, Inc."
 90
     1024
 91
        1
280
     0
281
     0
  0
CLASS
  1
AMDTNOTETEMPLATEDB
  2
AmdtNoteTemplateDB
  3
AcmSymBB|Product Description: AutoCAD Mechanical|Company: Autodesk, Inc.
 90
     1024
 91
       20
280
     0
281
     0
  0
CLASS
  1
ACMNOTESTANDARDANSI
  2
AmdtNoteStdANSI
  3
"Amdt_StdImp|Product Description: AutoCAD Mechanical|Company: Autodesk, Inc."
 90
     1024
 91
        1
280
     0
281
     0
  0
CLASS
  1
ACMNOTESTANDARDBSI
  2
AmdtNoteStdBSI
  3
"Amdt_StdImp|Product Description: AutoCAD Mechanical|Company: Autodesk, Inc."
 90
     1024
 91
        1
280
     0
281
     0
  0
CLASS
  1
ACMNOTESTANDARDDIN
  2
AmdtNoteStdDIN
  3
"Amdt_StdImp|Product Description: AutoCAD Mechanical|Company: Autodesk, Inc."
 90
     1024
 91
        1
280
     0
281
     0
  0
CLASS
  1
ACMNOTESTANDARDISO
  2
AmdtNoteStdISO
  3
"Amdt_StdImp|Product Description: AutoCAD Mechanical|Company: Autodesk, Inc."
 90
     1024
 91
        1
280
     0
281
     0
  0
CLASS
  1
MATERIAL
  2
AcDbMaterial
  3
ObjectDBX Classes
 90
     1153
 91
        3
280
     0
281
     0
  0
CLASS
  1
VISUALSTYLE
  2
AcDbVisualStyle
  3
ObjectDBX Classes
 90
     4095
 91
       16
280
     0
281
     0
  0
CLASS
  1
TABLESTYLE
  2
AcDbTableStyle
  3
ObjectDBX Classes
 90
     4095
 91
        1
280
     0
281
     0
  0
CLASS
  1
SCALE
  2
AcDbScale
  3
ObjectDBX Classes
 90
     1153
 91
       17
280
     0
281
     0
  0
CLASS
  1
MLEADERSTYLE
  2
AcDbMLeaderStyle
  3
ACDB_MLEADERSTYLE_CLASS
 90
     4095
 91
        1
280
     0
281
     0
  0
CLASS
  1
ACMTAPERSTANDARDJIS
  2
AcmTaperStdJIS
  3
"Amdt_StdImp|Product Description: AutoCAD Mechanical|Company: Autodesk, Inc."
 90
     1024
 91
        1
280
     0
281
     0
  0
CLASS
  1
ACMANOOTATIONVIEWSTANDARDJIS
  2
AmdtAnViewStdJIS
  3
"Amdt_StdImp|Product Description: AutoCAD Mechanical|Company: Autodesk, Inc."
 90
     1024
 91
        1
280
     0
281
     0
  0
CLASS
  1
AMDTEDGESTANDARDJIS
  2
AmdtEdgeStdJIS
  3
"Amdt_StdImp|Product Description: AutoCAD Mechanical|Company: Autodesk, Inc."
 90
     1024
 91
        1
280
     0
281
     0
  0
CLASS
  1
ACMTAPERSTANDARDANSI
  2
AcmTaperStdANSI
  3
"Amdt_StdImp|Product Description: AutoCAD Mechanical|Company: Autodesk, Inc."
 90
     1024
 91
        1
280
     0
281
     0
  0
CLASS
  1
ACMANOOTATIONVIEWSTANDARDANSI
  2
AmdtAnViewStdANSI
  3
"Amdt_StdImp|Product Description: AutoCAD Mechanical|Company: Autodesk, Inc."
 90
     1024
 91
        1
280
     0
281
     0
  0
CLASS
  1
ACMTAPERSTANDARDBSI
  2
AcmTaperStdBSI
  3
"Amdt_StdImp|Product Description: AutoCAD Mechanical|Company: Autodesk, Inc."
 90
     1024
 91
        1
280
     0
281
     0
  0
CLASS
  1
ACMANOOTATIONVIEWSTANDARDBSI
  2
AmdtAnViewStdBSI
  3
"Amdt_StdImp|Product Description: AutoCAD Mechanical|Company: Autodesk, Inc."
 90
     1024
 91
        1
280
     0
281
     0
  0
CLASS
  1
ACMTAPERSTANDARDDIN
  2
AcmTaperStdDIN
  3
"Amdt_StdImp|Product Description: AutoCAD Mechanical|Company: Autodesk, Inc."
 90
     1024
 91
        1
280
     0
281
     0
  0
CLASS
  1
ACMANOOTATIONVIEWSTANDARDDIN
  2
AmdtAnViewStdDIN
  3
"Amdt_StdImp|Product Description: AutoCAD Mechanical|Company: Autodesk, Inc."
 90
     1024
 91
        1
280
     0
281
     0
  0
CLASS
  1
ACMTAPERSTANDARDISO
  2
AcmTaperStdISO
  3
"Amdt_StdImp|Product Description: AutoCAD Mechanical|Company: Autodesk, Inc."
 90
     1024
 91
        1
280
     0
281
     0
  0
CLASS
  1
ACMANOOTATIONVIEWSTANDARDISO
  2
AmdtAnViewStdISO
  3
"Amdt_StdImp|Product Description: AutoCAD Mechanical|Company: Autodesk, Inc."
 90
     1024
 91
        1
280
     0
281
     0
  0
CLASS
  1
CELLSTYLEMAP
  2
AcDbCellStyleMap
  3
ObjectDBX Classes
 90
     1152
 91
        3
280
     0
281
     0
  0
ENDSEC
  0
SECTION
  2
TABLES
  0
TABLE
  2
VPORT
  5
8
330
0
100
AcDbSymbolTable
 70
     3
  0
VPORT
  5
79C
330
8
100
AcDbSymbolTableRecord
100
AcDbViewportTableRecord
  2
asurf_wcs_vp_2
 70
     0
 10
0.0
 20
0.0
 11
0.5
 21
1.0
 12
0.0
 22
0.0
 13
0.0
 23
0.0
 14
10.0
 24
10.0
 15
10.0
 25
10.0
 16
0.0
 26
0.0
 36
1.0
 17
210.0
 27
148.5
 37
0.0
 40
664.2413317557894
 41
0.6397245798091085
 42
50.0
 43
0.0
 44
0.0
 50
0.0
 51
0.0
 71
     0
 72
  1000
 73
     1
 74
     0
 75
     0
 76
     0
 77
     0
 78
     0
281
     4
 65
     0
110
0.0
120
0.0
130
0.0
111
1.0
121
0.0
131
0.0
112
0.0
122
1.0
132
0.0
 79
     0
146
0.0
348
3369
 60
     3
 61
     5
292
     1
282
     1
141
0.0
142
0.0
 63
   250
421
  3355443
  0
VPORT
  5
79D
330
8
100
AcDbSymbolTableRecord
100
AcDbViewportTableRecord
  2
asurf_wcs_vp_2
 70
     0
 10
0.5
 20
0.0
 11
1.0
 21
1.0
 12
-166.0188166206583
 22
35.22481755965711
 13
0.0
 23
0.0
 14
10.0
 24
10.0
 15
10.0
 25
10.0
 16
1.0
 26
-1.0
 36
1.0
 17
210.0
 27
148.5
 37
0.0
 40
482.8380307317477
 41
0.6397245798091085
 42
50.0
 43
0.0
 44
0.0
 50
0.0
 51
0.0
 71
     0
 72
  1000
 73
     1
 74
     0
 75
     0
 76
     0
 77
     0
 78
     0
281
     4
 65
     0
110
0.0
120
0.0
130
0.0
111
1.0
121
0.0
131
0.0
112
0.0
122
1.0
132
0.0
 79
     0
146
0.0
348
3369
 60
     3
 61
     5
292
     1
282
     1
141
0.0
142
0.0
 63
   250
421
  3355443
  0
VPORT
  5
334C
330
8
100
AcDbSymbolTableRecord
100
AcDbViewportTableRecord
  2
*Active
 70
     0
 10
0.0
 20
0.0
 11
1.0
 21
1.0
 12
21.93623144822451
 22
34.85632934536744
 13
0.0
 23
0.0
 14
10.0
 24
10.0
 15
10.0
 25
10.0
 16
0.0
 26
0.0
 36
1.0
 17
225.0419189867749
 27
164.8409058003548
 37
0.0
 40
385.0019018626698
 41
1.74520856820744
 42
50.0
 43
0.0
 44
0.0
 50
0.0
 51
0.0
 71
     0
 72
  1000
 73
     1
 74
     1
 75
     0
 76
     0
 77
     0
 78
     0
281
     0
 65
     0
110
0.0
120
0.0
130
0.0
111
1.0
121
0.0
131
0.0
112
0.0
122
1.0
132
0.0
 79
     0
146
0.0
348
336C
 60
     3
 61
     5
292
     1
282
     1
141
0.0
142
0.0
 63
   250
421
  3355443
  0
ENDTAB
  0
TABLE
  2
LTYPE
  5
5
330
0
100
AcDbSymbolTable
 70
    35
  0
LTYPE
  5
14
330
5
100
AcDbSymbolTableRecord
100
AcDbLinetypeTableRecord
  2
BYBLOCK
 70
     0
  3

 72
    65
 73
     0
 40
0.0
  0
LTYPE
  5
15
330
5
100
AcDbSymbolTableRecord
100
AcDbLinetypeTableRecord
  2
BYLAYER
 70
     0
  3

 72
    65
 73
     0
 40
0.0
  0
LTYPE
  5
16
330
5
100
AcDbSymbolTableRecord
100
AcDbLinetypeTableRecord
  2
CONTINUOUS
 70
     0
  3
Solid line
 72
    65
 73
     0
 40
0.0
  0
LTYPE
  5
BD
330
5
100
AcDbSymbolTableRecord
100
AcDbLinetypeTableRecord
  2
HIDDEN
 70
     0
  3
__ __ __ __ __ __ __ __ __ __ __ __ __ __ __ __
 72
    65
 73
     2
 40
0.375
 49
0.25
 74
     0
 49
-0.125
 74
     0
  0
LTYPE
  5
BF
330
5
100
AcDbSymbolTableRecord
100
AcDbLinetypeTableRecord
  2
PHANTOM2
 70
     0
  3
___ _ _ ___ _ _ ___ _ _ ___ _ _ ___ _ _ ___ _ _
 72
    65
 73
     6
 40
1.25
 49
0.625
 74
     0
 49
-0.125
 74
     0
 49
0.125
 74
     0
 49
-0.125
 74
     0
 49
0.125
 74
     0
 49
-0.125
 74
     0
  0
LTYPE
  5
CA
330
5
100
AcDbSymbolTableRecord
100
AcDbLinetypeTableRecord
  2
CENTER
 70
     0
  3
____ _ ____ _ ____ _ ____ _ ____ _ ____ _ ____ 
 72
    65
 73
     4
 40
2.0
 49
1.25
 74
     0
 49
-0.25
 74
     0
 49
0.25
 74
     0
 49
-0.25
 74
     0
  0
LTYPE
  5
120
330
5
100
AcDbSymbolTableRecord
100
AcDbLinetypeTableRecord
  2
ASULTYPE
 70
     0
  3
Solid line
 72
    65
 73
     2
 40
3.0
 49
2.5
 74
     0
 49
0.5
 74
     0
  0
LTYPE
  5
121
330
5
100
AcDbSymbolTableRecord
100
AcDbLinetypeTableRecord
  2
ASVLTYPE
 70
     0
  3
__ __ __ __ __ __ __ __ __ __ __ __ __ __ __ __ __ __ __ __ __
 72
    65
 73
     2
 40
0.75
 49
0.5
 74
     0
 49
-0.25
 74
     0
  0
LTYPE
  5
149
330
5
100
AcDbSymbolTableRecord
100
AcDbLinetypeTableRecord
  2
ACJISTGB
 70
     0
  3
__ . . __ . .
 72
    65
 73
     6
 40
9.0
 49
4.0
 74
     0
 49
-1.0
 74
     0
 49
1.0
 74
     0
 49
-1.0
 74
     0
 49
1.0
 74
     0
 49
-1.0
 74
     0
  0
LTYPE
  5
14A
330
5
100
AcDbSymbolTableRecord
100
AcDbLinetypeTableRecord
  2
ACJISTGL
 70
     0
  3
_ _ _ _ _
 72
    65
 73
     2
 40
3.0
 49
2.0
 74
     0
 49
-1.0
 74
     0
  0
LTYPE
  5
14D
330
5
100
AcDbSymbolTableRecord
100
AcDbLinetypeTableRecord
  2
ACANSTGB
 70
     0
  3
__ . . __ . .
 72
    65
 73
     6
 40
0.35433070866
 49
0.15748031496
 74
     0
 49
-0.03937007874
 74
     0
 49
0.03937007874
 74
     0
 49
-0.03937007874
 74
     0
 49
0.03937007874
 74
     0
 49
-0.03937007874
 74
     0
  0
LTYPE
  5
14E
330
5
100
AcDbSymbolTableRecord
100
AcDbLinetypeTableRecord
  2
ACANSTGL
 70
     0
  3
_ _ _ _ _
 72
    65
 73
     2
 40
0.11811023622
 49
0.07874015748
 74
     0
 49
-0.03937007874
 74
     0
  0
LTYPE
  5
151
330
5
100
AcDbSymbolTableRecord
100
AcDbLinetypeTableRecord
  2
ACBSWELD
 70
     0
  3
_ _ _ _ _
 72
    65
 73
     2
 40
2.0
 49
2.0
 74
     0
 49
-1.0
 74
     0
  0
LTYPE
  5
152
330
5
100
AcDbSymbolTableRecord
100
AcDbLinetypeTableRecord
  2
ACBSITGB
 70
     0
  3
__ . . __ . .
 72
    65
 73
     6
 40
9.0
 49
4.0
 74
     0
 49
-1.0
 74
     0
 49
1.0
 74
     0
 49
-1.0
 74
     0
 49
1.0
 74
     0
 49
-1.0
 74
     0
  0
LTYPE
  5
153
330
5
100
AcDbSymbolTableRecord
100
AcDbLinetypeTableRecord
  2
ACBSITGL
 70
     0
  3
_ _ _ _ _
 72
    65
 73
     2
 40
3.0
 49
2.0
 74
     0
 49
-1.0
 74
     0
  0
LTYPE
  5
156
330
5
100
AcDbSymbolTableRecord
100
AcDbLinetypeTableRecord
  2
ACDINWELD
 70
     0
  3
_ _ _ _ _
 72
    65
 73
     2
 40
2.0
 49
2.0
 74
     0
 49
-1.0
 74
     0
  0
LTYPE
  5
157
330
5
100
AcDbSymbolTableRecord
100
AcDbLinetypeTableRecord
  2
ACDINTGB
 70
     0
  3
__ . . __ . .
 72
    65
 73
     6
 40
9.0
 49
4.0
 74
     0
 49
-1.0
 74
     0
 49
1.0
 74
     0
 49
-1.0
 74
     0
 49
1.0
 74
     0
 49
-1.0
 74
     0
  0
LTYPE
  5
158
330
5
100
AcDbSymbolTableRecord
100
AcDbLinetypeTableRecord
  2
ACDINTGL
 70
     0
  3
_ _ _ _ _
 72
    65
 73
     2
 40
3.0
 49
2.0
 74
     0
 49
-1.0
 74
     0
  0
LTYPE
  5
15B
330
5
100
AcDbSymbolTableRecord
100
AcDbLinetypeTableRecord
  2
ACISOWELD
 70
     0
  3
_ _ _ _ _
 72
    65
 73
     2
 40
2.0
 49
2.0
 74
     0
 49
-1.0
 74
     0
  0
LTYPE
  5
15C
330
5
100
AcDbSymbolTableRecord
100
AcDbLinetypeTableRecord
  2
ACISOTGB
 70
     0
  3
__ . . __ . .
 72
    65
 73
     6
 40
9.0
 49
4.0
 74
     0
 49
-1.0
 74
     0
 49
1.0
 74
     0
 49
-1.0
 74
     0
 49
1.0
 74
     0
 49
-1.0
 74
     0
  0
LTYPE
  5
15D
330
5
100
AcDbSymbolTableRecord
100
AcDbLinetypeTableRecord
  2
ACISOTGL
 70
     0
  3
_ _ _ _ _
 72
    65
 73
     2
 40
3.0
 49
2.0
 74
     0
 49
-1.0
 74
     0
  0
LTYPE
  5
175
330
5
100
AcDbSymbolTableRecord
100
AcDbLinetypeTableRecord
  2
AM_ISO02W050
 70
     0
  3
__ __ __ __ __ __ __ __ __ __ __ __ __ __ __
 72
    65
 73
     2
 40
7.5
 49
6.0
 74
     0
 49
-1.5
 74
     0
  0
LTYPE
  5
176
330
5
100
AcDbSymbolTableRecord
100
AcDbLinetypeTableRecord
  2
AM_ISO08W050
 70
     0
  3
____ . ____ . ____ . ____ . ____ . ____ . ____
 72
    65
 73
     4
 40
18.0
 49
12.0
 74
     0
 49
-1.5
 74
     0
 49
3.0
 74
     0
 49
-1.5
 74
     0
  0
LTYPE
  5
177
330
5
100
AcDbSymbolTableRecord
100
AcDbLinetypeTableRecord
  2
AM_ISO09W050
 70
     0
  3
_____ . . _____ . . _____ . . ____ .. ____
 72
    65
 73
     6
 40
22.5
 49
12.0
 74
     0
 49
-1.5
 74
     0
 49
3.0
 74
     0
 49
-1.5
 74
     0
 49
3.0
 74
     0
 49
-1.5
 74
     0
  0
LTYPE
  5
178
330
5
100
AcDbSymbolTableRecord
100
AcDbLinetypeTableRecord
  2
AM_ISO02W050x2
 70
     0
  3
 _ _ _ _ _ _ _ _ _ _ _ _
 72
    65
 73
     2
 40
3.75
 49
3.0
 74
     0
 49
-0.75
 74
     0
  0
LTYPE
  5
179
330
5
100
AcDbSymbolTableRecord
100
AcDbLinetypeTableRecord
  2
AM_ISO08W050x2
 70
     0
  3
__ . __ . __ . __ . __ . __
 72
    65
 73
     4
 40
9.0
 49
6.0
 74
     0
 49
-0.75
 74
     0
 49
1.5
 74
     0
 49
-0.75
 74
     0
  0
LTYPE
  5
17C
330
5
100
AcDbSymbolTableRecord
100
AcDbLinetypeTableRecord
  2
amzigzag
 70
     0
  3
/\/-/\/-/\/-/\/-/\/-/\/
 72
    65
 73
     2
 40
11.0001
 49
0.0001
 74
     4
 75
   135
340
17B
 46
0.04
 50
0.0
 44
0.0
 45
0.0
 49
-11.0
 74
     0
  0
LTYPE
  5
1814
330
5
100
AcDbSymbolTableRecord
100
AcDbLinetypeTableRecord
  2
ACANSTGBM
 70
     0
  3
__ . . __ . .
 72
    65
 73
     6
 40
9.0
 49
4.0
 74
     0
 49
-1.0
 74
     0
 49
1.0
 74
     0
 49
-1.0
 74
     0
 49
1.0
 74
     0
 49
-1.0
 74
     0
  0
LTYPE
  5
1815
330
5
100
AcDbSymbolTableRecord
100
AcDbLinetypeTableRecord
  2
ACANSTGLM
 70
     0
  3
_ _ _ _ _
 72
    65
 73
     2
 40
3.0
 49
2.0
 74
     0
 49
-1.0
 74
     0
  0
LTYPE
  5
1B87
330
5
100
AcDbSymbolTableRecord
100
AcDbLinetypeTableRecord
  2
GEN7
 70
     0
  3
____ . ____ . ____ . ____ . ___
 72
    65
 73
     4
 40
13.75
 49
9.75
 74
     0
 49
-1.5
 74
     0
 49
1.0
 74
     0
 49
-1.5
 74
     0
  0
LTYPE
  5
1B88
330
5
100
AcDbSymbolTableRecord
100
AcDbLinetypeTableRecord
  2
GEN3
 70
     0
  3
-- -- -- -- -- -- -- -- -- -- -
 72
    65
 73
     2
 40
6.25
 49
4.75
 74
     0
 49
-1.5
 74
     0
  0
LTYPE
  5
1B89
330
5
100
AcDbSymbolTableRecord
100
AcDbLinetypeTableRecord
  2
GEN3A
 70
     0
  3
 - - - - -
 72
    65
 73
     2
 40
3.125
 49
2.25
 74
     0
 49
-0.875
 74
     0
  0
LTYPE
  5
1B8A
330
5
100
AcDbSymbolTableRecord
100
AcDbLinetypeTableRecord
  2
GEN4A
 70
     0
  3
_____ . . _____ . . _____ . . _
 72
    65
 73
     6
 40
16.25
 49
9.75
 74
     0
 49
-1.5
 74
     0
 49
1.0
 74
     0
 49
-1.5
 74
     0
 49
1.0
 74
     0
 49
-1.5
 74
     0
  0
LTYPE
  5
1B8B
330
5
100
AcDbSymbolTableRecord
100
AcDbLinetypeTableRecord
  2
GEN7A
 70
     0
  3
__ . __ . __
 72
    65
 73
     4
 40
6.875
 49
4.75
 74
     0
 49
-0.875
 74
     0
 49
0.375
 74
     0
 49
-0.875
 74
     0
  0
LTYPE
  5
1B8C
330
5
100
AcDbSymbolTableRecord
100
AcDbLinetypeTableRecord
  2
CONTINU
 70
     0
  3

 72
    65
 73
     0
 40
0.0
  0
LTYPE
  5
1B8D
330
5
100
AcDbSymbolTableRecord
100
AcDbLinetypeTableRecord
  2
genzigzag
 70
     0
  3
/\/-/\/-/\/-/\/-/\/-/\/
 72
    65
 73
     2
 40
12.0001
 49
0.0001
 74
     4
 75
   135
340
1B91
 46
2.0
 50
0.0
 44
0.0
 45
0.0
 49
-12.0
 74
     0
  0
ENDTAB
  0
TABLE
  2
LAYER
  5
2
330
0
100
AcDbSymbolTable
 70
    25
  0
LAYER
  5
F
102
{ACAD_XDICTIONARY
360
33DD
102
}
330
2
100
AcDbSymbolTableRecord
100
AcDbLayerTableRecord
  2
0
 70
     0
 62
     7
  6
CONTINUOUS
370
    -3
390
166
347
335E
  0
LAYER
  5
35A
102
{ACAD_XDICTIONARY
360
33DF
102
}
330
2
100
AcDbSymbolTableRecord
100
AcDbLayerTableRecord
  2
AM_0
 70
     0
 62
     7
  6
CONTINUOUS
370
    50
390
166
347
335E
  0
LAYER
  5
35B
102
{ACAD_XDICTIONARY
360
33E1
102
}
330
2
100
AcDbSymbolTableRecord
100
AcDbLayerTableRecord
  2
AM_1
 70
     0
 62
     4
  6
CONTINUOUS
370
    25
390
166
347
335E
  0
LAYER
  5
35C
102
{ACAD_XDICTIONARY
360
33E3
102
}
330
2
100
AcDbSymbolTableRecord
100
AcDbLayerTableRecord
  2
AM_2
 70
     0
 62
     5
  6
CONTINUOUS
370
    50
390
166
347
335E
  0
LAYER
  5
35D
102
{ACAD_XDICTIONARY
360
33E5
102
}
330
2
100
AcDbSymbolTableRecord
100
AcDbLayerTableRecord
  2
AM_3
 70
     0
 62
     6
  6
AM_ISO02W050
370
    25
390
166
347
335E
  0
LAYER
  5
35E
102
{ACAD_XDICTIONARY
360
33E7
102
}
330
2
100
AcDbSymbolTableRecord
100
AcDbLayerTableRecord
  2
AM_4
 70
     0
 62
     3
  6
CONTINUOUS
370
    25
390
166
347
335E
  0
LAYER
  5
35F
102
{ACAD_XDICTIONARY
360
33E9
102
}
330
2
100
AcDbSymbolTableRecord
100
AcDbLayerTableRecord
  2
AM_5
 70
     0
 62
     3
  6
CONTINUOUS
370
    25
390
166
347
335E
  0
LAYER
  5
360
102
{ACAD_XDICTIONARY
360
33EB
102
}
330
2
100
AcDbSymbolTableRecord
100
AcDbLayerTableRecord
  2
AM_6
 70
     0
 62
     2
  6
CONTINUOUS
370
    35
390
166
347
335E
  0
LAYER
  5
361
102
{ACAD_XDICTIONARY
360
33ED
102
}
330
2
100
AcDbSymbolTableRecord
100
AcDbLayerTableRecord
  2
AM_7
 70
     0
 62
     1
  6
AM_ISO08W050
370
    25
390
166
347
335E
  0
LAYER
  5
362
102
{ACAD_XDICTIONARY
360
33EF
102
}
330
2
100
AcDbSymbolTableRecord
100
AcDbLayerTableRecord
  2
AM_8
 70
     0
 62
     1
  6
CONTINUOUS
370
    25
390
166
347
335E
  0
LAYER
  5
38E
102
{ACAD_XDICTIONARY
360
33F1
102
}
330
2
100
AcDbSymbolTableRecord
100
AcDbLayerTableRecord
  2
AM_FR
 70
     5
 62
     7
  6
CONTINUOUS
370
    -3
390
166
347
335E
  0
LAYER
  5
3F7
102
{ACAD_XDICTIONARY
360
33F3
102
}
330
2
100
AcDbSymbolTableRecord
100
AcDbLayerTableRecord
  2
ASHADE
 70
     4
 62
     7
  6
CONTINUOUS
370
    -3
390
166
347
335E
  0
LAYER
  5
5FC
102
{ACAD_XDICTIONARY
360
33F5
102
}
330
2
100
AcDbSymbolTableRecord
100
AcDbLayerTableRecord
  2
AM_WORK
 70
     0
 62
     7
  6
CONTINUOUS
370
    -3
390
166
347
335E
  0
LAYER
  5
614
102
{ACAD_XDICTIONARY
360
33F7
102
}
330
2
100
AcDbSymbolTableRecord
100
AcDbLayerTableRecord
  2
AM_CL
 70
     0
 62
     1
  6
CONTINUOUS
370
    25
390
166
347
335E
  0
LAYER
  5
643
330
2
100
AcDbSymbolTableRecord
100
AcDbLayerTableRecord
  2
Defpoints
 70
     0
 62
     7
  6
CONTINUOUS
290
     0
370
    -3
390
166
347
335E
  0
LAYER
  5
79B
102
{ACAD_XDICTIONARY
360
33F9
102
}
330
2
100
AcDbSymbolTableRecord
100
AcDbLayerTableRecord
  2
ASRF_TMP
 70
     0
 62
     7
  6
CONTINUOUS
370
    -3
390
166
347
335E
  0
LAYER
  5
1054
102
{ACAD_XDICTIONARY
360
33FB
102
}
330
2
100
AcDbSymbolTableRecord
100
AcDbLayerTableRecord
  2
AM_VIEWS
 70
     0
 62
    -1
  6
CONTINUOUS
290
     0
370
    25
390
166
347
335E
  0
LAYER
  5
106E
102
{ACAD_XDICTIONARY
360
33FD
102
}
330
2
100
AcDbSymbolTableRecord
100
AcDbLayerTableRecord
  2
AM_VIS
 70
     2
 62
     7
  6
CONTINUOUS
370
    50
390
166
347
335E
  0
LAYER
  5
106F
102
{ACAD_XDICTIONARY
360
33FF
102
}
330
2
100
AcDbSymbolTableRecord
100
AcDbLayerTableRecord
  2
AM_HID
 70
     2
 62
     6
  6
AM_ISO02W050
370
    25
390
166
347
335E
  0
LAYER
  5
108B
102
{ACAD_XDICTIONARY
360
3401
102
}
330
2
100
AcDbSymbolTableRecord
100
AcDbLayerTableRecord
  2
AM_PARDIM
 70
     0
 62
     3
  6
CONTINUOUS
370
    25
390
166
347
335E
  0
LAYER
  5
1969
102
{ACAD_XDICTIONARY
360
3403
102
}
330
2
100
AcDbSymbolTableRecord
100
AcDbLayerTableRecord
  2
AmdtBRLock
 70
     6
 62
     7
  6
CONTINUOUS
370
    -3
390
166
347
335E
  0
LAYER
  5
1B8E
102
{ACAD_XDICTIONARY
360
3405
102
}
330
2
100
AcDbSymbolTableRecord
100
AcDbLayerTableRecord
  2
5
 70
     0
 62
     3
  6
CONTINUOUS
370
    -3
390
166
347
335E
  0
LAYER
  5
1B8F
102
{ACAD_XDICTIONARY
360
3407
102
}
330
2
100
AcDbSymbolTableRecord
100
AcDbLayerTableRecord
  2
1
 70
     0
 62
     4
  6
CONTINUOUS
370
    -3
390
166
347
335E
  0
LAYER
  5
1B90
102
{ACAD_XDICTIONARY
360
3409
102
}
330
2
100
AcDbSymbolTableRecord
100
AcDbLayerTableRecord
  2
7
 70
     0
 62
     1
  6
GEN7
370
    -3
390
166
347
335E
  0
LAYER
  5
3236
102
{ACAD_XDICTIONARY
360
340B
102
}
330
2
100
AcDbSymbolTableRecord
100
AcDbLayerTableRecord
  2
6
 70
     0
 62
     2
  6
CONTINUOUS
370
    -3
390
166
347
335E
  0
ENDTAB
  0
TABLE
  2
STYLE
  5
3
330
0
100
AcDbSymbolTable
 70
    14
  0
STYLE
  5
10
330
3
100
AcDbSymbolTableRecord
100
AcDbTextStyleTableRecord
  2
STANDARD
 70
     0
 40
0.0
 41
1.0
 50
0.0
 71
     0
 42
3.5
  3
ISOCP
  4

  0
STYLE
  5
147
330
3
100
AcDbSymbolTableRecord
100
AcDbTextStyleTableRecord
  2
ACJISTS
 70
     0
 40
1.0
 41
1.0
 50
0.0
 71
     0
 42
3.5
  3
isocp.shx
  4
bigfont.shx
  0
STYLE
  5
148
330
3
100
AcDbSymbolTableRecord
100
AcDbTextStyleTableRecord
  2
ACJISGDT
 70
     0
 40
0.0
 41
1.0
 50
0.0
 71
     0
 42
3.5
  3
amgdt.shx
  4

  0
STYLE
  5
14B
330
3
100
AcDbSymbolTableRecord
100
AcDbTextStyleTableRecord
  2
ACANSTSI
 70
     0
 40
1.0
 41
1.0
 50
0.0
 71
     0
 42
3.5
  3
romans.shx
  4

  0
STYLE
  5
14C
330
3
100
AcDbSymbolTableRecord
100
AcDbTextStyleTableRecord
  2
ACANSGDT
 70
     0
 40
0.0
 41
1.0
 50
0.0
 71
     0
 42
3.5
  3
amgdt.shx
  4

  0
STYLE
  5
14F
330
3
100
AcDbSymbolTableRecord
100
AcDbTextStyleTableRecord
  2
ACBSITS
 70
     0
 40
1.0
 41
1.0
 50
0.0
 71
     0
 42
3.5
  3
isocp.shx
  4

  0
STYLE
  5
150
330
3
100
AcDbSymbolTableRecord
100
AcDbTextStyleTableRecord
  2
ACBSIGDT
 70
     0
 40
0.0
 41
1.0
 50
0.0
 71
     0
 42
3.5
  3
amgdt.shx
  4

  0
STYLE
  5
154
330
3
100
AcDbSymbolTableRecord
100
AcDbTextStyleTableRecord
  2
ACDINTS
 70
     0
 40
1.0
 41
1.0
 50
0.0
 71
     0
 42
3.5
  3
isocp.shx
  4

  0
STYLE
  5
155
330
3
100
AcDbSymbolTableRecord
100
AcDbTextStyleTableRecord
  2
ACDINGDT
 70
     0
 40
0.0
 41
1.0
 50
0.0
 71
     0
 42
3.5
  3
amgdt.shx
  4

  0
STYLE
  5
159
330
3
100
AcDbSymbolTableRecord
100
AcDbTextStyleTableRecord
  2
ACISOTS
 70
     0
 40
1.0
 41
1.0
 50
0.0
 71
     0
 42
3.5
  3
isocp.shx
  4

  0
STYLE
  5
15A
330
3
100
AcDbSymbolTableRecord
100
AcDbTextStyleTableRecord
  2
ACISOGDT
 70
     0
 40
0.0
 41
1.0
 50
0.0
 71
     0
 42
3.5
  3
amgdt.shx
  4

  0
STYLE
  5
17B
330
3
100
AcDbSymbolTableRecord
100
AcDbTextStyleTableRecord
  2

 70
     1
 40
0.0
 41
1.0
 50
0.0
 71
     0
 42
3.5
  3
ltypeshp.shx
  4

  0
STYLE
  5
3F4
330
3
100
AcDbSymbolTableRecord
100
AcDbTextStyleTableRecord
  2
ASHADE
 70
     0
 40
0.2
 41
1.0
 50
0.0
 71
     0
 42
3.5
  3
simplex.shx
  4

  0
STYLE
  5
1B91
330
3
100
AcDbSymbolTableRecord
100
AcDbTextStyleTableRecord
  2

 70
     1
 40
0.0
 41
1.0
 50
0.0
 71
     0
 42
2.5
  3
genltshp.shx
  4

  0
ENDTAB
  0
TABLE
  2
VIEW
  5
6
330
0
100
AcDbSymbolTable
 70
     3
  0
VIEW
  5
1C8
330
6
100
AcDbSymbolTableRecord
100
AcDbViewTableRecord
  2
AMDTVIEW1
 70
     0
 40
329.0721649484536
 10
210.0
 20
164.5360824742268
 41
420.0
 11
0.0
 21
0.0
 31
1.0
 12
0.0
 22
0.0
 32
0.0
 42
50.0
 43
0.0
 44
0.0
 50
0.0
 71
     0
281
     0
 72
     0
 73
     0
348
336C
  0
VIEW
  5
1C9
330
6
100
AcDbSymbolTableRecord
100
AcDbViewTableRecord
  2
AMDTVIEW2
 70
     0
 40
329.0721649484536
 10
210.0
 20
164.5360824742268
 41
420.0
 11
0.0
 21
0.0
 31
1.0
 12
0.0
 22
0.0
 32
0.0
 42
50.0
 43
0.0
 44
0.0
 50
0.0
 71
     0
281
     0
 72
     0
 73
     0
348
336C
  0
VIEW
  5
1CA
330
6
100
AcDbSymbolTableRecord
100
AcDbViewTableRecord
  2
AMDTVIEW3
 70
     0
 40
329.0721649484536
 10
210.0
 20
164.5360824742268
 41
420.0
 11
0.0
 21
0.0
 31
1.0
 12
0.0
 22
0.0
 32
0.0
 42
50.0
 43
0.0
 44
0.0
 50
0.0
 71
     0
281
     0
 72
     0
 73
     0
348
336C
  0
ENDTAB
  0
TABLE
  2
UCS
  5
7
330
0
100
AcDbSymbolTable
 70
     0
  0
ENDTAB
  0
TABLE
  2
APPID
  5
9
330
0
100
AcDbSymbolTable
 70
    40
  0
APPID
  5
11
330
9
100
AcDbSymbolTableRecord
100
AcDbRegAppTableRecord
  2
ACAD
 70
     0
  0
APPID
  5
CD
330
9
100
AcDbSymbolTableRecord
100
AcDbRegAppTableRecord
  2
AD_DRAW
 70
     0
  0
APPID
  5
E7
330
9
100
AcDbSymbolTableRecord
100
AcDbRegAppTableRecord
  2
DESIGNERASSEMBLIES
 70
     0
  0
APPID
  5
EB
330
9
100
AcDbSymbolTableRecord
100
AcDbRegAppTableRecord
  2
MCAD_NO_VIS
 70
     0
  0
APPID
  5
122
330
9
100
AcDbSymbolTableRecord
100
AcDbRegAppTableRecord
  2
ASURF_PCURVE_APPNAME
 70
     0
  0
APPID
  5
17F
330
9
100
AcDbSymbolTableRecord
100
AcDbRegAppTableRecord
  2
ACAD_TEMP_GRAPHIC
 70
     0
  0
APPID
  5
189
330
9
100
AcDbSymbolTableRecord
100
AcDbRegAppTableRecord
  2
ACATTRIBSERVICES
 70
     0
  0
APPID
  5
1C4
330
9
100
AcDbSymbolTableRecord
100
AcDbRegAppTableRecord
  2
ACADM_DIM_EDIT
 70
     0
  0
APPID
  5
1D5
330
9
100
AcDbSymbolTableRecord
100
AcDbRegAppTableRecord
  2
GENIUS_GENDIM_13
 70
     0
  0
APPID
  5
1D6
330
9
100
AcDbSymbolTableRecord
100
AcDbRegAppTableRecord
  2
GENIUS_GENDTOL_13
 70
     0
  0
APPID
  5
1D7
330
9
100
AcDbSymbolTableRecord
100
AcDbRegAppTableRecord
  2
GENIUS_GE3DTOL_13
 70
     0
  0
APPID
  5
3F5
330
9
100
AcDbSymbolTableRecord
100
AcDbRegAppTableRecord
  2
AVE_RENDER
 70
     0
  0
APPID
  5
3F6
330
9
100
AcDbSymbolTableRecord
100
AcDbRegAppTableRecord
  2
AVE_ENTITY_MATERIAL
 70
     0
  0
APPID
  5
403
330
9
100
AcDbSymbolTableRecord
100
AcDbRegAppTableRecord
  2
AVE_FINISH
 70
     0
  0
APPID
  5
404
330
9
100
AcDbSymbolTableRecord
100
AcDbRegAppTableRecord
  2
AVE_MATERIAL
 70
     0
  0
APPID
  5
405
330
9
100
AcDbSymbolTableRecord
100
AcDbRegAppTableRecord
  2
AVE_GLOBAL
 70
     0
  0
APPID
  5
587
330
9
100
AcDbSymbolTableRecord
100
AcDbRegAppTableRecord
  2
GENIUS_GENREC_14
 70
     0
  0
APPID
  5
588
330
9
100
AcDbSymbolTableRecord
100
AcDbRegAppTableRecord
  2
GENIUS_GENODEF_13
 70
     0
  0
APPID
  5
589
330
9
100
AcDbSymbolTableRecord
100
AcDbRegAppTableRecord
  2
GENIUS_GENOBJ-N-REC_13
 70
     0
  0
APPID
  5
5F8
330
9
100
AcDbSymbolTableRecord
100
AcDbRegAppTableRecord
  2
GENIUS_GENOBJ-3-SH3D_13
 70
     0
  0
APPID
  5
651
330
9
100
AcDbSymbolTableRecord
100
AcDbRegAppTableRecord
  2
AD_SKETCHDIM
 70
     0
  0
APPID
  5
76F
330
9
100
AcDbSymbolTableRecord
100
AcDbRegAppTableRecord
  2
AM_EDITFEAT
 70
     0
  0
APPID
  5
799
330
9
100
AcDbSymbolTableRecord
100
AcDbRegAppTableRecord
  2
GENIUS_GE3SH_14_1
 70
     0
  0
APPID
  5
79A
330
9
100
AcDbSymbolTableRecord
100
AcDbRegAppTableRecord
  2
GENIUS_GE3MANIP_13
 70
     0
  0
APPID
  5
1066
330
9
100
AcDbSymbolTableRecord
100
AcDbRegAppTableRecord
  2
GENIUS_GENSCREG_15
 70
     0
  0
APPID
  5
1068
330
9
100
AcDbSymbolTableRecord
100
AcDbRegAppTableRecord
  2
GENIUS_GENOBJ-N-SDF_13
 70
     0
  0
APPID
  5
1069
330
9
100
AcDbSymbolTableRecord
100
AcDbRegAppTableRecord
  2
GENIUS_GENOENT_13
 70
     0
  0
APPID
  5
106A
330
9
100
AcDbSymbolTableRecord
100
AcDbRegAppTableRecord
  2
GENIUS_GENOREF_13
 70
     0
  0
APPID
  5
106B
330
9
100
AcDbSymbolTableRecord
100
AcDbRegAppTableRecord
  2
GENIUS_GENOLIS_13
 70
     0
  0
APPID
  5
1348
330
9
100
AcDbSymbolTableRecord
100
AcDbRegAppTableRecord
  2
GENIUS_GENDIMSH_14
 70
     0
  0
APPID
  5
17FE
330
9
100
AcDbSymbolTableRecord
100
AcDbRegAppTableRecord
  2
AMG_3D2D_5.0
 70
     0
  0
APPID
  5
1855
330
9
100
AcDbSymbolTableRecord
100
AcDbRegAppTableRecord
  2
AMDT_DM_ADJ
 70
     0
  0
APPID
  5
1B99
330
9
100
AcDbSymbolTableRecord
100
AcDbRegAppTableRecord
  2
GENIUS_GENDREL_13
 70
     0
  0
APPID
  5
2F8A
330
9
100
AcDbSymbolTableRecord
100
AcDbRegAppTableRecord
  2
GENIUS_AMGTXT_16
 70
     0
  0
APPID
  5
30D4
330
9
100
AcDbSymbolTableRecord
100
AcDbRegAppTableRecord
  2
GENIUS_GENOBJ-N-CEN_13
 70
     0
  0
APPID
  5
3274
330
9
100
AcDbSymbolTableRecord
100
AcDbRegAppTableRecord
  2
DCO15
 70
     0
  0
APPID
  5
338D
330
9
100
AcDbSymbolTableRecord
100
AcDbRegAppTableRecord
  2
ACAD_MLEADERVER
 70
     0
  0
APPID
  5
33BD
330
9
100
AcDbSymbolTableRecord
100
AcDbRegAppTableRecord
  2
GENIUS_GENCEN_19
 70
     0
  0
APPID
  5
33D5
330
9
100
AcDbSymbolTableRecord
100
AcDbRegAppTableRecord
  2
ACAD_EXEMPT_FROM_CAD_STANDARDS
 70
     0
  0
APPID
  5
348B
330
9
100
AcDbSymbolTableRecord
100
AcDbRegAppTableRecord
  2
ACAD_DSTYLE_DIMINSPECT
 70
     0
  0
ENDTAB
  0
TABLE
  2
DIMSTYLE
  5
A
330
0
100
AcDbSymbolTable
 70
    46
100
AcDbDimStyleTable
 71
     5
340
395
340
25
340
62
340
2A
340
29
  0
DIMSTYLE
105
1D
330
A
100
AcDbSymbolTableRecord
100
AcDbDimStyleTableRecord
  2
STANDARD
 70
     0
 41
2.5
 42
0.625
 43
3.75
 44
1.25
 73
     0
 74
     0
 77
     1
 78
     8
140
2.5
141
2.5
143
0.0394
147
0.625
171
     4
172
     1
273
     8
274
     4
277
     6
340
10
  0
DIMSTYLE
105
25
330
A
100
AcDbSymbolTableRecord
100
AcDbDimStyleTableRecord
  2
ISO-35
 70
     0
 41
3.5
 42
0.875
 43
5.25
 44
1.75
 73
     0
 74
     0
 77
     1
 78
     8
140
3.5
141
3.5
143
0.0394
147
0.875
171
     4
172
     1
273
     8
274
     4
277
     6
340
10
  0
DIMSTYLE
105
26
330
A
100
AcDbSymbolTableRecord
100
AcDbDimStyleTableRecord
  2
ISO-5
 70
     0
 41
5.0
 42
1.25
 43
7.5
 44
2.5
 73
     0
 74
     0
 77
     1
 78
     8
140
5.0
141
5.0
143
0.0394
147
1.25
171
     4
172
     1
273
     8
274
     4
277
     6
340
10
  0
DIMSTYLE
105
27
330
A
100
AcDbSymbolTableRecord
100
AcDbDimStyleTableRecord
  2
ISO-7
 70
     0
 41
7.0
 42
1.75
 43
10.5
 44
3.5
 73
     0
 74
     0
 77
     1
 78
     8
140
7.0
141
7.0
143
0.0394
147
1.75
171
     4
172
     1
273
     8
274
     4
277
     6
340
10
  0
DIMSTYLE
105
28
330
A
100
AcDbSymbolTableRecord
100
AcDbDimStyleTableRecord
  2
ISO1
 70
     0
 41
10.0
 42
2.5
 43
15.0
 44
5.0
 73
     0
 74
     0
 77
     1
 78
     8
140
10.0
141
10.0
143
0.0394
147
2.5
171
     4
172
     1
273
     8
274
     4
277
     6
340
10
  0
DIMSTYLE
105
29
330
A
100
AcDbSymbolTableRecord
100
AcDbDimStyleTableRecord
  2
ISO1-4
 70
     0
 41
14.0
 42
3.5
 43
21.0
 44
7.0
 74
     0
 77
     1
 78
     8
140
14.0
141
14.0
143
0.0394
145
5.599999999999999
147
3.5
172
     1
273
     8
277
     6
340
10
  0
DIMSTYLE
105
2A
330
A
100
AcDbSymbolTableRecord
100
AcDbDimStyleTableRecord
  2
ISO2
 70
     0
 41
20.0
 42
5.0
 43
30.0
 44
10.0
 73
     0
 74
     0
 77
     1
 78
     8
140
20.0
141
20.0
143
0.0394
147
5.0
171
     4
172
     1
273
     8
274
     4
277
     6
340
10
  0
DIMSTYLE
105
60
330
A
100
AcDbSymbolTableRecord
100
AcDbDimStyleTableRecord
  2
ISO-4
 70
     0
 41
14.0
 42
3.5
 43
21.0
 44
7.0
 73
     0
 74
     0
 77
     1
 78
     8
140
14.0
141
14.0
143
0.0394
147
3.5
171
     4
172
     1
273
     8
274
     4
277
     6
340
10
  0
DIMSTYLE
105
62
330
A
100
AcDbSymbolTableRecord
100
AcDbDimStyleTableRecord
  2
ISO-25
 70
     0
 41
2.5
 42
0.625
 43
3.75
 44
1.25
 73
     0
 74
     0
 77
     1
 78
     8
140
2.5
141
2.5
143
0.0394
147
0.625
171
     4
172
     1
273
     8
274
     4
277
     6
340
10
  0
DIMSTYLE
105
395
102
{ACAD_REACTORS
330
25B3
330
2647
330
2663
330
267F
330
269B
330
26C3
330
2702
330
274B
330
2794
330
2828
330
2850
330
288F
330
2923
330
293F
330
2967
330
2A31
330
2A4D
330
2ABF
330
2B08
330
2B5A
330
2BA3
330
2BEC
330
2C35
330
2C7E
330
2D30
330
2D6C
330
2DB5
330
2DF6
330
2EA0
330
2EE9
330
2F32
330
2FA6
102
}
330
A
100
AcDbSymbolTableRecord
100
AcDbDimStyleTableRecord
  2
AM_ISO
 70
     0
  4
"
 41
3.0
 42
0.0
 43
10.0
 44
1.0
 47
0.1
 48
0.1
 73
     0
 74
     0
 77
     1
 78
     8
 79
     2
140
3.5
141
0.0
143
0.0393701
146
0.71
147
1.5
172
     1
176
   256
177
   256
178
     2
271
     2
272
     2
283
     0
340
10
371
    -1
372
    -1
  0
DIMSTYLE
105
396
330
A
100
AcDbSymbolTableRecord
100
AcDbDimStyleTableRecord
  2
AM_ISO$3
 70
     0
  4
"
 41
2.5
 42
1.0
 43
10.0
 44
1.0
 47
0.1
 48
0.1
 73
     0
 77
     1
 78
     8
 79
     2
140
3.5
141
0.0
143
0.0393701
146
0.71
147
1.5
176
   256
177
   256
178
     2
271
     2
272
     2
283
     0
288
     1
289
     0
340
10
371
    -1
372
    -1
  0
DIMSTYLE
105
397
330
A
100
AcDbSymbolTableRecord
100
AcDbDimStyleTableRecord
  2
AM_ISO$4
 70
     0
  4
"
 41
2.5
 42
1.0
 43
10.0
 44
1.0
 47
0.1
 48
0.1
 73
     0
 77
     1
 78
     8
 79
     2
140
3.5
141
0.0
143
0.0393701
146
0.71
147
1.5
176
   256
177
   256
178
     2
271
     2
272
     2
283
     0
288
     1
289
     0
340
10
371
    -1
372
    -1
  0
DIMSTYLE
105
398
330
A
100
AcDbSymbolTableRecord
100
AcDbDimStyleTableRecord
  2
AM_ISO$6
 70
     0
  4
"
 41
2.5
 42
1.0
 43
10.0
 44
1.0
 47
0.1
 48
0.1
 73
     0
 74
     0
 78
     8
 79
     2
140
3.5
141
0.0
143
0.0393701
146
0.71
147
1.5
172
     1
176
   256
177
   256
178
     2
271
     2
272
     3
274
     4
283
     0
340
10
371
    -1
372
    -1
  0
DIMSTYLE
105
399
330
A
100
AcDbSymbolTableRecord
100
AcDbDimStyleTableRecord
  2
AM_ISO$7
 70
     0
  4
"
 41
2.5
 42
1.0
 43
10.0
 44
1.0
 47
0.1
 48
0.1
 73
     0
 74
     0
 77
     1
 78
     8
 79
     2
140
5.0
141
0.0
143
0.0393701
146
0.71
147
1.5
172
     1
176
   256
177
   256
178
     2
271
     2
272
     3
274
     4
283
     0
340
10
371
    -1
372
    -1
  0
DIMSTYLE
105
39A
330
A
100
AcDbSymbolTableRecord
100
AcDbDimStyleTableRecord
  2
AM_ISO$SF
 70
     0
  4
"
 41
2.5
 42
1.0
 43
10.0
 44
1.0
 47
0.1
 48
0.1
 73
     0
 74
     0
 75
     1
 76
     1
 77
     1
 78
     8
 79
     2
140
3.5
141
0.0
143
0.0393701
146
0.71
147
1.5
172
     1
176
   256
177
   256
178
     2
271
     2
272
     3
274
     4
283
     0
340
10
371
    -1
372
    -1
  0
DIMSTYLE
105
39F
330
A
100
AcDbSymbolTableRecord
100
AcDbDimStyleTableRecord
  2
AM_ISO$SH
 70
     0
  4
"
 41
2.5
 42
1.0
 43
10.0
 44
1.0
 47
0.1
 48
0.1
 73
     0
 74
     0
 75
     1
 76
     1
 77
     1
 78
     8
 79
     2
140
3.5
141
0.0
143
0.0393701
144
2.0
146
0.71
147
1.5
172
     1
173
     1
176
   256
177
   256
178
     2
271
     2
272
     3
274
     4
283
     0
340
10
343
39B
371
    -1
372
    -1
  0
DIMSTYLE
105
1832
330
A
100
AcDbSymbolTableRecord
100
AcDbDimStyleTableRecord
  2
AM_BSI
 70
     0
  4
"
 41
4.0
 42
1.0
 43
10.0
 44
1.0
 47
0.1
 48
0.1
 73
     0
 74
     0
 77
     1
 78
     8
 79
     2
140
3.5
141
0.0
143
0.0393701
146
0.71
147
1.5
172
     1
176
   256
177
   256
178
     2
271
     2
272
     3
274
     4
283
     0
284
     8
340
10
371
    -1
372
    -1
  0
DIMSTYLE
105
1833
330
A
100
AcDbSymbolTableRecord
100
AcDbDimStyleTableRecord
  2
AM_BSI$3
 70
     0
  4
"
 41
4.0
 42
1.0
 43
10.0
 44
1.0
 47
0.1
 48
0.1
 73
     0
 77
     1
 78
     8
 79
     2
140
3.5
141
0.0
143
0.0393701
146
0.71
147
1.5
176
   256
177
   256
178
     2
271
     2
272
     3
274
     4
283
     0
284
     8
288
     1
289
     0
340
10
371
    -1
372
    -1
  0
DIMSTYLE
105
1834
330
A
100
AcDbSymbolTableRecord
100
AcDbDimStyleTableRecord
  2
AM_BSI$4
 70
     0
  4
"
 41
4.0
 42
1.0
 43
10.0
 44
1.0
 47
0.1
 48
0.1
 73
     0
 77
     1
 78
     8
 79
     2
140
3.5
141
0.0
143
0.0393701
146
0.71
147
1.5
176
   256
177
   256
178
     2
271
     2
272
     3
274
     4
283
     0
284
     8
288
     1
289
     0
340
10
371
    -1
372
    -1
  0
DIMSTYLE
105
1835
330
A
100
AcDbSymbolTableRecord
100
AcDbDimStyleTableRecord
  2
AM_BSI$6
 70
     0
  4
"
 41
4.0
 42
1.0
 43
10.0
 44
1.0
 47
0.1
 48
0.1
 73
     0
 74
     0
 78
     8
 79
     2
140
3.5
141
0.0
143
0.0393701
146
0.71
147
1.5
172
     1
176
   256
177
   256
178
     2
271
     2
272
     3
274
     4
283
     0
284
     8
340
10
371
    -1
372
    -1
  0
DIMSTYLE
105
1836
330
A
100
AcDbSymbolTableRecord
100
AcDbDimStyleTableRecord
  2
AM_BSI$7
 70
     0
  4
"
 41
2.5
 42
1.0
 43
10.0
 44
1.0
 47
0.1
 48
0.1
 73
     0
 74
     0
 77
     1
 78
     8
 79
     2
140
5.0
141
0.0
143
0.0393701
146
0.71
147
1.5
172
     1
176
   256
177
   256
178
     2
271
     2
272
     3
274
     4
283
     0
284
     8
340
10
371
    -1
372
    -1
  0
DIMSTYLE
105
1837
330
A
100
AcDbSymbolTableRecord
100
AcDbDimStyleTableRecord
  2
AM_BSI$SF
 70
     0
  4
"
 41
4.0
 42
1.0
 43
10.0
 44
1.0
 47
0.1
 48
0.1
 73
     0
 74
     0
 75
     1
 76
     1
 77
     1
 78
     8
 79
     2
140
3.5
141
0.0
143
0.0393701
146
0.71
147
1.5
172
     1
176
   256
177
   256
178
     2
271
     2
272
     3
274
     4
283
     0
284
     8
340
10
371
    -1
372
    -1
  0
DIMSTYLE
105
1838
330
A
100
AcDbSymbolTableRecord
100
AcDbDimStyleTableRecord
  2
AM_BSI$SH
 70
     0
  4
"
 41
4.0
 42
1.0
 43
10.0
 44
1.0
 47
0.1
 48
0.1
 73
     0
 74
     0
 75
     1
 76
     1
 77
     1
 78
     8
 79
     2
140
3.5
141
0.0
143
0.0393701
144
2.0
146
0.71
147
1.5
172
     1
173
     1
176
   256
177
   256
178
     2
271
     2
272
     3
274
     4
283
     0
284
     8
340
10
343
39B
371
    -1
372
    -1
  0
DIMSTYLE
105
183A
330
A
100
AcDbSymbolTableRecord
100
AcDbDimStyleTableRecord
  2
AM_DIN
 70
     0
  4
"
 41
2.5
 42
1.0
 43
10.0
 44
1.0
 47
0.1
 48
0.1
 73
     0
 74
     0
 77
     1
 78
     8
 79
     2
140
3.5
141
0.0
143
0.0393701
146
0.71
147
1.5
172
     1
176
   256
177
   256
178
     2
271
     2
272
     3
274
     4
283
     0
284
     8
340
10
371
    -1
372
    -1
  0
DIMSTYLE
105
183B
330
A
100
AcDbSymbolTableRecord
100
AcDbDimStyleTableRecord
  2
AM_DIN$3
 70
     0
  4
"
 41
2.5
 42
1.0
 43
10.0
 44
1.0
 47
0.1
 48
0.1
 73
     0
 77
     1
 78
     8
 79
     2
140
3.5
141
0.0
143
0.0393701
146
0.71
147
1.5
176
   256
177
   256
178
     2
271
     2
272
     3
274
     4
283
     0
284
     8
288
     1
289
     0
340
10
371
    -1
372
    -1
  0
DIMSTYLE
105
183C
330
A
100
AcDbSymbolTableRecord
100
AcDbDimStyleTableRecord
  2
AM_DIN$4
 70
     0
  4
"
 41
2.5
 42
1.0
 43
10.0
 44
1.0
 47
0.1
 48
0.1
 73
     0
 77
     1
 78
     8
 79
     2
140
3.5
141
0.0
143
0.0393701
146
0.71
147
1.5
176
   256
177
   256
178
     2
271
     2
272
     3
274
     4
283
     0
284
     8
288
     1
289
     0
340
10
371
    -1
372
    -1
  0
DIMSTYLE
105
183D
330
A
100
AcDbSymbolTableRecord
100
AcDbDimStyleTableRecord
  2
AM_DIN$6
 70
     0
  4
"
 41
2.5
 42
1.0
 43
10.0
 44
1.0
 47
0.1
 48
0.1
 73
     0
 74
     0
 78
     8
 79
     2
140
3.5
141
0.0
143
0.0393701
146
0.71
147
1.5
172
     1
176
   256
177
   256
178
     2
271
     2
272
     3
274
     4
283
     0
284
     8
340
10
371
    -1
372
    -1
  0
DIMSTYLE
105
183E
330
A
100
AcDbSymbolTableRecord
100
AcDbDimStyleTableRecord
  2
AM_DIN$7
 70
     0
  4
"
 41
2.5
 42
1.0
 43
10.0
 44
1.0
 47
0.1
 48
0.1
 73
     0
 74
     0
 77
     1
 78
     8
 79
     2
140
5.0
141
0.0
143
0.0393701
146
0.71
147
1.5
172
     1
176
   256
177
   256
178
     2
271
     2
272
     3
274
     4
283
     0
284
     8
340
10
371
    -1
372
    -1
  0
DIMSTYLE
105
183F
330
A
100
AcDbSymbolTableRecord
100
AcDbDimStyleTableRecord
  2
AM_DIN$SF
 70
     0
  4
"
 41
2.5
 42
1.0
 43
10.0
 44
1.0
 47
0.1
 48
0.1
 73
     0
 74
     0
 75
     1
 76
     1
 77
     1
 78
     8
 79
     2
140
3.5
141
0.0
143
0.0393701
146
0.71
147
1.5
172
     1
176
   256
177
   256
178
     2
271
     2
272
     3
274
     4
283
     0
284
     8
340
10
371
    -1
372
    -1
  0
DIMSTYLE
105
1840
330
A
100
AcDbSymbolTableRecord
100
AcDbDimStyleTableRecord
  2
AM_DIN$SH
 70
     0
  4
"
 41
2.5
 42
1.0
 43
10.0
 44
1.0
 47
0.1
 48
0.1
 73
     0
 74
     0
 75
     1
 76
     1
 77
     1
 78
     8
 79
     2
140
3.5
141
0.0
143
0.0393701
144
2.0
146
0.71
147
1.5
172
     1
173
     1
176
   256
177
   256
178
     2
271
     2
272
     3
274
     4
283
     0
284
     8
340
10
343
39B
371
    -1
372
    -1
  0
DIMSTYLE
105
1843
330
A
100
AcDbSymbolTableRecord
100
AcDbDimStyleTableRecord
  2
AM_JIS
 70
     0
  4
"
 41
2.5
 42
1.0
 43
10.0
 44
1.0
 47
0.1
 48
0.1
 73
     0
 74
     0
 77
     3
 78
     8
 79
     2
140
3.5
141
0.0
143
0.0393701
146
0.71
147
1.5
172
     1
176
   256
177
   256
178
     2
271
     2
272
     3
274
     4
283
     0
284
     8
340
10
341
1844
342
1844
343
1844
344
1844
371
    -1
372
    -1
  0
DIMSTYLE
105
184A
330
A
100
AcDbSymbolTableRecord
100
AcDbDimStyleTableRecord
  2
AM_JIS$3
 70
     0
  4
"
 41
2.5
 42
1.0
 43
10.0
 44
1.0
 47
0.1
 48
0.1
 73
     0
 77
     3
 78
     8
 79
     2
140
3.5
141
0.0
143
0.0393701
146
0.71
147
1.5
176
   256
177
   256
178
     2
271
     2
272
     3
274
     4
283
     0
284
     8
288
     1
289
     0
340
10
341
1844
342
1844
343
1844
344
1844
371
    -1
372
    -1
  0
DIMSTYLE
105
184B
330
A
100
AcDbSymbolTableRecord
100
AcDbDimStyleTableRecord
  2
AM_JIS$4
 70
     0
  4
"
 41
2.5
 42
1.0
 43
10.0
 44
1.0
 47
0.1
 48
0.1
 73
     0
 77
     3
 78
     8
 79
     2
140
3.5
141
0.0
143
0.0393701
146
0.71
147
1.5
176
   256
177
   256
178
     2
271
     2
272
     3
274
     4
283
     0
284
     8
288
     1
289
     0
340
10
341
1844
342
1844
343
1844
344
1844
371
    -1
372
    -1
  0
DIMSTYLE
105
184C
330
A
100
AcDbSymbolTableRecord
100
AcDbDimStyleTableRecord
  2
AM_JIS$6
 70
     0
  4
"
 41
2.5
 42
1.0
 43
10.0
 44
1.0
 47
0.1
 48
0.1
 73
     0
 74
     0
 78
     8
 79
     2
140
3.5
141
0.0
143
0.0393701
146
0.71
147
1.5
172
     1
176
   256
177
   256
178
     2
271
     2
272
     3
274
     4
283
     0
284
     8
340
10
341
1844
342
1844
343
1844
344
1844
371
    -1
372
    -1
  0
DIMSTYLE
105
184D
330
A
100
AcDbSymbolTableRecord
100
AcDbDimStyleTableRecord
  2
AM_JIS$7
 70
     0
  4
"
 41
2.5
 42
1.0
 43
10.0
 44
1.0
 47
0.1
 48
0.1
 73
     0
 74
     0
 77
     3
 78
     8
 79
     2
140
5.0
141
0.0
143
0.0393701
146
0.71
147
1.5
172
     1
176
   256
177
   256
178
     2
271
     2
272
     3
274
     4
283
     0
284
     8
340
10
341
1844
342
1844
343
1844
344
1844
371
    -1
372
    -1
  0
DIMSTYLE
105
184E
330
A
100
AcDbSymbolTableRecord
100
AcDbDimStyleTableRecord
  2
AM_JIS$SF
 70
     0
  4
"
 41
2.5
 42
1.0
 43
10.0
 44
1.0
 47
0.1
 48
0.1
 73
     0
 74
     0
 75
     1
 76
     1
 77
     3
 78
     8
 79
     2
140
3.5
141
0.0
143
0.0393701
146
0.71
147
1.5
172
     1
176
   256
177
   256
178
     2
271
     2
272
     3
274
     4
283
     0
284
     8
340
10
341
1844
342
1844
343
1844
344
1844
371
    -1
372
    -1
  0
DIMSTYLE
105
184F
330
A
100
AcDbSymbolTableRecord
100
AcDbDimStyleTableRecord
  2
AM_JIS$SH
 70
     0
  4
"
 41
2.5
 42
1.0
 43
10.0
 44
1.0
 47
0.1
 48
0.1
 73
     0
 74
     0
 75
     1
 76
     1
 77
     3
 78
     8
 79
     2
140
3.5
141
0.0
143
0.0393701
144
2.0
146
0.71
147
1.5
172
     1
173
     1
176
   256
177
   256
178
     2
271
     2
272
     3
274
     4
283
     0
284
     8
340
10
341
1844
342
1844
343
39B
344
1844
371
    -1
372
    -1
  0
DIMSTYLE
105
1B92
330
A
100
AcDbSymbolTableRecord
100
AcDbDimStyleTableRecord
  2
GEN-ISO$4
 70
     0
  3
<>
  4
"
 41
3.0
 42
0.0
 43
10.0
 44
1.0
 47
0.1
 48
0.1
 73
     0
 77
     1
 78
     8
140
3.5
141
0.0
143
0.0393701
146
0.71
147
1.0
176
   256
177
   256
178
     2
271
     1
272
     3
274
     4
275
     1
283
     0
284
     8
288
     1
289
     0
340
10
  0
DIMSTYLE
105
1B93
330
A
100
AcDbSymbolTableRecord
100
AcDbDimStyleTableRecord
  2
GEN-ISO$3
 70
     0
  3
<>
  4
"
 41
3.0
 42
0.0
 43
10.0
 44
1.0
 47
0.1
 48
0.1
 73
     0
 77
     1
 78
     8
140
3.5
141
0.0
143
0.0393701
146
0.71
147
1.0
176
   256
177
   256
178
     2
271
     1
272
     3
274
     4
275
     1
283
     0
284
     8
288
     1
289
     0
340
10
  0
DIMSTYLE
105
1B94
330
A
100
AcDbSymbolTableRecord
100
AcDbDimStyleTableRecord
  2
GEN-ISO
 70
     0
  3
<>
  4
"
 41
3.0
 42
0.0
 43
10.0
 44
1.0
 47
0.1
 48
0.1
 73
     0
 74
     0
 77
     1
 78
     8
140
3.5
141
0.0
143
0.0393701
146
0.71
147
1.0
172
     1
176
   256
177
   256
178
     2
271
     1
272
     3
274
     4
275
     1
283
     0
284
     8
340
10
  0
DIMSTYLE
105
1B95
330
A
100
AcDbSymbolTableRecord
100
AcDbDimStyleTableRecord
  2
GEN-ISO$6
 70
     0
  3
<>
  4
"
 41
3.0
 42
0.0
 43
10.0
 44
1.0
 47
0.1
 48
0.1
 73
     0
 74
     0
 78
     8
140
3.5
141
0.0
143
0.0393701
146
0.71
147
1.0
176
   256
177
   256
178
     2
271
     1
272
     3
274
     4
275
     1
283
     0
284
     8
340
10
  0
DIMSTYLE
105
1B96
330
A
100
AcDbSymbolTableRecord
100
AcDbDimStyleTableRecord
  2
GEN-ISO-POS
 70
     0
  3
<>
  4
"
 41
2.5
 42
0.0
 43
10.0
 44
1.0
 47
0.1
 48
0.1
 73
     0
 74
     0
 78
     8
140
5.0
141
0.0
143
0.0393701
146
0.71
147
1.5
176
   256
177
   256
178
     2
271
     1
272
     3
274
     4
275
     1
283
     0
284
     8
340
10
  0
DIMSTYLE
105
1B97
330
A
100
AcDbSymbolTableRecord
100
AcDbDimStyleTableRecord
  2
GEN-ISO-AXE-F
 70
     0
  3
<>
  4
"
 41
3.0
 42
0.0
 43
10.0
 44
1.0
 47
0.1
 48
0.1
 73
     0
 74
     0
 75
     1
 76
     1
 77
     1
 78
     8
140
3.5
141
0.0
143
0.0393701
146
0.71
147
1.0
172
     1
176
   256
177
   256
178
     2
271
     1
272
     3
274
     4
275
     1
283
     0
284
     8
340
10
  0
DIMSTYLE
105
1B98
330
A
100
AcDbSymbolTableRecord
100
AcDbDimStyleTableRecord
  2
GEN-ISO-AXE-H
 70
     0
  3
<>
  4
"
 41
3.0
 42
0.0
 43
10.0
 44
1.0
 47
0.1
 48
0.1
 73
     0
 74
     0
 75
     1
 76
     1
 77
     1
 78
     8
140
3.5
141
0.0
143
0.0393701
144
2.0
146
0.71
147
1.0
172
     1
173
     1
176
   256
177
   256
178
     2
271
     1
272
     3
274
     4
275
     1
283
     0
284
     8
340
10
343
39B
  0
DIMSTYLE
105
346F
102
{ACAD_REACTORS
330
25B3
330
2647
330
2663
330
267F
330
269B
330
26C3
330
2702
330
274B
330
2794
330
2828
330
2850
330
288F
330
2923
330
293F
330
2967
330
2A31
330
2A4D
330
2ABF
330
2B08
330
2B5A
330
2BA3
330
2BEC
330
2C35
330
2C7E
330
2D30
330
2D6C
330
2DB5
330
2DF6
330
2EA0
330
2EE9
330
2F32
330
2FA6
330
3471
102
}
330
A
100
AcDbSymbolTableRecord
100
AcDbDimStyleTableRecord
  2
AM_ISO$0
 70
     0
  4
"
 41
3.0
 42
0.0
 43
10.0
 44
1.0
 47
0.1
 48
0.1
 73
     0
 74
     0
 77
     1
 78
     8
 79
     2
140
3.5
141
0.0
143
0.0393701
146
0.71
147
1.5
172
     1
176
   256
177
   256
178
     2
271
     2
272
     2
283
     0
340
10
371
    -1
372
    -1
  0
ENDTAB
  0
TABLE
  2
BLOCK_RECORD
  5
1
330
0
100
AcDbSymbolTable
 70
    49
  0
BLOCK_RECORD
  5
1A
102
{ACAD_XDICTIONARY
360
12A
102
}
330
1
100
AcDbSymbolTableRecord
100
AcDbBlockTableRecord
  2
*MODEL_SPACE
340
169
 70
     0
280
     1
281
     0
  0
BLOCK_RECORD
  5
17
330
1
100
AcDbSymbolTableRecord
100
AcDbBlockTableRecord
  2
*PAPER_SPACE
340
16A
 70
     0
280
     1
281
     0
  0
BLOCK_RECORD
  5
34D
330
1
100
AcDbSymbolTableRecord
100
AcDbBlockTableRecord
  2
*Paper_Space0
340
351
 70
     0
280
     1
281
     0
  0
BLOCK_RECORD
  5
313
330
1
100
AcDbSymbolTableRecord
100
AcDbBlockTableRecord
  2
*Paper_Space1
340
314
 70
     0
280
     1
281
     0
  0
BLOCK_RECORD
  5
2E0
330
1
100
AcDbSymbolTableRecord
100
AcDbBlockTableRecord
  2
*Paper_Space2
340
2E1
 70
     0
280
     1
281
     0
  0
BLOCK_RECORD
  5
345
330
1
100
AcDbSymbolTableRecord
100
AcDbBlockTableRecord
  2
*Paper_Space3
340
349
 70
     0
280
     1
281
     0
  0
BLOCK_RECORD
  5
39B
330
1
100
AcDbSymbolTableRecord
100
AcDbBlockTableRecord
  2
GENAXEH
340
0
 70
     0
280
     1
281
     0
  0
BLOCK_RECORD
  5
3F8
330
1
100
AcDbSymbolTableRecord
100
AcDbBlockTableRecord
  2
AVE_RENDER
340
0
102
{BLKREFS
331
3FB
331
3FC
331
3FD
331
3FE
331
3FF
331
400
331
401
331
402
102
}
 70
     0
280
     1
281
     0
  0
BLOCK_RECORD
  5
406
330
1
100
AcDbSymbolTableRecord
100
AcDbBlockTableRecord
  2
AVE_GLOBAL
340
0
102
{BLKREFS
331
409
102
}
 70
     0
280
     1
281
     0
  0
BLOCK_RECORD
  5
594
330
1
100
AcDbSymbolTableRecord
100
AcDbBlockTableRecord
  2
*U7
340
0
 70
     0
280
     1
281
     0
  0
BLOCK_RECORD
  5
5E5
330
1
100
AcDbSymbolTableRecord
100
AcDbBlockTableRecord
  2
*U8
340
0
 70
     0
280
     1
281
     0
  0
BLOCK_RECORD
  5
1366
330
1
100
AcDbSymbolTableRecord
100
AcDbBlockTableRecord
  2
GENDOT
340
0
 70
     0
280
     1
281
     0
  0
BLOCK_RECORD
  5
1844
330
1
100
AcDbSymbolTableRecord
100
AcDbBlockTableRecord
  2
_Open30
340
0
 70
     0
280
     1
281
     0
  0
BLOCK_RECORD
  5
19BF
330
1
100
AcDbSymbolTableRecord
100
AcDbBlockTableRecord
  2
BLK31
340
0
 70
     0
280
     1
281
     0
  0
BLOCK_RECORD
  5
19CA
330
1
100
AcDbSymbolTableRecord
100
AcDbBlockTableRecord
  2
BLK32
340
0
 70
     0
280
     1
281
     0
  0
BLOCK_RECORD
  5
19D5
330
1
100
AcDbSymbolTableRecord
100
AcDbBlockTableRecord
  2
BLK33
340
0
 70
     0
280
     1
281
     0
  0
BLOCK_RECORD
  5
19E0
330
1
100
AcDbSymbolTableRecord
100
AcDbBlockTableRecord
  2
BLK34
340
0
 70
     0
280
     1
281
     0
  0
BLOCK_RECORD
  5
25B4
330
1
100
AcDbSymbolTableRecord
100
AcDbBlockTableRecord
  2
*D15
340
0
 70
     0
280
     1
281
     0
  0
BLOCK_RECORD
  5
2648
330
1
100
AcDbSymbolTableRecord
100
AcDbBlockTableRecord
  2
*D16
340
0
 70
     0
280
     1
281
     0
  0
BLOCK_RECORD
  5
2664
330
1
100
AcDbSymbolTableRecord
100
AcDbBlockTableRecord
  2
*D17
340
0
 70
     0
280
     1
281
     0
  0
BLOCK_RECORD
  5
2680
330
1
100
AcDbSymbolTableRecord
100
AcDbBlockTableRecord
  2
*D18
340
0
 70
     0
280
     1
281
     0
  0
BLOCK_RECORD
  5
269C
330
1
100
AcDbSymbolTableRecord
100
AcDbBlockTableRecord
  2
*D19
340
0
 70
     0
280
     1
281
     0
  0
BLOCK_RECORD
  5
26C4
330
1
100
AcDbSymbolTableRecord
100
AcDbBlockTableRecord
  2
*D20
340
0
 70
     0
280
     1
281
     0
  0
BLOCK_RECORD
  5
2703
330
1
100
AcDbSymbolTableRecord
100
AcDbBlockTableRecord
  2
*D21
340
0
 70
     0
280
     1
281
     0
  0
BLOCK_RECORD
  5
274C
330
1
100
AcDbSymbolTableRecord
100
AcDbBlockTableRecord
  2
*D22
340
0
 70
     0
280
     1
281
     0
  0
BLOCK_RECORD
  5
2795
330
1
100
AcDbSymbolTableRecord
100
AcDbBlockTableRecord
  2
*D23
340
0
 70
     0
280
     1
281
     0
  0
BLOCK_RECORD
  5
2829
330
1
100
AcDbSymbolTableRecord
100
AcDbBlockTableRecord
  2
*D24
340
0
 70
     0
280
     1
281
     0
  0
BLOCK_RECORD
  5
2851
330
1
100
AcDbSymbolTableRecord
100
AcDbBlockTableRecord
  2
*D25
340
0
 70
     0
280
     1
281
     0
  0
BLOCK_RECORD
  5
2890
330
1
100
AcDbSymbolTableRecord
100
AcDbBlockTableRecord
  2
*D26
340
0
 70
     0
280
     1
281
     0
  0
BLOCK_RECORD
  5
2924
330
1
100
AcDbSymbolTableRecord
100
AcDbBlockTableRecord
  2
*D27
340
0
 70
     0
280
     1
281
     0
  0
BLOCK_RECORD
  5
2940
330
1
100
AcDbSymbolTableRecord
100
AcDbBlockTableRecord
  2
*D28
340
0
 70
     0
280
     1
281
     0
  0
BLOCK_RECORD
  5
2968
330
1
100
AcDbSymbolTableRecord
100
AcDbBlockTableRecord
  2
*D29
340
0
 70
     0
280
     1
281
     0
  0
BLOCK_RECORD
  5
2A32
330
1
100
AcDbSymbolTableRecord
100
AcDbBlockTableRecord
  2
*D30
340
0
 70
     0
280
     1
281
     0
  0
BLOCK_RECORD
  5
2A4E
330
1
100
AcDbSymbolTableRecord
100
AcDbBlockTableRecord
  2
*D31
340
0
 70
     0
280
     1
281
     0
  0
BLOCK_RECORD
  5
2AC0
330
1
100
AcDbSymbolTableRecord
100
AcDbBlockTableRecord
  2
*D32
340
0
 70
     0
280
     1
281
     0
  0
BLOCK_RECORD
  5
2B09
330
1
100
AcDbSymbolTableRecord
100
AcDbBlockTableRecord
  2
*D33
340
0
 70
     0
280
     1
281
     0
  0
BLOCK_RECORD
  5
2B5B
330
1
100
AcDbSymbolTableRecord
100
AcDbBlockTableRecord
  2
*D34
340
0
 70
     0
280
     1
281
     0
  0
BLOCK_RECORD
  5
2BA4
330
1
100
AcDbSymbolTableRecord
100
AcDbBlockTableRecord
  2
*D35
340
0
 70
     0
280
     1
281
     0
  0
BLOCK_RECORD
  5
2BED
330
1
100
AcDbSymbolTableRecord
100
AcDbBlockTableRecord
  2
*D36
340
0
 70
     0
280
     1
281
     0
  0
BLOCK_RECORD
  5
2C36
330
1
100
AcDbSymbolTableRecord
100
AcDbBlockTableRecord
  2
*D37
340
0
 70
     0
280
     1
281
     0
  0
BLOCK_RECORD
  5
2C7F
330
1
100
AcDbSymbolTableRecord
100
AcDbBlockTableRecord
  2
*D38
340
0
 70
     0
280
     1
281
     0
  0
BLOCK_RECORD
  5
2D31
330
1
100
AcDbSymbolTableRecord
100
AcDbBlockTableRecord
  2
*D39
340
0
 70
     0
280
     1
281
     0
  0
BLOCK_RECORD
  5
2D6D
330
1
100
AcDbSymbolTableRecord
100
AcDbBlockTableRecord
  2
*D40
340
0
 70
     0
280
     1
281
     0
  0
BLOCK_RECORD
  5
2DB6
330
1
100
AcDbSymbolTableRecord
100
AcDbBlockTableRecord
  2
*D41
340
0
 70
     0
280
     1
281
     0
  0
BLOCK_RECORD
  5
2DF7
330
1
100
AcDbSymbolTableRecord
100
AcDbBlockTableRecord
  2
*D42
340
0
 70
     0
280
     1
281
     0
  0
BLOCK_RECORD
  5
2EA1
330
1
100
AcDbSymbolTableRecord
100
AcDbBlockTableRecord
  2
*D43
340
0
 70
     0
280
     1
281
     0
  0
BLOCK_RECORD
  5
2EEA
330
1
100
AcDbSymbolTableRecord
100
AcDbBlockTableRecord
  2
*D44
340
0
 70
     0
280
     1
281
     0
  0
BLOCK_RECORD
  5
2F33
330
1
100
AcDbSymbolTableRecord
100
AcDbBlockTableRecord
  2
*D45
340
0
 70
     0
280
     1
281
     0
  0
BLOCK_RECORD
  5
2FA7
330
1
100
AcDbSymbolTableRecord
100
AcDbBlockTableRecord
  2
*D46
340
0
 70
     0
280
     1
281
     0
  0
BLOCK_RECORD
  5
3472
330
1
100
AcDbSymbolTableRecord
100
AcDbBlockTableRecord
  2
*D48
340
0
 70
     0
280
     1
281
     0
  0
ENDTAB
  0
ENDSEC
  0
SECTION
  2
BLOCKS
  0
BLOCK
  5
1B
330
1A
100
AcDbEntity
  8
0
100
AcDbBlockBegin
  2
*MODEL_SPACE
 70
     0
 10
0.0
 20
0.0
 30
0.0
  3
*MODEL_SPACE
  1

  0
ENDBLK
  5
1C
330
1A
100
AcDbEntity
  8
0
100
AcDbBlockEnd
  0
BLOCK
  5
18
330
17
100
AcDbEntity
 67
     1
  8
0
100
AcDbBlockBegin
  2
*PAPER_SPACE
 70
     0
 10
0.0
 20
0.0
 30
0.0
  3
*PAPER_SPACE
  1

  0
ENDBLK
  5
19
330
17
100
AcDbEntity
 67
     1
  8
0
100
AcDbBlockEnd
  0
BLOCK
  5
34F
330
34D
100
AcDbEntity
 67
     1
  8
0
100
AcDbBlockBegin
  2
*Paper_Space0
 70
     0
 10
0.0
 20
0.0
 30
0.0
  3
*Paper_Space0
  1

  0
VIEWPORT
  5
34E
330
34D
100
AcDbEntity
 67
     1
  8
AM_VIEWS
100
AcDbViewport
 10
577.468994140625
 20
415.4593176841736
 30
0.0
 40
1195.734595476714
 41
932.8590910236622
 68
     0
 69
     0
 12
577.468994140625
 22
415.4593176841736
 13
0.0
 23
0.0
 14
10.0
 24
10.0
 15
10.0
 25
10.0
 16
0.0
 26
0.0
 36
1.0
 17
0.0
 27
0.0
 37
0.0
 42
50.0
 43
0.0
 44
0.0
 45
932.8590910236622
 50
0.0
 51
0.0
 72
   100
331
1969
 90
    32800
  1

281
     0
 71
     1
 74
     0
110
0.0
120
0.0
130
0.0
111
1.0
121
0.0
131
0.0
112
0.0
122
1.0
132
0.0
 79
     0
146
0.0
170
     0
 61
     5
348
336C
292
     1
282
     1
141
0.0
142
0.0
 63
   250
421
  3355443
  0
ENDBLK
  5
350
330
34D
100
AcDbEntity
 67
     1
  8
0
100
AcDbBlockEnd
  0
BLOCK
  5
315
330
313
100
AcDbEntity
 67
     1
  8
0
100
AcDbBlockBegin
  2
*Paper_Space1
 70
     0
 10
0.0
 20
0.0
 30
0.0
  3
*Paper_Space1
  1

  0
VIEWPORT
  5
344
330
313
100
AcDbEntity
 67
     1
  8
AM_VIEWS
100
AcDbViewport
 10
279.9926452636719
 20
204.9779944419861
 30
0.0
 40
597.3137355517764
 41
465.9976808487594
 68
     0
 69
     0
 12
279.9926452636719
 22
204.9779944419861
 13
0.0
 23
0.0
 14
10.0
 24
10.0
 15
10.0
 25
10.0
 16
0.0
 26
0.0
 36
1.0
 17
0.0
 27
0.0
 37
0.0
 42
50.0
 43
0.0
 44
0.0
 45
465.9976808487594
 50
0.0
 51
0.0
 72
   100
331
1969
 90
    32800
  1

281
     0
 71
     1
 74
     0
110
0.0
120
0.0
130
0.0
111
1.0
121
0.0
131
0.0
112
0.0
122
1.0
132
0.0
 79
     0
146
0.0
170
     0
 61
     5
348
336C
292
     1
282
     1
141
0.0
142
0.0
 63
   250
421
  3355443
  0
ENDBLK
  5
316
330
313
100
AcDbEntity
 67
     1
  8
0
100
AcDbBlockEnd
  0
BLOCK
  5
2E2
330
2E0
100
AcDbEntity
 67
     1
  8
0
100
AcDbBlockBegin
  2
*Paper_Space2
 70
     0
 10
0.0
 20
0.0
 30
0.0
  3
*Paper_Space2
  1

  0
VIEWPORT
  5
31D
330
2E0
100
AcDbEntity
 67
     1
  8
AM_VIEWS
100
AcDbViewport
 10
204.9674224853516
 20
143.4782419204712
 30
0.0
 40
422.4372280469156
 41
329.5667868615042
 68
     0
 69
     0
 12
204.9674224853516
 22
143.4782419204712
 13
0.0
 23
0.0
 14
10.0
 24
10.0
 15
10.0
 25
10.0
 16
0.0
 26
0.0
 36
1.0
 17
0.0
 27
0.0
 37
0.0
 42
50.0
 43
0.0
 44
0.0
 45
329.5667868615042
 50
0.0
 51
0.0
 72
   100
331
1969
 90
    32800
  1

281
     0
 71
     1
 74
     0
110
0.0
120
0.0
130
0.0
111
1.0
121
0.0
131
0.0
112
0.0
122
1.0
132
0.0
 79
     0
146
0.0
170
     0
 61
     5
348
336C
292
     1
282
     1
141
0.0
142
0.0
 63
   250
421
  3355443
  0
ENDBLK
  5
2E3
330
2E0
100
AcDbEntity
 67
     1
  8
0
100
AcDbBlockEnd
  0
BLOCK
  5
347
330
345
100
AcDbEntity
 67
     1
  8
0
100
AcDbBlockBegin
  2
*Paper_Space3
 70
     0
 10
0.0
 20
0.0
 30
0.0
  3
*Paper_Space3
  1

  0
VIEWPORT
  5
346
330
345
100
AcDbEntity
 67
     1
  8
AM_VIEWS
100
AcDbViewport
 10
279.9926452636719
 20
204.9779944419861
 30
0.0
 40
597.3137355517764
 41
465.9976808487594
 68
     0
 69
     0
 12
279.9926452636719
 22
204.9779944419861
 13
0.0
 23
0.0
 14
10.0
 24
10.0
 15
10.0
 25
10.0
 16
0.0
 26
0.0
 36
1.0
 17
0.0
 27
0.0
 37
0.0
 42
50.0
 43
0.0
 44
0.0
 45
465.9976808487594
 50
0.0
 51
0.0
 72
   100
331
1969
 90
    32800
  1

281
     0
 71
     1
 74
     0
110
0.0
120
0.0
130
0.0
111
1.0
121
0.0
131
0.0
112
0.0
122
1.0
132
0.0
 79
     0
146
0.0
170
     0
 61
     5
348
336C
292
     1
282
     1
141
0.0
142
0.0
 63
   250
421
  3355443
  0
ENDBLK
  5
348
330
345
100
AcDbEntity
 67
     1
  8
0
100
AcDbBlockEnd
  0
BLOCK
  5
39D
330
39B
100
AcDbEntity
  8
0
100
AcDbBlockBegin
  2
GENAXEH
 70
     0
 10
0.0
 20
0.0
 30
0.0
  3
GENAXEH
  1

  0
LINE
  5
39C
330
39B
100
AcDbEntity
  8
0
100
AcDbLine
 10
-1.0
 20
0.0
 30
0.0
 11
1.0
 21
0.0
 31
0.0
  0
ENDBLK
  5
39E
330
39B
100
AcDbEntity
  8
0
100
AcDbBlockEnd
  0
BLOCK
  5
3F9
330
3F8
100
AcDbEntity
  8
ASHADE
100
AcDbBlockBegin
  2
AVE_RENDER
 70
     0
 10
0.0
 20
0.0
 30
0.0
  3
AVE_RENDER
  1
AVE_RENDER
  0
ENDBLK
  5
3FA
330
3F8
100
AcDbEntity
  8
0
100
AcDbBlockEnd
  0
BLOCK
  5
407
330
406
100
AcDbEntity
  8
ASHADE
100
AcDbBlockBegin
  2
AVE_GLOBAL
 70
     0
 10
0.0
 20
0.0
 30
0.0
  3
AVE_GLOBAL
  1
AVE_GLOBAL
  0
ENDBLK
  5
408
330
406
100
AcDbEntity
  8
0
100
AcDbBlockEnd
  0
BLOCK
  5
595
330
594
100
AcDbEntity
  8
0
100
AcDbBlockBegin
  2
*U7
 70
     1
 10
0.0
 20
0.0
 30
0.0
  3
*U7
  1

  0
ENDBLK
  5
596
330
594
100
AcDbEntity
  8
0
100
AcDbBlockEnd
  0
BLOCK
  5
5E6
330
5E5
100
AcDbEntity
  8
0
100
AcDbBlockBegin
  2
*U8
 70
     1
 10
0.0
 20
0.0
 30
0.0
  3
*U8
  1

  0
ENDBLK
  5
5E7
330
5E5
100
AcDbEntity
  8
0
100
AcDbBlockEnd
  0
BLOCK
  5
1369
330
1366
100
AcDbEntity
  8
0
100
AcDbBlockBegin
  2
GENDOT
 70
     0
 10
0.0
 20
0.0
 30
0.0
  3
GENDOT
  1

  0
LINE
  5
1367
330
1366
100
AcDbEntity
  8
0
100
AcDbLine
 10
0.0
 20
0.0
 30
0.0
 11
-1.0
 21
0.0
 31
0.0
  0
LWPOLYLINE
  5
1368
330
1366
100
AcDbEntity
  8
0
100
AcDbPolyline
 90
        2
 70
     1
 43
0.25
 10
-0.125
 20
0.0
 42
1.0
 10
0.125
 20
0.0
 42
1.0
  0
ENDBLK
  5
136A
330
1366
100
AcDbEntity
  8
0
100
AcDbBlockEnd
  0
BLOCK
  5
1848
330
1844
100
AcDbEntity
  8
0
100
AcDbBlockBegin
  2
_Open30
 70
     0
 10
0.0
 20
0.0
 30
0.0
  3
_Open30
  1

  0
LINE
  5
1845
330
1844
100
AcDbEntity
  8
0
  6
ByBlock
 62
     0
370
    -2
100
AcDbLine
 10
-1.0
 20
0.26794919
 30
0.0
 11
0.0
 21
0.0
 31
0.0
  0
LINE
  5
1846
330
1844
100
AcDbEntity
  8
0
  6
ByBlock
 62
     0
370
    -2
100
AcDbLine
 10
0.0
 20
0.0
 30
0.0
 11
-1.0
 21
-0.26794919
 31
0.0
  0
LINE
  5
1847
330
1844
100
AcDbEntity
  8
0
  6
ByBlock
 62
     0
370
    -2
100
AcDbLine
 10
0.0
 20
0.0
 30
0.0
 11
-1.0
 21
0.0
 31
0.0
  0
ENDBLK
  5
1849
330
1844
100
AcDbEntity
  8
0
100
AcDbBlockEnd
  0
BLOCK
  5
19C8
330
19BF
100
AcDbEntity
  8
0
100
AcDbBlockBegin
  2
BLK31
 70
     2
 10
0.0
 20
0.0
 30
0.0
  3
BLK31
  1

  0
POLYLINE
  5
19C0
330
19BF
100
AcDbEntity
  8
1
100
AcDb2dPolyline
 66
     1
 10
0.0
 20
0.0
 30
0.0
 70
     1
  0
VERTEX
  5
19C1
330
19C0
100
AcDbEntity
  8
1
100
AcDbVertex
100
AcDb2dVertex
 10
7.914908999999999
 20
48.700001
 30
0.0
 42
-0.357625
  0
VERTEX
  5
19C2
330
19C0
100
AcDbEntity
  8
1
100
AcDbVertex
100
AcDb2dVertex
 10
7.914908999999999
 20
51.299999
 30
0.0
  0
VERTEX
  5
19C3
330
19C0
100
AcDbEntity
  8
1
100
AcDbVertex
100
AcDb2dVertex
 10
11.085084
 20
51.299999
 30
0.0
 42
-0.357625
  0
VERTEX
  5
19C4
330
19C0
100
AcDbEntity
  8
1
100
AcDbVertex
100
AcDb2dVertex
 10
11.085084
 20
48.700001
 30
0.0
  0
VERTEX
  5
19C5
330
19C0
100
AcDbEntity
  8
1
100
AcDbVertex
100
AcDb2dVertex
 10
7.914908999999999
 20
48.700001
 30
0.0
  0
SEQEND
  5
19C6
330
19C0
100
AcDbEntity
  8
1
  0
LINE
  5
19C7
330
19BF
100
AcDbEntity
  8
7
  6
GEN7A
100
AcDbLine
 10
9.499997
 20
48.038628
 30
0.0
 11
9.499997
 21
52.087143
 31
0.0
  0
ENDBLK
  5
19C9
330
19BF
100
AcDbEntity
  8
0
100
AcDbBlockEnd
  0
BLOCK
  5
19D3
330
19CA
100
AcDbEntity
  8
0
100
AcDbBlockBegin
  2
BLK32
 70
     2
 10
0.0
 20
0.0
 30
0.0
  3
BLK32
  1

  0
POLYLINE
  5
19CB
330
19CA
100
AcDbEntity
  8
1
100
AcDb2dPolyline
 66
     1
 10
0.0
 20
0.0
 30
0.0
 70
     1
  0
VERTEX
  5
19CC
330
19CB
100
AcDbEntity
  8
1
100
AcDbVertex
100
AcDb2dVertex
 10
-7.91492
 20
48.700001
 30
0.0
 42
0.357626
  0
VERTEX
  5
19CD
330
19CB
100
AcDbEntity
  8
1
100
AcDbVertex
100
AcDb2dVertex
 10
-7.91492
 20
51.30000299999999
 30
0.0
  0
VERTEX
  5
19CE
330
19CB
100
AcDbEntity
  8
1
100
AcDbVertex
100
AcDb2dVertex
 10
-11.085093
 20
51.30000299999999
 30
0.0
 42
0.357626
  0
VERTEX
  5
19CF
330
19CB
100
AcDbEntity
  8
1
100
AcDbVertex
100
AcDb2dVertex
 10
-11.085093
 20
48.700001
 30
0.0
  0
VERTEX
  5
19D0
330
19CB
100
AcDbEntity
  8
1
100
AcDbVertex
100
AcDb2dVertex
 10
-7.91492
 20
48.700001
 30
0.0
  0
SEQEND
  5
19D1
330
19CB
100
AcDbEntity
  8
1
  0
LINE
  5
19D2
330
19CA
100
AcDbEntity
  8
7
  6
GEN7A
100
AcDbLine
 10
-9.500006
 20
48.038628
 30
0.0
 11
-9.500006
 21
52.087143
 31
0.0
  0
ENDBLK
  5
19D4
330
19CA
100
AcDbEntity
  8
0
100
AcDbBlockEnd
  0
BLOCK
  5
19DE
330
19D5
100
AcDbEntity
  8
0
100
AcDbBlockBegin
  2
BLK33
 70
     2
 10
0.0
 20
0.0
 30
0.0
  3
BLK33
  1

  0
POLYLINE
  5
19D6
330
19D5
100
AcDbEntity
  8
1
100
AcDb2dPolyline
 66
     1
 10
0.0
 20
0.0
 30
0.0
 70
     1
  0
VERTEX
  5
19D7
330
19D6
100
AcDbEntity
  8
1
100
AcDbVertex
100
AcDb2dVertex
 10
-7.91492
 20
5.949995
 30
0.0
 42
0.357625
  0
VERTEX
  5
19D8
330
19D6
100
AcDbEntity
  8
1
100
AcDbVertex
100
AcDb2dVertex
 10
-7.91492
 20
8.549993999999999
 30
0.0
  0
VERTEX
  5
19D9
330
19D6
100
AcDbEntity
  8
1
100
AcDbVertex
100
AcDb2dVertex
 10
-11.085094
 20
8.549993999999999
 30
0.0
 42
0.357625
  0
VERTEX
  5
19DA
330
19D6
100
AcDbEntity
  8
1
100
AcDbVertex
100
AcDb2dVertex
 10
-11.085094
 20
5.949995
 30
0.0
  0
VERTEX
  5
19DB
330
19D6
100
AcDbEntity
  8
1
100
AcDbVertex
100
AcDb2dVertex
 10
-7.91492
 20
5.949995
 30
0.0
  0
SEQEND
  5
19DC
330
19D6
100
AcDbEntity
  8
1
  0
LINE
  5
19DD
330
19D5
100
AcDbEntity
  8
7
  6
GEN7A
100
AcDbLine
 10
-9.500007
 20
5.288622
 30
0.0
 11
-9.500007
 21
9.337137999999999
 31
0.0
  0
ENDBLK
  5
19DF
330
19D5
100
AcDbEntity
  8
0
100
AcDbBlockEnd
  0
BLOCK
  5
19E9
330
19E0
100
AcDbEntity
  8
0
100
AcDbBlockBegin
  2
BLK34
 70
     2
 10
0.0
 20
0.0
 30
0.0
  3
BLK34
  1

  0
POLYLINE
  5
19E1
330
19E0
100
AcDbEntity
  8
1
100
AcDb2dPolyline
 66
     1
 10
0.0
 20
0.0
 30
0.0
 70
     1
  0
VERTEX
  5
19E2
330
19E1
100
AcDbEntity
  8
1
100
AcDbVertex
100
AcDb2dVertex
 10
7.914908999999999
 20
5.949995
 30
0.0
 42
-0.357625
  0
VERTEX
  5
19E3
330
19E1
100
AcDbEntity
  8
1
100
AcDbVertex
100
AcDb2dVertex
 10
7.914908999999999
 20
8.549993999999999
 30
0.0
  0
VERTEX
  5
19E4
330
19E1
100
AcDbEntity
  8
1
100
AcDbVertex
100
AcDb2dVertex
 10
11.085083
 20
8.549993999999999
 30
0.0
 42
-0.357625
  0
VERTEX
  5
19E5
330
19E1
100
AcDbEntity
  8
1
100
AcDbVertex
100
AcDb2dVertex
 10
11.085083
 20
5.949995
 30
0.0
  0
VERTEX
  5
19E6
330
19E1
100
AcDbEntity
  8
1
100
AcDbVertex
100
AcDb2dVertex
 10
7.914908999999999
 20
5.949995
 30
0.0
  0
SEQEND
  5
19E7
330
19E1
100
AcDbEntity
  8
1
  0
LINE
  5
19E8
330
19E0
100
AcDbEntity
  8
7
  6
GEN7A
100
AcDbLine
 10
9.499995999999999
 20
5.288622
 30
0.0
 11
9.499995999999999
 21
9.337137999999999
 31
0.0
  0
ENDBLK
  5
19EA
330
19E0
100
AcDbEntity
  8
0
100
AcDbBlockEnd
  0
BLOCK
  5
25BE
330
25B4
100
AcDbEntity
  8
0
100
AcDbBlockBegin
  2
*D15
 70
     1
 10
0.0
 20
0.0
 30
0.0
  3
*D15
  1

  0
LINE
  5
3030
330
25B4
100
AcDbEntity
  8
AM_5
100
AcDbLine
 10
161.4414509253091
 20
350.7795800101261
 30
0.0
 11
129.9973466691691
 21
350.7795800101261
 31
0.0
  0
LINE
  5
3031
330
25B4
100
AcDbEntity
  8
AM_5
100
AcDbLine
 10
151.4414449253091
 20
300.7795800101261
 30
0.0
 11
129.9973466691691
 21
300.7795800101261
 31
0.0
  0
LINE
  5
3032
330
25B4
100
AcDbEntity
  8
AM_5
100
AcDbLine
 10
131.9973466691691
 20
344.7795800101261
 30
0.0
 11
131.9973466691691
 21
306.7795800101261
 31
0.0
  0
SOLID
  5
3033
330
25B4
100
AcDbEntity
  8
AM_5
100
AcDbTrace
 10
130.9973466691691
 20
344.7795800101261
 30
0.0
 11
132.9973466691691
 21
344.7795800101261
 31
0.0
 12
131.9973466691691
 22
350.7795800101261
 32
0.0
 13
131.9973466691691
 23
350.7795800101261
 33
0.0
  0
SOLID
  5
3034
330
25B4
100
AcDbEntity
  8
AM_5
100
AcDbTrace
 10
130.9973466691691
 20
306.7795800101261
 30
0.0
 11
132.9973466691691
 21
306.7795800101261
 31
0.0
 12
131.9973466691691
 22
300.7795800101261
 32
0.0
 13
131.9973466691691
 23
300.7795800101261
 33
0.0
  0
MTEXT
  5
3035
330
25B4
100
AcDbEntity
  8
AM_5
 62
     2
100
AcDbMText
 10
125.4973466691691
 20
325.7795800101261
 30
0.0
 40
7.0
 41
0.0
 46
0.0
 71
     5
 72
     1
  1
50
 11
0.0000000000000001
 21
1.0
 31
0.0
 73
     1
 44
1.0
  0
POINT
  5
3036
330
25B4
100
AcDbEntity
  8
Defpoints
 62
     0
100
AcDbPoint
 10
161.4414509253091
 20
350.7795800101261
 30
0.0
  0
POINT
  5
3037
330
25B4
100
AcDbEntity
  8
Defpoints
 62
     0
100
AcDbPoint
 10
151.4414449253091
 20
300.7795800101261
 30
0.0
  0
POINT
  5
3038
330
25B4
100
AcDbEntity
  8
Defpoints
 62
     0
100
AcDbPoint
 10
131.9973466691691
 20
300.7795800101261
 30
0.0
  0
ENDBLK
  5
25BF
330
25B4
100
AcDbEntity
  8
0
100
AcDbBlockEnd
  0
BLOCK
  5
2652
330
2648
100
AcDbEntity
  8
0
100
AcDbBlockBegin
  2
*D16
 70
     1
 10
0.0
 20
0.0
 30
0.0
  3
*D16
  1

  0
LINE
  5
3027
330
2648
100
AcDbEntity
  8
AM_5
100
AcDbLine
 10
151.4414449253091
 20
300.7795800101261
 30
0.0
 11
129.9973466691691
 21
300.7795800101261
 31
0.0
  0
LINE
  5
3028
330
2648
100
AcDbEntity
  8
AM_5
100
AcDbLine
 10
151.4414449253091
 20
270.7795660101261
 30
0.0
 11
129.9973466691691
 21
270.7795660101261
 31
0.0
  0
LINE
  5
3029
330
2648
100
AcDbEntity
  8
AM_5
100
AcDbLine
 10
131.9973466691691
 20
294.7795800101261
 30
0.0
 11
131.9973466691691
 21
276.7795660101261
 31
0.0
  0
SOLID
  5
302A
330
2648
100
AcDbEntity
  8
AM_5
100
AcDbTrace
 10
130.9973466691691
 20
294.7795800101261
 30
0.0
 11
132.9973466691691
 21
294.7795800101261
 31
0.0
 12
131.9973466691691
 22
300.7795800101261
 32
0.0
 13
131.9973466691691
 23
300.7795800101261
 33
0.0
  0
SOLID
  5
302B
330
2648
100
AcDbEntity
  8
AM_5
100
AcDbTrace
 10
130.9973466691691
 20
276.7795660101261
 30
0.0
 11
132.9973466691691
 21
276.7795660101261
 31
0.0
 12
131.9973466691691
 22
270.7795660101261
 32
0.0
 13
131.9973466691691
 23
270.7795660101261
 33
0.0
  0
MTEXT
  5
302C
330
2648
100
AcDbEntity
  8
AM_5
 62
     2
100
AcDbMText
 10
125.4973466691691
 20
285.7795730101261
 30
0.0
 40
7.0
 41
0.0
 46
0.0
 71
     5
 72
     1
  1
30
 11
0.0000000000000001
 21
1.0
 31
0.0
 73
     1
 44
1.0
  0
POINT
  5
302D
330
2648
100
AcDbEntity
  8
Defpoints
 62
     0
100
AcDbPoint
 10
151.4414449253091
 20
300.7795800101261
 30
0.0
  0
POINT
  5
302E
330
2648
100
AcDbEntity
  8
Defpoints
 62
     0
100
AcDbPoint
 10
151.4414449253091
 20
270.7795660101261
 30
0.0
  0
POINT
  5
302F
330
2648
100
AcDbEntity
  8
Defpoints
 62
     0
100
AcDbPoint
 10
131.9973466691691
 20
270.7795660101261
 30
0.0
  0
ENDBLK
  5
2653
330
2648
100
AcDbEntity
  8
0
100
AcDbBlockEnd
  0
BLOCK
  5
266E
330
2664
100
AcDbEntity
  8
0
100
AcDbBlockBegin
  2
*D17
 70
     1
 10
0.0
 20
0.0
 30
0.0
  3
*D17
  1

  0
LINE
  5
301E
330
2664
100
AcDbEntity
  8
AM_5
100
AcDbLine
 10
151.4414449253091
 20
270.7795660101261
 30
0.0
 11
129.9973466691691
 21
270.7795660101261
 31
0.0
  0
LINE
  5
301F
330
2664
100
AcDbEntity
  8
AM_5
100
AcDbLine
 10
148.9414449253091
 20
222.7795500101261
 30
0.0
 11
129.9973466691691
 21
222.7795500101261
 31
0.0
  0
LINE
  5
3020
330
2664
100
AcDbEntity
  8
AM_5
100
AcDbLine
 10
131.9973466691691
 20
264.7795660101261
 30
0.0
 11
131.9973466691691
 21
228.779550010126
 31
0.0
  0
SOLID
  5
3021
330
2664
100
AcDbEntity
  8
AM_5
100
AcDbTrace
 10
130.9973466691691
 20
264.7795660101261
 30
0.0
 11
132.9973466691691
 21
264.7795660101261
 31
0.0
 12
131.9973466691691
 22
270.7795660101261
 32
0.0
 13
131.9973466691691
 23
270.7795660101261
 33
0.0
  0
SOLID
  5
3022
330
2664
100
AcDbEntity
  8
AM_5
100
AcDbTrace
 10
130.9973466691691
 20
228.779550010126
 30
0.0
 11
132.9973466691691
 21
228.779550010126
 31
0.0
 12
131.9973466691691
 22
222.7795500101261
 32
0.0
 13
131.9973466691691
 23
222.7795500101261
 33
0.0
  0
MTEXT
  5
3023
330
2664
100
AcDbEntity
  8
AM_5
 62
     2
100
AcDbMText
 10
125.4973466691691
 20
246.7795580101261
 30
0.0
 40
7.0
 41
0.0
 46
0.0
 71
     5
 72
     1
  1
48
 11
0.0000000000000001
 21
1.0
 31
0.0
 73
     1
 44
1.0
  0
POINT
  5
3024
330
2664
100
AcDbEntity
  8
Defpoints
 62
     0
100
AcDbPoint
 10
151.4414449253091
 20
270.7795660101261
 30
0.0
  0
POINT
  5
3025
330
2664
100
AcDbEntity
  8
Defpoints
 62
     0
100
AcDbPoint
 10
148.9414449253091
 20
222.7795500101261
 30
0.0
  0
POINT
  5
3026
330
2664
100
AcDbEntity
  8
Defpoints
 62
     0
100
AcDbPoint
 10
131.9973466691691
 20
222.7795500101261
 30
0.0
  0
ENDBLK
  5
266F
330
2664
100
AcDbEntity
  8
0
100
AcDbBlockEnd
  0
BLOCK
  5
268A
330
2680
100
AcDbEntity
  8
0
100
AcDbBlockBegin
  2
*D18
 70
     1
 10
0.0
 20
0.0
 30
0.0
  3
*D18
  1

  0
LINE
  5
3015
330
2680
100
AcDbEntity
  8
AM_5
100
AcDbLine
 10
148.9414449253091
 20
222.7795500101261
 30
0.0
 11
129.9973466691691
 21
222.7795500101261
 31
0.0
  0
LINE
  5
3016
330
2680
100
AcDbEntity
  8
AM_5
100
AcDbLine
 10
148.9414449253091
 20
192.7795420101261
 30
0.0
 11
129.9973466691691
 21
192.7795420101261
 31
0.0
  0
LINE
  5
3017
330
2680
100
AcDbEntity
  8
AM_5
100
AcDbLine
 10
131.9973466691691
 20
216.7795500101261
 30
0.0
 11
131.9973466691691
 21
198.7795420101261
 31
0.0
  0
SOLID
  5
3018
330
2680
100
AcDbEntity
  8
AM_5
100
AcDbTrace
 10
130.9973466691691
 20
216.7795500101261
 30
0.0
 11
132.9973466691691
 21
216.7795500101261
 31
0.0
 12
131.9973466691691
 22
222.7795500101261
 32
0.0
 13
131.9973466691691
 23
222.7795500101261
 33
0.0
  0
SOLID
  5
3019
330
2680
100
AcDbEntity
  8
AM_5
100
AcDbTrace
 10
130.9973466691691
 20
198.7795420101261
 30
0.0
 11
132.9973466691691
 21
198.7795420101261
 31
0.0
 12
131.9973466691691
 22
192.7795420101261
 32
0.0
 13
131.9973466691691
 23
192.7795420101261
 33
0.0
  0
MTEXT
  5
301A
330
2680
100
AcDbEntity
  8
AM_5
 62
     2
100
AcDbMText
 10
125.4973466691691
 20
207.7795460101261
 30
0.0
 40
7.0
 41
0.0
 46
0.0
 71
     5
 72
     1
  1
30
 11
0.0000000000000001
 21
1.0
 31
0.0
 73
     1
 44
1.0
  0
POINT
  5
301B
330
2680
100
AcDbEntity
  8
Defpoints
 62
     0
100
AcDbPoint
 10
148.9414449253091
 20
222.7795500101261
 30
0.0
  0
POINT
  5
301C
330
2680
100
AcDbEntity
  8
Defpoints
 62
     0
100
AcDbPoint
 10
148.9414449253091
 20
192.7795420101261
 30
0.0
  0
POINT
  5
301D
330
2680
100
AcDbEntity
  8
Defpoints
 62
     0
100
AcDbPoint
 10
131.9973466691691
 20
192.7795420101261
 30
0.0
  0
ENDBLK
  5
268B
330
2680
100
AcDbEntity
  8
0
100
AcDbBlockEnd
  0
BLOCK
  5
26A6
330
269C
100
AcDbEntity
  8
0
100
AcDbBlockBegin
  2
*D19
 70
     1
 10
0.0
 20
0.0
 30
0.0
  3
*D19
  1

  0
LINE
  5
300C
330
269C
100
AcDbEntity
  8
AM_5
100
AcDbLine
 10
148.9414449253091
 20
192.7795420101261
 30
0.0
 11
129.9973466691691
 21
192.7795420101261
 31
0.0
  0
LINE
  5
300D
330
269C
100
AcDbEntity
  8
AM_5
100
AcDbLine
 10
161.4414509253091
 20
120.779534010126
 30
0.0
 11
129.9973466691691
 21
120.779534010126
 31
0.0
  0
LINE
  5
300E
330
269C
100
AcDbEntity
  8
AM_5
100
AcDbLine
 10
131.9973466691691
 20
186.7795420101261
 30
0.0
 11
131.9973466691691
 21
126.779534010126
 31
0.0
  0
SOLID
  5
300F
330
269C
100
AcDbEntity
  8
AM_5
100
AcDbTrace
 10
130.9973466691691
 20
186.7795420101261
 30
0.0
 11
132.9973466691691
 21
186.7795420101261
 31
0.0
 12
131.9973466691691
 22
192.7795420101261
 32
0.0
 13
131.9973466691691
 23
192.7795420101261
 33
0.0
  0
SOLID
  5
3010
330
269C
100
AcDbEntity
  8
AM_5
100
AcDbTrace
 10
130.9973466691691
 20
126.779534010126
 30
0.0
 11
132.9973466691691
 21
126.779534010126
 31
0.0
 12
131.9973466691691
 22
120.779534010126
 32
0.0
 13
131.9973466691691
 23
120.779534010126
 33
0.0
  0
MTEXT
  5
3011
330
269C
100
AcDbEntity
  8
AM_5
 62
     2
100
AcDbMText
 10
125.4966576927911
 20
156.7795380101261
 30
0.0
 40
7.0
 41
0.0
 46
0.0
 71
     5
 72
     1
  1
72
 11
0.0000000000000001
 21
1.0
 31
0.0
 73
     1
 44
1.0
  0
POINT
  5
3012
330
269C
100
AcDbEntity
  8
Defpoints
 62
     0
100
AcDbPoint
 10
148.9414449253091
 20
192.7795420101261
 30
0.0
  0
POINT
  5
3013
330
269C
100
AcDbEntity
  8
Defpoints
 62
     0
100
AcDbPoint
 10
161.4414509253091
 20
120.779534010126
 30
0.0
  0
POINT
  5
3014
330
269C
100
AcDbEntity
  8
Defpoints
 62
     0
100
AcDbPoint
 10
131.9973466691691
 20
120.779534010126
 30
0.0
  0
ENDBLK
  5
26A7
330
269C
100
AcDbEntity
  8
0
100
AcDbBlockEnd
  0
BLOCK
  5
26CE
330
26C4
100
AcDbEntity
  8
0
100
AcDbBlockBegin
  2
*D20
 70
     1
 10
0.0
 20
0.0
 30
0.0
  3
*D20
  1

  0
LINE
  5
3003
330
26C4
100
AcDbEntity
  8
AM_5
100
AcDbLine
 10
161.4414509253091
 20
350.7795800101261
 30
0.0
 11
106.4493752809091
 21
350.7795800101261
 31
0.0
  0
LINE
  5
3004
330
26C4
100
AcDbEntity
  8
AM_5
100
AcDbLine
 10
161.4414509253091
 20
120.779534010126
 30
0.0
 11
106.449375280909
 21
120.779534010126
 31
0.0
  0
LINE
  5
3005
330
26C4
100
AcDbEntity
  8
AM_5
100
AcDbLine
 10
108.4493752809091
 20
344.7795800101261
 30
0.0
 11
108.449375280909
 21
126.779534010126
 31
0.0
  0
SOLID
  5
3006
330
26C4
100
AcDbEntity
  8
AM_5
100
AcDbTrace
 10
107.4493752809091
 20
344.7795800101261
 30
0.0
 11
109.4493752809091
 21
344.7795800101261
 31
0.0
 12
108.4493752809091
 22
350.7795800101261
 32
0.0
 13
108.4493752809091
 23
350.7795800101261
 33
0.0
  0
SOLID
  5
3007
330
26C4
100
AcDbEntity
  8
AM_5
100
AcDbTrace
 10
107.449375280909
 20
126.779534010126
 30
0.0
 11
109.4493752809091
 21
126.779534010126
 31
0.0
 12
108.449375280909
 22
120.779534010126
 32
0.0
 13
108.449375280909
 23
120.779534010126
 33
0.0
  0
MTEXT
  5
3008
330
26C4
100
AcDbEntity
  8
AM_5
 62
     2
100
AcDbMText
 10
101.9486863045311
 20
235.7795570101261
 30
0.0
 40
7.0
 41
0.0
 46
0.0
 71
     5
 72
     1
  1
230
 11
0.0000000000000001
 21
1.0
 31
0.0
 73
     1
 44
1.0
  0
POINT
  5
3009
330
26C4
100
AcDbEntity
  8
Defpoints
 62
     0
100
AcDbPoint
 10
161.4414509253091
 20
350.7795800101261
 30
0.0
  0
POINT
  5
300A
330
26C4
100
AcDbEntity
  8
Defpoints
 62
     0
100
AcDbPoint
 10
161.4414509253091
 20
120.779534010126
 30
0.0
  0
POINT
  5
300B
330
26C4
100
AcDbEntity
  8
Defpoints
 62
     0
100
AcDbPoint
 10
108.449375280909
 20
120.779534010126
 30
0.0
  0
ENDBLK
  5
26CF
330
26C4
100
AcDbEntity
  8
0
100
AcDbBlockEnd
  0
BLOCK
  5
270F
330
2703
100
AcDbEntity
  8
0
100
AcDbBlockBegin
  2
*D21
 70
     1
 10
0.0
 20
0.0
 30
0.0
  3
*D21
  1

  0
LINE
  5
304F
330
2703
100
AcDbEntity
  8
AM_5
100
AcDbLine
 10
151.4414449253091
 20
300.7795800101261
 30
0.0
 11
151.4414449253091
 21
328.4043328210323
 31
0.0
  0
LINE
  5
3050
330
2703
100
AcDbEntity
  8
AM_5
100
AcDbLine
 10
161.4414509253091
 20
300.7795800101261
 30
0.0
 11
161.4414509253091
 21
328.4043328210323
 31
0.0
  0
LINE
  5
3051
330
2703
100
AcDbEntity
  8
AM_5
100
AcDbLine
 10
145.4414449253091
 20
326.4043328210323
 30
0.0
 11
139.4414449253091
 21
326.4043328210323
 31
0.0
  0
LINE
  5
3052
330
2703
100
AcDbEntity
  8
AM_5
100
AcDbLine
 10
167.4414509253091
 20
326.4043328210323
 30
0.0
 11
185.7469627363327
 21
326.4043328210323
 31
0.0
  0
LINE
  5
3053
330
2703
100
AcDbEntity
  8
AM_5
100
AcDbLine
 10
151.4414449253091
 20
326.4043328210323
 30
0.0
 11
161.4414509253091
 21
326.4043328210323
 31
0.0
  0
SOLID
  5
3054
330
2703
100
AcDbEntity
  8
AM_5
100
AcDbTrace
 10
145.4414449253091
 20
327.4043328210323
 30
0.0
 11
145.4414449253091
 21
325.4043328210323
 31
0.0
 12
151.4414449253091
 22
326.4043328210323
 32
0.0
 13
151.4414449253091
 23
326.4043328210323
 33
0.0
  0
SOLID
  5
3055
330
2703
100
AcDbEntity
  8
AM_5
100
AcDbTrace
 10
167.4414509253091
 20
327.4043328210323
 30
0.0
 11
167.4414509253091
 21
325.4043328210323
 31
0.0
 12
161.4414509253091
 22
326.4043328210323
 32
0.0
 13
161.4414509253091
 23
326.4043328210323
 33
0.0
  0
MTEXT
  5
3056
330
2703
100
AcDbEntity
  8
AM_5
 62
     2
100
AcDbMText
 10
179.5942068308209
 20
332.9043328210323
 30
0.0
 40
7.0
 41
0.0
 46
0.0
 71
     5
 72
     1
  1
10
 73
     1
 44
1.0
  0
POINT
  5
3057
330
2703
100
AcDbEntity
  8
Defpoints
 62
     0
100
AcDbPoint
 10
151.4414449253091
 20
300.7795800101261
 30
0.0
  0
POINT
  5
3058
330
2703
100
AcDbEntity
  8
Defpoints
 62
     0
100
AcDbPoint
 10
161.4414509253091
 20
300.7795800101261
 30
0.0
  0
POINT
  5
3059
330
2703
100
AcDbEntity
  8
Defpoints
 62
     0
100
AcDbPoint
 10
161.4414509253091
 20
326.4043328210323
 30
0.0
  0
ENDBLK
  5
2710
330
2703
100
AcDbEntity
  8
0
100
AcDbBlockEnd
  0
BLOCK
  5
2758
330
274C
100
AcDbEntity
  8
0
100
AcDbBlockBegin
  2
*D22
 70
     1
 10
0.0
 20
0.0
 30
0.0
  3
*D22
  1

  0
LINE
  5
3039
330
274C
100
AcDbEntity
  8
AM_5
100
AcDbLine
 10
148.441444925309
 20
222.279550010126
 30
0.0
 11
148.441444925309
 21
240.6140659301706
 31
0.0
  0
LINE
  5
303A
330
274C
100
AcDbEntity
  8
AM_5
100
AcDbLine
 10
161.4414509253091
 20
222.279550010126
 30
0.0
 11
161.4414509253091
 21
240.6140659301706
 31
0.0
  0
LINE
  5
303B
330
274C
100
AcDbEntity
  8
AM_5
100
AcDbLine
 10
142.4414449253091
 20
238.6140659301706
 30
0.0
 11
136.441444925309
 21
238.6140659301706
 31
0.0
  0
LINE
  5
303C
330
274C
100
AcDbEntity
  8
AM_5
100
AcDbLine
 10
167.4414509253091
 20
238.6140659301706
 30
0.0
 11
173.4414509253091
 21
238.6140659301706
 31
0.0
  0
LINE
  5
303D
330
274C
100
AcDbEntity
  8
AM_5
100
AcDbLine
 10
148.441444925309
 20
238.6140659301706
 30
0.0
 11
161.4414509253091
 21
238.6140659301706
 31
0.0
  0
SOLID
  5
303E
330
274C
100
AcDbEntity
  8
AM_5
100
AcDbTrace
 10
142.4414449253091
 20
239.6140659301706
 30
0.0
 11
142.4414449253091
 21
237.6140659301706
 31
0.0
 12
148.441444925309
 22
238.6140659301706
 32
0.0
 13
148.441444925309
 23
238.6140659301706
 33
0.0
  0
SOLID
  5
303F
330
274C
100
AcDbEntity
  8
AM_5
100
AcDbTrace
 10
167.4414509253091
 20
239.6140659301706
 30
0.0
 11
167.4414509253091
 21
237.6140659301706
 31
0.0
 12
161.4414509253091
 22
238.6140659301706
 32
0.0
 13
161.4414509253091
 23
238.6140659301706
 33
0.0
  0
MTEXT
  5
3040
330
274C
100
AcDbEntity
  8
AM_5
 62
     2
100
AcDbMText
 10
154.9414479253091
 20
245.1140659301706
 30
0.0
 40
7.0
 41
0.0
 46
0.0
 71
     5
 72
     1
  1
13
 73
     1
 44
1.0
  0
POINT
  5
3041
330
274C
100
AcDbEntity
  8
Defpoints
 62
     0
100
AcDbPoint
 10
148.441444925309
 20
222.279550010126
 30
0.0
  0
POINT
  5
3042
330
274C
100
AcDbEntity
  8
Defpoints
 62
     0
100
AcDbPoint
 10
161.4414509253091
 20
222.279550010126
 30
0.0
  0
POINT
  5
3043
330
274C
100
AcDbEntity
  8
Defpoints
 62
     0
100
AcDbPoint
 10
161.4414509253091
 20
238.6140659301706
 30
0.0
  0
ENDBLK
  5
2759
330
274C
100
AcDbEntity
  8
0
100
AcDbBlockEnd
  0
BLOCK
  5
279F
330
2795
100
AcDbEntity
  8
0
100
AcDbBlockBegin
  2
*D23
 70
     1
 10
0.0
 20
0.0
 30
0.0
  3
*D23
  1

  0
LINE
  5
2F8C
330
2795
100
AcDbEntity
  8
AM_5
100
AcDbLine
 10
161.4414509253091
 20
120.779534010126
 30
0.0
 11
161.4414509253091
 21
94.77953301012609
 31
0.0
  0
LINE
  5
2F8D
330
2795
100
AcDbEntity
  8
AM_5
100
AcDbLine
 10
221.4414589253091
 20
185.7795400101261
 30
0.0
 11
221.4414589253091
 21
94.77953301012609
 31
0.0
  0
LINE
  5
2F8E
330
2795
100
AcDbEntity
  8
AM_5
100
AcDbLine
 10
167.4414509253091
 20
96.77953301012609
 30
0.0
 11
215.4414589253091
 21
96.77953301012609
 31
0.0
  0
SOLID
  5
2F8F
330
2795
100
AcDbEntity
  8
AM_5
100
AcDbTrace
 10
167.4414509253091
 20
97.77953301012608
 30
0.0
 11
167.4414509253091
 21
95.77953301012609
 31
0.0
 12
161.4414509253091
 22
96.77953301012609
 32
0.0
 13
161.4414509253091
 23
96.77953301012609
 33
0.0
  0
SOLID
  5
2F90
330
2795
100
AcDbEntity
  8
AM_5
100
AcDbTrace
 10
215.4414589253091
 20
97.77953301012608
 30
0.0
 11
215.4414589253091
 21
95.77953301012609
 31
0.0
 12
221.4414589253091
 22
96.77953301012609
 32
0.0
 13
221.4414589253091
 23
96.77953301012609
 33
0.0
  0
MTEXT
  5
2F91
330
2795
100
AcDbEntity
  8
AM_5
 62
     2
100
AcDbMText
 10
191.4414549253091
 20
103.3282135639102
 30
0.0
 40
7.0
 41
0.0
 46
0.0
 71
     5
 72
     1
  1
D=60
 73
     1
 44
1.0
  0
POINT
  5
2F92
330
2795
100
AcDbEntity
  8
Defpoints
 62
     0
100
AcDbPoint
 10
161.4414509253091
 20
120.779534010126
 30
0.0
  0
POINT
  5
2F93
330
2795
100
AcDbEntity
  8
Defpoints
 62
     0
100
AcDbPoint
 10
221.4414589253091
 20
185.7795400101261
 30
0.0
  0
POINT
  5
2F94
330
2795
100
AcDbEntity
  8
Defpoints
 62
     0
100
AcDbPoint
 10
221.4414589253091
 20
96.77953301012609
 30
0.0
  0
ENDBLK
  5
27A0
330
2795
100
AcDbEntity
  8
0
100
AcDbBlockEnd
  0
BLOCK
  5
2833
330
2829
100
AcDbEntity
  8
0
100
AcDbBlockBegin
  2
*D24
 70
     1
 10
0.0
 20
0.0
 30
0.0
  3
*D24
  1

  0
LINE
  5
2835
330
2829
100
AcDbEntity
  8
AM_5
100
AcDbLine
 10
221.4414589253091
 20
185.7795400101261
 30
0.0
 11
221.4414589253091
 21
94.77953301012609
 31
0.0
  0
LINE
  5
2836
330
2829
100
AcDbEntity
  8
AM_5
100
AcDbLine
 10
250.9414649253091
 20
173.7795380101261
 30
0.0
 11
250.9414649253091
 21
94.77953301012609
 31
0.0
  0
LINE
  5
2837
330
2829
100
AcDbEntity
  8
AM_5
100
AcDbLine
 10
227.4414589253091
 20
96.7795330101261
 30
0.0
 11
244.9414649253091
 21
96.7795330101261
 31
0.0
  0
SOLID
  5
2838
330
2829
100
AcDbEntity
  8
AM_5
100
AcDbTrace
 10
227.4414589253091
 20
97.7795330101261
 30
0.0
 11
227.4414589253091
 21
95.77953301012611
 31
0.0
 12
221.4414589253091
 22
96.7795330101261
 32
0.0
 13
221.4414589253091
 23
96.7795330101261
 33
0.0
  0
SOLID
  5
2839
330
2829
100
AcDbEntity
  8
AM_5
100
AcDbTrace
 10
244.9414649253091
 20
97.7795330101261
 30
0.0
 11
244.9414649253091
 21
95.77953301012611
 31
0.0
 12
250.9414649253091
 22
96.7795330101261
 32
0.0
 13
250.9414649253091
 23
96.7795330101261
 33
0.0
  0
MTEXT
  5
283A
330
2829
100
AcDbEntity
  8
AM_5
 62
     2
100
AcDbMText
 10
236.1914619253091
 20
103.280221986504
 30
0.0
 40
7.0
 41
0.0
 46
0.0
 71
     5
 72
     1
  1
29.5
 73
     1
 44
1.0
  0
POINT
  5
283B
330
2829
100
AcDbEntity
  8
Defpoints
 62
     0
100
AcDbPoint
 10
221.4414589253091
 20
185.7795400101261
 30
0.0
  0
POINT
  5
283C
330
2829
100
AcDbEntity
  8
Defpoints
 62
     0
100
AcDbPoint
 10
250.9414649253091
 20
173.7795380101261
 30
0.0
  0
POINT
  5
283D
330
2829
100
AcDbEntity
  8
Defpoints
 62
     0
100
AcDbPoint
 10
250.9414649253091
 20
96.7795330101261
 30
0.0
  0
ENDBLK
  5
2834
330
2829
100
AcDbEntity
  8
0
100
AcDbBlockEnd
  0
BLOCK
  5
285B
330
2851
100
AcDbEntity
  8
0
100
AcDbBlockBegin
  2
*D25
 70
     1
 10
0.0
 20
0.0
 30
0.0
  3
*D25
  1

  0
LINE
  5
2FFA
330
2851
100
AcDbEntity
  8
AM_5
100
AcDbLine
 10
202.4414529253091
 20
174.356794010126
 30
0.0
 11
202.4414529253091
 21
134.6007957543103
 31
0.0
  0
LINE
  5
2FFB
330
2851
100
AcDbEntity
  8
AM_5
100
AcDbLine
 10
240.4414589253091
 20
174.356794010126
 30
0.0
 11
240.4414589253091
 21
134.6007957543103
 31
0.0
  0
LINE
  5
2FFC
330
2851
100
AcDbEntity
  8
AM_5
100
AcDbLine
 10
208.4414529253091
 20
136.6007957543103
 30
0.0
 11
234.4414589253091
 21
136.6007957543103
 31
0.0
  0
SOLID
  5
2FFD
330
2851
100
AcDbEntity
  8
AM_5
100
AcDbTrace
 10
208.4414529253091
 20
137.6007957543103
 30
0.0
 11
208.4414529253091
 21
135.6007957543103
 31
0.0
 12
202.4414529253091
 22
136.6007957543103
 32
0.0
 13
202.4414529253091
 23
136.6007957543103
 33
0.0
  0
SOLID
  5
2FFE
330
2851
100
AcDbEntity
  8
AM_5
100
AcDbTrace
 10
234.4414589253091
 20
137.6007957543103
 30
0.0
 11
234.4414589253091
 21
135.6007957543103
 31
0.0
 12
240.4414589253091
 22
136.6007957543103
 32
0.0
 13
240.4414589253091
 23
136.6007957543103
 33
0.0
  0
MTEXT
  5
2FFF
330
2851
100
AcDbEntity
  8
AM_5
 62
     2
100
AcDbMText
 10
231.0950569820442
 20
143.1007957543103
 30
0.0
 40
7.0
 41
0.0
 46
0.0
 71
     5
 72
     1
  1
38
 73
     1
 44
1.0
  0
POINT
  5
3000
330
2851
100
AcDbEntity
  8
Defpoints
 62
     0
100
AcDbPoint
 10
202.4414529253091
 20
174.356794010126
 30
0.0
  0
POINT
  5
3001
330
2851
100
AcDbEntity
  8
Defpoints
 62
     0
100
AcDbPoint
 10
240.4414589253091
 20
174.356794010126
 30
0.0
  0
POINT
  5
3002
330
2851
100
AcDbEntity
  8
Defpoints
 62
     0
100
AcDbPoint
 10
240.4414589253091
 20
136.6007957543103
 30
0.0
  0
ENDBLK
  5
285C
330
2851
100
AcDbEntity
  8
0
100
AcDbBlockEnd
  0
BLOCK
  5
289A
330
2890
100
AcDbEntity
  8
0
100
AcDbBlockBegin
  2
*D26
 70
     1
 10
0.0
 20
0.0
 30
0.0
  3
*D26
  1

  0
LINE
  5
291A
330
2890
100
AcDbEntity
  8
AM_5
100
AcDbLine
 10
164.4414509253091
 20
120.779534010126
 30
0.0
 11
289.7560608522518
 21
120.779534010126
 31
0.0
  0
LINE
  5
291B
330
2890
100
AcDbEntity
  8
AM_5
100
AcDbLine
 10
232.9414629253091
 20
155.7795400101261
 30
0.0
 11
289.7560608522518
 21
155.7795400101261
 31
0.0
  0
LINE
  5
291C
330
2890
100
AcDbEntity
  8
AM_5
100
AcDbLine
 10
287.7560608522518
 20
126.779534010126
 30
0.0
 11
287.7560608522518
 21
149.779540010126
 31
0.0
  0
SOLID
  5
291D
330
2890
100
AcDbEntity
  8
AM_5
100
AcDbTrace
 10
286.7560608522518
 20
126.779534010126
 30
0.0
 11
288.7560608522518
 21
126.779534010126
 31
0.0
 12
287.7560608522518
 22
120.779534010126
 32
0.0
 13
287.7560608522518
 23
120.779534010126
 33
0.0
  0
SOLID
  5
291E
330
2890
100
AcDbEntity
  8
AM_5
100
AcDbTrace
 10
286.7560608522518
 20
149.779540010126
 30
0.0
 11
288.7560608522518
 21
149.779540010126
 31
0.0
 12
287.7560608522518
 22
155.7795400101261
 32
0.0
 13
287.7560608522518
 23
155.7795400101261
 33
0.0
  0
MTEXT
  5
291F
330
2890
100
AcDbEntity
  8
AM_5
 62
     2
100
AcDbMText
 10
281.2560608522518
 20
138.279537010126
 30
0.0
 40
7.0
 41
0.0
 46
0.0
 71
     5
 72
     1
  1
35
 11
0.0000000000000001
 21
1.0
 31
0.0
 73
     1
 44
1.0
  0
POINT
  5
2920
330
2890
100
AcDbEntity
  8
Defpoints
 62
     0
100
AcDbPoint
 10
164.4414509253091
 20
120.779534010126
 30
0.0
  0
POINT
  5
2921
330
2890
100
AcDbEntity
  8
Defpoints
 62
     0
100
AcDbPoint
 10
232.9414629253091
 20
155.7795400101261
 30
0.0
  0
POINT
  5
2922
330
2890
100
AcDbEntity
  8
Defpoints
 62
     0
100
AcDbPoint
 10
287.7560608522518
 20
155.7795400101261
 30
0.0
  0
ENDBLK
  5
289B
330
2890
100
AcDbEntity
  8
0
100
AcDbBlockEnd
  0
BLOCK
  5
292E
330
2924
100
AcDbEntity
  8
0
100
AcDbBlockBegin
  2
*D27
 70
     1
 10
0.0
 20
0.0
 30
0.0
  3
*D27
  1

  0
LINE
  5
2930
330
2924
100
AcDbEntity
  8
AM_5
100
AcDbLine
 10
232.9414629253091
 20
155.7795400101261
 30
0.0
 11
289.7560608522518
 21
155.7795400101261
 31
0.0
  0
LINE
  5
2931
330
2924
100
AcDbEntity
  8
AM_5
100
AcDbLine
 10
232.9414649253091
 20
315.779550010126
 30
0.0
 11
289.7560608522518
 21
315.779550010126
 31
0.0
  0
LINE
  5
2932
330
2924
100
AcDbEntity
  8
AM_5
100
AcDbLine
 10
287.7560608522518
 20
161.7795400101261
 30
0.0
 11
287.7560608522518
 21
309.779550010126
 31
0.0
  0
SOLID
  5
2933
330
2924
100
AcDbEntity
  8
AM_5
100
AcDbTrace
 10
286.7560608522518
 20
161.7795400101261
 30
0.0
 11
288.7560608522518
 21
161.7795400101261
 31
0.0
 12
287.7560608522518
 22
155.7795400101261
 32
0.0
 13
287.7560608522518
 23
155.7795400101261
 33
0.0
  0
SOLID
  5
2934
330
2924
100
AcDbEntity
  8
AM_5
100
AcDbTrace
 10
286.7560608522518
 20
309.779550010126
 30
0.0
 11
288.7560608522518
 21
309.779550010126
 31
0.0
 12
287.7560608522518
 22
315.779550010126
 32
0.0
 13
287.7560608522518
 23
315.779550010126
 33
0.0
  0
MTEXT
  5
2935
330
2924
100
AcDbEntity
  8
AM_5
 62
     2
100
AcDbMText
 10
281.2560608522518
 20
235.7795450101261
 30
0.0
 40
7.0
 41
0.0
 46
0.0
 71
     5
 72
     1
  1
160
 11
0.0000000000000001
 21
1.0
 31
0.0
 73
     1
 44
1.0
  0
POINT
  5
2936
330
2924
100
AcDbEntity
  8
Defpoints
 62
     0
100
AcDbPoint
 10
232.9414629253091
 20
155.7795400101261
 30
0.0
  0
POINT
  5
2937
330
2924
100
AcDbEntity
  8
Defpoints
 62
     0
100
AcDbPoint
 10
232.9414649253091
 20
315.779550010126
 30
0.0
  0
POINT
  5
2938
330
2924
100
AcDbEntity
  8
Defpoints
 62
     0
100
AcDbPoint
 10
287.7560608522518
 20
315.779550010126
 30
0.0
  0
ENDBLK
  5
292F
330
2924
100
AcDbEntity
  8
0
100
AcDbBlockEnd
  0
BLOCK
  5
294A
330
2940
100
AcDbEntity
  8
0
100
AcDbBlockBegin
  2
*D28
 70
     1
 10
0.0
 20
0.0
 30
0.0
  3
*D28
  1

  0
LINE
  5
294C
330
2940
100
AcDbEntity
  8
AM_5
100
AcDbLine
 10
232.9414649253091
 20
315.779550010126
 30
0.0
 11
289.7560608522518
 21
315.779550010126
 31
0.0
  0
LINE
  5
294D
330
2940
100
AcDbEntity
  8
AM_5
100
AcDbLine
 10
164.441450925309
 20
350.7795800101261
 30
0.0
 11
289.7560608522518
 21
350.7795800101261
 31
0.0
  0
LINE
  5
294E
330
2940
100
AcDbEntity
  8
AM_5
100
AcDbLine
 10
287.7560608522518
 20
321.7795500101261
 30
0.0
 11
287.7560608522518
 21
344.7795800101261
 31
0.0
  0
SOLID
  5
294F
330
2940
100
AcDbEntity
  8
AM_5
100
AcDbTrace
 10
286.7560608522518
 20
321.7795500101261
 30
0.0
 11
288.7560608522518
 21
321.7795500101261
 31
0.0
 12
287.7560608522518
 22
315.779550010126
 32
0.0
 13
287.7560608522518
 23
315.779550010126
 33
0.0
  0
SOLID
  5
2950
330
2940
100
AcDbEntity
  8
AM_5
100
AcDbTrace
 10
286.7560608522518
 20
344.7795800101261
 30
0.0
 11
288.7560608522518
 21
344.7795800101261
 31
0.0
 12
287.7560608522518
 22
350.7795800101261
 32
0.0
 13
287.7560608522518
 23
350.7795800101261
 33
0.0
  0
MTEXT
  5
2951
330
2940
100
AcDbEntity
  8
AM_5
 62
     2
100
AcDbMText
 10
281.2560608522518
 20
333.2795650101261
 30
0.0
 40
7.0
 41
0.0
 46
0.0
 71
     5
 72
     1
  1
35
 11
0.0000000000000001
 21
1.0
 31
0.0
 73
     1
 44
1.0
  0
POINT
  5
2952
330
2940
100
AcDbEntity
  8
Defpoints
 62
     0
100
AcDbPoint
 10
232.9414649253091
 20
315.779550010126
 30
0.0
  0
POINT
  5
2953
330
2940
100
AcDbEntity
  8
Defpoints
 62
     0
100
AcDbPoint
 10
164.441450925309
 20
350.7795800101261
 30
0.0
  0
POINT
  5
2954
330
2940
100
AcDbEntity
  8
Defpoints
 62
     0
100
AcDbPoint
 10
287.7560608522518
 20
350.7795800101261
 30
0.0
  0
ENDBLK
  5
294B
330
2940
100
AcDbEntity
  8
0
100
AcDbBlockEnd
  0
BLOCK
  5
2972
330
2968
100
AcDbEntity
  8
0
100
AcDbBlockBegin
  2
*D29
 70
     1
 10
0.0
 20
0.0
 30
0.0
  3
*D29
  1

  0
LINE
  5
2A28
330
2968
100
AcDbEntity
  8
AM_5
100
AcDbLine
 10
232.9414629253091
 20
155.7795400101261
 30
0.0
 11
276.9414659253091
 21
155.7795400101261
 31
0.0
  0
LINE
  5
2A29
330
2968
100
AcDbEntity
  8
AM_5
100
AcDbLine
 10
235.8233069253091
 20
185.7795400101261
 30
0.0
 11
276.9414659253091
 21
185.7795400101261
 31
0.0
  0
LINE
  5
2A2A
330
2968
100
AcDbEntity
  8
AM_5
100
AcDbLine
 10
274.9414659253091
 20
161.7795400101261
 30
0.0
 11
274.9414659253091
 21
179.7795400101261
 31
0.0
  0
SOLID
  5
2A2B
330
2968
100
AcDbEntity
  8
AM_5
100
AcDbTrace
 10
273.9414659253091
 20
161.7795400101261
 30
0.0
 11
275.9414659253091
 21
161.7795400101261
 31
0.0
 12
274.9414659253091
 22
155.7795400101261
 32
0.0
 13
274.9414659253091
 23
155.7795400101261
 33
0.0
  0
SOLID
  5
2A2C
330
2968
100
AcDbEntity
  8
AM_5
100
AcDbTrace
 10
273.9414659253091
 20
179.7795400101261
 30
0.0
 11
275.9414659253091
 21
179.7795400101261
 31
0.0
 12
274.9414659253091
 22
185.7795400101261
 32
0.0
 13
274.9414659253091
 23
185.7795400101261
 33
0.0
  0
MTEXT
  5
2A2D
330
2968
100
AcDbEntity
  8
AM_5
 62
     2
100
AcDbMText
 10
268.4414659253091
 20
170.7795400101261
 30
0.0
 40
7.0
 41
0.0
 46
0.0
 71
     5
 72
     1
  1
30
 11
0.0000000000000001
 21
1.0
 31
0.0
 73
     1
 44
1.0
  0
POINT
  5
2A2E
330
2968
100
AcDbEntity
  8
Defpoints
 62
     0
100
AcDbPoint
 10
232.9414629253091
 20
155.7795400101261
 30
0.0
  0
POINT
  5
2A2F
330
2968
100
AcDbEntity
  8
Defpoints
 62
     0
100
AcDbPoint
 10
235.8233069253091
 20
185.7795400101261
 30
0.0
  0
POINT
  5
2A30
330
2968
100
AcDbEntity
  8
Defpoints
 62
     0
100
AcDbPoint
 10
274.9414659253091
 20
185.7795400101261
 30
0.0
  0
ENDBLK
  5
2973
330
2968
100
AcDbEntity
  8
0
100
AcDbBlockEnd
  0
BLOCK
  5
2A3C
330
2A32
100
AcDbEntity
  8
0
100
AcDbBlockBegin
  2
*D30
 70
     1
 10
0.0
 20
0.0
 30
0.0
  3
*D30
  1

  0
LINE
  5
2F96
330
2A32
100
AcDbEntity
  8
AM_5
100
AcDbLine
 10
235.8233069253091
 20
185.7795400101261
 30
0.0
 11
276.9414659253091
 21
185.7795400101261
 31
0.0
  0
LINE
  5
2F97
330
2A32
100
AcDbEntity
  8
AM_5
100
AcDbLine
 10
247.2181489253091
 20
263.779550010126
 30
0.0
 11
276.9414659253091
 21
263.779550010126
 31
0.0
  0
LINE
  5
2F98
330
2A32
100
AcDbEntity
  8
AM_5
100
AcDbLine
 10
274.9414659253091
 20
191.7795400101261
 30
0.0
 11
274.9414659253091
 21
257.779550010126
 31
0.0
  0
SOLID
  5
2F99
330
2A32
100
AcDbEntity
  8
AM_5
100
AcDbTrace
 10
273.941465925309
 20
191.7795400101261
 30
0.0
 11
275.941465925309
 21
191.7795400101261
 31
0.0
 12
274.9414659253091
 22
185.7795400101261
 32
0.0
 13
274.9414659253091
 23
185.7795400101261
 33
0.0
  0
SOLID
  5
2F9A
330
2A32
100
AcDbEntity
  8
AM_5
100
AcDbTrace
 10
273.941465925309
 20
257.779550010126
 30
0.0
 11
275.941465925309
 21
257.779550010126
 31
0.0
 12
274.9414659253091
 22
263.779550010126
 32
0.0
 13
274.9414659253091
 23
263.779550010126
 33
0.0
  0
MTEXT
  5
2F9B
330
2A32
100
AcDbEntity
  8
AM_5
 62
     2
100
AcDbMText
 10
268.441465925309
 20
224.7795450101261
 30
0.0
 40
7.0
 41
0.0
 46
0.0
 71
     5
 72
     1
  1
E=78
 11
0.0000000000000001
 21
1.0
 31
0.0
 73
     1
 44
1.0
  0
POINT
  5
2F9C
330
2A32
100
AcDbEntity
  8
Defpoints
 62
     0
100
AcDbPoint
 10
235.8233069253091
 20
185.7795400101261
 30
0.0
  0
POINT
  5
2F9D
330
2A32
100
AcDbEntity
  8
Defpoints
 62
     0
100
AcDbPoint
 10
247.2181489253091
 20
263.779550010126
 30
0.0
  0
POINT
  5
2F9E
330
2A32
100
AcDbEntity
  8
Defpoints
 62
     0
100
AcDbPoint
 10
274.9414659253091
 20
263.779550010126
 30
0.0
  0
ENDBLK
  5
2A3D
330
2A32
100
AcDbEntity
  8
0
100
AcDbBlockEnd
  0
BLOCK
  5
2A58
330
2A4E
100
AcDbEntity
  8
0
100
AcDbBlockBegin
  2
*D31
 70
     1
 10
0.0
 20
0.0
 30
0.0
  3
*D31
  1

  0
LINE
  5
2A5A
330
2A4E
100
AcDbEntity
  8
AM_5
100
AcDbLine
 10
247.2181489253091
 20
263.779550010126
 30
0.0
 11
276.941465925309
 21
263.779550010126
 31
0.0
  0
LINE
  5
2A5B
330
2A4E
100
AcDbEntity
  8
AM_5
100
AcDbLine
 10
232.9414649253091
 20
315.779550010126
 30
0.0
 11
276.941465925309
 21
315.779550010126
 31
0.0
  0
LINE
  5
2A5C
330
2A4E
100
AcDbEntity
  8
AM_5
100
AcDbLine
 10
274.941465925309
 20
269.7795500101261
 30
0.0
 11
274.941465925309
 21
309.779550010126
 31
0.0
  0
SOLID
  5
2A5D
330
2A4E
100
AcDbEntity
  8
AM_5
100
AcDbTrace
 10
273.941465925309
 20
269.7795500101261
 30
0.0
 11
275.941465925309
 21
269.7795500101261
 31
0.0
 12
274.941465925309
 22
263.779550010126
 32
0.0
 13
274.941465925309
 23
263.779550010126
 33
0.0
  0
SOLID
  5
2A5E
330
2A4E
100
AcDbEntity
  8
AM_5
100
AcDbTrace
 10
273.941465925309
 20
309.779550010126
 30
0.0
 11
275.941465925309
 21
309.779550010126
 31
0.0
 12
274.941465925309
 22
315.779550010126
 32
0.0
 13
274.941465925309
 23
315.779550010126
 33
0.0
  0
MTEXT
  5
2A5F
330
2A4E
100
AcDbEntity
  8
AM_5
 62
     2
100
AcDbMText
 10
268.440776948931
 20
289.7795500101261
 30
0.0
 40
7.0
 41
0.0
 46
0.0
 71
     5
 72
     1
  1
52
 11
0.0000000000000001
 21
1.0
 31
0.0
 73
     1
 44
1.0
  0
POINT
  5
2A60
330
2A4E
100
AcDbEntity
  8
Defpoints
 62
     0
100
AcDbPoint
 10
247.2181489253091
 20
263.779550010126
 30
0.0
  0
POINT
  5
2A61
330
2A4E
100
AcDbEntity
  8
Defpoints
 62
     0
100
AcDbPoint
 10
232.9414649253091
 20
315.779550010126
 30
0.0
  0
POINT
  5
2A62
330
2A4E
100
AcDbEntity
  8
Defpoints
 62
     0
100
AcDbPoint
 10
274.941465925309
 20
315.779550010126
 30
0.0
  0
ENDBLK
  5
2A59
330
2A4E
100
AcDbEntity
  8
0
100
AcDbBlockEnd
  0
BLOCK
  5
2ACC
330
2AC0
100
AcDbEntity
  8
0
100
AcDbBlockBegin
  2
*D32
 70
     1
 10
0.0
 20
0.0
 30
0.0
  3
*D32
  1

  0
LINE
  5
2AEF
330
2AC0
100
AcDbEntity
  8
AM_5
100
AcDbLine
 10
246.6543589253091
 20
178.279538010126
 30
0.0
 11
265.1236744671136
 21
178.279538010126
 31
0.0
  0
LINE
  5
2AF0
330
2AC0
100
AcDbEntity
  8
AM_5
100
AcDbLine
 10
232.5414589253091
 20
185.7795400101261
 30
0.0
 11
265.1236744671136
 21
185.7795400101261
 31
0.0
  0
LINE
  5
2AF1
330
2AC0
100
AcDbEntity
  8
AM_5
100
AcDbLine
 10
263.1236744671136
 20
172.2795380101261
 30
0.0
 11
263.1236744671136
 21
166.2795380101261
 31
0.0
  0
LINE
  5
2AF2
330
2AC0
100
AcDbEntity
  8
AM_5
100
AcDbLine
 10
263.1236744671136
 20
191.7795400101261
 30
0.0
 11
263.1236744671136
 21
213.8694895037872
 31
0.0
  0
LINE
  5
2AF3
330
2AC0
100
AcDbEntity
  8
AM_5
100
AcDbLine
 10
263.1236744671136
 20
178.279538010126
 30
0.0
 11
263.1236744671136
 21
185.7795400101261
 31
0.0
  0
SOLID
  5
2AF4
330
2AC0
100
AcDbEntity
  8
AM_5
100
AcDbTrace
 10
262.1236744671136
 20
172.2795380101261
 30
0.0
 11
264.1236744671136
 21
172.2795380101261
 31
0.0
 12
263.1236744671136
 22
178.279538010126
 32
0.0
 13
263.1236744671136
 23
178.279538010126
 33
0.0
  0
SOLID
  5
2AF5
330
2AC0
100
AcDbEntity
  8
AM_5
100
AcDbTrace
 10
262.1236744671136
 20
191.7795400101261
 30
0.0
 11
264.1236744671136
 21
191.7795400101261
 31
0.0
 12
263.1236744671136
 22
185.7795400101261
 32
0.0
 13
263.1236744671136
 23
185.7795400101261
 33
0.0
  0
MTEXT
  5
2AF6
330
2AC0
100
AcDbEntity
  8
AM_5
 62
     2
100
AcDbMText
 10
256.6236744671135
 20
205.8245147569567
 30
0.0
 40
7.0
 41
0.0
 46
0.0
 71
     5
 72
     1
  1
7.5
 11
0.0000000000000001
 21
1.0
 31
0.0
 73
     1
 44
1.0
  0
POINT
  5
2AF7
330
2AC0
100
AcDbEntity
  8
Defpoints
 62
     0
100
AcDbPoint
 10
246.6543589253091
 20
178.279538010126
 30
0.0
  0
POINT
  5
2AF8
330
2AC0
100
AcDbEntity
  8
Defpoints
 62
     0
100
AcDbPoint
 10
232.5414589253091
 20
185.7795400101261
 30
0.0
  0
POINT
  5
2AF9
330
2AC0
100
AcDbEntity
  8
Defpoints
 62
     0
100
AcDbPoint
 10
263.1236744671136
 20
185.7795400101261
 30
0.0
  0
ENDBLK
  5
2ACD
330
2AC0
100
AcDbEntity
  8
0
100
AcDbBlockEnd
  0
BLOCK
  5
2B13
330
2B09
100
AcDbEntity
  8
0
100
AcDbBlockBegin
  2
*D33
 70
     1
 10
0.0
 20
0.0
 30
0.0
  3
*D33
  1

  0
LINE
  5
2B4B
330
2B09
100
AcDbEntity
  8
AM_5
100
AcDbLine
 10
247.2181489253091
 20
263.779550010126
 30
0.0
 11
265.4968929176858
 21
263.779550010126
 31
0.0
  0
LINE
  5
2B4C
330
2B09
100
AcDbEntity
  8
AM_5
100
AcDbLine
 10
227.8164589253091
 20
242.1795440101261
 30
0.0
 11
265.4968929176858
 21
242.1795440101261
 31
0.0
  0
LINE
  5
2B4D
330
2B09
100
AcDbEntity
  8
AM_5
100
AcDbLine
 10
263.4968929176858
 20
257.779550010126
 30
0.0
 11
263.4968929176858
 21
248.1795440101261
 31
0.0
  0
SOLID
  5
2B4E
330
2B09
100
AcDbEntity
  8
AM_5
100
AcDbTrace
 10
262.4968929176858
 20
257.779550010126
 30
0.0
 11
264.4968929176858
 21
257.779550010126
 31
0.0
 12
263.4968929176858
 22
263.779550010126
 32
0.0
 13
263.4968929176858
 23
263.779550010126
 33
0.0
  0
SOLID
  5
2B4F
330
2B09
100
AcDbEntity
  8
AM_5
100
AcDbTrace
 10
262.4968929176858
 20
248.1795440101261
 30
0.0
 11
264.4968929176858
 21
248.1795440101261
 31
0.0
 12
263.4968929176858
 22
242.1795440101261
 32
0.0
 13
263.4968929176858
 23
242.1795440101261
 33
0.0
  0
MTEXT
  5
2B50
330
2B09
100
AcDbEntity
  8
AM_5
 62
     2
100
AcDbMText
 10
256.9962039413078
 20
252.9795470101261
 30
0.0
 40
7.0
 41
0.0
 46
0.0
 71
     5
 72
     1
  1
21.6
 11
0.0000000000000001
 21
1.0
 31
0.0
 73
     1
 44
1.0
  0
POINT
  5
2B51
330
2B09
100
AcDbEntity
  8
Defpoints
 62
     0
100
AcDbPoint
 10
247.2181489253091
 20
263.779550010126
 30
0.0
  0
POINT
  5
2B52
330
2B09
100
AcDbEntity
  8
Defpoints
 62
     0
100
AcDbPoint
 10
227.8164589253091
 20
242.1795440101261
 30
0.0
  0
POINT
  5
2B53
330
2B09
100
AcDbEntity
  8
Defpoints
 62
     0
100
AcDbPoint
 10
263.4968929176858
 20
242.1795440101261
 30
0.0
  0
ENDBLK
  5
2B14
330
2B09
100
AcDbEntity
  8
0
100
AcDbBlockEnd
  0
BLOCK
  5
2B67
330
2B5B
100
AcDbEntity
  8
0
100
AcDbBlockBegin
  2
*D34
 70
     1
 10
0.0
 20
0.0
 30
0.0
  3
*D34
  1

  0
LINE
  5
2B8A
330
2B5B
100
AcDbEntity
  8
AM_5
100
AcDbLine
 10
250.9414829253091
 20
50.57953801012605
 30
0.0
 11
276.941482925309
 21
50.57953801012604
 31
0.0
  0
LINE
  5
2B8B
330
2B5B
100
AcDbEntity
  8
AM_5
100
AcDbLine
 10
250.9414829253091
 20
63.77955001012606
 30
0.0
 11
276.941482925309
 21
63.77955001012605
 31
0.0
  0
LINE
  5
2B8C
330
2B5B
100
AcDbEntity
  8
AM_5
100
AcDbLine
 10
274.941482925309
 20
44.57953801012603
 30
0.0
 11
274.941482925309
 21
38.57953801012604
 31
0.0
  0
LINE
  5
2B8D
330
2B5B
100
AcDbEntity
  8
AM_5
100
AcDbLine
 10
274.941482925309
 20
69.77955001012606
 30
0.0
 11
274.941482925309
 21
95.49996339595281
 31
0.0
  0
LINE
  5
2B8E
330
2B5B
100
AcDbEntity
  8
AM_5
100
AcDbLine
 10
274.941482925309
 20
50.57953801012604
 30
0.0
 11
274.941482925309
 21
63.77955001012605
 31
0.0
  0
SOLID
  5
2B8F
330
2B5B
100
AcDbEntity
  8
AM_5
100
AcDbTrace
 10
273.9414829253091
 20
44.57953801012603
 30
0.0
 11
275.9414829253091
 21
44.57953801012603
 31
0.0
 12
274.941482925309
 22
50.57953801012604
 32
0.0
 13
274.941482925309
 23
50.57953801012604
 33
0.0
  0
SOLID
  5
2B90
330
2B5B
100
AcDbEntity
  8
AM_5
100
AcDbTrace
 10
273.9414829253091
 20
69.77955001012606
 30
0.0
 11
275.9414829253091
 21
69.77955001012606
 31
0.0
 12
274.941482925309
 22
63.77955001012605
 32
0.0
 13
274.941482925309
 23
63.77955001012605
 33
0.0
  0
MTEXT
  5
2B91
330
2B5B
100
AcDbEntity
  8
AM_5
 62
     2
100
AcDbMText
 10
268.4407939489311
 20
85.63975670303948
 30
0.0
 40
7.0
 41
0.0
 46
0.0
 71
     5
 72
     1
  1
13.2
 11
0.0000000000000001
 21
1.0
 31
0.0
 73
     1
 44
1.0
  0
POINT
  5
2B92
330
2B5B
100
AcDbEntity
  8
Defpoints
 62
     0
100
AcDbPoint
 10
250.9414829253091
 20
50.57953801012605
 30
0.0
  0
POINT
  5
2B93
330
2B5B
100
AcDbEntity
  8
Defpoints
 62
     0
100
AcDbPoint
 10
250.9414829253091
 20
63.77955001012606
 30
0.0
  0
POINT
  5
2B94
330
2B5B
100
AcDbEntity
  8
Defpoints
 62
     0
100
AcDbPoint
 10
274.941482925309
 20
63.77955001012605
 30
0.0
  0
ENDBLK
  5
2B68
330
2B5B
100
AcDbEntity
  8
0
100
AcDbBlockEnd
  0
BLOCK
  5
2BB0
330
2BA4
100
AcDbEntity
  8
0
100
AcDbBlockBegin
  2
*D35
 70
     1
 10
0.0
 20
0.0
 30
0.0
  3
*D35
  1

  0
LINE
  5
3192
330
2BA4
100
AcDbEntity
  8
AM_5
100
AcDbLine
 10
164.4414589253091
 20
65.17955201012603
 30
0.0
 11
185.0179499022323
 21
65.17955201012603
 31
0.0
  0
LINE
  5
3193
330
2BA4
100
AcDbEntity
  8
AM_5
100
AcDbLine
 10
164.4414589253091
 20
63.77955001012606
 30
0.0
 11
185.0179499022323
 21
63.77955001012605
 31
0.0
  0
LINE
  5
3194
330
2BA4
100
AcDbEntity
  8
AM_5
100
AcDbLine
 10
183.0179499022323
 20
57.77955001012605
 30
0.0
 11
183.0179499022323
 21
51.77955001012605
 31
0.0
  0
LINE
  5
3195
330
2BA4
100
AcDbEntity
  8
AM_5
100
AcDbLine
 10
183.0179499022323
 20
71.17955201012603
 30
0.0
 11
183.0179499022323
 21
93.48621817416194
 31
0.0
  0
LINE
  5
3196
330
2BA4
100
AcDbEntity
  8
AM_5
100
AcDbLine
 10
183.0179499022323
 20
63.77955001012605
 30
0.0
 11
183.0179499022323
 21
65.17955201012603
 31
0.0
  0
SOLID
  5
3197
330
2BA4
100
AcDbEntity
  8
AM_5
100
AcDbTrace
 10
182.0179499022323
 20
57.77955001012605
 30
0.0
 11
184.0179499022323
 21
57.77955001012605
 31
0.0
 12
183.0179499022323
 22
63.77955001012605
 32
0.0
 13
183.0179499022323
 23
63.77955001012605
 33
0.0
  0
SOLID
  5
3198
330
2BA4
100
AcDbEntity
  8
AM_5
100
AcDbTrace
 10
182.0179499022323
 20
71.17955201012603
 30
0.0
 11
184.0179499022323
 21
71.17955201012603
 31
0.0
 12
183.0179499022323
 22
65.17955201012603
 32
0.0
 13
183.0179499022323
 23
65.17955201012603
 33
0.0
  0
MTEXT
  5
3199
330
2BA4
100
AcDbEntity
  8
AM_5
 62
     2
100
AcDbMText
 10
176.5179499022323
 20
85.33288509214402
 30
0.0
 40
7.0
 41
0.0
 46
0.0
 71
     5
 72
     1
  1
0.9
 11
0.0000000000000001
 21
1.0
 31
0.0
 73
     1
 44
1.0
  0
POINT
  5
319A
330
2BA4
100
AcDbEntity
  8
Defpoints
 62
     0
100
AcDbPoint
 10
164.4414589253091
 20
65.17955201012603
 30
0.0
  0
POINT
  5
319B
330
2BA4
100
AcDbEntity
  8
Defpoints
 62
     0
100
AcDbPoint
 10
164.4414589253091
 20
63.77955001012606
 30
0.0
  0
POINT
  5
319C
330
2BA4
100
AcDbEntity
  8
Defpoints
 62
     0
100
AcDbPoint
 10
183.0179499022323
 20
63.77955001012605
 30
0.0
  0
ENDBLK
  5
2BB1
330
2BA4
100
AcDbEntity
  8
0
100
AcDbBlockEnd
  0
BLOCK
  5
2BF9
330
2BED
100
AcDbEntity
  8
0
100
AcDbBlockBegin
  2
*D36
 70
     1
 10
0.0
 20
0.0
 30
0.0
  3
*D36
  1

  0
LINE
  5
2C1C
330
2BED
100
AcDbEntity
  8
AM_5
100
AcDbLine
 10
161.4414589253091
 20
46.67954401012605
 30
0.0
 11
161.4414589253091
 21
20.67951401012607
 31
0.0
  0
LINE
  5
2C1D
330
2BED
100
AcDbEntity
  8
AM_5
100
AcDbLine
 10
164.4414589253091
 20
46.67951401012607
 30
0.0
 11
164.4414589253091
 21
20.67951401012607
 31
0.0
  0
LINE
  5
2C1E
330
2BED
100
AcDbEntity
  8
AM_5
100
AcDbLine
 10
155.4414589253091
 20
22.67951401012608
 30
0.0
 11
149.4414589253091
 21
22.67951401012608
 31
0.0
  0
LINE
  5
2C1F
330
2BED
100
AcDbEntity
  8
AM_5
100
AcDbLine
 10
170.4414589253091
 20
22.67951401012608
 30
0.0
 11
185.5314084189703
 21
22.67951401012608
 31
0.0
  0
LINE
  5
2C20
330
2BED
100
AcDbEntity
  8
AM_5
100
AcDbLine
 10
161.4414589253091
 20
22.67951401012608
 30
0.0
 11
164.4414589253091
 21
22.67951401012608
 31
0.0
  0
SOLID
  5
2C21
330
2BED
100
AcDbEntity
  8
AM_5
100
AcDbTrace
 10
155.4414589253091
 20
23.67951401012607
 30
0.0
 11
155.4414589253091
 21
21.67951401012607
 31
0.0
 12
161.4414589253091
 22
22.67951401012608
 32
0.0
 13
161.4414589253091
 23
22.67951401012608
 33
0.0
  0
SOLID
  5
2C22
330
2BED
100
AcDbEntity
  8
AM_5
100
AcDbTrace
 10
170.4414589253091
 20
23.67951401012607
 30
0.0
 11
170.4414589253091
 21
21.67951401012607
 31
0.0
 12
164.4414589253091
 22
22.67951401012608
 32
0.0
 13
164.4414589253091
 23
22.67951401012608
 33
0.0
  0
MTEXT
  5
2C23
330
2BED
100
AcDbEntity
  8
AM_5
 62
     2
100
AcDbMText
 10
180.9864336721397
 20
29.17951401012608
 30
0.0
 40
7.0
 41
0.0
 46
0.0
 71
     5
 72
     1
  1
3
 73
     1
 44
1.0
  0
POINT
  5
2C24
330
2BED
100
AcDbEntity
  8
Defpoints
 62
     0
100
AcDbPoint
 10
161.4414589253091
 20
46.67954401012605
 30
0.0
  0
POINT
  5
2C25
330
2BED
100
AcDbEntity
  8
Defpoints
 62
     0
100
AcDbPoint
 10
164.4414589253091
 20
46.67951401012607
 30
0.0
  0
POINT
  5
2C26
330
2BED
100
AcDbEntity
  8
Defpoints
 62
     0
100
AcDbPoint
 10
164.4414589253091
 20
22.67951401012608
 30
0.0
  0
ENDBLK
  5
2BFA
330
2BED
100
AcDbEntity
  8
0
100
AcDbBlockEnd
  0
BLOCK
  5
2C42
330
2C36
100
AcDbEntity
  8
0
100
AcDbBlockBegin
  2
*D37
 70
     1
 10
0.0
 20
0.0
 30
0.0
  3
*D37
  1

  0
LINE
  5
32D8
330
2C36
100
AcDbEntity
  8
AM_5
100
AcDbLine
 10
340.5414569253093
 20
129.7795297554091
 30
0.0
 11
340.5414569253093
 21
94.7795299091133
 31
0.0
  0
LINE
  5
32D9
330
2C36
100
AcDbEntity
  8
AM_5
100
AcDbLine
 10
358.5414429253091
 20
129.7636555082811
 30
0.0
 11
358.5414429253091
 21
94.7795299091133
 31
0.0
  0
LINE
  5
32DA
330
2C36
100
AcDbEntity
  8
AM_5
100
AcDbLine
 10
334.5414569253093
 20
96.77952990911329
 30
0.0
 11
328.5414569253093
 21
96.77952990911329
 31
0.0
  0
LINE
  5
32DB
330
2C36
100
AcDbEntity
  8
AM_5
100
AcDbLine
 10
364.5414429253091
 20
96.77952990911329
 30
0.0
 11
370.5414429253091
 21
96.77952990911329
 31
0.0
  0
LINE
  5
32DC
330
2C36
100
AcDbEntity
  8
AM_5
100
AcDbLine
 10
340.5414569253093
 20
96.77952990911329
 30
0.0
 11
358.5414429253091
 21
96.77952990911329
 31
0.0
  0
SOLID
  5
32DD
330
2C36
100
AcDbEntity
  8
AM_5
100
AcDbTrace
 10
334.5414569253093
 20
97.7795299091133
 30
0.0
 11
334.5414569253093
 21
95.77952990911329
 31
0.0
 12
340.5414569253093
 22
96.77952990911329
 32
0.0
 13
340.5414569253093
 23
96.77952990911329
 33
0.0
  0
SOLID
  5
32DE
330
2C36
100
AcDbEntity
  8
AM_5
100
AcDbTrace
 10
364.5414429253091
 20
97.7795299091133
 30
0.0
 11
364.5414429253091
 21
95.77952990911329
 31
0.0
 12
358.5414429253091
 22
96.77952990911329
 32
0.0
 13
358.5414429253091
 23
96.77952990911329
 33
0.0
  0
MTEXT
  5
32DF
330
2C36
100
AcDbEntity
  8
AM_5
 62
     2
100
AcDbMText
 10
349.5414499253091
 20
103.2795299091133
 30
0.0
 40
7.0
 41
0.0
 46
0.0
 71
     5
 72
     1
  1
18
 73
     1
 44
1.0
  0
POINT
  5
32E0
330
2C36
100
AcDbEntity
  8
Defpoints
 62
     0
100
AcDbPoint
 10
340.5414569253093
 20
129.7795297554091
 30
0.0
  0
POINT
  5
32E1
330
2C36
100
AcDbEntity
  8
Defpoints
 62
     0
100
AcDbPoint
 10
358.5414429253091
 20
129.7636555082811
 30
0.0
  0
POINT
  5
32E2
330
2C36
100
AcDbEntity
  8
Defpoints
 62
     0
100
AcDbPoint
 10
358.5414429253091
 20
96.77952990911329
 30
0.0
  0
ENDBLK
  5
2C43
330
2C36
100
AcDbEntity
  8
0
100
AcDbBlockEnd
  0
BLOCK
  5
2C8B
330
2C7F
100
AcDbEntity
  8
0
100
AcDbBlockBegin
  2
*D38
 70
     1
 10
0.0
 20
0.0
 30
0.0
  3
*D38
  1

  0
LINE
  5
32E3
330
2C7F
100
AcDbEntity
  8
AM_5
100
AcDbLine
 10
349.5414569253093
 20
120.7795300101261
 30
0.0
 11
314.5414559830522
 21
120.7795300101261
 31
0.0
  0
LINE
  5
32E4
330
2C7F
100
AcDbEntity
  8
AM_5
100
AcDbLine
 10
342.416442925309
 20
129.779520010126
 30
0.0
 11
314.5414559830522
 21
129.779520010126
 31
0.0
  0
LINE
  5
32E5
330
2C7F
100
AcDbEntity
  8
AM_5
100
AcDbLine
 10
316.5414559830522
 20
114.7795300101261
 30
0.0
 11
316.5414559830522
 21
108.7795300101261
 31
0.0
  0
LINE
  5
32E6
330
2C7F
100
AcDbEntity
  8
AM_5
100
AcDbLine
 10
316.5414559830523
 20
135.779520010126
 30
0.0
 11
316.5414559830523
 21
141.779520010126
 31
0.0
  0
LINE
  5
32E7
330
2C7F
100
AcDbEntity
  8
AM_5
100
AcDbLine
 10
316.5414559830522
 20
120.7795300101261
 30
0.0
 11
316.5414559830523
 21
129.779520010126
 31
0.0
  0
SOLID
  5
32E8
330
2C7F
100
AcDbEntity
  8
AM_5
100
AcDbTrace
 10
315.5414559830522
 20
114.7795300101261
 30
0.0
 11
317.5414559830522
 21
114.7795300101261
 31
0.0
 12
316.5414559830522
 22
120.7795300101261
 32
0.0
 13
316.5414559830522
 23
120.7795300101261
 33
0.0
  0
SOLID
  5
32E9
330
2C7F
100
AcDbEntity
  8
AM_5
100
AcDbTrace
 10
315.5414559830522
 20
135.779520010126
 30
0.0
 11
317.5414559830522
 21
135.779520010126
 31
0.0
 12
316.5414559830523
 22
129.779520010126
 32
0.0
 13
316.5414559830523
 23
129.779520010126
 33
0.0
  0
MTEXT
  5
32EA
330
2C7F
100
AcDbEntity
  8
AM_5
 62
     2
100
AcDbMText
 10
310.0414559830522
 20
125.2795250101261
 30
0.0
 40
7.0
 41
0.0
 46
0.0
 71
     5
 72
     1
  1
9
 11
0.0000000000000001
 21
1.0
 31
0.0
 73
     1
 44
1.0
  0
POINT
  5
32EB
330
2C7F
100
AcDbEntity
  8
Defpoints
 62
     0
100
AcDbPoint
 10
349.5414569253093
 20
120.7795300101261
 30
0.0
  0
POINT
  5
32EC
330
2C7F
100
AcDbEntity
  8
Defpoints
 62
     0
100
AcDbPoint
 10
342.416442925309
 20
129.779520010126
 30
0.0
  0
POINT
  5
32ED
330
2C7F
100
AcDbEntity
  8
Defpoints
 62
     0
100
AcDbPoint
 10
316.5414559830523
 20
129.779520010126
 30
0.0
  0
ENDBLK
  5
2C8C
330
2C7F
100
AcDbEntity
  8
0
100
AcDbBlockEnd
  0
BLOCK
  5
2D3B
330
2D31
100
AcDbEntity
  8
0
100
AcDbBlockBegin
  2
*D39
 70
     1
 10
0.0
 20
0.0
 30
0.0
  3
*D39
  1

  0
LINE
  5
2E88
330
2D31
100
AcDbEntity
  8
AM_5
100
AcDbLine
 10
342.416426925309
 20
341.779566010126
 30
0.0
 11
314.6434216935985
 21
341.779566010126
 31
0.0
  0
LINE
  5
2E89
330
2D31
100
AcDbEntity
  8
AM_5
100
AcDbLine
 10
342.416442925309
 20
129.779520010126
 30
0.0
 11
314.6434216935985
 21
129.779520010126
 31
0.0
  0
LINE
  5
2E8A
330
2D31
100
AcDbEntity
  8
AM_5
100
AcDbLine
 10
316.6434216935985
 20
335.779566010126
 30
0.0
 11
316.6434216935985
 21
135.779520010126
 31
0.0
  0
SOLID
  5
2E8B
330
2D31
100
AcDbEntity
  8
AM_5
100
AcDbTrace
 10
315.6434216935985
 20
335.779566010126
 30
0.0
 11
317.6434216935985
 21
335.779566010126
 31
0.0
 12
316.6434216935985
 22
341.779566010126
 32
0.0
 13
316.6434216935985
 23
341.779566010126
 33
0.0
  0
SOLID
  5
2E8C
330
2D31
100
AcDbEntity
  8
AM_5
100
AcDbTrace
 10
315.6434216935985
 20
135.779520010126
 30
0.0
 11
317.6434216935985
 21
135.779520010126
 31
0.0
 12
316.6434216935985
 22
129.779520010126
 32
0.0
 13
316.6434216935985
 23
129.779520010126
 33
0.0
  0
MTEXT
  5
2E8D
330
2D31
100
AcDbEntity
  8
AM_5
 62
     2
100
AcDbMText
 10
310.1427327172205
 20
235.779543010126
 30
0.0
 40
7.0
 41
0.0
 46
0.0
 71
     5
 72
     1
  1
212
 11
0.0000000000000001
 21
1.0
 31
0.0
 73
     1
 44
1.0
  0
POINT
  5
2E8E
330
2D31
100
AcDbEntity
  8
Defpoints
 62
     0
100
AcDbPoint
 10
342.416426925309
 20
341.779566010126
 30
0.0
  0
POINT
  5
2E8F
330
2D31
100
AcDbEntity
  8
Defpoints
 62
     0
100
AcDbPoint
 10
342.416442925309
 20
129.779520010126
 30
0.0
  0
POINT
  5
2E90
330
2D31
100
AcDbEntity
  8
Defpoints
 62
     0
100
AcDbPoint
 10
316.6434216935985
 20
129.779520010126
 30
0.0
  0
ENDBLK
  5
2D3C
330
2D31
100
AcDbEntity
  8
0
100
AcDbBlockEnd
  0
BLOCK
  5
2D79
330
2D6D
100
AcDbEntity
  8
0
100
AcDbBlockBegin
  2
*D40
 70
     1
 10
0.0
 20
0.0
 30
0.0
  3
*D40
  1

  0
LINE
  5
2D9C
330
2D6D
100
AcDbEntity
  8
AM_5
100
AcDbLine
 10
343.9413989253091
 20
300.779596010126
 30
0.0
 11
343.9413989253091
 21
315.177826252899
 31
0.0
  0
LINE
  5
2D9D
330
2D6D
100
AcDbEntity
  8
AM_5
100
AcDbLine
 10
354.4414509253091
 20
297.2795500101261
 30
0.0
 11
354.4414509253091
 21
315.177826252899
 31
0.0
  0
LINE
  5
2D9E
330
2D6D
100
AcDbEntity
  8
AM_5
100
AcDbLine
 10
337.941398925309
 20
313.177826252899
 30
0.0
 11
331.941398925309
 21
313.177826252899
 31
0.0
  0
LINE
  5
2D9F
330
2D6D
100
AcDbEntity
  8
AM_5
100
AcDbLine
 10
360.4414509253091
 20
313.177826252899
 30
0.0
 11
386.0314004189703
 21
313.177826252899
 31
0.0
  0
LINE
  5
2DA0
330
2D6D
100
AcDbEntity
  8
AM_5
100
AcDbLine
 10
343.9413989253091
 20
313.177826252899
 30
0.0
 11
354.4414509253091
 21
313.177826252899
 31
0.0
  0
SOLID
  5
2DA1
330
2D6D
100
AcDbEntity
  8
AM_5
100
AcDbTrace
 10
337.941398925309
 20
314.177826252899
 30
0.0
 11
337.941398925309
 21
312.177826252899
 31
0.0
 12
343.9413989253091
 22
313.177826252899
 32
0.0
 13
343.9413989253091
 23
313.177826252899
 33
0.0
  0
SOLID
  5
2DA2
330
2D6D
100
AcDbEntity
  8
AM_5
100
AcDbTrace
 10
360.4414509253091
 20
314.177826252899
 30
0.0
 11
360.4414509253091
 21
312.177826252899
 31
0.0
 12
354.4414509253091
 22
313.177826252899
 32
0.0
 13
354.4414509253091
 23
313.177826252899
 33
0.0
  0
MTEXT
  5
2DA3
330
2D6D
100
AcDbEntity
  8
AM_5
 62
     2
100
AcDbMText
 10
376.2364256721397
 20
319.677826252899
 30
0.0
 40
7.0
 41
0.0
 46
0.0
 71
     5
 72
     1
  1
10.5
 73
     1
 44
1.0
  0
POINT
  5
2DA4
330
2D6D
100
AcDbEntity
  8
Defpoints
 62
     0
100
AcDbPoint
 10
343.9413989253091
 20
300.779596010126
 30
0.0
  0
POINT
  5
2DA5
330
2D6D
100
AcDbEntity
  8
Defpoints
 62
     0
100
AcDbPoint
 10
354.4414509253091
 20
297.2795500101261
 30
0.0
  0
POINT
  5
2DA6
330
2D6D
100
AcDbEntity
  8
Defpoints
 62
     0
100
AcDbPoint
 10
354.4414509253091
 20
313.177826252899
 30
0.0
  0
ENDBLK
  5
2D7A
330
2D6D
100
AcDbEntity
  8
0
100
AcDbBlockEnd
  0
BLOCK
  5
2DC2
330
2DB6
100
AcDbEntity
  8
0
100
AcDbBlockBegin
  2
*D41
 70
     1
 10
0.0
 20
0.0
 30
0.0
  3
*D41
  1

  0
LINE
  5
307B
330
2DB6
100
AcDbEntity
  8
AM_5
100
AcDbLine
 10
343.9414209253091
 20
287.0597210126
 30
0.0
 11
343.9414209253091
 21
284.1875625558946
 31
0.0
  0
LINE
  5
307C
330
2DB6
100
AcDbEntity
  8
AM_5
100
AcDbLine
 10
340.5414524739837
 20
287.0597209163745
 30
0.0
 11
340.5414524739837
 21
284.1875625558946
 31
0.0
  0
LINE
  5
307D
330
2DB6
100
AcDbEntity
  8
AM_5
100
AcDbLine
 10
334.5414524739837
 20
286.1875625558946
 30
0.0
 11
328.5414524739837
 21
286.1875625558946
 31
0.0
  0
LINE
  5
307E
330
2DB6
100
AcDbEntity
  8
AM_5
100
AcDbLine
 10
349.9414209253091
 20
286.1875625558946
 30
0.0
 11
385.5387100714396
 21
286.1875625558946
 31
0.0
  0
LINE
  5
307F
330
2DB6
100
AcDbEntity
  8
AM_5
100
AcDbLine
 10
340.5414524739837
 20
286.1875625558946
 30
0.0
 11
343.9414209253091
 21
286.1875625558946
 31
0.0
  0
SOLID
  5
3080
330
2DB6
100
AcDbEntity
  8
AM_5
100
AcDbTrace
 10
334.5414524739837
 20
287.1875625558946
 30
0.0
 11
334.5414524739837
 21
285.1875625558946
 31
0.0
 12
340.5414524739837
 22
286.1875625558946
 32
0.0
 13
340.5414524739837
 23
286.1875625558946
 33
0.0
  0
SOLID
  5
3081
330
2DB6
100
AcDbEntity
  8
AM_5
100
AcDbTrace
 10
349.9414209253091
 20
287.1875625558946
 30
0.0
 11
349.9414209253091
 21
285.1875625558946
 31
0.0
 12
343.9414209253091
 22
286.1875625558946
 32
0.0
 13
343.9414209253091
 23
286.1875625558946
 33
0.0
  0
MTEXT
  5
3082
330
2DB6
100
AcDbEntity
  8
AM_5
 62
     2
100
AcDbMText
 10
377.2887100714396
 20
292.6875625558946
 30
0.0
 40
7.0
 41
0.0
 46
0.0
 71
     5
 72
     1
  1
3.4
 73
     1
 44
1.0
  0
POINT
  5
3083
330
2DB6
100
AcDbEntity
  8
Defpoints
 62
     0
100
AcDbPoint
 10
343.9414209253091
 20
287.0597210126
 30
0.0
  0
POINT
  5
3084
330
2DB6
100
AcDbEntity
  8
Defpoints
 62
     0
100
AcDbPoint
 10
340.5414524739837
 20
287.0597209163745
 30
0.0
  0
POINT
  5
3085
330
2DB6
100
AcDbEntity
  8
Defpoints
 62
     0
100
AcDbPoint
 10
340.5414524739837
 20
286.1875625558946
 30
0.0
  0
ENDBLK
  5
2DC3
330
2DB6
100
AcDbEntity
  8
0
100
AcDbBlockEnd
  0
BLOCK
  5
2E03
330
2DF7
100
AcDbEntity
  8
0
100
AcDbBlockBegin
  2
*D42
 70
     1
 10
0.0
 20
0.0
 30
0.0
  3
*D42
  1

  0
LINE
  5
2E26
330
2DF7
100
AcDbEntity
  8
AM_5
100
AcDbLine
 10
344.1414709253091
 20
222.779516010126
 30
0.0
 11
344.1414709253091
 21
248.779517010126
 31
0.0
  0
LINE
  5
2E27
330
2DF7
100
AcDbEntity
  8
AM_5
100
AcDbLine
 10
351.6414329253091
 20
222.779516010126
 30
0.0
 11
351.6414329253091
 21
248.779517010126
 31
0.0
  0
LINE
  5
2E28
330
2DF7
100
AcDbEntity
  8
AM_5
100
AcDbLine
 10
338.1414709253091
 20
246.779517010126
 30
0.0
 11
332.1414709253091
 21
246.779517010126
 31
0.0
  0
LINE
  5
2E29
330
2DF7
100
AcDbEntity
  8
AM_5
100
AcDbLine
 10
357.6414329253091
 20
246.779517010126
 30
0.0
 11
379.7313824189703
 21
246.779517010126
 31
0.0
  0
LINE
  5
2E2A
330
2DF7
100
AcDbEntity
  8
AM_5
100
AcDbLine
 10
344.1414709253091
 20
246.779517010126
 30
0.0
 11
351.6414329253091
 21
246.779517010126
 31
0.0
  0
SOLID
  5
2E2B
330
2DF7
100
AcDbEntity
  8
AM_5
100
AcDbTrace
 10
338.1414709253091
 20
247.779517010126
 30
0.0
 11
338.1414709253091
 21
245.779517010126
 31
0.0
 12
344.1414709253091
 22
246.779517010126
 32
0.0
 13
344.1414709253091
 23
246.779517010126
 33
0.0
  0
SOLID
  5
2E2C
330
2DF7
100
AcDbEntity
  8
AM_5
100
AcDbTrace
 10
357.6414329253091
 20
247.779517010126
 30
0.0
 11
357.6414329253091
 21
245.779517010126
 31
0.0
 12
351.6414329253091
 22
246.779517010126
 32
0.0
 13
351.6414329253091
 23
246.779517010126
 33
0.0
  0
MTEXT
  5
2E2D
330
2DF7
100
AcDbEntity
  8
AM_5
 62
     2
100
AcDbMText
 10
371.6864076721397
 20
253.279517010126
 30
0.0
 40
7.0
 41
0.0
 46
0.0
 71
     5
 72
     1
  1
7.5
 73
     1
 44
1.0
  0
POINT
  5
2E2E
330
2DF7
100
AcDbEntity
  8
Defpoints
 62
     0
100
AcDbPoint
 10
344.1414709253091
 20
222.779516010126
 30
0.0
  0
POINT
  5
2E2F
330
2DF7
100
AcDbEntity
  8
Defpoints
 62
     0
100
AcDbPoint
 10
351.6414329253091
 20
222.779516010126
 30
0.0
  0
POINT
  5
2E30
330
2DF7
100
AcDbEntity
  8
Defpoints
 62
     0
100
AcDbPoint
 10
351.6414329253091
 20
246.779517010126
 30
0.0
  0
ENDBLK
  5
2E04
330
2DF7
100
AcDbEntity
  8
0
100
AcDbBlockEnd
  0
BLOCK
  5
2EAD
330
2EA1
100
AcDbEntity
  8
0
100
AcDbBlockBegin
  2
*D43
 70
     1
 10
0.0
 20
0.0
 30
0.0
  3
*D43
  1

  0
LINE
  5
3070
330
2EA1
100
AcDbEntity
  8
AM_5
100
AcDbLine
 10
344.1414789253091
 20
207.729526010126
 30
0.0
 11
344.1414789253091
 21
202.7731256836085
 31
0.0
  0
LINE
  5
3071
330
2EA1
100
AcDbEntity
  8
AM_5
100
AcDbLine
 10
340.5414547191776
 20
207.729526010126
 30
0.0
 11
340.5414547191776
 21
202.7731256836085
 31
0.0
  0
LINE
  5
3072
330
2EA1
100
AcDbEntity
  8
AM_5
100
AcDbLine
 10
334.5414547191776
 20
204.7731256836085
 30
0.0
 11
328.5414547191777
 21
204.7731256836085
 31
0.0
  0
LINE
  5
3073
330
2EA1
100
AcDbEntity
  8
AM_5
100
AcDbLine
 10
350.1414789253091
 20
204.7731256836085
 30
0.0
 11
389.777576889123
 21
204.7731256836085
 31
0.0
  0
LINE
  5
3074
330
2EA1
100
AcDbEntity
  8
AM_5
100
AcDbLine
 10
340.5414547191776
 20
204.7731256836085
 30
0.0
 11
344.1414789253091
 21
204.7731256836085
 31
0.0
  0
SOLID
  5
3075
330
2EA1
100
AcDbEntity
  8
AM_5
100
AcDbTrace
 10
334.5414547191776
 20
205.7731256836086
 30
0.0
 11
334.5414547191776
 21
203.7731256836086
 31
0.0
 12
340.5414547191776
 22
204.7731256836085
 32
0.0
 13
340.5414547191776
 23
204.7731256836085
 33
0.0
  0
SOLID
  5
3076
330
2EA1
100
AcDbEntity
  8
AM_5
100
AcDbTrace
 10
350.1414789253091
 20
205.7731256836086
 30
0.0
 11
350.1414789253091
 21
203.7731256836086
 31
0.0
 12
344.1414789253091
 22
204.7731256836085
 32
0.0
 13
344.1414789253091
 23
204.7731256836085
 33
0.0
  0
MTEXT
  5
3077
330
2EA1
100
AcDbEntity
  8
AM_5
 62
     2
100
AcDbMText
 10
381.703954841879
 20
211.2731256836085
 30
0.0
 40
7.0
 41
0.0
 46
0.0
 71
     5
 72
     1
  1
3.6
 73
     1
 44
1.0
  0
POINT
  5
3078
330
2EA1
100
AcDbEntity
  8
Defpoints
 62
     0
100
AcDbPoint
 10
344.1414789253091
 20
207.729526010126
 30
0.0
  0
POINT
  5
3079
330
2EA1
100
AcDbEntity
  8
Defpoints
 62
     0
100
AcDbPoint
 10
340.5414547191776
 20
207.729526010126
 30
0.0
  0
POINT
  5
307A
330
2EA1
100
AcDbEntity
  8
Defpoints
 62
     0
100
AcDbPoint
 10
340.5414547191776
 20
204.7731256836085
 30
0.0
  0
ENDBLK
  5
2EAE
330
2EA1
100
AcDbEntity
  8
0
100
AcDbBlockEnd
  0
BLOCK
  5
2EF6
330
2EEA
100
AcDbEntity
  8
0
100
AcDbBlockBegin
  2
*D44
 70
     1
 10
0.0
 20
0.0
 30
0.0
  3
*D44
  1

  0
LINE
  5
2F70
330
2EEA
100
AcDbEntity
  8
AM_5
100
AcDbLine
 10
347.0414429253091
 20
129.779520010126
 30
0.0
 11
347.0414429253091
 21
141.5930228867612
 31
0.0
  0
LINE
  5
2F71
330
2EEA
100
AcDbEntity
  8
AM_5
100
AcDbLine
 10
352.0414429253091
 20
129.779520010126
 30
0.0
 11
352.0414429253091
 21
141.5930228867612
 31
0.0
  0
LINE
  5
2F72
330
2EEA
100
AcDbEntity
  8
AM_5
100
AcDbLine
 10
341.0414429253091
 20
139.5930228867612
 30
0.0
 11
335.0414429253091
 21
139.5930228867612
 31
0.0
  0
LINE
  5
2F73
330
2EEA
100
AcDbEntity
  8
AM_5
100
AcDbLine
 10
358.0414429253091
 20
139.5930228867612
 30
0.0
 11
374.5845937678286
 21
139.5930228867612
 31
0.0
  0
LINE
  5
2F74
330
2EEA
100
AcDbEntity
  8
AM_5
100
AcDbLine
 10
347.0414429253091
 20
139.5930228867612
 30
0.0
 11
352.0414429253091
 21
139.5930228867612
 31
0.0
  0
SOLID
  5
2F75
330
2EEA
100
AcDbEntity
  8
AM_5
100
AcDbTrace
 10
341.0414429253091
 20
140.5930228867612
 30
0.0
 11
341.0414429253091
 21
138.5930228867612
 31
0.0
 12
347.0414429253091
 22
139.5930228867612
 32
0.0
 13
347.0414429253091
 23
139.5930228867612
 33
0.0
  0
SOLID
  5
2F76
330
2EEA
100
AcDbEntity
  8
AM_5
100
AcDbTrace
 10
358.0414429253091
 20
140.5930228867612
 30
0.0
 11
358.0414429253091
 21
138.5930228867612
 31
0.0
 12
352.0414429253091
 22
139.5930228867612
 32
0.0
 13
352.0414429253091
 23
139.5930228867612
 33
0.0
  0
MTEXT
  5
2F77
330
2EEA
100
AcDbEntity
  8
AM_5
 62
     2
100
AcDbMText
 10
370.039619020998
 20
146.0930228867612
 30
0.0
 40
7.0
 41
0.0
 46
0.0
 71
     5
 72
     1
  1
5
 73
     1
 44
1.0
  0
POINT
  5
2F78
330
2EEA
100
AcDbEntity
  8
Defpoints
 62
     0
100
AcDbPoint
 10
347.0414429253091
 20
129.779520010126
 30
0.0
  0
POINT
  5
2F79
330
2EEA
100
AcDbEntity
  8
Defpoints
 62
     0
100
AcDbPoint
 10
352.0414429253091
 20
129.779520010126
 30
0.0
  0
POINT
  5
2F7A
330
2EEA
100
AcDbEntity
  8
Defpoints
 62
     0
100
AcDbPoint
 10
352.0414429253091
 20
139.5930228867612
 30
0.0
  0
ENDBLK
  5
2EF7
330
2EEA
100
AcDbEntity
  8
0
100
AcDbBlockEnd
  0
BLOCK
  5
2F3F
330
2F33
100
AcDbEntity
  8
0
100
AcDbBlockBegin
  2
*D45
 70
     1
 10
0.0
 20
0.0
 30
0.0
  3
*D45
  1

  0
LINE
  5
2F7B
330
2F33
100
AcDbEntity
  8
AM_5
100
AcDbLine
 10
344.7914429253091
 20
129.779520010126
 30
0.0
 11
344.7914429253091
 21
158.8808765241549
 31
0.0
  0
LINE
  5
2F7C
330
2F33
100
AcDbEntity
  8
AM_5
100
AcDbLine
 10
354.2914429253091
 20
129.779520010126
 30
0.0
 11
354.2914429253091
 21
158.8808765241549
 31
0.0
  0
LINE
  5
2F7D
330
2F33
100
AcDbEntity
  8
AM_5
100
AcDbLine
 10
338.7914429253091
 20
156.8808765241549
 30
0.0
 11
332.7914429253091
 21
156.8808765241549
 31
0.0
  0
LINE
  5
2F7E
330
2F33
100
AcDbEntity
  8
AM_5
100
AcDbLine
 10
360.2914429253091
 20
156.8808765241549
 30
0.0
 11
382.6713419126314
 21
156.8808765241549
 31
0.0
  0
LINE
  5
2F7F
330
2F33
100
AcDbEntity
  8
AM_5
100
AcDbLine
 10
344.7914429253091
 20
156.8808765241549
 30
0.0
 11
354.2914429253091
 21
156.8808765241549
 31
0.0
  0
SOLID
  5
2F80
330
2F33
100
AcDbEntity
  8
AM_5
100
AcDbTrace
 10
338.7914429253091
 20
157.8808765241549
 30
0.0
 11
338.7914429253091
 21
155.8808765241549
 31
0.0
 12
344.7914429253091
 22
156.8808765241549
 32
0.0
 13
344.7914429253091
 23
156.8808765241549
 33
0.0
  0
SOLID
  5
2F81
330
2F33
100
AcDbEntity
  8
AM_5
100
AcDbTrace
 10
360.2914429253091
 20
157.8808765241549
 30
0.0
 11
360.2914429253091
 21
155.8808765241549
 31
0.0
 12
354.2914429253091
 22
156.8808765241549
 32
0.0
 13
354.2914429253091
 23
156.8808765241549
 33
0.0
  0
MTEXT
  5
2F82
330
2F33
100
AcDbEntity
  8
AM_5
 62
     2
100
AcDbMText
 10
374.4813924189703
 20
163.3808765241549
 30
0.0
 40
7.0
 41
0.0
 46
0.0
 71
     5
 72
     1
  1
9.5
 73
     1
 44
1.0
  0
POINT
  5
2F83
330
2F33
100
AcDbEntity
  8
Defpoints
 62
     0
100
AcDbPoint
 10
344.7914429253091
 20
129.779520010126
 30
0.0
  0
POINT
  5
2F84
330
2F33
100
AcDbEntity
  8
Defpoints
 62
     0
100
AcDbPoint
 10
354.2914429253091
 20
129.779520010126
 30
0.0
  0
POINT
  5
2F85
330
2F33
100
AcDbEntity
  8
Defpoints
 62
     0
100
AcDbPoint
 10
354.2914429253091
 20
156.8808765241549
 30
0.0
  0
ENDBLK
  5
2F40
330
2F33
100
AcDbEntity
  8
0
100
AcDbBlockEnd
  0
BLOCK
  5
2FB3
330
2FA7
100
AcDbEntity
  8
0
100
AcDbBlockBegin
  2
*D46
 70
     1
 10
0.0
 20
0.0
 30
0.0
  3
*D46
  1

  0
LINE
  5
3318
330
2FA7
100
AcDbEntity
  8
AM_5
100
AcDbLine
 10
217.4414569253091
 20
267.779550010126
 30
0.0
 11
217.4414569253091
 21
289.5052991283667
 31
0.0
  0
LINE
  5
3319
330
2FA7
100
AcDbEntity
  8
AM_5
100
AcDbLine
 10
225.4414589253091
 20
267.779550010126
 30
0.0
 11
225.4414589253091
 21
289.5052991283667
 31
0.0
  0
LINE
  5
331A
330
2FA7
100
AcDbEntity
  8
AM_5
100
AcDbLine
 10
211.4414569253091
 20
287.5052991283667
 30
0.0
 11
205.4414569253091
 21
287.5052991283667
 31
0.0
  0
LINE
  5
331B
330
2FA7
100
AcDbEntity
  8
AM_5
100
AcDbLine
 10
231.4414589253091
 20
287.5052991283667
 30
0.0
 11
237.4414589253091
 21
287.5052991283667
 31
0.0
  0
LINE
  5
331C
330
2FA7
100
AcDbEntity
  8
AM_5
100
AcDbLine
 10
217.4414569253091
 20
287.5052991283667
 30
0.0
 11
225.4414589253091
 21
287.5052991283667
 31
0.0
  0
SOLID
  5
331D
330
2FA7
100
AcDbEntity
  8
AM_5
100
AcDbTrace
 10
211.4414569253091
 20
288.5052991283667
 30
0.0
 11
211.4414569253091
 21
286.5052991283667
 31
0.0
 12
217.4414569253091
 22
287.5052991283667
 32
0.0
 13
217.4414569253091
 23
287.5052991283667
 33
0.0
  0
SOLID
  5
331E
330
2FA7
100
AcDbEntity
  8
AM_5
100
AcDbTrace
 10
231.4414589253091
 20
288.5052991283667
 30
0.0
 11
231.4414589253091
 21
286.5052991283667
 31
0.0
 12
225.4414589253091
 22
287.5052991283667
 32
0.0
 13
225.4414589253091
 23
287.5052991283667
 33
0.0
  0
MTEXT
  5
331F
330
2FA7
100
AcDbEntity
  8
AM_5
 62
     2
100
AcDbMText
 10
221.4414579253091
 20
294.0052991283667
 30
0.0
 40
7.0
 41
0.0
 46
0.0
 71
     5
 72
     1
  1
8/9
 73
     1
 44
1.0
  0
POINT
  5
3320
330
2FA7
100
AcDbEntity
  8
Defpoints
 62
     0
100
AcDbPoint
 10
217.4414569253091
 20
267.779550010126
 30
0.0
  0
POINT
  5
3321
330
2FA7
100
AcDbEntity
  8
Defpoints
 62
     0
100
AcDbPoint
 10
225.4414589253091
 20
267.779550010126
 30
0.0
  0
POINT
  5
3322
330
2FA7
100
AcDbEntity
  8
Defpoints
 62
     0
100
AcDbPoint
 10
225.4414589253091
 20
287.5052991283667
 30
0.0
  0
ENDBLK
  5
2FB4
330
2FA7
100
AcDbEntity
  8
0
100
AcDbBlockEnd
  0
BLOCK
  5
3473
330
3472
100
AcDbEntity
  8
0
100
AcDbBlockBegin
  2
*D48
 70
     1
 10
0.0
 20
0.0
 30
0.0
  3
*D48
  1

  0
LINE
  5
34D9
330
3472
100
AcDbEntity
  8
AM_5
100
AcDbLine
 10
156.4414709253091
 20
61.27955001012606
 30
0.0
 11
204.2423745272514
 21
61.27955001012605
 31
0.0
  0
LINE
  5
34DA
330
3472
100
AcDbEntity
  8
AM_5
100
AcDbLine
 10
168.9365295727979
 20
57.17954401012606
 30
0.0
 11
204.2423745272514
 21
57.17954401012605
 31
0.0
  0
LINE
  5
34DB
330
3472
100
AcDbEntity
  8
AM_5
100
AcDbLine
 10
202.2423745272514
 20
51.17954401012606
 30
0.0
 11
202.2423745272514
 21
45.17954401012605
 31
0.0
  0
LINE
  5
34DC
330
3472
100
AcDbEntity
  8
AM_5
100
AcDbLine
 10
202.2423745272514
 20
67.27955001012604
 30
0.0
 11
202.2423745272514
 21
88.37955001012607
 31
0.0
  0
LINE
  5
34DD
330
3472
100
AcDbEntity
  8
AM_5
100
AcDbLine
 10
202.2423745272514
 20
57.17954401012605
 30
0.0
 11
202.2423745272514
 21
61.27955001012605
 31
0.0
  0
SOLID
  5
34DE
330
3472
100
AcDbEntity
  8
AM_5
100
AcDbTrace
 10
201.2423745272514
 20
51.17954401012606
 30
0.0
 11
203.2423745272514
 21
51.17954401012606
 31
0.0
 12
202.2423745272514
 22
57.17954401012605
 32
0.0
 13
202.2423745272514
 23
57.17954401012605
 33
0.0
  0
SOLID
  5
34DF
330
3472
100
AcDbEntity
  8
AM_5
100
AcDbTrace
 10
201.2423745272514
 20
67.27955001012604
 30
0.0
 11
203.2423745272514
 21
67.27955001012604
 31
0.0
 12
202.2423745272514
 22
61.27955001012605
 32
0.0
 13
202.2423745272514
 23
61.27955001012605
 33
0.0
  0
MTEXT
  5
34E0
330
3472
100
AcDbEntity
  8
AM_5
 62
     2
100
AcDbMText
 10
195.7423745272514
 20
80.82955001012608
 30
0.0
 40
7.0
 41
0.0
 46
0.0
 71
     5
 72
     1
  1
4.1
 11
0.0000000000000001
 21
1.0
 31
0.0
 73
     1
 44
1.0
  0
POINT
  5
34E1
330
3472
100
AcDbEntity
  8
Defpoints
 62
     0
100
AcDbPoint
 10
156.4414709253091
 20
61.27955001012606
 30
0.0
  0
POINT
  5
34E2
330
3472
100
AcDbEntity
  8
Defpoints
 62
     0
100
AcDbPoint
 10
168.9365295727979
 20
57.17954401012606
 30
0.0
  0
POINT
  5
34E3
330
3472
100
AcDbEntity
  8
Defpoints
 62
     0
100
AcDbPoint
 10
202.2423745272514
 20
57.17954401012605
 30
0.0
  0
ENDBLK
  5
3474
330
3472
100
AcDbEntity
  8
0
100
AcDbBlockEnd
  0
ENDSEC
  0
SECTION
  2
ENTITIES
  0
INSERT
  5
3FB
330
1A
100
AcDbEntity
  8
ASHADE
 62
     1
100
AcDbBlockReference
  2
AVE_RENDER
 10
0.0
 20
0.0
 30
0.0
1001
AVE_RENDER
1002
{
1070
     7
1000
Pref
1070
    60
1070
    30
1070
     1
1070
     0
1000

1070
    10
1070
     1
1070
    10
1040
1.0
1070
     1
1040
0.3
1040
0.7
1040
0.0
1040
10.0
1010
-1.0
1020
-1.0
1030
-1.0
1040
0.3
1070
    49
1070
     1
1070
     0
1010
1.0
1020
1.0
1030
1.0
1040
45.0
1070
     1
1070
     0
1000
WCS
1040
0.0
1070
     1
1040
10.0
1002
}
  0
INSERT
  5
3FC
330
1A
100
AcDbEntity
  8
ASHADE
 62
     3
100
AcDbBlockReference
  2
AVE_RENDER
 10
0.0
 20
0.0
 30
0.0
1001
AVE_RENDER
1002
{
1070
     0
1000
Full Opt
1070
     0
1070
     1
1070
     1
1070
     1
1070
     0
1070
     0
1070
     0
1070
     1
1070
     1
1040
0.0001
1040
0.0001
1002
}
  0
INSERT
  5
3FD
330
1A
100
AcDbEntity
  8
ASHADE
 62
     4
100
AcDbBlockReference
  2
AVE_RENDER
 10
0.0
 20
0.0
 30
0.0
1001
AVE_RENDER
1002
{
1070
     0
1000
Quick Opt
1070
     0
1070
     1
1070
     1
1070
     1
1070
     0
1070
     0
1070
     1
1002
}
  0
INSERT
  5
3FE
330
1A
100
AcDbEntity
  8
ASHADE
 62
     5
100
AcDbBlockReference
  2
AVE_RENDER
 10
0.0
 20
0.0
 30
0.0
1001
AVE_RENDER
1002
{
1070
     1
1000
Scanl Opt
1070
     2
1070
     0
1070
     2
1040
2.0
1040
4.0
1070
     0
1070
     1
1070
     0
1040
0.03
1002
}
  0
INSERT
  5
3FF
330
1A
100
AcDbEntity
  8
ASHADE
 62
     6
100
AcDbBlockReference
  2
AVE_RENDER
 10
0.0
 20
0.0
 30
0.0
1001
AVE_RENDER
1002
{
1070
     2
1000
Raytr Opt
1070
     3
1070
     0
1070
     2
1040
2.0
1040
4.0
1070
     0
1070
     1
1070
     1
1040
0.03
1070
     3
1040
0.03
1002
}
  0
INSERT
  5
400
330
1A
100
AcDbEntity
  8
ASHADE
 62
     7
100
AcDbBlockReference
  2
AVE_RENDER
 10
0.0
 20
0.0
 30
0.0
1001
AVE_RENDER
1002
{
1070
     0
1000
RFile Opt
1070
     5
1070
  1600
1070
  1280
1070
 10000
1070
     1
1070
    32
1070
    32
1070
     0
1070
     0
1070
     0
1070
     0
1070
     0
1070
     0
1070
     0
1002
}
  0
INSERT
  5
401
330
1A
100
AcDbEntity
  8
ASHADE
 62
     8
100
AcDbBlockReference
  2
AVE_RENDER
 10
0.0
 20
0.0
 30
0.0
1001
AVE_RENDER
1002
{
1070
     0
1000
Fog Opt
1070
     0
1070
     0
1040
0.0
1040
1.0
1040
0.0
1040
1.0
1010
0.5
1020
0.5
1030
0.5
1002
}
  0
INSERT
  5
402
330
1A
100
AcDbEntity
  8
ASHADE
 62
     9
100
AcDbBlockReference
  2
AVE_RENDER
 10
0.0
 20
0.0
 30
0.0
1001
AVE_RENDER
1002
{
1070
     0
1000
BG Opt
1070
     0
1070
     0
1010
1.0
1020
1.0
1030
1.0
1010
1.0
1020
0.0
1030
0.0
1010
0.0
1020
1.0
1030
0.0
1010
0.0
1020
0.0
1030
1.0
1040
0.5
1040
0.33
1040
0.0
1000

1070
     1
1000

1070
     1
1070
     1
1040
1.0
1040
1.0
1040
0.0
1040
0.0
1070
     0
1002
}
  0
INSERT
  5
409
330
1A
100
AcDbEntity
  8
ASHADE
 62
     1
100
AcDbBlockReference
  2
AVE_GLOBAL
 10
0.0
 20
0.0
 30
0.0
1001
AVE_MATERIAL
1002
{
1000
*GLOBAL*
1000
2
1000
Globales Material.
1002
{
1002
}
1002
{
1070
    63
1002
{
1002
{
1010
-1.0
1020
-1.0
1030
-1.0
1002
}
1040
0.1000000014901161
1000

1040
0.0
1002
{
1002
}
1040
0.0
1002
{
1002
}
1040
0.0
1002
}
1002
{
1002
{
1010
-1.0
1020
-1.0
1030
-1.0
1002
}
1040
0.6999999880790711
1000

1040
0.0
1002
{
1002
}
1040
0.0
1002
{
1002
}
1040
0.0
1002
}
1002
{
1002
{
1010
-1.0
1020
-1.0
1030
-1.0
1002
}
1040
0.2000000029802322
1000

1040
0.0
1002
{
1002
}
1040
0.0
1002
{
1002
}
1040
0.0
1002
}
1002
{
1070
     0
1002
{
1070
     1
1002
{
1040
1.0
1040
1.0
1000

1040
0.0
1002
{
1002
}
1040
0.0
1002
{
1002
}
1040
0.0
1002
}
1002
}
1040
1.0
1040
0.0
1040
0.0
1002
}
1002
{
1040
1.0
1040
1.0
1000

1040
0.0
1002
{
1002
}
1040
0.0
1002
{
1002
}
1040
0.0
1002
}
1002
{
1040
0.5
1040
1.0
1000

1040
0.0
1002
{
1002
}
1040
0.0
1002
{
1002
}
1040
0.0
1002
}
1002
{
1070
     0
1040
0.0
1002
{
1002
}
1040
1.0
1002
{
1002
}
1040
0.0
1002
}
1002
{
1040
0.0
1002
{
1002
{
1010
0.0
1020
0.0
1030
0.0
1002
}
1040
1.0
1000

1040
0.0
1002
{
1002
}
1040
0.0
1002
{
1002
}
1040
0.0
1002
}
1002
}
1002
{
1002
{
1070
     1
1002
{
1040
0.0
1040
1.0
1000

1040
0.0
1002
{
1002
}
1040
0.0
1002
{
1002
}
1040
0.0
1002
}
1002
}
1040
0.0
1002
{
1002
}
1010
1.0
1020
0.0
1030
0.0
1010
0.0
1020
1.0
1030
0.0
1010
0.0
1020
0.0
1030
1.0
1070
     0
1002
}
1002
{
1002
{
1040
1.0
1040
1.0
1002
{
1070
     1
1002
{
1040
1.0
1040
1.0
1000

1040
0.0
1002
{
1002
}
1040
0.0
1002
{
1002
}
1040
0.0
1002
}
1002
}
1002
}
1070
     0
1040
0.0
1002
{
1002
}
1002
}
1002
{
1002
}
1002
}
1002
{
1071
        3
1070
     3
1070
     0
1002
{
1070
     2
1070
     0
1070
     0
1040
0.0
1002
}
1070
     0
1070
     2
1002
{
1002
}
1002
}
1002
{
1040
8030.0
1040
190.3000030517578
1040
0.3050000071525574
1040
228.0
1040
545.0
1040
14.0
1040
17.39999961853027
1040
0.4560000002384186
1002
}
1002
}
  0
POINT
  5
1677
330
1A
100
AcDbEntity
  8
0
 60
     1
100
AcDbPoint
 10
0.0
 20
0.0
 30
0.0
1001
GENIUS_GENODEF_13
1002
{
1000
HIER
1070
     1
1002
}
1002
{
1000
MANEDIT
1070
     0
1002
}
1002
{
1000
NOSEL
1070
     0
1002
}
1002
{
1000
BEHIND
1070
     0
1002
}
1002
{
1000
REACTOR
1002
}
1001
GENIUS_GENOBJ-N-SDF_13
1002
{
1000
OWNER
1000
GEN
1002
}
1001
GENIUS_GENOENT_13
1002
{
1000
MYREF
1005
1677
1002
}
1002
{
1000
GRP
1005
0
1002
}
1001
GENIUS_GENOLIS_13
1002
{
1000
ENT
1005
22
1002
}
  0
LINE
  5
1C2A
330
1A
100
AcDbEntity
  8
7
  6
GEN7A
100
AcDbLine
 10
211.4414569253091
 20
176.5295380101261
 30
0.0
 11
211.4414569253091
 21
169.0295380101261
 31
0.0
  0
LINE
  5
1C2B
330
1A
100
AcDbEntity
  8
7
  6
GEN7A
100
AcDbLine
 10
231.4414589253091
 20
176.5295380101261
 30
0.0
 11
231.4414589253091
 21
169.0295380101261
 31
0.0
  0
CIRCLE
  5
1C2C
330
1A
100
AcDbEntity
  8
1
100
AcDbCircle
 10
231.4414589253091
 20
172.7795380101261
 30
0.0
 40
2.5
  0
CIRCLE
  5
1C2D
330
1A
100
AcDbEntity
  8
1
100
AcDbCircle
 10
211.4414569253091
 20
172.7795380101261
 30
0.0
 40
2.5
  0
LINE
  5
1C2E
330
1A
100
AcDbEntity
  8
1
100
AcDbLine
 10
164.4414509253091
 20
299.779566010126
 30
0.0
 11
164.4414509253091
 21
120.779534010126
 31
0.0
  0
ARC
  5
1C2F
330
1A
100
AcDbEntity
  8
1
100
AcDbCircle
 10
232.9414629253091
 20
173.7795380101261
 30
0.0
 40
17.999998
100
AcDbArc
 50
270.0
 51
0.0
  0
LINE
  5
1C32
330
1A
100
AcDbEntity
  8
1
100
AcDbLine
 10
161.4414509253091
 20
120.779534010126
 30
0.0
 11
161.4414509253091
 21
350.7795800101261
 31
0.0
  0
LINE
  5
1C35
330
1A
100
AcDbEntity
  8
1
100
AcDbLine
 10
151.4414829253091
 20
58.77953401012604
 30
0.0
 11
158.5192709253091
 21
50.77953401012604
 31
0.0
  0
LINE
  5
1C36
330
1A
100
AcDbEntity
  8
1
100
AcDbLine
 10
148.4414829253091
 20
53.57956801012608
 30
0.0
 11
148.4414829253091
 21
61.07952201012608
 31
0.0
  0
LINE
  5
1C37
330
1A
100
AcDbEntity
  8
1
100
AcDbLine
 10
250.9414829253091
 20
50.57953801012605
 30
0.0
 11
250.9414829253091
 21
63.77955001012606
 31
0.0
  0
LINE
  5
1C38
330
1A
100
AcDbEntity
  8
1
100
AcDbLine
 10
164.4414589253091
 20
46.67951401012607
 30
0.0
 11
164.4414589253091
 21
65.17955201012603
 31
0.0
  0
LINE
  5
1C39
330
1A
100
AcDbEntity
  8
1
100
AcDbLine
 10
161.4414589253091
 20
46.67954401012605
 30
0.0
 11
161.4414589253091
 21
65.17954401012605
 31
0.0
  0
LINE
  5
1C3A
330
1A
100
AcDbEntity
  8
1
100
AcDbLine
 10
164.4414589253091
 20
50.57955401012605
 30
0.0
 11
250.9414449253091
 21
50.57955401012605
 31
0.0
  0
LINE
  5
1C3C
330
1A
100
AcDbEntity
  8
1
100
AcDbLine
 10
148.4414969253091
 20
53.57955401012606
 30
0.0
 11
156.0420529253091
 21
53.57955401012606
 31
0.0
  0
LINE
  5
1C3D
330
1A
100
AcDbEntity
  8
1
100
AcDbLine
 10
158.5192329253091
 20
50.77955001012606
 30
0.0
 11
161.4414449253091
 21
50.77955001012606
 31
0.0
  0
LINE
  5
1C3E
330
1A
100
AcDbEntity
  8
1
100
AcDbLine
 10
161.4414449253091
 20
46.67955201012603
 30
0.0
 11
164.4414589253091
 21
46.67955201012603
 31
0.0
  0
LINE
  5
1C40
330
1A
100
AcDbEntity
  8
1
100
AcDbLine
 10
232.9414669253091
 20
155.7795380101261
 30
0.0
 11
164.4414449253091
 21
155.7795380101261
 31
0.0
  0
LINE
  5
1C41
330
1A
100
AcDbEntity
  8
1
100
AcDbLine
 10
164.4414589253091
 20
63.77955001012606
 30
0.0
 11
250.9414449253091
 21
63.77955001012606
 31
0.0
  0
LINE
  5
1C42
330
1A
100
AcDbEntity
  8
1
100
AcDbLine
 10
151.4414829253091
 20
58.77955001012606
 30
0.0
 11
161.4414449253091
 21
58.77955001012606
 31
0.0
  0
LINE
  5
1C43
330
1A
100
AcDbEntity
  8
1
100
AcDbLine
 10
151.4414829253091
 20
61.27955001012606
 30
0.0
 11
161.4414589253091
 21
61.27955001012606
 31
0.0
  0
LINE
  5
1C44
330
1A
100
AcDbEntity
  8
1
100
AcDbLine
 10
148.4414829253091
 20
61.07955401012606
 30
0.0
 11
151.4414749253091
 21
61.07955401012606
 31
0.0
  0
LINE
  5
1C45
330
1A
100
AcDbEntity
  8
1
100
AcDbLine
 10
151.4414749253091
 20
58.77955001012606
 30
0.0
 11
151.4414749253091
 21
61.27955001012606
 31
0.0
  0
LINE
  5
1C46
330
1A
100
AcDbEntity
  8
1
100
AcDbLine
 10
161.4414449253091
 20
65.17955201012603
 30
0.0
 11
164.4414589253091
 21
65.17955201012603
 31
0.0
  0
LINE
  5
1C47
330
1A
100
AcDbEntity
  8
1
100
AcDbLine
 10
164.4414509253091
 20
120.779534010126
 30
0.0
 11
161.4414509253091
 21
120.779534010126
 31
0.0
  0
LINE
  5
1C48
330
1A
100
AcDbEntity
  8
7
  6
GEN7A
100
AcDbLine
 10
169.7177269253091
 20
129.779534010126
 30
0.0
 11
158.0400809253091
 21
129.779534010126
 31
0.0
  0
LINE
  5
1C51
330
1A
100
AcDbEntity
  8
1
100
AcDbLine
 10
177.4414509253091
 20
298.2795800101261
 30
0.0
 11
177.4414509253091
 21
273.2795500101261
 31
0.0
  0
LINE
  5
1C52
330
1A
100
AcDbEntity
  8
1
100
AcDbLine
 10
151.4414449253091
 20
300.7795800101261
 30
0.0
 11
151.4414449253091
 21
270.7795660101261
 31
0.0
  0
LINE
  5
1C53
330
1A
100
AcDbEntity
  8
1
100
AcDbLine
 10
250.9414649253091
 20
297.7795500101261
 30
0.0
 11
250.9414649253091
 21
173.7795380101261
 31
0.0
  0
LINE
  5
1C54
330
1A
100
AcDbEntity
  8
7
  6
GEN7A
100
AcDbLine
 10
207.6914569253091
 20
172.7795380101261
 30
0.0
 11
215.1914569253091
 21
172.7795380101261
 31
0.0
  0
LINE
  5
1C55
330
1A
100
AcDbEntity
  8
7
  6
GEN7A
100
AcDbLine
 10
235.8233069253091
 20
185.7795400101261
 30
0.0
 11
208.0867969253091
 21
185.7795400101261
 31
0.0
  0
LINE
  5
1C56
330
1A
100
AcDbEntity
  8
7
  6
GEN7A
100
AcDbLine
 10
208.6394809253091
 20
178.279538010126
 30
0.0
 11
194.6228329253091
 21
178.279538010126
 31
0.0
  0
LINE
  5
1C57
330
1A
100
AcDbEntity
  8
7
  6
GEN7A
100
AcDbLine
 10
247.2181489253091
 20
263.779550010126
 30
0.0
 11
196.3476889253091
 21
263.779550010126
 31
0.0
  0
LINE
  5
1C59
330
1A
100
AcDbEntity
  8
1
100
AcDbLine
 10
148.4414449253091
 20
193.2795420101261
 30
0.0
 11
148.4414449253091
 21
222.279550010126
 31
0.0
  0
LINE
  5
1C5A
330
1A
100
AcDbEntity
  8
1
100
AcDbLine
 10
161.4414509253091
 20
192.7795420101261
 30
0.0
 11
148.9414449253091
 21
192.7795420101261
 31
0.0
  0
ARC
  5
1C5B
330
1A
100
AcDbEntity
  8
1
100
AcDbCircle
 10
148.9414449253091
 20
193.2795420101261
 30
0.0
 40
0.5
100
AcDbArc
 50
180.0
 51
270.0
  0
LINE
  5
1C5C
330
1A
100
AcDbEntity
  8
1
100
AcDbLine
 10
148.9414449253091
 20
222.7795500101261
 30
0.0
 11
161.4414509253091
 21
222.7795500101261
 31
0.0
  0
ARC
  5
1C5D
330
1A
100
AcDbEntity
  8
1
100
AcDbCircle
 10
148.9414449253091
 20
222.279550010126
 30
0.0
 40
0.5
100
AcDbArc
 50
90.0
 51
180.0
  0
LINE
  5
1C5F
330
1A
100
AcDbEntity
  8
1
100
AcDbLine
 10
177.4414509253091
 20
273.2795500101261
 30
0.0
 11
164.4414509253091
 21
273.2795500101261
 31
0.0
  0
LINE
  5
1C60
330
1A
100
AcDbEntity
  8
1
100
AcDbLine
 10
151.4414449253091
 20
270.7795660101261
 30
0.0
 11
161.4414509253091
 21
270.7795660101261
 31
0.0
  0
LINE
  5
1C61
330
1A
100
AcDbEntity
  8
1
100
AcDbLine
 10
161.4414509253091
 20
274.4295600101261
 30
0.0
 11
151.4414449253091
 21
274.429566010126
 31
0.0
  0
LINE
  5
1C63
330
1A
100
AcDbEntity
  8
7
  6
GEN7A
100
AcDbLine
 10
221.4414589253091
 20
185.7795400101261
 30
0.0
 11
221.4414589253091
 21
274.1531000101261
 31
0.0
  0
LINE
  5
1C65
330
1A
100
AcDbEntity
  8
7
  6
GEN7A
100
AcDbLine
 10
246.6543589253091
 20
178.279538010126
 30
0.0
 11
234.1243109253091
 21
178.279538010126
 31
0.0
  0
LINE
  5
1C67
330
1A
100
AcDbEntity
  8
0
  6
CONTINU
 62
     3
100
AcDbLine
 10
221.4414589253091
 20
180.3190280101261
 30
0.0
 11
221.4414589253091
 21
185.7795400101261
 31
0.0
  0
LINE
  5
1C68
330
1A
100
AcDbEntity
  8
0
  6
CONTINU
 62
     3
100
AcDbLine
 10
221.4414589253091
 20
171.7408580101261
 30
0.0
 11
221.4414589253091
 21
173.3677500101261
 31
0.0
  0
LINE
  5
1C69
330
1A
100
AcDbEntity
  8
0
  6
CONTINU
 62
     3
100
AcDbLine
 10
221.4414589253091
 20
175.882048010126
 30
0.0
 11
221.4414589253091
 21
177.3610360101261
 31
0.0
  0
LINE
  5
1C6A
330
1A
100
AcDbEntity
  8
7
  6
GEN7A
100
AcDbLine
 10
227.6914589253091
 20
172.7795380101261
 30
0.0
 11
235.1914589253091
 21
172.7795380101261
 31
0.0
  0
LINE
  5
1C6D
330
1A
100
AcDbEntity
  8
7
  6
GEN7A
100
AcDbLine
 10
215.0664569253091
 20
242.1795440101261
 30
0.0
 11
227.8164589253091
 21
242.1795440101261
 31
0.0
  0
CIRCLE
  5
1C6E
330
1A
100
AcDbEntity
  8
1
100
AcDbCircle
 10
221.4414589253091
 20
242.1795440101261
 30
0.0
 40
4.25
  0
CIRCLE
  5
1C6F
330
1A
100
AcDbEntity
  8
1
100
AcDbCircle
 10
221.4414589253091
 20
263.779550010126
 30
0.0
 40
7.5
  0
LINE
  5
1C70
330
1A
100
AcDbEntity
  8
1
100
AcDbLine
 10
217.4414569253091
 20
267.779550010126
 30
0.0
 11
225.4414589253091
 21
267.779550010126
 31
0.0
  0
LINE
  5
1C71
330
1A
100
AcDbEntity
  8
1
100
AcDbLine
 10
225.4414589253091
 20
259.779550010126
 30
0.0
 11
217.4414569253091
 21
259.779550010126
 31
0.0
  0
LINE
  5
1C72
330
1A
100
AcDbEntity
  8
1
100
AcDbLine
 10
217.4414569253091
 20
259.779550010126
 30
0.0
 11
217.4414569253091
 21
267.779550010126
 31
0.0
  0
LINE
  5
1C73
330
1A
100
AcDbEntity
  8
1
100
AcDbLine
 10
225.4414589253091
 20
267.779550010126
 30
0.0
 11
225.4414589253091
 21
259.779550010126
 31
0.0
  0
LINE
  5
1C75
330
1A
100
AcDbEntity
  8
1
100
AcDbLine
 10
164.4414549253091
 20
315.779550010126
 30
0.0
 11
232.9414649253091
 21
315.779550010126
 31
0.0
  0
LINE
  5
1C76
330
1A
100
AcDbEntity
  8
1
100
AcDbLine
 10
164.4414509253091
 20
350.7795800101261
 30
0.0
 11
164.4414509253091
 21
299.779566010126
 31
0.0
  0
LINE
  5
1C78
330
1A
100
AcDbEntity
  8
1
100
AcDbLine
 10
177.4414509253091
 20
298.2795500101261
 30
0.0
 11
164.4414509253091
 21
298.2795500101261
 31
0.0
  0
LINE
  5
1C79
330
1A
100
AcDbEntity
  8
1
100
AcDbLine
 10
161.4414509253091
 20
300.7795800101261
 30
0.0
 11
151.4414449253091
 21
300.7795800101261
 31
0.0
  0
LINE
  5
1C7A
330
1A
100
AcDbEntity
  8
1
100
AcDbLine
 10
151.4414449253091
 20
297.4295740101261
 30
0.0
 11
161.4414509253091
 21
297.4295740101261
 31
0.0
  0
LINE
  5
1C7B
330
1A
100
AcDbEntity
  8
7
  6
GEN7A
100
AcDbLine
 10
169.2851709253091
 20
341.779566010126
 30
0.0
 11
155.012550925309
 21
341.779566010126
 31
0.0
  0
LINE
  5
1C7C
330
1A
100
AcDbEntity
  8
1
100
AcDbLine
 10
164.4414509253091
 20
350.7795800101261
 30
0.0
 11
161.4414509253091
 21
350.7795800101261
 31
0.0
  0
ARC
  5
1C7D
330
1A
100
AcDbEntity
  8
1
100
AcDbCircle
 10
232.9414609253091
 20
297.7795500101261
 30
0.0
 40
17.999998
100
AcDbArc
 50
0.0
 51
90.0
  0
LINE
  5
1C7E
330
1A
100
AcDbEntity
  8
7
  6
GEN7A
100
AcDbLine
 10
348.0414569253091
 20
172.404524010126
 30
0.0
 11
348.0414569253091
 21
158.154524010126
 31
0.0
  0
LINE
  5
1C80
330
1A
100
AcDbEntity
  8
1
100
AcDbLine
 10
358.5414429253091
 20
129.763655508282
 30
0.0
 11
358.5414429253091
 21
341.779566010126
 31
0.0
  0
LINE
  5
1C81
330
1A
100
AcDbEntity
  8
1
100
AcDbLine
 10
340.5414569253093
 20
129.7795297554091
 30
0.0
 11
340.5414509253099
 21
341.7795360101544
 31
0.0
  0
LINE
  5
1C87
330
1A
100
AcDbEntity
  8
7
  6
GEN7A
100
AcDbLine
 10
349.5414429253091
 20
136.904520010126
 30
0.0
 11
349.5414429253091
 21
118.278924010126
 31
0.0
  0
CIRCLE
  5
1C88
330
1A
100
AcDbEntity
  8
1
100
AcDbCircle
 10
349.5414429253091
 20
129.779520010126
 30
0.0
 40
4.75
  0
CIRCLE
  5
1C89
330
1A
100
AcDbEntity
  8
1
100
AcDbCircle
 10
349.5414429253091
 20
129.779520010126
 30
0.0
 40
2.5
  0
LINE
  5
1C8A
330
1A
100
AcDbEntity
  8
7
  6
GEN7A
100
AcDbLine
 10
356.6664429253091
 20
129.779520010126
 30
0.0
 11
342.4164429253091
 21
129.779520010126
 31
0.0
  0
LINE
  5
1C8B
330
1A
100
AcDbEntity
  8
7
  6
GEN7A
100
AcDbLine
 10
355.1664569253091
 20
165.279524010126
 30
0.0
 11
340.916456925309
 21
165.279524010126
 31
0.0
  0
CIRCLE
  5
1C8C
330
1A
100
AcDbEntity
  8
1
100
AcDbCircle
 10
348.0414569253091
 20
165.279524010126
 30
0.0
 40
4.75
  0
CIRCLE
  5
1C8D
330
1A
100
AcDbEntity
  8
1
100
AcDbCircle
 10
348.0414569253091
 20
165.279524010126
 30
0.0
 40
2.75
  0
LINE
  5
1C8F
330
1A
100
AcDbEntity
  8
1
100
AcDbLine
 10
354.4414509253091
 20
274.2795040101261
 30
0.0
 11
354.4414509253091
 21
297.2795500101261
 31
0.0
  0
LINE
  5
1C90
330
1A
100
AcDbEntity
  8
1
100
AcDbLine
 10
346.4414509253091
 20
270.4795620101261
 30
0.0
 11
346.4414509253091
 21
300.7795800101261
 31
0.0
  0
LINE
  5
1C91
330
1A
100
AcDbEntity
  8
1
100
AcDbLine
 10
343.9414209253091
 20
270.4795620101261
 30
0.0
 11
343.9414209253091
 21
300.7795800101261
 31
0.0
  0
LINE
  5
1C94
330
1A
100
AcDbEntity
  8
1
100
AcDbLine
 10
344.1414789253091
 20
192.6795360101261
 30
0.0
 11
344.1414789253091
 21
222.779516010126
 31
0.0
  0
LINE
  5
1C95
330
1A
100
AcDbEntity
  8
1
100
AcDbLine
 10
351.6414329253091
 20
192.6795360101261
 30
0.0
 11
351.6414329253091
 21
222.779516010126
 31
0.0
  0
LINE
  5
1C96
330
1A
100
AcDbEntity
  8
1
100
AcDbLine
 10
344.1414709253091
 20
192.679544010126
 30
0.0
 11
351.6414329253091
 21
192.679544010126
 31
0.0
  0
LINE
  5
1C97
330
1A
100
AcDbEntity
  8
1
100
AcDbLine
 10
344.1414709253091
 20
222.779516010126
 30
0.0
 11
351.6414329253091
 21
222.779516010126
 31
0.0
  0
LINE
  5
1C98
330
1A
100
AcDbEntity
  8
1
100
AcDbLine
 10
346.4414669253091
 20
274.2795040101261
 30
0.0
 11
354.4414669253091
 21
274.2795040101261
 31
0.0
  0
LINE
  5
1C99
330
1A
100
AcDbEntity
  8
1
100
AcDbLine
 10
343.9413989253091
 20
270.4795620101261
 30
0.0
 11
346.4414509253091
 21
270.4795620101261
 31
0.0
  0
LINE
  5
1C9C
330
1A
100
AcDbEntity
  8
7
  6
GEN7A
100
AcDbLine
 10
349.5414429253091
 20
348.9045800101261
 30
0.0
 11
349.5414429253091
 21
334.6545500101261
 31
0.0
  0
CIRCLE
  5
1C9D
330
1A
100
AcDbEntity
  8
1
100
AcDbCircle
 10
349.5414429253091
 20
341.779566010126
 30
0.0
 40
4.750008
  0
CIRCLE
  5
1C9E
330
1A
100
AcDbEntity
  8
1
100
AcDbCircle
 10
349.5414429253091
 20
341.779566010126
 30
0.0
 40
2.50003
  0
LINE
  5
1C9F
330
1A
100
AcDbEntity
  8
1
100
AcDbLine
 10
346.4414669253091
 20
297.2795500101261
 30
0.0
 11
354.4414669253091
 21
297.2795500101261
 31
0.0
  0
LINE
  5
1CA0
330
1A
100
AcDbEntity
  8
1
100
AcDbLine
 10
343.9413989253091
 20
300.779596010126
 30
0.0
 11
346.4414509253091
 21
300.779596010126
 31
0.0
  0
LINE
  5
1CA1
330
1A
100
AcDbEntity
  8
7
  6
GEN7A
100
AcDbLine
 10
356.666456925309
 20
341.779566010126
 30
0.0
 11
342.4164269253091
 21
341.779566010126
 31
0.0
  0
LWPOLYLINE
  5
21EC
330
1A
100
AcDbEntity
  8
AM_VIEWS
100
AcDbPolyline
 90
        4
 70
     1
 43
0.0
 10
81.06487135133034
 20
8.508891918083804
 10
412.8910439835971
 20
8.508891918083804
 10
412.8910439835971
 20
390.9002635337513
 10
81.06487135133034
 20
390.9002635337513
1001
GENIUS_GENSCREG_15
1040
2.0
1040
1.0
1011
81.06487135133034
1021
8.508891918083804
1031
0.0
1011
412.8910439835971
1021
390.9002635337513
1031
0.0
1070
     2
1001
GENIUS_GENODEF_13
1002
{
1000
HIER
1070
     0
1002
}
1002
{
1000
MANEDIT
1070
     0
1002
}
1002
{
1000
NOSEL
1070
     0
1002
}
1002
{
1000
BEHIND
1070
     0
1002
}
1002
{
1000
OTHER
1070
     0
1002
}
1002
{
1000
REACTOR
1002
}
1001
GENIUS_GENOBJ-N-SDF_13
1002
{
1000
OWNER
1000
GEN
1002
}
  0
DIMENSION
  5
25B3
330
1A
100
AcDbEntity
  8
AM_5
100
AcDbDimension
  2
*D15
 10
131.9973466691691
 20
300.7795800101261
 30
0.0
 11
125.4973466691691
 21
325.7795800101261
 31
0.0
 70
    32
 71
     5
 42
50.0
 73
     0
 74
     0
 75
     0
  3
AM_ISO
100
AcDbAlignedDimension
 13
161.4414509253091
 23
350.7795800101261
 33
0.0
 14
151.4414449253091
 24
300.7795800101261
 34
0.0
 50
90.0
100
AcDbRotatedDimension
1001
ACAD
1000
DSTYLE
1002
{
1070
    40
1040
2.0
1070
   174
1070
     1
1002
}
  0
DIMENSION
  5
2647
330
1A
100
AcDbEntity
  8
AM_5
100
AcDbDimension
  2
*D16
 10
131.9973466691691
 20
270.7795660101261
 30
0.0
 11
125.4973466691691
 21
285.7795730101261
 31
0.0
 70
    32
 71
     5
 42
30.00001400000002
 73
     0
 74
     0
 75
     0
  3
AM_ISO
100
AcDbAlignedDimension
 13
151.4414449253091
 23
300.7795800101261
 33
0.0
 14
151.4414449253091
 24
270.7795660101261
 34
0.0
 50
90.0
100
AcDbRotatedDimension
1001
ACAD
1000
DSTYLE
1002
{
1070
   174
1070
     1
1070
    40
1040
2.0
1002
}
  0
DIMENSION
  5
2663
330
1A
100
AcDbEntity
  8
AM_5
100
AcDbDimension
  2
*D17
 10
131.9973466691691
 20
222.7795500101261
 30
0.0
 11
125.4973466691691
 21
246.7795580101261
 31
0.0
 70
    32
 71
     5
 42
48.00001600000005
 73
     0
 74
     0
 75
     0
  3
AM_ISO
100
AcDbAlignedDimension
 13
151.4414449253091
 23
270.7795660101261
 33
0.0
 14
148.9414449253091
 24
222.7795500101261
 34
0.0
 50
90.0
100
AcDbRotatedDimension
1001
ACAD
1000
DSTYLE
1002
{
1070
   174
1070
     1
1070
    40
1040
2.0
1002
}
  0
DIMENSION
  5
267F
330
1A
100
AcDbEntity
  8
AM_5
100
AcDbDimension
  2
*D18
 10
131.9973466691691
 20
192.7795420101261
 30
0.0
 11
125.4973466691691
 21
207.7795460101261
 31
0.0
 70
    32
 71
     5
 42
30.00000799999998
 73
     0
 74
     0
 75
     0
  3
AM_ISO
100
AcDbAlignedDimension
 13
148.9414449253091
 23
222.7795500101261
 33
0.0
 14
148.9414449253091
 24
192.7795420101261
 34
0.0
 50
90.0
100
AcDbRotatedDimension
1001
ACAD
1000
DSTYLE
1002
{
1070
   174
1070
     1
1070
    40
1040
2.0
1002
}
  0
DIMENSION
  5
269B
330
1A
100
AcDbEntity
  8
AM_5
100
AcDbDimension
  2
*D19
 10
131.9973466691691
 20
120.779534010126
 30
0.0
 11
125.4966576927911
 21
156.7795380101261
 31
0.0
 70
    32
 71
     5
 42
72.00000800000002
 73
     0
 74
     0
 75
     0
  3
AM_ISO
100
AcDbAlignedDimension
 13
148.9414449253091
 23
192.7795420101261
 33
0.0
 14
161.4414509253091
 24
120.779534010126
 34
0.0
 50
90.0
100
AcDbRotatedDimension
1001
ACAD
1000
DSTYLE
1002
{
1070
   174
1070
     1
1070
    40
1040
2.0
1002
}
  0
DIMENSION
  5
26C3
330
1A
100
AcDbEntity
  8
AM_5
100
AcDbDimension
  2
*D20
 10
108.449375280909
 20
120.779534010126
 30
0.0
 11
101.9486863045311
 21
235.7795570101261
 31
0.0
 70
    32
 71
     5
 42
230.0000460000001
 73
     0
 74
     0
 75
     0
  3
AM_ISO
100
AcDbAlignedDimension
 13
161.4414509253091
 23
350.7795800101261
 33
0.0
 14
161.4414509253091
 24
120.779534010126
 34
0.0
 50
90.0
100
AcDbRotatedDimension
1001
ACAD
1000
DSTYLE
1002
{
1070
    40
1040
2.0
1002
}
  0
DIMENSION
  5
2702
330
1A
100
AcDbEntity
  8
AM_5
100
AcDbDimension
  2
*D21
 10
161.4414509253091
 20
326.4043328210323
 30
0.0
 11
179.5942068308209
 21
332.9043328210323
 31
0.0
 70
    32
 71
     5
 42
10.00000599999998
 73
     0
 74
     0
 75
     0
  3
AM_ISO
100
AcDbAlignedDimension
 13
151.4414449253091
 23
300.7795800101261
 33
0.0
 14
161.4414509253091
 24
300.7795800101261
 34
0.0
100
AcDbRotatedDimension
1001
ACAD
1000
DSTYLE
1002
{
1070
    40
1040
2.0
1002
}
  0
DIMENSION
  5
274B
330
1A
100
AcDbEntity
  8
AM_5
100
AcDbDimension
  2
*D22
 10
161.4414509253091
 20
238.6140659301706
 30
0.0
 11
154.9414479253091
 21
245.1140659301706
 31
0.0
 70
    32
 71
     5
 42
13.00000600000001
 73
     0
 74
     0
 75
     0
  3
AM_ISO
100
AcDbAlignedDimension
 13
148.441444925309
 23
222.279550010126
 33
0.0
 14
161.4414509253091
 24
222.279550010126
 34
0.0
100
AcDbRotatedDimension
1001
ACAD
1000
DSTYLE
1002
{
1070
    40
1040
2.0
1002
}
  0
DIMENSION
  5
2794
330
1A
100
AcDbEntity
  8
AM_5
100
AcDbDimension
  2
*D23
 10
221.4414589253091
 20
96.77953301012609
 30
0.0
 11
191.4414549253091
 21
103.3282135639102
 31
0.0
 70
    32
  1
D=<>
 71
     5
 42
60.00000800000004
 73
     0
 74
     0
 75
     0
  3
AM_ISO
100
AcDbAlignedDimension
 13
161.4414509253091
 23
120.779534010126
 33
0.0
 14
221.4414589253091
 24
185.7795400101261
 34
0.0
 50
0.0000000000001132
100
AcDbRotatedDimension
1001
ACAD
1000
DSTYLE
1002
{
1070
    40
1040
2.0
1070
   174
1070
     1
1002
}
  0
DIMENSION
  5
2828
330
1A
100
AcDbEntity
  8
AM_5
100
AcDbDimension
  2
*D24
 10
250.9414649253091
 20
96.7795330101261
 30
0.0
 11
236.1914619253091
 21
103.280221986504
 31
0.0
 70
    32
 71
     5
 42
29.50000599999999
 73
     0
 74
     0
 75
     0
  3
AM_ISO
100
AcDbAlignedDimension
 13
221.4414589253091
 23
185.7795400101261
 33
0.0
 14
250.9414649253091
 24
173.7795380101261
 34
0.0
100
AcDbRotatedDimension
1001
ACAD
1000
DSTYLE
1002
{
1070
   174
1070
     1
1070
    40
1040
2.0
1002
}
  0
DIMENSION
  5
2850
330
1A
100
AcDbEntity
  8
AM_5
100
AcDbDimension
  2
*D25
 10
240.4414589253091
 20
136.6007957543103
 30
0.0
 11
231.0950569820442
 21
136.6007957543103
 31
0.0
 70
   160
 71
     5
 42
38.00000599999999
 73
     0
 74
     0
 75
     0
  3
AM_ISO
100
AcDbAlignedDimension
 13
202.4414529253091
 23
174.356794010126
 33
0.0
 14
240.4414589253091
 24
174.356794010126
 34
0.0
 50
0.0000000000001132
100
AcDbRotatedDimension
1001
ACAD
1000
DSTYLE
1002
{
1070
    40
1040
2.0
1002
}
  0
DIMENSION
  5
288F
330
1A
100
AcDbEntity
  8
AM_5
100
AcDbDimension
  2
*D26
 10
287.7560608522518
 20
155.7795400101261
 30
0.0
 11
281.2560608522518
 21
138.279537010126
 31
0.0
 70
    32
 71
     5
 42
35.00000600000006
 73
     0
 74
     0
 75
     0
  3
AM_ISO
100
AcDbAlignedDimension
 13
164.4414509253091
 23
120.779534010126
 33
0.0
 14
232.9414629253091
 24
155.7795400101261
 34
0.0
 50
90.0
100
AcDbRotatedDimension
1001
ACAD
1000
DSTYLE
1002
{
1070
    40
1040
2.0
1070
   174
1070
     1
1002
}
  0
DIMENSION
  5
2923
330
1A
100
AcDbEntity
  8
AM_5
100
AcDbDimension
  2
*D27
 10
287.7560608522518
 20
315.779550010126
 30
0.0
 11
281.2560608522518
 21
235.7795450101261
 31
0.0
 70
    32
 71
     5
 42
160.0000099999999
 73
     0
 74
     0
 75
     0
  3
AM_ISO
100
AcDbAlignedDimension
 13
232.9414629253091
 23
155.7795400101261
 33
0.0
 14
232.9414649253091
 24
315.779550010126
 34
0.0
 50
90.0
100
AcDbRotatedDimension
1001
ACAD
1000
DSTYLE
1002
{
1070
   174
1070
     1
1070
    40
1040
2.0
1002
}
  0
DIMENSION
  5
293F
330
1A
100
AcDbEntity
  8
AM_5
100
AcDbDimension
  2
*D28
 10
287.7560608522518
 20
350.7795800101261
 30
0.0
 11
281.2560608522518
 21
333.2795650101261
 31
0.0
 70
    32
 71
     5
 42
35.00003000000004
 73
     0
 74
     0
 75
     0
  3
AM_ISO
100
AcDbAlignedDimension
 13
232.9414649253091
 23
315.779550010126
 33
0.0
 14
164.441450925309
 24
350.7795800101261
 34
0.0
 50
90.0
100
AcDbRotatedDimension
1001
ACAD
1000
DSTYLE
1002
{
1070
   174
1070
     1
1070
    40
1040
2.0
1002
}
  0
DIMENSION
  5
2967
330
1A
100
AcDbEntity
  8
AM_5
100
AcDbDimension
  2
*D29
 10
274.9414659253091
 20
185.7795400101261
 30
0.0
 11
268.4414659253091
 21
170.7795400101261
 31
0.0
 70
    32
 71
     5
 42
30.0
 73
     0
 74
     0
 75
     0
  3
AM_ISO
100
AcDbAlignedDimension
 13
232.9414629253091
 23
155.7795400101261
 33
0.0
 14
235.8233069253091
 24
185.7795400101261
 34
0.0
 50
90.00000000000003
100
AcDbRotatedDimension
1001
ACAD
1000
DSTYLE
1002
{
1070
    40
1040
2.0
1070
   174
1070
     1
1002
}
  0
DIMENSION
  5
2A31
330
1A
100
AcDbEntity
  8
AM_5
100
AcDbDimension
  2
*D30
 10
274.9414659253091
 20
263.779550010126
 30
0.0
 11
268.441465925309
 21
224.7795450101261
 31
0.0
 70
    32
  1
E=<>
 71
     5
 42
78.00000999999998
 73
     0
 74
     0
 75
     0
  3
AM_ISO
100
AcDbAlignedDimension
 13
235.8233069253091
 23
185.7795400101261
 33
0.0
 14
247.2181489253091
 24
263.779550010126
 34
0.0
 50
90.0
100
AcDbRotatedDimension
1001
ACAD
1000
DSTYLE
1002
{
1070
   174
1070
     1
1070
    40
1040
2.0
1002
}
  0
DIMENSION
  5
2A4D
330
1A
100
AcDbEntity
  8
AM_5
100
AcDbDimension
  2
*D31
 10
274.941465925309
 20
315.779550010126
 30
0.0
 11
268.440776948931
 21
289.7795500101261
 31
0.0
 70
    32
 71
     5
 42
52.0
 73
     0
 74
     0
 75
     0
  3
AM_ISO
100
AcDbAlignedDimension
 13
247.2181489253091
 23
263.779550010126
 33
0.0
 14
232.9414649253091
 24
315.779550010126
 34
0.0
 50
90.0
100
AcDbRotatedDimension
1001
ACAD
1000
DSTYLE
1002
{
1070
   174
1070
     1
1070
    40
1040
2.0
1002
}
  0
DIMENSION
  5
2ABF
330
1A
100
AcDbEntity
  8
AM_5
100
AcDbDimension
  2
*D32
 10
263.1236744671136
 20
185.7795400101261
 30
0.0
 11
256.6236744671135
 21
205.8245147569567
 31
0.0
 70
    32
 71
     5
 42
7.500001999999994
 73
     0
 74
     0
 75
     0
  3
AM_ISO
100
AcDbAlignedDimension
 13
246.6543589253091
 23
178.279538010126
 33
0.0
 14
232.5414589253091
 24
185.7795400101261
 34
0.0
 50
90.00000000000003
100
AcDbRotatedDimension
1001
ACAD
1000
DSTYLE
1002
{
1070
    40
1040
2.0
1002
}
  0
DIMENSION
  5
2B08
330
1A
100
AcDbEntity
  8
AM_5
100
AcDbDimension
  2
*D33
 10
263.4968929176858
 20
242.1795440101261
 30
0.0
 11
256.9962039413078
 21
252.9795470101261
 31
0.0
 70
    32
 71
     5
 42
21.60000600000001
 73
     0
 74
     0
 75
     0
  3
AM_ISO
100
AcDbAlignedDimension
 13
247.2181489253091
 23
263.779550010126
 33
0.0
 14
227.8164589253091
 24
242.1795440101261
 34
0.0
 50
90.00000000000003
100
AcDbRotatedDimension
1001
ACAD
1000
DSTYLE
1002
{
1070
    40
1040
2.0
1002
}
  0
DIMENSION
  5
2B5A
330
1A
100
AcDbEntity
  8
AM_5
100
AcDbDimension
  2
*D34
 10
274.941482925309
 20
63.77955001012605
 30
0.0
 11
268.4407939489311
 21
85.63975670303948
 31
0.0
 70
    32
 71
     5
 42
13.20001200000001
 73
     0
 74
     0
 75
     0
  3
AM_ISO
100
AcDbAlignedDimension
 13
250.9414829253091
 23
50.57953801012605
 33
0.0
 14
250.9414829253091
 24
63.77955001012606
 34
0.0
 50
90.0
100
AcDbRotatedDimension
1001
ACAD
1000
DSTYLE
1002
{
1070
    40
1040
2.0
1002
}
  0
DIMENSION
  5
2BA3
330
1A
100
AcDbEntity
  8
AM_5
100
AcDbDimension
  2
*D35
 10
183.0179499022323
 20
63.77955001012605
 30
0.0
 11
183.0179499022323
 21
85.33288509214402
 31
0.0
 70
   160
  1
0.9
 71
     5
 42
1.400001999999979
 73
     0
 74
     0
 75
     0
  3
AM_ISO
100
AcDbAlignedDimension
 13
164.4414589253091
 23
65.17955201012603
 33
0.0
 14
164.4414589253091
 24
63.77955001012606
 34
0.0
 50
90.0
100
AcDbRotatedDimension
1001
ACAD
1000
DSTYLE
1002
{
1070
    40
1040
2.0
1002
}
  0
DIMENSION
  5
2BEC
330
1A
100
AcDbEntity
  8
AM_5
100
AcDbDimension
  2
*D36
 10
164.4414589253091
 20
22.67951401012608
 30
0.0
 11
180.9864336721397
 21
29.17951401012608
 31
0.0
 70
    32
 71
     5
 42
3.0
 73
     0
 74
     0
 75
     0
  3
AM_ISO
100
AcDbAlignedDimension
 13
161.4414589253091
 23
46.67954401012605
 33
0.0
 14
164.4414589253091
 24
46.67951401012607
 34
0.0
 50
0.0000000000001132
100
AcDbRotatedDimension
1001
ACAD
1000
DSTYLE
1002
{
1070
    40
1040
2.0
1002
}
  0
DIMENSION
  5
2C35
330
1A
100
AcDbEntity
  8
AM_5
100
AcDbDimension
  2
*D37
 10
358.5414429253091
 20
96.77952990911329
 30
0.0
 11
349.5414499253091
 21
103.2795299091133
 31
0.0
 70
    32
 71
     5
 42
17.99998599999975
 73
     0
 74
     0
 75
     0
  3
AM_ISO
100
AcDbAlignedDimension
 13
340.5414569253093
 23
129.7795297554091
 33
0.0
 14
358.5414429253091
 24
129.7636555082811
 34
0.0
 50
0.0000016215784884
100
AcDbRotatedDimension
1001
ACAD
1000
DSTYLE
1002
{
1070
    40
1040
2.0
1002
}
  0
DIMENSION
  5
2C7E
330
1A
100
AcDbEntity
  8
AM_5
100
AcDbDimension
  2
*D38
 10
316.5414559830523
 20
129.779520010126
 30
0.0
 11
310.0414559830522
 21
125.2795250101261
 31
0.0
 70
    32
 71
     5
 42
8.999989999999954
 73
     0
 74
     0
 75
     0
  3
AM_ISO
100
AcDbAlignedDimension
 13
349.5414569253093
 23
120.7795300101261
 33
0.0
 14
342.416442925309
 24
129.779520010126
 34
0.0
 50
90.00000162157842
100
AcDbRotatedDimension
1001
ACAD
1000
DSTYLE
1002
{
1070
    40
1040
2.0
1070
   174
1070
     1
1002
}
  0
DIMENSION
  5
2D30
330
1A
100
AcDbEntity
  8
AM_5
100
AcDbDimension
  2
*D39
 10
316.6434216935985
 20
129.779520010126
 30
0.0
 11
310.1427327172205
 21
235.779543010126
 31
0.0
 70
    32
 71
     5
 42
212.0000459999999
 73
     0
 74
     0
 75
     0
  3
AM_ISO
100
AcDbAlignedDimension
 13
342.416426925309
 23
341.779566010126
 33
0.0
 14
342.416442925309
 24
129.779520010126
 34
0.0
 50
90.00000162157848
100
AcDbRotatedDimension
1001
ACAD
1000
DSTYLE
1002
{
1070
    40
1040
2.0
1070
   174
1070
     1
1002
}
  0
DIMENSION
  5
2D6C
330
1A
100
AcDbEntity
  8
AM_5
100
AcDbDimension
  2
*D40
 10
354.4414509253091
 20
313.177826252899
 30
0.0
 11
376.2364256721397
 21
319.677826252899
 31
0.0
 70
    32
 71
     5
 42
10.50005200000009
 73
     0
 74
     0
 75
     0
  3
AM_ISO
100
AcDbAlignedDimension
 13
343.9413989253091
 23
300.779596010126
 33
0.0
 14
354.4414509253091
 24
297.2795500101261
 34
0.0
 50
0.0000000000000114
100
AcDbRotatedDimension
1001
ACAD
1000
DSTYLE
1002
{
1070
    40
1040
2.0
1002
}
  0
DIMENSION
  5
2DB5
330
1A
100
AcDbEntity
  8
AM_5
100
AcDbDimension
  2
*D41
 10
340.5414524739837
 20
286.1875625558946
 30
0.0
 11
377.2887100714396
 21
286.1875625558946
 31
0.0
 70
   160
 71
     5
 42
3.399968451325378
 73
     0
 74
     0
 75
     0
  3
AM_ISO
100
AcDbAlignedDimension
 13
343.9414209253091
 23
287.0597210126
 33
0.0
 14
340.5414524739837
 24
287.0597209163745
 34
0.0
 50
0.0000000000001132
100
AcDbRotatedDimension
1001
ACAD
1000
DSTYLE
1002
{
1070
    40
1040
2.0
1002
}
  0
DIMENSION
  5
2DF6
330
1A
100
AcDbEntity
  8
AM_5
100
AcDbDimension
  2
*D42
 10
351.6414329253091
 20
246.779517010126
 30
0.0
 11
371.6864076721397
 21
253.279517010126
 31
0.0
 70
    32
 71
     5
 42
7.499961999999982
 73
     0
 74
     0
 75
     0
  3
AM_ISO
100
AcDbAlignedDimension
 13
344.1414709253091
 23
222.779516010126
 33
0.0
 14
351.6414329253091
 24
222.779516010126
 34
0.0
 50
0.0000000000000114
100
AcDbRotatedDimension
1001
ACAD
1000
DSTYLE
1002
{
1070
    40
1040
2.0
1002
}
  0
DIMENSION
  5
2EA0
330
1A
100
AcDbEntity
  8
AM_5
100
AcDbDimension
  2
*D43
 10
340.5414547191776
 20
204.7731256836085
 30
0.0
 11
381.703954841879
 21
204.7731256836085
 31
0.0
 70
   160
 71
     5
 42
3.600024206131479
 73
     0
 74
     0
 75
     0
  3
AM_ISO
100
AcDbAlignedDimension
 13
344.1414789253091
 23
207.729526010126
 33
0.0
 14
340.5414547191776
 24
207.729526010126
 34
0.0
 50
0.0000000000001132
100
AcDbRotatedDimension
1001
ACAD
1000
DSTYLE
1002
{
1070
    40
1040
2.0
1002
}
  0
DIMENSION
  5
2EE9
330
1A
100
AcDbEntity
  8
AM_5
100
AcDbDimension
  2
*D44
 10
352.0414429253091
 20
139.5930228867612
 30
0.0
 11
370.039619020998
 21
139.5930228867612
 31
0.0
 70
   160
 71
     5
 42
5.0
 73
     0
 74
     0
 75
     0
  3
AM_ISO
100
AcDbAlignedDimension
 13
347.0414429253091
 23
129.779520010126
 33
0.0
 14
352.0414429253091
 24
129.779520010126
 34
0.0
 50
0.0000000000000114
100
AcDbRotatedDimension
1001
ACAD
1000
DSTYLE
1002
{
1070
    40
1040
2.0
1002
}
  0
DIMENSION
  5
2F32
330
1A
100
AcDbEntity
  8
AM_5
100
AcDbDimension
  2
*D45
 10
354.2914429253091
 20
156.8808765241549
 30
0.0
 11
374.4813924189703
 21
156.8808765241549
 31
0.0
 70
   160
 71
     5
 42
9.5
 73
     0
 74
     0
 75
     0
  3
AM_ISO
100
AcDbAlignedDimension
 13
344.7914429253091
 23
129.779520010126
 33
0.0
 14
354.2914429253091
 24
129.779520010126
 34
0.0
 50
0.0000000000000114
100
AcDbRotatedDimension
1001
ACAD
1000
DSTYLE
1002
{
1070
    40
1040
2.0
1002
}
  0
TEXT
  5
2F89
330
1A
100
AcDbEntity
  8
AM_6
100
AcDbText
 10
315.9950051865052
 20
57.11012421753594
 30
0.0
 40
7.0
  1
1106-3
100
AcDbText
1001
GENIUS_AMGTXT_16
1040
3.5
1040
0.12
  0
DIMENSION
  5
2FA6
330
1A
100
AcDbEntity
  8
AM_5
100
AcDbDimension
  2
*D46
 10
225.4414589253091
 20
287.5052991283667
 30
0.0
 11
221.4414579253091
 21
287.5052991283667
 31
0.0
 70
   160
  1
<>/9
 71
     5
 42
8.000001999999994
 73
     0
 74
     0
 75
     0
  3
AM_ISO
100
AcDbAlignedDimension
 13
217.4414569253091
 23
267.779550010126
 33
0.0
 14
225.4414589253091
 24
267.779550010126
 34
0.0
 50
0.0000000000000114
100
AcDbRotatedDimension
1001
ACAD
1000
DSTYLE
1002
{
1070
    40
1040
2.0
1002
}
  0
ARC
  5
30E5
330
1A
100
AcDbEntity
  8
1
100
AcDbCircle
 10
221.4414640843291
 20
166.7795660101261
 30
0.0
 40
5.099999
100
AcDbArc
 50
180.0
 51
0.0
  0
ARC
  5
30EB
330
1A
100
AcDbEntity
  8
1
100
AcDbCircle
 10
221.4414570843292
 20
185.7795400101261
 30
0.0
 40
8.599999
100
AcDbArc
 50
306.3718190000011
 51
233.6280209999993
  0
LINE
  5
30EC
330
1A
100
AcDbEntity
  8
1
100
AcDbLine
 10
216.3414510843292
 20
178.8549480101261
 30
0.0
 11
216.3414510843292
 21
166.7795660101261
 31
0.0
  0
LINE
  5
30ED
330
1A
100
AcDbEntity
  8
1
100
AcDbLine
 10
226.5414630843292
 20
178.8549480101261
 30
0.0
 11
226.5414630843292
 21
166.7795660101261
 31
0.0
  0
LINE
  5
30EE
330
1A
100
AcDbEntity
  8
7
  6
GEN7A
100
AcDbLine
 10
208.0188189253091
 20
185.7795400101261
 30
0.0
 11
236.6067289253091
 21
185.7795400101261
 31
0.0
  0
LINE
  5
30EF
330
1A
100
AcDbEntity
  8
AM_7
100
AcDbLine
 10
221.4414564849403
 20
197.179539010126
 30
0.0
 11
221.441464683718
 21
158.8795670101262
 31
0.0
1001
GENIUS_GENOBJ-N-CEN_13
1002
{
1000
OWNER
1000
GEN
1002
}
1001
GENIUS_GENODEF_13
1002
{
1000
HIER
1070
     0
1002
}
1002
{
1000
MANEDIT
1070
     0
1002
}
1002
{
1000
NOSEL
1070
     0
1002
}
1002
{
1000
BEHIND
1070
     0
1002
}
1002
{
1000
OTHER
1070
     0
1002
}
1002
{
1000
REACTOR
1002
}
  0
LINE
  5
325F
330
1A
100
AcDbEntity
  8
7
  6
GEN7A
100
AcDbLine
 10
225.4414570843292
 20
181.7795400101261
 30
0.0
 11
217.4414570843292
 21
181.7795400101261
 31
0.0
  0
LINE
  5
3260
330
1A
100
AcDbEntity
  8
7
  6
GEN7A
100
AcDbLine
 10
225.4414570843292
 20
189.7795400101261
 30
0.0
 11
225.4414570843292
 21
181.7795400101261
 31
0.0
  0
LINE
  5
3261
330
1A
100
AcDbEntity
  8
7
  6
GEN7A
100
AcDbLine
 10
225.4414570843292
 20
189.7795400101261
 30
0.0
 11
217.4414570843292
 21
189.7795400101261
 31
0.0
  0
LINE
  5
3262
330
1A
100
AcDbEntity
  8
7
  6
GEN7A
100
AcDbLine
 10
217.4414570843292
 20
189.7795400101261
 30
0.0
 11
217.4414570843292
 21
181.7795400101261
 31
0.0
  0
LINE
  5
326B
330
1A
100
AcDbEntity
  8
7
  6
GEN7A
100
AcDbLine
 10
240.4414590843292
 20
190.958064010126
 30
0.0
 11
240.4414590843292
 21
180.601016010126
 31
0.0
  0
LINE
  5
326C
330
1A
100
AcDbEntity
  8
7
  6
GEN7A
100
AcDbLine
 10
247.7185830843292
 20
185.7795400101261
 30
0.0
 11
232.9901390843292
 21
185.7795400101261
 31
0.0
  0
LINE
  5
326D
330
1A
100
AcDbEntity
  8
7
  6
GEN7A
100
AcDbLine
 10
210.4087590843292
 20
185.7795400101261
 30
0.0
 11
196.9799050843292
 21
185.7795400101261
 31
0.0
  0
LINE
  5
326E
330
1A
100
AcDbEntity
  8
7
  6
GEN7A
100
AcDbLine
 10
202.4414570843292
 20
191.089142010126
 30
0.0
 11
202.4414570843292
 21
180.7321020101261
 31
0.0
  0
LINE
  5
326F
330
1A
100
AcDbEntity
  8
5
100
AcDbLine
 10
215.2211317585946
 20
204.3566331248532
 30
0.0
 11
207.8047152428274
 21
192.9174453611271
 31
0.0
  0
LINE
  5
3270
330
1A
100
AcDbEntity
  8
5
100
AcDbLine
 10
227.7230916043913
 20
203.7211233129982
 30
0.0
 11
235.9870991554638
 21
191.6464249940614
 31
0.0
  0
TEXT
  5
3271
330
1A
100
AcDbEntity
  8
6
100
AcDbText
 10
214.7973367212424
 20
205.8394913347969
 30
0.0
 40
7.0
  1
WC
100
AcDbText
1001
GENIUS_AMGTXT_16
1040
3.5
1040
0.12
  0
ARC
  5
32CB
330
1A
100
AcDbEntity
  8
AM_0
100
AcDbCircle
 10
349.5414469253345
 20
341.7795360101544
 30
0.0
 40
8.999996000024601
100
AcDbArc
 50
0.0001909858355342
 51
180.0000016215991
  0
ARC
  5
32CC
330
1A
100
AcDbEntity
  8
AM_0
100
AcDbCircle
 10
349.5414569253093
 20
129.779530010126
 30
0.0
 40
9.0
100
AcDbArc
 50
180.0
 51
359.8989397300945
  0
CIRCLE
  5
33CC
330
1A
100
AcDbEntity
  8
AM_0
100
AcDbCircle
 10
202.4414549253091
 20
263.779550010126
 30
0.0
 40
4.100000315253955
  0
LINE
  5
33CD
330
1A
100
AcDbEntity
  8
AM_7
  6
AM_ISO08W050x2
100
AcDbLine
 10
202.4414549253091
 20
270.67955032538
 30
0.0
 11
202.4414549253091
 21
256.8795496948721
 31
0.0
1001
GENIUS_GENOBJ-N-CEN_13
1002
{
1000
OWNER
1000
GEN
1002
}
1001
GENIUS_GENODEF_13
1002
{
1000
HIER
1070
     0
1002
}
1002
{
1000
MANEDIT
1070
     0
1002
}
1002
{
1000
NOSEL
1070
     0
1002
}
1002
{
1000
BEHIND
1070
     0
1002
}
1002
{
1000
OTHER
1070
     0
1002
}
1002
{
1000
REACTOR
1002
}
1001
GENIUS_GENCEN_19
1002
{
1040
2.799999999999999
1002
}
  0
CIRCLE
  5
33CE
330
1A
100
AcDbEntity
  8
AM_0
100
AcDbCircle
 10
240.4414609253091
 20
263.779550010126
 30
0.0
 40
4.100000315253955
  0
LINE
  5
33CF
330
1A
100
AcDbEntity
  8
AM_7
  6
AM_ISO08W050x2
100
AcDbLine
 10
240.4414609253091
 20
270.67955032538
 30
0.0
 11
240.4414609253091
 21
256.8795496948721
 31
0.0
1001
GENIUS_GENOBJ-N-CEN_13
1002
{
1000
OWNER
1000
GEN
1002
}
1001
GENIUS_GENODEF_13
1002
{
1000
HIER
1070
     0
1002
}
1002
{
1000
MANEDIT
1070
     0
1002
}
1002
{
1000
NOSEL
1070
     0
1002
}
1002
{
1000
BEHIND
1070
     0
1002
}
1002
{
1000
OTHER
1070
     0
1002
}
1002
{
1000
REACTOR
1002
}
1001
GENIUS_GENCEN_19
1002
{
1040
2.799999999999999
1002
}
  0
CIRCLE
  5
33D0
330
1A
100
AcDbEntity
  8
AM_0
100
AcDbCircle
 10
202.4414529253091
 20
178.279538010126
 30
0.0
 40
4.100000315253955
  0
LINE
  5
33D1
330
1A
100
AcDbEntity
  8
AM_7
  6
AM_ISO08W050x2
100
AcDbLine
 10
202.4414529253091
 20
185.30531032538
 30
0.0
 11
202.4414529253091
 21
171.5053096948721
 31
0.0
1001
GENIUS_GENOBJ-N-CEN_13
1002
{
1000
OWNER
1000
GEN
1002
}
1001
GENIUS_GENODEF_13
1002
{
1000
HIER
1070
     0
1002
}
1002
{
1000
MANEDIT
1070
     0
1002
}
1002
{
1000
NOSEL
1070
     0
1002
}
1002
{
1000
BEHIND
1070
     0
1002
}
1002
{
1000
OTHER
1070
     0
1002
}
1002
{
1000
REACTOR
1002
}
1001
GENIUS_GENCEN_19
1002
{
1040
2.799999999999999
1002
}
  0
CIRCLE
  5
33D2
330
1A
100
AcDbEntity
  8
AM_0
100
AcDbCircle
 10
240.4414589253091
 20
178.279538010126
 30
0.0
 40
4.100000315253955
  0
LINE
  5
33D3
330
1A
100
AcDbEntity
  8
AM_7
  6
AM_ISO08W050x2
100
AcDbLine
 10
240.4414589253091
 20
185.1795383253801
 30
0.0
 11
240.4414589253091
 21
171.3795376948721
 31
0.0
1001
GENIUS_GENOBJ-N-CEN_13
1002
{
1000
OWNER
1000
GEN
1002
}
1001
GENIUS_GENODEF_13
1002
{
1000
HIER
1070
     0
1002
}
1002
{
1000
MANEDIT
1070
     0
1002
}
1002
{
1000
NOSEL
1070
     0
1002
}
1002
{
1000
BEHIND
1070
     0
1002
}
1002
{
1000
OTHER
1070
     0
1002
}
1002
{
1000
REACTOR
1002
}
1001
GENIUS_GENCEN_19
1002
{
1040
2.799999999999999
1002
}
  0
CIRCLE
  5
33DB
330
1A
100
AcDbEntity
  8
7
  6
GEN7A
100
AcDbCircle
 10
202.4414570843292
 20
185.7795400101261
 30
0.0
 40
4.099999999999994
  0
CIRCLE
  5
33DC
330
1A
100
AcDbEntity
  8
7
  6
GEN7A
100
AcDbCircle
 10
240.4414590843292
 20
185.7795400101261
 30
0.0
 40
4.099999999999994
  0
LINE
  5
346E
330
1A
100
AcDbEntity
  8
AM_7
100
AcDbLine
 10
250.9414829253091
 20
57.17954401012605
 30
0.0
 11
158.8340613037386
 21
57.17954401012606
 31
0.0
  0
DIMENSION
  5
3471
330
1A
100
AcDbEntity
  8
AM_5
100
AcDbDimension
  2
*D48
 10
202.2423745272514
 20
57.17954401012605
 30
0.0
 11
202.2423745272514
 21
80.82955001012608
 31
0.0
 70
   160
  1
<>
 71
     5
 42
4.100005999999993
 73
     0
 74
     0
 75
     0
  3
AM_ISO$0
100
AcDbAlignedDimension
 13
156.4414709253091
 23
61.27955001012606
 33
0.0
 14
168.9365295727979
 24
57.17954401012606
 34
0.0
 50
90.00000000000003
100
AcDbRotatedDimension
1001
ACAD
1000
DSTYLE
1002
{
1070
    40
1040
2.0
1002
}
1001
ACAD_DSTYLE_DIMINSPECT
1070
   396
1000
100%
1070
   395
1000

1070
   394
1070
    33
1070
   393
1070
     0
  0
VIEWPORT
  5
22
330
17
100
AcDbEntity
 67
     1
  8
0
100
AcDbViewport
 10
112.2893422104056
 20
152.9962003562143
 30
0.0
 40
408.1687337183674
 41
318.4351405079092
 68
     1
 69
     1
 12
112.2893422104056
 22
152.9962003562143
 13
0.0
 23
0.0
 14
10.0
 24
10.0
 15
10.0
 25
10.0
 16
0.0
 26
0.0
 36
1.0
 17
0.0
 27
0.0
 37
0.0
 42
50.0
 43
0.0
 44
0.0
 45
318.4351405079092
 50
0.0
 51
0.0
 72
   100
331
1969
 90
    32800
  1

281
     0
 71
     1
 74
     0
110
0.0
120
0.0
130
0.0
111
1.0
121
0.0
131
0.0
112
0.0
122
1.0
132
0.0
 79
     0
146
0.0
170
     0
 61
     5
348
336C
292
     1
282
     1
141
0.0
142
0.0
 63
   250
421
  3355443
1001
GENIUS_GENOREF_13
1005
1677
1001
GENIUS_GENSCREG_15
1000
PF
1040
1.0
1000
DF
1040
1.0
1000
MIN
1011
-91.79502464877804
1021
-6.22136989774026
1031
0.0
1000
MAX
1011
316.3737090695894
1021
312.2137706101689
1031
0.0
1000
FLAGS
1070
     2
  0
POINT
  5
1895
330
17
100
AcDbEntity
 67
     1
  8
AM_0
 60
     1
100
AcDbPoint
 10
0.0
 20
0.0
 30
0.0
  0
POINT
  5
189D
330
17
100
AcDbEntity
 67
     1
  8
AM_0
 60
     1
100
AcDbPoint
 10
0.0
 20
0.0
 30
0.0
  0
POINT
  5
1900
330
17
100
AcDbEntity
 67
     1
  8
AM_0
 60
     1
100
AcDbPoint
 10
0.0
 20
0.0
 30
0.0
  0
POINT
  5
1908
330
17
100
AcDbEntity
 67
     1
  8
AM_0
 60
     1
100
AcDbPoint
 10
0.0
 20
0.0
 30
0.0
  0
ENDSEC
  0
SECTION
  2
OBJECTS
  0
DICTIONARY
  5
C
330
0
100
AcDbDictionary
281
     1
  3
ACAD_COLOR
350
31F1
  3
ACAD_GROUP
350
D
  3
ACAD_LAYOUT
350
167
  3
ACAD_MATERIAL
350
31F0
  3
ACAD_MLEADERSTYLE
350
338B
  3
ACAD_MLINESTYLE
350
E
  3
ACAD_PLOTSETTINGS
350
168
  3
ACAD_PLOTSTYLENAME
350
165
  3
ACAD_SCALELIST
350
3379
  3
ACAD_TABLESTYLE
350
3377
  3
ACAD_VISUALSTYLE
350
3366
  3
ACDB_RECOMPOSE_DATA
350
343E
  3
ACDBVARIABLEDICTIONARY
350
5D
  3
ACMDICTIONARY
350
142
  3
AMG
350
171
  3
AMG_3D2D_DICT
350
18A8
  3
AMGSNAPSETTINGS
350
1F2
  3
ASE_INDEX_DICTIONARY
350
3273
  3
MAPISURF_MODULE
350
17FD
  0
DICTIONARY
  5
33DD
330
F
100
AcDbDictionary
280
     1
281
     1
  3
ADSK_XREC_LAYER_RECONCILED
360
33DE
  0
DICTIONARY
  5
33DF
330
35A
100
AcDbDictionary
280
     1
281
     1
  3
ADSK_XREC_LAYER_RECONCILED
360
33E0
  0
DICTIONARY
  5
33E1
330
35B
100
AcDbDictionary
280
     1
281
     1
  3
ADSK_XREC_LAYER_RECONCILED
360
33E2
  0
DICTIONARY
  5
33E3
330
35C
100
AcDbDictionary
280
     1
281
     1
  3
ADSK_XREC_LAYER_RECONCILED
360
33E4
  0
DICTIONARY
  5
33E5
330
35D
100
AcDbDictionary
280
     1
281
     1
  3
ADSK_XREC_LAYER_RECONCILED
360
33E6
  0
DICTIONARY
  5
33E7
330
35E
100
AcDbDictionary
280
     1
281
     1
  3
ADSK_XREC_LAYER_RECONCILED
360
33E8
  0
DICTIONARY
  5
33E9
330
35F
100
AcDbDictionary
280
     1
281
     1
  3
ADSK_XREC_LAYER_RECONCILED
360
33EA
  0
DICTIONARY
  5
33EB
330
360
100
AcDbDictionary
280
     1
281
     1
  3
ADSK_XREC_LAYER_RECONCILED
360
33EC
  0
DICTIONARY
  5
33ED
330
361
100
AcDbDictionary
280
     1
281
     1
  3
ADSK_XREC_LAYER_RECONCILED
360
33EE
  0
DICTIONARY
  5
33EF
330
362
100
AcDbDictionary
280
     1
281
     1
  3
ADSK_XREC_LAYER_RECONCILED
360
33F0
  0
DICTIONARY
  5
33F1
330
38E
100
AcDbDictionary
280
     1
281
     1
  3
ADSK_XREC_LAYER_RECONCILED
360
33F2
  0
DICTIONARY
  5
33F3
330
3F7
100
AcDbDictionary
280
     1
281
     1
  3
ADSK_XREC_LAYER_RECONCILED
360
33F4
  0
DICTIONARY
  5
33F5
330
5FC
100
AcDbDictionary
280
     1
281
     1
  3
ADSK_XREC_LAYER_RECONCILED
360
33F6
  0
DICTIONARY
  5
33F7
330
614
100
AcDbDictionary
280
     1
281
     1
  3
ADSK_XREC_LAYER_RECONCILED
360
33F8
  0
DICTIONARY
  5
33F9
330
79B
100
AcDbDictionary
280
     1
281
     1
  3
ADSK_XREC_LAYER_RECONCILED
360
33FA
  0
DICTIONARY
  5
33FB
330
1054
100
AcDbDictionary
280
     1
281
     1
  3
ADSK_XREC_LAYER_RECONCILED
360
33FC
  0
DICTIONARY
  5
33FD
330
106E
100
AcDbDictionary
280
     1
281
     1
  3
ADSK_XREC_LAYER_RECONCILED
360
33FE
  0
DICTIONARY
  5
33FF
330
106F
100
AcDbDictionary
280
     1
281
     1
  3
ADSK_XREC_LAYER_RECONCILED
360
3400
  0
DICTIONARY
  5
3401
330
108B
100
AcDbDictionary
280
     1
281
     1
  3
ADSK_XREC_LAYER_RECONCILED
360
3402
  0
DICTIONARY
  5
3403
330
1969
100
AcDbDictionary
280
     1
281
     1
  3
ADSK_XREC_LAYER_RECONCILED
360
3404
  0
DICTIONARY
  5
3405
330
1B8E
100
AcDbDictionary
280
     1
281
     1
  3
ADSK_XREC_LAYER_RECONCILED
360
3406
  0
DICTIONARY
  5
3407
330
1B8F
100
AcDbDictionary
280
     1
281
     1
  3
ADSK_XREC_LAYER_RECONCILED
360
3408
  0
DICTIONARY
  5
3409
330
1B90
100
AcDbDictionary
280
     1
281
     1
  3
ADSK_XREC_LAYER_RECONCILED
360
340A
  0
DICTIONARY
  5
340B
330
3236
100
AcDbDictionary
280
     1
281
     1
  3
ADSK_XREC_LAYER_RECONCILED
360
340C
  0
DICTIONARY
  5
12A
330
1A
100
AcDbDictionary
280
     1
281
     1
  3
ACAD_INDEX
360
17BE
  0
DICTIONARY
  5
31F1
102
{ACAD_REACTORS
330
C
102
}
330
C
100
AcDbDictionary
281
     1
  0
DICTIONARY
  5
D
102
{ACAD_REACTORS
330
C
102
}
330
C
100
AcDbDictionary
281
     1
  0
DICTIONARY
  5
167
102
{ACAD_REACTORS
330
C
102
}
330
C
100
AcDbDictionary
281
     1
  3
A0
350
351
  3
A1
350
314
  3
A2
350
349
  3
A3
350
2E1
  3
A4
350
16A
  3
Model
350
169
  0
DICTIONARY
  5
31F0
102
{ACAD_REACTORS
330
C
102
}
330
C
100
AcDbDictionary
281
     1
  3
ByBlock
350
3356
  3
ByLayer
350
334E
  3
Global
350
335E
  0
DICTIONARY
  5
338B
102
{ACAD_REACTORS
330
C
102
}
330
C
100
AcDbDictionary
281
     1
  3
Standard
350
338C
  0
DICTIONARY
  5
E
102
{ACAD_REACTORS
330
C
102
}
330
C
100
AcDbDictionary
281
     1
  3
STANDARD
350
13
  0
DICTIONARY
  5
168
102
{ACAD_REACTORS
330
C
102
}
330
C
100
AcDbDictionary
281
     1
  3
A0
350
2EE
  3
A0-A3
350
2F2
  3
A0-A4
350
2F3
  3
A1
350
2ED
  3
A2
350
2EA
  3
A3
350
31E
  3
A4
350
319
  0
ACDBDICTIONARYWDFLT
  5
165
102
{ACAD_REACTORS
330
C
102
}
330
C
100
AcDbDictionary
281
     1
  3
Normal
350
166
100
AcDbDictionaryWithDefault
340
166
  0
DICTIONARY
  5
3379
102
{ACAD_REACTORS
330
C
102
}
330
C
100
AcDbDictionary
281
     1
  3
A0
350
337A
  3
A1
350
337B
  3
A2
350
337C
  3
A3
350
337D
  3
A4
350
337E
  3
A5
350
337F
  3
A6
350
3380
  3
A7
350
3381
  3
A8
350
3382
  3
A9
350
3383
  3
B0
350
3384
  3
B1
350
3385
  3
B2
350
3386
  3
B3
350
3387
  3
B4
350
3388
  3
B5
350
3389
  3
B6
350
338A
  0
DICTIONARY
  5
3377
102
{ACAD_REACTORS
330
C
102
}
330
C
100
AcDbDictionary
281
     1
  3
Standard
350
3378
  0
DICTIONARY
  5
3366
102
{ACAD_REACTORS
330
C
102
}
330
C
100
AcDbDictionary
281
     1
  3
2dWireframe
350
336C
  3
3D Hidden
350
336E
  3
3dWireframe
350
336D
  3
Basic
350
336B
  3
Brighten
350
3372
  3
ColorChange
350
3376
  3
Conceptual
350
336F
  3
Dim
350
3371
  3
Facepattern
350
3375
  3
Flat
350
3367
  3
FlatWithEdges
350
3368
  3
Gouraud
350
3369
  3
GouraudWithEdges
350
336A
  3
Linepattern
350
3374
  3
Realistic
350
3370
  3
Thicken
350
3373
  0
XRECORD
  5
343E
102
{ACAD_REACTORS
330
C
102
}
330
C
100
AcDbXrecord
280
     1
 90
        1
330
3378
  0
DICTIONARY
  5
5D
102
{ACAD_REACTORS
330
C
102
}
330
C
100
AcDbDictionary
281
     1
  3
CANNOSCALE
350
3442
  3
CMLEADERSTYLE
350
3440
  3
CTABLESTYLE
350
343F
  3
DIMADEC
350
5E
  3
INDEXCTL
350
128
  3
LAYEREVAL
350
3444
  3
LAYERNOTIFY
350
3445
  3
LIGHTINGUNITS
350
3443
  3
MSLTSCALE
350
3441
  3
SORTENTS
350
1044
  0
DICTIONARY
  5
142
102
{ACAD_REACTORS
330
C
102
}
330
C
100
AcDbDictionary
281
     1
  3
ACMSTDDICTIONARY
350
143
  3
AMDTSECTSYM_ARROWCOLOR
350
33B5
  0
DICTIONARY
  5
171
102
{ACAD_REACTORS
330
C
102
}
330
C
100
AcDbDictionary
281
     1
  3
AcMgSettings
350
172
  3
AMGLAYCFG
350
174
  0
DICTIONARY
  5
18A8
102
{ACAD_REACTORS
330
C
102
}
330
C
100
AcDbDictionary
281
     1
  3
AMG_SUBLIST_DICT
350
18A9
  0
DICTIONARY
  5
1F2
102
{ACAD_REACTORS
330
C
102
}
330
C
100
AcDbDictionary
281
     1
  3
DIMENSION
350
164B
  3
FEA
350
164C
  3
HATCH
350
164D
  3
SYMBOLS
350
164E
  0
DICTIONARY
  5
3273
102
{ACAD_REACTORS
330
C
102
}
330
C
100
AcDbDictionary
281
     1
  3
ASEBlockHierarchyIndexRecord
350
3275
1001
DCO15
1040
1483433017.299
  0
XRECORD
  5
33DE
102
{ACAD_REACTORS
330
33DD
102
}
330
33DD
100
AcDbXrecord
280
     1
290
     1
  0
XRECORD
  5
33E0
102
{ACAD_REACTORS
330
33DF
102
}
330
33DF
100
AcDbXrecord
280
     1
290
     1
  0
XRECORD
  5
33E2
102
{ACAD_REACTORS
330
33E1
102
}
330
33E1
100
AcDbXrecord
280
     1
290
     1
  0
XRECORD
  5
33E4
102
{ACAD_REACTORS
330
33E3
102
}
330
33E3
100
AcDbXrecord
280
     1
290
     1
  0
XRECORD
  5
33E6
102
{ACAD_REACTORS
330
33E5
102
}
330
33E5
100
AcDbXrecord
280
     1
290
     1
  0
XRECORD
  5
33E8
102
{ACAD_REACTORS
330
33E7
102
}
330
33E7
100
AcDbXrecord
280
     1
290
     1
  0
XRECORD
  5
33EA
102
{ACAD_REACTORS
330
33E9
102
}
330
33E9
100
AcDbXrecord
280
     1
290
     1
  0
XRECORD
  5
33EC
102
{ACAD_REACTORS
330
33EB
102
}
330
33EB
100
AcDbXrecord
280
     1
290
     1
  0
XRECORD
  5
33EE
102
{ACAD_REACTORS
330
33ED
102
}
330
33ED
100
AcDbXrecord
280
     1
290
     1
  0
XRECORD
  5
33F0
102
{ACAD_REACTORS
330
33EF
102
}
330
33EF
100
AcDbXrecord
280
     1
290
     1
  0
XRECORD
  5
33F2
102
{ACAD_REACTORS
330
33F1
102
}
330
33F1
100
AcDbXrecord
280
     1
290
     1
  0
XRECORD
  5
33F4
102
{ACAD_REACTORS
330
33F3
102
}
330
33F3
100
AcDbXrecord
280
     1
290
     1
  0
XRECORD
  5
33F6
102
{ACAD_REACTORS
330
33F5
102
}
330
33F5
100
AcDbXrecord
280
     1
290
     1
  0
XRECORD
  5
33F8
102
{ACAD_REACTORS
330
33F7
102
}
330
33F7
100
AcDbXrecord
280
     1
290
     1
  0
XRECORD
  5
33FA
102
{ACAD_REACTORS
330
33F9
102
}
330
33F9
100
AcDbXrecord
280
     1
290
     1
  0
XRECORD
  5
33FC
102
{ACAD_REACTORS
330
33FB
102
}
330
33FB
100
AcDbXrecord
280
     1
290
     1
  0
XRECORD
  5
33FE
102
{ACAD_REACTORS
330
33FD
102
}
330
33FD
100
AcDbXrecord
280
     1
290
     1
  0
XRECORD
  5
3400
102
{ACAD_REACTORS
330
33FF
102
}
330
33FF
100
AcDbXrecord
280
     1
290
     1
  0
XRECORD
  5
3402
102
{ACAD_REACTORS
330
3401
102
}
330
3401
100
AcDbXrecord
280
     1
290
     1
  0
XRECORD
  5
3404
102
{ACAD_REACTORS
330
3403
102
}
330
3403
100
AcDbXrecord
280
     1
290
     1
  0
XRECORD
  5
3406
102
{ACAD_REACTORS
330
3405
102
}
330
3405
100
AcDbXrecord
280
     1
290
     1
  0
XRECORD
  5
3408
102
{ACAD_REACTORS
330
3407
102
}
330
3407
100
AcDbXrecord
280
     1
290
     1
  0
XRECORD
  5
340A
102
{ACAD_REACTORS
330
3409
102
}
330
3409
100
AcDbXrecord
280
     1
290
     1
  0
XRECORD
  5
340C
102
{ACAD_REACTORS
330
340B
102
}
330
340B
100
AcDbXrecord
280
     1
290
     1
  0
DICTIONARY
  5
17BE
102
{ACAD_REACTORS
330
12A
102
}
330
12A
100
AcDbDictionary
281
     1
  3
*A1
350
17BF
  0
LAYOUT
  5
351
102
{ACAD_REACTORS
330
167
102
}
330
167
100
AcDbPlotSettings
  1
A0
  2
HPDJ220-A0
  4
User268
  6

 40
4.995333194732666
 41
16.93336677551269
 42
4.99530029296875
 43
16.933349609375
 44
840.9093017578125
 45
1188.8046875
 46
0.0
 47
0.0
 48
0.0
 49
0.0
140
0.0
141
0.0
142
1.0
143
1.0
 70
   752
 72
     1
 73
     1
 74
     5
  7
PLA0.ctb
 75
    16
147
1.0
 76
     0
 77
     2
 78
   300
148
0.0
149
0.0
100
AcDbLayout
  1
A0
 70
     1
 71
     5
 10
-16.933349609375
 20
-4.995333194732666
 11
1171.871337890625
 21
835.9139685630799
 12
0.0
 22
0.0
 32
0.0
 14
1.000000000000000E+20
 24
1.000000000000000E+20
 34
1.000000000000000E+20
 15
-1.000000000000000E+20
 25
-1.000000000000000E+20
 35
-1.000000000000000E+20
146
0.0
 13
0.0
 23
0.0
 33
0.0
 16
1.0
 26
0.0
 36
0.0
 17
0.0
 27
1.0
 37
0.0
 76
     0
330
34D
331
34E
  0
LAYOUT
  5
314
102
{ACAD_REACTORS
330
167
102
}
330
167
100
AcDbPlotSettings
  1
A2
  2
HPDJ220-A0
  4
User266
  6

 40
4.995333194732666
 41
16.93330574035644
 42
4.995330810546875
 43
16.933349609375
 44
419.9466552734374
 45
593.8519897460937
 46
0.0
 47
0.0
 48
0.0
 49
0.0
140
0.0
141
0.0
142
1.0
143
1.0
 70
   752
 72
     1
 73
     1
 74
     5
  7
PLA2.ctb
 75
    16
147
1.0
 76
     0
 77
     2
 78
   300
148
0.0
149
0.0
100
AcDbLayout
  1
A1
 70
     1
 71
     4
 10
-16.933349609375
 20
-4.995333194732666
 11
576.9186401367187
 21
414.9513220787047
 12
0.0
 22
0.0
 32
0.0
 14
1.000000000000000E+20
 24
1.000000000000000E+20
 34
1.000000000000000E+20
 15
-1.000000000000000E+20
 25
-1.000000000000000E+20
 35
-1.000000000000000E+20
146
0.0
 13
0.0
 23
0.0
 33
0.0
 16
1.0
 26
0.0
 36
0.0
 17
0.0
 27
1.0
 37
0.0
 76
     0
330
313
331
344
  0
LAYOUT
  5
349
102
{ACAD_REACTORS
330
167
102
}
330
167
100
AcDbPlotSettings
  1
A2
  2
HPDJ220-A0
  4
User266
  6

 40
4.995333194732666
 41
16.93330574035644
 42
4.995330810546875
 43
16.933349609375
 44
419.9466552734374
 45
593.8519897460937
 46
0.0
 47
0.0
 48
0.0
 49
0.0
140
0.0
141
0.0
142
1.0
143
1.0
 70
   752
 72
     1
 73
     1
 74
     5
  7
PLA2.ctb
 75
    16
147
1.0
 76
     0
 77
     2
 78
   300
148
0.0
149
0.0
100
AcDbLayout
  1
A2
 70
     1
 71
     3
 10
-16.933349609375
 20
-4.995333194732666
 11
576.9186401367187
 21
414.9513220787047
 12
0.0
 22
0.0
 32
0.0
 14
1.000000000000000E+20
 24
1.000000000000000E+20
 34
1.000000000000000E+20
 15
-1.000000000000000E+20
 25
-1.000000000000000E+20
 35
-1.000000000000000E+20
146
0.0
 13
0.0
 23
0.0
 33
0.0
 16
1.0
 26
0.0
 36
0.0
 17
0.0
 27
1.0
 37
0.0
 76
     0
330
345
331
346
  0
LAYOUT
  5
2E1
102
{ACAD_REACTORS
330
167
102
}
330
167
100
AcDbPlotSettings
  1
A3
  2
\\GLUTZCH_PDC\HP LaserJet 5000 N PCL 6
  4
A3
  6

 40
5.027083396911621
 41
5.111741065979003
 42
5.11175537109375
 43
5.027069091796875
 44
297.0106506347656
 45
419.9889831542968
 46
0.0
 47
0.0
 48
0.0
 49
0.0
140
0.0
141
0.0
142
1.0
143
1.0
 70
   752
 72
     1
 73
     1
 74
     5
  7
LAA3.ctb
 75
    16
147
1.0
 76
     0
 77
     2
 78
   300
148
0.0
149
0.0
100
AcDbLayout
  1
A3
 70
     1
 71
     2
 10
-5.027069091796875
 20
-5.027083396911621
 11
414.9619140625
 21
291.983567237854
 12
0.0
 22
0.0
 32
0.0
 14
1.000000000000000E+20
 24
1.000000000000000E+20
 34
1.000000000000000E+20
 15
-1.000000000000000E+20
 25
-1.000000000000000E+20
 35
-1.000000000000000E+20
146
0.0
 13
0.0
 23
0.0
 33
0.0
 16
1.0
 26
0.0
 36
0.0
 17
0.0
 27
1.0
 37
0.0
 76
     0
330
2E0
331
31D
  0
LAYOUT
  5
16A
102
{ACAD_REACTORS
330
167
102
}
330
167
100
AcDbPlotSettings
  1
A4
  2
\\GLUTZCH_PDC\HP LaserJet 5000 N PCL 6
  4
A4
  6

 40
5.027083396911621
 41
5.111741065979003
 42
5.11175537109375
 43
5.027069091796875
 44
210.0156707763672
 45
297.0106506347656
 46
0.0
 47
0.0
 48
0.0
 49
0.0
140
0.0
141
0.0
142
1.0
143
1.0
 70
   752
 72
     1
 73
     0
 74
     5
  7
LAA4.ctb
 75
    16
147
1.0
 76
     0
 77
     2
 78
   300
148
0.0
149
0.0
100
AcDbLayout
  1
A4
 70
     1
 71
     1
 10
-5.027083396911621
 20
-5.111741065979003
 11
204.9885873794556
 21
291.8989095687866
 12
0.0
 22
0.0
 32
0.0
 14
1.000000000000000E+20
 24
1.000000000000000E+20
 34
1.000000000000000E+20
 15
-1.000000000000000E+20
 25
-1.000000000000000E+20
 35
-1.000000000000000E+20
146
0.0
 13
0.0
 23
0.0
 33
0.0
 16
1.0
 26
0.0
 36
0.0
 17
0.0
 27
1.0
 37
0.0
 76
     0
330
17
331
22
  0
LAYOUT
  5
169
102
{ACAD_REACTORS
330
167
102
}
330
167
100
AcDbPlotSettings
  1

  2
HP Laserjet 5000 N PCL 6.pc3
  4
A4
  6
AMDTVIEW1
 40
6.011333465576171
 41
4.233341693878173
 42
6.011322021484375
 43
4.23333740234375
 44
209.9733276367187
 45
296.9259948730469
 46
16.01482584658018
 47
48.62515954723676
 48
0.0
 49
0.0
140
0.0
141
0.0
142
1.0
143
2.0
 70
 11956
 72
     1
 73
     0
 74
     1
  7
v:\vorlagen\LAA4.ctb
 75
    17
147
0.5
 76
     1
 77
     2
 78
   300
148
143.9847890082733
149
156.3526689643241
100
AcDbLayout
  1
Model
 70
     1
 71
     0
 10
0.0
 20
0.0
 11
12.0
 21
9.0
 12
0.0
 22
0.0
 32
0.0
 14
0.0
 24
0.0
 34
0.0
 15
0.0
 25
0.0
 35
0.0
146
0.0
 13
0.0
 23
0.0
 33
0.0
 16
1.0
 26
0.0
 36
0.0
 17
0.0
 27
1.0
 37
0.0
 76
     0
330
1A
331
334C
  0
MATERIAL
  5
3356
102
{ACAD_XDICTIONARY
360
3357
102
}
102
{ACAD_REACTORS
330
31F0
102
}
330
31F0
100
AcDbMaterial
  1
ByBlock
 72
     0
 43
0.0208333333333333
 43
0.0
 43
0.0
 43
0.0
 43
0.0
 43
0.0208333333333333
 43
0.0
 43
0.0
 43
0.0
 43
0.0
 43
1.0
 43
0.0
 43
0.0
 43
0.0
 43
0.0
 43
1.0
 77
     0
 47
0.0208333333333333
 47
0.0
 47
0.0
 47
0.0
 47
0.0
 47
0.0208333333333333
 47
0.0
 47
0.0
 47
0.0
 47
0.0
 47
1.0
 47
0.0
 47
0.0
 47
0.0
 47
0.0
 47
1.0
171
     0
 49
0.0208333333333333
 49
0.0
 49
0.0
 49
0.0
 49
0.0
 49
0.0208333333333333
 49
0.0
 49
0.0
 49
0.0
 49
0.0
 49
1.0
 49
0.0
 49
0.0
 49
0.0
 49
0.0
 49
1.0
175
     0
142
0.0208333333333333
142
0.0
142
0.0
142
0.0
142
0.0
142
0.0208333333333333
142
0.0
142
0.0
142
0.0
142
0.0
142
1.0
142
0.0
142
0.0
142
0.0
142
0.0
142
1.0
179
     0
144
0.0208333333333333
144
0.0
144
0.0
144
0.0
144
0.0
144
0.0208333333333333
144
0.0
144
0.0
144
0.0
144
0.0
144
1.0
144
0.0
144
0.0
144
0.0
144
0.0
144
1.0
147
0.0208333333333333
147
0.0
147
0.0
147
0.0
147
0.0
147
0.0208333333333333
147
0.0
147
0.0
147
0.0
147
0.0
147
1.0
147
0.0
147
0.0
147
0.0
147
0.0
147
1.0
  0
MATERIAL
  5
334E
102
{ACAD_XDICTIONARY
360
334F
102
}
102
{ACAD_REACTORS
330
31F0
102
}
330
31F0
100
AcDbMaterial
  1
ByLayer
 72
     0
 43
0.0208333333333333
 43
0.0
 43
0.0
 43
0.0
 43
0.0
 43
0.0208333333333333
 43
0.0
 43
0.0
 43
0.0
 43
0.0
 43
1.0
 43
0.0
 43
0.0
 43
0.0
 43
0.0
 43
1.0
 77
     0
 47
0.0208333333333333
 47
0.0
 47
0.0
 47
0.0
 47
0.0
 47
0.0208333333333333
 47
0.0
 47
0.0
 47
0.0
 47
0.0
 47
1.0
 47
0.0
 47
0.0
 47
0.0
 47
0.0
 47
1.0
171
     0
 49
0.0208333333333333
 49
0.0
 49
0.0
 49
0.0
 49
0.0
 49
0.0208333333333333
 49
0.0
 49
0.0
 49
0.0
 49
0.0
 49
1.0
 49
0.0
 49
0.0
 49
0.0
 49
0.0
 49
1.0
175
     0
142
0.0208333333333333
142
0.0
142
0.0
142
0.0
142
0.0
142
0.0208333333333333
142
0.0
142
0.0
142
0.0
142
0.0
142
1.0
142
0.0
142
0.0
142
0.0
142
0.0
142
1.0
179
     0
144
0.0208333333333333
144
0.0
144
0.0
144
0.0
144
0.0
144
0.0208333333333333
144
0.0
144
0.0
144
0.0
144
0.0
144
1.0
144
0.0
144
0.0
144
0.0
144
0.0
144
1.0
147
0.0208333333333333
147
0.0
147
0.0
147
0.0
147
0.0
147
0.0208333333333333
147
0.0
147
0.0
147
0.0
147
0.0
147
1.0
147
0.0
147
0.0
147
0.0
147
0.0
147
1.0
  0
MATERIAL
  5
335E
102
{ACAD_XDICTIONARY
360
335F
102
}
102
{ACAD_REACTORS
330
31F0
102
}
330
31F0
100
AcDbMaterial
  1
Global
 72
     0
 43
0.0208333333333333
 43
0.0
 43
0.0
 43
0.0
 43
0.0
 43
0.0208333333333333
 43
0.0
 43
0.0
 43
0.0
 43
0.0
 43
1.0
 43
0.0
 43
0.0
 43
0.0
 43
0.0
 43
1.0
 77
     0
 47
0.0208333333333333
 47
0.0
 47
0.0
 47
0.0
 47
0.0
 47
0.0208333333333333
 47
0.0
 47
0.0
 47
0.0
 47
0.0
 47
1.0
 47
0.0
 47
0.0
 47
0.0
 47
0.0
 47
1.0
171
     0
 49
0.0208333333333333
 49
0.0
 49
0.0
 49
0.0
 49
0.0
 49
0.0208333333333333
 49
0.0
 49
0.0
 49
0.0
 49
0.0
 49
1.0
 49
0.0
 49
0.0
 49
0.0
 49
0.0
 49
1.0
175
     0
142
0.0208333333333333
142
0.0
142
0.0
142
0.0
142
0.0
142
0.0208333333333333
142
0.0
142
0.0
142
0.0
142
0.0
142
1.0
142
0.0
142
0.0
142
0.0
142
0.0
142
1.0
179
     0
144
0.0208333333333333
144
0.0
144
0.0
144
0.0
144
0.0
144
0.0208333333333333
144
0.0
144
0.0
144
0.0
144
0.0
144
1.0
144
0.0
144
0.0
144
0.0
144
0.0
144
1.0
147
0.0208333333333333
147
0.0
147
0.0
147
0.0
147
0.0
147
0.0208333333333333
147
0.0
147
0.0
147
0.0
147
0.0
147
1.0
147
0.0
147
0.0
147
0.0
147
0.0
147
1.0
  0
MLEADERSTYLE
  5
338C
102
{ACAD_REACTORS
330
338B
102
}
330
338B
100
AcDbMLeaderStyle
170
     2
171
     1
172
     0
 90
        2
 40
0.0
 41
0.0
173
     1
 91
-1056964608
340
14
 92
       -2
290
     1
 42
2.0
291
     1
 43
0.36
  3
Standard
 44
4.0
300

342
10
174
     1
178
     6
175
     1
176
     0
 93
-1056964608
 45
4.0
292
     0
297
     0
 46
4.0
 94
-1056964608
 47
1.0
 49
1.0
140
1.0
293
     1
141
0.0
294
     1
177
     0
142
1.0
295
     0
296
     0
143
0.125
1001
ACAD_MLEADERVER
1070
     2
  0
MLINESTYLE
  5
13
102
{ACAD_REACTORS
330
E
102
}
330
E
100
AcDbMlineStyle
  2
STANDARD
 70
     0
  3

 62
     0
 51
90.0
 52
90.0
 71
     2
 49
0.5
 62
   256
  6
BYLAYER
 49
-0.5
 62
   256
  6
BYLAYER
  0
PLOTSETTINGS
  5
2EE
102
{ACAD_REACTORS
330
168
102
}
330
168
100
AcDbPlotSettings
  1
A0
  2
HPDJ220-A0
  4
User268
  6

 40
4.995333194732666
 41
16.93336677551269
 42
4.99530029296875
 43
16.933349609375
 44
840.9093017578125
 45
1188.8046875
 46
0.0
 47
0.0
 48
0.0
 49
0.0
140
0.0
141
0.0
142
1.0
143
1.0
 70
   752
 72
     1
 73
     1
 74
     5
  7
PLA0.ctb
 75
    16
147
1.0
 76
     0
 77
     2
 78
   300
148
0.0
149
0.0
  0
PLOTSETTINGS
  5
2F2
102
{ACAD_REACTORS
330
168
102
}
330
168
100
AcDbPlotSettings
  1
A0-A3
  2
\\GLUTZCH_PDC\HP LaserJet 5000 N PCL 6
  4
A3
  6

 40
5.027083396911621
 41
5.111741065979003
 42
5.11175537109375
 43
5.027069091796875
 44
297.0106506347656
 45
419.9889831542968
 46
0.0
 47
0.0
 48
0.0
 49
0.0
140
0.0
141
0.0
142
1.0
143
1.0
 70
   752
 72
     1
 73
     1
 74
     5
  7
LAA0-A3.ctb
 75
     0
147
1.0
 76
     0
 77
     2
 78
   300
148
0.0
149
0.0
  0
PLOTSETTINGS
  5
2F3
102
{ACAD_REACTORS
330
168
102
}
330
168
100
AcDbPlotSettings
  1
A0-A4
  2
\\GLUTZCH_PDC\HP LaserJet 5000 N PCL 6
  4
A4
  6

 40
5.027083396911621
 41
5.111741065979003
 42
5.11175537109375
 43
5.027069091796875
 44
210.0156707763672
 45
297.0106506347656
 46
0.0
 47
0.0
 48
0.0
 49
0.0
140
0.0
141
0.0
142
1.0
143
1.0
 70
   752
 72
     1
 73
     0
 74
     5
  7
LAA0-A4.ctb
 75
     0
147
1.0
 76
     0
 77
     2
 78
   300
148
0.0
149
0.0
  0
PLOTSETTINGS
  5
2ED
102
{ACAD_REACTORS
330
168
102
}
330
168
100
AcDbPlotSettings
  1
A1
  2
HPDJ220-A0
  4
User267
  6

 40
4.995333194732666
 41
16.93330574035644
 42
4.99530029296875
 43
16.933349609375
 44
593.9366455078125
 45
840.8246459960937
 46
0.0
 47
0.0
 48
0.0
 49
0.0
140
0.0
141
0.0
142
1.0
143
1.0
 70
   752
 72
     1
 73
     1
 74
     5
  7
PLA1.ctb
 75
    16
147
1.0
 76
     0
 77
     2
 78
   300
148
0.0
149
0.0
  0
PLOTSETTINGS
  5
2EA
102
{ACAD_REACTORS
330
168
102
}
330
168
100
AcDbPlotSettings
  1
A2
  2
HPDJ220-A0
  4
User266
  6

 40
4.995333194732666
 41
16.93330574035644
 42
4.995330810546875
 43
16.933349609375
 44
419.9466552734374
 45
593.8519897460937
 46
0.0
 47
0.0
 48
0.0
 49
0.0
140
0.0
141
0.0
142
1.0
143
1.0
 70
   752
 72
     1
 73
     1
 74
     5
  7
PLA2.ctb
 75
    16
147
1.0
 76
     0
 77
     2
 78
   300
148
0.0
149
0.0
  0
PLOTSETTINGS
  5
31E
102
{ACAD_REACTORS
330
168
102
}
330
168
100
AcDbPlotSettings
  1
A3
  2
\\GLUTZCH_PDC\HP LaserJet 5000 N PCL 6
  4
A3
  6

 40
5.027083396911621
 41
5.111741065979003
 42
5.11175537109375
 43
5.027069091796875
 44
297.0106506347656
 45
419.9889831542968
 46
0.0
 47
0.0
 48
0.0
 49
0.0
140
0.0
141
0.0
142
1.0
143
1.0
 70
   752
 72
     1
 73
     1
 74
     5
  7
LAA3.ctb
 75
    16
147
1.0
 76
     0
 77
     2
 78
   300
148
0.0
149
0.0
  0
PLOTSETTINGS
  5
319
102
{ACAD_REACTORS
330
168
102
}
330
168
100
AcDbPlotSettings
  1
A4
  2
\\GLUTZCH_PDC\HP LaserJet 5000 N PCL 6
  4
A4
  6

 40
5.027083396911621
 41
5.111741065979003
 42
5.11175537109375
 43
5.027069091796875
 44
210.0156707763672
 45
297.0106506347656
 46
0.0
 47
0.0
 48
0.0
 49
0.0
140
0.0
141
0.0
142
1.0
143
1.0
 70
   752
 72
     1
 73
     0
 74
     5
  7
LAA4.ctb
 75
    16
147
1.0
 76
     0
 77
     2
 78
   300
148
0.0
149
0.0
  0
ACDBPLACEHOLDER
  5
166
102
{ACAD_REACTORS
330
165
102
}
330
165
  0
SCALE
  5
337A
102
{ACAD_REACTORS
330
3379
102
}
330
3379
100
AcDbScale
 70
     0
300
1:1
140
1.0
141
1.0
290
     1
  0
SCALE
  5
337B
102
{ACAD_REACTORS
330
3379
102
}
330
3379
100
AcDbScale
 70
     0
300
1:2
140
1.0
141
2.0
290
     0
  0
SCALE
  5
337C
102
{ACAD_REACTORS
330
3379
102
}
330
3379
100
AcDbScale
 70
     0
300
1:4
140
1.0
141
4.0
290
     0
  0
SCALE
  5
337D
102
{ACAD_REACTORS
330
3379
102
}
330
3379
100
AcDbScale
 70
     0
300
1:5
140
1.0
141
5.0
290
     0
  0
SCALE
  5
337E
102
{ACAD_REACTORS
330
3379
102
}
330
3379
100
AcDbScale
 70
     0
300
1:8
140
1.0
141
8.0
290
     0
  0
SCALE
  5
337F
102
{ACAD_REACTORS
330
3379
102
}
330
3379
100
AcDbScale
 70
     0
300
1:10
140
1.0
141
10.0
290
     0
  0
SCALE
  5
3380
102
{ACAD_REACTORS
330
3379
102
}
330
3379
100
AcDbScale
 70
     0
300
1:16
140
1.0
141
16.0
290
     0
  0
SCALE
  5
3381
102
{ACAD_REACTORS
330
3379
102
}
330
3379
100
AcDbScale
 70
     0
300
1:20
140
1.0
141
20.0
290
     0
  0
SCALE
  5
3382
102
{ACAD_REACTORS
330
3379
102
}
330
3379
100
AcDbScale
 70
     0
300
1:30
140
1.0
141
30.0
290
     0
  0
SCALE
  5
3383
102
{ACAD_REACTORS
330
3379
102
}
330
3379
100
AcDbScale
 70
     0
300
1:40
140
1.0
141
40.0
290
     0
  0
SCALE
  5
3384
102
{ACAD_REACTORS
330
3379
102
}
330
3379
100
AcDbScale
 70
     0
300
1:50
140
1.0
141
50.0
290
     0
  0
SCALE
  5
3385
102
{ACAD_REACTORS
330
3379
102
}
330
3379
100
AcDbScale
 70
     0
300
1:100
140
1.0
141
100.0
290
     0
  0
SCALE
  5
3386
102
{ACAD_REACTORS
330
3379
102
}
330
3379
100
AcDbScale
 70
     0
300
2:1
140
2.0
141
1.0
290
     0
  0
SCALE
  5
3387
102
{ACAD_REACTORS
330
3379
102
}
330
3379
100
AcDbScale
 70
     0
300
4:1
140
4.0
141
1.0
290
     0
  0
SCALE
  5
3388
102
{ACAD_REACTORS
330
3379
102
}
330
3379
100
AcDbScale
 70
     0
300
8:1
140
8.0
141
1.0
290
     0
  0
SCALE
  5
3389
102
{ACAD_REACTORS
330
3379
102
}
330
3379
100
AcDbScale
 70
     0
300
10:1
140
10.0
141
1.0
290
     0
  0
SCALE
  5
338A
102
{ACAD_REACTORS
330
3379
102
}
330
3379
100
AcDbScale
 70
     0
300
100:1
140
100.0
141
1.0
290
     0
  0
TABLESTYLE
  5
3378
102
{ACAD_XDICTIONARY
360
343C
102
}
102
{ACAD_REACTORS
330
3377
102
}
330
3377
100
AcDbTableStyle
  3
Standard
 70
     0
 71
     0
 40
1.5
 41
1.5
280
     0
281
     0
  7
STANDARD
140
4.5
170
     2
 62
     0
 63
     7
283
     0
 90
      512
 91
        0
  1

274
    -2
284
     1
 64
     0
275
    -2
285
     1
 65
     0
276
    -2
286
     1
 66
     0
277
    -2
287
     1
 67
     0
278
    -2
288
     1
 68
     0
279
    -2
289
     1
 69
     0
  7
STANDARD
140
6.0
170
     5
 62
     0
 63
     7
283
     0
 90
      512
 91
        0
  1

274
    -2
284
     1
 64
     0
275
    -2
285
     1
 65
     0
276
    -2
286
     1
 66
     0
277
    -2
287
     1
 67
     0
278
    -2
288
     1
 68
     0
279
    -2
289
     1
 69
     0
  7
STANDARD
140
4.5
170
     5
 62
     0
 63
     7
283
     0
 90
      512
 91
        0
  1

274
    -2
284
     1
 64
     0
275
    -2
285
     1
 65
     0
276
    -2
286
     1
 66
     0
277
    -2
287
     1
 67
     0
278
    -2
288
     1
 68
     0
279
    -2
289
     1
 69
     0
  0
VISUALSTYLE
  5
336C
102
{ACAD_REACTORS
330
3366
102
}
330
3366
100
AcDbVisualStyle
  2
2dWireframe
 70
     4
 71
     0
 72
     2
 73
     0
 90
        0
 40
-0.6
 41
-30.0
 62
     5
 63
     7
421
 16777215
 74
     1
 91
        4
 64
     7
 65
   257
 75
     1
175
     1
 42
1.0
 92
        0
 66
   257
 43
1.0
 76
     1
 77
     6
 78
     2
 67
     7
 79
     5
170
     0
171
     0
290
     0
174
     0
 93
        1
 44
0.0
173
     0
291
     0
 45
0.0
  0
VISUALSTYLE
  5
336E
102
{ACAD_REACTORS
330
3366
102
}
330
3366
100
AcDbVisualStyle
  2
3D Hidden
 70
     6
 71
     1
 72
     2
 73
     2
 90
        0
 40
-0.6
 41
-30.0
 62
     5
 63
     7
421
 16777215
 74
     2
 91
        2
 64
     7
 65
   257
 75
     2
175
     1
 42
40.0
 92
        0
 66
   257
 43
1.0
 76
     1
 77
     6
 78
     2
 67
     7
 79
     3
170
     0
171
     0
290
     0
174
     0
 93
        1
 44
0.0
173
     0
291
     0
 45
0.0
  0
VISUALSTYLE
  5
336D
102
{ACAD_REACTORS
330
3366
102
}
330
3366
100
AcDbVisualStyle
  2
3dWireframe
 70
     5
 71
     0
 72
     2
 73
     0
 90
        0
 40
-0.6
 41
-30.0
 62
     5
 63
     7
421
 16777215
 74
     1
 91
        4
 64
     7
 65
   257
 75
     1
175
     1
 42
1.0
 92
        0
 66
   257
 43
1.0
 76
     1
 77
     6
 78
     2
 67
     7
 79
     5
170
     0
171
     0
290
     0
174
     0
 93
        1
 44
0.0
173
     0
291
     0
 45
0.0
  0
VISUALSTYLE
  5
336B
102
{ACAD_REACTORS
330
3366
102
}
330
3366
100
AcDbVisualStyle
  2
Basic
 70
     7
 71
     1
 72
     0
 73
     1
 90
        0
 40
-0.6
 41
-30.0
 62
     5
 63
     7
421
 16777215
 74
     0
 91
        4
 64
     7
 65
   257
 75
     1
175
     1
 42
1.0
 92
        8
 66
     7
 43
1.0
 76
     1
 77
     6
 78
     2
 67
     7
 79
     5
170
     0
171
     0
290
     0
174
     0
 93
        1
 44
0.0
173
     0
291
     1
 45
0.0
  0
VISUALSTYLE
  5
3372
102
{ACAD_REACTORS
330
3366
102
}
330
3366
100
AcDbVisualStyle
  2
Brighten
 70
    12
 71
     2
 72
     2
 73
     0
 90
        0
 40
-0.6
 41
-30.0
 62
     5
 63
     7
421
 16777215
 74
     1
 91
        4
 64
     7
 65
   257
 75
     1
175
     1
 42
1.0
 92
        8
 66
     7
 43
1.0
 76
     1
 77
     6
 78
     2
 67
     7
 79
     5
170
     0
171
     0
290
     0
174
     0
 93
        1
 44
50.0
173
     0
291
     1
 45
0.0
  0
VISUALSTYLE
  5
3376
102
{ACAD_REACTORS
330
3366
102
}
330
3366
100
AcDbVisualStyle
  2
ColorChange
 70
    16
 71
     2
 72
     2
 73
     3
 90
        0
 40
-0.6
 41
-30.0
 62
     5
 63
     8
421
  8421504
 74
     1
 91
        4
 64
     7
 65
   257
 75
     1
175
     1
 42
1.0
 92
        8
 66
     8
424
  8421504
 43
1.0
 76
     1
 77
     6
 78
     2
 67
     7
 79
     5
170
     0
171
     0
290
     0
174
     0
 93
        1
 44
0.0
173
     0
291
     1
 45
0.0
  0
VISUALSTYLE
  5
336F
102
{ACAD_REACTORS
330
3366
102
}
330
3366
100
AcDbVisualStyle
  2
Conceptual
 70
     9
 71
     3
 72
     2
 73
     0
 90
        0
 40
-0.6
 41
-30.0
 62
     5
 63
     7
421
 16777215
 74
     2
 91
        2
 64
     7
 65
   257
 75
     1
175
     1
 42
40.0
 92
        8
 66
     7
 43
1.0
 76
     1
 77
     6
 78
     2
 67
     7
 79
     3
170
     0
171
     0
290
     0
174
     0
 93
        1
 44
0.0
173
     0
291
     0
 45
0.0
  0
VISUALSTYLE
  5
3371
102
{ACAD_REACTORS
330
3366
102
}
330
3366
100
AcDbVisualStyle
  2
Dim
 70
    11
 71
     2
 72
     2
 73
     0
 90
        0
 40
-0.6
 41
-30.0
 62
     5
 63
     7
421
 16777215
 74
     1
 91
        4
 64
     7
 65
   257
 75
     1
175
     1
 42
1.0
 92
        8
 66
     7
 43
1.0
 76
     1
 77
     6
 78
     2
 67
     7
 79
     5
170
     0
171
     0
290
     0
174
     0
 93
        1
 44
-50.0
173
     0
291
     1
 45
0.0
  0
VISUALSTYLE
  5
3375
102
{ACAD_REACTORS
330
3366
102
}
330
3366
100
AcDbVisualStyle
  2
Facepattern
 70
    15
 71
     2
 72
     2
 73
     0
 90
        0
 40
-0.6
 41
-30.0
 62
     5
 63
     7
421
 16777215
 74
     1
 91
        4
 64
     7
 65
   257
 75
     1
175
     1
 42
1.0
 92
        8
 66
     7
 43
1.0
 76
     1
 77
     6
 78
     2
 67
     7
 79
     5
170
     0
171
     0
290
     0
174
     0
 93
        1
 44
0.0
173
     0
291
     1
 45
0.0
  0
VISUALSTYLE
  5
3367
102
{ACAD_REACTORS
330
3366
102
}
330
3366
100
AcDbVisualStyle
  2
Flat
 70
     0
 71
     2
 72
     1
 73
     1
 90
        2
 40
-0.6
 41
30.0
 62
     5
 63
     7
421
 16777215
 74
     0
 91
        4
 64
     7
 65
   257
 75
     1
175
     1
 42
1.0
 92
        8
 66
     7
 43
1.0
 76
     1
 77
     6
 78
     2
 67
     7
 79
     5
170
     0
171
     0
290
     0
174
     0
 93
       13
 44
0.0
173
     0
291
     1
 45
0.0
  0
VISUALSTYLE
  5
3368
102
{ACAD_REACTORS
330
3366
102
}
330
3366
100
AcDbVisualStyle
  2
FlatWithEdges
 70
     1
 71
     2
 72
     1
 73
     1
 90
        2
 40
-0.6
 41
30.0
 62
     5
 63
     7
421
 16777215
 74
     1
 91
        4
 64
     7
 65
   257
 75
     1
175
     1
 42
1.0
 92
        0
 66
   257
 43
1.0
 76
     1
 77
     6
 78
     2
 67
     7
 79
     5
170
     0
171
     0
290
     0
174
     0
 93
       13
 44
0.0
173
     0
291
     1
 45
0.0
  0
VISUALSTYLE
  5
3369
102
{ACAD_REACTORS
330
3366
102
}
330
3366
100
AcDbVisualStyle
  2
Gouraud
 70
     2
 71
     2
 72
     2
 73
     1
 90
        2
 40
-0.6
 41
30.0
 62
     5
 63
     7
421
 16777215
 74
     0
 91
        4
 64
     7
 65
   257
 75
     1
175
     1
 42
1.0
 92
        0
 66
     7
 43
1.0
 76
     1
 77
     6
 78
     2
 67
     7
 79
     5
170
     0
171
     0
290
     0
174
     0
 93
       13
 44
0.0
173
     0
291
     1
 45
0.0
  0
VISUALSTYLE
  5
336A
102
{ACAD_REACTORS
330
3366
102
}
330
3366
100
AcDbVisualStyle
  2
GouraudWithEdges
 70
     3
 71
     2
 72
     2
 73
     1
 90
        2
 40
-0.6
 41
30.0
 62
     5
 63
     7
421
 16777215
 74
     1
 91
        4
 64
     7
 65
   257
 75
     1
175
     1
 42
1.0
 92
        0
 66
   257
 43
1.0
 76
     1
 77
     6
 78
     2
 67
     7
 79
     5
170
     0
171
     0
290
     0
174
     0
 93
       13
 44
0.0
173
     0
291
     1
 45
0.0
  0
VISUALSTYLE
  5
3374
102
{ACAD_REACTORS
330
3366
102
}
330
3366
100
AcDbVisualStyle
  2
Linepattern
 70
    14
 71
     2
 72
     2
 73
     0
 90
        0
 40
-0.6
 41
-30.0
 62
     5
 63
     7
421
 16777215
 74
     1
 91
        4
 64
     7
 65
   257
 75
     7
175
     7
 42
1.0
 92
        8
 66
     7
 43
1.0
 76
     1
 77
     6
 78
     2
 67
     7
 79
     5
170
     0
171
     0
290
     0
174
     0
 93
        1
 44
0.0
173
     0
291
     1
 45
0.0
  0
VISUALSTYLE
  5
3370
102
{ACAD_REACTORS
330
3366
102
}
330
3366
100
AcDbVisualStyle
  2
Realistic
 70
     8
 71
     2
 72
     2
 73
     0
 90
        0
 40
-0.6
 41
-30.0
 62
     5
 63
     7
421
 16777215
 74
     1
 91
        0
 64
     7
 65
   257
 75
     1
175
     1
 42
1.0
 92
        8
 66
     8
424
  7895160
 43
1.0
 76
     1
 77
     6
 78
     2
 67
     7
 79
     5
170
     0
171
     0
290
     0
174
     0
 93
       13
 44
0.0
173
     0
291
     0
 45
0.0
  0
VISUALSTYLE
  5
3373
102
{ACAD_REACTORS
330
3366
102
}
330
3366
100
AcDbVisualStyle
  2
Thicken
 70
    13
 71
     2
 72
     2
 73
     0
 90
        0
 40
-0.6
 41
-30.0
 62
     5
 63
     7
421
 16777215
 74
     1
 91
        4
 64
     7
 65
   257
 75
     1
175
     1
 42
1.0
 92
       12
 66
     7
 43
1.0
 76
     1
 77
     6
 78
     2
 67
     7
 79
     5
170
     0
171
     0
290
     0
174
     0
 93
        1
 44
0.0
173
     0
291
     1
 45
0.0
  0
DICTIONARYVAR
  5
3442
102
{ACAD_REACTORS
330
5D
102
}
330
5D
100
DictionaryVariables
280
     0
  1
1:1
  0
DICTIONARYVAR
  5
3440
102
{ACAD_REACTORS
330
5D
102
}
330
5D
100
DictionaryVariables
280
     0
  1
STANDARD
  0
DICTIONARYVAR
  5
343F
102
{ACAD_REACTORS
330
5D
102
}
330
5D
100
DictionaryVariables
280
     0
  1
STANDARD
  0
DICTIONARYVAR
  5
5E
102
{ACAD_REACTORS
330
5D
102
}
330
5D
100
DictionaryVariables
280
     0
  1
0
  0
DICTIONARYVAR
  5
128
102
{ACAD_REACTORS
330
5D
102
}
330
5D
100
DictionaryVariables
280
     0
  1
1
  0
DICTIONARYVAR
  5
3444
102
{ACAD_REACTORS
330
5D
102
}
330
5D
100
DictionaryVariables
280
     0
  1
1
  0
DICTIONARYVAR
  5
3445
102
{ACAD_REACTORS
330
5D
102
}
330
5D
100
DictionaryVariables
280
     0
  1
15
  0
DICTIONARYVAR
  5
3443
102
{ACAD_REACTORS
330
5D
102
}
330
5D
100
DictionaryVariables
280
     0
  1
0
  0
DICTIONARYVAR
  5
3441
102
{ACAD_REACTORS
330
5D
102
}
330
5D
100
DictionaryVariables
280
     0
  1
0
  0
DICTIONARYVAR
  5
1044
102
{ACAD_REACTORS
330
5D
102
}
330
5D
100
DictionaryVariables
280
     0
  1
96
  0
DICTIONARY
  5
143
102
{ACAD_REACTORS
330
142
102
}
330
142
100
AcDbDictionary
281
     1
  0
XRECORD
  5
33B5
102
{ACAD_REACTORS
330
142
102
}
330
142
100
AcDbXrecord
280
     1
 90
-1023410169
  0
DICTIONARY
  5
172
102
{ACAD_REACTORS
330
171
102
}
330
171
100
AcDbDictionary
281
     1
  3
DWGSETTINGS
350
173
  3
FEM
350
3A0
  3
Shaft
350
393
  3
TRANSSETTINGS
350
17D
  0
DICTIONARY
  5
18A9
102
{ACAD_REACTORS
330
18A8
102
}
330
18A8
100
AcDbDictionary
281
     1
  0
ACAMGFILTERDAT
  5
164B
102
{ACAD_REACTORS
330
1F2
102
}
330
1F2
100
AcAmgFilterDat
 70
    15
  1
DIMENSION,AMDT_*_DIM
  2
*
  3
*
  4
*
  5
*
290
     1
  0
ACAMGFILTERDAT
  5
164C
102
{ACAD_REACTORS
330
1F2
102
}
330
1F2
100
AcAmgFilterDat
 70
    15
  1
*
  2
AM_FEA-AM_*
  3
*
  4
*
  5
*
290
     1
  0
ACAMGFILTERDAT
  5
164D
102
{ACAD_REACTORS
330
1F2
102
}
330
1F2
100
AcAmgFilterDat
 70
    15
  1
HATCH
  2
*
  3
*
  4
*
  5
*
290
     1
  0
ACAMGFILTERDAT
  5
164E
102
{ACAD_REACTORS
330
1F2
102
}
330
1F2
100
AcAmgFilterDat
 70
    15
  1
ACMFCFRAME,ACMDATUMTARGET,ACMDATUMID,ACMWELDSYM,ACMSURFSYM,ACMFEATID,ACMPARTREF,ACMBALLOON
  2
*
  3
*
  4
*
  5
*
290
     1
  0
XRECORD
  5
3275
102
{ACAD_REACTORS
330
3273
102
}
330
3273
100
AcDbXrecord
280
     1
330
3FB
330
3FC
330
3FD
330
3FE
330
3FF
330
400
330
401
330
402
330
409
330
0
330
0
330
0
330
0
  0
LAYER_INDEX
  5
17BF
102
{ACAD_REACTORS
330
17BE
102
}
330
17BE
100
AcDbIndex
 40
2455751.383753773
100
AcDbLayerIndex
  8
0
360
17C0
 90
        3
  8
AM_0
360
17C1
 90
        6
  8
AM_1
360
17C2
 90
        0
  8
AM_2
360
17C3
 90
        0
  8
AM_3
360
17C4
 90
        0
  8
AM_4
360
17C5
 90
        0
  8
AM_5
360
17C6
 90
       33
  8
AM_6
360
17C7
 90
        1
  8
AM_7
360
17C8
 90
        6
  8
AM_8
360
17C9
 90
        0
  8
AM_FR
360
17CA
 90
        0
  8
ASHADE
360
17CB
 90
        9
  8
AM_WORK
360
17CC
 90
        0
  8
AM_CL
360
17CD
 90
        0
  8
Defpoints
360
17CE
 90
        0
  8
ASRF_TMP
360
17CF
 90
        0
  8
AM_VIEWS
360
17D0
 90
        1
  8
AM_VIS
360
17D1
 90
        0
  8
AM_HID
360
17D2
 90
        0
  8
AM_PARDIM
360
17D3
 90
        0
  8
AmdtBRLock
360
196B
 90
        0
  8
5
360
25A0
 90
        2
  8
1
360
25A1
 90
       69
  8
7
360
25A2
 90
       29
  8
6
360
3276
 90
        1
  0
DICTIONARY
  5
3357
330
3356
100
AcDbDictionary
280
     1
281
     1
  3
BUMPTILE
360
3359
  3
DIFFUSETILE
360
3358
  3
OPACITYTILE
360
335C
  3
REFLECTIONTILE
360
335B
  3
REFRACTIONTILE
360
335D
  3
SPECULARTILE
360
335A
  0
DICTIONARY
  5
334F
330
334E
100
AcDbDictionary
280
     1
281
     1
  3
BUMPTILE
360
3351
  3
DIFFUSETILE
360
3350
  3
OPACITYTILE
360
3354
  3
REFLECTIONTILE
360
3353
  3
REFRACTIONTILE
360
3355
  3
SPECULARTILE
360
3352
  0
DICTIONARY
  5
335F
330
335E
100
AcDbDictionary
280
     1
281
     1
  3
BUMPTILE
360
3361
  3
DIFFUSETILE
360
3360
  3
OPACITYTILE
360
3364
  3
REFLECTIONTILE
360
3363
  3
REFRACTIONTILE
360
3365
  3
SPECULARTILE
360
3362
  0
DICTIONARY
  5
343C
330
3378
100
AcDbDictionary
280
     1
281
     1
  3
ACAD_ROUNDTRIP_2008_TABLESTYLE_CELLSTYLEMAP
360
34E5
  0
IDBUFFER
  5
17C0
330
0
100
AcDbIdBuffer
330
1C69
330
1C67
330
1C68
  0
IDBUFFER
  5
17C1
330
0
100
AcDbIdBuffer
330
32CB
330
32CC
330
33CC
330
33CE
330
33D0
330
33D2
  0
IDBUFFER
  5
17C2
330
0
100
AcDbIdBuffer
  0
IDBUFFER
  5
17C3
330
0
100
AcDbIdBuffer
  0
IDBUFFER
  5
17C4
330
0
100
AcDbIdBuffer
  0
IDBUFFER
  5
17C5
330
0
100
AcDbIdBuffer
  0
IDBUFFER
  5
17C6
330
0
100
AcDbIdBuffer
330
3471
330
25B3
330
2647
330
2663
330
267F
330
269B
330
26C3
330
2702
330
274B
330
2794
330
2828
330
2850
330
288F
330
2923
330
293F
330
2967
330
2A31
330
2A4D
330
2ABF
330
2B08
330
2B5A
330
2BA3
330
2BEC
330
2C35
330
2C7E
330
2D30
330
2D6C
330
2DB5
330
2DF6
330
2EA0
330
2EE9
330
2F32
330
2FA6
  0
IDBUFFER
  5
17C7
330
0
100
AcDbIdBuffer
330
2F89
  0
IDBUFFER
  5
17C8
330
0
100
AcDbIdBuffer
330
346E
330
30EF
330
33CD
330
33CF
330
33D1
330
33D3
  0
IDBUFFER
  5
17C9
330
0
100
AcDbIdBuffer
  0
IDBUFFER
  5
17CA
330
0
100
AcDbIdBuffer
  0
IDBUFFER
  5
17CB
330
0
100
AcDbIdBuffer
330
3FB
330
3FC
330
3FD
330
3FE
330
3FF
330
400
330
401
330
402
330
409
  0
IDBUFFER
  5
17CC
330
0
100
AcDbIdBuffer
  0
IDBUFFER
  5
17CD
330
0
100
AcDbIdBuffer
  0
IDBUFFER
  5
17CE
330
0
100
AcDbIdBuffer
  0
IDBUFFER
  5
17CF
330
0
100
AcDbIdBuffer
  0
IDBUFFER
  5
17D0
330
0
100
AcDbIdBuffer
330
21EC
  0
IDBUFFER
  5
17D1
330
0
100
AcDbIdBuffer
  0
IDBUFFER
  5
17D2
330
0
100
AcDbIdBuffer
  0
IDBUFFER
  5
17D3
330
0
100
AcDbIdBuffer
  0
IDBUFFER
  5
196B
330
0
100
AcDbIdBuffer
  0
IDBUFFER
  5
25A0
330
0
100
AcDbIdBuffer
330
326F
330
3270
  0
IDBUFFER
  5
25A1
330
0
100
AcDbIdBuffer
330
1C2C
330
1C2D
330
1C2E
330
1C2F
330
1C32
330
1C35
330
1C36
330
1C37
330
1C38
330
1C39
330
1C3A
330
1C3C
330
1C3D
330
1C3E
330
1C40
330
1C41
330
1C42
330
1C43
330
1C44
330
1C45
330
1C46
330
1C47
330
1C51
330
1C52
330
1C53
330
1C59
330
1C5A
330
1C5B
330
1C5C
330
1C5D
330
1C5F
330
1C60
330
1C61
330
1C6E
330
1C6F
330
1C70
330
1C71
330
1C72
330
1C73
330
1C75
330
1C76
330
1C78
330
1C79
330
1C7A
330
1C7C
330
1C7D
330
1C80
330
1C81
330
1C88
330
1C89
330
1C8C
330
1C8D
330
1C8F
330
1C90
330
1C91
330
1C94
330
1C95
330
1C96
330
1C97
330
1C98
330
1C99
330
1C9D
330
1C9E
330
1C9F
330
1CA0
330
30E5
330
30EB
330
30EC
330
30ED
  0
IDBUFFER
  5
25A2
330
0
100
AcDbIdBuffer
330
1C2A
330
1C2B
330
1C48
330
1C54
330
1C55
330
1C56
330
1C57
330
1C63
330
1C65
330
1C6A
330
1C6D
330
1C7B
330
1C7E
330
1C87
330
1C8A
330
1C8B
330
1C9C
330
1CA1
330
30EE
330
325F
330
3260
330
3261
330
3262
330
326B
330
326C
330
326D
330
326E
330
33DB
330
33DC
  0
IDBUFFER
  5
3276
330
0
100
AcDbIdBuffer
330
3271
  0
XRECORD
  5
3359
102
{ACAD_REACTORS
330
3357
102
}
330
3357
100
AcDbXrecord
280
     1
270
     1
271
     1
  0
XRECORD
  5
3358
102
{ACAD_REACTORS
330
3357
102
}
330
3357
100
AcDbXrecord
280
     1
270
     1
271
     1
  0
XRECORD
  5
335C
102
{ACAD_REACTORS
330
3357
102
}
330
3357
100
AcDbXrecord
280
     1
270
     1
271
     1
  0
XRECORD
  5
335B
102
{ACAD_REACTORS
330
3357
102
}
330
3357
100
AcDbXrecord
280
     1
270
     1
271
     1
  0
XRECORD
  5
335D
102
{ACAD_REACTORS
330
3357
102
}
330
3357
100
AcDbXrecord
280
     1
270
     1
271
     1
  0
XRECORD
  5
335A
102
{ACAD_REACTORS
330
3357
102
}
330
3357
100
AcDbXrecord
280
     1
270
     1
271
     1
  0
XRECORD
  5
3351
102
{ACAD_REACTORS
330
334F
102
}
330
334F
100
AcDbXrecord
280
     1
270
     1
271
     1
  0
XRECORD
  5
3350
102
{ACAD_REACTORS
330
334F
102
}
330
334F
100
AcDbXrecord
280
     1
270
     1
271
     1
  0
XRECORD
  5
3354
102
{ACAD_REACTORS
330
334F
102
}
330
334F
100
AcDbXrecord
280
     1
270
     1
271
     1
  0
XRECORD
  5
3353
102
{ACAD_REACTORS
330
334F
102
}
330
334F
100
AcDbXrecord
280
     1
270
     1
271
     1
  0
XRECORD
  5
3355
102
{ACAD_REACTORS
330
334F
102
}
330
334F
100
AcDbXrecord
280
     1
270
     1
271
     1
  0
XRECORD
  5
3352
102
{ACAD_REACTORS
330
334F
102
}
330
334F
100
AcDbXrecord
280
     1
270
     1
271
     1
  0
XRECORD
  5
3361
102
{ACAD_REACTORS
330
335F
102
}
330
335F
100
AcDbXrecord
280
     1
270
     1
271
     1
  0
XRECORD
  5
3360
102
{ACAD_REACTORS
330
335F
102
}
330
335F
100
AcDbXrecord
280
     1
270
     1
271
     1
  0
XRECORD
  5
3364
102
{ACAD_REACTORS
330
335F
102
}
330
335F
100
AcDbXrecord
280
     1
270
     1
271
     1
  0
XRECORD
  5
3363
102
{ACAD_REACTORS
330
335F
102
}
330
335F
100
AcDbXrecord
280
     1
270
     1
271
     1
  0
XRECORD
  5
3365
102
{ACAD_REACTORS
330
335F
102
}
330
335F
100
AcDbXrecord
280
     1
270
     1
271
     1
  0
XRECORD
  5
3362
102
{ACAD_REACTORS
330
335F
102
}
330
335F
100
AcDbXrecord
280
     1
270
     1
271
     1
  0
CELLSTYLEMAP
  5
34E5
102
{ACAD_REACTORS
330
343C
102
}
330
343C
100
AcDbCellStyleMap
 90
        3
300
CELLSTYLE
  1
TABLEFORMAT_BEGIN
 90
        5
170
     1
 91
        0
 92
    32768
 62
   257
 93
        1
300
CONTENTFORMAT
  1
CONTENTFORMAT_BEGIN
 90
        0
 91
        0
 92
      512
 93
        0
300

 40
0.0
140
1.0
 94
        5
 62
     0
340
10
144
6.0
309
CONTENTFORMAT_END
171
     1
301
MARGIN
  1
CELLMARGIN_BEGIN
 40
1.5
 40
1.5
 40
1.5
 40
1.5
 40
4.5
 40
4.5
309
CELLMARGIN_END
 94
        6
 95
        1
302
GRIDFORMAT
  1
GRIDFORMAT_BEGIN
 90
        0
 91
        1
 62
     0
 92
       -2
340
0
 93
        0
 40
1.125
309
GRIDFORMAT_END
 95
        2
302
GRIDFORMAT
  1
GRIDFORMAT_BEGIN
 90
        0
 91
        1
 62
     0
 92
       -2
340
0
 93
        0
 40
1.125
309
GRIDFORMAT_END
 95
        4
302
GRIDFORMAT
  1
GRIDFORMAT_BEGIN
 90
        0
 91
        1
 62
     0
 92
       -2
340
0
 93
        0
 40
1.125
309
GRIDFORMAT_END
 95
        8
302
GRIDFORMAT
  1
GRIDFORMAT_BEGIN
 90
        0
 91
        1
 62
     0
 92
       -2
340
0
 93
        0
 40
1.125
309
GRIDFORMAT_END
 95
       16
302
GRIDFORMAT
  1
GRIDFORMAT_BEGIN
 90
        0
 91
        1
 62
     0
 92
       -2
340
0
 93
        0
 40
1.125
309
GRIDFORMAT_END
 95
       32
302
GRIDFORMAT
  1
GRIDFORMAT_BEGIN
 90
        0
 91
        1
 62
     0
 92
       -2
340
0
 93
        0
 40
1.125
309
GRIDFORMAT_END
309
TABLEFORMAT_END
  1
CELLSTYLE_BEGIN
 90
        1
 91
        1
300
_TITLE
309
CELLSTYLE_END
300
CELLSTYLE
  1
TABLEFORMAT_BEGIN
 90
        5
170
     1
 91
        0
 92
        0
 62
   257
 93
        1
300
CONTENTFORMAT
  1
CONTENTFORMAT_BEGIN
 90
        0
 91
        0
 92
      512
 93
        0
300

 40
0.0
140
1.0
 94
        5
 62
     0
340
10
144
4.5
309
CONTENTFORMAT_END
171
     1
301
MARGIN
  1
CELLMARGIN_BEGIN
 40
1.5
 40
1.5
 40
1.5
 40
1.5
 40
4.5
 40
4.5
309
CELLMARGIN_END
 94
        6
 95
        1
302
GRIDFORMAT
  1
GRIDFORMAT_BEGIN
 90
        0
 91
        1
 62
     0
 92
       -2
340
0
 93
        0
 40
1.125
309
GRIDFORMAT_END
 95
        2
302
GRIDFORMAT
  1
GRIDFORMAT_BEGIN
 90
        0
 91
        1
 62
     0
 92
       -2
340
0
 93
        0
 40
1.125
309
GRIDFORMAT_END
 95
        4
302
GRIDFORMAT
  1
GRIDFORMAT_BEGIN
 90
        0
 91
        1
 62
     0
 92
       -2
340
0
 93
        0
 40
1.125
309
GRIDFORMAT_END
 95
        8
302
GRIDFORMAT
  1
GRIDFORMAT_BEGIN
 90
        0
 91
        1
 62
     0
 92
       -2
340
0
 93
        0
 40
1.125
309
GRIDFORMAT_END
 95
       16
302
GRIDFORMAT
  1
GRIDFORMAT_BEGIN
 90
        0
 91
        1
 62
     0
 92
       -2
340
0
 93
        0
 40
1.125
309
GRIDFORMAT_END
 95
       32
302
GRIDFORMAT
  1
GRIDFORMAT_BEGIN
 90
        0
 91
        1
 62
     0
 92
       -2
340
0
 93
        0
 40
1.125
309
GRIDFORMAT_END
309
TABLEFORMAT_END
  1
CELLSTYLE_BEGIN
 90
        2
 91
        1
300
_HEADER
309
CELLSTYLE_END
300
CELLSTYLE
  1
TABLEFORMAT_BEGIN
 90
        5
170
     1
 91
        0
 92
        0
 62
   257
 93
        1
300
CONTENTFORMAT
  1
CONTENTFORMAT_BEGIN
 90
        0
 91
        0
 92
      512
 93
        0
300

 40
0.0
140
1.0
 94
        2
 62
     0
340
10
144
4.5
309
CONTENTFORMAT_END
171
     1
301
MARGIN
  1
CELLMARGIN_BEGIN
 40
1.5
 40
1.5
 40
1.5
 40
1.5
 40
4.5
 40
4.5
309
CELLMARGIN_END
 94
        6
 95
        1
302
GRIDFORMAT
  1
GRIDFORMAT_BEGIN
 90
        0
 91
        1
 62
     0
 92
       -2
340
0
 93
        0
 40
1.125
309
GRIDFORMAT_END
 95
        2
302
GRIDFORMAT
  1
GRIDFORMAT_BEGIN
 90
        0
 91
        1
 62
     0
 92
       -2
340
0
 93
        0
 40
1.125
309
GRIDFORMAT_END
 95
        4
302
GRIDFORMAT
  1
GRIDFORMAT_BEGIN
 90
        0
 91
        1
 62
     0
 92
       -2
340
0
 93
        0
 40
1.125
309
GRIDFORMAT_END
 95
        8
302
GRIDFORMAT
  1
GRIDFORMAT_BEGIN
 90
        0
 91
        1
 62
     0
 92
       -2
340
0
 93
        0
 40
1.125
309
GRIDFORMAT_END
 95
       16
302
GRIDFORMAT
  1
GRIDFORMAT_BEGIN
 90
        0
 91
        1
 62
     0
 92
       -2
340
0
 93
        0
 40
1.125
309
GRIDFORMAT_END
 95
       32
302
GRIDFORMAT
  1
GRIDFORMAT_BEGIN
 90
        0
 91
        1
 62
     0
 92
       -2
340
0
 93
        0
 40
1.125
309
GRIDFORMAT_END
309
TABLEFORMAT_END
  1
CELLSTYLE_BEGIN
 90
        3
 91
        2
300
_DATA
309
CELLSTYLE_END
  0
ENDSEC
  0
EOF
