  0
SECTION
  2
HEADER
  9
$ACADVER
  1
AC1021
  9
$ACADMAINTVER
 70
     1
  9
$DWGCODEPAGE
  3
ANSI_1252
  9
$LASTSAVEDBY
  1
cad4
  9
$CUSTOMPROPERTYTAG
  1
AmdtFileType
  9
$CUSTOMPROPERTY
  1
83
  9
$INSBASE
 10
0.0
 20
0.0
 30
0.0
  9
$EXTMIN
 10
-130.8760362084777
 20
113.6529156468197
 30
0.0
  9
$EXTMAX
 10
60.32483410849046
 20
345.641588866592
 30
0.0
  9
$LIMMIN
 10
-185.8148729570431
 20
-208.7189110178641
  9
$LIMMAX
 10
182.185127042957
 20
357.2810889821359
  9
$ORTHOMODE
 70
     1
  9
$REGENMODE
 70
     1
  9
$FILLMODE
 70
     1
  9
$QTEXTMODE
 70
     0
  9
$MIRRTEXT
 70
     1
  9
$LTSCALE
 40
2.0
  9
$ATTMODE
 70
     1
  9
$TEXTSIZE
 40
3.5
  9
$TRACEWID
 40
1.0
  9
$TEXTSTYLE
  7
STANDARD
  9
$CLAYER
  8
AM_0
  9
$CELTYPE
  6
BYLAYER
  9
$CECOLOR
 62
   256
  9
$CELTSCALE
 40
1.0
  9
$DISPSILH
 70
     0
  9
$DIMSCALE
 40
2.0
  9
$DIMASZ
 40
2.5
  9
$DIMEXO
 40
0.0
  9
$DIMDLI
 40
10.0
  9
$DIMRND
 40
0.0
  9
$DIMDLE
 40
0.0
  9
$DIMEXE
 40
1.0
  9
$DIMTP
 40
0.1
  9
$DIMTM
 40
0.1
  9
$DIMTXT
 40
3.5
  9
$DIMCEN
 40
0.0
  9
$DIMTSZ
 40
0.0
  9
$DIMTOL
 70
     0
  9
$DIMLIM
 70
     0
  9
$DIMTIH
 70
     0
  9
$DIMTOH
 70
     0
  9
$DIMSE1
 70
     0
  9
$DIMSE2
 70
     0
  9
$DIMTAD
 70
     1
  9
$DIMZIN
 70
     8
  9
$DIMBLK
  1

  9
$DIMASO
 70
     1
  9
$DIMSHO
 70
     1
  9
$DIMPOST
  1

  9
$DIMAPOST
  1
"
  9
$DIMALT
 70
     0
  9
$DIMALTD
 70
     2
  9
$DIMALTF
 40
0.0393701
  9
$DIMLFAC
 40
1.0
  9
$DIMTOFL
 70
     1
  9
$DIMTVP
 40
0.0
  9
$DIMTIX
 70
     0
  9
$DIMSOXD
 70
     0
  9
$DIMSAH
 70
     0
  9
$DIMBLK1
  1

  9
$DIMBLK2
  1

  9
$DIMSTYLE
  2
AM_ISO
  9
$DIMCLRD
 70
   256
  9
$DIMCLRE
 70
   256
  9
$DIMCLRT
 70
     2
  9
$DIMTFAC
 40
0.71
  9
$DIMGAP
 40
1.5
  9
$DIMJUST
 70
     0
  9
$DIMSD1
 70
     0
  9
$DIMSD2
 70
     0
  9
$DIMTOLJ
 70
     0
  9
$DIMTZIN
 70
     0
  9
$DIMALTZ
 70
     0
  9
$DIMALTTZ
 70
     0
  9
$DIMUPT
 70
     0
  9
$DIMDEC
 70
     0
  9
$DIMTDEC
 70
     2
  9
$DIMALTU
 70
     2
  9
$DIMALTTD
 70
     2
  9
$DIMTXSTY
  7
STANDARD
  9
$DIMAUNIT
 70
     0
  9
$DIMADEC
 70
     0
  9
$DIMALTRND
 40
0.0
  9
$DIMAZIN
 70
     2
  9
$DIMDSEP
 70
    46
  9
$DIMATFIT
 70
     3
  9
$DIMFRAC
 70
     0
  9
$DIMLDRBLK
  1

  9
$DIMLUNIT
 70
     2
  9
$DIMLWD
 70
    -1
  9
$DIMLWE
 70
    -1
  9
$DIMTMOVE
 70
     0
  9
$DIMFXL
 40
1.0
  9
$DIMFXLON
 70
     0
  9
$DIMJOGANG
 40
0.7853981633974483
  9
$DIMTFILL
 70
     0
  9
$DIMTFILLCLR
 70
     0
  9
$DIMARCSYM
 70
     0
  9
$DIMLTYPE
  6

  9
$DIMLTEX1
  6

  9
$DIMLTEX2
  6

  9
$LUNITS
 70
     2
  9
$LUPREC
 70
     4
  9
$SKETCHINC
 40
1.0
  9
$FILLETRAD
 40
20.0
  9
$AUNITS
 70
     0
  9
$AUPREC
 70
     2
  9
$MENU
  1
.
  9
$ELEVATION
 40
0.0
  9
$PELEVATION
 40
0.0
  9
$THICKNESS
 40
0.0
  9
$LIMCHECK
 70
     0
  9
$CHAMFERA
 40
20.0
  9
$CHAMFERB
 40
20.0
  9
$CHAMFERC
 40
20.0
  9
$CHAMFERD
 40
0.0
  9
$SKPOLY
 70
     1
  9
$TDCREATE
 40
2452030.424266945
  9
$TDUCREATE
 40
2452030.382600278
  9
$TDUPDATE
 40
2453938.573704063
  9
$TDUUPDATE
 40
2453938.532037396
  9
$TDINDWG
 40
0.1747106481
  9
$TDUSRTIMER
 40
0.1747104167
  9
$USRTIMER
 70
     1
  9
$ANGBASE
 50
0.0
  9
$ANGDIR
 70
     0
  9
$PDMODE
 70
     0
  9
$PDSIZE
 40
0.0
  9
$PLINEWID
 40
0.0
  9
$SPLFRAME
 70
     0
  9
$SPLINETYPE
 70
     6
  9
$SPLINESEGS
 70
    16
  9
$HANDSEED
  5
2D7E
  9
$SURFTAB1
 70
     6
  9
$SURFTAB2
 70
     6
  9
$SURFTYPE
 70
     6
  9
$SURFU
 70
     6
  9
$SURFV
 70
     6
  9
$UCSBASE
  2

  9
$UCSNAME
  2

  9
$UCSORG
 10
0.0
 20
0.0
 30
0.0
  9
$UCSXDIR
 10
1.0
 20
0.0
 30
0.0
  9
$UCSYDIR
 10
0.0
 20
1.0
 30
0.0
  9
$UCSORTHOREF
  2

  9
$UCSORTHOVIEW
 70
     0
  9
$UCSORGTOP
 10
0.0
 20
0.0
 30
0.0
  9
$UCSORGBOTTOM
 10
0.0
 20
0.0
 30
0.0
  9
$UCSORGLEFT
 10
0.0
 20
0.0
 30
0.0
  9
$UCSORGRIGHT
 10
0.0
 20
0.0
 30
0.0
  9
$UCSORGFRONT
 10
0.0
 20
0.0
 30
0.0
  9
$UCSORGBACK
 10
0.0
 20
0.0
 30
0.0
  9
$PUCSBASE
  2

  9
$PUCSNAME
  2

  9
$PUCSORG
 10
0.0
 20
0.0
 30
0.0
  9
$PUCSXDIR
 10
1.0
 20
0.0
 30
0.0
  9
$PUCSYDIR
 10
0.0
 20
1.0
 30
0.0
  9
$PUCSORTHOREF
  2

  9
$PUCSORTHOVIEW
 70
     0
  9
$PUCSORGTOP
 10
0.0
 20
0.0
 30
0.0
  9
$PUCSORGBOTTOM
 10
0.0
 20
0.0
 30
0.0
  9
$PUCSORGLEFT
 10
0.0
 20
0.0
 30
0.0
  9
$PUCSORGRIGHT
 10
0.0
 20
0.0
 30
0.0
  9
$PUCSORGFRONT
 10
0.0
 20
0.0
 30
0.0
  9
$PUCSORGBACK
 10
0.0
 20
0.0
 30
0.0
  9
$USERI1
 70
     0
  9
$USERI2
 70
     0
  9
$USERI3
 70
     0
  9
$USERI4
 70
     0
  9
$USERI5
 70
     0
  9
$USERR1
 40
0.0
  9
$USERR2
 40
0.0
  9
$USERR3
 40
0.0
  9
$USERR4
 40
0.0
  9
$USERR5
 40
0.0
  9
$WORLDVIEW
 70
     1
  9
$SHADEDGE
 70
     3
  9
$SHADEDIF
 70
    70
  9
$TILEMODE
 70
     1
  9
$MAXACTVP
 70
    48
  9
$PINSBASE
 10
0.0
 20
0.0
 30
0.0
  9
$PLIMCHECK
 70
     0
  9
$PEXTMIN
 10
1.000000000000000E+20
 20
1.000000000000000E+20
 30
1.000000000000000E+20
  9
$PEXTMAX
 10
-1.000000000000000E+20
 20
-1.000000000000000E+20
 30
-1.000000000000000E+20
  9
$PLIMMIN
 10
-5.027083396911621
 20
-5.111741065979003
  9
$PLIMMAX
 10
204.9885873794556
 20
291.8989095687866
  9
$UNITMODE
 70
     0
  9
$VISRETAIN
 70
     1
  9
$PLINEGEN
 70
     0
  9
$PSLTSCALE
 70
     1
  9
$TREEDEPTH
 70
  3020
  9
$CMLSTYLE
  2
STANDARD
  9
$CMLJUST
 70
     0
  9
$CMLSCALE
 40
1.0
  9
$PROXYGRAPHICS
 70
     1
  9
$MEASUREMENT
 70
     1
  9
$CELWEIGHT
370
    -1
  9
$ENDCAPS
280
     0
  9
$JOINSTYLE
280
     0
  9
$LWDISPLAY
290
     0
  9
$INSUNITS
 70
     0
  9
$HYPERLINKBASE
  1

  9
$STYLESHEET
  1
LAA4.ctb
  9
$XEDIT
290
     1
  9
$CEPSNTYPE
380
     0
  9
$PSTYLEMODE
290
     1
  9
$FINGERPRINTGUID
  2
{9DE0F4BE-022B-11D3-8698-0060B085A428}
  9
$VERSIONGUID
  2
{51B6288F-D697-4F71-AA51-4638C2A54739}
  9
$EXTNAMES
290
     1
  9
$PSVPSCALE
 40
0.0
  9
$OLESTARTUP
290
     0
  9
$SORTENTS
280
    96
  9
$INDEXCTL
280
     1
  9
$HIDETEXT
280
     0
  9
$XCLIPFRAME
290
     0
  9
$HALOGAP
280
     0
  9
$OBSCOLOR
 70
   257
  9
$OBSLTYPE
280
     0
  9
$INTERSECTIONDISPLAY
280
     0
  9
$INTERSECTIONCOLOR
 70
   257
  9
$DIMASSOC
280
     1
  9
$PROJECTNAME
  1

  9
$CAMERADISPLAY
290
     0
  9
$LENSLENGTH
 40
50.0
  9
$CAMERAHEIGHT
 40
0.0
  9
$STEPSPERSEC
 40
2.0
  9
$STEPSIZE
 40
6.0
  9
$3DDWFPREC
 40
2.0
  9
$PSOLWIDTH
 40
0.25
  9
$PSOLHEIGHT
 40
4.0
  9
$LOFTANG1
 40
1.570796326794896
  9
$LOFTANG2
 40
1.570796326794896
  9
$LOFTMAG1
 40
0.0
  9
$LOFTMAG2
 40
0.0
  9
$LOFTPARAM
 70
     7
  9
$LOFTNORMALS
280
     1
  9
$LATITUDE
 40
37.795
  9
$LONGITUDE
 40
-122.394
  9
$NORTHDIRECTION
 40
0.0
  9
$TIMEZONE
 70
 -8000
  9
$LIGHTGLYPHDISPLAY
280
     1
  9
$TILEMODELIGHTSYNCH
280
     1
  9
$CMATERIAL
347
2D12
  9
$SOLIDHIST
280
     1
  9
$SHOWHIST
280
     1
  9
$DWFFRAME
280
     2
  9
$DGNFRAME
280
     0
  9
$REALWORLDSCALE
290
     1
  9
$INTERFERECOLOR
 62
     1
  9
$INTERFEREOBJVS
345
2D1F
  9
$INTERFEREVPVS
346
2D1C
  9
$CSHADOW
280
     0
  9
$SHADOWPLANELOCATION
 40
0.0
  0
ENDSEC
  0
SECTION
  2
CLASSES
  0
CLASS
  1
DICTIONARYVAR
  2
AcDbDictionaryVar
  3
ObjectDBX Classes
 90
        0
 91
        4
280
     0
281
     0
  0
CLASS
  1
ACMESTATEMGR
  2
AcMeStateMgr
  3
AcMeServices
 90
        0
 91
        1
280
     0
281
     0
  0
CLASS
  1
ACMESCOPE
  2
AcMeScope
  3
AcMeServices
 90
        0
 91
        1
280
     0
281
     0
  0
CLASS
  1
ACMECOMMANDHISTORY
  2
AcMeCommandHistory
  3
AcMeServices
 90
        0
 91
        1
280
     0
281
     0
  0
CLASS
  1
ACRFINSADJUSTERMGR
  2
AcRfInsAdjusterMgr
  3
AcMeServices
 90
        0
 91
        1
280
     0
281
     0
  0
CLASS
  1
ACMEDRAWINGMAN
  2
AcMeDrawingMan
  3
AcMeServices
 90
        0
 91
        1
280
     0
281
     0
  0
CLASS
  1
AMATTR
  2
AcMeAttribute
  3
AcMeServices
 90
        0
 91
        0
280
     0
281
     0
  0
CLASS
  1
ACMEBOMCOLUMN
  2
AcMeBOMColumn
  3
AcMeServices
 90
        0
 91
        0
280
     0
281
     0
  0
CLASS
  1
ACMEBOMCONF
  2
AcMeBOMConf
  3
AcMeServices
 90
        0
 91
        0
280
     0
281
     0
  0
CLASS
  1
ACMEBOMTABLE
  2
AcMeBOMTable
  3
AcMeServices
 90
        0
 91
        0
280
     0
281
     0
  0
CLASS
  1
ACMEBOMENTRY
  2
AcMeBOMEntry
  3
AcMeServices
 90
        0
 91
        0
280
     0
281
     0
  0
CLASS
  1
ACMEVIEW
  2
AcMeView
  3
AcMeServices
 90
        0
 91
        0
280
     0
281
     0
  0
CLASS
  1
ACGREFMASTER
  2
AcGrefMaster
  3
AcAttribServices
 90
        0
 91
        1
280
     0
281
     0
  0
CLASS
  1
AMIMASTER
  2
AmiMaster
  3
AmiServices
 90
        0
 91
        1
280
     0
281
     0
  0
CLASS
  1
ACASGREFMASTER
  2
AcAsGrefMaster
  3
AutoSurfResolverServices
 90
        0
 91
        1
280
     0
281
     0
  0
CLASS
  1
ADAPPL
  2
AcAdAppl
  3
DesignerServices
 90
        0
 91
        1
280
     0
281
     0
  0
CLASS
  1
DEPMGR
  2
AcAdDepMgr
  3
DesignerServices
 90
        0
 91
        1
280
     0
281
     0
  0
CLASS
  1
PARAMMGR
  2
AcAdParamMgr
  3
DesignerServices
 90
        0
 91
        1
280
     0
281
     0
  0
CLASS
  1
PARAMSCOPE
  2
AcAdParamScope
  3
DesignerServices
 90
        0
 91
        3
280
     0
281
     0
  0
CLASS
  1
ACIMSYSVARMAN
  2
AcImSysVarManager
  3
AcMeServices
 90
        0
 91
        6
280
     0
281
     0
  0
CLASS
  1
ACIMINTSYSVAR
  2
AcImIntSysVar
  3
AcMeServices
 90
        0
 91
       47
280
     0
281
     0
  0
CLASS
  1
ACIMREALSYSVAR
  2
AcImRealSysVar
  3
AcMeServices
 90
        0
 91
       16
280
     0
281
     0
  0
CLASS
  1
ACIMSTRSYSVAR
  2
AcImStrSysVar
  3
AcMeServices
 90
        0
 91
       14
280
     0
281
     0
  0
CLASS
  1
NAMEDAPPL
  2
AcAdNamedAppl
  3
DesignerServices
 90
        0
 91
        1
280
     0
281
     0
  0
CLASS
  1
ADHNTMPLT
  2
AdHoleNoteTemplateMgr
  3
DesignerServices
 90
        0
 91
        0
280
     0
281
     0
  0
CLASS
  1
AM_HNTEMPLATE_MGR_NAME
  2
AdHoleNoteTemplateMgrName
  3
DesignerServices
 90
        0
 91
        0
280
     0
281
     0
  0
CLASS
  1
ACADGREFMODULE
  2
AcAdGrefModule
  3
AdGrefServices
 90
        0
 91
        1
280
     0
281
     0
  0
CLASS
  1
AM_DRAWING_MGR
  2
AcDmDwgMgr
  3
AcMechDwgViewMgmt
 90
        0
 91
        1
280
     0
281
     0
  0
CLASS
  1
AM_DWG_DOCUMENT
  2
AcDmDwgDocument
  3
AcMechDwgViewMgmt
 90
        0
 91
        1
280
     0
281
     0
  0
CLASS
  1
AM_DWG_SHEET
  2
AcDmSheet
  3
AcMechDwgViewMgmt
 90
        0
 91
        5
280
     0
281
     0
  0
CLASS
  1
AM_VIEWDIMPARMAP
  2
AcDmViewDimParMap
  3
AcMechDwgViewMgmt
 90
        0
 91
        5
280
     0
281
     0
  0
CLASS
  1
AM_DWGMGR_NAME
  2
AcDmDwgMgrName
  3
AcMechDwgViewMgmt
 90
        0
 91
        1
280
     0
281
     0
  0
CLASS
  1
ACAMPROJECT
  2
AcAmProject
  3
DesignerAssemblies
 90
        0
 91
        1
280
     0
281
     0
  0
CLASS
  1
ACAMGRCOMPSET
  2
AcAmGrCompSet
  3
DesignerAssemblies
 90
        0
 91
        0
280
     0
281
     0
  0
CLASS
  1
ACAMGRCOMPDEFSET
  2
AcAmGrCompDefSet
  3
DesignerAssemblies
 90
        0
 91
        1
280
     0
281
     0
  0
CLASS
  1
ACAMGRCOMPDEF
  2
AcAmGrCompDef
  3
DesignerAssemblies
 90
        0
 91
        2
280
     0
281
     0
  0
CLASS
  1
ACCMCONTEXT
  2
AcCmContext
  3
DesignerAssemblies
 90
        0
 91
        2
280
     0
281
     0
  0
CLASS
  1
ACAMCOMPDEF
  2
AcAmCompDef
  3
DesignerAssemblies
 90
        0
 91
        2
280
     0
281
     0
  0
CLASS
  1
ACAMCOMPDEFMGR
  2
AcAmCompDefMgr
  3
DesignerAssemblies
 90
        0
 91
        1
280
     0
281
     0
  0
CLASS
  1
AMCONTEXTMGR
  2
AcAmContextMgr
  3
DesignerAssemblies
 90
        0
 91
        1
280
     0
281
     0
  0
CLASS
  1
ACAMCONTEXTMODELER
  2
AcAmContextModeler
  3
DesignerAssemblies
 90
        0
 91
        0
280
     0
281
     0
  0
CLASS
  1
ACDMVIEWGEOM
  2
AcDmViewGeometry
  3
AcMechDwgViewMgmt
 90
        0
 91
        1
280
     0
281
     1
  0
CLASS
  1
CBROWSERAPPOBJECT
  2
CBrowserAppObject
  3
McadcomServices
 90
        0
 91
        3
280
     0
281
     0
  0
CLASS
  1
IM_STATIC_MAN
  2
AcImStaticVarManager
  3
AcMeServices
 90
        0
 91
        1
280
     0
281
     0
  0
CLASS
  1
ASAPP
  2
AcAsAppObject
  3
AutoSurfServices
 90
        0
 91
        1
280
     0
281
     0
  0
CLASS
  1
ACIMDBLSTATICVAR
  2
AcImDblStaticVar
  3
AcMeServices
 90
        0
 91
       22
280
     0
281
     0
  0
CLASS
  1
ACIMSTRSTATICVAR
  2
AcImStrStaticVar
  3
AcMeServices
 90
        0
 91
       13
280
     0
281
     0
  0
CLASS
  1
ACIMINTSTATICVAR
  2
AcImIntStaticVar
  3
AcMeServices
 90
        0
 91
       17
280
     0
281
     0
  0
CLASS
  1
CATALOGSTATE
  2
AcAmCatalogState
  3
DesignerAssemblies
 90
        0
 91
        1
280
     0
281
     0
  0
CLASS
  1
DM_PLACEHOLDER
  2
AcDmSelsetPlaceholder
  3
AcMechDwgViewMgmt
 90
        0
 91
        1
280
     0
281
     0
  0
CLASS
  1
LAYER_INDEX
  2
AcDbLayerIndex
  3
ObjectDBX Classes
 90
        0
 91
        1
280
     0
281
     0
  0
CLASS
  1
IDBUFFER
  2
AcDbIdBuffer
  3
ObjectDBX Classes
 90
        0
 91
       36
280
     0
281
     0
  0
CLASS
  1
ACMSTANDARDJIS
  2
AcmStandardJIS
  3
"Amdt_StdImp|Product Description: AutoCAD Mechanical|Company: Autodesk"
 90
        0
 91
        1
280
     0
281
     0
  0
CLASS
  1
ACMSTANDARDANSI
  2
AcmStandardANSI
  3
"Amdt_StdImp|Product Description: AutoCAD Mechanical|Company: Autodesk"
 90
        0
 91
        1
280
     0
281
     0
  0
CLASS
  1
ACMSTANDARDBSI
  2
AcmStandardBSI
  3
"Amdt_StdImp|Product Description: AutoCAD Mechanical|Company: Autodesk"
 90
        0
 91
        1
280
     0
281
     0
  0
CLASS
  1
ACMSTANDARDDIN
  2
AcmStandardDIN
  3
"Amdt_StdImp|Product Description: AutoCAD Mechanical|Company: Autodesk"
 90
        0
 91
        1
280
     0
281
     0
  0
CLASS
  1
ACMSTANDARDISO
  2
AcmStandardISO
  3
"Amdt_StdImp|Product Description: AutoCAD Mechanical|Company: Autodesk"
 90
        0
 91
        1
280
     0
281
     0
  0
CLASS
  1
ACDBDICTIONARYWDFLT
  2
AcDbDictionaryWithDefault
  3
ObjectDBX Classes
 90
        0
 91
        1
280
     0
281
     0
  0
CLASS
  1
ACME_DOCUMENT
  2
AcMeDbDoc
  3
AcMeServices
 90
        0
 91
        2
280
     0
281
     0
  0
CLASS
  1
AMGSETTINGSOBJ
  2
AmgSettingsObj
  3
"AcadM|Product Description: AutoCAD Mechanical|Company: Autodesk"
 90
        0
 91
        4
280
     0
281
     0
  0
CLASS
  1
AMGOBJPROPCFG
  2
AmgObjPropCfg
  3
"AmgLay|Product Description: AutoCAD Mechanical|Company: Autodesk"
 90
        1
 91
        1
280
     0
281
     0
  0
CLASS
  1
ACDBENTITYCACHE
  2
AcMeEntityCache
  3
AcMeServices
 90
        0
 91
        1
280
     0
281
     0
  0
CLASS
  1
GSMANAGER
  2
AcMeGSManager
  3
AcMeServices
 90
        0
 91
        1
280
     0
281
     0
  0
CLASS
  1
AMDTINTERNALREACTOR
  2
AmdtInternalReactor
  3
AcMeServices
 90
        0
 91
        6
280
     0
281
     0
  0
CLASS
  1
ACME_DATABASE
  2
AcMeDbDatabase
  3
AcMeServices
 90
        0
 91
        1
280
     0
281
     0
  0
CLASS
  1
ACGREFACADMASTER
  2
AcGrefacadMaster
  3
AcGrefServices
 90
        0
 91
        1
280
     0
281
     0
  0
CLASS
  1
AMDTMENUSTATEMGR
  2
AmdtMenuStateMgr
  3
McadcomServices
 90
        0
 91
        1
280
     0
281
     0
  0
CLASS
  1
AMDTMCOMMENUSTATE
  2
AmdtMcomMenuState
  3
McadcomServices
 90
        0
 91
        1
280
     0
281
     0
  0
CLASS
  1
MAPIADMODULE
  2
MApiAdModule
  3
MApiAdServices
 90
        0
 91
        1
280
     0
281
     0
  0
CLASS
  1
AMDTDMMENUSTATE
  2
AmdtDmMenuState
  3
AcMechDwgViewMgmt
 90
        0
 91
        1
280
     0
281
     0
  0
CLASS
  1
AMDTADMENUSTATE
  2
AmdtAdMenuState
  3
DesignerServices
 90
        0
 91
        1
280
     0
281
     0
  0
CLASS
  1
AMDTAMMENUSTATE
  2
AmdtAmMenuState
  3
DesignerAssemblies
 90
        0
 91
        1
280
     0
281
     0
  0
CLASS
  1
ACMDATADICTIONARY
  2
AcmDataDictionary
  3
"AcmSymBB|Product Description: AutoCAD Mechanical|Company: Autodesk"
 90
        0
 91
        1
280
     0
281
     0
  0
CLASS
  1
ACMDATAENTRYBLOCK
  2
AcmDataEntryBlock
  3
"AcmSymBB|Product Description: AutoCAD Mechanical|Company: Autodesk"
 90
        0
 91
        1
280
     0
281
     0
  0
CLASS
  1
ACMSURFSTANDARDJIS
  2
AcmSurfTextStdJIS
  3
"Amdt_StdImp|Product Description: AutoCAD Mechanical|Company: Autodesk"
 90
        0
 91
        1
280
     0
281
     0
  0
CLASS
  1
ACMFCFSTANDARDJIS
  2
AcmFCFStdJIS
  3
"Amdt_StdImp|Product Description: AutoCAD Mechanical|Company: Autodesk"
 90
        0
 91
        1
280
     0
281
     0
  0
CLASS
  1
ACMWELDSTANDARDJIS
  2
AcmWeldingStdJIS
  3
"Amdt_StdImp|Product Description: AutoCAD Mechanical|Company: Autodesk"
 90
        0
 91
        1
280
     0
281
     0
  0
CLASS
  1
ACMIDSTANDARDJIS
  2
AcmIdStdJIS
  3
"Amdt_StdImp|Product Description: AutoCAD Mechanical|Company: Autodesk"
 90
        0
 91
        1
280
     0
281
     0
  0
CLASS
  1
ACMDATUMSTANDARDJIS
  2
AcmDatumStdJIS
  3
"Amdt_StdImp|Product Description: AutoCAD Mechanical|Company: Autodesk"
 90
        0
 91
        1
280
     0
281
     0
  0
CLASS
  1
ACMBOMSTANDARDJIS
  2
AcmBOMStdJIS
  3
"Amdt_StdImp|Product Description: AutoCAD Mechanical|Company: Autodesk"
 90
        0
 91
        1
280
     0
281
     0
  0
CLASS
  1
ACMSURFSTANDARDANSI
  2
AcmSurfTextStdANSI
  3
"Amdt_StdImp|Product Description: AutoCAD Mechanical|Company: Autodesk"
 90
        0
 91
        1
280
     0
281
     0
  0
CLASS
  1
ACMFCFSTANDARDANSI
  2
AcmFCFStdANSI
  3
"Amdt_StdImp|Product Description: AutoCAD Mechanical|Company: Autodesk"
 90
        0
 91
        1
280
     0
281
     0
  0
CLASS
  1
ACMWELDSTANDARDANSI
  2
AcmWeldingStdANSI
  3
"Amdt_StdImp|Product Description: AutoCAD Mechanical|Company: Autodesk"
 90
        0
 91
        1
280
     0
281
     0
  0
CLASS
  1
ACMIDSTANDARDANSI
  2
AcmIdStdANSI
  3
"Amdt_StdImp|Product Description: AutoCAD Mechanical|Company: Autodesk"
 90
        0
 91
        1
280
     0
281
     0
  0
CLASS
  1
ACMDATUMSTANDARDANSI
  2
AcmDatumStdANSI
  3
"Amdt_StdImp|Product Description: AutoCAD Mechanical|Company: Autodesk"
 90
        0
 91
        1
280
     0
281
     0
  0
CLASS
  1
ACMBOMSTANDARDANSI
  2
AcmBOMStdANSI
  3
"Amdt_StdImp|Product Description: AutoCAD Mechanical|Company: Autodesk"
 90
        0
 91
        1
280
     0
281
     0
  0
CLASS
  1
ACMSURFSTANDARDBSI
  2
AcmSurfTextStdBSI
  3
"Amdt_StdImp|Product Description: AutoCAD Mechanical|Company: Autodesk"
 90
        0
 91
        1
280
     0
281
     0
  0
CLASS
  1
ACMFCFSTANDARDBSI
  2
AcmFCFStdBSI
  3
"Amdt_StdImp|Product Description: AutoCAD Mechanical|Company: Autodesk"
 90
        0
 91
        1
280
     0
281
     0
  0
CLASS
  1
ACMWELDSTANDARDBSI
  2
AcmWeldingStdBSI
  3
"Amdt_StdImp|Product Description: AutoCAD Mechanical|Company: Autodesk"
 90
        0
 91
        1
280
     0
281
     0
  0
CLASS
  1
ACMIDSTANDARDBSI
  2
AcmIdStdBSI
  3
"Amdt_StdImp|Product Description: AutoCAD Mechanical|Company: Autodesk"
 90
        0
 91
        1
280
     0
281
     0
  0
CLASS
  1
ACMDATUMSTANDARDBSI
  2
AcmDatumStdBSI
  3
"Amdt_StdImp|Product Description: AutoCAD Mechanical|Company: Autodesk"
 90
        0
 91
        1
280
     0
281
     0
  0
CLASS
  1
ACMBOMSTANDARDBSI
  2
AcmBOMStdBSI
  3
"Amdt_StdImp|Product Description: AutoCAD Mechanical|Company: Autodesk"
 90
        0
 91
        1
280
     0
281
     0
  0
CLASS
  1
AMDTEDGESTANDARDDIN
  2
AmdtEdgeStdDIN
  3
"Amdt_StdImp|Product Description: AutoCAD Mechanical|Company: Autodesk"
 90
        0
 91
        1
280
     0
281
     0
  0
CLASS
  1
ACMSURFSTANDARDDIN
  2
AcmSurfTextStdDIN
  3
"Amdt_StdImp|Product Description: AutoCAD Mechanical|Company: Autodesk"
 90
        0
 91
        1
280
     0
281
     0
  0
CLASS
  1
ACMFCFSTANDARDDIN
  2
AcmFCFStdDIN
  3
"Amdt_StdImp|Product Description: AutoCAD Mechanical|Company: Autodesk"
 90
        0
 91
        1
280
     0
281
     0
  0
CLASS
  1
ACMWELDSTANDARDDIN
  2
AcmWeldingStdDIN
  3
"Amdt_StdImp|Product Description: AutoCAD Mechanical|Company: Autodesk"
 90
        0
 91
        1
280
     0
281
     0
  0
CLASS
  1
ACMIDSTANDARDDIN
  2
AcmIdStdDIN
  3
"Amdt_StdImp|Product Description: AutoCAD Mechanical|Company: Autodesk"
 90
        0
 91
        1
280
     0
281
     0
  0
CLASS
  1
ACMDATUMSTANDARDDIN
  2
AcmDatumStdDIN
  3
"Amdt_StdImp|Product Description: AutoCAD Mechanical|Company: Autodesk"
 90
        0
 91
        1
280
     0
281
     0
  0
CLASS
  1
ACMBOMSTANDARDDIN
  2
AcmBOMStdDIN
  3
"Amdt_StdImp|Product Description: AutoCAD Mechanical|Company: Autodesk"
 90
        0
 91
        1
280
     0
281
     0
  0
CLASS
  1
ACMSURFSTANDARDISO
  2
AcmSurfTextStdISO
  3
"Amdt_StdImp|Product Description: AutoCAD Mechanical|Company: Autodesk"
 90
        0
 91
        1
280
     0
281
     0
  0
CLASS
  1
ACMFCFSTANDARDISO
  2
AcmFCFStdISO
  3
"Amdt_StdImp|Product Description: AutoCAD Mechanical|Company: Autodesk"
 90
        0
 91
        1
280
     0
281
     0
  0
CLASS
  1
ACMWELDSTANDARDISO
  2
AcmWeldingStdISO
  3
"Amdt_StdImp|Product Description: AutoCAD Mechanical|Company: Autodesk"
 90
        0
 91
        1
280
     0
281
     0
  0
CLASS
  1
ACMIDSTANDARDISO
  2
AcmIdStdISO
  3
"Amdt_StdImp|Product Description: AutoCAD Mechanical|Company: Autodesk"
 90
        0
 91
        1
280
     0
281
     0
  0
CLASS
  1
ACMDATUMSTANDARDISO
  2
AcmDatumStdISO
  3
"Amdt_StdImp|Product Description: AutoCAD Mechanical|Company: Autodesk"
 90
        0
 91
        1
280
     0
281
     0
  0
CLASS
  1
ACMBOMSTANDARDISO
  2
AcmBOMStdISO
  3
"Amdt_StdImp|Product Description: AutoCAD Mechanical|Company: Autodesk"
 90
        0
 91
        1
280
     0
281
     0
  0
CLASS
  1
AMDTBROWSERDBTAB
  2
AmdtBrowserDbTab
  3
McadcomServices
 90
        0
 91
        1
280
     0
281
     0
  0
CLASS
  1
ACAMGFILTERDAT
  2
AcAmgFilterDat
  3
"AcadM|Product Description: AutoCAD Mechanical|Company: Autodesk"
 90
        0
 91
        4
280
     0
281
     0
  0
CLASS
  1
MAPIAMMOUDLE
  2
MApiAmModule
  3
MApiAmServices
 90
        0
 91
        1
280
     0
281
     0
  0
CLASS
  1
PLOTSETTINGS
  2
AcDbPlotSettings
  3
ObjectDBX Classes
 90
        0
 91
        7
280
     0
281
     0
  0
CLASS
  1
ACRFATTGENMGR
  2
AcRfAttGeneralMgr
  3
AcAttribServices
 90
        0
 91
        1
280
     0
281
     0
  0
CLASS
  1
ACAMGRBLOCKRECORD
  2
AcAmGrBlockRecord
  3
DesignerAssemblies
 90
        0
 91
        2
280
     0
281
     0
  0
CLASS
  1
ACAMVIEWREACTOR
  2
AcAmViewReactor
  3
DesignerAssemblies
 90
        0
 91
        0
280
     0
281
     0
  0
CLASS
  1
ACAMCOMPENT
  2
AcAmCompEnt
  3
DesignerAssemblies
 90
        0
 91
        0
280
     0
281
     1
  0
CLASS
  1
AMVIEW
  2
AcAmView
  3
DesignerAssemblies
 90
        0
 91
        0
280
     0
281
     0
  0
CLASS
  1
ACAMVIEWCONTEXT
  2
AcAmViewContext
  3
DesignerAssemblies
 90
        0
 91
        0
280
     0
281
     0
  0
CLASS
  1
ADPART
  2
AcAdPart
  3
DesignerServices
 90
        0
 91
        2
280
     0
281
     1
  0
CLASS
  1
ADBASE
  2
AcAdBase
  3
DesignerServices
 90
        0
 91
        2
280
     0
281
     0
  0
CLASS
  1
BODYID
  2
AcAdBodyId
  3
DesignerServices
 90
        0
 91
        2
280
     0
281
     0
  0
CLASS
  1
WORKPLANEDISPLAYMGR
  2
AcAdDisplayMgr
  3
DesignerServices
 90
        0
 91
        2
280
     0
281
     0
  0
CLASS
  1
ACCMBODY
  2
AcCmBody
  3
DesignerAssemblies
 90
        0
 91
        0
280
     0
281
     0
  0
CLASS
  1
ACAMCOMPFEEDBACK
  2
AcAmCompFeedback
  3
DesignerAssemblies
 90
        0
 91
        0
280
     0
281
     0
  0
CLASS
  1
ACAMCOMP
  2
AcAmComp
  3
DesignerAssemblies
 90
        0
 91
        0
280
     0
281
     0
  0
CLASS
  1
ACAMCOMPENTCLONE
  2
AcAmCompEntClone
  3
DesignerAssemblies
 90
        0
 91
        0
280
     0
281
     1
  0
CLASS
  1
ACAMCLONEREACTOR
  2
AcAmGrCompCloneReactor
  3
DesignerAssemblies
 90
        0
 91
        0
280
     0
281
     0
  0
CLASS
  1
ADDATUMPLANEABS
  2
AcAdDatumPlaneAbs
  3
DesignerServices
 90
        0
 91
        5
280
     0
281
     0
  0
CLASS
  1
ADDATUMAXISABS
  2
AcAdDatumAxisAbs
  3
DesignerServices
 90
        0
 91
        4
280
     0
281
     0
  0
CLASS
  1
ADDATUMORIENTEDPLANE
  2
AcAdDatumOrientedPlane
  3
DesignerServices
 90
        0
 91
        4
280
     0
281
     0
  0
CLASS
  1
ACAD_LINE
  2
AcAdLine
  3
DesignerServices
 90
        0
 91
        0
280
     0
281
     1
  0
CLASS
  1
ACADLINEACAD
  2
AcAdVirtualBoundedLineAcad
  3
DesignerServices
 90
        0
 91
       12
280
     0
281
     0
  0
CLASS
  1
ACADREFLINEACAD
  2
AcAdVirtualReferenceLine
  3
DesignerServices
 90
        0
 91
        8
280
     0
281
     0
  0
CLASS
  1
ACADCONSLINE
  2
AcAdConstrainedLine
  3
DesignerServices
 90
        0
 91
       21
280
     0
281
     0
  0
CLASS
  1
ACADCONSGROUP
  2
AcAdConstraintGroup
  3
DesignerServices
 90
        0
 91
        4
280
     0
281
     0
  0
CLASS
  1
ACADIMPPTACAD
  2
AcAdVirtualImplicitPoint
  3
DesignerServices
 90
        0
 91
       25
280
     0
281
     0
  0
CLASS
  1
ACADCONSPOINT
  2
AcAdConstrainedPoint
  3
DesignerServices
 90
        0
 91
       20
280
     0
281
     0
  0
CLASS
  1
ADPCURCNS
  2
AcAdPointCurveConstr
  3
DesignerServices
 90
        0
 91
       24
280
     0
281
     0
  0
CLASS
  1
ADHORCNS
  2
AcAdHorizontalConstr
  3
DesignerServices
 90
        0
 91
        4
280
     0
281
     0
  0
CLASS
  1
ADVERCNS
  2
AcAdVerticalConstr
  3
DesignerServices
 90
        0
 91
        4
280
     0
281
     0
  0
CLASS
  1
ADCLPROF2D
  2
AcAdClosedProfile2d
  3
DesignerServices
 90
        0
 91
        3
280
     0
281
     0
  0
CLASS
  1
ACAD_FIXCONSTRAINT
  2
AcAdFixedConstraint
  3
DesignerServices
 90
        0
 91
        1
280
     0
281
     0
  0
CLASS
  1
ACMELINEARARROW
  2
AcImLinearArrowDisplay
  3
AcMeServices
 90
        0
 91
        0
280
     0
281
     1
  0
CLASS
  1
PARAM
  2
AcAdParam
  3
DesignerServices
 90
        0
 91
       23
280
     0
281
     0
  0
CLASS
  1
ACADVOLFEATWITHTRIM
  2
AcAdVolFeatWithTrim
  3
DesignerServices
 90
        0
 91
        3
280
     0
281
     0
  0
CLASS
  1
DEPEDGEFEATUREORDERING
  2
AcAdDepEdgeFeatureOrdering
  3
DesignerServices
 90
        0
 91
        3
280
     0
281
     0
  0
CLASS
  1
ADWORKPOINTDISPLAY
  2
AcAdWorkPointDisplay
  3
DesignerServices
 90
        0
 91
        1
280
     0
281
     1
  0
CLASS
  1
ADVIRTUALPOINTWORKPOINTFREE
  2
AcAdVirtualPointWorkPointFree
  3
DesignerServices
 90
        0
 91
        1
280
     0
281
     0
  0
CLASS
  1
ADWORKPOINTSKETCH
  2
AcAdWorkPointSketch
  3
DesignerServices
 90
        0
 91
        1
280
     0
281
     0
  0
CLASS
  1
ACADPARTDATUMPOINTRES
  2
AcAdPartDatumPointRes
  3
AdGrefServices
 90
        0
 91
        0
280
     0
281
     0
  0
CLASS
  1
ACRFINSADJ
  2
AcRfInsAdjuster
  3
AcMeServices
 90
        0
 91
        0
280
     0
281
     0
  0
CLASS
  1
DATUMPLANEDISPLAY
  2
AcAdDatumPlaneDisplay
  3
DesignerServices
 90
        0
 91
        5
280
     0
281
     1
  0
CLASS
  1
ACADPARTDATUMPLANERES
  2
AcAdPartDatumPlaneRes
  3
AdGrefServices
 90
        0
 91
        0
280
     0
281
     0
  0
CLASS
  1
ACMEPLINE
  2
AcImPlineDisplay
  3
AcMeServices
 90
        0
 91
        0
280
     0
281
     1
  0
CLASS
  1
ACAD_CIRCLE
  2
AcAdCircle
  3
DesignerServices
 90
        0
 91
        0
280
     0
281
     1
  0
CLASS
  1
ACADCIRCLEACAD
  2
AcAdVirtualCircleAcad
  3
DesignerServices
 90
        0
 91
        1
280
     0
281
     0
  0
CLASS
  1
ACADCONSCIRCLE
  2
AcAdConstrainedCircle
  3
DesignerServices
 90
        0
 91
        1
280
     0
281
     0
  0
CLASS
  1
ADCTRPTCNS
  2
AcAdCenterPointConstr
  3
DesignerServices
 90
        0
 91
        1
280
     0
281
     0
  0
CLASS
  1
ACDBCIRCARCRES
  2
AcDbCircArcRes
  3
AcGrefServices
 90
        0
 91
        0
280
     0
281
     0
  0
CLASS
  1
ACADSKETCHCIRCARCRES
  2
AcAdSketchCircArcRes
  3
DesignerServices
 90
        0
 91
        1
280
     0
281
     0
  0
CLASS
  1
ADVIRTUALPOINTWORKPOINTFIXED
  2
AcAdVirtualPointWorkPointFixed
  3
DesignerServices
 90
        0
 91
        6
280
     0
281
     0
  0
CLASS
  1
ADHDISTCNS
  2
AcAdHorizontalDistanceConstr
  3
DesignerServices
 90
        0
 91
        5
280
     0
281
     0
  0
CLASS
  1
ACADSKETCHPOINTRES
  2
AcAdSketchPointRes
  3
DesignerServices
 90
        0
 91
       20
280
     0
281
     0
  0
CLASS
  1
ADVDISTCNS
  2
AcAdVerticalDistanceConstr
  3
DesignerServices
 90
        0
 91
        7
280
     0
281
     0
  0
CLASS
  1
ADACADDIACNS
  2
AcAdAcadDiameterConstr
  3
DesignerServices
 90
        0
 91
        1
280
     0
281
     0
  0
CLASS
  1
AMIINSTATTCLASSRECORD
  2
AmiInstAttClassRecord
  3
AcAttribServices
 90
        0
 91
        1
280
     0
281
     0
  0
CLASS
  1
AMIINSTATTIMP
  2
AmiInstAttImp
  3
AcAttribServices
 90
        1
 91
        2
280
     0
281
     0
  0
CLASS
  1
ACRFOBJATTMGR
  2
AcRfObjAttGroupMgr
  3
AcAttribServices
 90
        0
 91
        2
280
     0
281
     0
  0
CLASS
  1
ACRFMCADAPIATTHOLDER
  2
AcRfMCADAPIAttHolder
  3
AcAttribServices
 90
        0
 91
        1
280
     0
281
     0
  0
CLASS
  1
FACEID
  2
AcAdFaceId
  3
DesignerServices
 90
        0
 91
        0
280
     0
281
     0
  0
CLASS
  1
ACADPARTCYLINDERFACERES
  2
AcAdPartCylinderFaceRes
  3
AdGrefServices
 90
        0
 91
        0
280
     0
281
     0
  0
CLASS
  1
ACADPARTPLANARFACERES
  2
AcAdPartPlanarFaceRes
  3
AdGrefServices
 90
        0
 91
        0
280
     0
281
     0
  0
CLASS
  1
ADPLANEID
  2
AcAdPlaneId
  3
DesignerServices
 90
        0
 91
        2
280
     0
281
     0
  0
CLASS
  1
ADDATUMPLANEFACE
  2
AcAdDatumPlaneFace
  3
DesignerServices
 90
        0
 91
        2
280
     0
281
     0
  0
CLASS
  1
ADDATUMPLANEOFFSET
  2
AcAdDatumPlaneOffset
  3
DesignerServices
 90
        0
 91
        3
280
     0
281
     0
  0
CLASS
  1
DATUMAXISDISPLAY
  2
AcAdDatumAxisDisplay
  3
DesignerServices
 90
        0
 91
        1
280
     0
281
     1
  0
CLASS
  1
ADSURFGEOMID
  2
AcAdSurfGeomId
  3
DesignerServices
 90
        0
 91
        1
280
     0
281
     0
  0
CLASS
  1
ADDATUMAXISCENTER
  2
AcAdDatumAxisCenter
  3
DesignerServices
 90
        0
 91
        1
280
     0
281
     0
  0
CLASS
  1
ACADPARTAXISRES
  2
AcAdPartAxisRes
  3
AdGrefServices
 90
        0
 91
        0
280
     0
281
     0
  0
CLASS
  1
ACDBLINERES
  2
AcDbLineRes
  3
AcGrefServices
 90
        0
 91
        0
280
     0
281
     0
  0
CLASS
  1
ACADSKETCHLINERES
  2
AcAdSketchLineRes
  3
DesignerServices
 90
        0
 91
        4
280
     0
281
     0
  0
CLASS
  1
ADCONSTDSP
  2
AcAdConstraintDisplayTag
  3
DesignerServices
 90
        0
 91
        0
280
     0
281
     1
  0
CLASS
  1
ADCONSDISP
  2
AcAdConstraintDisplay
  3
DesignerServices
 90
        0
 91
        0
280
     0
281
     1
  0
CLASS
  1
ADACADANGCNS
  2
AcAdAcadAngleConstr
  3
DesignerServices
 90
        0
 91
        2
280
     0
281
     0
  0
CLASS
  1
ADPROJCNS
  2
AcAdProjectionConstr
  3
DesignerServices
 90
        0
 91
        1
280
     0
281
     0
  0
CLASS
  1
ADCOLNCNS
  2
AcAdColinearConstr
  3
DesignerServices
 90
        0
 91
        1
280
     0
281
     0
  0
CLASS
  1
ACADBOUNDEDLINEDATUMID
  2
AcAdVirtualBoundedLineDatumId
  3
DesignerServices
 90
        0
 91
        1
280
     0
281
     0
  0
CLASS
  1
ACADPARTCONICALFACERES
  2
AcAdPartConicalFaceRes
  3
AdGrefServices
 90
        0
 91
        0
280
     0
281
     0
  0
CLASS
  1
DEPEDGESECONDARYDEPID
  2
AcAdDepEdgeSecondaryDepId
  3
DesignerServices
 90
        0
 91
        0
280
     0
281
     0
  0
CLASS
  1
AMACTIVEPARTSELECTFILTER
  2
AcDmActivePartViewEntFilter
  3
DesignerServices
 90
        0
 91
        0
280
     0
281
     0
  0
CLASS
  1
AM_ABS_PLANE
  2
AcDmAbsPlnDef
  3
AcMechDwgViewMgmt
 90
        0
 91
        0
280
     0
281
     0
  0
CLASS
  1
AM_ABS_AXIS
  2
AcDmAbsAxisDef
  3
AcMechDwgViewMgmt
 90
        0
 91
        0
280
     0
281
     0
  0
CLASS
  1
AM_BASE_VIEW_ORIENT
  2
AcDmBaseViewOr
  3
AcMechDwgViewMgmt
 90
        0
 91
        0
280
     0
281
     0
  0
CLASS
  1
AM_DWG_VIEWPORT
  2
AcDmViewport
  3
AcMechDwgViewMgmt
 90
        0
 91
        0
280
     0
281
     0
  0
CLASS
  1
AM_VIEW_DISPLAY
  2
AcDmDwgViewDisplay
  3
AcMechDwgViewMgmt
 90
        0
 91
        0
280
     0
281
     0
  0
CLASS
  1
AM_CLDFLTS
  2
AcDmClDflts
  3
AcMechDwgViewMgmt
 90
        0
 91
        9
280
     0
281
     0
  0
CLASS
  1
AM_BASE_VIEW
  2
AcDmBaseView
  3
AcMechDwgViewMgmt
 90
        0
 91
        0
280
     0
281
     0
  0
CLASS
  1
AM_ORTHO_VIEW_ORIENT
  2
AcDmOrthoViewOr
  3
AcMechDwgViewMgmt
 90
        0
 91
        0
280
     0
281
     0
  0
CLASS
  1
AM_ORTHO_VIEW
  2
AcDmOrthoView
  3
AcMechDwgViewMgmt
 90
        0
 91
        0
280
     0
281
     0
  0
CLASS
  1
AM_ISO_VIEW_ORIENT
  2
AcDmIsoViewOr
  3
AcMechDwgViewMgmt
 90
        0
 91
        0
280
     0
281
     0
  0
CLASS
  1
AM_ISO_VIEW
  2
AcDmIsoView
  3
AcMechDwgViewMgmt
 90
        0
 91
        0
280
     0
281
     0
  0
CLASS
  1
ACDMVWEDARC
  2
AcDmViewEdgeArc
  3
AcMechDwgViewMgmt
 90
        0
 91
        0
280
     0
281
     1
  0
CLASS
  1
ACDMVWEDCIRC
  2
AcDmViewEdgeCircle
  3
AcMechDwgViewMgmt
 90
        0
 91
        0
280
     0
281
     1
  0
CLASS
  1
ACDMVWEDLINE
  2
AcDmViewEdgeLine
  3
AcMechDwgViewMgmt
 90
        0
 91
        0
280
     0
281
     1
  0
CLASS
  1
CNRREFID
  2
AcAdCornerId
  3
DesignerServices
 90
        0
 91
        0
280
     0
281
     0
  0
CLASS
  1
ACADPARTPOINTRES
  2
AcAdPartPointRes
  3
AdGrefServices
 90
        0
 91
        0
280
     0
281
     0
  0
CLASS
  1
ACADPARTSKETCHPLANEAXISRES
  2
AcAdPartSketchPlaneAxisRes
  3
DesignerServices
 90
        0
 91
        0
280
     0
281
     0
  0
CLASS
  1
AM_VIEWDIMPARALLEL
  2
AcDmViewDimParallel
  3
AcMechDwgViewMgmt
 90
        0
 91
        0
280
     0
281
     0
  0
CLASS
  1
AMDTDMPARMAPDATA
  2
AmdtDmDimParMapData
  3
AcMechDwgViewMgmt
 90
        0
 91
        0
280
     0
281
     0
  0
CLASS
  1
AM_VIEWDIMLINEAR
  2
AcDmViewDimLinear
  3
AcMechDwgViewMgmt
 90
        0
 91
        0
280
     0
281
     0
  0
CLASS
  1
AM_VIEWDIMANGULAR
  2
AcDmViewDimAngular
  3
AcMechDwgViewMgmt
 90
        0
 91
        0
280
     0
281
     0
  0
CLASS
  1
AM_ADLINCTRLINE
  2
AcAdLineCl
  3
DesignerServices
 90
        0
 91
        0
280
     0
281
     0
  0
CLASS
  1
AM_VIEWDIMDIAMETER
  2
AcDmViewDimDiameter
  3
AcMechDwgViewMgmt
 90
        0
 91
        0
280
     0
281
     0
  0
CLASS
  1
AM_ADCIRCTRLINE
  2
AcAdBullsEyeCl
  3
DesignerServices
 90
        0
 91
        0
280
     0
281
     0
  0
CLASS
  1
AMDTMAPISURFMOUDULE
  2
AmdtMApiSurfModule
  3
MApiSurfServices
 90
        0
 91
        1
280
     0
281
     0
  0
CLASS
  1
ACAMGTITLESTD
  2
AcAmgTitleStd
  3
"AmgTitle|Product Description: AutoCAD Mechanical|Company: Autodesk"
 90
        0
 91
        5
280
     0
281
     0
  0
CLASS
  1
ACMDETAILSTANDARDJIS
  2
AmdtDetailSymStdJIS
  3
"Amdt_StdImp|Product Description: AutoCAD Mechanical|Company: Autodesk"
 90
        0
 91
        1
280
     0
281
     0
  0
CLASS
  1
ACMSECTIONSTANDARDJIS
  2
AmdtSectionSymStdJIS
  3
"Amdt_StdImp|Product Description: AutoCAD Mechanical|Company: Autodesk"
 90
        0
 91
        1
280
     0
281
     0
  0
CLASS
  1
ACMCENTERLINESTANDARDJIS
  2
AmdtCenterLineStdJIS
  3
"Amdt_StdImp|Product Description: AutoCAD Mechanical|Company: Autodesk"
 90
        0
 91
        1
280
     0
281
     0
  0
CLASS
  1
ACMTHREADLINESTANDARDCSN
  2
AmdtThreadLineStdCSN
  3
"Amdt_StdImp|Product Description: AutoCAD Mechanical|Company: Autodesk"
 90
        0
 91
        5
280
     0
281
     0
  0
CLASS
  1
ACMDETAILSTANDARDANSI
  2
AmdtDetailSymStdANSI
  3
"Amdt_StdImp|Product Description: AutoCAD Mechanical|Company: Autodesk"
 90
        0
 91
        1
280
     0
281
     0
  0
CLASS
  1
ACMSECTIONSTANDARDANSI
  2
AmdtSectionSymStdANSI
  3
"Amdt_StdImp|Product Description: AutoCAD Mechanical|Company: Autodesk"
 90
        0
 91
        1
280
     0
281
     0
  0
CLASS
  1
ACMCENTERLINESTANDARDANSI
  2
AmdtCenterLineStdANSI
  3
"Amdt_StdImp|Product Description: AutoCAD Mechanical|Company: Autodesk"
 90
        0
 91
        1
280
     0
281
     0
  0
CLASS
  1
ACMDETAILSTANDARDBSI
  2
AmdtDetailSymStdBSI
  3
"Amdt_StdImp|Product Description: AutoCAD Mechanical|Company: Autodesk"
 90
        0
 91
        1
280
     0
281
     0
  0
CLASS
  1
ACMSECTIONSTANDARDBSI
  2
AmdtSectionSymStdBSI
  3
"Amdt_StdImp|Product Description: AutoCAD Mechanical|Company: Autodesk"
 90
        0
 91
        1
280
     0
281
     0
  0
CLASS
  1
ACMCENTERLINESTANDARDBSI
  2
AmdtCenterLineStdBSI
  3
"Amdt_StdImp|Product Description: AutoCAD Mechanical|Company: Autodesk"
 90
        0
 91
        1
280
     0
281
     0
  0
CLASS
  1
ACMDETAILSTANDARDDIN
  2
AmdtDetailSymStdDIN
  3
"Amdt_StdImp|Product Description: AutoCAD Mechanical|Company: Autodesk"
 90
        0
 91
        1
280
     0
281
     0
  0
CLASS
  1
ACMSECTIONSTANDARDDIN
  2
AmdtSectionSymStdDIN
  3
"Amdt_StdImp|Product Description: AutoCAD Mechanical|Company: Autodesk"
 90
        0
 91
        1
280
     0
281
     0
  0
CLASS
  1
ACMCENTERLINESTANDARDDIN
  2
AmdtCenterLineStdDIN
  3
"Amdt_StdImp|Product Description: AutoCAD Mechanical|Company: Autodesk"
 90
        0
 91
        1
280
     0
281
     0
  0
CLASS
  1
AMDTEDGESTANDARDISO
  2
AmdtEdgeStdISO
  3
"Amdt_StdImp|Product Description: AutoCAD Mechanical|Company: Autodesk"
 90
        0
 91
        1
280
     0
281
     0
  0
CLASS
  1
ACMDETAILSTANDARDISO
  2
AmdtDetailSymStdISO
  3
"Amdt_StdImp|Product Description: AutoCAD Mechanical|Company: Autodesk"
 90
        0
 91
        1
280
     0
281
     0
  0
CLASS
  1
ACMSECTIONSTANDARDISO
  2
AmdtSectionSymStdISO
  3
"Amdt_StdImp|Product Description: AutoCAD Mechanical|Company: Autodesk"
 90
        0
 91
        1
280
     0
281
     0
  0
CLASS
  1
ACMCENTERLINESTANDARDISO
  2
AmdtCenterLineStdISO
  3
"Amdt_StdImp|Product Description: AutoCAD Mechanical|Company: Autodesk"
 90
        0
 91
        1
280
     0
281
     0
  0
CLASS
  1
ACAMGLAYSTD
  2
AcAmgLayStd
  3
"AmgLay|Product Description: AutoCAD Mechanical|Company: Autodesk"
 90
        0
 91
        5
280
     0
281
     0
  0
CLASS
  1
ACAMGDIMSTD
  2
AcAmgDimStd
  3
"AmgDim|Product Description: AutoCAD Mechanical|Company: Autodesk"
 90
        0
 91
        5
280
     0
281
     0
  0
CLASS
  1
ACDMPARTVIEWDATA
  2
AcDmPartViewData
  3
AcMechDwgViewMgmt
 90
        0
 91
        0
280
     0
281
     0
  0
CLASS
  1
ACDMDISPLAYATTRIBS
  2
AcDmDisplayAttribs
  3
AcMechDwgViewMgmt
 90
        0
 91
        0
280
     0
281
     0
  0
CLASS
  1
ACDMBODYINSTANCEDATA
  2
AcDmBodyInstanceData
  3
AcMechDwgViewMgmt
 90
        0
 91
        0
280
     0
281
     0
  0
CLASS
  1
AMDTFORMULAUPDATEDISPATCHER
  2
AmdtFormulaUpdateDispatcher
  3
AcMeServices
 90
        0
 91
        1
280
     0
281
     0
  0
CLASS
  1
ACAMCONTEXTPARTMODELER
  2
AcAmContextPartModeler
  3
DesignerAssemblies
 90
        0
 91
        1
280
     0
281
     0
  0
CLASS
  1
ACMNOTESTANDARDJIS
  2
AmdtNoteStdJIS
  3
"Amdt_StdImp|Product Description: AutoCAD Mechanical|Company: Autodesk"
 90
        0
 91
        1
280
     0
281
     0
  0
CLASS
  1
AMDTNOTETEMPLATEDB
  2
AmdtNoteTemplateDB
  3
AMDT_STDIMP_MODULE_NAME
 90
        0
 91
       20
280
     0
281
     0
  0
CLASS
  1
ACMNOTESTANDARDANSI
  2
AmdtNoteStdANSI
  3
"Amdt_StdImp|Product Description: AutoCAD Mechanical|Company: Autodesk"
 90
        0
 91
        1
280
     0
281
     0
  0
CLASS
  1
ACMNOTESTANDARDBSI
  2
AmdtNoteStdBSI
  3
"Amdt_StdImp|Product Description: AutoCAD Mechanical|Company: Autodesk"
 90
        0
 91
        1
280
     0
281
     0
  0
CLASS
  1
ACMNOTESTANDARDDIN
  2
AmdtNoteStdDIN
  3
"Amdt_StdImp|Product Description: AutoCAD Mechanical|Company: Autodesk"
 90
        0
 91
        1
280
     0
281
     0
  0
CLASS
  1
ACMNOTESTANDARDISO
  2
AmdtNoteStdISO
  3
"Amdt_StdImp|Product Description: AutoCAD Mechanical|Company: Autodesk"
 90
        0
 91
        1
280
     0
281
     0
  0
CLASS
  1
MATERIAL
  2
AcDbMaterial
  3
ObjectDBX Classes
 90
     1024
 91
        3
280
     0
281
     0
  0
CLASS
  1
VISUALSTYLE
  2
AcDbVisualStyle
  3
ObjectDBX Classes
 90
     4095
 91
       16
280
     0
281
     0
  0
CLASS
  1
TABLESTYLE
  2
AcDbTableStyle
  3
ObjectDBX Classes
 90
     4095
 91
        1
280
     0
281
     0
  0
CLASS
  1
ACMTAPERSTANDARDJIS
  2
AcmTaperStdJIS
  3
"Amdt_StdImp|Product Description: AutoCAD Mechanical|Company: Autodesk"
 90
        0
 91
        1
280
     0
281
     0
  0
CLASS
  1
ACMTAPERSTANDARDANSI
  2
AcmTaperStdANSI
  3
"Amdt_StdImp|Product Description: AutoCAD Mechanical|Company: Autodesk"
 90
        0
 91
        1
280
     0
281
     0
  0
CLASS
  1
ACMTAPERSTANDARDBSI
  2
AcmTaperStdBSI
  3
"Amdt_StdImp|Product Description: AutoCAD Mechanical|Company: Autodesk"
 90
        0
 91
        1
280
     0
281
     0
  0
CLASS
  1
ACMTAPERSTANDARDDIN
  2
AcmTaperStdDIN
  3
"Amdt_StdImp|Product Description: AutoCAD Mechanical|Company: Autodesk"
 90
        0
 91
        1
280
     0
281
     0
  0
CLASS
  1
ACMTAPERSTANDARDISO
  2
AcmTaperStdISO
  3
"Amdt_StdImp|Product Description: AutoCAD Mechanical|Company: Autodesk"
 90
        0
 91
        1
280
     0
281
     0
  0
ENDSEC
  0
SECTION
  2
TABLES
  0
TABLE
  2
VPORT
  5
8
330
0
100
AcDbSymbolTable
 70
     3
  0
VPORT
  5
79C
330
8
100
AcDbSymbolTableRecord
100
AcDbViewportTableRecord
  2
asurf_wcs_vp_2
 70
     0
 10
0.0
 20
0.0
 11
0.5
 21
1.0
 12
0.0
 22
0.0
 13
0.0
 23
0.0
 14
10.0
 24
10.0
 15
10.0
 25
10.0
 16
0.0
 26
0.0
 36
1.0
 17
210.0
 27
148.5
 37
0.0
 40
664.2413317557894
 41
0.6397245798091085
 42
50.0
 43
0.0
 44
0.0
 50
0.0
 51
0.0
 71
     0
 72
  1000
 73
     1
 74
     0
 75
     0
 76
     0
 77
     0
 78
     0
281
     4
 65
     0
110
0.0
120
0.0
130
0.0
111
1.0
121
0.0
131
0.0
112
0.0
122
1.0
132
0.0
 79
     0
146
0.0
348
2D18
 60
     3
 61
     5
292
     1
282
     1
141
0.0
142
0.0
 63
   250
421
  3355443
  0
VPORT
  5
79D
330
8
100
AcDbSymbolTableRecord
100
AcDbViewportTableRecord
  2
asurf_wcs_vp_2
 70
     0
 10
0.5
 20
0.0
 11
1.0
 21
1.0
 12
-166.0188166206583
 22
35.22481755965711
 13
0.0
 23
0.0
 14
10.0
 24
10.0
 15
10.0
 25
10.0
 16
1.0
 26
-1.0
 36
1.0
 17
210.0
 27
148.5
 37
0.0
 40
482.8380307317477
 41
0.6397245798091085
 42
50.0
 43
0.0
 44
0.0
 50
0.0
 51
0.0
 71
     0
 72
  1000
 73
     1
 74
     0
 75
     0
 76
     0
 77
     0
 78
     0
281
     4
 65
     0
110
0.0
120
0.0
130
0.0
111
1.0
121
0.0
131
0.0
112
0.0
122
1.0
132
0.0
 79
     0
146
0.0
348
2D18
 60
     3
 61
     5
292
     1
282
     1
141
0.0
142
0.0
 63
   250
421
  3355443
  0
VPORT
  5
2D10
330
8
100
AcDbSymbolTableRecord
100
AcDbViewportTableRecord
  2
*Active
 70
     0
 10
0.0
 20
0.0
 11
1.0
 21
1.0
 12
-221.0157348113283
 22
64.8103629031333
 13
0.0
 23
0.0
 14
5.0
 24
5.0
 15
20.0
 25
20.0
 16
0.0
 26
0.0
 36
1.0
 17
225.0419189867749
 27
164.8409058003548
 37
0.0
 40
255.2682796016665
 41
1.622039134912461
 42
50.0
 43
0.0
 44
0.0
 50
0.0
 51
0.0
 71
     0
 72
  1000
 73
     1
 74
     1
 75
     0
 76
     0
 77
     0
 78
     0
281
     0
 65
     0
110
0.0
120
0.0
130
0.0
111
1.0
121
0.0
131
0.0
112
0.0
122
1.0
132
0.0
 79
     0
146
0.0
348
2D1B
 60
     3
 61
     5
292
     1
282
     1
141
0.0
142
0.0
 63
   250
421
  3355443
  0
ENDTAB
  0
TABLE
  2
LTYPE
  5
5
330
0
100
AcDbSymbolTable
 70
    38
  0
LTYPE
  5
14
330
5
100
AcDbSymbolTableRecord
100
AcDbLinetypeTableRecord
  2
BYBLOCK
 70
     0
  3

 72
    65
 73
     0
 40
0.0
  0
LTYPE
  5
15
330
5
100
AcDbSymbolTableRecord
100
AcDbLinetypeTableRecord
  2
BYLAYER
 70
     0
  3

 72
    65
 73
     0
 40
0.0
  0
LTYPE
  5
16
330
5
100
AcDbSymbolTableRecord
100
AcDbLinetypeTableRecord
  2
CONTINUOUS
 70
     0
  3
Solid line
 72
    65
 73
     0
 40
0.0
  0
LTYPE
  5
BD
330
5
100
AcDbSymbolTableRecord
100
AcDbLinetypeTableRecord
  2
HIDDEN
 70
     0
  3
__ __ __ __ __ __ __ __ __ __ __ __ __ __ __ __
 72
    65
 73
     2
 40
0.375
 49
0.25
 74
     0
 49
-0.125
 74
     0
  0
LTYPE
  5
BF
330
5
100
AcDbSymbolTableRecord
100
AcDbLinetypeTableRecord
  2
PHANTOM2
 70
     0
  3
___ _ _ ___ _ _ ___ _ _ ___ _ _ ___ _ _ ___ _ _
 72
    65
 73
     6
 40
1.25
 49
0.625
 74
     0
 49
-0.125
 74
     0
 49
0.125
 74
     0
 49
-0.125
 74
     0
 49
0.125
 74
     0
 49
-0.125
 74
     0
  0
LTYPE
  5
CA
330
5
100
AcDbSymbolTableRecord
100
AcDbLinetypeTableRecord
  2
CENTER
 70
     0
  3
____ _ ____ _ ____ _ ____ _ ____ _ ____ _ ____ 
 72
    65
 73
     4
 40
2.0
 49
1.25
 74
     0
 49
-0.25
 74
     0
 49
0.25
 74
     0
 49
-0.25
 74
     0
  0
LTYPE
  5
120
330
5
100
AcDbSymbolTableRecord
100
AcDbLinetypeTableRecord
  2
ASULTYPE
 70
     0
  3
Solid line
 72
    65
 73
     2
 40
3.0
 49
2.5
 74
     0
 49
0.5
 74
     0
  0
LTYPE
  5
121
330
5
100
AcDbSymbolTableRecord
100
AcDbLinetypeTableRecord
  2
ASVLTYPE
 70
     0
  3
__ __ __ __ __ __ __ __ __ __ __ __ __ __ __ __ __ __ __ __ __
 72
    65
 73
     2
 40
0.75
 49
0.5
 74
     0
 49
-0.25
 74
     0
  0
LTYPE
  5
149
330
5
100
AcDbSymbolTableRecord
100
AcDbLinetypeTableRecord
  2
ACJISTGB
 70
     0
  3
__ . . __ . .
 72
    65
 73
     6
 40
9.0
 49
4.0
 74
     0
 49
-1.0
 74
     0
 49
1.0
 74
     0
 49
-1.0
 74
     0
 49
1.0
 74
     0
 49
-1.0
 74
     0
  0
LTYPE
  5
14A
330
5
100
AcDbSymbolTableRecord
100
AcDbLinetypeTableRecord
  2
ACJISTGL
 70
     0
  3
_ _ _ _ _
 72
    65
 73
     2
 40
3.0
 49
2.0
 74
     0
 49
-1.0
 74
     0
  0
LTYPE
  5
14D
330
5
100
AcDbSymbolTableRecord
100
AcDbLinetypeTableRecord
  2
ACANSTGB
 70
     0
  3
__ . . __ . .
 72
    65
 73
     6
 40
0.35433070866
 49
0.15748031496
 74
     0
 49
-0.03937007874
 74
     0
 49
0.03937007874
 74
     0
 49
-0.03937007874
 74
     0
 49
0.03937007874
 74
     0
 49
-0.03937007874
 74
     0
  0
LTYPE
  5
14E
330
5
100
AcDbSymbolTableRecord
100
AcDbLinetypeTableRecord
  2
ACANSTGL
 70
     0
  3
_ _ _ _ _
 72
    65
 73
     2
 40
0.11811023622
 49
0.07874015748
 74
     0
 49
-0.03937007874
 74
     0
  0
LTYPE
  5
151
330
5
100
AcDbSymbolTableRecord
100
AcDbLinetypeTableRecord
  2
ACBSWELD
 70
     0
  3
_ _ _ _ _
 72
    65
 73
     2
 40
2.0
 49
2.0
 74
     0
 49
-1.0
 74
     0
  0
LTYPE
  5
152
330
5
100
AcDbSymbolTableRecord
100
AcDbLinetypeTableRecord
  2
ACBSITGB
 70
     0
  3
__ . . __ . .
 72
    65
 73
     6
 40
9.0
 49
4.0
 74
     0
 49
-1.0
 74
     0
 49
1.0
 74
     0
 49
-1.0
 74
     0
 49
1.0
 74
     0
 49
-1.0
 74
     0
  0
LTYPE
  5
153
330
5
100
AcDbSymbolTableRecord
100
AcDbLinetypeTableRecord
  2
ACBSITGL
 70
     0
  3
_ _ _ _ _
 72
    65
 73
     2
 40
3.0
 49
2.0
 74
     0
 49
-1.0
 74
     0
  0
LTYPE
  5
156
330
5
100
AcDbSymbolTableRecord
100
AcDbLinetypeTableRecord
  2
ACDINWELD
 70
     0
  3
_ _ _ _ _
 72
    65
 73
     2
 40
2.0
 49
2.0
 74
     0
 49
-1.0
 74
     0
  0
LTYPE
  5
157
330
5
100
AcDbSymbolTableRecord
100
AcDbLinetypeTableRecord
  2
ACDINTGB
 70
     0
  3
__ . . __ . .
 72
    65
 73
     6
 40
9.0
 49
4.0
 74
     0
 49
-1.0
 74
     0
 49
1.0
 74
     0
 49
-1.0
 74
     0
 49
1.0
 74
     0
 49
-1.0
 74
     0
  0
LTYPE
  5
158
330
5
100
AcDbSymbolTableRecord
100
AcDbLinetypeTableRecord
  2
ACDINTGL
 70
     0
  3
_ _ _ _ _
 72
    65
 73
     2
 40
3.0
 49
2.0
 74
     0
 49
-1.0
 74
     0
  0
LTYPE
  5
15B
330
5
100
AcDbSymbolTableRecord
100
AcDbLinetypeTableRecord
  2
ACISOWELD
 70
     0
  3
_ _ _ _ _
 72
    65
 73
     2
 40
2.0
 49
2.0
 74
     0
 49
-1.0
 74
     0
  0
LTYPE
  5
15C
330
5
100
AcDbSymbolTableRecord
100
AcDbLinetypeTableRecord
  2
ACISOTGB
 70
     0
  3
__ . . __ . .
 72
    65
 73
     6
 40
9.0
 49
4.0
 74
     0
 49
-1.0
 74
     0
 49
1.0
 74
     0
 49
-1.0
 74
     0
 49
1.0
 74
     0
 49
-1.0
 74
     0
  0
LTYPE
  5
15D
330
5
100
AcDbSymbolTableRecord
100
AcDbLinetypeTableRecord
  2
ACISOTGL
 70
     0
  3
_ _ _ _ _
 72
    65
 73
     2
 40
3.0
 49
2.0
 74
     0
 49
-1.0
 74
     0
  0
LTYPE
  5
175
330
5
100
AcDbSymbolTableRecord
100
AcDbLinetypeTableRecord
  2
AM_ISO02W050
 70
     0
  3
__ __ __ __ __ __ __ __ __ __ __ __ __ __ __
 72
    65
 73
     2
 40
7.5
 49
6.0
 74
     0
 49
-1.5
 74
     0
  0
LTYPE
  5
176
330
5
100
AcDbSymbolTableRecord
100
AcDbLinetypeTableRecord
  2
AM_ISO08W050
 70
     0
  3
____ . ____ . ____ . ____ . ____ . ____ . ____
 72
    65
 73
     4
 40
18.0
 49
12.0
 74
     0
 49
-1.5
 74
     0
 49
3.0
 74
     0
 49
-1.5
 74
     0
  0
LTYPE
  5
177
330
5
100
AcDbSymbolTableRecord
100
AcDbLinetypeTableRecord
  2
AM_ISO09W050
 70
     0
  3
_____ . . _____ . . _____ . . ____ .. ____
 72
    65
 73
     6
 40
22.5
 49
12.0
 74
     0
 49
-1.5
 74
     0
 49
3.0
 74
     0
 49
-1.5
 74
     0
 49
3.0
 74
     0
 49
-1.5
 74
     0
  0
LTYPE
  5
178
330
5
100
AcDbSymbolTableRecord
100
AcDbLinetypeTableRecord
  2
AM_ISO02W050x2
 70
     0
  3
 _ _ _ _ _ _ _ _ _ _ _ _
 72
    65
 73
     2
 40
3.75
 49
3.0
 74
     0
 49
-0.75
 74
     0
  0
LTYPE
  5
179
330
5
100
AcDbSymbolTableRecord
100
AcDbLinetypeTableRecord
  2
AM_ISO08W050x2
 70
     0
  3
__ . __ . __ . __ . __ . __
 72
    65
 73
     4
 40
9.0
 49
6.0
 74
     0
 49
-0.75
 74
     0
 49
1.5
 74
     0
 49
-0.75
 74
     0
  0
LTYPE
  5
17C
330
5
100
AcDbSymbolTableRecord
100
AcDbLinetypeTableRecord
  2
amzigzag
 70
     0
  3
/\/-/\/-/\/-/\/-/\/-/\/
 72
    65
 73
     2
 40
11.0001
 49
0.0001
 74
     4
 75
   135
340
17B
 46
0.04
 50
0.0
 44
0.0
 45
0.0
 49
-11.0
 74
     0
  0
LTYPE
  5
1814
330
5
100
AcDbSymbolTableRecord
100
AcDbLinetypeTableRecord
  2
ACANSTGBM
 70
     0
  3
__ . . __ . .
 72
    65
 73
     6
 40
9.0
 49
4.0
 74
     0
 49
-1.0
 74
     0
 49
1.0
 74
     0
 49
-1.0
 74
     0
 49
1.0
 74
     0
 49
-1.0
 74
     0
  0
LTYPE
  5
1815
330
5
100
AcDbSymbolTableRecord
100
AcDbLinetypeTableRecord
  2
ACANSTGLM
 70
     0
  3
_ _ _ _ _
 72
    65
 73
     2
 40
3.0
 49
2.0
 74
     0
 49
-1.0
 74
     0
  0
LTYPE
  5
1995
330
5
100
AcDbSymbolTableRecord
100
AcDbLinetypeTableRecord
  2
GEN7
 70
     0
  3
____ . ____ . ____ . ____ . ___
 72
    65
 73
     4
 40
13.75
 49
9.75
 74
     0
 49
-1.5
 74
     0
 49
1.0
 74
     0
 49
-1.5
 74
     0
  0
LTYPE
  5
1996
330
5
100
AcDbSymbolTableRecord
100
AcDbLinetypeTableRecord
  2
GEN3
 70
     0
  3
-- -- -- -- -- -- -- -- -- -- -
 72
    65
 73
     2
 40
6.25
 49
4.75
 74
     0
 49
-1.5
 74
     0
  0
LTYPE
  5
1997
330
5
100
AcDbSymbolTableRecord
100
AcDbLinetypeTableRecord
  2
GEN3A
 70
     0
  3
 - - - - -
 72
    65
 73
     2
 40
3.125
 49
2.25
 74
     0
 49
-0.875
 74
     0
  0
LTYPE
  5
1998
330
5
100
AcDbSymbolTableRecord
100
AcDbLinetypeTableRecord
  2
GEN4A
 70
     0
  3
_____ . . _____ . . _____ . . _
 72
    65
 73
     6
 40
16.25
 49
9.75
 74
     0
 49
-1.5
 74
     0
 49
1.0
 74
     0
 49
-1.5
 74
     0
 49
1.0
 74
     0
 49
-1.5
 74
     0
  0
LTYPE
  5
1999
330
5
100
AcDbSymbolTableRecord
100
AcDbLinetypeTableRecord
  2
GEN7A
 70
     0
  3
__ . __ . __
 72
    65
 73
     4
 40
6.875
 49
4.75
 74
     0
 49
-0.875
 74
     0
 49
0.375
 74
     0
 49
-0.875
 74
     0
  0
LTYPE
  5
199A
330
5
100
AcDbSymbolTableRecord
100
AcDbLinetypeTableRecord
  2
CONTINU
 70
     0
  3

 72
    65
 73
     0
 40
0.0
  0
LTYPE
  5
199B
330
5
100
AcDbSymbolTableRecord
100
AcDbLinetypeTableRecord
  2
genzigzag
 70
     0
  3
/\/-/\/-/\/-/\/-/\/-/\/
 72
    65
 73
     2
 40
12.0001
 49
0.0001
 74
     4
 75
   135
340
199F
 46
2.0
 50
0.0
 44
0.0
 45
0.0
 49
-12.0
 74
     0
  0
LTYPE
  5
243A
330
5
100
AcDbSymbolTableRecord
100
AcDbLinetypeTableRecord
  2
STRICHPUNKT
 70
     0
  3
__ . __ . __ . __ . __ . __ . __ . __ . __ . __
 72
    65
 73
     4
 40
1.0
 49
0.5
 74
     0
 49
-0.25
 74
     0
 49
0.0
 74
     0
 49
-0.25
 74
     0
  0
LTYPE
  5
243B
330
5
100
AcDbSymbolTableRecord
100
AcDbLinetypeTableRecord
  2
GESTRICHELT
 70
     0
  3
__ __ __ __ __ __ __ __ __ __ __ __ __ __ __
 72
    65
 73
     2
 40
0.75
 49
0.5
 74
     0
 49
-0.25
 74
     0
  0
LTYPE
  5
24B7
330
5
100
AcDbSymbolTableRecord
100
AcDbLinetypeTableRecord
  2
VERDECKT
 70
     0
  3
Verdeckt __ __ __ __ __ __ __ __ __ __ __ __ __
 72
    65
 73
     2
 40
9.524999999999998
 49
6.349999999999999
 74
     0
 49
-3.174999999999999
 74
     0
  0
LTYPE
  5
24B8
330
5
100
AcDbSymbolTableRecord
100
AcDbLinetypeTableRecord
  2
MITTE
 70
     0
  3
Mitte ____ _ ____ _ ____ _ ____ _ ____ _ ____
 72
    65
 73
     4
 40
50.8
 49
31.75
 74
     0
 49
-6.349999999999999
 74
     0
 49
6.349999999999999
 74
     0
 49
-6.349999999999999
 74
     0
  0
ENDTAB
  0
TABLE
  2
LAYER
  5
2
330
0
100
AcDbSymbolTable
 70
    36
  0
LAYER
  5
F
330
2
100
AcDbSymbolTableRecord
100
AcDbLayerTableRecord
  2
0
 70
     0
 62
     7
  6
CONTINUOUS
370
    -3
390
166
347
2D14
  0
LAYER
  5
35A
330
2
100
AcDbSymbolTableRecord
100
AcDbLayerTableRecord
  2
AM_0
 70
     0
 62
     7
  6
CONTINUOUS
370
    50
390
166
347
2D14
  0
LAYER
  5
35B
330
2
100
AcDbSymbolTableRecord
100
AcDbLayerTableRecord
  2
AM_1
 70
     0
 62
     4
  6
CONTINUOUS
370
    25
390
166
347
2D14
  0
LAYER
  5
35C
330
2
100
AcDbSymbolTableRecord
100
AcDbLayerTableRecord
  2
AM_2
 70
     0
 62
     5
  6
CONTINUOUS
370
    50
390
166
347
2D14
  0
LAYER
  5
35D
330
2
100
AcDbSymbolTableRecord
100
AcDbLayerTableRecord
  2
AM_3
 70
     0
 62
     6
  6
AM_ISO02W050
370
    25
390
166
347
2D14
  0
LAYER
  5
35E
330
2
100
AcDbSymbolTableRecord
100
AcDbLayerTableRecord
  2
AM_4
 70
     0
 62
     3
  6
CONTINUOUS
370
    25
390
166
347
2D14
  0
LAYER
  5
35F
330
2
100
AcDbSymbolTableRecord
100
AcDbLayerTableRecord
  2
AM_5
 70
     0
 62
     3
  6
CONTINUOUS
370
    25
390
166
347
2D14
  0
LAYER
  5
360
330
2
100
AcDbSymbolTableRecord
100
AcDbLayerTableRecord
  2
AM_6
 70
     0
 62
     2
  6
CONTINUOUS
370
    35
390
166
347
2D14
  0
LAYER
  5
361
330
2
100
AcDbSymbolTableRecord
100
AcDbLayerTableRecord
  2
AM_7
 70
     0
 62
     1
  6
AM_ISO08W050
370
    25
390
166
347
2D14
  0
LAYER
  5
362
330
2
100
AcDbSymbolTableRecord
100
AcDbLayerTableRecord
  2
AM_8
 70
     0
 62
     1
  6
CONTINUOUS
370
    25
390
166
347
2D14
  0
LAYER
  5
38E
330
2
100
AcDbSymbolTableRecord
100
AcDbLayerTableRecord
  2
AM_FR
 70
     5
 62
     7
  6
CONTINUOUS
370
    -3
390
166
347
2D14
  0
LAYER
  5
3F7
330
2
100
AcDbSymbolTableRecord
100
AcDbLayerTableRecord
  2
ASHADE
 70
     4
 62
     7
  6
CONTINUOUS
370
    -3
390
166
347
2D14
  0
LAYER
  5
5FC
330
2
100
AcDbSymbolTableRecord
100
AcDbLayerTableRecord
  2
AM_WORK
 70
     0
 62
     7
  6
CONTINUOUS
370
    -3
390
166
347
2D14
  0
LAYER
  5
614
330
2
100
AcDbSymbolTableRecord
100
AcDbLayerTableRecord
  2
AM_CL
 70
     0
 62
     1
  6
CONTINUOUS
370
    25
390
166
347
2D14
  0
LAYER
  5
643
330
2
100
AcDbSymbolTableRecord
100
AcDbLayerTableRecord
  2
Defpoints
 70
     0
 62
     7
  6
CONTINUOUS
290
     0
370
    -3
390
166
347
2D14
  0
LAYER
  5
79B
330
2
100
AcDbSymbolTableRecord
100
AcDbLayerTableRecord
  2
ASRF_TMP
 70
     0
 62
     7
  6
CONTINUOUS
370
    -3
390
166
347
2D14
  0
LAYER
  5
1054
330
2
100
AcDbSymbolTableRecord
100
AcDbLayerTableRecord
  2
AM_VIEWS
 70
     1
 62
    -1
  6
CONTINUOUS
290
     0
370
    25
390
166
347
2D14
  0
LAYER
  5
106E
330
2
100
AcDbSymbolTableRecord
100
AcDbLayerTableRecord
  2
AM_VIS
 70
     2
 62
     7
  6
CONTINUOUS
370
    50
390
166
347
2D14
  0
LAYER
  5
106F
330
2
100
AcDbSymbolTableRecord
100
AcDbLayerTableRecord
  2
AM_HID
 70
     2
 62
     6
  6
AM_ISO02W050
370
    25
390
166
347
2D14
  0
LAYER
  5
108B
330
2
100
AcDbSymbolTableRecord
100
AcDbLayerTableRecord
  2
AM_PARDIM
 70
     0
 62
     3
  6
CONTINUOUS
370
    25
390
166
347
2D14
  0
LAYER
  5
1969
330
2
100
AcDbSymbolTableRecord
100
AcDbLayerTableRecord
  2
AmdtBRLock
 70
     6
 62
     7
  6
CONTINUOUS
370
    -3
390
166
347
2D14
  0
LAYER
  5
199C
330
2
100
AcDbSymbolTableRecord
100
AcDbLayerTableRecord
  2
1
 70
     0
 62
     4
  6
CONTINUOUS
370
    -3
390
166
347
2D14
  0
LAYER
  5
199D
330
2
100
AcDbSymbolTableRecord
100
AcDbLayerTableRecord
  2
7
 70
     0
 62
     1
  6
GEN7
370
    -3
390
166
347
2D14
  0
LAYER
  5
243C
330
2
100
AcDbSymbolTableRecord
100
AcDbLayerTableRecord
  2
RAND
 70
     0
 62
     1
  6
CONTINUOUS
370
    -3
390
166
347
2D14
  0
LAYER
  5
243D
330
2
100
AcDbSymbolTableRecord
100
AcDbLayerTableRecord
  2
KLIN
 70
     0
 62
     1
  6
CONTINUOUS
370
    -3
390
166
347
2D14
  0
LAYER
  5
243E
330
2
100
AcDbSymbolTableRecord
100
AcDbLayerTableRecord
  2
5
 70
     0
 62
     3
  6
CONTINUOUS
370
    -3
390
166
347
2D14
  0
LAYER
  5
24B9
330
2
100
AcDbSymbolTableRecord
100
AcDbLayerTableRecord
  2
RAHM2
 70
     0
 62
     1
  6
CONTINUOUS
370
    -3
390
166
347
2D14
  0
LAYER
  5
24BA
330
2
100
AcDbSymbolTableRecord
100
AcDbLayerTableRecord
  2
RAHM3
 70
     0
 62
     2
  6
CONTINUOUS
370
    -3
390
166
347
2D14
  0
LAYER
  5
24BB
330
2
100
AcDbSymbolTableRecord
100
AcDbLayerTableRecord
  2
RAHM5
 70
     0
 62
     7
  6
CONTINUOUS
370
    -3
390
166
347
2D14
  0
LAYER
  5
24BC
330
2
100
AcDbSymbolTableRecord
100
AcDbLayerTableRecord
  2
KOPF
 70
     0
 62
     7
  6
CONTINUOUS
370
    -3
390
166
347
2D14
  0
LAYER
  5
24BD
330
2
100
AcDbSymbolTableRecord
100
AcDbLayerTableRecord
  2
AM_TR
 70
     0
 62
     3
  6
CONTINUOUS
370
    25
390
166
347
2D14
  0
LAYER
  5
24BE
330
2
100
AcDbSymbolTableRecord
100
AcDbLayerTableRecord
  2
AM_BM
 70
     0
 62
     7
  6
CONTINUOUS
370
    -3
390
166
347
2D14
  0
LAYER
  5
24BF
330
2
100
AcDbSymbolTableRecord
100
AcDbLayerTableRecord
  2
AM_BL
 70
     0
 62
     7
  6
CONTINUOUS
370
    -3
390
166
347
2D14
  0
LAYER
  5
24C0
330
2
100
AcDbSymbolTableRecord
100
AcDbLayerTableRecord
  2
AM_REFDIM
 70
     0
 62
     1
  6
CONTINUOUS
370
    25
390
166
347
2D14
  0
LAYER
  5
24C1
330
2
100
AcDbSymbolTableRecord
100
AcDbLayerTableRecord
  2
AM_SUPPR
 70
     0
 62
     6
  6
CONTINUOUS
370
    -3
390
166
347
2D14
  0
LAYER
  5
24C2
330
2
100
AcDbSymbolTableRecord
100
AcDbLayerTableRecord
  2
VIEW
 70
     0
 62
     1
  6
CONTINUOUS
370
     0
390
166
347
2D14
  0
ENDTAB
  0
TABLE
  2
STYLE
  5
3
330
0
100
AcDbSymbolTable
 70
    16
  0
STYLE
  5
10
330
3
100
AcDbSymbolTableRecord
100
AcDbTextStyleTableRecord
  2
STANDARD
 70
     0
 40
0.0
 41
1.0
 50
0.0
 71
     0
 42
3.5
  3
ISOCP
  4

  0
STYLE
  5
147
330
3
100
AcDbSymbolTableRecord
100
AcDbTextStyleTableRecord
  2
ACJISTS
 70
     0
 40
1.0
 41
1.0
 50
0.0
 71
     0
 42
3.5
  3
isocp.shx
  4
bigfont.shx
  0
STYLE
  5
148
330
3
100
AcDbSymbolTableRecord
100
AcDbTextStyleTableRecord
  2
ACJISGDT
 70
     0
 40
0.0
 41
1.0
 50
0.0
 71
     0
 42
3.5
  3
amgdt.shx
  4

  0
STYLE
  5
14B
330
3
100
AcDbSymbolTableRecord
100
AcDbTextStyleTableRecord
  2
ACANSTSI
 70
     0
 40
1.0
 41
1.0
 50
0.0
 71
     0
 42
3.5
  3
romans.shx
  4

  0
STYLE
  5
14C
330
3
100
AcDbSymbolTableRecord
100
AcDbTextStyleTableRecord
  2
ACANSGDT
 70
     0
 40
0.0
 41
1.0
 50
0.0
 71
     0
 42
3.5
  3
amgdt.shx
  4

  0
STYLE
  5
14F
330
3
100
AcDbSymbolTableRecord
100
AcDbTextStyleTableRecord
  2
ACBSITS
 70
     0
 40
1.0
 41
1.0
 50
0.0
 71
     0
 42
3.5
  3
isocp.shx
  4

  0
STYLE
  5
150
330
3
100
AcDbSymbolTableRecord
100
AcDbTextStyleTableRecord
  2
ACBSIGDT
 70
     0
 40
0.0
 41
1.0
 50
0.0
 71
     0
 42
3.5
  3
amgdt.shx
  4

  0
STYLE
  5
154
330
3
100
AcDbSymbolTableRecord
100
AcDbTextStyleTableRecord
  2
ACDINTS
 70
     0
 40
1.0
 41
1.0
 50
0.0
 71
     0
 42
3.5
  3
isocp.shx
  4

  0
STYLE
  5
155
330
3
100
AcDbSymbolTableRecord
100
AcDbTextStyleTableRecord
  2
ACDINGDT
 70
     0
 40
0.0
 41
1.0
 50
0.0
 71
     0
 42
3.5
  3
amgdt.shx
  4

  0
STYLE
  5
159
330
3
100
AcDbSymbolTableRecord
100
AcDbTextStyleTableRecord
  2
ACISOTS
 70
     0
 40
1.0
 41
1.0
 50
0.0
 71
     0
 42
3.5
  3
isocp.shx
  4

  0
STYLE
  5
15A
330
3
100
AcDbSymbolTableRecord
100
AcDbTextStyleTableRecord
  2
ACISOGDT
 70
     0
 40
0.0
 41
1.0
 50
0.0
 71
     0
 42
3.5
  3
amgdt.shx
  4

  0
STYLE
  5
17B
330
3
100
AcDbSymbolTableRecord
100
AcDbTextStyleTableRecord
  2

 70
     1
 40
0.0
 41
1.0
 50
0.0
 71
     0
 42
3.5
  3
ltypeshp.shx
  4

  0
STYLE
  5
3F4
330
3
100
AcDbSymbolTableRecord
100
AcDbTextStyleTableRecord
  2
ASHADE
 70
     0
 40
0.2
 41
1.0
 50
0.0
 71
     0
 42
3.5
  3
simplex.shx
  4

  0
STYLE
  5
199E
330
3
100
AcDbSymbolTableRecord
100
AcDbTextStyleTableRecord
  2
ACANSTS
 70
     0
 40
1.0
 41
1.0
 50
0.0
 71
     0
 42
2.5
  3
romans.shx
  4

  0
STYLE
  5
199F
330
3
100
AcDbSymbolTableRecord
100
AcDbTextStyleTableRecord
  2

 70
     1
 40
0.0
 41
1.0
 50
0.0
 71
     0
 42
2.5
  3
genltshp.shx
  4

  0
STYLE
  5
243F
330
3
100
AcDbSymbolTableRecord
100
AcDbTextStyleTableRecord
  2
VSM
 70
     0
 40
0.0
 41
1.0
 50
0.0
 71
     0
 42
156.5881726306359
  3
ISOCP.SHX
  4

  0
ENDTAB
  0
TABLE
  2
VIEW
  5
6
330
0
100
AcDbSymbolTable
 70
     9
  0
VIEW
  5
1C8
330
6
100
AcDbSymbolTableRecord
100
AcDbViewTableRecord
  2
AMDTVIEW1
 70
     0
 40
329.0721649484536
 10
210.0
 20
164.5360824742268
 41
420.0
 11
0.0
 21
0.0
 31
1.0
 12
0.0
 22
0.0
 32
0.0
 42
50.0
 43
0.0
 44
0.0
 50
0.0
 71
     0
281
     0
 72
     0
 73
     0
348
2D1B
  0
VIEW
  5
1C9
330
6
100
AcDbSymbolTableRecord
100
AcDbViewTableRecord
  2
AMDTVIEW2
 70
     0
 40
329.0721649484536
 10
210.0
 20
164.5360824742268
 41
420.0
 11
0.0
 21
0.0
 31
1.0
 12
0.0
 22
0.0
 32
0.0
 42
50.0
 43
0.0
 44
0.0
 50
0.0
 71
     0
281
     0
 72
     0
 73
     0
348
2D1B
  0
VIEW
  5
1CA
330
6
100
AcDbSymbolTableRecord
100
AcDbViewTableRecord
  2
AMDTVIEW3
 70
     0
 40
329.0721649484536
 10
210.0
 20
164.5360824742268
 41
420.0
 11
0.0
 21
0.0
 31
1.0
 12
0.0
 22
0.0
 32
0.0
 42
50.0
 43
0.0
 44
0.0
 50
0.0
 71
     0
281
     0
 72
     0
 73
     0
348
2D1B
  0
VIEW
  5
2548
330
6
100
AcDbSymbolTableRecord
100
AcDbViewTableRecord
  2
AM_VIEW1
 70
     0
 40
283.0
 10
-238.6807267809108
 20
50.94018318178109
 41
344.3521303258145
 11
0.0
 21
0.0
 31
1.0
 12
225.0419189867749
 22
164.8409058003548
 32
0.0
 42
50.0
 43
0.0
 44
0.0
 50
0.0
 71
     0
281
     0
 72
     0
 73
     0
348
2D1B
  0
VIEW
  5
2549
330
6
100
AcDbSymbolTableRecord
100
AcDbViewTableRecord
  2
AM_VIEW2
 70
     0
 40
283.0
 10
-215.0328571067252
 20
50.94018318178109
 41
344.3521303258145
 11
0.0
 21
0.0
 31
1.0
 12
225.0419189867749
 22
164.8409058003548
 32
0.0
 42
50.0
 43
0.0
 44
0.0
 50
0.0
 71
     0
281
     0
 72
     0
 73
     0
348
2D1B
  0
VIEW
  5
254A
330
6
100
AcDbSymbolTableRecord
100
AcDbViewTableRecord
  2
AM_VIEW3
 70
     0
 40
283.0
 10
-238.6807267809108
 20
-232.0598168182189
 41
344.3521303258145
 11
0.0
 21
0.0
 31
1.0
 12
225.0419189867749
 22
164.8409058003548
 32
0.0
 42
50.0
 43
0.0
 44
0.0
 50
0.0
 71
     0
281
     0
 72
     0
 73
     0
348
2D1B
  0
VIEW
  5
254B
330
6
100
AcDbSymbolTableRecord
100
AcDbViewTableRecord
  2
AM_VIEW4
 70
     0
 40
283.0
 10
-215.0328571067252
 20
-232.0598168182189
 41
344.3521303258145
 11
0.0
 21
0.0
 31
1.0
 12
225.0419189867749
 22
164.8409058003548
 32
0.0
 42
50.0
 43
0.0
 44
0.0
 50
0.0
 71
     0
281
     0
 72
     0
 73
     0
348
2D1B
  0
VIEW
  5
254C
330
6
100
AcDbSymbolTableRecord
100
AcDbViewTableRecord
  2
AM_VIEW5
 70
     0
 40
283.0
 10
-226.856791943818
 20
-90.5598168182189
 41
344.3521303258145
 11
0.0
 21
0.0
 31
1.0
 12
225.0419189867749
 22
164.8409058003548
 32
0.0
 42
50.0
 43
0.0
 44
0.0
 50
0.0
 71
     0
281
     0
 72
     0
 73
     0
348
2D1B
  0
VIEW
  5
254D
330
6
100
AcDbSymbolTableRecord
100
AcDbViewTableRecord
  2
AM_VIEW6
 70
     0
 40
565.9943400000001
 10
-226.856791943818
 20
-90.5598168182189
 41
688.6973736090225
 11
0.0
 21
0.0
 31
1.0
 12
225.0419189867749
 22
164.8409058003548
 32
0.0
 42
50.0
 43
0.0
 44
0.0
 50
0.0
 71
     0
281
     0
 72
     0
 73
     0
348
2D1B
  0
ENDTAB
  0
TABLE
  2
UCS
  5
7
330
0
100
AcDbSymbolTable
 70
     0
  0
ENDTAB
  0
TABLE
  2
APPID
  5
9
330
0
100
AcDbSymbolTable
 70
    47
  0
APPID
  5
11
330
9
100
AcDbSymbolTableRecord
100
AcDbRegAppTableRecord
  2
ACAD
 70
     0
  0
APPID
  5
CD
330
9
100
AcDbSymbolTableRecord
100
AcDbRegAppTableRecord
  2
AD_DRAW
 70
     0
  0
APPID
  5
E7
330
9
100
AcDbSymbolTableRecord
100
AcDbRegAppTableRecord
  2
DESIGNERASSEMBLIES
 70
     0
  0
APPID
  5
EB
330
9
100
AcDbSymbolTableRecord
100
AcDbRegAppTableRecord
  2
MCAD_NO_VIS
 70
     0
  0
APPID
  5
122
330
9
100
AcDbSymbolTableRecord
100
AcDbRegAppTableRecord
  2
ASURF_PCURVE_APPNAME
 70
     0
  0
APPID
  5
17F
330
9
100
AcDbSymbolTableRecord
100
AcDbRegAppTableRecord
  2
ACAD_TEMP_GRAPHIC
 70
     0
  0
APPID
  5
189
330
9
100
AcDbSymbolTableRecord
100
AcDbRegAppTableRecord
  2
ACATTRIBSERVICES
 70
     0
  0
APPID
  5
1C4
330
9
100
AcDbSymbolTableRecord
100
AcDbRegAppTableRecord
  2
ACADM_DIM_EDIT
 70
     0
  0
APPID
  5
1D5
330
9
100
AcDbSymbolTableRecord
100
AcDbRegAppTableRecord
  2
GENIUS_GENDIM_13
 70
     0
  0
APPID
  5
1D6
330
9
100
AcDbSymbolTableRecord
100
AcDbRegAppTableRecord
  2
GENIUS_GENDTOL_13
 70
     0
  0
APPID
  5
1D7
330
9
100
AcDbSymbolTableRecord
100
AcDbRegAppTableRecord
  2
GENIUS_GE3DTOL_13
 70
     0
  0
APPID
  5
3F5
330
9
100
AcDbSymbolTableRecord
100
AcDbRegAppTableRecord
  2
AVE_RENDER
 70
     0
  0
APPID
  5
3F6
330
9
100
AcDbSymbolTableRecord
100
AcDbRegAppTableRecord
  2
AVE_ENTITY_MATERIAL
 70
     0
  0
APPID
  5
403
330
9
100
AcDbSymbolTableRecord
100
AcDbRegAppTableRecord
  2
AVE_FINISH
 70
     0
  0
APPID
  5
404
330
9
100
AcDbSymbolTableRecord
100
AcDbRegAppTableRecord
  2
AVE_MATERIAL
 70
     0
  0
APPID
  5
405
330
9
100
AcDbSymbolTableRecord
100
AcDbRegAppTableRecord
  2
AVE_GLOBAL
 70
     0
  0
APPID
  5
587
330
9
100
AcDbSymbolTableRecord
100
AcDbRegAppTableRecord
  2
GENIUS_GENREC_14
 70
     0
  0
APPID
  5
588
330
9
100
AcDbSymbolTableRecord
100
AcDbRegAppTableRecord
  2
GENIUS_GENODEF_13
 70
     0
  0
APPID
  5
589
330
9
100
AcDbSymbolTableRecord
100
AcDbRegAppTableRecord
  2
GENIUS_GENOBJ-N-REC_13
 70
     0
  0
APPID
  5
5F8
330
9
100
AcDbSymbolTableRecord
100
AcDbRegAppTableRecord
  2
GENIUS_GENOBJ-3-SH3D_13
 70
     0
  0
APPID
  5
651
330
9
100
AcDbSymbolTableRecord
100
AcDbRegAppTableRecord
  2
AD_SKETCHDIM
 70
     0
  0
APPID
  5
76F
330
9
100
AcDbSymbolTableRecord
100
AcDbRegAppTableRecord
  2
AM_EDITFEAT
 70
     0
  0
APPID
  5
799
330
9
100
AcDbSymbolTableRecord
100
AcDbRegAppTableRecord
  2
GENIUS_GE3SH_14_1
 70
     0
  0
APPID
  5
79A
330
9
100
AcDbSymbolTableRecord
100
AcDbRegAppTableRecord
  2
GENIUS_GE3MANIP_13
 70
     0
  0
APPID
  5
1066
330
9
100
AcDbSymbolTableRecord
100
AcDbRegAppTableRecord
  2
GENIUS_GENSCREG_15
 70
     0
  0
APPID
  5
1068
330
9
100
AcDbSymbolTableRecord
100
AcDbRegAppTableRecord
  2
GENIUS_GENOBJ-N-SDF_13
 70
     0
  0
APPID
  5
1069
330
9
100
AcDbSymbolTableRecord
100
AcDbRegAppTableRecord
  2
GENIUS_GENOENT_13
 70
     0
  0
APPID
  5
106A
330
9
100
AcDbSymbolTableRecord
100
AcDbRegAppTableRecord
  2
GENIUS_GENOREF_13
 70
     0
  0
APPID
  5
106B
330
9
100
AcDbSymbolTableRecord
100
AcDbRegAppTableRecord
  2
GENIUS_GENOLIS_13
 70
     0
  0
APPID
  5
1348
330
9
100
AcDbSymbolTableRecord
100
AcDbRegAppTableRecord
  2
GENIUS_GENDIMSH_14
 70
     0
  0
APPID
  5
17FE
330
9
100
AcDbSymbolTableRecord
100
AcDbRegAppTableRecord
  2
AMG_3D2D_5.0
 70
     0
  0
APPID
  5
1855
330
9
100
AcDbSymbolTableRecord
100
AcDbRegAppTableRecord
  2
AMDT_DM_ADJ
 70
     0
  0
APPID
  5
1AE9
330
9
100
AcDbSymbolTableRecord
100
AcDbRegAppTableRecord
  2
GENIUS_AMGTXT_16
 70
     0
  0
APPID
  5
2441
330
9
100
AcDbSymbolTableRecord
100
AcDbRegAppTableRecord
  2
GENIUS_GENCFG_13
 70
     0
  0
APPID
  5
2442
330
9
100
AcDbSymbolTableRecord
100
AcDbRegAppTableRecord
  2
GENIUS_GENCFG0_13
 70
     0
  0
APPID
  5
2443
330
9
100
AcDbSymbolTableRecord
100
AcDbRegAppTableRecord
  2
GENIUS_GENCFG1_13
 70
     0
  0
APPID
  5
2444
330
9
100
AcDbSymbolTableRecord
100
AcDbRegAppTableRecord
  2
GENIUS_GENCFG2_13
 70
     0
  0
APPID
  5
2445
330
9
100
AcDbSymbolTableRecord
100
AcDbRegAppTableRecord
  2
GENIUS_GENCFG3_13
 70
     0
  0
APPID
  5
2446
330
9
100
AcDbSymbolTableRecord
100
AcDbRegAppTableRecord
  2
GENIUS_GENCFG4_13
 70
     0
  0
APPID
  5
2447
330
9
100
AcDbSymbolTableRecord
100
AcDbRegAppTableRecord
  2
GENIUS_GEVCFG0_13
 70
     0
  0
APPID
  5
24C9
330
9
100
AcDbSymbolTableRecord
100
AcDbRegAppTableRecord
  2
GENIUS_GENTRA_14
 70
     0
  0
APPID
  5
24CA
330
9
100
AcDbSymbolTableRecord
100
AcDbRegAppTableRecord
  2
GENIUS_GENOBJ-N-CRS_13
 70
     0
  0
APPID
  5
24CB
330
9
100
AcDbSymbolTableRecord
100
AcDbRegAppTableRecord
  2
GENIUS_GENOBJ-N-HTC_13
 70
     0
  0
APPID
  5
24CC
330
9
100
AcDbSymbolTableRecord
100
AcDbRegAppTableRecord
  2
GENIUS_GENHATCH_13
 70
     0
  0
APPID
  5
24CD
330
9
100
AcDbSymbolTableRecord
100
AcDbRegAppTableRecord
  2
GENIUS_GE3CFG0_13
 70
     0
  0
APPID
  5
2546
330
9
100
AcDbSymbolTableRecord
100
AcDbRegAppTableRecord
  2
GENIUS_GENOBJ-N-TIT_13
 70
     0
  0
APPID
  5
2547
330
9
100
AcDbSymbolTableRecord
100
AcDbRegAppTableRecord
  2
GENIUS_GENTITLE_13
 70
     0
  0
ENDTAB
  0
TABLE
  2
DIMSTYLE
  5
A
330
0
100
AcDbSymbolTable
 70
    52
100
AcDbDimStyleTable
 71
     6
340
395
340
25
340
62
340
2A
340
29
340
28
  0
DIMSTYLE
105
1D
330
A
100
AcDbSymbolTableRecord
100
AcDbDimStyleTableRecord
  2
STANDARD
 70
     0
 41
2.5
 42
0.625
 43
3.75
 44
1.25
 73
     0
 74
     0
 77
     1
 78
     8
140
2.5
141
2.5
143
0.0394
147
0.625
171
     4
172
     1
273
     8
274
     4
277
     6
340
10
  0
DIMSTYLE
105
25
330
A
100
AcDbSymbolTableRecord
100
AcDbDimStyleTableRecord
  2
ISO-35
 70
     0
 41
3.5
 42
0.875
 43
5.25
 44
1.75
 73
     0
 74
     0
 77
     1
 78
     8
140
3.5
141
3.5
143
0.0394
147
0.875
171
     4
172
     1
273
     8
274
     4
277
     6
340
10
  0
DIMSTYLE
105
26
330
A
100
AcDbSymbolTableRecord
100
AcDbDimStyleTableRecord
  2
ISO-5
 70
     0
 41
5.0
 42
1.25
 43
7.5
 44
2.5
 73
     0
 74
     0
 77
     1
 78
     8
140
5.0
141
5.0
143
0.0394
147
1.25
171
     4
172
     1
273
     8
274
     4
277
     6
340
10
  0
DIMSTYLE
105
27
330
A
100
AcDbSymbolTableRecord
100
AcDbDimStyleTableRecord
  2
ISO-7
 70
     0
 41
7.0
 42
1.75
 43
10.5
 44
3.5
 73
     0
 74
     0
 77
     1
 78
     8
140
7.0
141
7.0
143
0.0394
147
1.75
171
     4
172
     1
273
     8
274
     4
277
     6
340
10
  0
DIMSTYLE
105
28
330
A
100
AcDbSymbolTableRecord
100
AcDbDimStyleTableRecord
  2
ISO1
 70
     0
 41
10.0
 42
2.5
 43
15.0
 44
5.0
 73
     0
 74
     0
 77
     1
 78
     8
140
10.0
141
10.0
143
0.0394
147
2.5
171
     4
172
     1
273
     8
274
     4
277
     6
340
10
  0
DIMSTYLE
105
29
330
A
100
AcDbSymbolTableRecord
100
AcDbDimStyleTableRecord
  2
ISO1-4
 70
     0
 41
14.0
 42
3.5
 43
21.0
 44
7.0
 74
     0
 77
     1
 78
     8
140
14.0
141
14.0
143
0.0394
145
5.599999999999999
147
3.5
172
     1
273
     8
277
     6
340
10
  0
DIMSTYLE
105
2A
330
A
100
AcDbSymbolTableRecord
100
AcDbDimStyleTableRecord
  2
ISO2
 70
     0
 41
20.0
 42
5.0
 43
30.0
 44
10.0
 73
     0
 74
     0
 77
     1
 78
     8
140
20.0
141
20.0
143
0.0394
147
5.0
171
     4
172
     1
273
     8
274
     4
277
     6
340
10
  0
DIMSTYLE
105
60
330
A
100
AcDbSymbolTableRecord
100
AcDbDimStyleTableRecord
  2
ISO-4
 70
     0
 41
14.0
 42
3.5
 43
21.0
 44
7.0
 73
     0
 74
     0
 77
     1
 78
     8
140
14.0
141
14.0
143
0.0394
147
3.5
171
     4
172
     1
273
     8
274
     4
277
     6
340
10
  0
DIMSTYLE
105
62
330
A
100
AcDbSymbolTableRecord
100
AcDbDimStyleTableRecord
  2
ISO-25
 70
     0
 41
2.5
 42
0.625
 43
3.75
 44
1.25
 73
     0
 74
     0
 77
     1
 78
     8
140
2.5
141
2.5
143
0.0394
147
0.625
171
     4
172
     1
273
     8
274
     4
277
     6
340
10
  0
DIMSTYLE
105
395
102
{ACAD_REACTORS
330
2BC1
330
2BE5
330
2C09
330
2C3A
330
2C57
330
2CA1
330
2CF6
102
}
330
A
100
AcDbSymbolTableRecord
100
AcDbDimStyleTableRecord
  2
AM_ISO
 70
     0
  4
"
 41
2.5
 42
0.0
 43
10.0
 44
1.0
 47
0.1
 48
0.1
 73
     0
 74
     0
 77
     1
 78
     8
 79
     2
140
3.5
141
0.0
143
0.0393701
146
0.71
147
1.5
172
     1
176
   256
177
   256
178
     2
271
     2
272
     2
283
     0
340
10
371
    -1
372
    -1
  0
DIMSTYLE
105
396
330
A
100
AcDbSymbolTableRecord
100
AcDbDimStyleTableRecord
  2
AM_ISO$3
 70
     0
  4
"
 41
2.5
 42
1.0
 43
10.0
 44
1.0
 47
0.1
 48
0.1
 73
     0
 77
     1
 78
     8
 79
     2
140
3.5
141
0.0
143
0.0393701
146
0.71
147
1.5
176
   256
177
   256
178
     2
271
     2
272
     2
283
     0
288
     1
289
     0
340
10
371
    -1
372
    -1
  0
DIMSTYLE
105
397
330
A
100
AcDbSymbolTableRecord
100
AcDbDimStyleTableRecord
  2
AM_ISO$4
 70
     0
  4
"
 41
2.5
 42
1.0
 43
10.0
 44
1.0
 47
0.1
 48
0.1
 73
     0
 77
     1
 78
     8
 79
     2
140
3.5
141
0.0
143
0.0393701
146
0.71
147
1.5
176
   256
177
   256
178
     2
271
     2
272
     2
283
     0
288
     1
289
     0
340
10
371
    -1
372
    -1
  0
DIMSTYLE
105
398
330
A
100
AcDbSymbolTableRecord
100
AcDbDimStyleTableRecord
  2
AM_ISO$6
 70
     0
  4
"
 41
2.5
 42
1.0
 43
10.0
 44
1.0
 47
0.1
 48
0.1
 73
     0
 74
     0
 78
     8
 79
     2
140
3.5
141
0.0
143
0.0393701
146
0.71
147
1.5
172
     1
176
   256
177
   256
178
     2
271
     2
272
     3
274
     4
283
     0
340
10
371
    -1
372
    -1
  0
DIMSTYLE
105
399
330
A
100
AcDbSymbolTableRecord
100
AcDbDimStyleTableRecord
  2
AM_ISO$7
 70
     0
  4
"
 41
2.5
 42
1.0
 43
10.0
 44
1.0
 47
0.1
 48
0.1
 73
     0
 74
     0
 77
     1
 78
     8
 79
     2
140
5.0
141
0.0
143
0.0393701
146
0.71
147
1.5
172
     1
176
   256
177
   256
178
     2
271
     2
272
     3
274
     4
283
     0
340
10
371
    -1
372
    -1
  0
DIMSTYLE
105
39A
330
A
100
AcDbSymbolTableRecord
100
AcDbDimStyleTableRecord
  2
AM_ISO$SF
 70
     0
  4
"
 41
2.5
 42
1.0
 43
10.0
 44
1.0
 47
0.1
 48
0.1
 73
     0
 74
     0
 75
     1
 76
     1
 77
     1
 78
     8
 79
     2
140
3.5
141
0.0
143
0.0393701
146
0.71
147
1.5
172
     1
176
   256
177
   256
178
     2
271
     2
272
     3
274
     4
283
     0
340
10
371
    -1
372
    -1
  0
DIMSTYLE
105
39F
330
A
100
AcDbSymbolTableRecord
100
AcDbDimStyleTableRecord
  2
AM_ISO$SH
 70
     0
  4
"
 41
2.5
 42
1.0
 43
10.0
 44
1.0
 47
0.1
 48
0.1
 73
     0
 74
     0
 75
     1
 76
     1
 77
     1
 78
     8
 79
     2
140
3.5
141
0.0
143
0.0393701
144
2.0
146
0.71
147
1.5
172
     1
173
     1
176
   256
177
   256
178
     2
271
     2
272
     3
274
     4
283
     0
340
10
343
39B
371
    -1
372
    -1
  0
DIMSTYLE
105
1832
330
A
100
AcDbSymbolTableRecord
100
AcDbDimStyleTableRecord
  2
AM_BSI
 70
     0
  4
"
 41
4.0
 42
1.0
 43
10.0
 44
1.0
 47
0.1
 48
0.1
 73
     0
 74
     0
 77
     1
 78
     8
 79
     2
140
3.5
141
0.0
143
0.0393701
146
0.71
147
1.5
172
     1
176
   256
177
   256
178
     2
271
     2
272
     3
274
     4
283
     0
284
     8
340
10
371
    -1
372
    -1
  0
DIMSTYLE
105
1833
330
A
100
AcDbSymbolTableRecord
100
AcDbDimStyleTableRecord
  2
AM_BSI$3
 70
     0
  4
"
 41
4.0
 42
1.0
 43
10.0
 44
1.0
 47
0.1
 48
0.1
 73
     0
 77
     1
 78
     8
 79
     2
140
3.5
141
0.0
143
0.0393701
146
0.71
147
1.5
176
   256
177
   256
178
     2
271
     2
272
     3
274
     4
283
     0
284
     8
288
     1
289
     0
340
10
371
    -1
372
    -1
  0
DIMSTYLE
105
1834
330
A
100
AcDbSymbolTableRecord
100
AcDbDimStyleTableRecord
  2
AM_BSI$4
 70
     0
  4
"
 41
4.0
 42
1.0
 43
10.0
 44
1.0
 47
0.1
 48
0.1
 73
     0
 77
     1
 78
     8
 79
     2
140
3.5
141
0.0
143
0.0393701
146
0.71
147
1.5
176
   256
177
   256
178
     2
271
     2
272
     3
274
     4
283
     0
284
     8
288
     1
289
     0
340
10
371
    -1
372
    -1
  0
DIMSTYLE
105
1835
330
A
100
AcDbSymbolTableRecord
100
AcDbDimStyleTableRecord
  2
AM_BSI$6
 70
     0
  4
"
 41
4.0
 42
1.0
 43
10.0
 44
1.0
 47
0.1
 48
0.1
 73
     0
 74
     0
 78
     8
 79
     2
140
3.5
141
0.0
143
0.0393701
146
0.71
147
1.5
172
     1
176
   256
177
   256
178
     2
271
     2
272
     3
274
     4
283
     0
284
     8
340
10
371
    -1
372
    -1
  0
DIMSTYLE
105
1836
330
A
100
AcDbSymbolTableRecord
100
AcDbDimStyleTableRecord
  2
AM_BSI$7
 70
     0
  4
"
 41
2.5
 42
1.0
 43
10.0
 44
1.0
 47
0.1
 48
0.1
 73
     0
 74
     0
 77
     1
 78
     8
 79
     2
140
5.0
141
0.0
143
0.0393701
146
0.71
147
1.5
172
     1
176
   256
177
   256
178
     2
271
     2
272
     3
274
     4
283
     0
284
     8
340
10
371
    -1
372
    -1
  0
DIMSTYLE
105
1837
330
A
100
AcDbSymbolTableRecord
100
AcDbDimStyleTableRecord
  2
AM_BSI$SF
 70
     0
  4
"
 41
4.0
 42
1.0
 43
10.0
 44
1.0
 47
0.1
 48
0.1
 73
     0
 74
     0
 75
     1
 76
     1
 77
     1
 78
     8
 79
     2
140
3.5
141
0.0
143
0.0393701
146
0.71
147
1.5
172
     1
176
   256
177
   256
178
     2
271
     2
272
     3
274
     4
283
     0
284
     8
340
10
371
    -1
372
    -1
  0
DIMSTYLE
105
1838
330
A
100
AcDbSymbolTableRecord
100
AcDbDimStyleTableRecord
  2
AM_BSI$SH
 70
     0
  4
"
 41
4.0
 42
1.0
 43
10.0
 44
1.0
 47
0.1
 48
0.1
 73
     0
 74
     0
 75
     1
 76
     1
 77
     1
 78
     8
 79
     2
140
3.5
141
0.0
143
0.0393701
144
2.0
146
0.71
147
1.5
172
     1
173
     1
176
   256
177
   256
178
     2
271
     2
272
     3
274
     4
283
     0
284
     8
340
10
343
39B
371
    -1
372
    -1
  0
DIMSTYLE
105
183A
330
A
100
AcDbSymbolTableRecord
100
AcDbDimStyleTableRecord
  2
AM_DIN
 70
     0
  4
"
 41
2.5
 42
1.0
 43
10.0
 44
1.0
 47
0.1
 48
0.1
 73
     0
 74
     0
 77
     1
 78
     8
 79
     2
140
3.5
141
0.0
143
0.0393701
146
0.71
147
1.5
172
     1
176
   256
177
   256
178
     2
271
     2
272
     3
274
     4
283
     0
284
     8
340
10
371
    -1
372
    -1
  0
DIMSTYLE
105
183B
330
A
100
AcDbSymbolTableRecord
100
AcDbDimStyleTableRecord
  2
AM_DIN$3
 70
     0
  4
"
 41
2.5
 42
1.0
 43
10.0
 44
1.0
 47
0.1
 48
0.1
 73
     0
 77
     1
 78
     8
 79
     2
140
3.5
141
0.0
143
0.0393701
146
0.71
147
1.5
176
   256
177
   256
178
     2
271
     2
272
     3
274
     4
283
     0
284
     8
288
     1
289
     0
340
10
371
    -1
372
    -1
  0
DIMSTYLE
105
183C
330
A
100
AcDbSymbolTableRecord
100
AcDbDimStyleTableRecord
  2
AM_DIN$4
 70
     0
  4
"
 41
2.5
 42
1.0
 43
10.0
 44
1.0
 47
0.1
 48
0.1
 73
     0
 77
     1
 78
     8
 79
     2
140
3.5
141
0.0
143
0.0393701
146
0.71
147
1.5
176
   256
177
   256
178
     2
271
     2
272
     3
274
     4
283
     0
284
     8
288
     1
289
     0
340
10
371
    -1
372
    -1
  0
DIMSTYLE
105
183D
330
A
100
AcDbSymbolTableRecord
100
AcDbDimStyleTableRecord
  2
AM_DIN$6
 70
     0
  4
"
 41
2.5
 42
1.0
 43
10.0
 44
1.0
 47
0.1
 48
0.1
 73
     0
 74
     0
 78
     8
 79
     2
140
3.5
141
0.0
143
0.0393701
146
0.71
147
1.5
172
     1
176
   256
177
   256
178
     2
271
     2
272
     3
274
     4
283
     0
284
     8
340
10
371
    -1
372
    -1
  0
DIMSTYLE
105
183E
330
A
100
AcDbSymbolTableRecord
100
AcDbDimStyleTableRecord
  2
AM_DIN$7
 70
     0
  4
"
 41
2.5
 42
1.0
 43
10.0
 44
1.0
 47
0.1
 48
0.1
 73
     0
 74
     0
 77
     1
 78
     8
 79
     2
140
5.0
141
0.0
143
0.0393701
146
0.71
147
1.5
172
     1
176
   256
177
   256
178
     2
271
     2
272
     3
274
     4
283
     0
284
     8
340
10
371
    -1
372
    -1
  0
DIMSTYLE
105
183F
330
A
100
AcDbSymbolTableRecord
100
AcDbDimStyleTableRecord
  2
AM_DIN$SF
 70
     0
  4
"
 41
2.5
 42
1.0
 43
10.0
 44
1.0
 47
0.1
 48
0.1
 73
     0
 74
     0
 75
     1
 76
     1
 77
     1
 78
     8
 79
     2
140
3.5
141
0.0
143
0.0393701
146
0.71
147
1.5
172
     1
176
   256
177
   256
178
     2
271
     2
272
     3
274
     4
283
     0
284
     8
340
10
371
    -1
372
    -1
  0
DIMSTYLE
105
1840
330
A
100
AcDbSymbolTableRecord
100
AcDbDimStyleTableRecord
  2
AM_DIN$SH
 70
     0
  4
"
 41
2.5
 42
1.0
 43
10.0
 44
1.0
 47
0.1
 48
0.1
 73
     0
 74
     0
 75
     1
 76
     1
 77
     1
 78
     8
 79
     2
140
3.5
141
0.0
143
0.0393701
144
2.0
146
0.71
147
1.5
172
     1
173
     1
176
   256
177
   256
178
     2
271
     2
272
     3
274
     4
283
     0
284
     8
340
10
343
39B
371
    -1
372
    -1
  0
DIMSTYLE
105
1843
330
A
100
AcDbSymbolTableRecord
100
AcDbDimStyleTableRecord
  2
AM_JIS
 70
     0
  4
"
 41
2.5
 42
1.0
 43
10.0
 44
1.0
 47
0.1
 48
0.1
 73
     0
 74
     0
 77
     3
 78
     8
 79
     2
140
3.5
141
0.0
143
0.0393701
146
0.71
147
1.5
172
     1
176
   256
177
   256
178
     2
271
     2
272
     3
274
     4
283
     0
284
     8
340
10
341
1844
342
1844
343
1844
344
1844
371
    -1
372
    -1
  0
DIMSTYLE
105
184A
330
A
100
AcDbSymbolTableRecord
100
AcDbDimStyleTableRecord
  2
AM_JIS$3
 70
     0
  4
"
 41
2.5
 42
1.0
 43
10.0
 44
1.0
 47
0.1
 48
0.1
 73
     0
 77
     3
 78
     8
 79
     2
140
3.5
141
0.0
143
0.0393701
146
0.71
147
1.5
176
   256
177
   256
178
     2
271
     2
272
     3
274
     4
283
     0
284
     8
288
     1
289
     0
340
10
341
1844
342
1844
343
1844
344
1844
371
    -1
372
    -1
  0
DIMSTYLE
105
184B
330
A
100
AcDbSymbolTableRecord
100
AcDbDimStyleTableRecord
  2
AM_JIS$4
 70
     0
  4
"
 41
2.5
 42
1.0
 43
10.0
 44
1.0
 47
0.1
 48
0.1
 73
     0
 77
     3
 78
     8
 79
     2
140
3.5
141
0.0
143
0.0393701
146
0.71
147
1.5
176
   256
177
   256
178
     2
271
     2
272
     3
274
     4
283
     0
284
     8
288
     1
289
     0
340
10
341
1844
342
1844
343
1844
344
1844
371
    -1
372
    -1
  0
DIMSTYLE
105
184C
330
A
100
AcDbSymbolTableRecord
100
AcDbDimStyleTableRecord
  2
AM_JIS$6
 70
     0
  4
"
 41
2.5
 42
1.0
 43
10.0
 44
1.0
 47
0.1
 48
0.1
 73
     0
 74
     0
 78
     8
 79
     2
140
3.5
141
0.0
143
0.0393701
146
0.71
147
1.5
172
     1
176
   256
177
   256
178
     2
271
     2
272
     3
274
     4
283
     0
284
     8
340
10
341
1844
342
1844
343
1844
344
1844
371
    -1
372
    -1
  0
DIMSTYLE
105
184D
330
A
100
AcDbSymbolTableRecord
100
AcDbDimStyleTableRecord
  2
AM_JIS$7
 70
     0
  4
"
 41
2.5
 42
1.0
 43
10.0
 44
1.0
 47
0.1
 48
0.1
 73
     0
 74
     0
 77
     3
 78
     8
 79
     2
140
5.0
141
0.0
143
0.0393701
146
0.71
147
1.5
172
     1
176
   256
177
   256
178
     2
271
     2
272
     3
274
     4
283
     0
284
     8
340
10
341
1844
342
1844
343
1844
344
1844
371
    -1
372
    -1
  0
DIMSTYLE
105
184E
330
A
100
AcDbSymbolTableRecord
100
AcDbDimStyleTableRecord
  2
AM_JIS$SF
 70
     0
  4
"
 41
2.5
 42
1.0
 43
10.0
 44
1.0
 47
0.1
 48
0.1
 73
     0
 74
     0
 75
     1
 76
     1
 77
     3
 78
     8
 79
     2
140
3.5
141
0.0
143
0.0393701
146
0.71
147
1.5
172
     1
176
   256
177
   256
178
     2
271
     2
272
     3
274
     4
283
     0
284
     8
340
10
341
1844
342
1844
343
1844
344
1844
371
    -1
372
    -1
  0
DIMSTYLE
105
184F
330
A
100
AcDbSymbolTableRecord
100
AcDbDimStyleTableRecord
  2
AM_JIS$SH
 70
     0
  4
"
 41
2.5
 42
1.0
 43
10.0
 44
1.0
 47
0.1
 48
0.1
 73
     0
 74
     0
 75
     1
 76
     1
 77
     3
 78
     8
 79
     2
140
3.5
141
0.0
143
0.0393701
144
2.0
146
0.71
147
1.5
172
     1
173
     1
176
   256
177
   256
178
     2
271
     2
272
     3
274
     4
283
     0
284
     8
340
10
341
1844
342
1844
343
39B
344
1844
371
    -1
372
    -1
  0
DIMSTYLE
105
19A0
330
A
100
AcDbSymbolTableRecord
100
AcDbDimStyleTableRecord
  2
GEN-ANSI
 70
     0
  3
<>
  4
"
 41
3.0
 42
0.0
 43
10.0
 44
1.0
 47
0.1
 48
0.1
 78
     8
140
3.5
141
0.0
143
0.0393701
146
0.71
147
1.0
176
   256
177
   256
178
     2
271
     1
272
     3
274
     4
275
     1
284
     8
340
10
  0
DIMSTYLE
105
19A1
330
A
100
AcDbSymbolTableRecord
100
AcDbDimStyleTableRecord
  2
GEN-ANSI$3
 70
     0
  3
<>
  4
"
 41
3.0
 42
0.0
 43
10.0
 44
1.0
 47
0.1
 48
0.1
 78
     8
140
3.5
141
0.0
143
0.0393701
146
0.71
147
1.0
176
   256
177
   256
178
     2
271
     1
272
     3
274
     4
275
     1
284
     8
288
     1
289
     0
340
10
  0
DIMSTYLE
105
19A2
330
A
100
AcDbSymbolTableRecord
100
AcDbDimStyleTableRecord
  2
GEN-ANSI$4
 70
     0
  3
<>
  4
"
 41
3.0
 42
0.0
 43
10.0
 44
1.0
 47
0.1
 48
0.1
 78
     8
140
3.5
141
0.0
143
0.0393701
146
0.71
147
1.0
176
   256
177
   256
178
     2
271
     1
272
     3
274
     4
275
     1
284
     8
288
     1
289
     0
340
10
  0
DIMSTYLE
105
19A3
330
A
100
AcDbSymbolTableRecord
100
AcDbDimStyleTableRecord
  2
GEN-ANSI$6
 70
     0
  3
<>
  4
"
 41
3.0
 42
0.0
 43
10.0
 44
1.0
 47
0.1
 48
0.1
 78
     8
140
3.5
141
0.0
143
0.0393701
146
0.71
147
1.0
176
   256
177
   256
178
     2
271
     1
272
     3
274
     4
275
     1
284
     8
340
10
  0
DIMSTYLE
105
19A4
330
A
100
AcDbSymbolTableRecord
100
AcDbDimStyleTableRecord
  2
GEN-ANSI-POS
 70
     0
  3
<>
  4
"
 41
2.5
 42
0.0
 43
10.0
 44
1.0
 47
0.1
 48
0.1
 73
     0
 74
     0
 78
     8
140
5.0
141
0.0
143
0.0393701
146
0.71
147
1.5
176
   256
177
   256
178
     2
271
     1
272
     3
274
     4
275
     1
284
     8
340
10
  0
DIMSTYLE
105
19A5
330
A
100
AcDbSymbolTableRecord
100
AcDbDimStyleTableRecord
  2
GEN-ANSI-AXE-F
 70
     0
  3
<>
  4
"
 41
3.0
 42
0.0
 43
10.0
 44
1.0
 47
0.1
 48
0.1
 75
     1
 76
     1
 78
     8
140
3.5
141
0.0
143
0.0393701
146
0.71
147
1.0
173
     1
176
   256
177
   256
178
     2
271
     1
272
     3
274
     4
275
     1
284
     8
340
10
343
39B
  0
DIMSTYLE
105
19A6
330
A
100
AcDbSymbolTableRecord
100
AcDbDimStyleTableRecord
  2
GEN-ANSI-AXE-H
 70
     0
  3
<>
  4
"
 41
3.0
 42
0.0
 43
10.0
 44
1.0
 47
0.1
 48
0.1
 73
     0
 74
     0
 75
     1
 76
     1
 78
     8
140
3.5
141
0.0
143
0.0393701
144
2.0
146
0.71
147
1.0
172
     1
173
     1
176
   256
177
   256
178
     2
271
     1
272
     3
274
     4
275
     1
284
     8
340
10
343
39B
  0
DIMSTYLE
105
1BE4
330
A
100
AcDbSymbolTableRecord
100
AcDbDimStyleTableRecord
  2
GEN-ISO
 70
     0
  3
<>
  4
"
 41
3.0
 42
0.0
 43
10.0
 44
1.0
 47
0.1
 48
0.1
 73
     0
 74
     0
 77
     1
 78
     8
140
3.5
141
0.0
143
0.0393701
146
0.71
147
1.0
172
     1
176
   256
177
   256
178
     2
271
     3
272
     3
274
     4
283
     0
340
10
  0
DIMSTYLE
105
2440
330
A
100
AcDbSymbolTableRecord
100
AcDbDimStyleTableRecord
  2
VSM
 70
     0
 40
0.0
 41
4.0
 42
0.0
 43
8.0
 44
2.0
 73
     0
 74
     0
 77
     1
 78
     8
140
3.5
141
1.5
146
0.7142857142857144
147
2.0
176
     4
177
     4
178
     3
340
10
  0
DIMSTYLE
105
24C3
330
A
100
AcDbSymbolTableRecord
100
AcDbDimStyleTableRecord
  2
GEN-ISO$3
 70
     0
  3
<>
  4
"
 41
3.0
 42
0.0
 43
10.0
 44
1.0
 47
0.1
 48
0.1
 73
     0
 74
     0
 77
     1
 78
     8
140
3.5
141
0.0
143
0.0393701
146
0.71
147
1.0
172
     1
176
   256
177
   256
178
     2
271
     3
272
     3
274
     4
283
     0
284
     8
288
     1
289
     0
340
10
  0
DIMSTYLE
105
24C4
330
A
100
AcDbSymbolTableRecord
100
AcDbDimStyleTableRecord
  2
GEN-ISO$4
 70
     0
  3
<>
  4
"
 41
3.0
 42
0.0
 43
10.0
 44
1.0
 47
0.1
 48
0.1
 73
     0
 74
     0
 77
     1
 78
     8
140
3.5
141
0.0
143
0.0393701
146
0.71
147
1.0
172
     1
176
   256
177
   256
178
     2
271
     3
272
     3
274
     4
283
     0
284
     8
288
     1
340
10
  0
DIMSTYLE
105
24C5
330
A
100
AcDbSymbolTableRecord
100
AcDbDimStyleTableRecord
  2
GEN-ISO$6
 70
     0
  3
<>
  4
"
 41
3.0
 42
0.0
 43
10.0
 44
1.0
 47
0.1
 48
0.1
 73
     0
 74
     0
 77
     1
 78
     8
140
3.5
141
0.0
143
0.0393701
146
0.71
147
1.0
172
     1
176
   256
177
   256
178
     2
271
     3
272
     3
274
     4
283
     0
284
     8
340
10
  0
DIMSTYLE
105
24C6
330
A
100
AcDbSymbolTableRecord
100
AcDbDimStyleTableRecord
  2
GEN-ISO-POS
 70
     0
  3
<>
  4
"
 41
2.5
 42
0.0
 43
10.0
 44
1.0
 47
0.1
 48
0.1
 73
     0
 74
     0
 77
     1
 78
     8
140
5.0
141
0.0
143
0.0393701
146
0.71
147
1.5
172
     1
176
   256
177
   256
178
     2
271
     3
272
     3
274
     4
283
     0
284
     8
340
10
  0
DIMSTYLE
105
24C7
330
A
100
AcDbSymbolTableRecord
100
AcDbDimStyleTableRecord
  2
GEN-ISO-AXE-F
 70
     0
  3
<>
  4
"
 41
3.0
 42
0.0
 43
10.0
 44
1.0
 47
0.1
 48
0.1
 73
     0
 74
     0
 75
     1
 76
     1
 77
     1
 78
     8
140
3.5
141
0.0
143
0.0393701
146
0.71
147
1.0
172
     1
176
   256
177
   256
178
     2
271
     3
272
     3
274
     4
283
     0
284
     8
340
10
  0
DIMSTYLE
105
24C8
330
A
100
AcDbSymbolTableRecord
100
AcDbDimStyleTableRecord
  2
GEN-ISO-AXE-H
 70
     0
  3
<>
  4
"
 41
3.0
 42
0.0
 43
10.0
 44
1.0
 47
0.1
 48
0.1
 73
     0
 74
     0
 75
     1
 76
     1
 77
     1
 78
     8
140
3.5
141
0.0
143
0.0393701
144
2.0
146
0.71
147
1.0
172
     1
173
     1
176
   256
177
   256
178
     2
271
     3
272
     3
274
     4
283
     0
284
     8
340
10
  0
ENDTAB
  0
TABLE
  2
BLOCK_RECORD
  5
1
330
0
100
AcDbSymbolTable
 70
    21
  0
BLOCK_RECORD
  5
1A
102
{ACAD_XDICTIONARY
360
12A
102
}
330
1
100
AcDbSymbolTableRecord
100
AcDbBlockTableRecord
  2
*MODEL_SPACE
340
169
 70
     0
280
     1
281
     0
  0
BLOCK_RECORD
  5
17
330
1
100
AcDbSymbolTableRecord
100
AcDbBlockTableRecord
  2
*PAPER_SPACE
340
16A
 70
     0
280
     1
281
     0
  0
BLOCK_RECORD
  5
34D
330
1
100
AcDbSymbolTableRecord
100
AcDbBlockTableRecord
  2
*Paper_Space0
340
351
 70
     0
280
     1
281
     0
  0
BLOCK_RECORD
  5
313
330
1
100
AcDbSymbolTableRecord
100
AcDbBlockTableRecord
  2
*Paper_Space1
340
314
 70
     0
280
     1
281
     0
  0
BLOCK_RECORD
  5
2E0
330
1
100
AcDbSymbolTableRecord
100
AcDbBlockTableRecord
  2
*Paper_Space2
340
2E1
 70
     0
280
     1
281
     0
  0
BLOCK_RECORD
  5
345
330
1
100
AcDbSymbolTableRecord
100
AcDbBlockTableRecord
  2
*Paper_Space3
340
349
 70
     0
280
     1
281
     0
  0
BLOCK_RECORD
  5
39B
330
1
100
AcDbSymbolTableRecord
100
AcDbBlockTableRecord
  2
GENAXEH
340
0
 70
     0
280
     1
281
     0
  0
BLOCK_RECORD
  5
3F8
330
1
100
AcDbSymbolTableRecord
100
AcDbBlockTableRecord
  2
AVE_RENDER
340
0
102
{BLKREFS
331
3FB
331
3FC
331
3FD
331
3FE
331
3FF
331
400
331
401
331
402
102
}
 70
     0
280
     1
281
     0
  0
BLOCK_RECORD
  5
406
330
1
100
AcDbSymbolTableRecord
100
AcDbBlockTableRecord
  2
AVE_GLOBAL
340
0
102
{BLKREFS
331
409
102
}
 70
     0
280
     1
281
     0
  0
BLOCK_RECORD
  5
594
330
1
100
AcDbSymbolTableRecord
100
AcDbBlockTableRecord
  2
*U7
340
0
 70
     0
280
     1
281
     0
  0
BLOCK_RECORD
  5
5E5
330
1
100
AcDbSymbolTableRecord
100
AcDbBlockTableRecord
  2
*U8
340
0
 70
     0
280
     1
281
     0
  0
BLOCK_RECORD
  5
1366
330
1
100
AcDbSymbolTableRecord
100
AcDbBlockTableRecord
  2
GENDOT
340
0
 70
     0
280
     1
281
     0
  0
BLOCK_RECORD
  5
1844
330
1
100
AcDbSymbolTableRecord
100
AcDbBlockTableRecord
  2
_Open30
340
0
 70
     0
280
     1
281
     0
  0
BLOCK_RECORD
  5
2448
330
1
100
AcDbSymbolTableRecord
100
AcDbBlockTableRecord
  2
A4RAND
340
0
 70
     0
280
     1
281
     0
  0
BLOCK_RECORD
  5
2459
330
1
100
AcDbSymbolTableRecord
100
AcDbBlockTableRecord
  2
GLUTZ1
340
0
102
{BLKREFS
331
24EC
102
}
 70
     0
280
     1
281
     0
  0
BLOCK_RECORD
  5
24CE
102
{ACAD_XDICTIONARY
360
252A
102
}
330
1
100
AcDbSymbolTableRecord
100
AcDbBlockTableRecord
  2
GENTITLE
340
0
 70
     0
280
     1
281
     0
  0
BLOCK_RECORD
  5
2BC2
330
1
100
AcDbSymbolTableRecord
100
AcDbBlockTableRecord
  2
*D14
340
0
 70
     0
280
     1
281
     0
  0
BLOCK_RECORD
  5
2BE6
330
1
100
AcDbSymbolTableRecord
100
AcDbBlockTableRecord
  2
*D15
340
0
 70
     0
280
     1
281
     0
  0
BLOCK_RECORD
  5
2C0A
330
1
100
AcDbSymbolTableRecord
100
AcDbBlockTableRecord
  2
*D16
340
0
 70
     0
280
     1
281
     0
  0
BLOCK_RECORD
  5
2C3B
330
1
100
AcDbSymbolTableRecord
100
AcDbBlockTableRecord
  2
*D17
340
0
 70
     0
280
     1
281
     0
  0
BLOCK_RECORD
  5
2C58
330
1
100
AcDbSymbolTableRecord
100
AcDbBlockTableRecord
  2
*D18
340
0
 70
     0
280
     1
281
     0
  0
BLOCK_RECORD
  5
2CA2
330
1
100
AcDbSymbolTableRecord
100
AcDbBlockTableRecord
  2
*D19
340
0
 70
     0
280
     1
281
     0
  0
BLOCK_RECORD
  5
2CF7
330
1
100
AcDbSymbolTableRecord
100
AcDbBlockTableRecord
  2
*D20
340
0
 70
     0
280
     1
281
     0
  0
ENDTAB
  0
ENDSEC
  0
SECTION
  2
BLOCKS
  0
BLOCK
  5
1B
330
1A
100
AcDbEntity
  8
0
100
AcDbBlockBegin
  2
*MODEL_SPACE
 70
     0
 10
0.0
 20
0.0
 30
0.0
  3
*MODEL_SPACE
  1

  0
ENDBLK
  5
1C
330
1A
100
AcDbEntity
  8
0
100
AcDbBlockEnd
  0
BLOCK
  5
18
330
17
100
AcDbEntity
 67
     1
  8
0
100
AcDbBlockBegin
  2
*PAPER_SPACE
 70
     0
 10
0.0
 20
0.0
 30
0.0
  3
*PAPER_SPACE
  1

  0
ENDBLK
  5
19
330
17
100
AcDbEntity
 67
     1
  8
0
100
AcDbBlockEnd
  0
BLOCK
  5
34F
330
34D
100
AcDbEntity
 67
     1
  8
0
100
AcDbBlockBegin
  2
*Paper_Space0
 70
     0
 10
0.0
 20
0.0
 30
0.0
  3
*Paper_Space0
  1

  0
VIEWPORT
  5
34E
330
34D
100
AcDbEntity
 67
     1
  8
AM_VIEWS
100
AcDbViewport
 10
577.468994140625
 20
415.4593176841736
 30
0.0
 40
1195.734595476714
 41
932.8590910236622
 68
     0
 69
     0
 12
577.468994140625
 22
415.4593176841736
 13
0.0
 23
0.0
 14
10.0
 24
10.0
 15
10.0
 25
10.0
 16
0.0
 26
0.0
 36
1.0
 17
0.0
 27
0.0
 37
0.0
 42
50.0
 43
0.0
 44
0.0
 45
932.8590910236622
 50
0.0
 51
0.0
 72
   100
331
1969
 90
    32800
  1

281
     0
 71
     1
 74
     0
110
0.0
120
0.0
130
0.0
111
1.0
121
0.0
131
0.0
112
0.0
122
1.0
132
0.0
 79
     0
146
0.0
170
     0
 61
     5
348
2D1B
292
     1
282
     1
141
0.0
142
0.0
 63
   250
421
  3355443
  0
ENDBLK
  5
350
330
34D
100
AcDbEntity
 67
     1
  8
0
100
AcDbBlockEnd
  0
BLOCK
  5
315
330
313
100
AcDbEntity
 67
     1
  8
0
100
AcDbBlockBegin
  2
*Paper_Space1
 70
     0
 10
0.0
 20
0.0
 30
0.0
  3
*Paper_Space1
  1

  0
VIEWPORT
  5
344
330
313
100
AcDbEntity
 67
     1
  8
AM_VIEWS
100
AcDbViewport
 10
279.9926452636719
 20
204.9779944419861
 30
0.0
 40
597.3137355517764
 41
465.9976808487594
 68
     0
 69
     0
 12
279.9926452636719
 22
204.9779944419861
 13
0.0
 23
0.0
 14
10.0
 24
10.0
 15
10.0
 25
10.0
 16
0.0
 26
0.0
 36
1.0
 17
0.0
 27
0.0
 37
0.0
 42
50.0
 43
0.0
 44
0.0
 45
465.9976808487594
 50
0.0
 51
0.0
 72
   100
331
1969
 90
    32800
  1

281
     0
 71
     1
 74
     0
110
0.0
120
0.0
130
0.0
111
1.0
121
0.0
131
0.0
112
0.0
122
1.0
132
0.0
 79
     0
146
0.0
170
     0
 61
     5
348
2D1B
292
     1
282
     1
141
0.0
142
0.0
 63
   250
421
  3355443
  0
ENDBLK
  5
316
330
313
100
AcDbEntity
 67
     1
  8
0
100
AcDbBlockEnd
  0
BLOCK
  5
2E2
330
2E0
100
AcDbEntity
 67
     1
  8
0
100
AcDbBlockBegin
  2
*Paper_Space2
 70
     0
 10
0.0
 20
0.0
 30
0.0
  3
*Paper_Space2
  1

  0
VIEWPORT
  5
31D
330
2E0
100
AcDbEntity
 67
     1
  8
AM_VIEWS
100
AcDbViewport
 10
204.9674224853516
 20
143.4782419204712
 30
0.0
 40
422.4372280469156
 41
329.5667868615042
 68
     0
 69
     0
 12
204.9674224853516
 22
143.4782419204712
 13
0.0
 23
0.0
 14
10.0
 24
10.0
 15
10.0
 25
10.0
 16
0.0
 26
0.0
 36
1.0
 17
0.0
 27
0.0
 37
0.0
 42
50.0
 43
0.0
 44
0.0
 45
329.5667868615042
 50
0.0
 51
0.0
 72
   100
331
1969
 90
    32800
  1

281
     0
 71
     1
 74
     0
110
0.0
120
0.0
130
0.0
111
1.0
121
0.0
131
0.0
112
0.0
122
1.0
132
0.0
 79
     0
146
0.0
170
     0
 61
     5
348
2D1B
292
     1
282
     1
141
0.0
142
0.0
 63
   250
421
  3355443
  0
ENDBLK
  5
2E3
330
2E0
100
AcDbEntity
 67
     1
  8
0
100
AcDbBlockEnd
  0
BLOCK
  5
347
330
345
100
AcDbEntity
 67
     1
  8
0
100
AcDbBlockBegin
  2
*Paper_Space3
 70
     0
 10
0.0
 20
0.0
 30
0.0
  3
*Paper_Space3
  1

  0
VIEWPORT
  5
346
330
345
100
AcDbEntity
 67
     1
  8
AM_VIEWS
100
AcDbViewport
 10
279.9926452636719
 20
204.9779944419861
 30
0.0
 40
597.3137355517764
 41
465.9976808487594
 68
     0
 69
     0
 12
279.9926452636719
 22
204.9779944419861
 13
0.0
 23
0.0
 14
10.0
 24
10.0
 15
10.0
 25
10.0
 16
0.0
 26
0.0
 36
1.0
 17
0.0
 27
0.0
 37
0.0
 42
50.0
 43
0.0
 44
0.0
 45
465.9976808487594
 50
0.0
 51
0.0
 72
   100
331
1969
 90
    32800
  1

281
     0
 71
     1
 74
     0
110
0.0
120
0.0
130
0.0
111
1.0
121
0.0
131
0.0
112
0.0
122
1.0
132
0.0
 79
     0
146
0.0
170
     0
 61
     5
348
2D1B
292
     1
282
     1
141
0.0
142
0.0
 63
   250
421
  3355443
  0
ENDBLK
  5
348
330
345
100
AcDbEntity
 67
     1
  8
0
100
AcDbBlockEnd
  0
BLOCK
  5
39D
330
39B
100
AcDbEntity
  8
0
100
AcDbBlockBegin
  2
GENAXEH
 70
     0
 10
0.0
 20
0.0
 30
0.0
  3
GENAXEH
  1

  0
LINE
  5
39C
330
39B
100
AcDbEntity
  8
0
100
AcDbLine
 10
-1.0
 20
0.0
 30
0.0
 11
1.0
 21
0.0
 31
0.0
  0
ENDBLK
  5
39E
330
39B
100
AcDbEntity
  8
0
100
AcDbBlockEnd
  0
BLOCK
  5
3F9
330
3F8
100
AcDbEntity
  8
ASHADE
100
AcDbBlockBegin
  2
AVE_RENDER
 70
     0
 10
0.0
 20
0.0
 30
0.0
  3
AVE_RENDER
  1
AVE_RENDER
  0
ENDBLK
  5
3FA
330
3F8
100
AcDbEntity
  8
0
100
AcDbBlockEnd
  0
BLOCK
  5
407
330
406
100
AcDbEntity
  8
ASHADE
100
AcDbBlockBegin
  2
AVE_GLOBAL
 70
     0
 10
0.0
 20
0.0
 30
0.0
  3
AVE_GLOBAL
  1
AVE_GLOBAL
  0
ENDBLK
  5
408
330
406
100
AcDbEntity
  8
0
100
AcDbBlockEnd
  0
BLOCK
  5
595
330
594
100
AcDbEntity
  8
0
100
AcDbBlockBegin
  2
*U7
 70
     1
 10
0.0
 20
0.0
 30
0.0
  3
*U7
  1

  0
ENDBLK
  5
596
330
594
100
AcDbEntity
  8
0
100
AcDbBlockEnd
  0
BLOCK
  5
5E6
330
5E5
100
AcDbEntity
  8
0
100
AcDbBlockBegin
  2
*U8
 70
     1
 10
0.0
 20
0.0
 30
0.0
  3
*U8
  1

  0
ENDBLK
  5
5E7
330
5E5
100
AcDbEntity
  8
0
100
AcDbBlockEnd
  0
BLOCK
  5
1369
330
1366
100
AcDbEntity
  8
0
100
AcDbBlockBegin
  2
GENDOT
 70
     0
 10
0.0
 20
0.0
 30
0.0
  3
GENDOT
  1

  0
LINE
  5
1367
330
1366
100
AcDbEntity
  8
0
100
AcDbLine
 10
0.0
 20
0.0
 30
0.0
 11
-1.0
 21
0.0
 31
0.0
  0
LWPOLYLINE
  5
1368
330
1366
100
AcDbEntity
  8
0
100
AcDbPolyline
 90
        2
 70
     1
 43
0.25
 10
-0.125
 20
0.0
 42
1.0
 10
0.125
 20
0.0
 42
1.0
  0
ENDBLK
  5
136A
330
1366
100
AcDbEntity
  8
0
100
AcDbBlockEnd
  0
BLOCK
  5
1848
330
1844
100
AcDbEntity
  8
0
100
AcDbBlockBegin
  2
_Open30
 70
     0
 10
0.0
 20
0.0
 30
0.0
  3
_Open30
  1

  0
LINE
  5
1845
330
1844
100
AcDbEntity
  8
0
  6
ByBlock
 62
     0
370
    -2
100
AcDbLine
 10
-1.0
 20
0.26794919
 30
0.0
 11
0.0
 21
0.0
 31
0.0
  0
LINE
  5
1846
330
1844
100
AcDbEntity
  8
0
  6
ByBlock
 62
     0
370
    -2
100
AcDbLine
 10
0.0
 20
0.0
 30
0.0
 11
-1.0
 21
-0.26794919
 31
0.0
  0
LINE
  5
1847
330
1844
100
AcDbEntity
  8
0
  6
ByBlock
 62
     0
370
    -2
100
AcDbLine
 10
0.0
 20
0.0
 30
0.0
 11
-1.0
 21
0.0
 31
0.0
  0
ENDBLK
  5
1849
330
1844
100
AcDbEntity
  8
0
100
AcDbBlockEnd
  0
BLOCK
  5
244A
330
2448
100
AcDbEntity
  8
0
100
AcDbBlockBegin
  2
A4RAND
 70
     0
 10
0.0
 20
0.0
 30
0.0
  3
A4RAND
  1

  0
LWPOLYLINE
  5
2449
330
2448
100
AcDbEntity
  8
RAND
 62
     7
100
AcDbPolyline
 90
        4
 70
     1
 43
0.0
 10
203.0
 20
290.0
 10
18.99999999999997
 20
290.0
 10
18.99999999999995
 20
7.0
 10
203.0
 20
6.999999999999977
1001
GENIUS_GENREC_14
1002
{
1000
PYDIR
1011
203.0
1021
7.0
1031
0.0
1002
}
1002
{
1000
PXDIR
1011
18.99999999999997
1021
290.0
1031
0.0
1002
}
1002
{
1000
PORI
1011
203.0
1021
290.0
1031
0.0
1002
}
1002
{
1000
PINS
1011
203.0
1021
290.0
1031
0.0
1002
}
1002
{
1000
PINS2
1011
18.99999999999996
1021
7.0
1031
0.0
1002
}
1002
{
1000
C
1070
     1
1002
}
1001
GENIUS_GENODEF_13
1002
{
1000
HIER
1070
     0
1002
}
1002
{
1000
MANEDIT
1070
     0
1002
}
1002
{
1000
NOSEL
1070
     0
1002
}
1002
{
1000
BEHIND
1070
     0
1002
}
1002
{
1000
REACTOR
1002
}
1001
GENIUS_GENOBJ-N-REC_13
1002
{
1000
OWNER
1000
GEN
1002
}
  0
ENDBLK
  5
244B
330
2448
100
AcDbEntity
  8
0
100
AcDbBlockEnd
  0
BLOCK
  5
245A
330
2459
100
AcDbEntity
  8
0
100
AcDbBlockBegin
  2
GLUTZ1
 70
     0
 10
0.0
 20
0.0
 30
0.0
  3
GLUTZ1
  1

  0
POLYLINE
  5
245B
330
2459
100
AcDbEntity
  8
KOPF
  6
CONTINU
 62
     2
100
AcDb2dPolyline
 66
     1
 10
0.0
 20
0.0
 30
0.0
 70
     1
  0
VERTEX
  5
245C
330
245B
100
AcDbEntity
  8
KOPF
  6
CONTINU
 62
     2
100
AcDbVertex
100
AcDb2dVertex
 10
7.413302975328548
 20
3.465323178314264
 30
0.0
  0
VERTEX
  5
245D
330
245B
100
AcDbEntity
  8
KOPF
  6
CONTINU
 62
     2
100
AcDbVertex
100
AcDb2dVertex
 10
8.659030475328563
 20
3.465323178314264
 30
0.0
  0
VERTEX
  5
245E
330
245B
100
AcDbEntity
  8
KOPF
  6
CONTINU
 62
     2
100
AcDbVertex
100
AcDb2dVertex
 10
8.328937475328558
 20
1.484671678314271
 30
0.0
  0
VERTEX
  5
245F
330
245B
100
AcDbEntity
  8
KOPF
  6
CONTINU
 62
     2
100
AcDbVertex
100
AcDb2dVertex
 10
8.495913975328534
 20
1.085639178314266
 30
0.0
  0
VERTEX
  5
2460
330
245B
100
AcDbEntity
  8
KOPF
  6
CONTINU
 62
     2
100
AcDbVertex
100
AcDb2dVertex
 10
8.872790975328541
 20
1.034750678314253
 30
0.0
  0
VERTEX
  5
2461
330
245B
100
AcDbEntity
  8
KOPF
  6
CONTINU
 62
     2
100
AcDbVertex
100
AcDb2dVertex
 10
9.136996975328543
 20
1.349997678314252
 30
0.0
  0
VERTEX
  5
2462
330
245B
100
AcDbEntity
  8
KOPF
  6
CONTINU
 62
     2
100
AcDbVertex
100
AcDb2dVertex
 10
9.136996975328543
 20
1.349997678314252
 30
0.0
  0
VERTEX
  5
2463
330
245B
100
AcDbEntity
  8
KOPF
  6
CONTINU
 62
     2
100
AcDbVertex
100
AcDb2dVertex
 10
9.489535975328578
 20
3.465323178314264
 30
0.0
  0
VERTEX
  5
2464
330
245B
100
AcDbEntity
  8
KOPF
  6
CONTINU
 62
     2
100
AcDbVertex
100
AcDb2dVertex
 10
11.35815797532856
 20
3.465323178314264
 30
0.0
  0
VERTEX
  5
2465
330
245B
100
AcDbEntity
  8
KOPF
  6
CONTINU
 62
     2
100
AcDbVertex
100
AcDb2dVertex
 10
11.56296147532856
 20
4.694129178314256
 30
0.0
  0
VERTEX
  5
2466
330
245B
100
AcDbEntity
  8
KOPF
  6
CONTINU
 62
     2
100
AcDbVertex
100
AcDb2dVertex
 10
12.80870397532857
 20
4.694113678314266
 30
0.0
  0
VERTEX
  5
2467
330
245B
100
AcDbEntity
  8
KOPF
  6
CONTINU
 62
     2
100
AcDbVertex
100
AcDb2dVertex
 10
12.60391597532856
 20
3.465323178314264
 30
0.0
  0
VERTEX
  5
2468
330
245B
100
AcDbEntity
  8
KOPF
  6
CONTINU
 62
     2
100
AcDbVertex
100
AcDb2dVertex
 10
15.92592197532855
 20
3.465323178314264
 30
0.0
  0
VERTEX
  5
2469
330
245B
100
AcDbEntity
  8
KOPF
  6
CONTINU
 62
     2
100
AcDbVertex
100
AcDb2dVertex
 10
15.78938647532857
 20
2.646109678314275
 30
0.0
  0
VERTEX
  5
246A
330
245B
100
AcDbEntity
  8
KOPF
  6
CONTINU
 62
     2
100
AcDbVertex
100
AcDb2dVertex
 10
13.87791797532855
 20
1.00771217831425
 30
0.0
  0
VERTEX
  5
246B
330
245B
100
AcDbEntity
  8
KOPF
  6
CONTINU
 62
     2
100
AcDbVertex
100
AcDb2dVertex
 10
15.51633047532854
 20
1.00771217831425
 30
0.0
  0
VERTEX
  5
246C
330
245B
100
AcDbEntity
  8
KOPF
  6
CONTINU
 62
     2
100
AcDbVertex
100
AcDb2dVertex
 10
15.37979497532856
 20
0.1885136783142798
 30
0.0
  0
VERTEX
  5
246D
330
245B
100
AcDbEntity
  8
KOPF
  6
CONTINU
 62
     2
100
AcDbVertex
100
AcDb2dVertex
 10
12.68066747532856
 20
0.1885291783142406
 30
0.0
  0
VERTEX
  5
246E
330
245B
100
AcDbEntity
  8
KOPF
  6
CONTINU
 62
     2
100
AcDbVertex
100
AcDb2dVertex
 10
12.81720347532854
 20
1.00771217831425
 30
0.0
  0
VERTEX
  5
246F
330
245B
100
AcDbEntity
  8
KOPF
  6
CONTINU
 62
     2
100
AcDbVertex
100
AcDb2dVertex
 10
14.72865647532856
 20
2.646109678314275
 30
0.0
  0
VERTEX
  5
2470
330
245B
100
AcDbEntity
  8
KOPF
  6
CONTINU
 62
     2
100
AcDbVertex
100
AcDb2dVertex
 10
12.46738047532855
 20
2.646124678314265
 30
0.0
  0
VERTEX
  5
2471
330
245B
100
AcDbEntity
  8
KOPF
  6
CONTINU
 62
     2
100
AcDbVertex
100
AcDb2dVertex
 10
12.05778847532855
 20
0.1885291783142406
 30
0.0
  0
VERTEX
  5
2472
330
245B
100
AcDbEntity
  8
KOPF
  6
CONTINU
 62
     2
100
AcDbVertex
100
AcDb2dVertex
 10
10.81204597532854
 20
0.1885291783142406
 30
0.0
  0
VERTEX
  5
2473
330
245B
100
AcDbEntity
  8
KOPF
  6
CONTINU
 62
     2
100
AcDbVertex
100
AcDb2dVertex
 10
11.22163747532855
 20
2.646124678314265
 30
0.0
  0
VERTEX
  5
2474
330
245B
100
AcDbEntity
  8
KOPF
  6
CONTINU
 62
     2
100
AcDbVertex
100
AcDb2dVertex
 10
10.59875847532856
 20
2.646124678314265
 30
0.0
  0
VERTEX
  5
2475
330
245B
100
AcDbEntity
  8
KOPF
  6
CONTINU
 62
     2
100
AcDbVertex
100
AcDb2dVertex
 10
10.18916697532856
 20
0.1885291783142406
 30
0.0
  0
VERTEX
  5
2476
330
245B
100
AcDbEntity
  8
KOPF
  6
CONTINU
 62
     2
100
AcDbVertex
100
AcDb2dVertex
 10
8.943423975328556
 20
0.1885291783142406
 30
0.0
  0
VERTEX
  5
2477
330
245B
100
AcDbEntity
  8
KOPF
  6
CONTINU
 62
     2
100
AcDbVertex
100
AcDb2dVertex
 10
8.960238975328536
 20
0.2895266783142745
 30
0.0
  0
VERTEX
  5
2478
330
245B
100
AcDbEntity
  8
KOPF
  6
CONTINU
 62
     2
100
AcDbVertex
100
AcDb2dVertex
 10
8.491321475328561
 20
0.0298986783142539
 30
0.0
  0
VERTEX
  5
2479
330
245B
100
AcDbEntity
  8
KOPF
  6
CONTINU
 62
     2
100
AcDbVertex
100
AcDb2dVertex
 10
7.975314975328558
 20
0.0042486783142692
 30
0.0
  0
VERTEX
  5
247A
330
245B
100
AcDbEntity
  8
KOPF
  6
CONTINU
 62
     2
100
AcDbVertex
100
AcDb2dVertex
 10
7.487231975328569
 20
0.2220676783142608
 30
0.0
  0
VERTEX
  5
247B
330
245B
100
AcDbEntity
  8
KOPF
  6
CONTINU
 62
     2
100
AcDbVertex
100
AcDb2dVertex
 10
7.137027475328551
 20
0.6718966783142549
 30
0.0
  0
VERTEX
  5
247C
330
245B
100
AcDbEntity
  8
KOPF
  6
CONTINU
 62
     2
100
AcDbVertex
100
AcDb2dVertex
 10
7.054812975328559
 20
1.314475178314268
 30
0.0
  0
VERTEX
  5
247D
330
245B
100
AcDbEntity
  8
KOPF
  6
CONTINU
 62
     2
100
AcDbVertex
100
AcDb2dVertex
 10
7.054812975328559
 20
1.314475178314268
 30
0.0
  0
VERTEX
  5
247E
330
245B
100
AcDbEntity
  8
KOPF
  6
CONTINU
 62
     2
100
AcDbVertex
100
AcDb2dVertex
 10
7.413287975328557
 20
3.465323178314264
 30
0.0
  0
SEQEND
  5
247F
330
245B
100
AcDbEntity
  8
KOPF
 62
     2
  0
HATCH
  5
2480
330
2459
100
AcDbEntity
  8
KOPF
 62
     7
100
AcDbHatch
 10
0.0
 20
0.0
 30
0.0
210
0.0
220
0.0
230
1.0
  2
SOLID
 70
     1
 71
     0
 91
        1
 92
        1
 93
       32
 72
     1
 10
8.491321475328561
 20
0.0298986783142539
 11
8.960238975328536
 21
0.2895266783142745
 72
     1
 10
8.960238975328536
 20
0.2895266783142745
 11
8.943423975328556
 21
0.1885291783142406
 72
     1
 10
8.943423975328556
 20
0.1885291783142406
 11
10.18916697532856
 21
0.1885291783142406
 72
     1
 10
10.18916697532856
 20
0.1885291783142406
 11
10.59875847532856
 21
2.646124678314265
 72
     1
 10
10.59875847532856
 20
2.646124678314265
 11
11.22163747532855
 21
2.646124678314265
 72
     1
 10
11.22163747532855
 20
2.646124678314265
 11
10.81204597532854
 21
0.1885291783142406
 72
     1
 10
10.81204597532854
 20
0.1885291783142406
 11
12.05778847532855
 21
0.1885291783142406
 72
     1
 10
12.05778847532855
 20
0.1885291783142406
 11
12.46738047532855
 21
2.646124678314265
 72
     1
 10
12.46738047532855
 20
2.646124678314265
 11
14.72865647532856
 21
2.646109678314275
 72
     1
 10
14.72865647532856
 20
2.646109678314275
 11
12.81720347532854
 21
1.00771217831425
 72
     1
 10
12.81720347532854
 20
1.00771217831425
 11
12.68066747532856
 21
0.1885291783142406
 72
     1
 10
12.68066747532856
 20
0.1885291783142406
 11
15.37979497532856
 21
0.1885136783142798
 72
     1
 10
15.37979497532856
 20
0.1885136783142798
 11
15.51633047532854
 21
1.00771217831425
 72
     1
 10
15.51633047532854
 20
1.00771217831425
 11
13.87791797532855
 21
1.00771217831425
 72
     1
 10
13.87791797532855
 20
1.00771217831425
 11
15.78938647532857
 21
2.646109678314275
 72
     1
 10
15.78938647532857
 20
2.646109678314275
 11
15.92592197532855
 21
3.465323178314264
 72
     1
 10
15.92592197532855
 20
3.465323178314264
 11
12.60391597532856
 21
3.465323178314264
 72
     1
 10
12.60391597532856
 20
3.465323178314264
 11
12.80870397532857
 21
4.694113678314266
 72
     1
 10
12.80870397532857
 20
4.694113678314266
 11
11.56296147532856
 21
4.694129178314256
 72
     1
 10
11.56296147532856
 20
4.694129178314256
 11
11.35815797532856
 21
3.465323178314264
 72
     1
 10
11.35815797532856
 20
3.465323178314264
 11
9.489535975328578
 21
3.465323178314264
 72
     1
 10
9.489535975328578
 20
3.465323178314264
 11
9.136996975328543
 21
1.349997678314252
 72
     1
 10
9.136996975328543
 20
1.349997678314252
 11
8.872790975328541
 21
1.034750678314253
 72
     1
 10
8.872790975328541
 20
1.034750678314253
 11
8.495913975328534
 21
1.085639178314266
 72
     1
 10
8.495913975328534
 20
1.085639178314266
 11
8.328937475328558
 21
1.484671678314271
 72
     1
 10
8.328937475328558
 20
1.484671678314271
 11
8.659030475328563
 21
3.465323178314264
 72
     1
 10
8.659030475328563
 20
3.465323178314264
 11
7.413287975328557
 21
3.465323178314264
 72
     1
 10
7.413287975328557
 20
3.465323178314264
 11
7.054812975328559
 21
1.314475178314268
 72
     1
 10
7.054812975328559
 20
1.314475178314268
 11
7.137027475328551
 21
0.6718966783142549
 72
     1
 10
7.137027475328551
 20
0.6718966783142549
 11
7.487231975328569
 21
0.2220676783142608
 72
     1
 10
7.487231975328569
 20
0.2220676783142608
 11
7.975314975328558
 21
0.0042486783142692
 72
     1
 10
7.975314975328558
 20
0.0042486783142692
 11
8.491321475328561
 21
0.0298986783142539
 97
        0
 75
     0
 76
     1
 98
        1
 10
78.94342397532856
 20
-1.062905321685718
450
        0
451
        0
460
0.0
461
0.0
452
        0
462
0.0
453
        0
470

1001
GENIUS_GENODEF_13
1002
{
1000
HIER
1070
     0
1002
}
1002
{
1000
MANEDIT
1070
     0
1002
}
1002
{
1000
NOSEL
1070
     0
1002
}
1002
{
1000
BEHIND
1070
     0
1002
}
1002
{
1000
REACTOR
1002
}
1001
GENIUS_GENOBJ-N-HTC_13
1002
{
1000
OWNER
1000
GEN
1002
}
1001
GENIUS_GENHATCH_13
1002
{
1000
DATA
1040
0.0
1042
0.5
1000
SOLID
1070
     0
1011
7.884158670682694
1021
0.0684408459231634
1031
0.0
1002
}
1002
{
1000
UCS
1010
0.0
1020
0.0
1030
0.0
1010
1.0
1020
0.0
1030
0.0
1010
0.0
1020
1.0
1030
0.0
1002
}
  0
POLYLINE
  5
2481
330
2459
100
AcDbEntity
  8
KOPF
  6
CONTINU
 62
     2
100
AcDb2dPolyline
 66
     1
 10
0.0
 20
0.0
 30
0.0
 70
     1
  0
VERTEX
  5
2482
330
2481
100
AcDbEntity
  8
KOPF
  6
CONTINU
 62
     2
100
AcDbVertex
100
AcDb2dVertex
 10
4.230807975328559
 20
0.2520206783142669
 30
0.0
  0
VERTEX
  5
2483
330
2481
100
AcDbEntity
  8
KOPF
  6
CONTINU
 62
     2
100
AcDbVertex
100
AcDb2dVertex
 10
3.628177475328556
 20
0.1549291783142621
 30
0.0
  0
VERTEX
  5
2484
330
2481
100
AcDbEntity
  8
KOPF
  6
CONTINU
 62
     2
100
AcDbVertex
100
AcDb2dVertex
 10
2.898837975328547
 20
0.069876678314273
 30
0.0
  0
VERTEX
  5
2485
330
2481
100
AcDbEntity
  8
KOPF
  6
CONTINU
 62
     2
100
AcDbVertex
100
AcDb2dVertex
 10
2.152301475328556
 20
0.038306178314258
 30
0.0
  0
VERTEX
  5
2486
330
2481
100
AcDbEntity
  8
KOPF
  6
CONTINU
 62
     2
100
AcDbVertex
100
AcDb2dVertex
 10
1.464725475328549
 20
0.112723178314269
 30
0.0
  0
VERTEX
  5
2487
330
2481
100
AcDbEntity
  8
KOPF
  6
CONTINU
 62
     2
100
AcDbVertex
100
AcDb2dVertex
 10
0.8865389753285342
 20
0.3333501783142765
 30
0.0
  0
VERTEX
  5
2488
330
2481
100
AcDbEntity
  8
KOPF
  6
CONTINU
 62
     2
100
AcDbVertex
100
AcDb2dVertex
 10
0.4486119753285323
 20
0.7156286783142605
 30
0.0
  0
VERTEX
  5
2489
330
2481
100
AcDbEntity
  8
KOPF
  6
CONTINU
 62
     2
100
AcDbVertex
100
AcDb2dVertex
 10
0.1673769753285512
 20
1.246237678314258
 30
0.0
  0
VERTEX
  5
248A
330
2481
100
AcDbEntity
  8
KOPF
  6
CONTINU
 62
     2
100
AcDbVertex
100
AcDb2dVertex
 10
0.0486334753285576
 20
1.885962678314285
 30
0.0
  0
VERTEX
  5
248B
330
2481
100
AcDbEntity
  8
KOPF
  6
CONTINU
 62
     2
100
AcDbVertex
100
AcDb2dVertex
 10
0.0903659753285524
 20
2.57732267831426
 30
0.0
  0
VERTEX
  5
248C
330
2481
100
AcDbEntity
  8
KOPF
  6
CONTINU
 62
     2
100
AcDbVertex
100
AcDb2dVertex
 10
0.2847019753285735
 20
3.254996178314257
 30
0.0
  0
VERTEX
  5
248D
330
2481
100
AcDbEntity
  8
KOPF
  6
CONTINU
 62
     2
100
AcDbVertex
100
AcDb2dVertex
 10
0.6188849753285695
 20
3.857199678314259
 30
0.0
  0
VERTEX
  5
248E
330
2481
100
AcDbEntity
  8
KOPF
  6
CONTINU
 62
     2
100
AcDbVertex
100
AcDb2dVertex
 10
1.075641475328552
 20
4.335898178314266
 30
0.0
  0
VERTEX
  5
248F
330
2481
100
AcDbEntity
  8
KOPF
  6
CONTINU
 62
     2
100
AcDbVertex
100
AcDb2dVertex
 10
1.632815975328554
 20
4.664038678314284
 30
0.0
  0
VERTEX
  5
2490
330
2481
100
AcDbEntity
  8
KOPF
  6
CONTINU
 62
     2
100
AcDbVertex
100
AcDb2dVertex
 10
2.262469975328542
 20
4.837775178314274
 30
0.0
  0
VERTEX
  5
2491
330
2481
100
AcDbEntity
  8
KOPF
  6
CONTINU
 62
     2
100
AcDbVertex
100
AcDb2dVertex
 10
2.929553975328559
 20
4.871710678314258
 30
0.0
  0
VERTEX
  5
2492
330
2481
100
AcDbEntity
  8
KOPF
  6
CONTINU
 62
     2
100
AcDbVertex
100
AcDb2dVertex
 10
3.590213475328567
 20
4.785315678314248
 30
0.0
  0
VERTEX
  5
2493
330
2481
100
AcDbEntity
  8
KOPF
  6
CONTINU
 62
     2
100
AcDbVertex
100
AcDb2dVertex
 10
4.189914475328549
 20
4.578391178314262
 30
0.0
  0
VERTEX
  5
2494
330
2481
100
AcDbEntity
  8
KOPF
  6
CONTINU
 62
     2
100
AcDbVertex
100
AcDb2dVertex
 10
4.661227975328557
 20
4.19379317831428
 30
0.0
  0
VERTEX
  5
2495
330
2481
100
AcDbEntity
  8
KOPF
  6
CONTINU
 62
     2
100
AcDbVertex
100
AcDb2dVertex
 10
4.921786975328558
 20
3.465338678314282
 30
0.0
  0
VERTEX
  5
2496
330
2481
100
AcDbEntity
  8
KOPF
  6
CONTINU
 62
     2
100
AcDbVertex
100
AcDb2dVertex
 10
4.921786975328558
 20
3.465338678314282
 30
0.0
  0
VERTEX
  5
2497
330
2481
100
AcDbEntity
  8
KOPF
  6
CONTINU
 62
     2
100
AcDbVertex
100
AcDb2dVertex
 10
3.676043975328553
 20
3.465338678314282
 30
0.0
  0
VERTEX
  5
2498
330
2481
100
AcDbEntity
  8
KOPF
  6
CONTINU
 62
     2
100
AcDbVertex
100
AcDb2dVertex
 10
3.658435475328559
 20
3.635474178314268
 30
0.0
  0
VERTEX
  5
2499
330
2481
100
AcDbEntity
  8
KOPF
  6
CONTINU
 62
     2
100
AcDbVertex
100
AcDb2dVertex
 10
3.60626597532854
 20
3.742651678314274
 30
0.0
  0
VERTEX
  5
249A
330
2481
100
AcDbEntity
  8
KOPF
  6
CONTINU
 62
     2
100
AcDbVertex
100
AcDb2dVertex
 10
3.50603097532857
 20
3.814627678314252
 30
0.0
 42
0.101147
  0
VERTEX
  5
249B
330
2481
100
AcDbEntity
  8
KOPF
  6
CONTINU
 62
     2
100
AcDbVertex
100
AcDb2dVertex
 10
2.163074475328556
 20
3.706198678314251
 30
0.0
  0
VERTEX
  5
249C
330
2481
100
AcDbEntity
  8
KOPF
  6
CONTINU
 62
     2
100
AcDbVertex
100
AcDb2dVertex
 10
1.757983975328556
 20
3.187644178314258
 30
0.0
  0
VERTEX
  5
249D
330
2481
100
AcDbEntity
  8
KOPF
  6
CONTINU
 62
     2
100
AcDbVertex
100
AcDb2dVertex
 10
1.532947475328569
 20
2.441336678314257
 30
0.0
  0
VERTEX
  5
249E
330
2481
100
AcDbEntity
  8
KOPF
  6
CONTINU
 62
     2
100
AcDbVertex
100
AcDb2dVertex
 10
1.523211975328536
 20
1.797781678314265
 30
0.0
  0
VERTEX
  5
249F
330
2481
100
AcDbEntity
  8
KOPF
  6
CONTINU
 62
     2
100
AcDbVertex
100
AcDb2dVertex
 10
1.754718475328559
 20
1.36037367831426
 30
0.0
  0
VERTEX
  5
24A0
330
2481
100
AcDbEntity
  8
KOPF
  6
CONTINU
 62
     2
100
AcDbVertex
100
AcDb2dVertex
 10
2.223819475328554
 20
1.196402678314257
 30
0.0
 42
0.054838
  0
VERTEX
  5
24A1
330
2481
100
AcDbEntity
  8
KOPF
  6
CONTINU
 62
     2
100
AcDbVertex
100
AcDb2dVertex
 10
3.313342975328538
 20
1.289114678314263
 30
0.0
  0
VERTEX
  5
24A2
330
2481
100
AcDbEntity
  8
KOPF
  6
CONTINU
 62
     2
100
AcDbVertex
100
AcDb2dVertex
 10
3.454181475328539
 20
2.134131178314248
 30
0.0
  0
VERTEX
  5
24A3
330
2481
100
AcDbEntity
  8
KOPF
  6
CONTINU
 62
     2
100
AcDbVertex
100
AcDb2dVertex
 10
2.416049475328549
 20
2.134131178314248
 30
0.0
  0
VERTEX
  5
24A4
330
2481
100
AcDbEntity
  8
KOPF
  6
CONTINU
 62
     2
100
AcDbVertex
100
AcDb2dVertex
 10
2.552585475328555
 20
2.953330178314246
 30
0.0
  0
VERTEX
  5
24A5
330
2481
100
AcDbEntity
  8
KOPF
  6
CONTINU
 62
     2
100
AcDbVertex
100
AcDb2dVertex
 10
4.83645997532858
 20
2.953330178314246
 30
0.0
  0
VERTEX
  5
24A6
330
2481
100
AcDbEntity
  8
KOPF
  6
CONTINU
 62
     2
100
AcDbVertex
100
AcDb2dVertex
 10
4.392505475328562
 20
0.2895421783142638
 30
0.0
  0
VERTEX
  5
24A7
330
2481
100
AcDbEntity
  8
KOPF
  6
CONTINU
 62
     2
100
AcDbVertex
100
AcDb2dVertex
 10
4.338580975328568
 20
0.2768011783142867
 30
0.0
  0
VERTEX
  5
24A8
330
2481
100
AcDbEntity
  8
KOPF
  6
CONTINU
 62
     2
100
AcDbVertex
100
AcDb2dVertex
 10
4.284671475328565
 20
0.2642886783142728
 30
0.0
  0
VERTEX
  5
24A9
330
2481
100
AcDbEntity
  8
KOPF
  6
CONTINU
 62
     2
100
AcDbVertex
100
AcDb2dVertex
 10
4.230807975328559
 20
0.2520206783142669
 30
0.0
  0
SEQEND
  5
24AA
330
2481
100
AcDbEntity
  8
KOPF
 62
     2
  0
HATCH
  5
24AB
330
2459
100
AcDbEntity
  8
KOPF
 62
     7
100
AcDbHatch
 10
0.0
 20
0.0
 30
0.0
210
0.0
220
0.0
230
1.0
  2
SOLID
 70
     1
 71
     0
 91
        1
 92
        1
 93
       38
 72
     1
 10
2.223819475328554
 20
1.196402678314257
 11
1.754718475328559
 21
1.36037367831426
 72
     1
 10
1.754718475328559
 20
1.36037367831426
 11
1.523211975328536
 21
1.797781678314265
 72
     1
 10
1.523211975328536
 20
1.797781678314265
 11
1.532947475328569
 21
2.441336678314257
 72
     1
 10
1.532947475328569
 20
2.441336678314257
 11
1.757983975328556
 21
3.187644178314258
 72
     1
 10
1.757983975328556
 20
3.187644178314258
 11
2.163074475328556
 21
3.706198678314251
 72
     2
 10
3.09980946486911
 20
0.4750535186772141
 40
3.364189573028744
 50
253.8327008024395
 51
276.9353140195865
 73
     0
 72
     1
 10
3.50603097532857
 20
3.814627678314252
 11
3.60626597532854
 21
3.742651678314274
 72
     1
 10
3.60626597532854
 20
3.742651678314274
 11
3.658435475328559
 21
3.635474178314268
 72
     1
 10
3.658435475328559
 20
3.635474178314268
 11
3.676043975328553
 21
3.465338678314282
 72
     1
 10
3.676043975328553
 20
3.465338678314282
 11
4.921786975328558
 21
3.465338678314282
 72
     1
 10
4.921786975328558
 20
3.465338678314282
 11
4.661227975328557
 21
4.19379317831428
 72
     1
 10
4.661227975328557
 20
4.19379317831428
 11
4.189914475328549
 21
4.578391178314262
 72
     1
 10
4.189914475328549
 20
4.578391178314262
 11
3.590213475328567
 21
4.785315678314248
 72
     1
 10
3.590213475328567
 20
4.785315678314248
 11
2.929553975328559
 21
4.871710678314258
 72
     1
 10
2.929553975328559
 20
4.871710678314258
 11
2.262469975328542
 21
4.837775178314274
 72
     1
 10
2.262469975328542
 20
4.837775178314274
 11
1.632815975328554
 21
4.664038678314284
 72
     1
 10
1.632815975328554
 20
4.664038678314284
 11
1.075641475328552
 21
4.335898178314266
 72
     1
 10
1.075641475328552
 20
4.335898178314266
 11
0.6188849753285695
 21
3.857199678314259
 72
     1
 10
0.6188849753285695
 20
3.857199678314259
 11
0.2847019753285735
 21
3.254996178314257
 72
     1
 10
0.2847019753285735
 20
3.254996178314257
 11
0.0903659753285524
 21
2.57732267831426
 72
     1
 10
0.0903659753285524
 20
2.57732267831426
 11
0.0486334753285576
 21
1.885962678314285
 72
     1
 10
0.0486334753285576
 20
1.885962678314285
 11
0.1673769753285512
 21
1.246237678314258
 72
     1
 10
0.1673769753285512
 20
1.246237678314258
 11
0.4486119753285323
 21
0.7156286783142605
 72
     1
 10
0.4486119753285323
 20
0.7156286783142605
 11
0.8865389753285342
 21
0.3333501783142765
 72
     1
 10
0.8865389753285342
 20
0.3333501783142765
 11
1.464725475328549
 21
0.112723178314269
 72
     1
 10
1.464725475328549
 20
0.112723178314269
 11
2.152301475328556
 21
0.038306178314258
 72
     1
 10
2.152301475328556
 20
0.038306178314258
 11
2.898837975328547
 21
0.069876678314273
 72
     1
 10
2.898837975328547
 20
0.069876678314273
 11
3.628177475328556
 21
0.1549291783142621
 72
     1
 10
3.628177475328556
 20
0.1549291783142621
 11
4.230807975328559
 21
0.2520206783142669
 72
     1
 10
4.230807975328559
 20
0.2520206783142669
 11
4.284671475328565
 21
0.2642886783142728
 72
     1
 10
4.284671475328565
 20
0.2642886783142728
 11
4.338580975328568
 21
0.2768011783142867
 72
     1
 10
4.338580975328568
 20
0.2768011783142867
 11
4.392505475328562
 21
0.2895421783142638
 72
     1
 10
4.392505475328562
 20
0.2895421783142638
 11
4.83645997532858
 21
2.953330178314246
 72
     1
 10
4.83645997532858
 20
2.953330178314246
 11
2.552585475328555
 21
2.953330178314246
 72
     1
 10
2.552585475328555
 20
2.953330178314246
 11
2.416049475328549
 21
2.134131178314248
 72
     1
 10
2.416049475328549
 20
2.134131178314248
 11
3.454181475328539
 21
2.134131178314248
 72
     1
 10
3.454181475328539
 20
2.134131178314248
 11
3.313342975328538
 21
1.289114678314263
 72
     2
 10
2.347189143675734
 20
6.194831502486067
 40
4.999951078298644
 50
78.858501207424
 51
91.41386958452535
 73
     0
 97
        0
 75
     0
 76
     1
 98
        1
 10
78.94342397532856
 20
-1.062905321685718
450
        0
451
        0
460
0.0
461
0.0
452
        0
462
0.0
453
        0
470

1001
GENIUS_GENODEF_13
1002
{
1000
HIER
1070
     0
1002
}
1002
{
1000
MANEDIT
1070
     0
1002
}
1002
{
1000
NOSEL
1070
     0
1002
}
1002
{
1000
BEHIND
1070
     0
1002
}
1002
{
1000
REACTOR
1002
}
1001
GENIUS_GENOBJ-N-HTC_13
1002
{
1000
OWNER
1000
GEN
1002
}
1001
GENIUS_GENHATCH_13
1002
{
1000
DATA
1040
0.0
1042
0.5
1000
SOLID
1070
     0
1011
3.794008173068021
1021
0.9528598634049956
1031
0.0
1002
}
1002
{
1000
UCS
1010
0.0
1020
0.0
1030
0.0
1010
1.0
1020
0.0
1030
0.0
1010
0.0
1020
1.0
1030
0.0
1002
}
  0
POLYLINE
  5
24AC
330
2459
100
AcDbEntity
  8
KOPF
  6
CONTINU
 62
     2
100
AcDb2dPolyline
 66
     1
 10
0.0
 20
0.0
 30
0.0
 70
     1
  0
VERTEX
  5
24AD
330
24AC
100
AcDbEntity
  8
KOPF
  6
CONTINU
 62
     2
100
AcDbVertex
100
AcDb2dVertex
 10
5.749469475328567
 20
4.694129178314256
 30
0.0
  0
VERTEX
  5
24AE
330
24AC
100
AcDbEntity
  8
KOPF
  6
CONTINU
 62
     2
100
AcDbVertex
100
AcDb2dVertex
 10
6.995212475328571
 20
4.694129178314256
 30
0.0
  0
VERTEX
  5
24AF
330
24AC
100
AcDbEntity
  8
KOPF
  6
CONTINU
 62
     2
100
AcDbVertex
100
AcDb2dVertex
 10
6.244296975328552
 20
0.1885291783142406
 30
0.0
  0
VERTEX
  5
24B0
330
24AC
100
AcDbEntity
  8
KOPF
  6
CONTINU
 62
     2
100
AcDbVertex
100
AcDb2dVertex
 10
4.998538475328558
 20
0.1885291783142406
 30
0.0
  0
SEQEND
  5
24B1
330
24AC
100
AcDbEntity
  8
KOPF
 62
     2
  0
HATCH
  5
24B2
330
2459
100
AcDbEntity
  8
KOPF
 62
     7
100
AcDbHatch
 10
0.0
 20
0.0
 30
0.0
210
0.0
220
0.0
230
1.0
  2
SOLID
 70
     1
 71
     0
 91
        1
 92
        1
 93
        4
 72
     1
 10
5.749469475328567
 20
4.694129178314256
 11
4.998538475328558
 21
0.1885291783142406
 72
     1
 10
4.998538475328558
 20
0.1885291783142406
 11
6.244296975328552
 21
0.1885291783142406
 72
     1
 10
6.244296975328552
 20
0.1885291783142406
 11
6.995212475328571
 21
4.694129178314256
 72
     1
 10
6.995212475328571
 20
4.694129178314256
 11
5.749469475328567
 21
4.694129178314256
 97
        0
 75
     0
 76
     1
 98
        1
 10
78.94342397532856
 20
-1.062905321685718
450
        0
451
        0
460
0.0
461
0.0
452
        0
462
0.0
453
        0
470

1001
GENIUS_GENODEF_13
1002
{
1000
HIER
1070
     0
1002
}
1002
{
1000
MANEDIT
1070
     0
1002
}
1002
{
1000
NOSEL
1070
     0
1002
}
1002
{
1000
BEHIND
1070
     0
1002
}
1002
{
1000
REACTOR
1002
}
1001
GENIUS_GENOBJ-N-HTC_13
1002
{
1000
OWNER
1000
GEN
1002
}
1001
GENIUS_GENHATCH_13
1002
{
1000
DATA
1040
0.0
1042
0.5
1000
SOLID
1070
     0
1011
5.930903141474601
1021
0.6858655421573303
1031
0.0
1002
}
1002
{
1000
UCS
1010
0.0
1020
0.0
1030
0.0
1010
1.0
1020
0.0
1030
0.0
1010
0.0
1020
1.0
1030
0.0
1002
}
  0
ENDBLK
  5
24B3
330
2459
100
AcDbEntity
  8
0
100
AcDbBlockEnd
  0
BLOCK
  5
252B
330
24CE
100
AcDbEntity
  8
0
100
AcDbBlockBegin
  2
GENTITLE
 70
     2
 10
0.0
 20
0.0
 30
0.0
  3
GENTITLE
  1

  0
LINE
  5
24CF
330
24CE
100
AcDbEntity
  8
RAHM2
100
AcDbLine
 10
-184.0
 20
4.230000000000018
 30
0.0
 11
0.0
 21
4.230000000000018
 31
0.0
  0
POLYLINE
  5
24D0
330
24CE
100
AcDbEntity
  8
0
100
AcDb2dPolyline
 66
     1
 10
0.0
 20
0.0
 30
0.0
 70
     1
  0
VERTEX
  5
24D1
330
24D0
100
AcDbEntity
  8
0
100
AcDbVertex
100
AcDb2dVertex
 10
-184.0
 20
0.0
 30
0.0
  0
VERTEX
  5
24D2
330
24D0
100
AcDbEntity
  8
0
100
AcDbVertex
100
AcDb2dVertex
 10
0.0
 20
0.0
 30
0.0
  0
VERTEX
  5
24D3
330
24D0
100
AcDbEntity
  8
0
100
AcDbVertex
100
AcDb2dVertex
 10
0.0
 20
54.99000000000001
 30
0.0
  0
VERTEX
  5
24D4
330
24D0
100
AcDbEntity
  8
0
100
AcDbVertex
100
AcDb2dVertex
 10
-184.0
 20
54.99000000000001
 30
0.0
  0
SEQEND
  5
24D5
330
24D0
100
AcDbEntity
  8
0
  0
LINE
  5
24D6
330
24CE
100
AcDbEntity
  8
RAHM3
100
AcDbLine
 10
-129.54
 20
16.92000000000001
 30
0.0
 11
0.0
 21
16.92000000000001
 31
0.0
  0
LINE
  5
24D7
330
24CE
100
AcDbEntity
  8
RAHM3
100
AcDbLine
 10
-184.0
 20
38.07000000000002
 30
0.0
 11
0.0
 21
38.07000000000002
 31
0.0
  0
LINE
  5
24D8
330
24CE
100
AcDbEntity
  8
RAHM2
100
AcDbLine
 10
-86.35999999999995
 20
48.66000000000008
 30
0.0
 11
0.0
 21
48.66000000000005
 31
0.0
  0
LINE
  5
24D9
330
24CE
100
AcDbEntity
  8
RAHM2
100
AcDbLine
 10
-184.0
 20
21.15000000000003
 30
0.0
 11
-129.54
 21
21.15000000000003
 31
0.0
  0
LINE
  5
24DA
330
24CE
100
AcDbEntity
  8
RAHM2
100
AcDbLine
 10
-184.0
 20
16.92000000000001
 30
0.0
 11
-129.54
 21
16.92000000000001
 31
0.0
  0
LINE
  5
24DB
330
24CE
100
AcDbEntity
  8
RAHM2
100
AcDbLine
 10
-184.0
 20
12.69000000000003
 30
0.0
 11
-129.54
 21
12.69000000000005
 31
0.0
  0
LINE
  5
24DC
330
24CE
100
AcDbEntity
  8
RAHM2
100
AcDbLine
 10
-184.0
 20
8.460000000000036
 30
0.0
 11
-129.54
 21
8.460000000000036
 31
0.0
  0
LINE
  5
24DD
330
24CE
100
AcDbEntity
  8
RAHM2
100
AcDbLine
 10
-184.0
 20
33.84000000000003
 30
0.0
 11
-86.35999999999995
 21
33.84000000000003
 31
0.0
  0
LINE
  5
24DE
330
24CE
100
AcDbEntity
  8
RAHM2
100
AcDbLine
 10
-184.0
 20
29.61000000000002
 30
0.0
 11
-86.35999999999995
 21
29.61000000000002
 31
0.0
  0
LINE
  5
24DF
330
24CE
100
AcDbEntity
  8
RAHM2
100
AcDbLine
 10
-184.0
 20
25.38000000000002
 30
0.0
 11
-86.35999999999995
 21
25.38000000000002
 31
0.0
  0
TEXT
  5
24E0
330
24CE
100
AcDbEntity
  8
RAHM2
100
AcDbText
 10
-147.6104524425095
 20
1.199999999999988
 30
0.0
 40
2.000000000000294
  1
Datum
 72
     1
 11
-143.8742087558013
 21
1.199999999999988
 31
0.0
100
AcDbText
1001
GENIUS_GENTRA_14
1002
{
1070
     1
1000
GENTRATX,%s,(GENMSG gendwg 62)
1000
Datum
1000
d
1070
     0
1040
1.0
1070
     0
1002
}
  0
MTEXT
  5
24E1
330
24CE
100
AcDbEntity
  8
RAHM2
100
AcDbMText
 10
-182.0758250241954
 20
52.71791659667087
 30
0.0
 40
2.0
 41
53.0
 46
0.0
 71
     1
 72
     5
  1
Alle Rechte bei Glutz AG, auch für den Fall \Pvon Schutzrechtsanmeldungen. Jede Verfügungsbefugnis wie Kopier- und Weitergaberecht liegen bei uns.
 73
     1
 44
1.0
  0
TEXT
  5
24E2
330
24CE
100
AcDbEntity
  8
RAHM2
100
AcDbText
 10
-181.7083006538761
 20
1.199999999999988
 30
0.0
 40
2.000000000000294
  1
Nr.
 72
     1
 11
-180.0083006538758
 21
1.199999999999988
 31
0.0
100
AcDbText
  0
LINE
  5
24E3
330
24CE
100
AcDbEntity
  8
RAHM2
100
AcDbLine
 10
-175.26
 20
38.07000000000002
 30
0.0
 11
-175.26
 21
0.0
 31
0.0
  0
LINE
  5
24E4
330
24CE
100
AcDbEntity
  8
RAHM2
100
AcDbLine
 10
-149.8599999999999
 20
38.07000000000002
 30
0.0
 11
-149.8599999999999
 21
0.0
 31
0.0
  0
TEXT
  5
24E5
330
24CE
100
AcDbEntity
  8
RAHM2
100
AcDbText
 10
-173.0163605444353
 20
1.199999999999988
 30
0.0
 40
2.000000000000294
  1
Änderung
 72
     1
 11
-167.2801168577268
 21
1.199999999999988
 31
0.0
100
AcDbText
1001
GENIUS_GENTRA_14
1002
{
1070
     1
1000
GENTRATX,%s,(GENMSG gendwg 61)
1000
Änderung
1000
d
1070
     0
1040
1.0
1070
     0
1002
}
  0
TEXT
  5
24E6
330
24CE
100
AcDbEntity
  8
RAHM2
 62
     1
100
AcDbText
 10
-85.15692863201479
 20
1.073329287851606
 30
0.0
 40
2.0
  1
Ers. für:
100
AcDbText
  0
TEXT
  5
24E7
330
24CE
100
AcDbEntity
  8
RAHM2
 62
     1
100
AcDbText
 10
-84.81966824586265
 20
44.22656045324742
 30
0.0
 40
2.5
  1
Dim.:
100
AcDbText
  0
TEXT
  5
24E8
330
24CE
100
AcDbEntity
  8
RAHM2
100
AcDbText
 10
-85.140438076728
 20
50.60161290322582
 30
0.0
 40
2.000000000000294
  1
Massstab
100
AcDbText
  0
MTEXT
  5
24E9
330
24CE
100
AcDbEntity
  8
RAHM2
100
AcDbMText
 10
-127.7321914520351
 20
52.43824043511693
 30
0.0
 40
2.0
 41
45.0
 46
0.0
 71
     1
 72
     5
  1
Zul. Abweichung für nicht tol. \PMasse DIN 7168-m\PForm- und Lagetoleranzen nach \PDIN ISO 8015-S
 73
     1
 44
1.0
  0
LINE
  5
24EA
330
24CE
100
AcDbEntity
  8
RAHM3
100
AcDbLine
 10
-86.35999999999995
 20
54.99000000000006
 30
0.0
 11
-86.35999999999995
 21
0.0
 31
0.0
  0
LINE
  5
24EB
330
24CE
100
AcDbEntity
  8
RAHM3
100
AcDbLine
 10
-129.54
 20
54.99000000000006
 30
0.0
 11
-129.54
 21
21.15000000000003
 31
0.0
  0
INSERT
  5
24EC
330
24CE
100
AcDbEntity
  8
RAHM5
100
AcDbBlockReference
  2
GLUTZ1
 10
-128.5393330295188
 20
8.137302263146466
 30
0.0
  0
LINE
  5
24ED
330
24CE
100
AcDbEntity
  8
RAHM3
100
AcDbLine
 10
-129.54
 20
21.15000000000003
 30
0.0
 11
-86.35999999999995
 21
21.15000000000003
 31
0.0
  0
TEXT
  5
24EE
330
24CE
100
AcDbEntity
  8
RAHM2
100
AcDbText
 10
-128.427832744091
 20
18.09511665764091
 30
0.0
 40
2.000000000000294
  1
Oberfläche nach VSM 10231
100
AcDbText
  0
TEXT
  5
24EF
330
24CE
100
AcDbEntity
  8
RAHM2
100
AcDbText
 10
-117.0692984212765
 20
35.04000000000002
 30
0.0
 40
2.000000000000294
  1
Datum
 41
0.983632218248894
 72
     1
 11
-113.3942087558013
 21
35.04000000000002
 31
0.0
100
AcDbText
1001
GENIUS_GENTRA_14
1002
{
1070
     1
1000
GENTRATX{3.38},%s,(GENMSG gendwg 62)
1000
Datum
1000
d
1070
     0
1040
1.0
1070
     0
1002
}
  0
LINE
  5
24F0
330
24CE
100
AcDbEntity
  8
RAHM3
100
AcDbLine
 10
-129.54
 20
21.15000000000003
 30
0.0
 11
-129.54
 21
0.0
 31
0.0
  0
LINE
  5
24F1
330
24CE
100
AcDbEntity
  8
RAHM2
100
AcDbLine
 10
-137.16
 20
38.07000000000002
 30
0.0
 11
-137.16
 21
0.0
 31
0.0
  0
TEXT
  5
24F2
330
24CE
100
AcDbEntity
  8
RAHM2
100
AcDbText
 10
-136.5823351702584
 20
1.19999999999851
 30
0.0
 40
2.000000000000294
  1
Name
100
AcDbText
1001
GENIUS_GENTRA_14
1002
{
1070
     1
1000
GENTRATX{3.31},%s,(GENMSG gendwg 63)
1000
Name
1000
d
1070
     0
1040
1.0
1070
     0
1002
}
  0
TEXT
  5
24F3
330
24CE
100
AcDbEntity
  8
RAHM2
100
AcDbText
 10
-128.4506977874778
 20
1.220747800586508
 30
0.0
 40
2.000000000000196
  1
Datei:
 41
0.8
100
AcDbText
  0
LINE
  5
24F4
330
24CE
100
AcDbEntity
  8
RAHM2
100
AcDbLine
 10
-119.38
 20
38.07000000000002
 30
0.0
 11
-119.38
 21
21.15000000000003
 31
0.0
  0
TEXT
  5
24F5
330
24CE
100
AcDbEntity
  8
RAHM2
100
AcDbText
 10
-128.34
 20
22.25000000000003
 30
0.0
 40
2.000000000000294
  1
Freig.
100
AcDbText
  0
TEXT
  5
24F6
330
24CE
100
AcDbEntity
  8
RAHM2
100
AcDbText
 10
-128.34
 20
26.48000000000002
 30
0.0
 40
2.000000000000294
  1
Gepr.
100
AcDbText
1001
GENIUS_GENTRA_14
1002
{
1070
     1
1000
GENTRATX{4.19},%s,(GENMSG gendwg 68)
1000
Gepr.
1000
d
1070
     0
1040
1.0
1070
     0
1002
}
  0
TEXT
  5
24F7
330
24CE
100
AcDbEntity
  8
RAHM2
100
AcDbText
 10
-128.34
 20
30.71000000000001
 30
0.0
 40
2.000000000000294
  1
Bearb.
100
AcDbText
1001
GENIUS_GENTRA_14
1002
{
1070
     1
1000
GENTRATX{4.13},%s,(GENMSG gendwg 67)
1000
Bearb.
1000
d
1070
     0
1040
1.0
1070
     0
1002
}
  0
MTEXT
  5
24F8
330
24CE
100
AcDbEntity
  8
RAHM3
 62
     2
100
AcDbMText
 10
-109.3434521853635
 20
8.705840189037161
 30
0.0
 40
2.0
 41
76.23000000000001
 46
0.0
 71
     1
 72
     5
  1
CH-4502 Solothurn
 73
     1
 44
1.0
  0
TEXT
  5
24F9
330
24CE
100
AcDbEntity
  8
RAHM5
 62
     7
100
AcDbText
 10
-109.810847736663
 20
11.70157078455995
 30
0.0
 40
3.5
  1
Glutz AG
100
AcDbText
  0
TEXT
  5
24FA
330
24CE
100
AcDbEntity
  8
RAHM2
100
AcDbText
 10
-101.0179677247366
 20
35.04000000000002
 30
0.0
 40
2.000000000000294
  1
Name
 72
     2
 11
-95.11796772473577
 21
35.04000000000002
 31
0.0
100
AcDbText
1001
GENIUS_GENTRA_14
1002
{
1070
     1
1000
GENTRATX,%s,(GENMSG gendwg 63)
1000
Name
1000
d
1070
     0
1040
1.0
1070
     0
1002
}
  0
LINE
  5
24FB
330
24CE
100
AcDbEntity
  8
RAHM2
100
AcDbLine
 10
-104.1399999999999
 20
38.07000000000002
 30
0.0
 11
-104.1399999999999
 21
21.15000000000003
 31
0.0
  0
TEXT
  5
24FC
330
24CE
100
AcDbEntity
  8
RAHM2
 62
     1
100
AcDbText
 10
-44.97248047431821
 20
1.073329287851606
 30
0.0
 40
2.0
  1
Ers. durch:
100
AcDbText
  0
TEXT
  5
24FD
330
24CE
100
AcDbEntity
  8
RAHM2
100
AcDbText
 10
-49.20092087271348
 20
50.6016129032258
 30
0.0
 40
2.000000000000196
  1
Position
 41
0.8
100
AcDbText
1001
GENIUS_GENTRA_14
1002
{
1070
     1
1000
GENTRATX{6.37},%s,(GENMSG gendwg 74)
1000
Position
1000
d
1070
     0
1040
0.8
1070
     0
1002
}
  0
LINE
  5
24FE
330
24CE
100
AcDbEntity
  8
RAHM2
100
AcDbLine
 10
-50.80000000000007
 20
54.99000000000006
 30
0.0
 11
-50.80000000000007
 21
48.66000000000008
 31
0.0
  0
TEXT
  5
24FF
330
24CE
100
AcDbEntity
  8
RAHM2
 62
     1
100
AcDbText
 10
-34.73648137028408
 20
44.05799334916093
 30
0.0
 40
2.5
  1
Mat.:
100
AcDbText
  0
TEXT
  5
2500
330
24CE
100
AcDbEntity
  8
RAHM2
100
AcDbText
 10
-27.39162270706311
 20
51.00241935483871
 30
0.0
 40
2.000000000000196
  1
Menge
 41
0.8
100
AcDbText
1001
GENIUS_GENTRA_14
1002
{
1070
     1
1000
GENTRATX{4.85},%s,(GENMSG gendwg 75)
1000
Menge
1000
d
1070
     0
1040
0.8
1070
     0
1002
}
  0
LINE
  5
2501
330
24CE
100
AcDbEntity
  8
RAHM2
100
AcDbLine
 10
-10.15999999999997
 20
38.07000000000002
 30
0.0
 11
-10.15999999999997
 21
0.0
 31
0.0
  0
TEXT
  5
2502
330
24CE
100
AcDbEntity
  8
RAHM2
100
AcDbText
 10
-3.184415883363063
 20
5.60997067448676
 30
0.0
 40
2.000000000000294
  1
Bl
 72
     1
 11
-1.984415883362885
 21
5.60997067448676
 31
0.0
100
AcDbText
1001
GENIUS_GENTRA_14
1002
{
1070
     1
1000
GENTRATX,%s,(GENMSG gendwg 77)
1000
Bl
1000
d
1070
     0
1040
1.0
1070
     0
1002
}
  0
LINE
  5
2503
330
24CE
100
AcDbEntity
  8
RAHM2
100
AcDbLine
 10
-10.15999999999997
 20
8.460000000000036
 30
0.0
 11
0.0
 21
8.460000000000036
 31
0.0
  0
TEXT
  5
2504
330
24CE
100
AcDbEntity
  8
RAHM2
100
AcDbText
 10
-8.890271956152652
 20
14.06744868035187
 30
0.0
 40
2.000000000000294
  1
Blatt
 72
     1
 11
-5.790271956152196
 21
14.06744868035187
 31
0.0
100
AcDbText
1001
GENIUS_GENTRA_14
1002
{
1070
     1
1000
GENTRATX,%s,(GENMSG gendwg 76)
1000
Blatt
1000
d
1070
     0
1040
1.0
1070
     0
1002
}
  0
TEXT
  5
2505
330
24CE
100
AcDbEntity
  8
RAHM2
 62
     1
100
AcDbText
 10
-9.679253904721178
 20
27.5319650583823
 30
0.0
 40
1.8
  1
Autocad
100
AcDbText
  0
LINE
  5
2506
330
24CE
100
AcDbEntity
  8
RAHM2
100
AcDbLine
 10
-10.15999999999997
 20
24.89307592814931
 30
0.0
 11
0.0
 21
24.89307592814931
 31
0.0
  0
LINE
  5
2507
330
24CE
100
AcDbEntity
  8
RAHM2
 62
     1
100
AcDbLine
 10
-3.001950787189798
 20
34.14040492715844
 30
0.0
 11
-9.501950787189798
 21
34.14040492715844
 31
0.0
1001
GENIUS_GENOREF_13
1005
2526
  0
LINE
  5
2508
330
24CE
100
AcDbEntity
  8
RAHM3
  6
Continuous
 62
     2
100
AcDbLine
 10
-5.501950787189798
 20
32.55926609707427
 30
0.0
 11
-8.501950787189798
 21
33.43329814597189
 31
0.0
  0
LINE
  5
2509
330
24CE
100
AcDbEntity
  8
RAHM2
  6
Continuous
 62
     2
100
AcDbLine
 10
-5.501950787189798
 20
35.72154375724264
 30
0.0
 11
-8.501950787189798
 21
34.847511708345
 31
0.0
  0
LINE
  5
250A
330
24CE
100
AcDbEntity
  8
RAHM3
  6
Continuous
 62
     2
100
AcDbLine
 10
-8.501950787189798
 20
34.847511708345
 30
0.0
 11
-8.501950787189798
 21
33.43329814597189
 31
0.0
  0
LINE
  5
250B
330
24CE
100
AcDbEntity
  8
RAHM2
 62
     1
100
AcDbLine
 10
-3.001950787189798
 20
34.14040492715844
 30
0.0
 11
-3.001950787189798
 21
36.64040492715844
 31
0.0
1001
GENIUS_GENOREF_13
1005
2526
  0
CIRCLE
  5
250C
330
24CE
100
AcDbEntity
  8
RAHM3
  6
Continuous
 62
     2
100
AcDbCircle
 10
-3.001950787189798
 20
34.14040492715844
 30
0.0
 40
0.7071067811865475
  0
CIRCLE
  5
250D
330
24CE
100
AcDbEntity
  8
RAHM3
  6
Continuous
 62
     2
100
AcDbCircle
 10
-3.001950787189798
 20
34.14040492715844
 30
0.0
 40
1.581138830084189
  0
LINE
  5
250E
330
24CE
100
AcDbEntity
  8
RAHM2
 62
     1
100
AcDbLine
 10
-3.001950787189798
 20
34.14040492715844
 30
0.0
 11
-1.184315815628394
 21
34.14040492715844
 31
0.0
1001
GENIUS_GENOREF_13
1005
2526
  0
LINE
  5
250F
330
24CE
100
AcDbEntity
  8
RAHM3
  6
Continuous
 62
     2
100
AcDbLine
 10
-5.501950787189798
 20
35.72154375724264
 30
0.0
 11
-5.501950787189798
 21
32.55926609707427
 31
0.0
  0
LINE
  5
2510
330
24CE
100
AcDbEntity
  8
RAHM2
 62
     1
100
AcDbLine
 10
-3.001950787189798
 20
34.14040492715844
 30
0.0
 11
-3.001950787189798
 21
31.64040492715844
 31
0.0
1001
GENIUS_GENOREF_13
1005
2526
  0
ATTDEF
  5
2511
330
24CE
100
AcDbEntity
  8
RAHM5
100
AcDbText
 10
-15.33828885467221
 20
6.901874423110257
 30
0.0
 40
7.0
  1

 72
     2
 11
-15.33828885467221
 21
6.901874423110257
 31
0.0
100
AcDbAttributeDefinition
  3
Zeichnungsnummer
  2
GEN-TITLE-NR{13.37}
 70
     0
280
     0
1001
GENIUS_GENTRA_14
1002
{
1070
     3
1000
GENTRAPR,%s,(GENMSG gendwg 84)
1000
Zeichnungsnummer
1000
d
1070
     0
1070
     0
1002
}
  0
ATTDEF
  5
2512
330
24CE
100
AcDbEntity
  8
RAHM5
100
AcDbText
 10
-81.2071643690715
 20
29.17459677419356
 30
0.0
 40
5.00000000000049
  1

100
AcDbAttributeDefinition
  3
Zeichnungsname (mx. 20 Z.)
  2
GEN-TITLE-DES1{15.54}
 70
     0
280
     0
1001
GENIUS_GENTRA_14
1002
{
1070
     3
1000
GENTRAPR,%s,(GENMSG gendwg 87)
1000
Zeichnungsname (mx. 20 Z.)
1000
d
1070
     0
1070
     0
1002
}
  0
ATTDEF
  5
2513
330
24CE
100
AcDbEntity
  8
RAHM3
100
AcDbText
 10
-80.70716436907151
 20
21.17459677419356
 30
0.0
 40
3.500000000000171
  1

100
AcDbAttributeDefinition
  3
Untertitel
  2
GEN-TITLE-DES2{21.21}
 70
     0
280
     0
  0
ATTDEF
  5
2514
330
24CE
100
AcDbEntity
  8
RAHM2
100
AcDbText
 10
-118.7019468872817
 20
30.41000000000003
 30
0.0
 40
2.500000000000367
  1

100
AcDbAttributeDefinition
  3
Bearbeitungsdatum
  2
GEN-TITLE-DAT{5.44}
 70
     0
280
     0
1001
GENIUS_GENTRA_14
1002
{
1070
     3
1000
GENTRAPR,%s,(GENMSG gendwg 80)
1000
Bearbeitungsdatum
1000
d
1070
     0
1070
     0
1002
}
  0
ATTDEF
  5
2515
330
24CE
100
AcDbEntity
  8
RAHM2
100
AcDbText
 10
-102.5325281430328
 20
30.41000000000003
 30
0.0
 40
2.500000000000367
  1

100
AcDbAttributeDefinition
  3
Name des Bearbeiters
  2
GEN-TITLE-NAME{5}
 70
     0
280
     0
1001
GENIUS_GENTRA_14
1002
{
1070
     3
1000
GENTRAPR,%s,(GENMSG gendwg 81)
1000
Name des Bearbeiters
1000
d
1070
     0
1070
     0
1002
}
  0
ATTDEF
  5
2516
330
24CE
100
AcDbEntity
  8
RAHM2
100
AcDbText
 10
-118.5451003624019
 20
26.17804422461478
 30
0.0
 40
2.500000000000367
  1

100
AcDbAttributeDefinition
  3
Prüfdatum
  2
GEN-TITLE-CHKD{5.41}
 70
     0
280
     0
1001
GENIUS_GENTRA_14
1002
{
1070
     3
1000
GENTRAPR,%s,(GENMSG gendwg 78)
1000
Prüfdatum
1000
d
1070
     0
1070
     0
1002
}
  0
ATTDEF
  5
2517
330
24CE
100
AcDbEntity
  8
RAHM2
100
AcDbText
 10
-102.0619852594997
 20
26.4915214039151
 30
0.0
 40
2.500000000000367
  1

100
AcDbAttributeDefinition
  3
Geprüft von
  2
GEN-TITLE-CHKM{5}
 70
     0
280
     0
1001
GENIUS_GENTRA_14
1002
{
1070
     3
1000
GENTRAPR,%s,(GENMSG gendwg 72)
1000
Geprüft von
1000
d
1070
     0
1070
     0
1002
}
  0
ATTDEF
  5
2518
330
24CE
100
AcDbEntity
  8
RAHM2
100
AcDbText
 10
-122.389950305102
 20
0.7960860790287257
 30
0.0
 40
2.5
  1

 41
0.8
100
AcDbAttributeDefinition
  3
Dateiname
  2
GEN-TITLE-DWG{8.92}
 70
     0
280
     0
1001
GENIUS_GENTRA_14
1002
{
1070
     3
1000
GENTRAPR,%s,(GENMSG gendwg 82)
1000
Dateiname
1000
d
1070
     0
1070
     0
1002
}
  0
ATTDEF
  5
2519
330
24CE
100
AcDbEntity
  8
RAHM3
100
AcDbText
 10
-7.704962298164673
 20
19.80420931536736
 30
0.0
 40
3.0
  1
A 4
 41
0.8
100
AcDbAttributeDefinition
  3
Format
  2
FORMAT
 70
     0
280
     0
  0
ATTDEF
  5
251A
330
24CE
100
AcDbEntity
  8
RAHM3
100
AcDbText
 10
-5.70040711384613
 20
9.420007355724408
 30
0.0
 40
3.0
  1
1
 41
0.8
 72
     1
 11
-5.100407113846131
 21
9.420007355724408
 31
0.0
100
AcDbAttributeDefinition
  3
Blatt
  2
GEN-TITLE-SHEET{2.62}
 70
     0
280
     0
1001
GENIUS_GENTRA_14
1002
{
1070
     3
1000
GENTRAPR,%s,(GENMSG gendwg 76)
1000
Blatt
1000
d
1070
     0
1070
     0
1002
}
  0
ATTDEF
  5
251B
330
24CE
100
AcDbEntity
  8
RAHM2
 62
     2
100
AcDbText
 10
-8.704555265270869
 20
5.615349562008077
 30
0.0
 40
2.0
  1
1
100
AcDbAttributeDefinition
  3
Anzahl Blatt
  2
ANZBLATT
 70
     0
280
     0
  0
ATTDEF
  5
251C
330
24CE
100
AcDbEntity
  8
RAHM2
 62
     2
100
AcDbText
 10
-74.59407938355946
 20
1.069999999999993
 30
0.0
 40
2.0
  1

100
AcDbAttributeDefinition
  3
Ersatz für
  2
ERS.FÜR
 70
     0
280
     0
  0
ATTDEF
  5
251D
330
24CE
100
AcDbEntity
  8
RAHM2
 62
     2
100
AcDbText
 10
-31.51210471117906
 20
1.005195332250792
 30
0.0
 40
2.0
  1

100
AcDbAttributeDefinition
  3
Ersetzt durch:
  2
ERS.DURCH
 70
     0
280
     0
  0
ATTDEF
  5
251E
330
24CE
100
AcDbEntity
  8
RAHM3
100
AcDbText
 10
-70.95960978726714
 20
50.01451612903077
 30
0.0
 40
3.5
  1

 41
0.8
100
AcDbAttributeDefinition
  3
Maßstab
  2
GEN-TITLE-SCA{5.42}
 70
     0
280
     0
1001
GENIUS_GENTRA_14
1002
{
1070
     3
1000
GENTRAPR,%s,(GENMSG gendwg 83)
1000
Maßstab
1000
d
1070
     0
1070
     0
1002
}
  0
ATTDEF
  5
251F
330
24CE
100
AcDbEntity
  8
RAHM3
100
AcDbText
 10
-35.713449226948
 20
50.01451612903224
 30
0.0
 40
3.500000000000343
  1

 41
0.8
100
AcDbAttributeDefinition
  3
Positionsnummer
  2
GEN-TITLE-POSI{2.20}
 70
     0
280
     0
1001
GENIUS_GENTRA_14
1002
{
1070
     3
1000
GENTRAPR,%s,(GENMSG gendwg 31)
1000
Positionsnummer
1000
d
1070
     0
1070
     0
1002
}
  0
ATTDEF
  5
2520
330
24CE
100
AcDbEntity
  8
RAHM3
100
AcDbText
 10
-16.73297243245099
 20
50.01451612903077
 30
0.0
 40
3.500000000000343
  1

 41
0.8
100
AcDbAttributeDefinition
  3
Menge
  2
GEN-TITLE-QTY{4.38}
 70
     0
280
     0
1001
GENIUS_GENTRA_14
1002
{
1070
     3
1000
GENTRAPR,%s,(GENMSG gendwg 32)
1000
Menge
1000
d
1070
     0
1070
     0
1002
}
  0
ATTDEF
  5
2521
330
24CE
100
AcDbEntity
  8
RAHM3
100
AcDbText
 10
-76.44237435552025
 20
44.14203488553849
 30
0.0
 40
3.0
  1

 41
0.8
100
AcDbAttributeDefinition
  3
Dimension 
  2
GEN-TITLE-NORM1{14.84}
 70
     0
280
     0
  0
ATTDEF
  5
2522
330
24CE
100
AcDbEntity
  8
RAHM3
100
AcDbText
 10
-26.96779464762585
 20
44.13359241578521
 30
0.0
 40
3.0
  1

 41
0.8
100
AcDbAttributeDefinition
  3
Material 
  2
GEN-TITLE-MAT1{11.15}
 70
     0
280
     0
  0
ATTDEF
  5
2523
330
24CE
100
AcDbEntity
  8
RAHM3
100
AcDbText
 10
-76.34994284560588
 20
39.78860215053771
 30
0.0
 40
3.0
  1

 41
0.8
100
AcDbAttributeDefinition
  3
Norm 
  2
GEN-TITLE-NORM2{14.89}
 70
     0
280
     0
  0
ATTDEF
  5
2524
330
24CE
100
AcDbEntity
  8
RAHM3
100
AcDbText
 10
-24.65644872549956
 20
39.78860215053771
 30
0.0
 40
3.0
  1

 41
0.8
100
AcDbAttributeDefinition
  3
Masse
  2
GEN-TITLE-MAT2{11.09}
 70
     0
280
     0
  0
ATTDEF
  5
2525
330
24CE
100
AcDbEntity
  8
RAHM2
100
AcDbText
 10
-5.369955967542637
 20
0.4161834165005303
 30
0.0
 40
3.000000000000294
  1

 72
     1
 11
-5.369955967542637
 21
0.4161834165005303
 31
0.0
100
AcDbAttributeDefinition
  3
Plot-Datum
  2
GEN-TITLE-PLOT{2.94}
 70
     0
280
     0
1001
GENIUS_GENTRA_14
1002
{
1070
     3
1000
GENTRAPR,%s,(GENMSG gendwg 91)
1000
Plot-Datum
1000
d
1070
     0
1070
     0
1002
}
  0
POINT
  5
2526
330
24CE
100
AcDbEntity
  8
0
 60
     1
100
AcDbPoint
 10
-24.81577449459507
 20
71.88149968582945
 30
0.0
1001
GENIUS_GENODEF_13
1002
{
1000
HIER
1070
    10
1002
}
1002
{
1000
MANEDIT
1070
     1
1002
}
1002
{
1000
NOSEL
1070
     0
1002
}
1002
{
1000
BEHIND
1070
     0
1002
}
1002
{
1000
REACTOR
1002
}
1001
GENIUS_GENOBJ-N-CRS_13
1002
{
1000
OWNER
1000
GEN
1002
}
1001
GENIUS_GENOENT_13
1002
{
1000
MYREF
1005
2526
1002
}
1002
{
1000
GRP
1005
0
1002
}
1001
GENIUS_GENOLIS_13
1002
{
1000
ENT
1005
2510
1005
2507
1005
250B
1005
250E
1002
}
  0
TEXT
  5
2527
330
24CE
100
AcDbEntity
  8
RAHM2
 62
     1
100
AcDbText
 10
-84.81966824586265
 20
40.02531971157469
 30
0.0
 40
2.5
  1
Norm:
100
AcDbText
  0
TEXT
  5
2528
330
24CE
100
AcDbEntity
  8
RAHM2
 62
     1
100
AcDbText
 10
-34.73648137028408
 20
40.02531971157469
 30
0.0
 40
2.5
  1
Masse:
100
AcDbText
  0
POINT
  5
2529
330
24CE
100
AcDbEntity
  8
0
 60
     1
100
AcDbPoint
 10
0.0
 20
0.0
 30
0.0
1001
GENIUS_GENODEF_13
1002
{
1000
HIER
1070
     1
1002
}
1002
{
1000
MANEDIT
1070
     0
1002
}
1002
{
1000
NOSEL
1070
     0
1002
}
1002
{
1000
BEHIND
1070
     0
1002
}
1002
{
1000
REACTOR
1002
}
1001
GENIUS_GENOBJ-N-SDF_13
1002
{
1000
OWNER
1000
GEN
1002
}
1001
GENIUS_GENOENT_13
1002
{
1000
MYREF
1005
2529
1002
}
1002
{
1000
GRP
1005
0
1002
}
1001
GENIUS_GENOLIS_13
1002
{
1000
ENT
1005
0
1002
}
  0
ENDBLK
  5
252C
330
24CE
100
AcDbEntity
  8
0
100
AcDbBlockEnd
  0
BLOCK
  5
2BCC
330
2BC2
100
AcDbEntity
  8
0
100
AcDbBlockBegin
  2
*D14
 70
     1
 10
0.0
 20
0.0
 30
0.0
  3
*D14
  1

  0
LINE
  5
2BCE
330
2BC2
100
AcDbEntity
  8
AM_5
100
AcDbLine
 10
-97.04336986053499
 20
203.3523363484369
 30
0.0
 11
-97.04336986053499
 21
177.3523363484369
 31
0.0
  0
LINE
  5
2BCF
330
2BC2
100
AcDbEntity
  8
AM_5
100
AcDbLine
 10
34.24533795194292
 20
243.4501717439974
 30
0.0
 11
34.24533795194292
 21
177.3523363484369
 31
0.0
  0
LINE
  5
2BD0
330
2BC2
100
AcDbEntity
  8
AM_5
100
AcDbLine
 10
-92.04336986053499
 20
179.3523363484369
 30
0.0
 11
29.24533795194292
 21
179.3523363484369
 31
0.0
  0
SOLID
  5
2BD1
330
2BC2
100
AcDbEntity
  8
AM_5
100
AcDbTrace
 10
-92.04336986053499
 20
180.1856696817702
 30
0.0
 11
-92.04336986053499
 21
178.5190030151035
 31
0.0
 12
-97.04336986053499
 22
179.3523363484369
 32
0.0
 13
-97.04336986053499
 23
179.3523363484369
 33
0.0
  0
SOLID
  5
2BD2
330
2BC2
100
AcDbEntity
  8
AM_5
100
AcDbTrace
 10
29.24533795194292
 20
180.1856696817702
 30
0.0
 11
29.24533795194292
 21
178.5190030151035
 31
0.0
 12
34.24533795194292
 22
179.3523363484369
 32
0.0
 13
34.24533795194292
 23
179.3523363484369
 33
0.0
  0
MTEXT
  5
2BD3
330
2BC2
100
AcDbEntity
  8
AM_5
 62
     2
100
AcDbMText
 10
-31.39901595429604
 20
185.8523363484369
 30
0.0
 40
7.0
 41
0.0
 46
0.0
 71
     5
 72
     1
  1
131
 73
     1
 44
1.0
  0
POINT
  5
2BD4
330
2BC2
100
AcDbEntity
  8
Defpoints
 62
     0
100
AcDbPoint
 10
-97.04336986053499
 20
203.3523363484369
 30
0.0
  0
POINT
  5
2BD5
330
2BC2
100
AcDbEntity
  8
Defpoints
 62
     0
100
AcDbPoint
 10
34.24533795194292
 20
243.4501717439974
 30
0.0
  0
POINT
  5
2BD6
330
2BC2
100
AcDbEntity
  8
Defpoints
 62
     0
100
AcDbPoint
 10
34.24533795194292
 20
179.3523363484369
 30
0.0
  0
ENDBLK
  5
2BCD
330
2BC2
100
AcDbEntity
  8
0
100
AcDbBlockEnd
  0
BLOCK
  5
2BF0
330
2BE6
100
AcDbEntity
  8
0
100
AcDbBlockBegin
  2
*D15
 70
     1
 10
0.0
 20
0.0
 30
0.0
  3
*D15
  1

  0
LINE
  5
2BF2
330
2BE6
100
AcDbEntity
  8
AM_5
100
AcDbLine
 10
-97.04336986053499
 20
258.3523363484368
 30
0.0
 11
-123.043370870535
 21
258.3523363484368
 31
0.0
  0
LINE
  5
2BF3
330
2BE6
100
AcDbEntity
  8
AM_5
100
AcDbLine
 10
-96.043369860535
 20
202.3523363484368
 30
0.0
 11
-123.043370870535
 21
202.3523363484368
 31
0.0
  0
LINE
  5
2BF4
330
2BE6
100
AcDbEntity
  8
AM_5
100
AcDbLine
 10
-121.043370870535
 20
253.3523363484369
 30
0.0
 11
-121.043370870535
 21
207.3523363484369
 31
0.0
  0
SOLID
  5
2BF5
330
2BE6
100
AcDbEntity
  8
AM_5
100
AcDbTrace
 10
-121.8767042038683
 20
253.3523363484369
 30
0.0
 11
-120.2100375372016
 21
253.3523363484369
 31
0.0
 12
-121.043370870535
 22
258.3523363484368
 32
0.0
 13
-121.043370870535
 23
258.3523363484368
 33
0.0
  0
SOLID
  5
2BF6
330
2BE6
100
AcDbEntity
  8
AM_5
100
AcDbTrace
 10
-121.8767042038683
 20
207.3523363484369
 30
0.0
 11
-120.2100375372017
 21
207.3523363484369
 31
0.0
 12
-121.043370870535
 22
202.3523363484368
 32
0.0
 13
-121.043370870535
 23
202.3523363484368
 33
0.0
  0
MTEXT
  5
2BF7
330
2BE6
100
AcDbEntity
  8
AM_5
 62
     2
100
AcDbMText
 10
-127.543370870535
 20
230.3523363484369
 30
0.0
 40
7.0
 41
0.0
 46
0.0
 71
     5
 72
     1
  1
56
 11
0.0000000000000001
 21
1.0
 31
0.0
 73
     1
 44
1.0
  0
POINT
  5
2BF8
330
2BE6
100
AcDbEntity
  8
Defpoints
 62
     0
100
AcDbPoint
 10
-97.04336986053499
 20
258.3523363484368
 30
0.0
  0
POINT
  5
2BF9
330
2BE6
100
AcDbEntity
  8
Defpoints
 62
     0
100
AcDbPoint
 10
-96.043369860535
 20
202.3523363484368
 30
0.0
  0
POINT
  5
2BFA
330
2BE6
100
AcDbEntity
  8
Defpoints
 62
     0
100
AcDbPoint
 10
-121.043370870535
 20
202.3523363484368
 30
0.0
  0
ENDBLK
  5
2BF1
330
2BE6
100
AcDbEntity
  8
0
100
AcDbBlockEnd
  0
BLOCK
  5
2C14
330
2C0A
100
AcDbEntity
  8
0
100
AcDbBlockBegin
  2
*D16
 70
     1
 10
0.0
 20
0.0
 30
0.0
  3
*D16
  1

  0
LINE
  5
2C22
330
2C0A
100
AcDbEntity
  8
AM_5
100
AcDbLine
 10
-75.04336986053499
 20
258.3523363484368
 30
0.0
 11
-75.04336986053499
 21
284.3523363484369
 31
0.0
  0
LINE
  5
2C23
330
2C0A
100
AcDbEntity
  8
AM_5
100
AcDbLine
 10
-97.04336986053499
 20
258.3523363484368
 30
0.0
 11
-97.04336986053499
 21
284.3523363484369
 31
0.0
  0
LINE
  5
2C24
330
2C0A
100
AcDbEntity
  8
AM_5
100
AcDbLine
 10
-80.043369860535
 20
282.3523363484369
 30
0.0
 11
-92.04336986053499
 21
282.3523363484369
 31
0.0
  0
SOLID
  5
2C25
330
2C0A
100
AcDbEntity
  8
AM_5
100
AcDbTrace
 10
-80.043369860535
 20
283.1856696817702
 30
0.0
 11
-80.043369860535
 21
281.5190030151035
 31
0.0
 12
-75.04336986053499
 22
282.3523363484369
 32
0.0
 13
-75.04336986053499
 23
282.3523363484369
 33
0.0
  0
SOLID
  5
2C26
330
2C0A
100
AcDbEntity
  8
AM_5
100
AcDbTrace
 10
-92.04336986053499
 20
283.1856696817702
 30
0.0
 11
-92.04336986053499
 21
281.5190030151035
 31
0.0
 12
-97.04336986053499
 22
282.3523363484369
 32
0.0
 13
-97.04336986053499
 23
282.3523363484369
 33
0.0
  0
MTEXT
  5
2C27
330
2C0A
100
AcDbEntity
  8
AM_5
 62
     2
100
AcDbMText
 10
-86.043369860535
 20
288.8530253248148
 30
0.0
 40
7.0
 41
0.0
 46
0.0
 71
     5
 72
     1
  1
%%c22
 73
     1
 44
1.0
  0
POINT
  5
2C28
330
2C0A
100
AcDbEntity
  8
Defpoints
 62
     0
100
AcDbPoint
 10
-75.04336986053499
 20
258.3523363484368
 30
0.0
  0
POINT
  5
2C29
330
2C0A
100
AcDbEntity
  8
Defpoints
 62
     0
100
AcDbPoint
 10
-97.04336986053499
 20
258.3523363484368
 30
0.0
  0
POINT
  5
2C2A
330
2C0A
100
AcDbEntity
  8
Defpoints
 62
     0
100
AcDbPoint
 10
-97.04336986053499
 20
282.3523363484369
 30
0.0
  0
ENDBLK
  5
2C15
330
2C0A
100
AcDbEntity
  8
0
100
AcDbBlockEnd
  0
BLOCK
  5
2C47
330
2C3B
100
AcDbEntity
  8
0
100
AcDbBlockBegin
  2
*D17
 70
     1
 10
0.0
 20
0.0
 30
0.0
  3
*D17
  1

  0
LINE
  5
2C49
330
2C3B
100
AcDbEntity
  8
AM_5
100
AcDbLine
 10
30.14210633392382
 20
245.1000357618651
 30
0.0
 11
56.14210633392382
 21
245.1000357618651
 31
0.0
  0
LINE
  5
2C4A
330
2C3B
100
AcDbEntity
  8
AM_5
100
AcDbLine
 10
-75.04336986053499
 20
258.3523363484368
 30
0.0
 11
56.14210633392383
 21
258.3523363484368
 31
0.0
  0
LINE
  5
2C4B
330
2C3B
100
AcDbEntity
  8
AM_5
100
AcDbLine
 10
54.14210633392382
 20
240.1000357618651
 30
0.0
 11
54.14210633392381
 21
235.1000357618651
 31
0.0
  0
LINE
  5
2C4C
330
2C3B
100
AcDbEntity
  8
AM_5
100
AcDbLine
 10
54.14210633392382
 20
263.3523363484368
 30
0.0
 11
54.14210633392382
 21
268.3523363484368
 31
0.0
  0
LINE
  5
2C4D
330
2C3B
100
AcDbEntity
  8
AM_5
100
AcDbLine
 10
54.14210633392382
 20
245.1000357618651
 30
0.0
 11
54.14210633392382
 21
258.3523363484368
 31
0.0
  0
SOLID
  5
2C4E
330
2C3B
100
AcDbEntity
  8
AM_5
100
AcDbTrace
 10
53.30877300059048
 20
240.1000357618651
 30
0.0
 11
54.97543966725715
 21
240.1000357618651
 31
0.0
 12
54.14210633392382
 22
245.1000357618651
 32
0.0
 13
54.14210633392382
 23
245.1000357618651
 33
0.0
  0
SOLID
  5
2C4F
330
2C3B
100
AcDbEntity
  8
AM_5
100
AcDbTrace
 10
53.30877300059048
 20
263.3523363484368
 30
0.0
 11
54.97543966725715
 21
263.3523363484368
 31
0.0
 12
54.14210633392382
 22
258.3523363484368
 32
0.0
 13
54.14210633392382
 23
258.3523363484368
 33
0.0
  0
MTEXT
  5
2C50
330
2C3B
100
AcDbEntity
  8
AM_5
 62
     2
100
AcDbMText
 10
47.64210633392377
 20
251.726186055151
 30
0.0
 40
7.0
 41
0.0
 46
0.0
 71
     5
 72
     1
  1
13
 11
0.0000000000000001
 21
1.0
 31
0.0
 73
     1
 44
1.0
  0
POINT
  5
2C51
330
2C3B
100
AcDbEntity
  8
Defpoints
 62
     0
100
AcDbPoint
 10
30.14210633392382
 20
245.1000357618651
 30
0.0
  0
POINT
  5
2C52
330
2C3B
100
AcDbEntity
  8
Defpoints
 62
     0
100
AcDbPoint
 10
-75.04336986053499
 20
258.3523363484368
 30
0.0
  0
POINT
  5
2C53
330
2C3B
100
AcDbEntity
  8
Defpoints
 62
     0
100
AcDbPoint
 10
54.14210633392382
 20
258.3523363484368
 30
0.0
  0
ENDBLK
  5
2C48
330
2C3B
100
AcDbEntity
  8
0
100
AcDbBlockEnd
  0
BLOCK
  5
2C67
330
2C58
100
AcDbEntity
  8
0
100
AcDbBlockBegin
  2
*D18
 70
     1
 10
0.0
 20
0.0
 30
0.0
  3
*D18
  1

  0
ARC
  5
2C79
330
2C58
100
AcDbEntity
  8
AM_5
100
AcDbCircle
 10
17.95663013946497
 20
202.3523363484368
 30
0.0
 40
27.23545811027986
100
AcDbArc
 50
78.5334278322956
 51
169.4665721677041
  0
SOLID
  5
2C7A
330
2C58
100
AcDbEntity
  8
AM_5
100
AcDbTrace
 10
23.61086613583296
 20
229.8422441388095
 30
0.0
 11
23.13100460251938
 21
228.2461518211087
 31
0.0
 12
28.15921232227876
 22
227.6046133800183
 32
0.0
 13
28.15921232227876
 23
227.6046133800183
 33
0.0
  0
SOLID
  5
2C7B
330
2C58
100
AcDbEntity
  8
AM_5
100
AcDbTrace
 10
-7.99005229059108
 20
207.254733893568
 30
0.0
 11
-9.649682612267355
 21
207.4077207333632
 31
0.0
 12
-9.278827970814873
 22
202.3523363484369
 32
0.0
 13
-9.278827970814873
 23
202.3523363484369
 33
0.0
  0
MTEXT
  5
2C7C
330
2C58
100
AcDbEntity
  8
AM_5
 62
     2
100
AcDbMText
 10
-0.9083839018393291
 20
230.3208698365195
 30
0.0
 40
7.0
 41
0.0
 46
0.0
 71
     5
 72
     1
  1
112°
 11
0.8290375725550429
 21
0.559192903470745
 31
0.0
 73
     1
 44
1.0
  0
POINT
  5
2C7D
330
2C58
100
AcDbEntity
  8
Defpoints
 62
     0
100
AcDbPoint
 10
10.75464459637388
 20
228.6183140137345
 30
0.0
  0
POINT
  5
2C7E
330
2C58
100
AcDbEntity
  8
Defpoints
 62
     0
100
AcDbPoint
 10
34.25201695305736
 20
242.6848340220922
 30
0.0
  0
POINT
  5
2C7F
330
2C58
100
AcDbEntity
  8
Defpoints
 62
     0
100
AcDbPoint
 10
16.60761310578006
 20
202.3523363484368
 30
0.0
  0
POINT
  5
2C80
330
2C58
100
AcDbEntity
  8
Defpoints
 62
     0
100
AcDbPoint
 10
-86.043369860535
 20
202.3523363484368
 30
0.0
  0
POINT
  5
2C81
330
2C58
100
AcDbEntity
  8
Defpoints
 62
     0
100
AcDbPoint
 10
20.18950888611903
 20
207.8789051795529
 30
0.0
  0
ENDBLK
  5
2C68
330
2C58
100
AcDbEntity
  8
0
100
AcDbBlockEnd
  0
BLOCK
  5
2CAC
330
2CA2
100
AcDbEntity
  8
0
100
AcDbBlockBegin
  2
*D19
 70
     1
 10
0.0
 20
0.0
 30
0.0
  3
*D19
  1

  0
LINE
  5
2CAE
330
2CA2
100
AcDbEntity
  8
AM_5
100
AcDbLine
 10
-86.043369860535
 20
342.641588866592
 30
0.0
 11
-123.0433708705352
 21
342.641588866592
 31
0.0
  0
LINE
  5
2CAF
330
2CA2
100
AcDbEntity
  8
AM_5
100
AcDbLine
 10
-86.043369860535
 20
320.641588866592
 30
0.0
 11
-123.0433708705352
 21
320.641588866592
 31
0.0
  0
LINE
  5
2CB0
330
2CA2
100
AcDbEntity
  8
AM_5
100
AcDbLine
 10
-121.0433708705352
 20
337.641588866592
 30
0.0
 11
-121.0433708705352
 21
325.641588866592
 31
0.0
  0
SOLID
  5
2CB1
330
2CA2
100
AcDbEntity
  8
AM_5
100
AcDbTrace
 10
-121.8767042038685
 20
337.641588866592
 30
0.0
 11
-120.2100375372018
 21
337.641588866592
 31
0.0
 12
-121.0433708705352
 22
342.641588866592
 32
0.0
 13
-121.0433708705352
 23
342.641588866592
 33
0.0
  0
SOLID
  5
2CB2
330
2CA2
100
AcDbEntity
  8
AM_5
100
AcDbTrace
 10
-121.8767042038685
 20
325.641588866592
 30
0.0
 11
-120.2100375372018
 21
325.641588866592
 31
0.0
 12
-121.0433708705352
 22
320.641588866592
 32
0.0
 13
-121.0433708705352
 23
320.641588866592
 33
0.0
  0
MTEXT
  5
2CB3
330
2CA2
100
AcDbEntity
  8
AM_5
 62
     2
100
AcDbMText
 10
-127.5440598469132
 20
331.641588866592
 30
0.0
 40
7.0
 41
0.0
 46
0.0
 71
     5
 72
     1
  1
22
 11
0.0000000000000001
 21
1.0
 31
0.0
 73
     1
 44
1.0
  0
POINT
  5
2CB4
330
2CA2
100
AcDbEntity
  8
Defpoints
 62
     0
100
AcDbPoint
 10
-86.043369860535
 20
342.641588866592
 30
0.0
  0
POINT
  5
2CB5
330
2CA2
100
AcDbEntity
  8
Defpoints
 62
     0
100
AcDbPoint
 10
-86.043369860535
 20
320.641588866592
 30
0.0
  0
POINT
  5
2CB6
330
2CA2
100
AcDbEntity
  8
Defpoints
 62
     0
100
AcDbPoint
 10
-121.0433708705352
 20
320.641588866592
 30
0.0
  0
ENDBLK
  5
2CAD
330
2CA2
100
AcDbEntity
  8
0
100
AcDbBlockEnd
  0
BLOCK
  5
2D01
330
2CF7
100
AcDbEntity
  8
0
100
AcDbBlockBegin
  2
*D20
 70
     1
 10
0.0
 20
0.0
 30
0.0
  3
*D20
  1

  0
LINE
  5
2D03
330
2CF7
100
AcDbEntity
  8
AM_5
100
AcDbLine
 10
34.32483309849045
 20
340.5639878344405
 30
0.0
 11
60.32483410849046
 21
340.5639878344405
 31
0.0
  0
LINE
  5
2D04
330
2CF7
100
AcDbEntity
  8
AM_5
100
AcDbLine
 10
34.32483309849045
 20
322.7191898987434
 30
0.0
 11
60.32483410849045
 21
322.7191898987434
 31
0.0
  0
LINE
  5
2D05
330
2CF7
100
AcDbEntity
  8
AM_5
100
AcDbLine
 10
58.32483410849045
 20
335.5639878344405
 30
0.0
 11
58.32483410849045
 21
327.7191898987434
 31
0.0
  0
SOLID
  5
2D06
330
2CF7
100
AcDbEntity
  8
AM_5
100
AcDbTrace
 10
57.49150077515711
 20
335.5639878344405
 30
0.0
 11
59.15816744182379
 21
335.5639878344405
 31
0.0
 12
58.32483410849046
 22
340.5639878344405
 32
0.0
 13
58.32483410849046
 23
340.5639878344405
 33
0.0
  0
SOLID
  5
2D07
330
2CF7
100
AcDbEntity
  8
AM_5
100
AcDbTrace
 10
57.49150077515711
 20
327.7191898987434
 30
0.0
 11
59.15816744182379
 21
327.7191898987434
 31
0.0
 12
58.32483410849045
 22
322.7191898987434
 32
0.0
 13
58.32483410849045
 23
322.7191898987434
 33
0.0
  0
MTEXT
  5
2D08
330
2CF7
100
AcDbEntity
  8
AM_5
 62
     2
100
AcDbMText
 10
51.8248341084904
 20
331.641588866592
 30
0.0
 40
7.0
 41
0.0
 46
0.0
 71
     5
 72
     1
  1
18
 11
0.0000000000000001
 21
1.0
 31
0.0
 73
     1
 44
1.0
  0
POINT
  5
2D09
330
2CF7
100
AcDbEntity
  8
Defpoints
 62
     0
100
AcDbPoint
 10
34.32483309849045
 20
340.5639878344405
 30
0.0
  0
POINT
  5
2D0A
330
2CF7
100
AcDbEntity
  8
Defpoints
 62
     0
100
AcDbPoint
 10
34.32483309849045
 20
322.7191898987434
 30
0.0
  0
POINT
  5
2D0B
330
2CF7
100
AcDbEntity
  8
Defpoints
 62
     0
100
AcDbPoint
 10
58.32483410849045
 20
322.7191898987434
 30
0.0
  0
ENDBLK
  5
2D02
330
2CF7
100
AcDbEntity
  8
0
100
AcDbBlockEnd
  0
ENDSEC
  0
SECTION
  2
ENTITIES
  0
INSERT
  5
3FB
330
1A
100
AcDbEntity
  8
ASHADE
 62
     1
100
AcDbBlockReference
  2
AVE_RENDER
 10
0.0
 20
0.0
 30
0.0
1001
AVE_RENDER
1002
{
1070
     7
1000
Pref
1070
    60
1070
    30
1070
     1
1070
     0
1000

1070
    10
1070
     1
1070
    10
1040
1.0
1070
     1
1040
0.3
1040
0.7
1040
0.0
1040
10.0
1010
-1.0
1020
-1.0
1030
-1.0
1040
0.3
1070
    49
1070
     1
1070
     0
1010
1.0
1020
1.0
1030
1.0
1040
45.0
1070
     1
1070
     0
1000
WCS
1040
0.0
1070
     1
1040
10.0
1002
}
  0
INSERT
  5
3FC
330
1A
100
AcDbEntity
  8
ASHADE
 62
     3
100
AcDbBlockReference
  2
AVE_RENDER
 10
0.0
 20
0.0
 30
0.0
1001
AVE_RENDER
1002
{
1070
     0
1000
Full Opt
1070
     0
1070
     1
1070
     1
1070
     1
1070
     0
1070
     0
1070
     0
1070
     1
1070
     1
1040
0.0001
1040
0.0001
1002
}
  0
INSERT
  5
3FD
330
1A
100
AcDbEntity
  8
ASHADE
 62
     4
100
AcDbBlockReference
  2
AVE_RENDER
 10
0.0
 20
0.0
 30
0.0
1001
AVE_RENDER
1002
{
1070
     0
1000
Quick Opt
1070
     0
1070
     1
1070
     1
1070
     1
1070
     0
1070
     0
1070
     1
1002
}
  0
INSERT
  5
3FE
330
1A
100
AcDbEntity
  8
ASHADE
 62
     5
100
AcDbBlockReference
  2
AVE_RENDER
 10
0.0
 20
0.0
 30
0.0
1001
AVE_RENDER
1002
{
1070
     1
1000
Scanl Opt
1070
     2
1070
     0
1070
     2
1040
2.0
1040
4.0
1070
     0
1070
     1
1070
     0
1040
0.03
1002
}
  0
INSERT
  5
3FF
330
1A
100
AcDbEntity
  8
ASHADE
 62
     6
100
AcDbBlockReference
  2
AVE_RENDER
 10
0.0
 20
0.0
 30
0.0
1001
AVE_RENDER
1002
{
1070
     2
1000
Raytr Opt
1070
     3
1070
     0
1070
     2
1040
2.0
1040
4.0
1070
     0
1070
     1
1070
     1
1040
0.03
1070
     3
1040
0.03
1002
}
  0
INSERT
  5
400
330
1A
100
AcDbEntity
  8
ASHADE
 62
     7
100
AcDbBlockReference
  2
AVE_RENDER
 10
0.0
 20
0.0
 30
0.0
1001
AVE_RENDER
1002
{
1070
     0
1000
RFile Opt
1070
     5
1070
  1600
1070
  1280
1070
 10000
1070
     1
1070
    32
1070
    32
1070
     0
1070
     0
1070
     0
1070
     0
1070
     0
1070
     0
1070
     0
1002
}
  0
INSERT
  5
401
330
1A
100
AcDbEntity
  8
ASHADE
 62
     8
100
AcDbBlockReference
  2
AVE_RENDER
 10
0.0
 20
0.0
 30
0.0
1001
AVE_RENDER
1002
{
1070
     0
1000
Fog Opt
1070
     0
1070
     0
1040
0.0
1040
1.0
1040
0.0
1040
1.0
1010
0.5
1020
0.5
1030
0.5
1002
}
  0
INSERT
  5
402
330
1A
100
AcDbEntity
  8
ASHADE
 62
     9
100
AcDbBlockReference
  2
AVE_RENDER
 10
0.0
 20
0.0
 30
0.0
1001
AVE_RENDER
1002
{
1070
     0
1000
BG Opt
1070
     0
1070
     0
1010
1.0
1020
1.0
1030
1.0
1010
1.0
1020
0.0
1030
0.0
1010
0.0
1020
1.0
1030
0.0
1010
0.0
1020
0.0
1030
1.0
1040
0.5
1040
0.33
1040
0.0
1000

1070
     1
1000

1070
     1
1070
     1
1040
1.0
1040
1.0
1040
0.0
1040
0.0
1070
     0
1002
}
  0
INSERT
  5
409
330
1A
100
AcDbEntity
  8
ASHADE
 62
     1
100
AcDbBlockReference
  2
AVE_GLOBAL
 10
0.0
 20
0.0
 30
0.0
1001
AVE_MATERIAL
1002
{
1000
*GLOBAL*
1000
2
1000
Globales Material.
1002
{
1002
}
1002
{
1070
    63
1002
{
1002
{
1010
-1.0
1020
-1.0
1030
-1.0
1002
}
1040
0.1000000014901161
1000

1040
0.0
1002
{
1002
}
1040
0.0
1002
{
1002
}
1040
0.0
1002
}
1002
{
1002
{
1010
-1.0
1020
-1.0
1030
-1.0
1002
}
1040
0.6999999880790711
1000

1040
0.0
1002
{
1002
}
1040
0.0
1002
{
1002
}
1040
0.0
1002
}
1002
{
1002
{
1010
-1.0
1020
-1.0
1030
-1.0
1002
}
1040
0.2000000029802322
1000

1040
0.0
1002
{
1002
}
1040
0.0
1002
{
1002
}
1040
0.0
1002
}
1002
{
1070
     0
1002
{
1070
     1
1002
{
1040
1.0
1040
1.0
1000

1040
0.0
1002
{
1002
}
1040
0.0
1002
{
1002
}
1040
0.0
1002
}
1002
}
1040
1.0
1040
0.0
1040
0.0
1002
}
1002
{
1040
1.0
1040
1.0
1000

1040
0.0
1002
{
1002
}
1040
0.0
1002
{
1002
}
1040
0.0
1002
}
1002
{
1040
0.5
1040
1.0
1000

1040
0.0
1002
{
1002
}
1040
0.0
1002
{
1002
}
1040
0.0
1002
}
1002
{
1070
     0
1040
0.0
1002
{
1002
}
1040
1.0
1002
{
1002
}
1040
0.0
1002
}
1002
{
1040
0.0
1002
{
1002
{
1010
0.0
1020
0.0
1030
0.0
1002
}
1040
1.0
1000

1040
0.0
1002
{
1002
}
1040
0.0
1002
{
1002
}
1040
0.0
1002
}
1002
}
1002
{
1002
{
1070
     1
1002
{
1040
0.0
1040
1.0
1000

1040
0.0
1002
{
1002
}
1040
0.0
1002
{
1002
}
1040
0.0
1002
}
1002
}
1040
0.0
1002
{
1002
}
1010
1.0
1020
0.0
1030
0.0
1010
0.0
1020
1.0
1030
0.0
1010
0.0
1020
0.0
1030
1.0
1070
     0
1002
}
1002
{
1002
{
1040
1.0
1040
1.0
1002
{
1070
     1
1002
{
1040
1.0
1040
1.0
1000

1040
0.0
1002
{
1002
}
1040
0.0
1002
{
1002
}
1040
0.0
1002
}
1002
}
1002
}
1070
     0
1040
0.0
1002
{
1002
}
1002
}
1002
{
1002
}
1002
}
1002
{
1071
        3
1070
     3
1070
     0
1002
{
1070
     2
1070
     0
1070
     0
1040
0.0
1002
}
1070
     0
1070
     2
1002
{
1002
}
1002
}
1002
{
1040
8030.0
1040
190.3000030517578
1040
0.3050000071525574
1040
228.0
1040
545.0
1040
14.0
1040
17.39999961853027
1040
0.4560000002384186
1002
}
1002
}
  0
POINT
  5
1677
330
1A
100
AcDbEntity
  8
0
 60
     1
100
AcDbPoint
 10
0.0
 20
0.0
 30
0.0
1001
GENIUS_GENODEF_13
1002
{
1000
HIER
1070
     1
1002
}
1002
{
1000
MANEDIT
1070
     0
1002
}
1002
{
1000
NOSEL
1070
     0
1002
}
1002
{
1000
BEHIND
1070
     0
1002
}
1002
{
1000
REACTOR
1002
}
1001
GENIUS_GENOBJ-N-SDF_13
1002
{
1000
OWNER
1000
GEN
1002
}
1001
GENIUS_GENOENT_13
1002
{
1000
MYREF
1005
1677
1002
}
1002
{
1000
GRP
1005
0
1002
}
1001
GENIUS_GENOLIS_13
1002
{
1000
ENT
1005
22
1002
}
  0
LWPOLYLINE
  5
1A83
330
1A
100
AcDbEntity
  8
AM_VIEWS
100
AcDbPolyline
 90
        4
 70
     1
 43
0.0
 10
-148.089341544064
 20
52.50958134926672
 10
130.6909342604918
 20
52.50958134926668
 10
130.6909342604918
 20
402.1770017901929
 10
-148.0893415440639
 20
402.1770017901929
1001
GENIUS_GENSCREG_15
1040
2.0
1040
1.0
1011
-148.089341544064
1021
52.50958134926672
1031
0.0
1011
130.6909342604918
1021
402.1770017901929
1031
0.0
1070
     2
1001
GENIUS_GENOBJ-N-SDF_13
1002
{
1000
OWNER
1000
GEN
1002
}
1001
GENIUS_GENODEF_13
1002
{
1000
HIER
1070
     0
1002
}
1002
{
1000
MANEDIT
1070
     0
1002
}
1002
{
1000
NOSEL
1070
     0
1002
}
1002
{
1000
BEHIND
1070
     0
1002
}
1002
{
1000
OTHER
1070
     0
1002
}
1002
{
1000
REACTOR
1002
}
  0
MTEXT
  5
1DBB
330
1A
100
AcDbEntity
  8
AM_6
100
AcDbMText
 10
9.166631081100092
 20
120.6576771127134
 30
0.0
 40
7.0
 41
109.0081555522019
 46
0.0
 71
     1
 72
     5
  1
5092
 73
     1
 44
1.0
1001
GENIUS_AMGTXT_16
1040
3.5
1040
0.12
  0
ARC
  5
27D3
330
1A
100
AcDbEntity
  8
AM_VIS
100
AcDbCircle
 10
-96.043369860535
 20
203.3523363484369
 30
0.0
 40
1.0
100
AcDbArc
 50
180.0
 51
270.0
  0
ARC
  5
27D4
330
1A
100
AcDbEntity
  8
AM_VIS
100
AcDbCircle
 10
33.32483309849044
 20
243.0594406155082
 30
0.0
 40
1.000000000000004
100
AcDbArc
 50
337.9999999999952
 51
67.99999999999522
  0
LINE
  5
27D5
330
1A
100
AcDbEntity
  8
AM_VIS
100
AcDbLine
 10
-96.043369860535
 20
202.3523363484368
 30
0.0
 11
-86.043369860535
 21
202.3523363484368
 31
0.0
  0
ARC
  5
27D6
330
1A
100
AcDbEntity
  8
AM_VIS
100
AcDbCircle
 10
16.60761310578005
 20
204.3523363484368
 30
0.0
 40
2.0
100
AcDbArc
 50
270.0
 51
337.9999999999952
  0
LINE
  5
27D7
330
1A
100
AcDbEntity
  8
AM_VIS
100
AcDbLine
 10
19.82498659450198
 20
206.9766808477947
 30
0.0
 11
20.18950888611858
 21
207.8789051795524
 31
0.0
  0
SPLINE
  5
27D8
330
1A
100
AcDbEntity
  8
AM_VIS
100
AcDbSpline
210
0.0
220
0.0
230
1.0
 70
     8
 71
     1
 72
     9
 73
     7
 74
     0
 42
0.0000000001
 43
0.0000000001
 40
0.0
 40
0.0
 40
0.0343265040864839
 40
0.3529628213591428
 40
0.6716019305201107
 40
0.9901625889556495
 40
1.310920290772144
 40
1.562928875737608
 40
1.562928875737608
 10
30.90191863567156
 20
245.1168963441195
 30
0.0
 10
30.86987564225706
 20
245.1292071302796
 30
0.0
 10
30.55695204362678
 20
245.1892731281932
 30
0.0
 10
30.24101641261927
 20
245.1478538217434
 30
0.0
 10
29.95421374845932
 20
245.0091991249832
 30
0.0
 10
29.7242413911697
 20
244.7855963115898
 30
0.0
 10
29.6007712723756
 20
244.5659068565378
 30
0.0
  0
LINE
  5
27D9
330
1A
100
AcDbEntity
  8
AM_VIS
100
AcDbLine
 10
-75.04336986053499
 20
223.3908549516213
 30
0.0
 11
-75.04336986053499
 21
258.3523363484368
 31
0.0
  0
LINE
  5
27DA
330
1A
100
AcDbEntity
  8
AM_VIS
100
AcDbLine
 10
-97.04336986053499
 20
203.3523363484369
 30
0.0
 11
-97.04336986053499
 21
258.3523363484368
 31
0.0
  0
SPLINE
  5
27DB
330
1A
100
AcDbEntity
  8
AM_VIS
100
AcDbSpline
210
0.0
220
0.0
230
1.0
 70
     8
 71
     1
 72
     7
 73
     5
 74
     0
 42
0.0000000001
 43
0.0000000001
 40
0.0
 40
0.0
 40
2.594331240418993
 40
5.141797922091598
 40
7.690947032736057
 40
9.444057929797079
 40
9.444057929797079
 10
18.96928918821754
 20
218.3813000157433
 30
0.0
 10
17.61647327954574
 20
216.1676054337699
 30
0.0
 10
15.66721704621227
 20
214.5274875626878
 30
0.0
 10
13.29951869892215
 20
213.5829423152081
 30
0.0
 10
11.55696302918181
 20
213.3908549516213
 30
0.0
  0
LINE
  5
27DC
330
1A
100
AcDbEntity
  8
AM_VIS
100
AcDbLine
 10
29.6007712723756
 20
244.5659068565378
 30
0.0
 11
18.96928918821706
 21
218.3813000157438
 31
0.0
  0
LINE
  5
27DD
330
1A
100
AcDbEntity
  8
AM_VIS
100
AcDbLine
 10
-65.04336986053499
 20
213.3908549516213
 30
0.0
 11
11.55696302918136
 21
213.3908549516213
 31
0.0
  0
SPLINE
  5
27DE
330
1A
100
AcDbEntity
  8
AM_VIS
100
AcDbSpline
210
0.0
220
0.0
230
1.0
 70
     8
 71
     1
 72
     8
 73
     6
 74
     0
 42
0.0000000001
 43
0.0000000001
 40
0.0
 40
0.0
 40
3.242914047395768
 40
6.427247399603645
 40
9.613683787901621
 40
12.80004534842964
 40
15.64303757443442
 40
15.64303757443442
 10
-65.04336986053499
 20
213.3908549516213
 30
0.0
 10
-68.24336986586809
 20
213.9166795275609
 30
0.0
 10
-71.05953897862923
 20
215.4030073602803
 30
0.0
 10
-73.26688205652067
 20
217.7010529196973
 30
0.0
 10
-74.63923962067861
 20
220.5767327889638
 30
0.0
 10
-75.04336986053499
 20
223.3908549516213
 30
0.0
  0
LINE
  5
27DF
330
1A
100
AcDbEntity
  8
AM_VIS
100
AcDbLine
 10
32.28624194114423
 20
244.5575934236739
 30
0.0
 11
30.90191863567115
 21
245.1168963441201
 31
0.0
  0
SPLINE
  5
27E0
330
1A
100
AcDbEntity
  8
AM_VIS
100
AcDbSpline
210
0.0
220
0.0
230
1.0
 70
     8
 71
     3
 72
    16
 73
    12
 74
     0
 42
0.0000000001
 43
0.0000000001
 40
-0.0018847091799733
 40
-0.0018847091799733
 40
-0.0018847091799733
 40
-0.0018847091799733
 40
0.0
 40
0.0
 40
0.5572125753324082
 40
0.5572125753324082
 40
0.9953626191840676
 40
0.9953626191840676
 40
1.361959546962759
 40
1.361959546962759
 40
1.694246667294605
 40
1.694246667294605
 40
1.694246667294605
 40
1.694246667294605
 10
32.28624194114332
 20
244.5575934236744
 30
0.0
 10
32.2859120840692
 20
244.5577266945829
 30
0.0
 10
32.2855820820871
 20
244.5578595902829
 30
0.0
 10
32.18764435871321
 20
244.5971716462659
 30
0.0
 10
32.07716894584996
 20
244.6036344040039
 30
0.0
 10
31.87053620898974
 20
244.5495644599704
 30
0.0
 10
31.77645749796034
 20
244.5030255639326
 30
0.0
 10
31.60758004871582
 20
244.3729520475776
 30
0.0
 10
31.53309733398942
 20
244.2973825084613
 30
0.0
 10
31.40374122791559
 20
244.1240855834166
 30
0.0
 10
31.34929450485129
 20
244.0312082971686
 30
0.0
 10
31.30471096924634
 20
243.9308598244533
 30
0.0
  0
SPLINE
  5
27E1
330
1A
100
AcDbEntity
  8
AM_VIS
100
AcDbSpline
210
0.0
220
0.0
230
1.0
 70
     8
 71
     3
 72
     8
 73
     4
 74
     0
 42
0.0000000001
 43
0.0000000001
 40
1.587887796771579
 40
1.587887796771579
 40
1.587887796771579
 40
1.587887796771579
 40
1.619508863871498
 40
1.619508863871498
 40
1.619508863871498
 40
1.619508863871498
 10
31.30471096924634
 20
243.9308598244533
 30
0.0
 10
31.3004617141271
 20
243.9212956152527
 30
0.0
 10
31.29637157318143
 20
243.9116499191741
 30
0.0
 10
31.29244280773378
 20
243.9019258834641
 30
0.0
  0
LINE
  5
27E2
330
1A
100
AcDbEntity
  8
AM_VIS
100
AcDbLine
 10
16.60761310578005
 20
202.3523363484368
 30
0.0
 11
-86.043369860535
 21
202.3523363484368
 31
0.0
  0
LINE
  5
27E3
330
1A
100
AcDbEntity
  8
AM_VIS
100
AcDbLine
 10
19.82498659450198
 20
206.9766808477943
 30
0.0
 11
18.46198081491388
 21
203.6031231616052
 31
0.0
  0
LINE
  5
27E4
330
1A
100
AcDbEntity
  8
AM_VIS
100
AcDbLine
 10
34.25201695305736
 20
242.6848340220922
 30
0.0
 11
20.18950888611903
 21
207.8789051795529
 31
0.0
  0
LINE
  5
27E5
330
1A
100
AcDbEntity
  8
AM_VIS
100
AcDbLine
 10
32.28624194114332
 20
244.5575934236744
 30
0.0
 11
33.69943969190604
 21
243.9866244700751
 31
0.0
  0
ARC
  5
27E6
330
1A
100
AcDbEntity
  8
AM_VIS
100
AcDbCircle
 10
11.30847824383477
 20
217.5861907129178
 30
0.0
 40
8.673845478766788
100
AcDbArc
 50
297.5944557200238
 51
339.5279467026394
  0
LINE
  5
27E7
330
1A
100
AcDbEntity
  8
AM_VIS
100
AcDbLine
 10
31.29244280773378
 20
243.9019258834641
 30
0.0
 11
19.43450875869881
 21
214.5525092100201
 31
0.0
  0
ARC
  5
27E8
330
1A
100
AcDbEntity
  8
AM_VIS
100
AcDbCircle
 10
12.93287169409791
 20
214.9301366527965
 30
0.0
 40
5.571418976170702
100
AcDbArc
 50
278.6619716164831
 51
295.4414869889019
  0
ARC
  5
27E9
330
1A
100
AcDbEntity
  8
AM_VIS
100
AcDbCircle
 10
-75.17358760703723
 20
226.0160541857571
 30
0.0
 40
16.682085925406
100
AcDbArc
 50
229.3388556284169
 51
272.6889596604325
  0
LINE
  5
27EA
330
1A
100
AcDbEntity
  8
AM_VIS
100
AcDbLine
 10
-74.39096467049807
 20
209.3523363484368
 30
0.0
 11
12.8500250720424
 21
209.3523363484368
 31
0.0
  0
SPLINE
  5
27EB
330
1A
100
AcDbEntity
  8
AM_VIS
100
AcDbSpline
210
0.0
220
0.0
230
1.0
 70
     8
 71
     3
 72
     8
 73
     4
 74
     0
 42
0.0000000001
 43
0.0000000001
 40
8.283524390818275
 40
8.283524390818275
 40
8.283524390818275
 40
8.283524390818275
 40
9.283292213392231
 40
9.283292213392231
 40
9.283292213392231
 40
9.283292213392231
 10
13.77195359607526
 20
209.4222649250045
 30
0.0
 10
13.46704011152155
 20
209.3756127255837
 30
0.0
 10
13.15939137536156
 20
209.3523363484368
 30
0.0
 10
12.8500250720424
 20
209.3523363484368
 30
0.0
  0
LINE
  5
27F6
330
1A
100
AcDbEntity
  8
AM_VIS
100
AcDbLine
 10
-97.04336986053499
 20
258.3523363484368
 30
0.0
 11
-75.04336986053499
 21
258.3523363484368
 31
0.0
  0
LINE
  5
280F
330
1A
100
AcDbEntity
  8
AM_VIS
100
AcDbLine
 10
13.77195359612165
 20
342.641588866592
 30
0.0
 11
12.8500250720424
 21
342.641588866592
 31
0.0
  0
ARC
  5
2810
330
1A
100
AcDbEntity
  8
AM_VIS
100
AcDbCircle
 10
33.32483309849044
 20
339.6915568568604
 30
0.0
 40
1.000000000000004
100
AcDbArc
 50
0.0
 51
82.20490471606368
  0
ARC
  5
2811
330
1A
100
AcDbEntity
  8
AM_VIS
100
AcDbCircle
 10
33.32483309849044
 20
323.5916208763236
 30
0.0
 40
1.0
100
AcDbArc
 50
277.7950952839363
 51
0.0
  0
LINE
  5
2812
330
1A
100
AcDbEntity
  8
AM_VIS
100
AcDbLine
 10
16.60761310578005
 20
320.641588866592
 30
0.0
 11
16.60761310578005
 21
321.641588866592
 31
0.0
  0
ARC
  5
2813
330
1A
100
AcDbEntity
  8
AM_VIS
100
AcDbCircle
 10
-86.043369860535
 20
331.641588866592
 30
0.0
 40
11.0
100
AcDbArc
 50
90.0
 51
270.0
  0
LINE
  5
2814
330
1A
100
AcDbEntity
  8
AM_VIS
100
AcDbLine
 10
16.60761310578005
 20
320.641588866592
 30
0.0
 11
17.53479696034696
 21
320.641588866592
 31
0.0
  0
LINE
  5
2815
330
1A
100
AcDbEntity
  8
AM_VIS
100
AcDbLine
 10
16.60761310578005
 20
341.641588866592
 30
0.0
 11
16.60761310578005
 21
342.641588866592
 31
0.0
  0
LINE
  5
2816
330
1A
100
AcDbEntity
  8
AM_VIS
100
AcDbLine
 10
17.53479696034696
 20
342.641588866592
 30
0.0
 11
16.60761310578005
 21
342.641588866592
 31
0.0
  0
ARC
  5
2817
330
1A
100
AcDbEntity
  8
AM_VIS
100
AcDbCircle
 10
18.88677815207325
 20
324.4799126398677
 30
0.0
 40
3.838339605875365
100
AcDbArc
 50
270.1645667889555
 51
277.6532040572998
  0
LINE
  5
2818
330
1A
100
AcDbEntity
  8
AM_VIS
100
AcDbLine
 10
33.46046385900013
 20
322.6008614217618
 30
0.0
 11
19.39795579206179
 21
320.675763805975
 31
0.0
  0
ARC
  5
2819
330
1A
100
AcDbEntity
  8
AM_VIS
100
AcDbCircle
 10
18.8867781520737
 20
338.8032650933172
 30
0.0
 40
3.838339605874378
100
AcDbArc
 50
82.34679594270502
 51
89.83543321104452
  0
LINE
  5
281A
330
1A
100
AcDbEntity
  8
AM_VIS
100
AcDbLine
 10
34.32483309849045
 20
323.5916208763236
 30
0.0
 11
34.32483309849045
 21
339.6915568568604
 31
0.0
  0
LINE
  5
281B
330
1A
100
AcDbEntity
  8
AM_VIS
100
AcDbLine
 10
19.39795579206179
 20
342.6074139272089
 30
0.0
 11
33.46046385900013
 21
340.6823163114221
 31
0.0
  0
LINE
  5
281C
330
1A
100
AcDbEntity
  8
AM_VIS
100
AcDbLine
 10
16.60761310578005
 20
320.641588866592
 30
0.0
 11
-86.043369860535
 21
320.641588866592
 31
0.0
  0
LINE
  5
281D
330
1A
100
AcDbEntity
  8
AM_VIS
100
AcDbLine
 10
-86.043369860535
 20
342.641588866592
 30
0.0
 11
16.60761310578005
 21
342.641588866592
 31
0.0
  0
LINE
  5
281E
330
1A
100
AcDbEntity
  8
AM_VIS
100
AcDbLine
 10
18.89780273993551
 20
320.641588866592
 30
0.0
 11
17.53479696034696
 21
320.641588866592
 31
0.0
  0
LINE
  5
281F
330
1A
100
AcDbEntity
  8
AM_VIS
100
AcDbLine
 10
17.53479696034696
 20
342.641588866592
 30
0.0
 11
18.89780273993506
 21
342.641588866592
 31
0.0
  0
LINE
  5
2820
330
1A
100
AcDbEntity
  8
AM_VIS
100
AcDbLine
 10
16.60761310578005
 20
321.641588866592
 30
0.0
 11
16.60761310578005
 21
341.641588866592
 31
0.0
  0
LINE
  5
2835
330
1A
100
AcDbEntity
  8
AM_7
  6
AM_ISO08W050x2
100
AcDbLine
 10
-86.043369860535
 20
271.3523363484368
 30
0.0
 11
-86.043369860535
 21
200.3523363484368
 31
0.0
  0
LINE
  5
2836
330
1A
100
AcDbEntity
  8
AM_7
  6
AM_ISO08W050x2
100
AcDbLine
 10
-86.043369860535
 20
331.641588866592
 30
0.0
 11
-86.043369860535
 21
345.641588866592
 31
0.0
  0
LINE
  5
2837
330
1A
100
AcDbEntity
  8
AM_7
  6
AM_ISO08W050x2
100
AcDbLine
 10
-86.043369860535
 20
317.641588866592
 30
0.0
 11
-86.043369860535
 21
331.641588866592
 31
0.0
  0
LINE
  5
2838
330
1A
100
AcDbEntity
  8
AM_7
  6
AM_ISO08W050x2
100
AcDbLine
 10
-86.043369860535
 20
331.641588866592
 30
0.0
 11
-100.043369860535
 21
331.641588866592
 31
0.0
  0
LINE
  5
2839
330
1A
100
AcDbEntity
  8
AM_7
  6
AM_ISO08W050x2
100
AcDbLine
 10
-72.04336986053499
 20
331.641588866592
 30
0.0
 11
-86.043369860535
 21
331.641588866592
 31
0.0
  0
LINE
  5
2BAE
330
1A
100
AcDbEntity
  8
AM_0
100
AcDbLine
 10
-78.04336986053499
 20
258.3523363484368
 30
0.0
 11
-78.04336986053499
 21
268.3523363484368
 31
0.0
1001
GENIUS_GENREC_14
1002
{
1000
PYDIR
1011
-94.04336986053499
1021
268.3523363484368
1031
0.0
1002
}
1002
{
1000
PXDIR
1011
-78.04336986053499
1021
258.3523363484368
1031
0.0
1002
}
1002
{
1000
PORI
1011
-94.04336986053499
1021
258.3523363484368
1031
0.0
1002
}
1002
{
1000
PINS
1011
-94.04336986053499
1021
258.3523363484368
1031
0.0
1002
}
1002
{
1000
HVAL
1000
10
1002
}
1002
{
1000
H
1070
     2
1002
}
1002
{
1000
WVAL
1000
16
1002
}
1002
{
1000
W
1070
     2
1002
}
1002
{
1000
C
1070
     1
1002
}
1001
GENIUS_GENOBJ-N-REC_13
1002
{
1000
OWNER
1000
GEN
1002
}
1001
GENIUS_GENODEF_13
1002
{
1000
HIER
1070
     0
1002
}
1002
{
1000
MANEDIT
1070
     0
1002
}
1002
{
1000
NOSEL
1070
     0
1002
}
1002
{
1000
BEHIND
1070
     0
1002
}
1002
{
1000
OTHER
1070
     0
1002
}
1002
{
1000
REACTOR
1002
}
  0
LINE
  5
2BAF
330
1A
100
AcDbEntity
  8
AM_0
100
AcDbLine
 10
-78.04336986053499
 20
268.3523363484368
 30
0.0
 11
-94.04336986053499
 21
268.3523363484368
 31
0.0
1001
GENIUS_GENREC_14
1002
{
1000
PYDIR
1011
-94.04336986053499
1021
268.3523363484368
1031
0.0
1002
}
1002
{
1000
PXDIR
1011
-78.04336986053499
1021
258.3523363484368
1031
0.0
1002
}
1002
{
1000
PORI
1011
-94.04336986053499
1021
258.3523363484368
1031
0.0
1002
}
1002
{
1000
PINS
1011
-94.04336986053499
1021
258.3523363484368
1031
0.0
1002
}
1002
{
1000
HVAL
1000
10
1002
}
1002
{
1000
H
1070
     2
1002
}
1002
{
1000
WVAL
1000
16
1002
}
1002
{
1000
W
1070
     2
1002
}
1002
{
1000
C
1070
     1
1002
}
1001
GENIUS_GENOBJ-N-REC_13
1002
{
1000
OWNER
1000
GEN
1002
}
1001
GENIUS_GENODEF_13
1002
{
1000
HIER
1070
     0
1002
}
1002
{
1000
MANEDIT
1070
     0
1002
}
1002
{
1000
NOSEL
1070
     0
1002
}
1002
{
1000
BEHIND
1070
     0
1002
}
1002
{
1000
OTHER
1070
     0
1002
}
1002
{
1000
REACTOR
1002
}
  0
LINE
  5
2BB0
330
1A
100
AcDbEntity
  8
AM_0
100
AcDbLine
 10
-94.04336986053499
 20
268.3523363484368
 30
0.0
 11
-94.04336986053499
 21
258.3523363484368
 31
0.0
1001
GENIUS_GENREC_14
1002
{
1000
PYDIR
1011
-94.04336986053499
1021
268.3523363484368
1031
0.0
1002
}
1002
{
1000
PXDIR
1011
-78.04336986053499
1021
258.3523363484368
1031
0.0
1002
}
1002
{
1000
PORI
1011
-94.04336986053499
1021
258.3523363484368
1031
0.0
1002
}
1002
{
1000
PINS
1011
-94.04336986053499
1021
258.3523363484368
1031
0.0
1002
}
1002
{
1000
HVAL
1000
10
1002
}
1002
{
1000
H
1070
     2
1002
}
1002
{
1000
WVAL
1000
16
1002
}
1002
{
1000
W
1070
     2
1002
}
1002
{
1000
C
1070
     1
1002
}
1001
GENIUS_GENOBJ-N-REC_13
1002
{
1000
OWNER
1000
GEN
1002
}
1001
GENIUS_GENODEF_13
1002
{
1000
HIER
1070
     0
1002
}
1002
{
1000
MANEDIT
1070
     0
1002
}
1002
{
1000
NOSEL
1070
     0
1002
}
1002
{
1000
BEHIND
1070
     0
1002
}
1002
{
1000
OTHER
1070
     0
1002
}
1002
{
1000
REACTOR
1002
}
  0
DIMENSION
  5
2BC1
330
1A
100
AcDbEntity
  8
AM_5
100
AcDbDimension
  2
*D14
 10
34.24533795194292
 20
179.3523363484369
 30
0.0
 11
-31.39901595429604
 21
185.8523363484369
 31
0.0
 70
    32
 71
     5
 42
131.2887078124779
 73
     0
 74
     0
 75
     0
  3
AM_ISO
100
AcDbAlignedDimension
 13
-97.04336986053499
 23
203.3523363484369
 33
0.0
 14
34.24533795194292
 24
243.4501717439974
 34
0.0
 50
0.0000000000001132
100
AcDbRotatedDimension
1001
ACAD
1000
DSTYLE
1002
{
1070
    40
1040
2.0
1070
   271
1070
     0
1002
}
  0
DIMENSION
  5
2BE5
330
1A
100
AcDbEntity
  8
AM_5
100
AcDbDimension
  2
*D15
 10
-121.043370870535
 20
202.3523363484368
 30
0.0
 11
-127.543370870535
 21
230.3523363484369
 31
0.0
 70
    32
 71
     5
 42
56.00000000000003
 73
     0
 74
     0
 75
     0
  3
AM_ISO
100
AcDbAlignedDimension
 13
-97.04336986053499
 23
258.3523363484368
 33
0.0
 14
-96.043369860535
 24
202.3523363484368
 34
0.0
 50
90.0
100
AcDbRotatedDimension
1001
ACAD
1000
DSTYLE
1002
{
1070
    40
1040
2.0
1070
   271
1070
     0
1002
}
  0
DIMENSION
  5
2C09
330
1A
100
AcDbEntity
  8
AM_5
100
AcDbDimension
  2
*D16
 10
-97.04336986053499
 20
282.3523363484369
 30
0.0
 11
-86.043369860535
 21
288.8530253248148
 31
0.0
 70
    32
  1
%%c<>
 71
     5
 42
22.0
 73
     0
 74
     0
 75
     0
  3
AM_ISO
100
AcDbAlignedDimension
 13
-75.04336986053499
 23
258.3523363484368
 33
0.0
 14
-97.04336986053499
 24
258.3523363484368
 34
0.0
100
AcDbRotatedDimension
1001
ACAD
1000
DSTYLE
1002
{
1070
    40
1040
2.0
1070
   271
1070
     0
1002
}
  0
DIMENSION
  5
2C3A
330
1A
100
AcDbEntity
  8
AM_5
100
AcDbDimension
  2
*D17
 10
54.14210633392382
 20
258.3523363484368
 30
0.0
 11
47.64210633392377
 21
251.726186055151
 31
0.0
 70
    32
 71
     5
 42
13.25230058657172
 73
     0
 74
     0
 75
     0
  3
AM_ISO
100
AcDbAlignedDimension
 13
30.14210633392382
 23
245.1000357618651
 33
0.0
 14
-75.04336986053499
 24
258.3523363484368
 34
0.0
 50
90.0
100
AcDbRotatedDimension
1001
ACAD
1000
DSTYLE
1002
{
1070
    40
1040
2.0
1070
   271
1070
     0
1002
}
  0
DIMENSION
  5
2C57
330
1A
100
AcDbEntity
  8
AM_5
100
AcDbDimension
  2
*D18
 10
20.18950888611903
 20
207.8789051795529
 30
0.0
 11
-0.9083839018393291
 21
230.3208698365196
 31
0.0
 70
    34
 71
     5
 42
1.95476876223365
 73
     0
 74
     0
 75
     0
  3
AM_ISO
100
AcDb2LineAngularDimension
 13
16.60761310578005
 23
202.3523363484368
 33
0.0
 14
-86.043369860535
 24
202.3523363484368
 34
0.0
 15
34.25201695305736
 25
242.6848340220922
 35
0.0
 16
10.75464459637388
 26
228.6183140137345
 36
0.0
1001
ACAD
1000
DSTYLE
1002
{
1070
    40
1040
2.0
1070
   271
1070
     0
1002
}
  0
DIMENSION
  5
2CA1
330
1A
100
AcDbEntity
  8
AM_5
100
AcDbDimension
  2
*D19
 10
-121.0433708705352
 20
320.641588866592
 30
0.0
 11
-127.5440598469132
 21
331.641588866592
 31
0.0
 70
    32
 71
     5
 42
22.0
 73
     0
 74
     0
 75
     0
  3
AM_ISO
100
AcDbAlignedDimension
 13
-86.043369860535
 23
342.641588866592
 33
0.0
 14
-86.043369860535
 24
320.641588866592
 34
0.0
 50
90.00000000000003
100
AcDbRotatedDimension
1001
ACAD
1000
DSTYLE
1002
{
1070
    40
1040
2.0
1070
   271
1070
     0
1002
}
  0
DIMENSION
  5
2CF6
330
1A
100
AcDbEntity
  8
AM_5
100
AcDbDimension
  2
*D20
 10
58.32483410849045
 20
322.7191898987434
 30
0.0
 11
51.8248341084904
 21
331.641588866592
 31
0.0
 70
    32
 71
     5
 42
17.8447979356971
 73
     0
 74
     0
 75
     0
  3
AM_ISO
100
AcDbAlignedDimension
 13
34.32483309849045
 23
340.5639878344405
 33
0.0
 14
34.32483309849045
 24
322.7191898987434
 34
0.0
 50
90.0
100
AcDbRotatedDimension
1001
ACAD
1000
DSTYLE
1002
{
1070
    40
1040
2.0
1070
   271
1070
     0
1002
}
  0
VIEWPORT
  5
22
330
17
100
AcDbEntity
 67
     1
  8
0
100
AcDbViewport
 10
112.2893422104056
 20
152.9962003562143
 30
0.0
 40
408.1687337183674
 41
318.4351405079092
 68
     1
 69
     1
 12
112.2893422104056
 22
152.9962003562143
 13
0.0
 23
0.0
 14
10.0
 24
10.0
 15
10.0
 25
10.0
 16
0.0
 26
0.0
 36
1.0
 17
0.0
 27
0.0
 37
0.0
 42
50.0
 43
0.0
 44
0.0
 45
318.4351405079092
 50
0.0
 51
0.0
 72
   100
331
1969
 90
    32800
  1

281
     0
 71
     1
 74
     0
110
0.0
120
0.0
130
0.0
111
1.0
121
0.0
131
0.0
112
0.0
122
1.0
132
0.0
 79
     0
146
0.0
170
     0
 61
     5
348
2D1B
292
     1
282
     1
141
0.0
142
0.0
 63
   250
421
  3355443
1001
GENIUS_GENSCREG_15
1000
PF
1040
1.0
1000
DF
1040
1.0
1000
MIN
1011
11.7063398794879
1021
69.23822698240406
1031
0.0
1000
MAX
1011
146.8807982645257
1021
174.6953433489414
1031
0.0
1000
FLAGS
1070
     4
1001
GENIUS_GENOREF_13
1005
1677
  0
POINT
  5
1895
330
17
100
AcDbEntity
 67
     1
  8
AM_0
 60
     1
100
AcDbPoint
 10
0.0
 20
0.0
 30
0.0
  0
POINT
  5
189D
330
17
100
AcDbEntity
 67
     1
  8
AM_0
 60
     1
100
AcDbPoint
 10
0.0
 20
0.0
 30
0.0
  0
POINT
  5
1900
330
17
100
AcDbEntity
 67
     1
  8
AM_0
 60
     1
100
AcDbPoint
 10
0.0
 20
0.0
 30
0.0
  0
POINT
  5
1908
330
17
100
AcDbEntity
 67
     1
  8
AM_0
 60
     1
100
AcDbPoint
 10
0.0
 20
0.0
 30
0.0
  0
ENDSEC
  0
SECTION
  2
OBJECTS
  0
DICTIONARY
  5
C
330
0
100
AcDbDictionary
281
     1
  3
ACAD_COLOR
350
1B9F
  3
ACAD_GROUP
350
D
  3
ACAD_LAYOUT
350
167
  3
ACAD_MATERIAL
350
1B9E
  3
ACAD_MLINESTYLE
350
E
  3
ACAD_PLOTSETTINGS
350
168
  3
ACAD_PLOTSTYLENAME
350
165
  3
ACAD_TABLESTYLE
350
2D26
  3
ACAD_VISUALSTYLE
350
2D15
  3
ACDBVARIABLEDICTIONARY
350
5D
  3
ACMDICTIONARY
350
142
  3
AMG
350
171
  3
AMG_3D2D_DICT
350
18A8
  3
AMGSNAPSETTINGS
350
1F2
  3
MAPISURF_MODULE
350
17FD
  0
DICTIONARY
  5
12A
330
1A
100
AcDbDictionary
280
     1
281
     1
  3
ACAD_INDEX
360
232B
  0
DICTIONARY
  5
252A
330
24CE
100
AcDbDictionary
280
     1
281
     1
  0
DICTIONARY
  5
1B9F
102
{ACAD_REACTORS
330
C
102
}
330
C
100
AcDbDictionary
281
     1
  0
DICTIONARY
  5
D
102
{ACAD_REACTORS
330
C
102
}
330
C
100
AcDbDictionary
281
     1
  0
DICTIONARY
  5
167
102
{ACAD_REACTORS
330
C
102
}
330
C
100
AcDbDictionary
281
     1
  3
A0
350
351
  3
A1
350
314
  3
A2
350
349
  3
A3
350
2E1
  3
A4
350
16A
  3
Model
350
169
  0
DICTIONARY
  5
1B9E
102
{ACAD_REACTORS
330
C
102
}
330
C
100
AcDbDictionary
281
     1
  3
ByBlock
350
2D13
  3
ByLayer
350
2D12
  3
Global
350
2D14
  0
DICTIONARY
  5
E
102
{ACAD_REACTORS
330
C
102
}
330
C
100
AcDbDictionary
281
     1
  3
STANDARD
350
13
  0
DICTIONARY
  5
168
102
{ACAD_REACTORS
330
C
102
}
330
C
100
AcDbDictionary
281
     1
  3
A0
350
2EE
  3
A0-A3
350
2F2
  3
A0-A4
350
2F3
  3
A1
350
2ED
  3
A2
350
2EA
  3
A3
350
31E
  3
A4
350
319
  0
ACDBDICTIONARYWDFLT
  5
165
102
{ACAD_REACTORS
330
C
102
}
330
C
100
AcDbDictionary
281
     1
  3
Normal
350
166
100
AcDbDictionaryWithDefault
340
166
  0
DICTIONARY
  5
2D26
102
{ACAD_REACTORS
330
C
102
}
330
C
100
AcDbDictionary
281
     1
  3
Standard
350
2D27
  0
DICTIONARY
  5
2D15
102
{ACAD_REACTORS
330
C
102
}
330
C
100
AcDbDictionary
281
     1
  3
2dWireframe
350
2D1B
  3
3D Hidden
350
2D1D
  3
3dWireframe
350
2D1C
  3
Basic
350
2D1A
  3
Brighten
350
2D21
  3
ColorChange
350
2D25
  3
Conceptual
350
2D1E
  3
Dim
350
2D20
  3
Facepattern
350
2D24
  3
Flat
350
2D16
  3
FlatWithEdges
350
2D17
  3
Gouraud
350
2D18
  3
GouraudWithEdges
350
2D19
  3
Linepattern
350
2D23
  3
Realistic
350
2D1F
  3
Thicken
350
2D22
  0
DICTIONARY
  5
5D
102
{ACAD_REACTORS
330
C
102
}
330
C
100
AcDbDictionary
281
     1
  3
CTABLESTYLE
350
2D5B
  3
DIMADEC
350
5E
  3
INDEXCTL
350
128
  3
SORTENTS
350
1044
  0
DICTIONARY
  5
142
102
{ACAD_REACTORS
330
C
102
}
330
C
100
AcDbDictionary
281
     1
  3
ACMSTDDICTIONARY
350
143
  3
AMDTSECTSYM_ARROWCOLOR
350
2D48
  0
DICTIONARY
  5
171
102
{ACAD_REACTORS
330
C
102
}
330
C
100
AcDbDictionary
281
     1
  3
AcMgSettings
350
172
  3
AMGLAYCFG
350
174
  0
DICTIONARY
  5
18A8
102
{ACAD_REACTORS
330
C
102
}
330
C
100
AcDbDictionary
281
     1
  3
AMG_SUBLIST_DICT
350
18A9
  0
DICTIONARY
  5
1F2
102
{ACAD_REACTORS
330
C
102
}
330
C
100
AcDbDictionary
281
     1
  3
DIMENSION
350
164B
  3
FEA
350
164C
  3
HATCH
350
164D
  3
SYMBOLS
350
164E
  0
DICTIONARY
  5
232B
102
{ACAD_REACTORS
330
12A
102
}
330
12A
100
AcDbDictionary
281
     1
  3
*A1
350
232C
  0
LAYOUT
  5
351
102
{ACAD_REACTORS
330
167
102
}
330
167
100
AcDbPlotSettings
  1
A0
  2
HPDJ220-A0
  4
User268
  6

 40
4.995333194732666
 41
16.93336677551269
 42
4.99530029296875
 43
16.933349609375
 44
840.9093017578125
 45
1188.8046875
 46
0.0
 47
0.0
 48
0.0
 49
0.0
140
0.0
141
0.0
142
1.0
143
1.0
 70
   752
 72
     1
 73
     1
 74
     5
  7
PLA0.ctb
 75
    16
147
1.0
 76
     0
 77
     2
 78
   300
148
0.0
149
0.0
100
AcDbLayout
  1
A0
 70
     1
 71
     5
 10
-16.933349609375
 20
-4.995333194732666
 11
1171.871337890625
 21
835.9139685630799
 12
0.0
 22
0.0
 32
0.0
 14
1.000000000000000E+20
 24
1.000000000000000E+20
 34
1.000000000000000E+20
 15
-1.000000000000000E+20
 25
-1.000000000000000E+20
 35
-1.000000000000000E+20
146
0.0
 13
0.0
 23
0.0
 33
0.0
 16
1.0
 26
0.0
 36
0.0
 17
0.0
 27
1.0
 37
0.0
 76
     0
330
34D
331
34E
  0
LAYOUT
  5
314
102
{ACAD_REACTORS
330
167
102
}
330
167
100
AcDbPlotSettings
  1
A2
  2
HPDJ220-A0
  4
User266
  6

 40
4.995333194732666
 41
16.93330574035644
 42
4.995330810546875
 43
16.933349609375
 44
419.9466552734374
 45
593.8519897460937
 46
0.0
 47
0.0
 48
0.0
 49
0.0
140
0.0
141
0.0
142
1.0
143
1.0
 70
   752
 72
     1
 73
     1
 74
     5
  7
PLA2.ctb
 75
    16
147
1.0
 76
     0
 77
     2
 78
   300
148
0.0
149
0.0
100
AcDbLayout
  1
A1
 70
     1
 71
     4
 10
-16.933349609375
 20
-4.995333194732666
 11
576.9186401367187
 21
414.9513220787047
 12
0.0
 22
0.0
 32
0.0
 14
1.000000000000000E+20
 24
1.000000000000000E+20
 34
1.000000000000000E+20
 15
-1.000000000000000E+20
 25
-1.000000000000000E+20
 35
-1.000000000000000E+20
146
0.0
 13
0.0
 23
0.0
 33
0.0
 16
1.0
 26
0.0
 36
0.0
 17
0.0
 27
1.0
 37
0.0
 76
     0
330
313
331
344
  0
LAYOUT
  5
349
102
{ACAD_REACTORS
330
167
102
}
330
167
100
AcDbPlotSettings
  1
A2
  2
HPDJ220-A0
  4
User266
  6

 40
4.995333194732666
 41
16.93330574035644
 42
4.995330810546875
 43
16.933349609375
 44
419.9466552734374
 45
593.8519897460937
 46
0.0
 47
0.0
 48
0.0
 49
0.0
140
0.0
141
0.0
142
1.0
143
1.0
 70
   752
 72
     1
 73
     1
 74
     5
  7
PLA2.ctb
 75
    16
147
1.0
 76
     0
 77
     2
 78
   300
148
0.0
149
0.0
100
AcDbLayout
  1
A2
 70
     1
 71
     3
 10
-16.933349609375
 20
-4.995333194732666
 11
576.9186401367187
 21
414.9513220787047
 12
0.0
 22
0.0
 32
0.0
 14
1.000000000000000E+20
 24
1.000000000000000E+20
 34
1.000000000000000E+20
 15
-1.000000000000000E+20
 25
-1.000000000000000E+20
 35
-1.000000000000000E+20
146
0.0
 13
0.0
 23
0.0
 33
0.0
 16
1.0
 26
0.0
 36
0.0
 17
0.0
 27
1.0
 37
0.0
 76
     0
330
345
331
346
  0
LAYOUT
  5
2E1
102
{ACAD_REACTORS
330
167
102
}
330
167
100
AcDbPlotSettings
  1
A3
  2
\\GLUTZCH_PDC\HP LaserJet 5000 N PCL 6
  4
A3
  6

 40
5.027083396911621
 41
5.111741065979003
 42
5.11175537109375
 43
5.027069091796875
 44
297.0106506347656
 45
419.9889831542968
 46
0.0
 47
0.0
 48
0.0
 49
0.0
140
0.0
141
0.0
142
1.0
143
1.0
 70
   752
 72
     1
 73
     1
 74
     5
  7
LAA3.ctb
 75
    16
147
1.0
 76
     0
 77
     2
 78
   300
148
0.0
149
0.0
100
AcDbLayout
  1
A3
 70
     1
 71
     2
 10
-5.027069091796875
 20
-5.027083396911621
 11
414.9619140625
 21
291.983567237854
 12
0.0
 22
0.0
 32
0.0
 14
1.000000000000000E+20
 24
1.000000000000000E+20
 34
1.000000000000000E+20
 15
-1.000000000000000E+20
 25
-1.000000000000000E+20
 35
-1.000000000000000E+20
146
0.0
 13
0.0
 23
0.0
 33
0.0
 16
1.0
 26
0.0
 36
0.0
 17
0.0
 27
1.0
 37
0.0
 76
     0
330
2E0
331
31D
  0
LAYOUT
  5
16A
102
{ACAD_REACTORS
330
167
102
}
330
167
100
AcDbPlotSettings
  1
A4
  2
\\GLUTZCH_PDC\HP LaserJet 5000 N PCL 6
  4
A4
  6

 40
5.027083396911621
 41
5.111741065979003
 42
5.11175537109375
 43
5.027069091796875
 44
210.0156707763672
 45
297.0106506347656
 46
0.0
 47
0.0
 48
0.0
 49
0.0
140
0.0
141
0.0
142
1.0
143
1.0
 70
   752
 72
     1
 73
     0
 74
     5
  7
LAA4.ctb
 75
    16
147
1.0
 76
     0
 77
     2
 78
   300
148
0.0
149
0.0
100
AcDbLayout
  1
A4
 70
     1
 71
     1
 10
-5.027083396911621
 20
-5.111741065979003
 11
204.9885873794556
 21
291.8989095687866
 12
0.0
 22
0.0
 32
0.0
 14
1.000000000000000E+20
 24
1.000000000000000E+20
 34
1.000000000000000E+20
 15
-1.000000000000000E+20
 25
-1.000000000000000E+20
 35
-1.000000000000000E+20
146
0.0
 13
0.0
 23
0.0
 33
0.0
 16
1.0
 26
0.0
 36
0.0
 17
0.0
 27
1.0
 37
0.0
 76
     0
330
17
331
22
  0
LAYOUT
  5
169
102
{ACAD_REACTORS
330
167
102
}
330
167
100
AcDbPlotSettings
  1

  2
HP LaserJet 5000 N PCL 6.pc3
  4
A4
  6
AM_VIEW1
 40
6.011333465576171
 41
4.233341693878173
 42
6.011322021484375
 43
4.23333740234375
 44
209.9733276367187
 45
296.9259948730469
 46
5.2
 47
0.0
 48
0.0
 49
0.0
140
0.0
141
0.0
142
1.0
143
1.962299293066535
 70
 11956
 72
     1
 73
     0
 74
     1
  7
LAA4.ctb
 75
     0
147
0.5096062580939295
 76
     1
 77
     4
 78
   600
148
372.8584808354173
149
359.5934850463597
100
AcDbLayout
  1
Model
 70
     1
 71
     0
 10
0.0
 20
0.0
 11
12.0
 21
9.0
 12
0.0
 22
0.0
 32
0.0
 14
0.0
 24
0.0
 34
0.0
 15
0.0
 25
0.0
 35
0.0
146
0.0
 13
0.0
 23
0.0
 33
0.0
 16
1.0
 26
0.0
 36
0.0
 17
0.0
 27
1.0
 37
0.0
 76
     0
330
1A
331
2D10
  0
MATERIAL
  5
2D13
102
{ACAD_REACTORS
330
1B9E
102
}
330
1B9E
100
AcDbMaterial
  1
ByBlock
  0
MATERIAL
  5
2D12
102
{ACAD_REACTORS
330
1B9E
102
}
330
1B9E
100
AcDbMaterial
  1
ByLayer
  0
MATERIAL
  5
2D14
102
{ACAD_REACTORS
330
1B9E
102
}
330
1B9E
100
AcDbMaterial
  1
Global
  0
MLINESTYLE
  5
13
102
{ACAD_REACTORS
330
E
102
}
330
E
100
AcDbMlineStyle
  2
STANDARD
 70
     0
  3

 62
     0
 51
90.0
 52
90.0
 71
     2
 49
0.5
 62
   256
  6
BYLAYER
 49
-0.5
 62
   256
  6
BYLAYER
  0
PLOTSETTINGS
  5
2EE
102
{ACAD_REACTORS
330
168
102
}
330
168
100
AcDbPlotSettings
  1
A0
  2
HPDJ220-A0
  4
User268
  6

 40
4.995333194732666
 41
16.93336677551269
 42
4.99530029296875
 43
16.933349609375
 44
840.9093017578125
 45
1188.8046875
 46
0.0
 47
0.0
 48
0.0
 49
0.0
140
0.0
141
0.0
142
1.0
143
1.0
 70
   752
 72
     1
 73
     1
 74
     5
  7
PLA0.ctb
 75
    16
147
1.0
 76
     0
 77
     2
 78
   300
148
0.0
149
0.0
  0
PLOTSETTINGS
  5
2F2
102
{ACAD_REACTORS
330
168
102
}
330
168
100
AcDbPlotSettings
  1
A0-A3
  2
\\GLUTZCH_PDC\HP LaserJet 5000 N PCL 6
  4
A3
  6

 40
5.027083396911621
 41
5.111741065979003
 42
5.11175537109375
 43
5.027069091796875
 44
297.0106506347656
 45
419.9889831542968
 46
0.0
 47
0.0
 48
0.0
 49
0.0
140
0.0
141
0.0
142
1.0
143
1.0
 70
   752
 72
     1
 73
     1
 74
     5
  7
LAA0-A3.ctb
 75
     0
147
1.0
 76
     0
 77
     2
 78
   300
148
0.0
149
0.0
  0
PLOTSETTINGS
  5
2F3
102
{ACAD_REACTORS
330
168
102
}
330
168
100
AcDbPlotSettings
  1
A0-A4
  2
\\GLUTZCH_PDC\HP LaserJet 5000 N PCL 6
  4
A4
  6

 40
5.027083396911621
 41
5.111741065979003
 42
5.11175537109375
 43
5.027069091796875
 44
210.0156707763672
 45
297.0106506347656
 46
0.0
 47
0.0
 48
0.0
 49
0.0
140
0.0
141
0.0
142
1.0
143
1.0
 70
   752
 72
     1
 73
     0
 74
     5
  7
LAA0-A4.ctb
 75
     0
147
1.0
 76
     0
 77
     2
 78
   300
148
0.0
149
0.0
  0
PLOTSETTINGS
  5
2ED
102
{ACAD_REACTORS
330
168
102
}
330
168
100
AcDbPlotSettings
  1
A1
  2
HPDJ220-A0
  4
User267
  6

 40
4.995333194732666
 41
16.93330574035644
 42
4.99530029296875
 43
16.933349609375
 44
593.9366455078125
 45
840.8246459960937
 46
0.0
 47
0.0
 48
0.0
 49
0.0
140
0.0
141
0.0
142
1.0
143
1.0
 70
   752
 72
     1
 73
     1
 74
     5
  7
PLA1.ctb
 75
    16
147
1.0
 76
     0
 77
     2
 78
   300
148
0.0
149
0.0
  0
PLOTSETTINGS
  5
2EA
102
{ACAD_REACTORS
330
168
102
}
330
168
100
AcDbPlotSettings
  1
A2
  2
HPDJ220-A0
  4
User266
  6

 40
4.995333194732666
 41
16.93330574035644
 42
4.995330810546875
 43
16.933349609375
 44
419.9466552734374
 45
593.8519897460937
 46
0.0
 47
0.0
 48
0.0
 49
0.0
140
0.0
141
0.0
142
1.0
143
1.0
 70
   752
 72
     1
 73
     1
 74
     5
  7
PLA2.ctb
 75
    16
147
1.0
 76
     0
 77
     2
 78
   300
148
0.0
149
0.0
  0
PLOTSETTINGS
  5
31E
102
{ACAD_REACTORS
330
168
102
}
330
168
100
AcDbPlotSettings
  1
A3
  2
\\GLUTZCH_PDC\HP LaserJet 5000 N PCL 6
  4
A3
  6

 40
5.027083396911621
 41
5.111741065979003
 42
5.11175537109375
 43
5.027069091796875
 44
297.0106506347656
 45
419.9889831542968
 46
0.0
 47
0.0
 48
0.0
 49
0.0
140
0.0
141
0.0
142
1.0
143
1.0
 70
   752
 72
     1
 73
     1
 74
     5
  7
LAA3.ctb
 75
    16
147
1.0
 76
     0
 77
     2
 78
   300
148
0.0
149
0.0
  0
PLOTSETTINGS
  5
319
102
{ACAD_REACTORS
330
168
102
}
330
168
100
AcDbPlotSettings
  1
A4
  2
\\GLUTZCH_PDC\HP LaserJet 5000 N PCL 6
  4
A4
  6

 40
5.027083396911621
 41
5.111741065979003
 42
5.11175537109375
 43
5.027069091796875
 44
210.0156707763672
 45
297.0106506347656
 46
0.0
 47
0.0
 48
0.0
 49
0.0
140
0.0
141
0.0
142
1.0
143
1.0
 70
   752
 72
     1
 73
     0
 74
     5
  7
LAA4.ctb
 75
    16
147
1.0
 76
     0
 77
     2
 78
   300
148
0.0
149
0.0
  0
ACDBPLACEHOLDER
  5
166
102
{ACAD_REACTORS
330
165
102
}
330
165
  0
TABLESTYLE
  5
2D27
102
{ACAD_REACTORS
330
2D26
102
}
330
2D26
100
AcDbTableStyle
  3
Standard
 70
     0
 71
     0
 40
1.5
 41
1.5
280
     0
281
     0
  7
STANDARD
140
4.5
170
     2
 62
     0
 63
     7
283
     0
 90
      512
 91
        0
  1

274
    -2
284
     1
 64
     0
275
    -2
285
     1
 65
     0
276
    -2
286
     1
 66
     0
277
    -2
287
     1
 67
     0
278
    -2
288
     1
 68
     0
279
    -2
289
     1
 69
     0
  7
STANDARD
140
6.0
170
     5
 62
     0
 63
     7
283
     0
 90
      512
 91
        0
  1

274
    -2
284
     1
 64
     0
275
    -2
285
     1
 65
     0
276
    -2
286
     1
 66
     0
277
    -2
287
     1
 67
     0
278
    -2
288
     1
 68
     0
279
    -2
289
     1
 69
     0
  7
STANDARD
140
4.5
170
     5
 62
     0
 63
     7
283
     0
 90
      512
 91
        0
  1

274
    -2
284
     1
 64
     0
275
    -2
285
     1
 65
     0
276
    -2
286
     1
 66
     0
277
    -2
287
     1
 67
     0
278
    -2
288
     1
 68
     0
279
    -2
289
     1
 69
     0
  0
VISUALSTYLE
  5
2D1B
102
{ACAD_REACTORS
330
2D15
102
}
330
2D15
100
AcDbVisualStyle
  2
2dWireframe
 70
     4
 71
     0
 72
     2
 73
     0
 90
        0
 40
-0.6
 41
-30.0
 62
     5
 63
     7
421
 16777215
 74
     1
 91
        4
 64
     7
 65
   257
 75
     1
175
     1
 42
1.0
 92
        0
 66
   257
 43
1.0
 76
     1
 77
     6
 78
     2
 67
     7
 79
     5
170
     0
171
     0
290
     0
174
     0
 93
        1
 44
0.0
173
     0
291
     0
 45
0.0
  0
VISUALSTYLE
  5
2D1D
102
{ACAD_REACTORS
330
2D15
102
}
330
2D15
100
AcDbVisualStyle
  2
3D Hidden
 70
     6
 71
     1
 72
     2
 73
     2
 90
        0
 40
-0.6
 41
-30.0
 62
     5
 63
     7
421
 16777215
 74
     2
 91
        2
 64
     7
 65
   257
 75
     2
175
     1
 42
40.0
 92
        0
 66
   257
 43
1.0
 76
     1
 77
     6
 78
     2
 67
     7
 79
     3
170
     0
171
     0
290
     0
174
     0
 93
        1
 44
0.0
173
     0
291
     0
 45
0.0
  0
VISUALSTYLE
  5
2D1C
102
{ACAD_REACTORS
330
2D15
102
}
330
2D15
100
AcDbVisualStyle
  2
3dWireframe
 70
     5
 71
     0
 72
     2
 73
     0
 90
        0
 40
-0.6
 41
-30.0
 62
     5
 63
     7
421
 16777215
 74
     1
 91
        4
 64
     7
 65
   257
 75
     1
175
     1
 42
1.0
 92
        0
 66
   257
 43
1.0
 76
     1
 77
     6
 78
     2
 67
     7
 79
     5
170
     0
171
     0
290
     0
174
     0
 93
        1
 44
0.0
173
     0
291
     0
 45
0.0
  0
VISUALSTYLE
  5
2D1A
102
{ACAD_REACTORS
330
2D15
102
}
330
2D15
100
AcDbVisualStyle
  2
Basic
 70
     7
 71
     1
 72
     0
 73
     1
 90
        0
 40
-0.6
 41
-30.0
 62
     5
 63
     7
421
 16777215
 74
     0
 91
        4
 64
     7
 65
   257
 75
     1
175
     1
 42
1.0
 92
        8
 66
     7
 43
1.0
 76
     1
 77
     6
 78
     2
 67
     7
 79
     5
170
     0
171
     0
290
     0
174
     0
 93
        1
 44
0.0
173
     0
291
     1
 45
0.0
  0
VISUALSTYLE
  5
2D21
102
{ACAD_REACTORS
330
2D15
102
}
330
2D15
100
AcDbVisualStyle
  2
Brighten
 70
    12
 71
     2
 72
     2
 73
     0
 90
        0
 40
-0.6
 41
-30.0
 62
     5
 63
     7
421
 16777215
 74
     1
 91
        4
 64
     7
 65
   257
 75
     1
175
     1
 42
1.0
 92
        8
 66
     7
 43
1.0
 76
     1
 77
     6
 78
     2
 67
     7
 79
     5
170
     0
171
     0
290
     0
174
     0
 93
        1
 44
50.0
173
     0
291
     1
 45
0.0
  0
VISUALSTYLE
  5
2D25
102
{ACAD_REACTORS
330
2D15
102
}
330
2D15
100
AcDbVisualStyle
  2
ColorChange
 70
    16
 71
     2
 72
     2
 73
     3
 90
        0
 40
-0.6
 41
-30.0
 62
     5
 63
     8
421
  8421504
 74
     1
 91
        4
 64
     7
 65
   257
 75
     1
175
     1
 42
1.0
 92
        8
 66
     8
424
  8421504
 43
1.0
 76
     1
 77
     6
 78
     2
 67
     7
 79
     5
170
     0
171
     0
290
     0
174
     0
 93
        1
 44
0.0
173
     0
291
     1
 45
0.0
  0
VISUALSTYLE
  5
2D1E
102
{ACAD_REACTORS
330
2D15
102
}
330
2D15
100
AcDbVisualStyle
  2
Conceptual
 70
     9
 71
     3
 72
     2
 73
     0
 90
        0
 40
-0.6
 41
-30.0
 62
     5
 63
     7
421
 16777215
 74
     2
 91
        2
 64
     7
 65
   257
 75
     1
175
     1
 42
40.0
 92
        8
 66
     7
 43
1.0
 76
     1
 77
     6
 78
     2
 67
     7
 79
     3
170
     0
171
     0
290
     0
174
     0
 93
        1
 44
0.0
173
     0
291
     0
 45
0.0
  0
VISUALSTYLE
  5
2D20
102
{ACAD_REACTORS
330
2D15
102
}
330
2D15
100
AcDbVisualStyle
  2
Dim
 70
    11
 71
     2
 72
     2
 73
     0
 90
        0
 40
-0.6
 41
-30.0
 62
     5
 63
     7
421
 16777215
 74
     1
 91
        4
 64
     7
 65
   257
 75
     1
175
     1
 42
1.0
 92
        8
 66
     7
 43
1.0
 76
     1
 77
     6
 78
     2
 67
     7
 79
     5
170
     0
171
     0
290
     0
174
     0
 93
        1
 44
-50.0
173
     0
291
     1
 45
0.0
  0
VISUALSTYLE
  5
2D24
102
{ACAD_REACTORS
330
2D15
102
}
330
2D15
100
AcDbVisualStyle
  2
Facepattern
 70
    15
 71
     2
 72
     2
 73
     0
 90
        0
 40
-0.6
 41
-30.0
 62
     5
 63
     7
421
 16777215
 74
     1
 91
        4
 64
     7
 65
   257
 75
     1
175
     1
 42
1.0
 92
        8
 66
     7
 43
1.0
 76
     1
 77
     6
 78
     2
 67
     7
 79
     5
170
     0
171
     0
290
     0
174
     0
 93
        1
 44
0.0
173
     0
291
     1
 45
0.0
  0
VISUALSTYLE
  5
2D16
102
{ACAD_REACTORS
330
2D15
102
}
330
2D15
100
AcDbVisualStyle
  2
Flat
 70
     0
 71
     2
 72
     1
 73
     1
 90
        2
 40
-0.6
 41
30.0
 62
     5
 63
     7
421
 16777215
 74
     0
 91
        4
 64
     7
 65
   257
 75
     1
175
     1
 42
1.0
 92
        8
 66
     7
 43
1.0
 76
     1
 77
     6
 78
     2
 67
     7
 79
     5
170
     0
171
     0
290
     0
174
     0
 93
       13
 44
0.0
173
     0
291
     1
 45
0.0
  0
VISUALSTYLE
  5
2D17
102
{ACAD_REACTORS
330
2D15
102
}
330
2D15
100
AcDbVisualStyle
  2
FlatWithEdges
 70
     1
 71
     2
 72
     1
 73
     1
 90
        2
 40
-0.6
 41
30.0
 62
     5
 63
     7
421
 16777215
 74
     1
 91
        4
 64
     7
 65
   257
 75
     1
175
     1
 42
1.0
 92
        0
 66
   257
 43
1.0
 76
     1
 77
     6
 78
     2
 67
     7
 79
     5
170
     0
171
     0
290
     0
174
     0
 93
       13
 44
0.0
173
     0
291
     1
 45
0.0
  0
VISUALSTYLE
  5
2D18
102
{ACAD_REACTORS
330
2D15
102
}
330
2D15
100
AcDbVisualStyle
  2
Gouraud
 70
     2
 71
     2
 72
     2
 73
     1
 90
        2
 40
-0.6
 41
30.0
 62
     5
 63
     7
421
 16777215
 74
     0
 91
        4
 64
     7
 65
   257
 75
     1
175
     1
 42
1.0
 92
        0
 66
     7
 43
1.0
 76
     1
 77
     6
 78
     2
 67
     7
 79
     5
170
     0
171
     0
290
     0
174
     0
 93
       13
 44
0.0
173
     0
291
     1
 45
0.0
  0
VISUALSTYLE
  5
2D19
102
{ACAD_REACTORS
330
2D15
102
}
330
2D15
100
AcDbVisualStyle
  2
GouraudWithEdges
 70
     3
 71
     2
 72
     2
 73
     1
 90
        2
 40
-0.6
 41
30.0
 62
     5
 63
     7
421
 16777215
 74
     1
 91
        4
 64
     7
 65
   257
 75
     1
175
     1
 42
1.0
 92
        0
 66
   257
 43
1.0
 76
     1
 77
     6
 78
     2
 67
     7
 79
     5
170
     0
171
     0
290
     0
174
     0
 93
       13
 44
0.0
173
     0
291
     1
 45
0.0
  0
VISUALSTYLE
  5
2D23
102
{ACAD_REACTORS
330
2D15
102
}
330
2D15
100
AcDbVisualStyle
  2
Linepattern
 70
    14
 71
     2
 72
     2
 73
     0
 90
        0
 40
-0.6
 41
-30.0
 62
     5
 63
     7
421
 16777215
 74
     1
 91
        4
 64
     7
 65
   257
 75
     7
175
     7
 42
1.0
 92
        8
 66
     7
 43
1.0
 76
     1
 77
     6
 78
     2
 67
     7
 79
     5
170
     0
171
     0
290
     0
174
     0
 93
        1
 44
0.0
173
     0
291
     1
 45
0.0
  0
VISUALSTYLE
  5
2D1F
102
{ACAD_REACTORS
330
2D15
102
}
330
2D15
100
AcDbVisualStyle
  2
Realistic
 70
     8
 71
     2
 72
     2
 73
     0
 90
        0
 40
-0.6
 41
-30.0
 62
     5
 63
     7
421
 16777215
 74
     1
 91
        0
 64
     7
 65
   257
 75
     1
175
     1
 42
1.0
 92
        8
 66
     8
424
  7895160
 43
1.0
 76
     1
 77
     6
 78
     2
 67
     7
 79
     5
170
     0
171
     0
290
     0
174
     0
 93
       13
 44
0.0
173
     0
291
     0
 45
0.0
  0
VISUALSTYLE
  5
2D22
102
{ACAD_REACTORS
330
2D15
102
}
330
2D15
100
AcDbVisualStyle
  2
Thicken
 70
    13
 71
     2
 72
     2
 73
     0
 90
        0
 40
-0.6
 41
-30.0
 62
     5
 63
     7
421
 16777215
 74
     1
 91
        4
 64
     7
 65
   257
 75
     1
175
     1
 42
1.0
 92
       12
 66
     7
 43
1.0
 76
     1
 77
     6
 78
     2
 67
     7
 79
     5
170
     0
171
     0
290
     0
174
     0
 93
        1
 44
0.0
173
     0
291
     1
 45
0.0
  0
DICTIONARYVAR
  5
2D5B
102
{ACAD_REACTORS
330
5D
102
}
330
5D
100
DictionaryVariables
280
     0
  1
STANDARD
  0
DICTIONARYVAR
  5
5E
102
{ACAD_REACTORS
330
5D
102
}
330
5D
100
DictionaryVariables
280
     0
  1
0
  0
DICTIONARYVAR
  5
128
102
{ACAD_REACTORS
330
5D
102
}
330
5D
100
DictionaryVariables
280
     0
  1
1
  0
DICTIONARYVAR
  5
1044
102
{ACAD_REACTORS
330
5D
102
}
330
5D
100
DictionaryVariables
280
     0
  1
96
  0
DICTIONARY
  5
143
102
{ACAD_REACTORS
330
142
102
}
330
142
100
AcDbDictionary
281
     1
  0
XRECORD
  5
2D48
102
{ACAD_REACTORS
330
142
102
}
330
142
100
AcDbXrecord
280
     1
 90
-1023410169
  0
DICTIONARY
  5
172
102
{ACAD_REACTORS
330
171
102
}
330
171
100
AcDbDictionary
281
     1
  3
DWGSETTINGS
350
173
  3
FEM
350
3A0
  3
Shaft
350
393
  3
TRANSSETTINGS
350
17D
  0
DICTIONARY
  5
18A9
102
{ACAD_REACTORS
330
18A8
102
}
330
18A8
100
AcDbDictionary
281
     1
  0
ACAMGFILTERDAT
  5
164B
102
{ACAD_REACTORS
330
1F2
102
}
330
1F2
100
AcAmgFilterDat
 70
    15
  1
DIMENSION,AMDT_*_DIM
  2
*
  3
*
  4
*
  5
*
290
     1
  0
ACAMGFILTERDAT
  5
164C
102
{ACAD_REACTORS
330
1F2
102
}
330
1F2
100
AcAmgFilterDat
 70
    15
  1
*
  2
AM_FEA-AM_*
  3
*
  4
*
  5
*
290
     1
  0
ACAMGFILTERDAT
  5
164D
102
{ACAD_REACTORS
330
1F2
102
}
330
1F2
100
AcAmgFilterDat
 70
    15
  1
HATCH
  2
*
  3
*
  4
*
  5
*
290
     1
  0
ACAMGFILTERDAT
  5
164E
102
{ACAD_REACTORS
330
1F2
102
}
330
1F2
100
AcAmgFilterDat
 70
    15
  1
ACMFCFRAME,ACMDATUMTARGET,ACMDATUMID,ACMWELDSYM,ACMSURFSYM,ACMFEATID,ACMPARTREF,ACMBALLOON
  2
*
  3
*
  4
*
  5
*
290
     1
  0
LAYER_INDEX
  5
232C
102
{ACAD_REACTORS
330
232B
102
}
330
232B
100
AcDbIndex
 40
2453938.573704063
100
AcDbLayerIndex
  8
0
360
232D
 90
        0
  8
AM_0
360
232E
 90
        3
  8
AM_1
360
232F
 90
        0
  8
AM_2
360
2330
 90
        0
  8
AM_3
360
2331
 90
        0
  8
AM_4
360
2332
 90
        0
  8
AM_5
360
2333
 90
        7
  8
AM_6
360
2334
 90
        1
  8
AM_7
360
2335
 90
        5
  8
AM_8
360
2336
 90
        0
  8
AM_FR
360
2337
 90
        0
  8
ASHADE
360
2338
 90
        9
  8
AM_WORK
360
2339
 90
        0
  8
AM_CL
360
233A
 90
        0
  8
Defpoints
360
233B
 90
        0
  8
ASRF_TMP
360
233C
 90
        0
  8
AM_VIEWS
360
233D
 90
        1
  8
AM_VIS
360
233E
 90
       44
  8
AM_HID
360
233F
 90
        0
  8
AM_PARDIM
360
2340
 90
        0
  8
AmdtBRLock
360
2341
 90
        0
  8
1
360
2342
 90
        0
  8
7
360
2343
 90
        0
  8
RAND
360
2576
 90
        0
  8
KLIN
360
2577
 90
        0
  8
5
360
2578
 90
        0
  8
RAHM2
360
2579
 90
        0
  8
RAHM3
360
257A
 90
        0
  8
RAHM5
360
257B
 90
        0
  8
KOPF
360
257C
 90
        0
  8
AM_TR
360
257D
 90
        0
  8
AM_BM
360
257E
 90
        0
  8
AM_BL
360
257F
 90
        0
  8
AM_REFDIM
360
2580
 90
        0
  8
AM_SUPPR
360
2581
 90
        0
  8
VIEW
360
2582
 90
        0
  0
IDBUFFER
  5
232D
330
0
100
AcDbIdBuffer
  0
IDBUFFER
  5
232E
330
0
100
AcDbIdBuffer
330
2BAE
330
2BAF
330
2BB0
  0
IDBUFFER
  5
232F
330
0
100
AcDbIdBuffer
  0
IDBUFFER
  5
2330
330
0
100
AcDbIdBuffer
  0
IDBUFFER
  5
2331
330
0
100
AcDbIdBuffer
  0
IDBUFFER
  5
2332
330
0
100
AcDbIdBuffer
  0
IDBUFFER
  5
2333
330
0
100
AcDbIdBuffer
330
2BC1
330
2BE5
330
2C09
330
2C3A
330
2C57
330
2CA1
330
2CF6
  0
IDBUFFER
  5
2334
330
0
100
AcDbIdBuffer
330
1DBB
  0
IDBUFFER
  5
2335
330
0
100
AcDbIdBuffer
330
2835
330
2836
330
2837
330
2838
330
2839
  0
IDBUFFER
  5
2336
330
0
100
AcDbIdBuffer
  0
IDBUFFER
  5
2337
330
0
100
AcDbIdBuffer
  0
IDBUFFER
  5
2338
330
0
100
AcDbIdBuffer
330
3FB
330
3FC
330
3FD
330
3FE
330
3FF
330
400
330
401
330
402
330
409
  0
IDBUFFER
  5
2339
330
0
100
AcDbIdBuffer
  0
IDBUFFER
  5
233A
330
0
100
AcDbIdBuffer
  0
IDBUFFER
  5
233B
330
0
100
AcDbIdBuffer
  0
IDBUFFER
  5
233C
330
0
100
AcDbIdBuffer
  0
IDBUFFER
  5
233D
330
0
100
AcDbIdBuffer
330
1A83
  0
IDBUFFER
  5
233E
330
0
100
AcDbIdBuffer
330
27D3
330
27D4
330
27D5
330
27D6
330
27D7
330
27D8
330
27D9
330
27DA
330
27DB
330
27DC
330
27DD
330
27DE
330
27DF
330
27E0
330
27E1
330
27E2
330
27E3
330
27E4
330
27E5
330
27E6
330
27E7
330
27E8
330
27E9
330
27EA
330
27EB
330
27F6
330
280F
330
2810
330
2811
330
2812
330
2813
330
2814
330
2815
330
2816
330
2817
330
2818
330
2819
330
281A
330
281B
330
281C
330
281D
330
281E
330
281F
330
2820
  0
IDBUFFER
  5
233F
330
0
100
AcDbIdBuffer
  0
IDBUFFER
  5
2340
330
0
100
AcDbIdBuffer
  0
IDBUFFER
  5
2341
330
0
100
AcDbIdBuffer
  0
IDBUFFER
  5
2342
330
0
100
AcDbIdBuffer
  0
IDBUFFER
  5
2343
330
0
100
AcDbIdBuffer
  0
IDBUFFER
  5
2576
330
0
100
AcDbIdBuffer
  0
IDBUFFER
  5
2577
330
0
100
AcDbIdBuffer
  0
IDBUFFER
  5
2578
330
0
100
AcDbIdBuffer
  0
IDBUFFER
  5
2579
330
0
100
AcDbIdBuffer
  0
IDBUFFER
  5
257A
330
0
100
AcDbIdBuffer
  0
IDBUFFER
  5
257B
330
0
100
AcDbIdBuffer
  0
IDBUFFER
  5
257C
330
0
100
AcDbIdBuffer
  0
IDBUFFER
  5
257D
330
0
100
AcDbIdBuffer
  0
IDBUFFER
  5
257E
330
0
100
AcDbIdBuffer
  0
IDBUFFER
  5
257F
330
0
100
AcDbIdBuffer
  0
IDBUFFER
  5
2580
330
0
100
AcDbIdBuffer
  0
IDBUFFER
  5
2581
330
0
100
AcDbIdBuffer
  0
IDBUFFER
  5
2582
330
0
100
AcDbIdBuffer
  0
ENDSEC
  0
EOF
