  0
SECTION
  2
HEADER
  9
$ACADVER
  1
AC1021
  9
$ACADMAINTVER
 70
    50
  9
$DWGCODEPAGE
  3
ANSI_1252
  9
$AUTHOR
  1
zsm
  9
$CUSTOMPROPERTYTAG
  1
Manager
  9
$CUSTOMPROPERTY
  1

  9
$CUSTOMPROPERTYTAG
  1
Firma
  9
$CUSTOMPROPERTY
  1

  9
$CUSTOMPROPERTYTAG
  1
Kategorie
  9
$CUSTOMPROPERTY
  1

  9
$CUSTOMPROPERTYTAG
  1
Bauteilnummer
  9
$CUSTOMPROPERTY
  1
50057
  9
$CUSTOMPROPERTYTAG
  1
Bezeichnung
  9
$CUSTOMPROPERTY
  1
Metallbaugarnitur kpl.
  9
$CUSTOMPROPERTYTAG
  1
Projekt
  9
$CUSTOMPROPERTY
  1

  9
$CUSTOMPROPERTYTAG
  1
Konstrukteur
  9
$CUSTOMPROPERTY
  1
zsm
  9
$CUSTOMPROPERTYTAG
  1
Ingenieur
  9
$CUSTOMPROPERTY
  1

  9
$CUSTOMPROPERTYTAG
  1
Bevollmächtigter
  9
$CUSTOMPROPERTY
  1

  9
$CUSTOMPROPERTYTAG
  1
Kostenstelle
  9
$CUSTOMPROPERTY
  1

  9
$CUSTOMPROPERTYTAG
  1
Zulieferer
  9
$CUSTOMPROPERTY
  1

  9
$CUSTOMPROPERTYTAG
  1
Benutzerstatus
  9
$CUSTOMPROPERTY
  1

  9
$CUSTOMPROPERTYTAG
  1
Konstruktionsstatus
  9
$CUSTOMPROPERTY
  1
InBearbeitung
  9
$CUSTOMPROPERTYTAG
  1
Kontrolliert von
  9
$CUSTOMPROPERTY
  1

  9
$CUSTOMPROPERTYTAG
  1
Konstruktion genehmigt von
  9
$CUSTOMPROPERTY
  1

  9
$CUSTOMPROPERTYTAG
  1
Fertigung genehmigt von
  9
$CUSTOMPROPERTY
  1

  9
$CUSTOMPROPERTYTAG
  1
Aend_Beschreibung_1
  9
$CUSTOMPROPERTY
  1

  9
$CUSTOMPROPERTYTAG
  1
Aend_Beschreibung_2
  9
$CUSTOMPROPERTY
  1

  9
$CUSTOMPROPERTYTAG
  1
Aend_Beschreibung_3
  9
$CUSTOMPROPERTY
  1

  9
$CUSTOMPROPERTYTAG
  1
Aend_Beschreibung_4
  9
$CUSTOMPROPERTY
  1

  9
$CUSTOMPROPERTYTAG
  1
Aend_Beschreibung_5
  9
$CUSTOMPROPERTY
  1

  9
$CUSTOMPROPERTYTAG
  1
Aend_Beschreibung_6
  9
$CUSTOMPROPERTY
  1

  9
$CUSTOMPROPERTYTAG
  1
Aend_Beschreibung_7
  9
$CUSTOMPROPERTY
  1

  9
$CUSTOMPROPERTYTAG
  1
Aend_Beschreibung_8
  9
$CUSTOMPROPERTY
  1

  9
$CUSTOMPROPERTYTAG
  1
Aend_Index_1
  9
$CUSTOMPROPERTY
  1

  9
$CUSTOMPROPERTYTAG
  1
Aend_Index_2
  9
$CUSTOMPROPERTY
  1

  9
$CUSTOMPROPERTYTAG
  1
Aend_Index_3
  9
$CUSTOMPROPERTY
  1

  9
$CUSTOMPROPERTYTAG
  1
Aend_Index_4
  9
$CUSTOMPROPERTY
  1

  9
$CUSTOMPROPERTYTAG
  1
Aend_Index_5
  9
$CUSTOMPROPERTY
  1

  9
$CUSTOMPROPERTYTAG
  1
Aend_Index_6
  9
$CUSTOMPROPERTY
  1

  9
$CUSTOMPROPERTYTAG
  1
Aend_Index_7
  9
$CUSTOMPROPERTY
  1

  9
$CUSTOMPROPERTYTAG
  1
Aend_Index_8
  9
$CUSTOMPROPERTY
  1

  9
$CUSTOMPROPERTYTAG
  1
Aend_Name_1
  9
$CUSTOMPROPERTY
  1

  9
$CUSTOMPROPERTYTAG
  1
Aend_Name_2
  9
$CUSTOMPROPERTY
  1

  9
$CUSTOMPROPERTYTAG
  1
Aend_Name_3
  9
$CUSTOMPROPERTY
  1

  9
$CUSTOMPROPERTYTAG
  1
Aend_Name_4
  9
$CUSTOMPROPERTY
  1

  9
$CUSTOMPROPERTYTAG
  1
Aend_Name_5
  9
$CUSTOMPROPERTY
  1

  9
$CUSTOMPROPERTYTAG
  1
Aend_Name_6
  9
$CUSTOMPROPERTY
  1

  9
$CUSTOMPROPERTYTAG
  1
Aend_Name_7
  9
$CUSTOMPROPERTY
  1

  9
$CUSTOMPROPERTYTAG
  1
Aend_Name_8
  9
$CUSTOMPROPERTY
  1

  9
$CUSTOMPROPERTYTAG
  1
Dimension
  9
$CUSTOMPROPERTY
  1

  9
$CUSTOMPROPERTYTAG
  1
Masse
  9
$CUSTOMPROPERTY
  1

  9
$CUSTOMPROPERTYTAG
  1
Material
  9
$CUSTOMPROPERTY
  1

  9
$CUSTOMPROPERTYTAG
  1
Menge
  9
$CUSTOMPROPERTY
  1

  9
$CUSTOMPROPERTYTAG
  1
Norm
  9
$CUSTOMPROPERTY
  1

  9
$CUSTOMPROPERTYTAG
  1
Position
  9
$CUSTOMPROPERTY
  1

  9
$CUSTOMPROPERTYTAG
  1
Ersatz_fuer
  9
$CUSTOMPROPERTY
  1

  9
$CUSTOMPROPERTYTAG
  1
Esetzt_durch
  9
$CUSTOMPROPERTY
  1

  9
$CUSTOMPROPERTYTAG
  1
Massstab
  9
$CUSTOMPROPERTY
  1
1 : 2
  9
$CUSTOMPROPERTYTAG
  1
SysDate
  9
$CUSTOMPROPERTY
  1
04.10.2013
  9
$CUSTOMPROPERTYTAG
  1
SysTime
  9
$CUSTOMPROPERTY
  1
12:16
  9
$INSBASE
 10
0.0
 20
0.0
 30
0.0
  9
$EXTMIN
 10
0.0
 20
0.0
 30
0.0
  9
$EXTMAX
 10
420.0
 20
594.0
 30
0.0
  9
$LIMMIN
 10
0.0
 20
0.0
  9
$LIMMAX
 10
420.0
 20
594.0
  9
$ORTHOMODE
 70
     0
  9
$REGENMODE
 70
     1
  9
$FILLMODE
 70
     1
  9
$QTEXTMODE
 70
     0
  9
$MIRRTEXT
 70
     0
  9
$LTSCALE
 40
2.0
  9
$ATTMODE
 70
     1
  9
$TEXTSIZE
 40
0.2
  9
$TRACEWID
 40
0.05
  9
$TEXTSTYLE
  7
Standard
  9
$CLAYER
  8
0
  9
$CELTYPE
  6
ByLayer
  9
$CECOLOR
 62
   256
  9
$CELTSCALE
 40
1.0
  9
$DISPSILH
 70
     0
  9
$DIMSCALE
 40
1.0
  9
$DIMASZ
 40
1.799999999999999
  9
$DIMEXO
 40
0.0625
  9
$DIMDLI
 40
0.38
  9
$DIMRND
 40
0.0
  9
$DIMDLE
 40
0.0
  9
$DIMEXE
 40
0.18
  9
$DIMTP
 40
0.0
  9
$DIMTM
 40
0.0
  9
$DIMTXT
 40
0.3499999940395355
  9
$DIMCEN
 40
0.09
  9
$DIMTSZ
 40
0.0
  9
$DIMTOL
 70
     0
  9
$DIMLIM
 70
     0
  9
$DIMTIH
 70
     1
  9
$DIMTOH
 70
     1
  9
$DIMSE1
 70
     0
  9
$DIMSE2
 70
     0
  9
$DIMTAD
 70
     0
  9
$DIMZIN
 70
     0
  9
$DIMBLK
  1

  9
$DIMASO
 70
     1
  9
$DIMSHO
 70
     1
  9
$DIMPOST
  1

  9
$DIMAPOST
  1

  9
$DIMALT
 70
     0
  9
$DIMALTD
 70
     2
  9
$DIMALTF
 40
25.4
  9
$DIMLFAC
 40
1.0
  9
$DIMTOFL
 70
     0
  9
$DIMTVP
 40
0.0
  9
$DIMTIX
 70
     0
  9
$DIMSOXD
 70
     0
  9
$DIMSAH
 70
     0
  9
$DIMBLK1
  1

  9
$DIMBLK2
  1

  9
$DIMSTYLE
  2
Standard
  9
$DIMCLRD
 70
     0
  9
$DIMCLRE
 70
     0
  9
$DIMCLRT
 70
     0
  9
$DIMTFAC
 40
1.0
  9
$DIMGAP
 40
0.09
  9
$DIMJUST
 70
     0
  9
$DIMSD1
 70
     0
  9
$DIMSD2
 70
     0
  9
$DIMTOLJ
 70
     1
  9
$DIMTZIN
 70
     0
  9
$DIMALTZ
 70
     0
  9
$DIMALTTZ
 70
     0
  9
$DIMUPT
 70
     0
  9
$DIMDEC
 70
     4
  9
$DIMTDEC
 70
     4
  9
$DIMALTU
 70
     2
  9
$DIMALTTD
 70
     2
  9
$DIMTXSTY
  7
Standard
  9
$DIMAUNIT
 70
     0
  9
$DIMADEC
 70
     0
  9
$DIMALTRND
 40
0.0
  9
$DIMAZIN
 70
     0
  9
$DIMDSEP
 70
    46
  9
$DIMATFIT
 70
     3
  9
$DIMFRAC
 70
     0
  9
$DIMLDRBLK
  1

  9
$DIMLUNIT
 70
     2
  9
$DIMLWD
 70
    -2
  9
$DIMLWE
 70
    -2
  9
$DIMTMOVE
 70
     0
  9
$DIMFXL
 40
1.0
  9
$DIMFXLON
 70
     0
  9
$DIMJOGANG
 40
0.7853981633974483
  9
$DIMTFILL
 70
     0
  9
$DIMTFILLCLR
 70
     0
  9
$DIMARCSYM
 70
     0
  9
$DIMLTYPE
  6

  9
$DIMLTEX1
  6

  9
$DIMLTEX2
  6

  9
$LUNITS
 70
     2
  9
$LUPREC
 70
     4
  9
$SKETCHINC
 40
0.1
  9
$FILLETRAD
 40
0.0
  9
$AUNITS
 70
     0
  9
$AUPREC
 70
     0
  9
$MENU
  1
.
  9
$ELEVATION
 40
0.0
  9
$PELEVATION
 40
0.0
  9
$THICKNESS
 40
0.0
  9
$LIMCHECK
 70
     0
  9
$CHAMFERA
 40
0.0
  9
$CHAMFERB
 40
0.0
  9
$CHAMFERC
 40
0.0
  9
$CHAMFERD
 40
0.0
  9
$SKPOLY
 70
     0
  9
$TDCREATE
 40
2456570.577493033
  9
$TDUCREATE
 40
2456570.494159699
  9
$TDUPDATE
 40
2456570.577493033
  9
$TDUUPDATE
 40
2456570.494159699
  9
$TDINDWG
 40
0.0000634144
  9
$TDUSRTIMER
 40
0.0000633796
  9
$USRTIMER
 70
     1
  9
$ANGBASE
 50
0.0
  9
$ANGDIR
 70
     0
  9
$PDMODE
 70
     0
  9
$PDSIZE
 40
0.0
  9
$PLINEWID
 40
0.0
  9
$SPLFRAME
 70
     0
  9
$SPLINETYPE
 70
     6
  9
$SPLINESEGS
 70
     8
  9
$HANDSEED
  5
D2A
  9
$SURFTAB1
 70
     6
  9
$SURFTAB2
 70
     6
  9
$SURFTYPE
 70
     6
  9
$SURFU
 70
     6
  9
$SURFV
 70
     6
  9
$UCSBASE
  2

  9
$UCSNAME
  2

  9
$UCSORG
 10
0.0
 20
0.0
 30
0.0
  9
$UCSXDIR
 10
1.0
 20
0.0
 30
0.0
  9
$UCSYDIR
 10
0.0
 20
1.0
 30
0.0
  9
$UCSORTHOREF
  2

  9
$UCSORTHOVIEW
 70
     0
  9
$UCSORGTOP
 10
0.0
 20
0.0
 30
0.0
  9
$UCSORGBOTTOM
 10
0.0
 20
0.0
 30
0.0
  9
$UCSORGLEFT
 10
0.0
 20
0.0
 30
0.0
  9
$UCSORGRIGHT
 10
0.0
 20
0.0
 30
0.0
  9
$UCSORGFRONT
 10
0.0
 20
0.0
 30
0.0
  9
$UCSORGBACK
 10
0.0
 20
0.0
 30
0.0
  9
$PUCSBASE
  2

  9
$PUCSNAME
  2

  9
$PUCSORG
 10
0.0
 20
0.0
 30
0.0
  9
$PUCSXDIR
 10
1.0
 20
0.0
 30
0.0
  9
$PUCSYDIR
 10
0.0
 20
1.0
 30
0.0
  9
$PUCSORTHOREF
  2

  9
$PUCSORTHOVIEW
 70
     0
  9
$PUCSORGTOP
 10
0.0
 20
0.0
 30
0.0
  9
$PUCSORGBOTTOM
 10
0.0
 20
0.0
 30
0.0
  9
$PUCSORGLEFT
 10
0.0
 20
0.0
 30
0.0
  9
$PUCSORGRIGHT
 10
0.0
 20
0.0
 30
0.0
  9
$PUCSORGFRONT
 10
0.0
 20
0.0
 30
0.0
  9
$PUCSORGBACK
 10
0.0
 20
0.0
 30
0.0
  9
$USERI1
 70
     0
  9
$USERI2
 70
     0
  9
$USERI3
 70
     0
  9
$USERI4
 70
     0
  9
$USERI5
 70
     0
  9
$USERR1
 40
0.0
  9
$USERR2
 40
0.0
  9
$USERR3
 40
0.0
  9
$USERR4
 40
0.0
  9
$USERR5
 40
0.0
  9
$WORLDVIEW
 70
     1
  9
$SHADEDGE
 70
     3
  9
$SHADEDIF
 70
    70
  9
$TILEMODE
 70
     1
  9
$MAXACTVP
 70
    64
  9
$PINSBASE
 10
0.0
 20
0.0
 30
0.0
  9
$PLIMCHECK
 70
     0
  9
$PEXTMIN
 10
0.0
 20
0.0
 30
0.0
  9
$PEXTMAX
 10
420.0
 20
594.0
 30
0.0
  9
$PLIMMIN
 10
0.0
 20
0.0
  9
$PLIMMAX
 10
420.0
 20
594.0
  9
$UNITMODE
 70
     0
  9
$VISRETAIN
 70
     1
  9
$PLINEGEN
 70
     0
  9
$PSLTSCALE
 70
     1
  9
$TREEDEPTH
 70
  3020
  9
$CMLSTYLE
  2
Standard
  9
$CMLJUST
 70
     0
  9
$CMLSCALE
 40
1.0
  9
$PROXYGRAPHICS
 70
     1
  9
$MEASUREMENT
 70
     1
  9
$CELWEIGHT
370
    -1
  9
$ENDCAPS
280
     0
  9
$JOINSTYLE
280
     0
  9
$LWDISPLAY
290
     0
  9
$INSUNITS
 70
     4
  9
$HYPERLINKBASE
  1

  9
$STYLESHEET
  1

  9
$XEDIT
290
     1
  9
$CEPSNTYPE
380
     0
  9
$PSTYLEMODE
290
     1
  9
$FINGERPRINTGUID
  2
{62A727E4-3F2A-45AF-9D79-2803CF66CF44}
  9
$VERSIONGUID
  2
{2FA8150E-7308-4330-A194-ED42A5AEDB7E}
  9
$EXTNAMES
290
     1
  9
$PSVPSCALE
 40
0.0
  9
$OLESTARTUP
290
     0
  9
$SORTENTS
280
   127
  9
$INDEXCTL
280
     0
  9
$HIDETEXT
280
     1
  9
$XCLIPFRAME
290
     0
  9
$HALOGAP
280
     0
  9
$OBSCOLOR
 70
   257
  9
$OBSLTYPE
280
     0
  9
$INTERSECTIONDISPLAY
280
     0
  9
$INTERSECTIONCOLOR
 70
   257
  9
$DIMASSOC
280
     1
  9
$PROJECTNAME
  1

  9
$CAMERADISPLAY
290
     0
  9
$LENSLENGTH
 40
50.0
  9
$CAMERAHEIGHT
 40
0.0
  9
$STEPSPERSEC
 40
2.0
  9
$STEPSIZE
 40
6.0
  9
$3DDWFPREC
 40
2.0
  9
$PSOLWIDTH
 40
0.25
  9
$PSOLHEIGHT
 40
4.0
  9
$LOFTANG1
 40
1.570796326794896
  9
$LOFTANG2
 40
1.570796326794896
  9
$LOFTMAG1
 40
0.0
  9
$LOFTMAG2
 40
0.0
  9
$LOFTPARAM
 70
     7
  9
$LOFTNORMALS
280
     1
  9
$LATITUDE
 40
37.795
  9
$LONGITUDE
 40
-122.394
  9
$NORTHDIRECTION
 40
0.0
  9
$TIMEZONE
 70
 -8000
  9
$LIGHTGLYPHDISPLAY
280
     1
  9
$TILEMODELIGHTSYNCH
280
     1
  9
$CMATERIAL
347
11
  9
$SOLIDHIST
280
     0
  9
$SHOWHIST
280
     1
  9
$DWFFRAME
280
     2
  9
$DGNFRAME
280
     0
  9
$REALWORLDSCALE
290
     1
  9
$INTERFERECOLOR
 62
     1
  9
$INTERFEREOBJVS
345
33
  9
$INTERFEREVPVS
346
30
  9
$CSHADOW
280
     0
  9
$SHADOWPLANELOCATION
 40
0.0
  0
ENDSEC
  0
SECTION
  2
CLASSES
  0
CLASS
  1
ACDBDICTIONARYWDFLT
  2
AcDbDictionaryWithDefault
  3
ObjectDBX Classes
 90
        0
 91
        1
280
     0
281
     0
  0
CLASS
  1
MATERIAL
  2
AcDbMaterial
  3
ObjectDBX Classes
 90
     1153
 91
        3
280
     0
281
     0
  0
CLASS
  1
VISUALSTYLE
  2
AcDbVisualStyle
  3
ObjectDBX Classes
 90
     4095
 91
       24
280
     0
281
     0
  0
CLASS
  1
SCALE
  2
AcDbScale
  3
ObjectDBX Classes
 90
     1153
 91
       17
280
     0
281
     0
  0
CLASS
  1
TABLESTYLE
  2
AcDbTableStyle
  3
ObjectDBX Classes
 90
     4095
 91
        1
280
     0
281
     0
  0
CLASS
  1
MLEADERSTYLE
  2
AcDbMLeaderStyle
  3
ACDB_MLEADERSTYLE_CLASS
 90
     4095
 91
        1
280
     0
281
     0
  0
CLASS
  1
DICTIONARYVAR
  2
AcDbDictionaryVar
  3
ObjectDBX Classes
 90
        0
 91
        5
280
     0
281
     0
  0
CLASS
  1
CELLSTYLEMAP
  2
AcDbCellStyleMap
  3
ObjectDBX Classes
 90
     1152
 91
        2
280
     0
281
     0
  0
ENDSEC
  0
SECTION
  2
TABLES
  0
TABLE
  2
VPORT
  5
8
330
0
100
AcDbSymbolTable
 70
     1
  0
VPORT
  5
57
330
8
100
AcDbSymbolTableRecord
100
AcDbViewportTableRecord
  2
*Active
 70
     0
 10
0.0
 20
0.0
 11
1.0
 21
1.0
 12
210.0
 22
297.0
 13
0.0
 23
0.0
 14
1.0
 24
1.0
 15
0.0
 25
0.0
 16
0.0
 26
0.0
 36
1.0
 17
0.0
 27
0.0
 37
0.0
 40
594.0
 41
0.7070707070707071
 42
50.0
 43
0.0
 44
0.0
 50
0.0
 51
0.0
 71
     0
 72
   100
 73
     1
 74
     1
 75
     0
 76
     0
 77
     0
 78
     0
281
     0
 65
     1
110
0.0
120
0.0
130
0.0
111
1.0
121
0.0
131
0.0
112
0.0
122
1.0
132
0.0
 79
     0
146
0.0
 60
     3
 61
     5
292
     1
282
     1
141
0.0
142
0.0
 63
   250
421
  3355443
  0
ENDTAB
  0
TABLE
  2
LTYPE
  5
5
330
0
100
AcDbSymbolTable
 70
     1
  0
LTYPE
  5
5B
330
5
100
AcDbSymbolTableRecord
100
AcDbLinetypeTableRecord
  2
ByBlock
 70
     0
  3

 72
    65
 73
     0
 40
0.0
  0
LTYPE
  5
5C
330
5
100
AcDbSymbolTableRecord
100
AcDbLinetypeTableRecord
  2
ByLayer
 70
     0
  3

 72
    65
 73
     0
 40
0.0
  0
LTYPE
  5
5D
330
5
100
AcDbSymbolTableRecord
100
AcDbLinetypeTableRecord
  2
Continuous
 70
     0
  3
Solid line
 72
    65
 73
     0
 40
0.0
  0
ENDTAB
  0
TABLE
  2
LAYER
  5
2
330
0
100
AcDbSymbolTable
 70
    15
  0
LAYER
  5
54
330
2
100
AcDbSymbolTableRecord
100
AcDbLayerTableRecord
  2
0
 70
     0
 62
     7
  6
Continuous
370
    -3
390
F
347
21
  0
LAYER
  5
76
330
2
100
AcDbSymbolTableRecord
100
AcDbLayerTableRecord
  2
AM_0
 70
     0
 62
     7
  6
Continuous
370
    50
390
F
347
21
  0
LAYER
  5
77
330
2
100
AcDbSymbolTableRecord
100
AcDbLayerTableRecord
  2
AM_5
 70
     0
 62
     3
420
    65280
  6
Continuous
370
    25
390
F
347
21
  0
LAYER
  5
7F
330
2
100
AcDbSymbolTableRecord
100
AcDbLayerTableRecord
  2
Bemaßungen(DIN)
 70
     0
 62
     7
  6
Continuous
370
    25
390
F
347
21
  0
LAYER
  5
8D
330
2
100
AcDbSymbolTableRecord
100
AcDbLayerTableRecord
  2
Mittellinie(DIN)
 70
     0
 62
     7
  6
Continuous
370
    25
390
F
347
21
  0
LAYER
  5
8F
330
2
100
AcDbSymbolTableRecord
100
AcDbLayerTableRecord
  2
Mittelpunktmarkierung(DIN)
 70
     0
 62
     7
  6
Continuous
370
    25
390
F
347
21
  0
LAYER
  5
99
330
2
100
AcDbSymbolTableRecord
100
AcDbLayerTableRecord
  2
Schraffur
 70
     0
 62
     7
  6
Continuous
370
     9
390
F
347
21
  0
LAYER
  5
9A
330
2
100
AcDbSymbolTableRecord
100
AcDbLayerTableRecord
  2
Schraffur (ISO)
 70
     0
 62
     7
  6
Continuous
370
    18
390
F
347
21
  0
LAYER
  5
9D
330
2
100
AcDbSymbolTableRecord
100
AcDbLayerTableRecord
  2
Sichtbare Kanten(DIN)
 70
     0
 62
     7
  6
Continuous
370
    50
390
F
347
21
  0
LAYER
  5
9E
330
2
100
AcDbSymbolTableRecord
100
AcDbLayerTableRecord
  2
Sichtbare tangentiale Kanten(DIN)
 70
     0
 62
     7
  6
Continuous
370
    50
390
F
347
21
  0
LAYER
  5
A0
330
2
100
AcDbSymbolTableRecord
100
AcDbLayerTableRecord
  2
Skizziergeometrie(DIN)
 70
     0
 62
     7
  6
Continuous
370
    50
390
F
347
21
  0
LAYER
  5
A5
330
2
100
AcDbSymbolTableRecord
100
AcDbLayerTableRecord
  2
Symbole(DIN)
 70
     0
 62
     7
  6
Continuous
370
    25
390
F
347
21
  0
LAYER
  5
A8
330
2
100
AcDbSymbolTableRecord
100
AcDbLayerTableRecord
  2
Titel (ISO)
 70
     0
 62
     7
  6
Continuous
370
    50
390
F
347
21
  0
LAYER
  5
AD
330
2
100
AcDbSymbolTableRecord
100
AcDbLayerTableRecord
  2
Verdeckte Kanten(DIN)
 70
     0
 62
     7
  6
Continuous
370
    35
390
F
347
21
  0
LAYER
  5
2C8
330
2
100
AcDbSymbolTableRecord
100
AcDbLayerTableRecord
  2
Defpoints
 70
     0
 62
     7
  6
Continuous
290
     0
370
    -3
390
F
347
21
  0
ENDTAB
  0
TABLE
  2
STYLE
  5
3
330
0
100
AcDbSymbolTable
 70
    16
  0
STYLE
  5
55
330
3
100
AcDbSymbolTableRecord
100
AcDbTextStyleTableRecord
  2
Standard
 70
     0
 40
0.0
 41
1.0
 50
0.0
 71
     0
 42
0.2
  3
ISOCP.shx
  4

  0
STYLE
  5
5A
330
3
100
AcDbSymbolTableRecord
100
AcDbTextStyleTableRecord
  2
Annotative
 70
     0
 40
0.0
 41
1.0
 50
0.0
 71
     0
 42
0.2
  3
txt
  4

1001
AcadAnnotative
1000
AnnotativeData
1002
{
1070
     1
1070
     1
1002
}
  0
STYLE
  5
AF
330
3
100
AcDbSymbolTableRecord
100
AcDbTextStyleTableRecord
  2
_Schriftfeld_2.5mm
 70
     0
 40
0.0
 41
1.0
 50
0.0
 71
     0
 42
0.2
  3
arial.ttf
  4

1001
ACAD
1000
Arial
1071
      256
  0
STYLE
  5
B0
330
3
100
AcDbSymbolTableRecord
100
AcDbTextStyleTableRecord
  2
_Schriftfeld_2mm
 70
     0
 40
0.0
 41
1.0
 50
0.0
 71
     0
 42
0.2
  3
arial.ttf
  4

1001
ACAD
1000
Arial
1071
      256
  0
STYLE
  5
B1
330
3
100
AcDbSymbolTableRecord
100
AcDbTextStyleTableRecord
  2
_Schriftfeld_3.5mm
 70
     0
 40
0.0
 41
1.0
 50
0.0
 71
     0
 42
0.2
  3
arial.ttf
  4

1001
ACAD
1000
Arial
1071
      256
  0
STYLE
  5
B2
330
3
100
AcDbSymbolTableRecord
100
AcDbTextStyleTableRecord
  2
_Schriftfeld_5mm
 70
     0
 40
0.0
 41
1.0
 50
0.0
 71
     0
 42
0.2
  3
arial.ttf
  4

1001
ACAD
1000
Arial
1071
      256
  0
STYLE
  5
B3
330
3
100
AcDbSymbolTableRecord
100
AcDbTextStyleTableRecord
  2
Aktuell-DIN
 70
     0
 40
0.0
 41
1.0
 50
0.0
 71
     0
 42
0.2
  3
arial.ttf
  4

1001
ACAD
1000
Arial
1071
      256
  0
STYLE
  5
B4
330
3
100
AcDbSymbolTableRecord
100
AcDbTextStyleTableRecord
  2
Bezeichnungstext (DIN)
 70
     0
 40
0.0
 41
1.0
 50
0.0
 71
     0
 42
0.2
  3
isocpeur.ttf
  4

1001
ACAD
1000
ISOCPEUR
1071
      256
  0
STYLE
  5
B5
330
3
100
AcDbSymbolTableRecord
100
AcDbTextStyleTableRecord
  2
Bezeichnungstext (ISO)
 70
     0
 40
0.0
 41
1.0
 50
0.0
 71
     0
 42
0.2
  3
tahoma.ttf
  4

1001
ACAD
1000
Tahoma
1071
      256
  0
STYLE
  5
B6
330
3
100
AcDbSymbolTableRecord
100
AcDbTextStyleTableRecord
  2
Notiztext (DIN)
 70
     0
 40
0.0
 41
1.0
 50
0.0
 71
     0
 42
0.2
  3
isocpeur.ttf
  4

1001
ACAD
1000
ISOCPEUR
1071
      256
  0
STYLE
  5
B7
330
3
100
AcDbSymbolTableRecord
100
AcDbTextStyleTableRecord
  2
Notiztext (ISO)
 70
     0
 40
0.0
 41
1.0
 50
0.0
 71
     0
 42
0.2
  3
tahoma.ttf
  4

1001
ACAD
1000
Tahoma
1071
      256
  0
STYLE
  5
B8
330
3
100
AcDbSymbolTableRecord
100
AcDbTextStyleTableRecord
  2
STANDARD-DIN
 70
     0
 40
0.0
 41
1.0
 50
0.0
 71
     0
 42
0.2
  3
arial.ttf
  4

1001
ACAD
1000
Arial
1071
      256
  0
STYLE
  5
B9
330
3
100
AcDbSymbolTableRecord
100
AcDbTextStyleTableRecord
  2
STANDARD-DIN~0
 70
     0
 40
0.0
 41
1.0
 50
0.0
 71
     0
 42
0.2
  3
arial.ttf
  4

1001
ACAD
1000
Arial
1071
      256
  0
STYLE
  5
BA
330
3
100
AcDbSymbolTableRecord
100
AcDbTextStyleTableRecord
  2
STANDARD-DINGroßer Text
 70
     0
 40
0.0
 41
1.0
 50
0.0
 71
     0
 42
0.2
  3
arial.ttf
  4

1001
ACAD
1000
Arial
1071
      256
  0
STYLE
  5
BB
330
3
100
AcDbSymbolTableRecord
100
AcDbTextStyleTableRecord
  2
STANDARD-DINNach Layer
 70
     0
 40
0.0
 41
1.0
 50
0.0
 71
     0
 42
0.2
  3
arial.ttf
  4

1001
ACAD
1000
Arial
1071
      256
  0
STYLE
  5
192
330
3
100
AcDbSymbolTableRecord
100
AcDbTextStyleTableRecord
  2
Textstil122
 70
     0
 40
0.0
 41
0.899999976158142
 50
0.0
 71
     0
 42
0.2
  3
ISOCP.shx
  4

  0
ENDTAB
  0
TABLE
  2
VIEW
  5
6
330
0
100
AcDbSymbolTable
 70
     0
  0
ENDTAB
  0
TABLE
  2
UCS
  5
7
330
0
100
AcDbSymbolTable
 70
     0
  0
ENDTAB
  0
TABLE
  2
APPID
  5
9
330
0
100
AcDbSymbolTable
 70
     4
  0
APPID
  5
56
330
9
100
AcDbSymbolTableRecord
100
AcDbRegAppTableRecord
  2
ACAD
 70
     0
  0
APPID
  5
5E
330
9
100
AcDbSymbolTableRecord
100
AcDbRegAppTableRecord
  2
AcadAnnotative
 70
     0
  0
APPID
  5
195
330
9
100
AcDbSymbolTableRecord
100
AcDbRegAppTableRecord
  2
AcadAnnoPO
 70
     0
  0
APPID
  5
CE7
330
9
100
AcDbSymbolTableRecord
100
AcDbRegAppTableRecord
  2
ACAD_MLEADERVER
 70
     0
  0
ENDTAB
  0
TABLE
  2
DIMSTYLE
  5
A
330
0
100
AcDbSymbolTable
 70
    22
100
AcDbDimStyleTable
 71
     2
340
BC
340
58
  0
DIMSTYLE
105
58
330
A
100
AcDbSymbolTableRecord
100
AcDbDimStyleTableRecord
  2
Standard
 70
     0
340
55
  0
DIMSTYLE
105
59
330
A
100
AcDbSymbolTableRecord
100
AcDbDimStyleTableRecord
  2
Annotative
 70
     0
340
55
1001
AcadAnnotative
1000
AnnotativeData
1002
{
1070
     1
1070
     1
1002
}
  0
DIMSTYLE
105
BC
102
{ACAD_REACTORS
330
2C7
330
3AA
330
48C
330
56E
330
650
330
73B
330
827
330
909
330
9F9
330
ADB
330
BBD
102
}
330
A
100
AcDbSymbolTableRecord
100
AcDbDimStyleTableRecord
  2
STANDARD-DIN - Methode 2b
 70
     0
 40
2.0
 41
2.5
 42
0.0
 43
12.0
 44
3.174999999999998
 45
0.00000001
 46
12.0
 73
     0
 74
     0
 77
     1
 78
     8
 79
     2
140
3.5
143
0.03937
146
0.7142857313156128
147
0.8
171
     3
172
     1
176
   250
177
   250
178
   250
271
     2
272
     2
274
     3
284
     8
285
     8
340
B9
371
    25
372
    25
  0
DIMSTYLE
105
BD
330
A
100
AcDbSymbolTableRecord
100
AcDbDimStyleTableRecord
  2
STANDARD-DIN - Methode 2b$7
 70
     0
 40
2.0
 41
2.5
 42
0.0
 43
12.0
 44
3.174999999999998
 45
0.00000001
 46
12.0
 73
     0
 74
     0
 77
     1
 78
     8
 79
     2
140
3.5
143
0.03937
146
0.7142857313156128
147
0.8
171
     3
172
     1
176
   179
177
   250
178
   250
271
     2
272
     2
274
     3
284
     8
285
     8
340
B9
371
    25
372
    25
  0
DIMSTYLE
105
BE
330
A
100
AcDbSymbolTableRecord
100
AcDbDimStyleTableRecord
  2
Standard - Methode 1b (ISO)
 70
     0
 40
2.0
 41
2.5
 42
0.0
 43
5.999999999999999
 44
3.174999999999998
 45
0.00000001
 46
10.0
 73
     0
 77
     1
 78
     8
 79
     2
140
3.5
143
0.03937
147
0.762
171
     3
172
     1
176
   256
177
   256
178
   256
179
     2
271
     2
272
     2
274
     3
278
    44
284
     8
286
     8
340
B7
371
    -1
372
    -1
  0
DIMSTYLE
105
BF
330
A
100
AcDbSymbolTableRecord
100
AcDbDimStyleTableRecord
  2
Standard - Methode 1b (ISO)$7
 70
     0
 40
2.0
 41
2.5
 42
0.0
 43
5.999999999999999
 44
3.174999999999998
 45
0.00000001
 46
10.0
 73
     0
 77
     1
 78
     8
 79
     2
140
3.5
143
0.03937
147
0.762
171
     3
172
     1
176
   256
177
   256
178
   256
179
     2
271
     2
272
     2
274
     3
278
    44
284
     8
286
     8
340
B7
371
    -1
372
    -1
  0
DIMSTYLE
105
C0
330
A
100
AcDbSymbolTableRecord
100
AcDbDimStyleTableRecord
  2
Standard - Methode 2a (DIN)
 70
     0
 40
2.0
 41
2.5
 42
0.8
 43
5.999999999999999
 44
3.174999999999998
 45
0.00000001
 46
10.0
 77
     1
 78
     8
 79
     2
140
3.5
143
0.03937
147
0.8
170
     1
171
     3
172
     1
176
   256
177
   256
178
   256
179
     2
271
     2
272
     2
274
     3
278
    44
284
     8
286
     8
340
B6
371
    -1
372
    -1
  0
DIMSTYLE
105
C1
330
A
100
AcDbSymbolTableRecord
100
AcDbDimStyleTableRecord
  2
Standard - Methode 2a (DIN)$7
 70
     0
 40
2.0
 41
2.5
 42
0.8
 43
5.999999999999999
 44
3.174999999999998
 45
0.00000001
 46
10.0
 77
     1
 78
     8
 79
     2
140
3.5
143
0.03937
147
0.8
170
     1
171
     3
172
     1
176
   256
177
   256
178
   256
179
     2
271
     2
272
     2
274
     3
278
    44
284
     8
286
     8
340
B6
371
    -1
372
    -1
  0
DIMSTYLE
105
C2
330
A
100
AcDbSymbolTableRecord
100
AcDbDimStyleTableRecord
  2
Standard - Methode 2b (DIN)
 70
     0
 40
2.0
 41
2.5
 42
0.0
 43
5.999999999999999
 44
3.174999999999998
 45
0.00000001
 46
10.0
 77
     1
 78
     8
 79
     2
140
3.5
143
0.03937
147
0.8
171
     3
172
     1
176
   256
177
   256
178
   256
271
     2
272
     2
274
     3
278
    44
284
     8
286
     8
340
B6
371
    -1
372
    -1
  0
DIMSTYLE
105
C3
330
A
100
AcDbSymbolTableRecord
100
AcDbDimStyleTableRecord
  2
Standard - Methode 2b (DIN)$7
 70
     0
 40
2.0
 41
2.5
 42
0.0
 43
5.999999999999999
 44
3.174999999999998
 45
0.00000001
 46
10.0
 77
     1
 78
     8
 79
     2
140
3.5
143
0.03937
147
0.8
171
     3
172
     1
176
   256
177
   256
178
   256
271
     2
272
     2
274
     3
278
    44
284
     8
286
     8
340
B6
371
    -1
372
    -1
  0
DIMSTYLE
105
C4
330
A
100
AcDbSymbolTableRecord
100
AcDbDimStyleTableRecord
  2
Standard (DIN)
 70
     0
 40
2.0
 41
2.5
 42
0.8
 43
5.999999999999999
 44
3.174999999999998
 45
0.00000001
 46
10.0
 73
     0
 74
     0
 77
     1
 78
     8
 79
     2
140
3.5
143
0.03937
147
0.8
171
     3
172
     1
176
   256
177
   256
178
   256
271
     2
272
     2
274
     3
278
    44
284
     8
340
B6
371
    -1
372
    -1
  0
DIMSTYLE
105
C5
330
A
100
AcDbSymbolTableRecord
100
AcDbDimStyleTableRecord
  2
Standard (DIN)$7
 70
     0
 40
2.0
 41
2.5
 42
0.8
 43
5.999999999999999
 44
3.174999999999998
 45
0.00000001
 46
10.0
 73
     0
 74
     0
 77
     1
 78
     8
 79
     2
140
3.5
143
0.03937
147
0.8
171
     3
172
     1
176
   256
177
   256
178
   256
271
     2
272
     2
274
     3
278
    44
284
     8
340
B6
371
    -1
372
    -1
  0
DIMSTYLE
105
C6
330
A
100
AcDbSymbolTableRecord
100
AcDbDimStyleTableRecord
  2
Standard (ISO)
 70
     0
 40
2.0
 41
2.5
 42
0.0
 43
5.999999999999999
 44
3.174999999999998
 45
0.00000001
 46
10.0
 73
     0
 74
     0
 77
     1
140
3.5
143
0.03937
146
1.00148570537567
147
0.762
171
     3
172
     1
176
   256
177
   256
178
   256
179
     2
271
     2
272
     2
274
     3
278
    44
340
B7
371
    -1
372
    -1
  0
DIMSTYLE
105
C7
330
A
100
AcDbSymbolTableRecord
100
AcDbDimStyleTableRecord
  2
Standard (ISO)$7
 70
     0
 40
2.0
 41
2.5
 42
0.0
 43
5.999999999999999
 44
3.174999999999998
 45
0.00000001
 46
10.0
 73
     0
 74
     0
 77
     1
140
3.5
143
0.03937
146
1.00148570537567
147
0.762
171
     3
172
     1
176
   256
177
   256
178
   256
179
     2
271
     2
272
     2
274
     3
278
    44
340
B7
371
    -1
372
    -1
  0
DIMSTYLE
105
C8
330
A
100
AcDbSymbolTableRecord
100
AcDbDimStyleTableRecord
  2
Alternativ (ISO)
 70
     0
 40
2.0
 41
2.5
340
55
342
C9
  0
DIMSTYLE
105
DB
330
A
100
AcDbSymbolTableRecord
100
AcDbDimStyleTableRecord
  2
Bezug (ISO)
 70
     0
 40
2.0
 41
2.5
340
55
342
C9
  0
DIMSTYLE
105
DC
330
A
100
AcDbSymbolTableRecord
100
AcDbDimStyleTableRecord
  2
Führungslinie-Ursprungsindikator(DIN)
 70
     0
 40
2.0
 41
2.5
340
55
342
C9
  0
DIMSTYLE
105
DD
330
A
100
AcDbSymbolTableRecord
100
AcDbDimStyleTableRecord
  2
Führungslinie - Bezugsstelle(DIN)
 70
     0
 40
2.0
 41
2.5
340
55
342
C9
  0
DIMSTYLE
105
DE
330
A
100
AcDbSymbolTableRecord
100
AcDbDimStyleTableRecord
  2
Führungslinie - groß(DIN)
 70
     0
 40
2.0
 41
5.0
340
55
342
C9
  0
DIMSTYLE
105
DF
330
A
100
AcDbSymbolTableRecord
100
AcDbDimStyleTableRecord
  2
Führungslinie - Punkt(DIN)
 70
     0
 40
2.0
 41
2.5
340
55
342
C9
  0
DIMSTYLE
105
E0
330
A
100
AcDbSymbolTableRecord
100
AcDbDimStyleTableRecord
  2
Führungslinie(DIN)
 70
     0
 40
2.0
 41
2.5
340
55
342
C9
  0
DIMSTYLE
105
EF
330
A
100
AcDbSymbolTableRecord
100
AcDbDimStyleTableRecord
  2
Groß (ISO)
 70
     0
 40
2.0
 41
5.0
340
55
342
C9
  0
ENDTAB
  0
TABLE
  2
BLOCK_RECORD
  5
1
330
0
100
AcDbSymbolTable
 70
    28
  0
BLOCK_RECORD
  5
6C
330
1
100
AcDbSymbolTableRecord
100
AcDbBlockTableRecord
  2
*Model_Space
340
6F
 70
     0
280
     1
281
     0
  0
BLOCK_RECORD
  5
68
330
1
100
AcDbSymbolTableRecord
100
AcDbBlockTableRecord
  2
*Paper_Space
340
6B
 70
     0
280
     1
281
     0
  0
BLOCK_RECORD
  5
70
330
1
100
AcDbSymbolTableRecord
100
AcDbBlockTableRecord
  2
*Paper_Space0
340
73
 70
     0
280
     1
281
     0
  0
BLOCK_RECORD
  5
C9
330
1
100
AcDbSymbolTableRecord
100
AcDbBlockTableRecord
  2
_Closed
340
0
 70
     0
280
     1
281
     0
  0
BLOCK_RECORD
  5
D0
330
1
100
AcDbSymbolTableRecord
100
AcDbBlockTableRecord
  2
DatumFilled45
340
0
 70
     0
280
     1
281
     0
  0
BLOCK_RECORD
  5
E1
330
1
100
AcDbSymbolTableRecord
100
AcDbBlockTableRecord
  2
Filled-1
340
0
 70
     0
280
     1
281
     0
  0
BLOCK_RECORD
  5
F0
330
1
100
AcDbSymbolTableRecord
100
AcDbBlockTableRecord
  2
Carbonitrieren
340
0
 70
     0
280
     1
281
     0
  0
BLOCK_RECORD
  5
F5
330
1
100
AcDbSymbolTableRecord
100
AcDbBlockTableRecord
  2
Federangaben
340
0
 70
     0
280
     1
281
     0
  0
BLOCK_RECORD
  5
F9
330
1
100
AcDbSymbolTableRecord
100
AcDbBlockTableRecord
  2
Nassschliff
340
0
 70
     0
280
     1
281
     0
  0
BLOCK_RECORD
  5
FD
330
1
100
AcDbSymbolTableRecord
100
AcDbBlockTableRecord
  2
Schleiffrichtung horizontal
340
0
 70
     0
280
     1
281
     0
  0
BLOCK_RECORD
  5
110
330
1
100
AcDbSymbolTableRecord
100
AcDbBlockTableRecord
  2
Schleiffrichtung vertikal
340
0
 70
     0
280
     1
281
     0
  0
BLOCK_RECORD
  5
123
330
1
100
AcDbSymbolTableRecord
100
AcDbBlockTableRecord
  2
Stanz-_Laserteil
340
0
 70
     0
280
     1
281
     0
  0
BLOCK_RECORD
  5
127
330
1
100
AcDbSymbolTableRecord
100
AcDbBlockTableRecord
  2
Stanzrundung_1
340
0
 70
     0
280
     1
281
     0
  0
BLOCK_RECORD
  5
12D
330
1
100
AcDbSymbolTableRecord
100
AcDbBlockTableRecord
  2
Stanzrundung_2
340
0
 70
     0
280
     1
281
     0
  0
BLOCK_RECORD
  5
133
330
1
100
AcDbSymbolTableRecord
100
AcDbBlockTableRecord
  2
Verzinkt
340
0
 70
     0
280
     1
281
     0
  0
BLOCK_RECORD
  5
137
330
1
100
AcDbSymbolTableRecord
100
AcDbBlockTableRecord
  2
Vierkant-Tabelle
340
0
 70
     0
280
     1
281
     0
  0
BLOCK_RECORD
  5
162
330
1
100
AcDbSymbolTableRecord
100
AcDbBlockTableRecord
  2
Laserpunkt_Text
340
0
 70
     0
280
     1
281
     0
  0
BLOCK_RECORD
  5
169
330
1
100
AcDbSymbolTableRecord
100
AcDbBlockTableRecord
  2
Laserpunkt
340
0
 70
     0
280
     1
281
     0
  0
BLOCK_RECORD
  5
16F
330
1
100
AcDbSymbolTableRecord
100
AcDbBlockTableRecord
  2
Kantenbruch
340
0
 70
     0
280
     1
281
     0
  0
BLOCK_RECORD
  5
2C9
330
1
100
AcDbSymbolTableRecord
100
AcDbBlockTableRecord
  2
*D17
340
0
 70
     0
280
     1
281
     0
  0
BLOCK_RECORD
  5
3AB
330
1
100
AcDbSymbolTableRecord
100
AcDbBlockTableRecord
  2
*D18
340
0
 70
     0
280
     1
281
     0
  0
BLOCK_RECORD
  5
48D
330
1
100
AcDbSymbolTableRecord
100
AcDbBlockTableRecord
  2
*D19
340
0
 70
     0
280
     1
281
     0
  0
BLOCK_RECORD
  5
56F
330
1
100
AcDbSymbolTableRecord
100
AcDbBlockTableRecord
  2
*D20
340
0
 70
     0
280
     1
281
     0
  0
BLOCK_RECORD
  5
651
330
1
100
AcDbSymbolTableRecord
100
AcDbBlockTableRecord
  2
*D21
340
0
 70
     0
280
     1
281
     0
  0
BLOCK_RECORD
  5
73C
330
1
100
AcDbSymbolTableRecord
100
AcDbBlockTableRecord
  2
*D22
340
0
 70
     0
280
     1
281
     0
  0
BLOCK_RECORD
  5
828
330
1
100
AcDbSymbolTableRecord
100
AcDbBlockTableRecord
  2
*D23
340
0
 70
     0
280
     1
281
     0
  0
BLOCK_RECORD
  5
90A
330
1
100
AcDbSymbolTableRecord
100
AcDbBlockTableRecord
  2
*D24
340
0
 70
     0
280
     1
281
     0
  0
BLOCK_RECORD
  5
9FA
330
1
100
AcDbSymbolTableRecord
100
AcDbBlockTableRecord
  2
*D25
340
0
 70
     0
280
     1
281
     0
  0
BLOCK_RECORD
  5
ADC
330
1
100
AcDbSymbolTableRecord
100
AcDbBlockTableRecord
  2
*D26
340
0
 70
     0
280
     1
281
     0
  0
BLOCK_RECORD
  5
BBE
330
1
100
AcDbSymbolTableRecord
100
AcDbBlockTableRecord
  2
*D27
340
0
 70
     0
280
     1
281
     0
  0
ENDTAB
  0
ENDSEC
  0
SECTION
  2
BLOCKS
  0
BLOCK
  5
6D
330
6C
100
AcDbEntity
  8
0
100
AcDbBlockBegin
  2
*Model_Space
 70
     0
 10
0.0
 20
0.0
 30
0.0
  3
*Model_Space
  1

  0
ENDBLK
  5
6E
330
6C
100
AcDbEntity
  8
0
100
AcDbBlockEnd
  0
BLOCK
  5
69
330
68
100
AcDbEntity
 67
     1
  8
0
100
AcDbBlockBegin
  2
*Paper_Space
 70
     0
 10
0.0
 20
0.0
 30
0.0
  3
*Paper_Space
  1

  0
ENDBLK
  5
6A
330
68
100
AcDbEntity
 67
     1
  8
0
100
AcDbBlockEnd
  0
BLOCK
  5
71
330
70
100
AcDbEntity
 67
     1
  8
0
100
AcDbBlockBegin
  2
*Paper_Space0
 70
     0
 10
0.0
 20
0.0
 30
0.0
  3
*Paper_Space0
  1

  0
ENDBLK
  5
72
330
70
100
AcDbEntity
 67
     1
  8
0
100
AcDbBlockEnd
  0
BLOCK
  5
CE
330
C9
100
AcDbEntity
  8
0
100
AcDbBlockBegin
  2
_Closed
 70
     0
 10
0.0
 20
0.0
 30
0.0
  3
_Closed
  1

  0
LINE
  5
CA
330
C9
100
AcDbEntity
  8
0
  6
ByBlock
 62
     0
370
    -2
100
AcDbLine
 10
-1.0
 20
0.1666666666666666
 30
0.0
 11
0.0
 21
0.0
 31
0.0
  0
LINE
  5
CB
330
C9
100
AcDbEntity
  8
0
  6
ByBlock
 62
     0
370
    -2
100
AcDbLine
 10
0.0
 20
0.0
 30
0.0
 11
-1.0
 21
-0.1666666666666666
 31
0.0
  0
LINE
  5
CC
330
C9
100
AcDbEntity
  8
0
  6
ByBlock
 62
     0
370
    -2
100
AcDbLine
 10
-1.0
 20
0.1666666666666666
 30
0.0
 11
-1.0
 21
-0.1666666666666666
 31
0.0
  0
LINE
  5
CD
330
C9
100
AcDbEntity
  8
0
  6
ByBlock
 62
     0
370
    -2
100
AcDbLine
 10
0.0
 20
0.0
 30
0.0
 11
-1.0
 21
0.0
 31
0.0
  0
ENDBLK
  5
CF
330
C9
100
AcDbEntity
  8
0
100
AcDbBlockEnd
  0
BLOCK
  5
D1
330
D0
100
AcDbEntity
  8
0
100
AcDbBlockBegin
  2
DatumFilled45
 70
     0
 10
0.0
 20
0.0
 30
0.0
  3
DatumFilled45
  1

  0
POLYLINE
  5
D3
330
D0
100
AcDbEntity
  8
0
 62
     0
100
AcDb2dPolyline
 66
     1
 10
0.0
 20
0.0
 30
0.0
 70
   128
  0
VERTEX
  5
D4
330
D3
100
AcDbEntity
  8
0
 62
     0
100
AcDbVertex
100
AcDb2dVertex
 10
0.0
 20
1.0
 30
0.0
  0
VERTEX
  5
D5
330
D3
100
AcDbEntity
  8
0
 62
     0
100
AcDbVertex
100
AcDb2dVertex
 10
0.0
 20
-1.0
 30
0.0
  0
VERTEX
  5
D7
330
D3
100
AcDbEntity
  8
0
 62
     0
100
AcDbVertex
100
AcDb2dVertex
 10
-1.0
 20
0.0
 30
0.0
  0
VERTEX
  5
D8
330
D3
100
AcDbEntity
  8
0
 62
     0
100
AcDbVertex
100
AcDb2dVertex
 10
0.0
 20
1.0
 30
0.0
  0
SEQEND
  5
D6
330
D3
100
AcDbEntity
  8
0
 62
     0
  0
SOLID
  5
DA
330
D0
100
AcDbEntity
  8
0
 62
     0
100
AcDbTrace
 10
0.0
 20
1.0
 30
0.0
 11
0.0
 21
-1.0
 31
0.0
 12
-1.0
 22
0.0
 32
0.0
 13
0.0
 23
1.0
 33
0.0
  0
ENDBLK
  5
D2
330
D0
100
AcDbEntity
  8
0
100
AcDbBlockEnd
  0
BLOCK
  5
E2
330
E1
100
AcDbEntity
  8
0
100
AcDbBlockBegin
  2
Filled-1
 70
     0
 10
0.0
 20
0.0
 30
0.0
  3
Filled-1
  1

  0
LINE
  5
E4
330
E1
100
AcDbEntity
  8
0
 62
     0
100
AcDbLine
 10
-1.0
 20
0.0
 30
0.0
 11
0.0
 21
0.0
 31
0.0
  0
POLYLINE
  5
E5
330
E1
100
AcDbEntity
  8
0
 62
     0
100
AcDb2dPolyline
 66
     1
 10
0.0
 20
0.0
 30
0.0
 70
   128
  0
VERTEX
  5
E6
330
E5
100
AcDbEntity
  8
0
 62
     0
100
AcDbVertex
100
AcDb2dVertex
 10
-1.0
 20
-0.1
 30
0.0
  0
VERTEX
  5
E7
330
E5
100
AcDbEntity
  8
0
 62
     0
100
AcDbVertex
100
AcDb2dVertex
 10
0.0
 20
0.0
 30
0.0
  0
VERTEX
  5
E9
330
E5
100
AcDbEntity
  8
0
 62
     0
100
AcDbVertex
100
AcDb2dVertex
 10
-1.0
 20
0.1
 30
0.0
  0
VERTEX
  5
EA
330
E5
100
AcDbEntity
  8
0
 62
     0
100
AcDbVertex
100
AcDb2dVertex
 10
-1.0
 20
-0.1
 30
0.0
  0
SEQEND
  5
E8
330
E5
100
AcDbEntity
  8
0
 62
     0
  0
SOLID
  5
EB
330
E1
100
AcDbEntity
  8
0
 62
     0
100
AcDbTrace
 10
-1.0
 20
-0.1
 30
0.0
 11
0.0
 21
0.0
 31
0.0
 12
-1.0
 22
0.1
 32
0.0
 13
-1.0
 23
-0.1
 33
0.0
  0
LINE
  5
EC
330
E1
100
AcDbEntity
  8
0
 62
     0
100
AcDbLine
 10
-1.0
 20
-0.1
 30
0.0
 11
0.0
 21
0.0
 31
0.0
  0
LINE
  5
ED
330
E1
100
AcDbEntity
  8
0
 62
     0
100
AcDbLine
 10
0.0
 20
0.0
 30
0.0
 11
-1.0
 21
0.1
 31
0.0
  0
LINE
  5
EE
330
E1
100
AcDbEntity
  8
0
 62
     0
100
AcDbLine
 10
-1.0
 20
0.1
 30
0.0
 11
-1.0
 21
-0.1
 31
0.0
  0
ENDBLK
  5
E3
330
E1
100
AcDbEntity
  8
0
100
AcDbBlockEnd
  0
BLOCK
  5
F1
330
F0
100
AcDbEntity
  8
0
100
AcDbBlockBegin
  2
Carbonitrieren
 70
     0
 10
0.0
 20
0.0
 30
0.0
  3
Carbonitrieren
  1

  0
MTEXT
  5
F3
330
F0
100
AcDbEntity
  8
Titel (ISO)
100
AcDbMText
 10
-75.71151256561281
 20
15.48921793699264
 30
0.0
 40
3.499999940395355
 41
147.2330421884934
 46
0.0
 71
     1
 72
     1
  3
- Carbonitriert: 0.3 ±0.1 tief;HV 500...600 (Prüfkraft DIN 50133)\P- elektrolytisch verkupfert 1-2µ, el. vernickelt 8-10µ\fArial|b0|i0;\H3.3000;\P\fArial|b0|i0;\H3.5000;- Entspröden: glühen 190-210°C, ca 3h innerhalb 4h nach Veredelung\P \P-TriboCoat
  1
ing TC D1050, 4...8µ\P 
  7
_Schriftfeld_3.5mm
 73
     2
 44
0.9442214965820312
  0
ENDBLK
  5
F2
330
F0
100
AcDbEntity
  8
0
100
AcDbBlockEnd
  0
BLOCK
  5
F6
330
F5
100
AcDbEntity
  8
0
100
AcDbBlockBegin
  2
Federangaben
 70
     0
 10
0.0
 20
0.0
 30
0.0
  3
Federangaben
  1

  0
MTEXT
  5
F8
330
F5
100
AcDbEntity
  8
Titel (ISO)
100
AcDbMText
 10
-23.02877426147463
 20
32.04377174377441
 30
0.0
 40
3.499999940395355
 41
201.4264025634256
 46
0.0
 71
     1
 72
     1
  1
getrommelt\Pzunderfrei\Pohne Druckstellen\Pund Sicken\P \PEinfederung ...°\PMd ... Nmm\PSb ... N/mm2\P \PWindungszahl ...\P50 HRc +/- 2 eingeölt\P 
  7
_Schriftfeld_3.5mm
 73
     2
 44
0.9442216157913208
  0
ENDBLK
  5
F7
330
F5
100
AcDbEntity
  8
0
100
AcDbBlockEnd
  0
BLOCK
  5
FA
330
F9
100
AcDbEntity
  8
0
100
AcDbBlockBegin
  2
Nassschliff
 70
     0
 10
0.0
 20
0.0
 30
0.0
  3
Nassschliff
  1

  0
MTEXT
  5
FC
330
F9
100
AcDbEntity
  8
Titel (ISO)
100
AcDbMText
 10
-59.37195301055908
 20
2.29287352412939
 30
0.0
 40
3.499999940395355
 41
0.0
 46
0.0
 71
     1
 72
     1
  1
Verfahren IV: Nassschliff, Korn 220-240, Folie einseitig
  7
_Schriftfeld_3.5mm
 73
     1
 44
1.0
  0
ENDBLK
  5
FB
330
F9
100
AcDbEntity
  8
0
100
AcDbBlockEnd
  0
BLOCK
  5
FE
330
FD
100
AcDbEntity
  8
0
100
AcDbBlockBegin
  2
Schleiffrichtung horizontal
 70
     0
 10
0.0
 20
0.0
 30
0.0
  3
Schleiffrichtung horizontal
  1

  0
HATCH
  5
103
330
FD
100
AcDbEntity
  8
Schraffur (ISO)
100
AcDbHatch
 10
0.0
 20
0.0
 30
0.0
210
0.0
220
0.0
230
1.0
  2
SOLID
 70
     1
 71
     0
 91
        1
 92
        1
 93
        3
 72
     1
 10
-20.0
 20
0.0
 11
-17.50000000000001
 21
-0.4999999999999895
 72
     1
 10
-17.50000000000001
 20
-0.4999999999999895
 11
-17.50000000000001
 21
0.5000000000000071
 72
     1
 10
-17.50000000000001
 20
0.5000000000000071
 11
-20.0
 21
0.0
 97
        0
 75
     0
 76
     1
 98
        1
 10
0.0
 20
0.0
450
        0
451
        0
460
0.0
461
0.0
452
        0
462
0.0
453
        0
470

  0
HATCH
  5
107
330
FD
100
AcDbEntity
  8
Schraffur (ISO)
100
AcDbHatch
 10
0.0
 20
0.0
 30
0.0
210
0.0
220
0.0
230
1.0
  2
SOLID
 70
     1
 71
     0
 91
        1
 92
        1
 93
        3
 72
     1
 10
19.99999999999998
 20
0.0
 11
17.5
 21
0.5000000000000071
 72
     1
 10
17.5
 20
0.5000000000000071
 11
17.49999999999998
 21
-0.4999999999999894
 72
     1
 10
17.49999999999998
 20
-0.4999999999999895
 11
19.99999999999998
 21
0.0
 97
        0
 75
     0
 76
     1
 98
        1
 10
0.0
 20
0.0
450
        0
451
        0
460
0.0
461
0.0
452
        0
462
0.0
453
        0
470

  0
LINE
  5
108
330
FD
100
AcDbEntity
  8
Titel (ISO)
370
    25
100
AcDbLine
 10
-20.0
 20
0.0
 30
0.0
 11
19.99999999999998
 21
0.0
 31
0.0
  0
LINE
  5
109
330
FD
100
AcDbEntity
  8
Titel (ISO)
100
AcDbLine
 10
19.99999999999998
 20
0.0
 30
0.0
 11
17.5
 21
0.5000000000000071
 31
0.0
  0
LINE
  5
10A
330
FD
100
AcDbEntity
  8
Titel (ISO)
100
AcDbLine
 10
17.5
 20
0.5000000000000071
 30
0.0
 11
17.49999999999998
 21
-0.4999999999999895
 31
0.0
  0
LINE
  5
10B
330
FD
100
AcDbEntity
  8
Titel (ISO)
100
AcDbLine
 10
17.49999999999998
 20
-0.4999999999999895
 30
0.0
 11
19.99999999999998
 21
0.0
 31
0.0
  0
LINE
  5
10C
330
FD
100
AcDbEntity
  8
Titel (ISO)
100
AcDbLine
 10
-17.50000000000001
 20
0.5000000000000071
 30
0.0
 11
-20.0
 21
0.0
 31
0.0
  0
LINE
  5
10D
330
FD
100
AcDbEntity
  8
Titel (ISO)
100
AcDbLine
 10
-20.0
 20
0.0
 30
0.0
 11
-17.50000000000001
 21
-0.4999999999999895
 31
0.0
  0
LINE
  5
10E
330
FD
100
AcDbEntity
  8
Titel (ISO)
100
AcDbLine
 10
-17.50000000000001
 20
-0.4999999999999895
 30
0.0
 11
-17.50000000000001
 21
0.5000000000000071
 31
0.0
  0
MTEXT
  5
10F
330
FD
100
AcDbEntity
  8
Titel (ISO)
100
AcDbMText
 10
-15.50000000000001
 20
5.0
 30
0.0
 40
3.499999940395355
 41
0.0
 46
0.0
 71
     1
 72
     1
  1
Schliffrichtung
  7
_Schriftfeld_3.5mm
 73
     1
 44
1.0
  0
ENDBLK
  5
FF
330
FD
100
AcDbEntity
  8
0
100
AcDbBlockEnd
  0
BLOCK
  5
111
330
110
100
AcDbEntity
  8
0
100
AcDbBlockBegin
  2
Schleiffrichtung vertikal
 70
     0
 10
0.0
 20
0.0
 30
0.0
  3
Schleiffrichtung vertikal
  1

  0
HATCH
  5
116
330
110
100
AcDbEntity
  8
Schraffur (ISO)
100
AcDbHatch
 10
0.0
 20
0.0
 30
0.0
210
0.0
220
0.0
230
1.0
  2
SOLID
 70
     1
 71
     0
 91
        1
 92
        1
 93
        3
 72
     1
 10
0.0
 20
-20.0
 11
0.4999999999999984
 21
-17.5
 72
     1
 10
0.4999999999999984
 20
-17.5
 11
-0.4999999999999984
 21
-17.5
 72
     1
 10
-0.4999999999999984
 20
-17.5
 11
0.0
 21
-20.0
 97
        0
 75
     0
 76
     1
 98
        1
 10
0.0
 20
0.0
450
        0
451
        0
460
0.0
461
0.0
452
        0
462
0.0
453
        0
470

  0
HATCH
  5
11A
330
110
100
AcDbEntity
  8
Schraffur (ISO)
100
AcDbHatch
 10
0.0
 20
0.0
 30
0.0
210
0.0
220
0.0
230
1.0
  2
SOLID
 70
     1
 71
     0
 91
        1
 92
        1
 93
        3
 72
     1
 10
0.0
 20
20.0
 11
-0.5000000000000071
 21
17.5
 72
     1
 10
-0.5000000000000071
 20
17.5
 11
0.4999999999999983
 21
17.5
 72
     1
 10
0.4999999999999984
 20
17.5
 11
0.0
 21
20.0
 97
        0
 75
     0
 76
     1
 98
        1
 10
0.0
 20
0.0
450
        0
451
        0
460
0.0
461
0.0
452
        0
462
0.0
453
        0
470

  0
LINE
  5
11B
330
110
100
AcDbEntity
  8
Titel (ISO)
370
    25
100
AcDbLine
 10
0.0
 20
-20.0
 30
0.0
 11
0.0
 21
20.0
 31
0.0
  0
LINE
  5
11C
330
110
100
AcDbEntity
  8
Titel (ISO)
100
AcDbLine
 10
0.0
 20
20.0
 30
0.0
 11
-0.5000000000000071
 21
17.5
 31
0.0
  0
LINE
  5
11D
330
110
100
AcDbEntity
  8
Titel (ISO)
100
AcDbLine
 10
-0.5000000000000071
 20
17.5
 30
0.0
 11
0.4999999999999984
 21
17.5
 31
0.0
  0
LINE
  5
11E
330
110
100
AcDbEntity
  8
Titel (ISO)
100
AcDbLine
 10
0.4999999999999984
 20
17.5
 30
0.0
 11
0.0
 21
20.0
 31
0.0
  0
LINE
  5
11F
330
110
100
AcDbEntity
  8
Titel (ISO)
100
AcDbLine
 10
-0.4999999999999984
 20
-17.5
 30
0.0
 11
0.0
 21
-20.0
 31
0.0
  0
LINE
  5
120
330
110
100
AcDbEntity
  8
Titel (ISO)
100
AcDbLine
 10
0.0
 20
-20.0
 30
0.0
 11
0.4999999999999984
 21
-17.5
 31
0.0
  0
LINE
  5
121
330
110
100
AcDbEntity
  8
Titel (ISO)
100
AcDbLine
 10
0.4999999999999984
 20
-17.5
 30
0.0
 11
-0.4999999999999984
 21
-17.5
 31
0.0
  0
MTEXT
  5
122
330
110
100
AcDbEntity
  8
Titel (ISO)
100
AcDbMText
 10
-5.0
 20
-15.5
 30
0.0
 40
3.499999940395355
 41
0.0
 46
0.0
 71
     1
 72
     1
  1
Schliffrichtung
  7
_Schriftfeld_3.5mm
 11
0.0000000000000001
 21
1.0
 31
0.0
 73
     1
 44
1.0
  0
ENDBLK
  5
112
330
110
100
AcDbEntity
  8
0
100
AcDbBlockEnd
  0
BLOCK
  5
124
330
123
100
AcDbEntity
  8
0
100
AcDbBlockBegin
  2
Stanz-_Laserteil
 70
     0
 10
0.0
 20
0.0
 30
0.0
  3
Stanz-_Laserteil
  1

  0
MTEXT
  5
126
330
123
100
AcDbEntity
  8
Titel (ISO)
100
AcDbMText
 10
-49.3854808807373
 20
9.981259405612943
 30
0.0
 40
3.499999940395355
 41
193.6792332340631
 46
0.0
 71
     1
 72
     1
  1
Als Stanzteil konzipiert\PWenn als Laserteil hergestellt, \Pmuss ganze Kontur innerhalb +/- 0.1 mm sein\P
  7
_Schriftfeld_3.5mm
 73
     2
 44
0.9442214965820312
  0
ENDBLK
  5
125
330
123
100
AcDbEntity
  8
0
100
AcDbBlockEnd
  0
BLOCK
  5
128
330
127
100
AcDbEntity
  8
0
100
AcDbBlockBegin
  2
Stanzrundung_1
 70
     0
 10
0.0
 20
0.0
 30
0.0
  3
Stanzrundung_1
  1

  0
ARC
  5
12A
330
127
100
AcDbEntity
  8
Titel (ISO)
100
AcDbCircle
 10
-2.44997217222222
 20
1.477407396909721
 30
0.0
 40
1.999999999999999
100
AcDbArc
 50
270.0
 51
0.0
  0
LINE
  5
12B
330
127
100
AcDbEntity
  8
Titel (ISO)
100
AcDbLine
 10
-1.049223178106464
 20
0.0498562575512551
 30
0.0
 11
2.449972272222211
 21
-1.477407496909711
 31
0.0
  0
MTEXT
  5
12C
330
127
100
AcDbEntity
  8
Titel (ISO)
100
AcDbMText
 10
3.130367236014626
 20
-0.28633610801851
 30
0.0
 40
3.499999940395355
 41
0.0
 46
0.0
 71
     1
 72
     1
  1
Stanzrundung
  7
_Schriftfeld_3.5mm
 73
     1
 44
1.0
  0
ENDBLK
  5
129
330
127
100
AcDbEntity
  8
0
100
AcDbBlockEnd
  0
BLOCK
  5
12E
330
12D
100
AcDbEntity
  8
0
100
AcDbBlockBegin
  2
Stanzrundung_2
 70
     0
 10
0.0
 20
0.0
 30
0.0
  3
Stanzrundung_2
  1

  0
ARC
  5
130
330
12D
100
AcDbEntity
  8
Titel (ISO)
100
AcDbCircle
 10
1.855973276181241
 20
1.952432954041681
 30
0.0
 40
1.566421450686395
100
AcDbArc
 50
180.0
 51
270.0
  0
LINE
  5
131
330
12D
100
AcDbEntity
  8
Titel (ISO)
100
AcDbLine
 10
-1.855973376181214
 20
-1.952433054041673
 30
0.0
 11
0.776746247326834
 21
0.8171157378590976
 31
0.0
  0
MTEXT
  5
132
330
12D
100
AcDbEntity
  8
Titel (ISO)
100
AcDbMText
 10
-35.05451959893437
 20
-0.5734039390297241
 30
0.0
 40
3.499999940395355
 41
0.0
 46
0.0
 71
     1
 72
     1
  1
Stanzrundung
  7
_Schriftfeld_3.5mm
 73
     1
 44
1.0
  0
ENDBLK
  5
12F
330
12D
100
AcDbEntity
  8
0
100
AcDbBlockEnd
  0
BLOCK
  5
134
330
133
100
AcDbEntity
  8
0
100
AcDbBlockBegin
  2
Verzinkt
 70
     0
 10
0.0
 20
0.0
 30
0.0
  3
Verzinkt
  1

  0
MTEXT
  5
136
330
133
100
AcDbEntity
  8
Titel (ISO)
100
AcDbMText
 10
-34.96665477752687
 20
2.242187596857546
 30
0.0
 40
3.499999940395355
 41
0.0
 46
0.0
 71
     1
 72
     1
  1
verzinkt und blau passiviert 8µm
  7
_Schriftfeld_3.5mm
 73
     1
 44
1.0
  0
ENDBLK
  5
135
330
133
100
AcDbEntity
  8
0
100
AcDbBlockEnd
  0
BLOCK
  5
138
330
137
100
AcDbEntity
  8
0
100
AcDbBlockBegin
  2
Vierkant-Tabelle
 70
     0
 10
0.0
 20
0.0
 30
0.0
  3
Vierkant-Tabelle
  1

  0
LINE
  5
13A
330
137
100
AcDbEntity
  8
Titel (ISO)
 62
     7
100
AcDbLine
 10
-33.99999999999998
 20
-24.00000000000006
 30
0.0
 11
33.99999999999999
 21
-23.99999999999999
 31
0.0
  0
LINE
  5
13B
330
137
100
AcDbEntity
  8
Titel (ISO)
 62
     7
100
AcDbLine
 10
-33.99999999999999
 20
0.0
 30
0.0
 11
33.99999999999999
 21
0.0
 31
0.0
  0
LINE
  5
13C
330
137
100
AcDbEntity
  8
Titel (ISO)
 62
     7
100
AcDbLine
 10
-33.99999999999999
 20
23.99999999999999
 30
0.0
 11
33.99999999999999
 21
24.00000000000006
 31
0.0
  0
LINE
  5
13D
330
137
100
AcDbEntity
  8
Titel (ISO)
 62
     7
100
AcDbLine
 10
-33.99999999999999
 20
15.99999999999998
 30
0.0
 11
34.0
 21
16.00000000000005
 31
0.0
  0
LINE
  5
13E
330
137
100
AcDbEntity
  8
Titel (ISO)
 62
     7
100
AcDbLine
 10
-33.99999999999999
 20
7.999999999999971
 30
0.0
 11
34.0
 21
8.000000000000042
 31
0.0
  0
LINE
  5
13F
330
137
100
AcDbEntity
  8
Titel (ISO)
 62
     7
100
AcDbLine
 10
-33.99999999999999
 20
-8.000000000000042
 30
0.0
 11
33.99999999999999
 21
-7.999999999999971
 31
0.0
  0
LINE
  5
140
330
137
100
AcDbEntity
  8
Titel (ISO)
 62
     7
100
AcDbLine
 10
-33.99999999999999
 20
-16.00000000000005
 30
0.0
 11
33.99999999999999
 21
-15.99999999999998
 31
0.0
  0
LINE
  5
141
330
137
100
AcDbEntity
  8
Titel (ISO)
 62
     7
100
AcDbLine
 10
-25.99999999999997
 20
-24.00000000000006
 30
0.0
 11
-26.0
 21
23.99999999999999
 31
0.0
  0
LINE
  5
142
330
137
100
AcDbEntity
  8
Titel (ISO)
 62
     7
100
AcDbLine
 10
-33.99999999999998
 20
-24.00000000000006
 30
0.0
 11
-33.99999999999999
 21
23.99999999999999
 31
0.0
  0
LINE
  5
143
330
137
100
AcDbEntity
  8
Titel (ISO)
 62
     7
100
AcDbLine
 10
-5.999999999999968
 20
-24.00000000000002
 30
0.0
 11
-5.999999999999996
 21
24.00000000000002
 31
0.0
  0
LINE
  5
144
330
137
100
AcDbEntity
  8
Titel (ISO)
 62
     7
100
AcDbLine
 10
13.99999999999999
 20
-24.00000000000002
 30
0.0
 11
14.0
 21
24.00000000000002
 31
0.0
  0
LINE
  5
145
330
137
100
AcDbEntity
  8
Titel (ISO)
 62
     7
100
AcDbLine
 10
33.99999999999999
 20
-23.99999999999999
 30
0.0
 11
33.99999999999999
 21
24.00000000000006
 31
0.0
  0
MTEXT
  5
146
330
137
100
AcDbEntity
  8
Titel (ISO)
100
AcDbMText
 10
-31.0
 20
-9.999999850988423
 30
0.0
 40
2.5
 41
0.0
 46
0.0
 71
     1
 72
     1
  1
\fArial|b0|i0;\W0.60;\H2.5000;4
  7
_Schriftfeld_3.5mm
 73
     1
 44
1.0
  0
MTEXT
  5
147
330
137
100
AcDbEntity
  8
Titel (ISO)
100
AcDbMText
 10
-31.0
 20
5.999999999999976
 30
0.0
 40
2.5
 41
0.0
 46
0.0
 71
     1
 72
     1
  1
\fArial|b0|i0;\W0.60;\H2.5000;2
  7
_Schriftfeld_3.5mm
 73
     1
 44
1.0
  0
MTEXT
  5
148
330
137
100
AcDbEntity
  8
Titel (ISO)
100
AcDbMText
 10
-31.42346487563099
 20
21.00000014901159
 30
0.0
 40
2.5
 41
0.0
 46
0.0
 71
     1
 72
     1
  1
\fArial|b0|i0;\W0.65;\H2.5000;Pos.
  7
_Schriftfeld_3.5mm
 73
     1
 44
1.0
  0
MTEXT
  5
149
330
137
100
AcDbEntity
  8
Titel (ISO)
100
AcDbMText
 10
-31.0
 20
13.99999999999998
 30
0.0
 40
2.5
 41
0.0
 46
0.0
 71
     1
 72
     1
  1
\fArial|b0|i0;\W0.60;\H2.5000;1
  7
_Schriftfeld_3.5mm
 73
     1
 44
1.0
  0
MTEXT
  5
14A
330
137
100
AcDbEntity
  8
Titel (ISO)
100
AcDbMText
 10
-0.9999999999999964
 20
-18.00000000000004
 30
0.0
 40
2.5
 41
0.0
 46
0.0
 71
     1
 72
     1
  1
\fArial|b0|i0;\W0.88;\H2.5000;4kt. 10
  7
_Schriftfeld_3.5mm
 73
     1
 44
1.0
  0
MTEXT
  5
14B
330
137
100
AcDbEntity
  8
Titel (ISO)
100
AcDbMText
 10
-21.0
 20
-18.00000000000004
 30
0.0
 40
2.5
 41
0.0
 46
0.0
 71
     1
 72
     1
  1
\fAIGDT|b0|i0;\W0.65;\H2.5000;n\fArial|b0|i0;\W0.65;\H2.5000; 11.5
  7
_Schriftfeld_3.5mm
 73
     1
 44
1.0
  0
MTEXT
  5
14C
330
137
100
AcDbEntity
  8
Titel (ISO)
100
AcDbMText
 10
19.0
 20
-18.00000000000004
 30
0.0
 40
2.5
 41
0.0
 46
0.0
 71
     1
 72
     1
  1
\fArial|b0|i0;\W0.88;\H2.5000;13.6
  7
_Schriftfeld_3.5mm
 73
     1
 44
1.0
  0
MTEXT
  5
14D
330
137
100
AcDbEntity
  8
Titel (ISO)
100
AcDbMText
 10
-3.999999999999993
 20
21.00000014901159
 30
0.0
 40
2.5
 41
0.0
 46
0.0
 71
     1
 72
     1
  1
\fArial|b0|i0;\W0.78;\H2.5000;Mass B
  7
_Schriftfeld_3.5mm
 73
     1
 44
1.0
  0
MTEXT
  5
14E
330
137
100
AcDbEntity
  8
Titel (ISO)
100
AcDbMText
 10
-0.9999999999999964
 20
5.999999999999976
 30
0.0
 40
2.5
 41
0.0
 46
0.0
 71
     1
 72
     1
  1
\fArial|b0|i0;\W0.90;\H2.5000;4kt.  8
  7
_Schriftfeld_3.5mm
 73
     1
 44
1.0
  0
MTEXT
  5
14F
330
137
100
AcDbEntity
  8
Titel (ISO)
100
AcDbMText
 10
-0.9999999999999964
 20
-2.000000000000027
 30
0.0
 40
2.5
 41
0.0
 46
0.0
 71
     1
 72
     1
  1
\fArial|b0|i0;\W0.83;\H2.5000;4kt. 8.5
  7
_Schriftfeld_3.5mm
 73
     1
 44
1.0
  0
MTEXT
  5
150
330
137
100
AcDbEntity
  8
Titel (ISO)
100
AcDbMText
 10
-0.9999999999999964
 20
14.00000014901159
 30
0.0
 40
2.5
 41
0.0
 46
0.0
 71
     1
 72
     1
  1
\fArial|b0|i0;\W0.90;\H2.5000;4kt.  7
  7
_Schriftfeld_3.5mm
 73
     1
 44
1.0
  0
MTEXT
  5
151
330
137
100
AcDbEntity
  8
Titel (ISO)
100
AcDbMText
 10
-0.9999999999999964
 20
-10.00000000000003
 30
0.0
 40
2.5
 41
0.0
 46
0.0
 71
     1
 72
     1
  1
\fArial|b0|i0;\W0.90;\H2.5000;4kt.  9
  7
_Schriftfeld_3.5mm
 73
     1
 44
1.0
  0
MTEXT
  5
152
330
137
100
AcDbEntity
  8
Titel (ISO)
100
AcDbMText
 10
-21.0
 20
-2.000000000000027
 30
0.0
 40
2.5
 41
0.0
 46
0.0
 71
     1
 72
     1
  1
\fAIGDT|b0|i0;\W0.76;\H2.5000;n\fArial|b0|i0;\W0.76;\H2.5000; 10.5
  7
_Schriftfeld_3.5mm
 73
     1
 44
1.0
  0
MTEXT
  5
153
330
137
100
AcDbEntity
  8
Titel (ISO)
100
AcDbMText
 10
-21.0
 20
5.999999999999976
 30
0.0
 40
2.5
 41
0.0
 46
0.0
 71
     1
 72
     1
  1
\fAIGDT|b0|i0;\W0.73;\H2.5000;n\fArial|b0|i0;\W0.73;\H2.5000; 10
  7
_Schriftfeld_3.5mm
 73
     1
 44
1.0
  0
MTEXT
  5
154
330
137
100
AcDbEntity
  8
Titel (ISO)
100
AcDbMText
 10
-21.0
 20
-10.00000000000003
 30
0.0
 40
2.5
 41
0.0
 46
0.0
 71
     1
 72
     1
  1
\fAIGDT|b0|i0;\W0.69;\H2.5000;n\fArial|b0|i0;\W0.69;\H2.5000; 11
  7
_Schriftfeld_3.5mm
 73
     1
 44
1.0
  0
MTEXT
  5
155
330
137
100
AcDbEntity
  8
Titel (ISO)
100
AcDbMText
 10
-21.0
 20
13.99999999999998
 30
0.0
 40
2.5
 41
0.0
 46
0.0
 71
     1
 72
     1
  1
\fAIGDT|b0|i0;\W0.84;\H2.5000;n\fArial|b0|i0;\W0.84;\H2.5000; 8
  7
_Schriftfeld_3.5mm
 73
     1
 44
1.0
  0
MTEXT
  5
156
330
137
100
AcDbEntity
  8
Titel (ISO)
100
AcDbMText
 10
-22.02576666302078
 20
21.00000014901159
 30
0.0
 40
2.5
 41
0.0
 46
0.0
 71
     1
 72
     1
  1
\fArial|b0|i0;\W0.79;\H2.5000;Mass A
  7
_Schriftfeld_3.5mm
 73
     1
 44
1.0
  0
MTEXT
  5
157
330
137
100
AcDbEntity
  8
Titel (ISO)
100
AcDbMText
 10
-31.0
 20
-17.96760666370396
 30
0.0
 40
2.5
 41
0.0
 46
0.0
 71
     1
 72
     1
  1
\fArial|b0|i0;\W0.56;\H2.5000;5
  7
_Schriftfeld_3.5mm
 73
     1
 44
1.0
  0
MTEXT
  5
158
330
137
100
AcDbEntity
  8
Titel (ISO)
100
AcDbMText
 10
19.0
 20
-2.000000000000027
 30
0.0
 40
2.5
 41
0.0
 46
0.0
 71
     1
 72
     1
  1
\fArial|b0|i0;\W0.83;\H2.5000;12
  7
_Schriftfeld_3.5mm
 73
     1
 44
1.0
  0
MTEXT
  5
159
330
137
100
AcDbEntity
  8
Titel (ISO)
100
AcDbMText
 10
19.0
 20
5.999999999999976
 30
0.0
 40
2.5
 41
0.0
 46
0.0
 71
     1
 72
     1
  1
\fArial|b0|i0;\W0.90;\H2.5000;11.3
  7
_Schriftfeld_3.5mm
 73
     1
 44
1.0
  0
MTEXT
  5
15A
330
137
100
AcDbEntity
  8
Titel (ISO)
100
AcDbMText
 10
16.0
 20
20.99999999999998
 30
0.0
 40
2.5
 41
0.0
 46
0.0
 71
     1
 72
     1
  1
\fArial|b0|i0;\W0.78;\H2.5000;Mass C
  7
_Schriftfeld_3.5mm
 73
     1
 44
1.0
  0
MTEXT
  5
15B
330
137
100
AcDbEntity
  8
Titel (ISO)
100
AcDbMText
 10
19.0
 20
-10.00000000000003
 30
0.0
 40
2.5
 41
0.0
 46
0.0
 71
     1
 72
     1
  1
\fArial|b0|i0;\W0.90;\H2.5000;12.7
  7
_Schriftfeld_3.5mm
 73
     1
 44
1.0
  0
MTEXT
  5
15C
330
137
100
AcDbEntity
  8
Titel (ISO)
100
AcDbMText
 10
19.0
 20
13.99999999999998
 30
0.0
 40
2.5
 41
0.0
 46
0.0
 71
     1
 72
     1
  1
\fArial|b0|i0;\W0.90;\H2.5000;10
  7
_Schriftfeld_3.5mm
 73
     1
 44
1.0
  0
MTEXT
  5
15D
330
137
100
AcDbEntity
  8
Titel (ISO)
100
AcDbMText
 10
7.52309499999999
 20
23.50279363516371
 30
0.0
 40
2.5
 41
0.0
 46
0.0
 71
     1
 72
     1
  1
\fArial|b0|i0;\W0.68;\H2.5000;+0.05
  7
_Schriftfeld_3.5mm
 73
     1
 44
1.0
  0
MTEXT
  5
15E
330
137
100
AcDbEntity
  8
Titel (ISO)
100
AcDbMText
 10
28.821548797772
 20
20.00279363516373
 30
0.0
 40
2.5
 41
0.0
 46
0.0
 71
     1
 72
     1
  1
\fArial|b0|i0;\W0.63;\H2.5000;0
  7
_Schriftfeld_3.5mm
 73
     1
 44
1.0
  0
MTEXT
  5
15F
330
137
100
AcDbEntity
  8
Titel (ISO)
100
AcDbMText
 10
27.523095
 20
23.50279363516371
 30
0.0
 40
2.5
 41
0.0
 46
0.0
 71
     1
 72
     1
  1
\fArial|b0|i0;\W0.68;\H2.5000;+0.2
  7
_Schriftfeld_3.5mm
 73
     1
 44
1.0
  0
MTEXT
  5
160
330
137
100
AcDbEntity
  8
Titel (ISO)
100
AcDbMText
 10
-31.0
 20
-2.000000000000027
 30
0.0
 40
2.5
 41
0.0
 46
0.0
 71
     1
 72
     1
  1
\fArial|b0|i0;\W0.60;\H2.5000;3
  7
_Schriftfeld_3.5mm
 73
     1
 44
1.0
  0
MTEXT
  5
161
330
137
100
AcDbEntity
  8
Titel (ISO)
100
AcDbMText
 10
7.52309499999999
 20
20.00279363516373
 30
0.0
 40
2.5
 41
0.0
 46
0.0
 71
     1
 72
     1
  1
\fArial|b0|i0;\W0.63;\H2.5000;+0.01
  7
_Schriftfeld_3.5mm
 73
     1
 44
1.0
  0
ENDBLK
  5
139
330
137
100
AcDbEntity
  8
0
100
AcDbBlockEnd
  0
BLOCK
  5
163
330
162
100
AcDbEntity
  8
0
100
AcDbBlockBegin
  2
Laserpunkt_Text
 70
     0
 10
0.0
 20
0.0
 30
0.0
  3
Laserpunkt_Text
  1

  0
CIRCLE
  5
165
330
162
100
AcDbEntity
  8
Skizziergeometrie(DIN)
370
    70
100
AcDbCircle
 10
3.715998998176778
 20
2.645602535338599
 30
0.0
 40
2.250000000000003
  0
LINE
  5
166
330
162
100
AcDbEntity
  8
Skizziergeometrie(DIN)
370
    70
100
AcDbLine
 10
6.014096037033062
 20
0.3475054964822988
 30
0.0
 11
1.417901959320495
 21
4.943699574194866
 31
0.0
  0
LINE
  5
167
330
162
100
AcDbEntity
  8
Skizziergeometrie(DIN)
370
    70
100
AcDbLine
 10
1.417901959320513
 20
0.3475054964822988
 30
0.0
 11
6.01409603703308
 21
4.943699574194866
 31
0.0
  0
MTEXT
  5
168
330
162
100
AcDbEntity
  8
Symbole(DIN)
 62
   179
420
  2500185
100
AcDbMText
 10
0.0
 20
-0.1396086563666721
 30
0.0
 40
3.499999940395355
 41
0.0
 46
0.0
 71
     7
 72
     1
  1
Kontur gelasert nach DXF-File\P      = Anfang/Ende Laserkontur 
  7
Aktuell-DIN
 73
     2
 44
0.9442214965820312
  0
ENDBLK
  5
164
330
162
100
AcDbEntity
  8
0
100
AcDbBlockEnd
  0
BLOCK
  5
16A
330
169
100
AcDbEntity
  8
0
100
AcDbBlockBegin
  2
Laserpunkt
 70
     0
 10
0.0
 20
0.0
 30
0.0
  3
Laserpunkt
  1

  0
CIRCLE
  5
16C
330
169
100
AcDbEntity
  8
Skizziergeometrie(DIN)
370
    70
100
AcDbCircle
 10
0.0
 20
0.0
 30
0.0
 40
2.250000000000003
  0
LINE
  5
16D
330
169
100
AcDbEntity
  8
Skizziergeometrie(DIN)
370
    70
100
AcDbLine
 10
2.298097038856282
 20
-2.2980970388563
 30
0.0
 11
-2.298097038856282
 21
2.298097038856266
 31
0.0
  0
LINE
  5
16E
330
169
100
AcDbEntity
  8
Skizziergeometrie(DIN)
370
    70
100
AcDbLine
 10
-2.298097038856266
 20
-2.2980970388563
 30
0.0
 11
2.2980970388563
 21
2.298097038856266
 31
0.0
  0
ENDBLK
  5
16B
330
169
100
AcDbEntity
  8
0
100
AcDbBlockEnd
  0
BLOCK
  5
170
330
16F
100
AcDbEntity
  8
0
100
AcDbBlockBegin
  2
Kantenbruch
 70
     2
 10
0.0
 20
0.0
 30
0.0
  3
Kantenbruch
  1

  0
HATCH
  5
175
330
16F
100
AcDbEntity
  8
Schraffur
100
AcDbHatch
 10
0.0
 20
0.0
 30
0.0
210
0.0
220
0.0
230
1.0
  2
SOLID
 70
     1
 71
     0
 91
        1
 92
        1
 93
        3
 72
     1
 10
2.551045103405299
 20
2.440182479852524
 11
0.0
 21
0.0
 72
     1
 10
0.0
 20
0.0
 11
1.832554653580372
 21
3.017294333708306
 72
     1
 10
1.832554653580372
 20
3.017294333708306
 11
2.551045103405299
 21
2.440182479852524
 97
        0
 75
     0
 76
     1
 98
        1
 10
0.0
 20
0.0
450
        0
451
        0
460
0.0
461
0.0
452
        0
462
0.0
453
        0
470

  0
HATCH
  5
179
330
16F
100
AcDbEntity
  8
Schraffur
100
AcDbHatch
 10
0.0
 20
0.0
 30
0.0
210
0.0
220
0.0
230
1.0
  2
SOLID
 70
     1
 71
     0
 91
        1
 92
        1
 93
        3
 72
     1
 10
23.39589716406273
 20
3.017294333708662
 11
21.56334251048213
 21
0.0
 72
     1
 10
21.56334251048213
 20
0.0
 11
24.11438761388769
 21
2.440182479852808
 72
     1
 10
24.11438761388769
 20
2.440182479852808
 11
23.39589716406273
 21
3.017294333708662
 97
        0
 75
     0
 76
     1
 98
        1
 10
0.0
 20
0.0
450
        0
451
        0
460
0.0
461
0.0
452
        0
462
0.0
453
        0
470

  0
LINE
  5
17A
330
16F
100
AcDbEntity
  8
AM_5
  6
Continuous
 62
     7
100
AcDbLine
 10
14.41413346606271
 20
6.589009726759619
 30
0.0
 11
5.486542746190784
 21
6.589009726759619
 31
0.0
  0
LINE
  5
17B
330
16F
100
AcDbEntity
  8
AM_5
  6
Continuous
 62
     7
100
AcDbLine
 10
6.021339289383168
 20
7.425192947268967
 30
0.0
 11
10.92133928938317
 21
7.425192947268967
 31
0.0
  0
LINE
  5
17C
330
16F
100
AcDbEntity
  8
AM_5
  6
Continuous
 62
     7
100
AcDbLine
 10
6.021339289383168
 20
12.32519294726897
 30
0.0
 11
6.021339289383168
 21
7.425192947268967
 31
0.0
  0
LINE
  5
17D
330
16F
100
AcDbEntity
  8
AM_5
  6
Continuous
 62
     7
100
AcDbLine
 10
27.49096644559973
 20
12.32519294726897
 30
0.0
 11
27.49096644559973
 21
7.425192947268967
 31
0.0
  0
LINE
  5
17E
330
16F
100
AcDbEntity
  8
AM_5
  6
Continuous
 62
     7
100
AcDbLine
 10
2.551045103405299
 20
2.440182479852559
 30
0.0
 11
1.832554653580372
 21
3.017294333708306
 31
0.0
  0
LINE
  5
17F
330
16F
100
AcDbEntity
  8
AM_5
 62
     7
100
AcDbLine
 10
5.486542746190784
 20
6.589009726759619
 30
0.0
 11
2.259523567491451
 21
2.674322428928999
 31
0.0
  0
LINE
  5
180
330
16F
100
AcDbEntity
  8
AM_5
  6
Continuous
 62
     7
100
AcDbLine
 10
0.0
 20
0.0
 30
0.0
 11
2.551045103405299
 21
2.440182479852524
 31
0.0
  0
LINE
  5
181
330
16F
100
AcDbEntity
  8
AM_5
  6
Continuous
 62
     7
100
AcDbLine
 10
21.56334251048156
 20
0.0
 30
0.0
 11
24.11438761388769
 21
2.440182479852808
 31
0.0
  0
LINE
  5
182
330
16F
100
AcDbEntity
  8
Skizziergeometrie(DIN)
100
AcDbLine
 10
2.551045103405299
 20
2.440182479852524
 30
0.0
 11
1.832554653580372
 21
3.017294333708306
 31
0.0
  0
LINE
  5
183
330
16F
100
AcDbEntity
  8
AM_5
  6
Continuous
 62
     7
100
AcDbLine
 10
1.832554653580372
 20
3.017294333708306
 30
0.0
 11
0.0
 21
0.0
 31
0.0
  0
LINE
  5
184
330
16F
100
AcDbEntity
  8
Skizziergeometrie(DIN)
100
AcDbLine
 10
1.832554653580372
 20
3.017294333708306
 30
0.0
 11
0.0
 21
0.0
 31
0.0
  0
LINE
  5
185
330
16F
100
AcDbEntity
  8
Skizziergeometrie(DIN)
100
AcDbLine
 10
0.0
 20
0.0
 30
0.0
 11
2.551045103405299
 21
2.440182479852524
 31
0.0
  0
LINE
  5
186
330
16F
100
AcDbEntity
  8
AM_0
370
    25
100
AcDbLine
 10
0.0
 20
0.0
 30
0.0
 11
-8.000000000000008
 21
0.0
 31
0.0
  0
LINE
  5
187
330
16F
100
AcDbEntity
  8
Skizziergeometrie(DIN)
370
    25
100
AcDbLine
 10
0.0
 20
0.0
 30
0.0
 11
0.0
 21
-7.999999999999997
 31
0.0
  0
LINE
  5
188
330
16F
100
AcDbEntity
  8
Skizziergeometrie(DIN)
100
AcDbLine
 10
24.11438761388769
 20
2.440182479852808
 30
0.0
 11
21.56334251048213
 21
0.0
 31
0.0
  0
LINE
  5
189
330
16F
100
AcDbEntity
  8
AM_5
  6
Continuous
 62
     7
100
AcDbLine
 10
27.49096644559973
 20
7.425192947268967
 30
0.0
 11
32.39096644559975
 21
7.425192947268967
 31
0.0
  0
LINE
  5
18A
330
16F
100
AcDbEntity
  8
AM_5
  6
Continuous
 62
     7
100
AcDbLine
 10
35.8837606222793
 20
6.589009726759619
 30
0.0
 11
26.95616990240735
 21
6.589009726759619
 31
0.0
  0
LINE
  5
18B
330
16F
100
AcDbEntity
  8
AM_5
  6
Continuous
 62
     7
100
AcDbLine
 10
26.95616990240735
 20
6.589009726759619
 30
0.0
 11
23.70310776989253
 21
2.640671625589323
 31
0.0
  0
LINE
  5
18C
330
16F
100
AcDbEntity
  8
Skizziergeometrie(DIN)
100
AcDbLine
 10
23.39589716406273
 20
3.017294333708662
 30
0.0
 11
24.11438761388769
 21
2.440182479852808
 31
0.0
  0
LINE
  5
18D
330
16F
100
AcDbEntity
  8
AM_5
  6
Continuous
 62
     7
100
AcDbLine
 10
24.11438761388677
 20
2.309315017511791
 30
0.0
 11
23.39589716406191
 21
2.886426871367539
 31
0.0
  0
LINE
  5
18E
330
16F
100
AcDbEntity
  8
AM_0
370
    25
100
AcDbLine
 10
21.56334251048213
 20
7.999999999999988
 30
0.0
 11
21.56334251048213
 21
0.0
 31
0.0
  0
LINE
  5
18F
330
16F
100
AcDbEntity
  8
AM_5
  6
Continuous
 62
     7
100
AcDbLine
 10
23.39589716406273
 20
3.017294333708662
 30
0.0
 11
21.56334251048213
 21
0.0
 31
0.0
  0
LINE
  5
190
330
16F
100
AcDbEntity
  8
Skizziergeometrie(DIN)
100
AcDbLine
 10
21.56334251048213
 20
0.0
 30
0.0
 11
23.39589716406273
 21
3.017294333708662
 31
0.0
  0
LINE
  5
191
330
16F
100
AcDbEntity
  8
AM_0
370
    25
100
AcDbLine
 10
21.56334251048145
 20
0.0
 30
0.0
 11
29.56334251048146
 21
0.0
 31
0.0
  0
ATTDEF
  5
193
102
{ACAD_XDICTIONARY
360
CAA
102
}
330
16F
100
AcDbEntity
  8
AM_5
 62
     7
100
AcDbText
 10
27.71846645364636
 20
13.12519300687362
 30
0.0
 40
3.499999940395355
  1
-1
 41
0.9
  7
Textstil122
100
AcDbAttributeDefinition
  3
Innenkante obere Grenze
  2
Innenkante_obere_Grenze_001
 70
     0
280
     0
  0
ATTDEF
  5
196
102
{ACAD_XDICTIONARY
360
CAD
102
}
330
16F
100
AcDbEntity
  8
AM_5
 62
     7
100
AcDbText
 10
27.71846645364636
 20
8.124504030507404
 30
0.0
 40
3.499999940395355
  1
-0.25
 41
0.9
  7
Textstil122
100
AcDbAttributeDefinition
  3
Innenkante untere Grenze
  2
Innenkante_untere_Grenze_001
 70
     0
280
     0
  0
ATTDEF
  5
197
102
{ACAD_XDICTIONARY
360
CB0
102
}
330
16F
100
AcDbEntity
  8
AM_5
 62
     7
100
AcDbText
 10
6.248839297429796
 20
13.12519300687362
 30
0.0
 40
3.499999940395355
  1
+0.3
 41
0.9
  7
Textstil122
100
AcDbAttributeDefinition
  3
Aussenkante obere Grenze
  2
Aussenkante_obere_Grenze_001
 70
     0
280
     0
  0
ATTDEF
  5
198
102
{ACAD_XDICTIONARY
360
CB3
102
}
330
16F
100
AcDbEntity
  8
AM_5
 62
     7
100
AcDbText
 10
6.248839297429796
 20
8.125193006873624
 30
0.0
 40
3.499999940395355
  1
+0.1
 41
0.9
  7
Textstil122
100
AcDbAttributeDefinition
  3
Aussenkante untere Grenze
  2
Aussenkante_untere_Grenze_001
 70
     0
280
     0
  0
ENDBLK
  5
171
330
16F
100
AcDbEntity
  8
0
100
AcDbBlockEnd
  0
BLOCK
  5
2CA
330
2C9
100
AcDbEntity
  8
0
100
AcDbBlockBegin
  2
*D17
 70
     1
 10
0.0
 20
0.0
 30
0.0
  3
*D17
  1

  0
LINE
  5
3A1
330
2C9
100
AcDbEntity
  8
Bemaßungen(DIN)
  6
Continuous
 62
   250
420
  4144959
440
 16777216
370
    25
100
AcDbLine
 10
139.0536769043583
 20
466.5111813398024
 30
0.0
 11
82.35300411808585
 21
466.5111813398024
 31
0.0
  0
LINE
  5
3A2
330
2C9
100
AcDbEntity
  8
Bemaßungen(DIN)
  6
Continuous
 62
   250
420
  4144959
440
 16777216
370
    25
100
AcDbLine
 10
156.3036769043582
 20
394.5111813398026
 30
0.0
 11
82.35300411808585
 21
394.5111813398026
 31
0.0
  0
LINE
  5
3A3
330
2C9
100
AcDbEntity
  8
Bemaßungen(DIN)
  6
Continuous
 62
   250
420
  4144959
440
 16777216
370
    25
100
AcDbLine
 10
88.70300411808583
 20
461.5111813398025
 30
0.0
 11
88.70300411808583
 21
399.5111813398026
 31
0.0
  0
SOLID
  5
3A4
330
2C9
100
AcDbEntity
  8
Bemaßungen(DIN)
  6
Continuous
 62
   250
420
  4144959
440
 16777216
100
AcDbTrace
 10
87.86967078475255
 20
461.5111813398025
 30
0.0
 11
89.53633745141919
 21
461.5111813398025
 31
0.0
 12
88.70300411808583
 22
466.5111813398024
 32
0.0
 13
88.70300411808583
 23
466.5111813398024
 33
0.0
  0
SOLID
  5
3A5
330
2C9
100
AcDbEntity
  8
Bemaßungen(DIN)
  6
Continuous
 62
   250
420
  4144959
440
 16777216
100
AcDbTrace
 10
87.86967078475251
 20
399.5111813398026
 30
0.0
 11
89.53633745141916
 21
399.5111813398026
 31
0.0
 12
88.70300411808583
 22
394.5111813398026
 32
0.0
 13
88.70300411808583
 23
394.5111813398026
 33
0.0
  0
MTEXT
  5
3A6
330
2C9
100
AcDbEntity
  8
Bemaßungen(DIN)
  6
Continuous
 62
   250
420
  4144959
440
 16777216
370
    25
100
AcDbMText
 10
80.0743546910891
 20
425.5419998648824
 30
0.0
 40
7.0
 41
0.0
 46
0.0
 71
     1
 72
     1
  1
\A1;72
  7
STANDARD-DIN~0
 11
0.0000000000000001
 21
1.0
 31
0.0
 73
     1
 44
1.0
  0
POINT
  5
3A7
330
2C9
100
AcDbEntity
  8
Defpoints
  6
Continuous
 62
     0
440
 16777216
100
AcDbPoint
 10
139.0536769043583
 20
466.5111813398024
 30
0.0
  0
POINT
  5
3A8
330
2C9
100
AcDbEntity
  8
Defpoints
  6
Continuous
 62
     0
440
 16777216
100
AcDbPoint
 10
156.3036769043582
 20
394.5111813398026
 30
0.0
  0
POINT
  5
3A9
330
2C9
100
AcDbEntity
  8
Defpoints
  6
Continuous
 62
     0
440
 16777216
100
AcDbPoint
 10
88.70300411808583
 20
394.5111813398026
 30
0.0
  0
ENDBLK
  5
2CB
330
2C9
100
AcDbEntity
  8
0
100
AcDbBlockEnd
  0
BLOCK
  5
3AC
330
3AB
100
AcDbEntity
  8
0
100
AcDbBlockBegin
  2
*D18
 70
     1
 10
0.0
 20
0.0
 30
0.0
  3
*D18
  1

  0
LINE
  5
483
330
3AB
100
AcDbEntity
  8
Bemaßungen(DIN)
  6
Continuous
 62
   250
420
  4144959
440
 16777216
370
    25
100
AcDbLine
 10
143.100920475838
 20
455.5111813398024
 30
0.0
 11
106.3530041180858
 21
455.5111813398026
 31
0.0
  0
LINE
  5
484
330
3AB
100
AcDbEntity
  8
Bemaßungen(DIN)
  6
Continuous
 62
   250
420
  4144959
440
 16777216
370
    25
100
AcDbLine
 10
143.0536769043582
 20
405.5111813398026
 30
0.0
 11
106.3530041180858
 21
405.5111813398027
 31
0.0
  0
LINE
  5
485
330
3AB
100
AcDbEntity
  8
Bemaßungen(DIN)
  6
Continuous
 62
   250
420
  4144959
440
 16777216
370
    25
100
AcDbLine
 10
112.7030041180858
 20
450.5111813398024
 30
0.0
 11
112.7030041180858
 21
410.5111813398027
 31
0.0
  0
SOLID
  5
486
330
3AB
100
AcDbEntity
  8
Bemaßungen(DIN)
  6
Continuous
 62
   250
420
  4144959
440
 16777216
100
AcDbTrace
 10
111.8696707847525
 20
450.5111813398024
 30
0.0
 11
113.5363374514192
 21
450.5111813398024
 31
0.0
 12
112.7030041180858
 22
455.5111813398026
 32
0.0
 13
112.7030041180858
 23
455.5111813398026
 33
0.0
  0
SOLID
  5
487
330
3AB
100
AcDbEntity
  8
Bemaßungen(DIN)
  6
Continuous
 62
   250
420
  4144959
440
 16777216
100
AcDbTrace
 10
111.8696707847525
 20
410.5111813398027
 30
0.0
 11
113.5363374514192
 21
410.5111813398027
 31
0.0
 12
112.7030041180858
 22
405.5111813398027
 32
0.0
 13
112.7030041180858
 23
405.5111813398027
 33
0.0
  0
MTEXT
  5
488
330
3AB
100
AcDbEntity
  8
Bemaßungen(DIN)
  6
Continuous
 62
   250
420
  4144959
440
 16777216
370
    25
100
AcDbMText
 10
103.9549822483751
 20
425.4894759900885
 30
0.0
 40
7.0
 41
0.0
 46
0.0
 71
     1
 72
     1
  1
\A1;50
  7
STANDARD-DIN~0
 11
0.0000000000000001
 21
1.0
 31
0.0
 73
     1
 44
1.0
  0
POINT
  5
489
330
3AB
100
AcDbEntity
  8
Defpoints
  6
Continuous
 62
     0
440
 16777216
100
AcDbPoint
 10
143.100920475838
 20
455.5111813398024
 30
0.0
  0
POINT
  5
48A
330
3AB
100
AcDbEntity
  8
Defpoints
  6
Continuous
 62
     0
440
 16777216
100
AcDbPoint
 10
143.0536769043582
 20
405.5111813398026
 30
0.0
  0
POINT
  5
48B
330
3AB
100
AcDbEntity
  8
Defpoints
  6
Continuous
 62
     0
440
 16777216
100
AcDbPoint
 10
112.7030041180858
 20
405.5111813398027
 30
0.0
  0
ENDBLK
  5
3AD
330
3AB
100
AcDbEntity
  8
0
100
AcDbBlockEnd
  0
BLOCK
  5
48E
330
48D
100
AcDbEntity
  8
0
100
AcDbBlockBegin
  2
*D19
 70
     1
 10
0.0
 20
0.0
 30
0.0
  3
*D19
  1

  0
LINE
  5
565
330
48D
100
AcDbEntity
  8
Bemaßungen(DIN)
  6
Continuous
 62
   250
420
  4144959
440
 16777216
370
    25
100
AcDbLine
 10
136.5536769043582
 20
464.0111813398024
 30
0.0
 11
136.5536769043582
 21
495.0619884606862
 31
0.0
  0
LINE
  5
566
330
48D
100
AcDbEntity
  8
Bemaßungen(DIN)
  6
Continuous
 62
   250
420
  4144959
440
 16777216
370
    25
100
AcDbLine
 10
169.0536769043583
 20
464.0111813398024
 30
0.0
 11
169.0536769043583
 21
495.0619884606862
 31
0.0
  0
LINE
  5
567
330
48D
100
AcDbEntity
  8
Bemaßungen(DIN)
  6
Continuous
 62
   250
420
  4144959
440
 16777216
370
    25
100
AcDbLine
 10
141.5536769043582
 20
488.711988460686
 30
0.0
 11
164.0536769043583
 21
488.711988460686
 31
0.0
  0
SOLID
  5
568
330
48D
100
AcDbEntity
  8
Bemaßungen(DIN)
  6
Continuous
 62
   250
420
  4144959
440
 16777216
100
AcDbTrace
 10
141.5536769043582
 20
489.5453217940193
 30
0.0
 11
141.5536769043582
 21
487.8786551273528
 31
0.0
 12
136.5536769043582
 22
488.711988460686
 32
0.0
 13
136.5536769043582
 23
488.711988460686
 33
0.0
  0
SOLID
  5
569
330
48D
100
AcDbEntity
  8
Bemaßungen(DIN)
  6
Continuous
 62
   250
420
  4144959
440
 16777216
100
AcDbTrace
 10
164.0536769043583
 20
489.5453217940193
 30
0.0
 11
164.0536769043583
 21
487.8786551273528
 31
0.0
 12
169.0536769043583
 22
488.711988460686
 32
0.0
 13
169.0536769043583
 23
488.711988460686
 33
0.0
  0
MTEXT
  5
56A
330
48D
100
AcDbEntity
  8
Bemaßungen(DIN)
  6
Continuous
 62
   250
420
  4144959
440
 16777216
370
    25
100
AcDbMText
 10
143.6483971787219
 20
497.4647852281052
 30
0.0
 40
7.0
 41
0.0
 46
0.0
 71
     1
 72
     1
  1
\A1;32.5
  7
STANDARD-DIN~0
 73
     1
 44
1.0
  0
POINT
  5
56B
330
48D
100
AcDbEntity
  8
Defpoints
  6
Continuous
 62
     0
440
 16777216
100
AcDbPoint
 10
136.5536769043582
 20
464.0111813398024
 30
0.0
  0
POINT
  5
56C
330
48D
100
AcDbEntity
  8
Defpoints
  6
Continuous
 62
     0
440
 16777216
100
AcDbPoint
 10
169.0536769043583
 20
464.0111813398024
 30
0.0
  0
POINT
  5
56D
330
48D
100
AcDbEntity
  8
Defpoints
  6
Continuous
 62
     0
440
 16777216
100
AcDbPoint
 10
169.0536769043583
 20
488.711988460686
 30
0.0
  0
ENDBLK
  5
48F
330
48D
100
AcDbEntity
  8
0
100
AcDbBlockEnd
  0
BLOCK
  5
570
330
56F
100
AcDbEntity
  8
0
100
AcDbBlockBegin
  2
*D20
 70
     1
 10
0.0
 20
0.0
 30
0.0
  3
*D20
  1

  0
LINE
  5
647
330
56F
100
AcDbEntity
  8
Bemaßungen(DIN)
  6
Continuous
 62
   250
420
  4144959
440
 16777216
370
    25
100
AcDbLine
 10
152.8036769043582
 20
415.0936836070973
 30
0.0
 11
152.8036769043582
 21
364.1605085535302
 31
0.0
  0
LINE
  5
648
330
56F
100
AcDbEntity
  8
Bemaßungen(DIN)
  6
Continuous
 62
   250
420
  4144959
440
 16777216
370
    25
100
AcDbLine
 10
294.2333708473121
 20
421.069707543373
 30
0.0
 11
294.2333708473121
 21
364.1605085535302
 31
0.0
  0
LINE
  5
649
330
56F
100
AcDbEntity
  8
Bemaßungen(DIN)
  6
Continuous
 62
   250
420
  4144959
440
 16777216
370
    25
100
AcDbLine
 10
157.8036769043583
 20
370.5105085535302
 30
0.0
 11
289.2333708473121
 21
370.5105085535302
 31
0.0
  0
SOLID
  5
64A
330
56F
100
AcDbEntity
  8
Bemaßungen(DIN)
  6
Continuous
 62
   250
420
  4144959
440
 16777216
100
AcDbTrace
 10
157.8036769043583
 20
371.3438418868634
 30
0.0
 11
157.8036769043583
 21
369.6771752201968
 31
0.0
 12
152.8036769043582
 22
370.5105085535302
 32
0.0
 13
152.8036769043582
 23
370.5105085535302
 33
0.0
  0
SOLID
  5
64B
330
56F
100
AcDbEntity
  8
Bemaßungen(DIN)
  6
Continuous
 62
   250
420
  4144959
440
 16777216
100
AcDbTrace
 10
289.2333708473121
 20
371.3438418868634
 30
0.0
 11
289.2333708473121
 21
369.6771752201968
 31
0.0
 12
294.2333708473121
 22
370.5105085535302
 32
0.0
 13
294.2333708473121
 23
370.5105085535302
 33
0.0
  0
MTEXT
  5
64C
330
56F
100
AcDbEntity
  8
Bemaßungen(DIN)
  6
Continuous
 62
   250
420
  4144959
440
 16777216
370
    25
100
AcDbMText
 10
216.8106930044776
 20
379.1391579805269
 30
0.0
 40
7.0
 41
0.0
 46
0.0
 71
     1
 72
     1
  1
\A1;141
  7
STANDARD-DIN~0
 73
     1
 44
1.0
  0
POINT
  5
64D
330
56F
100
AcDbEntity
  8
Defpoints
  6
Continuous
 62
     0
440
 16777216
100
AcDbPoint
 10
152.8036769043582
 20
415.0936836070973
 30
0.0
  0
POINT
  5
64E
330
56F
100
AcDbEntity
  8
Defpoints
  6
Continuous
 62
     0
440
 16777216
100
AcDbPoint
 10
294.2333708473121
 20
421.069707543373
 30
0.0
  0
POINT
  5
64F
330
56F
100
AcDbEntity
  8
Defpoints
  6
Continuous
 62
     0
440
 16777216
100
AcDbPoint
 10
294.2333708473121
 20
370.5105085535302
 30
0.0
  0
ENDBLK
  5
571
330
56F
100
AcDbEntity
  8
0
100
AcDbBlockEnd
  0
BLOCK
  5
652
330
651
100
AcDbEntity
  8
0
100
AcDbBlockBegin
  2
*D21
 70
     1
 10
0.0
 20
0.0
 30
0.0
  3
*D21
  1

  0
LINE
  5
732
330
651
100
AcDbEntity
  8
Bemaßungen(DIN)
  6
Continuous
 62
   250
420
  4144959
440
 16777216
370
    25
100
AcDbLine
 10
185.6536769043102
 20
200.4664580583576
 30
0.0
 11
82.35300411808582
 21
200.4664580583576
 31
0.0
  0
LINE
  5
733
330
651
100
AcDbEntity
  8
Bemaßungen(DIN)
  6
Continuous
 62
   250
420
  4144959
440
 16777216
370
    25
100
AcDbLine
 10
139.0536769043102
 20
254.6664580583648
 30
0.0
 11
82.35300411808585
 21
254.6664580583648
 31
0.0
  0
LINE
  5
734
330
651
100
AcDbEntity
  8
Bemaßungen(DIN)
  6
Continuous
 62
   250
420
  4144959
440
 16777216
370
    25
100
AcDbLine
 10
88.7030041180858
 20
205.4664580583576
 30
0.0
 11
88.70300411808583
 21
249.6664580583648
 31
0.0
  0
SOLID
  5
735
330
651
100
AcDbEntity
  8
Bemaßungen(DIN)
  6
Continuous
 62
   250
420
  4144959
440
 16777216
100
AcDbTrace
 10
87.86967078475248
 20
205.4664580583576
 30
0.0
 11
89.53633745141914
 21
205.4664580583576
 31
0.0
 12
88.7030041180858
 22
200.4664580583576
 32
0.0
 13
88.7030041180858
 23
200.4664580583576
 33
0.0
  0
SOLID
  5
736
330
651
100
AcDbEntity
  8
Bemaßungen(DIN)
  6
Continuous
 62
   250
420
  4144959
440
 16777216
100
AcDbTrace
 10
87.8696707847525
 20
249.6664580583648
 30
0.0
 11
89.53633745141916
 21
249.6664580583648
 31
0.0
 12
88.70300411808583
 22
254.6664580583648
 32
0.0
 13
88.70300411808583
 23
254.6664580583648
 33
0.0
  0
MTEXT
  5
737
330
651
100
AcDbEntity
  8
Bemaßungen(DIN)
  6
Continuous
 62
   250
420
  4144959
440
 16777216
370
    25
100
AcDbMText
 10
79.98363167537185
 20
218.4487908838706
 30
0.0
 40
7.0
 41
0.0
 46
0.0
 71
     1
 72
     1
  1
\A1;55.5
  7
STANDARD-DIN~0
 11
0.0000000000000001
 21
1.0
 31
0.0
 73
     1
 44
1.0
  0
POINT
  5
738
330
651
100
AcDbEntity
  8
Defpoints
  6
Continuous
 62
     0
440
 16777216
100
AcDbPoint
 10
185.6536769043102
 20
200.4664580583576
 30
0.0
  0
POINT
  5
739
330
651
100
AcDbEntity
  8
Defpoints
  6
Continuous
 62
     0
440
 16777216
100
AcDbPoint
 10
139.0536769043102
 20
254.6664580583648
 30
0.0
  0
POINT
  5
73A
330
651
100
AcDbEntity
  8
Defpoints
  6
Continuous
 62
     0
440
 16777216
100
AcDbPoint
 10
88.70300411808583
 20
254.6664580583648
 30
0.0
  0
ENDBLK
  5
653
330
651
100
AcDbEntity
  8
0
100
AcDbBlockEnd
  0
BLOCK
  5
73D
330
73C
100
AcDbEntity
  8
0
100
AcDbBlockBegin
  2
*D22
 70
     1
 10
0.0
 20
0.0
 30
0.0
  3
*D22
  1

  0
LINE
  5
81A
330
73C
100
AcDbEntity
  8
Bemaßungen(DIN)
  6
Continuous
 62
   250
420
  4144959
440
 16777216
370
    25
100
AcDbLine
 10
139.0536769043102
 20
268.6664580583656
 30
0.0
 11
82.35300411808585
 21
268.6664580583656
 31
0.0
  0
LINE
  5
81B
330
73C
100
AcDbEntity
  8
Bemaßungen(DIN)
  6
Continuous
 62
   250
420
  4144959
440
 16777216
370
    25
100
AcDbLine
 10
139.0536769043102
 20
254.6664580583648
 30
0.0
 11
82.35300411808585
 21
254.6664580583648
 31
0.0
  0
LINE
  5
81C
330
73C
100
AcDbEntity
  8
Bemaßungen(DIN)
  6
Continuous
 62
   250
420
  4144959
440
 16777216
370
    25
100
AcDbLine
 10
88.70300411808583
 20
263.6664580583656
 30
0.0
 11
88.70300411808583
 21
259.6664580583648
 31
0.0
  0
SOLID
  5
81D
330
73C
100
AcDbEntity
  8
Bemaßungen(DIN)
  6
Continuous
 62
   250
420
  4144959
440
 16777216
100
AcDbTrace
 10
87.8696707847525
 20
273.6664580583656
 30
0.0
 11
89.53633745141916
 21
273.6664580583656
 31
0.0
 12
88.70300411808583
 22
268.6664580583656
 32
0.0
 13
88.70300411808583
 23
268.6664580583656
 33
0.0
  0
LINE
  5
81E
330
73C
100
AcDbEntity
  8
Bemaßungen(DIN)
  6
Continuous
 62
   250
420
  4144959
440
 16777216
370
    25
100
AcDbLine
 10
88.70300411808583
 20
273.6664580583656
 30
0.0
 11
88.70300411808583
 21
278.6664580583656
 31
0.0
  0
LINE
  5
81F
330
73C
100
AcDbEntity
  8
Bemaßungen(DIN)
  6
Continuous
 62
   250
420
  4144959
440
 16777216
370
    25
100
AcDbLine
 10
88.70300411808583
 20
268.6664580583656
 30
0.0
 11
88.70300411808583
 21
263.6664580583656
 31
0.0
  0
SOLID
  5
820
330
73C
100
AcDbEntity
  8
Bemaßungen(DIN)
  6
Continuous
 62
   250
420
  4144959
440
 16777216
100
AcDbTrace
 10
87.8696707847525
 20
249.6664580583648
 30
0.0
 11
89.53633745141916
 21
249.6664580583648
 31
0.0
 12
88.70300411808583
 22
254.6664580583648
 32
0.0
 13
88.70300411808583
 23
254.6664580583648
 33
0.0
  0
LINE
  5
821
330
73C
100
AcDbEntity
  8
Bemaßungen(DIN)
  6
Continuous
 62
   250
420
  4144959
440
 16777216
370
    25
100
AcDbLine
 10
88.70300411808583
 20
249.6664580583648
 30
0.0
 11
88.70300411808583
 21
244.6664580583648
 31
0.0
  0
LINE
  5
822
330
73C
100
AcDbEntity
  8
Bemaßungen(DIN)
  6
Continuous
 62
   250
420
  4144959
440
 16777216
370
    25
100
AcDbLine
 10
88.70300411808583
 20
254.6664580583648
 30
0.0
 11
88.70300411808583
 21
259.6664580583648
 31
0.0
  0
MTEXT
  5
823
330
73C
100
AcDbEntity
  8
Bemaßungen(DIN)
  6
Continuous
 62
   250
420
  4144959
440
 16777216
370
    25
100
AcDbMText
 10
80.0743546910891
 20
256.9966080993959
 30
0.0
 40
7.0
 41
0.0
 46
0.0
 71
     1
 72
     1
  1
\A1;14
  7
STANDARD-DIN~0
 11
0.0000000000000001
 21
1.0
 31
0.0
 73
     1
 44
1.0
  0
POINT
  5
824
330
73C
100
AcDbEntity
  8
Defpoints
  6
Continuous
 62
     0
440
 16777216
100
AcDbPoint
 10
139.0536769043102
 20
268.6664580583656
 30
0.0
  0
POINT
  5
825
330
73C
100
AcDbEntity
  8
Defpoints
  6
Continuous
 62
     0
440
 16777216
100
AcDbPoint
 10
139.0536769043102
 20
254.6664580583648
 30
0.0
  0
POINT
  5
826
330
73C
100
AcDbEntity
  8
Defpoints
  6
Continuous
 62
     0
440
 16777216
100
AcDbPoint
 10
88.70300411808583
 20
254.6664580583648
 30
0.0
  0
ENDBLK
  5
73E
330
73C
100
AcDbEntity
  8
0
100
AcDbBlockEnd
  0
BLOCK
  5
829
330
828
100
AcDbEntity
  8
0
100
AcDbBlockBegin
  2
*D23
 70
     1
 10
0.0
 20
0.0
 30
0.0
  3
*D23
  1

  0
LINE
  5
900
330
828
100
AcDbEntity
  8
Bemaßungen(DIN)
  6
Continuous
 62
   250
420
  4144959
440
 16777216
370
    25
100
AcDbLine
 10
142.8036769043101
 20
221.9664580583549
 30
0.0
 11
142.8036769043101
 21
170.1164580583576
 31
0.0
  0
LINE
  5
901
330
828
100
AcDbEntity
  8
Bemaßungen(DIN)
  6
Continuous
 62
   250
420
  4144959
440
 16777216
370
    25
100
AcDbLine
 10
294.189675603227
 20
238.3453537330073
 30
0.0
 11
294.189675603227
 21
170.1164580583576
 31
0.0
  0
LINE
  5
902
330
828
100
AcDbEntity
  8
Bemaßungen(DIN)
  6
Continuous
 62
   250
420
  4144959
440
 16777216
370
    25
100
AcDbLine
 10
147.8036769043101
 20
176.4664580583575
 30
0.0
 11
289.189675603227
 21
176.4664580583575
 31
0.0
  0
SOLID
  5
903
330
828
100
AcDbEntity
  8
Bemaßungen(DIN)
  6
Continuous
 62
   250
420
  4144959
440
 16777216
100
AcDbTrace
 10
147.8036769043101
 20
177.2997913916909
 30
0.0
 11
147.8036769043101
 21
175.6331247250241
 31
0.0
 12
142.8036769043101
 22
176.4664580583575
 32
0.0
 13
142.8036769043101
 23
176.4664580583575
 33
0.0
  0
SOLID
  5
904
330
828
100
AcDbEntity
  8
Bemaßungen(DIN)
  6
Continuous
 62
   250
420
  4144959
440
 16777216
100
AcDbTrace
 10
289.189675603227
 20
177.2997913916909
 30
0.0
 11
289.189675603227
 21
175.6331247250241
 31
0.0
 12
294.189675603227
 22
176.4664580583575
 32
0.0
 13
294.189675603227
 23
176.4664580583575
 33
0.0
  0
MTEXT
  5
905
330
828
100
AcDbEntity
  8
Bemaßungen(DIN)
  6
Continuous
 62
   250
420
  4144959
440
 16777216
370
    25
100
AcDbMText
 10
211.788845382411
 20
185.2144799280682
 30
0.0
 40
7.0
 41
0.0
 46
0.0
 71
     1
 72
     1
  1
\A1;151
  7
STANDARD-DIN~0
 73
     1
 44
1.0
  0
POINT
  5
906
330
828
100
AcDbEntity
  8
Defpoints
  6
Continuous
 62
     0
440
 16777216
100
AcDbPoint
 10
142.8036769043101
 20
221.9664580583549
 30
0.0
  0
POINT
  5
907
330
828
100
AcDbEntity
  8
Defpoints
  6
Continuous
 62
     0
440
 16777216
100
AcDbPoint
 10
294.189675603227
 20
238.3453537330073
 30
0.0
  0
POINT
  5
908
330
828
100
AcDbEntity
  8
Defpoints
  6
Continuous
 62
     0
440
 16777216
100
AcDbPoint
 10
294.189675603227
 20
176.4664580583575
 30
0.0
  0
ENDBLK
  5
82A
330
828
100
AcDbEntity
  8
0
100
AcDbBlockEnd
  0
BLOCK
  5
90B
330
90A
100
AcDbEntity
  8
0
100
AcDbBlockBegin
  2
*D24
 70
     1
 10
0.0
 20
0.0
 30
0.0
  3
*D24
  1

  0
LINE
  5
9E9
330
90A
100
AcDbEntity
  8
Bemaßungen(DIN)
  6
Continuous
 62
   250
420
  4144959
440
 16777216
370
    25
100
AcDbLine
 10
166.5536769043101
 20
254.6664580583648
 30
0.0
 11
252.0069912425645
 21
254.6664580583648
 31
0.0
  0
LINE
  5
9EA
330
90A
100
AcDbEntity
  8
Bemaßungen(DIN)
  6
Continuous
 62
   250
420
  4144959
440
 16777216
370
    25
100
AcDbLine
 10
289.1287455518634
 20
241.0647119845042
 30
0.0
 11
239.3069912425644
 21
241.0647119845042
 31
0.0
  0
LINE
  5
9EB
330
90A
100
AcDbEntity
  8
Bemaßungen(DIN)
  6
Continuous
 62
   250
420
  4144959
440
 16777216
370
    25
100
AcDbLine
 10
245.6569912425645
 20
249.6664580583647
 30
0.0
 11
245.6569912425645
 21
246.0647119845042
 31
0.0
  0
SOLID
  5
9EC
330
90A
100
AcDbEntity
  8
Bemaßungen(DIN)
  6
Continuous
 62
   250
420
  4144959
440
 16777216
100
AcDbTrace
 10
244.8236579092311
 20
259.6664580583647
 30
0.0
 11
246.4903245758979
 21
259.6664580583647
 31
0.0
 12
245.6569912425645
 22
254.6664580583648
 32
0.0
 13
245.6569912425645
 23
254.6664580583648
 33
0.0
  0
LINE
  5
9ED
330
90A
100
AcDbEntity
  8
Bemaßungen(DIN)
  6
Continuous
 62
   250
420
  4144959
440
 16777216
370
    25
100
AcDbLine
 10
245.6569912425645
 20
259.6664580583647
 30
0.0
 11
245.6569912425645
 21
264.6664580583648
 31
0.0
  0
LINE
  5
9EE
330
90A
100
AcDbEntity
  8
Bemaßungen(DIN)
  6
Continuous
 62
   250
420
  4144959
440
 16777216
370
    25
100
AcDbLine
 10
245.6569912425645
 20
254.6664580583648
 30
0.0
 11
245.6569912425645
 21
249.6664580583647
 31
0.0
  0
SOLID
  5
9EF
330
90A
100
AcDbEntity
  8
Bemaßungen(DIN)
  6
Continuous
 62
   250
420
  4144959
440
 16777216
100
AcDbTrace
 10
244.8236579092311
 20
236.0647119845042
 30
0.0
 11
246.4903245758979
 21
236.0647119845042
 31
0.0
 12
245.6569912425645
 22
241.0647119845042
 32
0.0
 13
245.6569912425645
 23
241.0647119845042
 33
0.0
  0
LINE
  5
9F0
330
90A
100
AcDbEntity
  8
Bemaßungen(DIN)
  6
Continuous
 62
   250
420
  4144959
440
 16777216
370
    25
100
AcDbLine
 10
245.6569912425645
 20
236.0647119845042
 30
0.0
 11
245.6569912425645
 21
231.0647119845042
 31
0.0
  0
LINE
  5
9F1
330
90A
100
AcDbEntity
  8
Bemaßungen(DIN)
  6
Continuous
 62
   250
420
  4144959
440
 16777216
370
    25
100
AcDbLine
 10
245.6569912425645
 20
241.0647119845042
 30
0.0
 11
245.6569912425645
 21
246.0647119845042
 31
0.0
  0
MTEXT
  5
9F2
330
90A
100
AcDbEntity
  8
Bemaßungen(DIN)
  6
Continuous
 62
   250
420
  4144959
440
 16777216
370
    25
100
AcDbMText
 10
237.0283418155677
 20
243.1957350624652
 30
0.0
 40
7.0
 41
0.0
 46
0.0
 71
     1
 72
     1
  1
\A1;14
  7
STANDARD-DIN~0
 11
0.0000000000000001
 21
1.0
 31
0.0
 73
     1
 44
1.0
  0
POINT
  5
9F3
330
90A
100
AcDbEntity
  8
Defpoints
  6
Continuous
 62
     0
440
 16777216
100
AcDbPoint
 10
166.5536769043101
 20
254.6664580583648
 30
0.0
  0
POINT
  5
9F4
330
90A
100
AcDbEntity
  8
Defpoints
  6
Continuous
 62
     0
440
 16777216
100
AcDbPoint
 10
289.1287455518634
 20
241.0647119845042
 30
0.0
  0
POINT
  5
9F5
330
90A
100
AcDbEntity
  8
Defpoints
  6
Continuous
 62
     0
440
 16777216
100
AcDbPoint
 10
245.6569912425645
 20
241.0647119845042
 30
0.0
  0
ENDBLK
  5
90C
330
90A
100
AcDbEntity
  8
0
100
AcDbBlockEnd
  0
BLOCK
  5
9FB
330
9FA
100
AcDbEntity
  8
0
100
AcDbBlockBegin
  2
*D25
 70
     1
 10
0.0
 20
0.0
 30
0.0
  3
*D25
  1

  0
LINE
  5
AD2
330
9FA
100
AcDbEntity
  8
Bemaßungen(DIN)
  6
Continuous
 62
   250
420
  4144959
440
 16777216
370
    25
100
AcDbLine
 10
293.6748446437416
 20
440.5111813398026
 30
0.0
 11
324.4663184401712
 21
440.5111813398026
 31
0.0
  0
LINE
  5
AD3
330
9FA
100
AcDbEntity
  8
Bemaßungen(DIN)
  6
Continuous
 62
   250
420
  4144959
440
 16777216
370
    25
100
AcDbLine
 10
293.6748446437416
 20
420.5111813398024
 30
0.0
 11
324.4663184401712
 21
420.5111813398024
 31
0.0
  0
LINE
  5
AD4
330
9FA
100
AcDbEntity
  8
Bemaßungen(DIN)
  6
Continuous
 62
   250
420
  4144959
440
 16777216
370
    25
100
AcDbLine
 10
318.1163184401712
 20
435.5111813398026
 30
0.0
 11
318.1163184401712
 21
425.5111813398024
 31
0.0
  0
SOLID
  5
AD5
330
9FA
100
AcDbEntity
  8
Bemaßungen(DIN)
  6
Continuous
 62
   250
420
  4144959
440
 16777216
100
AcDbTrace
 10
317.2829851068379
 20
435.5111813398026
 30
0.0
 11
318.9496517735045
 21
435.5111813398026
 31
0.0
 12
318.1163184401712
 22
440.5111813398026
 32
0.0
 13
318.1163184401712
 23
440.5111813398026
 33
0.0
  0
SOLID
  5
AD6
330
9FA
100
AcDbEntity
  8
Bemaßungen(DIN)
  6
Continuous
 62
   250
420
  4144959
440
 16777216
100
AcDbTrace
 10
317.2829851068379
 20
425.5111813398024
 30
0.0
 11
318.9496517735045
 21
425.5111813398024
 31
0.0
 12
318.1163184401712
 22
420.5111813398024
 32
0.0
 13
318.1163184401712
 23
420.5111813398024
 33
0.0
  0
MTEXT
  5
AD7
330
9FA
100
AcDbEntity
  8
Bemaßungen(DIN)
  6
Continuous
 62
   250
420
  4144959
440
 16777216
370
    25
100
AcDbMText
 10
309.3682965704604
 20
425.4697897687313
 30
0.0
 40
7.0
 41
0.0
 46
0.0
 71
     1
 72
     1
  1
\A1;20
  7
STANDARD-DIN~0
 11
0.0000000000000001
 21
1.0
 31
0.0
 73
     1
 44
1.0
  0
POINT
  5
AD8
330
9FA
100
AcDbEntity
  8
Defpoints
  6
Continuous
 62
     0
440
 16777216
100
AcDbPoint
 10
293.6748446437416
 20
440.5111813398026
 30
0.0
  0
POINT
  5
AD9
330
9FA
100
AcDbEntity
  8
Defpoints
  6
Continuous
 62
     0
440
 16777216
100
AcDbPoint
 10
293.6748446437416
 20
420.5111813398024
 30
0.0
  0
POINT
  5
ADA
330
9FA
100
AcDbEntity
  8
Defpoints
  6
Continuous
 62
     0
440
 16777216
100
AcDbPoint
 10
318.1163184401712
 20
420.5111813398024
 30
0.0
  0
ENDBLK
  5
9FC
330
9FA
100
AcDbEntity
  8
0
100
AcDbBlockEnd
  0
BLOCK
  5
ADD
330
ADC
100
AcDbEntity
  8
0
100
AcDbBlockBegin
  2
*D26
 70
     1
 10
0.0
 20
0.0
 30
0.0
  3
*D26
  1

  0
LINE
  5
BB4
330
ADC
100
AcDbEntity
  8
Bemaßungen(DIN)
  6
Continuous
 62
   250
420
  4144959
440
 16777216
370
    25
100
AcDbLine
 10
262.3636192192215
 20
200.4664580583576
 30
0.0
 11
324.4663184401712
 21
200.4664580583576
 31
0.0
  0
LINE
  5
BB5
330
ADC
100
AcDbEntity
  8
Bemaßungen(DIN)
  6
Continuous
 62
   250
420
  4144959
440
 16777216
370
    25
100
AcDbLine
 10
289.1287455518634
 20
241.0647119845042
 30
0.0
 11
324.4663184401712
 21
241.0647119845042
 31
0.0
  0
LINE
  5
BB6
330
ADC
100
AcDbEntity
  8
Bemaßungen(DIN)
  6
Continuous
 62
   250
420
  4144959
440
 16777216
370
    25
100
AcDbLine
 10
318.1163184401711
 20
205.4664580583576
 30
0.0
 11
318.1163184401711
 21
236.0647119845042
 31
0.0
  0
SOLID
  5
BB7
330
ADC
100
AcDbEntity
  8
Bemaßungen(DIN)
  6
Continuous
 62
   250
420
  4144959
440
 16777216
100
AcDbTrace
 10
317.2829851068379
 20
205.4664580583576
 30
0.0
 11
318.9496517735045
 21
205.4664580583576
 31
0.0
 12
318.1163184401711
 22
200.4664580583576
 32
0.0
 13
318.1163184401711
 23
200.4664580583576
 33
0.0
  0
SOLID
  5
BB8
330
ADC
100
AcDbEntity
  8
Bemaßungen(DIN)
  6
Continuous
 62
   250
420
  4144959
440
 16777216
100
AcDbTrace
 10
317.2829851068379
 20
236.0647119845042
 30
0.0
 11
318.9496517735045
 21
236.0647119845042
 31
0.0
 12
318.1163184401711
 22
241.0647119845042
 32
0.0
 13
318.1163184401711
 23
241.0647119845042
 33
0.0
  0
MTEXT
  5
BB9
330
ADC
100
AcDbEntity
  8
Bemaßungen(DIN)
  6
Continuous
 62
   250
420
  4144959
440
 16777216
370
    25
100
AcDbMText
 10
309.3682965704604
 20
211.5357077507892
 30
0.0
 40
7.0
 41
0.0
 46
0.0
 71
     1
 72
     1
  1
\A1;40.6
  7
STANDARD-DIN~0
 11
0.0000000000000001
 21
1.0
 31
0.0
 73
     1
 44
1.0
  0
POINT
  5
BBA
330
ADC
100
AcDbEntity
  8
Defpoints
  6
Continuous
 62
     0
440
 16777216
100
AcDbPoint
 10
262.3636192192215
 20
200.4664580583576
 30
0.0
  0
POINT
  5
BBB
330
ADC
100
AcDbEntity
  8
Defpoints
  6
Continuous
 62
     0
440
 16777216
100
AcDbPoint
 10
289.1287455518634
 20
241.0647119845042
 30
0.0
  0
POINT
  5
BBC
330
ADC
100
AcDbEntity
  8
Defpoints
  6
Continuous
 62
     0
440
 16777216
100
AcDbPoint
 10
318.1163184401711
 20
241.0647119845042
 30
0.0
  0
ENDBLK
  5
ADE
330
ADC
100
AcDbEntity
  8
0
100
AcDbBlockEnd
  0
BLOCK
  5
BBF
330
BBE
100
AcDbEntity
  8
0
100
AcDbBlockBegin
  2
*D27
 70
     1
 10
0.0
 20
0.0
 30
0.0
  3
*D27
  1

  0
LINE
  5
C96
330
BBE
100
AcDbEntity
  8
Bemaßungen(DIN)
  6
Continuous
 62
   250
420
  4144959
440
 16777216
370
    25
100
AcDbLine
 10
152.8036769043102
 20
221.4664580583577
 30
0.0
 11
106.3530041180858
 21
221.4664580583577
 31
0.0
  0
LINE
  5
C97
330
BBE
100
AcDbEntity
  8
Bemaßungen(DIN)
  6
Continuous
 62
   250
420
  4144959
440
 16777216
370
    25
100
AcDbLine
 10
139.0536769043102
 20
254.6664580583648
 30
0.0
 11
106.3530041180858
 21
254.6664580583648
 31
0.0
  0
LINE
  5
C98
330
BBE
100
AcDbEntity
  8
Bemaßungen(DIN)
  6
Continuous
 62
   250
420
  4144959
440
 16777216
370
    25
100
AcDbLine
 10
112.7030041180858
 20
226.4664580583577
 30
0.0
 11
112.7030041180858
 21
249.6664580583648
 31
0.0
  0
SOLID
  5
C99
330
BBE
100
AcDbEntity
  8
Bemaßungen(DIN)
  6
Continuous
 62
   250
420
  4144959
440
 16777216
100
AcDbTrace
 10
111.8696707847525
 20
226.4664580583577
 30
0.0
 11
113.5363374514191
 21
226.4664580583577
 31
0.0
 12
112.7030041180858
 22
221.4664580583577
 32
0.0
 13
112.7030041180858
 23
221.4664580583577
 33
0.0
  0
SOLID
  5
C9A
330
BBE
100
AcDbEntity
  8
Bemaßungen(DIN)
  6
Continuous
 62
   250
420
  4144959
440
 16777216
100
AcDbTrace
 10
111.8696707847525
 20
249.6664580583648
 30
0.0
 11
113.5363374514191
 21
249.6664580583648
 31
0.0
 12
112.7030041180858
 22
254.6664580583648
 32
0.0
 13
112.7030041180858
 23
254.6664580583648
 33
0.0
  0
MTEXT
  5
C9B
330
BBE
100
AcDbEntity
  8
Bemaßungen(DIN)
  6
Continuous
 62
   250
420
  4144959
440
 16777216
370
    25
100
AcDbMText
 10
103.9502073506666
 20
233.0552029132301
 30
0.0
 40
7.0
 41
0.0
 46
0.0
 71
     1
 72
     1
  1
\A1;33
  7
STANDARD-DIN~0
 11
0.0000000000000001
 21
1.0
 31
0.0
 73
     1
 44
1.0
  0
POINT
  5
C9C
330
BBE
100
AcDbEntity
  8
Defpoints
  6
Continuous
 62
     0
440
 16777216
100
AcDbPoint
 10
152.8036769043102
 20
221.4664580583577
 30
0.0
  0
POINT
  5
C9D
330
BBE
100
AcDbEntity
  8
Defpoints
  6
Continuous
 62
     0
440
 16777216
100
AcDbPoint
 10
139.0536769043102
 20
254.6664580583648
 30
0.0
  0
POINT
  5
C9E
330
BBE
100
AcDbEntity
  8
Defpoints
  6
Continuous
 62
     0
440
 16777216
100
AcDbPoint
 10
112.7030041180858
 20
254.6664580583648
 30
0.0
  0
ENDBLK
  5
BC0
330
BBE
100
AcDbEntity
  8
0
100
AcDbBlockEnd
  0
ENDSEC
  0
SECTION
  2
ENTITIES
  0
CIRCLE
  5
199
330
6C
100
AcDbEntity
  8
Verdeckte Kanten(DIN)
100
AcDbCircle
 10
152.8036769043582
 20
405.5111813398026
 30
0.0
 40
3.649999999999991
  0
CIRCLE
  5
19A
330
6C
100
AcDbEntity
  8
Verdeckte Kanten(DIN)
100
AcDbCircle
 10
152.8036769043582
 20
455.5111813398024
 30
0.0
 40
3.649999999999991
  0
SPLINE
  5
19B
330
6C
100
AcDbEntity
  8
Verdeckte Kanten(DIN)
100
AcDbSpline
210
0.0
220
0.0
230
1.0
 70
     8
 71
     3
 72
    28
 73
    24
 74
     0
 42
0.0000000001
 43
0.0000000001
 40
-0.0000012116983804
 40
-0.0000012116983804
 40
-0.0000012116983804
 40
-0.0000012116983804
 40
0.0
 40
0.0
 40
0.0000012046688544
 40
0.0000012046688544
 40
0.0000036080647843
 40
0.0000036080647843
 40
0.0000084083573401
 40
0.0000084083573401
 40
0.0000180183886636
 40
0.0000180183886636
 40
0.0000373485416214
 40
0.0000373485416214
 40
0.0000766069530918
 40
0.0000766069530918
 40
0.0001579564043796
 40
0.0001579564043796
 40
0.0003340619219223
 40
0.0003340619219223
 40
0.0006995203427395
 40
0.0006995203427395
 40
0.0011970552950088
 40
0.0011970552950088
 40
0.0011970552950088
 40
0.0011970552950088
 10
167.614781128781
 20
440.511181339838
 30
0.0
 10
167.6147810465296
 20
440.5111813459155
 30
0.0
 10
167.6147809174081
 20
440.5111815377193
 30
0.0
 10
167.6147807068159
 20
440.5111819309123
 30
0.0
 10
167.6147805995846
 20
440.5111821796024
 30
0.0
 10
167.614780284363
 20
440.5111830127126
 30
0.0
 10
167.6147800700349
 20
440.5111837166886
 30
0.0
 10
167.6147794398406
 20
440.5111860764392
 30
0.0
 10
167.6147790117024
 20
440.5111880709235
 30
0.0
 10
167.61477775235
 20
440.5111947640011
 30
0.0
 10
167.6147768981587
 20
440.5112004242043
 30
0.0
 10
167.6147743836541
 20
440.5112194616615
 30
0.0
 10
167.6147726837843
 20
440.5112355793846
 30
0.0
 10
167.614767671893
 20
440.5112900427233
 30
0.0
 10
167.6147643075776
 20
440.5113362584208
 30
0.0
 10
167.6147543550691
 20
440.5114939717427
 30
0.0
 10
167.6147477801227
 20
440.5116284287585
 30
0.0
 10
167.614728184831
 20
440.5120975335296
 30
0.0
 10
167.6147157634303
 20
440.5125014030534
 30
0.0
 10
167.614681710796
 20
440.5138482793083
 30
0.0
 10
167.6146598255832
 20
440.5150903964297
 30
0.0
 10
167.6146184644551
 20
440.5188280063163
 30
0.0
 10
167.6146035658257
 20
440.5215375095426
 30
0.0
 10
167.6146035658257
 20
440.5247452465636
 30
0.0
  0
ARC
  5
19C
330
6C
100
AcDbEntity
  8
Sichtbare Kanten(DIN)
100
AcDbCircle
 10
152.8036769043582
 20
430.5111813398026
 30
0.0
 40
10.41749773270517
100
AcDbArc
 50
73.72413122699772
 51
286.2758687730019
  0
SPLINE
  5
19D
330
6C
100
AcDbEntity
  8
Verdeckte Kanten(DIN)
100
AcDbSpline
210
0.0
220
0.0
230
1.0
 70
     8
 71
     3
 72
    28
 73
    24
 74
     0
 42
0.0000000001
 43
0.0000000001
 40
0.0
 40
0.0
 40
0.0
 40
0.0
 40
0.0009623211026792
 40
0.0009623211026792
 40
0.0016691827005179
 40
0.0016691827005179
 40
0.0020098020960183
 40
0.0020098020960183
 40
0.0021671464056915
 40
0.0021671464056915
 40
0.0022430791580098
 40
0.0022430791580098
 40
0.0022804670940853
 40
0.0022804670940853
 40
0.0022990546224918
 40
0.0022990546224918
 40
0.0023083392250539
 40
0.0023083392250539
 40
0.0023129878222456
 40
0.0023129878222456
 40
0.0023153180112852
 40
0.0023153180112852
 40
0.0023176605141888
 40
0.0023176605141888
 40
0.0023176605141888
 40
0.0023176605141888
 10
167.6146035658256
 20
420.4976174330414
 30
0.0
 10
167.6146035658256
 20
420.5008251700503
 30
0.0
 10
167.614618464455
 20
420.5035346732634
 30
0.0
 10
167.6146598255827
 20
420.5072722831358
 30
0.0
 10
167.6146817107955
 20
420.5085144002705
 30
0.0
 10
167.6147157634301
 20
420.5098612765464
 30
0.0
 10
167.6147281848309
 20
420.5102651460738
 30
0.0
 10
167.6147477801228
 20
420.5107342508495
 30
0.0
 10
167.6147543550692
 20
420.5108687078642
 30
0.0
 10
167.6147643075776
 20
420.5110264211862
 30
0.0
 10
167.6147676718931
 20
420.511072636883
 30
0.0
 10
167.6147726837836
 20
420.5111271002117
 30
0.0
 10
167.6147743836538
 20
420.5111432179422
 30
0.0
 10
167.6147768981599
 20
420.5111622554118
 30
0.0
 10
167.6147777523505
 20
420.5111679156061
 30
0.0
 10
167.614779011701
 20
420.5111746086734
 30
0.0
 10
167.61477943984
 20
420.5111766031639
 30
0.0
 10
167.6147800700355
 20
420.511178962919
 30
0.0
 10
167.614780284363
 20
420.5111796668928
 30
0.0
 10
167.6147805995908
 20
420.5111805000194
 30
0.0
 10
167.6147807068183
 20
420.5111807486956
 30
0.0
 10
167.6147809173489
 20
420.5111811417721
 30
0.0
 10
167.6147810452786
 20
420.5111813314058
 30
0.0
 10
167.6147811286018
 20
420.5111813397683
 30
0.0
  0
ARC
  5
19E
330
6C
100
AcDbEntity
  8
Sichtbare Kanten(DIN)
100
AcDbCircle
 10
152.8036769043582
 20
430.5111813398026
 30
0.0
 40
10.39999999999998
100
AcDbArc
 50
74.05763139437091
 51
285.9423686056283
  0
ARC
  5
19F
330
6C
100
AcDbEntity
  8
Sichtbare Kanten(DIN)
100
AcDbCircle
 10
152.8036769043582
 20
430.5111813398026
 30
0.0
 40
10.60000000000002
100
AcDbArc
 50
70.62996175445919
 51
289.3700382455405
  0
ELLIPSE
  5
1A0
330
6C
100
AcDbEntity
  8
Sichtbare Kanten(DIN)
100
AcDbEllipse
 10
149.8036769043582
 20
394.5460914696591
 30
0.0
 11
-0.5000000000000011
 21
-0.0000000000000001
 31
0.0
210
0.0
220
0.0
230
1.0
 40
0.0174550649282182
 41
4.712388980384688
 42
6.283185307182384
  0
ELLIPSE
  5
1A1
330
6C
100
AcDbEntity
  8
Sichtbare Kanten(DIN)
100
AcDbEllipse
 10
155.8036769043582
 20
394.5460914696591
 30
0.0
 11
-0.5000000000000011
 21
-0.0000000000000001
 31
0.0
210
0.0
220
0.0
230
1.0
 40
0.0174550649282182
 41
3.141592653593502
 42
4.712388980384688
  0
SPLINE
  5
1A2
330
6C
100
AcDbEntity
  8
Sichtbare Kanten(DIN)
100
AcDbSpline
210
0.0
220
0.0
230
1.0
 70
     8
 71
     3
 72
    10
 73
     6
 74
     0
 42
0.0000000001
 43
0.0000000001
 40
0.0
 40
0.0
 40
0.0
 40
0.0
 40
0.034915029078072
 40
0.0674433076069179
 40
0.094627574724925
 40
0.094627574724925
 40
0.094627574724925
 40
0.094627574724925
 10
149.6261322642665
 20
406.8231852746141
 30
0.0
 10
149.7420031382919
 20
406.8287535387894
 30
0.0
 10
149.9658240889232
 20
406.8395094271144
 30
0.0
 10
150.2876759679807
 20
406.7964076828486
 30
0.0
 10
150.4536346022115
 20
406.6823682182866
 30
0.0
 10
150.5291876337328
 20
406.6304515024093
 30
0.0
  0
SPLINE
  5
1A3
330
6C
100
AcDbEntity
  8
Sichtbare Kanten(DIN)
100
AcDbSpline
210
0.0
220
0.0
230
1.0
 70
     8
 71
     3
 72
    10
 73
     6
 74
     0
 42
0.0000000001
 43
0.0000000001
 40
0.0
 40
0.0
 40
0.0
 40
0.0
 40
0.0708600141301913
 40
0.1318509818166345
 40
0.1988928138571396
 40
0.1988928138571396
 40
0.1988928138571396
 40
0.1988928138571396
 10
148.2360996942792
 20
405.6260049057295
 30
0.0
 10
148.304927098957
 20
405.8556296199403
 30
0.0
 10
148.4329959540662
 20
406.2828980080393
 30
0.0
 10
148.9686021860633
 20
406.7468345013042
 30
0.0
 10
149.4001571045798
 20
406.796945595605
 30
0.0
 10
149.6261322642665
 20
406.8231852746141
 30
0.0
  0
SPLINE
  5
1A4
330
6C
100
AcDbEntity
  8
Sichtbare Kanten(DIN)
100
AcDbSpline
210
0.0
220
0.0
230
1.0
 70
     8
 71
     3
 72
    13
 73
     9
 74
     0
 42
0.0000000001
 43
0.0000000001
 40
0.0
 40
0.0
 40
0.0
 40
0.0
 40
0.0186749164535756
 40
0.0389339547339232
 40
0.0619956196745452
 40
0.0740314537115047
 40
0.0845940360920349
 40
0.0958450056458659
 40
0.0958450056458659
 40
0.0958450056458659
 40
0.0958450056458659
 10
148.3982508303469
 20
404.7095741252935
 30
0.0
 10
148.3626135934081
 20
404.7609846773155
 30
0.0
 10
148.2883161488511
 20
404.8681667421051
 30
0.0
 10
148.226148942345
 20
405.0681910784073
 30
0.0
 10
148.205666642612
 20
405.2523361468066
 30
0.0
 10
148.2087811263162
 20
405.4046649952345
 30
0.0
 10
148.2184919684907
 20
405.5171716541466
 30
0.0
 10
148.230108257602
 20
405.5889718701709
 30
0.0
 10
148.2360996942792
 20
405.6260049057295
 30
0.0
  0
SPLINE
  5
1A5
330
6C
100
AcDbEntity
  8
Sichtbare Kanten(DIN)
100
AcDbSpline
210
0.0
220
0.0
230
1.0
 70
     8
 71
     3
 72
    10
 73
     6
 74
     0
 42
0.0000000001
 43
0.0000000001
 40
0.0
 40
0.0
 40
0.0
 40
0.0
 40
0.0343803142273139
 40
0.0623204199319017
 40
0.0875627097703428
 40
0.0875627097703428
 40
0.0875627097703428
 40
0.0875627097703428
 10
149.1836399970138
 20
404.381829789356
 30
0.0
 10
149.0692513145689
 20
404.3918414993846
 30
0.0
 10
148.8619015306696
 20
404.4099895002755
 30
0.0
 10
148.5837381556751
 20
404.5224126713144
 30
0.0
 10
148.4579530121857
 20
404.6493330972937
 30
0.0
 10
148.3982508303469
 20
404.7095741252935
 30
0.0
  0
SPLINE
  5
1A6
330
6C
100
AcDbEntity
  8
Sichtbare Kanten(DIN)
100
AcDbSpline
210
0.0
220
0.0
230
1.0
 70
     8
 71
     3
 72
    10
 73
     6
 74
     0
 42
0.0000000001
 43
0.0000000001
 40
0.0
 40
0.0
 40
0.0
 40
0.0
 40
0.0253636577144425
 40
0.0591587427094869
 40
0.1036416293921761
 40
0.1036416293921761
 40
0.1036416293921761
 40
0.1036416293921761
 10
150.2112082831468
 20
404.4997391814458
 30
0.0
 10
150.1285964696863
 20
404.4817244810306
 30
0.0
 10
149.9359108928545
 20
404.4397066049477
 30
0.0
 10
149.5929999792537
 20
404.3923070231368
 30
0.0
 10
149.3319732193911
 20
404.385626256807
 30
0.0
 10
149.1836399970138
 20
404.381829789356
 30
0.0
  0
SPLINE
  5
1A7
330
6C
100
AcDbEntity
  8
Sichtbare Kanten(DIN)
100
AcDbSpline
210
0.0
220
0.0
230
1.0
 70
     8
 71
     3
 72
    10
 73
     6
 74
     0
 42
0.0000000001
 43
0.0000000001
 40
0.0
 40
0.0
 40
0.0
 40
0.0
 40
0.0000629610420071
 40
0.0018692616811634
 40
0.004181264246394
 40
0.004181264246394
 40
0.004181264246394
 40
0.004181264246394
 10
150.2520079633226
 20
404.5088868401371
 30
0.0
 10
150.2518026944651
 20
404.5088431336822
 30
0.0
 10
150.2457084304973
 20
404.5075455248968
 30
0.0
 10
150.2321257654158
 20
404.504417057873
 30
0.0
 10
150.2187291187644
 20
404.5014211018221
 30
0.0
 10
150.2112082831468
 20
404.4997391814458
 30
0.0
  0
SPLINE
  5
1A8
330
6C
100
AcDbEntity
  8
Sichtbare Kanten(DIN)
100
AcDbSpline
210
0.0
220
0.0
230
1.0
 70
     8
 71
     3
 72
    10
 73
     6
 74
     0
 42
0.0000000001
 43
0.0000000001
 40
0.0
 40
0.0
 40
0.0
 40
0.0
 40
0.0062279393423902
 40
0.0112592926308837
 40
0.0126740723008075
 40
0.0126740723008075
 40
0.0126740723008075
 40
0.0126740723008075
 10
150.3643988292081
 20
404.5645210670253
 30
0.0
 10
150.3479295969591
 20
404.5516519620725
 30
0.0
 10
150.318155397966
 20
404.5283863182383
 30
0.0
 10
150.277599654715
 20
404.5144298860841
 30
0.0
 10
150.2566138667861
 20
404.5098844582366
 30
0.0
 10
150.2520079633226
 20
404.5088868401371
 30
0.0
  0
SPLINE
  5
1A9
330
6C
100
AcDbEntity
  8
Sichtbare Kanten(DIN)
100
AcDbSpline
210
0.0
220
0.0
230
1.0
 70
     8
 71
     3
 72
    10
 73
     6
 74
     0
 42
0.0000000001
 43
0.0000000001
 40
0.0
 40
0.0
 40
0.0
 40
0.0
 40
0.0014451006219188
 40
0.0058176142222764
 40
0.0109995755152573
 40
0.0109995755152573
 40
0.0109995755152573
 40
0.0109995755152573
 10
150.4100435883226
 20
404.6631249708338
 30
0.0
 10
150.4091922905701
 20
404.6583880768009
 30
0.0
 10
150.4057651784109
 20
404.6393185243585
 30
0.0
 10
150.3945827016537
 20
404.603739528422
 30
0.0
 10
150.3750127698317
 20
404.5783119555657
 30
0.0
 10
150.3643988292081
 20
404.5645210670253
 30
0.0
  0
SPLINE
  5
1AA
330
6C
100
AcDbEntity
  8
Sichtbare Kanten(DIN)
100
AcDbSpline
210
0.0
220
0.0
230
1.0
 70
    24
 71
     3
 72
    10
 73
     6
 74
     0
 42
0.0000000001
 43
0.0000000001
 40
0.0
 40
0.0
 40
0.0
 40
0.0
 40
0.0282805628125026
 40
0.0808016080357856
 40
0.109082170848312
 40
0.109082170848312
 40
0.109082170848312
 40
0.109082170848312
 10
150.5995067523851
 20
405.737366893848
 30
0.0
 10
150.583133392528
 20
405.6445311721061
 30
0.0
 10
150.5363523643647
 20
405.3792862528434
 30
0.0
 10
150.4731979763434
 20
405.0212056118387
 30
0.0
 10
150.4264169481799
 20
404.7559606925758
 30
0.0
 10
150.4100435883226
 20
404.6631249708338
 30
0.0
  0
SPLINE
  5
1AB
330
6C
100
AcDbEntity
  8
Sichtbare Kanten(DIN)
100
AcDbSpline
210
0.0
220
0.0
230
1.0
 70
     8
 71
     3
 72
    10
 73
     6
 74
     0
 42
0.0000000001
 43
0.0000000001
 40
0.0
 40
0.0
 40
0.0
 40
0.0
 40
0.0011974721338967
 40
0.0024275869633848
 40
0.0037663461996527
 40
0.0037663461996527
 40
0.0037663461996527
 40
0.0037663461996527
 10
150.5907706448006
 20
405.7728912371098
 30
0.0
 10
150.5930698883643
 20
405.7695990606866
 30
0.0
 10
150.5977310521132
 20
405.7629249641963
 30
0.0
 10
150.6007783381505
 20
405.7503834895234
 30
0.0
 10
150.5999423989918
 20
405.7418263930738
 30
0.0
 10
150.5995067523851
 20
405.737366893848
 30
0.0
  0
SPLINE
  5
1AC
330
6C
100
AcDbEntity
  8
Sichtbare Kanten(DIN)
100
AcDbSpline
210
0.0
220
0.0
230
1.0
 70
     8
 71
     3
 72
    10
 73
     6
 74
     0
 42
0.0000000001
 43
0.0000000001
 40
0.0
 40
0.0
 40
0.0
 40
0.0
 40
0.0013378531443936
 40
0.0025654958739355
 40
0.0037644824675516
 40
0.0037644824675516
 40
0.0037644824675516
 40
0.0037644824675516
 10
150.5572853502042
 20
405.7875761288742
 30
0.0
 10
150.5617507515371
 20
405.7872429107776
 30
0.0
 10
150.5703137008737
 20
405.7866039246118
 30
0.0
 10
150.5821414754099
 20
405.7814562541897
 30
0.0
 10
150.5879169894077
 20
405.7757236774147
 30
0.0
 10
150.5907706448006
 20
405.7728912371098
 30
0.0
  0
LINE
  5
1AD
330
6C
100
AcDbEntity
  8
Sichtbare Kanten(DIN)
100
AcDbLine
 10
149.5511177216232
 20
405.7875761288742
 30
0.0
 11
150.5572853502042
 21
405.7875761288742
 31
0.0
  0
SPLINE
  5
1AE
330
6C
100
AcDbEntity
  8
Sichtbare Kanten(DIN)
100
AcDbSpline
210
0.0
220
0.0
230
1.0
 70
     8
 71
     3
 72
    10
 73
     6
 74
     0
 42
0.0000000001
 43
0.0000000001
 40
0.0
 40
0.0
 40
0.0
 40
0.0
 40
0.0028871717756039
 40
0.0058375627860821
 40
0.0087027008604815
 40
0.0087027008604815
 40
0.0087027008604815
 40
0.0087027008604815
 10
149.4894598830816
 20
405.7348414666019
 30
0.0
 10
149.4924867769645
 20
405.7440996374851
 30
0.0
 10
149.498606843404
 20
405.762818701682
 30
0.0
 10
149.5221920917822
 20
405.7829741419421
 30
0.0
 10
149.5415705379951
 20
405.7860571986196
 30
0.0
 10
149.5511177216232
 20
405.7875761288742
 30
0.0
  0
SPLINE
  5
1AF
330
6C
100
AcDbEntity
  8
Sichtbare Kanten(DIN)
100
AcDbSpline
210
0.0
220
0.0
230
1.0
 70
    24
 71
     3
 72
    10
 73
     6
 74
     0
 42
0.0000000001
 43
0.0000000001
 40
0.0
 40
0.0
 40
0.0
 40
0.0
 40
0.0076308504769846
 40
0.0218024299342602
 40
0.0294332804112467
 40
0.0294332804112467
 40
0.0294332804112467
 40
0.0294332804112467
 10
149.432927726506
 20
405.4459887102543
 30
0.0
 10
149.4378132215187
 20
405.4709512941363
 30
0.0
 10
149.4517717786979
 20
405.5422729623702
 30
0.0
 10
149.4706158308898
 20
405.6385572144861
 30
0.0
 10
149.4845743880689
 20
405.70987888272
 30
0.0
 10
149.4894598830816
 20
405.7348414666019
 30
0.0
  0
SPLINE
  5
1B0
330
6C
100
AcDbEntity
  8
Sichtbare Kanten(DIN)
100
AcDbSpline
210
0.0
220
0.0
230
1.0
 70
     8
 71
     3
 72
    10
 73
     6
 74
     0
 42
0.0000000001
 43
0.0000000001
 40
0.0
 40
0.0
 40
0.0
 40
0.0
 40
0.0012086141722107
 40
0.0024446859839349
 40
0.0037855685811105
 40
0.0037855685811105
 40
0.0037855685811105
 40
0.0037855685811105
 10
149.4421315058029
 20
405.4103708326502
 30
0.0
 10
149.4397860543247
 20
405.4136754296153
 30
0.0
 10
149.4350418667365
 20
405.4203596983166
 30
0.0
 10
149.4318325039605
 20
405.4329220700997
 30
0.0
 10
149.4325528857842
 20
405.44151664305
 30
0.0
 10
149.432927726506
 20
405.4459887102543
 30
0.0
  0
SPLINE
  5
1B1
330
6C
100
AcDbEntity
  8
Sichtbare Kanten(DIN)
100
AcDbSpline
210
0.0
220
0.0
230
1.0
 70
     8
 71
     3
 72
    10
 73
     6
 74
     0
 42
0.0000000001
 43
0.0000000001
 40
0.0
 40
0.0
 40
0.0
 40
0.0
 40
0.0013458088946094
 40
0.0025859262922676
 40
0.0037986230102095
 40
0.0037986230102095
 40
0.0037986230102095
 40
0.0037986230102095
 10
149.4759535240321
 20
405.3955924065435
 30
0.0
 10
149.4714617269879
 20
405.3959284808674
 30
0.0
 10
149.4628308908251
 20
405.396574236319
 30
0.0
 10
149.4508934431538
 20
405.4017521846589
 30
0.0
 10
149.4450303030376
 20
405.4075194412325
 30
0.0
 10
149.4421315058029
 20
405.4103708326502
 30
0.0
  0
LINE
  5
1B2
330
6C
100
AcDbEntity
  8
Sichtbare Kanten(DIN)
100
AcDbLine
 10
149.9609477964931
 20
405.3955924065435
 30
0.0
 11
149.4759535240321
 21
405.3955924065435
 31
0.0
  0
SPLINE
  5
1B3
330
6C
100
AcDbEntity
  8
Sichtbare Kanten(DIN)
100
AcDbSpline
210
0.0
220
0.0
230
1.0
 70
    24
 71
     3
 72
    10
 73
     6
 74
     0
 42
0.0000000001
 43
0.0000000001
 40
0.0
 40
0.0
 40
0.0
 40
0.0
 40
0.0124984602829994
 40
0.035709886522863
 40
0.048208346805891
 40
0.048208346805891
 40
0.048208346805891
 40
0.048208346805891
 10
149.8782073171636
 20
404.9206624293299
 30
0.0
 10
149.8853577289576
 20
404.961705760694
 30
0.0
 10
149.9057874769403
 20
405.0789724217342
 30
0.0
 10
149.9333676367165
 20
405.2372824141388
 30
0.0
 10
149.9537973846991
 20
405.3545490751791
 30
0.0
 10
149.9609477964931
 20
405.3955924065435
 30
0.0
  0
SPLINE
  5
1B4
330
6C
100
AcDbEntity
  8
Sichtbare Kanten(DIN)
100
AcDbSpline
210
0.0
220
0.0
230
1.0
 70
     8
 71
     3
 72
    10
 73
     6
 74
     0
 42
0.0000000001
 43
0.0000000001
 40
0.0
 40
0.0
 40
0.0
 40
0.0
 40
0.0001061140021709
 40
0.0008753003865789
 40
0.003340639292118
 40
0.003340639292118
 40
0.003340639292118
 40
0.003340639292118
 10
149.864962854273
 20
404.8906753191412
 30
0.0
 10
149.865284034665
 20
404.8908274100503
 30
0.0
 10
149.867933348757
 20
404.8920819592053
 30
0.0
 10
149.8739012120471
 20
404.9024078415209
 30
0.0
 10
149.8763448151616
 20
404.9127668472623
 30
0.0
 10
149.8782073171636
 20
404.9206624293299
 30
0.0
  0
SPLINE
  5
1B5
330
6C
100
AcDbEntity
  8
Sichtbare Kanten(DIN)
100
AcDbSpline
210
0.0
220
0.0
230
1.0
 70
     8
 71
     3
 72
    10
 73
     6
 74
     0
 42
0.0000000001
 43
0.0000000001
 40
0.0
 40
0.0
 40
0.0
 40
0.0
 40
0.0015313901309447
 40
0.0030664877393728
 40
0.0043748183928794
 40
0.0043748183928794
 40
0.0043748183928794
 40
0.0043748183928794
 10
149.8271375661871
 20
404.8697236264327
 30
0.0
 10
149.8320633479575
 20
404.8711226912344
 30
0.0
 10
149.841926836758
 20
404.8739242079575
 30
0.0
 10
149.8546208993607
 20
404.8814678611791
 30
0.0
 10
149.8617038267368
 20
404.8877738020401
 30
0.0
 10
149.864962854273
 20
404.8906753191412
 30
0.0
  0
SPLINE
  5
1B6
330
6C
100
AcDbEntity
  8
Sichtbare Kanten(DIN)
100
AcDbSpline
210
0.0
220
0.0
230
1.0
 70
     8
 71
     3
 72
    13
 73
     9
 74
     0
 42
0.0000000001
 43
0.0000000001
 40
0.0
 40
0.0
 40
0.0
 40
0.0
 40
0.0141330863714505
 40
0.0294904350099205
 40
0.0479706055027409
 40
0.0625618731963489
 40
0.076342669509337
 40
0.0889650430344752
 40
0.0889650430344752
 40
0.0889650430344752
 40
0.0889650430344752
 10
148.9903980455163
 20
405.0235876197596
 30
0.0
 10
149.0240814525424
 20
404.9901025085306
 30
0.0
 10
149.0943660527854
 20
404.9202316770265
 30
0.0
 10
149.2454309250059
 20
404.857892208014
 30
0.0
 10
149.4059963143014
 20
404.8336693755538
 30
0.0
 10
149.5624519846401
 20
404.8373508822396
 30
0.0
 10
149.6987216036033
 20
404.8486362926142
 30
0.0
 10
149.7856028659208
 20
404.8629031652382
 30
0.0
 10
149.8271375661871
 20
404.8697236264327
 30
0.0
  0
SPLINE
  5
1B7
330
6C
100
AcDbEntity
  8
Sichtbare Kanten(DIN)
100
AcDbSpline
210
0.0
220
0.0
230
1.0
 70
     8
 71
     3
 72
    10
 73
     6
 74
     0
 42
0.0000000001
 43
0.0000000001
 40
0.0
 40
0.0
 40
0.0
 40
0.0
 40
0.0257321364147993
 40
0.0459975558651676
 40
0.0631323921590997
 40
0.0631323921590997
 40
0.0631323921590997
 40
0.0631323921590997
 10
148.8852280308679
 20
405.6282310230799
 30
0.0
 10
148.8746639330901
 20
405.5430378676277
 30
0.0
 10
148.8557800491456
 20
405.3907505929112
 30
0.0
 10
148.8897737660119
 20
405.1768685557143
 30
0.0
 10
148.9587820622648
 20
405.0717482379305
 30
0.0
 10
148.9903980455163
 20
405.0235876197596
 30
0.0
  0
SPLINE
  5
1B8
330
6C
100
AcDbEntity
  8
Sichtbare Kanten(DIN)
100
AcDbSpline
210
0.0
220
0.0
230
1.0
 70
     8
 71
     3
 72
    13
 73
     9
 74
     0
 42
0.0000000001
 43
0.0000000001
 40
0.0
 40
0.0
 40
0.0
 40
0.0
 40
0.0126149146707673
 40
0.0254558351656706
 40
0.0436022211516245
 40
0.081588218246103
 40
0.1224783790911752
 40
0.1679868711023057
 40
0.1679868711023057
 40
0.1679868711023057
 40
0.1679868711023057
 10
150.0277126101325
 20
406.1944879322594
 30
0.0
 10
150.0149426618806
 20
406.2357572348706
 30
0.0
 10
149.9891739820077
 20
406.3190352111464
 30
0.0
 10
149.8604455437294
 20
406.4046193852002
 30
0.0
 10
149.6319590362524
 20
406.4425077449304
 30
0.0
 10
149.2953954380535
 20
406.382318571864
 30
0.0
 10
148.9953108511125
 20
406.0577223936869
 30
0.0
 10
148.9232070436855
 20
405.776407261962
 30
0.0
 10
148.8852280308679
 20
405.6282310230799
 30
0.0
  0
SPLINE
  5
1B9
330
6C
100
AcDbEntity
  8
Sichtbare Kanten(DIN)
100
AcDbSpline
210
0.0
220
0.0
230
1.0
 70
     8
 71
     3
 72
    10
 73
     6
 74
     0
 42
0.0000000001
 43
0.0000000001
 40
0.0
 40
0.0
 40
0.0
 40
0.0
 40
0.0001493678640702
 40
0.0017599685334192
 40
0.0036446683607066
 40
0.0036446683607066
 40
0.0036446683607066
 40
0.0036446683607066
 10
150.0328757058356
 20
406.1584210898116
 30
0.0
 10
150.0327453467861
 20
406.1589017642082
 30
0.0
 10
150.0312093549144
 20
406.1645654443982
 30
0.0
 10
150.0301930621629
 20
406.1767460968865
 30
0.0
 10
150.0285815519971
 20
406.1882726846667
 30
0.0
 10
150.0277126101325
 20
406.1944879322594
 30
0.0
  0
SPLINE
  5
1BA
330
6C
100
AcDbEntity
  8
Sichtbare Kanten(DIN)
100
AcDbSpline
210
0.0
220
0.0
230
1.0
 70
     8
 71
     3
 72
    10
 73
     6
 74
     0
 42
0.0000000001
 43
0.0000000001
 40
0.0
 40
0.0
 40
0.0
 40
0.0
 40
0.0020477657296521
 40
0.0040061257373836
 40
0.0064275562272828
 40
0.0064275562272828
 40
0.0064275562272828
 40
0.0064275562272828
 10
150.0754338316494
 20
406.1176027027673
 30
0.0
 10
150.0685114954489
 20
406.1184611349768
 30
0.0
 10
150.0549690531596
 20
406.1201405201322
 30
0.0
 10
150.038433142326
 20
406.1361283821804
 30
0.0
 10
150.0348543132339
 20
406.1504842440512
 30
0.0
 10
150.0328757058356
 20
406.1584210898116
 30
0.0
  0
LINE
  5
1BB
330
6C
100
AcDbEntity
  8
Sichtbare Kanten(DIN)
100
AcDbLine
 10
150.6062038113044
 20
406.1176027027673
 30
0.0
 11
150.0754338316494
 21
406.1176027027673
 31
0.0
  0
SPLINE
  5
1BC
330
6C
100
AcDbEntity
  8
Sichtbare Kanten(DIN)
100
AcDbSpline
210
0.0
220
0.0
230
1.0
 70
     8
 71
     3
 72
    10
 73
     6
 74
     0
 42
0.0000000001
 43
0.0000000001
 40
0.0
 40
0.0
 40
0.0
 40
0.0
 40
0.0031448691298889
 40
0.0055525733140852
 40
0.0078622774006788
 40
0.0078622774006788
 40
0.0078622774006788
 40
0.0078622774006788
 10
150.6568807180427
 20
406.1695516765628
 30
0.0
 10
150.6541602128256
 20
406.1593378759608
 30
0.0
 10
150.6493568954076
 20
406.1413044143713
 30
0.0
 10
150.6299355473838
 20
406.1210086382409
 30
0.0
 10
150.6140040690799
 20
406.118722181535
 30
0.0
 10
150.6062038113044
 20
406.1176027027673
 30
0.0
  0
SPLINE
  5
1BD
330
6C
100
AcDbEntity
  8
Sichtbare Kanten(DIN)
100
AcDbSpline
210
0.0
220
0.0
230
1.0
 70
     8
 71
     3
 72
    10
 73
     6
 74
     0
 42
0.0000000001
 43
0.0000000001
 40
0.0
 40
0.0
 40
0.0
 40
0.0
 40
0.0149600583058819
 40
0.030690024277432
 40
0.0492302198905902
 40
0.0492302198905902
 40
0.0492302198905902
 40
0.0492302198905902
 10
150.5291876337328
 20
406.6304515024093
 30
0.0
 10
150.5596945549215
 20
406.5905524283253
 30
0.0
 10
150.6222784120678
 20
406.5087009056078
 30
0.0
 10
150.6661453357843
 20
406.3458871894781
 30
0.0
 10
150.6601332585352
 20
406.2314579971498
 30
0.0
 10
150.6568807180427
 20
406.1695516765628
 30
0.0
  0
SPLINE
  5
1BE
330
6C
100
AcDbEntity
  8
Sichtbare Kanten(DIN)
100
AcDbSpline
210
0.0
220
0.0
230
1.0
 70
     8
 71
     3
 72
    13
 73
     9
 74
     0
 42
0.0000000001
 43
0.0000000001
 40
0.0
 40
0.0
 40
0.0
 40
0.0
 40
0.0229026576484633
 40
0.0432739635693818
 40
0.0645629699844591
 40
0.0801076089824924
 40
0.0932173039948876
 40
0.1051889127042279
 40
0.1051889127042279
 40
0.1051889127042279
 40
0.1051889127042279
 10
152.6665221861422
 20
404.5892141334315
 30
0.0
 10
152.6080703060545
 20
404.5393055378866
 30
0.0
 10
152.4976270305054
 20
404.4450045716605
 30
0.0
 10
152.292464546786
 20
404.367869939661
 30
0.0
 10
152.1005519005236
 20
404.3506018822909
 30
0.0
 10
151.9346053037008
 20
404.3716839390087
 30
0.0
 10
151.805788039721
 20
404.4229122789628
 30
0.0
 10
151.7456609341449
 20
404.4819952881796
 30
0.0
 10
151.7169615416106
 20
404.5101963209314
 30
0.0
  0
SPLINE
  5
1BF
330
6C
100
AcDbEntity
  8
Sichtbare Kanten(DIN)
100
AcDbSpline
210
0.0
220
0.0
230
1.0
 70
    24
 71
     3
 72
    10
 73
     6
 74
     0
 42
0.0000000001
 43
0.0000000001
 40
0.0
 40
0.0
 40
0.0
 40
0.0
 40
0.0004456250722506
 40
0.0012732144921474
 40
0.0017188395643828
 40
0.0017188395643828
 40
0.0017188395643828
 40
0.0017188395643828
 10
152.6789809605562
 20
404.6010555811854
 30
0.0
 10
152.6779042763476
 20
404.6000322461942
 30
0.0
 10
152.6748280357516
 20
404.5971084319338
 30
0.0
 10
152.6706751109467
 20
404.5931612826827
 30
0.0
 10
152.6675988703507
 20
404.5902374684226
 30
0.0
 10
152.6665221861422
 20
404.5892141334315
 30
0.0
  0
SPLINE
  5
1C0
330
6C
100
AcDbEntity
  8
Sichtbare Kanten(DIN)
100
AcDbSpline
210
0.0
220
0.0
230
1.0
 70
    24
 71
     3
 72
    10
 73
     6
 74
     0
 42
0.0000000001
 43
0.0000000001
 40
0.0
 40
0.0
 40
0.0
 40
0.0
 40
0.000443702760702
 40
0.0012677221734445
 40
0.0017114249341747
 40
0.0017114249341747
 40
0.0017114249341747
 40
0.0017114249341747
 10
152.6774095836031
 20
404.5840136239913
 30
0.0
 10
152.6775453816114
 20
404.5854863857242
 30
0.0
 10
152.6779333759208
 20
404.5896942763893
 30
0.0
 10
152.6784571682382
 20
404.5953749287873
 30
0.0
 10
152.6788451625478
 20
404.5995828194524
 30
0.0
 10
152.6789809605562
 20
404.6010555811854
 30
0.0
  0
SPLINE
  5
1C1
330
6C
100
AcDbEntity
  8
Sichtbare Kanten(DIN)
100
AcDbSpline
210
0.0
220
0.0
230
1.0
 70
     8
 71
     3
 72
    10
 73
     6
 74
     0
 42
0.0000000001
 43
0.0000000001
 40
0.0
 40
0.0
 40
0.0
 40
0.0
 40
0.0000978161838524
 40
0.0052407690406009
 40
0.0138474745991061
 40
0.0138474745991061
 40
0.0138474745991061
 40
0.0138474745991061
 10
152.6658487388766
 20
404.4460317620122
 30
0.0
 10
152.6658341781792
 20
404.4463575150593
 30
0.0
 10
152.6650540490766
 20
404.4638106237057
 30
0.0
 10
152.6721441729359
 20
404.5097748555615
 30
0.0
 10
152.6753825169786
 20
404.5554333404688
 30
0.0
 10
152.6774095836031
 20
404.5840136239913
 30
0.0
  0
SPLINE
  5
1C2
330
6C
100
AcDbEntity
  8
Sichtbare Kanten(DIN)
100
AcDbSpline
210
0.0
220
0.0
230
1.0
 70
     8
 71
     3
 72
    10
 73
     6
 74
     0
 42
0.0000000001
 43
0.0000000001
 40
0.0
 40
0.0
 40
0.0
 40
0.0
 40
0.0019374781843215
 40
0.003650302471362
 40
0.0058461245166764
 40
0.0058461245166764
 40
0.0058461245166764
 40
0.0058461245166764
 10
152.7011298928479
 20
404.4075143197922
 30
0.0
 10
152.694527211128
 20
404.4082623474452
 30
0.0
 10
152.682087439886
 20
404.4096716676699
 30
0.0
 10
152.6677843318395
 20
404.4253517780825
 30
0.0
 10
152.6665449858609
 20
404.4385930201267
 30
0.0
 10
152.6658487388766
 20
404.4460317620122
 30
0.0
  0
LINE
  5
1C3
330
6C
100
AcDbEntity
  8
Sichtbare Kanten(DIN)
100
AcDbLine
 10
153.2037086216891
 20
404.4075143197922
 30
0.0
 11
152.7011298928479
 21
404.4075143197922
 31
0.0
  0
SPLINE
  5
1C4
330
6C
100
AcDbEntity
  8
Sichtbare Kanten(DIN)
100
AcDbSpline
210
0.0
220
0.0
230
1.0
 70
     8
 71
     3
 72
    10
 73
     6
 74
     0
 42
0.0000000001
 43
0.0000000001
 40
0.0
 40
0.0
 40
0.0
 40
0.0
 40
0.0026218981994698
 40
0.0048850710384231
 40
0.0075494481327257
 40
0.0075494481327257
 40
0.0075494481327257
 40
0.0075494481327257
 10
153.2569857831474
 20
404.4516999431646
 30
0.0
 10
153.2545772953137
 20
404.4431310492091
 30
0.0
 10
153.2500898464244
 20
404.4271656483781
 30
0.0
 10
153.2293610993548
 20
404.4099319448178
 30
0.0
 10
153.2127113259639
 20
404.4083627822073
 30
0.0
 10
153.2037086216891
 20
404.4075143197922
 30
0.0
  0
SPLINE
  5
1C5
330
6C
100
AcDbEntity
  8
Sichtbare Kanten(DIN)
100
AcDbSpline
210
0.0
220
0.0
230
1.0
 70
     8
 71
     3
 72
    10
 73
     6
 74
     0
 42
0.0000000001
 43
0.0000000001
 40
0.0
 40
0.0
 40
0.0
 40
0.0
 40
0.0000133877693432
 40
0.0011214026620805
 40
0.0052633669803299
 40
0.0052633669803299
 40
0.0052633669803299
 40
0.0052633669803299
 10
153.2615502590588
 20
404.5041352955408
 30
0.0
 10
153.2615456506051
 20
404.5040909082008
 30
0.0
 10
153.2611596316878
 20
404.5003728817076
 30
0.0
 10
153.2597763328384
 20
404.4828810198116
 30
0.0
 10
153.2582164503903
 20
404.4654511871403
 30
0.0
 10
153.2569857831474
 20
404.4516999431646
 30
0.0
  0
SPLINE
  5
1C6
330
6C
100
AcDbEntity
  8
Sichtbare Kanten(DIN)
100
AcDbSpline
210
0.0
220
0.0
230
1.0
 70
     8
 71
     3
 72
    10
 73
     6
 74
     0
 42
0.0000000001
 43
0.0000000001
 40
0.0
 40
0.0
 40
0.0
 40
0.0
 40
0.0013651074904674
 40
0.0157406004844253
 40
0.0266332792872953
 40
0.0266332792872953
 40
0.0266332792872953
 40
0.0266332792872953
 10
153.2908078013766
 20
404.768856191537
 30
0.0
 10
153.2903079085013
 20
404.7643333751813
 30
0.0
 10
153.2845438100028
 20
404.7121822839202
 30
0.0
 10
153.2747915285563
 20
404.6239419595401
 30
0.0
 10
153.2655389068143
 20
404.5402244772871
 30
0.0
 10
153.2615502590588
 20
404.5041352955408
 30
0.0
  0
SPLINE
  5
1C7
330
6C
100
AcDbEntity
  8
Sichtbare Kanten(DIN)
100
AcDbSpline
210
0.0
220
0.0
230
1.0
 70
     8
 71
     3
 72
    10
 73
     6
 74
     0
 42
0.0000000001
 43
0.0000000001
 40
0.0
 40
0.0
 40
0.0
 40
0.0
 40
0.0000276844043058
 40
0.002328435056994
 40
0.006811561276057
 40
0.006811561276057
 40
0.006811561276057
 40
0.006811561276057
 10
153.3015081301527
 20
404.8361260906255
 30
0.0
 10
153.3014932839655
 20
404.8360350113272
 30
0.0
 10
153.300244624888
 20
404.8283746611585
 30
0.0
 10
153.2967246190116
 20
404.8059438160578
 30
0.0
 10
153.2931620955984
 20
404.7836133102269
 30
0.0
 10
153.2908078013766
 20
404.768856191537
 30
0.0
  0
SPLINE
  5
1C8
330
6C
100
AcDbEntity
  8
Sichtbare Kanten(DIN)
100
AcDbSpline
210
0.0
220
0.0
230
1.0
 70
     8
 71
     3
 72
    10
 73
     6
 74
     0
 42
0.0000000001
 43
0.0000000001
 40
0.0
 40
0.0
 40
0.0
 40
0.0
 40
0.023211479789723
 40
0.0868708613137956
 40
0.1248352191515127
 40
0.1248352191515127
 40
0.1248352191515127
 40
0.1248352191515127
 10
153.5286843410902
 20
406.063633387175
 30
0.0
 10
153.5146060452366
 20
405.9875533900371
 30
0.0
 10
153.4619168717019
 20
405.7028177790386
 30
0.0
 10
153.3861857498715
 20
405.2936497383853
 30
0.0
 10
153.3245382560757
 20
404.960560708127
 30
0.0
 10
153.3015081301527
 20
404.8361260906255
 30
0.0
  0
SPLINE
  5
1C9
330
6C
100
AcDbEntity
  8
Sichtbare Kanten(DIN)
100
AcDbSpline
210
0.0
220
0.0
230
1.0
 70
     8
 71
     3
 72
    10
 73
     6
 74
     0
 42
0.0000000001
 43
0.0000000001
 40
0.0
 40
0.0
 40
0.0
 40
0.0
 40
0.0136948136430347
 40
0.039415233947099
 40
0.0541152299756576
 40
0.0541152299756576
 40
0.0541152299756576
 40
0.0541152299756576
 10
152.9875320494235
 20
406.0637269215174
 30
0.0
 10
153.0331814275197
 20
406.0637188493292
 30
0.0
 10
153.164565538622
 20
406.0636956166518
 30
0.0
 10
153.3449496356596
 20
406.0636633430833
 30
0.0
 10
153.4796843549791
 20
406.06364137608
 30
0.0
 10
153.5286843410902
 20
406.063633387175
 30
0.0
  0
SPLINE
  5
1CA
330
6C
100
AcDbEntity
  8
Sichtbare Kanten(DIN)
100
AcDbSpline
210
0.0
220
0.0
230
1.0
 70
     8
 71
     3
 72
    10
 73
     6
 74
     0
 42
0.0000000001
 43
0.0000000001
 40
0.0
 40
0.0
 40
0.0
 40
0.0
 40
0.0028830672147756
 40
0.0058563601479548
 40
0.0087290673659734
 40
0.0087290673659734
 40
0.0087290673659734
 40
0.0087290673659734
 10
152.9250136949313
 20
406.0113102760094
 30
0.0
 10
152.9282087646623
 20
406.0204909529415
 30
0.0
 10
152.9346988939755
 20
406.0391396165039
 30
0.0
 10
152.9584954746406
 20
406.0591038236198
 30
0.0
 10
152.9779648539169
 20
406.0622036674228
 30
0.0
 10
152.9875320494235
 20
406.0637269215174
 30
0.0
  0
SPLINE
  5
1CB
330
6C
100
AcDbEntity
  8
Sichtbare Kanten(DIN)
100
AcDbSpline
210
0.0
220
0.0
230
1.0
 70
     8
 71
     3
 72
    10
 73
     6
 74
     0
 42
0.0000000001
 43
0.0000000001
 40
0.0
 40
0.0
 40
0.0
 40
0.0
 40
0.0003033916010666
 40
0.0329732673994514
 40
0.091433609618394
 40
0.091433609618394
 40
0.091433609618394
 40
0.091433609618394
 10
152.7692977216239
 20
405.1103313689456
 30
0.0
 10
152.7694734596688
 20
405.1113272879597
 30
0.0
 10
152.7885730574398
 20
405.2195659598289
 30
0.0
 10
152.8398770592465
 20
405.5199974101603
 30
0.0
 10
152.8917420977821
 20
405.8193040543016
 30
0.0
 10
152.9250136949313
 20
406.0113102760094
 30
0.0
  0
SPLINE
  5
1CC
330
6C
100
AcDbEntity
  8
Sichtbare Kanten(DIN)
100
AcDbSpline
210
0.0
220
0.0
230
1.0
 70
     8
 71
     3
 72
    13
 73
     9
 74
     0
 42
0.0000000001
 43
0.0000000001
 40
0.0
 40
0.0
 40
0.0
 40
0.0
 40
0.0070119223755337
 40
0.0145744932704924
 40
0.0248805847956144
 40
0.0499072791905729
 40
0.0721278514224016
 40
0.0795745374886417
 40
0.0795745374886417
 40
0.0795745374886417
 40
0.0795745374886417
 10
152.2369750718843
 20
404.884595586882
 30
0.0
 10
152.2447694369066
 20
404.8622780893766
 30
0.0
 10
152.2609702609432
 20
404.8158904941083
 30
0.0
 10
152.3260779728096
 20
404.7578613219021
 30
0.0
 10
152.4709165679901
 20
404.7289851234291
 30
0.0
 10
152.6704540640758
 20
404.8121388366054
 30
0.0
 10
152.7487362944473
 20
404.9886732710976
 30
0.0
 10
152.765172196949
 20
405.0859214152853
 30
0.0
 10
152.7692977216239
 20
405.1103313689456
 30
0.0
  0
SPLINE
  5
1CD
330
6C
100
AcDbEntity
  8
Sichtbare Kanten(DIN)
100
AcDbSpline
210
0.0
220
0.0
230
1.0
 70
     8
 71
     3
 72
    10
 73
     6
 74
     0
 42
0.0000000001
 43
0.0000000001
 40
0.0
 40
0.0
 40
0.0
 40
0.0
 40
0.0005599645648457
 40
0.0060567009795872
 40
0.0151421821733425
 40
0.0151421821733425
 40
0.0151421821733425
 40
0.0151421821733425
 10
152.234748954534
 20
405.0357096705408
 30
0.0
 10
152.2345298675024
 20
405.0338560984317
 30
0.0
 10
152.2321601735578
 20
405.0138074512245
 30
0.0
 10
152.2294389965153
 20
404.9632439700364
 30
0.0
 10
152.2340821471597
 20
404.9147868789058
 30
0.0
 10
152.2369750718843
 20
404.884595586882
 30
0.0
  0
SPLINE
  5
1CE
330
6C
100
AcDbEntity
  8
Sichtbare Kanten(DIN)
100
AcDbSpline
210
0.0
220
0.0
230
1.0
 70
     8
 71
     3
 72
    10
 73
     6
 74
     0
 42
0.0000000001
 43
0.0000000001
 40
0.0
 40
0.0
 40
0.0
 40
0.0
 40
0.0364553241020049
 40
0.0865433567655217
 40
0.0992284203541535
 40
0.0992284203541535
 40
0.0992284203541535
 40
0.0992284203541535
 10
152.4036906838635
 20
406.0134989796227
 30
0.0
 10
152.3827493584491
 20
405.8938000574936
 30
0.0
 10
152.3330355610513
 20
405.6096400129065
 30
0.0
 10
152.2748668100495
 20
405.2840184495383
 30
0.0
 10
152.2414930568196
 20
405.0774521760279
 30
0.0
 10
152.234748954534
 20
405.0357096705408
 30
0.0
  0
SPLINE
  5
1CF
330
6C
100
AcDbEntity
  8
Sichtbare Kanten(DIN)
100
AcDbSpline
210
0.0
220
0.0
230
1.0
 70
     8
 71
     3
 72
    10
 73
     6
 74
     0
 42
0.0000000001
 43
0.0000000001
 40
0.0
 40
0.0
 40
0.0
 40
0.0
 40
0.0011963695904981
 40
0.0024277293993705
 40
0.0037682802801586
 40
0.0037682802801586
 40
0.0037682802801586
 40
0.0037682802801586
 10
152.3950106968843
 20
406.0490607366214
 30
0.0
 10
152.3973000525013
 20
406.0457664056575
 30
0.0
 10
152.4019457205131
 20
406.0390813944401
 30
0.0
 10
152.4049769270162
 20
406.0265303110543
 30
0.0
 10
152.4041313973019
 20
406.0179639852245
 30
0.0
 10
152.4036906838635
 20
406.0134989796227
 30
0.0
  0
SPLINE
  5
1D0
330
6C
100
AcDbEntity
  8
Sichtbare Kanten(DIN)
100
AcDbSpline
210
0.0
220
0.0
230
1.0
 70
     8
 71
     3
 72
    10
 73
     6
 74
     0
 42
0.0000000001
 43
0.0000000001
 40
0.0
 40
0.0
 40
0.0
 40
0.0
 40
0.0013342302801213
 40
0.0025597299351586
 40
0.003756633205301
 40
0.003756633205301
 40
0.003756633205301
 40
0.003756633205301
 10
152.3616002297619
 20
406.0637269215174
 30
0.0
 10
152.3660535154395
 20
406.0633936391345
 30
0.0
 10
152.3745971745281
 20
406.0627542345994
 30
0.0
 10
152.3863980841056
 20
406.0576120894368
 30
0.0
 10
152.3921625089049
 20
406.0518886659528
 30
0.0
 10
152.3950106968843
 20
406.0490607366214
 30
0.0
  0
LINE
  5
1D1
330
6C
100
AcDbEntity
  8
Sichtbare Kanten(DIN)
100
AcDbLine
 10
151.8842383596445
 20
406.0637269215174
 30
0.0
 11
152.3616002297619
 21
406.0637269215174
 31
0.0
  0
SPLINE
  5
1D2
330
6C
100
AcDbEntity
  8
Sichtbare Kanten(DIN)
100
AcDbSpline
210
0.0
220
0.0
230
1.0
 70
     8
 71
     3
 72
    10
 73
     6
 74
     0
 42
0.0000000001
 43
0.0000000001
 40
0.0
 40
0.0
 40
0.0
 40
0.0
 40
0.0028822323715612
 40
0.0058561909534092
 40
0.0087413965309747
 40
0.0087413965309747
 40
0.0087413965309747
 40
0.0087413965309747
 10
151.8217012982839
 20
406.0112354485355
 30
0.0
 10
151.824858001793
 20
406.0204293454453
 30
0.0
 10
151.8312718699859
 20
406.0391097323706
 30
0.0
 10
151.8551128446829
 20
406.0591119976151
 30
0.0
 10
151.8746283933755
 20
406.0622042269626
 30
0.0
 10
151.8842383596445
 20
406.0637269215174
 30
0.0
  0
SPLINE
  5
1D3
330
6C
100
AcDbEntity
  8
Sichtbare Kanten(DIN)
100
AcDbSpline
210
0.0
220
0.0
230
1.0
 70
    24
 71
     3
 72
    10
 73
     6
 74
     0
 42
0.0000000001
 43
0.0000000001
 40
0.0
 40
0.0
 40
0.0
 40
0.0
 40
0.0277236344761293
 40
0.0792103842174622
 40
0.1069340186935556
 40
0.1069340186935556
 40
0.1069340186935556
 40
0.1069340186935556
 10
151.6316582212982
 20
404.9589179753911
 30
0.0
 10
151.6480816970871
 20
405.0498589915888
 30
0.0
 10
151.6950059136265
 20
405.3096904664393
 30
0.0
 10
151.7583536059553
 20
405.6604629574876
 30
0.0
 10
151.805277822495
 20
405.920294432338
 30
0.0
 10
151.8217012982839
 20
406.0112354485355
 30
0.0
  0
SPLINE
  5
1D4
330
6C
100
AcDbEntity
  8
Sichtbare Kanten(DIN)
100
AcDbSpline
210
0.0
220
0.0
230
1.0
 70
     8
 71
     3
 72
    10
 73
     6
 74
     0
 42
0.0000000001
 43
0.0000000001
 40
0.0
 40
0.0
 40
0.0
 40
0.0
 40
0.0132753393276222
 40
0.0283927478350564
 40
0.0470112911819628
 40
0.0470112911819628
 40
0.0470112911819628
 40
0.0470112911819628
 10
151.7169615416106
 20
404.5101963209314
 30
0.0
 10
151.6921734610932
 20
404.5472893401474
 30
0.0
 10
151.6391577375717
 20
404.6266223586906
 30
0.0
 10
151.6108905440314
 20
404.7853478339436
 30
0.0
 10
151.624272725594
 20
404.8971921734356
 30
0.0
 10
151.6316582212982
 20
404.9589179753911
 30
0.0
  0
SPLINE
  5
1D5
330
6C
100
AcDbEntity
  8
Sichtbare Kanten(DIN)
100
AcDbSpline
210
0.0
220
0.0
230
1.0
 70
    24
 71
     3
 72
    10
 73
     6
 74
     0
 42
0.0000000001
 43
0.0000000001
 40
0.0
 40
0.0
 40
0.0
 40
0.0
 40
0.0181734283307955
 40
0.0519240809451687
 40
0.0700975092759946
 40
0.0700975092759946
 40
0.0700975092759946
 40
0.0700975092759946
 10
154.0008082880304
 20
406.063558559701
 30
0.0
 10
154.011339100245
 20
406.1232143014161
 30
0.0
 10
154.0414271351439
 20
406.2936592777456
 30
0.0
 10
154.082045982258
 20
406.5237599957901
 30
0.0
 10
154.112134017157
 20
406.6942049721196
 30
0.0
 10
154.1226648293716
 20
406.7538607138351
 30
0.0
  0
SPLINE
  5
1D6
330
6C
100
AcDbEntity
  8
Sichtbare Kanten(DIN)
100
AcDbSpline
210
0.0
220
0.0
230
1.0
 70
     8
 71
     3
 72
    10
 73
     6
 74
     0
 42
0.0000000001
 43
0.0000000001
 40
0.0
 40
0.0
 40
0.0
 40
0.0
 40
0.0069541430205835
 40
0.0235633077492389
 40
0.0332682957643675
 40
0.0332682957643675
 40
0.0332682957643675
 40
0.0332682957643675
 10
153.6681253388118
 20
406.063633387175
 30
0.0
 10
153.6913058150484
 20
406.0636285761718
 30
0.0
 10
153.7698501725228
 20
406.0636122746456
 30
0.0
 10
153.8807444886904
 20
406.0635862278219
 30
0.0
 10
153.9684583288394
 20
406.0635660145924
 30
0.0
 10
154.0008082880304
 20
406.063558559701
 30
0.0
  0
SPLINE
  5
1D7
330
6C
100
AcDbEntity
  8
Sichtbare Kanten(DIN)
100
AcDbSpline
210
0.0
220
0.0
230
1.0
 70
     8
 71
     3
 72
    10
 73
     6
 74
     0
 42
0.0000000001
 43
0.0000000001
 40
0.0
 40
0.0
 40
0.0
 40
0.0
 40
0.0089865303058264
 40
0.0301677392837066
 40
0.0385831811169096
 40
0.0385831811169096
 40
0.0385831811169096
 40
0.0385831811169096
 10
153.5979371682388
 20
405.6842393873377
 30
0.0
 10
153.6033879227838
 20
405.7136943929038
 30
0.0
 10
153.6216860797386
 20
405.8125747058032
 30
0.0
 10
153.6450718024856
 20
405.9390412842686
 30
0.0
 10
153.6630215499775
 20
406.036050122957
 30
0.0
 10
153.6681253388118
 20
406.063633387175
 30
0.0
  0
LINE
  5
1D8
330
6C
100
AcDbEntity
  8
Sichtbare Kanten(DIN)
100
AcDbLine
 10
153.9338751125747
 20
405.6842393873377
 30
0.0
 11
153.5979371682388
 21
405.6842393873377
 31
0.0
  0
SPLINE
  5
1D9
330
6C
100
AcDbEntity
  8
Sichtbare Kanten(DIN)
100
AcDbSpline
210
0.0
220
0.0
230
1.0
 70
    24
 71
     3
 72
    10
 73
     6
 74
     0
 42
0.0000000001
 43
0.0000000001
 40
0.0
 40
0.0
 40
0.0
 40
0.0
 40
0.0322906859289821
 40
0.0922591026542166
 40
0.1245497885832192
 40
0.1245497885832192
 40
0.1245497885832192
 40
0.1245497885832192
 10
153.7173618166761
 20
404.4577048479498
 30
0.0
 10
153.7360728422477
 20
404.5637016599957
 30
0.0
 10
153.7895329153092
 20
404.8665496944122
 30
0.0
 10
153.8617040139417
 20
405.275394540875
 30
0.0
 10
153.9151640870032
 20
405.5782425752918
 30
0.0
 10
153.9338751125747
 20
405.6842393873377
 30
0.0
  0
SPLINE
  5
1DA
330
6C
100
AcDbEntity
  8
Sichtbare Kanten(DIN)
100
AcDbSpline
210
0.0
220
0.0
230
1.0
 70
     8
 71
     3
 72
    10
 73
     6
 74
     0
 42
0.0000000001
 43
0.0000000001
 40
0.0
 40
0.0
 40
0.0
 40
0.0
 40
0.0011976530204216
 40
0.0024246863521629
 40
0.0037634452255878
 40
0.0037634452255878
 40
0.0037634452255878
 40
0.0037634452255878
 10
153.7259669761814
 20
404.422180504688
 30
0.0
 10
153.7236783749037
 20
404.4254807540447
 30
0.0
 10
153.7190450293613
 20
404.4321622130628
 30
0.0
 10
153.7160372258055
 20
404.444702931771
 30
0.0
 10
153.7169076523571
 20
404.4532468628177
 30
0.0
 10
153.7173618166761
 20
404.4577048479498
 30
0.0
  0
SPLINE
  5
1DB
330
6C
100
AcDbEntity
  8
Sichtbare Kanten(DIN)
100
AcDbSpline
210
0.0
220
0.0
230
1.0
 70
     8
 71
     3
 72
    10
 73
     6
 74
     0
 42
0.0000000001
 43
0.0000000001
 40
0.0
 40
0.0
 40
0.0
 40
0.0
 40
0.001333598620728
 40
0.0025607713672858
 40
0.0037563435304862
 40
0.0037563435304862
 40
0.0037563435304862
 40
0.0037563435304862
 10
153.7593774433038
 20
404.4075143197922
 30
0.0
 10
153.7549265341617
 20
404.4078494620563
 30
0.0
 10
153.7463799141275
 20
404.4084930010496
 30
0.0
 10
153.7345801284334
 20
404.4136348758145
 30
0.0
 10
153.7288129526015
 20
404.4193568394889
 30
0.0
 10
153.7259669761814
 20
404.422180504688
 30
0.0
  0
LINE
  5
1DC
330
6C
100
AcDbEntity
  8
Sichtbare Kanten(DIN)
100
AcDbLine
 10
154.2289572561294
 20
404.4075143197922
 30
0.0
 11
153.7593774433038
 21
404.4075143197922
 31
0.0
  0
SPLINE
  5
1DD
330
6C
100
AcDbEntity
  8
Sichtbare Kanten(DIN)
100
AcDbSpline
210
0.0
220
0.0
230
1.0
 70
     8
 71
     3
 72
    10
 73
     6
 74
     0
 42
0.0000000001
 43
0.0000000001
 40
0.0
 40
0.0
 40
0.0
 40
0.0
 40
0.0028844083957318
 40
0.0058603573834216
 40
0.0087307227917567
 40
0.0087307227917567
 40
0.0087307227917567
 40
0.0087307227917567
 10
154.2914756106217
 20
404.4599683790369
 30
0.0
 10
154.2882769953375
 20
404.4507846394065
 30
0.0
 10
154.2817782523977
 20
404.4321257017781
 30
0.0
 10
154.2579842835674
 20
404.4121505345519
 30
0.0
 10
154.238515732216
 20
404.4090410054995
 30
0.0
 10
154.2289572561294
 20
404.4075143197922
 30
0.0
  0
SPLINE
  5
1DE
330
6C
100
AcDbEntity
  8
Sichtbare Kanten(DIN)
100
AcDbSpline
210
0.0
220
0.0
230
1.0
 70
    24
 71
     3
 72
    10
 73
     6
 74
     0
 42
0.0000000001
 43
0.0000000001
 40
0.0
 40
0.0
 40
0.0
 40
0.0
 40
0.032230534773606
 40
0.0920872422103222
 40
0.1243177769839368
 40
0.1243177769839368
 40
0.1243177769839368
 40
0.1243177769839368
 10
154.5074651142025
 20
405.6842393873377
 30
0.0
 10
154.4887993546339
 20
405.5784381890894
 30
0.0
 10
154.435468613009
 20
405.2761490512374
 30
0.0
 10
154.3634721118153
 20
404.8680587151372
 30
0.0
 10
154.3101413701904
 20
404.5657695772851
 30
0.0
 10
154.2914756106217
 20
404.4599683790369
 30
0.0
  0
SPLINE
  5
1DF
330
6C
100
AcDbEntity
  8
Sichtbare Kanten(DIN)
100
AcDbSpline
210
0.0
220
0.0
230
1.0
 70
     8
 71
     3
 72
    10
 73
     6
 74
     0
 42
0.0000000001
 43
0.0000000001
 40
0.0
 40
0.0
 40
0.0
 40
0.0
 40
0.007025532154117
 40
0.0240955647597705
 40
0.0341175880348639
 40
0.0341175880348639
 40
0.0341175880348639
 40
0.0341175880348639
 10
154.8486409817155
 20
405.6843329216802
 30
0.0
 10
154.8252225419525
 20
405.6843269886464
 30
0.0
 10
154.7449039953281
 20
405.6843066400383
 30
0.0
 10
154.6311787065136
 20
405.6842741093261
 30
0.0
 10
154.5408718571364
 20
405.6842487634176
 30
0.0
 10
154.5074651142025
 20
405.6842393873377
 30
0.0
  0
SPLINE
  5
1E0
330
6C
100
AcDbEntity
  8
Sichtbare Kanten(DIN)
100
AcDbSpline
210
0.0
220
0.0
230
1.0
 70
     8
 71
     3
 72
    10
 73
     6
 74
     0
 42
0.0000000001
 43
0.0000000001
 40
0.0
 40
0.0
 40
0.0
 40
0.0
 40
0.0080931847187834
 40
0.0290081092340624
 40
0.0385526703223027
 40
0.0385526703223027
 40
0.0385526703223027
 40
0.0385526703223027
 10
154.9185672561297
 20
406.0634650253586
 30
0.0
 10
154.9136821441985
 20
406.036933733363
 30
0.0
 10
154.8961726142118
 20
405.941838583176
 30
0.0
 10
154.8728467042047
 20
405.8154643743646
 30
0.0
 10
154.8544162223746
 20
405.715619560514
 30
0.0
 10
154.8486409817155
 20
405.6843329216802
 30
0.0
  0
SPLINE
  5
1E1
330
6C
100
AcDbEntity
  8
Sichtbare Kanten(DIN)
100
AcDbSpline
210
0.0
220
0.0
230
1.0
 70
     8
 71
     3
 72
    10
 73
     6
 74
     0
 42
0.0000000001
 43
0.0000000001
 40
0.0
 40
0.0
 40
0.0
 40
0.0
 40
0.0085944900037735
 40
0.0248371795447296
 40
0.0344168979205083
 40
0.0344168979205083
 40
0.0344168979205083
 40
0.0344168979205083
 10
154.5743982896581
 20
406.063558559701
 30
0.0
 10
154.603046588534
 20
406.0635504913957
 30
0.0
 10
154.6858371837312
 20
406.0635271748352
 30
0.0
 10
154.8005601721236
 20
406.063494347429
 30
0.0
 10
154.8866348625276
 20
406.0634729598304
 30
0.0
 10
154.9185672561297
 20
406.0634650253586
 30
0.0
  0
SPLINE
  5
1E2
330
6C
100
AcDbEntity
  8
Sichtbare Kanten(DIN)
100
AcDbSpline
210
0.0
220
0.0
230
1.0
 70
    24
 71
     3
 72
    10
 73
     6
 74
     0
 42
0.0000000001
 43
0.0000000001
 40
0.0
 40
0.0
 40
0.0
 40
0.0
 40
0.01823262473728
 40
0.0520932135351037
 40
0.0703258382723975
 40
0.0703258382723975
 40
0.0703258382723975
 40
0.0703258382723975
 10
154.6967786233172
 20
406.7560868311851
 30
0.0
 10
154.6862025450998
 20
406.6962387089582
 30
0.0
 10
154.6559851787645
 20
406.5252440740239
 30
0.0
 10
154.6151917342121
 20
406.2944013168623
 30
0.0
 10
154.5849743678759
 20
406.123406681928
 30
0.0
 10
154.5743982896581
 20
406.063558559701
 30
0.0
  0
SPLINE
  5
1E3
330
6C
100
AcDbEntity
  8
Sichtbare Kanten(DIN)
100
AcDbSpline
210
0.0
220
0.0
230
1.0
 70
     8
 71
     3
 72
    13
 73
     9
 74
     0
 42
0.0000000001
 43
0.0000000001
 40
0.0
 40
0.0
 40
0.0
 40
0.0
 40
0.0009153978121003
 40
0.0018355697935994
 40
0.0028013554832508
 40
0.0031524452850534
 40
0.003455477833526
 40
0.0037685661646163
 40
0.0037685661646163
 40
0.0037685661646163
 40
0.0037685661646163
 10
154.6881734638118
 20
406.791611174447
 30
0.0
 10
154.6899768480332
 20
406.7891321249635
 30
0.0
 10
154.6935930218531
 20
406.7841610967517
 30
0.0
 10
154.6966869544587
 20
406.7752192284948
 30
0.0
 10
154.6976087848896
 20
406.7677694441764
 30
0.0
 10
154.6974935721757
 20
406.7623671466097
 30
0.0
 10
154.6972343659536
 20
406.759151222589
 30
0.0
 10
154.6969321815254
 20
406.7571193491365
 30
0.0
 10
154.6967786233172
 20
406.7560868311851
 30
0.0
  0
SPLINE
  5
1E4
330
6C
100
AcDbEntity
  8
Sichtbare Kanten(DIN)
100
AcDbSpline
210
0.0
220
0.0
230
1.0
 70
     8
 71
     3
 72
    10
 73
     6
 74
     0
 42
0.0000000001
 43
0.0000000001
 40
0.0
 40
0.0
 40
0.0
 40
0.0
 40
0.0013465252378661
 40
0.0025793660544426
 40
0.0037763129624143
 40
0.0037763129624143
 40
0.0037763129624143
 40
0.0037763129624143
 10
154.6545759280046
 20
406.8063147730799
 30
0.0
 10
154.6590697794176
 20
406.805980164084
 30
0.0
 10
154.6676780753949
 20
406.8053391964581
 30
0.0
 10
154.6795535708456
 20
406.8001932650616
 30
0.0
 10
154.6853286032752
 20
406.7944435589103
 30
0.0
 10
154.6881734638118
 20
406.791611174447
 30
0.0
  0
LINE
  5
1E5
330
6C
100
AcDbEntity
  8
Sichtbare Kanten(DIN)
100
AcDbLine
 10
154.1851831838638
 20
406.8063147730799
 30
0.0
 11
154.6545759280046
 21
406.8063147730799
 31
0.0
  0
SPLINE
  5
1E6
330
6C
100
AcDbEntity
  8
Sichtbare Kanten(DIN)
100
AcDbSpline
210
0.0
220
0.0
230
1.0
 70
     8
 71
     3
 72
    10
 73
     6
 74
     0
 42
0.0000000001
 43
0.0000000001
 40
0.0
 40
0.0
 40
0.0
 40
0.0
 40
0.0028803210317032
 40
0.0058519686951348
 40
0.0087369137882425
 40
0.0087369137882425
 40
0.0087369137882425
 40
0.0087369137882425
 10
154.1226648293716
 20
406.7538607138351
 30
0.0
 10
154.1258239009886
 20
406.7630464397002
 30
0.0
 10
154.1322422092274
 20
406.7817091441746
 30
0.0
 10
154.1560651286518
 20
406.801704995706
 30
0.0
 10
154.1755734341894
 20
406.8047934212486
 30
0.0
 10
154.1851831838638
 20
406.8063147730799
 30
0.0
  0
SPLINE
  5
1E7
330
6C
100
AcDbEntity
  8
Sichtbare Kanten(DIN)
100
AcDbSpline
210
0.0
220
0.0
230
1.0
 70
     8
 71
     3
 72
    10
 73
     6
 74
     0
 42
0.0000000001
 43
0.0000000001
 40
0.0
 40
0.0
 40
0.0
 40
0.0
 40
0.0252654322997127
 40
0.0957656423607562
 40
0.1376601168577756
 40
0.1376601168577756
 40
0.1376601168577756
 40
0.1376601168577756
 10
155.0613754901791
 20
406.0631283017256
 30
0.0
 10
155.1455935902149
 20
406.0631641519471
 30
0.0
 10
155.4648123691639
 20
406.0633000379846
 30
0.0
 10
155.9236793809255
 20
406.0635020012148
 30
0.0
 10
156.2983282936228
 20
406.0636658484133
 30
0.0
 10
156.4379765285909
 20
406.0637269215174
 30
0.0
  0
SPLINE
  5
1E8
330
6C
100
AcDbEntity
  8
Sichtbare Kanten(DIN)
100
AcDbSpline
210
0.0
220
0.0
230
1.0
 70
     8
 71
     3
 72
    10
 73
     6
 74
     0
 42
0.0000000001
 43
0.0000000001
 40
0.0
 40
0.0
 40
0.0
 40
0.0
 40
0.0094349795884234
 40
0.0310155613435569
 40
0.0385705843723002
 40
0.0385705843723002
 40
0.0385705843723002
 40
0.0385705843723002
 10
154.9913743882911
 20
405.6838278362309
 30
0.0
 10
154.9970808414414
 20
405.7147557300153
 30
0.0
 10
155.015839636421
 20
405.8164248409981
 30
0.0
 10
155.0391944111931
 20
405.9428544405347
 30
0.0
 10
155.0568081504378
 20
406.0383625278693
 30
0.0
 10
155.0613754901791
 20
406.0631283017256
 30
0.0
  0
SPLINE
  5
1E9
330
6C
100
AcDbEntity
  8
Sichtbare Kanten(DIN)
100
AcDbSpline
210
0.0
220
0.0
230
1.0
 70
     8
 71
     3
 72
    10
 73
     6
 74
     0
 42
0.0000000001
 43
0.0000000001
 40
0.0
 40
0.0
 40
0.0
 40
0.0
 40
0.0205201904550208
 40
0.0589191614668968
 40
0.0804545125807215
 40
0.0804545125807215
 40
0.0804545125807215
 40
0.0804545125807215
 10
155.7959193882913
 20
405.6842768010747
 30
0.0
 10
155.7275187630146
 20
405.6842406413998
 30
0.0
 10
155.5311215856131
 20
405.6841368169381
 30
0.0
 10
155.2629399116717
 20
405.6839994894978
 30
0.0
 10
155.0631588777074
 20
405.6838732103342
 30
0.0
 10
154.9913743882911
 20
405.6838278362309
 30
0.0
  0
SPLINE
  5
1EA
330
6C
100
AcDbEntity
  8
Sichtbare Kanten(DIN)
100
AcDbSpline
210
0.0
220
0.0
230
1.0
 70
     8
 71
     3
 72
    10
 73
     6
 74
     0
 42
0.0000000001
 43
0.0000000001
 40
0.0
 40
0.0
 40
0.0
 40
0.0
 40
0.0002275952143901
 40
0.0269132959685941
 40
0.119668433366708
 40
0.119668433366708
 40
0.119668433366708
 40
0.119668433366708
 10
154.8888981627051
 20
404.9036578858729
 30
0.0
 10
154.8894731527616
 20
404.9041527973213
 30
0.0
 10
154.9574661358832
 20
404.9626764280719
 30
0.0
 10
155.259813312885
 20
405.222874869151
 30
0.0
 10
155.5615766183341
 20
405.4825887177813
 30
0.0
 10
155.7959193882913
 20
405.6842768010747
 30
0.0
  0
SPLINE
  5
1EB
330
6C
100
AcDbEntity
  8
Sichtbare Kanten(DIN)
100
AcDbSpline
210
0.0
220
0.0
230
1.0
 70
     8
 71
     3
 72
    10
 73
     6
 74
     0
 42
0.0000000001
 43
0.0000000001
 40
0.0
 40
0.0
 40
0.0
 40
0.0
 40
0.0054675832229396
 40
0.0103154944328552
 40
0.0116913853705737
 40
0.0116913853705737
 40
0.0116913853705737
 40
0.0116913853705737
 10
154.8053158742936
 20
404.8221146461268
 30
0.0
 10
154.8174258905976
 20
404.8357542737112
 30
0.0
 10
154.8402734268254
 20
404.8614876730351
 30
0.0
 10
154.8694105160663
 20
404.8874768047626
 30
0.0
 10
154.8853700101723
 20
404.9007283724553
 30
0.0
 10
154.8888981627051
 20
404.9036578858729
 30
0.0
  0
SPLINE
  5
1EC
330
6C
100
AcDbEntity
  8
Sichtbare Kanten(DIN)
100
AcDbSpline
210
0.0
220
0.0
230
1.0
 70
     8
 71
     3
 72
    10
 73
     6
 74
     0
 42
0.0000000001
 43
0.0000000001
 40
0.0
 40
0.0
 40
0.0
 40
0.0
 40
0.0010828037756282
 40
0.0051618292639196
 40
0.0124807175523066
 40
0.0124807175523066
 40
0.0124807175523066
 40
0.0124807175523066
 10
154.7502054397234
 20
404.7112390365889
 30
0.0
 10
154.7508802339857
 20
404.7147856457881
 30
0.0
 10
154.7540970428374
 20
404.731692671385
 30
0.0
 10
154.7691934245015
 20
404.7709826474718
 30
0.0
 10
154.791190802403
 20
404.8021203444926
 30
0.0
 10
154.8053158742936
 20
404.8221146461268
 30
0.0
  0
SPLINE
  5
1ED
330
6C
100
AcDbEntity
  8
Sichtbare Kanten(DIN)
100
AcDbSpline
210
0.0
220
0.0
230
1.0
 70
     8
 71
     3
 72
    10
 73
     6
 74
     0
 42
0.0000000001
 43
0.0000000001
 40
0.0
 40
0.0
 40
0.0
 40
0.0
 40
0.0001658613014847
 40
0.0110630104919118
 40
0.0255781303280148
 40
0.0255781303280148
 40
0.0255781303280148
 40
0.0255781303280148
 10
154.7034756822363
 20
404.4597626034836
 30
0.0
 10
154.7035789254752
 20
404.4603057491553
 30
0.0
 10
154.7104652879007
 20
404.4965337674476
 30
0.0
 10
154.7258411957696
 20
404.5803970233983
 30
0.0
 10
154.7413481131919
 20
404.6636730034683
 30
0.0
 10
154.7502054397234
 20
404.7112390365889
 30
0.0
  0
SPLINE
  5
1EE
330
6C
100
AcDbEntity
  8
Sichtbare Kanten(DIN)
100
AcDbSpline
210
0.0
220
0.0
230
1.0
 70
     8
 71
     3
 72
    10
 73
     6
 74
     0
 42
0.0000000001
 43
0.0000000001
 40
0.0
 40
0.0
 40
0.0
 40
0.0
 40
0.0002977292952415
 40
0.0005190836881997
 40
0.0006010848843524
 40
0.0006010848843524
 40
0.0006010848843524
 40
0.0006010848843524
 10
154.7030641311295
 20
404.4537951124353
 30
0.0
 10
154.7030006777921
 20
404.454787856062
 30
0.0
 10
154.7028900484621
 20
404.4565186801071
 30
0.0
 10
154.7031655498924
 20
404.4585162385946
 30
0.0
 10
154.7034096882688
 20
404.4594973858576
 30
0.0
 10
154.7034756822363
 20
404.4597626034836
 30
0.0
  0
SPLINE
  5
1EF
330
6C
100
AcDbEntity
  8
Sichtbare Kanten(DIN)
100
AcDbSpline
210
0.0
220
0.0
230
1.0
 70
     8
 71
     3
 72
    10
 73
     6
 74
     0
 42
0.0000000001
 43
0.0000000001
 40
0.0
 40
0.0
 40
0.0
 40
0.0
 40
0.0011286606721416
 40
0.002294076950591
 40
0.0035590350523293
 40
0.0035590350523293
 40
0.0035590350523293
 40
0.0035590350523293
 10
154.7132780813249
 20
404.4206652483403
 30
0.0
 10
154.7109897901746
 20
404.4236773268361
 30
0.0
 10
154.7063386881084
 20
404.4297995742224
 30
0.0
 10
154.702793353625
 20
404.4414363990894
 30
0.0
 10
154.7029714406342
 20
404.4495645717057
 30
0.0
 10
154.7030641311295
 20
404.4537951124353
 30
0.0
  0
SPLINE
  5
1F0
330
6C
100
AcDbEntity
  8
Sichtbare Kanten(DIN)
100
AcDbSpline
210
0.0
220
0.0
230
1.0
 70
     8
 71
     3
 72
    10
 73
     6
 74
     0
 42
0.0000000001
 43
0.0000000001
 40
0.0
 40
0.0
 40
0.0
 40
0.0
 40
0.0012501309451582
 40
0.0024010038050734
 40
0.0035125844605085
 40
0.0035125844605085
 40
0.0035125844605085
 40
0.0035125844605085
 10
154.7448552753353
 20
404.4075143197922
 30
0.0
 10
154.7406840459272
 20
404.4078157595991
 30
0.0
 10
154.7326727750123
 20
404.4083947054502
 30
0.0
 10
154.721571823951
 20
404.4129775501066
 30
0.0
 10
154.7160104673642
 20
404.4181325245419
 30
0.0
 10
154.7132780813249
 20
404.4206652483403
 30
0.0
  0
LINE
  5
1F1
330
6C
100
AcDbEntity
  8
Sichtbare Kanten(DIN)
100
AcDbLine
 10
156.1038718573669
 20
404.4075143197922
 30
0.0
 11
154.7448552753353
 21
404.4075143197922
 31
0.0
  0
SPLINE
  5
1F2
330
6C
100
AcDbEntity
  8
Sichtbare Kanten(DIN)
100
AcDbSpline
210
0.0
220
0.0
230
1.0
 70
     8
 71
     3
 72
    10
 73
     6
 74
     0
 42
0.0000000001
 43
0.0000000001
 40
0.0
 40
0.0
 40
0.0
 40
0.0
 40
0.0057504749587652
 40
0.0123008629642521
 40
0.0210879509398243
 40
0.0210879509398243
 40
0.0210879509398243
 40
0.0210879509398243
 10
156.2744036705179
 20
404.5062491716802
 30
0.0
 10
156.2665477509229
 20
404.4883071767299
 30
0.0
 10
156.2497431232895
 20
404.4499273867521
 30
0.0
 10
156.1843609039758
 20
404.413371184447
 30
0.0
 10
156.1331890435715
 20
404.4096476136862
 30
0.0
 10
156.1038718573669
 20
404.4075143197922
 30
0.0
  0
SPLINE
  5
1F3
330
6C
100
AcDbEntity
  8
Sichtbare Kanten(DIN)
100
AcDbSpline
210
0.0
220
0.0
230
1.0
 70
     8
 71
     3
 72
    10
 73
     6
 74
     0
 42
0.0000000001
 43
0.0000000001
 40
0.0
 40
0.0
 40
0.0
 40
0.0
 40
0.0000230670853746
 40
0.0001617868674105
 40
0.0267802765649739
 40
0.0267802765649739
 40
0.0267802765649739
 40
0.0267802765649739
 10
156.3198613609477
 20
404.7701656723313
 30
0.0
 10
156.3198484712357
 20
404.7700898701398
 30
0.0
 10
156.3197580659637
 20
404.7695582122001
 30
0.0
 10
156.304593846288
 20
404.6815879899258
 30
0.0
 10
156.2894595273047
 20
404.5936907340204
 30
0.0
 10
156.2744036705179
 20
404.5062491716802
 30
0.0
  0
SPLINE
  5
1F4
330
6C
100
AcDbEntity
  8
Sichtbare Kanten(DIN)
100
AcDbSpline
210
0.0
220
0.0
230
1.0
 70
     8
 71
     3
 72
    10
 73
     6
 74
     0
 42
0.0000000001
 43
0.0000000001
 40
0.0
 40
0.0
 40
0.0
 40
0.0
 40
0.0011946223348505
 40
0.0024222120206545
 40
0.0037637332807481
 40
0.0037637332807481
 40
0.0037637332807481
 40
0.0037637332807481
 10
156.3112562014425
 20
404.805690015593
 30
0.0
 10
156.3135430775253
 20
404.8024006498597
 30
0.0
 10
156.3181799393821
 20
404.7957311435333
 30
0.0
 10
156.3211855593546
 20
404.7831875238747
 30
0.0
 10
156.3203156200603
 20
404.7746327481826
 30
0.0
 10
156.3198613609477
 20
404.7701656723313
 30
0.0
  0
SPLINE
  5
1F5
330
6C
100
AcDbEntity
  8
Sichtbare Kanten(DIN)
100
AcDbSpline
210
0.0
220
0.0
230
1.0
 70
     8
 71
     3
 72
    10
 73
     6
 74
     0
 42
0.0000000001
 43
0.0000000001
 40
0.0
 40
0.0
 40
0.0
 40
0.0
 40
0.001341913433986
 40
0.0025693141130197
 40
0.0037660789080783
 40
0.0037660789080783
 40
0.0037660789080783
 40
0.0037660789080783
 10
156.2777334931091
 20
404.8203374936202
 30
0.0
 10
156.2822125657683
 20
404.820005019072
 30
0.0
 10
156.2907884875118
 20
404.8193684418328
 30
0.0
 10
156.302624589115
 20
404.8142297749635
 30
0.0
 10
156.308403340716
 20
404.8085125177163
 30
0.0
 10
156.3112562014425
 20
404.805690015593
 30
0.0
  0
LINE
  5
1F6
330
6C
100
AcDbEntity
  8
Sichtbare Kanten(DIN)
100
AcDbLine
 10
155.4657057457131
 20
404.8203374936202
 30
0.0
 11
156.2777334931091
 21
404.8203374936202
 31
0.0
  0
SPLINE
  5
1F7
330
6C
100
AcDbEntity
  8
Sichtbare Kanten(DIN)
100
AcDbSpline
210
0.0
220
0.0
230
1.0
 70
     8
 71
     3
 72
    10
 73
     6
 74
     0
 42
0.0000000001
 43
0.0000000001
 40
0.0
 40
0.0
 40
0.0
 40
0.0
 40
0.0001524481033983
 40
0.0078441775005182
 40
0.1133354817741845
 40
0.1133354817741845
 40
0.1133354817741845
 40
0.1133354817741845
 10
156.3075522414816
 20
405.5791442001631
 30
0.0
 10
156.3071744380378
 20
405.5788043597654
 30
0.0
 10
156.2877346601225
 20
405.5613179605151
 30
0.0
 10
156.0072143288051
 20
405.3082766648321
 30
0.0
 10
155.7269364289416
 20
405.0557256057381
 30
0.0
 10
155.4657057457131
 20
404.8203374936202
 30
0.0
  0
SPLINE
  5
1F8
330
6C
100
AcDbEntity
  8
Sichtbare Kanten(DIN)
100
AcDbSpline
210
0.0
220
0.0
230
1.0
 70
     8
 71
     3
 72
    10
 73
     6
 74
     0
 42
0.0000000001
 43
0.0000000001
 40
0.0
 40
0.0
 40
0.0
 40
0.0
 40
0.0058095501940475
 40
0.013282127799746
 40
0.016393557708652
 40
0.016393557708652
 40
0.016393557708652
 40
0.016393557708652
 10
156.4160894924581
 20
405.7009072071618
 30
0.0
 10
156.4057653385938
 20
405.6844476898733
 30
0.0
 10
156.3821616642182
 20
405.6468169947516
 30
0.0
 10
156.3419427812451
 20
405.6091036069352
 30
0.0
 10
156.3153653365069
 20
405.5859505978999
 30
0.0
 10
156.3075522414816
 20
405.5791442001631
 30
0.0
  0
SPLINE
  5
1F9
330
6C
100
AcDbEntity
  8
Sichtbare Kanten(DIN)
100
AcDbSpline
210
0.0
220
0.0
230
1.0
 70
     8
 71
     3
 72
    10
 73
     6
 74
     0
 42
0.0000000001
 43
0.0000000001
 40
0.0
 40
0.0
 40
0.0
 40
0.0
 40
0.0002284761255056
 40
0.0022376449997324
 40
0.0072479849988254
 40
0.0072479849988254
 40
0.0072479849988254
 40
0.0072479849988254
 10
156.4385751483826
 20
405.7696923625981
 30
0.0
 10
156.4384498659434
 20
405.7689411180488
 30
0.0
 10
156.4372228772464
 20
405.7615835939073
 30
0.0
 10
156.4310411356561
 20
405.7381539601226
 30
0.0
 10
156.4223167374353
 20
405.7164201947458
 30
0.0
 10
156.4160894924581
 20
405.7009072071618
 30
0.0
  0
SPLINE
  5
1FA
330
6C
100
AcDbEntity
  8
Sichtbare Kanten(DIN)
100
AcDbSpline
210
0.0
220
0.0
230
1.0
 70
    24
 71
     3
 72
    10
 73
     6
 74
     0
 42
0.0000000001
 43
0.0000000001
 40
0.0
 40
0.0
 40
0.0
 40
0.0
 40
0.0064119561058984
 40
0.0183198745882629
 40
0.0247318306941419
 40
0.0247318306941419
 40
0.0247318306941419
 40
0.0247318306941419
 10
156.4801043964295
 20
406.0134989796227
 30
0.0
 10
156.4765154490675
 20
405.9924292719786
 30
0.0
 10
156.4662613137474
 20
405.9322301072811
 30
0.0
 10
156.452418231065
 20
405.8509612349396
 30
0.0
 10
156.4421640957447
 20
405.7907620702422
 30
0.0
 10
156.4385751483826
 20
405.7696923625981
 30
0.0
  0
SPLINE
  5
1FB
330
6C
100
AcDbEntity
  8
Sichtbare Kanten(DIN)
100
AcDbSpline
210
0.0
220
0.0
230
1.0
 70
     8
 71
     3
 72
    10
 73
     6
 74
     0
 42
0.0000000001
 43
0.0000000001
 40
0.0
 40
0.0
 40
0.0
 40
0.0
 40
0.0011917736229547
 40
0.0024172950002033
 40
0.0037576555674694
 40
0.0037576555674694
 40
0.0037576555674694
 40
0.0037576555674694
 10
156.4715740643983
 20
406.0489859091476
 30
0.0
 10
156.4738478875716
 20
406.045699108039
 30
0.0
 10
156.4784599223426
 20
406.0390324326457
 30
0.0
 10
156.4814354144122
 20
406.0265046751173
 30
0.0
 10
156.4805611125736
 20
406.0179616624536
 30
0.0
 10
156.4801043964295
 20
406.0134989796227
 30
0.0
  0
SPLINE
  5
1FC
330
6C
100
AcDbEntity
  8
Sichtbare Kanten(DIN)
100
AcDbSpline
210
0.0
220
0.0
230
1.0
 70
     8
 71
     3
 72
    10
 73
     6
 74
     0
 42
0.0000000001
 43
0.0000000001
 40
0.0
 40
0.0
 40
0.0
 40
0.0
 40
0.0013485889265994
 40
0.0025802332752698
 40
0.0037787163775132
 40
0.0037787163775132
 40
0.0037787163775132
 40
0.0037787163775132
 10
156.4379765285909
 20
406.0637269215174
 30
0.0
 10
156.4424776033239
 20
406.0633931975324
 30
0.0
 10
156.4510894364566
 20
406.0627546888561
 30
0.0
 10
156.462969009276
 20
406.0575927875293
 30
0.0
 10
156.4687319260626
 20
406.0518286496821
 30
0.0
 10
156.4715740643983
 20
406.0489859091476
 30
0.0
  0
SPLINE
  5
1FD
330
6C
100
AcDbEntity
  8
Sichtbare Kanten(DIN)
100
AcDbSpline
210
0.0
220
0.0
230
1.0
 70
     8
 71
     3
 72
    10
 73
     6
 74
     0
 42
0.0000000001
 43
0.0000000001
 40
0.0
 40
0.0
 40
0.0
 40
0.0
 40
0.0013399459018972
 40
0.0025686710072601
 40
0.0037651661134933
 40
0.0037651661134933
 40
0.0037651661134933
 40
0.0037651661134933
 10
150.7217748448331
 20
404.4075143197922
 30
0.0
 10
150.7173024133928
 20
404.4078504590872
 30
0.0
 10
150.7087287799675
 20
404.4084948367898
 30
0.0
 10
150.6969059204049
 20
404.4136598267958
 30
0.0
 10
150.6911361143189
 20
404.419390607647
 30
0.0
 10
150.6882895502366
 20
404.422217918425
 30
0.0
  0
LINE
  5
1FE
330
6C
100
AcDbEntity
  8
Sichtbare Kanten(DIN)
100
AcDbLine
 10
151.1912050027108
 20
404.4075143197922
 30
0.0
 11
150.7217748448331
 21
404.4075143197922
 31
0.0
  0
SPLINE
  5
1FF
330
6C
100
AcDbEntity
  8
Sichtbare Kanten(DIN)
100
AcDbSpline
210
0.0
220
0.0
230
1.0
 70
     8
 71
     3
 72
    10
 73
     6
 74
     0
 42
0.0000000001
 43
0.0000000001
 40
0.0
 40
0.0
 40
0.0
 40
0.0
 40
0.0028807590428653
 40
0.0058547115525478
 40
0.008732446989513
 40
0.008732446989513
 40
0.008732446989513
 40
0.008732446989513
 10
151.2537046503346
 20
404.4599683790369
 30
0.0
 10
151.2505304362003
 20
404.4507877655448
 30
0.0
 10
151.2440793210998
 20
404.4321295428081
 30
0.0
 10
151.2202779822704
 20
404.4121413736531
 30
0.0
 10
151.2007891802516
 20
404.4090396710416
 30
0.0
 10
151.1912050027108
 20
404.4075143197922
 30
0.0
  0
SPLINE
  5
200
330
6C
100
AcDbEntity
  8
Sichtbare Kanten(DIN)
100
AcDbSpline
210
0.0
220
0.0
230
1.0
 70
    24
 71
     3
 72
    10
 73
     6
 74
     0
 42
0.0000000001
 43
0.0000000001
 40
0.0
 40
0.0
 40
0.0
 40
0.0
 40
0.060448951537616
 40
0.1727112901073973
 40
0.233160241644971
 40
0.233160241644971
 40
0.233160241644971
 40
0.233160241644971
 10
151.6589328355561
 20
406.7560868311852
 30
0.0
 10
151.6239131158455
 20
406.5576568414933
 30
0.0
 10
151.5238567738152
 20
405.9907140138025
 30
0.0
 10
151.3887807120747
 20
405.2253411964198
 30
0.0
 10
151.288724370045
 20
404.6583983687288
 30
0.0
 10
151.2537046503346
 20
404.4599683790369
 30
0.0
  0
SPLINE
  5
201
330
6C
100
AcDbEntity
  8
Sichtbare Kanten(DIN)
100
AcDbSpline
210
0.0
220
0.0
230
1.0
 70
     8
 71
     3
 72
    10
 73
     6
 74
     0
 42
0.0000000001
 43
0.0000000001
 40
0.0
 40
0.0
 40
0.0
 40
0.0
 40
0.0012007305691038
 40
0.0024313463641169
 40
0.003774918447834
 40
0.003774918447834
 40
0.003774918447834
 40
0.003774918447834
 10
151.6502341417084
 20
406.7917047087894
 30
0.0
 10
151.6525358202503
 20
406.7884006494892
 30
0.0
 10
151.6571964642767
 20
406.7817102954889
 30
0.0
 10
151.6602273809438
 20
406.7691351168295
 30
0.0
 10
151.6593767920671
 20
406.7605616618283
 30
0.0
 10
151.6589328355561
 20
406.7560868311852
 30
0.0
  0
SPLINE
  5
202
330
6C
100
AcDbEntity
  8
Sichtbare Kanten(DIN)
100
AcDbSpline
210
0.0
220
0.0
230
1.0
 70
     8
 71
     3
 72
    10
 73
     6
 74
     0
 42
0.0000000001
 43
0.0000000001
 40
0.0
 40
0.0
 40
0.0
 40
0.0
 40
0.0013378495582369
 40
0.0025628632467764
 40
0.0037540210969504
 40
0.0037540210969504
 40
0.0037540210969504
 40
0.0037540210969504
 10
151.6168236745859
 20
406.8063147730799
 30
0.0
 10
151.6212889129012
 20
406.8059815649756
 30
0.0
 10
151.6298427858655
 20
406.8053432519468
 30
0.0
 10
151.6416410981489
 20
406.8002188499278
 30
0.0
 10
151.6473966765952
 20
406.7945161199364
 30
0.0
 10
151.6502341417084
 20
406.7917047087894
 30
0.0
  0
LINE
  5
203
330
6C
100
AcDbEntity
  8
Sichtbare Kanten(DIN)
100
AcDbLine
 10
151.1474496373137
 20
406.8063147730799
 30
0.0
 11
151.6168236745859
 21
406.8063147730799
 31
0.0
  0
SPLINE
  5
204
330
6C
100
AcDbEntity
  8
Sichtbare Kanten(DIN)
100
AcDbSpline
210
0.0
220
0.0
230
1.0
 70
     8
 71
     3
 72
    10
 73
     6
 74
     0
 42
0.0000000001
 43
0.0000000001
 40
0.0
 40
0.0
 40
0.0
 40
0.0
 40
0.002882258243584
 40
0.0058559997166432
 40
0.0087345798676044
 40
0.0087345798676044
 40
0.0087345798676044
 40
0.0087345798676044
 10
151.0849312828214
 20
406.7538607138351
 30
0.0
 10
151.0881051027246
 20
406.7630474693705
 30
0.0
 10
151.0945534799634
 20
406.781712569187
 30
0.0
 10
151.1183713367279
 20
406.8016943946609
 30
0.0
 10
151.1378625154966
 20
406.8047914333436
 30
0.0
 10
151.1474496373137
 20
406.8063147730799
 30
0.0
  0
SPLINE
  5
205
330
6C
100
AcDbEntity
  8
Sichtbare Kanten(DIN)
100
AcDbSpline
210
0.0
220
0.0
230
1.0
 70
    24
 71
     3
 72
    10
 73
     6
 74
     0
 42
0.0000000001
 43
0.0000000001
 40
0.0
 40
0.0
 40
0.0
 40
0.0
 40
0.0604501596472245
 40
0.1727147418492864
 40
0.2331649014965384
 40
0.2331649014965384
 40
0.2331649014965384
 40
0.2331649014965384
 10
150.6796469769946
 20
404.4577048479498
 30
0.0
 10
150.7146715466337
 20
404.6561380709275
 30
0.0
 10
150.8147417456029
 20
405.2230901365781
 30
0.0
 10
150.9498365142122
 20
405.9884754252066
 30
0.0
 10
151.049906713182
 20
406.5554274908572
 30
0.0
 10
151.0849312828214
 20
406.7538607138351
 30
0.0
  0
SPLINE
  5
206
330
6C
100
AcDbEntity
  8
Sichtbare Kanten(DIN)
100
AcDbSpline
210
0.0
220
0.0
230
1.0
 70
     8
 71
     3
 72
    10
 73
     6
 74
     0
 42
0.0000000001
 43
0.0000000001
 40
0.0
 40
0.0
 40
0.0
 40
0.0
 40
0.0011950635321326
 40
0.0024213891508237
 40
0.0037609971570717
 40
0.0037609971570717
 40
0.0037609971570717
 40
0.0037609971570717
 10
150.6882895502366
 20
404.422217918425
 30
0.0
 10
150.6859976175623
 20
404.4255056491828
 30
0.0
 10
150.6813537967419
 20
404.432167115602
 30
0.0
 10
150.6783374967309
 20
404.4446986439939
 30
0.0
 10
150.6791978228411
 20
404.4532436959263
 30
0.0
 10
150.6796469769946
 20
404.4577048479498
 30
0.0
  0
LINE
  5
207
330
6C
100
AcDbEntity
  8
Sichtbare Kanten(DIN)
100
AcDbLine
 10
149.8036769043582
 20
394.5548190021231
 30
0.0
 11
155.8036769043582
 21
394.5548190021231
 31
0.0
  0
LINE
  5
208
330
6C
100
AcDbEntity
  8
Sichtbare Kanten(DIN)
100
AcDbLine
 10
156.3036769043582
 20
394.5460914696591
 30
0.0
 11
156.3036769043582
 21
394.5111813398026
 31
0.0
  0
LINE
  5
209
330
6C
100
AcDbEntity
  8
Sichtbare Kanten(DIN)
100
AcDbLine
 10
149.3036769043582
 20
394.5111813398026
 30
0.0
 11
149.3036769043582
 21
394.5460914696591
 31
0.0
  0
LINE
  5
20A
330
6C
100
AcDbEntity
  8
Sichtbare tangentiale Kanten(DIN)
100
AcDbLine
 10
138.7634423395846
 20
397.0111813398026
 30
0.0
 11
136.7637469492718
 21
397.0111813398026
 31
0.0
  0
LINE
  5
20B
330
6C
100
AcDbEntity
  8
Sichtbare tangentiale Kanten(DIN)
100
AcDbLine
 10
138.7634423395846
 20
397.0111813398026
 30
0.0
 11
138.7634423395847
 21
464.0111813398024
 31
0.0
  0
LINE
  5
20C
330
6C
100
AcDbEntity
  8
Sichtbare tangentiale Kanten(DIN)
100
AcDbLine
 10
136.7637469492719
 20
464.0111813398024
 30
0.0
 11
138.7634423395847
 21
464.0111813398024
 31
0.0
  0
LINE
  5
20D
330
6C
100
AcDbEntity
  8
Sichtbare tangentiale Kanten(DIN)
100
AcDbLine
 10
136.7637469492719
 20
464.0111813398024
 30
0.0
 11
136.7637469492718
 21
397.0111813398026
 31
0.0
  0
LINE
  5
20E
330
6C
100
AcDbEntity
  8
Sichtbare tangentiale Kanten(DIN)
100
AcDbLine
 10
139.0536769043582
 20
396.7209467750291
 30
0.0
 11
139.0536769043582
 21
394.7212513847162
 31
0.0
  0
ARC
  5
20F
330
6C
100
AcDbEntity
  8
Sichtbare tangentiale Kanten(DIN)
100
AcDbCircle
 10
139.0536769043582
 20
397.0111813398026
 30
0.0
 40
0.2902345647735776
100
AcDbArc
 50
180.0
 51
270.0
  0
ARC
  5
210
330
6C
100
AcDbEntity
  8
Sichtbare tangentiale Kanten(DIN)
100
AcDbCircle
 10
139.0536769043582
 20
397.0111813398026
 30
0.0
 40
2.289929955086372
100
AcDbArc
 50
180.0
 51
269.9999999999995
  0
LINE
  5
211
330
6C
100
AcDbEntity
  8
Sichtbare tangentiale Kanten(DIN)
100
AcDbLine
 10
139.0536769043583
 20
466.301111294889
 30
0.0
 11
139.0536769043583
 21
464.3014159045761
 31
0.0
  0
ARC
  5
212
330
6C
100
AcDbEntity
  8
Sichtbare tangentiale Kanten(DIN)
100
AcDbCircle
 10
139.0536769043583
 20
464.0111813398024
 30
0.0
 40
2.289929955086372
100
AcDbArc
 50
89.99999999999955
 51
180.0
  0
ARC
  5
213
330
6C
100
AcDbEntity
  8
Sichtbare tangentiale Kanten(DIN)
100
AcDbCircle
 10
139.0536769043583
 20
464.0111813398024
 30
0.0
 40
0.2902345647735776
100
AcDbArc
 50
90.0
 51
180.0
  0
LINE
  5
214
330
6C
100
AcDbEntity
  8
Sichtbare tangentiale Kanten(DIN)
100
AcDbLine
 10
166.5536769043582
 20
396.7209467750291
 30
0.0
 11
166.5536769043582
 21
394.7212513847162
 31
0.0
  0
LINE
  5
215
330
6C
100
AcDbEntity
  8
Sichtbare tangentiale Kanten(DIN)
100
AcDbLine
 10
166.5536769043582
 20
396.7209467750291
 30
0.0
 11
139.0536769043582
 21
396.7209467750291
 31
0.0
  0
LINE
  5
216
330
6C
100
AcDbEntity
  8
Sichtbare tangentiale Kanten(DIN)
100
AcDbLine
 10
139.0536769043581
 20
394.7212513847162
 30
0.0
 11
166.5536769043582
 21
394.7212513847162
 31
0.0
  0
LINE
  5
217
330
6C
100
AcDbEntity
  8
Sichtbare tangentiale Kanten(DIN)
100
AcDbLine
 10
166.5536769043583
 20
466.3011112948888
 30
0.0
 11
166.5536769043583
 21
464.301415904576
 31
0.0
  0
LINE
  5
218
330
6C
100
AcDbEntity
  8
Sichtbare tangentiale Kanten(DIN)
100
AcDbLine
 10
166.5536769043583
 20
466.3011112948888
 30
0.0
 11
139.0536769043583
 21
466.3011112948888
 31
0.0
  0
LINE
  5
219
330
6C
100
AcDbEntity
  8
Sichtbare tangentiale Kanten(DIN)
100
AcDbLine
 10
139.0536769043583
 20
464.3014159045761
 30
0.0
 11
166.5536769043583
 21
464.301415904576
 31
0.0
  0
LINE
  5
21A
330
6C
100
AcDbEntity
  8
Sichtbare tangentiale Kanten(DIN)
100
AcDbLine
 10
166.8439114691318
 20
397.0111813398026
 30
0.0
 11
168.8436068594445
 21
397.0111813398026
 31
0.0
  0
ARC
  5
21B
330
6C
100
AcDbEntity
  8
Sichtbare tangentiale Kanten(DIN)
100
AcDbCircle
 10
166.5536769043582
 20
397.0111813398026
 30
0.0
 40
0.2902345647735776
100
AcDbArc
 50
270.0
 51
0.0
  0
ARC
  5
21C
330
6C
100
AcDbEntity
  8
Sichtbare tangentiale Kanten(DIN)
100
AcDbCircle
 10
166.5536769043582
 20
397.0111813398026
 30
0.0
 40
2.289929955086372
100
AcDbArc
 50
270.0
 51
0.0
  0
LINE
  5
21D
330
6C
100
AcDbEntity
  8
Sichtbare tangentiale Kanten(DIN)
100
AcDbLine
 10
168.8436068594447
 20
464.0111813398024
 30
0.0
 11
166.8439114691319
 21
464.0111813398024
 31
0.0
  0
ARC
  5
21E
330
6C
100
AcDbEntity
  8
Sichtbare tangentiale Kanten(DIN)
100
AcDbCircle
 10
166.5536769043583
 20
464.0111813398024
 30
0.0
 40
2.289929955086372
100
AcDbArc
 50
0.0
 51
90.0
  0
ARC
  5
21F
330
6C
100
AcDbEntity
  8
Sichtbare tangentiale Kanten(DIN)
100
AcDbCircle
 10
166.5536769043583
 20
464.0111813398024
 30
0.0
 40
0.2902345647735776
100
AcDbArc
 50
0.0
 51
90.0
  0
LINE
  5
220
330
6C
100
AcDbEntity
  8
Sichtbare tangentiale Kanten(DIN)
100
AcDbLine
 10
168.8436068594445
 20
397.0111813398026
 30
0.0
 11
168.8436068594446
 21
420.5111813398024
 31
0.0
  0
LINE
  5
221
330
6C
100
AcDbEntity
  8
Sichtbare tangentiale Kanten(DIN)
100
AcDbLine
 10
168.8436068594446
 20
440.5111813398026
 30
0.0
 11
168.8436068594447
 21
464.0111813398024
 31
0.0
  0
LINE
  5
222
330
6C
100
AcDbEntity
  8
Sichtbare tangentiale Kanten(DIN)
100
AcDbLine
 10
166.8439114691319
 20
464.0111813398024
 30
0.0
 11
166.8439114691318
 21
440.5111813398026
 31
0.0
  0
LINE
  5
223
330
6C
100
AcDbEntity
  8
Sichtbare tangentiale Kanten(DIN)
100
AcDbLine
 10
166.8439114691318
 20
420.5111813398024
 30
0.0
 11
166.8439114691318
 21
397.0111813398026
 31
0.0
  0
LINE
  5
224
330
6C
100
AcDbEntity
  8
Sichtbare tangentiale Kanten(DIN)
100
AcDbLine
 10
166.5536769043582
 20
394.5111813398026
 30
0.0
 11
166.5536769043582
 21
394.7212513847162
 31
0.0
  0
ARC
  5
225
330
6C
100
AcDbEntity
  8
Sichtbare Kanten(DIN)
100
AcDbCircle
 10
166.5536769043582
 20
397.0111813398026
 30
0.0
 40
2.500000000000004
100
AcDbArc
 50
270.0
 51
0.0
  0
LINE
  5
226
330
6C
100
AcDbEntity
  8
Sichtbare tangentiale Kanten(DIN)
100
AcDbLine
 10
169.0536769043582
 20
397.0111813398026
 30
0.0
 11
168.8436068594445
 21
397.0111813398026
 31
0.0
  0
LINE
  5
227
330
6C
100
AcDbEntity
  8
Sichtbare Kanten(DIN)
100
AcDbLine
 10
156.3036769043582
 20
394.5111813398026
 30
0.0
 11
166.5536769043582
 21
394.5111813398026
 31
0.0
  0
LINE
  5
228
330
6C
100
AcDbEntity
  8
Sichtbare tangentiale Kanten(DIN)
100
AcDbLine
 10
139.0536769043582
 20
394.5111813398026
 30
0.0
 11
139.0536769043581
 21
394.7212513847162
 31
0.0
  0
LINE
  5
229
330
6C
100
AcDbEntity
  8
Sichtbare Kanten(DIN)
100
AcDbLine
 10
139.0536769043582
 20
394.5111813398026
 30
0.0
 11
149.3036769043582
 21
394.5111813398026
 31
0.0
  0
LINE
  5
22A
330
6C
100
AcDbEntity
  8
Sichtbare tangentiale Kanten(DIN)
100
AcDbLine
 10
136.5536769043582
 20
397.0111813398026
 30
0.0
 11
136.7637469492718
 21
397.0111813398026
 31
0.0
  0
ARC
  5
22B
330
6C
100
AcDbEntity
  8
Sichtbare Kanten(DIN)
100
AcDbCircle
 10
139.0536769043582
 20
397.0111813398026
 30
0.0
 40
2.5
100
AcDbArc
 50
180.0
 51
270.0
  0
LINE
  5
22C
330
6C
100
AcDbEntity
  8
Sichtbare tangentiale Kanten(DIN)
100
AcDbLine
 10
136.5536769043582
 20
464.0111813398024
 30
0.0
 11
136.7637469492719
 21
464.0111813398024
 31
0.0
  0
LINE
  5
22D
330
6C
100
AcDbEntity
  8
Sichtbare Kanten(DIN)
100
AcDbLine
 10
136.5536769043582
 20
464.0111813398024
 30
0.0
 11
136.5536769043582
 21
397.0111813398026
 31
0.0
  0
LINE
  5
22E
330
6C
100
AcDbEntity
  8
Sichtbare tangentiale Kanten(DIN)
100
AcDbLine
 10
166.5536769043583
 20
466.5111813398024
 30
0.0
 11
166.5536769043583
 21
466.3011112948888
 31
0.0
  0
LINE
  5
22F
330
6C
100
AcDbEntity
  8
Sichtbare Kanten(DIN)
100
AcDbLine
 10
166.5536769043583
 20
466.5111813398024
 30
0.0
 11
139.0536769043583
 21
466.5111813398024
 31
0.0
  0
LINE
  5
230
330
6C
100
AcDbEntity
  8
Sichtbare tangentiale Kanten(DIN)
100
AcDbLine
 10
139.0536769043583
 20
466.5111813398024
 30
0.0
 11
139.0536769043583
 21
466.3011112948888
 31
0.0
  0
LINE
  5
231
330
6C
100
AcDbEntity
  8
Sichtbare tangentiale Kanten(DIN)
100
AcDbLine
 10
169.0536769043583
 20
464.0111813398024
 30
0.0
 11
168.8436068594447
 21
464.0111813398024
 31
0.0
  0
ARC
  5
232
330
6C
100
AcDbEntity
  8
Sichtbare Kanten(DIN)
100
AcDbCircle
 10
166.5536769043583
 20
464.0111813398024
 30
0.0
 40
2.5
100
AcDbArc
 50
0.0
 51
90.0
  0
LINE
  5
233
330
6C
100
AcDbEntity
  8
Sichtbare Kanten(DIN)
100
AcDbLine
 10
169.0536769043582
 20
397.0111813398026
 30
0.0
 11
169.0536769043582
 21
420.5111813398024
 31
0.0
  0
LINE
  5
234
330
6C
100
AcDbEntity
  8
Sichtbare Kanten(DIN)
100
AcDbLine
 10
169.0536769043582
 20
440.5111813398026
 30
0.0
 11
169.0536769043583
 21
464.0111813398024
 31
0.0
  0
ARC
  5
235
330
6C
100
AcDbEntity
  8
Sichtbare Kanten(DIN)
100
AcDbCircle
 10
139.0536769043583
 20
464.0111813398024
 30
0.0
 40
2.500000000000004
100
AcDbArc
 50
90.0
 51
180.0
  0
ARC
  5
236
330
6C
100
AcDbEntity
  8
Sichtbare Kanten(DIN)
100
AcDbCircle
 10
152.8036769043582
 20
430.5111813398026
 30
0.0
 40
10.10000000000001
100
AcDbArc
 50
196.0606199791772
 51
278.0693011593935
  0
ARC
  5
237
330
6C
100
AcDbEntity
  8
Sichtbare Kanten(DIN)
100
AcDbCircle
 10
152.8036769043583
 20
430.5111813398026
 30
0.0
 40
10.10000000000006
100
AcDbArc
 50
171.9306988406073
 51
188.0693011593925
  0
ARC
  5
238
330
6C
100
AcDbEntity
  8
Sichtbare Kanten(DIN)
100
AcDbCircle
 10
152.8036769043582
 20
430.5111813398026
 30
0.0
 40
10.1
100
AcDbArc
 50
81.93069884060586
 51
163.9393800208228
  0
ELLIPSE
  5
239
330
6C
100
AcDbEntity
  8
Sichtbare tangentiale Kanten(DIN)
100
AcDbEllipse
 10
293.2333708473122
 20
421.5111813398024
 30
0.0
 11
-0.9959584233821733
 21
0.4607724511053037
 31
0.0
210
0.0
220
0.0
230
1.0
 40
0.1949237007029222
 41
2.742837129039926
 42
3.231529319599009
  0
ELLIPSE
  5
23A
330
6C
100
AcDbEntity
  8
Sichtbare tangentiale Kanten(DIN)
100
AcDbEllipse
 10
293.6748446437416
 20
421.0111813398024
 30
0.0
 11
-0.0000000000000012
 21
-0.4999999999999958
 31
0.0
210
0.0
220
0.0
230
1.0
 40
0.8829475928589129
 41
0.0
 42
1.570796326794898
  0
ELLIPSE
  5
23B
330
6C
100
AcDbEntity
  8
Sichtbare tangentiale Kanten(DIN)
100
AcDbEllipse
 10
293.2333708473122
 20
439.5111813398026
 30
0.0
 11
0.9959584233821775
 21
0.4607724511052841
 31
0.0
210
0.0
220
0.0
230
1.0
 40
0.1949237007029171
 41
6.193248641175465
 42
6.681940831734025
  0
ELLIPSE
  5
23C
330
6C
100
AcDbEntity
  8
Sichtbare tangentiale Kanten(DIN)
100
AcDbEllipse
 10
293.6748446437416
 20
440.0111813398025
 30
0.0
 11
0.0
 21
0.4999999999999964
 31
0.0
210
0.0
220
0.0
230
1.0
 40
0.8829475928589292
 41
4.712388980384688
 42
6.28318530717958
  0
LINE
  5
23D
330
6C
100
AcDbEntity
  8
Sichtbare tangentiale Kanten(DIN)
100
AcDbLine
 10
294.1163184401712
 20
440.0111813398025
 30
0.0
 11
294.1163184401712
 21
421.0111813398024
 31
0.0
  0
SPLINE
  5
23E
330
6C
100
AcDbEntity
  8
Sichtbare Kanten(DIN)
100
AcDbSpline
210
0.0
220
0.0
230
1.0
 70
     8
 71
     3
 72
    18
 73
    14
 74
     0
 42
0.0000000001
 43
0.0000000001
 40
0.0
 40
0.0
 40
0.0
 40
0.0
 40
0.0977384381116837
 40
0.0977384381116837
 40
0.1954768762233674
 40
0.1954768762233674
 40
0.2801118143171851
 40
0.2801118143171851
 40
0.363359343913346
 40
0.363359343913346
 40
0.4610977820250298
 40
0.4610977820250298
 40
0.4886921905584185
 40
0.4886921905584185
 40
0.4886921905584185
 40
0.4886921905584185
 10
293.6748446437416
 20
420.5111813398024
 30
0.0
 10
293.7171902460914
 20
420.5111813398024
 30
0.0
 10
293.7655938614272
 20
420.5153467248748
 30
0.0
 10
293.8737651866223
 20
420.5430467830226
 30
0.0
 10
293.9338648099369
 20
420.567366870893
 30
0.0
 10
294.0403186066226
 20
420.6389056578109
 30
0.0
 10
294.0865302018498
 20
420.6826001317833
 30
0.0
 10
294.1583274938531
 20
420.7784574851198
 30
0.0
 10
294.1841656548177
 20
420.8297116412636
 30
0.0
 10
294.2210373495817
 20
420.9345458605127
 30
0.0
 10
294.2293906286878
 20
420.9867955355259
 30
0.0
 10
294.2330212519853
 20
421.0453430389518
 30
0.0
 10
294.2333708473122
 20
421.0577521461578
 30
0.0
 10
294.2333708473122
 20
421.069707543373
 30
0.0
  0
SPLINE
  5
23F
330
6C
100
AcDbEntity
  8
Sichtbare Kanten(DIN)
100
AcDbSpline
210
0.0
220
0.0
230
1.0
 70
     8
 71
     3
 72
    18
 73
    14
 74
     0
 42
0.0000000001
 43
0.0000000001
 40
0.0000000000000039
 40
0.0000000000000039
 40
0.0000000000000039
 40
0.0000000000000039
 40
0.0977384381116837
 40
0.0977384381116837
 40
0.1954768762233634
 40
0.1954768762233634
 40
0.2801118143171816
 40
0.2801118143171816
 40
0.3633593439133423
 40
0.3633593439133423
 40
0.4610977820250221
 40
0.4610977820250221
 40
0.488692190558403
 40
0.488692190558403
 40
0.488692190558403
 40
0.488692190558403
 10
293.6748446437416
 20
440.5111813398026
 30
0.0
 10
293.7171902460914
 20
440.5111813398026
 30
0.0
 10
293.7655938614272
 20
440.5070159547301
 30
0.0
 10
293.8737651866223
 20
440.4793158965824
 30
0.0
 10
293.9338648099369
 20
440.4549958087121
 30
0.0
 10
294.0403186066226
 20
440.3834570217941
 30
0.0
 10
294.0865302018498
 20
440.3397625478218
 30
0.0
 10
294.1583274938531
 20
440.2439051944851
 30
0.0
 10
294.1841656548177
 20
440.1926510383413
 30
0.0
 10
294.2210373495817
 20
440.0878168190923
 30
0.0
 10
294.2293906286878
 20
440.0355671440791
 30
0.0
 10
294.2330212519853
 20
439.9770196406532
 30
0.0
 10
294.2333708473122
 20
439.9646105334473
 30
0.0
 10
294.2333708473122
 20
439.952655136232
 30
0.0
  0
LINE
  5
240
330
6C
100
AcDbEntity
  8
Sichtbare Kanten(DIN)
100
AcDbLine
 10
294.2333708473121
 20
439.952655136232
 30
0.0
 11
294.2333708473121
 21
421.069707543373
 31
0.0
  0
LINE
  5
241
330
6C
100
AcDbEntity
  8
Sichtbare tangentiale Kanten(DIN)
100
AcDbLine
 10
294.1163184401712
 20
421.0111813398024
 30
0.0
 11
280.0225710764481
 21
421.0111813398024
 31
0.0
  0
ELLIPSE
  5
242
330
6C
100
AcDbEntity
  8
Sichtbare tangentiale Kanten(DIN)
100
AcDbEllipse
 10
279.5810972800186
 20
421.0111813398024
 30
0.0
 11
0.0000000000000089
 21
-0.5000000000000054
 31
0.0
210
0.0
220
0.0
230
1.0
 40
0.8829475928589229
 41
0.0
 42
1.570796326794879
  0
LINE
  5
243
330
6C
100
AcDbEntity
  8
Sichtbare Kanten(DIN)
100
AcDbLine
 10
279.5810972800186
 20
420.5111813398024
 30
0.0
 11
293.6748446437416
 21
420.5111813398024
 31
0.0
  0
LINE
  5
244
330
6C
100
AcDbEntity
  8
Sichtbare tangentiale Kanten(DIN)
100
AcDbLine
 10
280.0225710764481
 20
440.0111813398026
 30
0.0
 11
294.1163184401712
 21
440.0111813398025
 31
0.0
  0
LINE
  5
245
330
6C
100
AcDbEntity
  8
Sichtbare Kanten(DIN)
100
AcDbLine
 10
293.6748446437416
 20
440.5111813398026
 30
0.0
 11
279.5810972800186
 21
440.5111813398026
 31
0.0
  0
ELLIPSE
  5
246
330
6C
100
AcDbEntity
  8
Sichtbare tangentiale Kanten(DIN)
100
AcDbEllipse
 10
279.5810972800186
 20
440.0111813398025
 30
0.0
 11
0.0
 21
0.500000000000013
 31
0.0
210
0.0
220
0.0
230
1.0
 40
0.8829475928589257
 41
4.712388980384688
 42
6.283185307179597
  0
ARC
  5
247
330
6C
100
AcDbEntity
  8
Sichtbare Kanten(DIN)
100
AcDbCircle
 10
152.8036769043582
 20
430.5111813398026
 30
0.0
 40
10.0
100
AcDbArc
 50
90.0
 51
270.0
  0
LINE
  5
248
330
6C
100
AcDbEntity
  8
Sichtbare tangentiale Kanten(DIN)
100
AcDbLine
 10
262.3636192192696
 20
440.0111813398026
 30
0.0
 11
262.3636192192696
 21
440.5111813398026
 31
0.0
  0
LINE
  5
249
330
6C
100
AcDbEntity
  8
Sichtbare tangentiale Kanten(DIN)
100
AcDbLine
 10
280.0225710764482
 20
440.0111813398026
 30
0.0
 11
262.3636192192696
 21
440.0111813398026
 31
0.0
  0
LINE
  5
24A
330
6C
100
AcDbEntity
  8
Sichtbare Kanten(DIN)
100
AcDbLine
 10
262.3636192192696
 20
440.5111813398026
 30
0.0
 11
279.5810972800187
 21
440.5111813398026
 31
0.0
  0
LINE
  5
24B
330
6C
100
AcDbEntity
  8
Sichtbare tangentiale Kanten(DIN)
100
AcDbLine
 10
185.6536769043583
 20
440.0111813398026
 30
0.0
 11
185.6536769043583
 21
440.5111813398026
 31
0.0
  0
LINE
  5
24C
330
6C
100
AcDbEntity
  8
Sichtbare tangentiale Kanten(DIN)
100
AcDbLine
 10
185.6536769043583
 20
440.0111813398026
 30
0.0
 11
262.3636192192696
 21
440.0111813398026
 31
0.0
  0
LINE
  5
24D
330
6C
100
AcDbEntity
  8
Sichtbare Kanten(DIN)
100
AcDbLine
 10
262.3636192192696
 20
440.5111813398026
 30
0.0
 11
185.6536769043583
 21
440.5111813398026
 31
0.0
  0
ARC
  5
24E
330
6C
100
AcDbEntity
  8
Sichtbare Kanten(DIN)
100
AcDbCircle
 10
176.1536769043583
 20
440.0111813398026
 30
0.0
 40
0.5000000000000019
100
AcDbArc
 50
90.0
 51
180.0
  0
LINE
  5
24F
330
6C
100
AcDbEntity
  8
Sichtbare tangentiale Kanten(DIN)
100
AcDbLine
 10
185.6536769043583
 20
440.0111813398026
 30
0.0
 11
175.6536769043583
 21
440.0111813398026
 31
0.0
  0
LINE
  5
250
330
6C
100
AcDbEntity
  8
Sichtbare Kanten(DIN)
100
AcDbLine
 10
176.1536769043583
 20
440.5111813398026
 30
0.0
 11
185.6536769043583
 21
440.5111813398026
 31
0.0
  0
LINE
  5
251
330
6C
100
AcDbEntity
  8
Sichtbare tangentiale Kanten(DIN)
100
AcDbLine
 10
171.6536769043583
 20
440.0111813398026
 30
0.0
 11
171.6536769043583
 21
440.5111813398026
 31
0.0
  0
LINE
  5
252
330
6C
100
AcDbEntity
  8
Sichtbare tangentiale Kanten(DIN)
100
AcDbLine
 10
171.6536769043583
 20
440.0111813398026
 30
0.0
 11
175.6536769043583
 21
440.0111813398026
 31
0.0
  0
LINE
  5
253
330
6C
100
AcDbEntity
  8
Sichtbare Kanten(DIN)
100
AcDbLine
 10
176.1536769043583
 20
440.5111813398026
 30
0.0
 11
171.6536769043583
 21
440.5111813398026
 31
0.0
  0
LINE
  5
254
330
6C
100
AcDbEntity
  8
Sichtbare tangentiale Kanten(DIN)
100
AcDbLine
 10
152.8036769043582
 20
440.0111813398026
 30
0.0
 11
152.8036769043582
 21
440.5111813398026
 31
0.0
  0
LINE
  5
255
330
6C
100
AcDbEntity
  8
Sichtbare tangentiale Kanten(DIN)
100
AcDbLine
 10
152.8036769043582
 20
440.0111813398026
 30
0.0
 11
171.6536769043583
 21
440.0111813398026
 31
0.0
  0
LINE
  5
256
330
6C
100
AcDbEntity
  8
Sichtbare Kanten(DIN)
100
AcDbLine
 10
171.6536769043583
 20
440.5111813398026
 30
0.0
 11
152.8036769043582
 21
440.5111813398026
 31
0.0
  0
LINE
  5
257
330
6C
100
AcDbEntity
  8
Sichtbare tangentiale Kanten(DIN)
100
AcDbLine
 10
152.8036769043582
 20
421.0111813398024
 30
0.0
 11
152.8036769043582
 21
420.5111813398024
 31
0.0
  0
ARC
  5
258
330
6C
100
AcDbEntity
  8
Sichtbare tangentiale Kanten(DIN)
100
AcDbCircle
 10
152.8036769043582
 20
430.5111813398026
 30
0.0
 40
9.500000000000003
100
AcDbArc
 50
90.0
 51
270.0
  0
LINE
  5
259
330
6C
100
AcDbEntity
  8
Sichtbare tangentiale Kanten(DIN)
100
AcDbLine
 10
171.6536769043583
 20
421.0111813398024
 30
0.0
 11
171.6536769043583
 21
420.5111813398024
 31
0.0
  0
LINE
  5
25A
330
6C
100
AcDbEntity
  8
Sichtbare tangentiale Kanten(DIN)
100
AcDbLine
 10
171.6536769043583
 20
421.0111813398024
 30
0.0
 11
152.8036769043582
 21
421.0111813398024
 31
0.0
  0
LINE
  5
25B
330
6C
100
AcDbEntity
  8
Sichtbare Kanten(DIN)
100
AcDbLine
 10
152.8036769043582
 20
420.5111813398024
 30
0.0
 11
171.6536769043583
 21
420.5111813398024
 31
0.0
  0
LINE
  5
25C
330
6C
100
AcDbEntity
  8
Sichtbare tangentiale Kanten(DIN)
100
AcDbLine
 10
175.6536769043583
 20
421.0111813398024
 30
0.0
 11
171.6536769043583
 21
421.0111813398024
 31
0.0
  0
LINE
  5
25D
330
6C
100
AcDbEntity
  8
Sichtbare Kanten(DIN)
100
AcDbLine
 10
171.6536769043583
 20
420.5111813398024
 30
0.0
 11
176.1536769043583
 21
420.5111813398024
 31
0.0
  0
ARC
  5
25E
330
6C
100
AcDbEntity
  8
Sichtbare Kanten(DIN)
100
AcDbCircle
 10
176.1536769043583
 20
421.0111813398024
 30
0.0
 40
0.4999999999999986
100
AcDbArc
 50
180.0
 51
270.0
  0
LINE
  5
25F
330
6C
100
AcDbEntity
  8
Sichtbare tangentiale Kanten(DIN)
100
AcDbLine
 10
185.6536769043583
 20
421.0111813398024
 30
0.0
 11
185.6536769043583
 21
420.5111813398024
 31
0.0
  0
LINE
  5
260
330
6C
100
AcDbEntity
  8
Sichtbare tangentiale Kanten(DIN)
100
AcDbLine
 10
175.6536769043583
 20
421.0111813398024
 30
0.0
 11
185.6536769043583
 21
421.0111813398024
 31
0.0
  0
LINE
  5
261
330
6C
100
AcDbEntity
  8
Sichtbare Kanten(DIN)
100
AcDbLine
 10
185.6536769043583
 20
420.5111813398024
 30
0.0
 11
176.1536769043583
 21
420.5111813398024
 31
0.0
  0
LINE
  5
262
330
6C
100
AcDbEntity
  8
Sichtbare tangentiale Kanten(DIN)
100
AcDbLine
 10
262.3636192192696
 20
421.0111813398024
 30
0.0
 11
262.3636192192696
 21
420.5111813398024
 31
0.0
  0
LINE
  5
263
330
6C
100
AcDbEntity
  8
Sichtbare tangentiale Kanten(DIN)
100
AcDbLine
 10
262.3636192192696
 20
421.0111813398024
 30
0.0
 11
185.6536769043583
 21
421.0111813398024
 31
0.0
  0
LINE
  5
264
330
6C
100
AcDbEntity
  8
Sichtbare Kanten(DIN)
100
AcDbLine
 10
185.6536769043583
 20
420.5111813398024
 30
0.0
 11
262.3636192192696
 21
420.5111813398024
 31
0.0
  0
LINE
  5
265
330
6C
100
AcDbEntity
  8
Sichtbare tangentiale Kanten(DIN)
100
AcDbLine
 10
262.3636192192696
 20
421.0111813398024
 30
0.0
 11
280.0225710764482
 21
421.0111813398024
 31
0.0
  0
LINE
  5
266
330
6C
100
AcDbEntity
  8
Sichtbare Kanten(DIN)
100
AcDbLine
 10
279.5810972800187
 20
420.5111813398024
 30
0.0
 11
262.3636192192696
 21
420.5111813398024
 31
0.0
  0
LINE
  5
267
330
6C
100
AcDbEntity
  8
Sichtbare tangentiale Kanten(DIN)
100
AcDbLine
 10
280.0225710764481
 20
440.0111813398026
 30
0.0
 11
280.0225710764481
 21
421.0111813398024
 31
0.0
  0
LINE
  5
268
330
6C
100
AcDbEntity
  8
Sichtbare tangentiale Kanten(DIN)
100
AcDbLine
 10
262.3636192192696
 20
421.0111813398024
 30
0.0
 11
262.3636192192696
 21
440.0111813398026
 31
0.0
  0
LINE
  5
269
330
6C
100
AcDbEntity
  8
Sichtbare tangentiale Kanten(DIN)
100
AcDbLine
 10
185.6536769043583
 20
421.0111813398024
 30
0.0
 11
185.6536769043583
 21
440.0111813398026
 31
0.0
  0
LINE
  5
26A
330
6C
100
AcDbEntity
  8
Sichtbare Kanten(DIN)
100
AcDbLine
 10
175.6536769043583
 20
440.0111813398026
 30
0.0
 11
175.6536769043583
 21
421.0111813398024
 31
0.0
  0
LINE
  5
26B
330
6C
100
AcDbEntity
  8
Sichtbare tangentiale Kanten(DIN)
100
AcDbLine
 10
171.6536769043583
 20
440.0111813398026
 30
0.0
 11
171.6536769043583
 21
421.0111813398024
 31
0.0
  0
ARC
  5
26C
330
6C
100
AcDbEntity
  8
Sichtbare Kanten(DIN)
100
AcDbCircle
 10
138.7634423395366
 20
256.6664580583648
 30
0.0
 40
2.000000000000016
100
AcDbArc
 50
180.9999999999999
 51
270.0
  0
LINE
  5
26D
330
6C
100
AcDbEntity
  8
Sichtbare tangentiale Kanten(DIN)
100
AcDbLine
 10
139.0536769043102
 20
256.6315532454908
 30
0.0
 11
139.0536769043102
 21
254.6664580583648
 31
0.0
  0
LINE
  5
26E
330
6C
100
AcDbEntity
  8
Sichtbare tangentiale Kanten(DIN)
100
AcDbLine
 10
136.7637469492238
 20
256.6315532454902
 30
0.0
 11
139.0536769043102
 21
256.6315532454908
 31
0.0
  0
LINE
  5
26F
330
6C
100
AcDbEntity
  8
Sichtbare Kanten(DIN)
100
AcDbLine
 10
139.0536769043102
 20
254.6664580583648
 30
0.0
 11
138.7634423395366
 21
254.6664580583647
 31
0.0
  0
LINE
  5
270
330
6C
100
AcDbEntity
  8
Sichtbare tangentiale Kanten(DIN)
100
AcDbLine
 10
166.5536769043101
 20
256.6315532454908
 30
0.0
 11
166.5536769043101
 21
254.6664580583648
 31
0.0
  0
LINE
  5
271
330
6C
100
AcDbEntity
  8
Sichtbare tangentiale Kanten(DIN)
100
AcDbLine
 10
166.5536769043101
 20
256.6315532454908
 30
0.0
 11
139.0536769043102
 21
256.6315532454908
 31
0.0
  0
LINE
  5
272
330
6C
100
AcDbEntity
  8
Sichtbare Kanten(DIN)
100
AcDbLine
 10
139.0536769043102
 20
254.6664580583648
 30
0.0
 11
166.5536769043101
 21
254.6664580583648
 31
0.0
  0
ARC
  5
273
330
6C
100
AcDbEntity
  8
Sichtbare Kanten(DIN)
100
AcDbCircle
 10
166.8439114690838
 20
256.6664580583648
 30
0.0
 40
2.000000000000023
100
AcDbArc
 50
270.0
 51
359.0000000000002
  0
LINE
  5
274
330
6C
100
AcDbEntity
  8
Sichtbare tangentiale Kanten(DIN)
100
AcDbLine
 10
166.5536769043101
 20
256.6315532454908
 30
0.0
 11
168.8436068593966
 21
256.6315532454902
 31
0.0
  0
LINE
  5
275
330
6C
100
AcDbEntity
  8
Sichtbare Kanten(DIN)
100
AcDbLine
 10
166.8439114690838
 20
254.6664580583647
 30
0.0
 11
166.5536769043101
 21
254.6664580583648
 31
0.0
  0
LINE
  5
276
330
6C
100
AcDbEntity
  8
Sichtbare Kanten(DIN)
100
AcDbLine
 10
136.5536769043102
 20
268.6664580583648
 30
0.0
 11
136.7637469492238
 21
256.6315532454902
 31
0.0
  0
LINE
  5
277
330
6C
100
AcDbEntity
  8
Sichtbare tangentiale Kanten(DIN)
100
AcDbLine
 10
166.5536769043101
 20
268.6664580583656
 30
0.0
 11
166.5536769043101
 21
256.6315532454908
 31
0.0
  0
LINE
  5
278
330
6C
100
AcDbEntity
  8
Sichtbare Kanten(DIN)
100
AcDbLine
 10
166.5536769043101
 20
268.6664580583656
 30
0.0
 11
139.0536769043102
 21
268.6664580583656
 31
0.0
  0
LINE
  5
279
330
6C
100
AcDbEntity
  8
Sichtbare tangentiale Kanten(DIN)
100
AcDbLine
 10
139.0536769043102
 20
268.6664580583656
 30
0.0
 11
139.0536769043102
 21
256.6315532454908
 31
0.0
  0
LINE
  5
27A
330
6C
100
AcDbEntity
  8
Sichtbare Kanten(DIN)
100
AcDbLine
 10
169.0536769043102
 20
268.6664580583648
 30
0.0
 11
168.8436068593966
 21
256.6315532454902
 31
0.0
  0
LINE
  5
27B
330
6C
100
AcDbEntity
  8
Sichtbare Kanten(DIN)
100
AcDbLine
 10
166.5536769043101
 20
268.6664580583656
 30
0.0
 11
169.0536769043102
 21
268.6664580583648
 31
0.0
  0
LINE
  5
27C
330
6C
100
AcDbEntity
  8
Sichtbare Kanten(DIN)
100
AcDbLine
 10
136.5536769043102
 20
268.6664580583648
 30
0.0
 11
139.0536769043102
 21
268.6664580583656
 31
0.0
  0
LINE
  5
27D
330
6C
100
AcDbEntity
  8
Sichtbare Kanten(DIN)
100
AcDbLine
 10
156.0357277118787
 20
279.1164580583623
 30
0.0
 11
149.5716260967415
 21
279.1164580583623
 31
0.0
  0
LINE
  5
27E
330
6C
100
AcDbEntity
  8
Sichtbare Kanten(DIN)
100
AcDbLine
 10
149.3036769043102
 20
278.1164580583613
 30
0.0
 11
156.3036769043101
 21
278.1164580583613
 31
0.0
  0
LINE
  5
27F
330
6C
100
AcDbEntity
  8
Sichtbare Kanten(DIN)
100
AcDbLine
 10
156.0357277118787
 20
279.1164580583623
 30
0.0
 11
156.3036769043101
 21
278.1164580583613
 31
0.0
  0
LINE
  5
280
330
6C
100
AcDbEntity
  8
Sichtbare Kanten(DIN)
100
AcDbLine
 10
149.5716260967415
 20
279.1164580583623
 30
0.0
 11
149.3036769043101
 21
278.1164580583613
 31
0.0
  0
LINE
  5
281
330
6C
100
AcDbEntity
  8
Sichtbare Kanten(DIN)
100
AcDbLine
 10
156.3036769043101
 20
278.1164580583613
 30
0.0
 11
156.3036769043101
 21
268.6664580583624
 31
0.0
  0
LINE
  5
282
330
6C
100
AcDbEntity
  8
Sichtbare Kanten(DIN)
100
AcDbLine
 10
149.3036769043101
 20
278.1164580583613
 30
0.0
 11
149.3036769043101
 21
268.6664580583624
 31
0.0
  0
LINE
  5
283
330
6C
100
AcDbEntity
  8
Sichtbare Kanten(DIN)
100
AcDbLine
 10
162.9036769043102
 20
254.4664580583548
 30
0.0
 11
142.7036769043101
 21
254.4664580583548
 31
0.0
  0
LINE
  5
284
330
6C
100
AcDbEntity
  8
Sichtbare Kanten(DIN)
100
AcDbLine
 10
142.7036769043102
 20
254.4664580583548
 30
0.0
 11
142.7036769043102
 21
254.6664580583548
 31
0.0
  0
LINE
  5
285
330
6C
100
AcDbEntity
  8
Sichtbare Kanten(DIN)
100
AcDbLine
 10
162.9036769043102
 20
254.4664580583548
 30
0.0
 11
162.9036769043102
 21
254.6664580583548
 31
0.0
  0
ARC
  5
286
330
6C
100
AcDbEntity
  8
Sichtbare Kanten(DIN)
100
AcDbCircle
 10
293.2333708472642
 20
238.0529820282844
 30
0.0
 40
0.9999999999999896
100
AcDbArc
 50
332.0000000000155
 51
62.00000000000738
  0
ELLIPSE
  5
287
330
6C
100
AcDbEntity
  8
Sichtbare tangentiale Kanten(DIN)
100
AcDbEllipse
 10
293.2333708472642
 20
238.0529820282844
 30
0.0
 11
-0.469471562785894
 21
-0.882947592858928
 31
0.0
210
0.0
220
0.0
230
1.0
 40
0.4999999999998546
 41
1.570796326795458
 42
3.141592653589015
  0
LINE
  5
288
330
6C
100
AcDbEntity
  8
Sichtbare tangentiale Kanten(DIN)
100
AcDbLine
 10
294.116318440123
 20
237.5835104654986
 30
0.0
 11
293.6748446436935
 21
237.8182462468917
 31
0.0
  0
LINE
  5
289
330
6C
100
AcDbEntity
  8
Sichtbare Kanten(DIN)
100
AcDbLine
 10
293.70284241005
 20
238.9359296211433
 30
0.0
 11
290.1129088368156
 21
240.8447311610703
 31
0.0
  0
SPLINE
  5
28A
330
6C
100
AcDbEntity
  8
Sichtbare Kanten(DIN)
100
AcDbSpline
210
0.0
220
0.0
230
1.0
 70
     8
 71
     3
 72
    18
 73
    14
 74
     0
 42
0.0000000001
 43
0.0000000001
 40
-0.1863783732954837
 40
-0.1863783732954837
 40
-0.1863783732954837
 40
-0.1863783732954837
 40
-0.1857716468318032
 40
-0.1857716468318032
 40
-0.1444408776532551
 40
-0.1444408776532551
 40
-0.1046635269301939
 40
-0.1046635269301939
 40
-0.0619008535848262
 40
-0.0619008535848262
 40
-0.0290583738504089
 40
-0.0290583738504089
 40
0.0
 40
0.0
 40
0.0
 40
0.0
 10
290.1129088368156
 20
240.8447311610703
 30
0.0
 10
290.1116770517728
 20
240.8453861127953
 30
0.0
 10
290.1104437152004
 20
240.8460381258716
 30
0.0
 10
290.0250877358298
 20
240.8909024038093
 30
0.0
 10
289.933379370334
 20
240.9216834704821
 30
0.0
 10
289.744063533488
 20
240.9516786148761
 30
0.0
 10
289.6458555836169
 20
240.9521749049774
 30
0.0
 10
289.4377816816075
 20
240.9177073146668
 30
0.0
 10
289.3265102656003
 20
240.8798594616627
 30
0.0
 10
289.1362589294987
 20
240.7698793715157
 30
0.0
 10
289.0563675573255
 20
240.7080085488932
 30
0.0
 10
288.920145323598
 20
240.5633767577306
 30
0.0
 10
288.8641064835813
 20
240.4858632463595
 30
0.0
 10
288.8186328829694
 20
240.4003398422141
 30
0.0
  0
LINE
  5
28B
330
6C
100
AcDbEntity
  8
Sichtbare tangentiale Kanten(DIN)
100
AcDbLine
 10
288.8186328829694
 20
240.4003398422141
 30
0.0
 11
293.6748446436935
 21
237.8182462468918
 31
0.0
  0
SPLINE
  5
28C
330
6C
100
AcDbEntity
  8
Sichtbare tangentiale Kanten(DIN)
100
AcDbSpline
210
0.0
220
0.0
230
1.0
 70
     8
 71
     3
 72
    10
 73
     6
 74
     0
 42
0.0000000001
 43
0.0000000001
 40
-0.9934977341291585
 40
-0.9934977341291585
 40
-0.9934977341291585
 40
-0.9934977341291483
 40
-0.4967488670645794
 40
-0.4967488670645794
 40
0.0
 40
0.0
 40
0.0
 40
0.0
 10
288.5396347927693
 20
240.6304784214205
 30
0.0
 10
288.5396347927693
 20
240.630478421421
 30
0.0
 10
288.5625476115631
 20
240.6113285319546
 30
0.0
 10
288.6550334093751
 20
240.5346030184148
 30
0.0
 10
288.7246199607437
 20
240.4769798492376
 30
0.0
 10
288.8186328829694
 20
240.4003398422142
 30
0.0
  0
SPLINE
  5
28D
330
6C
100
AcDbEntity
  8
Sichtbare Kanten(DIN)
100
AcDbSpline
210
0.0
220
0.0
230
1.0
 70
    24
 71
     3
 72
    10
 73
     6
 74
     0
 42
0.0000000001
 43
0.0000000001
 40
0.0930757396781081
 40
0.0930757396781081
 40
0.0930757396781081
 40
0.0930757396781081
 40
0.4967488670645794
 40
0.4967488670645794
 40
0.9934977341291478
 40
0.9934977341291585
 40
0.9934977341291585
 40
0.9934977341291585
 10
290.1129088368156
 20
240.8447311610703
 30
0.0
 10
290.0360700965531
 20
240.8855870439844
 30
0.0
 10
289.9764434657878
 20
240.9172910859401
 30
0.0
 10
289.8819004450302
 20
240.9675605017738
 30
0.0
 10
289.8558438224674
 20
240.9814150537471
 30
0.0
 10
289.8558438224674
 20
240.9814150537467
 30
0.0
  0
ARC
  5
28E
330
6C
100
AcDbEntity
  8
Sichtbare Kanten(DIN)
100
AcDbCircle
 10
289.3863722596815
 20
240.0984674608877
 30
0.0
 40
1.0
100
AcDbArc
 50
62.00000000000105
 51
147.8585717134391
  0
LINE
  5
28F
330
6C
100
AcDbEntity
  8
Sichtbare Kanten(DIN)
100
AcDbLine
 10
280.0225710764
 20
211.0770268026397
 30
0.0
 11
294.116318440123
 21
237.5835104654986
 31
0.0
  0
LINE
  5
290
330
6C
100
AcDbEntity
  8
Sichtbare tangentiale Kanten(DIN)
100
AcDbLine
 10
293.6748446436935
 20
237.8182462468918
 30
0.0
 11
279.5810972799706
 21
211.3117625840329
 31
0.0
  0
LINE
  5
291
330
6C
100
AcDbEntity
  8
Sichtbare tangentiale Kanten(DIN)
100
AcDbLine
 10
280.0225710764
 20
211.0770268026397
 30
0.0
 11
279.5810972799706
 21
211.3117625840329
 31
0.0
  0
SPLINE
  5
292
330
6C
100
AcDbEntity
  8
Sichtbare tangentiale Kanten(DIN)
100
AcDbSpline
210
0.0
220
0.0
230
1.0
 70
     8
 71
     3
 72
    20
 73
    16
 74
     0
 42
0.0000000001
 43
0.0000000001
 40
6.898083088244446
 40
6.898083088244446
 40
6.898083088244446
 40
6.898083088244446
 40
7.058972939933031
 40
7.058972939933031
 40
7.316396702634768
 40
7.316396702634768
 40
7.560876173279384
 40
7.560876173279384
 40
7.989858107336579
 40
7.989858107336579
 40
8.379973876695871
 40
8.379973876695871
 40
8.602963711636411
 40
8.602963711636411
 40
8.623148195929021
 40
8.623148195929021
 40
8.623148195929021
 40
8.623148195929021
 10
162.8036769043102
 20
232.4977637427796
 30
0.0
 10
162.8036769043102
 20
232.4977637427798
 30
0.0
 10
162.7641048803134
 20
232.4660704833467
 30
0.0
 10
162.5602621910667
 20
232.3040352330826
 30
0.0
 10
162.3378541665794
 20
232.1276130700938
 30
0.0
 10
161.7447466925207
 20
231.6702144480314
 30
0.0
 10
161.3809141568094
 20
231.3942184241624
 30
0.0
 10
160.2334730916163
 20
230.561262659935
 30
0.0
 10
159.3178052395472
 20
229.9285978048081
 30
0.0
 10
157.3351750132809
 20
228.8038590613433
 30
0.0
 10
156.2520814428236
 20
228.2838451240978
 30
0.0
 10
154.4141048068794
 20
227.7856386772175
 30
0.0
 10
153.7036416280456
 20
227.6716829929116
 30
0.0
 10
152.931998623015
 20
227.6534118898888
 30
0.0
 10
152.8678054810756
 20
227.6526506760685
 30
0.0
 10
152.8036768189782
 20
227.6526506767422
 30
0.0
  0
SPLINE
  5
293
330
6C
100
AcDbEntity
  8
Sichtbare Kanten(DIN)
100
AcDbSpline
210
0.0
220
0.0
230
1.0
 70
     8
 71
     3
 72
    12
 73
     8
 74
     0
 42
0.0000000001
 43
0.0000000001
 40
-0.0007507121745731
 40
-0.0007507121745731
 40
-0.0007507121745731
 40
-0.0007507121745731
 40
0.0
 40
0.0
 40
0.0800557872443978
 40
0.0800557872443978
 40
0.1619197658068883
 40
0.1619197658068883
 40
0.1619197658068883
 40
0.1619197658068883
 10
152.8036769043101
 20
227.6526506767422
 30
0.0
 10
152.8061189711966
 20
227.6521046139858
 30
0.0
 10
152.8085612704341
 20
227.6515596006219
 30
0.0
 10
153.0714752804278
 20
227.5930075867309
 30
0.0
 10
153.3332951676124
 20
227.5472476198412
 30
0.0
 10
153.8687329964855
 20
227.4835272831943
 30
0.0
 10
154.1406302969465
 20
227.4664580583578
 30
0.0
 10
154.4129849037259
 20
227.4664580583578
 30
0.0
  0
SPLINE
  5
294
330
6C
100
AcDbEntity
  8
Sichtbare tangentiale Kanten(DIN)
100
AcDbSpline
210
0.0
220
0.0
230
1.0
 70
     8
 71
     3
 72
    18
 73
    14
 74
     0
 42
0.0000000001
 43
0.0000000001
 40
-8.461345960993567
 40
-8.461345960993567
 40
-8.461345960993567
 40
-8.461345960993567
 40
-8.379973876695871
 40
-8.379973876695871
 40
-7.989858107336579
 40
-7.989858107336579
 40
-7.560876173279384
 40
-7.560876173279384
 40
-7.316396702634768
 40
-7.316396702634768
 40
-7.058972939933031
 40
-7.058972939933031
 40
-6.898083088244842
 40
-6.898083088244446
 40
-6.898083088244446
 40
-6.898083088244446
 10
154.4129849037288
 20
227.4664580583583
 30
0.0
 10
154.678520899409
 20
227.5117241241668
 30
0.0
 10
154.9403970787469
 20
227.5672762114516
 30
0.0
 10
156.4245016697493
 20
227.9365233349198
 30
0.0
 10
157.5617499187295
 20
228.4376961874824
 30
0.0
 10
159.6435116563091
 20
229.5216835271984
 30
0.0
 10
160.6049629009816
 20
230.1314257426468
 30
0.0
 10
161.8097760194344
 20
230.9342019501993
 30
0.0
 10
162.1918001819312
 20
231.200198118131
 30
0.0
 10
162.8145630296929
 20
231.6410243263506
 30
0.0
 10
163.0480914554046
 20
231.8110543819848
 30
0.0
 10
163.2621262791135
 20
231.9672187898477
 30
0.0
 10
163.30367690431
 20
231.9977637427797
 30
0.0
 10
163.3036769043101
 20
231.9977637427796
 30
0.0
  0
LINE
  5
295
330
6C
100
AcDbEntity
  8
Sichtbare tangentiale Kanten(DIN)
100
AcDbLine
 10
142.8036769043101
 20
221.9664580583549
 30
0.0
 11
152.8036769043101
 21
221.9664580583578
 31
0.0
  0
LINE
  5
296
330
6C
100
AcDbEntity
  8
Sichtbare tangentiale Kanten(DIN)
100
AcDbLine
 10
262.3636192192214
 20
200.4664580583575
 30
0.0
 11
262.3636192192214
 21
200.9664580583577
 31
0.0
  0
ARC
  5
297
330
6C
100
AcDbEntity
  8
Sichtbare Kanten(DIN)
100
AcDbCircle
 10
262.3636192192215
 20
220.4664580583576
 30
0.0
 40
20.00000000000001
100
AcDbArc
 50
270.0
 51
332.0
  0
ARC
  5
298
330
6C
100
AcDbEntity
  8
Sichtbare tangentiale Kanten(DIN)
100
AcDbCircle
 10
262.3636192192215
 20
220.4664580583577
 30
0.0
 40
19.50000000000001
100
AcDbArc
 50
270.0
 51
332.0
  0
LINE
  5
299
330
6C
100
AcDbEntity
  8
Sichtbare tangentiale Kanten(DIN)
100
AcDbLine
 10
185.6536769043102
 20
200.4664580583576
 30
0.0
 11
185.6536769043102
 21
200.9664580583577
 31
0.0
  0
LINE
  5
29A
330
6C
100
AcDbEntity
  8
Sichtbare Kanten(DIN)
100
AcDbLine
 10
185.6536769043102
 20
200.4664580583576
 30
0.0
 11
262.3636192192214
 21
200.4664580583576
 31
0.0
  0
LINE
  5
29B
330
6C
100
AcDbEntity
  8
Sichtbare tangentiale Kanten(DIN)
100
AcDbLine
 10
262.3636192192214
 20
200.9664580583577
 30
0.0
 11
185.6536769043102
 21
200.9664580583577
 31
0.0
  0
LINE
  5
29C
330
6C
100
AcDbEntity
  8
Sichtbare tangentiale Kanten(DIN)
100
AcDbLine
 10
175.6536769043101
 20
210.4664580583576
 30
0.0
 11
176.1536769043102
 21
210.4664580583577
 31
0.0
  0
ARC
  5
29D
330
6C
100
AcDbEntity
  8
Sichtbare Kanten(DIN)
100
AcDbCircle
 10
185.6536769043102
 20
210.4664580583576
 30
0.0
 40
9.999999999999998
100
AcDbArc
 50
180.0
 51
270.0
  0
ARC
  5
29E
330
6C
100
AcDbEntity
  8
Sichtbare tangentiale Kanten(DIN)
100
AcDbCircle
 10
185.6536769043102
 20
210.4664580583577
 30
0.0
 40
9.5
100
AcDbArc
 50
180.0
 51
270.0
  0
LINE
  5
29F
330
6C
100
AcDbEntity
  8
Sichtbare tangentiale Kanten(DIN)
100
AcDbLine
 10
175.6536769043101
 20
217.4664580583576
 30
0.0
 11
176.1536769043102
 21
217.4664580583578
 31
0.0
  0
LINE
  5
2A0
330
6C
100
AcDbEntity
  8
Sichtbare Kanten(DIN)
100
AcDbLine
 10
175.6536769043101
 20
217.4664580583576
 30
0.0
 11
175.6536769043101
 21
210.4664580583576
 31
0.0
  0
LINE
  5
2A1
330
6C
100
AcDbEntity
  8
Sichtbare tangentiale Kanten(DIN)
100
AcDbLine
 10
176.1536769043102
 20
210.4664580583577
 30
0.0
 11
176.1536769043102
 21
217.4664580583578
 31
0.0
  0
LINE
  5
2A2
330
6C
100
AcDbEntity
  8
Sichtbare tangentiale Kanten(DIN)
100
AcDbLine
 10
171.6536769043101
 20
221.4664580583576
 30
0.0
 11
171.6536769043101
 21
221.9664580583578
 31
0.0
  0
ARC
  5
2A3
330
6C
100
AcDbEntity
  8
Sichtbare Kanten(DIN)
100
AcDbCircle
 10
171.6536769043101
 20
217.4664580583576
 30
0.0
 40
4.000000000000063
100
AcDbArc
 50
0.0
 51
90.0
  0
ARC
  5
2A4
330
6C
100
AcDbEntity
  8
Sichtbare tangentiale Kanten(DIN)
100
AcDbCircle
 10
171.6536769043101
 20
217.4664580583577
 30
0.0
 40
4.500000000000065
100
AcDbArc
 50
0.0
 51
89.99999999999955
  0
LINE
  5
2A5
330
6C
100
AcDbEntity
  8
Sichtbare tangentiale Kanten(DIN)
100
AcDbLine
 10
152.8036769043101
 20
221.4664580583577
 30
0.0
 11
152.8036769043101
 21
221.9664580583578
 31
0.0
  0
LINE
  5
2A6
330
6C
100
AcDbEntity
  8
Sichtbare Kanten(DIN)
100
AcDbLine
 10
152.8036769043101
 20
221.4664580583577
 30
0.0
 11
171.6536769043101
 21
221.4664580583576
 31
0.0
  0
LINE
  5
2A7
330
6C
100
AcDbEntity
  8
Sichtbare tangentiale Kanten(DIN)
100
AcDbLine
 10
171.6536769043101
 20
221.9664580583578
 30
0.0
 11
152.8036769043101
 21
221.9664580583578
 31
0.0
  0
LINE
  5
2A8
330
6C
100
AcDbEntity
  8
Sichtbare Kanten(DIN)
100
AcDbLine
 10
152.8036769043101
 20
221.4664580583576
 30
0.0
 11
143.3036769043101
 21
221.4664580583548
 31
0.0
  0
ARC
  5
2A9
330
6C
100
AcDbEntity
  8
Sichtbare Kanten(DIN)
100
AcDbCircle
 10
163.3036769043101
 20
232.4977637427796
 30
0.0
 40
0.5000000000000005
100
AcDbArc
 50
180.0
 51
270.0
  0
ARC
  5
2AA
330
6C
100
AcDbEntity
  8
Sichtbare Kanten(DIN)
100
AcDbCircle
 10
143.3036769043101
 20
221.9664580583549
 30
0.0
 40
0.5000000000000005
100
AcDbArc
 50
180.0
 51
270.0
  0
LINE
  5
2AB
330
6C
100
AcDbEntity
  8
Sichtbare tangentiale Kanten(DIN)
100
AcDbLine
 10
152.8036768189782
 20
227.6526506767422
 30
0.0
 11
152.8036769043101
 21
221.9664580583578
 31
0.0
  0
LINE
  5
2AC
330
6C
100
AcDbEntity
  8
Sichtbare Kanten(DIN)
100
AcDbLine
 10
142.8036769043101
 20
221.9664580583549
 30
0.0
 11
142.8036769043101
 21
245.4664580583548
 31
0.0
  0
LINE
  5
2AD
330
6C
100
AcDbEntity
  8
Sichtbare Kanten(DIN)
100
AcDbLine
 10
142.8036769043101
 20
250.4664580583548
 30
0.0
 11
142.8036769043101
 21
254.4664580583549
 31
0.0
  0
LINE
  5
2AE
330
6C
100
AcDbEntity
  8
Sichtbare Kanten(DIN)
100
AcDbLine
 10
162.8036769043102
 20
232.4977637427796
 30
0.0
 11
162.8036769043102
 21
254.4664580583548
 31
0.0
  0
LINE
  5
2AF
330
6C
100
AcDbEntity
  8
Sichtbare Kanten(DIN)
100
AcDbLine
 10
288.8186328829694
 20
240.4003398422141
 30
0.0
 11
274.7248855192465
 21
213.8938561793553
 31
0.0
  0
ARC
  5
2B0
330
6C
100
AcDbEntity
  8
Sichtbare Kanten(DIN)
100
AcDbCircle
 10
262.3636192192215
 20
220.4664580583577
 30
0.0
 40
13.99999999999999
100
AcDbArc
 50
270.0
 51
332.0
  0
LINE
  5
2B1
330
6C
100
AcDbEntity
  8
Sichtbare Kanten(DIN)
100
AcDbLine
 10
262.3636192192214
 20
210.9977637427796
 30
0.0
 11
262.3636192192214
 21
206.4664580583577
 31
0.0
  0
SPLINE
  5
2B2
330
6C
100
AcDbEntity
  8
Sichtbare Kanten(DIN)
100
AcDbSpline
210
0.0
220
0.0
230
1.0
 70
     8
 71
     3
 72
    20
 73
    16
 74
     0
 42
0.0000000001
 43
0.0000000001
 40
0.0
 40
0.0
 40
0.0
 40
0.0
 40
0.3040783773554148
 40
0.3040783773554148
 40
0.6156883521213096
 40
0.6156883521213096
 40
0.9408092885325649
 40
0.9408092885325649
 40
1.271254069996317
 40
1.271254069996317
 40
1.809740121327456
 40
1.809740121327456
 40
3.425188387127009
 40
3.425188387127009
 40
4.12549045509437
 40
4.12549045509437
 40
4.12549045509437
 40
4.12549045509437
 10
262.3636192192214
 20
210.9977637427796
 30
0.0
 10
263.3680594596625
 20
210.8618453898553
 30
0.0
 10
264.4068979273156
 20
210.8909575032752
 30
0.0
 10
266.4245563341711
 20
211.2664136218818
 30
0.0
 10
267.4264696172039
 20
211.624933694296
 30
0.0
 10
269.291922191069
 20
212.6372690349146
 30
0.0
 10
270.1643704113852
 20
213.325620861024
 30
0.0
 10
271.6611568203399
 20
214.9177304000742
 30
0.0
 10
272.2569430020669
 20
215.8589098442423
 30
0.0
 10
273.8391684567023
 20
218.2849982074425
 30
0.0
 10
274.8313579044288
 20
219.7808309372013
 30
0.0
 10
278.7753336463544
 20
225.7803568663916
 30
0.0
 10
281.7243455429075
 20
230.2859345435502
 30
0.0
 10
285.9901407821821
 20
236.7193272861376
 30
0.0
 10
287.2977402066279
 20
238.6539050910735
 30
0.0
 10
288.5396347927693
 20
240.6304784214205
 30
0.0
  0
LINE
  5
2B3
330
6C
100
AcDbEntity
  8
Sichtbare Kanten(DIN)
100
AcDbLine
 10
262.3636192192214
 20
206.4664580583577
 30
0.0
 11
184.2908782022275
 21
206.4664580583577
 31
0.0
  0
LINE
  5
2B4
330
6C
100
AcDbEntity
  8
Sichtbare Kanten(DIN)
100
AcDbLine
 10
262.3636192192214
 20
210.9977637427796
 30
0.0
 11
190.184982588735
 21
210.9977637427796
 31
0.0
  0
SPLINE
  5
2B5
330
6C
100
AcDbEntity
  8
Sichtbare Kanten(DIN)
100
AcDbSpline
210
0.0
220
0.0
230
1.0
 70
     8
 71
     3
 72
    16
 73
    12
 74
     0
 42
0.0000000001
 43
0.0000000001
 40
0.0
 40
0.0
 40
0.0
 40
0.0
 40
0.1260995101929236
 40
0.1260995101929236
 40
0.2114290714684836
 40
0.2114290714684836
 40
0.2913737311663937
 40
0.2913737311663937
 40
0.3538751764013237
 40
0.3538751764013237
 40
0.4265240330514596
 40
0.4265240330514596
 40
0.4265240330514596
 40
0.4265240330514596
 10
181.6536769043102
 20
209.1036593562751
 30
0.0
 10
181.6536769043102
 20
208.683327655632
 30
0.0
 10
181.711585952106
 20
208.2524979526501
 30
0.0
 10
181.9742983760535
 20
207.5992576044422
 30
0.0
 10
182.1231181978875
 20
207.3607096611819
 30
0.0
 10
182.5090711891294
 20
206.9683645987723
 30
0.0
 10
182.728149976637
 20
206.822255749164
 30
0.0
 10
183.1617437311055
 20
206.6298666968251
 30
0.0
 10
183.3625292312359
 20
206.5706642050034
 30
0.0
 10
183.8045198165798
 20
206.485653957502
 30
0.0
 10
184.0488738576324
 20
206.4664580583578
 30
0.0
 10
184.2908782022275
 20
206.4664580583578
 30
0.0
  0
LINE
  5
2B6
330
6C
100
AcDbEntity
  8
Sichtbare tangentiale Kanten(DIN)
100
AcDbLine
 10
181.6536769043102
 20
209.1036593562751
 30
0.0
 11
186.184982588735
 21
214.9977637427796
 31
0.0
  0
LINE
  5
2B7
330
6C
100
AcDbEntity
  8
Sichtbare tangentiale Kanten(DIN)
100
AcDbLine
 10
190.184982588735
 20
210.9977637427796
 30
0.0
 11
184.2908782022275
 21
206.4664580583578
 31
0.0
  0
ARC
  5
2B8
330
6C
100
AcDbEntity
  8
Sichtbare Kanten(DIN)
100
AcDbCircle
 10
190.184982588735
 20
214.9977637427796
 30
0.0
 40
4.000000000000001
100
AcDbArc
 50
180.0
 51
270.0
  0
LINE
  5
2B9
330
6C
100
AcDbEntity
  8
Sichtbare Kanten(DIN)
100
AcDbLine
 10
181.6536769043102
 20
209.1036593562751
 30
0.0
 11
181.6536769043102
 21
217.4664580583578
 31
0.0
  0
LINE
  5
2BA
330
6C
100
AcDbEntity
  8
Sichtbare Kanten(DIN)
100
AcDbLine
 10
186.184982588735
 20
214.9977637427796
 30
0.0
 11
186.184982588735
 21
217.4664580583548
 31
0.0
  0
ARC
  5
2BB
330
6C
100
AcDbEntity
  8
Sichtbare Kanten(DIN)
100
AcDbCircle
 10
171.6536769043101
 20
217.4664580583578
 30
0.0
 40
10.00000000000006
100
AcDbArc
 50
0.0
 51
90.0
  0
LINE
  5
2BC
330
6C
100
AcDbEntity
  8
Sichtbare Kanten(DIN)
100
AcDbLine
 10
171.6536769043101
 20
227.4664580583578
 30
0.0
 11
154.4129849037289
 21
227.4664580583581
 31
0.0
  0
LINE
  5
2BD
330
6C
100
AcDbEntity
  8
Sichtbare tangentiale Kanten(DIN)
100
AcDbLine
 10
181.6536769043102
 20
217.4664580583578
 30
0.0
 11
186.184982588735
 21
217.4664580583548
 31
0.0
  0
LINE
  5
2BE
330
6C
100
AcDbEntity
  8
Sichtbare tangentiale Kanten(DIN)
100
AcDbLine
 10
171.6536769043101
 20
227.4664580583579
 30
0.0
 11
171.6536769043101
 21
231.9977637427797
 31
0.0
  0
LINE
  5
2BF
330
6C
100
AcDbEntity
  8
Sichtbare Kanten(DIN)
100
AcDbLine
 10
171.6536769043101
 20
231.9977637427796
 30
0.0
 11
163.3036769043101
 21
231.9977637427796
 31
0.0
  0
ARC
  5
2C0
330
6C
100
AcDbEntity
  8
Sichtbare Kanten(DIN)
100
AcDbCircle
 10
171.6536769043101
 20
217.4664580583548
 30
0.0
 40
14.5313056844249
100
AcDbArc
 50
0.0
 51
90.0
  0
LINE
  5
2C1
330
6C
100
AcDbEntity
  8
Mittelpunktmarkierung(DIN)
  6
Continuous
100
AcDbLine
 10
162.5064333328785
 20
455.5111813398024
 30
0.0
 11
143.100920475838
 21
455.5111813398024
 31
0.0
  0
LINE
  5
2C2
330
6C
100
AcDbEntity
  8
Mittelpunktmarkierung(DIN)
  6
Continuous
100
AcDbLine
 10
152.8036769043582
 20
465.2139377683226
 30
0.0
 11
152.8036769043582
 21
445.8084249112824
 31
0.0
  0
LINE
  5
2C3
330
6C
100
AcDbEntity
  8
Mittelpunktmarkierung(DIN)
  6
Continuous
100
AcDbLine
 10
162.5536769043582
 20
405.5111813398026
 30
0.0
 11
143.0536769043582
 21
405.5111813398026
 31
0.0
  0
LINE
  5
2C4
330
6C
100
AcDbEntity
  8
Mittelpunktmarkierung(DIN)
  6
Continuous
100
AcDbLine
 10
152.8036769043582
 20
415.2611813398027
 30
0.0
 11
152.8036769043582
 21
395.7611813398027
 31
0.0
  0
LINE
  5
2C5
330
6C
100
AcDbEntity
  8
Mittelpunktmarkierung(DIN)
  6
Continuous
100
AcDbLine
 10
299.9677256627928
 20
430.5111813398026
 30
0.0
 11
137.3861791716531
 21
430.5111813398026
 31
0.0
  0
LINE
  5
2C6
330
6C
100
AcDbEntity
  8
Mittelpunktmarkierung(DIN)
  6
Continuous
100
AcDbLine
 10
152.8036769043582
 20
445.9286790725077
 30
0.0
 11
152.8036769043582
 21
415.0936836070973
 31
0.0
  0
DIMENSION
  5
2C7
330
6C
100
AcDbEntity
  8
Bemaßungen(DIN)
  6
Continuous
 62
   250
420
  4144959
370
    25
100
AcDbDimension
  2
*D17
 10
88.70300411808583
 20
394.5111813398026
 30
0.0
 11
88.70300411808578
 21
430.4911813398025
 31
0.0
 70
   160
  1
<>
 71
     5
 42
71.99999999999987
 73
     0
 74
     0
 75
     0
  3
STANDARD-DIN - Methode 2b
100
AcDbAlignedDimension
 13
139.0536769043583
 23
466.5111813398024
 33
0.0
 14
156.3036769043582
 24
394.5111813398026
 34
0.0
 50
90.0
100
AcDbRotatedDimension
1001
ACAD
1000
DSTYLE
1002
{
1070
   172
1070
     0
1070
   289
1070
     1
1070
   271
1070
     0
1070
   272
1070
     2
1070
    48
1040
0.0
1070
    47
1040
0.0
1002
}
  0
DIMENSION
  5
3AA
330
6C
100
AcDbEntity
  8
Bemaßungen(DIN)
  6
Continuous
 62
   250
420
  4144959
370
    25
100
AcDbDimension
  2
*D18
 10
112.7030041180858
 20
405.5111813398027
 30
0.0
 11
112.7030041180858
 21
430.4911813398025
 31
0.0
 70
   160
  1
<>
 71
     5
 42
49.99999999999989
 73
     0
 74
     0
 75
     0
  3
STANDARD-DIN - Methode 2b
100
AcDbAlignedDimension
 13
143.100920475838
 23
455.5111813398024
 33
0.0
 14
143.0536769043582
 24
405.5111813398026
 34
0.0
 50
90.0
100
AcDbRotatedDimension
1001
ACAD
1000
DSTYLE
1002
{
1070
   172
1070
     0
1070
   289
1070
     1
1070
   271
1070
     2
1070
   272
1070
     2
1070
    48
1040
0.0
1070
    47
1040
0.0
1002
}
  0
DIMENSION
  5
48C
330
6C
100
AcDbEntity
  8
Bemaßungen(DIN)
  6
Continuous
 62
   250
420
  4144959
370
    25
100
AcDbDimension
  2
*D19
 10
169.0536769043583
 20
488.711988460686
 30
0.0
 11
152.7636769043582
 21
488.711988460686
 31
0.0
 70
   160
  1
<>
 71
     5
 42
32.50000000000006
 73
     0
 74
     0
 75
     0
  3
STANDARD-DIN - Methode 2b
100
AcDbAlignedDimension
 13
136.5536769043582
 23
464.0111813398024
 33
0.0
 14
169.0536769043583
 24
464.0111813398024
 34
0.0
 50
180.0
100
AcDbRotatedDimension
1001
ACAD
1000
DSTYLE
1002
{
1070
   172
1070
     0
1070
   289
1070
     1
1070
   271
1070
     2
1070
   272
1070
     2
1070
    48
1040
0.0
1070
    47
1040
0.0
1002
}
  0
DIMENSION
  5
56E
330
6C
100
AcDbEntity
  8
Bemaßungen(DIN)
  6
Continuous
 62
   250
420
  4144959
370
    25
100
AcDbDimension
  2
*D20
 10
294.2333708473121
 20
370.5105085535302
 30
0.0
 11
223.5385238758352
 21
370.5105085535302
 31
0.0
 70
   160
  1
<>
 71
     5
 42
141.4296939429538
 73
     0
 74
     0
 75
     0
  3
STANDARD-DIN - Methode 2b
100
AcDbAlignedDimension
 13
152.8036769043582
 23
415.0936836070973
 33
0.0
 14
294.2333708473121
 24
421.069707543373
 34
0.0
 50
180.0
100
AcDbRotatedDimension
1001
ACAD
1000
DSTYLE
1002
{
1070
   172
1070
     0
1070
   289
1070
     1
1070
   271
1070
     0
1070
   272
1070
     2
1070
    48
1040
0.0
1070
    47
1040
0.0
1002
}
  0
DIMENSION
  5
650
330
6C
100
AcDbEntity
  8
Bemaßungen(DIN)
  6
Continuous
 62
   250
420
  4144959
370
    25
100
AcDbDimension
  2
*D21
 10
88.70300411808583
 20
254.6664580583648
 30
0.0
 11
88.70300411808578
 21
227.5664580583612
 31
0.0
 70
   160
  1
<>
 71
     5
 42
55.5
 73
     0
 74
     0
 75
     0
  3
STANDARD-DIN - Methode 2b
100
AcDbAlignedDimension
 13
185.6536769043102
 23
200.4664580583576
 33
0.0
 14
139.0536769043102
 24
254.6664580583648
 34
0.0
 50
90.0
100
AcDbRotatedDimension
1001
ACAD
1000
DSTYLE
1002
{
1070
   172
1070
     0
1070
   289
1070
     1
1070
   271
1070
     2
1070
   144
1040
1.023985239852262
1070
   272
1070
     2
1070
    48
1040
0.0
1070
    47
1040
0.0
1002
}
  0
DIMENSION
  5
73B
330
6C
100
AcDbEntity
  8
Bemaßungen(DIN)
  6
Continuous
 62
   250
420
  4144959
370
    25
100
AcDbDimension
  2
*D22
 10
88.70300411808583
 20
254.6664580583648
 30
0.0
 11
88.70300411808578
 21
261.6664580583651
 31
0.0
 70
   160
  1
<>
 71
     5
 42
14.00000000000079
 73
     0
 74
     1
 75
     1
  3
STANDARD-DIN - Methode 2b
100
AcDbAlignedDimension
 13
139.0536769043102
 23
268.6664580583656
 33
0.0
 14
139.0536769043102
 24
254.6664580583648
 34
0.0
 50
90.0
100
AcDbRotatedDimension
1001
ACAD
1000
DSTYLE
1002
{
1070
   172
1070
     0
1070
   271
1070
     2
1070
   272
1070
     2
1070
    48
1040
0.0
1070
    47
1040
0.0
1002
}
  0
DIMENSION
  5
827
330
6C
100
AcDbEntity
  8
Bemaßungen(DIN)
  6
Continuous
 62
   250
420
  4144959
370
    25
100
AcDbDimension
  2
*D23
 10
294.189675603227
 20
176.4664580583575
 30
0.0
 11
218.5166762537686
 21
176.4664580583575
 31
0.0
 70
   160
  1
<>
 71
     5
 42
151.3859986989168
 73
     0
 74
     0
 75
     0
  3
STANDARD-DIN - Methode 2b
100
AcDbAlignedDimension
 13
142.8036769043101
 23
221.9664580583549
 33
0.0
 14
294.189675603227
 24
238.3453537330073
 34
0.0
 50
180.0
100
AcDbRotatedDimension
1001
ACAD
1000
DSTYLE
1002
{
1070
   172
1070
     0
1070
   289
1070
     1
1070
   271
1070
     0
1070
   272
1070
     2
1070
    48
1040
0.0
1070
    47
1040
0.0
1002
}
  0
DIMENSION
  5
909
330
6C
100
AcDbEntity
  8
Bemaßungen(DIN)
  6
Continuous
 62
   250
420
  4144959
370
    25
100
AcDbDimension
  2
*D24
 10
245.6569912425645
 20
241.0647119845042
 30
0.0
 11
245.6569912425644
 21
247.8655850214345
 31
0.0
 70
   160
  1
<>
 71
     5
 42
13.60174607386054
 73
     0
 74
     1
 75
     1
  3
STANDARD-DIN - Methode 2b
100
AcDbAlignedDimension
 13
166.5536769043101
 23
254.6664580583648
 33
0.0
 14
289.1287455518634
 24
241.0647119845042
 34
0.0
 50
90.0
100
AcDbRotatedDimension
1001
ACAD
1000
DSTYLE
1002
{
1070
   172
1070
     0
1070
   271
1070
     0
1070
   272
1070
     2
1070
    48
1040
0.0
1070
    47
1040
0.0
1002
}
  0
LINE
  5
9F6
330
6C
100
AcDbEntity
  8
Skizziergeometrie(DIN)
100
AcDbLine
 10
142.8035796012774
 20
249.5456583705737
 30
0.0
 11
142.8035796012774
 21
243.7882562002822
 31
0.0
  0
MTEXT
  5
9F7
330
6C
100
AcDbEntity
  8
Symbole(DIN)
 62
   179
420
  2500185
100
AcDbMText
 10
340.7812433256002
 20
83.32018702853082
 30
0.0
 40
6.99999988079071
 41
27.18369007110596
 46
0.0
 71
     1
 72
     1
  1
{50057}
  7
Aktuell-DIN
 73
     1
 44
1.0
  0
LINE
  5
9F8
330
6C
100
AcDbEntity
  8
Mittellinie(DIN)
  6
Continuous
100
AcDbLine
 10
152.8036282527939
 20
287.3677861460009
 30
0.0
 11
152.8036282527938
 21
216.0715073811139
 31
0.0
  0
DIMENSION
  5
9F9
330
6C
100
AcDbEntity
  8
Bemaßungen(DIN)
  6
Continuous
 62
   250
420
  4144959
370
    25
100
AcDbDimension
  2
*D25
 10
318.1163184401712
 20
420.5111813398024
 30
0.0
 11
318.1163184401711
 21
430.5311813398025
 31
0.0
 70
   160
  1
<>
 71
     5
 42
20.0
 73
     0
 74
     0
 75
     0
  3
STANDARD-DIN - Methode 2b
100
AcDbAlignedDimension
 13
293.6748446437416
 23
440.5111813398026
 33
0.0
 14
293.6748446437416
 24
420.5111813398024
 34
0.0
 50
90.0
100
AcDbRotatedDimension
1001
ACAD
1000
DSTYLE
1002
{
1070
   172
1070
     0
1070
   289
1070
     1
1070
   271
1070
     2
1070
   272
1070
     2
1070
    48
1040
0.0
1070
    47
1040
0.0
1002
}
  0
DIMENSION
  5
ADB
330
6C
100
AcDbEntity
  8
Bemaßungen(DIN)
  6
Continuous
 62
   250
420
  4144959
370
    25
100
AcDbDimension
  2
*D26
 10
318.1163184401711
 20
241.0647119845042
 30
0.0
 11
318.1163184401711
 21
220.7655850214309
 31
0.0
 70
   160
  1
<>
 71
     5
 42
40.5982539261466
 73
     0
 74
     0
 75
     0
  3
STANDARD-DIN - Methode 2b
100
AcDbAlignedDimension
 13
262.3636192192215
 23
200.4664580583576
 33
0.0
 14
289.1287455518634
 24
241.0647119845042
 34
0.0
 50
270.0
100
AcDbRotatedDimension
1001
ACAD
1000
DSTYLE
1002
{
1070
   172
1070
     0
1070
   289
1070
     1
1070
   271
1070
     2
1070
   272
1070
     2
1070
    48
1040
0.0
1070
    47
1040
0.0
1002
}
  0
DIMENSION
  5
BBD
330
6C
100
AcDbEntity
  8
Bemaßungen(DIN)
  6
Continuous
 62
   250
420
  4144959
370
    25
100
AcDbDimension
  2
*D27
 10
112.7030041180858
 20
254.6664580583648
 30
0.0
 11
112.7030041180858
 21
238.0664580583612
 31
0.0
 70
   160
  1
<>
 71
     5
 42
33.20000000000713
 73
     0
 74
     0
 75
     0
  3
STANDARD-DIN - Methode 2b
100
AcDbAlignedDimension
 13
152.8036769043102
 23
221.4664580583577
 33
0.0
 14
139.0536769043102
 24
254.6664580583648
 34
0.0
 50
90.0
100
AcDbRotatedDimension
1001
ACAD
1000
DSTYLE
1002
{
1070
   172
1070
     0
1070
   289
1070
     1
1070
   271
1070
     0
1070
   272
1070
     2
1070
    48
1040
0.0
1070
    47
1040
0.0
1002
}
  0
ENDSEC
  0
SECTION
  2
OBJECTS
  0
DICTIONARY
  5
C
330
0
100
AcDbDictionary
281
     1
  3
ACAD_CIP_PREVIOUS_PRODUCT_INFO
350
C9F
  3
ACAD_COLOR
350
63
  3
ACAD_GROUP
350
D
  3
ACAD_LAYOUT
350
62
  3
ACAD_MATERIAL
350
10
  3
ACAD_MLEADERSTYLE
350
66
  3
ACAD_MLINESTYLE
350
5F
  3
ACAD_PLOTSETTINGS
350
61
  3
ACAD_PLOTSTYLENAME
350
E
  3
ACAD_SCALELIST
350
42
  3
ACAD_TABLESTYLE
350
64
  3
ACAD_VISUALSTYLE
350
29
  3
ACDB_RECOMPOSE_DATA
350
CF9
  3
AcDbVariableDictionary
350
CA0
  0
DICTIONARY
  5
CAA
330
193
100
AcDbDictionary
280
     1
281
     1
  3
ACAD_MLATT
360
CF2
  3
ACAD_XREC_ROUNDTRIP
360
CF1
  0
DICTIONARY
  5
CAD
330
196
100
AcDbDictionary
280
     1
281
     1
  3
ACAD_MLATT
360
CF4
  3
ACAD_XREC_ROUNDTRIP
360
CF3
  0
DICTIONARY
  5
CB0
330
197
100
AcDbDictionary
280
     1
281
     1
  3
ACAD_MLATT
360
CF6
  3
ACAD_XREC_ROUNDTRIP
360
CF5
  0
DICTIONARY
  5
CB3
330
198
100
AcDbDictionary
280
     1
281
     1
  3
ACAD_MLATT
360
CF8
  3
ACAD_XREC_ROUNDTRIP
360
CF7
  0
XRECORD
  5
C9F
102
{ACAD_REACTORS
330
C
102
}
330
C
100
AcDbXrecord
280
     1
300
INVNTOR
300
2012
300
PDSP_F_S
  0
DICTIONARY
  5
63
102
{ACAD_REACTORS
330
C
102
}
330
C
100
AcDbDictionary
281
     1
  0
DICTIONARY
  5
D
102
{ACAD_REACTORS
330
C
102
}
330
C
100
AcDbDictionary
281
     1
  0
DICTIONARY
  5
62
102
{ACAD_REACTORS
330
C
102
}
330
C
100
AcDbDictionary
281
     1
  3
Layout1
350
6B
  3
Layout2
350
73
  3
Model
350
6F
  0
DICTIONARY
  5
10
102
{ACAD_REACTORS
330
C
102
}
330
C
100
AcDbDictionary
281
     1
  3
ByBlock
350
19
  3
ByLayer
350
11
  3
Global
350
21
  0
DICTIONARY
  5
66
102
{ACAD_REACTORS
330
C
102
}
330
C
100
AcDbDictionary
281
     1
  3
Standard
350
67
  0
DICTIONARY
  5
5F
102
{ACAD_REACTORS
330
C
102
}
330
C
100
AcDbDictionary
281
     1
  3
Standard
350
60
  0
DICTIONARY
  5
61
102
{ACAD_REACTORS
330
C
102
}
330
C
100
AcDbDictionary
281
     1
  0
ACDBDICTIONARYWDFLT
  5
E
102
{ACAD_REACTORS
330
C
102
}
330
C
100
AcDbDictionary
281
     1
  3
Normal
350
F
100
AcDbDictionaryWithDefault
340
F
  0
DICTIONARY
  5
42
102
{ACAD_REACTORS
330
C
102
}
330
C
100
AcDbDictionary
281
     1
  3
A0
350
43
  3
A1
350
44
  3
A2
350
45
  3
A3
350
46
  3
A4
350
47
  3
A5
350
48
  3
A6
350
49
  3
A7
350
4A
  3
A8
350
4B
  3
A9
350
4C
  3
B0
350
4D
  3
B1
350
4E
  3
B2
350
4F
  3
B3
350
50
  3
B4
350
51
  3
B5
350
52
  3
B6
350
53
  0
DICTIONARY
  5
64
102
{ACAD_REACTORS
330
C
102
}
330
C
100
AcDbDictionary
281
     1
  3
Standard
350
65
  0
DICTIONARY
  5
29
102
{ACAD_REACTORS
330
C
102
}
330
C
100
AcDbDictionary
281
     1
  3
2dWireframe
350
2F
  3
Basic
350
2E
  3
Brighten
350
35
  3
ColorChange
350
39
  3
Conceptual
350
32
  3
Dim
350
34
  3
EdgeColorOff
350
41
  3
Facepattern
350
38
  3
Flat
350
2A
  3
FlatWithEdges
350
2B
  3
Gouraud
350
2C
  3
GouraudWithEdges
350
2D
  3
Hidden
350
31
  3
JitterOff
350
3F
  3
Linepattern
350
37
  3
OverhangOff
350
40
  3
Realistic
350
33
  3
Shaded
350
3E
  3
Shaded with edges
350
3D
  3
Shades of Gray
350
3A
  3
Sketchy
350
3B
  3
Thicken
350
36
  3
Wireframe
350
30
  3
X-Ray
350
3C
  0
XRECORD
  5
CF9
102
{ACAD_REACTORS
330
C
102
}
330
C
100
AcDbXrecord
280
     1
 90
        1
330
65
330
193
330
196
330
197
330
198
  0
DICTIONARY
  5
CA0
102
{ACAD_REACTORS
330
C
102
}
330
C
100
AcDbDictionary
281
     1
  3
CANNOSCALE
350
CA3
  3
CMLEADERSTYLE
350
CA2
  3
CTABLESTYLE
350
CA1
  3
XCLIPFRAME
350
CEB
  0
XRECORD
  5
CF2
102
{ACAD_REACTORS
330
CAA
102
}
330
CAA
100
AcDbXrecord
280
     1
 70
     4
 70
     0
 70
     0
 40
1.0
  2
Innenkante_obere_Grenze
  1
Embedded Object
 10
28.19096644559973
 20
16.62519294726898
 30
0.0
 40
3.499999940395355
 41
0.0
 46
0.0
 71
     1
 72
     5
  1
\W0.9000;-1
  7
Textstil122
 73
     1
 44
1.0
  0
XRECORD
  5
CF1
102
{ACAD_REACTORS
330
CAA
102
}
330
CAA
100
AcDbXrecord
280
     1
102
ACAD_MATT_HEIGHT
140
3.499999940395355
  0
XRECORD
  5
CF4
102
{ACAD_REACTORS
330
CAD
102
}
330
CAD
100
AcDbXrecord
280
     1
 70
     4
 70
     0
 70
     0
 40
1.0
  2
Innenkante_untere_Grenze
  1
Embedded Object
 10
28.19096644559973
 20
11.62519294726898
 30
0.0
 40
3.499999940395355
 41
0.0
 46
0.0
 71
     1
 72
     5
  1
\W0.9000;-0.25
  7
Textstil122
 73
     1
 44
1.0
  0
XRECORD
  5
CF3
102
{ACAD_REACTORS
330
CAD
102
}
330
CAD
100
AcDbXrecord
280
     1
102
ACAD_MATT_HEIGHT
140
3.499999940395355
  0
XRECORD
  5
CF6
102
{ACAD_REACTORS
330
CB0
102
}
330
CB0
100
AcDbXrecord
280
     1
 70
     4
 70
     0
 70
     0
 40
1.0
  2
Aussenkante_obere_Grenze
  1
Embedded Object
 10
6.721339289383169
 20
16.62519294726898
 30
0.0
 40
3.499999940395355
 41
7.696662545204162
 46
0.0
 71
     1
 72
     5
  1
\W0.9000;+0.3
  7
Textstil122
 73
     1
 44
1.0
  0
XRECORD
  5
CF5
102
{ACAD_REACTORS
330
CB0
102
}
330
CB0
100
AcDbXrecord
280
     1
102
ACAD_MATT_HEIGHT
140
3.499999940395355
  0
XRECORD
  5
CF8
102
{ACAD_REACTORS
330
CB3
102
}
330
CB3
100
AcDbXrecord
280
     1
 70
     4
 70
     0
 70
     0
 40
1.0
  2
Aussenkante_untere_Grenze
  1
Embedded Object
 10
6.721339289383169
 20
11.62519294726898
 30
0.0
 40
3.499999940395355
 41
0.0
 46
0.0
 71
     1
 72
     5
  1
\W0.9000;+0.1
  7
Textstil122
 73
     1
 44
1.0
  0
XRECORD
  5
CF7
102
{ACAD_REACTORS
330
CB3
102
}
330
CB3
100
AcDbXrecord
280
     1
102
ACAD_MATT_HEIGHT
140
3.499999940395355
  0
LAYOUT
  5
6B
102
{ACAD_REACTORS
330
62
102
}
330
62
100
AcDbPlotSettings
  1

  2

  4

  6

 40
0.0
 41
0.0
 42
0.0
 43
0.0
 44
0.0
 45
0.0
 46
0.0
 47
0.0
 48
0.0
 49
0.0
140
0.0
141
0.0
142
1.0
143
1.0
 70
   688
 72
     0
 73
     0
 74
     5
  7

 75
    16
147
1.0
 76
     0
 77
     2
 78
   300
148
0.0
149
0.0
100
AcDbLayout
  1
Layout1
 70
     1
 71
     1
 10
0.0
 20
0.0
 11
12.0
 21
9.0
 12
0.0
 22
0.0
 32
0.0
 14
0.0
 24
0.0
 34
0.0
 15
0.0
 25
0.0
 35
0.0
146
0.0
 13
0.0
 23
0.0
 33
0.0
 16
1.0
 26
0.0
 36
0.0
 17
0.0
 27
1.0
 37
0.0
 76
     0
330
68
  0
LAYOUT
  5
73
102
{ACAD_REACTORS
330
62
102
}
330
62
100
AcDbPlotSettings
  1

  2

  4

  6

 40
0.0
 41
0.0
 42
0.0
 43
0.0
 44
0.0
 45
0.0
 46
0.0
 47
0.0
 48
0.0
 49
0.0
140
0.0
141
0.0
142
1.0
143
1.0
 70
   688
 72
     0
 73
     0
 74
     5
  7

 75
    16
147
1.0
 76
     0
 77
     2
 78
   300
148
0.0
149
0.0
100
AcDbLayout
  1
Layout2
 70
     1
 71
     2
 10
0.0
 20
0.0
 11
12.0
 21
9.0
 12
0.0
 22
0.0
 32
0.0
 14
0.0
 24
0.0
 34
0.0
 15
0.0
 25
0.0
 35
0.0
146
0.0
 13
0.0
 23
0.0
 33
0.0
 16
1.0
 26
0.0
 36
0.0
 17
0.0
 27
1.0
 37
0.0
 76
     0
330
70
  0
LAYOUT
  5
6F
102
{ACAD_REACTORS
330
62
102
}
330
62
100
AcDbPlotSettings
  1

  2

  4

  6

 40
0.0
 41
0.0
 42
0.0
 43
0.0
 44
0.0
 45
0.0
 46
0.0
 47
0.0
 48
0.0
 49
0.0
140
0.0
141
0.0
142
1.0
143
1.0
 70
  1712
 72
     0
 73
     0
 74
     0
  7

 75
     0
147
1.0
 76
     0
 77
     2
 78
   300
148
0.0
149
0.0
100
AcDbLayout
  1
Model
 70
     1
 71
     0
 10
0.0
 20
0.0
 11
12.0
 21
9.0
 12
0.0
 22
0.0
 32
0.0
 14
0.0
 24
0.0
 34
0.0
 15
0.0
 25
0.0
 35
0.0
146
0.0
 13
0.0
 23
0.0
 33
0.0
 16
1.0
 26
0.0
 36
0.0
 17
0.0
 27
1.0
 37
0.0
 76
     0
330
6C
  0
MATERIAL
  5
19
102
{ACAD_XDICTIONARY
360
1A
102
}
102
{ACAD_REACTORS
330
10
102
}
330
10
100
AcDbMaterial
  1
ByBlock
 72
     0
 43
0.0208333333333333
 43
0.0
 43
0.0
 43
0.0
 43
0.0
 43
0.0208333333333333
 43
0.0
 43
0.0
 43
0.0
 43
0.0
 43
1.0
 43
0.0
 43
0.0
 43
0.0
 43
0.0
 43
1.0
 77
     0
 47
0.0208333333333333
 47
0.0
 47
0.0
 47
0.0
 47
0.0
 47
0.0208333333333333
 47
0.0
 47
0.0
 47
0.0
 47
0.0
 47
1.0
 47
0.0
 47
0.0
 47
0.0
 47
0.0
 47
1.0
171
     0
 49
0.0208333333333333
 49
0.0
 49
0.0
 49
0.0
 49
0.0
 49
0.0208333333333333
 49
0.0
 49
0.0
 49
0.0
 49
0.0
 49
1.0
 49
0.0
 49
0.0
 49
0.0
 49
0.0
 49
1.0
175
     0
142
0.0208333333333333
142
0.0
142
0.0
142
0.0
142
0.0
142
0.0208333333333333
142
0.0
142
0.0
142
0.0
142
0.0
142
1.0
142
0.0
142
0.0
142
0.0
142
0.0
142
1.0
179
     0
144
0.0208333333333333
144
0.0
144
0.0
144
0.0
144
0.0
144
0.0208333333333333
144
0.0
144
0.0
144
0.0
144
0.0
144
1.0
144
0.0
144
0.0
144
0.0
144
0.0
144
1.0
147
0.0208333333333333
147
0.0
147
0.0
147
0.0
147
0.0
147
0.0208333333333333
147
0.0
147
0.0
147
0.0
147
0.0
147
1.0
147
0.0
147
0.0
147
0.0
147
0.0
147
1.0
  0
MATERIAL
  5
11
102
{ACAD_XDICTIONARY
360
12
102
}
102
{ACAD_REACTORS
330
10
102
}
330
10
100
AcDbMaterial
  1
ByLayer
 72
     0
 43
0.0208333333333333
 43
0.0
 43
0.0
 43
0.0
 43
0.0
 43
0.0208333333333333
 43
0.0
 43
0.0
 43
0.0
 43
0.0
 43
1.0
 43
0.0
 43
0.0
 43
0.0
 43
0.0
 43
1.0
 77
     0
 47
0.0208333333333333
 47
0.0
 47
0.0
 47
0.0
 47
0.0
 47
0.0208333333333333
 47
0.0
 47
0.0
 47
0.0
 47
0.0
 47
1.0
 47
0.0
 47
0.0
 47
0.0
 47
0.0
 47
1.0
171
     0
 49
0.0208333333333333
 49
0.0
 49
0.0
 49
0.0
 49
0.0
 49
0.0208333333333333
 49
0.0
 49
0.0
 49
0.0
 49
0.0
 49
1.0
 49
0.0
 49
0.0
 49
0.0
 49
0.0
 49
1.0
175
     0
142
0.0208333333333333
142
0.0
142
0.0
142
0.0
142
0.0
142
0.0208333333333333
142
0.0
142
0.0
142
0.0
142
0.0
142
1.0
142
0.0
142
0.0
142
0.0
142
0.0
142
1.0
179
     0
144
0.0208333333333333
144
0.0
144
0.0
144
0.0
144
0.0
144
0.0208333333333333
144
0.0
144
0.0
144
0.0
144
0.0
144
1.0
144
0.0
144
0.0
144
0.0
144
0.0
144
1.0
147
0.0208333333333333
147
0.0
147
0.0
147
0.0
147
0.0
147
0.0208333333333333
147
0.0
147
0.0
147
0.0
147
0.0
147
1.0
147
0.0
147
0.0
147
0.0
147
0.0
147
1.0
  0
MATERIAL
  5
21
102
{ACAD_XDICTIONARY
360
22
102
}
102
{ACAD_REACTORS
330
10
102
}
330
10
100
AcDbMaterial
  1
Global
 72
     0
 43
0.0208333333333333
 43
0.0
 43
0.0
 43
0.0
 43
0.0
 43
0.0208333333333333
 43
0.0
 43
0.0
 43
0.0
 43
0.0
 43
1.0
 43
0.0
 43
0.0
 43
0.0
 43
0.0
 43
1.0
 77
     0
 47
0.0208333333333333
 47
0.0
 47
0.0
 47
0.0
 47
0.0
 47
0.0208333333333333
 47
0.0
 47
0.0
 47
0.0
 47
0.0
 47
1.0
 47
0.0
 47
0.0
 47
0.0
 47
0.0
 47
1.0
171
     0
 49
0.0208333333333333
 49
0.0
 49
0.0
 49
0.0
 49
0.0
 49
0.0208333333333333
 49
0.0
 49
0.0
 49
0.0
 49
0.0
 49
1.0
 49
0.0
 49
0.0
 49
0.0
 49
0.0
 49
1.0
175
     0
142
0.0208333333333333
142
0.0
142
0.0
142
0.0
142
0.0
142
0.0208333333333333
142
0.0
142
0.0
142
0.0
142
0.0
142
1.0
142
0.0
142
0.0
142
0.0
142
0.0
142
1.0
179
     0
144
0.0208333333333333
144
0.0
144
0.0
144
0.0
144
0.0
144
0.0208333333333333
144
0.0
144
0.0
144
0.0
144
0.0
144
1.0
144
0.0
144
0.0
144
0.0
144
0.0
144
1.0
147
0.0208333333333333
147
0.0
147
0.0
147
0.0
147
0.0
147
0.0208333333333333
147
0.0
147
0.0
147
0.0
147
0.0
147
1.0
147
0.0
147
0.0
147
0.0
147
0.0
147
1.0
  0
MLEADERSTYLE
  5
67
102
{ACAD_XDICTIONARY
360
CED
102
}
102
{ACAD_REACTORS
330
66
102
}
330
66
100
AcDbMLeaderStyle
170
     2
171
     1
172
     0
 90
        2
 40
0.0
 41
0.0
173
     1
 91
-1056964608
340
5B
 92
       -2
290
     1
 42
0.09
291
     1
 43
0.36
  3
Standard
 44
0.18
300

342
55
174
     1
178
     6
175
     1
176
     0
 93
-1056964608
 45
0.18
292
     0
297
     0
 46
0.18
 94
-1056964608
 47
1.0
 49
1.0
140
1.0
293
     1
141
0.0
294
     1
177
     0
142
1.0
295
     0
296
     0
143
0.125
1001
ACAD_MLEADERVER
1070
     2
  0
MLINESTYLE
  5
60
102
{ACAD_REACTORS
330
5F
102
}
330
5F
100
AcDbMlineStyle
  2
STANDARD
 70
     0
  3

 62
   256
 51
90.0
 52
90.0
 71
     2
 49
0.5
 62
   256
  6
BYLAYER
 49
-0.5
 62
   256
  6
BYLAYER
  0
ACDBPLACEHOLDER
  5
F
102
{ACAD_REACTORS
330
E
102
}
330
E
  0
SCALE
  5
43
102
{ACAD_REACTORS
330
42
102
}
330
42
100
AcDbScale
 70
     0
300
1:1
140
1.0
141
1.0
290
     1
  0
SCALE
  5
44
102
{ACAD_REACTORS
330
42
102
}
330
42
100
AcDbScale
 70
     0
300
1/128" = 1'-0"
140
0.0078125
141
12.0
290
     0
  0
SCALE
  5
45
102
{ACAD_REACTORS
330
42
102
}
330
42
100
AcDbScale
 70
     0
300
1/64" = 1'-0"
140
0.015625
141
12.0
290
     0
  0
SCALE
  5
46
102
{ACAD_REACTORS
330
42
102
}
330
42
100
AcDbScale
 70
     0
300
1/32" = 1'-0"
140
0.03125
141
12.0
290
     0
  0
SCALE
  5
47
102
{ACAD_REACTORS
330
42
102
}
330
42
100
AcDbScale
 70
     0
300
1/16" = 1'-0"
140
0.0625
141
12.0
290
     0
  0
SCALE
  5
48
102
{ACAD_REACTORS
330
42
102
}
330
42
100
AcDbScale
 70
     0
300
3/32" = 1'-0"
140
0.09375
141
12.0
290
     0
  0
SCALE
  5
49
102
{ACAD_REACTORS
330
42
102
}
330
42
100
AcDbScale
 70
     0
300
1/8" = 1'-0"
140
0.125
141
12.0
290
     0
  0
SCALE
  5
4A
102
{ACAD_REACTORS
330
42
102
}
330
42
100
AcDbScale
 70
     0
300
3/16" = 1'-0"
140
0.1875
141
12.0
290
     0
  0
SCALE
  5
4B
102
{ACAD_REACTORS
330
42
102
}
330
42
100
AcDbScale
 70
     0
300
1/4" = 1'-0"
140
0.25
141
12.0
290
     0
  0
SCALE
  5
4C
102
{ACAD_REACTORS
330
42
102
}
330
42
100
AcDbScale
 70
     0
300
3/8" = 1'-0"
140
0.375
141
12.0
290
     0
  0
SCALE
  5
4D
102
{ACAD_REACTORS
330
42
102
}
330
42
100
AcDbScale
 70
     0
300
1/2" = 1'-0"
140
0.5
141
12.0
290
     0
  0
SCALE
  5
4E
102
{ACAD_REACTORS
330
42
102
}
330
42
100
AcDbScale
 70
     0
300
3/4" = 1'-0"
140
0.75
141
12.0
290
     0
  0
SCALE
  5
4F
102
{ACAD_REACTORS
330
42
102
}
330
42
100
AcDbScale
 70
     0
300
1" = 1'-0"
140
1.0
141
12.0
290
     0
  0
SCALE
  5
50
102
{ACAD_REACTORS
330
42
102
}
330
42
100
AcDbScale
 70
     0
300
1-1/2" = 1'-0"
140
1.5
141
12.0
290
     0
  0
SCALE
  5
51
102
{ACAD_REACTORS
330
42
102
}
330
42
100
AcDbScale
 70
     0
300
3" = 1'-0"
140
3.0
141
12.0
290
     0
  0
SCALE
  5
52
102
{ACAD_REACTORS
330
42
102
}
330
42
100
AcDbScale
 70
     0
300
6" = 1'-0"
140
6.0
141
12.0
290
     0
  0
SCALE
  5
53
102
{ACAD_REACTORS
330
42
102
}
330
42
100
AcDbScale
 70
     0
300
1'-0" = 1'-0"
140
12.0
141
12.0
290
     0
  0
TABLESTYLE
  5
65
102
{ACAD_XDICTIONARY
360
CA5
102
}
102
{ACAD_REACTORS
330
64
102
}
330
64
100
AcDbTableStyle
  3
Standard
 70
     0
 71
     0
 40
0.06
 41
0.06
280
     0
281
     0
  7
Standard
140
0.18
170
     2
 62
     0
 63
     7
283
     0
 90
      512
 91
        0
  1

274
    -2
284
     1
 64
     0
275
    -2
285
     1
 65
     0
276
    -2
286
     1
 66
     0
277
    -2
287
     1
 67
     0
278
    -2
288
     1
 68
     0
279
    -2
289
     1
 69
     0
  7
Standard
140
0.25
170
     5
 62
     0
 63
     7
283
     0
 90
      512
 91
        0
  1

274
    -2
284
     1
 64
     0
275
    -2
285
     1
 65
     0
276
    -2
286
     1
 66
     0
277
    -2
287
     1
 67
     0
278
    -2
288
     1
 68
     0
279
    -2
289
     1
 69
     0
  7
Standard
140
0.18
170
     5
 62
     0
 63
     7
283
     0
 90
      512
 91
        0
  1

274
    -2
284
     1
 64
     0
275
    -2
285
     1
 65
     0
276
    -2
286
     1
 66
     0
277
    -2
287
     1
 67
     0
278
    -2
288
     1
 68
     0
279
    -2
289
     1
 69
     0
  0
VISUALSTYLE
  5
2F
102
{ACAD_XDICTIONARY
360
D04
102
}
102
{ACAD_REACTORS
330
29
102
}
330
29
100
AcDbVisualStyle
  2

 70
     4
 71
     0
 72
     2
 73
     0
 90
        0
 40
-0.6
 41
-30.0
 62
     5
 63
     7
421
 16777215
 74
     1
 91
        4
 64
     7
 65
   257
 75
     1
175
     1
 42
1.0
 92
        0
 66
   257
 43
1.0
 76
     1
 77
     6
 78
     2
 67
     7
 79
     5
170
     0
171
     0
290
     0
174
     0
 93
        1
 44
0.0
173
     0
291
     0
 45
0.0
1001
ACAD
1000
AcDbSavedByObjectVersion
1070
     0
  0
VISUALSTYLE
  5
2E
102
{ACAD_XDICTIONARY
360
D02
102
}
102
{ACAD_REACTORS
330
29
102
}
330
29
100
AcDbVisualStyle
  2

 70
     7
 71
     1
 72
     0
 73
     1
 90
        0
 40
-0.6
 41
-30.0
 62
     5
 63
     7
421
 16777215
 74
     0
 91
        4
 64
     7
 65
   257
 75
     1
175
     1
 42
1.0
 92
        8
 66
     7
 43
1.0
 76
     1
 77
     6
 78
     2
 67
     7
 79
     5
170
     0
171
     0
290
     0
174
     0
 93
        1
 44
0.0
173
     0
291
     1
 45
0.0
1001
ACAD
1000
AcDbSavedByObjectVersion
1070
     0
  0
VISUALSTYLE
  5
35
102
{ACAD_XDICTIONARY
360
D10
102
}
102
{ACAD_REACTORS
330
29
102
}
330
29
100
AcDbVisualStyle
  2

 70
    12
 71
     2
 72
     2
 73
     0
 90
        0
 40
-0.6
 41
-30.0
 62
     5
 63
     7
421
 16777215
 74
     1
 91
        4
 64
     7
 65
   257
 75
     1
175
     1
 42
1.0
 92
        8
 66
     7
 43
1.0
 76
     1
 77
     6
 78
     2
 67
     7
 79
     5
170
     0
171
     0
290
     0
174
     0
 93
        1
 44
50.0
173
     0
291
     1
 45
0.0
1001
ACAD
1000
AcDbSavedByObjectVersion
1070
     0
  0
VISUALSTYLE
  5
39
102
{ACAD_XDICTIONARY
360
D18
102
}
102
{ACAD_REACTORS
330
29
102
}
330
29
100
AcDbVisualStyle
  2

 70
    16
 71
     2
 72
     2
 73
     3
 90
        0
 40
-0.6
 41
-30.0
 62
     5
 63
     8
421
  8421504
 74
     1
 91
        4
 64
     7
 65
   257
 75
     1
175
     1
 42
1.0
 92
        8
 66
     8
424
  8421504
 43
1.0
 76
     1
 77
     6
 78
     2
 67
     7
 79
     5
170
     0
171
     0
290
     0
174
     0
 93
        1
 44
0.0
173
     0
291
     1
 45
0.0
1001
ACAD
1000
AcDbSavedByObjectVersion
1070
     0
  0
VISUALSTYLE
  5
32
102
{ACAD_XDICTIONARY
360
D0A
102
}
102
{ACAD_REACTORS
330
29
102
}
330
29
100
AcDbVisualStyle
  2

 70
     9
 71
     3
 72
     2
 73
     0
 90
        0
 40
-0.6
 41
-30.0
 62
     5
 63
     7
421
 16777215
 74
     2
 91
        2
 64
     7
 65
   257
 75
     1
175
     1
 42
179.0
 92
        8
 66
     7
 43
1.0
 76
     1
 77
     6
 78
     2
 67
     7
 79
     3
170
     0
171
     0
290
     0
174
     0
 93
        1
 44
0.0
173
     0
291
     0
 45
0.0
1001
ACAD
1000
AcDbSavedByObjectVersion
1070
     0
  0
VISUALSTYLE
  5
34
102
{ACAD_XDICTIONARY
360
D0E
102
}
102
{ACAD_REACTORS
330
29
102
}
330
29
100
AcDbVisualStyle
  2

 70
    11
 71
     2
 72
     2
 73
     0
 90
        0
 40
-0.6
 41
-30.0
 62
     5
 63
     7
421
 16777215
 74
     1
 91
        4
 64
     7
 65
   257
 75
     1
175
     1
 42
1.0
 92
        8
 66
     7
 43
1.0
 76
     1
 77
     6
 78
     2
 67
     7
 79
     5
170
     0
171
     0
290
     0
174
     0
 93
        1
 44
-50.0
173
     0
291
     1
 45
0.0
1001
ACAD
1000
AcDbSavedByObjectVersion
1070
     0
  0
VISUALSTYLE
  5
41
102
{ACAD_XDICTIONARY
360
D28
102
}
102
{ACAD_REACTORS
330
29
102
}
330
29
100
AcDbVisualStyle
  2

 70
    22
 71
     2
 72
     2
 73
     0
 90
        0
 40
-0.6
 41
-30.0
 62
     5
 63
     7
421
 16777215
 74
     1
 91
        4
 64
     7
 65
   257
 75
     1
175
     1
 42
1.0
 92
        8
 66
     7
 43
1.0
 76
     1
 77
     6
 78
     2
 67
     7
 79
     5
170
     0
171
     0
290
     0
174
     0
 93
        1
 44
0.0
173
     0
291
     1
 45
0.0
1001
ACAD
1000
AcDbSavedByObjectVersion
1070
     0
  0
VISUALSTYLE
  5
38
102
{ACAD_XDICTIONARY
360
D16
102
}
102
{ACAD_REACTORS
330
29
102
}
330
29
100
AcDbVisualStyle
  2

 70
    15
 71
     2
 72
     2
 73
     0
 90
        0
 40
-0.6
 41
-30.0
 62
     5
 63
     7
421
 16777215
 74
     1
 91
        4
 64
     7
 65
   257
 75
     1
175
     1
 42
1.0
 92
        8
 66
     7
 43
1.0
 76
     1
 77
     6
 78
     2
 67
     7
 79
     5
170
     0
171
     0
290
     0
174
     0
 93
        1
 44
0.0
173
     0
291
     1
 45
0.0
1001
ACAD
1000
AcDbSavedByObjectVersion
1070
     0
  0
VISUALSTYLE
  5
2A
102
{ACAD_XDICTIONARY
360
CFA
102
}
102
{ACAD_REACTORS
330
29
102
}
330
29
100
AcDbVisualStyle
  2

 70
     0
 71
     2
 72
     1
 73
     1
 90
        2
 40
-0.6
 41
30.0
 62
     5
 63
     7
421
 16777215
 74
     0
 91
        0
 64
     7
 65
   257
 75
     1
175
     1
 42
1.0
 92
        8
 66
     7
 43
1.0
 76
     1
 77
     6
 78
     2
 67
     7
 79
     5
170
     0
171
     0
290
     0
174
     0
 93
       13
 44
0.0
173
     0
291
     1
 45
0.0
1001
ACAD
1000
AcDbSavedByObjectVersion
1070
     0
  0
VISUALSTYLE
  5
2B
102
{ACAD_XDICTIONARY
360
CFC
102
}
102
{ACAD_REACTORS
330
29
102
}
330
29
100
AcDbVisualStyle
  2

 70
     1
 71
     2
 72
     1
 73
     1
 90
        2
 40
-0.6
 41
30.0
 62
     5
 63
     7
421
 16777215
 74
     1
 91
        0
 64
     7
 65
   257
 75
     1
175
     1
 42
1.0
 92
        0
 66
   257
 43
1.0
 76
     1
 77
     6
 78
     2
 67
     7
 79
     5
170
     0
171
     0
290
     0
174
     0
 93
       13
 44
0.0
173
     0
291
     1
 45
0.0
1001
ACAD
1000
AcDbSavedByObjectVersion
1070
     0
  0
VISUALSTYLE
  5
2C
102
{ACAD_XDICTIONARY
360
CFE
102
}
102
{ACAD_REACTORS
330
29
102
}
330
29
100
AcDbVisualStyle
  2

 70
     2
 71
     2
 72
     2
 73
     1
 90
        2
 40
-0.6
 41
30.0
 62
     5
 63
     7
421
 16777215
 74
     0
 91
        0
 64
     7
 65
   257
 75
     1
175
     1
 42
1.0
 92
        0
 66
     7
 43
1.0
 76
     1
 77
     6
 78
     2
 67
     7
 79
     5
170
     0
171
     0
290
     0
174
     0
 93
       13
 44
0.0
173
     0
291
     1
 45
0.0
1001
ACAD
1000
AcDbSavedByObjectVersion
1070
     0
  0
VISUALSTYLE
  5
2D
102
{ACAD_XDICTIONARY
360
D00
102
}
102
{ACAD_REACTORS
330
29
102
}
330
29
100
AcDbVisualStyle
  2

 70
     3
 71
     2
 72
     2
 73
     1
 90
        2
 40
-0.6
 41
30.0
 62
     5
 63
     7
421
 16777215
 74
     1
 91
        0
 64
     7
 65
   257
 75
     1
175
     1
 42
1.0
 92
        0
 66
   257
 43
1.0
 76
     1
 77
     6
 78
     2
 67
     7
 79
     5
170
     0
171
     0
290
     0
174
     0
 93
       13
 44
0.0
173
     0
291
     1
 45
0.0
1001
ACAD
1000
AcDbSavedByObjectVersion
1070
     0
  0
VISUALSTYLE
  5
31
102
{ACAD_XDICTIONARY
360
D08
102
}
102
{ACAD_REACTORS
330
29
102
}
330
29
100
AcDbVisualStyle
  2

 70
     6
 71
     1
 72
     2
 73
     2
 90
        0
 40
-0.6
 41
-30.0
 62
     5
 63
     7
421
 16777215
 74
     2
 91
        2
 64
     7
 65
   257
 75
     2
175
     1
 42
40.0
 92
        0
 66
   257
 43
1.0
 76
     1
 77
     6
 78
     2
 67
     7
 79
     3
170
     0
171
     0
290
     0
174
     0
 93
        1
 44
0.0
173
     0
291
     0
 45
0.0
1001
ACAD
1000
AcDbSavedByObjectVersion
1070
     0
  0
VISUALSTYLE
  5
3F
102
{ACAD_XDICTIONARY
360
D24
102
}
102
{ACAD_REACTORS
330
29
102
}
330
29
100
AcDbVisualStyle
  2

 70
    20
 71
     2
 72
     2
 73
     0
 90
        0
 40
-0.6
 41
-30.0
 62
     5
 63
     7
421
 16777215
 74
     1
 91
        4
 64
     7
 65
   257
 75
     1
175
     1
 42
1.0
 92
       10
 66
     7
 43
1.0
 76
     1
 77
     6
 78
     2
 67
     7
 79
     5
170
     0
171
     0
290
     0
174
     0
 93
        1
 44
0.0
173
     0
291
     1
 45
0.0
1001
ACAD
1000
AcDbSavedByObjectVersion
1070
     0
  0
VISUALSTYLE
  5
37
102
{ACAD_XDICTIONARY
360
D14
102
}
102
{ACAD_REACTORS
330
29
102
}
330
29
100
AcDbVisualStyle
  2

 70
    14
 71
     2
 72
     2
 73
     0
 90
        0
 40
-0.6
 41
-30.0
 62
     5
 63
     7
421
 16777215
 74
     1
 91
        4
 64
     7
 65
   257
 75
     7
175
     7
 42
1.0
 92
        8
 66
     7
 43
1.0
 76
     1
 77
     6
 78
     2
 67
     7
 79
     5
170
     0
171
     0
290
     0
174
     0
 93
        1
 44
0.0
173
     0
291
     1
 45
0.0
1001
ACAD
1000
AcDbSavedByObjectVersion
1070
     0
  0
VISUALSTYLE
  5
40
102
{ACAD_XDICTIONARY
360
D26
102
}
102
{ACAD_REACTORS
330
29
102
}
330
29
100
AcDbVisualStyle
  2

 70
    21
 71
     2
 72
     2
 73
     0
 90
        0
 40
-0.6
 41
-30.0
 62
     5
 63
     7
421
 16777215
 74
     1
 91
        4
 64
     7
 65
   257
 75
     1
175
     1
 42
1.0
 92
        9
 66
     7
 43
1.0
 76
     1
 77
     6
 78
     2
 67
     7
 79
     5
170
     0
171
     0
290
     0
174
     0
 93
        1
 44
0.0
173
     0
291
     1
 45
0.0
1001
ACAD
1000
AcDbSavedByObjectVersion
1070
     0
  0
VISUALSTYLE
  5
33
102
{ACAD_XDICTIONARY
360
D0C
102
}
102
{ACAD_REACTORS
330
29
102
}
330
29
100
AcDbVisualStyle
  2

 70
     8
 71
     2
 72
     3
 73
     0
 90
        2
 40
-0.6
 41
30.0
 62
     5
 63
     7
421
 16777215
 74
     0
 91
        0
 64
     7
 65
   257
 75
     1
175
     1
 42
1.0
 92
        8
 66
   257
 43
1.0
 76
     1
 77
     6
 78
     2
 67
     7
 79
     3
170
     0
171
     0
290
     0
174
     0
 93
       13
 44
0.0
173
     0
291
     0
 45
0.0
1001
ACAD
1000
AcDbSavedByObjectVersion
1070
     0
  0
VISUALSTYLE
  5
3E
102
{ACAD_XDICTIONARY
360
D22
102
}
102
{ACAD_REACTORS
330
29
102
}
330
29
100
AcDbVisualStyle
  2

 70
    27
 71
     2
 72
     2
 73
     1
 90
        2
 40
-0.6
 41
30.0
 62
     5
 63
     7
421
 16777215
 74
     0
 91
        4
 64
     7
 65
   257
 75
     1
175
     1
 42
1.0
 92
        8
 66
   257
 43
1.0
 76
     1
 77
     6
 78
     2
 67
     8
425
  7895160
 79
     3
170
     0
171
     0
290
     0
174
     0
 93
        5
 44
0.0
173
     0
291
     0
 45
0.0
1001
ACAD
1000
AcDbSavedByObjectVersion
1070
     0
  0
VISUALSTYLE
  5
3D
102
{ACAD_XDICTIONARY
360
D20
102
}
102
{ACAD_REACTORS
330
29
102
}
330
29
100
AcDbVisualStyle
  2

 70
    26
 71
     2
 72
     2
 73
     1
 90
        2
 40
-0.6
 41
30.0
 62
     5
 63
     7
421
 16777215
 74
     1
 91
       10
 64
     7
 65
   257
 75
     2
175
     1
 42
1.0
 92
        8
 66
   257
 43
1.0
 76
     1
 77
     6
 78
     2
 67
     7
 79
     3
170
     0
171
     0
290
     0
174
     0
 93
        5
 44
0.0
173
     0
291
     0
 45
0.0
1001
ACAD
1000
AcDbSavedByObjectVersion
1070
     0
  0
VISUALSTYLE
  5
3A
102
{ACAD_XDICTIONARY
360
D1A
102
}
102
{ACAD_REACTORS
330
29
102
}
330
29
100
AcDbVisualStyle
  2

 70
    23
 71
     2
 72
     2
 73
     3
 90
        0
 40
-0.6
 41
-30.0
 62
     5
 63
     7
421
 16777215
 74
     2
 91
        2
 64
     7
 65
     7
 75
     1
175
     1
 42
40.0
 92
        8
 66
     7
 43
1.0
 76
     1
 77
     6
 78
     2
 67
     7
 79
     3
170
     0
171
     0
290
     0
174
     0
 93
        1
 44
0.0
173
     0
291
     0
 45
0.0
1001
ACAD
1000
AcDbSavedByObjectVersion
1070
     0
  0
VISUALSTYLE
  5
3B
102
{ACAD_XDICTIONARY
360
D1C
102
}
102
{ACAD_REACTORS
330
29
102
}
330
29
100
AcDbVisualStyle
  2

 70
    24
 71
     1
 72
     2
 73
     2
 90
        0
 40
-0.6
 41
-30.0
 62
     5
 63
     7
421
 16777215
 74
     2
 91
        2
 64
     7
 65
     7
 75
     1
175
     1
 42
40.0
 92
       11
 66
     7
 43
1.0
 76
     1
 77
     6
 78
     2
 67
     7
 79
     6
170
     0
171
     0
290
     0
174
     0
 93
        1
 44
0.0
173
     0
291
     0
 45
0.0
1001
ACAD
1000
AcDbSavedByObjectVersion
1070
     0
  0
VISUALSTYLE
  5
36
102
{ACAD_XDICTIONARY
360
D12
102
}
102
{ACAD_REACTORS
330
29
102
}
330
29
100
AcDbVisualStyle
  2

 70
    13
 71
     2
 72
     2
 73
     0
 90
        0
 40
-0.6
 41
-30.0
 62
     5
 63
     7
421
 16777215
 74
     1
 91
        4
 64
     7
 65
   257
 75
     1
175
     1
 42
1.0
 92
       12
 66
     7
 43
1.0
 76
     1
 77
     6
 78
     2
 67
     7
 79
     5
170
     0
171
     0
290
     0
174
     0
 93
        1
 44
0.0
173
     0
291
     1
 45
0.0
1001
ACAD
1000
AcDbSavedByObjectVersion
1070
     0
  0
VISUALSTYLE
  5
30
102
{ACAD_XDICTIONARY
360
D06
102
}
102
{ACAD_REACTORS
330
29
102
}
330
29
100
AcDbVisualStyle
  2

 70
     5
 71
     0
 72
     2
 73
     0
 90
        0
 40
-0.6
 41
-30.0
 62
     5
 63
     7
421
 16777215
 74
     1
 91
        4
 64
     7
 65
   257
 75
     1
175
     1
 42
1.0
 92
        0
 66
   257
 43
1.0
 76
     1
 77
     6
 78
     2
 67
     7
 79
     3
170
     0
171
     0
290
     0
174
     0
 93
        1
 44
0.0
173
     0
291
     0
 45
0.0
1001
ACAD
1000
AcDbSavedByObjectVersion
1070
     0
  0
VISUALSTYLE
  5
3C
102
{ACAD_XDICTIONARY
360
D1E
102
}
102
{ACAD_REACTORS
330
29
102
}
330
29
100
AcDbVisualStyle
  2

 70
    25
 71
     2
 72
     2
 73
     1
 90
        1
 40
0.5
 41
-30.0
 62
     5
 63
     7
421
 16777215
 74
     1
 91
        0
 64
     7
 65
   257
 75
     1
175
     1
 42
1.0
 92
        8
 66
     7
 43
1.0
 76
     1
 77
     6
 78
     2
 67
     7
 79
     3
170
     0
171
     0
290
     0
174
     0
 93
       13
 44
0.0
173
     0
291
     0
 45
0.0
1001
ACAD
1000
AcDbSavedByObjectVersion
1070
     0
  0
DICTIONARYVAR
  5
CA3
102
{ACAD_REACTORS
330
CA0
102
}
330
CA0
100
DictionaryVariables
280
     0
  1
1:1
  0
DICTIONARYVAR
  5
CA2
102
{ACAD_REACTORS
330
CA0
102
}
330
CA0
100
DictionaryVariables
280
     0
  1
STANDARD
  0
DICTIONARYVAR
  5
CA1
102
{ACAD_REACTORS
330
CA0
102
}
330
CA0
100
DictionaryVariables
280
     0
  1
STANDARD
  0
DICTIONARYVAR
  5
CEB
102
{ACAD_REACTORS
330
CA0
102
}
330
CA0
100
DictionaryVariables
280
     0
  1
2
  0
DICTIONARY
  5
1A
330
19
100
AcDbDictionary
280
     1
281
     1
  3
BUMPTILE
360
1C
  3
DIFFUSETILE
360
1B
  3
OPACITYTILE
360
1F
  3
REFLECTIONTILE
360
1E
  3
REFRACTIONTILE
360
20
  3
SPECULARTILE
360
1D
  0
DICTIONARY
  5
12
330
11
100
AcDbDictionary
280
     1
281
     1
  3
BUMPTILE
360
14
  3
DIFFUSETILE
360
13
  3
FBXASSET
360
D9
  3
OPACITYTILE
360
17
  3
REFLECTIONTILE
360
16
  3
REFRACTIONTILE
360
18
  3
SPECULARTILE
360
15
  0
DICTIONARY
  5
22
330
21
100
AcDbDictionary
280
     1
281
     1
  3
BUMPTILE
360
24
  3
DIFFUSETILE
360
23
  3
OPACITYTILE
360
27
  3
REFLECTIONTILE
360
26
  3
REFRACTIONTILE
360
28
  3
SPECULARTILE
360
25
  0
DICTIONARY
  5
CED
330
67
100
AcDbDictionary
280
     1
281
     1
  3
ACAD_XREC_ROUNDTRIP
360
CEE
  0
DICTIONARY
  5
CA5
330
65
100
AcDbDictionary
280
     1
281
     1
  3
ACAD_ROUNDTRIP_2008_TABLESTYLE_CELLSTYLEMAP
360
CEC
  0
DICTIONARY
  5
D04
330
2F
100
AcDbDictionary
280
     1
281
     1
  3
ACAD_XREC_ROUNDTRIP
360
D05
  0
DICTIONARY
  5
D02
330
2E
100
AcDbDictionary
280
     1
281
     1
  3
ACAD_XREC_ROUNDTRIP
360
D03
  0
DICTIONARY
  5
D10
330
35
100
AcDbDictionary
280
     1
281
     1
  3
ACAD_XREC_ROUNDTRIP
360
D11
  0
DICTIONARY
  5
D18
330
39
100
AcDbDictionary
280
     1
281
     1
  3
ACAD_XREC_ROUNDTRIP
360
D19
  0
DICTIONARY
  5
D0A
330
32
100
AcDbDictionary
280
     1
281
     1
  3
ACAD_XREC_ROUNDTRIP
360
D0B
  0
DICTIONARY
  5
D0E
330
34
100
AcDbDictionary
280
     1
281
     1
  3
ACAD_XREC_ROUNDTRIP
360
D0F
  0
DICTIONARY
  5
D28
330
41
100
AcDbDictionary
280
     1
281
     1
  3
ACAD_XREC_ROUNDTRIP
360
D29
  0
DICTIONARY
  5
D16
330
38
100
AcDbDictionary
280
     1
281
     1
  3
ACAD_XREC_ROUNDTRIP
360
D17
  0
DICTIONARY
  5
CFA
330
2A
100
AcDbDictionary
280
     1
281
     1
  3
ACAD_XREC_ROUNDTRIP
360
CFB
  0
DICTIONARY
  5
CFC
330
2B
100
AcDbDictionary
280
     1
281
     1
  3
ACAD_XREC_ROUNDTRIP
360
CFD
  0
DICTIONARY
  5
CFE
330
2C
100
AcDbDictionary
280
     1
281
     1
  3
ACAD_XREC_ROUNDTRIP
360
CFF
  0
DICTIONARY
  5
D00
330
2D
100
AcDbDictionary
280
     1
281
     1
  3
ACAD_XREC_ROUNDTRIP
360
D01
  0
DICTIONARY
  5
D08
330
31
100
AcDbDictionary
280
     1
281
     1
  3
ACAD_XREC_ROUNDTRIP
360
D09
  0
DICTIONARY
  5
D24
330
3F
100
AcDbDictionary
280
     1
281
     1
  3
ACAD_XREC_ROUNDTRIP
360
D25
  0
DICTIONARY
  5
D14
330
37
100
AcDbDictionary
280
     1
281
     1
  3
ACAD_XREC_ROUNDTRIP
360
D15
  0
DICTIONARY
  5
D26
330
40
100
AcDbDictionary
280
     1
281
     1
  3
ACAD_XREC_ROUNDTRIP
360
D27
  0
DICTIONARY
  5
D0C
330
33
100
AcDbDictionary
280
     1
281
     1
  3
ACAD_XREC_ROUNDTRIP
360
D0D
  0
DICTIONARY
  5
D22
330
3E
100
AcDbDictionary
280
     1
281
     1
  3
ACAD_XREC_ROUNDTRIP
360
D23
  0
DICTIONARY
  5
D20
330
3D
100
AcDbDictionary
280
     1
281
     1
  3
ACAD_XREC_ROUNDTRIP
360
D21
  0
DICTIONARY
  5
D1A
330
3A
100
AcDbDictionary
280
     1
281
     1
  3
ACAD_XREC_ROUNDTRIP
360
D1B
  0
DICTIONARY
  5
D1C
330
3B
100
AcDbDictionary
280
     1
281
     1
  3
ACAD_XREC_ROUNDTRIP
360
D1D
  0
DICTIONARY
  5
D12
330
36
100
AcDbDictionary
280
     1
281
     1
  3
ACAD_XREC_ROUNDTRIP
360
D13
  0
DICTIONARY
  5
D06
330
30
100
AcDbDictionary
280
     1
281
     1
  3
ACAD_XREC_ROUNDTRIP
360
D07
  0
DICTIONARY
  5
D1E
330
3C
100
AcDbDictionary
280
     1
281
     1
  3
ACAD_XREC_ROUNDTRIP
360
D1F
  0
XRECORD
  5
1C
102
{ACAD_REACTORS
330
1A
102
}
330
1A
100
AcDbXrecord
280
     1
270
     1
271
     1
  0
XRECORD
  5
1B
102
{ACAD_REACTORS
330
1A
102
}
330
1A
100
AcDbXrecord
280
     1
270
     1
271
     1
  0
XRECORD
  5
1F
102
{ACAD_REACTORS
330
1A
102
}
330
1A
100
AcDbXrecord
280
     1
270
     1
271
     1
  0
XRECORD
  5
1E
102
{ACAD_REACTORS
330
1A
102
}
330
1A
100
AcDbXrecord
280
     1
270
     1
271
     1
  0
XRECORD
  5
20
102
{ACAD_REACTORS
330
1A
102
}
330
1A
100
AcDbXrecord
280
     1
270
     1
271
     1
  0
XRECORD
  5
1D
102
{ACAD_REACTORS
330
1A
102
}
330
1A
100
AcDbXrecord
280
     1
270
     1
271
     1
  0
XRECORD
  5
14
102
{ACAD_REACTORS
330
12
102
}
330
12
100
AcDbXrecord
280
     1
270
     1
271
     1
  0
XRECORD
  5
13
102
{ACAD_REACTORS
330
12
102
}
330
12
100
AcDbXrecord
280
     1
270
     1
271
     1
  0
XRECORD
  5
D9
102
{ACAD_REACTORS
330
12
102
}
330
12
100
AcDbXrecord
280
     1
 70
     1
 90
1959938040
 71
     1
  1
E52FB964-14C2-4C3D-803F-75F118D21C8D
311
504B03040A0000080000726E44433DEE336E79000000790000001B0000006175746F6465736B2D64657369676E2D7061636B6167652E786D6C3C3F786D6C2076657273696F6E3D22312E302220656E636F64696E673D227574662D3822203F3E3C666F726D6174733E3C666F726D61743E687474703A2F2F736368656D612E
311
6175746F6465736B2E636F6D2F64657369676E2D7061636B6167652F323030393C2F666F726D61743E3C2F666F726D6174733E504B0304140006080800726E4443D486FD9CA0000000F4000000130000005B436F6E74656E745F54797065735D2E786D6C7D8EC10E82300C865F65E91D8A1E8C310C0EEA1BF002731658846E
311
D98AC1B77784ABF1D8FE5FBFBF75BBCE937A534CCEB38643598122B6FEE978D0B0485F9C41B54DDD7D022595594E1A469170414C76A4D9A4D207E29CF43ECE46F218070CC6BECC4078ACAA135ACF422C856C0E68EA1BF5669944DDD7BCDE7B1F8E415D77AECB980613C2E4AC91FC167A2B244592486606FC29C8FD7F045B9A
311
EF7053A7E60B504B0304140006080800726E44431404FF15EA0000007C01000008000000636F72652E786D6C8D90416EC3201045AF82665B6143C06962612257914FD00B20200E4A0C9681AAC72F4E1CA9DD7535A33FFFCD8CBE387D4F77F46597E882EF80560490F53A18E7C70E72BAE003A093144B08E9970D905793ED60
311
95418A710979DE241D7CB23E15D507633751C56813207D2F4D07515FEDA42A955371C45B352B7D53A3ADE8AB2B70CECEA0E71167CA3E77717601C93965644FF6B8391E19E60323F870603D3E7FB0A1EF1B3EF4FC2CEA159622B9E9755F2F56256B40EE086598124CF827656D435BF6FE46684B88A857FB1F28CFE69F50763E
311
B1DDF6EE138B206979E43190A25EB328E51154A96B6EF207504B0304140006080800726E444355019EA25F0000007C00000007000000636E782E786D6C4DCB3B0E80201045D1AD90E915ED2CF8AC45050C11660C8261F98AB1B07AC9C97D42D718D865D3E909258CFD00CCE24AC6E326A164D74DC0B4128928FF326038472B
311
A13128B1252AC747C6BAB984FC68F0B87FE8960A5C09FE86CFB69FBA01504B0304140006080800726E444364B1459D66010000020300000C0000006662782F636F72652E786D6C8D52ED8E8230107C95A67F2FD0D6A2A7A6D470313EC1BD4085CA11A125A5253EFE2D1F86F3628C2129CDCCCEEEEC8038DC9A1AF5DA759535
311
296631C5489BDC169529531CFC25DA627490C259EBFF94616454A3533CC0588AD2D9D0CE506E8DD7C6036A6CA16750759DF618E5355C52DCE53FBA51B10A1E2ABA6BDCAAFCAA4A1DB31868A893A2F30E0CA069C870627939DF0499702942A88A99AD0A98565D2AEDB04C12C6E9866EA2F56EC7A3E4C469B4DDF22C3A7EF153
311
96AD9353961C0519C452F8AAB9BBCB9D565E1758AE28E311A3114DBE19DFAFD99E7F7E50B6A75490A1FC4114DAE24D51A88CE7ABD9EE24EBB064606424FE6D0B1179D4A91EFC1029C81022BCC6841F8386402064AFCEF57D8F2B40BDCEBD750930850D0BD5AB3A68984AD1F80832B1D0796C009B3DEDB37AD1E7750FF880CA
311
94604D79B89E831FA68B69EA1C45AB5DD4FB1B32D635AA5ECC4D16977319F4549EDBDABA77D4645E95CC6192E1EF95BF504B0304140006080800726E4443DF0A99347E0000009D0000000B0000006662782F636E782E786D6C4DCCD10A83201886E15B91FFDC9566A5A07630E77DC4B290950EA76397BF1A1DECE883878F57
311
0E9F6D456F975E3E0605E4520372E11E271F160525CF98031AB44C31E6BF1BA0306E4EC1C1A0E59262799E34B9792C6BDE75F5E171226F88E98C65B8BDD21633DB102C6A7AC3825B2A7A6B3AC17AA8B4AC7EA57D8FB0FE02504B0304140006080800726E44434675EC2B2C01000015020000310000006662782F3833314436
311
4446342D354332352D344633312D393032452D3938463239374644363934372F636F72652E786D6C8D51CB6EC32010FC15C42955850D36B6E3089343537F417F8000495162B07854F9FCE2DA95DA5B2E2C9A9D991DEDB2E363BA832FED83717680A4C010682B9D32F63AC0142F680FC19133EF5CFC4383C08A490F70812167
311
57EFD2BC41D2D9A86DCCA8754A6FA008414708E43D7F0618E4A79E442152CC8C702B66216FE2AA0B52E476E67116A2CF01C03A647921DFD7E4D49E468A9AB7AA4174AC09EA71F58EFAFD58F5DD786A7BDAB17215729692519BDCA81CC75C8CF6CF9A2C62CEA2997EE34BAF45D40AF20A931A118C30FD20F5A12187BA7BC5E4
311
80312B17FA3F519AD593A2646CACAB2DEE2A0B901356AE0DCE944BE7FB6F18FD989D8F6099B70B5ABE408E0B8C695777B46A59B972F306B2694B37D3109DCF1BDEDDCE994E9AD5B9A59C95CB9172F9B960AECB41F937504B0304140006080800726E4443954315B34E01000033030000300000006662782F38333144364446
311
342D354332352D344633312D393032452D3938463239374644363934372F636E782E786D6CD593CD6EC32010845F0571ADFC43EDA6558489D4439FA0875E316C121A0C16E0AA79FB2E094973C9A1C75E90353BCCAC3E61BEF99E2CF982108D770365754B0938E5B571BB812E695BBD50B2113C789F6E6C943839C140B34C05
311
DF05BFCC45D2B0958B4DA85AE30E450C10FD12144494F34D62BD921603C0550B8A308DA035687235E2D71602AE82E27824690FE4EDF583F8F113548ABCC9298237B943F07C96A61B1325CACA18071AD51E2659CB25790DF1506B9964CDEA4BD79D9D7E9348BE70A95C8221B97CA0F9A4A26C542347DEE050F09802D22BA674
311
9C810A39CFD62899107273329E3D822FC6A5555FBC06C10774B355D7F718769A099ECC04C5A102C8049A8AC79675156BABB67F67DDFA89ADBBE78796ADDB9637D92EF8E8BD2D973006829F89F22E814B5430DEE4F13D7CC547B409C8DA87E31F402280D27AA673CDF8CF7C9AD3FB465C01FF02F103504B0304140006080800
311
726E44431E9DA0B4A405000081100000340000006662782F38333144364446342D354332352D344633312D393032452D3938463239374644363934372F6F626A656374732E786D6CAD575B6FDB3614FE2B82F6B23DD8B26C277506454362D785D1A52D6AB4D88301839628850B750149A5CE7EFD3E8A942CB976EA0D7DD185
311
97C373BEF39D0B833FF619779EA990ACC86F5D7F38721D9A4745CCF2F4D6AD543298B9CE1F61208A427596B94E4E327AEBEA61370C525154A51D8A69422AAE8E4697F77F3932A239759D8813296F5D193DD28C0C49A58A98CAA7614C1419A6C97EE80FCDC2BED85490F2F148684904CD1534C5780E298E51CAEFFF8E5C2F0C
311
3C3D1F06FA69574DCEAFF26A7BFAE7B35C2A9247DF1D762466E24F176FC7573783ABE97432985E8FFDC1FDF27E31F0DF4C46F3EBF9FCE6EEED0D0E964A4092D544D0C40DDF011BC1A2C033536150B15C4DC67689759027E833D39E72C3B1E3079E59D35A678D3CA57E54E4398D6AAC80466D9F151DD392E6317CCEA884661D
311
8446FD5F5FE3D8999EE87F7B6477F83204BA3B3A821ADD9B7757D362F7374C9097304848AA1968B0B4861AAE8E0E08EF8A82DB39269D8C282A18E10E673B41C48B1B62A95E12063D319AC9424783B6C00DE10533DDA70BC2E8C73C3FA5655271AE69EC8675146C112B54C95A33F60F1507EDBBC84027F84AB361660D522F25
311
75C31B4391D9119B0C904EC2490A97C34CBD73323E3274AEE374B570C3F7CBDD7EAD63F7F4E1A5284A2A94A60FA8D538AE796B94AC4EFE459ED31BDC23550EA07C06F21F10EA0755E037C1F6D3FDD49EA204C96552880CBE7146CE6084C7C8F1EBA7FEEE7C055EBBB9EFBD7378C2D91AAA9F8067DF86AE2F3B7086C133085F
311
8889356D1D118EB4F1C07200A449E2F00243C8C3C96EEF862B64396465EC223CF46132D47DC667E059314814F5499D770E2C8FD2E205091AB0D58C841A86FC56C1839FBE4B67F5C176D93978AF7E0A5DEF16EBF7EB4A2424A20F36A61734613953287107DE7415EA61DEB3E889BE7C2B440C43BFC77BDDC53BB34749A0AD31
311
D7C0A74D4ED73F87937B0744D897163ADD043F380146E8C2DA91FFC064443927392DAAE6DC57EB07CA86815807BB66725B600E8505A43133473188221D09566A10DB6AD526CDE119EBBEAC3E80916E78FFF22779E966AFDD21F746052FC476F7B23569E924D45FFBDCB618785A0AE85E074913FF16F46DCC92A49248822770
311
FDBA9A777DA7D302524423D544CB14F623B888B0A46DE4A25A0B824A5AE45B86BA89B83B7940573E20B50CA8059ED358529E6C19E755B64D184735DA66A43C03C7FFD77F5765E596644595AB33B27BAAA33AF475EFB1577E232A7A74C375FD1EDC23F7C6343E43065D4B4E60D573EDDBABF1F2FEE67A3AF0A7F3F1603A9F2C
311
06B3D164397873B5F4FDD962ECCF678BC64F469330684A4D37A2E12594B6A012CCBAEFCB0AF16393801B3E102537EF4C7836EF2FAB217AE1C0C31ED4CB76E35DFC8CBE8FC63F1670587952D02A2B39CD68AE888EA107FDC13F13F4193D65CCF82A2329BD40CAC777EB23633072C1BE4F3ADEE9B7A3BD7674AE03F2A410F558
311
65BB9C307EB43135480ECB3CB5F8353E69DFA6D034BFFACF3A069DA92C388B91076327A5454615B2E10545486454827ADD9E3EB6778F0B763F9B0E51911DA78D268F044D3297080B50AB8A547FDCF9054D9DEEAB6E5D94DBE1131E3653B80E3873EBA249572CA272B84381D6AD502D1C5CEA76F268FC499E72F4DA6653FBDF
311
EED2D8F44A72BBE492FEC9DA6552B8350069A444DF808608DEA99509835A373B1FFD27C31B751CA2F0B9AB546BCB61A035A63E06216A8CB2B70534314FF6E83D02F575B3FC61BDA687C845B7AC574960A40E1411697D53D0FA5995EE169F3C7428CEEAA353F22A852F2F9734101464AE74808345608595591205AACE7FDF7C
311
12056EB299B364A080F3EB7E76FDDB665E6459919BA1CD9DBD0F3BEB47DC6EE30D9203D5D712B9198FFCF1A6BE0ED81BCA7647241D92583E61009E15AC05BAE77EF0D2DC195187CC44BBCED3AE3862E86AE1D8C23685504B976E6ED5E0A0F1C8A98318D2574A1D31DD05E5AB3702AF5E0A15047AF9F05F504B030414000608
311
0000726E4443000000000000000000000000350000006662782F38333144364446342D354332352D344633312D393032452D3938463239374644363934372F76657274696365732E62696E504B0304140006080800726E4443F270F1330600000004000000360000006662782F38333144364446342D354332352D34463331
311
2D393032452D3938463239374644363934372F747269616E676C65732E62696E636660600000504B0304140006080000726E4443000000000000000000000000370000006662782F38333144364446342D354332352D344633312D393032452D3938463239374644363934372F617474726962757465732E62696E504B0304
311
140006080800726E4443D5987DFC8F00000041010000360000006662782F38333144364446342D354332352D344633312D393032452D3938463239374644363934372F6469726563746F72792E786D6C858F410EC2201045AF4266AF15DDB800BA74E7C21B903225242D6328188F2FA5C4183471359997F9FF81E89FF3C41E
311
1816475E02DF1F80A11FC8386F25A438EECEC07A250251FC3803E6F58C12560C4AD840E95E91C151A72936F496F35732D860FE635F62C8F2DA16B505C545B74125BAA2FA9E05D7CC053D063734D5C7665FD55B6B8D15D5E9BFEAFD8490FFA45E504B0304140006080800726E44437CEEA224FD000000A00100003B00000066
311
62782F38333144364446342D354332352D344633312D393032452D3938463239374644363934372F7265736F75726365732F636F72652E786D6C8D504B6E833010BD0A9A6D65B0636813641C51459CA017B0CC84580936F2A7EAF16B0295DA5D3733A3F7D13C3D71FE9A1FC527FA609CED8095140AB4DA8DC64E1DA4782547
311
28CE5278E7E22F191456CDD8C10A8314937769D921ED6C441B336ADD883BA842C008857EE4A383A06F38AB52A59815E15E2E4ADFD584252B339D755284E87380627BB24E901E834B5E6310D5C64A919219778D19F34F7335E841D635E3F49536A4399D38A9074EC9F1C87B7279E743DF37F5D0D71751AD6629A2997F326A8F
311
2AE208F24019278C125A7F30DE36ACE56F2F94B5948A6A95FF31A565FCA729191BF9618FBBD9024896833C0929AAB5AFBC9E65E6BD762BBF01504B010214000A0000080000726E44433DEE336E79000000790000001B00000000000000000000000000000000006175746F6465736B2D64657369676E2D7061636B6167652E
311
786D6C504B01021400140006080800726E4443D486FD9CA0000000F40000001300000000000000000000000000B20000005B436F6E74656E745F54797065735D2E786D6C504B01021400140006080800726E44431404FF15EA0000007C010000080000000000000000000000000083010000636F72652E786D6C504B010214
311
00140006080800726E444355019EA25F0000007C000000070000000000000000000000000093020000636E782E786D6C504B01021400140006080800726E444364B1459D66010000020300000C00000000000000000000000000170300006662782F636F72652E786D6C504B01021400140006080800726E4443DF0A99347E
311
0000009D0000000B00000000000000000000000000A70400006662782F636E782E786D6C504B01021400140006080800726E44434675EC2B2C0100001502000031000000000000000000000000004E0500006662782F38333144364446342D354332352D344633312D393032452D3938463239374644363934372F636F7265
311
2E786D6C504B01021400140006080800726E4443954315B34E010000330300003000000000000000000000000000C90600006662782F38333144364446342D354332352D344633312D393032452D3938463239374644363934372F636E782E786D6C504B01021400140006080800726E44431E9DA0B4A40500008110000034
311
00000000000000000000000000650800006662782F38333144364446342D354332352D344633312D393032452D3938463239374644363934372F6F626A656374732E786D6C504B01021400140006080000726E444300000000000000000000000035000000000000000000000000005B0E00006662782F3833314436444634
311
2D354332352D344633312D393032452D3938463239374644363934372F76657274696365732E62696E504B01021400140006080800726E4443F270F13306000000040000003600000000000000000000000000AE0E00006662782F38333144364446342D354332352D344633312D393032452D393846323937464436393437
311
2F747269616E676C65732E62696E504B01021400140006080000726E44430000000000000000000000003700000000000000000000000000080F00006662782F38333144364446342D354332352D344633312D393032452D3938463239374644363934372F617474726962757465732E62696E504B01021400140006080800
311
726E4443D5987DFC8F0000004101000036000000000000000000000000005D0F00006662782F38333144364446342D354332352D344633312D393032452D3938463239374644363934372F6469726563746F72792E786D6C504B01021400140006080800726E44437CEEA224FD000000A00100003B00000000000000000000
311
000000401000006662782F38333144364446342D354332352D344633312D393032452D3938463239374644363934372F7265736F75726365732F636F72652E786D6C504B0506000000000E000E0080040000961100000000
310
504B03040A0000080000726E44433DEE336E79000000790000001B0000006175746F6465736B2D64657369676E2D7061636B6167652E786D6C3C3F786D6C2076657273696F6E3D22312E302220656E636F64696E673D227574662D3822203F3E3C666F726D6174733E3C666F726D61743E687474703A2F2F736368656D612E
310
6175746F6465736B2E636F6D2F64657369676E2D7061636B6167652F323030393C2F666F726D61743E3C2F666F726D6174733E504B0304140006080800726E4443D486FD9CA0000000F4000000130000005B436F6E74656E745F54797065735D2E786D6C7D8EC10E82300C865F65E91D8A1E8C310C0EEA1BF002731658846E
310
D98AC1B77784ABF1D8FE5FBFBF75BBCE937A534CCEB38643598122B6FEE978D0B0485F9C41B54DDD7D022595594E1A469170414C76A4D9A4D207E29CF43ECE46F218070CC6BECC4078ACAA135ACF422C856C0E68EA1BF5669944DDD7BCDE7B1F8E415D77AECB980613C2E4AC91FC167A2B244592486606FC29C8FD7F045B9A
310
EF7053A7E60B504B0304140006080800726E44436C7B397FEB0000007C01000008000000636F72652E786D6C8D90416EC3201045AF82665B6183C16E6261A2266A4ED00B20202E4A0C9681AAC72F4E1CA9DD7535A33FFFCD8CBE387C4F37F46597E8821F80560490F53A18E7C70172BAE01DA083144B08E9970D9057931D60
310
95418A710979DE241D7CB23E15D507633751C56813207D2BCD00517FDA49552AA7E288D76A56FAAA465BD16757E09C9D418F23CE947DEEE2EC029275BCEBD81BC7A7333D63DEB414EF8FED3BE6BB53435BBE27BB2313F50A4B91DCF4BCAF17AB9235201B4219A60413FE4159DFD29EBDBE10DA1322EAD5FE07CAB3F927949D
310
4FACD9DE7D6011242D8FDC0752D46B16A5DC832A75CD4DFE00504B0304140006080800726E444355019EA25F0000007C00000007000000636E782E786D6C4DCB3B0E80201045D1AD90E915ED2CF8AC45050C11660C8261F98AB1B07AC9C97D42D718D865D3E909258CFD00CCE24AC6E326A164D74DC0B4128928FF32603847
310
2BA13128B1252AC747C6BAB984FC68F0B87FE8960A5C09FE86CFB69FBA01504B0304140006080800726E44435AF0BEE068010000020300000C0000006662782F636F72652E786D6C8D525B6EC32010BC0AE2B7C2801F691261A2266A4ED00B109BB8566CB03058397ED78F284D154595258C66767667C716BB6BDBA041BBBE
310
B626C73C62186953D8B236558E833F9335463B299CB5FE57194646B53AC7238CA5A89C0DDD0215D6786D3CA0C6967A0155DF6B8F51D1C025C77DF1AD5B15A9E0A1A2BF449D2A2EAAD2118F80863A297AEFC0009A878C2796E7D355D019972284BA5CD8BA8469F5B9D60ECB6495AE56C9474A0E477E24699C71B2D9679F245D
310
1F629EA51BB6DE27828E62297CDDDEDC154E2BAF4B2C63C613C21961E9174FB619DF26EF6F8C6F1913742C7F1085AEFCA728D4C627F1627796F558723032117FB685883CEAD5007EA814740C115E53C28F41432010B257A7E6B6C705A04117DEBA1498D2863B35A8266898CAD0F4083AB3D0796A009B3DED13BFE8F3BA077C
310
40652AB0A63C5C4FC18FD3C53C7589A2D38E0CFE8A8C75AD6AEEE6668BF7F33EE8A9BCB08D75FF51D36555BA8449C7BF57FE00504B0304140006080800726E4443B32BE2137D0000009D0000000B0000006662782F636E782E786D6C4DCCDF0A83201C86E15B91DFB9FD7558A08635BB8F581692E9703A76F9ABD1C18E3E78
310
F87859F7D92D7AEBF032DE7128B30290760F3F1BB7724871C10DA04EB0E07DFCBB0172D3AE399C0C82ADC1A7E745B35EA664E3A1D6B8EDC2BBBA2955D52D96444A4C4853E07EA4252654A971E865D50E1472C1F25FE9D8332CBE504B0304140006080800726E4443B3DF04C82D01000015020000310000006662782F444535
310
45453233392D413441412D343438302D424637312D3437454546434241323943372F636F72652E786D6C8D515B6EC23010BC4AE42FAA2A899D2720C728D070825E203826B52076E447C5F1BB6E82D4FEF1E3B566676647BBF4F098EED1B730566AD52092601409C5F520D5D820EFAEF1164507468DD6EE0F0D45AA9F448302
310
8C181D8DF6F30A71AD9C500E50A507B182BDB5C2A188DFE1D320CBBFC4D427BD77C0B0B764EEF9AD1F45421268038F51EB0C04889621E145ECA32BBB2ECB77715BB46D5C145B1C1FCF35898BBAEBCEA7639BED4E354D1721A3DECB6195CB01E2C8AB14E655932066D4C9E9199F1BD13B3120966192C704C7B8F824F9BE24FB
310
BC7EC7648F314D03FD9FC8CFC38B222F95CBB335EE22B388119A2E0D4607ED2FF76718F198B5715198B7B182BF2186138CABAC2C2B0C9A850B1B00D3AA584DADD30636BCB95D809E032B385705A369381294DF0B420D07653F504B0304140006080800726E4443F3E4DAA45601000033030000300000006662782F44453545
310
453233392D413441412D343438302D424637312D3437454546434241323943372F636E782E786D6CBD93CD6EC32010845F0571ADFC43ECA6518489D4439FA0875E096C1A1A0C16E0AA79FB2E094973C9A152D50BB2668799D527CC375FA3259F10A2F16EA0AC6E2901A7BC36EE7DA073DA552B4A368207EFD38D8D12274718
310
6896A9E0EFC1CF539134ECE46C13AAD6B8431103443F070511E57C9358AFA4C50070D58C228C5BD01A34B91AF16B07015741717B24690FE4E5F98DF8ED07A814799353046F7287E0F92C4D37264A9495310E34AA3D8CB29673F21AE2A1D632C99AD597AE3B3BFD24917CE15239074372F940F34945D9A8468EBCC1A1E03105
310
A4574CE9380115729AAC513221E4E6643C7B049F8D4BCBBE780D820FE8EE16CBD50AC34E33C19319A1385400994053B1685957B1B66AFB57D6AD1FD9BA7B7A68D9BA6D7993ED826FBDB7E512C640F01351DE2570890AC69B3CBE87AFF888360159FB70FC054804505ACF74AE197FC9872DBBBEFF473ECDE97D23AE807F81F8
310
06504B0304140006080800726E4443422B0B01630700009A1B0000340000006662782F44453545453233392D413441412D343438302D424637312D3437454546434241323943372F6F626A656374732E786D6CED59DD73A33610FF5718FAD23E181BDBC9251DC24D625F6E3CD75C6FEA5EA70F9E616490891A211849E4E2FE
310
F55D7D80819804B7E9DB3DD8809056BBBFFDD412BC7FCAA8F388B92039BB727D6FE23A98C57942587AE5967237BA709DF761C0F35C36A6B90E4319BE72D5B01B0629CFCBC20E2578874A2A3BA3B7377F3A22C60CBB4E4C911057AE88EF71863C54CA3CC1E2C14B90445EBA7BF27CCF4C6C934D392AEE3B440BC43193C0298C
310
33A0E218A6FCF6E3C41D87C158BD0F03F56F67CD06CD9AF7CF1A6BA9DB5C12262462F133963A646683589AF9F3E587E9D9E5E86C3E9F8DE6E7537F74737BB31CF9EF6693C5F9627179FDE112D8DBE639B53225B8C02C01FDEDDDD00FC6EA4D2DBA45E018D771CE188E3590009516AB4B9060015B35E09BB41F7D2551E3B596
310
B0F13C57EF2D0B8DE1599B4ADFAC6140B4E8822076BB4AE2EADA942FDFFE05828B2146C90596C0AD901CB46BE1E1E0156E3809C666340CB6075D10E16448624E107528D972C4412930554D0903B3C09251CEC18194A324D09A33AFDBB6059EF9BAEB1CE3725752AA3CC30DB56345E07E580ACD19F91BF303F74D64802790B6
310
244C5E582EE5BEC06E78198CF56018A8CB6C6A5F1A209D1D45A9D08898B71D4117CAF5574B37FC74BB7D5AAB70707CF382E705E652199DD2A3E60B0CD95E154A765B7F90E6D40210C6806A571E40F90D90FF0CD1E3C00AE88D93A7F9D3DCCE951C31B1CB7906BA7126CE68027F13C7D7FFEABE71178CEBC56DEDF5E1096EAA
310
A0BAF8EF78B665D05859FE1B7086C123187CCE67F6D53A4614ECF98E300048198943731882D0BEDB3EB9E10A0227047A588568E883C8C0EE23DC06634BE6A095CABDACD73140D4EE311BA224804D5B24B0D1A3A78F903D38890F6A6A8AD807EFD99B98EBF572FD695DF21D8AF19DF5E925DE11462464CDE30CB5306F49F480
310
F7DF729E80A0CFF15E37F1CEEC5602D056982BE0D30A04F570D8B9B5410CEBD25C859BE0951D400895AB1BF4EF888831A588E1BCACF6ADA39B32D4DAE36DCDE0865303F16CDA31618E1F89AA2AC0690E335A8C42DE8F392914886EF8D14856074DAF47BAAFABCF6091F5FC9E592B06A19721FABB0E5A477068597685B405A2
310
16787B08E7714E731E6DF79189742ED412C046DB5BFE681185586F94A4A8800769BFAB424A6AA48D12B2DB9502E2EA1116FF582D9AE630F166FE99D3FCEF38E31CA22DF82EE2D6EF3A7B442443298E7628E9DBAEB95B4D5B68923DA439DE51908B3C12B98F908C26094E4F81E624E2976F4A3DA5B910846101F9EA28F84D34
310
261E0412A3CD8A65A5D50ED044441996889E828022D303AE4E3BBAC68DA174789DC7DA7A5FD25893E8FF64111C412D99B38840290A39E455C67DEF0C62481B5D8372075FB0B68AB61683965042C4FBE81B26E9BD3C057543BE07F7188E24A58CF202C560D603C83EF315A5D40EEF5B143FA8FC11C5257D2B031198EE224269
310
9945F0230C4E1E435CBB0E4C2FA2D0206E629FC419146548967CC826E7679367FB989AA11B021B1BED0885B01D65A8E841BD1510753DE2D4E05BEA3D4ADD965911A12C2FD92043F1665D6FB2E4BB6A556407F2AB4A45281B2BC29660181026EBAC5AC56C30751D58C18D74A0DA4702650535A7B057128F5F7B93A6DCBB01B7
310
7EFAB61B6450F8F568AF1951E7150C96C7566120BE2119DFBBE15A5F4737507F273839A4FAAAD66C568080988AE4252756455F5750DED81ACD0DEF90149B8F26EB56D7AF2B0FBA1FC118D640ED522F5C29A033CC245295C99DBAA1BF2108C12D1A667CA572EA2954AE9344578D88DE923E75B6CA88D6A619F18A7BCCF20C7E
310
6C43584CCB046F50221EA23B49A33551AC5B29BD8C5418BF28E0AF1FD71D78606480485F548187BF75D6DAD1852A978E1291F765B6658840106C89961ADD78054BAD462A2DD75775A680BA0B0CCCAA78FEFD64D16C477C3F59A4D630FED3C9E266FF0BDA37FB228D741E2BBB3EE91850E72745E52D8E01BAED5053ADB38849
310
E6567EEB4C1104C52ACA0FAEC6AAA06108F671FCAFB3765F1634DB75F83F2D6BFBCF2A8E93B24A6BB2EA521DA95C57CD1CF6E16C7A7B73793E1FF9F3C574345FCC96A38BC9EC76F4EEECD6F72F96537F71B1ACD1D48E1A067530D3B90B9E4D50AB86D593C500BAB222A72481D37CE2A41862BE8433FD80F639CFB080E4D96C
310
7627B6293F60F5A3E9734AB4A5B8E2E41E4183980A48EB805119CBF6B8F303B426251CB4AF5C681A790FF067ADD27520F35CB9D02A9024C6C2DB429B4935F4347148B93AF75B62800F62A94A896651FD5CAF52D8B4C27F3D65481AB072B57A1850B815D0FD6A7528346F96A7F824C12B761C24E1765B4AA8D68C2C87815A18
310
BDCD41FD46364AD883DDFA095CF765B17C4FCF692132E893C18B4660A88E24E2A9EE772BC62C4BD7CB2F63E8B339AB5F9D829629E87238A511C760CCA52AA8C08AC02A2CCD024930D5C5CF9B2F3C874F3C99A3AB22E7C7A78BF39F368B3CCB72668636D7702A4BE04391B3BE87CF3EC9068A07AC9AEB62339DF8D38D6E6ADB
310
3E7BB445027BAA2A8281AA985082744C0EECF25983CAB62FC74A159DE9ABA563832834038C1D3DEBF19A8F5C0EF890FA9CA23C46FB7925ED8B7DEDB19E0A36C1A1231DFE03504B0304140006080000726E4443000000000000000000000000350000006662782F44453545453233392D413441412D343438302D424637312D
310
3437454546434241323943372F76657274696365732E62696E504B0304140006080800726E4443F270F1330600000004000000360000006662782F44453545453233392D413441412D343438302D424637312D3437454546434241323943372F747269616E676C65732E62696E636660600000504B0304140006080000726E
310
4443000000000000000000000000370000006662782F44453545453233392D413441412D343438302D424637312D3437454546434241323943372F617474726962757465732E62696E504B0304140006080800726E4443D5987DFC8F00000041010000360000006662782F44453545453233392D413441412D343438302D42
310
4637312D3437454546434241323943372F6469726563746F72792E786D6C858F410EC2201045AF4266AF15DDB800BA74E7C21B903225242D6328188F2FA5C4183471359997F9FF81E89FF3C41E1816475E02DF1F80A11FC8386F25A438EECEC07A250251FC3803E6F58C12560C4AD840E95E91C151A72936F496F35732D860
310
FE635F62C8F2DA16B505C545B74125BAA2FA9E05D7CC053D063734D5C7665FD55B6B8D15D5E9BFEAFD8490FFA45E504B0304140006080800726E4443B315F3C7FE000000A00100003B0000006662782F44453545453233392D413441412D343438302D424637312D3437454546434241323943372F7265736F75726365732F
310
636F72652E786D6C8D504B6EC32010BD0A9A6D850DC64E130B13355173825E00E189831243C4A7EAF18B13576A77DDCC8CDE47F3F4E4FE6BBE914F0CD17A3700AF181074C68FD64D03E474A65B207B2583F7E9970C88D3330EB0C0A0E4147CBEAF90F12EA14B05757EC415D4316202626EE518209A0BCEBAD2391545BC5677
310
6DAE7AC28A57852E3A25630A2500793E5926A880D1E76030CAFAC92A99B31D578D1DCB4F7BB61840894DBBD98837418F277EA26DD371BA3B74EFB4DD1E1BDEB53BB63D08592F6625939D7F329A803AE108AA615C50CE286B3FB8E83BDE8BD717C67BC664BDC8FF98F27DFCA7295B9744B3C67DDA22285E823C0825EBA5AFB2
310
1E6596BD74ABBE01504B010214000A0000080000726E44433DEE336E79000000790000001B00000000000000000000000000000000006175746F6465736B2D64657369676E2D7061636B6167652E786D6C504B01021400140006080800726E4443D486FD9CA0000000F40000001300000000000000000000000000B2000000
310
5B436F6E74656E745F54797065735D2E786D6C504B01021400140006080800726E44436C7B397FEB0000007C010000080000000000000000000000000083010000636F72652E786D6C504B01021400140006080800726E444355019EA25F0000007C000000070000000000000000000000000094020000636E782E786D6C50
310
4B01021400140006080800726E44435AF0BEE068010000020300000C00000000000000000000000000180300006662782F636F72652E786D6C504B01021400140006080800726E4443B32BE2137D0000009D0000000B00000000000000000000000000AA0400006662782F636E782E786D6C504B0102140014000608080072
310
6E4443B3DF04C82D010000150200003100000000000000000000000000500500006662782F44453545453233392D413441412D343438302D424637312D3437454546434241323943372F636F72652E786D6C504B01021400140006080800726E4443F3E4DAA456010000330300003000000000000000000000000000CC0600
310
006662782F44453545453233392D413441412D343438302D424637312D3437454546434241323943372F636E782E786D6C504B01021400140006080800726E4443422B0B01630700009A1B00003400000000000000000000000000700800006662782F44453545453233392D413441412D343438302D424637312D34374545
310
46434241323943372F6F626A656374732E786D6C504B01021400140006080000726E44430000000000000000000000003500000000000000000000000000251000006662782F44453545453233392D413441412D343438302D424637312D3437454546434241323943372F76657274696365732E62696E504B010214001400
310
06080800726E4443F270F13306000000040000003600000000000000000000000000781000006662782F44453545453233392D413441412D343438302D424637312D3437454546434241323943372F747269616E676C65732E62696E504B01021400140006080000726E444300000000000000000000000037000000000000
310
00000000000000D21000006662782F44453545453233392D413441412D343438302D424637312D3437454546434241323943372F617474726962757465732E62696E504B01021400140006080800726E4443D5987DFC8F000000410100003600000000000000000000000000271100006662782F44453545453233392D4134
310
41412D343438302D424637312D3437454546434241323943372F6469726563746F72792E786D6C504B01021400140006080800726E4443B315F3C7FE000000A00100003B000000000000000000000000000A1200006662782F44453545453233392D413441412D343438302D424637312D3437454546434241323943372F72
310
65736F75726365732F636F72652E786D6C504B0506000000000E000E0080040000611300000000
  0
XRECORD
  5
17
102
{ACAD_REACTORS
330
12
102
}
330
12
100
AcDbXrecord
280
     1
270
     1
271
     1
  0
XRECORD
  5
16
102
{ACAD_REACTORS
330
12
102
}
330
12
100
AcDbXrecord
280
     1
270
     1
271
     1
  0
XRECORD
  5
18
102
{ACAD_REACTORS
330
12
102
}
330
12
100
AcDbXrecord
280
     1
270
     1
271
     1
  0
XRECORD
  5
15
102
{ACAD_REACTORS
330
12
102
}
330
12
100
AcDbXrecord
280
     1
270
     1
271
     1
  0
XRECORD
  5
24
102
{ACAD_REACTORS
330
22
102
}
330
22
100
AcDbXrecord
280
     1
270
     1
271
     1
  0
XRECORD
  5
23
102
{ACAD_REACTORS
330
22
102
}
330
22
100
AcDbXrecord
280
     1
270
     1
271
     1
  0
XRECORD
  5
27
102
{ACAD_REACTORS
330
22
102
}
330
22
100
AcDbXrecord
280
     1
270
     1
271
     1
  0
XRECORD
  5
26
102
{ACAD_REACTORS
330
22
102
}
330
22
100
AcDbXrecord
280
     1
270
     1
271
     1
  0
XRECORD
  5
28
102
{ACAD_REACTORS
330
22
102
}
330
22
100
AcDbXrecord
280
     1
270
     1
271
     1
  0
XRECORD
  5
25
102
{ACAD_REACTORS
330
22
102
}
330
22
100
AcDbXrecord
280
     1
270
     1
271
     1
  0
XRECORD
  5
CEE
102
{ACAD_REACTORS
330
CED
102
}
330
CED
100
AcDbXrecord
280
     1
102
ACAD_ROUNDTRIP_2012_MLEADER_STYLE
298
     1
  0
CELLSTYLEMAP
  5
CEC
102
{ACAD_REACTORS
330
CA5
102
}
330
CA5
100
AcDbCellStyleMap
 90
        3
300
CELLSTYLE
  1
TABLEFORMAT_BEGIN
 90
        5
170
     1
 91
        0
 92
    32768
 62
   257
 93
        1
300
CONTENTFORMAT
  1
CONTENTFORMAT_BEGIN
 90
        0
 91
        0
 92
      512
 93
        0
300

 40
0.0
140
1.0
 94
        5
 62
     0
340
55
144
0.25
309
CONTENTFORMAT_END
171
     1
301
MARGIN
  1
CELLMARGIN_BEGIN
 40
0.06
 40
0.06
 40
0.06
 40
0.06
 40
0.18
 40
0.18
309
CELLMARGIN_END
 94
        6
 95
        1
302
GRIDFORMAT
  1
GRIDFORMAT_BEGIN
 90
        0
 91
        1
 62
     0
 92
       -2
340
0
 93
        0
 40
0.045
309
GRIDFORMAT_END
 95
        2
302
GRIDFORMAT
  1
GRIDFORMAT_BEGIN
 90
        0
 91
        1
 62
     0
 92
       -2
340
0
 93
        0
 40
0.045
309
GRIDFORMAT_END
 95
        4
302
GRIDFORMAT
  1
GRIDFORMAT_BEGIN
 90
        0
 91
        1
 62
     0
 92
       -2
340
0
 93
        0
 40
0.045
309
GRIDFORMAT_END
 95
        8
302
GRIDFORMAT
  1
GRIDFORMAT_BEGIN
 90
        0
 91
        1
 62
     0
 92
       -2
340
0
 93
        0
 40
0.045
309
GRIDFORMAT_END
 95
       16
302
GRIDFORMAT
  1
GRIDFORMAT_BEGIN
 90
        0
 91
        1
 62
     0
 92
       -2
340
0
 93
        0
 40
0.045
309
GRIDFORMAT_END
 95
       32
302
GRIDFORMAT
  1
GRIDFORMAT_BEGIN
 90
        0
 91
        1
 62
     0
 92
       -2
340
0
 93
        0
 40
0.045
309
GRIDFORMAT_END
309
TABLEFORMAT_END
  1
CELLSTYLE_BEGIN
 90
        1
 91
        1
300
_TITLE
309
CELLSTYLE_END
300
CELLSTYLE
  1
TABLEFORMAT_BEGIN
 90
        5
170
     1
 91
        0
 92
        0
 62
   257
 93
        1
300
CONTENTFORMAT
  1
CONTENTFORMAT_BEGIN
 90
        0
 91
        0
 92
      512
 93
        0
300

 40
0.0
140
1.0
 94
        5
 62
     0
340
55
144
0.18
309
CONTENTFORMAT_END
171
     1
301
MARGIN
  1
CELLMARGIN_BEGIN
 40
0.06
 40
0.06
 40
0.06
 40
0.06
 40
0.18
 40
0.18
309
CELLMARGIN_END
 94
        6
 95
        1
302
GRIDFORMAT
  1
GRIDFORMAT_BEGIN
 90
        0
 91
        1
 62
     0
 92
       -2
340
0
 93
        0
 40
0.045
309
GRIDFORMAT_END
 95
        2
302
GRIDFORMAT
  1
GRIDFORMAT_BEGIN
 90
        0
 91
        1
 62
     0
 92
       -2
340
0
 93
        0
 40
0.045
309
GRIDFORMAT_END
 95
        4
302
GRIDFORMAT
  1
GRIDFORMAT_BEGIN
 90
        0
 91
        1
 62
     0
 92
       -2
340
0
 93
        0
 40
0.045
309
GRIDFORMAT_END
 95
        8
302
GRIDFORMAT
  1
GRIDFORMAT_BEGIN
 90
        0
 91
        1
 62
     0
 92
       -2
340
0
 93
        0
 40
0.045
309
GRIDFORMAT_END
 95
       16
302
GRIDFORMAT
  1
GRIDFORMAT_BEGIN
 90
        0
 91
        1
 62
     0
 92
       -2
340
0
 93
        0
 40
0.045
309
GRIDFORMAT_END
 95
       32
302
GRIDFORMAT
  1
GRIDFORMAT_BEGIN
 90
        0
 91
        1
 62
     0
 92
       -2
340
0
 93
        0
 40
0.045
309
GRIDFORMAT_END
309
TABLEFORMAT_END
  1
CELLSTYLE_BEGIN
 90
        2
 91
        1
300
_HEADER
309
CELLSTYLE_END
300
CELLSTYLE
  1
TABLEFORMAT_BEGIN
 90
        5
170
     1
 91
        0
 92
        0
 62
   257
 93
        1
300
CONTENTFORMAT
  1
CONTENTFORMAT_BEGIN
 90
        0
 91
        0
 92
      512
 93
        0
300

 40
0.0
140
1.0
 94
        2
 62
     0
340
55
144
0.18
309
CONTENTFORMAT_END
171
     1
301
MARGIN
  1
CELLMARGIN_BEGIN
 40
0.06
 40
0.06
 40
0.06
 40
0.06
 40
0.18
 40
0.18
309
CELLMARGIN_END
 94
        6
 95
        1
302
GRIDFORMAT
  1
GRIDFORMAT_BEGIN
 90
        0
 91
        1
 62
     0
 92
       -2
340
0
 93
        0
 40
0.045
309
GRIDFORMAT_END
 95
        2
302
GRIDFORMAT
  1
GRIDFORMAT_BEGIN
 90
        0
 91
        1
 62
     0
 92
       -2
340
0
 93
        0
 40
0.045
309
GRIDFORMAT_END
 95
        4
302
GRIDFORMAT
  1
GRIDFORMAT_BEGIN
 90
        0
 91
        1
 62
     0
 92
       -2
340
0
 93
        0
 40
0.045
309
GRIDFORMAT_END
 95
        8
302
GRIDFORMAT
  1
GRIDFORMAT_BEGIN
 90
        0
 91
        1
 62
     0
 92
       -2
340
0
 93
        0
 40
0.045
309
GRIDFORMAT_END
 95
       16
302
GRIDFORMAT
  1
GRIDFORMAT_BEGIN
 90
        0
 91
        1
 62
     0
 92
       -2
340
0
 93
        0
 40
0.045
309
GRIDFORMAT_END
 95
       32
302
GRIDFORMAT
  1
GRIDFORMAT_BEGIN
 90
        0
 91
        1
 62
     0
 92
       -2
340
0
 93
        0
 40
0.045
309
GRIDFORMAT_END
309
TABLEFORMAT_END
  1
CELLSTYLE_BEGIN
 90
        3
 91
        2
300
_DATA
309
CELLSTYLE_END
  0
XRECORD
  5
D05
102
{ACAD_REACTORS
330
D04
102
}
330
D04
100
AcDbXrecord
280
     1
102
RTVSPropertyOp0
 70
     1
102
RTVSPropertyOp1
 70
     1
102
RTVSPropertyOp2
 70
     1
102
RTVSPropertyOp3
 70
     1
102
RTVSPropertyOp4
 70
     1
102
RTVSPropertyOp5
 70
     1
102
RTVSPropertyOp6
 70
     1
102
RTVSPropertyOp7
 70
     1
102
RTVSPropertyOp8
 70
     1
102
RTVSPropertyOp9
 70
     1
102
RTVSPropertyOp10
 70
     1
102
RTVSPropertyOp11
 70
     1
102
RTVSPropertyOp12
 70
     1
102
RTVSPropertyOp13
 70
     1
102
RTVSPropertyOp14
 70
     1
102
RTVSPropertyOp15
 70
     1
102
RTVSPropertyOp16
 70
     1
102
RTVSPropertyOp17
 70
     1
102
RTVSPropertyOp18
 70
     1
102
RTVSPropertyOp19
 70
     1
102
RTVSPropertyOp20
 70
     1
102
RTVSPropertyOp21
 70
     1
102
RTVSPropertyOp22
 70
     1
102
RTVSPropertyOp23
 70
     1
102
RTVSPropertyOp24
 70
     1
102
RTVSPropertyOp25
 70
     1
102
RTVSPropertyOp26
 70
     1
102
RTVSPropertyOp27
 70
     1
102
RTVSPropertyOp28
 70
     1
102
RTVSPropertyOp29
 70
     1
102
RTVSPropertyOp30
 70
     1
102
RTVSPropertyOp31
 70
     1
102
RTVSPropertyOp32
 70
     1
  0
XRECORD
  5
D03
102
{ACAD_REACTORS
330
D02
102
}
330
D02
100
AcDbXrecord
280
     1
102
RTVSPropertyOp0
 70
     1
102
RTVSPropertyOp1
 70
     1
102
RTVSPropertyOp2
 70
     1
102
RTVSPropertyOp3
 70
     1
102
RTVSPropertyOp4
 70
     1
102
RTVSPropertyOp5
 70
     1
102
RTVSPropertyOp6
 70
     1
102
RTVSPropertyOp7
 70
     1
102
RTVSPropertyOp8
 70
     1
102
RTVSPropertyOp9
 70
     1
102
RTVSPropertyOp10
 70
     1
102
RTVSPropertyOp11
 70
     1
102
RTVSPropertyOp12
 70
     1
102
RTVSPropertyOp13
 70
     1
102
RTVSPropertyOp14
 70
     1
102
RTVSPropertyOp15
 70
     1
102
RTVSPropertyOp16
 70
     1
102
RTVSPropertyOp17
 70
     1
102
RTVSPropertyOp18
 70
     1
102
RTVSPropertyOp19
 70
     1
102
RTVSPropertyOp20
 70
     1
102
RTVSPropertyOp21
 70
     1
102
RTVSPropertyOp22
 70
     1
102
RTVSPropertyOp23
 70
     1
102
RTVSPropertyOp24
 70
     1
102
RTVSPropertyOp25
 70
     1
102
RTVSPropertyOp26
 70
     1
102
RTVSPropertyOp27
 70
     1
102
RTVSPropertyOp28
 70
     1
102
RTVSPropertyOp29
 70
     1
102
RTVSPropertyOp30
 70
     1
102
RTVSPropertyOp31
 70
     1
102
RTVSPropertyOp32
 70
     1
  0
XRECORD
  5
D11
102
{ACAD_REACTORS
330
D10
102
}
330
D10
100
AcDbXrecord
280
     1
102
RTVSPropertyOp0
 70
     1
102
RTVSPropertyOp1
 70
     1
102
RTVSPropertyOp2
 70
     1
102
RTVSPropertyOp3
 70
     1
102
RTVSPropertyOp4
 70
     1
102
RTVSPropertyOp5
 70
     1
102
RTVSPropertyOp6
 70
     1
102
RTVSPropertyOp7
 70
     1
102
RTVSPropertyOp8
 70
     1
102
RTVSPropertyOp9
 70
     1
102
RTVSPropertyOp10
 70
     1
102
RTVSPropertyOp11
 70
     1
102
RTVSPropertyOp12
 70
     1
102
RTVSPropertyOp13
 70
     1
102
RTVSPropertyOp14
 70
     1
102
RTVSPropertyOp15
 70
     1
102
RTVSPropertyOp16
 70
     1
102
RTVSPropertyOp17
 70
     1
102
RTVSPropertyOp18
 70
     1
102
RTVSPropertyOp19
 70
     1
102
RTVSPropertyOp20
 70
     1
102
RTVSPropertyOp21
 70
     1
102
RTVSPropertyOp22
 70
     1
102
RTVSPropertyOp23
 70
     1
102
RTVSPropertyOp24
 70
     1
102
RTVSPropertyOp25
 70
     1
102
RTVSPropertyOp26
 70
     1
102
RTVSPropertyOp27
 70
     1
102
RTVSPropertyOp28
 70
     1
102
RTVSPropertyOp29
 70
     1
102
RTVSPropertyOp30
 70
     1
102
RTVSPropertyOp31
 70
     1
102
RTVSPropertyOp32
 70
     1
  0
XRECORD
  5
D19
102
{ACAD_REACTORS
330
D18
102
}
330
D18
100
AcDbXrecord
280
     1
102
RTVSPropertyOp0
 70
     1
102
RTVSPropertyOp1
 70
     1
102
RTVSPropertyOp2
 70
     1
102
RTVSPropertyOp3
 70
     1
102
RTVSPropertyOp4
 70
     1
102
RTVSPropertyOp5
 70
     1
102
RTVSPropertyOp6
 70
     1
102
RTVSPropertyOp7
 70
     1
102
RTVSPropertyOp8
 70
     1
102
RTVSPropertyOp9
 70
     1
102
RTVSPropertyOp10
 70
     1
102
RTVSPropertyOp11
 70
     1
102
RTVSPropertyOp12
 70
     1
102
RTVSPropertyOp13
 70
     1
102
RTVSPropertyOp14
 70
     1
102
RTVSPropertyOp15
 70
     1
102
RTVSPropertyOp16
 70
     1
102
RTVSPropertyOp17
 70
     1
102
RTVSPropertyOp18
 70
     1
102
RTVSPropertyOp19
 70
     1
102
RTVSPropertyOp20
 70
     1
102
RTVSPropertyOp21
 70
     1
102
RTVSPropertyOp22
 70
     1
102
RTVSPropertyOp23
 70
     1
102
RTVSPropertyOp24
 70
     1
102
RTVSPropertyOp25
 70
     1
102
RTVSPropertyOp26
 70
     1
102
RTVSPropertyOp27
 70
     1
102
RTVSPropertyOp28
 70
     1
102
RTVSPropertyOp29
 70
     1
102
RTVSPropertyOp30
 70
     1
102
RTVSPropertyOp31
 70
     1
102
RTVSPropertyOp32
 70
     1
  0
XRECORD
  5
D0B
102
{ACAD_REACTORS
330
D0A
102
}
330
D0A
100
AcDbXrecord
280
     1
102
RTVSPropertyOp0
 70
     1
102
RTVSPropertyOp1
 70
     1
102
RTVSPropertyOp2
 70
     1
102
RTVSPropertyOp3
 70
     1
102
RTVSPropertyOp4
 70
     1
102
RTVSPropertyOp5
 70
     1
102
RTVSPropertyOp6
 70
     1
102
RTVSPropertyOp7
 70
     1
102
RTVSPropertyOp8
 70
     1
102
RTVSPropertyOp9
 70
     1
102
RTVSPropertyOp10
 70
     1
102
RTVSPropertyOp11
 70
     1
102
RTVSPropertyOp12
 70
     1
102
RTVSPropertyOp13
 70
     1
102
RTVSPropertyOp14
 70
     1
102
RTVSPropertyOp15
 70
     1
102
RTVSPropertyOp16
 70
     1
102
RTVSPropertyOp17
 70
     1
102
RTVSPropertyOp18
 70
     1
102
RTVSPropertyOp19
 70
     1
102
RTVSPropertyOp20
 70
     1
102
RTVSPropertyOp21
 70
     1
102
RTVSPropertyOp22
 70
     1
102
RTVSPropertyOp23
 70
     1
102
RTVSPropertyOp24
 70
     1
102
RTVSPropertyOp25
 70
     1
102
RTVSPropertyOp26
 70
     1
102
RTVSPropertyOp27
 70
     1
102
RTVSPropertyOp28
 70
     1
102
RTVSPropertyOp29
 70
     1
102
RTVSPropertyOp30
 70
     1
102
RTVSPropertyOp31
 70
     1
102
RTVSPropertyOp32
 70
     1
  0
XRECORD
  5
D0F
102
{ACAD_REACTORS
330
D0E
102
}
330
D0E
100
AcDbXrecord
280
     1
102
RTVSPropertyOp0
 70
     1
102
RTVSPropertyOp1
 70
     1
102
RTVSPropertyOp2
 70
     1
102
RTVSPropertyOp3
 70
     1
102
RTVSPropertyOp4
 70
     1
102
RTVSPropertyOp5
 70
     1
102
RTVSPropertyOp6
 70
     1
102
RTVSPropertyOp7
 70
     1
102
RTVSPropertyOp8
 70
     1
102
RTVSPropertyOp9
 70
     1
102
RTVSPropertyOp10
 70
     1
102
RTVSPropertyOp11
 70
     1
102
RTVSPropertyOp12
 70
     1
102
RTVSPropertyOp13
 70
     1
102
RTVSPropertyOp14
 70
     1
102
RTVSPropertyOp15
 70
     1
102
RTVSPropertyOp16
 70
     1
102
RTVSPropertyOp17
 70
     1
102
RTVSPropertyOp18
 70
     1
102
RTVSPropertyOp19
 70
     1
102
RTVSPropertyOp20
 70
     1
102
RTVSPropertyOp21
 70
     1
102
RTVSPropertyOp22
 70
     1
102
RTVSPropertyOp23
 70
     1
102
RTVSPropertyOp24
 70
     1
102
RTVSPropertyOp25
 70
     1
102
RTVSPropertyOp26
 70
     1
102
RTVSPropertyOp27
 70
     1
102
RTVSPropertyOp28
 70
     1
102
RTVSPropertyOp29
 70
     1
102
RTVSPropertyOp30
 70
     1
102
RTVSPropertyOp31
 70
     1
102
RTVSPropertyOp32
 70
     1
  0
XRECORD
  5
D29
102
{ACAD_REACTORS
330
D28
102
}
330
D28
100
AcDbXrecord
280
     1
102
RTVSPropertyOp0
 70
     0
102
RTVSPropertyOp1
 70
     0
102
RTVSPropertyOp2
 70
     0
102
RTVSPropertyOp3
 70
     0
102
RTVSPropertyOp4
 70
     0
102
RTVSPropertyOp5
 70
     0
102
RTVSPropertyOp6
 70
     0
102
RTVSPropertyOp7
 70
     0
102
RTVSPropertyOp8
 70
     0
102
RTVSPropertyOp9
 70
     0
102
RTVSPropertyOp10
 70
     0
102
RTVSPropertyOp11
 70
     0
102
RTVSPropertyOp12
 70
     0
102
RTVSPropertyOp13
 70
     0
102
RTVSPropertyOp14
 70
     2
102
RTVSPropertyOp15
 70
     0
102
RTVSPropertyOp16
 70
     0
102
RTVSPropertyOp17
 70
     0
102
RTVSPropertyOp18
 70
     0
102
RTVSPropertyOp19
 70
     0
102
RTVSPropertyOp20
 70
     0
102
RTVSPropertyOp21
 70
     0
102
RTVSPropertyOp22
 70
     0
102
RTVSPropertyOp23
 70
     0
102
RTVSPropertyOp24
 70
     0
102
RTVSPropertyOp25
 70
     0
102
RTVSPropertyOp26
 70
     0
102
RTVSPropertyOp27
 70
     0
102
RTVSPropertyOp28
 70
     0
102
RTVSPropertyOp29
 70
     0
102
RTVSPropertyOp30
 70
     0
102
RTVSPropertyOp31
 70
     0
102
RTVSPropertyOp32
 70
     0
  0
XRECORD
  5
D17
102
{ACAD_REACTORS
330
D16
102
}
330
D16
100
AcDbXrecord
280
     1
102
RTVSPropertyOp0
 70
     1
102
RTVSPropertyOp1
 70
     1
102
RTVSPropertyOp2
 70
     1
102
RTVSPropertyOp3
 70
     1
102
RTVSPropertyOp4
 70
     1
102
RTVSPropertyOp5
 70
     1
102
RTVSPropertyOp6
 70
     1
102
RTVSPropertyOp7
 70
     1
102
RTVSPropertyOp8
 70
     1
102
RTVSPropertyOp9
 70
     1
102
RTVSPropertyOp10
 70
     1
102
RTVSPropertyOp11
 70
     1
102
RTVSPropertyOp12
 70
     1
102
RTVSPropertyOp13
 70
     1
102
RTVSPropertyOp14
 70
     1
102
RTVSPropertyOp15
 70
     1
102
RTVSPropertyOp16
 70
     1
102
RTVSPropertyOp17
 70
     1
102
RTVSPropertyOp18
 70
     1
102
RTVSPropertyOp19
 70
     1
102
RTVSPropertyOp20
 70
     1
102
RTVSPropertyOp21
 70
     1
102
RTVSPropertyOp22
 70
     1
102
RTVSPropertyOp23
 70
     1
102
RTVSPropertyOp24
 70
     1
102
RTVSPropertyOp25
 70
     1
102
RTVSPropertyOp26
 70
     1
102
RTVSPropertyOp27
 70
     1
102
RTVSPropertyOp28
 70
     1
102
RTVSPropertyOp29
 70
     1
102
RTVSPropertyOp30
 70
     1
102
RTVSPropertyOp31
 70
     1
102
RTVSPropertyOp32
 70
     1
  0
XRECORD
  5
CFB
102
{ACAD_REACTORS
330
CFA
102
}
330
CFA
100
AcDbXrecord
280
     1
102
RTVSPropertyOp0
 70
     1
102
RTVSPropertyOp1
 70
     1
102
RTVSPropertyOp2
 70
     1
102
RTVSPropertyOp3
 70
     1
102
RTVSPropertyOp4
 70
     1
102
RTVSPropertyOp5
 70
     1
102
RTVSPropertyOp6
 70
     1
102
RTVSPropertyOp7
 70
     1
102
RTVSPropertyOp8
 70
     1
102
RTVSPropertyOp9
 70
     1
102
RTVSPropertyOp10
 70
     1
102
RTVSPropertyOp11
 70
     1
102
RTVSPropertyOp12
 70
     1
102
RTVSPropertyOp13
 70
     1
102
RTVSPropertyOp14
 70
     1
102
RTVSPropertyOp15
 70
     1
102
RTVSPropertyOp16
 70
     1
102
RTVSPropertyOp17
 70
     1
102
RTVSPropertyOp18
 70
     1
102
RTVSPropertyOp19
 70
     1
102
RTVSPropertyOp20
 70
     1
102
RTVSPropertyOp21
 70
     1
102
RTVSPropertyOp22
 70
     1
102
RTVSPropertyOp23
 70
     1
102
RTVSPropertyOp24
 70
     1
102
RTVSPropertyOp25
 70
     1
102
RTVSPropertyOp26
 70
     1
102
RTVSPropertyOp27
 70
     1
102
RTVSPropertyOp28
 70
     1
102
RTVSPropertyOp29
 70
     1
102
RTVSPropertyOp30
 70
     1
102
RTVSPropertyOp31
 70
     1
102
RTVSPropertyOp32
 70
     1
  0
XRECORD
  5
CFD
102
{ACAD_REACTORS
330
CFC
102
}
330
CFC
100
AcDbXrecord
280
     1
102
RTVSPropertyOp0
 70
     1
102
RTVSPropertyOp1
 70
     1
102
RTVSPropertyOp2
 70
     1
102
RTVSPropertyOp3
 70
     1
102
RTVSPropertyOp4
 70
     1
102
RTVSPropertyOp5
 70
     1
102
RTVSPropertyOp6
 70
     1
102
RTVSPropertyOp7
 70
     1
102
RTVSPropertyOp8
 70
     1
102
RTVSPropertyOp9
 70
     1
102
RTVSPropertyOp10
 70
     1
102
RTVSPropertyOp11
 70
     1
102
RTVSPropertyOp12
 70
     1
102
RTVSPropertyOp13
 70
     1
102
RTVSPropertyOp14
 70
     1
102
RTVSPropertyOp15
 70
     1
102
RTVSPropertyOp16
 70
     1
102
RTVSPropertyOp17
 70
     1
102
RTVSPropertyOp18
 70
     1
102
RTVSPropertyOp19
 70
     1
102
RTVSPropertyOp20
 70
     1
102
RTVSPropertyOp21
 70
     1
102
RTVSPropertyOp22
 70
     1
102
RTVSPropertyOp23
 70
     1
102
RTVSPropertyOp24
 70
     1
102
RTVSPropertyOp25
 70
     1
102
RTVSPropertyOp26
 70
     1
102
RTVSPropertyOp27
 70
     1
102
RTVSPropertyOp28
 70
     1
102
RTVSPropertyOp29
 70
     1
102
RTVSPropertyOp30
 70
     1
102
RTVSPropertyOp31
 70
     1
102
RTVSPropertyOp32
 70
     1
  0
XRECORD
  5
CFF
102
{ACAD_REACTORS
330
CFE
102
}
330
CFE
100
AcDbXrecord
280
     1
102
RTVSPropertyOp0
 70
     1
102
RTVSPropertyOp1
 70
     1
102
RTVSPropertyOp2
 70
     1
102
RTVSPropertyOp3
 70
     1
102
RTVSPropertyOp4
 70
     1
102
RTVSPropertyOp5
 70
     1
102
RTVSPropertyOp6
 70
     1
102
RTVSPropertyOp7
 70
     1
102
RTVSPropertyOp8
 70
     1
102
RTVSPropertyOp9
 70
     1
102
RTVSPropertyOp10
 70
     1
102
RTVSPropertyOp11
 70
     1
102
RTVSPropertyOp12
 70
     1
102
RTVSPropertyOp13
 70
     1
102
RTVSPropertyOp14
 70
     1
102
RTVSPropertyOp15
 70
     1
102
RTVSPropertyOp16
 70
     1
102
RTVSPropertyOp17
 70
     1
102
RTVSPropertyOp18
 70
     1
102
RTVSPropertyOp19
 70
     1
102
RTVSPropertyOp20
 70
     1
102
RTVSPropertyOp21
 70
     1
102
RTVSPropertyOp22
 70
     1
102
RTVSPropertyOp23
 70
     1
102
RTVSPropertyOp24
 70
     1
102
RTVSPropertyOp25
 70
     1
102
RTVSPropertyOp26
 70
     1
102
RTVSPropertyOp27
 70
     1
102
RTVSPropertyOp28
 70
     1
102
RTVSPropertyOp29
 70
     1
102
RTVSPropertyOp30
 70
     1
102
RTVSPropertyOp31
 70
     1
102
RTVSPropertyOp32
 70
     1
  0
XRECORD
  5
D01
102
{ACAD_REACTORS
330
D00
102
}
330
D00
100
AcDbXrecord
280
     1
102
RTVSPropertyOp0
 70
     1
102
RTVSPropertyOp1
 70
     1
102
RTVSPropertyOp2
 70
     1
102
RTVSPropertyOp3
 70
     1
102
RTVSPropertyOp4
 70
     1
102
RTVSPropertyOp5
 70
     1
102
RTVSPropertyOp6
 70
     1
102
RTVSPropertyOp7
 70
     1
102
RTVSPropertyOp8
 70
     1
102
RTVSPropertyOp9
 70
     1
102
RTVSPropertyOp10
 70
     1
102
RTVSPropertyOp11
 70
     1
102
RTVSPropertyOp12
 70
     1
102
RTVSPropertyOp13
 70
     1
102
RTVSPropertyOp14
 70
     1
102
RTVSPropertyOp15
 70
     1
102
RTVSPropertyOp16
 70
     1
102
RTVSPropertyOp17
 70
     1
102
RTVSPropertyOp18
 70
     1
102
RTVSPropertyOp19
 70
     1
102
RTVSPropertyOp20
 70
     1
102
RTVSPropertyOp21
 70
     1
102
RTVSPropertyOp22
 70
     1
102
RTVSPropertyOp23
 70
     1
102
RTVSPropertyOp24
 70
     1
102
RTVSPropertyOp25
 70
     1
102
RTVSPropertyOp26
 70
     1
102
RTVSPropertyOp27
 70
     1
102
RTVSPropertyOp28
 70
     1
102
RTVSPropertyOp29
 70
     1
102
RTVSPropertyOp30
 70
     1
102
RTVSPropertyOp31
 70
     1
102
RTVSPropertyOp32
 70
     1
  0
XRECORD
  5
D09
102
{ACAD_REACTORS
330
D08
102
}
330
D08
100
AcDbXrecord
280
     1
102
RTVSPropertyOp0
 70
     1
102
RTVSPropertyOp1
 70
     1
102
RTVSPropertyOp2
 70
     1
102
RTVSPropertyOp3
 70
     1
102
RTVSPropertyOp4
 70
     1
102
RTVSPropertyOp5
 70
     1
102
RTVSPropertyOp6
 70
     1
102
RTVSPropertyOp7
 70
     1
102
RTVSPropertyOp8
 70
     1
102
RTVSPropertyOp9
 70
     1
102
RTVSPropertyOp10
 70
     1
102
RTVSPropertyOp11
 70
     1
102
RTVSPropertyOp12
 70
     1
102
RTVSPropertyOp13
 70
     1
102
RTVSPropertyOp14
 70
     1
102
RTVSPropertyOp15
 70
     1
102
RTVSPropertyOp16
 70
     1
102
RTVSPropertyOp17
 70
     1
102
RTVSPropertyOp18
 70
     1
102
RTVSPropertyOp19
 70
     1
102
RTVSPropertyOp20
 70
     1
102
RTVSPropertyOp21
 70
     1
102
RTVSPropertyOp22
 70
     1
102
RTVSPropertyOp23
 70
     1
102
RTVSPropertyOp24
 70
     1
102
RTVSPropertyOp25
 70
     1
102
RTVSPropertyOp26
 70
     1
102
RTVSPropertyOp27
 70
     1
102
RTVSPropertyOp28
 70
     1
102
RTVSPropertyOp29
 70
     1
102
RTVSPropertyOp30
 70
     1
102
RTVSPropertyOp31
 70
     1
102
RTVSPropertyOp32
 70
     1
  0
XRECORD
  5
D25
102
{ACAD_REACTORS
330
D24
102
}
330
D24
100
AcDbXrecord
280
     1
102
RTVSPropertyOp0
 70
     0
102
RTVSPropertyOp1
 70
     0
102
RTVSPropertyOp2
 70
     0
102
RTVSPropertyOp3
 70
     0
102
RTVSPropertyOp4
 70
     0
102
RTVSPropertyOp5
 70
     0
102
RTVSPropertyOp6
 70
     0
102
RTVSPropertyOp7
 70
     0
102
RTVSPropertyOp8
 70
     0
102
RTVSPropertyOp9
 70
     0
102
RTVSPropertyOp10
 70
     0
102
RTVSPropertyOp11
 70
     0
102
RTVSPropertyOp12
 70
     0
102
RTVSPropertyOp13
 70
     0
102
RTVSPropertyOp14
 70
     2
102
RTVSPropertyOp15
 70
     0
102
RTVSPropertyOp16
 70
     0
102
RTVSPropertyOp17
 70
     0
102
RTVSPropertyOp18
 70
     0
102
RTVSPropertyOp19
 70
     0
102
RTVSPropertyOp20
 70
     0
102
RTVSPropertyOp21
 70
     0
102
RTVSPropertyOp22
 70
     0
102
RTVSPropertyOp23
 70
     0
102
RTVSPropertyOp24
 70
     0
102
RTVSPropertyOp25
 70
     0
102
RTVSPropertyOp26
 70
     0
102
RTVSPropertyOp27
 70
     0
102
RTVSPropertyOp28
 70
     0
102
RTVSPropertyOp29
 70
     0
102
RTVSPropertyOp30
 70
     0
102
RTVSPropertyOp31
 70
     0
102
RTVSPropertyOp32
 70
     0
  0
XRECORD
  5
D15
102
{ACAD_REACTORS
330
D14
102
}
330
D14
100
AcDbXrecord
280
     1
102
RTVSPropertyOp0
 70
     1
102
RTVSPropertyOp1
 70
     1
102
RTVSPropertyOp2
 70
     1
102
RTVSPropertyOp3
 70
     1
102
RTVSPropertyOp4
 70
     1
102
RTVSPropertyOp5
 70
     1
102
RTVSPropertyOp6
 70
     1
102
RTVSPropertyOp7
 70
     1
102
RTVSPropertyOp8
 70
     1
102
RTVSPropertyOp9
 70
     1
102
RTVSPropertyOp10
 70
     1
102
RTVSPropertyOp11
 70
     1
102
RTVSPropertyOp12
 70
     1
102
RTVSPropertyOp13
 70
     1
102
RTVSPropertyOp14
 70
     1
102
RTVSPropertyOp15
 70
     1
102
RTVSPropertyOp16
 70
     1
102
RTVSPropertyOp17
 70
     1
102
RTVSPropertyOp18
 70
     1
102
RTVSPropertyOp19
 70
     1
102
RTVSPropertyOp20
 70
     1
102
RTVSPropertyOp21
 70
     1
102
RTVSPropertyOp22
 70
     1
102
RTVSPropertyOp23
 70
     1
102
RTVSPropertyOp24
 70
     1
102
RTVSPropertyOp25
 70
     1
102
RTVSPropertyOp26
 70
     1
102
RTVSPropertyOp27
 70
     1
102
RTVSPropertyOp28
 70
     1
102
RTVSPropertyOp29
 70
     1
102
RTVSPropertyOp30
 70
     1
102
RTVSPropertyOp31
 70
     1
102
RTVSPropertyOp32
 70
     1
  0
XRECORD
  5
D27
102
{ACAD_REACTORS
330
D26
102
}
330
D26
100
AcDbXrecord
280
     1
102
RTVSPropertyOp0
 70
     0
102
RTVSPropertyOp1
 70
     0
102
RTVSPropertyOp2
 70
     0
102
RTVSPropertyOp3
 70
     0
102
RTVSPropertyOp4
 70
     0
102
RTVSPropertyOp5
 70
     0
102
RTVSPropertyOp6
 70
     0
102
RTVSPropertyOp7
 70
     0
102
RTVSPropertyOp8
 70
     0
102
RTVSPropertyOp9
 70
     0
102
RTVSPropertyOp10
 70
     0
102
RTVSPropertyOp11
 70
     0
102
RTVSPropertyOp12
 70
     0
102
RTVSPropertyOp13
 70
     0
102
RTVSPropertyOp14
 70
     2
102
RTVSPropertyOp15
 70
     0
102
RTVSPropertyOp16
 70
     0
102
RTVSPropertyOp17
 70
     0
102
RTVSPropertyOp18
 70
     0
102
RTVSPropertyOp19
 70
     0
102
RTVSPropertyOp20
 70
     0
102
RTVSPropertyOp21
 70
     0
102
RTVSPropertyOp22
 70
     0
102
RTVSPropertyOp23
 70
     0
102
RTVSPropertyOp24
 70
     0
102
RTVSPropertyOp25
 70
     0
102
RTVSPropertyOp26
 70
     0
102
RTVSPropertyOp27
 70
     0
102
RTVSPropertyOp28
 70
     0
102
RTVSPropertyOp29
 70
     0
102
RTVSPropertyOp30
 70
     0
102
RTVSPropertyOp31
 70
     0
102
RTVSPropertyOp32
 70
     0
  0
XRECORD
  5
D0D
102
{ACAD_REACTORS
330
D0C
102
}
330
D0C
100
AcDbXrecord
280
     1
102
RTVSPropertyOp0
 70
     1
102
RTVSPropertyOp1
 70
     1
102
RTVSPropertyOp2
 70
     1
102
RTVSPropertyOp3
 70
     1
102
RTVSPropertyOp4
 70
     1
102
RTVSPropertyOp5
 70
     1
102
RTVSPropertyOp6
 70
     1
102
RTVSPropertyOp7
 70
     1
102
RTVSPropertyOp8
 70
     1
102
RTVSPropertyOp9
 70
     1
102
RTVSPropertyOp10
 70
     1
102
RTVSPropertyOp11
 70
     1
102
RTVSPropertyOp12
 70
     1
102
RTVSPropertyOp13
 70
     1
102
RTVSPropertyOp14
 70
     1
102
RTVSPropertyOp15
 70
     1
102
RTVSPropertyOp16
 70
     1
102
RTVSPropertyOp17
 70
     1
102
RTVSPropertyOp18
 70
     1
102
RTVSPropertyOp19
 70
     1
102
RTVSPropertyOp20
 70
     1
102
RTVSPropertyOp21
 70
     1
102
RTVSPropertyOp22
 70
     1
102
RTVSPropertyOp23
 70
     1
102
RTVSPropertyOp24
 70
     1
102
RTVSPropertyOp25
 70
     1
102
RTVSPropertyOp26
 70
     1
102
RTVSPropertyOp27
 70
     1
102
RTVSPropertyOp28
 70
     1
102
RTVSPropertyOp29
 70
     1
102
RTVSPropertyOp30
 70
     1
102
RTVSPropertyOp31
 70
     1
102
RTVSPropertyOp32
 70
     1
  0
XRECORD
  5
D23
102
{ACAD_REACTORS
330
D22
102
}
330
D22
100
AcDbXrecord
280
     1
102
RTVSPropertyOp0
 70
     1
102
RTVSPropertyOp1
 70
     1
102
RTVSPropertyOp2
 70
     1
102
RTVSPropertyOp3
 70
     1
102
RTVSPropertyOp4
 70
     1
102
RTVSPropertyOp5
 70
     1
102
RTVSPropertyOp6
 70
     1
102
RTVSPropertyOp7
 70
     1
102
RTVSPropertyOp8
 70
     1
102
RTVSPropertyOp9
 70
     1
102
RTVSPropertyOp10
 70
     1
102
RTVSPropertyOp11
 70
     1
102
RTVSPropertyOp12
 70
     1
102
RTVSPropertyOp13
 70
     1
102
RTVSPropertyOp14
 70
     1
102
RTVSPropertyOp15
 70
     1
102
RTVSPropertyOp16
 70
     1
102
RTVSPropertyOp17
 70
     1
102
RTVSPropertyOp18
 70
     1
102
RTVSPropertyOp19
 70
     1
102
RTVSPropertyOp20
 70
     1
102
RTVSPropertyOp21
 70
     1
102
RTVSPropertyOp22
 70
     1
102
RTVSPropertyOp23
 70
     1
102
RTVSPropertyOp24
 70
     1
102
RTVSPropertyOp25
 70
     1
102
RTVSPropertyOp26
 70
     1
102
RTVSPropertyOp27
 70
     1
102
RTVSPropertyOp28
 70
     1
102
RTVSPropertyOp29
 70
     1
102
RTVSPropertyOp30
 70
     1
102
RTVSPropertyOp31
 70
     1
102
RTVSPropertyOp32
 70
     1
  0
XRECORD
  5
D21
102
{ACAD_REACTORS
330
D20
102
}
330
D20
100
AcDbXrecord
280
     1
102
RTVSPropertyOp0
 70
     1
102
RTVSPropertyOp1
 70
     1
102
RTVSPropertyOp2
 70
     1
102
RTVSPropertyOp3
 70
     1
102
RTVSPropertyOp4
 70
     1
102
RTVSPropertyOp5
 70
     1
102
RTVSPropertyOp6
 70
     1
102
RTVSPropertyOp7
 70
     1
102
RTVSPropertyOp8
 70
     1
102
RTVSPropertyOp9
 70
     1
102
RTVSPropertyOp10
 70
     1
102
RTVSPropertyOp11
 70
     1
102
RTVSPropertyOp12
 70
     1
102
RTVSPropertyOp13
 70
     1
102
RTVSPropertyOp14
 70
     1
102
RTVSPropertyOp15
 70
     1
102
RTVSPropertyOp16
 70
     1
102
RTVSPropertyOp17
 70
     1
102
RTVSPropertyOp18
 70
     1
102
RTVSPropertyOp19
 70
     1
102
RTVSPropertyOp20
 70
     1
102
RTVSPropertyOp21
 70
     1
102
RTVSPropertyOp22
 70
     1
102
RTVSPropertyOp23
 70
     1
102
RTVSPropertyOp24
 70
     1
102
RTVSPropertyOp25
 70
     1
102
RTVSPropertyOp26
 70
     1
102
RTVSPropertyOp27
 70
     1
102
RTVSPropertyOp28
 70
     1
102
RTVSPropertyOp29
 70
     1
102
RTVSPropertyOp30
 70
     1
102
RTVSPropertyOp31
 70
     1
102
RTVSPropertyOp32
 70
     1
  0
XRECORD
  5
D1B
102
{ACAD_REACTORS
330
D1A
102
}
330
D1A
100
AcDbXrecord
280
     1
102
RTVSPropertyOp0
 70
     1
102
RTVSPropertyOp1
 70
     1
102
RTVSPropertyOp2
 70
     1
102
RTVSPropertyOp3
 70
     1
102
RTVSPropertyOp4
 70
     1
102
RTVSPropertyOp5
 70
     1
102
RTVSPropertyOp6
 70
     1
102
RTVSPropertyOp7
 70
     1
102
RTVSPropertyOp8
 70
     1
102
RTVSPropertyOp9
 70
     1
102
RTVSPropertyOp10
 70
     1
102
RTVSPropertyOp11
 70
     1
102
RTVSPropertyOp12
 70
     1
102
RTVSPropertyOp13
 70
     1
102
RTVSPropertyOp14
 70
     1
102
RTVSPropertyOp15
 70
     1
102
RTVSPropertyOp16
 70
     1
102
RTVSPropertyOp17
 70
     1
102
RTVSPropertyOp18
 70
     1
102
RTVSPropertyOp19
 70
     1
102
RTVSPropertyOp20
 70
     1
102
RTVSPropertyOp21
 70
     1
102
RTVSPropertyOp22
 70
     1
102
RTVSPropertyOp23
 70
     1
102
RTVSPropertyOp24
 70
     1
102
RTVSPropertyOp25
 70
     1
102
RTVSPropertyOp26
 70
     1
102
RTVSPropertyOp27
 70
     1
102
RTVSPropertyOp28
 70
     1
102
RTVSPropertyOp29
 70
     1
102
RTVSPropertyOp30
 70
     1
102
RTVSPropertyOp31
 70
     1
102
RTVSPropertyOp32
 70
     1
  0
XRECORD
  5
D1D
102
{ACAD_REACTORS
330
D1C
102
}
330
D1C
100
AcDbXrecord
280
     1
102
RTVSPropertyOp0
 70
     1
102
RTVSPropertyOp1
 70
     1
102
RTVSPropertyOp2
 70
     1
102
RTVSPropertyOp3
 70
     1
102
RTVSPropertyOp4
 70
     1
102
RTVSPropertyOp5
 70
     1
102
RTVSPropertyOp6
 70
     1
102
RTVSPropertyOp7
 70
     1
102
RTVSPropertyOp8
 70
     1
102
RTVSPropertyOp9
 70
     1
102
RTVSPropertyOp10
 70
     1
102
RTVSPropertyOp11
 70
     1
102
RTVSPropertyOp12
 70
     1
102
RTVSPropertyOp13
 70
     1
102
RTVSPropertyOp14
 70
     1
102
RTVSPropertyOp15
 70
     1
102
RTVSPropertyOp16
 70
     1
102
RTVSPropertyOp17
 70
     1
102
RTVSPropertyOp18
 70
     1
102
RTVSPropertyOp19
 70
     1
102
RTVSPropertyOp20
 70
     1
102
RTVSPropertyOp21
 70
     1
102
RTVSPropertyOp22
 70
     1
102
RTVSPropertyOp23
 70
     1
102
RTVSPropertyOp24
 70
     1
102
RTVSPropertyOp25
 70
     1
102
RTVSPropertyOp26
 70
     1
102
RTVSPropertyOp27
 70
     1
102
RTVSPropertyOp28
 70
     1
102
RTVSPropertyOp29
 70
     1
102
RTVSPropertyOp30
 70
     1
102
RTVSPropertyOp31
 70
     1
102
RTVSPropertyOp32
 70
     1
  0
XRECORD
  5
D13
102
{ACAD_REACTORS
330
D12
102
}
330
D12
100
AcDbXrecord
280
     1
102
RTVSPropertyOp0
 70
     1
102
RTVSPropertyOp1
 70
     1
102
RTVSPropertyOp2
 70
     1
102
RTVSPropertyOp3
 70
     1
102
RTVSPropertyOp4
 70
     1
102
RTVSPropertyOp5
 70
     1
102
RTVSPropertyOp6
 70
     1
102
RTVSPropertyOp7
 70
     1
102
RTVSPropertyOp8
 70
     1
102
RTVSPropertyOp9
 70
     1
102
RTVSPropertyOp10
 70
     1
102
RTVSPropertyOp11
 70
     1
102
RTVSPropertyOp12
 70
     1
102
RTVSPropertyOp13
 70
     1
102
RTVSPropertyOp14
 70
     1
102
RTVSPropertyOp15
 70
     1
102
RTVSPropertyOp16
 70
     1
102
RTVSPropertyOp17
 70
     1
102
RTVSPropertyOp18
 70
     1
102
RTVSPropertyOp19
 70
     1
102
RTVSPropertyOp20
 70
     1
102
RTVSPropertyOp21
 70
     1
102
RTVSPropertyOp22
 70
     1
102
RTVSPropertyOp23
 70
     1
102
RTVSPropertyOp24
 70
     1
102
RTVSPropertyOp25
 70
     1
102
RTVSPropertyOp26
 70
     1
102
RTVSPropertyOp27
 70
     1
102
RTVSPropertyOp28
 70
     1
102
RTVSPropertyOp29
 70
     1
102
RTVSPropertyOp30
 70
     1
102
RTVSPropertyOp31
 70
     1
102
RTVSPropertyOp32
 70
     1
  0
XRECORD
  5
D07
102
{ACAD_REACTORS
330
D06
102
}
330
D06
100
AcDbXrecord
280
     1
102
RTVSPropertyOp0
 70
     1
102
RTVSPropertyOp1
 70
     1
102
RTVSPropertyOp2
 70
     1
102
RTVSPropertyOp3
 70
     1
102
RTVSPropertyOp4
 70
     1
102
RTVSPropertyOp5
 70
     1
102
RTVSPropertyOp6
 70
     1
102
RTVSPropertyOp7
 70
     1
102
RTVSPropertyOp8
 70
     1
102
RTVSPropertyOp9
 70
     1
102
RTVSPropertyOp10
 70
     1
102
RTVSPropertyOp11
 70
     1
102
RTVSPropertyOp12
 70
     1
102
RTVSPropertyOp13
 70
     1
102
RTVSPropertyOp14
 70
     1
102
RTVSPropertyOp15
 70
     1
102
RTVSPropertyOp16
 70
     1
102
RTVSPropertyOp17
 70
     1
102
RTVSPropertyOp18
 70
     1
102
RTVSPropertyOp19
 70
     1
102
RTVSPropertyOp20
 70
     1
102
RTVSPropertyOp21
 70
     1
102
RTVSPropertyOp22
 70
     1
102
RTVSPropertyOp23
 70
     1
102
RTVSPropertyOp24
 70
     1
102
RTVSPropertyOp25
 70
     1
102
RTVSPropertyOp26
 70
     1
102
RTVSPropertyOp27
 70
     1
102
RTVSPropertyOp28
 70
     1
102
RTVSPropertyOp29
 70
     1
102
RTVSPropertyOp30
 70
     1
102
RTVSPropertyOp31
 70
     1
102
RTVSPropertyOp32
 70
     1
  0
XRECORD
  5
D1F
102
{ACAD_REACTORS
330
D1E
102
}
330
D1E
100
AcDbXrecord
280
     1
102
RTVSPropertyOp0
 70
     1
102
RTVSPropertyOp1
 70
     1
102
RTVSPropertyOp2
 70
     1
102
RTVSPropertyOp3
 70
     1
102
RTVSPropertyOp4
 70
     1
102
RTVSPropertyOp5
 70
     1
102
RTVSPropertyOp6
 70
     1
102
RTVSPropertyOp7
 70
     1
102
RTVSPropertyOp8
 70
     1
102
RTVSPropertyOp9
 70
     1
102
RTVSPropertyOp10
 70
     1
102
RTVSPropertyOp11
 70
     1
102
RTVSPropertyOp12
 70
     1
102
RTVSPropertyOp13
 70
     1
102
RTVSPropertyOp14
 70
     1
102
RTVSPropertyOp15
 70
     1
102
RTVSPropertyOp16
 70
     1
102
RTVSPropertyOp17
 70
     1
102
RTVSPropertyOp18
 70
     1
102
RTVSPropertyOp19
 70
     1
102
RTVSPropertyOp20
 70
     1
102
RTVSPropertyOp21
 70
     1
102
RTVSPropertyOp22
 70
     1
102
RTVSPropertyOp23
 70
     1
102
RTVSPropertyOp24
 70
     1
102
RTVSPropertyOp25
 70
     1
102
RTVSPropertyOp26
 70
     1
102
RTVSPropertyOp27
 70
     1
102
RTVSPropertyOp28
 70
     1
102
RTVSPropertyOp29
 70
     1
102
RTVSPropertyOp30
 70
     1
102
RTVSPropertyOp31
 70
     1
102
RTVSPropertyOp32
 70
     1
  0
ENDSEC
  0
EOF
