  0
SECTION
  2
HEADER
  9
$ACADVER
  1
AC1021
  9
$ACADMAINTVER
 70
    50
  9
$DWGCODEPAGE
  3
ANSI_1252
  9
$AUTHOR
  1
zsm
  9
$CUSTOMPROPERTYTAG
  1
Manager
  9
$CUSTOMPROPERTY
  1

  9
$CUSTOMPROPERTYTAG
  1
Firma
  9
$CUSTOMPROPERTY
  1

  9
$CUSTOMPROPERTYTAG
  1
Kategorie
  9
$CUSTOMPROPERTY
  1

  9
$CUSTOMPROPERTYTAG
  1
Bauteilnummer
  9
$CUSTOMPROPERTY
  1
33200
  9
$CUSTOMPROPERTYTAG
  1
Bezeichnung
  9
$CUSTOMPROPERTY
  1
Metallbaugarnitur kpl.
  9
$CUSTOMPROPERTYTAG
  1
Projekt
  9
$CUSTOMPROPERTY
  1

  9
$CUSTOMPROPERTYTAG
  1
Konstrukteur
  9
$CUSTOMPROPERTY
  1
zsm
  9
$CUSTOMPROPERTYTAG
  1
Ingenieur
  9
$CUSTOMPROPERTY
  1

  9
$CUSTOMPROPERTYTAG
  1
Bevollmächtigter
  9
$CUSTOMPROPERTY
  1

  9
$CUSTOMPROPERTYTAG
  1
Kostenstelle
  9
$CUSTOMPROPERTY
  1

  9
$CUSTOMPROPERTYTAG
  1
Zulieferer
  9
$CUSTOMPROPERTY
  1

  9
$CUSTOMPROPERTYTAG
  1
Benutzerstatus
  9
$CUSTOMPROPERTY
  1

  9
$CUSTOMPROPERTYTAG
  1
Konstruktionsstatus
  9
$CUSTOMPROPERTY
  1
InBearbeitung
  9
$CUSTOMPROPERTYTAG
  1
Kontrolliert von
  9
$CUSTOMPROPERTY
  1

  9
$CUSTOMPROPERTYTAG
  1
Konstruktion genehmigt von
  9
$CUSTOMPROPERTY
  1

  9
$CUSTOMPROPERTYTAG
  1
Fertigung genehmigt von
  9
$CUSTOMPROPERTY
  1

  9
$CUSTOMPROPERTYTAG
  1
Aend_Beschreibung_1
  9
$CUSTOMPROPERTY
  1

  9
$CUSTOMPROPERTYTAG
  1
Aend_Beschreibung_2
  9
$CUSTOMPROPERTY
  1

  9
$CUSTOMPROPERTYTAG
  1
Aend_Beschreibung_3
  9
$CUSTOMPROPERTY
  1

  9
$CUSTOMPROPERTYTAG
  1
Aend_Beschreibung_4
  9
$CUSTOMPROPERTY
  1

  9
$CUSTOMPROPERTYTAG
  1
Aend_Beschreibung_5
  9
$CUSTOMPROPERTY
  1

  9
$CUSTOMPROPERTYTAG
  1
Aend_Beschreibung_6
  9
$CUSTOMPROPERTY
  1

  9
$CUSTOMPROPERTYTAG
  1
Aend_Beschreibung_7
  9
$CUSTOMPROPERTY
  1

  9
$CUSTOMPROPERTYTAG
  1
Aend_Beschreibung_8
  9
$CUSTOMPROPERTY
  1

  9
$CUSTOMPROPERTYTAG
  1
Aend_Index_1
  9
$CUSTOMPROPERTY
  1

  9
$CUSTOMPROPERTYTAG
  1
Aend_Index_2
  9
$CUSTOMPROPERTY
  1

  9
$CUSTOMPROPERTYTAG
  1
Aend_Index_3
  9
$CUSTOMPROPERTY
  1

  9
$CUSTOMPROPERTYTAG
  1
Aend_Index_4
  9
$CUSTOMPROPERTY
  1

  9
$CUSTOMPROPERTYTAG
  1
Aend_Index_5
  9
$CUSTOMPROPERTY
  1

  9
$CUSTOMPROPERTYTAG
  1
Aend_Index_6
  9
$CUSTOMPROPERTY
  1

  9
$CUSTOMPROPERTYTAG
  1
Aend_Index_7
  9
$CUSTOMPROPERTY
  1

  9
$CUSTOMPROPERTYTAG
  1
Aend_Index_8
  9
$CUSTOMPROPERTY
  1

  9
$CUSTOMPROPERTYTAG
  1
Aend_Name_1
  9
$CUSTOMPROPERTY
  1

  9
$CUSTOMPROPERTYTAG
  1
Aend_Name_2
  9
$CUSTOMPROPERTY
  1

  9
$CUSTOMPROPERTYTAG
  1
Aend_Name_3
  9
$CUSTOMPROPERTY
  1

  9
$CUSTOMPROPERTYTAG
  1
Aend_Name_4
  9
$CUSTOMPROPERTY
  1

  9
$CUSTOMPROPERTYTAG
  1
Aend_Name_5
  9
$CUSTOMPROPERTY
  1

  9
$CUSTOMPROPERTYTAG
  1
Aend_Name_6
  9
$CUSTOMPROPERTY
  1

  9
$CUSTOMPROPERTYTAG
  1
Aend_Name_7
  9
$CUSTOMPROPERTY
  1

  9
$CUSTOMPROPERTYTAG
  1
Aend_Name_8
  9
$CUSTOMPROPERTY
  1

  9
$CUSTOMPROPERTYTAG
  1
Dimension
  9
$CUSTOMPROPERTY
  1

  9
$CUSTOMPROPERTYTAG
  1
Masse
  9
$CUSTOMPROPERTY
  1

  9
$CUSTOMPROPERTYTAG
  1
Material
  9
$CUSTOMPROPERTY
  1

  9
$CUSTOMPROPERTYTAG
  1
Menge
  9
$CUSTOMPROPERTY
  1

  9
$CUSTOMPROPERTYTAG
  1
Norm
  9
$CUSTOMPROPERTY
  1

  9
$CUSTOMPROPERTYTAG
  1
Position
  9
$CUSTOMPROPERTY
  1

  9
$CUSTOMPROPERTYTAG
  1
Ersatz_fuer
  9
$CUSTOMPROPERTY
  1

  9
$CUSTOMPROPERTYTAG
  1
Esetzt_durch
  9
$CUSTOMPROPERTY
  1

  9
$CUSTOMPROPERTYTAG
  1
Massstab
  9
$CUSTOMPROPERTY
  1
1 : 2
  9
$CUSTOMPROPERTYTAG
  1
SysDate
  9
$CUSTOMPROPERTY
  1
13.03.2013
  9
$CUSTOMPROPERTYTAG
  1
SysTime
  9
$CUSTOMPROPERTY
  1
12:16
  9
$INSBASE
 10
0.0
 20
0.0
 30
0.0
  9
$EXTMIN
 10
0.0
 20
0.0
 30
0.0
  9
$EXTMAX
 10
420.0
 20
594.0
 30
0.0
  9
$LIMMIN
 10
0.0
 20
0.0
  9
$LIMMAX
 10
420.0
 20
594.0
  9
$ORTHOMODE
 70
     0
  9
$REGENMODE
 70
     1
  9
$FILLMODE
 70
     1
  9
$QTEXTMODE
 70
     0
  9
$MIRRTEXT
 70
     0
  9
$LTSCALE
 40
2.0
  9
$ATTMODE
 70
     1
  9
$TEXTSIZE
 40
0.2
  9
$TRACEWID
 40
0.05
  9
$TEXTSTYLE
  7
Standard
  9
$CLAYER
  8
0
  9
$CELTYPE
  6
ByLayer
  9
$CECOLOR
 62
   256
  9
$CELTSCALE
 40
1.0
  9
$DISPSILH
 70
     0
  9
$DIMSCALE
 40
1.0
  9
$DIMASZ
 40
1.799999999999999
  9
$DIMEXO
 40
0.0625
  9
$DIMDLI
 40
0.38
  9
$DIMRND
 40
0.0
  9
$DIMDLE
 40
0.0
  9
$DIMEXE
 40
0.18
  9
$DIMTP
 40
0.0
  9
$DIMTM
 40
0.0
  9
$DIMTXT
 40
0.3499999940395355
  9
$DIMCEN
 40
0.09
  9
$DIMTSZ
 40
0.0
  9
$DIMTOL
 70
     0
  9
$DIMLIM
 70
     0
  9
$DIMTIH
 70
     1
  9
$DIMTOH
 70
     1
  9
$DIMSE1
 70
     0
  9
$DIMSE2
 70
     0
  9
$DIMTAD
 70
     0
  9
$DIMZIN
 70
     0
  9
$DIMBLK
  1

  9
$DIMASO
 70
     1
  9
$DIMSHO
 70
     1
  9
$DIMPOST
  1

  9
$DIMAPOST
  1

  9
$DIMALT
 70
     0
  9
$DIMALTD
 70
     2
  9
$DIMALTF
 40
25.4
  9
$DIMLFAC
 40
1.0
  9
$DIMTOFL
 70
     0
  9
$DIMTVP
 40
0.0
  9
$DIMTIX
 70
     0
  9
$DIMSOXD
 70
     0
  9
$DIMSAH
 70
     0
  9
$DIMBLK1
  1

  9
$DIMBLK2
  1

  9
$DIMSTYLE
  2
Standard
  9
$DIMCLRD
 70
     0
  9
$DIMCLRE
 70
     0
  9
$DIMCLRT
 70
     0
  9
$DIMTFAC
 40
1.0
  9
$DIMGAP
 40
0.09
  9
$DIMJUST
 70
     0
  9
$DIMSD1
 70
     0
  9
$DIMSD2
 70
     0
  9
$DIMTOLJ
 70
     1
  9
$DIMTZIN
 70
     0
  9
$DIMALTZ
 70
     0
  9
$DIMALTTZ
 70
     0
  9
$DIMUPT
 70
     0
  9
$DIMDEC
 70
     4
  9
$DIMTDEC
 70
     4
  9
$DIMALTU
 70
     2
  9
$DIMALTTD
 70
     2
  9
$DIMTXSTY
  7
Standard
  9
$DIMAUNIT
 70
     0
  9
$DIMADEC
 70
     0
  9
$DIMALTRND
 40
0.0
  9
$DIMAZIN
 70
     0
  9
$DIMDSEP
 70
    46
  9
$DIMATFIT
 70
     3
  9
$DIMFRAC
 70
     0
  9
$DIMLDRBLK
  1

  9
$DIMLUNIT
 70
     2
  9
$DIMLWD
 70
    -2
  9
$DIMLWE
 70
    -2
  9
$DIMTMOVE
 70
     0
  9
$DIMFXL
 40
1.0
  9
$DIMFXLON
 70
     0
  9
$DIMJOGANG
 40
0.7853981633974483
  9
$DIMTFILL
 70
     0
  9
$DIMTFILLCLR
 70
     0
  9
$DIMARCSYM
 70
     0
  9
$DIMLTYPE
  6

  9
$DIMLTEX1
  6

  9
$DIMLTEX2
  6

  9
$LUNITS
 70
     2
  9
$LUPREC
 70
     4
  9
$SKETCHINC
 40
0.1
  9
$FILLETRAD
 40
0.0
  9
$AUNITS
 70
     0
  9
$AUPREC
 70
     0
  9
$MENU
  1
.
  9
$ELEVATION
 40
0.0
  9
$PELEVATION
 40
0.0
  9
$THICKNESS
 40
0.0
  9
$LIMCHECK
 70
     0
  9
$CHAMFERA
 40
0.0
  9
$CHAMFERB
 40
0.0
  9
$CHAMFERC
 40
0.0
  9
$CHAMFERD
 40
0.0
  9
$SKPOLY
 70
     0
  9
$TDCREATE
 40
2456570.392986562
  9
$TDUCREATE
 40
2456570.309653229
  9
$TDUPDATE
 40
2456570.392986562
  9
$TDUUPDATE
 40
2456570.309653229
  9
$TDINDWG
 40
0.0000633796
  9
$TDUSRTIMER
 40
0.0000633333
  9
$USRTIMER
 70
     1
  9
$ANGBASE
 50
0.0
  9
$ANGDIR
 70
     0
  9
$PDMODE
 70
     0
  9
$PDSIZE
 40
0.0
  9
$PLINEWID
 40
0.0
  9
$SPLFRAME
 70
     0
  9
$SPLINETYPE
 70
     6
  9
$SPLINESEGS
 70
     8
  9
$HANDSEED
  5
D14
  9
$SURFTAB1
 70
     6
  9
$SURFTAB2
 70
     6
  9
$SURFTYPE
 70
     6
  9
$SURFU
 70
     6
  9
$SURFV
 70
     6
  9
$UCSBASE
  2

  9
$UCSNAME
  2

  9
$UCSORG
 10
0.0
 20
0.0
 30
0.0
  9
$UCSXDIR
 10
1.0
 20
0.0
 30
0.0
  9
$UCSYDIR
 10
0.0
 20
1.0
 30
0.0
  9
$UCSORTHOREF
  2

  9
$UCSORTHOVIEW
 70
     0
  9
$UCSORGTOP
 10
0.0
 20
0.0
 30
0.0
  9
$UCSORGBOTTOM
 10
0.0
 20
0.0
 30
0.0
  9
$UCSORGLEFT
 10
0.0
 20
0.0
 30
0.0
  9
$UCSORGRIGHT
 10
0.0
 20
0.0
 30
0.0
  9
$UCSORGFRONT
 10
0.0
 20
0.0
 30
0.0
  9
$UCSORGBACK
 10
0.0
 20
0.0
 30
0.0
  9
$PUCSBASE
  2

  9
$PUCSNAME
  2

  9
$PUCSORG
 10
0.0
 20
0.0
 30
0.0
  9
$PUCSXDIR
 10
1.0
 20
0.0
 30
0.0
  9
$PUCSYDIR
 10
0.0
 20
1.0
 30
0.0
  9
$PUCSORTHOREF
  2

  9
$PUCSORTHOVIEW
 70
     0
  9
$PUCSORGTOP
 10
0.0
 20
0.0
 30
0.0
  9
$PUCSORGBOTTOM
 10
0.0
 20
0.0
 30
0.0
  9
$PUCSORGLEFT
 10
0.0
 20
0.0
 30
0.0
  9
$PUCSORGRIGHT
 10
0.0
 20
0.0
 30
0.0
  9
$PUCSORGFRONT
 10
0.0
 20
0.0
 30
0.0
  9
$PUCSORGBACK
 10
0.0
 20
0.0
 30
0.0
  9
$USERI1
 70
     0
  9
$USERI2
 70
     0
  9
$USERI3
 70
     0
  9
$USERI4
 70
     0
  9
$USERI5
 70
     0
  9
$USERR1
 40
0.0
  9
$USERR2
 40
0.0
  9
$USERR3
 40
0.0
  9
$USERR4
 40
0.0
  9
$USERR5
 40
0.0
  9
$WORLDVIEW
 70
     1
  9
$SHADEDGE
 70
     3
  9
$SHADEDIF
 70
    70
  9
$TILEMODE
 70
     1
  9
$MAXACTVP
 70
    64
  9
$PINSBASE
 10
0.0
 20
0.0
 30
0.0
  9
$PLIMCHECK
 70
     0
  9
$PEXTMIN
 10
0.0
 20
0.0
 30
0.0
  9
$PEXTMAX
 10
420.0
 20
594.0
 30
0.0
  9
$PLIMMIN
 10
0.0
 20
0.0
  9
$PLIMMAX
 10
420.0
 20
594.0
  9
$UNITMODE
 70
     0
  9
$VISRETAIN
 70
     1
  9
$PLINEGEN
 70
     0
  9
$PSLTSCALE
 70
     1
  9
$TREEDEPTH
 70
  3020
  9
$CMLSTYLE
  2
Standard
  9
$CMLJUST
 70
     0
  9
$CMLSCALE
 40
1.0
  9
$PROXYGRAPHICS
 70
     1
  9
$MEASUREMENT
 70
     1
  9
$CELWEIGHT
370
    -1
  9
$ENDCAPS
280
     0
  9
$JOINSTYLE
280
     0
  9
$LWDISPLAY
290
     0
  9
$INSUNITS
 70
     4
  9
$HYPERLINKBASE
  1

  9
$STYLESHEET
  1

  9
$XEDIT
290
     1
  9
$CEPSNTYPE
380
     0
  9
$PSTYLEMODE
290
     1
  9
$FINGERPRINTGUID
  2
{FAE27F82-0A77-4B14-AB26-DBF276AC6354}
  9
$VERSIONGUID
  2
{7579BC42-144D-4E63-A29E-83219C348297}
  9
$EXTNAMES
290
     1
  9
$PSVPSCALE
 40
0.0
  9
$OLESTARTUP
290
     0
  9
$SORTENTS
280
   127
  9
$INDEXCTL
280
     0
  9
$HIDETEXT
280
     1
  9
$XCLIPFRAME
290
     0
  9
$HALOGAP
280
     0
  9
$OBSCOLOR
 70
   257
  9
$OBSLTYPE
280
     0
  9
$INTERSECTIONDISPLAY
280
     0
  9
$INTERSECTIONCOLOR
 70
   257
  9
$DIMASSOC
280
     1
  9
$PROJECTNAME
  1

  9
$CAMERADISPLAY
290
     0
  9
$LENSLENGTH
 40
50.0
  9
$CAMERAHEIGHT
 40
0.0
  9
$STEPSPERSEC
 40
2.0
  9
$STEPSIZE
 40
6.0
  9
$3DDWFPREC
 40
2.0
  9
$PSOLWIDTH
 40
0.25
  9
$PSOLHEIGHT
 40
4.0
  9
$LOFTANG1
 40
1.570796326794896
  9
$LOFTANG2
 40
1.570796326794896
  9
$LOFTMAG1
 40
0.0
  9
$LOFTMAG2
 40
0.0
  9
$LOFTPARAM
 70
     7
  9
$LOFTNORMALS
280
     1
  9
$LATITUDE
 40
37.795
  9
$LONGITUDE
 40
-122.394
  9
$NORTHDIRECTION
 40
0.0
  9
$TIMEZONE
 70
 -8000
  9
$LIGHTGLYPHDISPLAY
280
     1
  9
$TILEMODELIGHTSYNCH
280
     1
  9
$CMATERIAL
347
11
  9
$SOLIDHIST
280
     0
  9
$SHOWHIST
280
     1
  9
$DWFFRAME
280
     2
  9
$DGNFRAME
280
     0
  9
$REALWORLDSCALE
290
     1
  9
$INTERFERECOLOR
 62
     1
  9
$INTERFEREOBJVS
345
33
  9
$INTERFEREVPVS
346
30
  9
$CSHADOW
280
     0
  9
$SHADOWPLANELOCATION
 40
0.0
  0
ENDSEC
  0
SECTION
  2
CLASSES
  0
CLASS
  1
ACDBDICTIONARYWDFLT
  2
AcDbDictionaryWithDefault
  3
ObjectDBX Classes
 90
        0
 91
        1
280
     0
281
     0
  0
CLASS
  1
MATERIAL
  2
AcDbMaterial
  3
ObjectDBX Classes
 90
     1153
 91
        3
280
     0
281
     0
  0
CLASS
  1
VISUALSTYLE
  2
AcDbVisualStyle
  3
ObjectDBX Classes
 90
     4095
 91
       24
280
     0
281
     0
  0
CLASS
  1
SCALE
  2
AcDbScale
  3
ObjectDBX Classes
 90
     1153
 91
       17
280
     0
281
     0
  0
CLASS
  1
TABLESTYLE
  2
AcDbTableStyle
  3
ObjectDBX Classes
 90
     4095
 91
        1
280
     0
281
     0
  0
CLASS
  1
MLEADERSTYLE
  2
AcDbMLeaderStyle
  3
ACDB_MLEADERSTYLE_CLASS
 90
     4095
 91
        1
280
     0
281
     0
  0
CLASS
  1
DICTIONARYVAR
  2
AcDbDictionaryVar
  3
ObjectDBX Classes
 90
        0
 91
        5
280
     0
281
     0
  0
CLASS
  1
CELLSTYLEMAP
  2
AcDbCellStyleMap
  3
ObjectDBX Classes
 90
     1152
 91
        2
280
     0
281
     0
  0
ENDSEC
  0
SECTION
  2
TABLES
  0
TABLE
  2
VPORT
  5
8
330
0
100
AcDbSymbolTable
 70
     1
  0
VPORT
  5
57
330
8
100
AcDbSymbolTableRecord
100
AcDbViewportTableRecord
  2
*Active
 70
     0
 10
0.0
 20
0.0
 11
1.0
 21
1.0
 12
210.0
 22
297.0
 13
0.0
 23
0.0
 14
1.0
 24
1.0
 15
0.0
 25
0.0
 16
0.0
 26
0.0
 36
1.0
 17
0.0
 27
0.0
 37
0.0
 40
594.0
 41
0.7070707070707071
 42
50.0
 43
0.0
 44
0.0
 50
0.0
 51
0.0
 71
     0
 72
   100
 73
     1
 74
     1
 75
     0
 76
     0
 77
     0
 78
     0
281
     0
 65
     1
110
0.0
120
0.0
130
0.0
111
1.0
121
0.0
131
0.0
112
0.0
122
1.0
132
0.0
 79
     0
146
0.0
 60
     3
 61
     5
292
     1
282
     1
141
0.0
142
0.0
 63
   250
421
  3355443
  0
ENDTAB
  0
TABLE
  2
LTYPE
  5
5
330
0
100
AcDbSymbolTable
 70
     1
  0
LTYPE
  5
5B
330
5
100
AcDbSymbolTableRecord
100
AcDbLinetypeTableRecord
  2
ByBlock
 70
     0
  3

 72
    65
 73
     0
 40
0.0
  0
LTYPE
  5
5C
330
5
100
AcDbSymbolTableRecord
100
AcDbLinetypeTableRecord
  2
ByLayer
 70
     0
  3

 72
    65
 73
     0
 40
0.0
  0
LTYPE
  5
5D
330
5
100
AcDbSymbolTableRecord
100
AcDbLinetypeTableRecord
  2
Continuous
 70
     0
  3
Solid line
 72
    65
 73
     0
 40
0.0
  0
ENDTAB
  0
TABLE
  2
LAYER
  5
2
330
0
100
AcDbSymbolTable
 70
    15
  0
LAYER
  5
54
330
2
100
AcDbSymbolTableRecord
100
AcDbLayerTableRecord
  2
0
 70
     0
 62
     7
  6
Continuous
370
    -3
390
F
347
21
  0
LAYER
  5
76
330
2
100
AcDbSymbolTableRecord
100
AcDbLayerTableRecord
  2
AM_0
 70
     0
 62
     7
  6
Continuous
370
    50
390
F
347
21
  0
LAYER
  5
77
330
2
100
AcDbSymbolTableRecord
100
AcDbLayerTableRecord
  2
AM_5
 70
     0
 62
     3
420
    65280
  6
Continuous
370
    25
390
F
347
21
  0
LAYER
  5
7F
330
2
100
AcDbSymbolTableRecord
100
AcDbLayerTableRecord
  2
Bemaßungen(DIN)
 70
     0
 62
     7
  6
Continuous
370
    25
390
F
347
21
  0
LAYER
  5
8D
330
2
100
AcDbSymbolTableRecord
100
AcDbLayerTableRecord
  2
Mittellinie(DIN)
 70
     0
 62
     7
  6
Continuous
370
    25
390
F
347
21
  0
LAYER
  5
8F
330
2
100
AcDbSymbolTableRecord
100
AcDbLayerTableRecord
  2
Mittelpunktmarkierung(DIN)
 70
     0
 62
     7
  6
Continuous
370
    25
390
F
347
21
  0
LAYER
  5
99
330
2
100
AcDbSymbolTableRecord
100
AcDbLayerTableRecord
  2
Schraffur
 70
     0
 62
     7
  6
Continuous
370
     9
390
F
347
21
  0
LAYER
  5
9A
330
2
100
AcDbSymbolTableRecord
100
AcDbLayerTableRecord
  2
Schraffur (ISO)
 70
     0
 62
     7
  6
Continuous
370
    18
390
F
347
21
  0
LAYER
  5
9D
330
2
100
AcDbSymbolTableRecord
100
AcDbLayerTableRecord
  2
Sichtbare Kanten(DIN)
 70
     0
 62
     7
  6
Continuous
370
    50
390
F
347
21
  0
LAYER
  5
9E
330
2
100
AcDbSymbolTableRecord
100
AcDbLayerTableRecord
  2
Sichtbare tangentiale Kanten(DIN)
 70
     0
 62
     7
  6
Continuous
370
    50
390
F
347
21
  0
LAYER
  5
A0
330
2
100
AcDbSymbolTableRecord
100
AcDbLayerTableRecord
  2
Skizziergeometrie(DIN)
 70
     0
 62
     7
  6
Continuous
370
    50
390
F
347
21
  0
LAYER
  5
A5
330
2
100
AcDbSymbolTableRecord
100
AcDbLayerTableRecord
  2
Symbole(DIN)
 70
     0
 62
     7
  6
Continuous
370
    25
390
F
347
21
  0
LAYER
  5
A8
330
2
100
AcDbSymbolTableRecord
100
AcDbLayerTableRecord
  2
Titel (ISO)
 70
     0
 62
     7
  6
Continuous
370
    50
390
F
347
21
  0
LAYER
  5
AD
330
2
100
AcDbSymbolTableRecord
100
AcDbLayerTableRecord
  2
Verdeckte Kanten(DIN)
 70
     0
 62
     7
  6
Continuous
370
    35
390
F
347
21
  0
LAYER
  5
2B2
330
2
100
AcDbSymbolTableRecord
100
AcDbLayerTableRecord
  2
Defpoints
 70
     0
 62
     7
  6
Continuous
290
     0
370
    -3
390
F
347
21
  0
ENDTAB
  0
TABLE
  2
STYLE
  5
3
330
0
100
AcDbSymbolTable
 70
    16
  0
STYLE
  5
55
330
3
100
AcDbSymbolTableRecord
100
AcDbTextStyleTableRecord
  2
Standard
 70
     0
 40
0.0
 41
1.0
 50
0.0
 71
     0
 42
0.2
  3
ISOCP.shx
  4

  0
STYLE
  5
5A
330
3
100
AcDbSymbolTableRecord
100
AcDbTextStyleTableRecord
  2
Annotative
 70
     0
 40
0.0
 41
1.0
 50
0.0
 71
     0
 42
0.2
  3
txt
  4

1001
AcadAnnotative
1000
AnnotativeData
1002
{
1070
     1
1070
     1
1002
}
  0
STYLE
  5
AF
330
3
100
AcDbSymbolTableRecord
100
AcDbTextStyleTableRecord
  2
_Schriftfeld_2.5mm
 70
     0
 40
0.0
 41
1.0
 50
0.0
 71
     0
 42
0.2
  3
arial.ttf
  4

1001
ACAD
1000
Arial
1071
      256
  0
STYLE
  5
B0
330
3
100
AcDbSymbolTableRecord
100
AcDbTextStyleTableRecord
  2
_Schriftfeld_2mm
 70
     0
 40
0.0
 41
1.0
 50
0.0
 71
     0
 42
0.2
  3
arial.ttf
  4

1001
ACAD
1000
Arial
1071
      256
  0
STYLE
  5
B1
330
3
100
AcDbSymbolTableRecord
100
AcDbTextStyleTableRecord
  2
_Schriftfeld_3.5mm
 70
     0
 40
0.0
 41
1.0
 50
0.0
 71
     0
 42
0.2
  3
arial.ttf
  4

1001
ACAD
1000
Arial
1071
      256
  0
STYLE
  5
B2
330
3
100
AcDbSymbolTableRecord
100
AcDbTextStyleTableRecord
  2
_Schriftfeld_5mm
 70
     0
 40
0.0
 41
1.0
 50
0.0
 71
     0
 42
0.2
  3
arial.ttf
  4

1001
ACAD
1000
Arial
1071
      256
  0
STYLE
  5
B3
330
3
100
AcDbSymbolTableRecord
100
AcDbTextStyleTableRecord
  2
Aktuell-DIN
 70
     0
 40
0.0
 41
1.0
 50
0.0
 71
     0
 42
0.2
  3
arial.ttf
  4

1001
ACAD
1000
Arial
1071
      256
  0
STYLE
  5
B4
330
3
100
AcDbSymbolTableRecord
100
AcDbTextStyleTableRecord
  2
Bezeichnungstext (DIN)
 70
     0
 40
0.0
 41
1.0
 50
0.0
 71
     0
 42
0.2
  3
isocpeur.ttf
  4

1001
ACAD
1000
ISOCPEUR
1071
      256
  0
STYLE
  5
B5
330
3
100
AcDbSymbolTableRecord
100
AcDbTextStyleTableRecord
  2
Bezeichnungstext (ISO)
 70
     0
 40
0.0
 41
1.0
 50
0.0
 71
     0
 42
0.2
  3
tahoma.ttf
  4

1001
ACAD
1000
Tahoma
1071
      256
  0
STYLE
  5
B6
330
3
100
AcDbSymbolTableRecord
100
AcDbTextStyleTableRecord
  2
Notiztext (DIN)
 70
     0
 40
0.0
 41
1.0
 50
0.0
 71
     0
 42
0.2
  3
isocpeur.ttf
  4

1001
ACAD
1000
ISOCPEUR
1071
      256
  0
STYLE
  5
B7
330
3
100
AcDbSymbolTableRecord
100
AcDbTextStyleTableRecord
  2
Notiztext (ISO)
 70
     0
 40
0.0
 41
1.0
 50
0.0
 71
     0
 42
0.2
  3
tahoma.ttf
  4

1001
ACAD
1000
Tahoma
1071
      256
  0
STYLE
  5
B8
330
3
100
AcDbSymbolTableRecord
100
AcDbTextStyleTableRecord
  2
STANDARD-DIN
 70
     0
 40
0.0
 41
1.0
 50
0.0
 71
     0
 42
0.2
  3
arial.ttf
  4

1001
ACAD
1000
Arial
1071
      256
  0
STYLE
  5
B9
330
3
100
AcDbSymbolTableRecord
100
AcDbTextStyleTableRecord
  2
STANDARD-DIN~0
 70
     0
 40
0.0
 41
1.0
 50
0.0
 71
     0
 42
0.2
  3
arial.ttf
  4

1001
ACAD
1000
Arial
1071
      256
  0
STYLE
  5
BA
330
3
100
AcDbSymbolTableRecord
100
AcDbTextStyleTableRecord
  2
STANDARD-DINGroßer Text
 70
     0
 40
0.0
 41
1.0
 50
0.0
 71
     0
 42
0.2
  3
arial.ttf
  4

1001
ACAD
1000
Arial
1071
      256
  0
STYLE
  5
BB
330
3
100
AcDbSymbolTableRecord
100
AcDbTextStyleTableRecord
  2
STANDARD-DINNach Layer
 70
     0
 40
0.0
 41
1.0
 50
0.0
 71
     0
 42
0.2
  3
arial.ttf
  4

1001
ACAD
1000
Arial
1071
      256
  0
STYLE
  5
192
330
3
100
AcDbSymbolTableRecord
100
AcDbTextStyleTableRecord
  2
Textstil122
 70
     0
 40
0.0
 41
0.899999976158142
 50
0.0
 71
     0
 42
0.2
  3
ISOCP.shx
  4

  0
ENDTAB
  0
TABLE
  2
VIEW
  5
6
330
0
100
AcDbSymbolTable
 70
     0
  0
ENDTAB
  0
TABLE
  2
UCS
  5
7
330
0
100
AcDbSymbolTable
 70
     0
  0
ENDTAB
  0
TABLE
  2
APPID
  5
9
330
0
100
AcDbSymbolTable
 70
     4
  0
APPID
  5
56
330
9
100
AcDbSymbolTableRecord
100
AcDbRegAppTableRecord
  2
ACAD
 70
     0
  0
APPID
  5
5E
330
9
100
AcDbSymbolTableRecord
100
AcDbRegAppTableRecord
  2
AcadAnnotative
 70
     0
  0
APPID
  5
195
330
9
100
AcDbSymbolTableRecord
100
AcDbRegAppTableRecord
  2
AcadAnnoPO
 70
     0
  0
APPID
  5
CD1
330
9
100
AcDbSymbolTableRecord
100
AcDbRegAppTableRecord
  2
ACAD_MLEADERVER
 70
     0
  0
ENDTAB
  0
TABLE
  2
DIMSTYLE
  5
A
330
0
100
AcDbSymbolTable
 70
    22
100
AcDbDimStyleTable
 71
     2
340
BC
340
58
  0
DIMSTYLE
105
58
330
A
100
AcDbSymbolTableRecord
100
AcDbDimStyleTableRecord
  2
Standard
 70
     0
340
55
  0
DIMSTYLE
105
59
330
A
100
AcDbSymbolTableRecord
100
AcDbDimStyleTableRecord
  2
Annotative
 70
     0
340
55
1001
AcadAnnotative
1000
AnnotativeData
1002
{
1070
     1
1070
     1
1002
}
  0
DIMSTYLE
105
BC
102
{ACAD_REACTORS
330
2B1
330
394
330
476
330
558
330
63A
330
725
330
811
330
8F3
330
9E3
330
AC5
330
BA7
102
}
330
A
100
AcDbSymbolTableRecord
100
AcDbDimStyleTableRecord
  2
STANDARD-DIN - Methode 2b
 70
     0
 40
2.0
 41
2.5
 42
0.0
 43
12.0
 44
3.174999999999998
 45
0.00000001
 46
12.0
 73
     0
 74
     0
 77
     1
 78
     8
 79
     2
140
3.5
143
0.03937
146
0.7142857313156128
147
0.8
171
     3
172
     1
176
   250
177
   250
178
   250
271
     2
272
     2
274
     3
284
     8
285
     8
340
B9
371
    25
372
    25
  0
DIMSTYLE
105
BD
330
A
100
AcDbSymbolTableRecord
100
AcDbDimStyleTableRecord
  2
STANDARD-DIN - Methode 2b$7
 70
     0
 40
2.0
 41
2.5
 42
0.0
 43
12.0
 44
3.174999999999998
 45
0.00000001
 46
12.0
 73
     0
 74
     0
 77
     1
 78
     8
 79
     2
140
3.5
143
0.03937
146
0.7142857313156128
147
0.8
171
     3
172
     1
176
   179
177
   250
178
   250
271
     2
272
     2
274
     3
284
     8
285
     8
340
B9
371
    25
372
    25
  0
DIMSTYLE
105
BE
330
A
100
AcDbSymbolTableRecord
100
AcDbDimStyleTableRecord
  2
Standard - Methode 1b (ISO)
 70
     0
 40
2.0
 41
2.5
 42
0.0
 43
5.999999999999999
 44
3.174999999999998
 45
0.00000001
 46
10.0
 73
     0
 77
     1
 78
     8
 79
     2
140
3.5
143
0.03937
147
0.762
171
     3
172
     1
176
   256
177
   256
178
   256
179
     2
271
     2
272
     2
274
     3
278
    44
284
     8
286
     8
340
B7
371
    -1
372
    -1
  0
DIMSTYLE
105
BF
330
A
100
AcDbSymbolTableRecord
100
AcDbDimStyleTableRecord
  2
Standard - Methode 1b (ISO)$7
 70
     0
 40
2.0
 41
2.5
 42
0.0
 43
5.999999999999999
 44
3.174999999999998
 45
0.00000001
 46
10.0
 73
     0
 77
     1
 78
     8
 79
     2
140
3.5
143
0.03937
147
0.762
171
     3
172
     1
176
   256
177
   256
178
   256
179
     2
271
     2
272
     2
274
     3
278
    44
284
     8
286
     8
340
B7
371
    -1
372
    -1
  0
DIMSTYLE
105
C0
330
A
100
AcDbSymbolTableRecord
100
AcDbDimStyleTableRecord
  2
Standard - Methode 2a (DIN)
 70
     0
 40
2.0
 41
2.5
 42
0.8
 43
5.999999999999999
 44
3.174999999999998
 45
0.00000001
 46
10.0
 77
     1
 78
     8
 79
     2
140
3.5
143
0.03937
147
0.8
170
     1
171
     3
172
     1
176
   256
177
   256
178
   256
179
     2
271
     2
272
     2
274
     3
278
    44
284
     8
286
     8
340
B6
371
    -1
372
    -1
  0
DIMSTYLE
105
C1
330
A
100
AcDbSymbolTableRecord
100
AcDbDimStyleTableRecord
  2
Standard - Methode 2a (DIN)$7
 70
     0
 40
2.0
 41
2.5
 42
0.8
 43
5.999999999999999
 44
3.174999999999998
 45
0.00000001
 46
10.0
 77
     1
 78
     8
 79
     2
140
3.5
143
0.03937
147
0.8
170
     1
171
     3
172
     1
176
   256
177
   256
178
   256
179
     2
271
     2
272
     2
274
     3
278
    44
284
     8
286
     8
340
B6
371
    -1
372
    -1
  0
DIMSTYLE
105
C2
330
A
100
AcDbSymbolTableRecord
100
AcDbDimStyleTableRecord
  2
Standard - Methode 2b (DIN)
 70
     0
 40
2.0
 41
2.5
 42
0.0
 43
5.999999999999999
 44
3.174999999999998
 45
0.00000001
 46
10.0
 77
     1
 78
     8
 79
     2
140
3.5
143
0.03937
147
0.8
171
     3
172
     1
176
   256
177
   256
178
   256
271
     2
272
     2
274
     3
278
    44
284
     8
286
     8
340
B6
371
    -1
372
    -1
  0
DIMSTYLE
105
C3
330
A
100
AcDbSymbolTableRecord
100
AcDbDimStyleTableRecord
  2
Standard - Methode 2b (DIN)$7
 70
     0
 40
2.0
 41
2.5
 42
0.0
 43
5.999999999999999
 44
3.174999999999998
 45
0.00000001
 46
10.0
 77
     1
 78
     8
 79
     2
140
3.5
143
0.03937
147
0.8
171
     3
172
     1
176
   256
177
   256
178
   256
271
     2
272
     2
274
     3
278
    44
284
     8
286
     8
340
B6
371
    -1
372
    -1
  0
DIMSTYLE
105
C4
330
A
100
AcDbSymbolTableRecord
100
AcDbDimStyleTableRecord
  2
Standard (DIN)
 70
     0
 40
2.0
 41
2.5
 42
0.8
 43
5.999999999999999
 44
3.174999999999998
 45
0.00000001
 46
10.0
 73
     0
 74
     0
 77
     1
 78
     8
 79
     2
140
3.5
143
0.03937
147
0.8
171
     3
172
     1
176
   256
177
   256
178
   256
271
     2
272
     2
274
     3
278
    44
284
     8
340
B6
371
    -1
372
    -1
  0
DIMSTYLE
105
C5
330
A
100
AcDbSymbolTableRecord
100
AcDbDimStyleTableRecord
  2
Standard (DIN)$7
 70
     0
 40
2.0
 41
2.5
 42
0.8
 43
5.999999999999999
 44
3.174999999999998
 45
0.00000001
 46
10.0
 73
     0
 74
     0
 77
     1
 78
     8
 79
     2
140
3.5
143
0.03937
147
0.8
171
     3
172
     1
176
   256
177
   256
178
   256
271
     2
272
     2
274
     3
278
    44
284
     8
340
B6
371
    -1
372
    -1
  0
DIMSTYLE
105
C6
330
A
100
AcDbSymbolTableRecord
100
AcDbDimStyleTableRecord
  2
Standard (ISO)
 70
     0
 40
2.0
 41
2.5
 42
0.0
 43
5.999999999999999
 44
3.174999999999998
 45
0.00000001
 46
10.0
 73
     0
 74
     0
 77
     1
140
3.5
143
0.03937
146
1.00148570537567
147
0.762
171
     3
172
     1
176
   256
177
   256
178
   256
179
     2
271
     2
272
     2
274
     3
278
    44
340
B7
371
    -1
372
    -1
  0
DIMSTYLE
105
C7
330
A
100
AcDbSymbolTableRecord
100
AcDbDimStyleTableRecord
  2
Standard (ISO)$7
 70
     0
 40
2.0
 41
2.5
 42
0.0
 43
5.999999999999999
 44
3.174999999999998
 45
0.00000001
 46
10.0
 73
     0
 74
     0
 77
     1
140
3.5
143
0.03937
146
1.00148570537567
147
0.762
171
     3
172
     1
176
   256
177
   256
178
   256
179
     2
271
     2
272
     2
274
     3
278
    44
340
B7
371
    -1
372
    -1
  0
DIMSTYLE
105
C8
330
A
100
AcDbSymbolTableRecord
100
AcDbDimStyleTableRecord
  2
Alternativ (ISO)
 70
     0
 40
2.0
 41
2.5
340
55
342
C9
  0
DIMSTYLE
105
DB
330
A
100
AcDbSymbolTableRecord
100
AcDbDimStyleTableRecord
  2
Bezug (ISO)
 70
     0
 40
2.0
 41
2.5
340
55
342
C9
  0
DIMSTYLE
105
DC
330
A
100
AcDbSymbolTableRecord
100
AcDbDimStyleTableRecord
  2
Führungslinie-Ursprungsindikator(DIN)
 70
     0
 40
2.0
 41
2.5
340
55
342
C9
  0
DIMSTYLE
105
DD
330
A
100
AcDbSymbolTableRecord
100
AcDbDimStyleTableRecord
  2
Führungslinie - Bezugsstelle(DIN)
 70
     0
 40
2.0
 41
2.5
340
55
342
C9
  0
DIMSTYLE
105
DE
330
A
100
AcDbSymbolTableRecord
100
AcDbDimStyleTableRecord
  2
Führungslinie - groß(DIN)
 70
     0
 40
2.0
 41
5.0
340
55
342
C9
  0
DIMSTYLE
105
DF
330
A
100
AcDbSymbolTableRecord
100
AcDbDimStyleTableRecord
  2
Führungslinie - Punkt(DIN)
 70
     0
 40
2.0
 41
2.5
340
55
342
C9
  0
DIMSTYLE
105
E0
330
A
100
AcDbSymbolTableRecord
100
AcDbDimStyleTableRecord
  2
Führungslinie(DIN)
 70
     0
 40
2.0
 41
2.5
340
55
342
C9
  0
DIMSTYLE
105
EF
330
A
100
AcDbSymbolTableRecord
100
AcDbDimStyleTableRecord
  2
Groß (ISO)
 70
     0
 40
2.0
 41
5.0
340
55
342
C9
  0
ENDTAB
  0
TABLE
  2
BLOCK_RECORD
  5
1
330
0
100
AcDbSymbolTable
 70
    28
  0
BLOCK_RECORD
  5
6C
330
1
100
AcDbSymbolTableRecord
100
AcDbBlockTableRecord
  2
*Model_Space
340
6F
 70
     0
280
     1
281
     0
  0
BLOCK_RECORD
  5
68
330
1
100
AcDbSymbolTableRecord
100
AcDbBlockTableRecord
  2
*Paper_Space
340
6B
 70
     0
280
     1
281
     0
  0
BLOCK_RECORD
  5
70
330
1
100
AcDbSymbolTableRecord
100
AcDbBlockTableRecord
  2
*Paper_Space0
340
73
 70
     0
280
     1
281
     0
  0
BLOCK_RECORD
  5
C9
330
1
100
AcDbSymbolTableRecord
100
AcDbBlockTableRecord
  2
_Closed
340
0
 70
     0
280
     1
281
     0
  0
BLOCK_RECORD
  5
D0
330
1
100
AcDbSymbolTableRecord
100
AcDbBlockTableRecord
  2
DatumFilled45
340
0
 70
     0
280
     1
281
     0
  0
BLOCK_RECORD
  5
E1
330
1
100
AcDbSymbolTableRecord
100
AcDbBlockTableRecord
  2
Filled-1
340
0
 70
     0
280
     1
281
     0
  0
BLOCK_RECORD
  5
F0
330
1
100
AcDbSymbolTableRecord
100
AcDbBlockTableRecord
  2
Carbonitrieren
340
0
 70
     0
280
     1
281
     0
  0
BLOCK_RECORD
  5
F5
330
1
100
AcDbSymbolTableRecord
100
AcDbBlockTableRecord
  2
Federangaben
340
0
 70
     0
280
     1
281
     0
  0
BLOCK_RECORD
  5
F9
330
1
100
AcDbSymbolTableRecord
100
AcDbBlockTableRecord
  2
Nassschliff
340
0
 70
     0
280
     1
281
     0
  0
BLOCK_RECORD
  5
FD
330
1
100
AcDbSymbolTableRecord
100
AcDbBlockTableRecord
  2
Schleiffrichtung horizontal
340
0
 70
     0
280
     1
281
     0
  0
BLOCK_RECORD
  5
110
330
1
100
AcDbSymbolTableRecord
100
AcDbBlockTableRecord
  2
Schleiffrichtung vertikal
340
0
 70
     0
280
     1
281
     0
  0
BLOCK_RECORD
  5
123
330
1
100
AcDbSymbolTableRecord
100
AcDbBlockTableRecord
  2
Stanz-_Laserteil
340
0
 70
     0
280
     1
281
     0
  0
BLOCK_RECORD
  5
127
330
1
100
AcDbSymbolTableRecord
100
AcDbBlockTableRecord
  2
Stanzrundung_1
340
0
 70
     0
280
     1
281
     0
  0
BLOCK_RECORD
  5
12D
330
1
100
AcDbSymbolTableRecord
100
AcDbBlockTableRecord
  2
Stanzrundung_2
340
0
 70
     0
280
     1
281
     0
  0
BLOCK_RECORD
  5
133
330
1
100
AcDbSymbolTableRecord
100
AcDbBlockTableRecord
  2
Verzinkt
340
0
 70
     0
280
     1
281
     0
  0
BLOCK_RECORD
  5
137
330
1
100
AcDbSymbolTableRecord
100
AcDbBlockTableRecord
  2
Vierkant-Tabelle
340
0
 70
     0
280
     1
281
     0
  0
BLOCK_RECORD
  5
162
330
1
100
AcDbSymbolTableRecord
100
AcDbBlockTableRecord
  2
Laserpunkt_Text
340
0
 70
     0
280
     1
281
     0
  0
BLOCK_RECORD
  5
169
330
1
100
AcDbSymbolTableRecord
100
AcDbBlockTableRecord
  2
Laserpunkt
340
0
 70
     0
280
     1
281
     0
  0
BLOCK_RECORD
  5
16F
330
1
100
AcDbSymbolTableRecord
100
AcDbBlockTableRecord
  2
Kantenbruch
340
0
 70
     0
280
     1
281
     0
  0
BLOCK_RECORD
  5
2B3
330
1
100
AcDbSymbolTableRecord
100
AcDbBlockTableRecord
  2
*D17
340
0
 70
     0
280
     1
281
     0
  0
BLOCK_RECORD
  5
395
330
1
100
AcDbSymbolTableRecord
100
AcDbBlockTableRecord
  2
*D18
340
0
 70
     0
280
     1
281
     0
  0
BLOCK_RECORD
  5
477
330
1
100
AcDbSymbolTableRecord
100
AcDbBlockTableRecord
  2
*D19
340
0
 70
     0
280
     1
281
     0
  0
BLOCK_RECORD
  5
559
330
1
100
AcDbSymbolTableRecord
100
AcDbBlockTableRecord
  2
*D20
340
0
 70
     0
280
     1
281
     0
  0
BLOCK_RECORD
  5
63B
330
1
100
AcDbSymbolTableRecord
100
AcDbBlockTableRecord
  2
*D21
340
0
 70
     0
280
     1
281
     0
  0
BLOCK_RECORD
  5
726
330
1
100
AcDbSymbolTableRecord
100
AcDbBlockTableRecord
  2
*D22
340
0
 70
     0
280
     1
281
     0
  0
BLOCK_RECORD
  5
812
330
1
100
AcDbSymbolTableRecord
100
AcDbBlockTableRecord
  2
*D23
340
0
 70
     0
280
     1
281
     0
  0
BLOCK_RECORD
  5
8F4
330
1
100
AcDbSymbolTableRecord
100
AcDbBlockTableRecord
  2
*D24
340
0
 70
     0
280
     1
281
     0
  0
BLOCK_RECORD
  5
9E4
330
1
100
AcDbSymbolTableRecord
100
AcDbBlockTableRecord
  2
*D25
340
0
 70
     0
280
     1
281
     0
  0
BLOCK_RECORD
  5
AC6
330
1
100
AcDbSymbolTableRecord
100
AcDbBlockTableRecord
  2
*D26
340
0
 70
     0
280
     1
281
     0
  0
BLOCK_RECORD
  5
BA8
330
1
100
AcDbSymbolTableRecord
100
AcDbBlockTableRecord
  2
*D27
340
0
 70
     0
280
     1
281
     0
  0
ENDTAB
  0
ENDSEC
  0
SECTION
  2
BLOCKS
  0
BLOCK
  5
6D
330
6C
100
AcDbEntity
  8
0
100
AcDbBlockBegin
  2
*Model_Space
 70
     0
 10
0.0
 20
0.0
 30
0.0
  3
*Model_Space
  1

  0
ENDBLK
  5
6E
330
6C
100
AcDbEntity
  8
0
100
AcDbBlockEnd
  0
BLOCK
  5
69
330
68
100
AcDbEntity
 67
     1
  8
0
100
AcDbBlockBegin
  2
*Paper_Space
 70
     0
 10
0.0
 20
0.0
 30
0.0
  3
*Paper_Space
  1

  0
ENDBLK
  5
6A
330
68
100
AcDbEntity
 67
     1
  8
0
100
AcDbBlockEnd
  0
BLOCK
  5
71
330
70
100
AcDbEntity
 67
     1
  8
0
100
AcDbBlockBegin
  2
*Paper_Space0
 70
     0
 10
0.0
 20
0.0
 30
0.0
  3
*Paper_Space0
  1

  0
ENDBLK
  5
72
330
70
100
AcDbEntity
 67
     1
  8
0
100
AcDbBlockEnd
  0
BLOCK
  5
CE
330
C9
100
AcDbEntity
  8
0
100
AcDbBlockBegin
  2
_Closed
 70
     0
 10
0.0
 20
0.0
 30
0.0
  3
_Closed
  1

  0
LINE
  5
CA
330
C9
100
AcDbEntity
  8
0
  6
ByBlock
 62
     0
370
    -2
100
AcDbLine
 10
-1.0
 20
0.1666666666666666
 30
0.0
 11
0.0
 21
0.0
 31
0.0
  0
LINE
  5
CB
330
C9
100
AcDbEntity
  8
0
  6
ByBlock
 62
     0
370
    -2
100
AcDbLine
 10
0.0
 20
0.0
 30
0.0
 11
-1.0
 21
-0.1666666666666666
 31
0.0
  0
LINE
  5
CC
330
C9
100
AcDbEntity
  8
0
  6
ByBlock
 62
     0
370
    -2
100
AcDbLine
 10
-1.0
 20
0.1666666666666666
 30
0.0
 11
-1.0
 21
-0.1666666666666666
 31
0.0
  0
LINE
  5
CD
330
C9
100
AcDbEntity
  8
0
  6
ByBlock
 62
     0
370
    -2
100
AcDbLine
 10
0.0
 20
0.0
 30
0.0
 11
-1.0
 21
0.0
 31
0.0
  0
ENDBLK
  5
CF
330
C9
100
AcDbEntity
  8
0
100
AcDbBlockEnd
  0
BLOCK
  5
D1
330
D0
100
AcDbEntity
  8
0
100
AcDbBlockBegin
  2
DatumFilled45
 70
     0
 10
0.0
 20
0.0
 30
0.0
  3
DatumFilled45
  1

  0
POLYLINE
  5
D3
330
D0
100
AcDbEntity
  8
0
 62
     0
100
AcDb2dPolyline
 66
     1
 10
0.0
 20
0.0
 30
0.0
 70
   128
  0
VERTEX
  5
D4
330
D3
100
AcDbEntity
  8
0
 62
     0
100
AcDbVertex
100
AcDb2dVertex
 10
0.0
 20
1.0
 30
0.0
  0
VERTEX
  5
D5
330
D3
100
AcDbEntity
  8
0
 62
     0
100
AcDbVertex
100
AcDb2dVertex
 10
0.0
 20
-1.0
 30
0.0
  0
VERTEX
  5
D7
330
D3
100
AcDbEntity
  8
0
 62
     0
100
AcDbVertex
100
AcDb2dVertex
 10
-1.0
 20
0.0
 30
0.0
  0
VERTEX
  5
D8
330
D3
100
AcDbEntity
  8
0
 62
     0
100
AcDbVertex
100
AcDb2dVertex
 10
0.0
 20
1.0
 30
0.0
  0
SEQEND
  5
D6
330
D3
100
AcDbEntity
  8
0
 62
     0
  0
SOLID
  5
DA
330
D0
100
AcDbEntity
  8
0
 62
     0
100
AcDbTrace
 10
0.0
 20
1.0
 30
0.0
 11
0.0
 21
-1.0
 31
0.0
 12
-1.0
 22
0.0
 32
0.0
 13
0.0
 23
1.0
 33
0.0
  0
ENDBLK
  5
D2
330
D0
100
AcDbEntity
  8
0
100
AcDbBlockEnd
  0
BLOCK
  5
E2
330
E1
100
AcDbEntity
  8
0
100
AcDbBlockBegin
  2
Filled-1
 70
     0
 10
0.0
 20
0.0
 30
0.0
  3
Filled-1
  1

  0
LINE
  5
E4
330
E1
100
AcDbEntity
  8
0
 62
     0
100
AcDbLine
 10
-1.0
 20
0.0
 30
0.0
 11
0.0
 21
0.0
 31
0.0
  0
POLYLINE
  5
E5
330
E1
100
AcDbEntity
  8
0
 62
     0
100
AcDb2dPolyline
 66
     1
 10
0.0
 20
0.0
 30
0.0
 70
   128
  0
VERTEX
  5
E6
330
E5
100
AcDbEntity
  8
0
 62
     0
100
AcDbVertex
100
AcDb2dVertex
 10
-1.0
 20
-0.1
 30
0.0
  0
VERTEX
  5
E7
330
E5
100
AcDbEntity
  8
0
 62
     0
100
AcDbVertex
100
AcDb2dVertex
 10
0.0
 20
0.0
 30
0.0
  0
VERTEX
  5
E9
330
E5
100
AcDbEntity
  8
0
 62
     0
100
AcDbVertex
100
AcDb2dVertex
 10
-1.0
 20
0.1
 30
0.0
  0
VERTEX
  5
EA
330
E5
100
AcDbEntity
  8
0
 62
     0
100
AcDbVertex
100
AcDb2dVertex
 10
-1.0
 20
-0.1
 30
0.0
  0
SEQEND
  5
E8
330
E5
100
AcDbEntity
  8
0
 62
     0
  0
SOLID
  5
EB
330
E1
100
AcDbEntity
  8
0
 62
     0
100
AcDbTrace
 10
-1.0
 20
-0.1
 30
0.0
 11
0.0
 21
0.0
 31
0.0
 12
-1.0
 22
0.1
 32
0.0
 13
-1.0
 23
-0.1
 33
0.0
  0
LINE
  5
EC
330
E1
100
AcDbEntity
  8
0
 62
     0
100
AcDbLine
 10
-1.0
 20
-0.1
 30
0.0
 11
0.0
 21
0.0
 31
0.0
  0
LINE
  5
ED
330
E1
100
AcDbEntity
  8
0
 62
     0
100
AcDbLine
 10
0.0
 20
0.0
 30
0.0
 11
-1.0
 21
0.1
 31
0.0
  0
LINE
  5
EE
330
E1
100
AcDbEntity
  8
0
 62
     0
100
AcDbLine
 10
-1.0
 20
0.1
 30
0.0
 11
-1.0
 21
-0.1
 31
0.0
  0
ENDBLK
  5
E3
330
E1
100
AcDbEntity
  8
0
100
AcDbBlockEnd
  0
BLOCK
  5
F1
330
F0
100
AcDbEntity
  8
0
100
AcDbBlockBegin
  2
Carbonitrieren
 70
     0
 10
0.0
 20
0.0
 30
0.0
  3
Carbonitrieren
  1

  0
MTEXT
  5
F3
330
F0
100
AcDbEntity
  8
Titel (ISO)
100
AcDbMText
 10
-75.71151256561281
 20
15.48921793699264
 30
0.0
 40
3.499999940395355
 41
147.2330421884934
 46
0.0
 71
     1
 72
     1
  3
- Carbonitriert: 0.3 ±0.1 tief;HV 500...600 (Prüfkraft DIN 50133)\P- elektrolytisch verkupfert 1-2µ, el. vernickelt 8-10µ\fArial|b0|i0;\H3.3000;\P\fArial|b0|i0;\H3.5000;- Entspröden: glühen 190-210°C, ca 3h innerhalb 4h nach Veredelung\P \P-TriboCoat
  1
ing TC D1050, 4...8µ\P 
  7
_Schriftfeld_3.5mm
 73
     2
 44
0.9442214965820312
  0
ENDBLK
  5
F2
330
F0
100
AcDbEntity
  8
0
100
AcDbBlockEnd
  0
BLOCK
  5
F6
330
F5
100
AcDbEntity
  8
0
100
AcDbBlockBegin
  2
Federangaben
 70
     0
 10
0.0
 20
0.0
 30
0.0
  3
Federangaben
  1

  0
MTEXT
  5
F8
330
F5
100
AcDbEntity
  8
Titel (ISO)
100
AcDbMText
 10
-23.02877426147463
 20
32.04377174377441
 30
0.0
 40
3.499999940395355
 41
201.4264025634256
 46
0.0
 71
     1
 72
     1
  1
getrommelt\Pzunderfrei\Pohne Druckstellen\Pund Sicken\P \PEinfederung ...°\PMd ... Nmm\PSb ... N/mm2\P \PWindungszahl ...\P50 HRc +/- 2 eingeölt\P 
  7
_Schriftfeld_3.5mm
 73
     2
 44
0.9442216157913208
  0
ENDBLK
  5
F7
330
F5
100
AcDbEntity
  8
0
100
AcDbBlockEnd
  0
BLOCK
  5
FA
330
F9
100
AcDbEntity
  8
0
100
AcDbBlockBegin
  2
Nassschliff
 70
     0
 10
0.0
 20
0.0
 30
0.0
  3
Nassschliff
  1

  0
MTEXT
  5
FC
330
F9
100
AcDbEntity
  8
Titel (ISO)
100
AcDbMText
 10
-59.37195301055908
 20
2.29287352412939
 30
0.0
 40
3.499999940395355
 41
0.0
 46
0.0
 71
     1
 72
     1
  1
Verfahren IV: Nassschliff, Korn 220-240, Folie einseitig
  7
_Schriftfeld_3.5mm
 73
     1
 44
1.0
  0
ENDBLK
  5
FB
330
F9
100
AcDbEntity
  8
0
100
AcDbBlockEnd
  0
BLOCK
  5
FE
330
FD
100
AcDbEntity
  8
0
100
AcDbBlockBegin
  2
Schleiffrichtung horizontal
 70
     0
 10
0.0
 20
0.0
 30
0.0
  3
Schleiffrichtung horizontal
  1

  0
HATCH
  5
103
330
FD
100
AcDbEntity
  8
Schraffur (ISO)
100
AcDbHatch
 10
0.0
 20
0.0
 30
0.0
210
0.0
220
0.0
230
1.0
  2
SOLID
 70
     1
 71
     0
 91
        1
 92
        1
 93
        3
 72
     1
 10
-20.0
 20
0.0
 11
-17.50000000000001
 21
-0.4999999999999895
 72
     1
 10
-17.50000000000001
 20
-0.4999999999999895
 11
-17.50000000000001
 21
0.5000000000000071
 72
     1
 10
-17.50000000000001
 20
0.5000000000000071
 11
-20.0
 21
0.0
 97
        0
 75
     0
 76
     1
 98
        1
 10
0.0
 20
0.0
450
        0
451
        0
460
0.0
461
0.0
452
        0
462
0.0
453
        0
470

  0
HATCH
  5
107
330
FD
100
AcDbEntity
  8
Schraffur (ISO)
100
AcDbHatch
 10
0.0
 20
0.0
 30
0.0
210
0.0
220
0.0
230
1.0
  2
SOLID
 70
     1
 71
     0
 91
        1
 92
        1
 93
        3
 72
     1
 10
19.99999999999998
 20
0.0
 11
17.5
 21
0.5000000000000071
 72
     1
 10
17.5
 20
0.5000000000000071
 11
17.49999999999998
 21
-0.4999999999999894
 72
     1
 10
17.49999999999998
 20
-0.4999999999999895
 11
19.99999999999998
 21
0.0
 97
        0
 75
     0
 76
     1
 98
        1
 10
0.0
 20
0.0
450
        0
451
        0
460
0.0
461
0.0
452
        0
462
0.0
453
        0
470

  0
LINE
  5
108
330
FD
100
AcDbEntity
  8
Titel (ISO)
370
    25
100
AcDbLine
 10
-20.0
 20
0.0
 30
0.0
 11
19.99999999999998
 21
0.0
 31
0.0
  0
LINE
  5
109
330
FD
100
AcDbEntity
  8
Titel (ISO)
100
AcDbLine
 10
19.99999999999998
 20
0.0
 30
0.0
 11
17.5
 21
0.5000000000000071
 31
0.0
  0
LINE
  5
10A
330
FD
100
AcDbEntity
  8
Titel (ISO)
100
AcDbLine
 10
17.5
 20
0.5000000000000071
 30
0.0
 11
17.49999999999998
 21
-0.4999999999999895
 31
0.0
  0
LINE
  5
10B
330
FD
100
AcDbEntity
  8
Titel (ISO)
100
AcDbLine
 10
17.49999999999998
 20
-0.4999999999999895
 30
0.0
 11
19.99999999999998
 21
0.0
 31
0.0
  0
LINE
  5
10C
330
FD
100
AcDbEntity
  8
Titel (ISO)
100
AcDbLine
 10
-17.50000000000001
 20
0.5000000000000071
 30
0.0
 11
-20.0
 21
0.0
 31
0.0
  0
LINE
  5
10D
330
FD
100
AcDbEntity
  8
Titel (ISO)
100
AcDbLine
 10
-20.0
 20
0.0
 30
0.0
 11
-17.50000000000001
 21
-0.4999999999999895
 31
0.0
  0
LINE
  5
10E
330
FD
100
AcDbEntity
  8
Titel (ISO)
100
AcDbLine
 10
-17.50000000000001
 20
-0.4999999999999895
 30
0.0
 11
-17.50000000000001
 21
0.5000000000000071
 31
0.0
  0
MTEXT
  5
10F
330
FD
100
AcDbEntity
  8
Titel (ISO)
100
AcDbMText
 10
-15.50000000000001
 20
5.0
 30
0.0
 40
3.499999940395355
 41
0.0
 46
0.0
 71
     1
 72
     1
  1
Schliffrichtung
  7
_Schriftfeld_3.5mm
 73
     1
 44
1.0
  0
ENDBLK
  5
FF
330
FD
100
AcDbEntity
  8
0
100
AcDbBlockEnd
  0
BLOCK
  5
111
330
110
100
AcDbEntity
  8
0
100
AcDbBlockBegin
  2
Schleiffrichtung vertikal
 70
     0
 10
0.0
 20
0.0
 30
0.0
  3
Schleiffrichtung vertikal
  1

  0
HATCH
  5
116
330
110
100
AcDbEntity
  8
Schraffur (ISO)
100
AcDbHatch
 10
0.0
 20
0.0
 30
0.0
210
0.0
220
0.0
230
1.0
  2
SOLID
 70
     1
 71
     0
 91
        1
 92
        1
 93
        3
 72
     1
 10
0.0
 20
-20.0
 11
0.4999999999999984
 21
-17.5
 72
     1
 10
0.4999999999999984
 20
-17.5
 11
-0.4999999999999984
 21
-17.5
 72
     1
 10
-0.4999999999999984
 20
-17.5
 11
0.0
 21
-20.0
 97
        0
 75
     0
 76
     1
 98
        1
 10
0.0
 20
0.0
450
        0
451
        0
460
0.0
461
0.0
452
        0
462
0.0
453
        0
470

  0
HATCH
  5
11A
330
110
100
AcDbEntity
  8
Schraffur (ISO)
100
AcDbHatch
 10
0.0
 20
0.0
 30
0.0
210
0.0
220
0.0
230
1.0
  2
SOLID
 70
     1
 71
     0
 91
        1
 92
        1
 93
        3
 72
     1
 10
0.0
 20
20.0
 11
-0.5000000000000071
 21
17.5
 72
     1
 10
-0.5000000000000071
 20
17.5
 11
0.4999999999999983
 21
17.5
 72
     1
 10
0.4999999999999984
 20
17.5
 11
0.0
 21
20.0
 97
        0
 75
     0
 76
     1
 98
        1
 10
0.0
 20
0.0
450
        0
451
        0
460
0.0
461
0.0
452
        0
462
0.0
453
        0
470

  0
LINE
  5
11B
330
110
100
AcDbEntity
  8
Titel (ISO)
370
    25
100
AcDbLine
 10
0.0
 20
-20.0
 30
0.0
 11
0.0
 21
20.0
 31
0.0
  0
LINE
  5
11C
330
110
100
AcDbEntity
  8
Titel (ISO)
100
AcDbLine
 10
0.0
 20
20.0
 30
0.0
 11
-0.5000000000000071
 21
17.5
 31
0.0
  0
LINE
  5
11D
330
110
100
AcDbEntity
  8
Titel (ISO)
100
AcDbLine
 10
-0.5000000000000071
 20
17.5
 30
0.0
 11
0.4999999999999984
 21
17.5
 31
0.0
  0
LINE
  5
11E
330
110
100
AcDbEntity
  8
Titel (ISO)
100
AcDbLine
 10
0.4999999999999984
 20
17.5
 30
0.0
 11
0.0
 21
20.0
 31
0.0
  0
LINE
  5
11F
330
110
100
AcDbEntity
  8
Titel (ISO)
100
AcDbLine
 10
-0.4999999999999984
 20
-17.5
 30
0.0
 11
0.0
 21
-20.0
 31
0.0
  0
LINE
  5
120
330
110
100
AcDbEntity
  8
Titel (ISO)
100
AcDbLine
 10
0.0
 20
-20.0
 30
0.0
 11
0.4999999999999984
 21
-17.5
 31
0.0
  0
LINE
  5
121
330
110
100
AcDbEntity
  8
Titel (ISO)
100
AcDbLine
 10
0.4999999999999984
 20
-17.5
 30
0.0
 11
-0.4999999999999984
 21
-17.5
 31
0.0
  0
MTEXT
  5
122
330
110
100
AcDbEntity
  8
Titel (ISO)
100
AcDbMText
 10
-5.0
 20
-15.5
 30
0.0
 40
3.499999940395355
 41
0.0
 46
0.0
 71
     1
 72
     1
  1
Schliffrichtung
  7
_Schriftfeld_3.5mm
 11
0.0000000000000001
 21
1.0
 31
0.0
 73
     1
 44
1.0
  0
ENDBLK
  5
112
330
110
100
AcDbEntity
  8
0
100
AcDbBlockEnd
  0
BLOCK
  5
124
330
123
100
AcDbEntity
  8
0
100
AcDbBlockBegin
  2
Stanz-_Laserteil
 70
     0
 10
0.0
 20
0.0
 30
0.0
  3
Stanz-_Laserteil
  1

  0
MTEXT
  5
126
330
123
100
AcDbEntity
  8
Titel (ISO)
100
AcDbMText
 10
-49.3854808807373
 20
9.981259405612943
 30
0.0
 40
3.499999940395355
 41
193.6792332340631
 46
0.0
 71
     1
 72
     1
  1
Als Stanzteil konzipiert\PWenn als Laserteil hergestellt, \Pmuss ganze Kontur innerhalb +/- 0.1 mm sein\P
  7
_Schriftfeld_3.5mm
 73
     2
 44
0.9442214965820312
  0
ENDBLK
  5
125
330
123
100
AcDbEntity
  8
0
100
AcDbBlockEnd
  0
BLOCK
  5
128
330
127
100
AcDbEntity
  8
0
100
AcDbBlockBegin
  2
Stanzrundung_1
 70
     0
 10
0.0
 20
0.0
 30
0.0
  3
Stanzrundung_1
  1

  0
ARC
  5
12A
330
127
100
AcDbEntity
  8
Titel (ISO)
100
AcDbCircle
 10
-2.44997217222222
 20
1.477407396909721
 30
0.0
 40
1.999999999999999
100
AcDbArc
 50
270.0
 51
0.0
  0
LINE
  5
12B
330
127
100
AcDbEntity
  8
Titel (ISO)
100
AcDbLine
 10
-1.049223178106464
 20
0.0498562575512551
 30
0.0
 11
2.449972272222211
 21
-1.477407496909711
 31
0.0
  0
MTEXT
  5
12C
330
127
100
AcDbEntity
  8
Titel (ISO)
100
AcDbMText
 10
3.130367236014626
 20
-0.28633610801851
 30
0.0
 40
3.499999940395355
 41
0.0
 46
0.0
 71
     1
 72
     1
  1
Stanzrundung
  7
_Schriftfeld_3.5mm
 73
     1
 44
1.0
  0
ENDBLK
  5
129
330
127
100
AcDbEntity
  8
0
100
AcDbBlockEnd
  0
BLOCK
  5
12E
330
12D
100
AcDbEntity
  8
0
100
AcDbBlockBegin
  2
Stanzrundung_2
 70
     0
 10
0.0
 20
0.0
 30
0.0
  3
Stanzrundung_2
  1

  0
ARC
  5
130
330
12D
100
AcDbEntity
  8
Titel (ISO)
100
AcDbCircle
 10
1.855973276181241
 20
1.952432954041681
 30
0.0
 40
1.566421450686395
100
AcDbArc
 50
180.0
 51
270.0
  0
LINE
  5
131
330
12D
100
AcDbEntity
  8
Titel (ISO)
100
AcDbLine
 10
-1.855973376181214
 20
-1.952433054041673
 30
0.0
 11
0.776746247326834
 21
0.8171157378590976
 31
0.0
  0
MTEXT
  5
132
330
12D
100
AcDbEntity
  8
Titel (ISO)
100
AcDbMText
 10
-35.05451959893437
 20
-0.5734039390297241
 30
0.0
 40
3.499999940395355
 41
0.0
 46
0.0
 71
     1
 72
     1
  1
Stanzrundung
  7
_Schriftfeld_3.5mm
 73
     1
 44
1.0
  0
ENDBLK
  5
12F
330
12D
100
AcDbEntity
  8
0
100
AcDbBlockEnd
  0
BLOCK
  5
134
330
133
100
AcDbEntity
  8
0
100
AcDbBlockBegin
  2
Verzinkt
 70
     0
 10
0.0
 20
0.0
 30
0.0
  3
Verzinkt
  1

  0
MTEXT
  5
136
330
133
100
AcDbEntity
  8
Titel (ISO)
100
AcDbMText
 10
-34.96665477752687
 20
2.242187596857546
 30
0.0
 40
3.499999940395355
 41
0.0
 46
0.0
 71
     1
 72
     1
  1
verzinkt und blau passiviert 8µm
  7
_Schriftfeld_3.5mm
 73
     1
 44
1.0
  0
ENDBLK
  5
135
330
133
100
AcDbEntity
  8
0
100
AcDbBlockEnd
  0
BLOCK
  5
138
330
137
100
AcDbEntity
  8
0
100
AcDbBlockBegin
  2
Vierkant-Tabelle
 70
     0
 10
0.0
 20
0.0
 30
0.0
  3
Vierkant-Tabelle
  1

  0
LINE
  5
13A
330
137
100
AcDbEntity
  8
Titel (ISO)
 62
     7
100
AcDbLine
 10
-33.99999999999998
 20
-24.00000000000006
 30
0.0
 11
33.99999999999999
 21
-23.99999999999999
 31
0.0
  0
LINE
  5
13B
330
137
100
AcDbEntity
  8
Titel (ISO)
 62
     7
100
AcDbLine
 10
-33.99999999999999
 20
0.0
 30
0.0
 11
33.99999999999999
 21
0.0
 31
0.0
  0
LINE
  5
13C
330
137
100
AcDbEntity
  8
Titel (ISO)
 62
     7
100
AcDbLine
 10
-33.99999999999999
 20
23.99999999999999
 30
0.0
 11
33.99999999999999
 21
24.00000000000006
 31
0.0
  0
LINE
  5
13D
330
137
100
AcDbEntity
  8
Titel (ISO)
 62
     7
100
AcDbLine
 10
-33.99999999999999
 20
15.99999999999998
 30
0.0
 11
34.0
 21
16.00000000000005
 31
0.0
  0
LINE
  5
13E
330
137
100
AcDbEntity
  8
Titel (ISO)
 62
     7
100
AcDbLine
 10
-33.99999999999999
 20
7.999999999999971
 30
0.0
 11
34.0
 21
8.000000000000042
 31
0.0
  0
LINE
  5
13F
330
137
100
AcDbEntity
  8
Titel (ISO)
 62
     7
100
AcDbLine
 10
-33.99999999999999
 20
-8.000000000000042
 30
0.0
 11
33.99999999999999
 21
-7.999999999999971
 31
0.0
  0
LINE
  5
140
330
137
100
AcDbEntity
  8
Titel (ISO)
 62
     7
100
AcDbLine
 10
-33.99999999999999
 20
-16.00000000000005
 30
0.0
 11
33.99999999999999
 21
-15.99999999999998
 31
0.0
  0
LINE
  5
141
330
137
100
AcDbEntity
  8
Titel (ISO)
 62
     7
100
AcDbLine
 10
-25.99999999999997
 20
-24.00000000000006
 30
0.0
 11
-26.0
 21
23.99999999999999
 31
0.0
  0
LINE
  5
142
330
137
100
AcDbEntity
  8
Titel (ISO)
 62
     7
100
AcDbLine
 10
-33.99999999999998
 20
-24.00000000000006
 30
0.0
 11
-33.99999999999999
 21
23.99999999999999
 31
0.0
  0
LINE
  5
143
330
137
100
AcDbEntity
  8
Titel (ISO)
 62
     7
100
AcDbLine
 10
-5.999999999999968
 20
-24.00000000000002
 30
0.0
 11
-5.999999999999996
 21
24.00000000000002
 31
0.0
  0
LINE
  5
144
330
137
100
AcDbEntity
  8
Titel (ISO)
 62
     7
100
AcDbLine
 10
13.99999999999999
 20
-24.00000000000002
 30
0.0
 11
14.0
 21
24.00000000000002
 31
0.0
  0
LINE
  5
145
330
137
100
AcDbEntity
  8
Titel (ISO)
 62
     7
100
AcDbLine
 10
33.99999999999999
 20
-23.99999999999999
 30
0.0
 11
33.99999999999999
 21
24.00000000000006
 31
0.0
  0
MTEXT
  5
146
330
137
100
AcDbEntity
  8
Titel (ISO)
100
AcDbMText
 10
-31.0
 20
-9.999999850988423
 30
0.0
 40
2.5
 41
0.0
 46
0.0
 71
     1
 72
     1
  1
\fArial|b0|i0;\W0.60;\H2.5000;4
  7
_Schriftfeld_3.5mm
 73
     1
 44
1.0
  0
MTEXT
  5
147
330
137
100
AcDbEntity
  8
Titel (ISO)
100
AcDbMText
 10
-31.0
 20
5.999999999999976
 30
0.0
 40
2.5
 41
0.0
 46
0.0
 71
     1
 72
     1
  1
\fArial|b0|i0;\W0.60;\H2.5000;2
  7
_Schriftfeld_3.5mm
 73
     1
 44
1.0
  0
MTEXT
  5
148
330
137
100
AcDbEntity
  8
Titel (ISO)
100
AcDbMText
 10
-31.42346487563099
 20
21.00000014901159
 30
0.0
 40
2.5
 41
0.0
 46
0.0
 71
     1
 72
     1
  1
\fArial|b0|i0;\W0.65;\H2.5000;Pos.
  7
_Schriftfeld_3.5mm
 73
     1
 44
1.0
  0
MTEXT
  5
149
330
137
100
AcDbEntity
  8
Titel (ISO)
100
AcDbMText
 10
-31.0
 20
13.99999999999998
 30
0.0
 40
2.5
 41
0.0
 46
0.0
 71
     1
 72
     1
  1
\fArial|b0|i0;\W0.60;\H2.5000;1
  7
_Schriftfeld_3.5mm
 73
     1
 44
1.0
  0
MTEXT
  5
14A
330
137
100
AcDbEntity
  8
Titel (ISO)
100
AcDbMText
 10
-0.9999999999999964
 20
-18.00000000000004
 30
0.0
 40
2.5
 41
0.0
 46
0.0
 71
     1
 72
     1
  1
\fArial|b0|i0;\W0.88;\H2.5000;4kt. 10
  7
_Schriftfeld_3.5mm
 73
     1
 44
1.0
  0
MTEXT
  5
14B
330
137
100
AcDbEntity
  8
Titel (ISO)
100
AcDbMText
 10
-21.0
 20
-18.00000000000004
 30
0.0
 40
2.5
 41
0.0
 46
0.0
 71
     1
 72
     1
  1
\fAIGDT|b0|i0;\W0.65;\H2.5000;n\fArial|b0|i0;\W0.65;\H2.5000; 11.5
  7
_Schriftfeld_3.5mm
 73
     1
 44
1.0
  0
MTEXT
  5
14C
330
137
100
AcDbEntity
  8
Titel (ISO)
100
AcDbMText
 10
19.0
 20
-18.00000000000004
 30
0.0
 40
2.5
 41
0.0
 46
0.0
 71
     1
 72
     1
  1
\fArial|b0|i0;\W0.88;\H2.5000;13.6
  7
_Schriftfeld_3.5mm
 73
     1
 44
1.0
  0
MTEXT
  5
14D
330
137
100
AcDbEntity
  8
Titel (ISO)
100
AcDbMText
 10
-3.999999999999993
 20
21.00000014901159
 30
0.0
 40
2.5
 41
0.0
 46
0.0
 71
     1
 72
     1
  1
\fArial|b0|i0;\W0.78;\H2.5000;Mass B
  7
_Schriftfeld_3.5mm
 73
     1
 44
1.0
  0
MTEXT
  5
14E
330
137
100
AcDbEntity
  8
Titel (ISO)
100
AcDbMText
 10
-0.9999999999999964
 20
5.999999999999976
 30
0.0
 40
2.5
 41
0.0
 46
0.0
 71
     1
 72
     1
  1
\fArial|b0|i0;\W0.90;\H2.5000;4kt.  8
  7
_Schriftfeld_3.5mm
 73
     1
 44
1.0
  0
MTEXT
  5
14F
330
137
100
AcDbEntity
  8
Titel (ISO)
100
AcDbMText
 10
-0.9999999999999964
 20
-2.000000000000027
 30
0.0
 40
2.5
 41
0.0
 46
0.0
 71
     1
 72
     1
  1
\fArial|b0|i0;\W0.83;\H2.5000;4kt. 8.5
  7
_Schriftfeld_3.5mm
 73
     1
 44
1.0
  0
MTEXT
  5
150
330
137
100
AcDbEntity
  8
Titel (ISO)
100
AcDbMText
 10
-0.9999999999999964
 20
14.00000014901159
 30
0.0
 40
2.5
 41
0.0
 46
0.0
 71
     1
 72
     1
  1
\fArial|b0|i0;\W0.90;\H2.5000;4kt.  7
  7
_Schriftfeld_3.5mm
 73
     1
 44
1.0
  0
MTEXT
  5
151
330
137
100
AcDbEntity
  8
Titel (ISO)
100
AcDbMText
 10
-0.9999999999999964
 20
-10.00000000000003
 30
0.0
 40
2.5
 41
0.0
 46
0.0
 71
     1
 72
     1
  1
\fArial|b0|i0;\W0.90;\H2.5000;4kt.  9
  7
_Schriftfeld_3.5mm
 73
     1
 44
1.0
  0
MTEXT
  5
152
330
137
100
AcDbEntity
  8
Titel (ISO)
100
AcDbMText
 10
-21.0
 20
-2.000000000000027
 30
0.0
 40
2.5
 41
0.0
 46
0.0
 71
     1
 72
     1
  1
\fAIGDT|b0|i0;\W0.76;\H2.5000;n\fArial|b0|i0;\W0.76;\H2.5000; 10.5
  7
_Schriftfeld_3.5mm
 73
     1
 44
1.0
  0
MTEXT
  5
153
330
137
100
AcDbEntity
  8
Titel (ISO)
100
AcDbMText
 10
-21.0
 20
5.999999999999976
 30
0.0
 40
2.5
 41
0.0
 46
0.0
 71
     1
 72
     1
  1
\fAIGDT|b0|i0;\W0.73;\H2.5000;n\fArial|b0|i0;\W0.73;\H2.5000; 10
  7
_Schriftfeld_3.5mm
 73
     1
 44
1.0
  0
MTEXT
  5
154
330
137
100
AcDbEntity
  8
Titel (ISO)
100
AcDbMText
 10
-21.0
 20
-10.00000000000003
 30
0.0
 40
2.5
 41
0.0
 46
0.0
 71
     1
 72
     1
  1
\fAIGDT|b0|i0;\W0.69;\H2.5000;n\fArial|b0|i0;\W0.69;\H2.5000; 11
  7
_Schriftfeld_3.5mm
 73
     1
 44
1.0
  0
MTEXT
  5
155
330
137
100
AcDbEntity
  8
Titel (ISO)
100
AcDbMText
 10
-21.0
 20
13.99999999999998
 30
0.0
 40
2.5
 41
0.0
 46
0.0
 71
     1
 72
     1
  1
\fAIGDT|b0|i0;\W0.84;\H2.5000;n\fArial|b0|i0;\W0.84;\H2.5000; 8
  7
_Schriftfeld_3.5mm
 73
     1
 44
1.0
  0
MTEXT
  5
156
330
137
100
AcDbEntity
  8
Titel (ISO)
100
AcDbMText
 10
-22.02576666302078
 20
21.00000014901159
 30
0.0
 40
2.5
 41
0.0
 46
0.0
 71
     1
 72
     1
  1
\fArial|b0|i0;\W0.79;\H2.5000;Mass A
  7
_Schriftfeld_3.5mm
 73
     1
 44
1.0
  0
MTEXT
  5
157
330
137
100
AcDbEntity
  8
Titel (ISO)
100
AcDbMText
 10
-31.0
 20
-17.96760666370396
 30
0.0
 40
2.5
 41
0.0
 46
0.0
 71
     1
 72
     1
  1
\fArial|b0|i0;\W0.56;\H2.5000;5
  7
_Schriftfeld_3.5mm
 73
     1
 44
1.0
  0
MTEXT
  5
158
330
137
100
AcDbEntity
  8
Titel (ISO)
100
AcDbMText
 10
19.0
 20
-2.000000000000027
 30
0.0
 40
2.5
 41
0.0
 46
0.0
 71
     1
 72
     1
  1
\fArial|b0|i0;\W0.83;\H2.5000;12
  7
_Schriftfeld_3.5mm
 73
     1
 44
1.0
  0
MTEXT
  5
159
330
137
100
AcDbEntity
  8
Titel (ISO)
100
AcDbMText
 10
19.0
 20
5.999999999999976
 30
0.0
 40
2.5
 41
0.0
 46
0.0
 71
     1
 72
     1
  1
\fArial|b0|i0;\W0.90;\H2.5000;11.3
  7
_Schriftfeld_3.5mm
 73
     1
 44
1.0
  0
MTEXT
  5
15A
330
137
100
AcDbEntity
  8
Titel (ISO)
100
AcDbMText
 10
16.0
 20
20.99999999999998
 30
0.0
 40
2.5
 41
0.0
 46
0.0
 71
     1
 72
     1
  1
\fArial|b0|i0;\W0.78;\H2.5000;Mass C
  7
_Schriftfeld_3.5mm
 73
     1
 44
1.0
  0
MTEXT
  5
15B
330
137
100
AcDbEntity
  8
Titel (ISO)
100
AcDbMText
 10
19.0
 20
-10.00000000000003
 30
0.0
 40
2.5
 41
0.0
 46
0.0
 71
     1
 72
     1
  1
\fArial|b0|i0;\W0.90;\H2.5000;12.7
  7
_Schriftfeld_3.5mm
 73
     1
 44
1.0
  0
MTEXT
  5
15C
330
137
100
AcDbEntity
  8
Titel (ISO)
100
AcDbMText
 10
19.0
 20
13.99999999999998
 30
0.0
 40
2.5
 41
0.0
 46
0.0
 71
     1
 72
     1
  1
\fArial|b0|i0;\W0.90;\H2.5000;10
  7
_Schriftfeld_3.5mm
 73
     1
 44
1.0
  0
MTEXT
  5
15D
330
137
100
AcDbEntity
  8
Titel (ISO)
100
AcDbMText
 10
7.52309499999999
 20
23.50279363516371
 30
0.0
 40
2.5
 41
0.0
 46
0.0
 71
     1
 72
     1
  1
\fArial|b0|i0;\W0.68;\H2.5000;+0.05
  7
_Schriftfeld_3.5mm
 73
     1
 44
1.0
  0
MTEXT
  5
15E
330
137
100
AcDbEntity
  8
Titel (ISO)
100
AcDbMText
 10
28.821548797772
 20
20.00279363516373
 30
0.0
 40
2.5
 41
0.0
 46
0.0
 71
     1
 72
     1
  1
\fArial|b0|i0;\W0.63;\H2.5000;0
  7
_Schriftfeld_3.5mm
 73
     1
 44
1.0
  0
MTEXT
  5
15F
330
137
100
AcDbEntity
  8
Titel (ISO)
100
AcDbMText
 10
27.523095
 20
23.50279363516371
 30
0.0
 40
2.5
 41
0.0
 46
0.0
 71
     1
 72
     1
  1
\fArial|b0|i0;\W0.68;\H2.5000;+0.2
  7
_Schriftfeld_3.5mm
 73
     1
 44
1.0
  0
MTEXT
  5
160
330
137
100
AcDbEntity
  8
Titel (ISO)
100
AcDbMText
 10
-31.0
 20
-2.000000000000027
 30
0.0
 40
2.5
 41
0.0
 46
0.0
 71
     1
 72
     1
  1
\fArial|b0|i0;\W0.60;\H2.5000;3
  7
_Schriftfeld_3.5mm
 73
     1
 44
1.0
  0
MTEXT
  5
161
330
137
100
AcDbEntity
  8
Titel (ISO)
100
AcDbMText
 10
7.52309499999999
 20
20.00279363516373
 30
0.0
 40
2.5
 41
0.0
 46
0.0
 71
     1
 72
     1
  1
\fArial|b0|i0;\W0.63;\H2.5000;+0.01
  7
_Schriftfeld_3.5mm
 73
     1
 44
1.0
  0
ENDBLK
  5
139
330
137
100
AcDbEntity
  8
0
100
AcDbBlockEnd
  0
BLOCK
  5
163
330
162
100
AcDbEntity
  8
0
100
AcDbBlockBegin
  2
Laserpunkt_Text
 70
     0
 10
0.0
 20
0.0
 30
0.0
  3
Laserpunkt_Text
  1

  0
CIRCLE
  5
165
330
162
100
AcDbEntity
  8
Skizziergeometrie(DIN)
370
    70
100
AcDbCircle
 10
3.715998998176778
 20
2.645602535338599
 30
0.0
 40
2.250000000000003
  0
LINE
  5
166
330
162
100
AcDbEntity
  8
Skizziergeometrie(DIN)
370
    70
100
AcDbLine
 10
6.014096037033062
 20
0.3475054964822988
 30
0.0
 11
1.417901959320495
 21
4.943699574194866
 31
0.0
  0
LINE
  5
167
330
162
100
AcDbEntity
  8
Skizziergeometrie(DIN)
370
    70
100
AcDbLine
 10
1.417901959320513
 20
0.3475054964822988
 30
0.0
 11
6.01409603703308
 21
4.943699574194866
 31
0.0
  0
MTEXT
  5
168
330
162
100
AcDbEntity
  8
Symbole(DIN)
 62
   179
420
  2500185
100
AcDbMText
 10
0.0
 20
-0.1396086563666721
 30
0.0
 40
3.499999940395355
 41
0.0
 46
0.0
 71
     7
 72
     1
  1
Kontur gelasert nach DXF-File\P      = Anfang/Ende Laserkontur 
  7
Aktuell-DIN
 73
     2
 44
0.9442214965820312
  0
ENDBLK
  5
164
330
162
100
AcDbEntity
  8
0
100
AcDbBlockEnd
  0
BLOCK
  5
16A
330
169
100
AcDbEntity
  8
0
100
AcDbBlockBegin
  2
Laserpunkt
 70
     0
 10
0.0
 20
0.0
 30
0.0
  3
Laserpunkt
  1

  0
CIRCLE
  5
16C
330
169
100
AcDbEntity
  8
Skizziergeometrie(DIN)
370
    70
100
AcDbCircle
 10
0.0
 20
0.0
 30
0.0
 40
2.250000000000003
  0
LINE
  5
16D
330
169
100
AcDbEntity
  8
Skizziergeometrie(DIN)
370
    70
100
AcDbLine
 10
2.298097038856282
 20
-2.2980970388563
 30
0.0
 11
-2.298097038856282
 21
2.298097038856266
 31
0.0
  0
LINE
  5
16E
330
169
100
AcDbEntity
  8
Skizziergeometrie(DIN)
370
    70
100
AcDbLine
 10
-2.298097038856266
 20
-2.2980970388563
 30
0.0
 11
2.2980970388563
 21
2.298097038856266
 31
0.0
  0
ENDBLK
  5
16B
330
169
100
AcDbEntity
  8
0
100
AcDbBlockEnd
  0
BLOCK
  5
170
330
16F
100
AcDbEntity
  8
0
100
AcDbBlockBegin
  2
Kantenbruch
 70
     2
 10
0.0
 20
0.0
 30
0.0
  3
Kantenbruch
  1

  0
HATCH
  5
175
330
16F
100
AcDbEntity
  8
Schraffur
100
AcDbHatch
 10
0.0
 20
0.0
 30
0.0
210
0.0
220
0.0
230
1.0
  2
SOLID
 70
     1
 71
     0
 91
        1
 92
        1
 93
        3
 72
     1
 10
2.551045103405299
 20
2.440182479852524
 11
0.0
 21
0.0
 72
     1
 10
0.0
 20
0.0
 11
1.832554653580372
 21
3.017294333708306
 72
     1
 10
1.832554653580372
 20
3.017294333708306
 11
2.551045103405299
 21
2.440182479852524
 97
        0
 75
     0
 76
     1
 98
        1
 10
0.0
 20
0.0
450
        0
451
        0
460
0.0
461
0.0
452
        0
462
0.0
453
        0
470

  0
HATCH
  5
179
330
16F
100
AcDbEntity
  8
Schraffur
100
AcDbHatch
 10
0.0
 20
0.0
 30
0.0
210
0.0
220
0.0
230
1.0
  2
SOLID
 70
     1
 71
     0
 91
        1
 92
        1
 93
        3
 72
     1
 10
23.39589716406273
 20
3.017294333708662
 11
21.56334251048213
 21
0.0
 72
     1
 10
21.56334251048213
 20
0.0
 11
24.11438761388769
 21
2.440182479852808
 72
     1
 10
24.11438761388769
 20
2.440182479852808
 11
23.39589716406273
 21
3.017294333708662
 97
        0
 75
     0
 76
     1
 98
        1
 10
0.0
 20
0.0
450
        0
451
        0
460
0.0
461
0.0
452
        0
462
0.0
453
        0
470

  0
LINE
  5
17A
330
16F
100
AcDbEntity
  8
AM_5
  6
Continuous
 62
     7
100
AcDbLine
 10
14.41413346606271
 20
6.589009726759619
 30
0.0
 11
5.486542746190784
 21
6.589009726759619
 31
0.0
  0
LINE
  5
17B
330
16F
100
AcDbEntity
  8
AM_5
  6
Continuous
 62
     7
100
AcDbLine
 10
6.021339289383168
 20
7.425192947268967
 30
0.0
 11
10.92133928938317
 21
7.425192947268967
 31
0.0
  0
LINE
  5
17C
330
16F
100
AcDbEntity
  8
AM_5
  6
Continuous
 62
     7
100
AcDbLine
 10
6.021339289383168
 20
12.32519294726897
 30
0.0
 11
6.021339289383168
 21
7.425192947268967
 31
0.0
  0
LINE
  5
17D
330
16F
100
AcDbEntity
  8
AM_5
  6
Continuous
 62
     7
100
AcDbLine
 10
27.49096644559973
 20
12.32519294726897
 30
0.0
 11
27.49096644559973
 21
7.425192947268967
 31
0.0
  0
LINE
  5
17E
330
16F
100
AcDbEntity
  8
AM_5
  6
Continuous
 62
     7
100
AcDbLine
 10
2.551045103405299
 20
2.440182479852559
 30
0.0
 11
1.832554653580372
 21
3.017294333708306
 31
0.0
  0
LINE
  5
17F
330
16F
100
AcDbEntity
  8
AM_5
 62
     7
100
AcDbLine
 10
5.486542746190784
 20
6.589009726759619
 30
0.0
 11
2.259523567491451
 21
2.674322428928999
 31
0.0
  0
LINE
  5
180
330
16F
100
AcDbEntity
  8
AM_5
  6
Continuous
 62
     7
100
AcDbLine
 10
0.0
 20
0.0
 30
0.0
 11
2.551045103405299
 21
2.440182479852524
 31
0.0
  0
LINE
  5
181
330
16F
100
AcDbEntity
  8
AM_5
  6
Continuous
 62
     7
100
AcDbLine
 10
21.56334251048156
 20
0.0
 30
0.0
 11
24.11438761388769
 21
2.440182479852808
 31
0.0
  0
LINE
  5
182
330
16F
100
AcDbEntity
  8
Skizziergeometrie(DIN)
100
AcDbLine
 10
2.551045103405299
 20
2.440182479852524
 30
0.0
 11
1.832554653580372
 21
3.017294333708306
 31
0.0
  0
LINE
  5
183
330
16F
100
AcDbEntity
  8
AM_5
  6
Continuous
 62
     7
100
AcDbLine
 10
1.832554653580372
 20
3.017294333708306
 30
0.0
 11
0.0
 21
0.0
 31
0.0
  0
LINE
  5
184
330
16F
100
AcDbEntity
  8
Skizziergeometrie(DIN)
100
AcDbLine
 10
1.832554653580372
 20
3.017294333708306
 30
0.0
 11
0.0
 21
0.0
 31
0.0
  0
LINE
  5
185
330
16F
100
AcDbEntity
  8
Skizziergeometrie(DIN)
100
AcDbLine
 10
0.0
 20
0.0
 30
0.0
 11
2.551045103405299
 21
2.440182479852524
 31
0.0
  0
LINE
  5
186
330
16F
100
AcDbEntity
  8
AM_0
370
    25
100
AcDbLine
 10
0.0
 20
0.0
 30
0.0
 11
-8.000000000000008
 21
0.0
 31
0.0
  0
LINE
  5
187
330
16F
100
AcDbEntity
  8
Skizziergeometrie(DIN)
370
    25
100
AcDbLine
 10
0.0
 20
0.0
 30
0.0
 11
0.0
 21
-7.999999999999997
 31
0.0
  0
LINE
  5
188
330
16F
100
AcDbEntity
  8
Skizziergeometrie(DIN)
100
AcDbLine
 10
24.11438761388769
 20
2.440182479852808
 30
0.0
 11
21.56334251048213
 21
0.0
 31
0.0
  0
LINE
  5
189
330
16F
100
AcDbEntity
  8
AM_5
  6
Continuous
 62
     7
100
AcDbLine
 10
27.49096644559973
 20
7.425192947268967
 30
0.0
 11
32.39096644559975
 21
7.425192947268967
 31
0.0
  0
LINE
  5
18A
330
16F
100
AcDbEntity
  8
AM_5
  6
Continuous
 62
     7
100
AcDbLine
 10
35.8837606222793
 20
6.589009726759619
 30
0.0
 11
26.95616990240735
 21
6.589009726759619
 31
0.0
  0
LINE
  5
18B
330
16F
100
AcDbEntity
  8
AM_5
  6
Continuous
 62
     7
100
AcDbLine
 10
26.95616990240735
 20
6.589009726759619
 30
0.0
 11
23.70310776989253
 21
2.640671625589323
 31
0.0
  0
LINE
  5
18C
330
16F
100
AcDbEntity
  8
Skizziergeometrie(DIN)
100
AcDbLine
 10
23.39589716406273
 20
3.017294333708662
 30
0.0
 11
24.11438761388769
 21
2.440182479852808
 31
0.0
  0
LINE
  5
18D
330
16F
100
AcDbEntity
  8
AM_5
  6
Continuous
 62
     7
100
AcDbLine
 10
24.11438761388677
 20
2.309315017511791
 30
0.0
 11
23.39589716406191
 21
2.886426871367539
 31
0.0
  0
LINE
  5
18E
330
16F
100
AcDbEntity
  8
AM_0
370
    25
100
AcDbLine
 10
21.56334251048213
 20
7.999999999999988
 30
0.0
 11
21.56334251048213
 21
0.0
 31
0.0
  0
LINE
  5
18F
330
16F
100
AcDbEntity
  8
AM_5
  6
Continuous
 62
     7
100
AcDbLine
 10
23.39589716406273
 20
3.017294333708662
 30
0.0
 11
21.56334251048213
 21
0.0
 31
0.0
  0
LINE
  5
190
330
16F
100
AcDbEntity
  8
Skizziergeometrie(DIN)
100
AcDbLine
 10
21.56334251048213
 20
0.0
 30
0.0
 11
23.39589716406273
 21
3.017294333708662
 31
0.0
  0
LINE
  5
191
330
16F
100
AcDbEntity
  8
AM_0
370
    25
100
AcDbLine
 10
21.56334251048145
 20
0.0
 30
0.0
 11
29.56334251048146
 21
0.0
 31
0.0
  0
ATTDEF
  5
193
102
{ACAD_XDICTIONARY
360
C94
102
}
330
16F
100
AcDbEntity
  8
AM_5
 62
     7
100
AcDbText
 10
27.71846645364636
 20
13.12519300687362
 30
0.0
 40
3.499999940395355
  1
-1
 41
0.9
  7
Textstil122
100
AcDbAttributeDefinition
  3
Innenkante obere Grenze
  2
Innenkante_obere_Grenze_001
 70
     0
280
     0
  0
ATTDEF
  5
196
102
{ACAD_XDICTIONARY
360
C97
102
}
330
16F
100
AcDbEntity
  8
AM_5
 62
     7
100
AcDbText
 10
27.71846645364636
 20
8.124504030507404
 30
0.0
 40
3.499999940395355
  1
-0.25
 41
0.9
  7
Textstil122
100
AcDbAttributeDefinition
  3
Innenkante untere Grenze
  2
Innenkante_untere_Grenze_001
 70
     0
280
     0
  0
ATTDEF
  5
197
102
{ACAD_XDICTIONARY
360
C9A
102
}
330
16F
100
AcDbEntity
  8
AM_5
 62
     7
100
AcDbText
 10
6.248839297429796
 20
13.12519300687362
 30
0.0
 40
3.499999940395355
  1
+0.3
 41
0.9
  7
Textstil122
100
AcDbAttributeDefinition
  3
Aussenkante obere Grenze
  2
Aussenkante_obere_Grenze_001
 70
     0
280
     0
  0
ATTDEF
  5
198
102
{ACAD_XDICTIONARY
360
C9D
102
}
330
16F
100
AcDbEntity
  8
AM_5
 62
     7
100
AcDbText
 10
6.248839297429796
 20
8.125193006873624
 30
0.0
 40
3.499999940395355
  1
+0.1
 41
0.9
  7
Textstil122
100
AcDbAttributeDefinition
  3
Aussenkante untere Grenze
  2
Aussenkante_untere_Grenze_001
 70
     0
280
     0
  0
ENDBLK
  5
171
330
16F
100
AcDbEntity
  8
0
100
AcDbBlockEnd
  0
BLOCK
  5
2B4
330
2B3
100
AcDbEntity
  8
0
100
AcDbBlockBegin
  2
*D17
 70
     1
 10
0.0
 20
0.0
 30
0.0
  3
*D17
  1

  0
LINE
  5
38B
330
2B3
100
AcDbEntity
  8
Bemaßungen(DIN)
  6
Continuous
 62
   250
420
  4144959
440
 16777216
370
    25
100
AcDbLine
 10
152.8036769043582
 20
466.6611813398026
 30
0.0
 11
82.35300411808585
 21
466.6611813398026
 31
0.0
  0
LINE
  5
38C
330
2B3
100
AcDbEntity
  8
Bemaßungen(DIN)
  6
Continuous
 62
   250
420
  4144959
440
 16777216
370
    25
100
AcDbLine
 10
152.8036769043582
 20
394.3917261214581
 30
0.0
 11
82.35300411808585
 21
394.3917261214581
 31
0.0
  0
LINE
  5
38D
330
2B3
100
AcDbEntity
  8
Bemaßungen(DIN)
  6
Continuous
 62
   250
420
  4144959
440
 16777216
370
    25
100
AcDbLine
 10
88.70300411808583
 20
461.6611813398026
 30
0.0
 11
88.70300411808583
 21
399.3917261214581
 31
0.0
  0
SOLID
  5
38E
330
2B3
100
AcDbEntity
  8
Bemaßungen(DIN)
  6
Continuous
 62
   250
420
  4144959
440
 16777216
100
AcDbTrace
 10
87.86967078475255
 20
461.6611813398026
 30
0.0
 11
89.53633745141919
 21
461.6611813398026
 31
0.0
 12
88.70300411808583
 22
466.6611813398026
 32
0.0
 13
88.70300411808583
 23
466.6611813398026
 33
0.0
  0
SOLID
  5
38F
330
2B3
100
AcDbEntity
  8
Bemaßungen(DIN)
  6
Continuous
 62
   250
420
  4144959
440
 16777216
100
AcDbTrace
 10
87.86967078475251
 20
399.3917261214581
 30
0.0
 11
89.53633745141916
 21
399.3917261214581
 31
0.0
 12
88.70300411808583
 22
394.3917261214581
 32
0.0
 13
88.70300411808583
 23
394.3917261214581
 33
0.0
  0
MTEXT
  5
390
330
2B3
100
AcDbEntity
  8
Bemaßungen(DIN)
  6
Continuous
 62
   250
420
  4144959
440
 16777216
370
    25
100
AcDbMText
 10
80.0743546910891
 20
425.5572722557105
 30
0.0
 40
7.0
 41
0.0
 46
0.0
 71
     1
 72
     1
  1
\A1;72
  7
STANDARD-DIN~0
 11
0.0000000000000001
 21
1.0
 31
0.0
 73
     1
 44
1.0
  0
POINT
  5
391
330
2B3
100
AcDbEntity
  8
Defpoints
  6
Continuous
 62
     0
440
 16777216
100
AcDbPoint
 10
152.8036769043582
 20
466.6611813398026
 30
0.0
  0
POINT
  5
392
330
2B3
100
AcDbEntity
  8
Defpoints
  6
Continuous
 62
     0
440
 16777216
100
AcDbPoint
 10
152.8036769043582
 20
394.3917261214581
 30
0.0
  0
POINT
  5
393
330
2B3
100
AcDbEntity
  8
Defpoints
  6
Continuous
 62
     0
440
 16777216
100
AcDbPoint
 10
88.70300411808583
 20
394.3917261214581
 30
0.0
  0
ENDBLK
  5
2B5
330
2B3
100
AcDbEntity
  8
0
100
AcDbBlockEnd
  0
BLOCK
  5
396
330
395
100
AcDbEntity
  8
0
100
AcDbBlockBegin
  2
*D18
 70
     1
 10
0.0
 20
0.0
 30
0.0
  3
*D18
  1

  0
LINE
  5
46D
330
395
100
AcDbEntity
  8
Bemaßungen(DIN)
  6
Continuous
 62
   250
420
  4144959
440
 16777216
370
    25
100
AcDbLine
 10
143.100920475838
 20
455.5111813398024
 30
0.0
 11
106.3530041180858
 21
455.5111813398026
 31
0.0
  0
LINE
  5
46E
330
395
100
AcDbEntity
  8
Bemaßungen(DIN)
  6
Continuous
 62
   250
420
  4144959
440
 16777216
370
    25
100
AcDbLine
 10
143.0536769043582
 20
405.5111813398026
 30
0.0
 11
106.3530041180858
 21
405.5111813398027
 31
0.0
  0
LINE
  5
46F
330
395
100
AcDbEntity
  8
Bemaßungen(DIN)
  6
Continuous
 62
   250
420
  4144959
440
 16777216
370
    25
100
AcDbLine
 10
112.7030041180858
 20
450.5111813398024
 30
0.0
 11
112.7030041180858
 21
410.5111813398027
 31
0.0
  0
SOLID
  5
470
330
395
100
AcDbEntity
  8
Bemaßungen(DIN)
  6
Continuous
 62
   250
420
  4144959
440
 16777216
100
AcDbTrace
 10
111.8696707847525
 20
450.5111813398024
 30
0.0
 11
113.5363374514192
 21
450.5111813398024
 31
0.0
 12
112.7030041180858
 22
455.5111813398026
 32
0.0
 13
112.7030041180858
 23
455.5111813398026
 33
0.0
  0
SOLID
  5
471
330
395
100
AcDbEntity
  8
Bemaßungen(DIN)
  6
Continuous
 62
   250
420
  4144959
440
 16777216
100
AcDbTrace
 10
111.8696707847525
 20
410.5111813398027
 30
0.0
 11
113.5363374514192
 21
410.5111813398027
 31
0.0
 12
112.7030041180858
 22
405.5111813398027
 32
0.0
 13
112.7030041180858
 23
405.5111813398027
 33
0.0
  0
MTEXT
  5
472
330
395
100
AcDbEntity
  8
Bemaßungen(DIN)
  6
Continuous
 62
   250
420
  4144959
440
 16777216
370
    25
100
AcDbMText
 10
103.9549822483751
 20
425.4894759900885
 30
0.0
 40
7.0
 41
0.0
 46
0.0
 71
     1
 72
     1
  1
\A1;50
  7
STANDARD-DIN~0
 11
0.0000000000000001
 21
1.0
 31
0.0
 73
     1
 44
1.0
  0
POINT
  5
473
330
395
100
AcDbEntity
  8
Defpoints
  6
Continuous
 62
     0
440
 16777216
100
AcDbPoint
 10
143.100920475838
 20
455.5111813398024
 30
0.0
  0
POINT
  5
474
330
395
100
AcDbEntity
  8
Defpoints
  6
Continuous
 62
     0
440
 16777216
100
AcDbPoint
 10
143.0536769043582
 20
405.5111813398026
 30
0.0
  0
POINT
  5
475
330
395
100
AcDbEntity
  8
Defpoints
  6
Continuous
 62
     0
440
 16777216
100
AcDbPoint
 10
112.7030041180858
 20
405.5111813398027
 30
0.0
  0
ENDBLK
  5
397
330
395
100
AcDbEntity
  8
0
100
AcDbBlockEnd
  0
BLOCK
  5
478
330
477
100
AcDbEntity
  8
0
100
AcDbBlockBegin
  2
*D19
 70
     1
 10
0.0
 20
0.0
 30
0.0
  3
*D19
  1

  0
LINE
  5
54F
330
477
100
AcDbEntity
  8
Bemaßungen(DIN)
  6
Continuous
 62
   250
420
  4144959
440
 16777216
370
    25
100
AcDbLine
 10
136.5536769043582
 20
450.4111813398024
 30
0.0
 11
136.5536769043582
 21
495.0619884606862
 31
0.0
  0
LINE
  5
550
330
477
100
AcDbEntity
  8
Bemaßungen(DIN)
  6
Continuous
 62
   250
420
  4144959
440
 16777216
370
    25
100
AcDbLine
 10
169.0536769043583
 20
450.4111813398024
 30
0.0
 11
169.0536769043583
 21
495.0619884606862
 31
0.0
  0
LINE
  5
551
330
477
100
AcDbEntity
  8
Bemaßungen(DIN)
  6
Continuous
 62
   250
420
  4144959
440
 16777216
370
    25
100
AcDbLine
 10
141.5536769043582
 20
488.711988460686
 30
0.0
 11
164.0536769043583
 21
488.711988460686
 31
0.0
  0
SOLID
  5
552
330
477
100
AcDbEntity
  8
Bemaßungen(DIN)
  6
Continuous
 62
   250
420
  4144959
440
 16777216
100
AcDbTrace
 10
141.5536769043582
 20
489.5453217940193
 30
0.0
 11
141.5536769043582
 21
487.8786551273528
 31
0.0
 12
136.5536769043582
 22
488.711988460686
 32
0.0
 13
136.5536769043582
 23
488.711988460686
 33
0.0
  0
SOLID
  5
553
330
477
100
AcDbEntity
  8
Bemaßungen(DIN)
  6
Continuous
 62
   250
420
  4144959
440
 16777216
100
AcDbTrace
 10
164.0536769043583
 20
489.5453217940193
 30
0.0
 11
164.0536769043583
 21
487.8786551273528
 31
0.0
 12
169.0536769043583
 22
488.711988460686
 32
0.0
 13
169.0536769043583
 23
488.711988460686
 33
0.0
  0
MTEXT
  5
554
330
477
100
AcDbEntity
  8
Bemaßungen(DIN)
  6
Continuous
 62
   250
420
  4144959
440
 16777216
370
    25
100
AcDbMText
 10
143.6483971787218
 20
497.4647852281052
 30
0.0
 40
7.0
 41
0.0
 46
0.0
 71
     1
 72
     1
  1
\A1;32.5
  7
STANDARD-DIN~0
 73
     1
 44
1.0
  0
POINT
  5
555
330
477
100
AcDbEntity
  8
Defpoints
  6
Continuous
 62
     0
440
 16777216
100
AcDbPoint
 10
136.5536769043582
 20
450.4111813398024
 30
0.0
  0
POINT
  5
556
330
477
100
AcDbEntity
  8
Defpoints
  6
Continuous
 62
     0
440
 16777216
100
AcDbPoint
 10
169.0536769043583
 20
450.4111813398024
 30
0.0
  0
POINT
  5
557
330
477
100
AcDbEntity
  8
Defpoints
  6
Continuous
 62
     0
440
 16777216
100
AcDbPoint
 10
169.0536769043583
 20
488.711988460686
 30
0.0
  0
ENDBLK
  5
479
330
477
100
AcDbEntity
  8
0
100
AcDbBlockEnd
  0
BLOCK
  5
55A
330
559
100
AcDbEntity
  8
0
100
AcDbBlockBegin
  2
*D20
 70
     1
 10
0.0
 20
0.0
 30
0.0
  3
*D20
  1

  0
LINE
  5
631
330
559
100
AcDbEntity
  8
Bemaßungen(DIN)
  6
Continuous
 62
   250
420
  4144959
440
 16777216
370
    25
100
AcDbLine
 10
152.8036769043582
 20
414.9111813398024
 30
0.0
 11
152.8036769043582
 21
364.1605085535302
 31
0.0
  0
LINE
  5
632
330
559
100
AcDbEntity
  8
Bemaßungen(DIN)
  6
Continuous
 62
   250
420
  4144959
440
 16777216
370
    25
100
AcDbLine
 10
294.2333708473121
 20
421.069707543373
 30
0.0
 11
294.2333708473121
 21
364.1605085535302
 31
0.0
  0
LINE
  5
633
330
559
100
AcDbEntity
  8
Bemaßungen(DIN)
  6
Continuous
 62
   250
420
  4144959
440
 16777216
370
    25
100
AcDbLine
 10
157.8036769043583
 20
370.5105085535302
 30
0.0
 11
289.2333708473121
 21
370.5105085535302
 31
0.0
  0
SOLID
  5
634
330
559
100
AcDbEntity
  8
Bemaßungen(DIN)
  6
Continuous
 62
   250
420
  4144959
440
 16777216
100
AcDbTrace
 10
157.8036769043583
 20
371.3438418868634
 30
0.0
 11
157.8036769043583
 21
369.6771752201968
 31
0.0
 12
152.8036769043582
 22
370.5105085535302
 32
0.0
 13
152.8036769043582
 23
370.5105085535302
 33
0.0
  0
SOLID
  5
635
330
559
100
AcDbEntity
  8
Bemaßungen(DIN)
  6
Continuous
 62
   250
420
  4144959
440
 16777216
100
AcDbTrace
 10
289.2333708473121
 20
371.3438418868634
 30
0.0
 11
289.2333708473121
 21
369.6771752201968
 31
0.0
 12
294.2333708473121
 22
370.5105085535302
 32
0.0
 13
294.2333708473121
 23
370.5105085535302
 33
0.0
  0
MTEXT
  5
636
330
559
100
AcDbEntity
  8
Bemaßungen(DIN)
  6
Continuous
 62
   250
420
  4144959
440
 16777216
370
    25
100
AcDbMText
 10
216.8106930044776
 20
379.1391579805269
 30
0.0
 40
7.0
 41
0.0
 46
0.0
 71
     1
 72
     1
  1
\A1;141
  7
STANDARD-DIN~0
 73
     1
 44
1.0
  0
POINT
  5
637
330
559
100
AcDbEntity
  8
Defpoints
  6
Continuous
 62
     0
440
 16777216
100
AcDbPoint
 10
152.8036769043582
 20
414.9111813398024
 30
0.0
  0
POINT
  5
638
330
559
100
AcDbEntity
  8
Defpoints
  6
Continuous
 62
     0
440
 16777216
100
AcDbPoint
 10
294.2333708473121
 20
421.069707543373
 30
0.0
  0
POINT
  5
639
330
559
100
AcDbEntity
  8
Defpoints
  6
Continuous
 62
     0
440
 16777216
100
AcDbPoint
 10
294.2333708473121
 20
370.5105085535302
 30
0.0
  0
ENDBLK
  5
55B
330
559
100
AcDbEntity
  8
0
100
AcDbBlockEnd
  0
BLOCK
  5
63C
330
63B
100
AcDbEntity
  8
0
100
AcDbBlockBegin
  2
*D21
 70
     1
 10
0.0
 20
0.0
 30
0.0
  3
*D21
  1

  0
LINE
  5
71C
330
63B
100
AcDbEntity
  8
Bemaßungen(DIN)
  6
Continuous
 62
   250
420
  4144959
440
 16777216
370
    25
100
AcDbLine
 10
185.6536769043102
 20
200.4664580583576
 30
0.0
 11
82.35300411808582
 21
200.4664580583576
 31
0.0
  0
LINE
  5
71D
330
63B
100
AcDbEntity
  8
Bemaßungen(DIN)
  6
Continuous
 62
   250
420
  4144959
440
 16777216
370
    25
100
AcDbLine
 10
138.5028697834265
 20
254.6664580583609
 30
0.0
 11
82.35300411808585
 21
254.6664580583609
 31
0.0
  0
LINE
  5
71E
330
63B
100
AcDbEntity
  8
Bemaßungen(DIN)
  6
Continuous
 62
   250
420
  4144959
440
 16777216
370
    25
100
AcDbLine
 10
88.7030041180858
 20
205.4664580583576
 30
0.0
 11
88.70300411808583
 21
249.6664580583608
 31
0.0
  0
SOLID
  5
71F
330
63B
100
AcDbEntity
  8
Bemaßungen(DIN)
  6
Continuous
 62
   250
420
  4144959
440
 16777216
100
AcDbTrace
 10
87.86967078475248
 20
205.4664580583576
 30
0.0
 11
89.53633745141914
 21
205.4664580583576
 31
0.0
 12
88.7030041180858
 22
200.4664580583576
 32
0.0
 13
88.7030041180858
 23
200.4664580583576
 33
0.0
  0
SOLID
  5
720
330
63B
100
AcDbEntity
  8
Bemaßungen(DIN)
  6
Continuous
 62
   250
420
  4144959
440
 16777216
100
AcDbTrace
 10
87.8696707847525
 20
249.6664580583608
 30
0.0
 11
89.53633745141916
 21
249.6664580583608
 31
0.0
 12
88.70300411808583
 22
254.6664580583609
 32
0.0
 13
88.70300411808583
 23
254.6664580583609
 33
0.0
  0
MTEXT
  5
721
330
63B
100
AcDbEntity
  8
Bemaßungen(DIN)
  6
Continuous
 62
   250
420
  4144959
440
 16777216
370
    25
100
AcDbMText
 10
79.98363167537185
 20
218.4487908838685
 30
0.0
 40
7.0
 41
0.0
 46
0.0
 71
     1
 72
     1
  1
\A1;55.5
  7
STANDARD-DIN~0
 11
0.0000000000000001
 21
1.0
 31
0.0
 73
     1
 44
1.0
  0
POINT
  5
722
330
63B
100
AcDbEntity
  8
Defpoints
  6
Continuous
 62
     0
440
 16777216
100
AcDbPoint
 10
185.6536769043102
 20
200.4664580583576
 30
0.0
  0
POINT
  5
723
330
63B
100
AcDbEntity
  8
Defpoints
  6
Continuous
 62
     0
440
 16777216
100
AcDbPoint
 10
138.5028697834265
 20
254.6664580583609
 30
0.0
  0
POINT
  5
724
330
63B
100
AcDbEntity
  8
Defpoints
  6
Continuous
 62
     0
440
 16777216
100
AcDbPoint
 10
88.70300411808583
 20
254.6664580583609
 30
0.0
  0
ENDBLK
  5
63D
330
63B
100
AcDbEntity
  8
0
100
AcDbBlockEnd
  0
BLOCK
  5
727
330
726
100
AcDbEntity
  8
0
100
AcDbBlockBegin
  2
*D22
 70
     1
 10
0.0
 20
0.0
 30
0.0
  3
*D22
  1

  0
LINE
  5
804
330
726
100
AcDbEntity
  8
Bemaßungen(DIN)
  6
Continuous
 62
   250
420
  4144959
440
 16777216
370
    25
100
AcDbLine
 10
136.5536769043101
 20
268.6664580583608
 30
0.0
 11
82.35300411808585
 21
268.6664580583608
 31
0.0
  0
LINE
  5
805
330
726
100
AcDbEntity
  8
Bemaßungen(DIN)
  6
Continuous
 62
   250
420
  4144959
440
 16777216
370
    25
100
AcDbLine
 10
138.5028697834266
 20
254.6664580583609
 30
0.0
 11
82.35300411808585
 21
254.6664580583609
 31
0.0
  0
LINE
  5
806
330
726
100
AcDbEntity
  8
Bemaßungen(DIN)
  6
Continuous
 62
   250
420
  4144959
440
 16777216
370
    25
100
AcDbLine
 10
88.70300411808583
 20
263.6664580583608
 30
0.0
 11
88.70300411808583
 21
259.6664580583608
 31
0.0
  0
SOLID
  5
807
330
726
100
AcDbEntity
  8
Bemaßungen(DIN)
  6
Continuous
 62
   250
420
  4144959
440
 16777216
100
AcDbTrace
 10
87.8696707847525
 20
273.6664580583608
 30
0.0
 11
89.53633745141916
 21
273.6664580583608
 31
0.0
 12
88.70300411808583
 22
268.6664580583608
 32
0.0
 13
88.70300411808583
 23
268.6664580583608
 33
0.0
  0
LINE
  5
808
330
726
100
AcDbEntity
  8
Bemaßungen(DIN)
  6
Continuous
 62
   250
420
  4144959
440
 16777216
370
    25
100
AcDbLine
 10
88.70300411808583
 20
273.6664580583608
 30
0.0
 11
88.70300411808583
 21
278.6664580583608
 31
0.0
  0
LINE
  5
809
330
726
100
AcDbEntity
  8
Bemaßungen(DIN)
  6
Continuous
 62
   250
420
  4144959
440
 16777216
370
    25
100
AcDbLine
 10
88.70300411808583
 20
268.6664580583608
 30
0.0
 11
88.70300411808583
 21
263.6664580583608
 31
0.0
  0
SOLID
  5
80A
330
726
100
AcDbEntity
  8
Bemaßungen(DIN)
  6
Continuous
 62
   250
420
  4144959
440
 16777216
100
AcDbTrace
 10
87.8696707847525
 20
249.6664580583608
 30
0.0
 11
89.53633745141916
 21
249.6664580583608
 31
0.0
 12
88.70300411808583
 22
254.6664580583609
 32
0.0
 13
88.70300411808583
 23
254.6664580583609
 33
0.0
  0
LINE
  5
80B
330
726
100
AcDbEntity
  8
Bemaßungen(DIN)
  6
Continuous
 62
   250
420
  4144959
440
 16777216
370
    25
100
AcDbLine
 10
88.70300411808583
 20
249.6664580583608
 30
0.0
 11
88.70300411808583
 21
244.6664580583608
 31
0.0
  0
LINE
  5
80C
330
726
100
AcDbEntity
  8
Bemaßungen(DIN)
  6
Continuous
 62
   250
420
  4144959
440
 16777216
370
    25
100
AcDbLine
 10
88.70300411808583
 20
254.6664580583609
 30
0.0
 11
88.70300411808583
 21
259.6664580583608
 31
0.0
  0
MTEXT
  5
80D
330
726
100
AcDbEntity
  8
Bemaßungen(DIN)
  6
Continuous
 62
   250
420
  4144959
440
 16777216
370
    25
100
AcDbMText
 10
80.0743546910891
 20
256.9966080993915
 30
0.0
 40
7.0
 41
0.0
 46
0.0
 71
     1
 72
     1
  1
\A1;14
  7
STANDARD-DIN~0
 11
0.0000000000000001
 21
1.0
 31
0.0
 73
     1
 44
1.0
  0
POINT
  5
80E
330
726
100
AcDbEntity
  8
Defpoints
  6
Continuous
 62
     0
440
 16777216
100
AcDbPoint
 10
136.5536769043101
 20
268.6664580583608
 30
0.0
  0
POINT
  5
80F
330
726
100
AcDbEntity
  8
Defpoints
  6
Continuous
 62
     0
440
 16777216
100
AcDbPoint
 10
138.5028697834266
 20
254.6664580583609
 30
0.0
  0
POINT
  5
810
330
726
100
AcDbEntity
  8
Defpoints
  6
Continuous
 62
     0
440
 16777216
100
AcDbPoint
 10
88.70300411808583
 20
254.6664580583609
 30
0.0
  0
ENDBLK
  5
728
330
726
100
AcDbEntity
  8
0
100
AcDbBlockEnd
  0
BLOCK
  5
813
330
812
100
AcDbEntity
  8
0
100
AcDbBlockBegin
  2
*D23
 70
     1
 10
0.0
 20
0.0
 30
0.0
  3
*D23
  1

  0
LINE
  5
8EA
330
812
100
AcDbEntity
  8
Bemaßungen(DIN)
  6
Continuous
 62
   250
420
  4144959
440
 16777216
370
    25
100
AcDbLine
 10
142.8036769043101
 20
221.9664580583549
 30
0.0
 11
142.8036769043101
 21
170.1164580583576
 31
0.0
  0
LINE
  5
8EB
330
812
100
AcDbEntity
  8
Bemaßungen(DIN)
  6
Continuous
 62
   250
420
  4144959
440
 16777216
370
    25
100
AcDbLine
 10
294.189675603227
 20
238.3453537330073
 30
0.0
 11
294.189675603227
 21
170.1164580583576
 31
0.0
  0
LINE
  5
8EC
330
812
100
AcDbEntity
  8
Bemaßungen(DIN)
  6
Continuous
 62
   250
420
  4144959
440
 16777216
370
    25
100
AcDbLine
 10
147.8036769043101
 20
176.4664580583575
 30
0.0
 11
289.189675603227
 21
176.4664580583575
 31
0.0
  0
SOLID
  5
8ED
330
812
100
AcDbEntity
  8
Bemaßungen(DIN)
  6
Continuous
 62
   250
420
  4144959
440
 16777216
100
AcDbTrace
 10
147.8036769043101
 20
177.2997913916909
 30
0.0
 11
147.8036769043101
 21
175.6331247250241
 31
0.0
 12
142.8036769043101
 22
176.4664580583575
 32
0.0
 13
142.8036769043101
 23
176.4664580583575
 33
0.0
  0
SOLID
  5
8EE
330
812
100
AcDbEntity
  8
Bemaßungen(DIN)
  6
Continuous
 62
   250
420
  4144959
440
 16777216
100
AcDbTrace
 10
289.189675603227
 20
177.2997913916909
 30
0.0
 11
289.189675603227
 21
175.6331247250241
 31
0.0
 12
294.189675603227
 22
176.4664580583575
 32
0.0
 13
294.189675603227
 23
176.4664580583575
 33
0.0
  0
MTEXT
  5
8EF
330
812
100
AcDbEntity
  8
Bemaßungen(DIN)
  6
Continuous
 62
   250
420
  4144959
440
 16777216
370
    25
100
AcDbMText
 10
211.788845382411
 20
185.2144799280682
 30
0.0
 40
7.0
 41
0.0
 46
0.0
 71
     1
 72
     1
  1
\A1;151
  7
STANDARD-DIN~0
 73
     1
 44
1.0
  0
POINT
  5
8F0
330
812
100
AcDbEntity
  8
Defpoints
  6
Continuous
 62
     0
440
 16777216
100
AcDbPoint
 10
142.8036769043101
 20
221.9664580583549
 30
0.0
  0
POINT
  5
8F1
330
812
100
AcDbEntity
  8
Defpoints
  6
Continuous
 62
     0
440
 16777216
100
AcDbPoint
 10
294.189675603227
 20
238.3453537330073
 30
0.0
  0
POINT
  5
8F2
330
812
100
AcDbEntity
  8
Defpoints
  6
Continuous
 62
     0
440
 16777216
100
AcDbPoint
 10
294.189675603227
 20
176.4664580583575
 30
0.0
  0
ENDBLK
  5
814
330
812
100
AcDbEntity
  8
0
100
AcDbBlockEnd
  0
BLOCK
  5
8F5
330
8F4
100
AcDbEntity
  8
0
100
AcDbBlockBegin
  2
*D24
 70
     1
 10
0.0
 20
0.0
 30
0.0
  3
*D24
  1

  0
LINE
  5
9D3
330
8F4
100
AcDbEntity
  8
Bemaßungen(DIN)
  6
Continuous
 62
   250
420
  4144959
440
 16777216
370
    25
100
AcDbLine
 10
167.1044840251938
 20
254.6664580583609
 30
0.0
 11
252.0069912425645
 21
254.6664580583609
 31
0.0
  0
LINE
  5
9D4
330
8F4
100
AcDbEntity
  8
Bemaßungen(DIN)
  6
Continuous
 62
   250
420
  4144959
440
 16777216
370
    25
100
AcDbLine
 10
289.1287455518634
 20
241.0647119845042
 30
0.0
 11
239.3069912425644
 21
241.0647119845042
 31
0.0
  0
LINE
  5
9D5
330
8F4
100
AcDbEntity
  8
Bemaßungen(DIN)
  6
Continuous
 62
   250
420
  4144959
440
 16777216
370
    25
100
AcDbLine
 10
245.6569912425645
 20
249.6664580583606
 30
0.0
 11
245.6569912425645
 21
246.0647119845042
 31
0.0
  0
SOLID
  5
9D6
330
8F4
100
AcDbEntity
  8
Bemaßungen(DIN)
  6
Continuous
 62
   250
420
  4144959
440
 16777216
100
AcDbTrace
 10
244.8236579092311
 20
259.6664580583608
 30
0.0
 11
246.4903245758979
 21
259.6664580583608
 31
0.0
 12
245.6569912425645
 22
254.6664580583609
 32
0.0
 13
245.6569912425645
 23
254.6664580583609
 33
0.0
  0
LINE
  5
9D7
330
8F4
100
AcDbEntity
  8
Bemaßungen(DIN)
  6
Continuous
 62
   250
420
  4144959
440
 16777216
370
    25
100
AcDbLine
 10
245.6569912425645
 20
259.6664580583608
 30
0.0
 11
245.6569912425645
 21
264.6664580583608
 31
0.0
  0
LINE
  5
9D8
330
8F4
100
AcDbEntity
  8
Bemaßungen(DIN)
  6
Continuous
 62
   250
420
  4144959
440
 16777216
370
    25
100
AcDbLine
 10
245.6569912425645
 20
254.6664580583609
 30
0.0
 11
245.6569912425645
 21
249.6664580583606
 31
0.0
  0
SOLID
  5
9D9
330
8F4
100
AcDbEntity
  8
Bemaßungen(DIN)
  6
Continuous
 62
   250
420
  4144959
440
 16777216
100
AcDbTrace
 10
244.8236579092311
 20
236.0647119845042
 30
0.0
 11
246.4903245758979
 21
236.0647119845042
 31
0.0
 12
245.6569912425645
 22
241.0647119845042
 32
0.0
 13
245.6569912425645
 23
241.0647119845042
 33
0.0
  0
LINE
  5
9DA
330
8F4
100
AcDbEntity
  8
Bemaßungen(DIN)
  6
Continuous
 62
   250
420
  4144959
440
 16777216
370
    25
100
AcDbLine
 10
245.6569912425645
 20
236.0647119845042
 30
0.0
 11
245.6569912425645
 21
231.0647119845042
 31
0.0
  0
LINE
  5
9DB
330
8F4
100
AcDbEntity
  8
Bemaßungen(DIN)
  6
Continuous
 62
   250
420
  4144959
440
 16777216
370
    25
100
AcDbLine
 10
245.6569912425645
 20
241.0647119845042
 30
0.0
 11
245.6569912425645
 21
246.0647119845042
 31
0.0
  0
MTEXT
  5
9DC
330
8F4
100
AcDbEntity
  8
Bemaßungen(DIN)
  6
Continuous
 62
   250
420
  4144959
440
 16777216
370
    25
100
AcDbMText
 10
237.0283418155677
 20
243.1957350624632
 30
0.0
 40
7.0
 41
0.0
 46
0.0
 71
     1
 72
     1
  1
\A1;14
  7
STANDARD-DIN~0
 11
0.0000000000000001
 21
1.0
 31
0.0
 73
     1
 44
1.0
  0
POINT
  5
9DD
330
8F4
100
AcDbEntity
  8
Defpoints
  6
Continuous
 62
     0
440
 16777216
100
AcDbPoint
 10
167.1044840251938
 20
254.6664580583609
 30
0.0
  0
POINT
  5
9DE
330
8F4
100
AcDbEntity
  8
Defpoints
  6
Continuous
 62
     0
440
 16777216
100
AcDbPoint
 10
289.1287455518634
 20
241.0647119845042
 30
0.0
  0
POINT
  5
9DF
330
8F4
100
AcDbEntity
  8
Defpoints
  6
Continuous
 62
     0
440
 16777216
100
AcDbPoint
 10
245.6569912425645
 20
241.0647119845042
 30
0.0
  0
ENDBLK
  5
8F6
330
8F4
100
AcDbEntity
  8
0
100
AcDbBlockEnd
  0
BLOCK
  5
9E5
330
9E4
100
AcDbEntity
  8
0
100
AcDbBlockBegin
  2
*D25
 70
     1
 10
0.0
 20
0.0
 30
0.0
  3
*D25
  1

  0
LINE
  5
ABC
330
9E4
100
AcDbEntity
  8
Bemaßungen(DIN)
  6
Continuous
 62
   250
420
  4144959
440
 16777216
370
    25
100
AcDbLine
 10
293.6748446437416
 20
440.5111813398026
 30
0.0
 11
324.4663184401712
 21
440.5111813398026
 31
0.0
  0
LINE
  5
ABD
330
9E4
100
AcDbEntity
  8
Bemaßungen(DIN)
  6
Continuous
 62
   250
420
  4144959
440
 16777216
370
    25
100
AcDbLine
 10
293.6748446437416
 20
420.5111813398024
 30
0.0
 11
324.4663184401712
 21
420.5111813398024
 31
0.0
  0
LINE
  5
ABE
330
9E4
100
AcDbEntity
  8
Bemaßungen(DIN)
  6
Continuous
 62
   250
420
  4144959
440
 16777216
370
    25
100
AcDbLine
 10
318.1163184401712
 20
435.5111813398026
 30
0.0
 11
318.1163184401712
 21
425.5111813398024
 31
0.0
  0
SOLID
  5
ABF
330
9E4
100
AcDbEntity
  8
Bemaßungen(DIN)
  6
Continuous
 62
   250
420
  4144959
440
 16777216
100
AcDbTrace
 10
317.2829851068379
 20
435.5111813398026
 30
0.0
 11
318.9496517735045
 21
435.5111813398026
 31
0.0
 12
318.1163184401712
 22
440.5111813398026
 32
0.0
 13
318.1163184401712
 23
440.5111813398026
 33
0.0
  0
SOLID
  5
AC0
330
9E4
100
AcDbEntity
  8
Bemaßungen(DIN)
  6
Continuous
 62
   250
420
  4144959
440
 16777216
100
AcDbTrace
 10
317.2829851068379
 20
425.5111813398024
 30
0.0
 11
318.9496517735045
 21
425.5111813398024
 31
0.0
 12
318.1163184401712
 22
420.5111813398024
 32
0.0
 13
318.1163184401712
 23
420.5111813398024
 33
0.0
  0
MTEXT
  5
AC1
330
9E4
100
AcDbEntity
  8
Bemaßungen(DIN)
  6
Continuous
 62
   250
420
  4144959
440
 16777216
370
    25
100
AcDbMText
 10
309.3682965704604
 20
425.4697897687313
 30
0.0
 40
7.0
 41
0.0
 46
0.0
 71
     1
 72
     1
  1
\A1;20
  7
STANDARD-DIN~0
 11
0.0000000000000001
 21
1.0
 31
0.0
 73
     1
 44
1.0
  0
POINT
  5
AC2
330
9E4
100
AcDbEntity
  8
Defpoints
  6
Continuous
 62
     0
440
 16777216
100
AcDbPoint
 10
293.6748446437416
 20
440.5111813398026
 30
0.0
  0
POINT
  5
AC3
330
9E4
100
AcDbEntity
  8
Defpoints
  6
Continuous
 62
     0
440
 16777216
100
AcDbPoint
 10
293.6748446437416
 20
420.5111813398024
 30
0.0
  0
POINT
  5
AC4
330
9E4
100
AcDbEntity
  8
Defpoints
  6
Continuous
 62
     0
440
 16777216
100
AcDbPoint
 10
318.1163184401712
 20
420.5111813398024
 30
0.0
  0
ENDBLK
  5
9E6
330
9E4
100
AcDbEntity
  8
0
100
AcDbBlockEnd
  0
BLOCK
  5
AC7
330
AC6
100
AcDbEntity
  8
0
100
AcDbBlockBegin
  2
*D26
 70
     1
 10
0.0
 20
0.0
 30
0.0
  3
*D26
  1

  0
LINE
  5
B9E
330
AC6
100
AcDbEntity
  8
Bemaßungen(DIN)
  6
Continuous
 62
   250
420
  4144959
440
 16777216
370
    25
100
AcDbLine
 10
262.3636192192215
 20
200.4664580583576
 30
0.0
 11
324.4663184401712
 21
200.4664580583576
 31
0.0
  0
LINE
  5
B9F
330
AC6
100
AcDbEntity
  8
Bemaßungen(DIN)
  6
Continuous
 62
   250
420
  4144959
440
 16777216
370
    25
100
AcDbLine
 10
289.1287455518634
 20
241.0647119845042
 30
0.0
 11
324.4663184401712
 21
241.0647119845042
 31
0.0
  0
LINE
  5
BA0
330
AC6
100
AcDbEntity
  8
Bemaßungen(DIN)
  6
Continuous
 62
   250
420
  4144959
440
 16777216
370
    25
100
AcDbLine
 10
318.1163184401711
 20
205.4664580583576
 30
0.0
 11
318.1163184401711
 21
236.0647119845042
 31
0.0
  0
SOLID
  5
BA1
330
AC6
100
AcDbEntity
  8
Bemaßungen(DIN)
  6
Continuous
 62
   250
420
  4144959
440
 16777216
100
AcDbTrace
 10
317.2829851068379
 20
205.4664580583576
 30
0.0
 11
318.9496517735045
 21
205.4664580583576
 31
0.0
 12
318.1163184401711
 22
200.4664580583576
 32
0.0
 13
318.1163184401711
 23
200.4664580583576
 33
0.0
  0
SOLID
  5
BA2
330
AC6
100
AcDbEntity
  8
Bemaßungen(DIN)
  6
Continuous
 62
   250
420
  4144959
440
 16777216
100
AcDbTrace
 10
317.2829851068379
 20
236.0647119845042
 30
0.0
 11
318.9496517735045
 21
236.0647119845042
 31
0.0
 12
318.1163184401711
 22
241.0647119845042
 32
0.0
 13
318.1163184401711
 23
241.0647119845042
 33
0.0
  0
MTEXT
  5
BA3
330
AC6
100
AcDbEntity
  8
Bemaßungen(DIN)
  6
Continuous
 62
   250
420
  4144959
440
 16777216
370
    25
100
AcDbMText
 10
309.3682965704604
 20
211.5357077507892
 30
0.0
 40
7.0
 41
0.0
 46
0.0
 71
     1
 72
     1
  1
\A1;40.6
  7
STANDARD-DIN~0
 11
0.0000000000000001
 21
1.0
 31
0.0
 73
     1
 44
1.0
  0
POINT
  5
BA4
330
AC6
100
AcDbEntity
  8
Defpoints
  6
Continuous
 62
     0
440
 16777216
100
AcDbPoint
 10
262.3636192192215
 20
200.4664580583576
 30
0.0
  0
POINT
  5
BA5
330
AC6
100
AcDbEntity
  8
Defpoints
  6
Continuous
 62
     0
440
 16777216
100
AcDbPoint
 10
289.1287455518634
 20
241.0647119845042
 30
0.0
  0
POINT
  5
BA6
330
AC6
100
AcDbEntity
  8
Defpoints
  6
Continuous
 62
     0
440
 16777216
100
AcDbPoint
 10
318.1163184401711
 20
241.0647119845042
 30
0.0
  0
ENDBLK
  5
AC8
330
AC6
100
AcDbEntity
  8
0
100
AcDbBlockEnd
  0
BLOCK
  5
BA9
330
BA8
100
AcDbEntity
  8
0
100
AcDbBlockBegin
  2
*D27
 70
     1
 10
0.0
 20
0.0
 30
0.0
  3
*D27
  1

  0
LINE
  5
C80
330
BA8
100
AcDbEntity
  8
Bemaßungen(DIN)
  6
Continuous
 62
   250
420
  4144959
440
 16777216
370
    25
100
AcDbLine
 10
152.8036769043102
 20
221.4664580583577
 30
0.0
 11
106.3530041180858
 21
221.4664580583577
 31
0.0
  0
LINE
  5
C81
330
BA8
100
AcDbEntity
  8
Bemaßungen(DIN)
  6
Continuous
 62
   250
420
  4144959
440
 16777216
370
    25
100
AcDbLine
 10
138.5028697834265
 20
254.6664580583609
 30
0.0
 11
106.3530041180858
 21
254.6664580583609
 31
0.0
  0
LINE
  5
C82
330
BA8
100
AcDbEntity
  8
Bemaßungen(DIN)
  6
Continuous
 62
   250
420
  4144959
440
 16777216
370
    25
100
AcDbLine
 10
112.7030041180858
 20
226.4664580583577
 30
0.0
 11
112.7030041180858
 21
249.6664580583608
 31
0.0
  0
SOLID
  5
C83
330
BA8
100
AcDbEntity
  8
Bemaßungen(DIN)
  6
Continuous
 62
   250
420
  4144959
440
 16777216
100
AcDbTrace
 10
111.8696707847525
 20
226.4664580583577
 30
0.0
 11
113.5363374514191
 21
226.4664580583577
 31
0.0
 12
112.7030041180858
 22
221.4664580583577
 32
0.0
 13
112.7030041180858
 23
221.4664580583577
 33
0.0
  0
SOLID
  5
C84
330
BA8
100
AcDbEntity
  8
Bemaßungen(DIN)
  6
Continuous
 62
   250
420
  4144959
440
 16777216
100
AcDbTrace
 10
111.8696707847525
 20
249.6664580583608
 30
0.0
 11
113.5363374514191
 21
249.6664580583608
 31
0.0
 12
112.7030041180858
 22
254.6664580583609
 32
0.0
 13
112.7030041180858
 23
254.6664580583609
 33
0.0
  0
MTEXT
  5
C85
330
BA8
100
AcDbEntity
  8
Bemaßungen(DIN)
  6
Continuous
 62
   250
420
  4144959
440
 16777216
370
    25
100
AcDbMText
 10
103.9502073506666
 20
233.0552029132281
 30
0.0
 40
7.0
 41
0.0
 46
0.0
 71
     1
 72
     1
  1
\A1;33
  7
STANDARD-DIN~0
 11
0.0000000000000001
 21
1.0
 31
0.0
 73
     1
 44
1.0
  0
POINT
  5
C86
330
BA8
100
AcDbEntity
  8
Defpoints
  6
Continuous
 62
     0
440
 16777216
100
AcDbPoint
 10
152.8036769043102
 20
221.4664580583577
 30
0.0
  0
POINT
  5
C87
330
BA8
100
AcDbEntity
  8
Defpoints
  6
Continuous
 62
     0
440
 16777216
100
AcDbPoint
 10
138.5028697834265
 20
254.6664580583609
 30
0.0
  0
POINT
  5
C88
330
BA8
100
AcDbEntity
  8
Defpoints
  6
Continuous
 62
     0
440
 16777216
100
AcDbPoint
 10
112.7030041180858
 20
254.6664580583609
 30
0.0
  0
ENDBLK
  5
BAA
330
BA8
100
AcDbEntity
  8
0
100
AcDbBlockEnd
  0
ENDSEC
  0
SECTION
  2
ENTITIES
  0
CIRCLE
  5
199
330
6C
100
AcDbEntity
  8
Verdeckte Kanten(DIN)
100
AcDbCircle
 10
152.8036769043582
 20
405.5111813398026
 30
0.0
 40
3.649999999999991
  0
CIRCLE
  5
19A
330
6C
100
AcDbEntity
  8
Verdeckte Kanten(DIN)
100
AcDbCircle
 10
152.8036769043582
 20
455.5111813398024
 30
0.0
 40
3.649999999999991
  0
SPLINE
  5
19B
330
6C
100
AcDbEntity
  8
Verdeckte Kanten(DIN)
100
AcDbSpline
210
0.0
220
0.0
230
1.0
 70
     8
 71
     3
 72
    28
 73
    24
 74
     0
 42
0.0000000001
 43
0.0000000001
 40
-0.0000012116983804
 40
-0.0000012116983804
 40
-0.0000012116983804
 40
-0.0000012116983804
 40
0.0
 40
0.0
 40
0.0000012046688544
 40
0.0000012046688544
 40
0.0000036080647843
 40
0.0000036080647843
 40
0.0000084083573401
 40
0.0000084083573401
 40
0.0000180183886636
 40
0.0000180183886636
 40
0.0000373485416214
 40
0.0000373485416214
 40
0.0000766069530918
 40
0.0000766069530918
 40
0.0001579564043796
 40
0.0001579564043796
 40
0.0003340619219223
 40
0.0003340619219223
 40
0.0006995203427395
 40
0.0006995203427395
 40
0.0011970552950088
 40
0.0011970552950088
 40
0.0011970552950088
 40
0.0011970552950088
 10
167.614781128781
 20
440.511181339838
 30
0.0
 10
167.6147810465296
 20
440.5111813459155
 30
0.0
 10
167.6147809174081
 20
440.5111815377193
 30
0.0
 10
167.6147807068159
 20
440.5111819309123
 30
0.0
 10
167.6147805995846
 20
440.5111821796024
 30
0.0
 10
167.614780284363
 20
440.5111830127126
 30
0.0
 10
167.6147800700349
 20
440.5111837166886
 30
0.0
 10
167.6147794398406
 20
440.5111860764392
 30
0.0
 10
167.6147790117024
 20
440.5111880709235
 30
0.0
 10
167.61477775235
 20
440.5111947640011
 30
0.0
 10
167.6147768981587
 20
440.5112004242043
 30
0.0
 10
167.6147743836541
 20
440.5112194616615
 30
0.0
 10
167.6147726837843
 20
440.5112355793846
 30
0.0
 10
167.614767671893
 20
440.5112900427233
 30
0.0
 10
167.6147643075776
 20
440.5113362584208
 30
0.0
 10
167.6147543550691
 20
440.5114939717427
 30
0.0
 10
167.6147477801227
 20
440.5116284287585
 30
0.0
 10
167.614728184831
 20
440.5120975335296
 30
0.0
 10
167.6147157634303
 20
440.5125014030534
 30
0.0
 10
167.614681710796
 20
440.5138482793083
 30
0.0
 10
167.6146598255832
 20
440.5150903964297
 30
0.0
 10
167.6146184644551
 20
440.5188280063163
 30
0.0
 10
167.6146035658257
 20
440.5215375095426
 30
0.0
 10
167.6146035658257
 20
440.5247452465636
 30
0.0
  0
ARC
  5
19C
330
6C
100
AcDbEntity
  8
Sichtbare Kanten(DIN)
100
AcDbCircle
 10
152.8036769043582
 20
430.5111813398026
 30
0.0
 40
10.41749773270517
100
AcDbArc
 50
73.72413122699772
 51
286.2758687730019
  0
SPLINE
  5
19D
330
6C
100
AcDbEntity
  8
Verdeckte Kanten(DIN)
100
AcDbSpline
210
0.0
220
0.0
230
1.0
 70
     8
 71
     3
 72
    28
 73
    24
 74
     0
 42
0.0000000001
 43
0.0000000001
 40
0.0
 40
0.0
 40
0.0
 40
0.0
 40
0.0009623211026792
 40
0.0009623211026792
 40
0.0016691827005179
 40
0.0016691827005179
 40
0.0020098020960183
 40
0.0020098020960183
 40
0.0021671464056915
 40
0.0021671464056915
 40
0.0022430791580098
 40
0.0022430791580098
 40
0.0022804670940853
 40
0.0022804670940853
 40
0.0022990546224918
 40
0.0022990546224918
 40
0.0023083392250539
 40
0.0023083392250539
 40
0.0023129878222456
 40
0.0023129878222456
 40
0.0023153180112852
 40
0.0023153180112852
 40
0.0023176605141888
 40
0.0023176605141888
 40
0.0023176605141888
 40
0.0023176605141888
 10
167.6146035658256
 20
420.4976174330414
 30
0.0
 10
167.6146035658256
 20
420.5008251700503
 30
0.0
 10
167.614618464455
 20
420.5035346732634
 30
0.0
 10
167.6146598255827
 20
420.5072722831358
 30
0.0
 10
167.6146817107955
 20
420.5085144002705
 30
0.0
 10
167.6147157634301
 20
420.5098612765464
 30
0.0
 10
167.6147281848309
 20
420.5102651460738
 30
0.0
 10
167.6147477801228
 20
420.5107342508495
 30
0.0
 10
167.6147543550692
 20
420.5108687078642
 30
0.0
 10
167.6147643075776
 20
420.5110264211862
 30
0.0
 10
167.6147676718931
 20
420.511072636883
 30
0.0
 10
167.6147726837836
 20
420.5111271002117
 30
0.0
 10
167.6147743836538
 20
420.5111432179422
 30
0.0
 10
167.6147768981599
 20
420.5111622554118
 30
0.0
 10
167.6147777523505
 20
420.5111679156061
 30
0.0
 10
167.614779011701
 20
420.5111746086734
 30
0.0
 10
167.61477943984
 20
420.5111766031639
 30
0.0
 10
167.6147800700355
 20
420.511178962919
 30
0.0
 10
167.614780284363
 20
420.5111796668928
 30
0.0
 10
167.6147805995908
 20
420.5111805000194
 30
0.0
 10
167.6147807068183
 20
420.5111807486956
 30
0.0
 10
167.6147809173489
 20
420.5111811417721
 30
0.0
 10
167.6147810452786
 20
420.5111813314058
 30
0.0
 10
167.6147811286018
 20
420.5111813397683
 30
0.0
  0
ARC
  5
19E
330
6C
100
AcDbEntity
  8
Sichtbare Kanten(DIN)
100
AcDbCircle
 10
152.8036769043582
 20
430.5111813398026
 30
0.0
 40
10.39999999999998
100
AcDbArc
 50
74.05763139437091
 51
285.9423686056283
  0
ARC
  5
19F
330
6C
100
AcDbEntity
  8
Sichtbare Kanten(DIN)
100
AcDbCircle
 10
152.8036769043582
 20
430.5111813398026
 30
0.0
 40
10.60000000000004
100
AcDbArc
 50
70.62996175445945
 51
289.3700382455407
  0
SPLINE
  5
1A0
330
6C
100
AcDbEntity
  8
Sichtbare Kanten(DIN)
100
AcDbSpline
210
0.0
220
0.0
230
1.0
 70
     8
 71
     3
 72
    10
 73
     6
 74
     0
 42
0.0000000001
 43
0.0000000001
 40
0.0
 40
0.0
 40
0.0
 40
0.0
 40
0.0354338992975095
 40
0.0684455786844918
 40
0.0960338296174126
 40
0.0960338296174126
 40
0.0960338296174126
 40
0.0960338296174126
 10
150.2007783536345
 20
407.0188015885939
 30
0.0
 10
150.3184981920206
 20
407.0173712224231
 30
0.0
 10
150.5458906783327
 20
407.0146082682401
 30
0.0
 10
150.8693041679258
 20
406.9513037646831
 30
0.0
 10
151.0304649323236
 20
406.8256511812585
 30
0.0
 10
151.1038337231008
 20
406.7684475675979
 30
0.0
  0
SPLINE
  5
1A1
330
6C
100
AcDbEntity
  8
Sichtbare Kanten(DIN)
100
AcDbSpline
210
0.0
220
0.0
230
1.0
 70
     8
 71
     3
 72
    10
 73
     6
 74
     0
 42
0.0000000001
 43
0.0000000001
 40
0.0
 40
0.0
 40
0.0
 40
0.0
 40
0.0723321057415699
 40
0.1345901391067777
 40
0.2030247413826518
 40
0.2030247413826518
 40
0.2030247413826518
 40
0.2030247413826518
 10
148.8107457836471
 20
405.7640009709182
 30
0.0
 10
148.8755191087417
 20
405.9999703686008
 30
0.0
 10
148.9960444376467
 20
406.4390444662434
 30
0.0
 10
149.5315878421807
 20
406.9252372582567
 30
0.0
 10
149.9707958209725
 20
406.9866460793786
 30
0.0
 10
150.2007783536345
 20
407.0188015885939
 30
0.0
  0
SPLINE
  5
1A2
330
6C
100
AcDbEntity
  8
Sichtbare Kanten(DIN)
100
AcDbSpline
210
0.0
220
0.0
230
1.0
 70
     8
 71
     3
 72
    13
 73
     9
 74
     0
 42
0.0000000001
 43
0.0000000001
 40
0.0
 40
0.0
 40
0.0
 40
0.0
 40
0.0186749164535748
 40
0.038933954733922
 40
0.0619956196745443
 40
0.0740314537115046
 40
0.0845940360920342
 40
0.0958450056458658
 40
0.0958450056458658
 40
0.0958450056458658
 40
0.0958450056458658
 10
148.9728969197149
 20
404.847570190482
 30
0.0
 10
148.9372596827761
 20
404.8989807425039
 30
0.0
 10
148.8629622382191
 20
405.0061628072938
 30
0.0
 10
148.8007950317131
 20
405.2061871435958
 30
0.0
 10
148.78031273198
 20
405.3903322119951
 30
0.0
 10
148.7834272156842
 20
405.5426610604231
 30
0.0
 10
148.7931380578587
 20
405.655167719335
 30
0.0
 10
148.80475434697
 20
405.7269679353593
 30
0.0
 10
148.8107457836471
 20
405.7640009709182
 30
0.0
  0
SPLINE
  5
1A3
330
6C
100
AcDbEntity
  8
Sichtbare Kanten(DIN)
100
AcDbSpline
210
0.0
220
0.0
230
1.0
 70
     8
 71
     3
 72
    10
 73
     6
 74
     0
 42
0.0000000001
 43
0.0000000001
 40
0.0
 40
0.0
 40
0.0
 40
0.0
 40
0.0343803142273133
 40
0.062320419931901
 40
0.0875627097703437
 40
0.0875627097703437
 40
0.0875627097703437
 40
0.0875627097703437
 10
149.7582860863818
 20
404.5198258545445
 30
0.0
 10
149.6438974039369
 20
404.5298375645733
 30
0.0
 10
149.4365476200376
 20
404.547985565464
 30
0.0
 10
149.1583842450431
 20
404.6604087365028
 30
0.0
 10
149.0325991015536
 20
404.7873291624823
 30
0.0
 10
148.9728969197149
 20
404.847570190482
 30
0.0
  0
SPLINE
  5
1A4
330
6C
100
AcDbEntity
  8
Sichtbare Kanten(DIN)
100
AcDbSpline
210
0.0
220
0.0
230
1.0
 70
     8
 71
     3
 72
    10
 73
     6
 74
     0
 42
0.0000000001
 43
0.0000000001
 40
0.0
 40
0.0
 40
0.0
 40
0.0
 40
0.0253636577144429
 40
0.0591587427094875
 40
0.1036416293921764
 40
0.1036416293921764
 40
0.1036416293921764
 40
0.1036416293921764
 10
150.7858543725148
 20
404.6377352466342
 30
0.0
 10
150.7032425590543
 20
404.6197205462191
 30
0.0
 10
150.5105569822225
 20
404.5777026701361
 30
0.0
 10
150.1676460686216
 20
404.5303030883252
 30
0.0
 10
149.9066193087591
 20
404.5236223219954
 30
0.0
 10
149.7582860863818
 20
404.5198258545445
 30
0.0
  0
SPLINE
  5
1A5
330
6C
100
AcDbEntity
  8
Sichtbare Kanten(DIN)
100
AcDbSpline
210
0.0
220
0.0
230
1.0
 70
     8
 71
     3
 72
    10
 73
     6
 74
     0
 42
0.0000000001
 43
0.0000000001
 40
0.0
 40
0.0
 40
0.0
 40
0.0
 40
0.0000629610420065
 40
0.0018692616811628
 40
0.004181264246394
 40
0.004181264246394
 40
0.004181264246394
 40
0.004181264246394
 10
150.8266540526906
 20
404.6468829053257
 30
0.0
 10
150.8264487838331
 20
404.6468391988709
 30
0.0
 10
150.8203545198654
 20
404.6455415900855
 30
0.0
 10
150.8067718547838
 20
404.6424131230615
 30
0.0
 10
150.7933752081324
 20
404.6394171670106
 30
0.0
 10
150.7858543725148
 20
404.6377352466342
 30
0.0
  0
SPLINE
  5
1A6
330
6C
100
AcDbEntity
  8
Sichtbare Kanten(DIN)
100
AcDbSpline
210
0.0
220
0.0
230
1.0
 70
     8
 71
     3
 72
    10
 73
     6
 74
     0
 42
0.0000000001
 43
0.0000000001
 40
0.0
 40
0.0
 40
0.0
 40
0.0
 40
0.0062279393423901
 40
0.0112592926308834
 40
0.0126740723008073
 40
0.0126740723008073
 40
0.0126740723008073
 40
0.0126740723008073
 10
150.9390449185761
 20
404.7025171322138
 30
0.0
 10
150.9225756863271
 20
404.6896480272609
 30
0.0
 10
150.892801487334
 20
404.6663823834268
 30
0.0
 10
150.852245744083
 20
404.6524259512726
 30
0.0
 10
150.831259956154
 20
404.6478805234249
 30
0.0
 10
150.8266540526906
 20
404.6468829053257
 30
0.0
  0
SPLINE
  5
1A7
330
6C
100
AcDbEntity
  8
Sichtbare Kanten(DIN)
100
AcDbSpline
210
0.0
220
0.0
230
1.0
 70
     8
 71
     3
 72
    10
 73
     6
 74
     0
 42
0.0000000001
 43
0.0000000001
 40
0.0
 40
0.0
 40
0.0
 40
0.0
 40
0.0014451006219226
 40
0.005817614222278
 40
0.0109995755152577
 40
0.0109995755152577
 40
0.0109995755152577
 40
0.0109995755152577
 10
150.9846896776906
 20
404.8011210360223
 30
0.0
 10
150.983838379938
 20
404.7963841419896
 30
0.0
 10
150.9804112677789
 20
404.7773145895469
 30
0.0
 10
150.9692287910217
 20
404.7417355936105
 30
0.0
 10
150.9496588591997
 20
404.7163080207542
 30
0.0
 10
150.9390449185761
 20
404.7025171322138
 30
0.0
  0
SPLINE
  5
1A8
330
6C
100
AcDbEntity
  8
Sichtbare Kanten(DIN)
100
AcDbSpline
210
0.0
220
0.0
230
1.0
 70
    24
 71
     3
 72
    10
 73
     6
 74
     0
 42
0.0000000001
 43
0.0000000001
 40
0.0
 40
0.0
 40
0.0
 40
0.0
 40
0.0282805628125049
 40
0.080801608035788
 40
0.109082170848312
 40
0.109082170848312
 40
0.109082170848312
 40
0.109082170848312
 10
151.1741528417531
 20
405.8753629590366
 30
0.0
 10
151.157779481896
 20
405.7825272372946
 30
0.0
 10
151.1109984537327
 20
405.5172823180318
 30
0.0
 10
151.0478440657114
 20
405.1592016770272
 30
0.0
 10
151.0010630375479
 20
404.8939567577644
 30
0.0
 10
150.9846896776906
 20
404.8011210360223
 30
0.0
  0
SPLINE
  5
1A9
330
6C
100
AcDbEntity
  8
Sichtbare Kanten(DIN)
100
AcDbSpline
210
0.0
220
0.0
230
1.0
 70
     8
 71
     3
 72
    10
 73
     6
 74
     0
 42
0.0000000001
 43
0.0000000001
 40
0.0
 40
0.0
 40
0.0
 40
0.0
 40
0.0011974721338972
 40
0.0024275869633851
 40
0.0037663461996526
 40
0.0037663461996526
 40
0.0037663461996526
 40
0.0037663461996526
 10
151.1654167341687
 20
405.9108873022982
 30
0.0
 10
151.1677159777323
 20
405.907595125875
 30
0.0
 10
151.1723771414811
 20
405.9009210293848
 30
0.0
 10
151.1754244275184
 20
405.888379554712
 30
0.0
 10
151.1745884883598
 20
405.8798224582624
 30
0.0
 10
151.1741528417531
 20
405.8753629590366
 30
0.0
  0
SPLINE
  5
1AA
330
6C
100
AcDbEntity
  8
Sichtbare Kanten(DIN)
100
AcDbSpline
210
0.0
220
0.0
230
1.0
 70
     8
 71
     3
 72
    10
 73
     6
 74
     0
 42
0.0000000001
 43
0.0000000001
 40
0.0
 40
0.0
 40
0.0
 40
0.0
 40
0.0013378531443935
 40
0.0025654958739356
 40
0.0037644824675515
 40
0.0037644824675515
 40
0.0037644824675515
 40
0.0037644824675515
 10
151.1319314395722
 20
405.9255721940626
 30
0.0
 10
151.1363968409051
 20
405.9252389759663
 30
0.0
 10
151.1449597902416
 20
405.9245999898001
 30
0.0
 10
151.1567875647779
 20
405.9194523193784
 30
0.0
 10
151.1625630787757
 20
405.9137197426032
 30
0.0
 10
151.1654167341687
 20
405.9108873022982
 30
0.0
  0
LINE
  5
1AB
330
6C
100
AcDbEntity
  8
Sichtbare Kanten(DIN)
100
AcDbLine
 10
150.1257638109912
 20
405.9255721940628
 30
0.0
 11
151.1319314395722
 21
405.9255721940626
 31
0.0
  0
SPLINE
  5
1AC
330
6C
100
AcDbEntity
  8
Sichtbare Kanten(DIN)
100
AcDbSpline
210
0.0
220
0.0
230
1.0
 70
     8
 71
     3
 72
    10
 73
     6
 74
     0
 42
0.0000000001
 43
0.0000000001
 40
0.0
 40
0.0
 40
0.0
 40
0.0
 40
0.002887171775603
 40
0.0058375627860816
 40
0.0087027008604811
 40
0.0087027008604811
 40
0.0087027008604811
 40
0.0087027008604811
 10
150.0641059724495
 20
405.8728375317905
 30
0.0
 10
150.0671328663325
 20
405.8820957026737
 30
0.0
 10
150.073252932772
 20
405.9008147668703
 30
0.0
 10
150.0968381811501
 20
405.9209702071306
 30
0.0
 10
150.1162166273632
 20
405.9240532638082
 30
0.0
 10
150.1257638109912
 20
405.9255721940628
 30
0.0
  0
SPLINE
  5
1AD
330
6C
100
AcDbEntity
  8
Sichtbare Kanten(DIN)
100
AcDbSpline
210
0.0
220
0.0
230
1.0
 70
    24
 71
     3
 72
    10
 73
     6
 74
     0
 42
0.0000000001
 43
0.0000000001
 40
0.0
 40
0.0
 40
0.0
 40
0.0
 40
0.007630850476983
 40
0.021802429934259
 40
0.0294332804112467
 40
0.0294332804112467
 40
0.0294332804112467
 40
0.0294332804112467
 10
150.007573815874
 20
405.5839847754429
 30
0.0
 10
150.0124593108867
 20
405.6089473593249
 30
0.0
 10
150.0264178680659
 20
405.6802690275588
 30
0.0
 10
150.0452619202578
 20
405.7765532796747
 30
0.0
 10
150.0592204774369
 20
405.8478749479086
 30
0.0
 10
150.0641059724495
 20
405.8728375317905
 30
0.0
  0
SPLINE
  5
1AE
330
6C
100
AcDbEntity
  8
Sichtbare Kanten(DIN)
100
AcDbSpline
210
0.0
220
0.0
230
1.0
 70
     8
 71
     3
 72
    10
 73
     6
 74
     0
 42
0.0000000001
 43
0.0000000001
 40
0.0
 40
0.0
 40
0.0
 40
0.0
 40
0.001208614172212
 40
0.0024446859839358
 40
0.0037855685811102
 40
0.0037855685811102
 40
0.0037855685811102
 40
0.0037855685811102
 10
150.0167775951709
 20
405.5483668978387
 30
0.0
 10
150.0144321436927
 20
405.5516714948038
 30
0.0
 10
150.0096879561045
 20
405.5583557635051
 30
0.0
 10
150.0064785933285
 20
405.5709181352881
 30
0.0
 10
150.0071989751522
 20
405.5795127082385
 30
0.0
 10
150.007573815874
 20
405.5839847754429
 30
0.0
  0
SPLINE
  5
1AF
330
6C
100
AcDbEntity
  8
Sichtbare Kanten(DIN)
100
AcDbSpline
210
0.0
220
0.0
230
1.0
 70
     8
 71
     3
 72
    10
 73
     6
 74
     0
 42
0.0000000001
 43
0.0000000001
 40
0.0
 40
0.0
 40
0.0
 40
0.0
 40
0.0013458088946092
 40
0.0025859262922667
 40
0.0037986230102094
 40
0.0037986230102094
 40
0.0037986230102094
 40
0.0037986230102094
 10
150.0505996134001
 20
405.533588471732
 30
0.0
 10
150.0461078163559
 20
405.5339245460559
 30
0.0
 10
150.037476980193
 20
405.5345703015076
 30
0.0
 10
150.0255395325218
 20
405.5397482498475
 30
0.0
 10
150.0196763924057
 20
405.5455155064211
 30
0.0
 10
150.0167775951709
 20
405.5483668978387
 30
0.0
  0
LINE
  5
1B0
330
6C
100
AcDbEntity
  8
Sichtbare Kanten(DIN)
100
AcDbLine
 10
150.5355938858611
 20
405.533588471732
 30
0.0
 11
150.0505996134001
 21
405.533588471732
 31
0.0
  0
SPLINE
  5
1B1
330
6C
100
AcDbEntity
  8
Sichtbare Kanten(DIN)
100
AcDbSpline
210
0.0
220
0.0
230
1.0
 70
    24
 71
     3
 72
    10
 73
     6
 74
     0
 42
0.0000000001
 43
0.0000000001
 40
0.0
 40
0.0
 40
0.0
 40
0.0
 40
0.0124984602829984
 40
0.0357098865228624
 40
0.048208346805891
 40
0.048208346805891
 40
0.048208346805891
 40
0.048208346805891
 10
150.4528534065316
 20
405.0586584945183
 30
0.0
 10
150.4600038183256
 20
405.0997018258825
 30
0.0
 10
150.4804335663083
 20
405.2169684869228
 30
0.0
 10
150.5080137260845
 20
405.3752784793274
 30
0.0
 10
150.5284434740671
 20
405.4925451403678
 30
0.0
 10
150.5355938858611
 20
405.533588471732
 30
0.0
  0
SPLINE
  5
1B2
330
6C
100
AcDbEntity
  8
Sichtbare Kanten(DIN)
100
AcDbSpline
210
0.0
220
0.0
230
1.0
 70
     8
 71
     3
 72
    10
 73
     6
 74
     0
 42
0.0000000001
 43
0.0000000001
 40
0.0
 40
0.0
 40
0.0
 40
0.0
 40
0.0001061140021708
 40
0.0008753003865788
 40
0.0033406392921189
 40
0.0033406392921189
 40
0.0033406392921189
 40
0.0033406392921189
 10
150.4396089436409
 20
405.0286713843297
 30
0.0
 10
150.439930124033
 20
405.028823475239
 30
0.0
 10
150.442579438125
 20
405.0300780243938
 30
0.0
 10
150.4485473014151
 20
405.0404039067095
 30
0.0
 10
150.4509909045296
 20
405.0507629124508
 30
0.0
 10
150.4528534065316
 20
405.0586584945183
 30
0.0
  0
SPLINE
  5
1B3
330
6C
100
AcDbEntity
  8
Sichtbare Kanten(DIN)
100
AcDbSpline
210
0.0
220
0.0
230
1.0
 70
     8
 71
     3
 72
    10
 73
     6
 74
     0
 42
0.0000000001
 43
0.0000000001
 40
0.0
 40
0.0
 40
0.0
 40
0.0
 40
0.0015313901309452
 40
0.003066487739373
 40
0.004374818392879
 40
0.004374818392879
 40
0.004374818392879
 40
0.004374818392879
 10
150.4017836555551
 20
405.0077196916213
 30
0.0
 10
150.4067094373255
 20
405.009118756423
 30
0.0
 10
150.416572926126
 20
405.0119202731459
 30
0.0
 10
150.4292669887287
 20
405.0194639263676
 30
0.0
 10
150.4363499161048
 20
405.0257698672286
 30
0.0
 10
150.4396089436409
 20
405.0286713843297
 30
0.0
  0
SPLINE
  5
1B4
330
6C
100
AcDbEntity
  8
Sichtbare Kanten(DIN)
100
AcDbSpline
210
0.0
220
0.0
230
1.0
 70
     8
 71
     3
 72
    13
 73
     9
 74
     0
 42
0.0000000001
 43
0.0000000001
 40
0.0
 40
0.0
 40
0.0
 40
0.0
 40
0.0141330863714494
 40
0.0294904350099191
 40
0.0479706055027398
 40
0.0625618731963478
 40
0.0763426695093359
 40
0.0889650430344739
 40
0.0889650430344739
 40
0.0889650430344739
 40
0.0889650430344739
 10
149.5650441348843
 20
405.1615836849482
 30
0.0
 10
149.5987275419104
 20
405.1280985737193
 30
0.0
 10
149.6690121421534
 20
405.0582277422149
 30
0.0
 10
149.8200770143739
 20
404.9958882732027
 30
0.0
 10
149.9806424036694
 20
404.9716654407423
 30
0.0
 10
150.1370980740082
 20
404.9753469474279
 30
0.0
 10
150.2733676929713
 20
404.9866323578029
 30
0.0
 10
150.3602489552888
 20
405.0008992304268
 30
0.0
 10
150.4017836555551
 20
405.0077196916213
 30
0.0
  0
SPLINE
  5
1B5
330
6C
100
AcDbEntity
  8
Sichtbare Kanten(DIN)
100
AcDbSpline
210
0.0
220
0.0
230
1.0
 70
     8
 71
     3
 72
    10
 73
     6
 74
     0
 42
0.0000000001
 43
0.0000000001
 40
0.0
 40
0.0
 40
0.0
 40
0.0
 40
0.0257321364148008
 40
0.0459975558651696
 40
0.0631323921591002
 40
0.0631323921591002
 40
0.0631323921591002
 40
0.0631323921591002
 10
149.4598741202359
 20
405.7662270882683
 30
0.0
 10
149.449310022458
 20
405.6810339328161
 30
0.0
 10
149.4304261385136
 20
405.5287466580996
 30
0.0
 10
149.4644198553799
 20
405.3148646209027
 30
0.0
 10
149.5334281516328
 20
405.2097443031189
 30
0.0
 10
149.5650441348843
 20
405.1615836849482
 30
0.0
  0
SPLINE
  5
1B6
330
6C
100
AcDbEntity
  8
Sichtbare Kanten(DIN)
100
AcDbSpline
210
0.0
220
0.0
230
1.0
 70
     8
 71
     3
 72
    13
 73
     9
 74
     0
 42
0.0000000001
 43
0.0000000001
 40
0.0
 40
0.0
 40
0.0
 40
0.0
 40
0.0126149146707674
 40
0.0254558351656709
 40
0.0436022211516248
 40
0.0815882182461035
 40
0.1224783790911748
 40
0.1679868711023061
 40
0.1679868711023061
 40
0.1679868711023061
 40
0.1679868711023061
 10
150.6023586995005
 20
406.332483997448
 30
0.0
 10
150.5895887512486
 20
406.3737533000592
 30
0.0
 10
150.5638200713757
 20
406.4570312763351
 30
0.0
 10
150.4350916330974
 20
406.5426154503887
 30
0.0
 10
150.2066051256204
 20
406.580503810119
 30
0.0
 10
149.8700415274214
 20
406.5203146370525
 30
0.0
 10
149.5699569404805
 20
406.1957184588753
 30
0.0
 10
149.4978531330536
 20
405.9144033271506
 30
0.0
 10
149.4598741202359
 20
405.7662270882683
 30
0.0
  0
SPLINE
  5
1B7
330
6C
100
AcDbEntity
  8
Sichtbare Kanten(DIN)
100
AcDbSpline
210
0.0
220
0.0
230
1.0
 70
     8
 71
     3
 72
    10
 73
     6
 74
     0
 42
0.0000000001
 43
0.0000000001
 40
0.0
 40
0.0
 40
0.0
 40
0.0
 40
0.0001493678640701
 40
0.0017599685334196
 40
0.0036446683607068
 40
0.0036446683607068
 40
0.0036446683607068
 40
0.0036446683607068
 10
150.6075217952036
 20
406.2964171550001
 30
0.0
 10
150.6073914361541
 20
406.2968978293968
 30
0.0
 10
150.6058554442823
 20
406.3025615095867
 30
0.0
 10
150.6048391515309
 20
406.3147421620751
 30
0.0
 10
150.6032276413651
 20
406.3262687498552
 30
0.0
 10
150.6023586995005
 20
406.332483997448
 30
0.0
  0
SPLINE
  5
1B8
330
6C
100
AcDbEntity
  8
Sichtbare Kanten(DIN)
100
AcDbSpline
210
0.0
220
0.0
230
1.0
 70
     8
 71
     3
 72
    10
 73
     6
 74
     0
 42
0.0000000001
 43
0.0000000001
 40
0.0
 40
0.0
 40
0.0
 40
0.0
 40
0.002047765729652
 40
0.0040061257373829
 40
0.0064275562272811
 40
0.0064275562272811
 40
0.0064275562272811
 40
0.0064275562272811
 10
150.6500799210174
 20
406.255598767956
 30
0.0
 10
150.6431575848169
 20
406.2564572001654
 30
0.0
 10
150.6296151425276
 20
406.2581365853207
 30
0.0
 10
150.613079231694
 20
406.274124447369
 30
0.0
 10
150.609500402602
 20
406.2884803092396
 30
0.0
 10
150.6075217952036
 20
406.2964171550001
 30
0.0
  0
LINE
  5
1B9
330
6C
100
AcDbEntity
  8
Sichtbare Kanten(DIN)
100
AcDbLine
 10
151.1808499006724
 20
406.255598767956
 30
0.0
 11
150.6500799210174
 21
406.255598767956
 31
0.0
  0
SPLINE
  5
1BA
330
6C
100
AcDbEntity
  8
Sichtbare Kanten(DIN)
100
AcDbSpline
210
0.0
220
0.0
230
1.0
 70
     8
 71
     3
 72
    10
 73
     6
 74
     0
 42
0.0000000001
 43
0.0000000001
 40
0.0
 40
0.0
 40
0.0
 40
0.0
 40
0.0031448691298877
 40
0.0055525733140845
 40
0.0078622774006783
 40
0.0078622774006783
 40
0.0078622774006783
 40
0.0078622774006783
 10
151.2315268074107
 20
406.3075477417514
 30
0.0
 10
151.2288063021937
 20
406.2973339411495
 30
0.0
 10
151.2240029847756
 20
406.2793004795598
 30
0.0
 10
151.2045816367518
 20
406.2590047034296
 30
0.0
 10
151.1886501584479
 20
406.2567182467236
 30
0.0
 10
151.1808499006724
 20
406.255598767956
 30
0.0
  0
SPLINE
  5
1BB
330
6C
100
AcDbEntity
  8
Sichtbare Kanten(DIN)
100
AcDbSpline
210
0.0
220
0.0
230
1.0
 70
     8
 71
     3
 72
    10
 73
     6
 74
     0
 42
0.0000000001
 43
0.0000000001
 40
0.0
 40
0.0
 40
0.0
 40
0.0
 40
0.0149600583058825
 40
0.0306900242774319
 40
0.04923021989059
 40
0.04923021989059
 40
0.04923021989059
 40
0.04923021989059
 10
151.1038337231008
 20
406.7684475675979
 30
0.0
 10
151.1343406442896
 20
406.728548493514
 30
0.0
 10
151.1969245014358
 20
406.6466969707962
 30
0.0
 10
151.2407914251522
 20
406.4838832546668
 30
0.0
 10
151.2347793479032
 20
406.3694540623384
 30
0.0
 10
151.2315268074107
 20
406.3075477417514
 30
0.0
  0
SPLINE
  5
1BC
330
6C
100
AcDbEntity
  8
Sichtbare Kanten(DIN)
100
AcDbSpline
210
0.0
220
0.0
230
1.0
 70
     8
 71
     3
 72
    13
 73
     9
 74
     0
 42
0.0000000001
 43
0.0000000001
 40
0.0
 40
0.0
 40
0.0
 40
0.0
 40
0.0229026576484617
 40
0.0432739635693801
 40
0.0645629699844578
 40
0.0801076089824919
 40
0.0932173039948864
 40
0.1051889127042267
 40
0.1051889127042267
 40
0.1051889127042267
 40
0.1051889127042267
 10
153.2411682755101
 20
404.72721019862
 30
0.0
 10
153.1827163954225
 20
404.6773016030754
 30
0.0
 10
153.0722731198734
 20
404.5830006368491
 30
0.0
 10
152.867110636154
 20
404.5058660048496
 30
0.0
 10
152.6751979898916
 20
404.4885979474793
 30
0.0
 10
152.5092513930688
 20
404.5096800041971
 30
0.0
 10
152.380434129089
 20
404.5609083441513
 30
0.0
 10
152.3203070235129
 20
404.6199913533683
 30
0.0
 10
152.2916076309785
 20
404.6481923861199
 30
0.0
  0
SPLINE
  5
1BD
330
6C
100
AcDbEntity
  8
Sichtbare Kanten(DIN)
100
AcDbSpline
210
0.0
220
0.0
230
1.0
 70
    24
 71
     3
 72
    10
 73
     6
 74
     0
 42
0.0000000001
 43
0.0000000001
 40
0.0
 40
0.0
 40
0.0
 40
0.0
 40
0.000445625072251
 40
0.0012732144921481
 40
0.0017188395643828
 40
0.0017188395643828
 40
0.0017188395643828
 40
0.0017188395643828
 10
153.2536270499242
 20
404.739051646374
 30
0.0
 10
153.2525503657156
 20
404.7380283113828
 30
0.0
 10
153.2494741251196
 20
404.7351044971224
 30
0.0
 10
153.2453212003147
 20
404.7311573478713
 30
0.0
 10
153.2422449597186
 20
404.7282335336111
 30
0.0
 10
153.2411682755101
 20
404.72721019862
 30
0.0
  0
SPLINE
  5
1BE
330
6C
100
AcDbEntity
  8
Sichtbare Kanten(DIN)
100
AcDbSpline
210
0.0
220
0.0
230
1.0
 70
    24
 71
     3
 72
    10
 73
     6
 74
     0
 42
0.0000000001
 43
0.0000000001
 40
0.0
 40
0.0
 40
0.0
 40
0.0
 40
0.0004437027607032
 40
0.0012677221734459
 40
0.0017114249341747
 40
0.0017114249341747
 40
0.0017114249341747
 40
0.0017114249341747
 10
153.2520556729711
 20
404.7220096891798
 30
0.0
 10
153.2521914709794
 20
404.7234824509127
 30
0.0
 10
153.2525794652888
 20
404.7276903415778
 30
0.0
 10
153.2531032576061
 20
404.7333709939758
 30
0.0
 10
153.2534912519158
 20
404.7375788846411
 30
0.0
 10
153.2536270499242
 20
404.739051646374
 30
0.0
  0
SPLINE
  5
1BF
330
6C
100
AcDbEntity
  8
Sichtbare Kanten(DIN)
100
AcDbSpline
210
0.0
220
0.0
230
1.0
 70
     8
 71
     3
 72
    10
 73
     6
 74
     0
 42
0.0000000001
 43
0.0000000001
 40
0.0
 40
0.0
 40
0.0
 40
0.0
 40
0.0000978161838524
 40
0.0052407690406007
 40
0.0138474745991061
 40
0.0138474745991061
 40
0.0138474745991061
 40
0.0138474745991061
 10
153.2404948282445
 20
404.5840278272008
 30
0.0
 10
153.2404802675472
 20
404.5843535802478
 30
0.0
 10
153.2397001384446
 20
404.6018066888942
 30
0.0
 10
153.2467902623039
 20
404.6477709207501
 30
0.0
 10
153.2500286063465
 20
404.6934294056574
 30
0.0
 10
153.2520556729711
 20
404.7220096891798
 30
0.0
  0
SPLINE
  5
1C0
330
6C
100
AcDbEntity
  8
Sichtbare Kanten(DIN)
100
AcDbSpline
210
0.0
220
0.0
230
1.0
 70
     8
 71
     3
 72
    10
 73
     6
 74
     0
 42
0.0000000001
 43
0.0000000001
 40
0.0
 40
0.0
 40
0.0
 40
0.0
 40
0.001937478184313
 40
0.0036503024713538
 40
0.0058461245166667
 40
0.0058461245166667
 40
0.0058461245166667
 40
0.0058461245166667
 10
153.2757759822158
 20
404.5455103849808
 30
0.0
 10
153.2691733004961
 20
404.5462584126338
 30
0.0
 10
153.2567335292541
 20
404.5476677328585
 30
0.0
 10
153.2424304212076
 20
404.5633478432709
 30
0.0
 10
153.2411910752289
 20
404.5765890853153
 30
0.0
 10
153.2404948282445
 20
404.5840278272008
 30
0.0
  0
LINE
  5
1C1
330
6C
100
AcDbEntity
  8
Sichtbare Kanten(DIN)
100
AcDbLine
 10
153.7783547110572
 20
404.5455103849808
 30
0.0
 11
153.2757759822158
 21
404.5455103849808
 31
0.0
  0
SPLINE
  5
1C2
330
6C
100
AcDbEntity
  8
Sichtbare Kanten(DIN)
100
AcDbSpline
210
0.0
220
0.0
230
1.0
 70
     8
 71
     3
 72
    10
 73
     6
 74
     0
 42
0.0000000001
 43
0.0000000001
 40
0.0
 40
0.0
 40
0.0
 40
0.0
 40
0.002621898199471
 40
0.0048850710384235
 40
0.0075494481327262
 40
0.0075494481327262
 40
0.0075494481327262
 40
0.0075494481327262
 10
153.8316318725155
 20
404.5896960083531
 30
0.0
 10
153.8292233846816
 20
404.5811271143976
 30
0.0
 10
153.8247359357924
 20
404.5651617135665
 30
0.0
 10
153.8040071887228
 20
404.5479280100061
 30
0.0
 10
153.7873574153319
 20
404.5463588473957
 30
0.0
 10
153.7783547110572
 20
404.5455103849808
 30
0.0
  0
SPLINE
  5
1C3
330
6C
100
AcDbEntity
  8
Sichtbare Kanten(DIN)
100
AcDbSpline
210
0.0
220
0.0
230
1.0
 70
     8
 71
     3
 72
    10
 73
     6
 74
     0
 42
0.0000000001
 43
0.0000000001
 40
0.0
 40
0.0
 40
0.0
 40
0.0
 40
0.0000133877693436
 40
0.0011214026620799
 40
0.0052633669803299
 40
0.0052633669803299
 40
0.0052633669803299
 40
0.0052633669803299
 10
153.8361963484269
 20
404.6421313607295
 30
0.0
 10
153.8361917399732
 20
404.6420869733895
 30
0.0
 10
153.8358057210558
 20
404.6383689468961
 30
0.0
 10
153.8344224222065
 20
404.6208770850001
 30
0.0
 10
153.8328625397583
 20
404.6034472523287
 30
0.0
 10
153.8316318725155
 20
404.5896960083531
 30
0.0
  0
SPLINE
  5
1C4
330
6C
100
AcDbEntity
  8
Sichtbare Kanten(DIN)
100
AcDbSpline
210
0.0
220
0.0
230
1.0
 70
     8
 71
     3
 72
    10
 73
     6
 74
     0
 42
0.0000000001
 43
0.0000000001
 40
0.0
 40
0.0
 40
0.0
 40
0.0
 40
0.0013651074904652
 40
0.0157406004844246
 40
0.0266332792872953
 40
0.0266332792872953
 40
0.0266332792872953
 40
0.0266332792872953
 10
153.8654538907447
 20
404.9068522567254
 30
0.0
 10
153.8649539978693
 20
404.9023294403698
 30
0.0
 10
153.8591898993708
 20
404.8501783491088
 30
0.0
 10
153.8494376179244
 20
404.7619380247287
 30
0.0
 10
153.8401849961823
 20
404.6782205424756
 30
0.0
 10
153.8361963484269
 20
404.6421313607295
 30
0.0
  0
SPLINE
  5
1C5
330
6C
100
AcDbEntity
  8
Sichtbare Kanten(DIN)
100
AcDbSpline
210
0.0
220
0.0
230
1.0
 70
     8
 71
     3
 72
    10
 73
     6
 74
     0
 42
0.0000000001
 43
0.0000000001
 40
0.0
 40
0.0
 40
0.0
 40
0.0
 40
0.0000276844043069
 40
0.0023284350569945
 40
0.006811561276057
 40
0.006811561276057
 40
0.006811561276057
 40
0.006811561276057
 10
153.8761542195207
 20
404.9741221558139
 30
0.0
 10
153.8761393733335
 20
404.9740310765156
 30
0.0
 10
153.8748907142559
 20
404.9663707263471
 30
0.0
 10
153.8713707083797
 20
404.9439398812463
 30
0.0
 10
153.8678081849664
 20
404.9216093754155
 30
0.0
 10
153.8654538907447
 20
404.9068522567254
 30
0.0
  0
SPLINE
  5
1C6
330
6C
100
AcDbEntity
  8
Sichtbare Kanten(DIN)
100
AcDbSpline
210
0.0
220
0.0
230
1.0
 70
     8
 71
     3
 72
    10
 73
     6
 74
     0
 42
0.0000000001
 43
0.0000000001
 40
0.0
 40
0.0
 40
0.0
 40
0.0
 40
0.0232114797897229
 40
0.0868708613137958
 40
0.1248352191515127
 40
0.1248352191515127
 40
0.1248352191515127
 40
0.1248352191515127
 10
154.1033304304582
 20
406.2016294523635
 30
0.0
 10
154.0892521346045
 20
406.1255494552256
 30
0.0
 10
154.0365629610699
 20
405.8408138442272
 30
0.0
 10
153.9608318392395
 20
405.431645803574
 30
0.0
 10
153.8991843454437
 20
405.0985567733155
 30
0.0
 10
153.8761542195207
 20
404.9741221558139
 30
0.0
  0
SPLINE
  5
1C7
330
6C
100
AcDbEntity
  8
Sichtbare Kanten(DIN)
100
AcDbSpline
210
0.0
220
0.0
230
1.0
 70
     8
 71
     3
 72
    10
 73
     6
 74
     0
 42
0.0000000001
 43
0.0000000001
 40
0.0
 40
0.0
 40
0.0
 40
0.0
 40
0.0136948136430338
 40
0.0394152339470988
 40
0.0541152299756576
 40
0.0541152299756576
 40
0.0541152299756576
 40
0.0541152299756576
 10
153.5621781387915
 20
406.2017229867059
 30
0.0
 10
153.6078275168877
 20
406.2017149145177
 30
0.0
 10
153.73921162799
 20
406.2016916818405
 30
0.0
 10
153.9195957250276
 20
406.2016594082719
 30
0.0
 10
154.0543304443471
 20
406.2016374412683
 30
0.0
 10
154.1033304304582
 20
406.2016294523635
 30
0.0
  0
SPLINE
  5
1C8
330
6C
100
AcDbEntity
  8
Sichtbare Kanten(DIN)
100
AcDbSpline
210
0.0
220
0.0
230
1.0
 70
     8
 71
     3
 72
    10
 73
     6
 74
     0
 42
0.0000000001
 43
0.0000000001
 40
0.0
 40
0.0
 40
0.0
 40
0.0
 40
0.0028830672147747
 40
0.0058563601479538
 40
0.0087290673659723
 40
0.0087290673659723
 40
0.0087290673659723
 40
0.0087290673659723
 10
153.4996597842993
 20
406.1493063411981
 30
0.0
 10
153.5028548540303
 20
406.1584870181301
 30
0.0
 10
153.5093449833435
 20
406.1771356816923
 30
0.0
 10
153.5331415640086
 20
406.1970998888083
 30
0.0
 10
153.552610943285
 20
406.2001997326113
 30
0.0
 10
153.5621781387915
 20
406.2017229867059
 30
0.0
  0
SPLINE
  5
1C9
330
6C
100
AcDbEntity
  8
Sichtbare Kanten(DIN)
100
AcDbSpline
210
0.0
220
0.0
230
1.0
 70
     8
 71
     3
 72
    10
 73
     6
 74
     0
 42
0.0000000001
 43
0.0000000001
 40
0.0
 40
0.0
 40
0.0
 40
0.0
 40
0.0003033916010682
 40
0.0329732673994525
 40
0.091433609618394
 40
0.091433609618394
 40
0.091433609618394
 40
0.091433609618394
 10
153.3439438109919
 20
405.2483274341343
 30
0.0
 10
153.3441195490369
 20
405.2493233531483
 30
0.0
 10
153.3632191468077
 20
405.3575620250176
 30
0.0
 10
153.4145231486145
 20
405.6579934753489
 30
0.0
 10
153.4663881871501
 20
405.9573001194904
 30
0.0
 10
153.4996597842993
 20
406.1493063411981
 30
0.0
  0
SPLINE
  5
1CA
330
6C
100
AcDbEntity
  8
Sichtbare Kanten(DIN)
100
AcDbSpline
210
0.0
220
0.0
230
1.0
 70
     8
 71
     3
 72
    13
 73
     9
 74
     0
 42
0.0000000001
 43
0.0000000001
 40
0.0
 40
0.0
 40
0.0
 40
0.0
 40
0.007011922375534
 40
0.0145744932704933
 40
0.0248805847956153
 40
0.0499072791905735
 40
0.0721278514224026
 40
0.0795745374886445
 40
0.0795745374886445
 40
0.0795745374886445
 40
0.0795745374886445
 10
152.8116211612523
 20
405.0225916520706
 30
0.0
 10
152.8194155262746
 20
405.0002741545651
 30
0.0
 10
152.8356163503111
 20
404.9538865592968
 30
0.0
 10
152.9007240621777
 20
404.8958573870907
 30
0.0
 10
153.0455626573581
 20
404.8669811886176
 30
0.0
 10
153.2451001534438
 20
404.9501349017939
 30
0.0
 10
153.3233823838152
 20
405.1266693362861
 30
0.0
 10
153.339818286317
 20
405.2239174804737
 30
0.0
 10
153.3439438109919
 20
405.2483274341343
 30
0.0
  0
SPLINE
  5
1CB
330
6C
100
AcDbEntity
  8
Sichtbare Kanten(DIN)
100
AcDbSpline
210
0.0
220
0.0
230
1.0
 70
     8
 71
     3
 72
    10
 73
     6
 74
     0
 42
0.0000000001
 43
0.0000000001
 40
0.0
 40
0.0
 40
0.0
 40
0.0
 40
0.0005599645648466
 40
0.0060567009795872
 40
0.0151421821733425
 40
0.0151421821733425
 40
0.0151421821733425
 40
0.0151421821733425
 10
152.809395043902
 20
405.1737057357295
 30
0.0
 10
152.8091759568704
 20
405.1718521636202
 30
0.0
 10
152.8068062629259
 20
405.1518035164129
 30
0.0
 10
152.8040850858833
 20
405.101240035225
 30
0.0
 10
152.8087282365277
 20
405.0527829440943
 30
0.0
 10
152.8116211612523
 20
405.0225916520706
 30
0.0
  0
SPLINE
  5
1CC
330
6C
100
AcDbEntity
  8
Sichtbare Kanten(DIN)
100
AcDbSpline
210
0.0
220
0.0
230
1.0
 70
     8
 71
     3
 72
    10
 73
     6
 74
     0
 42
0.0000000001
 43
0.0000000001
 40
0.0
 40
0.0
 40
0.0
 40
0.0
 40
0.0364553241020064
 40
0.086543356765523
 40
0.0992284203541535
 40
0.0992284203541535
 40
0.0992284203541535
 40
0.0992284203541535
 10
152.9783367732315
 20
406.1514950448112
 30
0.0
 10
152.9573954478171
 20
406.0317961226822
 30
0.0
 10
152.9076816504193
 20
405.7476360780952
 30
0.0
 10
152.8495128994175
 20
405.4220145147268
 30
0.0
 10
152.8161391461876
 20
405.2154482412166
 30
0.0
 10
152.809395043902
 20
405.1737057357295
 30
0.0
  0
SPLINE
  5
1CD
330
6C
100
AcDbEntity
  8
Sichtbare Kanten(DIN)
100
AcDbSpline
210
0.0
220
0.0
230
1.0
 70
     8
 71
     3
 72
    10
 73
     6
 74
     0
 42
0.0000000001
 43
0.0000000001
 40
0.0
 40
0.0
 40
0.0
 40
0.0
 40
0.0011963695904978
 40
0.0024277293993698
 40
0.0037682802801585
 40
0.0037682802801585
 40
0.0037682802801585
 40
0.0037682802801585
 10
152.9696567862523
 20
406.1870568018101
 30
0.0
 10
152.9719461418693
 20
406.183762470846
 30
0.0
 10
152.9765918098811
 20
406.1770774596286
 30
0.0
 10
152.9796230163842
 20
406.1645263762428
 30
0.0
 10
152.9787774866699
 20
406.1559600504129
 30
0.0
 10
152.9783367732315
 20
406.1514950448112
 30
0.0
  0
SPLINE
  5
1CE
330
6C
100
AcDbEntity
  8
Sichtbare Kanten(DIN)
100
AcDbSpline
210
0.0
220
0.0
230
1.0
 70
     8
 71
     3
 72
    10
 73
     6
 74
     0
 42
0.0000000001
 43
0.0000000001
 40
0.0
 40
0.0
 40
0.0
 40
0.0
 40
0.0013342302801217
 40
0.0025597299351589
 40
0.0037566332053006
 40
0.0037566332053006
 40
0.0037566332053006
 40
0.0037566332053006
 10
152.9362463191299
 20
406.2017229867058
 30
0.0
 10
152.9406996048076
 20
406.2013897043232
 30
0.0
 10
152.9492432638961
 20
406.2007502997879
 30
0.0
 10
152.9610441734736
 20
406.1956081546254
 30
0.0
 10
152.9668085982729
 20
406.1898847311414
 30
0.0
 10
152.9696567862523
 20
406.1870568018101
 30
0.0
  0
LINE
  5
1CF
330
6C
100
AcDbEntity
  8
Sichtbare Kanten(DIN)
100
AcDbLine
 10
152.4588844490125
 20
406.2017229867059
 30
0.0
 11
152.9362463191299
 21
406.2017229867058
 31
0.0
  0
SPLINE
  5
1D0
330
6C
100
AcDbEntity
  8
Sichtbare Kanten(DIN)
100
AcDbSpline
210
0.0
220
0.0
230
1.0
 70
     8
 71
     3
 72
    10
 73
     6
 74
     0
 42
0.0000000001
 43
0.0000000001
 40
0.0
 40
0.0
 40
0.0
 40
0.0
 40
0.0028822323715622
 40
0.0058561909534102
 40
0.0087413965309754
 40
0.0087413965309754
 40
0.0087413965309754
 40
0.0087413965309754
 10
152.3963473876519
 20
406.1492315137241
 30
0.0
 10
152.399504091161
 20
406.1584254106338
 30
0.0
 10
152.4059179593539
 20
406.1771057975591
 30
0.0
 10
152.4297589340509
 20
406.1971080628036
 30
0.0
 10
152.4492744827434
 20
406.2002002921513
 30
0.0
 10
152.4588844490125
 20
406.2017229867059
 30
0.0
  0
SPLINE
  5
1D1
330
6C
100
AcDbEntity
  8
Sichtbare Kanten(DIN)
100
AcDbSpline
210
0.0
220
0.0
230
1.0
 70
    24
 71
     3
 72
    10
 73
     6
 74
     0
 42
0.0000000001
 43
0.0000000001
 40
0.0
 40
0.0
 40
0.0
 40
0.0
 40
0.0277236344761274
 40
0.0792103842174597
 40
0.1069340186935556
 40
0.1069340186935556
 40
0.1069340186935556
 40
0.1069340186935556
 10
152.2063043106662
 20
405.0969140405796
 30
0.0
 10
152.222727786455
 20
405.1878550567773
 30
0.0
 10
152.2696520029946
 20
405.447686531628
 30
0.0
 10
152.3329996953233
 20
405.7984590226761
 30
0.0
 10
152.379923911863
 20
406.0582904975264
 30
0.0
 10
152.3963473876519
 20
406.1492315137241
 30
0.0
  0
SPLINE
  5
1D2
330
6C
100
AcDbEntity
  8
Sichtbare Kanten(DIN)
100
AcDbSpline
210
0.0
220
0.0
230
1.0
 70
     8
 71
     3
 72
    10
 73
     6
 74
     0
 42
0.0000000001
 43
0.0000000001
 40
0.0
 40
0.0
 40
0.0
 40
0.0
 40
0.0132753393276217
 40
0.0283927478350573
 40
0.0470112911819627
 40
0.0470112911819627
 40
0.0470112911819627
 40
0.0470112911819627
 10
152.2916076309785
 20
404.6481923861199
 30
0.0
 10
152.2668195504612
 20
404.6852854053359
 30
0.0
 10
152.2138038269396
 20
404.764618423879
 30
0.0
 10
152.1855366333994
 20
404.923343899132
 30
0.0
 10
152.198918814962
 20
405.0351882386242
 30
0.0
 10
152.2063043106662
 20
405.0969140405796
 30
0.0
  0
SPLINE
  5
1D3
330
6C
100
AcDbEntity
  8
Sichtbare Kanten(DIN)
100
AcDbSpline
210
0.0
220
0.0
230
1.0
 70
    24
 71
     3
 72
    10
 73
     6
 74
     0
 42
0.0000000001
 43
0.0000000001
 40
0.0
 40
0.0
 40
0.0
 40
0.0
 40
0.0181734283307943
 40
0.0519240809451679
 40
0.0700975092759946
 40
0.0700975092759946
 40
0.0700975092759946
 40
0.0700975092759946
 10
154.5754543773985
 20
406.2015546248895
 30
0.0
 10
154.585985189613
 20
406.2612103666046
 30
0.0
 10
154.6160732245119
 20
406.4316553429341
 30
0.0
 10
154.656692071626
 20
406.6617560609786
 30
0.0
 10
154.686780106525
 20
406.8322010373083
 30
0.0
 10
154.6973109187397
 20
406.8918567790237
 30
0.0
  0
SPLINE
  5
1D4
330
6C
100
AcDbEntity
  8
Sichtbare Kanten(DIN)
100
AcDbSpline
210
0.0
220
0.0
230
1.0
 70
     8
 71
     3
 72
    10
 73
     6
 74
     0
 42
0.0000000001
 43
0.0000000001
 40
0.0
 40
0.0
 40
0.0
 40
0.0
 40
0.0069541430205842
 40
0.0235633077492395
 40
0.0332682957643675
 40
0.0332682957643675
 40
0.0332682957643675
 40
0.0332682957643675
 10
154.2427714281798
 20
406.2016294523635
 30
0.0
 10
154.2659519044164
 20
406.2016246413604
 30
0.0
 10
154.3444962618908
 20
406.2016083398341
 30
0.0
 10
154.4553905780584
 20
406.2015822930105
 30
0.0
 10
154.5431044182074
 20
406.2015620797809
 30
0.0
 10
154.5754543773985
 20
406.2015546248895
 30
0.0
  0
SPLINE
  5
1D5
330
6C
100
AcDbEntity
  8
Sichtbare Kanten(DIN)
100
AcDbSpline
210
0.0
220
0.0
230
1.0
 70
     8
 71
     3
 72
    10
 73
     6
 74
     0
 42
0.0000000001
 43
0.0000000001
 40
0.0
 40
0.0
 40
0.0
 40
0.0
 40
0.0089865303058279
 40
0.0301677392837074
 40
0.0385831811169096
 40
0.0385831811169096
 40
0.0385831811169096
 40
0.0385831811169096
 10
154.1725832576068
 20
405.8222354525263
 30
0.0
 10
154.1780340121518
 20
405.8516904580923
 30
0.0
 10
154.1963321691067
 20
405.9505707709918
 30
0.0
 10
154.2197178918535
 20
406.0770373494573
 30
0.0
 10
154.2376676393456
 20
406.1740461881456
 30
0.0
 10
154.2427714281798
 20
406.2016294523635
 30
0.0
  0
LINE
  5
1D6
330
6C
100
AcDbEntity
  8
Sichtbare Kanten(DIN)
100
AcDbLine
 10
154.5085212019427
 20
405.8222354525263
 30
0.0
 11
154.1725832576068
 21
405.8222354525263
 31
0.0
  0
SPLINE
  5
1D7
330
6C
100
AcDbEntity
  8
Sichtbare Kanten(DIN)
100
AcDbSpline
210
0.0
220
0.0
230
1.0
 70
    24
 71
     3
 72
    10
 73
     6
 74
     0
 42
0.0000000001
 43
0.0000000001
 40
0.0
 40
0.0
 40
0.0
 40
0.0
 40
0.0322906859289818
 40
0.0922591026542162
 40
0.1245497885832192
 40
0.1245497885832192
 40
0.1245497885832192
 40
0.1245497885832192
 10
154.2920079060442
 20
404.5957009131383
 30
0.0
 10
154.3107189316157
 20
404.7016977251841
 30
0.0
 10
154.3641790046772
 20
405.0045457596008
 30
0.0
 10
154.4363501033096
 20
405.4133906060636
 30
0.0
 10
154.4898101763712
 20
405.7162386404803
 30
0.0
 10
154.5085212019427
 20
405.8222354525263
 30
0.0
  0
SPLINE
  5
1D8
330
6C
100
AcDbEntity
  8
Sichtbare Kanten(DIN)
100
AcDbSpline
210
0.0
220
0.0
230
1.0
 70
     8
 71
     3
 72
    10
 73
     6
 74
     0
 42
0.0000000001
 43
0.0000000001
 40
0.0
 40
0.0
 40
0.0
 40
0.0
 40
0.0011976530204214
 40
0.0024246863521626
 40
0.0037634452255886
 40
0.0037634452255886
 40
0.0037634452255886
 40
0.0037634452255886
 10
154.3006130655494
 20
404.5601765698767
 30
0.0
 10
154.2983244642717
 20
404.5634768192333
 30
0.0
 10
154.2936911187292
 20
404.5701582782514
 30
0.0
 10
154.2906833151735
 20
404.5826989969595
 30
0.0
 10
154.2915537417251
 20
404.5912429280063
 30
0.0
 10
154.2920079060442
 20
404.5957009131383
 30
0.0
  0
SPLINE
  5
1D9
330
6C
100
AcDbEntity
  8
Sichtbare Kanten(DIN)
100
AcDbSpline
210
0.0
220
0.0
230
1.0
 70
     8
 71
     3
 72
    10
 73
     6
 74
     0
 42
0.0000000001
 43
0.0000000001
 40
0.0
 40
0.0
 40
0.0
 40
0.0
 40
0.0013335986207283
 40
0.0025607713672859
 40
0.0037563435304863
 40
0.0037563435304863
 40
0.0037563435304863
 40
0.0037563435304863
 10
154.3340235326718
 20
404.5455103849808
 30
0.0
 10
154.3295726235297
 20
404.5458455272449
 30
0.0
 10
154.3210260034955
 20
404.5464890662382
 30
0.0
 10
154.3092262178014
 20
404.5516309410031
 30
0.0
 10
154.3034590419694
 20
404.5573529046776
 30
0.0
 10
154.3006130655494
 20
404.5601765698767
 30
0.0
  0
LINE
  5
1DA
330
6C
100
AcDbEntity
  8
Sichtbare Kanten(DIN)
100
AcDbLine
 10
154.8036033454974
 20
404.5455103849806
 30
0.0
 11
154.3340235326718
 21
404.5455103849808
 31
0.0
  0
SPLINE
  5
1DB
330
6C
100
AcDbEntity
  8
Sichtbare Kanten(DIN)
100
AcDbSpline
210
0.0
220
0.0
230
1.0
 70
     8
 71
     3
 72
    10
 73
     6
 74
     0
 42
0.0000000001
 43
0.0000000001
 40
0.0
 40
0.0
 40
0.0
 40
0.0
 40
0.002884408395733
 40
0.0058603573834223
 40
0.008730722791757
 40
0.008730722791757
 40
0.008730722791757
 40
0.008730722791757
 10
154.8661216999897
 20
404.5979644442254
 30
0.0
 10
154.8629230847055
 20
404.588780704595
 30
0.0
 10
154.8564243417657
 20
404.5701217669666
 30
0.0
 10
154.8326303729354
 20
404.5501465997403
 30
0.0
 10
154.813161821584
 20
404.547037070688
 30
0.0
 10
154.8036033454974
 20
404.5455103849806
 30
0.0
  0
SPLINE
  5
1DC
330
6C
100
AcDbEntity
  8
Sichtbare Kanten(DIN)
100
AcDbSpline
210
0.0
220
0.0
230
1.0
 70
    24
 71
     3
 72
    10
 73
     6
 74
     0
 42
0.0000000001
 43
0.0000000001
 40
0.0
 40
0.0
 40
0.0
 40
0.0
 40
0.0322305347736034
 40
0.0920872422103211
 40
0.1243177769839368
 40
0.1243177769839368
 40
0.1243177769839368
 40
0.1243177769839368
 10
155.0821112035705
 20
405.8222354525263
 30
0.0
 10
155.0634454440019
 20
405.7164342542781
 30
0.0
 10
155.0101147023771
 20
405.4141451164261
 30
0.0
 10
154.9381182011833
 20
405.0060547803258
 30
0.0
 10
154.8847874595584
 20
404.7037656424737
 30
0.0
 10
154.8661216999897
 20
404.5979644442254
 30
0.0
  0
SPLINE
  5
1DD
330
6C
100
AcDbEntity
  8
Sichtbare Kanten(DIN)
100
AcDbSpline
210
0.0
220
0.0
230
1.0
 70
     8
 71
     3
 72
    10
 73
     6
 74
     0
 42
0.0000000001
 43
0.0000000001
 40
0.0
 40
0.0
 40
0.0
 40
0.0
 40
0.0070255321541167
 40
0.0240955647597703
 40
0.0341175880348639
 40
0.0341175880348639
 40
0.0341175880348639
 40
0.0341175880348639
 10
155.4232870710835
 20
405.8223289868687
 30
0.0
 10
155.3998686313206
 20
405.822323053835
 30
0.0
 10
155.3195500846961
 20
405.8223027052269
 30
0.0
 10
155.2058247958816
 20
405.8222701745147
 30
0.0
 10
155.1155179465044
 20
405.8222448286064
 30
0.0
 10
155.0821112035705
 20
405.8222354525263
 30
0.0
  0
SPLINE
  5
1DE
330
6C
100
AcDbEntity
  8
Sichtbare Kanten(DIN)
100
AcDbSpline
210
0.0
220
0.0
230
1.0
 70
     8
 71
     3
 72
    10
 73
     6
 74
     0
 42
0.0000000001
 43
0.0000000001
 40
0.0
 40
0.0
 40
0.0
 40
0.0
 40
0.0080931847187841
 40
0.0290081092340634
 40
0.0385526703223027
 40
0.0385526703223027
 40
0.0385526703223027
 40
0.0385526703223027
 10
155.4932133454977
 20
406.2014610905471
 30
0.0
 10
155.4883282335665
 20
406.1749297985516
 30
0.0
 10
155.4708187035798
 20
406.0798346483647
 30
0.0
 10
155.4474927935727
 20
405.9534604395532
 30
0.0
 10
155.4290623117426
 20
405.8536156257025
 30
0.0
 10
155.4232870710835
 20
405.8223289868687
 30
0.0
  0
SPLINE
  5
1DF
330
6C
100
AcDbEntity
  8
Sichtbare Kanten(DIN)
100
AcDbSpline
210
0.0
220
0.0
230
1.0
 70
     8
 71
     3
 72
    10
 73
     6
 74
     0
 42
0.0000000001
 43
0.0000000001
 40
0.0
 40
0.0
 40
0.0
 40
0.0
 40
0.0085944900037739
 40
0.0248371795447298
 40
0.0344168979205083
 40
0.0344168979205083
 40
0.0344168979205083
 40
0.0344168979205083
 10
155.1490443790262
 20
406.2015546248895
 30
0.0
 10
155.177692677902
 20
406.2015465565843
 30
0.0
 10
155.2604832730992
 20
406.2015232400238
 30
0.0
 10
155.3752062614916
 20
406.2014904126177
 30
0.0
 10
155.4612809518956
 20
406.2014690250189
 30
0.0
 10
155.4932133454977
 20
406.2014610905471
 30
0.0
  0
SPLINE
  5
1E0
330
6C
100
AcDbEntity
  8
Sichtbare Kanten(DIN)
100
AcDbSpline
210
0.0
220
0.0
230
1.0
 70
    24
 71
     3
 72
    10
 73
     6
 74
     0
 42
0.0000000001
 43
0.0000000001
 40
0.0
 40
0.0
 40
0.0
 40
0.0
 40
0.0182326247372785
 40
0.0520932135351027
 40
0.0703258382723975
 40
0.0703258382723975
 40
0.0703258382723975
 40
0.0703258382723975
 10
155.2714247126852
 20
406.8940828963738
 30
0.0
 10
155.2608486344678
 20
406.8342347741467
 30
0.0
 10
155.2306312681325
 20
406.6632401392125
 30
0.0
 10
155.1898378235802
 20
406.4323973820508
 30
0.0
 10
155.1596204572439
 20
406.2614027471164
 30
0.0
 10
155.1490443790262
 20
406.2015546248895
 30
0.0
  0
SPLINE
  5
1E1
330
6C
100
AcDbEntity
  8
Sichtbare Kanten(DIN)
100
AcDbSpline
210
0.0
220
0.0
230
1.0
 70
     8
 71
     3
 72
    13
 73
     9
 74
     0
 42
0.0000000001
 43
0.0000000001
 40
0.0
 40
0.0
 40
0.0
 40
0.0
 40
0.0009153978121011
 40
0.0018355697936
 40
0.0028013554832516
 40
0.0031524452850542
 40
0.0034554778335267
 40
0.0037685661646167
 40
0.0037685661646167
 40
0.0037685661646167
 40
0.0037685661646167
 10
155.2628195531798
 20
406.9296072396356
 30
0.0
 10
155.264622937401
 20
406.9271281901519
 30
0.0
 10
155.268239111221
 20
406.9221571619404
 30
0.0
 10
155.2713330438267
 20
406.9132152936835
 30
0.0
 10
155.2722548742576
 20
406.9057655093648
 30
0.0
 10
155.2721396615437
 20
406.9003632117981
 30
0.0
 10
155.2718804553216
 20
406.8971472877775
 30
0.0
 10
155.2715782708934
 20
406.895115414325
 30
0.0
 10
155.2714247126852
 20
406.8940828963738
 30
0.0
  0
SPLINE
  5
1E2
330
6C
100
AcDbEntity
  8
Sichtbare Kanten(DIN)
100
AcDbSpline
210
0.0
220
0.0
230
1.0
 70
     8
 71
     3
 72
    10
 73
     6
 74
     0
 42
0.0000000001
 43
0.0000000001
 40
0.0
 40
0.0
 40
0.0
 40
0.0
 40
0.0013465252378671
 40
0.002579366054444
 40
0.0037763129624145
 40
0.0037763129624145
 40
0.0037763129624145
 40
0.0037763129624145
 10
155.2292220173726
 20
406.9443108382682
 30
0.0
 10
155.2337158687856
 20
406.9439762292726
 30
0.0
 10
155.2423241647629
 20
406.9433352616466
 30
0.0
 10
155.2541996602135
 20
406.9381893302503
 30
0.0
 10
155.2599746926432
 20
406.9324396240988
 30
0.0
 10
155.2628195531798
 20
406.9296072396356
 30
0.0
  0
LINE
  5
1E3
330
6C
100
AcDbEntity
  8
Sichtbare Kanten(DIN)
100
AcDbLine
 10
154.7598292732319
 20
406.9443108382682
 30
0.0
 11
155.2292220173726
 21
406.9443108382682
 31
0.0
  0
SPLINE
  5
1E4
330
6C
100
AcDbEntity
  8
Sichtbare Kanten(DIN)
100
AcDbSpline
210
0.0
220
0.0
230
1.0
 70
     8
 71
     3
 72
    10
 73
     6
 74
     0
 42
0.0000000001
 43
0.0000000001
 40
0.0
 40
0.0
 40
0.0
 40
0.0
 40
0.0028803210317032
 40
0.0058519686951348
 40
0.0087369137882425
 40
0.0087369137882425
 40
0.0087369137882425
 40
0.0087369137882425
 10
154.6973109187397
 20
406.8918567790237
 30
0.0
 10
154.7004699903566
 20
406.9010425048888
 30
0.0
 10
154.7068882985954
 20
406.9197052093632
 30
0.0
 10
154.7307112180198
 20
406.9397010608945
 30
0.0
 10
154.7502195235574
 20
406.9427894864372
 30
0.0
 10
154.7598292732319
 20
406.9443108382682
 30
0.0
  0
SPLINE
  5
1E5
330
6C
100
AcDbEntity
  8
Sichtbare Kanten(DIN)
100
AcDbSpline
210
0.0
220
0.0
230
1.0
 70
     8
 71
     3
 72
    10
 73
     6
 74
     0
 42
0.0000000001
 43
0.0000000001
 40
0.0
 40
0.0
 40
0.0
 40
0.0
 40
0.0252654322997131
 40
0.0957656423607572
 40
0.1376601168577756
 40
0.1376601168577756
 40
0.1376601168577756
 40
0.1376601168577756
 10
155.6360215795471
 20
406.2011243669143
 30
0.0
 10
155.7202396795829
 20
406.2011602171357
 30
0.0
 10
156.0394584585319
 20
406.2012961031733
 30
0.0
 10
156.4983254702935
 20
406.2014980664033
 30
0.0
 10
156.8729743829908
 20
406.2016619136016
 30
0.0
 10
157.0126226179589
 20
406.2017229867058
 30
0.0
  0
SPLINE
  5
1E6
330
6C
100
AcDbEntity
  8
Sichtbare Kanten(DIN)
100
AcDbSpline
210
0.0
220
0.0
230
1.0
 70
     8
 71
     3
 72
    10
 73
     6
 74
     0
 42
0.0000000001
 43
0.0000000001
 40
0.0
 40
0.0
 40
0.0
 40
0.0
 40
0.0094349795884223
 40
0.0310155613435572
 40
0.0385705843723002
 40
0.0385705843723002
 40
0.0385705843723002
 40
0.0385705843723002
 10
155.5660204776591
 20
405.8218239014195
 30
0.0
 10
155.5717269308094
 20
405.8527517952038
 30
0.0
 10
155.5904857257892
 20
405.9544209061868
 30
0.0
 10
155.6138405005611
 20
406.0808505057233
 30
0.0
 10
155.6314542398058
 20
406.1763585930577
 30
0.0
 10
155.6360215795471
 20
406.2011243669143
 30
0.0
  0
SPLINE
  5
1E7
330
6C
100
AcDbEntity
  8
Sichtbare Kanten(DIN)
100
AcDbSpline
210
0.0
220
0.0
230
1.0
 70
     8
 71
     3
 72
    10
 73
     6
 74
     0
 42
0.0000000001
 43
0.0000000001
 40
0.0
 40
0.0
 40
0.0
 40
0.0
 40
0.0205201904550196
 40
0.0589191614668962
 40
0.0804545125807215
 40
0.0804545125807215
 40
0.0804545125807215
 40
0.0804545125807215
 10
156.3705654776593
 20
405.8222728662633
 30
0.0
 10
156.3021648523827
 20
405.8222367065883
 30
0.0
 10
156.1057676749811
 20
405.8221328821266
 30
0.0
 10
155.8375860010397
 20
405.8219955546863
 30
0.0
 10
155.6378049670754
 20
405.8218692755228
 30
0.0
 10
155.5660204776591
 20
405.8218239014195
 30
0.0
  0
SPLINE
  5
1E8
330
6C
100
AcDbEntity
  8
Sichtbare Kanten(DIN)
100
AcDbSpline
210
0.0
220
0.0
230
1.0
 70
     8
 71
     3
 72
    10
 73
     6
 74
     0
 42
0.0000000001
 43
0.0000000001
 40
0.0
 40
0.0
 40
0.0
 40
0.0
 40
0.000227595214391
 40
0.0269132959685959
 40
0.119668433366708
 40
0.119668433366708
 40
0.119668433366708
 40
0.119668433366708
 10
155.4635442520731
 20
405.0416539510615
 30
0.0
 10
155.4641192421297
 20
405.0421488625098
 30
0.0
 10
155.5321122252508
 20
405.100672493261
 30
0.0
 10
155.8344594022536
 20
405.3608709343388
 30
0.0
 10
156.1362227077023
 20
405.6205847829694
 30
0.0
 10
156.3705654776593
 20
405.8222728662633
 30
0.0
  0
SPLINE
  5
1E9
330
6C
100
AcDbEntity
  8
Sichtbare Kanten(DIN)
100
AcDbSpline
210
0.0
220
0.0
230
1.0
 70
     8
 71
     3
 72
    10
 73
     6
 74
     0
 42
0.0000000001
 43
0.0000000001
 40
0.0
 40
0.0
 40
0.0
 40
0.0
 40
0.0054675832229401
 40
0.0103154944328541
 40
0.0116913853705737
 40
0.0116913853705737
 40
0.0116913853705737
 40
0.0116913853705737
 10
155.3799619636617
 20
404.9601107113153
 30
0.0
 10
155.3920719799656
 20
404.9737503388996
 30
0.0
 10
155.4149195161934
 20
404.9994837382236
 30
0.0
 10
155.4440566054344
 20
405.0254728699512
 30
0.0
 10
155.4600160995403
 20
405.0387244376439
 30
0.0
 10
155.4635442520731
 20
405.0416539510615
 30
0.0
  0
SPLINE
  5
1EA
330
6C
100
AcDbEntity
  8
Sichtbare Kanten(DIN)
100
AcDbSpline
210
0.0
220
0.0
230
1.0
 70
     8
 71
     3
 72
    10
 73
     6
 74
     0
 42
0.0000000001
 43
0.0000000001
 40
0.0
 40
0.0
 40
0.0
 40
0.0
 40
0.0010828037756266
 40
0.0051618292639181
 40
0.0124807175523065
 40
0.0124807175523065
 40
0.0124807175523065
 40
0.0124807175523065
 10
155.3248515290915
 20
404.8492351017776
 30
0.0
 10
155.3255263233537
 20
404.8527817109766
 30
0.0
 10
155.3287431322054
 20
404.8696887365736
 30
0.0
 10
155.3438395138695
 20
404.9089787126605
 30
0.0
 10
155.3658368917711
 20
404.9401164096812
 30
0.0
 10
155.3799619636617
 20
404.9601107113153
 30
0.0
  0
SPLINE
  5
1EB
330
6C
100
AcDbEntity
  8
Sichtbare Kanten(DIN)
100
AcDbSpline
210
0.0
220
0.0
230
1.0
 70
     8
 71
     3
 72
    10
 73
     6
 74
     0
 42
0.0000000001
 43
0.0000000001
 40
0.0
 40
0.0
 40
0.0
 40
0.0
 40
0.000165861301487
 40
0.0110630104919147
 40
0.0255781303280148
 40
0.0255781303280148
 40
0.0255781303280148
 40
0.0255781303280148
 10
155.2781217716043
 20
404.5977586686722
 30
0.0
 10
155.2782250148432
 20
404.5983018143438
 30
0.0
 10
155.2851113772687
 20
404.6345298326362
 30
0.0
 10
155.3004872851376
 20
404.718393088587
 30
0.0
 10
155.3159942025599
 20
404.801669068657
 30
0.0
 10
155.3248515290915
 20
404.8492351017776
 30
0.0
  0
SPLINE
  5
1EC
330
6C
100
AcDbEntity
  8
Sichtbare Kanten(DIN)
100
AcDbSpline
210
0.0
220
0.0
230
1.0
 70
     8
 71
     3
 72
    10
 73
     6
 74
     0
 42
0.0000000001
 43
0.0000000001
 40
0.0
 40
0.0
 40
0.0
 40
0.0
 40
0.0002977292952452
 40
0.0005190836882035
 40
0.0006010848843524
 40
0.0006010848843524
 40
0.0006010848843524
 40
0.0006010848843524
 10
155.2777102204975
 20
404.5917911776239
 30
0.0
 10
155.2776467671601
 20
404.5927839212506
 30
0.0
 10
155.2775361378301
 20
404.5945147452957
 30
0.0
 10
155.2778116392604
 20
404.5965123037831
 30
0.0
 10
155.2780557776368
 20
404.5974934510462
 30
0.0
 10
155.2781217716043
 20
404.5977586686722
 30
0.0
  0
SPLINE
  5
1ED
330
6C
100
AcDbEntity
  8
Sichtbare Kanten(DIN)
100
AcDbSpline
210
0.0
220
0.0
230
1.0
 70
     8
 71
     3
 72
    10
 73
     6
 74
     0
 42
0.0000000001
 43
0.0000000001
 40
0.0
 40
0.0
 40
0.0
 40
0.0
 40
0.0011286606721423
 40
0.0022940769505922
 40
0.0035590350523297
 40
0.0035590350523297
 40
0.0035590350523297
 40
0.0035590350523297
 10
155.2879241706929
 20
404.558661313529
 30
0.0
 10
155.2856358795426
 20
404.5616733920246
 30
0.0
 10
155.2809847774763
 20
404.567795639411
 30
0.0
 10
155.277439442993
 20
404.5794324642779
 30
0.0
 10
155.2776175300022
 20
404.5875606368943
 30
0.0
 10
155.2777102204975
 20
404.5917911776239
 30
0.0
  0
SPLINE
  5
1EE
330
6C
100
AcDbEntity
  8
Sichtbare Kanten(DIN)
100
AcDbSpline
210
0.0
220
0.0
230
1.0
 70
     8
 71
     3
 72
    10
 73
     6
 74
     0
 42
0.0000000001
 43
0.0000000001
 40
0.0
 40
0.0
 40
0.0
 40
0.0
 40
0.0012501309451573
 40
0.0024010038050724
 40
0.0035125844605094
 40
0.0035125844605094
 40
0.0035125844605094
 40
0.0035125844605094
 10
155.3195013647033
 20
404.5455103849808
 30
0.0
 10
155.3153301352951
 20
404.5458118247878
 30
0.0
 10
155.3073188643803
 20
404.5463907706386
 30
0.0
 10
155.296217913319
 20
404.5509736152951
 30
0.0
 10
155.2906565567322
 20
404.5561285897303
 30
0.0
 10
155.2879241706929
 20
404.558661313529
 30
0.0
  0
LINE
  5
1EF
330
6C
100
AcDbEntity
  8
Sichtbare Kanten(DIN)
100
AcDbLine
 10
156.6785179467349
 20
404.5455103849806
 30
0.0
 11
155.3195013647033
 21
404.5455103849808
 31
0.0
  0
SPLINE
  5
1F0
330
6C
100
AcDbEntity
  8
Sichtbare Kanten(DIN)
100
AcDbSpline
210
0.0
220
0.0
230
1.0
 70
     8
 71
     3
 72
    10
 73
     6
 74
     0
 42
0.0000000001
 43
0.0000000001
 40
0.0
 40
0.0
 40
0.0
 40
0.0
 40
0.0057504749587655
 40
0.0123008629642526
 40
0.0210879509398231
 40
0.0210879509398231
 40
0.0210879509398231
 40
0.0210879509398231
 10
156.8490497598859
 20
404.6442452368688
 30
0.0
 10
156.8411938402909
 20
404.6263032419185
 30
0.0
 10
156.8243892126575
 20
404.5879234519408
 30
0.0
 10
156.7590069933438
 20
404.5513672496356
 30
0.0
 10
156.7078351329395
 20
404.5476436788748
 30
0.0
 10
156.6785179467349
 20
404.5455103849806
 30
0.0
  0
SPLINE
  5
1F1
330
6C
100
AcDbEntity
  8
Sichtbare Kanten(DIN)
100
AcDbSpline
210
0.0
220
0.0
230
1.0
 70
     8
 71
     3
 72
    10
 73
     6
 74
     0
 42
0.0000000001
 43
0.0000000001
 40
0.0
 40
0.0
 40
0.0
 40
0.0
 40
0.0000230670853742
 40
0.0001617868674109
 40
0.0267802765649739
 40
0.0267802765649739
 40
0.0267802765649739
 40
0.0267802765649739
 10
156.8945074503156
 20
404.9081617375198
 30
0.0
 10
156.8944945606037
 20
404.9080859353283
 30
0.0
 10
156.8944041553317
 20
404.9075542773886
 30
0.0
 10
156.8792399356551
 20
404.8195840551144
 30
0.0
 10
156.8641056166723
 20
404.7316867992091
 30
0.0
 10
156.8490497598859
 20
404.6442452368688
 30
0.0
  0
SPLINE
  5
1F2
330
6C
100
AcDbEntity
  8
Sichtbare Kanten(DIN)
100
AcDbSpline
210
0.0
220
0.0
230
1.0
 70
     8
 71
     3
 72
    10
 73
     6
 74
     0
 42
0.0000000001
 43
0.0000000001
 40
0.0
 40
0.0
 40
0.0
 40
0.0
 40
0.0011946223348497
 40
0.0024222120206529
 40
0.003763733280748
 40
0.003763733280748
 40
0.003763733280748
 40
0.003763733280748
 10
156.8859022908105
 20
404.9436860807816
 30
0.0
 10
156.8881891668934
 20
404.9403967150482
 30
0.0
 10
156.8928260287501
 20
404.9337272087218
 30
0.0
 10
156.8958316487226
 20
404.9211835890633
 30
0.0
 10
156.8949617094283
 20
404.9126288133712
 30
0.0
 10
156.8945074503156
 20
404.9081617375198
 30
0.0
  0
SPLINE
  5
1F3
330
6C
100
AcDbEntity
  8
Sichtbare Kanten(DIN)
100
AcDbSpline
210
0.0
220
0.0
230
1.0
 70
     8
 71
     3
 72
    10
 73
     6
 74
     0
 42
0.0000000001
 43
0.0000000001
 40
0.0
 40
0.0
 40
0.0
 40
0.0
 40
0.0013419134339858
 40
0.0025693141130201
 40
0.0037660789080789
 40
0.0037660789080789
 40
0.0037660789080789
 40
0.0037660789080789
 10
156.8523795824771
 20
404.9583335588089
 30
0.0
 10
156.8568586551363
 20
404.9580010842606
 30
0.0
 10
156.8654345768798
 20
404.9573645070215
 30
0.0
 10
156.877270678483
 20
404.9522258401522
 30
0.0
 10
156.883049430084
 20
404.9465085829048
 30
0.0
 10
156.8859022908105
 20
404.9436860807816
 30
0.0
  0
LINE
  5
1F4
330
6C
100
AcDbEntity
  8
Sichtbare Kanten(DIN)
100
AcDbLine
 10
156.0403518350811
 20
404.9583335588089
 30
0.0
 11
156.8523795824771
 21
404.9583335588089
 31
0.0
  0
SPLINE
  5
1F5
330
6C
100
AcDbEntity
  8
Sichtbare Kanten(DIN)
100
AcDbSpline
210
0.0
220
0.0
230
1.0
 70
     8
 71
     3
 72
    10
 73
     6
 74
     0
 42
0.0000000001
 43
0.0000000001
 40
0.0
 40
0.0
 40
0.0
 40
0.0
 40
0.0001524481033975
 40
0.0078441775005177
 40
0.1133354817741845
 40
0.1133354817741845
 40
0.1133354817741845
 40
0.1133354817741845
 10
156.8821983308496
 20
405.7171402653517
 30
0.0
 10
156.8818205274058
 20
405.7168004249541
 30
0.0
 10
156.8623807494903
 20
405.6993140257039
 30
0.0
 10
156.5818604181741
 20
405.4462727300196
 30
0.0
 10
156.3015825183101
 20
405.1937216709261
 30
0.0
 10
156.0403518350811
 20
404.9583335588089
 30
0.0
  0
SPLINE
  5
1F6
330
6C
100
AcDbEntity
  8
Sichtbare Kanten(DIN)
100
AcDbSpline
210
0.0
220
0.0
230
1.0
 70
     8
 71
     3
 72
    10
 73
     6
 74
     0
 42
0.0000000001
 43
0.0000000001
 40
0.0
 40
0.0
 40
0.0
 40
0.0
 40
0.0058095501940466
 40
0.013282127799746
 40
0.0163935577086522
 40
0.0163935577086522
 40
0.0163935577086522
 40
0.0163935577086522
 10
156.9907355818261
 20
405.8389032723504
 30
0.0
 10
156.9804114279619
 20
405.8224437550618
 30
0.0
 10
156.9568077535862
 20
405.7848130599401
 30
0.0
 10
156.9165888706131
 20
405.7470996721236
 30
0.0
 10
156.890011425875
 20
405.7239466630885
 30
0.0
 10
156.8821983308496
 20
405.7171402653517
 30
0.0
  0
SPLINE
  5
1F7
330
6C
100
AcDbEntity
  8
Sichtbare Kanten(DIN)
100
AcDbSpline
210
0.0
220
0.0
230
1.0
 70
     8
 71
     3
 72
    10
 73
     6
 74
     0
 42
0.0000000001
 43
0.0000000001
 40
0.0
 40
0.0
 40
0.0
 40
0.0
 40
0.0002284761255046
 40
0.002237644999733
 40
0.0072479849988259
 40
0.0072479849988259
 40
0.0072479849988259
 40
0.0072479849988259
 10
157.0132212377506
 20
405.9076884277867
 30
0.0
 10
157.0130959553114
 20
405.9069371832373
 30
0.0
 10
157.0118689666145
 20
405.8995796590957
 30
0.0
 10
157.005687225024
 20
405.8761500253111
 30
0.0
 10
156.9969628268031
 20
405.8544162599345
 30
0.0
 10
156.9907355818261
 20
405.8389032723504
 30
0.0
  0
SPLINE
  5
1F8
330
6C
100
AcDbEntity
  8
Sichtbare Kanten(DIN)
100
AcDbSpline
210
0.0
220
0.0
230
1.0
 70
    24
 71
     3
 72
    10
 73
     6
 74
     0
 42
0.0000000001
 43
0.0000000001
 40
0.0
 40
0.0
 40
0.0
 40
0.0
 40
0.0064119561058975
 40
0.0183198745882612
 40
0.0247318306941419
 40
0.0247318306941419
 40
0.0247318306941419
 40
0.0247318306941419
 10
157.0547504857975
 20
406.1514950448112
 30
0.0
 10
157.0511615384354
 20
406.1304253371671
 30
0.0
 10
157.0409074031154
 20
406.0702261724697
 30
0.0
 10
157.027064320433
 20
405.9889573001282
 30
0.0
 10
157.0168101851127
 20
405.9287581354306
 30
0.0
 10
157.0132212377506
 20
405.9076884277867
 30
0.0
  0
SPLINE
  5
1F9
330
6C
100
AcDbEntity
  8
Sichtbare Kanten(DIN)
100
AcDbSpline
210
0.0
220
0.0
230
1.0
 70
     8
 71
     3
 72
    10
 73
     6
 74
     0
 42
0.0000000001
 43
0.0000000001
 40
0.0
 40
0.0
 40
0.0
 40
0.0
 40
0.0011917736229571
 40
0.0024172950002037
 40
0.0037576555674698
 40
0.0037576555674698
 40
0.0037576555674698
 40
0.0037576555674698
 10
157.0462201537663
 20
406.1869819743361
 30
0.0
 10
157.0484939769396
 20
406.1836951732275
 30
0.0
 10
157.0531060117106
 20
406.1770284978341
 30
0.0
 10
157.0560815037802
 20
406.1645007403059
 30
0.0
 10
157.0552072019417
 20
406.1559577276423
 30
0.0
 10
157.0547504857975
 20
406.1514950448112
 30
0.0
  0
SPLINE
  5
1FA
330
6C
100
AcDbEntity
  8
Sichtbare Kanten(DIN)
100
AcDbSpline
210
0.0
220
0.0
230
1.0
 70
     8
 71
     3
 72
    10
 73
     6
 74
     0
 42
0.0000000001
 43
0.0000000001
 40
0.0
 40
0.0
 40
0.0
 40
0.0
 40
0.0013485889265994
 40
0.0025802332752695
 40
0.003778716377513
 40
0.003778716377513
 40
0.003778716377513
 40
0.003778716377513
 10
157.0126226179589
 20
406.2017229867058
 30
0.0
 10
157.0171236926919
 20
406.201389262721
 30
0.0
 10
157.0257355258247
 20
406.2007507540446
 30
0.0
 10
157.0376150986439
 20
406.1955888527179
 30
0.0
 10
157.0433780154307
 20
406.1898247148707
 30
0.0
 10
157.0462201537663
 20
406.1869819743361
 30
0.0
  0
SPLINE
  5
1FB
330
6C
100
AcDbEntity
  8
Sichtbare Kanten(DIN)
100
AcDbSpline
210
0.0
220
0.0
230
1.0
 70
     8
 71
     3
 72
    10
 73
     6
 74
     0
 42
0.0000000001
 43
0.0000000001
 40
0.0
 40
0.0
 40
0.0
 40
0.0
 40
0.0013399459018975
 40
0.0025686710072605
 40
0.0037651661134934
 40
0.0037651661134934
 40
0.0037651661134934
 40
0.0037651661134934
 10
151.2964209342011
 20
404.5455103849808
 30
0.0
 10
151.2919485027609
 20
404.5458465242758
 30
0.0
 10
151.2833748693356
 20
404.5464909019783
 30
0.0
 10
151.2715520097729
 20
404.5516558919843
 30
0.0
 10
151.2657822036869
 20
404.5573866728354
 30
0.0
 10
151.2629356396047
 20
404.5602139836137
 30
0.0
  0
LINE
  5
1FC
330
6C
100
AcDbEntity
  8
Sichtbare Kanten(DIN)
100
AcDbLine
 10
151.7658510920788
 20
404.5455103849806
 30
0.0
 11
151.2964209342011
 21
404.5455103849808
 31
0.0
  0
SPLINE
  5
1FD
330
6C
100
AcDbEntity
  8
Sichtbare Kanten(DIN)
100
AcDbSpline
210
0.0
220
0.0
230
1.0
 70
     8
 71
     3
 72
    10
 73
     6
 74
     0
 42
0.0000000001
 43
0.0000000001
 40
0.0
 40
0.0
 40
0.0
 40
0.0
 40
0.0028807590428643
 40
0.0058547115525468
 40
0.0087324469895122
 40
0.0087324469895122
 40
0.0087324469895122
 40
0.0087324469895122
 10
151.8283507397026
 20
404.5979644442254
 30
0.0
 10
151.8251765255683
 20
404.5887838307333
 30
0.0
 10
151.8187254104678
 20
404.5701256079966
 30
0.0
 10
151.7949240716384
 20
404.5501374388417
 30
0.0
 10
151.7754352696196
 20
404.5470357362301
 30
0.0
 10
151.7658510920788
 20
404.5455103849806
 30
0.0
  0
SPLINE
  5
1FE
330
6C
100
AcDbEntity
  8
Sichtbare Kanten(DIN)
100
AcDbSpline
210
0.0
220
0.0
230
1.0
 70
    24
 71
     3
 72
    10
 73
     6
 74
     0
 42
0.0000000001
 43
0.0000000001
 40
0.0
 40
0.0
 40
0.0
 40
0.0
 40
0.0604489515376169
 40
0.1727112901073986
 40
0.233160241644971
 40
0.233160241644971
 40
0.233160241644971
 40
0.233160241644971
 10
152.2335789249241
 20
406.8940828963738
 30
0.0
 10
152.1985592052135
 20
406.6956529066819
 30
0.0
 10
152.0985028631832
 20
406.1287100789909
 30
0.0
 10
151.9634268014427
 20
405.3633372616081
 30
0.0
 10
151.863370459413
 20
404.7963944339174
 30
0.0
 10
151.8283507397026
 20
404.5979644442254
 30
0.0
  0
SPLINE
  5
1FF
330
6C
100
AcDbEntity
  8
Sichtbare Kanten(DIN)
100
AcDbSpline
210
0.0
220
0.0
230
1.0
 70
     8
 71
     3
 72
    10
 73
     6
 74
     0
 42
0.0000000001
 43
0.0000000001
 40
0.0
 40
0.0
 40
0.0
 40
0.0
 40
0.0012007305691038
 40
0.0024313463641171
 40
0.003774918447834
 40
0.003774918447834
 40
0.003774918447834
 40
0.003774918447834
 10
152.2248802310764
 20
406.929700773978
 30
0.0
 10
152.2271819096182
 20
406.9263967146778
 30
0.0
 10
152.2318425536447
 20
406.9197063606774
 30
0.0
 10
152.2348734703118
 20
406.9071311820179
 30
0.0
 10
152.2340228814351
 20
406.8985577270169
 30
0.0
 10
152.2335789249241
 20
406.8940828963738
 30
0.0
  0
SPLINE
  5
200
330
6C
100
AcDbEntity
  8
Sichtbare Kanten(DIN)
100
AcDbSpline
210
0.0
220
0.0
230
1.0
 70
     8
 71
     3
 72
    10
 73
     6
 74
     0
 42
0.0000000001
 43
0.0000000001
 40
0.0
 40
0.0
 40
0.0
 40
0.0
 40
0.0013378495582371
 40
0.0025628632467764
 40
0.0037540210969504
 40
0.0037540210969504
 40
0.0037540210969504
 40
0.0037540210969504
 10
152.1914697639539
 20
406.9443108382682
 30
0.0
 10
152.1959350022692
 20
406.9439776301641
 30
0.0
 10
152.2044888752335
 20
406.9433393171354
 30
0.0
 10
152.2162871875169
 20
406.9382149151163
 30
0.0
 10
152.2220427659632
 20
406.9325121851249
 30
0.0
 10
152.2248802310764
 20
406.929700773978
 30
0.0
  0
LINE
  5
201
330
6C
100
AcDbEntity
  8
Sichtbare Kanten(DIN)
100
AcDbLine
 10
151.7220957266817
 20
406.9443108382682
 30
0.0
 11
152.1914697639539
 21
406.9443108382682
 31
0.0
  0
SPLINE
  5
202
330
6C
100
AcDbEntity
  8
Sichtbare Kanten(DIN)
100
AcDbSpline
210
0.0
220
0.0
230
1.0
 70
     8
 71
     3
 72
    10
 73
     6
 74
     0
 42
0.0000000001
 43
0.0000000001
 40
0.0
 40
0.0
 40
0.0
 40
0.0
 40
0.0028822582435835
 40
0.005855999716643
 40
0.0087345798676043
 40
0.0087345798676043
 40
0.0087345798676043
 40
0.0087345798676043
 10
151.6595773721894
 20
406.8918567790237
 30
0.0
 10
151.6627511920927
 20
406.9010435345592
 30
0.0
 10
151.6691995693314
 20
406.9197086343756
 30
0.0
 10
151.6930174260959
 20
406.9396904598495
 30
0.0
 10
151.7125086048646
 20
406.9427874985321
 30
0.0
 10
151.7220957266817
 20
406.9443108382682
 30
0.0
  0
SPLINE
  5
203
330
6C
100
AcDbEntity
  8
Sichtbare Kanten(DIN)
100
AcDbSpline
210
0.0
220
0.0
230
1.0
 70
    24
 71
     3
 72
    10
 73
     6
 74
     0
 42
0.0000000001
 43
0.0000000001
 40
0.0
 40
0.0
 40
0.0
 40
0.0
 40
0.0604501596472246
 40
0.1727147418492844
 40
0.2331649014965384
 40
0.2331649014965384
 40
0.2331649014965384
 40
0.2331649014965384
 10
151.2542930663625
 20
404.5957009131383
 30
0.0
 10
151.2893176360016
 20
404.794134136116
 30
0.0
 10
151.3893878349709
 20
405.3610862017666
 30
0.0
 10
151.5244826035802
 20
406.1264714903951
 30
0.0
 10
151.62455280255
 20
406.6934235560458
 30
0.0
 10
151.6595773721894
 20
406.8918567790237
 30
0.0
  0
SPLINE
  5
204
330
6C
100
AcDbEntity
  8
Sichtbare Kanten(DIN)
100
AcDbSpline
210
0.0
220
0.0
230
1.0
 70
     8
 71
     3
 72
    10
 73
     6
 74
     0
 42
0.0000000001
 43
0.0000000001
 40
0.0
 40
0.0
 40
0.0
 40
0.0
 40
0.0011950635321324
 40
0.0024213891508237
 40
0.0037609971570718
 40
0.0037609971570718
 40
0.0037609971570718
 40
0.0037609971570718
 10
151.2629356396047
 20
404.5602139836137
 30
0.0
 10
151.2606437069303
 20
404.5635017143713
 30
0.0
 10
151.25599988611
 20
404.5701631807904
 30
0.0
 10
151.2529835860989
 20
404.5826947091825
 30
0.0
 10
151.2538439122091
 20
404.591239761115
 30
0.0
 10
151.2542930663625
 20
404.5957009131383
 30
0.0
  0
SPLINE
  5
205
330
6C
100
AcDbEntity
  8
Sichtbare Kanten(DIN)
100
AcDbSpline
210
0.0
220
0.0
230
1.0
 70
     8
 71
     3
 72
    17
 73
    13
 74
     0
 42
0.0000000001
 43
0.0000000001
 40
-0.0001317261390849
 40
-0.0001317261390849
 40
-0.0001317261390849
 40
-0.0001317261390849
 40
0.0
 40
0.0
 40
0.0
 40
0.018805102356413
 40
0.018805102356413
 40
0.0376102047128261
 40
0.0376102047128261
 40
0.056820972269143
 40
0.056820972269143
 40
0.075916853239034
 40
0.075916853239034
 40
0.075916853239034
 40
0.075916853239034
 10
156.3036767993186
 20
394.767604294371
 30
0.0
 10
156.3036768688553
 20
394.7676098098192
 30
0.0
 10
156.3036763250169
 20
394.7676151865908
 30
0.0
 10
156.3036751678826
 20
394.7676204246299
 30
0.0
 10
156.303509976456
 20
394.7683682022666
 30
0.0
 10
156.2908184640481
 20
394.7663837243063
 30
0.0
 10
156.2398644373055
 20
394.756787178735
 30
0.0
 10
156.2016104748588
 20
394.7491996463814
 30
0.0
 10
156.1130156593644
 20
394.7315858766064
 30
0.0
 10
156.056419161483
 20
394.7203189799391
 30
0.0
 10
155.933022071235
 20
394.6961949547969
 30
0.0
 10
155.8662819933609
 20
394.6833684216521
 30
0.0
 10
155.8036769037567
 20
394.671585125353
 30
0.0
  0
SPLINE
  5
206
330
6C
100
AcDbEntity
  8
Sichtbare Kanten(DIN)
100
AcDbSpline
210
0.0
220
0.0
230
1.0
 70
     8
 71
     3
 72
    16
 73
    12
 74
     0
 42
0.0000000001
 43
0.0000000001
 40
0.0760502806032574
 40
0.0760502806032574
 40
0.0760502806032574
 40
0.0760502806032574
 40
0.0951461615731485
 40
0.0951461615731485
 40
0.1143569291294654
 40
0.1143569291294654
 40
0.1331620314858784
 40
0.1331620314858784
 40
0.1519671338422915
 40
0.1519671338422915
 40
0.1520988599813764
 40
0.1520988599813764
 40
0.1520988599813764
 40
0.1520988599813764
 10
149.8036769049598
 20
394.6715851253529
 30
0.0
 10
149.7410718153555
 20
394.6833684216521
 30
0.0
 10
149.6743317374814
 20
394.6961949547969
 30
0.0
 10
149.5509346472334
 20
394.7203189799391
 30
0.0
 10
149.494338149352
 20
394.7315858766064
 30
0.0
 10
149.4057433338576
 20
394.7491996463814
 30
0.0
 10
149.3674893714109
 20
394.756787178735
 30
0.0
 10
149.3165353446683
 20
394.7663837243063
 30
0.0
 10
149.3038438322604
 20
394.7683682022666
 30
0.0
 10
149.3036774836995
 20
394.7676151865908
 30
0.0
 10
149.3036769398612
 20
394.7676098098192
 30
0.0
 10
149.3036770093978
 20
394.767604294371
 30
0.0
  0
ARC
  5
207
330
6C
100
AcDbEntity
  8
Sichtbare Kanten(DIN)
100
AcDbCircle
 10
152.8036769043582
 20
410.6111813398027
 30
0.0
 40
16.21945521834459
100
AcDbArc
 50
259.3410215235197
 51
280.6589784764802
  0
LINE
  5
208
330
6C
100
AcDbEntity
  8
Sichtbare Kanten(DIN)
100
AcDbLine
 10
156.3036769043582
 20
394.7676045494996
 30
0.0
 11
156.3036769043582
 21
394.7425802672444
 31
0.0
  0
LINE
  5
209
330
6C
100
AcDbEntity
  8
Sichtbare Kanten(DIN)
100
AcDbLine
 10
149.3036769043582
 20
394.7425802672444
 30
0.0
 11
149.3036769043582
 21
394.7676045494996
 31
0.0
  0
ARC
  5
20A
330
6C
100
AcDbEntity
  8
Sichtbare Kanten(DIN)
100
AcDbCircle
 10
152.8036769043582
 20
410.6111813398026
 30
0.0
 40
16.25000000000007
100
AcDbArc
 50
180.0
 51
257.5619071849447
  0
LINE
  5
20B
330
6C
100
AcDbEntity
  8
Sichtbare Kanten(DIN)
100
AcDbLine
 10
136.5536769043581
 20
450.4111813398024
 30
0.0
 11
136.5536769043581
 21
410.6111813398024
 31
0.0
  0
ARC
  5
20C
330
6C
100
AcDbEntity
  8
Sichtbare Kanten(DIN)
100
AcDbCircle
 10
152.8036769043582
 20
450.4111813398024
 30
0.0
 40
16.25000000000007
100
AcDbArc
 50
0.0
 51
180.0
  0
LINE
  5
20D
330
6C
100
AcDbEntity
  8
Sichtbare Kanten(DIN)
100
AcDbLine
 10
169.0536769043583
 20
410.6111813398026
 30
0.0
 11
169.0536769043583
 21
420.5111813398024
 31
0.0
  0
LINE
  5
20E
330
6C
100
AcDbEntity
  8
Sichtbare Kanten(DIN)
100
AcDbLine
 10
169.0536769043583
 20
440.5111813398025
 30
0.0
 11
169.0536769043583
 21
450.4111813398024
 31
0.0
  0
ARC
  5
20F
330
6C
100
AcDbEntity
  8
Sichtbare Kanten(DIN)
100
AcDbCircle
 10
152.8036769043582
 20
410.6111813398026
 30
0.0
 40
16.25000000000007
100
AcDbArc
 50
282.4380928150553
 51
0.0
  0
LINE
  5
210
330
6C
100
AcDbEntity
  8
Sichtbare tangentiale Kanten(DIN)
100
AcDbLine
 10
169.0536769043583
 20
410.6111813398026
 30
0.0
 11
168.9043496906307
 21
410.6111813398026
 31
0.0
  0
LINE
  5
211
330
6C
100
AcDbEntity
  8
Sichtbare tangentiale Kanten(DIN)
100
AcDbLine
 10
136.5536769043581
 20
410.6111813398024
 30
0.0
 11
136.7030041180858
 21
410.6111813398026
 31
0.0
  0
LINE
  5
212
330
6C
100
AcDbEntity
  8
Sichtbare tangentiale Kanten(DIN)
100
AcDbLine
 10
136.5536769043581
 20
450.4111813398024
 30
0.0
 11
136.7030041180858
 21
450.4111813398024
 31
0.0
  0
LINE
  5
213
330
6C
100
AcDbEntity
  8
Sichtbare tangentiale Kanten(DIN)
100
AcDbLine
 10
169.0536769043583
 20
450.4111813398024
 30
0.0
 11
168.9043496906307
 21
450.4111813398024
 31
0.0
  0
ARC
  5
214
330
6C
100
AcDbEntity
  8
Sichtbare tangentiale Kanten(DIN)
100
AcDbCircle
 10
152.8036769043582
 20
410.6111813398026
 30
0.0
 40
16.10067278627245
100
AcDbArc
 50
180.0
 51
0.0
  0
LINE
  5
215
330
6C
100
AcDbEntity
  8
Sichtbare tangentiale Kanten(DIN)
100
AcDbLine
 10
138.5028697834746
 20
410.6111813398026
 30
0.0
 11
136.7030041180858
 21
410.6111813398026
 31
0.0
  0
LINE
  5
216
330
6C
100
AcDbEntity
  8
Sichtbare tangentiale Kanten(DIN)
100
AcDbLine
 10
138.5028697834746
 20
410.6111813398026
 30
0.0
 11
138.5028697834746
 21
450.4111813398024
 31
0.0
  0
LINE
  5
217
330
6C
100
AcDbEntity
  8
Sichtbare tangentiale Kanten(DIN)
100
AcDbLine
 10
136.7030041180858
 20
450.4111813398024
 30
0.0
 11
138.5028697834746
 21
450.4111813398024
 31
0.0
  0
LINE
  5
218
330
6C
100
AcDbEntity
  8
Sichtbare tangentiale Kanten(DIN)
100
AcDbLine
 10
136.7030041180858
 20
450.4111813398024
 30
0.0
 11
136.7030041180858
 21
410.6111813398026
 31
0.0
  0
LINE
  5
219
330
6C
100
AcDbEntity
  8
Sichtbare tangentiale Kanten(DIN)
100
AcDbLine
 10
167.1044840252419
 20
410.6111813398026
 30
0.0
 11
168.9043496906307
 21
410.6111813398026
 31
0.0
  0
ARC
  5
21A
330
6C
100
AcDbEntity
  8
Sichtbare tangentiale Kanten(DIN)
100
AcDbCircle
 10
152.8036769043582
 20
410.6111813398026
 30
0.0
 40
14.30080712088362
100
AcDbArc
 50
180.0
 51
0.0
  0
LINE
  5
21B
330
6C
100
AcDbEntity
  8
Sichtbare tangentiale Kanten(DIN)
100
AcDbLine
 10
168.9043496906307
 20
450.4111813398024
 30
0.0
 11
167.1044840252418
 21
450.4111813398024
 31
0.0
  0
ARC
  5
21C
330
6C
100
AcDbEntity
  8
Sichtbare tangentiale Kanten(DIN)
100
AcDbCircle
 10
152.8036769043582
 20
450.4111813398024
 30
0.0
 40
16.10067278627245
100
AcDbArc
 50
0.0
 51
180.0
  0
ARC
  5
21D
330
6C
100
AcDbEntity
  8
Sichtbare tangentiale Kanten(DIN)
100
AcDbCircle
 10
152.8036769043582
 20
450.4111813398024
 30
0.0
 40
14.30080712088362
100
AcDbArc
 50
0.0
 51
180.0
  0
LINE
  5
21E
330
6C
100
AcDbEntity
  8
Sichtbare tangentiale Kanten(DIN)
100
AcDbLine
 10
168.9043496906307
 20
410.6111813398026
 30
0.0
 11
168.9043496906307
 21
420.5111813398024
 31
0.0
  0
LINE
  5
21F
330
6C
100
AcDbEntity
  8
Sichtbare tangentiale Kanten(DIN)
100
AcDbLine
 10
168.9043496906307
 20
440.5111813398025
 30
0.0
 11
168.9043496906307
 21
450.4111813398024
 31
0.0
  0
LINE
  5
220
330
6C
100
AcDbEntity
  8
Sichtbare tangentiale Kanten(DIN)
100
AcDbLine
 10
167.1044840252419
 20
450.4111813398024
 30
0.0
 11
167.1044840252419
 21
440.5111813398025
 31
0.0
  0
LINE
  5
221
330
6C
100
AcDbEntity
  8
Sichtbare tangentiale Kanten(DIN)
100
AcDbLine
 10
167.1044840252418
 20
420.5111813398024
 30
0.0
 11
167.1044840252419
 21
410.6111813398026
 31
0.0
  0
ARC
  5
222
330
6C
100
AcDbEntity
  8
Sichtbare Kanten(DIN)
100
AcDbCircle
 10
152.8036769043582
 20
430.5111813398026
 30
0.0
 40
10.1
100
AcDbArc
 50
196.0606199791772
 51
278.0693011593937
  0
ARC
  5
223
330
6C
100
AcDbEntity
  8
Sichtbare Kanten(DIN)
100
AcDbCircle
 10
152.8036769043582
 20
430.5111813398026
 30
0.0
 40
10.10000000000003
100
AcDbArc
 50
171.9306988406076
 51
188.0693011593927
  0
ARC
  5
224
330
6C
100
AcDbEntity
  8
Sichtbare Kanten(DIN)
100
AcDbCircle
 10
152.8036769043582
 20
430.5111813398026
 30
0.0
 40
10.1
100
AcDbArc
 50
81.93069884060586
 51
163.9393800208228
  0
ELLIPSE
  5
225
330
6C
100
AcDbEntity
  8
Sichtbare tangentiale Kanten(DIN)
100
AcDbEllipse
 10
293.2333708473122
 20
421.5111813398024
 30
0.0
 11
-0.9959584233821733
 21
0.4607724511053037
 31
0.0
210
0.0
220
0.0
230
1.0
 40
0.1949237007029222
 41
2.742837129039926
 42
3.231529319599009
  0
ELLIPSE
  5
226
330
6C
100
AcDbEntity
  8
Sichtbare tangentiale Kanten(DIN)
100
AcDbEllipse
 10
293.6748446437416
 20
421.0111813398024
 30
0.0
 11
-0.0000000000000012
 21
-0.4999999999999958
 31
0.0
210
0.0
220
0.0
230
1.0
 40
0.8829475928589129
 41
0.0
 42
1.570796326794898
  0
ELLIPSE
  5
227
330
6C
100
AcDbEntity
  8
Sichtbare tangentiale Kanten(DIN)
100
AcDbEllipse
 10
293.2333708473122
 20
439.5111813398026
 30
0.0
 11
0.9959584233821775
 21
0.4607724511052841
 31
0.0
210
0.0
220
0.0
230
1.0
 40
0.1949237007029171
 41
6.193248641175465
 42
6.681940831734025
  0
ELLIPSE
  5
228
330
6C
100
AcDbEntity
  8
Sichtbare tangentiale Kanten(DIN)
100
AcDbEllipse
 10
293.6748446437416
 20
440.0111813398025
 30
0.0
 11
0.0
 21
0.4999999999999964
 31
0.0
210
0.0
220
0.0
230
1.0
 40
0.8829475928589292
 41
4.712388980384688
 42
6.28318530717958
  0
LINE
  5
229
330
6C
100
AcDbEntity
  8
Sichtbare tangentiale Kanten(DIN)
100
AcDbLine
 10
294.1163184401712
 20
440.0111813398025
 30
0.0
 11
294.1163184401712
 21
421.0111813398024
 31
0.0
  0
SPLINE
  5
22A
330
6C
100
AcDbEntity
  8
Sichtbare Kanten(DIN)
100
AcDbSpline
210
0.0
220
0.0
230
1.0
 70
     8
 71
     3
 72
    18
 73
    14
 74
     0
 42
0.0000000001
 43
0.0000000001
 40
0.0
 40
0.0
 40
0.0
 40
0.0
 40
0.0977384381116837
 40
0.0977384381116837
 40
0.1954768762233674
 40
0.1954768762233674
 40
0.2801118143171851
 40
0.2801118143171851
 40
0.363359343913346
 40
0.363359343913346
 40
0.4610977820250298
 40
0.4610977820250298
 40
0.4886921905584185
 40
0.4886921905584185
 40
0.4886921905584185
 40
0.4886921905584185
 10
293.6748446437416
 20
420.5111813398024
 30
0.0
 10
293.7171902460914
 20
420.5111813398024
 30
0.0
 10
293.7655938614272
 20
420.5153467248748
 30
0.0
 10
293.8737651866223
 20
420.5430467830226
 30
0.0
 10
293.9338648099369
 20
420.567366870893
 30
0.0
 10
294.0403186066226
 20
420.6389056578109
 30
0.0
 10
294.0865302018498
 20
420.6826001317833
 30
0.0
 10
294.1583274938531
 20
420.7784574851198
 30
0.0
 10
294.1841656548177
 20
420.8297116412636
 30
0.0
 10
294.2210373495817
 20
420.9345458605127
 30
0.0
 10
294.2293906286878
 20
420.9867955355259
 30
0.0
 10
294.2330212519853
 20
421.0453430389518
 30
0.0
 10
294.2333708473122
 20
421.0577521461578
 30
0.0
 10
294.2333708473122
 20
421.069707543373
 30
0.0
  0
SPLINE
  5
22B
330
6C
100
AcDbEntity
  8
Sichtbare Kanten(DIN)
100
AcDbSpline
210
0.0
220
0.0
230
1.0
 70
     8
 71
     3
 72
    18
 73
    14
 74
     0
 42
0.0000000001
 43
0.0000000001
 40
0.0000000000000039
 40
0.0000000000000039
 40
0.0000000000000039
 40
0.0000000000000039
 40
0.0977384381116837
 40
0.0977384381116837
 40
0.1954768762233634
 40
0.1954768762233634
 40
0.2801118143171816
 40
0.2801118143171816
 40
0.3633593439133423
 40
0.3633593439133423
 40
0.4610977820250221
 40
0.4610977820250221
 40
0.488692190558403
 40
0.488692190558403
 40
0.488692190558403
 40
0.488692190558403
 10
293.6748446437416
 20
440.5111813398026
 30
0.0
 10
293.7171902460914
 20
440.5111813398026
 30
0.0
 10
293.7655938614272
 20
440.5070159547301
 30
0.0
 10
293.8737651866223
 20
440.4793158965824
 30
0.0
 10
293.9338648099369
 20
440.4549958087121
 30
0.0
 10
294.0403186066226
 20
440.3834570217941
 30
0.0
 10
294.0865302018498
 20
440.3397625478218
 30
0.0
 10
294.1583274938531
 20
440.2439051944851
 30
0.0
 10
294.1841656548177
 20
440.1926510383413
 30
0.0
 10
294.2210373495817
 20
440.0878168190923
 30
0.0
 10
294.2293906286878
 20
440.0355671440791
 30
0.0
 10
294.2330212519853
 20
439.9770196406532
 30
0.0
 10
294.2333708473122
 20
439.9646105334473
 30
0.0
 10
294.2333708473122
 20
439.952655136232
 30
0.0
  0
LINE
  5
22C
330
6C
100
AcDbEntity
  8
Sichtbare Kanten(DIN)
100
AcDbLine
 10
294.2333708473121
 20
439.952655136232
 30
0.0
 11
294.2333708473121
 21
421.069707543373
 31
0.0
  0
LINE
  5
22D
330
6C
100
AcDbEntity
  8
Sichtbare tangentiale Kanten(DIN)
100
AcDbLine
 10
294.1163184401712
 20
421.0111813398024
 30
0.0
 11
280.0225710764481
 21
421.0111813398024
 31
0.0
  0
ELLIPSE
  5
22E
330
6C
100
AcDbEntity
  8
Sichtbare tangentiale Kanten(DIN)
100
AcDbEllipse
 10
279.5810972800186
 20
421.0111813398024
 30
0.0
 11
0.0000000000000089
 21
-0.5000000000000054
 31
0.0
210
0.0
220
0.0
230
1.0
 40
0.8829475928589229
 41
0.0
 42
1.570796326794879
  0
LINE
  5
22F
330
6C
100
AcDbEntity
  8
Sichtbare Kanten(DIN)
100
AcDbLine
 10
279.5810972800186
 20
420.5111813398024
 30
0.0
 11
293.6748446437416
 21
420.5111813398024
 31
0.0
  0
LINE
  5
230
330
6C
100
AcDbEntity
  8
Sichtbare tangentiale Kanten(DIN)
100
AcDbLine
 10
280.0225710764481
 20
440.0111813398026
 30
0.0
 11
294.1163184401712
 21
440.0111813398025
 31
0.0
  0
LINE
  5
231
330
6C
100
AcDbEntity
  8
Sichtbare Kanten(DIN)
100
AcDbLine
 10
293.6748446437416
 20
440.5111813398026
 30
0.0
 11
279.5810972800186
 21
440.5111813398026
 31
0.0
  0
ELLIPSE
  5
232
330
6C
100
AcDbEntity
  8
Sichtbare tangentiale Kanten(DIN)
100
AcDbEllipse
 10
279.5810972800186
 20
440.0111813398025
 30
0.0
 11
0.0
 21
0.500000000000013
 31
0.0
210
0.0
220
0.0
230
1.0
 40
0.8829475928589257
 41
4.712388980384688
 42
6.283185307179597
  0
ARC
  5
233
330
6C
100
AcDbEntity
  8
Sichtbare Kanten(DIN)
100
AcDbCircle
 10
152.8036769043582
 20
430.5111813398026
 30
0.0
 40
10.0
100
AcDbArc
 50
90.0
 51
270.0
  0
LINE
  5
234
330
6C
100
AcDbEntity
  8
Sichtbare tangentiale Kanten(DIN)
100
AcDbLine
 10
262.3636192192696
 20
440.0111813398026
 30
0.0
 11
262.3636192192696
 21
440.5111813398026
 31
0.0
  0
LINE
  5
235
330
6C
100
AcDbEntity
  8
Sichtbare tangentiale Kanten(DIN)
100
AcDbLine
 10
280.0225710764482
 20
440.0111813398026
 30
0.0
 11
262.3636192192696
 21
440.0111813398026
 31
0.0
  0
LINE
  5
236
330
6C
100
AcDbEntity
  8
Sichtbare Kanten(DIN)
100
AcDbLine
 10
262.3636192192696
 20
440.5111813398026
 30
0.0
 11
279.5810972800187
 21
440.5111813398026
 31
0.0
  0
LINE
  5
237
330
6C
100
AcDbEntity
  8
Sichtbare tangentiale Kanten(DIN)
100
AcDbLine
 10
185.6536769043583
 20
440.0111813398026
 30
0.0
 11
185.6536769043583
 21
440.5111813398026
 31
0.0
  0
LINE
  5
238
330
6C
100
AcDbEntity
  8
Sichtbare tangentiale Kanten(DIN)
100
AcDbLine
 10
185.6536769043583
 20
440.0111813398026
 30
0.0
 11
262.3636192192696
 21
440.0111813398026
 31
0.0
  0
LINE
  5
239
330
6C
100
AcDbEntity
  8
Sichtbare Kanten(DIN)
100
AcDbLine
 10
262.3636192192696
 20
440.5111813398026
 30
0.0
 11
185.6536769043583
 21
440.5111813398026
 31
0.0
  0
ARC
  5
23A
330
6C
100
AcDbEntity
  8
Sichtbare Kanten(DIN)
100
AcDbCircle
 10
176.1536769043583
 20
440.0111813398026
 30
0.0
 40
0.5000000000000019
100
AcDbArc
 50
90.0
 51
180.0
  0
LINE
  5
23B
330
6C
100
AcDbEntity
  8
Sichtbare tangentiale Kanten(DIN)
100
AcDbLine
 10
185.6536769043583
 20
440.0111813398026
 30
0.0
 11
175.6536769043583
 21
440.0111813398026
 31
0.0
  0
LINE
  5
23C
330
6C
100
AcDbEntity
  8
Sichtbare Kanten(DIN)
100
AcDbLine
 10
176.1536769043583
 20
440.5111813398026
 30
0.0
 11
185.6536769043583
 21
440.5111813398026
 31
0.0
  0
LINE
  5
23D
330
6C
100
AcDbEntity
  8
Sichtbare tangentiale Kanten(DIN)
100
AcDbLine
 10
171.6536769043583
 20
440.0111813398026
 30
0.0
 11
171.6536769043583
 21
440.5111813398026
 31
0.0
  0
LINE
  5
23E
330
6C
100
AcDbEntity
  8
Sichtbare tangentiale Kanten(DIN)
100
AcDbLine
 10
171.6536769043583
 20
440.0111813398026
 30
0.0
 11
175.6536769043583
 21
440.0111813398026
 31
0.0
  0
LINE
  5
23F
330
6C
100
AcDbEntity
  8
Sichtbare Kanten(DIN)
100
AcDbLine
 10
176.1536769043583
 20
440.5111813398026
 30
0.0
 11
171.6536769043583
 21
440.5111813398026
 31
0.0
  0
LINE
  5
240
330
6C
100
AcDbEntity
  8
Sichtbare tangentiale Kanten(DIN)
100
AcDbLine
 10
152.8036769043582
 20
440.0111813398026
 30
0.0
 11
152.8036769043582
 21
440.5111813398026
 31
0.0
  0
LINE
  5
241
330
6C
100
AcDbEntity
  8
Sichtbare tangentiale Kanten(DIN)
100
AcDbLine
 10
152.8036769043582
 20
440.0111813398026
 30
0.0
 11
171.6536769043583
 21
440.0111813398026
 31
0.0
  0
LINE
  5
242
330
6C
100
AcDbEntity
  8
Sichtbare Kanten(DIN)
100
AcDbLine
 10
171.6536769043583
 20
440.5111813398026
 30
0.0
 11
152.8036769043582
 21
440.5111813398026
 31
0.0
  0
LINE
  5
243
330
6C
100
AcDbEntity
  8
Sichtbare tangentiale Kanten(DIN)
100
AcDbLine
 10
152.8036769043582
 20
421.0111813398024
 30
0.0
 11
152.8036769043582
 21
420.5111813398024
 31
0.0
  0
ARC
  5
244
330
6C
100
AcDbEntity
  8
Sichtbare tangentiale Kanten(DIN)
100
AcDbCircle
 10
152.8036769043582
 20
430.5111813398026
 30
0.0
 40
9.500000000000003
100
AcDbArc
 50
90.0
 51
270.0
  0
LINE
  5
245
330
6C
100
AcDbEntity
  8
Sichtbare tangentiale Kanten(DIN)
100
AcDbLine
 10
171.6536769043583
 20
421.0111813398024
 30
0.0
 11
171.6536769043583
 21
420.5111813398024
 31
0.0
  0
LINE
  5
246
330
6C
100
AcDbEntity
  8
Sichtbare tangentiale Kanten(DIN)
100
AcDbLine
 10
171.6536769043583
 20
421.0111813398024
 30
0.0
 11
152.8036769043582
 21
421.0111813398024
 31
0.0
  0
LINE
  5
247
330
6C
100
AcDbEntity
  8
Sichtbare Kanten(DIN)
100
AcDbLine
 10
152.8036769043582
 20
420.5111813398024
 30
0.0
 11
171.6536769043583
 21
420.5111813398024
 31
0.0
  0
LINE
  5
248
330
6C
100
AcDbEntity
  8
Sichtbare tangentiale Kanten(DIN)
100
AcDbLine
 10
175.6536769043583
 20
421.0111813398024
 30
0.0
 11
171.6536769043583
 21
421.0111813398024
 31
0.0
  0
LINE
  5
249
330
6C
100
AcDbEntity
  8
Sichtbare Kanten(DIN)
100
AcDbLine
 10
171.6536769043583
 20
420.5111813398024
 30
0.0
 11
176.1536769043583
 21
420.5111813398024
 31
0.0
  0
ARC
  5
24A
330
6C
100
AcDbEntity
  8
Sichtbare Kanten(DIN)
100
AcDbCircle
 10
176.1536769043583
 20
421.0111813398024
 30
0.0
 40
0.4999999999999986
100
AcDbArc
 50
180.0
 51
270.0
  0
LINE
  5
24B
330
6C
100
AcDbEntity
  8
Sichtbare tangentiale Kanten(DIN)
100
AcDbLine
 10
185.6536769043583
 20
421.0111813398024
 30
0.0
 11
185.6536769043583
 21
420.5111813398024
 31
0.0
  0
LINE
  5
24C
330
6C
100
AcDbEntity
  8
Sichtbare tangentiale Kanten(DIN)
100
AcDbLine
 10
175.6536769043583
 20
421.0111813398024
 30
0.0
 11
185.6536769043583
 21
421.0111813398024
 31
0.0
  0
LINE
  5
24D
330
6C
100
AcDbEntity
  8
Sichtbare Kanten(DIN)
100
AcDbLine
 10
185.6536769043583
 20
420.5111813398024
 30
0.0
 11
176.1536769043583
 21
420.5111813398024
 31
0.0
  0
LINE
  5
24E
330
6C
100
AcDbEntity
  8
Sichtbare tangentiale Kanten(DIN)
100
AcDbLine
 10
262.3636192192696
 20
421.0111813398024
 30
0.0
 11
262.3636192192696
 21
420.5111813398024
 31
0.0
  0
LINE
  5
24F
330
6C
100
AcDbEntity
  8
Sichtbare tangentiale Kanten(DIN)
100
AcDbLine
 10
262.3636192192696
 20
421.0111813398024
 30
0.0
 11
185.6536769043583
 21
421.0111813398024
 31
0.0
  0
LINE
  5
250
330
6C
100
AcDbEntity
  8
Sichtbare Kanten(DIN)
100
AcDbLine
 10
185.6536769043583
 20
420.5111813398024
 30
0.0
 11
262.3636192192696
 21
420.5111813398024
 31
0.0
  0
LINE
  5
251
330
6C
100
AcDbEntity
  8
Sichtbare tangentiale Kanten(DIN)
100
AcDbLine
 10
262.3636192192696
 20
421.0111813398024
 30
0.0
 11
280.0225710764482
 21
421.0111813398024
 31
0.0
  0
LINE
  5
252
330
6C
100
AcDbEntity
  8
Sichtbare Kanten(DIN)
100
AcDbLine
 10
279.5810972800187
 20
420.5111813398024
 30
0.0
 11
262.3636192192696
 21
420.5111813398024
 31
0.0
  0
LINE
  5
253
330
6C
100
AcDbEntity
  8
Sichtbare tangentiale Kanten(DIN)
100
AcDbLine
 10
280.0225710764481
 20
440.0111813398026
 30
0.0
 11
280.0225710764481
 21
421.0111813398024
 31
0.0
  0
LINE
  5
254
330
6C
100
AcDbEntity
  8
Sichtbare tangentiale Kanten(DIN)
100
AcDbLine
 10
262.3636192192696
 20
421.0111813398024
 30
0.0
 11
262.3636192192696
 21
440.0111813398026
 31
0.0
  0
LINE
  5
255
330
6C
100
AcDbEntity
  8
Sichtbare tangentiale Kanten(DIN)
100
AcDbLine
 10
185.6536769043583
 20
421.0111813398024
 30
0.0
 11
185.6536769043583
 21
440.0111813398026
 31
0.0
  0
LINE
  5
256
330
6C
100
AcDbEntity
  8
Sichtbare Kanten(DIN)
100
AcDbLine
 10
175.6536769043583
 20
440.0111813398026
 30
0.0
 11
175.6536769043583
 21
421.0111813398024
 31
0.0
  0
LINE
  5
257
330
6C
100
AcDbEntity
  8
Sichtbare tangentiale Kanten(DIN)
100
AcDbLine
 10
171.6536769043583
 20
440.0111813398026
 30
0.0
 11
171.6536769043583
 21
421.0111813398024
 31
0.0
  0
LINE
  5
258
330
6C
100
AcDbEntity
  8
Sichtbare Kanten(DIN)
100
AcDbLine
 10
136.5536769043101
 20
268.6664580583608
 30
0.0
 11
169.0536769043102
 21
268.6664580583608
 31
0.0
  0
LINE
  5
259
330
6C
100
AcDbEntity
  8
Sichtbare Kanten(DIN)
100
AcDbLine
 10
136.5536769043101
 20
268.6664580583608
 30
0.0
 11
136.7030041180377
 21
256.4444674568573
 31
0.0
  0
LINE
  5
25A
330
6C
100
AcDbEntity
  8
Sichtbare Kanten(DIN)
100
AcDbLine
 10
169.0536769043102
 20
268.6664580583608
 30
0.0
 11
168.9043496905826
 21
256.4444674568573
 31
0.0
  0
ARC
  5
25B
330
6C
100
AcDbEntity
  8
Sichtbare Kanten(DIN)
100
AcDbCircle
 10
138.5028697834265
 20
256.4664580583608
 30
0.0
 40
1.800000000000009
100
AcDbArc
 50
180.699999999999
 51
270.0
  0
ARC
  5
25C
330
6C
100
AcDbEntity
  8
Sichtbare Kanten(DIN)
100
AcDbCircle
 10
167.1044840251938
 20
256.4664580583608
 30
0.0
 40
1.800000000000018
100
AcDbArc
 50
270.0
 51
359.2999999999995
  0
LINE
  5
25D
330
6C
100
AcDbEntity
  8
Sichtbare tangentiale Kanten(DIN)
100
AcDbLine
 10
136.7030041180377
 20
256.4444674568573
 30
0.0
 11
168.9043496905826
 21
256.4444674568573
 31
0.0
  0
LINE
  5
25E
330
6C
100
AcDbEntity
  8
Sichtbare Kanten(DIN)
100
AcDbLine
 10
167.1044840251938
 20
254.6664580583609
 30
0.0
 11
138.5028697834265
 21
254.6664580583609
 31
0.0
  0
LINE
  5
25F
330
6C
100
AcDbEntity
  8
Sichtbare Kanten(DIN)
100
AcDbLine
 10
156.0357277118787
 20
279.1164580583621
 30
0.0
 11
149.5716260967415
 21
279.1164580583623
 31
0.0
  0
LINE
  5
260
330
6C
100
AcDbEntity
  8
Sichtbare Kanten(DIN)
100
AcDbLine
 10
149.3036769043103
 20
278.1164580583613
 30
0.0
 11
156.3036769043103
 21
278.1164580583613
 31
0.0
  0
LINE
  5
261
330
6C
100
AcDbEntity
  8
Sichtbare Kanten(DIN)
100
AcDbLine
 10
156.0357277118787
 20
279.1164580583622
 30
0.0
 11
156.30367690431
 21
278.1164580583612
 31
0.0
  0
LINE
  5
262
330
6C
100
AcDbEntity
  8
Sichtbare Kanten(DIN)
100
AcDbLine
 10
149.5716260967414
 20
279.1164580583622
 30
0.0
 11
149.3036769043101
 21
278.1164580583613
 31
0.0
  0
LINE
  5
263
330
6C
100
AcDbEntity
  8
Sichtbare Kanten(DIN)
100
AcDbLine
 10
156.3036769043103
 20
278.1164580583613
 30
0.0
 11
156.3036769043103
 21
268.6664580583624
 31
0.0
  0
LINE
  5
264
330
6C
100
AcDbEntity
  8
Sichtbare Kanten(DIN)
100
AcDbLine
 10
149.3036769043103
 20
278.1164580583613
 30
0.0
 11
149.3036769043103
 21
268.6664580583624
 31
0.0
  0
LINE
  5
265
330
6C
100
AcDbEntity
  8
Sichtbare Kanten(DIN)
100
AcDbLine
 10
162.9036769043102
 20
254.4664580583548
 30
0.0
 11
142.7036769043101
 21
254.4664580583548
 31
0.0
  0
LINE
  5
266
330
6C
100
AcDbEntity
  8
Sichtbare Kanten(DIN)
100
AcDbLine
 10
142.7036769043102
 20
254.4664580583548
 30
0.0
 11
142.7036769043102
 21
254.6664580583549
 31
0.0
  0
LINE
  5
267
330
6C
100
AcDbEntity
  8
Sichtbare Kanten(DIN)
100
AcDbLine
 10
162.9036769043102
 20
254.4664580583548
 30
0.0
 11
162.9036769043102
 21
254.6664580583549
 31
0.0
  0
ARC
  5
268
330
6C
100
AcDbEntity
  8
Sichtbare Kanten(DIN)
100
AcDbCircle
 10
293.2333708472642
 20
238.0529820282844
 30
0.0
 40
0.9999999999999896
100
AcDbArc
 50
332.0000000000155
 51
62.00000000000738
  0
ELLIPSE
  5
269
330
6C
100
AcDbEntity
  8
Sichtbare tangentiale Kanten(DIN)
100
AcDbEllipse
 10
293.2333708472642
 20
238.0529820282844
 30
0.0
 11
-0.469471562785894
 21
-0.882947592858928
 31
0.0
210
0.0
220
0.0
230
1.0
 40
0.4999999999998546
 41
1.570796326795458
 42
3.141592653589015
  0
LINE
  5
26A
330
6C
100
AcDbEntity
  8
Sichtbare tangentiale Kanten(DIN)
100
AcDbLine
 10
294.116318440123
 20
237.5835104654986
 30
0.0
 11
293.6748446436935
 21
237.8182462468917
 31
0.0
  0
LINE
  5
26B
330
6C
100
AcDbEntity
  8
Sichtbare Kanten(DIN)
100
AcDbLine
 10
293.70284241005
 20
238.9359296211433
 30
0.0
 11
290.1129088368156
 21
240.8447311610703
 31
0.0
  0
SPLINE
  5
26C
330
6C
100
AcDbEntity
  8
Sichtbare Kanten(DIN)
100
AcDbSpline
210
0.0
220
0.0
230
1.0
 70
     8
 71
     3
 72
    18
 73
    14
 74
     0
 42
0.0000000001
 43
0.0000000001
 40
-0.1863783732954837
 40
-0.1863783732954837
 40
-0.1863783732954837
 40
-0.1863783732954837
 40
-0.1857716468318032
 40
-0.1857716468318032
 40
-0.1444408776532551
 40
-0.1444408776532551
 40
-0.1046635269301939
 40
-0.1046635269301939
 40
-0.0619008535848262
 40
-0.0619008535848262
 40
-0.0290583738504089
 40
-0.0290583738504089
 40
0.0
 40
0.0
 40
0.0
 40
0.0
 10
290.1129088368156
 20
240.8447311610703
 30
0.0
 10
290.1116770517728
 20
240.8453861127953
 30
0.0
 10
290.1104437152004
 20
240.8460381258716
 30
0.0
 10
290.0250877358298
 20
240.8909024038093
 30
0.0
 10
289.933379370334
 20
240.9216834704821
 30
0.0
 10
289.744063533488
 20
240.9516786148761
 30
0.0
 10
289.6458555836169
 20
240.9521749049774
 30
0.0
 10
289.4377816816075
 20
240.9177073146668
 30
0.0
 10
289.3265102656003
 20
240.8798594616627
 30
0.0
 10
289.1362589294987
 20
240.7698793715157
 30
0.0
 10
289.0563675573255
 20
240.7080085488932
 30
0.0
 10
288.920145323598
 20
240.5633767577306
 30
0.0
 10
288.8641064835813
 20
240.4858632463595
 30
0.0
 10
288.8186328829694
 20
240.4003398422141
 30
0.0
  0
LINE
  5
26D
330
6C
100
AcDbEntity
  8
Sichtbare tangentiale Kanten(DIN)
100
AcDbLine
 10
288.8186328829694
 20
240.4003398422141
 30
0.0
 11
293.6748446436935
 21
237.8182462468918
 31
0.0
  0
SPLINE
  5
26E
330
6C
100
AcDbEntity
  8
Sichtbare tangentiale Kanten(DIN)
100
AcDbSpline
210
0.0
220
0.0
230
1.0
 70
     8
 71
     3
 72
    10
 73
     6
 74
     0
 42
0.0000000001
 43
0.0000000001
 40
-0.9934977341291585
 40
-0.9934977341291585
 40
-0.9934977341291585
 40
-0.9934977341291483
 40
-0.4967488670645794
 40
-0.4967488670645794
 40
0.0
 40
0.0
 40
0.0
 40
0.0
 10
288.5396347927693
 20
240.6304784214205
 30
0.0
 10
288.5396347927693
 20
240.630478421421
 30
0.0
 10
288.5625476115631
 20
240.6113285319546
 30
0.0
 10
288.6550334093751
 20
240.5346030184148
 30
0.0
 10
288.7246199607437
 20
240.4769798492376
 30
0.0
 10
288.8186328829694
 20
240.4003398422142
 30
0.0
  0
SPLINE
  5
26F
330
6C
100
AcDbEntity
  8
Sichtbare Kanten(DIN)
100
AcDbSpline
210
0.0
220
0.0
230
1.0
 70
    24
 71
     3
 72
    10
 73
     6
 74
     0
 42
0.0000000001
 43
0.0000000001
 40
0.0930757396781081
 40
0.0930757396781081
 40
0.0930757396781081
 40
0.0930757396781081
 40
0.4967488670645794
 40
0.4967488670645794
 40
0.9934977341291478
 40
0.9934977341291585
 40
0.9934977341291585
 40
0.9934977341291585
 10
290.1129088368156
 20
240.8447311610703
 30
0.0
 10
290.0360700965531
 20
240.8855870439844
 30
0.0
 10
289.9764434657878
 20
240.9172910859401
 30
0.0
 10
289.8819004450302
 20
240.9675605017738
 30
0.0
 10
289.8558438224674
 20
240.9814150537471
 30
0.0
 10
289.8558438224674
 20
240.9814150537467
 30
0.0
  0
ARC
  5
270
330
6C
100
AcDbEntity
  8
Sichtbare Kanten(DIN)
100
AcDbCircle
 10
289.3863722596815
 20
240.0984674608877
 30
0.0
 40
1.0
100
AcDbArc
 50
62.00000000000105
 51
147.8585717134391
  0
LINE
  5
271
330
6C
100
AcDbEntity
  8
Sichtbare Kanten(DIN)
100
AcDbLine
 10
280.0225710764
 20
211.0770268026397
 30
0.0
 11
294.116318440123
 21
237.5835104654986
 31
0.0
  0
LINE
  5
272
330
6C
100
AcDbEntity
  8
Sichtbare tangentiale Kanten(DIN)
100
AcDbLine
 10
293.6748446436935
 20
237.8182462468918
 30
0.0
 11
279.5810972799706
 21
211.3117625840329
 31
0.0
  0
LINE
  5
273
330
6C
100
AcDbEntity
  8
Sichtbare tangentiale Kanten(DIN)
100
AcDbLine
 10
280.0225710764
 20
211.0770268026397
 30
0.0
 11
279.5810972799706
 21
211.3117625840329
 31
0.0
  0
SPLINE
  5
274
330
6C
100
AcDbEntity
  8
Sichtbare tangentiale Kanten(DIN)
100
AcDbSpline
210
0.0
220
0.0
230
1.0
 70
     8
 71
     3
 72
    20
 73
    16
 74
     0
 42
0.0000000001
 43
0.0000000001
 40
6.898083088244446
 40
6.898083088244446
 40
6.898083088244446
 40
6.898083088244446
 40
7.058972939933031
 40
7.058972939933031
 40
7.316396702634768
 40
7.316396702634768
 40
7.560876173279384
 40
7.560876173279384
 40
7.989858107336579
 40
7.989858107336579
 40
8.379973876695871
 40
8.379973876695871
 40
8.602963711636411
 40
8.602963711636411
 40
8.623148195929021
 40
8.623148195929021
 40
8.623148195929021
 40
8.623148195929021
 10
162.8036769043102
 20
232.4977637427796
 30
0.0
 10
162.8036769043102
 20
232.4977637427798
 30
0.0
 10
162.7641048803134
 20
232.4660704833467
 30
0.0
 10
162.5602621910667
 20
232.3040352330826
 30
0.0
 10
162.3378541665794
 20
232.1276130700938
 30
0.0
 10
161.7447466925207
 20
231.6702144480314
 30
0.0
 10
161.3809141568094
 20
231.3942184241624
 30
0.0
 10
160.2334730916163
 20
230.561262659935
 30
0.0
 10
159.3178052395472
 20
229.9285978048081
 30
0.0
 10
157.3351750132809
 20
228.8038590613433
 30
0.0
 10
156.2520814428236
 20
228.2838451240978
 30
0.0
 10
154.4141048068794
 20
227.7856386772175
 30
0.0
 10
153.7036416280456
 20
227.6716829929116
 30
0.0
 10
152.931998623015
 20
227.6534118898888
 30
0.0
 10
152.8678054810756
 20
227.6526506760685
 30
0.0
 10
152.8036768189782
 20
227.6526506767422
 30
0.0
  0
SPLINE
  5
275
330
6C
100
AcDbEntity
  8
Sichtbare Kanten(DIN)
100
AcDbSpline
210
0.0
220
0.0
230
1.0
 70
     8
 71
     3
 72
    12
 73
     8
 74
     0
 42
0.0000000001
 43
0.0000000001
 40
-0.0007507121745731
 40
-0.0007507121745731
 40
-0.0007507121745731
 40
-0.0007507121745731
 40
0.0
 40
0.0
 40
0.0800557872443978
 40
0.0800557872443978
 40
0.1619197658068883
 40
0.1619197658068883
 40
0.1619197658068883
 40
0.1619197658068883
 10
152.8036769043101
 20
227.6526506767422
 30
0.0
 10
152.8061189711966
 20
227.6521046139858
 30
0.0
 10
152.8085612704341
 20
227.6515596006219
 30
0.0
 10
153.0714752804278
 20
227.5930075867309
 30
0.0
 10
153.3332951676124
 20
227.5472476198412
 30
0.0
 10
153.8687329964855
 20
227.4835272831943
 30
0.0
 10
154.1406302969465
 20
227.4664580583578
 30
0.0
 10
154.4129849037259
 20
227.4664580583578
 30
0.0
  0
SPLINE
  5
276
330
6C
100
AcDbEntity
  8
Sichtbare tangentiale Kanten(DIN)
100
AcDbSpline
210
0.0
220
0.0
230
1.0
 70
     8
 71
     3
 72
    18
 73
    14
 74
     0
 42
0.0000000001
 43
0.0000000001
 40
-8.461345960993567
 40
-8.461345960993567
 40
-8.461345960993567
 40
-8.461345960993567
 40
-8.379973876695871
 40
-8.379973876695871
 40
-7.989858107336579
 40
-7.989858107336579
 40
-7.560876173279384
 40
-7.560876173279384
 40
-7.316396702634768
 40
-7.316396702634768
 40
-7.058972939933031
 40
-7.058972939933031
 40
-6.898083088244842
 40
-6.898083088244446
 40
-6.898083088244446
 40
-6.898083088244446
 10
154.4129849037288
 20
227.4664580583583
 30
0.0
 10
154.678520899409
 20
227.5117241241668
 30
0.0
 10
154.9403970787469
 20
227.5672762114516
 30
0.0
 10
156.4245016697493
 20
227.9365233349198
 30
0.0
 10
157.5617499187295
 20
228.4376961874824
 30
0.0
 10
159.6435116563091
 20
229.5216835271984
 30
0.0
 10
160.6049629009816
 20
230.1314257426468
 30
0.0
 10
161.8097760194344
 20
230.9342019501993
 30
0.0
 10
162.1918001819312
 20
231.200198118131
 30
0.0
 10
162.8145630296929
 20
231.6410243263506
 30
0.0
 10
163.0480914554046
 20
231.8110543819848
 30
0.0
 10
163.2621262791135
 20
231.9672187898477
 30
0.0
 10
163.30367690431
 20
231.9977637427797
 30
0.0
 10
163.3036769043101
 20
231.9977637427796
 30
0.0
  0
LINE
  5
277
330
6C
100
AcDbEntity
  8
Sichtbare tangentiale Kanten(DIN)
100
AcDbLine
 10
142.8036769043101
 20
221.9664580583549
 30
0.0
 11
152.8036769043101
 21
221.9664580583578
 31
0.0
  0
LINE
  5
278
330
6C
100
AcDbEntity
  8
Sichtbare tangentiale Kanten(DIN)
100
AcDbLine
 10
262.3636192192214
 20
200.4664580583575
 30
0.0
 11
262.3636192192214
 21
200.9664580583577
 31
0.0
  0
ARC
  5
279
330
6C
100
AcDbEntity
  8
Sichtbare Kanten(DIN)
100
AcDbCircle
 10
262.3636192192215
 20
220.4664580583576
 30
0.0
 40
20.00000000000001
100
AcDbArc
 50
270.0
 51
332.0
  0
ARC
  5
27A
330
6C
100
AcDbEntity
  8
Sichtbare tangentiale Kanten(DIN)
100
AcDbCircle
 10
262.3636192192215
 20
220.4664580583577
 30
0.0
 40
19.50000000000001
100
AcDbArc
 50
270.0
 51
332.0
  0
LINE
  5
27B
330
6C
100
AcDbEntity
  8
Sichtbare tangentiale Kanten(DIN)
100
AcDbLine
 10
185.6536769043102
 20
200.4664580583576
 30
0.0
 11
185.6536769043102
 21
200.9664580583577
 31
0.0
  0
LINE
  5
27C
330
6C
100
AcDbEntity
  8
Sichtbare Kanten(DIN)
100
AcDbLine
 10
185.6536769043102
 20
200.4664580583576
 30
0.0
 11
262.3636192192214
 21
200.4664580583576
 31
0.0
  0
LINE
  5
27D
330
6C
100
AcDbEntity
  8
Sichtbare tangentiale Kanten(DIN)
100
AcDbLine
 10
262.3636192192214
 20
200.9664580583577
 30
0.0
 11
185.6536769043102
 21
200.9664580583577
 31
0.0
  0
LINE
  5
27E
330
6C
100
AcDbEntity
  8
Sichtbare tangentiale Kanten(DIN)
100
AcDbLine
 10
175.6536769043101
 20
210.4664580583576
 30
0.0
 11
176.1536769043102
 21
210.4664580583577
 31
0.0
  0
ARC
  5
27F
330
6C
100
AcDbEntity
  8
Sichtbare Kanten(DIN)
100
AcDbCircle
 10
185.6536769043102
 20
210.4664580583576
 30
0.0
 40
9.999999999999998
100
AcDbArc
 50
180.0
 51
270.0
  0
ARC
  5
280
330
6C
100
AcDbEntity
  8
Sichtbare tangentiale Kanten(DIN)
100
AcDbCircle
 10
185.6536769043102
 20
210.4664580583577
 30
0.0
 40
9.5
100
AcDbArc
 50
180.0
 51
270.0
  0
LINE
  5
281
330
6C
100
AcDbEntity
  8
Sichtbare tangentiale Kanten(DIN)
100
AcDbLine
 10
175.6536769043101
 20
217.4664580583576
 30
0.0
 11
176.1536769043102
 21
217.4664580583578
 31
0.0
  0
LINE
  5
282
330
6C
100
AcDbEntity
  8
Sichtbare Kanten(DIN)
100
AcDbLine
 10
175.6536769043101
 20
217.4664580583576
 30
0.0
 11
175.6536769043101
 21
210.4664580583576
 31
0.0
  0
LINE
  5
283
330
6C
100
AcDbEntity
  8
Sichtbare tangentiale Kanten(DIN)
100
AcDbLine
 10
176.1536769043102
 20
210.4664580583577
 30
0.0
 11
176.1536769043102
 21
217.4664580583578
 31
0.0
  0
LINE
  5
284
330
6C
100
AcDbEntity
  8
Sichtbare tangentiale Kanten(DIN)
100
AcDbLine
 10
171.6536769043101
 20
221.4664580583576
 30
0.0
 11
171.6536769043101
 21
221.9664580583578
 31
0.0
  0
ARC
  5
285
330
6C
100
AcDbEntity
  8
Sichtbare Kanten(DIN)
100
AcDbCircle
 10
171.6536769043101
 20
217.4664580583576
 30
0.0
 40
4.000000000000063
100
AcDbArc
 50
0.0
 51
90.0
  0
ARC
  5
286
330
6C
100
AcDbEntity
  8
Sichtbare tangentiale Kanten(DIN)
100
AcDbCircle
 10
171.6536769043101
 20
217.4664580583577
 30
0.0
 40
4.500000000000065
100
AcDbArc
 50
0.0
 51
89.99999999999955
  0
LINE
  5
287
330
6C
100
AcDbEntity
  8
Sichtbare tangentiale Kanten(DIN)
100
AcDbLine
 10
152.8036769043101
 20
221.4664580583577
 30
0.0
 11
152.8036769043101
 21
221.9664580583578
 31
0.0
  0
LINE
  5
288
330
6C
100
AcDbEntity
  8
Sichtbare Kanten(DIN)
100
AcDbLine
 10
152.8036769043101
 20
221.4664580583577
 30
0.0
 11
171.6536769043101
 21
221.4664580583576
 31
0.0
  0
LINE
  5
289
330
6C
100
AcDbEntity
  8
Sichtbare tangentiale Kanten(DIN)
100
AcDbLine
 10
171.6536769043101
 20
221.9664580583578
 30
0.0
 11
152.8036769043101
 21
221.9664580583578
 31
0.0
  0
LINE
  5
28A
330
6C
100
AcDbEntity
  8
Sichtbare Kanten(DIN)
100
AcDbLine
 10
152.8036769043101
 20
221.4664580583576
 30
0.0
 11
143.3036769043101
 21
221.4664580583548
 31
0.0
  0
ARC
  5
28B
330
6C
100
AcDbEntity
  8
Sichtbare Kanten(DIN)
100
AcDbCircle
 10
163.3036769043101
 20
232.4977637427796
 30
0.0
 40
0.5000000000000005
100
AcDbArc
 50
180.0
 51
270.0
  0
ARC
  5
28C
330
6C
100
AcDbEntity
  8
Sichtbare Kanten(DIN)
100
AcDbCircle
 10
143.3036769043101
 20
221.9664580583549
 30
0.0
 40
0.5000000000000005
100
AcDbArc
 50
180.0
 51
270.0
  0
LINE
  5
28D
330
6C
100
AcDbEntity
  8
Sichtbare tangentiale Kanten(DIN)
100
AcDbLine
 10
152.8036768189782
 20
227.6526506767422
 30
0.0
 11
152.8036769043101
 21
221.9664580583578
 31
0.0
  0
LINE
  5
28E
330
6C
100
AcDbEntity
  8
Sichtbare Kanten(DIN)
100
AcDbLine
 10
142.8036769043101
 20
221.9664580583549
 30
0.0
 11
142.8036769043101
 21
245.4664580583548
 31
0.0
  0
LINE
  5
28F
330
6C
100
AcDbEntity
  8
Sichtbare Kanten(DIN)
100
AcDbLine
 10
142.8036769043101
 20
250.4664580583548
 30
0.0
 11
142.8036769043101
 21
254.4664580583549
 31
0.0
  0
LINE
  5
290
330
6C
100
AcDbEntity
  8
Sichtbare Kanten(DIN)
100
AcDbLine
 10
162.8036769043102
 20
232.4977637427796
 30
0.0
 11
162.8036769043102
 21
254.4664580583548
 31
0.0
  0
LINE
  5
291
330
6C
100
AcDbEntity
  8
Sichtbare Kanten(DIN)
100
AcDbLine
 10
288.8186328829694
 20
240.4003398422141
 30
0.0
 11
274.7248855192465
 21
213.8938561793553
 31
0.0
  0
ARC
  5
292
330
6C
100
AcDbEntity
  8
Sichtbare Kanten(DIN)
100
AcDbCircle
 10
262.3636192192215
 20
220.4664580583577
 30
0.0
 40
13.99999999999999
100
AcDbArc
 50
270.0
 51
332.0
  0
LINE
  5
293
330
6C
100
AcDbEntity
  8
Sichtbare Kanten(DIN)
100
AcDbLine
 10
262.3636192192214
 20
210.9977637427796
 30
0.0
 11
262.3636192192214
 21
206.4664580583577
 31
0.0
  0
SPLINE
  5
294
330
6C
100
AcDbEntity
  8
Sichtbare Kanten(DIN)
100
AcDbSpline
210
0.0
220
0.0
230
1.0
 70
     8
 71
     3
 72
    20
 73
    16
 74
     0
 42
0.0000000001
 43
0.0000000001
 40
0.0
 40
0.0
 40
0.0
 40
0.0
 40
0.3040783773554148
 40
0.3040783773554148
 40
0.6156883521213096
 40
0.6156883521213096
 40
0.9408092885325649
 40
0.9408092885325649
 40
1.271254069996317
 40
1.271254069996317
 40
1.809740121327456
 40
1.809740121327456
 40
3.425188387127009
 40
3.425188387127009
 40
4.12549045509437
 40
4.12549045509437
 40
4.12549045509437
 40
4.12549045509437
 10
262.3636192192214
 20
210.9977637427796
 30
0.0
 10
263.3680594596625
 20
210.8618453898553
 30
0.0
 10
264.4068979273156
 20
210.8909575032752
 30
0.0
 10
266.4245563341711
 20
211.2664136218818
 30
0.0
 10
267.4264696172039
 20
211.624933694296
 30
0.0
 10
269.291922191069
 20
212.6372690349146
 30
0.0
 10
270.1643704113852
 20
213.325620861024
 30
0.0
 10
271.6611568203399
 20
214.9177304000742
 30
0.0
 10
272.2569430020669
 20
215.8589098442423
 30
0.0
 10
273.8391684567023
 20
218.2849982074425
 30
0.0
 10
274.8313579044288
 20
219.7808309372013
 30
0.0
 10
278.7753336463544
 20
225.7803568663916
 30
0.0
 10
281.7243455429075
 20
230.2859345435502
 30
0.0
 10
285.9901407821821
 20
236.7193272861376
 30
0.0
 10
287.2977402066279
 20
238.6539050910735
 30
0.0
 10
288.5396347927693
 20
240.6304784214205
 30
0.0
  0
LINE
  5
295
330
6C
100
AcDbEntity
  8
Sichtbare Kanten(DIN)
100
AcDbLine
 10
262.3636192192214
 20
206.4664580583577
 30
0.0
 11
184.2908782022275
 21
206.4664580583577
 31
0.0
  0
LINE
  5
296
330
6C
100
AcDbEntity
  8
Sichtbare Kanten(DIN)
100
AcDbLine
 10
262.3636192192214
 20
210.9977637427796
 30
0.0
 11
190.184982588735
 21
210.9977637427796
 31
0.0
  0
SPLINE
  5
297
330
6C
100
AcDbEntity
  8
Sichtbare Kanten(DIN)
100
AcDbSpline
210
0.0
220
0.0
230
1.0
 70
     8
 71
     3
 72
    16
 73
    12
 74
     0
 42
0.0000000001
 43
0.0000000001
 40
0.0
 40
0.0
 40
0.0
 40
0.0
 40
0.1260995101929236
 40
0.1260995101929236
 40
0.2114290714684836
 40
0.2114290714684836
 40
0.2913737311663937
 40
0.2913737311663937
 40
0.3538751764013237
 40
0.3538751764013237
 40
0.4265240330514596
 40
0.4265240330514596
 40
0.4265240330514596
 40
0.4265240330514596
 10
181.6536769043102
 20
209.1036593562751
 30
0.0
 10
181.6536769043102
 20
208.683327655632
 30
0.0
 10
181.711585952106
 20
208.2524979526501
 30
0.0
 10
181.9742983760535
 20
207.5992576044422
 30
0.0
 10
182.1231181978875
 20
207.3607096611819
 30
0.0
 10
182.5090711891294
 20
206.9683645987723
 30
0.0
 10
182.728149976637
 20
206.822255749164
 30
0.0
 10
183.1617437311055
 20
206.6298666968251
 30
0.0
 10
183.3625292312359
 20
206.5706642050034
 30
0.0
 10
183.8045198165798
 20
206.485653957502
 30
0.0
 10
184.0488738576324
 20
206.4664580583578
 30
0.0
 10
184.2908782022275
 20
206.4664580583578
 30
0.0
  0
LINE
  5
298
330
6C
100
AcDbEntity
  8
Sichtbare tangentiale Kanten(DIN)
100
AcDbLine
 10
181.6536769043102
 20
209.1036593562751
 30
0.0
 11
186.184982588735
 21
214.9977637427796
 31
0.0
  0
LINE
  5
299
330
6C
100
AcDbEntity
  8
Sichtbare tangentiale Kanten(DIN)
100
AcDbLine
 10
190.184982588735
 20
210.9977637427796
 30
0.0
 11
184.2908782022275
 21
206.4664580583578
 31
0.0
  0
ARC
  5
29A
330
6C
100
AcDbEntity
  8
Sichtbare Kanten(DIN)
100
AcDbCircle
 10
190.184982588735
 20
214.9977637427796
 30
0.0
 40
4.000000000000001
100
AcDbArc
 50
180.0
 51
270.0
  0
LINE
  5
29B
330
6C
100
AcDbEntity
  8
Sichtbare Kanten(DIN)
100
AcDbLine
 10
181.6536769043102
 20
209.1036593562751
 30
0.0
 11
181.6536769043102
 21
217.4664580583578
 31
0.0
  0
LINE
  5
29C
330
6C
100
AcDbEntity
  8
Sichtbare Kanten(DIN)
100
AcDbLine
 10
186.184982588735
 20
214.9977637427796
 30
0.0
 11
186.184982588735
 21
217.4664580583548
 31
0.0
  0
ARC
  5
29D
330
6C
100
AcDbEntity
  8
Sichtbare Kanten(DIN)
100
AcDbCircle
 10
171.6536769043101
 20
217.4664580583578
 30
0.0
 40
10.00000000000006
100
AcDbArc
 50
0.0
 51
90.0
  0
LINE
  5
29E
330
6C
100
AcDbEntity
  8
Sichtbare Kanten(DIN)
100
AcDbLine
 10
171.6536769043101
 20
227.4664580583578
 30
0.0
 11
154.4129849037289
 21
227.4664580583581
 31
0.0
  0
LINE
  5
29F
330
6C
100
AcDbEntity
  8
Sichtbare tangentiale Kanten(DIN)
100
AcDbLine
 10
181.6536769043102
 20
217.4664580583578
 30
0.0
 11
186.184982588735
 21
217.4664580583548
 31
0.0
  0
LINE
  5
2A0
330
6C
100
AcDbEntity
  8
Sichtbare tangentiale Kanten(DIN)
100
AcDbLine
 10
171.6536769043101
 20
227.4664580583579
 30
0.0
 11
171.6536769043101
 21
231.9977637427797
 31
0.0
  0
LINE
  5
2A1
330
6C
100
AcDbEntity
  8
Sichtbare Kanten(DIN)
100
AcDbLine
 10
171.6536769043101
 20
231.9977637427796
 30
0.0
 11
163.3036769043101
 21
231.9977637427796
 31
0.0
  0
ARC
  5
2A2
330
6C
100
AcDbEntity
  8
Sichtbare Kanten(DIN)
100
AcDbCircle
 10
171.6536769043101
 20
217.4664580583548
 30
0.0
 40
14.5313056844249
100
AcDbArc
 50
0.0
 51
90.0
  0
LINE
  5
2A3
330
6C
100
AcDbEntity
  8
Mittelpunktmarkierung(DIN)
  6
Continuous
100
AcDbLine
 10
162.5064333328785
 20
455.5111813398024
 30
0.0
 11
143.100920475838
 21
455.5111813398024
 31
0.0
  0
LINE
  5
2A4
330
6C
100
AcDbEntity
  8
Mittelpunktmarkierung(DIN)
  6
Continuous
100
AcDbLine
 10
152.8036769043582
 20
465.2139377683226
 30
0.0
 11
152.8036769043582
 21
445.8084249112824
 31
0.0
  0
LINE
  5
2A5
330
6C
100
AcDbEntity
  8
Mittelpunktmarkierung(DIN)
  6
Continuous
100
AcDbLine
 10
174.0536769043583
 20
450.4111813398024
 30
0.0
 11
131.5536769043582
 21
450.4111813398024
 31
0.0
  0
LINE
  5
2A6
330
6C
100
AcDbEntity
  8
Mittelpunktmarkierung(DIN)
  6
Continuous
100
AcDbLine
 10
152.8036769043582
 20
471.6611813398026
 30
0.0
 11
152.8036769043582
 21
445.4111813398024
 31
0.0
  0
LINE
  5
2A7
330
6C
100
AcDbEntity
  8
Mittelpunktmarkierung(DIN)
  6
Continuous
100
AcDbLine
 10
157.8036769043583
 20
410.6111813398026
 30
0.0
 11
147.8036769043582
 21
410.6111813398026
 31
0.0
  0
LINE
  5
2A8
330
6C
100
AcDbEntity
  8
Mittelpunktmarkierung(DIN)
  6
Continuous
100
AcDbLine
 10
152.8036769043582
 20
415.6111813398026
 30
0.0
 11
152.8036769043582
 21
389.3917261214582
 31
0.0
  0
LINE
  5
2A9
330
6C
100
AcDbEntity
  8
Mittelpunktmarkierung(DIN)
  6
Continuous
100
AcDbLine
 10
157.8036769043583
 20
410.6111813398026
 30
0.0
 11
131.5536769043582
 21
410.6111813398026
 31
0.0
  0
LINE
  5
2AA
330
6C
100
AcDbEntity
  8
Mittelpunktmarkierung(DIN)
  6
Continuous
100
AcDbLine
 10
152.8036769043582
 20
415.6111813398026
 30
0.0
 11
152.8036769043582
 21
405.6111813398025
 31
0.0
  0
LINE
  5
2AB
330
6C
100
AcDbEntity
  8
Mittelpunktmarkierung(DIN)
  6
Continuous
100
AcDbLine
 10
174.0536769043583
 20
410.6111813398026
 30
0.0
 11
147.8036769043582
 21
410.6111813398026
 31
0.0
  0
LINE
  5
2AC
330
6C
100
AcDbEntity
  8
Mittelpunktmarkierung(DIN)
  6
Continuous
100
AcDbLine
 10
152.8036769043582
 20
415.6111813398026
 30
0.0
 11
152.8036769043582
 21
405.6111813398025
 31
0.0
  0
LINE
  5
2AD
330
6C
100
AcDbEntity
  8
Mittelpunktmarkierung(DIN)
  6
Continuous
100
AcDbLine
 10
162.5536769043582
 20
405.5111813398026
 30
0.0
 11
143.0536769043582
 21
405.5111813398026
 31
0.0
  0
LINE
  5
2AE
330
6C
100
AcDbEntity
  8
Mittelpunktmarkierung(DIN)
  6
Continuous
100
AcDbLine
 10
152.8036769043582
 20
415.2611813398027
 30
0.0
 11
152.8036769043582
 21
395.7611813398027
 31
0.0
  0
LINE
  5
2AF
330
6C
100
AcDbEntity
  8
Mittelpunktmarkierung(DIN)
  6
Continuous
100
AcDbLine
 10
300.1502279300877
 20
430.5111813398026
 30
0.0
 11
137.2036769043582
 21
430.5111813398026
 31
0.0
  0
LINE
  5
2B0
330
6C
100
AcDbEntity
  8
Mittelpunktmarkierung(DIN)
  6
Continuous
100
AcDbLine
 10
152.8036769043582
 20
446.1111813398026
 30
0.0
 11
152.8036769043582
 21
414.9111813398024
 31
0.0
  0
DIMENSION
  5
2B1
330
6C
100
AcDbEntity
  8
Bemaßungen(DIN)
  6
Continuous
 62
   250
420
  4144959
370
    25
100
AcDbDimension
  2
*D17
 10
88.70300411808583
 20
394.3917261214581
 30
0.0
 11
88.70300411808578
 21
430.5064537306303
 31
0.0
 70
   160
  1
<>
 71
     5
 42
72.26945521834455
 73
     0
 74
     0
 75
     0
  3
STANDARD-DIN - Methode 2b
100
AcDbAlignedDimension
 13
152.8036769043582
 23
466.6611813398026
 33
0.0
 14
152.8036769043582
 24
394.3917261214581
 34
0.0
 50
90.0
100
AcDbRotatedDimension
1001
ACAD
1000
DSTYLE
1002
{
1070
   172
1070
     0
1070
   289
1070
     1
1070
   271
1070
     0
1070
   272
1070
     2
1070
    48
1040
0.0
1070
    47
1040
0.0
1002
}
  0
DIMENSION
  5
394
330
6C
100
AcDbEntity
  8
Bemaßungen(DIN)
  6
Continuous
 62
   250
420
  4144959
370
    25
100
AcDbDimension
  2
*D18
 10
112.7030041180858
 20
405.5111813398027
 30
0.0
 11
112.7030041180858
 21
430.4911813398025
 31
0.0
 70
   160
  1
<>
 71
     5
 42
49.99999999999989
 73
     0
 74
     0
 75
     0
  3
STANDARD-DIN - Methode 2b
100
AcDbAlignedDimension
 13
143.100920475838
 23
455.5111813398024
 33
0.0
 14
143.0536769043582
 24
405.5111813398026
 34
0.0
 50
90.0
100
AcDbRotatedDimension
1001
ACAD
1000
DSTYLE
1002
{
1070
   172
1070
     0
1070
   289
1070
     1
1070
   271
1070
     2
1070
   272
1070
     2
1070
    48
1040
0.0
1070
    47
1040
0.0
1002
}
  0
DIMENSION
  5
476
330
6C
100
AcDbEntity
  8
Bemaßungen(DIN)
  6
Continuous
 62
   250
420
  4144959
370
    25
100
AcDbDimension
  2
*D19
 10
169.0536769043583
 20
488.711988460686
 30
0.0
 11
152.7636769043582
 21
488.711988460686
 31
0.0
 70
   160
  1
<>
 71
     5
 42
32.50000000000014
 73
     0
 74
     0
 75
     0
  3
STANDARD-DIN - Methode 2b
100
AcDbAlignedDimension
 13
136.5536769043582
 23
450.4111813398024
 33
0.0
 14
169.0536769043583
 24
450.4111813398024
 34
0.0
 50
180.0
100
AcDbRotatedDimension
1001
ACAD
1000
DSTYLE
1002
{
1070
   172
1070
     0
1070
   289
1070
     1
1070
   271
1070
     2
1070
   272
1070
     2
1070
    48
1040
0.0
1070
    47
1040
0.0
1002
}
  0
DIMENSION
  5
558
330
6C
100
AcDbEntity
  8
Bemaßungen(DIN)
  6
Continuous
 62
   250
420
  4144959
370
    25
100
AcDbDimension
  2
*D20
 10
294.2333708473121
 20
370.5105085535302
 30
0.0
 11
223.5385238758352
 21
370.5105085535302
 31
0.0
 70
   160
  1
<>
 71
     5
 42
141.4296939429538
 73
     0
 74
     0
 75
     0
  3
STANDARD-DIN - Methode 2b
100
AcDbAlignedDimension
 13
152.8036769043582
 23
414.9111813398024
 33
0.0
 14
294.2333708473121
 24
421.069707543373
 34
0.0
 50
180.0
100
AcDbRotatedDimension
1001
ACAD
1000
DSTYLE
1002
{
1070
   172
1070
     0
1070
   289
1070
     1
1070
   271
1070
     0
1070
   272
1070
     2
1070
    48
1040
0.0
1070
    47
1040
0.0
1002
}
  0
DIMENSION
  5
63A
330
6C
100
AcDbEntity
  8
Bemaßungen(DIN)
  6
Continuous
 62
   250
420
  4144959
370
    25
100
AcDbDimension
  2
*D21
 10
88.70300411808583
 20
254.6664580583609
 30
0.0
 11
88.70300411808578
 21
227.5664580583592
 31
0.0
 70
   160
  1
<>
 71
     5
 42
55.5
 73
     0
 74
     0
 75
     0
  3
STANDARD-DIN - Methode 2b
100
AcDbAlignedDimension
 13
185.6536769043102
 23
200.4664580583576
 33
0.0
 14
138.5028697834265
 24
254.6664580583609
 34
0.0
 50
270.0
100
AcDbRotatedDimension
1001
ACAD
1000
DSTYLE
1002
{
1070
   172
1070
     0
1070
   289
1070
     1
1070
   271
1070
     2
1070
   144
1040
1.023985239852339
1070
   272
1070
     2
1070
    48
1040
0.0
1070
    47
1040
0.0
1002
}
  0
DIMENSION
  5
725
330
6C
100
AcDbEntity
  8
Bemaßungen(DIN)
  6
Continuous
 62
   250
420
  4144959
370
    25
100
AcDbDimension
  2
*D22
 10
88.70300411808583
 20
254.6664580583609
 30
0.0
 11
88.70300411808578
 21
261.6664580583608
 31
0.0
 70
   160
  1
<>
 71
     5
 42
14.00000000000003
 73
     0
 74
     1
 75
     1
  3
STANDARD-DIN - Methode 2b
100
AcDbAlignedDimension
 13
136.5536769043101
 23
268.6664580583608
 33
0.0
 14
138.5028697834266
 24
254.6664580583609
 34
0.0
 50
90.0
100
AcDbRotatedDimension
1001
ACAD
1000
DSTYLE
1002
{
1070
   172
1070
     0
1070
   271
1070
     2
1070
   272
1070
     2
1070
    48
1040
0.0
1070
    47
1040
0.0
1002
}
  0
DIMENSION
  5
811
330
6C
100
AcDbEntity
  8
Bemaßungen(DIN)
  6
Continuous
 62
   250
420
  4144959
370
    25
100
AcDbDimension
  2
*D23
 10
294.189675603227
 20
176.4664580583575
 30
0.0
 11
218.5166762537686
 21
176.4664580583575
 31
0.0
 70
   160
  1
<>
 71
     5
 42
151.3859986989168
 73
     0
 74
     0
 75
     0
  3
STANDARD-DIN - Methode 2b
100
AcDbAlignedDimension
 13
142.8036769043101
 23
221.9664580583549
 33
0.0
 14
294.189675603227
 24
238.3453537330073
 34
0.0
 50
180.0
100
AcDbRotatedDimension
1001
ACAD
1000
DSTYLE
1002
{
1070
   172
1070
     0
1070
   289
1070
     1
1070
   271
1070
     0
1070
   272
1070
     2
1070
    48
1040
0.0
1070
    47
1040
0.0
1002
}
  0
DIMENSION
  5
8F3
330
6C
100
AcDbEntity
  8
Bemaßungen(DIN)
  6
Continuous
 62
   250
420
  4144959
370
    25
100
AcDbDimension
  2
*D24
 10
245.6569912425645
 20
241.0647119845042
 30
0.0
 11
245.6569912425644
 21
247.8655850214325
 31
0.0
 70
   160
  1
<>
 71
     5
 42
13.60174607385653
 73
     0
 74
     1
 75
     1
  3
STANDARD-DIN - Methode 2b
100
AcDbAlignedDimension
 13
167.1044840251938
 23
254.6664580583609
 33
0.0
 14
289.1287455518634
 24
241.0647119845042
 34
0.0
 50
90.0
100
AcDbRotatedDimension
1001
ACAD
1000
DSTYLE
1002
{
1070
   172
1070
     0
1070
   271
1070
     0
1070
   272
1070
     2
1070
    48
1040
0.0
1070
    47
1040
0.0
1002
}
  0
LINE
  5
9E0
330
6C
100
AcDbEntity
  8
Skizziergeometrie(DIN)
100
AcDbLine
 10
142.8035796012774
 20
249.5456583705737
 30
0.0
 11
142.8035796012774
 21
243.7882562002822
 31
0.0
  0
MTEXT
  5
9E1
330
6C
100
AcDbEntity
  8
Symbole(DIN)
 62
   179
420
  2500185
100
AcDbMText
 10
340.7812433256002
 20
83.32018702853082
 30
0.0
 40
6.99999988079071
 41
27.18369007110596
 46
0.0
 71
     1
 72
     1
  1
{50056}
  7
Aktuell-DIN
 73
     1
 44
1.0
  0
LINE
  5
9E2
330
6C
100
AcDbEntity
  8
Mittellinie(DIN)
  6
Continuous
100
AcDbLine
 10
152.8036282527939
 20
287.3677861460009
 30
0.0
 11
152.8036282527938
 21
216.0715073811139
 31
0.0
  0
DIMENSION
  5
9E3
330
6C
100
AcDbEntity
  8
Bemaßungen(DIN)
  6
Continuous
 62
   250
420
  4144959
370
    25
100
AcDbDimension
  2
*D25
 10
318.1163184401712
 20
420.5111813398024
 30
0.0
 11
318.1163184401711
 21
430.5311813398025
 31
0.0
 70
   160
  1
<>
 71
     5
 42
20.0
 73
     0
 74
     0
 75
     0
  3
STANDARD-DIN - Methode 2b
100
AcDbAlignedDimension
 13
293.6748446437416
 23
440.5111813398026
 33
0.0
 14
293.6748446437416
 24
420.5111813398024
 34
0.0
 50
90.0
100
AcDbRotatedDimension
1001
ACAD
1000
DSTYLE
1002
{
1070
   172
1070
     0
1070
   289
1070
     1
1070
   271
1070
     2
1070
   272
1070
     2
1070
    48
1040
0.0
1070
    47
1040
0.0
1002
}
  0
DIMENSION
  5
AC5
330
6C
100
AcDbEntity
  8
Bemaßungen(DIN)
  6
Continuous
 62
   250
420
  4144959
370
    25
100
AcDbDimension
  2
*D26
 10
318.1163184401711
 20
241.0647119845042
 30
0.0
 11
318.1163184401711
 21
220.7655850214309
 31
0.0
 70
   160
  1
<>
 71
     5
 42
40.5982539261466
 73
     0
 74
     0
 75
     0
  3
STANDARD-DIN - Methode 2b
100
AcDbAlignedDimension
 13
262.3636192192215
 23
200.4664580583576
 33
0.0
 14
289.1287455518634
 24
241.0647119845042
 34
0.0
 50
270.0
100
AcDbRotatedDimension
1001
ACAD
1000
DSTYLE
1002
{
1070
   172
1070
     0
1070
   289
1070
     1
1070
   271
1070
     2
1070
   272
1070
     2
1070
    48
1040
0.0
1070
    47
1040
0.0
1002
}
  0
DIMENSION
  5
BA7
330
6C
100
AcDbEntity
  8
Bemaßungen(DIN)
  6
Continuous
 62
   250
420
  4144959
370
    25
100
AcDbDimension
  2
*D27
 10
112.7030041180858
 20
254.6664580583609
 30
0.0
 11
112.7030041180858
 21
238.0664580583592
 31
0.0
 70
   160
  1
<>
 71
     5
 42
33.20000000000312
 73
     0
 74
     0
 75
     0
  3
STANDARD-DIN - Methode 2b
100
AcDbAlignedDimension
 13
152.8036769043102
 23
221.4664580583577
 33
0.0
 14
138.5028697834265
 24
254.6664580583609
 34
0.0
 50
270.0
100
AcDbRotatedDimension
1001
ACAD
1000
DSTYLE
1002
{
1070
   172
1070
     0
1070
   289
1070
     1
1070
   271
1070
     0
1070
   272
1070
     2
1070
    48
1040
0.0
1070
    47
1040
0.0
1002
}
  0
ENDSEC
  0
SECTION
  2
OBJECTS
  0
DICTIONARY
  5
C
330
0
100
AcDbDictionary
281
     1
  3
ACAD_CIP_PREVIOUS_PRODUCT_INFO
350
C89
  3
ACAD_COLOR
350
63
  3
ACAD_GROUP
350
D
  3
ACAD_LAYOUT
350
62
  3
ACAD_MATERIAL
350
10
  3
ACAD_MLEADERSTYLE
350
66
  3
ACAD_MLINESTYLE
350
5F
  3
ACAD_PLOTSETTINGS
350
61
  3
ACAD_PLOTSTYLENAME
350
E
  3
ACAD_SCALELIST
350
42
  3
ACAD_TABLESTYLE
350
64
  3
ACAD_VISUALSTYLE
350
29
  3
ACDB_RECOMPOSE_DATA
350
CE3
  3
AcDbVariableDictionary
350
C8A
  0
DICTIONARY
  5
C94
330
193
100
AcDbDictionary
280
     1
281
     1
  3
ACAD_MLATT
360
CDC
  3
ACAD_XREC_ROUNDTRIP
360
CDB
  0
DICTIONARY
  5
C97
330
196
100
AcDbDictionary
280
     1
281
     1
  3
ACAD_MLATT
360
CDE
  3
ACAD_XREC_ROUNDTRIP
360
CDD
  0
DICTIONARY
  5
C9A
330
197
100
AcDbDictionary
280
     1
281
     1
  3
ACAD_MLATT
360
CE0
  3
ACAD_XREC_ROUNDTRIP
360
CDF
  0
DICTIONARY
  5
C9D
330
198
100
AcDbDictionary
280
     1
281
     1
  3
ACAD_MLATT
360
CE2
  3
ACAD_XREC_ROUNDTRIP
360
CE1
  0
XRECORD
  5
C89
102
{ACAD_REACTORS
330
C
102
}
330
C
100
AcDbXrecord
280
     1
300
INVNTOR
300
2012
300
PDSP_F_S
  0
DICTIONARY
  5
63
102
{ACAD_REACTORS
330
C
102
}
330
C
100
AcDbDictionary
281
     1
  0
DICTIONARY
  5
D
102
{ACAD_REACTORS
330
C
102
}
330
C
100
AcDbDictionary
281
     1
  0
DICTIONARY
  5
62
102
{ACAD_REACTORS
330
C
102
}
330
C
100
AcDbDictionary
281
     1
  3
Layout1
350
6B
  3
Layout2
350
73
  3
Model
350
6F
  0
DICTIONARY
  5
10
102
{ACAD_REACTORS
330
C
102
}
330
C
100
AcDbDictionary
281
     1
  3
ByBlock
350
19
  3
ByLayer
350
11
  3
Global
350
21
  0
DICTIONARY
  5
66
102
{ACAD_REACTORS
330
C
102
}
330
C
100
AcDbDictionary
281
     1
  3
Standard
350
67
  0
DICTIONARY
  5
5F
102
{ACAD_REACTORS
330
C
102
}
330
C
100
AcDbDictionary
281
     1
  3
Standard
350
60
  0
DICTIONARY
  5
61
102
{ACAD_REACTORS
330
C
102
}
330
C
100
AcDbDictionary
281
     1
  0
ACDBDICTIONARYWDFLT
  5
E
102
{ACAD_REACTORS
330
C
102
}
330
C
100
AcDbDictionary
281
     1
  3
Normal
350
F
100
AcDbDictionaryWithDefault
340
F
  0
DICTIONARY
  5
42
102
{ACAD_REACTORS
330
C
102
}
330
C
100
AcDbDictionary
281
     1
  3
A0
350
43
  3
A1
350
44
  3
A2
350
45
  3
A3
350
46
  3
A4
350
47
  3
A5
350
48
  3
A6
350
49
  3
A7
350
4A
  3
A8
350
4B
  3
A9
350
4C
  3
B0
350
4D
  3
B1
350
4E
  3
B2
350
4F
  3
B3
350
50
  3
B4
350
51
  3
B5
350
52
  3
B6
350
53
  0
DICTIONARY
  5
64
102
{ACAD_REACTORS
330
C
102
}
330
C
100
AcDbDictionary
281
     1
  3
Standard
350
65
  0
DICTIONARY
  5
29
102
{ACAD_REACTORS
330
C
102
}
330
C
100
AcDbDictionary
281
     1
  3
2dWireframe
350
2F
  3
Basic
350
2E
  3
Brighten
350
35
  3
ColorChange
350
39
  3
Conceptual
350
32
  3
Dim
350
34
  3
EdgeColorOff
350
41
  3
Facepattern
350
38
  3
Flat
350
2A
  3
FlatWithEdges
350
2B
  3
Gouraud
350
2C
  3
GouraudWithEdges
350
2D
  3
Hidden
350
31
  3
JitterOff
350
3F
  3
Linepattern
350
37
  3
OverhangOff
350
40
  3
Realistic
350
33
  3
Shaded
350
3E
  3
Shaded with edges
350
3D
  3
Shades of Gray
350
3A
  3
Sketchy
350
3B
  3
Thicken
350
36
  3
Wireframe
350
30
  3
X-Ray
350
3C
  0
XRECORD
  5
CE3
102
{ACAD_REACTORS
330
C
102
}
330
C
100
AcDbXrecord
280
     1
 90
        1
330
65
330
193
330
196
330
197
330
198
  0
DICTIONARY
  5
C8A
102
{ACAD_REACTORS
330
C
102
}
330
C
100
AcDbDictionary
281
     1
  3
CANNOSCALE
350
C8D
  3
CMLEADERSTYLE
350
C8C
  3
CTABLESTYLE
350
C8B
  3
XCLIPFRAME
350
CD5
  0
XRECORD
  5
CDC
102
{ACAD_REACTORS
330
C94
102
}
330
C94
100
AcDbXrecord
280
     1
 70
     4
 70
     0
 70
     0
 40
1.0
  2
Innenkante_obere_Grenze
  1
Embedded Object
 10
28.19096644559973
 20
16.62519294726898
 30
0.0
 40
3.499999940395355
 41
0.0
 46
0.0
 71
     1
 72
     5
  1
\W0.9000;-1
  7
Textstil122
 73
     1
 44
1.0
  0
XRECORD
  5
CDB
102
{ACAD_REACTORS
330
C94
102
}
330
C94
100
AcDbXrecord
280
     1
102
ACAD_MATT_HEIGHT
140
3.499999940395355
  0
XRECORD
  5
CDE
102
{ACAD_REACTORS
330
C97
102
}
330
C97
100
AcDbXrecord
280
     1
 70
     4
 70
     0
 70
     0
 40
1.0
  2
Innenkante_untere_Grenze
  1
Embedded Object
 10
28.19096644559973
 20
11.62519294726898
 30
0.0
 40
3.499999940395355
 41
0.0
 46
0.0
 71
     1
 72
     5
  1
\W0.9000;-0.25
  7
Textstil122
 73
     1
 44
1.0
  0
XRECORD
  5
CDD
102
{ACAD_REACTORS
330
C97
102
}
330
C97
100
AcDbXrecord
280
     1
102
ACAD_MATT_HEIGHT
140
3.499999940395355
  0
XRECORD
  5
CE0
102
{ACAD_REACTORS
330
C9A
102
}
330
C9A
100
AcDbXrecord
280
     1
 70
     4
 70
     0
 70
     0
 40
1.0
  2
Aussenkante_obere_Grenze
  1
Embedded Object
 10
6.721339289383169
 20
16.62519294726898
 30
0.0
 40
3.499999940395355
 41
7.696662545204162
 46
0.0
 71
     1
 72
     5
  1
\W0.9000;+0.3
  7
Textstil122
 73
     1
 44
1.0
  0
XRECORD
  5
CDF
102
{ACAD_REACTORS
330
C9A
102
}
330
C9A
100
AcDbXrecord
280
     1
102
ACAD_MATT_HEIGHT
140
3.499999940395355
  0
XRECORD
  5
CE2
102
{ACAD_REACTORS
330
C9D
102
}
330
C9D
100
AcDbXrecord
280
     1
 70
     4
 70
     0
 70
     0
 40
1.0
  2
Aussenkante_untere_Grenze
  1
Embedded Object
 10
6.721339289383169
 20
11.62519294726898
 30
0.0
 40
3.499999940395355
 41
0.0
 46
0.0
 71
     1
 72
     5
  1
\W0.9000;+0.1
  7
Textstil122
 73
     1
 44
1.0
  0
XRECORD
  5
CE1
102
{ACAD_REACTORS
330
C9D
102
}
330
C9D
100
AcDbXrecord
280
     1
102
ACAD_MATT_HEIGHT
140
3.499999940395355
  0
LAYOUT
  5
6B
102
{ACAD_REACTORS
330
62
102
}
330
62
100
AcDbPlotSettings
  1

  2

  4

  6

 40
0.0
 41
0.0
 42
0.0
 43
0.0
 44
0.0
 45
0.0
 46
0.0
 47
0.0
 48
0.0
 49
0.0
140
0.0
141
0.0
142
1.0
143
1.0
 70
   688
 72
     0
 73
     0
 74
     5
  7

 75
    16
147
1.0
 76
     0
 77
     2
 78
   300
148
0.0
149
0.0
100
AcDbLayout
  1
Layout1
 70
     1
 71
     1
 10
0.0
 20
0.0
 11
12.0
 21
9.0
 12
0.0
 22
0.0
 32
0.0
 14
0.0
 24
0.0
 34
0.0
 15
0.0
 25
0.0
 35
0.0
146
0.0
 13
0.0
 23
0.0
 33
0.0
 16
1.0
 26
0.0
 36
0.0
 17
0.0
 27
1.0
 37
0.0
 76
     0
330
68
  0
LAYOUT
  5
73
102
{ACAD_REACTORS
330
62
102
}
330
62
100
AcDbPlotSettings
  1

  2

  4

  6

 40
0.0
 41
0.0
 42
0.0
 43
0.0
 44
0.0
 45
0.0
 46
0.0
 47
0.0
 48
0.0
 49
0.0
140
0.0
141
0.0
142
1.0
143
1.0
 70
   688
 72
     0
 73
     0
 74
     5
  7

 75
    16
147
1.0
 76
     0
 77
     2
 78
   300
148
0.0
149
0.0
100
AcDbLayout
  1
Layout2
 70
     1
 71
     2
 10
0.0
 20
0.0
 11
12.0
 21
9.0
 12
0.0
 22
0.0
 32
0.0
 14
0.0
 24
0.0
 34
0.0
 15
0.0
 25
0.0
 35
0.0
146
0.0
 13
0.0
 23
0.0
 33
0.0
 16
1.0
 26
0.0
 36
0.0
 17
0.0
 27
1.0
 37
0.0
 76
     0
330
70
  0
LAYOUT
  5
6F
102
{ACAD_REACTORS
330
62
102
}
330
62
100
AcDbPlotSettings
  1

  2

  4

  6

 40
0.0
 41
0.0
 42
0.0
 43
0.0
 44
0.0
 45
0.0
 46
0.0
 47
0.0
 48
0.0
 49
0.0
140
0.0
141
0.0
142
1.0
143
1.0
 70
  1712
 72
     0
 73
     0
 74
     0
  7

 75
     0
147
1.0
 76
     0
 77
     2
 78
   300
148
0.0
149
0.0
100
AcDbLayout
  1
Model
 70
     1
 71
     0
 10
0.0
 20
0.0
 11
12.0
 21
9.0
 12
0.0
 22
0.0
 32
0.0
 14
0.0
 24
0.0
 34
0.0
 15
0.0
 25
0.0
 35
0.0
146
0.0
 13
0.0
 23
0.0
 33
0.0
 16
1.0
 26
0.0
 36
0.0
 17
0.0
 27
1.0
 37
0.0
 76
     0
330
6C
  0
MATERIAL
  5
19
102
{ACAD_XDICTIONARY
360
1A
102
}
102
{ACAD_REACTORS
330
10
102
}
330
10
100
AcDbMaterial
  1
ByBlock
 72
     0
 43
0.0208333333333333
 43
0.0
 43
0.0
 43
0.0
 43
0.0
 43
0.0208333333333333
 43
0.0
 43
0.0
 43
0.0
 43
0.0
 43
1.0
 43
0.0
 43
0.0
 43
0.0
 43
0.0
 43
1.0
 77
     0
 47
0.0208333333333333
 47
0.0
 47
0.0
 47
0.0
 47
0.0
 47
0.0208333333333333
 47
0.0
 47
0.0
 47
0.0
 47
0.0
 47
1.0
 47
0.0
 47
0.0
 47
0.0
 47
0.0
 47
1.0
171
     0
 49
0.0208333333333333
 49
0.0
 49
0.0
 49
0.0
 49
0.0
 49
0.0208333333333333
 49
0.0
 49
0.0
 49
0.0
 49
0.0
 49
1.0
 49
0.0
 49
0.0
 49
0.0
 49
0.0
 49
1.0
175
     0
142
0.0208333333333333
142
0.0
142
0.0
142
0.0
142
0.0
142
0.0208333333333333
142
0.0
142
0.0
142
0.0
142
0.0
142
1.0
142
0.0
142
0.0
142
0.0
142
0.0
142
1.0
179
     0
144
0.0208333333333333
144
0.0
144
0.0
144
0.0
144
0.0
144
0.0208333333333333
144
0.0
144
0.0
144
0.0
144
0.0
144
1.0
144
0.0
144
0.0
144
0.0
144
0.0
144
1.0
147
0.0208333333333333
147
0.0
147
0.0
147
0.0
147
0.0
147
0.0208333333333333
147
0.0
147
0.0
147
0.0
147
0.0
147
1.0
147
0.0
147
0.0
147
0.0
147
0.0
147
1.0
  0
MATERIAL
  5
11
102
{ACAD_XDICTIONARY
360
12
102
}
102
{ACAD_REACTORS
330
10
102
}
330
10
100
AcDbMaterial
  1
ByLayer
 72
     0
 43
0.0208333333333333
 43
0.0
 43
0.0
 43
0.0
 43
0.0
 43
0.0208333333333333
 43
0.0
 43
0.0
 43
0.0
 43
0.0
 43
1.0
 43
0.0
 43
0.0
 43
0.0
 43
0.0
 43
1.0
 77
     0
 47
0.0208333333333333
 47
0.0
 47
0.0
 47
0.0
 47
0.0
 47
0.0208333333333333
 47
0.0
 47
0.0
 47
0.0
 47
0.0
 47
1.0
 47
0.0
 47
0.0
 47
0.0
 47
0.0
 47
1.0
171
     0
 49
0.0208333333333333
 49
0.0
 49
0.0
 49
0.0
 49
0.0
 49
0.0208333333333333
 49
0.0
 49
0.0
 49
0.0
 49
0.0
 49
1.0
 49
0.0
 49
0.0
 49
0.0
 49
0.0
 49
1.0
175
     0
142
0.0208333333333333
142
0.0
142
0.0
142
0.0
142
0.0
142
0.0208333333333333
142
0.0
142
0.0
142
0.0
142
0.0
142
1.0
142
0.0
142
0.0
142
0.0
142
0.0
142
1.0
179
     0
144
0.0208333333333333
144
0.0
144
0.0
144
0.0
144
0.0
144
0.0208333333333333
144
0.0
144
0.0
144
0.0
144
0.0
144
1.0
144
0.0
144
0.0
144
0.0
144
0.0
144
1.0
147
0.0208333333333333
147
0.0
147
0.0
147
0.0
147
0.0
147
0.0208333333333333
147
0.0
147
0.0
147
0.0
147
0.0
147
1.0
147
0.0
147
0.0
147
0.0
147
0.0
147
1.0
  0
MATERIAL
  5
21
102
{ACAD_XDICTIONARY
360
22
102
}
102
{ACAD_REACTORS
330
10
102
}
330
10
100
AcDbMaterial
  1
Global
 72
     0
 43
0.0208333333333333
 43
0.0
 43
0.0
 43
0.0
 43
0.0
 43
0.0208333333333333
 43
0.0
 43
0.0
 43
0.0
 43
0.0
 43
1.0
 43
0.0
 43
0.0
 43
0.0
 43
0.0
 43
1.0
 77
     0
 47
0.0208333333333333
 47
0.0
 47
0.0
 47
0.0
 47
0.0
 47
0.0208333333333333
 47
0.0
 47
0.0
 47
0.0
 47
0.0
 47
1.0
 47
0.0
 47
0.0
 47
0.0
 47
0.0
 47
1.0
171
     0
 49
0.0208333333333333
 49
0.0
 49
0.0
 49
0.0
 49
0.0
 49
0.0208333333333333
 49
0.0
 49
0.0
 49
0.0
 49
0.0
 49
1.0
 49
0.0
 49
0.0
 49
0.0
 49
0.0
 49
1.0
175
     0
142
0.0208333333333333
142
0.0
142
0.0
142
0.0
142
0.0
142
0.0208333333333333
142
0.0
142
0.0
142
0.0
142
0.0
142
1.0
142
0.0
142
0.0
142
0.0
142
0.0
142
1.0
179
     0
144
0.0208333333333333
144
0.0
144
0.0
144
0.0
144
0.0
144
0.0208333333333333
144
0.0
144
0.0
144
0.0
144
0.0
144
1.0
144
0.0
144
0.0
144
0.0
144
0.0
144
1.0
147
0.0208333333333333
147
0.0
147
0.0
147
0.0
147
0.0
147
0.0208333333333333
147
0.0
147
0.0
147
0.0
147
0.0
147
1.0
147
0.0
147
0.0
147
0.0
147
0.0
147
1.0
  0
MLEADERSTYLE
  5
67
102
{ACAD_XDICTIONARY
360
CD7
102
}
102
{ACAD_REACTORS
330
66
102
}
330
66
100
AcDbMLeaderStyle
170
     2
171
     1
172
     0
 90
        2
 40
0.0
 41
0.0
173
     1
 91
-1056964608
340
5B
 92
       -2
290
     1
 42
0.09
291
     1
 43
0.36
  3
Standard
 44
0.18
300

342
55
174
     1
178
     6
175
     1
176
     0
 93
-1056964608
 45
0.18
292
     0
297
     0
 46
0.18
 94
-1056964608
 47
1.0
 49
1.0
140
1.0
293
     1
141
0.0
294
     1
177
     0
142
1.0
295
     0
296
     0
143
0.125
1001
ACAD_MLEADERVER
1070
     2
  0
MLINESTYLE
  5
60
102
{ACAD_REACTORS
330
5F
102
}
330
5F
100
AcDbMlineStyle
  2
STANDARD
 70
     0
  3

 62
   256
 51
90.0
 52
90.0
 71
     2
 49
0.5
 62
   256
  6
BYLAYER
 49
-0.5
 62
   256
  6
BYLAYER
  0
ACDBPLACEHOLDER
  5
F
102
{ACAD_REACTORS
330
E
102
}
330
E
  0
SCALE
  5
43
102
{ACAD_REACTORS
330
42
102
}
330
42
100
AcDbScale
 70
     0
300
1:1
140
1.0
141
1.0
290
     1
  0
SCALE
  5
44
102
{ACAD_REACTORS
330
42
102
}
330
42
100
AcDbScale
 70
     0
300
1/128" = 1'-0"
140
0.0078125
141
12.0
290
     0
  0
SCALE
  5
45
102
{ACAD_REACTORS
330
42
102
}
330
42
100
AcDbScale
 70
     0
300
1/64" = 1'-0"
140
0.015625
141
12.0
290
     0
  0
SCALE
  5
46
102
{ACAD_REACTORS
330
42
102
}
330
42
100
AcDbScale
 70
     0
300
1/32" = 1'-0"
140
0.03125
141
12.0
290
     0
  0
SCALE
  5
47
102
{ACAD_REACTORS
330
42
102
}
330
42
100
AcDbScale
 70
     0
300
1/16" = 1'-0"
140
0.0625
141
12.0
290
     0
  0
SCALE
  5
48
102
{ACAD_REACTORS
330
42
102
}
330
42
100
AcDbScale
 70
     0
300
3/32" = 1'-0"
140
0.09375
141
12.0
290
     0
  0
SCALE
  5
49
102
{ACAD_REACTORS
330
42
102
}
330
42
100
AcDbScale
 70
     0
300
1/8" = 1'-0"
140
0.125
141
12.0
290
     0
  0
SCALE
  5
4A
102
{ACAD_REACTORS
330
42
102
}
330
42
100
AcDbScale
 70
     0
300
3/16" = 1'-0"
140
0.1875
141
12.0
290
     0
  0
SCALE
  5
4B
102
{ACAD_REACTORS
330
42
102
}
330
42
100
AcDbScale
 70
     0
300
1/4" = 1'-0"
140
0.25
141
12.0
290
     0
  0
SCALE
  5
4C
102
{ACAD_REACTORS
330
42
102
}
330
42
100
AcDbScale
 70
     0
300
3/8" = 1'-0"
140
0.375
141
12.0
290
     0
  0
SCALE
  5
4D
102
{ACAD_REACTORS
330
42
102
}
330
42
100
AcDbScale
 70
     0
300
1/2" = 1'-0"
140
0.5
141
12.0
290
     0
  0
SCALE
  5
4E
102
{ACAD_REACTORS
330
42
102
}
330
42
100
AcDbScale
 70
     0
300
3/4" = 1'-0"
140
0.75
141
12.0
290
     0
  0
SCALE
  5
4F
102
{ACAD_REACTORS
330
42
102
}
330
42
100
AcDbScale
 70
     0
300
1" = 1'-0"
140
1.0
141
12.0
290
     0
  0
SCALE
  5
50
102
{ACAD_REACTORS
330
42
102
}
330
42
100
AcDbScale
 70
     0
300
1-1/2" = 1'-0"
140
1.5
141
12.0
290
     0
  0
SCALE
  5
51
102
{ACAD_REACTORS
330
42
102
}
330
42
100
AcDbScale
 70
     0
300
3" = 1'-0"
140
3.0
141
12.0
290
     0
  0
SCALE
  5
52
102
{ACAD_REACTORS
330
42
102
}
330
42
100
AcDbScale
 70
     0
300
6" = 1'-0"
140
6.0
141
12.0
290
     0
  0
SCALE
  5
53
102
{ACAD_REACTORS
330
42
102
}
330
42
100
AcDbScale
 70
     0
300
1'-0" = 1'-0"
140
12.0
141
12.0
290
     0
  0
TABLESTYLE
  5
65
102
{ACAD_XDICTIONARY
360
C8F
102
}
102
{ACAD_REACTORS
330
64
102
}
330
64
100
AcDbTableStyle
  3
Standard
 70
     0
 71
     0
 40
0.06
 41
0.06
280
     0
281
     0
  7
Standard
140
0.18
170
     2
 62
     0
 63
     7
283
     0
 90
      512
 91
        0
  1

274
    -2
284
     1
 64
     0
275
    -2
285
     1
 65
     0
276
    -2
286
     1
 66
     0
277
    -2
287
     1
 67
     0
278
    -2
288
     1
 68
     0
279
    -2
289
     1
 69
     0
  7
Standard
140
0.25
170
     5
 62
     0
 63
     7
283
     0
 90
      512
 91
        0
  1

274
    -2
284
     1
 64
     0
275
    -2
285
     1
 65
     0
276
    -2
286
     1
 66
     0
277
    -2
287
     1
 67
     0
278
    -2
288
     1
 68
     0
279
    -2
289
     1
 69
     0
  7
Standard
140
0.18
170
     5
 62
     0
 63
     7
283
     0
 90
      512
 91
        0
  1

274
    -2
284
     1
 64
     0
275
    -2
285
     1
 65
     0
276
    -2
286
     1
 66
     0
277
    -2
287
     1
 67
     0
278
    -2
288
     1
 68
     0
279
    -2
289
     1
 69
     0
  0
VISUALSTYLE
  5
2F
102
{ACAD_XDICTIONARY
360
CEE
102
}
102
{ACAD_REACTORS
330
29
102
}
330
29
100
AcDbVisualStyle
  2

 70
     4
 71
     0
 72
     2
 73
     0
 90
        0
 40
-0.6
 41
-30.0
 62
     5
 63
     7
421
 16777215
 74
     1
 91
        4
 64
     7
 65
   257
 75
     1
175
     1
 42
1.0
 92
        0
 66
   257
 43
1.0
 76
     1
 77
     6
 78
     2
 67
     7
 79
     5
170
     0
171
     0
290
     0
174
     0
 93
        1
 44
0.0
173
     0
291
     0
 45
0.0
1001
ACAD
1000
AcDbSavedByObjectVersion
1070
     0
  0
VISUALSTYLE
  5
2E
102
{ACAD_XDICTIONARY
360
CEC
102
}
102
{ACAD_REACTORS
330
29
102
}
330
29
100
AcDbVisualStyle
  2

 70
     7
 71
     1
 72
     0
 73
     1
 90
        0
 40
-0.6
 41
-30.0
 62
     5
 63
     7
421
 16777215
 74
     0
 91
        4
 64
     7
 65
   257
 75
     1
175
     1
 42
1.0
 92
        8
 66
     7
 43
1.0
 76
     1
 77
     6
 78
     2
 67
     7
 79
     5
170
     0
171
     0
290
     0
174
     0
 93
        1
 44
0.0
173
     0
291
     1
 45
0.0
1001
ACAD
1000
AcDbSavedByObjectVersion
1070
     0
  0
VISUALSTYLE
  5
35
102
{ACAD_XDICTIONARY
360
CFA
102
}
102
{ACAD_REACTORS
330
29
102
}
330
29
100
AcDbVisualStyle
  2

 70
    12
 71
     2
 72
     2
 73
     0
 90
        0
 40
-0.6
 41
-30.0
 62
     5
 63
     7
421
 16777215
 74
     1
 91
        4
 64
     7
 65
   257
 75
     1
175
     1
 42
1.0
 92
        8
 66
     7
 43
1.0
 76
     1
 77
     6
 78
     2
 67
     7
 79
     5
170
     0
171
     0
290
     0
174
     0
 93
        1
 44
50.0
173
     0
291
     1
 45
0.0
1001
ACAD
1000
AcDbSavedByObjectVersion
1070
     0
  0
VISUALSTYLE
  5
39
102
{ACAD_XDICTIONARY
360
D02
102
}
102
{ACAD_REACTORS
330
29
102
}
330
29
100
AcDbVisualStyle
  2

 70
    16
 71
     2
 72
     2
 73
     3
 90
        0
 40
-0.6
 41
-30.0
 62
     5
 63
     8
421
  8421504
 74
     1
 91
        4
 64
     7
 65
   257
 75
     1
175
     1
 42
1.0
 92
        8
 66
     8
424
  8421504
 43
1.0
 76
     1
 77
     6
 78
     2
 67
     7
 79
     5
170
     0
171
     0
290
     0
174
     0
 93
        1
 44
0.0
173
     0
291
     1
 45
0.0
1001
ACAD
1000
AcDbSavedByObjectVersion
1070
     0
  0
VISUALSTYLE
  5
32
102
{ACAD_XDICTIONARY
360
CF4
102
}
102
{ACAD_REACTORS
330
29
102
}
330
29
100
AcDbVisualStyle
  2

 70
     9
 71
     3
 72
     2
 73
     0
 90
        0
 40
-0.6
 41
-30.0
 62
     5
 63
     7
421
 16777215
 74
     2
 91
        2
 64
     7
 65
   257
 75
     1
175
     1
 42
179.0
 92
        8
 66
     7
 43
1.0
 76
     1
 77
     6
 78
     2
 67
     7
 79
     3
170
     0
171
     0
290
     0
174
     0
 93
        1
 44
0.0
173
     0
291
     0
 45
0.0
1001
ACAD
1000
AcDbSavedByObjectVersion
1070
     0
  0
VISUALSTYLE
  5
34
102
{ACAD_XDICTIONARY
360
CF8
102
}
102
{ACAD_REACTORS
330
29
102
}
330
29
100
AcDbVisualStyle
  2

 70
    11
 71
     2
 72
     2
 73
     0
 90
        0
 40
-0.6
 41
-30.0
 62
     5
 63
     7
421
 16777215
 74
     1
 91
        4
 64
     7
 65
   257
 75
     1
175
     1
 42
1.0
 92
        8
 66
     7
 43
1.0
 76
     1
 77
     6
 78
     2
 67
     7
 79
     5
170
     0
171
     0
290
     0
174
     0
 93
        1
 44
-50.0
173
     0
291
     1
 45
0.0
1001
ACAD
1000
AcDbSavedByObjectVersion
1070
     0
  0
VISUALSTYLE
  5
41
102
{ACAD_XDICTIONARY
360
D12
102
}
102
{ACAD_REACTORS
330
29
102
}
330
29
100
AcDbVisualStyle
  2

 70
    22
 71
     2
 72
     2
 73
     0
 90
        0
 40
-0.6
 41
-30.0
 62
     5
 63
     7
421
 16777215
 74
     1
 91
        4
 64
     7
 65
   257
 75
     1
175
     1
 42
1.0
 92
        8
 66
     7
 43
1.0
 76
     1
 77
     6
 78
     2
 67
     7
 79
     5
170
     0
171
     0
290
     0
174
     0
 93
        1
 44
0.0
173
     0
291
     1
 45
0.0
1001
ACAD
1000
AcDbSavedByObjectVersion
1070
     0
  0
VISUALSTYLE
  5
38
102
{ACAD_XDICTIONARY
360
D00
102
}
102
{ACAD_REACTORS
330
29
102
}
330
29
100
AcDbVisualStyle
  2

 70
    15
 71
     2
 72
     2
 73
     0
 90
        0
 40
-0.6
 41
-30.0
 62
     5
 63
     7
421
 16777215
 74
     1
 91
        4
 64
     7
 65
   257
 75
     1
175
     1
 42
1.0
 92
        8
 66
     7
 43
1.0
 76
     1
 77
     6
 78
     2
 67
     7
 79
     5
170
     0
171
     0
290
     0
174
     0
 93
        1
 44
0.0
173
     0
291
     1
 45
0.0
1001
ACAD
1000
AcDbSavedByObjectVersion
1070
     0
  0
VISUALSTYLE
  5
2A
102
{ACAD_XDICTIONARY
360
CE4
102
}
102
{ACAD_REACTORS
330
29
102
}
330
29
100
AcDbVisualStyle
  2

 70
     0
 71
     2
 72
     1
 73
     1
 90
        2
 40
-0.6
 41
30.0
 62
     5
 63
     7
421
 16777215
 74
     0
 91
        0
 64
     7
 65
   257
 75
     1
175
     1
 42
1.0
 92
        8
 66
     7
 43
1.0
 76
     1
 77
     6
 78
     2
 67
     7
 79
     5
170
     0
171
     0
290
     0
174
     0
 93
       13
 44
0.0
173
     0
291
     1
 45
0.0
1001
ACAD
1000
AcDbSavedByObjectVersion
1070
     0
  0
VISUALSTYLE
  5
2B
102
{ACAD_XDICTIONARY
360
CE6
102
}
102
{ACAD_REACTORS
330
29
102
}
330
29
100
AcDbVisualStyle
  2

 70
     1
 71
     2
 72
     1
 73
     1
 90
        2
 40
-0.6
 41
30.0
 62
     5
 63
     7
421
 16777215
 74
     1
 91
        0
 64
     7
 65
   257
 75
     1
175
     1
 42
1.0
 92
        0
 66
   257
 43
1.0
 76
     1
 77
     6
 78
     2
 67
     7
 79
     5
170
     0
171
     0
290
     0
174
     0
 93
       13
 44
0.0
173
     0
291
     1
 45
0.0
1001
ACAD
1000
AcDbSavedByObjectVersion
1070
     0
  0
VISUALSTYLE
  5
2C
102
{ACAD_XDICTIONARY
360
CE8
102
}
102
{ACAD_REACTORS
330
29
102
}
330
29
100
AcDbVisualStyle
  2

 70
     2
 71
     2
 72
     2
 73
     1
 90
        2
 40
-0.6
 41
30.0
 62
     5
 63
     7
421
 16777215
 74
     0
 91
        0
 64
     7
 65
   257
 75
     1
175
     1
 42
1.0
 92
        0
 66
     7
 43
1.0
 76
     1
 77
     6
 78
     2
 67
     7
 79
     5
170
     0
171
     0
290
     0
174
     0
 93
       13
 44
0.0
173
     0
291
     1
 45
0.0
1001
ACAD
1000
AcDbSavedByObjectVersion
1070
     0
  0
VISUALSTYLE
  5
2D
102
{ACAD_XDICTIONARY
360
CEA
102
}
102
{ACAD_REACTORS
330
29
102
}
330
29
100
AcDbVisualStyle
  2

 70
     3
 71
     2
 72
     2
 73
     1
 90
        2
 40
-0.6
 41
30.0
 62
     5
 63
     7
421
 16777215
 74
     1
 91
        0
 64
     7
 65
   257
 75
     1
175
     1
 42
1.0
 92
        0
 66
   257
 43
1.0
 76
     1
 77
     6
 78
     2
 67
     7
 79
     5
170
     0
171
     0
290
     0
174
     0
 93
       13
 44
0.0
173
     0
291
     1
 45
0.0
1001
ACAD
1000
AcDbSavedByObjectVersion
1070
     0
  0
VISUALSTYLE
  5
31
102
{ACAD_XDICTIONARY
360
CF2
102
}
102
{ACAD_REACTORS
330
29
102
}
330
29
100
AcDbVisualStyle
  2

 70
     6
 71
     1
 72
     2
 73
     2
 90
        0
 40
-0.6
 41
-30.0
 62
     5
 63
     7
421
 16777215
 74
     2
 91
        2
 64
     7
 65
   257
 75
     2
175
     1
 42
40.0
 92
        0
 66
   257
 43
1.0
 76
     1
 77
     6
 78
     2
 67
     7
 79
     3
170
     0
171
     0
290
     0
174
     0
 93
        1
 44
0.0
173
     0
291
     0
 45
0.0
1001
ACAD
1000
AcDbSavedByObjectVersion
1070
     0
  0
VISUALSTYLE
  5
3F
102
{ACAD_XDICTIONARY
360
D0E
102
}
102
{ACAD_REACTORS
330
29
102
}
330
29
100
AcDbVisualStyle
  2

 70
    20
 71
     2
 72
     2
 73
     0
 90
        0
 40
-0.6
 41
-30.0
 62
     5
 63
     7
421
 16777215
 74
     1
 91
        4
 64
     7
 65
   257
 75
     1
175
     1
 42
1.0
 92
       10
 66
     7
 43
1.0
 76
     1
 77
     6
 78
     2
 67
     7
 79
     5
170
     0
171
     0
290
     0
174
     0
 93
        1
 44
0.0
173
     0
291
     1
 45
0.0
1001
ACAD
1000
AcDbSavedByObjectVersion
1070
     0
  0
VISUALSTYLE
  5
37
102
{ACAD_XDICTIONARY
360
CFE
102
}
102
{ACAD_REACTORS
330
29
102
}
330
29
100
AcDbVisualStyle
  2

 70
    14
 71
     2
 72
     2
 73
     0
 90
        0
 40
-0.6
 41
-30.0
 62
     5
 63
     7
421
 16777215
 74
     1
 91
        4
 64
     7
 65
   257
 75
     7
175
     7
 42
1.0
 92
        8
 66
     7
 43
1.0
 76
     1
 77
     6
 78
     2
 67
     7
 79
     5
170
     0
171
     0
290
     0
174
     0
 93
        1
 44
0.0
173
     0
291
     1
 45
0.0
1001
ACAD
1000
AcDbSavedByObjectVersion
1070
     0
  0
VISUALSTYLE
  5
40
102
{ACAD_XDICTIONARY
360
D10
102
}
102
{ACAD_REACTORS
330
29
102
}
330
29
100
AcDbVisualStyle
  2

 70
    21
 71
     2
 72
     2
 73
     0
 90
        0
 40
-0.6
 41
-30.0
 62
     5
 63
     7
421
 16777215
 74
     1
 91
        4
 64
     7
 65
   257
 75
     1
175
     1
 42
1.0
 92
        9
 66
     7
 43
1.0
 76
     1
 77
     6
 78
     2
 67
     7
 79
     5
170
     0
171
     0
290
     0
174
     0
 93
        1
 44
0.0
173
     0
291
     1
 45
0.0
1001
ACAD
1000
AcDbSavedByObjectVersion
1070
     0
  0
VISUALSTYLE
  5
33
102
{ACAD_XDICTIONARY
360
CF6
102
}
102
{ACAD_REACTORS
330
29
102
}
330
29
100
AcDbVisualStyle
  2

 70
     8
 71
     2
 72
     3
 73
     0
 90
        2
 40
-0.6
 41
30.0
 62
     5
 63
     7
421
 16777215
 74
     0
 91
        0
 64
     7
 65
   257
 75
     1
175
     1
 42
1.0
 92
        8
 66
   257
 43
1.0
 76
     1
 77
     6
 78
     2
 67
     7
 79
     3
170
     0
171
     0
290
     0
174
     0
 93
       13
 44
0.0
173
     0
291
     0
 45
0.0
1001
ACAD
1000
AcDbSavedByObjectVersion
1070
     0
  0
VISUALSTYLE
  5
3E
102
{ACAD_XDICTIONARY
360
D0C
102
}
102
{ACAD_REACTORS
330
29
102
}
330
29
100
AcDbVisualStyle
  2

 70
    27
 71
     2
 72
     2
 73
     1
 90
        2
 40
-0.6
 41
30.0
 62
     5
 63
     7
421
 16777215
 74
     0
 91
        4
 64
     7
 65
   257
 75
     1
175
     1
 42
1.0
 92
        8
 66
   257
 43
1.0
 76
     1
 77
     6
 78
     2
 67
     8
425
  7895160
 79
     3
170
     0
171
     0
290
     0
174
     0
 93
        5
 44
0.0
173
     0
291
     0
 45
0.0
1001
ACAD
1000
AcDbSavedByObjectVersion
1070
     0
  0
VISUALSTYLE
  5
3D
102
{ACAD_XDICTIONARY
360
D0A
102
}
102
{ACAD_REACTORS
330
29
102
}
330
29
100
AcDbVisualStyle
  2

 70
    26
 71
     2
 72
     2
 73
     1
 90
        2
 40
-0.6
 41
30.0
 62
     5
 63
     7
421
 16777215
 74
     1
 91
       10
 64
     7
 65
   257
 75
     2
175
     1
 42
1.0
 92
        8
 66
   257
 43
1.0
 76
     1
 77
     6
 78
     2
 67
     7
 79
     3
170
     0
171
     0
290
     0
174
     0
 93
        5
 44
0.0
173
     0
291
     0
 45
0.0
1001
ACAD
1000
AcDbSavedByObjectVersion
1070
     0
  0
VISUALSTYLE
  5
3A
102
{ACAD_XDICTIONARY
360
D04
102
}
102
{ACAD_REACTORS
330
29
102
}
330
29
100
AcDbVisualStyle
  2

 70
    23
 71
     2
 72
     2
 73
     3
 90
        0
 40
-0.6
 41
-30.0
 62
     5
 63
     7
421
 16777215
 74
     2
 91
        2
 64
     7
 65
     7
 75
     1
175
     1
 42
40.0
 92
        8
 66
     7
 43
1.0
 76
     1
 77
     6
 78
     2
 67
     7
 79
     3
170
     0
171
     0
290
     0
174
     0
 93
        1
 44
0.0
173
     0
291
     0
 45
0.0
1001
ACAD
1000
AcDbSavedByObjectVersion
1070
     0
  0
VISUALSTYLE
  5
3B
102
{ACAD_XDICTIONARY
360
D06
102
}
102
{ACAD_REACTORS
330
29
102
}
330
29
100
AcDbVisualStyle
  2

 70
    24
 71
     1
 72
     2
 73
     2
 90
        0
 40
-0.6
 41
-30.0
 62
     5
 63
     7
421
 16777215
 74
     2
 91
        2
 64
     7
 65
     7
 75
     1
175
     1
 42
40.0
 92
       11
 66
     7
 43
1.0
 76
     1
 77
     6
 78
     2
 67
     7
 79
     6
170
     0
171
     0
290
     0
174
     0
 93
        1
 44
0.0
173
     0
291
     0
 45
0.0
1001
ACAD
1000
AcDbSavedByObjectVersion
1070
     0
  0
VISUALSTYLE
  5
36
102
{ACAD_XDICTIONARY
360
CFC
102
}
102
{ACAD_REACTORS
330
29
102
}
330
29
100
AcDbVisualStyle
  2

 70
    13
 71
     2
 72
     2
 73
     0
 90
        0
 40
-0.6
 41
-30.0
 62
     5
 63
     7
421
 16777215
 74
     1
 91
        4
 64
     7
 65
   257
 75
     1
175
     1
 42
1.0
 92
       12
 66
     7
 43
1.0
 76
     1
 77
     6
 78
     2
 67
     7
 79
     5
170
     0
171
     0
290
     0
174
     0
 93
        1
 44
0.0
173
     0
291
     1
 45
0.0
1001
ACAD
1000
AcDbSavedByObjectVersion
1070
     0
  0
VISUALSTYLE
  5
30
102
{ACAD_XDICTIONARY
360
CF0
102
}
102
{ACAD_REACTORS
330
29
102
}
330
29
100
AcDbVisualStyle
  2

 70
     5
 71
     0
 72
     2
 73
     0
 90
        0
 40
-0.6
 41
-30.0
 62
     5
 63
     7
421
 16777215
 74
     1
 91
        4
 64
     7
 65
   257
 75
     1
175
     1
 42
1.0
 92
        0
 66
   257
 43
1.0
 76
     1
 77
     6
 78
     2
 67
     7
 79
     3
170
     0
171
     0
290
     0
174
     0
 93
        1
 44
0.0
173
     0
291
     0
 45
0.0
1001
ACAD
1000
AcDbSavedByObjectVersion
1070
     0
  0
VISUALSTYLE
  5
3C
102
{ACAD_XDICTIONARY
360
D08
102
}
102
{ACAD_REACTORS
330
29
102
}
330
29
100
AcDbVisualStyle
  2

 70
    25
 71
     2
 72
     2
 73
     1
 90
        1
 40
0.5
 41
-30.0
 62
     5
 63
     7
421
 16777215
 74
     1
 91
        0
 64
     7
 65
   257
 75
     1
175
     1
 42
1.0
 92
        8
 66
     7
 43
1.0
 76
     1
 77
     6
 78
     2
 67
     7
 79
     3
170
     0
171
     0
290
     0
174
     0
 93
       13
 44
0.0
173
     0
291
     0
 45
0.0
1001
ACAD
1000
AcDbSavedByObjectVersion
1070
     0
  0
DICTIONARYVAR
  5
C8D
102
{ACAD_REACTORS
330
C8A
102
}
330
C8A
100
DictionaryVariables
280
     0
  1
1:1
  0
DICTIONARYVAR
  5
C8C
102
{ACAD_REACTORS
330
C8A
102
}
330
C8A
100
DictionaryVariables
280
     0
  1
STANDARD
  0
DICTIONARYVAR
  5
C8B
102
{ACAD_REACTORS
330
C8A
102
}
330
C8A
100
DictionaryVariables
280
     0
  1
STANDARD
  0
DICTIONARYVAR
  5
CD5
102
{ACAD_REACTORS
330
C8A
102
}
330
C8A
100
DictionaryVariables
280
     0
  1
2
  0
DICTIONARY
  5
1A
330
19
100
AcDbDictionary
280
     1
281
     1
  3
BUMPTILE
360
1C
  3
DIFFUSETILE
360
1B
  3
OPACITYTILE
360
1F
  3
REFLECTIONTILE
360
1E
  3
REFRACTIONTILE
360
20
  3
SPECULARTILE
360
1D
  0
DICTIONARY
  5
12
330
11
100
AcDbDictionary
280
     1
281
     1
  3
BUMPTILE
360
14
  3
DIFFUSETILE
360
13
  3
FBXASSET
360
D9
  3
OPACITYTILE
360
17
  3
REFLECTIONTILE
360
16
  3
REFRACTIONTILE
360
18
  3
SPECULARTILE
360
15
  0
DICTIONARY
  5
22
330
21
100
AcDbDictionary
280
     1
281
     1
  3
BUMPTILE
360
24
  3
DIFFUSETILE
360
23
  3
OPACITYTILE
360
27
  3
REFLECTIONTILE
360
26
  3
REFRACTIONTILE
360
28
  3
SPECULARTILE
360
25
  0
DICTIONARY
  5
CD7
330
67
100
AcDbDictionary
280
     1
281
     1
  3
ACAD_XREC_ROUNDTRIP
360
CD8
  0
DICTIONARY
  5
C8F
330
65
100
AcDbDictionary
280
     1
281
     1
  3
ACAD_ROUNDTRIP_2008_TABLESTYLE_CELLSTYLEMAP
360
CD6
  0
DICTIONARY
  5
CEE
330
2F
100
AcDbDictionary
280
     1
281
     1
  3
ACAD_XREC_ROUNDTRIP
360
CEF
  0
DICTIONARY
  5
CEC
330
2E
100
AcDbDictionary
280
     1
281
     1
  3
ACAD_XREC_ROUNDTRIP
360
CED
  0
DICTIONARY
  5
CFA
330
35
100
AcDbDictionary
280
     1
281
     1
  3
ACAD_XREC_ROUNDTRIP
360
CFB
  0
DICTIONARY
  5
D02
330
39
100
AcDbDictionary
280
     1
281
     1
  3
ACAD_XREC_ROUNDTRIP
360
D03
  0
DICTIONARY
  5
CF4
330
32
100
AcDbDictionary
280
     1
281
     1
  3
ACAD_XREC_ROUNDTRIP
360
CF5
  0
DICTIONARY
  5
CF8
330
34
100
AcDbDictionary
280
     1
281
     1
  3
ACAD_XREC_ROUNDTRIP
360
CF9
  0
DICTIONARY
  5
D12
330
41
100
AcDbDictionary
280
     1
281
     1
  3
ACAD_XREC_ROUNDTRIP
360
D13
  0
DICTIONARY
  5
D00
330
38
100
AcDbDictionary
280
     1
281
     1
  3
ACAD_XREC_ROUNDTRIP
360
D01
  0
DICTIONARY
  5
CE4
330
2A
100
AcDbDictionary
280
     1
281
     1
  3
ACAD_XREC_ROUNDTRIP
360
CE5
  0
DICTIONARY
  5
CE6
330
2B
100
AcDbDictionary
280
     1
281
     1
  3
ACAD_XREC_ROUNDTRIP
360
CE7
  0
DICTIONARY
  5
CE8
330
2C
100
AcDbDictionary
280
     1
281
     1
  3
ACAD_XREC_ROUNDTRIP
360
CE9
  0
DICTIONARY
  5
CEA
330
2D
100
AcDbDictionary
280
     1
281
     1
  3
ACAD_XREC_ROUNDTRIP
360
CEB
  0
DICTIONARY
  5
CF2
330
31
100
AcDbDictionary
280
     1
281
     1
  3
ACAD_XREC_ROUNDTRIP
360
CF3
  0
DICTIONARY
  5
D0E
330
3F
100
AcDbDictionary
280
     1
281
     1
  3
ACAD_XREC_ROUNDTRIP
360
D0F
  0
DICTIONARY
  5
CFE
330
37
100
AcDbDictionary
280
     1
281
     1
  3
ACAD_XREC_ROUNDTRIP
360
CFF
  0
DICTIONARY
  5
D10
330
40
100
AcDbDictionary
280
     1
281
     1
  3
ACAD_XREC_ROUNDTRIP
360
D11
  0
DICTIONARY
  5
CF6
330
33
100
AcDbDictionary
280
     1
281
     1
  3
ACAD_XREC_ROUNDTRIP
360
CF7
  0
DICTIONARY
  5
D0C
330
3E
100
AcDbDictionary
280
     1
281
     1
  3
ACAD_XREC_ROUNDTRIP
360
D0D
  0
DICTIONARY
  5
D0A
330
3D
100
AcDbDictionary
280
     1
281
     1
  3
ACAD_XREC_ROUNDTRIP
360
D0B
  0
DICTIONARY
  5
D04
330
3A
100
AcDbDictionary
280
     1
281
     1
  3
ACAD_XREC_ROUNDTRIP
360
D05
  0
DICTIONARY
  5
D06
330
3B
100
AcDbDictionary
280
     1
281
     1
  3
ACAD_XREC_ROUNDTRIP
360
D07
  0
DICTIONARY
  5
CFC
330
36
100
AcDbDictionary
280
     1
281
     1
  3
ACAD_XREC_ROUNDTRIP
360
CFD
  0
DICTIONARY
  5
CF0
330
30
100
AcDbDictionary
280
     1
281
     1
  3
ACAD_XREC_ROUNDTRIP
360
CF1
  0
DICTIONARY
  5
D08
330
3C
100
AcDbDictionary
280
     1
281
     1
  3
ACAD_XREC_ROUNDTRIP
360
D09
  0
XRECORD
  5
1C
102
{ACAD_REACTORS
330
1A
102
}
330
1A
100
AcDbXrecord
280
     1
270
     1
271
     1
  0
XRECORD
  5
1B
102
{ACAD_REACTORS
330
1A
102
}
330
1A
100
AcDbXrecord
280
     1
270
     1
271
     1
  0
XRECORD
  5
1F
102
{ACAD_REACTORS
330
1A
102
}
330
1A
100
AcDbXrecord
280
     1
270
     1
271
     1
  0
XRECORD
  5
1E
102
{ACAD_REACTORS
330
1A
102
}
330
1A
100
AcDbXrecord
280
     1
270
     1
271
     1
  0
XRECORD
  5
20
102
{ACAD_REACTORS
330
1A
102
}
330
1A
100
AcDbXrecord
280
     1
270
     1
271
     1
  0
XRECORD
  5
1D
102
{ACAD_REACTORS
330
1A
102
}
330
1A
100
AcDbXrecord
280
     1
270
     1
271
     1
  0
XRECORD
  5
14
102
{ACAD_REACTORS
330
12
102
}
330
12
100
AcDbXrecord
280
     1
270
     1
271
     1
  0
XRECORD
  5
13
102
{ACAD_REACTORS
330
12
102
}
330
12
100
AcDbXrecord
280
     1
270
     1
271
     1
  0
XRECORD
  5
D9
102
{ACAD_REACTORS
330
12
102
}
330
12
100
AcDbXrecord
280
     1
 70
     1
 90
1959938040
 71
     1
  1
7B50A229-9225-42BC-9BCE-ED2190EAB35B
311
504B03040A00000800003B4B44433DEE336E79000000790000001B0000006175746F6465736B2D64657369676E2D7061636B6167652E786D6C3C3F786D6C2076657273696F6E3D22312E302220656E636F64696E673D227574662D3822203F3E3C666F726D6174733E3C666F726D61743E687474703A2F2F736368656D612E
311
6175746F6465736B2E636F6D2F64657369676E2D7061636B6167652F323030393C2F666F726D61743E3C2F666F726D6174733E504B03041400060808003B4B4443D486FD9CA0000000F4000000130000005B436F6E74656E745F54797065735D2E786D6C7D8EC10E82300C865F65E91D8A1E8C310C0EEA1BF002731658846E
311
D98AC1B77784ABF1D8FE5FBFBF75BBCE937A534CCEB38643598122B6FEE978D0B0485F9C41B54DDD7D022595594E1A469170414C76A4D9A4D207E29CF43ECE46F218070CC6BECC4078ACAA135ACF422C856C0E68EA1BF5669944DDD7BCDE7B1F8E415D77AECB980613C2E4AC91FC167A2B244592486606FC29C8FD7F045B9A
311
EF7053A7E60B504B03041400060808003B4B44435BF556CDEA0000007C01000008000000636F72652E786D6C8D904D6EC3201085AF82665B6183FFEA5898C855ED13F40208888B128365A0EAF18B13476A775DCDE8CDFB66468F9DBF971BFAD29B37CEF6403302485BE994B1730F315C700BE8CCD9E65CF8650364C5A27BD8
311
65E06CDE5C5C0F493A1BB40D49B54EE94314DEEB0048DE52D383979F7A1199882139FC355B85BC8A5967F4D9253846A3D0E38851699FB918BD011F8BB16DDE69850B42475C0D658387B669F0F4564DE52BA1433BB52CDF61CE82599EF7E5A645D00A78C24A4C0926D507397545DDD5F50BA11D212CDFED7FA0B8AA7F42D1D8
311
5016C7BB0FCC03A7E991FB80B37CCF22957B50A9EEB9F11F504B03041400060808003B4B444355019EA25F0000007C00000007000000636E782E786D6C4DCB3B0E80201045D1AD90E915ED2CF8AC45050C11660C8261F98AB1B07AC9C97D42D718D865D3E909258CFD00CCE24AC6E326A164D74DC0B4128928FF326038472B
311
A13128B1252AC747C6BAB984FC68F0B87FE8960A5C09FE86CFB69FBA01504B03041400060808003B4B444399AB2D3C67010000020300000C0000006662782F636F72652E786D6C8D525B6E833010BC8AE5DFCAD83C4269641CA56A72825EC00187A2808D8C8D72FC2E8F88A68AA208C958333BBBB3037C776D1B3428DBD746
311
E7380C18464A17A6AC759563EFCE24C36827B835C6FD29C348CB56E57884B1E09535BE5BA0C268A7B403549B522DA0EC7BE5302A1AB8E4B82F7E542B03E91D54F497A093C545562A0803A0A14EF0DE593080E621E389C5F974E574C605F7BE2E17B62E615A7DAE95C5E2101DB2F42B4C48C4C20349F6714AF6599A92E36772
311
8CDF59B8CF8E19A7A3587057B737778555D2A9120B90C524648425DFEC631B6DB69BCD1B0BB78C713A96DF897C57BE28F2B57671B4D89D653D16211899887FDB42440EF572003F54703A8608AF29E1FBA0211008D9C95373DBE302D0A00A676C024C69FC4A0DB2F10AA632343D9CCE2C749E1AC0660FFB444FFA3CEF011F50
311
EA0AAC4907D79377E3743E4F5DA2E8942583BB226D6C2B9BD5DC6C713DD7410FE585698C7D454D9755E912261DFF5EF10B504B03041400060808003B4B4443454A3D197D0000009D0000000B0000006662782F636E782E786D6C4DCCD10A83201886E15B91FFDC55FAB775A006A1BB8F581632D3703A76F9ABD1C18E3E78F8
311
7845FF593D79DBF4723148682E35101B1E7172619150F24C3B20BD1229C6FC770312C6D54A38189458522CDB49939DC7E2F3AEDE85E78978D7A8DBE14A1BCE0C45E42DED1867148D19B4D6EC561B844A89EA57DAF708AB2F504B03041400060808003B4B4443E552688F2C01000015020000310000006662782F3446443444
311
3542362D313332452D343433352D383233322D3445454244444432373045342F636F72652E786D6C8D515B6EC32010BC0AE22B55651B6C1CA711265264F704BD0031244189C1E251E5F85DD78ED4FEE58745B333B3A35D7E788C77F4AD7D30CEB698E604236D07A78CBDB438C573B6C3E820B8772EFEA16164E5A85B3CC358
311
F08B77695AA1C1D9A86D04D43AA5575086A02346C31D3E2D0EC3558F3297290223DCF2490E3779D139CDA10D3CC143F410002D43E6170BF6D9B1AE3E6E335A957DC6585567BBB22A33D6F7C7AEEBCA86F48C178B50F0948C5AE546411C7336DABF6A328B058F667CC61FBC96512B2C4A42AB8C928CB02FF2B12FEB7D5DBF13
311
BA27841733FD9F284DEA4551323656E51A7791052C282F9686E0CAA5D3FD19463F26E7239AE76D821EDEB0203921AC691AD28066E1C206C074CB56D3109D870D6F6E27A0D37A71DE32C18BF948507E2F08753EA8F801504B03041400060808003B4B4443DC6881114E01000033030000300000006662782F34464434443542
311
362D313332452D343433352D383233322D3445454244444432373045342F636E782E786D6CD593CD6E022114855F85B06DE64F47D31A06932EFA045D74CBC055A90C4CF869EADBF7A268DDB8E8B21B3239F770CECD17866DBF2743BEC007EDEC40BBBAA504AC744ADBFD4053DC55CF946C39F3CEC53B1B25564C30D02C53CE
311
F6DEA5B9480A76229988AAD1F658440FC1252F21A09C6F12E3A4301800B64A28C2348252A0C8CD885F3BF0B80A8AE389C40390B7D70FE2C64F9031B026A770D6E40ECEF2599AEE4C944823421868900798442D52740AC2B156228ABAABAF5D0F76FA4D22F9C2B532794D72F940F34979D9A8468EACC12167217AA4574CF134
311
03E5629E8D962222E4E66CBC78384BDAC6755FBC1AC17B7477EB65DF63D879C659D4131487F4202228CA176DB7ACBAB66AFBF7F665B3586D56ABA7B6DBB42D6BB29DB3D139532E610C783713E96C041B29EF5893C78FF0151F51DA236BE74F7F0089004AEB85CE2DE33FF369CEEF1B7179FC0BF80F504B0304140006080800
311
3B4B4443673BE8A5A405000081100000340000006662782F34464434443542362D313332452D343433352D383233322D3445454244444432373045342F6F626A656374732E786D6CAD57D96EDB3814FD1541F332F3E045B6D3C603458597A430DAB4458D16F360C0A0254AE1845A405289335F3F8722254BAE9D7A067DD1C2
311
E5F2DE73CF5DE8BFDBA7DC79A242B23CBB71BDFED0756816E611CB921BB75471EFDA75DE05BEC873D55AE63A1949E98DAB87DDC04F445E167628A23129B93A1ABD9BFFE5C89066D475424EA4BC7165F84053D227A5CA232A1FFB1151A49FC4FBBED7370BBB6213418A8723A105113453D014E319A4384629AFFB3B7407813F
311
D0F381AF9F76D5F8FCAA41654FF77C964945B2F087C38EC48CBDC9F2767435ED5D4D26E3DEE4CDC8EBCDEFE6CB9EF7763C5CBC592CA6B3DB290E964A4092D544D0D80DDE031BC1427F60A602BF64991A8FEC12EBA081A04F4C7BCA0D468EE70FCC9AC63A6BE429F5C33CCB68586105342AFBACE88816348BE0734625346B21
311
34ECFE7A1AC7D6F458FFDB23DBC39721D0DED11254EB5EBFDB9AE6BBBF6182BC84414252CD4083A535D4707578407897E7DCCE31E9A44451C1087738DB09225EDC004BF592C0EF88D14C163A1AB4056E002F98E92E5D10463FE7F9292DE392734D6337A8A2608B58A14A569AB17FA83868DF46063AC1579A0DD7D620F55250
311
37981A8A5C1FB1C900E9C49C247039CCD43BC7A32343173A4E574B37F870B7DBAF75EC9E3EBC10794185D2F401B56AC7D56F8D92D5C9BBC8737A837BA4CA0194AF40FE1342FDA00AFC26D87EB29FD8539420998C7391C237CED0E90DF1183A5EF5D4DFAD2F7FD06CEE7AEF1C9E70B686EA17E0D9B5A1EDCB169C81FF04C2E7
311
626C4D5B8784236DDCB30C006992383CC710F270BCDBBBC10A590E5919BB080F3C980C759FF0E90FAC18248AEAA4D63B03964769F182040DD82A46420D437EABE0C14F3FA4B3EA60BBEC1CBC57BF84AEB3E5FAC3BA143109E9BD8DE9258D59C6144ADC81376D853A98772C7AA42FCFB98860E88F78AFDB78A7F62809B435E6
311
1AF8A4CEE9FAE77072E78010FB925CA71BFF2727C0085D585BF2EF990C29E724A379599FFB6AFD40D93010EB60D74C6E0ACCA1B0803466E6280651A443C10A0D6253AD9AA4D93F63DDB7D52730D20DE62F1FC94B3B7BED0EB937CC792EB6BB97AD494B27A1FEDEE5B6C560A0A580EE5590D4F16F41DF462C8E4B89247802D7
311
EFAB45DB773A2D2045D4524DB44C603F828B084BDA5A2EAAB520A8A479B665A89B88BB9307B4E50352CB804AE0398D25E5F196715EA6DB987154A36D4A8A3370FC7FFD77655A6C499A97993A23BBA33AAA4357F70E7BE53351E1831BACAB776F8EDC1BD1E80C19742D398155C7B56FE757C3D96834ED4D47A3ABDE64345FF4
311
A6F3C56DEF7639F2A6C3DBD97C7C35AFFD643409FCBAD4B4231A5E4269F34BC1ACFBBEAD103F3609B8C13D5172F3DE8467FDFEB6EAA317F607D8837AD96C9C454FE8FB68F4730187952705ADD282D394668AE818BAD71FFC2B419FD151C68CAF5292D00BA47C7EBF3E32062317ECFBA2E39D3E1FEDB5A30B1D902785A88732
311
DD6584F1A38D8941B25F6489C5AFF649F33685A6FED57FD631E84C65CE59843C183909CD53AA900D2F284222A512D46BF7F491BD7B5CB0FBC974888AEC38AD3579206892B94458805A65A8BAE3CE6F68EA745F75E3A2DCF61FF1B099C275C0991B174DBA622195FD1D0AB46E852AE1E052BB9347E34FB284A3D7369B9AFF66
311
97C6A653929B2597F44FD62E93C2AD01482305FA063444F04EA54CE057BAD9F9F03F195EABE31085CF5DA91A5B0E038D31D53108516394BD2DA08979B447EF11A8AF9BE5F5AB351D442EBA65BD4A0223B5A78848AA9B82D6CFAA345B7E19A04371569F9D8297097C79B9A49EA02073A9031C2C022BACCC82285075F1E7E68B
311
C871934D9D3B060A38BFEFAFDFFCB159E4699A67666833B3F76167FD80DB6DB44172A0FA5A2237A3A137DA54D7017B43D9EE88A47D12C9470CC0B382354077DC0F5E9A3B23EA909968D60DB42B8E18BA5A3AB6B04D20D4D2A59D5B3538683C32EA2086F49552474C7B41F1EA8D60502D850A02BD7CF02F504B030414000608
311
00003B4B4443000000000000000000000000350000006662782F34464434443542362D313332452D343433352D383233322D3445454244444432373045342F76657274696365732E62696E504B03041400060808003B4B4443F270F1330600000004000000360000006662782F34464434443542362D313332452D34343335
311
2D383233322D3445454244444432373045342F747269616E676C65732E62696E636660600000504B03041400060800003B4B4443000000000000000000000000370000006662782F34464434443542362D313332452D343433352D383233322D3445454244444432373045342F617474726962757465732E62696E504B0304
311
1400060808003B4B4443D5987DFC8F00000041010000360000006662782F34464434443542362D313332452D343433352D383233322D3445454244444432373045342F6469726563746F72792E786D6C858F410EC2201045AF4266AF15DDB800BA74E7C21B903225242D6328188F2FA5C4183471359997F9FF81E89FF3C41E
311
1816475E02DF1F80A11FC8386F25A438EECEC07A250251FC3803E6F58C12560C4AD840E95E91C151A72936F496F35732D860FE635F62C8F2DA16B505C545B74125BAA2FA9E05D7CC053D063734D5C7665FD55B6B8D15D5E9BFEAFD8490FFA45E504B03041400060808003B4B4443849B9C75FD000000A00100003B00000066
311
62782F34464434443542362D313332452D343433352D383233322D3445454244444432373045342F7265736F75726365732F636F72652E786D6C8D50596E833010BD0A9ADFCA60B39522E388AAC9097A01CB4CA89560232F558F5F13A8D4FEF56766F416CDD3E3A7AFE59E7DA2F3DA9A01584E2143A3ECA4CD3C400C57D241
311
7612DC591B7EC9203372C1013618049F9D8DEB01296B029A905063273C40E93D06C8D43D1D0378F5818BCC650C49E16FF92AD54DCE98B33CD14927B80F2E05C8F627DB04E1D0DBE8147A5EECACE031EAE9D0E829FDD4578D0EC4B93C77ED1BAB4849D999D463D592B16B5B7279AD2FD533656377E978B199050F7AF9C9A81C
311
CA80138864AB08A384D6EFF4A52F9BBE699E28EB29E5C526FF638AEBF44F53D42654E51177B779102C05791082175B5F693DCA4C7BEB567C03504B010214000A00000800003B4B44433DEE336E79000000790000001B00000000000000000000000000000000006175746F6465736B2D64657369676E2D7061636B6167652E
311
786D6C504B010214001400060808003B4B4443D486FD9CA0000000F40000001300000000000000000000000000B20000005B436F6E74656E745F54797065735D2E786D6C504B010214001400060808003B4B44435BF556CDEA0000007C010000080000000000000000000000000083010000636F72652E786D6C504B010214
311
001400060808003B4B444355019EA25F0000007C000000070000000000000000000000000093020000636E782E786D6C504B010214001400060808003B4B444399AB2D3C67010000020300000C00000000000000000000000000170300006662782F636F72652E786D6C504B010214001400060808003B4B4443454A3D197D
311
0000009D0000000B00000000000000000000000000A80400006662782F636E782E786D6C504B010214001400060808003B4B4443E552688F2C0100001502000031000000000000000000000000004E0500006662782F34464434443542362D313332452D343433352D383233322D3445454244444432373045342F636F7265
311
2E786D6C504B010214001400060808003B4B4443DC6881114E010000330300003000000000000000000000000000C90600006662782F34464434443542362D313332452D343433352D383233322D3445454244444432373045342F636E782E786D6C504B010214001400060808003B4B4443673BE8A5A40500008110000034
311
00000000000000000000000000650800006662782F34464434443542362D313332452D343433352D383233322D3445454244444432373045342F6F626A656374732E786D6C504B010214001400060800003B4B444300000000000000000000000035000000000000000000000000005B0E00006662782F3446443444354236
311
2D313332452D343433352D383233322D3445454244444432373045342F76657274696365732E62696E504B010214001400060808003B4B4443F270F13306000000040000003600000000000000000000000000AE0E00006662782F34464434443542362D313332452D343433352D383233322D344545424444443237304534
311
2F747269616E676C65732E62696E504B010214001400060800003B4B44430000000000000000000000003700000000000000000000000000080F00006662782F34464434443542362D313332452D343433352D383233322D3445454244444432373045342F617474726962757465732E62696E504B01021400140006080800
311
3B4B4443D5987DFC8F0000004101000036000000000000000000000000005D0F00006662782F34464434443542362D313332452D343433352D383233322D3445454244444432373045342F6469726563746F72792E786D6C504B010214001400060808003B4B4443849B9C75FD000000A00100003B00000000000000000000
311
000000401000006662782F34464434443542362D313332452D343433352D383233322D3445454244444432373045342F7265736F75726365732F636F72652E786D6C504B0506000000000E000E0080040000961100000000
310
504B03040A00000800003B4B44433DEE336E79000000790000001B0000006175746F6465736B2D64657369676E2D7061636B6167652E786D6C3C3F786D6C2076657273696F6E3D22312E302220656E636F64696E673D227574662D3822203F3E3C666F726D6174733E3C666F726D61743E687474703A2F2F736368656D612E
310
6175746F6465736B2E636F6D2F64657369676E2D7061636B6167652F323030393C2F666F726D61743E3C2F666F726D6174733E504B03041400060808003B4B4443D486FD9CA0000000F4000000130000005B436F6E74656E745F54797065735D2E786D6C7D8EC10E82300C865F65E91D8A1E8C310C0EEA1BF002731658846E
310
D98AC1B77784ABF1D8FE5FBFBF75BBCE937A534CCEB38643598122B6FEE978D0B0485F9C41B54DDD7D022595594E1A469170414C76A4D9A4D207E29CF43ECE46F218070CC6BECC4078ACAA135ACF422C856C0E68EA1BF5669944DDD7BCDE7B1F8E415D77AECB980613C2E4AC91FC167A2B244592486606FC29C8FD7F045B9A
310
EF7053A7E60B504B03041400060808003B4B44431BFD58FDEB0000007C01000008000000636F72652E786D6C8D904D6EC3201085AF82665B61837F246C61A23A914FD00B20202E4A0C9681AAC72F4E1CA9DD7535A337EF9B193D7EFA5EEEE8CB6CC17A37002D0820E394D7D6CD03A478C50CD049F0CDFBF8CB06C8C9C50CB0
310
CB20F8BCF9B41E92F22E1A17B3EABC36872843301190BAE76680A03ECD220B996276845BB14A7593B329E8ABCB704A56A3E711ABF33E7BB5660331D5DDD8B4E384CF976EC24DCD6ACCD899E1AEB94C2321EDC8D83B2F7758F06897D77DB519198D0651115A634A30693E48D7576DDFB66F84F684F072B7FF81D2AAFF0925EB
310
625D1DEF3EB10082E6471E03C1CB3D8B5C1E41E5BAE7267E00504B03041400060808003B4B444355019EA25F0000007C00000007000000636E782E786D6C4DCB3B0E80201045D1AD90E915ED2CF8AC45050C11660C8261F98AB1B07AC9C97D42D718D865D3E909258CFD00CCE24AC6E326A164D74DC0B4128928FF32603847
310
2BA13128B1252AC747C6BAB984FC68F0B87FE8960A5C09FE86CFB69FBA01504B03041400060808003B4B44432DB92AFA66010000020300000C0000006662782F636F72652E786D6C8D52ED8A8330107C9590BF87267E81969872B6F804F702A9A69E54138989F4F16FFD285E8F520E2186999DDDD95176BCF71D9AA4195BAD
310
721CF81423A92A5DB7AAC9B1B3572FC5E8C899D1DAFE2AC348895EE6788631678DD16ED8A04A2B2B950554E95A6EA018476931AA3AB8E478ACBE652F7CE12C548C377F10D54D34D20F7CA0A18EB3D11A3080D621F389F9F5726764C53973AEAD37B6AD615A7B6DA5C1BC8CB2224E8AD23B9DB3D28BA334F2D2F4947A597C2E
310
0B4A93224D3F1999C59CD9B67FB8AB8C1456D698873488BC807A34FEA2D9214C0E49F2418303A58CCCE54F2237D4FF14B956D928DCECAEB211F3008C2CC49F6D21228B4631811FC219994384D792F073D01008846CC5A57BEC7103689295D52606A6D66EA726D1390953295A1E4656163A2F0D60B3977DC2377DDEF7800F28
310
5403D68485EBC5D9793A5BA76E510CD27893BD23A54D2FBADDDC6A713FF7412FE595EEB4F98F9A6CAB922D4C32FFBDFC07504B03041400060808003B4B44431C2691A37D0000009D0000000B0000006662782F636E782E786D6C4DCC410E83201085E1AB90D95347501C13C074D37B988A8654A1A1D0F4F8D5C645572FF9F2
310
F2EBE1B3ADECEDD2CBC760A0BE203017EE71F2613150F2CC09D860758A31FFDD80857173060E06AB9714CBF3A4C9CD6359F3AEAB0F8F139BBEBE296C5B2E50116F48484ED42117BD144276A410AF50595DFD4AFB1E61FB05504B03041400060808003B4B44435ADB98CD2901000015020000310000006662782F3439314636
310
3035352D323036382D343832332D383837302D3239333232333738363030412F636F72652E786D6C8D51CB6EC32010FC15C42955657BC1D8B1234CD44BBFA03F406C92A0C460F1A8F2F985DA91DA5B2E2C9A9D991DEDF2E363BEA36FE5BCB666C0A4048C9419EDA4CD65C0319C8B0EA3A3E0CEDAF087869191B31A7086B1E0
310
1767E3B241A335419990506327B581D27B15301AEFE933603F5ED52C4B194362F85BB9C8F1262FAA24656A279EE03EB81400AD43F28B05EBC9670B4D535068BB8275B42EBA6E0F05ED6B4AEB7DD7027CF06A150A1EA39E36B99E521C7DD6CABD6A92C582073D3FE38F4EC9A0262C2890BA205000FB82FE409B43D3BC033900
310
F02AD3FF89E232BD288ADA849A6E715799C782F06A6D083ED978BA3FC3A8C7625D4079DECEABF10D0B28015AC29ABE67BC5AB96903C9B4659BA90FD6A50DEF6EA744AF37E796095EE523A5F27BC154F341C50F504B03041400060808003B4B4443BACF4E065601000033030000300000006662782F34393146363035352D32
310
3036382D343832332D383837302D3239333232333738363030412F636E782E786D6CBD93C16EC32010447F0571AD6CE3C489D20813A9877E410FBD12D82434182CC055F3F75D1292E69243A5AA1764CD0E33AB27CC375F83259F10A2F1AEA76DCD2801A7BC366EDFD329EDAA15251BC183F7E9CE46899303F434CB54F07DF0
310
D358240D3B39D984AA35EE58C400D14F41414439DF24D62B6931005C35A108C316B4064D6E46FCDA41C05550DC9E483A00797D79277EFB012A45DEE414C19BDC21783E4BD39D891265658C3D8DEA0083ACE594BC8678ACB54CB26EEB6BD7839D7E9248BE70AD9C8221B9BCA7F9A4A26C542347DEE050F09802D22BA6741A81
310
0A398ED62899107273365E3C824FC6A56557BC06C10774CF67CBD50AC3CE33C19319A03854009940533163EDBC6A59C5BA37F6BC9E2DD68BC5136BD78CF126DB05DF7A6FCB258C81E047A2BC4BE012152D6FF2F811BEE223DA0464EDC3E91720114069BDD0B965FC259F7639EFBA7FE4D39CDF37E20AF817886F504B030414
310
00060808003B4B444322162D51630700009A1B0000340000006662782F34393146363035352D323036382D343832332D383837302D3239333232333738363030412F6F626A656374732E786D6CED595B73A33614FE2B0C7D691F8C8D2FDB7587D0899DEC8E679B76A7EE76FAE019460699A81182914436EEAFEFD1050CC424
310
B84DDFFA6003423A3AE73B571D821F9F32EA3C622E48CEAE5CDF9BB80E66719E10965EB9A53C8CDEBBCE8F61C0F35C36A6B90E4319BE72D5B01B0629CFCBC20E25F8804A2A3BA31F567F3822C60CBB4E4C911057AE88EF71863C54CA3CC1E2C14B90445E7A78F27CCF4C6C934D392AEE3B440BC43193C0298C33A0E218A6FC
310
F6E3C41D87C158BD0F03F56F67CD06CD9AF7CF1A6BA9DB5C12262462F133963A646683589AF9F39BDBE962395ACCE7B3D1FCDDD41FAD3EAC6E46FEF7B3C9FADD7ABDBCBE5D027BFB3CA756A604179825A0BFA31BFAC158BDA945B7089CE33ACE19C3B10612A0D2627509122C60AB067C93F6A3AF246ABCD612369EE7EABD65
310
A1313C6B53E99B350C88165D10C46E57495C5D9BF2E5FB3F417031C428B9C012B8159283762D3C1CBCC20D27C1D88C86C1FEA40B229C0C49CC09A20E257B8E382805A6AA296160165832CA3938907294045A73E675DBB6C0335F779D735C1E4A4A9567B8A176AC08DC0F4BA139237F617EE2BE890CF004D29684C9F7964B79
310
2CB01B2E83B11E0C0375994DED4B03A473A028151A11F3B623E85AB9FEE6C60D3F7DD83F6D553838BF79C1F30273A98C4EE951F305866CAF0A25BBAD3F48736A01086340B52B4FA0FC0AC8FF0CD1E3C40AE88D93A7F9D3DCCE951C3171C87906BA7126CE68027F13C7D7FFEABE71178CEBC56DEDF5E1096EAAA07AFFEFF16C
310
CBA0B1B2FC37E00C834730F89CCFECAB6D8C28D8F31D610090321287E63004A1FDB07F72C30D044E08F4B00AD1D0079181DD47B80DC696CC492B957B59AF6380A8DD63364449009BB64860A3474F1F217B70129FD4D414B10FDEC59B98EBF5CDF6D3B6E40714E33BEBD337F84018919035CF33D4C2BC25D1033E7ECD790282
310
3EC77BDBC43BB35B09405B61AE804F2B10D4C369E7D60631AC4B73156E825776002154AE6ED0BF2322C6942286F3B2DAB78E6ECA506B8FB735831B4E0DC4B369C784397E24AAAA00A739CD68310A793FE6A45020BAE14723591D34BD1EE9BE6C7E068BACE7F7CCDA3008BD0CD1DF74D03A8343CBB22BA42D10B5C0FB53388F
310
739AF3687F8C4CA473A1960036DADEF27B8B28C47AA32445053C48FB5D155252236D9490C3A1141057CFB0F8FB66DD34878937F3174EF3BFE38C7388B6E0BB885BBFEBEC11910CA5383AA0A46FBBE66E356DA149F690E6F840412EF248E43142329A2438BD049A8B882FDF947A4A732108C302F2D559F09B684C3C0824469B
310
15CB4AAB1DA08988322C11BD040145A6075C9D76748D1B43E9F03A8FB5F5BEA4B126D1FFC82238825A32671181521472C8AB8CFBDE0262481B5D8372075FB0B68AB61683965042C4C7E82B26E9BDBC047543BE07F7188E24A58CF202C560D603C83EF315A5D40EEF7B143FA8FC11C5257D2B0311981E2242699945F0230C4E
310
1E435CBB0E4C2FA2D0206E629FC419146548967CC826EF169367FB989AA11B021B1B1D0885B01D65A8E841BD1510753DE2D4E05BEA3D4ADD975911A12C2FD92043F1665D6FB2E4BB6A556407F2AB4A45281B2BC29660181026EBAC5AC56C30751D58C18D74A03A4602650535A7B057128F5F7B93A6DCBB01B77EFAB61B6450
310
F8F568AF1951E7150C96C7566120BE2219DFBBE1565F472BA8BF139C9C527D556B362B40404C45F29213ABA22F1B286F6C8DE68677488ADD479375ABEB978D07DD8F600C6BA076A9176E14D0196612A9CAE44EDDD05F1184E0160D33BE5139F5122AD749A2AB46443F903E75B6CA88D6A619F18A7BCCF20C7E6C47584CCB04
310
EF50221EA23B49A32D51AC5B29BD8C5418BF28E02F1FB71D78606480489F558187BF76D6DAD1B52A97CE1291F765B6678840106C89961ADD78054BAD462A2DD75775A680BA0B0CCCAA78FEFFC9A2D98EF8FF64915AC3F857278BD5F127746CF6451AE93C56767DD131A0CE4F8ACA5B1C0374DBA1A65A671193CCADFCD69922
310
088A55941F5C8D5541C310ECE3F81F67EDBE2C68B6EBF07F59D6F69F551C176595D664D5A53A53B96E9A39ECFBD562723D9D2E47CBE974319A4F57EBD172B5BE1DDDDE4CFDE5E4F67A355BAC6A34B5A386411DCC74EE826713D4AA61F5643180AEACC82949E0349F382986982FE14C3FA07DCE332C2079369BDD896DCA0F58
310
FD68FA9C12ED29AE38B947D020A602D23A6054C6B23DEE7C03AD490907ED2B179A46DE03FC59AB741DC83C572EB40A2489B1F0F6D066520D3D4D1C52AECEFD9618E08358AA52A259543FD7AB1436ADF05F4F199206AC5CAD1E06146E0574BF5A1D0ACD9BE529BE48F08A1D0749B8DD9712AA3523CB69A016466F7352BF918D
310
12F660B77E02D77D592CDFD3735A880CFA64F0A21118AA238978AAFBDD8A31CBD2F5CDE731F4D99CCD2F4E41CB1474399CD2886330E6521554604560159666812498EAFA87DD679EC3279ECCD15591F3EDD3FB77DFEDD67996E5CC0CEDAEE15496C08722677B0F9F7D921D140F5835D7C56E3AF1A73BDDD4B67DF6688F04F6
310
545504035531A104E9981CD8E5B306956D5F8E952A3AD337378E0DA2D00C3076F4ACC76B3E7239E043EA738AF218EDE795B42FF6B5C77A2AD804878E74F837504B03041400060800003B4B4443000000000000000000000000350000006662782F34393146363035352D323036382D343832332D383837302D323933323233
310
3738363030412F76657274696365732E62696E504B03041400060808003B4B4443F270F1330600000004000000360000006662782F34393146363035352D323036382D343832332D383837302D3239333232333738363030412F747269616E676C65732E62696E636660600000504B03041400060800003B4B444300000000
310
0000000000000000370000006662782F34393146363035352D323036382D343832332D383837302D3239333232333738363030412F617474726962757465732E62696E504B03041400060808003B4B4443D5987DFC8F00000041010000360000006662782F34393146363035352D323036382D343832332D383837302D3239
310
333232333738363030412F6469726563746F72792E786D6C858F410EC2201045AF4266AF15DDB800BA74E7C21B903225242D6328188F2FA5C4183471359997F9FF81E89FF3C41E1816475E02DF1F80A11FC8386F25A438EECEC07A250251FC3803E6F58C12560C4AD840E95E91C151A72936F496F35732D860FE635F62C8F2
310
DA16B505C545B74125BAA2FA9E05D7CC053D063734D5C7665FD55B6B8D15D5E9BFEAFD8490FFA45E504B03041400060808003B4B4443731705CCFD000000A00100003B0000006662782F34393146363035352D323036382D343832332D383837302D3239333232333738363030412F7265736F75726365732F636F72652E78
310
6D6C8D50596AC33010BD8A99DF225BDE4036B2429D3427E805843C714562C968293D7EE5D885F6AF3F33C35B98C7E3A7AFE5917DA2F3DA9A01CA9C428646D9499B7980186E84417612DC591B7EC9203372C1013618049F9D8DEB01296B029A905063273C40E93D06C8D4231D0378F5818BCC650C49E1EFF92AD55DCE989779
310
A2934E701F5C0A90ED4FB609C2A1B7D129F4BCD859C163D4D3A1D153FAA96F1A1D886BDD8D4D3BBE91F3A5BB92A6663561ECCC48D75CAE23A5EDC8D82B2F36B3E0412F3F19954319700251D1B2262525B479A75D5FB57DDBBED0B2A794179BFC8F29AED33F4D519B505747DCDDE6419429C89310BCD8FA4AEB5966DA5BB7E2
310
1B504B010214000A00000800003B4B44433DEE336E79000000790000001B00000000000000000000000000000000006175746F6465736B2D64657369676E2D7061636B6167652E786D6C504B010214001400060808003B4B4443D486FD9CA0000000F40000001300000000000000000000000000B20000005B436F6E74656E
310
745F54797065735D2E786D6C504B010214001400060808003B4B44431BFD58FDEB0000007C010000080000000000000000000000000083010000636F72652E786D6C504B010214001400060808003B4B444355019EA25F0000007C000000070000000000000000000000000094020000636E782E786D6C504B010214001400
310
060808003B4B44432DB92AFA66010000020300000C00000000000000000000000000180300006662782F636F72652E786D6C504B010214001400060808003B4B44431C2691A37D0000009D0000000B00000000000000000000000000A80400006662782F636E782E786D6C504B010214001400060808003B4B44435ADB98CD
310
290100001502000031000000000000000000000000004E0500006662782F34393146363035352D323036382D343832332D383837302D3239333232333738363030412F636F72652E786D6C504B010214001400060808003B4B4443BACF4E0656010000330300003000000000000000000000000000C60600006662782F3439
310
3146363035352D323036382D343832332D383837302D3239333232333738363030412F636E782E786D6C504B010214001400060808003B4B444322162D51630700009A1B000034000000000000000000000000006A0800006662782F34393146363035352D323036382D343832332D383837302D3239333232333738363030
310
412F6F626A656374732E786D6C504B010214001400060800003B4B444300000000000000000000000035000000000000000000000000001F1000006662782F34393146363035352D323036382D343832332D383837302D3239333232333738363030412F76657274696365732E62696E504B010214001400060808003B4B44
310
43F270F13306000000040000003600000000000000000000000000721000006662782F34393146363035352D323036382D343832332D383837302D3239333232333738363030412F747269616E676C65732E62696E504B010214001400060800003B4B44430000000000000000000000003700000000000000000000000000
310
CC1000006662782F34393146363035352D323036382D343832332D383837302D3239333232333738363030412F617474726962757465732E62696E504B010214001400060808003B4B4443D5987DFC8F000000410100003600000000000000000000000000211100006662782F34393146363035352D323036382D34383233
310
2D383837302D3239333232333738363030412F6469726563746F72792E786D6C504B010214001400060808003B4B4443731705CCFD000000A00100003B00000000000000000000000000041200006662782F34393146363035352D323036382D343832332D383837302D3239333232333738363030412F7265736F75726365
310
732F636F72652E786D6C504B0506000000000E000E00800400005A1300000000
  0
XRECORD
  5
17
102
{ACAD_REACTORS
330
12
102
}
330
12
100
AcDbXrecord
280
     1
270
     1
271
     1
  0
XRECORD
  5
16
102
{ACAD_REACTORS
330
12
102
}
330
12
100
AcDbXrecord
280
     1
270
     1
271
     1
  0
XRECORD
  5
18
102
{ACAD_REACTORS
330
12
102
}
330
12
100
AcDbXrecord
280
     1
270
     1
271
     1
  0
XRECORD
  5
15
102
{ACAD_REACTORS
330
12
102
}
330
12
100
AcDbXrecord
280
     1
270
     1
271
     1
  0
XRECORD
  5
24
102
{ACAD_REACTORS
330
22
102
}
330
22
100
AcDbXrecord
280
     1
270
     1
271
     1
  0
XRECORD
  5
23
102
{ACAD_REACTORS
330
22
102
}
330
22
100
AcDbXrecord
280
     1
270
     1
271
     1
  0
XRECORD
  5
27
102
{ACAD_REACTORS
330
22
102
}
330
22
100
AcDbXrecord
280
     1
270
     1
271
     1
  0
XRECORD
  5
26
102
{ACAD_REACTORS
330
22
102
}
330
22
100
AcDbXrecord
280
     1
270
     1
271
     1
  0
XRECORD
  5
28
102
{ACAD_REACTORS
330
22
102
}
330
22
100
AcDbXrecord
280
     1
270
     1
271
     1
  0
XRECORD
  5
25
102
{ACAD_REACTORS
330
22
102
}
330
22
100
AcDbXrecord
280
     1
270
     1
271
     1
  0
XRECORD
  5
CD8
102
{ACAD_REACTORS
330
CD7
102
}
330
CD7
100
AcDbXrecord
280
     1
102
ACAD_ROUNDTRIP_2012_MLEADER_STYLE
298
     1
  0
CELLSTYLEMAP
  5
CD6
102
{ACAD_REACTORS
330
C8F
102
}
330
C8F
100
AcDbCellStyleMap
 90
        3
300
CELLSTYLE
  1
TABLEFORMAT_BEGIN
 90
        5
170
     1
 91
        0
 92
    32768
 62
   257
 93
        1
300
CONTENTFORMAT
  1
CONTENTFORMAT_BEGIN
 90
        0
 91
        0
 92
      512
 93
        0
300

 40
0.0
140
1.0
 94
        5
 62
     0
340
55
144
0.25
309
CONTENTFORMAT_END
171
     1
301
MARGIN
  1
CELLMARGIN_BEGIN
 40
0.06
 40
0.06
 40
0.06
 40
0.06
 40
0.18
 40
0.18
309
CELLMARGIN_END
 94
        6
 95
        1
302
GRIDFORMAT
  1
GRIDFORMAT_BEGIN
 90
        0
 91
        1
 62
     0
 92
       -2
340
0
 93
        0
 40
0.045
309
GRIDFORMAT_END
 95
        2
302
GRIDFORMAT
  1
GRIDFORMAT_BEGIN
 90
        0
 91
        1
 62
     0
 92
       -2
340
0
 93
        0
 40
0.045
309
GRIDFORMAT_END
 95
        4
302
GRIDFORMAT
  1
GRIDFORMAT_BEGIN
 90
        0
 91
        1
 62
     0
 92
       -2
340
0
 93
        0
 40
0.045
309
GRIDFORMAT_END
 95
        8
302
GRIDFORMAT
  1
GRIDFORMAT_BEGIN
 90
        0
 91
        1
 62
     0
 92
       -2
340
0
 93
        0
 40
0.045
309
GRIDFORMAT_END
 95
       16
302
GRIDFORMAT
  1
GRIDFORMAT_BEGIN
 90
        0
 91
        1
 62
     0
 92
       -2
340
0
 93
        0
 40
0.045
309
GRIDFORMAT_END
 95
       32
302
GRIDFORMAT
  1
GRIDFORMAT_BEGIN
 90
        0
 91
        1
 62
     0
 92
       -2
340
0
 93
        0
 40
0.045
309
GRIDFORMAT_END
309
TABLEFORMAT_END
  1
CELLSTYLE_BEGIN
 90
        1
 91
        1
300
_TITLE
309
CELLSTYLE_END
300
CELLSTYLE
  1
TABLEFORMAT_BEGIN
 90
        5
170
     1
 91
        0
 92
        0
 62
   257
 93
        1
300
CONTENTFORMAT
  1
CONTENTFORMAT_BEGIN
 90
        0
 91
        0
 92
      512
 93
        0
300

 40
0.0
140
1.0
 94
        5
 62
     0
340
55
144
0.18
309
CONTENTFORMAT_END
171
     1
301
MARGIN
  1
CELLMARGIN_BEGIN
 40
0.06
 40
0.06
 40
0.06
 40
0.06
 40
0.18
 40
0.18
309
CELLMARGIN_END
 94
        6
 95
        1
302
GRIDFORMAT
  1
GRIDFORMAT_BEGIN
 90
        0
 91
        1
 62
     0
 92
       -2
340
0
 93
        0
 40
0.045
309
GRIDFORMAT_END
 95
        2
302
GRIDFORMAT
  1
GRIDFORMAT_BEGIN
 90
        0
 91
        1
 62
     0
 92
       -2
340
0
 93
        0
 40
0.045
309
GRIDFORMAT_END
 95
        4
302
GRIDFORMAT
  1
GRIDFORMAT_BEGIN
 90
        0
 91
        1
 62
     0
 92
       -2
340
0
 93
        0
 40
0.045
309
GRIDFORMAT_END
 95
        8
302
GRIDFORMAT
  1
GRIDFORMAT_BEGIN
 90
        0
 91
        1
 62
     0
 92
       -2
340
0
 93
        0
 40
0.045
309
GRIDFORMAT_END
 95
       16
302
GRIDFORMAT
  1
GRIDFORMAT_BEGIN
 90
        0
 91
        1
 62
     0
 92
       -2
340
0
 93
        0
 40
0.045
309
GRIDFORMAT_END
 95
       32
302
GRIDFORMAT
  1
GRIDFORMAT_BEGIN
 90
        0
 91
        1
 62
     0
 92
       -2
340
0
 93
        0
 40
0.045
309
GRIDFORMAT_END
309
TABLEFORMAT_END
  1
CELLSTYLE_BEGIN
 90
        2
 91
        1
300
_HEADER
309
CELLSTYLE_END
300
CELLSTYLE
  1
TABLEFORMAT_BEGIN
 90
        5
170
     1
 91
        0
 92
        0
 62
   257
 93
        1
300
CONTENTFORMAT
  1
CONTENTFORMAT_BEGIN
 90
        0
 91
        0
 92
      512
 93
        0
300

 40
0.0
140
1.0
 94
        2
 62
     0
340
55
144
0.18
309
CONTENTFORMAT_END
171
     1
301
MARGIN
  1
CELLMARGIN_BEGIN
 40
0.06
 40
0.06
 40
0.06
 40
0.06
 40
0.18
 40
0.18
309
CELLMARGIN_END
 94
        6
 95
        1
302
GRIDFORMAT
  1
GRIDFORMAT_BEGIN
 90
        0
 91
        1
 62
     0
 92
       -2
340
0
 93
        0
 40
0.045
309
GRIDFORMAT_END
 95
        2
302
GRIDFORMAT
  1
GRIDFORMAT_BEGIN
 90
        0
 91
        1
 62
     0
 92
       -2
340
0
 93
        0
 40
0.045
309
GRIDFORMAT_END
 95
        4
302
GRIDFORMAT
  1
GRIDFORMAT_BEGIN
 90
        0
 91
        1
 62
     0
 92
       -2
340
0
 93
        0
 40
0.045
309
GRIDFORMAT_END
 95
        8
302
GRIDFORMAT
  1
GRIDFORMAT_BEGIN
 90
        0
 91
        1
 62
     0
 92
       -2
340
0
 93
        0
 40
0.045
309
GRIDFORMAT_END
 95
       16
302
GRIDFORMAT
  1
GRIDFORMAT_BEGIN
 90
        0
 91
        1
 62
     0
 92
       -2
340
0
 93
        0
 40
0.045
309
GRIDFORMAT_END
 95
       32
302
GRIDFORMAT
  1
GRIDFORMAT_BEGIN
 90
        0
 91
        1
 62
     0
 92
       -2
340
0
 93
        0
 40
0.045
309
GRIDFORMAT_END
309
TABLEFORMAT_END
  1
CELLSTYLE_BEGIN
 90
        3
 91
        2
300
_DATA
309
CELLSTYLE_END
  0
XRECORD
  5
CEF
102
{ACAD_REACTORS
330
CEE
102
}
330
CEE
100
AcDbXrecord
280
     1
102
RTVSPropertyOp0
 70
     1
102
RTVSPropertyOp1
 70
     1
102
RTVSPropertyOp2
 70
     1
102
RTVSPropertyOp3
 70
     1
102
RTVSPropertyOp4
 70
     1
102
RTVSPropertyOp5
 70
     1
102
RTVSPropertyOp6
 70
     1
102
RTVSPropertyOp7
 70
     1
102
RTVSPropertyOp8
 70
     1
102
RTVSPropertyOp9
 70
     1
102
RTVSPropertyOp10
 70
     1
102
RTVSPropertyOp11
 70
     1
102
RTVSPropertyOp12
 70
     1
102
RTVSPropertyOp13
 70
     1
102
RTVSPropertyOp14
 70
     1
102
RTVSPropertyOp15
 70
     1
102
RTVSPropertyOp16
 70
     1
102
RTVSPropertyOp17
 70
     1
102
RTVSPropertyOp18
 70
     1
102
RTVSPropertyOp19
 70
     1
102
RTVSPropertyOp20
 70
     1
102
RTVSPropertyOp21
 70
     1
102
RTVSPropertyOp22
 70
     1
102
RTVSPropertyOp23
 70
     1
102
RTVSPropertyOp24
 70
     1
102
RTVSPropertyOp25
 70
     1
102
RTVSPropertyOp26
 70
     1
102
RTVSPropertyOp27
 70
     1
102
RTVSPropertyOp28
 70
     1
102
RTVSPropertyOp29
 70
     1
102
RTVSPropertyOp30
 70
     1
102
RTVSPropertyOp31
 70
     1
102
RTVSPropertyOp32
 70
     1
  0
XRECORD
  5
CED
102
{ACAD_REACTORS
330
CEC
102
}
330
CEC
100
AcDbXrecord
280
     1
102
RTVSPropertyOp0
 70
     1
102
RTVSPropertyOp1
 70
     1
102
RTVSPropertyOp2
 70
     1
102
RTVSPropertyOp3
 70
     1
102
RTVSPropertyOp4
 70
     1
102
RTVSPropertyOp5
 70
     1
102
RTVSPropertyOp6
 70
     1
102
RTVSPropertyOp7
 70
     1
102
RTVSPropertyOp8
 70
     1
102
RTVSPropertyOp9
 70
     1
102
RTVSPropertyOp10
 70
     1
102
RTVSPropertyOp11
 70
     1
102
RTVSPropertyOp12
 70
     1
102
RTVSPropertyOp13
 70
     1
102
RTVSPropertyOp14
 70
     1
102
RTVSPropertyOp15
 70
     1
102
RTVSPropertyOp16
 70
     1
102
RTVSPropertyOp17
 70
     1
102
RTVSPropertyOp18
 70
     1
102
RTVSPropertyOp19
 70
     1
102
RTVSPropertyOp20
 70
     1
102
RTVSPropertyOp21
 70
     1
102
RTVSPropertyOp22
 70
     1
102
RTVSPropertyOp23
 70
     1
102
RTVSPropertyOp24
 70
     1
102
RTVSPropertyOp25
 70
     1
102
RTVSPropertyOp26
 70
     1
102
RTVSPropertyOp27
 70
     1
102
RTVSPropertyOp28
 70
     1
102
RTVSPropertyOp29
 70
     1
102
RTVSPropertyOp30
 70
     1
102
RTVSPropertyOp31
 70
     1
102
RTVSPropertyOp32
 70
     1
  0
XRECORD
  5
CFB
102
{ACAD_REACTORS
330
CFA
102
}
330
CFA
100
AcDbXrecord
280
     1
102
RTVSPropertyOp0
 70
     1
102
RTVSPropertyOp1
 70
     1
102
RTVSPropertyOp2
 70
     1
102
RTVSPropertyOp3
 70
     1
102
RTVSPropertyOp4
 70
     1
102
RTVSPropertyOp5
 70
     1
102
RTVSPropertyOp6
 70
     1
102
RTVSPropertyOp7
 70
     1
102
RTVSPropertyOp8
 70
     1
102
RTVSPropertyOp9
 70
     1
102
RTVSPropertyOp10
 70
     1
102
RTVSPropertyOp11
 70
     1
102
RTVSPropertyOp12
 70
     1
102
RTVSPropertyOp13
 70
     1
102
RTVSPropertyOp14
 70
     1
102
RTVSPropertyOp15
 70
     1
102
RTVSPropertyOp16
 70
     1
102
RTVSPropertyOp17
 70
     1
102
RTVSPropertyOp18
 70
     1
102
RTVSPropertyOp19
 70
     1
102
RTVSPropertyOp20
 70
     1
102
RTVSPropertyOp21
 70
     1
102
RTVSPropertyOp22
 70
     1
102
RTVSPropertyOp23
 70
     1
102
RTVSPropertyOp24
 70
     1
102
RTVSPropertyOp25
 70
     1
102
RTVSPropertyOp26
 70
     1
102
RTVSPropertyOp27
 70
     1
102
RTVSPropertyOp28
 70
     1
102
RTVSPropertyOp29
 70
     1
102
RTVSPropertyOp30
 70
     1
102
RTVSPropertyOp31
 70
     1
102
RTVSPropertyOp32
 70
     1
  0
XRECORD
  5
D03
102
{ACAD_REACTORS
330
D02
102
}
330
D02
100
AcDbXrecord
280
     1
102
RTVSPropertyOp0
 70
     1
102
RTVSPropertyOp1
 70
     1
102
RTVSPropertyOp2
 70
     1
102
RTVSPropertyOp3
 70
     1
102
RTVSPropertyOp4
 70
     1
102
RTVSPropertyOp5
 70
     1
102
RTVSPropertyOp6
 70
     1
102
RTVSPropertyOp7
 70
     1
102
RTVSPropertyOp8
 70
     1
102
RTVSPropertyOp9
 70
     1
102
RTVSPropertyOp10
 70
     1
102
RTVSPropertyOp11
 70
     1
102
RTVSPropertyOp12
 70
     1
102
RTVSPropertyOp13
 70
     1
102
RTVSPropertyOp14
 70
     1
102
RTVSPropertyOp15
 70
     1
102
RTVSPropertyOp16
 70
     1
102
RTVSPropertyOp17
 70
     1
102
RTVSPropertyOp18
 70
     1
102
RTVSPropertyOp19
 70
     1
102
RTVSPropertyOp20
 70
     1
102
RTVSPropertyOp21
 70
     1
102
RTVSPropertyOp22
 70
     1
102
RTVSPropertyOp23
 70
     1
102
RTVSPropertyOp24
 70
     1
102
RTVSPropertyOp25
 70
     1
102
RTVSPropertyOp26
 70
     1
102
RTVSPropertyOp27
 70
     1
102
RTVSPropertyOp28
 70
     1
102
RTVSPropertyOp29
 70
     1
102
RTVSPropertyOp30
 70
     1
102
RTVSPropertyOp31
 70
     1
102
RTVSPropertyOp32
 70
     1
  0
XRECORD
  5
CF5
102
{ACAD_REACTORS
330
CF4
102
}
330
CF4
100
AcDbXrecord
280
     1
102
RTVSPropertyOp0
 70
     1
102
RTVSPropertyOp1
 70
     1
102
RTVSPropertyOp2
 70
     1
102
RTVSPropertyOp3
 70
     1
102
RTVSPropertyOp4
 70
     1
102
RTVSPropertyOp5
 70
     1
102
RTVSPropertyOp6
 70
     1
102
RTVSPropertyOp7
 70
     1
102
RTVSPropertyOp8
 70
     1
102
RTVSPropertyOp9
 70
     1
102
RTVSPropertyOp10
 70
     1
102
RTVSPropertyOp11
 70
     1
102
RTVSPropertyOp12
 70
     1
102
RTVSPropertyOp13
 70
     1
102
RTVSPropertyOp14
 70
     1
102
RTVSPropertyOp15
 70
     1
102
RTVSPropertyOp16
 70
     1
102
RTVSPropertyOp17
 70
     1
102
RTVSPropertyOp18
 70
     1
102
RTVSPropertyOp19
 70
     1
102
RTVSPropertyOp20
 70
     1
102
RTVSPropertyOp21
 70
     1
102
RTVSPropertyOp22
 70
     1
102
RTVSPropertyOp23
 70
     1
102
RTVSPropertyOp24
 70
     1
102
RTVSPropertyOp25
 70
     1
102
RTVSPropertyOp26
 70
     1
102
RTVSPropertyOp27
 70
     1
102
RTVSPropertyOp28
 70
     1
102
RTVSPropertyOp29
 70
     1
102
RTVSPropertyOp30
 70
     1
102
RTVSPropertyOp31
 70
     1
102
RTVSPropertyOp32
 70
     1
  0
XRECORD
  5
CF9
102
{ACAD_REACTORS
330
CF8
102
}
330
CF8
100
AcDbXrecord
280
     1
102
RTVSPropertyOp0
 70
     1
102
RTVSPropertyOp1
 70
     1
102
RTVSPropertyOp2
 70
     1
102
RTVSPropertyOp3
 70
     1
102
RTVSPropertyOp4
 70
     1
102
RTVSPropertyOp5
 70
     1
102
RTVSPropertyOp6
 70
     1
102
RTVSPropertyOp7
 70
     1
102
RTVSPropertyOp8
 70
     1
102
RTVSPropertyOp9
 70
     1
102
RTVSPropertyOp10
 70
     1
102
RTVSPropertyOp11
 70
     1
102
RTVSPropertyOp12
 70
     1
102
RTVSPropertyOp13
 70
     1
102
RTVSPropertyOp14
 70
     1
102
RTVSPropertyOp15
 70
     1
102
RTVSPropertyOp16
 70
     1
102
RTVSPropertyOp17
 70
     1
102
RTVSPropertyOp18
 70
     1
102
RTVSPropertyOp19
 70
     1
102
RTVSPropertyOp20
 70
     1
102
RTVSPropertyOp21
 70
     1
102
RTVSPropertyOp22
 70
     1
102
RTVSPropertyOp23
 70
     1
102
RTVSPropertyOp24
 70
     1
102
RTVSPropertyOp25
 70
     1
102
RTVSPropertyOp26
 70
     1
102
RTVSPropertyOp27
 70
     1
102
RTVSPropertyOp28
 70
     1
102
RTVSPropertyOp29
 70
     1
102
RTVSPropertyOp30
 70
     1
102
RTVSPropertyOp31
 70
     1
102
RTVSPropertyOp32
 70
     1
  0
XRECORD
  5
D13
102
{ACAD_REACTORS
330
D12
102
}
330
D12
100
AcDbXrecord
280
     1
102
RTVSPropertyOp0
 70
     0
102
RTVSPropertyOp1
 70
     0
102
RTVSPropertyOp2
 70
     0
102
RTVSPropertyOp3
 70
     0
102
RTVSPropertyOp4
 70
     0
102
RTVSPropertyOp5
 70
     0
102
RTVSPropertyOp6
 70
     0
102
RTVSPropertyOp7
 70
     0
102
RTVSPropertyOp8
 70
     0
102
RTVSPropertyOp9
 70
     0
102
RTVSPropertyOp10
 70
     0
102
RTVSPropertyOp11
 70
     0
102
RTVSPropertyOp12
 70
     0
102
RTVSPropertyOp13
 70
     0
102
RTVSPropertyOp14
 70
     2
102
RTVSPropertyOp15
 70
     0
102
RTVSPropertyOp16
 70
     0
102
RTVSPropertyOp17
 70
     0
102
RTVSPropertyOp18
 70
     0
102
RTVSPropertyOp19
 70
     0
102
RTVSPropertyOp20
 70
     0
102
RTVSPropertyOp21
 70
     0
102
RTVSPropertyOp22
 70
     0
102
RTVSPropertyOp23
 70
     0
102
RTVSPropertyOp24
 70
     0
102
RTVSPropertyOp25
 70
     0
102
RTVSPropertyOp26
 70
     0
102
RTVSPropertyOp27
 70
     0
102
RTVSPropertyOp28
 70
     0
102
RTVSPropertyOp29
 70
     0
102
RTVSPropertyOp30
 70
     0
102
RTVSPropertyOp31
 70
     0
102
RTVSPropertyOp32
 70
     0
  0
XRECORD
  5
D01
102
{ACAD_REACTORS
330
D00
102
}
330
D00
100
AcDbXrecord
280
     1
102
RTVSPropertyOp0
 70
     1
102
RTVSPropertyOp1
 70
     1
102
RTVSPropertyOp2
 70
     1
102
RTVSPropertyOp3
 70
     1
102
RTVSPropertyOp4
 70
     1
102
RTVSPropertyOp5
 70
     1
102
RTVSPropertyOp6
 70
     1
102
RTVSPropertyOp7
 70
     1
102
RTVSPropertyOp8
 70
     1
102
RTVSPropertyOp9
 70
     1
102
RTVSPropertyOp10
 70
     1
102
RTVSPropertyOp11
 70
     1
102
RTVSPropertyOp12
 70
     1
102
RTVSPropertyOp13
 70
     1
102
RTVSPropertyOp14
 70
     1
102
RTVSPropertyOp15
 70
     1
102
RTVSPropertyOp16
 70
     1
102
RTVSPropertyOp17
 70
     1
102
RTVSPropertyOp18
 70
     1
102
RTVSPropertyOp19
 70
     1
102
RTVSPropertyOp20
 70
     1
102
RTVSPropertyOp21
 70
     1
102
RTVSPropertyOp22
 70
     1
102
RTVSPropertyOp23
 70
     1
102
RTVSPropertyOp24
 70
     1
102
RTVSPropertyOp25
 70
     1
102
RTVSPropertyOp26
 70
     1
102
RTVSPropertyOp27
 70
     1
102
RTVSPropertyOp28
 70
     1
102
RTVSPropertyOp29
 70
     1
102
RTVSPropertyOp30
 70
     1
102
RTVSPropertyOp31
 70
     1
102
RTVSPropertyOp32
 70
     1
  0
XRECORD
  5
CE5
102
{ACAD_REACTORS
330
CE4
102
}
330
CE4
100
AcDbXrecord
280
     1
102
RTVSPropertyOp0
 70
     1
102
RTVSPropertyOp1
 70
     1
102
RTVSPropertyOp2
 70
     1
102
RTVSPropertyOp3
 70
     1
102
RTVSPropertyOp4
 70
     1
102
RTVSPropertyOp5
 70
     1
102
RTVSPropertyOp6
 70
     1
102
RTVSPropertyOp7
 70
     1
102
RTVSPropertyOp8
 70
     1
102
RTVSPropertyOp9
 70
     1
102
RTVSPropertyOp10
 70
     1
102
RTVSPropertyOp11
 70
     1
102
RTVSPropertyOp12
 70
     1
102
RTVSPropertyOp13
 70
     1
102
RTVSPropertyOp14
 70
     1
102
RTVSPropertyOp15
 70
     1
102
RTVSPropertyOp16
 70
     1
102
RTVSPropertyOp17
 70
     1
102
RTVSPropertyOp18
 70
     1
102
RTVSPropertyOp19
 70
     1
102
RTVSPropertyOp20
 70
     1
102
RTVSPropertyOp21
 70
     1
102
RTVSPropertyOp22
 70
     1
102
RTVSPropertyOp23
 70
     1
102
RTVSPropertyOp24
 70
     1
102
RTVSPropertyOp25
 70
     1
102
RTVSPropertyOp26
 70
     1
102
RTVSPropertyOp27
 70
     1
102
RTVSPropertyOp28
 70
     1
102
RTVSPropertyOp29
 70
     1
102
RTVSPropertyOp30
 70
     1
102
RTVSPropertyOp31
 70
     1
102
RTVSPropertyOp32
 70
     1
  0
XRECORD
  5
CE7
102
{ACAD_REACTORS
330
CE6
102
}
330
CE6
100
AcDbXrecord
280
     1
102
RTVSPropertyOp0
 70
     1
102
RTVSPropertyOp1
 70
     1
102
RTVSPropertyOp2
 70
     1
102
RTVSPropertyOp3
 70
     1
102
RTVSPropertyOp4
 70
     1
102
RTVSPropertyOp5
 70
     1
102
RTVSPropertyOp6
 70
     1
102
RTVSPropertyOp7
 70
     1
102
RTVSPropertyOp8
 70
     1
102
RTVSPropertyOp9
 70
     1
102
RTVSPropertyOp10
 70
     1
102
RTVSPropertyOp11
 70
     1
102
RTVSPropertyOp12
 70
     1
102
RTVSPropertyOp13
 70
     1
102
RTVSPropertyOp14
 70
     1
102
RTVSPropertyOp15
 70
     1
102
RTVSPropertyOp16
 70
     1
102
RTVSPropertyOp17
 70
     1
102
RTVSPropertyOp18
 70
     1
102
RTVSPropertyOp19
 70
     1
102
RTVSPropertyOp20
 70
     1
102
RTVSPropertyOp21
 70
     1
102
RTVSPropertyOp22
 70
     1
102
RTVSPropertyOp23
 70
     1
102
RTVSPropertyOp24
 70
     1
102
RTVSPropertyOp25
 70
     1
102
RTVSPropertyOp26
 70
     1
102
RTVSPropertyOp27
 70
     1
102
RTVSPropertyOp28
 70
     1
102
RTVSPropertyOp29
 70
     1
102
RTVSPropertyOp30
 70
     1
102
RTVSPropertyOp31
 70
     1
102
RTVSPropertyOp32
 70
     1
  0
XRECORD
  5
CE9
102
{ACAD_REACTORS
330
CE8
102
}
330
CE8
100
AcDbXrecord
280
     1
102
RTVSPropertyOp0
 70
     1
102
RTVSPropertyOp1
 70
     1
102
RTVSPropertyOp2
 70
     1
102
RTVSPropertyOp3
 70
     1
102
RTVSPropertyOp4
 70
     1
102
RTVSPropertyOp5
 70
     1
102
RTVSPropertyOp6
 70
     1
102
RTVSPropertyOp7
 70
     1
102
RTVSPropertyOp8
 70
     1
102
RTVSPropertyOp9
 70
     1
102
RTVSPropertyOp10
 70
     1
102
RTVSPropertyOp11
 70
     1
102
RTVSPropertyOp12
 70
     1
102
RTVSPropertyOp13
 70
     1
102
RTVSPropertyOp14
 70
     1
102
RTVSPropertyOp15
 70
     1
102
RTVSPropertyOp16
 70
     1
102
RTVSPropertyOp17
 70
     1
102
RTVSPropertyOp18
 70
     1
102
RTVSPropertyOp19
 70
     1
102
RTVSPropertyOp20
 70
     1
102
RTVSPropertyOp21
 70
     1
102
RTVSPropertyOp22
 70
     1
102
RTVSPropertyOp23
 70
     1
102
RTVSPropertyOp24
 70
     1
102
RTVSPropertyOp25
 70
     1
102
RTVSPropertyOp26
 70
     1
102
RTVSPropertyOp27
 70
     1
102
RTVSPropertyOp28
 70
     1
102
RTVSPropertyOp29
 70
     1
102
RTVSPropertyOp30
 70
     1
102
RTVSPropertyOp31
 70
     1
102
RTVSPropertyOp32
 70
     1
  0
XRECORD
  5
CEB
102
{ACAD_REACTORS
330
CEA
102
}
330
CEA
100
AcDbXrecord
280
     1
102
RTVSPropertyOp0
 70
     1
102
RTVSPropertyOp1
 70
     1
102
RTVSPropertyOp2
 70
     1
102
RTVSPropertyOp3
 70
     1
102
RTVSPropertyOp4
 70
     1
102
RTVSPropertyOp5
 70
     1
102
RTVSPropertyOp6
 70
     1
102
RTVSPropertyOp7
 70
     1
102
RTVSPropertyOp8
 70
     1
102
RTVSPropertyOp9
 70
     1
102
RTVSPropertyOp10
 70
     1
102
RTVSPropertyOp11
 70
     1
102
RTVSPropertyOp12
 70
     1
102
RTVSPropertyOp13
 70
     1
102
RTVSPropertyOp14
 70
     1
102
RTVSPropertyOp15
 70
     1
102
RTVSPropertyOp16
 70
     1
102
RTVSPropertyOp17
 70
     1
102
RTVSPropertyOp18
 70
     1
102
RTVSPropertyOp19
 70
     1
102
RTVSPropertyOp20
 70
     1
102
RTVSPropertyOp21
 70
     1
102
RTVSPropertyOp22
 70
     1
102
RTVSPropertyOp23
 70
     1
102
RTVSPropertyOp24
 70
     1
102
RTVSPropertyOp25
 70
     1
102
RTVSPropertyOp26
 70
     1
102
RTVSPropertyOp27
 70
     1
102
RTVSPropertyOp28
 70
     1
102
RTVSPropertyOp29
 70
     1
102
RTVSPropertyOp30
 70
     1
102
RTVSPropertyOp31
 70
     1
102
RTVSPropertyOp32
 70
     1
  0
XRECORD
  5
CF3
102
{ACAD_REACTORS
330
CF2
102
}
330
CF2
100
AcDbXrecord
280
     1
102
RTVSPropertyOp0
 70
     1
102
RTVSPropertyOp1
 70
     1
102
RTVSPropertyOp2
 70
     1
102
RTVSPropertyOp3
 70
     1
102
RTVSPropertyOp4
 70
     1
102
RTVSPropertyOp5
 70
     1
102
RTVSPropertyOp6
 70
     1
102
RTVSPropertyOp7
 70
     1
102
RTVSPropertyOp8
 70
     1
102
RTVSPropertyOp9
 70
     1
102
RTVSPropertyOp10
 70
     1
102
RTVSPropertyOp11
 70
     1
102
RTVSPropertyOp12
 70
     1
102
RTVSPropertyOp13
 70
     1
102
RTVSPropertyOp14
 70
     1
102
RTVSPropertyOp15
 70
     1
102
RTVSPropertyOp16
 70
     1
102
RTVSPropertyOp17
 70
     1
102
RTVSPropertyOp18
 70
     1
102
RTVSPropertyOp19
 70
     1
102
RTVSPropertyOp20
 70
     1
102
RTVSPropertyOp21
 70
     1
102
RTVSPropertyOp22
 70
     1
102
RTVSPropertyOp23
 70
     1
102
RTVSPropertyOp24
 70
     1
102
RTVSPropertyOp25
 70
     1
102
RTVSPropertyOp26
 70
     1
102
RTVSPropertyOp27
 70
     1
102
RTVSPropertyOp28
 70
     1
102
RTVSPropertyOp29
 70
     1
102
RTVSPropertyOp30
 70
     1
102
RTVSPropertyOp31
 70
     1
102
RTVSPropertyOp32
 70
     1
  0
XRECORD
  5
D0F
102
{ACAD_REACTORS
330
D0E
102
}
330
D0E
100
AcDbXrecord
280
     1
102
RTVSPropertyOp0
 70
     0
102
RTVSPropertyOp1
 70
     0
102
RTVSPropertyOp2
 70
     0
102
RTVSPropertyOp3
 70
     0
102
RTVSPropertyOp4
 70
     0
102
RTVSPropertyOp5
 70
     0
102
RTVSPropertyOp6
 70
     0
102
RTVSPropertyOp7
 70
     0
102
RTVSPropertyOp8
 70
     0
102
RTVSPropertyOp9
 70
     0
102
RTVSPropertyOp10
 70
     0
102
RTVSPropertyOp11
 70
     0
102
RTVSPropertyOp12
 70
     0
102
RTVSPropertyOp13
 70
     0
102
RTVSPropertyOp14
 70
     2
102
RTVSPropertyOp15
 70
     0
102
RTVSPropertyOp16
 70
     0
102
RTVSPropertyOp17
 70
     0
102
RTVSPropertyOp18
 70
     0
102
RTVSPropertyOp19
 70
     0
102
RTVSPropertyOp20
 70
     0
102
RTVSPropertyOp21
 70
     0
102
RTVSPropertyOp22
 70
     0
102
RTVSPropertyOp23
 70
     0
102
RTVSPropertyOp24
 70
     0
102
RTVSPropertyOp25
 70
     0
102
RTVSPropertyOp26
 70
     0
102
RTVSPropertyOp27
 70
     0
102
RTVSPropertyOp28
 70
     0
102
RTVSPropertyOp29
 70
     0
102
RTVSPropertyOp30
 70
     0
102
RTVSPropertyOp31
 70
     0
102
RTVSPropertyOp32
 70
     0
  0
XRECORD
  5
CFF
102
{ACAD_REACTORS
330
CFE
102
}
330
CFE
100
AcDbXrecord
280
     1
102
RTVSPropertyOp0
 70
     1
102
RTVSPropertyOp1
 70
     1
102
RTVSPropertyOp2
 70
     1
102
RTVSPropertyOp3
 70
     1
102
RTVSPropertyOp4
 70
     1
102
RTVSPropertyOp5
 70
     1
102
RTVSPropertyOp6
 70
     1
102
RTVSPropertyOp7
 70
     1
102
RTVSPropertyOp8
 70
     1
102
RTVSPropertyOp9
 70
     1
102
RTVSPropertyOp10
 70
     1
102
RTVSPropertyOp11
 70
     1
102
RTVSPropertyOp12
 70
     1
102
RTVSPropertyOp13
 70
     1
102
RTVSPropertyOp14
 70
     1
102
RTVSPropertyOp15
 70
     1
102
RTVSPropertyOp16
 70
     1
102
RTVSPropertyOp17
 70
     1
102
RTVSPropertyOp18
 70
     1
102
RTVSPropertyOp19
 70
     1
102
RTVSPropertyOp20
 70
     1
102
RTVSPropertyOp21
 70
     1
102
RTVSPropertyOp22
 70
     1
102
RTVSPropertyOp23
 70
     1
102
RTVSPropertyOp24
 70
     1
102
RTVSPropertyOp25
 70
     1
102
RTVSPropertyOp26
 70
     1
102
RTVSPropertyOp27
 70
     1
102
RTVSPropertyOp28
 70
     1
102
RTVSPropertyOp29
 70
     1
102
RTVSPropertyOp30
 70
     1
102
RTVSPropertyOp31
 70
     1
102
RTVSPropertyOp32
 70
     1
  0
XRECORD
  5
D11
102
{ACAD_REACTORS
330
D10
102
}
330
D10
100
AcDbXrecord
280
     1
102
RTVSPropertyOp0
 70
     0
102
RTVSPropertyOp1
 70
     0
102
RTVSPropertyOp2
 70
     0
102
RTVSPropertyOp3
 70
     0
102
RTVSPropertyOp4
 70
     0
102
RTVSPropertyOp5
 70
     0
102
RTVSPropertyOp6
 70
     0
102
RTVSPropertyOp7
 70
     0
102
RTVSPropertyOp8
 70
     0
102
RTVSPropertyOp9
 70
     0
102
RTVSPropertyOp10
 70
     0
102
RTVSPropertyOp11
 70
     0
102
RTVSPropertyOp12
 70
     0
102
RTVSPropertyOp13
 70
     0
102
RTVSPropertyOp14
 70
     2
102
RTVSPropertyOp15
 70
     0
102
RTVSPropertyOp16
 70
     0
102
RTVSPropertyOp17
 70
     0
102
RTVSPropertyOp18
 70
     0
102
RTVSPropertyOp19
 70
     0
102
RTVSPropertyOp20
 70
     0
102
RTVSPropertyOp21
 70
     0
102
RTVSPropertyOp22
 70
     0
102
RTVSPropertyOp23
 70
     0
102
RTVSPropertyOp24
 70
     0
102
RTVSPropertyOp25
 70
     0
102
RTVSPropertyOp26
 70
     0
102
RTVSPropertyOp27
 70
     0
102
RTVSPropertyOp28
 70
     0
102
RTVSPropertyOp29
 70
     0
102
RTVSPropertyOp30
 70
     0
102
RTVSPropertyOp31
 70
     0
102
RTVSPropertyOp32
 70
     0
  0
XRECORD
  5
CF7
102
{ACAD_REACTORS
330
CF6
102
}
330
CF6
100
AcDbXrecord
280
     1
102
RTVSPropertyOp0
 70
     1
102
RTVSPropertyOp1
 70
     1
102
RTVSPropertyOp2
 70
     1
102
RTVSPropertyOp3
 70
     1
102
RTVSPropertyOp4
 70
     1
102
RTVSPropertyOp5
 70
     1
102
RTVSPropertyOp6
 70
     1
102
RTVSPropertyOp7
 70
     1
102
RTVSPropertyOp8
 70
     1
102
RTVSPropertyOp9
 70
     1
102
RTVSPropertyOp10
 70
     1
102
RTVSPropertyOp11
 70
     1
102
RTVSPropertyOp12
 70
     1
102
RTVSPropertyOp13
 70
     1
102
RTVSPropertyOp14
 70
     1
102
RTVSPropertyOp15
 70
     1
102
RTVSPropertyOp16
 70
     1
102
RTVSPropertyOp17
 70
     1
102
RTVSPropertyOp18
 70
     1
102
RTVSPropertyOp19
 70
     1
102
RTVSPropertyOp20
 70
     1
102
RTVSPropertyOp21
 70
     1
102
RTVSPropertyOp22
 70
     1
102
RTVSPropertyOp23
 70
     1
102
RTVSPropertyOp24
 70
     1
102
RTVSPropertyOp25
 70
     1
102
RTVSPropertyOp26
 70
     1
102
RTVSPropertyOp27
 70
     1
102
RTVSPropertyOp28
 70
     1
102
RTVSPropertyOp29
 70
     1
102
RTVSPropertyOp30
 70
     1
102
RTVSPropertyOp31
 70
     1
102
RTVSPropertyOp32
 70
     1
  0
XRECORD
  5
D0D
102
{ACAD_REACTORS
330
D0C
102
}
330
D0C
100
AcDbXrecord
280
     1
102
RTVSPropertyOp0
 70
     1
102
RTVSPropertyOp1
 70
     1
102
RTVSPropertyOp2
 70
     1
102
RTVSPropertyOp3
 70
     1
102
RTVSPropertyOp4
 70
     1
102
RTVSPropertyOp5
 70
     1
102
RTVSPropertyOp6
 70
     1
102
RTVSPropertyOp7
 70
     1
102
RTVSPropertyOp8
 70
     1
102
RTVSPropertyOp9
 70
     1
102
RTVSPropertyOp10
 70
     1
102
RTVSPropertyOp11
 70
     1
102
RTVSPropertyOp12
 70
     1
102
RTVSPropertyOp13
 70
     1
102
RTVSPropertyOp14
 70
     1
102
RTVSPropertyOp15
 70
     1
102
RTVSPropertyOp16
 70
     1
102
RTVSPropertyOp17
 70
     1
102
RTVSPropertyOp18
 70
     1
102
RTVSPropertyOp19
 70
     1
102
RTVSPropertyOp20
 70
     1
102
RTVSPropertyOp21
 70
     1
102
RTVSPropertyOp22
 70
     1
102
RTVSPropertyOp23
 70
     1
102
RTVSPropertyOp24
 70
     1
102
RTVSPropertyOp25
 70
     1
102
RTVSPropertyOp26
 70
     1
102
RTVSPropertyOp27
 70
     1
102
RTVSPropertyOp28
 70
     1
102
RTVSPropertyOp29
 70
     1
102
RTVSPropertyOp30
 70
     1
102
RTVSPropertyOp31
 70
     1
102
RTVSPropertyOp32
 70
     1
  0
XRECORD
  5
D0B
102
{ACAD_REACTORS
330
D0A
102
}
330
D0A
100
AcDbXrecord
280
     1
102
RTVSPropertyOp0
 70
     1
102
RTVSPropertyOp1
 70
     1
102
RTVSPropertyOp2
 70
     1
102
RTVSPropertyOp3
 70
     1
102
RTVSPropertyOp4
 70
     1
102
RTVSPropertyOp5
 70
     1
102
RTVSPropertyOp6
 70
     1
102
RTVSPropertyOp7
 70
     1
102
RTVSPropertyOp8
 70
     1
102
RTVSPropertyOp9
 70
     1
102
RTVSPropertyOp10
 70
     1
102
RTVSPropertyOp11
 70
     1
102
RTVSPropertyOp12
 70
     1
102
RTVSPropertyOp13
 70
     1
102
RTVSPropertyOp14
 70
     1
102
RTVSPropertyOp15
 70
     1
102
RTVSPropertyOp16
 70
     1
102
RTVSPropertyOp17
 70
     1
102
RTVSPropertyOp18
 70
     1
102
RTVSPropertyOp19
 70
     1
102
RTVSPropertyOp20
 70
     1
102
RTVSPropertyOp21
 70
     1
102
RTVSPropertyOp22
 70
     1
102
RTVSPropertyOp23
 70
     1
102
RTVSPropertyOp24
 70
     1
102
RTVSPropertyOp25
 70
     1
102
RTVSPropertyOp26
 70
     1
102
RTVSPropertyOp27
 70
     1
102
RTVSPropertyOp28
 70
     1
102
RTVSPropertyOp29
 70
     1
102
RTVSPropertyOp30
 70
     1
102
RTVSPropertyOp31
 70
     1
102
RTVSPropertyOp32
 70
     1
  0
XRECORD
  5
D05
102
{ACAD_REACTORS
330
D04
102
}
330
D04
100
AcDbXrecord
280
     1
102
RTVSPropertyOp0
 70
     1
102
RTVSPropertyOp1
 70
     1
102
RTVSPropertyOp2
 70
     1
102
RTVSPropertyOp3
 70
     1
102
RTVSPropertyOp4
 70
     1
102
RTVSPropertyOp5
 70
     1
102
RTVSPropertyOp6
 70
     1
102
RTVSPropertyOp7
 70
     1
102
RTVSPropertyOp8
 70
     1
102
RTVSPropertyOp9
 70
     1
102
RTVSPropertyOp10
 70
     1
102
RTVSPropertyOp11
 70
     1
102
RTVSPropertyOp12
 70
     1
102
RTVSPropertyOp13
 70
     1
102
RTVSPropertyOp14
 70
     1
102
RTVSPropertyOp15
 70
     1
102
RTVSPropertyOp16
 70
     1
102
RTVSPropertyOp17
 70
     1
102
RTVSPropertyOp18
 70
     1
102
RTVSPropertyOp19
 70
     1
102
RTVSPropertyOp20
 70
     1
102
RTVSPropertyOp21
 70
     1
102
RTVSPropertyOp22
 70
     1
102
RTVSPropertyOp23
 70
     1
102
RTVSPropertyOp24
 70
     1
102
RTVSPropertyOp25
 70
     1
102
RTVSPropertyOp26
 70
     1
102
RTVSPropertyOp27
 70
     1
102
RTVSPropertyOp28
 70
     1
102
RTVSPropertyOp29
 70
     1
102
RTVSPropertyOp30
 70
     1
102
RTVSPropertyOp31
 70
     1
102
RTVSPropertyOp32
 70
     1
  0
XRECORD
  5
D07
102
{ACAD_REACTORS
330
D06
102
}
330
D06
100
AcDbXrecord
280
     1
102
RTVSPropertyOp0
 70
     1
102
RTVSPropertyOp1
 70
     1
102
RTVSPropertyOp2
 70
     1
102
RTVSPropertyOp3
 70
     1
102
RTVSPropertyOp4
 70
     1
102
RTVSPropertyOp5
 70
     1
102
RTVSPropertyOp6
 70
     1
102
RTVSPropertyOp7
 70
     1
102
RTVSPropertyOp8
 70
     1
102
RTVSPropertyOp9
 70
     1
102
RTVSPropertyOp10
 70
     1
102
RTVSPropertyOp11
 70
     1
102
RTVSPropertyOp12
 70
     1
102
RTVSPropertyOp13
 70
     1
102
RTVSPropertyOp14
 70
     1
102
RTVSPropertyOp15
 70
     1
102
RTVSPropertyOp16
 70
     1
102
RTVSPropertyOp17
 70
     1
102
RTVSPropertyOp18
 70
     1
102
RTVSPropertyOp19
 70
     1
102
RTVSPropertyOp20
 70
     1
102
RTVSPropertyOp21
 70
     1
102
RTVSPropertyOp22
 70
     1
102
RTVSPropertyOp23
 70
     1
102
RTVSPropertyOp24
 70
     1
102
RTVSPropertyOp25
 70
     1
102
RTVSPropertyOp26
 70
     1
102
RTVSPropertyOp27
 70
     1
102
RTVSPropertyOp28
 70
     1
102
RTVSPropertyOp29
 70
     1
102
RTVSPropertyOp30
 70
     1
102
RTVSPropertyOp31
 70
     1
102
RTVSPropertyOp32
 70
     1
  0
XRECORD
  5
CFD
102
{ACAD_REACTORS
330
CFC
102
}
330
CFC
100
AcDbXrecord
280
     1
102
RTVSPropertyOp0
 70
     1
102
RTVSPropertyOp1
 70
     1
102
RTVSPropertyOp2
 70
     1
102
RTVSPropertyOp3
 70
     1
102
RTVSPropertyOp4
 70
     1
102
RTVSPropertyOp5
 70
     1
102
RTVSPropertyOp6
 70
     1
102
RTVSPropertyOp7
 70
     1
102
RTVSPropertyOp8
 70
     1
102
RTVSPropertyOp9
 70
     1
102
RTVSPropertyOp10
 70
     1
102
RTVSPropertyOp11
 70
     1
102
RTVSPropertyOp12
 70
     1
102
RTVSPropertyOp13
 70
     1
102
RTVSPropertyOp14
 70
     1
102
RTVSPropertyOp15
 70
     1
102
RTVSPropertyOp16
 70
     1
102
RTVSPropertyOp17
 70
     1
102
RTVSPropertyOp18
 70
     1
102
RTVSPropertyOp19
 70
     1
102
RTVSPropertyOp20
 70
     1
102
RTVSPropertyOp21
 70
     1
102
RTVSPropertyOp22
 70
     1
102
RTVSPropertyOp23
 70
     1
102
RTVSPropertyOp24
 70
     1
102
RTVSPropertyOp25
 70
     1
102
RTVSPropertyOp26
 70
     1
102
RTVSPropertyOp27
 70
     1
102
RTVSPropertyOp28
 70
     1
102
RTVSPropertyOp29
 70
     1
102
RTVSPropertyOp30
 70
     1
102
RTVSPropertyOp31
 70
     1
102
RTVSPropertyOp32
 70
     1
  0
XRECORD
  5
CF1
102
{ACAD_REACTORS
330
CF0
102
}
330
CF0
100
AcDbXrecord
280
     1
102
RTVSPropertyOp0
 70
     1
102
RTVSPropertyOp1
 70
     1
102
RTVSPropertyOp2
 70
     1
102
RTVSPropertyOp3
 70
     1
102
RTVSPropertyOp4
 70
     1
102
RTVSPropertyOp5
 70
     1
102
RTVSPropertyOp6
 70
     1
102
RTVSPropertyOp7
 70
     1
102
RTVSPropertyOp8
 70
     1
102
RTVSPropertyOp9
 70
     1
102
RTVSPropertyOp10
 70
     1
102
RTVSPropertyOp11
 70
     1
102
RTVSPropertyOp12
 70
     1
102
RTVSPropertyOp13
 70
     1
102
RTVSPropertyOp14
 70
     1
102
RTVSPropertyOp15
 70
     1
102
RTVSPropertyOp16
 70
     1
102
RTVSPropertyOp17
 70
     1
102
RTVSPropertyOp18
 70
     1
102
RTVSPropertyOp19
 70
     1
102
RTVSPropertyOp20
 70
     1
102
RTVSPropertyOp21
 70
     1
102
RTVSPropertyOp22
 70
     1
102
RTVSPropertyOp23
 70
     1
102
RTVSPropertyOp24
 70
     1
102
RTVSPropertyOp25
 70
     1
102
RTVSPropertyOp26
 70
     1
102
RTVSPropertyOp27
 70
     1
102
RTVSPropertyOp28
 70
     1
102
RTVSPropertyOp29
 70
     1
102
RTVSPropertyOp30
 70
     1
102
RTVSPropertyOp31
 70
     1
102
RTVSPropertyOp32
 70
     1
  0
XRECORD
  5
D09
102
{ACAD_REACTORS
330
D08
102
}
330
D08
100
AcDbXrecord
280
     1
102
RTVSPropertyOp0
 70
     1
102
RTVSPropertyOp1
 70
     1
102
RTVSPropertyOp2
 70
     1
102
RTVSPropertyOp3
 70
     1
102
RTVSPropertyOp4
 70
     1
102
RTVSPropertyOp5
 70
     1
102
RTVSPropertyOp6
 70
     1
102
RTVSPropertyOp7
 70
     1
102
RTVSPropertyOp8
 70
     1
102
RTVSPropertyOp9
 70
     1
102
RTVSPropertyOp10
 70
     1
102
RTVSPropertyOp11
 70
     1
102
RTVSPropertyOp12
 70
     1
102
RTVSPropertyOp13
 70
     1
102
RTVSPropertyOp14
 70
     1
102
RTVSPropertyOp15
 70
     1
102
RTVSPropertyOp16
 70
     1
102
RTVSPropertyOp17
 70
     1
102
RTVSPropertyOp18
 70
     1
102
RTVSPropertyOp19
 70
     1
102
RTVSPropertyOp20
 70
     1
102
RTVSPropertyOp21
 70
     1
102
RTVSPropertyOp22
 70
     1
102
RTVSPropertyOp23
 70
     1
102
RTVSPropertyOp24
 70
     1
102
RTVSPropertyOp25
 70
     1
102
RTVSPropertyOp26
 70
     1
102
RTVSPropertyOp27
 70
     1
102
RTVSPropertyOp28
 70
     1
102
RTVSPropertyOp29
 70
     1
102
RTVSPropertyOp30
 70
     1
102
RTVSPropertyOp31
 70
     1
102
RTVSPropertyOp32
 70
     1
  0
ENDSEC
  0
EOF
