  0
SECTION
  2
HEADER
  9
$ACADVER
  1
AC1021
  9
$ACADMAINTVER
 70
    50
  9
$DWGCODEPAGE
  3
ANSI_1252
  9
$AUTHOR
  1
zsm
  9
$CUSTOMPROPERTYTAG
  1
Manager
  9
$CUSTOMPROPERTY
  1

  9
$CUSTOMPROPERTYTAG
  1
Firma
  9
$CUSTOMPROPERTY
  1

  9
$CUSTOMPROPERTYTAG
  1
Kategorie
  9
$CUSTOMPROPERTY
  1

  9
$CUSTOMPROPERTYTAG
  1
Bauteilnummer
  9
$CUSTOMPROPERTY
  1
50055
  9
$CUSTOMPROPERTYTAG
  1
Bezeichnung
  9
$CUSTOMPROPERTY
  1
Metallbaugarnitur kpl.
  9
$CUSTOMPROPERTYTAG
  1
Projekt
  9
$CUSTOMPROPERTY
  1

  9
$CUSTOMPROPERTYTAG
  1
Konstrukteur
  9
$CUSTOMPROPERTY
  1
zsm
  9
$CUSTOMPROPERTYTAG
  1
Ingenieur
  9
$CUSTOMPROPERTY
  1

  9
$CUSTOMPROPERTYTAG
  1
Bevollmächtigter
  9
$CUSTOMPROPERTY
  1

  9
$CUSTOMPROPERTYTAG
  1
Kostenstelle
  9
$CUSTOMPROPERTY
  1

  9
$CUSTOMPROPERTYTAG
  1
Zulieferer
  9
$CUSTOMPROPERTY
  1

  9
$CUSTOMPROPERTYTAG
  1
Benutzerstatus
  9
$CUSTOMPROPERTY
  1

  9
$CUSTOMPROPERTYTAG
  1
Konstruktionsstatus
  9
$CUSTOMPROPERTY
  1
InBearbeitung
  9
$CUSTOMPROPERTYTAG
  1
Kontrolliert von
  9
$CUSTOMPROPERTY
  1

  9
$CUSTOMPROPERTYTAG
  1
Konstruktion genehmigt von
  9
$CUSTOMPROPERTY
  1

  9
$CUSTOMPROPERTYTAG
  1
Fertigung genehmigt von
  9
$CUSTOMPROPERTY
  1

  9
$CUSTOMPROPERTYTAG
  1
Aend_Beschreibung_1
  9
$CUSTOMPROPERTY
  1

  9
$CUSTOMPROPERTYTAG
  1
Aend_Beschreibung_2
  9
$CUSTOMPROPERTY
  1

  9
$CUSTOMPROPERTYTAG
  1
Aend_Beschreibung_3
  9
$CUSTOMPROPERTY
  1

  9
$CUSTOMPROPERTYTAG
  1
Aend_Beschreibung_4
  9
$CUSTOMPROPERTY
  1

  9
$CUSTOMPROPERTYTAG
  1
Aend_Beschreibung_5
  9
$CUSTOMPROPERTY
  1

  9
$CUSTOMPROPERTYTAG
  1
Aend_Beschreibung_6
  9
$CUSTOMPROPERTY
  1

  9
$CUSTOMPROPERTYTAG
  1
Aend_Beschreibung_7
  9
$CUSTOMPROPERTY
  1

  9
$CUSTOMPROPERTYTAG
  1
Aend_Beschreibung_8
  9
$CUSTOMPROPERTY
  1

  9
$CUSTOMPROPERTYTAG
  1
Aend_Index_1
  9
$CUSTOMPROPERTY
  1

  9
$CUSTOMPROPERTYTAG
  1
Aend_Index_2
  9
$CUSTOMPROPERTY
  1

  9
$CUSTOMPROPERTYTAG
  1
Aend_Index_3
  9
$CUSTOMPROPERTY
  1

  9
$CUSTOMPROPERTYTAG
  1
Aend_Index_4
  9
$CUSTOMPROPERTY
  1

  9
$CUSTOMPROPERTYTAG
  1
Aend_Index_5
  9
$CUSTOMPROPERTY
  1

  9
$CUSTOMPROPERTYTAG
  1
Aend_Index_6
  9
$CUSTOMPROPERTY
  1

  9
$CUSTOMPROPERTYTAG
  1
Aend_Index_7
  9
$CUSTOMPROPERTY
  1

  9
$CUSTOMPROPERTYTAG
  1
Aend_Index_8
  9
$CUSTOMPROPERTY
  1

  9
$CUSTOMPROPERTYTAG
  1
Aend_Name_1
  9
$CUSTOMPROPERTY
  1

  9
$CUSTOMPROPERTYTAG
  1
Aend_Name_2
  9
$CUSTOMPROPERTY
  1

  9
$CUSTOMPROPERTYTAG
  1
Aend_Name_3
  9
$CUSTOMPROPERTY
  1

  9
$CUSTOMPROPERTYTAG
  1
Aend_Name_4
  9
$CUSTOMPROPERTY
  1

  9
$CUSTOMPROPERTYTAG
  1
Aend_Name_5
  9
$CUSTOMPROPERTY
  1

  9
$CUSTOMPROPERTYTAG
  1
Aend_Name_6
  9
$CUSTOMPROPERTY
  1

  9
$CUSTOMPROPERTYTAG
  1
Aend_Name_7
  9
$CUSTOMPROPERTY
  1

  9
$CUSTOMPROPERTYTAG
  1
Aend_Name_8
  9
$CUSTOMPROPERTY
  1

  9
$CUSTOMPROPERTYTAG
  1
Dimension
  9
$CUSTOMPROPERTY
  1

  9
$CUSTOMPROPERTYTAG
  1
Masse
  9
$CUSTOMPROPERTY
  1

  9
$CUSTOMPROPERTYTAG
  1
Material
  9
$CUSTOMPROPERTY
  1

  9
$CUSTOMPROPERTYTAG
  1
Menge
  9
$CUSTOMPROPERTY
  1

  9
$CUSTOMPROPERTYTAG
  1
Norm
  9
$CUSTOMPROPERTY
  1

  9
$CUSTOMPROPERTYTAG
  1
Position
  9
$CUSTOMPROPERTY
  1

  9
$CUSTOMPROPERTYTAG
  1
Ersatz_fuer
  9
$CUSTOMPROPERTY
  1

  9
$CUSTOMPROPERTYTAG
  1
Esetzt_durch
  9
$CUSTOMPROPERTY
  1

  9
$CUSTOMPROPERTYTAG
  1
Massstab
  9
$CUSTOMPROPERTY
  1
1 : 2
  9
$CUSTOMPROPERTYTAG
  1
SysDate
  9
$CUSTOMPROPERTY
  1
04.10.2013
  9
$CUSTOMPROPERTYTAG
  1
SysTime
  9
$CUSTOMPROPERTY
  1
12:16
  9
$INSBASE
 10
0.0
 20
0.0
 30
0.0
  9
$EXTMIN
 10
0.0
 20
0.0
 30
0.0
  9
$EXTMAX
 10
420.0
 20
594.0
 30
0.0
  9
$LIMMIN
 10
0.0
 20
0.0
  9
$LIMMAX
 10
420.0
 20
594.0
  9
$ORTHOMODE
 70
     0
  9
$REGENMODE
 70
     1
  9
$FILLMODE
 70
     1
  9
$QTEXTMODE
 70
     0
  9
$MIRRTEXT
 70
     0
  9
$LTSCALE
 40
2.0
  9
$ATTMODE
 70
     1
  9
$TEXTSIZE
 40
0.2
  9
$TRACEWID
 40
0.05
  9
$TEXTSTYLE
  7
Standard
  9
$CLAYER
  8
0
  9
$CELTYPE
  6
ByLayer
  9
$CECOLOR
 62
   256
  9
$CELTSCALE
 40
1.0
  9
$DISPSILH
 70
     0
  9
$DIMSCALE
 40
1.0
  9
$DIMASZ
 40
1.799999999999999
  9
$DIMEXO
 40
0.0625
  9
$DIMDLI
 40
0.38
  9
$DIMRND
 40
0.0
  9
$DIMDLE
 40
0.0
  9
$DIMEXE
 40
0.18
  9
$DIMTP
 40
0.0
  9
$DIMTM
 40
0.0
  9
$DIMTXT
 40
0.3499999940395355
  9
$DIMCEN
 40
0.09
  9
$DIMTSZ
 40
0.0
  9
$DIMTOL
 70
     0
  9
$DIMLIM
 70
     0
  9
$DIMTIH
 70
     1
  9
$DIMTOH
 70
     1
  9
$DIMSE1
 70
     0
  9
$DIMSE2
 70
     0
  9
$DIMTAD
 70
     0
  9
$DIMZIN
 70
     0
  9
$DIMBLK
  1

  9
$DIMASO
 70
     1
  9
$DIMSHO
 70
     1
  9
$DIMPOST
  1

  9
$DIMAPOST
  1

  9
$DIMALT
 70
     0
  9
$DIMALTD
 70
     2
  9
$DIMALTF
 40
25.4
  9
$DIMLFAC
 40
1.0
  9
$DIMTOFL
 70
     0
  9
$DIMTVP
 40
0.0
  9
$DIMTIX
 70
     0
  9
$DIMSOXD
 70
     0
  9
$DIMSAH
 70
     0
  9
$DIMBLK1
  1

  9
$DIMBLK2
  1

  9
$DIMSTYLE
  2
Standard
  9
$DIMCLRD
 70
     0
  9
$DIMCLRE
 70
     0
  9
$DIMCLRT
 70
     0
  9
$DIMTFAC
 40
1.0
  9
$DIMGAP
 40
0.09
  9
$DIMJUST
 70
     0
  9
$DIMSD1
 70
     0
  9
$DIMSD2
 70
     0
  9
$DIMTOLJ
 70
     1
  9
$DIMTZIN
 70
     0
  9
$DIMALTZ
 70
     0
  9
$DIMALTTZ
 70
     0
  9
$DIMUPT
 70
     0
  9
$DIMDEC
 70
     4
  9
$DIMTDEC
 70
     4
  9
$DIMALTU
 70
     2
  9
$DIMALTTD
 70
     2
  9
$DIMTXSTY
  7
Standard
  9
$DIMAUNIT
 70
     0
  9
$DIMADEC
 70
     0
  9
$DIMALTRND
 40
0.0
  9
$DIMAZIN
 70
     0
  9
$DIMDSEP
 70
    46
  9
$DIMATFIT
 70
     3
  9
$DIMFRAC
 70
     0
  9
$DIMLDRBLK
  1

  9
$DIMLUNIT
 70
     2
  9
$DIMLWD
 70
    -2
  9
$DIMLWE
 70
    -2
  9
$DIMTMOVE
 70
     0
  9
$DIMFXL
 40
1.0
  9
$DIMFXLON
 70
     0
  9
$DIMJOGANG
 40
0.7853981633974483
  9
$DIMTFILL
 70
     0
  9
$DIMTFILLCLR
 70
     0
  9
$DIMARCSYM
 70
     0
  9
$DIMLTYPE
  6

  9
$DIMLTEX1
  6

  9
$DIMLTEX2
  6

  9
$LUNITS
 70
     2
  9
$LUPREC
 70
     4
  9
$SKETCHINC
 40
0.1
  9
$FILLETRAD
 40
0.0
  9
$AUNITS
 70
     0
  9
$AUPREC
 70
     0
  9
$MENU
  1
.
  9
$ELEVATION
 40
0.0
  9
$PELEVATION
 40
0.0
  9
$THICKNESS
 40
0.0
  9
$LIMCHECK
 70
     0
  9
$CHAMFERA
 40
0.0
  9
$CHAMFERB
 40
0.0
  9
$CHAMFERC
 40
0.0
  9
$CHAMFERD
 40
0.0
  9
$SKPOLY
 70
     0
  9
$TDCREATE
 40
2456570.569622766
  9
$TDUCREATE
 40
2456570.486289433
  9
$TDUPDATE
 40
2456570.569622766
  9
$TDUUPDATE
 40
2456570.486289433
  9
$TDINDWG
 40
0.0000453935
  9
$TDUSRTIMER
 40
0.0000453704
  9
$USRTIMER
 70
     1
  9
$ANGBASE
 50
0.0
  9
$ANGDIR
 70
     0
  9
$PDMODE
 70
     0
  9
$PDSIZE
 40
0.0
  9
$PLINEWID
 40
0.0
  9
$SPLFRAME
 70
     0
  9
$SPLINETYPE
 70
     6
  9
$SPLINESEGS
 70
     8
  9
$HANDSEED
  5
C1C
  9
$SURFTAB1
 70
     6
  9
$SURFTAB2
 70
     6
  9
$SURFTYPE
 70
     6
  9
$SURFU
 70
     6
  9
$SURFV
 70
     6
  9
$UCSBASE
  2

  9
$UCSNAME
  2

  9
$UCSORG
 10
0.0
 20
0.0
 30
0.0
  9
$UCSXDIR
 10
1.0
 20
0.0
 30
0.0
  9
$UCSYDIR
 10
0.0
 20
1.0
 30
0.0
  9
$UCSORTHOREF
  2

  9
$UCSORTHOVIEW
 70
     0
  9
$UCSORGTOP
 10
0.0
 20
0.0
 30
0.0
  9
$UCSORGBOTTOM
 10
0.0
 20
0.0
 30
0.0
  9
$UCSORGLEFT
 10
0.0
 20
0.0
 30
0.0
  9
$UCSORGRIGHT
 10
0.0
 20
0.0
 30
0.0
  9
$UCSORGFRONT
 10
0.0
 20
0.0
 30
0.0
  9
$UCSORGBACK
 10
0.0
 20
0.0
 30
0.0
  9
$PUCSBASE
  2

  9
$PUCSNAME
  2

  9
$PUCSORG
 10
0.0
 20
0.0
 30
0.0
  9
$PUCSXDIR
 10
1.0
 20
0.0
 30
0.0
  9
$PUCSYDIR
 10
0.0
 20
1.0
 30
0.0
  9
$PUCSORTHOREF
  2

  9
$PUCSORTHOVIEW
 70
     0
  9
$PUCSORGTOP
 10
0.0
 20
0.0
 30
0.0
  9
$PUCSORGBOTTOM
 10
0.0
 20
0.0
 30
0.0
  9
$PUCSORGLEFT
 10
0.0
 20
0.0
 30
0.0
  9
$PUCSORGRIGHT
 10
0.0
 20
0.0
 30
0.0
  9
$PUCSORGFRONT
 10
0.0
 20
0.0
 30
0.0
  9
$PUCSORGBACK
 10
0.0
 20
0.0
 30
0.0
  9
$USERI1
 70
     0
  9
$USERI2
 70
     0
  9
$USERI3
 70
     0
  9
$USERI4
 70
     0
  9
$USERI5
 70
     0
  9
$USERR1
 40
0.0
  9
$USERR2
 40
0.0
  9
$USERR3
 40
0.0
  9
$USERR4
 40
0.0
  9
$USERR5
 40
0.0
  9
$WORLDVIEW
 70
     1
  9
$SHADEDGE
 70
     3
  9
$SHADEDIF
 70
    70
  9
$TILEMODE
 70
     1
  9
$MAXACTVP
 70
    64
  9
$PINSBASE
 10
0.0
 20
0.0
 30
0.0
  9
$PLIMCHECK
 70
     0
  9
$PEXTMIN
 10
0.0
 20
0.0
 30
0.0
  9
$PEXTMAX
 10
420.0
 20
594.0
 30
0.0
  9
$PLIMMIN
 10
0.0
 20
0.0
  9
$PLIMMAX
 10
420.0
 20
594.0
  9
$UNITMODE
 70
     0
  9
$VISRETAIN
 70
     1
  9
$PLINEGEN
 70
     0
  9
$PSLTSCALE
 70
     1
  9
$TREEDEPTH
 70
  3020
  9
$CMLSTYLE
  2
Standard
  9
$CMLJUST
 70
     0
  9
$CMLSCALE
 40
1.0
  9
$PROXYGRAPHICS
 70
     1
  9
$MEASUREMENT
 70
     1
  9
$CELWEIGHT
370
    -1
  9
$ENDCAPS
280
     0
  9
$JOINSTYLE
280
     0
  9
$LWDISPLAY
290
     0
  9
$INSUNITS
 70
     4
  9
$HYPERLINKBASE
  1

  9
$STYLESHEET
  1

  9
$XEDIT
290
     1
  9
$CEPSNTYPE
380
     0
  9
$PSTYLEMODE
290
     1
  9
$FINGERPRINTGUID
  2
{4F092D5C-D692-40C3-9082-E5E7E2FC32E6}
  9
$VERSIONGUID
  2
{16A393A0-2C19-4C1B-8FB0-61FED8B7DCC9}
  9
$EXTNAMES
290
     1
  9
$PSVPSCALE
 40
0.0
  9
$OLESTARTUP
290
     0
  9
$SORTENTS
280
   127
  9
$INDEXCTL
280
     0
  9
$HIDETEXT
280
     1
  9
$XCLIPFRAME
290
     0
  9
$HALOGAP
280
     0
  9
$OBSCOLOR
 70
   257
  9
$OBSLTYPE
280
     0
  9
$INTERSECTIONDISPLAY
280
     0
  9
$INTERSECTIONCOLOR
 70
   257
  9
$DIMASSOC
280
     1
  9
$PROJECTNAME
  1

  9
$CAMERADISPLAY
290
     0
  9
$LENSLENGTH
 40
50.0
  9
$CAMERAHEIGHT
 40
0.0
  9
$STEPSPERSEC
 40
2.0
  9
$STEPSIZE
 40
6.0
  9
$3DDWFPREC
 40
2.0
  9
$PSOLWIDTH
 40
0.25
  9
$PSOLHEIGHT
 40
4.0
  9
$LOFTANG1
 40
1.570796326794896
  9
$LOFTANG2
 40
1.570796326794896
  9
$LOFTMAG1
 40
0.0
  9
$LOFTMAG2
 40
0.0
  9
$LOFTPARAM
 70
     7
  9
$LOFTNORMALS
280
     1
  9
$LATITUDE
 40
37.795
  9
$LONGITUDE
 40
-122.394
  9
$NORTHDIRECTION
 40
0.0
  9
$TIMEZONE
 70
 -8000
  9
$LIGHTGLYPHDISPLAY
280
     1
  9
$TILEMODELIGHTSYNCH
280
     1
  9
$CMATERIAL
347
11
  9
$SOLIDHIST
280
     0
  9
$SHOWHIST
280
     1
  9
$DWFFRAME
280
     2
  9
$DGNFRAME
280
     0
  9
$REALWORLDSCALE
290
     1
  9
$INTERFERECOLOR
 62
     1
  9
$INTERFEREOBJVS
345
33
  9
$INTERFEREVPVS
346
30
  9
$CSHADOW
280
     0
  9
$SHADOWPLANELOCATION
 40
0.0
  0
ENDSEC
  0
SECTION
  2
CLASSES
  0
CLASS
  1
ACDBDICTIONARYWDFLT
  2
AcDbDictionaryWithDefault
  3
ObjectDBX Classes
 90
        0
 91
        1
280
     0
281
     0
  0
CLASS
  1
MATERIAL
  2
AcDbMaterial
  3
ObjectDBX Classes
 90
     1153
 91
        3
280
     0
281
     0
  0
CLASS
  1
VISUALSTYLE
  2
AcDbVisualStyle
  3
ObjectDBX Classes
 90
     4095
 91
       24
280
     0
281
     0
  0
CLASS
  1
SCALE
  2
AcDbScale
  3
ObjectDBX Classes
 90
     1153
 91
       17
280
     0
281
     0
  0
CLASS
  1
TABLESTYLE
  2
AcDbTableStyle
  3
ObjectDBX Classes
 90
     4095
 91
        1
280
     0
281
     0
  0
CLASS
  1
MLEADERSTYLE
  2
AcDbMLeaderStyle
  3
ACDB_MLEADERSTYLE_CLASS
 90
     4095
 91
        1
280
     0
281
     0
  0
CLASS
  1
DICTIONARYVAR
  2
AcDbDictionaryVar
  3
ObjectDBX Classes
 90
        0
 91
        5
280
     0
281
     0
  0
CLASS
  1
CELLSTYLEMAP
  2
AcDbCellStyleMap
  3
ObjectDBX Classes
 90
     1152
 91
        2
280
     0
281
     0
  0
ENDSEC
  0
SECTION
  2
TABLES
  0
TABLE
  2
VPORT
  5
8
330
0
100
AcDbSymbolTable
 70
     1
  0
VPORT
  5
57
330
8
100
AcDbSymbolTableRecord
100
AcDbViewportTableRecord
  2
*Active
 70
     0
 10
0.0
 20
0.0
 11
1.0
 21
1.0
 12
210.0
 22
297.0
 13
0.0
 23
0.0
 14
1.0
 24
1.0
 15
0.0
 25
0.0
 16
0.0
 26
0.0
 36
1.0
 17
0.0
 27
0.0
 37
0.0
 40
594.0
 41
0.7070707070707071
 42
50.0
 43
0.0
 44
0.0
 50
0.0
 51
0.0
 71
     0
 72
   100
 73
     1
 74
     1
 75
     0
 76
     0
 77
     0
 78
     0
281
     0
 65
     1
110
0.0
120
0.0
130
0.0
111
1.0
121
0.0
131
0.0
112
0.0
122
1.0
132
0.0
 79
     0
146
0.0
 60
     3
 61
     5
292
     1
282
     1
141
0.0
142
0.0
 63
   250
421
  3355443
  0
ENDTAB
  0
TABLE
  2
LTYPE
  5
5
330
0
100
AcDbSymbolTable
 70
     1
  0
LTYPE
  5
5B
330
5
100
AcDbSymbolTableRecord
100
AcDbLinetypeTableRecord
  2
ByBlock
 70
     0
  3

 72
    65
 73
     0
 40
0.0
  0
LTYPE
  5
5C
330
5
100
AcDbSymbolTableRecord
100
AcDbLinetypeTableRecord
  2
ByLayer
 70
     0
  3

 72
    65
 73
     0
 40
0.0
  0
LTYPE
  5
5D
330
5
100
AcDbSymbolTableRecord
100
AcDbLinetypeTableRecord
  2
Continuous
 70
     0
  3
Solid line
 72
    65
 73
     0
 40
0.0
  0
ENDTAB
  0
TABLE
  2
LAYER
  5
2
330
0
100
AcDbSymbolTable
 70
    15
  0
LAYER
  5
54
330
2
100
AcDbSymbolTableRecord
100
AcDbLayerTableRecord
  2
0
 70
     0
 62
     7
  6
Continuous
370
    -3
390
F
347
21
  0
LAYER
  5
76
330
2
100
AcDbSymbolTableRecord
100
AcDbLayerTableRecord
  2
AM_0
 70
     0
 62
     7
  6
Continuous
370
    50
390
F
347
21
  0
LAYER
  5
77
330
2
100
AcDbSymbolTableRecord
100
AcDbLayerTableRecord
  2
AM_5
 70
     0
 62
     3
420
    65280
  6
Continuous
370
    25
390
F
347
21
  0
LAYER
  5
7F
330
2
100
AcDbSymbolTableRecord
100
AcDbLayerTableRecord
  2
Bemaßungen(DIN)
 70
     0
 62
     7
  6
Continuous
370
    25
390
F
347
21
  0
LAYER
  5
8D
330
2
100
AcDbSymbolTableRecord
100
AcDbLayerTableRecord
  2
Mittellinie(DIN)
 70
     0
 62
     7
  6
Continuous
370
    25
390
F
347
21
  0
LAYER
  5
8F
330
2
100
AcDbSymbolTableRecord
100
AcDbLayerTableRecord
  2
Mittelpunktmarkierung(DIN)
 70
     0
 62
     7
  6
Continuous
370
    25
390
F
347
21
  0
LAYER
  5
99
330
2
100
AcDbSymbolTableRecord
100
AcDbLayerTableRecord
  2
Schraffur
 70
     0
 62
     7
  6
Continuous
370
     9
390
F
347
21
  0
LAYER
  5
9A
330
2
100
AcDbSymbolTableRecord
100
AcDbLayerTableRecord
  2
Schraffur (ISO)
 70
     0
 62
     7
  6
Continuous
370
    18
390
F
347
21
  0
LAYER
  5
9D
330
2
100
AcDbSymbolTableRecord
100
AcDbLayerTableRecord
  2
Sichtbare Kanten(DIN)
 70
     0
 62
     7
  6
Continuous
370
    50
390
F
347
21
  0
LAYER
  5
9E
330
2
100
AcDbSymbolTableRecord
100
AcDbLayerTableRecord
  2
Sichtbare tangentiale Kanten(DIN)
 70
     0
 62
     7
  6
Continuous
370
    50
390
F
347
21
  0
LAYER
  5
A0
330
2
100
AcDbSymbolTableRecord
100
AcDbLayerTableRecord
  2
Skizziergeometrie(DIN)
 70
     0
 62
     7
  6
Continuous
370
    50
390
F
347
21
  0
LAYER
  5
A5
330
2
100
AcDbSymbolTableRecord
100
AcDbLayerTableRecord
  2
Symbole(DIN)
 70
     0
 62
     7
  6
Continuous
370
    25
390
F
347
21
  0
LAYER
  5
A8
330
2
100
AcDbSymbolTableRecord
100
AcDbLayerTableRecord
  2
Titel (ISO)
 70
     0
 62
     7
  6
Continuous
370
    50
390
F
347
21
  0
LAYER
  5
AD
330
2
100
AcDbSymbolTableRecord
100
AcDbLayerTableRecord
  2
Verdeckte Kanten(DIN)
 70
     0
 62
     7
  6
Continuous
370
    35
390
F
347
21
  0
LAYER
  5
27F
330
2
100
AcDbSymbolTableRecord
100
AcDbLayerTableRecord
  2
Defpoints
 70
     0
 62
     7
  6
Continuous
290
     0
370
    -3
390
F
347
21
  0
ENDTAB
  0
TABLE
  2
STYLE
  5
3
330
0
100
AcDbSymbolTable
 70
    16
  0
STYLE
  5
55
330
3
100
AcDbSymbolTableRecord
100
AcDbTextStyleTableRecord
  2
Standard
 70
     0
 40
0.0
 41
1.0
 50
0.0
 71
     0
 42
0.2
  3
ISOCP.shx
  4

  0
STYLE
  5
5A
330
3
100
AcDbSymbolTableRecord
100
AcDbTextStyleTableRecord
  2
Annotative
 70
     0
 40
0.0
 41
1.0
 50
0.0
 71
     0
 42
0.2
  3
txt
  4

1001
AcadAnnotative
1000
AnnotativeData
1002
{
1070
     1
1070
     1
1002
}
  0
STYLE
  5
AF
330
3
100
AcDbSymbolTableRecord
100
AcDbTextStyleTableRecord
  2
_Schriftfeld_2.5mm
 70
     0
 40
0.0
 41
1.0
 50
0.0
 71
     0
 42
0.2
  3
arial.ttf
  4

1001
ACAD
1000
Arial
1071
      256
  0
STYLE
  5
B0
330
3
100
AcDbSymbolTableRecord
100
AcDbTextStyleTableRecord
  2
_Schriftfeld_2mm
 70
     0
 40
0.0
 41
1.0
 50
0.0
 71
     0
 42
0.2
  3
arial.ttf
  4

1001
ACAD
1000
Arial
1071
      256
  0
STYLE
  5
B1
330
3
100
AcDbSymbolTableRecord
100
AcDbTextStyleTableRecord
  2
_Schriftfeld_3.5mm
 70
     0
 40
0.0
 41
1.0
 50
0.0
 71
     0
 42
0.2
  3
arial.ttf
  4

1001
ACAD
1000
Arial
1071
      256
  0
STYLE
  5
B2
330
3
100
AcDbSymbolTableRecord
100
AcDbTextStyleTableRecord
  2
_Schriftfeld_5mm
 70
     0
 40
0.0
 41
1.0
 50
0.0
 71
     0
 42
0.2
  3
arial.ttf
  4

1001
ACAD
1000
Arial
1071
      256
  0
STYLE
  5
B3
330
3
100
AcDbSymbolTableRecord
100
AcDbTextStyleTableRecord
  2
Aktuell-DIN
 70
     0
 40
0.0
 41
1.0
 50
0.0
 71
     0
 42
0.2
  3
arial.ttf
  4

1001
ACAD
1000
Arial
1071
      256
  0
STYLE
  5
B4
330
3
100
AcDbSymbolTableRecord
100
AcDbTextStyleTableRecord
  2
Bezeichnungstext (DIN)
 70
     0
 40
0.0
 41
1.0
 50
0.0
 71
     0
 42
0.2
  3
isocpeur.ttf
  4

1001
ACAD
1000
ISOCPEUR
1071
      256
  0
STYLE
  5
B5
330
3
100
AcDbSymbolTableRecord
100
AcDbTextStyleTableRecord
  2
Bezeichnungstext (ISO)
 70
     0
 40
0.0
 41
1.0
 50
0.0
 71
     0
 42
0.2
  3
tahoma.ttf
  4

1001
ACAD
1000
Tahoma
1071
      256
  0
STYLE
  5
B6
330
3
100
AcDbSymbolTableRecord
100
AcDbTextStyleTableRecord
  2
Notiztext (DIN)
 70
     0
 40
0.0
 41
1.0
 50
0.0
 71
     0
 42
0.2
  3
isocpeur.ttf
  4

1001
ACAD
1000
ISOCPEUR
1071
      256
  0
STYLE
  5
B7
330
3
100
AcDbSymbolTableRecord
100
AcDbTextStyleTableRecord
  2
Notiztext (ISO)
 70
     0
 40
0.0
 41
1.0
 50
0.0
 71
     0
 42
0.2
  3
tahoma.ttf
  4

1001
ACAD
1000
Tahoma
1071
      256
  0
STYLE
  5
B8
330
3
100
AcDbSymbolTableRecord
100
AcDbTextStyleTableRecord
  2
STANDARD-DIN
 70
     0
 40
0.0
 41
1.0
 50
0.0
 71
     0
 42
0.2
  3
arial.ttf
  4

1001
ACAD
1000
Arial
1071
      256
  0
STYLE
  5
B9
330
3
100
AcDbSymbolTableRecord
100
AcDbTextStyleTableRecord
  2
STANDARD-DIN~0
 70
     0
 40
0.0
 41
1.0
 50
0.0
 71
     0
 42
0.2
  3
arial.ttf
  4

1001
ACAD
1000
Arial
1071
      256
  0
STYLE
  5
BA
330
3
100
AcDbSymbolTableRecord
100
AcDbTextStyleTableRecord
  2
STANDARD-DINGroßer Text
 70
     0
 40
0.0
 41
1.0
 50
0.0
 71
     0
 42
0.2
  3
arial.ttf
  4

1001
ACAD
1000
Arial
1071
      256
  0
STYLE
  5
BB
330
3
100
AcDbSymbolTableRecord
100
AcDbTextStyleTableRecord
  2
STANDARD-DINNach Layer
 70
     0
 40
0.0
 41
1.0
 50
0.0
 71
     0
 42
0.2
  3
arial.ttf
  4

1001
ACAD
1000
Arial
1071
      256
  0
STYLE
  5
192
330
3
100
AcDbSymbolTableRecord
100
AcDbTextStyleTableRecord
  2
Textstil122
 70
     0
 40
0.0
 41
0.899999976158142
 50
0.0
 71
     0
 42
0.2
  3
ISOCP.shx
  4

  0
ENDTAB
  0
TABLE
  2
VIEW
  5
6
330
0
100
AcDbSymbolTable
 70
     0
  0
ENDTAB
  0
TABLE
  2
UCS
  5
7
330
0
100
AcDbSymbolTable
 70
     0
  0
ENDTAB
  0
TABLE
  2
APPID
  5
9
330
0
100
AcDbSymbolTable
 70
     4
  0
APPID
  5
56
330
9
100
AcDbSymbolTableRecord
100
AcDbRegAppTableRecord
  2
ACAD
 70
     0
  0
APPID
  5
5E
330
9
100
AcDbSymbolTableRecord
100
AcDbRegAppTableRecord
  2
AcadAnnotative
 70
     0
  0
APPID
  5
195
330
9
100
AcDbSymbolTableRecord
100
AcDbRegAppTableRecord
  2
AcadAnnoPO
 70
     0
  0
APPID
  5
BD9
330
9
100
AcDbSymbolTableRecord
100
AcDbRegAppTableRecord
  2
ACAD_MLEADERVER
 70
     0
  0
ENDTAB
  0
TABLE
  2
DIMSTYLE
  5
A
330
0
100
AcDbSymbolTable
 70
    22
100
AcDbDimStyleTable
 71
     2
340
BC
340
58
  0
DIMSTYLE
105
58
330
A
100
AcDbSymbolTableRecord
100
AcDbDimStyleTableRecord
  2
Standard
 70
     0
340
55
  0
DIMSTYLE
105
59
330
A
100
AcDbSymbolTableRecord
100
AcDbDimStyleTableRecord
  2
Annotative
 70
     0
340
55
1001
AcadAnnotative
1000
AnnotativeData
1002
{
1070
     1
1070
     1
1002
}
  0
DIMSTYLE
105
BC
102
{ACAD_REACTORS
330
27E
330
361
330
443
330
525
330
610
330
6FC
330
7DE
330
8CA
330
9BC
330
AA7
102
}
330
A
100
AcDbSymbolTableRecord
100
AcDbDimStyleTableRecord
  2
STANDARD-DIN - Methode 2b
 70
     0
 40
2.0
 41
2.5
 42
0.0
 43
12.0
 44
3.174999999999998
 45
0.00000001
 46
12.0
 73
     0
 74
     0
 77
     1
 78
     8
 79
     2
140
3.5
143
0.03937
146
0.7142857313156128
147
0.8
171
     3
172
     1
176
   250
177
   250
178
   250
271
     2
272
     2
274
     3
284
     8
285
     8
340
B9
371
    25
372
    25
  0
DIMSTYLE
105
BD
330
A
100
AcDbSymbolTableRecord
100
AcDbDimStyleTableRecord
  2
STANDARD-DIN - Methode 2b$7
 70
     0
 40
2.0
 41
2.5
 42
0.0
 43
12.0
 44
3.174999999999998
 45
0.00000001
 46
12.0
 73
     0
 74
     0
 77
     1
 78
     8
 79
     2
140
3.5
143
0.03937
146
0.7142857313156128
147
0.8
171
     3
172
     1
176
   179
177
   250
178
   250
271
     2
272
     2
274
     3
284
     8
285
     8
340
B9
371
    25
372
    25
  0
DIMSTYLE
105
BE
330
A
100
AcDbSymbolTableRecord
100
AcDbDimStyleTableRecord
  2
Standard - Methode 1b (ISO)
 70
     0
 40
2.0
 41
2.5
 42
0.0
 43
5.999999999999999
 44
3.174999999999998
 45
0.00000001
 46
10.0
 73
     0
 77
     1
 78
     8
 79
     2
140
3.5
143
0.03937
147
0.762
171
     3
172
     1
176
   256
177
   256
178
   256
179
     2
271
     2
272
     2
274
     3
278
    44
284
     8
286
     8
340
B7
371
    -1
372
    -1
  0
DIMSTYLE
105
BF
330
A
100
AcDbSymbolTableRecord
100
AcDbDimStyleTableRecord
  2
Standard - Methode 1b (ISO)$7
 70
     0
 40
2.0
 41
2.5
 42
0.0
 43
5.999999999999999
 44
3.174999999999998
 45
0.00000001
 46
10.0
 73
     0
 77
     1
 78
     8
 79
     2
140
3.5
143
0.03937
147
0.762
171
     3
172
     1
176
   256
177
   256
178
   256
179
     2
271
     2
272
     2
274
     3
278
    44
284
     8
286
     8
340
B7
371
    -1
372
    -1
  0
DIMSTYLE
105
C0
330
A
100
AcDbSymbolTableRecord
100
AcDbDimStyleTableRecord
  2
Standard - Methode 2a (DIN)
 70
     0
 40
2.0
 41
2.5
 42
0.8
 43
5.999999999999999
 44
3.174999999999998
 45
0.00000001
 46
10.0
 77
     1
 78
     8
 79
     2
140
3.5
143
0.03937
147
0.8
170
     1
171
     3
172
     1
176
   256
177
   256
178
   256
179
     2
271
     2
272
     2
274
     3
278
    44
284
     8
286
     8
340
B6
371
    -1
372
    -1
  0
DIMSTYLE
105
C1
330
A
100
AcDbSymbolTableRecord
100
AcDbDimStyleTableRecord
  2
Standard - Methode 2a (DIN)$7
 70
     0
 40
2.0
 41
2.5
 42
0.8
 43
5.999999999999999
 44
3.174999999999998
 45
0.00000001
 46
10.0
 77
     1
 78
     8
 79
     2
140
3.5
143
0.03937
147
0.8
170
     1
171
     3
172
     1
176
   256
177
   256
178
   256
179
     2
271
     2
272
     2
274
     3
278
    44
284
     8
286
     8
340
B6
371
    -1
372
    -1
  0
DIMSTYLE
105
C2
330
A
100
AcDbSymbolTableRecord
100
AcDbDimStyleTableRecord
  2
Standard - Methode 2b (DIN)
 70
     0
 40
2.0
 41
2.5
 42
0.0
 43
5.999999999999999
 44
3.174999999999998
 45
0.00000001
 46
10.0
 77
     1
 78
     8
 79
     2
140
3.5
143
0.03937
147
0.8
171
     3
172
     1
176
   256
177
   256
178
   256
271
     2
272
     2
274
     3
278
    44
284
     8
286
     8
340
B6
371
    -1
372
    -1
  0
DIMSTYLE
105
C3
330
A
100
AcDbSymbolTableRecord
100
AcDbDimStyleTableRecord
  2
Standard - Methode 2b (DIN)$7
 70
     0
 40
2.0
 41
2.5
 42
0.0
 43
5.999999999999999
 44
3.174999999999998
 45
0.00000001
 46
10.0
 77
     1
 78
     8
 79
     2
140
3.5
143
0.03937
147
0.8
171
     3
172
     1
176
   256
177
   256
178
   256
271
     2
272
     2
274
     3
278
    44
284
     8
286
     8
340
B6
371
    -1
372
    -1
  0
DIMSTYLE
105
C4
330
A
100
AcDbSymbolTableRecord
100
AcDbDimStyleTableRecord
  2
Standard (DIN)
 70
     0
 40
2.0
 41
2.5
 42
0.8
 43
5.999999999999999
 44
3.174999999999998
 45
0.00000001
 46
10.0
 73
     0
 74
     0
 77
     1
 78
     8
 79
     2
140
3.5
143
0.03937
147
0.8
171
     3
172
     1
176
   256
177
   256
178
   256
271
     2
272
     2
274
     3
278
    44
284
     8
340
B6
371
    -1
372
    -1
  0
DIMSTYLE
105
C5
330
A
100
AcDbSymbolTableRecord
100
AcDbDimStyleTableRecord
  2
Standard (DIN)$7
 70
     0
 40
2.0
 41
2.5
 42
0.8
 43
5.999999999999999
 44
3.174999999999998
 45
0.00000001
 46
10.0
 73
     0
 74
     0
 77
     1
 78
     8
 79
     2
140
3.5
143
0.03937
147
0.8
171
     3
172
     1
176
   256
177
   256
178
   256
271
     2
272
     2
274
     3
278
    44
284
     8
340
B6
371
    -1
372
    -1
  0
DIMSTYLE
105
C6
330
A
100
AcDbSymbolTableRecord
100
AcDbDimStyleTableRecord
  2
Standard (ISO)
 70
     0
 40
2.0
 41
2.5
 42
0.0
 43
5.999999999999999
 44
3.174999999999998
 45
0.00000001
 46
10.0
 73
     0
 74
     0
 77
     1
140
3.5
143
0.03937
146
1.00148570537567
147
0.762
171
     3
172
     1
176
   256
177
   256
178
   256
179
     2
271
     2
272
     2
274
     3
278
    44
340
B7
371
    -1
372
    -1
  0
DIMSTYLE
105
C7
330
A
100
AcDbSymbolTableRecord
100
AcDbDimStyleTableRecord
  2
Standard (ISO)$7
 70
     0
 40
2.0
 41
2.5
 42
0.0
 43
5.999999999999999
 44
3.174999999999998
 45
0.00000001
 46
10.0
 73
     0
 74
     0
 77
     1
140
3.5
143
0.03937
146
1.00148570537567
147
0.762
171
     3
172
     1
176
   256
177
   256
178
   256
179
     2
271
     2
272
     2
274
     3
278
    44
340
B7
371
    -1
372
    -1
  0
DIMSTYLE
105
C8
330
A
100
AcDbSymbolTableRecord
100
AcDbDimStyleTableRecord
  2
Alternativ (ISO)
 70
     0
 40
2.0
 41
2.5
340
55
342
C9
  0
DIMSTYLE
105
DB
330
A
100
AcDbSymbolTableRecord
100
AcDbDimStyleTableRecord
  2
Bezug (ISO)
 70
     0
 40
2.0
 41
2.5
340
55
342
C9
  0
DIMSTYLE
105
DC
330
A
100
AcDbSymbolTableRecord
100
AcDbDimStyleTableRecord
  2
Führungslinie-Ursprungsindikator(DIN)
 70
     0
 40
2.0
 41
2.5
340
55
342
C9
  0
DIMSTYLE
105
DD
330
A
100
AcDbSymbolTableRecord
100
AcDbDimStyleTableRecord
  2
Führungslinie - Bezugsstelle(DIN)
 70
     0
 40
2.0
 41
2.5
340
55
342
C9
  0
DIMSTYLE
105
DE
330
A
100
AcDbSymbolTableRecord
100
AcDbDimStyleTableRecord
  2
Führungslinie - groß(DIN)
 70
     0
 40
2.0
 41
5.0
340
55
342
C9
  0
DIMSTYLE
105
DF
330
A
100
AcDbSymbolTableRecord
100
AcDbDimStyleTableRecord
  2
Führungslinie - Punkt(DIN)
 70
     0
 40
2.0
 41
2.5
340
55
342
C9
  0
DIMSTYLE
105
E0
330
A
100
AcDbSymbolTableRecord
100
AcDbDimStyleTableRecord
  2
Führungslinie(DIN)
 70
     0
 40
2.0
 41
2.5
340
55
342
C9
  0
DIMSTYLE
105
EF
330
A
100
AcDbSymbolTableRecord
100
AcDbDimStyleTableRecord
  2
Groß (ISO)
 70
     0
 40
2.0
 41
5.0
340
55
342
C9
  0
ENDTAB
  0
TABLE
  2
BLOCK_RECORD
  5
1
330
0
100
AcDbSymbolTable
 70
    27
  0
BLOCK_RECORD
  5
6C
330
1
100
AcDbSymbolTableRecord
100
AcDbBlockTableRecord
  2
*Model_Space
340
6F
 70
     0
280
     1
281
     0
  0
BLOCK_RECORD
  5
68
330
1
100
AcDbSymbolTableRecord
100
AcDbBlockTableRecord
  2
*Paper_Space
340
6B
 70
     0
280
     1
281
     0
  0
BLOCK_RECORD
  5
70
330
1
100
AcDbSymbolTableRecord
100
AcDbBlockTableRecord
  2
*Paper_Space0
340
73
 70
     0
280
     1
281
     0
  0
BLOCK_RECORD
  5
C9
330
1
100
AcDbSymbolTableRecord
100
AcDbBlockTableRecord
  2
_Closed
340
0
 70
     0
280
     1
281
     0
  0
BLOCK_RECORD
  5
D0
330
1
100
AcDbSymbolTableRecord
100
AcDbBlockTableRecord
  2
DatumFilled45
340
0
 70
     0
280
     1
281
     0
  0
BLOCK_RECORD
  5
E1
330
1
100
AcDbSymbolTableRecord
100
AcDbBlockTableRecord
  2
Filled-1
340
0
 70
     0
280
     1
281
     0
  0
BLOCK_RECORD
  5
F0
330
1
100
AcDbSymbolTableRecord
100
AcDbBlockTableRecord
  2
Carbonitrieren
340
0
 70
     0
280
     1
281
     0
  0
BLOCK_RECORD
  5
F5
330
1
100
AcDbSymbolTableRecord
100
AcDbBlockTableRecord
  2
Federangaben
340
0
 70
     0
280
     1
281
     0
  0
BLOCK_RECORD
  5
F9
330
1
100
AcDbSymbolTableRecord
100
AcDbBlockTableRecord
  2
Nassschliff
340
0
 70
     0
280
     1
281
     0
  0
BLOCK_RECORD
  5
FD
330
1
100
AcDbSymbolTableRecord
100
AcDbBlockTableRecord
  2
Schleiffrichtung horizontal
340
0
 70
     0
280
     1
281
     0
  0
BLOCK_RECORD
  5
110
330
1
100
AcDbSymbolTableRecord
100
AcDbBlockTableRecord
  2
Schleiffrichtung vertikal
340
0
 70
     0
280
     1
281
     0
  0
BLOCK_RECORD
  5
123
330
1
100
AcDbSymbolTableRecord
100
AcDbBlockTableRecord
  2
Stanz-_Laserteil
340
0
 70
     0
280
     1
281
     0
  0
BLOCK_RECORD
  5
127
330
1
100
AcDbSymbolTableRecord
100
AcDbBlockTableRecord
  2
Stanzrundung_1
340
0
 70
     0
280
     1
281
     0
  0
BLOCK_RECORD
  5
12D
330
1
100
AcDbSymbolTableRecord
100
AcDbBlockTableRecord
  2
Stanzrundung_2
340
0
 70
     0
280
     1
281
     0
  0
BLOCK_RECORD
  5
133
330
1
100
AcDbSymbolTableRecord
100
AcDbBlockTableRecord
  2
Verzinkt
340
0
 70
     0
280
     1
281
     0
  0
BLOCK_RECORD
  5
137
330
1
100
AcDbSymbolTableRecord
100
AcDbBlockTableRecord
  2
Vierkant-Tabelle
340
0
 70
     0
280
     1
281
     0
  0
BLOCK_RECORD
  5
162
330
1
100
AcDbSymbolTableRecord
100
AcDbBlockTableRecord
  2
Laserpunkt_Text
340
0
 70
     0
280
     1
281
     0
  0
BLOCK_RECORD
  5
169
330
1
100
AcDbSymbolTableRecord
100
AcDbBlockTableRecord
  2
Laserpunkt
340
0
 70
     0
280
     1
281
     0
  0
BLOCK_RECORD
  5
16F
330
1
100
AcDbSymbolTableRecord
100
AcDbBlockTableRecord
  2
Kantenbruch
340
0
 70
     0
280
     1
281
     0
  0
BLOCK_RECORD
  5
280
330
1
100
AcDbSymbolTableRecord
100
AcDbBlockTableRecord
  2
*D17
340
0
 70
     0
280
     1
281
     0
  0
BLOCK_RECORD
  5
362
330
1
100
AcDbSymbolTableRecord
100
AcDbBlockTableRecord
  2
*D18
340
0
 70
     0
280
     1
281
     0
  0
BLOCK_RECORD
  5
444
330
1
100
AcDbSymbolTableRecord
100
AcDbBlockTableRecord
  2
*D19
340
0
 70
     0
280
     1
281
     0
  0
BLOCK_RECORD
  5
526
330
1
100
AcDbSymbolTableRecord
100
AcDbBlockTableRecord
  2
*D20
340
0
 70
     0
280
     1
281
     0
  0
BLOCK_RECORD
  5
611
330
1
100
AcDbSymbolTableRecord
100
AcDbBlockTableRecord
  2
*D21
340
0
 70
     0
280
     1
281
     0
  0
BLOCK_RECORD
  5
6FD
330
1
100
AcDbSymbolTableRecord
100
AcDbBlockTableRecord
  2
*D22
340
0
 70
     0
280
     1
281
     0
  0
BLOCK_RECORD
  5
7DF
330
1
100
AcDbSymbolTableRecord
100
AcDbBlockTableRecord
  2
*D23
340
0
 70
     0
280
     1
281
     0
  0
BLOCK_RECORD
  5
8CB
330
1
100
AcDbSymbolTableRecord
100
AcDbBlockTableRecord
  2
*D24
340
0
 70
     0
280
     1
281
     0
  0
BLOCK_RECORD
  5
9BD
330
1
100
AcDbSymbolTableRecord
100
AcDbBlockTableRecord
  2
*D25
340
0
 70
     0
280
     1
281
     0
  0
BLOCK_RECORD
  5
AA8
330
1
100
AcDbSymbolTableRecord
100
AcDbBlockTableRecord
  2
*D26
340
0
 70
     0
280
     1
281
     0
  0
ENDTAB
  0
ENDSEC
  0
SECTION
  2
BLOCKS
  0
BLOCK
  5
6D
330
6C
100
AcDbEntity
  8
0
100
AcDbBlockBegin
  2
*Model_Space
 70
     0
 10
0.0
 20
0.0
 30
0.0
  3
*Model_Space
  1

  0
ENDBLK
  5
6E
330
6C
100
AcDbEntity
  8
0
100
AcDbBlockEnd
  0
BLOCK
  5
69
330
68
100
AcDbEntity
 67
     1
  8
0
100
AcDbBlockBegin
  2
*Paper_Space
 70
     0
 10
0.0
 20
0.0
 30
0.0
  3
*Paper_Space
  1

  0
ENDBLK
  5
6A
330
68
100
AcDbEntity
 67
     1
  8
0
100
AcDbBlockEnd
  0
BLOCK
  5
71
330
70
100
AcDbEntity
 67
     1
  8
0
100
AcDbBlockBegin
  2
*Paper_Space0
 70
     0
 10
0.0
 20
0.0
 30
0.0
  3
*Paper_Space0
  1

  0
ENDBLK
  5
72
330
70
100
AcDbEntity
 67
     1
  8
0
100
AcDbBlockEnd
  0
BLOCK
  5
CE
330
C9
100
AcDbEntity
  8
0
100
AcDbBlockBegin
  2
_Closed
 70
     0
 10
0.0
 20
0.0
 30
0.0
  3
_Closed
  1

  0
LINE
  5
CA
330
C9
100
AcDbEntity
  8
0
  6
ByBlock
 62
     0
370
    -2
100
AcDbLine
 10
-1.0
 20
0.1666666666666666
 30
0.0
 11
0.0
 21
0.0
 31
0.0
  0
LINE
  5
CB
330
C9
100
AcDbEntity
  8
0
  6
ByBlock
 62
     0
370
    -2
100
AcDbLine
 10
0.0
 20
0.0
 30
0.0
 11
-1.0
 21
-0.1666666666666666
 31
0.0
  0
LINE
  5
CC
330
C9
100
AcDbEntity
  8
0
  6
ByBlock
 62
     0
370
    -2
100
AcDbLine
 10
-1.0
 20
0.1666666666666666
 30
0.0
 11
-1.0
 21
-0.1666666666666666
 31
0.0
  0
LINE
  5
CD
330
C9
100
AcDbEntity
  8
0
  6
ByBlock
 62
     0
370
    -2
100
AcDbLine
 10
0.0
 20
0.0
 30
0.0
 11
-1.0
 21
0.0
 31
0.0
  0
ENDBLK
  5
CF
330
C9
100
AcDbEntity
  8
0
100
AcDbBlockEnd
  0
BLOCK
  5
D1
330
D0
100
AcDbEntity
  8
0
100
AcDbBlockBegin
  2
DatumFilled45
 70
     0
 10
0.0
 20
0.0
 30
0.0
  3
DatumFilled45
  1

  0
POLYLINE
  5
D3
330
D0
100
AcDbEntity
  8
0
 62
     0
100
AcDb2dPolyline
 66
     1
 10
0.0
 20
0.0
 30
0.0
 70
   128
  0
VERTEX
  5
D4
330
D3
100
AcDbEntity
  8
0
 62
     0
100
AcDbVertex
100
AcDb2dVertex
 10
0.0
 20
1.0
 30
0.0
  0
VERTEX
  5
D5
330
D3
100
AcDbEntity
  8
0
 62
     0
100
AcDbVertex
100
AcDb2dVertex
 10
0.0
 20
-1.0
 30
0.0
  0
VERTEX
  5
D7
330
D3
100
AcDbEntity
  8
0
 62
     0
100
AcDbVertex
100
AcDb2dVertex
 10
-1.0
 20
0.0
 30
0.0
  0
VERTEX
  5
D8
330
D3
100
AcDbEntity
  8
0
 62
     0
100
AcDbVertex
100
AcDb2dVertex
 10
0.0
 20
1.0
 30
0.0
  0
SEQEND
  5
D6
330
D3
100
AcDbEntity
  8
0
 62
     0
  0
SOLID
  5
DA
330
D0
100
AcDbEntity
  8
0
 62
     0
100
AcDbTrace
 10
0.0
 20
1.0
 30
0.0
 11
0.0
 21
-1.0
 31
0.0
 12
-1.0
 22
0.0
 32
0.0
 13
0.0
 23
1.0
 33
0.0
  0
ENDBLK
  5
D2
330
D0
100
AcDbEntity
  8
0
100
AcDbBlockEnd
  0
BLOCK
  5
E2
330
E1
100
AcDbEntity
  8
0
100
AcDbBlockBegin
  2
Filled-1
 70
     0
 10
0.0
 20
0.0
 30
0.0
  3
Filled-1
  1

  0
LINE
  5
E4
330
E1
100
AcDbEntity
  8
0
 62
     0
100
AcDbLine
 10
-1.0
 20
0.0
 30
0.0
 11
0.0
 21
0.0
 31
0.0
  0
POLYLINE
  5
E5
330
E1
100
AcDbEntity
  8
0
 62
     0
100
AcDb2dPolyline
 66
     1
 10
0.0
 20
0.0
 30
0.0
 70
   128
  0
VERTEX
  5
E6
330
E5
100
AcDbEntity
  8
0
 62
     0
100
AcDbVertex
100
AcDb2dVertex
 10
-1.0
 20
-0.1
 30
0.0
  0
VERTEX
  5
E7
330
E5
100
AcDbEntity
  8
0
 62
     0
100
AcDbVertex
100
AcDb2dVertex
 10
0.0
 20
0.0
 30
0.0
  0
VERTEX
  5
E9
330
E5
100
AcDbEntity
  8
0
 62
     0
100
AcDbVertex
100
AcDb2dVertex
 10
-1.0
 20
0.1
 30
0.0
  0
VERTEX
  5
EA
330
E5
100
AcDbEntity
  8
0
 62
     0
100
AcDbVertex
100
AcDb2dVertex
 10
-1.0
 20
-0.1
 30
0.0
  0
SEQEND
  5
E8
330
E5
100
AcDbEntity
  8
0
 62
     0
  0
SOLID
  5
EB
330
E1
100
AcDbEntity
  8
0
 62
     0
100
AcDbTrace
 10
-1.0
 20
-0.1
 30
0.0
 11
0.0
 21
0.0
 31
0.0
 12
-1.0
 22
0.1
 32
0.0
 13
-1.0
 23
-0.1
 33
0.0
  0
LINE
  5
EC
330
E1
100
AcDbEntity
  8
0
 62
     0
100
AcDbLine
 10
-1.0
 20
-0.1
 30
0.0
 11
0.0
 21
0.0
 31
0.0
  0
LINE
  5
ED
330
E1
100
AcDbEntity
  8
0
 62
     0
100
AcDbLine
 10
0.0
 20
0.0
 30
0.0
 11
-1.0
 21
0.1
 31
0.0
  0
LINE
  5
EE
330
E1
100
AcDbEntity
  8
0
 62
     0
100
AcDbLine
 10
-1.0
 20
0.1
 30
0.0
 11
-1.0
 21
-0.1
 31
0.0
  0
ENDBLK
  5
E3
330
E1
100
AcDbEntity
  8
0
100
AcDbBlockEnd
  0
BLOCK
  5
F1
330
F0
100
AcDbEntity
  8
0
100
AcDbBlockBegin
  2
Carbonitrieren
 70
     0
 10
0.0
 20
0.0
 30
0.0
  3
Carbonitrieren
  1

  0
MTEXT
  5
F3
330
F0
100
AcDbEntity
  8
Titel (ISO)
100
AcDbMText
 10
-75.71151256561281
 20
15.48921793699264
 30
0.0
 40
3.499999940395355
 41
147.2330421884934
 46
0.0
 71
     1
 72
     1
  3
- Carbonitriert: 0.3 ±0.1 tief;HV 500...600 (Prüfkraft DIN 50133)\P- elektrolytisch verkupfert 1-2µ, el. vernickelt 8-10µ\fArial|b0|i0;\H3.3000;\P\fArial|b0|i0;\H3.5000;- Entspröden: glühen 190-210°C, ca 3h innerhalb 4h nach Veredelung\P \P-TriboCoat
  1
ing TC D1050, 4...8µ\P 
  7
_Schriftfeld_3.5mm
 73
     2
 44
0.9442214965820312
  0
ENDBLK
  5
F2
330
F0
100
AcDbEntity
  8
0
100
AcDbBlockEnd
  0
BLOCK
  5
F6
330
F5
100
AcDbEntity
  8
0
100
AcDbBlockBegin
  2
Federangaben
 70
     0
 10
0.0
 20
0.0
 30
0.0
  3
Federangaben
  1

  0
MTEXT
  5
F8
330
F5
100
AcDbEntity
  8
Titel (ISO)
100
AcDbMText
 10
-23.02877426147463
 20
32.04377174377441
 30
0.0
 40
3.499999940395355
 41
201.4264025634256
 46
0.0
 71
     1
 72
     1
  1
getrommelt\Pzunderfrei\Pohne Druckstellen\Pund Sicken\P \PEinfederung ...°\PMd ... Nmm\PSb ... N/mm2\P \PWindungszahl ...\P50 HRc +/- 2 eingeölt\P 
  7
_Schriftfeld_3.5mm
 73
     2
 44
0.9442216157913208
  0
ENDBLK
  5
F7
330
F5
100
AcDbEntity
  8
0
100
AcDbBlockEnd
  0
BLOCK
  5
FA
330
F9
100
AcDbEntity
  8
0
100
AcDbBlockBegin
  2
Nassschliff
 70
     0
 10
0.0
 20
0.0
 30
0.0
  3
Nassschliff
  1

  0
MTEXT
  5
FC
330
F9
100
AcDbEntity
  8
Titel (ISO)
100
AcDbMText
 10
-59.37195301055908
 20
2.29287352412939
 30
0.0
 40
3.499999940395355
 41
0.0
 46
0.0
 71
     1
 72
     1
  1
Verfahren IV: Nassschliff, Korn 220-240, Folie einseitig
  7
_Schriftfeld_3.5mm
 73
     1
 44
1.0
  0
ENDBLK
  5
FB
330
F9
100
AcDbEntity
  8
0
100
AcDbBlockEnd
  0
BLOCK
  5
FE
330
FD
100
AcDbEntity
  8
0
100
AcDbBlockBegin
  2
Schleiffrichtung horizontal
 70
     0
 10
0.0
 20
0.0
 30
0.0
  3
Schleiffrichtung horizontal
  1

  0
HATCH
  5
103
330
FD
100
AcDbEntity
  8
Schraffur (ISO)
100
AcDbHatch
 10
0.0
 20
0.0
 30
0.0
210
0.0
220
0.0
230
1.0
  2
SOLID
 70
     1
 71
     0
 91
        1
 92
        1
 93
        3
 72
     1
 10
-20.0
 20
0.0
 11
-17.50000000000001
 21
-0.4999999999999895
 72
     1
 10
-17.50000000000001
 20
-0.4999999999999895
 11
-17.50000000000001
 21
0.5000000000000071
 72
     1
 10
-17.50000000000001
 20
0.5000000000000071
 11
-20.0
 21
0.0
 97
        0
 75
     0
 76
     1
 98
        1
 10
0.0
 20
0.0
450
        0
451
        0
460
0.0
461
0.0
452
        0
462
0.0
453
        0
470

  0
HATCH
  5
107
330
FD
100
AcDbEntity
  8
Schraffur (ISO)
100
AcDbHatch
 10
0.0
 20
0.0
 30
0.0
210
0.0
220
0.0
230
1.0
  2
SOLID
 70
     1
 71
     0
 91
        1
 92
        1
 93
        3
 72
     1
 10
19.99999999999998
 20
0.0
 11
17.5
 21
0.5000000000000071
 72
     1
 10
17.5
 20
0.5000000000000071
 11
17.49999999999998
 21
-0.4999999999999894
 72
     1
 10
17.49999999999998
 20
-0.4999999999999895
 11
19.99999999999998
 21
0.0
 97
        0
 75
     0
 76
     1
 98
        1
 10
0.0
 20
0.0
450
        0
451
        0
460
0.0
461
0.0
452
        0
462
0.0
453
        0
470

  0
LINE
  5
108
330
FD
100
AcDbEntity
  8
Titel (ISO)
370
    25
100
AcDbLine
 10
-20.0
 20
0.0
 30
0.0
 11
19.99999999999998
 21
0.0
 31
0.0
  0
LINE
  5
109
330
FD
100
AcDbEntity
  8
Titel (ISO)
100
AcDbLine
 10
19.99999999999998
 20
0.0
 30
0.0
 11
17.5
 21
0.5000000000000071
 31
0.0
  0
LINE
  5
10A
330
FD
100
AcDbEntity
  8
Titel (ISO)
100
AcDbLine
 10
17.5
 20
0.5000000000000071
 30
0.0
 11
17.49999999999998
 21
-0.4999999999999895
 31
0.0
  0
LINE
  5
10B
330
FD
100
AcDbEntity
  8
Titel (ISO)
100
AcDbLine
 10
17.49999999999998
 20
-0.4999999999999895
 30
0.0
 11
19.99999999999998
 21
0.0
 31
0.0
  0
LINE
  5
10C
330
FD
100
AcDbEntity
  8
Titel (ISO)
100
AcDbLine
 10
-17.50000000000001
 20
0.5000000000000071
 30
0.0
 11
-20.0
 21
0.0
 31
0.0
  0
LINE
  5
10D
330
FD
100
AcDbEntity
  8
Titel (ISO)
100
AcDbLine
 10
-20.0
 20
0.0
 30
0.0
 11
-17.50000000000001
 21
-0.4999999999999895
 31
0.0
  0
LINE
  5
10E
330
FD
100
AcDbEntity
  8
Titel (ISO)
100
AcDbLine
 10
-17.50000000000001
 20
-0.4999999999999895
 30
0.0
 11
-17.50000000000001
 21
0.5000000000000071
 31
0.0
  0
MTEXT
  5
10F
330
FD
100
AcDbEntity
  8
Titel (ISO)
100
AcDbMText
 10
-15.50000000000001
 20
5.0
 30
0.0
 40
3.499999940395355
 41
0.0
 46
0.0
 71
     1
 72
     1
  1
Schliffrichtung
  7
_Schriftfeld_3.5mm
 73
     1
 44
1.0
  0
ENDBLK
  5
FF
330
FD
100
AcDbEntity
  8
0
100
AcDbBlockEnd
  0
BLOCK
  5
111
330
110
100
AcDbEntity
  8
0
100
AcDbBlockBegin
  2
Schleiffrichtung vertikal
 70
     0
 10
0.0
 20
0.0
 30
0.0
  3
Schleiffrichtung vertikal
  1

  0
HATCH
  5
116
330
110
100
AcDbEntity
  8
Schraffur (ISO)
100
AcDbHatch
 10
0.0
 20
0.0
 30
0.0
210
0.0
220
0.0
230
1.0
  2
SOLID
 70
     1
 71
     0
 91
        1
 92
        1
 93
        3
 72
     1
 10
0.0
 20
-20.0
 11
0.4999999999999984
 21
-17.5
 72
     1
 10
0.4999999999999984
 20
-17.5
 11
-0.4999999999999984
 21
-17.5
 72
     1
 10
-0.4999999999999984
 20
-17.5
 11
0.0
 21
-20.0
 97
        0
 75
     0
 76
     1
 98
        1
 10
0.0
 20
0.0
450
        0
451
        0
460
0.0
461
0.0
452
        0
462
0.0
453
        0
470

  0
HATCH
  5
11A
330
110
100
AcDbEntity
  8
Schraffur (ISO)
100
AcDbHatch
 10
0.0
 20
0.0
 30
0.0
210
0.0
220
0.0
230
1.0
  2
SOLID
 70
     1
 71
     0
 91
        1
 92
        1
 93
        3
 72
     1
 10
0.0
 20
20.0
 11
-0.5000000000000071
 21
17.5
 72
     1
 10
-0.5000000000000071
 20
17.5
 11
0.4999999999999983
 21
17.5
 72
     1
 10
0.4999999999999984
 20
17.5
 11
0.0
 21
20.0
 97
        0
 75
     0
 76
     1
 98
        1
 10
0.0
 20
0.0
450
        0
451
        0
460
0.0
461
0.0
452
        0
462
0.0
453
        0
470

  0
LINE
  5
11B
330
110
100
AcDbEntity
  8
Titel (ISO)
370
    25
100
AcDbLine
 10
0.0
 20
-20.0
 30
0.0
 11
0.0
 21
20.0
 31
0.0
  0
LINE
  5
11C
330
110
100
AcDbEntity
  8
Titel (ISO)
100
AcDbLine
 10
0.0
 20
20.0
 30
0.0
 11
-0.5000000000000071
 21
17.5
 31
0.0
  0
LINE
  5
11D
330
110
100
AcDbEntity
  8
Titel (ISO)
100
AcDbLine
 10
-0.5000000000000071
 20
17.5
 30
0.0
 11
0.4999999999999984
 21
17.5
 31
0.0
  0
LINE
  5
11E
330
110
100
AcDbEntity
  8
Titel (ISO)
100
AcDbLine
 10
0.4999999999999984
 20
17.5
 30
0.0
 11
0.0
 21
20.0
 31
0.0
  0
LINE
  5
11F
330
110
100
AcDbEntity
  8
Titel (ISO)
100
AcDbLine
 10
-0.4999999999999984
 20
-17.5
 30
0.0
 11
0.0
 21
-20.0
 31
0.0
  0
LINE
  5
120
330
110
100
AcDbEntity
  8
Titel (ISO)
100
AcDbLine
 10
0.0
 20
-20.0
 30
0.0
 11
0.4999999999999984
 21
-17.5
 31
0.0
  0
LINE
  5
121
330
110
100
AcDbEntity
  8
Titel (ISO)
100
AcDbLine
 10
0.4999999999999984
 20
-17.5
 30
0.0
 11
-0.4999999999999984
 21
-17.5
 31
0.0
  0
MTEXT
  5
122
330
110
100
AcDbEntity
  8
Titel (ISO)
100
AcDbMText
 10
-5.0
 20
-15.5
 30
0.0
 40
3.499999940395355
 41
0.0
 46
0.0
 71
     1
 72
     1
  1
Schliffrichtung
  7
_Schriftfeld_3.5mm
 11
0.0000000000000001
 21
1.0
 31
0.0
 73
     1
 44
1.0
  0
ENDBLK
  5
112
330
110
100
AcDbEntity
  8
0
100
AcDbBlockEnd
  0
BLOCK
  5
124
330
123
100
AcDbEntity
  8
0
100
AcDbBlockBegin
  2
Stanz-_Laserteil
 70
     0
 10
0.0
 20
0.0
 30
0.0
  3
Stanz-_Laserteil
  1

  0
MTEXT
  5
126
330
123
100
AcDbEntity
  8
Titel (ISO)
100
AcDbMText
 10
-49.3854808807373
 20
9.981259405612943
 30
0.0
 40
3.499999940395355
 41
193.6792332340631
 46
0.0
 71
     1
 72
     1
  1
Als Stanzteil konzipiert\PWenn als Laserteil hergestellt, \Pmuss ganze Kontur innerhalb +/- 0.1 mm sein\P
  7
_Schriftfeld_3.5mm
 73
     2
 44
0.9442214965820312
  0
ENDBLK
  5
125
330
123
100
AcDbEntity
  8
0
100
AcDbBlockEnd
  0
BLOCK
  5
128
330
127
100
AcDbEntity
  8
0
100
AcDbBlockBegin
  2
Stanzrundung_1
 70
     0
 10
0.0
 20
0.0
 30
0.0
  3
Stanzrundung_1
  1

  0
ARC
  5
12A
330
127
100
AcDbEntity
  8
Titel (ISO)
100
AcDbCircle
 10
-2.44997217222222
 20
1.477407396909721
 30
0.0
 40
1.999999999999999
100
AcDbArc
 50
270.0
 51
0.0
  0
LINE
  5
12B
330
127
100
AcDbEntity
  8
Titel (ISO)
100
AcDbLine
 10
-1.049223178106464
 20
0.0498562575512551
 30
0.0
 11
2.449972272222211
 21
-1.477407496909711
 31
0.0
  0
MTEXT
  5
12C
330
127
100
AcDbEntity
  8
Titel (ISO)
100
AcDbMText
 10
3.130367236014626
 20
-0.28633610801851
 30
0.0
 40
3.499999940395355
 41
0.0
 46
0.0
 71
     1
 72
     1
  1
Stanzrundung
  7
_Schriftfeld_3.5mm
 73
     1
 44
1.0
  0
ENDBLK
  5
129
330
127
100
AcDbEntity
  8
0
100
AcDbBlockEnd
  0
BLOCK
  5
12E
330
12D
100
AcDbEntity
  8
0
100
AcDbBlockBegin
  2
Stanzrundung_2
 70
     0
 10
0.0
 20
0.0
 30
0.0
  3
Stanzrundung_2
  1

  0
ARC
  5
130
330
12D
100
AcDbEntity
  8
Titel (ISO)
100
AcDbCircle
 10
1.855973276181241
 20
1.952432954041681
 30
0.0
 40
1.566421450686395
100
AcDbArc
 50
180.0
 51
270.0
  0
LINE
  5
131
330
12D
100
AcDbEntity
  8
Titel (ISO)
100
AcDbLine
 10
-1.855973376181214
 20
-1.952433054041673
 30
0.0
 11
0.776746247326834
 21
0.8171157378590976
 31
0.0
  0
MTEXT
  5
132
330
12D
100
AcDbEntity
  8
Titel (ISO)
100
AcDbMText
 10
-35.05451959893437
 20
-0.5734039390297241
 30
0.0
 40
3.499999940395355
 41
0.0
 46
0.0
 71
     1
 72
     1
  1
Stanzrundung
  7
_Schriftfeld_3.5mm
 73
     1
 44
1.0
  0
ENDBLK
  5
12F
330
12D
100
AcDbEntity
  8
0
100
AcDbBlockEnd
  0
BLOCK
  5
134
330
133
100
AcDbEntity
  8
0
100
AcDbBlockBegin
  2
Verzinkt
 70
     0
 10
0.0
 20
0.0
 30
0.0
  3
Verzinkt
  1

  0
MTEXT
  5
136
330
133
100
AcDbEntity
  8
Titel (ISO)
100
AcDbMText
 10
-34.96665477752687
 20
2.242187596857546
 30
0.0
 40
3.499999940395355
 41
0.0
 46
0.0
 71
     1
 72
     1
  1
verzinkt und blau passiviert 8µm
  7
_Schriftfeld_3.5mm
 73
     1
 44
1.0
  0
ENDBLK
  5
135
330
133
100
AcDbEntity
  8
0
100
AcDbBlockEnd
  0
BLOCK
  5
138
330
137
100
AcDbEntity
  8
0
100
AcDbBlockBegin
  2
Vierkant-Tabelle
 70
     0
 10
0.0
 20
0.0
 30
0.0
  3
Vierkant-Tabelle
  1

  0
LINE
  5
13A
330
137
100
AcDbEntity
  8
Titel (ISO)
 62
     7
100
AcDbLine
 10
-33.99999999999998
 20
-24.00000000000006
 30
0.0
 11
33.99999999999999
 21
-23.99999999999999
 31
0.0
  0
LINE
  5
13B
330
137
100
AcDbEntity
  8
Titel (ISO)
 62
     7
100
AcDbLine
 10
-33.99999999999999
 20
0.0
 30
0.0
 11
33.99999999999999
 21
0.0
 31
0.0
  0
LINE
  5
13C
330
137
100
AcDbEntity
  8
Titel (ISO)
 62
     7
100
AcDbLine
 10
-33.99999999999999
 20
23.99999999999999
 30
0.0
 11
33.99999999999999
 21
24.00000000000006
 31
0.0
  0
LINE
  5
13D
330
137
100
AcDbEntity
  8
Titel (ISO)
 62
     7
100
AcDbLine
 10
-33.99999999999999
 20
15.99999999999998
 30
0.0
 11
34.0
 21
16.00000000000005
 31
0.0
  0
LINE
  5
13E
330
137
100
AcDbEntity
  8
Titel (ISO)
 62
     7
100
AcDbLine
 10
-33.99999999999999
 20
7.999999999999971
 30
0.0
 11
34.0
 21
8.000000000000042
 31
0.0
  0
LINE
  5
13F
330
137
100
AcDbEntity
  8
Titel (ISO)
 62
     7
100
AcDbLine
 10
-33.99999999999999
 20
-8.000000000000042
 30
0.0
 11
33.99999999999999
 21
-7.999999999999971
 31
0.0
  0
LINE
  5
140
330
137
100
AcDbEntity
  8
Titel (ISO)
 62
     7
100
AcDbLine
 10
-33.99999999999999
 20
-16.00000000000005
 30
0.0
 11
33.99999999999999
 21
-15.99999999999998
 31
0.0
  0
LINE
  5
141
330
137
100
AcDbEntity
  8
Titel (ISO)
 62
     7
100
AcDbLine
 10
-25.99999999999997
 20
-24.00000000000006
 30
0.0
 11
-26.0
 21
23.99999999999999
 31
0.0
  0
LINE
  5
142
330
137
100
AcDbEntity
  8
Titel (ISO)
 62
     7
100
AcDbLine
 10
-33.99999999999998
 20
-24.00000000000006
 30
0.0
 11
-33.99999999999999
 21
23.99999999999999
 31
0.0
  0
LINE
  5
143
330
137
100
AcDbEntity
  8
Titel (ISO)
 62
     7
100
AcDbLine
 10
-5.999999999999968
 20
-24.00000000000002
 30
0.0
 11
-5.999999999999996
 21
24.00000000000002
 31
0.0
  0
LINE
  5
144
330
137
100
AcDbEntity
  8
Titel (ISO)
 62
     7
100
AcDbLine
 10
13.99999999999999
 20
-24.00000000000002
 30
0.0
 11
14.0
 21
24.00000000000002
 31
0.0
  0
LINE
  5
145
330
137
100
AcDbEntity
  8
Titel (ISO)
 62
     7
100
AcDbLine
 10
33.99999999999999
 20
-23.99999999999999
 30
0.0
 11
33.99999999999999
 21
24.00000000000006
 31
0.0
  0
MTEXT
  5
146
330
137
100
AcDbEntity
  8
Titel (ISO)
100
AcDbMText
 10
-31.0
 20
-9.999999850988423
 30
0.0
 40
2.5
 41
0.0
 46
0.0
 71
     1
 72
     1
  1
\fArial|b0|i0;\W0.60;\H2.5000;4
  7
_Schriftfeld_3.5mm
 73
     1
 44
1.0
  0
MTEXT
  5
147
330
137
100
AcDbEntity
  8
Titel (ISO)
100
AcDbMText
 10
-31.0
 20
5.999999999999976
 30
0.0
 40
2.5
 41
0.0
 46
0.0
 71
     1
 72
     1
  1
\fArial|b0|i0;\W0.60;\H2.5000;2
  7
_Schriftfeld_3.5mm
 73
     1
 44
1.0
  0
MTEXT
  5
148
330
137
100
AcDbEntity
  8
Titel (ISO)
100
AcDbMText
 10
-31.42346487563099
 20
21.00000014901159
 30
0.0
 40
2.5
 41
0.0
 46
0.0
 71
     1
 72
     1
  1
\fArial|b0|i0;\W0.65;\H2.5000;Pos.
  7
_Schriftfeld_3.5mm
 73
     1
 44
1.0
  0
MTEXT
  5
149
330
137
100
AcDbEntity
  8
Titel (ISO)
100
AcDbMText
 10
-31.0
 20
13.99999999999998
 30
0.0
 40
2.5
 41
0.0
 46
0.0
 71
     1
 72
     1
  1
\fArial|b0|i0;\W0.60;\H2.5000;1
  7
_Schriftfeld_3.5mm
 73
     1
 44
1.0
  0
MTEXT
  5
14A
330
137
100
AcDbEntity
  8
Titel (ISO)
100
AcDbMText
 10
-0.9999999999999964
 20
-18.00000000000004
 30
0.0
 40
2.5
 41
0.0
 46
0.0
 71
     1
 72
     1
  1
\fArial|b0|i0;\W0.88;\H2.5000;4kt. 10
  7
_Schriftfeld_3.5mm
 73
     1
 44
1.0
  0
MTEXT
  5
14B
330
137
100
AcDbEntity
  8
Titel (ISO)
100
AcDbMText
 10
-21.0
 20
-18.00000000000004
 30
0.0
 40
2.5
 41
0.0
 46
0.0
 71
     1
 72
     1
  1
\fAIGDT|b0|i0;\W0.65;\H2.5000;n\fArial|b0|i0;\W0.65;\H2.5000; 11.5
  7
_Schriftfeld_3.5mm
 73
     1
 44
1.0
  0
MTEXT
  5
14C
330
137
100
AcDbEntity
  8
Titel (ISO)
100
AcDbMText
 10
19.0
 20
-18.00000000000004
 30
0.0
 40
2.5
 41
0.0
 46
0.0
 71
     1
 72
     1
  1
\fArial|b0|i0;\W0.88;\H2.5000;13.6
  7
_Schriftfeld_3.5mm
 73
     1
 44
1.0
  0
MTEXT
  5
14D
330
137
100
AcDbEntity
  8
Titel (ISO)
100
AcDbMText
 10
-3.999999999999993
 20
21.00000014901159
 30
0.0
 40
2.5
 41
0.0
 46
0.0
 71
     1
 72
     1
  1
\fArial|b0|i0;\W0.78;\H2.5000;Mass B
  7
_Schriftfeld_3.5mm
 73
     1
 44
1.0
  0
MTEXT
  5
14E
330
137
100
AcDbEntity
  8
Titel (ISO)
100
AcDbMText
 10
-0.9999999999999964
 20
5.999999999999976
 30
0.0
 40
2.5
 41
0.0
 46
0.0
 71
     1
 72
     1
  1
\fArial|b0|i0;\W0.90;\H2.5000;4kt.  8
  7
_Schriftfeld_3.5mm
 73
     1
 44
1.0
  0
MTEXT
  5
14F
330
137
100
AcDbEntity
  8
Titel (ISO)
100
AcDbMText
 10
-0.9999999999999964
 20
-2.000000000000027
 30
0.0
 40
2.5
 41
0.0
 46
0.0
 71
     1
 72
     1
  1
\fArial|b0|i0;\W0.83;\H2.5000;4kt. 8.5
  7
_Schriftfeld_3.5mm
 73
     1
 44
1.0
  0
MTEXT
  5
150
330
137
100
AcDbEntity
  8
Titel (ISO)
100
AcDbMText
 10
-0.9999999999999964
 20
14.00000014901159
 30
0.0
 40
2.5
 41
0.0
 46
0.0
 71
     1
 72
     1
  1
\fArial|b0|i0;\W0.90;\H2.5000;4kt.  7
  7
_Schriftfeld_3.5mm
 73
     1
 44
1.0
  0
MTEXT
  5
151
330
137
100
AcDbEntity
  8
Titel (ISO)
100
AcDbMText
 10
-0.9999999999999964
 20
-10.00000000000003
 30
0.0
 40
2.5
 41
0.0
 46
0.0
 71
     1
 72
     1
  1
\fArial|b0|i0;\W0.90;\H2.5000;4kt.  9
  7
_Schriftfeld_3.5mm
 73
     1
 44
1.0
  0
MTEXT
  5
152
330
137
100
AcDbEntity
  8
Titel (ISO)
100
AcDbMText
 10
-21.0
 20
-2.000000000000027
 30
0.0
 40
2.5
 41
0.0
 46
0.0
 71
     1
 72
     1
  1
\fAIGDT|b0|i0;\W0.76;\H2.5000;n\fArial|b0|i0;\W0.76;\H2.5000; 10.5
  7
_Schriftfeld_3.5mm
 73
     1
 44
1.0
  0
MTEXT
  5
153
330
137
100
AcDbEntity
  8
Titel (ISO)
100
AcDbMText
 10
-21.0
 20
5.999999999999976
 30
0.0
 40
2.5
 41
0.0
 46
0.0
 71
     1
 72
     1
  1
\fAIGDT|b0|i0;\W0.73;\H2.5000;n\fArial|b0|i0;\W0.73;\H2.5000; 10
  7
_Schriftfeld_3.5mm
 73
     1
 44
1.0
  0
MTEXT
  5
154
330
137
100
AcDbEntity
  8
Titel (ISO)
100
AcDbMText
 10
-21.0
 20
-10.00000000000003
 30
0.0
 40
2.5
 41
0.0
 46
0.0
 71
     1
 72
     1
  1
\fAIGDT|b0|i0;\W0.69;\H2.5000;n\fArial|b0|i0;\W0.69;\H2.5000; 11
  7
_Schriftfeld_3.5mm
 73
     1
 44
1.0
  0
MTEXT
  5
155
330
137
100
AcDbEntity
  8
Titel (ISO)
100
AcDbMText
 10
-21.0
 20
13.99999999999998
 30
0.0
 40
2.5
 41
0.0
 46
0.0
 71
     1
 72
     1
  1
\fAIGDT|b0|i0;\W0.84;\H2.5000;n\fArial|b0|i0;\W0.84;\H2.5000; 8
  7
_Schriftfeld_3.5mm
 73
     1
 44
1.0
  0
MTEXT
  5
156
330
137
100
AcDbEntity
  8
Titel (ISO)
100
AcDbMText
 10
-22.02576666302078
 20
21.00000014901159
 30
0.0
 40
2.5
 41
0.0
 46
0.0
 71
     1
 72
     1
  1
\fArial|b0|i0;\W0.79;\H2.5000;Mass A
  7
_Schriftfeld_3.5mm
 73
     1
 44
1.0
  0
MTEXT
  5
157
330
137
100
AcDbEntity
  8
Titel (ISO)
100
AcDbMText
 10
-31.0
 20
-17.96760666370396
 30
0.0
 40
2.5
 41
0.0
 46
0.0
 71
     1
 72
     1
  1
\fArial|b0|i0;\W0.56;\H2.5000;5
  7
_Schriftfeld_3.5mm
 73
     1
 44
1.0
  0
MTEXT
  5
158
330
137
100
AcDbEntity
  8
Titel (ISO)
100
AcDbMText
 10
19.0
 20
-2.000000000000027
 30
0.0
 40
2.5
 41
0.0
 46
0.0
 71
     1
 72
     1
  1
\fArial|b0|i0;\W0.83;\H2.5000;12
  7
_Schriftfeld_3.5mm
 73
     1
 44
1.0
  0
MTEXT
  5
159
330
137
100
AcDbEntity
  8
Titel (ISO)
100
AcDbMText
 10
19.0
 20
5.999999999999976
 30
0.0
 40
2.5
 41
0.0
 46
0.0
 71
     1
 72
     1
  1
\fArial|b0|i0;\W0.90;\H2.5000;11.3
  7
_Schriftfeld_3.5mm
 73
     1
 44
1.0
  0
MTEXT
  5
15A
330
137
100
AcDbEntity
  8
Titel (ISO)
100
AcDbMText
 10
16.0
 20
20.99999999999998
 30
0.0
 40
2.5
 41
0.0
 46
0.0
 71
     1
 72
     1
  1
\fArial|b0|i0;\W0.78;\H2.5000;Mass C
  7
_Schriftfeld_3.5mm
 73
     1
 44
1.0
  0
MTEXT
  5
15B
330
137
100
AcDbEntity
  8
Titel (ISO)
100
AcDbMText
 10
19.0
 20
-10.00000000000003
 30
0.0
 40
2.5
 41
0.0
 46
0.0
 71
     1
 72
     1
  1
\fArial|b0|i0;\W0.90;\H2.5000;12.7
  7
_Schriftfeld_3.5mm
 73
     1
 44
1.0
  0
MTEXT
  5
15C
330
137
100
AcDbEntity
  8
Titel (ISO)
100
AcDbMText
 10
19.0
 20
13.99999999999998
 30
0.0
 40
2.5
 41
0.0
 46
0.0
 71
     1
 72
     1
  1
\fArial|b0|i0;\W0.90;\H2.5000;10
  7
_Schriftfeld_3.5mm
 73
     1
 44
1.0
  0
MTEXT
  5
15D
330
137
100
AcDbEntity
  8
Titel (ISO)
100
AcDbMText
 10
7.52309499999999
 20
23.50279363516371
 30
0.0
 40
2.5
 41
0.0
 46
0.0
 71
     1
 72
     1
  1
\fArial|b0|i0;\W0.68;\H2.5000;+0.05
  7
_Schriftfeld_3.5mm
 73
     1
 44
1.0
  0
MTEXT
  5
15E
330
137
100
AcDbEntity
  8
Titel (ISO)
100
AcDbMText
 10
28.821548797772
 20
20.00279363516373
 30
0.0
 40
2.5
 41
0.0
 46
0.0
 71
     1
 72
     1
  1
\fArial|b0|i0;\W0.63;\H2.5000;0
  7
_Schriftfeld_3.5mm
 73
     1
 44
1.0
  0
MTEXT
  5
15F
330
137
100
AcDbEntity
  8
Titel (ISO)
100
AcDbMText
 10
27.523095
 20
23.50279363516371
 30
0.0
 40
2.5
 41
0.0
 46
0.0
 71
     1
 72
     1
  1
\fArial|b0|i0;\W0.68;\H2.5000;+0.2
  7
_Schriftfeld_3.5mm
 73
     1
 44
1.0
  0
MTEXT
  5
160
330
137
100
AcDbEntity
  8
Titel (ISO)
100
AcDbMText
 10
-31.0
 20
-2.000000000000027
 30
0.0
 40
2.5
 41
0.0
 46
0.0
 71
     1
 72
     1
  1
\fArial|b0|i0;\W0.60;\H2.5000;3
  7
_Schriftfeld_3.5mm
 73
     1
 44
1.0
  0
MTEXT
  5
161
330
137
100
AcDbEntity
  8
Titel (ISO)
100
AcDbMText
 10
7.52309499999999
 20
20.00279363516373
 30
0.0
 40
2.5
 41
0.0
 46
0.0
 71
     1
 72
     1
  1
\fArial|b0|i0;\W0.63;\H2.5000;+0.01
  7
_Schriftfeld_3.5mm
 73
     1
 44
1.0
  0
ENDBLK
  5
139
330
137
100
AcDbEntity
  8
0
100
AcDbBlockEnd
  0
BLOCK
  5
163
330
162
100
AcDbEntity
  8
0
100
AcDbBlockBegin
  2
Laserpunkt_Text
 70
     0
 10
0.0
 20
0.0
 30
0.0
  3
Laserpunkt_Text
  1

  0
CIRCLE
  5
165
330
162
100
AcDbEntity
  8
Skizziergeometrie(DIN)
370
    70
100
AcDbCircle
 10
3.715998998176778
 20
2.645602535338599
 30
0.0
 40
2.250000000000003
  0
LINE
  5
166
330
162
100
AcDbEntity
  8
Skizziergeometrie(DIN)
370
    70
100
AcDbLine
 10
6.014096037033062
 20
0.3475054964822988
 30
0.0
 11
1.417901959320495
 21
4.943699574194866
 31
0.0
  0
LINE
  5
167
330
162
100
AcDbEntity
  8
Skizziergeometrie(DIN)
370
    70
100
AcDbLine
 10
1.417901959320513
 20
0.3475054964822988
 30
0.0
 11
6.01409603703308
 21
4.943699574194866
 31
0.0
  0
MTEXT
  5
168
330
162
100
AcDbEntity
  8
Symbole(DIN)
 62
   179
420
  2500185
100
AcDbMText
 10
0.0
 20
-0.1396086563666721
 30
0.0
 40
3.499999940395355
 41
0.0
 46
0.0
 71
     7
 72
     1
  1
Kontur gelasert nach DXF-File\P      = Anfang/Ende Laserkontur 
  7
Aktuell-DIN
 73
     2
 44
0.9442214965820312
  0
ENDBLK
  5
164
330
162
100
AcDbEntity
  8
0
100
AcDbBlockEnd
  0
BLOCK
  5
16A
330
169
100
AcDbEntity
  8
0
100
AcDbBlockBegin
  2
Laserpunkt
 70
     0
 10
0.0
 20
0.0
 30
0.0
  3
Laserpunkt
  1

  0
CIRCLE
  5
16C
330
169
100
AcDbEntity
  8
Skizziergeometrie(DIN)
370
    70
100
AcDbCircle
 10
0.0
 20
0.0
 30
0.0
 40
2.250000000000003
  0
LINE
  5
16D
330
169
100
AcDbEntity
  8
Skizziergeometrie(DIN)
370
    70
100
AcDbLine
 10
2.298097038856282
 20
-2.2980970388563
 30
0.0
 11
-2.298097038856282
 21
2.298097038856266
 31
0.0
  0
LINE
  5
16E
330
169
100
AcDbEntity
  8
Skizziergeometrie(DIN)
370
    70
100
AcDbLine
 10
-2.298097038856266
 20
-2.2980970388563
 30
0.0
 11
2.2980970388563
 21
2.298097038856266
 31
0.0
  0
ENDBLK
  5
16B
330
169
100
AcDbEntity
  8
0
100
AcDbBlockEnd
  0
BLOCK
  5
170
330
16F
100
AcDbEntity
  8
0
100
AcDbBlockBegin
  2
Kantenbruch
 70
     2
 10
0.0
 20
0.0
 30
0.0
  3
Kantenbruch
  1

  0
HATCH
  5
175
330
16F
100
AcDbEntity
  8
Schraffur
100
AcDbHatch
 10
0.0
 20
0.0
 30
0.0
210
0.0
220
0.0
230
1.0
  2
SOLID
 70
     1
 71
     0
 91
        1
 92
        1
 93
        3
 72
     1
 10
2.551045103405299
 20
2.440182479852524
 11
0.0
 21
0.0
 72
     1
 10
0.0
 20
0.0
 11
1.832554653580372
 21
3.017294333708306
 72
     1
 10
1.832554653580372
 20
3.017294333708306
 11
2.551045103405299
 21
2.440182479852524
 97
        0
 75
     0
 76
     1
 98
        1
 10
0.0
 20
0.0
450
        0
451
        0
460
0.0
461
0.0
452
        0
462
0.0
453
        0
470

  0
HATCH
  5
179
330
16F
100
AcDbEntity
  8
Schraffur
100
AcDbHatch
 10
0.0
 20
0.0
 30
0.0
210
0.0
220
0.0
230
1.0
  2
SOLID
 70
     1
 71
     0
 91
        1
 92
        1
 93
        3
 72
     1
 10
23.39589716406273
 20
3.017294333708662
 11
21.56334251048213
 21
0.0
 72
     1
 10
21.56334251048213
 20
0.0
 11
24.11438761388769
 21
2.440182479852808
 72
     1
 10
24.11438761388769
 20
2.440182479852808
 11
23.39589716406273
 21
3.017294333708662
 97
        0
 75
     0
 76
     1
 98
        1
 10
0.0
 20
0.0
450
        0
451
        0
460
0.0
461
0.0
452
        0
462
0.0
453
        0
470

  0
LINE
  5
17A
330
16F
100
AcDbEntity
  8
AM_5
  6
Continuous
 62
     7
100
AcDbLine
 10
14.41413346606271
 20
6.589009726759619
 30
0.0
 11
5.486542746190784
 21
6.589009726759619
 31
0.0
  0
LINE
  5
17B
330
16F
100
AcDbEntity
  8
AM_5
  6
Continuous
 62
     7
100
AcDbLine
 10
6.021339289383168
 20
7.425192947268967
 30
0.0
 11
10.92133928938317
 21
7.425192947268967
 31
0.0
  0
LINE
  5
17C
330
16F
100
AcDbEntity
  8
AM_5
  6
Continuous
 62
     7
100
AcDbLine
 10
6.021339289383168
 20
12.32519294726897
 30
0.0
 11
6.021339289383168
 21
7.425192947268967
 31
0.0
  0
LINE
  5
17D
330
16F
100
AcDbEntity
  8
AM_5
  6
Continuous
 62
     7
100
AcDbLine
 10
27.49096644559973
 20
12.32519294726897
 30
0.0
 11
27.49096644559973
 21
7.425192947268967
 31
0.0
  0
LINE
  5
17E
330
16F
100
AcDbEntity
  8
AM_5
  6
Continuous
 62
     7
100
AcDbLine
 10
2.551045103405299
 20
2.440182479852559
 30
0.0
 11
1.832554653580372
 21
3.017294333708306
 31
0.0
  0
LINE
  5
17F
330
16F
100
AcDbEntity
  8
AM_5
 62
     7
100
AcDbLine
 10
5.486542746190784
 20
6.589009726759619
 30
0.0
 11
2.259523567491451
 21
2.674322428928999
 31
0.0
  0
LINE
  5
180
330
16F
100
AcDbEntity
  8
AM_5
  6
Continuous
 62
     7
100
AcDbLine
 10
0.0
 20
0.0
 30
0.0
 11
2.551045103405299
 21
2.440182479852524
 31
0.0
  0
LINE
  5
181
330
16F
100
AcDbEntity
  8
AM_5
  6
Continuous
 62
     7
100
AcDbLine
 10
21.56334251048156
 20
0.0
 30
0.0
 11
24.11438761388769
 21
2.440182479852808
 31
0.0
  0
LINE
  5
182
330
16F
100
AcDbEntity
  8
Skizziergeometrie(DIN)
100
AcDbLine
 10
2.551045103405299
 20
2.440182479852524
 30
0.0
 11
1.832554653580372
 21
3.017294333708306
 31
0.0
  0
LINE
  5
183
330
16F
100
AcDbEntity
  8
AM_5
  6
Continuous
 62
     7
100
AcDbLine
 10
1.832554653580372
 20
3.017294333708306
 30
0.0
 11
0.0
 21
0.0
 31
0.0
  0
LINE
  5
184
330
16F
100
AcDbEntity
  8
Skizziergeometrie(DIN)
100
AcDbLine
 10
1.832554653580372
 20
3.017294333708306
 30
0.0
 11
0.0
 21
0.0
 31
0.0
  0
LINE
  5
185
330
16F
100
AcDbEntity
  8
Skizziergeometrie(DIN)
100
AcDbLine
 10
0.0
 20
0.0
 30
0.0
 11
2.551045103405299
 21
2.440182479852524
 31
0.0
  0
LINE
  5
186
330
16F
100
AcDbEntity
  8
AM_0
370
    25
100
AcDbLine
 10
0.0
 20
0.0
 30
0.0
 11
-8.000000000000008
 21
0.0
 31
0.0
  0
LINE
  5
187
330
16F
100
AcDbEntity
  8
Skizziergeometrie(DIN)
370
    25
100
AcDbLine
 10
0.0
 20
0.0
 30
0.0
 11
0.0
 21
-7.999999999999997
 31
0.0
  0
LINE
  5
188
330
16F
100
AcDbEntity
  8
Skizziergeometrie(DIN)
100
AcDbLine
 10
24.11438761388769
 20
2.440182479852808
 30
0.0
 11
21.56334251048213
 21
0.0
 31
0.0
  0
LINE
  5
189
330
16F
100
AcDbEntity
  8
AM_5
  6
Continuous
 62
     7
100
AcDbLine
 10
27.49096644559973
 20
7.425192947268967
 30
0.0
 11
32.39096644559975
 21
7.425192947268967
 31
0.0
  0
LINE
  5
18A
330
16F
100
AcDbEntity
  8
AM_5
  6
Continuous
 62
     7
100
AcDbLine
 10
35.8837606222793
 20
6.589009726759619
 30
0.0
 11
26.95616990240735
 21
6.589009726759619
 31
0.0
  0
LINE
  5
18B
330
16F
100
AcDbEntity
  8
AM_5
  6
Continuous
 62
     7
100
AcDbLine
 10
26.95616990240735
 20
6.589009726759619
 30
0.0
 11
23.70310776989253
 21
2.640671625589323
 31
0.0
  0
LINE
  5
18C
330
16F
100
AcDbEntity
  8
Skizziergeometrie(DIN)
100
AcDbLine
 10
23.39589716406273
 20
3.017294333708662
 30
0.0
 11
24.11438761388769
 21
2.440182479852808
 31
0.0
  0
LINE
  5
18D
330
16F
100
AcDbEntity
  8
AM_5
  6
Continuous
 62
     7
100
AcDbLine
 10
24.11438761388677
 20
2.309315017511791
 30
0.0
 11
23.39589716406191
 21
2.886426871367539
 31
0.0
  0
LINE
  5
18E
330
16F
100
AcDbEntity
  8
AM_0
370
    25
100
AcDbLine
 10
21.56334251048213
 20
7.999999999999988
 30
0.0
 11
21.56334251048213
 21
0.0
 31
0.0
  0
LINE
  5
18F
330
16F
100
AcDbEntity
  8
AM_5
  6
Continuous
 62
     7
100
AcDbLine
 10
23.39589716406273
 20
3.017294333708662
 30
0.0
 11
21.56334251048213
 21
0.0
 31
0.0
  0
LINE
  5
190
330
16F
100
AcDbEntity
  8
Skizziergeometrie(DIN)
100
AcDbLine
 10
21.56334251048213
 20
0.0
 30
0.0
 11
23.39589716406273
 21
3.017294333708662
 31
0.0
  0
LINE
  5
191
330
16F
100
AcDbEntity
  8
AM_0
370
    25
100
AcDbLine
 10
21.56334251048145
 20
0.0
 30
0.0
 11
29.56334251048146
 21
0.0
 31
0.0
  0
ATTDEF
  5
193
102
{ACAD_XDICTIONARY
360
B9C
102
}
330
16F
100
AcDbEntity
  8
AM_5
 62
     7
100
AcDbText
 10
27.71846645364636
 20
13.12519300687362
 30
0.0
 40
3.499999940395355
  1
-1
 41
0.9
  7
Textstil122
100
AcDbAttributeDefinition
  3
Innenkante obere Grenze
  2
Innenkante_obere_Grenze_001
 70
     0
280
     0
  0
ATTDEF
  5
196
102
{ACAD_XDICTIONARY
360
B9F
102
}
330
16F
100
AcDbEntity
  8
AM_5
 62
     7
100
AcDbText
 10
27.71846645364636
 20
8.124504030507404
 30
0.0
 40
3.499999940395355
  1
-0.25
 41
0.9
  7
Textstil122
100
AcDbAttributeDefinition
  3
Innenkante untere Grenze
  2
Innenkante_untere_Grenze_001
 70
     0
280
     0
  0
ATTDEF
  5
197
102
{ACAD_XDICTIONARY
360
BA2
102
}
330
16F
100
AcDbEntity
  8
AM_5
 62
     7
100
AcDbText
 10
6.248839297429796
 20
13.12519300687362
 30
0.0
 40
3.499999940395355
  1
+0.3
 41
0.9
  7
Textstil122
100
AcDbAttributeDefinition
  3
Aussenkante obere Grenze
  2
Aussenkante_obere_Grenze_001
 70
     0
280
     0
  0
ATTDEF
  5
198
102
{ACAD_XDICTIONARY
360
BA5
102
}
330
16F
100
AcDbEntity
  8
AM_5
 62
     7
100
AcDbText
 10
6.248839297429796
 20
8.125193006873624
 30
0.0
 40
3.499999940395355
  1
+0.1
 41
0.9
  7
Textstil122
100
AcDbAttributeDefinition
  3
Aussenkante untere Grenze
  2
Aussenkante_untere_Grenze_001
 70
     0
280
     0
  0
ENDBLK
  5
171
330
16F
100
AcDbEntity
  8
0
100
AcDbBlockEnd
  0
BLOCK
  5
281
330
280
100
AcDbEntity
  8
0
100
AcDbBlockBegin
  2
*D17
 70
     1
 10
0.0
 20
0.0
 30
0.0
  3
*D17
  1

  0
LINE
  5
358
330
280
100
AcDbEntity
  8
Bemaßungen(DIN)
  6
Continuous
 62
   250
420
  4144959
440
 16777216
370
    25
100
AcDbLine
 10
121.6754304717532
 20
440.8210500901089
 30
0.0
 11
64.97475768548084
 21
440.8210500901089
 31
0.0
  0
LINE
  5
359
330
280
100
AcDbEntity
  8
Bemaßungen(DIN)
  6
Continuous
 62
   250
420
  4144959
440
 16777216
370
    25
100
AcDbLine
 10
138.9254304717532
 20
368.8559602199654
 30
0.0
 11
64.97475768548082
 21
368.8559602199654
 31
0.0
  0
LINE
  5
35A
330
280
100
AcDbEntity
  8
Bemaßungen(DIN)
  6
Continuous
 62
   250
420
  4144959
440
 16777216
370
    25
100
AcDbLine
 10
71.32475768548082
 20
435.8210500901089
 30
0.0
 11
71.32475768548082
 21
373.8559602199654
 31
0.0
  0
SOLID
  5
35B
330
280
100
AcDbEntity
  8
Bemaßungen(DIN)
  6
Continuous
 62
   250
420
  4144959
440
 16777216
100
AcDbTrace
 10
70.49142435214752
 20
435.8210500901089
 30
0.0
 11
72.15809101881415
 21
435.8210500901089
 31
0.0
 12
71.32475768548082
 22
440.8210500901089
 32
0.0
 13
71.32475768548082
 23
440.8210500901089
 33
0.0
  0
SOLID
  5
35C
330
280
100
AcDbEntity
  8
Bemaßungen(DIN)
  6
Continuous
 62
   250
420
  4144959
440
 16777216
100
AcDbTrace
 10
70.49142435214749
 20
373.8559602199654
 30
0.0
 11
72.15809101881415
 21
373.8559602199654
 31
0.0
 12
71.32475768548082
 22
368.8559602199654
 32
0.0
 13
71.32475768548082
 23
368.8559602199654
 33
0.0
  0
MTEXT
  5
35D
330
280
100
AcDbEntity
  8
Bemaßungen(DIN)
  6
Continuous
 62
   250
420
  4144959
440
 16777216
370
    25
100
AcDbMText
 10
62.69610825848406
 20
399.8693236801172
 30
0.0
 40
7.0
 41
0.0
 46
0.0
 71
     1
 72
     1
  1
\A1;72
  7
STANDARD-DIN~0
 11
0.0000000000000001
 21
1.0
 31
0.0
 73
     1
 44
1.0
  0
POINT
  5
35E
330
280
100
AcDbEntity
  8
Defpoints
  6
Continuous
 62
     0
440
 16777216
100
AcDbPoint
 10
121.6754304717532
 20
440.8210500901089
 30
0.0
  0
POINT
  5
35F
330
280
100
AcDbEntity
  8
Defpoints
  6
Continuous
 62
     0
440
 16777216
100
AcDbPoint
 10
138.9254304717532
 20
368.8559602199654
 30
0.0
  0
POINT
  5
360
330
280
100
AcDbEntity
  8
Defpoints
  6
Continuous
 62
     0
440
 16777216
100
AcDbPoint
 10
71.32475768548082
 20
368.8559602199654
 30
0.0
  0
ENDBLK
  5
282
330
280
100
AcDbEntity
  8
0
100
AcDbBlockEnd
  0
BLOCK
  5
363
330
362
100
AcDbEntity
  8
0
100
AcDbBlockBegin
  2
*D18
 70
     1
 10
0.0
 20
0.0
 30
0.0
  3
*D18
  1

  0
LINE
  5
43A
330
362
100
AcDbEntity
  8
Bemaßungen(DIN)
  6
Continuous
 62
   250
420
  4144959
440
 16777216
370
    25
100
AcDbLine
 10
125.7226740432329
 20
429.8210500901087
 30
0.0
 11
88.97475768548082
 21
429.8210500901087
 31
0.0
  0
LINE
  5
43B
330
362
100
AcDbEntity
  8
Bemaßungen(DIN)
  6
Continuous
 62
   250
420
  4144959
440
 16777216
370
    25
100
AcDbLine
 10
125.6754304717532
 20
379.821050090109
 30
0.0
 11
88.97475768548082
 21
379.821050090109
 31
0.0
  0
LINE
  5
43C
330
362
100
AcDbEntity
  8
Bemaßungen(DIN)
  6
Continuous
 62
   250
420
  4144959
440
 16777216
370
    25
100
AcDbLine
 10
95.32475768548085
 20
424.8210500901087
 30
0.0
 11
95.3247576854808
 21
384.821050090109
 31
0.0
  0
SOLID
  5
43D
330
362
100
AcDbEntity
  8
Bemaßungen(DIN)
  6
Continuous
 62
   250
420
  4144959
440
 16777216
100
AcDbTrace
 10
94.49142435214751
 20
424.8210500901087
 30
0.0
 11
96.15809101881417
 21
424.8210500901087
 31
0.0
 12
95.32475768548085
 22
429.8210500901087
 32
0.0
 13
95.32475768548085
 23
429.8210500901087
 33
0.0
  0
SOLID
  5
43E
330
362
100
AcDbEntity
  8
Bemaßungen(DIN)
  6
Continuous
 62
   250
420
  4144959
440
 16777216
100
AcDbTrace
 10
94.49142435214749
 20
384.821050090109
 30
0.0
 11
96.15809101881417
 21
384.821050090109
 31
0.0
 12
95.3247576854808
 22
379.821050090109
 32
0.0
 13
95.3247576854808
 23
379.821050090109
 33
0.0
  0
MTEXT
  5
43F
330
362
100
AcDbEntity
  8
Bemaßungen(DIN)
  6
Continuous
 62
   250
420
  4144959
440
 16777216
370
    25
100
AcDbMText
 10
86.57673581577013
 20
399.7993447403949
 30
0.0
 40
7.0
 41
0.0
 46
0.0
 71
     1
 72
     1
  1
\A1;50
  7
STANDARD-DIN~0
 11
0.0000000000000001
 21
1.0
 31
0.0
 73
     1
 44
1.0
  0
POINT
  5
440
330
362
100
AcDbEntity
  8
Defpoints
  6
Continuous
 62
     0
440
 16777216
100
AcDbPoint
 10
125.7226740432329
 20
429.8210500901087
 30
0.0
  0
POINT
  5
441
330
362
100
AcDbEntity
  8
Defpoints
  6
Continuous
 62
     0
440
 16777216
100
AcDbPoint
 10
125.6754304717532
 20
379.821050090109
 30
0.0
  0
POINT
  5
442
330
362
100
AcDbEntity
  8
Defpoints
  6
Continuous
 62
     0
440
 16777216
100
AcDbPoint
 10
95.3247576854808
 20
379.821050090109
 30
0.0
  0
ENDBLK
  5
364
330
362
100
AcDbEntity
  8
0
100
AcDbBlockEnd
  0
BLOCK
  5
445
330
444
100
AcDbEntity
  8
0
100
AcDbBlockBegin
  2
*D19
 70
     1
 10
0.0
 20
0.0
 30
0.0
  3
*D19
  1

  0
LINE
  5
51C
330
444
100
AcDbEntity
  8
Bemaßungen(DIN)
  6
Continuous
 62
   250
420
  4144959
440
 16777216
370
    25
100
AcDbLine
 10
119.1754304717532
 20
438.3210500901087
 30
0.0
 11
119.1754304717532
 21
471.1717228763813
 31
0.0
  0
LINE
  5
51D
330
444
100
AcDbEntity
  8
Bemaßungen(DIN)
  6
Continuous
 62
   250
420
  4144959
440
 16777216
370
    25
100
AcDbLine
 10
151.6754304717533
 20
438.3210500901087
 30
0.0
 11
151.6754304717533
 21
471.1717228763813
 31
0.0
  0
LINE
  5
51E
330
444
100
AcDbEntity
  8
Bemaßungen(DIN)
  6
Continuous
 62
   250
420
  4144959
440
 16777216
370
    25
100
AcDbLine
 10
124.1754304717532
 20
464.8217228763813
 30
0.0
 11
146.6754304717533
 21
464.8217228763813
 31
0.0
  0
SOLID
  5
51F
330
444
100
AcDbEntity
  8
Bemaßungen(DIN)
  6
Continuous
 62
   250
420
  4144959
440
 16777216
100
AcDbTrace
 10
124.1754304717532
 20
465.6550562097146
 30
0.0
 11
124.1754304717532
 21
463.9883895430481
 31
0.0
 12
119.1754304717532
 22
464.8217228763813
 32
0.0
 13
119.1754304717532
 23
464.8217228763813
 33
0.0
  0
SOLID
  5
520
330
444
100
AcDbEntity
  8
Bemaßungen(DIN)
  6
Continuous
 62
   250
420
  4144959
440
 16777216
100
AcDbTrace
 10
146.6754304717533
 20
465.6550562097146
 30
0.0
 11
146.6754304717533
 21
463.9883895430481
 31
0.0
 12
151.6754304717533
 22
464.8217228763813
 32
0.0
 13
151.6754304717533
 23
464.8217228763813
 33
0.0
  0
MTEXT
  5
521
330
444
100
AcDbEntity
  8
Bemaßungen(DIN)
  6
Continuous
 62
   250
420
  4144959
440
 16777216
370
    25
100
AcDbMText
 10
126.2901507461169
 20
473.5745196438005
 30
0.0
 40
7.0
 41
0.0
 46
0.0
 71
     1
 72
     1
  1
\A1;32.5
  7
STANDARD-DIN~0
 73
     1
 44
1.0
  0
POINT
  5
522
330
444
100
AcDbEntity
  8
Defpoints
  6
Continuous
 62
     0
440
 16777216
100
AcDbPoint
 10
119.1754304717532
 20
438.3210500901087
 30
0.0
  0
POINT
  5
523
330
444
100
AcDbEntity
  8
Defpoints
  6
Continuous
 62
     0
440
 16777216
100
AcDbPoint
 10
151.6754304717533
 20
438.3210500901087
 30
0.0
  0
POINT
  5
524
330
444
100
AcDbEntity
  8
Defpoints
  6
Continuous
 62
     0
440
 16777216
100
AcDbPoint
 10
151.6754304717533
 20
464.8217228763813
 30
0.0
  0
ENDBLK
  5
446
330
444
100
AcDbEntity
  8
0
100
AcDbBlockEnd
  0
BLOCK
  5
527
330
526
100
AcDbEntity
  8
0
100
AcDbBlockBegin
  2
*D20
 70
     1
 10
0.0
 20
0.0
 30
0.0
  3
*D20
  1

  0
LINE
  5
607
330
526
100
AcDbEntity
  8
Bemaßungen(DIN)
  6
Continuous
 62
   250
420
  4144959
440
 16777216
370
    25
100
AcDbLine
 10
147.4254304717122
 20
194.1539480119218
 30
0.0
 11
64.90009407857602
 21
194.1539480119218
 31
0.0
  0
LINE
  5
608
330
526
100
AcDbEntity
  8
Bemaßungen(DIN)
  6
Continuous
 62
   250
420
  4144959
440
 16777216
370
    25
100
AcDbLine
 10
121.6754304717122
 20
252.8539480119317
 30
0.0
 11
64.90009407857602
 21
252.8539480119317
 31
0.0
  0
LINE
  5
609
330
526
100
AcDbEntity
  8
Bemaßungen(DIN)
  6
Continuous
 62
   250
420
  4144959
440
 16777216
370
    25
100
AcDbLine
 10
71.25009407857601
 20
199.1539480119218
 30
0.0
 11
71.25009407857603
 21
247.8539480119317
 31
0.0
  0
SOLID
  5
60A
330
526
100
AcDbEntity
  8
Bemaßungen(DIN)
  6
Continuous
 62
   250
420
  4144959
440
 16777216
100
AcDbTrace
 10
70.4167607452427
 20
199.1539480119218
 30
0.0
 11
72.08342741190934
 21
199.1539480119218
 31
0.0
 12
71.25009407857601
 22
194.1539480119218
 32
0.0
 13
71.25009407857601
 23
194.1539480119218
 33
0.0
  0
SOLID
  5
60B
330
526
100
AcDbEntity
  8
Bemaßungen(DIN)
  6
Continuous
 62
   250
420
  4144959
440
 16777216
100
AcDbTrace
 10
70.4167607452427
 20
247.8539480119317
 30
0.0
 11
72.08342741190936
 21
247.8539480119317
 31
0.0
 12
71.25009407857603
 22
252.8539480119317
 32
0.0
 13
71.25009407857603
 23
252.8539480119317
 33
0.0
  0
MTEXT
  5
60C
330
526
100
AcDbEntity
  8
Bemaßungen(DIN)
  6
Continuous
 62
   250
420
  4144959
440
 16777216
370
    25
100
AcDbMText
 10
62.50207220886535
 20
218.4831430713785
 30
0.0
 40
7.0
 41
0.0
 46
0.0
 71
     1
 72
     1
  1
\A1;60
  7
STANDARD-DIN~0
 11
0.0000000000000001
 21
1.0
 31
0.0
 73
     1
 44
1.0
  0
POINT
  5
60D
330
526
100
AcDbEntity
  8
Defpoints
  6
Continuous
 62
     0
440
 16777216
100
AcDbPoint
 10
147.4254304717122
 20
194.1539480119218
 30
0.0
  0
POINT
  5
60E
330
526
100
AcDbEntity
  8
Defpoints
  6
Continuous
 62
     0
440
 16777216
100
AcDbPoint
 10
121.6754304717122
 20
252.8539480119317
 30
0.0
  0
POINT
  5
60F
330
526
100
AcDbEntity
  8
Defpoints
  6
Continuous
 62
     0
440
 16777216
100
AcDbPoint
 10
71.25009407857603
 20
252.8539480119317
 30
0.0
  0
ENDBLK
  5
528
330
526
100
AcDbEntity
  8
0
100
AcDbBlockEnd
  0
BLOCK
  5
612
330
611
100
AcDbEntity
  8
0
100
AcDbBlockBegin
  2
*D21
 70
     1
 10
0.0
 20
0.0
 30
0.0
  3
*D21
  1

  0
LINE
  5
6EF
330
611
100
AcDbEntity
  8
Bemaßungen(DIN)
  6
Continuous
 62
   250
420
  4144959
440
 16777216
370
    25
100
AcDbLine
 10
121.6754304717122
 20
266.8539480119325
 30
0.0
 11
64.90009407857602
 21
266.8539480119325
 31
0.0
  0
LINE
  5
6F0
330
611
100
AcDbEntity
  8
Bemaßungen(DIN)
  6
Continuous
 62
   250
420
  4144959
440
 16777216
370
    25
100
AcDbLine
 10
121.6754304717122
 20
252.8539480119317
 30
0.0
 11
64.90009407857602
 21
252.8539480119317
 31
0.0
  0
LINE
  5
6F1
330
611
100
AcDbEntity
  8
Bemaßungen(DIN)
  6
Continuous
 62
   250
420
  4144959
440
 16777216
370
    25
100
AcDbLine
 10
71.25009407857603
 20
261.8539480119324
 30
0.0
 11
71.25009407857603
 21
257.8539480119317
 31
0.0
  0
SOLID
  5
6F2
330
611
100
AcDbEntity
  8
Bemaßungen(DIN)
  6
Continuous
 62
   250
420
  4144959
440
 16777216
100
AcDbTrace
 10
70.4167607452427
 20
271.8539480119325
 30
0.0
 11
72.08342741190936
 21
271.8539480119325
 31
0.0
 12
71.25009407857603
 22
266.8539480119325
 32
0.0
 13
71.25009407857603
 23
266.8539480119325
 33
0.0
  0
LINE
  5
6F3
330
611
100
AcDbEntity
  8
Bemaßungen(DIN)
  6
Continuous
 62
   250
420
  4144959
440
 16777216
370
    25
100
AcDbLine
 10
71.25009407857603
 20
271.8539480119325
 30
0.0
 11
71.25009407857603
 21
276.8539480119325
 31
0.0
  0
LINE
  5
6F4
330
611
100
AcDbEntity
  8
Bemaßungen(DIN)
  6
Continuous
 62
   250
420
  4144959
440
 16777216
370
    25
100
AcDbLine
 10
71.25009407857603
 20
266.8539480119325
 30
0.0
 11
71.25009407857603
 21
261.8539480119324
 31
0.0
  0
SOLID
  5
6F5
330
611
100
AcDbEntity
  8
Bemaßungen(DIN)
  6
Continuous
 62
   250
420
  4144959
440
 16777216
100
AcDbTrace
 10
70.4167607452427
 20
247.8539480119317
 30
0.0
 11
72.08342741190936
 21
247.8539480119317
 31
0.0
 12
71.25009407857603
 22
252.8539480119317
 32
0.0
 13
71.25009407857603
 23
252.8539480119317
 33
0.0
  0
LINE
  5
6F6
330
611
100
AcDbEntity
  8
Bemaßungen(DIN)
  6
Continuous
 62
   250
420
  4144959
440
 16777216
370
    25
100
AcDbLine
 10
71.25009407857603
 20
247.8539480119317
 30
0.0
 11
71.25009407857603
 21
242.8539480119317
 31
0.0
  0
LINE
  5
6F7
330
611
100
AcDbEntity
  8
Bemaßungen(DIN)
  6
Continuous
 62
   250
420
  4144959
440
 16777216
370
    25
100
AcDbLine
 10
71.25009407857603
 20
252.8539480119317
 30
0.0
 11
71.25009407857603
 21
257.8539480119317
 31
0.0
  0
MTEXT
  5
6F8
330
611
100
AcDbEntity
  8
Bemaßungen(DIN)
  6
Continuous
 62
   250
420
  4144959
440
 16777216
370
    25
100
AcDbMText
 10
62.62144465157928
 20
255.1840980529628
 30
0.0
 40
7.0
 41
0.0
 46
0.0
 71
     1
 72
     1
  1
\A1;14
  7
STANDARD-DIN~0
 11
0.0000000000000001
 21
1.0
 31
0.0
 73
     1
 44
1.0
  0
POINT
  5
6F9
330
611
100
AcDbEntity
  8
Defpoints
  6
Continuous
 62
     0
440
 16777216
100
AcDbPoint
 10
121.6754304717122
 20
266.8539480119325
 30
0.0
  0
POINT
  5
6FA
330
611
100
AcDbEntity
  8
Defpoints
  6
Continuous
 62
     0
440
 16777216
100
AcDbPoint
 10
121.6754304717122
 20
252.8539480119317
 30
0.0
  0
POINT
  5
6FB
330
611
100
AcDbEntity
  8
Defpoints
  6
Continuous
 62
     0
440
 16777216
100
AcDbPoint
 10
71.25009407857603
 20
252.8539480119317
 30
0.0
  0
ENDBLK
  5
613
330
611
100
AcDbEntity
  8
0
100
AcDbBlockEnd
  0
BLOCK
  5
6FE
330
6FD
100
AcDbEntity
  8
0
100
AcDbBlockBegin
  2
*D22
 70
     1
 10
0.0
 20
0.0
 30
0.0
  3
*D22
  1

  0
LINE
  5
7D5
330
6FD
100
AcDbEntity
  8
Bemaßungen(DIN)
  6
Continuous
 62
   250
420
  4144959
440
 16777216
370
    25
100
AcDbLine
 10
125.4254304717122
 20
224.1539480119218
 30
0.0
 11
125.4254304717122
 21
148.6843927735405
 31
0.0
  0
LINE
  5
7D6
330
6FD
100
AcDbEntity
  8
Bemaßungen(DIN)
  6
Continuous
 62
   250
420
  4144959
440
 16777216
370
    25
100
AcDbLine
 10
287.4254304717123
 20
194.1539480119217
 30
0.0
 11
287.4254304717123
 21
148.6843927735405
 31
0.0
  0
LINE
  5
7D7
330
6FD
100
AcDbEntity
  8
Bemaßungen(DIN)
  6
Continuous
 62
   250
420
  4144959
440
 16777216
370
    25
100
AcDbLine
 10
130.4254304717122
 20
155.0343927735404
 30
0.0
 11
282.4254304717123
 21
155.0343927735404
 31
0.0
  0
SOLID
  5
7D8
330
6FD
100
AcDbEntity
  8
Bemaßungen(DIN)
  6
Continuous
 62
   250
420
  4144959
440
 16777216
100
AcDbTrace
 10
130.4254304717122
 20
155.8677261068738
 30
0.0
 11
130.4254304717122
 21
154.2010594402071
 31
0.0
 12
125.4254304717122
 22
155.0343927735404
 32
0.0
 13
125.4254304717122
 23
155.0343927735404
 33
0.0
  0
SOLID
  5
7D9
330
6FD
100
AcDbEntity
  8
Bemaßungen(DIN)
  6
Continuous
 62
   250
420
  4144959
440
 16777216
100
AcDbTrace
 10
282.4254304717123
 20
155.8677261068738
 30
0.0
 11
282.4254304717123
 21
154.2010594402071
 31
0.0
 12
287.4254304717123
 22
155.0343927735404
 32
0.0
 13
287.4254304717123
 23
155.0343927735404
 33
0.0
  0
MTEXT
  5
7DA
330
6FD
100
AcDbEntity
  8
Bemaßungen(DIN)
  6
Continuous
 62
   250
420
  4144959
440
 16777216
370
    25
100
AcDbMText
 10
199.0577633074079
 20
163.7824146432511
 30
0.0
 40
7.0
 41
0.0
 46
0.0
 71
     1
 72
     1
  1
\A1;162
  7
STANDARD-DIN~0
 73
     1
 44
1.0
  0
POINT
  5
7DB
330
6FD
100
AcDbEntity
  8
Defpoints
  6
Continuous
 62
     0
440
 16777216
100
AcDbPoint
 10
125.4254304717122
 20
224.1539480119218
 30
0.0
  0
POINT
  5
7DC
330
6FD
100
AcDbEntity
  8
Defpoints
  6
Continuous
 62
     0
440
 16777216
100
AcDbPoint
 10
287.4254304717123
 20
194.1539480119217
 30
0.0
  0
POINT
  5
7DD
330
6FD
100
AcDbEntity
  8
Defpoints
  6
Continuous
 62
     0
440
 16777216
100
AcDbPoint
 10
287.4254304717123
 20
155.0343927735404
 30
0.0
  0
ENDBLK
  5
6FF
330
6FD
100
AcDbEntity
  8
0
100
AcDbBlockEnd
  0
BLOCK
  5
7E0
330
7DF
100
AcDbEntity
  8
0
100
AcDbBlockBegin
  2
*D23
 70
     1
 10
0.0
 20
0.0
 30
0.0
  3
*D23
  1

  0
LINE
  5
8C1
330
7DF
100
AcDbEntity
  8
Bemaßungen(DIN)
  6
Continuous
 62
   250
420
  4144959
440
 16777216
370
    25
100
AcDbLine
 10
267.3254304717123
 20
234.1539480119218
 30
0.0
 11
240.9754304717123
 21
234.1539480119218
 31
0.0
  0
LINE
  5
8C2
330
7DF
100
AcDbEntity
  8
Bemaßungen(DIN)
  6
Continuous
 62
   250
420
  4144959
440
 16777216
370
    25
100
AcDbLine
 10
149.1754304717123
 20
252.8539480119317
 30
0.0
 11
253.6754304717123
 21
252.8539480119317
 31
0.0
  0
LINE
  5
8C3
330
7DF
100
AcDbEntity
  8
Bemaßungen(DIN)
  6
Continuous
 62
   250
420
  4144959
440
 16777216
370
    25
100
AcDbLine
 10
247.3254304717123
 20
239.1539480119218
 30
0.0
 11
247.3254304717123
 21
247.8539480119317
 31
0.0
  0
SOLID
  5
8C4
330
7DF
100
AcDbEntity
  8
Bemaßungen(DIN)
  6
Continuous
 62
   250
420
  4144959
440
 16777216
100
AcDbTrace
 10
246.492097138379
 20
239.1539480119218
 30
0.0
 11
248.1587638050456
 21
239.1539480119218
 31
0.0
 12
247.3254304717123
 22
234.1539480119218
 32
0.0
 13
247.3254304717123
 23
234.1539480119218
 33
0.0
  0
SOLID
  5
8C5
330
7DF
100
AcDbEntity
  8
Bemaßungen(DIN)
  6
Continuous
 62
   250
420
  4144959
440
 16777216
100
AcDbTrace
 10
246.492097138379
 20
247.8539480119317
 30
0.0
 11
248.1587638050456
 21
247.8539480119317
 31
0.0
 12
247.3254304717123
 22
252.8539480119317
 32
0.0
 13
247.3254304717123
 23
252.8539480119317
 33
0.0
  0
MTEXT
  5
8C6
330
7DF
100
AcDbEntity
  8
Bemaßungen(DIN)
  6
Continuous
 62
   250
420
  4144959
440
 16777216
370
    25
100
AcDbMText
 10
238.5774086020016
 20
238.4425564408557
 30
0.0
 40
7.0
 41
0.0
 46
0.0
 71
     1
 72
     1
  1
\A1;20
  7
STANDARD-DIN~0
 11
0.0000000000000001
 21
1.0
 31
0.0
 73
     1
 44
1.0
  0
POINT
  5
8C7
330
7DF
100
AcDbEntity
  8
Defpoints
  6
Continuous
 62
     0
440
 16777216
100
AcDbPoint
 10
267.3254304717123
 20
234.1539480119218
 30
0.0
  0
POINT
  5
8C8
330
7DF
100
AcDbEntity
  8
Defpoints
  6
Continuous
 62
     0
440
 16777216
100
AcDbPoint
 10
149.1754304717123
 20
252.8539480119317
 30
0.0
  0
POINT
  5
8C9
330
7DF
100
AcDbEntity
  8
Defpoints
  6
Continuous
 62
     0
440
 16777216
100
AcDbPoint
 10
247.3254304717123
 20
252.8539480119317
 30
0.0
  0
ENDBLK
  5
7E1
330
7DF
100
AcDbEntity
  8
0
100
AcDbBlockEnd
  0
BLOCK
  5
8CC
330
8CB
100
AcDbEntity
  8
0
100
AcDbBlockBegin
  2
*D24
 70
     1
 10
0.0
 20
0.0
 30
0.0
  3
*D24
  1

  0
LINE
  5
9B1
330
8CB
100
AcDbEntity
  8
Bemaßungen(DIN)
  6
Continuous
 62
   250
420
  4144959
440
 16777216
370
    25
100
AcDbLine
 10
277.4254304717532
 20
414.8210500901089
 30
0.0
 11
317.7754304717534
 21
414.8210500901089
 31
0.0
  0
LINE
  5
9B2
330
8CB
100
AcDbEntity
  8
Bemaßungen(DIN)
  6
Continuous
 62
   250
420
  4144959
440
 16777216
370
    25
100
AcDbLine
 10
277.4254304717531
 20
394.8210500901089
 30
0.0
 11
317.7754304717534
 21
394.8210500901089
 31
0.0
  0
LINE
  5
9B3
330
8CB
100
AcDbEntity
  8
Bemaßungen(DIN)
  6
Continuous
 62
   250
420
  4144959
440
 16777216
370
    25
100
AcDbLine
 10
311.4254304717533
 20
399.8210500901089
 30
0.0
 11
311.4254304717533
 21
409.8210500901088
 31
0.0
  0
LINE
  5
9B4
330
8CB
100
AcDbEntity
  8
Bemaßungen(DIN)
  6
Continuous
 62
   250
420
  4144959
440
 16777216
370
    25
100
AcDbLine
 10
311.4254304717533
 20
414.8210500901089
 30
0.0
 11
311.4254304717533
 21
440.9914307127697
 31
0.0
  0
SOLID
  5
9B5
330
8CB
100
AcDbEntity
  8
Bemaßungen(DIN)
  6
Continuous
 62
   250
420
  4144959
440
 16777216
100
AcDbTrace
 10
310.59209713842
 20
399.8210500901089
 30
0.0
 11
312.2587638050867
 21
399.8210500901089
 31
0.0
 12
311.4254304717533
 22
394.8210500901089
 32
0.0
 13
311.4254304717533
 23
394.8210500901089
 33
0.0
  0
SOLID
  5
9B6
330
8CB
100
AcDbEntity
  8
Bemaßungen(DIN)
  6
Continuous
 62
   250
420
  4144959
440
 16777216
100
AcDbTrace
 10
310.59209713842
 20
409.8210500901088
 30
0.0
 11
312.2587638050867
 21
409.8210500901088
 31
0.0
 12
311.4254304717533
 22
414.8210500901089
 32
0.0
 13
311.4254304717533
 23
414.8210500901089
 33
0.0
  0
MTEXT
  5
9B7
330
8CB
100
AcDbEntity
  8
Bemaßungen(DIN)
  6
Continuous
 62
   250
420
  4144959
440
 16777216
370
    25
100
AcDbMText
 10
299.2932362593249
 20
421.4210500901088
 30
0.0
 40
7.0
 41
0.0
 46
0.0
 71
     1
 72
     1
  1
\A1;{\fAIGDT|b0|i0;\H7.0000;n\fArial|b0|i0;\H7.0000;}20
  7
STANDARD-DIN~0
 11
0.0000000000000001
 21
1.0
 31
0.0
 73
     1
 44
1.0
  0
POINT
  5
9B8
330
8CB
100
AcDbEntity
  8
Defpoints
  6
Continuous
 62
     0
440
 16777216
100
AcDbPoint
 10
277.4254304717532
 20
414.8210500901089
 30
0.0
  0
POINT
  5
9B9
330
8CB
100
AcDbEntity
  8
Defpoints
  6
Continuous
 62
     0
440
 16777216
100
AcDbPoint
 10
277.4254304717531
 20
394.8210500901089
 30
0.0
  0
POINT
  5
9BA
330
8CB
100
AcDbEntity
  8
Defpoints
  6
Continuous
 62
     0
440
 16777216
100
AcDbPoint
 10
311.4254304717533
 20
394.8210500901089
 30
0.0
  0
ENDBLK
  5
8CD
330
8CB
100
AcDbEntity
  8
0
100
AcDbBlockEnd
  0
BLOCK
  5
9BE
330
9BD
100
AcDbEntity
  8
0
100
AcDbBlockBegin
  2
*D25
 70
     1
 10
0.0
 20
0.0
 30
0.0
  3
*D25
  1

  0
LINE
  5
A9E
330
9BD
100
AcDbEntity
  8
Bemaßungen(DIN)
  6
Continuous
 62
   250
420
  4144959
440
 16777216
370
    25
100
AcDbLine
 10
125.4254304717122
 20
224.1539480119233
 30
0.0
 11
88.90009407857602
 21
224.1539480119233
 31
0.0
  0
LINE
  5
A9F
330
9BD
100
AcDbEntity
  8
Bemaßungen(DIN)
  6
Continuous
 62
   250
420
  4144959
440
 16777216
370
    25
100
AcDbLine
 10
121.6754304717122
 20
252.8539480119317
 30
0.0
 11
88.90009407857602
 21
252.8539480119317
 31
0.0
  0
LINE
  5
AA0
330
9BD
100
AcDbEntity
  8
Bemaßungen(DIN)
  6
Continuous
 62
   250
420
  4144959
440
 16777216
370
    25
100
AcDbLine
 10
95.250094078576
 20
229.1539480119233
 30
0.0
 11
95.250094078576
 21
247.8539480119317
 31
0.0
  0
SOLID
  5
AA1
330
9BD
100
AcDbEntity
  8
Bemaßungen(DIN)
  6
Continuous
 62
   250
420
  4144959
440
 16777216
100
AcDbTrace
 10
94.41676074524272
 20
229.1539480119233
 30
0.0
 11
96.08342741190936
 21
229.1539480119233
 31
0.0
 12
95.250094078576
 22
224.1539480119233
 32
0.0
 13
95.250094078576
 23
224.1539480119233
 33
0.0
  0
SOLID
  5
AA2
330
9BD
100
AcDbEntity
  8
Bemaßungen(DIN)
  6
Continuous
 62
   250
420
  4144959
440
 16777216
100
AcDbTrace
 10
94.41676074524272
 20
247.8539480119317
 30
0.0
 11
96.08342741190936
 21
247.8539480119317
 31
0.0
 12
95.250094078576
 22
252.8539480119317
 32
0.0
 13
95.250094078576
 23
252.8539480119317
 33
0.0
  0
MTEXT
  5
AA3
330
9BD
100
AcDbEntity
  8
Bemaßungen(DIN)
  6
Continuous
 62
   250
420
  4144959
440
 16777216
370
    25
100
AcDbMText
 10
86.49729731115678
 20
233.4846301110677
 30
0.0
 40
7.0
 41
0.0
 46
0.0
 71
     1
 72
     1
  1
\A1;30
  7
STANDARD-DIN~0
 11
0.0000000000000001
 21
1.0
 31
0.0
 73
     1
 44
1.0
  0
POINT
  5
AA4
330
9BD
100
AcDbEntity
  8
Defpoints
  6
Continuous
 62
     0
440
 16777216
100
AcDbPoint
 10
125.4254304717122
 20
224.1539480119233
 30
0.0
  0
POINT
  5
AA5
330
9BD
100
AcDbEntity
  8
Defpoints
  6
Continuous
 62
     0
440
 16777216
100
AcDbPoint
 10
121.6754304717122
 20
252.8539480119317
 30
0.0
  0
POINT
  5
AA6
330
9BD
100
AcDbEntity
  8
Defpoints
  6
Continuous
 62
     0
440
 16777216
100
AcDbPoint
 10
95.250094078576
 20
252.8539480119317
 30
0.0
  0
ENDBLK
  5
9BF
330
9BD
100
AcDbEntity
  8
0
100
AcDbBlockEnd
  0
BLOCK
  5
AA9
330
AA8
100
AcDbEntity
  8
0
100
AcDbBlockBegin
  2
*D26
 70
     1
 10
0.0
 20
0.0
 30
0.0
  3
*D26
  1

  0
LINE
  5
B80
330
AA8
100
AcDbEntity
  8
Bemaßungen(DIN)
  6
Continuous
 62
   250
420
  4144959
440
 16777216
370
    25
100
AcDbLine
 10
287.4254304717123
 20
194.1539480119217
 30
0.0
 11
325.8754304717123
 21
194.1539480119217
 31
0.0
  0
LINE
  5
B81
330
AA8
100
AcDbEntity
  8
Bemaßungen(DIN)
  6
Continuous
 62
   250
420
  4144959
440
 16777216
370
    25
100
AcDbLine
 10
287.5254304717123
 20
234.1539480119218
 30
0.0
 11
325.8754304717123
 21
234.1539480119217
 31
0.0
  0
LINE
  5
B82
330
AA8
100
AcDbEntity
  8
Bemaßungen(DIN)
  6
Continuous
 62
   250
420
  4144959
440
 16777216
370
    25
100
AcDbLine
 10
319.5254304717123
 20
199.1539480119217
 30
0.0
 11
319.5254304717123
 21
229.1539480119217
 31
0.0
  0
SOLID
  5
B83
330
AA8
100
AcDbEntity
  8
Bemaßungen(DIN)
  6
Continuous
 62
   250
420
  4144959
440
 16777216
100
AcDbTrace
 10
318.692097138379
 20
199.1539480119217
 30
0.0
 11
320.3587638050456
 21
199.1539480119217
 31
0.0
 12
319.5254304717123
 22
194.1539480119217
 32
0.0
 13
319.5254304717123
 23
194.1539480119217
 33
0.0
  0
SOLID
  5
B84
330
AA8
100
AcDbEntity
  8
Bemaßungen(DIN)
  6
Continuous
 62
   250
420
  4144959
440
 16777216
100
AcDbTrace
 10
318.692097138379
 20
229.1539480119217
 30
0.0
 11
320.3587638050456
 21
229.1539480119217
 31
0.0
 12
319.5254304717123
 22
234.1539480119218
 32
0.0
 13
319.5254304717123
 23
234.1539480119218
 33
0.0
  0
MTEXT
  5
B85
330
AA8
100
AcDbEntity
  8
Bemaßungen(DIN)
  6
Continuous
 62
   250
420
  4144959
440
 16777216
370
    25
100
AcDbMText
 10
310.7774086020016
 20
209.0113831798053
 30
0.0
 40
7.0
 41
0.0
 46
0.0
 71
     1
 72
     1
  1
\A1;40
  7
STANDARD-DIN~0
 11
0.0000000000000001
 21
1.0
 31
0.0
 73
     1
 44
1.0
  0
POINT
  5
B86
330
AA8
100
AcDbEntity
  8
Defpoints
  6
Continuous
 62
     0
440
 16777216
100
AcDbPoint
 10
287.4254304717123
 20
194.1539480119217
 30
0.0
  0
POINT
  5
B87
330
AA8
100
AcDbEntity
  8
Defpoints
  6
Continuous
 62
     0
440
 16777216
100
AcDbPoint
 10
287.5254304717123
 20
234.1539480119218
 30
0.0
  0
POINT
  5
B88
330
AA8
100
AcDbEntity
  8
Defpoints
  6
Continuous
 62
     0
440
 16777216
100
AcDbPoint
 10
319.5254304717123
 20
234.1539480119218
 30
0.0
  0
ENDBLK
  5
AAA
330
AA8
100
AcDbEntity
  8
0
100
AcDbBlockEnd
  0
ENDSEC
  0
SECTION
  2
ENTITIES
  0
CIRCLE
  5
199
330
6C
100
AcDbEntity
  8
Verdeckte Kanten(DIN)
100
AcDbCircle
 10
135.4254304717532
 20
379.821050090109
 30
0.0
 40
3.649999999999991
  0
CIRCLE
  5
19A
330
6C
100
AcDbEntity
  8
Verdeckte Kanten(DIN)
100
AcDbCircle
 10
135.4254304717532
 20
429.8210500901087
 30
0.0
 40
3.649999999999991
  0
SPLINE
  5
19B
330
6C
100
AcDbEntity
  8
Verdeckte Kanten(DIN)
100
AcDbSpline
210
0.0
220
0.0
230
1.0
 70
     8
 71
     3
 72
    28
 73
    24
 74
     0
 42
0.0000000001
 43
0.0000000001
 40
-0.0000012116983804
 40
-0.0000012116983804
 40
-0.0000012116983804
 40
-0.0000012116983804
 40
0.0
 40
0.0
 40
0.0000012046688544
 40
0.0000012046688544
 40
0.0000036080647843
 40
0.0000036080647843
 40
0.0000084083573401
 40
0.0000084083573401
 40
0.0000180183886636
 40
0.0000180183886636
 40
0.0000373485416214
 40
0.0000373485416214
 40
0.0000766069530918
 40
0.0000766069530918
 40
0.0001579564043796
 40
0.0001579564043796
 40
0.0003340619219223
 40
0.0003340619219223
 40
0.0006995203427395
 40
0.0006995203427395
 40
0.0011970552950088
 40
0.0011970552950088
 40
0.0011970552950088
 40
0.0011970552950088
 10
150.236534696176
 20
414.8210500901443
 30
0.0
 10
150.2365346139245
 20
414.8210500962219
 30
0.0
 10
150.2365344848032
 20
414.8210502880255
 30
0.0
 10
150.2365342742108
 20
414.8210506812187
 30
0.0
 10
150.2365341669796
 20
414.8210509299088
 30
0.0
 10
150.236533851758
 20
414.8210517630189
 30
0.0
 10
150.2365336374299
 20
414.8210524669951
 30
0.0
 10
150.2365330072356
 20
414.8210548267456
 30
0.0
 10
150.2365325790974
 20
414.82105682123
 30
0.0
 10
150.236531319745
 20
414.8210635143074
 30
0.0
 10
150.2365304655536
 20
414.8210691745106
 30
0.0
 10
150.2365279510491
 20
414.8210882119678
 30
0.0
 10
150.2365262511793
 20
414.8211043296911
 30
0.0
 10
150.236521239288
 20
414.8211587930296
 30
0.0
 10
150.2365178749726
 20
414.8212050087273
 30
0.0
 10
150.236507922464
 20
414.8213627220489
 30
0.0
 10
150.2365013475176
 20
414.8214971790649
 30
0.0
 10
150.236481752226
 20
414.821966283836
 30
0.0
 10
150.2364693308253
 20
414.8223701533598
 30
0.0
 10
150.2364352781911
 20
414.8237170296146
 30
0.0
 10
150.2364133929782
 20
414.8249591467361
 30
0.0
 10
150.2363720318501
 20
414.8286967566225
 30
0.0
 10
150.2363571332206
 20
414.831406259849
 30
0.0
 10
150.2363571332206
 20
414.8346139968698
 30
0.0
  0
SPLINE
  5
19C
330
6C
100
AcDbEntity
  8
Verdeckte Kanten(DIN)
100
AcDbSpline
210
0.0
220
0.0
230
1.0
 70
     8
 71
     3
 72
    28
 73
    24
 74
     0
 42
0.0000000001
 43
0.0000000001
 40
0.0
 40
0.0
 40
0.0
 40
0.0
 40
0.0009623211026792
 40
0.0009623211026792
 40
0.0016691827005179
 40
0.0016691827005179
 40
0.0020098020960183
 40
0.0020098020960183
 40
0.0021671464056915
 40
0.0021671464056915
 40
0.0022430791580098
 40
0.0022430791580098
 40
0.0022804670940853
 40
0.0022804670940853
 40
0.0022990546224918
 40
0.0022990546224918
 40
0.0023083392250539
 40
0.0023083392250539
 40
0.0023129878222456
 40
0.0023129878222456
 40
0.0023153180112852
 40
0.0023153180112852
 40
0.0023176605141888
 40
0.0023176605141888
 40
0.0023176605141888
 40
0.0023176605141888
 10
150.2363571332206
 20
394.8074861833478
 30
0.0
 10
150.2363571332206
 20
394.8106939203567
 30
0.0
 10
150.2363720318499
 20
394.8134034235698
 30
0.0
 10
150.2364133929776
 20
394.8171410334422
 30
0.0
 10
150.2364352781905
 20
394.8183831505768
 30
0.0
 10
150.2364693308251
 20
394.8197300268527
 30
0.0
 10
150.2364817522259
 20
394.8201338963803
 30
0.0
 10
150.2365013475178
 20
394.8206030011559
 30
0.0
 10
150.2365079224641
 20
394.8207374581707
 30
0.0
 10
150.2365178749727
 20
394.8208951714926
 30
0.0
 10
150.2365212392881
 20
394.8209413871893
 30
0.0
 10
150.2365262511785
 20
394.820995850518
 30
0.0
 10
150.2365279510488
 20
394.8210119682487
 30
0.0
 10
150.2365304655549
 20
394.8210310057183
 30
0.0
 10
150.2365313197454
 20
394.8210366659126
 30
0.0
 10
150.2365325790959
 20
394.8210433589799
 30
0.0
 10
150.236533007235
 20
394.8210453534705
 30
0.0
 10
150.2365336374305
 20
394.8210477132255
 30
0.0
 10
150.236533851758
 20
394.8210484171994
 30
0.0
 10
150.2365341669858
 20
394.8210492503259
 30
0.0
 10
150.2365342742133
 20
394.821049499002
 30
0.0
 10
150.2365344847438
 20
394.8210498920786
 30
0.0
 10
150.2365346126736
 20
394.8210500817123
 30
0.0
 10
150.2365346959968
 20
394.8210500900748
 30
0.0
  0
ARC
  5
19D
330
6C
100
AcDbEntity
  8
Verdeckte Kanten(DIN)
100
AcDbCircle
 10
135.4254304717532
 20
404.8210500901088
 30
0.0
 40
10.39999999999998
100
AcDbArc
 50
285.9423686056284
 51
74.0576313943713
  0
ARC
  5
19E
330
6C
100
AcDbEntity
  8
Sichtbare Kanten(DIN)
100
AcDbCircle
 10
135.4254304717532
 20
404.8210500901088
 30
0.0
 40
10.39999999999998
100
AcDbArc
 50
74.05763139437091
 51
195.9423686056281
  0
ARC
  5
19F
330
6C
100
AcDbEntity
  8
Sichtbare Kanten(DIN)
100
AcDbCircle
 10
135.4254304717532
 20
404.8210500901088
 30
0.0
 40
10.60000000000002
100
AcDbArc
 50
70.62996175445928
 51
289.3700382455405
  0
ELLIPSE
  5
1A0
330
6C
100
AcDbEntity
  8
Sichtbare Kanten(DIN)
100
AcDbEllipse
 10
132.4254304717532
 20
368.8559602199654
 30
0.0
 11
-0.5000000000000011
 21
-0.0000000000000001
 31
0.0
210
0.0
220
0.0
230
1.0
 40
0.0174550649282182
 41
4.712388980384688
 42
6.283185307182387
  0
ELLIPSE
  5
1A1
330
6C
100
AcDbEntity
  8
Sichtbare Kanten(DIN)
100
AcDbEllipse
 10
138.4254304717532
 20
368.8559602199654
 30
0.0
 11
-0.5000000000000011
 21
-0.0000000000000001
 31
0.0
210
0.0
220
0.0
230
1.0
 40
0.0174550649282182
 41
3.141592653593503
 42
4.712388980384688
  0
SPLINE
  5
1A2
330
6C
100
AcDbEntity
  8
Sichtbare Kanten(DIN)
100
AcDbSpline
210
0.0
220
0.0
230
1.0
 70
     8
 71
     3
 72
    10
 73
     6
 74
     0
 42
0.0000000001
 43
0.0000000001
 40
0.0
 40
0.0
 40
0.0
 40
0.0
 40
0.034915029078072
 40
0.0674433076069179
 40
0.094627574724925
 40
0.094627574724925
 40
0.094627574724925
 40
0.094627574724925
 10
132.2478858316614
 20
381.1330540249205
 30
0.0
 10
132.3637567056868
 20
381.1386222890959
 30
0.0
 10
132.5875776563182
 20
381.1493781774208
 30
0.0
 10
132.9094295353757
 20
381.106276433155
 30
0.0
 10
133.0753881696065
 20
380.9922369685929
 30
0.0
 10
133.1509412011278
 20
380.9403202527157
 30
0.0
  0
SPLINE
  5
1A3
330
6C
100
AcDbEntity
  8
Sichtbare Kanten(DIN)
100
AcDbSpline
210
0.0
220
0.0
230
1.0
 70
     8
 71
     3
 72
    10
 73
     6
 74
     0
 42
0.0000000001
 43
0.0000000001
 40
0.0
 40
0.0
 40
0.0
 40
0.0
 40
0.0708600141301913
 40
0.1318509818166345
 40
0.1988928138571396
 40
0.1988928138571396
 40
0.1988928138571396
 40
0.1988928138571396
 10
130.8578532616741
 20
379.935873656036
 30
0.0
 10
130.926680666352
 20
380.1654983702468
 30
0.0
 10
131.0547495214611
 20
380.5927667583457
 30
0.0
 10
131.5903557534582
 20
381.0567032516107
 30
0.0
 10
132.0219106719747
 20
381.1068143459113
 30
0.0
 10
132.2478858316614
 20
381.1330540249205
 30
0.0
  0
SPLINE
  5
1A4
330
6C
100
AcDbEntity
  8
Sichtbare Kanten(DIN)
100
AcDbSpline
210
0.0
220
0.0
230
1.0
 70
     8
 71
     3
 72
    13
 73
     9
 74
     0
 42
0.0000000001
 43
0.0000000001
 40
0.0
 40
0.0
 40
0.0
 40
0.0
 40
0.0186749164535756
 40
0.0389339547339232
 40
0.0619956196745452
 40
0.0740314537115047
 40
0.0845940360920349
 40
0.0958450056458659
 40
0.0958450056458659
 40
0.0958450056458659
 40
0.0958450056458659
 10
131.0200043977419
 20
379.0194428755999
 30
0.0
 10
130.9843671608031
 20
379.0708534276218
 30
0.0
 10
130.9100697162461
 20
379.1780354924116
 30
0.0
 10
130.8479025097401
 20
379.3780598287136
 30
0.0
 10
130.827420210007
 20
379.5622048971131
 30
0.0
 10
130.8305346937112
 20
379.714533745541
 30
0.0
 10
130.8402455358857
 20
379.827040404453
 30
0.0
 10
130.8518618249969
 20
379.8988406204773
 30
0.0
 10
130.8578532616741
 20
379.935873656036
 30
0.0
  0
SPLINE
  5
1A5
330
6C
100
AcDbEntity
  8
Sichtbare Kanten(DIN)
100
AcDbSpline
210
0.0
220
0.0
230
1.0
 70
     8
 71
     3
 72
    10
 73
     6
 74
     0
 42
0.0000000001
 43
0.0000000001
 40
0.0
 40
0.0
 40
0.0
 40
0.0
 40
0.0343803142273139
 40
0.0623204199319017
 40
0.0875627097703428
 40
0.0875627097703428
 40
0.0875627097703428
 40
0.0875627097703428
 10
131.8053935644088
 20
378.6916985396624
 30
0.0
 10
131.6910048819639
 20
378.701710249691
 30
0.0
 10
131.4836550980646
 20
378.7198582505819
 30
0.0
 10
131.2054917230701
 20
378.8322814216207
 30
0.0
 10
131.0797065795806
 20
378.9592018476002
 30
0.0
 10
131.0200043977419
 20
379.0194428755999
 30
0.0
  0
SPLINE
  5
1A6
330
6C
100
AcDbEntity
  8
Sichtbare Kanten(DIN)
100
AcDbSpline
210
0.0
220
0.0
230
1.0
 70
     8
 71
     3
 72
    10
 73
     6
 74
     0
 42
0.0000000001
 43
0.0000000001
 40
0.0
 40
0.0
 40
0.0
 40
0.0
 40
0.0253636577144425
 40
0.0591587427094869
 40
0.1036416293921761
 40
0.1036416293921761
 40
0.1036416293921761
 40
0.1036416293921761
 10
132.8329618505418
 20
378.8096079317522
 30
0.0
 10
132.7503500370813
 20
378.7915932313369
 30
0.0
 10
132.5576644602495
 20
378.749575355254
 30
0.0
 10
132.2147535466487
 20
378.7021757734432
 30
0.0
 10
131.9537267867861
 20
378.6954950071133
 30
0.0
 10
131.8053935644088
 20
378.6916985396624
 30
0.0
  0
SPLINE
  5
1A7
330
6C
100
AcDbEntity
  8
Sichtbare Kanten(DIN)
100
AcDbSpline
210
0.0
220
0.0
230
1.0
 70
     8
 71
     3
 72
    10
 73
     6
 74
     0
 42
0.0000000001
 43
0.0000000001
 40
0.0
 40
0.0
 40
0.0
 40
0.0
 40
0.0000629610420071
 40
0.0018692616811634
 40
0.004181264246394
 40
0.004181264246394
 40
0.004181264246394
 40
0.004181264246394
 10
132.8737615307176
 20
378.8187555904435
 30
0.0
 10
132.8735562618601
 20
378.8187118839887
 30
0.0
 10
132.8674619978923
 20
378.8174142752033
 30
0.0
 10
132.8538793328108
 20
378.8142858081794
 30
0.0
 10
132.8404826861594
 20
378.8112898521285
 30
0.0
 10
132.8329618505418
 20
378.8096079317522
 30
0.0
  0
SPLINE
  5
1A8
330
6C
100
AcDbEntity
  8
Sichtbare Kanten(DIN)
100
AcDbSpline
210
0.0
220
0.0
230
1.0
 70
     8
 71
     3
 72
    10
 73
     6
 74
     0
 42
0.0000000001
 43
0.0000000001
 40
0.0
 40
0.0
 40
0.0
 40
0.0
 40
0.0062279393423902
 40
0.0112592926308837
 40
0.0126740723008075
 40
0.0126740723008075
 40
0.0126740723008075
 40
0.0126740723008075
 10
132.986152396603
 20
378.8743898173316
 30
0.0
 10
132.9696831643541
 20
378.8615207123788
 30
0.0
 10
132.939908965361
 20
378.8382550685449
 30
0.0
 10
132.8993532221099
 20
378.8242986363905
 30
0.0
 10
132.878367434181
 20
378.8197532085429
 30
0.0
 10
132.8737615307176
 20
378.8187555904435
 30
0.0
  0
SPLINE
  5
1A9
330
6C
100
AcDbEntity
  8
Sichtbare Kanten(DIN)
100
AcDbSpline
210
0.0
220
0.0
230
1.0
 70
     8
 71
     3
 72
    10
 73
     6
 74
     0
 42
0.0000000001
 43
0.0000000001
 40
0.0
 40
0.0
 40
0.0
 40
0.0
 40
0.0014451006219188
 40
0.0058176142222764
 40
0.0109995755152573
 40
0.0109995755152573
 40
0.0109995755152573
 40
0.0109995755152573
 10
133.0317971557176
 20
378.9729937211402
 30
0.0
 10
133.0309458579651
 20
378.9682568271075
 30
0.0
 10
133.0275187458058
 20
378.9491872746648
 30
0.0
 10
133.0163362690486
 20
378.9136082787285
 30
0.0
 10
132.9967663372267
 20
378.8881807058721
 30
0.0
 10
132.986152396603
 20
378.8743898173316
 30
0.0
  0
SPLINE
  5
1AA
330
6C
100
AcDbEntity
  8
Sichtbare Kanten(DIN)
100
AcDbSpline
210
0.0
220
0.0
230
1.0
 70
    24
 71
     3
 72
    10
 73
     6
 74
     0
 42
0.0000000001
 43
0.0000000001
 40
0.0
 40
0.0
 40
0.0
 40
0.0
 40
0.0282805628125026
 40
0.0808016080357856
 40
0.109082170848312
 40
0.109082170848312
 40
0.109082170848312
 40
0.109082170848312
 10
133.2212603197801
 20
380.0472356441545
 30
0.0
 10
133.204886959923
 20
379.9543999224126
 30
0.0
 10
133.1581059317596
 20
379.6891550031498
 30
0.0
 10
133.0949515437384
 20
379.3310743621451
 30
0.0
 10
133.0481705155748
 20
379.0658294428821
 30
0.0
 10
133.0317971557176
 20
378.9729937211402
 30
0.0
  0
SPLINE
  5
1AB
330
6C
100
AcDbEntity
  8
Sichtbare Kanten(DIN)
100
AcDbSpline
210
0.0
220
0.0
230
1.0
 70
     8
 71
     3
 72
    10
 73
     6
 74
     0
 42
0.0000000001
 43
0.0000000001
 40
0.0
 40
0.0
 40
0.0
 40
0.0
 40
0.0011974721338967
 40
0.0024275869633848
 40
0.0037663461996527
 40
0.0037663461996527
 40
0.0037663461996527
 40
0.0037663461996527
 10
133.2125242121956
 20
380.0827599874161
 30
0.0
 10
133.2148234557593
 20
380.079467810993
 30
0.0
 10
133.2194846195082
 20
380.0727937145027
 30
0.0
 10
133.2225319055454
 20
380.0602522398298
 30
0.0
 10
133.2216959663868
 20
380.0516951433803
 30
0.0
 10
133.2212603197801
 20
380.0472356441545
 30
0.0
  0
SPLINE
  5
1AC
330
6C
100
AcDbEntity
  8
Sichtbare Kanten(DIN)
100
AcDbSpline
210
0.0
220
0.0
230
1.0
 70
     8
 71
     3
 72
    10
 73
     6
 74
     0
 42
0.0000000001
 43
0.0000000001
 40
0.0
 40
0.0
 40
0.0
 40
0.0
 40
0.0013378531443936
 40
0.0025654958739355
 40
0.0037644824675516
 40
0.0037644824675516
 40
0.0037644824675516
 40
0.0037644824675516
 10
133.1790389175991
 20
380.0974448791805
 30
0.0
 10
133.1835043189321
 20
380.0971116610841
 30
0.0
 10
133.1920672682685
 20
380.0964726749181
 30
0.0
 10
133.2038950428048
 20
380.0913250044961
 30
0.0
 10
133.2096705568027
 20
380.0855924277211
 30
0.0
 10
133.2125242121956
 20
380.0827599874161
 30
0.0
  0
LINE
  5
1AD
330
6C
100
AcDbEntity
  8
Sichtbare Kanten(DIN)
100
AcDbLine
 10
132.1728712890182
 20
380.0974448791805
 30
0.0
 11
133.1790389175991
 21
380.0974448791805
 31
0.0
  0
SPLINE
  5
1AE
330
6C
100
AcDbEntity
  8
Sichtbare Kanten(DIN)
100
AcDbSpline
210
0.0
220
0.0
230
1.0
 70
     8
 71
     3
 72
    10
 73
     6
 74
     0
 42
0.0000000001
 43
0.0000000001
 40
0.0
 40
0.0
 40
0.0
 40
0.0
 40
0.0028871717756039
 40
0.0058375627860821
 40
0.0087027008604815
 40
0.0087027008604815
 40
0.0087027008604815
 40
0.0087027008604815
 10
132.1112134504765
 20
380.0447102169083
 30
0.0
 10
132.1142403443595
 20
380.0539683877915
 30
0.0
 10
132.1203604107989
 20
380.0726874519883
 30
0.0
 10
132.1439456591771
 20
380.0928428922485
 30
0.0
 10
132.1633241053901
 20
380.0959259489261
 30
0.0
 10
132.1728712890182
 20
380.0974448791805
 30
0.0
  0
SPLINE
  5
1AF
330
6C
100
AcDbEntity
  8
Sichtbare Kanten(DIN)
100
AcDbSpline
210
0.0
220
0.0
230
1.0
 70
    24
 71
     3
 72
    10
 73
     6
 74
     0
 42
0.0000000001
 43
0.0000000001
 40
0.0
 40
0.0
 40
0.0
 40
0.0
 40
0.0076308504769846
 40
0.0218024299342602
 40
0.0294332804112467
 40
0.0294332804112467
 40
0.0294332804112467
 40
0.0294332804112467
 10
132.054681293901
 20
379.7558574605608
 30
0.0
 10
132.0595667889137
 20
379.7808200444427
 30
0.0
 10
132.0735253460929
 20
379.8521417126766
 30
0.0
 10
132.0923693982848
 20
379.9484259647925
 30
0.0
 10
132.1063279554639
 20
380.0197476330266
 30
0.0
 10
132.1112134504765
 20
380.0447102169083
 30
0.0
  0
SPLINE
  5
1B0
330
6C
100
AcDbEntity
  8
Sichtbare Kanten(DIN)
100
AcDbSpline
210
0.0
220
0.0
230
1.0
 70
     8
 71
     3
 72
    10
 73
     6
 74
     0
 42
0.0000000001
 43
0.0000000001
 40
0.0
 40
0.0
 40
0.0
 40
0.0
 40
0.0012086141722107
 40
0.0024446859839349
 40
0.0037855685811105
 40
0.0037855685811105
 40
0.0037855685811105
 40
0.0037855685811105
 10
132.0638850731979
 20
379.7202395829566
 30
0.0
 10
132.0615396217197
 20
379.7235441799216
 30
0.0
 10
132.0567954341315
 20
379.7302284486229
 30
0.0
 10
132.0535860713555
 20
379.742790820406
 30
0.0
 10
132.0543064531792
 20
379.7513853933564
 30
0.0
 10
132.054681293901
 20
379.7558574605608
 30
0.0
  0
SPLINE
  5
1B1
330
6C
100
AcDbEntity
  8
Sichtbare Kanten(DIN)
100
AcDbSpline
210
0.0
220
0.0
230
1.0
 70
     8
 71
     3
 72
    10
 73
     6
 74
     0
 42
0.0000000001
 43
0.0000000001
 40
0.0
 40
0.0
 40
0.0
 40
0.0
 40
0.0013458088946094
 40
0.0025859262922676
 40
0.0037986230102095
 40
0.0037986230102095
 40
0.0037986230102095
 40
0.0037986230102095
 10
132.097707091427
 20
379.7054611568498
 30
0.0
 10
132.0932152943829
 20
379.7057972311737
 30
0.0
 10
132.08458445822
 20
379.7064429866253
 30
0.0
 10
132.0726470105488
 20
379.7116209349653
 30
0.0
 10
132.0667838704326
 20
379.7173881915389
 30
0.0
 10
132.0638850731979
 20
379.7202395829566
 30
0.0
  0
LINE
  5
1B2
330
6C
100
AcDbEntity
  8
Sichtbare Kanten(DIN)
100
AcDbLine
 10
132.5827013638881
 20
379.7054611568498
 30
0.0
 11
132.097707091427
 21
379.7054611568498
 31
0.0
  0
SPLINE
  5
1B3
330
6C
100
AcDbEntity
  8
Sichtbare Kanten(DIN)
100
AcDbSpline
210
0.0
220
0.0
230
1.0
 70
    24
 71
     3
 72
    10
 73
     6
 74
     0
 42
0.0000000001
 43
0.0000000001
 40
0.0
 40
0.0
 40
0.0
 40
0.0
 40
0.0124984602829994
 40
0.035709886522863
 40
0.048208346805891
 40
0.048208346805891
 40
0.048208346805891
 40
0.048208346805891
 10
132.4999608845586
 20
379.2305311796363
 30
0.0
 10
132.5071112963525
 20
379.2715745110004
 30
0.0
 10
132.5275410443351
 20
379.3888411720407
 30
0.0
 10
132.5551212041115
 20
379.5471511644452
 30
0.0
 10
132.5755509520941
 20
379.6644178254855
 30
0.0
 10
132.5827013638881
 20
379.7054611568498
 30
0.0
  0
SPLINE
  5
1B4
330
6C
100
AcDbEntity
  8
Sichtbare Kanten(DIN)
100
AcDbSpline
210
0.0
220
0.0
230
1.0
 70
     8
 71
     3
 72
    10
 73
     6
 74
     0
 42
0.0000000001
 43
0.0000000001
 40
0.0
 40
0.0
 40
0.0
 40
0.0
 40
0.0001061140021709
 40
0.0008753003865789
 40
0.003340639292118
 40
0.003340639292118
 40
0.003340639292118
 40
0.003340639292118
 10
132.4867164216679
 20
379.2005440694475
 30
0.0
 10
132.48703760206
 20
379.2006961603568
 30
0.0
 10
132.489686916152
 20
379.2019507095117
 30
0.0
 10
132.4956547794421
 20
379.2122765918274
 30
0.0
 10
132.4980983825565
 20
379.2226355975686
 30
0.0
 10
132.4999608845586
 20
379.2305311796363
 30
0.0
  0
SPLINE
  5
1B5
330
6C
100
AcDbEntity
  8
Sichtbare Kanten(DIN)
100
AcDbSpline
210
0.0
220
0.0
230
1.0
 70
     8
 71
     3
 72
    10
 73
     6
 74
     0
 42
0.0000000001
 43
0.0000000001
 40
0.0
 40
0.0
 40
0.0
 40
0.0
 40
0.0015313901309447
 40
0.0030664877393728
 40
0.0043748183928794
 40
0.0043748183928794
 40
0.0043748183928794
 40
0.0043748183928794
 10
132.4488911335821
 20
379.1795923767392
 30
0.0
 10
132.4538169153525
 20
379.1809914415409
 30
0.0
 10
132.463680404153
 20
379.1837929582638
 30
0.0
 10
132.4763744667557
 20
379.1913366114855
 30
0.0
 10
132.4834573941318
 20
379.1976425523464
 30
0.0
 10
132.4867164216679
 20
379.2005440694475
 30
0.0
  0
SPLINE
  5
1B6
330
6C
100
AcDbEntity
  8
Sichtbare Kanten(DIN)
100
AcDbSpline
210
0.0
220
0.0
230
1.0
 70
     8
 71
     3
 72
    13
 73
     9
 74
     0
 42
0.0000000001
 43
0.0000000001
 40
0.0
 40
0.0
 40
0.0
 40
0.0
 40
0.0141330863714505
 40
0.0294904350099205
 40
0.0479706055027409
 40
0.0625618731963489
 40
0.076342669509337
 40
0.0889650430344752
 40
0.0889650430344752
 40
0.0889650430344752
 40
0.0889650430344752
 10
131.6121516129113
 20
379.333456370066
 30
0.0
 10
131.6458350199374
 20
379.2999712588372
 30
0.0
 10
131.7161196201804
 20
379.2301004273328
 30
0.0
 10
131.8671844924008
 20
379.1677609583204
 30
0.0
 10
132.0277498816964
 20
379.1435381258601
 30
0.0
 10
132.1842055520352
 20
379.1472196325458
 30
0.0
 10
132.3204751709983
 20
379.1585050429207
 30
0.0
 10
132.4073564333158
 20
379.1727719155447
 30
0.0
 10
132.4488911335821
 20
379.1795923767392
 30
0.0
  0
SPLINE
  5
1B7
330
6C
100
AcDbEntity
  8
Sichtbare Kanten(DIN)
100
AcDbSpline
210
0.0
220
0.0
230
1.0
 70
     8
 71
     3
 72
    10
 73
     6
 74
     0
 42
0.0000000001
 43
0.0000000001
 40
0.0
 40
0.0
 40
0.0
 40
0.0
 40
0.0257321364147993
 40
0.0459975558651676
 40
0.0631323921590997
 40
0.0631323921590997
 40
0.0631323921590997
 40
0.0631323921590997
 10
131.5069815982629
 20
379.9380997733863
 30
0.0
 10
131.496417500485
 20
379.8529066179341
 30
0.0
 10
131.4775336165405
 20
379.7006193432176
 30
0.0
 10
131.5115273334069
 20
379.4867373060207
 30
0.0
 10
131.5805356296597
 20
379.3816169882368
 30
0.0
 10
131.6121516129113
 20
379.333456370066
 30
0.0
  0
SPLINE
  5
1B8
330
6C
100
AcDbEntity
  8
Sichtbare Kanten(DIN)
100
AcDbSpline
210
0.0
220
0.0
230
1.0
 70
     8
 71
     3
 72
    13
 73
     9
 74
     0
 42
0.0000000001
 43
0.0000000001
 40
0.0
 40
0.0
 40
0.0
 40
0.0
 40
0.0126149146707673
 40
0.0254558351656706
 40
0.0436022211516245
 40
0.081588218246103
 40
0.1224783790911752
 40
0.1679868711023057
 40
0.1679868711023057
 40
0.1679868711023057
 40
0.1679868711023057
 10
132.6494661775274
 20
380.5043566825659
 30
0.0
 10
132.6366962292755
 20
380.5456259851771
 30
0.0
 10
132.6109275494027
 20
380.6289039614529
 30
0.0
 10
132.4821991111244
 20
380.7144881355066
 30
0.0
 10
132.2537126036474
 20
380.7523764952368
 30
0.0
 10
131.9171490054484
 20
380.6921873221705
 30
0.0
 10
131.6170644185075
 20
380.3675911439933
 30
0.0
 10
131.5449606110806
 20
380.0862760122683
 30
0.0
 10
131.5069815982629
 20
379.9380997733863
 30
0.0
  0
SPLINE
  5
1B9
330
6C
100
AcDbEntity
  8
Sichtbare Kanten(DIN)
100
AcDbSpline
210
0.0
220
0.0
230
1.0
 70
     8
 71
     3
 72
    10
 73
     6
 74
     0
 42
0.0000000001
 43
0.0000000001
 40
0.0
 40
0.0
 40
0.0
 40
0.0
 40
0.0001493678640702
 40
0.0017599685334192
 40
0.0036446683607066
 40
0.0036446683607066
 40
0.0036446683607066
 40
0.0036446683607066
 10
132.6546292732306
 20
380.468289840118
 30
0.0
 10
132.6544989141811
 20
380.4687705145145
 30
0.0
 10
132.6529629223094
 20
380.4744341947046
 30
0.0
 10
132.6519466295579
 20
380.486614847193
 30
0.0
 10
132.6503351193921
 20
380.498141434973
 30
0.0
 10
132.6494661775274
 20
380.5043566825659
 30
0.0
  0
SPLINE
  5
1BA
330
6C
100
AcDbEntity
  8
Sichtbare Kanten(DIN)
100
AcDbSpline
210
0.0
220
0.0
230
1.0
 70
     8
 71
     3
 72
    10
 73
     6
 74
     0
 42
0.0000000001
 43
0.0000000001
 40
0.0
 40
0.0
 40
0.0
 40
0.0
 40
0.0020477657296521
 40
0.0040061257373836
 40
0.0064275562272828
 40
0.0064275562272828
 40
0.0064275562272828
 40
0.0064275562272828
 10
132.6971873990444
 20
380.4274714530738
 30
0.0
 10
132.6902650628438
 20
380.4283298852833
 30
0.0
 10
132.6767226205546
 20
380.4300092704387
 30
0.0
 10
132.660186709721
 20
380.4459971324868
 30
0.0
 10
132.6566078806289
 20
380.4603529943575
 30
0.0
 10
132.6546292732306
 20
380.468289840118
 30
0.0
  0
LINE
  5
1BB
330
6C
100
AcDbEntity
  8
Sichtbare Kanten(DIN)
100
AcDbLine
 10
133.2279573786994
 20
380.4274714530738
 30
0.0
 11
132.6971873990444
 21
380.4274714530738
 31
0.0
  0
SPLINE
  5
1BC
330
6C
100
AcDbEntity
  8
Sichtbare Kanten(DIN)
100
AcDbSpline
210
0.0
220
0.0
230
1.0
 70
     8
 71
     3
 72
    10
 73
     6
 74
     0
 42
0.0000000001
 43
0.0000000001
 40
0.0
 40
0.0
 40
0.0
 40
0.0
 40
0.0031448691298889
 40
0.0055525733140852
 40
0.0078622774006788
 40
0.0078622774006788
 40
0.0078622774006788
 40
0.0078622774006788
 10
133.2786342854377
 20
380.4794204268694
 30
0.0
 10
133.2759137802206
 20
380.4692066262674
 30
0.0
 10
133.2711104628026
 20
380.4511731646778
 30
0.0
 10
133.2516891147788
 20
380.4308773885474
 30
0.0
 10
133.2357576364748
 20
380.4285909318414
 30
0.0
 10
133.2279573786994
 20
380.4274714530738
 30
0.0
  0
SPLINE
  5
1BD
330
6C
100
AcDbEntity
  8
Sichtbare Kanten(DIN)
100
AcDbSpline
210
0.0
220
0.0
230
1.0
 70
     8
 71
     3
 72
    10
 73
     6
 74
     0
 42
0.0000000001
 43
0.0000000001
 40
0.0
 40
0.0
 40
0.0
 40
0.0
 40
0.0149600583058819
 40
0.030690024277432
 40
0.0492302198905902
 40
0.0492302198905902
 40
0.0492302198905902
 40
0.0492302198905902
 10
133.1509412011278
 20
380.9403202527157
 30
0.0
 10
133.1814481223166
 20
380.9004211786318
 30
0.0
 10
133.2440319794628
 20
380.8185696559141
 30
0.0
 10
133.2878989031792
 20
380.6557559397846
 30
0.0
 10
133.2818868259302
 20
380.5413267474562
 30
0.0
 10
133.2786342854377
 20
380.4794204268694
 30
0.0
  0
SPLINE
  5
1BE
330
6C
100
AcDbEntity
  8
Sichtbare Kanten(DIN)
100
AcDbSpline
210
0.0
220
0.0
230
1.0
 70
     8
 71
     3
 72
    13
 73
     9
 74
     0
 42
0.0000000001
 43
0.0000000001
 40
0.0
 40
0.0
 40
0.0
 40
0.0
 40
0.0229026576484633
 40
0.0432739635693818
 40
0.0645629699844591
 40
0.0801076089824924
 40
0.0932173039948876
 40
0.1051889127042279
 40
0.1051889127042279
 40
0.1051889127042279
 40
0.1051889127042279
 10
135.2882757535371
 20
378.8990828837379
 30
0.0
 10
135.2298238734495
 20
378.8491742881931
 30
0.0
 10
135.1193805979004
 20
378.7548733219669
 30
0.0
 10
134.9142181141809
 20
378.6777386899675
 30
0.0
 10
134.7223054679185
 20
378.6604706325972
 30
0.0
 10
134.5563588710957
 20
378.681552689315
 30
0.0
 10
134.427541607116
 20
378.7327810292692
 30
0.0
 10
134.3674145015399
 20
378.7918640384861
 30
0.0
 10
134.3387151090056
 20
378.8200650712378
 30
0.0
  0
SPLINE
  5
1BF
330
6C
100
AcDbEntity
  8
Sichtbare Kanten(DIN)
100
AcDbSpline
210
0.0
220
0.0
230
1.0
 70
    24
 71
     3
 72
    10
 73
     6
 74
     0
 42
0.0000000001
 43
0.0000000001
 40
0.0
 40
0.0
 40
0.0
 40
0.0
 40
0.0004456250722506
 40
0.0012732144921474
 40
0.0017188395643828
 40
0.0017188395643828
 40
0.0017188395643828
 40
0.0017188395643828
 10
135.3007345279512
 20
378.9109243314917
 30
0.0
 10
135.2996578437426
 20
378.9099009965007
 30
0.0
 10
135.2965816031465
 20
378.9069771822403
 30
0.0
 10
135.2924286783417
 20
378.9030300329892
 30
0.0
 10
135.2893524377457
 20
378.900106218729
 30
0.0
 10
135.2882757535371
 20
378.8990828837379
 30
0.0
  0
SPLINE
  5
1C0
330
6C
100
AcDbEntity
  8
Sichtbare Kanten(DIN)
100
AcDbSpline
210
0.0
220
0.0
230
1.0
 70
    24
 71
     3
 72
    10
 73
     6
 74
     0
 42
0.0000000001
 43
0.0000000001
 40
0.0
 40
0.0
 40
0.0
 40
0.0
 40
0.000443702760702
 40
0.0012677221734445
 40
0.0017114249341747
 40
0.0017114249341747
 40
0.0017114249341747
 40
0.0017114249341747
 10
135.2991631509981
 20
378.8938823742978
 30
0.0
 10
135.2992989490064
 20
378.8953551360305
 30
0.0
 10
135.2996869433158
 20
378.8995630266957
 30
0.0
 10
135.3002107356332
 20
378.9052436790937
 30
0.0
 10
135.3005987299428
 20
378.9094515697589
 30
0.0
 10
135.3007345279512
 20
378.9109243314917
 30
0.0
  0
SPLINE
  5
1C1
330
6C
100
AcDbEntity
  8
Sichtbare Kanten(DIN)
100
AcDbSpline
210
0.0
220
0.0
230
1.0
 70
     8
 71
     3
 72
    10
 73
     6
 74
     0
 42
0.0000000001
 43
0.0000000001
 40
0.0
 40
0.0
 40
0.0
 40
0.0
 40
0.0000978161838524
 40
0.0052407690406009
 40
0.0138474745991061
 40
0.0138474745991061
 40
0.0138474745991061
 40
0.0138474745991061
 10
135.2876023062715
 20
378.7559005123187
 30
0.0
 10
135.2875877455742
 20
378.7562262653657
 30
0.0
 10
135.2868076164716
 20
378.773679374012
 30
0.0
 10
135.2938977403309
 20
378.8196436058679
 30
0.0
 10
135.2971360843735
 20
378.8653020907753
 30
0.0
 10
135.2991631509981
 20
378.8938823742978
 30
0.0
  0
SPLINE
  5
1C2
330
6C
100
AcDbEntity
  8
Sichtbare Kanten(DIN)
100
AcDbSpline
210
0.0
220
0.0
230
1.0
 70
     8
 71
     3
 72
    10
 73
     6
 74
     0
 42
0.0000000001
 43
0.0000000001
 40
0.0
 40
0.0
 40
0.0
 40
0.0
 40
0.0019374781843215
 40
0.003650302471362
 40
0.0058461245166764
 40
0.0058461245166764
 40
0.0058461245166764
 40
0.0058461245166764
 10
135.3228834602428
 20
378.7173830700985
 30
0.0
 10
135.316280778523
 20
378.7181310977516
 30
0.0
 10
135.3038410072809
 20
378.7195404179763
 30
0.0
 10
135.2895378992345
 20
378.7352205283889
 30
0.0
 10
135.2882985532558
 20
378.7484617704331
 30
0.0
 10
135.2876023062715
 20
378.7559005123187
 30
0.0
  0
LINE
  5
1C3
330
6C
100
AcDbEntity
  8
Sichtbare Kanten(DIN)
100
AcDbLine
 10
135.8254621890841
 20
378.7173830700985
 30
0.0
 11
135.3228834602428
 21
378.7173830700985
 31
0.0
  0
SPLINE
  5
1C4
330
6C
100
AcDbEntity
  8
Sichtbare Kanten(DIN)
100
AcDbSpline
210
0.0
220
0.0
230
1.0
 70
     8
 71
     3
 72
    10
 73
     6
 74
     0
 42
0.0000000001
 43
0.0000000001
 40
0.0
 40
0.0
 40
0.0
 40
0.0
 40
0.0026218981994698
 40
0.0048850710384231
 40
0.0075494481327257
 40
0.0075494481327257
 40
0.0075494481327257
 40
0.0075494481327257
 10
135.8787393505424
 20
378.761568693471
 30
0.0
 10
135.8763308627086
 20
378.7529997995156
 30
0.0
 10
135.8718434138193
 20
378.7370343986844
 30
0.0
 10
135.8511146667497
 20
378.7198006951241
 30
0.0
 10
135.8344648933589
 20
378.7182315325136
 30
0.0
 10
135.8254621890841
 20
378.7173830700985
 30
0.0
  0
SPLINE
  5
1C5
330
6C
100
AcDbEntity
  8
Sichtbare Kanten(DIN)
100
AcDbSpline
210
0.0
220
0.0
230
1.0
 70
     8
 71
     3
 72
    10
 73
     6
 74
     0
 42
0.0000000001
 43
0.0000000001
 40
0.0
 40
0.0
 40
0.0
 40
0.0
 40
0.0000133877693432
 40
0.0011214026620805
 40
0.0052633669803299
 40
0.0052633669803299
 40
0.0052633669803299
 40
0.0052633669803299
 10
135.8833038264538
 20
378.8140040458472
 30
0.0
 10
135.8832992180001
 20
378.8139596585074
 30
0.0
 10
135.8829131990828
 20
378.8102416320139
 30
0.0
 10
135.8815299002333
 20
378.792749770118
 30
0.0
 10
135.8799700177853
 20
378.7753199374467
 30
0.0
 10
135.8787393505424
 20
378.761568693471
 30
0.0
  0
SPLINE
  5
1C6
330
6C
100
AcDbEntity
  8
Sichtbare Kanten(DIN)
100
AcDbSpline
210
0.0
220
0.0
230
1.0
 70
     8
 71
     3
 72
    10
 73
     6
 74
     0
 42
0.0000000001
 43
0.0000000001
 40
0.0
 40
0.0
 40
0.0
 40
0.0
 40
0.0013651074904674
 40
0.0157406004844253
 40
0.0266332792872953
 40
0.0266332792872953
 40
0.0266332792872953
 40
0.0266332792872953
 10
135.9125613687717
 20
379.0787249418433
 30
0.0
 10
135.9120614758963
 20
379.0742021254879
 30
0.0
 10
135.9062973773978
 20
379.0220510342266
 30
0.0
 10
135.8965450959513
 20
378.9338107098466
 30
0.0
 10
135.8872924742093
 20
378.8500932275935
 30
0.0
 10
135.8833038264538
 20
378.8140040458472
 30
0.0
  0
SPLINE
  5
1C7
330
6C
100
AcDbEntity
  8
Sichtbare Kanten(DIN)
100
AcDbSpline
210
0.0
220
0.0
230
1.0
 70
     8
 71
     3
 72
    10
 73
     6
 74
     0
 42
0.0000000001
 43
0.0000000001
 40
0.0
 40
0.0
 40
0.0
 40
0.0
 40
0.0000276844043058
 40
0.002328435056994
 40
0.006811561276057
 40
0.006811561276057
 40
0.006811561276057
 40
0.006811561276057
 10
135.9232616975476
 20
379.1459948409319
 30
0.0
 10
135.9232468513605
 20
379.1459037616335
 30
0.0
 10
135.9219981922829
 20
379.1382434114648
 30
0.0
 10
135.9184781864066
 20
379.1158125663642
 30
0.0
 10
135.9149156629934
 20
379.0934820605333
 30
0.0
 10
135.9125613687717
 20
379.0787249418433
 30
0.0
  0
SPLINE
  5
1C8
330
6C
100
AcDbEntity
  8
Sichtbare Kanten(DIN)
100
AcDbSpline
210
0.0
220
0.0
230
1.0
 70
     8
 71
     3
 72
    10
 73
     6
 74
     0
 42
0.0000000001
 43
0.0000000001
 40
0.0
 40
0.0
 40
0.0
 40
0.0
 40
0.023211479789723
 40
0.0868708613137956
 40
0.1248352191515127
 40
0.1248352191515127
 40
0.1248352191515127
 40
0.1248352191515127
 10
136.1504379084852
 20
380.3735021374814
 30
0.0
 10
136.1363596126316
 20
380.2974221403435
 30
0.0
 10
136.0836704390969
 20
380.012686529345
 30
0.0
 10
136.0079393172665
 20
379.6035184886918
 30
0.0
 10
135.9462918234706
 20
379.2704294584333
 30
0.0
 10
135.9232616975476
 20
379.1459948409319
 30
0.0
  0
SPLINE
  5
1C9
330
6C
100
AcDbEntity
  8
Sichtbare Kanten(DIN)
100
AcDbSpline
210
0.0
220
0.0
230
1.0
 70
     8
 71
     3
 72
    10
 73
     6
 74
     0
 42
0.0000000001
 43
0.0000000001
 40
0.0
 40
0.0
 40
0.0
 40
0.0
 40
0.0136948136430347
 40
0.039415233947099
 40
0.0541152299756576
 40
0.0541152299756576
 40
0.0541152299756576
 40
0.0541152299756576
 10
135.6092856168184
 20
380.3735956718238
 30
0.0
 10
135.6549349949147
 20
380.3735875996356
 30
0.0
 10
135.786319106017
 20
380.3735643669583
 30
0.0
 10
135.9667032030546
 20
380.3735320933898
 30
0.0
 10
136.1014379223741
 20
380.3735101263864
 30
0.0
 10
136.1504379084852
 20
380.3735021374814
 30
0.0
  0
SPLINE
  5
1CA
330
6C
100
AcDbEntity
  8
Sichtbare Kanten(DIN)
100
AcDbSpline
210
0.0
220
0.0
230
1.0
 70
     8
 71
     3
 72
    10
 73
     6
 74
     0
 42
0.0000000001
 43
0.0000000001
 40
0.0
 40
0.0
 40
0.0
 40
0.0
 40
0.0028830672147756
 40
0.0058563601479548
 40
0.0087290673659734
 40
0.0087290673659734
 40
0.0087290673659734
 40
0.0087290673659734
 10
135.5467672623262
 20
380.3211790263159
 30
0.0
 10
135.5499623320572
 20
380.3303597032479
 30
0.0
 10
135.5564524613704
 20
380.3490083668103
 30
0.0
 10
135.5802490420356
 20
380.3689725739263
 30
0.0
 10
135.5997184213119
 20
380.3720724177292
 30
0.0
 10
135.6092856168184
 20
380.3735956718238
 30
0.0
  0
SPLINE
  5
1CB
330
6C
100
AcDbEntity
  8
Sichtbare Kanten(DIN)
100
AcDbSpline
210
0.0
220
0.0
230
1.0
 70
     8
 71
     3
 72
    10
 73
     6
 74
     0
 42
0.0000000001
 43
0.0000000001
 40
0.0
 40
0.0
 40
0.0
 40
0.0
 40
0.0003033916010666
 40
0.0329732673994514
 40
0.091433609618394
 40
0.091433609618394
 40
0.091433609618394
 40
0.091433609618394
 10
135.3910512890189
 20
379.4202001192522
 30
0.0
 10
135.3912270270638
 20
379.4211960382662
 30
0.0
 10
135.4103266248347
 20
379.5294347101353
 30
0.0
 10
135.4616306266415
 20
379.8298661604669
 30
0.0
 10
135.5134956651771
 20
380.1291728046082
 30
0.0
 10
135.5467672623262
 20
380.3211790263159
 30
0.0
  0
SPLINE
  5
1CC
330
6C
100
AcDbEntity
  8
Sichtbare Kanten(DIN)
100
AcDbSpline
210
0.0
220
0.0
230
1.0
 70
     8
 71
     3
 72
    13
 73
     9
 74
     0
 42
0.0000000001
 43
0.0000000001
 40
0.0
 40
0.0
 40
0.0
 40
0.0
 40
0.0070119223755337
 40
0.0145744932704924
 40
0.0248805847956144
 40
0.0499072791905729
 40
0.0721278514224016
 40
0.0795745374886417
 40
0.0795745374886417
 40
0.0795745374886417
 40
0.0795745374886417
 10
134.8587286392793
 20
379.1944643371885
 30
0.0
 10
134.8665230043015
 20
379.172146839683
 30
0.0
 10
134.8827238283382
 20
379.1257592444148
 30
0.0
 10
134.9478315402047
 20
379.0677300722086
 30
0.0
 10
135.0926701353851
 20
379.0388538737354
 30
0.0
 10
135.2922076314707
 20
379.1220075869119
 30
0.0
 10
135.3704898618422
 20
379.2985420214041
 30
0.0
 10
135.386925764344
 20
379.3957901655917
 30
0.0
 10
135.3910512890189
 20
379.4202001192522
 30
0.0
  0
SPLINE
  5
1CD
330
6C
100
AcDbEntity
  8
Sichtbare Kanten(DIN)
100
AcDbSpline
210
0.0
220
0.0
230
1.0
 70
     8
 71
     3
 72
    10
 73
     6
 74
     0
 42
0.0000000001
 43
0.0000000001
 40
0.0
 40
0.0
 40
0.0
 40
0.0
 40
0.0005599645648457
 40
0.0060567009795872
 40
0.0151421821733425
 40
0.0151421821733425
 40
0.0151421821733425
 40
0.0151421821733425
 10
134.8565025219289
 20
379.3455784208473
 30
0.0
 10
134.8562834348974
 20
379.3437248487381
 30
0.0
 10
134.8539137409528
 20
379.3236762015308
 30
0.0
 10
134.8511925639102
 20
379.2731127203428
 30
0.0
 10
134.8558357145547
 20
379.2246556292122
 30
0.0
 10
134.8587286392793
 20
379.1944643371885
 30
0.0
  0
SPLINE
  5
1CE
330
6C
100
AcDbEntity
  8
Sichtbare Kanten(DIN)
100
AcDbSpline
210
0.0
220
0.0
230
1.0
 70
     8
 71
     3
 72
    10
 73
     6
 74
     0
 42
0.0000000001
 43
0.0000000001
 40
0.0
 40
0.0
 40
0.0
 40
0.0
 40
0.0364553241020049
 40
0.0865433567655217
 40
0.0992284203541535
 40
0.0992284203541535
 40
0.0992284203541535
 40
0.0992284203541535
 10
135.0254442512584
 20
380.3233677299292
 30
0.0
 10
135.0045029258441
 20
380.2036688078001
 30
0.0
 10
134.9547891284463
 20
379.9195087632129
 30
0.0
 10
134.8966203774445
 20
379.5938871998448
 30
0.0
 10
134.8632466242146
 20
379.3873209263344
 30
0.0
 10
134.8565025219289
 20
379.3455784208473
 30
0.0
  0
SPLINE
  5
1CF
330
6C
100
AcDbEntity
  8
Sichtbare Kanten(DIN)
100
AcDbSpline
210
0.0
220
0.0
230
1.0
 70
     8
 71
     3
 72
    10
 73
     6
 74
     0
 42
0.0000000001
 43
0.0000000001
 40
0.0
 40
0.0
 40
0.0
 40
0.0
 40
0.0011963695904981
 40
0.0024277293993705
 40
0.0037682802801586
 40
0.0037682802801586
 40
0.0037682802801586
 40
0.0037682802801586
 10
135.0167642642793
 20
380.3589294869279
 30
0.0
 10
135.0190536198963
 20
380.3556351559639
 30
0.0
 10
135.0236992879081
 20
380.3489501447465
 30
0.0
 10
135.0267304944112
 20
380.3363990613607
 30
0.0
 10
135.0258849646968
 20
380.3278327355308
 30
0.0
 10
135.0254442512584
 20
380.3233677299292
 30
0.0
  0
SPLINE
  5
1D0
330
6C
100
AcDbEntity
  8
Sichtbare Kanten(DIN)
100
AcDbSpline
210
0.0
220
0.0
230
1.0
 70
     8
 71
     3
 72
    10
 73
     6
 74
     0
 42
0.0000000001
 43
0.0000000001
 40
0.0
 40
0.0
 40
0.0
 40
0.0
 40
0.0013342302801213
 40
0.0025597299351586
 40
0.003756633205301
 40
0.003756633205301
 40
0.003756633205301
 40
0.003756633205301
 10
134.9833537971569
 20
380.3735956718238
 30
0.0
 10
134.9878070828345
 20
380.373262389441
 30
0.0
 10
134.9963507419231
 20
380.3726229849058
 30
0.0
 10
135.0081516515006
 20
380.3674808397432
 30
0.0
 10
135.0139160762999
 20
380.3617574162593
 30
0.0
 10
135.0167642642793
 20
380.3589294869279
 30
0.0
  0
LINE
  5
1D1
330
6C
100
AcDbEntity
  8
Sichtbare Kanten(DIN)
100
AcDbLine
 10
134.5059919270395
 20
380.3735956718238
 30
0.0
 11
134.9833537971569
 21
380.3735956718238
 31
0.0
  0
SPLINE
  5
1D2
330
6C
100
AcDbEntity
  8
Sichtbare Kanten(DIN)
100
AcDbSpline
210
0.0
220
0.0
230
1.0
 70
     8
 71
     3
 72
    10
 73
     6
 74
     0
 42
0.0000000001
 43
0.0000000001
 40
0.0
 40
0.0
 40
0.0
 40
0.0
 40
0.0028822323715612
 40
0.0058561909534092
 40
0.0087413965309747
 40
0.0087413965309747
 40
0.0087413965309747
 40
0.0087413965309747
 10
134.4434548656789
 20
380.3211041988419
 30
0.0
 10
134.446611569188
 20
380.3302980957517
 30
0.0
 10
134.4530254373809
 20
380.3489784826768
 30
0.0
 10
134.4768664120779
 20
380.3689807479214
 30
0.0
 10
134.4963819607704
 20
380.3720729772691
 30
0.0
 10
134.5059919270395
 20
380.3735956718238
 30
0.0
  0
SPLINE
  5
1D3
330
6C
100
AcDbEntity
  8
Sichtbare Kanten(DIN)
100
AcDbSpline
210
0.0
220
0.0
230
1.0
 70
    24
 71
     3
 72
    10
 73
     6
 74
     0
 42
0.0000000001
 43
0.0000000001
 40
0.0
 40
0.0
 40
0.0
 40
0.0
 40
0.0277236344761293
 40
0.0792103842174622
 40
0.1069340186935556
 40
0.1069340186935556
 40
0.1069340186935556
 40
0.1069340186935556
 10
134.2534117886932
 20
379.2687867256975
 30
0.0
 10
134.269835264482
 20
379.3597277418952
 30
0.0
 10
134.3167594810215
 20
379.6195592167458
 30
0.0
 10
134.3801071733503
 20
379.9703317077939
 30
0.0
 10
134.42703138989
 20
380.2301631826443
 30
0.0
 10
134.4434548656789
 20
380.3211041988419
 30
0.0
  0
SPLINE
  5
1D4
330
6C
100
AcDbEntity
  8
Sichtbare Kanten(DIN)
100
AcDbSpline
210
0.0
220
0.0
230
1.0
 70
     8
 71
     3
 72
    10
 73
     6
 74
     0
 42
0.0000000001
 43
0.0000000001
 40
0.0
 40
0.0
 40
0.0
 40
0.0
 40
0.0132753393276222
 40
0.0283927478350564
 40
0.0470112911819628
 40
0.0470112911819628
 40
0.0470112911819628
 40
0.0470112911819628
 10
134.3387151090056
 20
378.8200650712378
 30
0.0
 10
134.3139270284882
 20
378.8571580904539
 30
0.0
 10
134.2609113049667
 20
378.9364911089969
 30
0.0
 10
134.2326441114264
 20
379.0952165842499
 30
0.0
 10
134.246026292989
 20
379.207060923742
 30
0.0
 10
134.2534117886932
 20
379.2687867256975
 30
0.0
  0
SPLINE
  5
1D5
330
6C
100
AcDbEntity
  8
Sichtbare Kanten(DIN)
100
AcDbSpline
210
0.0
220
0.0
230
1.0
 70
    24
 71
     3
 72
    10
 73
     6
 74
     0
 42
0.0000000001
 43
0.0000000001
 40
0.0
 40
0.0
 40
0.0
 40
0.0
 40
0.0181734283307955
 40
0.0519240809451687
 40
0.0700975092759946
 40
0.0700975092759946
 40
0.0700975092759946
 40
0.0700975092759946
 10
136.6225618554254
 20
380.3734273100074
 30
0.0
 10
136.63309266764
 20
380.4330830517226
 30
0.0
 10
136.6631807025389
 20
380.603528028052
 30
0.0
 10
136.703799549653
 20
380.8336287460966
 30
0.0
 10
136.733887584552
 20
381.0040737224261
 30
0.0
 10
136.7444183967666
 20
381.0637294641415
 30
0.0
  0
SPLINE
  5
1D6
330
6C
100
AcDbEntity
  8
Sichtbare Kanten(DIN)
100
AcDbSpline
210
0.0
220
0.0
230
1.0
 70
     8
 71
     3
 72
    10
 73
     6
 74
     0
 42
0.0000000001
 43
0.0000000001
 40
0.0
 40
0.0
 40
0.0
 40
0.0
 40
0.0069541430205835
 40
0.0235633077492389
 40
0.0332682957643675
 40
0.0332682957643675
 40
0.0332682957643675
 40
0.0332682957643675
 10
136.2898789062067
 20
380.3735021374814
 30
0.0
 10
136.3130593824433
 20
380.3734973264783
 30
0.0
 10
136.3916037399178
 20
380.3734810249519
 30
0.0
 10
136.5024980560854
 20
380.3734549781283
 30
0.0
 10
136.5902118962344
 20
380.3734347648987
 30
0.0
 10
136.6225618554254
 20
380.3734273100074
 30
0.0
  0
SPLINE
  5
1D7
330
6C
100
AcDbEntity
  8
Sichtbare Kanten(DIN)
100
AcDbSpline
210
0.0
220
0.0
230
1.0
 70
     8
 71
     3
 72
    10
 73
     6
 74
     0
 42
0.0000000001
 43
0.0000000001
 40
0.0
 40
0.0
 40
0.0
 40
0.0
 40
0.0089865303058264
 40
0.0301677392837066
 40
0.0385831811169096
 40
0.0385831811169096
 40
0.0385831811169096
 40
0.0385831811169096
 10
136.2196907356337
 20
379.9941081376441
 30
0.0
 10
136.2251414901788
 20
380.0235631432102
 30
0.0
 10
136.2434396471337
 20
380.1224434561099
 30
0.0
 10
136.2668253698805
 20
380.2489100345752
 30
0.0
 10
136.2847751173725
 20
380.3459188732634
 30
0.0
 10
136.2898789062067
 20
380.3735021374814
 30
0.0
  0
LINE
  5
1D8
330
6C
100
AcDbEntity
  8
Sichtbare Kanten(DIN)
100
AcDbLine
 10
136.5556286799697
 20
379.9941081376441
 30
0.0
 11
136.2196907356337
 21
379.9941081376441
 31
0.0
  0
SPLINE
  5
1D9
330
6C
100
AcDbEntity
  8
Sichtbare Kanten(DIN)
100
AcDbSpline
210
0.0
220
0.0
230
1.0
 70
    24
 71
     3
 72
    10
 73
     6
 74
     0
 42
0.0000000001
 43
0.0000000001
 40
0.0
 40
0.0
 40
0.0
 40
0.0
 40
0.0322906859289821
 40
0.0922591026542166
 40
0.1245497885832192
 40
0.1245497885832192
 40
0.1245497885832192
 40
0.1245497885832192
 10
136.3391153840711
 20
378.7675735982562
 30
0.0
 10
136.3578264096427
 20
378.873570410302
 30
0.0
 10
136.4112864827042
 20
379.1764184447186
 30
0.0
 10
136.4834575813367
 20
379.5852632911814
 30
0.0
 10
136.5369176543981
 20
379.8881113255982
 30
0.0
 10
136.5556286799697
 20
379.9941081376441
 30
0.0
  0
SPLINE
  5
1DA
330
6C
100
AcDbEntity
  8
Sichtbare Kanten(DIN)
100
AcDbSpline
210
0.0
220
0.0
230
1.0
 70
     8
 71
     3
 72
    10
 73
     6
 74
     0
 42
0.0000000001
 43
0.0000000001
 40
0.0
 40
0.0
 40
0.0
 40
0.0
 40
0.0011976530204216
 40
0.0024246863521629
 40
0.0037634452255878
 40
0.0037634452255878
 40
0.0037634452255878
 40
0.0037634452255878
 10
136.3477205435764
 20
378.7320492549944
 30
0.0
 10
136.3454319422987
 20
378.7353495043511
 30
0.0
 10
136.3407985967562
 20
378.7420309633694
 30
0.0
 10
136.3377907932005
 20
378.7545716820774
 30
0.0
 10
136.3386612197521
 20
378.7631156131242
 30
0.0
 10
136.3391153840711
 20
378.7675735982562
 30
0.0
  0
SPLINE
  5
1DB
330
6C
100
AcDbEntity
  8
Sichtbare Kanten(DIN)
100
AcDbSpline
210
0.0
220
0.0
230
1.0
 70
     8
 71
     3
 72
    10
 73
     6
 74
     0
 42
0.0000000001
 43
0.0000000001
 40
0.0
 40
0.0
 40
0.0
 40
0.0
 40
0.001333598620728
 40
0.0025607713672858
 40
0.0037563435304862
 40
0.0037563435304862
 40
0.0037563435304862
 40
0.0037563435304862
 10
136.3811310106988
 20
378.7173830700985
 30
0.0
 10
136.3766801015567
 20
378.7177182123627
 30
0.0
 10
136.3681334815225
 20
378.718361751356
 30
0.0
 10
136.3563336958284
 20
378.723503626121
 30
0.0
 10
136.3505665199964
 20
378.7292255897953
 30
0.0
 10
136.3477205435764
 20
378.7320492549944
 30
0.0
  0
LINE
  5
1DC
330
6C
100
AcDbEntity
  8
Sichtbare Kanten(DIN)
100
AcDbLine
 10
136.8507108235244
 20
378.7173830700985
 30
0.0
 11
136.3811310106988
 21
378.7173830700985
 31
0.0
  0
SPLINE
  5
1DD
330
6C
100
AcDbEntity
  8
Sichtbare Kanten(DIN)
100
AcDbSpline
210
0.0
220
0.0
230
1.0
 70
     8
 71
     3
 72
    10
 73
     6
 74
     0
 42
0.0000000001
 43
0.0000000001
 40
0.0
 40
0.0
 40
0.0
 40
0.0
 40
0.0028844083957318
 40
0.0058603573834216
 40
0.0087307227917567
 40
0.0087307227917567
 40
0.0087307227917567
 40
0.0087307227917567
 10
136.9132291780166
 20
378.7698371293434
 30
0.0
 10
136.9100305627325
 20
378.7606533897128
 30
0.0
 10
136.9035318197927
 20
378.7419944520843
 30
0.0
 10
136.8797378509624
 20
378.7220192848583
 30
0.0
 10
136.860269299611
 20
378.7189097558059
 30
0.0
 10
136.8507108235244
 20
378.7173830700985
 30
0.0
  0
SPLINE
  5
1DE
330
6C
100
AcDbEntity
  8
Sichtbare Kanten(DIN)
100
AcDbSpline
210
0.0
220
0.0
230
1.0
 70
    24
 71
     3
 72
    10
 73
     6
 74
     0
 42
0.0000000001
 43
0.0000000001
 40
0.0
 40
0.0
 40
0.0
 40
0.0
 40
0.032230534773606
 40
0.0920872422103222
 40
0.1243177769839368
 40
0.1243177769839368
 40
0.1243177769839368
 40
0.1243177769839368
 10
137.1292186815975
 20
379.9941081376441
 30
0.0
 10
137.1105529220288
 20
379.8883069393959
 30
0.0
 10
137.0572221804041
 20
379.5860178015438
 30
0.0
 10
136.9852256792103
 20
379.1779274654436
 30
0.0
 10
136.9318949375854
 20
378.8756383275916
 30
0.0
 10
136.9132291780166
 20
378.7698371293434
 30
0.0
  0
SPLINE
  5
1DF
330
6C
100
AcDbEntity
  8
Sichtbare Kanten(DIN)
100
AcDbSpline
210
0.0
220
0.0
230
1.0
 70
     8
 71
     3
 72
    10
 73
     6
 74
     0
 42
0.0000000001
 43
0.0000000001
 40
0.0
 40
0.0
 40
0.0
 40
0.0
 40
0.007025532154117
 40
0.0240955647597705
 40
0.0341175880348639
 40
0.0341175880348639
 40
0.0341175880348639
 40
0.0341175880348639
 10
137.4703945491105
 20
379.9942016719864
 30
0.0
 10
137.4469761093475
 20
379.9941957389527
 30
0.0
 10
137.3666575627231
 20
379.9941753903448
 30
0.0
 10
137.2529322739086
 20
379.9941428596326
 30
0.0
 10
137.1626254245314
 20
379.9941175137241
 30
0.0
 10
137.1292186815975
 20
379.9941081376441
 30
0.0
  0
SPLINE
  5
1E0
330
6C
100
AcDbEntity
  8
Sichtbare Kanten(DIN)
100
AcDbSpline
210
0.0
220
0.0
230
1.0
 70
     8
 71
     3
 72
    10
 73
     6
 74
     0
 42
0.0000000001
 43
0.0000000001
 40
0.0
 40
0.0
 40
0.0
 40
0.0
 40
0.0080931847187834
 40
0.0290081092340624
 40
0.0385526703223027
 40
0.0385526703223027
 40
0.0385526703223027
 40
0.0385526703223027
 10
137.5403208235247
 20
380.3733337756649
 30
0.0
 10
137.5354357115935
 20
380.3468024836695
 30
0.0
 10
137.5179261816068
 20
380.2517073334824
 30
0.0
 10
137.4946002715996
 20
380.125333124671
 30
0.0
 10
137.4761697897696
 20
380.0254883108204
 30
0.0
 10
137.4703945491105
 20
379.9942016719864
 30
0.0
  0
SPLINE
  5
1E1
330
6C
100
AcDbEntity
  8
Sichtbare Kanten(DIN)
100
AcDbSpline
210
0.0
220
0.0
230
1.0
 70
     8
 71
     3
 72
    10
 73
     6
 74
     0
 42
0.0000000001
 43
0.0000000001
 40
0.0
 40
0.0
 40
0.0
 40
0.0
 40
0.0085944900037735
 40
0.0248371795447296
 40
0.0344168979205083
 40
0.0344168979205083
 40
0.0344168979205083
 40
0.0344168979205083
 10
137.1961518570532
 20
380.3734273100074
 30
0.0
 10
137.224800155929
 20
380.3734192417021
 30
0.0
 10
137.3075907511262
 20
380.3733959251416
 30
0.0
 10
137.4223137395186
 20
380.3733630977355
 30
0.0
 10
137.5083884299225
 20
380.3733417101369
 30
0.0
 10
137.5403208235247
 20
380.3733337756649
 30
0.0
  0
SPLINE
  5
1E2
330
6C
100
AcDbEntity
  8
Sichtbare Kanten(DIN)
100
AcDbSpline
210
0.0
220
0.0
230
1.0
 70
    24
 71
     3
 72
    10
 73
     6
 74
     0
 42
0.0000000001
 43
0.0000000001
 40
0.0
 40
0.0
 40
0.0
 40
0.0
 40
0.01823262473728
 40
0.0520932135351037
 40
0.0703258382723975
 40
0.0703258382723975
 40
0.0703258382723975
 40
0.0703258382723975
 10
137.3185321907121
 20
381.0659555814916
 30
0.0
 10
137.3079561124948
 20
381.0061074592647
 30
0.0
 10
137.2777387461594
 20
380.8351128243302
 30
0.0
 10
137.2369453016071
 20
380.6042700671687
 30
0.0
 10
137.2067279352709
 20
380.4332754322343
 30
0.0
 10
137.1961518570532
 20
380.3734273100074
 30
0.0
  0
SPLINE
  5
1E3
330
6C
100
AcDbEntity
  8
Sichtbare Kanten(DIN)
100
AcDbSpline
210
0.0
220
0.0
230
1.0
 70
     8
 71
     3
 72
    13
 73
     9
 74
     0
 42
0.0000000001
 43
0.0000000001
 40
0.0
 40
0.0
 40
0.0
 40
0.0
 40
0.0009153978121003
 40
0.0018355697935994
 40
0.0028013554832508
 40
0.0031524452850534
 40
0.003455477833526
 40
0.0037685661646163
 40
0.0037685661646163
 40
0.0037685661646163
 40
0.0037685661646163
 10
137.3099270312068
 20
381.1014799247534
 30
0.0
 10
137.3117304154281
 20
381.0990008752698
 30
0.0
 10
137.315346589248
 20
381.0940298470582
 30
0.0
 10
137.3184405218537
 20
381.0850879788014
 30
0.0
 10
137.3193623522846
 20
381.0776381944828
 30
0.0
 10
137.3192471395706
 20
381.0722358969162
 30
0.0
 10
137.3189879333486
 20
381.0690199728952
 30
0.0
 10
137.3186857489204
 20
381.0669880994428
 30
0.0
 10
137.3185321907121
 20
381.0659555814916
 30
0.0
  0
SPLINE
  5
1E4
330
6C
100
AcDbEntity
  8
Sichtbare Kanten(DIN)
100
AcDbSpline
210
0.0
220
0.0
230
1.0
 70
     8
 71
     3
 72
    10
 73
     6
 74
     0
 42
0.0000000001
 43
0.0000000001
 40
0.0
 40
0.0
 40
0.0
 40
0.0
 40
0.0013465252378661
 40
0.0025793660544426
 40
0.0037763129624143
 40
0.0037763129624143
 40
0.0037763129624143
 40
0.0037763129624143
 10
137.2763294953996
 20
381.1161835233861
 30
0.0
 10
137.2808233468125
 20
381.1158489143906
 30
0.0
 10
137.2894316427898
 20
381.1152079467644
 30
0.0
 10
137.3013071382406
 20
381.1100620153681
 30
0.0
 10
137.3070821706701
 20
381.1043123092166
 30
0.0
 10
137.3099270312068
 20
381.1014799247534
 30
0.0
  0
LINE
  5
1E5
330
6C
100
AcDbEntity
  8
Sichtbare Kanten(DIN)
100
AcDbLine
 10
136.8069367512588
 20
381.1161835233861
 30
0.0
 11
137.2763294953996
 21
381.1161835233861
 31
0.0
  0
SPLINE
  5
1E6
330
6C
100
AcDbEntity
  8
Sichtbare Kanten(DIN)
100
AcDbSpline
210
0.0
220
0.0
230
1.0
 70
     8
 71
     3
 72
    10
 73
     6
 74
     0
 42
0.0000000001
 43
0.0000000001
 40
0.0
 40
0.0
 40
0.0
 40
0.0
 40
0.0028803210317032
 40
0.0058519686951348
 40
0.0087369137882425
 40
0.0087369137882425
 40
0.0087369137882425
 40
0.0087369137882425
 10
136.7444183967666
 20
381.0637294641415
 30
0.0
 10
136.7475774683836
 20
381.0729151900068
 30
0.0
 10
136.7539957766224
 20
381.091577894481
 30
0.0
 10
136.7778186960467
 20
381.1115737460124
 30
0.0
 10
136.7973270015844
 20
381.114662171555
 30
0.0
 10
136.8069367512588
 20
381.1161835233861
 30
0.0
  0
SPLINE
  5
1E7
330
6C
100
AcDbEntity
  8
Sichtbare Kanten(DIN)
100
AcDbSpline
210
0.0
220
0.0
230
1.0
 70
     8
 71
     3
 72
    10
 73
     6
 74
     0
 42
0.0000000001
 43
0.0000000001
 40
0.0
 40
0.0
 40
0.0
 40
0.0
 40
0.0252654322997127
 40
0.0957656423607562
 40
0.1376601168577756
 40
0.1376601168577756
 40
0.1376601168577756
 40
0.1376601168577756
 10
137.6831290575741
 20
380.3729970520322
 30
0.0
 10
137.7673471576099
 20
380.3730329022535
 30
0.0
 10
138.0865659365589
 20
380.3731687882912
 30
0.0
 10
138.5454329483204
 20
380.3733707515213
 30
0.0
 10
138.9200818610177
 20
380.3735345987196
 30
0.0
 10
139.0597300959859
 20
380.3735956718238
 30
0.0
  0
SPLINE
  5
1E8
330
6C
100
AcDbEntity
  8
Sichtbare Kanten(DIN)
100
AcDbSpline
210
0.0
220
0.0
230
1.0
 70
     8
 71
     3
 72
    10
 73
     6
 74
     0
 42
0.0000000001
 43
0.0000000001
 40
0.0
 40
0.0
 40
0.0
 40
0.0
 40
0.0094349795884234
 40
0.0310155613435569
 40
0.0385705843723002
 40
0.0385705843723002
 40
0.0385705843723002
 40
0.0385705843723002
 10
137.613127955686
 20
379.9936965865374
 30
0.0
 10
137.6188344088364
 20
380.0246244803217
 30
0.0
 10
137.6375932038161
 20
380.1262935913045
 30
0.0
 10
137.6609479785881
 20
380.252723190841
 30
0.0
 10
137.6785617178328
 20
380.3482312781757
 30
0.0
 10
137.6831290575741
 20
380.3729970520322
 30
0.0
  0
SPLINE
  5
1E9
330
6C
100
AcDbEntity
  8
Sichtbare Kanten(DIN)
100
AcDbSpline
210
0.0
220
0.0
230
1.0
 70
     8
 71
     3
 72
    10
 73
     6
 74
     0
 42
0.0000000001
 43
0.0000000001
 40
0.0
 40
0.0
 40
0.0
 40
0.0
 40
0.0205201904550208
 40
0.0589191614668968
 40
0.0804545125807215
 40
0.0804545125807215
 40
0.0804545125807215
 40
0.0804545125807215
 10
138.4176729556863
 20
379.9941455513812
 30
0.0
 10
138.3492723304097
 20
379.9941093917062
 30
0.0
 10
138.1528751530081
 20
379.9940055672446
 30
0.0
 10
137.8846934790666
 20
379.9938682398042
 30
0.0
 10
137.6849124451024
 20
379.9937419606406
 30
0.0
 10
137.613127955686
 20
379.9936965865374
 30
0.0
  0
SPLINE
  5
1EA
330
6C
100
AcDbEntity
  8
Sichtbare Kanten(DIN)
100
AcDbSpline
210
0.0
220
0.0
230
1.0
 70
     8
 71
     3
 72
    10
 73
     6
 74
     0
 42
0.0000000001
 43
0.0000000001
 40
0.0
 40
0.0
 40
0.0
 40
0.0
 40
0.0002275952143901
 40
0.0269132959685941
 40
0.119668433366708
 40
0.119668433366708
 40
0.119668433366708
 40
0.119668433366708
 10
137.5106517301001
 20
379.2135266361793
 30
0.0
 10
137.5112267201566
 20
379.2140215476276
 30
0.0
 10
137.5792197032781
 20
379.2725451783783
 30
0.0
 10
137.88156688028
 20
379.5327436194573
 30
0.0
 10
138.183330185729
 20
379.7924574680877
 30
0.0
 10
138.4176729556863
 20
379.9941455513812
 30
0.0
  0
SPLINE
  5
1EB
330
6C
100
AcDbEntity
  8
Sichtbare Kanten(DIN)
100
AcDbSpline
210
0.0
220
0.0
230
1.0
 70
     8
 71
     3
 72
    10
 73
     6
 74
     0
 42
0.0000000001
 43
0.0000000001
 40
0.0
 40
0.0
 40
0.0
 40
0.0
 40
0.0054675832229396
 40
0.0103154944328552
 40
0.0116913853705737
 40
0.0116913853705737
 40
0.0116913853705737
 40
0.0116913853705737
 10
137.4270694416886
 20
379.1319833964331
 30
0.0
 10
137.4391794579925
 20
379.1456230240175
 30
0.0
 10
137.4620269942204
 20
379.1713564233414
 30
0.0
 10
137.4911640834613
 20
379.197345555069
 30
0.0
 10
137.5071235775673
 20
379.2105971227619
 30
0.0
 10
137.5106517301001
 20
379.2135266361793
 30
0.0
  0
SPLINE
  5
1EC
330
6C
100
AcDbEntity
  8
Sichtbare Kanten(DIN)
100
AcDbSpline
210
0.0
220
0.0
230
1.0
 70
     8
 71
     3
 72
    10
 73
     6
 74
     0
 42
0.0000000001
 43
0.0000000001
 40
0.0
 40
0.0
 40
0.0
 40
0.0
 40
0.0010828037756282
 40
0.0051618292639196
 40
0.0124807175523066
 40
0.0124807175523066
 40
0.0124807175523066
 40
0.0124807175523066
 10
137.3719590071184
 20
379.0211077868954
 30
0.0
 10
137.3726338013807
 20
379.0246543960944
 30
0.0
 10
137.3758506102324
 20
379.0415614216914
 30
0.0
 10
137.3909469918965
 20
379.0808513977784
 30
0.0
 10
137.412944369798
 20
379.111989094799
 30
0.0
 10
137.4270694416886
 20
379.1319833964331
 30
0.0
  0
SPLINE
  5
1ED
330
6C
100
AcDbEntity
  8
Sichtbare Kanten(DIN)
100
AcDbSpline
210
0.0
220
0.0
230
1.0
 70
     8
 71
     3
 72
    10
 73
     6
 74
     0
 42
0.0000000001
 43
0.0000000001
 40
0.0
 40
0.0
 40
0.0
 40
0.0
 40
0.0001658613014847
 40
0.0110630104919118
 40
0.0255781303280148
 40
0.0255781303280148
 40
0.0255781303280148
 40
0.0255781303280148
 10
137.3252292496313
 20
378.76963135379
 30
0.0
 10
137.3253324928701
 20
378.7701744994616
 30
0.0
 10
137.3322188552957
 20
378.8064025177539
 30
0.0
 10
137.3475947631645
 20
378.8902657737048
 30
0.0
 10
137.3631016805869
 20
378.9735417537748
 30
0.0
 10
137.3719590071184
 20
379.0211077868954
 30
0.0
  0
SPLINE
  5
1EE
330
6C
100
AcDbEntity
  8
Sichtbare Kanten(DIN)
100
AcDbSpline
210
0.0
220
0.0
230
1.0
 70
     8
 71
     3
 72
    10
 73
     6
 74
     0
 42
0.0000000001
 43
0.0000000001
 40
0.0
 40
0.0
 40
0.0
 40
0.0
 40
0.0002977292952415
 40
0.0005190836881997
 40
0.0006010848843524
 40
0.0006010848843524
 40
0.0006010848843524
 40
0.0006010848843524
 10
137.3248176985245
 20
378.7636638627418
 30
0.0
 10
137.324754245187
 20
378.7646566063683
 30
0.0
 10
137.3246436158571
 20
378.7663874304135
 30
0.0
 10
137.3249191172874
 20
378.768384988901
 30
0.0
 10
137.3251632556638
 20
378.769366136164
 30
0.0
 10
137.3252292496313
 20
378.76963135379
 30
0.0
  0
SPLINE
  5
1EF
330
6C
100
AcDbEntity
  8
Sichtbare Kanten(DIN)
100
AcDbSpline
210
0.0
220
0.0
230
1.0
 70
     8
 71
     3
 72
    10
 73
     6
 74
     0
 42
0.0000000001
 43
0.0000000001
 40
0.0
 40
0.0
 40
0.0
 40
0.0
 40
0.0011286606721416
 40
0.002294076950591
 40
0.0035590350523293
 40
0.0035590350523293
 40
0.0035590350523293
 40
0.0035590350523293
 10
137.3350316487198
 20
378.7305339986467
 30
0.0
 10
137.3327433575695
 20
378.7335460771424
 30
0.0
 10
137.3280922555033
 20
378.7396683245288
 30
0.0
 10
137.32454692102
 20
378.7513051493958
 30
0.0
 10
137.3247250080292
 20
378.7594333220122
 30
0.0
 10
137.3248176985245
 20
378.7636638627418
 30
0.0
  0
SPLINE
  5
1F0
330
6C
100
AcDbEntity
  8
Sichtbare Kanten(DIN)
100
AcDbSpline
210
0.0
220
0.0
230
1.0
 70
     8
 71
     3
 72
    10
 73
     6
 74
     0
 42
0.0000000001
 43
0.0000000001
 40
0.0
 40
0.0
 40
0.0
 40
0.0
 40
0.0012501309451582
 40
0.0024010038050734
 40
0.0035125844605085
 40
0.0035125844605085
 40
0.0035125844605085
 40
0.0035125844605085
 10
137.3666088427302
 20
378.7173830700985
 30
0.0
 10
137.362437613322
 20
378.7176845099056
 30
0.0
 10
137.3544263424073
 20
378.7182634557565
 30
0.0
 10
137.3433253913459
 20
378.722846300413
 30
0.0
 10
137.3377640347591
 20
378.7280012748482
 30
0.0
 10
137.3350316487198
 20
378.7305339986467
 30
0.0
  0
LINE
  5
1F1
330
6C
100
AcDbEntity
  8
Sichtbare Kanten(DIN)
100
AcDbLine
 10
138.7256254247618
 20
378.7173830700985
 30
0.0
 11
137.3666088427302
 21
378.7173830700985
 31
0.0
  0
SPLINE
  5
1F2
330
6C
100
AcDbEntity
  8
Sichtbare Kanten(DIN)
100
AcDbSpline
210
0.0
220
0.0
230
1.0
 70
     8
 71
     3
 72
    10
 73
     6
 74
     0
 42
0.0000000001
 43
0.0000000001
 40
0.0
 40
0.0
 40
0.0
 40
0.0
 40
0.0057504749587652
 40
0.0123008629642521
 40
0.0210879509398243
 40
0.0210879509398243
 40
0.0210879509398243
 40
0.0210879509398243
 10
138.8961572379129
 20
378.8161179219866
 30
0.0
 10
138.8883013183178
 20
378.7981759270362
 30
0.0
 10
138.8714966906844
 20
378.7597961370587
 30
0.0
 10
138.8061144713708
 20
378.7232399347534
 30
0.0
 10
138.7549426109665
 20
378.7195163639925
 30
0.0
 10
138.7256254247618
 20
378.7173830700985
 30
0.0
  0
SPLINE
  5
1F3
330
6C
100
AcDbEntity
  8
Sichtbare Kanten(DIN)
100
AcDbSpline
210
0.0
220
0.0
230
1.0
 70
     8
 71
     3
 72
    10
 73
     6
 74
     0
 42
0.0000000001
 43
0.0000000001
 40
0.0
 40
0.0
 40
0.0
 40
0.0
 40
0.0000230670853746
 40
0.0001617868674105
 40
0.0267802765649739
 40
0.0267802765649739
 40
0.0267802765649739
 40
0.0267802765649739
 10
138.9416149283427
 20
379.0800344226377
 30
0.0
 10
138.9416020386307
 20
379.0799586204463
 30
0.0
 10
138.9415116333587
 20
379.0794269625064
 30
0.0
 10
138.926347413683
 20
378.9914567402322
 30
0.0
 10
138.9112130946996
 20
378.9035594843268
 30
0.0
 10
138.8961572379129
 20
378.8161179219866
 30
0.0
  0
SPLINE
  5
1F4
330
6C
100
AcDbEntity
  8
Sichtbare Kanten(DIN)
100
AcDbSpline
210
0.0
220
0.0
230
1.0
 70
     8
 71
     3
 72
    10
 73
     6
 74
     0
 42
0.0000000001
 43
0.0000000001
 40
0.0
 40
0.0
 40
0.0
 40
0.0
 40
0.0011946223348505
 40
0.0024222120206545
 40
0.0037637332807481
 40
0.0037637332807481
 40
0.0037637332807481
 40
0.0037637332807481
 10
138.9330097688375
 20
379.1155587658994
 30
0.0
 10
138.9352966449203
 20
379.1122694001661
 30
0.0
 10
138.939933506777
 20
379.1055998938398
 30
0.0
 10
138.9429391267496
 20
379.0930562741812
 30
0.0
 10
138.9420691874553
 20
379.0845014984892
 30
0.0
 10
138.9416149283427
 20
379.0800344226377
 30
0.0
  0
SPLINE
  5
1F5
330
6C
100
AcDbEntity
  8
Sichtbare Kanten(DIN)
100
AcDbSpline
210
0.0
220
0.0
230
1.0
 70
     8
 71
     3
 72
    10
 73
     6
 74
     0
 42
0.0000000001
 43
0.0000000001
 40
0.0
 40
0.0
 40
0.0
 40
0.0
 40
0.001341913433986
 40
0.0025693141130197
 40
0.0037660789080783
 40
0.0037660789080783
 40
0.0037660789080783
 40
0.0037660789080783
 10
138.8994870605041
 20
379.1302062439267
 30
0.0
 10
138.9039661331632
 20
379.1298737693785
 30
0.0
 10
138.9125420549067
 20
379.1292371921393
 30
0.0
 10
138.92437815651
 20
379.1240985252699
 30
0.0
 10
138.930156908111
 20
379.1183812680226
 30
0.0
 10
138.9330097688375
 20
379.1155587658994
 30
0.0
  0
LINE
  5
1F6
330
6C
100
AcDbEntity
  8
Sichtbare Kanten(DIN)
100
AcDbLine
 10
138.087459313108
 20
379.1302062439267
 30
0.0
 11
138.8994870605041
 21
379.1302062439267
 31
0.0
  0
SPLINE
  5
1F7
330
6C
100
AcDbEntity
  8
Sichtbare Kanten(DIN)
100
AcDbSpline
210
0.0
220
0.0
230
1.0
 70
     8
 71
     3
 72
    10
 73
     6
 74
     0
 42
0.0000000001
 43
0.0000000001
 40
0.0
 40
0.0
 40
0.0
 40
0.0
 40
0.0001524481033983
 40
0.0078441775005182
 40
0.1133354817741845
 40
0.1133354817741845
 40
0.1133354817741845
 40
0.1133354817741845
 10
138.9293058088765
 20
379.8890129504696
 30
0.0
 10
138.9289280054327
 20
379.8886731100719
 30
0.0
 10
138.9094882275174
 20
379.8711867108215
 30
0.0
 10
138.6289678962001
 20
379.6181454151386
 30
0.0
 10
138.3486899963366
 20
379.3655943560445
 30
0.0
 10
138.087459313108
 20
379.1302062439267
 30
0.0
  0
SPLINE
  5
1F8
330
6C
100
AcDbEntity
  8
Sichtbare Kanten(DIN)
100
AcDbSpline
210
0.0
220
0.0
230
1.0
 70
     8
 71
     3
 72
    10
 73
     6
 74
     0
 42
0.0000000001
 43
0.0000000001
 40
0.0
 40
0.0
 40
0.0
 40
0.0
 40
0.0058095501940475
 40
0.013282127799746
 40
0.016393557708652
 40
0.016393557708652
 40
0.016393557708652
 40
0.016393557708652
 10
139.0378430598531
 20
380.0107759574684
 30
0.0
 10
139.0275189059888
 20
379.9943164401798
 30
0.0
 10
139.0039152316131
 20
379.9566857450579
 30
0.0
 10
138.9636963486401
 20
379.9189723572415
 30
0.0
 10
138.9371189039019
 20
379.8958193482064
 30
0.0
 10
138.9293058088765
 20
379.8890129504696
 30
0.0
  0
SPLINE
  5
1F9
330
6C
100
AcDbEntity
  8
Sichtbare Kanten(DIN)
100
AcDbSpline
210
0.0
220
0.0
230
1.0
 70
     8
 71
     3
 72
    10
 73
     6
 74
     0
 42
0.0000000001
 43
0.0000000001
 40
0.0
 40
0.0
 40
0.0
 40
0.0
 40
0.0002284761255056
 40
0.0022376449997324
 40
0.0072479849988254
 40
0.0072479849988254
 40
0.0072479849988254
 40
0.0072479849988254
 10
139.0603287157776
 20
380.0795611129045
 30
0.0
 10
139.0602034333384
 20
380.0788098683552
 30
0.0
 10
139.0589764446414
 20
380.0714523442138
 30
0.0
 10
139.052794703051
 20
380.048022710429
 30
0.0
 10
139.0440703048303
 20
380.0262889450523
 30
0.0
 10
139.0378430598531
 20
380.0107759574684
 30
0.0
  0
SPLINE
  5
1FA
330
6C
100
AcDbEntity
  8
Sichtbare Kanten(DIN)
100
AcDbSpline
210
0.0
220
0.0
230
1.0
 70
    24
 71
     3
 72
    10
 73
     6
 74
     0
 42
0.0000000001
 43
0.0000000001
 40
0.0
 40
0.0
 40
0.0
 40
0.0
 40
0.0064119561058984
 40
0.0183198745882629
 40
0.0247318306941419
 40
0.0247318306941419
 40
0.0247318306941419
 40
0.0247318306941419
 10
139.1018579638245
 20
380.3233677299292
 30
0.0
 10
139.0982690164624
 20
380.3022980222851
 30
0.0
 10
139.0880148811423
 20
380.2420988575875
 30
0.0
 10
139.07417179846
 20
380.160829985246
 30
0.0
 10
139.0639176631397
 20
380.1006308205485
 30
0.0
 10
139.0603287157776
 20
380.0795611129045
 30
0.0
  0
SPLINE
  5
1FB
330
6C
100
AcDbEntity
  8
Sichtbare Kanten(DIN)
100
AcDbSpline
210
0.0
220
0.0
230
1.0
 70
     8
 71
     3
 72
    10
 73
     6
 74
     0
 42
0.0000000001
 43
0.0000000001
 40
0.0
 40
0.0
 40
0.0
 40
0.0
 40
0.0011917736229547
 40
0.0024172950002033
 40
0.0037576555674694
 40
0.0037576555674694
 40
0.0037576555674694
 40
0.0037576555674694
 10
139.0933276317932
 20
380.358854659454
 30
0.0
 10
139.0956014549666
 20
380.3555678583454
 30
0.0
 10
139.1002134897376
 20
380.3489011829521
 30
0.0
 10
139.1031889818072
 20
380.3363734254237
 30
0.0
 10
139.1023146799687
 20
380.3278304127601
 30
0.0
 10
139.1018579638245
 20
380.3233677299292
 30
0.0
  0
SPLINE
  5
1FC
330
6C
100
AcDbEntity
  8
Sichtbare Kanten(DIN)
100
AcDbSpline
210
0.0
220
0.0
230
1.0
 70
     8
 71
     3
 72
    10
 73
     6
 74
     0
 42
0.0000000001
 43
0.0000000001
 40
0.0
 40
0.0
 40
0.0
 40
0.0
 40
0.0013485889265994
 40
0.0025802332752698
 40
0.0037787163775132
 40
0.0037787163775132
 40
0.0037787163775132
 40
0.0037787163775132
 10
139.0597300959859
 20
380.3735956718238
 30
0.0
 10
139.0642311707189
 20
380.3732619478389
 30
0.0
 10
139.0728430038517
 20
380.3726234391625
 30
0.0
 10
139.0847225766709
 20
380.3674615378358
 30
0.0
 10
139.0904854934577
 20
380.3616973999885
 30
0.0
 10
139.0933276317932
 20
380.358854659454
 30
0.0
  0
SPLINE
  5
1FD
330
6C
100
AcDbEntity
  8
Sichtbare Kanten(DIN)
100
AcDbSpline
210
0.0
220
0.0
230
1.0
 70
     8
 71
     3
 72
    10
 73
     6
 74
     0
 42
0.0000000001
 43
0.0000000001
 40
0.0
 40
0.0
 40
0.0
 40
0.0
 40
0.0013399459018972
 40
0.0025686710072601
 40
0.0037651661134933
 40
0.0037651661134933
 40
0.0037651661134933
 40
0.0037651661134933
 10
133.3435284122281
 20
378.7173830700985
 30
0.0
 10
133.3390559807878
 20
378.7177192093937
 30
0.0
 10
133.3304823473625
 20
378.7183635870964
 30
0.0
 10
133.3186594877999
 20
378.7235285771022
 30
0.0
 10
133.3128896817139
 20
378.7292593579533
 30
0.0
 10
133.3100431176317
 20
378.7320866687313
 30
0.0
  0
LINE
  5
1FE
330
6C
100
AcDbEntity
  8
Sichtbare Kanten(DIN)
100
AcDbLine
 10
133.8129585701058
 20
378.7173830700985
 30
0.0
 11
133.3435284122281
 21
378.7173830700985
 31
0.0
  0
SPLINE
  5
1FF
330
6C
100
AcDbEntity
  8
Sichtbare Kanten(DIN)
100
AcDbSpline
210
0.0
220
0.0
230
1.0
 70
     8
 71
     3
 72
    10
 73
     6
 74
     0
 42
0.0000000001
 43
0.0000000001
 40
0.0
 40
0.0
 40
0.0
 40
0.0
 40
0.0028807590428653
 40
0.0058547115525478
 40
0.008732446989513
 40
0.008732446989513
 40
0.008732446989513
 40
0.008732446989513
 10
133.8754582177295
 20
378.7698371293434
 30
0.0
 10
133.8722840035953
 20
378.7606565158512
 30
0.0
 10
133.8658328884948
 20
378.7419982931145
 30
0.0
 10
133.8420315496654
 20
378.7220101239595
 30
0.0
 10
133.8225427476466
 20
378.7189084213478
 30
0.0
 10
133.8129585701058
 20
378.7173830700985
 30
0.0
  0
SPLINE
  5
200
330
6C
100
AcDbEntity
  8
Sichtbare Kanten(DIN)
100
AcDbSpline
210
0.0
220
0.0
230
1.0
 70
    24
 71
     3
 72
    10
 73
     6
 74
     0
 42
0.0000000001
 43
0.0000000001
 40
0.0
 40
0.0
 40
0.0
 40
0.0
 40
0.060448951537616
 40
0.1727112901073973
 40
0.233160241644971
 40
0.233160241644971
 40
0.233160241644971
 40
0.233160241644971
 10
134.280686402951
 20
381.0659555814917
 30
0.0
 10
134.2456666832404
 20
380.8675255917998
 30
0.0
 10
134.1456103412102
 20
380.3005827641089
 30
0.0
 10
134.0105342794696
 20
379.5352099467261
 30
0.0
 10
133.9104779374399
 20
378.9682671190352
 30
0.0
 10
133.8754582177295
 20
378.7698371293434
 30
0.0
  0
SPLINE
  5
201
330
6C
100
AcDbEntity
  8
Sichtbare Kanten(DIN)
100
AcDbSpline
210
0.0
220
0.0
230
1.0
 70
     8
 71
     3
 72
    10
 73
     6
 74
     0
 42
0.0000000001
 43
0.0000000001
 40
0.0
 40
0.0
 40
0.0
 40
0.0
 40
0.0012007305691038
 40
0.0024313463641169
 40
0.003774918447834
 40
0.003774918447834
 40
0.003774918447834
 40
0.003774918447834
 10
134.2719877091033
 20
381.1015734590958
 30
0.0
 10
134.2742893876452
 20
381.0982693997957
 30
0.0
 10
134.2789500316717
 20
381.0915790457954
 30
0.0
 10
134.2819809483388
 20
381.0790038671358
 30
0.0
 10
134.281130359462
 20
381.0704304121347
 30
0.0
 10
134.280686402951
 20
381.0659555814917
 30
0.0
  0
SPLINE
  5
202
330
6C
100
AcDbEntity
  8
Sichtbare Kanten(DIN)
100
AcDbSpline
210
0.0
220
0.0
230
1.0
 70
     8
 71
     3
 72
    10
 73
     6
 74
     0
 42
0.0000000001
 43
0.0000000001
 40
0.0
 40
0.0
 40
0.0
 40
0.0
 40
0.0013378495582369
 40
0.0025628632467764
 40
0.0037540210969504
 40
0.0037540210969504
 40
0.0037540210969504
 40
0.0037540210969504
 10
134.2385772419809
 20
381.1161835233861
 30
0.0
 10
134.2430424802962
 20
381.1158503152821
 30
0.0
 10
134.2515963532605
 20
381.1152120022531
 30
0.0
 10
134.2633946655439
 20
381.1100876002342
 30
0.0
 10
134.2691502439902
 20
381.1043848702428
 30
0.0
 10
134.2719877091033
 20
381.1015734590958
 30
0.0
  0
LINE
  5
203
330
6C
100
AcDbEntity
  8
Sichtbare Kanten(DIN)
100
AcDbLine
 10
133.7692032047087
 20
381.1161835233861
 30
0.0
 11
134.2385772419809
 21
381.1161835233861
 31
0.0
  0
SPLINE
  5
204
330
6C
100
AcDbEntity
  8
Sichtbare Kanten(DIN)
100
AcDbSpline
210
0.0
220
0.0
230
1.0
 70
     8
 71
     3
 72
    10
 73
     6
 74
     0
 42
0.0000000001
 43
0.0000000001
 40
0.0
 40
0.0
 40
0.0
 40
0.0
 40
0.002882258243584
 40
0.0058559997166432
 40
0.0087345798676044
 40
0.0087345798676044
 40
0.0087345798676044
 40
0.0087345798676044
 10
133.7066848502164
 20
381.0637294641415
 30
0.0
 10
133.7098586701197
 20
381.072916219677
 30
0.0
 10
133.7163070473584
 20
381.0915813194934
 30
0.0
 10
133.7401249041229
 20
381.1115631449674
 30
0.0
 10
133.7596160828916
 20
381.1146601836501
 30
0.0
 10
133.7692032047087
 20
381.1161835233861
 30
0.0
  0
SPLINE
  5
205
330
6C
100
AcDbEntity
  8
Sichtbare Kanten(DIN)
100
AcDbSpline
210
0.0
220
0.0
230
1.0
 70
    24
 71
     3
 72
    10
 73
     6
 74
     0
 42
0.0000000001
 43
0.0000000001
 40
0.0
 40
0.0
 40
0.0
 40
0.0
 40
0.0604501596472245
 40
0.1727147418492864
 40
0.2331649014965384
 40
0.2331649014965384
 40
0.2331649014965384
 40
0.2331649014965384
 10
133.3014005443895
 20
378.7675735982562
 30
0.0
 10
133.3364251140287
 20
378.9660068212338
 30
0.0
 10
133.4364953129979
 20
379.5329588868846
 30
0.0
 10
133.5715900816072
 20
380.2983441755129
 30
0.0
 10
133.671660280577
 20
380.8652962411637
 30
0.0
 10
133.7066848502164
 20
381.0637294641415
 30
0.0
  0
SPLINE
  5
206
330
6C
100
AcDbEntity
  8
Sichtbare Kanten(DIN)
100
AcDbSpline
210
0.0
220
0.0
230
1.0
 70
     8
 71
     3
 72
    10
 73
     6
 74
     0
 42
0.0000000001
 43
0.0000000001
 40
0.0
 40
0.0
 40
0.0
 40
0.0
 40
0.0011950635321326
 40
0.0024213891508237
 40
0.0037609971570717
 40
0.0037609971570717
 40
0.0037609971570717
 40
0.0037609971570717
 10
133.3100431176317
 20
378.7320866687313
 30
0.0
 10
133.3077511849573
 20
378.7353743994893
 30
0.0
 10
133.3031073641369
 20
378.7420358659084
 30
0.0
 10
133.3000910641259
 20
378.7545673943003
 30
0.0
 10
133.300951390236
 20
378.7631124462328
 30
0.0
 10
133.3014005443895
 20
378.7675735982562
 30
0.0
  0
LINE
  5
207
330
6C
100
AcDbEntity
  8
Sichtbare Kanten(DIN)
100
AcDbLine
 10
132.4254304717531
 20
368.8646877524295
 30
0.0
 11
138.4254304717532
 21
368.8646877524295
 31
0.0
  0
LINE
  5
208
330
6C
100
AcDbEntity
  8
Sichtbare Kanten(DIN)
100
AcDbLine
 10
138.9254304717532
 20
368.8559602199654
 30
0.0
 11
138.9254304717532
 21
368.8210500901089
 31
0.0
  0
LINE
  5
209
330
6C
100
AcDbEntity
  8
Sichtbare Kanten(DIN)
100
AcDbLine
 10
131.9254304717532
 20
368.8210500901089
 30
0.0
 11
131.9254304717532
 21
368.8559602199654
 31
0.0
  0
LINE
  5
20A
330
6C
100
AcDbEntity
  8
Sichtbare tangentiale Kanten(DIN)
100
AcDbLine
 10
121.3851959069796
 20
371.321050090109
 30
0.0
 11
119.3855005166668
 21
371.321050090109
 31
0.0
  0
LINE
  5
20B
330
6C
100
AcDbEntity
  8
Sichtbare tangentiale Kanten(DIN)
100
AcDbLine
 10
121.3851959069796
 20
371.321050090109
 30
0.0
 11
121.3851959069796
 21
438.3210500901087
 31
0.0
  0
LINE
  5
20C
330
6C
100
AcDbEntity
  8
Sichtbare tangentiale Kanten(DIN)
100
AcDbLine
 10
119.3855005166668
 20
438.3210500901087
 30
0.0
 11
121.3851959069796
 21
438.3210500901087
 31
0.0
  0
LINE
  5
20D
330
6C
100
AcDbEntity
  8
Sichtbare tangentiale Kanten(DIN)
100
AcDbLine
 10
119.3855005166668
 20
438.3210500901087
 30
0.0
 11
119.3855005166668
 21
371.321050090109
 31
0.0
  0
LINE
  5
20E
330
6C
100
AcDbEntity
  8
Sichtbare tangentiale Kanten(DIN)
100
AcDbLine
 10
121.6754304717531
 20
371.0308155253354
 30
0.0
 11
121.6754304717531
 21
369.0311201350227
 31
0.0
  0
ARC
  5
20F
330
6C
100
AcDbEntity
  8
Sichtbare tangentiale Kanten(DIN)
100
AcDbCircle
 10
121.6754304717531
 20
371.321050090109
 30
0.0
 40
0.2902345647735776
100
AcDbArc
 50
180.0
 51
270.0
  0
ARC
  5
210
330
6C
100
AcDbEntity
  8
Sichtbare tangentiale Kanten(DIN)
100
AcDbCircle
 10
121.6754304717531
 20
371.321050090109
 30
0.0
 40
2.289929955086372
100
AcDbArc
 50
180.0
 51
269.9999999999995
  0
LINE
  5
211
330
6C
100
AcDbEntity
  8
Sichtbare tangentiale Kanten(DIN)
100
AcDbLine
 10
121.6754304717532
 20
440.6109800451951
 30
0.0
 11
121.6754304717532
 21
438.6112846548825
 31
0.0
  0
ARC
  5
212
330
6C
100
AcDbEntity
  8
Sichtbare tangentiale Kanten(DIN)
100
AcDbCircle
 10
121.6754304717532
 20
438.3210500901087
 30
0.0
 40
2.289929955086372
100
AcDbArc
 50
89.99999999999955
 51
180.0
  0
ARC
  5
213
330
6C
100
AcDbEntity
  8
Sichtbare tangentiale Kanten(DIN)
100
AcDbCircle
 10
121.6754304717532
 20
438.3210500901087
 30
0.0
 40
0.2902345647735776
100
AcDbArc
 50
90.0
 51
180.0
  0
LINE
  5
214
330
6C
100
AcDbEntity
  8
Sichtbare tangentiale Kanten(DIN)
100
AcDbLine
 10
149.1754304717532
 20
371.0308155253354
 30
0.0
 11
149.1754304717532
 21
369.0311201350227
 31
0.0
  0
LINE
  5
215
330
6C
100
AcDbEntity
  8
Sichtbare tangentiale Kanten(DIN)
100
AcDbLine
 10
149.1754304717532
 20
371.0308155253354
 30
0.0
 11
121.6754304717531
 21
371.0308155253354
 31
0.0
  0
LINE
  5
216
330
6C
100
AcDbEntity
  8
Sichtbare tangentiale Kanten(DIN)
100
AcDbLine
 10
121.6754304717531
 20
369.0311201350227
 30
0.0
 11
149.1754304717532
 21
369.0311201350227
 31
0.0
  0
LINE
  5
217
330
6C
100
AcDbEntity
  8
Sichtbare tangentiale Kanten(DIN)
100
AcDbLine
 10
149.1754304717533
 20
440.6109800451951
 30
0.0
 11
149.1754304717533
 21
438.6112846548823
 31
0.0
  0
LINE
  5
218
330
6C
100
AcDbEntity
  8
Sichtbare tangentiale Kanten(DIN)
100
AcDbLine
 10
149.1754304717533
 20
440.6109800451951
 30
0.0
 11
121.6754304717532
 21
440.6109800451951
 31
0.0
  0
LINE
  5
219
330
6C
100
AcDbEntity
  8
Sichtbare tangentiale Kanten(DIN)
100
AcDbLine
 10
121.6754304717532
 20
438.6112846548825
 30
0.0
 11
149.1754304717533
 21
438.6112846548823
 31
0.0
  0
LINE
  5
21A
330
6C
100
AcDbEntity
  8
Sichtbare tangentiale Kanten(DIN)
100
AcDbLine
 10
149.4656650365268
 20
371.321050090109
 30
0.0
 11
151.4653604268396
 21
371.321050090109
 31
0.0
  0
ARC
  5
21B
330
6C
100
AcDbEntity
  8
Sichtbare tangentiale Kanten(DIN)
100
AcDbCircle
 10
149.1754304717532
 20
371.321050090109
 30
0.0
 40
0.2902345647735776
100
AcDbArc
 50
270.0
 51
0.0
  0
ARC
  5
21C
330
6C
100
AcDbEntity
  8
Sichtbare tangentiale Kanten(DIN)
100
AcDbCircle
 10
149.1754304717532
 20
371.321050090109
 30
0.0
 40
2.289929955086372
100
AcDbArc
 50
269.9999999999995
 51
0.0
  0
LINE
  5
21D
330
6C
100
AcDbEntity
  8
Sichtbare tangentiale Kanten(DIN)
100
AcDbLine
 10
151.4653604268396
 20
438.3210500901087
 30
0.0
 11
149.4656650365269
 21
438.3210500901087
 31
0.0
  0
ARC
  5
21E
330
6C
100
AcDbEntity
  8
Sichtbare tangentiale Kanten(DIN)
100
AcDbCircle
 10
149.1754304717533
 20
438.3210500901087
 30
0.0
 40
2.289929955086372
100
AcDbArc
 50
0.0
 51
89.99999999999955
  0
ARC
  5
21F
330
6C
100
AcDbEntity
  8
Sichtbare tangentiale Kanten(DIN)
100
AcDbCircle
 10
149.1754304717533
 20
438.3210500901087
 30
0.0
 40
0.2902345647735776
100
AcDbArc
 50
0.0
 51
90.0
  0
LINE
  5
220
330
6C
100
AcDbEntity
  8
Sichtbare tangentiale Kanten(DIN)
100
AcDbLine
 10
151.4653604268396
 20
371.321050090109
 30
0.0
 11
151.4653604268396
 21
394.8210500901089
 31
0.0
  0
LINE
  5
221
330
6C
100
AcDbEntity
  8
Sichtbare tangentiale Kanten(DIN)
100
AcDbLine
 10
151.4653604268396
 20
414.8210500901089
 30
0.0
 11
151.4653604268396
 21
438.3210500901087
 31
0.0
  0
LINE
  5
222
330
6C
100
AcDbEntity
  8
Sichtbare tangentiale Kanten(DIN)
100
AcDbLine
 10
149.4656650365269
 20
438.3210500901087
 30
0.0
 11
149.4656650365268
 21
414.8210500901089
 31
0.0
  0
LINE
  5
223
330
6C
100
AcDbEntity
  8
Sichtbare tangentiale Kanten(DIN)
100
AcDbLine
 10
149.4656650365268
 20
394.8210500901089
 30
0.0
 11
149.4656650365268
 21
371.321050090109
 31
0.0
  0
LINE
  5
224
330
6C
100
AcDbEntity
  8
Sichtbare tangentiale Kanten(DIN)
100
AcDbLine
 10
149.1754304717532
 20
368.8210500901089
 30
0.0
 11
149.1754304717532
 21
369.0311201350227
 31
0.0
  0
ARC
  5
225
330
6C
100
AcDbEntity
  8
Sichtbare Kanten(DIN)
100
AcDbCircle
 10
149.1754304717532
 20
371.321050090109
 30
0.0
 40
2.500000000000004
100
AcDbArc
 50
270.0
 51
0.0
  0
LINE
  5
226
330
6C
100
AcDbEntity
  8
Sichtbare tangentiale Kanten(DIN)
100
AcDbLine
 10
151.6754304717532
 20
371.321050090109
 30
0.0
 11
151.4653604268396
 21
371.321050090109
 31
0.0
  0
LINE
  5
227
330
6C
100
AcDbEntity
  8
Sichtbare Kanten(DIN)
100
AcDbLine
 10
138.9254304717532
 20
368.8210500901089
 30
0.0
 11
149.1754304717532
 21
368.8210500901089
 31
0.0
  0
LINE
  5
228
330
6C
100
AcDbEntity
  8
Sichtbare tangentiale Kanten(DIN)
100
AcDbLine
 10
121.6754304717531
 20
368.8210500901089
 30
0.0
 11
121.6754304717531
 21
369.0311201350227
 31
0.0
  0
LINE
  5
229
330
6C
100
AcDbEntity
  8
Sichtbare Kanten(DIN)
100
AcDbLine
 10
121.6754304717531
 20
368.8210500901089
 30
0.0
 11
131.9254304717532
 21
368.8210500901089
 31
0.0
  0
LINE
  5
22A
330
6C
100
AcDbEntity
  8
Sichtbare tangentiale Kanten(DIN)
100
AcDbLine
 10
119.1754304717531
 20
371.321050090109
 30
0.0
 11
119.3855005166668
 21
371.321050090109
 31
0.0
  0
ARC
  5
22B
330
6C
100
AcDbEntity
  8
Sichtbare Kanten(DIN)
100
AcDbCircle
 10
121.6754304717531
 20
371.321050090109
 30
0.0
 40
2.5
100
AcDbArc
 50
180.0
 51
270.0
  0
LINE
  5
22C
330
6C
100
AcDbEntity
  8
Sichtbare tangentiale Kanten(DIN)
100
AcDbLine
 10
119.1754304717532
 20
438.3210500901087
 30
0.0
 11
119.3855005166668
 21
438.3210500901087
 31
0.0
  0
LINE
  5
22D
330
6C
100
AcDbEntity
  8
Sichtbare Kanten(DIN)
100
AcDbLine
 10
119.1754304717532
 20
438.3210500901087
 30
0.0
 11
119.1754304717531
 21
371.321050090109
 31
0.0
  0
LINE
  5
22E
330
6C
100
AcDbEntity
  8
Sichtbare tangentiale Kanten(DIN)
100
AcDbLine
 10
149.1754304717533
 20
440.8210500901089
 30
0.0
 11
149.1754304717533
 21
440.6109800451951
 31
0.0
  0
LINE
  5
22F
330
6C
100
AcDbEntity
  8
Sichtbare Kanten(DIN)
100
AcDbLine
 10
149.1754304717533
 20
440.8210500901089
 30
0.0
 11
121.6754304717532
 21
440.8210500901089
 31
0.0
  0
LINE
  5
230
330
6C
100
AcDbEntity
  8
Sichtbare tangentiale Kanten(DIN)
100
AcDbLine
 10
121.6754304717532
 20
440.8210500901089
 30
0.0
 11
121.6754304717532
 21
440.6109800451951
 31
0.0
  0
LINE
  5
231
330
6C
100
AcDbEntity
  8
Sichtbare tangentiale Kanten(DIN)
100
AcDbLine
 10
151.6754304717533
 20
438.3210500901087
 30
0.0
 11
151.4653604268396
 21
438.3210500901087
 31
0.0
  0
ARC
  5
232
330
6C
100
AcDbEntity
  8
Sichtbare Kanten(DIN)
100
AcDbCircle
 10
149.1754304717533
 20
438.3210500901087
 30
0.0
 40
2.5
100
AcDbArc
 50
0.0
 51
90.0
  0
LINE
  5
233
330
6C
100
AcDbEntity
  8
Sichtbare Kanten(DIN)
100
AcDbLine
 10
151.6754304717532
 20
371.321050090109
 30
0.0
 11
151.6754304717532
 21
394.8210500901089
 31
0.0
  0
LINE
  5
234
330
6C
100
AcDbEntity
  8
Sichtbare Kanten(DIN)
100
AcDbLine
 10
151.6754304717532
 20
414.8210500901089
 30
0.0
 11
151.6754304717533
 21
438.3210500901087
 31
0.0
  0
ARC
  5
235
330
6C
100
AcDbEntity
  8
Sichtbare Kanten(DIN)
100
AcDbCircle
 10
121.6754304717532
 20
438.3210500901087
 30
0.0
 40
2.500000000000004
100
AcDbArc
 50
90.0
 51
180.0
  0
ARC
  5
236
330
6C
100
AcDbEntity
  8
Sichtbare Kanten(DIN)
100
AcDbCircle
 10
135.4254304717532
 20
404.8210500901088
 30
0.0
 40
10.1
100
AcDbArc
 50
199.1911980337059
 51
278.0693011593933
  0
ARC
  5
237
330
6C
100
AcDbEntity
  8
Sichtbare Kanten(DIN)
100
AcDbCircle
 10
135.4254304717532
 20
404.8210500901088
 30
0.0
 40
10.10000000000002
100
AcDbArc
 50
171.9306988406069
 51
188.069301159393
  0
ARC
  5
238
330
6C
100
AcDbEntity
  8
Sichtbare Kanten(DIN)
100
AcDbCircle
 10
135.4254304717532
 20
404.8210500901088
 30
0.0
 40
10.1
100
AcDbArc
 50
81.93069884060586
 51
166.786980732912
  0
ARC
  5
239
330
6C
100
AcDbEntity
  8
Sichtbare Kanten(DIN)
100
AcDbCircle
 10
277.4254304717532
 20
404.8210500901088
 30
0.0
 40
10.0
100
AcDbArc
 50
270.0000000000002
 51
89.99999999999976
  0
ARC
  5
23A
330
6C
100
AcDbEntity
  8
Sichtbare Kanten(DIN)
100
AcDbCircle
 10
157.4254304717532
 20
404.8210500901088
 30
0.0
 40
10.0
100
AcDbArc
 50
90.0
 51
270.0
  0
LINE
  5
23B
330
6C
100
AcDbEntity
  8
Sichtbare Kanten(DIN)
100
AcDbLine
 10
157.4254304717532
 20
414.8210500901089
 30
0.0
 11
277.4254304717532
 21
414.8210500901089
 31
0.0
  0
LINE
  5
23C
330
6C
100
AcDbEntity
  8
Sichtbare Kanten(DIN)
100
AcDbLine
 10
157.4254304717532
 20
394.8210500901089
 30
0.0
 11
277.4254304717532
 21
394.8210500901089
 31
0.0
  0
ARC
  5
23D
330
6C
100
AcDbEntity
  8
Sichtbare Kanten(DIN)
100
AcDbCircle
 10
277.4254304717532
 20
404.8210500901088
 30
0.0
 40
10.1
100
AcDbArc
 50
261.9306988406063
 51
98.0693011593938
  0
ARC
  5
23E
330
6C
100
AcDbEntity
  8
Sichtbare Kanten(DIN)
100
AcDbCircle
 10
135.4254304717532
 20
404.8210500901088
 30
0.0
 40
10.0
100
AcDbArc
 50
90.0
 51
270.0
  0
LINE
  5
23F
330
6C
100
AcDbEntity
  8
Sichtbare Kanten(DIN)
100
AcDbLine
 10
157.4254304717532
 20
394.8210500901089
 30
0.0
 11
135.4254304717532
 21
394.8210500901089
 31
0.0
  0
LINE
  5
240
330
6C
100
AcDbEntity
  8
Sichtbare Kanten(DIN)
100
AcDbLine
 10
135.4254304717532
 20
414.8210500901089
 30
0.0
 11
157.4254304717532
 21
414.8210500901089
 31
0.0
  0
LINE
  5
241
330
6C
100
AcDbEntity
  8
Sichtbare Kanten(DIN)
100
AcDbLine
 10
126.0063823628713
 20
401.4622507923585
 30
0.0
 11
125.9254304717532
 21
401.4622507923585
 31
0.0
  0
ARC
  5
242
330
6C
100
AcDbEntity
  8
Sichtbare Kanten(DIN)
100
AcDbCircle
 10
121.3851959069387
 20
254.8539480119317
 30
0.0
 40
2.000000000000016
100
AcDbArc
 50
180.9999999999999
 51
270.0
  0
LINE
  5
243
330
6C
100
AcDbEntity
  8
Sichtbare tangentiale Kanten(DIN)
100
AcDbLine
 10
121.6754304717122
 20
254.8190431990578
 30
0.0
 11
121.6754304717122
 21
252.8539480119317
 31
0.0
  0
LINE
  5
244
330
6C
100
AcDbEntity
  8
Sichtbare tangentiale Kanten(DIN)
100
AcDbLine
 10
119.3855005166259
 20
254.8190431990571
 30
0.0
 11
121.6754304717122
 21
254.8190431990578
 31
0.0
  0
LINE
  5
245
330
6C
100
AcDbEntity
  8
Sichtbare Kanten(DIN)
100
AcDbLine
 10
121.6754304717122
 20
252.8539480119317
 30
0.0
 11
121.3851959069387
 21
252.8539480119317
 31
0.0
  0
LINE
  5
246
330
6C
100
AcDbEntity
  8
Sichtbare tangentiale Kanten(DIN)
100
AcDbLine
 10
149.1754304717123
 20
254.8190431990578
 30
0.0
 11
149.1754304717123
 21
252.8539480119317
 31
0.0
  0
LINE
  5
247
330
6C
100
AcDbEntity
  8
Sichtbare tangentiale Kanten(DIN)
100
AcDbLine
 10
149.1754304717123
 20
254.8190431990578
 30
0.0
 11
121.6754304717122
 21
254.8190431990578
 31
0.0
  0
LINE
  5
248
330
6C
100
AcDbEntity
  8
Sichtbare Kanten(DIN)
100
AcDbLine
 10
121.6754304717122
 20
252.8539480119317
 30
0.0
 11
149.1754304717123
 21
252.8539480119317
 31
0.0
  0
ARC
  5
249
330
6C
100
AcDbEntity
  8
Sichtbare Kanten(DIN)
100
AcDbCircle
 10
149.4656650364858
 20
254.8539480119317
 30
0.0
 40
2.000000000000023
100
AcDbArc
 50
270.0
 51
359.0000000000002
  0
LINE
  5
24A
330
6C
100
AcDbEntity
  8
Sichtbare tangentiale Kanten(DIN)
100
AcDbLine
 10
149.1754304717123
 20
254.8190431990578
 30
0.0
 11
151.4653604267986
 21
254.8190431990571
 31
0.0
  0
LINE
  5
24B
330
6C
100
AcDbEntity
  8
Sichtbare Kanten(DIN)
100
AcDbLine
 10
149.4656650364859
 20
252.8539480119317
 30
0.0
 11
149.1754304717123
 21
252.8539480119317
 31
0.0
  0
LINE
  5
24C
330
6C
100
AcDbEntity
  8
Sichtbare Kanten(DIN)
100
AcDbLine
 10
119.1754304717122
 20
266.8539480119318
 30
0.0
 11
119.3855005166259
 21
254.8190431990571
 31
0.0
  0
LINE
  5
24D
330
6C
100
AcDbEntity
  8
Sichtbare tangentiale Kanten(DIN)
100
AcDbLine
 10
149.1754304717123
 20
266.8539480119325
 30
0.0
 11
149.1754304717123
 21
254.8190431990578
 31
0.0
  0
LINE
  5
24E
330
6C
100
AcDbEntity
  8
Sichtbare Kanten(DIN)
100
AcDbLine
 10
149.1754304717123
 20
266.8539480119325
 30
0.0
 11
121.6754304717122
 21
266.8539480119325
 31
0.0
  0
LINE
  5
24F
330
6C
100
AcDbEntity
  8
Sichtbare tangentiale Kanten(DIN)
100
AcDbLine
 10
121.6754304717122
 20
266.8539480119325
 30
0.0
 11
121.6754304717122
 21
254.8190431990578
 31
0.0
  0
LINE
  5
250
330
6C
100
AcDbEntity
  8
Sichtbare Kanten(DIN)
100
AcDbLine
 10
151.6754304717123
 20
266.8539480119317
 30
0.0
 11
151.4653604267986
 21
254.8190431990571
 31
0.0
  0
LINE
  5
251
330
6C
100
AcDbEntity
  8
Sichtbare Kanten(DIN)
100
AcDbLine
 10
149.1754304717123
 20
266.8539480119325
 30
0.0
 11
151.6754304717123
 21
266.8539480119317
 31
0.0
  0
LINE
  5
252
330
6C
100
AcDbEntity
  8
Sichtbare Kanten(DIN)
100
AcDbLine
 10
119.1754304717122
 20
266.8539480119317
 30
0.0
 11
121.6754304717122
 21
266.8539480119325
 31
0.0
  0
LINE
  5
253
330
6C
100
AcDbEntity
  8
Sichtbare Kanten(DIN)
100
AcDbLine
 10
138.6574812792808
 20
277.3039480119292
 30
0.0
 11
132.1933796641435
 21
277.3039480119292
 31
0.0
  0
LINE
  5
254
330
6C
100
AcDbEntity
  8
Sichtbare Kanten(DIN)
100
AcDbLine
 10
131.9254304717122
 20
276.3039480119282
 30
0.0
 11
138.9254304717122
 21
276.3039480119282
 31
0.0
  0
LINE
  5
255
330
6C
100
AcDbEntity
  8
Sichtbare Kanten(DIN)
100
AcDbLine
 10
138.6574812792808
 20
277.3039480119292
 30
0.0
 11
138.9254304717122
 21
276.3039480119282
 31
0.0
  0
LINE
  5
256
330
6C
100
AcDbEntity
  8
Sichtbare Kanten(DIN)
100
AcDbLine
 10
132.1933796641435
 20
277.3039480119292
 30
0.0
 11
131.9254304717122
 21
276.3039480119283
 31
0.0
  0
LINE
  5
257
330
6C
100
AcDbEntity
  8
Sichtbare Kanten(DIN)
100
AcDbLine
 10
138.9254304717122
 20
276.3039480119282
 30
0.0
 11
138.9254304717122
 21
266.8539480119293
 31
0.0
  0
LINE
  5
258
330
6C
100
AcDbEntity
  8
Sichtbare Kanten(DIN)
100
AcDbLine
 10
131.9254304717122
 20
276.3039480119282
 30
0.0
 11
131.9254304717122
 21
266.8539480119293
 31
0.0
  0
LINE
  5
259
330
6C
100
AcDbEntity
  8
Sichtbare Kanten(DIN)
100
AcDbLine
 10
145.5254304717121
 20
252.6539480119218
 30
0.0
 11
125.3254304717122
 21
252.6539480119218
 31
0.0
  0
LINE
  5
25A
330
6C
100
AcDbEntity
  8
Sichtbare Kanten(DIN)
100
AcDbLine
 10
125.3254304717122
 20
252.6539480119218
 30
0.0
 11
125.3254304717122
 21
252.8539480119217
 31
0.0
  0
LINE
  5
25B
330
6C
100
AcDbEntity
  8
Sichtbare Kanten(DIN)
100
AcDbLine
 10
145.5254304717121
 20
252.6539480119218
 30
0.0
 11
145.5254304717121
 21
252.8539480119217
 31
0.0
  0
LINE
  5
25C
330
6C
100
AcDbEntity
  8
Sichtbare Kanten(DIN)
100
AcDbLine
 10
287.4254304717123
 20
194.1539480119217
 30
0.0
 11
277.4254304717123
 21
204.1539480119247
 31
0.0
  0
LINE
  5
25D
330
6C
100
AcDbEntity
  8
Sichtbare Kanten(DIN)
100
AcDbLine
 10
267.4254304717123
 20
214.1539480119218
 30
0.0
 11
277.4254304717123
 21
204.1539480119247
 31
0.0
  0
LINE
  5
25E
330
6C
100
AcDbEntity
  8
Sichtbare Kanten(DIN)
100
AcDbLine
 10
147.4254304717122
 20
194.1539480119218
 30
0.0
 11
157.4254304717122
 21
204.1539480119248
 31
0.0
  0
LINE
  5
25F
330
6C
100
AcDbEntity
  8
Sichtbare Kanten(DIN)
100
AcDbLine
 10
167.4254304717122
 20
214.1539480119218
 30
0.0
 11
157.4254304717122
 21
204.1539480119248
 31
0.0
  0
LINE
  5
260
330
6C
100
AcDbEntity
  8
Sichtbare Kanten(DIN)
100
AcDbLine
 10
157.4254304717122
 20
224.1539480119248
 30
0.0
 11
167.4254304717122
 21
224.1539480119218
 31
0.0
  0
LINE
  5
261
330
6C
100
AcDbEntity
  8
Sichtbare Kanten(DIN)
100
AcDbLine
 10
267.4254304717123
 20
214.1539480119218
 30
0.0
 11
267.4254304717123
 21
233.1539480119218
 31
0.0
  0
LINE
  5
262
330
6C
100
AcDbEntity
  8
Sichtbare Kanten(DIN)
100
AcDbLine
 10
287.4254304717123
 20
194.1539480119217
 30
0.0
 11
287.4254304717123
 21
233.1539480119218
 31
0.0
  0
LINE
  5
263
330
6C
100
AcDbEntity
  8
Sichtbare Kanten(DIN)
100
AcDbLine
 10
167.4254304717122
 20
214.1539480119218
 30
0.0
 11
267.4254304717123
 21
214.1539480119218
 31
0.0
  0
LINE
  5
264
330
6C
100
AcDbEntity
  8
Sichtbare Kanten(DIN)
100
AcDbLine
 10
147.4254304717122
 20
194.1539480119218
 30
0.0
 11
287.4254304717123
 21
194.1539480119217
 31
0.0
  0
LINE
  5
265
330
6C
100
AcDbEntity
  8
Sichtbare Kanten(DIN)
100
AcDbLine
 10
167.4254304717122
 20
224.1539480119218
 30
0.0
 11
167.4254304717122
 21
214.1539480119218
 31
0.0
  0
LINE
  5
266
330
6C
100
AcDbEntity
  8
Sichtbare Kanten(DIN)
100
AcDbLine
 10
147.4254304717122
 20
224.1539480119218
 30
0.0
 11
147.4254304717122
 21
194.1539480119218
 31
0.0
  0
LINE
  5
267
330
6C
100
AcDbEntity
  8
Sichtbare Kanten(DIN)
100
AcDbLine
 10
287.5254304717123
 20
233.1539480119217
 30
0.0
 11
267.3254304717123
 21
233.1539480119217
 31
0.0
  0
LINE
  5
268
330
6C
100
AcDbEntity
  8
Sichtbare Kanten(DIN)
100
AcDbLine
 10
287.5254304717123
 20
234.1539480119218
 30
0.0
 11
267.3254304717123
 21
234.1539480119218
 31
0.0
  0
LINE
  5
269
330
6C
100
AcDbEntity
  8
Sichtbare Kanten(DIN)
100
AcDbLine
 10
287.5254304717123
 20
234.1539480119218
 30
0.0
 11
287.5254304717123
 21
233.1539480119217
 31
0.0
  0
LINE
  5
26A
330
6C
100
AcDbEntity
  8
Sichtbare Kanten(DIN)
100
AcDbLine
 10
267.3254304717123
 20
234.1539480119218
 30
0.0
 11
267.3254304717123
 21
233.1539480119217
 31
0.0
  0
LINE
  5
26B
330
6C
100
AcDbEntity
  8
Sichtbare tangentiale Kanten(DIN)
100
AcDbLine
 10
135.4254304717122
 20
235.1539480119248
 30
0.0
 11
145.4254304717122
 21
235.1539480119218
 31
0.0
  0
SPLINE
  5
26C
330
6C
100
AcDbEntity
  8
Sichtbare Kanten(DIN)
100
AcDbSpline
210
0.0
220
0.0
230
1.0
 70
     8
 71
     3
 72
     8
 73
     4
 74
     0
 42
0.0000000001
 43
0.0000000001
 40
0.0
 40
0.0
 40
0.0
 40
0.0
 40
0.4443611331010413
 40
0.4443611331010413
 40
0.4443611331010413
 40
0.4443611331010413
 10
135.4254304717122
 20
235.1539480119247
 30
0.0
 10
136.8377028601343
 20
234.7073482695268
 30
0.0
 10
138.5268023896646
 20
234.1539480119248
 30
0.0
 10
140.0080061666681
 20
234.1539480119248
 30
0.0
  0
ARC
  5
26D
330
6C
100
AcDbEntity
  8
Sichtbare Kanten(DIN)
100
AcDbCircle
 10
146.4254304717122
 20
235.1539480119218
 30
0.0
 40
0.9999999999999998
100
AcDbArc
 50
180.0
 51
270.0
  0
LINE
  5
26E
330
6C
100
AcDbEntity
  8
Sichtbare tangentiale Kanten(DIN)
100
AcDbLine
 10
135.4254304717122
 20
224.1539480119248
 30
0.0
 11
135.4254304717122
 21
235.1539480119247
 31
0.0
  0
LINE
  5
26F
330
6C
100
AcDbEntity
  8
Sichtbare Kanten(DIN)
100
AcDbLine
 10
135.4254304717122
 20
224.1539480119248
 30
0.0
 11
125.4254304717122
 21
224.1539480119218
 31
0.0
  0
LINE
  5
270
330
6C
100
AcDbEntity
  8
Sichtbare Kanten(DIN)
100
AcDbLine
 10
167.4254304717122
 20
224.1539480119218
 30
0.0
 11
157.4254304717122
 21
224.1539480119248
 31
0.0
  0
LINE
  5
271
330
6C
100
AcDbEntity
  8
Sichtbare Kanten(DIN)
100
AcDbLine
 10
135.4254304717122
 20
224.1539480119248
 30
0.0
 11
157.4254304717122
 21
224.1539480119248
 31
0.0
  0
LINE
  5
272
330
6C
100
AcDbEntity
  8
Sichtbare Kanten(DIN)
100
AcDbLine
 10
157.4254304717122
 20
234.1539480119248
 30
0.0
 11
167.4254304717122
 21
234.1539480119218
 31
0.0
  0
LINE
  5
273
330
6C
100
AcDbEntity
  8
Sichtbare tangentiale Kanten(DIN)
100
AcDbLine
 10
157.4254304717122
 20
224.1539480119248
 30
0.0
 11
157.4254304717122
 21
234.1539480119248
 31
0.0
  0
LINE
  5
274
330
6C
100
AcDbEntity
  8
Sichtbare Kanten(DIN)
100
AcDbLine
 10
157.4254304717122
 20
234.1539480119248
 30
0.0
 11
140.0080061666681
 21
234.1539480119248
 31
0.0
  0
LINE
  5
275
330
6C
100
AcDbEntity
  8
Sichtbare Kanten(DIN)
100
AcDbLine
 10
125.4254304717122
 20
224.1539480119218
 30
0.0
 11
125.4254304717122
 21
243.636326962241
 31
0.0
  0
LINE
  5
276
330
6C
100
AcDbEntity
  8
Sichtbare Kanten(DIN)
100
AcDbLine
 10
125.4254304717122
 20
248.5845642499765
 30
0.0
 11
125.4254304717122
 21
252.6539480119218
 31
0.0
  0
LINE
  5
277
330
6C
100
AcDbEntity
  8
Sichtbare Kanten(DIN)
100
AcDbLine
 10
145.4254304717122
 20
235.1539480119217
 30
0.0
 11
145.4254304717122
 21
252.6539480119218
 31
0.0
  0
LINE
  5
278
330
6C
100
AcDbEntity
  8
Sichtbare Kanten(DIN)
100
AcDbLine
 10
167.4254304717122
 20
224.1539480119218
 30
0.0
 11
167.4254304717122
 21
234.1539480119218
 31
0.0
  0
LINE
  5
279
330
6C
100
AcDbEntity
  8
Sichtbare Kanten(DIN)
100
AcDbLine
 10
125.4254304717122
 20
243.636326962241
 30
0.0
 11
125.4254304717122
 21
248.5845642499765
 31
0.0
  0
LINE
  5
27A
330
6C
100
AcDbEntity
  8
Mittelpunktmarkierung(DIN)
  6
Continuous
100
AcDbLine
 10
145.1281869002734
 20
429.8210500901087
 30
0.0
 11
125.7226740432329
 21
429.8210500901087
 31
0.0
  0
LINE
  5
27B
330
6C
100
AcDbEntity
  8
Mittelpunktmarkierung(DIN)
  6
Continuous
100
AcDbLine
 10
135.4254304717532
 20
439.5238065186291
 30
0.0
 11
135.4254304717532
 21
420.1182936615886
 31
0.0
  0
LINE
  5
27C
330
6C
100
AcDbEntity
  8
Mittelpunktmarkierung(DIN)
  6
Continuous
100
AcDbLine
 10
145.1754304717532
 20
379.821050090109
 30
0.0
 11
125.6754304717532
 21
379.821050090109
 31
0.0
  0
LINE
  5
27D
330
6C
100
AcDbEntity
  8
Mittelpunktmarkierung(DIN)
  6
Continuous
100
AcDbLine
 10
135.4254304717532
 20
389.571050090109
 30
0.0
 11
135.4254304717532
 21
370.071050090109
 31
0.0
  0
DIMENSION
  5
27E
330
6C
100
AcDbEntity
  8
Bemaßungen(DIN)
  6
Continuous
 62
   250
420
  4144959
370
    25
100
AcDbDimension
  2
*D17
 10
71.32475768548082
 20
368.8559602199654
 30
0.0
 11
71.32475768548076
 21
404.8185051550371
 31
0.0
 70
   160
  1
<>
 71
     5
 42
71.96508987014346
 73
     0
 74
     0
 75
     0
  3
STANDARD-DIN - Methode 2b
100
AcDbAlignedDimension
 13
121.6754304717532
 23
440.8210500901089
 33
0.0
 14
138.9254304717532
 24
368.8559602199654
 34
0.0
 50
90.0
100
AcDbRotatedDimension
1001
ACAD
1000
DSTYLE
1002
{
1070
   172
1070
     0
1070
   289
1070
     1
1070
   271
1070
     0
1070
   272
1070
     2
1070
    48
1040
0.0
1070
    47
1040
0.0
1002
}
  0
DIMENSION
  5
361
330
6C
100
AcDbEntity
  8
Bemaßungen(DIN)
  6
Continuous
 62
   250
420
  4144959
370
    25
100
AcDbDimension
  2
*D18
 10
95.3247576854808
 20
379.821050090109
 30
0.0
 11
95.32475768548076
 21
404.8010500901088
 31
0.0
 70
   160
  1
<>
 71
     5
 42
49.99999999999989
 73
     0
 74
     0
 75
     0
  3
STANDARD-DIN - Methode 2b
100
AcDbAlignedDimension
 13
125.7226740432329
 23
429.8210500901087
 33
0.0
 14
125.6754304717532
 24
379.821050090109
 34
0.0
 50
90.0
100
AcDbRotatedDimension
1001
ACAD
1000
DSTYLE
1002
{
1070
   172
1070
     0
1070
   289
1070
     1
1070
   271
1070
     2
1070
   272
1070
     2
1070
    48
1040
0.0
1070
    47
1040
0.0
1002
}
  0
DIMENSION
  5
443
330
6C
100
AcDbEntity
  8
Bemaßungen(DIN)
  6
Continuous
 62
   250
420
  4144959
370
    25
100
AcDbDimension
  2
*D19
 10
151.6754304717533
 20
464.8217228763813
 30
0.0
 11
135.4054304717532
 21
464.8217228763813
 31
0.0
 70
   160
  1
<>
 71
     5
 42
32.50000000000006
 73
     0
 74
     0
 75
     0
  3
STANDARD-DIN - Methode 2b
100
AcDbAlignedDimension
 13
119.1754304717532
 23
438.3210500901087
 33
0.0
 14
151.6754304717533
 24
438.3210500901087
 34
0.0
 50
180.0
100
AcDbRotatedDimension
1001
ACAD
1000
DSTYLE
1002
{
1070
   172
1070
     0
1070
   289
1070
     1
1070
   271
1070
     2
1070
   272
1070
     2
1070
    48
1040
0.0
1070
    47
1040
0.0
1002
}
  0
DIMENSION
  5
525
330
6C
100
AcDbEntity
  8
Bemaßungen(DIN)
  6
Continuous
 62
   250
420
  4144959
370
    25
100
AcDbDimension
  2
*D20
 10
71.25009407857603
 20
252.8539480119317
 30
0.0
 11
71.25009407857598
 21
223.5039480119267
 31
0.0
 70
   160
  1
<>
 71
     5
 42
60.0
 73
     0
 74
     0
 75
     0
  3
STANDARD-DIN - Methode 2b
100
AcDbAlignedDimension
 13
147.4254304717122
 23
194.1539480119218
 33
0.0
 14
121.6754304717122
 24
252.8539480119317
 34
0.0
 50
90.0
100
AcDbRotatedDimension
1001
ACAD
1000
DSTYLE
1002
{
1070
   172
1070
     0
1070
   289
1070
     1
1070
   271
1070
     2
1070
   144
1040
1.022146507665925
1070
   272
1070
     2
1070
    48
1040
0.0
1070
    47
1040
0.0
1002
}
  0
DIMENSION
  5
610
330
6C
100
AcDbEntity
  8
Bemaßungen(DIN)
  6
Continuous
 62
   250
420
  4144959
370
    25
100
AcDbDimension
  2
*D21
 10
71.25009407857603
 20
252.8539480119317
 30
0.0
 11
71.25009407857598
 21
259.853948011932
 31
0.0
 70
   160
  1
<>
 71
     5
 42
14.00000000000071
 73
     0
 74
     1
 75
     1
  3
STANDARD-DIN - Methode 2b
100
AcDbAlignedDimension
 13
121.6754304717122
 23
266.8539480119325
 33
0.0
 14
121.6754304717122
 24
252.8539480119317
 34
0.0
 50
90.0
100
AcDbRotatedDimension
1001
ACAD
1000
DSTYLE
1002
{
1070
   172
1070
     0
1070
   271
1070
     2
1070
   272
1070
     2
1070
    48
1040
0.0
1070
    47
1040
0.0
1002
}
  0
DIMENSION
  5
6FC
330
6C
100
AcDbEntity
  8
Bemaßungen(DIN)
  6
Continuous
 62
   250
420
  4144959
370
    25
100
AcDbDimension
  2
*D22
 10
287.4254304717123
 20
155.0343927735404
 30
0.0
 11
206.4254304717122
 21
155.0343927735404
 31
0.0
 70
   160
  1
<>
 71
     5
 42
162.0
 73
     0
 74
     0
 75
     0
  3
STANDARD-DIN - Methode 2b
100
AcDbAlignedDimension
 13
125.4254304717122
 23
224.1539480119218
 33
0.0
 14
287.4254304717123
 24
194.1539480119217
 34
0.0
 50
180.0
100
AcDbRotatedDimension
1001
ACAD
1000
DSTYLE
1002
{
1070
   172
1070
     0
1070
   289
1070
     1
1070
   271
1070
     2
1070
   272
1070
     2
1070
    48
1040
0.0
1070
    47
1040
0.0
1002
}
  0
DIMENSION
  5
7DE
330
6C
100
AcDbEntity
  8
Bemaßungen(DIN)
  6
Continuous
 62
   250
420
  4144959
370
    25
100
AcDbDimension
  2
*D23
 10
247.3254304717123
 20
252.8539480119317
 30
0.0
 11
247.3254304717122
 21
243.5039480119268
 31
0.0
 70
   160
  1
<>
 71
     5
 42
19.99999999999998
 73
     0
 74
     0
 75
     0
  3
STANDARD-DIN - Methode 2b
100
AcDbAlignedDimension
 13
267.3254304717123
 23
234.1539480119218
 33
0.0
 14
149.1754304717123
 24
252.8539480119317
 34
0.0
 50
90.0
100
AcDbRotatedDimension
1001
ACAD
1000
DSTYLE
1002
{
1070
   172
1070
     0
1070
   289
1070
     1
1070
   271
1070
     2
1070
   144
1040
1.069518716576969
1070
   272
1070
     2
1070
    48
1040
0.0
1070
    47
1040
0.0
1002
}
  0
DIMENSION
  5
8CA
330
6C
100
AcDbEntity
  8
Bemaßungen(DIN)
  6
Continuous
 62
   250
420
  4144959
370
    25
100
AcDbDimension
  2
*D24
 10
311.4254304717533
 20
394.8210500901089
 30
0.0
 11
311.4254304717532
 21
430.4062404014393
 31
0.0
 70
   160
  1
{\fAIGDT|b0|i0;\H7.0000;n\fArial|b0|i0;\H7.0000;}<>
 71
     5
 42
20.0
 73
     0
 74
     0
 75
     0
  3
STANDARD-DIN - Methode 2b
100
AcDbAlignedDimension
 13
277.4254304717532
 23
414.8210500901089
 33
0.0
 14
277.4254304717531
 24
394.8210500901089
 34
0.0
 50
270.0
100
AcDbRotatedDimension
1001
ACAD
1000
DSTYLE
1002
{
1070
   172
1070
     0
1070
   289
1070
     2
1070
   271
1070
     2
1070
   272
1070
     2
1070
    48
1040
0.0
1070
    47
1040
0.0
1002
}
  0
MTEXT
  5
9BB
330
6C
100
AcDbEntity
  8
Symbole(DIN)
 62
   179
420
  2500185
100
AcDbMText
 10
311.7083929734718
 20
101.7634600462462
 30
0.0
 40
6.99999988079071
 41
27.18369007110596
 46
0.0
 71
     1
 72
     1
  1
{50055}
  7
Aktuell-DIN
 73
     1
 44
1.0
  0
DIMENSION
  5
9BC
330
6C
100
AcDbEntity
  8
Bemaßungen(DIN)
  6
Continuous
 62
   250
420
  4144959
370
    25
100
AcDbDimension
  2
*D25
 10
95.250094078576
 20
252.8539480119317
 30
0.0
 11
95.250094078576
 21
238.4839480119275
 31
0.0
 70
   160
  1
<>
 71
     5
 42
30.00000000000003
 73
     0
 74
     0
 75
     0
  3
STANDARD-DIN - Methode 2b
100
AcDbAlignedDimension
 13
125.4254304717122
 23
224.1539480119233
 33
0.0
 14
121.6754304717122
 24
252.8539480119317
 34
0.0
 50
90.0
100
AcDbRotatedDimension
1001
ACAD
1000
DSTYLE
1002
{
1070
   172
1070
     0
1070
   289
1070
     1
1070
   271
1070
     2
1070
   144
1040
1.045296167247079
1070
   272
1070
     2
1070
    48
1040
0.0
1070
    47
1040
0.0
1002
}
  0
DIMENSION
  5
AA7
330
6C
100
AcDbEntity
  8
Bemaßungen(DIN)
  6
Continuous
 62
   250
420
  4144959
370
    25
100
AcDbDimension
  2
*D26
 10
319.5254304717123
 20
234.1539480119218
 30
0.0
 11
319.5254304717122
 21
214.1539480119218
 31
0.0
 70
   160
  1
<>
 71
     5
 42
40.0
 73
     0
 74
     0
 75
     0
  3
STANDARD-DIN - Methode 2b
100
AcDbAlignedDimension
 13
287.4254304717123
 23
194.1539480119217
 33
0.0
 14
287.5254304717123
 24
234.1539480119218
 34
0.0
 50
270.0
100
AcDbRotatedDimension
1001
ACAD
1000
DSTYLE
1002
{
1070
   172
1070
     0
1070
   289
1070
     1
1070
   271
1070
     2
1070
   272
1070
     2
1070
    48
1040
0.0
1070
    47
1040
0.0
1002
}
  0
LINE
  5
B89
330
6C
100
AcDbEntity
  8
Mittellinie(DIN)
  6
Continuous
100
AcDbLine
 10
157.4254304717122
 20
229.1539480119218
 30
0.0
 11
157.4254304717122
 21
199.1539480119218
 31
0.0
  0
LINE
  5
B8A
330
6C
100
AcDbEntity
  8
Mittellinie(DIN)
  6
Continuous
100
AcDbLine
 10
152.4254304717122
 20
204.1539480119218
 30
0.0
 11
282.4254304717123
 21
204.1539480119218
 31
0.0
  0
LINE
  5
B8B
330
6C
100
AcDbEntity
  8
Mittellinie(DIN)
  6
Continuous
100
AcDbLine
 10
277.4254304717123
 20
199.1539480119217
 30
0.0
 11
277.4254304717123
 21
238.1539480119218
 31
0.0
  0
LINE
  5
B8C
330
6C
100
AcDbEntity
  8
Mittelpunktmarkierung(DIN)
  6
Continuous
100
AcDbLine
 10
157.4254304717532
 20
419.8210500901089
 30
0.0
 11
157.4254304717532
 21
389.821050090109
 31
0.0
  0
LINE
  5
B8D
330
6C
100
AcDbEntity
  8
Mittelpunktmarkierung(DIN)
  6
Continuous
100
AcDbLine
 10
277.4254304717532
 20
419.8210500901089
 30
0.0
 11
277.4254304717532
 21
389.821050090109
 31
0.0
  0
LINE
  5
B8E
330
6C
100
AcDbEntity
  8
Mittellinie(DIN)
  6
Continuous
100
AcDbLine
 10
142.4254304717532
 20
404.8210500901088
 30
0.0
 11
292.4254304717532
 21
404.8210500901088
 31
0.0
  0
LINE
  5
B8F
330
6C
100
AcDbEntity
  8
Mittelpunktmarkierung(DIN)
  6
Continuous
100
AcDbLine
 10
140.4254304717532
 20
404.8210500901088
 30
0.0
 11
120.4254304717532
 21
404.8210500901088
 31
0.0
  0
LINE
  5
B90
330
6C
100
AcDbEntity
  8
Mittelpunktmarkierung(DIN)
  6
Continuous
100
AcDbLine
 10
135.4254304717532
 20
419.8210500901089
 30
0.0
 11
135.4254304717532
 21
389.821050090109
 31
0.0
  0
LINE
  5
B91
330
6C
100
AcDbEntity
  8
Mittellinie(DIN)
  6
Continuous
100
AcDbLine
 10
135.4254304717122
 20
224.6539480119218
 30
0.0
 11
135.4254304717122
 21
284.3672178403585
 31
0.0
  0
ENDSEC
  0
SECTION
  2
OBJECTS
  0
DICTIONARY
  5
C
330
0
100
AcDbDictionary
281
     1
  3
ACAD_CIP_PREVIOUS_PRODUCT_INFO
350
B92
  3
ACAD_COLOR
350
63
  3
ACAD_GROUP
350
D
  3
ACAD_LAYOUT
350
62
  3
ACAD_MATERIAL
350
10
  3
ACAD_MLEADERSTYLE
350
66
  3
ACAD_MLINESTYLE
350
5F
  3
ACAD_PLOTSETTINGS
350
61
  3
ACAD_PLOTSTYLENAME
350
E
  3
ACAD_SCALELIST
350
42
  3
ACAD_TABLESTYLE
350
64
  3
ACAD_VISUALSTYLE
350
29
  3
ACDB_RECOMPOSE_DATA
350
BEB
  3
AcDbVariableDictionary
350
B93
  0
DICTIONARY
  5
B9C
330
193
100
AcDbDictionary
280
     1
281
     1
  3
ACAD_MLATT
360
BE4
  3
ACAD_XREC_ROUNDTRIP
360
BE3
  0
DICTIONARY
  5
B9F
330
196
100
AcDbDictionary
280
     1
281
     1
  3
ACAD_MLATT
360
BE6
  3
ACAD_XREC_ROUNDTRIP
360
BE5
  0
DICTIONARY
  5
BA2
330
197
100
AcDbDictionary
280
     1
281
     1
  3
ACAD_MLATT
360
BE8
  3
ACAD_XREC_ROUNDTRIP
360
BE7
  0
DICTIONARY
  5
BA5
330
198
100
AcDbDictionary
280
     1
281
     1
  3
ACAD_MLATT
360
BEA
  3
ACAD_XREC_ROUNDTRIP
360
BE9
  0
XRECORD
  5
B92
102
{ACAD_REACTORS
330
C
102
}
330
C
100
AcDbXrecord
280
     1
300
INVNTOR
300
2012
300
PDSP_F_S
  0
DICTIONARY
  5
63
102
{ACAD_REACTORS
330
C
102
}
330
C
100
AcDbDictionary
281
     1
  0
DICTIONARY
  5
D
102
{ACAD_REACTORS
330
C
102
}
330
C
100
AcDbDictionary
281
     1
  0
DICTIONARY
  5
62
102
{ACAD_REACTORS
330
C
102
}
330
C
100
AcDbDictionary
281
     1
  3
Layout1
350
6B
  3
Layout2
350
73
  3
Model
350
6F
  0
DICTIONARY
  5
10
102
{ACAD_REACTORS
330
C
102
}
330
C
100
AcDbDictionary
281
     1
  3
ByBlock
350
19
  3
ByLayer
350
11
  3
Global
350
21
  0
DICTIONARY
  5
66
102
{ACAD_REACTORS
330
C
102
}
330
C
100
AcDbDictionary
281
     1
  3
Standard
350
67
  0
DICTIONARY
  5
5F
102
{ACAD_REACTORS
330
C
102
}
330
C
100
AcDbDictionary
281
     1
  3
Standard
350
60
  0
DICTIONARY
  5
61
102
{ACAD_REACTORS
330
C
102
}
330
C
100
AcDbDictionary
281
     1
  0
ACDBDICTIONARYWDFLT
  5
E
102
{ACAD_REACTORS
330
C
102
}
330
C
100
AcDbDictionary
281
     1
  3
Normal
350
F
100
AcDbDictionaryWithDefault
340
F
  0
DICTIONARY
  5
42
102
{ACAD_REACTORS
330
C
102
}
330
C
100
AcDbDictionary
281
     1
  3
A0
350
43
  3
A1
350
44
  3
A2
350
45
  3
A3
350
46
  3
A4
350
47
  3
A5
350
48
  3
A6
350
49
  3
A7
350
4A
  3
A8
350
4B
  3
A9
350
4C
  3
B0
350
4D
  3
B1
350
4E
  3
B2
350
4F
  3
B3
350
50
  3
B4
350
51
  3
B5
350
52
  3
B6
350
53
  0
DICTIONARY
  5
64
102
{ACAD_REACTORS
330
C
102
}
330
C
100
AcDbDictionary
281
     1
  3
Standard
350
65
  0
DICTIONARY
  5
29
102
{ACAD_REACTORS
330
C
102
}
330
C
100
AcDbDictionary
281
     1
  3
2dWireframe
350
2F
  3
Basic
350
2E
  3
Brighten
350
35
  3
ColorChange
350
39
  3
Conceptual
350
32
  3
Dim
350
34
  3
EdgeColorOff
350
41
  3
Facepattern
350
38
  3
Flat
350
2A
  3
FlatWithEdges
350
2B
  3
Gouraud
350
2C
  3
GouraudWithEdges
350
2D
  3
Hidden
350
31
  3
JitterOff
350
3F
  3
Linepattern
350
37
  3
OverhangOff
350
40
  3
Realistic
350
33
  3
Shaded
350
3E
  3
Shaded with edges
350
3D
  3
Shades of Gray
350
3A
  3
Sketchy
350
3B
  3
Thicken
350
36
  3
Wireframe
350
30
  3
X-Ray
350
3C
  0
XRECORD
  5
BEB
102
{ACAD_REACTORS
330
C
102
}
330
C
100
AcDbXrecord
280
     1
 90
        1
330
65
330
193
330
196
330
197
330
198
  0
DICTIONARY
  5
B93
102
{ACAD_REACTORS
330
C
102
}
330
C
100
AcDbDictionary
281
     1
  3
CANNOSCALE
350
B96
  3
CMLEADERSTYLE
350
B95
  3
CTABLESTYLE
350
B94
  3
XCLIPFRAME
350
BDD
  0
XRECORD
  5
BE4
102
{ACAD_REACTORS
330
B9C
102
}
330
B9C
100
AcDbXrecord
280
     1
 70
     4
 70
     0
 70
     0
 40
1.0
  2
Innenkante_obere_Grenze
  1
Embedded Object
 10
28.19096644559973
 20
16.62519294726898
 30
0.0
 40
3.499999940395355
 41
0.0
 46
0.0
 71
     1
 72
     5
  1
\W0.9000;-1
  7
Textstil122
 73
     1
 44
1.0
  0
XRECORD
  5
BE3
102
{ACAD_REACTORS
330
B9C
102
}
330
B9C
100
AcDbXrecord
280
     1
102
ACAD_MATT_HEIGHT
140
3.499999940395355
  0
XRECORD
  5
BE6
102
{ACAD_REACTORS
330
B9F
102
}
330
B9F
100
AcDbXrecord
280
     1
 70
     4
 70
     0
 70
     0
 40
1.0
  2
Innenkante_untere_Grenze
  1
Embedded Object
 10
28.19096644559973
 20
11.62519294726898
 30
0.0
 40
3.499999940395355
 41
0.0
 46
0.0
 71
     1
 72
     5
  1
\W0.9000;-0.25
  7
Textstil122
 73
     1
 44
1.0
  0
XRECORD
  5
BE5
102
{ACAD_REACTORS
330
B9F
102
}
330
B9F
100
AcDbXrecord
280
     1
102
ACAD_MATT_HEIGHT
140
3.499999940395355
  0
XRECORD
  5
BE8
102
{ACAD_REACTORS
330
BA2
102
}
330
BA2
100
AcDbXrecord
280
     1
 70
     4
 70
     0
 70
     0
 40
1.0
  2
Aussenkante_obere_Grenze
  1
Embedded Object
 10
6.721339289383169
 20
16.62519294726898
 30
0.0
 40
3.499999940395355
 41
7.696662545204162
 46
0.0
 71
     1
 72
     5
  1
\W0.9000;+0.3
  7
Textstil122
 73
     1
 44
1.0
  0
XRECORD
  5
BE7
102
{ACAD_REACTORS
330
BA2
102
}
330
BA2
100
AcDbXrecord
280
     1
102
ACAD_MATT_HEIGHT
140
3.499999940395355
  0
XRECORD
  5
BEA
102
{ACAD_REACTORS
330
BA5
102
}
330
BA5
100
AcDbXrecord
280
     1
 70
     4
 70
     0
 70
     0
 40
1.0
  2
Aussenkante_untere_Grenze
  1
Embedded Object
 10
6.721339289383169
 20
11.62519294726898
 30
0.0
 40
3.499999940395355
 41
0.0
 46
0.0
 71
     1
 72
     5
  1
\W0.9000;+0.1
  7
Textstil122
 73
     1
 44
1.0
  0
XRECORD
  5
BE9
102
{ACAD_REACTORS
330
BA5
102
}
330
BA5
100
AcDbXrecord
280
     1
102
ACAD_MATT_HEIGHT
140
3.499999940395355
  0
LAYOUT
  5
6B
102
{ACAD_REACTORS
330
62
102
}
330
62
100
AcDbPlotSettings
  1

  2

  4

  6

 40
0.0
 41
0.0
 42
0.0
 43
0.0
 44
0.0
 45
0.0
 46
0.0
 47
0.0
 48
0.0
 49
0.0
140
0.0
141
0.0
142
1.0
143
1.0
 70
   688
 72
     0
 73
     0
 74
     5
  7

 75
    16
147
1.0
 76
     0
 77
     2
 78
   300
148
0.0
149
0.0
100
AcDbLayout
  1
Layout1
 70
     1
 71
     1
 10
0.0
 20
0.0
 11
12.0
 21
9.0
 12
0.0
 22
0.0
 32
0.0
 14
0.0
 24
0.0
 34
0.0
 15
0.0
 25
0.0
 35
0.0
146
0.0
 13
0.0
 23
0.0
 33
0.0
 16
1.0
 26
0.0
 36
0.0
 17
0.0
 27
1.0
 37
0.0
 76
     0
330
68
  0
LAYOUT
  5
73
102
{ACAD_REACTORS
330
62
102
}
330
62
100
AcDbPlotSettings
  1

  2

  4

  6

 40
0.0
 41
0.0
 42
0.0
 43
0.0
 44
0.0
 45
0.0
 46
0.0
 47
0.0
 48
0.0
 49
0.0
140
0.0
141
0.0
142
1.0
143
1.0
 70
   688
 72
     0
 73
     0
 74
     5
  7

 75
    16
147
1.0
 76
     0
 77
     2
 78
   300
148
0.0
149
0.0
100
AcDbLayout
  1
Layout2
 70
     1
 71
     2
 10
0.0
 20
0.0
 11
12.0
 21
9.0
 12
0.0
 22
0.0
 32
0.0
 14
0.0
 24
0.0
 34
0.0
 15
0.0
 25
0.0
 35
0.0
146
0.0
 13
0.0
 23
0.0
 33
0.0
 16
1.0
 26
0.0
 36
0.0
 17
0.0
 27
1.0
 37
0.0
 76
     0
330
70
  0
LAYOUT
  5
6F
102
{ACAD_REACTORS
330
62
102
}
330
62
100
AcDbPlotSettings
  1

  2

  4

  6

 40
0.0
 41
0.0
 42
0.0
 43
0.0
 44
0.0
 45
0.0
 46
0.0
 47
0.0
 48
0.0
 49
0.0
140
0.0
141
0.0
142
1.0
143
1.0
 70
  1712
 72
     0
 73
     0
 74
     0
  7

 75
     0
147
1.0
 76
     0
 77
     2
 78
   300
148
0.0
149
0.0
100
AcDbLayout
  1
Model
 70
     1
 71
     0
 10
0.0
 20
0.0
 11
12.0
 21
9.0
 12
0.0
 22
0.0
 32
0.0
 14
0.0
 24
0.0
 34
0.0
 15
0.0
 25
0.0
 35
0.0
146
0.0
 13
0.0
 23
0.0
 33
0.0
 16
1.0
 26
0.0
 36
0.0
 17
0.0
 27
1.0
 37
0.0
 76
     0
330
6C
  0
MATERIAL
  5
19
102
{ACAD_XDICTIONARY
360
1A
102
}
102
{ACAD_REACTORS
330
10
102
}
330
10
100
AcDbMaterial
  1
ByBlock
 72
     0
 43
0.0208333333333333
 43
0.0
 43
0.0
 43
0.0
 43
0.0
 43
0.0208333333333333
 43
0.0
 43
0.0
 43
0.0
 43
0.0
 43
1.0
 43
0.0
 43
0.0
 43
0.0
 43
0.0
 43
1.0
 77
     0
 47
0.0208333333333333
 47
0.0
 47
0.0
 47
0.0
 47
0.0
 47
0.0208333333333333
 47
0.0
 47
0.0
 47
0.0
 47
0.0
 47
1.0
 47
0.0
 47
0.0
 47
0.0
 47
0.0
 47
1.0
171
     0
 49
0.0208333333333333
 49
0.0
 49
0.0
 49
0.0
 49
0.0
 49
0.0208333333333333
 49
0.0
 49
0.0
 49
0.0
 49
0.0
 49
1.0
 49
0.0
 49
0.0
 49
0.0
 49
0.0
 49
1.0
175
     0
142
0.0208333333333333
142
0.0
142
0.0
142
0.0
142
0.0
142
0.0208333333333333
142
0.0
142
0.0
142
0.0
142
0.0
142
1.0
142
0.0
142
0.0
142
0.0
142
0.0
142
1.0
179
     0
144
0.0208333333333333
144
0.0
144
0.0
144
0.0
144
0.0
144
0.0208333333333333
144
0.0
144
0.0
144
0.0
144
0.0
144
1.0
144
0.0
144
0.0
144
0.0
144
0.0
144
1.0
147
0.0208333333333333
147
0.0
147
0.0
147
0.0
147
0.0
147
0.0208333333333333
147
0.0
147
0.0
147
0.0
147
0.0
147
1.0
147
0.0
147
0.0
147
0.0
147
0.0
147
1.0
  0
MATERIAL
  5
11
102
{ACAD_XDICTIONARY
360
12
102
}
102
{ACAD_REACTORS
330
10
102
}
330
10
100
AcDbMaterial
  1
ByLayer
 72
     0
 43
0.0208333333333333
 43
0.0
 43
0.0
 43
0.0
 43
0.0
 43
0.0208333333333333
 43
0.0
 43
0.0
 43
0.0
 43
0.0
 43
1.0
 43
0.0
 43
0.0
 43
0.0
 43
0.0
 43
1.0
 77
     0
 47
0.0208333333333333
 47
0.0
 47
0.0
 47
0.0
 47
0.0
 47
0.0208333333333333
 47
0.0
 47
0.0
 47
0.0
 47
0.0
 47
1.0
 47
0.0
 47
0.0
 47
0.0
 47
0.0
 47
1.0
171
     0
 49
0.0208333333333333
 49
0.0
 49
0.0
 49
0.0
 49
0.0
 49
0.0208333333333333
 49
0.0
 49
0.0
 49
0.0
 49
0.0
 49
1.0
 49
0.0
 49
0.0
 49
0.0
 49
0.0
 49
1.0
175
     0
142
0.0208333333333333
142
0.0
142
0.0
142
0.0
142
0.0
142
0.0208333333333333
142
0.0
142
0.0
142
0.0
142
0.0
142
1.0
142
0.0
142
0.0
142
0.0
142
0.0
142
1.0
179
     0
144
0.0208333333333333
144
0.0
144
0.0
144
0.0
144
0.0
144
0.0208333333333333
144
0.0
144
0.0
144
0.0
144
0.0
144
1.0
144
0.0
144
0.0
144
0.0
144
0.0
144
1.0
147
0.0208333333333333
147
0.0
147
0.0
147
0.0
147
0.0
147
0.0208333333333333
147
0.0
147
0.0
147
0.0
147
0.0
147
1.0
147
0.0
147
0.0
147
0.0
147
0.0
147
1.0
  0
MATERIAL
  5
21
102
{ACAD_XDICTIONARY
360
22
102
}
102
{ACAD_REACTORS
330
10
102
}
330
10
100
AcDbMaterial
  1
Global
 72
     0
 43
0.0208333333333333
 43
0.0
 43
0.0
 43
0.0
 43
0.0
 43
0.0208333333333333
 43
0.0
 43
0.0
 43
0.0
 43
0.0
 43
1.0
 43
0.0
 43
0.0
 43
0.0
 43
0.0
 43
1.0
 77
     0
 47
0.0208333333333333
 47
0.0
 47
0.0
 47
0.0
 47
0.0
 47
0.0208333333333333
 47
0.0
 47
0.0
 47
0.0
 47
0.0
 47
1.0
 47
0.0
 47
0.0
 47
0.0
 47
0.0
 47
1.0
171
     0
 49
0.0208333333333333
 49
0.0
 49
0.0
 49
0.0
 49
0.0
 49
0.0208333333333333
 49
0.0
 49
0.0
 49
0.0
 49
0.0
 49
1.0
 49
0.0
 49
0.0
 49
0.0
 49
0.0
 49
1.0
175
     0
142
0.0208333333333333
142
0.0
142
0.0
142
0.0
142
0.0
142
0.0208333333333333
142
0.0
142
0.0
142
0.0
142
0.0
142
1.0
142
0.0
142
0.0
142
0.0
142
0.0
142
1.0
179
     0
144
0.0208333333333333
144
0.0
144
0.0
144
0.0
144
0.0
144
0.0208333333333333
144
0.0
144
0.0
144
0.0
144
0.0
144
1.0
144
0.0
144
0.0
144
0.0
144
0.0
144
1.0
147
0.0208333333333333
147
0.0
147
0.0
147
0.0
147
0.0
147
0.0208333333333333
147
0.0
147
0.0
147
0.0
147
0.0
147
1.0
147
0.0
147
0.0
147
0.0
147
0.0
147
1.0
  0
MLEADERSTYLE
  5
67
102
{ACAD_XDICTIONARY
360
BDF
102
}
102
{ACAD_REACTORS
330
66
102
}
330
66
100
AcDbMLeaderStyle
170
     2
171
     1
172
     0
 90
        2
 40
0.0
 41
0.0
173
     1
 91
-1056964608
340
5B
 92
       -2
290
     1
 42
0.09
291
     1
 43
0.36
  3
Standard
 44
0.18
300

342
55
174
     1
178
     6
175
     1
176
     0
 93
-1056964608
 45
0.18
292
     0
297
     0
 46
0.18
 94
-1056964608
 47
1.0
 49
1.0
140
1.0
293
     1
141
0.0
294
     1
177
     0
142
1.0
295
     0
296
     0
143
0.125
1001
ACAD_MLEADERVER
1070
     2
  0
MLINESTYLE
  5
60
102
{ACAD_REACTORS
330
5F
102
}
330
5F
100
AcDbMlineStyle
  2
STANDARD
 70
     0
  3

 62
   256
 51
90.0
 52
90.0
 71
     2
 49
0.5
 62
   256
  6
BYLAYER
 49
-0.5
 62
   256
  6
BYLAYER
  0
ACDBPLACEHOLDER
  5
F
102
{ACAD_REACTORS
330
E
102
}
330
E
  0
SCALE
  5
43
102
{ACAD_REACTORS
330
42
102
}
330
42
100
AcDbScale
 70
     0
300
1:1
140
1.0
141
1.0
290
     1
  0
SCALE
  5
44
102
{ACAD_REACTORS
330
42
102
}
330
42
100
AcDbScale
 70
     0
300
1/128" = 1'-0"
140
0.0078125
141
12.0
290
     0
  0
SCALE
  5
45
102
{ACAD_REACTORS
330
42
102
}
330
42
100
AcDbScale
 70
     0
300
1/64" = 1'-0"
140
0.015625
141
12.0
290
     0
  0
SCALE
  5
46
102
{ACAD_REACTORS
330
42
102
}
330
42
100
AcDbScale
 70
     0
300
1/32" = 1'-0"
140
0.03125
141
12.0
290
     0
  0
SCALE
  5
47
102
{ACAD_REACTORS
330
42
102
}
330
42
100
AcDbScale
 70
     0
300
1/16" = 1'-0"
140
0.0625
141
12.0
290
     0
  0
SCALE
  5
48
102
{ACAD_REACTORS
330
42
102
}
330
42
100
AcDbScale
 70
     0
300
3/32" = 1'-0"
140
0.09375
141
12.0
290
     0
  0
SCALE
  5
49
102
{ACAD_REACTORS
330
42
102
}
330
42
100
AcDbScale
 70
     0
300
1/8" = 1'-0"
140
0.125
141
12.0
290
     0
  0
SCALE
  5
4A
102
{ACAD_REACTORS
330
42
102
}
330
42
100
AcDbScale
 70
     0
300
3/16" = 1'-0"
140
0.1875
141
12.0
290
     0
  0
SCALE
  5
4B
102
{ACAD_REACTORS
330
42
102
}
330
42
100
AcDbScale
 70
     0
300
1/4" = 1'-0"
140
0.25
141
12.0
290
     0
  0
SCALE
  5
4C
102
{ACAD_REACTORS
330
42
102
}
330
42
100
AcDbScale
 70
     0
300
3/8" = 1'-0"
140
0.375
141
12.0
290
     0
  0
SCALE
  5
4D
102
{ACAD_REACTORS
330
42
102
}
330
42
100
AcDbScale
 70
     0
300
1/2" = 1'-0"
140
0.5
141
12.0
290
     0
  0
SCALE
  5
4E
102
{ACAD_REACTORS
330
42
102
}
330
42
100
AcDbScale
 70
     0
300
3/4" = 1'-0"
140
0.75
141
12.0
290
     0
  0
SCALE
  5
4F
102
{ACAD_REACTORS
330
42
102
}
330
42
100
AcDbScale
 70
     0
300
1" = 1'-0"
140
1.0
141
12.0
290
     0
  0
SCALE
  5
50
102
{ACAD_REACTORS
330
42
102
}
330
42
100
AcDbScale
 70
     0
300
1-1/2" = 1'-0"
140
1.5
141
12.0
290
     0
  0
SCALE
  5
51
102
{ACAD_REACTORS
330
42
102
}
330
42
100
AcDbScale
 70
     0
300
3" = 1'-0"
140
3.0
141
12.0
290
     0
  0
SCALE
  5
52
102
{ACAD_REACTORS
330
42
102
}
330
42
100
AcDbScale
 70
     0
300
6" = 1'-0"
140
6.0
141
12.0
290
     0
  0
SCALE
  5
53
102
{ACAD_REACTORS
330
42
102
}
330
42
100
AcDbScale
 70
     0
300
1'-0" = 1'-0"
140
12.0
141
12.0
290
     0
  0
TABLESTYLE
  5
65
102
{ACAD_XDICTIONARY
360
B98
102
}
102
{ACAD_REACTORS
330
64
102
}
330
64
100
AcDbTableStyle
  3
Standard
 70
     0
 71
     0
 40
0.06
 41
0.06
280
     0
281
     0
  7
Standard
140
0.18
170
     2
 62
     0
 63
     7
283
     0
 90
      512
 91
        0
  1

274
    -2
284
     1
 64
     0
275
    -2
285
     1
 65
     0
276
    -2
286
     1
 66
     0
277
    -2
287
     1
 67
     0
278
    -2
288
     1
 68
     0
279
    -2
289
     1
 69
     0
  7
Standard
140
0.25
170
     5
 62
     0
 63
     7
283
     0
 90
      512
 91
        0
  1

274
    -2
284
     1
 64
     0
275
    -2
285
     1
 65
     0
276
    -2
286
     1
 66
     0
277
    -2
287
     1
 67
     0
278
    -2
288
     1
 68
     0
279
    -2
289
     1
 69
     0
  7
Standard
140
0.18
170
     5
 62
     0
 63
     7
283
     0
 90
      512
 91
        0
  1

274
    -2
284
     1
 64
     0
275
    -2
285
     1
 65
     0
276
    -2
286
     1
 66
     0
277
    -2
287
     1
 67
     0
278
    -2
288
     1
 68
     0
279
    -2
289
     1
 69
     0
  0
VISUALSTYLE
  5
2F
102
{ACAD_XDICTIONARY
360
BF6
102
}
102
{ACAD_REACTORS
330
29
102
}
330
29
100
AcDbVisualStyle
  2

 70
     4
 71
     0
 72
     2
 73
     0
 90
        0
 40
-0.6
 41
-30.0
 62
     5
 63
     7
421
 16777215
 74
     1
 91
        4
 64
     7
 65
   257
 75
     1
175
     1
 42
1.0
 92
        0
 66
   257
 43
1.0
 76
     1
 77
     6
 78
     2
 67
     7
 79
     5
170
     0
171
     0
290
     0
174
     0
 93
        1
 44
0.0
173
     0
291
     0
 45
0.0
1001
ACAD
1000
AcDbSavedByObjectVersion
1070
     0
  0
VISUALSTYLE
  5
2E
102
{ACAD_XDICTIONARY
360
BF4
102
}
102
{ACAD_REACTORS
330
29
102
}
330
29
100
AcDbVisualStyle
  2

 70
     7
 71
     1
 72
     0
 73
     1
 90
        0
 40
-0.6
 41
-30.0
 62
     5
 63
     7
421
 16777215
 74
     0
 91
        4
 64
     7
 65
   257
 75
     1
175
     1
 42
1.0
 92
        8
 66
     7
 43
1.0
 76
     1
 77
     6
 78
     2
 67
     7
 79
     5
170
     0
171
     0
290
     0
174
     0
 93
        1
 44
0.0
173
     0
291
     1
 45
0.0
1001
ACAD
1000
AcDbSavedByObjectVersion
1070
     0
  0
VISUALSTYLE
  5
35
102
{ACAD_XDICTIONARY
360
C02
102
}
102
{ACAD_REACTORS
330
29
102
}
330
29
100
AcDbVisualStyle
  2

 70
    12
 71
     2
 72
     2
 73
     0
 90
        0
 40
-0.6
 41
-30.0
 62
     5
 63
     7
421
 16777215
 74
     1
 91
        4
 64
     7
 65
   257
 75
     1
175
     1
 42
1.0
 92
        8
 66
     7
 43
1.0
 76
     1
 77
     6
 78
     2
 67
     7
 79
     5
170
     0
171
     0
290
     0
174
     0
 93
        1
 44
50.0
173
     0
291
     1
 45
0.0
1001
ACAD
1000
AcDbSavedByObjectVersion
1070
     0
  0
VISUALSTYLE
  5
39
102
{ACAD_XDICTIONARY
360
C0A
102
}
102
{ACAD_REACTORS
330
29
102
}
330
29
100
AcDbVisualStyle
  2

 70
    16
 71
     2
 72
     2
 73
     3
 90
        0
 40
-0.6
 41
-30.0
 62
     5
 63
     8
421
  8421504
 74
     1
 91
        4
 64
     7
 65
   257
 75
     1
175
     1
 42
1.0
 92
        8
 66
     8
424
  8421504
 43
1.0
 76
     1
 77
     6
 78
     2
 67
     7
 79
     5
170
     0
171
     0
290
     0
174
     0
 93
        1
 44
0.0
173
     0
291
     1
 45
0.0
1001
ACAD
1000
AcDbSavedByObjectVersion
1070
     0
  0
VISUALSTYLE
  5
32
102
{ACAD_XDICTIONARY
360
BFC
102
}
102
{ACAD_REACTORS
330
29
102
}
330
29
100
AcDbVisualStyle
  2

 70
     9
 71
     3
 72
     2
 73
     0
 90
        0
 40
-0.6
 41
-30.0
 62
     5
 63
     7
421
 16777215
 74
     2
 91
        2
 64
     7
 65
   257
 75
     1
175
     1
 42
179.0
 92
        8
 66
     7
 43
1.0
 76
     1
 77
     6
 78
     2
 67
     7
 79
     3
170
     0
171
     0
290
     0
174
     0
 93
        1
 44
0.0
173
     0
291
     0
 45
0.0
1001
ACAD
1000
AcDbSavedByObjectVersion
1070
     0
  0
VISUALSTYLE
  5
34
102
{ACAD_XDICTIONARY
360
C00
102
}
102
{ACAD_REACTORS
330
29
102
}
330
29
100
AcDbVisualStyle
  2

 70
    11
 71
     2
 72
     2
 73
     0
 90
        0
 40
-0.6
 41
-30.0
 62
     5
 63
     7
421
 16777215
 74
     1
 91
        4
 64
     7
 65
   257
 75
     1
175
     1
 42
1.0
 92
        8
 66
     7
 43
1.0
 76
     1
 77
     6
 78
     2
 67
     7
 79
     5
170
     0
171
     0
290
     0
174
     0
 93
        1
 44
-50.0
173
     0
291
     1
 45
0.0
1001
ACAD
1000
AcDbSavedByObjectVersion
1070
     0
  0
VISUALSTYLE
  5
41
102
{ACAD_XDICTIONARY
360
C1A
102
}
102
{ACAD_REACTORS
330
29
102
}
330
29
100
AcDbVisualStyle
  2

 70
    22
 71
     2
 72
     2
 73
     0
 90
        0
 40
-0.6
 41
-30.0
 62
     5
 63
     7
421
 16777215
 74
     1
 91
        4
 64
     7
 65
   257
 75
     1
175
     1
 42
1.0
 92
        8
 66
     7
 43
1.0
 76
     1
 77
     6
 78
     2
 67
     7
 79
     5
170
     0
171
     0
290
     0
174
     0
 93
        1
 44
0.0
173
     0
291
     1
 45
0.0
1001
ACAD
1000
AcDbSavedByObjectVersion
1070
     0
  0
VISUALSTYLE
  5
38
102
{ACAD_XDICTIONARY
360
C08
102
}
102
{ACAD_REACTORS
330
29
102
}
330
29
100
AcDbVisualStyle
  2

 70
    15
 71
     2
 72
     2
 73
     0
 90
        0
 40
-0.6
 41
-30.0
 62
     5
 63
     7
421
 16777215
 74
     1
 91
        4
 64
     7
 65
   257
 75
     1
175
     1
 42
1.0
 92
        8
 66
     7
 43
1.0
 76
     1
 77
     6
 78
     2
 67
     7
 79
     5
170
     0
171
     0
290
     0
174
     0
 93
        1
 44
0.0
173
     0
291
     1
 45
0.0
1001
ACAD
1000
AcDbSavedByObjectVersion
1070
     0
  0
VISUALSTYLE
  5
2A
102
{ACAD_XDICTIONARY
360
BEC
102
}
102
{ACAD_REACTORS
330
29
102
}
330
29
100
AcDbVisualStyle
  2

 70
     0
 71
     2
 72
     1
 73
     1
 90
        2
 40
-0.6
 41
30.0
 62
     5
 63
     7
421
 16777215
 74
     0
 91
        0
 64
     7
 65
   257
 75
     1
175
     1
 42
1.0
 92
        8
 66
     7
 43
1.0
 76
     1
 77
     6
 78
     2
 67
     7
 79
     5
170
     0
171
     0
290
     0
174
     0
 93
       13
 44
0.0
173
     0
291
     1
 45
0.0
1001
ACAD
1000
AcDbSavedByObjectVersion
1070
     0
  0
VISUALSTYLE
  5
2B
102
{ACAD_XDICTIONARY
360
BEE
102
}
102
{ACAD_REACTORS
330
29
102
}
330
29
100
AcDbVisualStyle
  2

 70
     1
 71
     2
 72
     1
 73
     1
 90
        2
 40
-0.6
 41
30.0
 62
     5
 63
     7
421
 16777215
 74
     1
 91
        0
 64
     7
 65
   257
 75
     1
175
     1
 42
1.0
 92
        0
 66
   257
 43
1.0
 76
     1
 77
     6
 78
     2
 67
     7
 79
     5
170
     0
171
     0
290
     0
174
     0
 93
       13
 44
0.0
173
     0
291
     1
 45
0.0
1001
ACAD
1000
AcDbSavedByObjectVersion
1070
     0
  0
VISUALSTYLE
  5
2C
102
{ACAD_XDICTIONARY
360
BF0
102
}
102
{ACAD_REACTORS
330
29
102
}
330
29
100
AcDbVisualStyle
  2

 70
     2
 71
     2
 72
     2
 73
     1
 90
        2
 40
-0.6
 41
30.0
 62
     5
 63
     7
421
 16777215
 74
     0
 91
        0
 64
     7
 65
   257
 75
     1
175
     1
 42
1.0
 92
        0
 66
     7
 43
1.0
 76
     1
 77
     6
 78
     2
 67
     7
 79
     5
170
     0
171
     0
290
     0
174
     0
 93
       13
 44
0.0
173
     0
291
     1
 45
0.0
1001
ACAD
1000
AcDbSavedByObjectVersion
1070
     0
  0
VISUALSTYLE
  5
2D
102
{ACAD_XDICTIONARY
360
BF2
102
}
102
{ACAD_REACTORS
330
29
102
}
330
29
100
AcDbVisualStyle
  2

 70
     3
 71
     2
 72
     2
 73
     1
 90
        2
 40
-0.6
 41
30.0
 62
     5
 63
     7
421
 16777215
 74
     1
 91
        0
 64
     7
 65
   257
 75
     1
175
     1
 42
1.0
 92
        0
 66
   257
 43
1.0
 76
     1
 77
     6
 78
     2
 67
     7
 79
     5
170
     0
171
     0
290
     0
174
     0
 93
       13
 44
0.0
173
     0
291
     1
 45
0.0
1001
ACAD
1000
AcDbSavedByObjectVersion
1070
     0
  0
VISUALSTYLE
  5
31
102
{ACAD_XDICTIONARY
360
BFA
102
}
102
{ACAD_REACTORS
330
29
102
}
330
29
100
AcDbVisualStyle
  2

 70
     6
 71
     1
 72
     2
 73
     2
 90
        0
 40
-0.6
 41
-30.0
 62
     5
 63
     7
421
 16777215
 74
     2
 91
        2
 64
     7
 65
   257
 75
     2
175
     1
 42
40.0
 92
        0
 66
   257
 43
1.0
 76
     1
 77
     6
 78
     2
 67
     7
 79
     3
170
     0
171
     0
290
     0
174
     0
 93
        1
 44
0.0
173
     0
291
     0
 45
0.0
1001
ACAD
1000
AcDbSavedByObjectVersion
1070
     0
  0
VISUALSTYLE
  5
3F
102
{ACAD_XDICTIONARY
360
C16
102
}
102
{ACAD_REACTORS
330
29
102
}
330
29
100
AcDbVisualStyle
  2

 70
    20
 71
     2
 72
     2
 73
     0
 90
        0
 40
-0.6
 41
-30.0
 62
     5
 63
     7
421
 16777215
 74
     1
 91
        4
 64
     7
 65
   257
 75
     1
175
     1
 42
1.0
 92
       10
 66
     7
 43
1.0
 76
     1
 77
     6
 78
     2
 67
     7
 79
     5
170
     0
171
     0
290
     0
174
     0
 93
        1
 44
0.0
173
     0
291
     1
 45
0.0
1001
ACAD
1000
AcDbSavedByObjectVersion
1070
     0
  0
VISUALSTYLE
  5
37
102
{ACAD_XDICTIONARY
360
C06
102
}
102
{ACAD_REACTORS
330
29
102
}
330
29
100
AcDbVisualStyle
  2

 70
    14
 71
     2
 72
     2
 73
     0
 90
        0
 40
-0.6
 41
-30.0
 62
     5
 63
     7
421
 16777215
 74
     1
 91
        4
 64
     7
 65
   257
 75
     7
175
     7
 42
1.0
 92
        8
 66
     7
 43
1.0
 76
     1
 77
     6
 78
     2
 67
     7
 79
     5
170
     0
171
     0
290
     0
174
     0
 93
        1
 44
0.0
173
     0
291
     1
 45
0.0
1001
ACAD
1000
AcDbSavedByObjectVersion
1070
     0
  0
VISUALSTYLE
  5
40
102
{ACAD_XDICTIONARY
360
C18
102
}
102
{ACAD_REACTORS
330
29
102
}
330
29
100
AcDbVisualStyle
  2

 70
    21
 71
     2
 72
     2
 73
     0
 90
        0
 40
-0.6
 41
-30.0
 62
     5
 63
     7
421
 16777215
 74
     1
 91
        4
 64
     7
 65
   257
 75
     1
175
     1
 42
1.0
 92
        9
 66
     7
 43
1.0
 76
     1
 77
     6
 78
     2
 67
     7
 79
     5
170
     0
171
     0
290
     0
174
     0
 93
        1
 44
0.0
173
     0
291
     1
 45
0.0
1001
ACAD
1000
AcDbSavedByObjectVersion
1070
     0
  0
VISUALSTYLE
  5
33
102
{ACAD_XDICTIONARY
360
BFE
102
}
102
{ACAD_REACTORS
330
29
102
}
330
29
100
AcDbVisualStyle
  2

 70
     8
 71
     2
 72
     3
 73
     0
 90
        2
 40
-0.6
 41
30.0
 62
     5
 63
     7
421
 16777215
 74
     0
 91
        0
 64
     7
 65
   257
 75
     1
175
     1
 42
1.0
 92
        8
 66
   257
 43
1.0
 76
     1
 77
     6
 78
     2
 67
     7
 79
     3
170
     0
171
     0
290
     0
174
     0
 93
       13
 44
0.0
173
     0
291
     0
 45
0.0
1001
ACAD
1000
AcDbSavedByObjectVersion
1070
     0
  0
VISUALSTYLE
  5
3E
102
{ACAD_XDICTIONARY
360
C14
102
}
102
{ACAD_REACTORS
330
29
102
}
330
29
100
AcDbVisualStyle
  2

 70
    27
 71
     2
 72
     2
 73
     1
 90
        2
 40
-0.6
 41
30.0
 62
     5
 63
     7
421
 16777215
 74
     0
 91
        4
 64
     7
 65
   257
 75
     1
175
     1
 42
1.0
 92
        8
 66
   257
 43
1.0
 76
     1
 77
     6
 78
     2
 67
     8
425
  7895160
 79
     3
170
     0
171
     0
290
     0
174
     0
 93
        5
 44
0.0
173
     0
291
     0
 45
0.0
1001
ACAD
1000
AcDbSavedByObjectVersion
1070
     0
  0
VISUALSTYLE
  5
3D
102
{ACAD_XDICTIONARY
360
C12
102
}
102
{ACAD_REACTORS
330
29
102
}
330
29
100
AcDbVisualStyle
  2

 70
    26
 71
     2
 72
     2
 73
     1
 90
        2
 40
-0.6
 41
30.0
 62
     5
 63
     7
421
 16777215
 74
     1
 91
       10
 64
     7
 65
   257
 75
     2
175
     1
 42
1.0
 92
        8
 66
   257
 43
1.0
 76
     1
 77
     6
 78
     2
 67
     7
 79
     3
170
     0
171
     0
290
     0
174
     0
 93
        5
 44
0.0
173
     0
291
     0
 45
0.0
1001
ACAD
1000
AcDbSavedByObjectVersion
1070
     0
  0
VISUALSTYLE
  5
3A
102
{ACAD_XDICTIONARY
360
C0C
102
}
102
{ACAD_REACTORS
330
29
102
}
330
29
100
AcDbVisualStyle
  2

 70
    23
 71
     2
 72
     2
 73
     3
 90
        0
 40
-0.6
 41
-30.0
 62
     5
 63
     7
421
 16777215
 74
     2
 91
        2
 64
     7
 65
     7
 75
     1
175
     1
 42
40.0
 92
        8
 66
     7
 43
1.0
 76
     1
 77
     6
 78
     2
 67
     7
 79
     3
170
     0
171
     0
290
     0
174
     0
 93
        1
 44
0.0
173
     0
291
     0
 45
0.0
1001
ACAD
1000
AcDbSavedByObjectVersion
1070
     0
  0
VISUALSTYLE
  5
3B
102
{ACAD_XDICTIONARY
360
C0E
102
}
102
{ACAD_REACTORS
330
29
102
}
330
29
100
AcDbVisualStyle
  2

 70
    24
 71
     1
 72
     2
 73
     2
 90
        0
 40
-0.6
 41
-30.0
 62
     5
 63
     7
421
 16777215
 74
     2
 91
        2
 64
     7
 65
     7
 75
     1
175
     1
 42
40.0
 92
       11
 66
     7
 43
1.0
 76
     1
 77
     6
 78
     2
 67
     7
 79
     6
170
     0
171
     0
290
     0
174
     0
 93
        1
 44
0.0
173
     0
291
     0
 45
0.0
1001
ACAD
1000
AcDbSavedByObjectVersion
1070
     0
  0
VISUALSTYLE
  5
36
102
{ACAD_XDICTIONARY
360
C04
102
}
102
{ACAD_REACTORS
330
29
102
}
330
29
100
AcDbVisualStyle
  2

 70
    13
 71
     2
 72
     2
 73
     0
 90
        0
 40
-0.6
 41
-30.0
 62
     5
 63
     7
421
 16777215
 74
     1
 91
        4
 64
     7
 65
   257
 75
     1
175
     1
 42
1.0
 92
       12
 66
     7
 43
1.0
 76
     1
 77
     6
 78
     2
 67
     7
 79
     5
170
     0
171
     0
290
     0
174
     0
 93
        1
 44
0.0
173
     0
291
     1
 45
0.0
1001
ACAD
1000
AcDbSavedByObjectVersion
1070
     0
  0
VISUALSTYLE
  5
30
102
{ACAD_XDICTIONARY
360
BF8
102
}
102
{ACAD_REACTORS
330
29
102
}
330
29
100
AcDbVisualStyle
  2

 70
     5
 71
     0
 72
     2
 73
     0
 90
        0
 40
-0.6
 41
-30.0
 62
     5
 63
     7
421
 16777215
 74
     1
 91
        4
 64
     7
 65
   257
 75
     1
175
     1
 42
1.0
 92
        0
 66
   257
 43
1.0
 76
     1
 77
     6
 78
     2
 67
     7
 79
     3
170
     0
171
     0
290
     0
174
     0
 93
        1
 44
0.0
173
     0
291
     0
 45
0.0
1001
ACAD
1000
AcDbSavedByObjectVersion
1070
     0
  0
VISUALSTYLE
  5
3C
102
{ACAD_XDICTIONARY
360
C10
102
}
102
{ACAD_REACTORS
330
29
102
}
330
29
100
AcDbVisualStyle
  2

 70
    25
 71
     2
 72
     2
 73
     1
 90
        1
 40
0.5
 41
-30.0
 62
     5
 63
     7
421
 16777215
 74
     1
 91
        0
 64
     7
 65
   257
 75
     1
175
     1
 42
1.0
 92
        8
 66
     7
 43
1.0
 76
     1
 77
     6
 78
     2
 67
     7
 79
     3
170
     0
171
     0
290
     0
174
     0
 93
       13
 44
0.0
173
     0
291
     0
 45
0.0
1001
ACAD
1000
AcDbSavedByObjectVersion
1070
     0
  0
DICTIONARYVAR
  5
B96
102
{ACAD_REACTORS
330
B93
102
}
330
B93
100
DictionaryVariables
280
     0
  1
1:1
  0
DICTIONARYVAR
  5
B95
102
{ACAD_REACTORS
330
B93
102
}
330
B93
100
DictionaryVariables
280
     0
  1
STANDARD
  0
DICTIONARYVAR
  5
B94
102
{ACAD_REACTORS
330
B93
102
}
330
B93
100
DictionaryVariables
280
     0
  1
STANDARD
  0
DICTIONARYVAR
  5
BDD
102
{ACAD_REACTORS
330
B93
102
}
330
B93
100
DictionaryVariables
280
     0
  1
2
  0
DICTIONARY
  5
1A
330
19
100
AcDbDictionary
280
     1
281
     1
  3
BUMPTILE
360
1C
  3
DIFFUSETILE
360
1B
  3
OPACITYTILE
360
1F
  3
REFLECTIONTILE
360
1E
  3
REFRACTIONTILE
360
20
  3
SPECULARTILE
360
1D
  0
DICTIONARY
  5
12
330
11
100
AcDbDictionary
280
     1
281
     1
  3
BUMPTILE
360
14
  3
DIFFUSETILE
360
13
  3
FBXASSET
360
D9
  3
OPACITYTILE
360
17
  3
REFLECTIONTILE
360
16
  3
REFRACTIONTILE
360
18
  3
SPECULARTILE
360
15
  0
DICTIONARY
  5
22
330
21
100
AcDbDictionary
280
     1
281
     1
  3
BUMPTILE
360
24
  3
DIFFUSETILE
360
23
  3
OPACITYTILE
360
27
  3
REFLECTIONTILE
360
26
  3
REFRACTIONTILE
360
28
  3
SPECULARTILE
360
25
  0
DICTIONARY
  5
BDF
330
67
100
AcDbDictionary
280
     1
281
     1
  3
ACAD_XREC_ROUNDTRIP
360
BE0
  0
DICTIONARY
  5
B98
330
65
100
AcDbDictionary
280
     1
281
     1
  3
ACAD_ROUNDTRIP_2008_TABLESTYLE_CELLSTYLEMAP
360
BDE
  0
DICTIONARY
  5
BF6
330
2F
100
AcDbDictionary
280
     1
281
     1
  3
ACAD_XREC_ROUNDTRIP
360
BF7
  0
DICTIONARY
  5
BF4
330
2E
100
AcDbDictionary
280
     1
281
     1
  3
ACAD_XREC_ROUNDTRIP
360
BF5
  0
DICTIONARY
  5
C02
330
35
100
AcDbDictionary
280
     1
281
     1
  3
ACAD_XREC_ROUNDTRIP
360
C03
  0
DICTIONARY
  5
C0A
330
39
100
AcDbDictionary
280
     1
281
     1
  3
ACAD_XREC_ROUNDTRIP
360
C0B
  0
DICTIONARY
  5
BFC
330
32
100
AcDbDictionary
280
     1
281
     1
  3
ACAD_XREC_ROUNDTRIP
360
BFD
  0
DICTIONARY
  5
C00
330
34
100
AcDbDictionary
280
     1
281
     1
  3
ACAD_XREC_ROUNDTRIP
360
C01
  0
DICTIONARY
  5
C1A
330
41
100
AcDbDictionary
280
     1
281
     1
  3
ACAD_XREC_ROUNDTRIP
360
C1B
  0
DICTIONARY
  5
C08
330
38
100
AcDbDictionary
280
     1
281
     1
  3
ACAD_XREC_ROUNDTRIP
360
C09
  0
DICTIONARY
  5
BEC
330
2A
100
AcDbDictionary
280
     1
281
     1
  3
ACAD_XREC_ROUNDTRIP
360
BED
  0
DICTIONARY
  5
BEE
330
2B
100
AcDbDictionary
280
     1
281
     1
  3
ACAD_XREC_ROUNDTRIP
360
BEF
  0
DICTIONARY
  5
BF0
330
2C
100
AcDbDictionary
280
     1
281
     1
  3
ACAD_XREC_ROUNDTRIP
360
BF1
  0
DICTIONARY
  5
BF2
330
2D
100
AcDbDictionary
280
     1
281
     1
  3
ACAD_XREC_ROUNDTRIP
360
BF3
  0
DICTIONARY
  5
BFA
330
31
100
AcDbDictionary
280
     1
281
     1
  3
ACAD_XREC_ROUNDTRIP
360
BFB
  0
DICTIONARY
  5
C16
330
3F
100
AcDbDictionary
280
     1
281
     1
  3
ACAD_XREC_ROUNDTRIP
360
C17
  0
DICTIONARY
  5
C06
330
37
100
AcDbDictionary
280
     1
281
     1
  3
ACAD_XREC_ROUNDTRIP
360
C07
  0
DICTIONARY
  5
C18
330
40
100
AcDbDictionary
280
     1
281
     1
  3
ACAD_XREC_ROUNDTRIP
360
C19
  0
DICTIONARY
  5
BFE
330
33
100
AcDbDictionary
280
     1
281
     1
  3
ACAD_XREC_ROUNDTRIP
360
BFF
  0
DICTIONARY
  5
C14
330
3E
100
AcDbDictionary
280
     1
281
     1
  3
ACAD_XREC_ROUNDTRIP
360
C15
  0
DICTIONARY
  5
C12
330
3D
100
AcDbDictionary
280
     1
281
     1
  3
ACAD_XREC_ROUNDTRIP
360
C13
  0
DICTIONARY
  5
C0C
330
3A
100
AcDbDictionary
280
     1
281
     1
  3
ACAD_XREC_ROUNDTRIP
360
C0D
  0
DICTIONARY
  5
C0E
330
3B
100
AcDbDictionary
280
     1
281
     1
  3
ACAD_XREC_ROUNDTRIP
360
C0F
  0
DICTIONARY
  5
C04
330
36
100
AcDbDictionary
280
     1
281
     1
  3
ACAD_XREC_ROUNDTRIP
360
C05
  0
DICTIONARY
  5
BF8
330
30
100
AcDbDictionary
280
     1
281
     1
  3
ACAD_XREC_ROUNDTRIP
360
BF9
  0
DICTIONARY
  5
C10
330
3C
100
AcDbDictionary
280
     1
281
     1
  3
ACAD_XREC_ROUNDTRIP
360
C11
  0
XRECORD
  5
1C
102
{ACAD_REACTORS
330
1A
102
}
330
1A
100
AcDbXrecord
280
     1
270
     1
271
     1
  0
XRECORD
  5
1B
102
{ACAD_REACTORS
330
1A
102
}
330
1A
100
AcDbXrecord
280
     1
270
     1
271
     1
  0
XRECORD
  5
1F
102
{ACAD_REACTORS
330
1A
102
}
330
1A
100
AcDbXrecord
280
     1
270
     1
271
     1
  0
XRECORD
  5
1E
102
{ACAD_REACTORS
330
1A
102
}
330
1A
100
AcDbXrecord
280
     1
270
     1
271
     1
  0
XRECORD
  5
20
102
{ACAD_REACTORS
330
1A
102
}
330
1A
100
AcDbXrecord
280
     1
270
     1
271
     1
  0
XRECORD
  5
1D
102
{ACAD_REACTORS
330
1A
102
}
330
1A
100
AcDbXrecord
280
     1
270
     1
271
     1
  0
XRECORD
  5
14
102
{ACAD_REACTORS
330
12
102
}
330
12
100
AcDbXrecord
280
     1
270
     1
271
     1
  0
XRECORD
  5
13
102
{ACAD_REACTORS
330
12
102
}
330
12
100
AcDbXrecord
280
     1
270
     1
271
     1
  0
XRECORD
  5
D9
102
{ACAD_REACTORS
330
12
102
}
330
12
100
AcDbXrecord
280
     1
 70
     1
 90
1959938040
 71
     1
  1
3A736344-BBCD-4591-B166-050C4DF0AA33
311
504B03040A0000080000086D44433DEE336E79000000790000001B0000006175746F6465736B2D64657369676E2D7061636B6167652E786D6C3C3F786D6C2076657273696F6E3D22312E302220656E636F64696E673D227574662D3822203F3E3C666F726D6174733E3C666F726D61743E687474703A2F2F736368656D612E
311
6175746F6465736B2E636F6D2F64657369676E2D7061636B6167652F323030393C2F666F726D61743E3C2F666F726D6174733E504B0304140006080800086D4443D486FD9CA0000000F4000000130000005B436F6E74656E745F54797065735D2E786D6C7D8EC10E82300C865F65E91D8A1E8C310C0EEA1BF002731658846E
311
D98AC1B77784ABF1D8FE5FBFBF75BBCE937A534CCEB38643598122B6FEE978D0B0485F9C41B54DDD7D022595594E1A469170414C76A4D9A4D207E29CF43ECE46F218070CC6BECC4078ACAA135ACF422C856C0E68EA1BF5669944DDD7BCDE7B1F8E415D77AECB980613C2E4AC91FC167A2B244592486606FC29C8FD7F045B9A
311
EF7053A7E60B504B0304140006080800086D44435911BAB8EB0000007C01000008000000636F72652E786D6C8D90DD6EC3200C855F05F9762231F9699A8850A9DDFA047B0144688ADA401460DAE38FB4A9B4DDEDCAD6F1F96CEBF0C3F774275F7AF1C6D91E588640B4556E3076EC21860BDD033908BE38177ED9805839E91E
311
5619041F1717E74D52CE066D4352AD1BF4264AEF7500A2EEA9E9C1ABAB9E642663480E7FCB66A96E72D4197B75098ED10CE479C40C699FB918BD80A8B07C3FB6E71D6D76C5895678AC69DB9E19ADEB3DE21E9B8FF654F27C85050F667ADD578B96410F200A64256548B1FA64655761C79A37641D22CF57FB1F28CEC33FA168
311
6C288BEDDD27E641B0F4C8632078BE6691CA23A854D7DCC40F504B0304140006080800086D444355019EA25F0000007C00000007000000636E782E786D6C4DCB3B0E80201045D1AD90E915ED2CF8AC45050C11660C8261F98AB1B07AC9C97D42D718D865D3E909258CFD00CCE24AC6E326A164D74DC0B4128928FF32603847
311
2BA13128B1252AC747C6BAB984FC68F0B87FE8960A5C09FE86CFB69FBA01504B0304140006080800086D44436E37E35167010000020300000C0000006662782F636F72652E786D6C8D52ED8E8320107C15C2DF8B026A3F6C9026ED5D9FE05E802AF54C150C82E9E3DFFAD178BD344D6382646667777694EF6F4D8D7A65BBCA
311
E80CB39062A4746E8A4A9719F6EE126C31DA0B6E8D717FCA30D2B251191E602C78698D6F672837DA29ED00D5A6503328BB4E398CF21A2E19EEF21FD5C8507A0715DD356C657E95A50A590834D409DE390B06D0346438B1B89C6F9C4CB8E0DE57C5CC56054CAB2E95B2582434FE3CA4A775B05947C720A1875590A62716AC56
311
5B4AB774F3951E634E06B1E0AE6AEEEE72ABA4530516116571C06840936F16EF12BA639B0FCA76947232943F887C5BBC29F295767134DB9D641D160C8C8CC4BF6D2122873AD9831F2238194284D798F063D0100884ECE4B9BEEF7105A857B9333601A6307EA17A597B0553291A1F4E26163A8F0D60B3A77DA2177D5EF7800F
311
287509D6A483EBD9BB613A9FA6CE51B4CA06BDBB216D6C23EBC5DC64713997414FE5B9A98D7D474DE655C91C2619FE5EF10B504B0304140006080800086D44439F5024BB7E0000009D0000000B0000006662782F636E782E786D6C4DCCD10A83201886E15B91FFDC55ACA50335CA7FDE472C8B98E9703A76F9ABD1C18E3E78
311
F87845FB591D79DBF85A8297509D4A20D6DFC3B8F859424E13E5405A256208E9EF06C40FAB95B0332831C7909F078D761AB24B9BBAC53F0E6C7A640619A757839AD6585E68C76AA41D1AA39B33D7D5AD874289E257DA760FAB2F504B0304140006080800086D4443793766C42E01000015020000310000006662782F364244
311
37464437382D394644432D344430352D413734442D4144464643363338433145422F636F72652E786D6C8D515B6EC32010BC0AE22B55850D31B19D081325717D825E80D8244589C1E251E5F885DA91DABFFCB068766676B4CBF68FF10EBEA575CAE806920C4320756F06A5AF0D0CFE826A08F69C5963FC1F1A045A8CB28109
311
869C5DAD09D302F5467BA97D44B519E4020AE7A487A0BFC74F035DFF25479189E023C3DDB249F437719519C9623BF23873DEC600601E925EC8CB635B756D55A36DD79E106DF1061D2ADAA243DB75A7B2A84FE4E3C8F259C859086A58E46A8871D44549FBAA491273E6D5F88CDF5B29BC1C205F6352208211A69FA4D851BC23
311
D53B263B8C599EE8FF44611A5E1405A57DB15EE2CE32073961F9DCE06C30E17C7F86918FC9580FD2BC9593FD1BE438C398D69856EB82E533376E209A96743175DED8B8E1D5ED1CE964333B9794B33C1D2996DF0BC69A0ECA7F00504B0304140006080800086D4443E3FBE65B4D01000033030000300000006662782F364244
311
37464437382D394644432D344430352D413734442D4144464643363338433145422F636E782E786D6CD593BD6E032110845F05D146F7437C72228BC3528A3C418AB41CAC1D620E4EFC44F1DB67B1B1E3C645CA34E8343BCCAC3E717CFB3D5BF205211AEF46CADA9E1270CA6BE3F623CD69D73C53B2153C789F6E6C943839C3
311
488B4C05DF079F972A69D8C96C13AAD6B8431503449F83828872B949AC57D26200B826A308F3045A832657237EED20E02A284E47923E80BCBEBC133F7D824A91772545F0AE74085ECEDA7463A2445919E348A3FA8059B63227AF211E5A2D936C597BE9BAB3D36F1229172E95391852CA475A4E2AEA462D72E41D0E058F2920
311
BD6A4AC705A890CB628D9209217727E3D92378362EAD87EA35083EA09BAD57C38061A799E0C9CC501D2A804CA0A978ECD9AA617DD30F6F6CB519FA0D7B7AE8D9A6EF7957EC824FDEDB7A096320F88528EF12B84405E35D19DFC3577D449B80AC7D38FE012402A8AD673AD78CFFCCA73BBD6FC415F02F103F504B0304140006
311
080800086D444303535F4CA305000081100000340000006662782F36424437464437382D394644432D344430352D413734442D4144464643363338433145422F6F626A656374732E786D6CAD575B6FDB3614FE2B82F6B23DF822DB49934151E1CB52185DDAA2468B3D1830288952B850179054EAECD7EFA348C9926BA7DED0
311
175D78393CE73BDFB9D07FBBCFB8F34C8564457EE77AC3B1EBD03C2A6296A7776EA592C18DEBBC0D7C5114AAB3CC757292D13B570FBB819F8AA22AED504C13527175347ABFF8CB9111CDA9EB449C4879E7CAE8916664482A55C4543E0D63A2C8304DF6436F6816F6C5A682948F47424B2268AEA029C67348718C525EFF77EC
311
8E027FA4E7035F3FEDAAE9F955A3DA9EFEF92C978AE4D177871D89997AB3D51F93ABDBC1D56C361DCCAE27DE6071BF580DBC37D3F1F27AB9BC9DFF718B83A5129064351134718377C046B0C81F99A9C0AF58AEA613BBC43A6824E833D39E728389E3F923B3A6B5CE1A794AFDA8C8731AD558018DDA3E2B3AA625CD63F89C51
311
09CD3A088DFBBF9EC6B1333DD5FFF6C8EEF065087477740435BA37EFAEA645F8374C9097304848AA1968B0B4861AAE8E0F088745C1ED1C934E4614158C7087B35010F1E20658AA97047E4F8C66B2D0D1A02D700378C14CF7E98230FA31CF4F6999549C6B1ABB411D053BC40A55B2D68CFD43C541FB2E32D009BED26CB8B106
311
A99792BAC1ADA1C8CD119B0C904EC2490A97C34CBD733A393274A9E374BD7283F7F7E17EA363F7F4E1A5284A2A94A60FA8D538AE796B94AC4EDE459ED31BDC23550EA07C06F21F10EA0755E037C1F6B3FDCC9EA204C96552880CBE71C6CE608CC7D8F1EAA7FEEE7CF9A37673DF7BE7F084B335543F01CFBE0D5D5F76E00CFC
311
6710BE10536BDA26221C69E381E5004893C4E1058690879370EF066B64396465EC223CF06032D47DC6A73FB2629028EA933AEF1C581EA5C50B123460AB1909350CF9AD82073F7D97CEEA83EDB273F05EFD14BACE579BF79B4A2424A20F36A65734613953287107DE7415EA61DEB3E889BE7C2B440C43BFC77BD3C53BB34749
311
A0AD31D7C0A74D4ED73F87937B0744D897163ADDF83F380146E8C2DA91FFC064443927392DAAE6DC57EB07CA86815807BB66725B600E8505A43133473188221D09566A10DB6AD526CDE119EBBEAC3F80916EB078F993BC74B35778C8BD51C10BB10B5F76262D9D84FA6B9FDB1683919602BAD741D2C4BF057D17B324A92492
311
E0095CBFAE975DDFE9B48014D14835D13283FD082E222C691BB9A8D682A09216F98EA16E22EE4E1ED0950F482D036A81E7349694273BC67995ED12C6518D761929CFC0F1FFF50FABACDC91ACA8727546764F755487BEEE3DF6CA6F44458F6EB0A9DF8305726F4CE33364D0B5E404563DD74EE76FA6D7D3D96CB0582C5783D9
311
D52DFA27EFFA7A30BE1A2F67ABFBF17C3E9D367E329A047E536ABA110D2FA1B4F99560D67D5FD6881F9B04DCE08128B97D67C2B3797F590FD10BFB23EC41BD6C37CEE367F47D34FEB180C3CA9382D659C969467345740C3DE80FFE99A0CFE82963C6D71949E905523EBEDB1C1983910BF67DD2F14EBF1DEDB5A34B1D902785
311
A8C72A0B73C2F8D1C6D420392CF3D4E2D7F8A47D9B42D3FCEA3FEB1874A6B2E02C461E8C9D94161955C886171421915109EA757BFAD8DE3D2ED8FD6C3A4445424E1B4D1E099A642E1116A05615A9FEB8F30B9A3ADD57DDB928B7C3273C6CA6701D70E6CE4593AE5844E5304481D6AD502D1C5CEA76F268FC499E72F4DA6653
311
FBDFEED2D8F44A72BBE492FEC9DA6552B8350069A444DF808608DEA99509FC5A373B1FFD27C31B751CA2F01956AAB5E530D01A531F83103546D9DB029A98277BF41E81FABA59DEB05ED343E4A25BD6AB243052078A88B4BE2968FDAC4AF3D5A7113A1467FDD1297995C297974B1A080A32573AC0C122B0C2CA2C89025597BF
311
6F3F890237D9CCB967A080F3EBFEE6FAB7EDB2C8B2223743DBB9BD0F3B9B47DC6EE32D9203D5D712B99D8CBDC9B6BE0ED81BCA2E24920E492C9F3000CF0AD602DD733F7869EE8CA84366A25D37D2AE3862E87AE5D8C23683504B976E6ED5E0A0F1C8A98318D2574A1D31DD05E5AB378251BD142A08F4F2C1BF504B03041400
311
06080000086D4443000000000000000000000000350000006662782F36424437464437382D394644432D344430352D413734442D4144464643363338433145422F76657274696365732E62696E504B0304140006080800086D4443F270F1330600000004000000360000006662782F36424437464437382D394644432D3444
311
30352D413734442D4144464643363338433145422F747269616E676C65732E62696E636660600000504B0304140006080000086D4443000000000000000000000000370000006662782F36424437464437382D394644432D344430352D413734442D4144464643363338433145422F617474726962757465732E62696E504B
311
0304140006080800086D4443D5987DFC8F00000041010000360000006662782F36424437464437382D394644432D344430352D413734442D4144464643363338433145422F6469726563746F72792E786D6C858F410EC2201045AF4266AF15DDB800BA74E7C21B903225242D6328188F2FA5C4183471359997F9FF81E89FF3
311
C41E1816475E02DF1F80A11FC8386F25A438EECEC07A250251FC3803E6F58C12560C4AD840E95E91C151A72936F496F35732D860FE635F62C8F2DA16B505C545B74125BAA2FA9E05D7CC053D063734D5C7665FD55B6B8D15D5E9BFEAFD8490FFA45E504B0304140006080800086D444331FBE789FE000000A00100003B0000
311
006662782F36424437464437382D394644432D344430352D413734442D4144464643363338433145422F7265736F75726365732F636F72652E786D6C8D504B6E833010BD0A9A6D6518072821328E94B439412F6099496225D8C89FAAC7AF49A8D4EEBA9919BD8FE6E989FDD7742F3EC907E3EC00BC4428C86A371A7B1920C5
311
33DB42B197C23B177FC9A0B06AA2011618A4B87897E615D2CE46B231A3D68DB4822A048A50E87B3E0608FA4A932A558A59116EE5ACF44D5DA8E465A6B34E8A107D0E503C9F2C13A4A7E092D71444F564A548C98CABC68CF9A7391BF2201BACDF0EFDA965DDEBE6C81A3CB4ACEF4F9CB5ED16718BDD7B7FAC45B598A58866FA
311
C9A83DA94823C80DF29A7164D87CF07AD7E08E772FC87788A25AE47F4C691EFF694AC6C67AB3C67DDA02489E833C0829AAA5AFBC1E65E6BD742BBF01504B010214000A0000080000086D44433DEE336E79000000790000001B00000000000000000000000000000000006175746F6465736B2D64657369676E2D7061636B61
311
67652E786D6C504B01021400140006080800086D4443D486FD9CA0000000F40000001300000000000000000000000000B20000005B436F6E74656E745F54797065735D2E786D6C504B01021400140006080800086D44435911BAB8EB0000007C010000080000000000000000000000000083010000636F72652E786D6C504B
311
01021400140006080800086D444355019EA25F0000007C000000070000000000000000000000000094020000636E782E786D6C504B01021400140006080800086D44436E37E35167010000020300000C00000000000000000000000000180300006662782F636F72652E786D6C504B01021400140006080800086D44439F50
311
24BB7E0000009D0000000B00000000000000000000000000A90400006662782F636E782E786D6C504B01021400140006080800086D4443793766C42E010000150200003100000000000000000000000000500500006662782F36424437464437382D394644432D344430352D413734442D4144464643363338433145422F63
311
6F72652E786D6C504B01021400140006080800086D4443E3FBE65B4D010000330300003000000000000000000000000000CD0600006662782F36424437464437382D394644432D344430352D413734442D4144464643363338433145422F636E782E786D6C504B01021400140006080800086D444303535F4CA30500008110
311
00003400000000000000000000000000680800006662782F36424437464437382D394644432D344430352D413734442D4144464643363338433145422F6F626A656374732E786D6C504B01021400140006080000086D444300000000000000000000000035000000000000000000000000005D0E00006662782F3642443746
311
4437382D394644432D344430352D413734442D4144464643363338433145422F76657274696365732E62696E504B01021400140006080800086D4443F270F13306000000040000003600000000000000000000000000B00E00006662782F36424437464437382D394644432D344430352D413734442D414446464336333843
311
3145422F747269616E676C65732E62696E504B01021400140006080000086D444300000000000000000000000037000000000000000000000000000A0F00006662782F36424437464437382D394644432D344430352D413734442D4144464643363338433145422F617474726962757465732E62696E504B01021400140006
311
080800086D4443D5987DFC8F0000004101000036000000000000000000000000005F0F00006662782F36424437464437382D394644432D344430352D413734442D4144464643363338433145422F6469726563746F72792E786D6C504B01021400140006080800086D444331FBE789FE000000A00100003B00000000000000
311
000000000000421000006662782F36424437464437382D394644432D344430352D413734442D4144464643363338433145422F7265736F75726365732F636F72652E786D6C504B0506000000000E000E0080040000991100000000
310
504B03040A0000080000086D44433DEE336E79000000790000001B0000006175746F6465736B2D64657369676E2D7061636B6167652E786D6C3C3F786D6C2076657273696F6E3D22312E302220656E636F64696E673D227574662D3822203F3E3C666F726D6174733E3C666F726D61743E687474703A2F2F736368656D612E
310
6175746F6465736B2E636F6D2F64657369676E2D7061636B6167652F323030393C2F666F726D61743E3C2F666F726D6174733E504B0304140006080800086D4443D486FD9CA0000000F4000000130000005B436F6E74656E745F54797065735D2E786D6C7D8EC10E82300C865F65E91D8A1E8C310C0EEA1BF002731658846E
310
D98AC1B77784ABF1D8FE5FBFBF75BBCE937A534CCEB38643598122B6FEE978D0B0485F9C41B54DDD7D022595594E1A469170414C76A4D9A4D207E29CF43ECE46F218070CC6BECC4078ACAA135ACF422C856C0E68EA1BF5669944DDD7BCDE7B1F8E415D77AECB980613C2E4AC91FC167A2B244592486606FC29C8FD7F045B9A
310
EF7053A7E60B504B0304140006080800086D444308366ECEEB0000007C01000008000000636F72652E786D6C8D904D6EC3201085AF82665B61836DB5B68589C84F4FD00B20200E4A0C9681A8C72F4E1CA9DD7535A337EF9B193DB6FB9E6EE86E9660BD1B8016049071CA6BEBC601523CE316D08EB3C5FBF8CB06C8C9C90CB0
310
CAC0D9B8F8346F92F22E1A17B3EABC369B2843301190BAE56680A02E6692854C313BC2B598A5BACAD114F4D5653825ABD1F388D5799F3D5BB300EFBAEA5009B1C7EF552770733C7C62716C046E69D37582B6A7532B58B9C29C453BBDEEABC5C86834F08AD01A538249F345EBBE213DFD7823B4278495ABFD0F9466FD4F2859
310
17EB6A7BF78905E0343FF2187056AE59E4F2082AD73537FE03504B0304140006080800086D444355019EA25F0000007C00000007000000636E782E786D6C4DCB3B0E80201045D1AD90E915ED2CF8AC45050C11660C8261F98AB1B07AC9C97D42D718D865D3E909258CFD00CCE24AC6E326A164D74DC0B4128928FF32603847
310
2BA13128B1252AC747C6BAB984FC68F0B87FE8960A5C09FE86CFB69FBA01504B0304140006080800086D4443E4A7B43967010000020300000C0000006662782F636F72652E786D6C8D525B6E833010BC8AE5DF0A6C13D442641CD1243D412FE0804351C046C646397E9747445345518464AC999DDDD901BEBBB60D1A94ED6B
310
A333CC428A91D285296B5D65D8BB739060B413DC1AE3FE9461A465AB323CC258F0CA1ADF2D5061B453DA01AA4DA91650F6BD7218150D5C32DC173FAA95A1F40E2AFA4BD8C9E2222B15B21068A813BC77160CA079C87862713E5D399971C1BDAFCB85AD4B98569F6B65B148D3681FE5F967F01EA579101FF65F417E88F32061
310
719AE62C391E939C93512CB8ABDB9BBBC22AE954894544D9266034A0F137DB6C63BA651F6F946D29E5642CBF13F9AE7C51E46BED36D1627796F55830303211FFB685881CEAE5007E88E0640C115E53C2F741432010B293A7E6B6C705A04115CED81898D2F8951A64E3154CA5687A389959E83C3580CD1EF6899EF479DE033E
310
A0D41558930EAE27EFC6E97C9EBA44D1291B0CEE8AB4B1AD6C5673B3C5F55C073D9417A631F615355956254B9864FC7BC52F504B0304140006080800086D44432D96DD057F0000009D0000000B0000006662782F636E782E786D6C4DCC4B0E83201485E1AD903BA74A7D7113C0F4A1FB30150D11A1A1D074F9D5C6414727F9
310
72F28BF6B35AF2D6E165BC93C04E3910ED1E7E346E9690E24439905689E07DFCBB0171C3AA25EC0C4ACCC1A7E741A39E8664E3A6D6B8E5C01AFB1ABB2BA3F90D2B5AB29E51CE8B92F20A8B335EEE4DD770C894C87EA56DF7B0FA02504B0304140006080800086D4443B2F9822A2B01000015020000310000006662782F3639
310
4636394542312D304339352D343146312D383833342D3835393332394144374537382F636F72652E786D6C8D515B6EC32010BC0AE2AB55651B0CF123C2447D2427E80508901425068B4795E317D78ED4FEE58745B333B3A35DB6BB8D57F0AD7D30CE0E109708026DA553C69E0798E2A9E820D871E69D8B7F68105831EA01CE
310
30E4ECEC5D9A56483A1BB58D19B54EE9151421E80881BCE6CF0083FCD2A328458A99112EE524E4459C7589CBDCCE3CCE42F439005886CC2FE44D7F68FAFD1B2ED07BBF29283EE0A2EB082DBA4D4FEAFEF5A3DDB71DAB1621672919B5CA8DCA71CCC968FFA8C92CE62C9AF11E5F7A2DA25690D7089302A302D14F4CB6146D71
310
FB82F0162156CDF47FA234A90745C9D848EA35EE220B9063562D0DCE944BC7EB3D8CBE4DCE4730CF7B0A5A3E438E4A841ADC52826B562DDCBC816CDAD0D53444E7F3869F2EC74C27AB734339ABE623E5F27BC15CE783F21F504B0304140006080800086D4443855C294C5501000033030000300000006662782F3639463639
310
4542312D304339352D343146312D383833342D3835393332394144374537382F636E782E786D6CBD93CD6EC32010845F0571ADFC436CA5518489D4439FA0875E096C121A0C16E0AA79FB2E094973C9A152D50BB2668799D527CC375FA3259F10A2F16EA0AC6E2901A7BC366E3FD039EDAA15251BC183F7E9CE468993230C34
310
CB54F07DF0F354240D3B39DB84AA35EE58C400D1CF41414439DF24D62B6931005C35A308E316B4064D6E46FCDA41C05550DC9E483A00797D79277EFB012A45DEE414C19BDC21783E4BD39D891265658C038DEA00A3ACE59CBC8678ACB54CB266F5B5EBC14E3F49245FB856CEC1905C3ED07C525136AA91236F7028784C01E9
310
15533A4D40859C266B944C08B9391B2F1EC167E3D2B22F5E83E003BABBC572B5C2B0F34CF06446280E154026D0542C5AD655ACADDAFE8D75EBBE5DB3E7A796ADDB9637D92EF8D67B5B2E610C043F11E55D0297A860BCC9E347F88A8F681390B50FA75F804400A5F542E796F1977CD8B2EBFB7FE4D39CDF37E20AF817886F50
310
4B0304140006080800086D444332783BD6630700009A1B0000340000006662782F36394636394542312D304339352D343146312D383833342D3835393332394144374537382F6F626A656374732E786D6CED59DD739B3810FF5718EEE5EEC1D8C44EDADC103A89DD743CBDB49DFADAB907CF3032C8441721184924F1FDF5B7
310
FA00033109BEE6DEFA6003425AEDFEF6534BF0EE31A3CE3DE682E4ECC2F5BD89EB6016E70961E9855BCAEDE8ADEBBC0B039EE7B231CD7518CAF085AB86DD3048795E167628C15B5452D919BDBEFACB113166D875628A84B870457C8B33E4A152E60916775E8224F2D2EDA3E77B66629B6CCA5171DB215A208E99044E619C01
310
15C730E5B71F27EE380CC6EA7D18A87F3B6B3A68D6AC7FD6584BDDE6923021118B9FB0D421331DC4D2D49F2DDE9F9C9E8F4E67B3E9687676E28FAEAEAF1623FFCD74323F9BCFCF2FDF9F037B9B3CA756A604179825A0BF9D1BFAC158BDA945B7081CE23ACE19C3B10612A0D2627509122C60AB067C93F6A3AF246ABCD61236
310
9E67EABD65A1313C6D53E99B350C88165D10C46E57495C5D9BF2E59BBF417031C428B9C012B8159283762D3C1CBCC20D27C1D88C86C166AF0B229C0C49CC09A20E251B8E382805A6AA296160165832CA3938907294045A73E675DBB6C0335F769D435C6E4B4A9567B8A176AC08DC0F4BA13923FF60BEE7BE890CF004D29684
310
C9B7964BB92BB01B9E07633D1806EA323DB12F0D90CE96A2546844CCDB8EA073E5FACB851B7EBCDE3CAE543838BC79C1F30273A98C4EE951F305866CAF0A25BBAD3F48736A01086340B52BF7A07C05E43F41F4D8B3027AE3E471F638B37325474C6C739E816E9C89339AC0DFC4F1F5BFBA6FDC05E37A715B7B7D78829B2AA8
310
DEFE389E6D19345696FF069C61700F069FF3A97DB58A11057BBE210C005246E2D01C8620B46F378F6EB884C009811E56211AFA2032B07B0FB7C1D892D96BA5722FEB750C10B57B4C87280960D316096CF4E8E903640F4EE2BD9A9A22F6C17BFA2AE67AB9587D5C957C8B627C637D7A81B784110959F330432DCC5B12DDE1DD
310
43CE1310F429DEAB26DE99DD4A00DA0A73057C5A81A01EF63BB73688615D9AAB7013BCB00308A1727583FE0D1131A614319C97D5BE757453865A7BBCAD19DCF0C4403C3DE99830C7F7445515E034FB192D4621EFC79C140A4437FC6024AB83A6D723DDB7E527B0C87A7ECFAC2583D0CB10FD5307AD0338B42CBB42DA02510B
310
BCD987F338A7398F36BBC8443A176A0960A3ED2DDF5B4421D61B25292AE041DAEFAA90921A69A3846CB7A580B87A80C5EFCB79D31C26DED43F759AFF1D679C41B405DF45DCFA5D678F886428C5D116257DDB3577AB690B4DB28734C75B0A72917B22771192D124C1E931D01C45FCFC55A9A7341782302C205F1D04BF89C6C4
310
834062B459B1ACB4DA019A8828C312D1631050647AC0D56947D7B831940E2FF3585BEF731A6B12FD9F2C8223A82573161128452187BCC8B8EF9D420C69A36B50EEE00BD656D1D662D0124A8878173D6092DECA635037E47B708FE14852CA282F500C663D80EC135F514AEDF0BE41F19DCA1F515CD2D7321081E93622949659
310
043FC2E0E431C4B5EBC0F42C0A0DE226F6499C41518664C9876C72763A79B28FA919BA21B0B1D1965008DB51868A1ED45B0151D7234E0DBEA5DEA3D44D991511CAF2920D32146FDAF5264BBEAB56457620BFAA5484B2B1226C09860161B2CEAA55CC0653D78115DC4807AA5D24505650730A7B21F1F8B53769CABD1B70EBA7
310
AFBB4106855F8FF69A117556C160796C1506E201C9F8D60D57FA3ABA82FA3BC1C93ED557B566B30204C454242F39B12AFAB684F2C6D6686E7883A4587F3059B7BA7E5B7AD0FD08C6B0066A977AE152019D612691AA4C6ED40DFD8A2004B76898F1A5CAA9C750B94C125D35227A4DFAD4D92A235A9B66C42B6E31CB33F8B135
310
61312D13BC4689B88B6E248D5644B16EA5F4325261FCAC809F3FAC3AF0C0C80091BEA8020F3F74D6DAD1B92A970E1291B765B6618840106C89961ADD78054BAD462A2DD75775A680BA0B0CCCAA78F6F364D16C47FC3C59A4D6307EE86471B5FB03ED9A7D91463A8F955D1F750CA8F393A2F21AC700DD76A8A9D659C424732B
310
BF75A608826215E507576355D03004FB38FECF59BB2F0B9AED3AFC1F97B5FD2715C75159A5355975A90E54AECB660E9B5EBE999E4D67B3D1D5D57C319A9D9E4383D63F3B1B4D4E27F3D9E27A727939DD9711DA51C3A00E663A77C1B3096AD5B07AB218405756E49424709A4F9C1443CC9770A61FD03EE71916903C9BCDEEC4
310
36E507ACBE377D4E893614579CDC2268105301691D302A63D91E777E81D6A48483F6850B4D23EF0EFEAC55BA0E649E0B175A0592C458781B6833A9869E260E2957E77E4B0CF0412C5529D12CAA9FEB550A9B56F8AFA70C490356AE560F030AB702BA5FAD0E85E6CDF2141F2578C58E8324DC6E4A09D59A91653F500BA3B7D9
310
ABDFC84609BBB35B3F82EB3E2F96EFE9392D44067D3278D6080CD591443CD5FD6EC59865E972F1650C7D3667F9D9296899822E87531A710CC65CAA820AAC08ACC2D22C9004539DFFBEFEC273F8C49339BA2A727E7D7C7BF6DB7A9E6759CECCD0FA124E65097C287256B7F0D9275943F18055735DAC4F26FEC95A37B56D9F3D
310
DA20813D5515C140554C28413A260776F9A44165DB9763A58ACEF4E5C2B141149A01C68E9EF478CD472E077C487D4E511EA3FDBC92F6D9BEF6584F059BE0D0910EFF05504B0304140006080000086D4443000000000000000000000000350000006662782F36394636394542312D304339352D343146312D383833342D3835
310
393332394144374537382F76657274696365732E62696E504B0304140006080800086D4443F270F1330600000004000000360000006662782F36394636394542312D304339352D343146312D383833342D3835393332394144374537382F747269616E676C65732E62696E636660600000504B0304140006080000086D4443
310
000000000000000000000000370000006662782F36394636394542312D304339352D343146312D383833342D3835393332394144374537382F617474726962757465732E62696E504B0304140006080800086D4443D5987DFC8F00000041010000360000006662782F36394636394542312D304339352D343146312D383833
310
342D3835393332394144374537382F6469726563746F72792E786D6C858F410EC2201045AF4266AF15DDB800BA74E7C21B903225242D6328188F2FA5C4183471359997F9FF81E89FF3C41E1816475E02DF1F80A11FC8386F25A438EECEC07A250251FC3803E6F58C12560C4AD840E95E91C151A72936F496F35732D860FE63
310
5F62C8F2DA16B505C545B74125BAA2FA9E05D7CC053D063734D5C7665FD55B6B8D15D5E9BFEAFD8490FFA45E504B0304140006080800086D444360DC33FFFD000000A00100003B0000006662782F36394636394542312D304339352D343146312D383833342D3835393332394144374537382F7265736F75726365732F636F
310
72652E786D6C8D504B6E833010BD0A9A6D65B0096A01194756929EA017B0CC84580936F2A7EAF16B0295DA5D3733A3F7D13C3D7EFC9A1FC527FA609C1D8095140AB4DA8DC64E03A478252D1447C1BD73F1970C0AAB661C608541F0C9BBB4EC907636A28D19B56EC41D54216084423FF23140D0379C55A952CC8A702F17A5EF
310
6AC2929599CE3AC143F43940B13D5927088FC125AF31F06A63054FC98CBBC68CF9A7B91AF420BAAE3ED5524AF25A779234E7D33B91E7469296355D27597BB9B49257AB59F068E69F8CDAA38A3882A8293B1046096D3ED8A16F68CFDE5E28EB29E5D52AFF634ACBF84F5332361EEA3DEE660B20580EF22404AFD6BEF27A9699
310
F7DAADF806504B010214000A0000080000086D44433DEE336E79000000790000001B00000000000000000000000000000000006175746F6465736B2D64657369676E2D7061636B6167652E786D6C504B01021400140006080800086D4443D486FD9CA0000000F40000001300000000000000000000000000B20000005B436F
310
6E74656E745F54797065735D2E786D6C504B01021400140006080800086D444308366ECEEB0000007C010000080000000000000000000000000083010000636F72652E786D6C504B01021400140006080800086D444355019EA25F0000007C000000070000000000000000000000000094020000636E782E786D6C504B0102
310
1400140006080800086D4443E4A7B43967010000020300000C00000000000000000000000000180300006662782F636F72652E786D6C504B01021400140006080800086D44432D96DD057F0000009D0000000B00000000000000000000000000A90400006662782F636E782E786D6C504B01021400140006080800086D4443
310
B2F9822A2B010000150200003100000000000000000000000000510500006662782F36394636394542312D304339352D343146312D383833342D3835393332394144374537382F636F72652E786D6C504B01021400140006080800086D4443855C294C55010000330300003000000000000000000000000000CB0600006662
310
782F36394636394542312D304339352D343146312D383833342D3835393332394144374537382F636E782E786D6C504B01021400140006080800086D444332783BD6630700009A1B000034000000000000000000000000006E0800006662782F36394636394542312D304339352D343146312D383833342D38353933323941
310
44374537382F6F626A656374732E786D6C504B01021400140006080000086D44430000000000000000000000003500000000000000000000000000231000006662782F36394636394542312D304339352D343146312D383833342D3835393332394144374537382F76657274696365732E62696E504B010214001400060808
310
00086D4443F270F13306000000040000003600000000000000000000000000761000006662782F36394636394542312D304339352D343146312D383833342D3835393332394144374537382F747269616E676C65732E62696E504B01021400140006080000086D444300000000000000000000000037000000000000000000
310
00000000D01000006662782F36394636394542312D304339352D343146312D383833342D3835393332394144374537382F617474726962757465732E62696E504B01021400140006080800086D4443D5987DFC8F000000410100003600000000000000000000000000251100006662782F36394636394542312D304339352D
310
343146312D383833342D3835393332394144374537382F6469726563746F72792E786D6C504B01021400140006080800086D444360DC33FFFD000000A00100003B00000000000000000000000000081200006662782F36394636394542312D304339352D343146312D383833342D3835393332394144374537382F7265736F
310
75726365732F636F72652E786D6C504B0506000000000E000E00800400005E1300000000
  0
XRECORD
  5
17
102
{ACAD_REACTORS
330
12
102
}
330
12
100
AcDbXrecord
280
     1
270
     1
271
     1
  0
XRECORD
  5
16
102
{ACAD_REACTORS
330
12
102
}
330
12
100
AcDbXrecord
280
     1
270
     1
271
     1
  0
XRECORD
  5
18
102
{ACAD_REACTORS
330
12
102
}
330
12
100
AcDbXrecord
280
     1
270
     1
271
     1
  0
XRECORD
  5
15
102
{ACAD_REACTORS
330
12
102
}
330
12
100
AcDbXrecord
280
     1
270
     1
271
     1
  0
XRECORD
  5
24
102
{ACAD_REACTORS
330
22
102
}
330
22
100
AcDbXrecord
280
     1
270
     1
271
     1
  0
XRECORD
  5
23
102
{ACAD_REACTORS
330
22
102
}
330
22
100
AcDbXrecord
280
     1
270
     1
271
     1
  0
XRECORD
  5
27
102
{ACAD_REACTORS
330
22
102
}
330
22
100
AcDbXrecord
280
     1
270
     1
271
     1
  0
XRECORD
  5
26
102
{ACAD_REACTORS
330
22
102
}
330
22
100
AcDbXrecord
280
     1
270
     1
271
     1
  0
XRECORD
  5
28
102
{ACAD_REACTORS
330
22
102
}
330
22
100
AcDbXrecord
280
     1
270
     1
271
     1
  0
XRECORD
  5
25
102
{ACAD_REACTORS
330
22
102
}
330
22
100
AcDbXrecord
280
     1
270
     1
271
     1
  0
XRECORD
  5
BE0
102
{ACAD_REACTORS
330
BDF
102
}
330
BDF
100
AcDbXrecord
280
     1
102
ACAD_ROUNDTRIP_2012_MLEADER_STYLE
298
     1
  0
CELLSTYLEMAP
  5
BDE
102
{ACAD_REACTORS
330
B98
102
}
330
B98
100
AcDbCellStyleMap
 90
        3
300
CELLSTYLE
  1
TABLEFORMAT_BEGIN
 90
        5
170
     1
 91
        0
 92
    32768
 62
   257
 93
        1
300
CONTENTFORMAT
  1
CONTENTFORMAT_BEGIN
 90
        0
 91
        0
 92
      512
 93
        0
300

 40
0.0
140
1.0
 94
        5
 62
     0
340
55
144
0.25
309
CONTENTFORMAT_END
171
     1
301
MARGIN
  1
CELLMARGIN_BEGIN
 40
0.06
 40
0.06
 40
0.06
 40
0.06
 40
0.18
 40
0.18
309
CELLMARGIN_END
 94
        6
 95
        1
302
GRIDFORMAT
  1
GRIDFORMAT_BEGIN
 90
        0
 91
        1
 62
     0
 92
       -2
340
0
 93
        0
 40
0.045
309
GRIDFORMAT_END
 95
        2
302
GRIDFORMAT
  1
GRIDFORMAT_BEGIN
 90
        0
 91
        1
 62
     0
 92
       -2
340
0
 93
        0
 40
0.045
309
GRIDFORMAT_END
 95
        4
302
GRIDFORMAT
  1
GRIDFORMAT_BEGIN
 90
        0
 91
        1
 62
     0
 92
       -2
340
0
 93
        0
 40
0.045
309
GRIDFORMAT_END
 95
        8
302
GRIDFORMAT
  1
GRIDFORMAT_BEGIN
 90
        0
 91
        1
 62
     0
 92
       -2
340
0
 93
        0
 40
0.045
309
GRIDFORMAT_END
 95
       16
302
GRIDFORMAT
  1
GRIDFORMAT_BEGIN
 90
        0
 91
        1
 62
     0
 92
       -2
340
0
 93
        0
 40
0.045
309
GRIDFORMAT_END
 95
       32
302
GRIDFORMAT
  1
GRIDFORMAT_BEGIN
 90
        0
 91
        1
 62
     0
 92
       -2
340
0
 93
        0
 40
0.045
309
GRIDFORMAT_END
309
TABLEFORMAT_END
  1
CELLSTYLE_BEGIN
 90
        1
 91
        1
300
_TITLE
309
CELLSTYLE_END
300
CELLSTYLE
  1
TABLEFORMAT_BEGIN
 90
        5
170
     1
 91
        0
 92
        0
 62
   257
 93
        1
300
CONTENTFORMAT
  1
CONTENTFORMAT_BEGIN
 90
        0
 91
        0
 92
      512
 93
        0
300

 40
0.0
140
1.0
 94
        5
 62
     0
340
55
144
0.18
309
CONTENTFORMAT_END
171
     1
301
MARGIN
  1
CELLMARGIN_BEGIN
 40
0.06
 40
0.06
 40
0.06
 40
0.06
 40
0.18
 40
0.18
309
CELLMARGIN_END
 94
        6
 95
        1
302
GRIDFORMAT
  1
GRIDFORMAT_BEGIN
 90
        0
 91
        1
 62
     0
 92
       -2
340
0
 93
        0
 40
0.045
309
GRIDFORMAT_END
 95
        2
302
GRIDFORMAT
  1
GRIDFORMAT_BEGIN
 90
        0
 91
        1
 62
     0
 92
       -2
340
0
 93
        0
 40
0.045
309
GRIDFORMAT_END
 95
        4
302
GRIDFORMAT
  1
GRIDFORMAT_BEGIN
 90
        0
 91
        1
 62
     0
 92
       -2
340
0
 93
        0
 40
0.045
309
GRIDFORMAT_END
 95
        8
302
GRIDFORMAT
  1
GRIDFORMAT_BEGIN
 90
        0
 91
        1
 62
     0
 92
       -2
340
0
 93
        0
 40
0.045
309
GRIDFORMAT_END
 95
       16
302
GRIDFORMAT
  1
GRIDFORMAT_BEGIN
 90
        0
 91
        1
 62
     0
 92
       -2
340
0
 93
        0
 40
0.045
309
GRIDFORMAT_END
 95
       32
302
GRIDFORMAT
  1
GRIDFORMAT_BEGIN
 90
        0
 91
        1
 62
     0
 92
       -2
340
0
 93
        0
 40
0.045
309
GRIDFORMAT_END
309
TABLEFORMAT_END
  1
CELLSTYLE_BEGIN
 90
        2
 91
        1
300
_HEADER
309
CELLSTYLE_END
300
CELLSTYLE
  1
TABLEFORMAT_BEGIN
 90
        5
170
     1
 91
        0
 92
        0
 62
   257
 93
        1
300
CONTENTFORMAT
  1
CONTENTFORMAT_BEGIN
 90
        0
 91
        0
 92
      512
 93
        0
300

 40
0.0
140
1.0
 94
        2
 62
     0
340
55
144
0.18
309
CONTENTFORMAT_END
171
     1
301
MARGIN
  1
CELLMARGIN_BEGIN
 40
0.06
 40
0.06
 40
0.06
 40
0.06
 40
0.18
 40
0.18
309
CELLMARGIN_END
 94
        6
 95
        1
302
GRIDFORMAT
  1
GRIDFORMAT_BEGIN
 90
        0
 91
        1
 62
     0
 92
       -2
340
0
 93
        0
 40
0.045
309
GRIDFORMAT_END
 95
        2
302
GRIDFORMAT
  1
GRIDFORMAT_BEGIN
 90
        0
 91
        1
 62
     0
 92
       -2
340
0
 93
        0
 40
0.045
309
GRIDFORMAT_END
 95
        4
302
GRIDFORMAT
  1
GRIDFORMAT_BEGIN
 90
        0
 91
        1
 62
     0
 92
       -2
340
0
 93
        0
 40
0.045
309
GRIDFORMAT_END
 95
        8
302
GRIDFORMAT
  1
GRIDFORMAT_BEGIN
 90
        0
 91
        1
 62
     0
 92
       -2
340
0
 93
        0
 40
0.045
309
GRIDFORMAT_END
 95
       16
302
GRIDFORMAT
  1
GRIDFORMAT_BEGIN
 90
        0
 91
        1
 62
     0
 92
       -2
340
0
 93
        0
 40
0.045
309
GRIDFORMAT_END
 95
       32
302
GRIDFORMAT
  1
GRIDFORMAT_BEGIN
 90
        0
 91
        1
 62
     0
 92
       -2
340
0
 93
        0
 40
0.045
309
GRIDFORMAT_END
309
TABLEFORMAT_END
  1
CELLSTYLE_BEGIN
 90
        3
 91
        2
300
_DATA
309
CELLSTYLE_END
  0
XRECORD
  5
BF7
102
{ACAD_REACTORS
330
BF6
102
}
330
BF6
100
AcDbXrecord
280
     1
102
RTVSPropertyOp0
 70
     1
102
RTVSPropertyOp1
 70
     1
102
RTVSPropertyOp2
 70
     1
102
RTVSPropertyOp3
 70
     1
102
RTVSPropertyOp4
 70
     1
102
RTVSPropertyOp5
 70
     1
102
RTVSPropertyOp6
 70
     1
102
RTVSPropertyOp7
 70
     1
102
RTVSPropertyOp8
 70
     1
102
RTVSPropertyOp9
 70
     1
102
RTVSPropertyOp10
 70
     1
102
RTVSPropertyOp11
 70
     1
102
RTVSPropertyOp12
 70
     1
102
RTVSPropertyOp13
 70
     1
102
RTVSPropertyOp14
 70
     1
102
RTVSPropertyOp15
 70
     1
102
RTVSPropertyOp16
 70
     1
102
RTVSPropertyOp17
 70
     1
102
RTVSPropertyOp18
 70
     1
102
RTVSPropertyOp19
 70
     1
102
RTVSPropertyOp20
 70
     1
102
RTVSPropertyOp21
 70
     1
102
RTVSPropertyOp22
 70
     1
102
RTVSPropertyOp23
 70
     1
102
RTVSPropertyOp24
 70
     1
102
RTVSPropertyOp25
 70
     1
102
RTVSPropertyOp26
 70
     1
102
RTVSPropertyOp27
 70
     1
102
RTVSPropertyOp28
 70
     1
102
RTVSPropertyOp29
 70
     1
102
RTVSPropertyOp30
 70
     1
102
RTVSPropertyOp31
 70
     1
102
RTVSPropertyOp32
 70
     1
  0
XRECORD
  5
BF5
102
{ACAD_REACTORS
330
BF4
102
}
330
BF4
100
AcDbXrecord
280
     1
102
RTVSPropertyOp0
 70
     1
102
RTVSPropertyOp1
 70
     1
102
RTVSPropertyOp2
 70
     1
102
RTVSPropertyOp3
 70
     1
102
RTVSPropertyOp4
 70
     1
102
RTVSPropertyOp5
 70
     1
102
RTVSPropertyOp6
 70
     1
102
RTVSPropertyOp7
 70
     1
102
RTVSPropertyOp8
 70
     1
102
RTVSPropertyOp9
 70
     1
102
RTVSPropertyOp10
 70
     1
102
RTVSPropertyOp11
 70
     1
102
RTVSPropertyOp12
 70
     1
102
RTVSPropertyOp13
 70
     1
102
RTVSPropertyOp14
 70
     1
102
RTVSPropertyOp15
 70
     1
102
RTVSPropertyOp16
 70
     1
102
RTVSPropertyOp17
 70
     1
102
RTVSPropertyOp18
 70
     1
102
RTVSPropertyOp19
 70
     1
102
RTVSPropertyOp20
 70
     1
102
RTVSPropertyOp21
 70
     1
102
RTVSPropertyOp22
 70
     1
102
RTVSPropertyOp23
 70
     1
102
RTVSPropertyOp24
 70
     1
102
RTVSPropertyOp25
 70
     1
102
RTVSPropertyOp26
 70
     1
102
RTVSPropertyOp27
 70
     1
102
RTVSPropertyOp28
 70
     1
102
RTVSPropertyOp29
 70
     1
102
RTVSPropertyOp30
 70
     1
102
RTVSPropertyOp31
 70
     1
102
RTVSPropertyOp32
 70
     1
  0
XRECORD
  5
C03
102
{ACAD_REACTORS
330
C02
102
}
330
C02
100
AcDbXrecord
280
     1
102
RTVSPropertyOp0
 70
     1
102
RTVSPropertyOp1
 70
     1
102
RTVSPropertyOp2
 70
     1
102
RTVSPropertyOp3
 70
     1
102
RTVSPropertyOp4
 70
     1
102
RTVSPropertyOp5
 70
     1
102
RTVSPropertyOp6
 70
     1
102
RTVSPropertyOp7
 70
     1
102
RTVSPropertyOp8
 70
     1
102
RTVSPropertyOp9
 70
     1
102
RTVSPropertyOp10
 70
     1
102
RTVSPropertyOp11
 70
     1
102
RTVSPropertyOp12
 70
     1
102
RTVSPropertyOp13
 70
     1
102
RTVSPropertyOp14
 70
     1
102
RTVSPropertyOp15
 70
     1
102
RTVSPropertyOp16
 70
     1
102
RTVSPropertyOp17
 70
     1
102
RTVSPropertyOp18
 70
     1
102
RTVSPropertyOp19
 70
     1
102
RTVSPropertyOp20
 70
     1
102
RTVSPropertyOp21
 70
     1
102
RTVSPropertyOp22
 70
     1
102
RTVSPropertyOp23
 70
     1
102
RTVSPropertyOp24
 70
     1
102
RTVSPropertyOp25
 70
     1
102
RTVSPropertyOp26
 70
     1
102
RTVSPropertyOp27
 70
     1
102
RTVSPropertyOp28
 70
     1
102
RTVSPropertyOp29
 70
     1
102
RTVSPropertyOp30
 70
     1
102
RTVSPropertyOp31
 70
     1
102
RTVSPropertyOp32
 70
     1
  0
XRECORD
  5
C0B
102
{ACAD_REACTORS
330
C0A
102
}
330
C0A
100
AcDbXrecord
280
     1
102
RTVSPropertyOp0
 70
     1
102
RTVSPropertyOp1
 70
     1
102
RTVSPropertyOp2
 70
     1
102
RTVSPropertyOp3
 70
     1
102
RTVSPropertyOp4
 70
     1
102
RTVSPropertyOp5
 70
     1
102
RTVSPropertyOp6
 70
     1
102
RTVSPropertyOp7
 70
     1
102
RTVSPropertyOp8
 70
     1
102
RTVSPropertyOp9
 70
     1
102
RTVSPropertyOp10
 70
     1
102
RTVSPropertyOp11
 70
     1
102
RTVSPropertyOp12
 70
     1
102
RTVSPropertyOp13
 70
     1
102
RTVSPropertyOp14
 70
     1
102
RTVSPropertyOp15
 70
     1
102
RTVSPropertyOp16
 70
     1
102
RTVSPropertyOp17
 70
     1
102
RTVSPropertyOp18
 70
     1
102
RTVSPropertyOp19
 70
     1
102
RTVSPropertyOp20
 70
     1
102
RTVSPropertyOp21
 70
     1
102
RTVSPropertyOp22
 70
     1
102
RTVSPropertyOp23
 70
     1
102
RTVSPropertyOp24
 70
     1
102
RTVSPropertyOp25
 70
     1
102
RTVSPropertyOp26
 70
     1
102
RTVSPropertyOp27
 70
     1
102
RTVSPropertyOp28
 70
     1
102
RTVSPropertyOp29
 70
     1
102
RTVSPropertyOp30
 70
     1
102
RTVSPropertyOp31
 70
     1
102
RTVSPropertyOp32
 70
     1
  0
XRECORD
  5
BFD
102
{ACAD_REACTORS
330
BFC
102
}
330
BFC
100
AcDbXrecord
280
     1
102
RTVSPropertyOp0
 70
     1
102
RTVSPropertyOp1
 70
     1
102
RTVSPropertyOp2
 70
     1
102
RTVSPropertyOp3
 70
     1
102
RTVSPropertyOp4
 70
     1
102
RTVSPropertyOp5
 70
     1
102
RTVSPropertyOp6
 70
     1
102
RTVSPropertyOp7
 70
     1
102
RTVSPropertyOp8
 70
     1
102
RTVSPropertyOp9
 70
     1
102
RTVSPropertyOp10
 70
     1
102
RTVSPropertyOp11
 70
     1
102
RTVSPropertyOp12
 70
     1
102
RTVSPropertyOp13
 70
     1
102
RTVSPropertyOp14
 70
     1
102
RTVSPropertyOp15
 70
     1
102
RTVSPropertyOp16
 70
     1
102
RTVSPropertyOp17
 70
     1
102
RTVSPropertyOp18
 70
     1
102
RTVSPropertyOp19
 70
     1
102
RTVSPropertyOp20
 70
     1
102
RTVSPropertyOp21
 70
     1
102
RTVSPropertyOp22
 70
     1
102
RTVSPropertyOp23
 70
     1
102
RTVSPropertyOp24
 70
     1
102
RTVSPropertyOp25
 70
     1
102
RTVSPropertyOp26
 70
     1
102
RTVSPropertyOp27
 70
     1
102
RTVSPropertyOp28
 70
     1
102
RTVSPropertyOp29
 70
     1
102
RTVSPropertyOp30
 70
     1
102
RTVSPropertyOp31
 70
     1
102
RTVSPropertyOp32
 70
     1
  0
XRECORD
  5
C01
102
{ACAD_REACTORS
330
C00
102
}
330
C00
100
AcDbXrecord
280
     1
102
RTVSPropertyOp0
 70
     1
102
RTVSPropertyOp1
 70
     1
102
RTVSPropertyOp2
 70
     1
102
RTVSPropertyOp3
 70
     1
102
RTVSPropertyOp4
 70
     1
102
RTVSPropertyOp5
 70
     1
102
RTVSPropertyOp6
 70
     1
102
RTVSPropertyOp7
 70
     1
102
RTVSPropertyOp8
 70
     1
102
RTVSPropertyOp9
 70
     1
102
RTVSPropertyOp10
 70
     1
102
RTVSPropertyOp11
 70
     1
102
RTVSPropertyOp12
 70
     1
102
RTVSPropertyOp13
 70
     1
102
RTVSPropertyOp14
 70
     1
102
RTVSPropertyOp15
 70
     1
102
RTVSPropertyOp16
 70
     1
102
RTVSPropertyOp17
 70
     1
102
RTVSPropertyOp18
 70
     1
102
RTVSPropertyOp19
 70
     1
102
RTVSPropertyOp20
 70
     1
102
RTVSPropertyOp21
 70
     1
102
RTVSPropertyOp22
 70
     1
102
RTVSPropertyOp23
 70
     1
102
RTVSPropertyOp24
 70
     1
102
RTVSPropertyOp25
 70
     1
102
RTVSPropertyOp26
 70
     1
102
RTVSPropertyOp27
 70
     1
102
RTVSPropertyOp28
 70
     1
102
RTVSPropertyOp29
 70
     1
102
RTVSPropertyOp30
 70
     1
102
RTVSPropertyOp31
 70
     1
102
RTVSPropertyOp32
 70
     1
  0
XRECORD
  5
C1B
102
{ACAD_REACTORS
330
C1A
102
}
330
C1A
100
AcDbXrecord
280
     1
102
RTVSPropertyOp0
 70
     0
102
RTVSPropertyOp1
 70
     0
102
RTVSPropertyOp2
 70
     0
102
RTVSPropertyOp3
 70
     0
102
RTVSPropertyOp4
 70
     0
102
RTVSPropertyOp5
 70
     0
102
RTVSPropertyOp6
 70
     0
102
RTVSPropertyOp7
 70
     0
102
RTVSPropertyOp8
 70
     0
102
RTVSPropertyOp9
 70
     0
102
RTVSPropertyOp10
 70
     0
102
RTVSPropertyOp11
 70
     0
102
RTVSPropertyOp12
 70
     0
102
RTVSPropertyOp13
 70
     0
102
RTVSPropertyOp14
 70
     2
102
RTVSPropertyOp15
 70
     0
102
RTVSPropertyOp16
 70
     0
102
RTVSPropertyOp17
 70
     0
102
RTVSPropertyOp18
 70
     0
102
RTVSPropertyOp19
 70
     0
102
RTVSPropertyOp20
 70
     0
102
RTVSPropertyOp21
 70
     0
102
RTVSPropertyOp22
 70
     0
102
RTVSPropertyOp23
 70
     0
102
RTVSPropertyOp24
 70
     0
102
RTVSPropertyOp25
 70
     0
102
RTVSPropertyOp26
 70
     0
102
RTVSPropertyOp27
 70
     0
102
RTVSPropertyOp28
 70
     0
102
RTVSPropertyOp29
 70
     0
102
RTVSPropertyOp30
 70
     0
102
RTVSPropertyOp31
 70
     0
102
RTVSPropertyOp32
 70
     0
  0
XRECORD
  5
C09
102
{ACAD_REACTORS
330
C08
102
}
330
C08
100
AcDbXrecord
280
     1
102
RTVSPropertyOp0
 70
     1
102
RTVSPropertyOp1
 70
     1
102
RTVSPropertyOp2
 70
     1
102
RTVSPropertyOp3
 70
     1
102
RTVSPropertyOp4
 70
     1
102
RTVSPropertyOp5
 70
     1
102
RTVSPropertyOp6
 70
     1
102
RTVSPropertyOp7
 70
     1
102
RTVSPropertyOp8
 70
     1
102
RTVSPropertyOp9
 70
     1
102
RTVSPropertyOp10
 70
     1
102
RTVSPropertyOp11
 70
     1
102
RTVSPropertyOp12
 70
     1
102
RTVSPropertyOp13
 70
     1
102
RTVSPropertyOp14
 70
     1
102
RTVSPropertyOp15
 70
     1
102
RTVSPropertyOp16
 70
     1
102
RTVSPropertyOp17
 70
     1
102
RTVSPropertyOp18
 70
     1
102
RTVSPropertyOp19
 70
     1
102
RTVSPropertyOp20
 70
     1
102
RTVSPropertyOp21
 70
     1
102
RTVSPropertyOp22
 70
     1
102
RTVSPropertyOp23
 70
     1
102
RTVSPropertyOp24
 70
     1
102
RTVSPropertyOp25
 70
     1
102
RTVSPropertyOp26
 70
     1
102
RTVSPropertyOp27
 70
     1
102
RTVSPropertyOp28
 70
     1
102
RTVSPropertyOp29
 70
     1
102
RTVSPropertyOp30
 70
     1
102
RTVSPropertyOp31
 70
     1
102
RTVSPropertyOp32
 70
     1
  0
XRECORD
  5
BED
102
{ACAD_REACTORS
330
BEC
102
}
330
BEC
100
AcDbXrecord
280
     1
102
RTVSPropertyOp0
 70
     1
102
RTVSPropertyOp1
 70
     1
102
RTVSPropertyOp2
 70
     1
102
RTVSPropertyOp3
 70
     1
102
RTVSPropertyOp4
 70
     1
102
RTVSPropertyOp5
 70
     1
102
RTVSPropertyOp6
 70
     1
102
RTVSPropertyOp7
 70
     1
102
RTVSPropertyOp8
 70
     1
102
RTVSPropertyOp9
 70
     1
102
RTVSPropertyOp10
 70
     1
102
RTVSPropertyOp11
 70
     1
102
RTVSPropertyOp12
 70
     1
102
RTVSPropertyOp13
 70
     1
102
RTVSPropertyOp14
 70
     1
102
RTVSPropertyOp15
 70
     1
102
RTVSPropertyOp16
 70
     1
102
RTVSPropertyOp17
 70
     1
102
RTVSPropertyOp18
 70
     1
102
RTVSPropertyOp19
 70
     1
102
RTVSPropertyOp20
 70
     1
102
RTVSPropertyOp21
 70
     1
102
RTVSPropertyOp22
 70
     1
102
RTVSPropertyOp23
 70
     1
102
RTVSPropertyOp24
 70
     1
102
RTVSPropertyOp25
 70
     1
102
RTVSPropertyOp26
 70
     1
102
RTVSPropertyOp27
 70
     1
102
RTVSPropertyOp28
 70
     1
102
RTVSPropertyOp29
 70
     1
102
RTVSPropertyOp30
 70
     1
102
RTVSPropertyOp31
 70
     1
102
RTVSPropertyOp32
 70
     1
  0
XRECORD
  5
BEF
102
{ACAD_REACTORS
330
BEE
102
}
330
BEE
100
AcDbXrecord
280
     1
102
RTVSPropertyOp0
 70
     1
102
RTVSPropertyOp1
 70
     1
102
RTVSPropertyOp2
 70
     1
102
RTVSPropertyOp3
 70
     1
102
RTVSPropertyOp4
 70
     1
102
RTVSPropertyOp5
 70
     1
102
RTVSPropertyOp6
 70
     1
102
RTVSPropertyOp7
 70
     1
102
RTVSPropertyOp8
 70
     1
102
RTVSPropertyOp9
 70
     1
102
RTVSPropertyOp10
 70
     1
102
RTVSPropertyOp11
 70
     1
102
RTVSPropertyOp12
 70
     1
102
RTVSPropertyOp13
 70
     1
102
RTVSPropertyOp14
 70
     1
102
RTVSPropertyOp15
 70
     1
102
RTVSPropertyOp16
 70
     1
102
RTVSPropertyOp17
 70
     1
102
RTVSPropertyOp18
 70
     1
102
RTVSPropertyOp19
 70
     1
102
RTVSPropertyOp20
 70
     1
102
RTVSPropertyOp21
 70
     1
102
RTVSPropertyOp22
 70
     1
102
RTVSPropertyOp23
 70
     1
102
RTVSPropertyOp24
 70
     1
102
RTVSPropertyOp25
 70
     1
102
RTVSPropertyOp26
 70
     1
102
RTVSPropertyOp27
 70
     1
102
RTVSPropertyOp28
 70
     1
102
RTVSPropertyOp29
 70
     1
102
RTVSPropertyOp30
 70
     1
102
RTVSPropertyOp31
 70
     1
102
RTVSPropertyOp32
 70
     1
  0
XRECORD
  5
BF1
102
{ACAD_REACTORS
330
BF0
102
}
330
BF0
100
AcDbXrecord
280
     1
102
RTVSPropertyOp0
 70
     1
102
RTVSPropertyOp1
 70
     1
102
RTVSPropertyOp2
 70
     1
102
RTVSPropertyOp3
 70
     1
102
RTVSPropertyOp4
 70
     1
102
RTVSPropertyOp5
 70
     1
102
RTVSPropertyOp6
 70
     1
102
RTVSPropertyOp7
 70
     1
102
RTVSPropertyOp8
 70
     1
102
RTVSPropertyOp9
 70
     1
102
RTVSPropertyOp10
 70
     1
102
RTVSPropertyOp11
 70
     1
102
RTVSPropertyOp12
 70
     1
102
RTVSPropertyOp13
 70
     1
102
RTVSPropertyOp14
 70
     1
102
RTVSPropertyOp15
 70
     1
102
RTVSPropertyOp16
 70
     1
102
RTVSPropertyOp17
 70
     1
102
RTVSPropertyOp18
 70
     1
102
RTVSPropertyOp19
 70
     1
102
RTVSPropertyOp20
 70
     1
102
RTVSPropertyOp21
 70
     1
102
RTVSPropertyOp22
 70
     1
102
RTVSPropertyOp23
 70
     1
102
RTVSPropertyOp24
 70
     1
102
RTVSPropertyOp25
 70
     1
102
RTVSPropertyOp26
 70
     1
102
RTVSPropertyOp27
 70
     1
102
RTVSPropertyOp28
 70
     1
102
RTVSPropertyOp29
 70
     1
102
RTVSPropertyOp30
 70
     1
102
RTVSPropertyOp31
 70
     1
102
RTVSPropertyOp32
 70
     1
  0
XRECORD
  5
BF3
102
{ACAD_REACTORS
330
BF2
102
}
330
BF2
100
AcDbXrecord
280
     1
102
RTVSPropertyOp0
 70
     1
102
RTVSPropertyOp1
 70
     1
102
RTVSPropertyOp2
 70
     1
102
RTVSPropertyOp3
 70
     1
102
RTVSPropertyOp4
 70
     1
102
RTVSPropertyOp5
 70
     1
102
RTVSPropertyOp6
 70
     1
102
RTVSPropertyOp7
 70
     1
102
RTVSPropertyOp8
 70
     1
102
RTVSPropertyOp9
 70
     1
102
RTVSPropertyOp10
 70
     1
102
RTVSPropertyOp11
 70
     1
102
RTVSPropertyOp12
 70
     1
102
RTVSPropertyOp13
 70
     1
102
RTVSPropertyOp14
 70
     1
102
RTVSPropertyOp15
 70
     1
102
RTVSPropertyOp16
 70
     1
102
RTVSPropertyOp17
 70
     1
102
RTVSPropertyOp18
 70
     1
102
RTVSPropertyOp19
 70
     1
102
RTVSPropertyOp20
 70
     1
102
RTVSPropertyOp21
 70
     1
102
RTVSPropertyOp22
 70
     1
102
RTVSPropertyOp23
 70
     1
102
RTVSPropertyOp24
 70
     1
102
RTVSPropertyOp25
 70
     1
102
RTVSPropertyOp26
 70
     1
102
RTVSPropertyOp27
 70
     1
102
RTVSPropertyOp28
 70
     1
102
RTVSPropertyOp29
 70
     1
102
RTVSPropertyOp30
 70
     1
102
RTVSPropertyOp31
 70
     1
102
RTVSPropertyOp32
 70
     1
  0
XRECORD
  5
BFB
102
{ACAD_REACTORS
330
BFA
102
}
330
BFA
100
AcDbXrecord
280
     1
102
RTVSPropertyOp0
 70
     1
102
RTVSPropertyOp1
 70
     1
102
RTVSPropertyOp2
 70
     1
102
RTVSPropertyOp3
 70
     1
102
RTVSPropertyOp4
 70
     1
102
RTVSPropertyOp5
 70
     1
102
RTVSPropertyOp6
 70
     1
102
RTVSPropertyOp7
 70
     1
102
RTVSPropertyOp8
 70
     1
102
RTVSPropertyOp9
 70
     1
102
RTVSPropertyOp10
 70
     1
102
RTVSPropertyOp11
 70
     1
102
RTVSPropertyOp12
 70
     1
102
RTVSPropertyOp13
 70
     1
102
RTVSPropertyOp14
 70
     1
102
RTVSPropertyOp15
 70
     1
102
RTVSPropertyOp16
 70
     1
102
RTVSPropertyOp17
 70
     1
102
RTVSPropertyOp18
 70
     1
102
RTVSPropertyOp19
 70
     1
102
RTVSPropertyOp20
 70
     1
102
RTVSPropertyOp21
 70
     1
102
RTVSPropertyOp22
 70
     1
102
RTVSPropertyOp23
 70
     1
102
RTVSPropertyOp24
 70
     1
102
RTVSPropertyOp25
 70
     1
102
RTVSPropertyOp26
 70
     1
102
RTVSPropertyOp27
 70
     1
102
RTVSPropertyOp28
 70
     1
102
RTVSPropertyOp29
 70
     1
102
RTVSPropertyOp30
 70
     1
102
RTVSPropertyOp31
 70
     1
102
RTVSPropertyOp32
 70
     1
  0
XRECORD
  5
C17
102
{ACAD_REACTORS
330
C16
102
}
330
C16
100
AcDbXrecord
280
     1
102
RTVSPropertyOp0
 70
     0
102
RTVSPropertyOp1
 70
     0
102
RTVSPropertyOp2
 70
     0
102
RTVSPropertyOp3
 70
     0
102
RTVSPropertyOp4
 70
     0
102
RTVSPropertyOp5
 70
     0
102
RTVSPropertyOp6
 70
     0
102
RTVSPropertyOp7
 70
     0
102
RTVSPropertyOp8
 70
     0
102
RTVSPropertyOp9
 70
     0
102
RTVSPropertyOp10
 70
     0
102
RTVSPropertyOp11
 70
     0
102
RTVSPropertyOp12
 70
     0
102
RTVSPropertyOp13
 70
     0
102
RTVSPropertyOp14
 70
     2
102
RTVSPropertyOp15
 70
     0
102
RTVSPropertyOp16
 70
     0
102
RTVSPropertyOp17
 70
     0
102
RTVSPropertyOp18
 70
     0
102
RTVSPropertyOp19
 70
     0
102
RTVSPropertyOp20
 70
     0
102
RTVSPropertyOp21
 70
     0
102
RTVSPropertyOp22
 70
     0
102
RTVSPropertyOp23
 70
     0
102
RTVSPropertyOp24
 70
     0
102
RTVSPropertyOp25
 70
     0
102
RTVSPropertyOp26
 70
     0
102
RTVSPropertyOp27
 70
     0
102
RTVSPropertyOp28
 70
     0
102
RTVSPropertyOp29
 70
     0
102
RTVSPropertyOp30
 70
     0
102
RTVSPropertyOp31
 70
     0
102
RTVSPropertyOp32
 70
     0
  0
XRECORD
  5
C07
102
{ACAD_REACTORS
330
C06
102
}
330
C06
100
AcDbXrecord
280
     1
102
RTVSPropertyOp0
 70
     1
102
RTVSPropertyOp1
 70
     1
102
RTVSPropertyOp2
 70
     1
102
RTVSPropertyOp3
 70
     1
102
RTVSPropertyOp4
 70
     1
102
RTVSPropertyOp5
 70
     1
102
RTVSPropertyOp6
 70
     1
102
RTVSPropertyOp7
 70
     1
102
RTVSPropertyOp8
 70
     1
102
RTVSPropertyOp9
 70
     1
102
RTVSPropertyOp10
 70
     1
102
RTVSPropertyOp11
 70
     1
102
RTVSPropertyOp12
 70
     1
102
RTVSPropertyOp13
 70
     1
102
RTVSPropertyOp14
 70
     1
102
RTVSPropertyOp15
 70
     1
102
RTVSPropertyOp16
 70
     1
102
RTVSPropertyOp17
 70
     1
102
RTVSPropertyOp18
 70
     1
102
RTVSPropertyOp19
 70
     1
102
RTVSPropertyOp20
 70
     1
102
RTVSPropertyOp21
 70
     1
102
RTVSPropertyOp22
 70
     1
102
RTVSPropertyOp23
 70
     1
102
RTVSPropertyOp24
 70
     1
102
RTVSPropertyOp25
 70
     1
102
RTVSPropertyOp26
 70
     1
102
RTVSPropertyOp27
 70
     1
102
RTVSPropertyOp28
 70
     1
102
RTVSPropertyOp29
 70
     1
102
RTVSPropertyOp30
 70
     1
102
RTVSPropertyOp31
 70
     1
102
RTVSPropertyOp32
 70
     1
  0
XRECORD
  5
C19
102
{ACAD_REACTORS
330
C18
102
}
330
C18
100
AcDbXrecord
280
     1
102
RTVSPropertyOp0
 70
     0
102
RTVSPropertyOp1
 70
     0
102
RTVSPropertyOp2
 70
     0
102
RTVSPropertyOp3
 70
     0
102
RTVSPropertyOp4
 70
     0
102
RTVSPropertyOp5
 70
     0
102
RTVSPropertyOp6
 70
     0
102
RTVSPropertyOp7
 70
     0
102
RTVSPropertyOp8
 70
     0
102
RTVSPropertyOp9
 70
     0
102
RTVSPropertyOp10
 70
     0
102
RTVSPropertyOp11
 70
     0
102
RTVSPropertyOp12
 70
     0
102
RTVSPropertyOp13
 70
     0
102
RTVSPropertyOp14
 70
     2
102
RTVSPropertyOp15
 70
     0
102
RTVSPropertyOp16
 70
     0
102
RTVSPropertyOp17
 70
     0
102
RTVSPropertyOp18
 70
     0
102
RTVSPropertyOp19
 70
     0
102
RTVSPropertyOp20
 70
     0
102
RTVSPropertyOp21
 70
     0
102
RTVSPropertyOp22
 70
     0
102
RTVSPropertyOp23
 70
     0
102
RTVSPropertyOp24
 70
     0
102
RTVSPropertyOp25
 70
     0
102
RTVSPropertyOp26
 70
     0
102
RTVSPropertyOp27
 70
     0
102
RTVSPropertyOp28
 70
     0
102
RTVSPropertyOp29
 70
     0
102
RTVSPropertyOp30
 70
     0
102
RTVSPropertyOp31
 70
     0
102
RTVSPropertyOp32
 70
     0
  0
XRECORD
  5
BFF
102
{ACAD_REACTORS
330
BFE
102
}
330
BFE
100
AcDbXrecord
280
     1
102
RTVSPropertyOp0
 70
     1
102
RTVSPropertyOp1
 70
     1
102
RTVSPropertyOp2
 70
     1
102
RTVSPropertyOp3
 70
     1
102
RTVSPropertyOp4
 70
     1
102
RTVSPropertyOp5
 70
     1
102
RTVSPropertyOp6
 70
     1
102
RTVSPropertyOp7
 70
     1
102
RTVSPropertyOp8
 70
     1
102
RTVSPropertyOp9
 70
     1
102
RTVSPropertyOp10
 70
     1
102
RTVSPropertyOp11
 70
     1
102
RTVSPropertyOp12
 70
     1
102
RTVSPropertyOp13
 70
     1
102
RTVSPropertyOp14
 70
     1
102
RTVSPropertyOp15
 70
     1
102
RTVSPropertyOp16
 70
     1
102
RTVSPropertyOp17
 70
     1
102
RTVSPropertyOp18
 70
     1
102
RTVSPropertyOp19
 70
     1
102
RTVSPropertyOp20
 70
     1
102
RTVSPropertyOp21
 70
     1
102
RTVSPropertyOp22
 70
     1
102
RTVSPropertyOp23
 70
     1
102
RTVSPropertyOp24
 70
     1
102
RTVSPropertyOp25
 70
     1
102
RTVSPropertyOp26
 70
     1
102
RTVSPropertyOp27
 70
     1
102
RTVSPropertyOp28
 70
     1
102
RTVSPropertyOp29
 70
     1
102
RTVSPropertyOp30
 70
     1
102
RTVSPropertyOp31
 70
     1
102
RTVSPropertyOp32
 70
     1
  0
XRECORD
  5
C15
102
{ACAD_REACTORS
330
C14
102
}
330
C14
100
AcDbXrecord
280
     1
102
RTVSPropertyOp0
 70
     1
102
RTVSPropertyOp1
 70
     1
102
RTVSPropertyOp2
 70
     1
102
RTVSPropertyOp3
 70
     1
102
RTVSPropertyOp4
 70
     1
102
RTVSPropertyOp5
 70
     1
102
RTVSPropertyOp6
 70
     1
102
RTVSPropertyOp7
 70
     1
102
RTVSPropertyOp8
 70
     1
102
RTVSPropertyOp9
 70
     1
102
RTVSPropertyOp10
 70
     1
102
RTVSPropertyOp11
 70
     1
102
RTVSPropertyOp12
 70
     1
102
RTVSPropertyOp13
 70
     1
102
RTVSPropertyOp14
 70
     1
102
RTVSPropertyOp15
 70
     1
102
RTVSPropertyOp16
 70
     1
102
RTVSPropertyOp17
 70
     1
102
RTVSPropertyOp18
 70
     1
102
RTVSPropertyOp19
 70
     1
102
RTVSPropertyOp20
 70
     1
102
RTVSPropertyOp21
 70
     1
102
RTVSPropertyOp22
 70
     1
102
RTVSPropertyOp23
 70
     1
102
RTVSPropertyOp24
 70
     1
102
RTVSPropertyOp25
 70
     1
102
RTVSPropertyOp26
 70
     1
102
RTVSPropertyOp27
 70
     1
102
RTVSPropertyOp28
 70
     1
102
RTVSPropertyOp29
 70
     1
102
RTVSPropertyOp30
 70
     1
102
RTVSPropertyOp31
 70
     1
102
RTVSPropertyOp32
 70
     1
  0
XRECORD
  5
C13
102
{ACAD_REACTORS
330
C12
102
}
330
C12
100
AcDbXrecord
280
     1
102
RTVSPropertyOp0
 70
     1
102
RTVSPropertyOp1
 70
     1
102
RTVSPropertyOp2
 70
     1
102
RTVSPropertyOp3
 70
     1
102
RTVSPropertyOp4
 70
     1
102
RTVSPropertyOp5
 70
     1
102
RTVSPropertyOp6
 70
     1
102
RTVSPropertyOp7
 70
     1
102
RTVSPropertyOp8
 70
     1
102
RTVSPropertyOp9
 70
     1
102
RTVSPropertyOp10
 70
     1
102
RTVSPropertyOp11
 70
     1
102
RTVSPropertyOp12
 70
     1
102
RTVSPropertyOp13
 70
     1
102
RTVSPropertyOp14
 70
     1
102
RTVSPropertyOp15
 70
     1
102
RTVSPropertyOp16
 70
     1
102
RTVSPropertyOp17
 70
     1
102
RTVSPropertyOp18
 70
     1
102
RTVSPropertyOp19
 70
     1
102
RTVSPropertyOp20
 70
     1
102
RTVSPropertyOp21
 70
     1
102
RTVSPropertyOp22
 70
     1
102
RTVSPropertyOp23
 70
     1
102
RTVSPropertyOp24
 70
     1
102
RTVSPropertyOp25
 70
     1
102
RTVSPropertyOp26
 70
     1
102
RTVSPropertyOp27
 70
     1
102
RTVSPropertyOp28
 70
     1
102
RTVSPropertyOp29
 70
     1
102
RTVSPropertyOp30
 70
     1
102
RTVSPropertyOp31
 70
     1
102
RTVSPropertyOp32
 70
     1
  0
XRECORD
  5
C0D
102
{ACAD_REACTORS
330
C0C
102
}
330
C0C
100
AcDbXrecord
280
     1
102
RTVSPropertyOp0
 70
     1
102
RTVSPropertyOp1
 70
     1
102
RTVSPropertyOp2
 70
     1
102
RTVSPropertyOp3
 70
     1
102
RTVSPropertyOp4
 70
     1
102
RTVSPropertyOp5
 70
     1
102
RTVSPropertyOp6
 70
     1
102
RTVSPropertyOp7
 70
     1
102
RTVSPropertyOp8
 70
     1
102
RTVSPropertyOp9
 70
     1
102
RTVSPropertyOp10
 70
     1
102
RTVSPropertyOp11
 70
     1
102
RTVSPropertyOp12
 70
     1
102
RTVSPropertyOp13
 70
     1
102
RTVSPropertyOp14
 70
     1
102
RTVSPropertyOp15
 70
     1
102
RTVSPropertyOp16
 70
     1
102
RTVSPropertyOp17
 70
     1
102
RTVSPropertyOp18
 70
     1
102
RTVSPropertyOp19
 70
     1
102
RTVSPropertyOp20
 70
     1
102
RTVSPropertyOp21
 70
     1
102
RTVSPropertyOp22
 70
     1
102
RTVSPropertyOp23
 70
     1
102
RTVSPropertyOp24
 70
     1
102
RTVSPropertyOp25
 70
     1
102
RTVSPropertyOp26
 70
     1
102
RTVSPropertyOp27
 70
     1
102
RTVSPropertyOp28
 70
     1
102
RTVSPropertyOp29
 70
     1
102
RTVSPropertyOp30
 70
     1
102
RTVSPropertyOp31
 70
     1
102
RTVSPropertyOp32
 70
     1
  0
XRECORD
  5
C0F
102
{ACAD_REACTORS
330
C0E
102
}
330
C0E
100
AcDbXrecord
280
     1
102
RTVSPropertyOp0
 70
     1
102
RTVSPropertyOp1
 70
     1
102
RTVSPropertyOp2
 70
     1
102
RTVSPropertyOp3
 70
     1
102
RTVSPropertyOp4
 70
     1
102
RTVSPropertyOp5
 70
     1
102
RTVSPropertyOp6
 70
     1
102
RTVSPropertyOp7
 70
     1
102
RTVSPropertyOp8
 70
     1
102
RTVSPropertyOp9
 70
     1
102
RTVSPropertyOp10
 70
     1
102
RTVSPropertyOp11
 70
     1
102
RTVSPropertyOp12
 70
     1
102
RTVSPropertyOp13
 70
     1
102
RTVSPropertyOp14
 70
     1
102
RTVSPropertyOp15
 70
     1
102
RTVSPropertyOp16
 70
     1
102
RTVSPropertyOp17
 70
     1
102
RTVSPropertyOp18
 70
     1
102
RTVSPropertyOp19
 70
     1
102
RTVSPropertyOp20
 70
     1
102
RTVSPropertyOp21
 70
     1
102
RTVSPropertyOp22
 70
     1
102
RTVSPropertyOp23
 70
     1
102
RTVSPropertyOp24
 70
     1
102
RTVSPropertyOp25
 70
     1
102
RTVSPropertyOp26
 70
     1
102
RTVSPropertyOp27
 70
     1
102
RTVSPropertyOp28
 70
     1
102
RTVSPropertyOp29
 70
     1
102
RTVSPropertyOp30
 70
     1
102
RTVSPropertyOp31
 70
     1
102
RTVSPropertyOp32
 70
     1
  0
XRECORD
  5
C05
102
{ACAD_REACTORS
330
C04
102
}
330
C04
100
AcDbXrecord
280
     1
102
RTVSPropertyOp0
 70
     1
102
RTVSPropertyOp1
 70
     1
102
RTVSPropertyOp2
 70
     1
102
RTVSPropertyOp3
 70
     1
102
RTVSPropertyOp4
 70
     1
102
RTVSPropertyOp5
 70
     1
102
RTVSPropertyOp6
 70
     1
102
RTVSPropertyOp7
 70
     1
102
RTVSPropertyOp8
 70
     1
102
RTVSPropertyOp9
 70
     1
102
RTVSPropertyOp10
 70
     1
102
RTVSPropertyOp11
 70
     1
102
RTVSPropertyOp12
 70
     1
102
RTVSPropertyOp13
 70
     1
102
RTVSPropertyOp14
 70
     1
102
RTVSPropertyOp15
 70
     1
102
RTVSPropertyOp16
 70
     1
102
RTVSPropertyOp17
 70
     1
102
RTVSPropertyOp18
 70
     1
102
RTVSPropertyOp19
 70
     1
102
RTVSPropertyOp20
 70
     1
102
RTVSPropertyOp21
 70
     1
102
RTVSPropertyOp22
 70
     1
102
RTVSPropertyOp23
 70
     1
102
RTVSPropertyOp24
 70
     1
102
RTVSPropertyOp25
 70
     1
102
RTVSPropertyOp26
 70
     1
102
RTVSPropertyOp27
 70
     1
102
RTVSPropertyOp28
 70
     1
102
RTVSPropertyOp29
 70
     1
102
RTVSPropertyOp30
 70
     1
102
RTVSPropertyOp31
 70
     1
102
RTVSPropertyOp32
 70
     1
  0
XRECORD
  5
BF9
102
{ACAD_REACTORS
330
BF8
102
}
330
BF8
100
AcDbXrecord
280
     1
102
RTVSPropertyOp0
 70
     1
102
RTVSPropertyOp1
 70
     1
102
RTVSPropertyOp2
 70
     1
102
RTVSPropertyOp3
 70
     1
102
RTVSPropertyOp4
 70
     1
102
RTVSPropertyOp5
 70
     1
102
RTVSPropertyOp6
 70
     1
102
RTVSPropertyOp7
 70
     1
102
RTVSPropertyOp8
 70
     1
102
RTVSPropertyOp9
 70
     1
102
RTVSPropertyOp10
 70
     1
102
RTVSPropertyOp11
 70
     1
102
RTVSPropertyOp12
 70
     1
102
RTVSPropertyOp13
 70
     1
102
RTVSPropertyOp14
 70
     1
102
RTVSPropertyOp15
 70
     1
102
RTVSPropertyOp16
 70
     1
102
RTVSPropertyOp17
 70
     1
102
RTVSPropertyOp18
 70
     1
102
RTVSPropertyOp19
 70
     1
102
RTVSPropertyOp20
 70
     1
102
RTVSPropertyOp21
 70
     1
102
RTVSPropertyOp22
 70
     1
102
RTVSPropertyOp23
 70
     1
102
RTVSPropertyOp24
 70
     1
102
RTVSPropertyOp25
 70
     1
102
RTVSPropertyOp26
 70
     1
102
RTVSPropertyOp27
 70
     1
102
RTVSPropertyOp28
 70
     1
102
RTVSPropertyOp29
 70
     1
102
RTVSPropertyOp30
 70
     1
102
RTVSPropertyOp31
 70
     1
102
RTVSPropertyOp32
 70
     1
  0
XRECORD
  5
C11
102
{ACAD_REACTORS
330
C10
102
}
330
C10
100
AcDbXrecord
280
     1
102
RTVSPropertyOp0
 70
     1
102
RTVSPropertyOp1
 70
     1
102
RTVSPropertyOp2
 70
     1
102
RTVSPropertyOp3
 70
     1
102
RTVSPropertyOp4
 70
     1
102
RTVSPropertyOp5
 70
     1
102
RTVSPropertyOp6
 70
     1
102
RTVSPropertyOp7
 70
     1
102
RTVSPropertyOp8
 70
     1
102
RTVSPropertyOp9
 70
     1
102
RTVSPropertyOp10
 70
     1
102
RTVSPropertyOp11
 70
     1
102
RTVSPropertyOp12
 70
     1
102
RTVSPropertyOp13
 70
     1
102
RTVSPropertyOp14
 70
     1
102
RTVSPropertyOp15
 70
     1
102
RTVSPropertyOp16
 70
     1
102
RTVSPropertyOp17
 70
     1
102
RTVSPropertyOp18
 70
     1
102
RTVSPropertyOp19
 70
     1
102
RTVSPropertyOp20
 70
     1
102
RTVSPropertyOp21
 70
     1
102
RTVSPropertyOp22
 70
     1
102
RTVSPropertyOp23
 70
     1
102
RTVSPropertyOp24
 70
     1
102
RTVSPropertyOp25
 70
     1
102
RTVSPropertyOp26
 70
     1
102
RTVSPropertyOp27
 70
     1
102
RTVSPropertyOp28
 70
     1
102
RTVSPropertyOp29
 70
     1
102
RTVSPropertyOp30
 70
     1
102
RTVSPropertyOp31
 70
     1
102
RTVSPropertyOp32
 70
     1
  0
ENDSEC
  0
EOF
