  0
SECTION
  2
HEADER
  9
$ACADVER
  1
AC1021
  9
$ACADMAINTVER
 70
    50
  9
$DWGCODEPAGE
  3
ANSI_1252
  9
$AUTHOR
  1
zsm
  9
$CUSTOMPROPERTYTAG
  1
Manager
  9
$CUSTOMPROPERTY
  1

  9
$CUSTOMPROPERTYTAG
  1
Firma
  9
$CUSTOMPROPERTY
  1

  9
$CUSTOMPROPERTYTAG
  1
Kategorie
  9
$CUSTOMPROPERTY
  1

  9
$CUSTOMPROPERTYTAG
  1
Bauteilnummer
  9
$CUSTOMPROPERTY
  1
33180
  9
$CUSTOMPROPERTYTAG
  1
Bezeichnung
  9
$CUSTOMPROPERTY
  1
Metallbaugarnitur kpl.
  9
$CUSTOMPROPERTYTAG
  1
Projekt
  9
$CUSTOMPROPERTY
  1

  9
$CUSTOMPROPERTYTAG
  1
Konstrukteur
  9
$CUSTOMPROPERTY
  1
zsm
  9
$CUSTOMPROPERTYTAG
  1
Ingenieur
  9
$CUSTOMPROPERTY
  1

  9
$CUSTOMPROPERTYTAG
  1
Bevollmächtigter
  9
$CUSTOMPROPERTY
  1

  9
$CUSTOMPROPERTYTAG
  1
Kostenstelle
  9
$CUSTOMPROPERTY
  1

  9
$CUSTOMPROPERTYTAG
  1
Zulieferer
  9
$CUSTOMPROPERTY
  1

  9
$CUSTOMPROPERTYTAG
  1
Benutzerstatus
  9
$CUSTOMPROPERTY
  1

  9
$CUSTOMPROPERTYTAG
  1
Konstruktionsstatus
  9
$CUSTOMPROPERTY
  1
InBearbeitung
  9
$CUSTOMPROPERTYTAG
  1
Kontrolliert von
  9
$CUSTOMPROPERTY
  1

  9
$CUSTOMPROPERTYTAG
  1
Konstruktion genehmigt von
  9
$CUSTOMPROPERTY
  1

  9
$CUSTOMPROPERTYTAG
  1
Fertigung genehmigt von
  9
$CUSTOMPROPERTY
  1

  9
$CUSTOMPROPERTYTAG
  1
Aend_Beschreibung_1
  9
$CUSTOMPROPERTY
  1

  9
$CUSTOMPROPERTYTAG
  1
Aend_Beschreibung_2
  9
$CUSTOMPROPERTY
  1

  9
$CUSTOMPROPERTYTAG
  1
Aend_Beschreibung_3
  9
$CUSTOMPROPERTY
  1

  9
$CUSTOMPROPERTYTAG
  1
Aend_Beschreibung_4
  9
$CUSTOMPROPERTY
  1

  9
$CUSTOMPROPERTYTAG
  1
Aend_Beschreibung_5
  9
$CUSTOMPROPERTY
  1

  9
$CUSTOMPROPERTYTAG
  1
Aend_Beschreibung_6
  9
$CUSTOMPROPERTY
  1

  9
$CUSTOMPROPERTYTAG
  1
Aend_Beschreibung_7
  9
$CUSTOMPROPERTY
  1

  9
$CUSTOMPROPERTYTAG
  1
Aend_Beschreibung_8
  9
$CUSTOMPROPERTY
  1

  9
$CUSTOMPROPERTYTAG
  1
Aend_Index_1
  9
$CUSTOMPROPERTY
  1

  9
$CUSTOMPROPERTYTAG
  1
Aend_Index_2
  9
$CUSTOMPROPERTY
  1

  9
$CUSTOMPROPERTYTAG
  1
Aend_Index_3
  9
$CUSTOMPROPERTY
  1

  9
$CUSTOMPROPERTYTAG
  1
Aend_Index_4
  9
$CUSTOMPROPERTY
  1

  9
$CUSTOMPROPERTYTAG
  1
Aend_Index_5
  9
$CUSTOMPROPERTY
  1

  9
$CUSTOMPROPERTYTAG
  1
Aend_Index_6
  9
$CUSTOMPROPERTY
  1

  9
$CUSTOMPROPERTYTAG
  1
Aend_Index_7
  9
$CUSTOMPROPERTY
  1

  9
$CUSTOMPROPERTYTAG
  1
Aend_Index_8
  9
$CUSTOMPROPERTY
  1

  9
$CUSTOMPROPERTYTAG
  1
Aend_Name_1
  9
$CUSTOMPROPERTY
  1

  9
$CUSTOMPROPERTYTAG
  1
Aend_Name_2
  9
$CUSTOMPROPERTY
  1

  9
$CUSTOMPROPERTYTAG
  1
Aend_Name_3
  9
$CUSTOMPROPERTY
  1

  9
$CUSTOMPROPERTYTAG
  1
Aend_Name_4
  9
$CUSTOMPROPERTY
  1

  9
$CUSTOMPROPERTYTAG
  1
Aend_Name_5
  9
$CUSTOMPROPERTY
  1

  9
$CUSTOMPROPERTYTAG
  1
Aend_Name_6
  9
$CUSTOMPROPERTY
  1

  9
$CUSTOMPROPERTYTAG
  1
Aend_Name_7
  9
$CUSTOMPROPERTY
  1

  9
$CUSTOMPROPERTYTAG
  1
Aend_Name_8
  9
$CUSTOMPROPERTY
  1

  9
$CUSTOMPROPERTYTAG
  1
Dimension
  9
$CUSTOMPROPERTY
  1

  9
$CUSTOMPROPERTYTAG
  1
Masse
  9
$CUSTOMPROPERTY
  1

  9
$CUSTOMPROPERTYTAG
  1
Material
  9
$CUSTOMPROPERTY
  1

  9
$CUSTOMPROPERTYTAG
  1
Menge
  9
$CUSTOMPROPERTY
  1

  9
$CUSTOMPROPERTYTAG
  1
Norm
  9
$CUSTOMPROPERTY
  1

  9
$CUSTOMPROPERTYTAG
  1
Position
  9
$CUSTOMPROPERTY
  1

  9
$CUSTOMPROPERTYTAG
  1
Ersatz_fuer
  9
$CUSTOMPROPERTY
  1

  9
$CUSTOMPROPERTYTAG
  1
Esetzt_durch
  9
$CUSTOMPROPERTY
  1

  9
$CUSTOMPROPERTYTAG
  1
Massstab
  9
$CUSTOMPROPERTY
  1
1 : 2
  9
$CUSTOMPROPERTYTAG
  1
SysDate
  9
$CUSTOMPROPERTY
  1
13.03.2013
  9
$CUSTOMPROPERTYTAG
  1
SysTime
  9
$CUSTOMPROPERTY
  1
12:16
  9
$INSBASE
 10
0.0
 20
0.0
 30
0.0
  9
$EXTMIN
 10
0.0
 20
0.0
 30
0.0
  9
$EXTMAX
 10
420.0
 20
594.0
 30
0.0
  9
$LIMMIN
 10
0.0
 20
0.0
  9
$LIMMAX
 10
420.0
 20
594.0
  9
$ORTHOMODE
 70
     0
  9
$REGENMODE
 70
     1
  9
$FILLMODE
 70
     1
  9
$QTEXTMODE
 70
     0
  9
$MIRRTEXT
 70
     0
  9
$LTSCALE
 40
2.0
  9
$ATTMODE
 70
     1
  9
$TEXTSIZE
 40
0.2
  9
$TRACEWID
 40
0.05
  9
$TEXTSTYLE
  7
Standard
  9
$CLAYER
  8
0
  9
$CELTYPE
  6
ByLayer
  9
$CECOLOR
 62
   256
  9
$CELTSCALE
 40
1.0
  9
$DISPSILH
 70
     0
  9
$DIMSCALE
 40
1.0
  9
$DIMASZ
 40
1.799999999999999
  9
$DIMEXO
 40
0.0625
  9
$DIMDLI
 40
0.38
  9
$DIMRND
 40
0.0
  9
$DIMDLE
 40
0.0
  9
$DIMEXE
 40
0.18
  9
$DIMTP
 40
0.0
  9
$DIMTM
 40
0.0
  9
$DIMTXT
 40
0.3499999940395355
  9
$DIMCEN
 40
0.09
  9
$DIMTSZ
 40
0.0
  9
$DIMTOL
 70
     0
  9
$DIMLIM
 70
     0
  9
$DIMTIH
 70
     1
  9
$DIMTOH
 70
     1
  9
$DIMSE1
 70
     0
  9
$DIMSE2
 70
     0
  9
$DIMTAD
 70
     0
  9
$DIMZIN
 70
     0
  9
$DIMBLK
  1

  9
$DIMASO
 70
     1
  9
$DIMSHO
 70
     1
  9
$DIMPOST
  1

  9
$DIMAPOST
  1

  9
$DIMALT
 70
     0
  9
$DIMALTD
 70
     2
  9
$DIMALTF
 40
25.4
  9
$DIMLFAC
 40
1.0
  9
$DIMTOFL
 70
     0
  9
$DIMTVP
 40
0.0
  9
$DIMTIX
 70
     0
  9
$DIMSOXD
 70
     0
  9
$DIMSAH
 70
     0
  9
$DIMBLK1
  1

  9
$DIMBLK2
  1

  9
$DIMSTYLE
  2
Standard
  9
$DIMCLRD
 70
     0
  9
$DIMCLRE
 70
     0
  9
$DIMCLRT
 70
     0
  9
$DIMTFAC
 40
1.0
  9
$DIMGAP
 40
0.09
  9
$DIMJUST
 70
     0
  9
$DIMSD1
 70
     0
  9
$DIMSD2
 70
     0
  9
$DIMTOLJ
 70
     1
  9
$DIMTZIN
 70
     0
  9
$DIMALTZ
 70
     0
  9
$DIMALTTZ
 70
     0
  9
$DIMUPT
 70
     0
  9
$DIMDEC
 70
     4
  9
$DIMTDEC
 70
     4
  9
$DIMALTU
 70
     2
  9
$DIMALTTD
 70
     2
  9
$DIMTXSTY
  7
Standard
  9
$DIMAUNIT
 70
     0
  9
$DIMADEC
 70
     0
  9
$DIMALTRND
 40
0.0
  9
$DIMAZIN
 70
     0
  9
$DIMDSEP
 70
    46
  9
$DIMATFIT
 70
     3
  9
$DIMFRAC
 70
     0
  9
$DIMLDRBLK
  1

  9
$DIMLUNIT
 70
     2
  9
$DIMLWD
 70
    -2
  9
$DIMLWE
 70
    -2
  9
$DIMTMOVE
 70
     0
  9
$DIMFXL
 40
1.0
  9
$DIMFXLON
 70
     0
  9
$DIMJOGANG
 40
0.7853981633974483
  9
$DIMTFILL
 70
     0
  9
$DIMTFILLCLR
 70
     0
  9
$DIMARCSYM
 70
     0
  9
$DIMLTYPE
  6

  9
$DIMLTEX1
  6

  9
$DIMLTEX2
  6

  9
$LUNITS
 70
     2
  9
$LUPREC
 70
     4
  9
$SKETCHINC
 40
0.1
  9
$FILLETRAD
 40
0.0
  9
$AUNITS
 70
     0
  9
$AUPREC
 70
     0
  9
$MENU
  1
.
  9
$ELEVATION
 40
0.0
  9
$PELEVATION
 40
0.0
  9
$THICKNESS
 40
0.0
  9
$LIMCHECK
 70
     0
  9
$CHAMFERA
 40
0.0
  9
$CHAMFERB
 40
0.0
  9
$CHAMFERC
 40
0.0
  9
$CHAMFERD
 40
0.0
  9
$SKPOLY
 70
     0
  9
$TDCREATE
 40
2456570.386987697
  9
$TDUCREATE
 40
2456570.303654364
  9
$TDUPDATE
 40
2456570.386987697
  9
$TDUUPDATE
 40
2456570.303654364
  9
$TDINDWG
 40
0.0000441551
  9
$TDUSRTIMER
 40
0.0000441204
  9
$USRTIMER
 70
     1
  9
$ANGBASE
 50
0.0
  9
$ANGDIR
 70
     0
  9
$PDMODE
 70
     0
  9
$PDSIZE
 40
0.0
  9
$PLINEWID
 40
0.0
  9
$SPLFRAME
 70
     0
  9
$SPLINETYPE
 70
     6
  9
$SPLINESEGS
 70
     8
  9
$HANDSEED
  5
C01
  9
$SURFTAB1
 70
     6
  9
$SURFTAB2
 70
     6
  9
$SURFTYPE
 70
     6
  9
$SURFU
 70
     6
  9
$SURFV
 70
     6
  9
$UCSBASE
  2

  9
$UCSNAME
  2

  9
$UCSORG
 10
0.0
 20
0.0
 30
0.0
  9
$UCSXDIR
 10
1.0
 20
0.0
 30
0.0
  9
$UCSYDIR
 10
0.0
 20
1.0
 30
0.0
  9
$UCSORTHOREF
  2

  9
$UCSORTHOVIEW
 70
     0
  9
$UCSORGTOP
 10
0.0
 20
0.0
 30
0.0
  9
$UCSORGBOTTOM
 10
0.0
 20
0.0
 30
0.0
  9
$UCSORGLEFT
 10
0.0
 20
0.0
 30
0.0
  9
$UCSORGRIGHT
 10
0.0
 20
0.0
 30
0.0
  9
$UCSORGFRONT
 10
0.0
 20
0.0
 30
0.0
  9
$UCSORGBACK
 10
0.0
 20
0.0
 30
0.0
  9
$PUCSBASE
  2

  9
$PUCSNAME
  2

  9
$PUCSORG
 10
0.0
 20
0.0
 30
0.0
  9
$PUCSXDIR
 10
1.0
 20
0.0
 30
0.0
  9
$PUCSYDIR
 10
0.0
 20
1.0
 30
0.0
  9
$PUCSORTHOREF
  2

  9
$PUCSORTHOVIEW
 70
     0
  9
$PUCSORGTOP
 10
0.0
 20
0.0
 30
0.0
  9
$PUCSORGBOTTOM
 10
0.0
 20
0.0
 30
0.0
  9
$PUCSORGLEFT
 10
0.0
 20
0.0
 30
0.0
  9
$PUCSORGRIGHT
 10
0.0
 20
0.0
 30
0.0
  9
$PUCSORGFRONT
 10
0.0
 20
0.0
 30
0.0
  9
$PUCSORGBACK
 10
0.0
 20
0.0
 30
0.0
  9
$USERI1
 70
     0
  9
$USERI2
 70
     0
  9
$USERI3
 70
     0
  9
$USERI4
 70
     0
  9
$USERI5
 70
     0
  9
$USERR1
 40
0.0
  9
$USERR2
 40
0.0
  9
$USERR3
 40
0.0
  9
$USERR4
 40
0.0
  9
$USERR5
 40
0.0
  9
$WORLDVIEW
 70
     1
  9
$SHADEDGE
 70
     3
  9
$SHADEDIF
 70
    70
  9
$TILEMODE
 70
     1
  9
$MAXACTVP
 70
    64
  9
$PINSBASE
 10
0.0
 20
0.0
 30
0.0
  9
$PLIMCHECK
 70
     0
  9
$PEXTMIN
 10
0.0
 20
0.0
 30
0.0
  9
$PEXTMAX
 10
420.0
 20
594.0
 30
0.0
  9
$PLIMMIN
 10
0.0
 20
0.0
  9
$PLIMMAX
 10
420.0
 20
594.0
  9
$UNITMODE
 70
     0
  9
$VISRETAIN
 70
     1
  9
$PLINEGEN
 70
     0
  9
$PSLTSCALE
 70
     1
  9
$TREEDEPTH
 70
  3020
  9
$CMLSTYLE
  2
Standard
  9
$CMLJUST
 70
     0
  9
$CMLSCALE
 40
1.0
  9
$PROXYGRAPHICS
 70
     1
  9
$MEASUREMENT
 70
     1
  9
$CELWEIGHT
370
    -1
  9
$ENDCAPS
280
     0
  9
$JOINSTYLE
280
     0
  9
$LWDISPLAY
290
     0
  9
$INSUNITS
 70
     4
  9
$HYPERLINKBASE
  1

  9
$STYLESHEET
  1

  9
$XEDIT
290
     1
  9
$CEPSNTYPE
380
     0
  9
$PSTYLEMODE
290
     1
  9
$FINGERPRINTGUID
  2
{21F83E7B-94E6-456C-B532-CA6EA69340E3}
  9
$VERSIONGUID
  2
{9D05DCCB-FD9E-443C-9F24-E1993D968FA7}
  9
$EXTNAMES
290
     1
  9
$PSVPSCALE
 40
0.0
  9
$OLESTARTUP
290
     0
  9
$SORTENTS
280
   127
  9
$INDEXCTL
280
     0
  9
$HIDETEXT
280
     1
  9
$XCLIPFRAME
290
     0
  9
$HALOGAP
280
     0
  9
$OBSCOLOR
 70
   257
  9
$OBSLTYPE
280
     0
  9
$INTERSECTIONDISPLAY
280
     0
  9
$INTERSECTIONCOLOR
 70
   257
  9
$DIMASSOC
280
     1
  9
$PROJECTNAME
  1

  9
$CAMERADISPLAY
290
     0
  9
$LENSLENGTH
 40
50.0
  9
$CAMERAHEIGHT
 40
0.0
  9
$STEPSPERSEC
 40
2.0
  9
$STEPSIZE
 40
6.0
  9
$3DDWFPREC
 40
2.0
  9
$PSOLWIDTH
 40
0.25
  9
$PSOLHEIGHT
 40
4.0
  9
$LOFTANG1
 40
1.570796326794896
  9
$LOFTANG2
 40
1.570796326794896
  9
$LOFTMAG1
 40
0.0
  9
$LOFTMAG2
 40
0.0
  9
$LOFTPARAM
 70
     7
  9
$LOFTNORMALS
280
     1
  9
$LATITUDE
 40
37.795
  9
$LONGITUDE
 40
-122.394
  9
$NORTHDIRECTION
 40
0.0
  9
$TIMEZONE
 70
 -8000
  9
$LIGHTGLYPHDISPLAY
280
     1
  9
$TILEMODELIGHTSYNCH
280
     1
  9
$CMATERIAL
347
11
  9
$SOLIDHIST
280
     0
  9
$SHOWHIST
280
     1
  9
$DWFFRAME
280
     2
  9
$DGNFRAME
280
     0
  9
$REALWORLDSCALE
290
     1
  9
$INTERFERECOLOR
 62
     1
  9
$INTERFEREOBJVS
345
33
  9
$INTERFEREVPVS
346
30
  9
$CSHADOW
280
     0
  9
$SHADOWPLANELOCATION
 40
0.0
  0
ENDSEC
  0
SECTION
  2
CLASSES
  0
CLASS
  1
ACDBDICTIONARYWDFLT
  2
AcDbDictionaryWithDefault
  3
ObjectDBX Classes
 90
        0
 91
        1
280
     0
281
     0
  0
CLASS
  1
MATERIAL
  2
AcDbMaterial
  3
ObjectDBX Classes
 90
     1153
 91
        3
280
     0
281
     0
  0
CLASS
  1
VISUALSTYLE
  2
AcDbVisualStyle
  3
ObjectDBX Classes
 90
     4095
 91
       24
280
     0
281
     0
  0
CLASS
  1
SCALE
  2
AcDbScale
  3
ObjectDBX Classes
 90
     1153
 91
       17
280
     0
281
     0
  0
CLASS
  1
TABLESTYLE
  2
AcDbTableStyle
  3
ObjectDBX Classes
 90
     4095
 91
        1
280
     0
281
     0
  0
CLASS
  1
MLEADERSTYLE
  2
AcDbMLeaderStyle
  3
ACDB_MLEADERSTYLE_CLASS
 90
     4095
 91
        1
280
     0
281
     0
  0
CLASS
  1
DICTIONARYVAR
  2
AcDbDictionaryVar
  3
ObjectDBX Classes
 90
        0
 91
        5
280
     0
281
     0
  0
CLASS
  1
CELLSTYLEMAP
  2
AcDbCellStyleMap
  3
ObjectDBX Classes
 90
     1152
 91
        2
280
     0
281
     0
  0
ENDSEC
  0
SECTION
  2
TABLES
  0
TABLE
  2
VPORT
  5
8
330
0
100
AcDbSymbolTable
 70
     1
  0
VPORT
  5
57
330
8
100
AcDbSymbolTableRecord
100
AcDbViewportTableRecord
  2
*Active
 70
     0
 10
0.0
 20
0.0
 11
1.0
 21
1.0
 12
210.0
 22
297.0
 13
0.0
 23
0.0
 14
1.0
 24
1.0
 15
0.0
 25
0.0
 16
0.0
 26
0.0
 36
1.0
 17
0.0
 27
0.0
 37
0.0
 40
594.0
 41
0.7070707070707071
 42
50.0
 43
0.0
 44
0.0
 50
0.0
 51
0.0
 71
     0
 72
   100
 73
     1
 74
     1
 75
     0
 76
     0
 77
     0
 78
     0
281
     0
 65
     1
110
0.0
120
0.0
130
0.0
111
1.0
121
0.0
131
0.0
112
0.0
122
1.0
132
0.0
 79
     0
146
0.0
 60
     3
 61
     5
292
     1
282
     1
141
0.0
142
0.0
 63
   250
421
  3355443
  0
ENDTAB
  0
TABLE
  2
LTYPE
  5
5
330
0
100
AcDbSymbolTable
 70
     1
  0
LTYPE
  5
5B
330
5
100
AcDbSymbolTableRecord
100
AcDbLinetypeTableRecord
  2
ByBlock
 70
     0
  3

 72
    65
 73
     0
 40
0.0
  0
LTYPE
  5
5C
330
5
100
AcDbSymbolTableRecord
100
AcDbLinetypeTableRecord
  2
ByLayer
 70
     0
  3

 72
    65
 73
     0
 40
0.0
  0
LTYPE
  5
5D
330
5
100
AcDbSymbolTableRecord
100
AcDbLinetypeTableRecord
  2
Continuous
 70
     0
  3
Solid line
 72
    65
 73
     0
 40
0.0
  0
ENDTAB
  0
TABLE
  2
LAYER
  5
2
330
0
100
AcDbSymbolTable
 70
    15
  0
LAYER
  5
54
330
2
100
AcDbSymbolTableRecord
100
AcDbLayerTableRecord
  2
0
 70
     0
 62
     7
  6
Continuous
370
    -3
390
F
347
21
  0
LAYER
  5
76
330
2
100
AcDbSymbolTableRecord
100
AcDbLayerTableRecord
  2
AM_0
 70
     0
 62
     7
  6
Continuous
370
    50
390
F
347
21
  0
LAYER
  5
77
330
2
100
AcDbSymbolTableRecord
100
AcDbLayerTableRecord
  2
AM_5
 70
     0
 62
     3
420
    65280
  6
Continuous
370
    25
390
F
347
21
  0
LAYER
  5
7F
330
2
100
AcDbSymbolTableRecord
100
AcDbLayerTableRecord
  2
Bemaßungen(DIN)
 70
     0
 62
     7
  6
Continuous
370
    25
390
F
347
21
  0
LAYER
  5
8D
330
2
100
AcDbSymbolTableRecord
100
AcDbLayerTableRecord
  2
Mittellinie(DIN)
 70
     0
 62
     7
  6
Continuous
370
    25
390
F
347
21
  0
LAYER
  5
8F
330
2
100
AcDbSymbolTableRecord
100
AcDbLayerTableRecord
  2
Mittelpunktmarkierung(DIN)
 70
     0
 62
     7
  6
Continuous
370
    25
390
F
347
21
  0
LAYER
  5
99
330
2
100
AcDbSymbolTableRecord
100
AcDbLayerTableRecord
  2
Schraffur
 70
     0
 62
     7
  6
Continuous
370
     9
390
F
347
21
  0
LAYER
  5
9A
330
2
100
AcDbSymbolTableRecord
100
AcDbLayerTableRecord
  2
Schraffur (ISO)
 70
     0
 62
     7
  6
Continuous
370
    18
390
F
347
21
  0
LAYER
  5
9D
330
2
100
AcDbSymbolTableRecord
100
AcDbLayerTableRecord
  2
Sichtbare Kanten(DIN)
 70
     0
 62
     7
  6
Continuous
370
    50
390
F
347
21
  0
LAYER
  5
9E
330
2
100
AcDbSymbolTableRecord
100
AcDbLayerTableRecord
  2
Sichtbare tangentiale Kanten(DIN)
 70
     0
 62
     7
  6
Continuous
370
    50
390
F
347
21
  0
LAYER
  5
A0
330
2
100
AcDbSymbolTableRecord
100
AcDbLayerTableRecord
  2
Skizziergeometrie(DIN)
 70
     0
 62
     7
  6
Continuous
370
    50
390
F
347
21
  0
LAYER
  5
A5
330
2
100
AcDbSymbolTableRecord
100
AcDbLayerTableRecord
  2
Symbole(DIN)
 70
     0
 62
     7
  6
Continuous
370
    25
390
F
347
21
  0
LAYER
  5
A8
330
2
100
AcDbSymbolTableRecord
100
AcDbLayerTableRecord
  2
Titel (ISO)
 70
     0
 62
     7
  6
Continuous
370
    50
390
F
347
21
  0
LAYER
  5
AD
330
2
100
AcDbSymbolTableRecord
100
AcDbLayerTableRecord
  2
Verdeckte Kanten(DIN)
 70
     0
 62
     7
  6
Continuous
370
    35
390
F
347
21
  0
LAYER
  5
264
330
2
100
AcDbSymbolTableRecord
100
AcDbLayerTableRecord
  2
Defpoints
 70
     0
 62
     7
  6
Continuous
290
     0
370
    -3
390
F
347
21
  0
ENDTAB
  0
TABLE
  2
STYLE
  5
3
330
0
100
AcDbSymbolTable
 70
    16
  0
STYLE
  5
55
330
3
100
AcDbSymbolTableRecord
100
AcDbTextStyleTableRecord
  2
Standard
 70
     0
 40
0.0
 41
1.0
 50
0.0
 71
     0
 42
0.2
  3
ISOCP.shx
  4

  0
STYLE
  5
5A
330
3
100
AcDbSymbolTableRecord
100
AcDbTextStyleTableRecord
  2
Annotative
 70
     0
 40
0.0
 41
1.0
 50
0.0
 71
     0
 42
0.2
  3
txt
  4

1001
AcadAnnotative
1000
AnnotativeData
1002
{
1070
     1
1070
     1
1002
}
  0
STYLE
  5
AF
330
3
100
AcDbSymbolTableRecord
100
AcDbTextStyleTableRecord
  2
_Schriftfeld_2.5mm
 70
     0
 40
0.0
 41
1.0
 50
0.0
 71
     0
 42
0.2
  3
arial.ttf
  4

1001
ACAD
1000
Arial
1071
      256
  0
STYLE
  5
B0
330
3
100
AcDbSymbolTableRecord
100
AcDbTextStyleTableRecord
  2
_Schriftfeld_2mm
 70
     0
 40
0.0
 41
1.0
 50
0.0
 71
     0
 42
0.2
  3
arial.ttf
  4

1001
ACAD
1000
Arial
1071
      256
  0
STYLE
  5
B1
330
3
100
AcDbSymbolTableRecord
100
AcDbTextStyleTableRecord
  2
_Schriftfeld_3.5mm
 70
     0
 40
0.0
 41
1.0
 50
0.0
 71
     0
 42
0.2
  3
arial.ttf
  4

1001
ACAD
1000
Arial
1071
      256
  0
STYLE
  5
B2
330
3
100
AcDbSymbolTableRecord
100
AcDbTextStyleTableRecord
  2
_Schriftfeld_5mm
 70
     0
 40
0.0
 41
1.0
 50
0.0
 71
     0
 42
0.2
  3
arial.ttf
  4

1001
ACAD
1000
Arial
1071
      256
  0
STYLE
  5
B3
330
3
100
AcDbSymbolTableRecord
100
AcDbTextStyleTableRecord
  2
Aktuell-DIN
 70
     0
 40
0.0
 41
1.0
 50
0.0
 71
     0
 42
0.2
  3
arial.ttf
  4

1001
ACAD
1000
Arial
1071
      256
  0
STYLE
  5
B4
330
3
100
AcDbSymbolTableRecord
100
AcDbTextStyleTableRecord
  2
Bezeichnungstext (DIN)
 70
     0
 40
0.0
 41
1.0
 50
0.0
 71
     0
 42
0.2
  3
isocpeur.ttf
  4

1001
ACAD
1000
ISOCPEUR
1071
      256
  0
STYLE
  5
B5
330
3
100
AcDbSymbolTableRecord
100
AcDbTextStyleTableRecord
  2
Bezeichnungstext (ISO)
 70
     0
 40
0.0
 41
1.0
 50
0.0
 71
     0
 42
0.2
  3
tahoma.ttf
  4

1001
ACAD
1000
Tahoma
1071
      256
  0
STYLE
  5
B6
330
3
100
AcDbSymbolTableRecord
100
AcDbTextStyleTableRecord
  2
Notiztext (DIN)
 70
     0
 40
0.0
 41
1.0
 50
0.0
 71
     0
 42
0.2
  3
isocpeur.ttf
  4

1001
ACAD
1000
ISOCPEUR
1071
      256
  0
STYLE
  5
B7
330
3
100
AcDbSymbolTableRecord
100
AcDbTextStyleTableRecord
  2
Notiztext (ISO)
 70
     0
 40
0.0
 41
1.0
 50
0.0
 71
     0
 42
0.2
  3
tahoma.ttf
  4

1001
ACAD
1000
Tahoma
1071
      256
  0
STYLE
  5
B8
330
3
100
AcDbSymbolTableRecord
100
AcDbTextStyleTableRecord
  2
STANDARD-DIN
 70
     0
 40
0.0
 41
1.0
 50
0.0
 71
     0
 42
0.2
  3
arial.ttf
  4

1001
ACAD
1000
Arial
1071
      256
  0
STYLE
  5
B9
330
3
100
AcDbSymbolTableRecord
100
AcDbTextStyleTableRecord
  2
STANDARD-DIN~0
 70
     0
 40
0.0
 41
1.0
 50
0.0
 71
     0
 42
0.2
  3
arial.ttf
  4

1001
ACAD
1000
Arial
1071
      256
  0
STYLE
  5
BA
330
3
100
AcDbSymbolTableRecord
100
AcDbTextStyleTableRecord
  2
STANDARD-DINGroßer Text
 70
     0
 40
0.0
 41
1.0
 50
0.0
 71
     0
 42
0.2
  3
arial.ttf
  4

1001
ACAD
1000
Arial
1071
      256
  0
STYLE
  5
BB
330
3
100
AcDbSymbolTableRecord
100
AcDbTextStyleTableRecord
  2
STANDARD-DINNach Layer
 70
     0
 40
0.0
 41
1.0
 50
0.0
 71
     0
 42
0.2
  3
arial.ttf
  4

1001
ACAD
1000
Arial
1071
      256
  0
STYLE
  5
192
330
3
100
AcDbSymbolTableRecord
100
AcDbTextStyleTableRecord
  2
Textstil122
 70
     0
 40
0.0
 41
0.899999976158142
 50
0.0
 71
     0
 42
0.2
  3
ISOCP.shx
  4

  0
ENDTAB
  0
TABLE
  2
VIEW
  5
6
330
0
100
AcDbSymbolTable
 70
     0
  0
ENDTAB
  0
TABLE
  2
UCS
  5
7
330
0
100
AcDbSymbolTable
 70
     0
  0
ENDTAB
  0
TABLE
  2
APPID
  5
9
330
0
100
AcDbSymbolTable
 70
     4
  0
APPID
  5
56
330
9
100
AcDbSymbolTableRecord
100
AcDbRegAppTableRecord
  2
ACAD
 70
     0
  0
APPID
  5
5E
330
9
100
AcDbSymbolTableRecord
100
AcDbRegAppTableRecord
  2
AcadAnnotative
 70
     0
  0
APPID
  5
195
330
9
100
AcDbSymbolTableRecord
100
AcDbRegAppTableRecord
  2
AcadAnnoPO
 70
     0
  0
APPID
  5
BBE
330
9
100
AcDbSymbolTableRecord
100
AcDbRegAppTableRecord
  2
ACAD_MLEADERVER
 70
     0
  0
ENDTAB
  0
TABLE
  2
DIMSTYLE
  5
A
330
0
100
AcDbSymbolTable
 70
    22
100
AcDbDimStyleTable
 71
     2
340
BC
340
58
  0
DIMSTYLE
105
58
330
A
100
AcDbSymbolTableRecord
100
AcDbDimStyleTableRecord
  2
Standard
 70
     0
340
55
  0
DIMSTYLE
105
59
330
A
100
AcDbSymbolTableRecord
100
AcDbDimStyleTableRecord
  2
Annotative
 70
     0
340
55
1001
AcadAnnotative
1000
AnnotativeData
1002
{
1070
     1
1070
     1
1002
}
  0
DIMSTYLE
105
BC
102
{ACAD_REACTORS
330
263
330
346
330
428
330
50A
330
5F5
330
6E1
330
7C3
330
8AF
330
9A1
330
A8C
102
}
330
A
100
AcDbSymbolTableRecord
100
AcDbDimStyleTableRecord
  2
STANDARD-DIN - Methode 2b
 70
     0
 40
2.0
 41
2.5
 42
0.0
 43
12.0
 44
3.174999999999998
 45
0.00000001
 46
12.0
 73
     0
 74
     0
 77
     1
 78
     8
 79
     2
140
3.5
143
0.03937
146
0.7142857313156128
147
0.8
171
     3
172
     1
176
   250
177
   250
178
   250
271
     2
272
     2
274
     3
284
     8
285
     8
340
B9
371
    25
372
    25
  0
DIMSTYLE
105
BD
330
A
100
AcDbSymbolTableRecord
100
AcDbDimStyleTableRecord
  2
STANDARD-DIN - Methode 2b$7
 70
     0
 40
2.0
 41
2.5
 42
0.0
 43
12.0
 44
3.174999999999998
 45
0.00000001
 46
12.0
 73
     0
 74
     0
 77
     1
 78
     8
 79
     2
140
3.5
143
0.03937
146
0.7142857313156128
147
0.8
171
     3
172
     1
176
   179
177
   250
178
   250
271
     2
272
     2
274
     3
284
     8
285
     8
340
B9
371
    25
372
    25
  0
DIMSTYLE
105
BE
330
A
100
AcDbSymbolTableRecord
100
AcDbDimStyleTableRecord
  2
Standard - Methode 1b (ISO)
 70
     0
 40
2.0
 41
2.5
 42
0.0
 43
5.999999999999999
 44
3.174999999999998
 45
0.00000001
 46
10.0
 73
     0
 77
     1
 78
     8
 79
     2
140
3.5
143
0.03937
147
0.762
171
     3
172
     1
176
   256
177
   256
178
   256
179
     2
271
     2
272
     2
274
     3
278
    44
284
     8
286
     8
340
B7
371
    -1
372
    -1
  0
DIMSTYLE
105
BF
330
A
100
AcDbSymbolTableRecord
100
AcDbDimStyleTableRecord
  2
Standard - Methode 1b (ISO)$7
 70
     0
 40
2.0
 41
2.5
 42
0.0
 43
5.999999999999999
 44
3.174999999999998
 45
0.00000001
 46
10.0
 73
     0
 77
     1
 78
     8
 79
     2
140
3.5
143
0.03937
147
0.762
171
     3
172
     1
176
   256
177
   256
178
   256
179
     2
271
     2
272
     2
274
     3
278
    44
284
     8
286
     8
340
B7
371
    -1
372
    -1
  0
DIMSTYLE
105
C0
330
A
100
AcDbSymbolTableRecord
100
AcDbDimStyleTableRecord
  2
Standard - Methode 2a (DIN)
 70
     0
 40
2.0
 41
2.5
 42
0.8
 43
5.999999999999999
 44
3.174999999999998
 45
0.00000001
 46
10.0
 77
     1
 78
     8
 79
     2
140
3.5
143
0.03937
147
0.8
170
     1
171
     3
172
     1
176
   256
177
   256
178
   256
179
     2
271
     2
272
     2
274
     3
278
    44
284
     8
286
     8
340
B6
371
    -1
372
    -1
  0
DIMSTYLE
105
C1
330
A
100
AcDbSymbolTableRecord
100
AcDbDimStyleTableRecord
  2
Standard - Methode 2a (DIN)$7
 70
     0
 40
2.0
 41
2.5
 42
0.8
 43
5.999999999999999
 44
3.174999999999998
 45
0.00000001
 46
10.0
 77
     1
 78
     8
 79
     2
140
3.5
143
0.03937
147
0.8
170
     1
171
     3
172
     1
176
   256
177
   256
178
   256
179
     2
271
     2
272
     2
274
     3
278
    44
284
     8
286
     8
340
B6
371
    -1
372
    -1
  0
DIMSTYLE
105
C2
330
A
100
AcDbSymbolTableRecord
100
AcDbDimStyleTableRecord
  2
Standard - Methode 2b (DIN)
 70
     0
 40
2.0
 41
2.5
 42
0.0
 43
5.999999999999999
 44
3.174999999999998
 45
0.00000001
 46
10.0
 77
     1
 78
     8
 79
     2
140
3.5
143
0.03937
147
0.8
171
     3
172
     1
176
   256
177
   256
178
   256
271
     2
272
     2
274
     3
278
    44
284
     8
286
     8
340
B6
371
    -1
372
    -1
  0
DIMSTYLE
105
C3
330
A
100
AcDbSymbolTableRecord
100
AcDbDimStyleTableRecord
  2
Standard - Methode 2b (DIN)$7
 70
     0
 40
2.0
 41
2.5
 42
0.0
 43
5.999999999999999
 44
3.174999999999998
 45
0.00000001
 46
10.0
 77
     1
 78
     8
 79
     2
140
3.5
143
0.03937
147
0.8
171
     3
172
     1
176
   256
177
   256
178
   256
271
     2
272
     2
274
     3
278
    44
284
     8
286
     8
340
B6
371
    -1
372
    -1
  0
DIMSTYLE
105
C4
330
A
100
AcDbSymbolTableRecord
100
AcDbDimStyleTableRecord
  2
Standard (DIN)
 70
     0
 40
2.0
 41
2.5
 42
0.8
 43
5.999999999999999
 44
3.174999999999998
 45
0.00000001
 46
10.0
 73
     0
 74
     0
 77
     1
 78
     8
 79
     2
140
3.5
143
0.03937
147
0.8
171
     3
172
     1
176
   256
177
   256
178
   256
271
     2
272
     2
274
     3
278
    44
284
     8
340
B6
371
    -1
372
    -1
  0
DIMSTYLE
105
C5
330
A
100
AcDbSymbolTableRecord
100
AcDbDimStyleTableRecord
  2
Standard (DIN)$7
 70
     0
 40
2.0
 41
2.5
 42
0.8
 43
5.999999999999999
 44
3.174999999999998
 45
0.00000001
 46
10.0
 73
     0
 74
     0
 77
     1
 78
     8
 79
     2
140
3.5
143
0.03937
147
0.8
171
     3
172
     1
176
   256
177
   256
178
   256
271
     2
272
     2
274
     3
278
    44
284
     8
340
B6
371
    -1
372
    -1
  0
DIMSTYLE
105
C6
330
A
100
AcDbSymbolTableRecord
100
AcDbDimStyleTableRecord
  2
Standard (ISO)
 70
     0
 40
2.0
 41
2.5
 42
0.0
 43
5.999999999999999
 44
3.174999999999998
 45
0.00000001
 46
10.0
 73
     0
 74
     0
 77
     1
140
3.5
143
0.03937
146
1.00148570537567
147
0.762
171
     3
172
     1
176
   256
177
   256
178
   256
179
     2
271
     2
272
     2
274
     3
278
    44
340
B7
371
    -1
372
    -1
  0
DIMSTYLE
105
C7
330
A
100
AcDbSymbolTableRecord
100
AcDbDimStyleTableRecord
  2
Standard (ISO)$7
 70
     0
 40
2.0
 41
2.5
 42
0.0
 43
5.999999999999999
 44
3.174999999999998
 45
0.00000001
 46
10.0
 73
     0
 74
     0
 77
     1
140
3.5
143
0.03937
146
1.00148570537567
147
0.762
171
     3
172
     1
176
   256
177
   256
178
   256
179
     2
271
     2
272
     2
274
     3
278
    44
340
B7
371
    -1
372
    -1
  0
DIMSTYLE
105
C8
330
A
100
AcDbSymbolTableRecord
100
AcDbDimStyleTableRecord
  2
Alternativ (ISO)
 70
     0
 40
2.0
 41
2.5
340
55
342
C9
  0
DIMSTYLE
105
DB
330
A
100
AcDbSymbolTableRecord
100
AcDbDimStyleTableRecord
  2
Bezug (ISO)
 70
     0
 40
2.0
 41
2.5
340
55
342
C9
  0
DIMSTYLE
105
DC
330
A
100
AcDbSymbolTableRecord
100
AcDbDimStyleTableRecord
  2
Führungslinie-Ursprungsindikator(DIN)
 70
     0
 40
2.0
 41
2.5
340
55
342
C9
  0
DIMSTYLE
105
DD
330
A
100
AcDbSymbolTableRecord
100
AcDbDimStyleTableRecord
  2
Führungslinie - Bezugsstelle(DIN)
 70
     0
 40
2.0
 41
2.5
340
55
342
C9
  0
DIMSTYLE
105
DE
330
A
100
AcDbSymbolTableRecord
100
AcDbDimStyleTableRecord
  2
Führungslinie - groß(DIN)
 70
     0
 40
2.0
 41
5.0
340
55
342
C9
  0
DIMSTYLE
105
DF
330
A
100
AcDbSymbolTableRecord
100
AcDbDimStyleTableRecord
  2
Führungslinie - Punkt(DIN)
 70
     0
 40
2.0
 41
2.5
340
55
342
C9
  0
DIMSTYLE
105
E0
330
A
100
AcDbSymbolTableRecord
100
AcDbDimStyleTableRecord
  2
Führungslinie(DIN)
 70
     0
 40
2.0
 41
2.5
340
55
342
C9
  0
DIMSTYLE
105
EF
330
A
100
AcDbSymbolTableRecord
100
AcDbDimStyleTableRecord
  2
Groß (ISO)
 70
     0
 40
2.0
 41
5.0
340
55
342
C9
  0
ENDTAB
  0
TABLE
  2
BLOCK_RECORD
  5
1
330
0
100
AcDbSymbolTable
 70
    27
  0
BLOCK_RECORD
  5
6C
330
1
100
AcDbSymbolTableRecord
100
AcDbBlockTableRecord
  2
*Model_Space
340
6F
 70
     0
280
     1
281
     0
  0
BLOCK_RECORD
  5
68
330
1
100
AcDbSymbolTableRecord
100
AcDbBlockTableRecord
  2
*Paper_Space
340
6B
 70
     0
280
     1
281
     0
  0
BLOCK_RECORD
  5
70
330
1
100
AcDbSymbolTableRecord
100
AcDbBlockTableRecord
  2
*Paper_Space0
340
73
 70
     0
280
     1
281
     0
  0
BLOCK_RECORD
  5
C9
330
1
100
AcDbSymbolTableRecord
100
AcDbBlockTableRecord
  2
_Closed
340
0
 70
     0
280
     1
281
     0
  0
BLOCK_RECORD
  5
D0
330
1
100
AcDbSymbolTableRecord
100
AcDbBlockTableRecord
  2
DatumFilled45
340
0
 70
     0
280
     1
281
     0
  0
BLOCK_RECORD
  5
E1
330
1
100
AcDbSymbolTableRecord
100
AcDbBlockTableRecord
  2
Filled-1
340
0
 70
     0
280
     1
281
     0
  0
BLOCK_RECORD
  5
F0
330
1
100
AcDbSymbolTableRecord
100
AcDbBlockTableRecord
  2
Carbonitrieren
340
0
 70
     0
280
     1
281
     0
  0
BLOCK_RECORD
  5
F5
330
1
100
AcDbSymbolTableRecord
100
AcDbBlockTableRecord
  2
Federangaben
340
0
 70
     0
280
     1
281
     0
  0
BLOCK_RECORD
  5
F9
330
1
100
AcDbSymbolTableRecord
100
AcDbBlockTableRecord
  2
Nassschliff
340
0
 70
     0
280
     1
281
     0
  0
BLOCK_RECORD
  5
FD
330
1
100
AcDbSymbolTableRecord
100
AcDbBlockTableRecord
  2
Schleiffrichtung horizontal
340
0
 70
     0
280
     1
281
     0
  0
BLOCK_RECORD
  5
110
330
1
100
AcDbSymbolTableRecord
100
AcDbBlockTableRecord
  2
Schleiffrichtung vertikal
340
0
 70
     0
280
     1
281
     0
  0
BLOCK_RECORD
  5
123
330
1
100
AcDbSymbolTableRecord
100
AcDbBlockTableRecord
  2
Stanz-_Laserteil
340
0
 70
     0
280
     1
281
     0
  0
BLOCK_RECORD
  5
127
330
1
100
AcDbSymbolTableRecord
100
AcDbBlockTableRecord
  2
Stanzrundung_1
340
0
 70
     0
280
     1
281
     0
  0
BLOCK_RECORD
  5
12D
330
1
100
AcDbSymbolTableRecord
100
AcDbBlockTableRecord
  2
Stanzrundung_2
340
0
 70
     0
280
     1
281
     0
  0
BLOCK_RECORD
  5
133
330
1
100
AcDbSymbolTableRecord
100
AcDbBlockTableRecord
  2
Verzinkt
340
0
 70
     0
280
     1
281
     0
  0
BLOCK_RECORD
  5
137
330
1
100
AcDbSymbolTableRecord
100
AcDbBlockTableRecord
  2
Vierkant-Tabelle
340
0
 70
     0
280
     1
281
     0
  0
BLOCK_RECORD
  5
162
330
1
100
AcDbSymbolTableRecord
100
AcDbBlockTableRecord
  2
Laserpunkt_Text
340
0
 70
     0
280
     1
281
     0
  0
BLOCK_RECORD
  5
169
330
1
100
AcDbSymbolTableRecord
100
AcDbBlockTableRecord
  2
Laserpunkt
340
0
 70
     0
280
     1
281
     0
  0
BLOCK_RECORD
  5
16F
330
1
100
AcDbSymbolTableRecord
100
AcDbBlockTableRecord
  2
Kantenbruch
340
0
 70
     0
280
     1
281
     0
  0
BLOCK_RECORD
  5
265
330
1
100
AcDbSymbolTableRecord
100
AcDbBlockTableRecord
  2
*D17
340
0
 70
     0
280
     1
281
     0
  0
BLOCK_RECORD
  5
347
330
1
100
AcDbSymbolTableRecord
100
AcDbBlockTableRecord
  2
*D18
340
0
 70
     0
280
     1
281
     0
  0
BLOCK_RECORD
  5
429
330
1
100
AcDbSymbolTableRecord
100
AcDbBlockTableRecord
  2
*D19
340
0
 70
     0
280
     1
281
     0
  0
BLOCK_RECORD
  5
50B
330
1
100
AcDbSymbolTableRecord
100
AcDbBlockTableRecord
  2
*D20
340
0
 70
     0
280
     1
281
     0
  0
BLOCK_RECORD
  5
5F6
330
1
100
AcDbSymbolTableRecord
100
AcDbBlockTableRecord
  2
*D21
340
0
 70
     0
280
     1
281
     0
  0
BLOCK_RECORD
  5
6E2
330
1
100
AcDbSymbolTableRecord
100
AcDbBlockTableRecord
  2
*D22
340
0
 70
     0
280
     1
281
     0
  0
BLOCK_RECORD
  5
7C4
330
1
100
AcDbSymbolTableRecord
100
AcDbBlockTableRecord
  2
*D23
340
0
 70
     0
280
     1
281
     0
  0
BLOCK_RECORD
  5
8B0
330
1
100
AcDbSymbolTableRecord
100
AcDbBlockTableRecord
  2
*D24
340
0
 70
     0
280
     1
281
     0
  0
BLOCK_RECORD
  5
9A2
330
1
100
AcDbSymbolTableRecord
100
AcDbBlockTableRecord
  2
*D25
340
0
 70
     0
280
     1
281
     0
  0
BLOCK_RECORD
  5
A8D
330
1
100
AcDbSymbolTableRecord
100
AcDbBlockTableRecord
  2
*D26
340
0
 70
     0
280
     1
281
     0
  0
ENDTAB
  0
ENDSEC
  0
SECTION
  2
BLOCKS
  0
BLOCK
  5
6D
330
6C
100
AcDbEntity
  8
0
100
AcDbBlockBegin
  2
*Model_Space
 70
     0
 10
0.0
 20
0.0
 30
0.0
  3
*Model_Space
  1

  0
ENDBLK
  5
6E
330
6C
100
AcDbEntity
  8
0
100
AcDbBlockEnd
  0
BLOCK
  5
69
330
68
100
AcDbEntity
 67
     1
  8
0
100
AcDbBlockBegin
  2
*Paper_Space
 70
     0
 10
0.0
 20
0.0
 30
0.0
  3
*Paper_Space
  1

  0
ENDBLK
  5
6A
330
68
100
AcDbEntity
 67
     1
  8
0
100
AcDbBlockEnd
  0
BLOCK
  5
71
330
70
100
AcDbEntity
 67
     1
  8
0
100
AcDbBlockBegin
  2
*Paper_Space0
 70
     0
 10
0.0
 20
0.0
 30
0.0
  3
*Paper_Space0
  1

  0
ENDBLK
  5
72
330
70
100
AcDbEntity
 67
     1
  8
0
100
AcDbBlockEnd
  0
BLOCK
  5
CE
330
C9
100
AcDbEntity
  8
0
100
AcDbBlockBegin
  2
_Closed
 70
     0
 10
0.0
 20
0.0
 30
0.0
  3
_Closed
  1

  0
LINE
  5
CA
330
C9
100
AcDbEntity
  8
0
  6
ByBlock
 62
     0
370
    -2
100
AcDbLine
 10
-1.0
 20
0.1666666666666666
 30
0.0
 11
0.0
 21
0.0
 31
0.0
  0
LINE
  5
CB
330
C9
100
AcDbEntity
  8
0
  6
ByBlock
 62
     0
370
    -2
100
AcDbLine
 10
0.0
 20
0.0
 30
0.0
 11
-1.0
 21
-0.1666666666666666
 31
0.0
  0
LINE
  5
CC
330
C9
100
AcDbEntity
  8
0
  6
ByBlock
 62
     0
370
    -2
100
AcDbLine
 10
-1.0
 20
0.1666666666666666
 30
0.0
 11
-1.0
 21
-0.1666666666666666
 31
0.0
  0
LINE
  5
CD
330
C9
100
AcDbEntity
  8
0
  6
ByBlock
 62
     0
370
    -2
100
AcDbLine
 10
0.0
 20
0.0
 30
0.0
 11
-1.0
 21
0.0
 31
0.0
  0
ENDBLK
  5
CF
330
C9
100
AcDbEntity
  8
0
100
AcDbBlockEnd
  0
BLOCK
  5
D1
330
D0
100
AcDbEntity
  8
0
100
AcDbBlockBegin
  2
DatumFilled45
 70
     0
 10
0.0
 20
0.0
 30
0.0
  3
DatumFilled45
  1

  0
POLYLINE
  5
D3
330
D0
100
AcDbEntity
  8
0
 62
     0
100
AcDb2dPolyline
 66
     1
 10
0.0
 20
0.0
 30
0.0
 70
   128
  0
VERTEX
  5
D4
330
D3
100
AcDbEntity
  8
0
 62
     0
100
AcDbVertex
100
AcDb2dVertex
 10
0.0
 20
1.0
 30
0.0
  0
VERTEX
  5
D5
330
D3
100
AcDbEntity
  8
0
 62
     0
100
AcDbVertex
100
AcDb2dVertex
 10
0.0
 20
-1.0
 30
0.0
  0
VERTEX
  5
D7
330
D3
100
AcDbEntity
  8
0
 62
     0
100
AcDbVertex
100
AcDb2dVertex
 10
-1.0
 20
0.0
 30
0.0
  0
VERTEX
  5
D8
330
D3
100
AcDbEntity
  8
0
 62
     0
100
AcDbVertex
100
AcDb2dVertex
 10
0.0
 20
1.0
 30
0.0
  0
SEQEND
  5
D6
330
D3
100
AcDbEntity
  8
0
 62
     0
  0
SOLID
  5
DA
330
D0
100
AcDbEntity
  8
0
 62
     0
100
AcDbTrace
 10
0.0
 20
1.0
 30
0.0
 11
0.0
 21
-1.0
 31
0.0
 12
-1.0
 22
0.0
 32
0.0
 13
0.0
 23
1.0
 33
0.0
  0
ENDBLK
  5
D2
330
D0
100
AcDbEntity
  8
0
100
AcDbBlockEnd
  0
BLOCK
  5
E2
330
E1
100
AcDbEntity
  8
0
100
AcDbBlockBegin
  2
Filled-1
 70
     0
 10
0.0
 20
0.0
 30
0.0
  3
Filled-1
  1

  0
LINE
  5
E4
330
E1
100
AcDbEntity
  8
0
 62
     0
100
AcDbLine
 10
-1.0
 20
0.0
 30
0.0
 11
0.0
 21
0.0
 31
0.0
  0
POLYLINE
  5
E5
330
E1
100
AcDbEntity
  8
0
 62
     0
100
AcDb2dPolyline
 66
     1
 10
0.0
 20
0.0
 30
0.0
 70
   128
  0
VERTEX
  5
E6
330
E5
100
AcDbEntity
  8
0
 62
     0
100
AcDbVertex
100
AcDb2dVertex
 10
-1.0
 20
-0.1
 30
0.0
  0
VERTEX
  5
E7
330
E5
100
AcDbEntity
  8
0
 62
     0
100
AcDbVertex
100
AcDb2dVertex
 10
0.0
 20
0.0
 30
0.0
  0
VERTEX
  5
E9
330
E5
100
AcDbEntity
  8
0
 62
     0
100
AcDbVertex
100
AcDb2dVertex
 10
-1.0
 20
0.1
 30
0.0
  0
VERTEX
  5
EA
330
E5
100
AcDbEntity
  8
0
 62
     0
100
AcDbVertex
100
AcDb2dVertex
 10
-1.0
 20
-0.1
 30
0.0
  0
SEQEND
  5
E8
330
E5
100
AcDbEntity
  8
0
 62
     0
  0
SOLID
  5
EB
330
E1
100
AcDbEntity
  8
0
 62
     0
100
AcDbTrace
 10
-1.0
 20
-0.1
 30
0.0
 11
0.0
 21
0.0
 31
0.0
 12
-1.0
 22
0.1
 32
0.0
 13
-1.0
 23
-0.1
 33
0.0
  0
LINE
  5
EC
330
E1
100
AcDbEntity
  8
0
 62
     0
100
AcDbLine
 10
-1.0
 20
-0.1
 30
0.0
 11
0.0
 21
0.0
 31
0.0
  0
LINE
  5
ED
330
E1
100
AcDbEntity
  8
0
 62
     0
100
AcDbLine
 10
0.0
 20
0.0
 30
0.0
 11
-1.0
 21
0.1
 31
0.0
  0
LINE
  5
EE
330
E1
100
AcDbEntity
  8
0
 62
     0
100
AcDbLine
 10
-1.0
 20
0.1
 30
0.0
 11
-1.0
 21
-0.1
 31
0.0
  0
ENDBLK
  5
E3
330
E1
100
AcDbEntity
  8
0
100
AcDbBlockEnd
  0
BLOCK
  5
F1
330
F0
100
AcDbEntity
  8
0
100
AcDbBlockBegin
  2
Carbonitrieren
 70
     0
 10
0.0
 20
0.0
 30
0.0
  3
Carbonitrieren
  1

  0
MTEXT
  5
F3
330
F0
100
AcDbEntity
  8
Titel (ISO)
100
AcDbMText
 10
-75.71151256561281
 20
15.48921793699264
 30
0.0
 40
3.499999940395355
 41
147.2330421884934
 46
0.0
 71
     1
 72
     1
  3
- Carbonitriert: 0.3 ±0.1 tief;HV 500...600 (Prüfkraft DIN 50133)\P- elektrolytisch verkupfert 1-2µ, el. vernickelt 8-10µ\fArial|b0|i0;\H3.3000;\P\fArial|b0|i0;\H3.5000;- Entspröden: glühen 190-210°C, ca 3h innerhalb 4h nach Veredelung\P \P-TriboCoat
  1
ing TC D1050, 4...8µ\P 
  7
_Schriftfeld_3.5mm
 73
     2
 44
0.9442214965820312
  0
ENDBLK
  5
F2
330
F0
100
AcDbEntity
  8
0
100
AcDbBlockEnd
  0
BLOCK
  5
F6
330
F5
100
AcDbEntity
  8
0
100
AcDbBlockBegin
  2
Federangaben
 70
     0
 10
0.0
 20
0.0
 30
0.0
  3
Federangaben
  1

  0
MTEXT
  5
F8
330
F5
100
AcDbEntity
  8
Titel (ISO)
100
AcDbMText
 10
-23.02877426147463
 20
32.04377174377441
 30
0.0
 40
3.499999940395355
 41
201.4264025634256
 46
0.0
 71
     1
 72
     1
  1
getrommelt\Pzunderfrei\Pohne Druckstellen\Pund Sicken\P \PEinfederung ...°\PMd ... Nmm\PSb ... N/mm2\P \PWindungszahl ...\P50 HRc +/- 2 eingeölt\P 
  7
_Schriftfeld_3.5mm
 73
     2
 44
0.9442216157913208
  0
ENDBLK
  5
F7
330
F5
100
AcDbEntity
  8
0
100
AcDbBlockEnd
  0
BLOCK
  5
FA
330
F9
100
AcDbEntity
  8
0
100
AcDbBlockBegin
  2
Nassschliff
 70
     0
 10
0.0
 20
0.0
 30
0.0
  3
Nassschliff
  1

  0
MTEXT
  5
FC
330
F9
100
AcDbEntity
  8
Titel (ISO)
100
AcDbMText
 10
-59.37195301055908
 20
2.29287352412939
 30
0.0
 40
3.499999940395355
 41
0.0
 46
0.0
 71
     1
 72
     1
  1
Verfahren IV: Nassschliff, Korn 220-240, Folie einseitig
  7
_Schriftfeld_3.5mm
 73
     1
 44
1.0
  0
ENDBLK
  5
FB
330
F9
100
AcDbEntity
  8
0
100
AcDbBlockEnd
  0
BLOCK
  5
FE
330
FD
100
AcDbEntity
  8
0
100
AcDbBlockBegin
  2
Schleiffrichtung horizontal
 70
     0
 10
0.0
 20
0.0
 30
0.0
  3
Schleiffrichtung horizontal
  1

  0
HATCH
  5
103
330
FD
100
AcDbEntity
  8
Schraffur (ISO)
100
AcDbHatch
 10
0.0
 20
0.0
 30
0.0
210
0.0
220
0.0
230
1.0
  2
SOLID
 70
     1
 71
     0
 91
        1
 92
        1
 93
        3
 72
     1
 10
-20.0
 20
0.0
 11
-17.50000000000001
 21
-0.4999999999999895
 72
     1
 10
-17.50000000000001
 20
-0.4999999999999895
 11
-17.50000000000001
 21
0.5000000000000071
 72
     1
 10
-17.50000000000001
 20
0.5000000000000071
 11
-20.0
 21
0.0
 97
        0
 75
     0
 76
     1
 98
        1
 10
0.0
 20
0.0
450
        0
451
        0
460
0.0
461
0.0
452
        0
462
0.0
453
        0
470

  0
HATCH
  5
107
330
FD
100
AcDbEntity
  8
Schraffur (ISO)
100
AcDbHatch
 10
0.0
 20
0.0
 30
0.0
210
0.0
220
0.0
230
1.0
  2
SOLID
 70
     1
 71
     0
 91
        1
 92
        1
 93
        3
 72
     1
 10
19.99999999999998
 20
0.0
 11
17.5
 21
0.5000000000000071
 72
     1
 10
17.5
 20
0.5000000000000071
 11
17.49999999999998
 21
-0.4999999999999894
 72
     1
 10
17.49999999999998
 20
-0.4999999999999895
 11
19.99999999999998
 21
0.0
 97
        0
 75
     0
 76
     1
 98
        1
 10
0.0
 20
0.0
450
        0
451
        0
460
0.0
461
0.0
452
        0
462
0.0
453
        0
470

  0
LINE
  5
108
330
FD
100
AcDbEntity
  8
Titel (ISO)
370
    25
100
AcDbLine
 10
-20.0
 20
0.0
 30
0.0
 11
19.99999999999998
 21
0.0
 31
0.0
  0
LINE
  5
109
330
FD
100
AcDbEntity
  8
Titel (ISO)
100
AcDbLine
 10
19.99999999999998
 20
0.0
 30
0.0
 11
17.5
 21
0.5000000000000071
 31
0.0
  0
LINE
  5
10A
330
FD
100
AcDbEntity
  8
Titel (ISO)
100
AcDbLine
 10
17.5
 20
0.5000000000000071
 30
0.0
 11
17.49999999999998
 21
-0.4999999999999895
 31
0.0
  0
LINE
  5
10B
330
FD
100
AcDbEntity
  8
Titel (ISO)
100
AcDbLine
 10
17.49999999999998
 20
-0.4999999999999895
 30
0.0
 11
19.99999999999998
 21
0.0
 31
0.0
  0
LINE
  5
10C
330
FD
100
AcDbEntity
  8
Titel (ISO)
100
AcDbLine
 10
-17.50000000000001
 20
0.5000000000000071
 30
0.0
 11
-20.0
 21
0.0
 31
0.0
  0
LINE
  5
10D
330
FD
100
AcDbEntity
  8
Titel (ISO)
100
AcDbLine
 10
-20.0
 20
0.0
 30
0.0
 11
-17.50000000000001
 21
-0.4999999999999895
 31
0.0
  0
LINE
  5
10E
330
FD
100
AcDbEntity
  8
Titel (ISO)
100
AcDbLine
 10
-17.50000000000001
 20
-0.4999999999999895
 30
0.0
 11
-17.50000000000001
 21
0.5000000000000071
 31
0.0
  0
MTEXT
  5
10F
330
FD
100
AcDbEntity
  8
Titel (ISO)
100
AcDbMText
 10
-15.50000000000001
 20
5.0
 30
0.0
 40
3.499999940395355
 41
0.0
 46
0.0
 71
     1
 72
     1
  1
Schliffrichtung
  7
_Schriftfeld_3.5mm
 73
     1
 44
1.0
  0
ENDBLK
  5
FF
330
FD
100
AcDbEntity
  8
0
100
AcDbBlockEnd
  0
BLOCK
  5
111
330
110
100
AcDbEntity
  8
0
100
AcDbBlockBegin
  2
Schleiffrichtung vertikal
 70
     0
 10
0.0
 20
0.0
 30
0.0
  3
Schleiffrichtung vertikal
  1

  0
HATCH
  5
116
330
110
100
AcDbEntity
  8
Schraffur (ISO)
100
AcDbHatch
 10
0.0
 20
0.0
 30
0.0
210
0.0
220
0.0
230
1.0
  2
SOLID
 70
     1
 71
     0
 91
        1
 92
        1
 93
        3
 72
     1
 10
0.0
 20
-20.0
 11
0.4999999999999984
 21
-17.5
 72
     1
 10
0.4999999999999984
 20
-17.5
 11
-0.4999999999999984
 21
-17.5
 72
     1
 10
-0.4999999999999984
 20
-17.5
 11
0.0
 21
-20.0
 97
        0
 75
     0
 76
     1
 98
        1
 10
0.0
 20
0.0
450
        0
451
        0
460
0.0
461
0.0
452
        0
462
0.0
453
        0
470

  0
HATCH
  5
11A
330
110
100
AcDbEntity
  8
Schraffur (ISO)
100
AcDbHatch
 10
0.0
 20
0.0
 30
0.0
210
0.0
220
0.0
230
1.0
  2
SOLID
 70
     1
 71
     0
 91
        1
 92
        1
 93
        3
 72
     1
 10
0.0
 20
20.0
 11
-0.5000000000000071
 21
17.5
 72
     1
 10
-0.5000000000000071
 20
17.5
 11
0.4999999999999983
 21
17.5
 72
     1
 10
0.4999999999999984
 20
17.5
 11
0.0
 21
20.0
 97
        0
 75
     0
 76
     1
 98
        1
 10
0.0
 20
0.0
450
        0
451
        0
460
0.0
461
0.0
452
        0
462
0.0
453
        0
470

  0
LINE
  5
11B
330
110
100
AcDbEntity
  8
Titel (ISO)
370
    25
100
AcDbLine
 10
0.0
 20
-20.0
 30
0.0
 11
0.0
 21
20.0
 31
0.0
  0
LINE
  5
11C
330
110
100
AcDbEntity
  8
Titel (ISO)
100
AcDbLine
 10
0.0
 20
20.0
 30
0.0
 11
-0.5000000000000071
 21
17.5
 31
0.0
  0
LINE
  5
11D
330
110
100
AcDbEntity
  8
Titel (ISO)
100
AcDbLine
 10
-0.5000000000000071
 20
17.5
 30
0.0
 11
0.4999999999999984
 21
17.5
 31
0.0
  0
LINE
  5
11E
330
110
100
AcDbEntity
  8
Titel (ISO)
100
AcDbLine
 10
0.4999999999999984
 20
17.5
 30
0.0
 11
0.0
 21
20.0
 31
0.0
  0
LINE
  5
11F
330
110
100
AcDbEntity
  8
Titel (ISO)
100
AcDbLine
 10
-0.4999999999999984
 20
-17.5
 30
0.0
 11
0.0
 21
-20.0
 31
0.0
  0
LINE
  5
120
330
110
100
AcDbEntity
  8
Titel (ISO)
100
AcDbLine
 10
0.0
 20
-20.0
 30
0.0
 11
0.4999999999999984
 21
-17.5
 31
0.0
  0
LINE
  5
121
330
110
100
AcDbEntity
  8
Titel (ISO)
100
AcDbLine
 10
0.4999999999999984
 20
-17.5
 30
0.0
 11
-0.4999999999999984
 21
-17.5
 31
0.0
  0
MTEXT
  5
122
330
110
100
AcDbEntity
  8
Titel (ISO)
100
AcDbMText
 10
-5.0
 20
-15.5
 30
0.0
 40
3.499999940395355
 41
0.0
 46
0.0
 71
     1
 72
     1
  1
Schliffrichtung
  7
_Schriftfeld_3.5mm
 11
0.0000000000000001
 21
1.0
 31
0.0
 73
     1
 44
1.0
  0
ENDBLK
  5
112
330
110
100
AcDbEntity
  8
0
100
AcDbBlockEnd
  0
BLOCK
  5
124
330
123
100
AcDbEntity
  8
0
100
AcDbBlockBegin
  2
Stanz-_Laserteil
 70
     0
 10
0.0
 20
0.0
 30
0.0
  3
Stanz-_Laserteil
  1

  0
MTEXT
  5
126
330
123
100
AcDbEntity
  8
Titel (ISO)
100
AcDbMText
 10
-49.3854808807373
 20
9.981259405612943
 30
0.0
 40
3.499999940395355
 41
193.6792332340631
 46
0.0
 71
     1
 72
     1
  1
Als Stanzteil konzipiert\PWenn als Laserteil hergestellt, \Pmuss ganze Kontur innerhalb +/- 0.1 mm sein\P
  7
_Schriftfeld_3.5mm
 73
     2
 44
0.9442214965820312
  0
ENDBLK
  5
125
330
123
100
AcDbEntity
  8
0
100
AcDbBlockEnd
  0
BLOCK
  5
128
330
127
100
AcDbEntity
  8
0
100
AcDbBlockBegin
  2
Stanzrundung_1
 70
     0
 10
0.0
 20
0.0
 30
0.0
  3
Stanzrundung_1
  1

  0
ARC
  5
12A
330
127
100
AcDbEntity
  8
Titel (ISO)
100
AcDbCircle
 10
-2.44997217222222
 20
1.477407396909721
 30
0.0
 40
1.999999999999999
100
AcDbArc
 50
270.0
 51
0.0
  0
LINE
  5
12B
330
127
100
AcDbEntity
  8
Titel (ISO)
100
AcDbLine
 10
-1.049223178106464
 20
0.0498562575512551
 30
0.0
 11
2.449972272222211
 21
-1.477407496909711
 31
0.0
  0
MTEXT
  5
12C
330
127
100
AcDbEntity
  8
Titel (ISO)
100
AcDbMText
 10
3.130367236014626
 20
-0.28633610801851
 30
0.0
 40
3.499999940395355
 41
0.0
 46
0.0
 71
     1
 72
     1
  1
Stanzrundung
  7
_Schriftfeld_3.5mm
 73
     1
 44
1.0
  0
ENDBLK
  5
129
330
127
100
AcDbEntity
  8
0
100
AcDbBlockEnd
  0
BLOCK
  5
12E
330
12D
100
AcDbEntity
  8
0
100
AcDbBlockBegin
  2
Stanzrundung_2
 70
     0
 10
0.0
 20
0.0
 30
0.0
  3
Stanzrundung_2
  1

  0
ARC
  5
130
330
12D
100
AcDbEntity
  8
Titel (ISO)
100
AcDbCircle
 10
1.855973276181241
 20
1.952432954041681
 30
0.0
 40
1.566421450686395
100
AcDbArc
 50
180.0
 51
270.0
  0
LINE
  5
131
330
12D
100
AcDbEntity
  8
Titel (ISO)
100
AcDbLine
 10
-1.855973376181214
 20
-1.952433054041673
 30
0.0
 11
0.776746247326834
 21
0.8171157378590976
 31
0.0
  0
MTEXT
  5
132
330
12D
100
AcDbEntity
  8
Titel (ISO)
100
AcDbMText
 10
-35.05451959893437
 20
-0.5734039390297241
 30
0.0
 40
3.499999940395355
 41
0.0
 46
0.0
 71
     1
 72
     1
  1
Stanzrundung
  7
_Schriftfeld_3.5mm
 73
     1
 44
1.0
  0
ENDBLK
  5
12F
330
12D
100
AcDbEntity
  8
0
100
AcDbBlockEnd
  0
BLOCK
  5
134
330
133
100
AcDbEntity
  8
0
100
AcDbBlockBegin
  2
Verzinkt
 70
     0
 10
0.0
 20
0.0
 30
0.0
  3
Verzinkt
  1

  0
MTEXT
  5
136
330
133
100
AcDbEntity
  8
Titel (ISO)
100
AcDbMText
 10
-34.96665477752687
 20
2.242187596857546
 30
0.0
 40
3.499999940395355
 41
0.0
 46
0.0
 71
     1
 72
     1
  1
verzinkt und blau passiviert 8µm
  7
_Schriftfeld_3.5mm
 73
     1
 44
1.0
  0
ENDBLK
  5
135
330
133
100
AcDbEntity
  8
0
100
AcDbBlockEnd
  0
BLOCK
  5
138
330
137
100
AcDbEntity
  8
0
100
AcDbBlockBegin
  2
Vierkant-Tabelle
 70
     0
 10
0.0
 20
0.0
 30
0.0
  3
Vierkant-Tabelle
  1

  0
LINE
  5
13A
330
137
100
AcDbEntity
  8
Titel (ISO)
 62
     7
100
AcDbLine
 10
-33.99999999999998
 20
-24.00000000000006
 30
0.0
 11
33.99999999999999
 21
-23.99999999999999
 31
0.0
  0
LINE
  5
13B
330
137
100
AcDbEntity
  8
Titel (ISO)
 62
     7
100
AcDbLine
 10
-33.99999999999999
 20
0.0
 30
0.0
 11
33.99999999999999
 21
0.0
 31
0.0
  0
LINE
  5
13C
330
137
100
AcDbEntity
  8
Titel (ISO)
 62
     7
100
AcDbLine
 10
-33.99999999999999
 20
23.99999999999999
 30
0.0
 11
33.99999999999999
 21
24.00000000000006
 31
0.0
  0
LINE
  5
13D
330
137
100
AcDbEntity
  8
Titel (ISO)
 62
     7
100
AcDbLine
 10
-33.99999999999999
 20
15.99999999999998
 30
0.0
 11
34.0
 21
16.00000000000005
 31
0.0
  0
LINE
  5
13E
330
137
100
AcDbEntity
  8
Titel (ISO)
 62
     7
100
AcDbLine
 10
-33.99999999999999
 20
7.999999999999971
 30
0.0
 11
34.0
 21
8.000000000000042
 31
0.0
  0
LINE
  5
13F
330
137
100
AcDbEntity
  8
Titel (ISO)
 62
     7
100
AcDbLine
 10
-33.99999999999999
 20
-8.000000000000042
 30
0.0
 11
33.99999999999999
 21
-7.999999999999971
 31
0.0
  0
LINE
  5
140
330
137
100
AcDbEntity
  8
Titel (ISO)
 62
     7
100
AcDbLine
 10
-33.99999999999999
 20
-16.00000000000005
 30
0.0
 11
33.99999999999999
 21
-15.99999999999998
 31
0.0
  0
LINE
  5
141
330
137
100
AcDbEntity
  8
Titel (ISO)
 62
     7
100
AcDbLine
 10
-25.99999999999997
 20
-24.00000000000006
 30
0.0
 11
-26.0
 21
23.99999999999999
 31
0.0
  0
LINE
  5
142
330
137
100
AcDbEntity
  8
Titel (ISO)
 62
     7
100
AcDbLine
 10
-33.99999999999998
 20
-24.00000000000006
 30
0.0
 11
-33.99999999999999
 21
23.99999999999999
 31
0.0
  0
LINE
  5
143
330
137
100
AcDbEntity
  8
Titel (ISO)
 62
     7
100
AcDbLine
 10
-5.999999999999968
 20
-24.00000000000002
 30
0.0
 11
-5.999999999999996
 21
24.00000000000002
 31
0.0
  0
LINE
  5
144
330
137
100
AcDbEntity
  8
Titel (ISO)
 62
     7
100
AcDbLine
 10
13.99999999999999
 20
-24.00000000000002
 30
0.0
 11
14.0
 21
24.00000000000002
 31
0.0
  0
LINE
  5
145
330
137
100
AcDbEntity
  8
Titel (ISO)
 62
     7
100
AcDbLine
 10
33.99999999999999
 20
-23.99999999999999
 30
0.0
 11
33.99999999999999
 21
24.00000000000006
 31
0.0
  0
MTEXT
  5
146
330
137
100
AcDbEntity
  8
Titel (ISO)
100
AcDbMText
 10
-31.0
 20
-9.999999850988423
 30
0.0
 40
2.5
 41
0.0
 46
0.0
 71
     1
 72
     1
  1
\fArial|b0|i0;\W0.60;\H2.5000;4
  7
_Schriftfeld_3.5mm
 73
     1
 44
1.0
  0
MTEXT
  5
147
330
137
100
AcDbEntity
  8
Titel (ISO)
100
AcDbMText
 10
-31.0
 20
5.999999999999976
 30
0.0
 40
2.5
 41
0.0
 46
0.0
 71
     1
 72
     1
  1
\fArial|b0|i0;\W0.60;\H2.5000;2
  7
_Schriftfeld_3.5mm
 73
     1
 44
1.0
  0
MTEXT
  5
148
330
137
100
AcDbEntity
  8
Titel (ISO)
100
AcDbMText
 10
-31.42346487563099
 20
21.00000014901159
 30
0.0
 40
2.5
 41
0.0
 46
0.0
 71
     1
 72
     1
  1
\fArial|b0|i0;\W0.65;\H2.5000;Pos.
  7
_Schriftfeld_3.5mm
 73
     1
 44
1.0
  0
MTEXT
  5
149
330
137
100
AcDbEntity
  8
Titel (ISO)
100
AcDbMText
 10
-31.0
 20
13.99999999999998
 30
0.0
 40
2.5
 41
0.0
 46
0.0
 71
     1
 72
     1
  1
\fArial|b0|i0;\W0.60;\H2.5000;1
  7
_Schriftfeld_3.5mm
 73
     1
 44
1.0
  0
MTEXT
  5
14A
330
137
100
AcDbEntity
  8
Titel (ISO)
100
AcDbMText
 10
-0.9999999999999964
 20
-18.00000000000004
 30
0.0
 40
2.5
 41
0.0
 46
0.0
 71
     1
 72
     1
  1
\fArial|b0|i0;\W0.88;\H2.5000;4kt. 10
  7
_Schriftfeld_3.5mm
 73
     1
 44
1.0
  0
MTEXT
  5
14B
330
137
100
AcDbEntity
  8
Titel (ISO)
100
AcDbMText
 10
-21.0
 20
-18.00000000000004
 30
0.0
 40
2.5
 41
0.0
 46
0.0
 71
     1
 72
     1
  1
\fAIGDT|b0|i0;\W0.65;\H2.5000;n\fArial|b0|i0;\W0.65;\H2.5000; 11.5
  7
_Schriftfeld_3.5mm
 73
     1
 44
1.0
  0
MTEXT
  5
14C
330
137
100
AcDbEntity
  8
Titel (ISO)
100
AcDbMText
 10
19.0
 20
-18.00000000000004
 30
0.0
 40
2.5
 41
0.0
 46
0.0
 71
     1
 72
     1
  1
\fArial|b0|i0;\W0.88;\H2.5000;13.6
  7
_Schriftfeld_3.5mm
 73
     1
 44
1.0
  0
MTEXT
  5
14D
330
137
100
AcDbEntity
  8
Titel (ISO)
100
AcDbMText
 10
-3.999999999999993
 20
21.00000014901159
 30
0.0
 40
2.5
 41
0.0
 46
0.0
 71
     1
 72
     1
  1
\fArial|b0|i0;\W0.78;\H2.5000;Mass B
  7
_Schriftfeld_3.5mm
 73
     1
 44
1.0
  0
MTEXT
  5
14E
330
137
100
AcDbEntity
  8
Titel (ISO)
100
AcDbMText
 10
-0.9999999999999964
 20
5.999999999999976
 30
0.0
 40
2.5
 41
0.0
 46
0.0
 71
     1
 72
     1
  1
\fArial|b0|i0;\W0.90;\H2.5000;4kt.  8
  7
_Schriftfeld_3.5mm
 73
     1
 44
1.0
  0
MTEXT
  5
14F
330
137
100
AcDbEntity
  8
Titel (ISO)
100
AcDbMText
 10
-0.9999999999999964
 20
-2.000000000000027
 30
0.0
 40
2.5
 41
0.0
 46
0.0
 71
     1
 72
     1
  1
\fArial|b0|i0;\W0.83;\H2.5000;4kt. 8.5
  7
_Schriftfeld_3.5mm
 73
     1
 44
1.0
  0
MTEXT
  5
150
330
137
100
AcDbEntity
  8
Titel (ISO)
100
AcDbMText
 10
-0.9999999999999964
 20
14.00000014901159
 30
0.0
 40
2.5
 41
0.0
 46
0.0
 71
     1
 72
     1
  1
\fArial|b0|i0;\W0.90;\H2.5000;4kt.  7
  7
_Schriftfeld_3.5mm
 73
     1
 44
1.0
  0
MTEXT
  5
151
330
137
100
AcDbEntity
  8
Titel (ISO)
100
AcDbMText
 10
-0.9999999999999964
 20
-10.00000000000003
 30
0.0
 40
2.5
 41
0.0
 46
0.0
 71
     1
 72
     1
  1
\fArial|b0|i0;\W0.90;\H2.5000;4kt.  9
  7
_Schriftfeld_3.5mm
 73
     1
 44
1.0
  0
MTEXT
  5
152
330
137
100
AcDbEntity
  8
Titel (ISO)
100
AcDbMText
 10
-21.0
 20
-2.000000000000027
 30
0.0
 40
2.5
 41
0.0
 46
0.0
 71
     1
 72
     1
  1
\fAIGDT|b0|i0;\W0.76;\H2.5000;n\fArial|b0|i0;\W0.76;\H2.5000; 10.5
  7
_Schriftfeld_3.5mm
 73
     1
 44
1.0
  0
MTEXT
  5
153
330
137
100
AcDbEntity
  8
Titel (ISO)
100
AcDbMText
 10
-21.0
 20
5.999999999999976
 30
0.0
 40
2.5
 41
0.0
 46
0.0
 71
     1
 72
     1
  1
\fAIGDT|b0|i0;\W0.73;\H2.5000;n\fArial|b0|i0;\W0.73;\H2.5000; 10
  7
_Schriftfeld_3.5mm
 73
     1
 44
1.0
  0
MTEXT
  5
154
330
137
100
AcDbEntity
  8
Titel (ISO)
100
AcDbMText
 10
-21.0
 20
-10.00000000000003
 30
0.0
 40
2.5
 41
0.0
 46
0.0
 71
     1
 72
     1
  1
\fAIGDT|b0|i0;\W0.69;\H2.5000;n\fArial|b0|i0;\W0.69;\H2.5000; 11
  7
_Schriftfeld_3.5mm
 73
     1
 44
1.0
  0
MTEXT
  5
155
330
137
100
AcDbEntity
  8
Titel (ISO)
100
AcDbMText
 10
-21.0
 20
13.99999999999998
 30
0.0
 40
2.5
 41
0.0
 46
0.0
 71
     1
 72
     1
  1
\fAIGDT|b0|i0;\W0.84;\H2.5000;n\fArial|b0|i0;\W0.84;\H2.5000; 8
  7
_Schriftfeld_3.5mm
 73
     1
 44
1.0
  0
MTEXT
  5
156
330
137
100
AcDbEntity
  8
Titel (ISO)
100
AcDbMText
 10
-22.02576666302078
 20
21.00000014901159
 30
0.0
 40
2.5
 41
0.0
 46
0.0
 71
     1
 72
     1
  1
\fArial|b0|i0;\W0.79;\H2.5000;Mass A
  7
_Schriftfeld_3.5mm
 73
     1
 44
1.0
  0
MTEXT
  5
157
330
137
100
AcDbEntity
  8
Titel (ISO)
100
AcDbMText
 10
-31.0
 20
-17.96760666370396
 30
0.0
 40
2.5
 41
0.0
 46
0.0
 71
     1
 72
     1
  1
\fArial|b0|i0;\W0.56;\H2.5000;5
  7
_Schriftfeld_3.5mm
 73
     1
 44
1.0
  0
MTEXT
  5
158
330
137
100
AcDbEntity
  8
Titel (ISO)
100
AcDbMText
 10
19.0
 20
-2.000000000000027
 30
0.0
 40
2.5
 41
0.0
 46
0.0
 71
     1
 72
     1
  1
\fArial|b0|i0;\W0.83;\H2.5000;12
  7
_Schriftfeld_3.5mm
 73
     1
 44
1.0
  0
MTEXT
  5
159
330
137
100
AcDbEntity
  8
Titel (ISO)
100
AcDbMText
 10
19.0
 20
5.999999999999976
 30
0.0
 40
2.5
 41
0.0
 46
0.0
 71
     1
 72
     1
  1
\fArial|b0|i0;\W0.90;\H2.5000;11.3
  7
_Schriftfeld_3.5mm
 73
     1
 44
1.0
  0
MTEXT
  5
15A
330
137
100
AcDbEntity
  8
Titel (ISO)
100
AcDbMText
 10
16.0
 20
20.99999999999998
 30
0.0
 40
2.5
 41
0.0
 46
0.0
 71
     1
 72
     1
  1
\fArial|b0|i0;\W0.78;\H2.5000;Mass C
  7
_Schriftfeld_3.5mm
 73
     1
 44
1.0
  0
MTEXT
  5
15B
330
137
100
AcDbEntity
  8
Titel (ISO)
100
AcDbMText
 10
19.0
 20
-10.00000000000003
 30
0.0
 40
2.5
 41
0.0
 46
0.0
 71
     1
 72
     1
  1
\fArial|b0|i0;\W0.90;\H2.5000;12.7
  7
_Schriftfeld_3.5mm
 73
     1
 44
1.0
  0
MTEXT
  5
15C
330
137
100
AcDbEntity
  8
Titel (ISO)
100
AcDbMText
 10
19.0
 20
13.99999999999998
 30
0.0
 40
2.5
 41
0.0
 46
0.0
 71
     1
 72
     1
  1
\fArial|b0|i0;\W0.90;\H2.5000;10
  7
_Schriftfeld_3.5mm
 73
     1
 44
1.0
  0
MTEXT
  5
15D
330
137
100
AcDbEntity
  8
Titel (ISO)
100
AcDbMText
 10
7.52309499999999
 20
23.50279363516371
 30
0.0
 40
2.5
 41
0.0
 46
0.0
 71
     1
 72
     1
  1
\fArial|b0|i0;\W0.68;\H2.5000;+0.05
  7
_Schriftfeld_3.5mm
 73
     1
 44
1.0
  0
MTEXT
  5
15E
330
137
100
AcDbEntity
  8
Titel (ISO)
100
AcDbMText
 10
28.821548797772
 20
20.00279363516373
 30
0.0
 40
2.5
 41
0.0
 46
0.0
 71
     1
 72
     1
  1
\fArial|b0|i0;\W0.63;\H2.5000;0
  7
_Schriftfeld_3.5mm
 73
     1
 44
1.0
  0
MTEXT
  5
15F
330
137
100
AcDbEntity
  8
Titel (ISO)
100
AcDbMText
 10
27.523095
 20
23.50279363516371
 30
0.0
 40
2.5
 41
0.0
 46
0.0
 71
     1
 72
     1
  1
\fArial|b0|i0;\W0.68;\H2.5000;+0.2
  7
_Schriftfeld_3.5mm
 73
     1
 44
1.0
  0
MTEXT
  5
160
330
137
100
AcDbEntity
  8
Titel (ISO)
100
AcDbMText
 10
-31.0
 20
-2.000000000000027
 30
0.0
 40
2.5
 41
0.0
 46
0.0
 71
     1
 72
     1
  1
\fArial|b0|i0;\W0.60;\H2.5000;3
  7
_Schriftfeld_3.5mm
 73
     1
 44
1.0
  0
MTEXT
  5
161
330
137
100
AcDbEntity
  8
Titel (ISO)
100
AcDbMText
 10
7.52309499999999
 20
20.00279363516373
 30
0.0
 40
2.5
 41
0.0
 46
0.0
 71
     1
 72
     1
  1
\fArial|b0|i0;\W0.63;\H2.5000;+0.01
  7
_Schriftfeld_3.5mm
 73
     1
 44
1.0
  0
ENDBLK
  5
139
330
137
100
AcDbEntity
  8
0
100
AcDbBlockEnd
  0
BLOCK
  5
163
330
162
100
AcDbEntity
  8
0
100
AcDbBlockBegin
  2
Laserpunkt_Text
 70
     0
 10
0.0
 20
0.0
 30
0.0
  3
Laserpunkt_Text
  1

  0
CIRCLE
  5
165
330
162
100
AcDbEntity
  8
Skizziergeometrie(DIN)
370
    70
100
AcDbCircle
 10
3.715998998176778
 20
2.645602535338599
 30
0.0
 40
2.250000000000003
  0
LINE
  5
166
330
162
100
AcDbEntity
  8
Skizziergeometrie(DIN)
370
    70
100
AcDbLine
 10
6.014096037033062
 20
0.3475054964822988
 30
0.0
 11
1.417901959320495
 21
4.943699574194866
 31
0.0
  0
LINE
  5
167
330
162
100
AcDbEntity
  8
Skizziergeometrie(DIN)
370
    70
100
AcDbLine
 10
1.417901959320513
 20
0.3475054964822988
 30
0.0
 11
6.01409603703308
 21
4.943699574194866
 31
0.0
  0
MTEXT
  5
168
330
162
100
AcDbEntity
  8
Symbole(DIN)
 62
   179
420
  2500185
100
AcDbMText
 10
0.0
 20
-0.1396086563666721
 30
0.0
 40
3.499999940395355
 41
0.0
 46
0.0
 71
     7
 72
     1
  1
Kontur gelasert nach DXF-File\P      = Anfang/Ende Laserkontur 
  7
Aktuell-DIN
 73
     2
 44
0.9442214965820312
  0
ENDBLK
  5
164
330
162
100
AcDbEntity
  8
0
100
AcDbBlockEnd
  0
BLOCK
  5
16A
330
169
100
AcDbEntity
  8
0
100
AcDbBlockBegin
  2
Laserpunkt
 70
     0
 10
0.0
 20
0.0
 30
0.0
  3
Laserpunkt
  1

  0
CIRCLE
  5
16C
330
169
100
AcDbEntity
  8
Skizziergeometrie(DIN)
370
    70
100
AcDbCircle
 10
0.0
 20
0.0
 30
0.0
 40
2.250000000000003
  0
LINE
  5
16D
330
169
100
AcDbEntity
  8
Skizziergeometrie(DIN)
370
    70
100
AcDbLine
 10
2.298097038856282
 20
-2.2980970388563
 30
0.0
 11
-2.298097038856282
 21
2.298097038856266
 31
0.0
  0
LINE
  5
16E
330
169
100
AcDbEntity
  8
Skizziergeometrie(DIN)
370
    70
100
AcDbLine
 10
-2.298097038856266
 20
-2.2980970388563
 30
0.0
 11
2.2980970388563
 21
2.298097038856266
 31
0.0
  0
ENDBLK
  5
16B
330
169
100
AcDbEntity
  8
0
100
AcDbBlockEnd
  0
BLOCK
  5
170
330
16F
100
AcDbEntity
  8
0
100
AcDbBlockBegin
  2
Kantenbruch
 70
     2
 10
0.0
 20
0.0
 30
0.0
  3
Kantenbruch
  1

  0
HATCH
  5
175
330
16F
100
AcDbEntity
  8
Schraffur
100
AcDbHatch
 10
0.0
 20
0.0
 30
0.0
210
0.0
220
0.0
230
1.0
  2
SOLID
 70
     1
 71
     0
 91
        1
 92
        1
 93
        3
 72
     1
 10
2.551045103405299
 20
2.440182479852524
 11
0.0
 21
0.0
 72
     1
 10
0.0
 20
0.0
 11
1.832554653580372
 21
3.017294333708306
 72
     1
 10
1.832554653580372
 20
3.017294333708306
 11
2.551045103405299
 21
2.440182479852524
 97
        0
 75
     0
 76
     1
 98
        1
 10
0.0
 20
0.0
450
        0
451
        0
460
0.0
461
0.0
452
        0
462
0.0
453
        0
470

  0
HATCH
  5
179
330
16F
100
AcDbEntity
  8
Schraffur
100
AcDbHatch
 10
0.0
 20
0.0
 30
0.0
210
0.0
220
0.0
230
1.0
  2
SOLID
 70
     1
 71
     0
 91
        1
 92
        1
 93
        3
 72
     1
 10
23.39589716406273
 20
3.017294333708662
 11
21.56334251048213
 21
0.0
 72
     1
 10
21.56334251048213
 20
0.0
 11
24.11438761388769
 21
2.440182479852808
 72
     1
 10
24.11438761388769
 20
2.440182479852808
 11
23.39589716406273
 21
3.017294333708662
 97
        0
 75
     0
 76
     1
 98
        1
 10
0.0
 20
0.0
450
        0
451
        0
460
0.0
461
0.0
452
        0
462
0.0
453
        0
470

  0
LINE
  5
17A
330
16F
100
AcDbEntity
  8
AM_5
  6
Continuous
 62
     7
100
AcDbLine
 10
14.41413346606271
 20
6.589009726759619
 30
0.0
 11
5.486542746190784
 21
6.589009726759619
 31
0.0
  0
LINE
  5
17B
330
16F
100
AcDbEntity
  8
AM_5
  6
Continuous
 62
     7
100
AcDbLine
 10
6.021339289383168
 20
7.425192947268967
 30
0.0
 11
10.92133928938317
 21
7.425192947268967
 31
0.0
  0
LINE
  5
17C
330
16F
100
AcDbEntity
  8
AM_5
  6
Continuous
 62
     7
100
AcDbLine
 10
6.021339289383168
 20
12.32519294726897
 30
0.0
 11
6.021339289383168
 21
7.425192947268967
 31
0.0
  0
LINE
  5
17D
330
16F
100
AcDbEntity
  8
AM_5
  6
Continuous
 62
     7
100
AcDbLine
 10
27.49096644559973
 20
12.32519294726897
 30
0.0
 11
27.49096644559973
 21
7.425192947268967
 31
0.0
  0
LINE
  5
17E
330
16F
100
AcDbEntity
  8
AM_5
  6
Continuous
 62
     7
100
AcDbLine
 10
2.551045103405299
 20
2.440182479852559
 30
0.0
 11
1.832554653580372
 21
3.017294333708306
 31
0.0
  0
LINE
  5
17F
330
16F
100
AcDbEntity
  8
AM_5
 62
     7
100
AcDbLine
 10
5.486542746190784
 20
6.589009726759619
 30
0.0
 11
2.259523567491451
 21
2.674322428928999
 31
0.0
  0
LINE
  5
180
330
16F
100
AcDbEntity
  8
AM_5
  6
Continuous
 62
     7
100
AcDbLine
 10
0.0
 20
0.0
 30
0.0
 11
2.551045103405299
 21
2.440182479852524
 31
0.0
  0
LINE
  5
181
330
16F
100
AcDbEntity
  8
AM_5
  6
Continuous
 62
     7
100
AcDbLine
 10
21.56334251048156
 20
0.0
 30
0.0
 11
24.11438761388769
 21
2.440182479852808
 31
0.0
  0
LINE
  5
182
330
16F
100
AcDbEntity
  8
Skizziergeometrie(DIN)
100
AcDbLine
 10
2.551045103405299
 20
2.440182479852524
 30
0.0
 11
1.832554653580372
 21
3.017294333708306
 31
0.0
  0
LINE
  5
183
330
16F
100
AcDbEntity
  8
AM_5
  6
Continuous
 62
     7
100
AcDbLine
 10
1.832554653580372
 20
3.017294333708306
 30
0.0
 11
0.0
 21
0.0
 31
0.0
  0
LINE
  5
184
330
16F
100
AcDbEntity
  8
Skizziergeometrie(DIN)
100
AcDbLine
 10
1.832554653580372
 20
3.017294333708306
 30
0.0
 11
0.0
 21
0.0
 31
0.0
  0
LINE
  5
185
330
16F
100
AcDbEntity
  8
Skizziergeometrie(DIN)
100
AcDbLine
 10
0.0
 20
0.0
 30
0.0
 11
2.551045103405299
 21
2.440182479852524
 31
0.0
  0
LINE
  5
186
330
16F
100
AcDbEntity
  8
AM_0
370
    25
100
AcDbLine
 10
0.0
 20
0.0
 30
0.0
 11
-8.000000000000008
 21
0.0
 31
0.0
  0
LINE
  5
187
330
16F
100
AcDbEntity
  8
Skizziergeometrie(DIN)
370
    25
100
AcDbLine
 10
0.0
 20
0.0
 30
0.0
 11
0.0
 21
-7.999999999999997
 31
0.0
  0
LINE
  5
188
330
16F
100
AcDbEntity
  8
Skizziergeometrie(DIN)
100
AcDbLine
 10
24.11438761388769
 20
2.440182479852808
 30
0.0
 11
21.56334251048213
 21
0.0
 31
0.0
  0
LINE
  5
189
330
16F
100
AcDbEntity
  8
AM_5
  6
Continuous
 62
     7
100
AcDbLine
 10
27.49096644559973
 20
7.425192947268967
 30
0.0
 11
32.39096644559975
 21
7.425192947268967
 31
0.0
  0
LINE
  5
18A
330
16F
100
AcDbEntity
  8
AM_5
  6
Continuous
 62
     7
100
AcDbLine
 10
35.8837606222793
 20
6.589009726759619
 30
0.0
 11
26.95616990240735
 21
6.589009726759619
 31
0.0
  0
LINE
  5
18B
330
16F
100
AcDbEntity
  8
AM_5
  6
Continuous
 62
     7
100
AcDbLine
 10
26.95616990240735
 20
6.589009726759619
 30
0.0
 11
23.70310776989253
 21
2.640671625589323
 31
0.0
  0
LINE
  5
18C
330
16F
100
AcDbEntity
  8
Skizziergeometrie(DIN)
100
AcDbLine
 10
23.39589716406273
 20
3.017294333708662
 30
0.0
 11
24.11438761388769
 21
2.440182479852808
 31
0.0
  0
LINE
  5
18D
330
16F
100
AcDbEntity
  8
AM_5
  6
Continuous
 62
     7
100
AcDbLine
 10
24.11438761388677
 20
2.309315017511791
 30
0.0
 11
23.39589716406191
 21
2.886426871367539
 31
0.0
  0
LINE
  5
18E
330
16F
100
AcDbEntity
  8
AM_0
370
    25
100
AcDbLine
 10
21.56334251048213
 20
7.999999999999988
 30
0.0
 11
21.56334251048213
 21
0.0
 31
0.0
  0
LINE
  5
18F
330
16F
100
AcDbEntity
  8
AM_5
  6
Continuous
 62
     7
100
AcDbLine
 10
23.39589716406273
 20
3.017294333708662
 30
0.0
 11
21.56334251048213
 21
0.0
 31
0.0
  0
LINE
  5
190
330
16F
100
AcDbEntity
  8
Skizziergeometrie(DIN)
100
AcDbLine
 10
21.56334251048213
 20
0.0
 30
0.0
 11
23.39589716406273
 21
3.017294333708662
 31
0.0
  0
LINE
  5
191
330
16F
100
AcDbEntity
  8
AM_0
370
    25
100
AcDbLine
 10
21.56334251048145
 20
0.0
 30
0.0
 11
29.56334251048146
 21
0.0
 31
0.0
  0
ATTDEF
  5
193
102
{ACAD_XDICTIONARY
360
B81
102
}
330
16F
100
AcDbEntity
  8
AM_5
 62
     7
100
AcDbText
 10
27.71846645364636
 20
13.12519300687362
 30
0.0
 40
3.499999940395355
  1
-1
 41
0.9
  7
Textstil122
100
AcDbAttributeDefinition
  3
Innenkante obere Grenze
  2
Innenkante_obere_Grenze_001
 70
     0
280
     0
  0
ATTDEF
  5
196
102
{ACAD_XDICTIONARY
360
B84
102
}
330
16F
100
AcDbEntity
  8
AM_5
 62
     7
100
AcDbText
 10
27.71846645364636
 20
8.124504030507404
 30
0.0
 40
3.499999940395355
  1
-0.25
 41
0.9
  7
Textstil122
100
AcDbAttributeDefinition
  3
Innenkante untere Grenze
  2
Innenkante_untere_Grenze_001
 70
     0
280
     0
  0
ATTDEF
  5
197
102
{ACAD_XDICTIONARY
360
B87
102
}
330
16F
100
AcDbEntity
  8
AM_5
 62
     7
100
AcDbText
 10
6.248839297429796
 20
13.12519300687362
 30
0.0
 40
3.499999940395355
  1
+0.3
 41
0.9
  7
Textstil122
100
AcDbAttributeDefinition
  3
Aussenkante obere Grenze
  2
Aussenkante_obere_Grenze_001
 70
     0
280
     0
  0
ATTDEF
  5
198
102
{ACAD_XDICTIONARY
360
B8A
102
}
330
16F
100
AcDbEntity
  8
AM_5
 62
     7
100
AcDbText
 10
6.248839297429796
 20
8.125193006873624
 30
0.0
 40
3.499999940395355
  1
+0.1
 41
0.9
  7
Textstil122
100
AcDbAttributeDefinition
  3
Aussenkante untere Grenze
  2
Aussenkante_untere_Grenze_001
 70
     0
280
     0
  0
ENDBLK
  5
171
330
16F
100
AcDbEntity
  8
0
100
AcDbBlockEnd
  0
BLOCK
  5
266
330
265
100
AcDbEntity
  8
0
100
AcDbBlockBegin
  2
*D17
 70
     1
 10
0.0
 20
0.0
 30
0.0
  3
*D17
  1

  0
LINE
  5
33D
330
265
100
AcDbEntity
  8
Bemaßungen(DIN)
  6
Continuous
 62
   250
420
  4144959
440
 16777216
370
    25
100
AcDbLine
 10
135.4254304717532
 20
440.9710500901089
 30
0.0
 11
64.97475768548084
 21
440.971050090109
 31
0.0
  0
LINE
  5
33E
330
265
100
AcDbEntity
  8
Bemaßungen(DIN)
  6
Continuous
 62
   250
420
  4144959
440
 16777216
370
    25
100
AcDbLine
 10
135.4254304717532
 20
368.7015948717644
 30
0.0
 11
64.97475768548082
 21
368.7015948717645
 31
0.0
  0
LINE
  5
33F
330
265
100
AcDbEntity
  8
Bemaßungen(DIN)
  6
Continuous
 62
   250
420
  4144959
440
 16777216
370
    25
100
AcDbLine
 10
71.32475768548082
 20
435.971050090109
 30
0.0
 11
71.32475768548082
 21
373.7015948717645
 31
0.0
  0
SOLID
  5
340
330
265
100
AcDbEntity
  8
Bemaßungen(DIN)
  6
Continuous
 62
   250
420
  4144959
440
 16777216
100
AcDbTrace
 10
70.49142435214752
 20
435.971050090109
 30
0.0
 11
72.15809101881415
 21
435.971050090109
 31
0.0
 12
71.32475768548082
 22
440.971050090109
 32
0.0
 13
71.32475768548082
 23
440.971050090109
 33
0.0
  0
SOLID
  5
341
330
265
100
AcDbEntity
  8
Bemaßungen(DIN)
  6
Continuous
 62
   250
420
  4144959
440
 16777216
100
AcDbTrace
 10
70.49142435214749
 20
373.7015948717645
 30
0.0
 11
72.15809101881415
 21
373.7015948717645
 31
0.0
 12
71.32475768548082
 22
368.7015948717645
 32
0.0
 13
71.32475768548082
 23
368.7015948717645
 33
0.0
  0
MTEXT
  5
342
330
265
100
AcDbEntity
  8
Bemaßungen(DIN)
  6
Continuous
 62
   250
420
  4144959
440
 16777216
370
    25
100
AcDbMText
 10
62.69610825848406
 20
399.8671410060168
 30
0.0
 40
7.0
 41
0.0
 46
0.0
 71
     1
 72
     1
  1
\A1;72
  7
STANDARD-DIN~0
 11
0.0000000000000001
 21
1.0
 31
0.0
 73
     1
 44
1.0
  0
POINT
  5
343
330
265
100
AcDbEntity
  8
Defpoints
  6
Continuous
 62
     0
440
 16777216
100
AcDbPoint
 10
135.4254304717532
 20
440.9710500901089
 30
0.0
  0
POINT
  5
344
330
265
100
AcDbEntity
  8
Defpoints
  6
Continuous
 62
     0
440
 16777216
100
AcDbPoint
 10
135.4254304717532
 20
368.7015948717644
 30
0.0
  0
POINT
  5
345
330
265
100
AcDbEntity
  8
Defpoints
  6
Continuous
 62
     0
440
 16777216
100
AcDbPoint
 10
71.32475768548082
 20
368.7015948717645
 30
0.0
  0
ENDBLK
  5
267
330
265
100
AcDbEntity
  8
0
100
AcDbBlockEnd
  0
BLOCK
  5
348
330
347
100
AcDbEntity
  8
0
100
AcDbBlockBegin
  2
*D18
 70
     1
 10
0.0
 20
0.0
 30
0.0
  3
*D18
  1

  0
LINE
  5
41F
330
347
100
AcDbEntity
  8
Bemaßungen(DIN)
  6
Continuous
 62
   250
420
  4144959
440
 16777216
370
    25
100
AcDbLine
 10
125.7226740432329
 20
429.8210500901087
 30
0.0
 11
88.97475768548082
 21
429.8210500901087
 31
0.0
  0
LINE
  5
420
330
347
100
AcDbEntity
  8
Bemaßungen(DIN)
  6
Continuous
 62
   250
420
  4144959
440
 16777216
370
    25
100
AcDbLine
 10
125.6754304717532
 20
379.821050090109
 30
0.0
 11
88.97475768548082
 21
379.821050090109
 31
0.0
  0
LINE
  5
421
330
347
100
AcDbEntity
  8
Bemaßungen(DIN)
  6
Continuous
 62
   250
420
  4144959
440
 16777216
370
    25
100
AcDbLine
 10
95.32475768548085
 20
424.8210500901087
 30
0.0
 11
95.3247576854808
 21
384.821050090109
 31
0.0
  0
SOLID
  5
422
330
347
100
AcDbEntity
  8
Bemaßungen(DIN)
  6
Continuous
 62
   250
420
  4144959
440
 16777216
100
AcDbTrace
 10
94.49142435214751
 20
424.8210500901087
 30
0.0
 11
96.15809101881417
 21
424.8210500901087
 31
0.0
 12
95.32475768548085
 22
429.8210500901087
 32
0.0
 13
95.32475768548085
 23
429.8210500901087
 33
0.0
  0
SOLID
  5
423
330
347
100
AcDbEntity
  8
Bemaßungen(DIN)
  6
Continuous
 62
   250
420
  4144959
440
 16777216
100
AcDbTrace
 10
94.49142435214749
 20
384.821050090109
 30
0.0
 11
96.15809101881417
 21
384.821050090109
 31
0.0
 12
95.3247576854808
 22
379.821050090109
 32
0.0
 13
95.3247576854808
 23
379.821050090109
 33
0.0
  0
MTEXT
  5
424
330
347
100
AcDbEntity
  8
Bemaßungen(DIN)
  6
Continuous
 62
   250
420
  4144959
440
 16777216
370
    25
100
AcDbMText
 10
86.57673581577013
 20
399.7993447403949
 30
0.0
 40
7.0
 41
0.0
 46
0.0
 71
     1
 72
     1
  1
\A1;50
  7
STANDARD-DIN~0
 11
0.0000000000000001
 21
1.0
 31
0.0
 73
     1
 44
1.0
  0
POINT
  5
425
330
347
100
AcDbEntity
  8
Defpoints
  6
Continuous
 62
     0
440
 16777216
100
AcDbPoint
 10
125.7226740432329
 20
429.8210500901087
 30
0.0
  0
POINT
  5
426
330
347
100
AcDbEntity
  8
Defpoints
  6
Continuous
 62
     0
440
 16777216
100
AcDbPoint
 10
125.6754304717532
 20
379.821050090109
 30
0.0
  0
POINT
  5
427
330
347
100
AcDbEntity
  8
Defpoints
  6
Continuous
 62
     0
440
 16777216
100
AcDbPoint
 10
95.3247576854808
 20
379.821050090109
 30
0.0
  0
ENDBLK
  5
349
330
347
100
AcDbEntity
  8
0
100
AcDbBlockEnd
  0
BLOCK
  5
42A
330
429
100
AcDbEntity
  8
0
100
AcDbBlockBegin
  2
*D19
 70
     1
 10
0.0
 20
0.0
 30
0.0
  3
*D19
  1

  0
LINE
  5
501
330
429
100
AcDbEntity
  8
Bemaßungen(DIN)
  6
Continuous
 62
   250
420
  4144959
440
 16777216
370
    25
100
AcDbLine
 10
119.1754304717531
 20
424.7210500901088
 30
0.0
 11
119.1754304717531
 21
471.1717228763813
 31
0.0
  0
LINE
  5
502
330
429
100
AcDbEntity
  8
Bemaßungen(DIN)
  6
Continuous
 62
   250
420
  4144959
440
 16777216
370
    25
100
AcDbLine
 10
151.6754304717533
 20
424.7210500901088
 30
0.0
 11
151.6754304717533
 21
471.1717228763813
 31
0.0
  0
LINE
  5
503
330
429
100
AcDbEntity
  8
Bemaßungen(DIN)
  6
Continuous
 62
   250
420
  4144959
440
 16777216
370
    25
100
AcDbLine
 10
124.1754304717531
 20
464.8217228763813
 30
0.0
 11
146.6754304717533
 21
464.8217228763813
 31
0.0
  0
SOLID
  5
504
330
429
100
AcDbEntity
  8
Bemaßungen(DIN)
  6
Continuous
 62
   250
420
  4144959
440
 16777216
100
AcDbTrace
 10
124.1754304717531
 20
465.6550562097146
 30
0.0
 11
124.1754304717531
 21
463.9883895430481
 31
0.0
 12
119.1754304717531
 22
464.8217228763813
 32
0.0
 13
119.1754304717531
 23
464.8217228763813
 33
0.0
  0
SOLID
  5
505
330
429
100
AcDbEntity
  8
Bemaßungen(DIN)
  6
Continuous
 62
   250
420
  4144959
440
 16777216
100
AcDbTrace
 10
146.6754304717533
 20
465.6550562097146
 30
0.0
 11
146.6754304717533
 21
463.9883895430481
 31
0.0
 12
151.6754304717533
 22
464.8217228763813
 32
0.0
 13
151.6754304717533
 23
464.8217228763813
 33
0.0
  0
MTEXT
  5
506
330
429
100
AcDbEntity
  8
Bemaßungen(DIN)
  6
Continuous
 62
   250
420
  4144959
440
 16777216
370
    25
100
AcDbMText
 10
126.2901507461168
 20
473.5745196438005
 30
0.0
 40
7.0
 41
0.0
 46
0.0
 71
     1
 72
     1
  1
\A1;32.5
  7
STANDARD-DIN~0
 73
     1
 44
1.0
  0
POINT
  5
507
330
429
100
AcDbEntity
  8
Defpoints
  6
Continuous
 62
     0
440
 16777216
100
AcDbPoint
 10
119.1754304717531
 20
424.7210500901088
 30
0.0
  0
POINT
  5
508
330
429
100
AcDbEntity
  8
Defpoints
  6
Continuous
 62
     0
440
 16777216
100
AcDbPoint
 10
151.6754304717533
 20
424.7210500901088
 30
0.0
  0
POINT
  5
509
330
429
100
AcDbEntity
  8
Defpoints
  6
Continuous
 62
     0
440
 16777216
100
AcDbPoint
 10
151.6754304717533
 20
464.8217228763813
 30
0.0
  0
ENDBLK
  5
42B
330
429
100
AcDbEntity
  8
0
100
AcDbBlockEnd
  0
BLOCK
  5
50C
330
50B
100
AcDbEntity
  8
0
100
AcDbBlockBegin
  2
*D20
 70
     1
 10
0.0
 20
0.0
 30
0.0
  3
*D20
  1

  0
LINE
  5
5EC
330
50B
100
AcDbEntity
  8
Bemaßungen(DIN)
  6
Continuous
 62
   250
420
  4144959
440
 16777216
370
    25
100
AcDbLine
 10
147.4254304717122
 20
194.1539480119218
 30
0.0
 11
64.90009407857602
 21
194.1539480119218
 31
0.0
  0
LINE
  5
5ED
330
50B
100
AcDbEntity
  8
Bemaßungen(DIN)
  6
Continuous
 62
   250
420
  4144959
440
 16777216
370
    25
100
AcDbLine
 10
121.1246233508286
 20
252.8539480119277
 30
0.0
 11
64.90009407857602
 21
252.8539480119277
 31
0.0
  0
LINE
  5
5EE
330
50B
100
AcDbEntity
  8
Bemaßungen(DIN)
  6
Continuous
 62
   250
420
  4144959
440
 16777216
370
    25
100
AcDbLine
 10
71.25009407857601
 20
199.1539480119218
 30
0.0
 11
71.25009407857603
 21
247.8539480119277
 31
0.0
  0
SOLID
  5
5EF
330
50B
100
AcDbEntity
  8
Bemaßungen(DIN)
  6
Continuous
 62
   250
420
  4144959
440
 16777216
100
AcDbTrace
 10
70.4167607452427
 20
199.1539480119218
 30
0.0
 11
72.08342741190934
 21
199.1539480119218
 31
0.0
 12
71.25009407857601
 22
194.1539480119218
 32
0.0
 13
71.25009407857601
 23
194.1539480119218
 33
0.0
  0
SOLID
  5
5F0
330
50B
100
AcDbEntity
  8
Bemaßungen(DIN)
  6
Continuous
 62
   250
420
  4144959
440
 16777216
100
AcDbTrace
 10
70.4167607452427
 20
247.8539480119277
 30
0.0
 11
72.08342741190936
 21
247.8539480119277
 31
0.0
 12
71.25009407857603
 22
252.8539480119277
 32
0.0
 13
71.25009407857603
 23
252.8539480119277
 33
0.0
  0
MTEXT
  5
5F1
330
50B
100
AcDbEntity
  8
Bemaßungen(DIN)
  6
Continuous
 62
   250
420
  4144959
440
 16777216
370
    25
100
AcDbMText
 10
62.50207220886535
 20
218.4831430713765
 30
0.0
 40
7.0
 41
0.0
 46
0.0
 71
     1
 72
     1
  1
\A1;60
  7
STANDARD-DIN~0
 11
0.0000000000000001
 21
1.0
 31
0.0
 73
     1
 44
1.0
  0
POINT
  5
5F2
330
50B
100
AcDbEntity
  8
Defpoints
  6
Continuous
 62
     0
440
 16777216
100
AcDbPoint
 10
147.4254304717122
 20
194.1539480119218
 30
0.0
  0
POINT
  5
5F3
330
50B
100
AcDbEntity
  8
Defpoints
  6
Continuous
 62
     0
440
 16777216
100
AcDbPoint
 10
121.1246233508286
 20
252.8539480119277
 30
0.0
  0
POINT
  5
5F4
330
50B
100
AcDbEntity
  8
Defpoints
  6
Continuous
 62
     0
440
 16777216
100
AcDbPoint
 10
71.25009407857603
 20
252.8539480119277
 30
0.0
  0
ENDBLK
  5
50D
330
50B
100
AcDbEntity
  8
0
100
AcDbBlockEnd
  0
BLOCK
  5
5F7
330
5F6
100
AcDbEntity
  8
0
100
AcDbBlockBegin
  2
*D21
 70
     1
 10
0.0
 20
0.0
 30
0.0
  3
*D21
  1

  0
LINE
  5
6D4
330
5F6
100
AcDbEntity
  8
Bemaßungen(DIN)
  6
Continuous
 62
   250
420
  4144959
440
 16777216
370
    25
100
AcDbLine
 10
119.1754304717122
 20
266.8539480119277
 30
0.0
 11
64.90009407857602
 21
266.8539480119277
 31
0.0
  0
LINE
  5
6D5
330
5F6
100
AcDbEntity
  8
Bemaßungen(DIN)
  6
Continuous
 62
   250
420
  4144959
440
 16777216
370
    25
100
AcDbLine
 10
121.1246233508287
 20
252.8539480119277
 30
0.0
 11
64.90009407857602
 21
252.8539480119277
 31
0.0
  0
LINE
  5
6D6
330
5F6
100
AcDbEntity
  8
Bemaßungen(DIN)
  6
Continuous
 62
   250
420
  4144959
440
 16777216
370
    25
100
AcDbLine
 10
71.25009407857603
 20
261.8539480119277
 30
0.0
 11
71.25009407857603
 21
257.8539480119277
 31
0.0
  0
SOLID
  5
6D7
330
5F6
100
AcDbEntity
  8
Bemaßungen(DIN)
  6
Continuous
 62
   250
420
  4144959
440
 16777216
100
AcDbTrace
 10
70.4167607452427
 20
271.8539480119277
 30
0.0
 11
72.08342741190936
 21
271.8539480119277
 31
0.0
 12
71.25009407857603
 22
266.8539480119277
 32
0.0
 13
71.25009407857603
 23
266.8539480119277
 33
0.0
  0
LINE
  5
6D8
330
5F6
100
AcDbEntity
  8
Bemaßungen(DIN)
  6
Continuous
 62
   250
420
  4144959
440
 16777216
370
    25
100
AcDbLine
 10
71.25009407857603
 20
271.8539480119277
 30
0.0
 11
71.25009407857603
 21
276.8539480119277
 31
0.0
  0
LINE
  5
6D9
330
5F6
100
AcDbEntity
  8
Bemaßungen(DIN)
  6
Continuous
 62
   250
420
  4144959
440
 16777216
370
    25
100
AcDbLine
 10
71.25009407857603
 20
266.8539480119277
 30
0.0
 11
71.25009407857603
 21
261.8539480119277
 31
0.0
  0
SOLID
  5
6DA
330
5F6
100
AcDbEntity
  8
Bemaßungen(DIN)
  6
Continuous
 62
   250
420
  4144959
440
 16777216
100
AcDbTrace
 10
70.4167607452427
 20
247.8539480119277
 30
0.0
 11
72.08342741190936
 21
247.8539480119277
 31
0.0
 12
71.25009407857603
 22
252.8539480119277
 32
0.0
 13
71.25009407857603
 23
252.8539480119277
 33
0.0
  0
LINE
  5
6DB
330
5F6
100
AcDbEntity
  8
Bemaßungen(DIN)
  6
Continuous
 62
   250
420
  4144959
440
 16777216
370
    25
100
AcDbLine
 10
71.25009407857603
 20
247.8539480119277
 30
0.0
 11
71.25009407857603
 21
242.8539480119277
 31
0.0
  0
LINE
  5
6DC
330
5F6
100
AcDbEntity
  8
Bemaßungen(DIN)
  6
Continuous
 62
   250
420
  4144959
440
 16777216
370
    25
100
AcDbLine
 10
71.25009407857603
 20
252.8539480119277
 30
0.0
 11
71.25009407857603
 21
257.8539480119277
 31
0.0
  0
MTEXT
  5
6DD
330
5F6
100
AcDbEntity
  8
Bemaßungen(DIN)
  6
Continuous
 62
   250
420
  4144959
440
 16777216
370
    25
100
AcDbMText
 10
62.62144465157928
 20
255.1840980529584
 30
0.0
 40
7.0
 41
0.0
 46
0.0
 71
     1
 72
     1
  1
\A1;14
  7
STANDARD-DIN~0
 11
0.0000000000000001
 21
1.0
 31
0.0
 73
     1
 44
1.0
  0
POINT
  5
6DE
330
5F6
100
AcDbEntity
  8
Defpoints
  6
Continuous
 62
     0
440
 16777216
100
AcDbPoint
 10
119.1754304717122
 20
266.8539480119277
 30
0.0
  0
POINT
  5
6DF
330
5F6
100
AcDbEntity
  8
Defpoints
  6
Continuous
 62
     0
440
 16777216
100
AcDbPoint
 10
121.1246233508287
 20
252.8539480119277
 30
0.0
  0
POINT
  5
6E0
330
5F6
100
AcDbEntity
  8
Defpoints
  6
Continuous
 62
     0
440
 16777216
100
AcDbPoint
 10
71.25009407857603
 20
252.8539480119277
 30
0.0
  0
ENDBLK
  5
5F8
330
5F6
100
AcDbEntity
  8
0
100
AcDbBlockEnd
  0
BLOCK
  5
6E3
330
6E2
100
AcDbEntity
  8
0
100
AcDbBlockBegin
  2
*D22
 70
     1
 10
0.0
 20
0.0
 30
0.0
  3
*D22
  1

  0
LINE
  5
7BA
330
6E2
100
AcDbEntity
  8
Bemaßungen(DIN)
  6
Continuous
 62
   250
420
  4144959
440
 16777216
370
    25
100
AcDbLine
 10
125.4254304717122
 20
224.1539480119218
 30
0.0
 11
125.4254304717122
 21
148.6843927735405
 31
0.0
  0
LINE
  5
7BB
330
6E2
100
AcDbEntity
  8
Bemaßungen(DIN)
  6
Continuous
 62
   250
420
  4144959
440
 16777216
370
    25
100
AcDbLine
 10
287.4254304717123
 20
194.1539480119217
 30
0.0
 11
287.4254304717123
 21
148.6843927735405
 31
0.0
  0
LINE
  5
7BC
330
6E2
100
AcDbEntity
  8
Bemaßungen(DIN)
  6
Continuous
 62
   250
420
  4144959
440
 16777216
370
    25
100
AcDbLine
 10
130.4254304717122
 20
155.0343927735404
 30
0.0
 11
282.4254304717123
 21
155.0343927735404
 31
0.0
  0
SOLID
  5
7BD
330
6E2
100
AcDbEntity
  8
Bemaßungen(DIN)
  6
Continuous
 62
   250
420
  4144959
440
 16777216
100
AcDbTrace
 10
130.4254304717122
 20
155.8677261068738
 30
0.0
 11
130.4254304717122
 21
154.2010594402071
 31
0.0
 12
125.4254304717122
 22
155.0343927735404
 32
0.0
 13
125.4254304717122
 23
155.0343927735404
 33
0.0
  0
SOLID
  5
7BE
330
6E2
100
AcDbEntity
  8
Bemaßungen(DIN)
  6
Continuous
 62
   250
420
  4144959
440
 16777216
100
AcDbTrace
 10
282.4254304717123
 20
155.8677261068738
 30
0.0
 11
282.4254304717123
 21
154.2010594402071
 31
0.0
 12
287.4254304717123
 22
155.0343927735404
 32
0.0
 13
287.4254304717123
 23
155.0343927735404
 33
0.0
  0
MTEXT
  5
7BF
330
6E2
100
AcDbEntity
  8
Bemaßungen(DIN)
  6
Continuous
 62
   250
420
  4144959
440
 16777216
370
    25
100
AcDbMText
 10
199.0577633074079
 20
163.7824146432511
 30
0.0
 40
7.0
 41
0.0
 46
0.0
 71
     1
 72
     1
  1
\A1;162
  7
STANDARD-DIN~0
 73
     1
 44
1.0
  0
POINT
  5
7C0
330
6E2
100
AcDbEntity
  8
Defpoints
  6
Continuous
 62
     0
440
 16777216
100
AcDbPoint
 10
125.4254304717122
 20
224.1539480119218
 30
0.0
  0
POINT
  5
7C1
330
6E2
100
AcDbEntity
  8
Defpoints
  6
Continuous
 62
     0
440
 16777216
100
AcDbPoint
 10
287.4254304717123
 20
194.1539480119217
 30
0.0
  0
POINT
  5
7C2
330
6E2
100
AcDbEntity
  8
Defpoints
  6
Continuous
 62
     0
440
 16777216
100
AcDbPoint
 10
287.4254304717123
 20
155.0343927735404
 30
0.0
  0
ENDBLK
  5
6E4
330
6E2
100
AcDbEntity
  8
0
100
AcDbBlockEnd
  0
BLOCK
  5
7C5
330
7C4
100
AcDbEntity
  8
0
100
AcDbBlockBegin
  2
*D23
 70
     1
 10
0.0
 20
0.0
 30
0.0
  3
*D23
  1

  0
LINE
  5
8A6
330
7C4
100
AcDbEntity
  8
Bemaßungen(DIN)
  6
Continuous
 62
   250
420
  4144959
440
 16777216
370
    25
100
AcDbLine
 10
267.3254304717123
 20
234.1539480119218
 30
0.0
 11
240.9754304717123
 21
234.1539480119218
 31
0.0
  0
LINE
  5
8A7
330
7C4
100
AcDbEntity
  8
Bemaßungen(DIN)
  6
Continuous
 62
   250
420
  4144959
440
 16777216
370
    25
100
AcDbLine
 10
149.7262375925958
 20
252.8539480119277
 30
0.0
 11
253.6754304717123
 21
252.8539480119277
 31
0.0
  0
LINE
  5
8A8
330
7C4
100
AcDbEntity
  8
Bemaßungen(DIN)
  6
Continuous
 62
   250
420
  4144959
440
 16777216
370
    25
100
AcDbLine
 10
247.3254304717123
 20
239.1539480119218
 30
0.0
 11
247.3254304717123
 21
247.8539480119277
 31
0.0
  0
SOLID
  5
8A9
330
7C4
100
AcDbEntity
  8
Bemaßungen(DIN)
  6
Continuous
 62
   250
420
  4144959
440
 16777216
100
AcDbTrace
 10
246.492097138379
 20
239.1539480119218
 30
0.0
 11
248.1587638050456
 21
239.1539480119218
 31
0.0
 12
247.3254304717123
 22
234.1539480119218
 32
0.0
 13
247.3254304717123
 23
234.1539480119218
 33
0.0
  0
SOLID
  5
8AA
330
7C4
100
AcDbEntity
  8
Bemaßungen(DIN)
  6
Continuous
 62
   250
420
  4144959
440
 16777216
100
AcDbTrace
 10
246.492097138379
 20
247.8539480119277
 30
0.0
 11
248.1587638050456
 21
247.8539480119277
 31
0.0
 12
247.3254304717123
 22
252.8539480119277
 32
0.0
 13
247.3254304717123
 23
252.8539480119277
 33
0.0
  0
MTEXT
  5
8AB
330
7C4
100
AcDbEntity
  8
Bemaßungen(DIN)
  6
Continuous
 62
   250
420
  4144959
440
 16777216
370
    25
100
AcDbMText
 10
238.5774086020016
 20
238.4425564408537
 30
0.0
 40
7.0
 41
0.0
 46
0.0
 71
     1
 72
     1
  1
\A1;20
  7
STANDARD-DIN~0
 11
0.0000000000000001
 21
1.0
 31
0.0
 73
     1
 44
1.0
  0
POINT
  5
8AC
330
7C4
100
AcDbEntity
  8
Defpoints
  6
Continuous
 62
     0
440
 16777216
100
AcDbPoint
 10
267.3254304717123
 20
234.1539480119218
 30
0.0
  0
POINT
  5
8AD
330
7C4
100
AcDbEntity
  8
Defpoints
  6
Continuous
 62
     0
440
 16777216
100
AcDbPoint
 10
149.7262375925958
 20
252.8539480119277
 30
0.0
  0
POINT
  5
8AE
330
7C4
100
AcDbEntity
  8
Defpoints
  6
Continuous
 62
     0
440
 16777216
100
AcDbPoint
 10
247.3254304717123
 20
252.8539480119277
 30
0.0
  0
ENDBLK
  5
7C6
330
7C4
100
AcDbEntity
  8
0
100
AcDbBlockEnd
  0
BLOCK
  5
8B1
330
8B0
100
AcDbEntity
  8
0
100
AcDbBlockBegin
  2
*D24
 70
     1
 10
0.0
 20
0.0
 30
0.0
  3
*D24
  1

  0
LINE
  5
996
330
8B0
100
AcDbEntity
  8
Bemaßungen(DIN)
  6
Continuous
 62
   250
420
  4144959
440
 16777216
370
    25
100
AcDbLine
 10
277.4254304717532
 20
414.8210500901089
 30
0.0
 11
317.7754304717534
 21
414.8210500901089
 31
0.0
  0
LINE
  5
997
330
8B0
100
AcDbEntity
  8
Bemaßungen(DIN)
  6
Continuous
 62
   250
420
  4144959
440
 16777216
370
    25
100
AcDbLine
 10
277.4254304717531
 20
394.8210500901089
 30
0.0
 11
317.7754304717534
 21
394.8210500901089
 31
0.0
  0
LINE
  5
998
330
8B0
100
AcDbEntity
  8
Bemaßungen(DIN)
  6
Continuous
 62
   250
420
  4144959
440
 16777216
370
    25
100
AcDbLine
 10
311.4254304717533
 20
399.8210500901089
 30
0.0
 11
311.4254304717533
 21
409.8210500901088
 31
0.0
  0
LINE
  5
999
330
8B0
100
AcDbEntity
  8
Bemaßungen(DIN)
  6
Continuous
 62
   250
420
  4144959
440
 16777216
370
    25
100
AcDbLine
 10
311.4254304717533
 20
414.8210500901089
 30
0.0
 11
311.4254304717533
 21
440.9914307127697
 31
0.0
  0
SOLID
  5
99A
330
8B0
100
AcDbEntity
  8
Bemaßungen(DIN)
  6
Continuous
 62
   250
420
  4144959
440
 16777216
100
AcDbTrace
 10
310.59209713842
 20
399.8210500901089
 30
0.0
 11
312.2587638050867
 21
399.8210500901089
 31
0.0
 12
311.4254304717533
 22
394.8210500901089
 32
0.0
 13
311.4254304717533
 23
394.8210500901089
 33
0.0
  0
SOLID
  5
99B
330
8B0
100
AcDbEntity
  8
Bemaßungen(DIN)
  6
Continuous
 62
   250
420
  4144959
440
 16777216
100
AcDbTrace
 10
310.59209713842
 20
409.8210500901088
 30
0.0
 11
312.2587638050867
 21
409.8210500901088
 31
0.0
 12
311.4254304717533
 22
414.8210500901089
 32
0.0
 13
311.4254304717533
 23
414.8210500901089
 33
0.0
  0
MTEXT
  5
99C
330
8B0
100
AcDbEntity
  8
Bemaßungen(DIN)
  6
Continuous
 62
   250
420
  4144959
440
 16777216
370
    25
100
AcDbMText
 10
299.2932362593249
 20
421.4210500901088
 30
0.0
 40
7.0
 41
0.0
 46
0.0
 71
     1
 72
     1
  1
\A1;{\fAIGDT|b0|i0;\H7.0000;n\fArial|b0|i0;\H7.0000;}20
  7
STANDARD-DIN~0
 11
0.0000000000000001
 21
1.0
 31
0.0
 73
     1
 44
1.0
  0
POINT
  5
99D
330
8B0
100
AcDbEntity
  8
Defpoints
  6
Continuous
 62
     0
440
 16777216
100
AcDbPoint
 10
277.4254304717532
 20
414.8210500901089
 30
0.0
  0
POINT
  5
99E
330
8B0
100
AcDbEntity
  8
Defpoints
  6
Continuous
 62
     0
440
 16777216
100
AcDbPoint
 10
277.4254304717531
 20
394.8210500901089
 30
0.0
  0
POINT
  5
99F
330
8B0
100
AcDbEntity
  8
Defpoints
  6
Continuous
 62
     0
440
 16777216
100
AcDbPoint
 10
311.4254304717533
 20
394.8210500901089
 30
0.0
  0
ENDBLK
  5
8B2
330
8B0
100
AcDbEntity
  8
0
100
AcDbBlockEnd
  0
BLOCK
  5
9A3
330
9A2
100
AcDbEntity
  8
0
100
AcDbBlockBegin
  2
*D25
 70
     1
 10
0.0
 20
0.0
 30
0.0
  3
*D25
  1

  0
LINE
  5
A83
330
9A2
100
AcDbEntity
  8
Bemaßungen(DIN)
  6
Continuous
 62
   250
420
  4144959
440
 16777216
370
    25
100
AcDbLine
 10
125.4254304717122
 20
224.1539480119233
 30
0.0
 11
88.90009407857602
 21
224.1539480119233
 31
0.0
  0
LINE
  5
A84
330
9A2
100
AcDbEntity
  8
Bemaßungen(DIN)
  6
Continuous
 62
   250
420
  4144959
440
 16777216
370
    25
100
AcDbLine
 10
121.1246233508287
 20
252.8539480119277
 30
0.0
 11
88.90009407857602
 21
252.8539480119277
 31
0.0
  0
LINE
  5
A85
330
9A2
100
AcDbEntity
  8
Bemaßungen(DIN)
  6
Continuous
 62
   250
420
  4144959
440
 16777216
370
    25
100
AcDbLine
 10
95.250094078576
 20
229.1539480119233
 30
0.0
 11
95.250094078576
 21
247.8539480119277
 31
0.0
  0
SOLID
  5
A86
330
9A2
100
AcDbEntity
  8
Bemaßungen(DIN)
  6
Continuous
 62
   250
420
  4144959
440
 16777216
100
AcDbTrace
 10
94.41676074524272
 20
229.1539480119233
 30
0.0
 11
96.08342741190936
 21
229.1539480119233
 31
0.0
 12
95.250094078576
 22
224.1539480119233
 32
0.0
 13
95.250094078576
 23
224.1539480119233
 33
0.0
  0
SOLID
  5
A87
330
9A2
100
AcDbEntity
  8
Bemaßungen(DIN)
  6
Continuous
 62
   250
420
  4144959
440
 16777216
100
AcDbTrace
 10
94.41676074524272
 20
247.8539480119277
 30
0.0
 11
96.08342741190936
 21
247.8539480119277
 31
0.0
 12
95.250094078576
 22
252.8539480119277
 32
0.0
 13
95.250094078576
 23
252.8539480119277
 33
0.0
  0
MTEXT
  5
A88
330
9A2
100
AcDbEntity
  8
Bemaßungen(DIN)
  6
Continuous
 62
   250
420
  4144959
440
 16777216
370
    25
100
AcDbMText
 10
86.49729731115678
 20
234.1346301110657
 30
0.0
 40
7.0
 41
0.0
 46
0.0
 71
     1
 72
     1
  1
\A1;30
  7
STANDARD-DIN~0
 11
0.0000000000000001
 21
1.0
 31
0.0
 73
     1
 44
1.0
  0
POINT
  5
A89
330
9A2
100
AcDbEntity
  8
Defpoints
  6
Continuous
 62
     0
440
 16777216
100
AcDbPoint
 10
125.4254304717122
 20
224.1539480119233
 30
0.0
  0
POINT
  5
A8A
330
9A2
100
AcDbEntity
  8
Defpoints
  6
Continuous
 62
     0
440
 16777216
100
AcDbPoint
 10
121.1246233508287
 20
252.8539480119277
 30
0.0
  0
POINT
  5
A8B
330
9A2
100
AcDbEntity
  8
Defpoints
  6
Continuous
 62
     0
440
 16777216
100
AcDbPoint
 10
95.250094078576
 20
252.8539480119277
 30
0.0
  0
ENDBLK
  5
9A4
330
9A2
100
AcDbEntity
  8
0
100
AcDbBlockEnd
  0
BLOCK
  5
A8E
330
A8D
100
AcDbEntity
  8
0
100
AcDbBlockBegin
  2
*D26
 70
     1
 10
0.0
 20
0.0
 30
0.0
  3
*D26
  1

  0
LINE
  5
B65
330
A8D
100
AcDbEntity
  8
Bemaßungen(DIN)
  6
Continuous
 62
   250
420
  4144959
440
 16777216
370
    25
100
AcDbLine
 10
287.4254304717123
 20
194.1539480119217
 30
0.0
 11
325.8754304717123
 21
194.1539480119217
 31
0.0
  0
LINE
  5
B66
330
A8D
100
AcDbEntity
  8
Bemaßungen(DIN)
  6
Continuous
 62
   250
420
  4144959
440
 16777216
370
    25
100
AcDbLine
 10
287.5254304717123
 20
234.1539480119218
 30
0.0
 11
325.8754304717123
 21
234.1539480119217
 31
0.0
  0
LINE
  5
B67
330
A8D
100
AcDbEntity
  8
Bemaßungen(DIN)
  6
Continuous
 62
   250
420
  4144959
440
 16777216
370
    25
100
AcDbLine
 10
319.5254304717123
 20
199.1539480119217
 30
0.0
 11
319.5254304717123
 21
229.1539480119217
 31
0.0
  0
SOLID
  5
B68
330
A8D
100
AcDbEntity
  8
Bemaßungen(DIN)
  6
Continuous
 62
   250
420
  4144959
440
 16777216
100
AcDbTrace
 10
318.692097138379
 20
199.1539480119217
 30
0.0
 11
320.3587638050456
 21
199.1539480119217
 31
0.0
 12
319.5254304717123
 22
194.1539480119217
 32
0.0
 13
319.5254304717123
 23
194.1539480119217
 33
0.0
  0
SOLID
  5
B69
330
A8D
100
AcDbEntity
  8
Bemaßungen(DIN)
  6
Continuous
 62
   250
420
  4144959
440
 16777216
100
AcDbTrace
 10
318.692097138379
 20
229.1539480119217
 30
0.0
 11
320.3587638050456
 21
229.1539480119217
 31
0.0
 12
319.5254304717123
 22
234.1539480119218
 32
0.0
 13
319.5254304717123
 23
234.1539480119218
 33
0.0
  0
MTEXT
  5
B6A
330
A8D
100
AcDbEntity
  8
Bemaßungen(DIN)
  6
Continuous
 62
   250
420
  4144959
440
 16777216
370
    25
100
AcDbMText
 10
310.7774086020016
 20
209.0113831798053
 30
0.0
 40
7.0
 41
0.0
 46
0.0
 71
     1
 72
     1
  1
\A1;40
  7
STANDARD-DIN~0
 11
0.0000000000000001
 21
1.0
 31
0.0
 73
     1
 44
1.0
  0
POINT
  5
B6B
330
A8D
100
AcDbEntity
  8
Defpoints
  6
Continuous
 62
     0
440
 16777216
100
AcDbPoint
 10
287.4254304717123
 20
194.1539480119217
 30
0.0
  0
POINT
  5
B6C
330
A8D
100
AcDbEntity
  8
Defpoints
  6
Continuous
 62
     0
440
 16777216
100
AcDbPoint
 10
287.5254304717123
 20
234.1539480119218
 30
0.0
  0
POINT
  5
B6D
330
A8D
100
AcDbEntity
  8
Defpoints
  6
Continuous
 62
     0
440
 16777216
100
AcDbPoint
 10
319.5254304717123
 20
234.1539480119218
 30
0.0
  0
ENDBLK
  5
A8F
330
A8D
100
AcDbEntity
  8
0
100
AcDbBlockEnd
  0
ENDSEC
  0
SECTION
  2
ENTITIES
  0
CIRCLE
  5
199
330
6C
100
AcDbEntity
  8
Verdeckte Kanten(DIN)
100
AcDbCircle
 10
135.4254304717532
 20
379.821050090109
 30
0.0
 40
3.649999999999991
  0
CIRCLE
  5
19A
330
6C
100
AcDbEntity
  8
Verdeckte Kanten(DIN)
100
AcDbCircle
 10
135.4254304717532
 20
429.8210500901087
 30
0.0
 40
3.649999999999991
  0
SPLINE
  5
19B
330
6C
100
AcDbEntity
  8
Verdeckte Kanten(DIN)
100
AcDbSpline
210
0.0
220
0.0
230
1.0
 70
     8
 71
     3
 72
    28
 73
    24
 74
     0
 42
0.0000000001
 43
0.0000000001
 40
-0.0000012116983804
 40
-0.0000012116983804
 40
-0.0000012116983804
 40
-0.0000012116983804
 40
0.0
 40
0.0
 40
0.0000012046688544
 40
0.0000012046688544
 40
0.0000036080647843
 40
0.0000036080647843
 40
0.0000084083573401
 40
0.0000084083573401
 40
0.0000180183886636
 40
0.0000180183886636
 40
0.0000373485416214
 40
0.0000373485416214
 40
0.0000766069530918
 40
0.0000766069530918
 40
0.0001579564043796
 40
0.0001579564043796
 40
0.0003340619219223
 40
0.0003340619219223
 40
0.0006995203427395
 40
0.0006995203427395
 40
0.0011970552950088
 40
0.0011970552950088
 40
0.0011970552950088
 40
0.0011970552950088
 10
150.236534696176
 20
414.8210500901443
 30
0.0
 10
150.2365346139245
 20
414.8210500962219
 30
0.0
 10
150.2365344848032
 20
414.8210502880255
 30
0.0
 10
150.2365342742108
 20
414.8210506812187
 30
0.0
 10
150.2365341669796
 20
414.8210509299088
 30
0.0
 10
150.236533851758
 20
414.8210517630189
 30
0.0
 10
150.2365336374299
 20
414.8210524669951
 30
0.0
 10
150.2365330072356
 20
414.8210548267456
 30
0.0
 10
150.2365325790974
 20
414.82105682123
 30
0.0
 10
150.236531319745
 20
414.8210635143074
 30
0.0
 10
150.2365304655536
 20
414.8210691745106
 30
0.0
 10
150.2365279510491
 20
414.8210882119678
 30
0.0
 10
150.2365262511793
 20
414.8211043296911
 30
0.0
 10
150.236521239288
 20
414.8211587930296
 30
0.0
 10
150.2365178749726
 20
414.8212050087273
 30
0.0
 10
150.236507922464
 20
414.8213627220489
 30
0.0
 10
150.2365013475176
 20
414.8214971790649
 30
0.0
 10
150.236481752226
 20
414.821966283836
 30
0.0
 10
150.2364693308253
 20
414.8223701533598
 30
0.0
 10
150.2364352781911
 20
414.8237170296146
 30
0.0
 10
150.2364133929782
 20
414.8249591467361
 30
0.0
 10
150.2363720318501
 20
414.8286967566225
 30
0.0
 10
150.2363571332206
 20
414.831406259849
 30
0.0
 10
150.2363571332206
 20
414.8346139968698
 30
0.0
  0
SPLINE
  5
19C
330
6C
100
AcDbEntity
  8
Verdeckte Kanten(DIN)
100
AcDbSpline
210
0.0
220
0.0
230
1.0
 70
     8
 71
     3
 72
    28
 73
    24
 74
     0
 42
0.0000000001
 43
0.0000000001
 40
0.0
 40
0.0
 40
0.0
 40
0.0
 40
0.0009623211026792
 40
0.0009623211026792
 40
0.0016691827005179
 40
0.0016691827005179
 40
0.0020098020960183
 40
0.0020098020960183
 40
0.0021671464056915
 40
0.0021671464056915
 40
0.0022430791580098
 40
0.0022430791580098
 40
0.0022804670940853
 40
0.0022804670940853
 40
0.0022990546224918
 40
0.0022990546224918
 40
0.0023083392250539
 40
0.0023083392250539
 40
0.0023129878222456
 40
0.0023129878222456
 40
0.0023153180112852
 40
0.0023153180112852
 40
0.0023176605141888
 40
0.0023176605141888
 40
0.0023176605141888
 40
0.0023176605141888
 10
150.2363571332206
 20
394.8074861833478
 30
0.0
 10
150.2363571332206
 20
394.8106939203567
 30
0.0
 10
150.2363720318499
 20
394.8134034235698
 30
0.0
 10
150.2364133929776
 20
394.8171410334422
 30
0.0
 10
150.2364352781905
 20
394.8183831505768
 30
0.0
 10
150.2364693308251
 20
394.8197300268527
 30
0.0
 10
150.2364817522259
 20
394.8201338963803
 30
0.0
 10
150.2365013475178
 20
394.8206030011559
 30
0.0
 10
150.2365079224641
 20
394.8207374581707
 30
0.0
 10
150.2365178749727
 20
394.8208951714926
 30
0.0
 10
150.2365212392881
 20
394.8209413871893
 30
0.0
 10
150.2365262511785
 20
394.820995850518
 30
0.0
 10
150.2365279510488
 20
394.8210119682487
 30
0.0
 10
150.2365304655549
 20
394.8210310057183
 30
0.0
 10
150.2365313197454
 20
394.8210366659126
 30
0.0
 10
150.2365325790959
 20
394.8210433589799
 30
0.0
 10
150.236533007235
 20
394.8210453534705
 30
0.0
 10
150.2365336374305
 20
394.8210477132255
 30
0.0
 10
150.236533851758
 20
394.8210484171994
 30
0.0
 10
150.2365341669858
 20
394.8210492503259
 30
0.0
 10
150.2365342742133
 20
394.821049499002
 30
0.0
 10
150.2365344847438
 20
394.8210498920786
 30
0.0
 10
150.2365346126736
 20
394.8210500817123
 30
0.0
 10
150.2365346959968
 20
394.8210500900748
 30
0.0
  0
ARC
  5
19D
330
6C
100
AcDbEntity
  8
Verdeckte Kanten(DIN)
100
AcDbCircle
 10
135.4254304717532
 20
404.8210500901088
 30
0.0
 40
10.39999999999998
100
AcDbArc
 50
285.9423686056284
 51
74.0576313943713
  0
ARC
  5
19E
330
6C
100
AcDbEntity
  8
Sichtbare Kanten(DIN)
100
AcDbCircle
 10
135.4254304717532
 20
404.8210500901088
 30
0.0
 40
10.39999999999998
100
AcDbArc
 50
74.05763139437091
 51
195.9423686056281
  0
SPLINE
  5
19F
330
6C
100
AcDbEntity
  8
Sichtbare Kanten(DIN)
100
AcDbSpline
210
0.0
220
0.0
230
1.0
 70
     8
 71
     3
 72
    10
 73
     6
 74
     0
 42
0.0000000001
 43
0.0000000001
 40
0.0
 40
0.0
 40
0.0
 40
0.0
 40
0.0354338992975095
 40
0.0684455786844918
 40
0.0960338296174126
 40
0.0960338296174126
 40
0.0960338296174126
 40
0.0960338296174126
 10
132.8225319210295
 20
381.3286703389002
 30
0.0
 10
132.9402517594157
 20
381.3272399727297
 30
0.0
 10
133.1676442457277
 20
381.3244770185463
 30
0.0
 10
133.4910577353207
 20
381.2611725149894
 30
0.0
 10
133.6522184997186
 20
381.1355199315649
 30
0.0
 10
133.7255872904958
 20
381.0783163179042
 30
0.0
  0
SPLINE
  5
1A0
330
6C
100
AcDbEntity
  8
Sichtbare Kanten(DIN)
100
AcDbSpline
210
0.0
220
0.0
230
1.0
 70
     8
 71
     3
 72
    10
 73
     6
 74
     0
 42
0.0000000001
 43
0.0000000001
 40
0.0
 40
0.0
 40
0.0
 40
0.0
 40
0.0723321057415699
 40
0.1345901391067777
 40
0.2030247413826518
 40
0.2030247413826518
 40
0.2030247413826518
 40
0.2030247413826518
 10
131.4324993510421
 20
380.0738697212245
 30
0.0
 10
131.4972726761367
 20
380.3098391189073
 30
0.0
 10
131.6177980050416
 20
380.7489132165498
 30
0.0
 10
132.1533414095757
 20
381.2351060085632
 30
0.0
 10
132.5925493883675
 20
381.296514829685
 30
0.0
 10
132.8225319210295
 20
381.3286703389002
 30
0.0
  0
SPLINE
  5
1A1
330
6C
100
AcDbEntity
  8
Sichtbare Kanten(DIN)
100
AcDbSpline
210
0.0
220
0.0
230
1.0
 70
     8
 71
     3
 72
    13
 73
     9
 74
     0
 42
0.0000000001
 43
0.0000000001
 40
0.0
 40
0.0
 40
0.0
 40
0.0
 40
0.0186749164535748
 40
0.038933954733922
 40
0.0619956196745443
 40
0.0740314537115046
 40
0.0845940360920342
 40
0.0958450056458658
 40
0.0958450056458658
 40
0.0958450056458658
 40
0.0958450056458658
 10
131.5946504871099
 20
379.1574389407883
 30
0.0
 10
131.5590132501711
 20
379.2088494928104
 30
0.0
 10
131.4847158056141
 20
379.3160315576002
 30
0.0
 10
131.4225485991081
 20
379.5160558939022
 30
0.0
 10
131.402066299375
 20
379.7002009623017
 30
0.0
 10
131.4051807830791
 20
379.8525298107295
 30
0.0
 10
131.4148916252537
 20
379.9650364696415
 30
0.0
 10
131.426507914365
 20
380.0368366856659
 30
0.0
 10
131.4324993510421
 20
380.0738697212245
 30
0.0
  0
SPLINE
  5
1A2
330
6C
100
AcDbEntity
  8
Sichtbare Kanten(DIN)
100
AcDbSpline
210
0.0
220
0.0
230
1.0
 70
     8
 71
     3
 72
    10
 73
     6
 74
     0
 42
0.0000000001
 43
0.0000000001
 40
0.0
 40
0.0
 40
0.0
 40
0.0
 40
0.0343803142273133
 40
0.062320419931901
 40
0.0875627097703437
 40
0.0875627097703437
 40
0.0875627097703437
 40
0.0875627097703437
 10
132.3800396537768
 20
378.829694604851
 30
0.0
 10
132.2656509713319
 20
378.8397063148796
 30
0.0
 10
132.0583011874326
 20
378.8578543157703
 30
0.0
 10
131.7801378124381
 20
378.9702774868093
 30
0.0
 10
131.6543526689486
 20
379.0971979127887
 30
0.0
 10
131.5946504871099
 20
379.1574389407883
 30
0.0
  0
SPLINE
  5
1A3
330
6C
100
AcDbEntity
  8
Sichtbare Kanten(DIN)
100
AcDbSpline
210
0.0
220
0.0
230
1.0
 70
     8
 71
     3
 72
    10
 73
     6
 74
     0
 42
0.0000000001
 43
0.0000000001
 40
0.0
 40
0.0
 40
0.0
 40
0.0
 40
0.0253636577144429
 40
0.0591587427094875
 40
0.1036416293921764
 40
0.1036416293921764
 40
0.1036416293921764
 40
0.1036416293921764
 10
133.4076079399098
 20
378.9476039969407
 30
0.0
 10
133.3249961264493
 20
378.9295892965254
 30
0.0
 10
133.1323105496175
 20
378.8875714204425
 30
0.0
 10
132.7893996360167
 20
378.8401718386317
 30
0.0
 10
132.5283728761541
 20
378.8334910723019
 30
0.0
 10
132.3800396537768
 20
378.829694604851
 30
0.0
  0
SPLINE
  5
1A4
330
6C
100
AcDbEntity
  8
Sichtbare Kanten(DIN)
100
AcDbSpline
210
0.0
220
0.0
230
1.0
 70
     8
 71
     3
 72
    10
 73
     6
 74
     0
 42
0.0000000001
 43
0.0000000001
 40
0.0
 40
0.0
 40
0.0
 40
0.0
 40
0.0000629610420065
 40
0.0018692616811628
 40
0.004181264246394
 40
0.004181264246394
 40
0.004181264246394
 40
0.004181264246394
 10
133.4484076200856
 20
378.9567516556321
 30
0.0
 10
133.448202351228
 20
378.9567079491773
 30
0.0
 10
133.4421080872603
 20
378.9554103403919
 30
0.0
 10
133.4285254221788
 20
378.9522818733678
 30
0.0
 10
133.4151287755274
 20
378.949285917317
 30
0.0
 10
133.4076079399098
 20
378.9476039969407
 30
0.0
  0
SPLINE
  5
1A5
330
6C
100
AcDbEntity
  8
Sichtbare Kanten(DIN)
100
AcDbSpline
210
0.0
220
0.0
230
1.0
 70
     8
 71
     3
 72
    10
 73
     6
 74
     0
 42
0.0000000001
 43
0.0000000001
 40
0.0
 40
0.0
 40
0.0
 40
0.0
 40
0.0062279393423901
 40
0.0112592926308834
 40
0.0126740723008073
 40
0.0126740723008073
 40
0.0126740723008073
 40
0.0126740723008073
 10
133.5607984859711
 20
379.0123858825202
 30
0.0
 10
133.5443292537221
 20
378.9995167775675
 30
0.0
 10
133.514555054729
 20
378.9762511337333
 30
0.0
 10
133.4739993114779
 20
378.962294701579
 30
0.0
 10
133.453013523549
 20
378.9577492737314
 30
0.0
 10
133.4484076200856
 20
378.9567516556321
 30
0.0
  0
SPLINE
  5
1A6
330
6C
100
AcDbEntity
  8
Sichtbare Kanten(DIN)
100
AcDbSpline
210
0.0
220
0.0
230
1.0
 70
     8
 71
     3
 72
    10
 73
     6
 74
     0
 42
0.0000000001
 43
0.0000000001
 40
0.0
 40
0.0
 40
0.0
 40
0.0
 40
0.0014451006219226
 40
0.005817614222278
 40
0.0109995755152577
 40
0.0109995755152577
 40
0.0109995755152577
 40
0.0109995755152577
 10
133.6064432450856
 20
379.1109897863288
 30
0.0
 10
133.6055919473331
 20
379.106252892296
 30
0.0
 10
133.6021648351739
 20
379.0871833398534
 30
0.0
 10
133.5909823584167
 20
379.0516043439168
 30
0.0
 10
133.5714124265947
 20
379.0261767710607
 30
0.0
 10
133.5607984859711
 20
379.0123858825202
 30
0.0
  0
SPLINE
  5
1A7
330
6C
100
AcDbEntity
  8
Sichtbare Kanten(DIN)
100
AcDbSpline
210
0.0
220
0.0
230
1.0
 70
    24
 71
     3
 72
    10
 73
     6
 74
     0
 42
0.0000000001
 43
0.0000000001
 40
0.0
 40
0.0
 40
0.0
 40
0.0
 40
0.0282805628125049
 40
0.080801608035788
 40
0.109082170848312
 40
0.109082170848312
 40
0.109082170848312
 40
0.109082170848312
 10
133.7959064091481
 20
380.1852317093431
 30
0.0
 10
133.779533049291
 20
380.0923959876011
 30
0.0
 10
133.7327520211276
 20
379.8271510683383
 30
0.0
 10
133.6695976331063
 20
379.4690704273336
 30
0.0
 10
133.6228166049428
 20
379.2038255080707
 30
0.0
 10
133.6064432450856
 20
379.1109897863288
 30
0.0
  0
SPLINE
  5
1A8
330
6C
100
AcDbEntity
  8
Sichtbare Kanten(DIN)
100
AcDbSpline
210
0.0
220
0.0
230
1.0
 70
     8
 71
     3
 72
    10
 73
     6
 74
     0
 42
0.0000000001
 43
0.0000000001
 40
0.0
 40
0.0
 40
0.0
 40
0.0
 40
0.0011974721338972
 40
0.0024275869633851
 40
0.0037663461996526
 40
0.0037663461996526
 40
0.0037663461996526
 40
0.0037663461996526
 10
133.7871703015635
 20
380.2207560526048
 30
0.0
 10
133.7894695451273
 20
380.2174638761815
 30
0.0
 10
133.7941307088762
 20
380.2107897796911
 30
0.0
 10
133.7971779949134
 20
380.1982483050184
 30
0.0
 10
133.7963420557548
 20
380.1896912085689
 30
0.0
 10
133.7959064091481
 20
380.1852317093431
 30
0.0
  0
SPLINE
  5
1A9
330
6C
100
AcDbEntity
  8
Sichtbare Kanten(DIN)
100
AcDbSpline
210
0.0
220
0.0
230
1.0
 70
     8
 71
     3
 72
    10
 73
     6
 74
     0
 42
0.0000000001
 43
0.0000000001
 40
0.0
 40
0.0
 40
0.0
 40
0.0
 40
0.0013378531443935
 40
0.0025654958739356
 40
0.0037644824675515
 40
0.0037644824675515
 40
0.0037644824675515
 40
0.0037644824675515
 10
133.7536850069671
 20
380.2354409443692
 30
0.0
 10
133.7581504083001
 20
380.2351077262727
 30
0.0
 10
133.7667133576365
 20
380.2344687401066
 30
0.0
 10
133.7785411321728
 20
380.2293210696847
 30
0.0
 10
133.7843166461707
 20
380.2235884929097
 30
0.0
 10
133.7871703015635
 20
380.2207560526048
 30
0.0
  0
LINE
  5
1AA
330
6C
100
AcDbEntity
  8
Sichtbare Kanten(DIN)
100
AcDbLine
 10
132.7475173783862
 20
380.2354409443692
 30
0.0
 11
133.7536850069671
 21
380.2354409443692
 31
0.0
  0
SPLINE
  5
1AB
330
6C
100
AcDbEntity
  8
Sichtbare Kanten(DIN)
100
AcDbSpline
210
0.0
220
0.0
230
1.0
 70
     8
 71
     3
 72
    10
 73
     6
 74
     0
 42
0.0000000001
 43
0.0000000001
 40
0.0
 40
0.0
 40
0.0
 40
0.0
 40
0.002887171775603
 40
0.0058375627860816
 40
0.0087027008604811
 40
0.0087027008604811
 40
0.0087027008604811
 40
0.0087027008604811
 10
132.6858595398445
 20
380.182706282097
 30
0.0
 10
132.6888864337275
 20
380.1919644529801
 30
0.0
 10
132.695006500167
 20
380.2106835171768
 30
0.0
 10
132.7185917485451
 20
380.2308389574371
 30
0.0
 10
132.7379701947581
 20
380.2339220141147
 30
0.0
 10
132.7475173783862
 20
380.2354409443692
 30
0.0
  0
SPLINE
  5
1AC
330
6C
100
AcDbEntity
  8
Sichtbare Kanten(DIN)
100
AcDbSpline
210
0.0
220
0.0
230
1.0
 70
    24
 71
     3
 72
    10
 73
     6
 74
     0
 42
0.0000000001
 43
0.0000000001
 40
0.0
 40
0.0
 40
0.0
 40
0.0
 40
0.007630850476983
 40
0.021802429934259
 40
0.0294332804112467
 40
0.0294332804112467
 40
0.0294332804112467
 40
0.0294332804112467
 10
132.629327383269
 20
379.8938535257494
 30
0.0
 10
132.6342128782817
 20
379.9188161096312
 30
0.0
 10
132.6481714354609
 20
379.9901377778651
 30
0.0
 10
132.6670154876528
 20
380.086422029981
 30
0.0
 10
132.6809740448319
 20
380.1577436982151
 30
0.0
 10
132.6858595398445
 20
380.182706282097
 30
0.0
  0
SPLINE
  5
1AD
330
6C
100
AcDbEntity
  8
Sichtbare Kanten(DIN)
100
AcDbSpline
210
0.0
220
0.0
230
1.0
 70
     8
 71
     3
 72
    10
 73
     6
 74
     0
 42
0.0000000001
 43
0.0000000001
 40
0.0
 40
0.0
 40
0.0
 40
0.0
 40
0.001208614172212
 40
0.0024446859839358
 40
0.0037855685811102
 40
0.0037855685811102
 40
0.0037855685811102
 40
0.0037855685811102
 10
132.6385311625659
 20
379.8582356481451
 30
0.0
 10
132.6361857110877
 20
379.8615402451102
 30
0.0
 10
132.6314415234995
 20
379.8682245138115
 30
0.0
 10
132.6282321607235
 20
379.8807868855947
 30
0.0
 10
132.6289525425472
 20
379.8893814585448
 30
0.0
 10
132.629327383269
 20
379.8938535257494
 30
0.0
  0
SPLINE
  5
1AE
330
6C
100
AcDbEntity
  8
Sichtbare Kanten(DIN)
100
AcDbSpline
210
0.0
220
0.0
230
1.0
 70
     8
 71
     3
 72
    10
 73
     6
 74
     0
 42
0.0000000001
 43
0.0000000001
 40
0.0
 40
0.0
 40
0.0
 40
0.0
 40
0.0013458088946092
 40
0.0025859262922667
 40
0.0037986230102094
 40
0.0037986230102094
 40
0.0037986230102094
 40
0.0037986230102094
 10
132.6723531807951
 20
379.8434572220383
 30
0.0
 10
132.6678613837509
 20
379.8437932963623
 30
0.0
 10
132.659230547588
 20
379.8444390518139
 30
0.0
 10
132.6472930999168
 20
379.8496170001539
 30
0.0
 10
132.6414299598005
 20
379.8553842567275
 30
0.0
 10
132.6385311625659
 20
379.8582356481451
 30
0.0
  0
LINE
  5
1AF
330
6C
100
AcDbEntity
  8
Sichtbare Kanten(DIN)
100
AcDbLine
 10
133.1573474532561
 20
379.8434572220383
 30
0.0
 11
132.6723531807951
 21
379.8434572220383
 31
0.0
  0
SPLINE
  5
1B0
330
6C
100
AcDbEntity
  8
Sichtbare Kanten(DIN)
100
AcDbSpline
210
0.0
220
0.0
230
1.0
 70
    24
 71
     3
 72
    10
 73
     6
 74
     0
 42
0.0000000001
 43
0.0000000001
 40
0.0
 40
0.0
 40
0.0
 40
0.0
 40
0.0124984602829984
 40
0.0357098865228624
 40
0.048208346805891
 40
0.048208346805891
 40
0.048208346805891
 40
0.048208346805891
 10
133.0746069739266
 20
379.3685272448249
 30
0.0
 10
133.0817573857206
 20
379.4095705761889
 30
0.0
 10
133.1021871337032
 20
379.5268372372291
 30
0.0
 10
133.1297672934795
 20
379.6851472296338
 30
0.0
 10
133.1501970414621
 20
379.8024138906742
 30
0.0
 10
133.1573474532561
 20
379.8434572220383
 30
0.0
  0
SPLINE
  5
1B1
330
6C
100
AcDbEntity
  8
Sichtbare Kanten(DIN)
100
AcDbSpline
210
0.0
220
0.0
230
1.0
 70
     8
 71
     3
 72
    10
 73
     6
 74
     0
 42
0.0000000001
 43
0.0000000001
 40
0.0
 40
0.0
 40
0.0
 40
0.0
 40
0.0001061140021708
 40
0.0008753003865788
 40
0.0033406392921189
 40
0.0033406392921189
 40
0.0033406392921189
 40
0.0033406392921189
 10
133.0613625110359
 20
379.3385401346362
 30
0.0
 10
133.061683691428
 20
379.3386922255454
 30
0.0
 10
133.06433300552
 20
379.3399467747001
 30
0.0
 10
133.0703008688101
 20
379.350272657016
 30
0.0
 10
133.0727444719246
 20
379.3606316627572
 30
0.0
 10
133.0746069739266
 20
379.3685272448249
 30
0.0
  0
SPLINE
  5
1B2
330
6C
100
AcDbEntity
  8
Sichtbare Kanten(DIN)
100
AcDbSpline
210
0.0
220
0.0
230
1.0
 70
     8
 71
     3
 72
    10
 73
     6
 74
     0
 42
0.0000000001
 43
0.0000000001
 40
0.0
 40
0.0
 40
0.0
 40
0.0
 40
0.0015313901309452
 40
0.003066487739373
 40
0.004374818392879
 40
0.004374818392879
 40
0.004374818392879
 40
0.004374818392879
 10
133.0235372229501
 20
379.3175884419277
 30
0.0
 10
133.0284630047205
 20
379.3189875067295
 30
0.0
 10
133.038326493521
 20
379.3217890234524
 30
0.0
 10
133.0510205561237
 20
379.329332676674
 30
0.0
 10
133.0581034834998
 20
379.335638617535
 30
0.0
 10
133.0613625110359
 20
379.3385401346362
 30
0.0
  0
SPLINE
  5
1B3
330
6C
100
AcDbEntity
  8
Sichtbare Kanten(DIN)
100
AcDbSpline
210
0.0
220
0.0
230
1.0
 70
     8
 71
     3
 72
    13
 73
     9
 74
     0
 42
0.0000000001
 43
0.0000000001
 40
0.0
 40
0.0
 40
0.0
 40
0.0
 40
0.0141330863714494
 40
0.0294904350099191
 40
0.0479706055027398
 40
0.0625618731963478
 40
0.0763426695093359
 40
0.0889650430344739
 40
0.0889650430344739
 40
0.0889650430344739
 40
0.0889650430344739
 10
132.1867977022793
 20
379.4714524352546
 30
0.0
 10
132.2204811093054
 20
379.4379673240257
 30
0.0
 10
132.2907657095484
 20
379.3680964925215
 30
0.0
 10
132.4418305817689
 20
379.305757023509
 30
0.0
 10
132.6023959710644
 20
379.2815341910487
 30
0.0
 10
132.7588516414031
 20
379.2852156977344
 30
0.0
 10
132.8951212603663
 20
379.2965011081093
 30
0.0
 10
132.9820025226838
 20
379.3107679807331
 30
0.0
 10
133.0235372229501
 20
379.3175884419277
 30
0.0
  0
SPLINE
  5
1B4
330
6C
100
AcDbEntity
  8
Sichtbare Kanten(DIN)
100
AcDbSpline
210
0.0
220
0.0
230
1.0
 70
     8
 71
     3
 72
    10
 73
     6
 74
     0
 42
0.0000000001
 43
0.0000000001
 40
0.0
 40
0.0
 40
0.0
 40
0.0
 40
0.0257321364148008
 40
0.0459975558651696
 40
0.0631323921591002
 40
0.0631323921591002
 40
0.0631323921591002
 40
0.0631323921591002
 10
132.0816276876309
 20
380.0760958385748
 30
0.0
 10
132.071063589853
 20
379.9909026831226
 30
0.0
 10
132.0521797059085
 20
379.8386154084062
 30
0.0
 10
132.0861734227749
 20
379.6247333712092
 30
0.0
 10
132.1551817190277
 20
379.5196130534254
 30
0.0
 10
132.1867977022793
 20
379.4714524352546
 30
0.0
  0
SPLINE
  5
1B5
330
6C
100
AcDbEntity
  8
Sichtbare Kanten(DIN)
100
AcDbSpline
210
0.0
220
0.0
230
1.0
 70
     8
 71
     3
 72
    13
 73
     9
 74
     0
 42
0.0000000001
 43
0.0000000001
 40
0.0
 40
0.0
 40
0.0
 40
0.0
 40
0.0126149146707674
 40
0.0254558351656709
 40
0.0436022211516248
 40
0.0815882182461035
 40
0.1224783790911748
 40
0.1679868711023061
 40
0.1679868711023061
 40
0.1679868711023061
 40
0.1679868711023061
 10
133.2241122668955
 20
380.6423527477545
 30
0.0
 10
133.2113423186435
 20
380.6836220503657
 30
0.0
 10
133.1855736387707
 20
380.7669000266415
 30
0.0
 10
133.0568452004924
 20
380.8524842006951
 30
0.0
 10
132.8283586930154
 20
380.8903725604255
 30
0.0
 10
132.4917950948165
 20
380.8301833873589
 30
0.0
 10
132.1917105078755
 20
380.5055872091817
 30
0.0
 10
132.1196067004485
 20
380.224272077457
 30
0.0
 10
132.0816276876309
 20
380.0760958385748
 30
0.0
  0
SPLINE
  5
1B6
330
6C
100
AcDbEntity
  8
Sichtbare Kanten(DIN)
100
AcDbSpline
210
0.0
220
0.0
230
1.0
 70
     8
 71
     3
 72
    10
 73
     6
 74
     0
 42
0.0000000001
 43
0.0000000001
 40
0.0
 40
0.0
 40
0.0
 40
0.0
 40
0.0001493678640701
 40
0.0017599685334196
 40
0.0036446683607068
 40
0.0036446683607068
 40
0.0036446683607068
 40
0.0036446683607068
 10
133.2292753625986
 20
380.6062859053065
 30
0.0
 10
133.2291450035491
 20
380.6067665797032
 30
0.0
 10
133.2276090116773
 20
380.6124302598931
 30
0.0
 10
133.2265927189259
 20
380.6246109123815
 30
0.0
 10
133.2249812087601
 20
380.6361375001615
 30
0.0
 10
133.2241122668955
 20
380.6423527477545
 30
0.0
  0
SPLINE
  5
1B7
330
6C
100
AcDbEntity
  8
Sichtbare Kanten(DIN)
100
AcDbSpline
210
0.0
220
0.0
230
1.0
 70
     8
 71
     3
 72
    10
 73
     6
 74
     0
 42
0.0000000001
 43
0.0000000001
 40
0.0
 40
0.0
 40
0.0
 40
0.0
 40
0.002047765729652
 40
0.0040061257373829
 40
0.0064275562272811
 40
0.0064275562272811
 40
0.0064275562272811
 40
0.0064275562272811
 10
133.2718334884123
 20
380.5654675182623
 30
0.0
 10
133.2649111522118
 20
380.5663259504718
 30
0.0
 10
133.2513687099226
 20
380.5680053356272
 30
0.0
 10
133.234832799089
 20
380.5839931976754
 30
0.0
 10
133.2312539699969
 20
380.5983490595462
 30
0.0
 10
133.2292753625986
 20
380.6062859053065
 30
0.0
  0
LINE
  5
1B8
330
6C
100
AcDbEntity
  8
Sichtbare Kanten(DIN)
100
AcDbLine
 10
133.8026034680674
 20
380.5654675182623
 30
0.0
 11
133.2718334884123
 21
380.5654675182623
 31
0.0
  0
SPLINE
  5
1B9
330
6C
100
AcDbEntity
  8
Sichtbare Kanten(DIN)
100
AcDbSpline
210
0.0
220
0.0
230
1.0
 70
     8
 71
     3
 72
    10
 73
     6
 74
     0
 42
0.0000000001
 43
0.0000000001
 40
0.0
 40
0.0
 40
0.0
 40
0.0
 40
0.0031448691298877
 40
0.0055525733140845
 40
0.0078622774006783
 40
0.0078622774006783
 40
0.0078622774006783
 40
0.0078622774006783
 10
133.8532803748057
 20
380.6174164920578
 30
0.0
 10
133.8505598695886
 20
380.6072026914558
 30
0.0
 10
133.8457565521706
 20
380.5891692298662
 30
0.0
 10
133.8263352041468
 20
380.5688734537359
 30
0.0
 10
133.8104037258429
 20
380.56658699703
 30
0.0
 10
133.8026034680674
 20
380.5654675182623
 30
0.0
  0
SPLINE
  5
1BA
330
6C
100
AcDbEntity
  8
Sichtbare Kanten(DIN)
100
AcDbSpline
210
0.0
220
0.0
230
1.0
 70
     8
 71
     3
 72
    10
 73
     6
 74
     0
 42
0.0000000001
 43
0.0000000001
 40
0.0
 40
0.0
 40
0.0
 40
0.0
 40
0.0149600583058825
 40
0.0306900242774319
 40
0.04923021989059
 40
0.04923021989059
 40
0.04923021989059
 40
0.04923021989059
 10
133.7255872904958
 20
381.0783163179042
 30
0.0
 10
133.7560942116846
 20
381.0384172438203
 30
0.0
 10
133.8186780688308
 20
380.9565657211027
 30
0.0
 10
133.8625449925472
 20
380.7937520049732
 30
0.0
 10
133.8565329152981
 20
380.6793228126447
 30
0.0
 10
133.8532803748057
 20
380.6174164920578
 30
0.0
  0
SPLINE
  5
1BB
330
6C
100
AcDbEntity
  8
Sichtbare Kanten(DIN)
100
AcDbSpline
210
0.0
220
0.0
230
1.0
 70
     8
 71
     3
 72
    13
 73
     9
 74
     0
 42
0.0000000001
 43
0.0000000001
 40
0.0
 40
0.0
 40
0.0
 40
0.0
 40
0.0229026576484617
 40
0.0432739635693801
 40
0.0645629699844578
 40
0.0801076089824919
 40
0.0932173039948864
 40
0.1051889127042267
 40
0.1051889127042267
 40
0.1051889127042267
 40
0.1051889127042267
 10
135.8629218429051
 20
379.0370789489263
 30
0.0
 10
135.8044699628174
 20
378.9871703533817
 30
0.0
 10
135.6940266872684
 20
378.8928693871554
 30
0.0
 10
135.488864203549
 20
378.8157347551561
 30
0.0
 10
135.2969515572866
 20
378.7984666977858
 30
0.0
 10
135.1310049604637
 20
378.8195487545035
 30
0.0
 10
135.002187696484
 20
378.8707770944578
 30
0.0
 10
134.9420605909079
 20
378.9298601036746
 30
0.0
 10
134.9133611983736
 20
378.9580611364264
 30
0.0
  0
SPLINE
  5
1BC
330
6C
100
AcDbEntity
  8
Sichtbare Kanten(DIN)
100
AcDbSpline
210
0.0
220
0.0
230
1.0
 70
    24
 71
     3
 72
    10
 73
     6
 74
     0
 42
0.0000000001
 43
0.0000000001
 40
0.0
 40
0.0
 40
0.0
 40
0.0
 40
0.000445625072251
 40
0.0012732144921481
 40
0.0017188395643828
 40
0.0017188395643828
 40
0.0017188395643828
 40
0.0017188395643828
 10
135.8753806173192
 20
379.0489203966803
 30
0.0
 10
135.8743039331105
 20
379.0478970616892
 30
0.0
 10
135.8712276925145
 20
379.0449732474289
 30
0.0
 10
135.8670747677097
 20
379.0410260981778
 30
0.0
 10
135.8639985271137
 20
379.0381022839174
 30
0.0
 10
135.8629218429051
 20
379.0370789489263
 30
0.0
  0
SPLINE
  5
1BD
330
6C
100
AcDbEntity
  8
Sichtbare Kanten(DIN)
100
AcDbSpline
210
0.0
220
0.0
230
1.0
 70
    24
 71
     3
 72
    10
 73
     6
 74
     0
 42
0.0000000001
 43
0.0000000001
 40
0.0
 40
0.0
 40
0.0
 40
0.0
 40
0.0004437027607032
 40
0.0012677221734459
 40
0.0017114249341747
 40
0.0017114249341747
 40
0.0017114249341747
 40
0.0017114249341747
 10
135.8738092403661
 20
379.0318784394863
 30
0.0
 10
135.8739450383744
 20
379.0333512012191
 30
0.0
 10
135.8743330326838
 20
379.0375590918841
 30
0.0
 10
135.8748568250012
 20
379.0432397442822
 30
0.0
 10
135.8752448193108
 20
379.0474476349475
 30
0.0
 10
135.8753806173192
 20
379.0489203966803
 30
0.0
  0
SPLINE
  5
1BE
330
6C
100
AcDbEntity
  8
Sichtbare Kanten(DIN)
100
AcDbSpline
210
0.0
220
0.0
230
1.0
 70
     8
 71
     3
 72
    10
 73
     6
 74
     0
 42
0.0000000001
 43
0.0000000001
 40
0.0
 40
0.0
 40
0.0
 40
0.0
 40
0.0000978161838524
 40
0.0052407690406007
 40
0.0138474745991061
 40
0.0138474745991061
 40
0.0138474745991061
 40
0.0138474745991061
 10
135.8622483956395
 20
378.8938965775072
 30
0.0
 10
135.8622338349422
 20
378.8942223305543
 30
0.0
 10
135.8614537058395
 20
378.9116754392006
 30
0.0
 10
135.8685438296989
 20
378.9576396710564
 30
0.0
 10
135.8717821737414
 20
379.0032981559638
 30
0.0
 10
135.8738092403661
 20
379.0318784394863
 30
0.0
  0
SPLINE
  5
1BF
330
6C
100
AcDbEntity
  8
Sichtbare Kanten(DIN)
100
AcDbSpline
210
0.0
220
0.0
230
1.0
 70
     8
 71
     3
 72
    10
 73
     6
 74
     0
 42
0.0000000001
 43
0.0000000001
 40
0.0
 40
0.0
 40
0.0
 40
0.0
 40
0.001937478184313
 40
0.0036503024713538
 40
0.0058461245166667
 40
0.0058461245166667
 40
0.0058461245166667
 40
0.0058461245166667
 10
135.8975295496108
 20
378.8553791352871
 30
0.0
 10
135.8909268678911
 20
378.8561271629401
 30
0.0
 10
135.878487096649
 20
378.857536483165
 30
0.0
 10
135.8641839886026
 20
378.8732165935775
 30
0.0
 10
135.8629446426239
 20
378.8864578356217
 30
0.0
 10
135.8622483956395
 20
378.8938965775072
 30
0.0
  0
LINE
  5
1C0
330
6C
100
AcDbEntity
  8
Sichtbare Kanten(DIN)
100
AcDbLine
 10
136.4001082784522
 20
378.8553791352871
 30
0.0
 11
135.8975295496108
 21
378.8553791352871
 31
0.0
  0
SPLINE
  5
1C1
330
6C
100
AcDbEntity
  8
Sichtbare Kanten(DIN)
100
AcDbSpline
210
0.0
220
0.0
230
1.0
 70
     8
 71
     3
 72
    10
 73
     6
 74
     0
 42
0.0000000001
 43
0.0000000001
 40
0.0
 40
0.0
 40
0.0
 40
0.0
 40
0.002621898199471
 40
0.0048850710384235
 40
0.0075494481327262
 40
0.0075494481327262
 40
0.0075494481327262
 40
0.0075494481327262
 10
136.4533854399105
 20
378.8995647586595
 30
0.0
 10
136.4509769520767
 20
378.8909958647041
 30
0.0
 10
136.4464895031872
 20
378.875030463873
 30
0.0
 10
136.4257607561177
 20
378.8577967603127
 30
0.0
 10
136.4091109827268
 20
378.8562275977022
 30
0.0
 10
136.4001082784522
 20
378.8553791352871
 30
0.0
  0
SPLINE
  5
1C2
330
6C
100
AcDbEntity
  8
Sichtbare Kanten(DIN)
100
AcDbSpline
210
0.0
220
0.0
230
1.0
 70
     8
 71
     3
 72
    10
 73
     6
 74
     0
 42
0.0000000001
 43
0.0000000001
 40
0.0
 40
0.0
 40
0.0
 40
0.0
 40
0.0000133877693436
 40
0.0011214026620799
 40
0.0052633669803299
 40
0.0052633669803299
 40
0.0052633669803299
 40
0.0052633669803299
 10
136.4579499158218
 20
378.9520001110358
 30
0.0
 10
136.4579453073682
 20
378.9519557236959
 30
0.0
 10
136.4575592884508
 20
378.9482376972026
 30
0.0
 10
136.4561759896014
 20
378.9307458353065
 30
0.0
 10
136.4546161071533
 20
378.9133160026352
 30
0.0
 10
136.4533854399105
 20
378.8995647586595
 30
0.0
  0
SPLINE
  5
1C3
330
6C
100
AcDbEntity
  8
Sichtbare Kanten(DIN)
100
AcDbSpline
210
0.0
220
0.0
230
1.0
 70
     8
 71
     3
 72
    10
 73
     6
 74
     0
 42
0.0000000001
 43
0.0000000001
 40
0.0
 40
0.0
 40
0.0
 40
0.0
 40
0.0013651074904652
 40
0.0157406004844246
 40
0.0266332792872953
 40
0.0266332792872953
 40
0.0266332792872953
 40
0.0266332792872953
 10
136.4872074581397
 20
379.2167210070318
 30
0.0
 10
136.4867075652643
 20
379.2121981906764
 30
0.0
 10
136.4809434667657
 20
379.1600470994152
 30
0.0
 10
136.4711911853193
 20
379.0718067750352
 30
0.0
 10
136.4619385635773
 20
378.988089292782
 30
0.0
 10
136.4579499158218
 20
378.9520001110358
 30
0.0
  0
SPLINE
  5
1C4
330
6C
100
AcDbEntity
  8
Sichtbare Kanten(DIN)
100
AcDbSpline
210
0.0
220
0.0
230
1.0
 70
     8
 71
     3
 72
    10
 73
     6
 74
     0
 42
0.0000000001
 43
0.0000000001
 40
0.0
 40
0.0
 40
0.0
 40
0.0
 40
0.0000276844043069
 40
0.0023284350569945
 40
0.006811561276057
 40
0.006811561276057
 40
0.006811561276057
 40
0.006811561276057
 10
136.4979077869157
 20
379.2839909061204
 30
0.0
 10
136.4978929407285
 20
379.2838998268221
 30
0.0
 10
136.4966442816508
 20
379.2762394766535
 30
0.0
 10
136.4931242757747
 20
379.2538086315527
 30
0.0
 10
136.4895617523614
 20
379.2314781257219
 30
0.0
 10
136.4872074581397
 20
379.2167210070318
 30
0.0
  0
SPLINE
  5
1C5
330
6C
100
AcDbEntity
  8
Sichtbare Kanten(DIN)
100
AcDbSpline
210
0.0
220
0.0
230
1.0
 70
     8
 71
     3
 72
    10
 73
     6
 74
     0
 42
0.0000000001
 43
0.0000000001
 40
0.0
 40
0.0
 40
0.0
 40
0.0
 40
0.0232114797897229
 40
0.0868708613137958
 40
0.1248352191515127
 40
0.1248352191515127
 40
0.1248352191515127
 40
0.1248352191515127
 10
136.7250839978532
 20
380.5114982026698
 30
0.0
 10
136.7110057019996
 20
380.4354182055321
 30
0.0
 10
136.6583165284649
 20
380.1506825945336
 30
0.0
 10
136.5825854066345
 20
379.7415145538804
 30
0.0
 10
136.5209379128386
 20
379.4084255236219
 30
0.0
 10
136.4979077869157
 20
379.2839909061204
 30
0.0
  0
SPLINE
  5
1C6
330
6C
100
AcDbEntity
  8
Sichtbare Kanten(DIN)
100
AcDbSpline
210
0.0
220
0.0
230
1.0
 70
     8
 71
     3
 72
    10
 73
     6
 74
     0
 42
0.0000000001
 43
0.0000000001
 40
0.0
 40
0.0
 40
0.0
 40
0.0
 40
0.0136948136430338
 40
0.0394152339470988
 40
0.0541152299756576
 40
0.0541152299756576
 40
0.0541152299756576
 40
0.0541152299756576
 10
136.1839317061865
 20
380.5115917370124
 30
0.0
 10
136.2295810842827
 20
380.5115836648242
 30
0.0
 10
136.360965195385
 20
380.5115604321469
 30
0.0
 10
136.5413492924226
 20
380.5115281585784
 30
0.0
 10
136.6760840117421
 20
380.5115061915748
 30
0.0
 10
136.7250839978532
 20
380.5114982026698
 30
0.0
  0
SPLINE
  5
1C7
330
6C
100
AcDbEntity
  8
Sichtbare Kanten(DIN)
100
AcDbSpline
210
0.0
220
0.0
230
1.0
 70
     8
 71
     3
 72
    10
 73
     6
 74
     0
 42
0.0000000001
 43
0.0000000001
 40
0.0
 40
0.0
 40
0.0
 40
0.0
 40
0.0028830672147747
 40
0.0058563601479538
 40
0.0087290673659723
 40
0.0087290673659723
 40
0.0087290673659723
 40
0.0087290673659723
 10
136.1214133516943
 20
380.4591750915045
 30
0.0
 10
136.1246084214253
 20
380.4683557684365
 30
0.0
 10
136.1310985507385
 20
380.4870044319989
 30
0.0
 10
136.1548951314035
 20
380.5069686391147
 30
0.0
 10
136.1743645106799
 20
380.5100684829177
 30
0.0
 10
136.1839317061865
 20
380.5115917370124
 30
0.0
  0
SPLINE
  5
1C8
330
6C
100
AcDbEntity
  8
Sichtbare Kanten(DIN)
100
AcDbSpline
210
0.0
220
0.0
230
1.0
 70
     8
 71
     3
 72
    10
 73
     6
 74
     0
 42
0.0000000001
 43
0.0000000001
 40
0.0
 40
0.0
 40
0.0
 40
0.0
 40
0.0003033916010682
 40
0.0329732673994525
 40
0.091433609618394
 40
0.091433609618394
 40
0.091433609618394
 40
0.091433609618394
 10
135.9656973783869
 20
379.5581961844407
 30
0.0
 10
135.9658731164318
 20
379.5591921034547
 30
0.0
 10
135.9849727142028
 20
379.667430775324
 30
0.0
 10
136.0362767160095
 20
379.9678622256553
 30
0.0
 10
136.0881417545451
 20
380.2671688697966
 30
0.0
 10
136.1214133516943
 20
380.4591750915045
 30
0.0
  0
SPLINE
  5
1C9
330
6C
100
AcDbEntity
  8
Sichtbare Kanten(DIN)
100
AcDbSpline
210
0.0
220
0.0
230
1.0
 70
     8
 71
     3
 72
    13
 73
     9
 74
     0
 42
0.0000000001
 43
0.0000000001
 40
0.0
 40
0.0
 40
0.0
 40
0.0
 40
0.007011922375534
 40
0.0145744932704933
 40
0.0248805847956153
 40
0.0499072791905735
 40
0.0721278514224026
 40
0.0795745374886445
 40
0.0795745374886445
 40
0.0795745374886445
 40
0.0795745374886445
 10
135.4333747286472
 20
379.332460402377
 30
0.0
 10
135.4411690936695
 20
379.3101429048715
 30
0.0
 10
135.4573699177062
 20
379.2637553096034
 30
0.0
 10
135.5224776295727
 20
379.2057261373972
 30
0.0
 10
135.667316224753
 20
379.1768499389239
 30
0.0
 10
135.8668537208387
 20
379.2600036521003
 30
0.0
 10
135.9451359512102
 20
379.4365380865925
 30
0.0
 10
135.961571853712
 20
379.5337862307803
 30
0.0
 10
135.9656973783869
 20
379.5581961844407
 30
0.0
  0
SPLINE
  5
1CA
330
6C
100
AcDbEntity
  8
Sichtbare Kanten(DIN)
100
AcDbSpline
210
0.0
220
0.0
230
1.0
 70
     8
 71
     3
 72
    10
 73
     6
 74
     0
 42
0.0000000001
 43
0.0000000001
 40
0.0
 40
0.0
 40
0.0
 40
0.0
 40
0.0005599645648466
 40
0.0060567009795872
 40
0.0151421821733425
 40
0.0151421821733425
 40
0.0151421821733425
 40
0.0151421821733425
 10
135.4311486112969
 20
379.4835744860358
 30
0.0
 10
135.4309295242654
 20
379.4817209139267
 30
0.0
 10
135.4285598303208
 20
379.4616722667194
 30
0.0
 10
135.4258386532783
 20
379.4111087855314
 30
0.0
 10
135.4304818039226
 20
379.3626516944007
 30
0.0
 10
135.4333747286472
 20
379.332460402377
 30
0.0
  0
SPLINE
  5
1CB
330
6C
100
AcDbEntity
  8
Sichtbare Kanten(DIN)
100
AcDbSpline
210
0.0
220
0.0
230
1.0
 70
     8
 71
     3
 72
    10
 73
     6
 74
     0
 42
0.0000000001
 43
0.0000000001
 40
0.0
 40
0.0
 40
0.0
 40
0.0
 40
0.0364553241020064
 40
0.086543356765523
 40
0.0992284203541535
 40
0.0992284203541535
 40
0.0992284203541535
 40
0.0992284203541535
 10
135.6000903406264
 20
380.4613637951177
 30
0.0
 10
135.579149015212
 20
380.3416648729887
 30
0.0
 10
135.5294352178142
 20
380.0575048284015
 30
0.0
 10
135.4712664668125
 20
379.7318832650333
 30
0.0
 10
135.4378927135826
 20
379.5253169915229
 30
0.0
 10
135.4311486112969
 20
379.4835744860358
 30
0.0
  0
SPLINE
  5
1CC
330
6C
100
AcDbEntity
  8
Sichtbare Kanten(DIN)
100
AcDbSpline
210
0.0
220
0.0
230
1.0
 70
     8
 71
     3
 72
    10
 73
     6
 74
     0
 42
0.0000000001
 43
0.0000000001
 40
0.0
 40
0.0
 40
0.0
 40
0.0
 40
0.0011963695904978
 40
0.0024277293993698
 40
0.0037682802801585
 40
0.0037682802801585
 40
0.0037682802801585
 40
0.0037682802801585
 10
135.5914103536473
 20
380.4969255521165
 30
0.0
 10
135.5936997092643
 20
380.4936312211523
 30
0.0
 10
135.5983453772761
 20
380.4869462099351
 30
0.0
 10
135.6013765837792
 20
380.4743951265492
 30
0.0
 10
135.6005310540648
 20
380.4658288007193
 30
0.0
 10
135.6000903406264
 20
380.4613637951177
 30
0.0
  0
SPLINE
  5
1CD
330
6C
100
AcDbEntity
  8
Sichtbare Kanten(DIN)
100
AcDbSpline
210
0.0
220
0.0
230
1.0
 70
     8
 71
     3
 72
    10
 73
     6
 74
     0
 42
0.0000000001
 43
0.0000000001
 40
0.0
 40
0.0
 40
0.0
 40
0.0
 40
0.0013342302801217
 40
0.0025597299351589
 40
0.0037566332053006
 40
0.0037566332053006
 40
0.0037566332053006
 40
0.0037566332053006
 10
135.5579998865249
 20
380.5115917370124
 30
0.0
 10
135.5624531722025
 20
380.5112584546295
 30
0.0
 10
135.5709968312911
 20
380.5106190500943
 30
0.0
 10
135.5827977408686
 20
380.5054769049318
 30
0.0
 10
135.5885621656679
 20
380.4997534814479
 30
0.0
 10
135.5914103536473
 20
380.4969255521165
 30
0.0
  0
LINE
  5
1CE
330
6C
100
AcDbEntity
  8
Sichtbare Kanten(DIN)
100
AcDbLine
 10
135.0806380164075
 20
380.5115917370124
 30
0.0
 11
135.5579998865249
 21
380.5115917370124
 31
0.0
  0
SPLINE
  5
1CF
330
6C
100
AcDbEntity
  8
Sichtbare Kanten(DIN)
100
AcDbSpline
210
0.0
220
0.0
230
1.0
 70
     8
 71
     3
 72
    10
 73
     6
 74
     0
 42
0.0000000001
 43
0.0000000001
 40
0.0
 40
0.0
 40
0.0
 40
0.0
 40
0.0028822323715622
 40
0.0058561909534102
 40
0.0087413965309754
 40
0.0087413965309754
 40
0.0087413965309754
 40
0.0087413965309754
 10
135.0181009550468
 20
380.4591002640306
 30
0.0
 10
135.021257658556
 20
380.4682941609403
 30
0.0
 10
135.0276715267489
 20
380.4869745478655
 30
0.0
 10
135.0515125014459
 20
380.5069768131101
 30
0.0
 10
135.0710280501384
 20
380.5100690424577
 30
0.0
 10
135.0806380164075
 20
380.5115917370124
 30
0.0
  0
SPLINE
  5
1D0
330
6C
100
AcDbEntity
  8
Sichtbare Kanten(DIN)
100
AcDbSpline
210
0.0
220
0.0
230
1.0
 70
    24
 71
     3
 72
    10
 73
     6
 74
     0
 42
0.0000000001
 43
0.0000000001
 40
0.0
 40
0.0
 40
0.0
 40
0.0
 40
0.0277236344761274
 40
0.0792103842174597
 40
0.1069340186935556
 40
0.1069340186935556
 40
0.1069340186935556
 40
0.1069340186935556
 10
134.8280578780612
 20
379.4067827908861
 30
0.0
 10
134.84448135385
 20
379.4977238070838
 30
0.0
 10
134.8914055703895
 20
379.7575552819343
 30
0.0
 10
134.9547532627183
 20
380.1083277729825
 30
0.0
 10
135.0016774792579
 20
380.3681592478329
 30
0.0
 10
135.0181009550468
 20
380.4591002640306
 30
0.0
  0
SPLINE
  5
1D1
330
6C
100
AcDbEntity
  8
Sichtbare Kanten(DIN)
100
AcDbSpline
210
0.0
220
0.0
230
1.0
 70
     8
 71
     3
 72
    10
 73
     6
 74
     0
 42
0.0000000001
 43
0.0000000001
 40
0.0
 40
0.0
 40
0.0
 40
0.0
 40
0.0132753393276217
 40
0.0283927478350573
 40
0.0470112911819627
 40
0.0470112911819627
 40
0.0470112911819627
 40
0.0470112911819627
 10
134.9133611983736
 20
378.9580611364264
 30
0.0
 10
134.8885731178562
 20
378.9951541556425
 30
0.0
 10
134.8355573943347
 20
379.0744871741855
 30
0.0
 10
134.8072902007944
 20
379.2332126494384
 30
0.0
 10
134.8206723823569
 20
379.3450569889305
 30
0.0
 10
134.8280578780612
 20
379.4067827908861
 30
0.0
  0
SPLINE
  5
1D2
330
6C
100
AcDbEntity
  8
Sichtbare Kanten(DIN)
100
AcDbSpline
210
0.0
220
0.0
230
1.0
 70
    24
 71
     3
 72
    10
 73
     6
 74
     0
 42
0.0000000001
 43
0.0000000001
 40
0.0
 40
0.0
 40
0.0
 40
0.0
 40
0.0181734283307943
 40
0.0519240809451679
 40
0.0700975092759946
 40
0.0700975092759946
 40
0.0700975092759946
 40
0.0700975092759946
 10
137.1972079447934
 20
380.5114233751958
 30
0.0
 10
137.207738757008
 20
380.5710791169111
 30
0.0
 10
137.2378267919069
 20
380.7415240932407
 30
0.0
 10
137.278445639021
 20
380.9716248112851
 30
0.0
 10
137.30853367392
 20
381.1420697876147
 30
0.0
 10
137.3190644861346
 20
381.20172552933
 30
0.0
  0
SPLINE
  5
1D3
330
6C
100
AcDbEntity
  8
Sichtbare Kanten(DIN)
100
AcDbSpline
210
0.0
220
0.0
230
1.0
 70
     8
 71
     3
 72
    10
 73
     6
 74
     0
 42
0.0000000001
 43
0.0000000001
 40
0.0
 40
0.0
 40
0.0
 40
0.0
 40
0.0069541430205842
 40
0.0235633077492395
 40
0.0332682957643675
 40
0.0332682957643675
 40
0.0332682957643675
 40
0.0332682957643675
 10
136.8645249955747
 20
380.5114982026698
 30
0.0
 10
136.8877054718114
 20
380.5114933916668
 30
0.0
 10
136.9662498292858
 20
380.5114770901406
 30
0.0
 10
137.0771441454534
 20
380.5114510433168
 30
0.0
 10
137.1648579856024
 20
380.5114308300872
 30
0.0
 10
137.1972079447934
 20
380.5114233751958
 30
0.0
  0
SPLINE
  5
1D4
330
6C
100
AcDbEntity
  8
Sichtbare Kanten(DIN)
100
AcDbSpline
210
0.0
220
0.0
230
1.0
 70
     8
 71
     3
 72
    10
 73
     6
 74
     0
 42
0.0000000001
 43
0.0000000001
 40
0.0
 40
0.0
 40
0.0
 40
0.0
 40
0.0089865303058279
 40
0.0301677392837074
 40
0.0385831811169096
 40
0.0385831811169096
 40
0.0385831811169096
 40
0.0385831811169096
 10
136.7943368250017
 20
380.1321042028326
 30
0.0
 10
136.7997875795468
 20
380.1615592083988
 30
0.0
 10
136.8180857365016
 20
380.2604395212983
 30
0.0
 10
136.8414714592485
 20
380.3869060997636
 30
0.0
 10
136.8594212067405
 20
380.483914938452
 30
0.0
 10
136.8645249955747
 20
380.5114982026698
 30
0.0
  0
LINE
  5
1D5
330
6C
100
AcDbEntity
  8
Sichtbare Kanten(DIN)
100
AcDbLine
 10
137.1302747693377
 20
380.1321042028326
 30
0.0
 11
136.7943368250017
 21
380.1321042028326
 31
0.0
  0
SPLINE
  5
1D6
330
6C
100
AcDbEntity
  8
Sichtbare Kanten(DIN)
100
AcDbSpline
210
0.0
220
0.0
230
1.0
 70
    24
 71
     3
 72
    10
 73
     6
 74
     0
 42
0.0000000001
 43
0.0000000001
 40
0.0
 40
0.0
 40
0.0
 40
0.0
 40
0.0322906859289818
 40
0.0922591026542162
 40
0.1245497885832192
 40
0.1245497885832192
 40
0.1245497885832192
 40
0.1245497885832192
 10
136.9137614734392
 20
378.9055696634447
 30
0.0
 10
136.9324724990107
 20
379.0115664754905
 30
0.0
 10
136.9859325720722
 20
379.3144145099071
 30
0.0
 10
137.0581036707047
 20
379.72325935637
 30
0.0
 10
137.1115637437661
 20
380.0261073907866
 30
0.0
 10
137.1302747693377
 20
380.1321042028326
 30
0.0
  0
SPLINE
  5
1D7
330
6C
100
AcDbEntity
  8
Sichtbare Kanten(DIN)
100
AcDbSpline
210
0.0
220
0.0
230
1.0
 70
     8
 71
     3
 72
    10
 73
     6
 74
     0
 42
0.0000000001
 43
0.0000000001
 40
0.0
 40
0.0
 40
0.0
 40
0.0
 40
0.0011976530204214
 40
0.0024246863521626
 40
0.0037634452255886
 40
0.0037634452255886
 40
0.0037634452255886
 40
0.0037634452255886
 10
136.9223666329444
 20
378.870045320183
 30
0.0
 10
136.9200780316667
 20
378.8733455695397
 30
0.0
 10
136.9154446861242
 20
378.8800270285578
 30
0.0
 10
136.9124368825685
 20
378.8925677472662
 30
0.0
 10
136.9133073091201
 20
378.9011116783127
 30
0.0
 10
136.9137614734392
 20
378.9055696634447
 30
0.0
  0
SPLINE
  5
1D8
330
6C
100
AcDbEntity
  8
Sichtbare Kanten(DIN)
100
AcDbSpline
210
0.0
220
0.0
230
1.0
 70
     8
 71
     3
 72
    10
 73
     6
 74
     0
 42
0.0000000001
 43
0.0000000001
 40
0.0
 40
0.0
 40
0.0
 40
0.0
 40
0.0013335986207283
 40
0.0025607713672859
 40
0.0037563435304863
 40
0.0037563435304863
 40
0.0037563435304863
 40
0.0037563435304863
 10
136.9557771000668
 20
378.8553791352871
 30
0.0
 10
136.9513261909247
 20
378.8557142775512
 30
0.0
 10
136.9427795708904
 20
378.8563578165446
 30
0.0
 10
136.9309797851964
 20
378.8614996913097
 30
0.0
 10
136.9252126093644
 20
378.8672216549839
 30
0.0
 10
136.9223666329444
 20
378.870045320183
 30
0.0
  0
LINE
  5
1D9
330
6C
100
AcDbEntity
  8
Sichtbare Kanten(DIN)
100
AcDbLine
 10
137.4253569128924
 20
378.8553791352871
 30
0.0
 11
136.9557771000668
 21
378.8553791352871
 31
0.0
  0
SPLINE
  5
1DA
330
6C
100
AcDbEntity
  8
Sichtbare Kanten(DIN)
100
AcDbSpline
210
0.0
220
0.0
230
1.0
 70
     8
 71
     3
 72
    10
 73
     6
 74
     0
 42
0.0000000001
 43
0.0000000001
 40
0.0
 40
0.0
 40
0.0
 40
0.0
 40
0.002884408395733
 40
0.0058603573834223
 40
0.008730722791757
 40
0.008730722791757
 40
0.008730722791757
 40
0.008730722791757
 10
137.4878752673847
 20
378.9078331945319
 30
0.0
 10
137.4846766521005
 20
378.8986494549015
 30
0.0
 10
137.4781779091607
 20
378.8799905172731
 30
0.0
 10
137.4543839403304
 20
378.8600153500468
 30
0.0
 10
137.434915388979
 20
378.8569058209943
 30
0.0
 10
137.4253569128924
 20
378.8553791352871
 30
0.0
  0
SPLINE
  5
1DB
330
6C
100
AcDbEntity
  8
Sichtbare Kanten(DIN)
100
AcDbSpline
210
0.0
220
0.0
230
1.0
 70
    24
 71
     3
 72
    10
 73
     6
 74
     0
 42
0.0000000001
 43
0.0000000001
 40
0.0
 40
0.0
 40
0.0
 40
0.0
 40
0.0322305347736034
 40
0.0920872422103211
 40
0.1243177769839368
 40
0.1243177769839368
 40
0.1243177769839368
 40
0.1243177769839368
 10
137.7038647709655
 20
380.1321042028326
 30
0.0
 10
137.6851990113967
 20
380.0263030045844
 30
0.0
 10
137.631868269772
 20
379.7240138667324
 30
0.0
 10
137.5598717685783
 20
379.3159235306322
 30
0.0
 10
137.5065410269534
 20
379.0136343927802
 30
0.0
 10
137.4878752673847
 20
378.9078331945319
 30
0.0
  0
SPLINE
  5
1DC
330
6C
100
AcDbEntity
  8
Sichtbare Kanten(DIN)
100
AcDbSpline
210
0.0
220
0.0
230
1.0
 70
     8
 71
     3
 72
    10
 73
     6
 74
     0
 42
0.0000000001
 43
0.0000000001
 40
0.0
 40
0.0
 40
0.0
 40
0.0
 40
0.0070255321541167
 40
0.0240955647597703
 40
0.0341175880348639
 40
0.0341175880348639
 40
0.0341175880348639
 40
0.0341175880348639
 10
138.0450406384785
 20
380.1321977371752
 30
0.0
 10
138.0216221987155
 20
380.1321918041413
 30
0.0
 10
137.9413036520911
 20
380.1321714555334
 30
0.0
 10
137.8275783632765
 20
380.1321389248211
 30
0.0
 10
137.7372715138994
 20
380.1321135789127
 30
0.0
 10
137.7038647709655
 20
380.1321042028326
 30
0.0
  0
SPLINE
  5
1DD
330
6C
100
AcDbEntity
  8
Sichtbare Kanten(DIN)
100
AcDbSpline
210
0.0
220
0.0
230
1.0
 70
     8
 71
     3
 72
    10
 73
     6
 74
     0
 42
0.0000000001
 43
0.0000000001
 40
0.0
 40
0.0
 40
0.0
 40
0.0
 40
0.0080931847187841
 40
0.0290081092340634
 40
0.0385526703223027
 40
0.0385526703223027
 40
0.0385526703223027
 40
0.0385526703223027
 10
138.1149669128927
 20
380.5113298408535
 30
0.0
 10
138.1100818009615
 20
380.4847985488581
 30
0.0
 10
138.0925722709748
 20
380.389703398671
 30
0.0
 10
138.0692463609677
 20
380.2633291898597
 30
0.0
 10
138.0508158791376
 20
380.1634843760089
 30
0.0
 10
138.0450406384785
 20
380.1321977371752
 30
0.0
  0
SPLINE
  5
1DE
330
6C
100
AcDbEntity
  8
Sichtbare Kanten(DIN)
100
AcDbSpline
210
0.0
220
0.0
230
1.0
 70
     8
 71
     3
 72
    10
 73
     6
 74
     0
 42
0.0000000001
 43
0.0000000001
 40
0.0
 40
0.0
 40
0.0
 40
0.0
 40
0.0085944900037739
 40
0.0248371795447298
 40
0.0344168979205083
 40
0.0344168979205083
 40
0.0344168979205083
 40
0.0344168979205083
 10
137.7707979464212
 20
380.5114233751958
 30
0.0
 10
137.799446245297
 20
380.5114153068906
 30
0.0
 10
137.8822368404942
 20
380.5113919903302
 30
0.0
 10
137.9969598288866
 20
380.511359162924
 30
0.0
 10
138.0830345192906
 20
380.5113377753254
 30
0.0
 10
138.1149669128927
 20
380.5113298408535
 30
0.0
  0
SPLINE
  5
1DF
330
6C
100
AcDbEntity
  8
Sichtbare Kanten(DIN)
100
AcDbSpline
210
0.0
220
0.0
230
1.0
 70
    24
 71
     3
 72
    10
 73
     6
 74
     0
 42
0.0000000001
 43
0.0000000001
 40
0.0
 40
0.0
 40
0.0
 40
0.0
 40
0.0182326247372785
 40
0.0520932135351027
 40
0.0703258382723975
 40
0.0703258382723975
 40
0.0703258382723975
 40
0.0703258382723975
 10
137.8931782800802
 20
381.2039516466803
 30
0.0
 10
137.8826022018628
 20
381.1441035244532
 30
0.0
 10
137.8523848355274
 20
380.9731088895188
 30
0.0
 10
137.811591390975
 20
380.7422661323573
 30
0.0
 10
137.7813740246389
 20
380.5712714974228
 30
0.0
 10
137.7707979464212
 20
380.5114233751958
 30
0.0
  0
SPLINE
  5
1E0
330
6C
100
AcDbEntity
  8
Sichtbare Kanten(DIN)
100
AcDbSpline
210
0.0
220
0.0
230
1.0
 70
     8
 71
     3
 72
    13
 73
     9
 74
     0
 42
0.0000000001
 43
0.0000000001
 40
0.0
 40
0.0
 40
0.0
 40
0.0
 40
0.0009153978121011
 40
0.0018355697936
 40
0.0028013554832516
 40
0.0031524452850542
 40
0.0034554778335267
 40
0.0037685661646167
 40
0.0037685661646167
 40
0.0037685661646167
 40
0.0037685661646167
 10
137.8845731205748
 20
381.2394759899419
 30
0.0
 10
137.8863765047961
 20
381.2369969404585
 30
0.0
 10
137.8899926786161
 20
381.2320259122468
 30
0.0
 10
137.8930866112217
 20
381.2230840439898
 30
0.0
 10
137.8940084416527
 20
381.2156342596713
 30
0.0
 10
137.8938932289386
 20
381.2102319621045
 30
0.0
 10
137.8936340227166
 20
381.2070160380839
 30
0.0
 10
137.8933318382884
 20
381.2049841646313
 30
0.0
 10
137.8931782800802
 20
381.2039516466803
 30
0.0
  0
SPLINE
  5
1E1
330
6C
100
AcDbEntity
  8
Sichtbare Kanten(DIN)
100
AcDbSpline
210
0.0
220
0.0
230
1.0
 70
     8
 71
     3
 72
    10
 73
     6
 74
     0
 42
0.0000000001
 43
0.0000000001
 40
0.0
 40
0.0
 40
0.0
 40
0.0
 40
0.0013465252378671
 40
0.002579366054444
 40
0.0037763129624145
 40
0.0037763129624145
 40
0.0037763129624145
 40
0.0037763129624145
 10
137.8509755847675
 20
381.2541795885747
 30
0.0
 10
137.8554694361806
 20
381.253844979579
 30
0.0
 10
137.8640777321578
 20
381.2532040119529
 30
0.0
 10
137.8759532276086
 20
381.2480580805567
 30
0.0
 10
137.8817282600382
 20
381.2423083744051
 30
0.0
 10
137.8845731205748
 20
381.2394759899419
 30
0.0
  0
LINE
  5
1E2
330
6C
100
AcDbEntity
  8
Sichtbare Kanten(DIN)
100
AcDbLine
 10
137.3815828406268
 20
381.2541795885747
 30
0.0
 11
137.8509755847675
 21
381.2541795885747
 31
0.0
  0
SPLINE
  5
1E3
330
6C
100
AcDbEntity
  8
Sichtbare Kanten(DIN)
100
AcDbSpline
210
0.0
220
0.0
230
1.0
 70
     8
 71
     3
 72
    10
 73
     6
 74
     0
 42
0.0000000001
 43
0.0000000001
 40
0.0
 40
0.0
 40
0.0
 40
0.0
 40
0.0028803210317032
 40
0.0058519686951348
 40
0.0087369137882425
 40
0.0087369137882425
 40
0.0087369137882425
 40
0.0087369137882425
 10
137.3190644861346
 20
381.20172552933
 30
0.0
 10
137.3222235577516
 20
381.2109112551953
 30
0.0
 10
137.3286418659904
 20
381.2295739596697
 30
0.0
 10
137.3524647854148
 20
381.2495698112008
 30
0.0
 10
137.3719730909524
 20
381.2526582367435
 30
0.0
 10
137.3815828406268
 20
381.2541795885747
 30
0.0
  0
SPLINE
  5
1E4
330
6C
100
AcDbEntity
  8
Sichtbare Kanten(DIN)
100
AcDbSpline
210
0.0
220
0.0
230
1.0
 70
     8
 71
     3
 72
    10
 73
     6
 74
     0
 42
0.0000000001
 43
0.0000000001
 40
0.0
 40
0.0
 40
0.0
 40
0.0
 40
0.0252654322997131
 40
0.0957656423607572
 40
0.1376601168577756
 40
0.1376601168577756
 40
0.1376601168577756
 40
0.1376601168577756
 10
138.2577751469421
 20
380.5109931172206
 30
0.0
 10
138.3419932469779
 20
380.511028967442
 30
0.0
 10
138.6612120259269
 20
380.5111648534797
 30
0.0
 10
139.1200790376885
 20
380.5113668167098
 30
0.0
 10
139.4947279503857
 20
380.5115306639081
 30
0.0
 10
139.6343761853539
 20
380.5115917370124
 30
0.0
  0
SPLINE
  5
1E5
330
6C
100
AcDbEntity
  8
Sichtbare Kanten(DIN)
100
AcDbSpline
210
0.0
220
0.0
230
1.0
 70
     8
 71
     3
 72
    10
 73
     6
 74
     0
 42
0.0000000001
 43
0.0000000001
 40
0.0
 40
0.0
 40
0.0
 40
0.0
 40
0.0094349795884223
 40
0.0310155613435572
 40
0.0385705843723002
 40
0.0385705843723002
 40
0.0385705843723002
 40
0.0385705843723002
 10
138.1877740450541
 20
380.1316926517259
 30
0.0
 10
138.1934804982044
 20
380.1626205455102
 30
0.0
 10
138.2122392931841
 20
380.2642896564931
 30
0.0
 10
138.235594067956
 20
380.3907192560297
 30
0.0
 10
138.2532078072008
 20
380.4862273433644
 30
0.0
 10
138.2577751469421
 20
380.5109931172206
 30
0.0
  0
SPLINE
  5
1E6
330
6C
100
AcDbEntity
  8
Sichtbare Kanten(DIN)
100
AcDbSpline
210
0.0
220
0.0
230
1.0
 70
     8
 71
     3
 72
    10
 73
     6
 74
     0
 42
0.0000000001
 43
0.0000000001
 40
0.0
 40
0.0
 40
0.0
 40
0.0
 40
0.0205201904550196
 40
0.0589191614668962
 40
0.0804545125807215
 40
0.0804545125807215
 40
0.0804545125807215
 40
0.0804545125807215
 10
138.9923190450543
 20
380.1321416165696
 30
0.0
 10
138.9239184197777
 20
380.1321054568947
 30
0.0
 10
138.7275212423761
 20
380.1320016324331
 30
0.0
 10
138.4593395684347
 20
380.1318643049928
 30
0.0
 10
138.2595585344704
 20
380.1317380258292
 30
0.0
 10
138.1877740450541
 20
380.1316926517259
 30
0.0
  0
SPLINE
  5
1E7
330
6C
100
AcDbEntity
  8
Sichtbare Kanten(DIN)
100
AcDbSpline
210
0.0
220
0.0
230
1.0
 70
     8
 71
     3
 72
    10
 73
     6
 74
     0
 42
0.0000000001
 43
0.0000000001
 40
0.0
 40
0.0
 40
0.0
 40
0.0
 40
0.000227595214391
 40
0.0269132959685959
 40
0.119668433366708
 40
0.119668433366708
 40
0.119668433366708
 40
0.119668433366708
 10
138.0852978194681
 20
379.3515227013678
 30
0.0
 10
138.0858728095246
 20
379.3520176128162
 30
0.0
 10
138.1538657926458
 20
379.4105412435673
 30
0.0
 10
138.4562129696486
 20
379.6707396846452
 30
0.0
 10
138.7579762750973
 20
379.9304535332759
 30
0.0
 10
138.9923190450543
 20
380.1321416165696
 30
0.0
  0
SPLINE
  5
1E8
330
6C
100
AcDbEntity
  8
Sichtbare Kanten(DIN)
100
AcDbSpline
210
0.0
220
0.0
230
1.0
 70
     8
 71
     3
 72
    10
 73
     6
 74
     0
 42
0.0000000001
 43
0.0000000001
 40
0.0
 40
0.0
 40
0.0
 40
0.0
 40
0.0054675832229401
 40
0.0103154944328541
 40
0.0116913853705737
 40
0.0116913853705737
 40
0.0116913853705737
 40
0.0116913853705737
 10
138.0017155310566
 20
379.2699794616217
 30
0.0
 10
138.0138255473605
 20
379.2836190892062
 30
0.0
 10
138.0366730835884
 20
379.3093524885299
 30
0.0
 10
138.0658101728293
 20
379.3353416202576
 30
0.0
 10
138.0817696669353
 20
379.3485931879503
 30
0.0
 10
138.0852978194681
 20
379.3515227013678
 30
0.0
  0
SPLINE
  5
1E9
330
6C
100
AcDbEntity
  8
Sichtbare Kanten(DIN)
100
AcDbSpline
210
0.0
220
0.0
230
1.0
 70
     8
 71
     3
 72
    10
 73
     6
 74
     0
 42
0.0000000001
 43
0.0000000001
 40
0.0
 40
0.0
 40
0.0
 40
0.0
 40
0.0010828037756266
 40
0.0051618292639181
 40
0.0124807175523065
 40
0.0124807175523065
 40
0.0124807175523065
 40
0.0124807175523065
 10
137.9466050964864
 20
379.1591038520839
 30
0.0
 10
137.9472798907487
 20
379.162650461283
 30
0.0
 10
137.9504966996004
 20
379.17955748688
 30
0.0
 10
137.9655930812645
 20
379.2188474629668
 30
0.0
 10
137.987590459166
 20
379.2499851599875
 30
0.0
 10
138.0017155310566
 20
379.2699794616217
 30
0.0
  0
SPLINE
  5
1EA
330
6C
100
AcDbEntity
  8
Sichtbare Kanten(DIN)
100
AcDbSpline
210
0.0
220
0.0
230
1.0
 70
     8
 71
     3
 72
    10
 73
     6
 74
     0
 42
0.0000000001
 43
0.0000000001
 40
0.0
 40
0.0
 40
0.0
 40
0.0
 40
0.000165861301487
 40
0.0110630104919147
 40
0.0255781303280148
 40
0.0255781303280148
 40
0.0255781303280148
 40
0.0255781303280148
 10
137.8998753389993
 20
378.9076274189785
 30
0.0
 10
137.8999785822381
 20
378.9081705646502
 30
0.0
 10
137.9068649446637
 20
378.9443985829425
 30
0.0
 10
137.9222408525325
 20
379.0282618388933
 30
0.0
 10
137.9377477699549
 20
379.1115378189634
 30
0.0
 10
137.9466050964864
 20
379.1591038520839
 30
0.0
  0
SPLINE
  5
1EB
330
6C
100
AcDbEntity
  8
Sichtbare Kanten(DIN)
100
AcDbSpline
210
0.0
220
0.0
230
1.0
 70
     8
 71
     3
 72
    10
 73
     6
 74
     0
 42
0.0000000001
 43
0.0000000001
 40
0.0
 40
0.0
 40
0.0
 40
0.0
 40
0.0002977292952452
 40
0.0005190836882035
 40
0.0006010848843524
 40
0.0006010848843524
 40
0.0006010848843524
 40
0.0006010848843524
 10
137.8994637878925
 20
378.9016599279304
 30
0.0
 10
137.899400334555
 20
378.902652671557
 30
0.0
 10
137.899289705225
 20
378.9043834956022
 30
0.0
 10
137.8995652066554
 20
378.9063810540895
 30
0.0
 10
137.8998093450318
 20
378.9073622013524
 30
0.0
 10
137.8998753389993
 20
378.9076274189785
 30
0.0
  0
SPLINE
  5
1EC
330
6C
100
AcDbEntity
  8
Sichtbare Kanten(DIN)
100
AcDbSpline
210
0.0
220
0.0
230
1.0
 70
     8
 71
     3
 72
    10
 73
     6
 74
     0
 42
0.0000000001
 43
0.0000000001
 40
0.0
 40
0.0
 40
0.0
 40
0.0
 40
0.0011286606721423
 40
0.0022940769505922
 40
0.0035590350523297
 40
0.0035590350523297
 40
0.0035590350523297
 40
0.0035590350523297
 10
137.9096777380879
 20
378.8685300638353
 30
0.0
 10
137.9073894469375
 20
378.8715421423308
 30
0.0
 10
137.9027383448713
 20
378.8776643897173
 30
0.0
 10
137.899193010388
 20
378.8893012145844
 30
0.0
 10
137.8993710973972
 20
378.8974293872008
 30
0.0
 10
137.8994637878925
 20
378.9016599279304
 30
0.0
  0
SPLINE
  5
1ED
330
6C
100
AcDbEntity
  8
Sichtbare Kanten(DIN)
100
AcDbSpline
210
0.0
220
0.0
230
1.0
 70
     8
 71
     3
 72
    10
 73
     6
 74
     0
 42
0.0000000001
 43
0.0000000001
 40
0.0
 40
0.0
 40
0.0
 40
0.0
 40
0.0012501309451573
 40
0.0024010038050724
 40
0.0035125844605094
 40
0.0035125844605094
 40
0.0035125844605094
 40
0.0035125844605094
 10
137.9412549320983
 20
378.8553791352871
 30
0.0
 10
137.93708370269
 20
378.8556805750942
 30
0.0
 10
137.9290724317753
 20
378.856259520945
 30
0.0
 10
137.917971480714
 20
378.8608423656016
 30
0.0
 10
137.9124101241272
 20
378.8659973400367
 30
0.0
 10
137.9096777380879
 20
378.8685300638353
 30
0.0
  0
LINE
  5
1EE
330
6C
100
AcDbEntity
  8
Sichtbare Kanten(DIN)
100
AcDbLine
 10
139.3002715141299
 20
378.8553791352871
 30
0.0
 11
137.9412549320983
 21
378.8553791352871
 31
0.0
  0
SPLINE
  5
1EF
330
6C
100
AcDbEntity
  8
Sichtbare Kanten(DIN)
100
AcDbSpline
210
0.0
220
0.0
230
1.0
 70
     8
 71
     3
 72
    10
 73
     6
 74
     0
 42
0.0000000001
 43
0.0000000001
 40
0.0
 40
0.0
 40
0.0
 40
0.0
 40
0.0057504749587655
 40
0.0123008629642526
 40
0.0210879509398231
 40
0.0210879509398231
 40
0.0210879509398231
 40
0.0210879509398231
 10
139.4708033272809
 20
378.9541139871752
 30
0.0
 10
139.4629474076858
 20
378.9361719922248
 30
0.0
 10
139.4461427800524
 20
378.8977922022472
 30
0.0
 10
139.3807605607388
 20
378.8612359999421
 30
0.0
 10
139.3295887003345
 20
378.8575124291812
 30
0.0
 10
139.3002715141299
 20
378.8553791352871
 30
0.0
  0
SPLINE
  5
1F0
330
6C
100
AcDbEntity
  8
Sichtbare Kanten(DIN)
100
AcDbSpline
210
0.0
220
0.0
230
1.0
 70
     8
 71
     3
 72
    10
 73
     6
 74
     0
 42
0.0000000001
 43
0.0000000001
 40
0.0
 40
0.0
 40
0.0
 40
0.0
 40
0.0000230670853742
 40
0.0001617868674109
 40
0.0267802765649739
 40
0.0267802765649739
 40
0.0267802765649739
 40
0.0267802765649739
 10
139.5162610177107
 20
379.2180304878262
 30
0.0
 10
139.5162481279987
 20
379.2179546856347
 30
0.0
 10
139.5161577227267
 20
379.217423027695
 30
0.0
 10
139.5009935030501
 20
379.1294528054208
 30
0.0
 10
139.4858591840672
 20
379.0415555495155
 30
0.0
 10
139.4708033272809
 20
378.9541139871752
 30
0.0
  0
SPLINE
  5
1F1
330
6C
100
AcDbEntity
  8
Sichtbare Kanten(DIN)
100
AcDbSpline
210
0.0
220
0.0
230
1.0
 70
     8
 71
     3
 72
    10
 73
     6
 74
     0
 42
0.0000000001
 43
0.0000000001
 40
0.0
 40
0.0
 40
0.0
 40
0.0
 40
0.0011946223348497
 40
0.0024222120206529
 40
0.003763733280748
 40
0.003763733280748
 40
0.003763733280748
 40
0.003763733280748
 10
139.5076558582055
 20
379.253554831088
 30
0.0
 10
139.5099427342883
 20
379.2502654653546
 30
0.0
 10
139.5145795961451
 20
379.2435959590284
 30
0.0
 10
139.5175852161176
 20
379.2310523393698
 30
0.0
 10
139.5167152768232
 20
379.2224975636777
 30
0.0
 10
139.5162610177107
 20
379.2180304878262
 30
0.0
  0
SPLINE
  5
1F2
330
6C
100
AcDbEntity
  8
Sichtbare Kanten(DIN)
100
AcDbSpline
210
0.0
220
0.0
230
1.0
 70
     8
 71
     3
 72
    10
 73
     6
 74
     0
 42
0.0000000001
 43
0.0000000001
 40
0.0
 40
0.0
 40
0.0
 40
0.0
 40
0.0013419134339858
 40
0.0025693141130201
 40
0.0037660789080789
 40
0.0037660789080789
 40
0.0037660789080789
 40
0.0037660789080789
 10
139.4741331498721
 20
379.2682023091152
 30
0.0
 10
139.4786122225312
 20
379.267869834567
 30
0.0
 10
139.4871881442747
 20
379.2672332573279
 30
0.0
 10
139.499024245878
 20
379.2620945904584
 30
0.0
 10
139.504802997479
 20
379.2563773332112
 30
0.0
 10
139.5076558582055
 20
379.253554831088
 30
0.0
  0
LINE
  5
1F3
330
6C
100
AcDbEntity
  8
Sichtbare Kanten(DIN)
100
AcDbLine
 10
138.6621054024761
 20
379.2682023091152
 30
0.0
 11
139.4741331498721
 21
379.2682023091152
 31
0.0
  0
SPLINE
  5
1F4
330
6C
100
AcDbEntity
  8
Sichtbare Kanten(DIN)
100
AcDbSpline
210
0.0
220
0.0
230
1.0
 70
     8
 71
     3
 72
    10
 73
     6
 74
     0
 42
0.0000000001
 43
0.0000000001
 40
0.0
 40
0.0
 40
0.0
 40
0.0
 40
0.0001524481033975
 40
0.0078441775005177
 40
0.1133354817741845
 40
0.1133354817741845
 40
0.1133354817741845
 40
0.1133354817741845
 10
139.5039518982445
 20
380.0270090156582
 30
0.0
 10
139.5035740948007
 20
380.0266691752605
 30
0.0
 10
139.4841343168853
 20
380.0091827760102
 30
0.0
 10
139.2036139855691
 20
379.7561414803262
 30
0.0
 10
138.923336085705
 20
379.5035904212325
 30
0.0
 10
138.6621054024761
 20
379.2682023091152
 30
0.0
  0
SPLINE
  5
1F5
330
6C
100
AcDbEntity
  8
Sichtbare Kanten(DIN)
100
AcDbSpline
210
0.0
220
0.0
230
1.0
 70
     8
 71
     3
 72
    10
 73
     6
 74
     0
 42
0.0000000001
 43
0.0000000001
 40
0.0
 40
0.0
 40
0.0
 40
0.0
 40
0.0058095501940466
 40
0.013282127799746
 40
0.0163935577086522
 40
0.0163935577086522
 40
0.0163935577086522
 40
0.0163935577086522
 10
139.6124891492211
 20
380.1487720226569
 30
0.0
 10
139.6021649953568
 20
380.1323125053684
 30
0.0
 10
139.5785613209812
 20
380.0946818102465
 30
0.0
 10
139.5383424380081
 20
380.05696842243
 30
0.0
 10
139.5117649932699
 20
380.0338154133949
 30
0.0
 10
139.5039518982445
 20
380.0270090156582
 30
0.0
  0
SPLINE
  5
1F6
330
6C
100
AcDbEntity
  8
Sichtbare Kanten(DIN)
100
AcDbSpline
210
0.0
220
0.0
230
1.0
 70
     8
 71
     3
 72
    10
 73
     6
 74
     0
 42
0.0000000001
 43
0.0000000001
 40
0.0
 40
0.0
 40
0.0
 40
0.0
 40
0.0002284761255046
 40
0.002237644999733
 40
0.0072479849988259
 40
0.0072479849988259
 40
0.0072479849988259
 40
0.0072479849988259
 10
139.6349748051455
 20
380.2175571780931
 30
0.0
 10
139.6348495227064
 20
380.2168059335437
 30
0.0
 10
139.6336225340095
 20
380.2094484094023
 30
0.0
 10
139.627440792419
 20
380.1860187756176
 30
0.0
 10
139.6187163941982
 20
380.1642850102409
 30
0.0
 10
139.6124891492211
 20
380.1487720226569
 30
0.0
  0
SPLINE
  5
1F7
330
6C
100
AcDbEntity
  8
Sichtbare Kanten(DIN)
100
AcDbSpline
210
0.0
220
0.0
230
1.0
 70
    24
 71
     3
 72
    10
 73
     6
 74
     0
 42
0.0000000001
 43
0.0000000001
 40
0.0
 40
0.0
 40
0.0
 40
0.0
 40
0.0064119561058975
 40
0.0183198745882612
 40
0.0247318306941419
 40
0.0247318306941419
 40
0.0247318306941419
 40
0.0247318306941419
 10
139.6765040531925
 20
380.4613637951177
 30
0.0
 10
139.6729151058304
 20
380.4402940874735
 30
0.0
 10
139.6626609705103
 20
380.3800949227761
 30
0.0
 10
139.648817887828
 20
380.2988260504345
 30
0.0
 10
139.6385637525076
 20
380.2386268857372
 30
0.0
 10
139.6349748051455
 20
380.2175571780931
 30
0.0
  0
SPLINE
  5
1F8
330
6C
100
AcDbEntity
  8
Sichtbare Kanten(DIN)
100
AcDbSpline
210
0.0
220
0.0
230
1.0
 70
     8
 71
     3
 72
    10
 73
     6
 74
     0
 42
0.0000000001
 43
0.0000000001
 40
0.0
 40
0.0
 40
0.0
 40
0.0
 40
0.0011917736229571
 40
0.0024172950002037
 40
0.0037576555674698
 40
0.0037576555674698
 40
0.0037576555674698
 40
0.0037576555674698
 10
139.6679737211613
 20
380.4968507246426
 30
0.0
 10
139.6702475443346
 20
380.4935639235339
 30
0.0
 10
139.6748595791056
 20
380.4868972481406
 30
0.0
 10
139.6778350711752
 20
380.4743694906123
 30
0.0
 10
139.6769607693367
 20
380.4658264779487
 30
0.0
 10
139.6765040531925
 20
380.4613637951177
 30
0.0
  0
SPLINE
  5
1F9
330
6C
100
AcDbEntity
  8
Sichtbare Kanten(DIN)
100
AcDbSpline
210
0.0
220
0.0
230
1.0
 70
     8
 71
     3
 72
    10
 73
     6
 74
     0
 42
0.0000000001
 43
0.0000000001
 40
0.0
 40
0.0
 40
0.0
 40
0.0
 40
0.0013485889265994
 40
0.0025802332752695
 40
0.003778716377513
 40
0.003778716377513
 40
0.003778716377513
 40
0.003778716377513
 10
139.6343761853539
 20
380.5115917370124
 30
0.0
 10
139.6388772600869
 20
380.5112580130273
 30
0.0
 10
139.6474890932197
 20
380.510619504351
 30
0.0
 10
139.6593686660389
 20
380.5054576030244
 30
0.0
 10
139.6651315828257
 20
380.4996934651772
 30
0.0
 10
139.6679737211613
 20
380.4968507246426
 30
0.0
  0
SPLINE
  5
1FA
330
6C
100
AcDbEntity
  8
Sichtbare Kanten(DIN)
100
AcDbSpline
210
0.0
220
0.0
230
1.0
 70
     8
 71
     3
 72
    10
 73
     6
 74
     0
 42
0.0000000001
 43
0.0000000001
 40
0.0
 40
0.0
 40
0.0
 40
0.0
 40
0.0013399459018975
 40
0.0025686710072605
 40
0.0037651661134934
 40
0.0037651661134934
 40
0.0037651661134934
 40
0.0037651661134934
 10
133.9181745015961
 20
378.8553791352871
 30
0.0
 10
133.9137020701558
 20
378.8557152745823
 30
0.0
 10
133.9051284367305
 20
378.8563596522848
 30
0.0
 10
133.8933055771679
 20
378.8615246422907
 30
0.0
 10
133.8875357710819
 20
378.8672554231419
 30
0.0
 10
133.8846892069997
 20
378.8700827339199
 30
0.0
  0
LINE
  5
1FB
330
6C
100
AcDbEntity
  8
Sichtbare Kanten(DIN)
100
AcDbLine
 10
134.3876046594738
 20
378.8553791352871
 30
0.0
 11
133.9181745015961
 21
378.8553791352871
 31
0.0
  0
SPLINE
  5
1FC
330
6C
100
AcDbEntity
  8
Sichtbare Kanten(DIN)
100
AcDbSpline
210
0.0
220
0.0
230
1.0
 70
     8
 71
     3
 72
    10
 73
     6
 74
     0
 42
0.0000000001
 43
0.0000000001
 40
0.0
 40
0.0
 40
0.0
 40
0.0
 40
0.0028807590428643
 40
0.0058547115525468
 40
0.0087324469895122
 40
0.0087324469895122
 40
0.0087324469895122
 40
0.0087324469895122
 10
134.4501043070976
 20
378.9078331945319
 30
0.0
 10
134.4469300929633
 20
378.8986525810396
 30
0.0
 10
134.4404789778628
 20
378.879994358303
 30
0.0
 10
134.4166776390334
 20
378.8600061891481
 30
0.0
 10
134.3971888370145
 20
378.8569044865365
 30
0.0
 10
134.3876046594738
 20
378.8553791352871
 30
0.0
  0
SPLINE
  5
1FD
330
6C
100
AcDbEntity
  8
Sichtbare Kanten(DIN)
100
AcDbSpline
210
0.0
220
0.0
230
1.0
 70
    24
 71
     3
 72
    10
 73
     6
 74
     0
 42
0.0000000001
 43
0.0000000001
 40
0.0
 40
0.0
 40
0.0
 40
0.0
 40
0.0604489515376169
 40
0.1727112901073986
 40
0.233160241644971
 40
0.233160241644971
 40
0.233160241644971
 40
0.233160241644971
 10
134.855332492319
 20
381.2039516466803
 30
0.0
 10
134.8203127726085
 20
381.0055216569884
 30
0.0
 10
134.7202564305782
 20
380.4385788292973
 30
0.0
 10
134.5851803688376
 20
379.6732060119146
 30
0.0
 10
134.4851240268079
 20
379.1062631842237
 30
0.0
 10
134.4501043070976
 20
378.9078331945319
 30
0.0
  0
SPLINE
  5
1FE
330
6C
100
AcDbEntity
  8
Sichtbare Kanten(DIN)
100
AcDbSpline
210
0.0
220
0.0
230
1.0
 70
     8
 71
     3
 72
    10
 73
     6
 74
     0
 42
0.0000000001
 43
0.0000000001
 40
0.0
 40
0.0
 40
0.0
 40
0.0
 40
0.0012007305691038
 40
0.0024313463641171
 40
0.003774918447834
 40
0.003774918447834
 40
0.003774918447834
 40
0.003774918447834
 10
134.8466337984713
 20
381.2395695242845
 30
0.0
 10
134.8489354770132
 20
381.2362654649842
 30
0.0
 10
134.8535961210397
 20
381.2295751109839
 30
0.0
 10
134.8566270377068
 20
381.2169999323243
 30
0.0
 10
134.8557764488301
 20
381.2084264773233
 30
0.0
 10
134.855332492319
 20
381.2039516466803
 30
0.0
  0
SPLINE
  5
1FF
330
6C
100
AcDbEntity
  8
Sichtbare Kanten(DIN)
100
AcDbSpline
210
0.0
220
0.0
230
1.0
 70
     8
 71
     3
 72
    10
 73
     6
 74
     0
 42
0.0000000001
 43
0.0000000001
 40
0.0
 40
0.0
 40
0.0
 40
0.0
 40
0.0013378495582371
 40
0.0025628632467764
 40
0.0037540210969504
 40
0.0037540210969504
 40
0.0037540210969504
 40
0.0037540210969504
 10
134.8132233313489
 20
381.2541795885747
 30
0.0
 10
134.8176885696642
 20
381.2538463804706
 30
0.0
 10
134.8262424426285
 20
381.2532080674417
 30
0.0
 10
134.8380407549119
 20
381.2480836654227
 30
0.0
 10
134.8437963333581
 20
381.2423809354312
 30
0.0
 10
134.8466337984713
 20
381.2395695242845
 30
0.0
  0
LINE
  5
200
330
6C
100
AcDbEntity
  8
Sichtbare Kanten(DIN)
100
AcDbLine
 10
134.3438492940767
 20
381.2541795885747
 30
0.0
 11
134.8132233313489
 21
381.2541795885747
 31
0.0
  0
SPLINE
  5
201
330
6C
100
AcDbEntity
  8
Sichtbare Kanten(DIN)
100
AcDbSpline
210
0.0
220
0.0
230
1.0
 70
     8
 71
     3
 72
    10
 73
     6
 74
     0
 42
0.0000000001
 43
0.0000000001
 40
0.0
 40
0.0
 40
0.0
 40
0.0
 40
0.0028822582435835
 40
0.005855999716643
 40
0.0087345798676043
 40
0.0087345798676043
 40
0.0087345798676043
 40
0.0087345798676043
 10
134.2813309395844
 20
381.20172552933
 30
0.0
 10
134.2845047594876
 20
381.2109122848656
 30
0.0
 10
134.2909531367264
 20
381.2295773846819
 30
0.0
 10
134.3147709934909
 20
381.2495592101559
 30
0.0
 10
134.3342621722596
 20
381.2526562488386
 30
0.0
 10
134.3438492940767
 20
381.2541795885747
 30
0.0
  0
SPLINE
  5
202
330
6C
100
AcDbEntity
  8
Sichtbare Kanten(DIN)
100
AcDbSpline
210
0.0
220
0.0
230
1.0
 70
    24
 71
     3
 72
    10
 73
     6
 74
     0
 42
0.0000000001
 43
0.0000000001
 40
0.0
 40
0.0
 40
0.0
 40
0.0
 40
0.0604501596472246
 40
0.1727147418492844
 40
0.2331649014965384
 40
0.2331649014965384
 40
0.2331649014965384
 40
0.2331649014965384
 10
133.8760466337575
 20
378.9055696634447
 30
0.0
 10
133.9110712033967
 20
379.1040028864224
 30
0.0
 10
134.0111414023659
 20
379.6709549520732
 30
0.0
 10
134.1462361709752
 20
380.4363402407015
 30
0.0
 10
134.246306369945
 20
381.0032923063523
 30
0.0
 10
134.2813309395844
 20
381.20172552933
 30
0.0
  0
SPLINE
  5
203
330
6C
100
AcDbEntity
  8
Sichtbare Kanten(DIN)
100
AcDbSpline
210
0.0
220
0.0
230
1.0
 70
     8
 71
     3
 72
    10
 73
     6
 74
     0
 42
0.0000000001
 43
0.0000000001
 40
0.0
 40
0.0
 40
0.0
 40
0.0
 40
0.0011950635321324
 40
0.0024213891508237
 40
0.0037609971570718
 40
0.0037609971570718
 40
0.0037609971570718
 40
0.0037609971570718
 10
133.8846892069997
 20
378.8700827339199
 30
0.0
 10
133.8823972743253
 20
378.8733704646778
 30
0.0
 10
133.8777534535049
 20
378.8800319310969
 30
0.0
 10
133.8747371534939
 20
378.8925634594889
 30
0.0
 10
133.875597479604
 20
378.9011085114213
 30
0.0
 10
133.8760466337575
 20
378.9055696634447
 30
0.0
  0
SPLINE
  5
204
330
6C
100
AcDbEntity
  8
Sichtbare Kanten(DIN)
100
AcDbSpline
210
0.0
220
0.0
230
1.0
 70
     8
 71
     3
 72
    17
 73
    13
 74
     0
 42
0.0000000001
 43
0.0000000001
 40
-0.0001317261390849
 40
-0.0001317261390849
 40
-0.0001317261390849
 40
-0.0001317261390849
 40
0.0
 40
0.0
 40
0.0
 40
0.018805102356413
 40
0.018805102356413
 40
0.0376102047128261
 40
0.0376102047128261
 40
0.056820972269143
 40
0.056820972269143
 40
0.075916853239034
 40
0.075916853239034
 40
0.075916853239034
 40
0.075916853239034
 10
138.9254303667136
 20
369.0774730446773
 30
0.0
 10
138.9254304362502
 20
369.0774785601255
 30
0.0
 10
138.9254298924119
 20
369.077483936897
 30
0.0
 10
138.9254287352776
 20
369.0774891749362
 30
0.0
 10
138.925263543851
 20
369.078236952573
 30
0.0
 10
138.9125720314431
 20
369.0762524746127
 30
0.0
 10
138.8616180047005
 20
369.0666559290412
 30
0.0
 10
138.8233640422538
 20
369.0590683966878
 30
0.0
 10
138.7347692267594
 20
369.0414546269129
 30
0.0
 10
138.678172728878
 20
369.0301877302454
 30
0.0
 10
138.55477563863
 20
369.0060637051031
 30
0.0
 10
138.4880355607559
 20
368.9932371719584
 30
0.0
 10
138.4254304711516
 20
368.9814538756593
 30
0.0
  0
SPLINE
  5
205
330
6C
100
AcDbEntity
  8
Sichtbare Kanten(DIN)
100
AcDbSpline
210
0.0
220
0.0
230
1.0
 70
     8
 71
     3
 72
    16
 73
    12
 74
     0
 42
0.0000000001
 43
0.0000000001
 40
0.0760502806032574
 40
0.0760502806032574
 40
0.0760502806032574
 40
0.0760502806032574
 40
0.0951461615731485
 40
0.0951461615731485
 40
0.1143569291294654
 40
0.1143569291294654
 40
0.1331620314858784
 40
0.1331620314858784
 40
0.1519671338422915
 40
0.1519671338422915
 40
0.1520988599813764
 40
0.1520988599813764
 40
0.1520988599813764
 40
0.1520988599813764
 10
132.4254304723547
 20
368.9814538756593
 30
0.0
 10
132.3628253827505
 20
368.9932371719584
 30
0.0
 10
132.2960853048764
 20
369.0060637051031
 30
0.0
 10
132.1726882146284
 20
369.0301877302454
 30
0.0
 10
132.116091716747
 20
369.0414546269129
 30
0.0
 10
132.0274969012526
 20
369.0590683966878
 30
0.0
 10
131.9892429388059
 20
369.0666559290412
 30
0.0
 10
131.9382889120633
 20
369.0762524746127
 30
0.0
 10
131.9255973996554
 20
369.078236952573
 30
0.0
 10
131.9254310510945
 20
369.0774839368971
 30
0.0
 10
131.9254305072562
 20
369.0774785601255
 30
0.0
 10
131.9254305767928
 20
369.0774730446773
 30
0.0
  0
ARC
  5
206
330
6C
100
AcDbEntity
  8
Sichtbare Kanten(DIN)
100
AcDbCircle
 10
135.4254304717532
 20
384.9210500901091
 30
0.0
 40
16.21945521834459
100
AcDbArc
 50
259.3410215235197
 51
280.6589784764802
  0
LINE
  5
207
330
6C
100
AcDbEntity
  8
Sichtbare Kanten(DIN)
100
AcDbLine
 10
138.9254304717532
 20
369.0774732998059
 30
0.0
 11
138.9254304717532
 21
369.0524490175507
 31
0.0
  0
LINE
  5
208
330
6C
100
AcDbEntity
  8
Sichtbare Kanten(DIN)
100
AcDbLine
 10
131.9254304717532
 20
369.0524490175507
 30
0.0
 11
131.9254304717532
 21
369.0774732998059
 31
0.0
  0
ARC
  5
209
330
6C
100
AcDbEntity
  8
Sichtbare Kanten(DIN)
100
AcDbCircle
 10
135.4254304717532
 20
384.921050090109
 30
0.0
 40
16.25000000000007
100
AcDbArc
 50
180.0
 51
257.5619071849447
  0
LINE
  5
20A
330
6C
100
AcDbEntity
  8
Sichtbare Kanten(DIN)
100
AcDbLine
 10
119.1754304717531
 20
424.7210500901088
 30
0.0
 11
119.1754304717531
 21
384.921050090109
 31
0.0
  0
ARC
  5
20B
330
6C
100
AcDbEntity
  8
Sichtbare Kanten(DIN)
100
AcDbCircle
 10
135.4254304717532
 20
424.7210500901088
 30
0.0
 40
16.25000000000007
100
AcDbArc
 50
0.0
 51
180.0
  0
LINE
  5
20C
330
6C
100
AcDbEntity
  8
Sichtbare Kanten(DIN)
100
AcDbLine
 10
151.6754304717533
 20
384.921050090109
 30
0.0
 11
151.6754304717533
 21
394.8210500901089
 31
0.0
  0
LINE
  5
20D
330
6C
100
AcDbEntity
  8
Sichtbare Kanten(DIN)
100
AcDbLine
 10
151.6754304717533
 20
414.8210500901089
 30
0.0
 11
151.6754304717533
 21
424.7210500901088
 31
0.0
  0
ARC
  5
20E
330
6C
100
AcDbEntity
  8
Sichtbare Kanten(DIN)
100
AcDbCircle
 10
135.4254304717532
 20
384.921050090109
 30
0.0
 40
16.25000000000007
100
AcDbArc
 50
282.4380928150553
 51
0.0
  0
LINE
  5
20F
330
6C
100
AcDbEntity
  8
Sichtbare tangentiale Kanten(DIN)
100
AcDbLine
 10
151.6754304717533
 20
384.921050090109
 30
0.0
 11
151.5261032580256
 21
384.921050090109
 31
0.0
  0
LINE
  5
210
330
6C
100
AcDbEntity
  8
Sichtbare tangentiale Kanten(DIN)
100
AcDbLine
 10
119.1754304717531
 20
384.921050090109
 30
0.0
 11
119.3247576854807
 21
384.921050090109
 31
0.0
  0
LINE
  5
211
330
6C
100
AcDbEntity
  8
Sichtbare tangentiale Kanten(DIN)
100
AcDbLine
 10
119.1754304717531
 20
424.7210500901088
 30
0.0
 11
119.3247576854807
 21
424.7210500901088
 31
0.0
  0
LINE
  5
212
330
6C
100
AcDbEntity
  8
Sichtbare tangentiale Kanten(DIN)
100
AcDbLine
 10
151.6754304717533
 20
424.7210500901088
 30
0.0
 11
151.5261032580256
 21
424.7210500901088
 31
0.0
  0
ARC
  5
213
330
6C
100
AcDbEntity
  8
Sichtbare tangentiale Kanten(DIN)
100
AcDbCircle
 10
135.4254304717532
 20
384.921050090109
 30
0.0
 40
16.10067278627245
100
AcDbArc
 50
180.0
 51
0.0
  0
LINE
  5
214
330
6C
100
AcDbEntity
  8
Sichtbare tangentiale Kanten(DIN)
100
AcDbLine
 10
121.1246233508696
 20
384.921050090109
 30
0.0
 11
119.3247576854808
 21
384.921050090109
 31
0.0
  0
LINE
  5
215
330
6C
100
AcDbEntity
  8
Sichtbare tangentiale Kanten(DIN)
100
AcDbLine
 10
121.1246233508696
 20
384.921050090109
 30
0.0
 11
121.1246233508696
 21
424.7210500901088
 31
0.0
  0
LINE
  5
216
330
6C
100
AcDbEntity
  8
Sichtbare tangentiale Kanten(DIN)
100
AcDbLine
 10
119.3247576854807
 20
424.7210500901088
 30
0.0
 11
121.1246233508696
 21
424.7210500901088
 31
0.0
  0
LINE
  5
217
330
6C
100
AcDbEntity
  8
Sichtbare tangentiale Kanten(DIN)
100
AcDbLine
 10
119.3247576854807
 20
424.7210500901088
 30
0.0
 11
119.3247576854807
 21
384.921050090109
 31
0.0
  0
LINE
  5
218
330
6C
100
AcDbEntity
  8
Sichtbare tangentiale Kanten(DIN)
100
AcDbLine
 10
149.7262375926368
 20
384.921050090109
 30
0.0
 11
151.5261032580256
 21
384.921050090109
 31
0.0
  0
ARC
  5
219
330
6C
100
AcDbEntity
  8
Sichtbare tangentiale Kanten(DIN)
100
AcDbCircle
 10
135.4254304717532
 20
384.921050090109
 30
0.0
 40
14.30080712088362
100
AcDbArc
 50
180.0
 51
0.0
  0
LINE
  5
21A
330
6C
100
AcDbEntity
  8
Sichtbare tangentiale Kanten(DIN)
100
AcDbLine
 10
151.5261032580256
 20
424.7210500901088
 30
0.0
 11
149.7262375926368
 21
424.7210500901088
 31
0.0
  0
ARC
  5
21B
330
6C
100
AcDbEntity
  8
Sichtbare tangentiale Kanten(DIN)
100
AcDbCircle
 10
135.4254304717532
 20
424.7210500901088
 30
0.0
 40
16.10067278627245
100
AcDbArc
 50
0.0
 51
180.0
  0
ARC
  5
21C
330
6C
100
AcDbEntity
  8
Sichtbare tangentiale Kanten(DIN)
100
AcDbCircle
 10
135.4254304717532
 20
424.7210500901088
 30
0.0
 40
14.30080712088362
100
AcDbArc
 50
0.0
 51
180.0
  0
LINE
  5
21D
330
6C
100
AcDbEntity
  8
Sichtbare tangentiale Kanten(DIN)
100
AcDbLine
 10
151.5261032580256
 20
384.921050090109
 30
0.0
 11
151.5261032580256
 21
394.8210500901089
 31
0.0
  0
LINE
  5
21E
330
6C
100
AcDbEntity
  8
Sichtbare tangentiale Kanten(DIN)
100
AcDbLine
 10
151.5261032580256
 20
414.8210500901089
 30
0.0
 11
151.5261032580256
 21
424.7210500901088
 31
0.0
  0
LINE
  5
21F
330
6C
100
AcDbEntity
  8
Sichtbare tangentiale Kanten(DIN)
100
AcDbLine
 10
149.7262375926368
 20
424.7210500901088
 30
0.0
 11
149.7262375926368
 21
414.8210500901089
 31
0.0
  0
LINE
  5
220
330
6C
100
AcDbEntity
  8
Sichtbare tangentiale Kanten(DIN)
100
AcDbLine
 10
149.7262375926368
 20
394.8210500901089
 30
0.0
 11
149.7262375926368
 21
384.921050090109
 31
0.0
  0
ARC
  5
221
330
6C
100
AcDbEntity
  8
Sichtbare Kanten(DIN)
100
AcDbCircle
 10
135.4254304717532
 20
404.8210500901088
 30
0.0
 40
10.10000000000001
100
AcDbArc
 50
199.1911980337059
 51
278.0693011593933
  0
ARC
  5
222
330
6C
100
AcDbEntity
  8
Sichtbare Kanten(DIN)
100
AcDbCircle
 10
135.4254304717532
 20
404.8210500901088
 30
0.0
 40
10.10000000000002
100
AcDbArc
 50
171.9306988406069
 51
188.069301159393
  0
ARC
  5
223
330
6C
100
AcDbEntity
  8
Sichtbare Kanten(DIN)
100
AcDbCircle
 10
135.4254304717532
 20
404.8210500901088
 30
0.0
 40
10.1
100
AcDbArc
 50
81.93069884060586
 51
166.786980732912
  0
ARC
  5
224
330
6C
100
AcDbEntity
  8
Sichtbare Kanten(DIN)
100
AcDbCircle
 10
277.4254304717532
 20
404.8210500901088
 30
0.0
 40
10.0
100
AcDbArc
 50
270.0000000000002
 51
89.99999999999976
  0
ARC
  5
225
330
6C
100
AcDbEntity
  8
Sichtbare Kanten(DIN)
100
AcDbCircle
 10
157.4254304717532
 20
404.8210500901088
 30
0.0
 40
10.0
100
AcDbArc
 50
90.0
 51
270.0
  0
LINE
  5
226
330
6C
100
AcDbEntity
  8
Sichtbare Kanten(DIN)
100
AcDbLine
 10
157.4254304717532
 20
414.8210500901089
 30
0.0
 11
277.4254304717532
 21
414.8210500901089
 31
0.0
  0
LINE
  5
227
330
6C
100
AcDbEntity
  8
Sichtbare Kanten(DIN)
100
AcDbLine
 10
157.4254304717532
 20
394.8210500901089
 30
0.0
 11
277.4254304717532
 21
394.8210500901089
 31
0.0
  0
ARC
  5
228
330
6C
100
AcDbEntity
  8
Sichtbare Kanten(DIN)
100
AcDbCircle
 10
277.4254304717532
 20
404.8210500901088
 30
0.0
 40
10.1
100
AcDbArc
 50
261.9306988406063
 51
98.0693011593938
  0
ARC
  5
229
330
6C
100
AcDbEntity
  8
Sichtbare Kanten(DIN)
100
AcDbCircle
 10
135.4254304717532
 20
404.8210500901088
 30
0.0
 40
10.0
100
AcDbArc
 50
90.0
 51
270.0
  0
LINE
  5
22A
330
6C
100
AcDbEntity
  8
Sichtbare Kanten(DIN)
100
AcDbLine
 10
157.4254304717532
 20
394.8210500901089
 30
0.0
 11
135.4254304717532
 21
394.8210500901089
 31
0.0
  0
LINE
  5
22B
330
6C
100
AcDbEntity
  8
Sichtbare Kanten(DIN)
100
AcDbLine
 10
135.4254304717532
 20
414.8210500901089
 30
0.0
 11
157.4254304717532
 21
414.8210500901089
 31
0.0
  0
LINE
  5
22C
330
6C
100
AcDbEntity
  8
Sichtbare Kanten(DIN)
100
AcDbLine
 10
126.0063823628713
 20
401.4622507923585
 30
0.0
 11
125.9254304717532
 21
401.4622507923585
 31
0.0
  0
LINE
  5
22D
330
6C
100
AcDbEntity
  8
Sichtbare Kanten(DIN)
100
AcDbLine
 10
119.1754304717121
 20
266.8539480119277
 30
0.0
 11
151.6754304717123
 21
266.8539480119277
 31
0.0
  0
LINE
  5
22E
330
6C
100
AcDbEntity
  8
Sichtbare Kanten(DIN)
100
AcDbLine
 10
119.1754304717122
 20
266.8539480119277
 30
0.0
 11
119.3247576854398
 21
254.6319574104243
 31
0.0
  0
LINE
  5
22F
330
6C
100
AcDbEntity
  8
Sichtbare Kanten(DIN)
100
AcDbLine
 10
151.6754304717123
 20
266.8539480119277
 30
0.0
 11
151.5261032579847
 21
254.6319574104242
 31
0.0
  0
ARC
  5
230
330
6C
100
AcDbEntity
  8
Sichtbare Kanten(DIN)
100
AcDbCircle
 10
121.1246233508286
 20
254.6539480119277
 30
0.0
 40
1.800000000000009
100
AcDbArc
 50
180.699999999999
 51
270.0
  0
ARC
  5
231
330
6C
100
AcDbEntity
  8
Sichtbare Kanten(DIN)
100
AcDbCircle
 10
149.7262375925959
 20
254.6539480119277
 30
0.0
 40
1.800000000000018
100
AcDbArc
 50
270.0
 51
359.2999999999995
  0
LINE
  5
232
330
6C
100
AcDbEntity
  8
Sichtbare tangentiale Kanten(DIN)
100
AcDbLine
 10
119.3247576854398
 20
254.6319574104243
 30
0.0
 11
151.5261032579847
 21
254.6319574104243
 31
0.0
  0
LINE
  5
233
330
6C
100
AcDbEntity
  8
Sichtbare Kanten(DIN)
100
AcDbLine
 10
149.7262375925959
 20
252.8539480119277
 30
0.0
 11
121.1246233508286
 21
252.8539480119277
 31
0.0
  0
LINE
  5
234
330
6C
100
AcDbEntity
  8
Sichtbare Kanten(DIN)
100
AcDbLine
 10
138.6574812792808
 20
277.3039480119291
 30
0.0
 11
132.1933796641435
 21
277.3039480119292
 31
0.0
  0
LINE
  5
235
330
6C
100
AcDbEntity
  8
Sichtbare Kanten(DIN)
100
AcDbLine
 10
131.9254304717124
 20
276.3039480119283
 30
0.0
 11
138.9254304717124
 21
276.3039480119283
 31
0.0
  0
LINE
  5
236
330
6C
100
AcDbEntity
  8
Sichtbare Kanten(DIN)
100
AcDbLine
 10
138.6574812792807
 20
277.3039480119292
 30
0.0
 11
138.9254304717121
 21
276.3039480119281
 31
0.0
  0
LINE
  5
237
330
6C
100
AcDbEntity
  8
Sichtbare Kanten(DIN)
100
AcDbLine
 10
132.1933796641435
 20
277.3039480119292
 30
0.0
 11
131.9254304717121
 21
276.3039480119283
 31
0.0
  0
LINE
  5
238
330
6C
100
AcDbEntity
  8
Sichtbare Kanten(DIN)
100
AcDbLine
 10
138.9254304717124
 20
276.3039480119283
 30
0.0
 11
138.9254304717124
 21
266.8539480119293
 31
0.0
  0
LINE
  5
239
330
6C
100
AcDbEntity
  8
Sichtbare Kanten(DIN)
100
AcDbLine
 10
131.9254304717124
 20
276.3039480119283
 30
0.0
 11
131.9254304717124
 21
266.8539480119293
 31
0.0
  0
LINE
  5
23A
330
6C
100
AcDbEntity
  8
Sichtbare Kanten(DIN)
100
AcDbLine
 10
145.5254304717121
 20
252.6539480119218
 30
0.0
 11
125.3254304717122
 21
252.6539480119218
 31
0.0
  0
LINE
  5
23B
330
6C
100
AcDbEntity
  8
Sichtbare Kanten(DIN)
100
AcDbLine
 10
125.3254304717122
 20
252.6539480119218
 30
0.0
 11
125.3254304717122
 21
252.8539480119218
 31
0.0
  0
LINE
  5
23C
330
6C
100
AcDbEntity
  8
Sichtbare Kanten(DIN)
100
AcDbLine
 10
145.5254304717121
 20
252.6539480119218
 30
0.0
 11
145.5254304717121
 21
252.8539480119218
 31
0.0
  0
LINE
  5
23D
330
6C
100
AcDbEntity
  8
Sichtbare Kanten(DIN)
100
AcDbLine
 10
287.4254304717123
 20
194.1539480119217
 30
0.0
 11
277.4254304717123
 21
204.1539480119247
 31
0.0
  0
LINE
  5
23E
330
6C
100
AcDbEntity
  8
Sichtbare Kanten(DIN)
100
AcDbLine
 10
267.4254304717123
 20
214.1539480119218
 30
0.0
 11
277.4254304717123
 21
204.1539480119247
 31
0.0
  0
LINE
  5
23F
330
6C
100
AcDbEntity
  8
Sichtbare Kanten(DIN)
100
AcDbLine
 10
147.4254304717122
 20
194.1539480119218
 30
0.0
 11
157.4254304717122
 21
204.1539480119248
 31
0.0
  0
LINE
  5
240
330
6C
100
AcDbEntity
  8
Sichtbare Kanten(DIN)
100
AcDbLine
 10
167.4254304717122
 20
214.1539480119218
 30
0.0
 11
157.4254304717122
 21
204.1539480119248
 31
0.0
  0
LINE
  5
241
330
6C
100
AcDbEntity
  8
Sichtbare Kanten(DIN)
100
AcDbLine
 10
157.4254304717122
 20
224.1539480119248
 30
0.0
 11
167.4254304717122
 21
224.1539480119218
 31
0.0
  0
LINE
  5
242
330
6C
100
AcDbEntity
  8
Sichtbare Kanten(DIN)
100
AcDbLine
 10
267.4254304717123
 20
214.1539480119218
 30
0.0
 11
267.4254304717123
 21
233.1539480119218
 31
0.0
  0
LINE
  5
243
330
6C
100
AcDbEntity
  8
Sichtbare Kanten(DIN)
100
AcDbLine
 10
287.4254304717123
 20
194.1539480119217
 30
0.0
 11
287.4254304717123
 21
233.1539480119218
 31
0.0
  0
LINE
  5
244
330
6C
100
AcDbEntity
  8
Sichtbare Kanten(DIN)
100
AcDbLine
 10
167.4254304717122
 20
214.1539480119218
 30
0.0
 11
267.4254304717123
 21
214.1539480119218
 31
0.0
  0
LINE
  5
245
330
6C
100
AcDbEntity
  8
Sichtbare Kanten(DIN)
100
AcDbLine
 10
147.4254304717122
 20
194.1539480119218
 30
0.0
 11
287.4254304717123
 21
194.1539480119217
 31
0.0
  0
LINE
  5
246
330
6C
100
AcDbEntity
  8
Sichtbare Kanten(DIN)
100
AcDbLine
 10
167.4254304717122
 20
224.1539480119218
 30
0.0
 11
167.4254304717122
 21
214.1539480119218
 31
0.0
  0
LINE
  5
247
330
6C
100
AcDbEntity
  8
Sichtbare Kanten(DIN)
100
AcDbLine
 10
147.4254304717122
 20
224.1539480119218
 30
0.0
 11
147.4254304717122
 21
194.1539480119218
 31
0.0
  0
LINE
  5
248
330
6C
100
AcDbEntity
  8
Sichtbare Kanten(DIN)
100
AcDbLine
 10
287.5254304717123
 20
233.1539480119217
 30
0.0
 11
267.3254304717123
 21
233.1539480119217
 31
0.0
  0
LINE
  5
249
330
6C
100
AcDbEntity
  8
Sichtbare Kanten(DIN)
100
AcDbLine
 10
287.5254304717123
 20
234.1539480119218
 30
0.0
 11
267.3254304717123
 21
234.1539480119218
 31
0.0
  0
LINE
  5
24A
330
6C
100
AcDbEntity
  8
Sichtbare Kanten(DIN)
100
AcDbLine
 10
287.5254304717123
 20
234.1539480119218
 30
0.0
 11
287.5254304717123
 21
233.1539480119217
 31
0.0
  0
LINE
  5
24B
330
6C
100
AcDbEntity
  8
Sichtbare Kanten(DIN)
100
AcDbLine
 10
267.3254304717123
 20
234.1539480119218
 30
0.0
 11
267.3254304717123
 21
233.1539480119217
 31
0.0
  0
LINE
  5
24C
330
6C
100
AcDbEntity
  8
Sichtbare tangentiale Kanten(DIN)
100
AcDbLine
 10
135.4254304717122
 20
235.1539480119248
 30
0.0
 11
145.4254304717122
 21
235.1539480119218
 31
0.0
  0
SPLINE
  5
24D
330
6C
100
AcDbEntity
  8
Sichtbare Kanten(DIN)
100
AcDbSpline
210
0.0
220
0.0
230
1.0
 70
     8
 71
     3
 72
     8
 73
     4
 74
     0
 42
0.0000000001
 43
0.0000000001
 40
0.0
 40
0.0
 40
0.0
 40
0.0
 40
0.4443611331010413
 40
0.4443611331010413
 40
0.4443611331010413
 40
0.4443611331010413
 10
135.4254304717122
 20
235.1539480119247
 30
0.0
 10
136.8377028601343
 20
234.7073482695268
 30
0.0
 10
138.5268023896646
 20
234.1539480119248
 30
0.0
 10
140.0080061666681
 20
234.1539480119248
 30
0.0
  0
ARC
  5
24E
330
6C
100
AcDbEntity
  8
Sichtbare Kanten(DIN)
100
AcDbCircle
 10
146.4254304717122
 20
235.1539480119218
 30
0.0
 40
0.9999999999999998
100
AcDbArc
 50
180.0
 51
270.0
  0
LINE
  5
24F
330
6C
100
AcDbEntity
  8
Sichtbare tangentiale Kanten(DIN)
100
AcDbLine
 10
135.4254304717122
 20
224.1539480119248
 30
0.0
 11
135.4254304717122
 21
235.1539480119247
 31
0.0
  0
LINE
  5
250
330
6C
100
AcDbEntity
  8
Sichtbare Kanten(DIN)
100
AcDbLine
 10
135.4254304717122
 20
224.1539480119248
 30
0.0
 11
125.4254304717122
 21
224.1539480119218
 31
0.0
  0
LINE
  5
251
330
6C
100
AcDbEntity
  8
Sichtbare Kanten(DIN)
100
AcDbLine
 10
167.4254304717122
 20
224.1539480119218
 30
0.0
 11
157.4254304717122
 21
224.1539480119248
 31
0.0
  0
LINE
  5
252
330
6C
100
AcDbEntity
  8
Sichtbare Kanten(DIN)
100
AcDbLine
 10
135.4254304717122
 20
224.1539480119248
 30
0.0
 11
157.4254304717122
 21
224.1539480119248
 31
0.0
  0
LINE
  5
253
330
6C
100
AcDbEntity
  8
Sichtbare Kanten(DIN)
100
AcDbLine
 10
157.4254304717122
 20
234.1539480119248
 30
0.0
 11
167.4254304717122
 21
234.1539480119218
 31
0.0
  0
LINE
  5
254
330
6C
100
AcDbEntity
  8
Sichtbare tangentiale Kanten(DIN)
100
AcDbLine
 10
157.4254304717122
 20
224.1539480119248
 30
0.0
 11
157.4254304717122
 21
234.1539480119248
 31
0.0
  0
LINE
  5
255
330
6C
100
AcDbEntity
  8
Sichtbare Kanten(DIN)
100
AcDbLine
 10
157.4254304717122
 20
234.1539480119248
 30
0.0
 11
140.0080061666681
 21
234.1539480119248
 31
0.0
  0
LINE
  5
256
330
6C
100
AcDbEntity
  8
Sichtbare Kanten(DIN)
100
AcDbLine
 10
125.4254304717122
 20
224.1539480119218
 30
0.0
 11
125.4254304717122
 21
243.636326962241
 31
0.0
  0
LINE
  5
257
330
6C
100
AcDbEntity
  8
Sichtbare Kanten(DIN)
100
AcDbLine
 10
125.4254304717122
 20
248.5845642499765
 30
0.0
 11
125.4254304717122
 21
252.6539480119218
 31
0.0
  0
LINE
  5
258
330
6C
100
AcDbEntity
  8
Sichtbare Kanten(DIN)
100
AcDbLine
 10
145.4254304717122
 20
235.1539480119217
 30
0.0
 11
145.4254304717122
 21
252.6539480119218
 31
0.0
  0
LINE
  5
259
330
6C
100
AcDbEntity
  8
Sichtbare Kanten(DIN)
100
AcDbLine
 10
167.4254304717122
 20
224.1539480119218
 30
0.0
 11
167.4254304717122
 21
234.1539480119218
 31
0.0
  0
LINE
  5
25A
330
6C
100
AcDbEntity
  8
Sichtbare Kanten(DIN)
100
AcDbLine
 10
125.4254304717122
 20
243.636326962241
 30
0.0
 11
125.4254304717122
 21
248.5845642499765
 31
0.0
  0
LINE
  5
25B
330
6C
100
AcDbEntity
  8
Mittelpunktmarkierung(DIN)
  6
Continuous
100
AcDbLine
 10
145.1281869002734
 20
429.8210500901087
 30
0.0
 11
125.7226740432329
 21
429.8210500901087
 31
0.0
  0
LINE
  5
25C
330
6C
100
AcDbEntity
  8
Mittelpunktmarkierung(DIN)
  6
Continuous
100
AcDbLine
 10
135.4254304717532
 20
439.5238065186291
 30
0.0
 11
135.4254304717532
 21
420.1182936615886
 31
0.0
  0
LINE
  5
25D
330
6C
100
AcDbEntity
  8
Mittelpunktmarkierung(DIN)
  6
Continuous
100
AcDbLine
 10
156.5261032580256
 20
424.7210500901088
 30
0.0
 11
114.3247576854808
 21
424.7210500901088
 31
0.0
  0
LINE
  5
25E
330
6C
100
AcDbEntity
  8
Mittelpunktmarkierung(DIN)
  6
Continuous
100
AcDbLine
 10
135.4254304717532
 20
445.8217228763812
 30
0.0
 11
135.4254304717532
 21
419.7210500901087
 31
0.0
  0
LINE
  5
25F
330
6C
100
AcDbEntity
  8
Mittelpunktmarkierung(DIN)
  6
Continuous
100
AcDbLine
 10
154.7262375926367
 20
384.921050090109
 30
0.0
 11
116.1246233508697
 21
384.921050090109
 31
0.0
  0
LINE
  5
260
330
6C
100
AcDbEntity
  8
Mittelpunktmarkierung(DIN)
  6
Continuous
100
AcDbLine
 10
135.4254304717532
 20
389.921050090109
 30
0.0
 11
135.4254304717532
 21
365.6202429692255
 31
0.0
  0
LINE
  5
261
330
6C
100
AcDbEntity
  8
Mittelpunktmarkierung(DIN)
  6
Continuous
100
AcDbLine
 10
145.1754304717532
 20
379.821050090109
 30
0.0
 11
125.6754304717532
 21
379.821050090109
 31
0.0
  0
LINE
  5
262
330
6C
100
AcDbEntity
  8
Mittelpunktmarkierung(DIN)
  6
Continuous
100
AcDbLine
 10
135.4254304717532
 20
389.571050090109
 30
0.0
 11
135.4254304717532
 21
370.071050090109
 31
0.0
  0
DIMENSION
  5
263
330
6C
100
AcDbEntity
  8
Bemaßungen(DIN)
  6
Continuous
 62
   250
420
  4144959
370
    25
100
AcDbDimension
  2
*D17
 10
71.32475768548082
 20
368.7015948717645
 30
0.0
 11
71.32475768548076
 21
404.8163224809366
 31
0.0
 70
   160
  1
<>
 71
     5
 42
72.26945521834455
 73
     0
 74
     0
 75
     0
  3
STANDARD-DIN - Methode 2b
100
AcDbAlignedDimension
 13
135.4254304717532
 23
440.9710500901089
 33
0.0
 14
135.4254304717532
 24
368.7015948717644
 34
0.0
 50
90.0
100
AcDbRotatedDimension
1001
ACAD
1000
DSTYLE
1002
{
1070
   172
1070
     0
1070
   289
1070
     1
1070
   271
1070
     0
1070
   272
1070
     2
1070
    48
1040
0.0
1070
    47
1040
0.0
1002
}
  0
DIMENSION
  5
346
330
6C
100
AcDbEntity
  8
Bemaßungen(DIN)
  6
Continuous
 62
   250
420
  4144959
370
    25
100
AcDbDimension
  2
*D18
 10
95.3247576854808
 20
379.821050090109
 30
0.0
 11
95.32475768548076
 21
404.8010500901088
 31
0.0
 70
   160
  1
<>
 71
     5
 42
49.99999999999989
 73
     0
 74
     0
 75
     0
  3
STANDARD-DIN - Methode 2b
100
AcDbAlignedDimension
 13
125.7226740432329
 23
429.8210500901087
 33
0.0
 14
125.6754304717532
 24
379.821050090109
 34
0.0
 50
90.0
100
AcDbRotatedDimension
1001
ACAD
1000
DSTYLE
1002
{
1070
   172
1070
     0
1070
   289
1070
     1
1070
   271
1070
     2
1070
   272
1070
     2
1070
    48
1040
0.0
1070
    47
1040
0.0
1002
}
  0
DIMENSION
  5
428
330
6C
100
AcDbEntity
  8
Bemaßungen(DIN)
  6
Continuous
 62
   250
420
  4144959
370
    25
100
AcDbDimension
  2
*D19
 10
151.6754304717533
 20
464.8217228763813
 30
0.0
 11
135.4054304717532
 21
464.8217228763813
 31
0.0
 70
   160
  1
<>
 71
     5
 42
32.50000000000016
 73
     0
 74
     0
 75
     0
  3
STANDARD-DIN - Methode 2b
100
AcDbAlignedDimension
 13
119.1754304717531
 23
424.7210500901088
 33
0.0
 14
151.6754304717533
 24
424.7210500901088
 34
0.0
 50
180.0
100
AcDbRotatedDimension
1001
ACAD
1000
DSTYLE
1002
{
1070
   172
1070
     0
1070
   289
1070
     1
1070
   271
1070
     2
1070
   272
1070
     2
1070
    48
1040
0.0
1070
    47
1040
0.0
1002
}
  0
DIMENSION
  5
50A
330
6C
100
AcDbEntity
  8
Bemaßungen(DIN)
  6
Continuous
 62
   250
420
  4144959
370
    25
100
AcDbDimension
  2
*D20
 10
71.25009407857603
 20
252.8539480119277
 30
0.0
 11
71.25009407857598
 21
223.5039480119247
 31
0.0
 70
   160
  1
<>
 71
     5
 42
60.0
 73
     0
 74
     0
 75
     0
  3
STANDARD-DIN - Methode 2b
100
AcDbAlignedDimension
 13
147.4254304717122
 23
194.1539480119218
 33
0.0
 14
121.1246233508286
 24
252.8539480119277
 34
0.0
 50
270.0
100
AcDbRotatedDimension
1001
ACAD
1000
DSTYLE
1002
{
1070
   172
1070
     0
1070
   289
1070
     1
1070
   271
1070
     2
1070
   144
1040
1.022146507665995
1070
   272
1070
     2
1070
    48
1040
0.0
1070
    47
1040
0.0
1002
}
  0
DIMENSION
  5
5F5
330
6C
100
AcDbEntity
  8
Bemaßungen(DIN)
  6
Continuous
 62
   250
420
  4144959
370
    25
100
AcDbDimension
  2
*D21
 10
71.25009407857603
 20
252.8539480119277
 30
0.0
 11
71.25009407857598
 21
259.8539480119277
 31
0.0
 70
   160
  1
<>
 71
     5
 42
13.99999999999997
 73
     0
 74
     1
 75
     1
  3
STANDARD-DIN - Methode 2b
100
AcDbAlignedDimension
 13
119.1754304717122
 23
266.8539480119277
 33
0.0
 14
121.1246233508287
 24
252.8539480119277
 34
0.0
 50
90.0
100
AcDbRotatedDimension
1001
ACAD
1000
DSTYLE
1002
{
1070
   172
1070
     0
1070
   271
1070
     2
1070
   272
1070
     2
1070
    48
1040
0.0
1070
    47
1040
0.0
1002
}
  0
DIMENSION
  5
6E1
330
6C
100
AcDbEntity
  8
Bemaßungen(DIN)
  6
Continuous
 62
   250
420
  4144959
370
    25
100
AcDbDimension
  2
*D22
 10
287.4254304717123
 20
155.0343927735404
 30
0.0
 11
206.4254304717122
 21
155.0343927735404
 31
0.0
 70
   160
  1
<>
 71
     5
 42
162.0
 73
     0
 74
     0
 75
     0
  3
STANDARD-DIN - Methode 2b
100
AcDbAlignedDimension
 13
125.4254304717122
 23
224.1539480119218
 33
0.0
 14
287.4254304717123
 24
194.1539480119217
 34
0.0
 50
180.0
100
AcDbRotatedDimension
1001
ACAD
1000
DSTYLE
1002
{
1070
   172
1070
     0
1070
   289
1070
     1
1070
   271
1070
     2
1070
   272
1070
     2
1070
    48
1040
0.0
1070
    47
1040
0.0
1002
}
  0
DIMENSION
  5
7C3
330
6C
100
AcDbEntity
  8
Bemaßungen(DIN)
  6
Continuous
 62
   250
420
  4144959
370
    25
100
AcDbDimension
  2
*D23
 10
247.3254304717123
 20
252.8539480119277
 30
0.0
 11
247.3254304717122
 21
243.5039480119247
 31
0.0
 70
   160
  1
<>
 71
     5
 42
19.99999999999995
 73
     0
 74
     0
 75
     0
  3
STANDARD-DIN - Methode 2b
100
AcDbAlignedDimension
 13
267.3254304717123
 23
234.1539480119218
 33
0.0
 14
149.7262375925958
 24
252.8539480119277
 34
0.0
 50
270.0
100
AcDbRotatedDimension
1001
ACAD
1000
DSTYLE
1002
{
1070
   172
1070
     0
1070
   289
1070
     1
1070
   271
1070
     2
1070
   144
1040
1.069518716577199
1070
   272
1070
     2
1070
    48
1040
0.0
1070
    47
1040
0.0
1002
}
  0
DIMENSION
  5
8AF
330
6C
100
AcDbEntity
  8
Bemaßungen(DIN)
  6
Continuous
 62
   250
420
  4144959
370
    25
100
AcDbDimension
  2
*D24
 10
311.4254304717533
 20
394.8210500901089
 30
0.0
 11
311.4254304717532
 21
430.4062404014393
 31
0.0
 70
   160
  1
{\fAIGDT|b0|i0;\H7.0000;n\fArial|b0|i0;\H7.0000;}<>
 71
     5
 42
20.0
 73
     0
 74
     0
 75
     0
  3
STANDARD-DIN - Methode 2b
100
AcDbAlignedDimension
 13
277.4254304717532
 23
414.8210500901089
 33
0.0
 14
277.4254304717531
 24
394.8210500901089
 34
0.0
 50
270.0
100
AcDbRotatedDimension
1001
ACAD
1000
DSTYLE
1002
{
1070
   172
1070
     0
1070
   289
1070
     2
1070
   271
1070
     2
1070
   272
1070
     2
1070
    48
1040
0.0
1070
    47
1040
0.0
1002
}
  0
MTEXT
  5
9A0
330
6C
100
AcDbEntity
  8
Symbole(DIN)
 62
   179
420
  2500185
100
AcDbMText
 10
311.7083929734718
 20
101.7634600462462
 30
0.0
 40
6.99999988079071
 41
27.18369007110596
 46
0.0
 71
     1
 72
     1
  1
{50054}
  7
Aktuell-DIN
 73
     1
 44
1.0
  0
DIMENSION
  5
9A1
330
6C
100
AcDbEntity
  8
Bemaßungen(DIN)
  6
Continuous
 62
   250
420
  4144959
370
    25
100
AcDbDimension
  2
*D25
 10
95.250094078576
 20
252.8539480119277
 30
0.0
 11
95.250094078576
 21
239.1339480119255
 31
0.0
 70
   160
  1
<>
 71
     5
 42
30.0
 73
     0
 74
     0
 75
     0
  3
STANDARD-DIN - Methode 2b
100
AcDbAlignedDimension
 13
125.4254304717122
 23
224.1539480119233
 33
0.0
 14
121.1246233508287
 24
252.8539480119277
 34
0.0
 50
90.0
100
AcDbRotatedDimension
1001
ACAD
1000
DSTYLE
1002
{
1070
   172
1070
     0
1070
   289
1070
     1
1070
   271
1070
     2
1070
   144
1040
1.045296167247224
1070
   272
1070
     2
1070
    48
1040
0.0
1070
    47
1040
0.0
1002
}
  0
DIMENSION
  5
A8C
330
6C
100
AcDbEntity
  8
Bemaßungen(DIN)
  6
Continuous
 62
   250
420
  4144959
370
    25
100
AcDbDimension
  2
*D26
 10
319.5254304717123
 20
234.1539480119218
 30
0.0
 11
319.5254304717122
 21
214.1539480119218
 31
0.0
 70
   160
  1
<>
 71
     5
 42
40.0
 73
     0
 74
     0
 75
     0
  3
STANDARD-DIN - Methode 2b
100
AcDbAlignedDimension
 13
287.4254304717123
 23
194.1539480119217
 33
0.0
 14
287.5254304717123
 24
234.1539480119218
 34
0.0
 50
270.0
100
AcDbRotatedDimension
1001
ACAD
1000
DSTYLE
1002
{
1070
   172
1070
     0
1070
   289
1070
     1
1070
   271
1070
     2
1070
   272
1070
     2
1070
    48
1040
0.0
1070
    47
1040
0.0
1002
}
  0
LINE
  5
B6E
330
6C
100
AcDbEntity
  8
Mittellinie(DIN)
  6
Continuous
100
AcDbLine
 10
157.4254304717122
 20
229.1539480119218
 30
0.0
 11
157.4254304717122
 21
199.1539480119218
 31
0.0
  0
LINE
  5
B6F
330
6C
100
AcDbEntity
  8
Mittellinie(DIN)
  6
Continuous
100
AcDbLine
 10
152.4254304717122
 20
204.1539480119218
 30
0.0
 11
282.4254304717123
 21
204.1539480119218
 31
0.0
  0
LINE
  5
B70
330
6C
100
AcDbEntity
  8
Mittellinie(DIN)
  6
Continuous
100
AcDbLine
 10
277.4254304717123
 20
199.1539480119217
 30
0.0
 11
277.4254304717123
 21
238.1539480119218
 31
0.0
  0
LINE
  5
B71
330
6C
100
AcDbEntity
  8
Mittelpunktmarkierung(DIN)
  6
Continuous
100
AcDbLine
 10
157.4254304717532
 20
419.8210500901089
 30
0.0
 11
157.4254304717532
 21
389.821050090109
 31
0.0
  0
LINE
  5
B72
330
6C
100
AcDbEntity
  8
Mittelpunktmarkierung(DIN)
  6
Continuous
100
AcDbLine
 10
277.4254304717532
 20
419.8210500901089
 30
0.0
 11
277.4254304717532
 21
389.821050090109
 31
0.0
  0
LINE
  5
B73
330
6C
100
AcDbEntity
  8
Mittellinie(DIN)
  6
Continuous
100
AcDbLine
 10
142.4254304717532
 20
404.8210500901088
 30
0.0
 11
292.4254304717532
 21
404.8210500901088
 31
0.0
  0
LINE
  5
B74
330
6C
100
AcDbEntity
  8
Mittelpunktmarkierung(DIN)
  6
Continuous
100
AcDbLine
 10
140.4254304717532
 20
404.8210500901088
 30
0.0
 11
120.4254304717532
 21
404.8210500901088
 31
0.0
  0
LINE
  5
B75
330
6C
100
AcDbEntity
  8
Mittelpunktmarkierung(DIN)
  6
Continuous
100
AcDbLine
 10
135.4254304717532
 20
419.8210500901089
 30
0.0
 11
135.4254304717532
 21
389.821050090109
 31
0.0
  0
LINE
  5
B76
330
6C
100
AcDbEntity
  8
Mittellinie(DIN)
  6
Continuous
100
AcDbLine
 10
135.4254304717122
 20
224.6539480119218
 30
0.0
 11
135.4254304717122
 21
284.3672178403585
 31
0.0
  0
ENDSEC
  0
SECTION
  2
OBJECTS
  0
DICTIONARY
  5
C
330
0
100
AcDbDictionary
281
     1
  3
ACAD_CIP_PREVIOUS_PRODUCT_INFO
350
B77
  3
ACAD_COLOR
350
63
  3
ACAD_GROUP
350
D
  3
ACAD_LAYOUT
350
62
  3
ACAD_MATERIAL
350
10
  3
ACAD_MLEADERSTYLE
350
66
  3
ACAD_MLINESTYLE
350
5F
  3
ACAD_PLOTSETTINGS
350
61
  3
ACAD_PLOTSTYLENAME
350
E
  3
ACAD_SCALELIST
350
42
  3
ACAD_TABLESTYLE
350
64
  3
ACAD_VISUALSTYLE
350
29
  3
ACDB_RECOMPOSE_DATA
350
BD0
  3
AcDbVariableDictionary
350
B78
  0
DICTIONARY
  5
B81
330
193
100
AcDbDictionary
280
     1
281
     1
  3
ACAD_MLATT
360
BC9
  3
ACAD_XREC_ROUNDTRIP
360
BC8
  0
DICTIONARY
  5
B84
330
196
100
AcDbDictionary
280
     1
281
     1
  3
ACAD_MLATT
360
BCB
  3
ACAD_XREC_ROUNDTRIP
360
BCA
  0
DICTIONARY
  5
B87
330
197
100
AcDbDictionary
280
     1
281
     1
  3
ACAD_MLATT
360
BCD
  3
ACAD_XREC_ROUNDTRIP
360
BCC
  0
DICTIONARY
  5
B8A
330
198
100
AcDbDictionary
280
     1
281
     1
  3
ACAD_MLATT
360
BCF
  3
ACAD_XREC_ROUNDTRIP
360
BCE
  0
XRECORD
  5
B77
102
{ACAD_REACTORS
330
C
102
}
330
C
100
AcDbXrecord
280
     1
300
INVNTOR
300
2012
300
PDSP_F_S
  0
DICTIONARY
  5
63
102
{ACAD_REACTORS
330
C
102
}
330
C
100
AcDbDictionary
281
     1
  0
DICTIONARY
  5
D
102
{ACAD_REACTORS
330
C
102
}
330
C
100
AcDbDictionary
281
     1
  0
DICTIONARY
  5
62
102
{ACAD_REACTORS
330
C
102
}
330
C
100
AcDbDictionary
281
     1
  3
Layout1
350
6B
  3
Layout2
350
73
  3
Model
350
6F
  0
DICTIONARY
  5
10
102
{ACAD_REACTORS
330
C
102
}
330
C
100
AcDbDictionary
281
     1
  3
ByBlock
350
19
  3
ByLayer
350
11
  3
Global
350
21
  0
DICTIONARY
  5
66
102
{ACAD_REACTORS
330
C
102
}
330
C
100
AcDbDictionary
281
     1
  3
Standard
350
67
  0
DICTIONARY
  5
5F
102
{ACAD_REACTORS
330
C
102
}
330
C
100
AcDbDictionary
281
     1
  3
Standard
350
60
  0
DICTIONARY
  5
61
102
{ACAD_REACTORS
330
C
102
}
330
C
100
AcDbDictionary
281
     1
  0
ACDBDICTIONARYWDFLT
  5
E
102
{ACAD_REACTORS
330
C
102
}
330
C
100
AcDbDictionary
281
     1
  3
Normal
350
F
100
AcDbDictionaryWithDefault
340
F
  0
DICTIONARY
  5
42
102
{ACAD_REACTORS
330
C
102
}
330
C
100
AcDbDictionary
281
     1
  3
A0
350
43
  3
A1
350
44
  3
A2
350
45
  3
A3
350
46
  3
A4
350
47
  3
A5
350
48
  3
A6
350
49
  3
A7
350
4A
  3
A8
350
4B
  3
A9
350
4C
  3
B0
350
4D
  3
B1
350
4E
  3
B2
350
4F
  3
B3
350
50
  3
B4
350
51
  3
B5
350
52
  3
B6
350
53
  0
DICTIONARY
  5
64
102
{ACAD_REACTORS
330
C
102
}
330
C
100
AcDbDictionary
281
     1
  3
Standard
350
65
  0
DICTIONARY
  5
29
102
{ACAD_REACTORS
330
C
102
}
330
C
100
AcDbDictionary
281
     1
  3
2dWireframe
350
2F
  3
Basic
350
2E
  3
Brighten
350
35
  3
ColorChange
350
39
  3
Conceptual
350
32
  3
Dim
350
34
  3
EdgeColorOff
350
41
  3
Facepattern
350
38
  3
Flat
350
2A
  3
FlatWithEdges
350
2B
  3
Gouraud
350
2C
  3
GouraudWithEdges
350
2D
  3
Hidden
350
31
  3
JitterOff
350
3F
  3
Linepattern
350
37
  3
OverhangOff
350
40
  3
Realistic
350
33
  3
Shaded
350
3E
  3
Shaded with edges
350
3D
  3
Shades of Gray
350
3A
  3
Sketchy
350
3B
  3
Thicken
350
36
  3
Wireframe
350
30
  3
X-Ray
350
3C
  0
XRECORD
  5
BD0
102
{ACAD_REACTORS
330
C
102
}
330
C
100
AcDbXrecord
280
     1
 90
        1
330
65
330
193
330
196
330
197
330
198
  0
DICTIONARY
  5
B78
102
{ACAD_REACTORS
330
C
102
}
330
C
100
AcDbDictionary
281
     1
  3
CANNOSCALE
350
B7B
  3
CMLEADERSTYLE
350
B7A
  3
CTABLESTYLE
350
B79
  3
XCLIPFRAME
350
BC2
  0
XRECORD
  5
BC9
102
{ACAD_REACTORS
330
B81
102
}
330
B81
100
AcDbXrecord
280
     1
 70
     4
 70
     0
 70
     0
 40
1.0
  2
Innenkante_obere_Grenze
  1
Embedded Object
 10
28.19096644559973
 20
16.62519294726898
 30
0.0
 40
3.499999940395355
 41
0.0
 46
0.0
 71
     1
 72
     5
  1
\W0.9000;-1
  7
Textstil122
 73
     1
 44
1.0
  0
XRECORD
  5
BC8
102
{ACAD_REACTORS
330
B81
102
}
330
B81
100
AcDbXrecord
280
     1
102
ACAD_MATT_HEIGHT
140
3.499999940395355
  0
XRECORD
  5
BCB
102
{ACAD_REACTORS
330
B84
102
}
330
B84
100
AcDbXrecord
280
     1
 70
     4
 70
     0
 70
     0
 40
1.0
  2
Innenkante_untere_Grenze
  1
Embedded Object
 10
28.19096644559973
 20
11.62519294726898
 30
0.0
 40
3.499999940395355
 41
0.0
 46
0.0
 71
     1
 72
     5
  1
\W0.9000;-0.25
  7
Textstil122
 73
     1
 44
1.0
  0
XRECORD
  5
BCA
102
{ACAD_REACTORS
330
B84
102
}
330
B84
100
AcDbXrecord
280
     1
102
ACAD_MATT_HEIGHT
140
3.499999940395355
  0
XRECORD
  5
BCD
102
{ACAD_REACTORS
330
B87
102
}
330
B87
100
AcDbXrecord
280
     1
 70
     4
 70
     0
 70
     0
 40
1.0
  2
Aussenkante_obere_Grenze
  1
Embedded Object
 10
6.721339289383169
 20
16.62519294726898
 30
0.0
 40
3.499999940395355
 41
7.696662545204162
 46
0.0
 71
     1
 72
     5
  1
\W0.9000;+0.3
  7
Textstil122
 73
     1
 44
1.0
  0
XRECORD
  5
BCC
102
{ACAD_REACTORS
330
B87
102
}
330
B87
100
AcDbXrecord
280
     1
102
ACAD_MATT_HEIGHT
140
3.499999940395355
  0
XRECORD
  5
BCF
102
{ACAD_REACTORS
330
B8A
102
}
330
B8A
100
AcDbXrecord
280
     1
 70
     4
 70
     0
 70
     0
 40
1.0
  2
Aussenkante_untere_Grenze
  1
Embedded Object
 10
6.721339289383169
 20
11.62519294726898
 30
0.0
 40
3.499999940395355
 41
0.0
 46
0.0
 71
     1
 72
     5
  1
\W0.9000;+0.1
  7
Textstil122
 73
     1
 44
1.0
  0
XRECORD
  5
BCE
102
{ACAD_REACTORS
330
B8A
102
}
330
B8A
100
AcDbXrecord
280
     1
102
ACAD_MATT_HEIGHT
140
3.499999940395355
  0
LAYOUT
  5
6B
102
{ACAD_REACTORS
330
62
102
}
330
62
100
AcDbPlotSettings
  1

  2

  4

  6

 40
0.0
 41
0.0
 42
0.0
 43
0.0
 44
0.0
 45
0.0
 46
0.0
 47
0.0
 48
0.0
 49
0.0
140
0.0
141
0.0
142
1.0
143
1.0
 70
   688
 72
     0
 73
     0
 74
     5
  7

 75
    16
147
1.0
 76
     0
 77
     2
 78
   300
148
0.0
149
0.0
100
AcDbLayout
  1
Layout1
 70
     1
 71
     1
 10
0.0
 20
0.0
 11
12.0
 21
9.0
 12
0.0
 22
0.0
 32
0.0
 14
0.0
 24
0.0
 34
0.0
 15
0.0
 25
0.0
 35
0.0
146
0.0
 13
0.0
 23
0.0
 33
0.0
 16
1.0
 26
0.0
 36
0.0
 17
0.0
 27
1.0
 37
0.0
 76
     0
330
68
  0
LAYOUT
  5
73
102
{ACAD_REACTORS
330
62
102
}
330
62
100
AcDbPlotSettings
  1

  2

  4

  6

 40
0.0
 41
0.0
 42
0.0
 43
0.0
 44
0.0
 45
0.0
 46
0.0
 47
0.0
 48
0.0
 49
0.0
140
0.0
141
0.0
142
1.0
143
1.0
 70
   688
 72
     0
 73
     0
 74
     5
  7

 75
    16
147
1.0
 76
     0
 77
     2
 78
   300
148
0.0
149
0.0
100
AcDbLayout
  1
Layout2
 70
     1
 71
     2
 10
0.0
 20
0.0
 11
12.0
 21
9.0
 12
0.0
 22
0.0
 32
0.0
 14
0.0
 24
0.0
 34
0.0
 15
0.0
 25
0.0
 35
0.0
146
0.0
 13
0.0
 23
0.0
 33
0.0
 16
1.0
 26
0.0
 36
0.0
 17
0.0
 27
1.0
 37
0.0
 76
     0
330
70
  0
LAYOUT
  5
6F
102
{ACAD_REACTORS
330
62
102
}
330
62
100
AcDbPlotSettings
  1

  2

  4

  6

 40
0.0
 41
0.0
 42
0.0
 43
0.0
 44
0.0
 45
0.0
 46
0.0
 47
0.0
 48
0.0
 49
0.0
140
0.0
141
0.0
142
1.0
143
1.0
 70
  1712
 72
     0
 73
     0
 74
     0
  7

 75
     0
147
1.0
 76
     0
 77
     2
 78
   300
148
0.0
149
0.0
100
AcDbLayout
  1
Model
 70
     1
 71
     0
 10
0.0
 20
0.0
 11
12.0
 21
9.0
 12
0.0
 22
0.0
 32
0.0
 14
0.0
 24
0.0
 34
0.0
 15
0.0
 25
0.0
 35
0.0
146
0.0
 13
0.0
 23
0.0
 33
0.0
 16
1.0
 26
0.0
 36
0.0
 17
0.0
 27
1.0
 37
0.0
 76
     0
330
6C
  0
MATERIAL
  5
19
102
{ACAD_XDICTIONARY
360
1A
102
}
102
{ACAD_REACTORS
330
10
102
}
330
10
100
AcDbMaterial
  1
ByBlock
 72
     0
 43
0.0208333333333333
 43
0.0
 43
0.0
 43
0.0
 43
0.0
 43
0.0208333333333333
 43
0.0
 43
0.0
 43
0.0
 43
0.0
 43
1.0
 43
0.0
 43
0.0
 43
0.0
 43
0.0
 43
1.0
 77
     0
 47
0.0208333333333333
 47
0.0
 47
0.0
 47
0.0
 47
0.0
 47
0.0208333333333333
 47
0.0
 47
0.0
 47
0.0
 47
0.0
 47
1.0
 47
0.0
 47
0.0
 47
0.0
 47
0.0
 47
1.0
171
     0
 49
0.0208333333333333
 49
0.0
 49
0.0
 49
0.0
 49
0.0
 49
0.0208333333333333
 49
0.0
 49
0.0
 49
0.0
 49
0.0
 49
1.0
 49
0.0
 49
0.0
 49
0.0
 49
0.0
 49
1.0
175
     0
142
0.0208333333333333
142
0.0
142
0.0
142
0.0
142
0.0
142
0.0208333333333333
142
0.0
142
0.0
142
0.0
142
0.0
142
1.0
142
0.0
142
0.0
142
0.0
142
0.0
142
1.0
179
     0
144
0.0208333333333333
144
0.0
144
0.0
144
0.0
144
0.0
144
0.0208333333333333
144
0.0
144
0.0
144
0.0
144
0.0
144
1.0
144
0.0
144
0.0
144
0.0
144
0.0
144
1.0
147
0.0208333333333333
147
0.0
147
0.0
147
0.0
147
0.0
147
0.0208333333333333
147
0.0
147
0.0
147
0.0
147
0.0
147
1.0
147
0.0
147
0.0
147
0.0
147
0.0
147
1.0
  0
MATERIAL
  5
11
102
{ACAD_XDICTIONARY
360
12
102
}
102
{ACAD_REACTORS
330
10
102
}
330
10
100
AcDbMaterial
  1
ByLayer
 72
     0
 43
0.0208333333333333
 43
0.0
 43
0.0
 43
0.0
 43
0.0
 43
0.0208333333333333
 43
0.0
 43
0.0
 43
0.0
 43
0.0
 43
1.0
 43
0.0
 43
0.0
 43
0.0
 43
0.0
 43
1.0
 77
     0
 47
0.0208333333333333
 47
0.0
 47
0.0
 47
0.0
 47
0.0
 47
0.0208333333333333
 47
0.0
 47
0.0
 47
0.0
 47
0.0
 47
1.0
 47
0.0
 47
0.0
 47
0.0
 47
0.0
 47
1.0
171
     0
 49
0.0208333333333333
 49
0.0
 49
0.0
 49
0.0
 49
0.0
 49
0.0208333333333333
 49
0.0
 49
0.0
 49
0.0
 49
0.0
 49
1.0
 49
0.0
 49
0.0
 49
0.0
 49
0.0
 49
1.0
175
     0
142
0.0208333333333333
142
0.0
142
0.0
142
0.0
142
0.0
142
0.0208333333333333
142
0.0
142
0.0
142
0.0
142
0.0
142
1.0
142
0.0
142
0.0
142
0.0
142
0.0
142
1.0
179
     0
144
0.0208333333333333
144
0.0
144
0.0
144
0.0
144
0.0
144
0.0208333333333333
144
0.0
144
0.0
144
0.0
144
0.0
144
1.0
144
0.0
144
0.0
144
0.0
144
0.0
144
1.0
147
0.0208333333333333
147
0.0
147
0.0
147
0.0
147
0.0
147
0.0208333333333333
147
0.0
147
0.0
147
0.0
147
0.0
147
1.0
147
0.0
147
0.0
147
0.0
147
0.0
147
1.0
  0
MATERIAL
  5
21
102
{ACAD_XDICTIONARY
360
22
102
}
102
{ACAD_REACTORS
330
10
102
}
330
10
100
AcDbMaterial
  1
Global
 72
     0
 43
0.0208333333333333
 43
0.0
 43
0.0
 43
0.0
 43
0.0
 43
0.0208333333333333
 43
0.0
 43
0.0
 43
0.0
 43
0.0
 43
1.0
 43
0.0
 43
0.0
 43
0.0
 43
0.0
 43
1.0
 77
     0
 47
0.0208333333333333
 47
0.0
 47
0.0
 47
0.0
 47
0.0
 47
0.0208333333333333
 47
0.0
 47
0.0
 47
0.0
 47
0.0
 47
1.0
 47
0.0
 47
0.0
 47
0.0
 47
0.0
 47
1.0
171
     0
 49
0.0208333333333333
 49
0.0
 49
0.0
 49
0.0
 49
0.0
 49
0.0208333333333333
 49
0.0
 49
0.0
 49
0.0
 49
0.0
 49
1.0
 49
0.0
 49
0.0
 49
0.0
 49
0.0
 49
1.0
175
     0
142
0.0208333333333333
142
0.0
142
0.0
142
0.0
142
0.0
142
0.0208333333333333
142
0.0
142
0.0
142
0.0
142
0.0
142
1.0
142
0.0
142
0.0
142
0.0
142
0.0
142
1.0
179
     0
144
0.0208333333333333
144
0.0
144
0.0
144
0.0
144
0.0
144
0.0208333333333333
144
0.0
144
0.0
144
0.0
144
0.0
144
1.0
144
0.0
144
0.0
144
0.0
144
0.0
144
1.0
147
0.0208333333333333
147
0.0
147
0.0
147
0.0
147
0.0
147
0.0208333333333333
147
0.0
147
0.0
147
0.0
147
0.0
147
1.0
147
0.0
147
0.0
147
0.0
147
0.0
147
1.0
  0
MLEADERSTYLE
  5
67
102
{ACAD_XDICTIONARY
360
BC4
102
}
102
{ACAD_REACTORS
330
66
102
}
330
66
100
AcDbMLeaderStyle
170
     2
171
     1
172
     0
 90
        2
 40
0.0
 41
0.0
173
     1
 91
-1056964608
340
5B
 92
       -2
290
     1
 42
0.09
291
     1
 43
0.36
  3
Standard
 44
0.18
300

342
55
174
     1
178
     6
175
     1
176
     0
 93
-1056964608
 45
0.18
292
     0
297
     0
 46
0.18
 94
-1056964608
 47
1.0
 49
1.0
140
1.0
293
     1
141
0.0
294
     1
177
     0
142
1.0
295
     0
296
     0
143
0.125
1001
ACAD_MLEADERVER
1070
     2
  0
MLINESTYLE
  5
60
102
{ACAD_REACTORS
330
5F
102
}
330
5F
100
AcDbMlineStyle
  2
STANDARD
 70
     0
  3

 62
   256
 51
90.0
 52
90.0
 71
     2
 49
0.5
 62
   256
  6
BYLAYER
 49
-0.5
 62
   256
  6
BYLAYER
  0
ACDBPLACEHOLDER
  5
F
102
{ACAD_REACTORS
330
E
102
}
330
E
  0
SCALE
  5
43
102
{ACAD_REACTORS
330
42
102
}
330
42
100
AcDbScale
 70
     0
300
1:1
140
1.0
141
1.0
290
     1
  0
SCALE
  5
44
102
{ACAD_REACTORS
330
42
102
}
330
42
100
AcDbScale
 70
     0
300
1/128" = 1'-0"
140
0.0078125
141
12.0
290
     0
  0
SCALE
  5
45
102
{ACAD_REACTORS
330
42
102
}
330
42
100
AcDbScale
 70
     0
300
1/64" = 1'-0"
140
0.015625
141
12.0
290
     0
  0
SCALE
  5
46
102
{ACAD_REACTORS
330
42
102
}
330
42
100
AcDbScale
 70
     0
300
1/32" = 1'-0"
140
0.03125
141
12.0
290
     0
  0
SCALE
  5
47
102
{ACAD_REACTORS
330
42
102
}
330
42
100
AcDbScale
 70
     0
300
1/16" = 1'-0"
140
0.0625
141
12.0
290
     0
  0
SCALE
  5
48
102
{ACAD_REACTORS
330
42
102
}
330
42
100
AcDbScale
 70
     0
300
3/32" = 1'-0"
140
0.09375
141
12.0
290
     0
  0
SCALE
  5
49
102
{ACAD_REACTORS
330
42
102
}
330
42
100
AcDbScale
 70
     0
300
1/8" = 1'-0"
140
0.125
141
12.0
290
     0
  0
SCALE
  5
4A
102
{ACAD_REACTORS
330
42
102
}
330
42
100
AcDbScale
 70
     0
300
3/16" = 1'-0"
140
0.1875
141
12.0
290
     0
  0
SCALE
  5
4B
102
{ACAD_REACTORS
330
42
102
}
330
42
100
AcDbScale
 70
     0
300
1/4" = 1'-0"
140
0.25
141
12.0
290
     0
  0
SCALE
  5
4C
102
{ACAD_REACTORS
330
42
102
}
330
42
100
AcDbScale
 70
     0
300
3/8" = 1'-0"
140
0.375
141
12.0
290
     0
  0
SCALE
  5
4D
102
{ACAD_REACTORS
330
42
102
}
330
42
100
AcDbScale
 70
     0
300
1/2" = 1'-0"
140
0.5
141
12.0
290
     0
  0
SCALE
  5
4E
102
{ACAD_REACTORS
330
42
102
}
330
42
100
AcDbScale
 70
     0
300
3/4" = 1'-0"
140
0.75
141
12.0
290
     0
  0
SCALE
  5
4F
102
{ACAD_REACTORS
330
42
102
}
330
42
100
AcDbScale
 70
     0
300
1" = 1'-0"
140
1.0
141
12.0
290
     0
  0
SCALE
  5
50
102
{ACAD_REACTORS
330
42
102
}
330
42
100
AcDbScale
 70
     0
300
1-1/2" = 1'-0"
140
1.5
141
12.0
290
     0
  0
SCALE
  5
51
102
{ACAD_REACTORS
330
42
102
}
330
42
100
AcDbScale
 70
     0
300
3" = 1'-0"
140
3.0
141
12.0
290
     0
  0
SCALE
  5
52
102
{ACAD_REACTORS
330
42
102
}
330
42
100
AcDbScale
 70
     0
300
6" = 1'-0"
140
6.0
141
12.0
290
     0
  0
SCALE
  5
53
102
{ACAD_REACTORS
330
42
102
}
330
42
100
AcDbScale
 70
     0
300
1'-0" = 1'-0"
140
12.0
141
12.0
290
     0
  0
TABLESTYLE
  5
65
102
{ACAD_XDICTIONARY
360
B7D
102
}
102
{ACAD_REACTORS
330
64
102
}
330
64
100
AcDbTableStyle
  3
Standard
 70
     0
 71
     0
 40
0.06
 41
0.06
280
     0
281
     0
  7
Standard
140
0.18
170
     2
 62
     0
 63
     7
283
     0
 90
      512
 91
        0
  1

274
    -2
284
     1
 64
     0
275
    -2
285
     1
 65
     0
276
    -2
286
     1
 66
     0
277
    -2
287
     1
 67
     0
278
    -2
288
     1
 68
     0
279
    -2
289
     1
 69
     0
  7
Standard
140
0.25
170
     5
 62
     0
 63
     7
283
     0
 90
      512
 91
        0
  1

274
    -2
284
     1
 64
     0
275
    -2
285
     1
 65
     0
276
    -2
286
     1
 66
     0
277
    -2
287
     1
 67
     0
278
    -2
288
     1
 68
     0
279
    -2
289
     1
 69
     0
  7
Standard
140
0.18
170
     5
 62
     0
 63
     7
283
     0
 90
      512
 91
        0
  1

274
    -2
284
     1
 64
     0
275
    -2
285
     1
 65
     0
276
    -2
286
     1
 66
     0
277
    -2
287
     1
 67
     0
278
    -2
288
     1
 68
     0
279
    -2
289
     1
 69
     0
  0
VISUALSTYLE
  5
2F
102
{ACAD_XDICTIONARY
360
BDB
102
}
102
{ACAD_REACTORS
330
29
102
}
330
29
100
AcDbVisualStyle
  2

 70
     4
 71
     0
 72
     2
 73
     0
 90
        0
 40
-0.6
 41
-30.0
 62
     5
 63
     7
421
 16777215
 74
     1
 91
        4
 64
     7
 65
   257
 75
     1
175
     1
 42
1.0
 92
        0
 66
   257
 43
1.0
 76
     1
 77
     6
 78
     2
 67
     7
 79
     5
170
     0
171
     0
290
     0
174
     0
 93
        1
 44
0.0
173
     0
291
     0
 45
0.0
1001
ACAD
1000
AcDbSavedByObjectVersion
1070
     0
  0
VISUALSTYLE
  5
2E
102
{ACAD_XDICTIONARY
360
BD9
102
}
102
{ACAD_REACTORS
330
29
102
}
330
29
100
AcDbVisualStyle
  2

 70
     7
 71
     1
 72
     0
 73
     1
 90
        0
 40
-0.6
 41
-30.0
 62
     5
 63
     7
421
 16777215
 74
     0
 91
        4
 64
     7
 65
   257
 75
     1
175
     1
 42
1.0
 92
        8
 66
     7
 43
1.0
 76
     1
 77
     6
 78
     2
 67
     7
 79
     5
170
     0
171
     0
290
     0
174
     0
 93
        1
 44
0.0
173
     0
291
     1
 45
0.0
1001
ACAD
1000
AcDbSavedByObjectVersion
1070
     0
  0
VISUALSTYLE
  5
35
102
{ACAD_XDICTIONARY
360
BE7
102
}
102
{ACAD_REACTORS
330
29
102
}
330
29
100
AcDbVisualStyle
  2

 70
    12
 71
     2
 72
     2
 73
     0
 90
        0
 40
-0.6
 41
-30.0
 62
     5
 63
     7
421
 16777215
 74
     1
 91
        4
 64
     7
 65
   257
 75
     1
175
     1
 42
1.0
 92
        8
 66
     7
 43
1.0
 76
     1
 77
     6
 78
     2
 67
     7
 79
     5
170
     0
171
     0
290
     0
174
     0
 93
        1
 44
50.0
173
     0
291
     1
 45
0.0
1001
ACAD
1000
AcDbSavedByObjectVersion
1070
     0
  0
VISUALSTYLE
  5
39
102
{ACAD_XDICTIONARY
360
BEF
102
}
102
{ACAD_REACTORS
330
29
102
}
330
29
100
AcDbVisualStyle
  2

 70
    16
 71
     2
 72
     2
 73
     3
 90
        0
 40
-0.6
 41
-30.0
 62
     5
 63
     8
421
  8421504
 74
     1
 91
        4
 64
     7
 65
   257
 75
     1
175
     1
 42
1.0
 92
        8
 66
     8
424
  8421504
 43
1.0
 76
     1
 77
     6
 78
     2
 67
     7
 79
     5
170
     0
171
     0
290
     0
174
     0
 93
        1
 44
0.0
173
     0
291
     1
 45
0.0
1001
ACAD
1000
AcDbSavedByObjectVersion
1070
     0
  0
VISUALSTYLE
  5
32
102
{ACAD_XDICTIONARY
360
BE1
102
}
102
{ACAD_REACTORS
330
29
102
}
330
29
100
AcDbVisualStyle
  2

 70
     9
 71
     3
 72
     2
 73
     0
 90
        0
 40
-0.6
 41
-30.0
 62
     5
 63
     7
421
 16777215
 74
     2
 91
        2
 64
     7
 65
   257
 75
     1
175
     1
 42
179.0
 92
        8
 66
     7
 43
1.0
 76
     1
 77
     6
 78
     2
 67
     7
 79
     3
170
     0
171
     0
290
     0
174
     0
 93
        1
 44
0.0
173
     0
291
     0
 45
0.0
1001
ACAD
1000
AcDbSavedByObjectVersion
1070
     0
  0
VISUALSTYLE
  5
34
102
{ACAD_XDICTIONARY
360
BE5
102
}
102
{ACAD_REACTORS
330
29
102
}
330
29
100
AcDbVisualStyle
  2

 70
    11
 71
     2
 72
     2
 73
     0
 90
        0
 40
-0.6
 41
-30.0
 62
     5
 63
     7
421
 16777215
 74
     1
 91
        4
 64
     7
 65
   257
 75
     1
175
     1
 42
1.0
 92
        8
 66
     7
 43
1.0
 76
     1
 77
     6
 78
     2
 67
     7
 79
     5
170
     0
171
     0
290
     0
174
     0
 93
        1
 44
-50.0
173
     0
291
     1
 45
0.0
1001
ACAD
1000
AcDbSavedByObjectVersion
1070
     0
  0
VISUALSTYLE
  5
41
102
{ACAD_XDICTIONARY
360
BFF
102
}
102
{ACAD_REACTORS
330
29
102
}
330
29
100
AcDbVisualStyle
  2

 70
    22
 71
     2
 72
     2
 73
     0
 90
        0
 40
-0.6
 41
-30.0
 62
     5
 63
     7
421
 16777215
 74
     1
 91
        4
 64
     7
 65
   257
 75
     1
175
     1
 42
1.0
 92
        8
 66
     7
 43
1.0
 76
     1
 77
     6
 78
     2
 67
     7
 79
     5
170
     0
171
     0
290
     0
174
     0
 93
        1
 44
0.0
173
     0
291
     1
 45
0.0
1001
ACAD
1000
AcDbSavedByObjectVersion
1070
     0
  0
VISUALSTYLE
  5
38
102
{ACAD_XDICTIONARY
360
BED
102
}
102
{ACAD_REACTORS
330
29
102
}
330
29
100
AcDbVisualStyle
  2

 70
    15
 71
     2
 72
     2
 73
     0
 90
        0
 40
-0.6
 41
-30.0
 62
     5
 63
     7
421
 16777215
 74
     1
 91
        4
 64
     7
 65
   257
 75
     1
175
     1
 42
1.0
 92
        8
 66
     7
 43
1.0
 76
     1
 77
     6
 78
     2
 67
     7
 79
     5
170
     0
171
     0
290
     0
174
     0
 93
        1
 44
0.0
173
     0
291
     1
 45
0.0
1001
ACAD
1000
AcDbSavedByObjectVersion
1070
     0
  0
VISUALSTYLE
  5
2A
102
{ACAD_XDICTIONARY
360
BD1
102
}
102
{ACAD_REACTORS
330
29
102
}
330
29
100
AcDbVisualStyle
  2

 70
     0
 71
     2
 72
     1
 73
     1
 90
        2
 40
-0.6
 41
30.0
 62
     5
 63
     7
421
 16777215
 74
     0
 91
        0
 64
     7
 65
   257
 75
     1
175
     1
 42
1.0
 92
        8
 66
     7
 43
1.0
 76
     1
 77
     6
 78
     2
 67
     7
 79
     5
170
     0
171
     0
290
     0
174
     0
 93
       13
 44
0.0
173
     0
291
     1
 45
0.0
1001
ACAD
1000
AcDbSavedByObjectVersion
1070
     0
  0
VISUALSTYLE
  5
2B
102
{ACAD_XDICTIONARY
360
BD3
102
}
102
{ACAD_REACTORS
330
29
102
}
330
29
100
AcDbVisualStyle
  2

 70
     1
 71
     2
 72
     1
 73
     1
 90
        2
 40
-0.6
 41
30.0
 62
     5
 63
     7
421
 16777215
 74
     1
 91
        0
 64
     7
 65
   257
 75
     1
175
     1
 42
1.0
 92
        0
 66
   257
 43
1.0
 76
     1
 77
     6
 78
     2
 67
     7
 79
     5
170
     0
171
     0
290
     0
174
     0
 93
       13
 44
0.0
173
     0
291
     1
 45
0.0
1001
ACAD
1000
AcDbSavedByObjectVersion
1070
     0
  0
VISUALSTYLE
  5
2C
102
{ACAD_XDICTIONARY
360
BD5
102
}
102
{ACAD_REACTORS
330
29
102
}
330
29
100
AcDbVisualStyle
  2

 70
     2
 71
     2
 72
     2
 73
     1
 90
        2
 40
-0.6
 41
30.0
 62
     5
 63
     7
421
 16777215
 74
     0
 91
        0
 64
     7
 65
   257
 75
     1
175
     1
 42
1.0
 92
        0
 66
     7
 43
1.0
 76
     1
 77
     6
 78
     2
 67
     7
 79
     5
170
     0
171
     0
290
     0
174
     0
 93
       13
 44
0.0
173
     0
291
     1
 45
0.0
1001
ACAD
1000
AcDbSavedByObjectVersion
1070
     0
  0
VISUALSTYLE
  5
2D
102
{ACAD_XDICTIONARY
360
BD7
102
}
102
{ACAD_REACTORS
330
29
102
}
330
29
100
AcDbVisualStyle
  2

 70
     3
 71
     2
 72
     2
 73
     1
 90
        2
 40
-0.6
 41
30.0
 62
     5
 63
     7
421
 16777215
 74
     1
 91
        0
 64
     7
 65
   257
 75
     1
175
     1
 42
1.0
 92
        0
 66
   257
 43
1.0
 76
     1
 77
     6
 78
     2
 67
     7
 79
     5
170
     0
171
     0
290
     0
174
     0
 93
       13
 44
0.0
173
     0
291
     1
 45
0.0
1001
ACAD
1000
AcDbSavedByObjectVersion
1070
     0
  0
VISUALSTYLE
  5
31
102
{ACAD_XDICTIONARY
360
BDF
102
}
102
{ACAD_REACTORS
330
29
102
}
330
29
100
AcDbVisualStyle
  2

 70
     6
 71
     1
 72
     2
 73
     2
 90
        0
 40
-0.6
 41
-30.0
 62
     5
 63
     7
421
 16777215
 74
     2
 91
        2
 64
     7
 65
   257
 75
     2
175
     1
 42
40.0
 92
        0
 66
   257
 43
1.0
 76
     1
 77
     6
 78
     2
 67
     7
 79
     3
170
     0
171
     0
290
     0
174
     0
 93
        1
 44
0.0
173
     0
291
     0
 45
0.0
1001
ACAD
1000
AcDbSavedByObjectVersion
1070
     0
  0
VISUALSTYLE
  5
3F
102
{ACAD_XDICTIONARY
360
BFB
102
}
102
{ACAD_REACTORS
330
29
102
}
330
29
100
AcDbVisualStyle
  2

 70
    20
 71
     2
 72
     2
 73
     0
 90
        0
 40
-0.6
 41
-30.0
 62
     5
 63
     7
421
 16777215
 74
     1
 91
        4
 64
     7
 65
   257
 75
     1
175
     1
 42
1.0
 92
       10
 66
     7
 43
1.0
 76
     1
 77
     6
 78
     2
 67
     7
 79
     5
170
     0
171
     0
290
     0
174
     0
 93
        1
 44
0.0
173
     0
291
     1
 45
0.0
1001
ACAD
1000
AcDbSavedByObjectVersion
1070
     0
  0
VISUALSTYLE
  5
37
102
{ACAD_XDICTIONARY
360
BEB
102
}
102
{ACAD_REACTORS
330
29
102
}
330
29
100
AcDbVisualStyle
  2

 70
    14
 71
     2
 72
     2
 73
     0
 90
        0
 40
-0.6
 41
-30.0
 62
     5
 63
     7
421
 16777215
 74
     1
 91
        4
 64
     7
 65
   257
 75
     7
175
     7
 42
1.0
 92
        8
 66
     7
 43
1.0
 76
     1
 77
     6
 78
     2
 67
     7
 79
     5
170
     0
171
     0
290
     0
174
     0
 93
        1
 44
0.0
173
     0
291
     1
 45
0.0
1001
ACAD
1000
AcDbSavedByObjectVersion
1070
     0
  0
VISUALSTYLE
  5
40
102
{ACAD_XDICTIONARY
360
BFD
102
}
102
{ACAD_REACTORS
330
29
102
}
330
29
100
AcDbVisualStyle
  2

 70
    21
 71
     2
 72
     2
 73
     0
 90
        0
 40
-0.6
 41
-30.0
 62
     5
 63
     7
421
 16777215
 74
     1
 91
        4
 64
     7
 65
   257
 75
     1
175
     1
 42
1.0
 92
        9
 66
     7
 43
1.0
 76
     1
 77
     6
 78
     2
 67
     7
 79
     5
170
     0
171
     0
290
     0
174
     0
 93
        1
 44
0.0
173
     0
291
     1
 45
0.0
1001
ACAD
1000
AcDbSavedByObjectVersion
1070
     0
  0
VISUALSTYLE
  5
33
102
{ACAD_XDICTIONARY
360
BE3
102
}
102
{ACAD_REACTORS
330
29
102
}
330
29
100
AcDbVisualStyle
  2

 70
     8
 71
     2
 72
     3
 73
     0
 90
        2
 40
-0.6
 41
30.0
 62
     5
 63
     7
421
 16777215
 74
     0
 91
        0
 64
     7
 65
   257
 75
     1
175
     1
 42
1.0
 92
        8
 66
   257
 43
1.0
 76
     1
 77
     6
 78
     2
 67
     7
 79
     3
170
     0
171
     0
290
     0
174
     0
 93
       13
 44
0.0
173
     0
291
     0
 45
0.0
1001
ACAD
1000
AcDbSavedByObjectVersion
1070
     0
  0
VISUALSTYLE
  5
3E
102
{ACAD_XDICTIONARY
360
BF9
102
}
102
{ACAD_REACTORS
330
29
102
}
330
29
100
AcDbVisualStyle
  2

 70
    27
 71
     2
 72
     2
 73
     1
 90
        2
 40
-0.6
 41
30.0
 62
     5
 63
     7
421
 16777215
 74
     0
 91
        4
 64
     7
 65
   257
 75
     1
175
     1
 42
1.0
 92
        8
 66
   257
 43
1.0
 76
     1
 77
     6
 78
     2
 67
     8
425
  7895160
 79
     3
170
     0
171
     0
290
     0
174
     0
 93
        5
 44
0.0
173
     0
291
     0
 45
0.0
1001
ACAD
1000
AcDbSavedByObjectVersion
1070
     0
  0
VISUALSTYLE
  5
3D
102
{ACAD_XDICTIONARY
360
BF7
102
}
102
{ACAD_REACTORS
330
29
102
}
330
29
100
AcDbVisualStyle
  2

 70
    26
 71
     2
 72
     2
 73
     1
 90
        2
 40
-0.6
 41
30.0
 62
     5
 63
     7
421
 16777215
 74
     1
 91
       10
 64
     7
 65
   257
 75
     2
175
     1
 42
1.0
 92
        8
 66
   257
 43
1.0
 76
     1
 77
     6
 78
     2
 67
     7
 79
     3
170
     0
171
     0
290
     0
174
     0
 93
        5
 44
0.0
173
     0
291
     0
 45
0.0
1001
ACAD
1000
AcDbSavedByObjectVersion
1070
     0
  0
VISUALSTYLE
  5
3A
102
{ACAD_XDICTIONARY
360
BF1
102
}
102
{ACAD_REACTORS
330
29
102
}
330
29
100
AcDbVisualStyle
  2

 70
    23
 71
     2
 72
     2
 73
     3
 90
        0
 40
-0.6
 41
-30.0
 62
     5
 63
     7
421
 16777215
 74
     2
 91
        2
 64
     7
 65
     7
 75
     1
175
     1
 42
40.0
 92
        8
 66
     7
 43
1.0
 76
     1
 77
     6
 78
     2
 67
     7
 79
     3
170
     0
171
     0
290
     0
174
     0
 93
        1
 44
0.0
173
     0
291
     0
 45
0.0
1001
ACAD
1000
AcDbSavedByObjectVersion
1070
     0
  0
VISUALSTYLE
  5
3B
102
{ACAD_XDICTIONARY
360
BF3
102
}
102
{ACAD_REACTORS
330
29
102
}
330
29
100
AcDbVisualStyle
  2

 70
    24
 71
     1
 72
     2
 73
     2
 90
        0
 40
-0.6
 41
-30.0
 62
     5
 63
     7
421
 16777215
 74
     2
 91
        2
 64
     7
 65
     7
 75
     1
175
     1
 42
40.0
 92
       11
 66
     7
 43
1.0
 76
     1
 77
     6
 78
     2
 67
     7
 79
     6
170
     0
171
     0
290
     0
174
     0
 93
        1
 44
0.0
173
     0
291
     0
 45
0.0
1001
ACAD
1000
AcDbSavedByObjectVersion
1070
     0
  0
VISUALSTYLE
  5
36
102
{ACAD_XDICTIONARY
360
BE9
102
}
102
{ACAD_REACTORS
330
29
102
}
330
29
100
AcDbVisualStyle
  2

 70
    13
 71
     2
 72
     2
 73
     0
 90
        0
 40
-0.6
 41
-30.0
 62
     5
 63
     7
421
 16777215
 74
     1
 91
        4
 64
     7
 65
   257
 75
     1
175
     1
 42
1.0
 92
       12
 66
     7
 43
1.0
 76
     1
 77
     6
 78
     2
 67
     7
 79
     5
170
     0
171
     0
290
     0
174
     0
 93
        1
 44
0.0
173
     0
291
     1
 45
0.0
1001
ACAD
1000
AcDbSavedByObjectVersion
1070
     0
  0
VISUALSTYLE
  5
30
102
{ACAD_XDICTIONARY
360
BDD
102
}
102
{ACAD_REACTORS
330
29
102
}
330
29
100
AcDbVisualStyle
  2

 70
     5
 71
     0
 72
     2
 73
     0
 90
        0
 40
-0.6
 41
-30.0
 62
     5
 63
     7
421
 16777215
 74
     1
 91
        4
 64
     7
 65
   257
 75
     1
175
     1
 42
1.0
 92
        0
 66
   257
 43
1.0
 76
     1
 77
     6
 78
     2
 67
     7
 79
     3
170
     0
171
     0
290
     0
174
     0
 93
        1
 44
0.0
173
     0
291
     0
 45
0.0
1001
ACAD
1000
AcDbSavedByObjectVersion
1070
     0
  0
VISUALSTYLE
  5
3C
102
{ACAD_XDICTIONARY
360
BF5
102
}
102
{ACAD_REACTORS
330
29
102
}
330
29
100
AcDbVisualStyle
  2

 70
    25
 71
     2
 72
     2
 73
     1
 90
        1
 40
0.5
 41
-30.0
 62
     5
 63
     7
421
 16777215
 74
     1
 91
        0
 64
     7
 65
   257
 75
     1
175
     1
 42
1.0
 92
        8
 66
     7
 43
1.0
 76
     1
 77
     6
 78
     2
 67
     7
 79
     3
170
     0
171
     0
290
     0
174
     0
 93
       13
 44
0.0
173
     0
291
     0
 45
0.0
1001
ACAD
1000
AcDbSavedByObjectVersion
1070
     0
  0
DICTIONARYVAR
  5
B7B
102
{ACAD_REACTORS
330
B78
102
}
330
B78
100
DictionaryVariables
280
     0
  1
1:1
  0
DICTIONARYVAR
  5
B7A
102
{ACAD_REACTORS
330
B78
102
}
330
B78
100
DictionaryVariables
280
     0
  1
STANDARD
  0
DICTIONARYVAR
  5
B79
102
{ACAD_REACTORS
330
B78
102
}
330
B78
100
DictionaryVariables
280
     0
  1
STANDARD
  0
DICTIONARYVAR
  5
BC2
102
{ACAD_REACTORS
330
B78
102
}
330
B78
100
DictionaryVariables
280
     0
  1
2
  0
DICTIONARY
  5
1A
330
19
100
AcDbDictionary
280
     1
281
     1
  3
BUMPTILE
360
1C
  3
DIFFUSETILE
360
1B
  3
OPACITYTILE
360
1F
  3
REFLECTIONTILE
360
1E
  3
REFRACTIONTILE
360
20
  3
SPECULARTILE
360
1D
  0
DICTIONARY
  5
12
330
11
100
AcDbDictionary
280
     1
281
     1
  3
BUMPTILE
360
14
  3
DIFFUSETILE
360
13
  3
FBXASSET
360
D9
  3
OPACITYTILE
360
17
  3
REFLECTIONTILE
360
16
  3
REFRACTIONTILE
360
18
  3
SPECULARTILE
360
15
  0
DICTIONARY
  5
22
330
21
100
AcDbDictionary
280
     1
281
     1
  3
BUMPTILE
360
24
  3
DIFFUSETILE
360
23
  3
OPACITYTILE
360
27
  3
REFLECTIONTILE
360
26
  3
REFRACTIONTILE
360
28
  3
SPECULARTILE
360
25
  0
DICTIONARY
  5
BC4
330
67
100
AcDbDictionary
280
     1
281
     1
  3
ACAD_XREC_ROUNDTRIP
360
BC5
  0
DICTIONARY
  5
B7D
330
65
100
AcDbDictionary
280
     1
281
     1
  3
ACAD_ROUNDTRIP_2008_TABLESTYLE_CELLSTYLEMAP
360
BC3
  0
DICTIONARY
  5
BDB
330
2F
100
AcDbDictionary
280
     1
281
     1
  3
ACAD_XREC_ROUNDTRIP
360
BDC
  0
DICTIONARY
  5
BD9
330
2E
100
AcDbDictionary
280
     1
281
     1
  3
ACAD_XREC_ROUNDTRIP
360
BDA
  0
DICTIONARY
  5
BE7
330
35
100
AcDbDictionary
280
     1
281
     1
  3
ACAD_XREC_ROUNDTRIP
360
BE8
  0
DICTIONARY
  5
BEF
330
39
100
AcDbDictionary
280
     1
281
     1
  3
ACAD_XREC_ROUNDTRIP
360
BF0
  0
DICTIONARY
  5
BE1
330
32
100
AcDbDictionary
280
     1
281
     1
  3
ACAD_XREC_ROUNDTRIP
360
BE2
  0
DICTIONARY
  5
BE5
330
34
100
AcDbDictionary
280
     1
281
     1
  3
ACAD_XREC_ROUNDTRIP
360
BE6
  0
DICTIONARY
  5
BFF
330
41
100
AcDbDictionary
280
     1
281
     1
  3
ACAD_XREC_ROUNDTRIP
360
C00
  0
DICTIONARY
  5
BED
330
38
100
AcDbDictionary
280
     1
281
     1
  3
ACAD_XREC_ROUNDTRIP
360
BEE
  0
DICTIONARY
  5
BD1
330
2A
100
AcDbDictionary
280
     1
281
     1
  3
ACAD_XREC_ROUNDTRIP
360
BD2
  0
DICTIONARY
  5
BD3
330
2B
100
AcDbDictionary
280
     1
281
     1
  3
ACAD_XREC_ROUNDTRIP
360
BD4
  0
DICTIONARY
  5
BD5
330
2C
100
AcDbDictionary
280
     1
281
     1
  3
ACAD_XREC_ROUNDTRIP
360
BD6
  0
DICTIONARY
  5
BD7
330
2D
100
AcDbDictionary
280
     1
281
     1
  3
ACAD_XREC_ROUNDTRIP
360
BD8
  0
DICTIONARY
  5
BDF
330
31
100
AcDbDictionary
280
     1
281
     1
  3
ACAD_XREC_ROUNDTRIP
360
BE0
  0
DICTIONARY
  5
BFB
330
3F
100
AcDbDictionary
280
     1
281
     1
  3
ACAD_XREC_ROUNDTRIP
360
BFC
  0
DICTIONARY
  5
BEB
330
37
100
AcDbDictionary
280
     1
281
     1
  3
ACAD_XREC_ROUNDTRIP
360
BEC
  0
DICTIONARY
  5
BFD
330
40
100
AcDbDictionary
280
     1
281
     1
  3
ACAD_XREC_ROUNDTRIP
360
BFE
  0
DICTIONARY
  5
BE3
330
33
100
AcDbDictionary
280
     1
281
     1
  3
ACAD_XREC_ROUNDTRIP
360
BE4
  0
DICTIONARY
  5
BF9
330
3E
100
AcDbDictionary
280
     1
281
     1
  3
ACAD_XREC_ROUNDTRIP
360
BFA
  0
DICTIONARY
  5
BF7
330
3D
100
AcDbDictionary
280
     1
281
     1
  3
ACAD_XREC_ROUNDTRIP
360
BF8
  0
DICTIONARY
  5
BF1
330
3A
100
AcDbDictionary
280
     1
281
     1
  3
ACAD_XREC_ROUNDTRIP
360
BF2
  0
DICTIONARY
  5
BF3
330
3B
100
AcDbDictionary
280
     1
281
     1
  3
ACAD_XREC_ROUNDTRIP
360
BF4
  0
DICTIONARY
  5
BE9
330
36
100
AcDbDictionary
280
     1
281
     1
  3
ACAD_XREC_ROUNDTRIP
360
BEA
  0
DICTIONARY
  5
BDD
330
30
100
AcDbDictionary
280
     1
281
     1
  3
ACAD_XREC_ROUNDTRIP
360
BDE
  0
DICTIONARY
  5
BF5
330
3C
100
AcDbDictionary
280
     1
281
     1
  3
ACAD_XREC_ROUNDTRIP
360
BF6
  0
XRECORD
  5
1C
102
{ACAD_REACTORS
330
1A
102
}
330
1A
100
AcDbXrecord
280
     1
270
     1
271
     1
  0
XRECORD
  5
1B
102
{ACAD_REACTORS
330
1A
102
}
330
1A
100
AcDbXrecord
280
     1
270
     1
271
     1
  0
XRECORD
  5
1F
102
{ACAD_REACTORS
330
1A
102
}
330
1A
100
AcDbXrecord
280
     1
270
     1
271
     1
  0
XRECORD
  5
1E
102
{ACAD_REACTORS
330
1A
102
}
330
1A
100
AcDbXrecord
280
     1
270
     1
271
     1
  0
XRECORD
  5
20
102
{ACAD_REACTORS
330
1A
102
}
330
1A
100
AcDbXrecord
280
     1
270
     1
271
     1
  0
XRECORD
  5
1D
102
{ACAD_REACTORS
330
1A
102
}
330
1A
100
AcDbXrecord
280
     1
270
     1
271
     1
  0
XRECORD
  5
14
102
{ACAD_REACTORS
330
12
102
}
330
12
100
AcDbXrecord
280
     1
270
     1
271
     1
  0
XRECORD
  5
13
102
{ACAD_REACTORS
330
12
102
}
330
12
100
AcDbXrecord
280
     1
270
     1
271
     1
  0
XRECORD
  5
D9
102
{ACAD_REACTORS
330
12
102
}
330
12
100
AcDbXrecord
280
     1
 70
     1
 90
1959938040
 71
     1
  1
68C7155A-F11A-442C-9610-45B315A139F3
311
504B03040A0000080000284A44433DEE336E79000000790000001B0000006175746F6465736B2D64657369676E2D7061636B6167652E786D6C3C3F786D6C2076657273696F6E3D22312E302220656E636F64696E673D227574662D3822203F3E3C666F726D6174733E3C666F726D61743E687474703A2F2F736368656D612E
311
6175746F6465736B2E636F6D2F64657369676E2D7061636B6167652F323030393C2F666F726D61743E3C2F666F726D6174733E504B0304140006080800284A4443D486FD9CA0000000F4000000130000005B436F6E74656E745F54797065735D2E786D6C7D8EC10E82300C865F65E91D8A1E8C310C0EEA1BF002731658846E
311
D98AC1B77784ABF1D8FE5FBFBF75BBCE937A534CCEB38643598122B6FEE978D0B0485F9C41B54DDD7D022595594E1A469170414C76A4D9A4D207E29CF43ECE46F218070CC6BECC4078ACAA135ACF422C856C0E68EA1BF5669944DDD7BCDE7B1F8E415D77AECB980613C2E4AC91FC167A2B244592486606FC29C8FD7F045B9A
311
EF7053A7E60B504B0304140006080800284A4443A0EB19ACEB0000007C01000008000000636F72652E786D6C8D90E16AC32014855F45EEDF61A2266B6331968CAE4FB01710B599B4D11075ECF167DA14B67F03E15E8EE7BBF772C4F17BBAA12FBB44177C0FB42280ACD7C1383FF690D30577808E522C21A45F36405E4DB687
311
550629C625E4799374F0C9FA54541F8CDD4415A34D80F4AD343D44FD692755A99C8A235EAB59E9AB1A6D459F5D817376063D963853E6B98BB30BC8AEE38C0FEFAF98EDCF2D6ED940F15BD3707CDE314EBBD369D7B483A857588AE4A6E77EBD5895AC01C9086D302598B41F841FE8BEBC17420F84887AB5FF81F26CFE0965E7
311
53C3B6731F580449CB21F70F29EA358B52EE4195BAE6267F00504B0304140006080800284A444355019EA25F0000007C00000007000000636E782E786D6C4DCB3B0E80201045D1AD90E915ED2CF8AC45050C11660C8261F98AB1B07AC9C97D42D718D865D3E909258CFD00CCE24AC6E326A164D74DC0B4128928FF32603847
311
2BA13128B1252AC747C6BAB984FC68F0B87FE8960A5C09FE86CFB69FBA01504B0304140006080800284A444306FF29AB66010000020300000C0000006662782F636F72652E786D6C8D525B6E833010BC8AE5DF0A6C034D20328E52A539412FE0804351C046C646397E97474453455105026B6667777680EF6F6D830665FBDA
311
E81CB39062A47461CA5A5739F6EE12A418ED05B7C6B85F651869D9AA1C8F3016BCB2C6770B5418ED9476806A53AA05947DAF1C464503871CF7C5B76A6528BD838AFE1A76B2B8CA4A852C041AEA04EF9D0503681E323EB1B89C6F9CCCB8E0DED7E5C2D6254CAB2FB5B258A469166587CFF720DA9E9220890E2CF888E32C386D
311
A28CA5C7E3264E0E9C8C62C15DDDDEDD155649A74A2C22CAE280D180265F34DBB12DDC6F94ED28E5642C7F10F9AEFCA7C8D7DAC5D1627796F558303032117FB685881CEAE5007E88E0640C115E53C28F41432010B293E7E6BEC715A04115CED80498D2F8951A64E3154CA568BA389959E83C3580CD9EF6895EF479DD033EA0
311
D41558930E8E67EFC6E97C9EBA44D1291B0CEE86B4B1AD6C5673B3C5F5B90E7A2A2F4C63EC7FD46459952C6192F1EF153F504B0304140006080800284A4443908A30E07D0000009D0000000B0000006662782F636E782E786D6C4DCCD10A83201886E15B91FFDC95E5D2811A49781FB12C64A6C3E9D8E5AF46073BFAE0E1E3
311
15FD67F3E86DD3CBC520815C6A4036DCE3ECC22AA1E4057340BD1229C6FC770314A6CD4A38189458532CCF9366BB4CC5E75DBD0B8F1309EB1A624C8BF5751C30A594E341738D8961B7AED64C8F6D039512D5AFB4EF11565F504B0304140006080800284A44431C254DA12C01000015020000310000006662782F3137363231
311
4646332D423544412D343434382D414238422D3146373936304237424433322F636F72652E786D6C8D515B6EC32010BC0AE22B55850D36B19D0813C58A72825EC035244589C1E251E5F85DD78ED4FE45422C9A9D991DB1E2F018EFE85BFB609C6D31CB2846DA0E4E197B6D718A17D2607490C23B17FFD030B2FDA85B3CC358
311
8AAB77695AA1C1D9A86D04D43AA557B00F41478C863B3C5A1C862F3DF6599F2230C22D9BFAE1D65F75C63268034F8A103D0440CB90F9C692D555C1CEE79274DBD39170CE1B72EC9A8EB073BDAB685777A7B210F922942225A356B95110C75C8CF6AF9ACC6229A2199FF107AFFBA81596056525619450FE41777B56C379A76C
311
4FA9C867FA3F519AD48BA2646C2C8B35EE220B9055E44B430AE5D2E7FD19463F26E7239AE76D821EDEB0A419A5BCE1DB9A32912F5CF80130ADF86A1AA2F3F0C39BDB27D0D97671AEB814F9BC2428BF1B843A2F54FE00504B0304140006080800284A4443682EA3224E01000033030000300000006662782F31373632314646
311
332D423544412D343434382D414238422D3146373936304237424433322F636E782E786D6CD593CD6EC32010845F0571ADFC4363A56D8489D4439FA0875E096C121A0C163F55F3F65D1292E692438F952C64CD0E33AB4F365F7F4F967C4188C6BB91B2B6A7049CF2DAB8DD4873DA36CF94AC050FDEA71B1B254E4E30D22253
311
C177C1E7B94A1AB632DB84AA35EE50C500D1E7A020A25C6E12EB95B41800AEC928C2B401AD4193AB11DFB610701514374792F640DE5E3F88DF7C824A91772545F0AE74085ECEDA7463A2445919E348A3DAC3245B9993D7100FAD9649B6ACBD74DDD9E93789940B97CA1C0C29E5232D271575A31639F20E8782C714905E35A5
311
E30C54C879B646C98490BB93F1EC113C1B979643F51A041FD0CD968B61C0B0D34CF06426A80E154026D0543CF66CD1B0BEE987F7FE65C59EF079E8D9AAEF7957EC826FBCB7F512C640F03351DE2570890AC6BB32BE87AFFA88360159FB70FC034804505BCF74AE19FF994F77FABE1157C0BF40FC00504B0304140006080800
311
284A4443B20F97AEA405000081100000340000006662782F31373632314646332D423544412D343434382D414238422D3146373936304237424433322F6F626A656374732E786D6CAD575B6FDB3614FE2B82F6B23DD8B27C49934151E1D84B6174698B1A2DF660C0A0254AE1425D4052A9B35FBF8F22254BAE9D7A435F74E1
311
E5F09CEF7CE7C2E0ED3EE3CE33159215F9ADEB0F47AE43F3A888599EDEBA954A06D7AEF3360C4451A8CE32D7C949466F5D3DEC86412A8AAAB443314D48C5D5D1E8FDDD5F8E8C684E5D27E244CA5B57468F34234352A922A6F2691813458669B21FFA43B3B02F3615A47C3C125A124173054D319E438A6394F2FBBF23D70B03
311
4FCF87817EDA5593F3ABBCDA9EFEF92C978AE4D177871D8999F8D3E51FE3D9CD60369D4E06D3ABB13FB8BBBF5B0EFC3793D1E26AB1B899FF718383A512906435113471C377C046B028F0CC5418542C5793B15D621DE409FACCB4A7DC70ECF88167D6B4D659234FA91F15794EA31A2BA051DB6745C7B4A4790C9F332AA15907
311
A151FFD7D73876A627FADF1ED91DBE0C81EE8E8EA046F7E6DDD5B4D8FD0D13E4250C12926A061A2CADA186ABA303C2BBA2E0768E4927238A0A46B8C3D94E10F1E28658AA9784414F8C66B2D0D1A02D704378C14CF7E98230FA31CF4F6999549C6B1ABB611D055BC40A55B2D68CFD43C541FB2E32D009BED26CB8B606A99792
311
BAE18DA1C8F5119B0C904EC2490A97C34CBD73323E3274A1E374B574C3F7F7BBFD5AC7EEE9C34B519454284D1F50AB715CF3D628599DFC8B3CA737B847AA1C40F90CE43F20D40FAAC06F82EDA7FBA93D450992CBA410197CE38C9CC1088F91E3D74FFDDDF90ABC7673DF7BE7F084B335543F01CFBE0D5D5F76E00C836710BE
311
10136BDA3A221C69E381E5004893C4E10586908793DDDE0D57C872C8CAD84578E8C364A8FB8CCFC0B3629028EA933AEF1C581EA5C50B123460AB1909350CF9AD82073F7D97CEEA83EDB273F0CE7E0A5DE7CBF5FB75251212D1071BD34B9AB09C2994B8036FBA0AF530EF59F4445FBE152286A1DFE3BDEEE29DD9A324D0D698
311
6BE0D326A7EB9FC3C9BD0322EC4B0B9D6E821F9C00237461EDC87F6032A29C939C165573EEABF50365C340AC835D33B92D3087C202D29899A31844918E042B35886DB56A93E6F08C755F561FC04837BC7BF993BC74B3D7EE907BA3821762BB7BD99AB47412EAAF7D6E5B0C3C2D0574AF83A4897F0BFA366649524924C113B8
311
7E5D2DBABED3690129A2916AA2650AFB115C4458D2367251AD0541252DF22D43DD44DC9D3CA02B1F905A06D402CF692C294FB68CF32ADB268CA31A6D33529E81E3FFEBBFABB2724BB2A2CAD519D93DD5511DFABAF7D82BBF11153DBAE1BA7E0FEE907B631A9F2183AE2527B0EAB9F6EA7AF1C69FCDE6837BDF9F0FA6D3F162
311
7073E58F06D3D9DDC49FCDFDC9CDFDA4F193D1240C9A52D38D687809A52DA804B3EEFBB242FCD824E0860F44C9CD3B139ECDFBCB6A885E38F0B007F5B2DD388F9FD1F7D1F8C7020E2B4F0A5A6525A719CD15D131F4A03FF867823EA3A78C195F6524A51748F9F86E7D640C462ED8F749C73BFD76B4D78E2E74409E14A21EAB
311
6C9713C68F36A606C96199A716BFC627EDDB149AE657FF59C7A03395056731F260ECA4B4C8A84236BCA008898C4A50AFDBD3C7F6EE71C1EE67D3212AB2E3B4D1E491A049E61261016A5591EA8F3BBFA0A9D37DD5AD8B723B7CC2C3660AD701676E5D34E98A45540E7728D0BA15AA85834BDD4E1E8D3FC9538E5EDB6C6AFFDB
311
5D1A9B5E496E975CD23F59BB4C0AB706208D94E81BD010C13BB5326150EB66E7A3FF6478A38E43143E77956A6D390CB4C6D4C720448D51F6B68026E6C91EBD47A0BE6E963FACD7F410B9E896F52A098CD4812222AD6F0A5A3FABD27CF9C94387E2AC3E3A25AF52F8F27249034141E64A073858045658992551A0EAE2F7CD27
311
51E0269B39F70C14707EDD5F5FFDB659145956E4666833B7F76167FD88DB6DBC4172A0FA5A2237E3913FDED4D7017B43D9EE88A44312CB270CC0B382B540F7DC0F5E9A3B23EA909968D779DA15470C5D2D1D5BD8A6106AE9D2CDAD1A1C341E39751043FA4AA923A6BBA07CF546E0D54BA182402F1FFE0B504B030414000608
311
0000284A4443000000000000000000000000350000006662782F31373632314646332D423544412D343434382D414238422D3146373936304237424433322F76657274696365732E62696E504B0304140006080800284A4443F270F1330600000004000000360000006662782F31373632314646332D423544412D34343438
311
2D414238422D3146373936304237424433322F747269616E676C65732E62696E636660600000504B0304140006080000284A4443000000000000000000000000370000006662782F31373632314646332D423544412D343434382D414238422D3146373936304237424433322F617474726962757465732E62696E504B0304
311
140006080800284A4443D5987DFC8F00000041010000360000006662782F31373632314646332D423544412D343434382D414238422D3146373936304237424433322F6469726563746F72792E786D6C858F410EC2201045AF4266AF15DDB800BA74E7C21B903225242D6328188F2FA5C4183471359997F9FF81E89FF3C41E
311
1816475E02DF1F80A11FC8386F25A438EECEC07A250251FC3803E6F58C12560C4AD840E95E91C151A72936F496F35732D860FE635F62C8F2DA16B505C545B74125BAA2FA9E05D7CC053D063734D5C7665FD55B6B8D15D5E9BFEAFD8490FFA45E504B0304140006080800284A4443B3403734FC000000A00100003B00000066
311
62782F31373632314646332D423544412D343434382D414238422D3146373936304237424433322F7265736F75726365732F636F72652E786D6C8D505B6AC33010BC8AD9DF225B924D620759C125CD097A01216F5C9158327A941EBF72EC42FB5710DA651EEC30E2FC353F8A4FF4C138DB032B291468B51B8D9D7A48F1465A
311
28CE5278E7E22F191456CDD8C30A8314937769D921ED6C441B336ADD883BA842C008857EE4A587A03F7056A54A312BC2BD5C94BEAB094B56663AEBA408D1E700C57664FD417A0C2E798D41541B2B454A66DC3566CC37CDCDA007D9B61DEF86B786F0E3B5210D1F1879ADEB8E5C0FBC63EDE572A89B4154AB598A68E69F8CDA
311
A38A3882E494D58451429B77DA9DD831BF17CA4E948A6A95FF31A565FCA729191B6BBEC7DD6C0124CB419E8414D5DA571ECF32F35CBB95DF504B010214000A0000080000284A44433DEE336E79000000790000001B00000000000000000000000000000000006175746F6465736B2D64657369676E2D7061636B6167652E78
311
6D6C504B01021400140006080800284A4443D486FD9CA0000000F40000001300000000000000000000000000B20000005B436F6E74656E745F54797065735D2E786D6C504B01021400140006080800284A4443A0EB19ACEB0000007C010000080000000000000000000000000083010000636F72652E786D6C504B01021400
311
140006080800284A444355019EA25F0000007C000000070000000000000000000000000094020000636E782E786D6C504B01021400140006080800284A444306FF29AB66010000020300000C00000000000000000000000000180300006662782F636F72652E786D6C504B01021400140006080800284A4443908A30E07D00
311
00009D0000000B00000000000000000000000000A80400006662782F636E782E786D6C504B01021400140006080800284A44431C254DA12C0100001502000031000000000000000000000000004E0500006662782F31373632314646332D423544412D343434382D414238422D3146373936304237424433322F636F72652E
311
786D6C504B01021400140006080800284A4443682EA3224E010000330300003000000000000000000000000000C90600006662782F31373632314646332D423544412D343434382D414238422D3146373936304237424433322F636E782E786D6C504B01021400140006080800284A4443B20F97AEA4050000811000003400
311
000000000000000000000000650800006662782F31373632314646332D423544412D343434382D414238422D3146373936304237424433322F6F626A656374732E786D6C504B01021400140006080000284A444300000000000000000000000035000000000000000000000000005B0E00006662782F31373632314646332D
311
423544412D343434382D414238422D3146373936304237424433322F76657274696365732E62696E504B01021400140006080800284A4443F270F13306000000040000003600000000000000000000000000AE0E00006662782F31373632314646332D423544412D343434382D414238422D3146373936304237424433322F
311
747269616E676C65732E62696E504B01021400140006080000284A44430000000000000000000000003700000000000000000000000000080F00006662782F31373632314646332D423544412D343434382D414238422D3146373936304237424433322F617474726962757465732E62696E504B0102140014000608080028
311
4A4443D5987DFC8F0000004101000036000000000000000000000000005D0F00006662782F31373632314646332D423544412D343434382D414238422D3146373936304237424433322F6469726563746F72792E786D6C504B01021400140006080800284A4443B3403734FC000000A00100003B0000000000000000000000
311
0000401000006662782F31373632314646332D423544412D343434382D414238422D3146373936304237424433322F7265736F75726365732F636F72652E786D6C504B0506000000000E000E0080040000951100000000
310
504B03040A0000080000284A44433DEE336E79000000790000001B0000006175746F6465736B2D64657369676E2D7061636B6167652E786D6C3C3F786D6C2076657273696F6E3D22312E302220656E636F64696E673D227574662D3822203F3E3C666F726D6174733E3C666F726D61743E687474703A2F2F736368656D612E
310
6175746F6465736B2E636F6D2F64657369676E2D7061636B6167652F323030393C2F666F726D61743E3C2F666F726D6174733E504B0304140006080800284A4443D486FD9CA0000000F4000000130000005B436F6E74656E745F54797065735D2E786D6C7D8EC10E82300C865F65E91D8A1E8C310C0EEA1BF002731658846E
310
D98AC1B77784ABF1D8FE5FBFBF75BBCE937A534CCEB38643598122B6FEE978D0B0485F9C41B54DDD7D022595594E1A469170414C76A4D9A4D207E29CF43ECE46F218070CC6BECC4078ACAA135ACF422C856C0E68EA1BF5669944DDD7BCDE7B1F8E415D77AECB980613C2E4AC91FC167A2B244592486606FC29C8FD7F045B9A
310
EF7053A7E60B504B0304140006080800284A444371E62BBAEA0000007C01000008000000636F72652E786D6C8D905D6EC3201084AF82F6B5C206DB117684899A263D412F8080B8283158FC543D7E71E248ED5B25A45D0DF3EDAE861FBEE71BFA32215AEF46A01501649CF2DABA69849C2EB80774103C789F7ED90039399B11
310
5619049F82CFCB2629EF9271A9A8CE6BB38932469300A95B694688EAD3CCB292391547BC568B545739998A3EBB02E76C357A2CB1BACCB3176B0288E6D8D0A1DB317C6E4F3BDC75FD805FD989617624FD1B6DDFCF8C315EAFB0E0C9CECFFD2A18998C2E3CA12DA60493EE830C7BCACA7B21744F08AF57FB1F282FFA9F50B62E
310
B5CD76EE038B206839E4FE2178BD6651CA3DA852D7DCC40F504B0304140006080800284A444355019EA25F0000007C00000007000000636E782E786D6C4DCB3B0E80201045D1AD90E915ED2CF8AC45050C11660C8261F98AB1B07AC9C97D42D718D865D3E909258CFD00CCE24AC6E326A164D74DC0B4128928FF326038472B
310
A13128B1252AC747C6BAB984FC68F0B87FE8960A5C09FE86CFB69FBA01504B0304140006080800284A44437A4FAE3B66010000020300000C0000006662782F636F72652E786D6C8D52ED8E8230107C95A67F2FA52D6050536ACED37B827B810A9523424B4A4B7CFC5B3E8CE7C5980B049A999DDDD901B1BBB60D1AB4EB6B6B
310
72CC23869136852D6B53E538F8335963B493C259EB7F95616454AB733CC2588ACAD9D02D50618DD7C6036A6CA91750F5BDF618150D1C72DC17DFBA55910A1E2AFA4BD4A9E2A22A1DF10868A893A2F70E0CA079C8F8C4F27CBA0A3AE3528450970B5B9730AD3ED7DA6119EF63BE4957193926871549D3F586BC67878C647BB6
310
FEE0C9E731CB324147B114BE6E6FEE0AA795D725E8194F086784A55F6CB3E519DC6F8C6F1913742C7F1085AEFCA728D4C627F1627796F558723032117FB685883CEAD5007EA814740C115E53C28F41432010B257A7E6B6C705A04117DEBA1498D2863B35A8266898CAD074093AB3D0796A009B3DED13BFE8F3BA077C40652A
310
B0A63C1C4FC18FD3C53C7589A2D38E0CFE8A8C75AD6AEEE6668BF7E77DD05379611BEBFEA3A6CBAA7409938E7FAFFC01504B0304140006080800284A4443B14496CB7D0000009D0000000B0000006662782F636E782E786D6C4DCCD10AC2201886E15B91FFDCA6D848411DD3DA7D8CE686E4344CA3CB6F8B1D74F4C1C3C72B
310
BBCF1AD0DBE5974F51013D11402EDED3E4E3A2A0961973409D9639A5F2770314C7D529D819B45C72AACF8326378F35944D838F8F038DE885E88DC0E64A283E53C23067C30533CBAD6574686FAC8546CBE657DA760FEB2F504B0304140006080800284A4443C7FBED8B2A01000015020000310000006662782F423941393941
310
42392D424430312D343130332D383346372D3343384343333146354533352F636F72652E786D6C8D51DB6E022114FC15C2934DC32EC87A59C362D4D62FE80F20A0125DD87069FCFC42774DDA3713C2217366E64C386CFBE8EFE05BFB609CED20A93004DA4AA78CBD7430C5335A43B0E5CC3B17FFD020B0A2D71D2C30E4ECE2
310
5D1A26483A1BB58D19B54EE9091421E80881BCE7470783BCEA5E5422C5CC08B76A10F2262EBA22556E671E6721FA1C008C43CA0DF9BEDDB5ED6EDFA2FD0726A82198A2353DAE103DAC0F074A8E8B4FBA60F528E42C25A326B951398E391BED5F352962CEA2E99FF1A5D7226A05F91C138A0846B8F9C2ED86ACF279C7648331
310
AB0BFD9F280DEA45513236D2F914779405C809ABC70667CAA5D3FD19463F06E72328F36641CB37C87185F192D086D286D52337FF40365D36936988CEE71F9EDD4E994E27E765C3595D9694CBEF06732D0BE53F504B0304140006080800284A44430E896C355601000033030000300000006662782F42394139394142392D42
310
4430312D343130332D383346372D3343384343333146354533352F636E782E786D6CBD93CD6AC33010845F45E85A6CCB8949D3202BD0439FA0875E6569D3A8B125A39FD2BC7D578992E69243A1148C30B3A399E5C3E6DBAF69249FE08371B6A76DCD2801AB9C36F6BDA729EEAA35255BC1BD73F1C646899513F434CB54F077
310
EFD25C240D3B99C688EA68ECA1881E824B5E414039DF24A35372C400B0554211A601B4064DAE467CDB81C755501C8E24EE81BC3CBF11377C808A81373945F02677089ECFD27463A2448D32849E06B58749D63245A7211C6A2DA3ACDBFAD27567A79F24922F5C2A93372497F7349F54948D6AE4C81B1C0A1EA2477AC5148F33
310
5021E779344A4684DC9C8C678FE0C9D8B8EA8AD720788FEEE562B55E63D869267834131487F22023682A16AC5D562DAB58F7CA9E36ED233E0FACDD30C69B6C177C706E2C973006BC9B897236828D54B4BCC9E37BF88A8F68E391B5F3C75F804400A5F54CE79AF1977CDAD5B2EBFE914F73FABE1197C7BF407C03504B030414
310
0006080800284A4443411C1993620700009A1B0000340000006662782F42394139394142392D424430312D343130332D383346372D3343384343333146354533352F6F626A656374732E786D6CED59DD739B3810FF5718EEE5EEC1D8C4769ADC103A89D3743CBDB49DFADAB907CF3032C84417211849A4F1FDF5B7FA000331
310
09BEE6DEFA6003425AEDFEF6534BF0F631A3CE03E682E4ECC2F5BD89EB6016E70961E9855BCAEDE8CC75DE8601CF73D998E63A0C65F8C255C36E18A43C2F0B3B94E02D2AA9EC8CDE5CFDE5881833EC3A3145425CB822BEC319F25029F3048B7B2F411279E9F6D1F33D33B14D36E5A8B8EB102D10C74C02A730CE808A6398F2
310
DB8F13771C0663F53E0CD4BF9D351D346BD63F6BACA56E7349989088C54F58EA90990E6269EACFAEDF9DCCCF47F3D96C3A9A9D9EF8A3AB9BABEB91FF663A599C2E16E797EFCE81BD4D9E532B53820BCC12D0DFCE0DFD60ACDED4A25B040E711DE78CE15803095069B1BA040916B05503BE49FBD15712355E6B091BCF33F5DE
310
B2D0189EB6A9F4CD1A06448B2E0862B7AB24AEAE4DF9F2CDDF20B81862945C6009DC0AC941BB161E0E5EE18693606C46C360B3D705114E8624E6045187920D471C940253D59430300B2C19E51C1C48394A02AD39F3BA6D5BE0992FBBCE212EB725A5CA33DC503B5604EE87A5D09C917F30DF73DF44067802694BC2E499E552
310
EE0AEC86E7C1580F8681BA4C4FEC4B03A4B3A528151A11F3B623E842B9FEF2DA0D3FDC6C1E572A1C1CDEBCE07981B95446A7F4A8F90243B6578592DDD61FA439B5008431A0DA957B50BE00F21F217AEC5901BD71F2387B9CD9B9922326B639CF4037CEC4194DE06FE2F8FA5FDD37EE8271BDB8ADBD3E3CC14D1554673F8E67
310
5B068D95E5BF0167183C80C1E77C6A5FAD6244C19E6F09038094913834872108EDDBCDA31B2E217042A0875588863E880CEC3EC06D30B664F65AA9DCCB7A1D0344ED1ED3214A02D8B445021B3D7A7A0FD9839378AFA6A6887DF0CE5FC55C2FAF571F5625DFA218DF5A9FBEC65BC28884AC7998A116E62D89EEF1EE7BCE1310
310
F429DEAB26DE99DD4A00DA0A73057C5A81A01EF63BB73688615D9AAB7013BCB00308A1727583FE2D1131A614319C97D5BE757453865A7BBCAD19DCF0C4403C3DE99830C70F445515E034FB192D4621EFC79C140A44377C6F24AB83A6D723DDD7E547B0C87A7ECFAC2583D0CB10FD5307AD0338B42CBB42DA02510BBCD987F3
310
38A7398F36BBC8443A176A0960A3ED2DDF5A4421D61B25292AE041DAEFAA90921A69A3846CB7A580B87A80C56FCB45D31C26DED49F3BCDFF8E33CE20DA82EF226EFDAEB347443294E2688B92BEED9ABBD5B48526D9439AE32D05B9C80391BB08C96892E0F418688E227EFEAAD4539A0B41181690AF0E82DF4463E2412031DA
310
AC58565AED004D44946189E8310828323DE0EAB4A36BDC184A879779ACADF7398D3589FE4F16C111D492398B0894A290435E64DCF7E61043DAE81A943BF882B555B4B518B4841222DE45DF3149EFE431A81BF23DB8C77024296594172806B31E40F689AF28A57678DFA0F85EE58F282EE96B1988C0741B114ACB2C821F6170
310
F218E2DA75607A1685067113FB24CEA02843B2E44336399D4F9EEC636A866E086C6CB42514C27694A1A207F55640D4F58853836FA9F7287553664584B2BC64830CC59B76BDC992EFAA55911DC8AF2A15A16CAC085B82614098ACB36A15B3C1D475600537D2816A17099415D49CC25E483C7EED4D9A72EF06DCFAE9EB6E9041
310
E1D7A3BD66449D5530581E5B8581F88E647CE7862B7D1D5D41FD9DE0649FEAAB5AB3590102622A92979C58157D5D4279636B3437BC4552ACDF9BAC5B5DBF2E3DE87E04635803B54BBD70A980CE3093485526B7EA867E4110825B34CCF852E5D463A85C2689AE1A11BD217DEA6C9511AD4D33E2157798E519FCD89AB0989609
310
5EA344DC47B792462BA258B7527A19A9307E56C04FEF571D78606480489F558187BF77D6DAD1852A970E12917765B6618840106C89961ADD78054BAD462A2DD75775A680BA0B0CCCAA78F6F364D16C47FC3C59A4D6307EE86471B5FB03ED9A7D91463A8F955D1F750CA8F393A2F21AC700DD76A8A9D659C424732BBF75A608
310
826215E507576355D03004FB38FECF59BB2F0B9AED3AFC1F97B5FD2715C75159A5355975A90E54AECB660E3B3D5BBCF1E7F3CBD18DEF5F8E66B393C5E8FCD49F8C66F32B38AA5DFAD3F39B7D19A11D350CEA60A673173C9BA0560DAB278B017465454E4902A7F9C44931C47C0967FA01ED739E6101C9B3D9EC4E6C537EC0EA
310
07D3E794684371C5C91D8206311590D601A33296ED71E717684D4A38685FB8D034F2EEE1CF5AA5EB40E6B970A15520498C85B78136936AE869E2907275EEB7C4001FC4529512CDA2FAB95EA5B06985FF7ACA903460E56AF530A0702BA0FBD5EA5068DE2C4FF1518257EC3848C2EDA69450AD1959F603B5307A9BBDFA8D6C94
310
B07BBBF523B8EEF362F99E9ED34264D02783678DC0501D49C453DDEF568C59962EAF3F8FA1CFE62C3F39052D53D0E5704A238EC1984B555081158155589A059260AA8BDFD79F790E9F7832475745CEAF8F67A7BFAD177996E5CC0CAD2FE15496C087226775079F7D9235140F5835D7C5FA64E29FAC7553DBF6D9A30D12D853
310
55110C54C58412A4637260974F1A54B67D3956AAE84C5F5E3B36884233C0D8D1931EAFF9C8E5800FA9CF29CA63B49F57D23EDBD71EEBA960131C3AD2E1BF504B0304140006080000284A4443000000000000000000000000350000006662782F42394139394142392D424430312D343130332D383346372D33433843433331
310
46354533352F76657274696365732E62696E504B0304140006080800284A4443F270F1330600000004000000360000006662782F42394139394142392D424430312D343130332D383346372D3343384343333146354533352F747269616E676C65732E62696E636660600000504B0304140006080000284A44430000000000
310
00000000000000370000006662782F42394139394142392D424430312D343130332D383346372D3343384343333146354533352F617474726962757465732E62696E504B0304140006080800284A4443D5987DFC8F00000041010000360000006662782F42394139394142392D424430312D343130332D383346372D334338
310
4343333146354533352F6469726563746F72792E786D6C858F410EC2201045AF4266AF15DDB800BA74E7C21B903225242D6328188F2FA5C4183471359997F9FF81E89FF3C41E1816475E02DF1F80A11FC8386F25A438EECEC07A250251FC3803E6F58C12560C4AD840E95E91C151A72936F496F35732D860FE635F62C8F2DA
310
16B505C545B74125BAA2FA9E05D7CC053D063734D5C7665FD55B6B8D15D5E9BFEAFD8490FFA45E504B0304140006080800284A4443624D0522FC000000A00100003B0000006662782F42394139394142392D424430312D343130332D383346372D3343384343333146354533352F7265736F75726365732F636F72652E786D
310
6C8D50ED6AC320147D15F1EF30D1249D4D319675ED9E602F20E63693361AFC187BFC6993C1F66F20DECBF9E01E8E387ECD77F4093E186707CC2A8A1158ED4663A701A778257B8C8E5278E7E22F194656CD30E002632926EFD2B241DAD9083666D4BA113650850011237DCFCB8083FE8059552AC5AC08B76A51FAA626A85895
310
E9AC9322449F03A0F548F9B1F4105CF21A82A857568A94CCB869CC986F9AAB018F65736A58DFED9EC9A53DEF48D7ED7BF2C2CF9CF013DDBFB2F6EDC2391775314B11CDFC93517B5011C6ECA7AC258C12DABDD3FEC0787E4F941D28157591FF31A565FCA729191BDB668BBBDA02962C07791052D4A5AF3C1E65E659BA95DF50
310
4B010214000A0000080000284A44433DEE336E79000000790000001B00000000000000000000000000000000006175746F6465736B2D64657369676E2D7061636B6167652E786D6C504B01021400140006080800284A4443D486FD9CA0000000F40000001300000000000000000000000000B20000005B436F6E74656E745F
310
54797065735D2E786D6C504B01021400140006080800284A444371E62BBAEA0000007C010000080000000000000000000000000083010000636F72652E786D6C504B01021400140006080800284A444355019EA25F0000007C000000070000000000000000000000000093020000636E782E786D6C504B0102140014000608
310
0800284A44437A4FAE3B66010000020300000C00000000000000000000000000170300006662782F636F72652E786D6C504B01021400140006080800284A4443B14496CB7D0000009D0000000B00000000000000000000000000A70400006662782F636E782E786D6C504B01021400140006080800284A4443C7FBED8B2A01
310
00001502000031000000000000000000000000004D0500006662782F42394139394142392D424430312D343130332D383346372D3343384343333146354533352F636F72652E786D6C504B01021400140006080800284A44430E896C3556010000330300003000000000000000000000000000C60600006662782F42394139
310
394142392D424430312D343130332D383346372D3343384343333146354533352F636E782E786D6C504B01021400140006080800284A4443411C1993620700009A1B000034000000000000000000000000006A0800006662782F42394139394142392D424430312D343130332D383346372D3343384343333146354533352F
310
6F626A656374732E786D6C504B01021400140006080000284A444300000000000000000000000035000000000000000000000000001E1000006662782F42394139394142392D424430312D343130332D383346372D3343384343333146354533352F76657274696365732E62696E504B01021400140006080800284A4443F2
310
70F13306000000040000003600000000000000000000000000711000006662782F42394139394142392D424430312D343130332D383346372D3343384343333146354533352F747269616E676C65732E62696E504B01021400140006080000284A44430000000000000000000000003700000000000000000000000000CB10
310
00006662782F42394139394142392D424430312D343130332D383346372D3343384343333146354533352F617474726962757465732E62696E504B01021400140006080800284A4443D5987DFC8F000000410100003600000000000000000000000000201100006662782F42394139394142392D424430312D343130332D38
310
3346372D3343384343333146354533352F6469726563746F72792E786D6C504B01021400140006080800284A4443624D0522FC000000A00100003B00000000000000000000000000031200006662782F42394139394142392D424430312D343130332D383346372D3343384343333146354533352F7265736F75726365732F
310
636F72652E786D6C504B0506000000000E000E0080040000581300000000
  0
XRECORD
  5
17
102
{ACAD_REACTORS
330
12
102
}
330
12
100
AcDbXrecord
280
     1
270
     1
271
     1
  0
XRECORD
  5
16
102
{ACAD_REACTORS
330
12
102
}
330
12
100
AcDbXrecord
280
     1
270
     1
271
     1
  0
XRECORD
  5
18
102
{ACAD_REACTORS
330
12
102
}
330
12
100
AcDbXrecord
280
     1
270
     1
271
     1
  0
XRECORD
  5
15
102
{ACAD_REACTORS
330
12
102
}
330
12
100
AcDbXrecord
280
     1
270
     1
271
     1
  0
XRECORD
  5
24
102
{ACAD_REACTORS
330
22
102
}
330
22
100
AcDbXrecord
280
     1
270
     1
271
     1
  0
XRECORD
  5
23
102
{ACAD_REACTORS
330
22
102
}
330
22
100
AcDbXrecord
280
     1
270
     1
271
     1
  0
XRECORD
  5
27
102
{ACAD_REACTORS
330
22
102
}
330
22
100
AcDbXrecord
280
     1
270
     1
271
     1
  0
XRECORD
  5
26
102
{ACAD_REACTORS
330
22
102
}
330
22
100
AcDbXrecord
280
     1
270
     1
271
     1
  0
XRECORD
  5
28
102
{ACAD_REACTORS
330
22
102
}
330
22
100
AcDbXrecord
280
     1
270
     1
271
     1
  0
XRECORD
  5
25
102
{ACAD_REACTORS
330
22
102
}
330
22
100
AcDbXrecord
280
     1
270
     1
271
     1
  0
XRECORD
  5
BC5
102
{ACAD_REACTORS
330
BC4
102
}
330
BC4
100
AcDbXrecord
280
     1
102
ACAD_ROUNDTRIP_2012_MLEADER_STYLE
298
     1
  0
CELLSTYLEMAP
  5
BC3
102
{ACAD_REACTORS
330
B7D
102
}
330
B7D
100
AcDbCellStyleMap
 90
        3
300
CELLSTYLE
  1
TABLEFORMAT_BEGIN
 90
        5
170
     1
 91
        0
 92
    32768
 62
   257
 93
        1
300
CONTENTFORMAT
  1
CONTENTFORMAT_BEGIN
 90
        0
 91
        0
 92
      512
 93
        0
300

 40
0.0
140
1.0
 94
        5
 62
     0
340
55
144
0.25
309
CONTENTFORMAT_END
171
     1
301
MARGIN
  1
CELLMARGIN_BEGIN
 40
0.06
 40
0.06
 40
0.06
 40
0.06
 40
0.18
 40
0.18
309
CELLMARGIN_END
 94
        6
 95
        1
302
GRIDFORMAT
  1
GRIDFORMAT_BEGIN
 90
        0
 91
        1
 62
     0
 92
       -2
340
0
 93
        0
 40
0.045
309
GRIDFORMAT_END
 95
        2
302
GRIDFORMAT
  1
GRIDFORMAT_BEGIN
 90
        0
 91
        1
 62
     0
 92
       -2
340
0
 93
        0
 40
0.045
309
GRIDFORMAT_END
 95
        4
302
GRIDFORMAT
  1
GRIDFORMAT_BEGIN
 90
        0
 91
        1
 62
     0
 92
       -2
340
0
 93
        0
 40
0.045
309
GRIDFORMAT_END
 95
        8
302
GRIDFORMAT
  1
GRIDFORMAT_BEGIN
 90
        0
 91
        1
 62
     0
 92
       -2
340
0
 93
        0
 40
0.045
309
GRIDFORMAT_END
 95
       16
302
GRIDFORMAT
  1
GRIDFORMAT_BEGIN
 90
        0
 91
        1
 62
     0
 92
       -2
340
0
 93
        0
 40
0.045
309
GRIDFORMAT_END
 95
       32
302
GRIDFORMAT
  1
GRIDFORMAT_BEGIN
 90
        0
 91
        1
 62
     0
 92
       -2
340
0
 93
        0
 40
0.045
309
GRIDFORMAT_END
309
TABLEFORMAT_END
  1
CELLSTYLE_BEGIN
 90
        1
 91
        1
300
_TITLE
309
CELLSTYLE_END
300
CELLSTYLE
  1
TABLEFORMAT_BEGIN
 90
        5
170
     1
 91
        0
 92
        0
 62
   257
 93
        1
300
CONTENTFORMAT
  1
CONTENTFORMAT_BEGIN
 90
        0
 91
        0
 92
      512
 93
        0
300

 40
0.0
140
1.0
 94
        5
 62
     0
340
55
144
0.18
309
CONTENTFORMAT_END
171
     1
301
MARGIN
  1
CELLMARGIN_BEGIN
 40
0.06
 40
0.06
 40
0.06
 40
0.06
 40
0.18
 40
0.18
309
CELLMARGIN_END
 94
        6
 95
        1
302
GRIDFORMAT
  1
GRIDFORMAT_BEGIN
 90
        0
 91
        1
 62
     0
 92
       -2
340
0
 93
        0
 40
0.045
309
GRIDFORMAT_END
 95
        2
302
GRIDFORMAT
  1
GRIDFORMAT_BEGIN
 90
        0
 91
        1
 62
     0
 92
       -2
340
0
 93
        0
 40
0.045
309
GRIDFORMAT_END
 95
        4
302
GRIDFORMAT
  1
GRIDFORMAT_BEGIN
 90
        0
 91
        1
 62
     0
 92
       -2
340
0
 93
        0
 40
0.045
309
GRIDFORMAT_END
 95
        8
302
GRIDFORMAT
  1
GRIDFORMAT_BEGIN
 90
        0
 91
        1
 62
     0
 92
       -2
340
0
 93
        0
 40
0.045
309
GRIDFORMAT_END
 95
       16
302
GRIDFORMAT
  1
GRIDFORMAT_BEGIN
 90
        0
 91
        1
 62
     0
 92
       -2
340
0
 93
        0
 40
0.045
309
GRIDFORMAT_END
 95
       32
302
GRIDFORMAT
  1
GRIDFORMAT_BEGIN
 90
        0
 91
        1
 62
     0
 92
       -2
340
0
 93
        0
 40
0.045
309
GRIDFORMAT_END
309
TABLEFORMAT_END
  1
CELLSTYLE_BEGIN
 90
        2
 91
        1
300
_HEADER
309
CELLSTYLE_END
300
CELLSTYLE
  1
TABLEFORMAT_BEGIN
 90
        5
170
     1
 91
        0
 92
        0
 62
   257
 93
        1
300
CONTENTFORMAT
  1
CONTENTFORMAT_BEGIN
 90
        0
 91
        0
 92
      512
 93
        0
300

 40
0.0
140
1.0
 94
        2
 62
     0
340
55
144
0.18
309
CONTENTFORMAT_END
171
     1
301
MARGIN
  1
CELLMARGIN_BEGIN
 40
0.06
 40
0.06
 40
0.06
 40
0.06
 40
0.18
 40
0.18
309
CELLMARGIN_END
 94
        6
 95
        1
302
GRIDFORMAT
  1
GRIDFORMAT_BEGIN
 90
        0
 91
        1
 62
     0
 92
       -2
340
0
 93
        0
 40
0.045
309
GRIDFORMAT_END
 95
        2
302
GRIDFORMAT
  1
GRIDFORMAT_BEGIN
 90
        0
 91
        1
 62
     0
 92
       -2
340
0
 93
        0
 40
0.045
309
GRIDFORMAT_END
 95
        4
302
GRIDFORMAT
  1
GRIDFORMAT_BEGIN
 90
        0
 91
        1
 62
     0
 92
       -2
340
0
 93
        0
 40
0.045
309
GRIDFORMAT_END
 95
        8
302
GRIDFORMAT
  1
GRIDFORMAT_BEGIN
 90
        0
 91
        1
 62
     0
 92
       -2
340
0
 93
        0
 40
0.045
309
GRIDFORMAT_END
 95
       16
302
GRIDFORMAT
  1
GRIDFORMAT_BEGIN
 90
        0
 91
        1
 62
     0
 92
       -2
340
0
 93
        0
 40
0.045
309
GRIDFORMAT_END
 95
       32
302
GRIDFORMAT
  1
GRIDFORMAT_BEGIN
 90
        0
 91
        1
 62
     0
 92
       -2
340
0
 93
        0
 40
0.045
309
GRIDFORMAT_END
309
TABLEFORMAT_END
  1
CELLSTYLE_BEGIN
 90
        3
 91
        2
300
_DATA
309
CELLSTYLE_END
  0
XRECORD
  5
BDC
102
{ACAD_REACTORS
330
BDB
102
}
330
BDB
100
AcDbXrecord
280
     1
102
RTVSPropertyOp0
 70
     1
102
RTVSPropertyOp1
 70
     1
102
RTVSPropertyOp2
 70
     1
102
RTVSPropertyOp3
 70
     1
102
RTVSPropertyOp4
 70
     1
102
RTVSPropertyOp5
 70
     1
102
RTVSPropertyOp6
 70
     1
102
RTVSPropertyOp7
 70
     1
102
RTVSPropertyOp8
 70
     1
102
RTVSPropertyOp9
 70
     1
102
RTVSPropertyOp10
 70
     1
102
RTVSPropertyOp11
 70
     1
102
RTVSPropertyOp12
 70
     1
102
RTVSPropertyOp13
 70
     1
102
RTVSPropertyOp14
 70
     1
102
RTVSPropertyOp15
 70
     1
102
RTVSPropertyOp16
 70
     1
102
RTVSPropertyOp17
 70
     1
102
RTVSPropertyOp18
 70
     1
102
RTVSPropertyOp19
 70
     1
102
RTVSPropertyOp20
 70
     1
102
RTVSPropertyOp21
 70
     1
102
RTVSPropertyOp22
 70
     1
102
RTVSPropertyOp23
 70
     1
102
RTVSPropertyOp24
 70
     1
102
RTVSPropertyOp25
 70
     1
102
RTVSPropertyOp26
 70
     1
102
RTVSPropertyOp27
 70
     1
102
RTVSPropertyOp28
 70
     1
102
RTVSPropertyOp29
 70
     1
102
RTVSPropertyOp30
 70
     1
102
RTVSPropertyOp31
 70
     1
102
RTVSPropertyOp32
 70
     1
  0
XRECORD
  5
BDA
102
{ACAD_REACTORS
330
BD9
102
}
330
BD9
100
AcDbXrecord
280
     1
102
RTVSPropertyOp0
 70
     1
102
RTVSPropertyOp1
 70
     1
102
RTVSPropertyOp2
 70
     1
102
RTVSPropertyOp3
 70
     1
102
RTVSPropertyOp4
 70
     1
102
RTVSPropertyOp5
 70
     1
102
RTVSPropertyOp6
 70
     1
102
RTVSPropertyOp7
 70
     1
102
RTVSPropertyOp8
 70
     1
102
RTVSPropertyOp9
 70
     1
102
RTVSPropertyOp10
 70
     1
102
RTVSPropertyOp11
 70
     1
102
RTVSPropertyOp12
 70
     1
102
RTVSPropertyOp13
 70
     1
102
RTVSPropertyOp14
 70
     1
102
RTVSPropertyOp15
 70
     1
102
RTVSPropertyOp16
 70
     1
102
RTVSPropertyOp17
 70
     1
102
RTVSPropertyOp18
 70
     1
102
RTVSPropertyOp19
 70
     1
102
RTVSPropertyOp20
 70
     1
102
RTVSPropertyOp21
 70
     1
102
RTVSPropertyOp22
 70
     1
102
RTVSPropertyOp23
 70
     1
102
RTVSPropertyOp24
 70
     1
102
RTVSPropertyOp25
 70
     1
102
RTVSPropertyOp26
 70
     1
102
RTVSPropertyOp27
 70
     1
102
RTVSPropertyOp28
 70
     1
102
RTVSPropertyOp29
 70
     1
102
RTVSPropertyOp30
 70
     1
102
RTVSPropertyOp31
 70
     1
102
RTVSPropertyOp32
 70
     1
  0
XRECORD
  5
BE8
102
{ACAD_REACTORS
330
BE7
102
}
330
BE7
100
AcDbXrecord
280
     1
102
RTVSPropertyOp0
 70
     1
102
RTVSPropertyOp1
 70
     1
102
RTVSPropertyOp2
 70
     1
102
RTVSPropertyOp3
 70
     1
102
RTVSPropertyOp4
 70
     1
102
RTVSPropertyOp5
 70
     1
102
RTVSPropertyOp6
 70
     1
102
RTVSPropertyOp7
 70
     1
102
RTVSPropertyOp8
 70
     1
102
RTVSPropertyOp9
 70
     1
102
RTVSPropertyOp10
 70
     1
102
RTVSPropertyOp11
 70
     1
102
RTVSPropertyOp12
 70
     1
102
RTVSPropertyOp13
 70
     1
102
RTVSPropertyOp14
 70
     1
102
RTVSPropertyOp15
 70
     1
102
RTVSPropertyOp16
 70
     1
102
RTVSPropertyOp17
 70
     1
102
RTVSPropertyOp18
 70
     1
102
RTVSPropertyOp19
 70
     1
102
RTVSPropertyOp20
 70
     1
102
RTVSPropertyOp21
 70
     1
102
RTVSPropertyOp22
 70
     1
102
RTVSPropertyOp23
 70
     1
102
RTVSPropertyOp24
 70
     1
102
RTVSPropertyOp25
 70
     1
102
RTVSPropertyOp26
 70
     1
102
RTVSPropertyOp27
 70
     1
102
RTVSPropertyOp28
 70
     1
102
RTVSPropertyOp29
 70
     1
102
RTVSPropertyOp30
 70
     1
102
RTVSPropertyOp31
 70
     1
102
RTVSPropertyOp32
 70
     1
  0
XRECORD
  5
BF0
102
{ACAD_REACTORS
330
BEF
102
}
330
BEF
100
AcDbXrecord
280
     1
102
RTVSPropertyOp0
 70
     1
102
RTVSPropertyOp1
 70
     1
102
RTVSPropertyOp2
 70
     1
102
RTVSPropertyOp3
 70
     1
102
RTVSPropertyOp4
 70
     1
102
RTVSPropertyOp5
 70
     1
102
RTVSPropertyOp6
 70
     1
102
RTVSPropertyOp7
 70
     1
102
RTVSPropertyOp8
 70
     1
102
RTVSPropertyOp9
 70
     1
102
RTVSPropertyOp10
 70
     1
102
RTVSPropertyOp11
 70
     1
102
RTVSPropertyOp12
 70
     1
102
RTVSPropertyOp13
 70
     1
102
RTVSPropertyOp14
 70
     1
102
RTVSPropertyOp15
 70
     1
102
RTVSPropertyOp16
 70
     1
102
RTVSPropertyOp17
 70
     1
102
RTVSPropertyOp18
 70
     1
102
RTVSPropertyOp19
 70
     1
102
RTVSPropertyOp20
 70
     1
102
RTVSPropertyOp21
 70
     1
102
RTVSPropertyOp22
 70
     1
102
RTVSPropertyOp23
 70
     1
102
RTVSPropertyOp24
 70
     1
102
RTVSPropertyOp25
 70
     1
102
RTVSPropertyOp26
 70
     1
102
RTVSPropertyOp27
 70
     1
102
RTVSPropertyOp28
 70
     1
102
RTVSPropertyOp29
 70
     1
102
RTVSPropertyOp30
 70
     1
102
RTVSPropertyOp31
 70
     1
102
RTVSPropertyOp32
 70
     1
  0
XRECORD
  5
BE2
102
{ACAD_REACTORS
330
BE1
102
}
330
BE1
100
AcDbXrecord
280
     1
102
RTVSPropertyOp0
 70
     1
102
RTVSPropertyOp1
 70
     1
102
RTVSPropertyOp2
 70
     1
102
RTVSPropertyOp3
 70
     1
102
RTVSPropertyOp4
 70
     1
102
RTVSPropertyOp5
 70
     1
102
RTVSPropertyOp6
 70
     1
102
RTVSPropertyOp7
 70
     1
102
RTVSPropertyOp8
 70
     1
102
RTVSPropertyOp9
 70
     1
102
RTVSPropertyOp10
 70
     1
102
RTVSPropertyOp11
 70
     1
102
RTVSPropertyOp12
 70
     1
102
RTVSPropertyOp13
 70
     1
102
RTVSPropertyOp14
 70
     1
102
RTVSPropertyOp15
 70
     1
102
RTVSPropertyOp16
 70
     1
102
RTVSPropertyOp17
 70
     1
102
RTVSPropertyOp18
 70
     1
102
RTVSPropertyOp19
 70
     1
102
RTVSPropertyOp20
 70
     1
102
RTVSPropertyOp21
 70
     1
102
RTVSPropertyOp22
 70
     1
102
RTVSPropertyOp23
 70
     1
102
RTVSPropertyOp24
 70
     1
102
RTVSPropertyOp25
 70
     1
102
RTVSPropertyOp26
 70
     1
102
RTVSPropertyOp27
 70
     1
102
RTVSPropertyOp28
 70
     1
102
RTVSPropertyOp29
 70
     1
102
RTVSPropertyOp30
 70
     1
102
RTVSPropertyOp31
 70
     1
102
RTVSPropertyOp32
 70
     1
  0
XRECORD
  5
BE6
102
{ACAD_REACTORS
330
BE5
102
}
330
BE5
100
AcDbXrecord
280
     1
102
RTVSPropertyOp0
 70
     1
102
RTVSPropertyOp1
 70
     1
102
RTVSPropertyOp2
 70
     1
102
RTVSPropertyOp3
 70
     1
102
RTVSPropertyOp4
 70
     1
102
RTVSPropertyOp5
 70
     1
102
RTVSPropertyOp6
 70
     1
102
RTVSPropertyOp7
 70
     1
102
RTVSPropertyOp8
 70
     1
102
RTVSPropertyOp9
 70
     1
102
RTVSPropertyOp10
 70
     1
102
RTVSPropertyOp11
 70
     1
102
RTVSPropertyOp12
 70
     1
102
RTVSPropertyOp13
 70
     1
102
RTVSPropertyOp14
 70
     1
102
RTVSPropertyOp15
 70
     1
102
RTVSPropertyOp16
 70
     1
102
RTVSPropertyOp17
 70
     1
102
RTVSPropertyOp18
 70
     1
102
RTVSPropertyOp19
 70
     1
102
RTVSPropertyOp20
 70
     1
102
RTVSPropertyOp21
 70
     1
102
RTVSPropertyOp22
 70
     1
102
RTVSPropertyOp23
 70
     1
102
RTVSPropertyOp24
 70
     1
102
RTVSPropertyOp25
 70
     1
102
RTVSPropertyOp26
 70
     1
102
RTVSPropertyOp27
 70
     1
102
RTVSPropertyOp28
 70
     1
102
RTVSPropertyOp29
 70
     1
102
RTVSPropertyOp30
 70
     1
102
RTVSPropertyOp31
 70
     1
102
RTVSPropertyOp32
 70
     1
  0
XRECORD
  5
C00
102
{ACAD_REACTORS
330
BFF
102
}
330
BFF
100
AcDbXrecord
280
     1
102
RTVSPropertyOp0
 70
     0
102
RTVSPropertyOp1
 70
     0
102
RTVSPropertyOp2
 70
     0
102
RTVSPropertyOp3
 70
     0
102
RTVSPropertyOp4
 70
     0
102
RTVSPropertyOp5
 70
     0
102
RTVSPropertyOp6
 70
     0
102
RTVSPropertyOp7
 70
     0
102
RTVSPropertyOp8
 70
     0
102
RTVSPropertyOp9
 70
     0
102
RTVSPropertyOp10
 70
     0
102
RTVSPropertyOp11
 70
     0
102
RTVSPropertyOp12
 70
     0
102
RTVSPropertyOp13
 70
     0
102
RTVSPropertyOp14
 70
     2
102
RTVSPropertyOp15
 70
     0
102
RTVSPropertyOp16
 70
     0
102
RTVSPropertyOp17
 70
     0
102
RTVSPropertyOp18
 70
     0
102
RTVSPropertyOp19
 70
     0
102
RTVSPropertyOp20
 70
     0
102
RTVSPropertyOp21
 70
     0
102
RTVSPropertyOp22
 70
     0
102
RTVSPropertyOp23
 70
     0
102
RTVSPropertyOp24
 70
     0
102
RTVSPropertyOp25
 70
     0
102
RTVSPropertyOp26
 70
     0
102
RTVSPropertyOp27
 70
     0
102
RTVSPropertyOp28
 70
     0
102
RTVSPropertyOp29
 70
     0
102
RTVSPropertyOp30
 70
     0
102
RTVSPropertyOp31
 70
     0
102
RTVSPropertyOp32
 70
     0
  0
XRECORD
  5
BEE
102
{ACAD_REACTORS
330
BED
102
}
330
BED
100
AcDbXrecord
280
     1
102
RTVSPropertyOp0
 70
     1
102
RTVSPropertyOp1
 70
     1
102
RTVSPropertyOp2
 70
     1
102
RTVSPropertyOp3
 70
     1
102
RTVSPropertyOp4
 70
     1
102
RTVSPropertyOp5
 70
     1
102
RTVSPropertyOp6
 70
     1
102
RTVSPropertyOp7
 70
     1
102
RTVSPropertyOp8
 70
     1
102
RTVSPropertyOp9
 70
     1
102
RTVSPropertyOp10
 70
     1
102
RTVSPropertyOp11
 70
     1
102
RTVSPropertyOp12
 70
     1
102
RTVSPropertyOp13
 70
     1
102
RTVSPropertyOp14
 70
     1
102
RTVSPropertyOp15
 70
     1
102
RTVSPropertyOp16
 70
     1
102
RTVSPropertyOp17
 70
     1
102
RTVSPropertyOp18
 70
     1
102
RTVSPropertyOp19
 70
     1
102
RTVSPropertyOp20
 70
     1
102
RTVSPropertyOp21
 70
     1
102
RTVSPropertyOp22
 70
     1
102
RTVSPropertyOp23
 70
     1
102
RTVSPropertyOp24
 70
     1
102
RTVSPropertyOp25
 70
     1
102
RTVSPropertyOp26
 70
     1
102
RTVSPropertyOp27
 70
     1
102
RTVSPropertyOp28
 70
     1
102
RTVSPropertyOp29
 70
     1
102
RTVSPropertyOp30
 70
     1
102
RTVSPropertyOp31
 70
     1
102
RTVSPropertyOp32
 70
     1
  0
XRECORD
  5
BD2
102
{ACAD_REACTORS
330
BD1
102
}
330
BD1
100
AcDbXrecord
280
     1
102
RTVSPropertyOp0
 70
     1
102
RTVSPropertyOp1
 70
     1
102
RTVSPropertyOp2
 70
     1
102
RTVSPropertyOp3
 70
     1
102
RTVSPropertyOp4
 70
     1
102
RTVSPropertyOp5
 70
     1
102
RTVSPropertyOp6
 70
     1
102
RTVSPropertyOp7
 70
     1
102
RTVSPropertyOp8
 70
     1
102
RTVSPropertyOp9
 70
     1
102
RTVSPropertyOp10
 70
     1
102
RTVSPropertyOp11
 70
     1
102
RTVSPropertyOp12
 70
     1
102
RTVSPropertyOp13
 70
     1
102
RTVSPropertyOp14
 70
     1
102
RTVSPropertyOp15
 70
     1
102
RTVSPropertyOp16
 70
     1
102
RTVSPropertyOp17
 70
     1
102
RTVSPropertyOp18
 70
     1
102
RTVSPropertyOp19
 70
     1
102
RTVSPropertyOp20
 70
     1
102
RTVSPropertyOp21
 70
     1
102
RTVSPropertyOp22
 70
     1
102
RTVSPropertyOp23
 70
     1
102
RTVSPropertyOp24
 70
     1
102
RTVSPropertyOp25
 70
     1
102
RTVSPropertyOp26
 70
     1
102
RTVSPropertyOp27
 70
     1
102
RTVSPropertyOp28
 70
     1
102
RTVSPropertyOp29
 70
     1
102
RTVSPropertyOp30
 70
     1
102
RTVSPropertyOp31
 70
     1
102
RTVSPropertyOp32
 70
     1
  0
XRECORD
  5
BD4
102
{ACAD_REACTORS
330
BD3
102
}
330
BD3
100
AcDbXrecord
280
     1
102
RTVSPropertyOp0
 70
     1
102
RTVSPropertyOp1
 70
     1
102
RTVSPropertyOp2
 70
     1
102
RTVSPropertyOp3
 70
     1
102
RTVSPropertyOp4
 70
     1
102
RTVSPropertyOp5
 70
     1
102
RTVSPropertyOp6
 70
     1
102
RTVSPropertyOp7
 70
     1
102
RTVSPropertyOp8
 70
     1
102
RTVSPropertyOp9
 70
     1
102
RTVSPropertyOp10
 70
     1
102
RTVSPropertyOp11
 70
     1
102
RTVSPropertyOp12
 70
     1
102
RTVSPropertyOp13
 70
     1
102
RTVSPropertyOp14
 70
     1
102
RTVSPropertyOp15
 70
     1
102
RTVSPropertyOp16
 70
     1
102
RTVSPropertyOp17
 70
     1
102
RTVSPropertyOp18
 70
     1
102
RTVSPropertyOp19
 70
     1
102
RTVSPropertyOp20
 70
     1
102
RTVSPropertyOp21
 70
     1
102
RTVSPropertyOp22
 70
     1
102
RTVSPropertyOp23
 70
     1
102
RTVSPropertyOp24
 70
     1
102
RTVSPropertyOp25
 70
     1
102
RTVSPropertyOp26
 70
     1
102
RTVSPropertyOp27
 70
     1
102
RTVSPropertyOp28
 70
     1
102
RTVSPropertyOp29
 70
     1
102
RTVSPropertyOp30
 70
     1
102
RTVSPropertyOp31
 70
     1
102
RTVSPropertyOp32
 70
     1
  0
XRECORD
  5
BD6
102
{ACAD_REACTORS
330
BD5
102
}
330
BD5
100
AcDbXrecord
280
     1
102
RTVSPropertyOp0
 70
     1
102
RTVSPropertyOp1
 70
     1
102
RTVSPropertyOp2
 70
     1
102
RTVSPropertyOp3
 70
     1
102
RTVSPropertyOp4
 70
     1
102
RTVSPropertyOp5
 70
     1
102
RTVSPropertyOp6
 70
     1
102
RTVSPropertyOp7
 70
     1
102
RTVSPropertyOp8
 70
     1
102
RTVSPropertyOp9
 70
     1
102
RTVSPropertyOp10
 70
     1
102
RTVSPropertyOp11
 70
     1
102
RTVSPropertyOp12
 70
     1
102
RTVSPropertyOp13
 70
     1
102
RTVSPropertyOp14
 70
     1
102
RTVSPropertyOp15
 70
     1
102
RTVSPropertyOp16
 70
     1
102
RTVSPropertyOp17
 70
     1
102
RTVSPropertyOp18
 70
     1
102
RTVSPropertyOp19
 70
     1
102
RTVSPropertyOp20
 70
     1
102
RTVSPropertyOp21
 70
     1
102
RTVSPropertyOp22
 70
     1
102
RTVSPropertyOp23
 70
     1
102
RTVSPropertyOp24
 70
     1
102
RTVSPropertyOp25
 70
     1
102
RTVSPropertyOp26
 70
     1
102
RTVSPropertyOp27
 70
     1
102
RTVSPropertyOp28
 70
     1
102
RTVSPropertyOp29
 70
     1
102
RTVSPropertyOp30
 70
     1
102
RTVSPropertyOp31
 70
     1
102
RTVSPropertyOp32
 70
     1
  0
XRECORD
  5
BD8
102
{ACAD_REACTORS
330
BD7
102
}
330
BD7
100
AcDbXrecord
280
     1
102
RTVSPropertyOp0
 70
     1
102
RTVSPropertyOp1
 70
     1
102
RTVSPropertyOp2
 70
     1
102
RTVSPropertyOp3
 70
     1
102
RTVSPropertyOp4
 70
     1
102
RTVSPropertyOp5
 70
     1
102
RTVSPropertyOp6
 70
     1
102
RTVSPropertyOp7
 70
     1
102
RTVSPropertyOp8
 70
     1
102
RTVSPropertyOp9
 70
     1
102
RTVSPropertyOp10
 70
     1
102
RTVSPropertyOp11
 70
     1
102
RTVSPropertyOp12
 70
     1
102
RTVSPropertyOp13
 70
     1
102
RTVSPropertyOp14
 70
     1
102
RTVSPropertyOp15
 70
     1
102
RTVSPropertyOp16
 70
     1
102
RTVSPropertyOp17
 70
     1
102
RTVSPropertyOp18
 70
     1
102
RTVSPropertyOp19
 70
     1
102
RTVSPropertyOp20
 70
     1
102
RTVSPropertyOp21
 70
     1
102
RTVSPropertyOp22
 70
     1
102
RTVSPropertyOp23
 70
     1
102
RTVSPropertyOp24
 70
     1
102
RTVSPropertyOp25
 70
     1
102
RTVSPropertyOp26
 70
     1
102
RTVSPropertyOp27
 70
     1
102
RTVSPropertyOp28
 70
     1
102
RTVSPropertyOp29
 70
     1
102
RTVSPropertyOp30
 70
     1
102
RTVSPropertyOp31
 70
     1
102
RTVSPropertyOp32
 70
     1
  0
XRECORD
  5
BE0
102
{ACAD_REACTORS
330
BDF
102
}
330
BDF
100
AcDbXrecord
280
     1
102
RTVSPropertyOp0
 70
     1
102
RTVSPropertyOp1
 70
     1
102
RTVSPropertyOp2
 70
     1
102
RTVSPropertyOp3
 70
     1
102
RTVSPropertyOp4
 70
     1
102
RTVSPropertyOp5
 70
     1
102
RTVSPropertyOp6
 70
     1
102
RTVSPropertyOp7
 70
     1
102
RTVSPropertyOp8
 70
     1
102
RTVSPropertyOp9
 70
     1
102
RTVSPropertyOp10
 70
     1
102
RTVSPropertyOp11
 70
     1
102
RTVSPropertyOp12
 70
     1
102
RTVSPropertyOp13
 70
     1
102
RTVSPropertyOp14
 70
     1
102
RTVSPropertyOp15
 70
     1
102
RTVSPropertyOp16
 70
     1
102
RTVSPropertyOp17
 70
     1
102
RTVSPropertyOp18
 70
     1
102
RTVSPropertyOp19
 70
     1
102
RTVSPropertyOp20
 70
     1
102
RTVSPropertyOp21
 70
     1
102
RTVSPropertyOp22
 70
     1
102
RTVSPropertyOp23
 70
     1
102
RTVSPropertyOp24
 70
     1
102
RTVSPropertyOp25
 70
     1
102
RTVSPropertyOp26
 70
     1
102
RTVSPropertyOp27
 70
     1
102
RTVSPropertyOp28
 70
     1
102
RTVSPropertyOp29
 70
     1
102
RTVSPropertyOp30
 70
     1
102
RTVSPropertyOp31
 70
     1
102
RTVSPropertyOp32
 70
     1
  0
XRECORD
  5
BFC
102
{ACAD_REACTORS
330
BFB
102
}
330
BFB
100
AcDbXrecord
280
     1
102
RTVSPropertyOp0
 70
     0
102
RTVSPropertyOp1
 70
     0
102
RTVSPropertyOp2
 70
     0
102
RTVSPropertyOp3
 70
     0
102
RTVSPropertyOp4
 70
     0
102
RTVSPropertyOp5
 70
     0
102
RTVSPropertyOp6
 70
     0
102
RTVSPropertyOp7
 70
     0
102
RTVSPropertyOp8
 70
     0
102
RTVSPropertyOp9
 70
     0
102
RTVSPropertyOp10
 70
     0
102
RTVSPropertyOp11
 70
     0
102
RTVSPropertyOp12
 70
     0
102
RTVSPropertyOp13
 70
     0
102
RTVSPropertyOp14
 70
     2
102
RTVSPropertyOp15
 70
     0
102
RTVSPropertyOp16
 70
     0
102
RTVSPropertyOp17
 70
     0
102
RTVSPropertyOp18
 70
     0
102
RTVSPropertyOp19
 70
     0
102
RTVSPropertyOp20
 70
     0
102
RTVSPropertyOp21
 70
     0
102
RTVSPropertyOp22
 70
     0
102
RTVSPropertyOp23
 70
     0
102
RTVSPropertyOp24
 70
     0
102
RTVSPropertyOp25
 70
     0
102
RTVSPropertyOp26
 70
     0
102
RTVSPropertyOp27
 70
     0
102
RTVSPropertyOp28
 70
     0
102
RTVSPropertyOp29
 70
     0
102
RTVSPropertyOp30
 70
     0
102
RTVSPropertyOp31
 70
     0
102
RTVSPropertyOp32
 70
     0
  0
XRECORD
  5
BEC
102
{ACAD_REACTORS
330
BEB
102
}
330
BEB
100
AcDbXrecord
280
     1
102
RTVSPropertyOp0
 70
     1
102
RTVSPropertyOp1
 70
     1
102
RTVSPropertyOp2
 70
     1
102
RTVSPropertyOp3
 70
     1
102
RTVSPropertyOp4
 70
     1
102
RTVSPropertyOp5
 70
     1
102
RTVSPropertyOp6
 70
     1
102
RTVSPropertyOp7
 70
     1
102
RTVSPropertyOp8
 70
     1
102
RTVSPropertyOp9
 70
     1
102
RTVSPropertyOp10
 70
     1
102
RTVSPropertyOp11
 70
     1
102
RTVSPropertyOp12
 70
     1
102
RTVSPropertyOp13
 70
     1
102
RTVSPropertyOp14
 70
     1
102
RTVSPropertyOp15
 70
     1
102
RTVSPropertyOp16
 70
     1
102
RTVSPropertyOp17
 70
     1
102
RTVSPropertyOp18
 70
     1
102
RTVSPropertyOp19
 70
     1
102
RTVSPropertyOp20
 70
     1
102
RTVSPropertyOp21
 70
     1
102
RTVSPropertyOp22
 70
     1
102
RTVSPropertyOp23
 70
     1
102
RTVSPropertyOp24
 70
     1
102
RTVSPropertyOp25
 70
     1
102
RTVSPropertyOp26
 70
     1
102
RTVSPropertyOp27
 70
     1
102
RTVSPropertyOp28
 70
     1
102
RTVSPropertyOp29
 70
     1
102
RTVSPropertyOp30
 70
     1
102
RTVSPropertyOp31
 70
     1
102
RTVSPropertyOp32
 70
     1
  0
XRECORD
  5
BFE
102
{ACAD_REACTORS
330
BFD
102
}
330
BFD
100
AcDbXrecord
280
     1
102
RTVSPropertyOp0
 70
     0
102
RTVSPropertyOp1
 70
     0
102
RTVSPropertyOp2
 70
     0
102
RTVSPropertyOp3
 70
     0
102
RTVSPropertyOp4
 70
     0
102
RTVSPropertyOp5
 70
     0
102
RTVSPropertyOp6
 70
     0
102
RTVSPropertyOp7
 70
     0
102
RTVSPropertyOp8
 70
     0
102
RTVSPropertyOp9
 70
     0
102
RTVSPropertyOp10
 70
     0
102
RTVSPropertyOp11
 70
     0
102
RTVSPropertyOp12
 70
     0
102
RTVSPropertyOp13
 70
     0
102
RTVSPropertyOp14
 70
     2
102
RTVSPropertyOp15
 70
     0
102
RTVSPropertyOp16
 70
     0
102
RTVSPropertyOp17
 70
     0
102
RTVSPropertyOp18
 70
     0
102
RTVSPropertyOp19
 70
     0
102
RTVSPropertyOp20
 70
     0
102
RTVSPropertyOp21
 70
     0
102
RTVSPropertyOp22
 70
     0
102
RTVSPropertyOp23
 70
     0
102
RTVSPropertyOp24
 70
     0
102
RTVSPropertyOp25
 70
     0
102
RTVSPropertyOp26
 70
     0
102
RTVSPropertyOp27
 70
     0
102
RTVSPropertyOp28
 70
     0
102
RTVSPropertyOp29
 70
     0
102
RTVSPropertyOp30
 70
     0
102
RTVSPropertyOp31
 70
     0
102
RTVSPropertyOp32
 70
     0
  0
XRECORD
  5
BE4
102
{ACAD_REACTORS
330
BE3
102
}
330
BE3
100
AcDbXrecord
280
     1
102
RTVSPropertyOp0
 70
     1
102
RTVSPropertyOp1
 70
     1
102
RTVSPropertyOp2
 70
     1
102
RTVSPropertyOp3
 70
     1
102
RTVSPropertyOp4
 70
     1
102
RTVSPropertyOp5
 70
     1
102
RTVSPropertyOp6
 70
     1
102
RTVSPropertyOp7
 70
     1
102
RTVSPropertyOp8
 70
     1
102
RTVSPropertyOp9
 70
     1
102
RTVSPropertyOp10
 70
     1
102
RTVSPropertyOp11
 70
     1
102
RTVSPropertyOp12
 70
     1
102
RTVSPropertyOp13
 70
     1
102
RTVSPropertyOp14
 70
     1
102
RTVSPropertyOp15
 70
     1
102
RTVSPropertyOp16
 70
     1
102
RTVSPropertyOp17
 70
     1
102
RTVSPropertyOp18
 70
     1
102
RTVSPropertyOp19
 70
     1
102
RTVSPropertyOp20
 70
     1
102
RTVSPropertyOp21
 70
     1
102
RTVSPropertyOp22
 70
     1
102
RTVSPropertyOp23
 70
     1
102
RTVSPropertyOp24
 70
     1
102
RTVSPropertyOp25
 70
     1
102
RTVSPropertyOp26
 70
     1
102
RTVSPropertyOp27
 70
     1
102
RTVSPropertyOp28
 70
     1
102
RTVSPropertyOp29
 70
     1
102
RTVSPropertyOp30
 70
     1
102
RTVSPropertyOp31
 70
     1
102
RTVSPropertyOp32
 70
     1
  0
XRECORD
  5
BFA
102
{ACAD_REACTORS
330
BF9
102
}
330
BF9
100
AcDbXrecord
280
     1
102
RTVSPropertyOp0
 70
     1
102
RTVSPropertyOp1
 70
     1
102
RTVSPropertyOp2
 70
     1
102
RTVSPropertyOp3
 70
     1
102
RTVSPropertyOp4
 70
     1
102
RTVSPropertyOp5
 70
     1
102
RTVSPropertyOp6
 70
     1
102
RTVSPropertyOp7
 70
     1
102
RTVSPropertyOp8
 70
     1
102
RTVSPropertyOp9
 70
     1
102
RTVSPropertyOp10
 70
     1
102
RTVSPropertyOp11
 70
     1
102
RTVSPropertyOp12
 70
     1
102
RTVSPropertyOp13
 70
     1
102
RTVSPropertyOp14
 70
     1
102
RTVSPropertyOp15
 70
     1
102
RTVSPropertyOp16
 70
     1
102
RTVSPropertyOp17
 70
     1
102
RTVSPropertyOp18
 70
     1
102
RTVSPropertyOp19
 70
     1
102
RTVSPropertyOp20
 70
     1
102
RTVSPropertyOp21
 70
     1
102
RTVSPropertyOp22
 70
     1
102
RTVSPropertyOp23
 70
     1
102
RTVSPropertyOp24
 70
     1
102
RTVSPropertyOp25
 70
     1
102
RTVSPropertyOp26
 70
     1
102
RTVSPropertyOp27
 70
     1
102
RTVSPropertyOp28
 70
     1
102
RTVSPropertyOp29
 70
     1
102
RTVSPropertyOp30
 70
     1
102
RTVSPropertyOp31
 70
     1
102
RTVSPropertyOp32
 70
     1
  0
XRECORD
  5
BF8
102
{ACAD_REACTORS
330
BF7
102
}
330
BF7
100
AcDbXrecord
280
     1
102
RTVSPropertyOp0
 70
     1
102
RTVSPropertyOp1
 70
     1
102
RTVSPropertyOp2
 70
     1
102
RTVSPropertyOp3
 70
     1
102
RTVSPropertyOp4
 70
     1
102
RTVSPropertyOp5
 70
     1
102
RTVSPropertyOp6
 70
     1
102
RTVSPropertyOp7
 70
     1
102
RTVSPropertyOp8
 70
     1
102
RTVSPropertyOp9
 70
     1
102
RTVSPropertyOp10
 70
     1
102
RTVSPropertyOp11
 70
     1
102
RTVSPropertyOp12
 70
     1
102
RTVSPropertyOp13
 70
     1
102
RTVSPropertyOp14
 70
     1
102
RTVSPropertyOp15
 70
     1
102
RTVSPropertyOp16
 70
     1
102
RTVSPropertyOp17
 70
     1
102
RTVSPropertyOp18
 70
     1
102
RTVSPropertyOp19
 70
     1
102
RTVSPropertyOp20
 70
     1
102
RTVSPropertyOp21
 70
     1
102
RTVSPropertyOp22
 70
     1
102
RTVSPropertyOp23
 70
     1
102
RTVSPropertyOp24
 70
     1
102
RTVSPropertyOp25
 70
     1
102
RTVSPropertyOp26
 70
     1
102
RTVSPropertyOp27
 70
     1
102
RTVSPropertyOp28
 70
     1
102
RTVSPropertyOp29
 70
     1
102
RTVSPropertyOp30
 70
     1
102
RTVSPropertyOp31
 70
     1
102
RTVSPropertyOp32
 70
     1
  0
XRECORD
  5
BF2
102
{ACAD_REACTORS
330
BF1
102
}
330
BF1
100
AcDbXrecord
280
     1
102
RTVSPropertyOp0
 70
     1
102
RTVSPropertyOp1
 70
     1
102
RTVSPropertyOp2
 70
     1
102
RTVSPropertyOp3
 70
     1
102
RTVSPropertyOp4
 70
     1
102
RTVSPropertyOp5
 70
     1
102
RTVSPropertyOp6
 70
     1
102
RTVSPropertyOp7
 70
     1
102
RTVSPropertyOp8
 70
     1
102
RTVSPropertyOp9
 70
     1
102
RTVSPropertyOp10
 70
     1
102
RTVSPropertyOp11
 70
     1
102
RTVSPropertyOp12
 70
     1
102
RTVSPropertyOp13
 70
     1
102
RTVSPropertyOp14
 70
     1
102
RTVSPropertyOp15
 70
     1
102
RTVSPropertyOp16
 70
     1
102
RTVSPropertyOp17
 70
     1
102
RTVSPropertyOp18
 70
     1
102
RTVSPropertyOp19
 70
     1
102
RTVSPropertyOp20
 70
     1
102
RTVSPropertyOp21
 70
     1
102
RTVSPropertyOp22
 70
     1
102
RTVSPropertyOp23
 70
     1
102
RTVSPropertyOp24
 70
     1
102
RTVSPropertyOp25
 70
     1
102
RTVSPropertyOp26
 70
     1
102
RTVSPropertyOp27
 70
     1
102
RTVSPropertyOp28
 70
     1
102
RTVSPropertyOp29
 70
     1
102
RTVSPropertyOp30
 70
     1
102
RTVSPropertyOp31
 70
     1
102
RTVSPropertyOp32
 70
     1
  0
XRECORD
  5
BF4
102
{ACAD_REACTORS
330
BF3
102
}
330
BF3
100
AcDbXrecord
280
     1
102
RTVSPropertyOp0
 70
     1
102
RTVSPropertyOp1
 70
     1
102
RTVSPropertyOp2
 70
     1
102
RTVSPropertyOp3
 70
     1
102
RTVSPropertyOp4
 70
     1
102
RTVSPropertyOp5
 70
     1
102
RTVSPropertyOp6
 70
     1
102
RTVSPropertyOp7
 70
     1
102
RTVSPropertyOp8
 70
     1
102
RTVSPropertyOp9
 70
     1
102
RTVSPropertyOp10
 70
     1
102
RTVSPropertyOp11
 70
     1
102
RTVSPropertyOp12
 70
     1
102
RTVSPropertyOp13
 70
     1
102
RTVSPropertyOp14
 70
     1
102
RTVSPropertyOp15
 70
     1
102
RTVSPropertyOp16
 70
     1
102
RTVSPropertyOp17
 70
     1
102
RTVSPropertyOp18
 70
     1
102
RTVSPropertyOp19
 70
     1
102
RTVSPropertyOp20
 70
     1
102
RTVSPropertyOp21
 70
     1
102
RTVSPropertyOp22
 70
     1
102
RTVSPropertyOp23
 70
     1
102
RTVSPropertyOp24
 70
     1
102
RTVSPropertyOp25
 70
     1
102
RTVSPropertyOp26
 70
     1
102
RTVSPropertyOp27
 70
     1
102
RTVSPropertyOp28
 70
     1
102
RTVSPropertyOp29
 70
     1
102
RTVSPropertyOp30
 70
     1
102
RTVSPropertyOp31
 70
     1
102
RTVSPropertyOp32
 70
     1
  0
XRECORD
  5
BEA
102
{ACAD_REACTORS
330
BE9
102
}
330
BE9
100
AcDbXrecord
280
     1
102
RTVSPropertyOp0
 70
     1
102
RTVSPropertyOp1
 70
     1
102
RTVSPropertyOp2
 70
     1
102
RTVSPropertyOp3
 70
     1
102
RTVSPropertyOp4
 70
     1
102
RTVSPropertyOp5
 70
     1
102
RTVSPropertyOp6
 70
     1
102
RTVSPropertyOp7
 70
     1
102
RTVSPropertyOp8
 70
     1
102
RTVSPropertyOp9
 70
     1
102
RTVSPropertyOp10
 70
     1
102
RTVSPropertyOp11
 70
     1
102
RTVSPropertyOp12
 70
     1
102
RTVSPropertyOp13
 70
     1
102
RTVSPropertyOp14
 70
     1
102
RTVSPropertyOp15
 70
     1
102
RTVSPropertyOp16
 70
     1
102
RTVSPropertyOp17
 70
     1
102
RTVSPropertyOp18
 70
     1
102
RTVSPropertyOp19
 70
     1
102
RTVSPropertyOp20
 70
     1
102
RTVSPropertyOp21
 70
     1
102
RTVSPropertyOp22
 70
     1
102
RTVSPropertyOp23
 70
     1
102
RTVSPropertyOp24
 70
     1
102
RTVSPropertyOp25
 70
     1
102
RTVSPropertyOp26
 70
     1
102
RTVSPropertyOp27
 70
     1
102
RTVSPropertyOp28
 70
     1
102
RTVSPropertyOp29
 70
     1
102
RTVSPropertyOp30
 70
     1
102
RTVSPropertyOp31
 70
     1
102
RTVSPropertyOp32
 70
     1
  0
XRECORD
  5
BDE
102
{ACAD_REACTORS
330
BDD
102
}
330
BDD
100
AcDbXrecord
280
     1
102
RTVSPropertyOp0
 70
     1
102
RTVSPropertyOp1
 70
     1
102
RTVSPropertyOp2
 70
     1
102
RTVSPropertyOp3
 70
     1
102
RTVSPropertyOp4
 70
     1
102
RTVSPropertyOp5
 70
     1
102
RTVSPropertyOp6
 70
     1
102
RTVSPropertyOp7
 70
     1
102
RTVSPropertyOp8
 70
     1
102
RTVSPropertyOp9
 70
     1
102
RTVSPropertyOp10
 70
     1
102
RTVSPropertyOp11
 70
     1
102
RTVSPropertyOp12
 70
     1
102
RTVSPropertyOp13
 70
     1
102
RTVSPropertyOp14
 70
     1
102
RTVSPropertyOp15
 70
     1
102
RTVSPropertyOp16
 70
     1
102
RTVSPropertyOp17
 70
     1
102
RTVSPropertyOp18
 70
     1
102
RTVSPropertyOp19
 70
     1
102
RTVSPropertyOp20
 70
     1
102
RTVSPropertyOp21
 70
     1
102
RTVSPropertyOp22
 70
     1
102
RTVSPropertyOp23
 70
     1
102
RTVSPropertyOp24
 70
     1
102
RTVSPropertyOp25
 70
     1
102
RTVSPropertyOp26
 70
     1
102
RTVSPropertyOp27
 70
     1
102
RTVSPropertyOp28
 70
     1
102
RTVSPropertyOp29
 70
     1
102
RTVSPropertyOp30
 70
     1
102
RTVSPropertyOp31
 70
     1
102
RTVSPropertyOp32
 70
     1
  0
XRECORD
  5
BF6
102
{ACAD_REACTORS
330
BF5
102
}
330
BF5
100
AcDbXrecord
280
     1
102
RTVSPropertyOp0
 70
     1
102
RTVSPropertyOp1
 70
     1
102
RTVSPropertyOp2
 70
     1
102
RTVSPropertyOp3
 70
     1
102
RTVSPropertyOp4
 70
     1
102
RTVSPropertyOp5
 70
     1
102
RTVSPropertyOp6
 70
     1
102
RTVSPropertyOp7
 70
     1
102
RTVSPropertyOp8
 70
     1
102
RTVSPropertyOp9
 70
     1
102
RTVSPropertyOp10
 70
     1
102
RTVSPropertyOp11
 70
     1
102
RTVSPropertyOp12
 70
     1
102
RTVSPropertyOp13
 70
     1
102
RTVSPropertyOp14
 70
     1
102
RTVSPropertyOp15
 70
     1
102
RTVSPropertyOp16
 70
     1
102
RTVSPropertyOp17
 70
     1
102
RTVSPropertyOp18
 70
     1
102
RTVSPropertyOp19
 70
     1
102
RTVSPropertyOp20
 70
     1
102
RTVSPropertyOp21
 70
     1
102
RTVSPropertyOp22
 70
     1
102
RTVSPropertyOp23
 70
     1
102
RTVSPropertyOp24
 70
     1
102
RTVSPropertyOp25
 70
     1
102
RTVSPropertyOp26
 70
     1
102
RTVSPropertyOp27
 70
     1
102
RTVSPropertyOp28
 70
     1
102
RTVSPropertyOp29
 70
     1
102
RTVSPropertyOp30
 70
     1
102
RTVSPropertyOp31
 70
     1
102
RTVSPropertyOp32
 70
     1
  0
ENDSEC
  0
EOF
