  0
SECTION
  2
HEADER
  9
$ACADVER
  1
AC1021
  9
$ACADMAINTVER
 70
    50
  9
$DWGCODEPAGE
  3
ANSI_1252
  9
$AUTHOR
  1
zsm
  9
$CUSTOMPROPERTYTAG
  1
Manager
  9
$CUSTOMPROPERTY
  1

  9
$CUSTOMPROPERTYTAG
  1
Firma
  9
$CUSTOMPROPERTY
  1

  9
$CUSTOMPROPERTYTAG
  1
Kategorie
  9
$CUSTOMPROPERTY
  1

  9
$CUSTOMPROPERTYTAG
  1
Bauteilnummer
  9
$CUSTOMPROPERTY
  1
33190
  9
$CUSTOMPROPERTYTAG
  1
Bezeichnung
  9
$CUSTOMPROPERTY
  1
Metallbaugarnitur kpl.
  9
$CUSTOMPROPERTYTAG
  1
Projekt
  9
$CUSTOMPROPERTY
  1

  9
$CUSTOMPROPERTYTAG
  1
Konstrukteur
  9
$CUSTOMPROPERTY
  1
zsm
  9
$CUSTOMPROPERTYTAG
  1
Ingenieur
  9
$CUSTOMPROPERTY
  1

  9
$CUSTOMPROPERTYTAG
  1
Bevollmächtigter
  9
$CUSTOMPROPERTY
  1

  9
$CUSTOMPROPERTYTAG
  1
Kostenstelle
  9
$CUSTOMPROPERTY
  1

  9
$CUSTOMPROPERTYTAG
  1
Zulieferer
  9
$CUSTOMPROPERTY
  1

  9
$CUSTOMPROPERTYTAG
  1
Benutzerstatus
  9
$CUSTOMPROPERTY
  1

  9
$CUSTOMPROPERTYTAG
  1
Konstruktionsstatus
  9
$CUSTOMPROPERTY
  1
InBearbeitung
  9
$CUSTOMPROPERTYTAG
  1
Kontrolliert von
  9
$CUSTOMPROPERTY
  1

  9
$CUSTOMPROPERTYTAG
  1
Konstruktion genehmigt von
  9
$CUSTOMPROPERTY
  1

  9
$CUSTOMPROPERTYTAG
  1
Fertigung genehmigt von
  9
$CUSTOMPROPERTY
  1

  9
$CUSTOMPROPERTYTAG
  1
Aend_Beschreibung_1
  9
$CUSTOMPROPERTY
  1

  9
$CUSTOMPROPERTYTAG
  1
Aend_Beschreibung_2
  9
$CUSTOMPROPERTY
  1

  9
$CUSTOMPROPERTYTAG
  1
Aend_Beschreibung_3
  9
$CUSTOMPROPERTY
  1

  9
$CUSTOMPROPERTYTAG
  1
Aend_Beschreibung_4
  9
$CUSTOMPROPERTY
  1

  9
$CUSTOMPROPERTYTAG
  1
Aend_Beschreibung_5
  9
$CUSTOMPROPERTY
  1

  9
$CUSTOMPROPERTYTAG
  1
Aend_Beschreibung_6
  9
$CUSTOMPROPERTY
  1

  9
$CUSTOMPROPERTYTAG
  1
Aend_Beschreibung_7
  9
$CUSTOMPROPERTY
  1

  9
$CUSTOMPROPERTYTAG
  1
Aend_Beschreibung_8
  9
$CUSTOMPROPERTY
  1

  9
$CUSTOMPROPERTYTAG
  1
Aend_Index_1
  9
$CUSTOMPROPERTY
  1

  9
$CUSTOMPROPERTYTAG
  1
Aend_Index_2
  9
$CUSTOMPROPERTY
  1

  9
$CUSTOMPROPERTYTAG
  1
Aend_Index_3
  9
$CUSTOMPROPERTY
  1

  9
$CUSTOMPROPERTYTAG
  1
Aend_Index_4
  9
$CUSTOMPROPERTY
  1

  9
$CUSTOMPROPERTYTAG
  1
Aend_Index_5
  9
$CUSTOMPROPERTY
  1

  9
$CUSTOMPROPERTYTAG
  1
Aend_Index_6
  9
$CUSTOMPROPERTY
  1

  9
$CUSTOMPROPERTYTAG
  1
Aend_Index_7
  9
$CUSTOMPROPERTY
  1

  9
$CUSTOMPROPERTYTAG
  1
Aend_Index_8
  9
$CUSTOMPROPERTY
  1

  9
$CUSTOMPROPERTYTAG
  1
Aend_Name_1
  9
$CUSTOMPROPERTY
  1

  9
$CUSTOMPROPERTYTAG
  1
Aend_Name_2
  9
$CUSTOMPROPERTY
  1

  9
$CUSTOMPROPERTYTAG
  1
Aend_Name_3
  9
$CUSTOMPROPERTY
  1

  9
$CUSTOMPROPERTYTAG
  1
Aend_Name_4
  9
$CUSTOMPROPERTY
  1

  9
$CUSTOMPROPERTYTAG
  1
Aend_Name_5
  9
$CUSTOMPROPERTY
  1

  9
$CUSTOMPROPERTYTAG
  1
Aend_Name_6
  9
$CUSTOMPROPERTY
  1

  9
$CUSTOMPROPERTYTAG
  1
Aend_Name_7
  9
$CUSTOMPROPERTY
  1

  9
$CUSTOMPROPERTYTAG
  1
Aend_Name_8
  9
$CUSTOMPROPERTY
  1

  9
$CUSTOMPROPERTYTAG
  1
Dimension
  9
$CUSTOMPROPERTY
  1

  9
$CUSTOMPROPERTYTAG
  1
Masse
  9
$CUSTOMPROPERTY
  1

  9
$CUSTOMPROPERTYTAG
  1
Material
  9
$CUSTOMPROPERTY
  1

  9
$CUSTOMPROPERTYTAG
  1
Menge
  9
$CUSTOMPROPERTY
  1

  9
$CUSTOMPROPERTYTAG
  1
Norm
  9
$CUSTOMPROPERTY
  1

  9
$CUSTOMPROPERTYTAG
  1
Position
  9
$CUSTOMPROPERTY
  1

  9
$CUSTOMPROPERTYTAG
  1
Ersatz_fuer
  9
$CUSTOMPROPERTY
  1

  9
$CUSTOMPROPERTYTAG
  1
Esetzt_durch
  9
$CUSTOMPROPERTY
  1

  9
$CUSTOMPROPERTYTAG
  1
Massstab
  9
$CUSTOMPROPERTY
  1
1 : 2
  9
$CUSTOMPROPERTYTAG
  1
SysDate
  9
$CUSTOMPROPERTY
  1
13.03.2013
  9
$CUSTOMPROPERTYTAG
  1
SysTime
  9
$CUSTOMPROPERTY
  1
12:16
  9
$INSBASE
 10
0.0
 20
0.0
 30
0.0
  9
$EXTMIN
 10
0.0
 20
0.0
 30
0.0
  9
$EXTMAX
 10
420.0
 20
594.0
 30
0.0
  9
$LIMMIN
 10
0.0
 20
0.0
  9
$LIMMAX
 10
420.0
 20
594.0
  9
$ORTHOMODE
 70
     0
  9
$REGENMODE
 70
     1
  9
$FILLMODE
 70
     1
  9
$QTEXTMODE
 70
     0
  9
$MIRRTEXT
 70
     0
  9
$LTSCALE
 40
2.0
  9
$ATTMODE
 70
     1
  9
$TEXTSIZE
 40
0.2
  9
$TRACEWID
 40
0.05
  9
$TEXTSTYLE
  7
Standard
  9
$CLAYER
  8
0
  9
$CELTYPE
  6
ByLayer
  9
$CECOLOR
 62
   256
  9
$CELTSCALE
 40
1.0
  9
$DISPSILH
 70
     0
  9
$DIMSCALE
 40
1.0
  9
$DIMASZ
 40
1.799999999999999
  9
$DIMEXO
 40
0.0625
  9
$DIMDLI
 40
0.38
  9
$DIMRND
 40
0.0
  9
$DIMDLE
 40
0.0
  9
$DIMEXE
 40
0.18
  9
$DIMTP
 40
0.0
  9
$DIMTM
 40
0.0
  9
$DIMTXT
 40
0.3499999940395355
  9
$DIMCEN
 40
0.09
  9
$DIMTSZ
 40
0.0
  9
$DIMTOL
 70
     0
  9
$DIMLIM
 70
     0
  9
$DIMTIH
 70
     1
  9
$DIMTOH
 70
     1
  9
$DIMSE1
 70
     0
  9
$DIMSE2
 70
     0
  9
$DIMTAD
 70
     0
  9
$DIMZIN
 70
     0
  9
$DIMBLK
  1

  9
$DIMASO
 70
     1
  9
$DIMSHO
 70
     1
  9
$DIMPOST
  1

  9
$DIMAPOST
  1

  9
$DIMALT
 70
     0
  9
$DIMALTD
 70
     2
  9
$DIMALTF
 40
25.4
  9
$DIMLFAC
 40
1.0
  9
$DIMTOFL
 70
     0
  9
$DIMTVP
 40
0.0
  9
$DIMTIX
 70
     0
  9
$DIMSOXD
 70
     0
  9
$DIMSAH
 70
     0
  9
$DIMBLK1
  1

  9
$DIMBLK2
  1

  9
$DIMSTYLE
  2
Standard
  9
$DIMCLRD
 70
     0
  9
$DIMCLRE
 70
     0
  9
$DIMCLRT
 70
     0
  9
$DIMTFAC
 40
1.0
  9
$DIMGAP
 40
0.09
  9
$DIMJUST
 70
     0
  9
$DIMSD1
 70
     0
  9
$DIMSD2
 70
     0
  9
$DIMTOLJ
 70
     1
  9
$DIMTZIN
 70
     0
  9
$DIMALTZ
 70
     0
  9
$DIMALTTZ
 70
     0
  9
$DIMUPT
 70
     0
  9
$DIMDEC
 70
     4
  9
$DIMTDEC
 70
     4
  9
$DIMALTU
 70
     2
  9
$DIMALTTD
 70
     2
  9
$DIMTXSTY
  7
Standard
  9
$DIMAUNIT
 70
     0
  9
$DIMADEC
 70
     0
  9
$DIMALTRND
 40
0.0
  9
$DIMAZIN
 70
     0
  9
$DIMDSEP
 70
    46
  9
$DIMATFIT
 70
     3
  9
$DIMFRAC
 70
     0
  9
$DIMLDRBLK
  1

  9
$DIMLUNIT
 70
     2
  9
$DIMLWD
 70
    -2
  9
$DIMLWE
 70
    -2
  9
$DIMTMOVE
 70
     0
  9
$DIMFXL
 40
1.0
  9
$DIMFXLON
 70
     0
  9
$DIMJOGANG
 40
0.7853981633974483
  9
$DIMTFILL
 70
     0
  9
$DIMTFILLCLR
 70
     0
  9
$DIMARCSYM
 70
     0
  9
$DIMLTYPE
  6

  9
$DIMLTEX1
  6

  9
$DIMLTEX2
  6

  9
$LUNITS
 70
     2
  9
$LUPREC
 70
     4
  9
$SKETCHINC
 40
0.1
  9
$FILLETRAD
 40
0.0
  9
$AUNITS
 70
     0
  9
$AUPREC
 70
     0
  9
$MENU
  1
.
  9
$ELEVATION
 40
0.0
  9
$PELEVATION
 40
0.0
  9
$THICKNESS
 40
0.0
  9
$LIMCHECK
 70
     0
  9
$CHAMFERA
 40
0.0
  9
$CHAMFERB
 40
0.0
  9
$CHAMFERC
 40
0.0
  9
$CHAMFERD
 40
0.0
  9
$SKPOLY
 70
     0
  9
$TDCREATE
 40
2456570.378804468
  9
$TDUCREATE
 40
2456570.295471134
  9
$TDUPDATE
 40
2456570.378804468
  9
$TDUUPDATE
 40
2456570.295471134
  9
$TDINDWG
 40
0.0000703588
  9
$TDUSRTIMER
 40
0.0000703125
  9
$USRTIMER
 70
     1
  9
$ANGBASE
 50
0.0
  9
$ANGDIR
 70
     0
  9
$PDMODE
 70
     0
  9
$PDSIZE
 40
0.0
  9
$PLINEWID
 40
0.0
  9
$SPLFRAME
 70
     0
  9
$SPLINETYPE
 70
     6
  9
$SPLINESEGS
 70
     8
  9
$HANDSEED
  5
A69
  9
$SURFTAB1
 70
     6
  9
$SURFTAB2
 70
     6
  9
$SURFTYPE
 70
     6
  9
$SURFU
 70
     6
  9
$SURFV
 70
     6
  9
$UCSBASE
  2

  9
$UCSNAME
  2

  9
$UCSORG
 10
0.0
 20
0.0
 30
0.0
  9
$UCSXDIR
 10
1.0
 20
0.0
 30
0.0
  9
$UCSYDIR
 10
0.0
 20
1.0
 30
0.0
  9
$UCSORTHOREF
  2

  9
$UCSORTHOVIEW
 70
     0
  9
$UCSORGTOP
 10
0.0
 20
0.0
 30
0.0
  9
$UCSORGBOTTOM
 10
0.0
 20
0.0
 30
0.0
  9
$UCSORGLEFT
 10
0.0
 20
0.0
 30
0.0
  9
$UCSORGRIGHT
 10
0.0
 20
0.0
 30
0.0
  9
$UCSORGFRONT
 10
0.0
 20
0.0
 30
0.0
  9
$UCSORGBACK
 10
0.0
 20
0.0
 30
0.0
  9
$PUCSBASE
  2

  9
$PUCSNAME
  2

  9
$PUCSORG
 10
0.0
 20
0.0
 30
0.0
  9
$PUCSXDIR
 10
1.0
 20
0.0
 30
0.0
  9
$PUCSYDIR
 10
0.0
 20
1.0
 30
0.0
  9
$PUCSORTHOREF
  2

  9
$PUCSORTHOVIEW
 70
     0
  9
$PUCSORGTOP
 10
0.0
 20
0.0
 30
0.0
  9
$PUCSORGBOTTOM
 10
0.0
 20
0.0
 30
0.0
  9
$PUCSORGLEFT
 10
0.0
 20
0.0
 30
0.0
  9
$PUCSORGRIGHT
 10
0.0
 20
0.0
 30
0.0
  9
$PUCSORGFRONT
 10
0.0
 20
0.0
 30
0.0
  9
$PUCSORGBACK
 10
0.0
 20
0.0
 30
0.0
  9
$USERI1
 70
     0
  9
$USERI2
 70
     0
  9
$USERI3
 70
     0
  9
$USERI4
 70
     0
  9
$USERI5
 70
     0
  9
$USERR1
 40
0.0
  9
$USERR2
 40
0.0
  9
$USERR3
 40
0.0
  9
$USERR4
 40
0.0
  9
$USERR5
 40
0.0
  9
$WORLDVIEW
 70
     1
  9
$SHADEDGE
 70
     3
  9
$SHADEDIF
 70
    70
  9
$TILEMODE
 70
     1
  9
$MAXACTVP
 70
    64
  9
$PINSBASE
 10
0.0
 20
0.0
 30
0.0
  9
$PLIMCHECK
 70
     0
  9
$PEXTMIN
 10
0.0
 20
0.0
 30
0.0
  9
$PEXTMAX
 10
420.0
 20
594.0
 30
0.0
  9
$PLIMMIN
 10
0.0
 20
0.0
  9
$PLIMMAX
 10
420.0
 20
594.0
  9
$UNITMODE
 70
     0
  9
$VISRETAIN
 70
     1
  9
$PLINEGEN
 70
     0
  9
$PSLTSCALE
 70
     1
  9
$TREEDEPTH
 70
  3020
  9
$CMLSTYLE
  2
Standard
  9
$CMLJUST
 70
     0
  9
$CMLSCALE
 40
1.0
  9
$PROXYGRAPHICS
 70
     1
  9
$MEASUREMENT
 70
     1
  9
$CELWEIGHT
370
    -1
  9
$ENDCAPS
280
     0
  9
$JOINSTYLE
280
     0
  9
$LWDISPLAY
290
     0
  9
$INSUNITS
 70
     4
  9
$HYPERLINKBASE
  1

  9
$STYLESHEET
  1

  9
$XEDIT
290
     1
  9
$CEPSNTYPE
380
     0
  9
$PSTYLEMODE
290
     1
  9
$FINGERPRINTGUID
  2
{BBDE1DCE-6019-437C-8FCE-DCF5E09BB3B5}
  9
$VERSIONGUID
  2
{28980A39-6D49-485D-B631-253449CA7987}
  9
$EXTNAMES
290
     1
  9
$PSVPSCALE
 40
0.0
  9
$OLESTARTUP
290
     0
  9
$SORTENTS
280
   127
  9
$INDEXCTL
280
     0
  9
$HIDETEXT
280
     1
  9
$XCLIPFRAME
290
     0
  9
$HALOGAP
280
     0
  9
$OBSCOLOR
 70
   257
  9
$OBSLTYPE
280
     0
  9
$INTERSECTIONDISPLAY
280
     0
  9
$INTERSECTIONCOLOR
 70
   257
  9
$DIMASSOC
280
     1
  9
$PROJECTNAME
  1

  9
$CAMERADISPLAY
290
     0
  9
$LENSLENGTH
 40
50.0
  9
$CAMERAHEIGHT
 40
0.0
  9
$STEPSPERSEC
 40
2.0
  9
$STEPSIZE
 40
6.0
  9
$3DDWFPREC
 40
2.0
  9
$PSOLWIDTH
 40
0.25
  9
$PSOLHEIGHT
 40
4.0
  9
$LOFTANG1
 40
1.570796326794896
  9
$LOFTANG2
 40
1.570796326794896
  9
$LOFTMAG1
 40
0.0
  9
$LOFTMAG2
 40
0.0
  9
$LOFTPARAM
 70
     7
  9
$LOFTNORMALS
280
     1
  9
$LATITUDE
 40
37.795
  9
$LONGITUDE
 40
-122.394
  9
$NORTHDIRECTION
 40
0.0
  9
$TIMEZONE
 70
 -8000
  9
$LIGHTGLYPHDISPLAY
280
     1
  9
$TILEMODELIGHTSYNCH
280
     1
  9
$CMATERIAL
347
11
  9
$SOLIDHIST
280
     0
  9
$SHOWHIST
280
     1
  9
$DWFFRAME
280
     2
  9
$DGNFRAME
280
     0
  9
$REALWORLDSCALE
290
     1
  9
$INTERFERECOLOR
 62
     1
  9
$INTERFEREOBJVS
345
33
  9
$INTERFEREVPVS
346
30
  9
$CSHADOW
280
     0
  9
$SHADOWPLANELOCATION
 40
0.0
  0
ENDSEC
  0
SECTION
  2
CLASSES
  0
CLASS
  1
ACDBDICTIONARYWDFLT
  2
AcDbDictionaryWithDefault
  3
ObjectDBX Classes
 90
        0
 91
        1
280
     0
281
     0
  0
CLASS
  1
MATERIAL
  2
AcDbMaterial
  3
ObjectDBX Classes
 90
     1153
 91
        3
280
     0
281
     0
  0
CLASS
  1
VISUALSTYLE
  2
AcDbVisualStyle
  3
ObjectDBX Classes
 90
     4095
 91
       24
280
     0
281
     0
  0
CLASS
  1
SCALE
  2
AcDbScale
  3
ObjectDBX Classes
 90
     1153
 91
       17
280
     0
281
     0
  0
CLASS
  1
TABLESTYLE
  2
AcDbTableStyle
  3
ObjectDBX Classes
 90
     4095
 91
        1
280
     0
281
     0
  0
CLASS
  1
MLEADERSTYLE
  2
AcDbMLeaderStyle
  3
ACDB_MLEADERSTYLE_CLASS
 90
     4095
 91
        1
280
     0
281
     0
  0
CLASS
  1
DICTIONARYVAR
  2
AcDbDictionaryVar
  3
ObjectDBX Classes
 90
        0
 91
        5
280
     0
281
     0
  0
CLASS
  1
CELLSTYLEMAP
  2
AcDbCellStyleMap
  3
ObjectDBX Classes
 90
     1152
 91
        2
280
     0
281
     0
  0
ENDSEC
  0
SECTION
  2
TABLES
  0
TABLE
  2
VPORT
  5
8
330
0
100
AcDbSymbolTable
 70
     1
  0
VPORT
  5
57
330
8
100
AcDbSymbolTableRecord
100
AcDbViewportTableRecord
  2
*Active
 70
     0
 10
0.0
 20
0.0
 11
1.0
 21
1.0
 12
210.0
 22
297.0
 13
0.0
 23
0.0
 14
1.0
 24
1.0
 15
0.0
 25
0.0
 16
0.0
 26
0.0
 36
1.0
 17
0.0
 27
0.0
 37
0.0
 40
594.0
 41
0.7070707070707071
 42
50.0
 43
0.0
 44
0.0
 50
0.0
 51
0.0
 71
     0
 72
   100
 73
     1
 74
     1
 75
     0
 76
     0
 77
     0
 78
     0
281
     0
 65
     1
110
0.0
120
0.0
130
0.0
111
1.0
121
0.0
131
0.0
112
0.0
122
1.0
132
0.0
 79
     0
146
0.0
 60
     3
 61
     5
292
     1
282
     1
141
0.0
142
0.0
 63
   250
421
  3355443
  0
ENDTAB
  0
TABLE
  2
LTYPE
  5
5
330
0
100
AcDbSymbolTable
 70
     1
  0
LTYPE
  5
5B
330
5
100
AcDbSymbolTableRecord
100
AcDbLinetypeTableRecord
  2
ByBlock
 70
     0
  3

 72
    65
 73
     0
 40
0.0
  0
LTYPE
  5
5C
330
5
100
AcDbSymbolTableRecord
100
AcDbLinetypeTableRecord
  2
ByLayer
 70
     0
  3

 72
    65
 73
     0
 40
0.0
  0
LTYPE
  5
5D
330
5
100
AcDbSymbolTableRecord
100
AcDbLinetypeTableRecord
  2
Continuous
 70
     0
  3
Solid line
 72
    65
 73
     0
 40
0.0
  0
ENDTAB
  0
TABLE
  2
LAYER
  5
2
330
0
100
AcDbSymbolTable
 70
    16
  0
LAYER
  5
54
330
2
100
AcDbSymbolTableRecord
100
AcDbLayerTableRecord
  2
0
 70
     0
 62
     7
  6
Continuous
370
    -3
390
F
347
21
  0
LAYER
  5
76
330
2
100
AcDbSymbolTableRecord
100
AcDbLayerTableRecord
  2
AM_0
 70
     0
 62
     7
  6
Continuous
370
    50
390
F
347
21
  0
LAYER
  5
77
330
2
100
AcDbSymbolTableRecord
100
AcDbLayerTableRecord
  2
AM_5
 70
     0
 62
     3
420
    65280
  6
Continuous
370
    25
390
F
347
21
  0
LAYER
  5
7F
330
2
100
AcDbSymbolTableRecord
100
AcDbLayerTableRecord
  2
Bemaßungen(DIN)
 70
     0
 62
     7
  6
Continuous
370
    25
390
F
347
21
  0
LAYER
  5
8D
330
2
100
AcDbSymbolTableRecord
100
AcDbLayerTableRecord
  2
Mittellinie(DIN)
 70
     0
 62
     7
  6
Continuous
370
    25
390
F
347
21
  0
LAYER
  5
8F
330
2
100
AcDbSymbolTableRecord
100
AcDbLayerTableRecord
  2
Mittelpunktmarkierung(DIN)
 70
     0
 62
     7
  6
Continuous
370
    25
390
F
347
21
  0
LAYER
  5
99
330
2
100
AcDbSymbolTableRecord
100
AcDbLayerTableRecord
  2
Schraffur
 70
     0
 62
     7
  6
Continuous
370
     9
390
F
347
21
  0
LAYER
  5
9A
330
2
100
AcDbSymbolTableRecord
100
AcDbLayerTableRecord
  2
Schraffur (ISO)
 70
     0
 62
     7
  6
Continuous
370
    18
390
F
347
21
  0
LAYER
  5
9D
330
2
100
AcDbSymbolTableRecord
100
AcDbLayerTableRecord
  2
Sichtbare Kanten(DIN)
 70
     0
 62
     7
  6
Continuous
370
    50
390
F
347
21
  0
LAYER
  5
9E
330
2
100
AcDbSymbolTableRecord
100
AcDbLayerTableRecord
  2
Sichtbare tangentiale Kanten(DIN)
 70
     0
 62
     7
  6
Continuous
370
    50
390
F
347
21
  0
LAYER
  5
A0
330
2
100
AcDbSymbolTableRecord
100
AcDbLayerTableRecord
  2
Skizziergeometrie(DIN)
 70
     0
 62
     7
  6
Continuous
370
    50
390
F
347
21
  0
LAYER
  5
A5
330
2
100
AcDbSymbolTableRecord
100
AcDbLayerTableRecord
  2
Symbole(DIN)
 70
     0
 62
     7
  6
Continuous
370
    25
390
F
347
21
  0
LAYER
  5
A8
330
2
100
AcDbSymbolTableRecord
100
AcDbLayerTableRecord
  2
Titel (ISO)
 70
     0
 62
     7
  6
Continuous
370
    50
390
F
347
21
  0
LAYER
  5
AD
330
2
100
AcDbSymbolTableRecord
100
AcDbLayerTableRecord
  2
Verdeckte Kanten(DIN)
 70
     0
 62
     7
  6
Continuous
370
    35
390
F
347
21
  0
LAYER
  5
AE
330
2
100
AcDbSymbolTableRecord
100
AcDbLayerTableRecord
  2
Verdeckte tangentiale Kanten(DIN)
 70
     0
 62
     7
  6
Continuous
370
    35
390
F
347
21
  0
LAYER
  5
26C
330
2
100
AcDbSymbolTableRecord
100
AcDbLayerTableRecord
  2
Defpoints
 70
     0
 62
     7
  6
Continuous
290
     0
370
    -3
390
F
347
21
  0
ENDTAB
  0
TABLE
  2
STYLE
  5
3
330
0
100
AcDbSymbolTable
 70
    16
  0
STYLE
  5
55
330
3
100
AcDbSymbolTableRecord
100
AcDbTextStyleTableRecord
  2
Standard
 70
     0
 40
0.0
 41
1.0
 50
0.0
 71
     0
 42
0.2
  3
ISOCP.shx
  4

  0
STYLE
  5
5A
330
3
100
AcDbSymbolTableRecord
100
AcDbTextStyleTableRecord
  2
Annotative
 70
     0
 40
0.0
 41
1.0
 50
0.0
 71
     0
 42
0.2
  3
txt
  4

1001
AcadAnnotative
1000
AnnotativeData
1002
{
1070
     1
1070
     1
1002
}
  0
STYLE
  5
AF
330
3
100
AcDbSymbolTableRecord
100
AcDbTextStyleTableRecord
  2
_Schriftfeld_2.5mm
 70
     0
 40
0.0
 41
1.0
 50
0.0
 71
     0
 42
0.2
  3
arial.ttf
  4

1001
ACAD
1000
Arial
1071
      256
  0
STYLE
  5
B0
330
3
100
AcDbSymbolTableRecord
100
AcDbTextStyleTableRecord
  2
_Schriftfeld_2mm
 70
     0
 40
0.0
 41
1.0
 50
0.0
 71
     0
 42
0.2
  3
arial.ttf
  4

1001
ACAD
1000
Arial
1071
      256
  0
STYLE
  5
B1
330
3
100
AcDbSymbolTableRecord
100
AcDbTextStyleTableRecord
  2
_Schriftfeld_3.5mm
 70
     0
 40
0.0
 41
1.0
 50
0.0
 71
     0
 42
0.2
  3
arial.ttf
  4

1001
ACAD
1000
Arial
1071
      256
  0
STYLE
  5
B2
330
3
100
AcDbSymbolTableRecord
100
AcDbTextStyleTableRecord
  2
_Schriftfeld_5mm
 70
     0
 40
0.0
 41
1.0
 50
0.0
 71
     0
 42
0.2
  3
arial.ttf
  4

1001
ACAD
1000
Arial
1071
      256
  0
STYLE
  5
B3
330
3
100
AcDbSymbolTableRecord
100
AcDbTextStyleTableRecord
  2
Aktuell-DIN
 70
     0
 40
0.0
 41
1.0
 50
0.0
 71
     0
 42
0.2
  3
arial.ttf
  4

1001
ACAD
1000
Arial
1071
      256
  0
STYLE
  5
B4
330
3
100
AcDbSymbolTableRecord
100
AcDbTextStyleTableRecord
  2
Bezeichnungstext (DIN)
 70
     0
 40
0.0
 41
1.0
 50
0.0
 71
     0
 42
0.2
  3
isocpeur.ttf
  4

1001
ACAD
1000
ISOCPEUR
1071
      256
  0
STYLE
  5
B5
330
3
100
AcDbSymbolTableRecord
100
AcDbTextStyleTableRecord
  2
Bezeichnungstext (ISO)
 70
     0
 40
0.0
 41
1.0
 50
0.0
 71
     0
 42
0.2
  3
tahoma.ttf
  4

1001
ACAD
1000
Tahoma
1071
      256
  0
STYLE
  5
B6
330
3
100
AcDbSymbolTableRecord
100
AcDbTextStyleTableRecord
  2
Notiztext (DIN)
 70
     0
 40
0.0
 41
1.0
 50
0.0
 71
     0
 42
0.2
  3
isocpeur.ttf
  4

1001
ACAD
1000
ISOCPEUR
1071
      256
  0
STYLE
  5
B7
330
3
100
AcDbSymbolTableRecord
100
AcDbTextStyleTableRecord
  2
Notiztext (ISO)
 70
     0
 40
0.0
 41
1.0
 50
0.0
 71
     0
 42
0.2
  3
tahoma.ttf
  4

1001
ACAD
1000
Tahoma
1071
      256
  0
STYLE
  5
B8
330
3
100
AcDbSymbolTableRecord
100
AcDbTextStyleTableRecord
  2
STANDARD-DIN
 70
     0
 40
0.0
 41
1.0
 50
0.0
 71
     0
 42
0.2
  3
arial.ttf
  4

1001
ACAD
1000
Arial
1071
      256
  0
STYLE
  5
B9
330
3
100
AcDbSymbolTableRecord
100
AcDbTextStyleTableRecord
  2
STANDARD-DIN~0
 70
     0
 40
0.0
 41
1.0
 50
0.0
 71
     0
 42
0.2
  3
arial.ttf
  4

1001
ACAD
1000
Arial
1071
      256
  0
STYLE
  5
BA
330
3
100
AcDbSymbolTableRecord
100
AcDbTextStyleTableRecord
  2
STANDARD-DINGroßer Text
 70
     0
 40
0.0
 41
1.0
 50
0.0
 71
     0
 42
0.2
  3
arial.ttf
  4

1001
ACAD
1000
Arial
1071
      256
  0
STYLE
  5
BB
330
3
100
AcDbSymbolTableRecord
100
AcDbTextStyleTableRecord
  2
STANDARD-DINNach Layer
 70
     0
 40
0.0
 41
1.0
 50
0.0
 71
     0
 42
0.2
  3
arial.ttf
  4

1001
ACAD
1000
Arial
1071
      256
  0
STYLE
  5
192
330
3
100
AcDbSymbolTableRecord
100
AcDbTextStyleTableRecord
  2
Textstil122
 70
     0
 40
0.0
 41
0.899999976158142
 50
0.0
 71
     0
 42
0.2
  3
ISOCP.shx
  4

  0
ENDTAB
  0
TABLE
  2
VIEW
  5
6
330
0
100
AcDbSymbolTable
 70
     0
  0
ENDTAB
  0
TABLE
  2
UCS
  5
7
330
0
100
AcDbSymbolTable
 70
     0
  0
ENDTAB
  0
TABLE
  2
APPID
  5
9
330
0
100
AcDbSymbolTable
 70
     4
  0
APPID
  5
56
330
9
100
AcDbSymbolTableRecord
100
AcDbRegAppTableRecord
  2
ACAD
 70
     0
  0
APPID
  5
5E
330
9
100
AcDbSymbolTableRecord
100
AcDbRegAppTableRecord
  2
AcadAnnotative
 70
     0
  0
APPID
  5
195
330
9
100
AcDbSymbolTableRecord
100
AcDbRegAppTableRecord
  2
AcadAnnoPO
 70
     0
  0
APPID
  5
A26
330
9
100
AcDbSymbolTableRecord
100
AcDbRegAppTableRecord
  2
ACAD_MLEADERVER
 70
     0
  0
ENDTAB
  0
TABLE
  2
DIMSTYLE
  5
A
330
0
100
AcDbSymbolTable
 70
    22
100
AcDbDimStyleTable
 71
     2
340
BC
340
58
  0
DIMSTYLE
105
58
330
A
100
AcDbSymbolTableRecord
100
AcDbDimStyleTableRecord
  2
Standard
 70
     0
340
55
  0
DIMSTYLE
105
59
330
A
100
AcDbSymbolTableRecord
100
AcDbDimStyleTableRecord
  2
Annotative
 70
     0
340
55
1001
AcadAnnotative
1000
AnnotativeData
1002
{
1070
     1
1070
     1
1002
}
  0
DIMSTYLE
105
BC
102
{ACAD_REACTORS
330
26B
330
354
330
43C
330
51E
330
621
330
712
330
804
330
8E7
102
}
330
A
100
AcDbSymbolTableRecord
100
AcDbDimStyleTableRecord
  2
STANDARD-DIN - Methode 2b
 70
     0
 40
2.0
 41
2.5
 42
0.0
 43
12.0
 44
3.174999999999998
 45
0.00000001
 46
12.0
 73
     0
 77
     1
 78
     8
 79
     2
140
3.5
143
0.03937
146
0.7142857313156128
147
0.8
171
     3
172
     1
176
   250
177
   250
178
   250
271
     2
272
     2
274
     3
284
     8
285
     8
340
B9
371
    25
372
    25
  0
DIMSTYLE
105
BD
330
A
100
AcDbSymbolTableRecord
100
AcDbDimStyleTableRecord
  2
STANDARD-DIN - Methode 2b$7
 70
     0
 40
2.0
 41
2.5
 42
0.0
 43
12.0
 44
3.174999999999998
 45
0.00000001
 46
12.0
 73
     0
 77
     1
 78
     8
 79
     2
140
3.5
143
0.03937
146
0.7142857313156128
147
0.8
171
     3
172
     1
176
   179
177
   250
178
   250
271
     2
272
     2
274
     3
284
     8
285
     8
340
B9
371
    25
372
    25
  0
DIMSTYLE
105
BE
330
A
100
AcDbSymbolTableRecord
100
AcDbDimStyleTableRecord
  2
Standard - Methode 1b (ISO)
 70
     0
 40
2.0
 41
2.5
 42
0.0
 43
5.999999999999999
 44
3.174999999999998
 45
0.00000001
 46
10.0
 73
     0
 77
     1
 78
     8
 79
     2
140
3.5
143
0.03937
147
0.762
171
     3
172
     1
176
   256
177
   256
178
   256
179
     2
271
     2
272
     2
274
     3
278
    44
284
     8
286
     8
340
B7
371
    -1
372
    -1
  0
DIMSTYLE
105
BF
330
A
100
AcDbSymbolTableRecord
100
AcDbDimStyleTableRecord
  2
Standard - Methode 1b (ISO)$7
 70
     0
 40
2.0
 41
2.5
 42
0.0
 43
5.999999999999999
 44
3.174999999999998
 45
0.00000001
 46
10.0
 73
     0
 77
     1
 78
     8
 79
     2
140
3.5
143
0.03937
147
0.762
171
     3
172
     1
176
   256
177
   256
178
   256
179
     2
271
     2
272
     2
274
     3
278
    44
284
     8
286
     8
340
B7
371
    -1
372
    -1
  0
DIMSTYLE
105
C0
330
A
100
AcDbSymbolTableRecord
100
AcDbDimStyleTableRecord
  2
Standard - Methode 2a (DIN)
 70
     0
 40
2.0
 41
2.5
 42
0.8
 43
5.999999999999999
 44
3.174999999999998
 45
0.00000001
 46
10.0
 77
     1
 78
     8
 79
     2
140
3.5
143
0.03937
147
0.8
170
     1
171
     3
172
     1
176
   256
177
   256
178
   256
179
     2
271
     2
272
     2
274
     3
278
    44
284
     8
286
     8
340
B6
371
    -1
372
    -1
  0
DIMSTYLE
105
C1
330
A
100
AcDbSymbolTableRecord
100
AcDbDimStyleTableRecord
  2
Standard - Methode 2a (DIN)$7
 70
     0
 40
2.0
 41
2.5
 42
0.8
 43
5.999999999999999
 44
3.174999999999998
 45
0.00000001
 46
10.0
 77
     1
 78
     8
 79
     2
140
3.5
143
0.03937
147
0.8
170
     1
171
     3
172
     1
176
   256
177
   256
178
   256
179
     2
271
     2
272
     2
274
     3
278
    44
284
     8
286
     8
340
B6
371
    -1
372
    -1
  0
DIMSTYLE
105
C2
330
A
100
AcDbSymbolTableRecord
100
AcDbDimStyleTableRecord
  2
Standard - Methode 2b (DIN)
 70
     0
 40
2.0
 41
2.5
 42
0.0
 43
5.999999999999999
 44
3.174999999999998
 45
0.00000001
 46
10.0
 77
     1
 78
     8
 79
     2
140
3.5
143
0.03937
147
0.8
171
     3
172
     1
176
   256
177
   256
178
   256
271
     2
272
     2
274
     3
278
    44
284
     8
286
     8
340
B6
371
    -1
372
    -1
  0
DIMSTYLE
105
C3
330
A
100
AcDbSymbolTableRecord
100
AcDbDimStyleTableRecord
  2
Standard - Methode 2b (DIN)$7
 70
     0
 40
2.0
 41
2.5
 42
0.0
 43
5.999999999999999
 44
3.174999999999998
 45
0.00000001
 46
10.0
 77
     1
 78
     8
 79
     2
140
3.5
143
0.03937
147
0.8
171
     3
172
     1
176
   256
177
   256
178
   256
271
     2
272
     2
274
     3
278
    44
284
     8
286
     8
340
B6
371
    -1
372
    -1
  0
DIMSTYLE
105
C4
330
A
100
AcDbSymbolTableRecord
100
AcDbDimStyleTableRecord
  2
Standard (DIN)
 70
     0
 40
2.0
 41
2.5
 42
0.8
 43
5.999999999999999
 44
3.174999999999998
 45
0.00000001
 46
10.0
 73
     0
 74
     0
 77
     1
 78
     8
 79
     2
140
3.5
143
0.03937
147
0.8
171
     3
172
     1
176
   256
177
   256
178
   256
271
     2
272
     2
274
     3
278
    44
284
     8
340
B6
371
    -1
372
    -1
  0
DIMSTYLE
105
C5
330
A
100
AcDbSymbolTableRecord
100
AcDbDimStyleTableRecord
  2
Standard (DIN)$7
 70
     0
 40
2.0
 41
2.5
 42
0.8
 43
5.999999999999999
 44
3.174999999999998
 45
0.00000001
 46
10.0
 73
     0
 74
     0
 77
     1
 78
     8
 79
     2
140
3.5
143
0.03937
147
0.8
171
     3
172
     1
176
   256
177
   256
178
   256
271
     2
272
     2
274
     3
278
    44
284
     8
340
B6
371
    -1
372
    -1
  0
DIMSTYLE
105
C6
330
A
100
AcDbSymbolTableRecord
100
AcDbDimStyleTableRecord
  2
Standard (ISO)
 70
     0
 40
2.0
 41
2.5
 42
0.0
 43
5.999999999999999
 44
3.174999999999998
 45
0.00000001
 46
10.0
 73
     0
 74
     0
 77
     1
140
3.5
143
0.03937
146
1.00148570537567
147
0.762
171
     3
172
     1
176
   256
177
   256
178
   256
179
     2
271
     2
272
     2
274
     3
278
    44
340
B7
371
    -1
372
    -1
  0
DIMSTYLE
105
C7
330
A
100
AcDbSymbolTableRecord
100
AcDbDimStyleTableRecord
  2
Standard (ISO)$7
 70
     0
 40
2.0
 41
2.5
 42
0.0
 43
5.999999999999999
 44
3.174999999999998
 45
0.00000001
 46
10.0
 73
     0
 74
     0
 77
     1
140
3.5
143
0.03937
146
1.00148570537567
147
0.762
171
     3
172
     1
176
   256
177
   256
178
   256
179
     2
271
     2
272
     2
274
     3
278
    44
340
B7
371
    -1
372
    -1
  0
DIMSTYLE
105
C8
330
A
100
AcDbSymbolTableRecord
100
AcDbDimStyleTableRecord
  2
Alternativ (ISO)
 70
     0
 40
2.0
 41
2.5
340
55
342
C9
  0
DIMSTYLE
105
DB
330
A
100
AcDbSymbolTableRecord
100
AcDbDimStyleTableRecord
  2
Bezug (ISO)
 70
     0
 40
2.0
 41
2.5
340
55
342
C9
  0
DIMSTYLE
105
DC
330
A
100
AcDbSymbolTableRecord
100
AcDbDimStyleTableRecord
  2
Führungslinie-Ursprungsindikator(DIN)
 70
     0
 40
2.0
 41
2.5
340
55
342
C9
  0
DIMSTYLE
105
DD
330
A
100
AcDbSymbolTableRecord
100
AcDbDimStyleTableRecord
  2
Führungslinie - Bezugsstelle(DIN)
 70
     0
 40
2.0
 41
2.5
340
55
342
C9
  0
DIMSTYLE
105
DE
330
A
100
AcDbSymbolTableRecord
100
AcDbDimStyleTableRecord
  2
Führungslinie - groß(DIN)
 70
     0
 40
2.0
 41
5.0
340
55
342
C9
  0
DIMSTYLE
105
DF
330
A
100
AcDbSymbolTableRecord
100
AcDbDimStyleTableRecord
  2
Führungslinie - Punkt(DIN)
 70
     0
 40
2.0
 41
2.5
340
55
342
C9
  0
DIMSTYLE
105
E0
330
A
100
AcDbSymbolTableRecord
100
AcDbDimStyleTableRecord
  2
Führungslinie(DIN)
 70
     0
 40
2.0
 41
2.5
340
55
342
C9
  0
DIMSTYLE
105
EF
330
A
100
AcDbSymbolTableRecord
100
AcDbDimStyleTableRecord
  2
Groß (ISO)
 70
     0
 40
2.0
 41
5.0
340
55
342
C9
  0
ENDTAB
  0
TABLE
  2
BLOCK_RECORD
  5
1
330
0
100
AcDbSymbolTable
 70
    25
  0
BLOCK_RECORD
  5
6C
330
1
100
AcDbSymbolTableRecord
100
AcDbBlockTableRecord
  2
*Model_Space
340
6F
 70
     0
280
     1
281
     0
  0
BLOCK_RECORD
  5
68
330
1
100
AcDbSymbolTableRecord
100
AcDbBlockTableRecord
  2
*Paper_Space
340
6B
 70
     0
280
     1
281
     0
  0
BLOCK_RECORD
  5
70
330
1
100
AcDbSymbolTableRecord
100
AcDbBlockTableRecord
  2
*Paper_Space0
340
73
 70
     0
280
     1
281
     0
  0
BLOCK_RECORD
  5
C9
330
1
100
AcDbSymbolTableRecord
100
AcDbBlockTableRecord
  2
_Closed
340
0
 70
     0
280
     1
281
     0
  0
BLOCK_RECORD
  5
D0
330
1
100
AcDbSymbolTableRecord
100
AcDbBlockTableRecord
  2
DatumFilled45
340
0
 70
     0
280
     1
281
     0
  0
BLOCK_RECORD
  5
E1
330
1
100
AcDbSymbolTableRecord
100
AcDbBlockTableRecord
  2
Filled-1
340
0
 70
     0
280
     1
281
     0
  0
BLOCK_RECORD
  5
F0
330
1
100
AcDbSymbolTableRecord
100
AcDbBlockTableRecord
  2
Carbonitrieren
340
0
 70
     0
280
     1
281
     0
  0
BLOCK_RECORD
  5
F5
330
1
100
AcDbSymbolTableRecord
100
AcDbBlockTableRecord
  2
Federangaben
340
0
 70
     0
280
     1
281
     0
  0
BLOCK_RECORD
  5
F9
330
1
100
AcDbSymbolTableRecord
100
AcDbBlockTableRecord
  2
Nassschliff
340
0
 70
     0
280
     1
281
     0
  0
BLOCK_RECORD
  5
FD
330
1
100
AcDbSymbolTableRecord
100
AcDbBlockTableRecord
  2
Schleiffrichtung horizontal
340
0
 70
     0
280
     1
281
     0
  0
BLOCK_RECORD
  5
110
330
1
100
AcDbSymbolTableRecord
100
AcDbBlockTableRecord
  2
Schleiffrichtung vertikal
340
0
 70
     0
280
     1
281
     0
  0
BLOCK_RECORD
  5
123
330
1
100
AcDbSymbolTableRecord
100
AcDbBlockTableRecord
  2
Stanz-_Laserteil
340
0
 70
     0
280
     1
281
     0
  0
BLOCK_RECORD
  5
127
330
1
100
AcDbSymbolTableRecord
100
AcDbBlockTableRecord
  2
Stanzrundung_1
340
0
 70
     0
280
     1
281
     0
  0
BLOCK_RECORD
  5
12D
330
1
100
AcDbSymbolTableRecord
100
AcDbBlockTableRecord
  2
Stanzrundung_2
340
0
 70
     0
280
     1
281
     0
  0
BLOCK_RECORD
  5
133
330
1
100
AcDbSymbolTableRecord
100
AcDbBlockTableRecord
  2
Verzinkt
340
0
 70
     0
280
     1
281
     0
  0
BLOCK_RECORD
  5
137
330
1
100
AcDbSymbolTableRecord
100
AcDbBlockTableRecord
  2
Vierkant-Tabelle
340
0
 70
     0
280
     1
281
     0
  0
BLOCK_RECORD
  5
162
330
1
100
AcDbSymbolTableRecord
100
AcDbBlockTableRecord
  2
Laserpunkt_Text
340
0
 70
     0
280
     1
281
     0
  0
BLOCK_RECORD
  5
169
330
1
100
AcDbSymbolTableRecord
100
AcDbBlockTableRecord
  2
Laserpunkt
340
0
 70
     0
280
     1
281
     0
  0
BLOCK_RECORD
  5
16F
330
1
100
AcDbSymbolTableRecord
100
AcDbBlockTableRecord
  2
Kantenbruch
340
0
 70
     0
280
     1
281
     0
  0
BLOCK_RECORD
  5
26D
330
1
100
AcDbSymbolTableRecord
100
AcDbBlockTableRecord
  2
*D17
340
0
 70
     0
280
     1
281
     0
  0
BLOCK_RECORD
  5
355
330
1
100
AcDbSymbolTableRecord
100
AcDbBlockTableRecord
  2
*D18
340
0
 70
     0
280
     1
281
     0
  0
BLOCK_RECORD
  5
43D
330
1
100
AcDbSymbolTableRecord
100
AcDbBlockTableRecord
  2
*D19
340
0
 70
     0
280
     1
281
     0
  0
BLOCK_RECORD
  5
51F
330
1
100
AcDbSymbolTableRecord
100
AcDbBlockTableRecord
  2
*D20
340
0
 70
     0
280
     1
281
     0
  0
BLOCK_RECORD
  5
622
330
1
100
AcDbSymbolTableRecord
100
AcDbBlockTableRecord
  2
*D21
340
0
 70
     0
280
     1
281
     0
  0
BLOCK_RECORD
  5
713
330
1
100
AcDbSymbolTableRecord
100
AcDbBlockTableRecord
  2
*D22
340
0
 70
     0
280
     1
281
     0
  0
BLOCK_RECORD
  5
805
330
1
100
AcDbSymbolTableRecord
100
AcDbBlockTableRecord
  2
*D23
340
0
 70
     0
280
     1
281
     0
  0
BLOCK_RECORD
  5
8E8
330
1
100
AcDbSymbolTableRecord
100
AcDbBlockTableRecord
  2
*D24
340
0
 70
     0
280
     1
281
     0
  0
ENDTAB
  0
ENDSEC
  0
SECTION
  2
BLOCKS
  0
BLOCK
  5
6D
330
6C
100
AcDbEntity
  8
0
100
AcDbBlockBegin
  2
*Model_Space
 70
     0
 10
0.0
 20
0.0
 30
0.0
  3
*Model_Space
  1

  0
ENDBLK
  5
6E
330
6C
100
AcDbEntity
  8
0
100
AcDbBlockEnd
  0
BLOCK
  5
69
330
68
100
AcDbEntity
 67
     1
  8
0
100
AcDbBlockBegin
  2
*Paper_Space
 70
     0
 10
0.0
 20
0.0
 30
0.0
  3
*Paper_Space
  1

  0
ENDBLK
  5
6A
330
68
100
AcDbEntity
 67
     1
  8
0
100
AcDbBlockEnd
  0
BLOCK
  5
71
330
70
100
AcDbEntity
 67
     1
  8
0
100
AcDbBlockBegin
  2
*Paper_Space0
 70
     0
 10
0.0
 20
0.0
 30
0.0
  3
*Paper_Space0
  1

  0
ENDBLK
  5
72
330
70
100
AcDbEntity
 67
     1
  8
0
100
AcDbBlockEnd
  0
BLOCK
  5
CE
330
C9
100
AcDbEntity
  8
0
100
AcDbBlockBegin
  2
_Closed
 70
     0
 10
0.0
 20
0.0
 30
0.0
  3
_Closed
  1

  0
LINE
  5
CA
330
C9
100
AcDbEntity
  8
0
  6
ByBlock
 62
     0
370
    -2
100
AcDbLine
 10
-1.0
 20
0.1666666666666666
 30
0.0
 11
0.0
 21
0.0
 31
0.0
  0
LINE
  5
CB
330
C9
100
AcDbEntity
  8
0
  6
ByBlock
 62
     0
370
    -2
100
AcDbLine
 10
0.0
 20
0.0
 30
0.0
 11
-1.0
 21
-0.1666666666666666
 31
0.0
  0
LINE
  5
CC
330
C9
100
AcDbEntity
  8
0
  6
ByBlock
 62
     0
370
    -2
100
AcDbLine
 10
-1.0
 20
0.1666666666666666
 30
0.0
 11
-1.0
 21
-0.1666666666666666
 31
0.0
  0
LINE
  5
CD
330
C9
100
AcDbEntity
  8
0
  6
ByBlock
 62
     0
370
    -2
100
AcDbLine
 10
0.0
 20
0.0
 30
0.0
 11
-1.0
 21
0.0
 31
0.0
  0
ENDBLK
  5
CF
330
C9
100
AcDbEntity
  8
0
100
AcDbBlockEnd
  0
BLOCK
  5
D1
330
D0
100
AcDbEntity
  8
0
100
AcDbBlockBegin
  2
DatumFilled45
 70
     0
 10
0.0
 20
0.0
 30
0.0
  3
DatumFilled45
  1

  0
POLYLINE
  5
D3
330
D0
100
AcDbEntity
  8
0
 62
     0
100
AcDb2dPolyline
 66
     1
 10
0.0
 20
0.0
 30
0.0
 70
   128
  0
VERTEX
  5
D4
330
D3
100
AcDbEntity
  8
0
 62
     0
100
AcDbVertex
100
AcDb2dVertex
 10
0.0
 20
1.0
 30
0.0
  0
VERTEX
  5
D5
330
D3
100
AcDbEntity
  8
0
 62
     0
100
AcDbVertex
100
AcDb2dVertex
 10
0.0
 20
-1.0
 30
0.0
  0
VERTEX
  5
D7
330
D3
100
AcDbEntity
  8
0
 62
     0
100
AcDbVertex
100
AcDb2dVertex
 10
-1.0
 20
0.0
 30
0.0
  0
VERTEX
  5
D8
330
D3
100
AcDbEntity
  8
0
 62
     0
100
AcDbVertex
100
AcDb2dVertex
 10
0.0
 20
1.0
 30
0.0
  0
SEQEND
  5
D6
330
D3
100
AcDbEntity
  8
0
 62
     0
  0
SOLID
  5
DA
330
D0
100
AcDbEntity
  8
0
 62
     0
100
AcDbTrace
 10
0.0
 20
1.0
 30
0.0
 11
0.0
 21
-1.0
 31
0.0
 12
-1.0
 22
0.0
 32
0.0
 13
0.0
 23
1.0
 33
0.0
  0
ENDBLK
  5
D2
330
D0
100
AcDbEntity
  8
0
100
AcDbBlockEnd
  0
BLOCK
  5
E2
330
E1
100
AcDbEntity
  8
0
100
AcDbBlockBegin
  2
Filled-1
 70
     0
 10
0.0
 20
0.0
 30
0.0
  3
Filled-1
  1

  0
LINE
  5
E4
330
E1
100
AcDbEntity
  8
0
 62
     0
100
AcDbLine
 10
-1.0
 20
0.0
 30
0.0
 11
0.0
 21
0.0
 31
0.0
  0
POLYLINE
  5
E5
330
E1
100
AcDbEntity
  8
0
 62
     0
100
AcDb2dPolyline
 66
     1
 10
0.0
 20
0.0
 30
0.0
 70
   128
  0
VERTEX
  5
E6
330
E5
100
AcDbEntity
  8
0
 62
     0
100
AcDbVertex
100
AcDb2dVertex
 10
-1.0
 20
-0.1
 30
0.0
  0
VERTEX
  5
E7
330
E5
100
AcDbEntity
  8
0
 62
     0
100
AcDbVertex
100
AcDb2dVertex
 10
0.0
 20
0.0
 30
0.0
  0
VERTEX
  5
E9
330
E5
100
AcDbEntity
  8
0
 62
     0
100
AcDbVertex
100
AcDb2dVertex
 10
-1.0
 20
0.1
 30
0.0
  0
VERTEX
  5
EA
330
E5
100
AcDbEntity
  8
0
 62
     0
100
AcDbVertex
100
AcDb2dVertex
 10
-1.0
 20
-0.1
 30
0.0
  0
SEQEND
  5
E8
330
E5
100
AcDbEntity
  8
0
 62
     0
  0
SOLID
  5
EB
330
E1
100
AcDbEntity
  8
0
 62
     0
100
AcDbTrace
 10
-1.0
 20
-0.1
 30
0.0
 11
0.0
 21
0.0
 31
0.0
 12
-1.0
 22
0.1
 32
0.0
 13
-1.0
 23
-0.1
 33
0.0
  0
LINE
  5
EC
330
E1
100
AcDbEntity
  8
0
 62
     0
100
AcDbLine
 10
-1.0
 20
-0.1
 30
0.0
 11
0.0
 21
0.0
 31
0.0
  0
LINE
  5
ED
330
E1
100
AcDbEntity
  8
0
 62
     0
100
AcDbLine
 10
0.0
 20
0.0
 30
0.0
 11
-1.0
 21
0.1
 31
0.0
  0
LINE
  5
EE
330
E1
100
AcDbEntity
  8
0
 62
     0
100
AcDbLine
 10
-1.0
 20
0.1
 30
0.0
 11
-1.0
 21
-0.1
 31
0.0
  0
ENDBLK
  5
E3
330
E1
100
AcDbEntity
  8
0
100
AcDbBlockEnd
  0
BLOCK
  5
F1
330
F0
100
AcDbEntity
  8
0
100
AcDbBlockBegin
  2
Carbonitrieren
 70
     0
 10
0.0
 20
0.0
 30
0.0
  3
Carbonitrieren
  1

  0
MTEXT
  5
F3
330
F0
100
AcDbEntity
  8
Titel (ISO)
100
AcDbMText
 10
-75.71151256561281
 20
15.48921793699264
 30
0.0
 40
3.499999940395355
 41
147.2330421884934
 46
0.0
 71
     1
 72
     1
  3
- Carbonitriert: 0.3 ±0.1 tief;HV 500...600 (Prüfkraft DIN 50133)\P- elektrolytisch verkupfert 1-2µ, el. vernickelt 8-10µ\fArial|b0|i0;\H3.3000;\P\fArial|b0|i0;\H3.5000;- Entspröden: glühen 190-210°C, ca 3h innerhalb 4h nach Veredelung\P \P-TriboCoat
  1
ing TC D1050, 4...8µ\P 
  7
_Schriftfeld_3.5mm
 73
     2
 44
0.9442214965820312
  0
ENDBLK
  5
F2
330
F0
100
AcDbEntity
  8
0
100
AcDbBlockEnd
  0
BLOCK
  5
F6
330
F5
100
AcDbEntity
  8
0
100
AcDbBlockBegin
  2
Federangaben
 70
     0
 10
0.0
 20
0.0
 30
0.0
  3
Federangaben
  1

  0
MTEXT
  5
F8
330
F5
100
AcDbEntity
  8
Titel (ISO)
100
AcDbMText
 10
-23.02877426147463
 20
32.04377174377441
 30
0.0
 40
3.499999940395355
 41
201.4264025634256
 46
0.0
 71
     1
 72
     1
  1
getrommelt\Pzunderfrei\Pohne Druckstellen\Pund Sicken\P \PEinfederung ...°\PMd ... Nmm\PSb ... N/mm2\P \PWindungszahl ...\P50 HRc +/- 2 eingeölt\P 
  7
_Schriftfeld_3.5mm
 73
     2
 44
0.9442216157913208
  0
ENDBLK
  5
F7
330
F5
100
AcDbEntity
  8
0
100
AcDbBlockEnd
  0
BLOCK
  5
FA
330
F9
100
AcDbEntity
  8
0
100
AcDbBlockBegin
  2
Nassschliff
 70
     0
 10
0.0
 20
0.0
 30
0.0
  3
Nassschliff
  1

  0
MTEXT
  5
FC
330
F9
100
AcDbEntity
  8
Titel (ISO)
100
AcDbMText
 10
-59.37195301055908
 20
2.29287352412939
 30
0.0
 40
3.499999940395355
 41
0.0
 46
0.0
 71
     1
 72
     1
  1
Verfahren IV: Nassschliff, Korn 220-240, Folie einseitig
  7
_Schriftfeld_3.5mm
 73
     1
 44
1.0
  0
ENDBLK
  5
FB
330
F9
100
AcDbEntity
  8
0
100
AcDbBlockEnd
  0
BLOCK
  5
FE
330
FD
100
AcDbEntity
  8
0
100
AcDbBlockBegin
  2
Schleiffrichtung horizontal
 70
     0
 10
0.0
 20
0.0
 30
0.0
  3
Schleiffrichtung horizontal
  1

  0
HATCH
  5
103
330
FD
100
AcDbEntity
  8
Schraffur (ISO)
100
AcDbHatch
 10
0.0
 20
0.0
 30
0.0
210
0.0
220
0.0
230
1.0
  2
SOLID
 70
     1
 71
     0
 91
        1
 92
        1
 93
        3
 72
     1
 10
-20.0
 20
0.0
 11
-17.50000000000001
 21
-0.4999999999999895
 72
     1
 10
-17.50000000000001
 20
-0.4999999999999895
 11
-17.50000000000001
 21
0.5000000000000071
 72
     1
 10
-17.50000000000001
 20
0.5000000000000071
 11
-20.0
 21
0.0
 97
        0
 75
     0
 76
     1
 98
        1
 10
0.0
 20
0.0
450
        0
451
        0
460
0.0
461
0.0
452
        0
462
0.0
453
        0
470

  0
HATCH
  5
107
330
FD
100
AcDbEntity
  8
Schraffur (ISO)
100
AcDbHatch
 10
0.0
 20
0.0
 30
0.0
210
0.0
220
0.0
230
1.0
  2
SOLID
 70
     1
 71
     0
 91
        1
 92
        1
 93
        3
 72
     1
 10
19.99999999999998
 20
0.0
 11
17.5
 21
0.5000000000000071
 72
     1
 10
17.5
 20
0.5000000000000071
 11
17.49999999999998
 21
-0.4999999999999894
 72
     1
 10
17.49999999999998
 20
-0.4999999999999895
 11
19.99999999999998
 21
0.0
 97
        0
 75
     0
 76
     1
 98
        1
 10
0.0
 20
0.0
450
        0
451
        0
460
0.0
461
0.0
452
        0
462
0.0
453
        0
470

  0
LINE
  5
108
330
FD
100
AcDbEntity
  8
Titel (ISO)
370
    25
100
AcDbLine
 10
-20.0
 20
0.0
 30
0.0
 11
19.99999999999998
 21
0.0
 31
0.0
  0
LINE
  5
109
330
FD
100
AcDbEntity
  8
Titel (ISO)
100
AcDbLine
 10
19.99999999999998
 20
0.0
 30
0.0
 11
17.5
 21
0.5000000000000071
 31
0.0
  0
LINE
  5
10A
330
FD
100
AcDbEntity
  8
Titel (ISO)
100
AcDbLine
 10
17.5
 20
0.5000000000000071
 30
0.0
 11
17.49999999999998
 21
-0.4999999999999895
 31
0.0
  0
LINE
  5
10B
330
FD
100
AcDbEntity
  8
Titel (ISO)
100
AcDbLine
 10
17.49999999999998
 20
-0.4999999999999895
 30
0.0
 11
19.99999999999998
 21
0.0
 31
0.0
  0
LINE
  5
10C
330
FD
100
AcDbEntity
  8
Titel (ISO)
100
AcDbLine
 10
-17.50000000000001
 20
0.5000000000000071
 30
0.0
 11
-20.0
 21
0.0
 31
0.0
  0
LINE
  5
10D
330
FD
100
AcDbEntity
  8
Titel (ISO)
100
AcDbLine
 10
-20.0
 20
0.0
 30
0.0
 11
-17.50000000000001
 21
-0.4999999999999895
 31
0.0
  0
LINE
  5
10E
330
FD
100
AcDbEntity
  8
Titel (ISO)
100
AcDbLine
 10
-17.50000000000001
 20
-0.4999999999999895
 30
0.0
 11
-17.50000000000001
 21
0.5000000000000071
 31
0.0
  0
MTEXT
  5
10F
330
FD
100
AcDbEntity
  8
Titel (ISO)
100
AcDbMText
 10
-15.50000000000001
 20
5.0
 30
0.0
 40
3.499999940395355
 41
0.0
 46
0.0
 71
     1
 72
     1
  1
Schliffrichtung
  7
_Schriftfeld_3.5mm
 73
     1
 44
1.0
  0
ENDBLK
  5
FF
330
FD
100
AcDbEntity
  8
0
100
AcDbBlockEnd
  0
BLOCK
  5
111
330
110
100
AcDbEntity
  8
0
100
AcDbBlockBegin
  2
Schleiffrichtung vertikal
 70
     0
 10
0.0
 20
0.0
 30
0.0
  3
Schleiffrichtung vertikal
  1

  0
HATCH
  5
116
330
110
100
AcDbEntity
  8
Schraffur (ISO)
100
AcDbHatch
 10
0.0
 20
0.0
 30
0.0
210
0.0
220
0.0
230
1.0
  2
SOLID
 70
     1
 71
     0
 91
        1
 92
        1
 93
        3
 72
     1
 10
0.0
 20
-20.0
 11
0.4999999999999984
 21
-17.5
 72
     1
 10
0.4999999999999984
 20
-17.5
 11
-0.4999999999999984
 21
-17.5
 72
     1
 10
-0.4999999999999984
 20
-17.5
 11
0.0
 21
-20.0
 97
        0
 75
     0
 76
     1
 98
        1
 10
0.0
 20
0.0
450
        0
451
        0
460
0.0
461
0.0
452
        0
462
0.0
453
        0
470

  0
HATCH
  5
11A
330
110
100
AcDbEntity
  8
Schraffur (ISO)
100
AcDbHatch
 10
0.0
 20
0.0
 30
0.0
210
0.0
220
0.0
230
1.0
  2
SOLID
 70
     1
 71
     0
 91
        1
 92
        1
 93
        3
 72
     1
 10
0.0
 20
20.0
 11
-0.5000000000000071
 21
17.5
 72
     1
 10
-0.5000000000000071
 20
17.5
 11
0.4999999999999983
 21
17.5
 72
     1
 10
0.4999999999999984
 20
17.5
 11
0.0
 21
20.0
 97
        0
 75
     0
 76
     1
 98
        1
 10
0.0
 20
0.0
450
        0
451
        0
460
0.0
461
0.0
452
        0
462
0.0
453
        0
470

  0
LINE
  5
11B
330
110
100
AcDbEntity
  8
Titel (ISO)
370
    25
100
AcDbLine
 10
0.0
 20
-20.0
 30
0.0
 11
0.0
 21
20.0
 31
0.0
  0
LINE
  5
11C
330
110
100
AcDbEntity
  8
Titel (ISO)
100
AcDbLine
 10
0.0
 20
20.0
 30
0.0
 11
-0.5000000000000071
 21
17.5
 31
0.0
  0
LINE
  5
11D
330
110
100
AcDbEntity
  8
Titel (ISO)
100
AcDbLine
 10
-0.5000000000000071
 20
17.5
 30
0.0
 11
0.4999999999999984
 21
17.5
 31
0.0
  0
LINE
  5
11E
330
110
100
AcDbEntity
  8
Titel (ISO)
100
AcDbLine
 10
0.4999999999999984
 20
17.5
 30
0.0
 11
0.0
 21
20.0
 31
0.0
  0
LINE
  5
11F
330
110
100
AcDbEntity
  8
Titel (ISO)
100
AcDbLine
 10
-0.4999999999999984
 20
-17.5
 30
0.0
 11
0.0
 21
-20.0
 31
0.0
  0
LINE
  5
120
330
110
100
AcDbEntity
  8
Titel (ISO)
100
AcDbLine
 10
0.0
 20
-20.0
 30
0.0
 11
0.4999999999999984
 21
-17.5
 31
0.0
  0
LINE
  5
121
330
110
100
AcDbEntity
  8
Titel (ISO)
100
AcDbLine
 10
0.4999999999999984
 20
-17.5
 30
0.0
 11
-0.4999999999999984
 21
-17.5
 31
0.0
  0
MTEXT
  5
122
330
110
100
AcDbEntity
  8
Titel (ISO)
100
AcDbMText
 10
-5.0
 20
-15.5
 30
0.0
 40
3.499999940395355
 41
0.0
 46
0.0
 71
     1
 72
     1
  1
Schliffrichtung
  7
_Schriftfeld_3.5mm
 11
0.0000000000000001
 21
1.0
 31
0.0
 73
     1
 44
1.0
  0
ENDBLK
  5
112
330
110
100
AcDbEntity
  8
0
100
AcDbBlockEnd
  0
BLOCK
  5
124
330
123
100
AcDbEntity
  8
0
100
AcDbBlockBegin
  2
Stanz-_Laserteil
 70
     0
 10
0.0
 20
0.0
 30
0.0
  3
Stanz-_Laserteil
  1

  0
MTEXT
  5
126
330
123
100
AcDbEntity
  8
Titel (ISO)
100
AcDbMText
 10
-49.3854808807373
 20
9.981259405612943
 30
0.0
 40
3.499999940395355
 41
193.6792332340631
 46
0.0
 71
     1
 72
     1
  1
Als Stanzteil konzipiert\PWenn als Laserteil hergestellt, \Pmuss ganze Kontur innerhalb +/- 0.1 mm sein\P
  7
_Schriftfeld_3.5mm
 73
     2
 44
0.9442214965820312
  0
ENDBLK
  5
125
330
123
100
AcDbEntity
  8
0
100
AcDbBlockEnd
  0
BLOCK
  5
128
330
127
100
AcDbEntity
  8
0
100
AcDbBlockBegin
  2
Stanzrundung_1
 70
     0
 10
0.0
 20
0.0
 30
0.0
  3
Stanzrundung_1
  1

  0
ARC
  5
12A
330
127
100
AcDbEntity
  8
Titel (ISO)
100
AcDbCircle
 10
-2.44997217222222
 20
1.477407396909721
 30
0.0
 40
1.999999999999999
100
AcDbArc
 50
270.0
 51
0.0
  0
LINE
  5
12B
330
127
100
AcDbEntity
  8
Titel (ISO)
100
AcDbLine
 10
-1.049223178106464
 20
0.0498562575512551
 30
0.0
 11
2.449972272222211
 21
-1.477407496909711
 31
0.0
  0
MTEXT
  5
12C
330
127
100
AcDbEntity
  8
Titel (ISO)
100
AcDbMText
 10
3.130367236014626
 20
-0.28633610801851
 30
0.0
 40
3.499999940395355
 41
0.0
 46
0.0
 71
     1
 72
     1
  1
Stanzrundung
  7
_Schriftfeld_3.5mm
 73
     1
 44
1.0
  0
ENDBLK
  5
129
330
127
100
AcDbEntity
  8
0
100
AcDbBlockEnd
  0
BLOCK
  5
12E
330
12D
100
AcDbEntity
  8
0
100
AcDbBlockBegin
  2
Stanzrundung_2
 70
     0
 10
0.0
 20
0.0
 30
0.0
  3
Stanzrundung_2
  1

  0
ARC
  5
130
330
12D
100
AcDbEntity
  8
Titel (ISO)
100
AcDbCircle
 10
1.855973276181241
 20
1.952432954041681
 30
0.0
 40
1.566421450686395
100
AcDbArc
 50
180.0
 51
270.0
  0
LINE
  5
131
330
12D
100
AcDbEntity
  8
Titel (ISO)
100
AcDbLine
 10
-1.855973376181214
 20
-1.952433054041673
 30
0.0
 11
0.776746247326834
 21
0.8171157378590976
 31
0.0
  0
MTEXT
  5
132
330
12D
100
AcDbEntity
  8
Titel (ISO)
100
AcDbMText
 10
-35.05451959893437
 20
-0.5734039390297241
 30
0.0
 40
3.499999940395355
 41
0.0
 46
0.0
 71
     1
 72
     1
  1
Stanzrundung
  7
_Schriftfeld_3.5mm
 73
     1
 44
1.0
  0
ENDBLK
  5
12F
330
12D
100
AcDbEntity
  8
0
100
AcDbBlockEnd
  0
BLOCK
  5
134
330
133
100
AcDbEntity
  8
0
100
AcDbBlockBegin
  2
Verzinkt
 70
     0
 10
0.0
 20
0.0
 30
0.0
  3
Verzinkt
  1

  0
MTEXT
  5
136
330
133
100
AcDbEntity
  8
Titel (ISO)
100
AcDbMText
 10
-34.96665477752687
 20
2.242187596857546
 30
0.0
 40
3.499999940395355
 41
0.0
 46
0.0
 71
     1
 72
     1
  1
verzinkt und blau passiviert 8µm
  7
_Schriftfeld_3.5mm
 73
     1
 44
1.0
  0
ENDBLK
  5
135
330
133
100
AcDbEntity
  8
0
100
AcDbBlockEnd
  0
BLOCK
  5
138
330
137
100
AcDbEntity
  8
0
100
AcDbBlockBegin
  2
Vierkant-Tabelle
 70
     0
 10
0.0
 20
0.0
 30
0.0
  3
Vierkant-Tabelle
  1

  0
LINE
  5
13A
330
137
100
AcDbEntity
  8
Titel (ISO)
 62
     7
100
AcDbLine
 10
-33.99999999999998
 20
-24.00000000000006
 30
0.0
 11
33.99999999999999
 21
-23.99999999999999
 31
0.0
  0
LINE
  5
13B
330
137
100
AcDbEntity
  8
Titel (ISO)
 62
     7
100
AcDbLine
 10
-33.99999999999999
 20
0.0
 30
0.0
 11
33.99999999999999
 21
0.0
 31
0.0
  0
LINE
  5
13C
330
137
100
AcDbEntity
  8
Titel (ISO)
 62
     7
100
AcDbLine
 10
-33.99999999999999
 20
23.99999999999999
 30
0.0
 11
33.99999999999999
 21
24.00000000000006
 31
0.0
  0
LINE
  5
13D
330
137
100
AcDbEntity
  8
Titel (ISO)
 62
     7
100
AcDbLine
 10
-33.99999999999999
 20
15.99999999999998
 30
0.0
 11
34.0
 21
16.00000000000005
 31
0.0
  0
LINE
  5
13E
330
137
100
AcDbEntity
  8
Titel (ISO)
 62
     7
100
AcDbLine
 10
-33.99999999999999
 20
7.999999999999971
 30
0.0
 11
34.0
 21
8.000000000000042
 31
0.0
  0
LINE
  5
13F
330
137
100
AcDbEntity
  8
Titel (ISO)
 62
     7
100
AcDbLine
 10
-33.99999999999999
 20
-8.000000000000042
 30
0.0
 11
33.99999999999999
 21
-7.999999999999971
 31
0.0
  0
LINE
  5
140
330
137
100
AcDbEntity
  8
Titel (ISO)
 62
     7
100
AcDbLine
 10
-33.99999999999999
 20
-16.00000000000005
 30
0.0
 11
33.99999999999999
 21
-15.99999999999998
 31
0.0
  0
LINE
  5
141
330
137
100
AcDbEntity
  8
Titel (ISO)
 62
     7
100
AcDbLine
 10
-25.99999999999997
 20
-24.00000000000006
 30
0.0
 11
-26.0
 21
23.99999999999999
 31
0.0
  0
LINE
  5
142
330
137
100
AcDbEntity
  8
Titel (ISO)
 62
     7
100
AcDbLine
 10
-33.99999999999998
 20
-24.00000000000006
 30
0.0
 11
-33.99999999999999
 21
23.99999999999999
 31
0.0
  0
LINE
  5
143
330
137
100
AcDbEntity
  8
Titel (ISO)
 62
     7
100
AcDbLine
 10
-5.999999999999968
 20
-24.00000000000002
 30
0.0
 11
-5.999999999999996
 21
24.00000000000002
 31
0.0
  0
LINE
  5
144
330
137
100
AcDbEntity
  8
Titel (ISO)
 62
     7
100
AcDbLine
 10
13.99999999999999
 20
-24.00000000000002
 30
0.0
 11
14.0
 21
24.00000000000002
 31
0.0
  0
LINE
  5
145
330
137
100
AcDbEntity
  8
Titel (ISO)
 62
     7
100
AcDbLine
 10
33.99999999999999
 20
-23.99999999999999
 30
0.0
 11
33.99999999999999
 21
24.00000000000006
 31
0.0
  0
MTEXT
  5
146
330
137
100
AcDbEntity
  8
Titel (ISO)
100
AcDbMText
 10
-31.0
 20
-9.999999850988423
 30
0.0
 40
2.5
 41
0.0
 46
0.0
 71
     1
 72
     1
  1
\fArial|b0|i0;\W0.60;\H2.5000;4
  7
_Schriftfeld_3.5mm
 73
     1
 44
1.0
  0
MTEXT
  5
147
330
137
100
AcDbEntity
  8
Titel (ISO)
100
AcDbMText
 10
-31.0
 20
5.999999999999976
 30
0.0
 40
2.5
 41
0.0
 46
0.0
 71
     1
 72
     1
  1
\fArial|b0|i0;\W0.60;\H2.5000;2
  7
_Schriftfeld_3.5mm
 73
     1
 44
1.0
  0
MTEXT
  5
148
330
137
100
AcDbEntity
  8
Titel (ISO)
100
AcDbMText
 10
-31.42346487563099
 20
21.00000014901159
 30
0.0
 40
2.5
 41
0.0
 46
0.0
 71
     1
 72
     1
  1
\fArial|b0|i0;\W0.65;\H2.5000;Pos.
  7
_Schriftfeld_3.5mm
 73
     1
 44
1.0
  0
MTEXT
  5
149
330
137
100
AcDbEntity
  8
Titel (ISO)
100
AcDbMText
 10
-31.0
 20
13.99999999999998
 30
0.0
 40
2.5
 41
0.0
 46
0.0
 71
     1
 72
     1
  1
\fArial|b0|i0;\W0.60;\H2.5000;1
  7
_Schriftfeld_3.5mm
 73
     1
 44
1.0
  0
MTEXT
  5
14A
330
137
100
AcDbEntity
  8
Titel (ISO)
100
AcDbMText
 10
-0.9999999999999964
 20
-18.00000000000004
 30
0.0
 40
2.5
 41
0.0
 46
0.0
 71
     1
 72
     1
  1
\fArial|b0|i0;\W0.88;\H2.5000;4kt. 10
  7
_Schriftfeld_3.5mm
 73
     1
 44
1.0
  0
MTEXT
  5
14B
330
137
100
AcDbEntity
  8
Titel (ISO)
100
AcDbMText
 10
-21.0
 20
-18.00000000000004
 30
0.0
 40
2.5
 41
0.0
 46
0.0
 71
     1
 72
     1
  1
\fAIGDT|b0|i0;\W0.65;\H2.5000;n\fArial|b0|i0;\W0.65;\H2.5000; 11.5
  7
_Schriftfeld_3.5mm
 73
     1
 44
1.0
  0
MTEXT
  5
14C
330
137
100
AcDbEntity
  8
Titel (ISO)
100
AcDbMText
 10
19.0
 20
-18.00000000000004
 30
0.0
 40
2.5
 41
0.0
 46
0.0
 71
     1
 72
     1
  1
\fArial|b0|i0;\W0.88;\H2.5000;13.6
  7
_Schriftfeld_3.5mm
 73
     1
 44
1.0
  0
MTEXT
  5
14D
330
137
100
AcDbEntity
  8
Titel (ISO)
100
AcDbMText
 10
-3.999999999999993
 20
21.00000014901159
 30
0.0
 40
2.5
 41
0.0
 46
0.0
 71
     1
 72
     1
  1
\fArial|b0|i0;\W0.78;\H2.5000;Mass B
  7
_Schriftfeld_3.5mm
 73
     1
 44
1.0
  0
MTEXT
  5
14E
330
137
100
AcDbEntity
  8
Titel (ISO)
100
AcDbMText
 10
-0.9999999999999964
 20
5.999999999999976
 30
0.0
 40
2.5
 41
0.0
 46
0.0
 71
     1
 72
     1
  1
\fArial|b0|i0;\W0.90;\H2.5000;4kt.  8
  7
_Schriftfeld_3.5mm
 73
     1
 44
1.0
  0
MTEXT
  5
14F
330
137
100
AcDbEntity
  8
Titel (ISO)
100
AcDbMText
 10
-0.9999999999999964
 20
-2.000000000000027
 30
0.0
 40
2.5
 41
0.0
 46
0.0
 71
     1
 72
     1
  1
\fArial|b0|i0;\W0.83;\H2.5000;4kt. 8.5
  7
_Schriftfeld_3.5mm
 73
     1
 44
1.0
  0
MTEXT
  5
150
330
137
100
AcDbEntity
  8
Titel (ISO)
100
AcDbMText
 10
-0.9999999999999964
 20
14.00000014901159
 30
0.0
 40
2.5
 41
0.0
 46
0.0
 71
     1
 72
     1
  1
\fArial|b0|i0;\W0.90;\H2.5000;4kt.  7
  7
_Schriftfeld_3.5mm
 73
     1
 44
1.0
  0
MTEXT
  5
151
330
137
100
AcDbEntity
  8
Titel (ISO)
100
AcDbMText
 10
-0.9999999999999964
 20
-10.00000000000003
 30
0.0
 40
2.5
 41
0.0
 46
0.0
 71
     1
 72
     1
  1
\fArial|b0|i0;\W0.90;\H2.5000;4kt.  9
  7
_Schriftfeld_3.5mm
 73
     1
 44
1.0
  0
MTEXT
  5
152
330
137
100
AcDbEntity
  8
Titel (ISO)
100
AcDbMText
 10
-21.0
 20
-2.000000000000027
 30
0.0
 40
2.5
 41
0.0
 46
0.0
 71
     1
 72
     1
  1
\fAIGDT|b0|i0;\W0.76;\H2.5000;n\fArial|b0|i0;\W0.76;\H2.5000; 10.5
  7
_Schriftfeld_3.5mm
 73
     1
 44
1.0
  0
MTEXT
  5
153
330
137
100
AcDbEntity
  8
Titel (ISO)
100
AcDbMText
 10
-21.0
 20
5.999999999999976
 30
0.0
 40
2.5
 41
0.0
 46
0.0
 71
     1
 72
     1
  1
\fAIGDT|b0|i0;\W0.73;\H2.5000;n\fArial|b0|i0;\W0.73;\H2.5000; 10
  7
_Schriftfeld_3.5mm
 73
     1
 44
1.0
  0
MTEXT
  5
154
330
137
100
AcDbEntity
  8
Titel (ISO)
100
AcDbMText
 10
-21.0
 20
-10.00000000000003
 30
0.0
 40
2.5
 41
0.0
 46
0.0
 71
     1
 72
     1
  1
\fAIGDT|b0|i0;\W0.69;\H2.5000;n\fArial|b0|i0;\W0.69;\H2.5000; 11
  7
_Schriftfeld_3.5mm
 73
     1
 44
1.0
  0
MTEXT
  5
155
330
137
100
AcDbEntity
  8
Titel (ISO)
100
AcDbMText
 10
-21.0
 20
13.99999999999998
 30
0.0
 40
2.5
 41
0.0
 46
0.0
 71
     1
 72
     1
  1
\fAIGDT|b0|i0;\W0.84;\H2.5000;n\fArial|b0|i0;\W0.84;\H2.5000; 8
  7
_Schriftfeld_3.5mm
 73
     1
 44
1.0
  0
MTEXT
  5
156
330
137
100
AcDbEntity
  8
Titel (ISO)
100
AcDbMText
 10
-22.02576666302078
 20
21.00000014901159
 30
0.0
 40
2.5
 41
0.0
 46
0.0
 71
     1
 72
     1
  1
\fArial|b0|i0;\W0.79;\H2.5000;Mass A
  7
_Schriftfeld_3.5mm
 73
     1
 44
1.0
  0
MTEXT
  5
157
330
137
100
AcDbEntity
  8
Titel (ISO)
100
AcDbMText
 10
-31.0
 20
-17.96760666370396
 30
0.0
 40
2.5
 41
0.0
 46
0.0
 71
     1
 72
     1
  1
\fArial|b0|i0;\W0.56;\H2.5000;5
  7
_Schriftfeld_3.5mm
 73
     1
 44
1.0
  0
MTEXT
  5
158
330
137
100
AcDbEntity
  8
Titel (ISO)
100
AcDbMText
 10
19.0
 20
-2.000000000000027
 30
0.0
 40
2.5
 41
0.0
 46
0.0
 71
     1
 72
     1
  1
\fArial|b0|i0;\W0.83;\H2.5000;12
  7
_Schriftfeld_3.5mm
 73
     1
 44
1.0
  0
MTEXT
  5
159
330
137
100
AcDbEntity
  8
Titel (ISO)
100
AcDbMText
 10
19.0
 20
5.999999999999976
 30
0.0
 40
2.5
 41
0.0
 46
0.0
 71
     1
 72
     1
  1
\fArial|b0|i0;\W0.90;\H2.5000;11.3
  7
_Schriftfeld_3.5mm
 73
     1
 44
1.0
  0
MTEXT
  5
15A
330
137
100
AcDbEntity
  8
Titel (ISO)
100
AcDbMText
 10
16.0
 20
20.99999999999998
 30
0.0
 40
2.5
 41
0.0
 46
0.0
 71
     1
 72
     1
  1
\fArial|b0|i0;\W0.78;\H2.5000;Mass C
  7
_Schriftfeld_3.5mm
 73
     1
 44
1.0
  0
MTEXT
  5
15B
330
137
100
AcDbEntity
  8
Titel (ISO)
100
AcDbMText
 10
19.0
 20
-10.00000000000003
 30
0.0
 40
2.5
 41
0.0
 46
0.0
 71
     1
 72
     1
  1
\fArial|b0|i0;\W0.90;\H2.5000;12.7
  7
_Schriftfeld_3.5mm
 73
     1
 44
1.0
  0
MTEXT
  5
15C
330
137
100
AcDbEntity
  8
Titel (ISO)
100
AcDbMText
 10
19.0
 20
13.99999999999998
 30
0.0
 40
2.5
 41
0.0
 46
0.0
 71
     1
 72
     1
  1
\fArial|b0|i0;\W0.90;\H2.5000;10
  7
_Schriftfeld_3.5mm
 73
     1
 44
1.0
  0
MTEXT
  5
15D
330
137
100
AcDbEntity
  8
Titel (ISO)
100
AcDbMText
 10
7.52309499999999
 20
23.50279363516371
 30
0.0
 40
2.5
 41
0.0
 46
0.0
 71
     1
 72
     1
  1
\fArial|b0|i0;\W0.68;\H2.5000;+0.05
  7
_Schriftfeld_3.5mm
 73
     1
 44
1.0
  0
MTEXT
  5
15E
330
137
100
AcDbEntity
  8
Titel (ISO)
100
AcDbMText
 10
28.821548797772
 20
20.00279363516373
 30
0.0
 40
2.5
 41
0.0
 46
0.0
 71
     1
 72
     1
  1
\fArial|b0|i0;\W0.63;\H2.5000;0
  7
_Schriftfeld_3.5mm
 73
     1
 44
1.0
  0
MTEXT
  5
15F
330
137
100
AcDbEntity
  8
Titel (ISO)
100
AcDbMText
 10
27.523095
 20
23.50279363516371
 30
0.0
 40
2.5
 41
0.0
 46
0.0
 71
     1
 72
     1
  1
\fArial|b0|i0;\W0.68;\H2.5000;+0.2
  7
_Schriftfeld_3.5mm
 73
     1
 44
1.0
  0
MTEXT
  5
160
330
137
100
AcDbEntity
  8
Titel (ISO)
100
AcDbMText
 10
-31.0
 20
-2.000000000000027
 30
0.0
 40
2.5
 41
0.0
 46
0.0
 71
     1
 72
     1
  1
\fArial|b0|i0;\W0.60;\H2.5000;3
  7
_Schriftfeld_3.5mm
 73
     1
 44
1.0
  0
MTEXT
  5
161
330
137
100
AcDbEntity
  8
Titel (ISO)
100
AcDbMText
 10
7.52309499999999
 20
20.00279363516373
 30
0.0
 40
2.5
 41
0.0
 46
0.0
 71
     1
 72
     1
  1
\fArial|b0|i0;\W0.63;\H2.5000;+0.01
  7
_Schriftfeld_3.5mm
 73
     1
 44
1.0
  0
ENDBLK
  5
139
330
137
100
AcDbEntity
  8
0
100
AcDbBlockEnd
  0
BLOCK
  5
163
330
162
100
AcDbEntity
  8
0
100
AcDbBlockBegin
  2
Laserpunkt_Text
 70
     0
 10
0.0
 20
0.0
 30
0.0
  3
Laserpunkt_Text
  1

  0
CIRCLE
  5
165
330
162
100
AcDbEntity
  8
Skizziergeometrie(DIN)
370
    70
100
AcDbCircle
 10
3.715998998176778
 20
2.645602535338599
 30
0.0
 40
2.250000000000003
  0
LINE
  5
166
330
162
100
AcDbEntity
  8
Skizziergeometrie(DIN)
370
    70
100
AcDbLine
 10
6.014096037033062
 20
0.3475054964822988
 30
0.0
 11
1.417901959320495
 21
4.943699574194866
 31
0.0
  0
LINE
  5
167
330
162
100
AcDbEntity
  8
Skizziergeometrie(DIN)
370
    70
100
AcDbLine
 10
1.417901959320513
 20
0.3475054964822988
 30
0.0
 11
6.01409603703308
 21
4.943699574194866
 31
0.0
  0
MTEXT
  5
168
330
162
100
AcDbEntity
  8
Symbole(DIN)
 62
   179
420
  2500185
100
AcDbMText
 10
0.0
 20
-0.1396086563666721
 30
0.0
 40
3.499999940395355
 41
0.0
 46
0.0
 71
     7
 72
     1
  1
Kontur gelasert nach DXF-File\P      = Anfang/Ende Laserkontur 
  7
Aktuell-DIN
 73
     2
 44
0.9442214965820312
  0
ENDBLK
  5
164
330
162
100
AcDbEntity
  8
0
100
AcDbBlockEnd
  0
BLOCK
  5
16A
330
169
100
AcDbEntity
  8
0
100
AcDbBlockBegin
  2
Laserpunkt
 70
     0
 10
0.0
 20
0.0
 30
0.0
  3
Laserpunkt
  1

  0
CIRCLE
  5
16C
330
169
100
AcDbEntity
  8
Skizziergeometrie(DIN)
370
    70
100
AcDbCircle
 10
0.0
 20
0.0
 30
0.0
 40
2.250000000000003
  0
LINE
  5
16D
330
169
100
AcDbEntity
  8
Skizziergeometrie(DIN)
370
    70
100
AcDbLine
 10
2.298097038856282
 20
-2.2980970388563
 30
0.0
 11
-2.298097038856282
 21
2.298097038856266
 31
0.0
  0
LINE
  5
16E
330
169
100
AcDbEntity
  8
Skizziergeometrie(DIN)
370
    70
100
AcDbLine
 10
-2.298097038856266
 20
-2.2980970388563
 30
0.0
 11
2.2980970388563
 21
2.298097038856266
 31
0.0
  0
ENDBLK
  5
16B
330
169
100
AcDbEntity
  8
0
100
AcDbBlockEnd
  0
BLOCK
  5
170
330
16F
100
AcDbEntity
  8
0
100
AcDbBlockBegin
  2
Kantenbruch
 70
     2
 10
0.0
 20
0.0
 30
0.0
  3
Kantenbruch
  1

  0
HATCH
  5
175
330
16F
100
AcDbEntity
  8
Schraffur
100
AcDbHatch
 10
0.0
 20
0.0
 30
0.0
210
0.0
220
0.0
230
1.0
  2
SOLID
 70
     1
 71
     0
 91
        1
 92
        1
 93
        3
 72
     1
 10
2.551045103405299
 20
2.440182479852524
 11
0.0
 21
0.0
 72
     1
 10
0.0
 20
0.0
 11
1.832554653580372
 21
3.017294333708306
 72
     1
 10
1.832554653580372
 20
3.017294333708306
 11
2.551045103405299
 21
2.440182479852524
 97
        0
 75
     0
 76
     1
 98
        1
 10
0.0
 20
0.0
450
        0
451
        0
460
0.0
461
0.0
452
        0
462
0.0
453
        0
470

  0
HATCH
  5
179
330
16F
100
AcDbEntity
  8
Schraffur
100
AcDbHatch
 10
0.0
 20
0.0
 30
0.0
210
0.0
220
0.0
230
1.0
  2
SOLID
 70
     1
 71
     0
 91
        1
 92
        1
 93
        3
 72
     1
 10
23.39589716406273
 20
3.017294333708662
 11
21.56334251048213
 21
0.0
 72
     1
 10
21.56334251048213
 20
0.0
 11
24.11438761388769
 21
2.440182479852808
 72
     1
 10
24.11438761388769
 20
2.440182479852808
 11
23.39589716406273
 21
3.017294333708662
 97
        0
 75
     0
 76
     1
 98
        1
 10
0.0
 20
0.0
450
        0
451
        0
460
0.0
461
0.0
452
        0
462
0.0
453
        0
470

  0
LINE
  5
17A
330
16F
100
AcDbEntity
  8
AM_5
  6
Continuous
 62
     7
100
AcDbLine
 10
14.41413346606271
 20
6.589009726759619
 30
0.0
 11
5.486542746190784
 21
6.589009726759619
 31
0.0
  0
LINE
  5
17B
330
16F
100
AcDbEntity
  8
AM_5
  6
Continuous
 62
     7
100
AcDbLine
 10
6.021339289383168
 20
7.425192947268967
 30
0.0
 11
10.92133928938317
 21
7.425192947268967
 31
0.0
  0
LINE
  5
17C
330
16F
100
AcDbEntity
  8
AM_5
  6
Continuous
 62
     7
100
AcDbLine
 10
6.021339289383168
 20
12.32519294726897
 30
0.0
 11
6.021339289383168
 21
7.425192947268967
 31
0.0
  0
LINE
  5
17D
330
16F
100
AcDbEntity
  8
AM_5
  6
Continuous
 62
     7
100
AcDbLine
 10
27.49096644559973
 20
12.32519294726897
 30
0.0
 11
27.49096644559973
 21
7.425192947268967
 31
0.0
  0
LINE
  5
17E
330
16F
100
AcDbEntity
  8
AM_5
  6
Continuous
 62
     7
100
AcDbLine
 10
2.551045103405299
 20
2.440182479852559
 30
0.0
 11
1.832554653580372
 21
3.017294333708306
 31
0.0
  0
LINE
  5
17F
330
16F
100
AcDbEntity
  8
AM_5
 62
     7
100
AcDbLine
 10
5.486542746190784
 20
6.589009726759619
 30
0.0
 11
2.259523567491451
 21
2.674322428928999
 31
0.0
  0
LINE
  5
180
330
16F
100
AcDbEntity
  8
AM_5
  6
Continuous
 62
     7
100
AcDbLine
 10
0.0
 20
0.0
 30
0.0
 11
2.551045103405299
 21
2.440182479852524
 31
0.0
  0
LINE
  5
181
330
16F
100
AcDbEntity
  8
AM_5
  6
Continuous
 62
     7
100
AcDbLine
 10
21.56334251048156
 20
0.0
 30
0.0
 11
24.11438761388769
 21
2.440182479852808
 31
0.0
  0
LINE
  5
182
330
16F
100
AcDbEntity
  8
Skizziergeometrie(DIN)
100
AcDbLine
 10
2.551045103405299
 20
2.440182479852524
 30
0.0
 11
1.832554653580372
 21
3.017294333708306
 31
0.0
  0
LINE
  5
183
330
16F
100
AcDbEntity
  8
AM_5
  6
Continuous
 62
     7
100
AcDbLine
 10
1.832554653580372
 20
3.017294333708306
 30
0.0
 11
0.0
 21
0.0
 31
0.0
  0
LINE
  5
184
330
16F
100
AcDbEntity
  8
Skizziergeometrie(DIN)
100
AcDbLine
 10
1.832554653580372
 20
3.017294333708306
 30
0.0
 11
0.0
 21
0.0
 31
0.0
  0
LINE
  5
185
330
16F
100
AcDbEntity
  8
Skizziergeometrie(DIN)
100
AcDbLine
 10
0.0
 20
0.0
 30
0.0
 11
2.551045103405299
 21
2.440182479852524
 31
0.0
  0
LINE
  5
186
330
16F
100
AcDbEntity
  8
AM_0
370
    25
100
AcDbLine
 10
0.0
 20
0.0
 30
0.0
 11
-8.000000000000008
 21
0.0
 31
0.0
  0
LINE
  5
187
330
16F
100
AcDbEntity
  8
Skizziergeometrie(DIN)
370
    25
100
AcDbLine
 10
0.0
 20
0.0
 30
0.0
 11
0.0
 21
-7.999999999999997
 31
0.0
  0
LINE
  5
188
330
16F
100
AcDbEntity
  8
Skizziergeometrie(DIN)
100
AcDbLine
 10
24.11438761388769
 20
2.440182479852808
 30
0.0
 11
21.56334251048213
 21
0.0
 31
0.0
  0
LINE
  5
189
330
16F
100
AcDbEntity
  8
AM_5
  6
Continuous
 62
     7
100
AcDbLine
 10
27.49096644559973
 20
7.425192947268967
 30
0.0
 11
32.39096644559975
 21
7.425192947268967
 31
0.0
  0
LINE
  5
18A
330
16F
100
AcDbEntity
  8
AM_5
  6
Continuous
 62
     7
100
AcDbLine
 10
35.8837606222793
 20
6.589009726759619
 30
0.0
 11
26.95616990240735
 21
6.589009726759619
 31
0.0
  0
LINE
  5
18B
330
16F
100
AcDbEntity
  8
AM_5
  6
Continuous
 62
     7
100
AcDbLine
 10
26.95616990240735
 20
6.589009726759619
 30
0.0
 11
23.70310776989253
 21
2.640671625589323
 31
0.0
  0
LINE
  5
18C
330
16F
100
AcDbEntity
  8
Skizziergeometrie(DIN)
100
AcDbLine
 10
23.39589716406273
 20
3.017294333708662
 30
0.0
 11
24.11438761388769
 21
2.440182479852808
 31
0.0
  0
LINE
  5
18D
330
16F
100
AcDbEntity
  8
AM_5
  6
Continuous
 62
     7
100
AcDbLine
 10
24.11438761388677
 20
2.309315017511791
 30
0.0
 11
23.39589716406191
 21
2.886426871367539
 31
0.0
  0
LINE
  5
18E
330
16F
100
AcDbEntity
  8
AM_0
370
    25
100
AcDbLine
 10
21.56334251048213
 20
7.999999999999988
 30
0.0
 11
21.56334251048213
 21
0.0
 31
0.0
  0
LINE
  5
18F
330
16F
100
AcDbEntity
  8
AM_5
  6
Continuous
 62
     7
100
AcDbLine
 10
23.39589716406273
 20
3.017294333708662
 30
0.0
 11
21.56334251048213
 21
0.0
 31
0.0
  0
LINE
  5
190
330
16F
100
AcDbEntity
  8
Skizziergeometrie(DIN)
100
AcDbLine
 10
21.56334251048213
 20
0.0
 30
0.0
 11
23.39589716406273
 21
3.017294333708662
 31
0.0
  0
LINE
  5
191
330
16F
100
AcDbEntity
  8
AM_0
370
    25
100
AcDbLine
 10
21.56334251048145
 20
0.0
 30
0.0
 11
29.56334251048146
 21
0.0
 31
0.0
  0
ATTDEF
  5
193
102
{ACAD_XDICTIONARY
360
9E9
102
}
330
16F
100
AcDbEntity
  8
AM_5
 62
     7
100
AcDbText
 10
27.71846645364636
 20
13.12519300687362
 30
0.0
 40
3.499999940395355
  1
-1
 41
0.9
  7
Textstil122
100
AcDbAttributeDefinition
  3
Innenkante obere Grenze
  2
Innenkante_obere_Grenze_001
 70
     0
280
     0
  0
ATTDEF
  5
196
102
{ACAD_XDICTIONARY
360
9EC
102
}
330
16F
100
AcDbEntity
  8
AM_5
 62
     7
100
AcDbText
 10
27.71846645364636
 20
8.124504030507404
 30
0.0
 40
3.499999940395355
  1
-0.25
 41
0.9
  7
Textstil122
100
AcDbAttributeDefinition
  3
Innenkante untere Grenze
  2
Innenkante_untere_Grenze_001
 70
     0
280
     0
  0
ATTDEF
  5
197
102
{ACAD_XDICTIONARY
360
9EF
102
}
330
16F
100
AcDbEntity
  8
AM_5
 62
     7
100
AcDbText
 10
6.248839297429796
 20
13.12519300687362
 30
0.0
 40
3.499999940395355
  1
+0.3
 41
0.9
  7
Textstil122
100
AcDbAttributeDefinition
  3
Aussenkante obere Grenze
  2
Aussenkante_obere_Grenze_001
 70
     0
280
     0
  0
ATTDEF
  5
198
102
{ACAD_XDICTIONARY
360
9F2
102
}
330
16F
100
AcDbEntity
  8
AM_5
 62
     7
100
AcDbText
 10
6.248839297429796
 20
8.125193006873624
 30
0.0
 40
3.499999940395355
  1
+0.1
 41
0.9
  7
Textstil122
100
AcDbAttributeDefinition
  3
Aussenkante untere Grenze
  2
Aussenkante_untere_Grenze_001
 70
     0
280
     0
  0
ENDBLK
  5
171
330
16F
100
AcDbEntity
  8
0
100
AcDbBlockEnd
  0
BLOCK
  5
26E
330
26D
100
AcDbEntity
  8
0
100
AcDbBlockBegin
  2
*D17
 70
     1
 10
0.0
 20
0.0
 30
0.0
  3
*D17
  1

  0
LINE
  5
34B
330
26D
100
AcDbEntity
  8
Bemaßungen(DIN)
  6
Continuous
 62
   250
420
  4144959
440
 16777216
370
    25
100
AcDbLine
 10
131.6421312753091
 20
438.4460795058941
 30
0.0
 11
61.19145848903681
 21
438.4460795058941
 31
0.0
  0
LINE
  5
34C
330
26D
100
AcDbEntity
  8
Bemaßungen(DIN)
  6
Continuous
 62
   250
420
  4144959
440
 16777216
370
    25
100
AcDbLine
 10
131.6421312753091
 20
366.1766242875495
 30
0.0
 11
61.19145848903677
 21
366.1766242875495
 31
0.0
  0
LINE
  5
34D
330
26D
100
AcDbEntity
  8
Bemaßungen(DIN)
  6
Continuous
 62
   250
420
  4144959
440
 16777216
370
    25
100
AcDbLine
 10
67.5414584890368
 20
433.4460795058941
 30
0.0
 11
67.54145848903679
 21
371.1766242875496
 31
0.0
  0
SOLID
  5
34E
330
26D
100
AcDbEntity
  8
Bemaßungen(DIN)
  6
Continuous
 62
   250
420
  4144959
440
 16777216
100
AcDbTrace
 10
66.70812515570347
 20
433.4460795058941
 30
0.0
 11
68.37479182237013
 21
433.4460795058941
 31
0.0
 12
67.5414584890368
 22
438.4460795058941
 32
0.0
 13
67.5414584890368
 23
438.4460795058941
 33
0.0
  0
SOLID
  5
34F
330
26D
100
AcDbEntity
  8
Bemaßungen(DIN)
  6
Continuous
 62
   250
420
  4144959
440
 16777216
100
AcDbTrace
 10
66.70812515570346
 20
371.1766242875496
 30
0.0
 11
68.37479182237011
 21
371.1766242875496
 31
0.0
 12
67.54145848903679
 22
366.1766242875495
 32
0.0
 13
67.54145848903679
 23
366.1766242875495
 33
0.0
  0
MTEXT
  5
350
330
26D
100
AcDbEntity
  8
Bemaßungen(DIN)
  6
Continuous
 62
   250
420
  4144959
440
 16777216
370
    25
100
AcDbMText
 10
58.91280906204
 20
397.3421704218019
 30
0.0
 40
7.0
 41
0.0
 46
0.0
 71
     1
 72
     1
  1
\A1;72
  7
STANDARD-DIN~0
 11
0.0000000000000001
 21
1.0
 31
0.0
 73
     1
 44
1.0
  0
POINT
  5
351
330
26D
100
AcDbEntity
  8
Defpoints
  6
Continuous
 62
     0
440
 16777216
100
AcDbPoint
 10
131.6421312753091
 20
438.4460795058941
 30
0.0
  0
POINT
  5
352
330
26D
100
AcDbEntity
  8
Defpoints
  6
Continuous
 62
     0
440
 16777216
100
AcDbPoint
 10
131.6421312753091
 20
366.1766242875495
 30
0.0
  0
POINT
  5
353
330
26D
100
AcDbEntity
  8
Defpoints
  6
Continuous
 62
     0
440
 16777216
100
AcDbPoint
 10
67.54145848903679
 20
366.1766242875495
 30
0.0
  0
ENDBLK
  5
26F
330
26D
100
AcDbEntity
  8
0
100
AcDbBlockEnd
  0
BLOCK
  5
356
330
355
100
AcDbEntity
  8
0
100
AcDbBlockBegin
  2
*D18
 70
     1
 10
0.0
 20
0.0
 30
0.0
  3
*D18
  1

  0
LINE
  5
433
330
355
100
AcDbEntity
  8
Bemaßungen(DIN)
  6
Continuous
 62
   250
420
  4144959
440
 16777216
370
    25
100
AcDbLine
 10
121.9393748467889
 20
427.2960795058938
 30
0.0
 11
85.19145848903681
 21
427.2960795058938
 31
0.0
  0
LINE
  5
434
330
355
100
AcDbEntity
  8
Bemaßungen(DIN)
  6
Continuous
 62
   250
420
  4144959
440
 16777216
370
    25
100
AcDbLine
 10
121.9393748467889
 20
377.2960795058941
 30
0.0
 11
85.19145848903681
 21
377.2960795058941
 31
0.0
  0
LINE
  5
435
330
355
100
AcDbEntity
  8
Bemaßungen(DIN)
  6
Continuous
 62
   250
420
  4144959
440
 16777216
370
    25
100
AcDbLine
 10
91.54145848903679
 20
422.296079505894
 30
0.0
 11
91.54145848903679
 21
382.2960795058941
 31
0.0
  0
SOLID
  5
436
330
355
100
AcDbEntity
  8
Bemaßungen(DIN)
  6
Continuous
 62
   250
420
  4144959
440
 16777216
100
AcDbTrace
 10
90.70812515570349
 20
422.296079505894
 30
0.0
 11
92.37479182237013
 21
422.296079505894
 31
0.0
 12
91.54145848903679
 22
427.2960795058938
 32
0.0
 13
91.54145848903679
 23
427.2960795058938
 33
0.0
  0
SOLID
  5
437
330
355
100
AcDbEntity
  8
Bemaßungen(DIN)
  6
Continuous
 62
   250
420
  4144959
440
 16777216
100
AcDbTrace
 10
90.70812515570343
 20
382.2960795058941
 30
0.0
 11
92.37479182237013
 21
382.2960795058941
 31
0.0
 12
91.54145848903679
 22
377.2960795058941
 32
0.0
 13
91.54145848903679
 23
377.2960795058941
 33
0.0
  0
MTEXT
  5
438
330
355
100
AcDbEntity
  8
Bemaßungen(DIN)
  6
Continuous
 62
   250
420
  4144959
440
 16777216
370
    25
100
AcDbMText
 10
82.7934366193261
 20
397.27437415618
 30
0.0
 40
7.0
 41
0.0
 46
0.0
 71
     1
 72
     1
  1
\A1;50
  7
STANDARD-DIN~0
 11
0.0000000000000001
 21
1.0
 31
0.0
 73
     1
 44
1.0
  0
POINT
  5
439
330
355
100
AcDbEntity
  8
Defpoints
  6
Continuous
 62
     0
440
 16777216
100
AcDbPoint
 10
121.9393748467889
 20
427.2960795058938
 30
0.0
  0
POINT
  5
43A
330
355
100
AcDbEntity
  8
Defpoints
  6
Continuous
 62
     0
440
 16777216
100
AcDbPoint
 10
121.9393748467889
 20
377.2960795058941
 30
0.0
  0
POINT
  5
43B
330
355
100
AcDbEntity
  8
Defpoints
  6
Continuous
 62
     0
440
 16777216
100
AcDbPoint
 10
91.54145848903679
 20
377.2960795058941
 30
0.0
  0
ENDBLK
  5
357
330
355
100
AcDbEntity
  8
0
100
AcDbBlockEnd
  0
BLOCK
  5
43E
330
43D
100
AcDbEntity
  8
0
100
AcDbBlockBegin
  2
*D19
 70
     1
 10
0.0
 20
0.0
 30
0.0
  3
*D19
  1

  0
LINE
  5
515
330
43D
100
AcDbEntity
  8
Bemaßungen(DIN)
  6
Continuous
 62
   250
420
  4144959
440
 16777216
370
    25
100
AcDbLine
 10
115.3921312753091
 20
422.1960795058938
 30
0.0
 11
115.3921312753091
 21
466.8468866267776
 31
0.0
  0
LINE
  5
516
330
43D
100
AcDbEntity
  8
Bemaßungen(DIN)
  6
Continuous
 62
   250
420
  4144959
440
 16777216
370
    25
100
AcDbLine
 10
147.8921312753092
 20
422.1960795058938
 30
0.0
 11
147.8921312753092
 21
466.8468866267776
 31
0.0
  0
LINE
  5
517
330
43D
100
AcDbEntity
  8
Bemaßungen(DIN)
  6
Continuous
 62
   250
420
  4144959
440
 16777216
370
    25
100
AcDbLine
 10
120.392131275309
 20
460.4968866267777
 30
0.0
 11
142.8921312753091
 21
460.4968866267777
 31
0.0
  0
SOLID
  5
518
330
43D
100
AcDbEntity
  8
Bemaßungen(DIN)
  6
Continuous
 62
   250
420
  4144959
440
 16777216
100
AcDbTrace
 10
120.392131275309
 20
461.3302199601107
 30
0.0
 11
120.392131275309
 21
459.6635532934443
 31
0.0
 12
115.3921312753091
 22
460.4968866267777
 32
0.0
 13
115.3921312753091
 23
460.4968866267777
 33
0.0
  0
SOLID
  5
519
330
43D
100
AcDbEntity
  8
Bemaßungen(DIN)
  6
Continuous
 62
   250
420
  4144959
440
 16777216
100
AcDbTrace
 10
142.8921312753091
 20
461.3302199601107
 30
0.0
 11
142.8921312753091
 21
459.6635532934443
 31
0.0
 12
147.8921312753092
 22
460.4968866267777
 32
0.0
 13
147.8921312753092
 23
460.4968866267777
 33
0.0
  0
MTEXT
  5
51A
330
43D
100
AcDbEntity
  8
Bemaßungen(DIN)
  6
Continuous
 62
   250
420
  4144959
440
 16777216
370
    25
100
AcDbMText
 10
122.5068515496728
 20
469.2496833941968
 30
0.0
 40
7.0
 41
0.0
 46
0.0
 71
     1
 72
     1
  1
\A1;32.5
  7
STANDARD-DIN~0
 73
     1
 44
1.0
  0
POINT
  5
51B
330
43D
100
AcDbEntity
  8
Defpoints
  6
Continuous
 62
     0
440
 16777216
100
AcDbPoint
 10
115.3921312753091
 20
422.1960795058938
 30
0.0
  0
POINT
  5
51C
330
43D
100
AcDbEntity
  8
Defpoints
  6
Continuous
 62
     0
440
 16777216
100
AcDbPoint
 10
147.8921312753092
 20
422.1960795058938
 30
0.0
  0
POINT
  5
51D
330
43D
100
AcDbEntity
  8
Defpoints
  6
Continuous
 62
     0
440
 16777216
100
AcDbPoint
 10
147.8921312753092
 20
460.4968866267777
 30
0.0
  0
ENDBLK
  5
43F
330
43D
100
AcDbEntity
  8
0
100
AcDbBlockEnd
  0
BLOCK
  5
520
330
51F
100
AcDbEntity
  8
0
100
AcDbBlockBegin
  2
*D20
 70
     1
 10
0.0
 20
0.0
 30
0.0
  3
*D20
  1

  0
LINE
  5
617
330
51F
100
AcDbEntity
  8
Bemaßungen(DIN)
  6
Continuous
 62
   250
420
  4144959
440
 16777216
370
    25
100
AcDbLine
 10
272.6421312753089
 20
412.296079505894
 30
0.0
 11
302.9921312753091
 21
412.296079505894
 31
0.0
  0
LINE
  5
618
330
51F
100
AcDbEntity
  8
Bemaßungen(DIN)
  6
Continuous
 62
   250
420
  4144959
440
 16777216
370
    25
100
AcDbLine
 10
272.6421312753089
 20
392.2960795058941
 30
0.0
 11
302.9921312753091
 21
392.2960795058941
 31
0.0
  0
LINE
  5
619
330
51F
100
AcDbEntity
  8
Bemaßungen(DIN)
  6
Continuous
 62
   250
420
  4144959
440
 16777216
370
    25
100
AcDbLine
 10
296.6421312753092
 20
397.296079505894
 30
0.0
 11
296.6421312753092
 21
407.2960795058939
 31
0.0
  0
LINE
  5
61A
330
51F
100
AcDbEntity
  8
Bemaßungen(DIN)
  6
Continuous
 62
   250
420
  4144959
440
 16777216
370
    25
100
AcDbLine
 10
296.6421312753092
 20
412.296079505894
 30
0.0
 11
296.6421312753092
 21
438.4664601285548
 31
0.0
  0
SOLID
  5
61B
330
51F
100
AcDbEntity
  8
Bemaßungen(DIN)
  6
Continuous
 62
   250
420
  4144959
440
 16777216
100
AcDbTrace
 10
295.8087979419758
 20
397.296079505894
 30
0.0
 11
297.4754646086424
 21
397.296079505894
 31
0.0
 12
296.6421312753092
 22
392.2960795058941
 32
0.0
 13
296.6421312753092
 23
392.2960795058941
 33
0.0
  0
SOLID
  5
61C
330
51F
100
AcDbEntity
  8
Bemaßungen(DIN)
  6
Continuous
 62
   250
420
  4144959
440
 16777216
100
AcDbTrace
 10
295.8087979419758
 20
407.2960795058939
 30
0.0
 11
297.4754646086424
 21
407.2960795058939
 31
0.0
 12
296.6421312753092
 22
412.296079505894
 32
0.0
 13
296.6421312753092
 23
412.296079505894
 33
0.0
  0
MTEXT
  5
61D
330
51F
100
AcDbEntity
  8
Bemaßungen(DIN)
  6
Continuous
 62
   250
420
  4144959
440
 16777216
370
    25
100
AcDbMText
 10
284.5099370628806
 20
418.8960795058941
 30
0.0
 40
7.0
 41
0.0
 46
0.0
 71
     1
 72
     1
  1
\A1;{\fAIGDT|b0|i0;\H7.0000;n\fArial|b0|i0;\H7.0000;}20
  7
STANDARD-DIN~0
 11
0.0000000000000001
 21
1.0
 31
0.0
 73
     1
 44
1.0
  0
POINT
  5
61E
330
51F
100
AcDbEntity
  8
Defpoints
  6
Continuous
 62
     0
440
 16777216
100
AcDbPoint
 10
272.6421312753089
 20
412.296079505894
 30
0.0
  0
POINT
  5
61F
330
51F
100
AcDbEntity
  8
Defpoints
  6
Continuous
 62
     0
440
 16777216
100
AcDbPoint
 10
272.6421312753089
 20
392.2960795058941
 30
0.0
  0
POINT
  5
620
330
51F
100
AcDbEntity
  8
Defpoints
  6
Continuous
 62
     0
440
 16777216
100
AcDbPoint
 10
296.6421312753092
 20
392.2960795058941
 30
0.0
  0
ENDBLK
  5
521
330
51F
100
AcDbEntity
  8
0
100
AcDbBlockEnd
  0
BLOCK
  5
623
330
622
100
AcDbEntity
  8
0
100
AcDbBlockBegin
  2
*D21
 70
     1
 10
0.0
 20
0.0
 30
0.0
  3
*D21
  1

  0
LINE
  5
709
330
622
100
AcDbEntity
  8
Bemaßungen(DIN)
  6
Continuous
 62
   250
420
  4144959
440
 16777216
370
    25
100
AcDbLine
 10
117.3413241543835
 20
246.7689288643722
 30
0.0
 11
61.11679488213091
 21
246.7689288643722
 31
0.0
  0
LINE
  5
70A
330
622
100
AcDbEntity
  8
Bemaßungen(DIN)
  6
Continuous
 62
   250
420
  4144959
440
 16777216
370
    25
100
AcDbLine
 10
143.6421312752671
 20
188.0689288643664
 30
0.0
 11
61.11679488213091
 21
188.0689288643664
 31
0.0
  0
LINE
  5
70B
330
622
100
AcDbEntity
  8
Bemaßungen(DIN)
  6
Continuous
 62
   250
420
  4144959
440
 16777216
370
    25
100
AcDbLine
 10
67.46679488213093
 20
241.7689288643722
 30
0.0
 11
67.46679488213091
 21
193.0689288643664
 31
0.0
  0
SOLID
  5
70C
330
622
100
AcDbEntity
  8
Bemaßungen(DIN)
  6
Continuous
 62
   250
420
  4144959
440
 16777216
100
AcDbTrace
 10
66.6334615487976
 20
241.7689288643722
 30
0.0
 11
68.30012821546425
 21
241.7689288643722
 31
0.0
 12
67.46679488213093
 22
246.7689288643722
 32
0.0
 13
67.46679488213093
 23
246.7689288643722
 33
0.0
  0
SOLID
  5
70D
330
622
100
AcDbEntity
  8
Bemaßungen(DIN)
  6
Continuous
 62
   250
420
  4144959
440
 16777216
100
AcDbTrace
 10
66.63346154879758
 20
193.0689288643664
 30
0.0
 11
68.30012821546424
 21
193.0689288643664
 31
0.0
 12
67.46679488213091
 22
188.0689288643664
 32
0.0
 13
67.46679488213091
 23
188.0689288643664
 33
0.0
  0
MTEXT
  5
70E
330
622
100
AcDbEntity
  8
Bemaßungen(DIN)
  6
Continuous
 62
   250
420
  4144959
440
 16777216
370
    25
100
AcDbMText
 10
58.71877301242022
 20
212.398123923821
 30
0.0
 40
7.0
 41
0.0
 46
0.0
 71
     1
 72
     1
  1
\A1;60
  7
STANDARD-DIN~0
 11
0.0000000000000001
 21
1.0
 31
0.0
 73
     1
 44
1.0
  0
POINT
  5
70F
330
622
100
AcDbEntity
  8
Defpoints
  6
Continuous
 62
     0
440
 16777216
100
AcDbPoint
 10
117.3413241543835
 20
246.7689288643722
 30
0.0
  0
POINT
  5
710
330
622
100
AcDbEntity
  8
Defpoints
  6
Continuous
 62
     0
440
 16777216
100
AcDbPoint
 10
143.6421312752671
 20
188.0689288643664
 30
0.0
  0
POINT
  5
711
330
622
100
AcDbEntity
  8
Defpoints
  6
Continuous
 62
     0
440
 16777216
100
AcDbPoint
 10
67.46679488213091
 20
188.0689288643664
 30
0.0
  0
ENDBLK
  5
624
330
622
100
AcDbEntity
  8
0
100
AcDbBlockEnd
  0
BLOCK
  5
714
330
713
100
AcDbEntity
  8
0
100
AcDbBlockBegin
  2
*D22
 70
     1
 10
0.0
 20
0.0
 30
0.0
  3
*D22
  1

  0
LINE
  5
7F7
330
713
100
AcDbEntity
  8
Bemaßungen(DIN)
  6
Continuous
 62
   250
420
  4144959
440
 16777216
370
    25
100
AcDbLine
 10
115.3921312752671
 20
260.7689288643722
 30
0.0
 11
61.11679488213091
 21
260.7689288643722
 31
0.0
  0
LINE
  5
7F8
330
713
100
AcDbEntity
  8
Bemaßungen(DIN)
  6
Continuous
 62
   250
420
  4144959
440
 16777216
370
    25
100
AcDbLine
 10
117.3413241543836
 20
246.7689288643722
 30
0.0
 11
61.11679488213091
 21
246.7689288643722
 31
0.0
  0
LINE
  5
7F9
330
713
100
AcDbEntity
  8
Bemaßungen(DIN)
  6
Continuous
 62
   250
420
  4144959
440
 16777216
370
    25
100
AcDbLine
 10
67.46679488213093
 20
255.7689288643722
 30
0.0
 11
67.46679488213093
 21
251.7689288643722
 31
0.0
  0
SOLID
  5
7FA
330
713
100
AcDbEntity
  8
Bemaßungen(DIN)
  6
Continuous
 62
   250
420
  4144959
440
 16777216
100
AcDbTrace
 10
66.6334615487976
 20
265.7689288643724
 30
0.0
 11
68.30012821546425
 21
265.7689288643724
 31
0.0
 12
67.46679488213093
 22
260.7689288643722
 32
0.0
 13
67.46679488213093
 23
260.7689288643722
 33
0.0
  0
LINE
  5
7FB
330
713
100
AcDbEntity
  8
Bemaßungen(DIN)
  6
Continuous
 62
   250
420
  4144959
440
 16777216
370
    25
100
AcDbLine
 10
67.46679488213093
 20
265.7689288643724
 30
0.0
 11
67.46679488213093
 21
270.7689288643722
 31
0.0
  0
LINE
  5
7FC
330
713
100
AcDbEntity
  8
Bemaßungen(DIN)
  6
Continuous
 62
   250
420
  4144959
440
 16777216
370
    25
100
AcDbLine
 10
67.46679488213093
 20
260.7689288643722
 30
0.0
 11
67.46679488213093
 21
255.7689288643722
 31
0.0
  0
SOLID
  5
7FD
330
713
100
AcDbEntity
  8
Bemaßungen(DIN)
  6
Continuous
 62
   250
420
  4144959
440
 16777216
100
AcDbTrace
 10
66.6334615487976
 20
241.7689288643722
 30
0.0
 11
68.30012821546425
 21
241.7689288643722
 31
0.0
 12
67.46679488213093
 22
246.7689288643722
 32
0.0
 13
67.46679488213093
 23
246.7689288643722
 33
0.0
  0
LINE
  5
7FE
330
713
100
AcDbEntity
  8
Bemaßungen(DIN)
  6
Continuous
 62
   250
420
  4144959
440
 16777216
370
    25
100
AcDbLine
 10
67.46679488213093
 20
241.7689288643722
 30
0.0
 11
67.46679488213093
 21
236.7689288643722
 31
0.0
  0
LINE
  5
7FF
330
713
100
AcDbEntity
  8
Bemaßungen(DIN)
  6
Continuous
 62
   250
420
  4144959
440
 16777216
370
    25
100
AcDbLine
 10
67.46679488213093
 20
246.7689288643722
 30
0.0
 11
67.46679488213093
 21
251.7689288643722
 31
0.0
  0
MTEXT
  5
800
330
713
100
AcDbEntity
  8
Bemaßungen(DIN)
  6
Continuous
 62
   250
420
  4144959
440
 16777216
370
    25
100
AcDbMText
 10
58.83814545513417
 20
249.0990789054029
 30
0.0
 40
7.0
 41
0.0
 46
0.0
 71
     1
 72
     1
  1
\A1;14
  7
STANDARD-DIN~0
 11
0.0000000000000001
 21
1.0
 31
0.0
 73
     1
 44
1.0
  0
POINT
  5
801
330
713
100
AcDbEntity
  8
Defpoints
  6
Continuous
 62
     0
440
 16777216
100
AcDbPoint
 10
115.3921312752671
 20
260.7689288643722
 30
0.0
  0
POINT
  5
802
330
713
100
AcDbEntity
  8
Defpoints
  6
Continuous
 62
     0
440
 16777216
100
AcDbPoint
 10
117.3413241543836
 20
246.7689288643722
 30
0.0
  0
POINT
  5
803
330
713
100
AcDbEntity
  8
Defpoints
  6
Continuous
 62
     0
440
 16777216
100
AcDbPoint
 10
67.46679488213093
 20
246.7689288643722
 30
0.0
  0
ENDBLK
  5
715
330
713
100
AcDbEntity
  8
0
100
AcDbBlockEnd
  0
BLOCK
  5
806
330
805
100
AcDbEntity
  8
0
100
AcDbBlockBegin
  2
*D23
 70
     1
 10
0.0
 20
0.0
 30
0.0
  3
*D23
  1

  0
LINE
  5
8DD
330
805
100
AcDbEntity
  8
Bemaßungen(DIN)
  6
Continuous
 62
   250
420
  4144959
440
 16777216
370
    25
100
AcDbLine
 10
121.642131275267
 20
218.0689288643664
 30
0.0
 11
121.642131275267
 21
157.7189288643664
 31
0.0
  0
LINE
  5
8DE
330
805
100
AcDbEntity
  8
Bemaßungen(DIN)
  6
Continuous
 62
   250
420
  4144959
440
 16777216
370
    25
100
AcDbLine
 10
273.6421312752669
 20
187.9689288643663
 30
0.0
 11
273.6421312752669
 21
157.7189288643664
 31
0.0
  0
LINE
  5
8DF
330
805
100
AcDbEntity
  8
Bemaßungen(DIN)
  6
Continuous
 62
   250
420
  4144959
440
 16777216
370
    25
100
AcDbLine
 10
126.642131275267
 20
164.0689288643664
 30
0.0
 11
268.6421312752669
 21
164.0689288643664
 31
0.0
  0
SOLID
  5
8E0
330
805
100
AcDbEntity
  8
Bemaßungen(DIN)
  6
Continuous
 62
   250
420
  4144959
440
 16777216
100
AcDbTrace
 10
126.642131275267
 20
164.9022621976997
 30
0.0
 11
126.642131275267
 21
163.235595531033
 31
0.0
 12
121.642131275267
 22
164.0689288643664
 32
0.0
 13
121.642131275267
 23
164.0689288643664
 33
0.0
  0
SOLID
  5
8E1
330
805
100
AcDbEntity
  8
Bemaßungen(DIN)
  6
Continuous
 62
   250
420
  4144959
440
 16777216
100
AcDbTrace
 10
268.6421312752669
 20
164.9022621976997
 30
0.0
 11
268.6421312752669
 21
163.235595531033
 31
0.0
 12
273.6421312752669
 22
164.0689288643664
 32
0.0
 13
273.6421312752669
 23
164.0689288643664
 33
0.0
  0
MTEXT
  5
8E2
330
805
100
AcDbEntity
  8
Bemaßungen(DIN)
  6
Continuous
 62
   250
420
  4144959
440
 16777216
370
    25
100
AcDbMText
 10
190.2944641109626
 20
172.816950734077
 30
0.0
 40
7.0
 41
0.0
 46
0.0
 71
     1
 72
     1
  1
\A1;152
  7
STANDARD-DIN~0
 73
     1
 44
1.0
  0
POINT
  5
8E3
330
805
100
AcDbEntity
  8
Defpoints
  6
Continuous
 62
     0
440
 16777216
100
AcDbPoint
 10
121.642131275267
 20
218.0689288643664
 30
0.0
  0
POINT
  5
8E4
330
805
100
AcDbEntity
  8
Defpoints
  6
Continuous
 62
     0
440
 16777216
100
AcDbPoint
 10
273.6421312752669
 20
187.9689288643663
 30
0.0
  0
POINT
  5
8E5
330
805
100
AcDbEntity
  8
Defpoints
  6
Continuous
 62
     0
440
 16777216
100
AcDbPoint
 10
273.6421312752669
 20
164.0689288643664
 30
0.0
  0
ENDBLK
  5
807
330
805
100
AcDbEntity
  8
0
100
AcDbBlockEnd
  0
BLOCK
  5
8E9
330
8E8
100
AcDbEntity
  8
0
100
AcDbBlockBegin
  2
*D24
 70
     1
 10
0.0
 20
0.0
 30
0.0
  3
*D24
  1

  0
LINE
  5
9CF
330
8E8
100
AcDbEntity
  8
Bemaßungen(DIN)
  6
Continuous
 62
   250
420
  4144959
440
 16777216
370
    25
100
AcDbLine
 10
121.6421312752672
 20
218.0689288643679
 30
0.0
 11
85.11679488213092
 21
218.0689288643679
 31
0.0
  0
LINE
  5
9D0
330
8E8
100
AcDbEntity
  8
Bemaßungen(DIN)
  6
Continuous
 62
   250
420
  4144959
440
 16777216
370
    25
100
AcDbLine
 10
117.3413241543836
 20
246.7689288643722
 30
0.0
 11
85.11679488213093
 21
246.7689288643722
 31
0.0
  0
LINE
  5
9D1
330
8E8
100
AcDbEntity
  8
Bemaßungen(DIN)
  6
Continuous
 62
   250
420
  4144959
440
 16777216
370
    25
100
AcDbLine
 10
91.46679488213093
 20
223.0689288643679
 30
0.0
 11
91.46679488213093
 21
241.7689288643722
 31
0.0
  0
SOLID
  5
9D2
330
8E8
100
AcDbEntity
  8
Bemaßungen(DIN)
  6
Continuous
 62
   250
420
  4144959
440
 16777216
100
AcDbTrace
 10
90.63346154879758
 20
223.0689288643679
 30
0.0
 11
92.30012821546422
 21
223.0689288643679
 31
0.0
 12
91.46679488213093
 22
218.0689288643679
 32
0.0
 13
91.46679488213093
 23
218.0689288643679
 33
0.0
  0
SOLID
  5
9D3
330
8E8
100
AcDbEntity
  8
Bemaßungen(DIN)
  6
Continuous
 62
   250
420
  4144959
440
 16777216
100
AcDbTrace
 10
90.63346154879758
 20
241.7689288643722
 30
0.0
 11
92.30012821546422
 21
241.7689288643722
 31
0.0
 12
91.46679488213093
 22
246.7689288643722
 32
0.0
 13
91.46679488213093
 23
246.7689288643722
 33
0.0
  0
MTEXT
  5
9D4
330
8E8
100
AcDbEntity
  8
Bemaßungen(DIN)
  6
Continuous
 62
   250
420
  4144959
440
 16777216
370
    25
100
AcDbMText
 10
82.71399811471168
 20
227.3996109635103
 30
0.0
 40
7.0
 41
0.0
 46
0.0
 71
     1
 72
     1
  1
\A1;30
  7
STANDARD-DIN~0
 11
0.0000000000000001
 21
1.0
 31
0.0
 73
     1
 44
1.0
  0
POINT
  5
9D5
330
8E8
100
AcDbEntity
  8
Defpoints
  6
Continuous
 62
     0
440
 16777216
100
AcDbPoint
 10
121.6421312752672
 20
218.0689288643679
 30
0.0
  0
POINT
  5
9D6
330
8E8
100
AcDbEntity
  8
Defpoints
  6
Continuous
 62
     0
440
 16777216
100
AcDbPoint
 10
117.3413241543836
 20
246.7689288643722
 30
0.0
  0
POINT
  5
9D7
330
8E8
100
AcDbEntity
  8
Defpoints
  6
Continuous
 62
     0
440
 16777216
100
AcDbPoint
 10
91.46679488213093
 20
246.7689288643722
 30
0.0
  0
ENDBLK
  5
8EA
330
8E8
100
AcDbEntity
  8
0
100
AcDbBlockEnd
  0
ENDSEC
  0
SECTION
  2
ENTITIES
  0
SPLINE
  5
199
330
6C
100
AcDbEntity
  8
Verdeckte tangentiale Kanten(DIN)
100
AcDbSpline
210
0.0
220
0.0
230
1.0
 70
     8
 71
     3
 72
     8
 73
     4
 74
     0
 42
0.0000000001
 43
0.0000000001
 40
-5.746140380797789
 40
-5.746140380797789
 40
-5.746140380797789
 40
-5.746140380797789
 40
-5.506423866010626
 40
-5.506423866010626
 40
-5.506423866010626
 40
-5.506423866010626
 10
143.5921312753092
 20
403.4975038769598
 30
0.0
 10
143.6724677462853
 20
402.6984349956514
 30
0.0
 10
143.6726837771109
 20
401.8958727725862
 30
0.0
 10
143.5921312753093
 20
401.0946551348284
 30
0.0
  0
SPLINE
  5
19A
330
6C
100
AcDbEntity
  8
Verdeckte Kanten(DIN)
100
AcDbSpline
210
0.0
220
0.0
230
1.0
 70
    24
 71
     3
 72
    14
 73
    10
 74
     0
 42
0.0000000001
 43
0.0000000001
 40
0.0500183732098746
 40
0.0500183732098746
 40
0.0500183732098746
 40
0.0500183732098746
 40
0.1429818291099324
 40
0.1429818291099324
 40
0.2718668581667729
 40
0.2718668581667729
 40
0.3524200013272982
 40
0.3524200013272982
 40
0.4027657158026265
 40
0.4027657158026265
 40
0.4027657158026265
 40
0.4027657158026265
 10
128.6421312753091
 20
368.3578521597095
 30
0.0
 10
128.6421312753091
 20
368.3662508004399
 30
0.0
 10
128.6421312753091
 20
368.3746499862408
 30
0.0
 10
128.6421312753091
 20
368.3946951561633
 30
0.0
 10
128.6421312753091
 20
368.4063416458258
 30
0.0
 10
128.6421312753091
 20
368.4252689177811
 30
0.0
 10
128.6421312753091
 20
368.4325490527306
 30
0.0
 10
128.6421312753091
 20
368.44437994976
 30
0.0
 10
128.6421312753091
 20
368.4489304576891
 30
0.0
 10
128.6421312753091
 20
368.4534811290518
 30
0.0
  0
SPLINE
  5
19B
330
6C
100
AcDbEntity
  8
Verdeckte Kanten(DIN)
100
AcDbSpline
210
0.0
220
0.0
230
1.0
 70
    24
 71
     3
 72
    14
 73
    10
 74
     0
 42
0.0000000001
 43
0.0000000001
 40
0.0
 40
0.0
 40
0.0
 40
0.0
 40
0.0503457144753283
 40
0.0503457144753283
 40
0.1308988576358536
 40
0.1308988576358536
 40
0.2597838866926941
 40
0.2597838866926941
 40
0.3527473425927519
 40
0.3527473425927519
 40
0.3527473425927519
 40
0.3527473425927519
 10
134.6421312753091
 20
368.4534811290518
 30
0.0
 10
134.6421312753091
 20
368.4489304576891
 30
0.0
 10
134.6421312753091
 20
368.44437994976
 30
0.0
 10
134.6421312753091
 20
368.4325490527306
 30
0.0
 10
134.6421312753091
 20
368.4252689177811
 30
0.0
 10
134.6421312753091
 20
368.4063416458258
 30
0.0
 10
134.6421312753091
 20
368.3946951561633
 30
0.0
 10
134.6421312753091
 20
368.3746499862408
 30
0.0
 10
134.6421312753091
 20
368.3662508004399
 30
0.0
 10
134.6421312753091
 20
368.3578521597095
 30
0.0
  0
SPLINE
  5
19C
330
6C
100
AcDbEntity
  8
Verdeckte tangentiale Kanten(DIN)
100
AcDbSpline
210
0.0
220
0.0
230
1.0
 70
     8
 71
     3
 72
     8
 73
     4
 74
     0
 42
0.0000000001
 43
0.0000000001
 40
-0.011602009633469
 40
-0.011602009633469
 40
-0.011602009633469
 40
-0.011602009633469
 40
0.0000000000000005
 40
0.0000000000000005
 40
0.0000000000000005
 40
0.0000000000000005
 10
118.4802406806596
 20
376.9042032363452
 30
0.0
 10
118.4942722496888
 20
376.8630336026198
 30
0.0
 10
118.5084711093022
 20
376.8219753265309
 30
0.0
 10
118.5228553581985
 20
376.7810845064638
 30
0.0
  0
LINE
  5
19D
330
6C
100
AcDbEntity
  8
Verdeckte tangentiale Kanten(DIN)
100
AcDbLine
 10
118.3924860722652
 20
376.8742544326018
 30
0.0
 11
118.4802406806595
 21
376.9042032363452
 31
0.0
  0
CIRCLE
  5
19E
330
6C
100
AcDbEntity
  8
Verdeckte Kanten(DIN)
100
AcDbCircle
 10
131.6421312753091
 20
377.2960795058941
 30
0.0
 40
3.649999999999991
  0
LINE
  5
19F
330
6C
100
AcDbEntity
  8
Verdeckte tangentiale Kanten(DIN)
100
AcDbLine
 10
144.891776478353
 20
376.8742544326017
 30
0.0
 11
144.8040218699276
 21
376.9042032362538
 31
0.0
  0
SPLINE
  5
1A0
330
6C
100
AcDbEntity
  8
Verdeckte tangentiale Kanten(DIN)
100
AcDbSpline
210
0.0
220
0.0
230
1.0
 70
     8
 71
     3
 72
     8
 73
     4
 74
     0
 42
0.0000000001
 43
0.0000000001
 40
1.526068486973444
 40
1.526068486973444
 40
1.526068486973444
 40
1.526068486973444
 40
1.53767049659832
 40
1.53767049659832
 40
1.53767049659832
 40
1.53767049659832
 10
144.7614071924196
 20
376.7810845064639
 30
0.0
 10
144.7757914413054
 20
376.8219753265007
 30
0.0
 10
144.7899903009084
 20
376.863033602559
 30
0.0
 10
144.8040218699277
 20
376.9042032362538
 30
0.0
  0
CIRCLE
  5
1A1
330
6C
100
AcDbEntity
  8
Verdeckte Kanten(DIN)
100
AcDbCircle
 10
131.6421312753091
 20
427.2960795058938
 30
0.0
 40
3.649999999999991
  0
SPLINE
  5
1A2
330
6C
100
AcDbEntity
  8
Verdeckte tangentiale Kanten(DIN)
100
AcDbSpline
210
0.0
220
0.0
230
1.0
 70
     8
 71
     3
 72
    20
 73
    16
 74
     0
 42
0.0000000001
 43
0.0000000001
 40
0.0
 40
0.0
 40
0.0
 40
0.0
 40
0.0330652990346479
 40
0.0330652990346479
 40
0.0708542122171026
 40
0.0708542122171026
 40
0.0944722829561368
 40
0.0944722829561368
 40
0.1062813183256539
 40
0.1062813183256539
 40
0.1251757749168812
 40
0.1251757749168812
 40
0.155406905462845
 40
0.155406905462845
 40
0.1773818079413039
 40
0.1773818079413039
 40
0.1773818079413039
 40
0.1773818079413039
 10
117.9432406174964
 20
378.5154911702812
 30
0.0
 10
117.9725787813787
 20
378.4250113640041
 30
0.0
 10
118.0031431615929
 20
378.3313635566862
 30
0.0
 10
118.0705979381771
 20
378.1258289770736
 30
0.0
 10
118.1077702233485
 20
378.0132425321511
 30
0.0
 10
118.1693907497991
 20
377.8275795677254
 30
0.0
 10
118.1933718961429
 20
377.7555531219318
 30
0.0
 10
118.2296520326888
 20
377.6469096839944
 30
0.0
 10
118.241820564893
 20
377.6105234858722
 30
0.0
 10
118.2736304051681
 20
377.5155425251683
 30
0.0
 10
118.2933747050468
 20
377.4567216574457
 30
0.0
 10
118.3450525708576
 20
377.3031067135909
 30
0.0
 10
118.3771917859375
 20
377.2079041302936
 30
0.0
 10
118.4330127038344
 20
377.0431139119486
 30
0.0
 10
118.4566070578283
 20
376.9736315242283
 30
0.0
 10
118.4802406812031
 20
376.9042032484338
 30
0.0
  0
SPLINE
  5
1A3
330
6C
100
AcDbEntity
  8
Verdeckte Kanten(DIN)
100
AcDbSpline
210
0.0
220
0.0
230
1.0
 70
     8
 71
     3
 72
    28
 73
    24
 74
     0
 42
0.0000000001
 43
0.0000000001
 40
-0.0000012116983804
 40
-0.0000012116983804
 40
-0.0000012116983804
 40
-0.0000012116983804
 40
0.0
 40
0.0
 40
0.0000012046688544
 40
0.0000012046688544
 40
0.0000036080647843
 40
0.0000036080647843
 40
0.0000084083573401
 40
0.0000084083573401
 40
0.0000180183886636
 40
0.0000180183886636
 40
0.0000373485416214
 40
0.0000373485416214
 40
0.0000766069530918
 40
0.0000766069530918
 40
0.0001579564043796
 40
0.0001579564043796
 40
0.0003340619219223
 40
0.0003340619219223
 40
0.0006995203427395
 40
0.0006995203427395
 40
0.0011970552950088
 40
0.0011970552950088
 40
0.0011970552950088
 40
0.0011970552950088
 10
146.4532354997319
 20
412.2960795059293
 30
0.0
 10
146.4532354174805
 20
412.296079512007
 30
0.0
 10
146.453235288359
 20
412.2960797038106
 30
0.0
 10
146.4532350777668
 20
412.2960800970036
 30
0.0
 10
146.4532349705355
 20
412.2960803456939
 30
0.0
 10
146.4532346553139
 20
412.2960811788041
 30
0.0
 10
146.4532344409859
 20
412.2960818827801
 30
0.0
 10
146.4532338107915
 20
412.2960842425308
 30
0.0
 10
146.4532333826533
 20
412.2960862370152
 30
0.0
 10
146.4532321233009
 20
412.2960929300926
 30
0.0
 10
146.4532312691096
 20
412.2960985902957
 30
0.0
 10
146.4532287546051
 20
412.2961176277528
 30
0.0
 10
146.4532270547353
 20
412.2961337454761
 30
0.0
 10
146.4532220428439
 20
412.2961882088146
 30
0.0
 10
146.4532186785285
 20
412.2962344245124
 30
0.0
 10
146.45320872602
 20
412.2963921378341
 30
0.0
 10
146.4532021510737
 20
412.2965265948498
 30
0.0
 10
146.4531825557819
 20
412.2969956996211
 30
0.0
 10
146.4531701343811
 20
412.2973995691449
 30
0.0
 10
146.453136081747
 20
412.2987464453998
 30
0.0
 10
146.4531141965342
 20
412.2999885625211
 30
0.0
 10
146.453072835406
 20
412.3037261724078
 30
0.0
 10
146.4530579367766
 20
412.3064356756341
 30
0.0
 10
146.4530579367766
 20
412.3096434126551
 30
0.0
  0
LINE
  5
1A4
330
6C
100
AcDbEntity
  8
Verdeckte Kanten(DIN)
100
AcDbLine
 10
145.092131275309
 20
407.1971168893758
 30
0.0
 11
144.7921312753091
 21
407.1025272527121
 31
0.0
  0
ARC
  5
1A5
330
6C
100
AcDbEntity
  8
Sichtbare Kanten(DIN)
100
AcDbCircle
 10
131.6421312753091
 20
402.2960795058939
 30
0.0
 40
10.41749773270517
100
AcDbArc
 50
73.72413122699821
 51
286.2758687730022
  0
SPLINE
  5
1A6
330
6C
100
AcDbEntity
  8
Verdeckte Kanten(DIN)
100
AcDbSpline
210
0.0
220
0.0
230
1.0
 70
     8
 71
     3
 72
    28
 73
    24
 74
     0
 42
0.0000000001
 43
0.0000000001
 40
0.0
 40
0.0
 40
0.0
 40
0.0
 40
0.0009623211026792
 40
0.0009623211026792
 40
0.0016691827005179
 40
0.0016691827005179
 40
0.0020098020960183
 40
0.0020098020960183
 40
0.0021671464056915
 40
0.0021671464056915
 40
0.0022430791580098
 40
0.0022430791580098
 40
0.0022804670940853
 40
0.0022804670940853
 40
0.0022990546224918
 40
0.0022990546224918
 40
0.0023083392250539
 40
0.0023083392250539
 40
0.0023129878222456
 40
0.0023129878222456
 40
0.0023153180112852
 40
0.0023153180112852
 40
0.0023176605141888
 40
0.0023176605141888
 40
0.0023176605141888
 40
0.0023176605141888
 10
146.4530579367765
 20
392.2825155991329
 30
0.0
 10
146.4530579367765
 20
392.2857233361418
 30
0.0
 10
146.4530728354059
 20
392.2884328393548
 30
0.0
 10
146.4531141965336
 20
392.2921704492273
 30
0.0
 10
146.4531360817464
 20
392.293412566362
 30
0.0
 10
146.453170134381
 20
392.2947594426378
 30
0.0
 10
146.4531825557818
 20
392.2951633121654
 30
0.0
 10
146.4532021510738
 20
392.295632416941
 30
0.0
 10
146.4532087260201
 20
392.2957668739558
 30
0.0
 10
146.4532186785286
 20
392.2959245872777
 30
0.0
 10
146.453222042844
 20
392.2959708029745
 30
0.0
 10
146.4532270547345
 20
392.2960252663031
 30
0.0
 10
146.4532287546047
 20
392.2960413840337
 30
0.0
 10
146.4532312691109
 20
392.2960604215034
 30
0.0
 10
146.4532321233014
 20
392.2960660816977
 30
0.0
 10
146.4532333826519
 20
392.296072774765
 30
0.0
 10
146.4532338107909
 20
392.2960747692556
 30
0.0
 10
146.4532344409864
 20
392.2960771290105
 30
0.0
 10
146.4532346553139
 20
392.2960778329844
 30
0.0
 10
146.4532349705417
 20
392.296078666111
 30
0.0
 10
146.4532350777693
 20
392.2960789147871
 30
0.0
 10
146.4532352882998
 20
392.2960793078637
 30
0.0
 10
146.4532354162296
 20
392.2960794974973
 30
0.0
 10
146.4532354995526
 20
392.2960795058599
 30
0.0
  0
ARC
  5
1A7
330
6C
100
AcDbEntity
  8
Sichtbare Kanten(DIN)
100
AcDbCircle
 10
131.6421312753091
 20
402.2960795058939
 30
0.0
 40
10.39999999999998
100
AcDbArc
 50
74.05763139437147
 51
285.9423686056287
  0
ARC
  5
1A8
330
6C
100
AcDbEntity
  8
Sichtbare Kanten(DIN)
100
AcDbCircle
 10
131.6421312753091
 20
402.2960795058939
 30
0.0
 40
10.60000000000004
100
AcDbArc
 50
70.62996175445954
 51
289.3700382455408
  0
SPLINE
  5
1A9
330
6C
100
AcDbEntity
  8
Sichtbare Kanten(DIN)
100
AcDbSpline
210
0.0
220
0.0
230
1.0
 70
     8
 71
     3
 72
    10
 73
     6
 74
     0
 42
0.0000000001
 43
0.0000000001
 40
0.0
 40
0.0
 40
0.0
 40
0.0
 40
0.0354338992975095
 40
0.0684455786844918
 40
0.0960338296174126
 40
0.0960338296174126
 40
0.0960338296174126
 40
0.0960338296174126
 10
129.0392327245854
 20
378.8036997546853
 30
0.0
 10
129.1569525629716
 20
378.8022693885147
 30
0.0
 10
129.3843450492837
 20
378.7995064343316
 30
0.0
 10
129.7077585388767
 20
378.7362019307745
 30
0.0
 10
129.8689193032746
 20
378.61054934735
 30
0.0
 10
129.9422880940517
 20
378.5533457336894
 30
0.0
  0
SPLINE
  5
1AA
330
6C
100
AcDbEntity
  8
Sichtbare Kanten(DIN)
100
AcDbSpline
210
0.0
220
0.0
230
1.0
 70
     8
 71
     3
 72
    10
 73
     6
 74
     0
 42
0.0000000001
 43
0.0000000001
 40
0.0
 40
0.0
 40
0.0
 40
0.0
 40
0.0723321057415699
 40
0.1345901391067777
 40
0.2030247413826518
 40
0.2030247413826518
 40
0.2030247413826518
 40
0.2030247413826518
 10
127.6492001545981
 20
377.5488991370096
 30
0.0
 10
127.7139734796927
 20
377.7848685346924
 30
0.0
 10
127.8344988085976
 20
378.2239426323349
 30
0.0
 10
128.3700422131316
 20
378.7101354243481
 30
0.0
 10
128.8092501919234
 20
378.7715442454702
 30
0.0
 10
129.0392327245854
 20
378.8036997546853
 30
0.0
  0
SPLINE
  5
1AB
330
6C
100
AcDbEntity
  8
Sichtbare Kanten(DIN)
100
AcDbSpline
210
0.0
220
0.0
230
1.0
 70
     8
 71
     3
 72
    13
 73
     9
 74
     0
 42
0.0000000001
 43
0.0000000001
 40
0.0
 40
0.0
 40
0.0
 40
0.0
 40
0.0186749164535748
 40
0.038933954733922
 40
0.0619956196745443
 40
0.0740314537115046
 40
0.0845940360920342
 40
0.0958450056458658
 40
0.0958450056458658
 40
0.0958450056458658
 40
0.0958450056458658
 10
127.8113512906658
 20
376.6324683565735
 30
0.0
 10
127.7757140537271
 20
376.6838789085955
 30
0.0
 10
127.70141660917
 20
376.7910609733854
 30
0.0
 10
127.639249402664
 20
376.9910853096873
 30
0.0
 10
127.6187671029309
 20
377.1752303780868
 30
0.0
 10
127.6218815866351
 20
377.3275592265146
 30
0.0
 10
127.6315924288097
 20
377.4400658854266
 30
0.0
 10
127.6432087179209
 20
377.5118661014509
 30
0.0
 10
127.6492001545981
 20
377.5488991370096
 30
0.0
  0
SPLINE
  5
1AC
330
6C
100
AcDbEntity
  8
Sichtbare Kanten(DIN)
100
AcDbSpline
210
0.0
220
0.0
230
1.0
 70
     8
 71
     3
 72
    10
 73
     6
 74
     0
 42
0.0000000001
 43
0.0000000001
 40
0.0
 40
0.0
 40
0.0
 40
0.0
 40
0.0343803142273133
 40
0.062320419931901
 40
0.0875627097703437
 40
0.0875627097703437
 40
0.0875627097703437
 40
0.0875627097703437
 10
128.5967404573327
 20
376.3047240206361
 30
0.0
 10
128.4823517748878
 20
376.3147357306646
 30
0.0
 10
128.2750019909886
 20
376.3328837315555
 30
0.0
 10
127.996838615994
 20
376.4453069025944
 30
0.0
 10
127.8710534725046
 20
376.5722273285738
 30
0.0
 10
127.8113512906658
 20
376.6324683565735
 30
0.0
  0
SPLINE
  5
1AD
330
6C
100
AcDbEntity
  8
Sichtbare Kanten(DIN)
100
AcDbSpline
210
0.0
220
0.0
230
1.0
 70
     8
 71
     3
 72
    10
 73
     6
 74
     0
 42
0.0000000001
 43
0.0000000001
 40
0.0
 40
0.0
 40
0.0
 40
0.0
 40
0.0253636577144429
 40
0.0591587427094875
 40
0.1036416293921764
 40
0.1036416293921764
 40
0.1036416293921764
 40
0.1036416293921764
 10
129.6243087434658
 20
376.4226334127258
 30
0.0
 10
129.5416969300053
 20
376.4046187123105
 30
0.0
 10
129.3490113531734
 20
376.3626008362277
 30
0.0
 10
129.0061004395726
 20
376.3152012544168
 30
0.0
 10
128.74507367971
 20
376.308520488087
 30
0.0
 10
128.5967404573327
 20
376.3047240206361
 30
0.0
  0
SPLINE
  5
1AE
330
6C
100
AcDbEntity
  8
Sichtbare Kanten(DIN)
100
AcDbSpline
210
0.0
220
0.0
230
1.0
 70
     8
 71
     3
 72
    10
 73
     6
 74
     0
 42
0.0000000001
 43
0.0000000001
 40
0.0
 40
0.0
 40
0.0
 40
0.0
 40
0.0000629610420065
 40
0.0018692616811628
 40
0.004181264246394
 40
0.004181264246394
 40
0.004181264246394
 40
0.004181264246394
 10
129.6651084236415
 20
376.4317810714171
 30
0.0
 10
129.664903154784
 20
376.4317373649624
 30
0.0
 10
129.6588088908163
 20
376.430439756177
 30
0.0
 10
129.6452262257347
 20
376.427311289153
 30
0.0
 10
129.6318295790833
 20
376.4243153331021
 30
0.0
 10
129.6243087434658
 20
376.4226334127258
 30
0.0
  0
SPLINE
  5
1AF
330
6C
100
AcDbEntity
  8
Sichtbare Kanten(DIN)
100
AcDbSpline
210
0.0
220
0.0
230
1.0
 70
     8
 71
     3
 72
    10
 73
     6
 74
     0
 42
0.0000000001
 43
0.0000000001
 40
0.0
 40
0.0
 40
0.0
 40
0.0
 40
0.0062279393423901
 40
0.0112592926308834
 40
0.0126740723008073
 40
0.0126740723008073
 40
0.0126740723008073
 40
0.0126740723008073
 10
129.777499289527
 20
376.4874152983054
 30
0.0
 10
129.7610300572781
 20
376.4745461933525
 30
0.0
 10
129.7312558582849
 20
376.4512805495183
 30
0.0
 10
129.6907001150339
 20
376.4373241173641
 30
0.0
 10
129.669714327105
 20
376.4327786895165
 30
0.0
 10
129.6651084236415
 20
376.4317810714171
 30
0.0
  0
SPLINE
  5
1B0
330
6C
100
AcDbEntity
  8
Sichtbare Kanten(DIN)
100
AcDbSpline
210
0.0
220
0.0
230
1.0
 70
     8
 71
     3
 72
    10
 73
     6
 74
     0
 42
0.0000000001
 43
0.0000000001
 40
0.0
 40
0.0
 40
0.0
 40
0.0
 40
0.0014451006219226
 40
0.005817614222278
 40
0.0109995755152577
 40
0.0109995755152577
 40
0.0109995755152577
 40
0.0109995755152577
 10
129.8231440486416
 20
376.5860192021139
 30
0.0
 10
129.822292750889
 20
376.5812823080811
 30
0.0
 10
129.8188656387298
 20
376.5622127556384
 30
0.0
 10
129.8076831619726
 20
376.5266337597021
 30
0.0
 10
129.7881132301507
 20
376.5012061868457
 30
0.0
 10
129.777499289527
 20
376.4874152983054
 30
0.0
  0
SPLINE
  5
1B1
330
6C
100
AcDbEntity
  8
Sichtbare Kanten(DIN)
100
AcDbSpline
210
0.0
220
0.0
230
1.0
 70
    24
 71
     3
 72
    10
 73
     6
 74
     0
 42
0.0000000001
 43
0.0000000001
 40
0.0
 40
0.0
 40
0.0
 40
0.0
 40
0.0282805628125049
 40
0.080801608035788
 40
0.109082170848312
 40
0.109082170848312
 40
0.109082170848312
 40
0.109082170848312
 10
130.0126072127041
 20
377.6602611251282
 30
0.0
 10
129.9962338528469
 20
377.5674254033861
 30
0.0
 10
129.9494528246836
 20
377.3021804841234
 30
0.0
 10
129.8862984366623
 20
376.9440998431187
 30
0.0
 10
129.8395174084988
 20
376.6788549238559
 30
0.0
 10
129.8231440486416
 20
376.5860192021139
 30
0.0
  0
SPLINE
  5
1B2
330
6C
100
AcDbEntity
  8
Sichtbare Kanten(DIN)
100
AcDbSpline
210
0.0
220
0.0
230
1.0
 70
     8
 71
     3
 72
    10
 73
     6
 74
     0
 42
0.0000000001
 43
0.0000000001
 40
0.0
 40
0.0
 40
0.0
 40
0.0
 40
0.0011974721338972
 40
0.0024275869633851
 40
0.0037663461996526
 40
0.0037663461996526
 40
0.0037663461996526
 40
0.0037663461996526
 10
130.0038711051196
 20
377.6957854683899
 30
0.0
 10
130.0061703486833
 20
377.6924932919666
 30
0.0
 10
130.0108315124321
 20
377.6858191954763
 30
0.0
 10
130.0138787984694
 20
377.6732777208035
 30
0.0
 10
130.0130428593107
 20
377.664720624354
 30
0.0
 10
130.0126072127041
 20
377.6602611251282
 30
0.0
  0
SPLINE
  5
1B3
330
6C
100
AcDbEntity
  8
Sichtbare Kanten(DIN)
100
AcDbSpline
210
0.0
220
0.0
230
1.0
 70
     8
 71
     3
 72
    10
 73
     6
 74
     0
 42
0.0000000001
 43
0.0000000001
 40
0.0
 40
0.0
 40
0.0
 40
0.0
 40
0.0013378531443935
 40
0.0025654958739356
 40
0.0037644824675515
 40
0.0037644824675515
 40
0.0037644824675515
 40
0.0037644824675515
 10
129.9703858105231
 20
377.7104703601542
 30
0.0
 10
129.9748512118561
 20
377.7101371420578
 30
0.0
 10
129.9834141611925
 20
377.7094981558917
 30
0.0
 10
129.9952419357287
 20
377.7043504854698
 30
0.0
 10
130.0010174497266
 20
377.6986179086947
 30
0.0
 10
130.0038711051196
 20
377.6957854683899
 30
0.0
  0
LINE
  5
1B4
330
6C
100
AcDbEntity
  8
Sichtbare Kanten(DIN)
100
AcDbLine
 10
128.9642181819421
 20
377.7104703601543
 30
0.0
 11
129.9703858105231
 21
377.7104703601542
 31
0.0
  0
SPLINE
  5
1B5
330
6C
100
AcDbEntity
  8
Sichtbare Kanten(DIN)
100
AcDbSpline
210
0.0
220
0.0
230
1.0
 70
     8
 71
     3
 72
    10
 73
     6
 74
     0
 42
0.0000000001
 43
0.0000000001
 40
0.0
 40
0.0
 40
0.0
 40
0.0
 40
0.002887171775603
 40
0.0058375627860816
 40
0.0087027008604811
 40
0.0087027008604811
 40
0.0087027008604811
 40
0.0087027008604811
 10
128.9025603434005
 20
377.6577356978822
 30
0.0
 10
128.9055872372835
 20
377.6669938687652
 30
0.0
 10
128.9117073037229
 20
377.6857129329619
 30
0.0
 10
128.9352925521011
 20
377.7058683732222
 30
0.0
 10
128.9546709983141
 20
377.7089514298998
 30
0.0
 10
128.9642181819421
 20
377.7104703601543
 30
0.0
  0
SPLINE
  5
1B6
330
6C
100
AcDbEntity
  8
Sichtbare Kanten(DIN)
100
AcDbSpline
210
0.0
220
0.0
230
1.0
 70
    24
 71
     3
 72
    10
 73
     6
 74
     0
 42
0.0000000001
 43
0.0000000001
 40
0.0
 40
0.0
 40
0.0
 40
0.0
 40
0.007630850476983
 40
0.021802429934259
 40
0.0294332804112467
 40
0.0294332804112467
 40
0.0294332804112467
 40
0.0294332804112467
 10
128.846028186825
 20
377.3688829415345
 30
0.0
 10
128.8509136818376
 20
377.3938455254163
 30
0.0
 10
128.8648722390168
 20
377.4651671936502
 30
0.0
 10
128.8837162912088
 20
377.5614514457661
 30
0.0
 10
128.8976748483878
 20
377.6327731140002
 30
0.0
 10
128.9025603434005
 20
377.6577356978822
 30
0.0
  0
SPLINE
  5
1B7
330
6C
100
AcDbEntity
  8
Sichtbare Kanten(DIN)
100
AcDbSpline
210
0.0
220
0.0
230
1.0
 70
     8
 71
     3
 72
    10
 73
     6
 74
     0
 42
0.0000000001
 43
0.0000000001
 40
0.0
 40
0.0
 40
0.0
 40
0.0
 40
0.001208614172212
 40
0.0024446859839358
 40
0.0037855685811102
 40
0.0037855685811102
 40
0.0037855685811102
 40
0.0037855685811102
 10
128.8552319661218
 20
377.3332650639302
 30
0.0
 10
128.8528865146437
 20
377.3365696608954
 30
0.0
 10
128.8481423270554
 20
377.3432539295967
 30
0.0
 10
128.8449329642794
 20
377.3558163013797
 30
0.0
 10
128.8456533461031
 20
377.36441087433
 30
0.0
 10
128.846028186825
 20
377.3688829415345
 30
0.0
  0
SPLINE
  5
1B8
330
6C
100
AcDbEntity
  8
Sichtbare Kanten(DIN)
100
AcDbSpline
210
0.0
220
0.0
230
1.0
 70
     8
 71
     3
 72
    10
 73
     6
 74
     0
 42
0.0000000001
 43
0.0000000001
 40
0.0
 40
0.0
 40
0.0
 40
0.0
 40
0.0013458088946092
 40
0.0025859262922667
 40
0.0037986230102094
 40
0.0037986230102094
 40
0.0037986230102094
 40
0.0037986230102094
 10
128.889053984351
 20
377.3184866378234
 30
0.0
 10
128.8845621873069
 20
377.3188227121474
 30
0.0
 10
128.875931351144
 20
377.3194684675991
 30
0.0
 10
128.8639939034727
 20
377.324646415939
 30
0.0
 10
128.8581307633566
 20
377.3304136725125
 30
0.0
 10
128.8552319661218
 20
377.3332650639302
 30
0.0
  0
LINE
  5
1B9
330
6C
100
AcDbEntity
  8
Sichtbare Kanten(DIN)
100
AcDbLine
 10
129.374048256812
 20
377.3184866378234
 30
0.0
 11
128.889053984351
 21
377.3184866378234
 31
0.0
  0
SPLINE
  5
1BA
330
6C
100
AcDbEntity
  8
Sichtbare Kanten(DIN)
100
AcDbSpline
210
0.0
220
0.0
230
1.0
 70
    24
 71
     3
 72
    10
 73
     6
 74
     0
 42
0.0000000001
 43
0.0000000001
 40
0.0
 40
0.0
 40
0.0
 40
0.0
 40
0.0124984602829984
 40
0.0357098865228624
 40
0.048208346805891
 40
0.048208346805891
 40
0.048208346805891
 40
0.048208346805891
 10
129.2913077774826
 20
376.8435566606099
 30
0.0
 10
129.2984581892765
 20
376.8845999919741
 30
0.0
 10
129.3188879372592
 20
377.0018666530143
 30
0.0
 10
129.3464680970354
 20
377.1601766454188
 30
0.0
 10
129.3668978450181
 20
377.2774433064594
 30
0.0
 10
129.374048256812
 20
377.3184866378234
 30
0.0
  0
SPLINE
  5
1BB
330
6C
100
AcDbEntity
  8
Sichtbare Kanten(DIN)
100
AcDbSpline
210
0.0
220
0.0
230
1.0
 70
     8
 71
     3
 72
    10
 73
     6
 74
     0
 42
0.0000000001
 43
0.0000000001
 40
0.0
 40
0.0
 40
0.0
 40
0.0
 40
0.0001061140021708
 40
0.0008753003865788
 40
0.0033406392921189
 40
0.0033406392921189
 40
0.0033406392921189
 40
0.0033406392921189
 10
129.2780633145919
 20
376.8135695504212
 30
0.0
 10
129.2783844949839
 20
376.8137216413305
 30
0.0
 10
129.2810338090759
 20
376.8149761904853
 30
0.0
 10
129.287001672366
 20
376.8253020728011
 30
0.0
 10
129.2894452754806
 20
376.8356610785423
 30
0.0
 10
129.2913077774826
 20
376.8435566606099
 30
0.0
  0
SPLINE
  5
1BC
330
6C
100
AcDbEntity
  8
Sichtbare Kanten(DIN)
100
AcDbSpline
210
0.0
220
0.0
230
1.0
 70
     8
 71
     3
 72
    10
 73
     6
 74
     0
 42
0.0000000001
 43
0.0000000001
 40
0.0
 40
0.0
 40
0.0
 40
0.0
 40
0.0015313901309452
 40
0.003066487739373
 40
0.004374818392879
 40
0.004374818392879
 40
0.004374818392879
 40
0.004374818392879
 10
129.240238026506
 20
376.7926178577128
 30
0.0
 10
129.2451638082764
 20
376.7940169225146
 30
0.0
 10
129.2550272970769
 20
376.7968184392374
 30
0.0
 10
129.2677213596796
 20
376.8043620924591
 30
0.0
 10
129.2748042870557
 20
376.8106680333202
 30
0.0
 10
129.2780633145919
 20
376.8135695504212
 30
0.0
  0
SPLINE
  5
1BD
330
6C
100
AcDbEntity
  8
Sichtbare Kanten(DIN)
100
AcDbSpline
210
0.0
220
0.0
230
1.0
 70
     8
 71
     3
 72
    13
 73
     9
 74
     0
 42
0.0000000001
 43
0.0000000001
 40
0.0
 40
0.0
 40
0.0
 40
0.0
 40
0.0141330863714494
 40
0.0294904350099191
 40
0.0479706055027398
 40
0.0625618731963478
 40
0.0763426695093359
 40
0.0889650430344739
 40
0.0889650430344739
 40
0.0889650430344739
 40
0.0889650430344739
 10
128.4034985058352
 20
376.9464818510396
 30
0.0
 10
128.4371819128613
 20
376.9129967398108
 30
0.0
 10
128.5074665131043
 20
376.8431259083065
 30
0.0
 10
128.6585313853248
 20
376.7807864392941
 30
0.0
 10
128.8190967746204
 20
376.7565636068338
 30
0.0
 10
128.9755524449591
 20
376.7602451135195
 30
0.0
 10
129.1118220639223
 20
376.7715305238943
 30
0.0
 10
129.1987033262397
 20
376.7857973965182
 30
0.0
 10
129.240238026506
 20
376.7926178577128
 30
0.0
  0
SPLINE
  5
1BE
330
6C
100
AcDbEntity
  8
Sichtbare Kanten(DIN)
100
AcDbSpline
210
0.0
220
0.0
230
1.0
 70
     8
 71
     3
 72
    10
 73
     6
 74
     0
 42
0.0000000001
 43
0.0000000001
 40
0.0
 40
0.0
 40
0.0
 40
0.0
 40
0.0257321364148008
 40
0.0459975558651696
 40
0.0631323921591002
 40
0.0631323921591002
 40
0.0631323921591002
 40
0.0631323921591002
 10
128.2983284911868
 20
377.5511252543599
 30
0.0
 10
128.287764393409
 20
377.4659320989077
 30
0.0
 10
128.2688805094645
 20
377.3136448241912
 30
0.0
 10
128.3028742263308
 20
377.0997627869943
 30
0.0
 10
128.3718825225837
 20
376.9946424692105
 30
0.0
 10
128.4034985058352
 20
376.9464818510396
 30
0.0
  0
SPLINE
  5
1BF
330
6C
100
AcDbEntity
  8
Sichtbare Kanten(DIN)
100
AcDbSpline
210
0.0
220
0.0
230
1.0
 70
     8
 71
     3
 72
    13
 73
     9
 74
     0
 42
0.0000000001
 43
0.0000000001
 40
0.0
 40
0.0
 40
0.0
 40
0.0
 40
0.0126149146707674
 40
0.0254558351656709
 40
0.0436022211516248
 40
0.0815882182461035
 40
0.1224783790911748
 40
0.1679868711023061
 40
0.1679868711023061
 40
0.1679868711023061
 40
0.1679868711023061
 10
129.4408130704514
 20
378.1173821635397
 30
0.0
 10
129.4280431221995
 20
378.1586514661507
 30
0.0
 10
129.4022744423267
 20
378.2419294424266
 30
0.0
 10
129.2735460040483
 20
378.3275136164804
 30
0.0
 10
129.0450594965714
 20
378.3654019762106
 30
0.0
 10
128.7084958983724
 20
378.3052128031442
 30
0.0
 10
128.4084113114314
 20
377.980616624967
 30
0.0
 10
128.3363075040045
 20
377.6993014932421
 30
0.0
 10
128.2983284911868
 20
377.5511252543599
 30
0.0
  0
SPLINE
  5
1C0
330
6C
100
AcDbEntity
  8
Sichtbare Kanten(DIN)
100
AcDbSpline
210
0.0
220
0.0
230
1.0
 70
     8
 71
     3
 72
    10
 73
     6
 74
     0
 42
0.0000000001
 43
0.0000000001
 40
0.0
 40
0.0
 40
0.0
 40
0.0
 40
0.0001493678640701
 40
0.0017599685334196
 40
0.0036446683607068
 40
0.0036446683607068
 40
0.0036446683607068
 40
0.0036446683607068
 10
129.4459761661545
 20
378.0813153210917
 30
0.0
 10
129.4458458071051
 20
378.0817959954882
 30
0.0
 10
129.4443098152333
 20
378.0874596756782
 30
0.0
 10
129.4432935224818
 20
378.0996403281666
 30
0.0
 10
129.441682012316
 20
378.1111669159467
 30
0.0
 10
129.4408130704514
 20
378.1173821635397
 30
0.0
  0
SPLINE
  5
1C1
330
6C
100
AcDbEntity
  8
Sichtbare Kanten(DIN)
100
AcDbSpline
210
0.0
220
0.0
230
1.0
 70
     8
 71
     3
 72
    10
 73
     6
 74
     0
 42
0.0000000001
 43
0.0000000001
 40
0.0
 40
0.0
 40
0.0
 40
0.0
 40
0.002047765729652
 40
0.0040061257373829
 40
0.0064275562272811
 40
0.0064275562272811
 40
0.0064275562272811
 40
0.0064275562272811
 10
129.4885342919682
 20
378.0404969340474
 30
0.0
 10
129.4816119557678
 20
378.0413553662569
 30
0.0
 10
129.4680695134785
 20
378.0430347514123
 30
0.0
 10
129.451533602645
 20
378.0590226134604
 30
0.0
 10
129.4479547735529
 20
378.0733784753312
 30
0.0
 10
129.4459761661545
 20
378.0813153210917
 30
0.0
  0
LINE
  5
1C2
330
6C
100
AcDbEntity
  8
Sichtbare Kanten(DIN)
100
AcDbLine
 10
130.0193042716234
 20
378.0404969340474
 30
0.0
 11
129.4885342919682
 21
378.0404969340474
 31
0.0
  0
SPLINE
  5
1C3
330
6C
100
AcDbEntity
  8
Sichtbare Kanten(DIN)
100
AcDbSpline
210
0.0
220
0.0
230
1.0
 70
     8
 71
     3
 72
    10
 73
     6
 74
     0
 42
0.0000000001
 43
0.0000000001
 40
0.0
 40
0.0
 40
0.0
 40
0.0
 40
0.0031448691298877
 40
0.0055525733140845
 40
0.0078622774006783
 40
0.0078622774006783
 40
0.0078622774006783
 40
0.0078622774006783
 10
130.0699811783616
 20
378.092445907843
 30
0.0
 10
130.0672606731446
 20
378.082232107241
 30
0.0
 10
130.0624573557266
 20
378.0641986456513
 30
0.0
 10
130.0430360077027
 20
378.043902869521
 30
0.0
 10
130.0271045293988
 20
378.0416164128151
 30
0.0
 10
130.0193042716234
 20
378.0404969340474
 30
0.0
  0
SPLINE
  5
1C4
330
6C
100
AcDbEntity
  8
Sichtbare Kanten(DIN)
100
AcDbSpline
210
0.0
220
0.0
230
1.0
 70
     8
 71
     3
 72
    10
 73
     6
 74
     0
 42
0.0000000001
 43
0.0000000001
 40
0.0
 40
0.0
 40
0.0
 40
0.0
 40
0.0149600583058825
 40
0.0306900242774319
 40
0.04923021989059
 40
0.04923021989059
 40
0.04923021989059
 40
0.04923021989059
 10
129.9422880940517
 20
378.5533457336894
 30
0.0
 10
129.9727950152405
 20
378.5134466596054
 30
0.0
 10
130.0353788723867
 20
378.4315951368878
 30
0.0
 10
130.0792457961032
 20
378.2687814207582
 30
0.0
 10
130.0732337188541
 20
378.1543522284298
 30
0.0
 10
130.0699811783616
 20
378.092445907843
 30
0.0
  0
SPLINE
  5
1C5
330
6C
100
AcDbEntity
  8
Sichtbare Kanten(DIN)
100
AcDbSpline
210
0.0
220
0.0
230
1.0
 70
     8
 71
     3
 72
    13
 73
     9
 74
     0
 42
0.0000000001
 43
0.0000000001
 40
0.0
 40
0.0
 40
0.0
 40
0.0
 40
0.0229026576484617
 40
0.0432739635693801
 40
0.0645629699844578
 40
0.0801076089824919
 40
0.0932173039948864
 40
0.1051889127042267
 40
0.1051889127042267
 40
0.1051889127042267
 40
0.1051889127042267
 10
132.079622646461
 20
376.5121083647116
 30
0.0
 10
132.0211707663734
 20
376.4621997691668
 30
0.0
 10
131.9107274908243
 20
376.3678988029405
 30
0.0
 10
131.7055650071049
 20
376.2907641709412
 30
0.0
 10
131.5136523608426
 20
376.2734961135708
 30
0.0
 10
131.3477057640197
 20
376.2945781702887
 30
0.0
 10
131.2188885000399
 20
376.345806510243
 30
0.0
 10
131.1587613944638
 20
376.4048895194597
 30
0.0
 10
131.1300620019296
 20
376.4330905522115
 30
0.0
  0
SPLINE
  5
1C6
330
6C
100
AcDbEntity
  8
Sichtbare Kanten(DIN)
100
AcDbSpline
210
0.0
220
0.0
230
1.0
 70
    24
 71
     3
 72
    10
 73
     6
 74
     0
 42
0.0000000001
 43
0.0000000001
 40
0.0
 40
0.0
 40
0.0
 40
0.0
 40
0.000445625072251
 40
0.0012732144921481
 40
0.0017188395643828
 40
0.0017188395643828
 40
0.0017188395643828
 40
0.0017188395643828
 10
132.0920814208751
 20
376.5239498124655
 30
0.0
 10
132.0910047366665
 20
376.5229264774743
 30
0.0
 10
132.0879284960705
 20
376.520002663214
 30
0.0
 10
132.0837755712656
 20
376.5160555139628
 30
0.0
 10
132.0806993306697
 20
376.5131316997026
 30
0.0
 10
132.079622646461
 20
376.5121083647116
 30
0.0
  0
SPLINE
  5
1C7
330
6C
100
AcDbEntity
  8
Sichtbare Kanten(DIN)
100
AcDbSpline
210
0.0
220
0.0
230
1.0
 70
    24
 71
     3
 72
    10
 73
     6
 74
     0
 42
0.0000000001
 43
0.0000000001
 40
0.0
 40
0.0
 40
0.0
 40
0.0
 40
0.0004437027607032
 40
0.0012677221734459
 40
0.0017114249341747
 40
0.0017114249341747
 40
0.0017114249341747
 40
0.0017114249341747
 10
132.090510043922
 20
376.5069078552714
 30
0.0
 10
132.0906458419303
 20
376.5083806170042
 30
0.0
 10
132.0910338362398
 20
376.5125885076693
 30
0.0
 10
132.0915576285571
 20
376.5182691600673
 30
0.0
 10
132.0919456228667
 20
376.5224770507327
 30
0.0
 10
132.0920814208751
 20
376.5239498124655
 30
0.0
  0
SPLINE
  5
1C8
330
6C
100
AcDbEntity
  8
Sichtbare Kanten(DIN)
100
AcDbSpline
210
0.0
220
0.0
230
1.0
 70
     8
 71
     3
 72
    10
 73
     6
 74
     0
 42
0.0000000001
 43
0.0000000001
 40
0.0
 40
0.0
 40
0.0
 40
0.0
 40
0.0000978161838524
 40
0.0052407690406007
 40
0.0138474745991061
 40
0.0138474745991061
 40
0.0138474745991061
 40
0.0138474745991061
 10
132.0789491991955
 20
376.3689259932923
 30
0.0
 10
132.0789346384982
 20
376.3692517463393
 30
0.0
 10
132.0781545093955
 20
376.3867048549857
 30
0.0
 10
132.0852446332548
 20
376.4326690868415
 30
0.0
 10
132.0884829772975
 20
376.4783275717489
 30
0.0
 10
132.090510043922
 20
376.5069078552714
 30
0.0
  0
SPLINE
  5
1C9
330
6C
100
AcDbEntity
  8
Sichtbare Kanten(DIN)
100
AcDbSpline
210
0.0
220
0.0
230
1.0
 70
     8
 71
     3
 72
    10
 73
     6
 74
     0
 42
0.0000000001
 43
0.0000000001
 40
0.0
 40
0.0
 40
0.0
 40
0.0
 40
0.001937478184313
 40
0.0036503024713538
 40
0.0058461245166667
 40
0.0058461245166667
 40
0.0058461245166667
 40
0.0058461245166667
 10
132.1142303531668
 20
376.3304085510723
 30
0.0
 10
132.1076276714469
 20
376.3311565787252
 30
0.0
 10
132.095187900205
 20
376.3325658989501
 30
0.0
 10
132.0808847921585
 20
376.3482460093626
 30
0.0
 10
132.0796454461798
 20
376.3614872514068
 30
0.0
 10
132.0789491991955
 20
376.3689259932923
 30
0.0
  0
LINE
  5
1CA
330
6C
100
AcDbEntity
  8
Sichtbare Kanten(DIN)
100
AcDbLine
 10
132.6168090820081
 20
376.3304085510723
 30
0.0
 11
132.1142303531668
 21
376.3304085510723
 31
0.0
  0
SPLINE
  5
1CB
330
6C
100
AcDbEntity
  8
Sichtbare Kanten(DIN)
100
AcDbSpline
210
0.0
220
0.0
230
1.0
 70
     8
 71
     3
 72
    10
 73
     6
 74
     0
 42
0.0000000001
 43
0.0000000001
 40
0.0
 40
0.0
 40
0.0
 40
0.0
 40
0.002621898199471
 40
0.0048850710384235
 40
0.0075494481327262
 40
0.0075494481327262
 40
0.0075494481327262
 40
0.0075494481327262
 10
132.6700862434664
 20
376.3745941744446
 30
0.0
 10
132.6676777556325
 20
376.3660252804892
 30
0.0
 10
132.6631903067433
 20
376.3500598796582
 30
0.0
 10
132.6424615596737
 20
376.3328261760977
 30
0.0
 10
132.6258117862828
 20
376.3312570134872
 30
0.0
 10
132.6168090820081
 20
376.3304085510723
 30
0.0
  0
SPLINE
  5
1CC
330
6C
100
AcDbEntity
  8
Sichtbare Kanten(DIN)
100
AcDbSpline
210
0.0
220
0.0
230
1.0
 70
     8
 71
     3
 72
    10
 73
     6
 74
     0
 42
0.0000000001
 43
0.0000000001
 40
0.0
 40
0.0
 40
0.0
 40
0.0
 40
0.0000133877693436
 40
0.0011214026620799
 40
0.0052633669803299
 40
0.0052633669803299
 40
0.0052633669803299
 40
0.0052633669803299
 10
132.6746507193778
 20
376.427029526821
 30
0.0
 10
132.6746461109241
 20
376.4269851394811
 30
0.0
 10
132.6742600920067
 20
376.4232671129875
 30
0.0
 10
132.6728767931574
 20
376.4057752510916
 30
0.0
 10
132.6713169107093
 20
376.3883454184203
 30
0.0
 10
132.6700862434664
 20
376.3745941744446
 30
0.0
  0
SPLINE
  5
1CD
330
6C
100
AcDbEntity
  8
Sichtbare Kanten(DIN)
100
AcDbSpline
210
0.0
220
0.0
230
1.0
 70
     8
 71
     3
 72
    10
 73
     6
 74
     0
 42
0.0000000001
 43
0.0000000001
 40
0.0
 40
0.0
 40
0.0
 40
0.0
 40
0.0013651074904652
 40
0.0157406004844246
 40
0.0266332792872953
 40
0.0266332792872953
 40
0.0266332792872953
 40
0.0266332792872953
 10
132.7039082616956
 20
376.6917504228168
 30
0.0
 10
132.7034083688203
 20
376.6872276064614
 30
0.0
 10
132.6976442703217
 20
376.6350765152004
 30
0.0
 10
132.6878919888753
 20
376.5468361908203
 30
0.0
 10
132.6786393671332
 20
376.4631187085671
 30
0.0
 10
132.6746507193778
 20
376.427029526821
 30
0.0
  0
SPLINE
  5
1CE
330
6C
100
AcDbEntity
  8
Sichtbare Kanten(DIN)
100
AcDbSpline
210
0.0
220
0.0
230
1.0
 70
     8
 71
     3
 72
    10
 73
     6
 74
     0
 42
0.0000000001
 43
0.0000000001
 40
0.0
 40
0.0
 40
0.0
 40
0.0
 40
0.0000276844043069
 40
0.0023284350569945
 40
0.006811561276057
 40
0.006811561276057
 40
0.006811561276057
 40
0.006811561276057
 10
132.7146085904716
 20
376.7590203219055
 30
0.0
 10
132.7145937442844
 20
376.7589292426072
 30
0.0
 10
132.7133450852068
 20
376.7512688924386
 30
0.0
 10
132.7098250793306
 20
376.7288380473378
 30
0.0
 10
132.7062625559174
 20
376.7065075415071
 30
0.0
 10
132.7039082616956
 20
376.6917504228168
 30
0.0
  0
SPLINE
  5
1CF
330
6C
100
AcDbEntity
  8
Sichtbare Kanten(DIN)
100
AcDbSpline
210
0.0
220
0.0
230
1.0
 70
     8
 71
     3
 72
    10
 73
     6
 74
     0
 42
0.0000000001
 43
0.0000000001
 40
0.0
 40
0.0
 40
0.0
 40
0.0
 40
0.0232114797897229
 40
0.0868708613137958
 40
0.1248352191515127
 40
0.1248352191515127
 40
0.1248352191515127
 40
0.1248352191515127
 10
132.9417848014092
 20
377.9865276184549
 30
0.0
 10
132.9277065055555
 20
377.9104476213172
 30
0.0
 10
132.8750173320209
 20
377.6257120103187
 30
0.0
 10
132.7992862101905
 20
377.2165439696655
 30
0.0
 10
132.7376387163946
 20
376.8834549394069
 30
0.0
 10
132.7146085904716
 20
376.7590203219055
 30
0.0
  0
SPLINE
  5
1D0
330
6C
100
AcDbEntity
  8
Sichtbare Kanten(DIN)
100
AcDbSpline
210
0.0
220
0.0
230
1.0
 70
     8
 71
     3
 72
    10
 73
     6
 74
     0
 42
0.0000000001
 43
0.0000000001
 40
0.0
 40
0.0
 40
0.0
 40
0.0
 40
0.0136948136430338
 40
0.0394152339470988
 40
0.0541152299756576
 40
0.0541152299756576
 40
0.0541152299756576
 40
0.0541152299756576
 10
132.4006325097424
 20
377.9866211527974
 30
0.0
 10
132.4462818878386
 20
377.9866130806093
 30
0.0
 10
132.577665998941
 20
377.9865898479319
 30
0.0
 10
132.7580500959786
 20
377.9865575743635
 30
0.0
 10
132.892784815298
 20
377.9865356073598
 30
0.0
 10
132.9417848014092
 20
377.9865276184549
 30
0.0
  0
SPLINE
  5
1D1
330
6C
100
AcDbEntity
  8
Sichtbare Kanten(DIN)
100
AcDbSpline
210
0.0
220
0.0
230
1.0
 70
     8
 71
     3
 72
    10
 73
     6
 74
     0
 42
0.0000000001
 43
0.0000000001
 40
0.0
 40
0.0
 40
0.0
 40
0.0
 40
0.0028830672147747
 40
0.0058563601479538
 40
0.0087290673659723
 40
0.0087290673659723
 40
0.0087290673659723
 40
0.0087290673659723
 10
132.3381141552502
 20
377.9342045072897
 30
0.0
 10
132.3413092249812
 20
377.9433851842217
 30
0.0
 10
132.3477993542944
 20
377.9620338477839
 30
0.0
 10
132.3715959349595
 20
377.9819980548999
 30
0.0
 10
132.3910653142359
 20
377.9850978987028
 30
0.0
 10
132.4006325097424
 20
377.9866211527974
 30
0.0
  0
SPLINE
  5
1D2
330
6C
100
AcDbEntity
  8
Sichtbare Kanten(DIN)
100
AcDbSpline
210
0.0
220
0.0
230
1.0
 70
     8
 71
     3
 72
    10
 73
     6
 74
     0
 42
0.0000000001
 43
0.0000000001
 40
0.0
 40
0.0
 40
0.0
 40
0.0
 40
0.0003033916010682
 40
0.0329732673994525
 40
0.091433609618394
 40
0.091433609618394
 40
0.091433609618394
 40
0.091433609618394
 10
132.1823981819429
 20
377.0332256002258
 30
0.0
 10
132.1825739199878
 20
377.0342215192398
 30
0.0
 10
132.2016735177587
 20
377.1424601911091
 30
0.0
 10
132.2529775195654
 20
377.4428916414405
 30
0.0
 10
132.304842558101
 20
377.7421982855818
 30
0.0
 10
132.3381141552502
 20
377.9342045072897
 30
0.0
  0
SPLINE
  5
1D3
330
6C
100
AcDbEntity
  8
Sichtbare Kanten(DIN)
100
AcDbSpline
210
0.0
220
0.0
230
1.0
 70
     8
 71
     3
 72
    13
 73
     9
 74
     0
 42
0.0000000001
 43
0.0000000001
 40
0.0
 40
0.0
 40
0.0
 40
0.0
 40
0.007011922375534
 40
0.0145744932704933
 40
0.0248805847956153
 40
0.0499072791905735
 40
0.0721278514224026
 40
0.0795745374886445
 40
0.0795745374886445
 40
0.0795745374886445
 40
0.0795745374886445
 10
131.6500755322032
 20
376.8074898181621
 30
0.0
 10
131.6578698972254
 20
376.7851723206567
 30
0.0
 10
131.6740707212622
 20
376.7387847253884
 30
0.0
 10
131.7391784331287
 20
376.6807555531823
 30
0.0
 10
131.884017028309
 20
376.651879354709
 30
0.0
 10
132.0835545243947
 20
376.7350330678854
 30
0.0
 10
132.1618367547662
 20
376.9115675023777
 30
0.0
 10
132.178272657268
 20
377.0088156465653
 30
0.0
 10
132.1823981819429
 20
377.0332256002258
 30
0.0
  0
SPLINE
  5
1D4
330
6C
100
AcDbEntity
  8
Sichtbare Kanten(DIN)
100
AcDbSpline
210
0.0
220
0.0
230
1.0
 70
     8
 71
     3
 72
    10
 73
     6
 74
     0
 42
0.0000000001
 43
0.0000000001
 40
0.0
 40
0.0
 40
0.0
 40
0.0
 40
0.0005599645648466
 40
0.0060567009795872
 40
0.0151421821733425
 40
0.0151421821733425
 40
0.0151421821733425
 40
0.0151421821733425
 10
131.6478494148529
 20
376.9586039018209
 30
0.0
 10
131.6476303278214
 20
376.9567503297118
 30
0.0
 10
131.6452606338768
 20
376.9367016825047
 30
0.0
 10
131.6425394568342
 20
376.8861382013166
 30
0.0
 10
131.6471826074786
 20
376.8376811101858
 30
0.0
 10
131.6500755322032
 20
376.8074898181621
 30
0.0
  0
SPLINE
  5
1D5
330
6C
100
AcDbEntity
  8
Sichtbare Kanten(DIN)
100
AcDbSpline
210
0.0
220
0.0
230
1.0
 70
     8
 71
     3
 72
    10
 73
     6
 74
     0
 42
0.0000000001
 43
0.0000000001
 40
0.0
 40
0.0
 40
0.0
 40
0.0
 40
0.0364553241020064
 40
0.086543356765523
 40
0.0992284203541535
 40
0.0992284203541535
 40
0.0992284203541535
 40
0.0992284203541535
 10
131.8167911441824
 20
377.9363932109028
 30
0.0
 10
131.795849818768
 20
377.8166942887736
 30
0.0
 10
131.7461360213702
 20
377.5325342441866
 30
0.0
 10
131.6879672703684
 20
377.2069126808184
 30
0.0
 10
131.6545935171385
 20
377.000346407308
 30
0.0
 10
131.6478494148529
 20
376.9586039018209
 30
0.0
  0
SPLINE
  5
1D6
330
6C
100
AcDbEntity
  8
Sichtbare Kanten(DIN)
100
AcDbSpline
210
0.0
220
0.0
230
1.0
 70
     8
 71
     3
 72
    10
 73
     6
 74
     0
 42
0.0000000001
 43
0.0000000001
 40
0.0
 40
0.0
 40
0.0
 40
0.0
 40
0.0011963695904978
 40
0.0024277293993698
 40
0.0037682802801585
 40
0.0037682802801585
 40
0.0037682802801585
 40
0.0037682802801585
 10
131.8081111572033
 20
377.9719549679017
 30
0.0
 10
131.8104005128202
 20
377.9686606369375
 30
0.0
 10
131.815046180832
 20
377.9619756257202
 30
0.0
 10
131.8180773873351
 20
377.9494245423343
 30
0.0
 10
131.8172318576207
 20
377.9408582165045
 30
0.0
 10
131.8167911441824
 20
377.9363932109028
 30
0.0
  0
SPLINE
  5
1D7
330
6C
100
AcDbEntity
  8
Sichtbare Kanten(DIN)
100
AcDbSpline
210
0.0
220
0.0
230
1.0
 70
     8
 71
     3
 72
    10
 73
     6
 74
     0
 42
0.0000000001
 43
0.0000000001
 40
0.0
 40
0.0
 40
0.0
 40
0.0
 40
0.0013342302801217
 40
0.0025597299351589
 40
0.0037566332053006
 40
0.0037566332053006
 40
0.0037566332053006
 40
0.0037566332053006
 10
131.7747006900808
 20
377.9866211527974
 30
0.0
 10
131.7791539757585
 20
377.9862878704147
 30
0.0
 10
131.787697634847
 20
377.9856484658794
 30
0.0
 10
131.7994985444245
 20
377.9805063207169
 30
0.0
 10
131.8052629692238
 20
377.9747828972329
 30
0.0
 10
131.8081111572033
 20
377.9719549679017
 30
0.0
  0
LINE
  5
1D8
330
6C
100
AcDbEntity
  8
Sichtbare Kanten(DIN)
100
AcDbLine
 10
131.2973388199635
 20
377.9866211527974
 30
0.0
 11
131.7747006900808
 21
377.9866211527974
 31
0.0
  0
SPLINE
  5
1D9
330
6C
100
AcDbEntity
  8
Sichtbare Kanten(DIN)
100
AcDbSpline
210
0.0
220
0.0
230
1.0
 70
     8
 71
     3
 72
    10
 73
     6
 74
     0
 42
0.0000000001
 43
0.0000000001
 40
0.0
 40
0.0
 40
0.0
 40
0.0
 40
0.0028822323715622
 40
0.0058561909534102
 40
0.0087413965309754
 40
0.0087413965309754
 40
0.0087413965309754
 40
0.0087413965309754
 10
131.2348017586028
 20
377.9341296798157
 30
0.0
 10
131.2379584621119
 20
377.9433235767254
 30
0.0
 10
131.2443723303048
 20
377.9620039636506
 30
0.0
 10
131.2682133050018
 20
377.9820062288952
 30
0.0
 10
131.2877288536944
 20
377.9850984582427
 30
0.0
 10
131.2973388199635
 20
377.9866211527974
 30
0.0
  0
SPLINE
  5
1DA
330
6C
100
AcDbEntity
  8
Sichtbare Kanten(DIN)
100
AcDbSpline
210
0.0
220
0.0
230
1.0
 70
    24
 71
     3
 72
    10
 73
     6
 74
     0
 42
0.0000000001
 43
0.0000000001
 40
0.0
 40
0.0
 40
0.0
 40
0.0
 40
0.0277236344761274
 40
0.0792103842174597
 40
0.1069340186935556
 40
0.1069340186935556
 40
0.1069340186935556
 40
0.1069340186935556
 10
131.0447586816172
 20
376.8818122066712
 30
0.0
 10
131.061182157406
 20
376.9727532228689
 30
0.0
 10
131.1081063739455
 20
377.2325846977195
 30
0.0
 10
131.1714540662742
 20
377.5833571887677
 30
0.0
 10
131.2183782828139
 20
377.843188663618
 30
0.0
 10
131.2348017586028
 20
377.9341296798157
 30
0.0
  0
SPLINE
  5
1DB
330
6C
100
AcDbEntity
  8
Sichtbare Kanten(DIN)
100
AcDbSpline
210
0.0
220
0.0
230
1.0
 70
     8
 71
     3
 72
    10
 73
     6
 74
     0
 42
0.0000000001
 43
0.0000000001
 40
0.0
 40
0.0
 40
0.0
 40
0.0
 40
0.0132753393276217
 40
0.0283927478350573
 40
0.0470112911819627
 40
0.0470112911819627
 40
0.0470112911819627
 40
0.0470112911819627
 10
131.1300620019296
 20
376.4330905522115
 30
0.0
 10
131.1052739214121
 20
376.4701835714276
 30
0.0
 10
131.0522581978907
 20
376.5495165899706
 30
0.0
 10
131.0239910043504
 20
376.7082420652235
 30
0.0
 10
131.0373731859129
 20
376.8200864047157
 30
0.0
 10
131.0447586816172
 20
376.8818122066712
 30
0.0
  0
SPLINE
  5
1DC
330
6C
100
AcDbEntity
  8
Sichtbare Kanten(DIN)
100
AcDbSpline
210
0.0
220
0.0
230
1.0
 70
    24
 71
     3
 72
    10
 73
     6
 74
     0
 42
0.0000000001
 43
0.0000000001
 40
0.0
 40
0.0
 40
0.0
 40
0.0
 40
0.0181734283307943
 40
0.0519240809451679
 40
0.0700975092759946
 40
0.0700975092759946
 40
0.0700975092759946
 40
0.0700975092759946
 10
133.4139087483494
 20
377.986452790981
 30
0.0
 10
133.424439560564
 20
378.0461085326962
 30
0.0
 10
133.4545275954629
 20
378.2165535090256
 30
0.0
 10
133.495146442577
 20
378.4466542270702
 30
0.0
 10
133.5252344774759
 20
378.6170992033998
 30
0.0
 10
133.5357652896906
 20
378.6767549451151
 30
0.0
  0
SPLINE
  5
1DD
330
6C
100
AcDbEntity
  8
Sichtbare Kanten(DIN)
100
AcDbSpline
210
0.0
220
0.0
230
1.0
 70
     8
 71
     3
 72
    10
 73
     6
 74
     0
 42
0.0000000001
 43
0.0000000001
 40
0.0
 40
0.0
 40
0.0
 40
0.0
 40
0.0069541430205842
 40
0.0235633077492395
 40
0.0332682957643675
 40
0.0332682957643675
 40
0.0332682957643675
 40
0.0332682957643675
 10
133.0812257991307
 20
377.9865276184549
 30
0.0
 10
133.1044062753673
 20
377.9865228074519
 30
0.0
 10
133.1829506328418
 20
377.9865065059255
 30
0.0
 10
133.2938449490093
 20
377.9864804591019
 30
0.0
 10
133.3815587891584
 20
377.9864602458724
 30
0.0
 10
133.4139087483494
 20
377.986452790981
 30
0.0
  0
SPLINE
  5
1DE
330
6C
100
AcDbEntity
  8
Sichtbare Kanten(DIN)
100
AcDbSpline
210
0.0
220
0.0
230
1.0
 70
     8
 71
     3
 72
    10
 73
     6
 74
     0
 42
0.0000000001
 43
0.0000000001
 40
0.0
 40
0.0
 40
0.0
 40
0.0
 40
0.0089865303058279
 40
0.0301677392837074
 40
0.0385831811169096
 40
0.0385831811169096
 40
0.0385831811169096
 40
0.0385831811169096
 10
133.0110376285577
 20
377.6071336186177
 30
0.0
 10
133.0164883831028
 20
377.6365886241839
 30
0.0
 10
133.0347865400576
 20
377.7354689370834
 30
0.0
 10
133.0581722628045
 20
377.8619355155488
 30
0.0
 10
133.0761220102965
 20
377.958944354237
 30
0.0
 10
133.0812257991307
 20
377.9865276184549
 30
0.0
  0
LINE
  5
1DF
330
6C
100
AcDbEntity
  8
Sichtbare Kanten(DIN)
100
AcDbLine
 10
133.3469755728936
 20
377.6071336186177
 30
0.0
 11
133.0110376285577
 21
377.6071336186177
 31
0.0
  0
SPLINE
  5
1E0
330
6C
100
AcDbEntity
  8
Sichtbare Kanten(DIN)
100
AcDbSpline
210
0.0
220
0.0
230
1.0
 70
    24
 71
     3
 72
    10
 73
     6
 74
     0
 42
0.0000000001
 43
0.0000000001
 40
0.0
 40
0.0
 40
0.0
 40
0.0
 40
0.0322906859289818
 40
0.0922591026542162
 40
0.1245497885832192
 40
0.1245497885832192
 40
0.1245497885832192
 40
0.1245497885832192
 10
133.130462276995
 20
376.3805990792298
 30
0.0
 10
133.1491733025666
 20
376.4865958912756
 30
0.0
 10
133.2026333756281
 20
376.7894439256923
 30
0.0
 10
133.2748044742606
 20
377.198288772155
 30
0.0
 10
133.3282645473221
 20
377.5011368065718
 30
0.0
 10
133.3469755728936
 20
377.6071336186177
 30
0.0
  0
SPLINE
  5
1E1
330
6C
100
AcDbEntity
  8
Sichtbare Kanten(DIN)
100
AcDbSpline
210
0.0
220
0.0
230
1.0
 70
     8
 71
     3
 72
    10
 73
     6
 74
     0
 42
0.0000000001
 43
0.0000000001
 40
0.0
 40
0.0
 40
0.0
 40
0.0
 40
0.0011976530204214
 40
0.0024246863521626
 40
0.0037634452255886
 40
0.0037634452255886
 40
0.0037634452255886
 40
0.0037634452255886
 10
133.1390674365003
 20
376.345074735968
 30
0.0
 10
133.1367788352226
 20
376.3483749853248
 30
0.0
 10
133.1321454896802
 20
376.355056444343
 30
0.0
 10
133.1291376861244
 20
376.3675971630511
 30
0.0
 10
133.1300081126761
 20
376.3761410940978
 30
0.0
 10
133.130462276995
 20
376.3805990792298
 30
0.0
  0
SPLINE
  5
1E2
330
6C
100
AcDbEntity
  8
Sichtbare Kanten(DIN)
100
AcDbSpline
210
0.0
220
0.0
230
1.0
 70
     8
 71
     3
 72
    10
 73
     6
 74
     0
 42
0.0000000001
 43
0.0000000001
 40
0.0
 40
0.0
 40
0.0
 40
0.0
 40
0.0013335986207283
 40
0.0025607713672859
 40
0.0037563435304863
 40
0.0037563435304863
 40
0.0037563435304863
 40
0.0037563435304863
 10
133.1724779036228
 20
376.3304085510723
 30
0.0
 10
133.1680269944806
 20
376.3307436933363
 30
0.0
 10
133.1594803744464
 20
376.3313872323297
 30
0.0
 10
133.1476805887524
 20
376.3365291070948
 30
0.0
 10
133.1419134129204
 20
376.342251070769
 30
0.0
 10
133.1390674365003
 20
376.345074735968
 30
0.0
  0
LINE
  5
1E3
330
6C
100
AcDbEntity
  8
Sichtbare Kanten(DIN)
100
AcDbLine
 10
133.6420577164484
 20
376.3304085510721
 30
0.0
 11
133.1724779036228
 21
376.3304085510723
 31
0.0
  0
SPLINE
  5
1E4
330
6C
100
AcDbEntity
  8
Sichtbare Kanten(DIN)
100
AcDbSpline
210
0.0
220
0.0
230
1.0
 70
     8
 71
     3
 72
    10
 73
     6
 74
     0
 42
0.0000000001
 43
0.0000000001
 40
0.0
 40
0.0
 40
0.0
 40
0.0
 40
0.002884408395733
 40
0.0058603573834223
 40
0.008730722791757
 40
0.008730722791757
 40
0.008730722791757
 40
0.008730722791757
 10
133.7045760709406
 20
376.382862610317
 30
0.0
 10
133.7013774556565
 20
376.3736788706865
 30
0.0
 10
133.6948787127166
 20
376.3550199330581
 30
0.0
 10
133.6710847438863
 20
376.335044765832
 30
0.0
 10
133.651616192535
 20
376.3319352367795
 30
0.0
 10
133.6420577164484
 20
376.3304085510721
 30
0.0
  0
SPLINE
  5
1E5
330
6C
100
AcDbEntity
  8
Sichtbare Kanten(DIN)
100
AcDbSpline
210
0.0
220
0.0
230
1.0
 70
    24
 71
     3
 72
    10
 73
     6
 74
     0
 42
0.0000000001
 43
0.0000000001
 40
0.0
 40
0.0
 40
0.0
 40
0.0
 40
0.0322305347736034
 40
0.0920872422103211
 40
0.1243177769839368
 40
0.1243177769839368
 40
0.1243177769839368
 40
0.1243177769839368
 10
133.9205655745214
 20
377.6071336186177
 30
0.0
 10
133.9018998149528
 20
377.5013324203694
 30
0.0
 10
133.848569073328
 20
377.1990432825175
 30
0.0
 10
133.7765725721343
 20
376.7909529464173
 30
0.0
 10
133.7232418305094
 20
376.4886638085652
 30
0.0
 10
133.7045760709406
 20
376.382862610317
 30
0.0
  0
SPLINE
  5
1E6
330
6C
100
AcDbEntity
  8
Sichtbare Kanten(DIN)
100
AcDbSpline
210
0.0
220
0.0
230
1.0
 70
     8
 71
     3
 72
    10
 73
     6
 74
     0
 42
0.0000000001
 43
0.0000000001
 40
0.0
 40
0.0
 40
0.0
 40
0.0
 40
0.0070255321541167
 40
0.0240955647597703
 40
0.0341175880348639
 40
0.0341175880348639
 40
0.0341175880348639
 40
0.0341175880348639
 10
134.2617414420345
 20
377.6072271529602
 30
0.0
 10
134.2383230022715
 20
377.6072212199264
 30
0.0
 10
134.158004455647
 20
377.6072008713185
 30
0.0
 10
134.0442791668325
 20
377.6071683406062
 30
0.0
 10
133.9539723174553
 20
377.6071429946977
 30
0.0
 10
133.9205655745214
 20
377.6071336186177
 30
0.0
  0
SPLINE
  5
1E7
330
6C
100
AcDbEntity
  8
Sichtbare Kanten(DIN)
100
AcDbSpline
210
0.0
220
0.0
230
1.0
 70
     8
 71
     3
 72
    10
 73
     6
 74
     0
 42
0.0000000001
 43
0.0000000001
 40
0.0
 40
0.0
 40
0.0
 40
0.0
 40
0.0080931847187841
 40
0.0290081092340634
 40
0.0385526703223027
 40
0.0385526703223027
 40
0.0385526703223027
 40
0.0385526703223027
 10
134.3316677164487
 20
377.9863592566386
 30
0.0
 10
134.3267826045174
 20
377.9598279646432
 30
0.0
 10
134.3092730745307
 20
377.8647328144561
 30
0.0
 10
134.2859471645236
 20
377.7383586056447
 30
0.0
 10
134.2675166826936
 20
377.638513791794
 30
0.0
 10
134.2617414420345
 20
377.6072271529602
 30
0.0
  0
SPLINE
  5
1E8
330
6C
100
AcDbEntity
  8
Sichtbare Kanten(DIN)
100
AcDbSpline
210
0.0
220
0.0
230
1.0
 70
     8
 71
     3
 72
    10
 73
     6
 74
     0
 42
0.0000000001
 43
0.0000000001
 40
0.0
 40
0.0
 40
0.0
 40
0.0
 40
0.0085944900037739
 40
0.0248371795447298
 40
0.0344168979205083
 40
0.0344168979205083
 40
0.0344168979205083
 40
0.0344168979205083
 10
133.9874987499771
 20
377.986452790981
 30
0.0
 10
134.0161470488529
 20
377.9864447226757
 30
0.0
 10
134.0989376440502
 20
377.9864214061152
 30
0.0
 10
134.2136606324425
 20
377.9863885787091
 30
0.0
 10
134.2997353228465
 20
377.9863671911106
 30
0.0
 10
134.3316677164487
 20
377.9863592566386
 30
0.0
  0
SPLINE
  5
1E9
330
6C
100
AcDbEntity
  8
Sichtbare Kanten(DIN)
100
AcDbSpline
210
0.0
220
0.0
230
1.0
 70
    24
 71
     3
 72
    10
 73
     6
 74
     0
 42
0.0000000001
 43
0.0000000001
 40
0.0
 40
0.0
 40
0.0
 40
0.0
 40
0.0182326247372785
 40
0.0520932135351027
 40
0.0703258382723975
 40
0.0703258382723975
 40
0.0703258382723975
 40
0.0703258382723975
 10
134.1098790836361
 20
378.6789810624654
 30
0.0
 10
134.0993030054187
 20
378.6191329402383
 30
0.0
 10
134.0690856390834
 20
378.4481383053039
 30
0.0
 10
134.0282921945311
 20
378.2172955481423
 30
0.0
 10
133.9980748281948
 20
378.046300913208
 30
0.0
 10
133.9874987499771
 20
377.986452790981
 30
0.0
  0
SPLINE
  5
1EA
330
6C
100
AcDbEntity
  8
Sichtbare Kanten(DIN)
100
AcDbSpline
210
0.0
220
0.0
230
1.0
 70
     8
 71
     3
 72
    13
 73
     9
 74
     0
 42
0.0000000001
 43
0.0000000001
 40
0.0
 40
0.0
 40
0.0
 40
0.0
 40
0.0009153978121011
 40
0.0018355697936
 40
0.0028013554832516
 40
0.0031524452850542
 40
0.0034554778335267
 40
0.0037685661646167
 40
0.0037685661646167
 40
0.0037685661646167
 40
0.0037685661646167
 10
134.1012739241308
 20
378.7145054057272
 30
0.0
 10
134.1030773083521
 20
378.7120263562436
 30
0.0
 10
134.106693482172
 20
378.7070553280319
 30
0.0
 10
134.1097874147777
 20
378.698113459775
 30
0.0
 10
134.1107092452086
 20
378.6906636754565
 30
0.0
 10
134.1105940324946
 20
378.6852613778898
 30
0.0
 10
134.1103348262725
 20
378.682045453869
 30
0.0
 10
134.1100326418444
 20
378.6800135804165
 30
0.0
 10
134.1098790836361
 20
378.6789810624654
 30
0.0
  0
SPLINE
  5
1EB
330
6C
100
AcDbEntity
  8
Sichtbare Kanten(DIN)
100
AcDbSpline
210
0.0
220
0.0
230
1.0
 70
     8
 71
     3
 72
    10
 73
     6
 74
     0
 42
0.0000000001
 43
0.0000000001
 40
0.0
 40
0.0
 40
0.0
 40
0.0
 40
0.0013465252378671
 40
0.002579366054444
 40
0.0037763129624145
 40
0.0037763129624145
 40
0.0037763129624145
 40
0.0037763129624145
 10
134.0676763883235
 20
378.7292090043599
 30
0.0
 10
134.0721702397365
 20
378.7288743953642
 30
0.0
 10
134.0807785357138
 20
378.7282334277382
 30
0.0
 10
134.0926540311645
 20
378.7230874963418
 30
0.0
 10
134.0984290635941
 20
378.7173377901902
 30
0.0
 10
134.1012739241308
 20
378.7145054057272
 30
0.0
  0
LINE
  5
1EC
330
6C
100
AcDbEntity
  8
Sichtbare Kanten(DIN)
100
AcDbLine
 10
133.5982836441828
 20
378.7292090043599
 30
0.0
 11
134.0676763883235
 21
378.7292090043599
 31
0.0
  0
SPLINE
  5
1ED
330
6C
100
AcDbEntity
  8
Sichtbare Kanten(DIN)
100
AcDbSpline
210
0.0
220
0.0
230
1.0
 70
     8
 71
     3
 72
    10
 73
     6
 74
     0
 42
0.0000000001
 43
0.0000000001
 40
0.0
 40
0.0
 40
0.0
 40
0.0
 40
0.0028803210317032
 40
0.0058519686951348
 40
0.0087369137882425
 40
0.0087369137882425
 40
0.0087369137882425
 40
0.0087369137882425
 10
133.5357652896906
 20
378.6767549451151
 30
0.0
 10
133.5389243613076
 20
378.6859406709804
 30
0.0
 10
133.5453426695463
 20
378.7046033754547
 30
0.0
 10
133.5691655889708
 20
378.724599226986
 30
0.0
 10
133.5886738945084
 20
378.7276876525286
 30
0.0
 10
133.5982836441828
 20
378.7292090043599
 30
0.0
  0
SPLINE
  5
1EE
330
6C
100
AcDbEntity
  8
Sichtbare Kanten(DIN)
100
AcDbSpline
210
0.0
220
0.0
230
1.0
 70
     8
 71
     3
 72
    10
 73
     6
 74
     0
 42
0.0000000001
 43
0.0000000001
 40
0.0
 40
0.0
 40
0.0
 40
0.0
 40
0.0252654322997131
 40
0.0957656423607572
 40
0.1376601168577756
 40
0.1376601168577756
 40
0.1376601168577756
 40
0.1376601168577756
 10
134.474475950498
 20
377.9860225330057
 30
0.0
 10
134.5586940505339
 20
377.9860583832272
 30
0.0
 10
134.8779128294828
 20
377.9861942692648
 30
0.0
 10
135.3367798412444
 20
377.9863962324949
 30
0.0
 10
135.7114287539417
 20
377.9865600796933
 30
0.0
 10
135.8510769889098
 20
377.9866211527974
 30
0.0
  0
SPLINE
  5
1EF
330
6C
100
AcDbEntity
  8
Sichtbare Kanten(DIN)
100
AcDbSpline
210
0.0
220
0.0
230
1.0
 70
     8
 71
     3
 72
    10
 73
     6
 74
     0
 42
0.0000000001
 43
0.0000000001
 40
0.0
 40
0.0
 40
0.0
 40
0.0
 40
0.0094349795884223
 40
0.0310155613435572
 40
0.0385705843723002
 40
0.0385705843723002
 40
0.0385705843723002
 40
0.0385705843723002
 10
134.4044748486101
 20
377.606722067511
 30
0.0
 10
134.4101813017604
 20
377.6376499612953
 30
0.0
 10
134.4289400967401
 20
377.7393190722782
 30
0.0
 10
134.452294871512
 20
377.8657486718146
 30
0.0
 10
134.4699086107568
 20
377.9612567591493
 30
0.0
 10
134.474475950498
 20
377.9860225330057
 30
0.0
  0
SPLINE
  5
1F0
330
6C
100
AcDbEntity
  8
Sichtbare Kanten(DIN)
100
AcDbSpline
210
0.0
220
0.0
230
1.0
 70
     8
 71
     3
 72
    10
 73
     6
 74
     0
 42
0.0000000001
 43
0.0000000001
 40
0.0
 40
0.0
 40
0.0
 40
0.0
 40
0.0205201904550196
 40
0.0589191614668962
 40
0.0804545125807215
 40
0.0804545125807215
 40
0.0804545125807215
 40
0.0804545125807215
 10
135.2090198486102
 20
377.6071710323547
 30
0.0
 10
135.1406192233336
 20
377.6071348726798
 30
0.0
 10
134.9442220459321
 20
377.6070310482182
 30
0.0
 10
134.6760403719906
 20
377.6068937207779
 30
0.0
 10
134.4762593380263
 20
377.6067674416143
 30
0.0
 10
134.4044748486101
 20
377.606722067511
 30
0.0
  0
SPLINE
  5
1F1
330
6C
100
AcDbEntity
  8
Sichtbare Kanten(DIN)
100
AcDbSpline
210
0.0
220
0.0
230
1.0
 70
     8
 71
     3
 72
    10
 73
     6
 74
     0
 42
0.0000000001
 43
0.0000000001
 40
0.0
 40
0.0
 40
0.0
 40
0.0
 40
0.000227595214391
 40
0.0269132959685959
 40
0.119668433366708
 40
0.119668433366708
 40
0.119668433366708
 40
0.119668433366708
 10
134.301998623024
 20
376.8265521171529
 30
0.0
 10
134.3025736130806
 20
376.8270470286013
 30
0.0
 10
134.3705665962017
 20
376.8855706593523
 30
0.0
 10
134.6729137732046
 20
377.1457691004302
 30
0.0
 10
134.9746770786532
 20
377.4054829490609
 30
0.0
 10
135.2090198486102
 20
377.6071710323547
 30
0.0
  0
SPLINE
  5
1F2
330
6C
100
AcDbEntity
  8
Sichtbare Kanten(DIN)
100
AcDbSpline
210
0.0
220
0.0
230
1.0
 70
     8
 71
     3
 72
    10
 73
     6
 74
     0
 42
0.0000000001
 43
0.0000000001
 40
0.0
 40
0.0
 40
0.0
 40
0.0
 40
0.0054675832229401
 40
0.0103154944328541
 40
0.0116913853705737
 40
0.0116913853705737
 40
0.0116913853705737
 40
0.0116913853705737
 10
134.2184163346126
 20
376.7450088774069
 30
0.0
 10
134.2305263509165
 20
376.7586485049911
 30
0.0
 10
134.2533738871444
 20
376.7843819043151
 30
0.0
 10
134.2825109763853
 20
376.8103710360427
 30
0.0
 10
134.2984704704912
 20
376.8236226037354
 30
0.0
 10
134.301998623024
 20
376.8265521171529
 30
0.0
  0
SPLINE
  5
1F3
330
6C
100
AcDbEntity
  8
Sichtbare Kanten(DIN)
100
AcDbSpline
210
0.0
220
0.0
230
1.0
 70
     8
 71
     3
 72
    10
 73
     6
 74
     0
 42
0.0000000001
 43
0.0000000001
 40
0.0
 40
0.0
 40
0.0
 40
0.0
 40
0.0010828037756266
 40
0.0051618292639181
 40
0.0124807175523065
 40
0.0124807175523065
 40
0.0124807175523065
 40
0.0124807175523065
 10
134.1633059000424
 20
376.634133267869
 30
0.0
 10
134.1639806943047
 20
376.6376798770681
 30
0.0
 10
134.1671975031564
 20
376.6545869026651
 30
0.0
 10
134.1822938848205
 20
376.693876878752
 30
0.0
 10
134.204291262722
 20
376.7250145757726
 30
0.0
 10
134.2184163346126
 20
376.7450088774069
 30
0.0
  0
SPLINE
  5
1F4
330
6C
100
AcDbEntity
  8
Sichtbare Kanten(DIN)
100
AcDbSpline
210
0.0
220
0.0
230
1.0
 70
     8
 71
     3
 72
    10
 73
     6
 74
     0
 42
0.0000000001
 43
0.0000000001
 40
0.0
 40
0.0
 40
0.0
 40
0.0
 40
0.000165861301487
 40
0.0110630104919147
 40
0.0255781303280148
 40
0.0255781303280148
 40
0.0255781303280148
 40
0.0255781303280148
 10
134.1165761425553
 20
376.3826568347636
 30
0.0
 10
134.1166793857941
 20
376.3831999804353
 30
0.0
 10
134.1235657482196
 20
376.4194279987277
 30
0.0
 10
134.1389416560885
 20
376.5032912546785
 30
0.0
 10
134.1544485735109
 20
376.5865672347485
 30
0.0
 10
134.1633059000424
 20
376.634133267869
 30
0.0
  0
SPLINE
  5
1F5
330
6C
100
AcDbEntity
  8
Sichtbare Kanten(DIN)
100
AcDbSpline
210
0.0
220
0.0
230
1.0
 70
     8
 71
     3
 72
    10
 73
     6
 74
     0
 42
0.0000000001
 43
0.0000000001
 40
0.0
 40
0.0
 40
0.0
 40
0.0
 40
0.0002977292952452
 40
0.0005190836882035
 40
0.0006010848843524
 40
0.0006010848843524
 40
0.0006010848843524
 40
0.0006010848843524
 10
134.1161645914485
 20
376.3766893437155
 30
0.0
 10
134.116101138111
 20
376.3776820873421
 30
0.0
 10
134.115990508781
 20
376.3794129113872
 30
0.0
 10
134.1162660102114
 20
376.3814104698746
 30
0.0
 10
134.1165101485878
 20
376.3823916171376
 30
0.0
 10
134.1165761425553
 20
376.3826568347636
 30
0.0
  0
SPLINE
  5
1F6
330
6C
100
AcDbEntity
  8
Sichtbare Kanten(DIN)
100
AcDbSpline
210
0.0
220
0.0
230
1.0
 70
     8
 71
     3
 72
    10
 73
     6
 74
     0
 42
0.0000000001
 43
0.0000000001
 40
0.0
 40
0.0
 40
0.0
 40
0.0
 40
0.0011286606721423
 40
0.0022940769505922
 40
0.0035590350523297
 40
0.0035590350523297
 40
0.0035590350523297
 40
0.0035590350523297
 10
134.1263785416438
 20
376.3435594796204
 30
0.0
 10
134.1240902504935
 20
376.346571558116
 30
0.0
 10
134.1194391484273
 20
376.3526938055024
 30
0.0
 10
134.1158938139439
 20
376.3643306303694
 30
0.0
 10
134.1160719009531
 20
376.3724588029858
 30
0.0
 10
134.1161645914485
 20
376.3766893437155
 30
0.0
  0
SPLINE
  5
1F7
330
6C
100
AcDbEntity
  8
Sichtbare Kanten(DIN)
100
AcDbSpline
210
0.0
220
0.0
230
1.0
 70
     8
 71
     3
 72
    10
 73
     6
 74
     0
 42
0.0000000001
 43
0.0000000001
 40
0.0
 40
0.0
 40
0.0
 40
0.0
 40
0.0012501309451573
 40
0.0024010038050724
 40
0.0035125844605094
 40
0.0035125844605094
 40
0.0035125844605094
 40
0.0035125844605094
 10
134.1579557356542
 20
376.3304085510723
 30
0.0
 10
134.1537845062461
 20
376.3307099908792
 30
0.0
 10
134.1457732353312
 20
376.3312889367301
 30
0.0
 10
134.1346722842699
 20
376.3358717813868
 30
0.0
 10
134.1291109276831
 20
376.3410267558218
 30
0.0
 10
134.1263785416438
 20
376.3435594796204
 30
0.0
  0
LINE
  5
1F8
330
6C
100
AcDbEntity
  8
Sichtbare Kanten(DIN)
100
AcDbLine
 10
135.5169723176858
 20
376.3304085510721
 30
0.0
 11
134.1579557356542
 21
376.3304085510723
 31
0.0
  0
SPLINE
  5
1F9
330
6C
100
AcDbEntity
  8
Sichtbare Kanten(DIN)
100
AcDbSpline
210
0.0
220
0.0
230
1.0
 70
     8
 71
     3
 72
    10
 73
     6
 74
     0
 42
0.0000000001
 43
0.0000000001
 40
0.0
 40
0.0
 40
0.0
 40
0.0
 40
0.0057504749587655
 40
0.0123008629642526
 40
0.0210879509398231
 40
0.0210879509398231
 40
0.0210879509398231
 40
0.0210879509398231
 10
135.6875041308369
 20
376.4291434029602
 30
0.0
 10
135.6796482112418
 20
376.4112014080098
 30
0.0
 10
135.6628435836084
 20
376.3728216180323
 30
0.0
 10
135.5974613642947
 20
376.3362654157272
 30
0.0
 10
135.5462895038904
 20
376.3325418449662
 30
0.0
 10
135.5169723176858
 20
376.3304085510721
 30
0.0
  0
SPLINE
  5
1FA
330
6C
100
AcDbEntity
  8
Sichtbare Kanten(DIN)
100
AcDbSpline
210
0.0
220
0.0
230
1.0
 70
     8
 71
     3
 72
    10
 73
     6
 74
     0
 42
0.0000000001
 43
0.0000000001
 40
0.0
 40
0.0
 40
0.0
 40
0.0
 40
0.0000230670853742
 40
0.0001617868674109
 40
0.0267802765649739
 40
0.0267802765649739
 40
0.0267802765649739
 40
0.0267802765649739
 10
135.7329618212666
 20
376.6930599036113
 30
0.0
 10
135.7329489315546
 20
376.6929841014198
 30
0.0
 10
135.7328585262826
 20
376.6924524434801
 30
0.0
 10
135.7176943066061
 20
376.604482221206
 30
0.0
 10
135.7025599876232
 20
376.5165849653005
 30
0.0
 10
135.6875041308369
 20
376.4291434029602
 30
0.0
  0
SPLINE
  5
1FB
330
6C
100
AcDbEntity
  8
Sichtbare Kanten(DIN)
100
AcDbSpline
210
0.0
220
0.0
230
1.0
 70
     8
 71
     3
 72
    10
 73
     6
 74
     0
 42
0.0000000001
 43
0.0000000001
 40
0.0
 40
0.0
 40
0.0
 40
0.0
 40
0.0011946223348497
 40
0.0024222120206529
 40
0.003763733280748
 40
0.003763733280748
 40
0.003763733280748
 40
0.003763733280748
 10
135.7243566617614
 20
376.7285842468731
 30
0.0
 10
135.7266435378443
 20
376.7252948811397
 30
0.0
 10
135.731280399701
 20
376.7186253748134
 30
0.0
 10
135.7342860196736
 20
376.7060817551548
 30
0.0
 10
135.7334160803792
 20
376.6975269794628
 30
0.0
 10
135.7329618212666
 20
376.6930599036113
 30
0.0
  0
SPLINE
  5
1FC
330
6C
100
AcDbEntity
  8
Sichtbare Kanten(DIN)
100
AcDbSpline
210
0.0
220
0.0
230
1.0
 70
     8
 71
     3
 72
    10
 73
     6
 74
     0
 42
0.0000000001
 43
0.0000000001
 40
0.0
 40
0.0
 40
0.0
 40
0.0
 40
0.0013419134339858
 40
0.0025693141130201
 40
0.0037660789080789
 40
0.0037660789080789
 40
0.0037660789080789
 40
0.0037660789080789
 10
135.690833953428
 20
376.7432317249003
 30
0.0
 10
135.6953130260872
 20
376.7428992503521
 30
0.0
 10
135.7038889478307
 20
376.742262673113
 30
0.0
 10
135.715725049434
 20
376.7371240062435
 30
0.0
 10
135.721503801035
 20
376.7314067489963
 30
0.0
 10
135.7243566617614
 20
376.7285842468731
 30
0.0
  0
LINE
  5
1FD
330
6C
100
AcDbEntity
  8
Sichtbare Kanten(DIN)
100
AcDbLine
 10
134.878806206032
 20
376.7432317249003
 30
0.0
 11
135.690833953428
 21
376.7432317249003
 31
0.0
  0
SPLINE
  5
1FE
330
6C
100
AcDbEntity
  8
Sichtbare Kanten(DIN)
100
AcDbSpline
210
0.0
220
0.0
230
1.0
 70
     8
 71
     3
 72
    10
 73
     6
 74
     0
 42
0.0000000001
 43
0.0000000001
 40
0.0
 40
0.0
 40
0.0
 40
0.0
 40
0.0001524481033975
 40
0.0078441775005177
 40
0.1133354817741845
 40
0.1133354817741845
 40
0.1133354817741845
 40
0.1133354817741845
 10
135.7206527018005
 20
377.5020384314434
 30
0.0
 10
135.7202748983567
 20
377.5016985910456
 30
0.0
 10
135.7008351204413
 20
377.4842121917953
 30
0.0
 10
135.4203147891251
 20
377.2311708961112
 30
0.0
 10
135.140036889261
 20
376.9786198370176
 30
0.0
 10
134.878806206032
 20
376.7432317249003
 30
0.0
  0
SPLINE
  5
1FF
330
6C
100
AcDbEntity
  8
Sichtbare Kanten(DIN)
100
AcDbSpline
210
0.0
220
0.0
230
1.0
 70
     8
 71
     3
 72
    10
 73
     6
 74
     0
 42
0.0000000001
 43
0.0000000001
 40
0.0
 40
0.0
 40
0.0
 40
0.0
 40
0.0058095501940466
 40
0.013282127799746
 40
0.0163935577086522
 40
0.0163935577086522
 40
0.0163935577086522
 40
0.0163935577086522
 10
135.829189952777
 20
377.623801438442
 30
0.0
 10
135.8188657989128
 20
377.6073419211534
 30
0.0
 10
135.7952621245371
 20
377.5697112260315
 30
0.0
 10
135.7550432415641
 20
377.5319978382151
 30
0.0
 10
135.7284657968259
 20
377.50884482918
 30
0.0
 10
135.7206527018005
 20
377.5020384314434
 30
0.0
  0
SPLINE
  5
200
330
6C
100
AcDbEntity
  8
Sichtbare Kanten(DIN)
100
AcDbSpline
210
0.0
220
0.0
230
1.0
 70
     8
 71
     3
 72
    10
 73
     6
 74
     0
 42
0.0000000001
 43
0.0000000001
 40
0.0
 40
0.0
 40
0.0
 40
0.0
 40
0.0002284761255046
 40
0.002237644999733
 40
0.0072479849988259
 40
0.0072479849988259
 40
0.0072479849988259
 40
0.0072479849988259
 10
135.8516756087015
 20
377.6925865938782
 30
0.0
 10
135.8515503262624
 20
377.6918353493289
 30
0.0
 10
135.8503233375655
 20
377.6844778251874
 30
0.0
 10
135.8441415959749
 20
377.6610481914027
 30
0.0
 10
135.8354171977542
 20
377.639314426026
 30
0.0
 10
135.829189952777
 20
377.623801438442
 30
0.0
  0
SPLINE
  5
201
330
6C
100
AcDbEntity
  8
Sichtbare Kanten(DIN)
100
AcDbSpline
210
0.0
220
0.0
230
1.0
 70
    24
 71
     3
 72
    10
 73
     6
 74
     0
 42
0.0000000001
 43
0.0000000001
 40
0.0
 40
0.0
 40
0.0
 40
0.0
 40
0.0064119561058975
 40
0.0183198745882612
 40
0.0247318306941419
 40
0.0247318306941419
 40
0.0247318306941419
 40
0.0247318306941419
 10
135.8932048567484
 20
377.9363932109028
 30
0.0
 10
135.8896159093864
 20
377.9153235032587
 30
0.0
 10
135.8793617740663
 20
377.8551243385611
 30
0.0
 10
135.865518691384
 20
377.7738554662196
 30
0.0
 10
135.8552645560636
 20
377.7136563015222
 30
0.0
 10
135.8516756087015
 20
377.6925865938782
 30
0.0
  0
SPLINE
  5
202
330
6C
100
AcDbEntity
  8
Sichtbare Kanten(DIN)
100
AcDbSpline
210
0.0
220
0.0
230
1.0
 70
     8
 71
     3
 72
    10
 73
     6
 74
     0
 42
0.0000000001
 43
0.0000000001
 40
0.0
 40
0.0
 40
0.0
 40
0.0
 40
0.0011917736229571
 40
0.0024172950002037
 40
0.0037576555674698
 40
0.0037576555674698
 40
0.0037576555674698
 40
0.0037576555674698
 10
135.8846745247172
 20
377.9718801404277
 30
0.0
 10
135.8869483478906
 20
377.968593339319
 30
0.0
 10
135.8915603826615
 20
377.9619266639258
 30
0.0
 10
135.8945358747311
 20
377.9493989063974
 30
0.0
 10
135.8936615728926
 20
377.9408558937337
 30
0.0
 10
135.8932048567484
 20
377.9363932109028
 30
0.0
  0
SPLINE
  5
203
330
6C
100
AcDbEntity
  8
Sichtbare Kanten(DIN)
100
AcDbSpline
210
0.0
220
0.0
230
1.0
 70
     8
 71
     3
 72
    10
 73
     6
 74
     0
 42
0.0000000001
 43
0.0000000001
 40
0.0
 40
0.0
 40
0.0
 40
0.0
 40
0.0013485889265994
 40
0.0025802332752695
 40
0.003778716377513
 40
0.003778716377513
 40
0.003778716377513
 40
0.003778716377513
 10
135.8510769889098
 20
377.9866211527974
 30
0.0
 10
135.8555780636429
 20
377.9862874288125
 30
0.0
 10
135.8641898967757
 20
377.9856489201361
 30
0.0
 10
135.8760694695948
 20
377.9804870188093
 30
0.0
 10
135.8818323863816
 20
377.9747228809622
 30
0.0
 10
135.8846745247172
 20
377.9718801404277
 30
0.0
  0
SPLINE
  5
204
330
6C
100
AcDbEntity
  8
Sichtbare Kanten(DIN)
100
AcDbSpline
210
0.0
220
0.0
230
1.0
 70
     8
 71
     3
 72
    10
 73
     6
 74
     0
 42
0.0000000001
 43
0.0000000001
 40
0.0
 40
0.0
 40
0.0
 40
0.0
 40
0.0013399459018975
 40
0.0025686710072605
 40
0.0037651661134934
 40
0.0037651661134934
 40
0.0037651661134934
 40
0.0037651661134934
 10
130.1348753051521
 20
376.3304085510723
 30
0.0
 10
130.1304028737118
 20
376.3307446903673
 30
0.0
 10
130.1218292402865
 20
376.3313890680698
 30
0.0
 10
130.1100063807238
 20
376.3365540580759
 30
0.0
 10
130.1042365746378
 20
376.342284838927
 30
0.0
 10
130.1013900105556
 20
376.345112149705
 30
0.0
  0
LINE
  5
205
330
6C
100
AcDbEntity
  8
Sichtbare Kanten(DIN)
100
AcDbLine
 10
130.6043054630298
 20
376.3304085510721
 30
0.0
 11
130.1348753051521
 21
376.3304085510723
 31
0.0
  0
SPLINE
  5
206
330
6C
100
AcDbEntity
  8
Sichtbare Kanten(DIN)
100
AcDbSpline
210
0.0
220
0.0
230
1.0
 70
     8
 71
     3
 72
    10
 73
     6
 74
     0
 42
0.0000000001
 43
0.0000000001
 40
0.0
 40
0.0
 40
0.0
 40
0.0
 40
0.0028807590428643
 40
0.0058547115525468
 40
0.0087324469895122
 40
0.0087324469895122
 40
0.0087324469895122
 40
0.0087324469895122
 10
130.6668051106535
 20
376.382862610317
 30
0.0
 10
130.6636308965192
 20
376.3736819968248
 30
0.0
 10
130.6571797814188
 20
376.3550237740881
 30
0.0
 10
130.6333784425894
 20
376.3350356049333
 30
0.0
 10
130.6138896405705
 20
376.3319339023216
 30
0.0
 10
130.6043054630298
 20
376.3304085510721
 30
0.0
  0
SPLINE
  5
207
330
6C
100
AcDbEntity
  8
Sichtbare Kanten(DIN)
100
AcDbSpline
210
0.0
220
0.0
230
1.0
 70
    24
 71
     3
 72
    10
 73
     6
 74
     0
 42
0.0000000001
 43
0.0000000001
 40
0.0
 40
0.0
 40
0.0
 40
0.0
 40
0.0604489515376169
 40
0.1727112901073986
 40
0.233160241644971
 40
0.233160241644971
 40
0.233160241644971
 40
0.233160241644971
 10
131.072033295875
 20
378.6789810624654
 30
0.0
 10
131.0370135761644
 20
378.4805510727734
 30
0.0
 10
130.9369572341342
 20
377.9136082450825
 30
0.0
 10
130.8018811723936
 20
377.1482354276997
 30
0.0
 10
130.7018248303639
 20
376.5812926000088
 30
0.0
 10
130.6668051106535
 20
376.382862610317
 30
0.0
  0
SPLINE
  5
208
330
6C
100
AcDbEntity
  8
Sichtbare Kanten(DIN)
100
AcDbSpline
210
0.0
220
0.0
230
1.0
 70
     8
 71
     3
 72
    10
 73
     6
 74
     0
 42
0.0000000001
 43
0.0000000001
 40
0.0
 40
0.0
 40
0.0
 40
0.0
 40
0.0012007305691038
 40
0.0024313463641171
 40
0.003774918447834
 40
0.003774918447834
 40
0.003774918447834
 40
0.003774918447834
 10
131.0633346020273
 20
378.7145989400694
 30
0.0
 10
131.0656362805692
 20
378.7112948807693
 30
0.0
 10
131.0702969245956
 20
378.704604526769
 30
0.0
 10
131.0733278412627
 20
378.6920293481095
 30
0.0
 10
131.0724772523861
 20
378.6834558931083
 30
0.0
 10
131.072033295875
 20
378.6789810624654
 30
0.0
  0
SPLINE
  5
209
330
6C
100
AcDbEntity
  8
Sichtbare Kanten(DIN)
100
AcDbSpline
210
0.0
220
0.0
230
1.0
 70
     8
 71
     3
 72
    10
 73
     6
 74
     0
 42
0.0000000001
 43
0.0000000001
 40
0.0
 40
0.0
 40
0.0
 40
0.0
 40
0.0013378495582371
 40
0.0025628632467764
 40
0.0037540210969504
 40
0.0037540210969504
 40
0.0037540210969504
 40
0.0037540210969504
 10
131.0299241349048
 20
378.7292090043599
 30
0.0
 10
131.0343893732202
 20
378.7288757962557
 30
0.0
 10
131.0429432461845
 20
378.7282374832268
 30
0.0
 10
131.0547415584679
 20
378.7231130812079
 30
0.0
 10
131.0604971369141
 20
378.7174103512163
 30
0.0
 10
131.0633346020273
 20
378.7145989400694
 30
0.0
  0
LINE
  5
20A
330
6C
100
AcDbEntity
  8
Sichtbare Kanten(DIN)
100
AcDbLine
 10
130.5605500976326
 20
378.7292090043599
 30
0.0
 11
131.0299241349048
 21
378.7292090043599
 31
0.0
  0
SPLINE
  5
20B
330
6C
100
AcDbEntity
  8
Sichtbare Kanten(DIN)
100
AcDbSpline
210
0.0
220
0.0
230
1.0
 70
     8
 71
     3
 72
    10
 73
     6
 74
     0
 42
0.0000000001
 43
0.0000000001
 40
0.0
 40
0.0
 40
0.0
 40
0.0
 40
0.0028822582435835
 40
0.005855999716643
 40
0.0087345798676043
 40
0.0087345798676043
 40
0.0087345798676043
 40
0.0087345798676043
 10
130.4980317431404
 20
378.6767549451151
 30
0.0
 10
130.5012055630436
 20
378.6859417006507
 30
0.0
 10
130.5076539402824
 20
378.704606800467
 30
0.0
 10
130.5314717970469
 20
378.724588625941
 30
0.0
 10
130.5509629758155
 20
378.7276856646237
 30
0.0
 10
130.5605500976326
 20
378.7292090043599
 30
0.0
  0
SPLINE
  5
20C
330
6C
100
AcDbEntity
  8
Sichtbare Kanten(DIN)
100
AcDbSpline
210
0.0
220
0.0
230
1.0
 70
    24
 71
     3
 72
    10
 73
     6
 74
     0
 42
0.0000000001
 43
0.0000000001
 40
0.0
 40
0.0
 40
0.0
 40
0.0
 40
0.0604501596472246
 40
0.1727147418492844
 40
0.2331649014965384
 40
0.2331649014965384
 40
0.2331649014965384
 40
0.2331649014965384
 10
130.0927474373135
 20
376.3805990792298
 30
0.0
 10
130.1277720069527
 20
376.5790323022074
 30
0.0
 10
130.2278422059218
 20
377.1459843678582
 30
0.0
 10
130.3629369745311
 20
377.9113696564866
 30
0.0
 10
130.4630071735009
 20
378.4783217221374
 30
0.0
 10
130.4980317431404
 20
378.6767549451151
 30
0.0
  0
SPLINE
  5
20D
330
6C
100
AcDbEntity
  8
Sichtbare Kanten(DIN)
100
AcDbSpline
210
0.0
220
0.0
230
1.0
 70
     8
 71
     3
 72
    10
 73
     6
 74
     0
 42
0.0000000001
 43
0.0000000001
 40
0.0
 40
0.0
 40
0.0
 40
0.0
 40
0.0011950635321324
 40
0.0024213891508237
 40
0.0037609971570718
 40
0.0037609971570718
 40
0.0037609971570718
 40
0.0037609971570718
 10
130.1013900105556
 20
376.345112149705
 30
0.0
 10
130.0990980778813
 20
376.3483998804629
 30
0.0
 10
130.0944542570609
 20
376.355061346882
 30
0.0
 10
130.0914379570498
 20
376.367592875274
 30
0.0
 10
130.09229828316
 20
376.3761379272065
 30
0.0
 10
130.0927474373135
 20
376.3805990792298
 30
0.0
  0
SPLINE
  5
20E
330
6C
100
AcDbEntity
  8
Sichtbare Kanten(DIN)
100
AcDbSpline
210
0.0
220
0.0
230
1.0
 70
     8
 71
     3
 72
    17
 73
    13
 74
     0
 42
0.0000000001
 43
0.0000000001
 40
-0.0001317261390849
 40
-0.0001317261390849
 40
-0.0001317261390849
 40
-0.0001317261390849
 40
0.0
 40
0.0
 40
0.0
 40
0.018805102356413
 40
0.018805102356413
 40
0.0376102047128261
 40
0.0376102047128261
 40
0.056820972269143
 40
0.056820972269143
 40
0.075916853239034
 40
0.075916853239034
 40
0.075916853239034
 40
0.075916853239034
 10
135.1421311702696
 20
366.5525024604625
 30
0.0
 10
135.1421312398062
 20
366.5525079759107
 30
0.0
 10
135.1421306959679
 20
366.5525133526822
 30
0.0
 10
135.1421295388336
 20
366.5525185907213
 30
0.0
 10
135.1419643474069
 20
366.5532663683582
 30
0.0
 10
135.129272834999
 20
366.5512818903977
 30
0.0
 10
135.0783188082564
 20
366.5416853448264
 30
0.0
 10
135.0400648458098
 20
366.5340978124728
 30
0.0
 10
134.9514700303154
 20
366.5164840426978
 30
0.0
 10
134.8948735324339
 20
366.5052171460305
 30
0.0
 10
134.771476442186
 20
366.4810931208883
 30
0.0
 10
134.7047363643119
 20
366.4682665877435
 30
0.0
 10
134.6421312747076
 20
366.4564832914444
 30
0.0
  0
SPLINE
  5
20F
330
6C
100
AcDbEntity
  8
Sichtbare Kanten(DIN)
100
AcDbSpline
210
0.0
220
0.0
230
1.0
 70
     8
 71
     3
 72
    16
 73
    12
 74
     0
 42
0.0000000001
 43
0.0000000001
 40
0.0760502806032574
 40
0.0760502806032574
 40
0.0760502806032574
 40
0.0760502806032574
 40
0.0951461615731485
 40
0.0951461615731485
 40
0.1143569291294654
 40
0.1143569291294654
 40
0.1331620314858784
 40
0.1331620314858784
 40
0.1519671338422915
 40
0.1519671338422915
 40
0.1520988599813764
 40
0.1520988599813764
 40
0.1520988599813764
 40
0.1520988599813764
 10
128.6421312759107
 20
366.4564832914444
 30
0.0
 10
128.5795261863065
 20
366.4682665877435
 30
0.0
 10
128.5127861084323
 20
366.4810931208883
 30
0.0
 10
128.3893890181844
 20
366.5052171460305
 30
0.0
 10
128.332792520303
 20
366.5164840426978
 30
0.0
 10
128.2441977048085
 20
366.5340978124728
 30
0.0
 10
128.2059437423619
 20
366.5416853448264
 30
0.0
 10
128.1549897156193
 20
366.5512818903977
 30
0.0
 10
128.1422982032114
 20
366.5532663683582
 30
0.0
 10
128.1421318546504
 20
366.5525133526822
 30
0.0
 10
128.1421313108121
 20
366.5525079759107
 30
0.0
 10
128.1421313803488
 20
366.5525024604625
 30
0.0
  0
ARC
  5
210
330
6C
100
AcDbEntity
  8
Sichtbare Kanten(DIN)
100
AcDbCircle
 10
131.6421312753091
 20
382.3960795058941
 30
0.0
 40
16.21945521834459
100
AcDbArc
 50
259.3410215235197
 51
280.6589784764802
  0
LINE
  5
211
330
6C
100
AcDbEntity
  8
Sichtbare Kanten(DIN)
100
AcDbLine
 10
135.1421312753092
 20
366.552502715591
 30
0.0
 11
135.1421312753092
 21
366.5274784333357
 31
0.0
  0
LINE
  5
212
330
6C
100
AcDbEntity
  8
Sichtbare Kanten(DIN)
100
AcDbLine
 10
128.1421312753092
 20
366.5274784333357
 30
0.0
 11
128.1421312753092
 21
366.552502715591
 31
0.0
  0
ARC
  5
213
330
6C
100
AcDbEntity
  8
Sichtbare Kanten(DIN)
100
AcDbCircle
 10
131.6421312753091
 20
382.3960795058941
 30
0.0
 40
16.25000000000007
100
AcDbArc
 50
180.0
 51
257.5619071849447
  0
LINE
  5
214
330
6C
100
AcDbEntity
  8
Sichtbare Kanten(DIN)
100
AcDbLine
 10
115.3921312753091
 20
422.1960795058938
 30
0.0
 11
115.3921312753091
 21
382.396079505894
 31
0.0
  0
ARC
  5
215
330
6C
100
AcDbEntity
  8
Sichtbare Kanten(DIN)
100
AcDbCircle
 10
131.6421312753091
 20
422.1960795058938
 30
0.0
 40
16.25000000000007
100
AcDbArc
 50
0.0
 51
180.0
  0
LINE
  5
216
330
6C
100
AcDbEntity
  8
Sichtbare Kanten(DIN)
100
AcDbLine
 10
147.8921312753092
 20
382.3960795058941
 30
0.0
 11
147.8921312753092
 21
392.2960795058941
 31
0.0
  0
LINE
  5
217
330
6C
100
AcDbEntity
  8
Sichtbare Kanten(DIN)
100
AcDbLine
 10
147.8921312753092
 20
412.296079505894
 30
0.0
 11
147.8921312753092
 21
422.1960795058938
 31
0.0
  0
ARC
  5
218
330
6C
100
AcDbEntity
  8
Sichtbare Kanten(DIN)
100
AcDbCircle
 10
131.6421312753091
 20
382.3960795058941
 30
0.0
 40
16.25000000000007
100
AcDbArc
 50
282.4380928150553
 51
0.0
  0
LINE
  5
219
330
6C
100
AcDbEntity
  8
Sichtbare tangentiale Kanten(DIN)
100
AcDbLine
 10
147.8921312753092
 20
382.3960795058941
 30
0.0
 11
147.7428040615816
 21
382.3960795058941
 31
0.0
  0
LINE
  5
21A
330
6C
100
AcDbEntity
  8
Sichtbare tangentiale Kanten(DIN)
100
AcDbLine
 10
115.3921312753091
 20
382.396079505894
 30
0.0
 11
115.5414584890367
 21
382.3960795058941
 31
0.0
  0
LINE
  5
21B
330
6C
100
AcDbEntity
  8
Sichtbare tangentiale Kanten(DIN)
100
AcDbLine
 10
115.3921312753091
 20
422.1960795058938
 30
0.0
 11
115.5414584890367
 21
422.1960795058938
 31
0.0
  0
LINE
  5
21C
330
6C
100
AcDbEntity
  8
Sichtbare tangentiale Kanten(DIN)
100
AcDbLine
 10
147.8921312753092
 20
422.1960795058938
 30
0.0
 11
147.7428040615816
 21
422.1960795058938
 31
0.0
  0
ARC
  5
21D
330
6C
100
AcDbEntity
  8
Sichtbare tangentiale Kanten(DIN)
100
AcDbCircle
 10
131.6421312753091
 20
382.3960795058941
 30
0.0
 40
16.10067278627245
100
AcDbArc
 50
180.0
 51
0.0
  0
LINE
  5
21E
330
6C
100
AcDbEntity
  8
Sichtbare tangentiale Kanten(DIN)
100
AcDbLine
 10
117.3413241544255
 20
382.3960795058941
 30
0.0
 11
115.5414584890367
 21
382.3960795058941
 31
0.0
  0
LINE
  5
21F
330
6C
100
AcDbEntity
  8
Sichtbare tangentiale Kanten(DIN)
100
AcDbLine
 10
117.3413241544255
 20
382.3960795058941
 30
0.0
 11
117.3413241544255
 21
422.1960795058938
 31
0.0
  0
LINE
  5
220
330
6C
100
AcDbEntity
  8
Sichtbare tangentiale Kanten(DIN)
100
AcDbLine
 10
115.5414584890367
 20
422.1960795058938
 30
0.0
 11
117.3413241544255
 21
422.1960795058938
 31
0.0
  0
LINE
  5
221
330
6C
100
AcDbEntity
  8
Sichtbare tangentiale Kanten(DIN)
100
AcDbLine
 10
115.5414584890367
 20
422.1960795058938
 30
0.0
 11
115.5414584890367
 21
382.3960795058941
 31
0.0
  0
LINE
  5
222
330
6C
100
AcDbEntity
  8
Sichtbare tangentiale Kanten(DIN)
100
AcDbLine
 10
145.9429383961928
 20
382.3960795058941
 30
0.0
 11
147.7428040615816
 21
382.3960795058941
 31
0.0
  0
ARC
  5
223
330
6C
100
AcDbEntity
  8
Sichtbare tangentiale Kanten(DIN)
100
AcDbCircle
 10
131.6421312753091
 20
382.3960795058941
 30
0.0
 40
14.30080712088362
100
AcDbArc
 50
180.0
 51
0.0
  0
LINE
  5
224
330
6C
100
AcDbEntity
  8
Sichtbare tangentiale Kanten(DIN)
100
AcDbLine
 10
147.7428040615816
 20
422.1960795058938
 30
0.0
 11
145.9429383961928
 21
422.1960795058938
 31
0.0
  0
ARC
  5
225
330
6C
100
AcDbEntity
  8
Sichtbare tangentiale Kanten(DIN)
100
AcDbCircle
 10
131.6421312753091
 20
422.1960795058938
 30
0.0
 40
16.10067278627245
100
AcDbArc
 50
0.0
 51
180.0
  0
ARC
  5
226
330
6C
100
AcDbEntity
  8
Sichtbare tangentiale Kanten(DIN)
100
AcDbCircle
 10
131.6421312753091
 20
422.1960795058938
 30
0.0
 40
14.30080712088362
100
AcDbArc
 50
0.0
 51
180.0
  0
LINE
  5
227
330
6C
100
AcDbEntity
  8
Sichtbare tangentiale Kanten(DIN)
100
AcDbLine
 10
147.7428040615816
 20
382.3960795058941
 30
0.0
 11
147.7428040615816
 21
392.2960795058941
 31
0.0
  0
LINE
  5
228
330
6C
100
AcDbEntity
  8
Sichtbare tangentiale Kanten(DIN)
100
AcDbLine
 10
147.7428040615816
 20
412.296079505894
 30
0.0
 11
147.7428040615816
 21
422.1960795058938
 31
0.0
  0
LINE
  5
229
330
6C
100
AcDbEntity
  8
Sichtbare tangentiale Kanten(DIN)
100
AcDbLine
 10
145.9429383961928
 20
422.1960795058938
 30
0.0
 11
145.9429383961928
 21
412.296079505894
 31
0.0
  0
LINE
  5
22A
330
6C
100
AcDbEntity
  8
Sichtbare tangentiale Kanten(DIN)
100
AcDbLine
 10
145.9429383961928
 20
392.2960795058941
 30
0.0
 11
145.9429383961928
 21
382.3960795058941
 31
0.0
  0
ARC
  5
22B
330
6C
100
AcDbEntity
  8
Sichtbare Kanten(DIN)
100
AcDbCircle
 10
131.6421312753091
 20
402.2960795058939
 30
0.0
 40
10.1
100
AcDbArc
 50
195.989588203907
 51
278.0693011593939
  0
ARC
  5
22C
330
6C
100
AcDbEntity
  8
Sichtbare Kanten(DIN)
100
AcDbCircle
 10
131.6421312753091
 20
402.2960795058939
 30
0.0
 40
10.09999999999998
100
AcDbArc
 50
171.9306988406138
 51
188.0693011593861
  0
ARC
  5
22D
330
6C
100
AcDbEntity
  8
Sichtbare Kanten(DIN)
100
AcDbCircle
 10
131.6421312753091
 20
402.2960795058939
 30
0.0
 40
10.1
100
AcDbArc
 50
81.93069884060676
 51
167.5503982986678
  0
ARC
  5
22E
330
6C
100
AcDbEntity
  8
Sichtbare Kanten(DIN)
100
AcDbCircle
 10
131.6421312753092
 20
402.2960795058939
 30
0.0
 40
9.999999999999966
100
AcDbArc
 50
90.0
 51
270.0
  0
LINE
  5
22F
330
6C
100
AcDbEntity
  8
Sichtbare Kanten(DIN)
100
AcDbLine
 10
153.642131275309
 20
392.2960795058941
 30
0.0
 11
131.6421312753092
 21
392.2960795058941
 31
0.0
  0
LINE
  5
230
330
6C
100
AcDbEntity
  8
Sichtbare Kanten(DIN)
100
AcDbLine
 10
131.6421312753092
 20
412.296079505894
 30
0.0
 11
153.642131275309
 21
412.296079505894
 31
0.0
  0
ARC
  5
231
330
6C
100
AcDbEntity
  8
Sichtbare Kanten(DIN)
100
AcDbCircle
 10
153.642131275309
 20
402.2960795058939
 30
0.0
 40
9.999999999999996
100
AcDbArc
 50
90.0
 51
269.9999999999999
  0
LINE
  5
232
330
6C
100
AcDbEntity
  8
Sichtbare Kanten(DIN)
100
AcDbLine
 10
153.642131275309
 20
412.296079505894
 30
0.0
 11
272.642131275309
 21
412.296079505894
 31
0.0
  0
LINE
  5
233
330
6C
100
AcDbEntity
  8
Sichtbare Kanten(DIN)
100
AcDbLine
 10
153.642131275309
 20
392.2960795058941
 30
0.0
 11
272.642131275309
 21
392.2960795058941
 31
0.0
  0
LINE
  5
234
330
6C
100
AcDbEntity
  8
Sichtbare Kanten(DIN)
100
AcDbLine
 10
272.6421312753089
 20
392.1960795058941
 30
0.0
 11
272.6421312753089
 21
412.3960795058938
 31
0.0
  0
LINE
  5
235
330
6C
100
AcDbEntity
  8
Sichtbare Kanten(DIN)
100
AcDbLine
 10
273.642131275309
 20
392.1960795058941
 30
0.0
 11
273.642131275309
 21
412.3960795058938
 31
0.0
  0
LINE
  5
236
330
6C
100
AcDbEntity
  8
Sichtbare Kanten(DIN)
100
AcDbLine
 10
273.642131275309
 20
392.1960795058941
 30
0.0
 11
272.6421312753089
 21
392.1960795058941
 31
0.0
  0
LINE
  5
237
330
6C
100
AcDbEntity
  8
Sichtbare Kanten(DIN)
100
AcDbLine
 10
273.642131275309
 20
412.3960795058938
 30
0.0
 11
272.6421312753089
 21
412.3960795058938
 31
0.0
  0
SPLINE
  5
238
330
6C
100
AcDbEntity
  8
Sichtbare Kanten(DIN)
100
AcDbSpline
210
0.0
220
0.0
230
1.0
 70
     8
 71
     3
 72
    12
 73
     8
 74
     0
 42
0.0000000001
 43
0.0000000001
 40
1.174766691735204
 40
1.174766691735204
 40
1.174766691735204
 40
1.174766691735204
 40
1.198160023499904
 40
1.198160023499904
 40
1.278419662923767
 40
1.278419662923767
 40
1.357692272528034
 40
1.357692272528034
 40
1.357692272528034
 40
1.357692272528034
 10
121.7151029443746
 20
403.501939875194
 30
0.0
 10
121.7120397152243
 20
403.5688186885286
 30
0.0
 10
121.7089674964778
 20
403.6340142382029
 30
0.0
 10
121.6953009869683
 20
403.9144606364245
 30
0.0
 10
121.684720263079
 20
404.1061913969023
 30
0.0
 10
121.6634258771963
 20
404.4221947893846
 30
0.0
 10
121.6528451801441
 20
404.5453175870841
 30
0.0
 10
121.642131275309
 20
404.6296193454006
 30
0.0
  0
LINE
  5
239
330
6C
100
AcDbEntity
  8
Sichtbare Kanten(DIN)
100
AcDbLine
 10
115.3921312752671
 20
260.7689288643722
 30
0.0
 11
147.8921312752672
 21
260.7689288643722
 31
0.0
  0
LINE
  5
23A
330
6C
100
AcDbEntity
  8
Sichtbare Kanten(DIN)
100
AcDbLine
 10
115.3921312752671
 20
260.7689288643722
 30
0.0
 11
115.5414584889947
 21
248.5469382628687
 31
0.0
  0
LINE
  5
23B
330
6C
100
AcDbEntity
  8
Sichtbare Kanten(DIN)
100
AcDbLine
 10
147.8921312752672
 20
260.7689288643722
 30
0.0
 11
147.7428040615396
 21
248.5469382628687
 31
0.0
  0
ARC
  5
23C
330
6C
100
AcDbEntity
  8
Sichtbare Kanten(DIN)
100
AcDbCircle
 10
117.3413241543835
 20
248.5689288643722
 30
0.0
 40
1.800000000000009
100
AcDbArc
 50
180.699999999999
 51
270.0
  0
ARC
  5
23D
330
6C
100
AcDbEntity
  8
Sichtbare Kanten(DIN)
100
AcDbCircle
 10
145.9429383961508
 20
248.5689288643722
 30
0.0
 40
1.800000000000018
100
AcDbArc
 50
270.0
 51
359.2999999999995
  0
LINE
  5
23E
330
6C
100
AcDbEntity
  8
Sichtbare tangentiale Kanten(DIN)
100
AcDbLine
 10
115.5414584889947
 20
248.5469382628688
 30
0.0
 11
147.7428040615396
 21
248.5469382628688
 31
0.0
  0
LINE
  5
23F
330
6C
100
AcDbEntity
  8
Sichtbare Kanten(DIN)
100
AcDbLine
 10
145.9429383961508
 20
246.7689288643722
 30
0.0
 11
117.3413241543835
 21
246.7689288643722
 31
0.0
  0
LINE
  5
240
330
6C
100
AcDbEntity
  8
Sichtbare Kanten(DIN)
100
AcDbLine
 10
134.8741820828357
 20
271.2189288643736
 30
0.0
 11
128.4100804676984
 21
271.2189288643738
 31
0.0
  0
LINE
  5
241
330
6C
100
AcDbEntity
  8
Sichtbare Kanten(DIN)
100
AcDbLine
 10
128.1421312752673
 20
270.2189288643728
 30
0.0
 11
135.1421312752673
 21
270.2189288643728
 31
0.0
  0
LINE
  5
242
330
6C
100
AcDbEntity
  8
Sichtbare Kanten(DIN)
100
AcDbLine
 10
134.8741820828357
 20
271.2189288643737
 30
0.0
 11
135.142131275267
 21
270.2189288643727
 31
0.0
  0
LINE
  5
243
330
6C
100
AcDbEntity
  8
Sichtbare Kanten(DIN)
100
AcDbLine
 10
128.4100804676984
 20
271.2189288643737
 30
0.0
 11
128.142131275267
 21
270.2189288643729
 31
0.0
  0
LINE
  5
244
330
6C
100
AcDbEntity
  8
Sichtbare Kanten(DIN)
100
AcDbLine
 10
135.1421312752673
 20
270.2189288643728
 30
0.0
 11
135.1421312752673
 21
260.768928864374
 31
0.0
  0
LINE
  5
245
330
6C
100
AcDbEntity
  8
Sichtbare Kanten(DIN)
100
AcDbLine
 10
128.1421312752673
 20
270.2189288643728
 30
0.0
 11
128.1421312752673
 21
260.768928864374
 31
0.0
  0
LINE
  5
246
330
6C
100
AcDbEntity
  8
Sichtbare Kanten(DIN)
100
AcDbLine
 10
141.7421312752671
 20
246.5689288643663
 30
0.0
 11
121.542131275267
 21
246.5689288643663
 31
0.0
  0
LINE
  5
247
330
6C
100
AcDbEntity
  8
Sichtbare Kanten(DIN)
100
AcDbLine
 10
121.542131275267
 20
246.5689288643663
 30
0.0
 11
121.542131275267
 21
246.7689288643663
 31
0.0
  0
LINE
  5
248
330
6C
100
AcDbEntity
  8
Sichtbare Kanten(DIN)
100
AcDbLine
 10
141.7421312752671
 20
246.5689288643663
 30
0.0
 11
141.7421312752671
 21
246.7689288643663
 31
0.0
  0
LINE
  5
249
330
6C
100
AcDbEntity
  8
Sichtbare tangentiale Kanten(DIN)
100
AcDbLine
 10
131.6421312752672
 20
229.0689288643694
 30
0.0
 11
141.6421312752671
 21
229.0689288643664
 31
0.0
  0
SPLINE
  5
24A
330
6C
100
AcDbEntity
  8
Sichtbare Kanten(DIN)
100
AcDbSpline
210
0.0
220
0.0
230
1.0
 70
     8
 71
     3
 72
     8
 73
     4
 74
     0
 42
0.0000000001
 43
0.0000000001
 40
0.0
 40
0.0
 40
0.0
 40
0.0
 40
0.4443611331010413
 40
0.4443611331010413
 40
0.4443611331010413
 40
0.4443611331010413
 10
131.6421312752672
 20
229.0689288643693
 30
0.0
 10
133.0544036636892
 20
228.6223291219713
 30
0.0
 10
134.7435031932195
 20
228.0689288643694
 30
0.0
 10
136.224706970223
 20
228.0689288643694
 30
0.0
  0
ARC
  5
24B
330
6C
100
AcDbEntity
  8
Sichtbare Kanten(DIN)
100
AcDbCircle
 10
142.6421312752671
 20
229.0689288643664
 30
0.0
 40
0.9999999999999966
100
AcDbArc
 50
180.0
 51
270.0
  0
LINE
  5
24C
330
6C
100
AcDbEntity
  8
Sichtbare tangentiale Kanten(DIN)
100
AcDbLine
 10
131.6421312752672
 20
218.0689288643694
 30
0.0
 11
131.6421312752672
 21
229.0689288643693
 31
0.0
  0
LINE
  5
24D
330
6C
100
AcDbEntity
  8
Sichtbare Kanten(DIN)
100
AcDbLine
 10
131.6421312752672
 20
218.0689288643694
 30
0.0
 11
121.6421312752672
 21
218.0689288643664
 31
0.0
  0
LINE
  5
24E
330
6C
100
AcDbEntity
  8
Sichtbare Kanten(DIN)
100
AcDbLine
 10
163.6421312752669
 20
218.0689288643664
 30
0.0
 11
153.642131275267
 21
218.0689288643694
 31
0.0
  0
LINE
  5
24F
330
6C
100
AcDbEntity
  8
Sichtbare Kanten(DIN)
100
AcDbLine
 10
131.6421312752672
 20
218.0689288643694
 30
0.0
 11
153.642131275267
 21
218.0689288643693
 31
0.0
  0
LINE
  5
250
330
6C
100
AcDbEntity
  8
Sichtbare Kanten(DIN)
100
AcDbLine
 10
153.642131275267
 20
228.0689288643694
 30
0.0
 11
163.6421312752669
 21
228.0689288643663
 31
0.0
  0
LINE
  5
251
330
6C
100
AcDbEntity
  8
Sichtbare tangentiale Kanten(DIN)
100
AcDbLine
 10
153.642131275267
 20
218.0689288643693
 30
0.0
 11
153.642131275267
 21
228.0689288643693
 31
0.0
  0
LINE
  5
252
330
6C
100
AcDbEntity
  8
Sichtbare Kanten(DIN)
100
AcDbLine
 10
153.642131275267
 20
228.0689288643694
 30
0.0
 11
136.224706970223
 21
228.0689288643694
 31
0.0
  0
LINE
  5
253
330
6C
100
AcDbEntity
  8
Sichtbare Kanten(DIN)
100
AcDbLine
 10
121.6421312752672
 20
218.0689288643664
 30
0.0
 11
121.6421312752672
 21
237.5689288643662
 31
0.0
  0
LINE
  5
254
330
6C
100
AcDbEntity
  8
Sichtbare Kanten(DIN)
100
AcDbLine
 10
121.6421312752672
 20
242.3763952646093
 30
0.0
 11
121.6421312752672
 21
246.5689288643662
 31
0.0
  0
LINE
  5
255
330
6C
100
AcDbEntity
  8
Sichtbare Kanten(DIN)
100
AcDbLine
 10
141.6421312752671
 20
229.0689288643664
 30
0.0
 11
141.6421312752671
 21
246.5689288643662
 31
0.0
  0
LINE
  5
256
330
6C
100
AcDbEntity
  8
Sichtbare Kanten(DIN)
100
AcDbLine
 10
163.6421312752669
 20
218.0689288643664
 30
0.0
 11
163.6421312752669
 21
228.0689288643663
 31
0.0
  0
LINE
  5
257
330
6C
100
AcDbEntity
  8
Sichtbare Kanten(DIN)
100
AcDbLine
 10
143.6421312752671
 20
188.0689288643664
 30
0.0
 11
153.642131275267
 21
198.0689288643694
 31
0.0
  0
LINE
  5
258
330
6C
100
AcDbEntity
  8
Sichtbare Kanten(DIN)
100
AcDbLine
 10
163.642131275267
 20
208.0689288643664
 30
0.0
 11
153.642131275267
 21
198.0689288643694
 31
0.0
  0
LINE
  5
259
330
6C
100
AcDbEntity
  8
Sichtbare Kanten(DIN)
100
AcDbLine
 10
163.642131275267
 20
218.0689288643663
 30
0.0
 11
153.642131275267
 21
218.0689288643693
 31
0.0
  0
LINE
  5
25A
330
6C
100
AcDbEntity
  8
Sichtbare Kanten(DIN)
100
AcDbLine
 10
163.642131275267
 20
208.0689288643664
 30
0.0
 11
272.6421312752669
 21
208.0689288643664
 31
0.0
  0
LINE
  5
25B
330
6C
100
AcDbEntity
  8
Sichtbare Kanten(DIN)
100
AcDbLine
 10
143.6421312752671
 20
188.0689288643664
 30
0.0
 11
272.6421312752669
 21
188.0689288643664
 31
0.0
  0
LINE
  5
25C
330
6C
100
AcDbEntity
  8
Sichtbare Kanten(DIN)
100
AcDbLine
 10
163.642131275267
 20
218.0689288643663
 30
0.0
 11
163.642131275267
 21
208.0689288643664
 31
0.0
  0
LINE
  5
25D
330
6C
100
AcDbEntity
  8
Sichtbare Kanten(DIN)
100
AcDbLine
 10
143.642131275267
 20
218.0689288643663
 30
0.0
 11
143.6421312752671
 21
188.0689288643664
 31
0.0
  0
LINE
  5
25E
330
6C
100
AcDbEntity
  8
Sichtbare Kanten(DIN)
100
AcDbLine
 10
272.6421312752669
 20
187.9689288643663
 30
0.0
 11
272.6421312752669
 21
208.1689288643663
 31
0.0
  0
LINE
  5
25F
330
6C
100
AcDbEntity
  8
Sichtbare Kanten(DIN)
100
AcDbLine
 10
273.6421312752669
 20
187.9689288643663
 30
0.0
 11
273.6421312752669
 21
208.1689288643663
 31
0.0
  0
LINE
  5
260
330
6C
100
AcDbEntity
  8
Sichtbare Kanten(DIN)
100
AcDbLine
 10
273.6421312752669
 20
187.9689288643663
 30
0.0
 11
272.6421312752669
 21
187.9689288643663
 31
0.0
  0
LINE
  5
261
330
6C
100
AcDbEntity
  8
Sichtbare Kanten(DIN)
100
AcDbLine
 10
273.6421312752669
 20
208.1689288643663
 30
0.0
 11
272.6421312752669
 21
208.1689288643663
 31
0.0
  0
LINE
  5
262
330
6C
100
AcDbEntity
  8
Skizziergeometrie(DIN)
100
AcDbLine
 10
121.6421312752672
 20
246.5659242717245
 30
0.0
 11
121.6421312752672
 21
235.9162035082155
 31
0.0
  0
LINE
  5
263
330
6C
100
AcDbEntity
  8
Mittelpunktmarkierung(DIN)
  6
Continuous
100
AcDbLine
 10
141.3448877038294
 20
427.2960795058938
 30
0.0
 11
121.9393748467889
 21
427.2960795058938
 31
0.0
  0
LINE
  5
264
330
6C
100
AcDbEntity
  8
Mittelpunktmarkierung(DIN)
  6
Continuous
100
AcDbLine
 10
131.6421312753091
 20
436.9988359344142
 30
0.0
 11
131.6421312753091
 21
417.5933230773736
 31
0.0
  0
LINE
  5
265
330
6C
100
AcDbEntity
  8
Mittelpunktmarkierung(DIN)
  6
Continuous
100
AcDbLine
 10
141.3448877038294
 20
377.2960795058941
 30
0.0
 11
121.9393748467889
 21
377.2960795058941
 31
0.0
  0
LINE
  5
266
330
6C
100
AcDbEntity
  8
Mittelpunktmarkierung(DIN)
  6
Continuous
100
AcDbLine
 10
131.6421312753091
 20
386.9988359344143
 30
0.0
 11
131.6421312753091
 21
367.5933230773739
 31
0.0
  0
LINE
  5
267
330
6C
100
AcDbEntity
  8
Mittelpunktmarkierung(DIN)
  6
Continuous
100
AcDbLine
 10
152.8921312753091
 20
382.396079505894
 30
0.0
 11
126.642131275309
 21
382.396079505894
 31
0.0
  0
LINE
  5
268
330
6C
100
AcDbEntity
  8
Mittelpunktmarkierung(DIN)
  6
Continuous
100
AcDbLine
 10
131.6421312753091
 20
387.396079505894
 30
0.0
 11
131.6421312753091
 21
377.396079505894
 31
0.0
  0
LINE
  5
269
330
6C
100
AcDbEntity
  8
Mittellinie(DIN)
  6
Continuous
100
AcDbLine
 10
148.642131275267
 20
198.0689288643664
 30
0.0
 11
277.642131275267
 21
198.0689288643663
 31
0.0
  0
LINE
  5
26A
330
6C
100
AcDbEntity
  8
Mittellinie(DIN)
  6
Continuous
100
AcDbLine
 10
153.642131275267
 20
223.0689288643664
 30
0.0
 11
153.642131275267
 21
193.0689288643664
 31
0.0
  0
DIMENSION
  5
26B
330
6C
100
AcDbEntity
  8
Bemaßungen(DIN)
  6
Continuous
 62
   250
420
  4144959
370
    25
100
AcDbDimension
  2
*D17
 10
67.54145848903679
 20
366.1766242875495
 30
0.0
 11
67.54145848903672
 21
402.2913518967217
 31
0.0
 70
   160
  1
<>
 71
     5
 42
72.26945521834458
 73
     0
 74
     0
 75
     0
  3
STANDARD-DIN - Methode 2b
100
AcDbAlignedDimension
 13
131.6421312753091
 23
438.4460795058941
 33
0.0
 14
131.6421312753091
 24
366.1766242875495
 34
0.0
 50
90.0
100
AcDbRotatedDimension
1001
ACAD
1000
DSTYLE
1002
{
1070
   172
1070
     0
1070
   289
1070
     1
1070
    74
1070
     0
1070
   271
1070
     0
1070
   272
1070
     2
1070
    48
1040
0.0
1070
    47
1040
0.0
1002
}
  0
DIMENSION
  5
354
330
6C
100
AcDbEntity
  8
Bemaßungen(DIN)
  6
Continuous
 62
   250
420
  4144959
370
    25
100
AcDbDimension
  2
*D18
 10
91.54145848903679
 20
377.2960795058941
 30
0.0
 11
91.54145848903672
 21
402.2760795058941
 31
0.0
 70
   160
  1
<>
 71
     5
 42
49.99999999999989
 73
     0
 74
     0
 75
     0
  3
STANDARD-DIN - Methode 2b
100
AcDbAlignedDimension
 13
121.9393748467889
 23
427.2960795058938
 33
0.0
 14
121.9393748467889
 24
377.2960795058941
 34
0.0
 50
90.0
100
AcDbRotatedDimension
1001
ACAD
1000
DSTYLE
1002
{
1070
   172
1070
     0
1070
   289
1070
     1
1070
    74
1070
     0
1070
   271
1070
     2
1070
   272
1070
     2
1070
    48
1040
0.0
1070
    47
1040
0.0
1002
}
  0
DIMENSION
  5
43C
330
6C
100
AcDbEntity
  8
Bemaßungen(DIN)
  6
Continuous
 62
   250
420
  4144959
370
    25
100
AcDbDimension
  2
*D19
 10
147.8921312753092
 20
460.4968866267777
 30
0.0
 11
131.6221312753091
 21
460.4968866267777
 31
0.0
 70
   160
  1
<>
 71
     5
 42
32.50000000000014
 73
     0
 74
     0
 75
     0
  3
STANDARD-DIN - Methode 2b
100
AcDbAlignedDimension
 13
115.3921312753091
 23
422.1960795058938
 33
0.0
 14
147.8921312753092
 24
422.1960795058938
 34
0.0
 50
180.0
100
AcDbRotatedDimension
1001
ACAD
1000
DSTYLE
1002
{
1070
   172
1070
     0
1070
   289
1070
     1
1070
    74
1070
     0
1070
   271
1070
     2
1070
   272
1070
     2
1070
    48
1040
0.0
1070
    47
1040
0.0
1002
}
  0
DIMENSION
  5
51E
330
6C
100
AcDbEntity
  8
Bemaßungen(DIN)
  6
Continuous
 62
   250
420
  4144959
370
    25
100
AcDbDimension
  2
*D20
 10
296.6421312753092
 20
392.2960795058941
 30
0.0
 11
296.6421312753089
 21
427.8812698172243
 31
0.0
 70
   160
  1
{\fAIGDT|b0|i0;\H7.0000;n\fArial|b0|i0;\H7.0000;}<>
 71
     5
 42
20.0
 73
     0
 74
     0
 75
     0
  3
STANDARD-DIN - Methode 2b
100
AcDbAlignedDimension
 13
272.6421312753089
 23
412.296079505894
 33
0.0
 14
272.6421312753089
 24
392.2960795058941
 34
0.0
 50
270.0
100
AcDbRotatedDimension
1001
ACAD
1000
DSTYLE
1002
{
1070
   172
1070
     0
1070
   289
1070
     2
1070
    74
1070
     0
1070
   271
1070
     2
1070
   272
1070
     2
1070
    48
1040
0.0
1070
    47
1040
0.0
1002
}
  0
DIMENSION
  5
621
330
6C
100
AcDbEntity
  8
Bemaßungen(DIN)
  6
Continuous
 62
   250
420
  4144959
370
    25
100
AcDbDimension
  2
*D21
 10
67.46679488213091
 20
188.0689288643664
 30
0.0
 11
67.46679488213088
 21
217.4189288643693
 31
0.0
 70
   160
  1
<>
 71
     5
 42
60.0
 73
     0
 74
     0
 75
     0
  3
STANDARD-DIN - Methode 2b
100
AcDbAlignedDimension
 13
117.3413241543835
 23
246.7689288643722
 33
0.0
 14
143.6421312752671
 24
188.0689288643664
 34
0.0
 50
270.0
100
AcDbRotatedDimension
1001
ACAD
1000
DSTYLE
1002
{
1070
   172
1070
     0
1070
   289
1070
     1
1070
    74
1070
     0
1070
   271
1070
     2
1070
   144
1040
1.022146507665997
1070
   272
1070
     2
1070
    48
1040
0.0
1070
    47
1040
0.0
1002
}
  0
DIMENSION
  5
712
330
6C
100
AcDbEntity
  8
Bemaßungen(DIN)
  6
Continuous
 62
   250
420
  4144959
370
    25
100
AcDbDimension
  2
*D22
 10
67.46679488213093
 20
246.7689288643722
 30
0.0
 11
67.46679488213088
 21
253.7689288643722
 31
0.0
 70
   160
  1
<>
 71
     5
 42
14.00000000000003
 73
     0
 74
     1
 75
     1
  3
STANDARD-DIN - Methode 2b
100
AcDbAlignedDimension
 13
115.3921312752671
 23
260.7689288643722
 33
0.0
 14
117.3413241543836
 24
246.7689288643722
 34
0.0
 50
90.0
100
AcDbRotatedDimension
1001
ACAD
1000
DSTYLE
1002
{
1070
   172
1070
     0
1070
    74
1070
     0
1070
   271
1070
     2
1070
   272
1070
     2
1070
    48
1040
0.0
1070
    47
1040
0.0
1002
}
  0
DIMENSION
  5
804
330
6C
100
AcDbEntity
  8
Bemaßungen(DIN)
  6
Continuous
 62
   250
420
  4144959
370
    25
100
AcDbDimension
  2
*D23
 10
273.6421312752669
 20
164.0689288643664
 30
0.0
 11
197.6621312752669
 21
164.0689288643664
 31
0.0
 70
   160
  1
<>
 71
     5
 42
151.9999999999999
 73
     0
 74
     0
 75
     0
  3
STANDARD-DIN - Methode 2b
100
AcDbAlignedDimension
 13
121.642131275267
 23
218.0689288643664
 33
0.0
 14
273.6421312752669
 24
187.9689288643663
 34
0.0
 50
180.0
100
AcDbRotatedDimension
1001
ACAD
1000
DSTYLE
1002
{
1070
   172
1070
     0
1070
   289
1070
     1
1070
    74
1070
     0
1070
   271
1070
     2
1070
   272
1070
     2
1070
    48
1040
0.0
1070
    47
1040
0.0
1002
}
  0
MTEXT
  5
8E6
330
6C
100
AcDbEntity
  8
Symbole(DIN)
 62
   179
420
  2500185
100
AcDbMText
 10
313.9829434368664
 20
115.6141006047306
 30
0.0
 40
6.99999988079071
 41
27.18369007110599
 46
0.0
 71
     1
 72
     1
  1
{50052}
  7
Aktuell-DIN
 73
     1
 44
1.0
  0
DIMENSION
  5
8E7
330
6C
100
AcDbEntity
  8
Bemaßungen(DIN)
  6
Continuous
 62
   250
420
  4144959
370
    25
100
AcDbDimension
  2
*D24
 10
91.46679488213093
 20
246.7689288643722
 30
0.0
 11
91.46679488213086
 21
232.3989288643701
 31
0.0
 70
   160
  1
<>
 71
     5
 42
30.0
 73
     0
 74
     0
 75
     0
  3
STANDARD-DIN - Methode 2b
100
AcDbAlignedDimension
 13
121.6421312752672
 23
218.0689288643679
 33
0.0
 14
117.3413241543836
 24
246.7689288643722
 34
0.0
 50
90.0
100
AcDbRotatedDimension
1001
ACAD
1000
DSTYLE
1002
{
1070
   172
1070
     0
1070
   289
1070
     1
1070
    74
1070
     0
1070
   271
1070
     2
1070
   144
1040
1.045296167247229
1070
   272
1070
     2
1070
    48
1040
0.0
1070
    47
1040
0.0
1002
}
  0
LINE
  5
9D8
330
6C
100
AcDbEntity
  8
Mittelpunktmarkierung(DIN)
  6
Continuous
100
AcDbLine
 10
152.7428040615815
 20
422.1960795058938
 30
0.0
 11
110.5414584890368
 21
422.1960795058938
 31
0.0
  0
LINE
  5
9D9
330
6C
100
AcDbEntity
  8
Mittelpunktmarkierung(DIN)
  6
Continuous
100
AcDbLine
 10
152.7428040615815
 20
382.396079505894
 30
0.0
 11
110.5414584890368
 21
382.396079505894
 31
0.0
  0
LINE
  5
9DA
330
6C
100
AcDbEntity
  8
Mittellinie(DIN)
  6
Continuous
100
AcDbLine
 10
131.6421312753091
 20
443.2967522921662
 30
0.0
 11
131.6421312753091
 21
361.2954067196217
 31
0.0
  0
LINE
  5
9DB
330
6C
100
AcDbEntity
  8
Mittelpunktmarkierung(DIN)
  6
Continuous
100
AcDbLine
 10
153.642131275309
 20
417.296079505894
 30
0.0
 11
153.642131275309
 21
387.2960795058941
 31
0.0
  0
LINE
  5
9DC
330
6C
100
AcDbEntity
  8
Mittellinie(DIN)
  6
Continuous
100
AcDbLine
 10
138.6421312753091
 20
402.2960795058939
 30
0.0
 11
278.6421312753089
 21
402.2960795058939
 31
0.0
  0
LINE
  5
9DD
330
6C
100
AcDbEntity
  8
Mittelpunktmarkierung(DIN)
  6
Continuous
100
AcDbLine
 10
147.2421312753092
 20
402.2960795058939
 30
0.0
 11
116.0421312753091
 21
402.2960795058939
 31
0.0
  0
LINE
  5
9DE
330
6C
100
AcDbEntity
  8
Mittelpunktmarkierung(DIN)
  6
Continuous
100
AcDbLine
 10
131.6421312753091
 20
417.896079505894
 30
0.0
 11
131.6421312753091
 21
386.6960795058941
 31
0.0
  0
ENDSEC
  0
SECTION
  2
OBJECTS
  0
DICTIONARY
  5
C
330
0
100
AcDbDictionary
281
     1
  3
ACAD_CIP_PREVIOUS_PRODUCT_INFO
350
9DF
  3
ACAD_COLOR
350
63
  3
ACAD_GROUP
350
D
  3
ACAD_LAYOUT
350
62
  3
ACAD_MATERIAL
350
10
  3
ACAD_MLEADERSTYLE
350
66
  3
ACAD_MLINESTYLE
350
5F
  3
ACAD_PLOTSETTINGS
350
61
  3
ACAD_PLOTSTYLENAME
350
E
  3
ACAD_SCALELIST
350
42
  3
ACAD_TABLESTYLE
350
64
  3
ACAD_VISUALSTYLE
350
29
  3
ACDB_RECOMPOSE_DATA
350
A38
  3
AcDbVariableDictionary
350
9E0
  0
DICTIONARY
  5
9E9
330
193
100
AcDbDictionary
280
     1
281
     1
  3
ACAD_MLATT
360
A31
  3
ACAD_XREC_ROUNDTRIP
360
A30
  0
DICTIONARY
  5
9EC
330
196
100
AcDbDictionary
280
     1
281
     1
  3
ACAD_MLATT
360
A33
  3
ACAD_XREC_ROUNDTRIP
360
A32
  0
DICTIONARY
  5
9EF
330
197
100
AcDbDictionary
280
     1
281
     1
  3
ACAD_MLATT
360
A35
  3
ACAD_XREC_ROUNDTRIP
360
A34
  0
DICTIONARY
  5
9F2
330
198
100
AcDbDictionary
280
     1
281
     1
  3
ACAD_MLATT
360
A37
  3
ACAD_XREC_ROUNDTRIP
360
A36
  0
XRECORD
  5
9DF
102
{ACAD_REACTORS
330
C
102
}
330
C
100
AcDbXrecord
280
     1
300
INVNTOR
300
2012
300
PDSP_F_S
  0
DICTIONARY
  5
63
102
{ACAD_REACTORS
330
C
102
}
330
C
100
AcDbDictionary
281
     1
  0
DICTIONARY
  5
D
102
{ACAD_REACTORS
330
C
102
}
330
C
100
AcDbDictionary
281
     1
  0
DICTIONARY
  5
62
102
{ACAD_REACTORS
330
C
102
}
330
C
100
AcDbDictionary
281
     1
  3
Layout1
350
6B
  3
Layout2
350
73
  3
Model
350
6F
  0
DICTIONARY
  5
10
102
{ACAD_REACTORS
330
C
102
}
330
C
100
AcDbDictionary
281
     1
  3
ByBlock
350
19
  3
ByLayer
350
11
  3
Global
350
21
  0
DICTIONARY
  5
66
102
{ACAD_REACTORS
330
C
102
}
330
C
100
AcDbDictionary
281
     1
  3
Standard
350
67
  0
DICTIONARY
  5
5F
102
{ACAD_REACTORS
330
C
102
}
330
C
100
AcDbDictionary
281
     1
  3
Standard
350
60
  0
DICTIONARY
  5
61
102
{ACAD_REACTORS
330
C
102
}
330
C
100
AcDbDictionary
281
     1
  0
ACDBDICTIONARYWDFLT
  5
E
102
{ACAD_REACTORS
330
C
102
}
330
C
100
AcDbDictionary
281
     1
  3
Normal
350
F
100
AcDbDictionaryWithDefault
340
F
  0
DICTIONARY
  5
42
102
{ACAD_REACTORS
330
C
102
}
330
C
100
AcDbDictionary
281
     1
  3
A0
350
43
  3
A1
350
44
  3
A2
350
45
  3
A3
350
46
  3
A4
350
47
  3
A5
350
48
  3
A6
350
49
  3
A7
350
4A
  3
A8
350
4B
  3
A9
350
4C
  3
B0
350
4D
  3
B1
350
4E
  3
B2
350
4F
  3
B3
350
50
  3
B4
350
51
  3
B5
350
52
  3
B6
350
53
  0
DICTIONARY
  5
64
102
{ACAD_REACTORS
330
C
102
}
330
C
100
AcDbDictionary
281
     1
  3
Standard
350
65
  0
DICTIONARY
  5
29
102
{ACAD_REACTORS
330
C
102
}
330
C
100
AcDbDictionary
281
     1
  3
2dWireframe
350
2F
  3
Basic
350
2E
  3
Brighten
350
35
  3
ColorChange
350
39
  3
Conceptual
350
32
  3
Dim
350
34
  3
EdgeColorOff
350
41
  3
Facepattern
350
38
  3
Flat
350
2A
  3
FlatWithEdges
350
2B
  3
Gouraud
350
2C
  3
GouraudWithEdges
350
2D
  3
Hidden
350
31
  3
JitterOff
350
3F
  3
Linepattern
350
37
  3
OverhangOff
350
40
  3
Realistic
350
33
  3
Shaded
350
3E
  3
Shaded with edges
350
3D
  3
Shades of Gray
350
3A
  3
Sketchy
350
3B
  3
Thicken
350
36
  3
Wireframe
350
30
  3
X-Ray
350
3C
  0
XRECORD
  5
A38
102
{ACAD_REACTORS
330
C
102
}
330
C
100
AcDbXrecord
280
     1
 90
        1
330
65
330
193
330
196
330
197
330
198
  0
DICTIONARY
  5
9E0
102
{ACAD_REACTORS
330
C
102
}
330
C
100
AcDbDictionary
281
     1
  3
CANNOSCALE
350
9E3
  3
CMLEADERSTYLE
350
9E2
  3
CTABLESTYLE
350
9E1
  3
XCLIPFRAME
350
A2A
  0
XRECORD
  5
A31
102
{ACAD_REACTORS
330
9E9
102
}
330
9E9
100
AcDbXrecord
280
     1
 70
     4
 70
     0
 70
     0
 40
1.0
  2
Innenkante_obere_Grenze
  1
Embedded Object
 10
28.19096644559973
 20
16.62519294726898
 30
0.0
 40
3.499999940395355
 41
0.0
 46
0.0
 71
     1
 72
     5
  1
\W0.9000;-1
  7
Textstil122
 73
     1
 44
1.0
  0
XRECORD
  5
A30
102
{ACAD_REACTORS
330
9E9
102
}
330
9E9
100
AcDbXrecord
280
     1
102
ACAD_MATT_HEIGHT
140
3.499999940395355
  0
XRECORD
  5
A33
102
{ACAD_REACTORS
330
9EC
102
}
330
9EC
100
AcDbXrecord
280
     1
 70
     4
 70
     0
 70
     0
 40
1.0
  2
Innenkante_untere_Grenze
  1
Embedded Object
 10
28.19096644559973
 20
11.62519294726898
 30
0.0
 40
3.499999940395355
 41
0.0
 46
0.0
 71
     1
 72
     5
  1
\W0.9000;-0.25
  7
Textstil122
 73
     1
 44
1.0
  0
XRECORD
  5
A32
102
{ACAD_REACTORS
330
9EC
102
}
330
9EC
100
AcDbXrecord
280
     1
102
ACAD_MATT_HEIGHT
140
3.499999940395355
  0
XRECORD
  5
A35
102
{ACAD_REACTORS
330
9EF
102
}
330
9EF
100
AcDbXrecord
280
     1
 70
     4
 70
     0
 70
     0
 40
1.0
  2
Aussenkante_obere_Grenze
  1
Embedded Object
 10
6.721339289383169
 20
16.62519294726898
 30
0.0
 40
3.499999940395355
 41
7.696662545204162
 46
0.0
 71
     1
 72
     5
  1
\W0.9000;+0.3
  7
Textstil122
 73
     1
 44
1.0
  0
XRECORD
  5
A34
102
{ACAD_REACTORS
330
9EF
102
}
330
9EF
100
AcDbXrecord
280
     1
102
ACAD_MATT_HEIGHT
140
3.499999940395355
  0
XRECORD
  5
A37
102
{ACAD_REACTORS
330
9F2
102
}
330
9F2
100
AcDbXrecord
280
     1
 70
     4
 70
     0
 70
     0
 40
1.0
  2
Aussenkante_untere_Grenze
  1
Embedded Object
 10
6.721339289383169
 20
11.62519294726898
 30
0.0
 40
3.499999940395355
 41
0.0
 46
0.0
 71
     1
 72
     5
  1
\W0.9000;+0.1
  7
Textstil122
 73
     1
 44
1.0
  0
XRECORD
  5
A36
102
{ACAD_REACTORS
330
9F2
102
}
330
9F2
100
AcDbXrecord
280
     1
102
ACAD_MATT_HEIGHT
140
3.499999940395355
  0
LAYOUT
  5
6B
102
{ACAD_REACTORS
330
62
102
}
330
62
100
AcDbPlotSettings
  1

  2

  4

  6

 40
0.0
 41
0.0
 42
0.0
 43
0.0
 44
0.0
 45
0.0
 46
0.0
 47
0.0
 48
0.0
 49
0.0
140
0.0
141
0.0
142
1.0
143
1.0
 70
   688
 72
     0
 73
     0
 74
     5
  7

 75
    16
147
1.0
 76
     0
 77
     2
 78
   300
148
0.0
149
0.0
100
AcDbLayout
  1
Layout1
 70
     1
 71
     1
 10
0.0
 20
0.0
 11
12.0
 21
9.0
 12
0.0
 22
0.0
 32
0.0
 14
0.0
 24
0.0
 34
0.0
 15
0.0
 25
0.0
 35
0.0
146
0.0
 13
0.0
 23
0.0
 33
0.0
 16
1.0
 26
0.0
 36
0.0
 17
0.0
 27
1.0
 37
0.0
 76
     0
330
68
  0
LAYOUT
  5
73
102
{ACAD_REACTORS
330
62
102
}
330
62
100
AcDbPlotSettings
  1

  2

  4

  6

 40
0.0
 41
0.0
 42
0.0
 43
0.0
 44
0.0
 45
0.0
 46
0.0
 47
0.0
 48
0.0
 49
0.0
140
0.0
141
0.0
142
1.0
143
1.0
 70
   688
 72
     0
 73
     0
 74
     5
  7

 75
    16
147
1.0
 76
     0
 77
     2
 78
   300
148
0.0
149
0.0
100
AcDbLayout
  1
Layout2
 70
     1
 71
     2
 10
0.0
 20
0.0
 11
12.0
 21
9.0
 12
0.0
 22
0.0
 32
0.0
 14
0.0
 24
0.0
 34
0.0
 15
0.0
 25
0.0
 35
0.0
146
0.0
 13
0.0
 23
0.0
 33
0.0
 16
1.0
 26
0.0
 36
0.0
 17
0.0
 27
1.0
 37
0.0
 76
     0
330
70
  0
LAYOUT
  5
6F
102
{ACAD_REACTORS
330
62
102
}
330
62
100
AcDbPlotSettings
  1

  2

  4

  6

 40
0.0
 41
0.0
 42
0.0
 43
0.0
 44
0.0
 45
0.0
 46
0.0
 47
0.0
 48
0.0
 49
0.0
140
0.0
141
0.0
142
1.0
143
1.0
 70
  1712
 72
     0
 73
     0
 74
     0
  7

 75
     0
147
1.0
 76
     0
 77
     2
 78
   300
148
0.0
149
0.0
100
AcDbLayout
  1
Model
 70
     1
 71
     0
 10
0.0
 20
0.0
 11
12.0
 21
9.0
 12
0.0
 22
0.0
 32
0.0
 14
0.0
 24
0.0
 34
0.0
 15
0.0
 25
0.0
 35
0.0
146
0.0
 13
0.0
 23
0.0
 33
0.0
 16
1.0
 26
0.0
 36
0.0
 17
0.0
 27
1.0
 37
0.0
 76
     0
330
6C
  0
MATERIAL
  5
19
102
{ACAD_XDICTIONARY
360
1A
102
}
102
{ACAD_REACTORS
330
10
102
}
330
10
100
AcDbMaterial
  1
ByBlock
 72
     0
 43
0.0208333333333333
 43
0.0
 43
0.0
 43
0.0
 43
0.0
 43
0.0208333333333333
 43
0.0
 43
0.0
 43
0.0
 43
0.0
 43
1.0
 43
0.0
 43
0.0
 43
0.0
 43
0.0
 43
1.0
 77
     0
 47
0.0208333333333333
 47
0.0
 47
0.0
 47
0.0
 47
0.0
 47
0.0208333333333333
 47
0.0
 47
0.0
 47
0.0
 47
0.0
 47
1.0
 47
0.0
 47
0.0
 47
0.0
 47
0.0
 47
1.0
171
     0
 49
0.0208333333333333
 49
0.0
 49
0.0
 49
0.0
 49
0.0
 49
0.0208333333333333
 49
0.0
 49
0.0
 49
0.0
 49
0.0
 49
1.0
 49
0.0
 49
0.0
 49
0.0
 49
0.0
 49
1.0
175
     0
142
0.0208333333333333
142
0.0
142
0.0
142
0.0
142
0.0
142
0.0208333333333333
142
0.0
142
0.0
142
0.0
142
0.0
142
1.0
142
0.0
142
0.0
142
0.0
142
0.0
142
1.0
179
     0
144
0.0208333333333333
144
0.0
144
0.0
144
0.0
144
0.0
144
0.0208333333333333
144
0.0
144
0.0
144
0.0
144
0.0
144
1.0
144
0.0
144
0.0
144
0.0
144
0.0
144
1.0
147
0.0208333333333333
147
0.0
147
0.0
147
0.0
147
0.0
147
0.0208333333333333
147
0.0
147
0.0
147
0.0
147
0.0
147
1.0
147
0.0
147
0.0
147
0.0
147
0.0
147
1.0
  0
MATERIAL
  5
11
102
{ACAD_XDICTIONARY
360
12
102
}
102
{ACAD_REACTORS
330
10
102
}
330
10
100
AcDbMaterial
  1
ByLayer
 72
     0
 43
0.0208333333333333
 43
0.0
 43
0.0
 43
0.0
 43
0.0
 43
0.0208333333333333
 43
0.0
 43
0.0
 43
0.0
 43
0.0
 43
1.0
 43
0.0
 43
0.0
 43
0.0
 43
0.0
 43
1.0
 77
     0
 47
0.0208333333333333
 47
0.0
 47
0.0
 47
0.0
 47
0.0
 47
0.0208333333333333
 47
0.0
 47
0.0
 47
0.0
 47
0.0
 47
1.0
 47
0.0
 47
0.0
 47
0.0
 47
0.0
 47
1.0
171
     0
 49
0.0208333333333333
 49
0.0
 49
0.0
 49
0.0
 49
0.0
 49
0.0208333333333333
 49
0.0
 49
0.0
 49
0.0
 49
0.0
 49
1.0
 49
0.0
 49
0.0
 49
0.0
 49
0.0
 49
1.0
175
     0
142
0.0208333333333333
142
0.0
142
0.0
142
0.0
142
0.0
142
0.0208333333333333
142
0.0
142
0.0
142
0.0
142
0.0
142
1.0
142
0.0
142
0.0
142
0.0
142
0.0
142
1.0
179
     0
144
0.0208333333333333
144
0.0
144
0.0
144
0.0
144
0.0
144
0.0208333333333333
144
0.0
144
0.0
144
0.0
144
0.0
144
1.0
144
0.0
144
0.0
144
0.0
144
0.0
144
1.0
147
0.0208333333333333
147
0.0
147
0.0
147
0.0
147
0.0
147
0.0208333333333333
147
0.0
147
0.0
147
0.0
147
0.0
147
1.0
147
0.0
147
0.0
147
0.0
147
0.0
147
1.0
  0
MATERIAL
  5
21
102
{ACAD_XDICTIONARY
360
22
102
}
102
{ACAD_REACTORS
330
10
102
}
330
10
100
AcDbMaterial
  1
Global
 72
     0
 43
0.0208333333333333
 43
0.0
 43
0.0
 43
0.0
 43
0.0
 43
0.0208333333333333
 43
0.0
 43
0.0
 43
0.0
 43
0.0
 43
1.0
 43
0.0
 43
0.0
 43
0.0
 43
0.0
 43
1.0
 77
     0
 47
0.0208333333333333
 47
0.0
 47
0.0
 47
0.0
 47
0.0
 47
0.0208333333333333
 47
0.0
 47
0.0
 47
0.0
 47
0.0
 47
1.0
 47
0.0
 47
0.0
 47
0.0
 47
0.0
 47
1.0
171
     0
 49
0.0208333333333333
 49
0.0
 49
0.0
 49
0.0
 49
0.0
 49
0.0208333333333333
 49
0.0
 49
0.0
 49
0.0
 49
0.0
 49
1.0
 49
0.0
 49
0.0
 49
0.0
 49
0.0
 49
1.0
175
     0
142
0.0208333333333333
142
0.0
142
0.0
142
0.0
142
0.0
142
0.0208333333333333
142
0.0
142
0.0
142
0.0
142
0.0
142
1.0
142
0.0
142
0.0
142
0.0
142
0.0
142
1.0
179
     0
144
0.0208333333333333
144
0.0
144
0.0
144
0.0
144
0.0
144
0.0208333333333333
144
0.0
144
0.0
144
0.0
144
0.0
144
1.0
144
0.0
144
0.0
144
0.0
144
0.0
144
1.0
147
0.0208333333333333
147
0.0
147
0.0
147
0.0
147
0.0
147
0.0208333333333333
147
0.0
147
0.0
147
0.0
147
0.0
147
1.0
147
0.0
147
0.0
147
0.0
147
0.0
147
1.0
  0
MLEADERSTYLE
  5
67
102
{ACAD_XDICTIONARY
360
A2C
102
}
102
{ACAD_REACTORS
330
66
102
}
330
66
100
AcDbMLeaderStyle
170
     2
171
     1
172
     0
 90
        2
 40
0.0
 41
0.0
173
     1
 91
-1056964608
340
5B
 92
       -2
290
     1
 42
0.09
291
     1
 43
0.36
  3
Standard
 44
0.18
300

342
55
174
     1
178
     6
175
     1
176
     0
 93
-1056964608
 45
0.18
292
     0
297
     0
 46
0.18
 94
-1056964608
 47
1.0
 49
1.0
140
1.0
293
     1
141
0.0
294
     1
177
     0
142
1.0
295
     0
296
     0
143
0.125
1001
ACAD_MLEADERVER
1070
     2
  0
MLINESTYLE
  5
60
102
{ACAD_REACTORS
330
5F
102
}
330
5F
100
AcDbMlineStyle
  2
STANDARD
 70
     0
  3

 62
   256
 51
90.0
 52
90.0
 71
     2
 49
0.5
 62
   256
  6
BYLAYER
 49
-0.5
 62
   256
  6
BYLAYER
  0
ACDBPLACEHOLDER
  5
F
102
{ACAD_REACTORS
330
E
102
}
330
E
  0
SCALE
  5
43
102
{ACAD_REACTORS
330
42
102
}
330
42
100
AcDbScale
 70
     0
300
1:1
140
1.0
141
1.0
290
     1
  0
SCALE
  5
44
102
{ACAD_REACTORS
330
42
102
}
330
42
100
AcDbScale
 70
     0
300
1/128" = 1'-0"
140
0.0078125
141
12.0
290
     0
  0
SCALE
  5
45
102
{ACAD_REACTORS
330
42
102
}
330
42
100
AcDbScale
 70
     0
300
1/64" = 1'-0"
140
0.015625
141
12.0
290
     0
  0
SCALE
  5
46
102
{ACAD_REACTORS
330
42
102
}
330
42
100
AcDbScale
 70
     0
300
1/32" = 1'-0"
140
0.03125
141
12.0
290
     0
  0
SCALE
  5
47
102
{ACAD_REACTORS
330
42
102
}
330
42
100
AcDbScale
 70
     0
300
1/16" = 1'-0"
140
0.0625
141
12.0
290
     0
  0
SCALE
  5
48
102
{ACAD_REACTORS
330
42
102
}
330
42
100
AcDbScale
 70
     0
300
3/32" = 1'-0"
140
0.09375
141
12.0
290
     0
  0
SCALE
  5
49
102
{ACAD_REACTORS
330
42
102
}
330
42
100
AcDbScale
 70
     0
300
1/8" = 1'-0"
140
0.125
141
12.0
290
     0
  0
SCALE
  5
4A
102
{ACAD_REACTORS
330
42
102
}
330
42
100
AcDbScale
 70
     0
300
3/16" = 1'-0"
140
0.1875
141
12.0
290
     0
  0
SCALE
  5
4B
102
{ACAD_REACTORS
330
42
102
}
330
42
100
AcDbScale
 70
     0
300
1/4" = 1'-0"
140
0.25
141
12.0
290
     0
  0
SCALE
  5
4C
102
{ACAD_REACTORS
330
42
102
}
330
42
100
AcDbScale
 70
     0
300
3/8" = 1'-0"
140
0.375
141
12.0
290
     0
  0
SCALE
  5
4D
102
{ACAD_REACTORS
330
42
102
}
330
42
100
AcDbScale
 70
     0
300
1/2" = 1'-0"
140
0.5
141
12.0
290
     0
  0
SCALE
  5
4E
102
{ACAD_REACTORS
330
42
102
}
330
42
100
AcDbScale
 70
     0
300
3/4" = 1'-0"
140
0.75
141
12.0
290
     0
  0
SCALE
  5
4F
102
{ACAD_REACTORS
330
42
102
}
330
42
100
AcDbScale
 70
     0
300
1" = 1'-0"
140
1.0
141
12.0
290
     0
  0
SCALE
  5
50
102
{ACAD_REACTORS
330
42
102
}
330
42
100
AcDbScale
 70
     0
300
1-1/2" = 1'-0"
140
1.5
141
12.0
290
     0
  0
SCALE
  5
51
102
{ACAD_REACTORS
330
42
102
}
330
42
100
AcDbScale
 70
     0
300
3" = 1'-0"
140
3.0
141
12.0
290
     0
  0
SCALE
  5
52
102
{ACAD_REACTORS
330
42
102
}
330
42
100
AcDbScale
 70
     0
300
6" = 1'-0"
140
6.0
141
12.0
290
     0
  0
SCALE
  5
53
102
{ACAD_REACTORS
330
42
102
}
330
42
100
AcDbScale
 70
     0
300
1'-0" = 1'-0"
140
12.0
141
12.0
290
     0
  0
TABLESTYLE
  5
65
102
{ACAD_XDICTIONARY
360
9E5
102
}
102
{ACAD_REACTORS
330
64
102
}
330
64
100
AcDbTableStyle
  3
Standard
 70
     0
 71
     0
 40
0.06
 41
0.06
280
     0
281
     0
  7
Standard
140
0.18
170
     2
 62
     0
 63
     7
283
     0
 90
      512
 91
        0
  1

274
    -2
284
     1
 64
     0
275
    -2
285
     1
 65
     0
276
    -2
286
     1
 66
     0
277
    -2
287
     1
 67
     0
278
    -2
288
     1
 68
     0
279
    -2
289
     1
 69
     0
  7
Standard
140
0.25
170
     5
 62
     0
 63
     7
283
     0
 90
      512
 91
        0
  1

274
    -2
284
     1
 64
     0
275
    -2
285
     1
 65
     0
276
    -2
286
     1
 66
     0
277
    -2
287
     1
 67
     0
278
    -2
288
     1
 68
     0
279
    -2
289
     1
 69
     0
  7
Standard
140
0.18
170
     5
 62
     0
 63
     7
283
     0
 90
      512
 91
        0
  1

274
    -2
284
     1
 64
     0
275
    -2
285
     1
 65
     0
276
    -2
286
     1
 66
     0
277
    -2
287
     1
 67
     0
278
    -2
288
     1
 68
     0
279
    -2
289
     1
 69
     0
  0
VISUALSTYLE
  5
2F
102
{ACAD_XDICTIONARY
360
A43
102
}
102
{ACAD_REACTORS
330
29
102
}
330
29
100
AcDbVisualStyle
  2

 70
     4
 71
     0
 72
     2
 73
     0
 90
        0
 40
-0.6
 41
-30.0
 62
     5
 63
     7
421
 16777215
 74
     1
 91
        4
 64
     7
 65
   257
 75
     1
175
     1
 42
1.0
 92
        0
 66
   257
 43
1.0
 76
     1
 77
     6
 78
     2
 67
     7
 79
     5
170
     0
171
     0
290
     0
174
     0
 93
        1
 44
0.0
173
     0
291
     0
 45
0.0
1001
ACAD
1000
AcDbSavedByObjectVersion
1070
     0
  0
VISUALSTYLE
  5
2E
102
{ACAD_XDICTIONARY
360
A41
102
}
102
{ACAD_REACTORS
330
29
102
}
330
29
100
AcDbVisualStyle
  2

 70
     7
 71
     1
 72
     0
 73
     1
 90
        0
 40
-0.6
 41
-30.0
 62
     5
 63
     7
421
 16777215
 74
     0
 91
        4
 64
     7
 65
   257
 75
     1
175
     1
 42
1.0
 92
        8
 66
     7
 43
1.0
 76
     1
 77
     6
 78
     2
 67
     7
 79
     5
170
     0
171
     0
290
     0
174
     0
 93
        1
 44
0.0
173
     0
291
     1
 45
0.0
1001
ACAD
1000
AcDbSavedByObjectVersion
1070
     0
  0
VISUALSTYLE
  5
35
102
{ACAD_XDICTIONARY
360
A4F
102
}
102
{ACAD_REACTORS
330
29
102
}
330
29
100
AcDbVisualStyle
  2

 70
    12
 71
     2
 72
     2
 73
     0
 90
        0
 40
-0.6
 41
-30.0
 62
     5
 63
     7
421
 16777215
 74
     1
 91
        4
 64
     7
 65
   257
 75
     1
175
     1
 42
1.0
 92
        8
 66
     7
 43
1.0
 76
     1
 77
     6
 78
     2
 67
     7
 79
     5
170
     0
171
     0
290
     0
174
     0
 93
        1
 44
50.0
173
     0
291
     1
 45
0.0
1001
ACAD
1000
AcDbSavedByObjectVersion
1070
     0
  0
VISUALSTYLE
  5
39
102
{ACAD_XDICTIONARY
360
A57
102
}
102
{ACAD_REACTORS
330
29
102
}
330
29
100
AcDbVisualStyle
  2

 70
    16
 71
     2
 72
     2
 73
     3
 90
        0
 40
-0.6
 41
-30.0
 62
     5
 63
     8
421
  8421504
 74
     1
 91
        4
 64
     7
 65
   257
 75
     1
175
     1
 42
1.0
 92
        8
 66
     8
424
  8421504
 43
1.0
 76
     1
 77
     6
 78
     2
 67
     7
 79
     5
170
     0
171
     0
290
     0
174
     0
 93
        1
 44
0.0
173
     0
291
     1
 45
0.0
1001
ACAD
1000
AcDbSavedByObjectVersion
1070
     0
  0
VISUALSTYLE
  5
32
102
{ACAD_XDICTIONARY
360
A49
102
}
102
{ACAD_REACTORS
330
29
102
}
330
29
100
AcDbVisualStyle
  2

 70
     9
 71
     3
 72
     2
 73
     0
 90
        0
 40
-0.6
 41
-30.0
 62
     5
 63
     7
421
 16777215
 74
     2
 91
        2
 64
     7
 65
   257
 75
     1
175
     1
 42
179.0
 92
        8
 66
     7
 43
1.0
 76
     1
 77
     6
 78
     2
 67
     7
 79
     3
170
     0
171
     0
290
     0
174
     0
 93
        1
 44
0.0
173
     0
291
     0
 45
0.0
1001
ACAD
1000
AcDbSavedByObjectVersion
1070
     0
  0
VISUALSTYLE
  5
34
102
{ACAD_XDICTIONARY
360
A4D
102
}
102
{ACAD_REACTORS
330
29
102
}
330
29
100
AcDbVisualStyle
  2

 70
    11
 71
     2
 72
     2
 73
     0
 90
        0
 40
-0.6
 41
-30.0
 62
     5
 63
     7
421
 16777215
 74
     1
 91
        4
 64
     7
 65
   257
 75
     1
175
     1
 42
1.0
 92
        8
 66
     7
 43
1.0
 76
     1
 77
     6
 78
     2
 67
     7
 79
     5
170
     0
171
     0
290
     0
174
     0
 93
        1
 44
-50.0
173
     0
291
     1
 45
0.0
1001
ACAD
1000
AcDbSavedByObjectVersion
1070
     0
  0
VISUALSTYLE
  5
41
102
{ACAD_XDICTIONARY
360
A67
102
}
102
{ACAD_REACTORS
330
29
102
}
330
29
100
AcDbVisualStyle
  2

 70
    22
 71
     2
 72
     2
 73
     0
 90
        0
 40
-0.6
 41
-30.0
 62
     5
 63
     7
421
 16777215
 74
     1
 91
        4
 64
     7
 65
   257
 75
     1
175
     1
 42
1.0
 92
        8
 66
     7
 43
1.0
 76
     1
 77
     6
 78
     2
 67
     7
 79
     5
170
     0
171
     0
290
     0
174
     0
 93
        1
 44
0.0
173
     0
291
     1
 45
0.0
1001
ACAD
1000
AcDbSavedByObjectVersion
1070
     0
  0
VISUALSTYLE
  5
38
102
{ACAD_XDICTIONARY
360
A55
102
}
102
{ACAD_REACTORS
330
29
102
}
330
29
100
AcDbVisualStyle
  2

 70
    15
 71
     2
 72
     2
 73
     0
 90
        0
 40
-0.6
 41
-30.0
 62
     5
 63
     7
421
 16777215
 74
     1
 91
        4
 64
     7
 65
   257
 75
     1
175
     1
 42
1.0
 92
        8
 66
     7
 43
1.0
 76
     1
 77
     6
 78
     2
 67
     7
 79
     5
170
     0
171
     0
290
     0
174
     0
 93
        1
 44
0.0
173
     0
291
     1
 45
0.0
1001
ACAD
1000
AcDbSavedByObjectVersion
1070
     0
  0
VISUALSTYLE
  5
2A
102
{ACAD_XDICTIONARY
360
A39
102
}
102
{ACAD_REACTORS
330
29
102
}
330
29
100
AcDbVisualStyle
  2

 70
     0
 71
     2
 72
     1
 73
     1
 90
        2
 40
-0.6
 41
30.0
 62
     5
 63
     7
421
 16777215
 74
     0
 91
        0
 64
     7
 65
   257
 75
     1
175
     1
 42
1.0
 92
        8
 66
     7
 43
1.0
 76
     1
 77
     6
 78
     2
 67
     7
 79
     5
170
     0
171
     0
290
     0
174
     0
 93
       13
 44
0.0
173
     0
291
     1
 45
0.0
1001
ACAD
1000
AcDbSavedByObjectVersion
1070
     0
  0
VISUALSTYLE
  5
2B
102
{ACAD_XDICTIONARY
360
A3B
102
}
102
{ACAD_REACTORS
330
29
102
}
330
29
100
AcDbVisualStyle
  2

 70
     1
 71
     2
 72
     1
 73
     1
 90
        2
 40
-0.6
 41
30.0
 62
     5
 63
     7
421
 16777215
 74
     1
 91
        0
 64
     7
 65
   257
 75
     1
175
     1
 42
1.0
 92
        0
 66
   257
 43
1.0
 76
     1
 77
     6
 78
     2
 67
     7
 79
     5
170
     0
171
     0
290
     0
174
     0
 93
       13
 44
0.0
173
     0
291
     1
 45
0.0
1001
ACAD
1000
AcDbSavedByObjectVersion
1070
     0
  0
VISUALSTYLE
  5
2C
102
{ACAD_XDICTIONARY
360
A3D
102
}
102
{ACAD_REACTORS
330
29
102
}
330
29
100
AcDbVisualStyle
  2

 70
     2
 71
     2
 72
     2
 73
     1
 90
        2
 40
-0.6
 41
30.0
 62
     5
 63
     7
421
 16777215
 74
     0
 91
        0
 64
     7
 65
   257
 75
     1
175
     1
 42
1.0
 92
        0
 66
     7
 43
1.0
 76
     1
 77
     6
 78
     2
 67
     7
 79
     5
170
     0
171
     0
290
     0
174
     0
 93
       13
 44
0.0
173
     0
291
     1
 45
0.0
1001
ACAD
1000
AcDbSavedByObjectVersion
1070
     0
  0
VISUALSTYLE
  5
2D
102
{ACAD_XDICTIONARY
360
A3F
102
}
102
{ACAD_REACTORS
330
29
102
}
330
29
100
AcDbVisualStyle
  2

 70
     3
 71
     2
 72
     2
 73
     1
 90
        2
 40
-0.6
 41
30.0
 62
     5
 63
     7
421
 16777215
 74
     1
 91
        0
 64
     7
 65
   257
 75
     1
175
     1
 42
1.0
 92
        0
 66
   257
 43
1.0
 76
     1
 77
     6
 78
     2
 67
     7
 79
     5
170
     0
171
     0
290
     0
174
     0
 93
       13
 44
0.0
173
     0
291
     1
 45
0.0
1001
ACAD
1000
AcDbSavedByObjectVersion
1070
     0
  0
VISUALSTYLE
  5
31
102
{ACAD_XDICTIONARY
360
A47
102
}
102
{ACAD_REACTORS
330
29
102
}
330
29
100
AcDbVisualStyle
  2

 70
     6
 71
     1
 72
     2
 73
     2
 90
        0
 40
-0.6
 41
-30.0
 62
     5
 63
     7
421
 16777215
 74
     2
 91
        2
 64
     7
 65
   257
 75
     2
175
     1
 42
40.0
 92
        0
 66
   257
 43
1.0
 76
     1
 77
     6
 78
     2
 67
     7
 79
     3
170
     0
171
     0
290
     0
174
     0
 93
        1
 44
0.0
173
     0
291
     0
 45
0.0
1001
ACAD
1000
AcDbSavedByObjectVersion
1070
     0
  0
VISUALSTYLE
  5
3F
102
{ACAD_XDICTIONARY
360
A63
102
}
102
{ACAD_REACTORS
330
29
102
}
330
29
100
AcDbVisualStyle
  2

 70
    20
 71
     2
 72
     2
 73
     0
 90
        0
 40
-0.6
 41
-30.0
 62
     5
 63
     7
421
 16777215
 74
     1
 91
        4
 64
     7
 65
   257
 75
     1
175
     1
 42
1.0
 92
       10
 66
     7
 43
1.0
 76
     1
 77
     6
 78
     2
 67
     7
 79
     5
170
     0
171
     0
290
     0
174
     0
 93
        1
 44
0.0
173
     0
291
     1
 45
0.0
1001
ACAD
1000
AcDbSavedByObjectVersion
1070
     0
  0
VISUALSTYLE
  5
37
102
{ACAD_XDICTIONARY
360
A53
102
}
102
{ACAD_REACTORS
330
29
102
}
330
29
100
AcDbVisualStyle
  2

 70
    14
 71
     2
 72
     2
 73
     0
 90
        0
 40
-0.6
 41
-30.0
 62
     5
 63
     7
421
 16777215
 74
     1
 91
        4
 64
     7
 65
   257
 75
     7
175
     7
 42
1.0
 92
        8
 66
     7
 43
1.0
 76
     1
 77
     6
 78
     2
 67
     7
 79
     5
170
     0
171
     0
290
     0
174
     0
 93
        1
 44
0.0
173
     0
291
     1
 45
0.0
1001
ACAD
1000
AcDbSavedByObjectVersion
1070
     0
  0
VISUALSTYLE
  5
40
102
{ACAD_XDICTIONARY
360
A65
102
}
102
{ACAD_REACTORS
330
29
102
}
330
29
100
AcDbVisualStyle
  2

 70
    21
 71
     2
 72
     2
 73
     0
 90
        0
 40
-0.6
 41
-30.0
 62
     5
 63
     7
421
 16777215
 74
     1
 91
        4
 64
     7
 65
   257
 75
     1
175
     1
 42
1.0
 92
        9
 66
     7
 43
1.0
 76
     1
 77
     6
 78
     2
 67
     7
 79
     5
170
     0
171
     0
290
     0
174
     0
 93
        1
 44
0.0
173
     0
291
     1
 45
0.0
1001
ACAD
1000
AcDbSavedByObjectVersion
1070
     0
  0
VISUALSTYLE
  5
33
102
{ACAD_XDICTIONARY
360
A4B
102
}
102
{ACAD_REACTORS
330
29
102
}
330
29
100
AcDbVisualStyle
  2

 70
     8
 71
     2
 72
     3
 73
     0
 90
        2
 40
-0.6
 41
30.0
 62
     5
 63
     7
421
 16777215
 74
     0
 91
        0
 64
     7
 65
   257
 75
     1
175
     1
 42
1.0
 92
        8
 66
   257
 43
1.0
 76
     1
 77
     6
 78
     2
 67
     7
 79
     3
170
     0
171
     0
290
     0
174
     0
 93
       13
 44
0.0
173
     0
291
     0
 45
0.0
1001
ACAD
1000
AcDbSavedByObjectVersion
1070
     0
  0
VISUALSTYLE
  5
3E
102
{ACAD_XDICTIONARY
360
A61
102
}
102
{ACAD_REACTORS
330
29
102
}
330
29
100
AcDbVisualStyle
  2

 70
    27
 71
     2
 72
     2
 73
     1
 90
        2
 40
-0.6
 41
30.0
 62
     5
 63
     7
421
 16777215
 74
     0
 91
        4
 64
     7
 65
   257
 75
     1
175
     1
 42
1.0
 92
        8
 66
   257
 43
1.0
 76
     1
 77
     6
 78
     2
 67
     8
425
  7895160
 79
     3
170
     0
171
     0
290
     0
174
     0
 93
        5
 44
0.0
173
     0
291
     0
 45
0.0
1001
ACAD
1000
AcDbSavedByObjectVersion
1070
     0
  0
VISUALSTYLE
  5
3D
102
{ACAD_XDICTIONARY
360
A5F
102
}
102
{ACAD_REACTORS
330
29
102
}
330
29
100
AcDbVisualStyle
  2

 70
    26
 71
     2
 72
     2
 73
     1
 90
        2
 40
-0.6
 41
30.0
 62
     5
 63
     7
421
 16777215
 74
     1
 91
       10
 64
     7
 65
   257
 75
     2
175
     1
 42
1.0
 92
        8
 66
   257
 43
1.0
 76
     1
 77
     6
 78
     2
 67
     7
 79
     3
170
     0
171
     0
290
     0
174
     0
 93
        5
 44
0.0
173
     0
291
     0
 45
0.0
1001
ACAD
1000
AcDbSavedByObjectVersion
1070
     0
  0
VISUALSTYLE
  5
3A
102
{ACAD_XDICTIONARY
360
A59
102
}
102
{ACAD_REACTORS
330
29
102
}
330
29
100
AcDbVisualStyle
  2

 70
    23
 71
     2
 72
     2
 73
     3
 90
        0
 40
-0.6
 41
-30.0
 62
     5
 63
     7
421
 16777215
 74
     2
 91
        2
 64
     7
 65
     7
 75
     1
175
     1
 42
40.0
 92
        8
 66
     7
 43
1.0
 76
     1
 77
     6
 78
     2
 67
     7
 79
     3
170
     0
171
     0
290
     0
174
     0
 93
        1
 44
0.0
173
     0
291
     0
 45
0.0
1001
ACAD
1000
AcDbSavedByObjectVersion
1070
     0
  0
VISUALSTYLE
  5
3B
102
{ACAD_XDICTIONARY
360
A5B
102
}
102
{ACAD_REACTORS
330
29
102
}
330
29
100
AcDbVisualStyle
  2

 70
    24
 71
     1
 72
     2
 73
     2
 90
        0
 40
-0.6
 41
-30.0
 62
     5
 63
     7
421
 16777215
 74
     2
 91
        2
 64
     7
 65
     7
 75
     1
175
     1
 42
40.0
 92
       11
 66
     7
 43
1.0
 76
     1
 77
     6
 78
     2
 67
     7
 79
     6
170
     0
171
     0
290
     0
174
     0
 93
        1
 44
0.0
173
     0
291
     0
 45
0.0
1001
ACAD
1000
AcDbSavedByObjectVersion
1070
     0
  0
VISUALSTYLE
  5
36
102
{ACAD_XDICTIONARY
360
A51
102
}
102
{ACAD_REACTORS
330
29
102
}
330
29
100
AcDbVisualStyle
  2

 70
    13
 71
     2
 72
     2
 73
     0
 90
        0
 40
-0.6
 41
-30.0
 62
     5
 63
     7
421
 16777215
 74
     1
 91
        4
 64
     7
 65
   257
 75
     1
175
     1
 42
1.0
 92
       12
 66
     7
 43
1.0
 76
     1
 77
     6
 78
     2
 67
     7
 79
     5
170
     0
171
     0
290
     0
174
     0
 93
        1
 44
0.0
173
     0
291
     1
 45
0.0
1001
ACAD
1000
AcDbSavedByObjectVersion
1070
     0
  0
VISUALSTYLE
  5
30
102
{ACAD_XDICTIONARY
360
A45
102
}
102
{ACAD_REACTORS
330
29
102
}
330
29
100
AcDbVisualStyle
  2

 70
     5
 71
     0
 72
     2
 73
     0
 90
        0
 40
-0.6
 41
-30.0
 62
     5
 63
     7
421
 16777215
 74
     1
 91
        4
 64
     7
 65
   257
 75
     1
175
     1
 42
1.0
 92
        0
 66
   257
 43
1.0
 76
     1
 77
     6
 78
     2
 67
     7
 79
     3
170
     0
171
     0
290
     0
174
     0
 93
        1
 44
0.0
173
     0
291
     0
 45
0.0
1001
ACAD
1000
AcDbSavedByObjectVersion
1070
     0
  0
VISUALSTYLE
  5
3C
102
{ACAD_XDICTIONARY
360
A5D
102
}
102
{ACAD_REACTORS
330
29
102
}
330
29
100
AcDbVisualStyle
  2

 70
    25
 71
     2
 72
     2
 73
     1
 90
        1
 40
0.5
 41
-30.0
 62
     5
 63
     7
421
 16777215
 74
     1
 91
        0
 64
     7
 65
   257
 75
     1
175
     1
 42
1.0
 92
        8
 66
     7
 43
1.0
 76
     1
 77
     6
 78
     2
 67
     7
 79
     3
170
     0
171
     0
290
     0
174
     0
 93
       13
 44
0.0
173
     0
291
     0
 45
0.0
1001
ACAD
1000
AcDbSavedByObjectVersion
1070
     0
  0
DICTIONARYVAR
  5
9E3
102
{ACAD_REACTORS
330
9E0
102
}
330
9E0
100
DictionaryVariables
280
     0
  1
1:1
  0
DICTIONARYVAR
  5
9E2
102
{ACAD_REACTORS
330
9E0
102
}
330
9E0
100
DictionaryVariables
280
     0
  1
STANDARD
  0
DICTIONARYVAR
  5
9E1
102
{ACAD_REACTORS
330
9E0
102
}
330
9E0
100
DictionaryVariables
280
     0
  1
STANDARD
  0
DICTIONARYVAR
  5
A2A
102
{ACAD_REACTORS
330
9E0
102
}
330
9E0
100
DictionaryVariables
280
     0
  1
2
  0
DICTIONARY
  5
1A
330
19
100
AcDbDictionary
280
     1
281
     1
  3
BUMPTILE
360
1C
  3
DIFFUSETILE
360
1B
  3
OPACITYTILE
360
1F
  3
REFLECTIONTILE
360
1E
  3
REFRACTIONTILE
360
20
  3
SPECULARTILE
360
1D
  0
DICTIONARY
  5
12
330
11
100
AcDbDictionary
280
     1
281
     1
  3
BUMPTILE
360
14
  3
DIFFUSETILE
360
13
  3
FBXASSET
360
D9
  3
OPACITYTILE
360
17
  3
REFLECTIONTILE
360
16
  3
REFRACTIONTILE
360
18
  3
SPECULARTILE
360
15
  0
DICTIONARY
  5
22
330
21
100
AcDbDictionary
280
     1
281
     1
  3
BUMPTILE
360
24
  3
DIFFUSETILE
360
23
  3
OPACITYTILE
360
27
  3
REFLECTIONTILE
360
26
  3
REFRACTIONTILE
360
28
  3
SPECULARTILE
360
25
  0
DICTIONARY
  5
A2C
330
67
100
AcDbDictionary
280
     1
281
     1
  3
ACAD_XREC_ROUNDTRIP
360
A2D
  0
DICTIONARY
  5
9E5
330
65
100
AcDbDictionary
280
     1
281
     1
  3
ACAD_ROUNDTRIP_2008_TABLESTYLE_CELLSTYLEMAP
360
A2B
  0
DICTIONARY
  5
A43
330
2F
100
AcDbDictionary
280
     1
281
     1
  3
ACAD_XREC_ROUNDTRIP
360
A44
  0
DICTIONARY
  5
A41
330
2E
100
AcDbDictionary
280
     1
281
     1
  3
ACAD_XREC_ROUNDTRIP
360
A42
  0
DICTIONARY
  5
A4F
330
35
100
AcDbDictionary
280
     1
281
     1
  3
ACAD_XREC_ROUNDTRIP
360
A50
  0
DICTIONARY
  5
A57
330
39
100
AcDbDictionary
280
     1
281
     1
  3
ACAD_XREC_ROUNDTRIP
360
A58
  0
DICTIONARY
  5
A49
330
32
100
AcDbDictionary
280
     1
281
     1
  3
ACAD_XREC_ROUNDTRIP
360
A4A
  0
DICTIONARY
  5
A4D
330
34
100
AcDbDictionary
280
     1
281
     1
  3
ACAD_XREC_ROUNDTRIP
360
A4E
  0
DICTIONARY
  5
A67
330
41
100
AcDbDictionary
280
     1
281
     1
  3
ACAD_XREC_ROUNDTRIP
360
A68
  0
DICTIONARY
  5
A55
330
38
100
AcDbDictionary
280
     1
281
     1
  3
ACAD_XREC_ROUNDTRIP
360
A56
  0
DICTIONARY
  5
A39
330
2A
100
AcDbDictionary
280
     1
281
     1
  3
ACAD_XREC_ROUNDTRIP
360
A3A
  0
DICTIONARY
  5
A3B
330
2B
100
AcDbDictionary
280
     1
281
     1
  3
ACAD_XREC_ROUNDTRIP
360
A3C
  0
DICTIONARY
  5
A3D
330
2C
100
AcDbDictionary
280
     1
281
     1
  3
ACAD_XREC_ROUNDTRIP
360
A3E
  0
DICTIONARY
  5
A3F
330
2D
100
AcDbDictionary
280
     1
281
     1
  3
ACAD_XREC_ROUNDTRIP
360
A40
  0
DICTIONARY
  5
A47
330
31
100
AcDbDictionary
280
     1
281
     1
  3
ACAD_XREC_ROUNDTRIP
360
A48
  0
DICTIONARY
  5
A63
330
3F
100
AcDbDictionary
280
     1
281
     1
  3
ACAD_XREC_ROUNDTRIP
360
A64
  0
DICTIONARY
  5
A53
330
37
100
AcDbDictionary
280
     1
281
     1
  3
ACAD_XREC_ROUNDTRIP
360
A54
  0
DICTIONARY
  5
A65
330
40
100
AcDbDictionary
280
     1
281
     1
  3
ACAD_XREC_ROUNDTRIP
360
A66
  0
DICTIONARY
  5
A4B
330
33
100
AcDbDictionary
280
     1
281
     1
  3
ACAD_XREC_ROUNDTRIP
360
A4C
  0
DICTIONARY
  5
A61
330
3E
100
AcDbDictionary
280
     1
281
     1
  3
ACAD_XREC_ROUNDTRIP
360
A62
  0
DICTIONARY
  5
A5F
330
3D
100
AcDbDictionary
280
     1
281
     1
  3
ACAD_XREC_ROUNDTRIP
360
A60
  0
DICTIONARY
  5
A59
330
3A
100
AcDbDictionary
280
     1
281
     1
  3
ACAD_XREC_ROUNDTRIP
360
A5A
  0
DICTIONARY
  5
A5B
330
3B
100
AcDbDictionary
280
     1
281
     1
  3
ACAD_XREC_ROUNDTRIP
360
A5C
  0
DICTIONARY
  5
A51
330
36
100
AcDbDictionary
280
     1
281
     1
  3
ACAD_XREC_ROUNDTRIP
360
A52
  0
DICTIONARY
  5
A45
330
30
100
AcDbDictionary
280
     1
281
     1
  3
ACAD_XREC_ROUNDTRIP
360
A46
  0
DICTIONARY
  5
A5D
330
3C
100
AcDbDictionary
280
     1
281
     1
  3
ACAD_XREC_ROUNDTRIP
360
A5E
  0
XRECORD
  5
1C
102
{ACAD_REACTORS
330
1A
102
}
330
1A
100
AcDbXrecord
280
     1
270
     1
271
     1
  0
XRECORD
  5
1B
102
{ACAD_REACTORS
330
1A
102
}
330
1A
100
AcDbXrecord
280
     1
270
     1
271
     1
  0
XRECORD
  5
1F
102
{ACAD_REACTORS
330
1A
102
}
330
1A
100
AcDbXrecord
280
     1
270
     1
271
     1
  0
XRECORD
  5
1E
102
{ACAD_REACTORS
330
1A
102
}
330
1A
100
AcDbXrecord
280
     1
270
     1
271
     1
  0
XRECORD
  5
20
102
{ACAD_REACTORS
330
1A
102
}
330
1A
100
AcDbXrecord
280
     1
270
     1
271
     1
  0
XRECORD
  5
1D
102
{ACAD_REACTORS
330
1A
102
}
330
1A
100
AcDbXrecord
280
     1
270
     1
271
     1
  0
XRECORD
  5
14
102
{ACAD_REACTORS
330
12
102
}
330
12
100
AcDbXrecord
280
     1
270
     1
271
     1
  0
XRECORD
  5
13
102
{ACAD_REACTORS
330
12
102
}
330
12
100
AcDbXrecord
280
     1
270
     1
271
     1
  0
XRECORD
  5
D9
102
{ACAD_REACTORS
330
12
102
}
330
12
100
AcDbXrecord
280
     1
 70
     1
 90
1959938040
 71
     1
  1
5C53CAA6-A8FF-4FED-ACD3-A2116F3F26E5
311
504B03040A0000080000AF4844433DEE336E79000000790000001B0000006175746F6465736B2D64657369676E2D7061636B6167652E786D6C3C3F786D6C2076657273696F6E3D22312E302220656E636F64696E673D227574662D3822203F3E3C666F726D6174733E3C666F726D61743E687474703A2F2F736368656D612E
311
6175746F6465736B2E636F6D2F64657369676E2D7061636B6167652F323030393C2F666F726D61743E3C2F666F726D6174733E504B0304140006080800AF484443D486FD9CA0000000F4000000130000005B436F6E74656E745F54797065735D2E786D6C7D8EC10E82300C865F65E91D8A1E8C310C0EEA1BF002731658846E
311
D98AC1B77784ABF1D8FE5FBFBF75BBCE937A534CCEB38643598122B6FEE978D0B0485F9C41B54DDD7D022595594E1A469170414C76A4D9A4D207E29CF43ECE46F218070CC6BECC4078ACAA135ACF422C856C0E68EA1BF5669944DDD7BCDE7B1F8E415D77AECB980613C2E4AC91FC167A2B244592486606FC29C8FD7F045B9A
311
EF7053A7E60B504B0304140006080800AF484443AA2DAA29EB0000007C01000008000000636F72652E786D6C8D90DD8E832010855FC5CCED06856AFD0BD244A34FB02F40805AD20A4660B38FBFD8DA64F76EAF6672E67C3393432FDFCB23F9529BD3D67440520C8932C24A6DE60E82BFA21A920BA39BB5FE970D12C317D5C1
311
2E03A3F366C37A48C21AAF8C8FAAB1521D22774E7948C423361D3871530B4F79F0D1E1EEE9CAC59DCF2A25EF2EC2216899BC8E6819F7E9AB561BB0BC1886BAEA2774AECA1115C3D8A0BA1C27D44FC358605C367D53D16C8719F57A79DF179BE25E4960274C724430C2C5276E5A7C6E73F281498B31CD76FB1F28ACF29F50D0
311
C6E7A7E3DD17E68091F8C873C068B66711CB33A858F7DCD80F504B0304140006080800AF48444355019EA25F0000007C00000007000000636E782E786D6C4DCB3B0E80201045D1AD90E915ED2CF8AC45050C11660C8261F98AB1B07AC9C97D42D718D865D3E909258CFD00CCE24AC6E326A164D74DC0B4128928FF32603847
311
2BA13128B1252AC747C6BAB984FC68F0B87FE8960A5C09FE86CFB69FBA01504B0304140006080800AF484443511E145167010000020300000C0000006662782F636F72652E786D6C8D52ED8A8330107C9590BF474CACF6C31253A8D827B8174835F5A49A484CA48F7FEB47E9F528A50831CCECECCE8EF2C3AD6DD0A06C5F1B
311
9DE2306018295D98B2D6558ABDBB901D4607C1AD31EE4F19465AB62AC5238C05AFACF1DD0215463BA51DA0DA946A0165DF2B8751D1C025C57DF1A35A1948EFA0A2BF069D2CAEB2524118000D7582F7CE8201340F194F2C2EE71BA7332EB8F775B9B07509D3EA4BAD2C16519C65BBEDF144D6DB4D4EE22C4FC86E939FC8F194
311
E531639BE4986C391DC582BBBABDBB2BAC924E9558AC5818919011167FB364CFD6FB28FC62E19E314EC7F22791EFCA0F45BED62E5A2D7667598F45084626E2DFB6109143BD1CC00F159C8E21C26B4AF8396808044276F2DCDCF7B80234A8C2191B03531AFFA006D9780553199A1E4E67163A4F0D60B3977D566FFABCEF011F
311
50EA0AAC4907D7B377E3743E4F5DA2E8942583BB216D6C2B9B87B9D9E2E37C0C7A292F4C63EC276ABAAC4A9730E9F8F78A5F504B0304140006080800AF484443C08147467E0000009D0000000B0000006662782F636E782E786D6C4DCCD10A83201886E15B91FFDCD59C95811A31F33E625948A6C3E9D8E5AF46073BFAE0E1
311
E3E5DD6773E86DE2CB062FE07A290119FF0893F58B809C66CC007592C710D2DF0D901F3723E060907C89213F4F9ACC3C66977675D6AF27DE754F4943096E95BA615A0F1AB3520F98A89E368AB1AAAE5A28242F7EA57D8FB0FC02504B0304140006080800AF484443429A90D42D01000015020000310000006662782F434641
311
34323734322D394444332D343645462D383046452D3244413437443838353635392F636F72652E786D6C8D515B6EC23010BC4AE42FAA2A899D380F9063841A38412F6012432D881DF95171FCAE9B20B57FFC78ADD999D9D12EDB3FA67BF22DAD53467788641825520F6654FADAA1E02F698B923D67D618FF8786122D26D9A1
311
0823CEAED684798506A3BDD41E506D46B982C239E95132DCE1D321377CC94964227860B85B368BE126AE322319B481C799F3160224CB90F822FE713AD0A2A145BAEDFB32A5F5F194B6F8744C8BFE409BBE6DABBADAB27C117216821A57B91A218EBA28695F358962CEBC9A9EF1072B859723E20526654A708AE927DEEE70B5
311
2BC93B263B8C591EE9FF44611E5F1405A57D59AC711799439CB07C6970369A70BE3FC3C8C76CAC4FE2BC8D93C31BE238C3983635A504340B173600A6355D4D9D371636BCB99D814EAAC5B9A69CE5F148507E2F08351E94FF00504B0304140006080800AF484443A5B5AF8A4E01000033030000300000006662782F43464134
311
323734322D394444332D343645462D383046452D3244413437443838353635392F636E782E786D6CD593C16EC32010447F0571AD6C43E3466D8489D443BFA0875E096C121A0C16E0AAF9FB2E094973C9A1C75E90353BCCAC9EB0587F8F8E7C414C36F881F29651025E0763FD6EA073DE36CF94ACA58821E41B1B255E8D30D0
311
2253297631CC53950C6CD5EC32AACEFA431523A430470D09E57293B8A095C300F0CD8C228C1B30060CB91AF16B0B115741717324790FE4EDF58384CD27E89C445752A4E84A8714E5AC4D37264AB453290D34E93D8CAA55730E06D2A1352AAB96B797AE3B3BFD269172E15239474B4AF940CB4965DDA8458EA2C3A1142947A4
311
574DF93801956A9A9CD52A23E4EE643C7BA498ADCFCBBE7A2D828FE8E6CB45DF63D8692645B62354878EA032182A1F195F349C35AC7F672F2BF6B45AF007C6578C89AED8A5D884E0EA258C811826A283CFE033955C74657C0F5FF5116323B20EF1F8079008A0B69EE95C33FE339FEEF4BE1157C4BF40FE00504B0304140006
311
080800AF484443301C1FB8A605000081100000340000006662782F43464134323734322D394444332D343645462D383046452D3244413437443838353635392F6F626A656374732E786D6CAD57DB6EE33610FD15417D691F6C59B6932685A28563C70B639BDDC51ABBE88301839228850D750149254EBFBE8712254B8E9DB8
311
C5BEE8C2CB70E6CC990BBD0FBB945B4F5448966737B63B1CD916CDC23C62597263972A1E5CD9D607DF1379AE3ACB6C2B2329BDB1F5B0ED7B89C8CBC20C453426255707A3CBDBBF2C19D28CDA56C8899437B60C1F684A86A4547944E5E330228A0C9378377487F5C2BED84490E2E140684104CD1434C578062956AD94DBFF1D
311
D98EEF397ADEF7F4D3AC9A9C5EE554F6F4CF679954240B5F1D762066E24E1777E38BEBC1C5743A194C2FC7EEE07679BB18B8BF4F46F3CBF9FC7A76778D83A5129064341134B6FD8FC046B0D073EA29DF2B59A62663B3C438C811F489694FD9FED8723DA75ED35A678C3CA67E9867190D2BAC8046659F111DD18266117CCEA8
311
84661D8446FD5F57E3D8999EE87F736477F83C04BA3B3A821ADD9B7757D33CF81B26C873182424D50CACB13486D65C1DED110EF29C9B3926AD94282A18E116678120E2C5F6B1542FF1BD9E18CD64A1A3415B60FBF0423DDDA70BC2E87D9E1FD3322E39D734B6FD2A0AB68815AA64A519FB878ABDF65D64A0137CA5D970650C
311
522F05B5FDEB9A2257076CAA81B4624E12B81C66EA9D93F181A1731DA7AB85ED7F5A06BBB58EDDE38717222FA8509A3EA056E3B8E6AD51323AB967794E6FB00F54D983F20DC87F46A8EF5581DF04DB4D7753738A122493712E52F8C61A5983111E23CBAD9EFABBF3E539EDE6BEF74EE109676BA87E029E7D1BBABEECC0E97B
311
4F207C2E26C6B4754838D2C63DCB00902689C5730C210FC7C1CEF657C872C8CAD845B8EFC264A8FB844FCF31629028AA933AEF0C581EA4C533123460AB1809356AF21B05F77E7A95CEAA83CDB253F05EFC14BACE16EB4FEB52C424A4F726A6173466195328717BDE7415EA61DEB3E891BE3CE72282A1AFF15E77F14ECD5112
311
686BCC35F04993D3F5CFFEE4DE0121F625B94E37DE3B27C0085D583BF2EF990C29E724A379D99CFB66FD40D9A821D6C1AE99DC16987D610169EA99831844910E052B34886DB56A93E6F08475DF579FC148DBBF7DF993BC74B357B0CFBD61CE73B10D5EB6755A3A0AF58F3EB70D068E9602BA5741D2C4BF017D1BB1382E2592
311
E0115C7FACE65DDFE9B48014D148ADA3650AFB115C4418D2367251AD054125CDB32D43DD44DC1D3DA02B1F901A0654024F692C298FB78CF332DDC68CA31A6D53529C80E3FFEB1F9469B125695E66EA84EC9EEAA80E7DDD7BEC95CF44850FB6BFAEDE835BE4DE884627C8A06BC911AC7AAEBD985F4CE6B3D9E56076B55C0EA6
311
CBBBC560365F4C06B3B1EB5E2E27CBF1E51DB284D1A86AA27CAF2935DD88869750DABC5230E3BEEF2BC48F4902B67F4F94DC7CACC3B3797F5F0DD10B7B0EF6A05EB61B67D113FA3E1ABD2F60BFF2A8A0555A709AD24C111D43F7FA837F23E8337ACAD4E3AB9424F40C295F3EAE0F8CC1C819FBBEEA78A7CF077BCDE85C07E4
311
5121EAA14C838C307EB031A9911C165962F06B7CD2BEEB42D3FCEA3FE31874A632E72C421E8CAC84E62955C886671421915209EA757BFAC8DC3DCED8FD5477888A049C369A3C1034C95C222C40F23254FD71EB173475BAAFBAB1516E878F78984C615BE0CC8D8D265DB190CA618002AD5BA14A38B8D4EDE4C15992251CBD76
311
BDA9FD6F77696C7A25B95D724EFF64ECAA53B8310069A440DF808608DEA994F1BD4A37331FFE27C31B752CA2F01994AAB5653FD01A531D8310AD8D32B70534318FE6E81D02F56DB3DC61B5A687C859B7AC3749504B1D282292EAA6A0F5332ACD165F1D7428D6EA8B55F032812FCF97341014642E75808345608591591005AA
311
CEFFD87C15396EB2A9B564A080F5EBEEEAF2B7CD3C4FD33CAB873633731FB6D60FB8DD461B2407AAAF2572331EB9E34D751D3037946D40241D92483E62009E15AC05BAE77EF0B2BE33A20ED513ED3A47BBE280A1AB85650ADB14420D5DBAB9558383C623A31662485F2975C47417146FDE089C6A295410E8E5FD7F01504B03
311
04140006080000AF484443000000000000000000000000350000006662782F43464134323734322D394444332D343645462D383046452D3244413437443838353635392F76657274696365732E62696E504B0304140006080800AF484443F270F1330600000004000000360000006662782F43464134323734322D39444433
311
2D343645462D383046452D3244413437443838353635392F747269616E676C65732E62696E636660600000504B0304140006080000AF484443000000000000000000000000370000006662782F43464134323734322D394444332D343645462D383046452D3244413437443838353635392F617474726962757465732E6269
311
6E504B0304140006080800AF484443D5987DFC8F00000041010000360000006662782F43464134323734322D394444332D343645462D383046452D3244413437443838353635392F6469726563746F72792E786D6C858F410EC2201045AF4266AF15DDB800BA74E7C21B903225242D6328188F2FA5C4183471359997F9FF81
311
E89FF3C41E1816475E02DF1F80A11FC8386F25A438EECEC07A250251FC3803E6F58C12560C4AD840E95E91C151A72936F496F35732D860FE635F62C8F2DA16B505C545B74125BAA2FA9E05D7CC053D063734D5C7665FD55B6B8D15D5E9BFEAFD8490FFA45E504B0304140006080800AF484443C2C7F718FE000000A0010000
311
3B0000006662782F43464134323734322D394444332D343645462D383046452D3244413437443838353635392F7265736F75726365732F636F72652E786D6C8D504B6AC33010BD8A996D912DC58E1D07598118E704BD809027AE482C057D4A8F5F2971A1DD753333BC0FF378FCF4B5DE8B4F745E5B33002B291468949DB559
311
0688E14A0E509C0477D6865F32288C5C71800C83E08BB3F1B141CA9A802624D4D81937507A8F010A754FC7005E7DE02A4B194352F85BF990EA26172C5999E8A413DC07970214AF27798270E86D740A3DAF5EACE031EA79D3E839FDD4578D0E44DD8CE3A13B4F64DFB51369C6A9278776BA90F3659C1A4ADBFEDC77BCCA66C1
311
835E7F322A8732E00C6247594D1825B479A7FD91EE8F357BA3EC4829AFB2FC8F293EE67F9AA236A1DE6D715F360F82A5204F42F02AF795D6B3CCB473B7E21B504B010214000A0000080000AF4844433DEE336E79000000790000001B00000000000000000000000000000000006175746F6465736B2D64657369676E2D7061
311
636B6167652E786D6C504B01021400140006080800AF484443D486FD9CA0000000F40000001300000000000000000000000000B20000005B436F6E74656E745F54797065735D2E786D6C504B01021400140006080800AF484443AA2DAA29EB0000007C010000080000000000000000000000000083010000636F72652E786D
311
6C504B01021400140006080800AF48444355019EA25F0000007C000000070000000000000000000000000094020000636E782E786D6C504B01021400140006080800AF484443511E145167010000020300000C00000000000000000000000000180300006662782F636F72652E786D6C504B01021400140006080800AF4844
311
43C08147467E0000009D0000000B00000000000000000000000000A90400006662782F636E782E786D6C504B01021400140006080800AF484443429A90D42D010000150200003100000000000000000000000000500500006662782F43464134323734322D394444332D343645462D383046452D3244413437443838353635
311
392F636F72652E786D6C504B01021400140006080800AF484443A5B5AF8A4E010000330300003000000000000000000000000000CC0600006662782F43464134323734322D394444332D343645462D383046452D3244413437443838353635392F636E782E786D6C504B01021400140006080800AF484443301C1FB8A60500
311
00811000003400000000000000000000000000680800006662782F43464134323734322D394444332D343645462D383046452D3244413437443838353635392F6F626A656374732E786D6C504B01021400140006080000AF4844430000000000000000000000003500000000000000000000000000600E00006662782F4346
311
4134323734322D394444332D343645462D383046452D3244413437443838353635392F76657274696365732E62696E504B01021400140006080800AF484443F270F13306000000040000003600000000000000000000000000B30E00006662782F43464134323734322D394444332D343645462D383046452D324441343744
311
3838353635392F747269616E676C65732E62696E504B01021400140006080000AF48444300000000000000000000000037000000000000000000000000000D0F00006662782F43464134323734322D394444332D343645462D383046452D3244413437443838353635392F617474726962757465732E62696E504B01021400
311
140006080800AF484443D5987DFC8F000000410100003600000000000000000000000000620F00006662782F43464134323734322D394444332D343645462D383046452D3244413437443838353635392F6469726563746F72792E786D6C504B01021400140006080800AF484443C2C7F718FE000000A00100003B00000000
311
000000000000000000451000006662782F43464134323734322D394444332D343645462D383046452D3244413437443838353635392F7265736F75726365732F636F72652E786D6C504B0506000000000E000E00800400009C1100000000
310
504B03040A0000080000AF4844433DEE336E79000000790000001B0000006175746F6465736B2D64657369676E2D7061636B6167652E786D6C3C3F786D6C2076657273696F6E3D22312E302220656E636F64696E673D227574662D3822203F3E3C666F726D6174733E3C666F726D61743E687474703A2F2F736368656D612E
310
6175746F6465736B2E636F6D2F64657369676E2D7061636B6167652F323030393C2F666F726D61743E3C2F666F726D6174733E504B0304140006080800AF484443D486FD9CA0000000F4000000130000005B436F6E74656E745F54797065735D2E786D6C7D8EC10E82300C865F65E91D8A1E8C310C0EEA1BF002731658846E
310
D98AC1B77784ABF1D8FE5FBFBF75BBCE937A534CCEB38643598122B6FEE978D0B0485F9C41B54DDD7D022595594E1A469170414C76A4D9A4D207E29CF43ECE46F218070CC6BECC4078ACAA135ACF422C856C0E68EA1BF5669944DDD7BCDE7B1F8E415D77AECB980613C2E4AC91FC167A2B244592486606FC29C8FD7F045B9A
310
EF7053A7E60B504B0304140006080800AF4844435F24B47AEC0000007C01000008000000636F72652E786D6C8D90416EC3201045AF82665B6183ED38B6858992D43D412F80803828315806AA1EBF3871A476D7D58CFEFC3733FAECF03DDDD1975EBC71B6079A1140DA4AA78C1D7B88E1821B4007CE16E7C22F1B202B26DDC3
310
2A0367E3E2E2BC49D2D9A06D48AA754A6FA2F05E0740F29E9A1EBCBCEA49642286E4F0B76C16F226469DD15797E0188D42CF2346A57DE662F4027CD7EC8F4D73A6B83E911A57EF278ADB8FA1C0FB6638B7F540CB7D7564F90A7316CCF4BA2F172D8256C00B424B4C0926D527693BB2EB4AFA46684708CB57FB1F28CEEA9F50
310
343694C5F6EE13F3C0697AE431E02C5FB348E51154AA6B6EFC07504B0304140006080800AF48444355019EA25F0000007C00000007000000636E782E786D6C4DCB3B0E80201045D1AD90E915ED2CF8AC45050C11660C8261F98AB1B07AC9C97D42D718D865D3E909258CFD00CCE24AC6E326A164D74DC0B4128928FF326038
310
472BA13128B1252AC747C6BAB984FC68F0B87FE8960A5C09FE86CFB69FBA01504B0304140006080800AF484443CF93900468010000020300000C0000006662782F636F72652E786D6C8D52ED8E8230107C95A67F2FD01650D1941AF5BC27B817A8503922B4A4B4C4C7BFE5C3785E8C3124A599D9D99D1DE0DB6B53A35ED9AE
310
323AC32CA418299D9BA2D26586BD3B0729465BC1AD31EE4F19465A362AC3038C052FADF1ED0CE5463BA51DA0DA146A0665D72987515EC325C35DFEA31A194AEFA0A2BB84ADCC2FB254210B81863AC13B67C1009A860C2716E7D395930917DCFBAA98D9AA8069D5B952168B45BADAA5E98105CB3D5D06C9E79E05EBAF6314AC
310
D2E361BD3CB27895EC3819C482BBAAB9B9CBAD924E15584494C501A3014DBEE97A43179B987D50B6A19493A1FC41E4DBE24D91AFB48BA3D9EE24EBB060606424FE6D0B1139D4C91EFC10C1C91022BCC6841F8386402064274FF56D8F0B40BDCA9DB1093085F177AA97B5573095A2F1E16462A1F3D800367BDA277AD1E7750F
310
F8805297604D3AB89EBC1BA6F369EA1C45AB6CD0BB2BD2C636B2BE9B9B2CDECFFBA0A7F2DCD4C6BEA326F3AA640E930C7FAFF805504B0304140006080800AF484443CEC3F0097E0000009D0000000B0000006662782F636E782E786D6C4DCCD10A83201886E15B91FFDCD5664A821A53EB3E625944A6C3E5D8E5AF46073BFA
310
E0E1E315CD67F5E8EDD26B8E41C2F5520272E11187394C12F236E21A50A3448A71FBBB010AFDEA241C0C4A4C29E6E749831BFBECB75DFD1C9613696548476F1A136B0CAE88AD316F2DC765AB392354778CDDA150A2F895F63DC2EA0B504B0304140006080800AF4844430CAC7D3C2D01000015020000310000006662782F35
310
344333463532422D334443432D343344382D394544392D3045423936333542463636412F636F72652E786D6C8D515B6EC32010BC8AC557AA0A1B8CEDC411266A5E27E80508262E4A0C168F2AC72FD48ED4FEE58745B333B3A35DBA7B8CF7EC5B5AA78CEE00CE11C8A416A6577AE840F057B801D98E516B8CFF430399E6A3EC
310
408201A38335615A2061B497DA47549B5E2E20774E7A90897BFC74C0892F39F29C071F19EE964F5CDCF820739CC776E431EABC8D01B279487A01ABAB0339D7E51E92E3E1002B72DCC0F6746C213AEDDB86D4FB73D37CD06216321A82EA17B9EA631C7555D2BE6A92C48C7A353EE30B2BB9973D6025C204620451F589DA2DAA
310
B704BF23BC45881689FE4F14A6FE455150DA9372893BCB1C6098167383D1DE84CBFD19463E26637D96E6AD9C146F80A11CA1A65CAFDBB2A4C5CC8D1B88A64DB5983A6F6CDCF0EA768974B2383715A3453A522CBF178C351D94FD00504B0304140006080800AF484443C312609D5601000033030000300000006662782F3534
310
4333463532422D334443432D343344382D394544392D3045423936333542463636412F636E782E786D6CBD93C16EC32010447F0571AD6C43EC46698489D443BFA0875E096C1A1A1B2CC055F3F75D1292E69243A5AA1764CD0E33AB272C365FE3403E2144EB5D4F79CD2801A7BDB1EEBDA773DA552B4A365204EFD38D8D12A7
310
46E86996A914EFC1CF53910CECD43C245407EB0E450C10FD1C344494F34D3278AD060C0057CD28C2B80563C090AB11BF7610701514B74792F6405E9EDF88DF7E804E513439458A26774891CFD27463A2440F2AC69E46BD8751D56A4EDE403CD4462555F3FAD27567A79F24922F5C2AE760492EEF693EA92C1BD5C851343894
310
22A680F48A291D27A0524DD360B54A08B93919CF1E2966EBD2B22B5E8BE003BADBC572B5C2B0D34C8A6447280E1D402530542E186F2BCE2AD6BDB2A7357B5CB7FC81F13563A2C97629B6DE0FE512C640F013D1DE2570894A2E9A3CBE87AFF888B10159FB70FC054804505ACF74AE197FC9872FDBAEFB473ECDE97D23AE807F
310
81FC06504B0304140006080800AF484443ECFD75BD640700009A1B0000340000006662782F35344333463532422D334443432D343344382D394544392D3045423936333542463636412F6F626A656374732E786D6CED59DD73AB3616FF5718F6A57D3036B693263B848E635FDFF1B469EFD4BD9D7DF00C23834CB411829144
310
6EDCBF7E8F3EC0404C82B7E95B1F6C404847E7FCCEA70EC18F2F19759E3117246777AEEF4D5C07B3384F084BEFDC521E4637AEF36318F03C978D69AEC35086EF5C35EC8641CAF3B2B043093EA092CACEE8FAFE3F8E8831C3AE135324C49D2BE2479C210F95324FB078F2122491971E5E3CDF3313DB64538E8AC70ED10271CC
310
24700AE30CA8388629BFFD3871C7613056EFC340FDDB59B341B3E6FDB3C65AEA369784098958FC8AA50E99D9209666FE7CF5697A753BBA9ACF67A3F9F5D41FDDAFEF5723FF87D96479BD5CDE2E3EDD027BFB3CA756A604179825A0BFA31BFAC158BDA945B7089CE33ACE19C3B10612A0D2627509122C60AB067C93F6A3AF24
310
6ABCD612369EE7EABD65A1313C6B53E99B350C88165D10C46E57495C5D9BF2E5FBFF82E0628851728125702B2407ED5A783878851B4E82B1190D83FD4917443819929813441D4AF61C71500A4C5553C2C02CB06494737020E52809B4E6CCEBB66D8167BEEF3AE7B83C94942ACF7043ED5811B81F96427346FEC4FCC47D1319
310
E009A42D099337964B792CB01BDE06633D1806EA329BDA970648E740512A3422E66D47D0A572FDCDCA0D7F5AEF5FB62A1C9CDFBCE07981B95446A7F4A8F90243B6578592DDD61FA439B5008431A0DA9527507E03E47F81E8716205F4C6C9CBFC656EE74A8E9838E43C03DD3813673481BF89E3EB7F75DFB80BC6F5E2B6F6FA
310
F004375550DDFC753CDB3268AC2CFF0D38C3E0190C3EE733FB6A1B230AF6FC401800A48CC4A1390C41683FEC5FDC70038113023DAC4234F4416460F7196E83B12573D24AE55ED6EB18206AF7980D5112C0A62D12D8E8D1D367C81E9CC427353545EC83F7EA43CC75B1DAFEB42DF901C5F8C1FAF40A1F082312B2E679865A98
310
B7247AC2C76F394F40D0D7786F9B7867762B01682BCC15F06905827A38EDDCDA20867569AEC24DF0CE0E2084CAD50DFA0F44C49852C4705E56FBD6D14D196AEDF1B66670C3A9817836ED9830C7CF445515E034A7192D4621EFC79C140A4437FC6C24AB83A6D723DDD7CD2F6091F5FC9E591B06A19721FABB0E5A6770685976
310
85B405A216787F0AE7714E731EED8F9189742ED412C046DB5BFE681185586F94A4A8800769BFAB424A6AA48D1272389402E2EA1916FFD82C9BE630F166FE95D3FCEF38E31CA22DF82EE2D6EF3A7B442443298E0E28E9DBAEB95B4D5B68923DA4393E50908B3C13798C908C26094E2F81E622E2B71F4A3DA5B910846101F9EA
310
2CF84D34261E0412A3CD8A65A5D50ED044441996885E828022D303AE4E3BBAC68DA174789FC7DA7ADFD25893E8DF64111C412D99B38840290A39E45DC67DEF0A62481B5D8372075FB0B68AB61683965042C4C7E81B26E9A3BC047543BE07F7188E24A58CF202C560D603C8BEF215A5D40EEF7B143FA9FC11C525FD28031198
310
1E2242699945F0230C4E1E435CBB0E4C6FA2D0206E629FC419146548967CC826D7579357FB989AA11B021B1B1D0885B01D65A8E841BD1510753DE2D4E05BEA3D4ADD975911A12C2FD92043F1665D6FB2E4BB6A556407F2AB4A45281B2BC29660181026EBAC5AC56C30751D58C18D74A03A4602650535A7B077128F5F7B93A6
310
DCBB01B77EFAB11B6450F8F568AF1951E7150C96C7566120BE21193FBAE1565F47F7507F273839A5FAAAD66C568080988AE4252756455F3750DED81ACD0D1F9014BBCF26EB56D7AF1B0FBA1FC118D640ED522FDC28A033CC245295C983BAA1BF2108C12D1A667CA372EA25541649A2AB4644D7A44F9DAD32A2B56946BCE211
310
B33C831FDB1116D332C13B9488A7E841D2684B14EB564A2F2315C66F0AF8EBE76D071E181920D21755E0E16F9DB57674A9CAA5B344E46399ED192210045BA2A546375EC152AB914ACBF5559D29A0EE0203B32A9EFF73B268B623FE3959A4D630FED2C9E2FEF8333A36FB228D741E2BBBBEE81850E72745E5238E01BAED5053
310
ADB38849E6567EEB4C1104C52ACA0FAEC6AAA06108F671FC7F67EDBE2C68B6EBF07F59D6F65F551C176595D664D5A53A53B96E9A39EC6A79355B2E16D7A3C5CD7A3D9AAF3FAD468BE56A365A4C7DFF7A3D5B4FAF3F9D8E0DDA51C3A00E663A77C1B3096AD5B07AB218405756E49424709A4F9C1443CC9770A61FD03EE71916
310
903C9BCDEEC436E507AC7E367D4E89F614579C3C2268105301691D302A63D91E77FE05AD490907ED3B179A46DE13FC59AB741DC83C772EB40A2489B1F0F6D066520D3D4D1C52AECEFD9618E08358AA52A259543FD7AB1436ADF05F4F199206AC5CAD1E06146E0574BF5A1D0ACD9BE529BE48F08A1D0749B8DD9712AA3523CB
310
69A016466F7352BF918D12F664B77E01D77D5B2CDFD3735A880CFA64F0A61118AA238978AAFBDD8A31CBD262F5650C7D3667F3AB53D032055D0EA734E2188CB954051558115885A5592009A6BAFCF7EE0BCFE1134FE6E8AAC8F9EEE5E6FAFBDD32CFB29C99A1DD024E65097C2872B68FF0D927D941F18055735DECA6137FBA
310
D34D6DDB678FF648604F5545305015134A908EC9815DBE6A50D9F6E558A9A2337DB3726C1005AF3676F4AAC76B3E7239E043EA738AF218EDE795B46FF6B5C77A2AD804878E74F83F504B0304140006080000AF484443000000000000000000000000350000006662782F35344333463532422D334443432D343344382D3945
310
44392D3045423936333542463636412F76657274696365732E62696E504B0304140006080800AF484443F270F1330600000004000000360000006662782F35344333463532422D334443432D343344382D394544392D3045423936333542463636412F747269616E676C65732E62696E636660600000504B03041400060800
310
00AF484443000000000000000000000000370000006662782F35344333463532422D334443432D343344382D394544392D3045423936333542463636412F617474726962757465732E62696E504B0304140006080800AF484443D5987DFC8F00000041010000360000006662782F35344333463532422D334443432D343344
310
382D394544392D3045423936333542463636412F6469726563746F72792E786D6C858F410EC2201045AF4266AF15DDB800BA74E7C21B903225242D6328188F2FA5C4183471359997F9FF81E89FF3C41E1816475E02DF1F80A11FC8386F25A438EECEC07A250251FC3803E6F58C12560C4AD840E95E91C151A72936F496F357
310
32D860FE635F62C8F2DA16B505C545B74125BAA2FA9E05D7CC053D063734D5C7665FD55B6B8D15D5E9BFEAFD8490FFA45E504B0304140006080800AF4844434C8F9AE2FF000000A00100003B0000006662782F35344333463532422D334443432D343344382D394544392D3045423936333542463636412F7265736F757263
310
65732F636F72652E786D6C8D504B6E833010BD0A9A6D65B00349001947499A9EA017B0CC845A0976E44FD5E3D70E546A77DDCC8CDE47F3F4F8E16BBE179FE8BCB66600565228D0283B6A330D10C395B4501C0477D6865F32288C9C71800C83E093B3F1B142CA9A802624D4D81157507A8F010A754FC7005E7DE02C4B194352
310
F85BF990EA26272C5999E8A413DC07970214CB933C4138F4363A859E570B2B788C7A5C357A4C3FF555A303B16DF7C7B63D53B23BD11D695E4F8C746F970DD9B79773B7BBB07ADF1C7995CD82073DFF64540E65C011C486B29A304A68F34EBB9E6EFB9ABD50D653CAAB2CFF638A8FF19FA6A84DA8376BDCC5E641B014E44908
310
5EE5BED27A969976EE567C03504B010214000A0000080000AF4844433DEE336E79000000790000001B00000000000000000000000000000000006175746F6465736B2D64657369676E2D7061636B6167652E786D6C504B01021400140006080800AF484443D486FD9CA0000000F40000001300000000000000000000000000
310
B20000005B436F6E74656E745F54797065735D2E786D6C504B01021400140006080800AF4844435F24B47AEC0000007C010000080000000000000000000000000083010000636F72652E786D6C504B01021400140006080800AF48444355019EA25F0000007C000000070000000000000000000000000095020000636E782E
310
786D6C504B01021400140006080800AF484443CF93900468010000020300000C00000000000000000000000000190300006662782F636F72652E786D6C504B01021400140006080800AF484443CEC3F0097E0000009D0000000B00000000000000000000000000AB0400006662782F636E782E786D6C504B01021400140006
310
080800AF4844430CAC7D3C2D010000150200003100000000000000000000000000520500006662782F35344333463532422D334443432D343344382D394544392D3045423936333542463636412F636F72652E786D6C504B01021400140006080800AF484443C312609D560100003303000030000000000000000000000000
310
00CE0600006662782F35344333463532422D334443432D343344382D394544392D3045423936333542463636412F636E782E786D6C504B01021400140006080800AF484443ECFD75BD640700009A1B00003400000000000000000000000000720800006662782F35344333463532422D334443432D343344382D394544392D
310
3045423936333542463636412F6F626A656374732E786D6C504B01021400140006080000AF4844430000000000000000000000003500000000000000000000000000281000006662782F35344333463532422D334443432D343344382D394544392D3045423936333542463636412F76657274696365732E62696E504B0102
310
1400140006080800AF484443F270F133060000000400000036000000000000000000000000007B1000006662782F35344333463532422D334443432D343344382D394544392D3045423936333542463636412F747269616E676C65732E62696E504B01021400140006080000AF484443000000000000000000000000370000
310
0000000000000000000000D51000006662782F35344333463532422D334443432D343344382D394544392D3045423936333542463636412F617474726962757465732E62696E504B01021400140006080800AF484443D5987DFC8F0000004101000036000000000000000000000000002A1100006662782F35344333463532
310
422D334443432D343344382D394544392D3045423936333542463636412F6469726563746F72792E786D6C504B01021400140006080800AF4844434C8F9AE2FF000000A00100003B000000000000000000000000000D1200006662782F35344333463532422D334443432D343344382D394544392D30454239363335424636
310
36412F7265736F75726365732F636F72652E786D6C504B0506000000000E000E0080040000651300000000
  0
XRECORD
  5
17
102
{ACAD_REACTORS
330
12
102
}
330
12
100
AcDbXrecord
280
     1
270
     1
271
     1
  0
XRECORD
  5
16
102
{ACAD_REACTORS
330
12
102
}
330
12
100
AcDbXrecord
280
     1
270
     1
271
     1
  0
XRECORD
  5
18
102
{ACAD_REACTORS
330
12
102
}
330
12
100
AcDbXrecord
280
     1
270
     1
271
     1
  0
XRECORD
  5
15
102
{ACAD_REACTORS
330
12
102
}
330
12
100
AcDbXrecord
280
     1
270
     1
271
     1
  0
XRECORD
  5
24
102
{ACAD_REACTORS
330
22
102
}
330
22
100
AcDbXrecord
280
     1
270
     1
271
     1
  0
XRECORD
  5
23
102
{ACAD_REACTORS
330
22
102
}
330
22
100
AcDbXrecord
280
     1
270
     1
271
     1
  0
XRECORD
  5
27
102
{ACAD_REACTORS
330
22
102
}
330
22
100
AcDbXrecord
280
     1
270
     1
271
     1
  0
XRECORD
  5
26
102
{ACAD_REACTORS
330
22
102
}
330
22
100
AcDbXrecord
280
     1
270
     1
271
     1
  0
XRECORD
  5
28
102
{ACAD_REACTORS
330
22
102
}
330
22
100
AcDbXrecord
280
     1
270
     1
271
     1
  0
XRECORD
  5
25
102
{ACAD_REACTORS
330
22
102
}
330
22
100
AcDbXrecord
280
     1
270
     1
271
     1
  0
XRECORD
  5
A2D
102
{ACAD_REACTORS
330
A2C
102
}
330
A2C
100
AcDbXrecord
280
     1
102
ACAD_ROUNDTRIP_2012_MLEADER_STYLE
298
     1
  0
CELLSTYLEMAP
  5
A2B
102
{ACAD_REACTORS
330
9E5
102
}
330
9E5
100
AcDbCellStyleMap
 90
        3
300
CELLSTYLE
  1
TABLEFORMAT_BEGIN
 90
        5
170
     1
 91
        0
 92
    32768
 62
   257
 93
        1
300
CONTENTFORMAT
  1
CONTENTFORMAT_BEGIN
 90
        0
 91
        0
 92
      512
 93
        0
300

 40
0.0
140
1.0
 94
        5
 62
     0
340
55
144
0.25
309
CONTENTFORMAT_END
171
     1
301
MARGIN
  1
CELLMARGIN_BEGIN
 40
0.06
 40
0.06
 40
0.06
 40
0.06
 40
0.18
 40
0.18
309
CELLMARGIN_END
 94
        6
 95
        1
302
GRIDFORMAT
  1
GRIDFORMAT_BEGIN
 90
        0
 91
        1
 62
     0
 92
       -2
340
0
 93
        0
 40
0.045
309
GRIDFORMAT_END
 95
        2
302
GRIDFORMAT
  1
GRIDFORMAT_BEGIN
 90
        0
 91
        1
 62
     0
 92
       -2
340
0
 93
        0
 40
0.045
309
GRIDFORMAT_END
 95
        4
302
GRIDFORMAT
  1
GRIDFORMAT_BEGIN
 90
        0
 91
        1
 62
     0
 92
       -2
340
0
 93
        0
 40
0.045
309
GRIDFORMAT_END
 95
        8
302
GRIDFORMAT
  1
GRIDFORMAT_BEGIN
 90
        0
 91
        1
 62
     0
 92
       -2
340
0
 93
        0
 40
0.045
309
GRIDFORMAT_END
 95
       16
302
GRIDFORMAT
  1
GRIDFORMAT_BEGIN
 90
        0
 91
        1
 62
     0
 92
       -2
340
0
 93
        0
 40
0.045
309
GRIDFORMAT_END
 95
       32
302
GRIDFORMAT
  1
GRIDFORMAT_BEGIN
 90
        0
 91
        1
 62
     0
 92
       -2
340
0
 93
        0
 40
0.045
309
GRIDFORMAT_END
309
TABLEFORMAT_END
  1
CELLSTYLE_BEGIN
 90
        1
 91
        1
300
_TITLE
309
CELLSTYLE_END
300
CELLSTYLE
  1
TABLEFORMAT_BEGIN
 90
        5
170
     1
 91
        0
 92
        0
 62
   257
 93
        1
300
CONTENTFORMAT
  1
CONTENTFORMAT_BEGIN
 90
        0
 91
        0
 92
      512
 93
        0
300

 40
0.0
140
1.0
 94
        5
 62
     0
340
55
144
0.18
309
CONTENTFORMAT_END
171
     1
301
MARGIN
  1
CELLMARGIN_BEGIN
 40
0.06
 40
0.06
 40
0.06
 40
0.06
 40
0.18
 40
0.18
309
CELLMARGIN_END
 94
        6
 95
        1
302
GRIDFORMAT
  1
GRIDFORMAT_BEGIN
 90
        0
 91
        1
 62
     0
 92
       -2
340
0
 93
        0
 40
0.045
309
GRIDFORMAT_END
 95
        2
302
GRIDFORMAT
  1
GRIDFORMAT_BEGIN
 90
        0
 91
        1
 62
     0
 92
       -2
340
0
 93
        0
 40
0.045
309
GRIDFORMAT_END
 95
        4
302
GRIDFORMAT
  1
GRIDFORMAT_BEGIN
 90
        0
 91
        1
 62
     0
 92
       -2
340
0
 93
        0
 40
0.045
309
GRIDFORMAT_END
 95
        8
302
GRIDFORMAT
  1
GRIDFORMAT_BEGIN
 90
        0
 91
        1
 62
     0
 92
       -2
340
0
 93
        0
 40
0.045
309
GRIDFORMAT_END
 95
       16
302
GRIDFORMAT
  1
GRIDFORMAT_BEGIN
 90
        0
 91
        1
 62
     0
 92
       -2
340
0
 93
        0
 40
0.045
309
GRIDFORMAT_END
 95
       32
302
GRIDFORMAT
  1
GRIDFORMAT_BEGIN
 90
        0
 91
        1
 62
     0
 92
       -2
340
0
 93
        0
 40
0.045
309
GRIDFORMAT_END
309
TABLEFORMAT_END
  1
CELLSTYLE_BEGIN
 90
        2
 91
        1
300
_HEADER
309
CELLSTYLE_END
300
CELLSTYLE
  1
TABLEFORMAT_BEGIN
 90
        5
170
     1
 91
        0
 92
        0
 62
   257
 93
        1
300
CONTENTFORMAT
  1
CONTENTFORMAT_BEGIN
 90
        0
 91
        0
 92
      512
 93
        0
300

 40
0.0
140
1.0
 94
        2
 62
     0
340
55
144
0.18
309
CONTENTFORMAT_END
171
     1
301
MARGIN
  1
CELLMARGIN_BEGIN
 40
0.06
 40
0.06
 40
0.06
 40
0.06
 40
0.18
 40
0.18
309
CELLMARGIN_END
 94
        6
 95
        1
302
GRIDFORMAT
  1
GRIDFORMAT_BEGIN
 90
        0
 91
        1
 62
     0
 92
       -2
340
0
 93
        0
 40
0.045
309
GRIDFORMAT_END
 95
        2
302
GRIDFORMAT
  1
GRIDFORMAT_BEGIN
 90
        0
 91
        1
 62
     0
 92
       -2
340
0
 93
        0
 40
0.045
309
GRIDFORMAT_END
 95
        4
302
GRIDFORMAT
  1
GRIDFORMAT_BEGIN
 90
        0
 91
        1
 62
     0
 92
       -2
340
0
 93
        0
 40
0.045
309
GRIDFORMAT_END
 95
        8
302
GRIDFORMAT
  1
GRIDFORMAT_BEGIN
 90
        0
 91
        1
 62
     0
 92
       -2
340
0
 93
        0
 40
0.045
309
GRIDFORMAT_END
 95
       16
302
GRIDFORMAT
  1
GRIDFORMAT_BEGIN
 90
        0
 91
        1
 62
     0
 92
       -2
340
0
 93
        0
 40
0.045
309
GRIDFORMAT_END
 95
       32
302
GRIDFORMAT
  1
GRIDFORMAT_BEGIN
 90
        0
 91
        1
 62
     0
 92
       -2
340
0
 93
        0
 40
0.045
309
GRIDFORMAT_END
309
TABLEFORMAT_END
  1
CELLSTYLE_BEGIN
 90
        3
 91
        2
300
_DATA
309
CELLSTYLE_END
  0
XRECORD
  5
A44
102
{ACAD_REACTORS
330
A43
102
}
330
A43
100
AcDbXrecord
280
     1
102
RTVSPropertyOp0
 70
     1
102
RTVSPropertyOp1
 70
     1
102
RTVSPropertyOp2
 70
     1
102
RTVSPropertyOp3
 70
     1
102
RTVSPropertyOp4
 70
     1
102
RTVSPropertyOp5
 70
     1
102
RTVSPropertyOp6
 70
     1
102
RTVSPropertyOp7
 70
     1
102
RTVSPropertyOp8
 70
     1
102
RTVSPropertyOp9
 70
     1
102
RTVSPropertyOp10
 70
     1
102
RTVSPropertyOp11
 70
     1
102
RTVSPropertyOp12
 70
     1
102
RTVSPropertyOp13
 70
     1
102
RTVSPropertyOp14
 70
     1
102
RTVSPropertyOp15
 70
     1
102
RTVSPropertyOp16
 70
     1
102
RTVSPropertyOp17
 70
     1
102
RTVSPropertyOp18
 70
     1
102
RTVSPropertyOp19
 70
     1
102
RTVSPropertyOp20
 70
     1
102
RTVSPropertyOp21
 70
     1
102
RTVSPropertyOp22
 70
     1
102
RTVSPropertyOp23
 70
     1
102
RTVSPropertyOp24
 70
     1
102
RTVSPropertyOp25
 70
     1
102
RTVSPropertyOp26
 70
     1
102
RTVSPropertyOp27
 70
     1
102
RTVSPropertyOp28
 70
     1
102
RTVSPropertyOp29
 70
     1
102
RTVSPropertyOp30
 70
     1
102
RTVSPropertyOp31
 70
     1
102
RTVSPropertyOp32
 70
     1
  0
XRECORD
  5
A42
102
{ACAD_REACTORS
330
A41
102
}
330
A41
100
AcDbXrecord
280
     1
102
RTVSPropertyOp0
 70
     1
102
RTVSPropertyOp1
 70
     1
102
RTVSPropertyOp2
 70
     1
102
RTVSPropertyOp3
 70
     1
102
RTVSPropertyOp4
 70
     1
102
RTVSPropertyOp5
 70
     1
102
RTVSPropertyOp6
 70
     1
102
RTVSPropertyOp7
 70
     1
102
RTVSPropertyOp8
 70
     1
102
RTVSPropertyOp9
 70
     1
102
RTVSPropertyOp10
 70
     1
102
RTVSPropertyOp11
 70
     1
102
RTVSPropertyOp12
 70
     1
102
RTVSPropertyOp13
 70
     1
102
RTVSPropertyOp14
 70
     1
102
RTVSPropertyOp15
 70
     1
102
RTVSPropertyOp16
 70
     1
102
RTVSPropertyOp17
 70
     1
102
RTVSPropertyOp18
 70
     1
102
RTVSPropertyOp19
 70
     1
102
RTVSPropertyOp20
 70
     1
102
RTVSPropertyOp21
 70
     1
102
RTVSPropertyOp22
 70
     1
102
RTVSPropertyOp23
 70
     1
102
RTVSPropertyOp24
 70
     1
102
RTVSPropertyOp25
 70
     1
102
RTVSPropertyOp26
 70
     1
102
RTVSPropertyOp27
 70
     1
102
RTVSPropertyOp28
 70
     1
102
RTVSPropertyOp29
 70
     1
102
RTVSPropertyOp30
 70
     1
102
RTVSPropertyOp31
 70
     1
102
RTVSPropertyOp32
 70
     1
  0
XRECORD
  5
A50
102
{ACAD_REACTORS
330
A4F
102
}
330
A4F
100
AcDbXrecord
280
     1
102
RTVSPropertyOp0
 70
     1
102
RTVSPropertyOp1
 70
     1
102
RTVSPropertyOp2
 70
     1
102
RTVSPropertyOp3
 70
     1
102
RTVSPropertyOp4
 70
     1
102
RTVSPropertyOp5
 70
     1
102
RTVSPropertyOp6
 70
     1
102
RTVSPropertyOp7
 70
     1
102
RTVSPropertyOp8
 70
     1
102
RTVSPropertyOp9
 70
     1
102
RTVSPropertyOp10
 70
     1
102
RTVSPropertyOp11
 70
     1
102
RTVSPropertyOp12
 70
     1
102
RTVSPropertyOp13
 70
     1
102
RTVSPropertyOp14
 70
     1
102
RTVSPropertyOp15
 70
     1
102
RTVSPropertyOp16
 70
     1
102
RTVSPropertyOp17
 70
     1
102
RTVSPropertyOp18
 70
     1
102
RTVSPropertyOp19
 70
     1
102
RTVSPropertyOp20
 70
     1
102
RTVSPropertyOp21
 70
     1
102
RTVSPropertyOp22
 70
     1
102
RTVSPropertyOp23
 70
     1
102
RTVSPropertyOp24
 70
     1
102
RTVSPropertyOp25
 70
     1
102
RTVSPropertyOp26
 70
     1
102
RTVSPropertyOp27
 70
     1
102
RTVSPropertyOp28
 70
     1
102
RTVSPropertyOp29
 70
     1
102
RTVSPropertyOp30
 70
     1
102
RTVSPropertyOp31
 70
     1
102
RTVSPropertyOp32
 70
     1
  0
XRECORD
  5
A58
102
{ACAD_REACTORS
330
A57
102
}
330
A57
100
AcDbXrecord
280
     1
102
RTVSPropertyOp0
 70
     1
102
RTVSPropertyOp1
 70
     1
102
RTVSPropertyOp2
 70
     1
102
RTVSPropertyOp3
 70
     1
102
RTVSPropertyOp4
 70
     1
102
RTVSPropertyOp5
 70
     1
102
RTVSPropertyOp6
 70
     1
102
RTVSPropertyOp7
 70
     1
102
RTVSPropertyOp8
 70
     1
102
RTVSPropertyOp9
 70
     1
102
RTVSPropertyOp10
 70
     1
102
RTVSPropertyOp11
 70
     1
102
RTVSPropertyOp12
 70
     1
102
RTVSPropertyOp13
 70
     1
102
RTVSPropertyOp14
 70
     1
102
RTVSPropertyOp15
 70
     1
102
RTVSPropertyOp16
 70
     1
102
RTVSPropertyOp17
 70
     1
102
RTVSPropertyOp18
 70
     1
102
RTVSPropertyOp19
 70
     1
102
RTVSPropertyOp20
 70
     1
102
RTVSPropertyOp21
 70
     1
102
RTVSPropertyOp22
 70
     1
102
RTVSPropertyOp23
 70
     1
102
RTVSPropertyOp24
 70
     1
102
RTVSPropertyOp25
 70
     1
102
RTVSPropertyOp26
 70
     1
102
RTVSPropertyOp27
 70
     1
102
RTVSPropertyOp28
 70
     1
102
RTVSPropertyOp29
 70
     1
102
RTVSPropertyOp30
 70
     1
102
RTVSPropertyOp31
 70
     1
102
RTVSPropertyOp32
 70
     1
  0
XRECORD
  5
A4A
102
{ACAD_REACTORS
330
A49
102
}
330
A49
100
AcDbXrecord
280
     1
102
RTVSPropertyOp0
 70
     1
102
RTVSPropertyOp1
 70
     1
102
RTVSPropertyOp2
 70
     1
102
RTVSPropertyOp3
 70
     1
102
RTVSPropertyOp4
 70
     1
102
RTVSPropertyOp5
 70
     1
102
RTVSPropertyOp6
 70
     1
102
RTVSPropertyOp7
 70
     1
102
RTVSPropertyOp8
 70
     1
102
RTVSPropertyOp9
 70
     1
102
RTVSPropertyOp10
 70
     1
102
RTVSPropertyOp11
 70
     1
102
RTVSPropertyOp12
 70
     1
102
RTVSPropertyOp13
 70
     1
102
RTVSPropertyOp14
 70
     1
102
RTVSPropertyOp15
 70
     1
102
RTVSPropertyOp16
 70
     1
102
RTVSPropertyOp17
 70
     1
102
RTVSPropertyOp18
 70
     1
102
RTVSPropertyOp19
 70
     1
102
RTVSPropertyOp20
 70
     1
102
RTVSPropertyOp21
 70
     1
102
RTVSPropertyOp22
 70
     1
102
RTVSPropertyOp23
 70
     1
102
RTVSPropertyOp24
 70
     1
102
RTVSPropertyOp25
 70
     1
102
RTVSPropertyOp26
 70
     1
102
RTVSPropertyOp27
 70
     1
102
RTVSPropertyOp28
 70
     1
102
RTVSPropertyOp29
 70
     1
102
RTVSPropertyOp30
 70
     1
102
RTVSPropertyOp31
 70
     1
102
RTVSPropertyOp32
 70
     1
  0
XRECORD
  5
A4E
102
{ACAD_REACTORS
330
A4D
102
}
330
A4D
100
AcDbXrecord
280
     1
102
RTVSPropertyOp0
 70
     1
102
RTVSPropertyOp1
 70
     1
102
RTVSPropertyOp2
 70
     1
102
RTVSPropertyOp3
 70
     1
102
RTVSPropertyOp4
 70
     1
102
RTVSPropertyOp5
 70
     1
102
RTVSPropertyOp6
 70
     1
102
RTVSPropertyOp7
 70
     1
102
RTVSPropertyOp8
 70
     1
102
RTVSPropertyOp9
 70
     1
102
RTVSPropertyOp10
 70
     1
102
RTVSPropertyOp11
 70
     1
102
RTVSPropertyOp12
 70
     1
102
RTVSPropertyOp13
 70
     1
102
RTVSPropertyOp14
 70
     1
102
RTVSPropertyOp15
 70
     1
102
RTVSPropertyOp16
 70
     1
102
RTVSPropertyOp17
 70
     1
102
RTVSPropertyOp18
 70
     1
102
RTVSPropertyOp19
 70
     1
102
RTVSPropertyOp20
 70
     1
102
RTVSPropertyOp21
 70
     1
102
RTVSPropertyOp22
 70
     1
102
RTVSPropertyOp23
 70
     1
102
RTVSPropertyOp24
 70
     1
102
RTVSPropertyOp25
 70
     1
102
RTVSPropertyOp26
 70
     1
102
RTVSPropertyOp27
 70
     1
102
RTVSPropertyOp28
 70
     1
102
RTVSPropertyOp29
 70
     1
102
RTVSPropertyOp30
 70
     1
102
RTVSPropertyOp31
 70
     1
102
RTVSPropertyOp32
 70
     1
  0
XRECORD
  5
A68
102
{ACAD_REACTORS
330
A67
102
}
330
A67
100
AcDbXrecord
280
     1
102
RTVSPropertyOp0
 70
     0
102
RTVSPropertyOp1
 70
     0
102
RTVSPropertyOp2
 70
     0
102
RTVSPropertyOp3
 70
     0
102
RTVSPropertyOp4
 70
     0
102
RTVSPropertyOp5
 70
     0
102
RTVSPropertyOp6
 70
     0
102
RTVSPropertyOp7
 70
     0
102
RTVSPropertyOp8
 70
     0
102
RTVSPropertyOp9
 70
     0
102
RTVSPropertyOp10
 70
     0
102
RTVSPropertyOp11
 70
     0
102
RTVSPropertyOp12
 70
     0
102
RTVSPropertyOp13
 70
     0
102
RTVSPropertyOp14
 70
     2
102
RTVSPropertyOp15
 70
     0
102
RTVSPropertyOp16
 70
     0
102
RTVSPropertyOp17
 70
     0
102
RTVSPropertyOp18
 70
     0
102
RTVSPropertyOp19
 70
     0
102
RTVSPropertyOp20
 70
     0
102
RTVSPropertyOp21
 70
     0
102
RTVSPropertyOp22
 70
     0
102
RTVSPropertyOp23
 70
     0
102
RTVSPropertyOp24
 70
     0
102
RTVSPropertyOp25
 70
     0
102
RTVSPropertyOp26
 70
     0
102
RTVSPropertyOp27
 70
     0
102
RTVSPropertyOp28
 70
     0
102
RTVSPropertyOp29
 70
     0
102
RTVSPropertyOp30
 70
     0
102
RTVSPropertyOp31
 70
     0
102
RTVSPropertyOp32
 70
     0
  0
XRECORD
  5
A56
102
{ACAD_REACTORS
330
A55
102
}
330
A55
100
AcDbXrecord
280
     1
102
RTVSPropertyOp0
 70
     1
102
RTVSPropertyOp1
 70
     1
102
RTVSPropertyOp2
 70
     1
102
RTVSPropertyOp3
 70
     1
102
RTVSPropertyOp4
 70
     1
102
RTVSPropertyOp5
 70
     1
102
RTVSPropertyOp6
 70
     1
102
RTVSPropertyOp7
 70
     1
102
RTVSPropertyOp8
 70
     1
102
RTVSPropertyOp9
 70
     1
102
RTVSPropertyOp10
 70
     1
102
RTVSPropertyOp11
 70
     1
102
RTVSPropertyOp12
 70
     1
102
RTVSPropertyOp13
 70
     1
102
RTVSPropertyOp14
 70
     1
102
RTVSPropertyOp15
 70
     1
102
RTVSPropertyOp16
 70
     1
102
RTVSPropertyOp17
 70
     1
102
RTVSPropertyOp18
 70
     1
102
RTVSPropertyOp19
 70
     1
102
RTVSPropertyOp20
 70
     1
102
RTVSPropertyOp21
 70
     1
102
RTVSPropertyOp22
 70
     1
102
RTVSPropertyOp23
 70
     1
102
RTVSPropertyOp24
 70
     1
102
RTVSPropertyOp25
 70
     1
102
RTVSPropertyOp26
 70
     1
102
RTVSPropertyOp27
 70
     1
102
RTVSPropertyOp28
 70
     1
102
RTVSPropertyOp29
 70
     1
102
RTVSPropertyOp30
 70
     1
102
RTVSPropertyOp31
 70
     1
102
RTVSPropertyOp32
 70
     1
  0
XRECORD
  5
A3A
102
{ACAD_REACTORS
330
A39
102
}
330
A39
100
AcDbXrecord
280
     1
102
RTVSPropertyOp0
 70
     1
102
RTVSPropertyOp1
 70
     1
102
RTVSPropertyOp2
 70
     1
102
RTVSPropertyOp3
 70
     1
102
RTVSPropertyOp4
 70
     1
102
RTVSPropertyOp5
 70
     1
102
RTVSPropertyOp6
 70
     1
102
RTVSPropertyOp7
 70
     1
102
RTVSPropertyOp8
 70
     1
102
RTVSPropertyOp9
 70
     1
102
RTVSPropertyOp10
 70
     1
102
RTVSPropertyOp11
 70
     1
102
RTVSPropertyOp12
 70
     1
102
RTVSPropertyOp13
 70
     1
102
RTVSPropertyOp14
 70
     1
102
RTVSPropertyOp15
 70
     1
102
RTVSPropertyOp16
 70
     1
102
RTVSPropertyOp17
 70
     1
102
RTVSPropertyOp18
 70
     1
102
RTVSPropertyOp19
 70
     1
102
RTVSPropertyOp20
 70
     1
102
RTVSPropertyOp21
 70
     1
102
RTVSPropertyOp22
 70
     1
102
RTVSPropertyOp23
 70
     1
102
RTVSPropertyOp24
 70
     1
102
RTVSPropertyOp25
 70
     1
102
RTVSPropertyOp26
 70
     1
102
RTVSPropertyOp27
 70
     1
102
RTVSPropertyOp28
 70
     1
102
RTVSPropertyOp29
 70
     1
102
RTVSPropertyOp30
 70
     1
102
RTVSPropertyOp31
 70
     1
102
RTVSPropertyOp32
 70
     1
  0
XRECORD
  5
A3C
102
{ACAD_REACTORS
330
A3B
102
}
330
A3B
100
AcDbXrecord
280
     1
102
RTVSPropertyOp0
 70
     1
102
RTVSPropertyOp1
 70
     1
102
RTVSPropertyOp2
 70
     1
102
RTVSPropertyOp3
 70
     1
102
RTVSPropertyOp4
 70
     1
102
RTVSPropertyOp5
 70
     1
102
RTVSPropertyOp6
 70
     1
102
RTVSPropertyOp7
 70
     1
102
RTVSPropertyOp8
 70
     1
102
RTVSPropertyOp9
 70
     1
102
RTVSPropertyOp10
 70
     1
102
RTVSPropertyOp11
 70
     1
102
RTVSPropertyOp12
 70
     1
102
RTVSPropertyOp13
 70
     1
102
RTVSPropertyOp14
 70
     1
102
RTVSPropertyOp15
 70
     1
102
RTVSPropertyOp16
 70
     1
102
RTVSPropertyOp17
 70
     1
102
RTVSPropertyOp18
 70
     1
102
RTVSPropertyOp19
 70
     1
102
RTVSPropertyOp20
 70
     1
102
RTVSPropertyOp21
 70
     1
102
RTVSPropertyOp22
 70
     1
102
RTVSPropertyOp23
 70
     1
102
RTVSPropertyOp24
 70
     1
102
RTVSPropertyOp25
 70
     1
102
RTVSPropertyOp26
 70
     1
102
RTVSPropertyOp27
 70
     1
102
RTVSPropertyOp28
 70
     1
102
RTVSPropertyOp29
 70
     1
102
RTVSPropertyOp30
 70
     1
102
RTVSPropertyOp31
 70
     1
102
RTVSPropertyOp32
 70
     1
  0
XRECORD
  5
A3E
102
{ACAD_REACTORS
330
A3D
102
}
330
A3D
100
AcDbXrecord
280
     1
102
RTVSPropertyOp0
 70
     1
102
RTVSPropertyOp1
 70
     1
102
RTVSPropertyOp2
 70
     1
102
RTVSPropertyOp3
 70
     1
102
RTVSPropertyOp4
 70
     1
102
RTVSPropertyOp5
 70
     1
102
RTVSPropertyOp6
 70
     1
102
RTVSPropertyOp7
 70
     1
102
RTVSPropertyOp8
 70
     1
102
RTVSPropertyOp9
 70
     1
102
RTVSPropertyOp10
 70
     1
102
RTVSPropertyOp11
 70
     1
102
RTVSPropertyOp12
 70
     1
102
RTVSPropertyOp13
 70
     1
102
RTVSPropertyOp14
 70
     1
102
RTVSPropertyOp15
 70
     1
102
RTVSPropertyOp16
 70
     1
102
RTVSPropertyOp17
 70
     1
102
RTVSPropertyOp18
 70
     1
102
RTVSPropertyOp19
 70
     1
102
RTVSPropertyOp20
 70
     1
102
RTVSPropertyOp21
 70
     1
102
RTVSPropertyOp22
 70
     1
102
RTVSPropertyOp23
 70
     1
102
RTVSPropertyOp24
 70
     1
102
RTVSPropertyOp25
 70
     1
102
RTVSPropertyOp26
 70
     1
102
RTVSPropertyOp27
 70
     1
102
RTVSPropertyOp28
 70
     1
102
RTVSPropertyOp29
 70
     1
102
RTVSPropertyOp30
 70
     1
102
RTVSPropertyOp31
 70
     1
102
RTVSPropertyOp32
 70
     1
  0
XRECORD
  5
A40
102
{ACAD_REACTORS
330
A3F
102
}
330
A3F
100
AcDbXrecord
280
     1
102
RTVSPropertyOp0
 70
     1
102
RTVSPropertyOp1
 70
     1
102
RTVSPropertyOp2
 70
     1
102
RTVSPropertyOp3
 70
     1
102
RTVSPropertyOp4
 70
     1
102
RTVSPropertyOp5
 70
     1
102
RTVSPropertyOp6
 70
     1
102
RTVSPropertyOp7
 70
     1
102
RTVSPropertyOp8
 70
     1
102
RTVSPropertyOp9
 70
     1
102
RTVSPropertyOp10
 70
     1
102
RTVSPropertyOp11
 70
     1
102
RTVSPropertyOp12
 70
     1
102
RTVSPropertyOp13
 70
     1
102
RTVSPropertyOp14
 70
     1
102
RTVSPropertyOp15
 70
     1
102
RTVSPropertyOp16
 70
     1
102
RTVSPropertyOp17
 70
     1
102
RTVSPropertyOp18
 70
     1
102
RTVSPropertyOp19
 70
     1
102
RTVSPropertyOp20
 70
     1
102
RTVSPropertyOp21
 70
     1
102
RTVSPropertyOp22
 70
     1
102
RTVSPropertyOp23
 70
     1
102
RTVSPropertyOp24
 70
     1
102
RTVSPropertyOp25
 70
     1
102
RTVSPropertyOp26
 70
     1
102
RTVSPropertyOp27
 70
     1
102
RTVSPropertyOp28
 70
     1
102
RTVSPropertyOp29
 70
     1
102
RTVSPropertyOp30
 70
     1
102
RTVSPropertyOp31
 70
     1
102
RTVSPropertyOp32
 70
     1
  0
XRECORD
  5
A48
102
{ACAD_REACTORS
330
A47
102
}
330
A47
100
AcDbXrecord
280
     1
102
RTVSPropertyOp0
 70
     1
102
RTVSPropertyOp1
 70
     1
102
RTVSPropertyOp2
 70
     1
102
RTVSPropertyOp3
 70
     1
102
RTVSPropertyOp4
 70
     1
102
RTVSPropertyOp5
 70
     1
102
RTVSPropertyOp6
 70
     1
102
RTVSPropertyOp7
 70
     1
102
RTVSPropertyOp8
 70
     1
102
RTVSPropertyOp9
 70
     1
102
RTVSPropertyOp10
 70
     1
102
RTVSPropertyOp11
 70
     1
102
RTVSPropertyOp12
 70
     1
102
RTVSPropertyOp13
 70
     1
102
RTVSPropertyOp14
 70
     1
102
RTVSPropertyOp15
 70
     1
102
RTVSPropertyOp16
 70
     1
102
RTVSPropertyOp17
 70
     1
102
RTVSPropertyOp18
 70
     1
102
RTVSPropertyOp19
 70
     1
102
RTVSPropertyOp20
 70
     1
102
RTVSPropertyOp21
 70
     1
102
RTVSPropertyOp22
 70
     1
102
RTVSPropertyOp23
 70
     1
102
RTVSPropertyOp24
 70
     1
102
RTVSPropertyOp25
 70
     1
102
RTVSPropertyOp26
 70
     1
102
RTVSPropertyOp27
 70
     1
102
RTVSPropertyOp28
 70
     1
102
RTVSPropertyOp29
 70
     1
102
RTVSPropertyOp30
 70
     1
102
RTVSPropertyOp31
 70
     1
102
RTVSPropertyOp32
 70
     1
  0
XRECORD
  5
A64
102
{ACAD_REACTORS
330
A63
102
}
330
A63
100
AcDbXrecord
280
     1
102
RTVSPropertyOp0
 70
     0
102
RTVSPropertyOp1
 70
     0
102
RTVSPropertyOp2
 70
     0
102
RTVSPropertyOp3
 70
     0
102
RTVSPropertyOp4
 70
     0
102
RTVSPropertyOp5
 70
     0
102
RTVSPropertyOp6
 70
     0
102
RTVSPropertyOp7
 70
     0
102
RTVSPropertyOp8
 70
     0
102
RTVSPropertyOp9
 70
     0
102
RTVSPropertyOp10
 70
     0
102
RTVSPropertyOp11
 70
     0
102
RTVSPropertyOp12
 70
     0
102
RTVSPropertyOp13
 70
     0
102
RTVSPropertyOp14
 70
     2
102
RTVSPropertyOp15
 70
     0
102
RTVSPropertyOp16
 70
     0
102
RTVSPropertyOp17
 70
     0
102
RTVSPropertyOp18
 70
     0
102
RTVSPropertyOp19
 70
     0
102
RTVSPropertyOp20
 70
     0
102
RTVSPropertyOp21
 70
     0
102
RTVSPropertyOp22
 70
     0
102
RTVSPropertyOp23
 70
     0
102
RTVSPropertyOp24
 70
     0
102
RTVSPropertyOp25
 70
     0
102
RTVSPropertyOp26
 70
     0
102
RTVSPropertyOp27
 70
     0
102
RTVSPropertyOp28
 70
     0
102
RTVSPropertyOp29
 70
     0
102
RTVSPropertyOp30
 70
     0
102
RTVSPropertyOp31
 70
     0
102
RTVSPropertyOp32
 70
     0
  0
XRECORD
  5
A54
102
{ACAD_REACTORS
330
A53
102
}
330
A53
100
AcDbXrecord
280
     1
102
RTVSPropertyOp0
 70
     1
102
RTVSPropertyOp1
 70
     1
102
RTVSPropertyOp2
 70
     1
102
RTVSPropertyOp3
 70
     1
102
RTVSPropertyOp4
 70
     1
102
RTVSPropertyOp5
 70
     1
102
RTVSPropertyOp6
 70
     1
102
RTVSPropertyOp7
 70
     1
102
RTVSPropertyOp8
 70
     1
102
RTVSPropertyOp9
 70
     1
102
RTVSPropertyOp10
 70
     1
102
RTVSPropertyOp11
 70
     1
102
RTVSPropertyOp12
 70
     1
102
RTVSPropertyOp13
 70
     1
102
RTVSPropertyOp14
 70
     1
102
RTVSPropertyOp15
 70
     1
102
RTVSPropertyOp16
 70
     1
102
RTVSPropertyOp17
 70
     1
102
RTVSPropertyOp18
 70
     1
102
RTVSPropertyOp19
 70
     1
102
RTVSPropertyOp20
 70
     1
102
RTVSPropertyOp21
 70
     1
102
RTVSPropertyOp22
 70
     1
102
RTVSPropertyOp23
 70
     1
102
RTVSPropertyOp24
 70
     1
102
RTVSPropertyOp25
 70
     1
102
RTVSPropertyOp26
 70
     1
102
RTVSPropertyOp27
 70
     1
102
RTVSPropertyOp28
 70
     1
102
RTVSPropertyOp29
 70
     1
102
RTVSPropertyOp30
 70
     1
102
RTVSPropertyOp31
 70
     1
102
RTVSPropertyOp32
 70
     1
  0
XRECORD
  5
A66
102
{ACAD_REACTORS
330
A65
102
}
330
A65
100
AcDbXrecord
280
     1
102
RTVSPropertyOp0
 70
     0
102
RTVSPropertyOp1
 70
     0
102
RTVSPropertyOp2
 70
     0
102
RTVSPropertyOp3
 70
     0
102
RTVSPropertyOp4
 70
     0
102
RTVSPropertyOp5
 70
     0
102
RTVSPropertyOp6
 70
     0
102
RTVSPropertyOp7
 70
     0
102
RTVSPropertyOp8
 70
     0
102
RTVSPropertyOp9
 70
     0
102
RTVSPropertyOp10
 70
     0
102
RTVSPropertyOp11
 70
     0
102
RTVSPropertyOp12
 70
     0
102
RTVSPropertyOp13
 70
     0
102
RTVSPropertyOp14
 70
     2
102
RTVSPropertyOp15
 70
     0
102
RTVSPropertyOp16
 70
     0
102
RTVSPropertyOp17
 70
     0
102
RTVSPropertyOp18
 70
     0
102
RTVSPropertyOp19
 70
     0
102
RTVSPropertyOp20
 70
     0
102
RTVSPropertyOp21
 70
     0
102
RTVSPropertyOp22
 70
     0
102
RTVSPropertyOp23
 70
     0
102
RTVSPropertyOp24
 70
     0
102
RTVSPropertyOp25
 70
     0
102
RTVSPropertyOp26
 70
     0
102
RTVSPropertyOp27
 70
     0
102
RTVSPropertyOp28
 70
     0
102
RTVSPropertyOp29
 70
     0
102
RTVSPropertyOp30
 70
     0
102
RTVSPropertyOp31
 70
     0
102
RTVSPropertyOp32
 70
     0
  0
XRECORD
  5
A4C
102
{ACAD_REACTORS
330
A4B
102
}
330
A4B
100
AcDbXrecord
280
     1
102
RTVSPropertyOp0
 70
     1
102
RTVSPropertyOp1
 70
     1
102
RTVSPropertyOp2
 70
     1
102
RTVSPropertyOp3
 70
     1
102
RTVSPropertyOp4
 70
     1
102
RTVSPropertyOp5
 70
     1
102
RTVSPropertyOp6
 70
     1
102
RTVSPropertyOp7
 70
     1
102
RTVSPropertyOp8
 70
     1
102
RTVSPropertyOp9
 70
     1
102
RTVSPropertyOp10
 70
     1
102
RTVSPropertyOp11
 70
     1
102
RTVSPropertyOp12
 70
     1
102
RTVSPropertyOp13
 70
     1
102
RTVSPropertyOp14
 70
     1
102
RTVSPropertyOp15
 70
     1
102
RTVSPropertyOp16
 70
     1
102
RTVSPropertyOp17
 70
     1
102
RTVSPropertyOp18
 70
     1
102
RTVSPropertyOp19
 70
     1
102
RTVSPropertyOp20
 70
     1
102
RTVSPropertyOp21
 70
     1
102
RTVSPropertyOp22
 70
     1
102
RTVSPropertyOp23
 70
     1
102
RTVSPropertyOp24
 70
     1
102
RTVSPropertyOp25
 70
     1
102
RTVSPropertyOp26
 70
     1
102
RTVSPropertyOp27
 70
     1
102
RTVSPropertyOp28
 70
     1
102
RTVSPropertyOp29
 70
     1
102
RTVSPropertyOp30
 70
     1
102
RTVSPropertyOp31
 70
     1
102
RTVSPropertyOp32
 70
     1
  0
XRECORD
  5
A62
102
{ACAD_REACTORS
330
A61
102
}
330
A61
100
AcDbXrecord
280
     1
102
RTVSPropertyOp0
 70
     1
102
RTVSPropertyOp1
 70
     1
102
RTVSPropertyOp2
 70
     1
102
RTVSPropertyOp3
 70
     1
102
RTVSPropertyOp4
 70
     1
102
RTVSPropertyOp5
 70
     1
102
RTVSPropertyOp6
 70
     1
102
RTVSPropertyOp7
 70
     1
102
RTVSPropertyOp8
 70
     1
102
RTVSPropertyOp9
 70
     1
102
RTVSPropertyOp10
 70
     1
102
RTVSPropertyOp11
 70
     1
102
RTVSPropertyOp12
 70
     1
102
RTVSPropertyOp13
 70
     1
102
RTVSPropertyOp14
 70
     1
102
RTVSPropertyOp15
 70
     1
102
RTVSPropertyOp16
 70
     1
102
RTVSPropertyOp17
 70
     1
102
RTVSPropertyOp18
 70
     1
102
RTVSPropertyOp19
 70
     1
102
RTVSPropertyOp20
 70
     1
102
RTVSPropertyOp21
 70
     1
102
RTVSPropertyOp22
 70
     1
102
RTVSPropertyOp23
 70
     1
102
RTVSPropertyOp24
 70
     1
102
RTVSPropertyOp25
 70
     1
102
RTVSPropertyOp26
 70
     1
102
RTVSPropertyOp27
 70
     1
102
RTVSPropertyOp28
 70
     1
102
RTVSPropertyOp29
 70
     1
102
RTVSPropertyOp30
 70
     1
102
RTVSPropertyOp31
 70
     1
102
RTVSPropertyOp32
 70
     1
  0
XRECORD
  5
A60
102
{ACAD_REACTORS
330
A5F
102
}
330
A5F
100
AcDbXrecord
280
     1
102
RTVSPropertyOp0
 70
     1
102
RTVSPropertyOp1
 70
     1
102
RTVSPropertyOp2
 70
     1
102
RTVSPropertyOp3
 70
     1
102
RTVSPropertyOp4
 70
     1
102
RTVSPropertyOp5
 70
     1
102
RTVSPropertyOp6
 70
     1
102
RTVSPropertyOp7
 70
     1
102
RTVSPropertyOp8
 70
     1
102
RTVSPropertyOp9
 70
     1
102
RTVSPropertyOp10
 70
     1
102
RTVSPropertyOp11
 70
     1
102
RTVSPropertyOp12
 70
     1
102
RTVSPropertyOp13
 70
     1
102
RTVSPropertyOp14
 70
     1
102
RTVSPropertyOp15
 70
     1
102
RTVSPropertyOp16
 70
     1
102
RTVSPropertyOp17
 70
     1
102
RTVSPropertyOp18
 70
     1
102
RTVSPropertyOp19
 70
     1
102
RTVSPropertyOp20
 70
     1
102
RTVSPropertyOp21
 70
     1
102
RTVSPropertyOp22
 70
     1
102
RTVSPropertyOp23
 70
     1
102
RTVSPropertyOp24
 70
     1
102
RTVSPropertyOp25
 70
     1
102
RTVSPropertyOp26
 70
     1
102
RTVSPropertyOp27
 70
     1
102
RTVSPropertyOp28
 70
     1
102
RTVSPropertyOp29
 70
     1
102
RTVSPropertyOp30
 70
     1
102
RTVSPropertyOp31
 70
     1
102
RTVSPropertyOp32
 70
     1
  0
XRECORD
  5
A5A
102
{ACAD_REACTORS
330
A59
102
}
330
A59
100
AcDbXrecord
280
     1
102
RTVSPropertyOp0
 70
     1
102
RTVSPropertyOp1
 70
     1
102
RTVSPropertyOp2
 70
     1
102
RTVSPropertyOp3
 70
     1
102
RTVSPropertyOp4
 70
     1
102
RTVSPropertyOp5
 70
     1
102
RTVSPropertyOp6
 70
     1
102
RTVSPropertyOp7
 70
     1
102
RTVSPropertyOp8
 70
     1
102
RTVSPropertyOp9
 70
     1
102
RTVSPropertyOp10
 70
     1
102
RTVSPropertyOp11
 70
     1
102
RTVSPropertyOp12
 70
     1
102
RTVSPropertyOp13
 70
     1
102
RTVSPropertyOp14
 70
     1
102
RTVSPropertyOp15
 70
     1
102
RTVSPropertyOp16
 70
     1
102
RTVSPropertyOp17
 70
     1
102
RTVSPropertyOp18
 70
     1
102
RTVSPropertyOp19
 70
     1
102
RTVSPropertyOp20
 70
     1
102
RTVSPropertyOp21
 70
     1
102
RTVSPropertyOp22
 70
     1
102
RTVSPropertyOp23
 70
     1
102
RTVSPropertyOp24
 70
     1
102
RTVSPropertyOp25
 70
     1
102
RTVSPropertyOp26
 70
     1
102
RTVSPropertyOp27
 70
     1
102
RTVSPropertyOp28
 70
     1
102
RTVSPropertyOp29
 70
     1
102
RTVSPropertyOp30
 70
     1
102
RTVSPropertyOp31
 70
     1
102
RTVSPropertyOp32
 70
     1
  0
XRECORD
  5
A5C
102
{ACAD_REACTORS
330
A5B
102
}
330
A5B
100
AcDbXrecord
280
     1
102
RTVSPropertyOp0
 70
     1
102
RTVSPropertyOp1
 70
     1
102
RTVSPropertyOp2
 70
     1
102
RTVSPropertyOp3
 70
     1
102
RTVSPropertyOp4
 70
     1
102
RTVSPropertyOp5
 70
     1
102
RTVSPropertyOp6
 70
     1
102
RTVSPropertyOp7
 70
     1
102
RTVSPropertyOp8
 70
     1
102
RTVSPropertyOp9
 70
     1
102
RTVSPropertyOp10
 70
     1
102
RTVSPropertyOp11
 70
     1
102
RTVSPropertyOp12
 70
     1
102
RTVSPropertyOp13
 70
     1
102
RTVSPropertyOp14
 70
     1
102
RTVSPropertyOp15
 70
     1
102
RTVSPropertyOp16
 70
     1
102
RTVSPropertyOp17
 70
     1
102
RTVSPropertyOp18
 70
     1
102
RTVSPropertyOp19
 70
     1
102
RTVSPropertyOp20
 70
     1
102
RTVSPropertyOp21
 70
     1
102
RTVSPropertyOp22
 70
     1
102
RTVSPropertyOp23
 70
     1
102
RTVSPropertyOp24
 70
     1
102
RTVSPropertyOp25
 70
     1
102
RTVSPropertyOp26
 70
     1
102
RTVSPropertyOp27
 70
     1
102
RTVSPropertyOp28
 70
     1
102
RTVSPropertyOp29
 70
     1
102
RTVSPropertyOp30
 70
     1
102
RTVSPropertyOp31
 70
     1
102
RTVSPropertyOp32
 70
     1
  0
XRECORD
  5
A52
102
{ACAD_REACTORS
330
A51
102
}
330
A51
100
AcDbXrecord
280
     1
102
RTVSPropertyOp0
 70
     1
102
RTVSPropertyOp1
 70
     1
102
RTVSPropertyOp2
 70
     1
102
RTVSPropertyOp3
 70
     1
102
RTVSPropertyOp4
 70
     1
102
RTVSPropertyOp5
 70
     1
102
RTVSPropertyOp6
 70
     1
102
RTVSPropertyOp7
 70
     1
102
RTVSPropertyOp8
 70
     1
102
RTVSPropertyOp9
 70
     1
102
RTVSPropertyOp10
 70
     1
102
RTVSPropertyOp11
 70
     1
102
RTVSPropertyOp12
 70
     1
102
RTVSPropertyOp13
 70
     1
102
RTVSPropertyOp14
 70
     1
102
RTVSPropertyOp15
 70
     1
102
RTVSPropertyOp16
 70
     1
102
RTVSPropertyOp17
 70
     1
102
RTVSPropertyOp18
 70
     1
102
RTVSPropertyOp19
 70
     1
102
RTVSPropertyOp20
 70
     1
102
RTVSPropertyOp21
 70
     1
102
RTVSPropertyOp22
 70
     1
102
RTVSPropertyOp23
 70
     1
102
RTVSPropertyOp24
 70
     1
102
RTVSPropertyOp25
 70
     1
102
RTVSPropertyOp26
 70
     1
102
RTVSPropertyOp27
 70
     1
102
RTVSPropertyOp28
 70
     1
102
RTVSPropertyOp29
 70
     1
102
RTVSPropertyOp30
 70
     1
102
RTVSPropertyOp31
 70
     1
102
RTVSPropertyOp32
 70
     1
  0
XRECORD
  5
A46
102
{ACAD_REACTORS
330
A45
102
}
330
A45
100
AcDbXrecord
280
     1
102
RTVSPropertyOp0
 70
     1
102
RTVSPropertyOp1
 70
     1
102
RTVSPropertyOp2
 70
     1
102
RTVSPropertyOp3
 70
     1
102
RTVSPropertyOp4
 70
     1
102
RTVSPropertyOp5
 70
     1
102
RTVSPropertyOp6
 70
     1
102
RTVSPropertyOp7
 70
     1
102
RTVSPropertyOp8
 70
     1
102
RTVSPropertyOp9
 70
     1
102
RTVSPropertyOp10
 70
     1
102
RTVSPropertyOp11
 70
     1
102
RTVSPropertyOp12
 70
     1
102
RTVSPropertyOp13
 70
     1
102
RTVSPropertyOp14
 70
     1
102
RTVSPropertyOp15
 70
     1
102
RTVSPropertyOp16
 70
     1
102
RTVSPropertyOp17
 70
     1
102
RTVSPropertyOp18
 70
     1
102
RTVSPropertyOp19
 70
     1
102
RTVSPropertyOp20
 70
     1
102
RTVSPropertyOp21
 70
     1
102
RTVSPropertyOp22
 70
     1
102
RTVSPropertyOp23
 70
     1
102
RTVSPropertyOp24
 70
     1
102
RTVSPropertyOp25
 70
     1
102
RTVSPropertyOp26
 70
     1
102
RTVSPropertyOp27
 70
     1
102
RTVSPropertyOp28
 70
     1
102
RTVSPropertyOp29
 70
     1
102
RTVSPropertyOp30
 70
     1
102
RTVSPropertyOp31
 70
     1
102
RTVSPropertyOp32
 70
     1
  0
XRECORD
  5
A5E
102
{ACAD_REACTORS
330
A5D
102
}
330
A5D
100
AcDbXrecord
280
     1
102
RTVSPropertyOp0
 70
     1
102
RTVSPropertyOp1
 70
     1
102
RTVSPropertyOp2
 70
     1
102
RTVSPropertyOp3
 70
     1
102
RTVSPropertyOp4
 70
     1
102
RTVSPropertyOp5
 70
     1
102
RTVSPropertyOp6
 70
     1
102
RTVSPropertyOp7
 70
     1
102
RTVSPropertyOp8
 70
     1
102
RTVSPropertyOp9
 70
     1
102
RTVSPropertyOp10
 70
     1
102
RTVSPropertyOp11
 70
     1
102
RTVSPropertyOp12
 70
     1
102
RTVSPropertyOp13
 70
     1
102
RTVSPropertyOp14
 70
     1
102
RTVSPropertyOp15
 70
     1
102
RTVSPropertyOp16
 70
     1
102
RTVSPropertyOp17
 70
     1
102
RTVSPropertyOp18
 70
     1
102
RTVSPropertyOp19
 70
     1
102
RTVSPropertyOp20
 70
     1
102
RTVSPropertyOp21
 70
     1
102
RTVSPropertyOp22
 70
     1
102
RTVSPropertyOp23
 70
     1
102
RTVSPropertyOp24
 70
     1
102
RTVSPropertyOp25
 70
     1
102
RTVSPropertyOp26
 70
     1
102
RTVSPropertyOp27
 70
     1
102
RTVSPropertyOp28
 70
     1
102
RTVSPropertyOp29
 70
     1
102
RTVSPropertyOp30
 70
     1
102
RTVSPropertyOp31
 70
     1
102
RTVSPropertyOp32
 70
     1
  0
ENDSEC
  0
EOF
