  0
SECTION
  2
HEADER
  9
$ACADVER
  1
AC1021
  9
$ACADMAINTVER
 70
     1
  9
$DWGCODEPAGE
  3
ANSI_1252
  9
$CUSTOMPROPERTYTAG
  1
AmdtFileType
  9
$CUSTOMPROPERTY
  1
83
  9
$INSBASE
 10
0.0
 20
0.0
 30
0.0
  9
$EXTMIN
 10
82.726525981881
 20
50.92265727834353
 30
0.0
  9
$EXTMAX
 10
412.7895253118681
 20
449.8841681464411
 30
0.0
  9
$LIMMIN
 10
0.0
 20
0.0
  9
$LIMMAX
 10
420.0
 20
297.0
  9
$ORTHOMODE
 70
     0
  9
$REGENMODE
 70
     1
  9
$FILLMODE
 70
     1
  9
$QTEXTMODE
 70
     0
  9
$MIRRTEXT
 70
     1
  9
$LTSCALE
 40
1.0
  9
$ATTMODE
 70
     1
  9
$TEXTSIZE
 40
3.5
  9
$TRACEWID
 40
1.0
  9
$TEXTSTYLE
  7
STANDARD
  9
$CLAYER
  8
AM_0
  9
$CELTYPE
  6
BYLAYER
  9
$CECOLOR
 62
   256
  9
$CELTSCALE
 40
1.0
  9
$DISPSILH
 70
     0
  9
$DIMSCALE
 40
1.0
  9
$DIMASZ
 40
3.0
  9
$DIMEXO
 40
0.0
  9
$DIMDLI
 40
10.0
  9
$DIMRND
 40
0.0
  9
$DIMDLE
 40
0.0
  9
$DIMEXE
 40
1.0
  9
$DIMTP
 40
0.1
  9
$DIMTM
 40
0.1
  9
$DIMTXT
 40
3.5
  9
$DIMCEN
 40
0.0
  9
$DIMTSZ
 40
0.0
  9
$DIMTOL
 70
     0
  9
$DIMLIM
 70
     0
  9
$DIMTIH
 70
     0
  9
$DIMTOH
 70
     0
  9
$DIMSE1
 70
     0
  9
$DIMSE2
 70
     0
  9
$DIMTAD
 70
     1
  9
$DIMZIN
 70
     8
  9
$DIMBLK
  1

  9
$DIMASO
 70
     1
  9
$DIMSHO
 70
     1
  9
$DIMPOST
  1

  9
$DIMAPOST
  1
"
  9
$DIMALT
 70
     0
  9
$DIMALTD
 70
     2
  9
$DIMALTF
 40
0.0393701
  9
$DIMLFAC
 40
1.0
  9
$DIMTOFL
 70
     1
  9
$DIMTVP
 40
0.0
  9
$DIMTIX
 70
     0
  9
$DIMSOXD
 70
     0
  9
$DIMSAH
 70
     0
  9
$DIMBLK1
  1

  9
$DIMBLK2
  1

  9
$DIMSTYLE
  2
AM_ISO
  9
$DIMCLRD
 70
   256
  9
$DIMCLRE
 70
   256
  9
$DIMCLRT
 70
     2
  9
$DIMTFAC
 40
0.71
  9
$DIMGAP
 40
1.5
  9
$DIMJUST
 70
     0
  9
$DIMSD1
 70
     0
  9
$DIMSD2
 70
     0
  9
$DIMTOLJ
 70
     0
  9
$DIMTZIN
 70
     0
  9
$DIMALTZ
 70
     0
  9
$DIMALTTZ
 70
     0
  9
$DIMUPT
 70
     0
  9
$DIMDEC
 70
     2
  9
$DIMTDEC
 70
     2
  9
$DIMALTU
 70
     2
  9
$DIMALTTD
 70
     2
  9
$DIMTXSTY
  7
STANDARD
  9
$DIMAUNIT
 70
     0
  9
$DIMADEC
 70
     0
  9
$DIMALTRND
 40
0.0
  9
$DIMAZIN
 70
     2
  9
$DIMDSEP
 70
    46
  9
$DIMATFIT
 70
     3
  9
$DIMFRAC
 70
     0
  9
$DIMLDRBLK
  1

  9
$DIMLUNIT
 70
     2
  9
$DIMLWD
 70
    -1
  9
$DIMLWE
 70
    -1
  9
$DIMTMOVE
 70
     0
  9
$DIMFXL
 40
1.0
  9
$DIMFXLON
 70
     0
  9
$DIMJOGANG
 40
0.7853981633974483
  9
$DIMTFILL
 70
     0
  9
$DIMTFILLCLR
 70
     0
  9
$DIMARCSYM
 70
     0
  9
$DIMLTYPE
  6

  9
$DIMLTEX1
  6

  9
$DIMLTEX2
  6

  9
$LUNITS
 70
     2
  9
$LUPREC
 70
     4
  9
$SKETCHINC
 40
1.0
  9
$FILLETRAD
 40
10.0
  9
$AUNITS
 70
     0
  9
$AUPREC
 70
     2
  9
$MENU
  1
.
  9
$ELEVATION
 40
0.0
  9
$PELEVATION
 40
0.0
  9
$THICKNESS
 40
0.0
  9
$LIMCHECK
 70
     0
  9
$CHAMFERA
 40
10.0
  9
$CHAMFERB
 40
10.0
  9
$CHAMFERC
 40
20.0
  9
$CHAMFERD
 40
0.0
  9
$SKPOLY
 70
     1
  9
$TDCREATE
 40
2452053.305198924
  9
$TDUCREATE
 40
2452053.263532257
  9
$TDUPDATE
 40
2453964.332849225
  9
$TDUUPDATE
 40
2453964.291182558
  9
$TDINDWG
 40
0.0380291088
  9
$TDUSRTIMER
 40
0.0380288773
  9
$USRTIMER
 70
     1
  9
$ANGBASE
 50
0.0
  9
$ANGDIR
 70
     0
  9
$PDMODE
 70
     0
  9
$PDSIZE
 40
0.0
  9
$PLINEWID
 40
0.0
  9
$SPLFRAME
 70
     0
  9
$SPLINETYPE
 70
     6
  9
$SPLINESEGS
 70
    16
  9
$HANDSEED
  5
31EA
  9
$SURFTAB1
 70
     6
  9
$SURFTAB2
 70
     6
  9
$SURFTYPE
 70
     6
  9
$SURFU
 70
     6
  9
$SURFV
 70
     6
  9
$UCSBASE
  2

  9
$UCSNAME
  2

  9
$UCSORG
 10
0.0
 20
0.0
 30
0.0
  9
$UCSXDIR
 10
1.0
 20
0.0
 30
0.0
  9
$UCSYDIR
 10
0.0
 20
1.0
 30
0.0
  9
$UCSORTHOREF
  2

  9
$UCSORTHOVIEW
 70
     0
  9
$UCSORGTOP
 10
0.0
 20
0.0
 30
0.0
  9
$UCSORGBOTTOM
 10
0.0
 20
0.0
 30
0.0
  9
$UCSORGLEFT
 10
0.0
 20
0.0
 30
0.0
  9
$UCSORGRIGHT
 10
0.0
 20
0.0
 30
0.0
  9
$UCSORGFRONT
 10
0.0
 20
0.0
 30
0.0
  9
$UCSORGBACK
 10
0.0
 20
0.0
 30
0.0
  9
$PUCSBASE
  2

  9
$PUCSNAME
  2

  9
$PUCSORG
 10
0.0
 20
0.0
 30
0.0
  9
$PUCSXDIR
 10
1.0
 20
0.0
 30
0.0
  9
$PUCSYDIR
 10
0.0
 20
1.0
 30
0.0
  9
$PUCSORTHOREF
  2

  9
$PUCSORTHOVIEW
 70
     0
  9
$PUCSORGTOP
 10
0.0
 20
0.0
 30
0.0
  9
$PUCSORGBOTTOM
 10
0.0
 20
0.0
 30
0.0
  9
$PUCSORGLEFT
 10
0.0
 20
0.0
 30
0.0
  9
$PUCSORGRIGHT
 10
0.0
 20
0.0
 30
0.0
  9
$PUCSORGFRONT
 10
0.0
 20
0.0
 30
0.0
  9
$PUCSORGBACK
 10
0.0
 20
0.0
 30
0.0
  9
$USERI1
 70
     0
  9
$USERI2
 70
     0
  9
$USERI3
 70
     0
  9
$USERI4
 70
     0
  9
$USERI5
 70
     0
  9
$USERR1
 40
0.0
  9
$USERR2
 40
0.0
  9
$USERR3
 40
0.0
  9
$USERR4
 40
0.0
  9
$USERR5
 40
0.0
  9
$WORLDVIEW
 70
     1
  9
$SHADEDGE
 70
     3
  9
$SHADEDIF
 70
    70
  9
$TILEMODE
 70
     1
  9
$MAXACTVP
 70
    48
  9
$PINSBASE
 10
0.0
 20
0.0
 30
0.0
  9
$PLIMCHECK
 70
     0
  9
$PEXTMIN
 10
1.000000000000000E+20
 20
1.000000000000000E+20
 30
1.000000000000000E+20
  9
$PEXTMAX
 10
-1.000000000000000E+20
 20
-1.000000000000000E+20
 30
-1.000000000000000E+20
  9
$PLIMMIN
 10
-5.027083396911621
 20
-5.111741065979003
  9
$PLIMMAX
 10
204.9885873794556
 20
291.8989095687866
  9
$UNITMODE
 70
     0
  9
$VISRETAIN
 70
     1
  9
$PLINEGEN
 70
     0
  9
$PSLTSCALE
 70
     1
  9
$TREEDEPTH
 70
  3020
  9
$CMLSTYLE
  2
STANDARD
  9
$CMLJUST
 70
     0
  9
$CMLSCALE
 40
1.0
  9
$PROXYGRAPHICS
 70
     1
  9
$MEASUREMENT
 70
     1
  9
$CELWEIGHT
370
    -1
  9
$ENDCAPS
280
     0
  9
$JOINSTYLE
280
     0
  9
$LWDISPLAY
290
     0
  9
$INSUNITS
 70
     0
  9
$HYPERLINKBASE
  1

  9
$STYLESHEET
  1
LAA4.ctb
  9
$XEDIT
290
     1
  9
$CEPSNTYPE
380
     0
  9
$PSTYLEMODE
290
     1
  9
$FINGERPRINTGUID
  2
{9DE0F4BE-022B-11D3-8698-0060B085A428}
  9
$VERSIONGUID
  2
{868AD0EA-9036-4C6F-8367-CBD8EE1E7367}
  9
$EXTNAMES
290
     1
  9
$PSVPSCALE
 40
0.0
  9
$OLESTARTUP
290
     0
  9
$SORTENTS
280
    96
  9
$INDEXCTL
280
     1
  9
$HIDETEXT
280
     0
  9
$XCLIPFRAME
290
     0
  9
$HALOGAP
280
     0
  9
$OBSCOLOR
 70
   257
  9
$OBSLTYPE
280
     0
  9
$INTERSECTIONDISPLAY
280
     0
  9
$INTERSECTIONCOLOR
 70
   257
  9
$DIMASSOC
280
     1
  9
$PROJECTNAME
  1

  9
$CAMERADISPLAY
290
     0
  9
$LENSLENGTH
 40
50.0
  9
$CAMERAHEIGHT
 40
0.0
  9
$STEPSPERSEC
 40
2.0
  9
$STEPSIZE
 40
6.0
  9
$3DDWFPREC
 40
2.0
  9
$PSOLWIDTH
 40
0.25
  9
$PSOLHEIGHT
 40
4.0
  9
$LOFTANG1
 40
1.570796326794896
  9
$LOFTANG2
 40
1.570796326794896
  9
$LOFTMAG1
 40
0.0
  9
$LOFTMAG2
 40
0.0
  9
$LOFTPARAM
 70
     7
  9
$LOFTNORMALS
280
     1
  9
$LATITUDE
 40
37.795
  9
$LONGITUDE
 40
-122.394
  9
$NORTHDIRECTION
 40
0.0
  9
$TIMEZONE
 70
 -8000
  9
$LIGHTGLYPHDISPLAY
280
     1
  9
$TILEMODELIGHTSYNCH
280
     1
  9
$CMATERIAL
347
31AC
  9
$SOLIDHIST
280
     1
  9
$SHOWHIST
280
     1
  9
$DWFFRAME
280
     2
  9
$DGNFRAME
280
     0
  9
$REALWORLDSCALE
290
     1
  9
$INTERFERECOLOR
 62
     1
  9
$INTERFEREOBJVS
345
31B9
  9
$INTERFEREVPVS
346
31B6
  9
$CSHADOW
280
     0
  9
$SHADOWPLANELOCATION
 40
0.0
  0
ENDSEC
  0
SECTION
  2
CLASSES
  0
CLASS
  1
DICTIONARYVAR
  2
AcDbDictionaryVar
  3
ObjectDBX Classes
 90
        0
 91
        4
280
     0
281
     0
  0
CLASS
  1
ACMESTATEMGR
  2
AcMeStateMgr
  3
AcMeServices
 90
        0
 91
        1
280
     0
281
     0
  0
CLASS
  1
ACMESCOPE
  2
AcMeScope
  3
AcMeServices
 90
        0
 91
        1
280
     0
281
     0
  0
CLASS
  1
ACMECOMMANDHISTORY
  2
AcMeCommandHistory
  3
AcMeServices
 90
        0
 91
        1
280
     0
281
     0
  0
CLASS
  1
ACRFINSADJUSTERMGR
  2
AcRfInsAdjusterMgr
  3
AcMeServices
 90
        0
 91
        1
280
     0
281
     0
  0
CLASS
  1
ACMEDRAWINGMAN
  2
AcMeDrawingMan
  3
AcMeServices
 90
        0
 91
        1
280
     0
281
     0
  0
CLASS
  1
AMATTR
  2
AcMeAttribute
  3
AcMeServices
 90
        0
 91
        0
280
     0
281
     0
  0
CLASS
  1
ACMEBOMCOLUMN
  2
AcMeBOMColumn
  3
AcMeServices
 90
        0
 91
        0
280
     0
281
     0
  0
CLASS
  1
ACMEBOMCONF
  2
AcMeBOMConf
  3
AcMeServices
 90
        0
 91
        0
280
     0
281
     0
  0
CLASS
  1
ACMEBOMTABLE
  2
AcMeBOMTable
  3
AcMeServices
 90
        0
 91
        0
280
     0
281
     0
  0
CLASS
  1
ACMEBOMENTRY
  2
AcMeBOMEntry
  3
AcMeServices
 90
        0
 91
        0
280
     0
281
     0
  0
CLASS
  1
ACMEVIEW
  2
AcMeView
  3
AcMeServices
 90
        0
 91
        0
280
     0
281
     0
  0
CLASS
  1
ACGREFMASTER
  2
AcGrefMaster
  3
AcAttribServices
 90
        0
 91
        1
280
     0
281
     0
  0
CLASS
  1
AMIMASTER
  2
AmiMaster
  3
AmiServices
 90
        0
 91
        1
280
     0
281
     0
  0
CLASS
  1
ACASGREFMASTER
  2
AcAsGrefMaster
  3
AutoSurfResolverServices
 90
        0
 91
        1
280
     0
281
     0
  0
CLASS
  1
ADAPPL
  2
AcAdAppl
  3
DesignerServices
 90
        0
 91
        1
280
     0
281
     0
  0
CLASS
  1
DEPMGR
  2
AcAdDepMgr
  3
DesignerServices
 90
        0
 91
        1
280
     0
281
     0
  0
CLASS
  1
PARAMMGR
  2
AcAdParamMgr
  3
DesignerServices
 90
        0
 91
        1
280
     0
281
     0
  0
CLASS
  1
PARAMSCOPE
  2
AcAdParamScope
  3
DesignerServices
 90
        0
 91
        3
280
     0
281
     0
  0
CLASS
  1
ACIMSYSVARMAN
  2
AcImSysVarManager
  3
AcMeServices
 90
        0
 91
        6
280
     0
281
     0
  0
CLASS
  1
ACIMINTSYSVAR
  2
AcImIntSysVar
  3
AcMeServices
 90
        0
 91
       47
280
     0
281
     0
  0
CLASS
  1
ACIMREALSYSVAR
  2
AcImRealSysVar
  3
AcMeServices
 90
        0
 91
       16
280
     0
281
     0
  0
CLASS
  1
ACIMSTRSYSVAR
  2
AcImStrSysVar
  3
AcMeServices
 90
        0
 91
       14
280
     0
281
     0
  0
CLASS
  1
NAMEDAPPL
  2
AcAdNamedAppl
  3
DesignerServices
 90
        0
 91
        1
280
     0
281
     0
  0
CLASS
  1
ADHNTMPLT
  2
AdHoleNoteTemplateMgr
  3
DesignerServices
 90
        0
 91
        0
280
     0
281
     0
  0
CLASS
  1
AM_HNTEMPLATE_MGR_NAME
  2
AdHoleNoteTemplateMgrName
  3
DesignerServices
 90
        0
 91
        0
280
     0
281
     0
  0
CLASS
  1
ACADGREFMODULE
  2
AcAdGrefModule
  3
AdGrefServices
 90
        0
 91
        1
280
     0
281
     0
  0
CLASS
  1
AM_DRAWING_MGR
  2
AcDmDwgMgr
  3
AcMechDwgViewMgmt
 90
        0
 91
        1
280
     0
281
     0
  0
CLASS
  1
AM_DWG_DOCUMENT
  2
AcDmDwgDocument
  3
AcMechDwgViewMgmt
 90
        0
 91
        1
280
     0
281
     0
  0
CLASS
  1
AM_DWG_SHEET
  2
AcDmSheet
  3
AcMechDwgViewMgmt
 90
        0
 91
        5
280
     0
281
     0
  0
CLASS
  1
AM_VIEWDIMPARMAP
  2
AcDmViewDimParMap
  3
AcMechDwgViewMgmt
 90
        0
 91
        5
280
     0
281
     0
  0
CLASS
  1
AM_DWGMGR_NAME
  2
AcDmDwgMgrName
  3
AcMechDwgViewMgmt
 90
        0
 91
        1
280
     0
281
     0
  0
CLASS
  1
ACAMPROJECT
  2
AcAmProject
  3
DesignerAssemblies
 90
        0
 91
        1
280
     0
281
     0
  0
CLASS
  1
ACAMGRCOMPSET
  2
AcAmGrCompSet
  3
DesignerAssemblies
 90
        0
 91
        0
280
     0
281
     0
  0
CLASS
  1
ACAMGRCOMPDEFSET
  2
AcAmGrCompDefSet
  3
DesignerAssemblies
 90
        0
 91
        1
280
     0
281
     0
  0
CLASS
  1
ACAMGRCOMPDEF
  2
AcAmGrCompDef
  3
DesignerAssemblies
 90
        0
 91
        2
280
     0
281
     0
  0
CLASS
  1
ACCMCONTEXT
  2
AcCmContext
  3
DesignerAssemblies
 90
        0
 91
        2
280
     0
281
     0
  0
CLASS
  1
ACAMCOMPDEF
  2
AcAmCompDef
  3
DesignerAssemblies
 90
        0
 91
        2
280
     0
281
     0
  0
CLASS
  1
ACAMCOMPDEFMGR
  2
AcAmCompDefMgr
  3
DesignerAssemblies
 90
        0
 91
        1
280
     0
281
     0
  0
CLASS
  1
AMCONTEXTMGR
  2
AcAmContextMgr
  3
DesignerAssemblies
 90
        0
 91
        1
280
     0
281
     0
  0
CLASS
  1
ACAMCONTEXTMODELER
  2
AcAmContextModeler
  3
DesignerAssemblies
 90
        0
 91
        0
280
     0
281
     0
  0
CLASS
  1
ACDMVIEWGEOM
  2
AcDmViewGeometry
  3
AcMechDwgViewMgmt
 90
        0
 91
        1
280
     0
281
     1
  0
CLASS
  1
CBROWSERAPPOBJECT
  2
CBrowserAppObject
  3
McadcomServices
 90
        0
 91
        3
280
     0
281
     0
  0
CLASS
  1
IM_STATIC_MAN
  2
AcImStaticVarManager
  3
AcMeServices
 90
        0
 91
        1
280
     0
281
     0
  0
CLASS
  1
ASAPP
  2
AcAsAppObject
  3
AutoSurfServices
 90
        0
 91
        1
280
     0
281
     0
  0
CLASS
  1
ACIMDBLSTATICVAR
  2
AcImDblStaticVar
  3
AcMeServices
 90
        0
 91
       22
280
     0
281
     0
  0
CLASS
  1
ACIMSTRSTATICVAR
  2
AcImStrStaticVar
  3
AcMeServices
 90
        0
 91
       13
280
     0
281
     0
  0
CLASS
  1
ACIMINTSTATICVAR
  2
AcImIntStaticVar
  3
AcMeServices
 90
        0
 91
       17
280
     0
281
     0
  0
CLASS
  1
CATALOGSTATE
  2
AcAmCatalogState
  3
DesignerAssemblies
 90
        0
 91
        1
280
     0
281
     0
  0
CLASS
  1
DM_PLACEHOLDER
  2
AcDmSelsetPlaceholder
  3
AcMechDwgViewMgmt
 90
        0
 91
        1
280
     0
281
     0
  0
CLASS
  1
LAYER_INDEX
  2
AcDbLayerIndex
  3
ObjectDBX Classes
 90
        0
 91
        1
280
     0
281
     0
  0
CLASS
  1
IDBUFFER
  2
AcDbIdBuffer
  3
ObjectDBX Classes
 90
        0
 91
       25
280
     0
281
     0
  0
CLASS
  1
ACMSTANDARDJIS
  2
AcmStandardJIS
  3
"Amdt_StdImp|Product Description: AutoCAD Mechanical|Company: Autodesk"
 90
        0
 91
        1
280
     0
281
     0
  0
CLASS
  1
ACMSTANDARDANSI
  2
AcmStandardANSI
  3
"Amdt_StdImp|Product Description: AutoCAD Mechanical|Company: Autodesk"
 90
        0
 91
        1
280
     0
281
     0
  0
CLASS
  1
ACMSTANDARDBSI
  2
AcmStandardBSI
  3
"Amdt_StdImp|Product Description: AutoCAD Mechanical|Company: Autodesk"
 90
        0
 91
        1
280
     0
281
     0
  0
CLASS
  1
ACMSTANDARDDIN
  2
AcmStandardDIN
  3
"Amdt_StdImp|Product Description: AutoCAD Mechanical|Company: Autodesk"
 90
        0
 91
        1
280
     0
281
     0
  0
CLASS
  1
ACMSTANDARDISO
  2
AcmStandardISO
  3
"Amdt_StdImp|Product Description: AutoCAD Mechanical|Company: Autodesk"
 90
        0
 91
        1
280
     0
281
     0
  0
CLASS
  1
ACDBDICTIONARYWDFLT
  2
AcDbDictionaryWithDefault
  3
ObjectDBX Classes
 90
        0
 91
        1
280
     0
281
     0
  0
CLASS
  1
ACME_DOCUMENT
  2
AcMeDbDoc
  3
AcMeServices
 90
        0
 91
        2
280
     0
281
     0
  0
CLASS
  1
AMGSETTINGSOBJ
  2
AmgSettingsObj
  3
"AcadM|Product Description: AutoCAD Mechanical|Company: Autodesk"
 90
        0
 91
        4
280
     0
281
     0
  0
CLASS
  1
AMGOBJPROPCFG
  2
AmgObjPropCfg
  3
"AmgLay|Product Description: AutoCAD Mechanical|Company: Autodesk"
 90
        1
 91
        1
280
     0
281
     0
  0
CLASS
  1
ACDBENTITYCACHE
  2
AcMeEntityCache
  3
AcMeServices
 90
        0
 91
        1
280
     0
281
     0
  0
CLASS
  1
GSMANAGER
  2
AcMeGSManager
  3
AcMeServices
 90
        0
 91
        1
280
     0
281
     0
  0
CLASS
  1
AMDTINTERNALREACTOR
  2
AmdtInternalReactor
  3
AcMeServices
 90
        0
 91
        6
280
     0
281
     0
  0
CLASS
  1
ACME_DATABASE
  2
AcMeDbDatabase
  3
AcMeServices
 90
        0
 91
        1
280
     0
281
     0
  0
CLASS
  1
ACGREFACADMASTER
  2
AcGrefacadMaster
  3
AcGrefServices
 90
        0
 91
        1
280
     0
281
     0
  0
CLASS
  1
AMDTMENUSTATEMGR
  2
AmdtMenuStateMgr
  3
McadcomServices
 90
        0
 91
        1
280
     0
281
     0
  0
CLASS
  1
AMDTMCOMMENUSTATE
  2
AmdtMcomMenuState
  3
McadcomServices
 90
        0
 91
        1
280
     0
281
     0
  0
CLASS
  1
MAPIADMODULE
  2
MApiAdModule
  3
MApiAdServices
 90
        0
 91
        1
280
     0
281
     0
  0
CLASS
  1
AMDTDMMENUSTATE
  2
AmdtDmMenuState
  3
AcMechDwgViewMgmt
 90
        0
 91
        1
280
     0
281
     0
  0
CLASS
  1
AMDTADMENUSTATE
  2
AmdtAdMenuState
  3
DesignerServices
 90
        0
 91
        1
280
     0
281
     0
  0
CLASS
  1
AMDTAMMENUSTATE
  2
AmdtAmMenuState
  3
DesignerAssemblies
 90
        0
 91
        1
280
     0
281
     0
  0
CLASS
  1
ACMDATADICTIONARY
  2
AcmDataDictionary
  3
"AcmSymBB|Product Description: AutoCAD Mechanical|Company: Autodesk"
 90
        0
 91
        1
280
     0
281
     0
  0
CLASS
  1
ACMDATAENTRYBLOCK
  2
AcmDataEntryBlock
  3
"AcmSymBB|Product Description: AutoCAD Mechanical|Company: Autodesk"
 90
        0
 91
        1
280
     0
281
     0
  0
CLASS
  1
ACMSURFSTANDARDJIS
  2
AcmSurfTextStdJIS
  3
"Amdt_StdImp|Product Description: AutoCAD Mechanical|Company: Autodesk"
 90
        0
 91
        1
280
     0
281
     0
  0
CLASS
  1
ACMFCFSTANDARDJIS
  2
AcmFCFStdJIS
  3
"Amdt_StdImp|Product Description: AutoCAD Mechanical|Company: Autodesk"
 90
        0
 91
        1
280
     0
281
     0
  0
CLASS
  1
ACMWELDSTANDARDJIS
  2
AcmWeldingStdJIS
  3
"Amdt_StdImp|Product Description: AutoCAD Mechanical|Company: Autodesk"
 90
        0
 91
        1
280
     0
281
     0
  0
CLASS
  1
ACMIDSTANDARDJIS
  2
AcmIdStdJIS
  3
"Amdt_StdImp|Product Description: AutoCAD Mechanical|Company: Autodesk"
 90
        0
 91
        1
280
     0
281
     0
  0
CLASS
  1
ACMDATUMSTANDARDJIS
  2
AcmDatumStdJIS
  3
"Amdt_StdImp|Product Description: AutoCAD Mechanical|Company: Autodesk"
 90
        0
 91
        1
280
     0
281
     0
  0
CLASS
  1
ACMBOMSTANDARDJIS
  2
AcmBOMStdJIS
  3
"Amdt_StdImp|Product Description: AutoCAD Mechanical|Company: Autodesk"
 90
        0
 91
        1
280
     0
281
     0
  0
CLASS
  1
ACMSURFSTANDARDANSI
  2
AcmSurfTextStdANSI
  3
"Amdt_StdImp|Product Description: AutoCAD Mechanical|Company: Autodesk"
 90
        0
 91
        1
280
     0
281
     0
  0
CLASS
  1
ACMFCFSTANDARDANSI
  2
AcmFCFStdANSI
  3
"Amdt_StdImp|Product Description: AutoCAD Mechanical|Company: Autodesk"
 90
        0
 91
        1
280
     0
281
     0
  0
CLASS
  1
ACMWELDSTANDARDANSI
  2
AcmWeldingStdANSI
  3
"Amdt_StdImp|Product Description: AutoCAD Mechanical|Company: Autodesk"
 90
        0
 91
        1
280
     0
281
     0
  0
CLASS
  1
ACMIDSTANDARDANSI
  2
AcmIdStdANSI
  3
"Amdt_StdImp|Product Description: AutoCAD Mechanical|Company: Autodesk"
 90
        0
 91
        1
280
     0
281
     0
  0
CLASS
  1
ACMDATUMSTANDARDANSI
  2
AcmDatumStdANSI
  3
"Amdt_StdImp|Product Description: AutoCAD Mechanical|Company: Autodesk"
 90
        0
 91
        1
280
     0
281
     0
  0
CLASS
  1
ACMBOMSTANDARDANSI
  2
AcmBOMStdANSI
  3
"Amdt_StdImp|Product Description: AutoCAD Mechanical|Company: Autodesk"
 90
        0
 91
        1
280
     0
281
     0
  0
CLASS
  1
ACMSURFSTANDARDBSI
  2
AcmSurfTextStdBSI
  3
"Amdt_StdImp|Product Description: AutoCAD Mechanical|Company: Autodesk"
 90
        0
 91
        1
280
     0
281
     0
  0
CLASS
  1
ACMFCFSTANDARDBSI
  2
AcmFCFStdBSI
  3
"Amdt_StdImp|Product Description: AutoCAD Mechanical|Company: Autodesk"
 90
        0
 91
        1
280
     0
281
     0
  0
CLASS
  1
ACMWELDSTANDARDBSI
  2
AcmWeldingStdBSI
  3
"Amdt_StdImp|Product Description: AutoCAD Mechanical|Company: Autodesk"
 90
        0
 91
        1
280
     0
281
     0
  0
CLASS
  1
ACMIDSTANDARDBSI
  2
AcmIdStdBSI
  3
"Amdt_StdImp|Product Description: AutoCAD Mechanical|Company: Autodesk"
 90
        0
 91
        1
280
     0
281
     0
  0
CLASS
  1
ACMDATUMSTANDARDBSI
  2
AcmDatumStdBSI
  3
"Amdt_StdImp|Product Description: AutoCAD Mechanical|Company: Autodesk"
 90
        0
 91
        1
280
     0
281
     0
  0
CLASS
  1
ACMBOMSTANDARDBSI
  2
AcmBOMStdBSI
  3
"Amdt_StdImp|Product Description: AutoCAD Mechanical|Company: Autodesk"
 90
        0
 91
        1
280
     0
281
     0
  0
CLASS
  1
AMDTEDGESTANDARDDIN
  2
AmdtEdgeStdDIN
  3
"Amdt_StdImp|Product Description: AutoCAD Mechanical|Company: Autodesk"
 90
        0
 91
        1
280
     0
281
     0
  0
CLASS
  1
ACMSURFSTANDARDDIN
  2
AcmSurfTextStdDIN
  3
"Amdt_StdImp|Product Description: AutoCAD Mechanical|Company: Autodesk"
 90
        0
 91
        1
280
     0
281
     0
  0
CLASS
  1
ACMFCFSTANDARDDIN
  2
AcmFCFStdDIN
  3
"Amdt_StdImp|Product Description: AutoCAD Mechanical|Company: Autodesk"
 90
        0
 91
        1
280
     0
281
     0
  0
CLASS
  1
ACMWELDSTANDARDDIN
  2
AcmWeldingStdDIN
  3
"Amdt_StdImp|Product Description: AutoCAD Mechanical|Company: Autodesk"
 90
        0
 91
        1
280
     0
281
     0
  0
CLASS
  1
ACMIDSTANDARDDIN
  2
AcmIdStdDIN
  3
"Amdt_StdImp|Product Description: AutoCAD Mechanical|Company: Autodesk"
 90
        0
 91
        1
280
     0
281
     0
  0
CLASS
  1
ACMDATUMSTANDARDDIN
  2
AcmDatumStdDIN
  3
"Amdt_StdImp|Product Description: AutoCAD Mechanical|Company: Autodesk"
 90
        0
 91
        1
280
     0
281
     0
  0
CLASS
  1
ACMBOMSTANDARDDIN
  2
AcmBOMStdDIN
  3
"Amdt_StdImp|Product Description: AutoCAD Mechanical|Company: Autodesk"
 90
        0
 91
        1
280
     0
281
     0
  0
CLASS
  1
ACMSURFSTANDARDISO
  2
AcmSurfTextStdISO
  3
"Amdt_StdImp|Product Description: AutoCAD Mechanical|Company: Autodesk"
 90
        0
 91
        1
280
     0
281
     0
  0
CLASS
  1
ACMFCFSTANDARDISO
  2
AcmFCFStdISO
  3
"Amdt_StdImp|Product Description: AutoCAD Mechanical|Company: Autodesk"
 90
        0
 91
        1
280
     0
281
     0
  0
CLASS
  1
ACMWELDSTANDARDISO
  2
AcmWeldingStdISO
  3
"Amdt_StdImp|Product Description: AutoCAD Mechanical|Company: Autodesk"
 90
        0
 91
        1
280
     0
281
     0
  0
CLASS
  1
ACMIDSTANDARDISO
  2
AcmIdStdISO
  3
"Amdt_StdImp|Product Description: AutoCAD Mechanical|Company: Autodesk"
 90
        0
 91
        1
280
     0
281
     0
  0
CLASS
  1
ACMDATUMSTANDARDISO
  2
AcmDatumStdISO
  3
"Amdt_StdImp|Product Description: AutoCAD Mechanical|Company: Autodesk"
 90
        0
 91
        1
280
     0
281
     0
  0
CLASS
  1
ACMBOMSTANDARDISO
  2
AcmBOMStdISO
  3
"Amdt_StdImp|Product Description: AutoCAD Mechanical|Company: Autodesk"
 90
        0
 91
        1
280
     0
281
     0
  0
CLASS
  1
AMDTBROWSERDBTAB
  2
AmdtBrowserDbTab
  3
McadcomServices
 90
        0
 91
        1
280
     0
281
     0
  0
CLASS
  1
ACAMGFILTERDAT
  2
AcAmgFilterDat
  3
"AcadM|Product Description: AutoCAD Mechanical|Company: Autodesk"
 90
        0
 91
        4
280
     0
281
     0
  0
CLASS
  1
MAPIAMMOUDLE
  2
MApiAmModule
  3
MApiAmServices
 90
        0
 91
        1
280
     0
281
     0
  0
CLASS
  1
PLOTSETTINGS
  2
AcDbPlotSettings
  3
ObjectDBX Classes
 90
        0
 91
        7
280
     0
281
     0
  0
CLASS
  1
ACRFATTGENMGR
  2
AcRfAttGeneralMgr
  3
AcAttribServices
 90
        0
 91
        1
280
     0
281
     0
  0
CLASS
  1
ACAMGRBLOCKRECORD
  2
AcAmGrBlockRecord
  3
DesignerAssemblies
 90
        0
 91
        2
280
     0
281
     0
  0
CLASS
  1
ACAMVIEWREACTOR
  2
AcAmViewReactor
  3
DesignerAssemblies
 90
        0
 91
        0
280
     0
281
     0
  0
CLASS
  1
ACAMCOMPENT
  2
AcAmCompEnt
  3
DesignerAssemblies
 90
        0
 91
        0
280
     0
281
     1
  0
CLASS
  1
AMVIEW
  2
AcAmView
  3
DesignerAssemblies
 90
        0
 91
        0
280
     0
281
     0
  0
CLASS
  1
ACAMVIEWCONTEXT
  2
AcAmViewContext
  3
DesignerAssemblies
 90
        0
 91
        0
280
     0
281
     0
  0
CLASS
  1
ADPART
  2
AcAdPart
  3
DesignerServices
 90
        0
 91
        2
280
     0
281
     1
  0
CLASS
  1
ADBASE
  2
AcAdBase
  3
DesignerServices
 90
        0
 91
        2
280
     0
281
     0
  0
CLASS
  1
BODYID
  2
AcAdBodyId
  3
DesignerServices
 90
        0
 91
        2
280
     0
281
     0
  0
CLASS
  1
WORKPLANEDISPLAYMGR
  2
AcAdDisplayMgr
  3
DesignerServices
 90
        0
 91
        2
280
     0
281
     0
  0
CLASS
  1
ACCMBODY
  2
AcCmBody
  3
DesignerAssemblies
 90
        0
 91
        0
280
     0
281
     0
  0
CLASS
  1
ACAMCOMPFEEDBACK
  2
AcAmCompFeedback
  3
DesignerAssemblies
 90
        0
 91
        0
280
     0
281
     0
  0
CLASS
  1
ACAMCOMP
  2
AcAmComp
  3
DesignerAssemblies
 90
        0
 91
        0
280
     0
281
     0
  0
CLASS
  1
ACAMCOMPENTCLONE
  2
AcAmCompEntClone
  3
DesignerAssemblies
 90
        0
 91
        0
280
     0
281
     1
  0
CLASS
  1
ACAMCLONEREACTOR
  2
AcAmGrCompCloneReactor
  3
DesignerAssemblies
 90
        0
 91
        0
280
     0
281
     0
  0
CLASS
  1
ADDATUMPLANEABS
  2
AcAdDatumPlaneAbs
  3
DesignerServices
 90
        0
 91
        5
280
     0
281
     0
  0
CLASS
  1
ADDATUMAXISABS
  2
AcAdDatumAxisAbs
  3
DesignerServices
 90
        0
 91
        4
280
     0
281
     0
  0
CLASS
  1
ADDATUMORIENTEDPLANE
  2
AcAdDatumOrientedPlane
  3
DesignerServices
 90
        0
 91
        4
280
     0
281
     0
  0
CLASS
  1
ACAD_LINE
  2
AcAdLine
  3
DesignerServices
 90
        0
 91
        0
280
     0
281
     1
  0
CLASS
  1
ACADLINEACAD
  2
AcAdVirtualBoundedLineAcad
  3
DesignerServices
 90
        0
 91
       12
280
     0
281
     0
  0
CLASS
  1
ACADREFLINEACAD
  2
AcAdVirtualReferenceLine
  3
DesignerServices
 90
        0
 91
        8
280
     0
281
     0
  0
CLASS
  1
ACADCONSLINE
  2
AcAdConstrainedLine
  3
DesignerServices
 90
        0
 91
       21
280
     0
281
     0
  0
CLASS
  1
ACADCONSGROUP
  2
AcAdConstraintGroup
  3
DesignerServices
 90
        0
 91
        4
280
     0
281
     0
  0
CLASS
  1
ACADIMPPTACAD
  2
AcAdVirtualImplicitPoint
  3
DesignerServices
 90
        0
 91
       25
280
     0
281
     0
  0
CLASS
  1
ACADCONSPOINT
  2
AcAdConstrainedPoint
  3
DesignerServices
 90
        0
 91
       20
280
     0
281
     0
  0
CLASS
  1
ADPCURCNS
  2
AcAdPointCurveConstr
  3
DesignerServices
 90
        0
 91
       24
280
     0
281
     0
  0
CLASS
  1
ADHORCNS
  2
AcAdHorizontalConstr
  3
DesignerServices
 90
        0
 91
        4
280
     0
281
     0
  0
CLASS
  1
ADVERCNS
  2
AcAdVerticalConstr
  3
DesignerServices
 90
        0
 91
        4
280
     0
281
     0
  0
CLASS
  1
ADCLPROF2D
  2
AcAdClosedProfile2d
  3
DesignerServices
 90
        0
 91
        3
280
     0
281
     0
  0
CLASS
  1
ACAD_FIXCONSTRAINT
  2
AcAdFixedConstraint
  3
DesignerServices
 90
        0
 91
        1
280
     0
281
     0
  0
CLASS
  1
ACMELINEARARROW
  2
AcImLinearArrowDisplay
  3
AcMeServices
 90
        0
 91
        0
280
     0
281
     1
  0
CLASS
  1
PARAM
  2
AcAdParam
  3
DesignerServices
 90
        0
 91
       23
280
     0
281
     0
  0
CLASS
  1
ACADVOLFEATWITHTRIM
  2
AcAdVolFeatWithTrim
  3
DesignerServices
 90
        0
 91
        3
280
     0
281
     0
  0
CLASS
  1
DEPEDGEFEATUREORDERING
  2
AcAdDepEdgeFeatureOrdering
  3
DesignerServices
 90
        0
 91
        3
280
     0
281
     0
  0
CLASS
  1
ADWORKPOINTDISPLAY
  2
AcAdWorkPointDisplay
  3
DesignerServices
 90
        0
 91
        1
280
     0
281
     1
  0
CLASS
  1
ADVIRTUALPOINTWORKPOINTFREE
  2
AcAdVirtualPointWorkPointFree
  3
DesignerServices
 90
        0
 91
        1
280
     0
281
     0
  0
CLASS
  1
ADWORKPOINTSKETCH
  2
AcAdWorkPointSketch
  3
DesignerServices
 90
        0
 91
        1
280
     0
281
     0
  0
CLASS
  1
ACADPARTDATUMPOINTRES
  2
AcAdPartDatumPointRes
  3
AdGrefServices
 90
        0
 91
        0
280
     0
281
     0
  0
CLASS
  1
ACRFINSADJ
  2
AcRfInsAdjuster
  3
AcMeServices
 90
        0
 91
        0
280
     0
281
     0
  0
CLASS
  1
DATUMPLANEDISPLAY
  2
AcAdDatumPlaneDisplay
  3
DesignerServices
 90
        0
 91
        5
280
     0
281
     1
  0
CLASS
  1
ACADPARTDATUMPLANERES
  2
AcAdPartDatumPlaneRes
  3
AdGrefServices
 90
        0
 91
        0
280
     0
281
     0
  0
CLASS
  1
ACMEPLINE
  2
AcImPlineDisplay
  3
AcMeServices
 90
        0
 91
        0
280
     0
281
     1
  0
CLASS
  1
ACAD_CIRCLE
  2
AcAdCircle
  3
DesignerServices
 90
        0
 91
        0
280
     0
281
     1
  0
CLASS
  1
ACADCIRCLEACAD
  2
AcAdVirtualCircleAcad
  3
DesignerServices
 90
        0
 91
        1
280
     0
281
     0
  0
CLASS
  1
ACADCONSCIRCLE
  2
AcAdConstrainedCircle
  3
DesignerServices
 90
        0
 91
        1
280
     0
281
     0
  0
CLASS
  1
ADCTRPTCNS
  2
AcAdCenterPointConstr
  3
DesignerServices
 90
        0
 91
        1
280
     0
281
     0
  0
CLASS
  1
ACDBCIRCARCRES
  2
AcDbCircArcRes
  3
AcGrefServices
 90
        0
 91
        0
280
     0
281
     0
  0
CLASS
  1
ACADSKETCHCIRCARCRES
  2
AcAdSketchCircArcRes
  3
DesignerServices
 90
        0
 91
        1
280
     0
281
     0
  0
CLASS
  1
ADVIRTUALPOINTWORKPOINTFIXED
  2
AcAdVirtualPointWorkPointFixed
  3
DesignerServices
 90
        0
 91
        6
280
     0
281
     0
  0
CLASS
  1
ADHDISTCNS
  2
AcAdHorizontalDistanceConstr
  3
DesignerServices
 90
        0
 91
        5
280
     0
281
     0
  0
CLASS
  1
ACADSKETCHPOINTRES
  2
AcAdSketchPointRes
  3
DesignerServices
 90
        0
 91
       20
280
     0
281
     0
  0
CLASS
  1
ADVDISTCNS
  2
AcAdVerticalDistanceConstr
  3
DesignerServices
 90
        0
 91
        7
280
     0
281
     0
  0
CLASS
  1
ADACADDIACNS
  2
AcAdAcadDiameterConstr
  3
DesignerServices
 90
        0
 91
        1
280
     0
281
     0
  0
CLASS
  1
AMIINSTATTCLASSRECORD
  2
AmiInstAttClassRecord
  3
AcAttribServices
 90
        0
 91
        1
280
     0
281
     0
  0
CLASS
  1
AMIINSTATTIMP
  2
AmiInstAttImp
  3
AcAttribServices
 90
        1
 91
        2
280
     0
281
     0
  0
CLASS
  1
ACRFOBJATTMGR
  2
AcRfObjAttGroupMgr
  3
AcAttribServices
 90
        0
 91
        2
280
     0
281
     0
  0
CLASS
  1
ACRFMCADAPIATTHOLDER
  2
AcRfMCADAPIAttHolder
  3
AcAttribServices
 90
        0
 91
        1
280
     0
281
     0
  0
CLASS
  1
FACEID
  2
AcAdFaceId
  3
DesignerServices
 90
        0
 91
        0
280
     0
281
     0
  0
CLASS
  1
ACADPARTCYLINDERFACERES
  2
AcAdPartCylinderFaceRes
  3
AdGrefServices
 90
        0
 91
        0
280
     0
281
     0
  0
CLASS
  1
ACADPARTPLANARFACERES
  2
AcAdPartPlanarFaceRes
  3
AdGrefServices
 90
        0
 91
        0
280
     0
281
     0
  0
CLASS
  1
ADPLANEID
  2
AcAdPlaneId
  3
DesignerServices
 90
        0
 91
        2
280
     0
281
     0
  0
CLASS
  1
ADDATUMPLANEFACE
  2
AcAdDatumPlaneFace
  3
DesignerServices
 90
        0
 91
        2
280
     0
281
     0
  0
CLASS
  1
ADDATUMPLANEOFFSET
  2
AcAdDatumPlaneOffset
  3
DesignerServices
 90
        0
 91
        3
280
     0
281
     0
  0
CLASS
  1
DATUMAXISDISPLAY
  2
AcAdDatumAxisDisplay
  3
DesignerServices
 90
        0
 91
        1
280
     0
281
     1
  0
CLASS
  1
ADSURFGEOMID
  2
AcAdSurfGeomId
  3
DesignerServices
 90
        0
 91
        1
280
     0
281
     0
  0
CLASS
  1
ADDATUMAXISCENTER
  2
AcAdDatumAxisCenter
  3
DesignerServices
 90
        0
 91
        1
280
     0
281
     0
  0
CLASS
  1
ACADPARTAXISRES
  2
AcAdPartAxisRes
  3
AdGrefServices
 90
        0
 91
        0
280
     0
281
     0
  0
CLASS
  1
ACDBLINERES
  2
AcDbLineRes
  3
AcGrefServices
 90
        0
 91
        0
280
     0
281
     0
  0
CLASS
  1
ACADSKETCHLINERES
  2
AcAdSketchLineRes
  3
DesignerServices
 90
        0
 91
        4
280
     0
281
     0
  0
CLASS
  1
ADCONSTDSP
  2
AcAdConstraintDisplayTag
  3
DesignerServices
 90
        0
 91
        0
280
     0
281
     1
  0
CLASS
  1
ADCONSDISP
  2
AcAdConstraintDisplay
  3
DesignerServices
 90
        0
 91
        0
280
     0
281
     1
  0
CLASS
  1
ADACADANGCNS
  2
AcAdAcadAngleConstr
  3
DesignerServices
 90
        0
 91
        2
280
     0
281
     0
  0
CLASS
  1
ADPROJCNS
  2
AcAdProjectionConstr
  3
DesignerServices
 90
        0
 91
        1
280
     0
281
     0
  0
CLASS
  1
ADCOLNCNS
  2
AcAdColinearConstr
  3
DesignerServices
 90
        0
 91
        1
280
     0
281
     0
  0
CLASS
  1
ACADBOUNDEDLINEDATUMID
  2
AcAdVirtualBoundedLineDatumId
  3
DesignerServices
 90
        0
 91
        1
280
     0
281
     0
  0
CLASS
  1
ACADPARTCONICALFACERES
  2
AcAdPartConicalFaceRes
  3
AdGrefServices
 90
        0
 91
        0
280
     0
281
     0
  0
CLASS
  1
DEPEDGESECONDARYDEPID
  2
AcAdDepEdgeSecondaryDepId
  3
DesignerServices
 90
        0
 91
        0
280
     0
281
     0
  0
CLASS
  1
AMACTIVEPARTSELECTFILTER
  2
AcDmActivePartViewEntFilter
  3
DesignerServices
 90
        0
 91
        0
280
     0
281
     0
  0
CLASS
  1
AM_ABS_PLANE
  2
AcDmAbsPlnDef
  3
AcMechDwgViewMgmt
 90
        0
 91
        0
280
     0
281
     0
  0
CLASS
  1
AM_ABS_AXIS
  2
AcDmAbsAxisDef
  3
AcMechDwgViewMgmt
 90
        0
 91
        0
280
     0
281
     0
  0
CLASS
  1
AM_BASE_VIEW_ORIENT
  2
AcDmBaseViewOr
  3
AcMechDwgViewMgmt
 90
        0
 91
        0
280
     0
281
     0
  0
CLASS
  1
AM_DWG_VIEWPORT
  2
AcDmViewport
  3
AcMechDwgViewMgmt
 90
        0
 91
        0
280
     0
281
     0
  0
CLASS
  1
AM_VIEW_DISPLAY
  2
AcDmDwgViewDisplay
  3
AcMechDwgViewMgmt
 90
        0
 91
        0
280
     0
281
     0
  0
CLASS
  1
AM_CLDFLTS
  2
AcDmClDflts
  3
AcMechDwgViewMgmt
 90
        0
 91
        9
280
     0
281
     0
  0
CLASS
  1
AM_BASE_VIEW
  2
AcDmBaseView
  3
AcMechDwgViewMgmt
 90
        0
 91
        0
280
     0
281
     0
  0
CLASS
  1
AM_ORTHO_VIEW_ORIENT
  2
AcDmOrthoViewOr
  3
AcMechDwgViewMgmt
 90
        0
 91
        0
280
     0
281
     0
  0
CLASS
  1
AM_ORTHO_VIEW
  2
AcDmOrthoView
  3
AcMechDwgViewMgmt
 90
        0
 91
        0
280
     0
281
     0
  0
CLASS
  1
AM_ISO_VIEW_ORIENT
  2
AcDmIsoViewOr
  3
AcMechDwgViewMgmt
 90
        0
 91
        0
280
     0
281
     0
  0
CLASS
  1
AM_ISO_VIEW
  2
AcDmIsoView
  3
AcMechDwgViewMgmt
 90
        0
 91
        0
280
     0
281
     0
  0
CLASS
  1
ACDMVWEDARC
  2
AcDmViewEdgeArc
  3
AcMechDwgViewMgmt
 90
        0
 91
        0
280
     0
281
     1
  0
CLASS
  1
ACDMVWEDCIRC
  2
AcDmViewEdgeCircle
  3
AcMechDwgViewMgmt
 90
        0
 91
        0
280
     0
281
     1
  0
CLASS
  1
ACDMVWEDLINE
  2
AcDmViewEdgeLine
  3
AcMechDwgViewMgmt
 90
        0
 91
        0
280
     0
281
     1
  0
CLASS
  1
CNRREFID
  2
AcAdCornerId
  3
DesignerServices
 90
        0
 91
        0
280
     0
281
     0
  0
CLASS
  1
ACADPARTPOINTRES
  2
AcAdPartPointRes
  3
AdGrefServices
 90
        0
 91
        0
280
     0
281
     0
  0
CLASS
  1
ACADPARTSKETCHPLANEAXISRES
  2
AcAdPartSketchPlaneAxisRes
  3
DesignerServices
 90
        0
 91
        0
280
     0
281
     0
  0
CLASS
  1
AM_VIEWDIMPARALLEL
  2
AcDmViewDimParallel
  3
AcMechDwgViewMgmt
 90
        0
 91
        0
280
     0
281
     0
  0
CLASS
  1
AMDTDMPARMAPDATA
  2
AmdtDmDimParMapData
  3
AcMechDwgViewMgmt
 90
        0
 91
        0
280
     0
281
     0
  0
CLASS
  1
AM_VIEWDIMLINEAR
  2
AcDmViewDimLinear
  3
AcMechDwgViewMgmt
 90
        0
 91
        0
280
     0
281
     0
  0
CLASS
  1
AM_VIEWDIMANGULAR
  2
AcDmViewDimAngular
  3
AcMechDwgViewMgmt
 90
        0
 91
        0
280
     0
281
     0
  0
CLASS
  1
AM_ADLINCTRLINE
  2
AcAdLineCl
  3
DesignerServices
 90
        0
 91
        0
280
     0
281
     0
  0
CLASS
  1
AM_VIEWDIMDIAMETER
  2
AcDmViewDimDiameter
  3
AcMechDwgViewMgmt
 90
        0
 91
        0
280
     0
281
     0
  0
CLASS
  1
AM_ADCIRCTRLINE
  2
AcAdBullsEyeCl
  3
DesignerServices
 90
        0
 91
        0
280
     0
281
     0
  0
CLASS
  1
AMDTMAPISURFMOUDULE
  2
AmdtMApiSurfModule
  3
MApiSurfServices
 90
        0
 91
        1
280
     0
281
     0
  0
CLASS
  1
ACAMGTITLESTD
  2
AcAmgTitleStd
  3
"AmgTitle|Product Description: AutoCAD Mechanical|Company: Autodesk"
 90
        0
 91
        5
280
     0
281
     0
  0
CLASS
  1
ACMDETAILSTANDARDJIS
  2
AmdtDetailSymStdJIS
  3
"Amdt_StdImp|Product Description: AutoCAD Mechanical|Company: Autodesk"
 90
        0
 91
        1
280
     0
281
     0
  0
CLASS
  1
ACMSECTIONSTANDARDJIS
  2
AmdtSectionSymStdJIS
  3
"Amdt_StdImp|Product Description: AutoCAD Mechanical|Company: Autodesk"
 90
        0
 91
        1
280
     0
281
     0
  0
CLASS
  1
ACMCENTERLINESTANDARDJIS
  2
AmdtCenterLineStdJIS
  3
"Amdt_StdImp|Product Description: AutoCAD Mechanical|Company: Autodesk"
 90
        0
 91
        1
280
     0
281
     0
  0
CLASS
  1
ACMTHREADLINESTANDARDCSN
  2
AmdtThreadLineStdCSN
  3
"Amdt_StdImp|Product Description: AutoCAD Mechanical|Company: Autodesk"
 90
        0
 91
        5
280
     0
281
     0
  0
CLASS
  1
ACMDETAILSTANDARDANSI
  2
AmdtDetailSymStdANSI
  3
"Amdt_StdImp|Product Description: AutoCAD Mechanical|Company: Autodesk"
 90
        0
 91
        1
280
     0
281
     0
  0
CLASS
  1
ACMSECTIONSTANDARDANSI
  2
AmdtSectionSymStdANSI
  3
"Amdt_StdImp|Product Description: AutoCAD Mechanical|Company: Autodesk"
 90
        0
 91
        1
280
     0
281
     0
  0
CLASS
  1
ACMCENTERLINESTANDARDANSI
  2
AmdtCenterLineStdANSI
  3
"Amdt_StdImp|Product Description: AutoCAD Mechanical|Company: Autodesk"
 90
        0
 91
        1
280
     0
281
     0
  0
CLASS
  1
ACMDETAILSTANDARDBSI
  2
AmdtDetailSymStdBSI
  3
"Amdt_StdImp|Product Description: AutoCAD Mechanical|Company: Autodesk"
 90
        0
 91
        1
280
     0
281
     0
  0
CLASS
  1
ACMSECTIONSTANDARDBSI
  2
AmdtSectionSymStdBSI
  3
"Amdt_StdImp|Product Description: AutoCAD Mechanical|Company: Autodesk"
 90
        0
 91
        1
280
     0
281
     0
  0
CLASS
  1
ACMCENTERLINESTANDARDBSI
  2
AmdtCenterLineStdBSI
  3
"Amdt_StdImp|Product Description: AutoCAD Mechanical|Company: Autodesk"
 90
        0
 91
        1
280
     0
281
     0
  0
CLASS
  1
ACMDETAILSTANDARDDIN
  2
AmdtDetailSymStdDIN
  3
"Amdt_StdImp|Product Description: AutoCAD Mechanical|Company: Autodesk"
 90
        0
 91
        1
280
     0
281
     0
  0
CLASS
  1
ACMSECTIONSTANDARDDIN
  2
AmdtSectionSymStdDIN
  3
"Amdt_StdImp|Product Description: AutoCAD Mechanical|Company: Autodesk"
 90
        0
 91
        1
280
     0
281
     0
  0
CLASS
  1
ACMCENTERLINESTANDARDDIN
  2
AmdtCenterLineStdDIN
  3
"Amdt_StdImp|Product Description: AutoCAD Mechanical|Company: Autodesk"
 90
        0
 91
        1
280
     0
281
     0
  0
CLASS
  1
AMDTEDGESTANDARDISO
  2
AmdtEdgeStdISO
  3
"Amdt_StdImp|Product Description: AutoCAD Mechanical|Company: Autodesk"
 90
        0
 91
        1
280
     0
281
     0
  0
CLASS
  1
ACMDETAILSTANDARDISO
  2
AmdtDetailSymStdISO
  3
"Amdt_StdImp|Product Description: AutoCAD Mechanical|Company: Autodesk"
 90
        0
 91
        1
280
     0
281
     0
  0
CLASS
  1
ACMSECTIONSTANDARDISO
  2
AmdtSectionSymStdISO
  3
"Amdt_StdImp|Product Description: AutoCAD Mechanical|Company: Autodesk"
 90
        0
 91
        1
280
     0
281
     0
  0
CLASS
  1
ACMCENTERLINESTANDARDISO
  2
AmdtCenterLineStdISO
  3
"Amdt_StdImp|Product Description: AutoCAD Mechanical|Company: Autodesk"
 90
        0
 91
        1
280
     0
281
     0
  0
CLASS
  1
ACAMGLAYSTD
  2
AcAmgLayStd
  3
"AmgLay|Product Description: AutoCAD Mechanical|Company: Autodesk"
 90
        0
 91
        5
280
     0
281
     0
  0
CLASS
  1
ACAMGDIMSTD
  2
AcAmgDimStd
  3
"AmgDim|Product Description: AutoCAD Mechanical|Company: Autodesk"
 90
        0
 91
        5
280
     0
281
     0
  0
CLASS
  1
ACDMPARTVIEWDATA
  2
AcDmPartViewData
  3
AcMechDwgViewMgmt
 90
        0
 91
        0
280
     0
281
     0
  0
CLASS
  1
ACDMDISPLAYATTRIBS
  2
AcDmDisplayAttribs
  3
AcMechDwgViewMgmt
 90
        0
 91
        0
280
     0
281
     0
  0
CLASS
  1
ACDMBODYINSTANCEDATA
  2
AcDmBodyInstanceData
  3
AcMechDwgViewMgmt
 90
        0
 91
        0
280
     0
281
     0
  0
CLASS
  1
AMDTFORMULAUPDATEDISPATCHER
  2
AmdtFormulaUpdateDispatcher
  3
AcMeServices
 90
        0
 91
        1
280
     0
281
     0
  0
CLASS
  1
ACAMCONTEXTPARTMODELER
  2
AcAmContextPartModeler
  3
DesignerAssemblies
 90
        0
 91
        1
280
     0
281
     0
  0
CLASS
  1
ACMNOTESTANDARDJIS
  2
AmdtNoteStdJIS
  3
"Amdt_StdImp|Product Description: AutoCAD Mechanical|Company: Autodesk"
 90
        0
 91
        1
280
     0
281
     0
  0
CLASS
  1
AMDTNOTETEMPLATEDB
  2
AmdtNoteTemplateDB
  3
AMDT_STDIMP_MODULE_NAME
 90
        0
 91
       20
280
     0
281
     0
  0
CLASS
  1
ACMNOTESTANDARDANSI
  2
AmdtNoteStdANSI
  3
"Amdt_StdImp|Product Description: AutoCAD Mechanical|Company: Autodesk"
 90
        0
 91
        1
280
     0
281
     0
  0
CLASS
  1
ACMNOTESTANDARDBSI
  2
AmdtNoteStdBSI
  3
"Amdt_StdImp|Product Description: AutoCAD Mechanical|Company: Autodesk"
 90
        0
 91
        1
280
     0
281
     0
  0
CLASS
  1
ACMNOTESTANDARDDIN
  2
AmdtNoteStdDIN
  3
"Amdt_StdImp|Product Description: AutoCAD Mechanical|Company: Autodesk"
 90
        0
 91
        1
280
     0
281
     0
  0
CLASS
  1
ACMNOTESTANDARDISO
  2
AmdtNoteStdISO
  3
"Amdt_StdImp|Product Description: AutoCAD Mechanical|Company: Autodesk"
 90
        0
 91
        1
280
     0
281
     0
  0
CLASS
  1
MATERIAL
  2
AcDbMaterial
  3
ObjectDBX Classes
 90
     1024
 91
        3
280
     0
281
     0
  0
CLASS
  1
VISUALSTYLE
  2
AcDbVisualStyle
  3
ObjectDBX Classes
 90
     4095
 91
       16
280
     0
281
     0
  0
CLASS
  1
TABLESTYLE
  2
AcDbTableStyle
  3
ObjectDBX Classes
 90
     4095
 91
        1
280
     0
281
     0
  0
CLASS
  1
ACMTAPERSTANDARDJIS
  2
AcmTaperStdJIS
  3
"Amdt_StdImp|Product Description: AutoCAD Mechanical|Company: Autodesk"
 90
        0
 91
        1
280
     0
281
     0
  0
CLASS
  1
ACMTAPERSTANDARDANSI
  2
AcmTaperStdANSI
  3
"Amdt_StdImp|Product Description: AutoCAD Mechanical|Company: Autodesk"
 90
        0
 91
        1
280
     0
281
     0
  0
CLASS
  1
ACMTAPERSTANDARDBSI
  2
AcmTaperStdBSI
  3
"Amdt_StdImp|Product Description: AutoCAD Mechanical|Company: Autodesk"
 90
        0
 91
        1
280
     0
281
     0
  0
CLASS
  1
ACMTAPERSTANDARDDIN
  2
AcmTaperStdDIN
  3
"Amdt_StdImp|Product Description: AutoCAD Mechanical|Company: Autodesk"
 90
        0
 91
        1
280
     0
281
     0
  0
CLASS
  1
ACMTAPERSTANDARDISO
  2
AcmTaperStdISO
  3
"Amdt_StdImp|Product Description: AutoCAD Mechanical|Company: Autodesk"
 90
        0
 91
        1
280
     0
281
     0
  0
ENDSEC
  0
SECTION
  2
TABLES
  0
TABLE
  2
VPORT
  5
8
330
0
100
AcDbSymbolTable
 70
     3
  0
VPORT
  5
79C
330
8
100
AcDbSymbolTableRecord
100
AcDbViewportTableRecord
  2
asurf_wcs_vp_2
 70
     0
 10
0.0
 20
0.0
 11
0.5
 21
1.0
 12
0.0
 22
0.0
 13
0.0
 23
0.0
 14
10.0
 24
10.0
 15
10.0
 25
10.0
 16
0.0
 26
0.0
 36
1.0
 17
210.0
 27
148.5
 37
0.0
 40
664.2413317557894
 41
0.6397245798091085
 42
50.0
 43
0.0
 44
0.0
 50
0.0
 51
0.0
 71
     0
 72
  1000
 73
     1
 74
     0
 75
     0
 76
     0
 77
     0
 78
     0
281
     4
 65
     0
110
0.0
120
0.0
130
0.0
111
1.0
121
0.0
131
0.0
112
0.0
122
1.0
132
0.0
 79
     0
146
0.0
348
31B2
 60
     3
 61
     5
292
     1
282
     1
141
0.0
142
0.0
 63
   250
421
  3355443
  0
VPORT
  5
79D
330
8
100
AcDbSymbolTableRecord
100
AcDbViewportTableRecord
  2
asurf_wcs_vp_2
 70
     0
 10
0.5
 20
0.0
 11
1.0
 21
1.0
 12
-166.0188166206583
 22
35.22481755965711
 13
0.0
 23
0.0
 14
10.0
 24
10.0
 15
10.0
 25
10.0
 16
1.0
 26
-1.0
 36
1.0
 17
210.0
 27
148.5
 37
0.0
 40
482.8380307317477
 41
0.6397245798091085
 42
50.0
 43
0.0
 44
0.0
 50
0.0
 51
0.0
 71
     0
 72
  1000
 73
     1
 74
     0
 75
     0
 76
     0
 77
     0
 78
     0
281
     4
 65
     0
110
0.0
120
0.0
130
0.0
111
1.0
121
0.0
131
0.0
112
0.0
122
1.0
132
0.0
 79
     0
146
0.0
348
31B2
 60
     3
 61
     5
292
     1
282
     1
141
0.0
142
0.0
 63
   250
421
  3355443
  0
VPORT
  5
31AA
330
8
100
AcDbSymbolTableRecord
100
AcDbViewportTableRecord
  2
*Active
 70
     0
 10
0.0
 20
0.0
 11
1.0
 21
1.0
 12
104.5062271481175
 22
85.56993741858834
 13
0.0
 23
0.0
 14
10.0
 24
10.0
 15
10.0
 25
10.0
 16
0.0
 26
0.0
 36
1.0
 17
225.0419189867749
 27
164.8409058003548
 37
0.0
 40
401.9322508877877
 41
1.622039134912461
 42
50.0
 43
0.0
 44
0.0
 50
0.0
 51
0.0
 71
     0
 72
  1000
 73
     1
 74
     1
 75
     0
 76
     0
 77
     0
 78
     0
281
     0
 65
     0
110
0.0
120
0.0
130
0.0
111
1.0
121
0.0
131
0.0
112
0.0
122
1.0
132
0.0
 79
     0
146
0.0
348
31B5
 60
     3
 61
     5
292
     1
282
     1
141
0.0
142
0.0
 63
   250
421
  3355443
  0
ENDTAB
  0
TABLE
  2
LTYPE
  5
5
330
0
100
AcDbSymbolTable
 70
    33
  0
LTYPE
  5
14
330
5
100
AcDbSymbolTableRecord
100
AcDbLinetypeTableRecord
  2
BYBLOCK
 70
     0
  3

 72
    65
 73
     0
 40
0.0
  0
LTYPE
  5
15
330
5
100
AcDbSymbolTableRecord
100
AcDbLinetypeTableRecord
  2
BYLAYER
 70
     0
  3

 72
    65
 73
     0
 40
0.0
  0
LTYPE
  5
16
330
5
100
AcDbSymbolTableRecord
100
AcDbLinetypeTableRecord
  2
CONTINUOUS
 70
     0
  3
Solid line
 72
    65
 73
     0
 40
0.0
  0
LTYPE
  5
BD
330
5
100
AcDbSymbolTableRecord
100
AcDbLinetypeTableRecord
  2
HIDDEN
 70
     0
  3
__ __ __ __ __ __ __ __ __ __ __ __ __ __ __ __
 72
    65
 73
     2
 40
0.375
 49
0.25
 74
     0
 49
-0.125
 74
     0
  0
LTYPE
  5
BF
330
5
100
AcDbSymbolTableRecord
100
AcDbLinetypeTableRecord
  2
PHANTOM2
 70
     0
  3
___ _ _ ___ _ _ ___ _ _ ___ _ _ ___ _ _ ___ _ _
 72
    65
 73
     6
 40
1.25
 49
0.625
 74
     0
 49
-0.125
 74
     0
 49
0.125
 74
     0
 49
-0.125
 74
     0
 49
0.125
 74
     0
 49
-0.125
 74
     0
  0
LTYPE
  5
CA
330
5
100
AcDbSymbolTableRecord
100
AcDbLinetypeTableRecord
  2
CENTER
 70
     0
  3
____ _ ____ _ ____ _ ____ _ ____ _ ____ _ ____ 
 72
    65
 73
     4
 40
2.0
 49
1.25
 74
     0
 49
-0.25
 74
     0
 49
0.25
 74
     0
 49
-0.25
 74
     0
  0
LTYPE
  5
120
330
5
100
AcDbSymbolTableRecord
100
AcDbLinetypeTableRecord
  2
ASULTYPE
 70
     0
  3
Solid line
 72
    65
 73
     2
 40
3.0
 49
2.5
 74
     0
 49
0.5
 74
     0
  0
LTYPE
  5
121
330
5
100
AcDbSymbolTableRecord
100
AcDbLinetypeTableRecord
  2
ASVLTYPE
 70
     0
  3
__ __ __ __ __ __ __ __ __ __ __ __ __ __ __ __ __ __ __ __ __
 72
    65
 73
     2
 40
0.75
 49
0.5
 74
     0
 49
-0.25
 74
     0
  0
LTYPE
  5
149
330
5
100
AcDbSymbolTableRecord
100
AcDbLinetypeTableRecord
  2
ACJISTGB
 70
     0
  3
__ . . __ . .
 72
    65
 73
     6
 40
9.0
 49
4.0
 74
     0
 49
-1.0
 74
     0
 49
1.0
 74
     0
 49
-1.0
 74
     0
 49
1.0
 74
     0
 49
-1.0
 74
     0
  0
LTYPE
  5
14A
330
5
100
AcDbSymbolTableRecord
100
AcDbLinetypeTableRecord
  2
ACJISTGL
 70
     0
  3
_ _ _ _ _
 72
    65
 73
     2
 40
3.0
 49
2.0
 74
     0
 49
-1.0
 74
     0
  0
LTYPE
  5
14D
330
5
100
AcDbSymbolTableRecord
100
AcDbLinetypeTableRecord
  2
ACANSTGB
 70
     0
  3
__ . . __ . .
 72
    65
 73
     6
 40
0.35433070866
 49
0.15748031496
 74
     0
 49
-0.03937007874
 74
     0
 49
0.03937007874
 74
     0
 49
-0.03937007874
 74
     0
 49
0.03937007874
 74
     0
 49
-0.03937007874
 74
     0
  0
LTYPE
  5
14E
330
5
100
AcDbSymbolTableRecord
100
AcDbLinetypeTableRecord
  2
ACANSTGL
 70
     0
  3
_ _ _ _ _
 72
    65
 73
     2
 40
0.11811023622
 49
0.07874015748
 74
     0
 49
-0.03937007874
 74
     0
  0
LTYPE
  5
151
330
5
100
AcDbSymbolTableRecord
100
AcDbLinetypeTableRecord
  2
ACBSWELD
 70
     0
  3
_ _ _ _ _
 72
    65
 73
     2
 40
2.0
 49
2.0
 74
     0
 49
-1.0
 74
     0
  0
LTYPE
  5
152
330
5
100
AcDbSymbolTableRecord
100
AcDbLinetypeTableRecord
  2
ACBSITGB
 70
     0
  3
__ . . __ . .
 72
    65
 73
     6
 40
9.0
 49
4.0
 74
     0
 49
-1.0
 74
     0
 49
1.0
 74
     0
 49
-1.0
 74
     0
 49
1.0
 74
     0
 49
-1.0
 74
     0
  0
LTYPE
  5
153
330
5
100
AcDbSymbolTableRecord
100
AcDbLinetypeTableRecord
  2
ACBSITGL
 70
     0
  3
_ _ _ _ _
 72
    65
 73
     2
 40
3.0
 49
2.0
 74
     0
 49
-1.0
 74
     0
  0
LTYPE
  5
156
330
5
100
AcDbSymbolTableRecord
100
AcDbLinetypeTableRecord
  2
ACDINWELD
 70
     0
  3
_ _ _ _ _
 72
    65
 73
     2
 40
2.0
 49
2.0
 74
     0
 49
-1.0
 74
     0
  0
LTYPE
  5
157
330
5
100
AcDbSymbolTableRecord
100
AcDbLinetypeTableRecord
  2
ACDINTGB
 70
     0
  3
__ . . __ . .
 72
    65
 73
     6
 40
9.0
 49
4.0
 74
     0
 49
-1.0
 74
     0
 49
1.0
 74
     0
 49
-1.0
 74
     0
 49
1.0
 74
     0
 49
-1.0
 74
     0
  0
LTYPE
  5
158
330
5
100
AcDbSymbolTableRecord
100
AcDbLinetypeTableRecord
  2
ACDINTGL
 70
     0
  3
_ _ _ _ _
 72
    65
 73
     2
 40
3.0
 49
2.0
 74
     0
 49
-1.0
 74
     0
  0
LTYPE
  5
15B
330
5
100
AcDbSymbolTableRecord
100
AcDbLinetypeTableRecord
  2
ACISOWELD
 70
     0
  3
_ _ _ _ _
 72
    65
 73
     2
 40
2.0
 49
2.0
 74
     0
 49
-1.0
 74
     0
  0
LTYPE
  5
15C
330
5
100
AcDbSymbolTableRecord
100
AcDbLinetypeTableRecord
  2
ACISOTGB
 70
     0
  3
__ . . __ . .
 72
    65
 73
     6
 40
9.0
 49
4.0
 74
     0
 49
-1.0
 74
     0
 49
1.0
 74
     0
 49
-1.0
 74
     0
 49
1.0
 74
     0
 49
-1.0
 74
     0
  0
LTYPE
  5
15D
330
5
100
AcDbSymbolTableRecord
100
AcDbLinetypeTableRecord
  2
ACISOTGL
 70
     0
  3
_ _ _ _ _
 72
    65
 73
     2
 40
3.0
 49
2.0
 74
     0
 49
-1.0
 74
     0
  0
LTYPE
  5
175
330
5
100
AcDbSymbolTableRecord
100
AcDbLinetypeTableRecord
  2
AM_ISO02W050
 70
     0
  3
__ __ __ __ __ __ __ __ __ __ __ __ __ __ __
 72
    65
 73
     2
 40
7.5
 49
6.0
 74
     0
 49
-1.5
 74
     0
  0
LTYPE
  5
176
330
5
100
AcDbSymbolTableRecord
100
AcDbLinetypeTableRecord
  2
AM_ISO08W050
 70
     0
  3
____ . ____ . ____ . ____ . ____ . ____ . ____
 72
    65
 73
     4
 40
18.0
 49
12.0
 74
     0
 49
-1.5
 74
     0
 49
3.0
 74
     0
 49
-1.5
 74
     0
  0
LTYPE
  5
177
330
5
100
AcDbSymbolTableRecord
100
AcDbLinetypeTableRecord
  2
AM_ISO09W050
 70
     0
  3
_____ . . _____ . . _____ . . ____ .. ____
 72
    65
 73
     6
 40
22.5
 49
12.0
 74
     0
 49
-1.5
 74
     0
 49
3.0
 74
     0
 49
-1.5
 74
     0
 49
3.0
 74
     0
 49
-1.5
 74
     0
  0
LTYPE
  5
178
330
5
100
AcDbSymbolTableRecord
100
AcDbLinetypeTableRecord
  2
AM_ISO02W050x2
 70
     0
  3
 _ _ _ _ _ _ _ _ _ _ _ _
 72
    65
 73
     2
 40
3.75
 49
3.0
 74
     0
 49
-0.75
 74
     0
  0
LTYPE
  5
179
330
5
100
AcDbSymbolTableRecord
100
AcDbLinetypeTableRecord
  2
AM_ISO08W050x2
 70
     0
  3
__ . __ . __ . __ . __ . __
 72
    65
 73
     4
 40
9.0
 49
6.0
 74
     0
 49
-0.75
 74
     0
 49
1.5
 74
     0
 49
-0.75
 74
     0
  0
LTYPE
  5
17C
330
5
100
AcDbSymbolTableRecord
100
AcDbLinetypeTableRecord
  2
amzigzag
 70
     0
  3
/\/-/\/-/\/-/\/-/\/-/\/
 72
    65
 73
     2
 40
11.0001
 49
0.0001
 74
     4
 75
   135
340
17B
 46
0.04
 50
0.0
 44
0.0
 45
0.0
 49
-11.0
 74
     0
  0
LTYPE
  5
1814
330
5
100
AcDbSymbolTableRecord
100
AcDbLinetypeTableRecord
  2
ACANSTGBM
 70
     0
  3
__ . . __ . .
 72
    65
 73
     6
 40
9.0
 49
4.0
 74
     0
 49
-1.0
 74
     0
 49
1.0
 74
     0
 49
-1.0
 74
     0
 49
1.0
 74
     0
 49
-1.0
 74
     0
  0
LTYPE
  5
1815
330
5
100
AcDbSymbolTableRecord
100
AcDbLinetypeTableRecord
  2
ACANSTGLM
 70
     0
  3
_ _ _ _ _
 72
    65
 73
     2
 40
3.0
 49
2.0
 74
     0
 49
-1.0
 74
     0
  0
LTYPE
  5
1B48
330
5
100
AcDbSymbolTableRecord
100
AcDbLinetypeTableRecord
  2
GEN7
 70
     0
  3
____ . ____ . ____ . ____ . ___
 72
    65
 73
     4
 40
13.75
 49
9.75
 74
     0
 49
-1.5
 74
     0
 49
1.0
 74
     0
 49
-1.5
 74
     0
  0
LTYPE
  5
1B49
330
5
100
AcDbSymbolTableRecord
100
AcDbLinetypeTableRecord
  2
GEN3
 70
     0
  3
-- -- -- -- -- -- -- -- -- -- -
 72
    65
 73
     2
 40
6.25
 49
4.75
 74
     0
 49
-1.5
 74
     0
  0
LTYPE
  5
1B4A
330
5
100
AcDbSymbolTableRecord
100
AcDbLinetypeTableRecord
  2
GEN3A
 70
     0
  3
 - - - - -
 72
    65
 73
     2
 40
3.125
 49
2.25
 74
     0
 49
-0.875
 74
     0
  0
LTYPE
  5
1B4B
330
5
100
AcDbSymbolTableRecord
100
AcDbLinetypeTableRecord
  2
GEN4A
 70
     0
  3
_____ . . _____ . . _____ . . _
 72
    65
 73
     6
 40
16.25
 49
9.75
 74
     0
 49
-1.5
 74
     0
 49
1.0
 74
     0
 49
-1.5
 74
     0
 49
1.0
 74
     0
 49
-1.5
 74
     0
  0
LTYPE
  5
1B4C
330
5
100
AcDbSymbolTableRecord
100
AcDbLinetypeTableRecord
  2
GEN7A
 70
     0
  3
__ . __ . __
 72
    65
 73
     4
 40
6.875
 49
4.75
 74
     0
 49
-0.875
 74
     0
 49
0.375
 74
     0
 49
-0.875
 74
     0
  0
LTYPE
  5
1B4D
330
5
100
AcDbSymbolTableRecord
100
AcDbLinetypeTableRecord
  2
genzigzag
 70
     0
  3
/\/-/\/-/\/-/\/-/\/-/\/
 72
    65
 73
     2
 40
12.0001
 49
0.0001
 74
     4
 75
   135
340
1B52
 46
2.0
 50
0.0
 44
0.0
 45
0.0
 49
-12.0
 74
     0
  0
ENDTAB
  0
TABLE
  2
LAYER
  5
2
330
0
100
AcDbSymbolTable
 70
    25
  0
LAYER
  5
F
330
2
100
AcDbSymbolTableRecord
100
AcDbLayerTableRecord
  2
0
 70
     0
 62
     7
  6
CONTINUOUS
370
    -3
390
166
347
31AE
  0
LAYER
  5
35A
330
2
100
AcDbSymbolTableRecord
100
AcDbLayerTableRecord
  2
AM_0
 70
     0
 62
     7
  6
CONTINUOUS
370
    50
390
166
347
31AE
  0
LAYER
  5
35B
330
2
100
AcDbSymbolTableRecord
100
AcDbLayerTableRecord
  2
AM_1
 70
     0
 62
     4
  6
CONTINUOUS
370
    25
390
166
347
31AE
  0
LAYER
  5
35C
330
2
100
AcDbSymbolTableRecord
100
AcDbLayerTableRecord
  2
AM_2
 70
     0
 62
     5
  6
CONTINUOUS
370
    50
390
166
347
31AE
  0
LAYER
  5
35D
330
2
100
AcDbSymbolTableRecord
100
AcDbLayerTableRecord
  2
AM_3
 70
     0
 62
     6
  6
AM_ISO02W050
370
    25
390
166
347
31AE
  0
LAYER
  5
35E
330
2
100
AcDbSymbolTableRecord
100
AcDbLayerTableRecord
  2
AM_4
 70
     0
 62
     3
  6
CONTINUOUS
370
    25
390
166
347
31AE
  0
LAYER
  5
35F
330
2
100
AcDbSymbolTableRecord
100
AcDbLayerTableRecord
  2
AM_5
 70
     0
 62
     3
  6
CONTINUOUS
370
    25
390
166
347
31AE
  0
LAYER
  5
360
330
2
100
AcDbSymbolTableRecord
100
AcDbLayerTableRecord
  2
AM_6
 70
     0
 62
     2
  6
CONTINUOUS
370
    35
390
166
347
31AE
  0
LAYER
  5
361
330
2
100
AcDbSymbolTableRecord
100
AcDbLayerTableRecord
  2
AM_7
 70
     0
 62
     1
  6
AM_ISO08W050
370
    25
390
166
347
31AE
  0
LAYER
  5
362
330
2
100
AcDbSymbolTableRecord
100
AcDbLayerTableRecord
  2
AM_8
 70
     0
 62
     1
  6
CONTINUOUS
370
    25
390
166
347
31AE
  0
LAYER
  5
38E
330
2
100
AcDbSymbolTableRecord
100
AcDbLayerTableRecord
  2
AM_FR
 70
     5
 62
     7
  6
CONTINUOUS
370
    -3
390
166
347
31AE
  0
LAYER
  5
3F7
330
2
100
AcDbSymbolTableRecord
100
AcDbLayerTableRecord
  2
ASHADE
 70
     4
 62
     7
  6
CONTINUOUS
370
    -3
390
166
347
31AE
  0
LAYER
  5
5FC
330
2
100
AcDbSymbolTableRecord
100
AcDbLayerTableRecord
  2
AM_WORK
 70
     0
 62
     7
  6
CONTINUOUS
370
    -3
390
166
347
31AE
  0
LAYER
  5
614
330
2
100
AcDbSymbolTableRecord
100
AcDbLayerTableRecord
  2
AM_CL
 70
     0
 62
     1
  6
CONTINUOUS
370
    25
390
166
347
31AE
  0
LAYER
  5
643
330
2
100
AcDbSymbolTableRecord
100
AcDbLayerTableRecord
  2
Defpoints
 70
     0
 62
     7
  6
CONTINUOUS
290
     0
370
    -3
390
166
347
31AE
  0
LAYER
  5
79B
330
2
100
AcDbSymbolTableRecord
100
AcDbLayerTableRecord
  2
ASRF_TMP
 70
     0
 62
     7
  6
CONTINUOUS
370
    -3
390
166
347
31AE
  0
LAYER
  5
1054
330
2
100
AcDbSymbolTableRecord
100
AcDbLayerTableRecord
  2
AM_VIEWS
 70
     1
 62
    -1
  6
CONTINUOUS
290
     0
370
    25
390
166
347
31AE
  0
LAYER
  5
106E
330
2
100
AcDbSymbolTableRecord
100
AcDbLayerTableRecord
  2
AM_VIS
 70
     2
 62
     7
  6
CONTINUOUS
370
    50
390
166
347
31AE
  0
LAYER
  5
106F
330
2
100
AcDbSymbolTableRecord
100
AcDbLayerTableRecord
  2
AM_HID
 70
     2
 62
     6
  6
AM_ISO02W050
370
    25
390
166
347
31AE
  0
LAYER
  5
108B
330
2
100
AcDbSymbolTableRecord
100
AcDbLayerTableRecord
  2
AM_PARDIM
 70
     0
 62
     3
  6
CONTINUOUS
370
    25
390
166
347
31AE
  0
LAYER
  5
1969
330
2
100
AcDbSymbolTableRecord
100
AcDbLayerTableRecord
  2
AmdtBRLock
 70
     6
 62
     7
  6
CONTINUOUS
370
    -3
390
166
347
31AE
  0
LAYER
  5
1B4E
330
2
100
AcDbSymbolTableRecord
100
AcDbLayerTableRecord
  2
5
 70
     0
 62
     3
  6
CONTINUOUS
370
    -3
390
166
347
31AE
  0
LAYER
  5
1B4F
330
2
100
AcDbSymbolTableRecord
100
AcDbLayerTableRecord
  2
1
 70
     0
 62
     4
  6
CONTINUOUS
370
    -3
390
166
347
31AE
  0
LAYER
  5
1B50
330
2
100
AcDbSymbolTableRecord
100
AcDbLayerTableRecord
  2
3A
 70
     0
 62
     6
  6
GEN3A
370
    -3
390
166
347
31AE
  0
LAYER
  5
1B51
330
2
100
AcDbSymbolTableRecord
100
AcDbLayerTableRecord
  2
7
 70
     0
 62
     1
  6
GEN7
370
    -3
390
166
347
31AE
  0
ENDTAB
  0
TABLE
  2
STYLE
  5
3
330
0
100
AcDbSymbolTable
 70
    14
  0
STYLE
  5
10
330
3
100
AcDbSymbolTableRecord
100
AcDbTextStyleTableRecord
  2
STANDARD
 70
     0
 40
0.0
 41
1.0
 50
0.0
 71
     0
 42
3.5
  3
ISOCP
  4

  0
STYLE
  5
147
330
3
100
AcDbSymbolTableRecord
100
AcDbTextStyleTableRecord
  2
ACJISTS
 70
     0
 40
1.0
 41
1.0
 50
0.0
 71
     0
 42
3.5
  3
isocp.shx
  4
bigfont.shx
  0
STYLE
  5
148
330
3
100
AcDbSymbolTableRecord
100
AcDbTextStyleTableRecord
  2
ACJISGDT
 70
     0
 40
0.0
 41
1.0
 50
0.0
 71
     0
 42
3.5
  3
amgdt.shx
  4

  0
STYLE
  5
14B
330
3
100
AcDbSymbolTableRecord
100
AcDbTextStyleTableRecord
  2
ACANSTSI
 70
     0
 40
1.0
 41
1.0
 50
0.0
 71
     0
 42
3.5
  3
romans.shx
  4

  0
STYLE
  5
14C
330
3
100
AcDbSymbolTableRecord
100
AcDbTextStyleTableRecord
  2
ACANSGDT
 70
     0
 40
0.0
 41
1.0
 50
0.0
 71
     0
 42
3.5
  3
amgdt.shx
  4

  0
STYLE
  5
14F
330
3
100
AcDbSymbolTableRecord
100
AcDbTextStyleTableRecord
  2
ACBSITS
 70
     0
 40
1.0
 41
1.0
 50
0.0
 71
     0
 42
3.5
  3
isocp.shx
  4

  0
STYLE
  5
150
330
3
100
AcDbSymbolTableRecord
100
AcDbTextStyleTableRecord
  2
ACBSIGDT
 70
     0
 40
0.0
 41
1.0
 50
0.0
 71
     0
 42
3.5
  3
amgdt.shx
  4

  0
STYLE
  5
154
330
3
100
AcDbSymbolTableRecord
100
AcDbTextStyleTableRecord
  2
ACDINTS
 70
     0
 40
1.0
 41
1.0
 50
0.0
 71
     0
 42
3.5
  3
isocp.shx
  4

  0
STYLE
  5
155
330
3
100
AcDbSymbolTableRecord
100
AcDbTextStyleTableRecord
  2
ACDINGDT
 70
     0
 40
0.0
 41
1.0
 50
0.0
 71
     0
 42
3.5
  3
amgdt.shx
  4

  0
STYLE
  5
159
330
3
100
AcDbSymbolTableRecord
100
AcDbTextStyleTableRecord
  2
ACISOTS
 70
     0
 40
1.0
 41
1.0
 50
0.0
 71
     0
 42
3.5
  3
isocp.shx
  4

  0
STYLE
  5
15A
330
3
100
AcDbSymbolTableRecord
100
AcDbTextStyleTableRecord
  2
ACISOGDT
 70
     0
 40
0.0
 41
1.0
 50
0.0
 71
     0
 42
3.5
  3
amgdt.shx
  4

  0
STYLE
  5
17B
330
3
100
AcDbSymbolTableRecord
100
AcDbTextStyleTableRecord
  2

 70
     1
 40
0.0
 41
1.0
 50
0.0
 71
     0
 42
3.5
  3
ltypeshp.shx
  4

  0
STYLE
  5
3F4
330
3
100
AcDbSymbolTableRecord
100
AcDbTextStyleTableRecord
  2
ASHADE
 70
     0
 40
0.2
 41
1.0
 50
0.0
 71
     0
 42
3.5
  3
simplex.shx
  4

  0
STYLE
  5
1B52
330
3
100
AcDbSymbolTableRecord
100
AcDbTextStyleTableRecord
  2

 70
     1
 40
0.0
 41
1.0
 50
0.0
 71
     0
 42
2.5
  3
genltshp.shx
  4

  0
ENDTAB
  0
TABLE
  2
VIEW
  5
6
330
0
100
AcDbSymbolTable
 70
     3
  0
VIEW
  5
1C8
330
6
100
AcDbSymbolTableRecord
100
AcDbViewTableRecord
  2
AMDTVIEW1
 70
     0
 40
329.0721649484536
 10
210.0
 20
164.5360824742268
 41
420.0
 11
0.0
 21
0.0
 31
1.0
 12
0.0
 22
0.0
 32
0.0
 42
50.0
 43
0.0
 44
0.0
 50
0.0
 71
     0
281
     0
 72
     0
 73
     0
348
31B5
  0
VIEW
  5
1C9
330
6
100
AcDbSymbolTableRecord
100
AcDbViewTableRecord
  2
AMDTVIEW2
 70
     0
 40
329.0721649484536
 10
210.0
 20
164.5360824742268
 41
420.0
 11
0.0
 21
0.0
 31
1.0
 12
0.0
 22
0.0
 32
0.0
 42
50.0
 43
0.0
 44
0.0
 50
0.0
 71
     0
281
     0
 72
     0
 73
     0
348
31B5
  0
VIEW
  5
1CA
330
6
100
AcDbSymbolTableRecord
100
AcDbViewTableRecord
  2
AMDTVIEW3
 70
     0
 40
329.0721649484536
 10
210.0
 20
164.5360824742268
 41
420.0
 11
0.0
 21
0.0
 31
1.0
 12
0.0
 22
0.0
 32
0.0
 42
50.0
 43
0.0
 44
0.0
 50
0.0
 71
     0
281
     0
 72
     0
 73
     0
348
31B5
  0
ENDTAB
  0
TABLE
  2
UCS
  5
7
330
0
100
AcDbSymbolTable
 70
     0
  0
ENDTAB
  0
TABLE
  2
APPID
  5
9
330
0
100
AcDbSymbolTable
 70
    34
  0
APPID
  5
11
330
9
100
AcDbSymbolTableRecord
100
AcDbRegAppTableRecord
  2
ACAD
 70
     0
  0
APPID
  5
CD
330
9
100
AcDbSymbolTableRecord
100
AcDbRegAppTableRecord
  2
AD_DRAW
 70
     0
  0
APPID
  5
E7
330
9
100
AcDbSymbolTableRecord
100
AcDbRegAppTableRecord
  2
DESIGNERASSEMBLIES
 70
     0
  0
APPID
  5
EB
330
9
100
AcDbSymbolTableRecord
100
AcDbRegAppTableRecord
  2
MCAD_NO_VIS
 70
     0
  0
APPID
  5
122
330
9
100
AcDbSymbolTableRecord
100
AcDbRegAppTableRecord
  2
ASURF_PCURVE_APPNAME
 70
     0
  0
APPID
  5
17F
330
9
100
AcDbSymbolTableRecord
100
AcDbRegAppTableRecord
  2
ACAD_TEMP_GRAPHIC
 70
     0
  0
APPID
  5
189
330
9
100
AcDbSymbolTableRecord
100
AcDbRegAppTableRecord
  2
ACATTRIBSERVICES
 70
     0
  0
APPID
  5
1C4
330
9
100
AcDbSymbolTableRecord
100
AcDbRegAppTableRecord
  2
ACADM_DIM_EDIT
 70
     0
  0
APPID
  5
1D5
330
9
100
AcDbSymbolTableRecord
100
AcDbRegAppTableRecord
  2
GENIUS_GENDIM_13
 70
     0
  0
APPID
  5
1D6
330
9
100
AcDbSymbolTableRecord
100
AcDbRegAppTableRecord
  2
GENIUS_GENDTOL_13
 70
     0
  0
APPID
  5
1D7
330
9
100
AcDbSymbolTableRecord
100
AcDbRegAppTableRecord
  2
GENIUS_GE3DTOL_13
 70
     0
  0
APPID
  5
3F5
330
9
100
AcDbSymbolTableRecord
100
AcDbRegAppTableRecord
  2
AVE_RENDER
 70
     0
  0
APPID
  5
3F6
330
9
100
AcDbSymbolTableRecord
100
AcDbRegAppTableRecord
  2
AVE_ENTITY_MATERIAL
 70
     0
  0
APPID
  5
403
330
9
100
AcDbSymbolTableRecord
100
AcDbRegAppTableRecord
  2
AVE_FINISH
 70
     0
  0
APPID
  5
404
330
9
100
AcDbSymbolTableRecord
100
AcDbRegAppTableRecord
  2
AVE_MATERIAL
 70
     0
  0
APPID
  5
405
330
9
100
AcDbSymbolTableRecord
100
AcDbRegAppTableRecord
  2
AVE_GLOBAL
 70
     0
  0
APPID
  5
587
330
9
100
AcDbSymbolTableRecord
100
AcDbRegAppTableRecord
  2
GENIUS_GENREC_14
 70
     0
  0
APPID
  5
588
330
9
100
AcDbSymbolTableRecord
100
AcDbRegAppTableRecord
  2
GENIUS_GENODEF_13
 70
     0
  0
APPID
  5
589
330
9
100
AcDbSymbolTableRecord
100
AcDbRegAppTableRecord
  2
GENIUS_GENOBJ-N-REC_13
 70
     0
  0
APPID
  5
5F8
330
9
100
AcDbSymbolTableRecord
100
AcDbRegAppTableRecord
  2
GENIUS_GENOBJ-3-SH3D_13
 70
     0
  0
APPID
  5
651
330
9
100
AcDbSymbolTableRecord
100
AcDbRegAppTableRecord
  2
AD_SKETCHDIM
 70
     0
  0
APPID
  5
76F
330
9
100
AcDbSymbolTableRecord
100
AcDbRegAppTableRecord
  2
AM_EDITFEAT
 70
     0
  0
APPID
  5
799
330
9
100
AcDbSymbolTableRecord
100
AcDbRegAppTableRecord
  2
GENIUS_GE3SH_14_1
 70
     0
  0
APPID
  5
79A
330
9
100
AcDbSymbolTableRecord
100
AcDbRegAppTableRecord
  2
GENIUS_GE3MANIP_13
 70
     0
  0
APPID
  5
1066
330
9
100
AcDbSymbolTableRecord
100
AcDbRegAppTableRecord
  2
GENIUS_GENSCREG_15
 70
     0
  0
APPID
  5
1068
330
9
100
AcDbSymbolTableRecord
100
AcDbRegAppTableRecord
  2
GENIUS_GENOBJ-N-SDF_13
 70
     0
  0
APPID
  5
1069
330
9
100
AcDbSymbolTableRecord
100
AcDbRegAppTableRecord
  2
GENIUS_GENOENT_13
 70
     0
  0
APPID
  5
106A
330
9
100
AcDbSymbolTableRecord
100
AcDbRegAppTableRecord
  2
GENIUS_GENOREF_13
 70
     0
  0
APPID
  5
106B
330
9
100
AcDbSymbolTableRecord
100
AcDbRegAppTableRecord
  2
GENIUS_GENOLIS_13
 70
     0
  0
APPID
  5
1348
330
9
100
AcDbSymbolTableRecord
100
AcDbRegAppTableRecord
  2
GENIUS_GENDIMSH_14
 70
     0
  0
APPID
  5
17FE
330
9
100
AcDbSymbolTableRecord
100
AcDbRegAppTableRecord
  2
AMG_3D2D_5.0
 70
     0
  0
APPID
  5
1855
330
9
100
AcDbSymbolTableRecord
100
AcDbRegAppTableRecord
  2
AMDT_DM_ADJ
 70
     0
  0
APPID
  5
1B5A
330
9
100
AcDbSymbolTableRecord
100
AcDbRegAppTableRecord
  2
GENIUS_GENDREL_13
 70
     0
  0
APPID
  5
30D7
330
9
100
AcDbSymbolTableRecord
100
AcDbRegAppTableRecord
  2
GENIUS_AMGTXT_16
 70
     0
  0
ENDTAB
  0
TABLE
  2
DIMSTYLE
  5
A
330
0
100
AcDbSymbolTable
 70
    44
100
AcDbDimStyleTable
 71
     6
340
395
340
25
340
62
340
2A
340
29
340
28
  0
DIMSTYLE
105
1D
330
A
100
AcDbSymbolTableRecord
100
AcDbDimStyleTableRecord
  2
STANDARD
 70
     0
 41
2.5
 42
0.625
 43
3.75
 44
1.25
 73
     0
 74
     0
 77
     1
 78
     8
140
2.5
141
2.5
143
0.0394
147
0.625
171
     4
172
     1
273
     8
274
     4
277
     6
340
10
  0
DIMSTYLE
105
25
330
A
100
AcDbSymbolTableRecord
100
AcDbDimStyleTableRecord
  2
ISO-35
 70
     0
 41
3.5
 42
0.875
 43
5.25
 44
1.75
 73
     0
 74
     0
 77
     1
 78
     8
140
3.5
141
3.5
143
0.0394
147
0.875
171
     4
172
     1
273
     8
274
     4
277
     6
340
10
  0
DIMSTYLE
105
26
330
A
100
AcDbSymbolTableRecord
100
AcDbDimStyleTableRecord
  2
ISO-5
 70
     0
 41
5.0
 42
1.25
 43
7.5
 44
2.5
 73
     0
 74
     0
 77
     1
 78
     8
140
5.0
141
5.0
143
0.0394
147
1.25
171
     4
172
     1
273
     8
274
     4
277
     6
340
10
  0
DIMSTYLE
105
27
330
A
100
AcDbSymbolTableRecord
100
AcDbDimStyleTableRecord
  2
ISO-7
 70
     0
 41
7.0
 42
1.75
 43
10.5
 44
3.5
 73
     0
 74
     0
 77
     1
 78
     8
140
7.0
141
7.0
143
0.0394
147
1.75
171
     4
172
     1
273
     8
274
     4
277
     6
340
10
  0
DIMSTYLE
105
28
330
A
100
AcDbSymbolTableRecord
100
AcDbDimStyleTableRecord
  2
ISO1
 70
     0
 41
10.0
 42
2.5
 43
15.0
 44
5.0
 73
     0
 74
     0
 77
     1
 78
     8
140
10.0
141
10.0
143
0.0394
147
2.5
171
     4
172
     1
273
     8
274
     4
277
     6
340
10
  0
DIMSTYLE
105
29
330
A
100
AcDbSymbolTableRecord
100
AcDbDimStyleTableRecord
  2
ISO1-4
 70
     0
 41
14.0
 42
3.5
 43
21.0
 44
7.0
 74
     0
 77
     1
 78
     8
140
14.0
141
14.0
143
0.0394
145
5.599999999999999
147
3.5
172
     1
273
     8
277
     6
340
10
  0
DIMSTYLE
105
2A
330
A
100
AcDbSymbolTableRecord
100
AcDbDimStyleTableRecord
  2
ISO2
 70
     0
 41
20.0
 42
5.0
 43
30.0
 44
10.0
 73
     0
 74
     0
 77
     1
 78
     8
140
20.0
141
20.0
143
0.0394
147
5.0
171
     4
172
     1
273
     8
274
     4
277
     6
340
10
  0
DIMSTYLE
105
60
330
A
100
AcDbSymbolTableRecord
100
AcDbDimStyleTableRecord
  2
ISO-4
 70
     0
 41
14.0
 42
3.5
 43
21.0
 44
7.0
 73
     0
 74
     0
 77
     1
 78
     8
140
14.0
141
14.0
143
0.0394
147
3.5
171
     4
172
     1
273
     8
274
     4
277
     6
340
10
  0
DIMSTYLE
105
62
330
A
100
AcDbSymbolTableRecord
100
AcDbDimStyleTableRecord
  2
ISO-25
 70
     0
 41
2.5
 42
0.625
 43
3.75
 44
1.25
 73
     0
 74
     0
 77
     1
 78
     8
140
2.5
141
2.5
143
0.0394
147
0.625
171
     4
172
     1
273
     8
274
     4
277
     6
340
10
  0
DIMSTYLE
105
395
102
{ACAD_REACTORS
330
2707
330
279B
330
27B7
330
27D3
330
27EF
330
2817
330
285A
330
28EE
330
2916
330
29AA
330
29C6
330
2A0F
330
2AA3
330
2ABF
330
2B1D
330
2B5C
330
2BA5
330
2BEE
330
2CA0
330
2CC8
330
2D4E
330
2D9B
330
2DE4
330
2E6A
330
2EB3
330
2F58
330
2FA1
330
2FEA
330
304D
330
3096
102
}
330
A
100
AcDbSymbolTableRecord
100
AcDbDimStyleTableRecord
  2
AM_ISO
 70
     0
  4
"
 41
3.0
 42
0.0
 43
10.0
 44
1.0
 47
0.1
 48
0.1
 73
     0
 74
     0
 77
     1
 78
     8
 79
     2
140
3.5
141
0.0
143
0.0393701
146
0.71
147
1.5
172
     1
176
   256
177
   256
178
     2
271
     2
272
     2
283
     0
340
10
371
    -1
372
    -1
  0
DIMSTYLE
105
396
330
A
100
AcDbSymbolTableRecord
100
AcDbDimStyleTableRecord
  2
AM_ISO$3
 70
     0
  4
"
 41
2.5
 42
1.0
 43
10.0
 44
1.0
 47
0.1
 48
0.1
 73
     0
 77
     1
 78
     8
 79
     2
140
3.5
141
0.0
143
0.0393701
146
0.71
147
1.5
176
   256
177
   256
178
     2
271
     2
272
     2
283
     0
288
     1
289
     0
340
10
371
    -1
372
    -1
  0
DIMSTYLE
105
397
330
A
100
AcDbSymbolTableRecord
100
AcDbDimStyleTableRecord
  2
AM_ISO$4
 70
     0
  4
"
 41
2.5
 42
1.0
 43
10.0
 44
1.0
 47
0.1
 48
0.1
 73
     0
 77
     1
 78
     8
 79
     2
140
3.5
141
0.0
143
0.0393701
146
0.71
147
1.5
176
   256
177
   256
178
     2
271
     2
272
     2
283
     0
288
     1
289
     0
340
10
371
    -1
372
    -1
  0
DIMSTYLE
105
398
330
A
100
AcDbSymbolTableRecord
100
AcDbDimStyleTableRecord
  2
AM_ISO$6
 70
     0
  4
"
 41
2.5
 42
1.0
 43
10.0
 44
1.0
 47
0.1
 48
0.1
 73
     0
 74
     0
 78
     8
 79
     2
140
3.5
141
0.0
143
0.0393701
146
0.71
147
1.5
172
     1
176
   256
177
   256
178
     2
271
     2
272
     3
274
     4
283
     0
340
10
371
    -1
372
    -1
  0
DIMSTYLE
105
399
330
A
100
AcDbSymbolTableRecord
100
AcDbDimStyleTableRecord
  2
AM_ISO$7
 70
     0
  4
"
 41
2.5
 42
1.0
 43
10.0
 44
1.0
 47
0.1
 48
0.1
 73
     0
 74
     0
 77
     1
 78
     8
 79
     2
140
5.0
141
0.0
143
0.0393701
146
0.71
147
1.5
172
     1
176
   256
177
   256
178
     2
271
     2
272
     3
274
     4
283
     0
340
10
371
    -1
372
    -1
  0
DIMSTYLE
105
39A
330
A
100
AcDbSymbolTableRecord
100
AcDbDimStyleTableRecord
  2
AM_ISO$SF
 70
     0
  4
"
 41
2.5
 42
1.0
 43
10.0
 44
1.0
 47
0.1
 48
0.1
 73
     0
 74
     0
 75
     1
 76
     1
 77
     1
 78
     8
 79
     2
140
3.5
141
0.0
143
0.0393701
146
0.71
147
1.5
172
     1
176
   256
177
   256
178
     2
271
     2
272
     3
274
     4
283
     0
340
10
371
    -1
372
    -1
  0
DIMSTYLE
105
39F
330
A
100
AcDbSymbolTableRecord
100
AcDbDimStyleTableRecord
  2
AM_ISO$SH
 70
     0
  4
"
 41
2.5
 42
1.0
 43
10.0
 44
1.0
 47
0.1
 48
0.1
 73
     0
 74
     0
 75
     1
 76
     1
 77
     1
 78
     8
 79
     2
140
3.5
141
0.0
143
0.0393701
144
2.0
146
0.71
147
1.5
172
     1
173
     1
176
   256
177
   256
178
     2
271
     2
272
     3
274
     4
283
     0
340
10
343
39B
371
    -1
372
    -1
  0
DIMSTYLE
105
1832
330
A
100
AcDbSymbolTableRecord
100
AcDbDimStyleTableRecord
  2
AM_BSI
 70
     0
  4
"
 41
4.0
 42
1.0
 43
10.0
 44
1.0
 47
0.1
 48
0.1
 73
     0
 74
     0
 77
     1
 78
     8
 79
     2
140
3.5
141
0.0
143
0.0393701
146
0.71
147
1.5
172
     1
176
   256
177
   256
178
     2
271
     2
272
     3
274
     4
283
     0
284
     8
340
10
371
    -1
372
    -1
  0
DIMSTYLE
105
1833
330
A
100
AcDbSymbolTableRecord
100
AcDbDimStyleTableRecord
  2
AM_BSI$3
 70
     0
  4
"
 41
4.0
 42
1.0
 43
10.0
 44
1.0
 47
0.1
 48
0.1
 73
     0
 77
     1
 78
     8
 79
     2
140
3.5
141
0.0
143
0.0393701
146
0.71
147
1.5
176
   256
177
   256
178
     2
271
     2
272
     3
274
     4
283
     0
284
     8
288
     1
289
     0
340
10
371
    -1
372
    -1
  0
DIMSTYLE
105
1834
330
A
100
AcDbSymbolTableRecord
100
AcDbDimStyleTableRecord
  2
AM_BSI$4
 70
     0
  4
"
 41
4.0
 42
1.0
 43
10.0
 44
1.0
 47
0.1
 48
0.1
 73
     0
 77
     1
 78
     8
 79
     2
140
3.5
141
0.0
143
0.0393701
146
0.71
147
1.5
176
   256
177
   256
178
     2
271
     2
272
     3
274
     4
283
     0
284
     8
288
     1
289
     0
340
10
371
    -1
372
    -1
  0
DIMSTYLE
105
1835
330
A
100
AcDbSymbolTableRecord
100
AcDbDimStyleTableRecord
  2
AM_BSI$6
 70
     0
  4
"
 41
4.0
 42
1.0
 43
10.0
 44
1.0
 47
0.1
 48
0.1
 73
     0
 74
     0
 78
     8
 79
     2
140
3.5
141
0.0
143
0.0393701
146
0.71
147
1.5
172
     1
176
   256
177
   256
178
     2
271
     2
272
     3
274
     4
283
     0
284
     8
340
10
371
    -1
372
    -1
  0
DIMSTYLE
105
1836
330
A
100
AcDbSymbolTableRecord
100
AcDbDimStyleTableRecord
  2
AM_BSI$7
 70
     0
  4
"
 41
2.5
 42
1.0
 43
10.0
 44
1.0
 47
0.1
 48
0.1
 73
     0
 74
     0
 77
     1
 78
     8
 79
     2
140
5.0
141
0.0
143
0.0393701
146
0.71
147
1.5
172
     1
176
   256
177
   256
178
     2
271
     2
272
     3
274
     4
283
     0
284
     8
340
10
371
    -1
372
    -1
  0
DIMSTYLE
105
1837
330
A
100
AcDbSymbolTableRecord
100
AcDbDimStyleTableRecord
  2
AM_BSI$SF
 70
     0
  4
"
 41
4.0
 42
1.0
 43
10.0
 44
1.0
 47
0.1
 48
0.1
 73
     0
 74
     0
 75
     1
 76
     1
 77
     1
 78
     8
 79
     2
140
3.5
141
0.0
143
0.0393701
146
0.71
147
1.5
172
     1
176
   256
177
   256
178
     2
271
     2
272
     3
274
     4
283
     0
284
     8
340
10
371
    -1
372
    -1
  0
DIMSTYLE
105
1838
330
A
100
AcDbSymbolTableRecord
100
AcDbDimStyleTableRecord
  2
AM_BSI$SH
 70
     0
  4
"
 41
4.0
 42
1.0
 43
10.0
 44
1.0
 47
0.1
 48
0.1
 73
     0
 74
     0
 75
     1
 76
     1
 77
     1
 78
     8
 79
     2
140
3.5
141
0.0
143
0.0393701
144
2.0
146
0.71
147
1.5
172
     1
173
     1
176
   256
177
   256
178
     2
271
     2
272
     3
274
     4
283
     0
284
     8
340
10
343
39B
371
    -1
372
    -1
  0
DIMSTYLE
105
183A
330
A
100
AcDbSymbolTableRecord
100
AcDbDimStyleTableRecord
  2
AM_DIN
 70
     0
  4
"
 41
2.5
 42
1.0
 43
10.0
 44
1.0
 47
0.1
 48
0.1
 73
     0
 74
     0
 77
     1
 78
     8
 79
     2
140
3.5
141
0.0
143
0.0393701
146
0.71
147
1.5
172
     1
176
   256
177
   256
178
     2
271
     2
272
     3
274
     4
283
     0
284
     8
340
10
371
    -1
372
    -1
  0
DIMSTYLE
105
183B
330
A
100
AcDbSymbolTableRecord
100
AcDbDimStyleTableRecord
  2
AM_DIN$3
 70
     0
  4
"
 41
2.5
 42
1.0
 43
10.0
 44
1.0
 47
0.1
 48
0.1
 73
     0
 77
     1
 78
     8
 79
     2
140
3.5
141
0.0
143
0.0393701
146
0.71
147
1.5
176
   256
177
   256
178
     2
271
     2
272
     3
274
     4
283
     0
284
     8
288
     1
289
     0
340
10
371
    -1
372
    -1
  0
DIMSTYLE
105
183C
330
A
100
AcDbSymbolTableRecord
100
AcDbDimStyleTableRecord
  2
AM_DIN$4
 70
     0
  4
"
 41
2.5
 42
1.0
 43
10.0
 44
1.0
 47
0.1
 48
0.1
 73
     0
 77
     1
 78
     8
 79
     2
140
3.5
141
0.0
143
0.0393701
146
0.71
147
1.5
176
   256
177
   256
178
     2
271
     2
272
     3
274
     4
283
     0
284
     8
288
     1
289
     0
340
10
371
    -1
372
    -1
  0
DIMSTYLE
105
183D
330
A
100
AcDbSymbolTableRecord
100
AcDbDimStyleTableRecord
  2
AM_DIN$6
 70
     0
  4
"
 41
2.5
 42
1.0
 43
10.0
 44
1.0
 47
0.1
 48
0.1
 73
     0
 74
     0
 78
     8
 79
     2
140
3.5
141
0.0
143
0.0393701
146
0.71
147
1.5
172
     1
176
   256
177
   256
178
     2
271
     2
272
     3
274
     4
283
     0
284
     8
340
10
371
    -1
372
    -1
  0
DIMSTYLE
105
183E
330
A
100
AcDbSymbolTableRecord
100
AcDbDimStyleTableRecord
  2
AM_DIN$7
 70
     0
  4
"
 41
2.5
 42
1.0
 43
10.0
 44
1.0
 47
0.1
 48
0.1
 73
     0
 74
     0
 77
     1
 78
     8
 79
     2
140
5.0
141
0.0
143
0.0393701
146
0.71
147
1.5
172
     1
176
   256
177
   256
178
     2
271
     2
272
     3
274
     4
283
     0
284
     8
340
10
371
    -1
372
    -1
  0
DIMSTYLE
105
183F
330
A
100
AcDbSymbolTableRecord
100
AcDbDimStyleTableRecord
  2
AM_DIN$SF
 70
     0
  4
"
 41
2.5
 42
1.0
 43
10.0
 44
1.0
 47
0.1
 48
0.1
 73
     0
 74
     0
 75
     1
 76
     1
 77
     1
 78
     8
 79
     2
140
3.5
141
0.0
143
0.0393701
146
0.71
147
1.5
172
     1
176
   256
177
   256
178
     2
271
     2
272
     3
274
     4
283
     0
284
     8
340
10
371
    -1
372
    -1
  0
DIMSTYLE
105
1840
330
A
100
AcDbSymbolTableRecord
100
AcDbDimStyleTableRecord
  2
AM_DIN$SH
 70
     0
  4
"
 41
2.5
 42
1.0
 43
10.0
 44
1.0
 47
0.1
 48
0.1
 73
     0
 74
     0
 75
     1
 76
     1
 77
     1
 78
     8
 79
     2
140
3.5
141
0.0
143
0.0393701
144
2.0
146
0.71
147
1.5
172
     1
173
     1
176
   256
177
   256
178
     2
271
     2
272
     3
274
     4
283
     0
284
     8
340
10
343
39B
371
    -1
372
    -1
  0
DIMSTYLE
105
1843
330
A
100
AcDbSymbolTableRecord
100
AcDbDimStyleTableRecord
  2
AM_JIS
 70
     0
  4
"
 41
2.5
 42
1.0
 43
10.0
 44
1.0
 47
0.1
 48
0.1
 73
     0
 74
     0
 77
     3
 78
     8
 79
     2
140
3.5
141
0.0
143
0.0393701
146
0.71
147
1.5
172
     1
176
   256
177
   256
178
     2
271
     2
272
     3
274
     4
283
     0
284
     8
340
10
341
1844
342
1844
343
1844
344
1844
371
    -1
372
    -1
  0
DIMSTYLE
105
184A
330
A
100
AcDbSymbolTableRecord
100
AcDbDimStyleTableRecord
  2
AM_JIS$3
 70
     0
  4
"
 41
2.5
 42
1.0
 43
10.0
 44
1.0
 47
0.1
 48
0.1
 73
     0
 77
     3
 78
     8
 79
     2
140
3.5
141
0.0
143
0.0393701
146
0.71
147
1.5
176
   256
177
   256
178
     2
271
     2
272
     3
274
     4
283
     0
284
     8
288
     1
289
     0
340
10
341
1844
342
1844
343
1844
344
1844
371
    -1
372
    -1
  0
DIMSTYLE
105
184B
330
A
100
AcDbSymbolTableRecord
100
AcDbDimStyleTableRecord
  2
AM_JIS$4
 70
     0
  4
"
 41
2.5
 42
1.0
 43
10.0
 44
1.0
 47
0.1
 48
0.1
 73
     0
 77
     3
 78
     8
 79
     2
140
3.5
141
0.0
143
0.0393701
146
0.71
147
1.5
176
   256
177
   256
178
     2
271
     2
272
     3
274
     4
283
     0
284
     8
288
     1
289
     0
340
10
341
1844
342
1844
343
1844
344
1844
371
    -1
372
    -1
  0
DIMSTYLE
105
184C
330
A
100
AcDbSymbolTableRecord
100
AcDbDimStyleTableRecord
  2
AM_JIS$6
 70
     0
  4
"
 41
2.5
 42
1.0
 43
10.0
 44
1.0
 47
0.1
 48
0.1
 73
     0
 74
     0
 78
     8
 79
     2
140
3.5
141
0.0
143
0.0393701
146
0.71
147
1.5
172
     1
176
   256
177
   256
178
     2
271
     2
272
     3
274
     4
283
     0
284
     8
340
10
341
1844
342
1844
343
1844
344
1844
371
    -1
372
    -1
  0
DIMSTYLE
105
184D
330
A
100
AcDbSymbolTableRecord
100
AcDbDimStyleTableRecord
  2
AM_JIS$7
 70
     0
  4
"
 41
2.5
 42
1.0
 43
10.0
 44
1.0
 47
0.1
 48
0.1
 73
     0
 74
     0
 77
     3
 78
     8
 79
     2
140
5.0
141
0.0
143
0.0393701
146
0.71
147
1.5
172
     1
176
   256
177
   256
178
     2
271
     2
272
     3
274
     4
283
     0
284
     8
340
10
341
1844
342
1844
343
1844
344
1844
371
    -1
372
    -1
  0
DIMSTYLE
105
184E
330
A
100
AcDbSymbolTableRecord
100
AcDbDimStyleTableRecord
  2
AM_JIS$SF
 70
     0
  4
"
 41
2.5
 42
1.0
 43
10.0
 44
1.0
 47
0.1
 48
0.1
 73
     0
 74
     0
 75
     1
 76
     1
 77
     3
 78
     8
 79
     2
140
3.5
141
0.0
143
0.0393701
146
0.71
147
1.5
172
     1
176
   256
177
   256
178
     2
271
     2
272
     3
274
     4
283
     0
284
     8
340
10
341
1844
342
1844
343
1844
344
1844
371
    -1
372
    -1
  0
DIMSTYLE
105
184F
330
A
100
AcDbSymbolTableRecord
100
AcDbDimStyleTableRecord
  2
AM_JIS$SH
 70
     0
  4
"
 41
2.5
 42
1.0
 43
10.0
 44
1.0
 47
0.1
 48
0.1
 73
     0
 74
     0
 75
     1
 76
     1
 77
     3
 78
     8
 79
     2
140
3.5
141
0.0
143
0.0393701
144
2.0
146
0.71
147
1.5
172
     1
173
     1
176
   256
177
   256
178
     2
271
     2
272
     3
274
     4
283
     0
284
     8
340
10
341
1844
342
1844
343
39B
344
1844
371
    -1
372
    -1
  0
DIMSTYLE
105
1B53
330
A
100
AcDbSymbolTableRecord
100
AcDbDimStyleTableRecord
  2
GEN-ISO$4
 70
     0
  3
<>
  4
"
 41
3.0
 42
0.0
 43
10.0
 44
1.0
 47
0.1
 48
0.1
 73
     0
 77
     1
 78
     8
140
3.5
141
0.0
143
0.0393701
146
0.71
147
1.0
176
   256
177
   256
178
     2
271
     1
272
     3
274
     4
275
     1
283
     0
284
     8
288
     1
289
     0
340
10
  0
DIMSTYLE
105
1B54
330
A
100
AcDbSymbolTableRecord
100
AcDbDimStyleTableRecord
  2
GEN-ISO$3
 70
     0
  3
<>
  4
"
 41
3.0
 42
0.0
 43
10.0
 44
1.0
 47
0.1
 48
0.1
 73
     0
 77
     1
 78
     8
140
3.5
141
0.0
143
0.0393701
146
0.71
147
1.0
176
   256
177
   256
178
     2
271
     1
272
     3
274
     4
275
     1
283
     0
284
     8
288
     1
289
     0
340
10
  0
DIMSTYLE
105
1B55
330
A
100
AcDbSymbolTableRecord
100
AcDbDimStyleTableRecord
  2
GEN-ISO
 70
     0
  3
<>
  4
"
 41
3.0
 42
0.0
 43
10.0
 44
1.0
 47
0.1
 48
0.1
 73
     0
 74
     0
 77
     1
 78
     8
140
3.5
141
0.0
143
0.0393701
146
0.71
147
1.0
172
     1
176
   256
177
   256
178
     2
271
     1
272
     3
274
     4
275
     1
283
     0
284
     8
340
10
  0
DIMSTYLE
105
1B56
330
A
100
AcDbSymbolTableRecord
100
AcDbDimStyleTableRecord
  2
GEN-ISO$6
 70
     0
  3
<>
  4
"
 41
3.0
 42
0.0
 43
10.0
 44
1.0
 47
0.1
 48
0.1
 73
     0
 74
     0
 78
     8
140
3.5
141
0.0
143
0.0393701
146
0.71
147
1.0
176
   256
177
   256
178
     2
271
     1
272
     3
274
     4
275
     1
283
     0
284
     8
340
10
  0
DIMSTYLE
105
1B57
330
A
100
AcDbSymbolTableRecord
100
AcDbDimStyleTableRecord
  2
GEN-ISO-POS
 70
     0
  3
<>
  4
"
 41
2.5
 42
0.0
 43
10.0
 44
1.0
 47
0.1
 48
0.1
 73
     0
 74
     0
 78
     8
140
5.0
141
0.0
143
0.0393701
146
0.71
147
1.5
176
   256
177
   256
178
     2
271
     1
272
     3
274
     4
275
     1
283
     0
284
     8
340
10
  0
DIMSTYLE
105
1B58
330
A
100
AcDbSymbolTableRecord
100
AcDbDimStyleTableRecord
  2
GEN-ISO-AXE-F
 70
     0
  3
<>
  4
"
 41
3.0
 42
0.0
 43
10.0
 44
1.0
 47
0.1
 48
0.1
 73
     0
 74
     0
 75
     1
 76
     1
 77
     1
 78
     8
140
3.5
141
0.0
143
0.0393701
146
0.71
147
1.0
172
     1
176
   256
177
   256
178
     2
271
     1
272
     3
274
     4
275
     1
283
     0
284
     8
340
10
  0
DIMSTYLE
105
1B59
330
A
100
AcDbSymbolTableRecord
100
AcDbDimStyleTableRecord
  2
GEN-ISO-AXE-H
 70
     0
  3
<>
  4
"
 41
3.0
 42
0.0
 43
10.0
 44
1.0
 47
0.1
 48
0.1
 73
     0
 74
     0
 75
     1
 76
     1
 77
     1
 78
     8
140
3.5
141
0.0
143
0.0393701
144
2.0
146
0.71
147
1.0
172
     1
173
     1
176
   256
177
   256
178
     2
271
     1
272
     3
274
     4
275
     1
283
     0
284
     8
340
10
343
39B
  0
ENDTAB
  0
TABLE
  2
BLOCK_RECORD
  5
1
330
0
100
AcDbSymbolTable
 70
    42
  0
BLOCK_RECORD
  5
1A
102
{ACAD_XDICTIONARY
360
12A
102
}
330
1
100
AcDbSymbolTableRecord
100
AcDbBlockTableRecord
  2
*MODEL_SPACE
340
169
 70
     0
280
     1
281
     0
  0
BLOCK_RECORD
  5
17
330
1
100
AcDbSymbolTableRecord
100
AcDbBlockTableRecord
  2
*PAPER_SPACE
340
16A
 70
     0
280
     1
281
     0
  0
BLOCK_RECORD
  5
34D
330
1
100
AcDbSymbolTableRecord
100
AcDbBlockTableRecord
  2
*Paper_Space0
340
351
 70
     0
280
     1
281
     0
  0
BLOCK_RECORD
  5
313
330
1
100
AcDbSymbolTableRecord
100
AcDbBlockTableRecord
  2
*Paper_Space1
340
314
 70
     0
280
     1
281
     0
  0
BLOCK_RECORD
  5
2E0
330
1
100
AcDbSymbolTableRecord
100
AcDbBlockTableRecord
  2
*Paper_Space2
340
2E1
 70
     0
280
     1
281
     0
  0
BLOCK_RECORD
  5
345
330
1
100
AcDbSymbolTableRecord
100
AcDbBlockTableRecord
  2
*Paper_Space3
340
349
 70
     0
280
     1
281
     0
  0
BLOCK_RECORD
  5
39B
330
1
100
AcDbSymbolTableRecord
100
AcDbBlockTableRecord
  2
GENAXEH
340
0
 70
     0
280
     1
281
     0
  0
BLOCK_RECORD
  5
3F8
330
1
100
AcDbSymbolTableRecord
100
AcDbBlockTableRecord
  2
AVE_RENDER
340
0
102
{BLKREFS
331
3FB
331
3FC
331
3FD
331
3FE
331
3FF
331
400
331
401
331
402
102
}
 70
     0
280
     1
281
     0
  0
BLOCK_RECORD
  5
406
330
1
100
AcDbSymbolTableRecord
100
AcDbBlockTableRecord
  2
AVE_GLOBAL
340
0
102
{BLKREFS
331
409
102
}
 70
     0
280
     1
281
     0
  0
BLOCK_RECORD
  5
594
330
1
100
AcDbSymbolTableRecord
100
AcDbBlockTableRecord
  2
*U7
340
0
 70
     0
280
     1
281
     0
  0
BLOCK_RECORD
  5
5E5
330
1
100
AcDbSymbolTableRecord
100
AcDbBlockTableRecord
  2
*U8
340
0
 70
     0
280
     1
281
     0
  0
BLOCK_RECORD
  5
1366
330
1
100
AcDbSymbolTableRecord
100
AcDbBlockTableRecord
  2
GENDOT
340
0
 70
     0
280
     1
281
     0
  0
BLOCK_RECORD
  5
1844
330
1
100
AcDbSymbolTableRecord
100
AcDbBlockTableRecord
  2
_Open30
340
0
 70
     0
280
     1
281
     0
  0
BLOCK_RECORD
  5
19BF
330
1
100
AcDbSymbolTableRecord
100
AcDbBlockTableRecord
  2
BLK33
340
0
102
{BLKREFS
331
1C18
102
}
 70
     0
280
     1
281
     0
  0
BLOCK_RECORD
  5
2708
330
1
100
AcDbSymbolTableRecord
100
AcDbBlockTableRecord
  2
*D12
340
0
 70
     0
280
     1
281
     0
  0
BLOCK_RECORD
  5
279C
330
1
100
AcDbSymbolTableRecord
100
AcDbBlockTableRecord
  2
*D13
340
0
 70
     0
280
     1
281
     0
  0
BLOCK_RECORD
  5
27B8
330
1
100
AcDbSymbolTableRecord
100
AcDbBlockTableRecord
  2
*D14
340
0
 70
     0
280
     1
281
     0
  0
BLOCK_RECORD
  5
27D4
330
1
100
AcDbSymbolTableRecord
100
AcDbBlockTableRecord
  2
*D15
340
0
 70
     0
280
     1
281
     0
  0
BLOCK_RECORD
  5
27F0
330
1
100
AcDbSymbolTableRecord
100
AcDbBlockTableRecord
  2
*D16
340
0
 70
     0
280
     1
281
     0
  0
BLOCK_RECORD
  5
2818
330
1
100
AcDbSymbolTableRecord
100
AcDbBlockTableRecord
  2
*D17
340
0
 70
     0
280
     1
281
     0
  0
BLOCK_RECORD
  5
285B
330
1
100
AcDbSymbolTableRecord
100
AcDbBlockTableRecord
  2
*D18
340
0
 70
     0
280
     1
281
     0
  0
BLOCK_RECORD
  5
28EF
330
1
100
AcDbSymbolTableRecord
100
AcDbBlockTableRecord
  2
*D19
340
0
 70
     0
280
     1
281
     0
  0
BLOCK_RECORD
  5
2917
330
1
100
AcDbSymbolTableRecord
100
AcDbBlockTableRecord
  2
*D20
340
0
 70
     0
280
     1
281
     0
  0
BLOCK_RECORD
  5
29AB
330
1
100
AcDbSymbolTableRecord
100
AcDbBlockTableRecord
  2
*D21
340
0
 70
     0
280
     1
281
     0
  0
BLOCK_RECORD
  5
29C7
330
1
100
AcDbSymbolTableRecord
100
AcDbBlockTableRecord
  2
*D22
340
0
 70
     0
280
     1
281
     0
  0
BLOCK_RECORD
  5
2A10
330
1
100
AcDbSymbolTableRecord
100
AcDbBlockTableRecord
  2
*D23
340
0
 70
     0
280
     1
281
     0
  0
BLOCK_RECORD
  5
2AA4
330
1
100
AcDbSymbolTableRecord
100
AcDbBlockTableRecord
  2
*D24
340
0
 70
     0
280
     1
281
     0
  0
BLOCK_RECORD
  5
2AC0
330
1
100
AcDbSymbolTableRecord
100
AcDbBlockTableRecord
  2
*D25
340
0
 70
     0
280
     1
281
     0
  0
BLOCK_RECORD
  5
2B1E
330
1
100
AcDbSymbolTableRecord
100
AcDbBlockTableRecord
  2
*D26
340
0
 70
     0
280
     1
281
     0
  0
BLOCK_RECORD
  5
2B5D
330
1
100
AcDbSymbolTableRecord
100
AcDbBlockTableRecord
  2
*D27
340
0
 70
     0
280
     1
281
     0
  0
BLOCK_RECORD
  5
2BA6
330
1
100
AcDbSymbolTableRecord
100
AcDbBlockTableRecord
  2
*D28
340
0
 70
     0
280
     1
281
     0
  0
BLOCK_RECORD
  5
2BEF
330
1
100
AcDbSymbolTableRecord
100
AcDbBlockTableRecord
  2
*D29
340
0
 70
     0
280
     1
281
     0
  0
BLOCK_RECORD
  5
2CA1
330
1
100
AcDbSymbolTableRecord
100
AcDbBlockTableRecord
  2
*D30
340
0
 70
     0
280
     1
281
     0
  0
BLOCK_RECORD
  5
2CC9
330
1
100
AcDbSymbolTableRecord
100
AcDbBlockTableRecord
  2
*D31
340
0
 70
     0
280
     1
281
     0
  0
BLOCK_RECORD
  5
2D4F
330
1
100
AcDbSymbolTableRecord
100
AcDbBlockTableRecord
  2
*D32
340
0
 70
     0
280
     1
281
     0
  0
BLOCK_RECORD
  5
2D9C
330
1
100
AcDbSymbolTableRecord
100
AcDbBlockTableRecord
  2
*D33
340
0
 70
     0
280
     1
281
     0
  0
BLOCK_RECORD
  5
2DE5
330
1
100
AcDbSymbolTableRecord
100
AcDbBlockTableRecord
  2
*D34
340
0
 70
     0
280
     1
281
     0
  0
BLOCK_RECORD
  5
2E6B
330
1
100
AcDbSymbolTableRecord
100
AcDbBlockTableRecord
  2
*D35
340
0
 70
     0
280
     1
281
     0
  0
BLOCK_RECORD
  5
2EB4
330
1
100
AcDbSymbolTableRecord
100
AcDbBlockTableRecord
  2
*D36
340
0
 70
     0
280
     1
281
     0
  0
BLOCK_RECORD
  5
2F59
330
1
100
AcDbSymbolTableRecord
100
AcDbBlockTableRecord
  2
*D37
340
0
 70
     0
280
     1
281
     0
  0
BLOCK_RECORD
  5
2FA2
330
1
100
AcDbSymbolTableRecord
100
AcDbBlockTableRecord
  2
*D38
340
0
 70
     0
280
     1
281
     0
  0
BLOCK_RECORD
  5
2FEB
330
1
100
AcDbSymbolTableRecord
100
AcDbBlockTableRecord
  2
*D39
340
0
 70
     0
280
     1
281
     0
  0
BLOCK_RECORD
  5
304E
330
1
100
AcDbSymbolTableRecord
100
AcDbBlockTableRecord
  2
*D40
340
0
 70
     0
280
     1
281
     0
  0
BLOCK_RECORD
  5
3097
330
1
100
AcDbSymbolTableRecord
100
AcDbBlockTableRecord
  2
*D41
340
0
 70
     0
280
     1
281
     0
  0
ENDTAB
  0
ENDSEC
  0
SECTION
  2
BLOCKS
  0
BLOCK
  5
1B
330
1A
100
AcDbEntity
  8
0
100
AcDbBlockBegin
  2
*MODEL_SPACE
 70
     0
 10
0.0
 20
0.0
 30
0.0
  3
*MODEL_SPACE
  1

  0
ENDBLK
  5
1C
330
1A
100
AcDbEntity
  8
0
100
AcDbBlockEnd
  0
BLOCK
  5
18
330
17
100
AcDbEntity
 67
     1
  8
0
100
AcDbBlockBegin
  2
*PAPER_SPACE
 70
     0
 10
0.0
 20
0.0
 30
0.0
  3
*PAPER_SPACE
  1

  0
ENDBLK
  5
19
330
17
100
AcDbEntity
 67
     1
  8
0
100
AcDbBlockEnd
  0
BLOCK
  5
34F
330
34D
100
AcDbEntity
 67
     1
  8
0
100
AcDbBlockBegin
  2
*Paper_Space0
 70
     0
 10
0.0
 20
0.0
 30
0.0
  3
*Paper_Space0
  1

  0
VIEWPORT
  5
34E
330
34D
100
AcDbEntity
 67
     1
  8
AM_VIEWS
100
AcDbViewport
 10
577.468994140625
 20
415.4593176841736
 30
0.0
 40
1195.734595476714
 41
932.8590910236622
 68
     0
 69
     0
 12
577.468994140625
 22
415.4593176841736
 13
0.0
 23
0.0
 14
10.0
 24
10.0
 15
10.0
 25
10.0
 16
0.0
 26
0.0
 36
1.0
 17
0.0
 27
0.0
 37
0.0
 42
50.0
 43
0.0
 44
0.0
 45
932.8590910236622
 50
0.0
 51
0.0
 72
   100
331
1969
 90
    32800
  1

281
     0
 71
     1
 74
     0
110
0.0
120
0.0
130
0.0
111
1.0
121
0.0
131
0.0
112
0.0
122
1.0
132
0.0
 79
     0
146
0.0
170
     0
 61
     5
348
31B5
292
     1
282
     1
141
0.0
142
0.0
 63
   250
421
  3355443
  0
ENDBLK
  5
350
330
34D
100
AcDbEntity
 67
     1
  8
0
100
AcDbBlockEnd
  0
BLOCK
  5
315
330
313
100
AcDbEntity
 67
     1
  8
0
100
AcDbBlockBegin
  2
*Paper_Space1
 70
     0
 10
0.0
 20
0.0
 30
0.0
  3
*Paper_Space1
  1

  0
VIEWPORT
  5
344
330
313
100
AcDbEntity
 67
     1
  8
AM_VIEWS
100
AcDbViewport
 10
279.9926452636719
 20
204.9779944419861
 30
0.0
 40
597.3137355517764
 41
465.9976808487594
 68
     0
 69
     0
 12
279.9926452636719
 22
204.9779944419861
 13
0.0
 23
0.0
 14
10.0
 24
10.0
 15
10.0
 25
10.0
 16
0.0
 26
0.0
 36
1.0
 17
0.0
 27
0.0
 37
0.0
 42
50.0
 43
0.0
 44
0.0
 45
465.9976808487594
 50
0.0
 51
0.0
 72
   100
331
1969
 90
    32800
  1

281
     0
 71
     1
 74
     0
110
0.0
120
0.0
130
0.0
111
1.0
121
0.0
131
0.0
112
0.0
122
1.0
132
0.0
 79
     0
146
0.0
170
     0
 61
     5
348
31B5
292
     1
282
     1
141
0.0
142
0.0
 63
   250
421
  3355443
  0
ENDBLK
  5
316
330
313
100
AcDbEntity
 67
     1
  8
0
100
AcDbBlockEnd
  0
BLOCK
  5
2E2
330
2E0
100
AcDbEntity
 67
     1
  8
0
100
AcDbBlockBegin
  2
*Paper_Space2
 70
     0
 10
0.0
 20
0.0
 30
0.0
  3
*Paper_Space2
  1

  0
VIEWPORT
  5
31D
330
2E0
100
AcDbEntity
 67
     1
  8
AM_VIEWS
100
AcDbViewport
 10
204.9674224853516
 20
143.4782419204712
 30
0.0
 40
422.4372280469156
 41
329.5667868615042
 68
     0
 69
     0
 12
204.9674224853516
 22
143.4782419204712
 13
0.0
 23
0.0
 14
10.0
 24
10.0
 15
10.0
 25
10.0
 16
0.0
 26
0.0
 36
1.0
 17
0.0
 27
0.0
 37
0.0
 42
50.0
 43
0.0
 44
0.0
 45
329.5667868615042
 50
0.0
 51
0.0
 72
   100
331
1969
 90
    32800
  1

281
     0
 71
     1
 74
     0
110
0.0
120
0.0
130
0.0
111
1.0
121
0.0
131
0.0
112
0.0
122
1.0
132
0.0
 79
     0
146
0.0
170
     0
 61
     5
348
31B5
292
     1
282
     1
141
0.0
142
0.0
 63
   250
421
  3355443
  0
ENDBLK
  5
2E3
330
2E0
100
AcDbEntity
 67
     1
  8
0
100
AcDbBlockEnd
  0
BLOCK
  5
347
330
345
100
AcDbEntity
 67
     1
  8
0
100
AcDbBlockBegin
  2
*Paper_Space3
 70
     0
 10
0.0
 20
0.0
 30
0.0
  3
*Paper_Space3
  1

  0
VIEWPORT
  5
346
330
345
100
AcDbEntity
 67
     1
  8
AM_VIEWS
100
AcDbViewport
 10
279.9926452636719
 20
204.9779944419861
 30
0.0
 40
597.3137355517764
 41
465.9976808487594
 68
     0
 69
     0
 12
279.9926452636719
 22
204.9779944419861
 13
0.0
 23
0.0
 14
10.0
 24
10.0
 15
10.0
 25
10.0
 16
0.0
 26
0.0
 36
1.0
 17
0.0
 27
0.0
 37
0.0
 42
50.0
 43
0.0
 44
0.0
 45
465.9976808487594
 50
0.0
 51
0.0
 72
   100
331
1969
 90
    32800
  1

281
     0
 71
     1
 74
     0
110
0.0
120
0.0
130
0.0
111
1.0
121
0.0
131
0.0
112
0.0
122
1.0
132
0.0
 79
     0
146
0.0
170
     0
 61
     5
348
31B5
292
     1
282
     1
141
0.0
142
0.0
 63
   250
421
  3355443
  0
ENDBLK
  5
348
330
345
100
AcDbEntity
 67
     1
  8
0
100
AcDbBlockEnd
  0
BLOCK
  5
39D
330
39B
100
AcDbEntity
  8
0
100
AcDbBlockBegin
  2
GENAXEH
 70
     0
 10
0.0
 20
0.0
 30
0.0
  3
GENAXEH
  1

  0
LINE
  5
39C
330
39B
100
AcDbEntity
  8
0
100
AcDbLine
 10
-1.0
 20
0.0
 30
0.0
 11
1.0
 21
0.0
 31
0.0
  0
ENDBLK
  5
39E
330
39B
100
AcDbEntity
  8
0
100
AcDbBlockEnd
  0
BLOCK
  5
3F9
330
3F8
100
AcDbEntity
  8
ASHADE
100
AcDbBlockBegin
  2
AVE_RENDER
 70
     0
 10
0.0
 20
0.0
 30
0.0
  3
AVE_RENDER
  1
AVE_RENDER
  0
ENDBLK
  5
3FA
330
3F8
100
AcDbEntity
  8
0
100
AcDbBlockEnd
  0
BLOCK
  5
407
330
406
100
AcDbEntity
  8
ASHADE
100
AcDbBlockBegin
  2
AVE_GLOBAL
 70
     0
 10
0.0
 20
0.0
 30
0.0
  3
AVE_GLOBAL
  1
AVE_GLOBAL
  0
ENDBLK
  5
408
330
406
100
AcDbEntity
  8
0
100
AcDbBlockEnd
  0
BLOCK
  5
595
330
594
100
AcDbEntity
  8
0
100
AcDbBlockBegin
  2
*U7
 70
     1
 10
0.0
 20
0.0
 30
0.0
  3
*U7
  1

  0
ENDBLK
  5
596
330
594
100
AcDbEntity
  8
0
100
AcDbBlockEnd
  0
BLOCK
  5
5E6
330
5E5
100
AcDbEntity
  8
0
100
AcDbBlockBegin
  2
*U8
 70
     1
 10
0.0
 20
0.0
 30
0.0
  3
*U8
  1

  0
ENDBLK
  5
5E7
330
5E5
100
AcDbEntity
  8
0
100
AcDbBlockEnd
  0
BLOCK
  5
1369
330
1366
100
AcDbEntity
  8
0
100
AcDbBlockBegin
  2
GENDOT
 70
     0
 10
0.0
 20
0.0
 30
0.0
  3
GENDOT
  1

  0
LINE
  5
1367
330
1366
100
AcDbEntity
  8
0
100
AcDbLine
 10
0.0
 20
0.0
 30
0.0
 11
-1.0
 21
0.0
 31
0.0
  0
LWPOLYLINE
  5
1368
330
1366
100
AcDbEntity
  8
0
100
AcDbPolyline
 90
        2
 70
     1
 43
0.25
 10
-0.125
 20
0.0
 42
1.0
 10
0.125
 20
0.0
 42
1.0
  0
ENDBLK
  5
136A
330
1366
100
AcDbEntity
  8
0
100
AcDbBlockEnd
  0
BLOCK
  5
1848
330
1844
100
AcDbEntity
  8
0
100
AcDbBlockBegin
  2
_Open30
 70
     0
 10
0.0
 20
0.0
 30
0.0
  3
_Open30
  1

  0
LINE
  5
1845
330
1844
100
AcDbEntity
  8
0
  6
ByBlock
 62
     0
370
    -2
100
AcDbLine
 10
-1.0
 20
0.26794919
 30
0.0
 11
0.0
 21
0.0
 31
0.0
  0
LINE
  5
1846
330
1844
100
AcDbEntity
  8
0
  6
ByBlock
 62
     0
370
    -2
100
AcDbLine
 10
0.0
 20
0.0
 30
0.0
 11
-1.0
 21
-0.26794919
 31
0.0
  0
LINE
  5
1847
330
1844
100
AcDbEntity
  8
0
  6
ByBlock
 62
     0
370
    -2
100
AcDbLine
 10
0.0
 20
0.0
 30
0.0
 11
-1.0
 21
0.0
 31
0.0
  0
ENDBLK
  5
1849
330
1844
100
AcDbEntity
  8
0
100
AcDbBlockEnd
  0
BLOCK
  5
19C6
330
19BF
100
AcDbEntity
  8
0
100
AcDbBlockBegin
  2
BLK33
 70
     2
 10
0.0
 20
0.0
 30
0.0
  3
BLK33
  1

  0
LINE
  5
19C0
330
19BF
100
AcDbEntity
  8
1
100
AcDbLine
 10
-34.999931
 20
65.05053700000001
 30
0.0
 11
-30.000008
 21
65.05053700000001
 31
0.0
  0
LINE
  5
19C1
330
19BF
100
AcDbEntity
  8
1
100
AcDbLine
 10
-34.999939
 20
77.55054499999999
 30
0.0
 11
-30.000008
 21
77.55054499999999
 31
0.0
  0
LINE
  5
19C2
330
19BF
100
AcDbEntity
  8
1
100
AcDbLine
 10
-34.999947
 20
71.30053700000001
 30
0.0
 11
-34.999947
 21
78.80053700000001
 31
0.0
  0
LINE
  5
19C3
330
19BF
100
AcDbEntity
  8
1
100
AcDbLine
 10
-34.999947
 20
71.30053700000001
 30
0.0
 11
-34.999947
 21
63.80054499999999
 31
0.0
  0
LINE
  5
19C4
330
19BF
100
AcDbEntity
  8
1
100
AcDbLine
 10
-34.999947
 20
63.800537
 30
0.0
 11
-30.000008
 21
63.800537
 31
0.0
  0
LINE
  5
19C5
330
19BF
100
AcDbEntity
  8
1
100
AcDbLine
 10
-34.999947
 20
78.80054499999999
 30
0.0
 11
-30.000008
 21
78.80054499999999
 31
0.0
  0
ENDBLK
  5
19C7
330
19BF
100
AcDbEntity
  8
0
100
AcDbBlockEnd
  0
BLOCK
  5
2712
330
2708
100
AcDbEntity
  8
0
100
AcDbBlockBegin
  2
*D12
 70
     1
 10
0.0
 20
0.0
 30
0.0
  3
*D12
  1

  0
LINE
  5
2792
330
2708
100
AcDbEntity
  8
AM_5
100
AcDbLine
 10
158.2699632767817
 20
426.4544748143926
 30
0.0
 11
122.2700842767817
 21
426.4544748143926
 31
0.0
  0
LINE
  5
2793
330
2708
100
AcDbEntity
  8
AM_5
100
AcDbLine
 10
148.2700852767818
 20
372.9555888143926
 30
0.0
 11
122.2700842767817
 21
372.9555888143927
 31
0.0
  0
LINE
  5
2794
330
2708
100
AcDbEntity
  8
AM_5
100
AcDbLine
 10
124.2700842767817
 20
420.4544748143926
 30
0.0
 11
124.2700842767817
 21
378.9555888143927
 31
0.0
  0
SOLID
  5
2795
330
2708
100
AcDbEntity
  8
AM_5
100
AcDbTrace
 10
123.2700842767817
 20
420.4544748143926
 30
0.0
 11
125.2700842767817
 21
420.4544748143926
 31
0.0
 12
124.2700842767817
 22
426.4544748143926
 32
0.0
 13
124.2700842767817
 23
426.4544748143926
 33
0.0
  0
SOLID
  5
2796
330
2708
100
AcDbEntity
  8
AM_5
100
AcDbTrace
 10
123.2700842767817
 20
378.9555888143927
 30
0.0
 11
125.2700842767817
 21
378.9555888143927
 31
0.0
 12
124.2700842767817
 22
372.9555888143927
 32
0.0
 13
124.2700842767817
 23
372.9555888143927
 33
0.0
  0
MTEXT
  5
2797
330
2708
100
AcDbEntity
  8
AM_5
 62
     2
100
AcDbMText
 10
117.7700842767817
 20
399.7050318143927
 30
0.0
 40
7.0
 41
0.0
 46
0.0
 71
     5
 72
     1
  1
53.5
 11
0.0000000000000001
 21
1.0
 31
0.0
 73
     1
 44
1.0
  0
POINT
  5
2798
330
2708
100
AcDbEntity
  8
Defpoints
 62
     0
100
AcDbPoint
 10
158.2699632767817
 20
426.4544748143926
 30
0.0
  0
POINT
  5
2799
330
2708
100
AcDbEntity
  8
Defpoints
 62
     0
100
AcDbPoint
 10
148.2700852767818
 20
372.9555888143926
 30
0.0
  0
POINT
  5
279A
330
2708
100
AcDbEntity
  8
Defpoints
 62
     0
100
AcDbPoint
 10
124.2700842767817
 20
372.9555888143927
 30
0.0
  0
ENDBLK
  5
2713
330
2708
100
AcDbEntity
  8
0
100
AcDbBlockEnd
  0
BLOCK
  5
27A6
330
279C
100
AcDbEntity
  8
0
100
AcDbBlockBegin
  2
*D13
 70
     1
 10
0.0
 20
0.0
 30
0.0
  3
*D13
  1

  0
LINE
  5
27A8
330
279C
100
AcDbEntity
  8
AM_5
100
AcDbLine
 10
148.2700852767818
 20
372.9555888143926
 30
0.0
 11
122.2700842767817
 21
372.9555888143927
 31
0.0
  0
LINE
  5
27A9
330
279C
100
AcDbEntity
  8
AM_5
100
AcDbLine
 10
148.2700852767818
 20
342.9555728143926
 30
0.0
 11
122.2700842767817
 21
342.9555728143927
 31
0.0
  0
LINE
  5
27AA
330
279C
100
AcDbEntity
  8
AM_5
100
AcDbLine
 10
124.2700842767817
 20
366.9555888143927
 30
0.0
 11
124.2700842767817
 21
348.9555728143927
 31
0.0
  0
SOLID
  5
27AB
330
279C
100
AcDbEntity
  8
AM_5
100
AcDbTrace
 10
123.2700842767817
 20
366.9555888143927
 30
0.0
 11
125.2700842767817
 21
366.9555888143927
 31
0.0
 12
124.2700842767817
 22
372.9555888143927
 32
0.0
 13
124.2700842767817
 23
372.9555888143927
 33
0.0
  0
SOLID
  5
27AC
330
279C
100
AcDbEntity
  8
AM_5
100
AcDbTrace
 10
123.2700842767817
 20
348.9555728143927
 30
0.0
 11
125.2700842767817
 21
348.9555728143927
 31
0.0
 12
124.2700842767817
 22
342.9555728143927
 32
0.0
 13
124.2700842767817
 23
342.9555728143927
 33
0.0
  0
MTEXT
  5
27AD
330
279C
100
AcDbEntity
  8
AM_5
 62
     2
100
AcDbMText
 10
117.7700842767817
 20
357.9555808143926
 30
0.0
 40
7.0
 41
0.0
 46
0.0
 71
     5
 72
     1
  1
30
 11
0.0000000000000001
 21
1.0
 31
0.0
 73
     1
 44
1.0
  0
POINT
  5
27AE
330
279C
100
AcDbEntity
  8
Defpoints
 62
     0
100
AcDbPoint
 10
148.2700852767818
 20
372.9555888143926
 30
0.0
  0
POINT
  5
27AF
330
279C
100
AcDbEntity
  8
Defpoints
 62
     0
100
AcDbPoint
 10
148.2700852767818
 20
342.9555728143926
 30
0.0
  0
POINT
  5
27B0
330
279C
100
AcDbEntity
  8
Defpoints
 62
     0
100
AcDbPoint
 10
124.2700842767817
 20
342.9555728143927
 30
0.0
  0
ENDBLK
  5
27A7
330
279C
100
AcDbEntity
  8
0
100
AcDbBlockEnd
  0
BLOCK
  5
27C2
330
27B8
100
AcDbEntity
  8
0
100
AcDbBlockBegin
  2
*D14
 70
     1
 10
0.0
 20
0.0
 30
0.0
  3
*D14
  1

  0
LINE
  5
27C4
330
27B8
100
AcDbEntity
  8
AM_5
100
AcDbLine
 10
148.2700852767818
 20
342.9555728143926
 30
0.0
 11
122.2700842767818
 21
342.9555728143927
 31
0.0
  0
LINE
  5
27C5
330
27B8
100
AcDbEntity
  8
AM_5
100
AcDbLine
 10
145.2691172767818
 20
303.9544748143926
 30
0.0
 11
122.2700842767818
 21
303.9544748143927
 31
0.0
  0
LINE
  5
27C6
330
27B8
100
AcDbEntity
  8
AM_5
100
AcDbLine
 10
124.2700842767818
 20
336.9555728143927
 30
0.0
 11
124.2700842767818
 21
309.9544748143927
 31
0.0
  0
SOLID
  5
27C7
330
27B8
100
AcDbEntity
  8
AM_5
100
AcDbTrace
 10
123.2700842767818
 20
336.9555728143927
 30
0.0
 11
125.2700842767818
 21
336.9555728143927
 31
0.0
 12
124.2700842767818
 22
342.9555728143927
 32
0.0
 13
124.2700842767818
 23
342.9555728143927
 33
0.0
  0
SOLID
  5
27C8
330
27B8
100
AcDbEntity
  8
AM_5
100
AcDbTrace
 10
123.2700842767818
 20
309.9544748143927
 30
0.0
 11
125.2700842767818
 21
309.9544748143927
 31
0.0
 12
124.2700842767818
 22
303.9544748143927
 32
0.0
 13
124.2700842767818
 23
303.9544748143927
 33
0.0
  0
MTEXT
  5
27C9
330
27B8
100
AcDbEntity
  8
AM_5
 62
     2
100
AcDbMText
 10
117.7700842767817
 20
323.4550238143927
 30
0.0
 40
7.0
 41
0.0
 46
0.0
 71
     5
 72
     1
  1
39
 11
0.0000000000000001
 21
1.0
 31
0.0
 73
     1
 44
1.0
  0
POINT
  5
27CA
330
27B8
100
AcDbEntity
  8
Defpoints
 62
     0
100
AcDbPoint
 10
148.2700852767818
 20
342.9555728143926
 30
0.0
  0
POINT
  5
27CB
330
27B8
100
AcDbEntity
  8
Defpoints
 62
     0
100
AcDbPoint
 10
145.2691172767818
 20
303.9544748143926
 30
0.0
  0
POINT
  5
27CC
330
27B8
100
AcDbEntity
  8
Defpoints
 62
     0
100
AcDbPoint
 10
124.2700842767818
 20
303.9544748143927
 30
0.0
  0
ENDBLK
  5
27C3
330
27B8
100
AcDbEntity
  8
0
100
AcDbBlockEnd
  0
BLOCK
  5
27DE
330
27D4
100
AcDbEntity
  8
0
100
AcDbBlockBegin
  2
*D15
 70
     1
 10
0.0
 20
0.0
 30
0.0
  3
*D15
  1

  0
LINE
  5
27E0
330
27D4
100
AcDbEntity
  8
AM_5
100
AcDbLine
 10
145.2691172767818
 20
303.9544748143926
 30
0.0
 11
122.2700842767818
 21
303.9544748143927
 31
0.0
  0
LINE
  5
27E1
330
27D4
100
AcDbEntity
  8
AM_5
100
AcDbLine
 10
145.2691172767818
 20
271.9544748143926
 30
0.0
 11
122.2700842767818
 21
271.9544748143927
 31
0.0
  0
LINE
  5
27E2
330
27D4
100
AcDbEntity
  8
AM_5
100
AcDbLine
 10
124.2700842767819
 20
297.9544748143927
 30
0.0
 11
124.2700842767818
 21
277.9544748143926
 31
0.0
  0
SOLID
  5
27E3
330
27D4
100
AcDbEntity
  8
AM_5
100
AcDbTrace
 10
123.2700842767818
 20
297.9544748143927
 30
0.0
 11
125.2700842767819
 21
297.9544748143927
 31
0.0
 12
124.2700842767819
 22
303.9544748143927
 32
0.0
 13
124.2700842767819
 23
303.9544748143927
 33
0.0
  0
SOLID
  5
27E4
330
27D4
100
AcDbEntity
  8
AM_5
100
AcDbTrace
 10
123.2700842767818
 20
277.9544748143926
 30
0.0
 11
125.2700842767818
 21
277.9544748143926
 31
0.0
 12
124.2700842767818
 22
271.9544748143927
 32
0.0
 13
124.2700842767818
 23
271.9544748143927
 33
0.0
  0
MTEXT
  5
27E5
330
27D4
100
AcDbEntity
  8
AM_5
 62
     2
100
AcDbMText
 10
117.7693953004038
 20
287.9544748143926
 30
0.0
 40
7.0
 41
0.0
 46
0.0
 71
     5
 72
     1
  1
32
 11
0.0000000000000001
 21
1.0
 31
0.0
 73
     1
 44
1.0
  0
POINT
  5
27E6
330
27D4
100
AcDbEntity
  8
Defpoints
 62
     0
100
AcDbPoint
 10
145.2691172767818
 20
303.9544748143926
 30
0.0
  0
POINT
  5
27E7
330
27D4
100
AcDbEntity
  8
Defpoints
 62
     0
100
AcDbPoint
 10
145.2691172767818
 20
271.9544748143926
 30
0.0
  0
POINT
  5
27E8
330
27D4
100
AcDbEntity
  8
Defpoints
 62
     0
100
AcDbPoint
 10
124.2700842767818
 20
271.9544748143927
 30
0.0
  0
ENDBLK
  5
27DF
330
27D4
100
AcDbEntity
  8
0
100
AcDbBlockEnd
  0
BLOCK
  5
27FA
330
27F0
100
AcDbEntity
  8
0
100
AcDbBlockBegin
  2
*D16
 70
     1
 10
0.0
 20
0.0
 30
0.0
  3
*D16
  1

  0
LINE
  5
27FC
330
27F0
100
AcDbEntity
  8
AM_5
100
AcDbLine
 10
145.2691172767818
 20
271.9544748143926
 30
0.0
 11
122.2700842767819
 21
271.9544748143927
 31
0.0
  0
LINE
  5
27FD
330
27F0
100
AcDbEntity
  8
AM_5
100
AcDbLine
 10
158.2699632767817
 20
156.4544928143926
 30
0.0
 11
122.2700842767819
 21
156.4544928143926
 31
0.0
  0
LINE
  5
27FE
330
27F0
100
AcDbEntity
  8
AM_5
100
AcDbLine
 10
124.2700842767819
 20
265.9544748143927
 30
0.0
 11
124.2700842767819
 21
162.4544928143926
 31
0.0
  0
SOLID
  5
27FF
330
27F0
100
AcDbEntity
  8
AM_5
100
AcDbTrace
 10
123.2700842767819
 20
265.9544748143927
 30
0.0
 11
125.2700842767819
 21
265.9544748143927
 31
0.0
 12
124.2700842767819
 22
271.9544748143927
 32
0.0
 13
124.2700842767819
 23
271.9544748143927
 33
0.0
  0
SOLID
  5
2800
330
27F0
100
AcDbEntity
  8
AM_5
100
AcDbTrace
 10
123.2700842767819
 20
162.4544928143926
 30
0.0
 11
125.2700842767819
 21
162.4544928143926
 31
0.0
 12
124.2700842767819
 22
156.4544928143926
 32
0.0
 13
124.2700842767819
 23
156.4544928143926
 33
0.0
  0
MTEXT
  5
2801
330
27F0
100
AcDbEntity
  8
AM_5
 62
     2
100
AcDbMText
 10
117.7700842767819
 20
214.2044838143927
 30
0.0
 40
7.0
 41
0.0
 46
0.0
 71
     5
 72
     1
  1
115.5
 11
0.0000000000000001
 21
1.0
 31
0.0
 73
     1
 44
1.0
  0
POINT
  5
2802
330
27F0
100
AcDbEntity
  8
Defpoints
 62
     0
100
AcDbPoint
 10
145.2691172767818
 20
271.9544748143926
 30
0.0
  0
POINT
  5
2803
330
27F0
100
AcDbEntity
  8
Defpoints
 62
     0
100
AcDbPoint
 10
158.2699632767817
 20
156.4544928143926
 30
0.0
  0
POINT
  5
2804
330
27F0
100
AcDbEntity
  8
Defpoints
 62
     0
100
AcDbPoint
 10
124.2700842767819
 20
156.4544928143926
 30
0.0
  0
ENDBLK
  5
27FB
330
27F0
100
AcDbEntity
  8
0
100
AcDbBlockEnd
  0
BLOCK
  5
2822
330
2818
100
AcDbEntity
  8
0
100
AcDbBlockBegin
  2
*D17
 70
     1
 10
0.0
 20
0.0
 30
0.0
  3
*D17
  1

  0
LINE
  5
283F
330
2818
100
AcDbEntity
  8
AM_5
100
AcDbLine
 10
158.2699632767817
 20
426.4544748143926
 30
0.0
 11
90.72652598188112
 21
426.4544748143926
 31
0.0
  0
LINE
  5
2840
330
2818
100
AcDbEntity
  8
AM_5
100
AcDbLine
 10
158.2699632767817
 20
156.4544928143926
 30
0.0
 11
90.72652598188104
 21
156.4544928143926
 31
0.0
  0
LINE
  5
2841
330
2818
100
AcDbEntity
  8
AM_5
100
AcDbLine
 10
92.72652598188113
 20
420.4544748143926
 30
0.0
 11
92.72652598188107
 21
162.4544928143926
 31
0.0
  0
SOLID
  5
2842
330
2818
100
AcDbEntity
  8
AM_5
100
AcDbTrace
 10
91.72652598188113
 20
420.4544748143926
 30
0.0
 11
93.72652598188112
 21
420.4544748143926
 31
0.0
 12
92.72652598188113
 22
426.4544748143926
 32
0.0
 13
92.72652598188113
 23
426.4544748143926
 33
0.0
  0
SOLID
  5
2843
330
2818
100
AcDbEntity
  8
AM_5
100
AcDbTrace
 10
91.72652598188106
 20
162.4544928143926
 30
0.0
 11
93.72652598188107
 21
162.4544928143926
 31
0.0
 12
92.72652598188106
 22
156.4544928143926
 32
0.0
 13
92.72652598188106
 23
156.4544928143926
 33
0.0
  0
MTEXT
  5
2844
330
2818
100
AcDbEntity
  8
AM_5
 62
     2
100
AcDbMText
 10
86.22583700550308
 20
291.4544838143927
 30
0.0
 40
7.0
 41
0.0
 46
0.0
 71
     5
 72
     1
  1
270
 11
0.0000000000000001
 21
1.0
 31
0.0
 73
     1
 44
1.0
  0
POINT
  5
2845
330
2818
100
AcDbEntity
  8
Defpoints
 62
     0
100
AcDbPoint
 10
158.2699632767817
 20
426.4544748143926
 30
0.0
  0
POINT
  5
2846
330
2818
100
AcDbEntity
  8
Defpoints
 62
     0
100
AcDbPoint
 10
158.2699632767817
 20
156.4544928143926
 30
0.0
  0
POINT
  5
2847
330
2818
100
AcDbEntity
  8
Defpoints
 62
     0
100
AcDbPoint
 10
92.72652598188106
 20
156.4544928143926
 30
0.0
  0
ENDBLK
  5
2823
330
2818
100
AcDbEntity
  8
0
100
AcDbBlockEnd
  0
BLOCK
  5
2865
330
285B
100
AcDbEntity
  8
0
100
AcDbBlockBegin
  2
*D18
 70
     1
 10
0.0
 20
0.0
 30
0.0
  3
*D18
  1

  0
LINE
  5
2F40
330
285B
100
AcDbEntity
  8
AM_5
100
AcDbLine
 10
158.2699632767817
 20
156.4544928143926
 30
0.0
 11
158.2699632767817
 21
130.4544918143927
 31
0.0
  0
LINE
  5
2F41
330
285B
100
AcDbEntity
  8
AM_5
100
AcDbLine
 10
218.2699692767818
 20
191.2313948143926
 30
0.0
 11
218.2699692767818
 21
130.4544918143927
 31
0.0
  0
LINE
  5
2F42
330
285B
100
AcDbEntity
  8
AM_5
100
AcDbLine
 10
164.2699632767817
 20
132.4544918143927
 30
0.0
 11
212.2699692767818
 21
132.4544918143927
 31
0.0
  0
SOLID
  5
2F43
330
285B
100
AcDbEntity
  8
AM_5
100
AcDbTrace
 10
164.2699632767817
 20
133.4544918143927
 30
0.0
 11
164.2699632767817
 21
131.4544918143927
 31
0.0
 12
158.2699632767817
 22
132.4544918143927
 32
0.0
 13
158.2699632767817
 23
132.4544918143927
 33
0.0
  0
SOLID
  5
2F44
330
285B
100
AcDbEntity
  8
AM_5
100
AcDbTrace
 10
212.2699692767818
 20
133.4544918143927
 30
0.0
 11
212.2699692767818
 21
131.4544918143927
 31
0.0
 12
218.2699692767818
 22
132.4544918143927
 32
0.0
 13
218.2699692767818
 23
132.4544918143927
 33
0.0
  0
MTEXT
  5
2F45
330
285B
100
AcDbEntity
  8
AM_5
 62
     2
100
AcDbMText
 10
188.2699662767818
 20
139.0031723681768
 30
0.0
 40
7.0
 41
0.0
 46
0.0
 71
     5
 72
     1
  1
D=60
 73
     1
 44
1.0
  0
POINT
  5
2F46
330
285B
100
AcDbEntity
  8
Defpoints
 62
     0
100
AcDbPoint
 10
158.2699632767817
 20
156.4544928143926
 30
0.0
  0
POINT
  5
2F47
330
285B
100
AcDbEntity
  8
Defpoints
 62
     0
100
AcDbPoint
 10
218.2699692767818
 20
191.2313948143926
 30
0.0
  0
POINT
  5
2F48
330
285B
100
AcDbEntity
  8
Defpoints
 62
     0
100
AcDbPoint
 10
218.2699692767818
 20
132.4544918143927
 30
0.0
  0
ENDBLK
  5
2866
330
285B
100
AcDbEntity
  8
0
100
AcDbBlockEnd
  0
BLOCK
  5
28F9
330
28EF
100
AcDbEntity
  8
0
100
AcDbBlockBegin
  2
*D19
 70
     1
 10
0.0
 20
0.0
 30
0.0
  3
*D19
  1

  0
LINE
  5
28FB
330
28EF
100
AcDbEntity
  8
AM_5
100
AcDbLine
 10
218.2699692767818
 20
191.2313948143926
 30
0.0
 11
218.2699692767818
 21
130.4544918143928
 31
0.0
  0
LINE
  5
28FC
330
28EF
100
AcDbEntity
  8
AM_5
100
AcDbLine
 10
257.2699732767818
 20
206.4545088143926
 30
0.0
 11
257.2699732767818
 21
130.4544918143928
 31
0.0
  0
LINE
  5
28FD
330
28EF
100
AcDbEntity
  8
AM_5
100
AcDbLine
 10
224.2699692767818
 20
132.4544918143928
 30
0.0
 11
251.2699732767818
 21
132.4544918143928
 31
0.0
  0
SOLID
  5
28FE
330
28EF
100
AcDbEntity
  8
AM_5
100
AcDbTrace
 10
224.2699692767818
 20
133.4544918143928
 30
0.0
 11
224.2699692767818
 21
131.4544918143928
 31
0.0
 12
218.2699692767818
 22
132.4544918143928
 32
0.0
 13
218.2699692767818
 23
132.4544918143928
 33
0.0
  0
SOLID
  5
28FF
330
28EF
100
AcDbEntity
  8
AM_5
100
AcDbTrace
 10
251.2699732767818
 20
133.4544918143928
 30
0.0
 11
251.2699732767818
 21
131.4544918143928
 31
0.0
 12
257.2699732767818
 22
132.4544918143928
 32
0.0
 13
257.2699732767818
 23
132.4544918143928
 33
0.0
  0
MTEXT
  5
2900
330
28EF
100
AcDbEntity
  8
AM_5
 62
     2
100
AcDbMText
 10
237.7699712767818
 20
138.9544918143928
 30
0.0
 40
7.0
 41
0.0
 46
0.0
 71
     5
 72
     1
  1
39
 73
     1
 44
1.0
  0
POINT
  5
2901
330
28EF
100
AcDbEntity
  8
Defpoints
 62
     0
100
AcDbPoint
 10
218.2699692767818
 20
191.2313948143926
 30
0.0
  0
POINT
  5
2902
330
28EF
100
AcDbEntity
  8
Defpoints
 62
     0
100
AcDbPoint
 10
257.2699732767818
 20
206.4545088143926
 30
0.0
  0
POINT
  5
2903
330
28EF
100
AcDbEntity
  8
Defpoints
 62
     0
100
AcDbPoint
 10
257.2699732767818
 20
132.4544918143928
 30
0.0
  0
ENDBLK
  5
28FA
330
28EF
100
AcDbEntity
  8
0
100
AcDbBlockEnd
  0
BLOCK
  5
2921
330
2917
100
AcDbEntity
  8
0
100
AcDbBlockBegin
  2
*D20
 70
     1
 10
0.0
 20
0.0
 30
0.0
  3
*D20
  1

  0
LINE
  5
2B05
330
2917
100
AcDbEntity
  8
AM_5
100
AcDbLine
 10
161.2699632767817
 20
156.4544928143926
 30
0.0
 11
306.2862803460506
 21
156.4544928143926
 31
0.0
  0
LINE
  5
2B06
330
2917
100
AcDbEntity
  8
AM_5
100
AcDbLine
 10
247.2699732767818
 20
196.4544788143926
 30
0.0
 11
306.2862803460506
 21
196.4544788143926
 31
0.0
  0
LINE
  5
2B07
330
2917
100
AcDbEntity
  8
AM_5
100
AcDbLine
 10
304.2862803460506
 20
162.4544928143926
 30
0.0
 11
304.2862803460506
 21
190.4544788143926
 31
0.0
  0
SOLID
  5
2B08
330
2917
100
AcDbEntity
  8
AM_5
100
AcDbTrace
 10
303.2862803460506
 20
162.4544928143926
 30
0.0
 11
305.2862803460506
 21
162.4544928143926
 31
0.0
 12
304.2862803460506
 22
156.4544928143926
 32
0.0
 13
304.2862803460506
 23
156.4544928143926
 33
0.0
  0
SOLID
  5
2B09
330
2917
100
AcDbEntity
  8
AM_5
100
AcDbTrace
 10
303.2862803460506
 20
190.4544788143926
 30
0.0
 11
305.2862803460506
 21
190.4544788143926
 31
0.0
 12
304.2862803460506
 22
196.4544788143926
 32
0.0
 13
304.2862803460506
 23
196.4544788143926
 33
0.0
  0
MTEXT
  5
2B0A
330
2917
100
AcDbEntity
  8
AM_5
 62
     2
100
AcDbMText
 10
297.7862803460506
 20
176.4544858143926
 30
0.0
 40
7.0
 41
0.0
 46
0.0
 71
     5
 72
     1
  1
40
 11
0.0000000000000001
 21
1.0
 31
0.0
 73
     1
 44
1.0
  0
POINT
  5
2B0B
330
2917
100
AcDbEntity
  8
Defpoints
 62
     0
100
AcDbPoint
 10
161.2699632767817
 20
156.4544928143926
 30
0.0
  0
POINT
  5
2B0C
330
2917
100
AcDbEntity
  8
Defpoints
 62
     0
100
AcDbPoint
 10
247.2699732767818
 20
196.4544788143926
 30
0.0
  0
POINT
  5
2B0D
330
2917
100
AcDbEntity
  8
Defpoints
 62
     0
100
AcDbPoint
 10
304.2862803460506
 20
196.4544788143926
 30
0.0
  0
ENDBLK
  5
2922
330
2917
100
AcDbEntity
  8
0
100
AcDbBlockEnd
  0
BLOCK
  5
29B5
330
29AB
100
AcDbEntity
  8
0
100
AcDbBlockBegin
  2
*D21
 70
     1
 10
0.0
 20
0.0
 30
0.0
  3
*D21
  1

  0
LINE
  5
2AF3
330
29AB
100
AcDbEntity
  8
AM_5
100
AcDbLine
 10
247.2699732767818
 20
196.4544788143926
 30
0.0
 11
306.4690692767817
 21
196.4544788143926
 31
0.0
  0
LINE
  5
2AF4
330
29AB
100
AcDbEntity
  8
AM_5
100
AcDbLine
 10
247.2699712767818
 20
386.4545048143926
 30
0.0
 11
306.4690692767818
 21
386.4545048143926
 31
0.0
  0
LINE
  5
2AF5
330
29AB
100
AcDbEntity
  8
AM_5
100
AcDbLine
 10
304.4690692767817
 20
202.4544788143927
 30
0.0
 11
304.4690692767817
 21
380.4545048143926
 31
0.0
  0
SOLID
  5
2AF6
330
29AB
100
AcDbEntity
  8
AM_5
100
AcDbTrace
 10
303.4690692767818
 20
202.4544788143927
 30
0.0
 11
305.4690692767817
 21
202.4544788143927
 31
0.0
 12
304.4690692767817
 22
196.4544788143926
 32
0.0
 13
304.4690692767817
 23
196.4544788143926
 33
0.0
  0
SOLID
  5
2AF7
330
29AB
100
AcDbEntity
  8
AM_5
100
AcDbTrace
 10
303.4690692767818
 20
380.4545048143926
 30
0.0
 11
305.4690692767817
 21
380.4545048143926
 31
0.0
 12
304.4690692767818
 22
386.4545048143926
 32
0.0
 13
304.4690692767818
 23
386.4545048143926
 33
0.0
  0
MTEXT
  5
2AF8
330
29AB
100
AcDbEntity
  8
AM_5
 62
     2
100
AcDbMText
 10
297.9690692767817
 20
291.4544918143927
 30
0.0
 40
7.0
 41
0.0
 46
0.0
 71
     5
 72
     1
  1
190
 11
0.0000000000000001
 21
1.0
 31
0.0
 73
     1
 44
1.0
  0
POINT
  5
2AF9
330
29AB
100
AcDbEntity
  8
Defpoints
 62
     0
100
AcDbPoint
 10
247.2699732767818
 20
196.4544788143926
 30
0.0
  0
POINT
  5
2AFA
330
29AB
100
AcDbEntity
  8
Defpoints
 62
     0
100
AcDbPoint
 10
247.2699712767818
 20
386.4545048143926
 30
0.0
  0
POINT
  5
2AFB
330
29AB
100
AcDbEntity
  8
Defpoints
 62
     0
100
AcDbPoint
 10
304.4690692767818
 20
386.4545048143926
 30
0.0
  0
ENDBLK
  5
29B6
330
29AB
100
AcDbEntity
  8
0
100
AcDbBlockEnd
  0
BLOCK
  5
29D1
330
29C7
100
AcDbEntity
  8
0
100
AcDbBlockBegin
  2
*D22
 70
     1
 10
0.0
 20
0.0
 30
0.0
  3
*D22
  1

  0
LINE
  5
2AFC
330
29C7
100
AcDbEntity
  8
AM_5
100
AcDbLine
 10
247.2699712767818
 20
386.4545048143926
 30
0.0
 11
306.2862803460506
 21
386.4545048143926
 31
0.0
  0
LINE
  5
2AFD
330
29C7
100
AcDbEntity
  8
AM_5
100
AcDbLine
 10
161.2699632767817
 20
426.4544748143926
 30
0.0
 11
306.2862803460506
 21
426.4544748143926
 31
0.0
  0
LINE
  5
2AFE
330
29C7
100
AcDbEntity
  8
AM_5
100
AcDbLine
 10
304.2862803460506
 20
392.4545048143926
 30
0.0
 11
304.2862803460506
 21
420.4544748143925
 31
0.0
  0
SOLID
  5
2AFF
330
29C7
100
AcDbEntity
  8
AM_5
100
AcDbTrace
 10
303.2862803460506
 20
392.4545048143926
 30
0.0
 11
305.2862803460506
 21
392.4545048143926
 31
0.0
 12
304.2862803460506
 22
386.4545048143926
 32
0.0
 13
304.2862803460506
 23
386.4545048143926
 33
0.0
  0
SOLID
  5
2B00
330
29C7
100
AcDbEntity
  8
AM_5
100
AcDbTrace
 10
303.2862803460506
 20
420.4544748143925
 30
0.0
 11
305.2862803460506
 21
420.4544748143925
 31
0.0
 12
304.2862803460506
 22
426.4544748143926
 32
0.0
 13
304.2862803460506
 23
426.4544748143926
 33
0.0
  0
MTEXT
  5
2B01
330
29C7
100
AcDbEntity
  8
AM_5
 62
     2
100
AcDbMText
 10
297.7862803460505
 20
406.4544898143926
 30
0.0
 40
7.0
 41
0.0
 46
0.0
 71
     5
 72
     1
  1
40
 11
0.0000000000000001
 21
1.0
 31
0.0
 73
     1
 44
1.0
  0
POINT
  5
2B02
330
29C7
100
AcDbEntity
  8
Defpoints
 62
     0
100
AcDbPoint
 10
247.2699712767818
 20
386.4545048143926
 30
0.0
  0
POINT
  5
2B03
330
29C7
100
AcDbEntity
  8
Defpoints
 62
     0
100
AcDbPoint
 10
161.2699632767817
 20
426.4544748143926
 30
0.0
  0
POINT
  5
2B04
330
29C7
100
AcDbEntity
  8
Defpoints
 62
     0
100
AcDbPoint
 10
304.2862803460506
 20
426.4544748143926
 30
0.0
  0
ENDBLK
  5
29D2
330
29C7
100
AcDbEntity
  8
0
100
AcDbBlockEnd
  0
BLOCK
  5
2A1A
330
2A10
100
AcDbEntity
  8
0
100
AcDbBlockBegin
  2
*D23
 70
     1
 10
0.0
 20
0.0
 30
0.0
  3
*D23
  1

  0
LINE
  5
2A9A
330
2A10
100
AcDbEntity
  8
AM_5
100
AcDbLine
 10
244.6574690617239
 20
196.4544788143926
 30
0.0
 11
286.4690692767818
 21
196.4544788143926
 31
0.0
  0
LINE
  5
2A9B
330
2A10
100
AcDbEntity
  8
AM_5
100
AcDbLine
 10
260.4690692767818
 20
227.4544788143927
 30
0.0
 11
286.4690692767818
 21
227.4544788143927
 31
0.0
  0
LINE
  5
2A9C
330
2A10
100
AcDbEntity
  8
AM_5
100
AcDbLine
 10
284.4690692767818
 20
202.4544788143927
 30
0.0
 11
284.4690692767818
 21
221.4544788143927
 31
0.0
  0
SOLID
  5
2A9D
330
2A10
100
AcDbEntity
  8
AM_5
100
AcDbTrace
 10
283.4690692767818
 20
202.4544788143927
 30
0.0
 11
285.4690692767818
 21
202.4544788143927
 31
0.0
 12
284.4690692767818
 22
196.4544788143926
 32
0.0
 13
284.4690692767818
 23
196.4544788143926
 33
0.0
  0
SOLID
  5
2A9E
330
2A10
100
AcDbEntity
  8
AM_5
100
AcDbTrace
 10
283.4690692767818
 20
221.4544788143927
 30
0.0
 11
285.4690692767818
 21
221.4544788143927
 31
0.0
 12
284.4690692767818
 22
227.4544788143927
 32
0.0
 13
284.4690692767818
 23
227.4544788143927
 33
0.0
  0
MTEXT
  5
2A9F
330
2A10
100
AcDbEntity
  8
AM_5
 62
     2
100
AcDbMText
 10
277.9690692767817
 20
211.9544788143927
 30
0.0
 40
7.0
 41
0.0
 46
0.0
 71
     5
 72
     1
  1
31
 11
0.0000000000000001
 21
1.0
 31
0.0
 73
     1
 44
1.0
  0
POINT
  5
2AA0
330
2A10
100
AcDbEntity
  8
Defpoints
 62
     0
100
AcDbPoint
 10
244.6574690617239
 20
196.4544788143926
 30
0.0
  0
POINT
  5
2AA1
330
2A10
100
AcDbEntity
  8
Defpoints
 62
     0
100
AcDbPoint
 10
260.4690692767818
 20
227.4544788143927
 30
0.0
  0
POINT
  5
2AA2
330
2A10
100
AcDbEntity
  8
Defpoints
 62
     0
100
AcDbPoint
 10
284.4690692767818
 20
227.4544788143927
 30
0.0
  0
ENDBLK
  5
2A1B
330
2A10
100
AcDbEntity
  8
0
100
AcDbBlockEnd
  0
BLOCK
  5
2AAE
330
2AA4
100
AcDbEntity
  8
0
100
AcDbBlockBegin
  2
*D24
 70
     1
 10
0.0
 20
0.0
 30
0.0
  3
*D24
  1

  0
LINE
  5
2AB0
330
2AA4
100
AcDbEntity
  8
AM_5
100
AcDbLine
 10
260.4690692767818
 20
227.4544788143927
 30
0.0
 11
286.4690692767818
 21
227.4544788143927
 31
0.0
  0
LINE
  5
2AB1
330
2AA4
100
AcDbEntity
  8
AM_5
100
AcDbLine
 10
228.2876692767818
 20
335.4544968143926
 30
0.0
 11
286.4690692767818
 21
335.4544968143926
 31
0.0
  0
LINE
  5
2AB2
330
2AA4
100
AcDbEntity
  8
AM_5
100
AcDbLine
 10
284.4690692767818
 20
233.4544788143926
 30
0.0
 11
284.4690692767818
 21
329.4544968143926
 31
0.0
  0
SOLID
  5
2AB3
330
2AA4
100
AcDbEntity
  8
AM_5
100
AcDbTrace
 10
283.4690692767818
 20
233.4544788143926
 30
0.0
 11
285.4690692767818
 21
233.4544788143926
 31
0.0
 12
284.4690692767818
 22
227.4544788143927
 32
0.0
 13
284.4690692767818
 23
227.4544788143927
 33
0.0
  0
SOLID
  5
2AB4
330
2AA4
100
AcDbEntity
  8
AM_5
100
AcDbTrace
 10
283.4690692767818
 20
329.4544968143926
 30
0.0
 11
285.4690692767818
 21
329.4544968143926
 31
0.0
 12
284.4690692767818
 22
335.4544968143926
 32
0.0
 13
284.4690692767818
 23
335.4544968143926
 33
0.0
  0
MTEXT
  5
2AB5
330
2AA4
100
AcDbEntity
  8
AM_5
 62
     2
100
AcDbMText
 10
277.9690692767817
 20
281.4544878143927
 30
0.0
 40
7.0
 41
0.0
 46
0.0
 71
     5
 72
     1
  1
108
 11
0.0000000000000001
 21
1.0
 31
0.0
 73
     1
 44
1.0
  0
POINT
  5
2AB6
330
2AA4
100
AcDbEntity
  8
Defpoints
 62
     0
100
AcDbPoint
 10
260.4690692767818
 20
227.4544788143927
 30
0.0
  0
POINT
  5
2AB7
330
2AA4
100
AcDbEntity
  8
Defpoints
 62
     0
100
AcDbPoint
 10
228.2876692767818
 20
335.4544968143926
 30
0.0
  0
POINT
  5
2AB8
330
2AA4
100
AcDbEntity
  8
Defpoints
 62
     0
100
AcDbPoint
 10
284.4690692767818
 20
335.4544968143926
 30
0.0
  0
ENDBLK
  5
2AAF
330
2AA4
100
AcDbEntity
  8
0
100
AcDbBlockEnd
  0
BLOCK
  5
2ACA
330
2AC0
100
AcDbEntity
  8
0
100
AcDbBlockBegin
  2
*D25
 70
     1
 10
0.0
 20
0.0
 30
0.0
  3
*D25
  1

  0
LINE
  5
2ACC
330
2AC0
100
AcDbEntity
  8
AM_5
100
AcDbLine
 10
228.2876692767818
 20
335.4544968143926
 30
0.0
 11
286.4690692767817
 21
335.4544968143926
 31
0.0
  0
LINE
  5
2ACD
330
2AC0
100
AcDbEntity
  8
AM_5
100
AcDbLine
 10
247.2699712767818
 20
386.4545048143926
 30
0.0
 11
286.4690692767818
 21
386.4545048143926
 31
0.0
  0
LINE
  5
2ACE
330
2AC0
100
AcDbEntity
  8
AM_5
100
AcDbLine
 10
284.4690692767817
 20
341.4544968143927
 30
0.0
 11
284.4690692767817
 21
380.4545048143926
 31
0.0
  0
SOLID
  5
2ACF
330
2AC0
100
AcDbEntity
  8
AM_5
100
AcDbTrace
 10
283.4690692767818
 20
341.4544968143927
 30
0.0
 11
285.4690692767817
 21
341.4544968143927
 31
0.0
 12
284.4690692767817
 22
335.4544968143926
 32
0.0
 13
284.4690692767817
 23
335.4544968143926
 33
0.0
  0
SOLID
  5
2AD0
330
2AC0
100
AcDbEntity
  8
AM_5
100
AcDbTrace
 10
283.4690692767818
 20
380.4545048143926
 30
0.0
 11
285.4690692767817
 21
380.4545048143926
 31
0.0
 12
284.4690692767818
 22
386.4545048143926
 32
0.0
 13
284.4690692767818
 23
386.4545048143926
 33
0.0
  0
MTEXT
  5
2AD1
330
2AC0
100
AcDbEntity
  8
AM_5
 62
     2
100
AcDbMText
 10
277.9690692767817
 20
360.9545008143927
 30
0.0
 40
7.0
 41
0.0
 46
0.0
 71
     5
 72
     1
  1
51
 11
0.0000000000000001
 21
1.0
 31
0.0
 73
     1
 44
1.0
  0
POINT
  5
2AD2
330
2AC0
100
AcDbEntity
  8
Defpoints
 62
     0
100
AcDbPoint
 10
228.2876692767818
 20
335.4544968143926
 30
0.0
  0
POINT
  5
2AD3
330
2AC0
100
AcDbEntity
  8
Defpoints
 62
     0
100
AcDbPoint
 10
247.2699712767818
 20
386.4545048143926
 30
0.0
  0
POINT
  5
2AD4
330
2AC0
100
AcDbEntity
  8
Defpoints
 62
     0
100
AcDbPoint
 10
284.4690692767818
 20
386.4545048143926
 30
0.0
  0
ENDBLK
  5
2ACB
330
2AC0
100
AcDbEntity
  8
0
100
AcDbBlockEnd
  0
BLOCK
  5
2B28
330
2B1E
100
AcDbEntity
  8
0
100
AcDbBlockBegin
  2
*D26
 70
     1
 10
0.0
 20
0.0
 30
0.0
  3
*D26
  1

  0
LINE
  5
2B45
330
2B1E
100
AcDbEntity
  8
AM_5
100
AcDbLine
 10
228.2876692767818
 20
335.4544968143926
 30
0.0
 11
273.2045421122058
 21
335.4544968143926
 31
0.0
  0
LINE
  5
2B46
330
2B1E
100
AcDbEntity
  8
AM_5
100
AcDbLine
 10
260.4690692767818
 20
275.4544888143927
 30
0.0
 11
273.2045421122058
 21
275.4544888143927
 31
0.0
  0
LINE
  5
2B47
330
2B1E
100
AcDbEntity
  8
AM_5
100
AcDbLine
 10
271.2045421122058
 20
329.4544968143926
 30
0.0
 11
271.2045421122058
 21
281.4544888143927
 31
0.0
  0
SOLID
  5
2B48
330
2B1E
100
AcDbEntity
  8
AM_5
100
AcDbTrace
 10
270.2045421122058
 20
329.4544968143926
 30
0.0
 11
272.2045421122058
 21
329.4544968143926
 31
0.0
 12
271.2045421122058
 22
335.4544968143926
 32
0.0
 13
271.2045421122058
 23
335.4544968143926
 33
0.0
  0
SOLID
  5
2B49
330
2B1E
100
AcDbEntity
  8
AM_5
100
AcDbTrace
 10
270.2045421122058
 20
281.4544888143927
 30
0.0
 11
272.2045421122058
 21
281.4544888143927
 31
0.0
 12
271.2045421122058
 22
275.4544888143927
 32
0.0
 13
271.2045421122058
 23
275.4544888143927
 33
0.0
  0
MTEXT
  5
2B4A
330
2B1E
100
AcDbEntity
  8
AM_5
 62
     2
100
AcDbMText
 10
264.7045421122057
 20
305.4544928143927
 30
0.0
 40
7.0
 41
0.0
 46
0.0
 71
     5
 72
     1
  1
60
 11
0.0000000000000001
 21
1.0
 31
0.0
 73
     1
 44
1.0
  0
POINT
  5
2B4B
330
2B1E
100
AcDbEntity
  8
Defpoints
 62
     0
100
AcDbPoint
 10
228.2876692767818
 20
335.4544968143926
 30
0.0
  0
POINT
  5
2B4C
330
2B1E
100
AcDbEntity
  8
Defpoints
 62
     0
100
AcDbPoint
 10
260.4690692767818
 20
275.4544888143927
 30
0.0
  0
POINT
  5
2B4D
330
2B1E
100
AcDbEntity
  8
Defpoints
 62
     0
100
AcDbPoint
 10
271.2045421122058
 20
275.4544888143927
 30
0.0
  0
ENDBLK
  5
2B29
330
2B1E
100
AcDbEntity
  8
0
100
AcDbBlockEnd
  0
BLOCK
  5
2B69
330
2B5D
100
AcDbEntity
  8
0
100
AcDbBlockBegin
  2
*D27
 70
     1
 10
0.0
 20
0.0
 30
0.0
  3
*D27
  1

  0
LINE
  5
3123
330
2B5D
100
AcDbEntity
  8
AM_5
100
AcDbLine
 10
214.2699672767818
 20
339.4544748143926
 30
0.0
 11
214.2699672767818
 21
363.9324271239004
 31
0.0
  0
LINE
  5
3124
330
2B5D
100
AcDbEntity
  8
AM_5
100
AcDbLine
 10
222.2699712767818
 20
339.4544748143926
 30
0.0
 11
222.2699712767818
 21
363.9324271239004
 31
0.0
  0
LINE
  5
3125
330
2B5D
100
AcDbEntity
  8
AM_5
100
AcDbLine
 10
208.2699672767818
 20
361.9324271239004
 30
0.0
 11
202.2699672767818
 21
361.9324271239004
 31
0.0
  0
LINE
  5
3126
330
2B5D
100
AcDbEntity
  8
AM_5
100
AcDbLine
 10
228.2699712767818
 20
361.9324271239004
 30
0.0
 11
234.2699712767818
 21
361.9324271239004
 31
0.0
  0
LINE
  5
3127
330
2B5D
100
AcDbEntity
  8
AM_5
100
AcDbLine
 10
214.2699672767818
 20
361.9324271239004
 30
0.0
 11
222.2699712767818
 21
361.9324271239004
 31
0.0
  0
SOLID
  5
3128
330
2B5D
100
AcDbEntity
  8
AM_5
100
AcDbTrace
 10
208.2699672767818
 20
362.9324271239004
 30
0.0
 11
208.2699672767818
 21
360.9324271239004
 31
0.0
 12
214.2699672767818
 22
361.9324271239004
 32
0.0
 13
214.2699672767818
 23
361.9324271239004
 33
0.0
  0
SOLID
  5
3129
330
2B5D
100
AcDbEntity
  8
AM_5
100
AcDbTrace
 10
228.2699712767818
 20
362.9324271239004
 30
0.0
 11
228.2699712767818
 21
360.9324271239004
 31
0.0
 12
222.2699712767818
 22
361.9324271239004
 32
0.0
 13
222.2699712767818
 23
361.9324271239004
 33
0.0
  0
MTEXT
  5
312A
330
2B5D
100
AcDbEntity
  8
AM_5
 62
     2
100
AcDbMText
 10
218.2699692767818
 20
368.4324271239004
 30
0.0
 40
7.0
 41
0.0
 46
0.0
 71
     5
 72
     1
  1
8/9
 73
     1
 44
1.0
  0
POINT
  5
312B
330
2B5D
100
AcDbEntity
  8
Defpoints
 62
     0
100
AcDbPoint
 10
214.2699672767818
 20
339.4544748143926
 30
0.0
  0
POINT
  5
312C
330
2B5D
100
AcDbEntity
  8
Defpoints
 62
     0
100
AcDbPoint
 10
222.2699712767818
 20
339.4544748143926
 30
0.0
  0
POINT
  5
312D
330
2B5D
100
AcDbEntity
  8
Defpoints
 62
     0
100
AcDbPoint
 10
222.2699712767818
 20
361.9324271239004
 30
0.0
  0
ENDBLK
  5
2B6A
330
2B5D
100
AcDbEntity
  8
0
100
AcDbBlockEnd
  0
BLOCK
  5
2BB2
330
2BA6
100
AcDbEntity
  8
0
100
AcDbBlockBegin
  2
*D28
 70
     1
 10
0.0
 20
0.0
 30
0.0
  3
*D28
  1

  0
LINE
  5
2BD5
330
2BA6
100
AcDbEntity
  8
AM_5
100
AcDbLine
 10
370.6596263245458
 20
156.4544968143926
 30
0.0
 11
370.6596263245458
 21
130.4544968143926
 31
0.0
  0
LINE
  5
2BD6
330
2BA6
100
AcDbEntity
  8
AM_5
100
AcDbLine
 10
388.6596263245458
 20
156.4544968143926
 30
0.0
 11
388.6596263245458
 21
130.4544968143926
 31
0.0
  0
LINE
  5
2BD7
330
2BA6
100
AcDbEntity
  8
AM_5
100
AcDbLine
 10
364.6596263245458
 20
132.4544968143926
 30
0.0
 11
358.6596263245458
 21
132.4544968143926
 31
0.0
  0
LINE
  5
2BD8
330
2BA6
100
AcDbEntity
  8
AM_5
100
AcDbLine
 10
394.6596263245458
 20
132.4544968143926
 30
0.0
 11
400.6596263245458
 21
132.4544968143926
 31
0.0
  0
LINE
  5
2BD9
330
2BA6
100
AcDbEntity
  8
AM_5
100
AcDbLine
 10
370.6596263245458
 20
132.4544968143926
 30
0.0
 11
388.6596263245458
 21
132.4544968143926
 31
0.0
  0
SOLID
  5
2BDA
330
2BA6
100
AcDbEntity
  8
AM_5
100
AcDbTrace
 10
364.6596263245458
 20
133.4544968143926
 30
0.0
 11
364.6596263245458
 21
131.4544968143926
 31
0.0
 12
370.6596263245458
 22
132.4544968143926
 32
0.0
 13
370.6596263245458
 23
132.4544968143926
 33
0.0
  0
SOLID
  5
2BDB
330
2BA6
100
AcDbEntity
  8
AM_5
100
AcDbTrace
 10
394.6596263245458
 20
133.4544968143926
 30
0.0
 11
394.6596263245458
 21
131.4544968143926
 31
0.0
 12
388.6596263245458
 22
132.4544968143926
 32
0.0
 13
388.6596263245458
 23
132.4544968143926
 33
0.0
  0
MTEXT
  5
2BDC
330
2BA6
100
AcDbEntity
  8
AM_5
 62
     2
100
AcDbMText
 10
379.6596263245458
 20
138.9544968143926
 30
0.0
 40
7.0
 41
0.0
 46
0.0
 71
     5
 72
     1
  1
18
 73
     1
 44
1.0
  0
POINT
  5
2BDD
330
2BA6
100
AcDbEntity
  8
Defpoints
 62
     0
100
AcDbPoint
 10
370.6596263245458
 20
156.4544968143926
 30
0.0
  0
POINT
  5
2BDE
330
2BA6
100
AcDbEntity
  8
Defpoints
 62
     0
100
AcDbPoint
 10
388.6596263245458
 20
156.4544968143926
 30
0.0
  0
POINT
  5
2BDF
330
2BA6
100
AcDbEntity
  8
Defpoints
 62
     0
100
AcDbPoint
 10
388.6596263245458
 20
132.4544968143926
 30
0.0
  0
ENDBLK
  5
2BB3
330
2BA6
100
AcDbEntity
  8
0
100
AcDbBlockEnd
  0
BLOCK
  5
2BFB
330
2BEF
100
AcDbEntity
  8
0
100
AcDbBlockBegin
  2
*D29
 70
     1
 10
0.0
 20
0.0
 30
0.0
  3
*D29
  1

  0
LINE
  5
2C95
330
2BEF
100
AcDbEntity
  8
AM_5
100
AcDbLine
 10
370.6596263245458
 20
156.4544968143926
 30
0.0
 11
344.6596253245458
 21
156.4544968143926
 31
0.0
  0
LINE
  5
2C96
330
2BEF
100
AcDbEntity
  8
AM_5
100
AcDbLine
 10
372.5346263245458
 20
172.4544968143926
 30
0.0
 11
344.6596253245458
 21
172.4544968143926
 31
0.0
  0
LINE
  5
2C97
330
2BEF
100
AcDbEntity
  8
AM_5
100
AcDbLine
 10
346.6596253245458
 20
150.4544968143926
 30
0.0
 11
346.6596253245458
 21
144.4544968143926
 31
0.0
  0
LINE
  5
2C98
330
2BEF
100
AcDbEntity
  8
AM_5
100
AcDbLine
 10
346.6596253245458
 20
178.4544968143926
 30
0.0
 11
346.6596253245458
 21
184.4544968143926
 31
0.0
  0
LINE
  5
2C99
330
2BEF
100
AcDbEntity
  8
AM_5
100
AcDbLine
 10
346.6596253245458
 20
156.4544968143926
 30
0.0
 11
346.6596253245458
 21
172.4544968143926
 31
0.0
  0
SOLID
  5
2C9A
330
2BEF
100
AcDbEntity
  8
AM_5
100
AcDbTrace
 10
345.6596253245458
 20
150.4544968143926
 30
0.0
 11
347.6596253245458
 21
150.4544968143926
 31
0.0
 12
346.6596253245458
 22
156.4544968143926
 32
0.0
 13
346.6596253245458
 23
156.4544968143926
 33
0.0
  0
SOLID
  5
2C9B
330
2BEF
100
AcDbEntity
  8
AM_5
100
AcDbTrace
 10
345.6596253245458
 20
178.4544968143926
 30
0.0
 11
347.6596253245458
 21
178.4544968143926
 31
0.0
 12
346.6596253245458
 22
172.4544968143926
 32
0.0
 13
346.6596253245458
 23
172.4544968143926
 33
0.0
  0
MTEXT
  5
2C9C
330
2BEF
100
AcDbEntity
  8
AM_5
 62
     2
100
AcDbMText
 10
340.1596253245458
 20
164.4544968143927
 30
0.0
 40
7.0
 41
0.0
 46
0.0
 71
     5
 72
     1
  1
16
 11
0.0000000000000001
 21
1.0
 31
0.0
 73
     1
 44
1.0
  0
POINT
  5
2C9D
330
2BEF
100
AcDbEntity
  8
Defpoints
 62
     0
100
AcDbPoint
 10
370.6596263245458
 20
156.4544968143926
 30
0.0
  0
POINT
  5
2C9E
330
2BEF
100
AcDbEntity
  8
Defpoints
 62
     0
100
AcDbPoint
 10
372.5346263245458
 20
172.4544968143926
 30
0.0
  0
POINT
  5
2C9F
330
2BEF
100
AcDbEntity
  8
Defpoints
 62
     0
100
AcDbPoint
 10
346.6596253245458
 20
172.4544968143926
 30
0.0
  0
ENDBLK
  5
2BFC
330
2BEF
100
AcDbEntity
  8
0
100
AcDbBlockEnd
  0
BLOCK
  5
2CAB
330
2CA1
100
AcDbEntity
  8
0
100
AcDbBlockBegin
  2
*D30
 70
     1
 10
0.0
 20
0.0
 30
0.0
  3
*D30
  1

  0
LINE
  5
2E52
330
2CA1
100
AcDbEntity
  8
AM_5
100
AcDbLine
 10
372.5346263245458
 20
410.4545348143926
 30
0.0
 11
344.7754829818063
 21
410.4545348143926
 31
0.0
  0
LINE
  5
2E53
330
2CA1
100
AcDbEntity
  8
AM_5
100
AcDbLine
 10
372.5346263245458
 20
172.4544968143926
 30
0.0
 11
344.7754829818062
 21
172.4544968143926
 31
0.0
  0
LINE
  5
2E54
330
2CA1
100
AcDbEntity
  8
AM_5
100
AcDbLine
 10
346.7754829818063
 20
404.4545348143925
 30
0.0
 11
346.7754829818062
 21
178.4544968143926
 31
0.0
  0
SOLID
  5
2E55
330
2CA1
100
AcDbEntity
  8
AM_5
100
AcDbTrace
 10
345.7754829818063
 20
404.4545348143925
 30
0.0
 11
347.7754829818063
 21
404.4545348143925
 31
0.0
 12
346.7754829818063
 22
410.4545348143926
 32
0.0
 13
346.7754829818063
 23
410.4545348143926
 33
0.0
  0
SOLID
  5
2E56
330
2CA1
100
AcDbEntity
  8
AM_5
100
AcDbTrace
 10
345.7754829818063
 20
178.4544968143926
 30
0.0
 11
347.7754829818063
 21
178.4544968143926
 31
0.0
 12
346.7754829818062
 22
172.4544968143926
 32
0.0
 13
346.7754829818062
 23
172.4544968143926
 33
0.0
  0
MTEXT
  5
2E57
330
2CA1
100
AcDbEntity
  8
AM_5
 62
     2
100
AcDbMText
 10
340.2747940054283
 20
291.4545158143927
 30
0.0
 40
7.0
 41
0.0
 46
0.0
 71
     5
 72
     1
  1
238
 11
0.0000000000000001
 21
1.0
 31
0.0
 73
     1
 44
1.0
  0
POINT
  5
2E58
330
2CA1
100
AcDbEntity
  8
Defpoints
 62
     0
100
AcDbPoint
 10
372.5346263245458
 20
410.4545348143926
 30
0.0
  0
POINT
  5
2E59
330
2CA1
100
AcDbEntity
  8
Defpoints
 62
     0
100
AcDbPoint
 10
372.5346263245458
 20
172.4544968143926
 30
0.0
  0
POINT
  5
2E5A
330
2CA1
100
AcDbEntity
  8
Defpoints
 62
     0
100
AcDbPoint
 10
346.7754829818062
 20
172.4544968143926
 30
0.0
  0
ENDBLK
  5
2CAC
330
2CA1
100
AcDbEntity
  8
0
100
AcDbBlockEnd
  0
BLOCK
  5
2CD5
330
2CC9
100
AcDbEntity
  8
0
100
AcDbBlockBegin
  2
*D31
 70
     1
 10
0.0
 20
0.0
 30
0.0
  3
*D31
  1

  0
LINE
  5
2CF8
330
2CC9
100
AcDbEntity
  8
AM_5
100
AcDbLine
 10
373.6595943245458
 20
373.0545108143926
 30
0.0
 11
373.6595943245458
 21
386.8539264886431
 31
0.0
  0
LINE
  5
2CF9
330
2CC9
100
AcDbEntity
  8
AM_5
100
AcDbLine
 10
384.6596263245458
 20
370.5545108143927
 30
0.0
 11
384.6596263245458
 21
386.8539264886431
 31
0.0
  0
LINE
  5
2CFA
330
2CC9
100
AcDbEntity
  8
AM_5
100
AcDbLine
 10
367.6595943245458
 20
384.8539264886431
 30
0.0
 11
361.6595943245457
 21
384.8539264886431
 31
0.0
  0
LINE
  5
2CFB
330
2CC9
100
AcDbEntity
  8
AM_5
100
AcDbLine
 10
390.6596263245458
 20
384.8539264886431
 30
0.0
 11
396.6596263245458
 21
384.8539264886431
 31
0.0
  0
LINE
  5
2CFC
330
2CC9
100
AcDbEntity
  8
AM_5
100
AcDbLine
 10
373.6595943245458
 20
384.8539264886431
 30
0.0
 11
384.6596263245458
 21
384.8539264886431
 31
0.0
  0
SOLID
  5
2CFD
330
2CC9
100
AcDbEntity
  8
AM_5
100
AcDbTrace
 10
367.6595943245458
 20
385.8539264886431
 30
0.0
 11
367.6595943245458
 21
383.8539264886431
 31
0.0
 12
373.6595943245458
 22
384.8539264886431
 32
0.0
 13
373.6595943245458
 23
384.8539264886431
 33
0.0
  0
SOLID
  5
2CFE
330
2CC9
100
AcDbEntity
  8
AM_5
100
AcDbTrace
 10
390.6596263245458
 20
385.8539264886431
 30
0.0
 11
390.6596263245458
 21
383.8539264886431
 31
0.0
 12
384.6596263245458
 22
384.8539264886431
 32
0.0
 13
384.6596263245458
 23
384.8539264886431
 33
0.0
  0
MTEXT
  5
2CFF
330
2CC9
100
AcDbEntity
  8
AM_5
 62
     2
100
AcDbMText
 10
379.1596103245458
 20
391.3539264886431
 30
0.0
 40
7.0
 41
0.0
 46
0.0
 71
     5
 72
     1
  1
11
 73
     1
 44
1.0
  0
POINT
  5
2D00
330
2CC9
100
AcDbEntity
  8
Defpoints
 62
     0
100
AcDbPoint
 10
373.6595943245458
 20
373.0545108143926
 30
0.0
  0
POINT
  5
2D01
330
2CC9
100
AcDbEntity
  8
Defpoints
 62
     0
100
AcDbPoint
 10
384.6596263245458
 20
370.5545108143927
 30
0.0
  0
POINT
  5
2D02
330
2CC9
100
AcDbEntity
  8
Defpoints
 62
     0
100
AcDbPoint
 10
384.6596263245458
 20
384.8539264886431
 30
0.0
  0
ENDBLK
  5
2CD6
330
2CC9
100
AcDbEntity
  8
0
100
AcDbBlockEnd
  0
BLOCK
  5
2D5B
330
2D4F
100
AcDbEntity
  8
0
100
AcDbBlockBegin
  2
*D32
 70
     1
 10
0.0
 20
0.0
 30
0.0
  3
*D32
  1

  0
LINE
  5
2D7E
330
2D4F
100
AcDbEntity
  8
AM_5
100
AcDbLine
 10
373.6595943245458
 20
304.0544948143926
 30
0.0
 11
373.6595943245458
 21
318.3503897038647
 31
0.0
  0
LINE
  5
2D7F
330
2D4F
100
AcDbEntity
  8
AM_5
100
AcDbLine
 10
382.0596203245458
 20
304.0544948143926
 30
0.0
 11
382.0596203245458
 21
318.3503897038647
 31
0.0
  0
LINE
  5
2D80
330
2D4F
100
AcDbEntity
  8
AM_5
100
AcDbLine
 10
367.6595943245458
 20
316.3503897038647
 30
0.0
 11
361.6595943245457
 21
316.3503897038647
 31
0.0
  0
LINE
  5
2D81
330
2D4F
100
AcDbEntity
  8
AM_5
100
AcDbLine
 10
388.0596203245458
 20
316.3503897038647
 30
0.0
 11
410.5596203245458
 21
316.3503897038647
 31
0.0
  0
LINE
  5
2D82
330
2D4F
100
AcDbEntity
  8
AM_5
100
AcDbLine
 10
373.6595943245458
 20
316.3503897038647
 30
0.0
 11
382.0596203245458
 21
316.3503897038647
 31
0.0
  0
SOLID
  5
2D83
330
2D4F
100
AcDbEntity
  8
AM_5
100
AcDbTrace
 10
367.6595943245458
 20
317.3503897038647
 30
0.0
 11
367.6595943245458
 21
315.3503897038647
 31
0.0
 12
373.6595943245458
 22
316.3503897038647
 32
0.0
 13
373.6595943245458
 23
316.3503897038647
 33
0.0
  0
SOLID
  5
2D84
330
2D4F
100
AcDbEntity
  8
AM_5
100
AcDbTrace
 10
388.0596203245458
 20
317.3503897038647
 30
0.0
 11
388.0596203245458
 21
315.3503897038647
 31
0.0
 12
382.0596203245458
 22
316.3503897038647
 32
0.0
 13
382.0596203245458
 23
316.3503897038647
 33
0.0
  0
MTEXT
  5
2D85
330
2D4F
100
AcDbEntity
  8
AM_5
 62
     2
100
AcDbMText
 10
402.3096203245457
 20
322.8503897038647
 30
0.0
 40
7.0
 41
0.0
 46
0.0
 71
     5
 72
     1
  1
8.4
 73
     1
 44
1.0
  0
POINT
  5
2D86
330
2D4F
100
AcDbEntity
  8
Defpoints
 62
     0
100
AcDbPoint
 10
373.6595943245458
 20
304.0544948143926
 30
0.0
  0
POINT
  5
2D87
330
2D4F
100
AcDbEntity
  8
Defpoints
 62
     0
100
AcDbPoint
 10
382.0596203245458
 20
304.0544948143926
 30
0.0
  0
POINT
  5
2D88
330
2D4F
100
AcDbEntity
  8
Defpoints
 62
     0
100
AcDbPoint
 10
382.0596203245458
 20
316.3503897038647
 30
0.0
  0
ENDBLK
  5
2D5C
330
2D4F
100
AcDbEntity
  8
0
100
AcDbBlockEnd
  0
BLOCK
  5
2DA8
330
2D9C
100
AcDbEntity
  8
0
100
AcDbBlockBegin
  2
*D33
 70
     1
 10
0.0
 20
0.0
 30
0.0
  3
*D33
  1

  0
LINE
  5
2DCB
330
2D9C
100
AcDbEntity
  8
AM_5
100
AcDbLine
 10
377.1596263245458
 20
172.4544968143926
 30
0.0
 11
377.1596263245458
 21
187.8389196839823
 31
0.0
  0
LINE
  5
2DCC
330
2D9C
100
AcDbEntity
  8
AM_5
100
AcDbLine
 10
382.1596263245458
 20
172.4544968143926
 30
0.0
 11
382.1596263245458
 21
187.8389196839823
 31
0.0
  0
LINE
  5
2DCD
330
2D9C
100
AcDbEntity
  8
AM_5
100
AcDbLine
 10
371.1596263245458
 20
185.8389196839823
 30
0.0
 11
365.1596263245458
 21
185.8389196839823
 31
0.0
  0
LINE
  5
2DCE
330
2D9C
100
AcDbEntity
  8
AM_5
100
AcDbLine
 10
388.1596263245458
 20
185.8389196839823
 30
0.0
 11
403.2495758182069
 21
185.8389196839823
 31
0.0
  0
LINE
  5
2DCF
330
2D9C
100
AcDbEntity
  8
AM_5
100
AcDbLine
 10
377.1596263245458
 20
185.8389196839823
 30
0.0
 11
382.1596263245458
 21
185.8389196839823
 31
0.0
  0
SOLID
  5
2DD0
330
2D9C
100
AcDbEntity
  8
AM_5
100
AcDbTrace
 10
371.1596263245458
 20
186.8389196839823
 30
0.0
 11
371.1596263245458
 21
184.8389196839823
 31
0.0
 12
377.1596263245458
 22
185.8389196839823
 32
0.0
 13
377.1596263245458
 23
185.8389196839823
 33
0.0
  0
SOLID
  5
2DD1
330
2D9C
100
AcDbEntity
  8
AM_5
100
AcDbTrace
 10
388.1596263245458
 20
186.8389196839823
 30
0.0
 11
388.1596263245458
 21
184.8389196839823
 31
0.0
 12
382.1596263245458
 22
185.8389196839823
 32
0.0
 13
382.1596263245458
 23
185.8389196839823
 33
0.0
  0
MTEXT
  5
2DD2
330
2D9C
100
AcDbEntity
  8
AM_5
 62
     2
100
AcDbMText
 10
398.7046010713764
 20
192.3389196839823
 30
0.0
 40
7.0
 41
0.0
 46
0.0
 71
     5
 72
     1
  1
5
 73
     1
 44
1.0
  0
POINT
  5
2DD3
330
2D9C
100
AcDbEntity
  8
Defpoints
 62
     0
100
AcDbPoint
 10
377.1596263245458
 20
172.4544968143926
 30
0.0
  0
POINT
  5
2DD4
330
2D9C
100
AcDbEntity
  8
Defpoints
 62
     0
100
AcDbPoint
 10
382.1596263245458
 20
172.4544968143926
 30
0.0
  0
POINT
  5
2DD5
330
2D9C
100
AcDbEntity
  8
Defpoints
 62
     0
100
AcDbPoint
 10
382.1596263245458
 20
185.8389196839823
 30
0.0
  0
ENDBLK
  5
2DA9
330
2D9C
100
AcDbEntity
  8
0
100
AcDbBlockEnd
  0
BLOCK
  5
2DF1
330
2DE5
100
AcDbEntity
  8
0
100
AcDbBlockBegin
  2
*D34
 70
     1
 10
0.0
 20
0.0
 30
0.0
  3
*D34
  1

  0
LINE
  5
2F12
330
2DE5
100
AcDbEntity
  8
AM_5
100
AcDbLine
 10
374.9096263245458
 20
172.4544968143926
 30
0.0
 11
374.9096263245458
 21
201.4421041180185
 31
0.0
  0
LINE
  5
2F13
330
2DE5
100
AcDbEntity
  8
AM_5
100
AcDbLine
 10
384.4096263245458
 20
172.4544968143926
 30
0.0
 11
384.4096263245458
 21
201.4421041180185
 31
0.0
  0
LINE
  5
2F14
330
2DE5
100
AcDbEntity
  8
AM_5
100
AcDbLine
 10
368.9096263245458
 20
199.4421041180185
 30
0.0
 11
362.9096263245458
 21
199.4421041180185
 31
0.0
  0
LINE
  5
2F15
330
2DE5
100
AcDbEntity
  8
AM_5
100
AcDbLine
 10
390.4096263245458
 20
199.4421041180185
 30
0.0
 11
412.7895253118681
 21
199.4421041180185
 31
0.0
  0
LINE
  5
2F16
330
2DE5
100
AcDbEntity
  8
AM_5
100
AcDbLine
 10
374.9096263245458
 20
199.4421041180185
 30
0.0
 11
384.4096263245458
 21
199.4421041180185
 31
0.0
  0
SOLID
  5
2F17
330
2DE5
100
AcDbEntity
  8
AM_5
100
AcDbTrace
 10
368.9096263245458
 20
200.4421041180185
 30
0.0
 11
368.9096263245458
 21
198.4421041180185
 31
0.0
 12
374.9096263245458
 22
199.4421041180185
 32
0.0
 13
374.9096263245458
 23
199.4421041180185
 33
0.0
  0
SOLID
  5
2F18
330
2DE5
100
AcDbEntity
  8
AM_5
100
AcDbTrace
 10
390.4096263245458
 20
200.4421041180185
 30
0.0
 11
390.4096263245458
 21
198.4421041180185
 31
0.0
 12
384.4096263245458
 22
199.4421041180185
 32
0.0
 13
384.4096263245458
 23
199.4421041180185
 33
0.0
  0
MTEXT
  5
2F19
330
2DE5
100
AcDbEntity
  8
AM_5
 62
     2
100
AcDbMText
 10
404.5995758182069
 20
205.9421041180185
 30
0.0
 40
7.0
 41
0.0
 46
0.0
 71
     5
 72
     1
  1
9.5
 73
     1
 44
1.0
  0
POINT
  5
2F1A
330
2DE5
100
AcDbEntity
  8
Defpoints
 62
     0
100
AcDbPoint
 10
374.9096263245458
 20
172.4544968143926
 30
0.0
  0
POINT
  5
2F1B
330
2DE5
100
AcDbEntity
  8
Defpoints
 62
     0
100
AcDbPoint
 10
384.4096263245458
 20
172.4544968143926
 30
0.0
  0
POINT
  5
2F1C
330
2DE5
100
AcDbEntity
  8
Defpoints
 62
     0
100
AcDbPoint
 10
384.4096263245458
 20
199.4421041180185
 30
0.0
  0
ENDBLK
  5
2DF2
330
2DE5
100
AcDbEntity
  8
0
100
AcDbBlockEnd
  0
BLOCK
  5
2E77
330
2E6B
100
AcDbEntity
  8
0
100
AcDbBlockBegin
  2
*D35
 70
     1
 10
0.0
 20
0.0
 30
0.0
  3
*D35
  1

  0
LINE
  5
2F07
330
2E6B
100
AcDbEntity
  8
AM_5
100
AcDbLine
 10
373.6596263245458
 20
342.8544988143926
 30
0.0
 11
373.6596263245458
 21
351.8316239023668
 31
0.0
  0
LINE
  5
2F08
330
2E6B
100
AcDbEntity
  8
AM_5
100
AcDbLine
 10
370.6596263245458
 20
342.8544988143926
 30
0.0
 11
370.6596263245458
 21
351.8316239023668
 31
0.0
  0
LINE
  5
2F09
330
2E6B
100
AcDbEntity
  8
AM_5
100
AcDbLine
 10
379.6596263245458
 20
349.8316239023668
 30
0.0
 11
385.6596263245458
 21
349.8316239023668
 31
0.0
  0
LINE
  5
2F0A
330
2E6B
100
AcDbEntity
  8
AM_5
100
AcDbLine
 10
364.6596263245458
 20
349.8316239023668
 30
0.0
 11
349.5696768308846
 21
349.8316239023668
 31
0.0
  0
LINE
  5
2F0B
330
2E6B
100
AcDbEntity
  8
AM_5
100
AcDbLine
 10
373.6596263245458
 20
349.8316239023668
 30
0.0
 11
370.6596263245458
 21
349.8316239023668
 31
0.0
  0
SOLID
  5
2F0C
330
2E6B
100
AcDbEntity
  8
AM_5
100
AcDbTrace
 10
379.6596263245458
 20
350.8316239023668
 30
0.0
 11
379.6596263245458
 21
348.8316239023668
 31
0.0
 12
373.6596263245458
 22
349.8316239023668
 32
0.0
 13
373.6596263245458
 23
349.8316239023668
 33
0.0
  0
SOLID
  5
2F0D
330
2E6B
100
AcDbEntity
  8
AM_5
100
AcDbTrace
 10
364.6596263245458
 20
350.8316239023668
 30
0.0
 11
364.6596263245458
 21
348.8316239023668
 31
0.0
 12
370.6596263245458
 22
349.8316239023668
 32
0.0
 13
370.6596263245458
 23
349.8316239023668
 33
0.0
  0
MTEXT
  5
2F0E
330
2E6B
100
AcDbEntity
  8
AM_5
 62
     2
100
AcDbMText
 10
354.1146515777152
 20
356.3316239023668
 30
0.0
 40
7.0
 41
0.0
 46
0.0
 71
     5
 72
     1
  1
3
 73
     1
 44
1.0
  0
POINT
  5
2F0F
330
2E6B
100
AcDbEntity
  8
Defpoints
 62
     0
100
AcDbPoint
 10
373.6596263245458
 20
342.8544988143926
 30
0.0
  0
POINT
  5
2F10
330
2E6B
100
AcDbEntity
  8
Defpoints
 62
     0
100
AcDbPoint
 10
370.6596263245458
 20
342.8544988143926
 30
0.0
  0
POINT
  5
2F11
330
2E6B
100
AcDbEntity
  8
Defpoints
 62
     0
100
AcDbPoint
 10
370.6596263245458
 20
349.8316239023668
 30
0.0
  0
ENDBLK
  5
2E78
330
2E6B
100
AcDbEntity
  8
0
100
AcDbBlockEnd
  0
BLOCK
  5
2EC0
330
2EB4
100
AcDbEntity
  8
0
100
AcDbBlockBegin
  2
*D36
 70
     1
 10
0.0
 20
0.0
 30
0.0
  3
*D36
  1

  0
LINE
  5
2EFC
330
2EB4
100
AcDbEntity
  8
AM_5
100
AcDbLine
 10
373.6596263245458
 20
304.0544948143926
 30
0.0
 11
373.6596263245458
 21
294.7906589419499
 31
0.0
  0
LINE
  5
2EFD
330
2EB4
100
AcDbEntity
  8
AM_5
100
AcDbLine
 10
370.6596263245458
 20
304.0544948143926
 30
0.0
 11
370.6596263245458
 21
294.7906589419499
 31
0.0
  0
LINE
  5
2EFE
330
2EB4
100
AcDbEntity
  8
AM_5
100
AcDbLine
 10
379.6596263245458
 20
296.7906589419499
 30
0.0
 11
385.6596263245458
 21
296.7906589419499
 31
0.0
  0
LINE
  5
2EFF
330
2EB4
100
AcDbEntity
  8
AM_5
100
AcDbLine
 10
364.6596263245458
 20
296.7906589419499
 30
0.0
 11
349.5696768308846
 21
296.7906589419499
 31
0.0
  0
LINE
  5
2F00
330
2EB4
100
AcDbEntity
  8
AM_5
100
AcDbLine
 10
373.6596263245458
 20
296.7906589419499
 30
0.0
 11
370.6596263245458
 21
296.7906589419499
 31
0.0
  0
SOLID
  5
2F01
330
2EB4
100
AcDbEntity
  8
AM_5
100
AcDbTrace
 10
379.6596263245458
 20
297.7906589419499
 30
0.0
 11
379.6596263245458
 21
295.7906589419499
 31
0.0
 12
373.6596263245458
 22
296.7906589419499
 32
0.0
 13
373.6596263245458
 23
296.7906589419499
 33
0.0
  0
SOLID
  5
2F02
330
2EB4
100
AcDbEntity
  8
AM_5
100
AcDbTrace
 10
364.6596263245458
 20
297.7906589419499
 30
0.0
 11
364.6596263245458
 21
295.7906589419499
 31
0.0
 12
370.6596263245458
 22
296.7906589419499
 32
0.0
 13
370.6596263245458
 23
296.7906589419499
 33
0.0
  0
MTEXT
  5
2F03
330
2EB4
100
AcDbEntity
  8
AM_5
 62
     2
100
AcDbMText
 10
354.1146515777152
 20
303.2906589419499
 30
0.0
 40
7.0
 41
0.0
 46
0.0
 71
     5
 72
     1
  1
3
 73
     1
 44
1.0
  0
POINT
  5
2F04
330
2EB4
100
AcDbEntity
  8
Defpoints
 62
     0
100
AcDbPoint
 10
373.6596263245458
 20
304.0544948143926
 30
0.0
  0
POINT
  5
2F05
330
2EB4
100
AcDbEntity
  8
Defpoints
 62
     0
100
AcDbPoint
 10
370.6596263245458
 20
304.0544948143926
 30
0.0
  0
POINT
  5
2F06
330
2EB4
100
AcDbEntity
  8
Defpoints
 62
     0
100
AcDbPoint
 10
370.6596263245458
 20
296.7906589419499
 30
0.0
  0
ENDBLK
  5
2EC1
330
2EB4
100
AcDbEntity
  8
0
100
AcDbBlockEnd
  0
BLOCK
  5
2F65
330
2F59
100
AcDbEntity
  8
0
100
AcDbBlockBegin
  2
*D37
 70
     1
 10
0.0
 20
0.0
 30
0.0
  3
*D37
  1

  0
LINE
  5
2F88
330
2F59
100
AcDbEntity
  8
AM_5
100
AcDbLine
 10
161.2699492767817
 20
84.35445281439262
 30
0.0
 11
132.2700242767818
 21
84.35445281439264
 31
0.0
  0
LINE
  5
2F89
330
2F59
100
AcDbEntity
  8
AM_5
100
AcDbLine
 10
161.2699632767817
 20
83.85446881439259
 30
0.0
 11
132.2700242767818
 21
83.85446881439261
 31
0.0
  0
LINE
  5
2F8A
330
2F59
100
AcDbEntity
  8
AM_5
100
AcDbLine
 10
134.2700242767818
 20
90.35445281439264
 30
0.0
 11
134.2700242767818
 21
96.35445281439265
 31
0.0
  0
LINE
  5
2F8B
330
2F59
100
AcDbEntity
  8
AM_5
100
AcDbLine
 10
134.2700242767818
 20
77.8544688143926
 30
0.0
 11
134.2700242767817
 21
55.75900750970781
 31
0.0
  0
LINE
  5
2F8C
330
2F59
100
AcDbEntity
  8
AM_5
100
AcDbLine
 10
134.2700242767818
 20
84.35445281439264
 30
0.0
 11
134.2700242767818
 21
83.85446881439261
 31
0.0
  0
SOLID
  5
2F8D
330
2F59
100
AcDbEntity
  8
AM_5
100
AcDbTrace
 10
133.2700242767818
 20
90.35445281439264
 30
0.0
 11
135.2700242767818
 21
90.35445281439264
 31
0.0
 12
134.2700242767818
 22
84.35445281439264
 32
0.0
 13
134.2700242767818
 23
84.35445281439264
 33
0.0
  0
SOLID
  5
2F8E
330
2F59
100
AcDbEntity
  8
AM_5
100
AcDbTrace
 10
133.2700242767818
 20
77.8544688143926
 30
0.0
 11
135.2700242767818
 21
77.8544688143926
 31
0.0
 12
134.2700242767818
 22
83.85446881439261
 32
0.0
 13
134.2700242767818
 23
83.85446881439261
 33
0.0
  0
MTEXT
  5
2F8F
330
2F59
100
AcDbEntity
  8
AM_5
 62
     2
100
AcDbMText
 10
127.7700242767817
 20
63.80673816205023
 30
0.0
 40
7.0
 41
0.0
 46
0.0
 71
     5
 72
     1
  1
0.5
 11
0.0000000000000001
 21
1.0
 31
0.0
 73
     1
 44
1.0
  0
POINT
  5
2F90
330
2F59
100
AcDbEntity
  8
Defpoints
 62
     0
100
AcDbPoint
 10
161.2699492767817
 20
84.35445281439262
 30
0.0
  0
POINT
  5
2F91
330
2F59
100
AcDbEntity
  8
Defpoints
 62
     0
100
AcDbPoint
 10
161.2699632767817
 20
83.85446881439259
 30
0.0
  0
POINT
  5
2F92
330
2F59
100
AcDbEntity
  8
Defpoints
 62
     0
100
AcDbPoint
 10
134.2700242767818
 20
83.85446881439261
 30
0.0
  0
ENDBLK
  5
2F66
330
2F59
100
AcDbEntity
  8
0
100
AcDbBlockEnd
  0
BLOCK
  5
2FAE
330
2FA2
100
AcDbEntity
  8
0
100
AcDbBlockBegin
  2
*D38
 70
     1
 10
0.0
 20
0.0
 30
0.0
  3
*D38
  1

  0
LINE
  5
2FD1
330
2FA2
100
AcDbEntity
  8
AM_5
100
AcDbLine
 10
158.2700252767818
 20
66.35449881439263
 30
0.0
 11
158.2700252767818
 21
50.92265727834353
 31
0.0
  0
LINE
  5
2FD2
330
2FA2
100
AcDbEntity
  8
AM_5
100
AcDbLine
 10
161.2699492767817
 20
66.35452881439267
 30
0.0
 11
161.2699492767817
 21
50.92265727834353
 31
0.0
  0
LINE
  5
2FD3
330
2FA2
100
AcDbEntity
  8
AM_5
100
AcDbLine
 10
152.2700252767817
 20
52.92265727834354
 30
0.0
 11
146.2700252767818
 21
52.92265727834354
 31
0.0
  0
LINE
  5
2FD4
330
2FA2
100
AcDbEntity
  8
AM_5
100
AcDbLine
 10
167.2699492767817
 20
52.92265727834354
 30
0.0
 11
182.3598987704429
 21
52.92265727834354
 31
0.0
  0
LINE
  5
2FD5
330
2FA2
100
AcDbEntity
  8
AM_5
100
AcDbLine
 10
158.2700252767818
 20
52.92265727834354
 30
0.0
 11
161.2699492767817
 21
52.92265727834354
 31
0.0
  0
SOLID
  5
2FD6
330
2FA2
100
AcDbEntity
  8
AM_5
100
AcDbTrace
 10
152.2700252767817
 20
53.92265727834353
 30
0.0
 11
152.2700252767817
 21
51.92265727834353
 31
0.0
 12
158.2700252767818
 22
52.92265727834354
 32
0.0
 13
158.2700252767818
 23
52.92265727834354
 33
0.0
  0
SOLID
  5
2FD7
330
2FA2
100
AcDbEntity
  8
AM_5
100
AcDbTrace
 10
167.2699492767817
 20
53.92265727834353
 30
0.0
 11
167.2699492767817
 21
51.92265727834353
 31
0.0
 12
161.2699492767817
 22
52.92265727834354
 32
0.0
 13
161.2699492767817
 23
52.92265727834354
 33
0.0
  0
MTEXT
  5
2FD8
330
2FA2
100
AcDbEntity
  8
AM_5
 62
     2
100
AcDbMText
 10
177.8149240236123
 20
59.42265727834353
 30
0.0
 40
7.0
 41
0.0
 46
0.0
 71
     5
 72
     1
  1
3
 73
     1
 44
1.0
  0
POINT
  5
2FD9
330
2FA2
100
AcDbEntity
  8
Defpoints
 62
     0
100
AcDbPoint
 10
158.2700252767818
 20
66.35449881439263
 30
0.0
  0
POINT
  5
2FDA
330
2FA2
100
AcDbEntity
  8
Defpoints
 62
     0
100
AcDbPoint
 10
161.2699492767817
 20
66.35452881439267
 30
0.0
  0
POINT
  5
2FDB
330
2FA2
100
AcDbEntity
  8
Defpoints
 62
     0
100
AcDbPoint
 10
161.2699492767817
 20
52.92265727834354
 30
0.0
  0
ENDBLK
  5
2FAF
330
2FA2
100
AcDbEntity
  8
0
100
AcDbBlockEnd
  0
BLOCK
  5
2FF7
330
2FEB
100
AcDbEntity
  8
0
100
AcDbBlockBegin
  2
*D39
 70
     1
 10
0.0
 20
0.0
 30
0.0
  3
*D39
  1

  0
LINE
  5
3033
330
2FEB
100
AcDbEntity
  8
AM_5
100
AcDbLine
 10
257.2699732767818
 20
70.25452281439266
 30
0.0
 11
283.2699782767818
 21
70.25452281439266
 31
0.0
  0
LINE
  5
3034
330
2FEB
100
AcDbEntity
  8
AM_5
100
AcDbLine
 10
257.2699772767818
 20
83.85446881439259
 30
0.0
 11
283.2699782767818
 21
83.85446881439259
 31
0.0
  0
LINE
  5
3035
330
2FEB
100
AcDbEntity
  8
AM_5
100
AcDbLine
 10
281.2699782767818
 20
64.25452281439266
 30
0.0
 11
281.2699782767818
 21
58.25452281439265
 31
0.0
  0
LINE
  5
3036
330
2FEB
100
AcDbEntity
  8
AM_5
100
AcDbLine
 10
281.2699782767818
 20
89.85446881439258
 30
0.0
 11
281.2699782767818
 21
115.4444183080537
 31
0.0
  0
LINE
  5
3037
330
2FEB
100
AcDbEntity
  8
AM_5
100
AcDbLine
 10
281.2699782767818
 20
70.25452281439266
 30
0.0
 11
281.2699782767818
 21
83.85446881439259
 31
0.0
  0
SOLID
  5
3038
330
2FEB
100
AcDbEntity
  8
AM_5
100
AcDbTrace
 10
280.2699782767818
 20
64.25452281439266
 30
0.0
 11
282.2699782767818
 21
64.25452281439266
 31
0.0
 12
281.2699782767818
 22
70.25452281439266
 32
0.0
 13
281.2699782767818
 23
70.25452281439266
 33
0.0
  0
SOLID
  5
3039
330
2FEB
100
AcDbEntity
  8
AM_5
100
AcDbTrace
 10
280.2699782767818
 20
89.85446881439258
 30
0.0
 11
282.2699782767818
 21
89.85446881439258
 31
0.0
 12
281.2699782767818
 22
83.85446881439259
 32
0.0
 13
281.2699782767818
 23
83.85446881439259
 33
0.0
  0
MTEXT
  5
303A
330
2FEB
100
AcDbEntity
  8
AM_5
 62
     2
100
AcDbMText
 10
274.7699782767818
 20
105.6494435612232
 30
0.0
 40
7.0
 41
0.0
 46
0.0
 71
     5
 72
     1
  1
13.5
 11
0.0000000000000001
 21
1.0
 31
0.0
 73
     1
 44
1.0
  0
POINT
  5
303B
330
2FEB
100
AcDbEntity
  8
Defpoints
 62
     0
100
AcDbPoint
 10
257.2699732767818
 20
70.25452281439266
 30
0.0
  0
POINT
  5
303C
330
2FEB
100
AcDbEntity
  8
Defpoints
 62
     0
100
AcDbPoint
 10
257.2699772767818
 20
83.85446881439259
 30
0.0
  0
POINT
  5
303D
330
2FEB
100
AcDbEntity
  8
Defpoints
 62
     0
100
AcDbPoint
 10
281.2699782767818
 20
83.85446881439259
 30
0.0
  0
ENDBLK
  5
2FF8
330
2FEB
100
AcDbEntity
  8
0
100
AcDbBlockEnd
  0
BLOCK
  5
305A
330
304E
100
AcDbEntity
  8
0
100
AcDbBlockBegin
  2
*D40
 70
     1
 10
0.0
 20
0.0
 30
0.0
  3
*D40
  1

  0
LINE
  5
307D
330
304E
100
AcDbEntity
  8
AM_5
100
AcDbLine
 10
158.2699632767817
 20
372.9555888143926
 30
0.0
 11
158.2699632767817
 21
398.9555888143926
 31
0.0
  0
LINE
  5
307E
330
304E
100
AcDbEntity
  8
AM_5
100
AcDbLine
 10
148.2700852767818
 20
372.9555888143926
 30
0.0
 11
148.2700852767818
 21
398.9555888143926
 31
0.0
  0
LINE
  5
307F
330
304E
100
AcDbEntity
  8
AM_5
100
AcDbLine
 10
164.2699632767817
 20
396.9555888143927
 30
0.0
 11
170.2699632767817
 21
396.9555888143927
 31
0.0
  0
LINE
  5
3080
330
304E
100
AcDbEntity
  8
AM_5
100
AcDbLine
 10
142.2700852767818
 20
396.9555888143927
 30
0.0
 11
123.9645734657581
 21
396.9555888143927
 31
0.0
  0
LINE
  5
3081
330
304E
100
AcDbEntity
  8
AM_5
100
AcDbLine
 10
158.2699632767817
 20
396.9555888143927
 30
0.0
 11
148.2700852767818
 21
396.9555888143927
 31
0.0
  0
SOLID
  5
3082
330
304E
100
AcDbEntity
  8
AM_5
100
AcDbTrace
 10
164.2699632767817
 20
397.9555888143926
 30
0.0
 11
164.2699632767817
 21
395.9555888143926
 31
0.0
 12
158.2699632767817
 22
396.9555888143927
 32
0.0
 13
158.2699632767817
 23
396.9555888143927
 33
0.0
  0
SOLID
  5
3083
330
304E
100
AcDbEntity
  8
AM_5
100
AcDbTrace
 10
142.2700852767818
 20
397.9555888143926
 30
0.0
 11
142.2700852767818
 21
395.9555888143926
 31
0.0
 12
148.2700852767818
 22
396.9555888143927
 32
0.0
 13
148.2700852767818
 23
396.9555888143927
 33
0.0
  0
MTEXT
  5
3084
330
304E
100
AcDbEntity
  8
AM_5
 62
     2
100
AcDbMText
 10
130.11732937127
 20
403.4555888143926
 30
0.0
 40
7.0
 41
0.0
 46
0.0
 71
     5
 72
     1
  1
10
 73
     1
 44
1.0
  0
POINT
  5
3085
330
304E
100
AcDbEntity
  8
Defpoints
 62
     0
100
AcDbPoint
 10
158.2699632767817
 20
372.9555888143926
 30
0.0
  0
POINT
  5
3086
330
304E
100
AcDbEntity
  8
Defpoints
 62
     0
100
AcDbPoint
 10
148.2700852767818
 20
372.9555888143926
 30
0.0
  0
POINT
  5
3087
330
304E
100
AcDbEntity
  8
Defpoints
 62
     0
100
AcDbPoint
 10
148.2700852767818
 20
396.9555888143927
 30
0.0
  0
ENDBLK
  5
305B
330
304E
100
AcDbEntity
  8
0
100
AcDbBlockEnd
  0
BLOCK
  5
30A3
330
3097
100
AcDbEntity
  8
0
100
AcDbBlockBegin
  2
*D41
 70
     1
 10
0.0
 20
0.0
 30
0.0
  3
*D41
  1

  0
LINE
  5
30C6
330
3097
100
AcDbEntity
  8
AM_5
100
AcDbLine
 10
158.2691212767818
 20
271.9544748143926
 30
0.0
 11
158.2691212767818
 21
245.9544748143926
 31
0.0
  0
LINE
  5
30C7
330
3097
100
AcDbEntity
  8
AM_5
100
AcDbLine
 10
145.2691172767818
 20
271.9544748143926
 30
0.0
 11
145.2691172767818
 21
245.9544748143926
 31
0.0
  0
LINE
  5
30C8
330
3097
100
AcDbEntity
  8
AM_5
100
AcDbLine
 10
164.2691212767818
 20
247.9544748143926
 30
0.0
 11
170.2691212767818
 21
247.9544748143926
 31
0.0
  0
LINE
  5
30C9
330
3097
100
AcDbEntity
  8
AM_5
100
AcDbLine
 10
139.2691172767818
 20
247.9544748143926
 30
0.0
 11
133.2691172767818
 21
247.9544748143926
 31
0.0
  0
LINE
  5
30CA
330
3097
100
AcDbEntity
  8
AM_5
100
AcDbLine
 10
158.2691212767818
 20
247.9544748143926
 30
0.0
 11
145.2691172767818
 21
247.9544748143926
 31
0.0
  0
SOLID
  5
30CB
330
3097
100
AcDbEntity
  8
AM_5
100
AcDbTrace
 10
164.2691212767818
 20
248.9544748143926
 30
0.0
 11
164.2691212767818
 21
246.9544748143926
 31
0.0
 12
158.2691212767818
 22
247.9544748143926
 32
0.0
 13
158.2691212767818
 23
247.9544748143926
 33
0.0
  0
SOLID
  5
30CC
330
3097
100
AcDbEntity
  8
AM_5
100
AcDbTrace
 10
139.2691172767818
 20
248.9544748143926
 30
0.0
 11
139.2691172767818
 21
246.9544748143926
 31
0.0
 12
145.2691172767818
 22
247.9544748143926
 32
0.0
 13
145.2691172767818
 23
247.9544748143926
 33
0.0
  0
MTEXT
  5
30CD
330
3097
100
AcDbEntity
  8
AM_5
 62
     2
100
AcDbMText
 10
151.7691192767818
 20
254.4544748143926
 30
0.0
 40
7.0
 41
0.0
 46
0.0
 71
     5
 72
     1
  1
13
 73
     1
 44
1.0
  0
POINT
  5
30CE
330
3097
100
AcDbEntity
  8
Defpoints
 62
     0
100
AcDbPoint
 10
158.2691212767818
 20
271.9544748143926
 30
0.0
  0
POINT
  5
30CF
330
3097
100
AcDbEntity
  8
Defpoints
 62
     0
100
AcDbPoint
 10
145.2691172767818
 20
271.9544748143926
 30
0.0
  0
POINT
  5
30D0
330
3097
100
AcDbEntity
  8
Defpoints
 62
     0
100
AcDbPoint
 10
145.2691172767818
 20
247.9544748143926
 30
0.0
  0
ENDBLK
  5
30A4
330
3097
100
AcDbEntity
  8
0
100
AcDbBlockEnd
  0
ENDSEC
  0
SECTION
  2
ENTITIES
  0
INSERT
  5
3FB
330
1A
100
AcDbEntity
  8
ASHADE
 62
     1
100
AcDbBlockReference
  2
AVE_RENDER
 10
0.0
 20
0.0
 30
0.0
1001
AVE_RENDER
1002
{
1070
     7
1000
Pref
1070
    60
1070
    30
1070
     1
1070
     0
1000

1070
    10
1070
     1
1070
    10
1040
1.0
1070
     1
1040
0.3
1040
0.7
1040
0.0
1040
10.0
1010
-1.0
1020
-1.0
1030
-1.0
1040
0.3
1070
    49
1070
     1
1070
     0
1010
1.0
1020
1.0
1030
1.0
1040
45.0
1070
     1
1070
     0
1000
WCS
1040
0.0
1070
     1
1040
10.0
1002
}
  0
INSERT
  5
3FC
330
1A
100
AcDbEntity
  8
ASHADE
 62
     3
100
AcDbBlockReference
  2
AVE_RENDER
 10
0.0
 20
0.0
 30
0.0
1001
AVE_RENDER
1002
{
1070
     0
1000
Full Opt
1070
     0
1070
     1
1070
     1
1070
     1
1070
     0
1070
     0
1070
     0
1070
     1
1070
     1
1040
0.0001
1040
0.0001
1002
}
  0
INSERT
  5
3FD
330
1A
100
AcDbEntity
  8
ASHADE
 62
     4
100
AcDbBlockReference
  2
AVE_RENDER
 10
0.0
 20
0.0
 30
0.0
1001
AVE_RENDER
1002
{
1070
     0
1000
Quick Opt
1070
     0
1070
     1
1070
     1
1070
     1
1070
     0
1070
     0
1070
     1
1002
}
  0
INSERT
  5
3FE
330
1A
100
AcDbEntity
  8
ASHADE
 62
     5
100
AcDbBlockReference
  2
AVE_RENDER
 10
0.0
 20
0.0
 30
0.0
1001
AVE_RENDER
1002
{
1070
     1
1000
Scanl Opt
1070
     2
1070
     0
1070
     2
1040
2.0
1040
4.0
1070
     0
1070
     1
1070
     0
1040
0.03
1002
}
  0
INSERT
  5
3FF
330
1A
100
AcDbEntity
  8
ASHADE
 62
     6
100
AcDbBlockReference
  2
AVE_RENDER
 10
0.0
 20
0.0
 30
0.0
1001
AVE_RENDER
1002
{
1070
     2
1000
Raytr Opt
1070
     3
1070
     0
1070
     2
1040
2.0
1040
4.0
1070
     0
1070
     1
1070
     1
1040
0.03
1070
     3
1040
0.03
1002
}
  0
INSERT
  5
400
330
1A
100
AcDbEntity
  8
ASHADE
 62
     7
100
AcDbBlockReference
  2
AVE_RENDER
 10
0.0
 20
0.0
 30
0.0
1001
AVE_RENDER
1002
{
1070
     0
1000
RFile Opt
1070
     5
1070
  1600
1070
  1280
1070
 10000
1070
     1
1070
    32
1070
    32
1070
     0
1070
     0
1070
     0
1070
     0
1070
     0
1070
     0
1070
     0
1002
}
  0
INSERT
  5
401
330
1A
100
AcDbEntity
  8
ASHADE
 62
     8
100
AcDbBlockReference
  2
AVE_RENDER
 10
0.0
 20
0.0
 30
0.0
1001
AVE_RENDER
1002
{
1070
     0
1000
Fog Opt
1070
     0
1070
     0
1040
0.0
1040
1.0
1040
0.0
1040
1.0
1010
0.5
1020
0.5
1030
0.5
1002
}
  0
INSERT
  5
402
330
1A
100
AcDbEntity
  8
ASHADE
 62
     9
100
AcDbBlockReference
  2
AVE_RENDER
 10
0.0
 20
0.0
 30
0.0
1001
AVE_RENDER
1002
{
1070
     0
1000
BG Opt
1070
     0
1070
     0
1010
1.0
1020
1.0
1030
1.0
1010
1.0
1020
0.0
1030
0.0
1010
0.0
1020
1.0
1030
0.0
1010
0.0
1020
0.0
1030
1.0
1040
0.5
1040
0.33
1040
0.0
1000

1070
     1
1000

1070
     1
1070
     1
1040
1.0
1040
1.0
1040
0.0
1040
0.0
1070
     0
1002
}
  0
INSERT
  5
409
330
1A
100
AcDbEntity
  8
ASHADE
 62
     1
100
AcDbBlockReference
  2
AVE_GLOBAL
 10
0.0
 20
0.0
 30
0.0
1001
AVE_MATERIAL
1002
{
1000
*GLOBAL*
1000
2
1000
Globales Material.
1002
{
1002
}
1002
{
1070
    63
1002
{
1002
{
1010
-1.0
1020
-1.0
1030
-1.0
1002
}
1040
0.1000000014901161
1000

1040
0.0
1002
{
1002
}
1040
0.0
1002
{
1002
}
1040
0.0
1002
}
1002
{
1002
{
1010
-1.0
1020
-1.0
1030
-1.0
1002
}
1040
0.6999999880790711
1000

1040
0.0
1002
{
1002
}
1040
0.0
1002
{
1002
}
1040
0.0
1002
}
1002
{
1002
{
1010
-1.0
1020
-1.0
1030
-1.0
1002
}
1040
0.2000000029802322
1000

1040
0.0
1002
{
1002
}
1040
0.0
1002
{
1002
}
1040
0.0
1002
}
1002
{
1070
     0
1002
{
1070
     1
1002
{
1040
1.0
1040
1.0
1000

1040
0.0
1002
{
1002
}
1040
0.0
1002
{
1002
}
1040
0.0
1002
}
1002
}
1040
1.0
1040
0.0
1040
0.0
1002
}
1002
{
1040
1.0
1040
1.0
1000

1040
0.0
1002
{
1002
}
1040
0.0
1002
{
1002
}
1040
0.0
1002
}
1002
{
1040
0.5
1040
1.0
1000

1040
0.0
1002
{
1002
}
1040
0.0
1002
{
1002
}
1040
0.0
1002
}
1002
{
1070
     0
1040
0.0
1002
{
1002
}
1040
1.0
1002
{
1002
}
1040
0.0
1002
}
1002
{
1040
0.0
1002
{
1002
{
1010
0.0
1020
0.0
1030
0.0
1002
}
1040
1.0
1000

1040
0.0
1002
{
1002
}
1040
0.0
1002
{
1002
}
1040
0.0
1002
}
1002
}
1002
{
1002
{
1070
     1
1002
{
1040
0.0
1040
1.0
1000

1040
0.0
1002
{
1002
}
1040
0.0
1002
{
1002
}
1040
0.0
1002
}
1002
}
1040
0.0
1002
{
1002
}
1010
1.0
1020
0.0
1030
0.0
1010
0.0
1020
1.0
1030
0.0
1010
0.0
1020
0.0
1030
1.0
1070
     0
1002
}
1002
{
1002
{
1040
1.0
1040
1.0
1002
{
1070
     1
1002
{
1040
1.0
1040
1.0
1000

1040
0.0
1002
{
1002
}
1040
0.0
1002
{
1002
}
1040
0.0
1002
}
1002
}
1002
}
1070
     0
1040
0.0
1002
{
1002
}
1002
}
1002
{
1002
}
1002
}
1002
{
1071
        3
1070
     3
1070
     0
1002
{
1070
     2
1070
     0
1070
     0
1040
0.0
1002
}
1070
     0
1070
     2
1002
{
1002
}
1002
}
1002
{
1040
8030.0
1040
190.3000030517578
1040
0.3050000071525574
1040
228.0
1040
545.0
1040
14.0
1040
17.39999961853027
1040
0.4560000002384186
1002
}
1002
}
  0
POINT
  5
1677
330
1A
100
AcDbEntity
  8
0
 60
     1
100
AcDbPoint
 10
0.0
 20
0.0
 30
0.0
1001
GENIUS_GENODEF_13
1002
{
1000
HIER
1070
     1
1002
}
1002
{
1000
MANEDIT
1070
     0
1002
}
1002
{
1000
NOSEL
1070
     0
1002
}
1002
{
1000
BEHIND
1070
     0
1002
}
1002
{
1000
REACTOR
1002
}
1001
GENIUS_GENOBJ-N-SDF_13
1002
{
1000
OWNER
1000
GEN
1002
}
1001
GENIUS_GENOENT_13
1002
{
1000
MYREF
1005
1677
1002
}
1002
{
1000
GRP
1005
0
1002
}
1001
GENIUS_GENOLIS_13
1002
{
1000
ENT
1005
22
1002
}
  0
POLYLINE
  5
1BE4
330
1A
100
AcDbEntity
  8
1
100
AcDb2dPolyline
 66
     1
 10
0.0
 20
0.0
 30
0.0
 70
     1
  0
VERTEX
  5
1BE5
330
1BE4
100
AcDbEntity
  8
1
100
AcDbVertex
100
AcDb2dVertex
 10
161.2699632767817
 20
426.4544748143926
 30
0.0
  0
VERTEX
  5
1BE6
330
1BE4
100
AcDbEntity
  8
1
100
AcDbVertex
100
AcDb2dVertex
 10
158.2699632767817
 20
426.4544748143926
 30
0.0
  0
VERTEX
  5
1BE7
330
1BE4
100
AcDbEntity
  8
1
100
AcDbVertex
100
AcDb2dVertex
 10
158.2699632767817
 20
156.4544928143926
 30
0.0
  0
VERTEX
  5
1BE8
330
1BE4
100
AcDbEntity
  8
1
100
AcDbVertex
100
AcDb2dVertex
 10
161.2699632767817
 20
156.4544928143926
 30
0.0
  0
SEQEND
  5
1BE9
330
1BE4
100
AcDbEntity
  8
1
  0
LINE
  5
1BEA
330
1A
100
AcDbEntity
  8
7
  6
GEN7A
100
AcDbLine
 10
218.2699692767818
 20
191.2313948143926
 30
0.0
 11
218.2699692767818
 21
347.0285868143926
 31
0.0
  0
LINE
  5
1BEB
330
1A
100
AcDbEntity
  8
1
100
AcDbLine
 10
155.3905012767818
 20
72.23313081439266
 30
0.0
 11
148.2691712767818
 21
79.35446881439259
 31
0.0
  0
LINE
  5
1BED
330
1A
100
AcDbEntity
  8
7
  6
GEN7A
100
AcDbLine
 10
218.2699692767818
 20
63.80289281439264
 30
0.0
 11
218.2699692767818
 21
90.83220481439264
 31
0.0
  0
LINE
  5
1BEE
330
1A
100
AcDbEntity
  8
1
100
AcDbLine
 10
257.2699732767818
 20
70.25452281439266
 30
0.0
 11
257.2699732767818
 21
83.85446881439259
 31
0.0
  0
LINE
  5
1BEF
330
1A
100
AcDbEntity
  8
1
100
AcDbLine
 10
158.2700252767818
 20
66.35449881439263
 30
0.0
 11
158.2700252767818
 21
84.35445281439262
 31
0.0
  0
LINE
  5
1BF0
330
1A
100
AcDbEntity
  8
1
100
AcDbLine
 10
161.2699492767817
 20
66.35449881439263
 30
0.0
 11
161.2699492767817
 21
84.35445281439262
 31
0.0
  0
LINE
  5
1BF1
330
1A
100
AcDbEntity
  8
1
100
AcDbLine
 10
257.2699732767818
 20
70.25452281439266
 30
0.0
 11
161.2699632767817
 21
70.25452281439266
 31
0.0
  0
LINE
  5
1BF3
330
1A
100
AcDbEntity
  8
1
100
AcDbLine
 10
161.2699632767817
 20
66.35452881439267
 30
0.0
 11
158.2700252767818
 21
66.35452881439267
 31
0.0
  0
ARC
  5
1BF4
330
1A
100
AcDbEntity
  8
1
100
AcDbCircle
 10
157.5118232767818
 20
74.35446881439259
 30
0.0
 40
3.0
100
AcDbArc
 50
225.0000920000005
 51
270.0
  0
LINE
  5
1BF5
330
1A
100
AcDbEntity
  8
1
100
AcDbLine
 10
158.2700252767818
 20
71.35446881439259
 30
0.0
 11
157.5118232767818
 21
71.35446881439259
 31
0.0
  0
LINE
  5
1BF6
330
1A
100
AcDbEntity
  8
1
100
AcDbLine
 10
236.2699512767818
 20
69.85452881439261
 30
0.0
 11
200.2699812767818
 21
69.85452881439261
 31
0.0
  0
LINE
  5
1BF7
330
1A
100
AcDbEntity
  8
1
100
AcDbLine
 10
200.2699812767818
 20
70.25452281439266
 30
0.0
 11
200.2699812767818
 21
69.85452881439261
 31
0.0
  0
LINE
  5
1BF8
330
1A
100
AcDbEntity
  8
1
100
AcDbLine
 10
236.2699492767817
 20
70.25452281439266
 30
0.0
 11
236.2699492767817
 21
69.85452881439261
 31
0.0
  0
LINE
  5
1BFA
330
1A
100
AcDbEntity
  8
1
100
AcDbLine
 10
257.2699772767818
 20
83.85446881439259
 30
0.0
 11
161.2699632767817
 21
83.85446881439259
 31
0.0
  0
LINE
  5
1BFB
330
1A
100
AcDbEntity
  8
1
100
AcDbLine
 10
158.2700252767818
 20
79.35446881439259
 30
0.0
 11
148.2691712767818
 21
79.35446881439259
 31
0.0
  0
LINE
  5
1BFC
330
1A
100
AcDbEntity
  8
1
100
AcDbLine
 10
158.2700552767818
 20
81.8544688143926
 30
0.0
 11
148.2691712767818
 21
81.8544688143926
 31
0.0
  0
LINE
  5
1BFD
330
1A
100
AcDbEntity
  8
1
100
AcDbLine
 10
148.2691712767818
 20
79.35446881439259
 30
0.0
 11
148.2691712767818
 21
81.8544688143926
 31
0.0
  0
LINE
  5
1BFE
330
1A
100
AcDbEntity
  8
1
100
AcDbLine
 10
158.2700252767818
 20
84.35445281439262
 30
0.0
 11
161.2699492767817
 21
84.35445281439262
 31
0.0
  0
LINE
  5
1C03
330
1A
100
AcDbEntity
  8
1
100
AcDbLine
 10
257.2699732767818
 20
206.4545088143926
 30
0.0
 11
257.2699732767818
 21
376.4545048143926
 31
0.0
  0
LINE
  5
1C04
330
1A
100
AcDbEntity
  8
1
100
AcDbLine
 10
161.2699532767818
 20
196.4544788143926
 30
0.0
 11
247.2699732767818
 21
196.4544788143926
 31
0.0
  0
LINE
  5
1C06
330
1A
100
AcDbEntity
  8
1
100
AcDbLine
 10
158.2691172767818
 20
303.9544748143926
 30
0.0
 11
145.2691172767818
 21
303.9544748143926
 31
0.0
  0
LINE
  5
1C07
330
1A
100
AcDbEntity
  8
1
100
AcDbLine
 10
145.2691172767818
 20
271.9544748143926
 30
0.0
 11
158.2691212767818
 21
271.9544748143926
 31
0.0
  0
LINE
  5
1C08
330
1A
100
AcDbEntity
  8
1
100
AcDbLine
 10
145.2691172767818
 20
303.9544748143926
 30
0.0
 11
145.2691172767818
 21
271.9544748143926
 31
0.0
  0
ARC
  5
1C09
330
1A
100
AcDbEntity
  8
1
100
AcDbCircle
 10
218.2699692767818
 20
255.4544968143927
 30
0.0
 40
5.099999999999999
100
AcDbArc
 50
180.0000459999994
 51
359.9999569999999
  0
LINE
  5
1C0A
330
1A
100
AcDbEntity
  8
7
  6
GEN7A
100
AcDbLine
 10
197.7180572767818
 20
227.4544788143927
 30
0.0
 11
260.4690692767818
 21
227.4544788143927
 31
0.0
  0
ARC
  5
1C0B
330
1A
100
AcDbEntity
  8
1
100
AcDbCircle
 10
218.2699692767818
 20
227.4544788143927
 30
0.0
 40
17.999998
100
AcDbArc
 50
286.4592510000007
 51
253.5407559999999
  0
ARC
  5
1C0C
330
1A
100
AcDbEntity
  8
1
100
AcDbCircle
 10
218.2699692767818
 20
227.4544788143927
 30
0.0
 40
8.599999999999999
100
AcDbArc
 50
306.3718639999997
 51
233.6281510000002
  0
LINE
  5
1C0D
330
1A
100
AcDbEntity
  8
1
100
AcDbLine
 10
223.3699692767818
 20
207.4544868143926
 30
0.0
 11
223.3699692767818
 21
220.5298828143926
 31
0.0
  0
LINE
  5
1C0E
330
1A
100
AcDbEntity
  8
1
100
AcDbLine
 10
213.1699692767818
 20
207.4544868143926
 30
0.0
 11
213.1699692767818
 21
220.5298828143926
 31
0.0
  0
ARC
  5
1C0F
330
1A
100
AcDbEntity
  8
1
100
AcDbCircle
 10
218.2699692767818
 20
207.4544868143926
 30
0.0
 40
5.099999999999999
100
AcDbArc
 50
180.0
 51
0.0
  0
LINE
  5
1C10
330
1A
100
AcDbEntity
  8
1
100
AcDbLine
 10
247.2699732767818
 20
196.4544788143926
 30
0.0
 11
257.2699712767818
 21
206.4544788143926
 31
0.0
  0
LINE
  5
1C11
330
1A
100
AcDbEntity
  8
7
  6
GEN7A
100
AcDbLine
 10
197.7180572767818
 20
275.4544888143927
 30
0.0
 11
260.4690692767818
 21
275.4544888143927
 31
0.0
  0
ARC
  5
1C12
330
1A
100
AcDbEntity
  8
1
100
AcDbCircle
 10
218.2699692767818
 20
275.4544888143927
 30
0.0
 40
17.999998
100
AcDbArc
 50
286.4592510000007
 51
252.7317336183932
  0
ARC
  5
1C13
330
1A
100
AcDbEntity
  8
1
100
AcDbCircle
 10
218.2699692767818
 20
275.4544888143927
 30
0.0
 40
8.599999999999999
100
AcDbArc
 50
306.3718869999996
 51
233.6281319999996
  0
LINE
  5
1C14
330
1A
100
AcDbEntity
  8
1
100
AcDbLine
 10
213.1699692767818
 20
255.4544968143927
 30
0.0
 11
213.1699692767818
 21
268.5298988143926
 31
0.0
  0
LINE
  5
1C15
330
1A
100
AcDbEntity
  8
1
100
AcDbLine
 10
223.3699692767818
 20
255.4544968143927
 30
0.0
 11
223.3699692767818
 21
268.5298988143926
 31
0.0
  0
LINE
  5
1C16
330
1A
100
AcDbEntity
  8
1
100
AcDbLine
 10
161.2699672767818
 20
386.4545048143926
 30
0.0
 11
247.2699712767818
 21
386.4545048143926
 31
0.0
  0
LINE
  5
1C17
330
1A
100
AcDbEntity
  8
1
100
AcDbLine
 10
172.9699692767818
 20
342.8045108143927
 30
0.0
 11
172.9699692767818
 21
373.1044988143926
 31
0.0
  0
INSERT
  5
1C18
330
1A
100
AcDbEntity
  8
5
 62
     3
100
AcDbBlockReference
  2
BLK33
 10
218.2699792767818
 20
215.3544988143926
 30
0.0
 41
2.0
 42
2.0
 43
2.0
  0
LINE
  5
1C19
330
1A
100
AcDbEntity
  8
1
100
AcDbLine
 10
172.9699652767817
 20
342.8044948143926
 30
0.0
 11
161.4699692767818
 21
342.8044948143926
 31
0.0
  0
LINE
  5
1C1B
330
1A
100
AcDbEntity
  8
1
100
AcDbLine
 10
172.9699652767817
 20
373.1044988143926
 30
0.0
 11
161.4699652767817
 21
373.1044988143926
 31
0.0
  0
LINE
  5
1C1D
330
1A
100
AcDbEntity
  8
7
  6
GEN7A
100
AcDbLine
 10
208.9362572767818
 20
335.4544968143926
 30
0.0
 11
228.2876692767818
 21
335.4544968143926
 31
0.0
  0
CIRCLE
  5
1C1E
330
1A
100
AcDbEntity
  8
1
100
AcDbCircle
 10
218.2699692767818
 20
335.4544968143926
 30
0.0
 40
7.0
  0
LINE
  5
1C1F
330
1A
100
AcDbEntity
  8
1
100
AcDbLine
 10
214.2699532767818
 20
331.4544968143926
 30
0.0
 11
222.2699692767818
 21
331.4544968143926
 31
0.0
  0
LINE
  5
1C20
330
1A
100
AcDbEntity
  8
1
100
AcDbLine
 10
214.2699532767818
 20
339.4545048143926
 30
0.0
 11
222.2699692767818
 21
339.4545048143926
 31
0.0
  0
LINE
  5
1C21
330
1A
100
AcDbEntity
  8
1
100
AcDbLine
 10
214.2699672767818
 20
331.4544968143926
 30
0.0
 11
214.2699672767818
 21
339.4544748143926
 31
0.0
  0
LINE
  5
1C22
330
1A
100
AcDbEntity
  8
1
100
AcDbLine
 10
222.2699712767818
 20
331.4544968143926
 30
0.0
 11
222.2699712767818
 21
339.4545048143926
 31
0.0
  0
LINE
  5
1C23
330
1A
100
AcDbEntity
  8
3A
  6
GEN3A
100
AcDbLine
 10
257.2699732767818
 20
325.6318588143926
 30
0.0
 11
257.2699732767818
 21
329.5662688143926
 31
0.0
  0
LINE
  5
1C24
330
1A
100
AcDbEntity
  8
1
100
AcDbLine
 10
247.2699732767818
 20
386.4545048143926
 30
0.0
 11
257.2699732767818
 21
376.4545048143926
 31
0.0
  0
LINE
  5
1C28
330
1A
100
AcDbEntity
  8
1
100
AcDbLine
 10
388.6596263245458
 20
156.4544968143926
 30
0.0
 11
388.6596263245458
 21
426.4544748143926
 31
0.0
  0
LINE
  5
1C29
330
1A
100
AcDbEntity
  8
1
100
AcDbLine
 10
370.6596263245458
 20
156.4544968143926
 30
0.0
 11
370.6596263245458
 21
426.4544748143926
 31
0.0
  0
LINE
  5
1C2C
330
1A
100
AcDbEntity
  8
7
  6
GEN7A
100
AcDbLine
 10
372.5346263245458
 20
172.4544968143926
 30
0.0
 11
386.7846263245458
 21
172.4544968143926
 31
0.0
  0
CIRCLE
  5
1C2D
330
1A
100
AcDbEntity
  8
1
100
AcDbCircle
 10
379.6596263245458
 20
172.4544968143926
 30
0.0
 40
4.75
  0
LINE
  5
1C2E
330
1A
100
AcDbEntity
  8
1
100
AcDbLine
 10
388.6596103245458
 20
156.4544968143926
 30
0.0
 11
370.6596263245458
 21
156.4544968143926
 31
0.0
  0
LINE
  5
1C2F
330
1A
100
AcDbEntity
  8
7
  6
GEN7A
100
AcDbLine
 10
379.6596263245458
 20
179.5795048143926
 30
0.0
 11
379.6596263245458
 21
165.3294968143926
 31
0.0
  0
CIRCLE
  5
1C30
330
1A
100
AcDbEntity
  8
1
100
AcDbCircle
 10
379.6596263245458
 20
172.4544968143926
 30
0.0
 40
2.5
  0
LINE
  5
1C32
330
1A
100
AcDbEntity
  8
7
  6
GEN7A
100
AcDbLine
 10
377.6596263245458
 20
265.5795048143926
 30
0.0
 11
377.6596263245458
 21
251.3294968143926
 31
0.0
  0
CIRCLE
  5
1C33
330
1A
100
AcDbEntity
  8
1
100
AcDbCircle
 10
377.6596263245458
 20
258.4544968143926
 30
0.0
 40
4.75
  0
LINE
  5
1C34
330
1A
100
AcDbEntity
  8
7
  6
GEN7A
100
AcDbLine
 10
370.5346263245458
 20
210.4544968143926
 30
0.0
 11
384.7846263245458
 21
210.4544968143926
 31
0.0
  0
CIRCLE
  5
1C35
330
1A
100
AcDbEntity
  8
1
100
AcDbCircle
 10
377.6596263245458
 20
210.4544968143926
 30
0.0
 40
2.5
  0
LINE
  5
1C36
330
1A
100
AcDbEntity
  8
7
  6
GEN7A
100
AcDbLine
 10
377.6596263245458
 20
217.5795048143926
 30
0.0
 11
377.6596263245458
 21
203.3294968143926
 31
0.0
  0
CIRCLE
  5
1C37
330
1A
100
AcDbEntity
  8
1
100
AcDbCircle
 10
377.6596263245458
 20
210.4544968143926
 30
0.0
 40
4.75
  0
LINE
  5
1C38
330
1A
100
AcDbEntity
  8
7
  6
GEN7A
100
AcDbLine
 10
370.5346263245458
 20
258.4544968143926
 30
0.0
 11
384.7846263245458
 21
258.4544968143926
 31
0.0
  0
LINE
  5
1C3A
330
1A
100
AcDbEntity
  8
7
  6
GEN7A
100
AcDbLine
 10
391.7298763245459
 20
287.9544968143926
 30
0.0
 11
366.3294723245458
 21
287.9544968143926
 31
0.0
  0
LINE
  5
1C3B
330
1A
100
AcDbEntity
  8
1
100
AcDbLine
 10
382.0596203245458
 20
271.8544908143926
 30
0.0
 11
382.0596203245458
 21
304.0544948143926
 31
0.0
  0
LINE
  5
1C3C
330
1A
100
AcDbEntity
  8
1
100
AcDbLine
 10
373.6596263245458
 20
271.8544908143926
 30
0.0
 11
373.6596263245458
 21
304.0544948143926
 31
0.0
  0
CIRCLE
  5
1C3D
330
1A
100
AcDbEntity
  8
1
100
AcDbCircle
 10
377.6596263245458
 20
258.4544968143926
 30
0.0
 40
2.5
  0
LINE
  5
1C3E
330
1A
100
AcDbEntity
  8
1
100
AcDbLine
 10
373.6596263245458
 20
271.8544908143926
 30
0.0
 11
382.0596203245458
 21
271.8544908143926
 31
0.0
  0
LINE
  5
1C3F
330
1A
100
AcDbEntity
  8
1
100
AcDbLine
 10
373.6595943245458
 20
304.0544948143926
 30
0.0
 11
382.0596203245458
 21
304.0544948143926
 31
0.0
  0
LINE
  5
1C42
330
1A
100
AcDbEntity
  8
1
100
AcDbLine
 10
376.4596283245459
 20
370.5545108143927
 30
0.0
 11
376.4596283245459
 21
373.0545108143926
 31
0.0
  0
LINE
  5
1C43
330
1A
100
AcDbEntity
  8
1
100
AcDbLine
 10
373.6596263245458
 20
357.9545048143927
 30
0.0
 11
373.6596263245458
 21
373.0545108143926
 31
0.0
  0
LINE
  5
1C44
330
1A
100
AcDbEntity
  8
1
100
AcDbLine
 10
376.4596283245459
 20
345.3544988143926
 30
0.0
 11
384.6596263245458
 21
345.3544988143926
 31
0.0
  0
LINE
  5
1C45
330
1A
100
AcDbEntity
  8
1
100
AcDbLine
 10
376.4596283245459
 20
370.5545108143927
 30
0.0
 11
384.6596263245458
 21
370.5545108143927
 31
0.0
  0
LINE
  5
1C46
330
1A
100
AcDbEntity
  8
7
  6
GEN7A
100
AcDbLine
 10
391.7774703245458
 20
357.9545048143927
 30
0.0
 11
367.1207463245459
 21
357.9545048143927
 31
0.0
  0
LINE
  5
1C47
330
1A
100
AcDbEntity
  8
1
100
AcDbLine
 10
373.6596263245458
 20
357.9545048143927
 30
0.0
 11
373.6596263245458
 21
342.8544908143927
 31
0.0
  0
LINE
  5
1C48
330
1A
100
AcDbEntity
  8
1
100
AcDbLine
 10
373.6595943245458
 20
342.8544988143926
 30
0.0
 11
376.4596283245459
 21
342.8544988143926
 31
0.0
  0
LINE
  5
1C49
330
1A
100
AcDbEntity
  8
1
100
AcDbLine
 10
376.4596283245459
 20
345.3544988143926
 30
0.0
 11
376.4596283245459
 21
342.8544908143927
 31
0.0
  0
LINE
  5
1C4A
330
1A
100
AcDbEntity
  8
1
100
AcDbLine
 10
384.6596263245458
 20
345.3544988143926
 30
0.0
 11
384.6596263245458
 21
370.5545108143927
 31
0.0
  0
LINE
  5
1C4B
330
1A
100
AcDbEntity
  8
7
  6
GEN7A
100
AcDbLine
 10
372.5346263245458
 20
410.4545348143926
 30
0.0
 11
386.7846263245458
 21
410.4545348143926
 31
0.0
  0
CIRCLE
  5
1C4C
330
1A
100
AcDbEntity
  8
1
100
AcDbCircle
 10
379.6596263245458
 20
410.4545348143926
 30
0.0
 40
4.75
  0
LINE
  5
1C4D
330
1A
100
AcDbEntity
  8
1
100
AcDbLine
 10
388.6596263245458
 20
426.4544888143927
 30
0.0
 11
370.6596263245458
 21
426.4544888143927
 31
0.0
  0
LINE
  5
1C4E
330
1A
100
AcDbEntity
  8
1
100
AcDbLine
 10
373.6595943245458
 20
373.0545108143926
 30
0.0
 11
376.4596283245459
 21
373.0545108143926
 31
0.0
  0
LINE
  5
1C4F
330
1A
100
AcDbEntity
  8
7
  6
GEN7A
100
AcDbLine
 10
379.6596263245458
 20
417.5795348143926
 30
0.0
 11
379.6596263245458
 21
403.3295348143925
 31
0.0
  0
CIRCLE
  5
1C50
330
1A
100
AcDbEntity
  8
1
100
AcDbCircle
 10
379.6596263245458
 20
410.4545348143926
 30
0.0
 40
2.5
  0
LWPOLYLINE
  5
2146
330
1A
100
AcDbEntity
  8
AM_VIEWS
100
AcDbPolyline
 90
        4
 70
     1
 43
0.0
 10
44.61630620149264
 20
23.5070202728524
 10
456.4031120812784
 20
23.5070202728524
 10
456.4031120812784
 20
470.947097626702
 10
44.61630620149264
 20
470.947097626702
1001
GENIUS_GENSCREG_15
1040
2.0
1040
1.0
1011
44.61630620149264
1021
23.5070202728524
1031
0.0
1011
456.4031120812784
1021
470.947097626702
1031
0.0
1070
     2
1001
GENIUS_GENODEF_13
1002
{
1000
HIER
1070
     0
1002
}
1002
{
1000
MANEDIT
1070
     0
1002
}
1002
{
1000
NOSEL
1070
     0
1002
}
1002
{
1000
BEHIND
1070
     0
1002
}
1002
{
1000
OTHER
1070
     0
1002
}
1002
{
1000
REACTOR
1002
}
1001
GENIUS_GENOBJ-N-SDF_13
1002
{
1000
OWNER
1000
GEN
1002
}
  0
DIMENSION
  5
2707
330
1A
100
AcDbEntity
  8
AM_5
100
AcDbDimension
  2
*D12
 10
124.2700842767817
 20
372.9555888143927
 30
0.0
 11
117.7700842767817
 21
399.7050318143927
 31
0.0
 70
    32
 71
     5
 42
53.49888599999997
 73
     0
 74
     0
 75
     0
  3
AM_ISO
100
AcDbAlignedDimension
 13
158.2699632767817
 23
426.4544748143926
 33
0.0
 14
148.2700852767818
 24
372.9555888143926
 34
0.0
 50
90.00000000000003
100
AcDbRotatedDimension
1001
ACAD
1000
DSTYLE
1002
{
1070
    40
1040
2.0
1070
   174
1070
     1
1002
}
  0
DIMENSION
  5
279B
330
1A
100
AcDbEntity
  8
AM_5
100
AcDbDimension
  2
*D13
 10
124.2700842767817
 20
342.9555728143927
 30
0.0
 11
117.7700842767817
 21
357.9555808143926
 31
0.0
 70
    32
 71
     5
 42
30.00001600000002
 73
     0
 74
     0
 75
     0
  3
AM_ISO
100
AcDbAlignedDimension
 13
148.2700852767818
 23
372.9555888143926
 33
0.0
 14
148.2700852767818
 24
342.9555728143926
 34
0.0
 50
90.0
100
AcDbRotatedDimension
1001
ACAD
1000
DSTYLE
1002
{
1070
   174
1070
     1
1070
    40
1040
2.0
1002
}
  0
DIMENSION
  5
27B7
330
1A
100
AcDbEntity
  8
AM_5
100
AcDbDimension
  2
*D14
 10
124.2700842767818
 20
303.9544748143927
 30
0.0
 11
117.7700842767817
 21
323.4550238143927
 31
0.0
 70
    32
 71
     5
 42
39.00109800000001
 73
     0
 74
     0
 75
     0
  3
AM_ISO
100
AcDbAlignedDimension
 13
148.2700852767818
 23
342.9555728143926
 33
0.0
 14
145.2691172767818
 24
303.9544748143926
 34
0.0
 50
90.0
100
AcDbRotatedDimension
1001
ACAD
1000
DSTYLE
1002
{
1070
   174
1070
     1
1070
    40
1040
2.0
1002
}
  0
DIMENSION
  5
27D3
330
1A
100
AcDbEntity
  8
AM_5
100
AcDbDimension
  2
*D15
 10
124.2700842767818
 20
271.9544748143927
 30
0.0
 11
117.7693953004038
 21
287.9544748143926
 31
0.0
 70
    32
 71
     5
 42
32.0
 73
     0
 74
     0
 75
     0
  3
AM_ISO
100
AcDbAlignedDimension
 13
145.2691172767818
 23
303.9544748143926
 33
0.0
 14
145.2691172767818
 24
271.9544748143926
 34
0.0
 50
90.0
100
AcDbRotatedDimension
1001
ACAD
1000
DSTYLE
1002
{
1070
   174
1070
     1
1070
    40
1040
2.0
1002
}
  0
DIMENSION
  5
27EF
330
1A
100
AcDbEntity
  8
AM_5
100
AcDbDimension
  2
*D16
 10
124.2700842767819
 20
156.4544928143926
 30
0.0
 11
117.7700842767819
 21
214.2044838143927
 31
0.0
 70
    32
 71
     5
 42
115.4999819999999
 73
     0
 74
     0
 75
     0
  3
AM_ISO
100
AcDbAlignedDimension
 13
145.2691172767818
 23
271.9544748143926
 33
0.0
 14
158.2699632767817
 24
156.4544928143926
 34
0.0
 50
90.0
100
AcDbRotatedDimension
1001
ACAD
1000
DSTYLE
1002
{
1070
   174
1070
     1
1070
    40
1040
2.0
1002
}
  0
DIMENSION
  5
2817
330
1A
100
AcDbEntity
  8
AM_5
100
AcDbDimension
  2
*D17
 10
92.72652598188106
 20
156.4544928143926
 30
0.0
 11
86.22583700550308
 21
291.4544838143927
 31
0.0
 70
    32
 71
     5
 42
269.9999819999999
 73
     0
 74
     0
 75
     0
  3
AM_ISO
100
AcDbAlignedDimension
 13
158.2699632767817
 23
426.4544748143926
 33
0.0
 14
158.2699632767817
 24
156.4544928143926
 34
0.0
 50
90.00000000000003
100
AcDbRotatedDimension
1001
ACAD
1000
DSTYLE
1002
{
1070
    40
1040
2.0
1002
}
  0
DIMENSION
  5
285A
330
1A
100
AcDbEntity
  8
AM_5
100
AcDbDimension
  2
*D18
 10
218.2699692767818
 20
132.4544918143927
 30
0.0
 11
188.2699662767818
 21
139.0031723681768
 31
0.0
 70
    32
  1
D=<>
 71
     5
 42
60.00000600000004
 73
     0
 74
     0
 75
     0
  3
AM_ISO
100
AcDbAlignedDimension
 13
158.2699632767817
 23
156.4544928143926
 33
0.0
 14
218.2699692767818
 24
191.2313948143926
 34
0.0
 50
0.0000000000001132
100
AcDbRotatedDimension
1001
ACAD
1000
DSTYLE
1002
{
1070
    40
1040
2.0
1070
   174
1070
     1
1002
}
  0
DIMENSION
  5
28EE
330
1A
100
AcDbEntity
  8
AM_5
100
AcDbDimension
  2
*D19
 10
257.2699732767818
 20
132.4544918143928
 30
0.0
 11
237.7699712767818
 21
138.9544918143928
 31
0.0
 70
    32
 71
     5
 42
39.00000399999999
 73
     0
 74
     0
 75
     0
  3
AM_ISO
100
AcDbAlignedDimension
 13
218.2699692767818
 23
191.2313948143926
 33
0.0
 14
257.2699732767818
 24
206.4545088143926
 34
0.0
100
AcDbRotatedDimension
1001
ACAD
1000
DSTYLE
1002
{
1070
   174
1070
     1
1070
    40
1040
2.0
1002
}
  0
DIMENSION
  5
2916
330
1A
100
AcDbEntity
  8
AM_5
100
AcDbDimension
  2
*D20
 10
304.2862803460506
 20
196.4544788143926
 30
0.0
 11
297.7862803460506
 21
176.4544858143926
 31
0.0
 70
    32
 71
     5
 42
39.99998600000001
 73
     0
 74
     0
 75
     0
  3
AM_ISO
100
AcDbAlignedDimension
 13
161.2699632767817
 23
156.4544928143926
 33
0.0
 14
247.2699732767818
 24
196.4544788143926
 34
0.0
 50
90.00000000000003
100
AcDbRotatedDimension
1001
ACAD
1000
DSTYLE
1002
{
1070
    40
1040
2.0
1070
   174
1070
     1
1002
}
  0
DIMENSION
  5
29AA
330
1A
100
AcDbEntity
  8
AM_5
100
AcDbDimension
  2
*D21
 10
304.4690692767818
 20
386.4545048143926
 30
0.0
 11
297.9690692767817
 21
291.4544918143927
 31
0.0
 70
    32
 71
     5
 42
190.000026
 73
     0
 74
     0
 75
     0
  3
AM_ISO
100
AcDbAlignedDimension
 13
247.2699732767818
 23
196.4544788143926
 33
0.0
 14
247.2699712767818
 24
386.4545048143926
 34
0.0
 50
90.0
100
AcDbRotatedDimension
1001
ACAD
1000
DSTYLE
1002
{
1070
   174
1070
     1
1070
    40
1040
2.0
1002
}
  0
DIMENSION
  5
29C6
330
1A
100
AcDbEntity
  8
AM_5
100
AcDbDimension
  2
*D22
 10
304.2862803460506
 20
426.4544748143926
 30
0.0
 11
297.7862803460505
 21
406.4544898143926
 31
0.0
 70
    32
 71
     5
 42
39.99996999999996
 73
     0
 74
     0
 75
     0
  3
AM_ISO
100
AcDbAlignedDimension
 13
247.2699712767818
 23
386.4545048143926
 33
0.0
 14
161.2699632767817
 24
426.4544748143926
 34
0.0
 50
90.0
100
AcDbRotatedDimension
1001
ACAD
1000
DSTYLE
1002
{
1070
   174
1070
     1
1070
    40
1040
2.0
1002
}
  0
DIMENSION
  5
2A0F
330
1A
100
AcDbEntity
  8
AM_5
100
AcDbDimension
  2
*D23
 10
284.4690692767818
 20
227.4544788143927
 30
0.0
 11
277.9690692767817
 21
211.9544788143927
 31
0.0
 70
    32
 71
     5
 42
31.0
 73
     0
 74
     0
 75
     0
  3
AM_ISO
100
AcDbAlignedDimension
 13
244.6574690617239
 23
196.4544788143926
 33
0.0
 14
260.4690692767818
 24
227.4544788143927
 34
0.0
 50
90.00000000000003
100
AcDbRotatedDimension
1001
ACAD
1000
DSTYLE
1002
{
1070
    40
1040
2.0
1070
   174
1070
     1
1002
}
  0
DIMENSION
  5
2AA3
330
1A
100
AcDbEntity
  8
AM_5
100
AcDbDimension
  2
*D24
 10
284.4690692767818
 20
335.4544968143926
 30
0.0
 11
277.9690692767817
 21
281.4544878143927
 31
0.0
 70
    32
 71
     5
 42
108.000018
 73
     0
 74
     0
 75
     0
  3
AM_ISO
100
AcDbAlignedDimension
 13
260.4690692767818
 23
227.4544788143927
 33
0.0
 14
228.2876692767818
 24
335.4544968143926
 34
0.0
 50
90.0
100
AcDbRotatedDimension
1001
ACAD
1000
DSTYLE
1002
{
1070
   174
1070
     1
1070
    40
1040
2.0
1002
}
  0
DIMENSION
  5
2ABF
330
1A
100
AcDbEntity
  8
AM_5
100
AcDbDimension
  2
*D25
 10
284.4690692767818
 20
386.4545048143926
 30
0.0
 11
277.9690692767817
 21
360.9545008143927
 31
0.0
 70
    32
 71
     5
 42
51.00000799999998
 73
     0
 74
     0
 75
     0
  3
AM_ISO
100
AcDbAlignedDimension
 13
228.2876692767818
 23
335.4544968143926
 33
0.0
 14
247.2699712767818
 24
386.4545048143926
 34
0.0
 50
90.0
100
AcDbRotatedDimension
1001
ACAD
1000
DSTYLE
1002
{
1070
   174
1070
     1
1070
    40
1040
2.0
1002
}
  0
DIMENSION
  5
2B1D
330
1A
100
AcDbEntity
  8
AM_5
100
AcDbDimension
  2
*D26
 10
271.2045421122058
 20
275.4544888143927
 30
0.0
 11
264.7045421122057
 21
305.4544928143927
 31
0.0
 70
    32
 71
     5
 42
60.00000799999998
 73
     0
 74
     0
 75
     0
  3
AM_ISO
100
AcDbAlignedDimension
 13
228.2876692767818
 23
335.4544968143926
 33
0.0
 14
260.4690692767818
 24
275.4544888143927
 34
0.0
 50
90.00000000000003
100
AcDbRotatedDimension
1001
ACAD
1000
DSTYLE
1002
{
1070
    40
1040
2.0
1002
}
  0
DIMENSION
  5
2B5C
330
1A
100
AcDbEntity
  8
AM_5
100
AcDbDimension
  2
*D27
 10
222.2699712767818
 20
361.9324271239004
 30
0.0
 11
218.2699692767818
 21
361.9324271239004
 31
0.0
 70
   160
  1
<>/9
 71
     5
 42
8.000003999999989
 73
     0
 74
     0
 75
     0
  3
AM_ISO
100
AcDbAlignedDimension
 13
214.2699672767818
 23
339.4544748143926
 33
0.0
 14
222.2699712767818
 24
339.4544748143926
 34
0.0
100
AcDbRotatedDimension
1001
ACAD
1000
DSTYLE
1002
{
1070
    40
1040
2.0
1002
}
  0
DIMENSION
  5
2BA5
330
1A
100
AcDbEntity
  8
AM_5
100
AcDbDimension
  2
*D28
 10
388.6596263245458
 20
132.4544968143926
 30
0.0
 11
379.6596263245458
 21
138.9544968143926
 31
0.0
 70
    32
 71
     5
 42
18.0
 73
     0
 74
     0
 75
     0
  3
AM_ISO
100
AcDbAlignedDimension
 13
370.6596263245458
 23
156.4544968143926
 33
0.0
 14
388.6596263245458
 24
156.4544968143926
 34
0.0
 50
0.0000000000001132
100
AcDbRotatedDimension
1001
ACAD
1000
DSTYLE
1002
{
1070
    40
1040
2.0
1002
}
  0
DIMENSION
  5
2BEE
330
1A
100
AcDbEntity
  8
AM_5
100
AcDbDimension
  2
*D29
 10
346.6596253245458
 20
172.4544968143926
 30
0.0
 11
340.1596253245458
 21
164.4544968143927
 31
0.0
 70
    32
 71
     5
 42
16.0
 73
     0
 74
     0
 75
     0
  3
AM_ISO
100
AcDbAlignedDimension
 13
370.6596263245458
 23
156.4544968143926
 33
0.0
 14
372.5346263245458
 24
172.4544968143926
 34
0.0
 50
90.0
100
AcDbRotatedDimension
1001
ACAD
1000
DSTYLE
1002
{
1070
    40
1040
2.0
1070
   174
1070
     1
1002
}
  0
DIMENSION
  5
2CA0
330
1A
100
AcDbEntity
  8
AM_5
100
AcDbDimension
  2
*D30
 10
346.7754829818062
 20
172.4544968143926
 30
0.0
 11
340.2747940054283
 21
291.4545158143927
 31
0.0
 70
    32
 71
     5
 42
238.0000379999999
 73
     0
 74
     0
 75
     0
  3
AM_ISO
100
AcDbAlignedDimension
 13
372.5346263245458
 23
410.4545348143926
 33
0.0
 14
372.5346263245458
 24
172.4544968143926
 34
0.0
 50
90.0
100
AcDbRotatedDimension
1001
ACAD
1000
DSTYLE
1002
{
1070
   174
1070
     1
1070
    40
1040
2.0
1002
}
  0
DIMENSION
  5
2CC8
330
1A
100
AcDbEntity
  8
AM_5
100
AcDbDimension
  2
*D31
 10
384.6596263245458
 20
384.8539264886431
 30
0.0
 11
379.1596103245458
 21
391.3539264886431
 31
0.0
 70
    32
 71
     5
 42
11.00003200000003
 73
     0
 74
     0
 75
     0
  3
AM_ISO
100
AcDbAlignedDimension
 13
373.6595943245458
 23
373.0545108143926
 33
0.0
 14
384.6596263245458
 24
370.5545108143927
 34
0.0
 50
0.0000000000000114
100
AcDbRotatedDimension
1001
ACAD
1000
DSTYLE
1002
{
1070
    40
1040
2.0
1002
}
  0
DIMENSION
  5
2D4E
330
1A
100
AcDbEntity
  8
AM_5
100
AcDbDimension
  2
*D32
 10
382.0596203245458
 20
316.3503897038647
 30
0.0
 11
402.3096203245457
 21
322.8503897038647
 31
0.0
 70
    32
 71
     5
 42
8.400026000000025
 73
     0
 74
     0
 75
     0
  3
AM_ISO
100
AcDbAlignedDimension
 13
373.6595943245458
 23
304.0544948143926
 33
0.0
 14
382.0596203245458
 24
304.0544948143926
 34
0.0
 50
0.0000000000000114
100
AcDbRotatedDimension
1001
ACAD
1000
DSTYLE
1002
{
1070
    40
1040
2.0
1002
}
  0
DIMENSION
  5
2D9B
330
1A
100
AcDbEntity
  8
AM_5
100
AcDbDimension
  2
*D33
 10
382.1596263245458
 20
185.8389196839823
 30
0.0
 11
398.7046010713764
 21
192.3389196839823
 31
0.0
 70
    32
 71
     5
 42
5.0
 73
     0
 74
     0
 75
     0
  3
AM_ISO
100
AcDbAlignedDimension
 13
377.1596263245458
 23
172.4544968143926
 33
0.0
 14
382.1596263245458
 24
172.4544968143926
 34
0.0
 50
0.0000000000000114
100
AcDbRotatedDimension
1001
ACAD
1000
DSTYLE
1002
{
1070
    40
1040
2.0
1002
}
  0
DIMENSION
  5
2DE4
330
1A
100
AcDbEntity
  8
AM_5
100
AcDbDimension
  2
*D34
 10
384.4096263245458
 20
199.4421041180185
 30
0.0
 11
404.5995758182069
 21
199.4421041180185
 31
0.0
 70
   160
 71
     5
 42
9.5
 73
     0
 74
     0
 75
     0
  3
AM_ISO
100
AcDbAlignedDimension
 13
374.9096263245458
 23
172.4544968143926
 33
0.0
 14
384.4096263245458
 24
172.4544968143926
 34
0.0
 50
0.0000000000000114
100
AcDbRotatedDimension
1001
ACAD
1000
DSTYLE
1002
{
1070
    40
1040
2.0
1002
}
  0
DIMENSION
  5
2E6A
330
1A
100
AcDbEntity
  8
AM_5
100
AcDbDimension
  2
*D35
 10
370.6596263245458
 20
349.8316239023668
 30
0.0
 11
354.1146515777152
 21
349.8316239023668
 31
0.0
 70
   160
 71
     5
 42
3.0
 73
     0
 74
     0
 75
     0
  3
AM_ISO
100
AcDbAlignedDimension
 13
373.6596263245458
 23
342.8544988143926
 33
0.0
 14
370.6596263245458
 24
342.8544988143926
 34
0.0
 50
0.0000000000001132
100
AcDbRotatedDimension
1001
ACAD
1000
DSTYLE
1002
{
1070
    40
1040
2.0
1002
}
  0
DIMENSION
  5
2EB3
330
1A
100
AcDbEntity
  8
AM_5
100
AcDbDimension
  2
*D36
 10
370.6596263245458
 20
296.7906589419499
 30
0.0
 11
354.1146515777152
 21
296.7906589419499
 31
0.0
 70
   160
 71
     5
 42
3.0
 73
     0
 74
     0
 75
     0
  3
AM_ISO
100
AcDbAlignedDimension
 13
373.6596263245458
 23
304.0544948143926
 33
0.0
 14
370.6596263245458
 24
304.0544948143926
 34
0.0
100
AcDbRotatedDimension
1001
ACAD
1000
DSTYLE
1002
{
1070
    40
1040
2.0
1002
}
  0
DIMENSION
  5
2F58
330
1A
100
AcDbEntity
  8
AM_5
100
AcDbDimension
  2
*D37
 10
134.2700242767818
 20
83.85446881439261
 30
0.0
 11
127.7700242767817
 21
63.80673816205023
 31
0.0
 70
    32
 71
     5
 42
0.4999840000000404
 73
     0
 74
     0
 75
     0
  3
AM_ISO
100
AcDbAlignedDimension
 13
161.2699492767817
 23
84.35445281439262
 33
0.0
 14
161.2699632767817
 24
83.85446881439259
 34
0.0
 50
90.0
100
AcDbRotatedDimension
1001
ACAD
1000
DSTYLE
1002
{
1070
    40
1040
2.0
1002
}
  0
DIMENSION
  5
2FA1
330
1A
100
AcDbEntity
  8
AM_5
100
AcDbDimension
  2
*D38
 10
161.2699492767817
 20
52.92265727834354
 30
0.0
 11
177.8149240236123
 21
59.42265727834353
 31
0.0
 70
    32
 71
     5
 42
2.999923999999964
 73
     0
 74
     0
 75
     0
  3
AM_ISO
100
AcDbAlignedDimension
 13
158.2700252767818
 23
66.35449881439263
 33
0.0
 14
161.2699492767817
 24
66.35452881439267
 34
0.0
 50
0.0000000000001132
100
AcDbRotatedDimension
1001
ACAD
1000
DSTYLE
1002
{
1070
    40
1040
2.0
1002
}
  0
DIMENSION
  5
2FEA
330
1A
100
AcDbEntity
  8
AM_5
100
AcDbDimension
  2
*D39
 10
281.2699782767818
 20
83.85446881439259
 30
0.0
 11
274.7699782767818
 21
105.6494435612232
 31
0.0
 70
    32
  1
13.5
 71
     5
 42
13.59994599999993
 73
     0
 74
     0
 75
     0
  3
AM_ISO
100
AcDbAlignedDimension
 13
257.2699732767818
 23
70.25452281439266
 33
0.0
 14
257.2699772767818
 24
83.85446881439259
 34
0.0
 50
90.00000000000003
100
AcDbRotatedDimension
1001
ACAD
1000
DSTYLE
1002
{
1070
    40
1040
2.0
1002
}
  0
DIMENSION
  5
304D
330
1A
100
AcDbEntity
  8
AM_5
100
AcDbDimension
  2
*D40
 10
148.2700852767818
 20
396.9555888143927
 30
0.0
 11
130.11732937127
 21
403.4555888143926
 31
0.0
 70
    32
 71
     5
 42
9.999877999999966
 73
     0
 74
     0
 75
     0
  3
AM_ISO
100
AcDbAlignedDimension
 13
158.2699632767817
 23
372.9555888143926
 33
0.0
 14
148.2700852767818
 24
372.9555888143926
 34
0.0
100
AcDbRotatedDimension
1001
ACAD
1000
DSTYLE
1002
{
1070
    40
1040
2.0
1002
}
  0
DIMENSION
  5
3096
330
1A
100
AcDbEntity
  8
AM_5
100
AcDbDimension
  2
*D41
 10
145.2691172767818
 20
247.9544748143926
 30
0.0
 11
151.7691192767818
 21
254.4544748143926
 31
0.0
 70
    32
 71
     5
 42
13.00000399999999
 73
     0
 74
     0
 75
     0
  3
AM_ISO
100
AcDbAlignedDimension
 13
158.2691212767818
 23
271.9544748143926
 33
0.0
 14
145.2691172767818
 24
271.9544748143926
 34
0.0
 50
0.0000000000001132
100
AcDbRotatedDimension
1001
ACAD
1000
DSTYLE
1002
{
1070
    40
1040
2.0
1002
}
  0
TEXT
  5
30D6
330
1A
100
AcDbEntity
  8
AM_6
100
AcDbText
 10
336.3693227514453
 20
442.8841681464409
 30
0.0
 40
7.0
  1
1204-7-7-60
100
AcDbText
1001
GENIUS_AMGTXT_16
1040
3.5
1040
0.12
  0
VIEWPORT
  5
22
330
17
100
AcDbEntity
 67
     1
  8
0
100
AcDbViewport
 10
112.2893422104056
 20
152.9962003562143
 30
0.0
 40
408.1687337183674
 41
318.4351405079092
 68
     1
 69
     1
 12
112.2893422104056
 22
152.9962003562143
 13
0.0
 23
0.0
 14
10.0
 24
10.0
 15
10.0
 25
10.0
 16
0.0
 26
0.0
 36
1.0
 17
0.0
 27
0.0
 37
0.0
 42
50.0
 43
0.0
 44
0.0
 45
318.4351405079092
 50
0.0
 51
0.0
 72
   100
331
1969
 90
    32800
  1

281
     0
 71
     1
 74
     0
110
0.0
120
0.0
130
0.0
111
1.0
121
0.0
131
0.0
112
0.0
122
1.0
132
0.0
 79
     0
146
0.0
170
     0
 61
     5
348
31B5
292
     1
282
     1
141
0.0
142
0.0
 63
   250
421
  3355443
1001
GENIUS_GENOREF_13
1005
1677
1001
GENIUS_GENSCREG_15
1000
PF
1040
1.0
1000
DF
1040
1.0
1000
MIN
1011
-91.79502464877804
1021
-6.22136989774026
1031
0.0
1000
MAX
1011
316.3737090695894
1021
312.2137706101689
1031
0.0
1000
FLAGS
1070
     2
  0
POINT
  5
1895
330
17
100
AcDbEntity
 67
     1
  8
AM_0
 60
     1
100
AcDbPoint
 10
0.0
 20
0.0
 30
0.0
  0
POINT
  5
189D
330
17
100
AcDbEntity
 67
     1
  8
AM_0
 60
     1
100
AcDbPoint
 10
0.0
 20
0.0
 30
0.0
  0
POINT
  5
1900
330
17
100
AcDbEntity
 67
     1
  8
AM_0
 60
     1
100
AcDbPoint
 10
0.0
 20
0.0
 30
0.0
  0
POINT
  5
1908
330
17
100
AcDbEntity
 67
     1
  8
AM_0
 60
     1
100
AcDbPoint
 10
0.0
 20
0.0
 30
0.0
  0
ENDSEC
  0
SECTION
  2
OBJECTS
  0
DICTIONARY
  5
C
330
0
100
AcDbDictionary
281
     1
  3
ACAD_COLOR
350
30DE
  3
ACAD_GROUP
350
D
  3
ACAD_LAYOUT
350
167
  3
ACAD_MATERIAL
350
30DD
  3
ACAD_MLINESTYLE
350
E
  3
ACAD_PLOTSETTINGS
350
168
  3
ACAD_PLOTSTYLENAME
350
165
  3
ACAD_TABLESTYLE
350
31C0
  3
ACAD_VISUALSTYLE
350
31AF
  3
ACDBVARIABLEDICTIONARY
350
5D
  3
ACMDICTIONARY
350
142
  3
AMG
350
171
  3
AMG_3D2D_DICT
350
18A8
  3
AMGSNAPSETTINGS
350
1F2
  3
MAPISURF_MODULE
350
17FD
  0
DICTIONARY
  5
12A
330
1A
100
AcDbDictionary
280
     1
281
     1
  3
ACAD_INDEX
360
17BE
  0
DICTIONARY
  5
30DE
102
{ACAD_REACTORS
330
C
102
}
330
C
100
AcDbDictionary
281
     1
  0
DICTIONARY
  5
D
102
{ACAD_REACTORS
330
C
102
}
330
C
100
AcDbDictionary
281
     1
  0
DICTIONARY
  5
167
102
{ACAD_REACTORS
330
C
102
}
330
C
100
AcDbDictionary
281
     1
  3
A0
350
351
  3
A1
350
314
  3
A2
350
349
  3
A3
350
2E1
  3
A4
350
16A
  3
Model
350
169
  0
DICTIONARY
  5
30DD
102
{ACAD_REACTORS
330
C
102
}
330
C
100
AcDbDictionary
281
     1
  3
ByBlock
350
31AD
  3
ByLayer
350
31AC
  3
Global
350
31AE
  0
DICTIONARY
  5
E
102
{ACAD_REACTORS
330
C
102
}
330
C
100
AcDbDictionary
281
     1
  3
STANDARD
350
13
  0
DICTIONARY
  5
168
102
{ACAD_REACTORS
330
C
102
}
330
C
100
AcDbDictionary
281
     1
  3
A0
350
2EE
  3
A0-A3
350
2F2
  3
A0-A4
350
2F3
  3
A1
350
2ED
  3
A2
350
2EA
  3
A3
350
31E
  3
A4
350
319
  0
ACDBDICTIONARYWDFLT
  5
165
102
{ACAD_REACTORS
330
C
102
}
330
C
100
AcDbDictionary
281
     1
  3
Normal
350
166
100
AcDbDictionaryWithDefault
340
166
  0
DICTIONARY
  5
31C0
102
{ACAD_REACTORS
330
C
102
}
330
C
100
AcDbDictionary
281
     1
  3
Standard
350
31C1
  0
DICTIONARY
  5
31AF
102
{ACAD_REACTORS
330
C
102
}
330
C
100
AcDbDictionary
281
     1
  3
2dWireframe
350
31B5
  3
3D Hidden
350
31B7
  3
3dWireframe
350
31B6
  3
Basic
350
31B4
  3
Brighten
350
31BB
  3
ColorChange
350
31BF
  3
Conceptual
350
31B8
  3
Dim
350
31BA
  3
Facepattern
350
31BE
  3
Flat
350
31B0
  3
FlatWithEdges
350
31B1
  3
Gouraud
350
31B2
  3
GouraudWithEdges
350
31B3
  3
Linepattern
350
31BD
  3
Realistic
350
31B9
  3
Thicken
350
31BC
  0
DICTIONARY
  5
5D
102
{ACAD_REACTORS
330
C
102
}
330
C
100
AcDbDictionary
281
     1
  3
CTABLESTYLE
350
31E9
  3
DIMADEC
350
5E
  3
INDEXCTL
350
128
  3
SORTENTS
350
1044
  0
DICTIONARY
  5
142
102
{ACAD_REACTORS
330
C
102
}
330
C
100
AcDbDictionary
281
     1
  3
ACMSTDDICTIONARY
350
143
  3
AMDTSECTSYM_ARROWCOLOR
350
31E2
  0
DICTIONARY
  5
171
102
{ACAD_REACTORS
330
C
102
}
330
C
100
AcDbDictionary
281
     1
  3
AcMgSettings
350
172
  3
AMGLAYCFG
350
174
  0
DICTIONARY
  5
18A8
102
{ACAD_REACTORS
330
C
102
}
330
C
100
AcDbDictionary
281
     1
  3
AMG_SUBLIST_DICT
350
18A9
  0
DICTIONARY
  5
1F2
102
{ACAD_REACTORS
330
C
102
}
330
C
100
AcDbDictionary
281
     1
  3
DIMENSION
350
164B
  3
FEA
350
164C
  3
HATCH
350
164D
  3
SYMBOLS
350
164E
  0
DICTIONARY
  5
17BE
102
{ACAD_REACTORS
330
12A
102
}
330
12A
100
AcDbDictionary
281
     1
  3
*A1
350
17BF
  0
LAYOUT
  5
351
102
{ACAD_REACTORS
330
167
102
}
330
167
100
AcDbPlotSettings
  1
A0
  2
HPDJ220-A0
  4
User268
  6

 40
4.995333194732666
 41
16.93336677551269
 42
4.99530029296875
 43
16.933349609375
 44
840.9093017578125
 45
1188.8046875
 46
0.0
 47
0.0
 48
0.0
 49
0.0
140
0.0
141
0.0
142
1.0
143
1.0
 70
   752
 72
     1
 73
     1
 74
     5
  7
PLA0.ctb
 75
    16
147
1.0
 76
     0
 77
     2
 78
   300
148
0.0
149
0.0
100
AcDbLayout
  1
A0
 70
     1
 71
     5
 10
-16.933349609375
 20
-4.995333194732666
 11
1171.871337890625
 21
835.9139685630799
 12
0.0
 22
0.0
 32
0.0
 14
1.000000000000000E+20
 24
1.000000000000000E+20
 34
1.000000000000000E+20
 15
-1.000000000000000E+20
 25
-1.000000000000000E+20
 35
-1.000000000000000E+20
146
0.0
 13
0.0
 23
0.0
 33
0.0
 16
1.0
 26
0.0
 36
0.0
 17
0.0
 27
1.0
 37
0.0
 76
     0
330
34D
331
34E
  0
LAYOUT
  5
314
102
{ACAD_REACTORS
330
167
102
}
330
167
100
AcDbPlotSettings
  1
A2
  2
HPDJ220-A0
  4
User266
  6

 40
4.995333194732666
 41
16.93330574035644
 42
4.995330810546875
 43
16.933349609375
 44
419.9466552734374
 45
593.8519897460937
 46
0.0
 47
0.0
 48
0.0
 49
0.0
140
0.0
141
0.0
142
1.0
143
1.0
 70
   752
 72
     1
 73
     1
 74
     5
  7
PLA2.ctb
 75
    16
147
1.0
 76
     0
 77
     2
 78
   300
148
0.0
149
0.0
100
AcDbLayout
  1
A1
 70
     1
 71
     4
 10
-16.933349609375
 20
-4.995333194732666
 11
576.9186401367187
 21
414.9513220787047
 12
0.0
 22
0.0
 32
0.0
 14
1.000000000000000E+20
 24
1.000000000000000E+20
 34
1.000000000000000E+20
 15
-1.000000000000000E+20
 25
-1.000000000000000E+20
 35
-1.000000000000000E+20
146
0.0
 13
0.0
 23
0.0
 33
0.0
 16
1.0
 26
0.0
 36
0.0
 17
0.0
 27
1.0
 37
0.0
 76
     0
330
313
331
344
  0
LAYOUT
  5
349
102
{ACAD_REACTORS
330
167
102
}
330
167
100
AcDbPlotSettings
  1
A2
  2
HPDJ220-A0
  4
User266
  6

 40
4.995333194732666
 41
16.93330574035644
 42
4.995330810546875
 43
16.933349609375
 44
419.9466552734374
 45
593.8519897460937
 46
0.0
 47
0.0
 48
0.0
 49
0.0
140
0.0
141
0.0
142
1.0
143
1.0
 70
   752
 72
     1
 73
     1
 74
     5
  7
PLA2.ctb
 75
    16
147
1.0
 76
     0
 77
     2
 78
   300
148
0.0
149
0.0
100
AcDbLayout
  1
A2
 70
     1
 71
     3
 10
-16.933349609375
 20
-4.995333194732666
 11
576.9186401367187
 21
414.9513220787047
 12
0.0
 22
0.0
 32
0.0
 14
1.000000000000000E+20
 24
1.000000000000000E+20
 34
1.000000000000000E+20
 15
-1.000000000000000E+20
 25
-1.000000000000000E+20
 35
-1.000000000000000E+20
146
0.0
 13
0.0
 23
0.0
 33
0.0
 16
1.0
 26
0.0
 36
0.0
 17
0.0
 27
1.0
 37
0.0
 76
     0
330
345
331
346
  0
LAYOUT
  5
2E1
102
{ACAD_REACTORS
330
167
102
}
330
167
100
AcDbPlotSettings
  1
A3
  2
\\GLUTZCH_PDC\HP LaserJet 5000 N PCL 6
  4
A3
  6

 40
5.027083396911621
 41
5.111741065979003
 42
5.11175537109375
 43
5.027069091796875
 44
297.0106506347656
 45
419.9889831542968
 46
0.0
 47
0.0
 48
0.0
 49
0.0
140
0.0
141
0.0
142
1.0
143
1.0
 70
   752
 72
     1
 73
     1
 74
     5
  7
LAA3.ctb
 75
    16
147
1.0
 76
     0
 77
     2
 78
   300
148
0.0
149
0.0
100
AcDbLayout
  1
A3
 70
     1
 71
     2
 10
-5.027069091796875
 20
-5.027083396911621
 11
414.9619140625
 21
291.983567237854
 12
0.0
 22
0.0
 32
0.0
 14
1.000000000000000E+20
 24
1.000000000000000E+20
 34
1.000000000000000E+20
 15
-1.000000000000000E+20
 25
-1.000000000000000E+20
 35
-1.000000000000000E+20
146
0.0
 13
0.0
 23
0.0
 33
0.0
 16
1.0
 26
0.0
 36
0.0
 17
0.0
 27
1.0
 37
0.0
 76
     0
330
2E0
331
31D
  0
LAYOUT
  5
16A
102
{ACAD_REACTORS
330
167
102
}
330
167
100
AcDbPlotSettings
  1
A4
  2
\\GLUTZCH_PDC\HP LaserJet 5000 N PCL 6
  4
A4
  6

 40
5.027083396911621
 41
5.111741065979003
 42
5.11175537109375
 43
5.027069091796875
 44
210.0156707763672
 45
297.0106506347656
 46
0.0
 47
0.0
 48
0.0
 49
0.0
140
0.0
141
0.0
142
1.0
143
1.0
 70
   752
 72
     1
 73
     0
 74
     5
  7
LAA4.ctb
 75
    16
147
1.0
 76
     0
 77
     2
 78
   300
148
0.0
149
0.0
100
AcDbLayout
  1
A4
 70
     1
 71
     1
 10
-5.027083396911621
 20
-5.111741065979003
 11
204.9885873794556
 21
291.8989095687866
 12
0.0
 22
0.0
 32
0.0
 14
1.000000000000000E+20
 24
1.000000000000000E+20
 34
1.000000000000000E+20
 15
-1.000000000000000E+20
 25
-1.000000000000000E+20
 35
-1.000000000000000E+20
146
0.0
 13
0.0
 23
0.0
 33
0.0
 16
1.0
 26
0.0
 36
0.0
 17
0.0
 27
1.0
 37
0.0
 76
     0
330
17
331
22
  0
LAYOUT
  5
169
102
{ACAD_REACTORS
330
167
102
}
330
167
100
AcDbPlotSettings
  1

  2
Adobe PDF
  4
A4
  6
AMDTVIEW1
 40
3.174999952316284
 41
3.174999952316284
 42
3.17498779296875
 43
3.175003051757812
 44
297.0318298339844
 45
209.9098358154297
 46
45.6
 47
19.26
 48
0.0
 49
0.0
140
0.0
141
0.0
142
1.0
143
2.0
 70
 11956
 72
     1
 73
     1
 74
     1
  7
LAA4.ctb
 75
    17
147
0.5
 76
     0
 77
     2
 78
   300
148
142.3185292407084
149
113.9184959264534
100
AcDbLayout
  1
Model
 70
     1
 71
     0
 10
0.0
 20
0.0
 11
12.0
 21
9.0
 12
0.0
 22
0.0
 32
0.0
 14
0.0
 24
0.0
 34
0.0
 15
0.0
 25
0.0
 35
0.0
146
0.0
 13
0.0
 23
0.0
 33
0.0
 16
1.0
 26
0.0
 36
0.0
 17
0.0
 27
1.0
 37
0.0
 76
     0
330
1A
  0
MATERIAL
  5
31AD
102
{ACAD_REACTORS
330
30DD
102
}
330
30DD
100
AcDbMaterial
  1
ByBlock
  0
MATERIAL
  5
31AC
102
{ACAD_REACTORS
330
30DD
102
}
330
30DD
100
AcDbMaterial
  1
ByLayer
  0
MATERIAL
  5
31AE
102
{ACAD_REACTORS
330
30DD
102
}
330
30DD
100
AcDbMaterial
  1
Global
  0
MLINESTYLE
  5
13
102
{ACAD_REACTORS
330
E
102
}
330
E
100
AcDbMlineStyle
  2
STANDARD
 70
     0
  3

 62
     0
 51
90.0
 52
90.0
 71
     2
 49
0.5
 62
   256
  6
BYLAYER
 49
-0.5
 62
   256
  6
BYLAYER
  0
PLOTSETTINGS
  5
2EE
102
{ACAD_REACTORS
330
168
102
}
330
168
100
AcDbPlotSettings
  1
A0
  2
HPDJ220-A0
  4
User268
  6

 40
4.995333194732666
 41
16.93336677551269
 42
4.99530029296875
 43
16.933349609375
 44
840.9093017578125
 45
1188.8046875
 46
0.0
 47
0.0
 48
0.0
 49
0.0
140
0.0
141
0.0
142
1.0
143
1.0
 70
   752
 72
     1
 73
     1
 74
     5
  7
PLA0.ctb
 75
    16
147
1.0
 76
     0
 77
     2
 78
   300
148
0.0
149
0.0
  0
PLOTSETTINGS
  5
2F2
102
{ACAD_REACTORS
330
168
102
}
330
168
100
AcDbPlotSettings
  1
A0-A3
  2
\\GLUTZCH_PDC\HP LaserJet 5000 N PCL 6
  4
A3
  6

 40
5.027083396911621
 41
5.111741065979003
 42
5.11175537109375
 43
5.027069091796875
 44
297.0106506347656
 45
419.9889831542968
 46
0.0
 47
0.0
 48
0.0
 49
0.0
140
0.0
141
0.0
142
1.0
143
1.0
 70
   752
 72
     1
 73
     1
 74
     5
  7
LAA0-A3.ctb
 75
     0
147
1.0
 76
     0
 77
     2
 78
   300
148
0.0
149
0.0
  0
PLOTSETTINGS
  5
2F3
102
{ACAD_REACTORS
330
168
102
}
330
168
100
AcDbPlotSettings
  1
A0-A4
  2
\\GLUTZCH_PDC\HP LaserJet 5000 N PCL 6
  4
A4
  6

 40
5.027083396911621
 41
5.111741065979003
 42
5.11175537109375
 43
5.027069091796875
 44
210.0156707763672
 45
297.0106506347656
 46
0.0
 47
0.0
 48
0.0
 49
0.0
140
0.0
141
0.0
142
1.0
143
1.0
 70
   752
 72
     1
 73
     0
 74
     5
  7
LAA0-A4.ctb
 75
     0
147
1.0
 76
     0
 77
     2
 78
   300
148
0.0
149
0.0
  0
PLOTSETTINGS
  5
2ED
102
{ACAD_REACTORS
330
168
102
}
330
168
100
AcDbPlotSettings
  1
A1
  2
HPDJ220-A0
  4
User267
  6

 40
4.995333194732666
 41
16.93330574035644
 42
4.99530029296875
 43
16.933349609375
 44
593.9366455078125
 45
840.8246459960937
 46
0.0
 47
0.0
 48
0.0
 49
0.0
140
0.0
141
0.0
142
1.0
143
1.0
 70
   752
 72
     1
 73
     1
 74
     5
  7
PLA1.ctb
 75
    16
147
1.0
 76
     0
 77
     2
 78
   300
148
0.0
149
0.0
  0
PLOTSETTINGS
  5
2EA
102
{ACAD_REACTORS
330
168
102
}
330
168
100
AcDbPlotSettings
  1
A2
  2
HPDJ220-A0
  4
User266
  6

 40
4.995333194732666
 41
16.93330574035644
 42
4.995330810546875
 43
16.933349609375
 44
419.9466552734374
 45
593.8519897460937
 46
0.0
 47
0.0
 48
0.0
 49
0.0
140
0.0
141
0.0
142
1.0
143
1.0
 70
   752
 72
     1
 73
     1
 74
     5
  7
PLA2.ctb
 75
    16
147
1.0
 76
     0
 77
     2
 78
   300
148
0.0
149
0.0
  0
PLOTSETTINGS
  5
31E
102
{ACAD_REACTORS
330
168
102
}
330
168
100
AcDbPlotSettings
  1
A3
  2
\\GLUTZCH_PDC\HP LaserJet 5000 N PCL 6
  4
A3
  6

 40
5.027083396911621
 41
5.111741065979003
 42
5.11175537109375
 43
5.027069091796875
 44
297.0106506347656
 45
419.9889831542968
 46
0.0
 47
0.0
 48
0.0
 49
0.0
140
0.0
141
0.0
142
1.0
143
1.0
 70
   752
 72
     1
 73
     1
 74
     5
  7
LAA3.ctb
 75
    16
147
1.0
 76
     0
 77
     2
 78
   300
148
0.0
149
0.0
  0
PLOTSETTINGS
  5
319
102
{ACAD_REACTORS
330
168
102
}
330
168
100
AcDbPlotSettings
  1
A4
  2
\\GLUTZCH_PDC\HP LaserJet 5000 N PCL 6
  4
A4
  6

 40
5.027083396911621
 41
5.111741065979003
 42
5.11175537109375
 43
5.027069091796875
 44
210.0156707763672
 45
297.0106506347656
 46
0.0
 47
0.0
 48
0.0
 49
0.0
140
0.0
141
0.0
142
1.0
143
1.0
 70
   752
 72
     1
 73
     0
 74
     5
  7
LAA4.ctb
 75
    16
147
1.0
 76
     0
 77
     2
 78
   300
148
0.0
149
0.0
  0
ACDBPLACEHOLDER
  5
166
102
{ACAD_REACTORS
330
165
102
}
330
165
  0
TABLESTYLE
  5
31C1
102
{ACAD_REACTORS
330
31C0
102
}
330
31C0
100
AcDbTableStyle
  3
Standard
 70
     0
 71
     0
 40
1.5
 41
1.5
280
     0
281
     0
  7
STANDARD
140
4.5
170
     2
 62
     0
 63
     7
283
     0
 90
      512
 91
        0
  1

274
    -2
284
     1
 64
     0
275
    -2
285
     1
 65
     0
276
    -2
286
     1
 66
     0
277
    -2
287
     1
 67
     0
278
    -2
288
     1
 68
     0
279
    -2
289
     1
 69
     0
  7
STANDARD
140
6.0
170
     5
 62
     0
 63
     7
283
     0
 90
      512
 91
        0
  1

274
    -2
284
     1
 64
     0
275
    -2
285
     1
 65
     0
276
    -2
286
     1
 66
     0
277
    -2
287
     1
 67
     0
278
    -2
288
     1
 68
     0
279
    -2
289
     1
 69
     0
  7
STANDARD
140
4.5
170
     5
 62
     0
 63
     7
283
     0
 90
      512
 91
        0
  1

274
    -2
284
     1
 64
     0
275
    -2
285
     1
 65
     0
276
    -2
286
     1
 66
     0
277
    -2
287
     1
 67
     0
278
    -2
288
     1
 68
     0
279
    -2
289
     1
 69
     0
  0
VISUALSTYLE
  5
31B5
102
{ACAD_REACTORS
330
31AF
102
}
330
31AF
100
AcDbVisualStyle
  2
2dWireframe
 70
     4
 71
     0
 72
     2
 73
     0
 90
        0
 40
-0.6
 41
-30.0
 62
     5
 63
     7
421
 16777215
 74
     1
 91
        4
 64
     7
 65
   257
 75
     1
175
     1
 42
1.0
 92
        0
 66
   257
 43
1.0
 76
     1
 77
     6
 78
     2
 67
     7
 79
     5
170
     0
171
     0
290
     0
174
     0
 93
        1
 44
0.0
173
     0
291
     0
 45
0.0
  0
VISUALSTYLE
  5
31B7
102
{ACAD_REACTORS
330
31AF
102
}
330
31AF
100
AcDbVisualStyle
  2
3D Hidden
 70
     6
 71
     1
 72
     2
 73
     2
 90
        0
 40
-0.6
 41
-30.0
 62
     5
 63
     7
421
 16777215
 74
     2
 91
        2
 64
     7
 65
   257
 75
     2
175
     1
 42
40.0
 92
        0
 66
   257
 43
1.0
 76
     1
 77
     6
 78
     2
 67
     7
 79
     3
170
     0
171
     0
290
     0
174
     0
 93
        1
 44
0.0
173
     0
291
     0
 45
0.0
  0
VISUALSTYLE
  5
31B6
102
{ACAD_REACTORS
330
31AF
102
}
330
31AF
100
AcDbVisualStyle
  2
3dWireframe
 70
     5
 71
     0
 72
     2
 73
     0
 90
        0
 40
-0.6
 41
-30.0
 62
     5
 63
     7
421
 16777215
 74
     1
 91
        4
 64
     7
 65
   257
 75
     1
175
     1
 42
1.0
 92
        0
 66
   257
 43
1.0
 76
     1
 77
     6
 78
     2
 67
     7
 79
     5
170
     0
171
     0
290
     0
174
     0
 93
        1
 44
0.0
173
     0
291
     0
 45
0.0
  0
VISUALSTYLE
  5
31B4
102
{ACAD_REACTORS
330
31AF
102
}
330
31AF
100
AcDbVisualStyle
  2
Basic
 70
     7
 71
     1
 72
     0
 73
     1
 90
        0
 40
-0.6
 41
-30.0
 62
     5
 63
     7
421
 16777215
 74
     0
 91
        4
 64
     7
 65
   257
 75
     1
175
     1
 42
1.0
 92
        8
 66
     7
 43
1.0
 76
     1
 77
     6
 78
     2
 67
     7
 79
     5
170
     0
171
     0
290
     0
174
     0
 93
        1
 44
0.0
173
     0
291
     1
 45
0.0
  0
VISUALSTYLE
  5
31BB
102
{ACAD_REACTORS
330
31AF
102
}
330
31AF
100
AcDbVisualStyle
  2
Brighten
 70
    12
 71
     2
 72
     2
 73
     0
 90
        0
 40
-0.6
 41
-30.0
 62
     5
 63
     7
421
 16777215
 74
     1
 91
        4
 64
     7
 65
   257
 75
     1
175
     1
 42
1.0
 92
        8
 66
     7
 43
1.0
 76
     1
 77
     6
 78
     2
 67
     7
 79
     5
170
     0
171
     0
290
     0
174
     0
 93
        1
 44
50.0
173
     0
291
     1
 45
0.0
  0
VISUALSTYLE
  5
31BF
102
{ACAD_REACTORS
330
31AF
102
}
330
31AF
100
AcDbVisualStyle
  2
ColorChange
 70
    16
 71
     2
 72
     2
 73
     3
 90
        0
 40
-0.6
 41
-30.0
 62
     5
 63
     8
421
  8421504
 74
     1
 91
        4
 64
     7
 65
   257
 75
     1
175
     1
 42
1.0
 92
        8
 66
     8
424
  8421504
 43
1.0
 76
     1
 77
     6
 78
     2
 67
     7
 79
     5
170
     0
171
     0
290
     0
174
     0
 93
        1
 44
0.0
173
     0
291
     1
 45
0.0
  0
VISUALSTYLE
  5
31B8
102
{ACAD_REACTORS
330
31AF
102
}
330
31AF
100
AcDbVisualStyle
  2
Conceptual
 70
     9
 71
     3
 72
     2
 73
     0
 90
        0
 40
-0.6
 41
-30.0
 62
     5
 63
     7
421
 16777215
 74
     2
 91
        2
 64
     7
 65
   257
 75
     1
175
     1
 42
40.0
 92
        8
 66
     7
 43
1.0
 76
     1
 77
     6
 78
     2
 67
     7
 79
     3
170
     0
171
     0
290
     0
174
     0
 93
        1
 44
0.0
173
     0
291
     0
 45
0.0
  0
VISUALSTYLE
  5
31BA
102
{ACAD_REACTORS
330
31AF
102
}
330
31AF
100
AcDbVisualStyle
  2
Dim
 70
    11
 71
     2
 72
     2
 73
     0
 90
        0
 40
-0.6
 41
-30.0
 62
     5
 63
     7
421
 16777215
 74
     1
 91
        4
 64
     7
 65
   257
 75
     1
175
     1
 42
1.0
 92
        8
 66
     7
 43
1.0
 76
     1
 77
     6
 78
     2
 67
     7
 79
     5
170
     0
171
     0
290
     0
174
     0
 93
        1
 44
-50.0
173
     0
291
     1
 45
0.0
  0
VISUALSTYLE
  5
31BE
102
{ACAD_REACTORS
330
31AF
102
}
330
31AF
100
AcDbVisualStyle
  2
Facepattern
 70
    15
 71
     2
 72
     2
 73
     0
 90
        0
 40
-0.6
 41
-30.0
 62
     5
 63
     7
421
 16777215
 74
     1
 91
        4
 64
     7
 65
   257
 75
     1
175
     1
 42
1.0
 92
        8
 66
     7
 43
1.0
 76
     1
 77
     6
 78
     2
 67
     7
 79
     5
170
     0
171
     0
290
     0
174
     0
 93
        1
 44
0.0
173
     0
291
     1
 45
0.0
  0
VISUALSTYLE
  5
31B0
102
{ACAD_REACTORS
330
31AF
102
}
330
31AF
100
AcDbVisualStyle
  2
Flat
 70
     0
 71
     2
 72
     1
 73
     1
 90
        2
 40
-0.6
 41
30.0
 62
     5
 63
     7
421
 16777215
 74
     0
 91
        4
 64
     7
 65
   257
 75
     1
175
     1
 42
1.0
 92
        8
 66
     7
 43
1.0
 76
     1
 77
     6
 78
     2
 67
     7
 79
     5
170
     0
171
     0
290
     0
174
     0
 93
       13
 44
0.0
173
     0
291
     1
 45
0.0
  0
VISUALSTYLE
  5
31B1
102
{ACAD_REACTORS
330
31AF
102
}
330
31AF
100
AcDbVisualStyle
  2
FlatWithEdges
 70
     1
 71
     2
 72
     1
 73
     1
 90
        2
 40
-0.6
 41
30.0
 62
     5
 63
     7
421
 16777215
 74
     1
 91
        4
 64
     7
 65
   257
 75
     1
175
     1
 42
1.0
 92
        0
 66
   257
 43
1.0
 76
     1
 77
     6
 78
     2
 67
     7
 79
     5
170
     0
171
     0
290
     0
174
     0
 93
       13
 44
0.0
173
     0
291
     1
 45
0.0
  0
VISUALSTYLE
  5
31B2
102
{ACAD_REACTORS
330
31AF
102
}
330
31AF
100
AcDbVisualStyle
  2
Gouraud
 70
     2
 71
     2
 72
     2
 73
     1
 90
        2
 40
-0.6
 41
30.0
 62
     5
 63
     7
421
 16777215
 74
     0
 91
        4
 64
     7
 65
   257
 75
     1
175
     1
 42
1.0
 92
        0
 66
     7
 43
1.0
 76
     1
 77
     6
 78
     2
 67
     7
 79
     5
170
     0
171
     0
290
     0
174
     0
 93
       13
 44
0.0
173
     0
291
     1
 45
0.0
  0
VISUALSTYLE
  5
31B3
102
{ACAD_REACTORS
330
31AF
102
}
330
31AF
100
AcDbVisualStyle
  2
GouraudWithEdges
 70
     3
 71
     2
 72
     2
 73
     1
 90
        2
 40
-0.6
 41
30.0
 62
     5
 63
     7
421
 16777215
 74
     1
 91
        4
 64
     7
 65
   257
 75
     1
175
     1
 42
1.0
 92
        0
 66
   257
 43
1.0
 76
     1
 77
     6
 78
     2
 67
     7
 79
     5
170
     0
171
     0
290
     0
174
     0
 93
       13
 44
0.0
173
     0
291
     1
 45
0.0
  0
VISUALSTYLE
  5
31BD
102
{ACAD_REACTORS
330
31AF
102
}
330
31AF
100
AcDbVisualStyle
  2
Linepattern
 70
    14
 71
     2
 72
     2
 73
     0
 90
        0
 40
-0.6
 41
-30.0
 62
     5
 63
     7
421
 16777215
 74
     1
 91
        4
 64
     7
 65
   257
 75
     7
175
     7
 42
1.0
 92
        8
 66
     7
 43
1.0
 76
     1
 77
     6
 78
     2
 67
     7
 79
     5
170
     0
171
     0
290
     0
174
     0
 93
        1
 44
0.0
173
     0
291
     1
 45
0.0
  0
VISUALSTYLE
  5
31B9
102
{ACAD_REACTORS
330
31AF
102
}
330
31AF
100
AcDbVisualStyle
  2
Realistic
 70
     8
 71
     2
 72
     2
 73
     0
 90
        0
 40
-0.6
 41
-30.0
 62
     5
 63
     7
421
 16777215
 74
     1
 91
        0
 64
     7
 65
   257
 75
     1
175
     1
 42
1.0
 92
        8
 66
     8
424
  7895160
 43
1.0
 76
     1
 77
     6
 78
     2
 67
     7
 79
     5
170
     0
171
     0
290
     0
174
     0
 93
       13
 44
0.0
173
     0
291
     0
 45
0.0
  0
VISUALSTYLE
  5
31BC
102
{ACAD_REACTORS
330
31AF
102
}
330
31AF
100
AcDbVisualStyle
  2
Thicken
 70
    13
 71
     2
 72
     2
 73
     0
 90
        0
 40
-0.6
 41
-30.0
 62
     5
 63
     7
421
 16777215
 74
     1
 91
        4
 64
     7
 65
   257
 75
     1
175
     1
 42
1.0
 92
       12
 66
     7
 43
1.0
 76
     1
 77
     6
 78
     2
 67
     7
 79
     5
170
     0
171
     0
290
     0
174
     0
 93
        1
 44
0.0
173
     0
291
     1
 45
0.0
  0
DICTIONARYVAR
  5
31E9
102
{ACAD_REACTORS
330
5D
102
}
330
5D
100
DictionaryVariables
280
     0
  1
STANDARD
  0
DICTIONARYVAR
  5
5E
102
{ACAD_REACTORS
330
5D
102
}
330
5D
100
DictionaryVariables
280
     0
  1
0
  0
DICTIONARYVAR
  5
128
102
{ACAD_REACTORS
330
5D
102
}
330
5D
100
DictionaryVariables
280
     0
  1
1
  0
DICTIONARYVAR
  5
1044
102
{ACAD_REACTORS
330
5D
102
}
330
5D
100
DictionaryVariables
280
     0
  1
96
  0
DICTIONARY
  5
143
102
{ACAD_REACTORS
330
142
102
}
330
142
100
AcDbDictionary
281
     1
  0
XRECORD
  5
31E2
102
{ACAD_REACTORS
330
142
102
}
330
142
100
AcDbXrecord
280
     1
 90
-1023410169
  0
DICTIONARY
  5
172
102
{ACAD_REACTORS
330
171
102
}
330
171
100
AcDbDictionary
281
     1
  3
DWGSETTINGS
350
173
  3
FEM
350
3A0
  3
Shaft
350
393
  3
TRANSSETTINGS
350
17D
  0
DICTIONARY
  5
18A9
102
{ACAD_REACTORS
330
18A8
102
}
330
18A8
100
AcDbDictionary
281
     1
  0
ACAMGFILTERDAT
  5
164B
102
{ACAD_REACTORS
330
1F2
102
}
330
1F2
100
AcAmgFilterDat
 70
    15
  1
DIMENSION,AMDT_*_DIM
  2
*
  3
*
  4
*
  5
*
290
     1
  0
ACAMGFILTERDAT
  5
164C
102
{ACAD_REACTORS
330
1F2
102
}
330
1F2
100
AcAmgFilterDat
 70
    15
  1
*
  2
AM_FEA-AM_*
  3
*
  4
*
  5
*
290
     1
  0
ACAMGFILTERDAT
  5
164D
102
{ACAD_REACTORS
330
1F2
102
}
330
1F2
100
AcAmgFilterDat
 70
    15
  1
HATCH
  2
*
  3
*
  4
*
  5
*
290
     1
  0
ACAMGFILTERDAT
  5
164E
102
{ACAD_REACTORS
330
1F2
102
}
330
1F2
100
AcAmgFilterDat
 70
    15
  1
ACMFCFRAME,ACMDATUMTARGET,ACMDATUMID,ACMWELDSYM,ACMSURFSYM,ACMFEATID,ACMPARTREF,ACMBALLOON
  2
*
  3
*
  4
*
  5
*
290
     1
  0
LAYER_INDEX
  5
17BF
102
{ACAD_REACTORS
330
17BE
102
}
330
17BE
100
AcDbIndex
 40
2453964.332849225
100
AcDbLayerIndex
  8
0
360
17C0
 90
        0
  8
AM_0
360
17C1
 90
        0
  8
AM_1
360
17C2
 90
        0
  8
AM_2
360
17C3
 90
        0
  8
AM_3
360
17C4
 90
        0
  8
AM_4
360
17C5
 90
        0
  8
AM_5
360
17C6
 90
       30
  8
AM_6
360
17C7
 90
        1
  8
AM_7
360
17C8
 90
        0
  8
AM_8
360
17C9
 90
        0
  8
AM_FR
360
17CA
 90
        0
  8
ASHADE
360
17CB
 90
        9
  8
AM_WORK
360
17CC
 90
        0
  8
AM_CL
360
17CD
 90
        0
  8
Defpoints
360
17CE
 90
        0
  8
ASRF_TMP
360
17CF
 90
        0
  8
AM_VIEWS
360
17D0
 90
        1
  8
AM_VIS
360
17D1
 90
        0
  8
AM_HID
360
17D2
 90
        0
  8
AM_PARDIM
360
17D3
 90
        0
  8
AmdtBRLock
360
196B
 90
        0
  8
5
360
2AD8
 90
        1
  8
1
360
2AD9
 90
       68
  8
3A
360
2ADA
 90
        1
  8
7
360
2ADB
 90
       15
  0
IDBUFFER
  5
17C0
330
0
100
AcDbIdBuffer
  0
IDBUFFER
  5
17C1
330
0
100
AcDbIdBuffer
  0
IDBUFFER
  5
17C2
330
0
100
AcDbIdBuffer
  0
IDBUFFER
  5
17C3
330
0
100
AcDbIdBuffer
  0
IDBUFFER
  5
17C4
330
0
100
AcDbIdBuffer
  0
IDBUFFER
  5
17C5
330
0
100
AcDbIdBuffer
  0
IDBUFFER
  5
17C6
330
0
100
AcDbIdBuffer
330
2707
330
279B
330
27B7
330
27D3
330
27EF
330
2817
330
285A
330
28EE
330
2916
330
29AA
330
29C6
330
2A0F
330
2AA3
330
2ABF
330
2B1D
330
2B5C
330
2BA5
330
2BEE
330
2CA0
330
2CC8
330
2D4E
330
2D9B
330
2DE4
330
2E6A
330
2EB3
330
2F58
330
2FA1
330
2FEA
330
304D
330
3096
  0
IDBUFFER
  5
17C7
330
0
100
AcDbIdBuffer
330
30D6
  0
IDBUFFER
  5
17C8
330
0
100
AcDbIdBuffer
  0
IDBUFFER
  5
17C9
330
0
100
AcDbIdBuffer
  0
IDBUFFER
  5
17CA
330
0
100
AcDbIdBuffer
  0
IDBUFFER
  5
17CB
330
0
100
AcDbIdBuffer
330
3FB
330
3FC
330
3FD
330
3FE
330
3FF
330
400
330
401
330
402
330
409
  0
IDBUFFER
  5
17CC
330
0
100
AcDbIdBuffer
  0
IDBUFFER
  5
17CD
330
0
100
AcDbIdBuffer
  0
IDBUFFER
  5
17CE
330
0
100
AcDbIdBuffer
  0
IDBUFFER
  5
17CF
330
0
100
AcDbIdBuffer
  0
IDBUFFER
  5
17D0
330
0
100
AcDbIdBuffer
330
2146
  0
IDBUFFER
  5
17D1
330
0
100
AcDbIdBuffer
  0
IDBUFFER
  5
17D2
330
0
100
AcDbIdBuffer
  0
IDBUFFER
  5
17D3
330
0
100
AcDbIdBuffer
  0
IDBUFFER
  5
196B
330
0
100
AcDbIdBuffer
  0
IDBUFFER
  5
2AD8
330
0
100
AcDbIdBuffer
330
1C18
  0
IDBUFFER
  5
2AD9
330
0
100
AcDbIdBuffer
330
1BE4
330
1BEB
330
1BEE
330
1BEF
330
1BF0
330
1BF1
330
1BF3
330
1BF4
330
1BF5
330
1BF6
330
1BF7
330
1BF8
330
1BFA
330
1BFB
330
1BFC
330
1BFD
330
1BFE
330
1C03
330
1C04
330
1C06
330
1C07
330
1C08
330
1C09
330
1C0B
330
1C0C
330
1C0D
330
1C0E
330
1C0F
330
1C10
330
1C12
330
1C13
330
1C14
330
1C15
330
1C16
330
1C17
330
1C19
330
1C1B
330
1C1E
330
1C1F
330
1C20
330
1C21
330
1C22
330
1C24
330
1C28
330
1C29
330
1C2D
330
1C2E
330
1C30
330
1C33
330
1C35
330
1C37
330
1C3B
330
1C3C
330
1C3D
330
1C3E
330
1C3F
330
1C42
330
1C43
330
1C44
330
1C45
330
1C47
330
1C48
330
1C49
330
1C4A
330
1C4C
330
1C4D
330
1C4E
330
1C50
  0
IDBUFFER
  5
2ADA
330
0
100
AcDbIdBuffer
330
1C23
  0
IDBUFFER
  5
2ADB
330
0
100
AcDbIdBuffer
330
1BEA
330
1BED
330
1C0A
330
1C11
330
1C1D
330
1C2C
330
1C2F
330
1C32
330
1C34
330
1C36
330
1C38
330
1C3A
330
1C46
330
1C4B
330
1C4F
  0
ENDSEC
  0
EOF
