  0
SECTION
  2
HEADER
  9
$ACADVER
  1
AC1009
  9
$DWGCODEPAGE
  3
ansi_1252
  9
$INSBASE
 10
0.0
 20
0.0
 30
0.0
  9
$EXTMIN
 10
0.0
 20
0.0
 30
0.0
  9
$EXTMAX
 10
210.0
 20
297.0
 30
0.0
  9
$LIMMIN
 10
0.0
 20
0.0
  9
$LIMMAX
 10
210.0
 20
297.0
  9
$ORTHOMODE
 70
     0
  9
$REGENMODE
 70
     1
  9
$FILLMODE
 70
     1
  9
$QTEXTMODE
 70
     0
  9
$MIRRTEXT
 70
     1
  9
$DRAGMODE
 70
     2
  9
$LTSCALE
 40
1.0
  9
$OSMODE
 70
    37
  9
$ATTMODE
 70
     1
  9
$TEXTSIZE
 40
3.5
  9
$TRACEWID
 40
1.0
  9
$TEXTSTYLE
  7
STANDARD
  9
$CLAYER
  8
0
  9
$CELTYPE
  6
BYLAYER
  9
$CECOLOR
 62
   256
  9
$DIMSCALE
 40
1.0
  9
$DIMASZ
 40
3.3
  9
$DIMEXO
 40
1.0
  9
$DIMDLI
 40
3.75
  9
$DIMRND
 40
0.0
  9
$DIMDLE
 40
0.0
  9
$DIMEXE
 40
1.0
  9
$DIMTP
 40
0.0
  9
$DIMTM
 40
0.0
  9
$DIMTXT
 40
3.5
  9
$DIMCEN
 40
2.5
  9
$DIMTSZ
 40
0.0
  9
$DIMTOL
 70
     0
  9
$DIMLIM
 70
     0
  9
$DIMTIH
 70
     1
  9
$DIMTOH
 70
     1
  9
$DIMSE1
 70
     0
  9
$DIMSE2
 70
     0
  9
$DIMTAD
 70
     1
  9
$DIMZIN
 70
     0
  9
$DIMBLK
  1

  9
$DIMASO
 70
     1
  9
$DIMSHO
 70
     1
  9
$DIMPOST
  1

  9
$DIMAPOST
  1

  9
$DIMALT
 70
     0
  9
$DIMALTD
 70
     3
  9
$DIMALTF
 40
0.0393700787
  9
$DIMLFAC
 40
1.0
  9
$DIMTOFL
 70
     1
  9
$DIMTVP
 40
0.0
  9
$DIMTIX
 70
     0
  9
$DIMSOXD
 70
     0
  9
$DIMSAH
 70
     0
  9
$DIMBLK1
  1

  9
$DIMBLK2
  1

  9
$DIMSTYLE
  2
ISO-25
  9
$DIMCLRD
 70
     0
  9
$DIMCLRE
 70
     0
  9
$DIMCLRT
 70
     0
  9
$DIMTFAC
 40
1.0
  9
$DIMGAP
 40
1.524
  9
$LUNITS
 70
     2
  9
$LUPREC
 70
     2
  9
$SKETCHINC
 40
1.0
  9
$FILLETRAD
 40
10.0
  9
$AUNITS
 70
     0
  9
$AUPREC
 70
     2
  9
$MENU
  1
.
  9
$ELEVATION
 40
0.0
  9
$PELEVATION
 40
0.0
  9
$THICKNESS
 40
0.0
  9
$LIMCHECK
 70
     0
  9
$CHAMFERA
 40
0.0
  9
$CHAMFERB
 40
0.0
  9
$SKPOLY
 70
     0
  9
$TDCREATE
 40
2458901.348822882
  9
$TDUPDATE
 40
2458901.348833565
  9
$TDINDWG
 40
0.0000000116
  9
$TDUSRTIMER
 40
0.0000000116
  9
$USRTIMER
 70
     1
  9
$ANGBASE
 50
0.0
  9
$ANGDIR
 70
     0
  9
$PDMODE
 70
     0
  9
$PDSIZE
 40
-1.0
  9
$PLINEWID
 40
0.0
  9
$COORDS
 70
     1
  9
$SPLFRAME
 70
     0
  9
$SPLINETYPE
 70
     6
  9
$SPLINESEGS
 70
     8
  9
$ATTDIA
 70
     0
  9
$ATTREQ
 70
     1
  9
$HANDLING
 70
     1
  9
$HANDSEED
  5
2A7
  9
$SURFTAB1
 70
     6
  9
$SURFTAB2
 70
     6
  9
$SURFTYPE
 70
     6
  9
$SURFU
 70
     6
  9
$SURFV
 70
     6
  9
$UCSNAME
  2

  9
$UCSORG
 10
0.0
 20
0.0
 30
0.0
  9
$UCSXDIR
 10
1.0
 20
0.0
 30
0.0
  9
$UCSYDIR
 10
0.0
 20
1.0
 30
0.0
  9
$PUCSNAME
  2

  9
$PUCSORG
 10
0.0
 20
0.0
 30
0.0
  9
$PUCSXDIR
 10
1.0
 20
0.0
 30
0.0
  9
$PUCSYDIR
 10
0.0
 20
1.0
 30
0.0
  9
$USERI1
 70
     0
  9
$USERI2
 70
     0
  9
$USERI3
 70
     0
  9
$USERI4
 70
     0
  9
$USERI5
 70
     0
  9
$USERR1
 40
0.0
  9
$USERR2
 40
0.0
  9
$USERR3
 40
0.0
  9
$USERR4
 40
0.0
  9
$USERR5
 40
0.0
  9
$WORLDVIEW
 70
     1
  9
$SHADEDGE
 70
     3
  9
$SHADEDIF
 70
    70
  9
$TILEMODE
 70
     1
  9
$MAXACTVP
 70
    64
  9
$PLIMCHECK
 70
     0
  9
$PEXTMIN
 10
1.0000000000E+20
 20
1.0000000000E+20
 30
1.0000000000E+20
  9
$PEXTMAX
 10
-1.0000000000E+20
 20
-1.0000000000E+20
 30
-1.0000000000E+20
  9
$PLIMMIN
 10
0.0
 20
0.0
  9
$PLIMMAX
 10
420.0
 20
297.0
  9
$UNITMODE
 70
     0
  9
$VISRETAIN
 70
     1
  9
$PLINEGEN
 70
     0
  9
$PSLTSCALE
 70
     1
  0
ENDSEC
  0
SECTION
  2
TABLES
  0
TABLE
  2
VPORT
 70
     1
  0
VPORT
  2
*ACTIVE
 70
     0
 10
0.0
 20
0.0
 11
1.0
 21
1.0
 12
105.0
 22
148.5
 13
0.0
 23
0.0
 14
10.0
 24
10.0
 15
10.0
 25
10.0
 16
0.0
 26
0.0
 36
1.0
 17
0.0
 27
0.0
 37
0.0
 40
297.0
 41
0.7070707071
 42
50.0
 43
0.0
 44
0.0
 50
0.0
 51
0.0
 71
     0
 72
  2000
 73
     1
 74
     3
 75
     0
 76
     0
 77
     0
 78
     0
  0
ENDTAB
  0
TABLE
  2
LTYPE
 70
     6
  0
LTYPE
  2
CONTINUOUS
 70
     0
  3
Solid line
 72
    65
 73
     0
 40
0.0
  0
LTYPE
  2
HIDDEN
 70
     0
  3
Hidden __ __ __ __ __ __ __ __ __ __ __ __ __ __
 72
    65
 73
     2
 40
1.905
 49
1.27
 49
-0.635
  0
LTYPE
  2
PHANTOM
 70
     0
  3
Phantom ______  __  __  ______  __  __  ______
 72
    65
 73
     6
 40
12.7
 49
6.35
 49
-1.27
 49
1.27
 49
-1.27
 49
1.27
 49
-1.27
  0
LTYPE
  2
CENTER
 70
     0
  3
Center ____ _ ____ _ ____ _ ____ _ ____ _ ____
 72
    65
 73
     4
 40
10.16
 49
6.35
 49
-1.27
 49
1.27
 49
-1.27
  0
LTYPE
  2
CENTERX2
 70
     0
  3
Center (2x) ________  __  ________  __  _____
 72
    65
 73
     4
 40
20.32
 49
12.7
 49
-2.54
 49
2.54
 49
-2.54
  0
LTYPE
  2
DOT2
 70
     0
  3
Dot (.5x) ........................................
 72
    65
 73
     2
 40
0.635
 49
0.0
 49
-0.635
  0
ENDTAB
  0
TABLE
  2
LAYER
 70
     1
  0
LAYER
  2
0
 70
     0
 62
     7
  6
CONTINUOUS
  0
ENDTAB
  0
TABLE
  2
STYLE
 70
     1
  0
STYLE
  2
STANDARD
 70
     0
 40
0.0
 41
1.0
 50
0.0
 71
     0
 42
3.5
  3
txt
  4

  0
ENDTAB
  0
TABLE
  2
VIEW
 70
     0
  0
ENDTAB
  0
TABLE
  2
UCS
 70
     0
  0
ENDTAB
  0
TABLE
  2
APPID
 70
     1
  0
APPID
  2
ACAD
 70
     0
  0
ENDTAB
  0
TABLE
  2
DIMSTYLE
 70
    10
  0
DIMSTYLE
  2
ISO-25
 70
     0
  3

  4

  5

  6

  7

 40
1.0
 41
2.5
 42
0.625
 43
3.75
 44
1.25
 45
0.0
 46
0.0
 47
0.0
 48
0.0
140
2.5
141
2.5
142
0.0
143
0.0393700787
144
1.0
145
0.0
146
1.0
147
0.625
 71
     0
 72
     0
 73
     0
 74
     0
 75
     0
 76
     0
 77
     1
 78
     8
170
     0
171
     3
172
     1
173
     0
174
     0
175
     0
176
     0
177
     0
178
     0
  0
DIMSTYLE
  2
SLDDIMSTYLE0
 70
     0
  3

  4

  5

  6

  7

 40
1.0
 41
3.3
 42
0.0625
 43
0.38
 44
0.0
 45
0.000000001
 46
0.0
 47
0.0
 48
0.0
140
3.5
141
0.09
142
0.0
143
25.4
144
1.0
145
0.0
146
1.0
147
0.875
 71
     0
 72
     0
 73
     0
 74
     0
 75
     0
 76
     0
 77
     1
 78
    12
170
     0
171
     2
172
     0
173
     1
174
     0
175
     0
176
     0
177
     0
178
     0
  0
DIMSTYLE
  2
SLDDIMSTYLE1
 70
     0
  3

  4

  5

  6

  7

 40
1.0
 41
3.3
 42
0.0625
 43
0.38
 44
0.0
 45
0.000000001
 46
0.0
 47
0.0
 48
0.0
140
3.5
141
0.09
142
0.0
143
25.4
144
1.0
145
0.0
146
1.0
147
0.875
 71
     0
 72
     0
 73
     0
 74
     0
 75
     0
 76
     0
 77
     1
 78
    12
170
     0
171
     2
172
     1
173
     1
174
     0
175
     0
176
     0
177
     0
178
     0
  0
DIMSTYLE
  2
SLDDIMSTYLE2
 70
     0
  3

  4

  5

  6

  7

 40
1.0
 41
3.3
 42
0.0625
 43
0.38
 44
0.0
 45
0.000000001
 46
0.0
 47
0.0
 48
0.0
140
3.5
141
0.0
142
0.0
143
25.4
144
1.0
145
0.0
146
1.0
147
0.875
 71
     0
 72
     0
 73
     0
 74
     0
 75
     0
 76
     0
 77
     1
 78
    12
170
     0
171
     2
172
     0
173
     1
174
     0
175
     0
176
     0
177
     0
178
     0
  0
DIMSTYLE
  2
SLDDIMSTYLE3
 70
     0
  3

  4

  5

  6

  7

 40
1.0
 41
3.3
 42
0.0625
 43
0.38
 44
0.0
 45
0.000000001
 46
0.0
 47
0.0
 48
0.1
140
3.5
141
0.09
142
0.0
143
25.4
144
1.0
145
0.0
146
1.0
147
0.875
 71
     1
 72
     0
 73
     0
 74
     0
 75
     0
 76
     0
 77
     1
 78
    12
170
     0
171
     2
172
     0
173
     1
174
     0
175
     0
176
     0
177
     0
178
     0
  0
DIMSTYLE
  2
SLDDIMSTYLE4
 70
     0
  3

  4

  5

  6
NONE
  7

 40
1.0
 41
3.3
 42
0.0625
 43
0.38
 44
0.0
 45
0.000000001
 46
0.0
 47
0.0
 48
0.0
140
3.5
141
0.0
142
0.0
143
25.4
144
1.0
145
0.0
146
1.0
147
0.875
 71
     0
 72
     0
 73
     0
 74
     0
 75
     0
 76
     0
 77
     1
 78
    12
170
     0
171
     2
172
     1
173
     1
174
     0
175
     0
176
     0
177
     0
178
     0
  0
DIMSTYLE
  2
SLDDIMSTYLE5
 70
     0
  3

  4

  5

  6

  7

 40
1.0
 41
3.3
 42
0.0625
 43
0.38
 44
0.0
 45
0.000000001
 46
0.0
 47
0.0
 48
0.0
140
3.5
141
0.0
142
0.0
143
25.4
144
1.0
145
0.0
146
1.0
147
0.875
 71
     0
 72
     0
 73
     0
 74
     0
 75
     0
 76
     0
 77
     1
 78
    12
170
     0
171
     2
172
     0
173
     1
174
     0
175
     0
176
     0
177
     0
178
     0
  0
DIMSTYLE
  2
SLDDIMSTYLE6
 70
     0
  3

  4

  5

  6

  7

 40
1.0
 41
3.3
 42
0.0625
 43
0.38
 44
0.0
 45
0.000000001
 46
0.0
 47
0.2
 48
0.0
140
3.5
141
0.09
142
0.0
143
25.4
144
1.0
145
0.0
146
1.0
147
0.875
 71
     1
 72
     0
 73
     0
 74
     0
 75
     0
 76
     0
 77
     1
 78
    12
170
     0
171
     2
172
     0
173
     1
174
     0
175
     0
176
     0
177
     0
178
     0
  0
DIMSTYLE
  2
SLDDIMSTYLE7
 70
     0
  3

  4

  5

  6

  7

 40
1.0
 41
3.3
 42
0.0625
 43
0.38
 44
0.0
 45
0.000000001
 46
0.0
 47
0.0
 48
0.1
140
3.5
141
0.09
142
0.0
143
25.4
144
1.0
145
0.0
146
1.0
147
0.875
 71
     1
 72
     0
 73
     0
 74
     0
 75
     0
 76
     0
 77
     1
 78
    12
170
     0
171
     2
172
     1
173
     1
174
     0
175
     0
176
     0
177
     0
178
     0
  0
DIMSTYLE
  2
SLDDIMSTYLE8
 70
     0
  3

  4

  5

  6

  7

 40
1.0
 41
3.3
 42
0.0625
 43
0.38
 44
0.0
 45
0.000000001
 46
0.0
 47
0.1
 48
0.1
140
3.5
141
0.09
142
0.0
143
25.4
144
1.0
145
0.0
146
1.0
147
0.875
 71
     1
 72
     0
 73
     0
 74
     0
 75
     0
 76
     0
 77
     1
 78
    12
170
     0
171
     2
172
     0
173
     1
174
     0
175
     0
176
     0
177
     0
178
     0
  0
ENDTAB
  0
ENDSEC
  0
SECTION
  2
BLOCKS
  0
BLOCK
  8
0
  2
$MODEL_SPACE
 70
     0
 10
0.0
 20
0.0
 30
0.0
  3
$MODEL_SPACE
  1

  0
ENDBLK
  5
21
  8
0
  0
BLOCK
 67
     1
  8
0
  2
$PAPER_SPACE
 70
     0
 10
0.0
 20
0.0
 30
0.0
  3
$PAPER_SPACE
  1

  0
ENDBLK
  5
1D
 67
     1
  8
0
  0
BLOCK
  8
0
  2
SW_NOTE_0
 70
     0
 10
0.0
 20
0.0
 30
0.0
  3
SW_NOTE_0
  1

  0
TEXT
  5
B7
  8
0
  6
CONTINUOUS
 62
     0
 10
0.0
 20
0.8831501548
 30
0.0
 40
2.5
  1
Maßstab:      
 41
0.55
 11
0.0
 21
0.0
 31
0.0
 73
     1
  0
TEXT
  5
B8
  8
0
  6
CONTINUOUS
 62
     0
 10
19.7052955627
 20
0.9475215793
 30
0.0
 40
3.5
  1
1:1
 41
0.7
 11
19.7052955627
 21
-0.2888886374
 31
0.0
 73
     1
  0
ENDBLK
  5
B6
  8
0
  0
BLOCK
  8
0
  2
SW_NOTE_0_1
 70
     0
 10
0.0
 20
0.0
 30
0.0
  3
SW_NOTE_0_1
  1

  0
TEXT
  5
CB
  8
0
  6
CONTINUOUS
 62
     0
 10
0.0
 20
0.8831501548
 30
0.0
 40
2.5
  1
Breuer & Schmitz
 41
0.65625
 11
0.0
 21
0.0
 31
0.0
 73
     1
  0
TEXT
  5
CC
  8
0
  6
CONTINUOUS
 62
     0
 10
0.6718747318
 20
-2.6168499532
 30
0.0
 40
2.5
  1
GmbH & Co. KG
 41
0.6192307692
 11
0.6718747318
 21
-3.500000108
 31
0.0
 73
     1
  0
TEXT
  5
CD
  8
0
  6
CONTINUOUS
 62
     0
 10
1.2413188815
 20
-6.1168500613
 30
0.0
 40
2.5
  1
Solingen - Wald
 41
0.6533333333
 11
1.2413188815
 21
-7.0000002161
 31
0.0
 73
     1
  0
TEXT
  5
CE
  8
0
  6
CONTINUOUS
 62
     0
 10
-0.7673613727
 20
-9.6168501693
 30
0.0
 40
2.5
  1
Baubeschlagfabrik
 41
0.7
 11
-0.7673613727
 21
-10.5000003241
 31
0.0
 73
     1
  0
ENDBLK
  5
CA
  8
0
  0
BLOCK
  8
0
  2
_D
 70
     0
 10
0.0
 20
0.0
 30
0.0
  3
_D
  1

  0
SOLID
  5
133
  8
0
  6
CONTINUOUS
 62
     7
 10
163.9889943046
 20
122.3856005464
 30
0.0
 11
164.4889943046
 21
125.6856005464
 31
0.0
 12
163.4889943046
 22
125.6856005464
 32
0.0
 13
163.4889943046
 23
125.6856005464
 33
0.0
  0
SOLID
  5
134
  8
0
  6
CONTINUOUS
 62
     7
 10
163.9889943046
 20
157.3856005464
 30
0.0
 11
163.4889943046
 21
154.0856005464
 31
0.0
 12
164.4889943046
 22
154.0856005464
 32
0.0
 13
164.4889943046
 23
154.0856005464
 33
0.0
  0
LINE
  5
135
  8
0
  6
CONTINUOUS
 62
     7
 10
137.6789943046
 20
122.3856005464
 30
0.0
 11
164.9889943046
 21
122.3856005464
 31
0.0
  0
LINE
  5
136
  8
0
  6
CONTINUOUS
 62
     7
 10
147.6789943046
 20
157.3856005464
 30
0.0
 11
164.9889943046
 21
157.3856005464
 31
0.0
  0
LINE
  5
137
  8
0
  6
CONTINUOUS
 62
     7
 10
163.9889943046
 20
122.3856005464
 30
0.0
 11
163.9889943046
 21
157.3856005464
 31
0.0
  0
TEXT
  5
138
  8
0
  6
CONTINUOUS
 62
     7
 10
162.752583855
 20
137.2119895015
 30
0.0
 40
3.5
  1
35
 50
90.0
 41
0.7
 11
163.9889940717
 21
137.2119895015
 31
0.0
 73
     1
  0
ENDBLK
  5
132
  8
0
  0
BLOCK
  8
0
  2
_D_1
 70
     0
 10
0.0
 20
0.0
 30
0.0
  3
_D_1
  1

  0
SOLID
  5
13D
  8
0
  6
CONTINUOUS
 62
     7
 10
163.9889943046
 20
157.3856005464
 30
0.0
 11
164.4889943046
 21
160.6856005464
 31
0.0
 12
163.4889943046
 22
160.6856005464
 32
0.0
 13
163.4889943046
 23
160.6856005464
 33
0.0
  0
SOLID
  5
13E
  8
0
  6
CONTINUOUS
 62
     7
 10
163.9889943046
 20
192.3856005464
 30
0.0
 11
163.4889943046
 21
189.0856005464
 31
0.0
 12
164.4889943046
 22
189.0856005464
 32
0.0
 13
164.4889943046
 23
189.0856005464
 33
0.0
  0
LINE
  5
13F
  8
0
  6
CONTINUOUS
 62
     7
 10
147.6789943046
 20
157.3856005464
 30
0.0
 11
164.9889943046
 21
157.3856005464
 31
0.0
  0
LINE
  5
140
  8
0
  6
CONTINUOUS
 62
     7
 10
151.8703326901
 20
192.3856005464
 30
0.0
 11
164.9889943046
 21
192.3856005464
 31
0.0
  0
LINE
  5
141
  8
0
  6
CONTINUOUS
 62
     7
 10
163.9889943046
 20
157.3856005464
 30
0.0
 11
163.9889943046
 21
192.3856005464
 31
0.0
  0
TEXT
  5
142
  8
0
  6
CONTINUOUS
 62
     7
 10
162.752583855
 20
172.2119895015
 30
0.0
 40
3.5
  1
35
 50
90.0
 41
0.7
 11
163.9889940717
 21
172.2119895015
 31
0.0
 73
     1
  0
ENDBLK
  5
13C
  8
0
  0
BLOCK
  8
0
  2
_D_2
 70
     0
 10
0.0
 20
0.0
 30
0.0
  3
_D_2
  1

  0
SOLID
  5
147
  8
0
  6
CONTINUOUS
 62
     7
 10
163.9889943046
 20
192.3856005464
 30
0.0
 11
164.4889943046
 21
195.6856005464
 31
0.0
 12
163.4889943046
 22
195.6856005464
 32
0.0
 13
163.4889943046
 23
195.6856005464
 33
0.0
  0
SOLID
  5
148
  8
0
  6
CONTINUOUS
 62
     7
 10
163.9889943046
 20
227.3856005464
 30
0.0
 11
163.4889943046
 21
224.0856005464
 31
0.0
 12
164.4889943046
 22
224.0856005464
 32
0.0
 13
164.4889943046
 23
224.0856005464
 33
0.0
  0
LINE
  5
149
  8
0
  6
CONTINUOUS
 62
     7
 10
151.8703326901
 20
192.3856005464
 30
0.0
 11
164.9889943046
 21
192.3856005464
 31
0.0
  0
LINE
  5
14A
  8
0
  6
CONTINUOUS
 62
     7
 10
147.6789943046
 20
227.3856005464
 30
0.0
 11
164.9889943046
 21
227.3856005464
 31
0.0
  0
LINE
  5
14B
  8
0
  6
CONTINUOUS
 62
     7
 10
163.9889943046
 20
192.3856005464
 30
0.0
 11
163.9889943046
 21
227.3856005464
 31
0.0
  0
TEXT
  5
14C
  8
0
  6
CONTINUOUS
 62
     7
 10
162.752583855
 20
207.2119895015
 30
0.0
 40
3.5
  1
35
 50
90.0
 41
0.7
 11
163.9889940717
 21
207.2119895015
 31
0.0
 73
     1
  0
ENDBLK
  5
146
  8
0
  0
BLOCK
  8
0
  2
_D_3
 70
     0
 10
0.0
 20
0.0
 30
0.0
  3
_D_3
  1

  0
SOLID
  5
151
  8
0
  6
CONTINUOUS
 62
     7
 10
163.9889943046
 20
227.3856005464
 30
0.0
 11
164.4889943046
 21
230.6856005464
 31
0.0
 12
163.4889943046
 22
230.6856005464
 32
0.0
 13
163.4889943046
 23
230.6856005464
 33
0.0
  0
SOLID
  5
152
  8
0
  6
CONTINUOUS
 62
     7
 10
163.9889943046
 20
262.3856005464
 30
0.0
 11
163.4889943046
 21
259.0856005464
 31
0.0
 12
164.4889943046
 22
259.0856005464
 32
0.0
 13
164.4889943046
 23
259.0856005464
 33
0.0
  0
LINE
  5
153
  8
0
  6
CONTINUOUS
 62
     7
 10
147.6789943046
 20
227.3856005464
 30
0.0
 11
164.9889943046
 21
227.3856005464
 31
0.0
  0
LINE
  5
154
  8
0
  6
CONTINUOUS
 62
     7
 10
137.6789943046
 20
262.3856005464
 30
0.0
 11
164.9889943046
 21
262.3856005464
 31
0.0
  0
LINE
  5
155
  8
0
  6
CONTINUOUS
 62
     7
 10
163.9889943046
 20
227.3856005464
 30
0.0
 11
163.9889943046
 21
262.3856005464
 31
0.0
  0
TEXT
  5
156
  8
0
  6
CONTINUOUS
 62
     7
 10
162.752583855
 20
242.2119895015
 30
0.0
 40
3.5
  1
35
 50
90.0
 41
0.7
 11
163.9889940717
 21
242.2119895015
 31
0.0
 73
     1
  0
ENDBLK
  5
150
  8
0
  0
BLOCK
  8
0
  2
_D_4
 70
     0
 10
0.0
 20
0.0
 30
0.0
  3
_D_4
  1

  0
SOLID
  5
15C
  8
0
  6
CONTINUOUS
 62
     7
 10
138.9289943046
 20
209.8856005464
 30
0.0
 11
135.6289943046
 21
210.3856005464
 31
0.0
 12
135.6289943046
 22
209.3856005464
 32
0.0
 13
135.6289943046
 23
209.3856005464
 33
0.0
  0
SOLID
  5
15D
  8
0
  6
CONTINUOUS
 62
     7
 10
148.9289943046
 20
209.8856005464
 30
0.0
 11
152.2289943046
 21
209.3856005464
 31
0.0
 12
152.2289943046
 22
210.3856005464
 32
0.0
 13
152.2289943046
 23
210.3856005464
 33
0.0
  0
LINE
  5
15E
  8
0
  6
CONTINUOUS
 62
     7
 10
138.9289943046
 20
218.6356005464
 30
0.0
 11
138.9289943046
 21
208.8856005464
 31
0.0
  0
LINE
  5
15F
  8
0
  6
CONTINUOUS
 62
     7
 10
138.9289943046
 20
209.8856005464
 30
0.0
 11
132.6789943046
 21
209.8856005464
 31
0.0
  0
LINE
  5
160
  8
0
  6
CONTINUOUS
 62
     7
 10
138.9289943046
 20
209.8856005464
 30
0.0
 11
148.9289943046
 21
209.8856005464
 31
0.0
  0
LINE
  5
161
  8
0
  6
CONTINUOUS
 62
     7
 10
148.9289943046
 20
209.8856005464
 30
0.0
 11
155.1789943046
 21
209.8856005464
 31
0.0
  0
TEXT
  5
162
  8
0
  6
CONTINUOUS
 62
     7
 10
141.2553832597
 20
211.122010996
 30
0.0
 40
3.5
  1
10
 50
0.0
 41
0.7
 11
141.2553832597
 21
209.8856007793
 31
0.0
 73
     1
  0
ENDBLK
  5
15B
  8
0
  0
BLOCK
  8
0
  2
_D_5
 70
     0
 10
0.0
 20
0.0
 30
0.0
  3
_D_5
  1

  0
SOLID
  5
167
  8
0
  6
CONTINUOUS
 62
     7
 10
128.9289943046
 20
244.8856005464
 30
0.0
 11
132.2289943046
 21
244.3856005464
 31
0.0
 12
132.2289943046
 22
245.3856005464
 32
0.0
 13
132.2289943046
 23
245.3856005464
 33
0.0
  0
SOLID
  5
168
  8
0
  6
CONTINUOUS
 62
     7
 10
148.9289943046
 20
244.8856005464
 30
0.0
 11
145.6289943046
 21
245.3856005464
 31
0.0
 12
145.6289943046
 22
244.3856005464
 32
0.0
 13
145.6289943046
 23
244.3856005464
 33
0.0
  0
LINE
  5
169
  8
0
  6
CONTINUOUS
 62
     7
 10
128.9289943046
 20
253.6356005464
 30
0.0
 11
128.9289943046
 21
243.8856005464
 31
0.0
  0
LINE
  5
16A
  8
0
  6
CONTINUOUS
 62
     7
 10
128.9289943046
 20
244.8856005464
 30
0.0
 11
148.9289943046
 21
244.8856005464
 31
0.0
  0
TEXT
  5
16B
  8
0
  6
CONTINUOUS
 62
     7
 10
136.2553832597
 20
246.122010996
 30
0.0
 40
3.5
  1
20
 50
0.0
 41
0.7
 11
136.2553832597
 21
244.8856007793
 31
0.0
 73
     1
  0
ENDBLK
  5
166
  8
0
  0
BLOCK
  8
0
  2
_D_6
 70
     0
 10
0.0
 20
0.0
 30
0.0
  3
_D_6
  1

  0
SOLID
  5
171
  8
0
  6
CONTINUOUS
 62
     7
 10
62.4437129303
 20
269.0208819207
 30
0.0
 11
60.463813943
 21
271.7078876892
 31
0.0
 12
59.7567071618
 22
271.000780908
 32
0.0
 13
59.7567071618
 23
271.000780908
 33
0.0
  0
LINE
  5
172
  8
0
  6
CONTINUOUS
 62
     7
 10
62.4437129303
 20
269.0208819207
 30
0.0
 11
51.1847415305
 21
280.2798533205
 31
0.0
  0
TEXT
  5
173
  8
0
  6
CONTINUOUS
 62
     7
 10
52.0469016099
 20
281.1420133999
 30
0.0
 40
3.5
  1
R12
 50
-45.0
 41
0.7
 11
51.1726275614
 21
280.2677393513
 31
0.0
 73
     1
  0
ENDBLK
  5
170
  8
0
  0
BLOCK
  8
0
  2
_D_7
 70
     0
 10
0.0
 20
0.0
 30
0.0
  3
_D_7
  1

  0
SOLID
  5
179
  8
0
  6
CONTINUOUS
 62
     7
 10
176.7457915332
 20
272.5356005464
 30
0.0
 11
176.2457915332
 21
269.2356005464
 31
0.0
 12
177.2457915332
 22
269.2356005464
 32
0.0
 13
177.2457915332
 23
269.2356005464
 33
0.0
  0
SOLID
  5
17A
  8
0
  6
CONTINUOUS
 62
     7
 10
176.7457915332
 20
112.2356005464
 30
0.0
 11
177.2457915332
 21
115.5356005464
 31
0.0
 12
176.2457915332
 22
115.5356005464
 32
0.0
 13
176.2457915332
 23
115.5356005464
 33
0.0
  0
LINE
  5
17B
  8
0
  6
CONTINUOUS
 62
     7
 10
137.9289943046
 20
272.5356005464
 30
0.0
 11
177.7457915332
 21
272.5356005464
 31
0.0
  0
LINE
  5
17C
  8
0
  6
CONTINUOUS
 62
     7
 10
137.9289943046
 20
112.2356005464
 30
0.0
 11
177.7457915332
 21
112.2356005464
 31
0.0
  0
LINE
  5
17D
  8
0
  6
CONTINUOUS
 62
     7
 10
176.7457915332
 20
272.5356005464
 30
0.0
 11
176.7457915332
 21
112.2356005464
 31
0.0
  0
TEXT
  5
17E
  8
0
  6
CONTINUOUS
 62
     7
 10
175.5093810836
 20
181.8666426857
 30
0.0
 40
3.5
  1
160,3
 50
90.0
 41
0.7
 11
176.7457913004
 21
181.8666426857
 31
0.0
 73
     1
  0
TEXT
  5
17F
  8
0
  6
CONTINUOUS
 62
     7
 10
175.5093810836
 20
193.8978923876
 30
0.0
 40
3.5
  1
 
 50
90.0
 41
0.7
 11
176.7457913004
 21
193.8978923876
 31
0.0
 73
     1
  0
TEXT
  5
180
  8
0
  6
CONTINUOUS
 62
     7
 10
172.4191930445
 20
195.3265729112
 30
0.0
 40
2.45
  1
 
 50
90.0
 41
0.7
 11
173.2846801962
 21
195.3265729112
 31
0.0
 73
     1
  0
TEXT
  5
181
  8
0
  6
CONTINUOUS
 62
     7
 10
175.583776396
 20
195.2346979101
 30
0.0
 40
2.45
  1
-
 50
90.0
 41
0.7
 11
176.4492635477
 21
195.2346979101
 31
0.0
 73
     1
  0
TEXT
  5
182
  8
0
  6
CONTINUOUS
 62
     7
 10
172.4191930445
 20
196.354211906
 30
0.0
 40
2.45
  1
0
 50
90.0
 41
0.7
 11
173.2846801962
 21
196.354211906
 31
0.0
 73
     1
  0
TEXT
  5
183
  8
0
  6
CONTINUOUS
 62
     7
 10
175.583776396
 20
196.354211906
 30
0.0
 40
2.45
  1
0,10
 50
90.0
 41
0.7
 11
176.4492635477
 21
196.354211906
 31
0.0
 73
     1
  0
ENDBLK
  5
178
  8
0
  0
BLOCK
  8
0
  2
_D_8
 70
     0
 10
0.0
 20
0.0
 30
0.0
  3
_D_8
  1

  0
SOLID
  5
188
  8
0
  6
CONTINUOUS
 62
     7
 10
132.9289943046
 20
177.2095892233
 30
0.0
 11
129.6289943046
 21
177.7095892233
 31
0.0
 12
129.6289943046
 22
176.7095892233
 32
0.0
 13
129.6289943046
 23
176.7095892233
 33
0.0
  0
SOLID
  5
189
  8
0
  6
CONTINUOUS
 62
     7
 10
148.9289943046
 20
177.2095892233
 30
0.0
 11
152.2289943046
 21
176.7095892233
 31
0.0
 12
152.2289943046
 22
177.7095892233
 32
0.0
 13
152.2289943046
 23
177.7095892233
 33
0.0
  0
LINE
  5
18A
  8
0
  6
CONTINUOUS
 62
     7
 10
132.9289943046
 20
191.3856005464
 30
0.0
 11
132.9289943046
 21
176.2095892233
 31
0.0
  0
LINE
  5
18B
  8
0
  6
CONTINUOUS
 62
     7
 10
132.9289943046
 20
177.2095892233
 30
0.0
 11
126.6789943046
 21
177.2095892233
 31
0.0
  0
LINE
  5
18C
  8
0
  6
CONTINUOUS
 62
     7
 10
132.9289943046
 20
177.2095892233
 30
0.0
 11
148.9289943046
 21
177.2095892233
 31
0.0
  0
LINE
  5
18D
  8
0
  6
CONTINUOUS
 62
     7
 10
148.9289943046
 20
177.2095892233
 30
0.0
 11
155.1789943046
 21
177.2095892233
 31
0.0
  0
TEXT
  5
18E
  8
0
  6
CONTINUOUS
 62
     7
 10
138.2553832597
 20
178.4459996728
 30
0.0
 40
3.5
  1
16
 50
0.0
 41
0.7
 11
138.2553832597
 21
177.2095894561
 31
0.0
 73
     1
  0
ENDBLK
  5
187
  8
0
  0
BLOCK
  8
0
  2
_NONE
 70
     0
 10
0.0
 20
0.0
 30
0.0
  3
_NONE
  1

  0
ENDBLK
  5
193
  8
0
  0
BLOCK
  8
0
  2
_D_9
 70
     0
 10
0.0
 20
0.0
 30
0.0
  3
_D_9
  1

  0
SOLID
  5
197
  8
0
  6
CONTINUOUS
 62
     7
 10
71.3120918775
 20
225.5632817055
 30
0.0
 11
73.6297794009
 21
223.1615480517
 31
0.0
 12
74.2372190146
 22
223.9559139094
 32
0.0
 13
74.2372190146
 23
223.9559139094
 33
0.0
  0
LINE
  5
198
  8
0
  6
CONTINUOUS
 62
     7
 10
71.3120918775
 20
225.5632817055
 30
0.0
 11
82.5020619144
 21
217.0064800627
 31
0.0
  0
LINE
  5
199
  8
0
  6
CONTINUOUS
 62
     7
 10
71.3120918775
 20
225.5632817055
 30
0.0
 11
66.5458967316
 21
229.2079193873
 31
0.0
  0
TEXT
  5
19A
  8
0
  6
CONTINUOUS
 62
     7
 10
77.0411751456
 20
222.6673235629
 30
0.0
 40
3.5
  1
%%c
 50
322.5954002764
 41
0.7
 11
76.2901306013
 21
221.6851615007
 31
0.0
 73
     1
  0
TEXT
  5
19B
  8
0
  6
CONTINUOUS
 62
     7
 10
81.1006913421
 20
219.5753117183
 30
0.0
 40
3.5
  1
6
 50
322.5954002764
 41
0.7
 11
80.3496467978
 21
218.5931496561
 31
0.0
 73
     1
  0
ENDBLK
  5
196
  8
0
  0
BLOCK
  8
0
  2
_D_10
 70
     0
 10
0.0
 20
0.0
 30
0.0
  3
_D_10
  1

  0
SOLID
  5
1A0
  8
0
  6
CONTINUOUS
 62
     7
 10
71.5027291136
 20
161.9614490068
 30
0.0
 11
73.5563003708
 21
164.5925790097
 31
0.0
 12
72.6847101878
 22
165.0828142114
 32
0.0
 13
72.6847101878
 23
165.0828142114
 33
0.0
  0
LINE
  5
1A1
  8
0
  6
CONTINUOUS
 62
     7
 10
71.5027291136
 20
161.9614490068
 30
0.0
 11
86.6469283518
 21
188.8863522738
 31
0.0
  0
LINE
  5
1A2
  8
0
  6
CONTINUOUS
 62
     7
 10
71.5027291136
 20
161.9614490068
 30
0.0
 11
66.3552594955
 21
152.809752086
 31
0.0
  0
TEXT
  5
1A3
  8
0
  6
CONTINUOUS
 62
     7
 10
73.2489468004
 20
167.5499546188
 30
0.0
 40
3.5
  1
%%c
 50
60.6439581273
 41
0.7
 11
74.3265898074
 21
166.9438228068
 31
0.0
 73
     1
  0
TEXT
  5
1A4
  8
0
  6
CONTINUOUS
 62
     7
 10
75.7421194114
 20
172.0024033078
 30
0.0
 40
3.5
  1
10,5
 50
60.6439581273
 41
0.7
 11
76.8197624183
 21
171.3962714958
 31
0.0
 73
     1
  0
TEXT
  5
1A5
  8
0
  6
CONTINUOUS
 62
     7
 10
80.3295630578
 20
180.158428891
 30
0.0
 40
3.5
  1
X90
 50
60.6439581273
 41
0.7
 11
81.4072060648
 21
179.552297079
 31
0.0
 73
     1
  0
TEXT
  5
1A6
  8
0
  6
CONTINUOUS
 62
     7
 10
84.5322715094
 20
187.6106010445
 30
0.0
 40
3.5
  1
%%d
 50
60.6439581273
 41
0.7
 11
85.6099145164
 21
187.0044692325
 31
0.0
 73
     1
  0
ENDBLK
  5
19F
  8
0
  0
BLOCK
  8
0
  2
SW_CENTERMARKSYMBOL_0
 70
     0
 10
0.0
 20
0.0
 30
0.0
  3
SW_CENTERMARKSYMBOL_0
  1

  0
LINE
  5
1AA
  8
0
  6
CONTINUOUS
 62
     0
 10
0.0
 20
0.0
 30
0.0
 11
0.0
 21
-2.5
 31
0.0
  0
LINE
  5
1AB
  8
0
  6
CONTINUOUS
 62
     0
 10
0.0
 20
0.0
 30
0.0
 11
2.5
 21
0.0
 31
0.0
  0
LINE
  5
1AC
  8
0
  6
CONTINUOUS
 62
     0
 10
0.0
 20
0.0
 30
0.0
 11
0.0
 21
2.5
 31
0.0
  0
LINE
  5
1AD
  8
0
  6
CONTINUOUS
 62
     0
 10
0.0
 20
0.0
 30
0.0
 11
-2.5
 21
0.0
 31
0.0
  0
LINE
  5
1AE
  8
0
  6
CONTINUOUS
 62
     0
 10
0.0
 20
-5.0
 30
0.0
 11
0.0
 21
-7.75
 31
0.0
  0
LINE
  5
1AF
  8
0
  6
CONTINUOUS
 62
     0
 10
5.0
 20
0.0
 30
0.0
 11
7.75
 21
0.0
 31
0.0
  0
LINE
  5
1B0
  8
0
  6
CONTINUOUS
 62
     0
 10
0.0
 20
5.0
 30
0.0
 11
0.0
 21
7.75
 31
0.0
  0
LINE
  5
1B1
  8
0
  6
CONTINUOUS
 62
     0
 10
-5.0
 20
0.0
 30
0.0
 11
-7.75
 21
0.0
 31
0.0
  0
ENDBLK
  5
1A9
  8
0
  0
BLOCK
  8
0
  2
SW_CENTERMARKSYMBOL_1
 70
     0
 10
0.0
 20
0.0
 30
0.0
  3
SW_CENTERMARKSYMBOL_1
  1

  0
LINE
  5
1B6
  8
0
  6
CONTINUOUS
 62
     0
 10
0.0
 20
0.0
 30
0.0
 11
0.0
 21
-2.5
 31
0.0
  0
LINE
  5
1B7
  8
0
  6
CONTINUOUS
 62
     0
 10
0.0
 20
0.0
 30
0.0
 11
2.5
 21
0.0
 31
0.0
  0
LINE
  5
1B8
  8
0
  6
CONTINUOUS
 62
     0
 10
0.0
 20
0.0
 30
0.0
 11
0.0
 21
2.5
 31
0.0
  0
LINE
  5
1B9
  8
0
  6
CONTINUOUS
 62
     0
 10
0.0
 20
0.0
 30
0.0
 11
-2.5
 21
0.0
 31
0.0
  0
LINE
  5
1BA
  8
0
  6
CONTINUOUS
 62
     0
 10
0.0
 20
-5.0
 30
0.0
 11
0.0
 21
-7.75
 31
0.0
  0
LINE
  5
1BB
  8
0
  6
CONTINUOUS
 62
     0
 10
5.0
 20
0.0
 30
0.0
 11
7.75
 21
0.0
 31
0.0
  0
LINE
  5
1BC
  8
0
  6
CONTINUOUS
 62
     0
 10
0.0
 20
5.0
 30
0.0
 11
0.0
 21
7.75
 31
0.0
  0
LINE
  5
1BD
  8
0
  6
CONTINUOUS
 62
     0
 10
-5.0
 20
0.0
 30
0.0
 11
-7.75
 21
0.0
 31
0.0
  0
ENDBLK
  5
1B5
  8
0
  0
BLOCK
  8
0
  2
SW_CENTERMARKSYMBOL_2
 70
     0
 10
0.0
 20
0.0
 30
0.0
  3
SW_CENTERMARKSYMBOL_2
  1

  0
LINE
  5
1C2
  8
0
  6
CONTINUOUS
 62
     0
 10
0.0
 20
0.0
 30
0.0
 11
0.0
 21
-2.5
 31
0.0
  0
LINE
  5
1C3
  8
0
  6
CONTINUOUS
 62
     0
 10
0.0
 20
0.0
 30
0.0
 11
2.5
 21
0.0
 31
0.0
  0
LINE
  5
1C4
  8
0
  6
CONTINUOUS
 62
     0
 10
0.0
 20
0.0
 30
0.0
 11
0.0
 21
2.5
 31
0.0
  0
LINE
  5
1C5
  8
0
  6
CONTINUOUS
 62
     0
 10
0.0
 20
0.0
 30
0.0
 11
-2.5
 21
0.0
 31
0.0
  0
LINE
  5
1C6
  8
0
  6
CONTINUOUS
 62
     0
 10
0.0
 20
-5.0
 30
0.0
 11
0.0
 21
-7.75
 31
0.0
  0
LINE
  5
1C7
  8
0
  6
CONTINUOUS
 62
     0
 10
5.0
 20
0.0
 30
0.0
 11
17.9413383855
 21
0.0
 31
0.0
  0
LINE
  5
1C8
  8
0
  6
CONTINUOUS
 62
     0
 10
0.0
 20
5.0
 30
0.0
 11
0.0
 21
7.75
 31
0.0
  0
LINE
  5
1C9
  8
0
  6
CONTINUOUS
 62
     0
 10
-5.0
 20
0.0
 30
0.0
 11
-28.7443939287
 21
0.0
 31
0.0
  0
ENDBLK
  5
1C1
  8
0
  0
BLOCK
  8
0
  2
SW_CENTERMARKSYMBOL_3
 70
     0
 10
0.0
 20
0.0
 30
0.0
  3
SW_CENTERMARKSYMBOL_3
  1

  0
LINE
  5
1CE
  8
0
  6
CONTINUOUS
 62
     0
 10
0.0
 20
0.0
 30
0.0
 11
0.0
 21
-2.5
 31
0.0
  0
LINE
  5
1CF
  8
0
  6
CONTINUOUS
 62
     0
 10
0.0
 20
0.0
 30
0.0
 11
2.5
 21
0.0
 31
0.0
  0
LINE
  5
1D0
  8
0
  6
CONTINUOUS
 62
     0
 10
0.0
 20
0.0
 30
0.0
 11
0.0
 21
2.5
 31
0.0
  0
LINE
  5
1D1
  8
0
  6
CONTINUOUS
 62
     0
 10
0.0
 20
0.0
 30
0.0
 11
-2.5
 21
0.0
 31
0.0
  0
LINE
  5
1D2
  8
0
  6
CONTINUOUS
 62
     0
 10
0.0
 20
-5.0
 30
0.0
 11
0.0
 21
-7.75
 31
0.0
  0
LINE
  5
1D3
  8
0
  6
CONTINUOUS
 62
     0
 10
5.0
 20
0.0
 30
0.0
 11
7.75
 21
0.0
 31
0.0
  0
LINE
  5
1D4
  8
0
  6
CONTINUOUS
 62
     0
 10
0.0
 20
5.0
 30
0.0
 11
0.0
 21
7.75
 31
0.0
  0
LINE
  5
1D5
  8
0
  6
CONTINUOUS
 62
     0
 10
-5.0
 20
0.0
 30
0.0
 11
-7.75
 21
0.0
 31
0.0
  0
ENDBLK
  5
1CD
  8
0
  0
BLOCK
  8
0
  2
SW_CENTERMARKSYMBOL_4
 70
     0
 10
0.0
 20
0.0
 30
0.0
  3
SW_CENTERMARKSYMBOL_4
  1

  0
LINE
  5
1DA
  8
0
  6
CONTINUOUS
 62
     0
 10
0.0
 20
0.0
 30
0.0
 11
0.0
 21
-2.5
 31
0.0
  0
LINE
  5
1DB
  8
0
  6
CONTINUOUS
 62
     0
 10
0.0
 20
0.0
 30
0.0
 11
2.5
 21
0.0
 31
0.0
  0
LINE
  5
1DC
  8
0
  6
CONTINUOUS
 62
     0
 10
0.0
 20
0.0
 30
0.0
 11
0.0
 21
2.5
 31
0.0
  0
LINE
  5
1DD
  8
0
  6
CONTINUOUS
 62
     0
 10
0.0
 20
0.0
 30
0.0
 11
-2.5
 21
0.0
 31
0.0
  0
LINE
  5
1DE
  8
0
  6
CONTINUOUS
 62
     0
 10
0.0
 20
-5.0
 30
0.0
 11
0.0
 21
-7.75
 31
0.0
  0
LINE
  5
1DF
  8
0
  6
CONTINUOUS
 62
     0
 10
5.0
 20
0.0
 30
0.0
 11
7.75
 21
0.0
 31
0.0
  0
LINE
  5
1E0
  8
0
  6
CONTINUOUS
 62
     0
 10
0.0
 20
5.0
 30
0.0
 11
0.0
 21
7.75
 31
0.0
  0
LINE
  5
1E1
  8
0
  6
CONTINUOUS
 62
     0
 10
-5.0
 20
0.0
 30
0.0
 11
-7.75
 21
0.0
 31
0.0
  0
ENDBLK
  5
1D9
  8
0
  0
BLOCK
  8
0
  2
SW_CENTERMARKSYMBOL_5
 70
     0
 10
0.0
 20
0.0
 30
0.0
  3
SW_CENTERMARKSYMBOL_5
  1

  0
LINE
  5
1E6
  8
0
  6
CONTINUOUS
 62
     0
 10
0.0
 20
0.0
 30
0.0
 11
0.0
 21
-2.5
 31
0.0
  0
LINE
  5
1E7
  8
0
  6
CONTINUOUS
 62
     0
 10
0.0
 20
0.0
 30
0.0
 11
2.5
 21
0.0
 31
0.0
  0
LINE
  5
1E8
  8
0
  6
CONTINUOUS
 62
     0
 10
0.0
 20
0.0
 30
0.0
 11
0.0
 21
2.5
 31
0.0
  0
LINE
  5
1E9
  8
0
  6
CONTINUOUS
 62
     0
 10
0.0
 20
0.0
 30
0.0
 11
-2.5
 21
0.0
 31
0.0
  0
LINE
  5
1EA
  8
0
  6
CONTINUOUS
 62
     0
 10
0.0
 20
-5.0
 30
0.0
 11
0.0
 21
-7.75
 31
0.0
  0
LINE
  5
1EB
  8
0
  6
CONTINUOUS
 62
     0
 10
5.0
 20
0.0
 30
0.0
 11
7.75
 21
0.0
 31
0.0
  0
LINE
  5
1EC
  8
0
  6
CONTINUOUS
 62
     0
 10
0.0
 20
5.0
 30
0.0
 11
0.0
 21
7.75
 31
0.0
  0
LINE
  5
1ED
  8
0
  6
CONTINUOUS
 62
     0
 10
-5.0
 20
0.0
 30
0.0
 11
-7.75
 21
0.0
 31
0.0
  0
ENDBLK
  5
1E5
  8
0
  0
BLOCK
  8
0
  2
SW_CENTERMARKSYMBOL_6
 70
     0
 10
0.0
 20
0.0
 30
0.0
  3
SW_CENTERMARKSYMBOL_6
  1

  0
LINE
  5
1F2
  8
0
  6
CONTINUOUS
 62
     0
 10
0.0
 20
0.0
 30
0.0
 11
0.0
 21
-2.5
 31
0.0
  0
LINE
  5
1F3
  8
0
  6
CONTINUOUS
 62
     0
 10
0.0
 20
0.0
 30
0.0
 11
2.5
 21
0.0
 31
0.0
  0
LINE
  5
1F4
  8
0
  6
CONTINUOUS
 62
     0
 10
0.0
 20
0.0
 30
0.0
 11
0.0
 21
2.5
 31
0.0
  0
LINE
  5
1F5
  8
0
  6
CONTINUOUS
 62
     0
 10
0.0
 20
0.0
 30
0.0
 11
-2.5
 21
0.0
 31
0.0
  0
LINE
  5
1F6
  8
0
  6
CONTINUOUS
 62
     0
 10
0.0
 20
-5.0
 30
0.0
 11
0.0
 21
-7.75
 31
0.0
  0
LINE
  5
1F7
  8
0
  6
CONTINUOUS
 62
     0
 10
5.0
 20
0.0
 30
0.0
 11
7.75
 21
0.0
 31
0.0
  0
LINE
  5
1F8
  8
0
  6
CONTINUOUS
 62
     0
 10
0.0
 20
5.0
 30
0.0
 11
0.0
 21
7.75
 31
0.0
  0
LINE
  5
1F9
  8
0
  6
CONTINUOUS
 62
     0
 10
-5.0
 20
0.0
 30
0.0
 11
-7.75
 21
0.0
 31
0.0
  0
ENDBLK
  5
1F1
  8
0
  0
BLOCK
  8
0
  2
SW_CENTERMARKSYMBOL_7
 70
     0
 10
0.0
 20
0.0
 30
0.0
  3
SW_CENTERMARKSYMBOL_7
  1

  0
LINE
  5
1FE
  8
0
  6
CONTINUOUS
 62
     0
 10
0.0
 20
0.0
 30
0.0
 11
0.0
 21
-2.5
 31
0.0
  0
LINE
  5
1FF
  8
0
  6
CONTINUOUS
 62
     0
 10
0.0
 20
0.0
 30
0.0
 11
2.5
 21
0.0
 31
0.0
  0
LINE
  5
200
  8
0
  6
CONTINUOUS
 62
     0
 10
0.0
 20
0.0
 30
0.0
 11
0.0
 21
2.5
 31
0.0
  0
LINE
  5
201
  8
0
  6
CONTINUOUS
 62
     0
 10
0.0
 20
0.0
 30
0.0
 11
-2.5
 21
0.0
 31
0.0
  0
LINE
  5
202
  8
0
  6
CONTINUOUS
 62
     0
 10
0.0
 20
-5.0
 30
0.0
 11
0.0
 21
-7.75
 31
0.0
  0
LINE
  5
203
  8
0
  6
CONTINUOUS
 62
     0
 10
5.0
 20
0.0
 30
0.0
 11
28.8760472719
 21
0.0
 31
0.0
  0
LINE
  5
204
  8
0
  6
CONTINUOUS
 62
     0
 10
0.0
 20
5.0
 30
0.0
 11
0.0
 21
7.75
 31
0.0
  0
LINE
  5
205
  8
0
  6
CONTINUOUS
 62
     0
 10
-5.0
 20
0.0
 30
0.0
 11
-17.6199056426
 21
0.0
 31
0.0
  0
ENDBLK
  5
1FD
  8
0
  0
BLOCK
  8
0
  2
SW_CENTERMARKSYMBOL_8
 70
     0
 10
0.0
 20
0.0
 30
0.0
  3
SW_CENTERMARKSYMBOL_8
  1

  0
LINE
  5
20A
  8
0
  6
CONTINUOUS
 62
     0
 10
0.0
 20
0.0
 30
0.0
 11
0.0
 21
-2.5
 31
0.0
  0
LINE
  5
20B
  8
0
  6
CONTINUOUS
 62
     0
 10
0.0
 20
0.0
 30
0.0
 11
2.5
 21
0.0
 31
0.0
  0
LINE
  5
20C
  8
0
  6
CONTINUOUS
 62
     0
 10
0.0
 20
0.0
 30
0.0
 11
0.0
 21
2.5
 31
0.0
  0
LINE
  5
20D
  8
0
  6
CONTINUOUS
 62
     0
 10
0.0
 20
0.0
 30
0.0
 11
-2.5
 21
0.0
 31
0.0
  0
LINE
  5
20E
  8
0
  6
CONTINUOUS
 62
     0
 10
0.0
 20
-5.0
 30
0.0
 11
0.0
 21
-7.75
 31
0.0
  0
LINE
  5
20F
  8
0
  6
CONTINUOUS
 62
     0
 10
5.0
 20
0.0
 30
0.0
 11
7.75
 21
0.0
 31
0.0
  0
LINE
  5
210
  8
0
  6
CONTINUOUS
 62
     0
 10
0.0
 20
5.0
 30
0.0
 11
0.0
 21
7.75
 31
0.0
  0
LINE
  5
211
  8
0
  6
CONTINUOUS
 62
     0
 10
-5.0
 20
0.0
 30
0.0
 11
-7.75
 21
0.0
 31
0.0
  0
ENDBLK
  5
209
  8
0
  0
BLOCK
  8
0
  2
SW_CENTERMARKSYMBOL_9
 70
     0
 10
0.0
 20
0.0
 30
0.0
  3
SW_CENTERMARKSYMBOL_9
  1

  0
LINE
  5
216
  8
0
  6
CONTINUOUS
 62
     0
 10
0.0
 20
0.0
 30
0.0
 11
0.0
 21
-2.5
 31
0.0
  0
LINE
  5
217
  8
0
  6
CONTINUOUS
 62
     0
 10
0.0
 20
0.0
 30
0.0
 11
2.5
 21
0.0
 31
0.0
  0
LINE
  5
218
  8
0
  6
CONTINUOUS
 62
     0
 10
0.0
 20
0.0
 30
0.0
 11
0.0
 21
2.5
 31
0.0
  0
LINE
  5
219
  8
0
  6
CONTINUOUS
 62
     0
 10
0.0
 20
0.0
 30
0.0
 11
-2.5
 21
0.0
 31
0.0
  0
LINE
  5
21A
  8
0
  6
CONTINUOUS
 62
     0
 10
0.0
 20
-5.0
 30
0.0
 11
0.0
 21
-7.75
 31
0.0
  0
LINE
  5
21B
  8
0
  6
CONTINUOUS
 62
     0
 10
5.0
 20
0.0
 30
0.0
 11
7.75
 21
0.0
 31
0.0
  0
LINE
  5
21C
  8
0
  6
CONTINUOUS
 62
     0
 10
0.0
 20
5.0
 30
0.0
 11
0.0
 21
7.75
 31
0.0
  0
LINE
  5
21D
  8
0
  6
CONTINUOUS
 62
     0
 10
-5.0
 20
0.0
 30
0.0
 11
-7.75
 21
0.0
 31
0.0
  0
ENDBLK
  5
215
  8
0
  0
BLOCK
  8
0
  2
_D_11
 70
     0
 10
0.0
 20
0.0
 30
0.0
  3
_D_11
  1

  0
SOLID
  5
24F
  8
0
  6
CONTINUOUS
 62
     7
 10
94.7554968017
 20
83.5813491047
 30
0.0
 11
91.9066733874
 21
85.3203733007
 31
0.0
 12
91.5193871989
 22
84.3984137527
 32
0.0
 13
91.5193871989
 23
84.3984137527
 33
0.0
  0
LINE
  5
250
  8
0
  6
CONTINUOUS
 62
     7
 10
94.7554968017
 20
83.5813491047
 30
0.0
 11
77.8293638511
 21
90.6914848262
 31
0.0
  0
TEXT
  5
251
  8
0
  6
CONTINUOUS
 62
     7
 10
78.3006662926
 20
91.8134504393
 30
0.0070446308
 40
3.5
  1
%%c
 50
-22.7857431681
 41
0.7
 11
77.8218216923
 21
90.6735302348
 31
0.0070446308
 73
     1
  0
TEXT
  5
252
  8
0
  6
CONTINUOUS
 62
     7
 10
83.0091465089
 20
89.8461113611
 30
0.0070446308
 40
3.5
  1
20
 50
-22.7857431681
 41
0.7
 11
82.5303019087
 21
88.7061911565
 31
0.0070446308
 73
     1
  0
ENDBLK
  5
24E
  8
0
  0
BLOCK
  8
0
  2
_D_12
 70
     0
 10
0.0
 20
0.0
 30
0.0
  3
_D_12
  1

  0
SOLID
  5
258
  8
0
  6
CONTINUOUS
 62
     7
 10
103.9289943046
 20
96.932527029
 30
0.0
 11
107.2289943046
 21
96.432527029
 31
0.0
 12
107.2289943046
 22
97.432527029
 32
0.0
 13
107.2289943046
 23
97.432527029
 33
0.0
  0
SOLID
  5
259
  8
0
  6
CONTINUOUS
 62
     7
 10
148.9289943046
 20
96.932527029
 30
0.0
 11
145.6289943046
 21
97.432527029
 31
0.0
 12
145.6289943046
 22
96.432527029
 32
0.0
 13
145.6289943046
 23
96.432527029
 33
0.0
  0
LINE
  5
25A
  8
0
  6
CONTINUOUS
 62
     7
 10
103.9289943046
 20
93.1778515292
 30
0.0
 11
103.9289943046
 21
97.932527029
 31
0.0
  0
LINE
  5
25B
  8
0
  6
CONTINUOUS
 62
     7
 10
148.9289943046
 20
84.7278515292
 30
0.0
 11
148.9289943046
 21
97.932527029
 31
0.0
  0
LINE
  5
25C
  8
0
  6
CONTINUOUS
 62
     7
 10
103.9289943046
 20
96.932527029
 30
0.0
 11
148.9289943046
 21
96.932527029
 31
0.0
  0
TEXT
  5
25D
  8
0
  6
CONTINUOUS
 62
     7
 10
119.7641677699
 20
98.1689374785
 30
0.0070446308
 40
3.5
  1
45
 50
360.0
 41
0.7
 11
119.7641677699
 21
96.9325272618
 31
0.0070446308
 73
     1
  0
TEXT
  5
25E
  8
0
  6
CONTINUOUS
 62
     7
 10
125.1113898597
 20
98.1689374785
 30
0.0070446308
 40
3.5
  1
 
 50
360.0
 41
0.7
 11
125.1113898597
 21
96.9325272618
 31
0.0070446308
 73
     1
  0
TEXT
  5
25F
  8
0
  6
CONTINUOUS
 62
     7
 10
126.4481953821
 20
101.2591255176
 30
0.0070446308
 40
2.45
  1
+
 50
360.0
 41
0.7
 11
126.4481953821
 21
100.3936383659
 31
0.0070446308
 73
     1
  0
TEXT
  5
260
  8
0
  6
CONTINUOUS
 62
     7
 10
126.9637162749
 20
98.0945421662
 30
0.0070446308
 40
2.45
  1
 
 50
360.0
 41
0.7
 11
126.9637162749
 21
97.2290550145
 31
0.0070446308
 73
     1
  0
TEXT
  5
261
  8
0
  6
CONTINUOUS
 62
     7
 10
128.4150015107
 20
101.2591255176
 30
0.0070446308
 40
2.45
  1
0,2
 50
360.0
 41
0.7
 11
128.4150015107
 21
100.3936383659
 31
0.0070446308
 73
     1
  0
TEXT
  5
262
  8
0
  6
CONTINUOUS
 62
     7
 10
128.4150015107
 20
98.0945421662
 30
0.0070446308
 40
2.45
  1
0
 50
360.0
 41
0.7
 11
128.4150015107
 21
97.2290550145
 31
0.0070446308
 73
     1
  0
ENDBLK
  5
257
  8
0
  0
BLOCK
  8
0
  2
_D_13
 70
     0
 10
0.0
 20
0.0
 30
0.0
  3
_D_13
  1

  0
SOLID
  5
268
  8
0
  6
CONTINUOUS
 62
     7
 10
158.9289943046
 20
83.7278515292
 30
0.0
 11
159.4289943046
 21
87.0278515292
 31
0.0
 12
158.4289943046
 22
87.0278515292
 32
0.0
 13
158.4289943046
 23
87.0278515292
 33
0.0
  0
SOLID
  5
269
  8
0
  6
CONTINUOUS
 62
     7
 10
158.9289943046
 20
80.7278515292
 30
0.0
 11
158.4289943046
 21
77.4278515292
 31
0.0
 12
159.4289943046
 22
77.4278515292
 32
0.0
 13
159.4289943046
 23
77.4278515292
 33
0.0
  0
LINE
  5
26A
  8
0
  6
CONTINUOUS
 62
     7
 10
149.9289943046
 20
83.7278515292
 30
0.0
 11
159.9289943046
 21
83.7278515292
 31
0.0
  0
LINE
  5
26B
  8
0
  6
CONTINUOUS
 62
     7
 10
149.9289943046
 20
80.7278515292
 30
0.0
 11
159.9289943046
 21
80.7278515292
 31
0.0
  0
LINE
  5
26C
  8
0
  6
CONTINUOUS
 62
     7
 10
158.9289943046
 20
83.7278515292
 30
0.0
 11
158.9289943046
 21
96.0400279237
 31
0.0
  0
LINE
  5
26D
  8
0
  6
CONTINUOUS
 62
     7
 10
158.9289943046
 20
83.7278515292
 30
0.0
 11
158.9289943046
 21
80.7278515292
 31
0.0
  0
LINE
  5
26E
  8
0
  6
CONTINUOUS
 62
     7
 10
158.9289943046
 20
80.7278515292
 30
0.0
 11
158.9289943046
 21
74.4778515292
 31
0.0
  0
TEXT
  5
26F
  8
0
  6
CONTINUOUS
 62
     7
 10
157.692583855
 20
86.2312780319
 30
0.0070446308
 40
3.5
  1
3
 50
90.0
 41
0.7
 11
158.9289940717
 21
86.2312780319
 31
0.0070446308
 73
     1
  0
TEXT
  5
270
  8
0
  6
CONTINUOUS
 62
     7
 10
157.692583855
 20
88.9048890768
 30
0.0070446308
 40
3.5
  1
 
 50
90.0
 41
0.7
 11
158.9289940717
 21
88.9048890768
 31
0.0070446308
 73
     1
  0
TEXT
  5
271
  8
0
  6
CONTINUOUS
 62
     7
 10
154.6023958159
 20
90.3335696003
 30
0.0070446308
 40
2.45
  1
 
 50
90.0
 41
0.7
 11
155.4678829676
 21
90.3335696003
 31
0.0070446308
 73
     1
  0
TEXT
  5
272
  8
0
  6
CONTINUOUS
 62
     7
 10
157.7669791674
 20
90.2416945992
 30
0.0070446308
 40
2.45
  1
-
 50
90.0
 41
0.7
 11
158.6324663191
 21
90.2416945992
 31
0.0070446308
 73
     1
  0
TEXT
  5
273
  8
0
  6
CONTINUOUS
 62
     7
 10
154.6023958159
 20
91.3612085952
 30
0.0070446308
 40
2.45
  1
0
 50
90.0
 41
0.7
 11
155.4678829676
 21
91.3612085952
 31
0.0070446308
 73
     1
  0
TEXT
  5
274
  8
0
  6
CONTINUOUS
 62
     7
 10
157.7669791674
 20
91.3612085952
 30
0.0070446308
 40
2.45
  1
0,1
 50
90.0
 41
0.7
 11
158.6324663191
 21
91.3612085952
 31
0.0070446308
 73
     1
  0
ENDBLK
  5
267
  8
0
  0
BLOCK
  8
0
  2
_D_14
 70
     0
 10
0.0
 20
0.0
 30
0.0
  3
_D_14
  1

  0
SOLID
  5
27A
  8
0
  6
CONTINUOUS
 62
     7
 10
167.1837685255
 20
83.7278515292
 30
0.0
 11
166.6837685255
 21
80.4278515292
 31
0.0
 12
167.6837685255
 22
80.4278515292
 32
0.0
 13
167.6837685255
 23
80.4278515292
 33
0.0
  0
SOLID
  5
27B
  8
0
  6
CONTINUOUS
 62
     7
 10
167.1837685255
 20
75.7278515292
 30
0.0
 11
167.6837685255
 21
79.0278515292
 31
0.0
 12
166.6837685255
 22
79.0278515292
 32
0.0
 13
166.6837685255
 23
79.0278515292
 33
0.0
  0
LINE
  5
27C
  8
0
  6
CONTINUOUS
 62
     7
 10
149.9289943046
 20
83.7278515292
 30
0.0
 11
168.1837685255
 21
83.7278515292
 31
0.0
  0
LINE
  5
27D
  8
0
  6
CONTINUOUS
 62
     7
 10
149.9289943046
 20
75.7278515292
 30
0.0
 11
168.1837685255
 21
75.7278515292
 31
0.0
  0
LINE
  5
27E
  8
0
  6
CONTINUOUS
 62
     7
 10
167.1837685255
 20
83.7278515292
 30
0.0
 11
167.1837685255
 21
95.4776453853
 31
0.0
  0
LINE
  5
27F
  8
0
  6
CONTINUOUS
 62
     7
 10
167.1837685255
 20
83.7278515292
 30
0.0
 11
167.1837685255
 21
75.7278515292
 31
0.0
  0
TEXT
  5
280
  8
0
  6
CONTINUOUS
 62
     7
 10
165.947358076
 20
84.9407008916
 30
0.0070446308
 40
3.5
  1
8
 50
90.0
 41
0.7
 11
167.1837682927
 21
84.9407008916
 31
0.0070446308
 73
     1
  0
TEXT
  5
281
  8
0
  6
CONTINUOUS
 62
     7
 10
165.947358076
 20
87.6143119365
 30
0.0070446308
 40
3.5
  1
 
 50
90.0
 41
0.7
 11
167.1837682927
 21
87.6143119365
 31
0.0070446308
 73
     1
  0
TEXT
  5
282
  8
0
  6
CONTINUOUS
 62
     7
 10
166.014947865
 20
88.9511174589
 30
0.0070446308
 40
2.45
  1
±0,1
 50
90.0
 41
0.7
 11
166.8804350167
 21
88.9511174589
 31
0.0070446308
 73
     1
  0
ENDBLK
  5
279
  8
0
  0
BLOCK
  8
0
  2
SW_CENTERMARKSYMBOL_10
 70
     0
 10
0.0
 20
0.0
 30
0.0
  3
SW_CENTERMARKSYMBOL_10
  1

  0
LINE
  5
286
  8
0
  6
CONTINUOUS
 62
     0
 10
0.0
 20
0.0
 30
0.0
 11
0.0
 21
2.5
 31
0.0
  0
LINE
  5
287
  8
0
  6
CONTINUOUS
 62
     0
 10
0.0
 20
0.0
 30
0.0
 11
-2.5
 21
0.0
 31
0.0
  0
LINE
  5
288
  8
0
  6
CONTINUOUS
 62
     0
 10
0.0
 20
0.0
 30
0.0
 11
0.0
 21
-2.5
 31
0.0
  0
LINE
  5
289
  8
0
  6
CONTINUOUS
 62
     0
 10
0.0
 20
0.0
 30
0.0
 11
2.5
 21
0.0
 31
0.0
  0
LINE
  5
28A
  8
0
  6
CONTINUOUS
 62
     0
 10
0.0
 20
5.0
 30
0.0
 11
0.0
 21
12.45
 31
0.0
  0
LINE
  5
28B
  8
0
  6
CONTINUOUS
 62
     0
 10
-5.0
 20
0.0
 30
0.0
 11
-12.45
 21
0.0
 31
0.0
  0
LINE
  5
28C
  8
0
  6
CONTINUOUS
 62
     0
 10
0.0
 20
-5.0
 30
0.0
 11
0.0
 21
-12.45
 31
0.0
  0
LINE
  5
28D
  8
0
  6
CONTINUOUS
 62
     0
 10
5.0
 20
0.0
 30
0.0
 11
12.45
 21
0.0
 31
0.0
  0
ENDBLK
  5
285
  8
0
  0
ENDSEC
  0
SECTION
  2
ENTITIES
  0
LINE
  5
74
  8
0
  6
CONTINUOUS
 62
     7
 10
17.8
 20
60.25
 30
0.0
 11
17.8
 21
5.0
 31
0.0
  0
LINE
  5
75
  8
0
  6
CONTINUOUS
 62
     7
 10
25.42
 20
43.25
 30
0.0
 11
25.42
 21
5.0
 31
0.0
  0
LINE
  5
76
  8
0
  6
CONTINUOUS
 62
     7
 10
50.82
 20
5.0
 30
0.0
 11
50.82
 21
43.25
 31
0.0
  0
LINE
  5
77
  8
0
  6
CONTINUOUS
 62
     7
 10
71.14
 20
22.0
 30
0.0
 11
205.0
 21
22.0
 31
0.0
  0
LINE
  5
78
  8
0
  6
CONTINUOUS
 62
     7
 10
205.0
 20
43.25
 30
0.0
 11
17.8
 21
43.25
 31
0.0
  0
LINE
  5
79
  8
0
  6
CONTINUOUS
 62
     7
 10
17.8
 20
60.25
 30
0.0
 11
205.0
 21
60.25
 31
0.0
  0
LINE
  5
7A
  8
0
  6
CONTINUOUS
 62
     7
 10
71.14
 20
38.9447711707
 30
0.0
 11
17.8
 21
38.9447711707
 31
0.0
  0
LINE
  5
7B
  8
0
  6
CONTINUOUS
 62
     7
 10
71.14
 20
5.0
 30
0.0
 11
71.14
 21
60.25
 31
0.0
  0
LINE
  5
7C
  8
0
  6
CONTINUOUS
 62
     7
 10
114.32
 20
60.25
 30
0.0
 11
114.32
 21
5.0
 31
0.0
  0
LINE
  5
7D
  8
0
  6
CONTINUOUS
 62
     7
 10
63.52
 20
43.25
 30
0.0
 11
63.52
 21
5.0
 31
0.0
  0
LINE
  5
7E
  8
0
  6
CONTINUOUS
 62
     7
 10
80.5491845626
 20
22.0
 30
0.0
 11
80.5491845626
 21
43.25
 31
0.0
  0
LINE
  5
7F
  8
0
  6
CONTINUOUS
 62
     7
 10
71.14
 20
13.5
 30
0.0
 11
17.8
 21
13.5
 31
0.0
  0
LINE
  5
80
  8
0
  6
CONTINUOUS
 62
     7
 10
96.6969257405
 20
43.25
 30
0.0
 11
96.6969257405
 21
22.0
 31
0.0
  0
LINE
  5
81
  8
0
  6
CONTINUOUS
 62
     7
 10
158.48
 20
5.0
 30
0.0
 11
158.48
 21
9.25
 31
0.0
  0
LINE
  5
82
  8
0
  6
CONTINUOUS
 62
     7
 10
166.28
 20
53.875
 30
0.0
 11
166.28
 21
60.25
 31
0.0
  0
LINE
  5
83
  8
0
  6
CONTINUOUS
 62
     7
 10
17.8
 20
9.23
 30
0.0
 11
71.14
 21
9.23
 31
0.0
  0
LINE
  5
84
  8
0
  6
CONTINUOUS
 62
     7
 10
189.68
 20
9.25
 30
0.0
 11
189.68
 21
22.0
 31
0.0
  0
LINE
  5
85
  8
0
  6
CONTINUOUS
 62
     7
 10
205.0
 20
53.875
 30
0.0
 11
114.32
 21
53.875
 31
0.0
  0
LINE
  5
86
  8
0
  6
CONTINUOUS
 62
     7
 10
205.0
 20
5.0
 30
0.0
 11
205.0
 21
60.25
 31
0.0
  0
LINE
  5
87
  8
0
  6
CONTINUOUS
 62
     7
 10
17.8
 20
5.0
 30
0.0
 11
205.0
 21
5.0
 31
0.0
  0
LINE
  5
88
  8
0
  6
CONTINUOUS
 62
     7
 10
71.14
 20
17.75
 30
0.0
 11
17.8
 21
17.75
 31
0.0
  0
LINE
  5
89
  8
0
  6
CONTINUOUS
 62
     7
 10
71.14
 20
22.0
 30
0.0
 11
17.8
 21
22.0
 31
0.0
  0
LINE
  5
8A
  8
0
  6
CONTINUOUS
 62
     7
 10
114.32
 20
26.25
 30
0.0
 11
17.8
 21
26.25
 31
0.0
  0
LINE
  5
8B
  8
0
  6
CONTINUOUS
 62
     7
 10
114.32
 20
30.5
 30
0.0
 11
17.8
 21
30.5
 31
0.0
  0
LINE
  5
8C
  8
0
  6
CONTINUOUS
 62
     7
 10
114.32
 20
34.75
 30
0.0
 11
17.8
 21
34.75
 31
0.0
  0
LINE
  5
8D
  8
0
  6
CONTINUOUS
 62
     7
 10
114.32
 20
38.9447711707
 30
0.0
 11
71.14
 21
38.9447711707
 31
0.0
  0
LINE
  5
8E
  8
0
  6
CONTINUOUS
 62
     7
 10
205.0
 20
13.5
 30
0.0
 11
189.68
 21
13.5
 31
0.0
  0
LINE
  5
8F
  8
0
  6
CONTINUOUS
 62
     7
 10
17.8
 20
291.3419137656
 30
0.0
 11
205.0
 21
291.3419137656
 31
0.0
  0
LINE
  5
90
  8
0
  6
CONTINUOUS
 62
     7
 10
114.32
 20
9.23
 30
0.0
 11
205.0
 21
9.23
 31
0.0
  0
LINE
  5
91
  8
0
  6
CONTINUOUS
 62
     7
 10
12.8
 20
5.0
 30
0.0
 11
17.8
 21
5.0
 31
0.0
  0
LINE
  5
92
  8
0
  6
CONTINUOUS
 62
     7
 10
12.8
 20
285.7710619541
 30
0.0
 11
12.8
 21
5.0
 31
0.0
  0
LINE
  5
93
  8
0
  6
CONTINUOUS
 62
     7
 10
17.8
 20
48.5
 30
0.0
 11
12.8
 21
48.5
 31
0.0
  0
LINE
  5
94
  8
0
  6
CONTINUOUS
 62
     7
 10
17.8
 20
285.7710619541
 30
0.0
 11
17.8
 21
60.25
 31
0.0
  0
LINE
  5
95
  8
0
  6
CONTINUOUS
 62
     7
 10
205.0
 20
60.25
 30
0.0
 11
205.0
 21
285.7710619541
 31
0.0
  0
LINE
  5
96
  8
0
  6
CONTINUOUS
 62
     7
 10
205.0
 20
285.7710619541
 30
0.0
 11
17.8
 21
285.7710619541
 31
0.0
  0
LINE
  5
97
  8
0
  6
CONTINUOUS
 62
     7
 10
12.8
 20
98.5
 30
0.0
 11
17.8
 21
98.5
 31
0.0
  0
LINE
  5
98
  8
0
  6
CONTINUOUS
 62
     7
 10
12.8
 20
198.5
 30
0.0
 11
17.8
 21
198.5
 31
0.0
  0
LINE
  5
99
  8
0
  6
CONTINUOUS
 62
     7
 10
17.8
 20
248.5
 30
0.0
 11
12.8
 21
248.5
 31
0.0
  0
LINE
  5
9A
  8
0
  6
CONTINUOUS
 62
     7
 10
58.9
 20
285.7710619541
 30
0.0
 11
58.9
 21
291.3419137656
 31
0.0
  0
LINE
  5
9B
  8
0
  6
CONTINUOUS
 62
     7
 10
158.9
 20
285.7710619541
 30
0.0
 11
158.9
 21
291.3419137656
 31
0.0
  0
LINE
  5
9C
  8
0
  6
CONTINUOUS
 62
     7
 10
17.8
 20
285.7710619541
 30
0.0
 11
12.8
 21
285.7710619541
 31
0.0
  0
LINE
  5
9D
  8
0
  6
CONTINUOUS
 62
     7
 10
17.8
 20
285.7710619541
 30
0.0
 11
17.8
 21
291.3419137656
 31
0.0
  0
LINE
  5
9E
  8
0
  6
CONTINUOUS
 62
     7
 10
205.0
 20
285.7710619541
 30
0.0
 11
205.0
 21
291.3419137656
 31
0.0
  0
LINE
  5
9F
  8
0
  6
CONTINUOUS
 62
     7
 10
108.9
 20
291.3419137656
 30
0.0
 11
108.9
 21
281.3319032507
 31
0.0
  0
LINE
  5
A0
  8
0
  6
CONTINUOUS
 62
     7
 10
12.8
 20
148.5
 30
0.0
 11
22.8
 21
148.5
 31
0.0
  0
TEXT
  5
A1
  8
0
  6
CONTINUOUS
 62
     7
 10
14.4666666667
 20
172.9348266002
 30
0.0
 40
1.8520833333
  1
C
 41
0.7
 11
14.4666666667
 21
172.2805595272
 31
0.0
 73
     1
  0
TEXT
  5
A2
  8
0
  6
CONTINUOUS
 62
     7
 10
83.0666696667
 20
288.4580756206
 30
0.0
 40
1.8520833333
  1
2
 41
0.7
 11
83.0666696667
 21
287.8038085475
 31
0.0
 73
     1
  0
TEXT
  5
A3
  8
0
  6
CONTINUOUS
 62
     7
 10
133.0666696667
 20
288.4580756206
 30
0.0
 40
1.8520833333
  1
3
 41
0.7
 11
133.0666696667
 21
287.8038085475
 31
0.0
 73
     1
  0
TEXT
  5
A4
  8
0
  6
CONTINUOUS
 62
     7
 10
33.4833363333
 20
288.4580756206
 30
0.0
 40
1.8520833333
  1
1
 41
0.7
 11
33.4833363333
 21
287.8038085475
 31
0.0
 73
     1
  0
TEXT
  5
A5
  8
0
  6
CONTINUOUS
 62
     7
 10
183.0666606667
 20
288.4580756206
 30
0.0
 40
1.8520833333
  1
4
 41
0.7
 11
183.0666606667
 21
287.8038085475
 31
0.0
 73
     1
  0
TEXT
  5
A6
  8
0
  6
CONTINUOUS
 62
     7
 10
14.4666666667
 20
222.9348266002
 30
0.0
 40
1.8520833333
  1
B
 41
0.7
 11
14.4666666667
 21
222.2805595272
 31
0.0
 73
     1
  0
TEXT
  5
A7
  8
0
  6
CONTINUOUS
 62
     7
 10
14.4666666667
 20
272.9348266002
 30
0.0
 40
1.8520833333
  1
A
 41
0.7
 11
14.4666666667
 21
272.2805595272
 31
0.0
 73
     1
  0
TEXT
  5
A8
  8
0
  6
CONTINUOUS
 62
     7
 10
14.4666666667
 20
122.9348266002
 30
0.0
 40
1.8520833333
  1
D
 41
0.7
 11
14.4666666667
 21
122.2805595272
 31
0.0
 73
     1
  0
TEXT
  5
A9
  8
0
  6
CONTINUOUS
 62
     7
 10
14.4666666667
 20
72.9348266002
 30
0.0
 40
1.8520833333
  1
E
 41
0.7
 11
14.4666666667
 21
72.2805595272
 31
0.0
 73
     1
  0
TEXT
  5
AA
  8
0
  6
CONTINUOUS
 62
     7
 10
14.4666666667
 20
22.9348266002
 30
0.0
 40
1.8520833333
  1
F
 41
0.7
 11
14.4666666667
 21
22.2805595272
 31
0.0
 73
     1
  0
TEXT
  5
AB
  8
0
  6
CONTINUOUS
 62
     7
 10
97.4976618519
 20
36.0024960752
 30
0.0
 40
2.0
  1
M. Olmesdahl
 41
0.7
 11
97.4976618519
 21
35.2959759514
 31
0.0
 73
     1
  0
TEXT
  5
AC
  8
0
  6
CONTINUOUS
 62
     7
 10
83.5583862902
 20
36.1435491418
 30
0.0
 40
2.0
  1
30.08.13
 41
0.7
 11
83.5583862902
 21
35.437029018
 31
0.0
 73
     1
  0
TEXT
  5
AD
  8
0
  6
CONTINUOUS
 62
     7
 10
115.8260642912
 20
31.8991350896
 30
0.0
 40
3.5
  1
060-7/160
 41
0.7
 11
115.8260642912
 21
30.6627248729
 31
0.0
 73
     1
  0
TEXT
  5
AE
  8
0
  6
CONTINUOUS
 62
     7
 10
18.6542475233
 20
5.8405442472
 30
0.0
 40
2.0
  1
Zust.
 41
0.7
 11
18.6542475233
 21
5.1340241233
 31
0.0
 73
     1
  0
TEXT
  5
AF
  8
0
  6
CONTINUOUS
 62
     7
 10
32.3236265502
 20
5.8405442472
 30
0.0
 40
2.0
  1
Änderung
 41
0.7
 11
32.3236265502
 21
5.1340241233
 31
0.0
 73
     1
  0
TEXT
  5
B0
  8
0
  6
CONTINUOUS
 62
     7
 10
63.7487245318
 20
5.8293213552
 30
0.0
 40
2.0
  1
Name
 41
0.7
 11
63.7487245318
 21
5.1228012314
 31
0.0
 73
     1
  0
TEXT
  5
B1
  8
0
  6
CONTINUOUS
 62
     7
 10
71.9346052427
 20
36.0024961334
 30
0.0
 40
2.0
  1
Bearb.
 41
0.7
 11
71.9346052427
 21
35.2959760096
 31
0.0
 73
     1
  0
TEXT
  5
B2
  8
0
  6
CONTINUOUS
 62
     7
 10
72.5538425523
 20
31.8123005822
 30
0.0
 40
2.0
  1
Gepr.
 41
0.7
 11
72.5538425523
 21
31.1057804584
 31
0.0
 73
     1
  0
TEXT
  5
B3
  8
0
  6
CONTINUOUS
 62
     7
 10
72.568021583
 20
27.5024931334
 30
0.0
 40
2.0
  1
Norm
 41
0.7
 11
72.568021583
 21
26.7959730096
 31
0.0
 73
     1
  0
INSERT
  5
B9
  8
0
  6
CONTINUOUS
 62
     7
  2
SW_NOTE_0
 10
116.1421941634
 20
54.7004161895
 30
0.0
  0
TEXT
  5
BA
  8
0
  6
CONTINUOUS
 62
     7
 10
83.8208978724
 20
40.2378571451
 30
0.0
 40
2.0
  1
Datum
 41
0.7
 11
83.8208978724
 21
39.5313370213
 31
0.0
 73
     1
  0
TEXT
  5
BB
  8
0
  6
CONTINUOUS
 62
     7
 10
100.9758605414
 20
40.2399684874
 30
0.0
 40
2.0
  1
Name
 41
0.7
 11
100.9758605414
 21
39.5334483635
 31
0.0
 73
     1
  0
TEXT
  5
BC
  8
0
  6
CONTINUOUS
 62
     7
 10
190.679992
 20
18.8834825574
 30
0.0
 40
2.5
  1
Blatt
 41
0.7
 11
190.679992
 21
18.0003324026
 31
0.0
 73
     1
  0
TEXT
  5
BD
  8
0
  6
CONTINUOUS
 62
     7
 10
191.6114022462
 20
14.9434680153
 30
0.0
 40
2.0
  1
1 (A4)
 41
0.7
 11
191.6114022462
 21
14.2369478915
 31
0.0
 73
     1
  0
TEXT
  5
BE
  8
0
  6
CONTINUOUS
 62
     7
 10
191.6114022462
 20
10.7163935227
 30
0.0
 40
2.0
  1
1 von 1
 41
0.6
 11
191.6114022462
 21
10.0098733989
 31
0.0
 73
     1
  0
TEXT
  5
BF
  8
0
  6
CONTINUOUS
 62
     7
 10
115.769379396
 20
6.0126746831
 30
0.0
 40
2.0
  1
Ers. für:
 41
0.7
 11
115.769379396
 21
5.3061545592
 31
0.0
 73
     1
  0
TEXT
  5
C0
  8
0
  6
CONTINUOUS
 62
     7
 10
159.3744127484
 20
6.1456631557
 30
0.0
 40
2.0
  1
Ers. durch: 
 41
0.6416666667
 11
159.3744127484
 21
5.4391430318
 31
0.0
 73
     1
  0
TEXT
  5
C1
  8
0
  6
CONTINUOUS
 62
     7
 10
115.8260642912
 20
38.8860690348
 30
0.0
 40
2.5
  1
Benennung:
 41
0.7
 11
115.8260642912
 21
38.00291888
 31
0.0
 73
     1
  0
TEXT
  5
C2
  8
0
  6
CONTINUOUS
 62
     7
 10
13.1158027405
 20
1.6107678962
 30
0.0
 40
2.1166666667
  1
K:\Kostruktionen\Objektbänder\Objektbänder Serie 060\060-7\160\
 41
0.6888888889
 11
13.1158027405
 21
0.8630340985
 31
0.0
 73
     1
  0
TEXT
  5
C3
  8
0
  6
CONTINUOUS
 62
     7
 10
116.3720674831
 20
17.4450861174
 30
0.0
 40
2.5
  1
ZEICHNUNGSNR.   Z 4935-1
 41
0.6416666667
 11
116.3720674831
 21
16.5619359626
 31
0.0
 73
     1
  0
TEXT
  5
C4
  8
0
  6
CONTINUOUS
 62
     7
 10
116.4245832263
 20
11.7244404863
 30
0.0
 40
2.5
  1
TEILENUMMER   
 41
0.625
 11
116.4245832263
 21
10.8412903315
 31
0.0
 73
     1
  0
TEXT
  5
C5
  8
0
  6
CONTINUOUS
 62
     7
 10
115.8260642912
 20
25.5459479208
 30
0.0
 40
3.5
  1
Holzzarge/ ungefälzte Tür - vers. Knopf
 41
0.6551282051
 11
115.8260642912
 21
24.3095377041
 31
0.0
 73
     1
  0
TEXT
  5
C6
  8
0
  6
CONTINUOUS
 62
     7
 10
53.2346620132
 20
5.8293213552
 30
0.0
 40
2.0
  1
Datum
 41
0.7
 11
53.2346620132
 21
5.1228012314
 31
0.0
 73
     1
  0
TEXT
  5
C7
  8
0
  6
CONTINUOUS
 62
     7
 10
64.1320000749
 20
10.2573817641
 30
0.0
 40
2.0
  1
-
 41
0.7
 11
64.1320000749
 21
9.5508616403
 31
0.0
 73
     1
  0
INSERT
  5
CF
  8
0
  6
CONTINUOUS
 62
     7
  2
SW_NOTE_0_1
 10
80.4226877706
 20
16.7269093507
 30
0.0
  0
LINE
  5
D0
  8
0
  6
CONTINUOUS
 62
     7
 10
113.8789943046
 20
153.1356005464
 30
0.0
 11
113.8789943046
 21
231.6356005464
 31
0.0
  0
LINE
  5
D1
  8
0
  6
CONTINUOUS
 62
     7
 10
93.9789943046
 20
231.5195742131
 30
0.0
 11
93.9789943046
 21
153.1280755464
 31
0.0
  0
LINE
  5
D2
  8
0
  6
CONTINUOUS
 62
     7
 10
112.6789943046
 20
231.6356005464
 30
0.0
 11
112.6789943046
 21
231.9356005464
 31
0.0
  0
LINE
  5
D3
  8
0
  6
CONTINUOUS
 62
     7
 10
95.1789943046
 20
231.9356005464
 30
0.0
 11
95.1789943046
 21
231.6356005464
 31
0.0
  0
ARC
  5
D4
  8
0
  6
CONTINUOUS
 62
     7
 10
95.3789943046
 20
231.9356005464
 30
0.0
 40
0.2000000000000171
 50
90.0
 51
180.0
  0
ARC
  5
D5
  8
0
  6
CONTINUOUS
 62
     7
 10
112.4789943046
 20
231.9356005464
 30
0.0
 40
0.2000000000000171
 50
0.0
 51
90.0
  0
LINE
  5
D6
  8
0
  6
CONTINUOUS
 62
     7
 10
95.1789943046
 20
231.9356005464
 30
0.0
 11
95.1789943046
 21
231.6356005464
 31
0.0
  0
LINE
  5
D7
  8
0
  6
CONTINUOUS
 62
     7
 10
112.6789943046
 20
231.6356005464
 30
0.0
 11
112.6789943046
 21
231.9356005464
 31
0.0
  0
LINE
  5
D8
  8
0
  6
CONTINUOUS
 62
     7
 10
112.6789943046
 20
152.8356005464
 30
0.0
 11
112.6789943046
 21
153.1356005464
 31
0.0
  0
LINE
  5
D9
  8
0
  6
CONTINUOUS
 62
     7
 10
95.1789943046
 20
153.1356005464
 30
0.0
 11
95.1789943046
 21
152.8356005464
 31
0.0
  0
ARC
  5
DA
  8
0
  6
CONTINUOUS
 62
     7
 10
95.3789943046
 20
152.8356005464
 30
0.0
 40
0.2000000000000028
 50
180.0
 51
270.0
  0
ARC
  5
DB
  8
0
  6
CONTINUOUS
 62
     7
 10
112.4789943046
 20
152.8356005464
 30
0.0
 40
0.2000000000000171
 50
270.0
 51
0.0
  0
LINE
  5
DC
  8
0
  6
CONTINUOUS
 62
     7
 10
112.6789943046
 20
152.8356005464
 30
0.0
 11
112.6789943046
 21
153.1356005464
 31
0.0
  0
LINE
  5
DD
  8
0
  6
CONTINUOUS
 62
     7
 10
95.1789943046
 20
153.1356005464
 30
0.0
 11
95.1789943046
 21
152.8356005464
 31
0.0
  0
LINE
  5
DE
  8
0
  6
CONTINUOUS
 62
     7
 10
99.4289943046
 20
232.6856005464
 30
0.0
 11
99.4289943046
 21
232.1356005464
 31
0.0
  0
LINE
  5
DF
  8
0
  6
CONTINUOUS
 62
     7
 10
99.4289943046
 20
152.6356005464
 30
0.0
 11
99.4289943046
 21
152.0856005464
 31
0.0
  0
LINE
  5
E0
  8
0
  6
CONTINUOUS
 62
     7
 10
108.4289943046
 20
152.0856005464
 30
0.0
 11
108.4289943046
 21
152.6356005464
 31
0.0
  0
LINE
  5
E1
  8
0
  6
CONTINUOUS
 62
     7
 10
108.4289943046
 20
232.1356005464
 30
0.0
 11
108.4289943046
 21
232.6856005464
 31
0.0
  0
LINE
  5
E2
  8
0
  6
CONTINUOUS
 62
     7
 10
93.9789943046
 20
272.5356005464
 30
0.0
 11
93.9789943046
 21
232.6856005464
 31
0.0
  0
LINE
  5
E3
  8
0
  6
CONTINUOUS
 62
     7
 10
113.8789943046
 20
232.8016268798
 30
0.0
 11
113.8789943046
 21
272.5431255464
 31
0.0
  0
LINE
  5
E4
  8
0
  6
CONTINUOUS
 62
     7
 10
93.9789943046
 20
152.0856005464
 30
0.0
 11
93.9789943046
 21
112.2356005464
 31
0.0
  0
LINE
  5
E5
  8
0
  6
CONTINUOUS
 62
     7
 10
113.8789943046
 20
112.3516268798
 30
0.0
 11
113.8789943046
 21
152.0931255464
 31
0.0
  0
LINE
  5
E6
  8
0
  6
CONTINUOUS
 62
     7
 10
93.9908583242
 20
153.1356005464
 30
0.0
 11
113.8789943046
 21
153.1356005464
 31
0.0
  0
LINE
  5
E7
  8
0
  6
CONTINUOUS
 62
     7
 10
93.9827822617
 20
153.2086881941
 30
0.0
 11
93.9908583242
 21
153.1356005464
 31
0.0
  0
LINE
  5
E8
  8
0
  6
CONTINUOUS
 62
     7
 10
93.9908583242
 20
231.6356005464
 30
0.0
 11
93.985183436
 21
231.5195742131
 31
0.0
  0
LINE
  5
E9
  8
0
  6
CONTINUOUS
 62
     7
 10
113.8789943046
 20
231.6356005464
 30
0.0
 11
93.9908583242
 21
231.6356005464
 31
0.0
  0
ARC
  5
EA
  8
0
  6
CONTINUOUS
 62
     7
 10
70.9289943046
 20
260.5356005464
 30
0.0
 40
12.00000000000001
 50
90.0
 51
180.0
  0
LINE
  5
EB
  8
0
  6
CONTINUOUS
 62
     7
 10
91.6286423066
 20
272.5356005464
 30
0.0
 11
70.9289943046
 21
272.5356005464
 31
0.0
  0
LINE
  5
EC
  8
0
  6
CONTINUOUS
 62
     7
 10
91.6286423066
 20
112.2356005464
 30
0.0
 11
70.9289943046
 21
112.2356005464
 31
0.0
  0
ARC
  5
ED
  8
0
  6
CONTINUOUS
 62
     7
 10
70.9289943046
 20
124.2356005464
 30
0.0
 40
11.99999999999999
 50
180.0
 51
270.0
  0
LINE
  5
EE
  8
0
  6
CONTINUOUS
 62
     7
 10
58.9289943046
 20
124.2356005464
 30
0.0
 11
58.9289943046
 21
260.5356005464
 31
0.0
  0
CIRCLE
  5
EF
  8
0
  6
CONTINUOUS
 62
     7
 10
68.9289943046
 20
227.3856005464
 30
0.0
 40
5.25
  0
CIRCLE
  5
F0
  8
0
  6
CONTINUOUS
 62
     7
 10
68.9289943046
 20
157.3856005464
 30
0.0
 40
5.250000000000028
  0
CIRCLE
  5
F1
  8
0
  6
CONTINUOUS
 62
     7
 10
78.9289943046
 20
122.3856005464
 30
0.0
 40
5.25
  0
CIRCLE
  5
F2
  8
0
  6
CONTINUOUS
 62
     7
 10
74.9289943046
 20
192.3856005464
 30
0.0
 40
5.25
  0
CIRCLE
  5
F3
  8
0
  6
CONTINUOUS
 62
     7
 10
78.9289943046
 20
262.3856005464
 30
0.0
 40
5.25
  0
CIRCLE
  5
F4
  8
0
  6
CONTINUOUS
 62
     7
 10
68.9289943046
 20
157.3856005464
 30
0.0
 40
3.0
  0
CIRCLE
  5
F5
  8
0
  6
CONTINUOUS
 62
     7
 10
78.9289943046
 20
122.3856005464
 30
0.0
 40
3.0
  0
CIRCLE
  5
F6
  8
0
  6
CONTINUOUS
 62
     7
 10
74.9289943046
 20
192.3856005464
 30
0.0
 40
3.0
  0
CIRCLE
  5
F7
  8
0
  6
CONTINUOUS
 62
     7
 10
68.9289943046
 20
227.3856005464
 30
0.0
 40
3.0
  0
LINE
  5
F8
  8
0
  6
CONTINUOUS
 62
     7
 10
91.6286423066
 20
272.5356005464
 30
0.0
 11
92.0752245652
 21
272.5356005464
 31
0.0
  0
LINE
  5
F9
  8
0
  6
CONTINUOUS
 62
     7
 10
92.0752245652
 20
272.5356005464
 30
0.0
 11
92.0752245652
 21
233.1356005464
 31
0.0
  0
ARC
  5
FA
  8
0
  6
CONTINUOUS
 62
     7
 10
93.9076281725
 20
233.5133922087
 30
0.0
 40
1.870943483949112
 50
191.6495941653
 51
267.7027426575
  0
LINE
  5
FB
  8
0
  6
CONTINUOUS
 62
     7
 10
93.8326333438
 20
153.1272487189
 30
0.0
 11
93.8326333438
 21
231.6439523739
 31
0.0
  0
POLYLINE
  5
FC
  8
0
  6
CONTINUOUS
 62
     7
 66
     1
 10
0.0
 20
0.0
 30
0.0
 70
   128
  0
VERTEX
  5
295
  8
0
  6
CONTINUOUS
 62
     7
 10
93.8326333438
 20
153.1272487189
 30
0.0
  0
VERTEX
  5
296
  8
0
  6
CONTINUOUS
 62
     7
 10
92.9315491956
 20
152.8139493879
 30
0.0
  0
VERTEX
  5
297
  8
0
  6
CONTINUOUS
 62
     7
 10
92.6058793007
 20
152.6359254851
 30
0.0
  0
VERTEX
  5
298
  8
0
  6
CONTINUOUS
 62
     7
 10
92.3805896692
 20
152.4436520907
 30
0.0
  0
VERTEX
  5
299
  8
0
  6
CONTINUOUS
 62
     7
 10
92.1990732077
 20
152.0944048887
 30
0.0
  0
VERTEX
  5
29A
  8
0
  6
CONTINUOUS
 62
     7
 10
92.0752245652
 20
151.6356005464
 30
0.0
  0
SEQEND
  5
2A4
  8
0
  6
CONTINUOUS
 62
     7
  0
LINE
  5
FD
  8
0
  6
CONTINUOUS
 62
     7
 10
92.0752245652
 20
151.6356005464
 30
0.0
 11
92.0752245652
 21
112.2356005464
 31
0.0
  0
LINE
  5
FE
  8
0
  6
CONTINUOUS
 62
     7
 10
92.0752245652
 20
112.2356005464
 30
0.0
 11
91.6286423066
 21
112.2356005464
 31
0.0
  0
CIRCLE
  5
FF
  8
0
  6
CONTINUOUS
 62
     7
 10
78.9289943046
 20
262.3856005464
 30
0.0
 40
3.0
  0
ARC
  5
100
  8
0
  6
CONTINUOUS
 62
     7
 10
93.9646062071
 20
152.0887287319
 30
0.0
 40
1.046871816416019
 50
90.0034715215
 51
97.2422053892
  0
LINE
  5
101
  8
0
  6
CONTINUOUS
 62
     7
 10
93.9789943046
 20
153.1356005464
 30
0.0
 11
93.9645427777
 21
153.1356005464
 31
0.0
  0
ARC
  5
102
  8
0
  6
CONTINUOUS
 62
     7
 10
93.9646062071
 20
232.6824723609
 30
0.0
 40
1.046871816437872
 50
262.7577946109
 51
269.9965284784
  0
LINE
  5
103
  8
0
  6
CONTINUOUS
 62
     7
 10
93.9645427777
 20
231.6356005464
 30
0.0
 11
93.9908583242
 21
231.6356005464
 31
0.0
  0
LINE
  5
104
  8
0
  6
CONTINUOUS
 62
     7
 10
95.3789943046
 20
232.1356005464
 30
0.0
 11
112.4789943046
 21
232.1356005464
 31
0.0
  0
LINE
  5
105
  8
0
  6
CONTINUOUS
 62
     7
 10
95.5694051585
 20
232.1356005464
 30
0.0
 11
112.4789943046
 21
232.1356005464
 31
0.0
  0
LINE
  5
106
  8
0
  6
CONTINUOUS
 62
     7
 10
95.3789943046
 20
232.1356005464
 30
0.0
 11
95.5694051585
 21
232.1356005464
 31
0.0
  0
LINE
  5
107
  8
0
  6
CONTINUOUS
 62
     7
 10
95.3789943046
 20
152.6356005464
 30
0.0
 11
112.4789943046
 21
152.6356005464
 31
0.0
  0
LINE
  5
108
  8
0
  6
CONTINUOUS
 62
     7
 10
113.867130285
 20
272.5356005464
 30
0.0
 11
93.9789943046
 21
272.5356005464
 31
0.0
  0
LINE
  5
109
  8
0
  6
CONTINUOUS
 62
     7
 10
113.8752063474
 20
272.4625128988
 30
0.0
 11
113.867130285
 21
272.5356005464
 31
0.0
  0
LINE
  5
10A
  8
0
  6
CONTINUOUS
 62
     7
 10
113.867130285
 20
232.6856005464
 30
0.0
 11
113.8728051731
 21
232.8016268798
 31
0.0
  0
LINE
  5
10B
  8
0
  6
CONTINUOUS
 62
     7
 10
93.9789943046
 20
232.6856005464
 30
0.0
 11
113.867130285
 21
232.6856005464
 31
0.0
  0
LINE
  5
10C
  8
0
  6
CONTINUOUS
 62
     7
 10
113.8752063474
 20
152.0125128988
 30
0.0
 11
113.867130285
 21
152.0856005464
 31
0.0
  0
LINE
  5
10D
  8
0
  6
CONTINUOUS
 62
     7
 10
113.867130285
 20
112.2356005464
 30
0.0
 11
113.8728051731
 21
112.3516268798
 31
0.0
  0
LINE
  5
10E
  8
0
  6
CONTINUOUS
 62
     7
 10
93.9789943046
 20
112.2356005464
 30
0.0
 11
113.867130285
 21
112.2356005464
 31
0.0
  0
LINE
  5
10F
  8
0
  6
CONTINUOUS
 62
     7
 10
113.867130285
 20
152.0856005464
 30
0.0
 11
93.9789943046
 21
152.0856005464
 31
0.0
  0
POLYLINE
  5
110
  8
0
  6
CONTINUOUS
 62
     7
 66
     1
 10
0.0
 20
0.0
 30
0.0
 70
   128
  0
VERTEX
  5
29B
  8
0
  6
CONTINUOUS
 62
     7
 10
114.0253552654
 20
152.0939523739
 30
0.0
  0
VERTEX
  5
29C
  8
0
  6
CONTINUOUS
 62
     7
 10
114.9264394135
 20
152.4072517049
 30
0.0
  0
VERTEX
  5
29D
  8
0
  6
CONTINUOUS
 62
     7
 10
115.2521093084
 20
152.5852756078
 30
0.0
  0
VERTEX
  5
29E
  8
0
  6
CONTINUOUS
 62
     7
 10
115.4773989399
 20
152.7775490022
 30
0.0
  0
VERTEX
  5
29F
  8
0
  6
CONTINUOUS
 62
     7
 10
115.6589154014
 20
153.1267962042
 30
0.0
  0
VERTEX
  5
2A0
  8
0
  6
CONTINUOUS
 62
     7
 10
115.7827640439
 20
153.5856005464
 30
0.0
  0
SEQEND
  5
2A5
  8
0
  6
CONTINUOUS
 62
     7
  0
LINE
  5
111
  8
0
  6
CONTINUOUS
 62
     7
 10
115.7827640439
 20
153.5856005464
 30
0.0
 11
115.7827640439
 21
231.1856005464
 31
0.0
  0
ARC
  5
112
  8
0
  6
CONTINUOUS
 62
     7
 10
113.9503604367
 20
230.8078088842
 30
0.0
 40
1.870943483933084
 50
11.6495941649
 51
87.7027426579
  0
LINE
  5
113
  8
0
  6
CONTINUOUS
 62
     7
 10
114.0253552654
 20
272.5356005464
 30
0.0
 11
116.2293463026
 21
272.5356005464
 31
0.0
  0
LINE
  5
114
  8
0
  6
CONTINUOUS
 62
     7
 10
116.2293463026
 20
112.2356005464
 30
0.0
 11
114.0253552654
 21
112.2356005464
 31
0.0
  0
ARC
  5
115
  8
0
  6
CONTINUOUS
 62
     7
 10
136.9289943046
 20
124.2356005464
 30
0.0
 40
12.0
 50
270.0
 51
0.0
  0
LINE
  5
116
  8
0
  6
CONTINUOUS
 62
     7
 10
116.2293463026
 20
112.2356005464
 30
0.0
 11
136.9289943046
 21
112.2356005464
 31
0.0
  0
LINE
  5
117
  8
0
  6
CONTINUOUS
 62
     7
 10
116.2293463026
 20
272.5356005464
 30
0.0
 11
136.9289943046
 21
272.5356005464
 31
0.0
  0
ARC
  5
118
  8
0
  6
CONTINUOUS
 62
     7
 10
136.9289943046
 20
260.5356005464
 30
0.0
 40
12.0
 50
0.0
 51
90.0
  0
LINE
  5
119
  8
0
  6
CONTINUOUS
 62
     7
 10
148.9289943046
 20
260.5356005464
 30
0.0
 11
148.9289943046
 21
124.2356005464
 31
0.0
  0
CIRCLE
  5
11A
  8
0
  6
CONTINUOUS
 62
     7
 10
138.9289943046
 20
157.3856005464
 30
0.0
 40
5.25
  0
CIRCLE
  5
11B
  8
0
  6
CONTINUOUS
 62
     7
 10
138.9289943046
 20
227.3856005464
 30
0.0
 40
5.25
  0
CIRCLE
  5
11C
  8
0
  6
CONTINUOUS
 62
     7
 10
128.9289943046
 20
262.3856005464
 30
0.0
 40
5.25
  0
CIRCLE
  5
11D
  8
0
  6
CONTINUOUS
 62
     7
 10
132.9289943046
 20
192.3856005464
 30
0.0
 40
5.25
  0
CIRCLE
  5
11E
  8
0
  6
CONTINUOUS
 62
     7
 10
128.9289943046
 20
122.3856005464
 30
0.0
 40
5.25
  0
CIRCLE
  5
11F
  8
0
  6
CONTINUOUS
 62
     7
 10
128.9289943046
 20
262.3856005464
 30
0.0
 40
3.0
  0
CIRCLE
  5
120
  8
0
  6
CONTINUOUS
 62
     7
 10
128.9289943046
 20
122.3856005464
 30
0.0
 40
3.0
  0
CIRCLE
  5
121
  8
0
  6
CONTINUOUS
 62
     7
 10
132.9289943046
 20
192.3856005464
 30
0.0
 40
3.0
  0
CIRCLE
  5
122
  8
0
  6
CONTINUOUS
 62
     7
 10
138.9289943046
 20
227.3856005464
 30
0.0
 40
3.0
  0
CIRCLE
  5
123
  8
0
  6
CONTINUOUS
 62
     7
 10
138.9289943046
 20
157.3856005464
 30
0.0
 40
3.0
  0
ARC
  5
124
  8
0
  6
CONTINUOUS
 62
     7
 10
113.893382402
 20
231.6387287319
 30
0.0
 40
1.046871816420563
 50
82.7577946109
 51
89.9965284785
  0
ARC
  5
125
  8
0
  6
CONTINUOUS
 62
     7
 10
113.893382402
 20
153.1324723609
 30
0.0
 40
1.046871816428691
 50
270.0034715216
 51
277.2422053891
  0
LINE
  5
126
  8
0
  6
CONTINUOUS
 62
     7
 10
113.8789943046
 20
152.0856005464
 30
0.0
 11
113.8934458315
 21
152.0856005464
 31
0.0
  0
LINE
  5
127
  8
0
  6
CONTINUOUS
 62
     7
 10
113.867130285
 20
112.2356005464
 30
0.0
 11
114.0253552654
 21
112.2356005464
 31
0.0
  0
LINE
  5
128
  8
0
  6
CONTINUOUS
 62
     7
 10
113.8789943046
 20
272.5356005464
 30
0.0
 11
114.0253552654
 21
272.5356005464
 31
0.0
  0
LINE
  5
129
  8
0
  6
CONTINUOUS
 62
     7
 10
113.8934458315
 20
232.6856005464
 30
0.0
 11
113.867130285
 21
232.6856005464
 31
0.0
  0
LINE
  5
12A
  8
0
  6
CONTINUOUS
 62
     8
 10
112.6789943046
 20
231.9356005464
 30
0.0
 11
95.1789943046
 21
231.9356005464
 31
0.0
  0
LINE
  5
12B
  8
0
  6
CONTINUOUS
 62
     8
 10
95.3738592136
 20
231.9356005464
 30
0.0
 11
95.1789943046
 21
231.9356005464
 31
0.0
  0
LINE
  5
12C
  8
0
  6
CONTINUOUS
 62
     8
 10
112.6789943046
 20
231.9356005464
 30
0.0
 11
95.3738592136
 21
231.9356005464
 31
0.0
  0
LINE
  5
12D
  8
0
  6
CONTINUOUS
 62
     8
 10
112.6789943046
 20
152.8356005464
 30
0.0
 11
95.1789943046
 21
152.8356005464
 31
0.0
  0
DIMENSION
  5
12E
  8
0
  6
CONTINUOUS
 62
     7
  2
_D
 10
163.9889943046
 20
157.3856005464
 30
0.0
 11
163.9889943046
 21
139.8856005464
 31
0.0
 70
   160
  1
<>
  3
SLDDIMSTYLE0
 13
136.6789943046
 23
122.3856005464
 33
0.0
 14
146.6789943046
 24
157.3856005464
 34
0.0
 50
90.0
  0
DIMENSION
  5
139
  8
0
  6
CONTINUOUS
 62
     7
  2
_D_1
 10
163.9889943046
 20
192.3856005464
 30
0.0
 11
163.9889943046
 21
174.8856005464
 31
0.0
 70
   160
  1
<>
  3
SLDDIMSTYLE0
 13
146.6789943046
 23
157.3856005464
 33
0.0
 14
150.8703326901
 24
192.3856005464
 34
0.0
 50
90.0
  0
DIMENSION
  5
143
  8
0
  6
CONTINUOUS
 62
     7
  2
_D_2
 10
163.9889943046
 20
227.3856005464
 30
0.0
 11
163.9889943046
 21
209.8856005464
 31
0.0
 70
   160
  1
<>
  3
SLDDIMSTYLE0
 13
150.8703326901
 23
192.3856005464
 33
0.0
 14
146.6789943046
 24
227.3856005464
 34
0.0
 50
90.0
  0
DIMENSION
  5
14D
  8
0
  6
CONTINUOUS
 62
     7
  2
_D_3
 10
163.9889943046
 20
262.3856005464
 30
0.0
 11
163.9889943046
 21
244.8856005464
 31
0.0
 70
   160
  1
<>
  3
SLDDIMSTYLE0
 13
146.6789943046
 23
227.3856005464
 33
0.0
 14
136.6789943046
 24
262.3856005464
 34
0.0
 50
90.0
  0
DIMENSION
  5
157
  8
0
  6
CONTINUOUS
 62
     7
  2
_D_4
 10
148.9289943046
 20
209.8856005464
 30
0.0
 11
143.9289943046
 21
209.8856005464
 31
0.0
 70
   160
  1
<>
  3
SLDDIMSTYLE1
 13
138.9289943046
 23
219.6356005464
 33
0.0
 14
148.9289943046
 24
260.5356005464
 34
0.0
 50
0.0
  0
DIMENSION
  5
163
  8
0
  6
CONTINUOUS
 62
     7
  2
_D_5
 10
148.9289943046
 20
244.8856005464
 30
0.0
 11
138.9289943046
 21
244.8856005464
 31
0.0
 70
   160
  1
<>
  3
SLDDIMSTYLE1
 13
128.9289943046
 23
254.6356005464
 33
0.0
 14
148.9289943046
 24
260.5356005464
 34
0.0
 50
0.0
  0
DIMENSION
  5
16C
  8
0
  6
CONTINUOUS
 62
     7
  2
_D_6
 10
70.9289943046
 20
260.5356005464
 30
0.0
 11
54.1956661995
 21
277.2689486515
 31
0.0
 70
   164
  1
<>
  3
SLDDIMSTYLE2
 15
62.4437129303
 25
269.0208819207
 35
0.0
 40
0.0
  0
DIMENSION
  5
174
  8
0
  6
CONTINUOUS
 62
     7
  2
_D_7
 10
176.7457915332
 20
112.2356005464
 30
0.0
 11
176.7457915332
 21
192.3856005464
 31
0.0
 70
   160
  1
<>
  3
SLDDIMSTYLE3
 13
136.9289943046
 23
272.5356005464
 33
0.0
 14
136.9289943046
 24
112.2356005464
 34
0.0
 50
90.0
  0
DIMENSION
  5
184
  8
0
  6
CONTINUOUS
 62
     7
  2
_D_8
 10
148.9289943046
 20
177.2095892233
 30
0.0
 11
140.9289943046
 21
177.2095892233
 31
0.0
 70
   160
  1
<>
  3
SLDDIMSTYLE1
 13
132.9289943046
 23
192.3856005464
 33
0.0
 14
148.9289943046
 24
124.2356005464
 34
0.0
 50
0.0
  0
DIMENSION
  5
18F
  8
0
  6
CONTINUOUS
 62
     7
  2
_D_9
 10
66.5458967316
 20
229.2079193873
 30
0.0
 11
79.632727323
 21
219.2006346791
 31
0.0
 70
   163
  1
<>
  3
SLDDIMSTYLE4
 15
71.3120918775
 25
225.5632817055
 35
0.0
 40
0.0
  0
DIMENSION
  5
19C
  8
0
  6
CONTINUOUS
 62
     7
  2
_D_10
 10
66.3552594955
 20
152.809752086
 30
0.0
 11
80.557150109
 21
178.0593151138
 31
0.0
 70
   163
  1
<>X90%%d
  3
SLDDIMSTYLE4
 15
71.5027291136
 25
161.9614490068
 35
0.0
 40
0.0
  0
INSERT
  5
1B2
  8
0
  6
CONTINUOUS
 62
     7
  2
SW_CENTERMARKSYMBOL_0
 10
128.9289943046
 20
122.3856005464
 30
0.0
  0
INSERT
  5
1BE
  8
0
  6
CONTINUOUS
 62
     7
  2
SW_CENTERMARKSYMBOL_1
 10
138.9289943046
 20
157.3856005464
 30
0.0
  0
INSERT
  5
1CA
  8
0
  6
CONTINUOUS
 62
     7
  2
SW_CENTERMARKSYMBOL_2
 10
132.9289943046
 20
192.3856005464
 30
0.0
  0
INSERT
  5
1D6
  8
0
  6
CONTINUOUS
 62
     7
  2
SW_CENTERMARKSYMBOL_3
 10
138.9289943046
 20
227.3856005464
 30
0.0
  0
INSERT
  5
1E2
  8
0
  6
CONTINUOUS
 62
     7
  2
SW_CENTERMARKSYMBOL_4
 10
128.9289943046
 20
262.3856005464
 30
0.0
  0
INSERT
  5
1EE
  8
0
  6
CONTINUOUS
 62
     7
  2
SW_CENTERMARKSYMBOL_5
 10
78.9289943046
 20
262.3856005464
 30
0.0
  0
INSERT
  5
1FA
  8
0
  6
CONTINUOUS
 62
     7
  2
SW_CENTERMARKSYMBOL_6
 10
68.9289943046
 20
227.3856005464
 30
0.0
  0
INSERT
  5
206
  8
0
  6
CONTINUOUS
 62
     7
  2
SW_CENTERMARKSYMBOL_7
 10
74.9289943046
 20
192.3856005464
 30
0.0
  0
INSERT
  5
212
  8
0
  6
CONTINUOUS
 62
     7
  2
SW_CENTERMARKSYMBOL_8
 10
68.9289943046
 20
157.3856005464
 30
0.0
  0
INSERT
  5
21E
  8
0
  6
CONTINUOUS
 62
     7
  2
SW_CENTERMARKSYMBOL_9
 10
78.9289943046
 20
122.3856005464
 30
0.0
  0
LINE
  5
21F
  8
0
  6
CENTERX2
 62
     7
 10
103.9289943046
 20
275.0947683755
 30
0.0
 11
103.9289943046
 21
109.7943474215
 31
0.0
  0
LINE
  5
220
  8
0
  6
CONTINUOUS
 62
     7
 10
148.9289943046
 20
78.7278515292
 30
0.0
 11
148.9289943046
 21
75.7278515292
 31
0.0
  0
LINE
  5
221
  8
0
  6
CONTINUOUS
 62
     7
 10
148.9289943046
 20
75.7278515292
 30
0.0
 11
136.9289943046
 21
75.7278515292
 31
0.0
  0
LINE
  5
222
  8
0
  6
CONTINUOUS
 62
     7
 10
136.9289943046
 20
78.7278515292
 30
0.0
 11
148.9289943046
 21
78.7278515292
 31
0.0
  0
LINE
  5
223
  8
0
  6
CONTINUOUS
 62
     7
 10
116.2293463026
 20
75.7278515292
 30
0.0
 11
136.9289943046
 21
75.7278515292
 31
0.0
  0
LINE
  5
224
  8
0
  6
CONTINUOUS
 62
     7
 10
116.2293463026
 20
78.7278515292
 30
0.0
 11
136.9289943046
 21
78.7278515292
 31
0.0
  0
ARC
  5
225
  8
0
  6
CONTINUOUS
 62
     7
 10
116.2293463026
 20
74.7278515292
 30
0.0
 40
1.0
 50
90.0
 51
96.4101838612
  0
ARC
  5
226
  8
0
  6
CONTINUOUS
 62
     7
 10
116.2293463026
 20
74.7278515292
 30
0.0
 40
3.999999999999991
 50
90.0
 51
96.4101838612
  0
LINE
  5
227
  8
0
  6
CONTINUOUS
 62
     7
 10
115.7827640439
 20
78.7028438923
 30
0.0
 11
116.1177007379
 21
75.72159962
 31
0.0
  0
LINE
  5
228
  8
0
  6
CONTINUOUS
 62
     7
 10
114.0253552654
 20
78.0658784177
 30
0.0
 11
115.6783485433
 21
75.5623582513
 31
0.0
  0
ARC
  5
229
  8
0
  6
CONTINUOUS
 62
     7
 10
116.2293463026
 20
74.7278515292
 30
0.0
 40
0.9999999999999529
 50
96.4101838612
 51
123.4354903842
  0
ARC
  5
22A
  8
0
  6
CONTINUOUS
 62
     7
 10
116.2293463026
 20
74.7278515292
 30
0.0
 40
3.999999999999594
 50
96.4101838612
 51
123.4354903842
  0
ARC
  5
22B
  8
0
  6
CONTINUOUS
 62
     7
 10
104.9968608666
 20
79.6129426548
 30
0.0
 40
8.876095693282409
 50
352.9257047357
 51
358.2372662643
  0
LINE
  5
22C
  8
0
  6
CONTINUOUS
 62
     7
 10
115.6783485433
 20
75.5623582513
 30
0.0
 11
115.5464391094
 21
75.4752627246
 31
0.0
  0
LINE
  5
22D
  8
0
  6
CONTINUOUS
 62
     7
 10
113.8934458315
 20
77.978782891
 30
0.0
 11
114.0253552654
 21
78.0658784177
 31
0.0
  0
POLYLINE
  5
22E
  8
0
  6
CONTINUOUS
 62
     7
 66
     1
 10
0.0
 20
0.0
 30
0.0
 70
   128
  0
VERTEX
  5
2A1
  8
0
  6
CONTINUOUS
 62
     7
 10
113.7004447609
 20
81.6043525232
 30
0.0
  0
VERTEX
  5
2A2
  8
0
  6
CONTINUOUS
 62
     7
 10
113.7121625531
 20
81.5422712771
 30
0.0
  0
VERTEX
  5
2A3
  8
0
  6
CONTINUOUS
 62
     7
 10
113.867130285
 20
80.2136017064
 30
0.0
  0
SEQEND
  5
2A6
  8
0
  6
CONTINUOUS
 62
     7
  0
LINE
  5
22F
  8
0
  6
CONTINUOUS
 62
     7
 10
112.7663302272
 20
81.4312287015
 30
0.0
 11
112.8622778853
 21
80.821672569
 31
0.0
  0
LINE
  5
230
  8
0
  6
CONTINUOUS
 62
     7
 10
115.5464391094
 20
75.4752627246
 30
0.0
 11
109.4114220096
 21
71.4245096442
 31
0.0
  0
LINE
  5
231
  8
0
  6
CONTINUOUS
 62
     7
 10
113.8934458315
 20
77.978782891
 30
0.0
 11
113.7004447609
 21
77.8513505353
 31
0.0
  0
LINE
  5
232
  8
0
  6
CONTINUOUS
 62
     7
 10
112.5792021636
 20
81.0455783582
 30
0.0
 11
112.6145401667
 21
80.7879425997
 31
0.0
  0
LINE
  5
233
  8
0
  6
CONTINUOUS
 62
     7
 10
112.5792021636
 20
81.0455783582
 30
0.0
 11
112.6138804816
 21
80.7933336234
 31
0.0
  0
LINE
  5
234
  8
0
  6
CONTINUOUS
 62
     7
 10
112.0331230646
 20
80.6938210115
 30
0.0
 11
111.7982575372
 21
80.6359793701
 31
0.0
  0
ARC
  5
235
  8
0
  6
CONTINUOUS
 62
     7
 10
111.9178227794
 20
80.1504856494
 30
0.0
 40
0.4999999999999974
 50
103.8352265422
 51
183.0283036673
  0
ARC
  5
236
  8
0
  6
CONTINUOUS
 62
     7
 10
103.9289943046
 20
79.7278515292
 30
0.0
 40
7.500000000000003
 50
24.642149417
 51
3.0283036673
  0
ARC
  5
237
  8
0
  6
CONTINUOUS
 62
     7
 10
111.2004313262
 20
83.0634479737
 30
0.0
 40
0.5000000000000078
 50
204.642149417
 51
283.8352265422
  0
LINE
  5
238
  8
0
  6
CONTINUOUS
 62
     7
 10
111.3199965684
 20
82.577954253
 30
0.0
 11
111.5548620958
 21
82.6357958944
 31
0.0
  0
ARC
  5
239
  8
0
  6
CONTINUOUS
 62
     7
 10
111.7939925802
 20
81.6648084529
 30
0.0
 40
1.000000000000002
 50
283.8352265422
 51
103.8352265422
  0
LINE
  5
23A
  8
0
  6
CONTINUOUS
 62
     7
 10
112.1141792413
 20
80.7290431049
 30
0.0
 11
113.8053854142
 21
80.9359072608
 31
0.0
  0
ARC
  5
23B
  8
0
  6
CONTINUOUS
 62
     7
 10
103.9289943046
 20
79.7278515292
 30
0.0
 40
9.949999999999529
 50
357.201758587
 51
6.973636844
  0
ARC
  5
23C
  8
0
  6
CONTINUOUS
 62
     7
 10
104.0503724804
 20
79.7309514906
 30
0.0
 40
7.878923053740429
 50
357.1361514651
 51
6.6937684578
  0
ARC
  5
23D
  8
0
  6
CONTINUOUS
 62
     7
 10
103.9289943046
 20
79.7278515292
 30
0.0
 40
9.950000000000006
 50
56.5645096158
 51
357.201758587
  0
ARC
  5
23E
  8
0
  6
CONTINUOUS
 62
     7
 10
103.9289943046
 20
79.7278515292
 30
0.0
 40
7.999999999999996
 50
56.5645096158
 51
357.201758587
  0
LINE
  5
23F
  8
0
  6
CONTINUOUS
 62
     7
 10
148.9289943046
 20
83.7278515292
 30
0.0
 11
148.9289943046
 21
80.7278515292
 31
0.0
  0
LINE
  5
240
  8
0
  6
CONTINUOUS
 62
     7
 10
148.9289943046
 20
80.7278515292
 30
0.0
 11
136.9289943046
 21
80.7278515292
 31
0.0
  0
LINE
  5
241
  8
0
  6
CONTINUOUS
 62
     7
 10
136.9289943046
 20
83.7278515292
 30
0.0
 11
148.9289943046
 21
83.7278515292
 31
0.0
  0
LINE
  5
242
  8
0
  6
CONTINUOUS
 62
     7
 10
116.2293463026
 20
80.7278515292
 30
0.0
 11
136.9289943046
 21
80.7278515292
 31
0.0
  0
LINE
  5
243
  8
0
  6
CONTINUOUS
 62
     7
 10
116.2293463026
 20
83.7278515292
 30
0.0
 11
136.9289943046
 21
83.7278515292
 31
0.0
  0
LINE
  5
244
  8
0
  6
CONTINUOUS
 62
     7
 10
111.0647502623
 20
83.3446162316
 30
0.0
 11
114.0253552654
 21
81.3898246408
 31
0.0
  0
LINE
  5
245
  8
0
  6
CONTINUOUS
 62
     7
 10
109.4114220096
 20
88.0311934143
 30
0.0
 11
115.6783485433
 21
83.8933448071
 31
0.0
  0
ARC
  5
246
  8
0
  6
CONTINUOUS
 62
     7
 10
103.9289943046
 20
79.7278515292
 30
0.0
 40
7.999999999999996
 50
26.8782143845
 51
56.5645096158
  0
ARC
  5
247
  8
0
  6
CONTINUOUS
 62
     7
 10
116.2293463026
 20
84.7278515292
 30
0.0
 40
4.0
 50
236.5645096158
 51
270.0
  0
ARC
  5
248
  8
0
  6
CONTINUOUS
 62
     7
 10
116.2293463026
 20
84.7278515292
 30
0.0
 40
1.000000000000011
 50
236.5645096158
 51
270.0
  0
LINE
  5
249
  8
0
  6
CONTINUOUS
 62
     7
 10
111.0647502623
 20
83.3446162316
 30
0.0
 11
110.1110125616
 21
83.9743383442
 31
0.0
  0
DIMENSION
  5
24A
  8
0
  6
CONTINUOUS
 62
     7
  2
_D_11
 10
113.1024918075
 20
75.8743539538
 30
0.0
 11
82.4960540897
 21
88.7311693365
 31
0.0
 70
   163
  1
<>
  3
SLDDIMSTYLE5
 15
94.7554968017
 25
83.5813491047
 35
0.0
 40
0.0
  0
DIMENSION
  5
253
  8
0
  6
CONTINUOUS
 62
     7
  2
_D_12
 10
148.9289943046
 20
96.932527029
 30
0.0
 11
126.4289943046
 21
96.932527029
 31
0.0
 70
   160
  1
<>
  3
SLDDIMSTYLE6
 13
103.9289943046
 23
92.1778515292
 33
0.0
 14
148.9289943046
 24
83.7278515292
 34
0.0
  0
DIMENSION
  5
263
  8
0
  6
CONTINUOUS
 62
     7
  2
_D_13
 10
158.9289943046
 20
80.7278515292
 30
0.0
 11
158.9289943046
 21
91.1356529778
 31
0.0
 70
   160
  1
<>
  3
SLDDIMSTYLE7
 13
148.9289943046
 23
83.7278515292
 33
0.0
 14
148.9289943046
 24
80.7278515292
 34
0.0
 50
90.0
  0
DIMENSION
  5
275
  8
0
  6
CONTINUOUS
 62
     7
  2
_D_14
 10
167.1837685255
 20
75.7278515292
 30
0.0
 11
167.1837685255
 21
90.2091731384
 31
0.0
 70
   160
  1
<>
  3
SLDDIMSTYLE8
 13
148.9289943046
 23
83.7278515292
 33
0.0
 14
148.9289943046
 24
75.7278515292
 34
0.0
 50
90.0
  0
INSERT
  5
28E
  8
0
  6
CONTINUOUS
 62
     7
  2
SW_CENTERMARKSYMBOL_10
 10
103.9289943046
 20
79.7278515292
 30
0.0
  0
LINE
  5
28F
  8
0
  6
CENTERX2
 62
     7
 10
132.9289943046
 20
73.7278515292
 30
0.0
 11
132.9289943046
 21
82.9778515292
 31
0.0
  0
LINE
  5
290
  8
0
  6
CENTERX2
 62
     7
 10
128.9289943046
 20
73.7278515292
 30
0.0
 11
128.9289943046
 21
82.9778515292
 31
0.0
  0
LINE
  5
291
  8
0
  6
CENTERX2
 62
     7
 10
128.9289943046
 20
85.7278515292
 30
0.0
 11
128.9289943046
 21
82.9778515292
 31
0.0
  0
LINE
  5
292
  8
0
  6
CENTERX2
 62
     7
 10
132.9289943046
 20
85.7278515292
 30
0.0
 11
132.9289943046
 21
82.9778515292
 31
0.0
  0
LINE
  5
293
  8
0
  6
CENTERX2
 62
     7
 10
138.9289943046
 20
85.7278515292
 30
0.0
 11
138.9289943046
 21
76.4778515292
 31
0.0
  0
LINE
  5
294
  8
0
  6
CENTERX2
 62
     7
 10
138.9289943046
 20
73.7278515292
 30
0.0
 11
138.9289943046
 21
76.4778515292
 31
0.0
  0
ENDSEC
  0
EOF
