  0
SECTION
  2
HEADER
  9
$ACADVER
  1
AC1021
  9
$ACADMAINTVER
 70
    25
  9
$DWGCODEPAGE
  3
ANSI_1252
  9
$INSBASE
 10
0.0
 20
0.0
 30
0.0
  9
$EXTMIN
 10
0.0
 20
0.0
 30
0.0
  9
$EXTMAX
 10
215.9
 20
279.4
 30
0.0
  9
$LIMMIN
 10
0.0
 20
0.0
  9
$LIMMAX
 10
215.9
 20
279.4
  9
$ORTHOMODE
 70
     0
  9
$REGENMODE
 70
     1
  9
$FILLMODE
 70
     1
  9
$QTEXTMODE
 70
     0
  9
$MIRRTEXT
 70
     1
  9
$LTSCALE
 40
1.0
  9
$ATTMODE
 70
     1
  9
$TEXTSIZE
 40
2.5
  9
$TRACEWID
 40
1.0
  9
$TEXTSTYLE
  7
Standard
  9
$CLAYER
  8
0
  9
$CELTYPE
  6
ByLayer
  9
$CECOLOR
 62
   256
  9
$CELTSCALE
 40
1.0
  9
$DISPSILH
 70
     0
  9
$DIMSCALE
 40
1.0
  9
$DIMASZ
 40
2.5
  9
$DIMEXO
 40
0.625
  9
$DIMDLI
 40
3.75
  9
$DIMRND
 40
0.0
  9
$DIMDLE
 40
0.0
  9
$DIMEXE
 40
1.25
  9
$DIMTP
 40
0.0
  9
$DIMTM
 40
0.0
  9
$DIMTXT
 40
2.5
  9
$DIMCEN
 40
2.5
  9
$DIMTSZ
 40
0.0
  9
$DIMTOL
 70
     0
  9
$DIMLIM
 70
     0
  9
$DIMTIH
 70
     0
  9
$DIMTOH
 70
     0
  9
$DIMSE1
 70
     0
  9
$DIMSE2
 70
     0
  9
$DIMTAD
 70
     1
  9
$DIMZIN
 70
     8
  9
$DIMBLK
  1

  9
$DIMASO
 70
     1
  9
$DIMSHO
 70
     1
  9
$DIMPOST
  1

  9
$DIMAPOST
  1

  9
$DIMALT
 70
     0
  9
$DIMALTD
 70
     3
  9
$DIMALTF
 40
0.0393700787
  9
$DIMLFAC
 40
1.0
  9
$DIMTOFL
 70
     1
  9
$DIMTVP
 40
0.0
  9
$DIMTIX
 70
     0
  9
$DIMSOXD
 70
     0
  9
$DIMSAH
 70
     0
  9
$DIMBLK1
  1

  9
$DIMBLK2
  1

  9
$DIMSTYLE
  2
ISO-25
  9
$DIMCLRD
 70
     0
  9
$DIMCLRE
 70
     0
  9
$DIMCLRT
 70
     0
  9
$DIMTFAC
 40
1.0
  9
$DIMGAP
 40
0.625
  9
$DIMJUST
 70
     0
  9
$DIMSD1
 70
     0
  9
$DIMSD2
 70
     0
  9
$DIMTOLJ
 70
     0
  9
$DIMTZIN
 70
     8
  9
$DIMALTZ
 70
     0
  9
$DIMALTTZ
 70
     0
  9
$DIMUPT
 70
     0
  9
$DIMDEC
 70
     2
  9
$DIMTDEC
 70
     2
  9
$DIMALTU
 70
     2
  9
$DIMALTTD
 70
     3
  9
$DIMTXSTY
  7
Standard
  9
$DIMAUNIT
 70
     0
  9
$DIMADEC
 70
     0
  9
$DIMALTRND
 40
0.0
  9
$DIMAZIN
 70
     0
  9
$DIMDSEP
 70
    44
  9
$DIMATFIT
 70
     3
  9
$DIMFRAC
 70
     0
  9
$DIMLDRBLK
  1

  9
$DIMLUNIT
 70
     2
  9
$DIMLWD
 70
    -2
  9
$DIMLWE
 70
    -2
  9
$DIMTMOVE
 70
     0
  9
$DIMFXL
 40
1.0
  9
$DIMFXLON
 70
     0
  9
$DIMJOGANG
 40
0.7853981634
  9
$DIMTFILL
 70
     0
  9
$DIMTFILLCLR
 70
     0
  9
$DIMARCSYM
 70
     0
  9
$DIMLTYPE
  6

  9
$DIMLTEX1
  6

  9
$DIMLTEX2
  6

  9
$LUNITS
 70
     2
  9
$LUPREC
 70
     4
  9
$SKETCHINC
 40
1.0
  9
$FILLETRAD
 40
10.0
  9
$AUNITS
 70
     0
  9
$AUPREC
 70
     0
  9
$MENU
  1
.
  9
$ELEVATION
 40
0.0
  9
$PELEVATION
 40
0.0
  9
$THICKNESS
 40
0.0
  9
$LIMCHECK
 70
     0
  9
$CHAMFERA
 40
0.0
  9
$CHAMFERB
 40
0.0
  9
$CHAMFERC
 40
0.0
  9
$CHAMFERD
 40
0.0
  9
$SKPOLY
 70
     0
  9
$TDCREATE
 40
2457269.38972956
  9
$TDUCREATE
 40
2457269.306396227
  9
$TDUPDATE
 40
2457269.389732188
  9
$TDUUPDATE
 40
2457269.306398854
  9
$TDINDWG
 40
0.0000000116
  9
$TDUSRTIMER
 40
0.0000000116
  9
$USRTIMER
 70
     1
  9
$ANGBASE
 50
0.0
  9
$ANGDIR
 70
     0
  9
$PDMODE
 70
     0
  9
$PDSIZE
 40
0.0
  9
$PLINEWID
 40
0.0
  9
$SPLFRAME
 70
     0
  9
$SPLINETYPE
 70
     6
  9
$SPLINESEGS
 70
     8
  9
$HANDSEED
  5
3E7
  9
$SURFTAB1
 70
     6
  9
$SURFTAB2
 70
     6
  9
$SURFTYPE
 70
     6
  9
$SURFU
 70
     6
  9
$SURFV
 70
     6
  9
$UCSBASE
  2

  9
$UCSNAME
  2

  9
$UCSORG
 10
0.0
 20
0.0
 30
0.0
  9
$UCSXDIR
 10
1.0
 20
0.0
 30
0.0
  9
$UCSYDIR
 10
0.0
 20
1.0
 30
0.0
  9
$UCSORTHOREF
  2

  9
$UCSORTHOVIEW
 70
     0
  9
$UCSORGTOP
 10
0.0
 20
0.0
 30
0.0
  9
$UCSORGBOTTOM
 10
0.0
 20
0.0
 30
0.0
  9
$UCSORGLEFT
 10
0.0
 20
0.0
 30
0.0
  9
$UCSORGRIGHT
 10
0.0
 20
0.0
 30
0.0
  9
$UCSORGFRONT
 10
0.0
 20
0.0
 30
0.0
  9
$UCSORGBACK
 10
0.0
 20
0.0
 30
0.0
  9
$PUCSBASE
  2

  9
$PUCSNAME
  2

  9
$PUCSORG
 10
0.0
 20
0.0
 30
0.0
  9
$PUCSXDIR
 10
1.0
 20
0.0
 30
0.0
  9
$PUCSYDIR
 10
0.0
 20
1.0
 30
0.0
  9
$PUCSORTHOREF
  2

  9
$PUCSORTHOVIEW
 70
     0
  9
$PUCSORGTOP
 10
0.0
 20
0.0
 30
0.0
  9
$PUCSORGBOTTOM
 10
0.0
 20
0.0
 30
0.0
  9
$PUCSORGLEFT
 10
0.0
 20
0.0
 30
0.0
  9
$PUCSORGRIGHT
 10
0.0
 20
0.0
 30
0.0
  9
$PUCSORGFRONT
 10
0.0
 20
0.0
 30
0.0
  9
$PUCSORGBACK
 10
0.0
 20
0.0
 30
0.0
  9
$USERI1
 70
     0
  9
$USERI2
 70
     0
  9
$USERI3
 70
     0
  9
$USERI4
 70
     0
  9
$USERI5
 70
     0
  9
$USERR1
 40
0.0
  9
$USERR2
 40
0.0
  9
$USERR3
 40
0.0
  9
$USERR4
 40
0.0
  9
$USERR5
 40
0.0
  9
$WORLDVIEW
 70
     1
  9
$SHADEDGE
 70
     3
  9
$SHADEDIF
 70
    70
  9
$TILEMODE
 70
     1
  9
$MAXACTVP
 70
    64
  9
$PINSBASE
 10
0.0
 20
0.0
 30
0.0
  9
$PLIMCHECK
 70
     0
  9
$PEXTMIN
 10
0.0
 20
0.0
 30
0.0
  9
$PEXTMAX
 10
215.9
 20
279.4
 30
0.0
  9
$PLIMMIN
 10
0.0
 20
0.0
  9
$PLIMMAX
 10
215.9
 20
279.4
  9
$UNITMODE
 70
     0
  9
$VISRETAIN
 70
     1
  9
$PLINEGEN
 70
     0
  9
$PSLTSCALE
 70
     1
  9
$TREEDEPTH
 70
  3020
  9
$CMLSTYLE
  2
Standard
  9
$CMLJUST
 70
     0
  9
$CMLSCALE
 40
20.0
  9
$PROXYGRAPHICS
 70
     1
  9
$MEASUREMENT
 70
     1
  9
$CELWEIGHT
370
    -1
  9
$ENDCAPS
280
     0
  9
$JOINSTYLE
280
     0
  9
$LWDISPLAY
290
     0
  9
$INSUNITS
 70
     4
  9
$HYPERLINKBASE
  1

  9
$STYLESHEET
  1

  9
$XEDIT
290
     1
  9
$CEPSNTYPE
380
     0
  9
$PSTYLEMODE
290
     1
  9
$FINGERPRINTGUID
  2
{CAB1F2FC-8BAE-480D-BCDA-EC0D84C7DF11}
  9
$VERSIONGUID
  2
{FAEB1C32-E019-11D5-929B-00C0DF256EC4}
  9
$EXTNAMES
290
     1
  9
$PSVPSCALE
 40
0.0
  9
$OLESTARTUP
290
     0
  9
$SORTENTS
280
   127
  9
$INDEXCTL
280
     0
  9
$HIDETEXT
280
     1
  9
$XCLIPFRAME
290
     0
  9
$HALOGAP
280
     0
  9
$OBSCOLOR
 70
   257
  9
$OBSLTYPE
280
     0
  9
$INTERSECTIONDISPLAY
280
     0
  9
$INTERSECTIONCOLOR
 70
   257
  9
$DIMASSOC
280
     2
  9
$PROJECTNAME
  1

  9
$CAMERADISPLAY
290
     0
  9
$LENSLENGTH
 40
50.0
  9
$CAMERAHEIGHT
 40
0.0
  9
$STEPSPERSEC
 40
2.0
  9
$STEPSIZE
 40
6.0
  9
$3DDWFPREC
 40
2.0
  9
$PSOLWIDTH
 40
5.0
  9
$PSOLHEIGHT
 40
80.0
  9
$LOFTANG1
 40
1.5707963268
  9
$LOFTANG2
 40
1.5707963268
  9
$LOFTMAG1
 40
0.0
  9
$LOFTMAG2
 40
0.0
  9
$LOFTPARAM
 70
     7
  9
$LOFTNORMALS
280
     1
  9
$LATITUDE
 40
37.795
  9
$LONGITUDE
 40
-122.394
  9
$NORTHDIRECTION
 40
0.0
  9
$TIMEZONE
 70
 -8000
  9
$LIGHTGLYPHDISPLAY
280
     1
  9
$TILEMODELIGHTSYNCH
280
     1
  9
$CMATERIAL
347
44
  9
$SOLIDHIST
280
     0
  9
$SHOWHIST
280
     1
  9
$DWFFRAME
280
     2
  9
$DGNFRAME
280
     2
  9
$REALWORLDSCALE
290
     1
  9
$INTERFERECOLOR
 62
   256
  9
$CSHADOW
280
     0
  9
$SHADOWPLANELOCATION
 40
0.0
  0
ENDSEC
  0
SECTION
  2
CLASSES
  0
CLASS
  1
ACDBDICTIONARYWDFLT
  2
AcDbDictionaryWithDefault
  3
ObjectDBX Classes
 90
        0
 91
        4
280
     0
281
     0
  0
CLASS
  1
VISUALSTYLE
  2
AcDbVisualStyle
  3
ObjectDBX Classes
 90
     4095
 91
        4
280
     0
281
     0
  0
CLASS
  1
MATERIAL
  2
AcDbMaterial
  3
ObjectDBX Classes
 90
     1153
 91
        4
280
     0
281
     0
  0
CLASS
  1
SCALE
  2
AcDbScale
  3
ObjectDBX Classes
 90
     1153
 91
        4
280
     0
281
     0
  0
CLASS
  1
TABLESTYLE
  2
AcDbTableStyle
  3
ObjectDBX Classes
 90
     4095
 91
        4
280
     0
281
     0
  0
CLASS
  1
MLEADERSTYLE
  2
AcDbMLeaderStyle
  3
ACDB_MLEADERSTYLE_CLASS
 90
     4095
 91
        4
280
     0
281
     0
  0
CLASS
  1
SUN
  2
AcDbSun
  3
SCENEOE
 90
     1153
 91
        4
280
     0
281
     0
  0
CLASS
  1
DICTIONARYVAR
  2
AcDbDictionaryVar
  3
ObjectDBX Classes
 90
        0
 91
        4
280
     0
281
     0
  0
CLASS
  1
CELLSTYLEMAP
  2
AcDbCellStyleMap
  3
ObjectDBX Classes
 90
     1152
 91
        4
280
     0
281
     0
  0
ENDSEC
  0
SECTION
  2
TABLES
  0
TABLE
  2
VPORT
  5
8
330
0
100
AcDbSymbolTable
 70
     1
  0
VPORT
  5
29
330
8
100
AcDbSymbolTableRecord
100
AcDbViewportTableRecord
  2
*Active
 70
     0
 10
0.0
 20
0.0
 11
1.0
 21
1.0
 12
344.1869158879
 22
148.5
 13
0.0
 23
0.0
 14
10.0
 24
10.0
 15
10.0
 25
10.0
 16
0.0
 26
0.0
 36
1.0
 17
0.0
 27
0.0
 37
0.0
 40
297.0
 41
1.9729729729
 42
50.0
 43
0.0
 44
0.0
 50
0.0
 51
0.0
 71
     0
 72
   100
 73
     1
 74
     3
 75
     0
 76
     0
 77
     0
 78
     0
281
     0
 65
     1
110
0.0
120
0.0
130
0.0
111
1.0
121
0.0
131
0.0
112
0.0
122
1.0
132
0.0
 79
     0
146
0.0
 60
     3
 61
     5
292
     1
282
     1
141
0.0
142
0.0
 63
   250
361
6D
  0
ENDTAB
  0
TABLE
  2
LTYPE
  5
5
330
0
100
AcDbSymbolTable
 70
     1
  0
LTYPE
  5
14
330
5
100
AcDbSymbolTableRecord
100
AcDbLinetypeTableRecord
  2
ByBlock
 70
     0
  3

 72
    65
 73
     0
 40
0.0
  0
LTYPE
  5
15
330
5
100
AcDbSymbolTableRecord
100
AcDbLinetypeTableRecord
  2
ByLayer
 70
     0
  3

 72
    65
 73
     0
 40
0.0
  0
LTYPE
  5
16
330
5
100
AcDbSymbolTableRecord
100
AcDbLinetypeTableRecord
  2
Continuous
 70
     0
  3
Solid line
 72
    65
 73
     0
 40
0.0
  0
ENDTAB
  0
TABLE
  2
LAYER
  5
2
330
0
100
AcDbSymbolTable
 70
     8
  0
LAYER
  5
10
330
2
100
AcDbSymbolTableRecord
100
AcDbLayerTableRecord
  2
0
 70
     0
 62
     7
  6
Continuous
370
    -3
390
F
347
46
  0
LAYER
  5
6E
330
2
100
AcDbSymbolTableRecord
100
AcDbLayerTableRecord
  2
Standard
 70
     0
 62
     7
  6
Continuous
370
    -3
390
F
347
46
  0
LAYER
  5
71
330
2
100
AcDbSymbolTableRecord
100
AcDbLayerTableRecord
  2
AJ_221
 70
     0
 62
     7
  6
Continuous
370
    -3
390
F
347
46
  0
LAYER
  5
7E
330
2
100
AcDbSymbolTableRecord
100
AcDbLayerTableRecord
  2
AP_509_EINGEBAUT
 70
     0
 62
     7
  6
Continuous
370
    -3
390
F
347
46
  0
LAYER
  5
AF
330
2
100
AcDbSymbolTableRecord
100
AcDbLayerTableRecord
  2
AP_510_200
 70
     0
 62
     7
  6
Continuous
370
    -3
390
F
347
46
  0
LAYER
  5
F8
330
2
100
AcDbSymbolTableRecord
100
AcDbLayerTableRecord
  2
AP_511
 70
     0
 62
     7
  6
Continuous
370
    -3
390
F
347
46
  0
LAYER
  5
23C
330
2
100
AcDbSymbolTableRecord
100
AcDbLayerTableRecord
  2
AW_061
 70
     0
 62
     7
  6
Continuous
370
    -3
390
F
347
46
  0
LAYER
  5
2B7
330
2
100
AcDbSymbolTableRecord
100
AcDbLayerTableRecord
  2
3MM_SCHRAUBE_X_1
 70
     0
 62
     7
  6
Continuous
370
    -3
390
F
347
46
  0
ENDTAB
  0
TABLE
  2
STYLE
  5
3
330
0
100
AcDbSymbolTable
 70
     2
  0
STYLE
  5
11
330
3
100
AcDbSymbolTableRecord
100
AcDbTextStyleTableRecord
  2
Standard
 70
     0
 40
0.0
 41
1.0
 50
0.0
 71
     0
 42
2.5
  3
txt
  4

  0
STYLE
  5
137
330
3
100
AcDbSymbolTableRecord
100
AcDbTextStyleTableRecord
  2
SEACAD_Arial
 70
     0
 40
0.0
 41
1.0
 50
0.0
 71
     0
 42
2.5
  3
arial.ttf
  4

1001
ACAD
1000
Arial
1071
        0
  0
ENDTAB
  0
TABLE
  2
VIEW
  5
6
330
0
100
AcDbSymbolTable
 70
     0
  0
ENDTAB
  0
TABLE
  2
UCS
  5
7
330
0
100
AcDbSymbolTable
 70
     0
  0
ENDTAB
  0
TABLE
  2
APPID
  5
9
330
0
100
AcDbSymbolTable
 70
     2
  0
APPID
  5
12
330
9
100
AcDbSymbolTableRecord
100
AcDbRegAppTableRecord
  2
ACAD
 70
     0
  0
APPID
  5
3DF
330
9
100
AcDbSymbolTableRecord
100
AcDbRegAppTableRecord
  2
ACAD_MLEADERVER
 70
     0
  0
ENDTAB
  0
TABLE
  2
DIMSTYLE
  5
A
330
0
100
AcDbSymbolTable
 70
     3
100
AcDbDimStyleTable
  0
DIMSTYLE
105
27
330
A
100
AcDbSymbolTableRecord
100
AcDbDimStyleTableRecord
  2
ISO-25
 70
     0
 41
2.5
 42
0.625
 43
3.75
 44
1.25
 73
     0
 74
     0
 77
     1
 78
     8
140
2.5
141
2.5
143
0.0393700787
147
0.625
171
     3
172
     1
178
     0
271
     2
272
     2
274
     3
278
    44
283
     0
284
     8
340
11
  0
DIMSTYLE
105
124
330
A
100
AcDbSymbolTableRecord
100
AcDbDimStyleTableRecord
  2
Standard
 70
     0
178
     0
340
11
  0
DIMSTYLE
105
138
102
{ACAD_REACTORS
330
139
330
143
330
394
330
39E
102
}
330
A
100
AcDbSymbolTableRecord
100
AcDbDimStyleTableRecord
  2
E-Katalog
 70
     0
 41
3.75
 42
0.75
 44
1.25
 73
     0
 74
     0
 77
     1
 78
     8
140
2.5
141
1.25
147
1.25
172
     1
173
     1
178
     0
271
     2
272
     2
278
    44
284
     8
340
137
343
131
344
131
  0
ENDTAB
  0
TABLE
  2
BLOCK_RECORD
  5
1
330
0
100
AcDbSymbolTable
 70
    12
  0
BLOCK_RECORD
  5
1F
330
1
100
AcDbSymbolTableRecord
100
AcDbBlockTableRecord
  2
*Model_Space
340
22
 70
     0
280
     1
281
     0
  0
BLOCK_RECORD
  5
1B
330
1
100
AcDbSymbolTableRecord
100
AcDbBlockTableRecord
  2
*Paper_Space
340
1E
 70
     0
280
     1
281
     0
  0
BLOCK_RECORD
  5
6F
330
1
100
AcDbSymbolTableRecord
100
AcDbBlockTableRecord
  2
SE
340
0
102
{BLKREFS
331
70
102
}
 70
     0
280
     1
281
     0
  0
BLOCK_RECORD
  5
125
330
1
100
AcDbSymbolTableRecord
100
AcDbBlockTableRecord
  2
_OBLIQUE
340
0
 70
     0
280
     1
281
     0
  0
BLOCK_RECORD
  5
129
330
1
100
AcDbSymbolTableRecord
100
AcDbBlockTableRecord
  2
_DOT
340
0
 70
     0
280
     1
281
     0
  0
BLOCK_RECORD
  5
131
330
1
100
AcDbSymbolTableRecord
100
AcDbBlockTableRecord
  2
_SE_OPEN
340
0
 70
     0
280
     1
281
     0
  0
BLOCK_RECORD
  5
13A
330
1
100
AcDbSymbolTableRecord
100
AcDbBlockTableRecord
  2
DMBLK13
340
0
 70
     0
280
     1
281
     0
  0
BLOCK_RECORD
  5
144
330
1
100
AcDbSymbolTableRecord
100
AcDbBlockTableRecord
  2
DMBLK14
340
0
 70
     0
280
     1
281
     0
  0
BLOCK_RECORD
  5
14D
330
1
100
AcDbSymbolTableRecord
100
AcDbBlockTableRecord
  2
SE1
340
0
102
{BLKREFS
331
14E
102
}
 70
     0
280
     1
281
     0
  0
BLOCK_RECORD
  5
1FE
330
1
100
AcDbSymbolTableRecord
100
AcDbBlockTableRecord
  2
SE2
340
0
102
{BLKREFS
331
1FF
102
}
 70
     0
280
     1
281
     0
  0
BLOCK_RECORD
  5
2CA
330
1
100
AcDbSymbolTableRecord
100
AcDbBlockTableRecord
  2
SE3
340
0
102
{BLKREFS
331
2CB
102
}
 70
     0
280
     1
281
     0
  0
BLOCK_RECORD
  5
395
330
1
100
AcDbSymbolTableRecord
100
AcDbBlockTableRecord
  2
DMBLK15
340
0
 70
     0
280
     1
281
     0
  0
BLOCK_RECORD
  5
39F
330
1
100
AcDbSymbolTableRecord
100
AcDbBlockTableRecord
  2
DMBLK16
340
0
 70
     0
280
     1
281
     0
  0
ENDTAB
  0
ENDSEC
  0
SECTION
  2
BLOCKS
  0
BLOCK
  5
20
330
1F
100
AcDbEntity
  8
0
100
AcDbBlockBegin
  2
*Model_Space
 70
     0
 10
0.0
 20
0.0
 30
0.0
  3
*Model_Space
  1
*Model_Space
  0
ENDBLK
  5
21
330
1F
100
AcDbEntity
  8
0
100
AcDbBlockEnd
  0
BLOCK
  5
1C
330
1B
100
AcDbEntity
 67
     1
  8
0
100
AcDbBlockBegin
  2
*Paper_Space
 70
     0
 10
0.0
 20
0.0
 30
0.0
  3
*Paper_Space
  1
*Paper_Space
  0
ENDBLK
  5
1D
330
1B
100
AcDbEntity
 67
     1
  8
0
100
AcDbBlockEnd
  0
BLOCK
  5
122
330
6F
100
AcDbEntity
  8
0
100
AcDbBlockBegin
  2
SE
 70
     0
 10
0.0
 20
0.0
 30
0.0
  3
SE
  1
SE
  0
LINE
  5
72
330
6F
100
AcDbEntity
  8
AJ_221
  6
Continuous
 62
     7
100
AcDbLine
 10
57.3672115332
 20
214.1309804068
 30
0.0
 11
68.3672115332
 21
214.1309803146
 31
0.0
  0
LINE
  5
73
330
6F
100
AcDbEntity
  8
AJ_221
  6
Continuous
 62
     7
100
AcDbLine
 10
57.3672115885
 20
220.7309804068
 30
0.0
 11
68.3672115885
 21
220.7309803146
 31
0.0
  0
LINE
  5
74
330
6F
100
AcDbEntity
  8
AJ_221
  6
Continuous
 62
     7
100
AcDbLine
 10
57.3672115332
 20
214.1309804068
 30
0.0
 11
57.3321711653
 21
214.1309804071
 31
0.0
  0
ARC
  5
75
330
6F
100
AcDbEntity
  8
AJ_221
  6
Continuous
 62
     7
100
AcDbCircle
 10
65.4293620344
 20
215.9418592556
 30
0.0
 40
8.29721532648182
100
AcDbArc
 50
180.1391586021
 51
192.6063499485
  0
LINE
  5
76
330
6F
100
AcDbEntity
  8
AJ_221
  6
Continuous
 62
     7
100
AcDbLine
 10
57.1321711803
 20
215.9217071997
 30
0.0
 11
57.1321712056
 21
218.9402536178
 31
0.0
  0
ARC
  5
77
330
6F
100
AcDbEntity
  8
AJ_221
  6
Continuous
 62
     7
100
AcDbCircle
 10
65.4293620593
 20
218.9201014229
 30
0.0
 40
8.29721532648136
100
AcDbArc
 50
167.3936490911
 51
179.8608404375
  0
LINE
  5
78
330
6F
100
AcDbEntity
  8
AJ_221
  6
Continuous
 62
     7
100
AcDbLine
 10
57.3321712206
 20
220.7309804071
 30
0.0
 11
57.3672115885
 21
220.7309804068
 31
0.0
  0
LINE
  5
79
330
6F
100
AcDbEntity
  8
AJ_221
  6
Continuous
 62
     7
100
AcDbLine
 10
69.1321712056
 20
218.9402535173
 30
0.0
 11
69.1321711803
 21
215.9217070991
 31
0.0
  0
ARC
  5
7A
330
6F
100
AcDbEntity
  8
AJ_221
  6
Continuous
 62
     7
100
AcDbCircle
 10
60.8349803266
 20
215.9418592941
 30
0.0
 40
8.297215326480991
100
AcDbArc
 50
347.3936490911
 51
359.8608404375
  0
LINE
  5
7B
330
6F
100
AcDbEntity
  8
AJ_221
  6
Continuous
 62
     7
100
AcDbLine
 10
68.9321711653
 20
214.1309803099
 30
0.0
 11
68.3672115332
 21
214.1309803146
 31
0.0
  0
LINE
  5
7C
330
6F
100
AcDbEntity
  8
AJ_221
  6
Continuous
 62
     7
100
AcDbLine
 10
68.3672115885
 20
220.7309803146
 30
0.0
 11
68.9321712206
 21
220.7309803099
 31
0.0
  0
ARC
  5
7D
330
6F
100
AcDbEntity
  8
AJ_221
  6
Continuous
 62
     7
100
AcDbCircle
 10
60.8349803516
 20
218.9201014614
 30
0.0
 40
8.297215326481881
100
AcDbArc
 50
0.1391586021
 51
12.6063499485
  0
ARC
  5
7F
330
6F
100
AcDbEntity
  8
AP_509_EINGEBAUT
  6
Continuous
 62
     7
100
AcDbCircle
 10
56.3377469041
 20
203.9721341603
 30
0.0
 40
1.999199999996051
100
AcDbArc
 50
179.9897509501
 51
251.4861807278
  0
LINE
  5
80
330
6F
100
AcDbEntity
  8
AP_509_EINGEBAUT
  6
Continuous
 62
     7
100
AcDbLine
 10
54.3415160649
 20
220.5709618061
 30
0.0
 11
54.3385469361
 21
203.9724917766
 31
0.0
  0
ARC
  5
81
330
6F
100
AcDbEntity
  8
AP_509_EINGEBAUT
  6
Continuous
 62
     7
100
AcDbCircle
 10
54.8402801877
 20
220.4644989029
 30
0.0
 40
0.5099999999999997
100
AcDbArc
 50
12.0869871396
 51
167.9508445747
  0
LINE
  5
82
330
6F
100
AcDbEntity
  8
AP_509_EINGEBAUT
  6
Continuous
 62
     7
100
AcDbLine
 10
55.338973439
 20
210.0791109129
 30
0.0
 11
55.3389739057
 21
220.5712911108
 31
0.0
  0
ARC
  5
83
330
6F
100
AcDbEntity
  8
AP_509_EINGEBAUT
  6
Continuous
 62
     7
100
AcDbCircle
 10
55.5388372345
 20
210.0743706961
 30
0.0
 40
0.1999199999930275
100
AcDbArc
 50
178.6413571855
 51
269.9999985599
  0
LINE
  5
84
330
6F
100
AcDbEntity
  8
AP_509_EINGEBAUT
  6
Continuous
 62
     7
100
AcDbLine
 10
55.7731676953
 20
209.8744506902
 30
0.0
 11
55.5388372294
 21
209.8744506961
 31
0.0
  0
ARC
  5
85
330
6F
100
AcDbEntity
  8
AP_509_EINGEBAUT
  6
Continuous
 62
     7
100
AcDbCircle
 10
55.7731677003
 20
210.0744506902
 30
0.0
 40
0.2000000000000014
100
AcDbArc
 50
269.9999985599
 51
340.0222664667
  0
LINE
  5
86
330
6F
100
AcDbEntity
  8
AP_509_EINGEBAUT
  6
Continuous
 62
     7
100
AcDbLine
 10
56.0255291592
 20
210.1832614301
 30
0.0
 11
55.9611327937
 21
210.006119704
 31
0.0
  0
ARC
  5
87
330
6F
100
AcDbEntity
  8
AP_509_EINGEBAUT
  6
Continuous
 62
     7
100
AcDbCircle
 10
56.1597570538
 20
210.134465538
 30
0.0
 40
0.1428221509242806
100
AcDbArc
 50
69.4463628256
 51
160.0222664667
  0
ARC
  5
88
330
6F
100
AcDbEntity
  8
AP_509_EINGEBAUT
  6
Continuous
 62
     7
100
AcDbCircle
 10
55.8638577595
 20
209.5430613709
 30
0.0
 40
0.8034709028220113
100
AcDbArc
 50
44.6357707107
 51
64.4890381479
  0
ARC
  5
89
330
6F
100
AcDbEntity
  8
AP_509_EINGEBAUT
  6
Continuous
 62
     7
100
AcDbCircle
 10
55.0318867209
 20
208.7439653607
 30
0.0
 40
1.956998650314431
100
AcDbArc
 50
1.6372756877
 51
44.1698465874
  0
ARC
  5
8A
330
6F
100
AcDbEntity
  8
AP_509_EINGEBAUT
  6
Continuous
 62
     7
100
AcDbCircle
 10
55.0318867218
 20
208.8557959781
 30
0.0
 40
1.956998650314431
100
AcDbArc
 50
315.8301524522
 51
358.3627233478
  0
ARC
  5
8B
330
6F
100
AcDbEntity
  8
AP_509_EINGEBAUT
  6
Continuous
 62
     7
100
AcDbCircle
 10
55.8638577471
 20
208.0566999539
 30
0.0
 40
0.8034709028220103
100
AcDbArc
 50
295.5109608917
 51
315.3642283289
  0
ARC
  5
8C
330
6F
100
AcDbEntity
  8
AP_509_EINGEBAUT
  6
Continuous
 62
     7
100
AcDbCircle
 10
56.1597570315
 20
207.4652957819
 30
0.0
 40
0.142822150924308
100
AcDbArc
 50
199.9777325719
 51
290.5536362141
  0
LINE
  5
8D
330
6F
100
AcDbEntity
  8
AP_509_EINGEBAUT
  6
Continuous
 62
     7
100
AcDbLine
 10
55.9611327735
 20
207.5936416192
 30
0.0
 11
56.025529136
 21
207.416499892
 31
0.0
  0
ARC
  5
8E
330
6F
100
AcDbEntity
  8
AP_509_EINGEBAUT
  6
Continuous
 62
     7
100
AcDbCircle
 10
55.773167679
 20
207.5253106362
 30
0.0
 40
0.2000000000000005
100
AcDbArc
 50
19.977732573
 51
90.0000004797
  0
LINE
  5
8F
330
6F
100
AcDbEntity
  8
AP_509_EINGEBAUT
  6
Continuous
 62
     7
100
AcDbLine
 10
55.5388372114
 20
207.7253106342
 30
0.0
 11
55.7731676773
 21
207.7253106362
 31
0.0
  0
ARC
  5
90
330
6F
100
AcDbEntity
  8
AP_509_EINGEBAUT
  6
Continuous
 62
     7
100
AcDbCircle
 10
55.5388372131
 20
207.5253906342
 30
0.0
 40
0.1999199999930865
100
AcDbArc
 50
90.0000004797
 51
178.6413572299
  0
LINE
  5
91
330
6F
100
AcDbEntity
  8
AP_509_EINGEBAUT
  6
Continuous
 62
     7
100
AcDbLine
 10
55.3389734341
 20
203.9626941904
 30
0.0
 11
55.3389734176
 21
207.5301308509
 31
0.0
  0
ARC
  5
92
330
6F
100
AcDbEntity
  8
AP_509_EINGEBAUT
  6
Continuous
 62
     7
100
AcDbCircle
 10
55.139053434
 20
203.9626941921
 30
0.0
 40
0.1999200000285267
100
AcDbArc
 50
313.7036650705
 51
359.9999995198
  0
ARC
  5
93
330
6F
100
AcDbEntity
  8
AP_509_EINGEBAUT
  6
Continuous
 62
     7
100
AcDbCircle
 10
55.6225100333
 20
203.4568505453
 30
0.0
 40
0.4997999999975766
100
AcDbArc
 50
133.7036650705
 51
311.8406016219
  0
ARC
  5
94
330
6F
100
AcDbEntity
  8
AP_509_EINGEBAUT
  6
Continuous
 62
     7
100
AcDbCircle
 10
56.089265656
 20
202.9355567058
 30
0.0
 40
0.1999199999987128
100
AcDbArc
 50
63.4955820333
 51
131.840601622
  0
ARC
  5
95
330
6F
100
AcDbEntity
  8
AP_509_EINGEBAUT
  6
Continuous
 62
     7
100
AcDbCircle
 10
63.2196050655
 20
217.2340439412
 30
0.0
 40
15.7778294445906
100
AcDbArc
 50
243.4955820374
 51
269.8185048937
  0
ARC
  5
96
330
6F
100
AcDbEntity
  8
AP_509_EINGEBAUT
  6
Continuous
 62
     7
100
AcDbCircle
 10
63.1196468841
 20
217.2340439415
 30
0.0
 40
15.7778294445906
100
AcDbArc
 50
270.1814947155
 51
296.5044170063
  0
ARC
  5
97
330
6F
100
AcDbEntity
  8
AP_509_EINGEBAUT
  6
Continuous
 62
     7
100
AcDbCircle
 10
70.2499860549
 20
202.9355565871
 30
0.0
 40
0.1999199999987117
100
AcDbArc
 50
48.1593974176
 51
116.5044170063
  0
ARC
  5
98
330
6F
100
AcDbEntity
  8
AP_509_EINGEBAUT
  6
Continuous
 62
     7
100
AcDbCircle
 10
70.7167416864
 20
203.4568504188
 30
0.0
 40
0.4997999999975772
100
AcDbArc
 50
228.1593974177
 51
46.2963339691
  0
ARC
  5
99
330
6F
100
AcDbEntity
  8
AP_509_EINGEBAUT
  6
Continuous
 62
     7
100
AcDbCircle
 10
71.2001982941
 20
203.9626940575
 30
0.0
 40
0.1999200000285268
100
AcDbArc
 50
179.9999995198
 51
226.2963339692
  0
LINE
  5
9A
330
6F
100
AcDbEntity
  8
AP_509_EINGEBAUT
  6
Continuous
 62
     7
100
AcDbLine
 10
71.0002783704
 20
207.5301307196
 30
0.0
 11
71.0002782941
 21
203.9626940592
 31
0.0
  0
ARC
  5
9B
330
6F
100
AcDbEntity
  8
AP_509_EINGEBAUT
  6
Continuous
 62
     7
100
AcDbCircle
 10
70.8004145748
 20
207.5253905063
 30
0.0
 40
0.1999199999930258
100
AcDbArc
 50
1.3586418098
 51
89.9999985599
  0
LINE
  5
9C
330
6F
100
AcDbEntity
  8
AP_509_EINGEBAUT
  6
Continuous
 62
     7
100
AcDbLine
 10
70.566084114
 20
207.7253105122
 30
0.0
 11
70.8004145798
 21
207.7253105063
 31
0.0
  0
ARC
  5
9D
330
6F
100
AcDbEntity
  8
AP_509_EINGEBAUT
  6
Continuous
 62
     7
100
AcDbCircle
 10
70.566084109
 20
207.5253105122
 30
0.0
 40
0.2000000000000001
100
AcDbArc
 50
89.9999985599
 51
160.0222664667
  0
LINE
  5
9E
330
6F
100
AcDbEntity
  8
AP_509_EINGEBAUT
  6
Continuous
 62
     7
100
AcDbLine
 10
70.3137226501
 20
207.4164997723
 30
0.0
 11
70.3781190156
 21
207.5936414984
 31
0.0
  0
ARC
  5
9F
330
6F
100
AcDbEntity
  8
AP_509_EINGEBAUT
  6
Continuous
 62
     7
100
AcDbCircle
 10
70.1794947555
 20
207.4652956644
 30
0.0
 40
0.1428221509242806
100
AcDbArc
 50
249.4463628255
 51
340.0222664678
  0
ARC
  5
A0
330
6F
100
AcDbEntity
  8
AP_509_EINGEBAUT
  6
Continuous
 62
     7
100
AcDbCircle
 10
70.4753940498
 20
208.0566998315
 30
0.0
 40
0.803470902822011
100
AcDbArc
 50
224.6357707107
 51
244.489038148
  0
ARC
  5
A1
330
6F
100
AcDbEntity
  8
AP_509_EINGEBAUT
  6
Continuous
 62
     7
100
AcDbCircle
 10
71.3073650884
 20
208.8557958417
 30
0.0
 40
1.956998650314434
100
AcDbArc
 50
181.6372756918
 51
224.1698465875
  0
ARC
  5
A2
330
6F
100
AcDbEntity
  8
AP_509_EINGEBAUT
  6
Continuous
 62
     7
100
AcDbCircle
 10
71.3073650875
 20
208.7439652243
 30
0.0
 40
1.956998650314432
100
AcDbArc
 50
135.8301524523
 51
178.3627233519
  0
ARC
  5
A3
330
6F
100
AcDbEntity
  8
AP_509_EINGEBAUT
  6
Continuous
 62
     7
100
AcDbCircle
 10
70.4753940622
 20
209.5430612485
 30
0.0
 40
0.8034709028220111
100
AcDbArc
 50
115.5109608918
 51
135.3642283289
  0
ARC
  5
A4
330
6F
100
AcDbEntity
  8
AP_509_EINGEBAUT
  6
Continuous
 62
     7
100
AcDbCircle
 10
70.1794947778
 20
210.1344654205
 30
0.0
 40
0.1428221509242804
100
AcDbArc
 50
19.977732573
 51
110.553636214
  0
LINE
  5
A5
330
6F
100
AcDbEntity
  8
AP_509_EINGEBAUT
  6
Continuous
 62
     7
100
AcDbLine
 10
70.3781190358
 20
210.0061195831
 30
0.0
 11
70.3137226733
 21
210.1832613104
 31
0.0
  0
ARC
  5
A6
330
6F
100
AcDbEntity
  8
AP_509_EINGEBAUT
  6
Continuous
 62
     7
100
AcDbCircle
 10
70.5660841303
 20
210.0744505662
 30
0.0
 40
0.2000000000000005
100
AcDbArc
 50
199.977732573
 51
270.0000004797
  0
LINE
  5
A7
330
6F
100
AcDbEntity
  8
AP_509_EINGEBAUT
  6
Continuous
 62
     7
100
AcDbLine
 10
70.8004145978
 20
209.8744505682
 30
0.0
 11
70.566084132
 21
209.8744505662
 31
0.0
  0
ARC
  5
A8
330
6F
100
AcDbEntity
  8
AP_509_EINGEBAUT
  6
Continuous
 62
     7
100
AcDbCircle
 10
70.8004145962
 20
210.0743705682
 30
0.0
 40
0.1999199999931089
100
AcDbArc
 50
270.0000004797
 51
1.3586418542
  0
LINE
  5
A9
330
6F
100
AcDbEntity
  8
AP_509_EINGEBAUT
  6
Continuous
 62
     7
100
AcDbLine
 10
71.0002781009
 20
220.5712909795
 30
0.0
 11
71.0002783917
 21
210.0791107816
 31
0.0
  0
ARC
  5
AA
330
6F
100
AcDbEntity
  8
AP_509_EINGEBAUT
  6
Continuous
 62
     7
100
AcDbCircle
 10
71.4989718171
 20
220.4644987633
 30
0.0
 40
0.5099999999999887
100
AcDbArc
 50
12.049154465
 51
167.9130119
  0
LINE
  5
AB
330
6F
100
AcDbEntity
  8
AP_509_EINGEBAUT
  6
Continuous
 62
     7
100
AcDbLine
 10
72.0007047923
 20
203.9724916285
 30
0.0
 11
71.9977359417
 21
220.5709616581
 31
0.0
  0
ARC
  5
AC
330
6F
100
AcDbEntity
  8
AP_509_EINGEBAUT
  6
Continuous
 62
     7
100
AcDbCircle
 10
70.0015048243
 20
203.9721340458
 30
0.0
 40
1.999199999996051
100
AcDbArc
 50
288.5138183118
 51
0.0102480895
  0
ARC
  5
AD
330
6F
100
AcDbEntity
  8
AP_509_EINGEBAUT
  6
Continuous
 62
     7
100
AcDbCircle
 10
63.1196468886
 20
224.5233663911
 30
0.0
 40
23.67206597467343
100
AcDbArc
 50
270.120968947
 51
288.5138183117
  0
ARC
  5
AE
330
6F
100
AcDbEntity
  8
AP_509_EINGEBAUT
  6
Continuous
 62
     7
100
AcDbCircle
 10
63.2196051843
 20
224.5233663902
 30
0.0
 40
23.67206597467343
100
AcDbArc
 50
251.4861807279
 51
269.879030084
  0
ARC
  5
B0
330
6F
100
AcDbEntity
  8
AP_510_200
  6
Continuous
 62
     7
100
AcDbCircle
 10
57.9265773175
 20
207.4820871265
 30
0.0
 40
0.1999999999999995
100
AcDbArc
 50
89.9999995198
 51
155.1694025705
  0
LINE
  5
B1
330
6F
100
AcDbEntity
  8
AP_510_200
  6
Continuous
 62
     7
100
AcDbLine
 10
57.0711289912
 20
204.2326715756
 30
0.0
 11
57.7450666473
 21
207.5660744863
 31
0.0
  0
ARC
  5
B2
330
6F
100
AcDbEntity
  8
AP_510_200
  6
Continuous
 62
     7
100
AcDbCircle
 10
56.5276621291
 20
204.3171924003
 30
0.0
 40
0.550000000000001
100
AcDbArc
 50
179.9999995198
 51
351.160086152
  0
LINE
  5
B3
330
6F
100
AcDbEntity
  8
AP_510_200
  6
Continuous
 62
     7
100
AcDbLine
 10
55.9776621647
 20
205.0674909385
 30
0.0
 11
55.9776621291
 21
204.3171924049
 31
0.0
  0
ARC
  5
B4
330
6F
100
AcDbEntity
  8
AP_510_200
  6
Continuous
 62
     7
100
AcDbCircle
 10
55.4776621647
 20
205.0674906804
 30
0.0
 40
0.5000000000000007
100
AcDbArc
 50
0.0000295714
 51
48.786105754
  0
LINE
  5
B5
330
6F
100
AcDbEntity
  8
AP_510_200
  6
Continuous
 62
     7
100
AcDbLine
 10
55.488277972
 20
205.7228613207
 30
0.0
 11
55.8070981155
 21
205.4436182576
 31
0.0
  0
ARC
  5
B6
330
6F
100
AcDbEntity
  8
AP_510_200
  6
Continuous
 62
     7
100
AcDbCircle
 10
55.8177143226
 20
206.0989885477
 30
0.0
 40
0.5000000000000014
100
AcDbArc
 50
196.7677971503
 51
228.7860448539
  0
ARC
  5
B7
330
6F
100
AcDbEntity
  8
AP_510_200
  6
Continuous
 62
     7
100
AcDbCircle
 10
55.4677143176
 20
207.4282030995
 30
0.0
 40
0.1499999615606831
100
AcDbArc
 50
89.9999995198
 51
149.1232121567
  0
LINE
  5
B8
330
6F
100
AcDbEntity
  8
AP_510_200
  6
Continuous
 62
     7
100
AcDbLine
 10
55.5059712715
 20
207.5782030608
 30
0.0
 11
55.4677143188
 21
207.5782030611
 31
0.0
  0
ARC
  5
B9
330
6F
100
AcDbEntity
  8
AP_510_200
  6
Continuous
 62
     7
100
AcDbCircle
 10
55.5059712702
 20
207.4282030608
 30
0.0
 40
0.149999999995527
100
AcDbArc
 50
19.8238603743
 51
89.9999995198
  0
LINE
  5
BA
330
6F
100
AcDbEntity
  8
AP_510_200
  6
Continuous
 62
     7
100
AcDbLine
 10
55.7908178205
 20
207.080352573
 30
0.0
 11
55.6470822136
 21
207.4790725177
 31
0.0
  0
ARC
  5
BB
330
6F
100
AcDbEntity
  8
AP_510_200
  6
Continuous
 62
     7
100
AcDbCircle
 10
55.978965739
 20
207.1481785202
 30
0.0
 40
0.1999999959120258
100
AcDbArc
 50
199.8238622011
 51
269.9999995198
  0
LINE
  5
BC
330
6F
100
AcDbEntity
  8
AP_510_200
  6
Continuous
 62
     7
100
AcDbLine
 10
56.1994614195
 20
206.9481785225
 30
0.0
 11
55.9789657373
 21
206.9481785243
 31
0.0
  0
ARC
  5
BD
330
6F
100
AcDbEntity
  8
AP_510_200
  6
Continuous
 62
     7
100
AcDbCircle
 10
56.1994614256
 20
207.1481785225
 30
0.0
 40
0.2000000000010712
100
AcDbArc
 50
269.9999982364
 51
314.9999995198
  0
LINE
  5
BE
330
6F
100
AcDbEntity
  8
AP_510_200
  6
Continuous
 62
     7
100
AcDbLine
 10
56.8524875601
 20
207.5183619359
 30
0.0
 11
56.3408827807
 21
207.006757165
 31
0.0
  0
ARC
  5
BF
330
6F
100
AcDbEntity
  8
AP_510_200
  6
Continuous
 62
     7
100
AcDbCircle
 10
56.4989341725
 20
207.8719153295
 30
0.0
 40
0.4999999999999987
100
AcDbArc
 50
314.9999995198
 51
359.9999995198
  0
LINE
  5
C0
330
6F
100
AcDbEntity
  8
AP_510_200
  6
Continuous
 62
     7
100
AcDbLine
 10
56.9989341867
 20
209.5692190957
 30
0.0
 11
56.9989341725
 21
207.8719153253
 31
0.0
  0
ARC
  5
C1
330
6F
100
AcDbEntity
  8
AP_510_200
  6
Continuous
 62
     7
100
AcDbCircle
 10
56.4989341867
 20
209.5692190999
 30
0.0
 40
0.5000000000235068
100
AcDbArc
 50
0.0
 51
44.9999995185
  0
LINE
  5
C2
330
6F
100
AcDbEntity
  8
AP_510_200
  6
Continuous
 62
     7
100
AcDbLine
 10
56.3830504003
 20
210.3922096754
 30
0.0
 11
56.8524875803
 21
209.9227724875
 31
0.0
  0
ARC
  5
C3
330
6F
100
AcDbEntity
  8
AP_510_200
  6
Continuous
 62
     7
100
AcDbCircle
 10
56.2416290428
 20
210.2507883203
 30
0.0
 40
0.200000000038586
100
AcDbArc
 50
44.9999995185
 51
89.9999995198
  0
LINE
  5
C4
330
6F
100
AcDbEntity
  8
AP_510_200
  6
Continuous
 62
     7
100
AcDbLine
 10
55.9789659776
 20
210.4507883225
 30
0.0
 11
56.2416290445
 21
210.4507883203
 31
0.0
  0
ARC
  5
C5
330
6F
100
AcDbEntity
  8
AP_510_200
  6
Continuous
 62
     7
100
AcDbCircle
 10
55.9789659759
 20
210.2507883225
 30
0.0
 40
0.2000000000014239
100
AcDbArc
 50
89.9999995198
 51
160.1761157296
  0
LINE
  5
C6
330
6F
100
AcDbEntity
  8
AP_510_200
  6
Continuous
 62
     7
100
AcDbLine
 10
55.6470823209
 20
209.9198944985
 30
0.0
 11
55.7908180797
 21
210.3186143437
 31
0.0
  0
ARC
  5
C7
330
6F
100
AcDbEntity
  8
AP_510_200
  6
Continuous
 62
     7
100
AcDbCircle
 10
55.5059713283
 20
209.9707640398
 30
0.0
 40
0.1500000748122787
100
AcDbArc
 50
320.0522581345
 51
340.1761157295
  0
ARC
  5
C8
330
6F
100
AcDbEntity
  8
AP_510_200
  6
Continuous
 62
     7
100
AcDbCircle
 10
55.446526511
 20
212.978679438
 30
0.0
 40
0.2811073305777832
100
AcDbArc
 50
89.9999985593
 51
112.4951053779
  0
LINE
  5
C9
330
6F
100
AcDbEntity
  8
AP_510_200
  6
Continuous
 62
     7
100
AcDbLine
 10
55.5571992587
 20
213.2597867658
 30
0.0
 11
55.4465265181
 21
213.2597867686
 31
0.0
  0
ARC
  5
CA
330
6F
100
AcDbEntity
  8
AP_510_200
  6
Continuous
 62
     7
100
AcDbCircle
 10
55.5571992461
 20
212.7597867658
 30
0.0
 40
0.4999999999999977
100
AcDbArc
 50
33.8334835048
 51
89.9999985593
  0
LINE
  5
CB
330
6F
100
AcDbEntity
  8
AP_510_200
  6
Continuous
 62
     7
100
AcDbLine
 10
56.2568861078
 20
212.6139460703
 30
0.0
 11
55.972528861
 21
213.0381773387
 31
0.0
  0
ARC
  5
CC
330
6F
100
AcDbEntity
  8
AP_510_200
  6
Continuous
 62
     7
100
AcDbCircle
 10
56.5060838767
 20
212.780980414
 30
0.0
 40
0.3000000000000017
100
AcDbArc
 50
213.8334835048
 51
269.9999995198
  0
LINE
  5
CD
330
6F
100
AcDbEntity
  8
AP_510_200
  6
Continuous
 62
     7
100
AcDbLine
 10
57.2487754343
 20
212.4809804078
 30
0.0
 11
56.5060838742
 21
212.480980414
 31
0.0
  0
ARC
  5
CE
330
6F
100
AcDbEntity
  8
AP_510_200
  6
Continuous
 62
     7
100
AcDbCircle
 10
57.2487754318
 20
212.1809804078
 30
0.0
 40
0.2999999999999999
100
AcDbArc
 50
0.0
 51
89.9999995198
  0
LINE
  5
CF
330
6F
100
AcDbEntity
  8
AP_510_200
  6
Continuous
 62
     7
100
AcDbLine
 10
57.7991629259
 20
208.8820872221
 30
0.0
 11
57.5487754318
 21
212.1809804053
 31
0.0
  0
ARC
  5
D0
330
6F
100
AcDbEntity
  8
AP_510_200
  6
Continuous
 62
     7
100
AcDbCircle
 10
57.9991629259
 20
208.8820872205
 30
0.0
 40
0.2000000000003168
100
AcDbArc
 50
179.9999995198
 51
270.0001010447
  0
LINE
  5
D1
330
6F
100
AcDbEntity
  8
AP_510_200
  6
Continuous
 62
     7
100
AcDbLine
 10
68.2711877342
 20
208.6820871344
 30
0.0
 11
57.9991632786
 21
208.6820872205
 31
0.0
  0
ARC
  5
D2
330
6F
100
AcDbEntity
  8
AP_510_200
  6
Continuous
 62
     7
100
AcDbCircle
 10
68.2711877359
 20
208.8820871344
 30
0.0
 40
0.1999999999999997
100
AcDbArc
 50
269.9999995198
 51
359.9999995198
  0
LINE
  5
D3
330
6F
100
AcDbEntity
  8
AP_510_200
  6
Continuous
 62
     7
100
AcDbLine
 10
68.7215752853
 20
212.1809803116
 30
0.0
 11
68.4711877359
 21
208.8820871327
 31
0.0
  0
ARC
  5
D4
330
6F
100
AcDbEntity
  8
AP_510_200
  6
Continuous
 62
     7
100
AcDbCircle
 10
69.0215752853
 20
212.1809803091
 30
0.0
 40
0.3000000000000017
100
AcDbArc
 50
89.9999995198
 51
179.9999995198
  0
LINE
  5
D5
330
6F
100
AcDbEntity
  8
AP_510_200
  6
Continuous
 62
     7
100
AcDbLine
 10
69.7642668479
 20
212.4809803029
 30
0.0
 11
69.0215752879
 21
212.4809803091
 31
0.0
  0
ARC
  5
D6
330
6F
100
AcDbEntity
  8
AP_510_200
  6
Continuous
 62
     7
100
AcDbCircle
 10
69.7642668505
 20
212.7809803029
 30
0.0
 40
0.2999999999999977
100
AcDbArc
 50
269.9999995198
 51
326.1665155349
  0
LINE
  5
D7
330
6F
100
AcDbEntity
  8
AP_510_200
  6
Continuous
 62
     7
100
AcDbLine
 10
70.2978218705
 20
213.0381772186
 30
0.0
 11
70.0134646166
 21
212.613945955
 31
0.0
  0
ARC
  5
D8
330
6F
100
AcDbEntity
  8
AP_510_200
  6
Continuous
 62
     7
100
AcDbCircle
 10
70.7131514807
 20
212.7597866388
 30
0.0
 40
0.5000000000000004
100
AcDbArc
 50
90.0000004804
 51
146.1665155349
  0
LINE
  5
D9
330
6F
100
AcDbEntity
  8
AP_510_200
  6
Continuous
 62
     7
100
AcDbLine
 10
70.8238242171
 20
213.2597866398
 30
0.0
 11
70.7131514765
 21
213.2597866388
 31
0.0
  0
ARC
  5
DA
330
6F
100
AcDbEntity
  8
AP_510_200
  6
Continuous
 62
     7
100
AcDbCircle
 10
70.8238242195
 20
212.9786793092
 30
0.0
 40
0.2811073305777823
100
AcDbArc
 50
297.2730169901
 51
308.8814282599
  0
ARC
  5
DB
330
6F
100
AcDbEntity
  8
AP_510_200
  6
Continuous
 62
     7
100
AcDbCircle
 10
70.8238242195
 20
212.9786793092
 30
0.0
 40
0.2811073305777823
100
AcDbArc
 50
51.1185749165
 51
90.0000004804
  0
LINE
  5
DC
330
6F
100
AcDbEntity
  8
AP_510_200
  6
Continuous
 62
     7
100
AcDbLine
 10
70.9526363403
 20
209.9707638355
 30
0.0
 11
70.9526363172
 21
212.7288218002
 31
0.0
  0
ARC
  5
DD
330
6F
100
AcDbEntity
  8
AP_510_200
  6
Continuous
 62
     7
100
AcDbCircle
 10
70.8026363403
 20
209.9707638367
 30
0.0
 40
0.1500000000002472
100
AcDbArc
 50
348.7288622957
 51
359.9999995198
  0
ARC
  5
DE
330
6F
100
AcDbEntity
  8
AP_510_200
  6
Continuous
 62
     7
100
AcDbCircle
 10
70.7643793518
 20
209.9707639119
 30
0.0
 40
0.150000074812283
100
AcDbArc
 50
199.8238833096
 51
219.947741479
  0
LINE
  5
DF
330
6F
100
AcDbEntity
  8
AP_510_200
  6
Continuous
 62
     7
100
AcDbLine
 10
70.4795326062
 20
210.3186142206
 30
0.0
 11
70.6232683584
 21
209.919894373
 31
0.0
  0
ARC
  5
E0
330
6F
100
AcDbEntity
  8
AP_510_200
  6
Continuous
 62
     7
100
AcDbCircle
 10
70.2913847089
 20
210.2507882026
 30
0.0
 40
0.2000000000007135
100
AcDbArc
 50
19.8238833095
 51
89.9999995198
  0
LINE
  5
E1
330
6F
100
AcDbEntity
  8
AP_510_200
  6
Continuous
 62
     7
100
AcDbLine
 10
70.0287216436
 20
210.4507882048
 30
0.0
 11
70.2913847105
 21
210.4507882026
 31
0.0
  0
ARC
  5
E2
330
6F
100
AcDbEntity
  8
AP_510_200
  6
Continuous
 62
     7
100
AcDbCircle
 10
70.0287216419
 20
210.2507882048
 30
0.0
 40
0.2000000000385829
100
AcDbArc
 50
89.9999995198
 51
134.9999995213
  0
LINE
  5
E3
330
6F
100
AcDbEntity
  8
AP_510_200
  6
Continuous
 62
     7
100
AcDbLine
 10
69.417863099
 20
209.9227723822
 30
0.0
 11
69.8873002868
 21
210.3922095622
 31
0.0
  0
ARC
  5
E4
330
6F
100
AcDbEntity
  8
AP_510_200
  6
Continuous
 62
     7
100
AcDbCircle
 10
69.7714164866
 20
209.5692189886
 30
0.0
 40
0.5000000000246058
100
AcDbArc
 50
134.9999995213
 51
179.9999995198
  0
LINE
  5
E5
330
6F
100
AcDbEntity
  8
AP_510_200
  6
Continuous
 62
     7
100
AcDbLine
 10
69.2714164724
 20
207.8719152225
 30
0.0
 11
69.2714164866
 21
209.5692189928
 31
0.0
  0
ARC
  5
E6
330
6F
100
AcDbEntity
  8
AP_510_200
  6
Continuous
 62
     7
100
AcDbCircle
 10
69.7714164724
 20
207.8719152183
 30
0.0
 40
0.5000000000000093
100
AcDbArc
 50
179.9999995198
 51
224.9999995198
  0
LINE
  5
E7
330
6F
100
AcDbEntity
  8
AP_510_200
  6
Continuous
 62
     7
100
AcDbLine
 10
69.9294678497
 20
207.0067570512
 30
0.0
 11
69.4178630788
 21
207.5183618306
 31
0.0
  0
ARC
  5
E8
330
6F
100
AcDbEntity
  8
AP_510_200
  6
Continuous
 62
     7
100
AcDbCircle
 10
70.0708892071
 20
207.1481784062
 30
0.0
 40
0.2000000000010743
100
AcDbArc
 50
224.9999995198
 51
270.0000008032
  0
LINE
  5
E9
330
6F
100
AcDbEntity
  8
AP_510_200
  6
Continuous
 62
     7
100
AcDbLine
 10
70.2913848921
 20
206.9481784044
 30
0.0
 11
70.0708892099
 21
206.9481784062
 31
0.0
  0
ARC
  5
EA
330
6F
100
AcDbEntity
  8
AP_510_200
  6
Continuous
 62
     7
100
AcDbCircle
 10
70.2913848938
 20
207.1481784003
 30
0.0
 40
0.1999999959117452
100
AcDbArc
 50
269.9999995198
 51
340.1761368385
  0
LINE
  5
EB
330
6F
100
AcDbEntity
  8
AP_510_200
  6
Continuous
 62
     7
100
AcDbLine
 10
70.6232684247
 20
207.4790723922
 30
0.0
 11
70.4795328112
 21
207.0803524499
 31
0.0
  0
ARC
  5
EC
330
6F
100
AcDbEntity
  8
AP_510_200
  6
Continuous
 62
     7
100
AcDbCircle
 10
70.7643793672
 20
207.4282029329
 30
0.0
 40
0.1499999999955287
100
AcDbArc
 50
89.9999995198
 51
160.1761386654
  0
LINE
  5
ED
330
6F
100
AcDbEntity
  8
AP_510_200
  6
Continuous
 62
     7
100
AcDbLine
 10
70.8026363211
 20
207.5782029326
 30
0.0
 11
70.7643793685
 21
207.5782029329
 31
0.0
  0
ARC
  5
EE
330
6F
100
AcDbEntity
  8
AP_510_200
  6
Continuous
 62
     7
100
AcDbCircle
 10
70.8026363199
 20
207.428202971
 30
0.0
 40
0.1499999615605296
100
AcDbArc
 50
0.0000004804
 51
89.9999995198
  0
LINE
  5
EF
330
6F
100
AcDbEntity
  8
AP_510_200
  6
Continuous
 62
     7
100
AcDbLine
 10
70.9526362926
 20
206.0989884293
 30
0.0
 11
70.9526362814
 21
207.4282029723
 31
0.0
  0
ARC
  5
F0
330
6F
100
AcDbEntity
  8
AP_510_200
  6
Continuous
 62
     7
100
AcDbCircle
 10
70.4526362926
 20
206.0989884251
 30
0.0
 40
0.4999999999999951
100
AcDbArc
 50
311.2139541857
 51
0.0
  0
LINE
  5
F1
330
6F
100
AcDbEntity
  8
AP_510_200
  6
Continuous
 62
     7
100
AcDbLine
 10
70.4632524887
 20
205.4436181347
 30
0.0
 11
70.7820726369
 21
205.7228611925
 31
0.0
  0
ARC
  5
F2
330
6F
100
AcDbEntity
  8
AP_510_200
  6
Continuous
 62
     7
100
AcDbCircle
 10
70.7926887876
 20
205.0674908624
 30
0.0
 40
0.5000000000000007
100
AcDbArc
 50
131.2139472699
 51
180.000005037
  0
LINE
  5
F3
330
6F
100
AcDbEntity
  8
AP_510_200
  6
Continuous
 62
     7
100
AcDbLine
 10
70.2926888106
 20
204.3171922849
 30
0.0
 11
70.2926887876
 21
205.0674908185
 31
0.0
  0
ARC
  5
F4
330
6F
100
AcDbEntity
  8
AP_510_200
  6
Continuous
 62
     7
100
AcDbCircle
 10
69.7426888106
 20
204.3171922895
 30
0.0
 40
0.5499999999999998
100
AcDbArc
 50
188.8399128877
 51
359.9999995198
  0
LINE
  5
F5
330
6F
100
AcDbEntity
  8
AP_510_200
  6
Continuous
 62
     7
100
AcDbLine
 10
68.5252843468
 20
207.566074396
 30
0.0
 11
69.1992219471
 21
204.2326714739
 31
0.0
  0
ARC
  5
F6
330
6F
100
AcDbEntity
  8
AP_510_200
  6
Continuous
 62
     7
100
AcDbCircle
 10
68.3437736752
 20
207.4820870392
 30
0.0
 40
0.1999999999999988
100
AcDbArc
 50
24.8305964691
 51
89.9999995198
  0
LINE
  5
F7
330
6F
100
AcDbEntity
  8
AP_510_200
  6
Continuous
 62
     7
100
AcDbLine
 10
57.9265773192
 20
207.6820871265
 30
0.0
 11
68.3437736769
 21
207.6820870392
 31
0.0
  0
ARC
  5
F9
330
6F
100
AcDbEntity
  8
AP_511
  6
Continuous
 62
     7
100
AcDbCircle
 10
53.3351767095
 20
203.0809824406
 30
0.0
 40
0.1999999999999971
100
AcDbArc
 50
179.9999995198
 51
269.9999995199
  0
LINE
  5
FA
330
6F
100
AcDbEntity
  8
AP_511
  6
Continuous
 62
     7
100
AcDbLine
 10
53.1351768671
 20
221.8809799423
 30
0.0
 11
53.1351767095
 21
203.0809824423
 31
0.0
  0
ARC
  5
FB
330
6F
100
AcDbEntity
  8
AP_511
  6
Continuous
 62
     7
100
AcDbCircle
 10
54.1351768671
 20
221.8809799339
 30
0.0
 40
0.9999999999996123
100
AcDbArc
 50
89.9999995198
 51
179.9999995198
  0
LINE
  5
FC
330
6F
100
AcDbEntity
  8
AP_511
  6
Continuous
 62
     7
100
AcDbLine
 10
72.1351743754
 20
222.880979783
 30
0.0
 11
54.1351768754
 21
222.8809799339
 31
0.0
  0
ARC
  5
FD
330
6F
100
AcDbEntity
  8
AP_511
  6
Continuous
 62
     7
100
AcDbCircle
 10
72.1351743671
 20
221.880979783
 30
0.0
 40
0.9999999999996123
100
AcDbArc
 50
0.0
 51
89.9999995198
  0
LINE
  5
FE
330
6F
100
AcDbEntity
  8
AP_511
  6
Continuous
 62
     7
100
AcDbLine
 10
73.1351742095
 20
203.0756093268
 30
0.0
 11
73.1351743671
 21
221.8809797747
 31
0.0
  0
ARC
  5
FF
330
6F
100
AcDbEntity
  8
AP_511
  6
Continuous
 62
     7
100
AcDbCircle
 10
72.939978657
 20
203.0756093284
 30
0.0
 40
0.1951955524478992
100
AcDbArc
 50
276.3530224399
 51
359.9999995198
  0
LINE
  5
100
330
6F
100
AcDbEntity
  8
AP_511
  6
Continuous
 62
     7
100
AcDbLine
 10
72.9351742078
 20
202.881612476
 30
0.0
 11
72.9615778435
 21
202.8816124757
 31
0.0
  0
ARC
  5
101
330
6F
100
AcDbEntity
  8
AP_511
  6
Continuous
 62
     7
100
AcDbCircle
 10
72.9351742145
 20
203.681612476
 30
0.0
 40
0.8000000000000004
100
AcDbArc
 50
179.9999995198
 51
269.9999995198
  0
LINE
  5
102
330
6F
100
AcDbEntity
  8
AP_511
  6
Continuous
 62
     7
100
AcDbLine
 10
72.135174357
 20
220.67746113
 30
0.0
 11
72.1351742145
 21
203.6816124827
 31
0.0
  0
ARC
  5
103
330
6F
100
AcDbEntity
  8
AP_511
  6
Continuous
 62
     7
100
AcDbCircle
 10
71.935174357
 20
220.6774611316
 30
0.0
 40
0.1999999999999988
100
AcDbArc
 50
0.0
 51
89.9999995198
  0
LINE
  5
104
330
6F
100
AcDbEntity
  8
AP_511
  6
Continuous
 62
     7
100
AcDbLine
 10
70.5321712221
 20
220.8774611434
 30
0.0
 11
71.1997025784
 21
220.8774611378
 31
0.0
  0
LINE
  5
105
330
6F
100
AcDbEntity
  8
AP_511
  6
Continuous
 62
     7
100
AcDbLine
 10
71.7982410627
 20
220.8774611328
 30
0.0
 11
71.9351743586
 21
220.8774611316
 31
0.0
  0
ARC
  5
106
330
6F
100
AcDbEntity
  8
AP_511
  6
Continuous
 62
     7
100
AcDbCircle
 10
70.5321712204
 20
220.6774611434
 30
0.0
 40
0.1999999999999997
100
AcDbArc
 50
89.9999995249
 51
179.9999995198
  0
LINE
  5
107
330
6F
100
AcDbEntity
  8
AP_511
  6
Continuous
 62
     7
100
AcDbLine
 10
70.3321711651
 20
214.0809802979
 30
0.0
 11
70.3321712204
 21
220.6774611451
 31
0.0
  0
ARC
  5
108
330
6F
100
AcDbEntity
  8
AP_511
  6
Continuous
 62
     7
100
AcDbCircle
 10
69.032171166
 20
214.1851469754
 30
0.0
 40
1.304166666647575
100
AcDbArc
 50
269.9999995093
 51
355.4187794353
  0
LINE
  5
109
330
6F
100
AcDbEntity
  8
AP_511
  6
Continuous
 62
     7
100
AcDbLine
 10
67.4821711548
 20
212.880980322
 30
0.0
 11
69.0321711548
 21
212.8809803088
 31
0.0
  0
ARC
  5
10A
330
6F
100
AcDbEntity
  8
AP_511
  6
Continuous
 62
     7
100
AcDbCircle
 10
67.4821711565
 20
213.080980322
 30
0.0
 40
0.1999999999999997
100
AcDbArc
 50
179.9999995198
 51
269.9999995101
  0
LINE
  5
10B
330
6F
100
AcDbEntity
  8
AP_511
  6
Continuous
 62
     7
100
AcDbLine
 10
67.2821711616
 20
213.6809803237
 30
0.0
 11
67.2821711565
 21
213.0809803237
 31
0.0
  0
ARC
  5
10C
330
6F
100
AcDbEntity
  8
AP_511
  6
Continuous
 62
     7
100
AcDbCircle
 10
67.4821711616
 20
213.680980322
 30
0.0
 40
0.2000000000000005
100
AcDbArc
 50
89.9999995198
 51
179.9999995198
  0
LINE
  5
10D
330
6F
100
AcDbEntity
  8
AP_511
  6
Continuous
 62
     7
100
AcDbLine
 10
69.0821711632
 20
213.8809803086
 30
0.0
 11
67.4821711632
 21
213.880980322
 31
0.0
  0
ARC
  5
10E
330
6F
100
AcDbEntity
  8
AP_511
  6
Continuous
 62
     7
100
AcDbCircle
 10
69.0821711649
 20
214.0809803086
 30
0.0
 40
0.1999999999999988
100
AcDbArc
 50
269.9999995198
 51
359.9999995198
  0
LINE
  5
10F
330
6F
100
AcDbEntity
  8
AP_511
  6
Continuous
 62
     7
100
AcDbLine
 10
69.2821712269
 20
221.4809803069
 30
0.0
 11
69.2821711649
 21
214.0809803069
 31
0.0
  0
ARC
  5
110
330
6F
100
AcDbEntity
  8
AP_511
  6
Continuous
 62
     7
100
AcDbCircle
 10
68.8821712269
 20
221.4809803103
 30
0.0
 40
0.400000000000001
100
AcDbArc
 50
0.0
 51
89.9999995198
  0
LINE
  5
111
330
6F
100
AcDbEntity
  8
AP_511
  6
Continuous
 62
     7
100
AcDbLine
 10
57.3821712303
 20
221.8809804067
 30
0.0
 11
68.8821712303
 21
221.8809803103
 31
0.0
  0
ARC
  5
112
330
6F
100
AcDbEntity
  8
AP_511
  6
Continuous
 62
     7
100
AcDbCircle
 10
57.3821712269
 20
221.4809804067
 30
0.0
 40
0.4000000000000019
100
AcDbArc
 50
89.9999995198
 51
179.9999995198
  0
LINE
  5
113
330
6F
100
AcDbEntity
  8
AP_511
  6
Continuous
 62
     7
100
AcDbLine
 10
56.9821711649
 20
214.08098041
 30
0.0
 11
56.9821712269
 21
221.48098041
 31
0.0
  0
ARC
  5
114
330
6F
100
AcDbEntity
  8
AP_511
  6
Continuous
 62
     7
100
AcDbCircle
 10
57.1821711649
 20
214.0809804084
 30
0.0
 40
0.2000000000000023
100
AcDbArc
 50
179.9999995198
 51
269.9999995198
  0
LINE
  5
115
330
6F
100
AcDbEntity
  8
AP_511
  6
Continuous
 62
     7
100
AcDbLine
 10
58.7821711632
 20
213.8809803949
 30
0.0
 11
57.1821711632
 21
213.8809804084
 31
0.0
  0
ARC
  5
116
330
6F
100
AcDbEntity
  8
AP_511
  6
Continuous
 62
     7
100
AcDbCircle
 10
58.7821711616
 20
213.6809803949
 30
0.0
 40
0.1999999999999997
100
AcDbArc
 50
0.0
 51
89.9999995198
  0
LINE
  5
117
330
6F
100
AcDbEntity
  8
AP_511
  6
Continuous
 62
     7
100
AcDbLine
 10
58.9821711565
 20
213.0809803933
 30
0.0
 11
58.9821711616
 21
213.6809803933
 31
0.0
  0
ARC
  5
118
330
6F
100
AcDbEntity
  8
AP_511
  6
Continuous
 62
     7
100
AcDbCircle
 10
58.7821711565
 20
213.0809803949
 30
0.0
 40
0.2000000000000023
100
AcDbArc
 50
269.9999995198
 51
359.9999995198
  0
LINE
  5
119
330
6F
100
AcDbEntity
  8
AP_511
  6
Continuous
 62
     7
100
AcDbLine
 10
57.2321711548
 20
212.8809804079
 30
0.0
 11
58.7821711548
 21
212.8809803949
 31
0.0
  0
ARC
  5
11A
330
6F
100
AcDbEntity
  8
AP_511
  6
Continuous
 62
     7
100
AcDbCircle
 10
57.2321711658
 20
214.1851470746
 30
0.0
 40
1.304166666666665
100
AcDbArc
 50
184.5812196051
 51
269.9999995198
  0
LINE
  5
11B
330
6F
100
AcDbEntity
  8
AP_511
  6
Continuous
 62
     7
100
AcDbLine
 10
55.9321712202
 20
220.6774616763
 30
0.0
 11
55.9321711649
 21
214.0809804188
 31
0.0
  0
ARC
  5
11C
330
6F
100
AcDbEntity
  8
AP_511
  6
Continuous
 62
     7
100
AcDbCircle
 10
55.7321712202
 20
220.677461678
 30
0.0
 40
0.1999999999999988
100
AcDbArc
 50
0.0
 51
89.9999995198
  0
LINE
  5
11D
330
6F
100
AcDbEntity
  8
AP_511
  6
Continuous
 62
     7
100
AcDbLine
 10
54.3351768587
 20
220.8774616897
 30
0.0
 11
54.5410115155
 21
220.8774616879
 31
0.0
  0
LINE
  5
11E
330
6F
100
AcDbEntity
  8
AP_511
  6
Continuous
 62
     7
100
AcDbLine
 10
55.1395488669
 20
220.8774616829
 30
0.0
 11
55.7321712219
 21
220.877461678
 31
0.0
  0
ARC
  5
11F
330
6F
100
AcDbEntity
  8
AP_511
  6
Continuous
 62
     7
100
AcDbCircle
 10
54.335176857
 20
220.6774616897
 30
0.0
 40
0.2000000000000005
100
AcDbArc
 50
89.9999995171
 51
179.9999995198
  0
LINE
  5
120
330
6F
100
AcDbEntity
  8
AP_511
  6
Continuous
 62
     7
100
AcDbLine
 10
54.1351767145
 20
203.6809824339
 30
0.0
 11
54.135176857
 21
220.6774616913
 31
0.0
  0
ARC
  5
121
330
6F
100
AcDbEntity
  8
AP_511
  6
Continuous
 62
     7
100
AcDbCircle
 10
53.3351767145
 20
203.6809824406
 30
0.0
 40
0.7999999999999988
100
AcDbArc
 50
269.9999995199
 51
359.9999995198
  0
ENDBLK
  5
123
330
6F
100
AcDbEntity
  8
0
100
AcDbBlockEnd
  0
BLOCK
  5
126
330
125
100
AcDbEntity
  8
0
100
AcDbBlockBegin
  2
_OBLIQUE
 70
     0
 10
0.0
 20
0.0
 30
0.0
  3
_OBLIQUE
  1
_OBLIQUE
  0
LINE
  5
128
330
125
100
AcDbEntity
  8
0
  6
ByBlock
 62
     0
370
    -2
100
AcDbLine
 10
-0.5
 20
-0.5
 30
0.0
 11
0.5
 21
0.5
 31
0.0
  0
ENDBLK
  5
127
330
125
100
AcDbEntity
  8
0
100
AcDbBlockEnd
  0
BLOCK
  5
12A
330
129
100
AcDbEntity
  8
0
100
AcDbBlockBegin
  2
_DOT
 70
     0
 10
0.0
 20
0.0
 30
0.0
  3
_DOT
  1
_DOT
  0
POLYLINE
  5
12C
330
129
100
AcDbEntity
  8
0
  6
ByBlock
 62
     0
100
AcDb2dPolyline
 66
     1
 10
0.0
 20
0.0
 30
0.0
 70
     1
 40
0.5
 41
0.5
  0
VERTEX
  5
12E
330
12C
100
AcDbEntity
  8
0
  6
ByBlock
 62
     0
100
AcDbVertex
100
AcDb2dVertex
 10
-0.25
 20
0.0
 30
0.0
 42
1.0
  0
VERTEX
  5
12F
330
12C
100
AcDbEntity
  8
0
  6
ByBlock
 62
     0
100
AcDbVertex
100
AcDb2dVertex
 10
0.25
 20
0.0
 30
0.0
 42
1.0
  0
SEQEND
  5
130
330
12C
100
AcDbEntity
  8
0
  6
ByBlock
 62
     0
  0
LINE
  5
12D
330
129
100
AcDbEntity
  8
0
  6
ByBlock
 62
     0
370
    -2
100
AcDbLine
 10
-0.5
 20
0.0
 30
0.0
 11
-1.0
 21
0.0
 31
0.0
  0
ENDBLK
  5
12B
330
129
100
AcDbEntity
  8
0
100
AcDbBlockEnd
  0
BLOCK
  5
135
330
131
100
AcDbEntity
  8
0
100
AcDbBlockBegin
  2
_SE_OPEN
 70
     0
 10
0.0
 20
0.0
 30
0.0
  3
_SE_OPEN
  1
_SE_OPEN
  0
LINE
  5
132
330
131
100
AcDbEntity
  8
0
 62
     0
100
AcDbLine
 10
0.0
 20
0.0
 30
0.0
 11
-1.0
 21
-0.1665
 31
0.0
  0
LINE
  5
133
330
131
100
AcDbEntity
  8
0
 62
     0
100
AcDbLine
 10
-1.0
 20
0.1665
 30
0.0
 11
0.0
 21
0.0
 31
0.0
  0
LINE
  5
134
330
131
100
AcDbEntity
  8
0
 62
     0
100
AcDbLine
 10
0.0
 20
0.0
 30
0.0
 11
-1.0
 21
0.0
 31
0.0
  0
ENDBLK
  5
136
330
131
100
AcDbEntity
  8
0
100
AcDbBlockEnd
  0
BLOCK
  5
141
330
13A
100
AcDbEntity
  8
0
100
AcDbBlockBegin
  2
DMBLK13
 70
     0
 10
0.0
 20
0.0
 30
0.0
  3
DMBLK13
  1
DMBLK13
  0
LWPOLYLINE
  5
13B
330
13A
100
AcDbEntity
  8
Standard
  6
Continuous
 62
     7
100
AcDbPolyline
 90
        3
 70
     0
 43
0.0
 10
56.8851767832
 20
228.0929544839
 10
53.1351768671
 20
228.71795447
 10
56.8851767832
 20
229.342954456
  0
LWPOLYLINE
  5
13C
330
13A
100
AcDbEntity
  8
Standard
  6
Continuous
 62
     7
100
AcDbPolyline
 90
        3
 70
     0
 43
0.0
 10
69.3851746412
 20
228.0929544839
 10
73.1351745574
 20
228.71795447
 10
69.3851746412
 20
229.342954456
  0
LINE
  5
13D
330
13A
100
AcDbEntity
  8
Standard
  6
Continuous
 62
     7
100
AcDbLine
 10
53.1351768671
 20
222.6309799488
 30
0.0
 11
53.1351768671
 21
229.967954442
 31
0.0
  0
LINE
  5
13E
330
13A
100
AcDbEntity
  8
Standard
  6
Continuous
 62
     7
100
AcDbLine
 10
73.1351743671
 20
222.6309797812
 30
0.0
 11
73.1351743671
 21
229.967954442
 31
0.0
  0
LINE
  5
13F
330
13A
100
AcDbEntity
  8
Standard
  6
Continuous
 62
     7
100
AcDbLine
 10
53.1351768671
 20
228.71795447
 30
0.0
 11
73.1351745574
 21
228.71795447
 31
0.0
  0
TEXT
  5
140
330
13A
100
AcDbEntity
  8
Standard
  6
Continuous
 62
     7
100
AcDbText
 10
61.1786539731
 20
229.34295447
 30
0.0
 40
2.5
  1
20
  7
SEACAD_Arial
 11
61.1786539731
 21
231.84295447
 31
0.0
100
AcDbText
 73
     3
  0
ENDBLK
  5
142
330
13A
100
AcDbEntity
  8
0
100
AcDbBlockEnd
  0
BLOCK
  5
14B
330
144
100
AcDbEntity
  8
0
100
AcDbBlockBegin
  2
DMBLK14
 70
     0
 10
0.0
 20
0.0
 30
0.0
  3
DMBLK14
  1
DMBLK14
  0
LWPOLYLINE
  5
145
330
144
100
AcDbEntity
  8
Standard
  6
Continuous
 62
     7
100
AcDbPolyline
 90
        3
 70
     0
 43
0.0
 10
78.8866412672
 20
219.1309798669
 10
79.5116412532
 20
222.880979783
 10
80.1366412392
 20
219.1309798669
  0
LWPOLYLINE
  5
146
330
144
100
AcDbEntity
  8
Standard
  6
Continuous
 62
     7
100
AcDbPolyline
 90
        3
 70
     0
 43
0.0
 10
78.8866412672
 20
206.631611583
 10
79.5116412532
 20
202.8816116668
 10
80.1366412392
 20
206.631611583
  0
LINE
  5
147
330
144
100
AcDbEntity
  8
Standard
  6
Continuous
 62
     7
100
AcDbLine
 10
72.885174382
 20
222.880979783
 30
0.0
 11
80.7616412253
 21
222.880979783
 31
0.0
  0
LINE
  5
148
330
144
100
AcDbEntity
  8
Standard
  6
Continuous
 62
     7
100
AcDbLine
 10
73.6851742143
 20
202.881612476
 30
0.0
 11
80.7616412253
 21
202.881612476
 31
0.0
  0
LINE
  5
149
330
144
100
AcDbEntity
  8
Standard
  6
Continuous
 62
     7
100
AcDbLine
 10
79.5116412532
 20
222.880979783
 30
0.0
 11
79.5116412532
 21
202.8816116668
 31
0.0
  0
TEXT
  5
14A
330
144
100
AcDbEntity
  8
Standard
  6
Continuous
 62
     7
100
AcDbText
 10
78.8866412532
 20
210.9247739858
 30
0.0
 40
2.5
  1
20
 50
90.0
  7
SEACAD_Arial
 11
76.3866412532
 21
210.9247739858
 31
0.0
100
AcDbText
 73
     3
  0
ENDBLK
  5
14C
330
144
100
AcDbEntity
  8
0
100
AcDbBlockEnd
  0
BLOCK
  5
1FC
330
14D
100
AcDbEntity
  8
0
100
AcDbBlockBegin
  2
SE1
 70
     0
 10
0.0
 20
0.0
 30
0.0
  3
SE1
  1
SE1
  0
LINE
  5
14F
330
14D
100
AcDbEntity
  8
AJ_221
  6
Continuous
 62
     7
100
AcDbLine
 10
151.5406462518
 20
214.1309802645
 30
0.0
 11
162.5406462518
 21
214.1309801723
 31
0.0
  0
LINE
  5
150
330
14D
100
AcDbEntity
  8
AJ_221
  6
Continuous
 62
     7
100
AcDbLine
 10
151.5406463071
 20
220.7309802645
 30
0.0
 11
162.5406463071
 21
220.7309801723
 31
0.0
  0
LINE
  5
151
330
14D
100
AcDbEntity
  8
AJ_221
  6
Continuous
 62
     7
100
AcDbLine
 10
151.5406462518
 20
214.1309802645
 30
0.0
 11
151.5056058839
 21
214.1309802647
 31
0.0
  0
ARC
  5
152
330
14D
100
AcDbEntity
  8
AJ_221
  6
Continuous
 62
     7
100
AcDbCircle
 10
159.602796753
 20
215.9418591132
 30
0.0
 40
8.29721532648182
100
AcDbArc
 50
180.1391586021
 51
192.6063499485
  0
LINE
  5
153
330
14D
100
AcDbEntity
  8
AJ_221
  6
Continuous
 62
     7
100
AcDbLine
 10
151.305605899
 20
215.9217070574
 30
0.0
 11
151.3056059242
 21
218.9402534755
 31
0.0
  0
ARC
  5
154
330
14D
100
AcDbEntity
  8
AJ_221
  6
Continuous
 62
     7
100
AcDbCircle
 10
159.602796778
 20
218.9201012805
 30
0.0
 40
8.29721532648136
100
AcDbArc
 50
167.3936490911
 51
179.8608404375
  0
LINE
  5
155
330
14D
100
AcDbEntity
  8
AJ_221
  6
Continuous
 62
     7
100
AcDbLine
 10
151.5056059393
 20
220.7309802647
 30
0.0
 11
151.5406463071
 21
220.7309802645
 31
0.0
  0
LINE
  5
156
330
14D
100
AcDbEntity
  8
AJ_221
  6
Continuous
 62
     7
100
AcDbLine
 10
163.3056059242
 20
218.9402533749
 30
0.0
 11
163.305605899
 21
215.9217069568
 31
0.0
  0
ARC
  5
157
330
14D
100
AcDbEntity
  8
AJ_221
  6
Continuous
 62
     7
100
AcDbCircle
 10
155.0084150452
 20
215.9418591517
 30
0.0
 40
8.297215326480991
100
AcDbArc
 50
347.3936490911
 51
359.8608404375
  0
LINE
  5
158
330
14D
100
AcDbEntity
  8
AJ_221
  6
Continuous
 62
     7
100
AcDbLine
 10
163.1056058839
 20
214.1309801675
 30
0.0
 11
162.5406462518
 21
214.1309801723
 31
0.0
  0
LINE
  5
159
330
14D
100
AcDbEntity
  8
AJ_221
  6
Continuous
 62
     7
100
AcDbLine
 10
162.5406463071
 20
220.7309801723
 30
0.0
 11
163.1056059393
 21
220.7309801675
 31
0.0
  0
ARC
  5
15A
330
14D
100
AcDbEntity
  8
AJ_221
  6
Continuous
 62
     7
100
AcDbCircle
 10
155.0084150702
 20
218.920101319
 30
0.0
 40
8.297215326481881
100
AcDbArc
 50
0.1391586021
 51
12.6063499485
  0
ARC
  5
15B
330
14D
100
AcDbEntity
  8
AP_509_EINGEBAUT
  6
Continuous
 62
     7
100
AcDbCircle
 10
150.5111816227
 20
203.972134018
 30
0.0
 40
1.999199999996051
100
AcDbArc
 50
179.9897509501
 51
251.4861807278
  0
LINE
  5
15C
330
14D
100
AcDbEntity
  8
AP_509_EINGEBAUT
  6
Continuous
 62
     7
100
AcDbLine
 10
148.5149507835
 20
220.5709616637
 30
0.0
 11
148.5119816547
 21
203.9724916342
 31
0.0
  0
ARC
  5
15D
330
14D
100
AcDbEntity
  8
AP_509_EINGEBAUT
  6
Continuous
 62
     7
100
AcDbCircle
 10
149.0137149064
 20
220.4644987605
 30
0.0
 40
0.5099999999999997
100
AcDbArc
 50
12.0869871396
 51
167.9508445747
  0
LINE
  5
15E
330
14D
100
AcDbEntity
  8
AP_509_EINGEBAUT
  6
Continuous
 62
     7
100
AcDbLine
 10
149.5124081576
 20
210.0791107705
 30
0.0
 11
149.5124086243
 21
220.5712909684
 31
0.0
  0
ARC
  5
15F
330
14D
100
AcDbEntity
  8
AP_509_EINGEBAUT
  6
Continuous
 62
     7
100
AcDbCircle
 10
149.7122719531
 20
210.0743705537
 30
0.0
 40
0.1999199999930275
100
AcDbArc
 50
178.6413571855
 51
269.9999985599
  0
LINE
  5
160
330
14D
100
AcDbEntity
  8
AP_509_EINGEBAUT
  6
Continuous
 62
     7
100
AcDbLine
 10
149.9466024139
 20
209.8744505478
 30
0.0
 11
149.7122719481
 21
209.8744505537
 31
0.0
  0
ARC
  5
161
330
14D
100
AcDbEntity
  8
AP_509_EINGEBAUT
  6
Continuous
 62
     7
100
AcDbCircle
 10
149.9466024189
 20
210.0744505478
 30
0.0
 40
0.2000000000000014
100
AcDbArc
 50
269.9999985599
 51
340.0222664667
  0
LINE
  5
162
330
14D
100
AcDbEntity
  8
AP_509_EINGEBAUT
  6
Continuous
 62
     7
100
AcDbLine
 10
150.1989638778
 20
210.1832612877
 30
0.0
 11
150.1345675123
 21
210.0061195616
 31
0.0
  0
ARC
  5
163
330
14D
100
AcDbEntity
  8
AP_509_EINGEBAUT
  6
Continuous
 62
     7
100
AcDbCircle
 10
150.3331917724
 20
210.1344653956
 30
0.0
 40
0.1428221509242806
100
AcDbArc
 50
69.4463628256
 51
160.0222664667
  0
ARC
  5
164
330
14D
100
AcDbEntity
  8
AP_509_EINGEBAUT
  6
Continuous
 62
     7
100
AcDbCircle
 10
150.0372924781
 20
209.5430612286
 30
0.0
 40
0.8034709028220113
100
AcDbArc
 50
44.6357707107
 51
64.4890381479
  0
ARC
  5
165
330
14D
100
AcDbEntity
  8
AP_509_EINGEBAUT
  6
Continuous
 62
     7
100
AcDbCircle
 10
149.2053214395
 20
208.7439652183
 30
0.0
 40
1.956998650314431
100
AcDbArc
 50
1.6372756877
 51
44.1698465874
  0
ARC
  5
166
330
14D
100
AcDbEntity
  8
AP_509_EINGEBAUT
  6
Continuous
 62
     7
100
AcDbCircle
 10
149.2053214404
 20
208.8557958357
 30
0.0
 40
1.956998650314431
100
AcDbArc
 50
315.8301524522
 51
358.3627233478
  0
ARC
  5
167
330
14D
100
AcDbEntity
  8
AP_509_EINGEBAUT
  6
Continuous
 62
     7
100
AcDbCircle
 10
150.0372924657
 20
208.0566998116
 30
0.0
 40
0.8034709028220103
100
AcDbArc
 50
295.5109608917
 51
315.3642283289
  0
ARC
  5
168
330
14D
100
AcDbEntity
  8
AP_509_EINGEBAUT
  6
Continuous
 62
     7
100
AcDbCircle
 10
150.3331917501
 20
207.4652956396
 30
0.0
 40
0.142822150924308
100
AcDbArc
 50
199.9777325719
 51
290.5536362141
  0
LINE
  5
169
330
14D
100
AcDbEntity
  8
AP_509_EINGEBAUT
  6
Continuous
 62
     7
100
AcDbLine
 10
150.1345674921
 20
207.5936414769
 30
0.0
 11
150.1989638546
 21
207.4164997497
 31
0.0
  0
ARC
  5
16A
330
14D
100
AcDbEntity
  8
AP_509_EINGEBAUT
  6
Continuous
 62
     7
100
AcDbCircle
 10
149.9466023976
 20
207.5253104938
 30
0.0
 40
0.2000000000000005
100
AcDbArc
 50
19.977732573
 51
90.0000004797
  0
LINE
  5
16B
330
14D
100
AcDbEntity
  8
AP_509_EINGEBAUT
  6
Continuous
 62
     7
100
AcDbLine
 10
149.7122719301
 20
207.7253104918
 30
0.0
 11
149.9466023959
 21
207.7253104938
 31
0.0
  0
ARC
  5
16C
330
14D
100
AcDbEntity
  8
AP_509_EINGEBAUT
  6
Continuous
 62
     7
100
AcDbCircle
 10
149.7122719317
 20
207.5253904918
 30
0.0
 40
0.1999199999930865
100
AcDbArc
 50
90.0000004797
 51
178.6413572299
  0
LINE
  5
16D
330
14D
100
AcDbEntity
  8
AP_509_EINGEBAUT
  6
Continuous
 62
     7
100
AcDbLine
 10
149.5124081527
 20
203.9626940481
 30
0.0
 11
149.5124081363
 21
207.5301307085
 31
0.0
  0
ARC
  5
16E
330
14D
100
AcDbEntity
  8
AP_509_EINGEBAUT
  6
Continuous
 62
     7
100
AcDbCircle
 10
149.3124881527
 20
203.9626940498
 30
0.0
 40
0.1999200000285267
100
AcDbArc
 50
313.7036650705
 51
359.9999995198
  0
ARC
  5
16F
330
14D
100
AcDbEntity
  8
AP_509_EINGEBAUT
  6
Continuous
 62
     7
100
AcDbCircle
 10
149.7959447519
 20
203.4568504029
 30
0.0
 40
0.4997999999975766
100
AcDbArc
 50
133.7036650705
 51
311.8406016219
  0
ARC
  5
170
330
14D
100
AcDbEntity
  8
AP_509_EINGEBAUT
  6
Continuous
 62
     7
100
AcDbCircle
 10
150.2627003747
 20
202.9355565635
 30
0.0
 40
0.1999199999987128
100
AcDbArc
 50
63.4955820333
 51
131.840601622
  0
ARC
  5
171
330
14D
100
AcDbEntity
  8
AP_509_EINGEBAUT
  6
Continuous
 62
     7
100
AcDbCircle
 10
157.3930397841
 20
217.2340437988
 30
0.0
 40
15.7778294445906
100
AcDbArc
 50
243.4955820374
 51
269.8185048937
  0
ARC
  5
172
330
14D
100
AcDbEntity
  8
AP_509_EINGEBAUT
  6
Continuous
 62
     7
100
AcDbCircle
 10
157.2930816028
 20
217.2340437992
 30
0.0
 40
15.7778294445906
100
AcDbArc
 50
270.1814947155
 51
296.5044170063
  0
ARC
  5
173
330
14D
100
AcDbEntity
  8
AP_509_EINGEBAUT
  6
Continuous
 62
     7
100
AcDbCircle
 10
164.4234207736
 20
202.9355564448
 30
0.0
 40
0.1999199999987117
100
AcDbArc
 50
48.1593974176
 51
116.5044170063
  0
ARC
  5
174
330
14D
100
AcDbEntity
  8
AP_509_EINGEBAUT
  6
Continuous
 62
     7
100
AcDbCircle
 10
164.890176405
 20
203.4568502764
 30
0.0
 40
0.4997999999975772
100
AcDbArc
 50
228.1593974177
 51
46.2963339691
  0
ARC
  5
175
330
14D
100
AcDbEntity
  8
AP_509_EINGEBAUT
  6
Continuous
 62
     7
100
AcDbCircle
 10
165.3736330128
 20
203.9626939152
 30
0.0
 40
0.1999200000285268
100
AcDbArc
 50
179.9999995198
 51
226.2963339692
  0
LINE
  5
176
330
14D
100
AcDbEntity
  8
AP_509_EINGEBAUT
  6
Continuous
 62
     7
100
AcDbLine
 10
165.173713089
 20
207.5301305772
 30
0.0
 11
165.1737130127
 21
203.9626939168
 31
0.0
  0
ARC
  5
177
330
14D
100
AcDbEntity
  8
AP_509_EINGEBAUT
  6
Continuous
 62
     7
100
AcDbCircle
 10
164.9738492934
 20
207.5253903639
 30
0.0
 40
0.1999199999930258
100
AcDbArc
 50
1.3586418098
 51
89.9999985599
  0
LINE
  5
178
330
14D
100
AcDbEntity
  8
AP_509_EINGEBAUT
  6
Continuous
 62
     7
100
AcDbLine
 10
164.7395188326
 20
207.7253103698
 30
0.0
 11
164.9738492985
 21
207.7253103639
 31
0.0
  0
ARC
  5
179
330
14D
100
AcDbEntity
  8
AP_509_EINGEBAUT
  6
Continuous
 62
     7
100
AcDbCircle
 10
164.7395188276
 20
207.5253103698
 30
0.0
 40
0.2000000000000001
100
AcDbArc
 50
89.9999985599
 51
160.0222664667
  0
LINE
  5
17A
330
14D
100
AcDbEntity
  8
AP_509_EINGEBAUT
  6
Continuous
 62
     7
100
AcDbLine
 10
164.4871573687
 20
207.4164996299
 30
0.0
 11
164.5515537342
 21
207.5936413561
 31
0.0
  0
ARC
  5
17B
330
14D
100
AcDbEntity
  8
AP_509_EINGEBAUT
  6
Continuous
 62
     7
100
AcDbCircle
 10
164.3529294741
 20
207.4652955221
 30
0.0
 40
0.1428221509242806
100
AcDbArc
 50
249.4463628255
 51
340.0222664678
  0
ARC
  5
17C
330
14D
100
AcDbEntity
  8
AP_509_EINGEBAUT
  6
Continuous
 62
     7
100
AcDbCircle
 10
164.6488287684
 20
208.0566996891
 30
0.0
 40
0.803470902822011
100
AcDbArc
 50
224.6357707107
 51
244.489038148
  0
ARC
  5
17D
330
14D
100
AcDbEntity
  8
AP_509_EINGEBAUT
  6
Continuous
 62
     7
100
AcDbCircle
 10
165.480799807
 20
208.8557956993
 30
0.0
 40
1.956998650314434
100
AcDbArc
 50
181.6372756918
 51
224.1698465875
  0
ARC
  5
17E
330
14D
100
AcDbEntity
  8
AP_509_EINGEBAUT
  6
Continuous
 62
     7
100
AcDbCircle
 10
165.4807998061
 20
208.7439650819
 30
0.0
 40
1.956998650314432
100
AcDbArc
 50
135.8301524523
 51
178.3627233519
  0
ARC
  5
17F
330
14D
100
AcDbEntity
  8
AP_509_EINGEBAUT
  6
Continuous
 62
     7
100
AcDbCircle
 10
164.6488287808
 20
209.5430611061
 30
0.0
 40
0.8034709028220111
100
AcDbArc
 50
115.5109608918
 51
135.3642283289
  0
ARC
  5
180
330
14D
100
AcDbEntity
  8
AP_509_EINGEBAUT
  6
Continuous
 62
     7
100
AcDbCircle
 10
164.3529294964
 20
210.1344652781
 30
0.0
 40
0.1428221509242804
100
AcDbArc
 50
19.977732573
 51
110.553636214
  0
LINE
  5
181
330
14D
100
AcDbEntity
  8
AP_509_EINGEBAUT
  6
Continuous
 62
     7
100
AcDbLine
 10
164.5515537544
 20
210.0061194408
 30
0.0
 11
164.4871573919
 21
210.183261168
 31
0.0
  0
ARC
  5
182
330
14D
100
AcDbEntity
  8
AP_509_EINGEBAUT
  6
Continuous
 62
     7
100
AcDbCircle
 10
164.7395188489
 20
210.0744504239
 30
0.0
 40
0.2000000000000005
100
AcDbArc
 50
199.977732573
 51
270.0000004797
  0
LINE
  5
183
330
14D
100
AcDbEntity
  8
AP_509_EINGEBAUT
  6
Continuous
 62
     7
100
AcDbLine
 10
164.9738493165
 20
209.8744504258
 30
0.0
 11
164.7395188506
 21
209.8744504239
 31
0.0
  0
ARC
  5
184
330
14D
100
AcDbEntity
  8
AP_509_EINGEBAUT
  6
Continuous
 62
     7
100
AcDbCircle
 10
164.9738493148
 20
210.0743704258
 30
0.0
 40
0.1999199999931089
100
AcDbArc
 50
270.0000004797
 51
1.3586418542
  0
LINE
  5
185
330
14D
100
AcDbEntity
  8
AP_509_EINGEBAUT
  6
Continuous
 62
     7
100
AcDbLine
 10
165.1737128195
 20
220.5712908372
 30
0.0
 11
165.1737131103
 21
210.0791106393
 31
0.0
  0
ARC
  5
186
330
14D
100
AcDbEntity
  8
AP_509_EINGEBAUT
  6
Continuous
 62
     7
100
AcDbCircle
 10
165.6724065357
 20
220.4644986209
 30
0.0
 40
0.5099999999999887
100
AcDbArc
 50
12.049154465
 51
167.9130119
  0
LINE
  5
187
330
14D
100
AcDbEntity
  8
AP_509_EINGEBAUT
  6
Continuous
 62
     7
100
AcDbLine
 10
166.1741395109
 20
203.9724914862
 30
0.0
 11
166.1711706603
 21
220.5709615157
 31
0.0
  0
ARC
  5
188
330
14D
100
AcDbEntity
  8
AP_509_EINGEBAUT
  6
Continuous
 62
     7
100
AcDbCircle
 10
164.1749395429
 20
203.9721339035
 30
0.0
 40
1.999199999996051
100
AcDbArc
 50
288.5138183118
 51
0.0102480895
  0
ARC
  5
189
330
14D
100
AcDbEntity
  8
AP_509_EINGEBAUT
  6
Continuous
 62
     7
100
AcDbCircle
 10
157.2930816072
 20
224.5233662487
 30
0.0
 40
23.67206597467343
100
AcDbArc
 50
270.120968947
 51
288.5138183117
  0
ARC
  5
18A
330
14D
100
AcDbEntity
  8
AP_509_EINGEBAUT
  6
Continuous
 62
     7
100
AcDbCircle
 10
157.3930399029
 20
224.5233662479
 30
0.0
 40
23.67206597467343
100
AcDbArc
 50
251.4861807279
 51
269.879030084
  0
ARC
  5
18B
330
14D
100
AcDbEntity
  8
AP_510_200
  6
Continuous
 62
     7
100
AcDbCircle
 10
152.1000120361
 20
207.4820869841
 30
0.0
 40
0.1999999999999995
100
AcDbArc
 50
89.9999995198
 51
155.1694025705
  0
LINE
  5
18C
330
14D
100
AcDbEntity
  8
AP_510_200
  6
Continuous
 62
     7
100
AcDbLine
 10
151.2445637098
 20
204.2326714332
 30
0.0
 11
151.9185013659
 21
207.566074344
 31
0.0
  0
ARC
  5
18D
330
14D
100
AcDbEntity
  8
AP_510_200
  6
Continuous
 62
     7
100
AcDbCircle
 10
150.7010968477
 20
204.3171922579
 30
0.0
 40
0.550000000000001
100
AcDbArc
 50
179.9999995198
 51
351.160086152
  0
LINE
  5
18E
330
14D
100
AcDbEntity
  8
AP_510_200
  6
Continuous
 62
     7
100
AcDbLine
 10
150.1510968833
 20
205.0674907961
 30
0.0
 11
150.1510968477
 21
204.3171922625
 31
0.0
  0
ARC
  5
18F
330
14D
100
AcDbEntity
  8
AP_510_200
  6
Continuous
 62
     7
100
AcDbCircle
 10
149.6510968833
 20
205.067490538
 30
0.0
 40
0.5000000000000007
100
AcDbArc
 50
0.0000295714
 51
48.786105754
  0
LINE
  5
190
330
14D
100
AcDbEntity
  8
AP_510_200
  6
Continuous
 62
     7
100
AcDbLine
 10
149.6617126906
 20
205.7228611784
 30
0.0
 11
149.9805328341
 21
205.4436181152
 31
0.0
  0
ARC
  5
191
330
14D
100
AcDbEntity
  8
AP_510_200
  6
Continuous
 62
     7
100
AcDbCircle
 10
149.9911490412
 20
206.0989884054
 30
0.0
 40
0.5000000000000014
100
AcDbArc
 50
196.7677971503
 51
228.7860448539
  0
ARC
  5
192
330
14D
100
AcDbEntity
  8
AP_510_200
  6
Continuous
 62
     7
100
AcDbCircle
 10
149.6411490362
 20
207.4282029572
 30
0.0
 40
0.1499999615606831
100
AcDbArc
 50
89.9999995198
 51
149.1232121567
  0
LINE
  5
193
330
14D
100
AcDbEntity
  8
AP_510_200
  6
Continuous
 62
     7
100
AcDbLine
 10
149.6794059901
 20
207.5782029184
 30
0.0
 11
149.6411490375
 21
207.5782029187
 31
0.0
  0
ARC
  5
194
330
14D
100
AcDbEntity
  8
AP_510_200
  6
Continuous
 62
     7
100
AcDbCircle
 10
149.6794059889
 20
207.4282029184
 30
0.0
 40
0.149999999995527
100
AcDbArc
 50
19.8238603743
 51
89.9999995198
  0
LINE
  5
195
330
14D
100
AcDbEntity
  8
AP_510_200
  6
Continuous
 62
     7
100
AcDbLine
 10
149.9642525391
 20
207.0803524306
 30
0.0
 11
149.8205169323
 21
207.4790723754
 31
0.0
  0
ARC
  5
196
330
14D
100
AcDbEntity
  8
AP_510_200
  6
Continuous
 62
     7
100
AcDbCircle
 10
150.1524004576
 20
207.1481783779
 30
0.0
 40
0.1999999959120258
100
AcDbArc
 50
199.8238622011
 51
269.9999995198
  0
LINE
  5
197
330
14D
100
AcDbEntity
  8
AP_510_200
  6
Continuous
 62
     7
100
AcDbLine
 10
150.3728961381
 20
206.9481783801
 30
0.0
 11
150.1524004559
 21
206.948178382
 31
0.0
  0
ARC
  5
198
330
14D
100
AcDbEntity
  8
AP_510_200
  6
Continuous
 62
     7
100
AcDbCircle
 10
150.3728961442
 20
207.1481783801
 30
0.0
 40
0.2000000000010712
100
AcDbArc
 50
269.9999982364
 51
314.9999995198
  0
LINE
  5
199
330
14D
100
AcDbEntity
  8
AP_510_200
  6
Continuous
 62
     7
100
AcDbLine
 10
151.0259222788
 20
207.5183617936
 30
0.0
 11
150.5143174993
 21
207.0067570227
 31
0.0
  0
ARC
  5
19A
330
14D
100
AcDbEntity
  8
AP_510_200
  6
Continuous
 62
     7
100
AcDbCircle
 10
150.6723688911
 20
207.8719151871
 30
0.0
 40
0.4999999999999987
100
AcDbArc
 50
314.9999995198
 51
359.9999995198
  0
LINE
  5
19B
330
14D
100
AcDbEntity
  8
AP_510_200
  6
Continuous
 62
     7
100
AcDbLine
 10
151.1723689053
 20
209.5692189533
 30
0.0
 11
151.1723688911
 21
207.871915183
 31
0.0
  0
ARC
  5
19C
330
14D
100
AcDbEntity
  8
AP_510_200
  6
Continuous
 62
     7
100
AcDbCircle
 10
150.6723689053
 20
209.5692189575
 30
0.0
 40
0.5000000000235068
100
AcDbArc
 50
0.0
 51
44.9999995185
  0
LINE
  5
19D
330
14D
100
AcDbEntity
  8
AP_510_200
  6
Continuous
 62
     7
100
AcDbLine
 10
150.5564851189
 20
210.392209533
 30
0.0
 11
151.0259222989
 21
209.9227723452
 31
0.0
  0
ARC
  5
19E
330
14D
100
AcDbEntity
  8
AP_510_200
  6
Continuous
 62
     7
100
AcDbCircle
 10
150.4150637615
 20
210.250788178
 30
0.0
 40
0.200000000038586
100
AcDbArc
 50
44.9999995185
 51
89.9999995198
  0
LINE
  5
19F
330
14D
100
AcDbEntity
  8
AP_510_200
  6
Continuous
 62
     7
100
AcDbLine
 10
150.1524006962
 20
210.4507881802
 30
0.0
 11
150.4150637631
 21
210.450788178
 31
0.0
  0
ARC
  5
1A0
330
14D
100
AcDbEntity
  8
AP_510_200
  6
Continuous
 62
     7
100
AcDbCircle
 10
150.1524006945
 20
210.2507881802
 30
0.0
 40
0.2000000000014239
100
AcDbArc
 50
89.9999995198
 51
160.1761157296
  0
LINE
  5
1A1
330
14D
100
AcDbEntity
  8
AP_510_200
  6
Continuous
 62
     7
100
AcDbLine
 10
149.8205170395
 20
209.9198943562
 30
0.0
 11
149.9642527983
 21
210.3186142013
 31
0.0
  0
ARC
  5
1A2
330
14D
100
AcDbEntity
  8
AP_510_200
  6
Continuous
 62
     7
100
AcDbCircle
 10
149.6794060469
 20
209.9707638974
 30
0.0
 40
0.1500000748122787
100
AcDbArc
 50
320.0522581345
 51
340.1761157295
  0
ARC
  5
1A3
330
14D
100
AcDbEntity
  8
AP_510_200
  6
Continuous
 62
     7
100
AcDbCircle
 10
149.6199612296
 20
212.9786792957
 30
0.0
 40
0.2811073305777832
100
AcDbArc
 50
89.9999985593
 51
112.4951053779
  0
LINE
  5
1A4
330
14D
100
AcDbEntity
  8
AP_510_200
  6
Continuous
 62
     7
100
AcDbLine
 10
149.7306339773
 20
213.2597866235
 30
0.0
 11
149.6199612367
 21
213.2597866263
 31
0.0
  0
ARC
  5
1A5
330
14D
100
AcDbEntity
  8
AP_510_200
  6
Continuous
 62
     7
100
AcDbCircle
 10
149.7306339648
 20
212.7597866235
 30
0.0
 40
0.4999999999999977
100
AcDbArc
 50
33.8334835048
 51
89.9999985593
  0
LINE
  5
1A6
330
14D
100
AcDbEntity
  8
AP_510_200
  6
Continuous
 62
     7
100
AcDbLine
 10
150.4303208264
 20
212.613945928
 30
0.0
 11
150.1459635796
 21
213.0381771963
 31
0.0
  0
ARC
  5
1A7
330
14D
100
AcDbEntity
  8
AP_510_200
  6
Continuous
 62
     7
100
AcDbCircle
 10
150.6795185953
 20
212.7809802717
 30
0.0
 40
0.3000000000000017
100
AcDbArc
 50
213.8334835048
 51
269.9999995198
  0
LINE
  5
1A8
330
14D
100
AcDbEntity
  8
AP_510_200
  6
Continuous
 62
     7
100
AcDbLine
 10
151.4222101529
 20
212.4809802654
 30
0.0
 11
150.6795185928
 21
212.4809802717
 31
0.0
  0
ARC
  5
1A9
330
14D
100
AcDbEntity
  8
AP_510_200
  6
Continuous
 62
     7
100
AcDbCircle
 10
151.4222101504
 20
212.1809802654
 30
0.0
 40
0.2999999999999999
100
AcDbArc
 50
0.0
 51
89.9999995198
  0
LINE
  5
1AA
330
14D
100
AcDbEntity
  8
AP_510_200
  6
Continuous
 62
     7
100
AcDbLine
 10
151.9725976445
 20
208.8820870798
 30
0.0
 11
151.7222101504
 21
212.1809802629
 31
0.0
  0
ARC
  5
1AB
330
14D
100
AcDbEntity
  8
AP_510_200
  6
Continuous
 62
     7
100
AcDbCircle
 10
152.1725976445
 20
208.8820870781
 30
0.0
 40
0.2000000000003168
100
AcDbArc
 50
179.9999995198
 51
270.0001010447
  0
LINE
  5
1AC
330
14D
100
AcDbEntity
  8
AP_510_200
  6
Continuous
 62
     7
100
AcDbLine
 10
162.4446224528
 20
208.682086992
 30
0.0
 11
152.1725979972
 21
208.6820870781
 31
0.0
  0
ARC
  5
1AD
330
14D
100
AcDbEntity
  8
AP_510_200
  6
Continuous
 62
     7
100
AcDbCircle
 10
162.4446224545
 20
208.882086992
 30
0.0
 40
0.1999999999999997
100
AcDbArc
 50
269.9999995198
 51
359.9999995198
  0
LINE
  5
1AE
330
14D
100
AcDbEntity
  8
AP_510_200
  6
Continuous
 62
     7
100
AcDbLine
 10
162.895010004
 20
212.1809801693
 30
0.0
 11
162.6446224545
 21
208.8820869903
 31
0.0
  0
ARC
  5
1AF
330
14D
100
AcDbEntity
  8
AP_510_200
  6
Continuous
 62
     7
100
AcDbCircle
 10
163.195010004
 20
212.1809801668
 30
0.0
 40
0.3000000000000017
100
AcDbArc
 50
89.9999995198
 51
179.9999995198
  0
LINE
  5
1B0
330
14D
100
AcDbEntity
  8
AP_510_200
  6
Continuous
 62
     7
100
AcDbLine
 10
163.9377015666
 20
212.4809801606
 30
0.0
 11
163.1950100065
 21
212.4809801668
 31
0.0
  0
ARC
  5
1B1
330
14D
100
AcDbEntity
  8
AP_510_200
  6
Continuous
 62
     7
100
AcDbCircle
 10
163.9377015691
 20
212.7809801606
 30
0.0
 40
0.2999999999999977
100
AcDbArc
 50
269.9999995198
 51
326.1665155349
  0
LINE
  5
1B2
330
14D
100
AcDbEntity
  8
AP_510_200
  6
Continuous
 62
     7
100
AcDbLine
 10
164.4712565891
 20
213.0381770763
 30
0.0
 11
164.1868993352
 21
212.6139458127
 31
0.0
  0
ARC
  5
1B3
330
14D
100
AcDbEntity
  8
AP_510_200
  6
Continuous
 62
     7
100
AcDbCircle
 10
164.8865861993
 20
212.7597864965
 30
0.0
 40
0.5000000000000004
100
AcDbArc
 50
90.0000004804
 51
146.1665155349
  0
LINE
  5
1B4
330
14D
100
AcDbEntity
  8
AP_510_200
  6
Continuous
 62
     7
100
AcDbLine
 10
164.9972589357
 20
213.2597864974
 30
0.0
 11
164.8865861951
 21
213.2597864965
 31
0.0
  0
ARC
  5
1B5
330
14D
100
AcDbEntity
  8
AP_510_200
  6
Continuous
 62
     7
100
AcDbCircle
 10
164.9972589381
 20
212.9786791668
 30
0.0
 40
0.2811073305777823
100
AcDbArc
 50
297.2730169901
 51
308.8814282599
  0
ARC
  5
1B6
330
14D
100
AcDbEntity
  8
AP_510_200
  6
Continuous
 62
     7
100
AcDbCircle
 10
164.9972589381
 20
212.9786791668
 30
0.0
 40
0.2811073305777823
100
AcDbArc
 50
51.1185749165
 51
90.0000004804
  0
LINE
  5
1B7
330
14D
100
AcDbEntity
  8
AP_510_200
  6
Continuous
 62
     7
100
AcDbLine
 10
165.126071059
 20
209.9707636931
 30
0.0
 11
165.1260710358
 21
212.7288216579
 31
0.0
  0
ARC
  5
1B8
330
14D
100
AcDbEntity
  8
AP_510_200
  6
Continuous
 62
     7
100
AcDbCircle
 10
164.976071059
 20
209.9707636944
 30
0.0
 40
0.1500000000002472
100
AcDbArc
 50
348.7288622957
 51
359.9999995198
  0
ARC
  5
1B9
330
14D
100
AcDbEntity
  8
AP_510_200
  6
Continuous
 62
     7
100
AcDbCircle
 10
164.9378140704
 20
209.9707637695
 30
0.0
 40
0.150000074812283
100
AcDbArc
 50
199.8238833096
 51
219.947741479
  0
LINE
  5
1BA
330
14D
100
AcDbEntity
  8
AP_510_200
  6
Continuous
 62
     7
100
AcDbLine
 10
164.6529673249
 20
210.3186140782
 30
0.0
 11
164.796703077
 21
209.9198942307
 31
0.0
  0
ARC
  5
1BB
330
14D
100
AcDbEntity
  8
AP_510_200
  6
Continuous
 62
     7
100
AcDbCircle
 10
164.4648194275
 20
210.2507880602
 30
0.0
 40
0.2000000000007135
100
AcDbArc
 50
19.8238833095
 51
89.9999995198
  0
LINE
  5
1BC
330
14D
100
AcDbEntity
  8
AP_510_200
  6
Continuous
 62
     7
100
AcDbLine
 10
164.2021563622
 20
210.4507880624
 30
0.0
 11
164.4648194292
 21
210.4507880602
 31
0.0
  0
ARC
  5
1BD
330
14D
100
AcDbEntity
  8
AP_510_200
  6
Continuous
 62
     7
100
AcDbCircle
 10
164.2021563605
 20
210.2507880624
 30
0.0
 40
0.2000000000385829
100
AcDbArc
 50
89.9999995198
 51
134.9999995213
  0
LINE
  5
1BE
330
14D
100
AcDbEntity
  8
AP_510_200
  6
Continuous
 62
     7
100
AcDbLine
 10
163.5912978176
 20
209.9227722398
 30
0.0
 11
164.0607350054
 21
210.3922094199
 31
0.0
  0
ARC
  5
1BF
330
14D
100
AcDbEntity
  8
AP_510_200
  6
Continuous
 62
     7
100
AcDbCircle
 10
163.9448512052
 20
209.5692188463
 30
0.0
 40
0.5000000000246058
100
AcDbArc
 50
134.9999995213
 51
179.9999995198
  0
LINE
  5
1C0
330
14D
100
AcDbEntity
  8
AP_510_200
  6
Continuous
 62
     7
100
AcDbLine
 10
163.444851191
 20
207.8719150801
 30
0.0
 11
163.4448512052
 21
209.5692188505
 31
0.0
  0
ARC
  5
1C1
330
14D
100
AcDbEntity
  8
AP_510_200
  6
Continuous
 62
     7
100
AcDbCircle
 10
163.944851191
 20
207.8719150759
 30
0.0
 40
0.5000000000000093
100
AcDbArc
 50
179.9999995198
 51
224.9999995198
  0
LINE
  5
1C2
330
14D
100
AcDbEntity
  8
AP_510_200
  6
Continuous
 62
     7
100
AcDbLine
 10
164.1029025683
 20
207.0067569088
 30
0.0
 11
163.5912977974
 21
207.5183616883
 31
0.0
  0
ARC
  5
1C3
330
14D
100
AcDbEntity
  8
AP_510_200
  6
Continuous
 62
     7
100
AcDbCircle
 10
164.2443239258
 20
207.1481782639
 30
0.0
 40
0.2000000000010743
100
AcDbArc
 50
224.9999995198
 51
270.0000008032
  0
LINE
  5
1C4
330
14D
100
AcDbEntity
  8
AP_510_200
  6
Continuous
 62
     7
100
AcDbLine
 10
164.4648196107
 20
206.948178262
 30
0.0
 11
164.2443239286
 21
206.9481782639
 31
0.0
  0
ARC
  5
1C5
330
14D
100
AcDbEntity
  8
AP_510_200
  6
Continuous
 62
     7
100
AcDbCircle
 10
164.4648196124
 20
207.1481782579
 30
0.0
 40
0.1999999959117452
100
AcDbArc
 50
269.9999995198
 51
340.1761368385
  0
LINE
  5
1C6
330
14D
100
AcDbEntity
  8
AP_510_200
  6
Continuous
 62
     7
100
AcDbLine
 10
164.7967031433
 20
207.4790722499
 30
0.0
 11
164.6529675298
 21
207.0803523075
 31
0.0
  0
ARC
  5
1C7
330
14D
100
AcDbEntity
  8
AP_510_200
  6
Continuous
 62
     7
100
AcDbCircle
 10
164.9378140858
 20
207.4282027905
 30
0.0
 40
0.1499999999955287
100
AcDbArc
 50
89.9999995198
 51
160.1761386654
  0
LINE
  5
1C8
330
14D
100
AcDbEntity
  8
AP_510_200
  6
Continuous
 62
     7
100
AcDbLine
 10
164.9760710397
 20
207.5782027902
 30
0.0
 11
164.9378140871
 21
207.5782027905
 31
0.0
  0
ARC
  5
1C9
330
14D
100
AcDbEntity
  8
AP_510_200
  6
Continuous
 62
     7
100
AcDbCircle
 10
164.9760710385
 20
207.4282028286
 30
0.0
 40
0.1499999615605296
100
AcDbArc
 50
0.0000004804
 51
89.9999995198
  0
LINE
  5
1CA
330
14D
100
AcDbEntity
  8
AP_510_200
  6
Continuous
 62
     7
100
AcDbLine
 10
165.1260710112
 20
206.0989882869
 30
0.0
 11
165.126071
 21
207.4282028299
 31
0.0
  0
ARC
  5
1CB
330
14D
100
AcDbEntity
  8
AP_510_200
  6
Continuous
 62
     7
100
AcDbCircle
 10
164.6260710112
 20
206.0989882827
 30
0.0
 40
0.4999999999999951
100
AcDbArc
 50
311.2139541857
 51
0.0
  0
LINE
  5
1CC
330
14D
100
AcDbEntity
  8
AP_510_200
  6
Continuous
 62
     7
100
AcDbLine
 10
164.6366872073
 20
205.4436179924
 30
0.0
 11
164.9555073555
 21
205.7228610502
 31
0.0
  0
ARC
  5
1CD
330
14D
100
AcDbEntity
  8
AP_510_200
  6
Continuous
 62
     7
100
AcDbCircle
 10
164.9661235062
 20
205.0674907201
 30
0.0
 40
0.5000000000000007
100
AcDbArc
 50
131.21394727
 51
180.000005037
  0
LINE
  5
1CE
330
14D
100
AcDbEntity
  8
AP_510_200
  6
Continuous
 62
     7
100
AcDbLine
 10
164.4661235292
 20
204.3171921426
 30
0.0
 11
164.4661235062
 21
205.0674906761
 31
0.0
  0
ARC
  5
1CF
330
14D
100
AcDbEntity
  8
AP_510_200
  6
Continuous
 62
     7
100
AcDbCircle
 10
163.9161235292
 20
204.3171921472
 30
0.0
 40
0.5499999999999998
100
AcDbArc
 50
188.8399128877
 51
359.9999995198
  0
LINE
  5
1D0
330
14D
100
AcDbEntity
  8
AP_510_200
  6
Continuous
 62
     7
100
AcDbLine
 10
162.6987190654
 20
207.5660742536
 30
0.0
 11
163.3726566657
 21
204.2326713316
 31
0.0
  0
ARC
  5
1D1
330
14D
100
AcDbEntity
  8
AP_510_200
  6
Continuous
 62
     7
100
AcDbCircle
 10
162.5172083939
 20
207.4820868968
 30
0.0
 40
0.1999999999999988
100
AcDbArc
 50
24.8305964691
 51
89.9999995198
  0
LINE
  5
1D2
330
14D
100
AcDbEntity
  8
AP_510_200
  6
Continuous
 62
     7
100
AcDbLine
 10
152.1000120378
 20
207.6820869841
 30
0.0
 11
162.5172083955
 21
207.6820868968
 31
0.0
  0
ARC
  5
1D3
330
14D
100
AcDbEntity
  8
AP_511
  6
Continuous
 62
     7
100
AcDbCircle
 10
147.5086114281
 20
203.0809822982
 30
0.0
 40
0.1999999999999971
100
AcDbArc
 50
179.9999995198
 51
269.9999995199
  0
LINE
  5
1D4
330
14D
100
AcDbEntity
  8
AP_511
  6
Continuous
 62
     7
100
AcDbLine
 10
147.3086115857
 20
221.8809797999
 30
0.0
 11
147.3086114281
 21
203.0809822999
 31
0.0
  0
ARC
  5
1D5
330
14D
100
AcDbEntity
  8
AP_511
  6
Continuous
 62
     7
100
AcDbCircle
 10
148.3086115857
 20
221.8809797915
 30
0.0
 40
0.9999999999996123
100
AcDbArc
 50
89.9999995198
 51
179.9999995198
  0
LINE
  5
1D6
330
14D
100
AcDbEntity
  8
AP_511
  6
Continuous
 62
     7
100
AcDbLine
 10
166.3086090941
 20
222.8809796407
 30
0.0
 11
148.3086115941
 21
222.8809797915
 31
0.0
  0
ARC
  5
1D7
330
14D
100
AcDbEntity
  8
AP_511
  6
Continuous
 62
     7
100
AcDbCircle
 10
166.3086090857
 20
221.8809796407
 30
0.0
 40
0.9999999999996123
100
AcDbArc
 50
0.0
 51
89.9999995198
  0
LINE
  5
1D8
330
14D
100
AcDbEntity
  8
AP_511
  6
Continuous
 62
     7
100
AcDbLine
 10
167.3086089281
 20
203.0756091844
 30
0.0
 11
167.3086090857
 21
221.8809796323
 31
0.0
  0
ARC
  5
1D9
330
14D
100
AcDbEntity
  8
AP_511
  6
Continuous
 62
     7
100
AcDbCircle
 10
167.1134133756
 20
203.075609186
 30
0.0
 40
0.1951955524478992
100
AcDbArc
 50
276.3530224399
 51
359.9999995198
  0
LINE
  5
1DA
330
14D
100
AcDbEntity
  8
AP_511
  6
Continuous
 62
     7
100
AcDbLine
 10
167.1086089264
 20
202.8816123336
 30
0.0
 11
167.1350125621
 21
202.8816123334
 31
0.0
  0
ARC
  5
1DB
330
14D
100
AcDbEntity
  8
AP_511
  6
Continuous
 62
     7
100
AcDbCircle
 10
167.1086089332
 20
203.6816123336
 30
0.0
 40
0.8000000000000004
100
AcDbArc
 50
179.9999995198
 51
269.9999995198
  0
LINE
  5
1DC
330
14D
100
AcDbEntity
  8
AP_511
  6
Continuous
 62
     7
100
AcDbLine
 10
166.3086090756
 20
220.6774609876
 30
0.0
 11
166.3086089332
 21
203.6816123403
 31
0.0
  0
ARC
  5
1DD
330
14D
100
AcDbEntity
  8
AP_511
  6
Continuous
 62
     7
100
AcDbCircle
 10
166.1086090756
 20
220.6774609893
 30
0.0
 40
0.1999999999999988
100
AcDbArc
 50
0.0
 51
89.9999995198
  0
LINE
  5
1DE
330
14D
100
AcDbEntity
  8
AP_511
  6
Continuous
 62
     7
100
AcDbLine
 10
164.7056059407
 20
220.877461001
 30
0.0
 11
165.373137297
 21
220.8774609954
 31
0.0
  0
LINE
  5
1DF
330
14D
100
AcDbEntity
  8
AP_511
  6
Continuous
 62
     7
100
AcDbLine
 10
165.9716757813
 20
220.8774609904
 30
0.0
 11
166.1086090773
 21
220.8774609893
 31
0.0
  0
ARC
  5
1E0
330
14D
100
AcDbEntity
  8
AP_511
  6
Continuous
 62
     7
100
AcDbCircle
 10
164.705605939
 20
220.677461001
 30
0.0
 40
0.1999999999999997
100
AcDbArc
 50
89.9999995249
 51
179.9999995198
  0
LINE
  5
1E1
330
14D
100
AcDbEntity
  8
AP_511
  6
Continuous
 62
     7
100
AcDbLine
 10
164.5056058837
 20
214.0809801555
 30
0.0
 11
164.505605939
 21
220.6774610027
 31
0.0
  0
ARC
  5
1E2
330
14D
100
AcDbEntity
  8
AP_511
  6
Continuous
 62
     7
100
AcDbCircle
 10
163.2056058846
 20
214.1851468331
 30
0.0
 40
1.304166666647575
100
AcDbArc
 50
269.9999995093
 51
355.4187794353
  0
LINE
  5
1E3
330
14D
100
AcDbEntity
  8
AP_511
  6
Continuous
 62
     7
100
AcDbLine
 10
161.6556058734
 20
212.8809801797
 30
0.0
 11
163.2056058735
 21
212.8809801664
 31
0.0
  0
ARC
  5
1E4
330
14D
100
AcDbEntity
  8
AP_511
  6
Continuous
 62
     7
100
AcDbCircle
 10
161.6556058751
 20
213.0809801797
 30
0.0
 40
0.1999999999999997
100
AcDbArc
 50
179.9999995198
 51
269.9999995101
  0
LINE
  5
1E5
330
14D
100
AcDbEntity
  8
AP_511
  6
Continuous
 62
     7
100
AcDbLine
 10
161.4556058802
 20
213.6809801814
 30
0.0
 11
161.4556058751
 21
213.0809801814
 31
0.0
  0
ARC
  5
1E6
330
14D
100
AcDbEntity
  8
AP_511
  6
Continuous
 62
     7
100
AcDbCircle
 10
161.6556058802
 20
213.6809801797
 30
0.0
 40
0.2000000000000005
100
AcDbArc
 50
89.9999995198
 51
179.9999995198
  0
LINE
  5
1E7
330
14D
100
AcDbEntity
  8
AP_511
  6
Continuous
 62
     7
100
AcDbLine
 10
163.2556058818
 20
213.8809801663
 30
0.0
 11
161.6556058818
 21
213.8809801797
 31
0.0
  0
ARC
  5
1E8
330
14D
100
AcDbEntity
  8
AP_511
  6
Continuous
 62
     7
100
AcDbCircle
 10
163.2556058835
 20
214.0809801663
 30
0.0
 40
0.1999999999999988
100
AcDbArc
 50
269.9999995198
 51
359.9999995198
  0
LINE
  5
1E9
330
14D
100
AcDbEntity
  8
AP_511
  6
Continuous
 62
     7
100
AcDbLine
 10
163.4556059455
 20
221.4809801646
 30
0.0
 11
163.4556058835
 21
214.0809801646
 31
0.0
  0
ARC
  5
1EA
330
14D
100
AcDbEntity
  8
AP_511
  6
Continuous
 62
     7
100
AcDbCircle
 10
163.0556059455
 20
221.4809801679
 30
0.0
 40
0.400000000000001
100
AcDbArc
 50
0.0
 51
89.9999995198
  0
LINE
  5
1EB
330
14D
100
AcDbEntity
  8
AP_511
  6
Continuous
 62
     7
100
AcDbLine
 10
151.5556059489
 20
221.8809802643
 30
0.0
 11
163.0556059489
 21
221.8809801679
 31
0.0
  0
ARC
  5
1EC
330
14D
100
AcDbEntity
  8
AP_511
  6
Continuous
 62
     7
100
AcDbCircle
 10
151.5556059455
 20
221.4809802643
 30
0.0
 40
0.4000000000000019
100
AcDbArc
 50
89.9999995198
 51
179.9999995198
  0
LINE
  5
1ED
330
14D
100
AcDbEntity
  8
AP_511
  6
Continuous
 62
     7
100
AcDbLine
 10
151.1556058835
 20
214.0809802677
 30
0.0
 11
151.1556059455
 21
221.4809802677
 31
0.0
  0
ARC
  5
1EE
330
14D
100
AcDbEntity
  8
AP_511
  6
Continuous
 62
     7
100
AcDbCircle
 10
151.3556058835
 20
214.080980266
 30
0.0
 40
0.2000000000000023
100
AcDbArc
 50
179.9999995198
 51
269.9999995198
  0
LINE
  5
1EF
330
14D
100
AcDbEntity
  8
AP_511
  6
Continuous
 62
     7
100
AcDbLine
 10
152.9556058818
 20
213.8809802526
 30
0.0
 11
151.3556058818
 21
213.880980266
 31
0.0
  0
ARC
  5
1F0
330
14D
100
AcDbEntity
  8
AP_511
  6
Continuous
 62
     7
100
AcDbCircle
 10
152.9556058802
 20
213.6809802526
 30
0.0
 40
0.1999999999999997
100
AcDbArc
 50
0.0
 51
89.9999995198
  0
LINE
  5
1F1
330
14D
100
AcDbEntity
  8
AP_511
  6
Continuous
 62
     7
100
AcDbLine
 10
153.1556058751
 20
213.0809802509
 30
0.0
 11
153.1556058802
 21
213.6809802509
 31
0.0
  0
ARC
  5
1F2
330
14D
100
AcDbEntity
  8
AP_511
  6
Continuous
 62
     7
100
AcDbCircle
 10
152.9556058751
 20
213.0809802526
 30
0.0
 40
0.2000000000000023
100
AcDbArc
 50
269.9999995198
 51
359.9999995198
  0
LINE
  5
1F3
330
14D
100
AcDbEntity
  8
AP_511
  6
Continuous
 62
     7
100
AcDbLine
 10
151.4056058735
 20
212.8809802656
 30
0.0
 11
152.9556058735
 21
212.8809802526
 31
0.0
  0
ARC
  5
1F4
330
14D
100
AcDbEntity
  8
AP_511
  6
Continuous
 62
     7
100
AcDbCircle
 10
151.4056058844
 20
214.1851469322
 30
0.0
 40
1.304166666666665
100
AcDbArc
 50
184.5812196051
 51
269.9999995198
  0
LINE
  5
1F5
330
14D
100
AcDbEntity
  8
AP_511
  6
Continuous
 62
     7
100
AcDbLine
 10
150.1056059388
 20
220.6774615339
 30
0.0
 11
150.1056058835
 21
214.0809802765
 31
0.0
  0
ARC
  5
1F6
330
14D
100
AcDbEntity
  8
AP_511
  6
Continuous
 62
     7
100
AcDbCircle
 10
149.9056059388
 20
220.6774615356
 30
0.0
 40
0.1999999999999988
100
AcDbArc
 50
0.0
 51
89.9999995198
  0
LINE
  5
1F7
330
14D
100
AcDbEntity
  8
AP_511
  6
Continuous
 62
     7
100
AcDbLine
 10
148.5086115773
 20
220.8774615473
 30
0.0
 11
148.7144462341
 21
220.8774615456
 31
0.0
  0
LINE
  5
1F8
330
14D
100
AcDbEntity
  8
AP_511
  6
Continuous
 62
     7
100
AcDbLine
 10
149.3129835855
 20
220.8774615406
 30
0.0
 11
149.9056059405
 21
220.8774615356
 31
0.0
  0
ARC
  5
1F9
330
14D
100
AcDbEntity
  8
AP_511
  6
Continuous
 62
     7
100
AcDbCircle
 10
148.5086115756
 20
220.6774615473
 30
0.0
 40
0.2000000000000005
100
AcDbArc
 50
89.9999995171
 51
179.9999995198
  0
LINE
  5
1FA
330
14D
100
AcDbEntity
  8
AP_511
  6
Continuous
 62
     7
100
AcDbLine
 10
148.3086114331
 20
203.6809822915
 30
0.0
 11
148.3086115756
 21
220.677461549
 31
0.0
  0
ARC
  5
1FB
330
14D
100
AcDbEntity
  8
AP_511
  6
Continuous
 62
     7
100
AcDbCircle
 10
147.5086114331
 20
203.6809822982
 30
0.0
 40
0.7999999999999988
100
AcDbArc
 50
269.9999995199
 51
359.9999995198
  0
ENDBLK
  5
1FD
330
14D
100
AcDbEntity
  8
0
100
AcDbBlockEnd
  0
BLOCK
  5
2C8
330
1FE
100
AcDbEntity
  8
0
100
AcDbBlockBegin
  2
SE2
 70
     0
 10
0.0
 20
0.0
 30
0.0
  3
SE2
  1
SE2
  0
LINE
  5
200
330
1FE
100
AcDbEntity
  8
AJ_221
  6
Continuous
 62
     7
100
AcDbLine
 10
57.1086560951
 20
115.8924192349
 30
0.0
 11
68.1086560951
 21
115.8924191427
 31
0.0
  0
LINE
  5
201
330
1FE
100
AcDbEntity
  8
AJ_221
  6
Continuous
 62
     7
100
AcDbLine
 10
57.1086561504
 20
122.4924192349
 30
0.0
 11
68.1086561504
 21
122.4924191427
 31
0.0
  0
LINE
  5
202
330
1FE
100
AcDbEntity
  8
AJ_221
  6
Continuous
 62
     7
100
AcDbLine
 10
57.1086560951
 20
115.8924192349
 30
0.0
 11
57.0736157273
 21
115.8924192352
 31
0.0
  0
ARC
  5
203
330
1FE
100
AcDbEntity
  8
AJ_221
  6
Continuous
 62
     7
100
AcDbCircle
 10
65.1708065963
 20
117.7032980837
 30
0.0
 40
8.29721532648182
100
AcDbArc
 50
180.1391586021
 51
192.6063499485
  0
LINE
  5
204
330
1FE
100
AcDbEntity
  8
AJ_221
  6
Continuous
 62
     7
100
AcDbLine
 10
56.8736157423
 20
117.6831460278
 30
0.0
 11
56.8736157676
 21
120.7016924459
 31
0.0
  0
ARC
  5
205
330
1FE
100
AcDbEntity
  8
AJ_221
  6
Continuous
 62
     7
100
AcDbCircle
 10
65.1708066213
 20
120.681540251
 30
0.0
 40
8.29721532648136
100
AcDbArc
 50
167.3936490911
 51
179.8608404375
  0
LINE
  5
206
330
1FE
100
AcDbEntity
  8
AJ_221
  6
Continuous
 62
     7
100
AcDbLine
 10
57.0736157826
 20
122.4924192352
 30
0.0
 11
57.1086561504
 21
122.4924192349
 31
0.0
  0
LINE
  5
207
330
1FE
100
AcDbEntity
  8
AJ_221
  6
Continuous
 62
     7
100
AcDbLine
 10
68.8736157676
 20
120.7016923454
 30
0.0
 11
68.8736157423
 21
117.6831459272
 31
0.0
  0
ARC
  5
208
330
1FE
100
AcDbEntity
  8
AJ_221
  6
Continuous
 62
     7
100
AcDbCircle
 10
60.5764248885
 20
117.7032981222
 30
0.0
 40
8.297215326480991
100
AcDbArc
 50
347.3936490911
 51
359.8608404375
  0
LINE
  5
209
330
1FE
100
AcDbEntity
  8
AJ_221
  6
Continuous
 62
     7
100
AcDbLine
 10
68.6736157273
 20
115.892419138
 30
0.0
 11
68.1086560951
 21
115.8924191427
 31
0.0
  0
LINE
  5
20A
330
1FE
100
AcDbEntity
  8
AJ_221
  6
Continuous
 62
     7
100
AcDbLine
 10
68.1086561504
 20
122.4924191427
 30
0.0
 11
68.6736157826
 21
122.492419138
 31
0.0
  0
ARC
  5
20B
330
1FE
100
AcDbEntity
  8
AJ_221
  6
Continuous
 62
     7
100
AcDbCircle
 10
60.5764249135
 20
120.6815402895
 30
0.0
 40
8.297215326481881
100
AcDbArc
 50
0.1391586021
 51
12.6063499485
  0
ARC
  5
20C
330
1FE
100
AcDbEntity
  8
AP_509_EINGEBAUT
  6
Continuous
 62
     7
100
AcDbCircle
 10
56.079191466
 20
105.7335729884
 30
0.0
 40
1.999199999996051
100
AcDbArc
 50
179.9897509501
 51
251.4861807278
  0
LINE
  5
20D
330
1FE
100
AcDbEntity
  8
AP_509_EINGEBAUT
  6
Continuous
 62
     7
100
AcDbLine
 10
54.0829606268
 20
122.3324006341
 30
0.0
 11
54.079991498
 21
105.7339306046
 31
0.0
  0
ARC
  5
20E
330
1FE
100
AcDbEntity
  8
AP_509_EINGEBAUT
  6
Continuous
 62
     7
100
AcDbCircle
 10
54.5817247497
 20
122.225937731
 30
0.0
 40
0.5099999999999997
100
AcDbArc
 50
12.0869871396
 51
167.9508445747
  0
LINE
  5
20F
330
1FE
100
AcDbEntity
  8
AP_509_EINGEBAUT
  6
Continuous
 62
     7
100
AcDbLine
 10
55.0804180009
 20
111.840549741
 30
0.0
 11
55.0804184676
 21
122.3327299389
 31
0.0
  0
ARC
  5
210
330
1FE
100
AcDbEntity
  8
AP_509_EINGEBAUT
  6
Continuous
 62
     7
100
AcDbCircle
 10
55.2802817964
 20
111.8358095242
 30
0.0
 40
0.1999199999930275
100
AcDbArc
 50
178.6413571855
 51
269.9999985599
  0
LINE
  5
211
330
1FE
100
AcDbEntity
  8
AP_509_EINGEBAUT
  6
Continuous
 62
     7
100
AcDbLine
 10
55.5146122572
 20
111.6358895183
 30
0.0
 11
55.2802817914
 21
111.6358895242
 31
0.0
  0
ARC
  5
212
330
1FE
100
AcDbEntity
  8
AP_509_EINGEBAUT
  6
Continuous
 62
     7
100
AcDbCircle
 10
55.5146122622
 20
111.8358895183
 30
0.0
 40
0.2000000000000014
100
AcDbArc
 50
269.9999985599
 51
340.0222664667
  0
LINE
  5
213
330
1FE
100
AcDbEntity
  8
AP_509_EINGEBAUT
  6
Continuous
 62
     7
100
AcDbLine
 10
55.7669737211
 20
111.9447002582
 30
0.0
 11
55.7025773556
 21
111.767558532
 31
0.0
  0
ARC
  5
214
330
1FE
100
AcDbEntity
  8
AP_509_EINGEBAUT
  6
Continuous
 62
     7
100
AcDbCircle
 10
55.9012016157
 20
111.895904366
 30
0.0
 40
0.1428221509242806
100
AcDbArc
 50
69.4463628256
 51
160.0222664667
  0
ARC
  5
215
330
1FE
100
AcDbEntity
  8
AP_509_EINGEBAUT
  6
Continuous
 62
     7
100
AcDbCircle
 10
55.6053023214
 20
111.304500199
 30
0.0
 40
0.8034709028220113
100
AcDbArc
 50
44.6357707107
 51
64.4890381479
  0
ARC
  5
216
330
1FE
100
AcDbEntity
  8
AP_509_EINGEBAUT
  6
Continuous
 62
     7
100
AcDbCircle
 10
54.7733312828
 20
110.5054041888
 30
0.0
 40
1.956998650314431
100
AcDbArc
 50
1.6372756877
 51
44.1698465874
  0
ARC
  5
217
330
1FE
100
AcDbEntity
  8
AP_509_EINGEBAUT
  6
Continuous
 62
     7
100
AcDbCircle
 10
54.7733312837
 20
110.6172348062
 30
0.0
 40
1.956998650314431
100
AcDbArc
 50
315.8301524522
 51
358.3627233478
  0
ARC
  5
218
330
1FE
100
AcDbEntity
  8
AP_509_EINGEBAUT
  6
Continuous
 62
     7
100
AcDbCircle
 10
55.605302309
 20
109.818138782
 30
0.0
 40
0.8034709028220103
100
AcDbArc
 50
295.5109608917
 51
315.3642283289
  0
ARC
  5
219
330
1FE
100
AcDbEntity
  8
AP_509_EINGEBAUT
  6
Continuous
 62
     7
100
AcDbCircle
 10
55.9012015934
 20
109.22673461
 30
0.0
 40
0.142822150924308
100
AcDbArc
 50
199.9777325719
 51
290.5536362141
  0
LINE
  5
21A
330
1FE
100
AcDbEntity
  8
AP_509_EINGEBAUT
  6
Continuous
 62
     7
100
AcDbLine
 10
55.7025773354
 20
109.3550804473
 30
0.0
 11
55.7669736979
 21
109.1779387201
 31
0.0
  0
ARC
  5
21B
330
1FE
100
AcDbEntity
  8
AP_509_EINGEBAUT
  6
Continuous
 62
     7
100
AcDbCircle
 10
55.5146122409
 20
109.2867494642
 30
0.0
 40
0.2000000000000005
100
AcDbArc
 50
19.977732573
 51
90.0000004797
  0
LINE
  5
21C
330
1FE
100
AcDbEntity
  8
AP_509_EINGEBAUT
  6
Continuous
 62
     7
100
AcDbLine
 10
55.2802817734
 20
109.4867494623
 30
0.0
 11
55.5146122392
 21
109.4867494642
 31
0.0
  0
ARC
  5
21D
330
1FE
100
AcDbEntity
  8
AP_509_EINGEBAUT
  6
Continuous
 62
     7
100
AcDbCircle
 10
55.280281775
 20
109.2868294623
 30
0.0
 40
0.1999199999930865
100
AcDbArc
 50
90.0000004797
 51
178.6413572299
  0
LINE
  5
21E
330
1FE
100
AcDbEntity
  8
AP_509_EINGEBAUT
  6
Continuous
 62
     7
100
AcDbLine
 10
55.080417996
 20
105.7241330185
 30
0.0
 11
55.0804179796
 21
109.2915696789
 31
0.0
  0
ARC
  5
21F
330
1FE
100
AcDbEntity
  8
AP_509_EINGEBAUT
  6
Continuous
 62
     7
100
AcDbCircle
 10
54.880497996
 20
105.7241330202
 30
0.0
 40
0.1999200000285267
100
AcDbArc
 50
313.7036650705
 51
359.9999995198
  0
ARC
  5
220
330
1FE
100
AcDbEntity
  8
AP_509_EINGEBAUT
  6
Continuous
 62
     7
100
AcDbCircle
 10
55.3639545952
 20
105.2182893733
 30
0.0
 40
0.4997999999975766
100
AcDbArc
 50
133.7036650705
 51
311.8406016219
  0
ARC
  5
221
330
1FE
100
AcDbEntity
  8
AP_509_EINGEBAUT
  6
Continuous
 62
     7
100
AcDbCircle
 10
55.830710218
 20
104.6969955339
 30
0.0
 40
0.1999199999987128
100
AcDbArc
 50
63.4955820333
 51
131.840601622
  0
ARC
  5
222
330
1FE
100
AcDbEntity
  8
AP_509_EINGEBAUT
  6
Continuous
 62
     7
100
AcDbCircle
 10
62.9610496274
 20
118.9954827693
 30
0.0
 40
15.7778294445906
100
AcDbArc
 50
243.4955820374
 51
269.8185048937
  0
ARC
  5
223
330
1FE
100
AcDbEntity
  8
AP_509_EINGEBAUT
  6
Continuous
 62
     7
100
AcDbCircle
 10
62.8610914461
 20
118.9954827696
 30
0.0
 40
15.7778294445906
100
AcDbArc
 50
270.1814947155
 51
296.5044170063
  0
ARC
  5
224
330
1FE
100
AcDbEntity
  8
AP_509_EINGEBAUT
  6
Continuous
 62
     7
100
AcDbCircle
 10
69.9914306169
 20
104.6969954152
 30
0.0
 40
0.1999199999987117
100
AcDbArc
 50
48.1593974176
 51
116.5044170063
  0
ARC
  5
225
330
1FE
100
AcDbEntity
  8
AP_509_EINGEBAUT
  6
Continuous
 62
     7
100
AcDbCircle
 10
70.4581862483
 20
105.2182892468
 30
0.0
 40
0.4997999999975772
100
AcDbArc
 50
228.1593974177
 51
46.2963339691
  0
ARC
  5
226
330
1FE
100
AcDbEntity
  8
AP_509_EINGEBAUT
  6
Continuous
 62
     7
100
AcDbCircle
 10
70.9416428561
 20
105.7241328856
 30
0.0
 40
0.1999200000285268
100
AcDbArc
 50
179.9999995198
 51
226.2963339692
  0
LINE
  5
227
330
1FE
100
AcDbEntity
  8
AP_509_EINGEBAUT
  6
Continuous
 62
     7
100
AcDbLine
 10
70.7417229323
 20
109.2915695477
 30
0.0
 11
70.741722856
 21
105.7241328873
 31
0.0
  0
ARC
  5
228
330
1FE
100
AcDbEntity
  8
AP_509_EINGEBAUT
  6
Continuous
 62
     7
100
AcDbCircle
 10
70.5418591367
 20
109.2868293344
 30
0.0
 40
0.1999199999930258
100
AcDbArc
 50
1.3586418098
 51
89.9999985599
  0
LINE
  5
229
330
1FE
100
AcDbEntity
  8
AP_509_EINGEBAUT
  6
Continuous
 62
     7
100
AcDbLine
 10
70.3075286759
 20
109.4867493403
 30
0.0
 11
70.5418591418
 21
109.4867493344
 31
0.0
  0
ARC
  5
22A
330
1FE
100
AcDbEntity
  8
AP_509_EINGEBAUT
  6
Continuous
 62
     7
100
AcDbCircle
 10
70.3075286709
 20
109.2867493403
 30
0.0
 40
0.2000000000000001
100
AcDbArc
 50
89.9999985599
 51
160.0222664667
  0
LINE
  5
22B
330
1FE
100
AcDbEntity
  8
AP_509_EINGEBAUT
  6
Continuous
 62
     7
100
AcDbLine
 10
70.055167212
 20
109.1779386004
 30
0.0
 11
70.1195635775
 21
109.3550803265
 31
0.0
  0
ARC
  5
22C
330
1FE
100
AcDbEntity
  8
AP_509_EINGEBAUT
  6
Continuous
 62
     7
100
AcDbCircle
 10
69.9209393174
 20
109.2267344925
 30
0.0
 40
0.1428221509242806
100
AcDbArc
 50
249.4463628255
 51
340.0222664678
  0
ARC
  5
22D
330
1FE
100
AcDbEntity
  8
AP_509_EINGEBAUT
  6
Continuous
 62
     7
100
AcDbCircle
 10
70.2168386117
 20
109.8181386596
 30
0.0
 40
0.803470902822011
100
AcDbArc
 50
224.6357707107
 51
244.489038148
  0
ARC
  5
22E
330
1FE
100
AcDbEntity
  8
AP_509_EINGEBAUT
  6
Continuous
 62
     7
100
AcDbCircle
 10
71.0488096503
 20
110.6172346698
 30
0.0
 40
1.956998650314434
100
AcDbArc
 50
181.6372756918
 51
224.1698465875
  0
ARC
  5
22F
330
1FE
100
AcDbEntity
  8
AP_509_EINGEBAUT
  6
Continuous
 62
     7
100
AcDbCircle
 10
71.0488096494
 20
110.5054040524
 30
0.0
 40
1.956998650314432
100
AcDbArc
 50
135.8301524523
 51
178.3627233519
  0
ARC
  5
230
330
1FE
100
AcDbEntity
  8
AP_509_EINGEBAUT
  6
Continuous
 62
     7
100
AcDbCircle
 10
70.2168386242
 20
111.3045000765
 30
0.0
 40
0.8034709028220111
100
AcDbArc
 50
115.5109608918
 51
135.3642283289
  0
ARC
  5
231
330
1FE
100
AcDbEntity
  8
AP_509_EINGEBAUT
  6
Continuous
 62
     7
100
AcDbCircle
 10
69.9209393398
 20
111.8959042485
 30
0.0
 40
0.1428221509242804
100
AcDbArc
 50
19.977732573
 51
110.553636214
  0
LINE
  5
232
330
1FE
100
AcDbEntity
  8
AP_509_EINGEBAUT
  6
Continuous
 62
     7
100
AcDbLine
 10
70.1195635977
 20
111.7675584112
 30
0.0
 11
70.0551672352
 21
111.9447001384
 31
0.0
  0
ARC
  5
233
330
1FE
100
AcDbEntity
  8
AP_509_EINGEBAUT
  6
Continuous
 62
     7
100
AcDbCircle
 10
70.3075286922
 20
111.8358893943
 30
0.0
 40
0.2000000000000005
100
AcDbArc
 50
199.977732573
 51
270.0000004797
  0
LINE
  5
234
330
1FE
100
AcDbEntity
  8
AP_509_EINGEBAUT
  6
Continuous
 62
     7
100
AcDbLine
 10
70.5418591598
 20
111.6358893963
 30
0.0
 11
70.3075286939
 21
111.6358893943
 31
0.0
  0
ARC
  5
235
330
1FE
100
AcDbEntity
  8
AP_509_EINGEBAUT
  6
Continuous
 62
     7
100
AcDbCircle
 10
70.5418591581
 20
111.8358093963
 30
0.0
 40
0.1999199999931089
100
AcDbArc
 50
270.0000004797
 51
1.3586418542
  0
LINE
  5
236
330
1FE
100
AcDbEntity
  8
AP_509_EINGEBAUT
  6
Continuous
 62
     7
100
AcDbLine
 10
70.7417226628
 20
122.3327298076
 30
0.0
 11
70.7417229536
 21
111.8405496097
 31
0.0
  0
ARC
  5
237
330
1FE
100
AcDbEntity
  8
AP_509_EINGEBAUT
  6
Continuous
 62
     7
100
AcDbCircle
 10
71.240416379
 20
122.2259375914
 30
0.0
 40
0.5099999999999887
100
AcDbArc
 50
12.049154465
 51
167.9130119
  0
LINE
  5
238
330
1FE
100
AcDbEntity
  8
AP_509_EINGEBAUT
  6
Continuous
 62
     7
100
AcDbLine
 10
71.7421493542
 20
105.7339304566
 30
0.0
 11
71.7391805036
 21
122.3324004862
 31
0.0
  0
ARC
  5
239
330
1FE
100
AcDbEntity
  8
AP_509_EINGEBAUT
  6
Continuous
 62
     7
100
AcDbCircle
 10
69.7429493862
 20
105.7335728739
 30
0.0
 40
1.999199999996051
100
AcDbArc
 50
288.5138183118
 51
0.0102480895
  0
ARC
  5
23A
330
1FE
100
AcDbEntity
  8
AP_509_EINGEBAUT
  6
Continuous
 62
     7
100
AcDbCircle
 10
62.8610914505
 20
126.2848052192
 30
0.0
 40
23.67206597467343
100
AcDbArc
 50
270.120968947
 51
288.5138183117
  0
ARC
  5
23B
330
1FE
100
AcDbEntity
  8
AP_509_EINGEBAUT
  6
Continuous
 62
     7
100
AcDbCircle
 10
62.9610497462
 20
126.2848052183
 30
0.0
 40
23.67206597467343
100
AcDbArc
 50
251.4861807279
 51
269.879030084
  0
LINE
  5
23D
330
1FE
100
AcDbEntity
  8
AW_061
  6
Continuous
 62
     7
100
AcDbLine
 10
55.2628631019
 20
133.7401970281
 30
0.0
 11
55.2628630172
 21
123.6424192504
 31
0.0
  0
LINE
  5
23E
330
1FE
100
AcDbEntity
  8
AW_061
  6
Continuous
 62
     7
100
AcDbLine
 10
70.4628631019
 20
133.7401969007
 30
0.0
 11
70.4628630172
 21
123.642419123
 31
0.0
  0
LINE
  5
23F
330
1FE
100
AcDbEntity
  8
AW_061
  6
Continuous
 62
     7
100
AcDbLine
 10
70.4628630172
 20
123.642419123
 30
0.0
 11
68.7736157922
 21
123.6424191371
 31
0.0
  0
LINE
  5
240
330
1FE
100
AcDbEntity
  8
AW_061
  6
Continuous
 62
     7
100
AcDbLine
 10
56.9736157922
 20
123.642419236
 30
0.0
 11
55.2628630172
 21
123.6424192504
 31
0.0
  0
LINE
  5
241
330
1FE
100
AcDbEntity
  8
AW_061
  6
Continuous
 62
     7
100
AcDbLine
 10
68.7736157838
 20
122.6424191371
 30
0.0
 11
56.9736157838
 21
122.642419236
 31
0.0
  0
LINE
  5
242
330
1FE
100
AcDbEntity
  8
AW_061
  6
Continuous
 62
     7
100
AcDbLine
 10
56.9736157838
 20
122.642419236
 30
0.0
 11
56.9736157922
 21
123.642419236
 31
0.0
  0
LINE
  5
243
330
1FE
100
AcDbEntity
  8
AW_061
  6
Continuous
 62
     7
100
AcDbLine
 10
68.7736157922
 20
123.6424191371
 30
0.0
 11
68.7736157838
 21
122.6424191371
 31
0.0
  0
CIRCLE
  5
244
330
1FE
100
AcDbEntity
  8
AW_061
  6
Continuous
 62
     7
100
AcDbCircle
 10
62.8628631019
 20
133.7401969644
 30
0.0
 40
3.25
  0
ARC
  5
245
330
1FE
100
AcDbEntity
  8
AW_061
  6
Continuous
 62
     7
100
AcDbCircle
 10
62.8628631019
 20
133.7401969644
 30
0.0
 40
7.600000000000001
100
AcDbArc
 50
0.0
 51
179.9999995198
  0
ARC
  5
246
330
1FE
100
AcDbEntity
  8
AP_510_200
  6
Continuous
 62
     7
100
AcDbCircle
 10
57.6680218794
 20
109.2435259546
 30
0.0
 40
0.1999999999999995
100
AcDbArc
 50
89.9999995198
 51
155.1694025705
  0
LINE
  5
247
330
1FE
100
AcDbEntity
  8
AP_510_200
  6
Continuous
 62
     7
100
AcDbLine
 10
56.8125735531
 20
105.9941104037
 30
0.0
 11
57.4865112092
 21
109.3275133144
 31
0.0
  0
ARC
  5
248
330
1FE
100
AcDbEntity
  8
AP_510_200
  6
Continuous
 62
     7
100
AcDbCircle
 10
56.269106691
 20
106.0786312284
 30
0.0
 40
0.550000000000001
100
AcDbArc
 50
179.9999995198
 51
351.160086152
  0
LINE
  5
249
330
1FE
100
AcDbEntity
  8
AP_510_200
  6
Continuous
 62
     7
100
AcDbLine
 10
55.7191067266
 20
106.8289297665
 30
0.0
 11
55.719106691
 21
106.078631233
 31
0.0
  0
ARC
  5
24A
330
1FE
100
AcDbEntity
  8
AP_510_200
  6
Continuous
 62
     7
100
AcDbCircle
 10
55.2191067266
 20
106.8289295085
 30
0.0
 40
0.5000000000000007
100
AcDbArc
 50
0.0000295714
 51
48.786105754
  0
LINE
  5
24B
330
1FE
100
AcDbEntity
  8
AP_510_200
  6
Continuous
 62
     7
100
AcDbLine
 10
55.2297225339
 20
107.4843001488
 30
0.0
 11
55.5485426774
 21
107.2050570857
 31
0.0
  0
ARC
  5
24C
330
1FE
100
AcDbEntity
  8
AP_510_200
  6
Continuous
 62
     7
100
AcDbCircle
 10
55.5591588845
 20
107.8604273758
 30
0.0
 40
0.5000000000000014
100
AcDbArc
 50
196.7677971503
 51
228.7860448539
  0
ARC
  5
24D
330
1FE
100
AcDbEntity
  8
AP_510_200
  6
Continuous
 62
     7
100
AcDbCircle
 10
55.2091588795
 20
109.1896419276
 30
0.0
 40
0.1499999615606831
100
AcDbArc
 50
89.9999995198
 51
149.1232121567
  0
LINE
  5
24E
330
1FE
100
AcDbEntity
  8
AP_510_200
  6
Continuous
 62
     7
100
AcDbLine
 10
55.2474158334
 20
109.3396418888
 30
0.0
 11
55.2091588808
 21
109.3396418892
 31
0.0
  0
ARC
  5
24F
330
1FE
100
AcDbEntity
  8
AP_510_200
  6
Continuous
 62
     7
100
AcDbCircle
 10
55.2474158322
 20
109.1896418888
 30
0.0
 40
0.149999999995527
100
AcDbArc
 50
19.8238603743
 51
89.9999995198
  0
LINE
  5
250
330
1FE
100
AcDbEntity
  8
AP_510_200
  6
Continuous
 62
     7
100
AcDbLine
 10
55.5322623824
 20
108.8417914011
 30
0.0
 11
55.3885267756
 21
109.2405113458
 31
0.0
  0
ARC
  5
251
330
1FE
100
AcDbEntity
  8
AP_510_200
  6
Continuous
 62
     7
100
AcDbCircle
 10
55.7204103009
 20
108.9096173483
 30
0.0
 40
0.1999999959120258
100
AcDbArc
 50
199.8238622011
 51
269.9999995198
  0
LINE
  5
252
330
1FE
100
AcDbEntity
  8
AP_510_200
  6
Continuous
 62
     7
100
AcDbLine
 10
55.9409059814
 20
108.7096173505
 30
0.0
 11
55.7204102992
 21
108.7096173524
 31
0.0
  0
ARC
  5
253
330
1FE
100
AcDbEntity
  8
AP_510_200
  6
Continuous
 62
     7
100
AcDbCircle
 10
55.9409059875
 20
108.9096173505
 30
0.0
 40
0.2000000000010712
100
AcDbArc
 50
269.9999982364
 51
314.9999995198
  0
LINE
  5
254
330
1FE
100
AcDbEntity
  8
AP_510_200
  6
Continuous
 62
     7
100
AcDbLine
 10
56.5939321221
 20
109.279800764
 30
0.0
 11
56.0823273426
 21
108.7681959931
 31
0.0
  0
ARC
  5
255
330
1FE
100
AcDbEntity
  8
AP_510_200
  6
Continuous
 62
     7
100
AcDbCircle
 10
56.2403787344
 20
109.6333541576
 30
0.0
 40
0.4999999999999987
100
AcDbArc
 50
314.9999995198
 51
359.9999995198
  0
LINE
  5
256
330
1FE
100
AcDbEntity
  8
AP_510_200
  6
Continuous
 62
     7
100
AcDbLine
 10
56.7403787487
 20
111.3306579238
 30
0.0
 11
56.7403787344
 21
109.6333541534
 31
0.0
  0
ARC
  5
257
330
1FE
100
AcDbEntity
  8
AP_510_200
  6
Continuous
 62
     7
100
AcDbCircle
 10
56.2403787486
 20
111.330657928
 30
0.0
 40
0.5000000000235068
100
AcDbArc
 50
0.0
 51
44.9999995185
  0
LINE
  5
258
330
1FE
100
AcDbEntity
  8
AP_510_200
  6
Continuous
 62
     7
100
AcDbLine
 10
56.1244949622
 20
112.1536485035
 30
0.0
 11
56.5939321422
 21
111.6842113156
 31
0.0
  0
ARC
  5
259
330
1FE
100
AcDbEntity
  8
AP_510_200
  6
Continuous
 62
     7
100
AcDbCircle
 10
55.9830736048
 20
112.0122271484
 30
0.0
 40
0.200000000038586
100
AcDbArc
 50
44.9999995185
 51
89.9999995198
  0
LINE
  5
25A
330
1FE
100
AcDbEntity
  8
AP_510_200
  6
Continuous
 62
     7
100
AcDbLine
 10
55.7204105395
 20
112.2122271506
 30
0.0
 11
55.9830736065
 21
112.2122271484
 31
0.0
  0
ARC
  5
25B
330
1FE
100
AcDbEntity
  8
AP_510_200
  6
Continuous
 62
     7
100
AcDbCircle
 10
55.7204105378
 20
112.0122271506
 30
0.0
 40
0.2000000000014239
100
AcDbArc
 50
89.9999995198
 51
160.1761157296
  0
LINE
  5
25C
330
1FE
100
AcDbEntity
  8
AP_510_200
  6
Continuous
 62
     7
100
AcDbLine
 10
55.3885268828
 20
111.6813333266
 30
0.0
 11
55.5322626416
 21
112.0800531717
 31
0.0
  0
ARC
  5
25D
330
1FE
100
AcDbEntity
  8
AP_510_200
  6
Continuous
 62
     7
100
AcDbCircle
 10
55.2474158902
 20
111.7322028678
 30
0.0
 40
0.1500000748122787
100
AcDbArc
 50
320.0522581345
 51
340.1761157295
  0
ARC
  5
25E
330
1FE
100
AcDbEntity
  8
AP_510_200
  6
Continuous
 62
     7
100
AcDbCircle
 10
55.1879710729
 20
114.7401182661
 30
0.0
 40
0.2811073305777832
100
AcDbArc
 50
89.9999985593
 51
112.4951053779
  0
LINE
  5
25F
330
1FE
100
AcDbEntity
  8
AP_510_200
  6
Continuous
 62
     7
100
AcDbLine
 10
55.2986438206
 20
115.0212255939
 30
0.0
 11
55.18797108
 21
115.0212255967
 31
0.0
  0
ARC
  5
260
330
1FE
100
AcDbEntity
  8
AP_510_200
  6
Continuous
 62
     7
100
AcDbCircle
 10
55.2986438081
 20
114.5212255939
 30
0.0
 40
0.4999999999999977
100
AcDbArc
 50
33.8334835048
 51
89.9999985593
  0
LINE
  5
261
330
1FE
100
AcDbEntity
  8
AP_510_200
  6
Continuous
 62
     7
100
AcDbLine
 10
55.9983306697
 20
114.3753848984
 30
0.0
 11
55.7139734229
 21
114.7996161667
 31
0.0
  0
ARC
  5
262
330
1FE
100
AcDbEntity
  8
AP_510_200
  6
Continuous
 62
     7
100
AcDbCircle
 10
56.2475284386
 20
114.5424192421
 30
0.0
 40
0.3000000000000017
100
AcDbArc
 50
213.8334835048
 51
269.9999995198
  0
LINE
  5
263
330
1FE
100
AcDbEntity
  8
AP_510_200
  6
Continuous
 62
     7
100
AcDbLine
 10
56.9902199962
 20
114.2424192359
 30
0.0
 11
56.2475284361
 21
114.2424192421
 31
0.0
  0
ARC
  5
264
330
1FE
100
AcDbEntity
  8
AP_510_200
  6
Continuous
 62
     7
100
AcDbCircle
 10
56.9902199937
 20
113.9424192359
 30
0.0
 40
0.2999999999999999
100
AcDbArc
 50
0.0
 51
89.9999995198
  0
LINE
  5
265
330
1FE
100
AcDbEntity
  8
AP_510_200
  6
Continuous
 62
     7
100
AcDbLine
 10
57.5406074878
 20
110.6435260502
 30
0.0
 11
57.2902199937
 21
113.9424192334
 31
0.0
  0
ARC
  5
266
330
1FE
100
AcDbEntity
  8
AP_510_200
  6
Continuous
 62
     7
100
AcDbCircle
 10
57.7406074878
 20
110.6435260485
 30
0.0
 40
0.2000000000003168
100
AcDbArc
 50
179.9999995198
 51
270.0001010447
  0
LINE
  5
267
330
1FE
100
AcDbEntity
  8
AP_510_200
  6
Continuous
 62
     7
100
AcDbLine
 10
68.0126322962
 20
110.4435259625
 30
0.0
 11
57.7406078405
 21
110.4435260485
 31
0.0
  0
ARC
  5
268
330
1FE
100
AcDbEntity
  8
AP_510_200
  6
Continuous
 62
     7
100
AcDbCircle
 10
68.0126322978
 20
110.6435259625
 30
0.0
 40
0.1999999999999997
100
AcDbArc
 50
269.9999995198
 51
359.9999995198
  0
LINE
  5
269
330
1FE
100
AcDbEntity
  8
AP_510_200
  6
Continuous
 62
     7
100
AcDbLine
 10
68.4630198473
 20
113.9424191397
 30
0.0
 11
68.2126322978
 21
110.6435259608
 31
0.0
  0
ARC
  5
26A
330
1FE
100
AcDbEntity
  8
AP_510_200
  6
Continuous
 62
     7
100
AcDbCircle
 10
68.7630198473
 20
113.9424191372
 30
0.0
 40
0.3000000000000017
100
AcDbArc
 50
89.9999995198
 51
179.9999995198
  0
LINE
  5
26B
330
1FE
100
AcDbEntity
  8
AP_510_200
  6
Continuous
 62
     7
100
AcDbLine
 10
69.5057114099
 20
114.242419131
 30
0.0
 11
68.7630198498
 21
114.2424191372
 31
0.0
  0
ARC
  5
26C
330
1FE
100
AcDbEntity
  8
AP_510_200
  6
Continuous
 62
     7
100
AcDbCircle
 10
69.5057114124
 20
114.542419131
 30
0.0
 40
0.2999999999999977
100
AcDbArc
 50
269.9999995198
 51
326.1665155349
  0
LINE
  5
26D
330
1FE
100
AcDbEntity
  8
AP_510_200
  6
Continuous
 62
     7
100
AcDbLine
 10
70.0392664324
 20
114.7996160467
 30
0.0
 11
69.7549091785
 21
114.3753847831
 31
0.0
  0
ARC
  5
26E
330
1FE
100
AcDbEntity
  8
AP_510_200
  6
Continuous
 62
     7
100
AcDbCircle
 10
70.4545960426
 20
114.5212254669
 30
0.0
 40
0.5000000000000004
100
AcDbArc
 50
90.0000004804
 51
146.1665155349
  0
LINE
  5
26F
330
1FE
100
AcDbEntity
  8
AP_510_200
  6
Continuous
 62
     7
100
AcDbLine
 10
70.565268779
 20
115.0212254678
 30
0.0
 11
70.4545960384
 21
115.0212254669
 31
0.0
  0
ARC
  5
270
330
1FE
100
AcDbEntity
  8
AP_510_200
  6
Continuous
 62
     7
100
AcDbCircle
 10
70.5652687814
 20
114.7401181373
 30
0.0
 40
0.2811073305777823
100
AcDbArc
 50
297.2730169901
 51
308.8814282599
  0
ARC
  5
271
330
1FE
100
AcDbEntity
  8
AP_510_200
  6
Continuous
 62
     7
100
AcDbCircle
 10
70.5652687814
 20
114.7401181373
 30
0.0
 40
0.2811073305777823
100
AcDbArc
 50
51.1185749165
 51
90.0000004804
  0
LINE
  5
272
330
1FE
100
AcDbEntity
  8
AP_510_200
  6
Continuous
 62
     7
100
AcDbLine
 10
70.6940809023
 20
111.7322026636
 30
0.0
 11
70.6940808791
 21
114.4902606283
 31
0.0
  0
ARC
  5
273
330
1FE
100
AcDbEntity
  8
AP_510_200
  6
Continuous
 62
     7
100
AcDbCircle
 10
70.5440809023
 20
111.7322026648
 30
0.0
 40
0.1500000000002472
100
AcDbArc
 50
348.7288622957
 51
359.9999995198
  0
ARC
  5
274
330
1FE
100
AcDbEntity
  8
AP_510_200
  6
Continuous
 62
     7
100
AcDbCircle
 10
70.5058239137
 20
111.73220274
 30
0.0
 40
0.150000074812283
100
AcDbArc
 50
199.8238833096
 51
219.947741479
  0
LINE
  5
275
330
1FE
100
AcDbEntity
  8
AP_510_200
  6
Continuous
 62
     7
100
AcDbLine
 10
70.2209771682
 20
112.0800530486
 30
0.0
 11
70.3647129203
 21
111.6813332011
 31
0.0
  0
ARC
  5
276
330
1FE
100
AcDbEntity
  8
AP_510_200
  6
Continuous
 62
     7
100
AcDbCircle
 10
70.0328292708
 20
112.0122270307
 30
0.0
 40
0.2000000000007135
100
AcDbArc
 50
19.8238833095
 51
89.9999995198
  0
LINE
  5
277
330
1FE
100
AcDbEntity
  8
AP_510_200
  6
Continuous
 62
     7
100
AcDbLine
 10
69.7701662055
 20
112.2122270329
 30
0.0
 11
70.0328292725
 21
112.2122270307
 31
0.0
  0
ARC
  5
278
330
1FE
100
AcDbEntity
  8
AP_510_200
  6
Continuous
 62
     7
100
AcDbCircle
 10
69.7701662038
 20
112.0122270328
 30
0.0
 40
0.2000000000385829
100
AcDbArc
 50
89.9999995198
 51
134.9999995213
  0
LINE
  5
279
330
1FE
100
AcDbEntity
  8
AP_510_200
  6
Continuous
 62
     7
100
AcDbLine
 10
69.1593076609
 20
111.6842112103
 30
0.0
 11
69.6287448487
 21
112.1536483903
 31
0.0
  0
ARC
  5
27A
330
1FE
100
AcDbEntity
  8
AP_510_200
  6
Continuous
 62
     7
100
AcDbCircle
 10
69.5128610486
 20
111.3306578167
 30
0.0
 40
0.5000000000246058
100
AcDbArc
 50
134.9999995213
 51
179.9999995198
  0
LINE
  5
27B
330
1FE
100
AcDbEntity
  8
AP_510_200
  6
Continuous
 62
     7
100
AcDbLine
 10
69.0128610343
 20
109.6333540505
 30
0.0
 11
69.0128610485
 21
111.3306578209
 31
0.0
  0
ARC
  5
27C
330
1FE
100
AcDbEntity
  8
AP_510_200
  6
Continuous
 62
     7
100
AcDbCircle
 10
69.5128610343
 20
109.6333540463
 30
0.0
 40
0.5000000000000093
100
AcDbArc
 50
179.9999995198
 51
224.9999995198
  0
LINE
  5
27D
330
1FE
100
AcDbEntity
  8
AP_510_200
  6
Continuous
 62
     7
100
AcDbLine
 10
69.6709124116
 20
108.7681958792
 30
0.0
 11
69.1593076407
 21
109.2798006587
 31
0.0
  0
ARC
  5
27E
330
1FE
100
AcDbEntity
  8
AP_510_200
  6
Continuous
 62
     7
100
AcDbCircle
 10
69.8123337691
 20
108.9096172343
 30
0.0
 40
0.2000000000010743
100
AcDbArc
 50
224.9999995198
 51
270.0000008032
  0
LINE
  5
27F
330
1FE
100
AcDbEntity
  8
AP_510_200
  6
Continuous
 62
     7
100
AcDbLine
 10
70.032829454
 20
108.7096172324
 30
0.0
 11
69.8123337719
 21
108.7096172343
 31
0.0
  0
ARC
  5
280
330
1FE
100
AcDbEntity
  8
AP_510_200
  6
Continuous
 62
     7
100
AcDbCircle
 10
70.0328294557
 20
108.9096172284
 30
0.0
 40
0.1999999959117452
100
AcDbArc
 50
269.9999995198
 51
340.1761368385
  0
LINE
  5
281
330
1FE
100
AcDbEntity
  8
AP_510_200
  6
Continuous
 62
     7
100
AcDbLine
 10
70.3647129866
 20
109.2405112203
 30
0.0
 11
70.2209773731
 21
108.8417912779
 31
0.0
  0
ARC
  5
282
330
1FE
100
AcDbEntity
  8
AP_510_200
  6
Continuous
 62
     7
100
AcDbCircle
 10
70.5058239291
 20
109.189641761
 30
0.0
 40
0.1499999999955287
100
AcDbArc
 50
89.9999995198
 51
160.1761386654
  0
LINE
  5
283
330
1FE
100
AcDbEntity
  8
AP_510_200
  6
Continuous
 62
     7
100
AcDbLine
 10
70.544080883
 20
109.3396417606
 30
0.0
 11
70.5058239304
 21
109.339641761
 31
0.0
  0
ARC
  5
284
330
1FE
100
AcDbEntity
  8
AP_510_200
  6
Continuous
 62
     7
100
AcDbCircle
 10
70.5440808818
 20
109.1896417991
 30
0.0
 40
0.1499999615605296
100
AcDbArc
 50
0.0000004804
 51
89.9999995198
  0
LINE
  5
285
330
1FE
100
AcDbEntity
  8
AP_510_200
  6
Continuous
 62
     7
100
AcDbLine
 10
70.6940808545
 20
107.8604272573
 30
0.0
 11
70.6940808433
 21
109.1896418003
 31
0.0
  0
ARC
  5
286
330
1FE
100
AcDbEntity
  8
AP_510_200
  6
Continuous
 62
     7
100
AcDbCircle
 10
70.1940808545
 20
107.8604272532
 30
0.0
 40
0.4999999999999951
100
AcDbArc
 50
311.2139541857
 51
0.0
  0
LINE
  5
287
330
1FE
100
AcDbEntity
  8
AP_510_200
  6
Continuous
 62
     7
100
AcDbLine
 10
70.2046970506
 20
107.2050569628
 30
0.0
 11
70.5235171988
 21
107.4843000206
 31
0.0
  0
ARC
  5
288
330
1FE
100
AcDbEntity
  8
AP_510_200
  6
Continuous
 62
     7
100
AcDbCircle
 10
70.5341333495
 20
106.8289296905
 30
0.0
 40
0.5000000000000007
100
AcDbArc
 50
131.21394727
 51
180.000005037
  0
LINE
  5
289
330
1FE
100
AcDbEntity
  8
AP_510_200
  6
Continuous
 62
     7
100
AcDbLine
 10
70.0341333725
 20
106.078631113
 30
0.0
 11
70.0341333495
 21
106.8289296466
 31
0.0
  0
ARC
  5
28A
330
1FE
100
AcDbEntity
  8
AP_510_200
  6
Continuous
 62
     7
100
AcDbCircle
 10
69.4841333725
 20
106.0786311176
 30
0.0
 40
0.5499999999999998
100
AcDbArc
 50
188.8399128877
 51
359.9999995198
  0
LINE
  5
28B
330
1FE
100
AcDbEntity
  8
AP_510_200
  6
Continuous
 62
     7
100
AcDbLine
 10
68.2667289087
 20
109.3275132241
 30
0.0
 11
68.940666509
 21
105.994110302
 31
0.0
  0
ARC
  5
28C
330
1FE
100
AcDbEntity
  8
AP_510_200
  6
Continuous
 62
     7
100
AcDbCircle
 10
68.0852182372
 20
109.2435258673
 30
0.0
 40
0.1999999999999988
100
AcDbArc
 50
24.8305964691
 51
89.9999995198
  0
LINE
  5
28D
330
1FE
100
AcDbEntity
  8
AP_510_200
  6
Continuous
 62
     7
100
AcDbLine
 10
57.6680218811
 20
109.4435259546
 30
0.0
 11
68.0852182389
 21
109.4435258673
 31
0.0
  0
ARC
  5
28E
330
1FE
100
AcDbEntity
  8
AP_511
  6
Continuous
 62
     7
100
AcDbCircle
 10
53.0766212714
 20
104.8424212687
 30
0.0
 40
0.1999999999999971
100
AcDbArc
 50
179.9999995198
 51
269.9999995199
  0
LINE
  5
28F
330
1FE
100
AcDbEntity
  8
AP_511
  6
Continuous
 62
     7
100
AcDbLine
 10
52.876621429
 20
123.6424187704
 30
0.0
 11
52.8766212714
 21
104.8424212704
 31
0.0
  0
ARC
  5
290
330
1FE
100
AcDbEntity
  8
AP_511
  6
Continuous
 62
     7
100
AcDbCircle
 10
53.876621429
 20
123.642418762
 30
0.0
 40
0.9999999999996123
100
AcDbArc
 50
89.9999995198
 51
179.9999995198
  0
LINE
  5
291
330
1FE
100
AcDbEntity
  8
AP_511
  6
Continuous
 62
     7
100
AcDbLine
 10
71.8766189374
 20
124.6424186111
 30
0.0
 11
70.4628630256
 21
124.642418623
 31
0.0
  0
LINE
  5
292
330
1FE
100
AcDbEntity
  8
AP_511
  6
Continuous
 62
     7
100
AcDbLine
 10
55.2628630256
 20
124.6424187504
 30
0.0
 11
53.8766214374
 21
124.642418762
 31
0.0
  0
ARC
  5
293
330
1FE
100
AcDbEntity
  8
AP_511
  6
Continuous
 62
     7
100
AcDbCircle
 10
71.876618929
 20
123.6424186111
 30
0.0
 40
0.9999999999996123
100
AcDbArc
 50
0.0
 51
89.9999995198
  0
LINE
  5
294
330
1FE
100
AcDbEntity
  8
AP_511
  6
Continuous
 62
     7
100
AcDbLine
 10
72.8766187714
 20
104.8370481548
 30
0.0
 11
72.876618929
 21
123.6424186027
 31
0.0
  0
ARC
  5
295
330
1FE
100
AcDbEntity
  8
AP_511
  6
Continuous
 62
     7
100
AcDbCircle
 10
72.6814232189
 20
104.8370481565
 30
0.0
 40
0.1951955524478992
100
AcDbArc
 50
276.3530224399
 51
359.9999995198
  0
LINE
  5
296
330
1FE
100
AcDbEntity
  8
AP_511
  6
Continuous
 62
     7
100
AcDbLine
 10
72.6766187698
 20
104.643051304
 30
0.0
 11
72.7030224055
 21
104.6430513038
 31
0.0
  0
ARC
  5
297
330
1FE
100
AcDbEntity
  8
AP_511
  6
Continuous
 62
     7
100
AcDbCircle
 10
72.6766187765
 20
105.443051304
 30
0.0
 40
0.8000000000000004
100
AcDbArc
 50
179.9999995198
 51
269.9999995198
  0
LINE
  5
298
330
1FE
100
AcDbEntity
  8
AP_511
  6
Continuous
 62
     7
100
AcDbLine
 10
71.8766189189
 20
122.438899958
 30
0.0
 11
71.8766187765
 21
105.4430513108
 31
0.0
  0
ARC
  5
299
330
1FE
100
AcDbEntity
  8
AP_511
  6
Continuous
 62
     7
100
AcDbCircle
 10
71.6766189189
 20
122.4388999597
 30
0.0
 40
0.1999999999999988
100
AcDbArc
 50
0.0
 51
89.9999995198
  0
LINE
  5
29A
330
1FE
100
AcDbEntity
  8
AP_511
  6
Continuous
 62
     7
100
AcDbLine
 10
70.273615784
 20
122.6388999715
 30
0.0
 11
70.9411471403
 21
122.6388999659
 31
0.0
  0
LINE
  5
29B
330
1FE
100
AcDbEntity
  8
AP_511
  6
Continuous
 62
     7
100
AcDbLine
 10
71.5396856246
 20
122.6388999609
 30
0.0
 11
71.6766189206
 21
122.6388999597
 31
0.0
  0
ARC
  5
29C
330
1FE
100
AcDbEntity
  8
AP_511
  6
Continuous
 62
     7
100
AcDbCircle
 10
70.2736157823
 20
122.4388999715
 30
0.0
 40
0.1999999999999997
100
AcDbArc
 50
89.9999995249
 51
179.9999995198
  0
LINE
  5
29D
330
1FE
100
AcDbEntity
  8
AP_511
  6
Continuous
 62
     7
100
AcDbLine
 10
70.0736157271
 20
115.842419126
 30
0.0
 11
70.0736157823
 21
122.4388999732
 31
0.0
  0
ARC
  5
29E
330
1FE
100
AcDbEntity
  8
AP_511
  6
Continuous
 62
     7
100
AcDbCircle
 10
68.7736157279
 20
115.9465858035
 30
0.0
 40
1.304166666647575
100
AcDbArc
 50
269.9999995093
 51
355.4187794353
  0
LINE
  5
29F
330
1FE
100
AcDbEntity
  8
AP_511
  6
Continuous
 62
     7
100
AcDbLine
 10
67.2236157167
 20
114.6424191501
 30
0.0
 11
68.7736157168
 21
114.6424191369
 31
0.0
  0
ARC
  5
2A0
330
1FE
100
AcDbEntity
  8
AP_511
  6
Continuous
 62
     7
100
AcDbCircle
 10
67.2236157185
 20
114.8424191501
 30
0.0
 40
0.1999999999999997
100
AcDbArc
 50
179.9999995198
 51
269.9999995101
  0
LINE
  5
2A1
330
1FE
100
AcDbEntity
  8
AP_511
  6
Continuous
 62
     7
100
AcDbLine
 10
67.0236157235
 20
115.4424191518
 30
0.0
 11
67.0236157185
 21
114.8424191518
 31
0.0
  0
ARC
  5
2A2
330
1FE
100
AcDbEntity
  8
AP_511
  6
Continuous
 62
     7
100
AcDbCircle
 10
67.2236157235
 20
115.4424191501
 30
0.0
 40
0.2000000000000005
100
AcDbArc
 50
89.9999995198
 51
179.9999995198
  0
LINE
  5
2A3
330
1FE
100
AcDbEntity
  8
AP_511
  6
Continuous
 62
     7
100
AcDbLine
 10
68.8236157252
 20
115.6424191367
 30
0.0
 11
67.2236157252
 21
115.6424191501
 31
0.0
  0
ARC
  5
2A4
330
1FE
100
AcDbEntity
  8
AP_511
  6
Continuous
 62
     7
100
AcDbCircle
 10
68.8236157268
 20
115.8424191367
 30
0.0
 40
0.1999999999999988
100
AcDbArc
 50
269.9999995198
 51
359.9999995198
  0
LINE
  5
2A5
330
1FE
100
AcDbEntity
  8
AP_511
  6
Continuous
 62
     7
100
AcDbLine
 10
69.0236157888
 20
123.242419135
 30
0.0
 11
69.0236157268
 21
115.842419135
 31
0.0
  0
ARC
  5
2A6
330
1FE
100
AcDbEntity
  8
AP_511
  6
Continuous
 62
     7
100
AcDbCircle
 10
68.6236157888
 20
123.2424191384
 30
0.0
 40
0.400000000000001
100
AcDbArc
 50
0.0
 51
67.9756866828
  0
ARC
  5
2A7
330
1FE
100
AcDbEntity
  8
AP_511
  6
Continuous
 62
     7
100
AcDbCircle
 10
57.1236157888
 20
123.2424192348
 30
0.0
 40
0.4000000000000019
100
AcDbArc
 50
112.0243123569
 51
179.9999995198
  0
LINE
  5
2A8
330
1FE
100
AcDbEntity
  8
AP_511
  6
Continuous
 62
     7
100
AcDbLine
 10
56.7236157268
 20
115.8424192381
 30
0.0
 11
56.7236157888
 21
123.2424192381
 31
0.0
  0
ARC
  5
2A9
330
1FE
100
AcDbEntity
  8
AP_511
  6
Continuous
 62
     7
100
AcDbCircle
 10
56.9236157268
 20
115.8424192364
 30
0.0
 40
0.2000000000000023
100
AcDbArc
 50
179.9999995198
 51
269.9999995198
  0
LINE
  5
2AA
330
1FE
100
AcDbEntity
  8
AP_511
  6
Continuous
 62
     7
100
AcDbLine
 10
58.5236157252
 20
115.642419223
 30
0.0
 11
56.9236157252
 21
115.6424192364
 31
0.0
  0
ARC
  5
2AB
330
1FE
100
AcDbEntity
  8
AP_511
  6
Continuous
 62
     7
100
AcDbCircle
 10
58.5236157235
 20
115.442419223
 30
0.0
 40
0.1999999999999997
100
AcDbArc
 50
0.0
 51
89.9999995198
  0
LINE
  5
2AC
330
1FE
100
AcDbEntity
  8
AP_511
  6
Continuous
 62
     7
100
AcDbLine
 10
58.7236157185
 20
114.8424192214
 30
0.0
 11
58.7236157235
 21
115.4424192214
 31
0.0
  0
ARC
  5
2AD
330
1FE
100
AcDbEntity
  8
AP_511
  6
Continuous
 62
     7
100
AcDbCircle
 10
58.5236157185
 20
114.842419223
 30
0.0
 40
0.2000000000000023
100
AcDbArc
 50
269.9999995198
 51
359.9999995198
  0
LINE
  5
2AE
330
1FE
100
AcDbEntity
  8
AP_511
  6
Continuous
 62
     7
100
AcDbLine
 10
56.9736157168
 20
114.642419236
 30
0.0
 11
58.5236157168
 21
114.642419223
 31
0.0
  0
ARC
  5
2AF
330
1FE
100
AcDbEntity
  8
AP_511
  6
Continuous
 62
     7
100
AcDbCircle
 10
56.9736157277
 20
115.9465859027
 30
0.0
 40
1.304166666666665
100
AcDbArc
 50
184.5812196051
 51
269.9999995198
  0
LINE
  5
2B0
330
1FE
100
AcDbEntity
  8
AP_511
  6
Continuous
 62
     7
100
AcDbLine
 10
55.6736157821
 20
122.4389005044
 30
0.0
 11
55.6736157268
 21
115.8424192469
 31
0.0
  0
ARC
  5
2B1
330
1FE
100
AcDbEntity
  8
AP_511
  6
Continuous
 62
     7
100
AcDbCircle
 10
55.4736157821
 20
122.438900506
 30
0.0
 40
0.1999999999999988
100
AcDbArc
 50
0.0
 51
89.9999995198
  0
LINE
  5
2B2
330
1FE
100
AcDbEntity
  8
AP_511
  6
Continuous
 62
     7
100
AcDbLine
 10
54.0766214206
 20
122.6389005177
 30
0.0
 11
54.2824560774
 21
122.638900516
 31
0.0
  0
LINE
  5
2B3
330
1FE
100
AcDbEntity
  8
AP_511
  6
Continuous
 62
     7
100
AcDbLine
 10
54.8809934288
 20
122.638900511
 30
0.0
 11
55.4736157838
 21
122.638900506
 31
0.0
  0
ARC
  5
2B4
330
1FE
100
AcDbEntity
  8
AP_511
  6
Continuous
 62
     7
100
AcDbCircle
 10
54.0766214189
 20
122.4389005177
 30
0.0
 40
0.2000000000000005
100
AcDbArc
 50
89.9999995171
 51
179.9999995198
  0
LINE
  5
2B5
330
1FE
100
AcDbEntity
  8
AP_511
  6
Continuous
 62
     7
100
AcDbLine
 10
53.8766212765
 20
105.442421262
 30
0.0
 11
53.8766214189
 21
122.4389005194
 31
0.0
  0
ARC
  5
2B6
330
1FE
100
AcDbEntity
  8
AP_511
  6
Continuous
 62
     7
100
AcDbCircle
 10
53.0766212765
 20
105.4424212687
 30
0.0
 40
0.7999999999999988
100
AcDbArc
 50
269.9999995199
 51
359.9999995198
  0
LINE
  5
2B8
330
1FE
100
AcDbEntity
  8
3MM_SCHRAUBE_X_1
  6
Continuous
 62
     7
100
AcDbLine
 10
60.9982332702
 20
134.6593172164
 30
0.0
 11
61.012876633
 21
135.5901834333
 31
0.0
  0
LINE
  5
2B9
330
1FE
100
AcDbEntity
  8
3MM_SCHRAUBE_X_1
  6
Continuous
 62
     7
100
AcDbLine
 10
61.012876633
 20
135.5901834333
 30
0.0
 11
61.9437428499
 21
135.6048267961
 31
0.0
  0
LINE
  5
2BA
330
1FE
100
AcDbEntity
  8
3MM_SCHRAUBE_X_1
  6
Continuous
 62
     7
100
AcDbLine
 10
61.9437428499
 20
135.6048267961
 30
0.0
 11
62.8628631019
 21
134.6857065441
 31
0.0
  0
LINE
  5
2BB
330
1FE
100
AcDbEntity
  8
3MM_SCHRAUBE_X_1
  6
Continuous
 62
     7
100
AcDbLine
 10
62.8628631019
 20
134.6857065441
 30
0.0
 11
63.7819833538
 21
135.6048267961
 31
0.0
  0
LINE
  5
2BC
330
1FE
100
AcDbEntity
  8
3MM_SCHRAUBE_X_1
  6
Continuous
 62
     7
100
AcDbLine
 10
63.7819833538
 20
135.6048267961
 30
0.0
 11
64.7128495707
 21
135.5901834333
 31
0.0
  0
LINE
  5
2BD
330
1FE
100
AcDbEntity
  8
3MM_SCHRAUBE_X_1
  6
Continuous
 62
     7
100
AcDbLine
 10
64.7128495707
 20
135.5901834333
 30
0.0
 11
64.7274929335
 21
134.6593172164
 31
0.0
  0
LINE
  5
2BE
330
1FE
100
AcDbEntity
  8
3MM_SCHRAUBE_X_1
  6
Continuous
 62
     7
100
AcDbLine
 10
64.7274929335
 20
134.6593172164
 30
0.0
 11
63.8083726815
 21
133.7401969644
 31
0.0
  0
LINE
  5
2BF
330
1FE
100
AcDbEntity
  8
3MM_SCHRAUBE_X_1
  6
Continuous
 62
     7
100
AcDbLine
 10
63.8083726815
 20
133.7401969644
 30
0.0
 11
64.7274929335
 21
132.8210767124
 31
0.0
  0
LINE
  5
2C0
330
1FE
100
AcDbEntity
  8
3MM_SCHRAUBE_X_1
  6
Continuous
 62
     7
100
AcDbLine
 10
64.7274929335
 20
132.8210767124
 30
0.0
 11
64.7128495707
 21
131.8902104956
 31
0.0
  0
LINE
  5
2C1
330
1FE
100
AcDbEntity
  8
3MM_SCHRAUBE_X_1
  6
Continuous
 62
     7
100
AcDbLine
 10
64.7128495707
 20
131.8902104956
 30
0.0
 11
63.7819833538
 21
131.8755671328
 31
0.0
  0
LINE
  5
2C2
330
1FE
100
AcDbEntity
  8
3MM_SCHRAUBE_X_1
  6
Continuous
 62
     7
100
AcDbLine
 10
63.7819833538
 20
131.8755671328
 30
0.0
 11
62.8628631019
 21
132.7946873848
 31
0.0
  0
LINE
  5
2C3
330
1FE
100
AcDbEntity
  8
3MM_SCHRAUBE_X_1
  6
Continuous
 62
     7
100
AcDbLine
 10
62.8628631019
 20
132.7946873848
 30
0.0
 11
61.9437428499
 21
131.8755671328
 31
0.0
  0
LINE
  5
2C4
330
1FE
100
AcDbEntity
  8
3MM_SCHRAUBE_X_1
  6
Continuous
 62
     7
100
AcDbLine
 10
61.9437428499
 20
131.8755671328
 30
0.0
 11
61.012876633
 21
131.8902104956
 31
0.0
  0
LINE
  5
2C5
330
1FE
100
AcDbEntity
  8
3MM_SCHRAUBE_X_1
  6
Continuous
 62
     7
100
AcDbLine
 10
61.012876633
 20
131.8902104956
 30
0.0
 11
60.9982332702
 21
132.8210767124
 31
0.0
  0
LINE
  5
2C6
330
1FE
100
AcDbEntity
  8
3MM_SCHRAUBE_X_1
  6
Continuous
 62
     7
100
AcDbLine
 10
60.9982332702
 20
132.8210767124
 30
0.0
 11
61.9173535222
 21
133.7401969644
 31
0.0
  0
LINE
  5
2C7
330
1FE
100
AcDbEntity
  8
3MM_SCHRAUBE_X_1
  6
Continuous
 62
     7
100
AcDbLine
 10
61.9173535222
 20
133.7401969644
 30
0.0
 11
60.9982332702
 21
134.6593172164
 31
0.0
  0
ENDBLK
  5
2C9
330
1FE
100
AcDbEntity
  8
0
100
AcDbBlockEnd
  0
BLOCK
  5
392
330
2CA
100
AcDbEntity
  8
0
100
AcDbBlockBegin
  2
SE3
 70
     0
 10
0.0
 20
0.0
 30
0.0
  3
SE3
  1
SE3
  0
LINE
  5
2CC
330
2CA
100
AcDbEntity
  8
AJ_221
  6
Continuous
 62
     7
100
AcDbLine
 10
151.8596500228
 20
115.5694931365
 30
0.0
 11
162.8596500228
 21
115.5694930443
 31
0.0
  0
LINE
  5
2CD
330
2CA
100
AcDbEntity
  8
AJ_221
  6
Continuous
 62
     7
100
AcDbLine
 10
151.8596500781
 20
122.1694931365
 30
0.0
 11
162.8596500781
 21
122.1694930443
 31
0.0
  0
LINE
  5
2CE
330
2CA
100
AcDbEntity
  8
AJ_221
  6
Continuous
 62
     7
100
AcDbLine
 10
151.8596500228
 20
115.5694931365
 30
0.0
 11
151.8246096549
 21
115.5694931368
 31
0.0
  0
ARC
  5
2CF
330
2CA
100
AcDbEntity
  8
AJ_221
  6
Continuous
 62
     7
100
AcDbCircle
 10
159.921800524
 20
117.3803719853
 30
0.0
 40
8.29721532648182
100
AcDbArc
 50
180.1391586021
 51
192.6063499485
  0
LINE
  5
2D0
330
2CA
100
AcDbEntity
  8
AJ_221
  6
Continuous
 62
     7
100
AcDbLine
 10
151.6246096699
 20
117.3602199294
 30
0.0
 11
151.6246096952
 21
120.3787663476
 31
0.0
  0
ARC
  5
2D1
330
2CA
100
AcDbEntity
  8
AJ_221
  6
Continuous
 62
     7
100
AcDbCircle
 10
159.9218005489
 20
120.3586141526
 30
0.0
 40
8.29721532648136
100
AcDbArc
 50
167.3936490911
 51
179.8608404375
  0
LINE
  5
2D2
330
2CA
100
AcDbEntity
  8
AJ_221
  6
Continuous
 62
     7
100
AcDbLine
 10
151.8246097102
 20
122.1694931368
 30
0.0
 11
151.8596500781
 21
122.1694931365
 31
0.0
  0
LINE
  5
2D3
330
2CA
100
AcDbEntity
  8
AJ_221
  6
Continuous
 62
     7
100
AcDbLine
 10
163.6246096952
 20
120.378766247
 30
0.0
 11
163.6246096699
 21
117.3602198289
 31
0.0
  0
ARC
  5
2D4
330
2CA
100
AcDbEntity
  8
AJ_221
  6
Continuous
 62
     7
100
AcDbCircle
 10
155.3274188162
 20
117.3803720238
 30
0.0
 40
8.297215326480991
100
AcDbArc
 50
347.3936490911
 51
359.8608404375
  0
LINE
  5
2D5
330
2CA
100
AcDbEntity
  8
AJ_221
  6
Continuous
 62
     7
100
AcDbLine
 10
163.4246096549
 20
115.5694930396
 30
0.0
 11
162.8596500228
 21
115.5694930443
 31
0.0
  0
LINE
  5
2D6
330
2CA
100
AcDbEntity
  8
AJ_221
  6
Continuous
 62
     7
100
AcDbLine
 10
162.8596500781
 20
122.1694930443
 30
0.0
 11
163.4246097102
 21
122.1694930396
 31
0.0
  0
ARC
  5
2D7
330
2CA
100
AcDbEntity
  8
AJ_221
  6
Continuous
 62
     7
100
AcDbCircle
 10
155.3274188412
 20
120.3586141911
 30
0.0
 40
8.297215326481881
100
AcDbArc
 50
0.1391586021
 51
12.6063499485
  0
ARC
  5
2D8
330
2CA
100
AcDbEntity
  8
AP_509_EINGEBAUT
  6
Continuous
 62
     7
100
AcDbCircle
 10
150.8301853937
 20
105.41064689
 30
0.0
 40
1.999199999996051
100
AcDbArc
 50
179.9897509501
 51
251.4861807278
  0
LINE
  5
2D9
330
2CA
100
AcDbEntity
  8
AP_509_EINGEBAUT
  6
Continuous
 62
     7
100
AcDbLine
 10
148.8339545545
 20
122.0094745358
 30
0.0
 11
148.8309854257
 21
105.4110045063
 31
0.0
  0
ARC
  5
2DA
330
2CA
100
AcDbEntity
  8
AP_509_EINGEBAUT
  6
Continuous
 62
     7
100
AcDbCircle
 10
149.3327186773
 20
121.9030116326
 30
0.0
 40
0.5099999999999997
100
AcDbArc
 50
12.0869871396
 51
167.9508445747
  0
LINE
  5
2DB
330
2CA
100
AcDbEntity
  8
AP_509_EINGEBAUT
  6
Continuous
 62
     7
100
AcDbLine
 10
149.8314119286
 20
111.5176236426
 30
0.0
 11
149.8314123953
 21
122.0098038405
 31
0.0
  0
ARC
  5
2DC
330
2CA
100
AcDbEntity
  8
AP_509_EINGEBAUT
  6
Continuous
 62
     7
100
AcDbCircle
 10
150.0312757241
 20
111.5128834258
 30
0.0
 40
0.1999199999930275
100
AcDbArc
 50
178.6413571855
 51
269.9999985599
  0
LINE
  5
2DD
330
2CA
100
AcDbEntity
  8
AP_509_EINGEBAUT
  6
Continuous
 62
     7
100
AcDbLine
 10
150.2656061849
 20
111.3129634199
 30
0.0
 11
150.031275719
 21
111.3129634258
 31
0.0
  0
ARC
  5
2DE
330
2CA
100
AcDbEntity
  8
AP_509_EINGEBAUT
  6
Continuous
 62
     7
100
AcDbCircle
 10
150.2656061899
 20
111.5129634199
 30
0.0
 40
0.2000000000000014
100
AcDbArc
 50
269.9999985599
 51
340.0222664667
  0
LINE
  5
2DF
330
2CA
100
AcDbEntity
  8
AP_509_EINGEBAUT
  6
Continuous
 62
     7
100
AcDbLine
 10
150.5179676487
 20
111.6217741598
 30
0.0
 11
150.4535712833
 21
111.4446324337
 31
0.0
  0
ARC
  5
2E0
330
2CA
100
AcDbEntity
  8
AP_509_EINGEBAUT
  6
Continuous
 62
     7
100
AcDbCircle
 10
150.6521955434
 20
111.5729782677
 30
0.0
 40
0.1428221509242806
100
AcDbArc
 50
69.4463628256
 51
160.0222664667
  0
ARC
  5
2E1
330
2CA
100
AcDbEntity
  8
AP_509_EINGEBAUT
  6
Continuous
 62
     7
100
AcDbCircle
 10
150.3562962491
 20
110.9815741006
 30
0.0
 40
0.8034709028220113
100
AcDbArc
 50
44.6357707107
 51
64.4890381479
  0
ARC
  5
2E2
330
2CA
100
AcDbEntity
  8
AP_509_EINGEBAUT
  6
Continuous
 62
     7
100
AcDbCircle
 10
149.5243252104
 20
110.1824780904
 30
0.0
 40
1.956998650314431
100
AcDbArc
 50
1.6372756877
 51
44.1698465874
  0
ARC
  5
2E3
330
2CA
100
AcDbEntity
  8
AP_509_EINGEBAUT
  6
Continuous
 62
     7
100
AcDbCircle
 10
149.5243252114
 20
110.2943087078
 30
0.0
 40
1.956998650314431
100
AcDbArc
 50
315.8301524522
 51
358.3627233478
  0
ARC
  5
2E4
330
2CA
100
AcDbEntity
  8
AP_509_EINGEBAUT
  6
Continuous
 62
     7
100
AcDbCircle
 10
150.3562962366
 20
109.4952126836
 30
0.0
 40
0.8034709028220103
100
AcDbArc
 50
295.5109608917
 51
315.3642283289
  0
ARC
  5
2E5
330
2CA
100
AcDbEntity
  8
AP_509_EINGEBAUT
  6
Continuous
 62
     7
100
AcDbCircle
 10
150.652195521
 20
108.9038085116
 30
0.0
 40
0.142822150924308
100
AcDbArc
 50
199.9777325719
 51
290.5536362141
  0
LINE
  5
2E6
330
2CA
100
AcDbEntity
  8
AP_509_EINGEBAUT
  6
Continuous
 62
     7
100
AcDbLine
 10
150.453571263
 20
109.032154349
 30
0.0
 11
150.5179676256
 21
108.8550126217
 31
0.0
  0
ARC
  5
2E7
330
2CA
100
AcDbEntity
  8
AP_509_EINGEBAUT
  6
Continuous
 62
     7
100
AcDbCircle
 10
150.2656061685
 20
108.9638233659
 30
0.0
 40
0.2000000000000005
100
AcDbArc
 50
19.977732573
 51
90.0000004797
  0
LINE
  5
2E8
330
2CA
100
AcDbEntity
  8
AP_509_EINGEBAUT
  6
Continuous
 62
     7
100
AcDbLine
 10
150.031275701
 20
109.1638233639
 30
0.0
 11
150.2656061669
 21
109.1638233659
 31
0.0
  0
ARC
  5
2E9
330
2CA
100
AcDbEntity
  8
AP_509_EINGEBAUT
  6
Continuous
 62
     7
100
AcDbCircle
 10
150.0312757027
 20
108.9639033639
 30
0.0
 40
0.1999199999930865
100
AcDbArc
 50
90.0000004797
 51
178.6413572299
  0
LINE
  5
2EA
330
2CA
100
AcDbEntity
  8
AP_509_EINGEBAUT
  6
Continuous
 62
     7
100
AcDbLine
 10
149.8314119237
 20
105.4012069202
 30
0.0
 11
149.8314119072
 21
108.9686435806
 31
0.0
  0
ARC
  5
2EB
330
2CA
100
AcDbEntity
  8
AP_509_EINGEBAUT
  6
Continuous
 62
     7
100
AcDbCircle
 10
149.6314919236
 20
105.4012069218
 30
0.0
 40
0.1999200000285267
100
AcDbArc
 50
313.7036650705
 51
359.9999995198
  0
ARC
  5
2EC
330
2CA
100
AcDbEntity
  8
AP_509_EINGEBAUT
  6
Continuous
 62
     7
100
AcDbCircle
 10
150.1149485229
 20
104.895363275
 30
0.0
 40
0.4997999999975766
100
AcDbArc
 50
133.7036650705
 51
311.8406016219
  0
ARC
  5
2ED
330
2CA
100
AcDbEntity
  8
AP_509_EINGEBAUT
  6
Continuous
 62
     7
100
AcDbCircle
 10
150.5817041456
 20
104.3740694355
 30
0.0
 40
0.1999199999987128
100
AcDbArc
 50
63.4955820333
 51
131.840601622
  0
ARC
  5
2EE
330
2CA
100
AcDbEntity
  8
AP_509_EINGEBAUT
  6
Continuous
 62
     7
100
AcDbCircle
 10
157.7120435551
 20
118.6725566709
 30
0.0
 40
15.7778294445906
100
AcDbArc
 50
243.4955820374
 51
269.8185048937
  0
ARC
  5
2EF
330
2CA
100
AcDbEntity
  8
AP_509_EINGEBAUT
  6
Continuous
 62
     7
100
AcDbCircle
 10
157.6120853737
 20
118.6725566712
 30
0.0
 40
15.7778294445906
100
AcDbArc
 50
270.1814947155
 51
296.5044170063
  0
ARC
  5
2F0
330
2CA
100
AcDbEntity
  8
AP_509_EINGEBAUT
  6
Continuous
 62
     7
100
AcDbCircle
 10
164.7424245445
 20
104.3740693169
 30
0.0
 40
0.1999199999987117
100
AcDbArc
 50
48.1593974176
 51
116.5044170063
  0
ARC
  5
2F1
330
2CA
100
AcDbEntity
  8
AP_509_EINGEBAUT
  6
Continuous
 62
     7
100
AcDbCircle
 10
165.209180176
 20
104.8953631485
 30
0.0
 40
0.4997999999975772
100
AcDbArc
 50
228.1593974177
 51
46.2963339691
  0
ARC
  5
2F2
330
2CA
100
AcDbEntity
  8
AP_509_EINGEBAUT
  6
Continuous
 62
     7
100
AcDbCircle
 10
165.6926367837
 20
105.4012067872
 30
0.0
 40
0.1999200000285268
100
AcDbArc
 50
179.9999995198
 51
226.2963339692
  0
LINE
  5
2F3
330
2CA
100
AcDbEntity
  8
AP_509_EINGEBAUT
  6
Continuous
 62
     7
100
AcDbLine
 10
165.4927168599
 20
108.9686434493
 30
0.0
 11
165.4927167837
 21
105.4012067889
 31
0.0
  0
ARC
  5
2F4
330
2CA
100
AcDbEntity
  8
AP_509_EINGEBAUT
  6
Continuous
 62
     7
100
AcDbCircle
 10
165.2928530644
 20
108.963903236
 30
0.0
 40
0.1999199999930258
100
AcDbArc
 50
1.3586418098
 51
89.9999985599
  0
LINE
  5
2F5
330
2CA
100
AcDbEntity
  8
AP_509_EINGEBAUT
  6
Continuous
 62
     7
100
AcDbLine
 10
165.0585226036
 20
109.1638232419
 30
0.0
 11
165.2928530694
 21
109.163823236
 31
0.0
  0
ARC
  5
2F6
330
2CA
100
AcDbEntity
  8
AP_509_EINGEBAUT
  6
Continuous
 62
     7
100
AcDbCircle
 10
165.0585225985
 20
108.9638232419
 30
0.0
 40
0.2000000000000001
100
AcDbArc
 50
89.9999985599
 51
160.0222664667
  0
LINE
  5
2F7
330
2CA
100
AcDbEntity
  8
AP_509_EINGEBAUT
  6
Continuous
 62
     7
100
AcDbLine
 10
164.8061611397
 20
108.855012502
 30
0.0
 11
164.8705575052
 21
109.0321542281
 31
0.0
  0
ARC
  5
2F8
330
2CA
100
AcDbEntity
  8
AP_509_EINGEBAUT
  6
Continuous
 62
     7
100
AcDbCircle
 10
164.671933245
 20
108.9038083941
 30
0.0
 40
0.1428221509242806
100
AcDbArc
 50
249.4463628255
 51
340.0222664678
  0
ARC
  5
2F9
330
2CA
100
AcDbEntity
  8
AP_509_EINGEBAUT
  6
Continuous
 62
     7
100
AcDbCircle
 10
164.9678325393
 20
109.4952125612
 30
0.0
 40
0.803470902822011
100
AcDbArc
 50
224.6357707107
 51
244.489038148
  0
ARC
  5
2FA
330
2CA
100
AcDbEntity
  8
AP_509_EINGEBAUT
  6
Continuous
 62
     7
100
AcDbCircle
 10
165.799803578
 20
110.2943085714
 30
0.0
 40
1.956998650314434
100
AcDbArc
 50
181.6372756918
 51
224.1698465875
  0
ARC
  5
2FB
330
2CA
100
AcDbEntity
  8
AP_509_EINGEBAUT
  6
Continuous
 62
     7
100
AcDbCircle
 10
165.7998035771
 20
110.182477954
 30
0.0
 40
1.956998650314432
100
AcDbArc
 50
135.8301524523
 51
178.3627233519
  0
ARC
  5
2FC
330
2CA
100
AcDbEntity
  8
AP_509_EINGEBAUT
  6
Continuous
 62
     7
100
AcDbCircle
 10
164.9678325518
 20
110.9815739782
 30
0.0
 40
0.8034709028220111
100
AcDbArc
 50
115.5109608918
 51
135.3642283289
  0
ARC
  5
2FD
330
2CA
100
AcDbEntity
  8
AP_509_EINGEBAUT
  6
Continuous
 62
     7
100
AcDbCircle
 10
164.6719332674
 20
111.5729781502
 30
0.0
 40
0.1428221509242804
100
AcDbArc
 50
19.977732573
 51
110.553636214
  0
LINE
  5
2FE
330
2CA
100
AcDbEntity
  8
AP_509_EINGEBAUT
  6
Continuous
 62
     7
100
AcDbLine
 10
164.8705575254
 20
111.4446323129
 30
0.0
 11
164.8061611629
 21
111.6217740401
 31
0.0
  0
ARC
  5
2FF
330
2CA
100
AcDbEntity
  8
AP_509_EINGEBAUT
  6
Continuous
 62
     7
100
AcDbCircle
 10
165.0585226199
 20
111.5129632959
 30
0.0
 40
0.2000000000000005
100
AcDbArc
 50
199.977732573
 51
270.0000004797
  0
LINE
  5
300
330
2CA
100
AcDbEntity
  8
AP_509_EINGEBAUT
  6
Continuous
 62
     7
100
AcDbLine
 10
165.2928530874
 20
111.3129632979
 30
0.0
 11
165.0585226216
 21
111.3129632959
 31
0.0
  0
ARC
  5
301
330
2CA
100
AcDbEntity
  8
AP_509_EINGEBAUT
  6
Continuous
 62
     7
100
AcDbCircle
 10
165.2928530857
 20
111.5128832979
 30
0.0
 40
0.1999199999931089
100
AcDbArc
 50
270.0000004797
 51
1.3586418542
  0
LINE
  5
302
330
2CA
100
AcDbEntity
  8
AP_509_EINGEBAUT
  6
Continuous
 62
     7
100
AcDbLine
 10
165.4927165905
 20
122.0098037093
 30
0.0
 11
165.4927168813
 21
111.5176235114
 31
0.0
  0
ARC
  5
303
330
2CA
100
AcDbEntity
  8
AP_509_EINGEBAUT
  6
Continuous
 62
     7
100
AcDbCircle
 10
165.9914103066
 20
121.903011493
 30
0.0
 40
0.5099999999999887
100
AcDbArc
 50
12.049154465
 51
167.9130119
  0
LINE
  5
304
330
2CA
100
AcDbEntity
  8
AP_509_EINGEBAUT
  6
Continuous
 62
     7
100
AcDbLine
 10
166.4931432819
 20
105.4110043583
 30
0.0
 11
166.4901744313
 21
122.0094743878
 31
0.0
  0
ARC
  5
305
330
2CA
100
AcDbEntity
  8
AP_509_EINGEBAUT
  6
Continuous
 62
     7
100
AcDbCircle
 10
164.4939433139
 20
105.4106467755
 30
0.0
 40
1.999199999996051
100
AcDbArc
 50
288.5138183118
 51
0.0102480895
  0
ARC
  5
306
330
2CA
100
AcDbEntity
  8
AP_509_EINGEBAUT
  6
Continuous
 62
     7
100
AcDbCircle
 10
157.6120853781
 20
125.9618791208
 30
0.0
 40
23.67206597467343
100
AcDbArc
 50
270.120968947
 51
288.5138183117
  0
ARC
  5
307
330
2CA
100
AcDbEntity
  8
AP_509_EINGEBAUT
  6
Continuous
 62
     7
100
AcDbCircle
 10
157.7120436739
 20
125.96187912
 30
0.0
 40
23.67206597467343
100
AcDbArc
 50
251.4861807279
 51
269.879030084
  0
LINE
  5
308
330
2CA
100
AcDbEntity
  8
AW_061
  6
Continuous
 62
     7
100
AcDbLine
 10
150.0138570295
 20
133.4172709298
 30
0.0
 11
150.0138569449
 21
123.319493152
 31
0.0
  0
LINE
  5
309
330
2CA
100
AcDbEntity
  8
AW_061
  6
Continuous
 62
     7
100
AcDbLine
 10
165.2138570295
 20
133.4172708024
 30
0.0
 11
165.2138569449
 21
123.3194930246
 31
0.0
  0
LINE
  5
30A
330
2CA
100
AcDbEntity
  8
AW_061
  6
Continuous
 62
     7
100
AcDbLine
 10
165.2138569449
 20
123.3194930246
 30
0.0
 11
163.5246097199
 21
123.3194930388
 31
0.0
  0
LINE
  5
30B
330
2CA
100
AcDbEntity
  8
AW_061
  6
Continuous
 62
     7
100
AcDbLine
 10
151.7246097199
 20
123.3194931377
 30
0.0
 11
150.0138569449
 21
123.319493152
 31
0.0
  0
LINE
  5
30C
330
2CA
100
AcDbEntity
  8
AW_061
  6
Continuous
 62
     7
100
AcDbLine
 10
163.5246097115
 20
122.3194930388
 30
0.0
 11
151.7246097115
 21
122.3194931377
 31
0.0
  0
LINE
  5
30D
330
2CA
100
AcDbEntity
  8
AW_061
  6
Continuous
 62
     7
100
AcDbLine
 10
151.7246097115
 20
122.3194931377
 30
0.0
 11
151.7246097199
 21
123.3194931377
 31
0.0
  0
LINE
  5
30E
330
2CA
100
AcDbEntity
  8
AW_061
  6
Continuous
 62
     7
100
AcDbLine
 10
163.5246097199
 20
123.3194930388
 30
0.0
 11
163.5246097115
 21
122.3194930388
 31
0.0
  0
CIRCLE
  5
30F
330
2CA
100
AcDbEntity
  8
AW_061
  6
Continuous
 62
     7
100
AcDbCircle
 10
157.6138570295
 20
133.4172708661
 30
0.0
 40
3.25
  0
ARC
  5
310
330
2CA
100
AcDbEntity
  8
AW_061
  6
Continuous
 62
     7
100
AcDbCircle
 10
157.6138570295
 20
133.4172708661
 30
0.0
 40
7.600000000000001
100
AcDbArc
 50
0.0
 51
179.9999995198
  0
ARC
  5
311
330
2CA
100
AcDbEntity
  8
AP_510_200
  6
Continuous
 62
     7
100
AcDbCircle
 10
152.4190158071
 20
108.9205998562
 30
0.0
 40
0.1999999999999995
100
AcDbArc
 50
89.9999995198
 51
155.1694025705
  0
LINE
  5
312
330
2CA
100
AcDbEntity
  8
AP_510_200
  6
Continuous
 62
     7
100
AcDbLine
 10
151.5635674808
 20
105.6711843053
 30
0.0
 11
152.2375051369
 21
109.0045872161
 31
0.0
  0
ARC
  5
313
330
2CA
100
AcDbEntity
  8
AP_510_200
  6
Continuous
 62
     7
100
AcDbCircle
 10
151.0201006187
 20
105.75570513
 30
0.0
 40
0.550000000000001
100
AcDbArc
 50
179.9999995198
 51
351.160086152
  0
LINE
  5
314
330
2CA
100
AcDbEntity
  8
AP_510_200
  6
Continuous
 62
     7
100
AcDbLine
 10
150.4701006543
 20
106.5060036682
 30
0.0
 11
150.4701006187
 21
105.7557051346
 31
0.0
  0
ARC
  5
315
330
2CA
100
AcDbEntity
  8
AP_510_200
  6
Continuous
 62
     7
100
AcDbCircle
 10
149.9701006543
 20
106.5060034101
 30
0.0
 40
0.5000000000000007
100
AcDbArc
 50
0.0000295714
 51
48.786105754
  0
LINE
  5
316
330
2CA
100
AcDbEntity
  8
AP_510_200
  6
Continuous
 62
     7
100
AcDbLine
 10
149.9807164616
 20
107.1613740504
 30
0.0
 11
150.2995366051
 21
106.8821309873
 31
0.0
  0
ARC
  5
317
330
2CA
100
AcDbEntity
  8
AP_510_200
  6
Continuous
 62
     7
100
AcDbCircle
 10
150.3101528122
 20
107.5375012774
 30
0.0
 40
0.5000000000000014
100
AcDbArc
 50
196.7677971503
 51
228.7860448539
  0
ARC
  5
318
330
2CA
100
AcDbEntity
  8
AP_510_200
  6
Continuous
 62
     7
100
AcDbCircle
 10
149.9601528072
 20
108.8667158292
 30
0.0
 40
0.1499999615606831
100
AcDbArc
 50
89.9999995198
 51
149.1232121567
  0
LINE
  5
319
330
2CA
100
AcDbEntity
  8
AP_510_200
  6
Continuous
 62
     7
100
AcDbLine
 10
149.9984097611
 20
109.0167157905
 30
0.0
 11
149.9601528084
 21
109.0167157908
 31
0.0
  0
ARC
  5
31A
330
2CA
100
AcDbEntity
  8
AP_510_200
  6
Continuous
 62
     7
100
AcDbCircle
 10
149.9984097598
 20
108.8667157905
 30
0.0
 40
0.149999999995527
100
AcDbArc
 50
19.8238603743
 51
89.9999995198
  0
LINE
  5
31B
330
2CA
100
AcDbEntity
  8
AP_510_200
  6
Continuous
 62
     7
100
AcDbLine
 10
150.28325631
 20
108.5188653027
 30
0.0
 11
150.1395207032
 21
108.9175852475
 31
0.0
  0
ARC
  5
31C
330
2CA
100
AcDbEntity
  8
AP_510_200
  6
Continuous
 62
     7
100
AcDbCircle
 10
150.4714042286
 20
108.5866912499
 30
0.0
 40
0.1999999959120258
100
AcDbArc
 50
199.8238622011
 51
269.9999995198
  0
LINE
  5
31D
330
2CA
100
AcDbEntity
  8
AP_510_200
  6
Continuous
 62
     7
100
AcDbLine
 10
150.691899909
 20
108.3866912522
 30
0.0
 11
150.4714042269
 21
108.386691254
 31
0.0
  0
ARC
  5
31E
330
2CA
100
AcDbEntity
  8
AP_510_200
  6
Continuous
 62
     7
100
AcDbCircle
 10
150.6918999152
 20
108.5866912522
 30
0.0
 40
0.2000000000010712
100
AcDbArc
 50
269.9999982365
 51
314.9999995198
  0
LINE
  5
31F
330
2CA
100
AcDbEntity
  8
AP_510_200
  6
Continuous
 62
     7
100
AcDbLine
 10
151.3449260497
 20
108.9568746657
 30
0.0
 11
150.8333212702
 21
108.4452698948
 31
0.0
  0
ARC
  5
320
330
2CA
100
AcDbEntity
  8
AP_510_200
  6
Continuous
 62
     7
100
AcDbCircle
 10
150.9913726621
 20
109.3104280592
 30
0.0
 40
0.4999999999999987
100
AcDbArc
 50
314.9999995198
 51
359.9999995198
  0
LINE
  5
321
330
2CA
100
AcDbEntity
  8
AP_510_200
  6
Continuous
 62
     7
100
AcDbLine
 10
151.4913726763
 20
111.0077318254
 30
0.0
 11
151.4913726621
 21
109.310428055
 31
0.0
  0
ARC
  5
322
330
2CA
100
AcDbEntity
  8
AP_510_200
  6
Continuous
 62
     7
100
AcDbCircle
 10
150.9913726763
 20
111.0077318296
 30
0.0
 40
0.5000000000235068
100
AcDbArc
 50
0.0
 51
44.9999995185
  0
LINE
  5
323
330
2CA
100
AcDbEntity
  8
AP_510_200
  6
Continuous
 62
     7
100
AcDbLine
 10
150.8754888899
 20
111.8307224051
 30
0.0
 11
151.3449260699
 21
111.3612852172
 31
0.0
  0
ARC
  5
324
330
2CA
100
AcDbEntity
  8
AP_510_200
  6
Continuous
 62
     7
100
AcDbCircle
 10
150.7340675324
 20
111.68930105
 30
0.0
 40
0.200000000038586
100
AcDbArc
 50
44.9999995185
 51
89.9999995198
  0
LINE
  5
325
330
2CA
100
AcDbEntity
  8
AP_510_200
  6
Continuous
 62
     7
100
AcDbLine
 10
150.4714044672
 20
111.8893010523
 30
0.0
 11
150.7340675341
 21
111.8893010501
 31
0.0
  0
ARC
  5
326
330
2CA
100
AcDbEntity
  8
AP_510_200
  6
Continuous
 62
     7
100
AcDbCircle
 10
150.4714044655
 20
111.6893010523
 30
0.0
 40
0.2000000000014239
100
AcDbArc
 50
89.9999995198
 51
160.1761157296
  0
LINE
  5
327
330
2CA
100
AcDbEntity
  8
AP_510_200
  6
Continuous
 62
     7
100
AcDbLine
 10
150.1395208104
 20
111.3584072283
 30
0.0
 11
150.2832565692
 21
111.7571270734
 31
0.0
  0
ARC
  5
328
330
2CA
100
AcDbEntity
  8
AP_510_200
  6
Continuous
 62
     7
100
AcDbCircle
 10
149.9984098179
 20
111.4092767695
 30
0.0
 40
0.1500000748122787
100
AcDbArc
 50
320.0522581345
 51
340.1761157295
  0
ARC
  5
329
330
2CA
100
AcDbEntity
  8
AP_510_200
  6
Continuous
 62
     7
100
AcDbCircle
 10
149.9389650006
 20
114.4171921678
 30
0.0
 40
0.2811073305777832
100
AcDbArc
 50
89.9999985593
 51
112.4951053779
  0
LINE
  5
32A
330
2CA
100
AcDbEntity
  8
AP_510_200
  6
Continuous
 62
     7
100
AcDbLine
 10
150.0496377483
 20
114.6982994956
 30
0.0
 11
149.9389650077
 21
114.6982994983
 31
0.0
  0
ARC
  5
32B
330
2CA
100
AcDbEntity
  8
AP_510_200
  6
Continuous
 62
     7
100
AcDbCircle
 10
150.0496377357
 20
114.1982994956
 30
0.0
 40
0.4999999999999977
100
AcDbArc
 50
33.8334835048
 51
89.9999985593
  0
LINE
  5
32C
330
2CA
100
AcDbEntity
  8
AP_510_200
  6
Continuous
 62
     7
100
AcDbLine
 10
150.7493245974
 20
114.0524588
 30
0.0
 11
150.4649673506
 21
114.4766900684
 31
0.0
  0
ARC
  5
32D
330
2CA
100
AcDbEntity
  8
AP_510_200
  6
Continuous
 62
     7
100
AcDbCircle
 10
150.9985223663
 20
114.2194931437
 30
0.0
 40
0.3000000000000017
100
AcDbArc
 50
213.8334835048
 51
269.9999995198
  0
LINE
  5
32E
330
2CA
100
AcDbEntity
  8
AP_510_200
  6
Continuous
 62
     7
100
AcDbLine
 10
151.7412139239
 20
113.9194931375
 30
0.0
 11
150.9985223638
 21
113.9194931437
 31
0.0
  0
ARC
  5
32F
330
2CA
100
AcDbEntity
  8
AP_510_200
  6
Continuous
 62
     7
100
AcDbCircle
 10
151.7412139214
 20
113.6194931375
 30
0.0
 40
0.2999999999999999
100
AcDbArc
 50
0.0
 51
89.9999995198
  0
LINE
  5
330
330
2CA
100
AcDbEntity
  8
AP_510_200
  6
Continuous
 62
     7
100
AcDbLine
 10
152.2916014155
 20
110.3205999519
 30
0.0
 11
152.0412139214
 21
113.619493135
 31
0.0
  0
ARC
  5
331
330
2CA
100
AcDbEntity
  8
AP_510_200
  6
Continuous
 62
     7
100
AcDbCircle
 10
152.4916014155
 20
110.3205999502
 30
0.0
 40
0.2000000000003168
100
AcDbArc
 50
179.9999995198
 51
270.0001010447
  0
LINE
  5
332
330
2CA
100
AcDbEntity
  8
AP_510_200
  6
Continuous
 62
     7
100
AcDbLine
 10
162.7636262238
 20
110.1205998641
 30
0.0
 11
152.4916017682
 21
110.1205999502
 31
0.0
  0
ARC
  5
333
330
2CA
100
AcDbEntity
  8
AP_510_200
  6
Continuous
 62
     7
100
AcDbCircle
 10
162.7636262255
 20
110.3205998641
 30
0.0
 40
0.1999999999999997
100
AcDbArc
 50
269.9999995198
 51
359.9999995198
  0
LINE
  5
334
330
2CA
100
AcDbEntity
  8
AP_510_200
  6
Continuous
 62
     7
100
AcDbLine
 10
163.2140137749
 20
113.6194930414
 30
0.0
 11
162.9636262255
 21
110.3205998624
 31
0.0
  0
ARC
  5
335
330
2CA
100
AcDbEntity
  8
AP_510_200
  6
Continuous
 62
     7
100
AcDbCircle
 10
163.5140137749
 20
113.6194930389
 30
0.0
 40
0.3000000000000017
100
AcDbArc
 50
89.9999995198
 51
179.9999995198
  0
LINE
  5
336
330
2CA
100
AcDbEntity
  8
AP_510_200
  6
Continuous
 62
     7
100
AcDbLine
 10
164.2567053375
 20
113.9194930326
 30
0.0
 11
163.5140137774
 21
113.9194930389
 31
0.0
  0
ARC
  5
337
330
2CA
100
AcDbEntity
  8
AP_510_200
  6
Continuous
 62
     7
100
AcDbCircle
 10
164.25670534
 20
114.2194930326
 30
0.0
 40
0.2999999999999977
100
AcDbArc
 50
269.9999995198
 51
326.1665155349
  0
LINE
  5
338
330
2CA
100
AcDbEntity
  8
AP_510_200
  6
Continuous
 62
     7
100
AcDbLine
 10
164.7902603601
 20
114.4766899483
 30
0.0
 11
164.5059031061
 21
114.0524586848
 31
0.0
  0
ARC
  5
339
330
2CA
100
AcDbEntity
  8
AP_510_200
  6
Continuous
 62
     7
100
AcDbCircle
 10
165.2055899702
 20
114.1982993685
 30
0.0
 40
0.5000000000000004
100
AcDbArc
 50
90.0000004804
 51
146.1665155349
  0
LINE
  5
33A
330
2CA
100
AcDbEntity
  8
AP_510_200
  6
Continuous
 62
     7
100
AcDbLine
 10
165.3162627067
 20
114.6982993695
 30
0.0
 11
165.2055899661
 21
114.6982993685
 31
0.0
  0
ARC
  5
33B
330
2CA
100
AcDbEntity
  8
AP_510_200
  6
Continuous
 62
     7
100
AcDbCircle
 10
165.3162627091
 20
114.4171920389
 30
0.0
 40
0.2811073305777823
100
AcDbArc
 50
297.2730169901
 51
308.8814282599
  0
ARC
  5
33C
330
2CA
100
AcDbEntity
  8
AP_510_200
  6
Continuous
 62
     7
100
AcDbCircle
 10
165.3162627091
 20
114.4171920389
 30
0.0
 40
0.2811073305777823
100
AcDbArc
 50
51.1185749165
 51
90.0000004804
  0
LINE
  5
33D
330
2CA
100
AcDbEntity
  8
AP_510_200
  6
Continuous
 62
     7
100
AcDbLine
 10
165.4450748299
 20
111.4092765652
 30
0.0
 11
165.4450748068
 21
114.1673345299
 31
0.0
  0
ARC
  5
33E
330
2CA
100
AcDbEntity
  8
AP_510_200
  6
Continuous
 62
     7
100
AcDbCircle
 10
165.2950748299
 20
111.4092765665
 30
0.0
 40
0.1500000000002472
100
AcDbArc
 50
348.7288622957
 51
359.9999995198
  0
ARC
  5
33F
330
2CA
100
AcDbEntity
  8
AP_510_200
  6
Continuous
 62
     7
100
AcDbCircle
 10
165.2568178413
 20
111.4092766416
 30
0.0
 40
0.150000074812283
100
AcDbArc
 50
199.8238833096
 51
219.947741479
  0
LINE
  5
340
330
2CA
100
AcDbEntity
  8
AP_510_200
  6
Continuous
 62
     7
100
AcDbLine
 10
164.9719710958
 20
111.7571269503
 30
0.0
 11
165.1157068479
 21
111.3584071028
 31
0.0
  0
ARC
  5
341
330
2CA
100
AcDbEntity
  8
AP_510_200
  6
Continuous
 62
     7
100
AcDbCircle
 10
164.7838231984
 20
111.6893009323
 30
0.0
 40
0.2000000000007135
100
AcDbArc
 50
19.8238833095
 51
89.9999995198
  0
LINE
  5
342
330
2CA
100
AcDbEntity
  8
AP_510_200
  6
Continuous
 62
     7
100
AcDbLine
 10
164.5211601332
 20
111.8893009345
 30
0.0
 11
164.7838232001
 21
111.8893009323
 31
0.0
  0
ARC
  5
343
330
2CA
100
AcDbEntity
  8
AP_510_200
  6
Continuous
 62
     7
100
AcDbCircle
 10
164.5211601315
 20
111.6893009345
 30
0.0
 40
0.2000000000385829
100
AcDbArc
 50
89.9999995198
 51
134.9999995213
  0
LINE
  5
344
330
2CA
100
AcDbEntity
  8
AP_510_200
  6
Continuous
 62
     7
100
AcDbLine
 10
163.9103015886
 20
111.3612851119
 30
0.0
 11
164.3797387764
 21
111.8307222919
 31
0.0
  0
ARC
  5
345
330
2CA
100
AcDbEntity
  8
AP_510_200
  6
Continuous
 62
     7
100
AcDbCircle
 10
164.2638549762
 20
111.0077317184
 30
0.0
 40
0.5000000000246058
100
AcDbArc
 50
134.9999995213
 51
179.9999995198
  0
LINE
  5
346
330
2CA
100
AcDbEntity
  8
AP_510_200
  6
Continuous
 62
     7
100
AcDbLine
 10
163.763854962
 20
109.3104279522
 30
0.0
 11
163.7638549762
 21
111.0077317225
 31
0.0
  0
ARC
  5
347
330
2CA
100
AcDbEntity
  8
AP_510_200
  6
Continuous
 62
     7
100
AcDbCircle
 10
164.263854962
 20
109.310427948
 30
0.0
 40
0.5000000000000093
100
AcDbArc
 50
179.9999995198
 51
224.9999995198
  0
LINE
  5
348
330
2CA
100
AcDbEntity
  8
AP_510_200
  6
Continuous
 62
     7
100
AcDbLine
 10
164.4219063393
 20
108.4452697809
 30
0.0
 11
163.9103015684
 21
108.9568745604
 31
0.0
  0
ARC
  5
349
330
2CA
100
AcDbEntity
  8
AP_510_200
  6
Continuous
 62
     7
100
AcDbCircle
 10
164.5633276967
 20
108.5866911359
 30
0.0
 40
0.2000000000010743
100
AcDbArc
 50
224.9999995198
 51
270.0000008032
  0
LINE
  5
34A
330
2CA
100
AcDbEntity
  8
AP_510_200
  6
Continuous
 62
     7
100
AcDbLine
 10
164.7838233817
 20
108.3866911341
 30
0.0
 11
164.5633276995
 21
108.3866911359
 31
0.0
  0
ARC
  5
34B
330
2CA
100
AcDbEntity
  8
AP_510_200
  6
Continuous
 62
     7
100
AcDbCircle
 10
164.7838233834
 20
108.58669113
 30
0.0
 40
0.1999999959117452
100
AcDbArc
 50
269.9999995198
 51
340.1761368385
  0
LINE
  5
34C
330
2CA
100
AcDbEntity
  8
AP_510_200
  6
Continuous
 62
     7
100
AcDbLine
 10
165.1157069142
 20
108.9175851219
 30
0.0
 11
164.9719713007
 21
108.5188651796
 31
0.0
  0
ARC
  5
34D
330
2CA
100
AcDbEntity
  8
AP_510_200
  6
Continuous
 62
     7
100
AcDbCircle
 10
165.2568178568
 20
108.8667156626
 30
0.0
 40
0.1499999999955287
100
AcDbArc
 50
89.9999995198
 51
160.1761386654
  0
LINE
  5
34E
330
2CA
100
AcDbEntity
  8
AP_510_200
  6
Continuous
 62
     7
100
AcDbLine
 10
165.2950748107
 20
109.0167156623
 30
0.0
 11
165.256817858
 21
109.0167156626
 31
0.0
  0
ARC
  5
34F
330
2CA
100
AcDbEntity
  8
AP_510_200
  6
Continuous
 62
     7
100
AcDbCircle
 10
165.2950748094
 20
108.8667157007
 30
0.0
 40
0.1499999615605296
100
AcDbArc
 50
0.0000004804
 51
89.9999995198
  0
LINE
  5
350
330
2CA
100
AcDbEntity
  8
AP_510_200
  6
Continuous
 62
     7
100
AcDbLine
 10
165.4450747821
 20
107.537501159
 30
0.0
 11
165.445074771
 21
108.866715702
 31
0.0
  0
ARC
  5
351
330
2CA
100
AcDbEntity
  8
AP_510_200
  6
Continuous
 62
     7
100
AcDbCircle
 10
164.9450747821
 20
107.5375011548
 30
0.0
 40
0.4999999999999951
100
AcDbArc
 50
311.2139541857
 51
0.0
  0
LINE
  5
352
330
2CA
100
AcDbEntity
  8
AP_510_200
  6
Continuous
 62
     7
100
AcDbLine
 10
164.9556909782
 20
106.8821308645
 30
0.0
 11
165.2745111264
 21
107.1613739223
 31
0.0
  0
ARC
  5
353
330
2CA
100
AcDbEntity
  8
AP_510_200
  6
Continuous
 62
     7
100
AcDbCircle
 10
165.2851272771
 20
106.5060035922
 30
0.0
 40
0.5000000000000007
100
AcDbArc
 50
131.21394727
 51
180.000005037
  0
LINE
  5
354
330
2CA
100
AcDbEntity
  8
AP_510_200
  6
Continuous
 62
     7
100
AcDbLine
 10
164.7851273002
 20
105.7557050146
 30
0.0
 11
164.7851272771
 21
106.5060035482
 31
0.0
  0
ARC
  5
355
330
2CA
100
AcDbEntity
  8
AP_510_200
  6
Continuous
 62
     7
100
AcDbCircle
 10
164.2351273002
 20
105.7557050193
 30
0.0
 40
0.5499999999999998
100
AcDbArc
 50
188.8399128877
 51
359.9999995198
  0
LINE
  5
356
330
2CA
100
AcDbEntity
  8
AP_510_200
  6
Continuous
 62
     7
100
AcDbLine
 10
163.0177228364
 20
109.0045871257
 30
0.0
 11
163.6916604367
 21
105.6711842037
 31
0.0
  0
ARC
  5
357
330
2CA
100
AcDbEntity
  8
AP_510_200
  6
Continuous
 62
     7
100
AcDbCircle
 10
162.8362121648
 20
108.9205997689
 30
0.0
 40
0.1999999999999988
100
AcDbArc
 50
24.8305964691
 51
89.9999995198
  0
LINE
  5
358
330
2CA
100
AcDbEntity
  8
AP_510_200
  6
Continuous
 62
     7
100
AcDbLine
 10
152.4190158087
 20
109.1205998562
 30
0.0
 11
162.8362121665
 21
109.1205997689
 31
0.0
  0
ARC
  5
359
330
2CA
100
AcDbEntity
  8
AP_511
  6
Continuous
 62
     7
100
AcDbCircle
 10
147.8276151991
 20
104.5194951703
 30
0.0
 40
0.1999999999999971
100
AcDbArc
 50
179.9999995198
 51
269.9999995199
  0
LINE
  5
35A
330
2CA
100
AcDbEntity
  8
AP_511
  6
Continuous
 62
     7
100
AcDbLine
 10
147.6276153566
 20
123.319492672
 30
0.0
 11
147.6276151991
 21
104.519495172
 31
0.0
  0
ARC
  5
35B
330
2CA
100
AcDbEntity
  8
AP_511
  6
Continuous
 62
     7
100
AcDbCircle
 10
148.6276153566
 20
123.3194926636
 30
0.0
 40
0.9999999999996123
100
AcDbArc
 50
89.9999995198
 51
179.9999995198
  0
LINE
  5
35C
330
2CA
100
AcDbEntity
  8
AP_511
  6
Continuous
 62
     7
100
AcDbLine
 10
166.627612865
 20
124.3194925128
 30
0.0
 11
165.2138569533
 21
124.3194925246
 31
0.0
  0
LINE
  5
35D
330
2CA
100
AcDbEntity
  8
AP_511
  6
Continuous
 62
     7
100
AcDbLine
 10
150.0138569533
 20
124.319492652
 30
0.0
 11
148.627615365
 21
124.3194926636
 31
0.0
  0
ARC
  5
35E
330
2CA
100
AcDbEntity
  8
AP_511
  6
Continuous
 62
     7
100
AcDbCircle
 10
166.6276128566
 20
123.3194925128
 30
0.0
 40
0.9999999999996123
100
AcDbArc
 50
0.0
 51
89.9999995198
  0
LINE
  5
35F
330
2CA
100
AcDbEntity
  8
AP_511
  6
Continuous
 62
     7
100
AcDbLine
 10
167.627612699
 20
104.5141220565
 30
0.0
 11
167.6276128566
 21
123.3194925044
 31
0.0
  0
ARC
  5
360
330
2CA
100
AcDbEntity
  8
AP_511
  6
Continuous
 62
     7
100
AcDbCircle
 10
167.4324171466
 20
104.5141220581
 30
0.0
 40
0.1951955524478992
100
AcDbArc
 50
276.3530224399
 51
359.9999995198
  0
LINE
  5
361
330
2CA
100
AcDbEntity
  8
AP_511
  6
Continuous
 62
     7
100
AcDbLine
 10
167.4276126974
 20
104.3201252057
 30
0.0
 11
167.4540163331
 21
104.3201252055
 31
0.0
  0
ARC
  5
362
330
2CA
100
AcDbEntity
  8
AP_511
  6
Continuous
 62
     7
100
AcDbCircle
 10
167.4276127041
 20
105.1201252057
 30
0.0
 40
0.8000000000000004
100
AcDbArc
 50
179.9999995198
 51
269.9999995198
  0
LINE
  5
363
330
2CA
100
AcDbEntity
  8
AP_511
  6
Continuous
 62
     7
100
AcDbLine
 10
166.6276128465
 20
122.1159738597
 30
0.0
 11
166.6276127041
 21
105.1201252124
 31
0.0
  0
ARC
  5
364
330
2CA
100
AcDbEntity
  8
AP_511
  6
Continuous
 62
     7
100
AcDbCircle
 10
166.4276128465
 20
122.1159738614
 30
0.0
 40
0.1999999999999988
100
AcDbArc
 50
0.0
 51
89.9999995198
  0
LINE
  5
365
330
2CA
100
AcDbEntity
  8
AP_511
  6
Continuous
 62
     7
100
AcDbLine
 10
165.0246097116
 20
122.3159738731
 30
0.0
 11
165.6921410679
 21
122.3159738675
 31
0.0
  0
LINE
  5
366
330
2CA
100
AcDbEntity
  8
AP_511
  6
Continuous
 62
     7
100
AcDbLine
 10
166.2906795523
 20
122.3159738625
 30
0.0
 11
166.4276128482
 21
122.3159738614
 31
0.0
  0
ARC
  5
367
330
2CA
100
AcDbEntity
  8
AP_511
  6
Continuous
 62
     7
100
AcDbCircle
 10
165.02460971
 20
122.1159738731
 30
0.0
 40
0.1999999999999997
100
AcDbArc
 50
89.9999995249
 51
179.9999995198
  0
LINE
  5
368
330
2CA
100
AcDbEntity
  8
AP_511
  6
Continuous
 62
     7
100
AcDbLine
 10
164.8246096547
 20
115.5194930276
 30
0.0
 11
164.82460971
 21
122.1159738748
 31
0.0
  0
ARC
  5
369
330
2CA
100
AcDbEntity
  8
AP_511
  6
Continuous
 62
     7
100
AcDbCircle
 10
163.5246096556
 20
115.6236597051
 30
0.0
 40
1.304166666647575
100
AcDbArc
 50
269.9999995093
 51
355.4187794353
  0
LINE
  5
36A
330
2CA
100
AcDbEntity
  8
AP_511
  6
Continuous
 62
     7
100
AcDbLine
 10
161.9746096444
 20
114.3194930518
 30
0.0
 11
163.5246096444
 21
114.3194930385
 31
0.0
  0
ARC
  5
36B
330
2CA
100
AcDbEntity
  8
AP_511
  6
Continuous
 62
     7
100
AcDbCircle
 10
161.9746096461
 20
114.5194930518
 30
0.0
 40
0.1999999999999997
100
AcDbArc
 50
179.9999995198
 51
269.9999995101
  0
LINE
  5
36C
330
2CA
100
AcDbEntity
  8
AP_511
  6
Continuous
 62
     7
100
AcDbLine
 10
161.7746096511
 20
115.1194930534
 30
0.0
 11
161.7746096461
 21
114.5194930534
 31
0.0
  0
ARC
  5
36D
330
2CA
100
AcDbEntity
  8
AP_511
  6
Continuous
 62
     7
100
AcDbCircle
 10
161.9746096511
 20
115.1194930518
 30
0.0
 40
0.2000000000000005
100
AcDbArc
 50
89.9999995198
 51
179.9999995198
  0
LINE
  5
36E
330
2CA
100
AcDbEntity
  8
AP_511
  6
Continuous
 62
     7
100
AcDbLine
 10
163.5746096528
 20
115.3194930383
 30
0.0
 11
161.9746096528
 21
115.3194930518
 31
0.0
  0
ARC
  5
36F
330
2CA
100
AcDbEntity
  8
AP_511
  6
Continuous
 62
     7
100
AcDbCircle
 10
163.5746096545
 20
115.5194930383
 30
0.0
 40
0.1999999999999988
100
AcDbArc
 50
269.9999995198
 51
359.9999995198
  0
LINE
  5
370
330
2CA
100
AcDbEntity
  8
AP_511
  6
Continuous
 62
     7
100
AcDbLine
 10
163.7746097165
 20
122.9194930367
 30
0.0
 11
163.7746096545
 21
115.5194930367
 31
0.0
  0
ARC
  5
371
330
2CA
100
AcDbEntity
  8
AP_511
  6
Continuous
 62
     7
100
AcDbCircle
 10
163.3746097165
 20
122.91949304
 30
0.0
 40
0.400000000000001
100
AcDbArc
 50
0.0
 51
67.9756866828
  0
ARC
  5
372
330
2CA
100
AcDbEntity
  8
AP_511
  6
Continuous
 62
     7
100
AcDbCircle
 10
151.8746097165
 20
122.9194931364
 30
0.0
 40
0.4000000000000019
100
AcDbArc
 50
112.0243123569
 51
179.9999995198
  0
LINE
  5
373
330
2CA
100
AcDbEntity
  8
AP_511
  6
Continuous
 62
     7
100
AcDbLine
 10
151.4746096545
 20
115.5194931397
 30
0.0
 11
151.4746097165
 21
122.9194931397
 31
0.0
  0
ARC
  5
374
330
2CA
100
AcDbEntity
  8
AP_511
  6
Continuous
 62
     7
100
AcDbCircle
 10
151.6746096545
 20
115.5194931381
 30
0.0
 40
0.2000000000000023
100
AcDbArc
 50
179.9999995198
 51
269.9999995198
  0
LINE
  5
375
330
2CA
100
AcDbEntity
  8
AP_511
  6
Continuous
 62
     7
100
AcDbLine
 10
153.2746096528
 20
115.3194931247
 30
0.0
 11
151.6746096528
 21
115.3194931381
 31
0.0
  0
ARC
  5
376
330
2CA
100
AcDbEntity
  8
AP_511
  6
Continuous
 62
     7
100
AcDbCircle
 10
153.2746096511
 20
115.1194931247
 30
0.0
 40
0.1999999999999997
100
AcDbArc
 50
0.0
 51
89.9999995198
  0
LINE
  5
377
330
2CA
100
AcDbEntity
  8
AP_511
  6
Continuous
 62
     7
100
AcDbLine
 10
153.4746096461
 20
114.519493123
 30
0.0
 11
153.4746096511
 21
115.119493123
 31
0.0
  0
ARC
  5
378
330
2CA
100
AcDbEntity
  8
AP_511
  6
Continuous
 62
     7
100
AcDbCircle
 10
153.2746096461
 20
114.5194931247
 30
0.0
 40
0.2000000000000023
100
AcDbArc
 50
269.9999995198
 51
359.9999995198
  0
LINE
  5
379
330
2CA
100
AcDbEntity
  8
AP_511
  6
Continuous
 62
     7
100
AcDbLine
 10
151.7246096444
 20
114.3194931377
 30
0.0
 11
153.2746096444
 21
114.3194931247
 31
0.0
  0
ARC
  5
37A
330
2CA
100
AcDbEntity
  8
AP_511
  6
Continuous
 62
     7
100
AcDbCircle
 10
151.7246096554
 20
115.6236598043
 30
0.0
 40
1.304166666666665
100
AcDbArc
 50
184.5812196051
 51
269.9999995198
  0
LINE
  5
37B
330
2CA
100
AcDbEntity
  8
AP_511
  6
Continuous
 62
     7
100
AcDbLine
 10
150.4246097098
 20
122.115974406
 30
0.0
 11
150.4246096545
 21
115.5194931485
 31
0.0
  0
ARC
  5
37C
330
2CA
100
AcDbEntity
  8
AP_511
  6
Continuous
 62
     7
100
AcDbCircle
 10
150.2246097098
 20
122.1159744077
 30
0.0
 40
0.1999999999999988
100
AcDbArc
 50
0.0
 51
89.9999995198
  0
LINE
  5
37D
330
2CA
100
AcDbEntity
  8
AP_511
  6
Continuous
 62
     7
100
AcDbLine
 10
148.8276153482
 20
122.3159744194
 30
0.0
 11
149.0334500051
 21
122.3159744177
 31
0.0
  0
LINE
  5
37E
330
2CA
100
AcDbEntity
  8
AP_511
  6
Continuous
 62
     7
100
AcDbLine
 10
149.6319873565
 20
122.3159744126
 30
0.0
 11
150.2246097114
 21
122.3159744077
 31
0.0
  0
ARC
  5
37F
330
2CA
100
AcDbEntity
  8
AP_511
  6
Continuous
 62
     7
100
AcDbCircle
 10
148.8276153465
 20
122.1159744194
 30
0.0
 40
0.2000000000000005
100
AcDbArc
 50
89.9999995171
 51
179.9999995198
  0
LINE
  5
380
330
2CA
100
AcDbEntity
  8
AP_511
  6
Continuous
 62
     7
100
AcDbLine
 10
148.6276152041
 20
105.1194951636
 30
0.0
 11
148.6276153465
 21
122.1159744211
 31
0.0
  0
ARC
  5
381
330
2CA
100
AcDbEntity
  8
AP_511
  6
Continuous
 62
     7
100
AcDbCircle
 10
147.8276152041
 20
105.1194951703
 30
0.0
 40
0.7999999999999988
100
AcDbArc
 50
269.9999995199
 51
359.9999995198
  0
LINE
  5
382
330
2CA
100
AcDbEntity
  8
3MM_SCHRAUBE_X_1
  6
Continuous
 62
     7
100
AcDbLine
 10
155.7492271978
 20
134.3363911181
 30
0.0
 11
155.7638705607
 21
135.2672573349
 31
0.0
  0
LINE
  5
383
330
2CA
100
AcDbEntity
  8
3MM_SCHRAUBE_X_1
  6
Continuous
 62
     7
100
AcDbLine
 10
155.7638705607
 20
135.2672573349
 30
0.0
 11
156.6947367775
 21
135.2819006978
 31
0.0
  0
LINE
  5
384
330
2CA
100
AcDbEntity
  8
3MM_SCHRAUBE_X_1
  6
Continuous
 62
     7
100
AcDbLine
 10
156.6947367775
 20
135.2819006978
 30
0.0
 11
157.6138570295
 21
134.3627804458
 31
0.0
  0
LINE
  5
385
330
2CA
100
AcDbEntity
  8
3MM_SCHRAUBE_X_1
  6
Continuous
 62
     7
100
AcDbLine
 10
157.6138570295
 20
134.3627804458
 30
0.0
 11
158.5329772815
 21
135.2819006978
 31
0.0
  0
LINE
  5
386
330
2CA
100
AcDbEntity
  8
3MM_SCHRAUBE_X_1
  6
Continuous
 62
     7
100
AcDbLine
 10
158.5329772815
 20
135.2819006978
 30
0.0
 11
159.4638434983
 21
135.2672573349
 31
0.0
  0
LINE
  5
387
330
2CA
100
AcDbEntity
  8
3MM_SCHRAUBE_X_1
  6
Continuous
 62
     7
100
AcDbLine
 10
159.4638434983
 20
135.2672573349
 30
0.0
 11
159.4784868612
 21
134.3363911181
 31
0.0
  0
LINE
  5
388
330
2CA
100
AcDbEntity
  8
3MM_SCHRAUBE_X_1
  6
Continuous
 62
     7
100
AcDbLine
 10
159.4784868612
 20
134.3363911181
 30
0.0
 11
158.5593666092
 21
133.4172708661
 31
0.0
  0
LINE
  5
389
330
2CA
100
AcDbEntity
  8
3MM_SCHRAUBE_X_1
  6
Continuous
 62
     7
100
AcDbLine
 10
158.5593666092
 20
133.4172708661
 30
0.0
 11
159.4784868612
 21
132.4981506141
 31
0.0
  0
LINE
  5
38A
330
2CA
100
AcDbEntity
  8
3MM_SCHRAUBE_X_1
  6
Continuous
 62
     7
100
AcDbLine
 10
159.4784868612
 20
132.4981506141
 30
0.0
 11
159.4638434983
 21
131.5672843973
 31
0.0
  0
LINE
  5
38B
330
2CA
100
AcDbEntity
  8
3MM_SCHRAUBE_X_1
  6
Continuous
 62
     7
100
AcDbLine
 10
159.4638434983
 20
131.5672843973
 30
0.0
 11
158.5329772815
 21
131.5526410344
 31
0.0
  0
LINE
  5
38C
330
2CA
100
AcDbEntity
  8
3MM_SCHRAUBE_X_1
  6
Continuous
 62
     7
100
AcDbLine
 10
158.5329772815
 20
131.5526410344
 30
0.0
 11
157.6138570295
 21
132.4717612864
 31
0.0
  0
LINE
  5
38D
330
2CA
100
AcDbEntity
  8
3MM_SCHRAUBE_X_1
  6
Continuous
 62
     7
100
AcDbLine
 10
157.6138570295
 20
132.4717612864
 30
0.0
 11
156.6947367775
 21
131.5526410344
 31
0.0
  0
LINE
  5
38E
330
2CA
100
AcDbEntity
  8
3MM_SCHRAUBE_X_1
  6
Continuous
 62
     7
100
AcDbLine
 10
156.6947367775
 20
131.5526410344
 30
0.0
 11
155.7638705607
 21
131.5672843973
 31
0.0
  0
LINE
  5
38F
330
2CA
100
AcDbEntity
  8
3MM_SCHRAUBE_X_1
  6
Continuous
 62
     7
100
AcDbLine
 10
155.7638705607
 20
131.5672843973
 30
0.0
 11
155.7492271978
 21
132.4981506141
 31
0.0
  0
LINE
  5
390
330
2CA
100
AcDbEntity
  8
3MM_SCHRAUBE_X_1
  6
Continuous
 62
     7
100
AcDbLine
 10
155.7492271978
 20
132.4981506141
 30
0.0
 11
156.6683474498
 21
133.4172708661
 31
0.0
  0
LINE
  5
391
330
2CA
100
AcDbEntity
  8
3MM_SCHRAUBE_X_1
  6
Continuous
 62
     7
100
AcDbLine
 10
156.6683474498
 20
133.4172708661
 30
0.0
 11
155.7492271978
 21
134.3363911181
 31
0.0
  0
ENDBLK
  5
393
330
2CA
100
AcDbEntity
  8
0
100
AcDbBlockEnd
  0
BLOCK
  5
39C
330
395
100
AcDbEntity
  8
0
100
AcDbBlockBegin
  2
DMBLK15
 70
     0
 10
0.0
 20
0.0
 30
0.0
  3
DMBLK15
  1
DMBLK15
  0
LWPOLYLINE
  5
396
330
395
100
AcDbEntity
  8
Standard
  6
Continuous
 62
     7
100
AcDbPolyline
 90
        3
 70
     0
 43
0.0
 10
56.6266213452
 20
145.1512255047
 10
52.876621429
 20
145.7762254907
 10
56.6266213452
 20
146.4012254768
  0
LWPOLYLINE
  5
397
330
395
100
AcDbEntity
  8
Standard
  6
Continuous
 62
     7
100
AcDbPolyline
 90
        3
 70
     0
 43
0.0
 10
69.1266192031
 20
145.1512255047
 10
72.8766191193
 20
145.7762254907
 10
69.1266192031
 20
146.4012254768
  0
LINE
  5
398
330
395
100
AcDbEntity
  8
Standard
  6
Continuous
 62
     7
100
AcDbLine
 10
52.876621429
 20
124.3924187769
 30
0.0
 11
52.876621429
 21
147.0262254628
 31
0.0
  0
LINE
  5
399
330
395
100
AcDbEntity
  8
Standard
  6
Continuous
 62
     7
100
AcDbLine
 10
72.876618929
 20
124.3924186093
 30
0.0
 11
72.876618929
 21
147.0262254628
 31
0.0
  0
LINE
  5
39A
330
395
100
AcDbEntity
  8
Standard
  6
Continuous
 62
     7
100
AcDbLine
 10
52.876621429
 20
145.7762254907
 30
0.0
 11
72.8766191193
 21
145.7762254907
 31
0.0
  0
TEXT
  5
39B
330
395
100
AcDbEntity
  8
Standard
  6
Continuous
 62
     7
100
AcDbText
 10
60.920098535
 20
146.4012254907
 30
0.0
 40
2.5
  1
20
  7
SEACAD_Arial
 11
60.920098535
 21
148.9012254907
 31
0.0
100
AcDbText
 73
     3
  0
ENDBLK
  5
39D
330
395
100
AcDbEntity
  8
0
100
AcDbBlockEnd
  0
BLOCK
  5
3A6
330
39F
100
AcDbEntity
  8
0
100
AcDbBlockBegin
  2
DMBLK16
 70
     0
 10
0.0
 20
0.0
 30
0.0
  3
DMBLK16
  1
DMBLK16
  0
LWPOLYLINE
  5
3A0
330
39F
100
AcDbEntity
  8
Standard
  6
Continuous
 62
     7
100
AcDbPolyline
 90
        3
 70
     0
 43
0.0
 10
78.0279778836
 20
120.8924186949
 10
78.6529778696
 20
124.6424186111
 10
79.2779778556
 20
120.8924186949
  0
LWPOLYLINE
  5
3A1
330
39F
100
AcDbEntity
  8
Standard
  6
Continuous
 62
     7
100
AcDbPolyline
 90
        3
 70
     0
 43
0.0
 10
78.0279778836
 20
108.393050411
 10
78.6529778696
 20
104.6430504949
 10
79.2779778556
 20
108.393050411
  0
LINE
  5
3A2
330
39F
100
AcDbEntity
  8
Standard
  6
Continuous
 62
     7
100
AcDbLine
 10
72.6266189439
 20
124.6424186111
 30
0.0
 11
79.9029778417
 21
124.6424186111
 31
0.0
  0
LINE
  5
3A3
330
39F
100
AcDbEntity
  8
Standard
  6
Continuous
 62
     7
100
AcDbLine
 10
73.453022412
 20
104.6430513038
 30
0.0
 11
79.9029778417
 21
104.6430513038
 31
0.0
  0
LINE
  5
3A4
330
39F
100
AcDbEntity
  8
Standard
  6
Continuous
 62
     7
100
AcDbLine
 10
78.6529778696
 20
124.6424186111
 30
0.0
 11
78.6529778696
 21
104.6430504949
 31
0.0
  0
TEXT
  5
3A5
330
39F
100
AcDbEntity
  8
Standard
  6
Continuous
 62
     7
100
AcDbText
 10
78.0279778696
 20
112.6862128139
 30
0.0
 40
2.5
  1
20
 50
90.0
  7
SEACAD_Arial
 11
75.5279778696
 21
112.6862128139
 31
0.0
100
AcDbText
 73
     3
  0
ENDBLK
  5
3A7
330
39F
100
AcDbEntity
  8
0
100
AcDbBlockEnd
  0
ENDSEC
  0
SECTION
  2
ENTITIES
  0
INSERT
  5
70
330
1F
100
AcDbEntity
  8
Standard
100
AcDbBlockReference
  2
SE
 10
0.0
 20
0.0
 30
0.0
  0
DIMENSION
  5
139
330
1F
100
AcDbEntity
  8
Standard
  6
Continuous
 62
     7
100
AcDbDimension
  2
DMBLK13
 10
53.1351768671
 20
228.71795447
 30
0.0
 11
63.1351757122
 21
228.71795447
 31
0.0
 70
   161
  1
\A1;<>
 71
     5
 42
-1.0
 73
     0
 74
     0
 75
     0
  3
E-Katalog
100
AcDbAlignedDimension
 13
53.1351768671
 23
221.8809799423
 33
0.0
 14
73.1351743671
 24
221.8809797747
 34
0.0
  0
DIMENSION
  5
143
330
1F
100
AcDbEntity
  8
Standard
  6
Continuous
 62
     7
100
AcDbDimension
  2
DMBLK14
 10
79.5116412532
 20
202.881612476
 30
0.0
 11
79.5116412532
 21
212.8812957249
 31
0.0
 70
   160
  1
\A1;<>
 71
     5
 42
-1.0
 73
     0
 74
     0
 75
     0
  3
E-Katalog
100
AcDbAlignedDimension
 13
72.1351743754
 23
222.880979783
 33
0.0
 14
72.9351742078
 24
202.881612476
 34
0.0
 50
90.0
100
AcDbRotatedDimension
  0
INSERT
  5
14E
330
1F
100
AcDbEntity
  8
Standard
100
AcDbBlockReference
  2
SE1
 10
0.0
 20
0.0
 30
0.0
  0
INSERT
  5
1FF
330
1F
100
AcDbEntity
  8
Standard
100
AcDbBlockReference
  2
SE2
 10
0.0
 20
0.0
 30
0.0
  0
INSERT
  5
2CB
330
1F
100
AcDbEntity
  8
Standard
100
AcDbBlockReference
  2
SE3
 10
0.0
 20
0.0
 30
0.0
  0
DIMENSION
  5
394
330
1F
100
AcDbEntity
  8
Standard
  6
Continuous
 62
     7
100
AcDbDimension
  2
DMBLK15
 10
52.876621429
 20
145.7762254907
 30
0.0
 11
62.8766202741
 21
145.7762254907
 31
0.0
 70
   161
  1
\A1;<>
 71
     5
 42
-1.0
 73
     0
 74
     0
 75
     0
  3
E-Katalog
100
AcDbAlignedDimension
 13
52.876621429
 23
123.6424187704
 33
0.0
 14
72.876618929
 24
123.6424186027
 34
0.0
  0
DIMENSION
  5
39E
330
1F
100
AcDbEntity
  8
Standard
  6
Continuous
 62
     7
100
AcDbDimension
  2
DMBLK16
 10
78.6529778696
 20
104.6430513038
 30
0.0
 11
78.6529778696
 21
114.642734553
 31
0.0
 70
   160
  1
\A1;<>
 71
     5
 42
-1.0
 73
     0
 74
     0
 75
     0
  3
E-Katalog
100
AcDbAlignedDimension
 13
71.8766189374
 23
124.6424186111
 33
0.0
 14
72.7030224055
 24
104.6430513038
 34
0.0
 50
90.0
100
AcDbRotatedDimension
  0
LINE
  5
3A8
330
1F
100
AcDbEntity
  8
Standard
  6
Continuous
 62
     7
100
AcDbLine
 10
18.1568766159
 20
171.0856000139
 30
0.0
 11
198.0131616313
 21
171.0856000139
 31
0.0
  0
LINE
  5
3A9
330
1F
100
AcDbEntity
  8
Standard
  6
Continuous
 62
     7
100
AcDbLine
 10
108.0850191236
 20
248.4701847857
 30
0.0
 11
108.0850191236
 21
78.496657704
 31
0.0
  0
ENDSEC
  0
SECTION
  2
OBJECTS
  0
DICTIONARY
  5
C
330
0
100
AcDbDictionary
281
     1
  3
ACAD_DETAILVIEWSTYLE
350
3E5
  3
ACAD_GROUP
350
D
  3
ACAD_LAYOUT
350
1A
  3
ACAD_MATERIAL
350
43
  3
ACAD_MLEADERSTYLE
350
6B
  3
ACAD_MLINESTYLE
350
17
  3
ACAD_PLOTSETTINGS
350
19
  3
ACAD_PLOTSTYLENAME
350
E
  3
ACAD_SCALELIST
350
47
  3
ACAD_SECTIONVIEWSTYLE
350
3E6
  3
ACAD_TABLESTYLE
350
69
  3
ACAD_VISUALSTYLE
350
2A
  3
ACDB_RECOMPOSE_DATA
350
3E2
  3
AcDbVariableDictionary
350
3AA
  0
SUN
  5
6D
330
29
100
AcDbSun
 90
        1
290
     0
 63
     7
421
 16777215
 40
1.0
291
     1
 91
  2455826
 92
 54000000
292
     0
 70
     2
 71
   256
280
     1
  0
DICTIONARY
  5
3E5
102
{ACAD_REACTORS
330
C
102
}
330
C
100
AcDbDictionary
281
     1
  0
DICTIONARY
  5
D
102
{ACAD_REACTORS
330
C
102
}
330
C
100
AcDbDictionary
281
     1
  0
DICTIONARY
  5
1A
102
{ACAD_REACTORS
330
C
102
}
330
C
100
AcDbDictionary
281
     1
  3
Layout1
350
1E
  3
Model
350
22
  0
DICTIONARY
  5
43
102
{ACAD_REACTORS
330
C
102
}
330
C
100
AcDbDictionary
281
     1
  3
ByBlock
350
45
  3
ByLayer
350
44
  3
Global
350
46
  0
DICTIONARY
  5
6B
102
{ACAD_REACTORS
330
C
102
}
330
C
100
AcDbDictionary
281
     1
  3
Standard
350
6C
  0
DICTIONARY
  5
17
102
{ACAD_REACTORS
330
C
102
}
330
C
100
AcDbDictionary
281
     1
  3
Standard
350
18
  0
DICTIONARY
  5
19
102
{ACAD_REACTORS
330
C
102
}
330
C
100
AcDbDictionary
281
     1
  0
ACDBDICTIONARYWDFLT
  5
E
102
{ACAD_REACTORS
330
C
102
}
330
C
100
AcDbDictionary
281
     1
  3
Normal
350
F
100
AcDbDictionaryWithDefault
340
F
  0
DICTIONARY
  5
47
102
{ACAD_REACTORS
330
C
102
}
330
C
100
AcDbDictionary
281
     1
  3
A0
350
48
  3
A1
350
49
  3
A2
350
4A
  3
A3
350
4B
  3
A4
350
4C
  3
A5
350
4D
  3
A6
350
4E
  3
A7
350
4F
  3
A8
350
50
  3
A9
350
51
  3
B0
350
52
  3
B1
350
53
  3
B2
350
54
  3
B3
350
55
  3
B4
350
56
  3
B5
350
57
  3
B6
350
58
  3
B7
350
59
  3
B8
350
5A
  3
B9
350
5B
  3
C0
350
5C
  3
C1
350
5D
  3
C2
350
5E
  3
C3
350
5F
  3
C4
350
60
  3
C5
350
61
  3
C6
350
62
  3
C7
350
63
  3
C8
350
64
  3
C9
350
65
  3
D0
350
66
  3
D1
350
67
  3
D2
350
68
  0
DICTIONARY
  5
3E6
102
{ACAD_REACTORS
330
C
102
}
330
C
100
AcDbDictionary
281
     1
  0
DICTIONARY
  5
69
102
{ACAD_REACTORS
330
C
102
}
330
C
100
AcDbDictionary
281
     1
  3
Standard
350
6A
  0
DICTIONARY
  5
2A
102
{ACAD_REACTORS
330
C
102
}
330
C
100
AcDbDictionary
281
     1
  3
2dWireframe
350
2F
  3
Basic
350
32
  3
Brighten
350
36
  3
ColorChange
350
3A
  3
Conceptual
350
34
  3
Dim
350
35
  3
EdgeColorOff
350
3D
  3
Facepattern
350
39
  3
Flat
350
2B
  3
FlatWithEdges
350
2C
  3
Gouraud
350
2D
  3
GouraudWithEdges
350
2E
  3
Hidden
350
31
  3
JitterOff
350
3B
  3
Linepattern
350
38
  3
OverhangOff
350
3C
  3
Realistic
350
33
  3
Shaded
350
42
  3
Shaded with edges
350
41
  3
Shades of Gray
350
3E
  3
Sketchy
350
3F
  3
Thicken
350
37
  3
Wireframe
350
30
  3
X-Ray
350
40
  0
XRECORD
  5
3E2
102
{ACAD_REACTORS
330
C
102
}
330
C
100
AcDbXrecord
280
     1
 90
        1
330
6A
  0
DICTIONARY
  5
3AA
102
{ACAD_REACTORS
330
C
102
}
330
C
100
AcDbDictionary
281
     1
  3
CANNOSCALE
350
3AB
  3
CMLEADERSTYLE
350
3E4
  3
CTABLESTYLE
350
3E3
  3
XCLIPFRAME
350
3AC
  0
LAYOUT
  5
1E
102
{ACAD_REACTORS
330
1A
102
}
330
1A
100
AcDbPlotSettings
  1

  2
none_device
  4

  6

 40
0.0
 41
0.0
 42
0.0
 43
0.0
 44
0.0
 45
0.0
 46
0.0
 47
0.0
 48
0.0
 49
0.0
140
0.0
141
0.0
142
1.0
143
1.0
 70
   688
 72
     1
 73
     0
 74
     5
  7

 75
    16
 76
     0
 77
     2
 78
   300
147
1.0
148
0.0
149
0.0
100
AcDbLayout
  1
Layout1
 70
     1
 71
     1
 10
0.0
 20
0.0
 11
215.9
 21
279.4
 12
0.0
 22
0.0
 32
0.0
 14
0.0
 24
0.0
 34
0.0
 15
215.9
 25
279.4
 35
0.0
146
0.0
 13
0.0
 23
0.0
 33
0.0
 16
1.0
 26
0.0
 36
0.0
 17
0.0
 27
1.0
 37
0.0
 76
     0
330
1B
  0
LAYOUT
  5
22
102
{ACAD_REACTORS
330
1A
102
}
330
1A
100
AcDbPlotSettings
  1

  2
none_device
  4
Letter_(8.50_x_11.00_Inches)
  6

 40
6.35
 41
6.35
 42
6.35000508
 43
6.35000508
 44
215.9
 45
279.4
 46
0.0
 47
0.0
 48
0.0
 49
0.0
140
0.0
141
0.0
142
1.0
143
1.0
 70
  1712
 72
     1
 73
     0
 74
     0
  7

 75
     0
 76
     0
 77
     2
 78
   300
147
1.0
148
0.0
149
0.0
100
AcDbLayout
  1
Model
 70
     1
 71
     0
 10
0.0
 20
0.0
 11
215.9
 21
279.4
 12
0.0
 22
0.0
 32
0.0
 14
0.0
 24
0.0
 34
0.0
 15
215.9
 25
279.4
 35
0.0
146
0.0
 13
0.0
 23
0.0
 33
0.0
 16
1.0
 26
0.0
 36
0.0
 17
0.0
 27
1.0
 37
0.0
 76
     0
330
1F
331
29
  0
MATERIAL
  5
45
102
{ACAD_REACTORS
330
43
102
}
330
43
100
AcDbMaterial
  1
ByBlock
 72
     1
 94
      127
  0
MATERIAL
  5
44
102
{ACAD_REACTORS
330
43
102
}
330
43
100
AcDbMaterial
  1
ByLayer
 72
     1
 94
      127
  0
MATERIAL
  5
46
102
{ACAD_REACTORS
330
43
102
}
330
43
100
AcDbMaterial
  1
Global
 72
     1
 94
      127
  0
MLEADERSTYLE
  5
6C
102
{ACAD_REACTORS
330
6B
102
}
102
{ACAD_XDICTIONARY
360
3E0
102
}
330
6B
100
AcDbMLeaderStyle
170
     2
171
     1
172
     0
 90
        2
 40
0.0
 41
0.0
173
     1
 91
-1056964608
340
14
 92
       -2
290
     1
 42
2.0
291
     1
 43
8.0
  3
Standard
341
0
 44
4.0
300

342
11
174
     1
178
     6
175
     1
176
     0
 93
-1056964608
 45
4.0
292
     0
297
     0
 46
4.0
343
0
 94
-1056964608
 47
1.0
 49
1.0
140
1.0
293
     1
141
0.0
294
     1
177
     0
142
1.0
295
     0
296
     0
143
3.75
1001
ACAD_MLEADERVER
1070
     2
  0
MLINESTYLE
  5
18
102
{ACAD_REACTORS
330
17
102
}
330
17
100
AcDbMlineStyle
  2
Standard
 70
     0
  3

 62
   256
 51
90.0
 52
90.0
 71
     2
 49
0.5
 62
   256
  6
BYLAYER
 49
-0.5
 62
   256
  6
BYLAYER
  0
ACDBPLACEHOLDER
  5
F
102
{ACAD_REACTORS
330
E
102
}
330
E
  0
SCALE
  5
48
102
{ACAD_REACTORS
330
47
102
}
330
47
100
AcDbScale
 70
     0
300
1:1
140
1.0
141
1.0
290
     1
  0
SCALE
  5
49
102
{ACAD_REACTORS
330
47
102
}
330
47
100
AcDbScale
 70
     0
300
1:2
140
1.0
141
2.0
290
     0
  0
SCALE
  5
4A
102
{ACAD_REACTORS
330
47
102
}
330
47
100
AcDbScale
 70
     0
300
1:4
140
1.0
141
4.0
290
     0
  0
SCALE
  5
4B
102
{ACAD_REACTORS
330
47
102
}
330
47
100
AcDbScale
 70
     0
300
1:5
140
1.0
141
5.0
290
     0
  0
SCALE
  5
4C
102
{ACAD_REACTORS
330
47
102
}
330
47
100
AcDbScale
 70
     0
300
1:8
140
1.0
141
8.0
290
     0
  0
SCALE
  5
4D
102
{ACAD_REACTORS
330
47
102
}
330
47
100
AcDbScale
 70
     0
300
1:10
140
1.0
141
10.0
290
     0
  0
SCALE
  5
4E
102
{ACAD_REACTORS
330
47
102
}
330
47
100
AcDbScale
 70
     0
300
1:16
140
1.0
141
16.0
290
     0
  0
SCALE
  5
4F
102
{ACAD_REACTORS
330
47
102
}
330
47
100
AcDbScale
 70
     0
300
1:20
140
1.0
141
20.0
290
     0
  0
SCALE
  5
50
102
{ACAD_REACTORS
330
47
102
}
330
47
100
AcDbScale
 70
     0
300
1:30
140
1.0
141
30.0
290
     0
  0
SCALE
  5
51
102
{ACAD_REACTORS
330
47
102
}
330
47
100
AcDbScale
 70
     0
300
1:40
140
1.0
141
40.0
290
     0
  0
SCALE
  5
52
102
{ACAD_REACTORS
330
47
102
}
330
47
100
AcDbScale
 70
     0
300
1:50
140
1.0
141
50.0
290
     0
  0
SCALE
  5
53
102
{ACAD_REACTORS
330
47
102
}
330
47
100
AcDbScale
 70
     0
300
1:100
140
1.0
141
100.0
290
     0
  0
SCALE
  5
54
102
{ACAD_REACTORS
330
47
102
}
330
47
100
AcDbScale
 70
     0
300
2:1
140
2.0
141
1.0
290
     0
  0
SCALE
  5
55
102
{ACAD_REACTORS
330
47
102
}
330
47
100
AcDbScale
 70
     0
300
4:1
140
4.0
141
1.0
290
     0
  0
SCALE
  5
56
102
{ACAD_REACTORS
330
47
102
}
330
47
100
AcDbScale
 70
     0
300
8:1
140
8.0
141
1.0
290
     0
  0
SCALE
  5
57
102
{ACAD_REACTORS
330
47
102
}
330
47
100
AcDbScale
 70
     0
300
10:1
140
10.0
141
1.0
290
     0
  0
SCALE
  5
58
102
{ACAD_REACTORS
330
47
102
}
330
47
100
AcDbScale
 70
     0
300
100:1
140
100.0
141
1.0
290
     0
  0
SCALE
  5
59
102
{ACAD_REACTORS
330
47
102
}
330
47
100
AcDbScale
 70
     0
300
1/128" = 1'-0"
140
0.0078125
141
12.0
290
     0
  0
SCALE
  5
5A
102
{ACAD_REACTORS
330
47
102
}
330
47
100
AcDbScale
 70
     0
300
1/64" = 1'-0"
140
0.015625
141
12.0
290
     0
  0
SCALE
  5
5B
102
{ACAD_REACTORS
330
47
102
}
330
47
100
AcDbScale
 70
     0
300
1/32" = 1'-0"
140
0.03125
141
12.0
290
     0
  0
SCALE
  5
5C
102
{ACAD_REACTORS
330
47
102
}
330
47
100
AcDbScale
 70
     0
300
1/16" = 1'-0"
140
0.0625
141
12.0
290
     0
  0
SCALE
  5
5D
102
{ACAD_REACTORS
330
47
102
}
330
47
100
AcDbScale
 70
     0
300
3/32" = 1'-0"
140
0.09375
141
12.0
290
     0
  0
SCALE
  5
5E
102
{ACAD_REACTORS
330
47
102
}
330
47
100
AcDbScale
 70
     0
300
1/8" = 1'-0"
140
0.125
141
12.0
290
     0
  0
SCALE
  5
5F
102
{ACAD_REACTORS
330
47
102
}
330
47
100
AcDbScale
 70
     0
300
3/16" = 1'-0"
140
0.1875
141
12.0
290
     0
  0
SCALE
  5
60
102
{ACAD_REACTORS
330
47
102
}
330
47
100
AcDbScale
 70
     0
300
1/4" = 1'-0"
140
0.25
141
12.0
290
     0
  0
SCALE
  5
61
102
{ACAD_REACTORS
330
47
102
}
330
47
100
AcDbScale
 70
     0
300
3/8" = 1'-0"
140
0.375
141
12.0
290
     0
  0
SCALE
  5
62
102
{ACAD_REACTORS
330
47
102
}
330
47
100
AcDbScale
 70
     0
300
1/2" = 1'-0"
140
0.5
141
12.0
290
     0
  0
SCALE
  5
63
102
{ACAD_REACTORS
330
47
102
}
330
47
100
AcDbScale
 70
     0
300
3/4" = 1'-0"
140
0.75
141
12.0
290
     0
  0
SCALE
  5
64
102
{ACAD_REACTORS
330
47
102
}
330
47
100
AcDbScale
 70
     0
300
1" = 1'-0"
140
1.0
141
12.0
290
     0
  0
SCALE
  5
65
102
{ACAD_REACTORS
330
47
102
}
330
47
100
AcDbScale
 70
     0
300
1-1/2" = 1'-0"
140
1.5
141
12.0
290
     0
  0
SCALE
  5
66
102
{ACAD_REACTORS
330
47
102
}
330
47
100
AcDbScale
 70
     0
300
3" = 1'-0"
140
3.0
141
12.0
290
     0
  0
SCALE
  5
67
102
{ACAD_REACTORS
330
47
102
}
330
47
100
AcDbScale
 70
     0
300
6" = 1'-0"
140
6.0
141
12.0
290
     0
  0
SCALE
  5
68
102
{ACAD_REACTORS
330
47
102
}
330
47
100
AcDbScale
 70
     0
300
1'-0" = 1'-0"
140
12.0
141
12.0
290
     0
  0
TABLESTYLE
  5
6A
102
{ACAD_REACTORS
330
69
102
}
102
{ACAD_XDICTIONARY
360
3DD
102
}
330
69
100
AcDbTableStyle
  3
Standard
 70
     0
 71
     0
 40
0.06
 41
0.06
280
     0
281
     0
  7
Standard
140
4.5
170
     2
 62
     0
 63
   257
283
     0
 90
        4
 91
        0
  1

274
    -2
284
     1
 64
     0
275
    -2
285
     1
 65
     0
276
    -2
286
     1
 66
     0
277
    -2
287
     1
 67
     0
278
    -2
288
     1
 68
     0
279
    -2
289
     1
 69
     0
  7
Standard
140
6.0
170
     5
 62
     0
 63
   257
283
     0
 90
        4
 91
        0
  1

274
    -2
284
     1
 64
     0
275
    -2
285
     1
 65
     0
276
    -2
286
     1
 66
     0
277
    -2
287
     1
 67
     0
278
    -2
288
     1
 68
     0
279
    -2
289
     1
 69
     0
  7
Standard
140
4.5
170
     5
 62
     0
 63
   257
283
     0
 90
        4
 91
        0
  1

274
    -2
284
     1
 64
     0
275
    -2
285
     1
 65
     0
276
    -2
286
     1
 66
     0
277
    -2
287
     1
 67
     0
278
    -2
288
     1
 68
     0
279
    -2
289
     1
 69
     0
  0
VISUALSTYLE
  5
2F
102
{ACAD_REACTORS
330
2A
102
}
102
{ACAD_XDICTIONARY
360
3B5
102
}
330
2A
100
AcDbVisualStyle
  2
2dWireframe
 70
     4
 71
     0
 72
     2
 73
     0
 90
        0
 40
0.6
 41
30.0
 62
     5
 63
     7
421
 16777215
 74
     1
 91
        4
 64
     7
 65
   257
 75
     1
175
     1
 42
1.0
 92
        0
 66
   257
 43
1.0
 76
     1
 77
     6
 78
     2
 67
     7
 79
     5
170
     0
171
     0
290
     0
174
     0
 93
        1
 44
0.0
173
     0
291
     0
 45
0.0
  0
VISUALSTYLE
  5
32
102
{ACAD_REACTORS
330
2A
102
}
102
{ACAD_XDICTIONARY
360
3BB
102
}
330
2A
100
AcDbVisualStyle
  2
Basic
 70
     7
 71
     1
 72
     0
 73
     1
 90
        0
 40
0.6
 41
30.0
 62
     5
 63
     7
421
 16777215
 74
     0
 91
        4
 64
     7
 65
   257
 75
     1
175
     1
 42
1.0
 92
        8
 66
     7
 43
1.0
 76
     1
 77
     6
 78
     2
 67
     7
 79
     5
170
     0
171
     0
290
     0
174
     0
 93
        1
 44
0.0
173
     0
291
     1
 45
0.0
  0
VISUALSTYLE
  5
36
102
{ACAD_REACTORS
330
2A
102
}
102
{ACAD_XDICTIONARY
360
3C3
102
}
330
2A
100
AcDbVisualStyle
  2
Brighten
 70
    12
 71
     2
 72
     2
 73
     0
 90
        0
 40
0.6
 41
30.0
 62
     5
 63
     7
421
 16777215
 74
     1
 91
        4
 64
     7
 65
   257
 75
     1
175
     1
 42
1.0
 92
        8
 66
     7
 43
1.0
 76
     1
 77
     6
 78
     2
 67
     7
 79
     5
170
     0
171
     0
290
     0
174
     0
 93
        1
 44
50.0
173
     0
291
     1
 45
0.0
  0
VISUALSTYLE
  5
3A
102
{ACAD_REACTORS
330
2A
102
}
102
{ACAD_XDICTIONARY
360
3CB
102
}
330
2A
100
AcDbVisualStyle
  2
ColorChange
 70
    16
 71
     2
 72
     2
 73
     3
 90
        0
 40
0.6
 41
30.0
 62
     5
 63
     8
421
  8421504
 74
     1
 91
        4
 64
     7
 65
   257
 75
     1
175
     1
 42
1.0
 92
        8
 66
     8
424
  8421504
 43
1.0
 76
     1
 77
     6
 78
     2
 67
     7
 79
     5
170
     0
171
     0
290
     0
174
     0
 93
        1
 44
0.0
173
     0
291
     1
 45
0.0
  0
VISUALSTYLE
  5
34
102
{ACAD_REACTORS
330
2A
102
}
102
{ACAD_XDICTIONARY
360
3BF
102
}
330
2A
100
AcDbVisualStyle
  2
Conceptual
 70
     9
 71
     3
 72
     2
 73
     0
 90
        0
 40
0.6
 41
30.0
 62
     5
 63
     7
421
 16777215
 74
     2
 91
        2
 64
     7
 65
   257
 75
     1
175
     1
 42
179.0
 92
        8
 66
     7
 43
1.0
 76
     1
 77
     6
 78
     2
 67
     7
 79
     3
170
     0
171
     0
290
     0
174
     0
 93
        1
 44
0.0
173
     0
291
     0
 45
0.0
  0
VISUALSTYLE
  5
35
102
{ACAD_REACTORS
330
2A
102
}
102
{ACAD_XDICTIONARY
360
3C1
102
}
330
2A
100
AcDbVisualStyle
  2
Dim
 70
    11
 71
     2
 72
     2
 73
     0
 90
        0
 40
0.6
 41
30.0
 62
     5
 63
     7
421
 16777215
 74
     1
 91
        4
 64
     7
 65
   257
 75
     1
175
     1
 42
1.0
 92
        8
 66
     7
 43
1.0
 76
     1
 77
     6
 78
     2
 67
     7
 79
     5
170
     0
171
     0
290
     0
174
     0
 93
        1
 44
-50.0
173
     0
291
     1
 45
0.0
  0
VISUALSTYLE
  5
3D
102
{ACAD_REACTORS
330
2A
102
}
102
{ACAD_XDICTIONARY
360
3D1
102
}
330
2A
100
AcDbVisualStyle
  2
EdgeColorOff
 70
    22
 71
     2
 72
     2
 73
     0
 90
        0
 40
0.6
 41
30.0
 62
     5
 63
     7
421
 16777215
 74
     1
 91
        4
 64
     7
 65
   257
 75
     1
175
     1
 42
1.0
 92
        8
 66
     7
 43
1.0
 76
     1
 77
     6
 78
     2
 67
     7
 79
     5
170
     0
171
     0
290
     0
174
     0
 93
        1
 44
0.0
173
     0
291
     1
 45
0.0
  0
VISUALSTYLE
  5
39
102
{ACAD_REACTORS
330
2A
102
}
102
{ACAD_XDICTIONARY
360
3C9
102
}
330
2A
100
AcDbVisualStyle
  2
Facepattern
 70
    15
 71
     2
 72
     2
 73
     0
 90
        0
 40
0.6
 41
30.0
 62
     5
 63
     7
421
 16777215
 74
     1
 91
        4
 64
     7
 65
   257
 75
     1
175
     1
 42
1.0
 92
        8
 66
     7
 43
1.0
 76
     1
 77
     6
 78
     2
 67
     7
 79
     5
170
     0
171
     0
290
     0
174
     0
 93
        1
 44
0.0
173
     0
291
     1
 45
0.0
  0
VISUALSTYLE
  5
2B
102
{ACAD_REACTORS
330
2A
102
}
102
{ACAD_XDICTIONARY
360
3AD
102
}
330
2A
100
AcDbVisualStyle
  2
Flat
 70
     0
 71
     2
 72
     1
 73
     1
 90
        2
 40
0.6
 41
30.0
 62
     5
 63
     7
421
 16777215
 74
     0
 91
        0
 64
     7
 65
   257
 75
     1
175
     1
 42
1.0
 92
        8
 66
     7
 43
1.0
 76
     1
 77
     6
 78
     2
 67
     7
 79
     5
170
     0
171
     0
290
     0
174
     0
 93
       13
 44
0.0
173
     0
291
     1
 45
0.0
  0
VISUALSTYLE
  5
2C
102
{ACAD_REACTORS
330
2A
102
}
102
{ACAD_XDICTIONARY
360
3AF
102
}
330
2A
100
AcDbVisualStyle
  2
FlatWithEdges
 70
     1
 71
     2
 72
     1
 73
     1
 90
        2
 40
0.6
 41
30.0
 62
     5
 63
     7
421
 16777215
 74
     1
 91
        0
 64
     7
 65
   257
 75
     1
175
     1
 42
1.0
 92
        0
 66
   257
 43
1.0
 76
     1
 77
     6
 78
     2
 67
     7
 79
     5
170
     0
171
     0
290
     0
174
     0
 93
       13
 44
0.0
173
     0
291
     1
 45
0.0
  0
VISUALSTYLE
  5
2D
102
{ACAD_REACTORS
330
2A
102
}
102
{ACAD_XDICTIONARY
360
3B1
102
}
330
2A
100
AcDbVisualStyle
  2
Gouraud
 70
     2
 71
     2
 72
     2
 73
     1
 90
        2
 40
0.6
 41
30.0
 62
     5
 63
     7
421
 16777215
 74
     0
 91
        0
 64
     7
 65
   257
 75
     1
175
     1
 42
1.0
 92
        0
 66
     7
 43
1.0
 76
     1
 77
     6
 78
     2
 67
     7
 79
     5
170
     0
171
     0
290
     0
174
     0
 93
       13
 44
0.0
173
     0
291
     1
 45
0.0
  0
VISUALSTYLE
  5
2E
102
{ACAD_REACTORS
330
2A
102
}
102
{ACAD_XDICTIONARY
360
3B3
102
}
330
2A
100
AcDbVisualStyle
  2
GouraudWithEdges
 70
     3
 71
     2
 72
     2
 73
     1
 90
        2
 40
0.6
 41
30.0
 62
     5
 63
     7
421
 16777215
 74
     1
 91
        0
 64
     7
 65
   257
 75
     1
175
     1
 42
1.0
 92
        0
 66
   257
 43
1.0
 76
     1
 77
     6
 78
     2
 67
     7
 79
     5
170
     0
171
     0
290
     0
174
     0
 93
       13
 44
0.0
173
     0
291
     1
 45
0.0
  0
VISUALSTYLE
  5
31
102
{ACAD_REACTORS
330
2A
102
}
102
{ACAD_XDICTIONARY
360
3B9
102
}
330
2A
100
AcDbVisualStyle
  2
Hidden
 70
     6
 71
     1
 72
     2
 73
     2
 90
        0
 40
0.6
 41
30.0
 62
     5
 63
     7
421
 16777215
 74
     2
 91
        2
 64
     7
 65
   257
 75
     2
175
     1
 42
40.0
 92
        0
 66
   257
 43
1.0
 76
     1
 77
     6
 78
     2
 67
     7
 79
     3
170
     0
171
     0
290
     0
174
     0
 93
        1
 44
0.0
173
     0
291
     0
 45
0.0
  0
VISUALSTYLE
  5
3B
102
{ACAD_REACTORS
330
2A
102
}
102
{ACAD_XDICTIONARY
360
3CD
102
}
330
2A
100
AcDbVisualStyle
  2
JitterOff
 70
    20
 71
     2
 72
     2
 73
     0
 90
        0
 40
0.6
 41
30.0
 62
     5
 63
     7
421
 16777215
 74
     1
 91
        4
 64
     7
 65
   257
 75
     1
175
     1
 42
1.0
 92
       10
 66
     7
 43
1.0
 76
     1
 77
     6
 78
     2
 67
     7
 79
     5
170
     0
171
     0
290
     0
174
     0
 93
        1
 44
0.0
173
     0
291
     1
 45
0.0
  0
VISUALSTYLE
  5
38
102
{ACAD_REACTORS
330
2A
102
}
102
{ACAD_XDICTIONARY
360
3C7
102
}
330
2A
100
AcDbVisualStyle
  2
Linepattern
 70
    14
 71
     2
 72
     2
 73
     0
 90
        0
 40
0.6
 41
30.0
 62
     5
 63
     7
421
 16777215
 74
     1
 91
        4
 64
     7
 65
   257
 75
     7
175
     7
 42
1.0
 92
        8
 66
     7
 43
1.0
 76
     1
 77
     6
 78
     2
 67
     7
 79
     5
170
     0
171
     0
290
     0
174
     0
 93
        1
 44
0.0
173
     0
291
     1
 45
0.0
  0
VISUALSTYLE
  5
3C
102
{ACAD_REACTORS
330
2A
102
}
102
{ACAD_XDICTIONARY
360
3CF
102
}
330
2A
100
AcDbVisualStyle
  2
OverhangOff
 70
    21
 71
     2
 72
     2
 73
     0
 90
        0
 40
0.6
 41
30.0
 62
     5
 63
     7
421
 16777215
 74
     1
 91
        4
 64
     7
 65
   257
 75
     1
175
     1
 42
1.0
 92
        9
 66
     7
 43
1.0
 76
     1
 77
     6
 78
     2
 67
     7
 79
     5
170
     0
171
     0
290
     0
174
     0
 93
        1
 44
0.0
173
     0
291
     1
 45
0.0
  0
VISUALSTYLE
  5
33
102
{ACAD_REACTORS
330
2A
102
}
102
{ACAD_XDICTIONARY
360
3BD
102
}
330
2A
100
AcDbVisualStyle
  2
Realistic
 70
     8
 71
     2
 72
     3
 73
     0
 90
        2
 40
0.6
 41
30.0
 62
     5
 63
     7
421
 16777215
 74
     0
 91
        0
 64
     7
 65
   257
 75
     1
175
     1
 42
1.0
 92
        8
 66
   257
 43
1.0
 76
     1
 77
     6
 78
     2
 67
     7
 79
     3
170
     0
171
     0
290
     0
174
     0
 93
       13
 44
0.0
173
     0
291
     0
 45
0.0
  0
VISUALSTYLE
  5
42
102
{ACAD_REACTORS
330
2A
102
}
102
{ACAD_XDICTIONARY
360
3DB
102
}
330
2A
100
AcDbVisualStyle
  2
Shaded
 70
    27
 71
     2
 72
     2
 73
     1
 90
        2
 40
0.6
 41
30.0
 62
     5
 63
     7
421
 16777215
 74
     0
 91
        4
 64
     7
 65
   257
 75
     1
175
     1
 42
1.0
 92
        8
 66
   257
 43
1.0
 76
     1
 77
     6
 78
     2
 67
     8
425
  7895160
 79
     3
170
     0
171
     0
290
     0
174
     0
 93
        5
 44
0.0
173
     0
291
     0
 45
0.0
  0
VISUALSTYLE
  5
41
102
{ACAD_REACTORS
330
2A
102
}
102
{ACAD_XDICTIONARY
360
3D9
102
}
330
2A
100
AcDbVisualStyle
  2
Shaded with edges
 70
    26
 71
     2
 72
     2
 73
     1
 90
        2
 40
0.6
 41
30.0
 62
     5
 63
     7
421
 16777215
 74
     1
 91
       10
 64
     7
 65
   257
 75
     2
175
     1
 42
1.0
 92
        8
 66
   257
 43
1.0
 76
     1
 77
     6
 78
     2
 67
     7
 79
     3
170
     0
171
     0
290
     0
174
     0
 93
        5
 44
0.0
173
     0
291
     0
 45
0.0
  0
VISUALSTYLE
  5
3E
102
{ACAD_REACTORS
330
2A
102
}
102
{ACAD_XDICTIONARY
360
3D3
102
}
330
2A
100
AcDbVisualStyle
  2
Shades of Gray
 70
    23
 71
     2
 72
     2
 73
     3
 90
        0
 40
0.6
 41
30.0
 62
     5
 63
     7
421
 16777215
 74
     2
 91
        2
 64
     7
 65
     7
 75
     1
175
     1
 42
40.0
 92
        8
 66
     7
 43
1.0
 76
     1
 77
     6
 78
     2
 67
     7
 79
     3
170
     0
171
     0
290
     0
174
     0
 93
        1
 44
0.0
173
     0
291
     0
 45
0.0
  0
VISUALSTYLE
  5
3F
102
{ACAD_REACTORS
330
2A
102
}
102
{ACAD_XDICTIONARY
360
3D5
102
}
330
2A
100
AcDbVisualStyle
  2
Sketchy
 70
    24
 71
     1
 72
     2
 73
     2
 90
        0
 40
0.6
 41
30.0
 62
     5
 63
     7
421
 16777215
 74
     2
 91
        2
 64
     7
 65
     7
 75
     1
175
     1
 42
40.0
 92
       11
 66
     7
 43
1.0
 76
     1
 77
     6
 78
     2
 67
     7
 79
     6
170
     0
171
     0
290
     0
174
     0
 93
        1
 44
0.0
173
     0
291
     0
 45
0.0
  0
VISUALSTYLE
  5
37
102
{ACAD_REACTORS
330
2A
102
}
102
{ACAD_XDICTIONARY
360
3C5
102
}
330
2A
100
AcDbVisualStyle
  2
Thicken
 70
    13
 71
     2
 72
     2
 73
     0
 90
        0
 40
0.6
 41
30.0
 62
     5
 63
     7
421
 16777215
 74
     1
 91
        4
 64
     7
 65
   257
 75
     1
175
     1
 42
1.0
 92
       12
 66
     7
 43
1.0
 76
     1
 77
     6
 78
     2
 67
     7
 79
     5
170
     0
171
     0
290
     0
174
     0
 93
        1
 44
0.0
173
     0
291
     1
 45
0.0
  0
VISUALSTYLE
  5
30
102
{ACAD_REACTORS
330
2A
102
}
102
{ACAD_XDICTIONARY
360
3B7
102
}
330
2A
100
AcDbVisualStyle
  2
Wireframe
 70
     5
 71
     0
 72
     2
 73
     0
 90
        0
 40
0.6
 41
30.0
 62
     5
 63
     7
421
 16777215
 74
     1
 91
        4
 64
     7
 65
   257
 75
     1
175
     1
 42
1.0
 92
        0
 66
   257
 43
1.0
 76
     1
 77
     6
 78
     2
 67
     7
 79
     3
170
     0
171
     0
290
     0
174
     0
 93
        1
 44
0.0
173
     0
291
     0
 45
0.0
  0
VISUALSTYLE
  5
40
102
{ACAD_REACTORS
330
2A
102
}
102
{ACAD_XDICTIONARY
360
3D7
102
}
330
2A
100
AcDbVisualStyle
  2
X-Ray
 70
    25
 71
     2
 72
     2
 73
     1
 90
        1
 40
0.5
 41
30.0
 62
     5
 63
     7
421
 16777215
 74
     1
 91
        0
 64
     7
 65
   257
 75
     1
175
     1
 42
1.0
 92
        8
 66
     7
 43
1.0
 76
     1
 77
     6
 78
     2
 67
     7
 79
     3
170
     0
171
     0
290
     0
174
     0
 93
       13
 44
0.0
173
     0
291
     0
 45
0.0
  0
DICTIONARYVAR
  5
3AB
102
{ACAD_REACTORS
330
3AA
102
}
330
3AA
100
DictionaryVariables
280
     0
  1
1:1
  0
DICTIONARYVAR
  5
3E4
102
{ACAD_REACTORS
330
3AA
102
}
330
3AA
100
DictionaryVariables
280
     0
  1
Standard
  0
DICTIONARYVAR
  5
3E3
102
{ACAD_REACTORS
330
3AA
102
}
330
3AA
100
DictionaryVariables
280
     0
  1
Standard
  0
DICTIONARYVAR
  5
3AC
102
{ACAD_REACTORS
330
3AA
102
}
330
3AA
100
DictionaryVariables
280
     0
  1
2
  0
DICTIONARY
  5
3E0
330
6C
100
AcDbDictionary
280
     1
281
     1
  3
ACAD_XREC_ROUNDTRIP
360
3E1
  0
DICTIONARY
  5
3DD
330
6A
100
AcDbDictionary
280
     1
281
     1
  3
ACAD_ROUNDTRIP_2008_TABLESTYLE_CELLSTYLEMAP
360
3DE
  0
DICTIONARY
  5
3B5
330
2F
100
AcDbDictionary
280
     1
281
     1
  3
ACAD_XREC_ROUNDTRIP
360
3B6
  0
DICTIONARY
  5
3BB
330
32
100
AcDbDictionary
280
     1
281
     1
  3
ACAD_XREC_ROUNDTRIP
360
3BC
  0
DICTIONARY
  5
3C3
330
36
100
AcDbDictionary
280
     1
281
     1
  3
ACAD_XREC_ROUNDTRIP
360
3C4
  0
DICTIONARY
  5
3CB
330
3A
100
AcDbDictionary
280
     1
281
     1
  3
ACAD_XREC_ROUNDTRIP
360
3CC
  0
DICTIONARY
  5
3BF
330
34
100
AcDbDictionary
280
     1
281
     1
  3
ACAD_XREC_ROUNDTRIP
360
3C0
  0
DICTIONARY
  5
3C1
330
35
100
AcDbDictionary
280
     1
281
     1
  3
ACAD_XREC_ROUNDTRIP
360
3C2
  0
DICTIONARY
  5
3D1
330
3D
100
AcDbDictionary
280
     1
281
     1
  3
ACAD_XREC_ROUNDTRIP
360
3D2
  0
DICTIONARY
  5
3C9
330
39
100
AcDbDictionary
280
     1
281
     1
  3
ACAD_XREC_ROUNDTRIP
360
3CA
  0
DICTIONARY
  5
3AD
330
2B
100
AcDbDictionary
280
     1
281
     1
  3
ACAD_XREC_ROUNDTRIP
360
3AE
  0
DICTIONARY
  5
3AF
330
2C
100
AcDbDictionary
280
     1
281
     1
  3
ACAD_XREC_ROUNDTRIP
360
3B0
  0
DICTIONARY
  5
3B1
330
2D
100
AcDbDictionary
280
     1
281
     1
  3
ACAD_XREC_ROUNDTRIP
360
3B2
  0
DICTIONARY
  5
3B3
330
2E
100
AcDbDictionary
280
     1
281
     1
  3
ACAD_XREC_ROUNDTRIP
360
3B4
  0
DICTIONARY
  5
3B9
330
31
100
AcDbDictionary
280
     1
281
     1
  3
ACAD_XREC_ROUNDTRIP
360
3BA
  0
DICTIONARY
  5
3CD
330
3B
100
AcDbDictionary
280
     1
281
     1
  3
ACAD_XREC_ROUNDTRIP
360
3CE
  0
DICTIONARY
  5
3C7
330
38
100
AcDbDictionary
280
     1
281
     1
  3
ACAD_XREC_ROUNDTRIP
360
3C8
  0
DICTIONARY
  5
3CF
330
3C
100
AcDbDictionary
280
     1
281
     1
  3
ACAD_XREC_ROUNDTRIP
360
3D0
  0
DICTIONARY
  5
3BD
330
33
100
AcDbDictionary
280
     1
281
     1
  3
ACAD_XREC_ROUNDTRIP
360
3BE
  0
DICTIONARY
  5
3DB
330
42
100
AcDbDictionary
280
     1
281
     1
  3
ACAD_XREC_ROUNDTRIP
360
3DC
  0
DICTIONARY
  5
3D9
330
41
100
AcDbDictionary
280
     1
281
     1
  3
ACAD_XREC_ROUNDTRIP
360
3DA
  0
DICTIONARY
  5
3D3
330
3E
100
AcDbDictionary
280
     1
281
     1
  3
ACAD_XREC_ROUNDTRIP
360
3D4
  0
DICTIONARY
  5
3D5
330
3F
100
AcDbDictionary
280
     1
281
     1
  3
ACAD_XREC_ROUNDTRIP
360
3D6
  0
DICTIONARY
  5
3C5
330
37
100
AcDbDictionary
280
     1
281
     1
  3
ACAD_XREC_ROUNDTRIP
360
3C6
  0
DICTIONARY
  5
3B7
330
30
100
AcDbDictionary
280
     1
281
     1
  3
ACAD_XREC_ROUNDTRIP
360
3B8
  0
DICTIONARY
  5
3D7
330
40
100
AcDbDictionary
280
     1
281
     1
  3
ACAD_XREC_ROUNDTRIP
360
3D8
  0
XRECORD
  5
3E1
102
{ACAD_REACTORS
330
3E0
102
}
330
3E0
100
AcDbXrecord
280
     1
102
ACAD_ROUNDTRIP_2010_MLEADER_STYLE
  0
CELLSTYLEMAP
  5
3DE
102
{ACAD_REACTORS
330
3DD
102
}
330
3DD
100
AcDbCellStyleMap
 90
        3
300
CELLSTYLE
  1
TABLEFORMAT_BEGIN
 90
        5
170
     1
 91
        0
 92
    32768
 62
   257
 93
        1
300
CONTENTFORMAT
  1
CONTENTFORMAT_BEGIN
 90
        0
 91
        0
 92
        4
 93
        0
300

 40
0.0
140
1.0
 94
        5
 62
     0
340
11
144
6.0
309
CONTENTFORMAT_END
171
     1
301
MARGIN
  1
CELLMARGIN_BEGIN
 40
1.5
 40
1.5
 40
1.5
 40
1.5
 40
1.5
 40
1.5
309
CELLMARGIN_END
 94
        6
 95
        1
302
GRIDFORMAT
  1
GRIDFORMAT_BEGIN
 90
        0
 91
        1
 62
     0
 92
       -2
340
14
 93
        0
 40
0.045
309
GRIDFORMAT_END
 95
        2
302
GRIDFORMAT
  1
GRIDFORMAT_BEGIN
 90
        0
 91
        1
 62
     0
 92
       -2
340
14
 93
        0
 40
0.045
309
GRIDFORMAT_END
 95
        4
302
GRIDFORMAT
  1
GRIDFORMAT_BEGIN
 90
        0
 91
        1
 62
     0
 92
       -2
340
14
 93
        0
 40
0.045
309
GRIDFORMAT_END
 95
        8
302
GRIDFORMAT
  1
GRIDFORMAT_BEGIN
 90
        0
 91
        1
 62
     0
 92
       -2
340
14
 93
        0
 40
0.045
309
GRIDFORMAT_END
 95
       16
302
GRIDFORMAT
  1
GRIDFORMAT_BEGIN
 90
        0
 91
        1
 62
     0
 92
       -2
340
14
 93
        0
 40
0.045
309
GRIDFORMAT_END
 95
       32
302
GRIDFORMAT
  1
GRIDFORMAT_BEGIN
 90
        0
 91
        1
 62
     0
 92
       -2
340
14
 93
        0
 40
0.045
309
GRIDFORMAT_END
309
TABLEFORMAT_END
  1
CELLSTYLE_BEGIN
 90
        1
 91
        1
300
_TITLE
309
CELLSTYLE_END
300
CELLSTYLE
  1
TABLEFORMAT_BEGIN
 90
        5
170
     1
 91
        0
 92
        0
 62
   257
 93
        1
300
CONTENTFORMAT
  1
CONTENTFORMAT_BEGIN
 90
        0
 91
        0
 92
        4
 93
        0
300

 40
0.0
140
1.0
 94
        5
 62
     0
340
11
144
4.5
309
CONTENTFORMAT_END
171
     1
301
MARGIN
  1
CELLMARGIN_BEGIN
 40
1.5
 40
1.5
 40
1.5
 40
1.5
 40
1.5
 40
1.5
309
CELLMARGIN_END
 94
        6
 95
        1
302
GRIDFORMAT
  1
GRIDFORMAT_BEGIN
 90
        0
 91
        1
 62
     0
 92
       -2
340
14
 93
        0
 40
0.045
309
GRIDFORMAT_END
 95
        2
302
GRIDFORMAT
  1
GRIDFORMAT_BEGIN
 90
        0
 91
        1
 62
     0
 92
       -2
340
14
 93
        0
 40
0.045
309
GRIDFORMAT_END
 95
        4
302
GRIDFORMAT
  1
GRIDFORMAT_BEGIN
 90
        0
 91
        1
 62
     0
 92
       -2
340
14
 93
        0
 40
0.045
309
GRIDFORMAT_END
 95
        8
302
GRIDFORMAT
  1
GRIDFORMAT_BEGIN
 90
        0
 91
        1
 62
     0
 92
       -2
340
14
 93
        0
 40
0.045
309
GRIDFORMAT_END
 95
       16
302
GRIDFORMAT
  1
GRIDFORMAT_BEGIN
 90
        0
 91
        1
 62
     0
 92
       -2
340
14
 93
        0
 40
0.045
309
GRIDFORMAT_END
 95
       32
302
GRIDFORMAT
  1
GRIDFORMAT_BEGIN
 90
        0
 91
        1
 62
     0
 92
       -2
340
14
 93
        0
 40
0.045
309
GRIDFORMAT_END
309
TABLEFORMAT_END
  1
CELLSTYLE_BEGIN
 90
        2
 91
        1
300
_HEADER
309
CELLSTYLE_END
300
CELLSTYLE
  1
TABLEFORMAT_BEGIN
 90
        5
170
     1
 91
        0
 92
        0
 62
   257
 93
        1
300
CONTENTFORMAT
  1
CONTENTFORMAT_BEGIN
 90
        0
 91
        0
 92
        4
 93
        0
300

 40
0.0
140
1.0
 94
        2
 62
     0
340
11
144
4.5
309
CONTENTFORMAT_END
171
     1
301
MARGIN
  1
CELLMARGIN_BEGIN
 40
1.5
 40
1.5
 40
1.5
 40
1.5
 40
1.5
 40
1.5
309
CELLMARGIN_END
 94
        6
 95
        1
302
GRIDFORMAT
  1
GRIDFORMAT_BEGIN
 90
        0
 91
        1
 62
     0
 92
       -2
340
14
 93
        0
 40
0.045
309
GRIDFORMAT_END
 95
        2
302
GRIDFORMAT
  1
GRIDFORMAT_BEGIN
 90
        0
 91
        1
 62
     0
 92
       -2
340
14
 93
        0
 40
0.045
309
GRIDFORMAT_END
 95
        4
302
GRIDFORMAT
  1
GRIDFORMAT_BEGIN
 90
        0
 91
        1
 62
     0
 92
       -2
340
14
 93
        0
 40
0.045
309
GRIDFORMAT_END
 95
        8
302
GRIDFORMAT
  1
GRIDFORMAT_BEGIN
 90
        0
 91
        1
 62
     0
 92
       -2
340
14
 93
        0
 40
0.045
309
GRIDFORMAT_END
 95
       16
302
GRIDFORMAT
  1
GRIDFORMAT_BEGIN
 90
        0
 91
        1
 62
     0
 92
       -2
340
14
 93
        0
 40
0.045
309
GRIDFORMAT_END
 95
       32
302
GRIDFORMAT
  1
GRIDFORMAT_BEGIN
 90
        0
 91
        1
 62
     0
 92
       -2
340
14
 93
        0
 40
0.045
309
GRIDFORMAT_END
309
TABLEFORMAT_END
  1
CELLSTYLE_BEGIN
 90
        3
 91
        2
300
_DATA
309
CELLSTYLE_END
  0
XRECORD
  5
3B6
102
{ACAD_REACTORS
330
3B5
102
}
330
3B5
100
AcDbXrecord
280
     1
102
RTVSPropertyOp0
 70
     1
102
RTVSPropertyOp1
 70
     1
102
RTVSPropertyOp2
 70
     1
102
RTVSPropertyOp3
 70
     1
102
RTVSPropertyOp4
 70
     1
102
RTVSPropertyOp5
 70
     1
102
RTVSPropertyOp6
 70
     1
102
RTVSPropertyOp7
 70
     1
102
RTVSPropertyOp8
 70
     1
102
RTVSPropertyOp9
 70
     1
102
RTVSPropertyOp10
 70
     1
102
RTVSPropertyOp11
 70
     1
102
RTVSPropertyOp12
 70
     1
102
RTVSPropertyOp13
 70
     1
102
RTVSPropertyOp14
 70
     1
102
RTVSPropertyOp15
 70
     1
102
RTVSPropertyOp16
 70
     1
102
RTVSPropertyOp17
 70
     1
102
RTVSPropertyOp18
 70
     1
102
RTVSPropertyOp19
 70
     1
102
RTVSPropertyOp20
 70
     1
102
RTVSPropertyOp21
 70
     1
102
RTVSPropertyOp22
 70
     1
102
RTVSPropertyOp23
 70
     1
102
RTVSPropertyOp24
 70
     1
102
RTVSPropertyOp25
 70
     1
102
RTVSPropertyOp26
 70
     1
102
RTVSPropertyOp27
 70
     1
102
RTVSPropertyOp28
 70
     1
102
RTVSPropertyOp29
 70
     1
102
RTVSPropertyOp30
 70
     1
102
RTVSPropertyOp31
 70
     1
102
RTVSPropertyOp32
 70
     1
102
RTVSPropertyOp33
 70
     1
102
RTVSPropertyOp34
 70
     1
102
RTVSPropertyOp35
 70
     1
102
RTVSPropertyOp36
 70
     1
102
RTVSPropertyOp37
 70
     1
102
RTVSPropertyOp38
 70
     1
102
RTVSPropertyOp39
 70
     1
102
RTVSPropertyOp40
 70
     1
102
RTVSPropertyOp41
 70
     1
102
RTVSPropertyOp42
 70
     1
102
RTVSPropertyOp43
 70
     1
102
RTVSPropertyOp44
 70
     1
102
RTVSPropertyOp45
 70
     1
102
RTVSPropertyOp46
 70
     1
102
RTVSPropertyOp47
 70
     1
102
RTVSPropertyOp48
 70
     1
102
RTVSPropertyOp49
 70
     1
102
RTVSPropertyOp50
 70
     1
102
RTVSPropertyOp51
 70
     0
102
RTVSPropertyOp52
 70
     0
102
RTVSPropertyOp53
 70
     1
102
RTVSPropertyOp54
 70
     1
102
RTVSPropertyOp55
 70
     1
102
RTVSPropertyOp56
 70
     1
102
RTVSPropertyOp57
 70
     1
102
RTVSPost2010Prop28
280
     1
102
RTVSPost2010PropOp28
 70
     1
102
RTVSPost2010Prop29
280
     1
102
RTVSPost2010PropOp29
 70
     1
102
RTVSPost2010Prop30
280
     0
102
RTVSPost2010PropOp30
 70
     1
102
RTVSPost2010Prop31
280
     0
102
RTVSPost2010PropOp31
 70
     1
102
RTVSPost2010Prop32
280
     0
102
RTVSPost2010PropOp32
 70
     1
102
RTVSPost2010Prop33
280
     0
102
RTVSPost2010PropOp33
 70
     1
102
RTVSPost2010Prop34
280
     0
102
RTVSPost2010PropOp34
 70
     1
102
RTVSPost2010Prop35
280
     0
102
RTVSPost2010PropOp35
 70
     1
102
RTVSPost2010Prop36
280
     0
102
RTVSPost2010PropOp36
 70
     1
102
RTVSPost2010Prop37
 90
       50
102
RTVSPost2010PropOp37
 70
     1
102
RTVSPost2010Prop38
140
0.0
102
RTVSPost2010PropOp38
 70
     1
102
RTVSPost2010Prop39
140
1.0
102
RTVSPost2010PropOp39
 70
     1
102
RTVSPost2010Prop40
 90
        0
102
RTVSPost2010PropOp40
 70
     1
102
RTVSPost2010Prop41ColorIndex
 90
       18
102
RTVSPost2010Prop41ColorRGB
 90
        0
102
RTVSPost2010PropOp41
 70
     1
102
RTVSPost2010Prop42
 90
       50
102
RTVSPost2010PropOp42
 70
     1
102
RTVSPost2010Prop43
 90
        3
102
RTVSPost2010PropOp43
 70
     1
102
RTVSPost2010Prop44ColorIndex
 90
        5
102
RTVSPost2010Prop44ColorRGB
 90
      255
102
RTVSPost2010PropOp44
 70
     1
102
RTVSPost2010Prop45
280
     0
102
RTVSPost2010PropOp45
 70
     1
102
RTVSPost2010Prop46
 90
       50
102
RTVSPost2010PropOp46
 70
     1
102
RTVSPost2010Prop47
 90
       50
102
RTVSPost2010PropOp47
 70
     1
102
RTVSPost2010Prop48
 90
       50
102
RTVSPost2010PropOp48
 70
     1
102
RTVSPost2010Prop49
280
     0
102
RTVSPost2010PropOp49
 70
     1
102
RTVSPost2010Prop50
 90
       50
102
RTVSPost2010PropOp50
 70
     1
102
RTVSPost2010Prop51ColorIndex
 90
      256
102
RTVSPost2010Prop51ColorRGB
 90
-16777216
102
RTVSPost2010PropOp51
 70
     0
102
RTVSPost2010Prop52
140
1.0
102
RTVSPost2010PropOp52
 70
     0
102
RTVSPost2010Prop53
 90
        2
102
RTVSPost2010PropOp53
 70
     1
102
RTVSPost2010Prop54
  1
strokes_ogs.tif
102
RTVSPost2010PropOp54
 70
     1
102
RTVSPost2010Prop55
280
     0
102
RTVSPost2010PropOp55
 70
     1
102
RTVSPost2010Prop56
140
1.0
102
RTVSPost2010PropOp56
 70
     1
102
RTVSPost2010Prop57
140
1.0
102
RTVSPost2010PropOp57
 70
     1
  0
XRECORD
  5
3BC
102
{ACAD_REACTORS
330
3BB
102
}
330
3BB
100
AcDbXrecord
280
     1
102
RTVSPropertyOp0
 70
     1
102
RTVSPropertyOp1
 70
     1
102
RTVSPropertyOp2
 70
     1
102
RTVSPropertyOp3
 70
     1
102
RTVSPropertyOp4
 70
     1
102
RTVSPropertyOp5
 70
     1
102
RTVSPropertyOp6
 70
     1
102
RTVSPropertyOp7
 70
     1
102
RTVSPropertyOp8
 70
     1
102
RTVSPropertyOp9
 70
     1
102
RTVSPropertyOp10
 70
     1
102
RTVSPropertyOp11
 70
     1
102
RTVSPropertyOp12
 70
     1
102
RTVSPropertyOp13
 70
     1
102
RTVSPropertyOp14
 70
     1
102
RTVSPropertyOp15
 70
     1
102
RTVSPropertyOp16
 70
     1
102
RTVSPropertyOp17
 70
     1
102
RTVSPropertyOp18
 70
     1
102
RTVSPropertyOp19
 70
     1
102
RTVSPropertyOp20
 70
     1
102
RTVSPropertyOp21
 70
     1
102
RTVSPropertyOp22
 70
     1
102
RTVSPropertyOp23
 70
     1
102
RTVSPropertyOp24
 70
     1
102
RTVSPropertyOp25
 70
     1
102
RTVSPropertyOp26
 70
     1
102
RTVSPropertyOp27
 70
     1
102
RTVSPropertyOp28
 70
     1
102
RTVSPropertyOp29
 70
     1
102
RTVSPropertyOp30
 70
     1
102
RTVSPropertyOp31
 70
     1
102
RTVSPropertyOp32
 70
     1
102
RTVSPropertyOp33
 70
     1
102
RTVSPropertyOp34
 70
     1
102
RTVSPropertyOp35
 70
     1
102
RTVSPropertyOp36
 70
     1
102
RTVSPropertyOp37
 70
     1
102
RTVSPropertyOp38
 70
     1
102
RTVSPropertyOp39
 70
     1
102
RTVSPropertyOp40
 70
     1
102
RTVSPropertyOp41
 70
     1
102
RTVSPropertyOp42
 70
     1
102
RTVSPropertyOp43
 70
     1
102
RTVSPropertyOp44
 70
     1
102
RTVSPropertyOp45
 70
     1
102
RTVSPropertyOp46
 70
     1
102
RTVSPropertyOp47
 70
     1
102
RTVSPropertyOp48
 70
     1
102
RTVSPropertyOp49
 70
     1
102
RTVSPropertyOp50
 70
     1
102
RTVSPropertyOp51
 70
     0
102
RTVSPropertyOp52
 70
     0
102
RTVSPropertyOp53
 70
     1
102
RTVSPropertyOp54
 70
     1
102
RTVSPropertyOp55
 70
     1
102
RTVSPropertyOp56
 70
     1
102
RTVSPropertyOp57
 70
     1
102
RTVSPost2010Prop28
280
     0
102
RTVSPost2010PropOp28
 70
     1
102
RTVSPost2010Prop29
280
     1
102
RTVSPost2010PropOp29
 70
     1
102
RTVSPost2010Prop30
280
     1
102
RTVSPost2010PropOp30
 70
     1
102
RTVSPost2010Prop31
280
     0
102
RTVSPost2010PropOp31
 70
     1
102
RTVSPost2010Prop32
280
     0
102
RTVSPost2010PropOp32
 70
     1
102
RTVSPost2010Prop33
280
     0
102
RTVSPost2010PropOp33
 70
     1
102
RTVSPost2010Prop34
280
     0
102
RTVSPost2010PropOp34
 70
     1
102
RTVSPost2010Prop35
280
     0
102
RTVSPost2010PropOp35
 70
     1
102
RTVSPost2010Prop36
280
     0
102
RTVSPost2010PropOp36
 70
     1
102
RTVSPost2010Prop37
 90
       50
102
RTVSPost2010PropOp37
 70
     1
102
RTVSPost2010Prop38
140
0.0
102
RTVSPost2010PropOp38
 70
     1
102
RTVSPost2010Prop39
140
1.0
102
RTVSPost2010PropOp39
 70
     1
102
RTVSPost2010Prop40
 90
        0
102
RTVSPost2010PropOp40
 70
     1
102
RTVSPost2010Prop41ColorIndex
 90
       18
102
RTVSPost2010Prop41ColorRGB
 90
        0
102
RTVSPost2010PropOp41
 70
     1
102
RTVSPost2010Prop42
 90
       50
102
RTVSPost2010PropOp42
 70
     1
102
RTVSPost2010Prop43
 90
        3
102
RTVSPost2010PropOp43
 70
     1
102
RTVSPost2010Prop44ColorIndex
 90
        5
102
RTVSPost2010Prop44ColorRGB
 90
      255
102
RTVSPost2010PropOp44
 70
     1
102
RTVSPost2010Prop45
280
     0
102
RTVSPost2010PropOp45
 70
     1
102
RTVSPost2010Prop46
 90
       50
102
RTVSPost2010PropOp46
 70
     1
102
RTVSPost2010Prop47
 90
       50
102
RTVSPost2010PropOp47
 70
     1
102
RTVSPost2010Prop48
 90
       50
102
RTVSPost2010PropOp48
 70
     1
102
RTVSPost2010Prop49
280
     0
102
RTVSPost2010PropOp49
 70
     1
102
RTVSPost2010Prop50
 90
       50
102
RTVSPost2010PropOp50
 70
     1
102
RTVSPost2010Prop51ColorIndex
 90
      256
102
RTVSPost2010Prop51ColorRGB
 90
-16777216
102
RTVSPost2010PropOp51
 70
     0
102
RTVSPost2010Prop52
140
1.0
102
RTVSPost2010PropOp52
 70
     0
102
RTVSPost2010Prop53
 90
        2
102
RTVSPost2010PropOp53
 70
     1
102
RTVSPost2010Prop54
  1
strokes_ogs.tif
102
RTVSPost2010PropOp54
 70
     1
102
RTVSPost2010Prop55
280
     0
102
RTVSPost2010PropOp55
 70
     1
102
RTVSPost2010Prop56
140
1.0
102
RTVSPost2010PropOp56
 70
     1
102
RTVSPost2010Prop57
140
1.0
102
RTVSPost2010PropOp57
 70
     1
  0
XRECORD
  5
3C4
102
{ACAD_REACTORS
330
3C3
102
}
330
3C3
100
AcDbXrecord
280
     1
102
RTVSPropertyOp0
 70
     1
102
RTVSPropertyOp1
 70
     1
102
RTVSPropertyOp2
 70
     1
102
RTVSPropertyOp3
 70
     1
102
RTVSPropertyOp4
 70
     1
102
RTVSPropertyOp5
 70
     1
102
RTVSPropertyOp6
 70
     1
102
RTVSPropertyOp7
 70
     1
102
RTVSPropertyOp8
 70
     1
102
RTVSPropertyOp9
 70
     1
102
RTVSPropertyOp10
 70
     1
102
RTVSPropertyOp11
 70
     1
102
RTVSPropertyOp12
 70
     1
102
RTVSPropertyOp13
 70
     1
102
RTVSPropertyOp14
 70
     1
102
RTVSPropertyOp15
 70
     1
102
RTVSPropertyOp16
 70
     1
102
RTVSPropertyOp17
 70
     1
102
RTVSPropertyOp18
 70
     1
102
RTVSPropertyOp19
 70
     1
102
RTVSPropertyOp20
 70
     1
102
RTVSPropertyOp21
 70
     1
102
RTVSPropertyOp22
 70
     1
102
RTVSPropertyOp23
 70
     1
102
RTVSPropertyOp24
 70
     1
102
RTVSPropertyOp25
 70
     1
102
RTVSPropertyOp26
 70
     1
102
RTVSPropertyOp27
 70
     1
102
RTVSPropertyOp28
 70
     1
102
RTVSPropertyOp29
 70
     1
102
RTVSPropertyOp30
 70
     1
102
RTVSPropertyOp31
 70
     1
102
RTVSPropertyOp32
 70
     1
102
RTVSPropertyOp33
 70
     1
102
RTVSPropertyOp34
 70
     1
102
RTVSPropertyOp35
 70
     1
102
RTVSPropertyOp36
 70
     1
102
RTVSPropertyOp37
 70
     1
102
RTVSPropertyOp38
 70
     1
102
RTVSPropertyOp39
 70
     1
102
RTVSPropertyOp40
 70
     1
102
RTVSPropertyOp41
 70
     1
102
RTVSPropertyOp42
 70
     1
102
RTVSPropertyOp43
 70
     1
102
RTVSPropertyOp44
 70
     1
102
RTVSPropertyOp45
 70
     1
102
RTVSPropertyOp46
 70
     1
102
RTVSPropertyOp47
 70
     1
102
RTVSPropertyOp48
 70
     1
102
RTVSPropertyOp49
 70
     1
102
RTVSPropertyOp50
 70
     1
102
RTVSPropertyOp51
 70
     0
102
RTVSPropertyOp52
 70
     0
102
RTVSPropertyOp53
 70
     1
102
RTVSPropertyOp54
 70
     1
102
RTVSPropertyOp55
 70
     1
102
RTVSPropertyOp56
 70
     1
102
RTVSPropertyOp57
 70
     1
102
RTVSPost2010Prop28
280
     0
102
RTVSPost2010PropOp28
 70
     1
102
RTVSPost2010Prop29
280
     1
102
RTVSPost2010PropOp29
 70
     1
102
RTVSPost2010Prop30
280
     1
102
RTVSPost2010PropOp30
 70
     1
102
RTVSPost2010Prop31
280
     0
102
RTVSPost2010PropOp31
 70
     1
102
RTVSPost2010Prop32
280
     0
102
RTVSPost2010PropOp32
 70
     1
102
RTVSPost2010Prop33
280
     0
102
RTVSPost2010PropOp33
 70
     1
102
RTVSPost2010Prop34
280
     0
102
RTVSPost2010PropOp34
 70
     1
102
RTVSPost2010Prop35
280
     0
102
RTVSPost2010PropOp35
 70
     1
102
RTVSPost2010Prop36
280
     0
102
RTVSPost2010PropOp36
 70
     1
102
RTVSPost2010Prop37
 90
       50
102
RTVSPost2010PropOp37
 70
     1
102
RTVSPost2010Prop38
140
0.0
102
RTVSPost2010PropOp38
 70
     1
102
RTVSPost2010Prop39
140
1.0
102
RTVSPost2010PropOp39
 70
     1
102
RTVSPost2010Prop40
 90
        0
102
RTVSPost2010PropOp40
 70
     1
102
RTVSPost2010Prop41ColorIndex
 90
       18
102
RTVSPost2010Prop41ColorRGB
 90
        0
102
RTVSPost2010PropOp41
 70
     1
102
RTVSPost2010Prop42
 90
       50
102
RTVSPost2010PropOp42
 70
     1
102
RTVSPost2010Prop43
 90
        3
102
RTVSPost2010PropOp43
 70
     1
102
RTVSPost2010Prop44ColorIndex
 90
        5
102
RTVSPost2010Prop44ColorRGB
 90
      255
102
RTVSPost2010PropOp44
 70
     1
102
RTVSPost2010Prop45
280
     0
102
RTVSPost2010PropOp45
 70
     1
102
RTVSPost2010Prop46
 90
       50
102
RTVSPost2010PropOp46
 70
     1
102
RTVSPost2010Prop47
 90
       50
102
RTVSPost2010PropOp47
 70
     1
102
RTVSPost2010Prop48
 90
       50
102
RTVSPost2010PropOp48
 70
     1
102
RTVSPost2010Prop49
280
     0
102
RTVSPost2010PropOp49
 70
     1
102
RTVSPost2010Prop50
 90
       50
102
RTVSPost2010PropOp50
 70
     1
102
RTVSPost2010Prop51ColorIndex
 90
      256
102
RTVSPost2010Prop51ColorRGB
 90
-16777216
102
RTVSPost2010PropOp51
 70
     0
102
RTVSPost2010Prop52
140
1.0
102
RTVSPost2010PropOp52
 70
     0
102
RTVSPost2010Prop53
 90
        2
102
RTVSPost2010PropOp53
 70
     1
102
RTVSPost2010Prop54
  1
strokes_ogs.tif
102
RTVSPost2010PropOp54
 70
     1
102
RTVSPost2010Prop55
280
     0
102
RTVSPost2010PropOp55
 70
     1
102
RTVSPost2010Prop56
140
1.0
102
RTVSPost2010PropOp56
 70
     1
102
RTVSPost2010Prop57
140
1.0
102
RTVSPost2010PropOp57
 70
     1
  0
XRECORD
  5
3CC
102
{ACAD_REACTORS
330
3CB
102
}
330
3CB
100
AcDbXrecord
280
     1
102
RTVSPropertyOp0
 70
     1
102
RTVSPropertyOp1
 70
     1
102
RTVSPropertyOp2
 70
     1
102
RTVSPropertyOp3
 70
     1
102
RTVSPropertyOp4
 70
     1
102
RTVSPropertyOp5
 70
     1
102
RTVSPropertyOp6
 70
     1
102
RTVSPropertyOp7
 70
     1
102
RTVSPropertyOp8
 70
     1
102
RTVSPropertyOp9
 70
     1
102
RTVSPropertyOp10
 70
     1
102
RTVSPropertyOp11
 70
     1
102
RTVSPropertyOp12
 70
     1
102
RTVSPropertyOp13
 70
     1
102
RTVSPropertyOp14
 70
     1
102
RTVSPropertyOp15
 70
     1
102
RTVSPropertyOp16
 70
     1
102
RTVSPropertyOp17
 70
     1
102
RTVSPropertyOp18
 70
     1
102
RTVSPropertyOp19
 70
     1
102
RTVSPropertyOp20
 70
     1
102
RTVSPropertyOp21
 70
     1
102
RTVSPropertyOp22
 70
     1
102
RTVSPropertyOp23
 70
     1
102
RTVSPropertyOp24
 70
     1
102
RTVSPropertyOp25
 70
     1
102
RTVSPropertyOp26
 70
     1
102
RTVSPropertyOp27
 70
     1
102
RTVSPropertyOp28
 70
     1
102
RTVSPropertyOp29
 70
     1
102
RTVSPropertyOp30
 70
     1
102
RTVSPropertyOp31
 70
     1
102
RTVSPropertyOp32
 70
     1
102
RTVSPropertyOp33
 70
     1
102
RTVSPropertyOp34
 70
     1
102
RTVSPropertyOp35
 70
     1
102
RTVSPropertyOp36
 70
     1
102
RTVSPropertyOp37
 70
     1
102
RTVSPropertyOp38
 70
     1
102
RTVSPropertyOp39
 70
     1
102
RTVSPropertyOp40
 70
     1
102
RTVSPropertyOp41
 70
     1
102
RTVSPropertyOp42
 70
     1
102
RTVSPropertyOp43
 70
     1
102
RTVSPropertyOp44
 70
     1
102
RTVSPropertyOp45
 70
     1
102
RTVSPropertyOp46
 70
     1
102
RTVSPropertyOp47
 70
     1
102
RTVSPropertyOp48
 70
     1
102
RTVSPropertyOp49
 70
     1
102
RTVSPropertyOp50
 70
     1
102
RTVSPropertyOp51
 70
     0
102
RTVSPropertyOp52
 70
     0
102
RTVSPropertyOp53
 70
     1
102
RTVSPropertyOp54
 70
     1
102
RTVSPropertyOp55
 70
     1
102
RTVSPropertyOp56
 70
     1
102
RTVSPropertyOp57
 70
     1
102
RTVSPost2010Prop28
280
     0
102
RTVSPost2010PropOp28
 70
     1
102
RTVSPost2010Prop29
280
     1
102
RTVSPost2010PropOp29
 70
     1
102
RTVSPost2010Prop30
280
     1
102
RTVSPost2010PropOp30
 70
     1
102
RTVSPost2010Prop31
280
     0
102
RTVSPost2010PropOp31
 70
     1
102
RTVSPost2010Prop32
280
     0
102
RTVSPost2010PropOp32
 70
     1
102
RTVSPost2010Prop33
280
     0
102
RTVSPost2010PropOp33
 70
     1
102
RTVSPost2010Prop34
280
     0
102
RTVSPost2010PropOp34
 70
     1
102
RTVSPost2010Prop35
280
     0
102
RTVSPost2010PropOp35
 70
     1
102
RTVSPost2010Prop36
280
     0
102
RTVSPost2010PropOp36
 70
     1
102
RTVSPost2010Prop37
 90
       50
102
RTVSPost2010PropOp37
 70
     1
102
RTVSPost2010Prop38
140
0.0
102
RTVSPost2010PropOp38
 70
     1
102
RTVSPost2010Prop39
140
1.0
102
RTVSPost2010PropOp39
 70
     1
102
RTVSPost2010Prop40
 90
        0
102
RTVSPost2010PropOp40
 70
     1
102
RTVSPost2010Prop41ColorIndex
 90
       18
102
RTVSPost2010Prop41ColorRGB
 90
        0
102
RTVSPost2010PropOp41
 70
     1
102
RTVSPost2010Prop42
 90
       50
102
RTVSPost2010PropOp42
 70
     1
102
RTVSPost2010Prop43
 90
        3
102
RTVSPost2010PropOp43
 70
     1
102
RTVSPost2010Prop44ColorIndex
 90
        5
102
RTVSPost2010Prop44ColorRGB
 90
      255
102
RTVSPost2010PropOp44
 70
     1
102
RTVSPost2010Prop45
280
     0
102
RTVSPost2010PropOp45
 70
     1
102
RTVSPost2010Prop46
 90
       50
102
RTVSPost2010PropOp46
 70
     1
102
RTVSPost2010Prop47
 90
       50
102
RTVSPost2010PropOp47
 70
     1
102
RTVSPost2010Prop48
 90
       50
102
RTVSPost2010PropOp48
 70
     1
102
RTVSPost2010Prop49
280
     0
102
RTVSPost2010PropOp49
 70
     1
102
RTVSPost2010Prop50
 90
       50
102
RTVSPost2010PropOp50
 70
     1
102
RTVSPost2010Prop51ColorIndex
 90
      256
102
RTVSPost2010Prop51ColorRGB
 90
-16777216
102
RTVSPost2010PropOp51
 70
     0
102
RTVSPost2010Prop52
140
1.0
102
RTVSPost2010PropOp52
 70
     0
102
RTVSPost2010Prop53
 90
        2
102
RTVSPost2010PropOp53
 70
     1
102
RTVSPost2010Prop54
  1
strokes_ogs.tif
102
RTVSPost2010PropOp54
 70
     1
102
RTVSPost2010Prop55
280
     0
102
RTVSPost2010PropOp55
 70
     1
102
RTVSPost2010Prop56
140
1.0
102
RTVSPost2010PropOp56
 70
     1
102
RTVSPost2010Prop57
140
1.0
102
RTVSPost2010PropOp57
 70
     1
  0
XRECORD
  5
3C0
102
{ACAD_REACTORS
330
3BF
102
}
330
3BF
100
AcDbXrecord
280
     1
102
RTVSPropertyOp0
 70
     1
102
RTVSPropertyOp1
 70
     1
102
RTVSPropertyOp2
 70
     1
102
RTVSPropertyOp3
 70
     1
102
RTVSPropertyOp4
 70
     1
102
RTVSPropertyOp5
 70
     1
102
RTVSPropertyOp6
 70
     1
102
RTVSPropertyOp7
 70
     1
102
RTVSPropertyOp8
 70
     1
102
RTVSPropertyOp9
 70
     1
102
RTVSPropertyOp10
 70
     1
102
RTVSPropertyOp11
 70
     1
102
RTVSPropertyOp12
 70
     1
102
RTVSPropertyOp13
 70
     1
102
RTVSPropertyOp14
 70
     1
102
RTVSPropertyOp15
 70
     1
102
RTVSPropertyOp16
 70
     1
102
RTVSPropertyOp17
 70
     1
102
RTVSPropertyOp18
 70
     1
102
RTVSPropertyOp19
 70
     1
102
RTVSPropertyOp20
 70
     1
102
RTVSPropertyOp21
 70
     1
102
RTVSPropertyOp22
 70
     1
102
RTVSPropertyOp23
 70
     1
102
RTVSPropertyOp24
 70
     1
102
RTVSPropertyOp25
 70
     1
102
RTVSPropertyOp26
 70
     1
102
RTVSPropertyOp27
 70
     1
102
RTVSPropertyOp28
 70
     1
102
RTVSPropertyOp29
 70
     1
102
RTVSPropertyOp30
 70
     1
102
RTVSPropertyOp31
 70
     1
102
RTVSPropertyOp32
 70
     1
102
RTVSPropertyOp33
 70
     1
102
RTVSPropertyOp34
 70
     1
102
RTVSPropertyOp35
 70
     1
102
RTVSPropertyOp36
 70
     1
102
RTVSPropertyOp37
 70
     1
102
RTVSPropertyOp38
 70
     1
102
RTVSPropertyOp39
 70
     1
102
RTVSPropertyOp40
 70
     1
102
RTVSPropertyOp41
 70
     1
102
RTVSPropertyOp42
 70
     1
102
RTVSPropertyOp43
 70
     1
102
RTVSPropertyOp44
 70
     1
102
RTVSPropertyOp45
 70
     1
102
RTVSPropertyOp46
 70
     1
102
RTVSPropertyOp47
 70
     1
102
RTVSPropertyOp48
 70
     1
102
RTVSPropertyOp49
 70
     1
102
RTVSPropertyOp50
 70
     1
102
RTVSPropertyOp51
 70
     0
102
RTVSPropertyOp52
 70
     0
102
RTVSPropertyOp53
 70
     1
102
RTVSPropertyOp54
 70
     1
102
RTVSPropertyOp55
 70
     1
102
RTVSPropertyOp56
 70
     1
102
RTVSPropertyOp57
 70
     1
102
RTVSPost2010Prop28
280
     0
102
RTVSPost2010PropOp28
 70
     1
102
RTVSPost2010Prop29
280
     1
102
RTVSPost2010PropOp29
 70
     1
102
RTVSPost2010Prop30
280
     1
102
RTVSPost2010PropOp30
 70
     1
102
RTVSPost2010Prop31
280
     0
102
RTVSPost2010PropOp31
 70
     1
102
RTVSPost2010Prop32
280
     0
102
RTVSPost2010PropOp32
 70
     1
102
RTVSPost2010Prop33
280
     0
102
RTVSPost2010PropOp33
 70
     1
102
RTVSPost2010Prop34
280
     0
102
RTVSPost2010PropOp34
 70
     1
102
RTVSPost2010Prop35
280
     0
102
RTVSPost2010PropOp35
 70
     1
102
RTVSPost2010Prop36
280
     0
102
RTVSPost2010PropOp36
 70
     1
102
RTVSPost2010Prop37
 90
       50
102
RTVSPost2010PropOp37
 70
     1
102
RTVSPost2010Prop38
140
0.0
102
RTVSPost2010PropOp38
 70
     1
102
RTVSPost2010Prop39
140
1.0
102
RTVSPost2010PropOp39
 70
     1
102
RTVSPost2010Prop40
 90
        0
102
RTVSPost2010PropOp40
 70
     1
102
RTVSPost2010Prop41ColorIndex
 90
       18
102
RTVSPost2010Prop41ColorRGB
 90
        0
102
RTVSPost2010PropOp41
 70
     1
102
RTVSPost2010Prop42
 90
       50
102
RTVSPost2010PropOp42
 70
     1
102
RTVSPost2010Prop43
 90
        3
102
RTVSPost2010PropOp43
 70
     1
102
RTVSPost2010Prop44ColorIndex
 90
        5
102
RTVSPost2010Prop44ColorRGB
 90
      255
102
RTVSPost2010PropOp44
 70
     1
102
RTVSPost2010Prop45
280
     0
102
RTVSPost2010PropOp45
 70
     1
102
RTVSPost2010Prop46
 90
       50
102
RTVSPost2010PropOp46
 70
     1
102
RTVSPost2010Prop47
 90
       50
102
RTVSPost2010PropOp47
 70
     1
102
RTVSPost2010Prop48
 90
       50
102
RTVSPost2010PropOp48
 70
     1
102
RTVSPost2010Prop49
280
     0
102
RTVSPost2010PropOp49
 70
     1
102
RTVSPost2010Prop50
 90
       50
102
RTVSPost2010PropOp50
 70
     1
102
RTVSPost2010Prop51ColorIndex
 90
      256
102
RTVSPost2010Prop51ColorRGB
 90
-16777216
102
RTVSPost2010PropOp51
 70
     0
102
RTVSPost2010Prop52
140
1.0
102
RTVSPost2010PropOp52
 70
     0
102
RTVSPost2010Prop53
 90
        2
102
RTVSPost2010PropOp53
 70
     1
102
RTVSPost2010Prop54
  1
strokes_ogs.tif
102
RTVSPost2010PropOp54
 70
     1
102
RTVSPost2010Prop55
280
     0
102
RTVSPost2010PropOp55
 70
     1
102
RTVSPost2010Prop56
140
1.0
102
RTVSPost2010PropOp56
 70
     1
102
RTVSPost2010Prop57
140
1.0
102
RTVSPost2010PropOp57
 70
     1
  0
XRECORD
  5
3C2
102
{ACAD_REACTORS
330
3C1
102
}
330
3C1
100
AcDbXrecord
280
     1
102
RTVSPropertyOp0
 70
     1
102
RTVSPropertyOp1
 70
     1
102
RTVSPropertyOp2
 70
     1
102
RTVSPropertyOp3
 70
     1
102
RTVSPropertyOp4
 70
     1
102
RTVSPropertyOp5
 70
     1
102
RTVSPropertyOp6
 70
     1
102
RTVSPropertyOp7
 70
     1
102
RTVSPropertyOp8
 70
     1
102
RTVSPropertyOp9
 70
     1
102
RTVSPropertyOp10
 70
     1
102
RTVSPropertyOp11
 70
     1
102
RTVSPropertyOp12
 70
     1
102
RTVSPropertyOp13
 70
     1
102
RTVSPropertyOp14
 70
     1
102
RTVSPropertyOp15
 70
     1
102
RTVSPropertyOp16
 70
     1
102
RTVSPropertyOp17
 70
     1
102
RTVSPropertyOp18
 70
     1
102
RTVSPropertyOp19
 70
     1
102
RTVSPropertyOp20
 70
     1
102
RTVSPropertyOp21
 70
     1
102
RTVSPropertyOp22
 70
     1
102
RTVSPropertyOp23
 70
     1
102
RTVSPropertyOp24
 70
     1
102
RTVSPropertyOp25
 70
     1
102
RTVSPropertyOp26
 70
     1
102
RTVSPropertyOp27
 70
     1
102
RTVSPropertyOp28
 70
     1
102
RTVSPropertyOp29
 70
     1
102
RTVSPropertyOp30
 70
     1
102
RTVSPropertyOp31
 70
     1
102
RTVSPropertyOp32
 70
     1
102
RTVSPropertyOp33
 70
     1
102
RTVSPropertyOp34
 70
     1
102
RTVSPropertyOp35
 70
     1
102
RTVSPropertyOp36
 70
     1
102
RTVSPropertyOp37
 70
     1
102
RTVSPropertyOp38
 70
     1
102
RTVSPropertyOp39
 70
     1
102
RTVSPropertyOp40
 70
     1
102
RTVSPropertyOp41
 70
     1
102
RTVSPropertyOp42
 70
     1
102
RTVSPropertyOp43
 70
     1
102
RTVSPropertyOp44
 70
     1
102
RTVSPropertyOp45
 70
     1
102
RTVSPropertyOp46
 70
     1
102
RTVSPropertyOp47
 70
     1
102
RTVSPropertyOp48
 70
     1
102
RTVSPropertyOp49
 70
     1
102
RTVSPropertyOp50
 70
     1
102
RTVSPropertyOp51
 70
     0
102
RTVSPropertyOp52
 70
     0
102
RTVSPropertyOp53
 70
     1
102
RTVSPropertyOp54
 70
     1
102
RTVSPropertyOp55
 70
     1
102
RTVSPropertyOp56
 70
     1
102
RTVSPropertyOp57
 70
     1
102
RTVSPost2010Prop28
280
     0
102
RTVSPost2010PropOp28
 70
     1
102
RTVSPost2010Prop29
280
     1
102
RTVSPost2010PropOp29
 70
     1
102
RTVSPost2010Prop30
280
     1
102
RTVSPost2010PropOp30
 70
     1
102
RTVSPost2010Prop31
280
     0
102
RTVSPost2010PropOp31
 70
     1
102
RTVSPost2010Prop32
280
     0
102
RTVSPost2010PropOp32
 70
     1
102
RTVSPost2010Prop33
280
     0
102
RTVSPost2010PropOp33
 70
     1
102
RTVSPost2010Prop34
280
     0
102
RTVSPost2010PropOp34
 70
     1
102
RTVSPost2010Prop35
280
     0
102
RTVSPost2010PropOp35
 70
     1
102
RTVSPost2010Prop36
280
     0
102
RTVSPost2010PropOp36
 70
     1
102
RTVSPost2010Prop37
 90
       50
102
RTVSPost2010PropOp37
 70
     1
102
RTVSPost2010Prop38
140
0.0
102
RTVSPost2010PropOp38
 70
     1
102
RTVSPost2010Prop39
140
1.0
102
RTVSPost2010PropOp39
 70
     1
102
RTVSPost2010Prop40
 90
        0
102
RTVSPost2010PropOp40
 70
     1
102
RTVSPost2010Prop41ColorIndex
 90
       18
102
RTVSPost2010Prop41ColorRGB
 90
        0
102
RTVSPost2010PropOp41
 70
     1
102
RTVSPost2010Prop42
 90
       50
102
RTVSPost2010PropOp42
 70
     1
102
RTVSPost2010Prop43
 90
        3
102
RTVSPost2010PropOp43
 70
     1
102
RTVSPost2010Prop44ColorIndex
 90
        5
102
RTVSPost2010Prop44ColorRGB
 90
      255
102
RTVSPost2010PropOp44
 70
     1
102
RTVSPost2010Prop45
280
     0
102
RTVSPost2010PropOp45
 70
     1
102
RTVSPost2010Prop46
 90
       50
102
RTVSPost2010PropOp46
 70
     1
102
RTVSPost2010Prop47
 90
       50
102
RTVSPost2010PropOp47
 70
     1
102
RTVSPost2010Prop48
 90
       50
102
RTVSPost2010PropOp48
 70
     1
102
RTVSPost2010Prop49
280
     0
102
RTVSPost2010PropOp49
 70
     1
102
RTVSPost2010Prop50
 90
       50
102
RTVSPost2010PropOp50
 70
     1
102
RTVSPost2010Prop51ColorIndex
 90
      256
102
RTVSPost2010Prop51ColorRGB
 90
-16777216
102
RTVSPost2010PropOp51
 70
     0
102
RTVSPost2010Prop52
140
1.0
102
RTVSPost2010PropOp52
 70
     0
102
RTVSPost2010Prop53
 90
        2
102
RTVSPost2010PropOp53
 70
     1
102
RTVSPost2010Prop54
  1
strokes_ogs.tif
102
RTVSPost2010PropOp54
 70
     1
102
RTVSPost2010Prop55
280
     0
102
RTVSPost2010PropOp55
 70
     1
102
RTVSPost2010Prop56
140
1.0
102
RTVSPost2010PropOp56
 70
     1
102
RTVSPost2010Prop57
140
1.0
102
RTVSPost2010PropOp57
 70
     1
  0
XRECORD
  5
3D2
102
{ACAD_REACTORS
330
3D1
102
}
330
3D1
100
AcDbXrecord
280
     1
102
RTVSPropertyOp0
 70
     0
102
RTVSPropertyOp1
 70
     0
102
RTVSPropertyOp2
 70
     0
102
RTVSPropertyOp3
 70
     0
102
RTVSPropertyOp4
 70
     0
102
RTVSPropertyOp5
 70
     0
102
RTVSPropertyOp6
 70
     0
102
RTVSPropertyOp7
 70
     0
102
RTVSPropertyOp8
 70
     0
102
RTVSPropertyOp9
 70
     0
102
RTVSPropertyOp10
 70
     0
102
RTVSPropertyOp11
 70
     0
102
RTVSPropertyOp12
 70
     0
102
RTVSPropertyOp13
 70
     0
102
RTVSPropertyOp14
 70
     2
102
RTVSPropertyOp15
 70
     0
102
RTVSPropertyOp16
 70
     0
102
RTVSPropertyOp17
 70
     0
102
RTVSPropertyOp18
 70
     0
102
RTVSPropertyOp19
 70
     0
102
RTVSPropertyOp20
 70
     0
102
RTVSPropertyOp21
 70
     0
102
RTVSPropertyOp22
 70
     0
102
RTVSPropertyOp23
 70
     0
102
RTVSPropertyOp24
 70
     0
102
RTVSPropertyOp25
 70
     0
102
RTVSPropertyOp26
 70
     0
102
RTVSPropertyOp27
 70
     0
102
RTVSPropertyOp28
 70
     0
102
RTVSPropertyOp29
 70
     0
102
RTVSPropertyOp30
 70
     0
102
RTVSPropertyOp31
 70
     0
102
RTVSPropertyOp32
 70
     0
102
RTVSPropertyOp33
 70
     0
102
RTVSPropertyOp34
 70
     0
102
RTVSPropertyOp35
 70
     0
102
RTVSPropertyOp36
 70
     0
102
RTVSPropertyOp37
 70
     0
102
RTVSPropertyOp38
 70
     0
102
RTVSPropertyOp39
 70
     0
102
RTVSPropertyOp40
 70
     0
102
RTVSPropertyOp41
 70
     0
102
RTVSPropertyOp42
 70
     0
102
RTVSPropertyOp43
 70
     0
102
RTVSPropertyOp44
 70
     0
102
RTVSPropertyOp45
 70
     0
102
RTVSPropertyOp46
 70
     0
102
RTVSPropertyOp47
 70
     0
102
RTVSPropertyOp48
 70
     0
102
RTVSPropertyOp49
 70
     0
102
RTVSPropertyOp50
 70
     0
102
RTVSPropertyOp51
 70
     0
102
RTVSPropertyOp52
 70
     0
102
RTVSPropertyOp53
 70
     0
102
RTVSPropertyOp54
 70
     0
102
RTVSPropertyOp55
 70
     0
102
RTVSPropertyOp56
 70
     0
102
RTVSPropertyOp57
 70
     0
102
RTVSPost2010Prop28
280
     0
102
RTVSPost2010PropOp28
 70
     0
102
RTVSPost2010Prop29
280
     1
102
RTVSPost2010PropOp29
 70
     0
102
RTVSPost2010Prop30
280
     1
102
RTVSPost2010PropOp30
 70
     0
102
RTVSPost2010Prop31
280
     0
102
RTVSPost2010PropOp31
 70
     0
102
RTVSPost2010Prop32
280
     0
102
RTVSPost2010PropOp32
 70
     0
102
RTVSPost2010Prop33
280
     0
102
RTVSPost2010PropOp33
 70
     0
102
RTVSPost2010Prop34
280
     0
102
RTVSPost2010PropOp34
 70
     0
102
RTVSPost2010Prop35
280
     0
102
RTVSPost2010PropOp35
 70
     0
102
RTVSPost2010Prop36
280
     0
102
RTVSPost2010PropOp36
 70
     0
102
RTVSPost2010Prop37
 90
       50
102
RTVSPost2010PropOp37
 70
     0
102
RTVSPost2010Prop38
140
0.0
102
RTVSPost2010PropOp38
 70
     0
102
RTVSPost2010Prop39
140
1.0
102
RTVSPost2010PropOp39
 70
     0
102
RTVSPost2010Prop40
 90
        0
102
RTVSPost2010PropOp40
 70
     0
102
RTVSPost2010Prop41ColorIndex
 90
       18
102
RTVSPost2010Prop41ColorRGB
 90
        0
102
RTVSPost2010PropOp41
 70
     0
102
RTVSPost2010Prop42
 90
       50
102
RTVSPost2010PropOp42
 70
     0
102
RTVSPost2010Prop43
 90
        3
102
RTVSPost2010PropOp43
 70
     0
102
RTVSPost2010Prop44ColorIndex
 90
        5
102
RTVSPost2010Prop44ColorRGB
 90
      255
102
RTVSPost2010PropOp44
 70
     0
102
RTVSPost2010Prop45
280
     0
102
RTVSPost2010PropOp45
 70
     0
102
RTVSPost2010Prop46
 90
       50
102
RTVSPost2010PropOp46
 70
     0
102
RTVSPost2010Prop47
 90
       50
102
RTVSPost2010PropOp47
 70
     0
102
RTVSPost2010Prop48
 90
       50
102
RTVSPost2010PropOp48
 70
     0
102
RTVSPost2010Prop49
280
     0
102
RTVSPost2010PropOp49
 70
     0
102
RTVSPost2010Prop50
 90
       50
102
RTVSPost2010PropOp50
 70
     0
102
RTVSPost2010Prop51ColorIndex
 90
      256
102
RTVSPost2010Prop51ColorRGB
 90
-16777216
102
RTVSPost2010PropOp51
 70
     0
102
RTVSPost2010Prop52
140
1.0
102
RTVSPost2010PropOp52
 70
     0
102
RTVSPost2010Prop53
 90
        2
102
RTVSPost2010PropOp53
 70
     0
102
RTVSPost2010Prop54
  1
strokes_ogs.tif
102
RTVSPost2010PropOp54
 70
     0
102
RTVSPost2010Prop55
280
     0
102
RTVSPost2010PropOp55
 70
     0
102
RTVSPost2010Prop56
140
1.0
102
RTVSPost2010PropOp56
 70
     0
102
RTVSPost2010Prop57
140
1.0
102
RTVSPost2010PropOp57
 70
     0
  0
XRECORD
  5
3CA
102
{ACAD_REACTORS
330
3C9
102
}
330
3C9
100
AcDbXrecord
280
     1
102
RTVSPropertyOp0
 70
     1
102
RTVSPropertyOp1
 70
     1
102
RTVSPropertyOp2
 70
     1
102
RTVSPropertyOp3
 70
     1
102
RTVSPropertyOp4
 70
     1
102
RTVSPropertyOp5
 70
     1
102
RTVSPropertyOp6
 70
     1
102
RTVSPropertyOp7
 70
     1
102
RTVSPropertyOp8
 70
     1
102
RTVSPropertyOp9
 70
     1
102
RTVSPropertyOp10
 70
     1
102
RTVSPropertyOp11
 70
     1
102
RTVSPropertyOp12
 70
     1
102
RTVSPropertyOp13
 70
     1
102
RTVSPropertyOp14
 70
     1
102
RTVSPropertyOp15
 70
     1
102
RTVSPropertyOp16
 70
     1
102
RTVSPropertyOp17
 70
     1
102
RTVSPropertyOp18
 70
     1
102
RTVSPropertyOp19
 70
     1
102
RTVSPropertyOp20
 70
     1
102
RTVSPropertyOp21
 70
     1
102
RTVSPropertyOp22
 70
     1
102
RTVSPropertyOp23
 70
     1
102
RTVSPropertyOp24
 70
     1
102
RTVSPropertyOp25
 70
     1
102
RTVSPropertyOp26
 70
     1
102
RTVSPropertyOp27
 70
     1
102
RTVSPropertyOp28
 70
     1
102
RTVSPropertyOp29
 70
     1
102
RTVSPropertyOp30
 70
     1
102
RTVSPropertyOp31
 70
     1
102
RTVSPropertyOp32
 70
     1
102
RTVSPropertyOp33
 70
     1
102
RTVSPropertyOp34
 70
     1
102
RTVSPropertyOp35
 70
     1
102
RTVSPropertyOp36
 70
     1
102
RTVSPropertyOp37
 70
     1
102
RTVSPropertyOp38
 70
     1
102
RTVSPropertyOp39
 70
     1
102
RTVSPropertyOp40
 70
     1
102
RTVSPropertyOp41
 70
     1
102
RTVSPropertyOp42
 70
     1
102
RTVSPropertyOp43
 70
     1
102
RTVSPropertyOp44
 70
     1
102
RTVSPropertyOp45
 70
     1
102
RTVSPropertyOp46
 70
     1
102
RTVSPropertyOp47
 70
     1
102
RTVSPropertyOp48
 70
     1
102
RTVSPropertyOp49
 70
     1
102
RTVSPropertyOp50
 70
     1
102
RTVSPropertyOp51
 70
     0
102
RTVSPropertyOp52
 70
     0
102
RTVSPropertyOp53
 70
     1
102
RTVSPropertyOp54
 70
     1
102
RTVSPropertyOp55
 70
     1
102
RTVSPropertyOp56
 70
     1
102
RTVSPropertyOp57
 70
     1
102
RTVSPost2010Prop28
280
     0
102
RTVSPost2010PropOp28
 70
     1
102
RTVSPost2010Prop29
280
     1
102
RTVSPost2010PropOp29
 70
     1
102
RTVSPost2010Prop30
280
     1
102
RTVSPost2010PropOp30
 70
     1
102
RTVSPost2010Prop31
280
     0
102
RTVSPost2010PropOp31
 70
     1
102
RTVSPost2010Prop32
280
     0
102
RTVSPost2010PropOp32
 70
     1
102
RTVSPost2010Prop33
280
     0
102
RTVSPost2010PropOp33
 70
     1
102
RTVSPost2010Prop34
280
     0
102
RTVSPost2010PropOp34
 70
     1
102
RTVSPost2010Prop35
280
     0
102
RTVSPost2010PropOp35
 70
     1
102
RTVSPost2010Prop36
280
     0
102
RTVSPost2010PropOp36
 70
     1
102
RTVSPost2010Prop37
 90
       50
102
RTVSPost2010PropOp37
 70
     1
102
RTVSPost2010Prop38
140
0.0
102
RTVSPost2010PropOp38
 70
     1
102
RTVSPost2010Prop39
140
1.0
102
RTVSPost2010PropOp39
 70
     1
102
RTVSPost2010Prop40
 90
        0
102
RTVSPost2010PropOp40
 70
     1
102
RTVSPost2010Prop41ColorIndex
 90
       18
102
RTVSPost2010Prop41ColorRGB
 90
        0
102
RTVSPost2010PropOp41
 70
     1
102
RTVSPost2010Prop42
 90
       50
102
RTVSPost2010PropOp42
 70
     1
102
RTVSPost2010Prop43
 90
        3
102
RTVSPost2010PropOp43
 70
     1
102
RTVSPost2010Prop44ColorIndex
 90
        5
102
RTVSPost2010Prop44ColorRGB
 90
      255
102
RTVSPost2010PropOp44
 70
     1
102
RTVSPost2010Prop45
280
     0
102
RTVSPost2010PropOp45
 70
     1
102
RTVSPost2010Prop46
 90
       50
102
RTVSPost2010PropOp46
 70
     1
102
RTVSPost2010Prop47
 90
       50
102
RTVSPost2010PropOp47
 70
     1
102
RTVSPost2010Prop48
 90
       50
102
RTVSPost2010PropOp48
 70
     1
102
RTVSPost2010Prop49
280
     0
102
RTVSPost2010PropOp49
 70
     1
102
RTVSPost2010Prop50
 90
       50
102
RTVSPost2010PropOp50
 70
     1
102
RTVSPost2010Prop51ColorIndex
 90
      256
102
RTVSPost2010Prop51ColorRGB
 90
-16777216
102
RTVSPost2010PropOp51
 70
     0
102
RTVSPost2010Prop52
140
1.0
102
RTVSPost2010PropOp52
 70
     0
102
RTVSPost2010Prop53
 90
        2
102
RTVSPost2010PropOp53
 70
     1
102
RTVSPost2010Prop54
  1
strokes_ogs.tif
102
RTVSPost2010PropOp54
 70
     1
102
RTVSPost2010Prop55
280
     0
102
RTVSPost2010PropOp55
 70
     1
102
RTVSPost2010Prop56
140
1.0
102
RTVSPost2010PropOp56
 70
     1
102
RTVSPost2010Prop57
140
1.0
102
RTVSPost2010PropOp57
 70
     1
  0
XRECORD
  5
3AE
102
{ACAD_REACTORS
330
3AD
102
}
330
3AD
100
AcDbXrecord
280
     1
102
RTVSPropertyOp0
 70
     1
102
RTVSPropertyOp1
 70
     1
102
RTVSPropertyOp2
 70
     1
102
RTVSPropertyOp3
 70
     1
102
RTVSPropertyOp4
 70
     1
102
RTVSPropertyOp5
 70
     1
102
RTVSPropertyOp6
 70
     1
102
RTVSPropertyOp7
 70
     1
102
RTVSPropertyOp8
 70
     1
102
RTVSPropertyOp9
 70
     1
102
RTVSPropertyOp10
 70
     1
102
RTVSPropertyOp11
 70
     1
102
RTVSPropertyOp12
 70
     1
102
RTVSPropertyOp13
 70
     1
102
RTVSPropertyOp14
 70
     1
102
RTVSPropertyOp15
 70
     1
102
RTVSPropertyOp16
 70
     1
102
RTVSPropertyOp17
 70
     1
102
RTVSPropertyOp18
 70
     1
102
RTVSPropertyOp19
 70
     1
102
RTVSPropertyOp20
 70
     1
102
RTVSPropertyOp21
 70
     1
102
RTVSPropertyOp22
 70
     1
102
RTVSPropertyOp23
 70
     1
102
RTVSPropertyOp24
 70
     1
102
RTVSPropertyOp25
 70
     1
102
RTVSPropertyOp26
 70
     1
102
RTVSPropertyOp27
 70
     1
102
RTVSPropertyOp28
 70
     1
102
RTVSPropertyOp29
 70
     1
102
RTVSPropertyOp30
 70
     1
102
RTVSPropertyOp31
 70
     1
102
RTVSPropertyOp32
 70
     1
102
RTVSPropertyOp33
 70
     1
102
RTVSPropertyOp34
 70
     1
102
RTVSPropertyOp35
 70
     1
102
RTVSPropertyOp36
 70
     1
102
RTVSPropertyOp37
 70
     1
102
RTVSPropertyOp38
 70
     1
102
RTVSPropertyOp39
 70
     1
102
RTVSPropertyOp40
 70
     1
102
RTVSPropertyOp41
 70
     1
102
RTVSPropertyOp42
 70
     1
102
RTVSPropertyOp43
 70
     1
102
RTVSPropertyOp44
 70
     1
102
RTVSPropertyOp45
 70
     1
102
RTVSPropertyOp46
 70
     1
102
RTVSPropertyOp47
 70
     1
102
RTVSPropertyOp48
 70
     1
102
RTVSPropertyOp49
 70
     1
102
RTVSPropertyOp50
 70
     1
102
RTVSPropertyOp51
 70
     0
102
RTVSPropertyOp52
 70
     0
102
RTVSPropertyOp53
 70
     1
102
RTVSPropertyOp54
 70
     1
102
RTVSPropertyOp55
 70
     1
102
RTVSPropertyOp56
 70
     1
102
RTVSPropertyOp57
 70
     1
102
RTVSPost2010Prop28
280
     0
102
RTVSPost2010PropOp28
 70
     1
102
RTVSPost2010Prop29
280
     1
102
RTVSPost2010PropOp29
 70
     1
102
RTVSPost2010Prop30
280
     1
102
RTVSPost2010PropOp30
 70
     1
102
RTVSPost2010Prop31
280
     0
102
RTVSPost2010PropOp31
 70
     1
102
RTVSPost2010Prop32
280
     0
102
RTVSPost2010PropOp32
 70
     1
102
RTVSPost2010Prop33
280
     0
102
RTVSPost2010PropOp33
 70
     1
102
RTVSPost2010Prop34
280
     0
102
RTVSPost2010PropOp34
 70
     1
102
RTVSPost2010Prop35
280
     0
102
RTVSPost2010PropOp35
 70
     1
102
RTVSPost2010Prop36
280
     0
102
RTVSPost2010PropOp36
 70
     1
102
RTVSPost2010Prop37
 90
       50
102
RTVSPost2010PropOp37
 70
     1
102
RTVSPost2010Prop38
140
0.0
102
RTVSPost2010PropOp38
 70
     1
102
RTVSPost2010Prop39
140
1.0
102
RTVSPost2010PropOp39
 70
     1
102
RTVSPost2010Prop40
 90
        0
102
RTVSPost2010PropOp40
 70
     1
102
RTVSPost2010Prop41ColorIndex
 90
       18
102
RTVSPost2010Prop41ColorRGB
 90
        0
102
RTVSPost2010PropOp41
 70
     1
102
RTVSPost2010Prop42
 90
       50
102
RTVSPost2010PropOp42
 70
     1
102
RTVSPost2010Prop43
 90
        3
102
RTVSPost2010PropOp43
 70
     1
102
RTVSPost2010Prop44ColorIndex
 90
        5
102
RTVSPost2010Prop44ColorRGB
 90
      255
102
RTVSPost2010PropOp44
 70
     1
102
RTVSPost2010Prop45
280
     0
102
RTVSPost2010PropOp45
 70
     1
102
RTVSPost2010Prop46
 90
       50
102
RTVSPost2010PropOp46
 70
     1
102
RTVSPost2010Prop47
 90
       50
102
RTVSPost2010PropOp47
 70
     1
102
RTVSPost2010Prop48
 90
       50
102
RTVSPost2010PropOp48
 70
     1
102
RTVSPost2010Prop49
280
     0
102
RTVSPost2010PropOp49
 70
     1
102
RTVSPost2010Prop50
 90
       50
102
RTVSPost2010PropOp50
 70
     1
102
RTVSPost2010Prop51ColorIndex
 90
      256
102
RTVSPost2010Prop51ColorRGB
 90
-16777216
102
RTVSPost2010PropOp51
 70
     0
102
RTVSPost2010Prop52
140
1.0
102
RTVSPost2010PropOp52
 70
     0
102
RTVSPost2010Prop53
 90
        2
102
RTVSPost2010PropOp53
 70
     1
102
RTVSPost2010Prop54
  1
strokes_ogs.tif
102
RTVSPost2010PropOp54
 70
     1
102
RTVSPost2010Prop55
280
     0
102
RTVSPost2010PropOp55
 70
     1
102
RTVSPost2010Prop56
140
1.0
102
RTVSPost2010PropOp56
 70
     1
102
RTVSPost2010Prop57
140
1.0
102
RTVSPost2010PropOp57
 70
     1
  0
XRECORD
  5
3B0
102
{ACAD_REACTORS
330
3AF
102
}
330
3AF
100
AcDbXrecord
280
     1
102
RTVSPropertyOp0
 70
     1
102
RTVSPropertyOp1
 70
     1
102
RTVSPropertyOp2
 70
     1
102
RTVSPropertyOp3
 70
     1
102
RTVSPropertyOp4
 70
     1
102
RTVSPropertyOp5
 70
     1
102
RTVSPropertyOp6
 70
     1
102
RTVSPropertyOp7
 70
     1
102
RTVSPropertyOp8
 70
     1
102
RTVSPropertyOp9
 70
     1
102
RTVSPropertyOp10
 70
     1
102
RTVSPropertyOp11
 70
     1
102
RTVSPropertyOp12
 70
     1
102
RTVSPropertyOp13
 70
     1
102
RTVSPropertyOp14
 70
     1
102
RTVSPropertyOp15
 70
     1
102
RTVSPropertyOp16
 70
     1
102
RTVSPropertyOp17
 70
     1
102
RTVSPropertyOp18
 70
     1
102
RTVSPropertyOp19
 70
     1
102
RTVSPropertyOp20
 70
     1
102
RTVSPropertyOp21
 70
     1
102
RTVSPropertyOp22
 70
     1
102
RTVSPropertyOp23
 70
     1
102
RTVSPropertyOp24
 70
     1
102
RTVSPropertyOp25
 70
     1
102
RTVSPropertyOp26
 70
     1
102
RTVSPropertyOp27
 70
     1
102
RTVSPropertyOp28
 70
     1
102
RTVSPropertyOp29
 70
     1
102
RTVSPropertyOp30
 70
     1
102
RTVSPropertyOp31
 70
     1
102
RTVSPropertyOp32
 70
     1
102
RTVSPropertyOp33
 70
     1
102
RTVSPropertyOp34
 70
     1
102
RTVSPropertyOp35
 70
     1
102
RTVSPropertyOp36
 70
     1
102
RTVSPropertyOp37
 70
     1
102
RTVSPropertyOp38
 70
     1
102
RTVSPropertyOp39
 70
     1
102
RTVSPropertyOp40
 70
     1
102
RTVSPropertyOp41
 70
     1
102
RTVSPropertyOp42
 70
     1
102
RTVSPropertyOp43
 70
     1
102
RTVSPropertyOp44
 70
     1
102
RTVSPropertyOp45
 70
     1
102
RTVSPropertyOp46
 70
     1
102
RTVSPropertyOp47
 70
     1
102
RTVSPropertyOp48
 70
     1
102
RTVSPropertyOp49
 70
     1
102
RTVSPropertyOp50
 70
     1
102
RTVSPropertyOp51
 70
     0
102
RTVSPropertyOp52
 70
     0
102
RTVSPropertyOp53
 70
     1
102
RTVSPropertyOp54
 70
     1
102
RTVSPropertyOp55
 70
     1
102
RTVSPropertyOp56
 70
     1
102
RTVSPropertyOp57
 70
     1
102
RTVSPost2010Prop28
280
     0
102
RTVSPost2010PropOp28
 70
     1
102
RTVSPost2010Prop29
280
     1
102
RTVSPost2010PropOp29
 70
     1
102
RTVSPost2010Prop30
280
     1
102
RTVSPost2010PropOp30
 70
     1
102
RTVSPost2010Prop31
280
     0
102
RTVSPost2010PropOp31
 70
     1
102
RTVSPost2010Prop32
280
     0
102
RTVSPost2010PropOp32
 70
     1
102
RTVSPost2010Prop33
280
     0
102
RTVSPost2010PropOp33
 70
     1
102
RTVSPost2010Prop34
280
     0
102
RTVSPost2010PropOp34
 70
     1
102
RTVSPost2010Prop35
280
     0
102
RTVSPost2010PropOp35
 70
     1
102
RTVSPost2010Prop36
280
     0
102
RTVSPost2010PropOp36
 70
     1
102
RTVSPost2010Prop37
 90
       50
102
RTVSPost2010PropOp37
 70
     1
102
RTVSPost2010Prop38
140
0.0
102
RTVSPost2010PropOp38
 70
     1
102
RTVSPost2010Prop39
140
1.0
102
RTVSPost2010PropOp39
 70
     1
102
RTVSPost2010Prop40
 90
        0
102
RTVSPost2010PropOp40
 70
     1
102
RTVSPost2010Prop41ColorIndex
 90
       18
102
RTVSPost2010Prop41ColorRGB
 90
        0
102
RTVSPost2010PropOp41
 70
     1
102
RTVSPost2010Prop42
 90
       50
102
RTVSPost2010PropOp42
 70
     1
102
RTVSPost2010Prop43
 90
        3
102
RTVSPost2010PropOp43
 70
     1
102
RTVSPost2010Prop44ColorIndex
 90
        5
102
RTVSPost2010Prop44ColorRGB
 90
      255
102
RTVSPost2010PropOp44
 70
     1
102
RTVSPost2010Prop45
280
     0
102
RTVSPost2010PropOp45
 70
     1
102
RTVSPost2010Prop46
 90
       50
102
RTVSPost2010PropOp46
 70
     1
102
RTVSPost2010Prop47
 90
       50
102
RTVSPost2010PropOp47
 70
     1
102
RTVSPost2010Prop48
 90
       50
102
RTVSPost2010PropOp48
 70
     1
102
RTVSPost2010Prop49
280
     0
102
RTVSPost2010PropOp49
 70
     1
102
RTVSPost2010Prop50
 90
       50
102
RTVSPost2010PropOp50
 70
     1
102
RTVSPost2010Prop51ColorIndex
 90
      256
102
RTVSPost2010Prop51ColorRGB
 90
-16777216
102
RTVSPost2010PropOp51
 70
     0
102
RTVSPost2010Prop52
140
1.0
102
RTVSPost2010PropOp52
 70
     0
102
RTVSPost2010Prop53
 90
        2
102
RTVSPost2010PropOp53
 70
     1
102
RTVSPost2010Prop54
  1
strokes_ogs.tif
102
RTVSPost2010PropOp54
 70
     1
102
RTVSPost2010Prop55
280
     0
102
RTVSPost2010PropOp55
 70
     1
102
RTVSPost2010Prop56
140
1.0
102
RTVSPost2010PropOp56
 70
     1
102
RTVSPost2010Prop57
140
1.0
102
RTVSPost2010PropOp57
 70
     1
  0
XRECORD
  5
3B2
102
{ACAD_REACTORS
330
3B1
102
}
330
3B1
100
AcDbXrecord
280
     1
102
RTVSPropertyOp0
 70
     1
102
RTVSPropertyOp1
 70
     1
102
RTVSPropertyOp2
 70
     1
102
RTVSPropertyOp3
 70
     1
102
RTVSPropertyOp4
 70
     1
102
RTVSPropertyOp5
 70
     1
102
RTVSPropertyOp6
 70
     1
102
RTVSPropertyOp7
 70
     1
102
RTVSPropertyOp8
 70
     1
102
RTVSPropertyOp9
 70
     1
102
RTVSPropertyOp10
 70
     1
102
RTVSPropertyOp11
 70
     1
102
RTVSPropertyOp12
 70
     1
102
RTVSPropertyOp13
 70
     1
102
RTVSPropertyOp14
 70
     1
102
RTVSPropertyOp15
 70
     1
102
RTVSPropertyOp16
 70
     1
102
RTVSPropertyOp17
 70
     1
102
RTVSPropertyOp18
 70
     1
102
RTVSPropertyOp19
 70
     1
102
RTVSPropertyOp20
 70
     1
102
RTVSPropertyOp21
 70
     1
102
RTVSPropertyOp22
 70
     1
102
RTVSPropertyOp23
 70
     1
102
RTVSPropertyOp24
 70
     1
102
RTVSPropertyOp25
 70
     1
102
RTVSPropertyOp26
 70
     1
102
RTVSPropertyOp27
 70
     1
102
RTVSPropertyOp28
 70
     1
102
RTVSPropertyOp29
 70
     1
102
RTVSPropertyOp30
 70
     1
102
RTVSPropertyOp31
 70
     1
102
RTVSPropertyOp32
 70
     1
102
RTVSPropertyOp33
 70
     1
102
RTVSPropertyOp34
 70
     1
102
RTVSPropertyOp35
 70
     1
102
RTVSPropertyOp36
 70
     1
102
RTVSPropertyOp37
 70
     1
102
RTVSPropertyOp38
 70
     1
102
RTVSPropertyOp39
 70
     1
102
RTVSPropertyOp40
 70
     1
102
RTVSPropertyOp41
 70
     1
102
RTVSPropertyOp42
 70
     1
102
RTVSPropertyOp43
 70
     1
102
RTVSPropertyOp44
 70
     1
102
RTVSPropertyOp45
 70
     1
102
RTVSPropertyOp46
 70
     1
102
RTVSPropertyOp47
 70
     1
102
RTVSPropertyOp48
 70
     1
102
RTVSPropertyOp49
 70
     1
102
RTVSPropertyOp50
 70
     1
102
RTVSPropertyOp51
 70
     0
102
RTVSPropertyOp52
 70
     0
102
RTVSPropertyOp53
 70
     1
102
RTVSPropertyOp54
 70
     1
102
RTVSPropertyOp55
 70
     1
102
RTVSPropertyOp56
 70
     1
102
RTVSPropertyOp57
 70
     1
102
RTVSPost2010Prop28
280
     0
102
RTVSPost2010PropOp28
 70
     1
102
RTVSPost2010Prop29
280
     1
102
RTVSPost2010PropOp29
 70
     1
102
RTVSPost2010Prop30
280
     1
102
RTVSPost2010PropOp30
 70
     1
102
RTVSPost2010Prop31
280
     0
102
RTVSPost2010PropOp31
 70
     1
102
RTVSPost2010Prop32
280
     0
102
RTVSPost2010PropOp32
 70
     1
102
RTVSPost2010Prop33
280
     0
102
RTVSPost2010PropOp33
 70
     1
102
RTVSPost2010Prop34
280
     0
102
RTVSPost2010PropOp34
 70
     1
102
RTVSPost2010Prop35
280
     0
102
RTVSPost2010PropOp35
 70
     1
102
RTVSPost2010Prop36
280
     0
102
RTVSPost2010PropOp36
 70
     1
102
RTVSPost2010Prop37
 90
       50
102
RTVSPost2010PropOp37
 70
     1
102
RTVSPost2010Prop38
140
0.0
102
RTVSPost2010PropOp38
 70
     1
102
RTVSPost2010Prop39
140
1.0
102
RTVSPost2010PropOp39
 70
     1
102
RTVSPost2010Prop40
 90
        0
102
RTVSPost2010PropOp40
 70
     1
102
RTVSPost2010Prop41ColorIndex
 90
       18
102
RTVSPost2010Prop41ColorRGB
 90
        0
102
RTVSPost2010PropOp41
 70
     1
102
RTVSPost2010Prop42
 90
       50
102
RTVSPost2010PropOp42
 70
     1
102
RTVSPost2010Prop43
 90
        3
102
RTVSPost2010PropOp43
 70
     1
102
RTVSPost2010Prop44ColorIndex
 90
        5
102
RTVSPost2010Prop44ColorRGB
 90
      255
102
RTVSPost2010PropOp44
 70
     1
102
RTVSPost2010Prop45
280
     0
102
RTVSPost2010PropOp45
 70
     1
102
RTVSPost2010Prop46
 90
       50
102
RTVSPost2010PropOp46
 70
     1
102
RTVSPost2010Prop47
 90
       50
102
RTVSPost2010PropOp47
 70
     1
102
RTVSPost2010Prop48
 90
       50
102
RTVSPost2010PropOp48
 70
     1
102
RTVSPost2010Prop49
280
     0
102
RTVSPost2010PropOp49
 70
     1
102
RTVSPost2010Prop50
 90
       50
102
RTVSPost2010PropOp50
 70
     1
102
RTVSPost2010Prop51ColorIndex
 90
      256
102
RTVSPost2010Prop51ColorRGB
 90
-16777216
102
RTVSPost2010PropOp51
 70
     0
102
RTVSPost2010Prop52
140
1.0
102
RTVSPost2010PropOp52
 70
     0
102
RTVSPost2010Prop53
 90
        2
102
RTVSPost2010PropOp53
 70
     1
102
RTVSPost2010Prop54
  1
strokes_ogs.tif
102
RTVSPost2010PropOp54
 70
     1
102
RTVSPost2010Prop55
280
     0
102
RTVSPost2010PropOp55
 70
     1
102
RTVSPost2010Prop56
140
1.0
102
RTVSPost2010PropOp56
 70
     1
102
RTVSPost2010Prop57
140
1.0
102
RTVSPost2010PropOp57
 70
     1
  0
XRECORD
  5
3B4
102
{ACAD_REACTORS
330
3B3
102
}
330
3B3
100
AcDbXrecord
280
     1
102
RTVSPropertyOp0
 70
     1
102
RTVSPropertyOp1
 70
     1
102
RTVSPropertyOp2
 70
     1
102
RTVSPropertyOp3
 70
     1
102
RTVSPropertyOp4
 70
     1
102
RTVSPropertyOp5
 70
     1
102
RTVSPropertyOp6
 70
     1
102
RTVSPropertyOp7
 70
     1
102
RTVSPropertyOp8
 70
     1
102
RTVSPropertyOp9
 70
     1
102
RTVSPropertyOp10
 70
     1
102
RTVSPropertyOp11
 70
     1
102
RTVSPropertyOp12
 70
     1
102
RTVSPropertyOp13
 70
     1
102
RTVSPropertyOp14
 70
     1
102
RTVSPropertyOp15
 70
     1
102
RTVSPropertyOp16
 70
     1
102
RTVSPropertyOp17
 70
     1
102
RTVSPropertyOp18
 70
     1
102
RTVSPropertyOp19
 70
     1
102
RTVSPropertyOp20
 70
     1
102
RTVSPropertyOp21
 70
     1
102
RTVSPropertyOp22
 70
     1
102
RTVSPropertyOp23
 70
     1
102
RTVSPropertyOp24
 70
     1
102
RTVSPropertyOp25
 70
     1
102
RTVSPropertyOp26
 70
     1
102
RTVSPropertyOp27
 70
     1
102
RTVSPropertyOp28
 70
     1
102
RTVSPropertyOp29
 70
     1
102
RTVSPropertyOp30
 70
     1
102
RTVSPropertyOp31
 70
     1
102
RTVSPropertyOp32
 70
     1
102
RTVSPropertyOp33
 70
     1
102
RTVSPropertyOp34
 70
     1
102
RTVSPropertyOp35
 70
     1
102
RTVSPropertyOp36
 70
     1
102
RTVSPropertyOp37
 70
     1
102
RTVSPropertyOp38
 70
     1
102
RTVSPropertyOp39
 70
     1
102
RTVSPropertyOp40
 70
     1
102
RTVSPropertyOp41
 70
     1
102
RTVSPropertyOp42
 70
     1
102
RTVSPropertyOp43
 70
     1
102
RTVSPropertyOp44
 70
     1
102
RTVSPropertyOp45
 70
     1
102
RTVSPropertyOp46
 70
     1
102
RTVSPropertyOp47
 70
     1
102
RTVSPropertyOp48
 70
     1
102
RTVSPropertyOp49
 70
     1
102
RTVSPropertyOp50
 70
     1
102
RTVSPropertyOp51
 70
     0
102
RTVSPropertyOp52
 70
     0
102
RTVSPropertyOp53
 70
     1
102
RTVSPropertyOp54
 70
     1
102
RTVSPropertyOp55
 70
     1
102
RTVSPropertyOp56
 70
     1
102
RTVSPropertyOp57
 70
     1
102
RTVSPost2010Prop28
280
     0
102
RTVSPost2010PropOp28
 70
     1
102
RTVSPost2010Prop29
280
     1
102
RTVSPost2010PropOp29
 70
     1
102
RTVSPost2010Prop30
280
     1
102
RTVSPost2010PropOp30
 70
     1
102
RTVSPost2010Prop31
280
     0
102
RTVSPost2010PropOp31
 70
     1
102
RTVSPost2010Prop32
280
     0
102
RTVSPost2010PropOp32
 70
     1
102
RTVSPost2010Prop33
280
     0
102
RTVSPost2010PropOp33
 70
     1
102
RTVSPost2010Prop34
280
     0
102
RTVSPost2010PropOp34
 70
     1
102
RTVSPost2010Prop35
280
     0
102
RTVSPost2010PropOp35
 70
     1
102
RTVSPost2010Prop36
280
     0
102
RTVSPost2010PropOp36
 70
     1
102
RTVSPost2010Prop37
 90
       50
102
RTVSPost2010PropOp37
 70
     1
102
RTVSPost2010Prop38
140
0.0
102
RTVSPost2010PropOp38
 70
     1
102
RTVSPost2010Prop39
140
1.0
102
RTVSPost2010PropOp39
 70
     1
102
RTVSPost2010Prop40
 90
        0
102
RTVSPost2010PropOp40
 70
     1
102
RTVSPost2010Prop41ColorIndex
 90
       18
102
RTVSPost2010Prop41ColorRGB
 90
        0
102
RTVSPost2010PropOp41
 70
     1
102
RTVSPost2010Prop42
 90
       50
102
RTVSPost2010PropOp42
 70
     1
102
RTVSPost2010Prop43
 90
        3
102
RTVSPost2010PropOp43
 70
     1
102
RTVSPost2010Prop44ColorIndex
 90
        5
102
RTVSPost2010Prop44ColorRGB
 90
      255
102
RTVSPost2010PropOp44
 70
     1
102
RTVSPost2010Prop45
280
     0
102
RTVSPost2010PropOp45
 70
     1
102
RTVSPost2010Prop46
 90
       50
102
RTVSPost2010PropOp46
 70
     1
102
RTVSPost2010Prop47
 90
       50
102
RTVSPost2010PropOp47
 70
     1
102
RTVSPost2010Prop48
 90
       50
102
RTVSPost2010PropOp48
 70
     1
102
RTVSPost2010Prop49
280
     0
102
RTVSPost2010PropOp49
 70
     1
102
RTVSPost2010Prop50
 90
       50
102
RTVSPost2010PropOp50
 70
     1
102
RTVSPost2010Prop51ColorIndex
 90
      256
102
RTVSPost2010Prop51ColorRGB
 90
-16777216
102
RTVSPost2010PropOp51
 70
     0
102
RTVSPost2010Prop52
140
1.0
102
RTVSPost2010PropOp52
 70
     0
102
RTVSPost2010Prop53
 90
        2
102
RTVSPost2010PropOp53
 70
     1
102
RTVSPost2010Prop54
  1
strokes_ogs.tif
102
RTVSPost2010PropOp54
 70
     1
102
RTVSPost2010Prop55
280
     0
102
RTVSPost2010PropOp55
 70
     1
102
RTVSPost2010Prop56
140
1.0
102
RTVSPost2010PropOp56
 70
     1
102
RTVSPost2010Prop57
140
1.0
102
RTVSPost2010PropOp57
 70
     1
  0
XRECORD
  5
3BA
102
{ACAD_REACTORS
330
3B9
102
}
330
3B9
100
AcDbXrecord
280
     1
102
RTVSPropertyOp0
 70
     1
102
RTVSPropertyOp1
 70
     1
102
RTVSPropertyOp2
 70
     1
102
RTVSPropertyOp3
 70
     1
102
RTVSPropertyOp4
 70
     1
102
RTVSPropertyOp5
 70
     1
102
RTVSPropertyOp6
 70
     1
102
RTVSPropertyOp7
 70
     1
102
RTVSPropertyOp8
 70
     1
102
RTVSPropertyOp9
 70
     1
102
RTVSPropertyOp10
 70
     1
102
RTVSPropertyOp11
 70
     1
102
RTVSPropertyOp12
 70
     1
102
RTVSPropertyOp13
 70
     1
102
RTVSPropertyOp14
 70
     1
102
RTVSPropertyOp15
 70
     1
102
RTVSPropertyOp16
 70
     1
102
RTVSPropertyOp17
 70
     1
102
RTVSPropertyOp18
 70
     1
102
RTVSPropertyOp19
 70
     1
102
RTVSPropertyOp20
 70
     1
102
RTVSPropertyOp21
 70
     1
102
RTVSPropertyOp22
 70
     1
102
RTVSPropertyOp23
 70
     1
102
RTVSPropertyOp24
 70
     1
102
RTVSPropertyOp25
 70
     1
102
RTVSPropertyOp26
 70
     1
102
RTVSPropertyOp27
 70
     1
102
RTVSPropertyOp28
 70
     1
102
RTVSPropertyOp29
 70
     1
102
RTVSPropertyOp30
 70
     1
102
RTVSPropertyOp31
 70
     1
102
RTVSPropertyOp32
 70
     1
102
RTVSPropertyOp33
 70
     1
102
RTVSPropertyOp34
 70
     1
102
RTVSPropertyOp35
 70
     1
102
RTVSPropertyOp36
 70
     1
102
RTVSPropertyOp37
 70
     1
102
RTVSPropertyOp38
 70
     1
102
RTVSPropertyOp39
 70
     1
102
RTVSPropertyOp40
 70
     1
102
RTVSPropertyOp41
 70
     1
102
RTVSPropertyOp42
 70
     1
102
RTVSPropertyOp43
 70
     1
102
RTVSPropertyOp44
 70
     1
102
RTVSPropertyOp45
 70
     1
102
RTVSPropertyOp46
 70
     1
102
RTVSPropertyOp47
 70
     1
102
RTVSPropertyOp48
 70
     1
102
RTVSPropertyOp49
 70
     1
102
RTVSPropertyOp50
 70
     1
102
RTVSPropertyOp51
 70
     0
102
RTVSPropertyOp52
 70
     0
102
RTVSPropertyOp53
 70
     1
102
RTVSPropertyOp54
 70
     1
102
RTVSPropertyOp55
 70
     1
102
RTVSPropertyOp56
 70
     1
102
RTVSPropertyOp57
 70
     1
102
RTVSPost2010Prop28
280
     0
102
RTVSPost2010PropOp28
 70
     1
102
RTVSPost2010Prop29
280
     1
102
RTVSPost2010PropOp29
 70
     1
102
RTVSPost2010Prop30
280
     1
102
RTVSPost2010PropOp30
 70
     1
102
RTVSPost2010Prop31
280
     0
102
RTVSPost2010PropOp31
 70
     1
102
RTVSPost2010Prop32
280
     0
102
RTVSPost2010PropOp32
 70
     1
102
RTVSPost2010Prop33
280
     0
102
RTVSPost2010PropOp33
 70
     1
102
RTVSPost2010Prop34
280
     0
102
RTVSPost2010PropOp34
 70
     1
102
RTVSPost2010Prop35
280
     0
102
RTVSPost2010PropOp35
 70
     1
102
RTVSPost2010Prop36
280
     0
102
RTVSPost2010PropOp36
 70
     1
102
RTVSPost2010Prop37
 90
       50
102
RTVSPost2010PropOp37
 70
     1
102
RTVSPost2010Prop38
140
0.0
102
RTVSPost2010PropOp38
 70
     1
102
RTVSPost2010Prop39
140
1.0
102
RTVSPost2010PropOp39
 70
     1
102
RTVSPost2010Prop40
 90
        0
102
RTVSPost2010PropOp40
 70
     1
102
RTVSPost2010Prop41ColorIndex
 90
       18
102
RTVSPost2010Prop41ColorRGB
 90
        0
102
RTVSPost2010PropOp41
 70
     1
102
RTVSPost2010Prop42
 90
       50
102
RTVSPost2010PropOp42
 70
     1
102
RTVSPost2010Prop43
 90
        3
102
RTVSPost2010PropOp43
 70
     1
102
RTVSPost2010Prop44ColorIndex
 90
        5
102
RTVSPost2010Prop44ColorRGB
 90
      255
102
RTVSPost2010PropOp44
 70
     1
102
RTVSPost2010Prop45
280
     0
102
RTVSPost2010PropOp45
 70
     1
102
RTVSPost2010Prop46
 90
       50
102
RTVSPost2010PropOp46
 70
     1
102
RTVSPost2010Prop47
 90
       50
102
RTVSPost2010PropOp47
 70
     1
102
RTVSPost2010Prop48
 90
       50
102
RTVSPost2010PropOp48
 70
     1
102
RTVSPost2010Prop49
280
     0
102
RTVSPost2010PropOp49
 70
     1
102
RTVSPost2010Prop50
 90
       50
102
RTVSPost2010PropOp50
 70
     1
102
RTVSPost2010Prop51ColorIndex
 90
      256
102
RTVSPost2010Prop51ColorRGB
 90
-16777216
102
RTVSPost2010PropOp51
 70
     0
102
RTVSPost2010Prop52
140
1.0
102
RTVSPost2010PropOp52
 70
     0
102
RTVSPost2010Prop53
 90
        2
102
RTVSPost2010PropOp53
 70
     1
102
RTVSPost2010Prop54
  1
strokes_ogs.tif
102
RTVSPost2010PropOp54
 70
     1
102
RTVSPost2010Prop55
280
     0
102
RTVSPost2010PropOp55
 70
     1
102
RTVSPost2010Prop56
140
1.0
102
RTVSPost2010PropOp56
 70
     1
102
RTVSPost2010Prop57
140
1.0
102
RTVSPost2010PropOp57
 70
     1
  0
XRECORD
  5
3CE
102
{ACAD_REACTORS
330
3CD
102
}
330
3CD
100
AcDbXrecord
280
     1
102
RTVSPropertyOp0
 70
     0
102
RTVSPropertyOp1
 70
     0
102
RTVSPropertyOp2
 70
     0
102
RTVSPropertyOp3
 70
     0
102
RTVSPropertyOp4
 70
     0
102
RTVSPropertyOp5
 70
     0
102
RTVSPropertyOp6
 70
     0
102
RTVSPropertyOp7
 70
     0
102
RTVSPropertyOp8
 70
     0
102
RTVSPropertyOp9
 70
     0
102
RTVSPropertyOp10
 70
     0
102
RTVSPropertyOp11
 70
     0
102
RTVSPropertyOp12
 70
     0
102
RTVSPropertyOp13
 70
     0
102
RTVSPropertyOp14
 70
     2
102
RTVSPropertyOp15
 70
     0
102
RTVSPropertyOp16
 70
     0
102
RTVSPropertyOp17
 70
     0
102
RTVSPropertyOp18
 70
     0
102
RTVSPropertyOp19
 70
     0
102
RTVSPropertyOp20
 70
     0
102
RTVSPropertyOp21
 70
     0
102
RTVSPropertyOp22
 70
     0
102
RTVSPropertyOp23
 70
     0
102
RTVSPropertyOp24
 70
     0
102
RTVSPropertyOp25
 70
     0
102
RTVSPropertyOp26
 70
     0
102
RTVSPropertyOp27
 70
     0
102
RTVSPropertyOp28
 70
     0
102
RTVSPropertyOp29
 70
     0
102
RTVSPropertyOp30
 70
     0
102
RTVSPropertyOp31
 70
     0
102
RTVSPropertyOp32
 70
     0
102
RTVSPropertyOp33
 70
     0
102
RTVSPropertyOp34
 70
     0
102
RTVSPropertyOp35
 70
     0
102
RTVSPropertyOp36
 70
     0
102
RTVSPropertyOp37
 70
     0
102
RTVSPropertyOp38
 70
     0
102
RTVSPropertyOp39
 70
     0
102
RTVSPropertyOp40
 70
     0
102
RTVSPropertyOp41
 70
     0
102
RTVSPropertyOp42
 70
     0
102
RTVSPropertyOp43
 70
     0
102
RTVSPropertyOp44
 70
     0
102
RTVSPropertyOp45
 70
     0
102
RTVSPropertyOp46
 70
     0
102
RTVSPropertyOp47
 70
     0
102
RTVSPropertyOp48
 70
     0
102
RTVSPropertyOp49
 70
     0
102
RTVSPropertyOp50
 70
     0
102
RTVSPropertyOp51
 70
     0
102
RTVSPropertyOp52
 70
     0
102
RTVSPropertyOp53
 70
     0
102
RTVSPropertyOp54
 70
     0
102
RTVSPropertyOp55
 70
     0
102
RTVSPropertyOp56
 70
     0
102
RTVSPropertyOp57
 70
     0
102
RTVSPost2010Prop28
280
     0
102
RTVSPost2010PropOp28
 70
     0
102
RTVSPost2010Prop29
280
     1
102
RTVSPost2010PropOp29
 70
     0
102
RTVSPost2010Prop30
280
     1
102
RTVSPost2010PropOp30
 70
     0
102
RTVSPost2010Prop31
280
     0
102
RTVSPost2010PropOp31
 70
     0
102
RTVSPost2010Prop32
280
     0
102
RTVSPost2010PropOp32
 70
     0
102
RTVSPost2010Prop33
280
     0
102
RTVSPost2010PropOp33
 70
     0
102
RTVSPost2010Prop34
280
     0
102
RTVSPost2010PropOp34
 70
     0
102
RTVSPost2010Prop35
280
     0
102
RTVSPost2010PropOp35
 70
     0
102
RTVSPost2010Prop36
280
     0
102
RTVSPost2010PropOp36
 70
     0
102
RTVSPost2010Prop37
 90
       50
102
RTVSPost2010PropOp37
 70
     0
102
RTVSPost2010Prop38
140
0.0
102
RTVSPost2010PropOp38
 70
     0
102
RTVSPost2010Prop39
140
1.0
102
RTVSPost2010PropOp39
 70
     0
102
RTVSPost2010Prop40
 90
        0
102
RTVSPost2010PropOp40
 70
     0
102
RTVSPost2010Prop41ColorIndex
 90
       18
102
RTVSPost2010Prop41ColorRGB
 90
        0
102
RTVSPost2010PropOp41
 70
     0
102
RTVSPost2010Prop42
 90
       50
102
RTVSPost2010PropOp42
 70
     0
102
RTVSPost2010Prop43
 90
        3
102
RTVSPost2010PropOp43
 70
     0
102
RTVSPost2010Prop44ColorIndex
 90
        5
102
RTVSPost2010Prop44ColorRGB
 90
      255
102
RTVSPost2010PropOp44
 70
     0
102
RTVSPost2010Prop45
280
     0
102
RTVSPost2010PropOp45
 70
     0
102
RTVSPost2010Prop46
 90
       50
102
RTVSPost2010PropOp46
 70
     0
102
RTVSPost2010Prop47
 90
       50
102
RTVSPost2010PropOp47
 70
     0
102
RTVSPost2010Prop48
 90
       50
102
RTVSPost2010PropOp48
 70
     0
102
RTVSPost2010Prop49
280
     0
102
RTVSPost2010PropOp49
 70
     0
102
RTVSPost2010Prop50
 90
       50
102
RTVSPost2010PropOp50
 70
     0
102
RTVSPost2010Prop51ColorIndex
 90
      256
102
RTVSPost2010Prop51ColorRGB
 90
-16777216
102
RTVSPost2010PropOp51
 70
     0
102
RTVSPost2010Prop52
140
1.0
102
RTVSPost2010PropOp52
 70
     0
102
RTVSPost2010Prop53
 90
        2
102
RTVSPost2010PropOp53
 70
     0
102
RTVSPost2010Prop54
  1
strokes_ogs.tif
102
RTVSPost2010PropOp54
 70
     0
102
RTVSPost2010Prop55
280
     0
102
RTVSPost2010PropOp55
 70
     0
102
RTVSPost2010Prop56
140
1.0
102
RTVSPost2010PropOp56
 70
     0
102
RTVSPost2010Prop57
140
1.0
102
RTVSPost2010PropOp57
 70
     0
  0
XRECORD
  5
3C8
102
{ACAD_REACTORS
330
3C7
102
}
330
3C7
100
AcDbXrecord
280
     1
102
RTVSPropertyOp0
 70
     1
102
RTVSPropertyOp1
 70
     1
102
RTVSPropertyOp2
 70
     1
102
RTVSPropertyOp3
 70
     1
102
RTVSPropertyOp4
 70
     1
102
RTVSPropertyOp5
 70
     1
102
RTVSPropertyOp6
 70
     1
102
RTVSPropertyOp7
 70
     1
102
RTVSPropertyOp8
 70
     1
102
RTVSPropertyOp9
 70
     1
102
RTVSPropertyOp10
 70
     1
102
RTVSPropertyOp11
 70
     1
102
RTVSPropertyOp12
 70
     1
102
RTVSPropertyOp13
 70
     1
102
RTVSPropertyOp14
 70
     1
102
RTVSPropertyOp15
 70
     1
102
RTVSPropertyOp16
 70
     1
102
RTVSPropertyOp17
 70
     1
102
RTVSPropertyOp18
 70
     1
102
RTVSPropertyOp19
 70
     1
102
RTVSPropertyOp20
 70
     1
102
RTVSPropertyOp21
 70
     1
102
RTVSPropertyOp22
 70
     1
102
RTVSPropertyOp23
 70
     1
102
RTVSPropertyOp24
 70
     1
102
RTVSPropertyOp25
 70
     1
102
RTVSPropertyOp26
 70
     1
102
RTVSPropertyOp27
 70
     1
102
RTVSPropertyOp28
 70
     1
102
RTVSPropertyOp29
 70
     1
102
RTVSPropertyOp30
 70
     1
102
RTVSPropertyOp31
 70
     1
102
RTVSPropertyOp32
 70
     1
102
RTVSPropertyOp33
 70
     1
102
RTVSPropertyOp34
 70
     1
102
RTVSPropertyOp35
 70
     1
102
RTVSPropertyOp36
 70
     1
102
RTVSPropertyOp37
 70
     1
102
RTVSPropertyOp38
 70
     1
102
RTVSPropertyOp39
 70
     1
102
RTVSPropertyOp40
 70
     1
102
RTVSPropertyOp41
 70
     1
102
RTVSPropertyOp42
 70
     1
102
RTVSPropertyOp43
 70
     1
102
RTVSPropertyOp44
 70
     1
102
RTVSPropertyOp45
 70
     1
102
RTVSPropertyOp46
 70
     1
102
RTVSPropertyOp47
 70
     1
102
RTVSPropertyOp48
 70
     1
102
RTVSPropertyOp49
 70
     1
102
RTVSPropertyOp50
 70
     1
102
RTVSPropertyOp51
 70
     0
102
RTVSPropertyOp52
 70
     0
102
RTVSPropertyOp53
 70
     1
102
RTVSPropertyOp54
 70
     1
102
RTVSPropertyOp55
 70
     1
102
RTVSPropertyOp56
 70
     1
102
RTVSPropertyOp57
 70
     1
102
RTVSPost2010Prop28
280
     0
102
RTVSPost2010PropOp28
 70
     1
102
RTVSPost2010Prop29
280
     1
102
RTVSPost2010PropOp29
 70
     1
102
RTVSPost2010Prop30
280
     1
102
RTVSPost2010PropOp30
 70
     1
102
RTVSPost2010Prop31
280
     0
102
RTVSPost2010PropOp31
 70
     1
102
RTVSPost2010Prop32
280
     0
102
RTVSPost2010PropOp32
 70
     1
102
RTVSPost2010Prop33
280
     0
102
RTVSPost2010PropOp33
 70
     1
102
RTVSPost2010Prop34
280
     0
102
RTVSPost2010PropOp34
 70
     1
102
RTVSPost2010Prop35
280
     0
102
RTVSPost2010PropOp35
 70
     1
102
RTVSPost2010Prop36
280
     0
102
RTVSPost2010PropOp36
 70
     1
102
RTVSPost2010Prop37
 90
       50
102
RTVSPost2010PropOp37
 70
     1
102
RTVSPost2010Prop38
140
0.0
102
RTVSPost2010PropOp38
 70
     1
102
RTVSPost2010Prop39
140
1.0
102
RTVSPost2010PropOp39
 70
     1
102
RTVSPost2010Prop40
 90
        0
102
RTVSPost2010PropOp40
 70
     1
102
RTVSPost2010Prop41ColorIndex
 90
       18
102
RTVSPost2010Prop41ColorRGB
 90
        0
102
RTVSPost2010PropOp41
 70
     1
102
RTVSPost2010Prop42
 90
       50
102
RTVSPost2010PropOp42
 70
     1
102
RTVSPost2010Prop43
 90
        3
102
RTVSPost2010PropOp43
 70
     1
102
RTVSPost2010Prop44ColorIndex
 90
        5
102
RTVSPost2010Prop44ColorRGB
 90
      255
102
RTVSPost2010PropOp44
 70
     1
102
RTVSPost2010Prop45
280
     0
102
RTVSPost2010PropOp45
 70
     1
102
RTVSPost2010Prop46
 90
       50
102
RTVSPost2010PropOp46
 70
     1
102
RTVSPost2010Prop47
 90
       50
102
RTVSPost2010PropOp47
 70
     1
102
RTVSPost2010Prop48
 90
       50
102
RTVSPost2010PropOp48
 70
     1
102
RTVSPost2010Prop49
280
     0
102
RTVSPost2010PropOp49
 70
     1
102
RTVSPost2010Prop50
 90
       50
102
RTVSPost2010PropOp50
 70
     1
102
RTVSPost2010Prop51ColorIndex
 90
      256
102
RTVSPost2010Prop51ColorRGB
 90
-16777216
102
RTVSPost2010PropOp51
 70
     0
102
RTVSPost2010Prop52
140
1.0
102
RTVSPost2010PropOp52
 70
     0
102
RTVSPost2010Prop53
 90
        2
102
RTVSPost2010PropOp53
 70
     1
102
RTVSPost2010Prop54
  1
strokes_ogs.tif
102
RTVSPost2010PropOp54
 70
     1
102
RTVSPost2010Prop55
280
     0
102
RTVSPost2010PropOp55
 70
     1
102
RTVSPost2010Prop56
140
1.0
102
RTVSPost2010PropOp56
 70
     1
102
RTVSPost2010Prop57
140
1.0
102
RTVSPost2010PropOp57
 70
     1
  0
XRECORD
  5
3D0
102
{ACAD_REACTORS
330
3CF
102
}
330
3CF
100
AcDbXrecord
280
     1
102
RTVSPropertyOp0
 70
     0
102
RTVSPropertyOp1
 70
     0
102
RTVSPropertyOp2
 70
     0
102
RTVSPropertyOp3
 70
     0
102
RTVSPropertyOp4
 70
     0
102
RTVSPropertyOp5
 70
     0
102
RTVSPropertyOp6
 70
     0
102
RTVSPropertyOp7
 70
     0
102
RTVSPropertyOp8
 70
     0
102
RTVSPropertyOp9
 70
     0
102
RTVSPropertyOp10
 70
     0
102
RTVSPropertyOp11
 70
     0
102
RTVSPropertyOp12
 70
     0
102
RTVSPropertyOp13
 70
     0
102
RTVSPropertyOp14
 70
     2
102
RTVSPropertyOp15
 70
     0
102
RTVSPropertyOp16
 70
     0
102
RTVSPropertyOp17
 70
     0
102
RTVSPropertyOp18
 70
     0
102
RTVSPropertyOp19
 70
     0
102
RTVSPropertyOp20
 70
     0
102
RTVSPropertyOp21
 70
     0
102
RTVSPropertyOp22
 70
     0
102
RTVSPropertyOp23
 70
     0
102
RTVSPropertyOp24
 70
     0
102
RTVSPropertyOp25
 70
     0
102
RTVSPropertyOp26
 70
     0
102
RTVSPropertyOp27
 70
     0
102
RTVSPropertyOp28
 70
     0
102
RTVSPropertyOp29
 70
     0
102
RTVSPropertyOp30
 70
     0
102
RTVSPropertyOp31
 70
     0
102
RTVSPropertyOp32
 70
     0
102
RTVSPropertyOp33
 70
     0
102
RTVSPropertyOp34
 70
     0
102
RTVSPropertyOp35
 70
     0
102
RTVSPropertyOp36
 70
     0
102
RTVSPropertyOp37
 70
     0
102
RTVSPropertyOp38
 70
     0
102
RTVSPropertyOp39
 70
     0
102
RTVSPropertyOp40
 70
     0
102
RTVSPropertyOp41
 70
     0
102
RTVSPropertyOp42
 70
     0
102
RTVSPropertyOp43
 70
     0
102
RTVSPropertyOp44
 70
     0
102
RTVSPropertyOp45
 70
     0
102
RTVSPropertyOp46
 70
     0
102
RTVSPropertyOp47
 70
     0
102
RTVSPropertyOp48
 70
     0
102
RTVSPropertyOp49
 70
     0
102
RTVSPropertyOp50
 70
     0
102
RTVSPropertyOp51
 70
     0
102
RTVSPropertyOp52
 70
     0
102
RTVSPropertyOp53
 70
     0
102
RTVSPropertyOp54
 70
     0
102
RTVSPropertyOp55
 70
     0
102
RTVSPropertyOp56
 70
     0
102
RTVSPropertyOp57
 70
     0
102
RTVSPost2010Prop28
280
     0
102
RTVSPost2010PropOp28
 70
     0
102
RTVSPost2010Prop29
280
     1
102
RTVSPost2010PropOp29
 70
     0
102
RTVSPost2010Prop30
280
     1
102
RTVSPost2010PropOp30
 70
     0
102
RTVSPost2010Prop31
280
     0
102
RTVSPost2010PropOp31
 70
     0
102
RTVSPost2010Prop32
280
     0
102
RTVSPost2010PropOp32
 70
     0
102
RTVSPost2010Prop33
280
     0
102
RTVSPost2010PropOp33
 70
     0
102
RTVSPost2010Prop34
280
     0
102
RTVSPost2010PropOp34
 70
     0
102
RTVSPost2010Prop35
280
     0
102
RTVSPost2010PropOp35
 70
     0
102
RTVSPost2010Prop36
280
     0
102
RTVSPost2010PropOp36
 70
     0
102
RTVSPost2010Prop37
 90
       50
102
RTVSPost2010PropOp37
 70
     0
102
RTVSPost2010Prop38
140
0.0
102
RTVSPost2010PropOp38
 70
     0
102
RTVSPost2010Prop39
140
1.0
102
RTVSPost2010PropOp39
 70
     0
102
RTVSPost2010Prop40
 90
        0
102
RTVSPost2010PropOp40
 70
     0
102
RTVSPost2010Prop41ColorIndex
 90
       18
102
RTVSPost2010Prop41ColorRGB
 90
        0
102
RTVSPost2010PropOp41
 70
     0
102
RTVSPost2010Prop42
 90
       50
102
RTVSPost2010PropOp42
 70
     0
102
RTVSPost2010Prop43
 90
        3
102
RTVSPost2010PropOp43
 70
     0
102
RTVSPost2010Prop44ColorIndex
 90
        5
102
RTVSPost2010Prop44ColorRGB
 90
      255
102
RTVSPost2010PropOp44
 70
     0
102
RTVSPost2010Prop45
280
     0
102
RTVSPost2010PropOp45
 70
     0
102
RTVSPost2010Prop46
 90
       50
102
RTVSPost2010PropOp46
 70
     0
102
RTVSPost2010Prop47
 90
       50
102
RTVSPost2010PropOp47
 70
     0
102
RTVSPost2010Prop48
 90
       50
102
RTVSPost2010PropOp48
 70
     0
102
RTVSPost2010Prop49
280
     0
102
RTVSPost2010PropOp49
 70
     0
102
RTVSPost2010Prop50
 90
       50
102
RTVSPost2010PropOp50
 70
     0
102
RTVSPost2010Prop51ColorIndex
 90
      256
102
RTVSPost2010Prop51ColorRGB
 90
-16777216
102
RTVSPost2010PropOp51
 70
     0
102
RTVSPost2010Prop52
140
1.0
102
RTVSPost2010PropOp52
 70
     0
102
RTVSPost2010Prop53
 90
        2
102
RTVSPost2010PropOp53
 70
     0
102
RTVSPost2010Prop54
  1
strokes_ogs.tif
102
RTVSPost2010PropOp54
 70
     0
102
RTVSPost2010Prop55
280
     0
102
RTVSPost2010PropOp55
 70
     0
102
RTVSPost2010Prop56
140
1.0
102
RTVSPost2010PropOp56
 70
     0
102
RTVSPost2010Prop57
140
1.0
102
RTVSPost2010PropOp57
 70
     0
  0
XRECORD
  5
3BE
102
{ACAD_REACTORS
330
3BD
102
}
330
3BD
100
AcDbXrecord
280
     1
102
RTVSPropertyOp0
 70
     1
102
RTVSPropertyOp1
 70
     1
102
RTVSPropertyOp2
 70
     1
102
RTVSPropertyOp3
 70
     1
102
RTVSPropertyOp4
 70
     1
102
RTVSPropertyOp5
 70
     1
102
RTVSPropertyOp6
 70
     1
102
RTVSPropertyOp7
 70
     1
102
RTVSPropertyOp8
 70
     1
102
RTVSPropertyOp9
 70
     1
102
RTVSPropertyOp10
 70
     1
102
RTVSPropertyOp11
 70
     1
102
RTVSPropertyOp12
 70
     1
102
RTVSPropertyOp13
 70
     1
102
RTVSPropertyOp14
 70
     1
102
RTVSPropertyOp15
 70
     1
102
RTVSPropertyOp16
 70
     1
102
RTVSPropertyOp17
 70
     1
102
RTVSPropertyOp18
 70
     1
102
RTVSPropertyOp19
 70
     1
102
RTVSPropertyOp20
 70
     1
102
RTVSPropertyOp21
 70
     1
102
RTVSPropertyOp22
 70
     1
102
RTVSPropertyOp23
 70
     1
102
RTVSPropertyOp24
 70
     1
102
RTVSPropertyOp25
 70
     1
102
RTVSPropertyOp26
 70
     1
102
RTVSPropertyOp27
 70
     1
102
RTVSPropertyOp28
 70
     1
102
RTVSPropertyOp29
 70
     1
102
RTVSPropertyOp30
 70
     1
102
RTVSPropertyOp31
 70
     1
102
RTVSPropertyOp32
 70
     1
102
RTVSPropertyOp33
 70
     1
102
RTVSPropertyOp34
 70
     1
102
RTVSPropertyOp35
 70
     1
102
RTVSPropertyOp36
 70
     1
102
RTVSPropertyOp37
 70
     1
102
RTVSPropertyOp38
 70
     1
102
RTVSPropertyOp39
 70
     1
102
RTVSPropertyOp40
 70
     1
102
RTVSPropertyOp41
 70
     1
102
RTVSPropertyOp42
 70
     1
102
RTVSPropertyOp43
 70
     1
102
RTVSPropertyOp44
 70
     1
102
RTVSPropertyOp45
 70
     1
102
RTVSPropertyOp46
 70
     1
102
RTVSPropertyOp47
 70
     1
102
RTVSPropertyOp48
 70
     1
102
RTVSPropertyOp49
 70
     1
102
RTVSPropertyOp50
 70
     1
102
RTVSPropertyOp51
 70
     0
102
RTVSPropertyOp52
 70
     0
102
RTVSPropertyOp53
 70
     1
102
RTVSPropertyOp54
 70
     1
102
RTVSPropertyOp55
 70
     1
102
RTVSPropertyOp56
 70
     1
102
RTVSPropertyOp57
 70
     1
102
RTVSPost2010Prop28
280
     0
102
RTVSPost2010PropOp28
 70
     1
102
RTVSPost2010Prop29
280
     1
102
RTVSPost2010PropOp29
 70
     1
102
RTVSPost2010Prop30
280
     1
102
RTVSPost2010PropOp30
 70
     1
102
RTVSPost2010Prop31
280
     0
102
RTVSPost2010PropOp31
 70
     1
102
RTVSPost2010Prop32
280
     0
102
RTVSPost2010PropOp32
 70
     1
102
RTVSPost2010Prop33
280
     0
102
RTVSPost2010PropOp33
 70
     1
102
RTVSPost2010Prop34
280
     0
102
RTVSPost2010PropOp34
 70
     1
102
RTVSPost2010Prop35
280
     0
102
RTVSPost2010PropOp35
 70
     1
102
RTVSPost2010Prop36
280
     0
102
RTVSPost2010PropOp36
 70
     1
102
RTVSPost2010Prop37
 90
       50
102
RTVSPost2010PropOp37
 70
     1
102
RTVSPost2010Prop38
140
0.0
102
RTVSPost2010PropOp38
 70
     1
102
RTVSPost2010Prop39
140
1.0
102
RTVSPost2010PropOp39
 70
     1
102
RTVSPost2010Prop40
 90
        0
102
RTVSPost2010PropOp40
 70
     1
102
RTVSPost2010Prop41ColorIndex
 90
       18
102
RTVSPost2010Prop41ColorRGB
 90
        0
102
RTVSPost2010PropOp41
 70
     1
102
RTVSPost2010Prop42
 90
       50
102
RTVSPost2010PropOp42
 70
     1
102
RTVSPost2010Prop43
 90
        3
102
RTVSPost2010PropOp43
 70
     1
102
RTVSPost2010Prop44ColorIndex
 90
        5
102
RTVSPost2010Prop44ColorRGB
 90
      255
102
RTVSPost2010PropOp44
 70
     1
102
RTVSPost2010Prop45
280
     0
102
RTVSPost2010PropOp45
 70
     1
102
RTVSPost2010Prop46
 90
       50
102
RTVSPost2010PropOp46
 70
     1
102
RTVSPost2010Prop47
 90
       50
102
RTVSPost2010PropOp47
 70
     1
102
RTVSPost2010Prop48
 90
       50
102
RTVSPost2010PropOp48
 70
     1
102
RTVSPost2010Prop49
280
     0
102
RTVSPost2010PropOp49
 70
     1
102
RTVSPost2010Prop50
 90
       50
102
RTVSPost2010PropOp50
 70
     1
102
RTVSPost2010Prop51ColorIndex
 90
      256
102
RTVSPost2010Prop51ColorRGB
 90
-16777216
102
RTVSPost2010PropOp51
 70
     0
102
RTVSPost2010Prop52
140
1.0
102
RTVSPost2010PropOp52
 70
     0
102
RTVSPost2010Prop53
 90
        2
102
RTVSPost2010PropOp53
 70
     1
102
RTVSPost2010Prop54
  1
strokes_ogs.tif
102
RTVSPost2010PropOp54
 70
     1
102
RTVSPost2010Prop55
280
     0
102
RTVSPost2010PropOp55
 70
     1
102
RTVSPost2010Prop56
140
1.0
102
RTVSPost2010PropOp56
 70
     1
102
RTVSPost2010Prop57
140
1.0
102
RTVSPost2010PropOp57
 70
     1
  0
XRECORD
  5
3DC
102
{ACAD_REACTORS
330
3DB
102
}
330
3DB
100
AcDbXrecord
280
     1
102
RTVSPropertyOp0
 70
     1
102
RTVSPropertyOp1
 70
     1
102
RTVSPropertyOp2
 70
     1
102
RTVSPropertyOp3
 70
     1
102
RTVSPropertyOp4
 70
     1
102
RTVSPropertyOp5
 70
     1
102
RTVSPropertyOp6
 70
     1
102
RTVSPropertyOp7
 70
     1
102
RTVSPropertyOp8
 70
     1
102
RTVSPropertyOp9
 70
     1
102
RTVSPropertyOp10
 70
     1
102
RTVSPropertyOp11
 70
     1
102
RTVSPropertyOp12
 70
     1
102
RTVSPropertyOp13
 70
     1
102
RTVSPropertyOp14
 70
     1
102
RTVSPropertyOp15
 70
     1
102
RTVSPropertyOp16
 70
     1
102
RTVSPropertyOp17
 70
     1
102
RTVSPropertyOp18
 70
     1
102
RTVSPropertyOp19
 70
     1
102
RTVSPropertyOp20
 70
     1
102
RTVSPropertyOp21
 70
     1
102
RTVSPropertyOp22
 70
     1
102
RTVSPropertyOp23
 70
     1
102
RTVSPropertyOp24
 70
     1
102
RTVSPropertyOp25
 70
     1
102
RTVSPropertyOp26
 70
     1
102
RTVSPropertyOp27
 70
     1
102
RTVSPropertyOp28
 70
     1
102
RTVSPropertyOp29
 70
     1
102
RTVSPropertyOp30
 70
     1
102
RTVSPropertyOp31
 70
     1
102
RTVSPropertyOp32
 70
     1
102
RTVSPropertyOp33
 70
     1
102
RTVSPropertyOp34
 70
     1
102
RTVSPropertyOp35
 70
     1
102
RTVSPropertyOp36
 70
     1
102
RTVSPropertyOp37
 70
     1
102
RTVSPropertyOp38
 70
     1
102
RTVSPropertyOp39
 70
     1
102
RTVSPropertyOp40
 70
     1
102
RTVSPropertyOp41
 70
     1
102
RTVSPropertyOp42
 70
     1
102
RTVSPropertyOp43
 70
     1
102
RTVSPropertyOp44
 70
     1
102
RTVSPropertyOp45
 70
     1
102
RTVSPropertyOp46
 70
     1
102
RTVSPropertyOp47
 70
     1
102
RTVSPropertyOp48
 70
     1
102
RTVSPropertyOp49
 70
     1
102
RTVSPropertyOp50
 70
     1
102
RTVSPropertyOp51
 70
     0
102
RTVSPropertyOp52
 70
     0
102
RTVSPropertyOp53
 70
     1
102
RTVSPropertyOp54
 70
     1
102
RTVSPropertyOp55
 70
     1
102
RTVSPropertyOp56
 70
     1
102
RTVSPropertyOp57
 70
     1
102
RTVSPost2010Prop28
280
     0
102
RTVSPost2010PropOp28
 70
     1
102
RTVSPost2010Prop29
280
     1
102
RTVSPost2010PropOp29
 70
     1
102
RTVSPost2010Prop30
280
     1
102
RTVSPost2010PropOp30
 70
     1
102
RTVSPost2010Prop31
280
     0
102
RTVSPost2010PropOp31
 70
     1
102
RTVSPost2010Prop32
280
     0
102
RTVSPost2010PropOp32
 70
     1
102
RTVSPost2010Prop33
280
     0
102
RTVSPost2010PropOp33
 70
     1
102
RTVSPost2010Prop34
280
     0
102
RTVSPost2010PropOp34
 70
     1
102
RTVSPost2010Prop35
280
     0
102
RTVSPost2010PropOp35
 70
     1
102
RTVSPost2010Prop36
280
     0
102
RTVSPost2010PropOp36
 70
     1
102
RTVSPost2010Prop37
 90
       50
102
RTVSPost2010PropOp37
 70
     1
102
RTVSPost2010Prop38
140
0.0
102
RTVSPost2010PropOp38
 70
     1
102
RTVSPost2010Prop39
140
1.0
102
RTVSPost2010PropOp39
 70
     1
102
RTVSPost2010Prop40
 90
        0
102
RTVSPost2010PropOp40
 70
     1
102
RTVSPost2010Prop41ColorIndex
 90
       18
102
RTVSPost2010Prop41ColorRGB
 90
        0
102
RTVSPost2010PropOp41
 70
     1
102
RTVSPost2010Prop42
 90
       50
102
RTVSPost2010PropOp42
 70
     1
102
RTVSPost2010Prop43
 90
        3
102
RTVSPost2010PropOp43
 70
     1
102
RTVSPost2010Prop44ColorIndex
 90
        5
102
RTVSPost2010Prop44ColorRGB
 90
      255
102
RTVSPost2010PropOp44
 70
     1
102
RTVSPost2010Prop45
280
     0
102
RTVSPost2010PropOp45
 70
     1
102
RTVSPost2010Prop46
 90
       50
102
RTVSPost2010PropOp46
 70
     1
102
RTVSPost2010Prop47
 90
       50
102
RTVSPost2010PropOp47
 70
     1
102
RTVSPost2010Prop48
 90
       50
102
RTVSPost2010PropOp48
 70
     1
102
RTVSPost2010Prop49
280
     0
102
RTVSPost2010PropOp49
 70
     1
102
RTVSPost2010Prop50
 90
       50
102
RTVSPost2010PropOp50
 70
     1
102
RTVSPost2010Prop51ColorIndex
 90
      256
102
RTVSPost2010Prop51ColorRGB
 90
-16777216
102
RTVSPost2010PropOp51
 70
     0
102
RTVSPost2010Prop52
140
1.0
102
RTVSPost2010PropOp52
 70
     0
102
RTVSPost2010Prop53
 90
        2
102
RTVSPost2010PropOp53
 70
     1
102
RTVSPost2010Prop54
  1
strokes_ogs.tif
102
RTVSPost2010PropOp54
 70
     1
102
RTVSPost2010Prop55
280
     0
102
RTVSPost2010PropOp55
 70
     1
102
RTVSPost2010Prop56
140
1.0
102
RTVSPost2010PropOp56
 70
     1
102
RTVSPost2010Prop57
140
1.0
102
RTVSPost2010PropOp57
 70
     1
  0
XRECORD
  5
3DA
102
{ACAD_REACTORS
330
3D9
102
}
330
3D9
100
AcDbXrecord
280
     1
102
RTVSPropertyOp0
 70
     1
102
RTVSPropertyOp1
 70
     1
102
RTVSPropertyOp2
 70
     1
102
RTVSPropertyOp3
 70
     1
102
RTVSPropertyOp4
 70
     1
102
RTVSPropertyOp5
 70
     1
102
RTVSPropertyOp6
 70
     1
102
RTVSPropertyOp7
 70
     1
102
RTVSPropertyOp8
 70
     1
102
RTVSPropertyOp9
 70
     1
102
RTVSPropertyOp10
 70
     1
102
RTVSPropertyOp11
 70
     1
102
RTVSPropertyOp12
 70
     1
102
RTVSPropertyOp13
 70
     1
102
RTVSPropertyOp14
 70
     1
102
RTVSPropertyOp15
 70
     1
102
RTVSPropertyOp16
 70
     1
102
RTVSPropertyOp17
 70
     1
102
RTVSPropertyOp18
 70
     1
102
RTVSPropertyOp19
 70
     1
102
RTVSPropertyOp20
 70
     1
102
RTVSPropertyOp21
 70
     1
102
RTVSPropertyOp22
 70
     1
102
RTVSPropertyOp23
 70
     1
102
RTVSPropertyOp24
 70
     1
102
RTVSPropertyOp25
 70
     1
102
RTVSPropertyOp26
 70
     1
102
RTVSPropertyOp27
 70
     1
102
RTVSPropertyOp28
 70
     1
102
RTVSPropertyOp29
 70
     1
102
RTVSPropertyOp30
 70
     1
102
RTVSPropertyOp31
 70
     1
102
RTVSPropertyOp32
 70
     1
102
RTVSPropertyOp33
 70
     1
102
RTVSPropertyOp34
 70
     1
102
RTVSPropertyOp35
 70
     1
102
RTVSPropertyOp36
 70
     1
102
RTVSPropertyOp37
 70
     1
102
RTVSPropertyOp38
 70
     1
102
RTVSPropertyOp39
 70
     1
102
RTVSPropertyOp40
 70
     1
102
RTVSPropertyOp41
 70
     1
102
RTVSPropertyOp42
 70
     1
102
RTVSPropertyOp43
 70
     1
102
RTVSPropertyOp44
 70
     1
102
RTVSPropertyOp45
 70
     1
102
RTVSPropertyOp46
 70
     1
102
RTVSPropertyOp47
 70
     1
102
RTVSPropertyOp48
 70
     1
102
RTVSPropertyOp49
 70
     1
102
RTVSPropertyOp50
 70
     1
102
RTVSPropertyOp51
 70
     0
102
RTVSPropertyOp52
 70
     0
102
RTVSPropertyOp53
 70
     1
102
RTVSPropertyOp54
 70
     1
102
RTVSPropertyOp55
 70
     1
102
RTVSPropertyOp56
 70
     1
102
RTVSPropertyOp57
 70
     1
102
RTVSPost2010Prop28
280
     0
102
RTVSPost2010PropOp28
 70
     1
102
RTVSPost2010Prop29
280
     1
102
RTVSPost2010PropOp29
 70
     1
102
RTVSPost2010Prop30
280
     1
102
RTVSPost2010PropOp30
 70
     1
102
RTVSPost2010Prop31
280
     0
102
RTVSPost2010PropOp31
 70
     1
102
RTVSPost2010Prop32
280
     0
102
RTVSPost2010PropOp32
 70
     1
102
RTVSPost2010Prop33
280
     0
102
RTVSPost2010PropOp33
 70
     1
102
RTVSPost2010Prop34
280
     0
102
RTVSPost2010PropOp34
 70
     1
102
RTVSPost2010Prop35
280
     0
102
RTVSPost2010PropOp35
 70
     1
102
RTVSPost2010Prop36
280
     0
102
RTVSPost2010PropOp36
 70
     1
102
RTVSPost2010Prop37
 90
       50
102
RTVSPost2010PropOp37
 70
     1
102
RTVSPost2010Prop38
140
0.0
102
RTVSPost2010PropOp38
 70
     1
102
RTVSPost2010Prop39
140
1.0
102
RTVSPost2010PropOp39
 70
     1
102
RTVSPost2010Prop40
 90
        0
102
RTVSPost2010PropOp40
 70
     1
102
RTVSPost2010Prop41ColorIndex
 90
       18
102
RTVSPost2010Prop41ColorRGB
 90
        0
102
RTVSPost2010PropOp41
 70
     1
102
RTVSPost2010Prop42
 90
       50
102
RTVSPost2010PropOp42
 70
     1
102
RTVSPost2010Prop43
 90
        3
102
RTVSPost2010PropOp43
 70
     1
102
RTVSPost2010Prop44ColorIndex
 90
        5
102
RTVSPost2010Prop44ColorRGB
 90
      255
102
RTVSPost2010PropOp44
 70
     1
102
RTVSPost2010Prop45
280
     0
102
RTVSPost2010PropOp45
 70
     1
102
RTVSPost2010Prop46
 90
       50
102
RTVSPost2010PropOp46
 70
     1
102
RTVSPost2010Prop47
 90
       50
102
RTVSPost2010PropOp47
 70
     1
102
RTVSPost2010Prop48
 90
       50
102
RTVSPost2010PropOp48
 70
     1
102
RTVSPost2010Prop49
280
     0
102
RTVSPost2010PropOp49
 70
     1
102
RTVSPost2010Prop50
 90
       50
102
RTVSPost2010PropOp50
 70
     1
102
RTVSPost2010Prop51ColorIndex
 90
      256
102
RTVSPost2010Prop51ColorRGB
 90
-16777216
102
RTVSPost2010PropOp51
 70
     0
102
RTVSPost2010Prop52
140
1.0
102
RTVSPost2010PropOp52
 70
     0
102
RTVSPost2010Prop53
 90
        2
102
RTVSPost2010PropOp53
 70
     1
102
RTVSPost2010Prop54
  1
strokes_ogs.tif
102
RTVSPost2010PropOp54
 70
     1
102
RTVSPost2010Prop55
280
     0
102
RTVSPost2010PropOp55
 70
     1
102
RTVSPost2010Prop56
140
1.0
102
RTVSPost2010PropOp56
 70
     1
102
RTVSPost2010Prop57
140
1.0
102
RTVSPost2010PropOp57
 70
     1
  0
XRECORD
  5
3D4
102
{ACAD_REACTORS
330
3D3
102
}
330
3D3
100
AcDbXrecord
280
     1
102
RTVSPropertyOp0
 70
     1
102
RTVSPropertyOp1
 70
     1
102
RTVSPropertyOp2
 70
     1
102
RTVSPropertyOp3
 70
     1
102
RTVSPropertyOp4
 70
     1
102
RTVSPropertyOp5
 70
     1
102
RTVSPropertyOp6
 70
     1
102
RTVSPropertyOp7
 70
     1
102
RTVSPropertyOp8
 70
     1
102
RTVSPropertyOp9
 70
     1
102
RTVSPropertyOp10
 70
     1
102
RTVSPropertyOp11
 70
     1
102
RTVSPropertyOp12
 70
     1
102
RTVSPropertyOp13
 70
     1
102
RTVSPropertyOp14
 70
     1
102
RTVSPropertyOp15
 70
     1
102
RTVSPropertyOp16
 70
     1
102
RTVSPropertyOp17
 70
     1
102
RTVSPropertyOp18
 70
     1
102
RTVSPropertyOp19
 70
     1
102
RTVSPropertyOp20
 70
     1
102
RTVSPropertyOp21
 70
     1
102
RTVSPropertyOp22
 70
     1
102
RTVSPropertyOp23
 70
     1
102
RTVSPropertyOp24
 70
     1
102
RTVSPropertyOp25
 70
     1
102
RTVSPropertyOp26
 70
     1
102
RTVSPropertyOp27
 70
     1
102
RTVSPropertyOp28
 70
     1
102
RTVSPropertyOp29
 70
     1
102
RTVSPropertyOp30
 70
     1
102
RTVSPropertyOp31
 70
     1
102
RTVSPropertyOp32
 70
     1
102
RTVSPropertyOp33
 70
     1
102
RTVSPropertyOp34
 70
     1
102
RTVSPropertyOp35
 70
     1
102
RTVSPropertyOp36
 70
     1
102
RTVSPropertyOp37
 70
     1
102
RTVSPropertyOp38
 70
     1
102
RTVSPropertyOp39
 70
     1
102
RTVSPropertyOp40
 70
     1
102
RTVSPropertyOp41
 70
     1
102
RTVSPropertyOp42
 70
     1
102
RTVSPropertyOp43
 70
     1
102
RTVSPropertyOp44
 70
     1
102
RTVSPropertyOp45
 70
     1
102
RTVSPropertyOp46
 70
     1
102
RTVSPropertyOp47
 70
     1
102
RTVSPropertyOp48
 70
     1
102
RTVSPropertyOp49
 70
     1
102
RTVSPropertyOp50
 70
     1
102
RTVSPropertyOp51
 70
     0
102
RTVSPropertyOp52
 70
     0
102
RTVSPropertyOp53
 70
     1
102
RTVSPropertyOp54
 70
     1
102
RTVSPropertyOp55
 70
     1
102
RTVSPropertyOp56
 70
     1
102
RTVSPropertyOp57
 70
     1
102
RTVSPost2010Prop28
280
     0
102
RTVSPost2010PropOp28
 70
     1
102
RTVSPost2010Prop29
280
     1
102
RTVSPost2010PropOp29
 70
     1
102
RTVSPost2010Prop30
280
     1
102
RTVSPost2010PropOp30
 70
     1
102
RTVSPost2010Prop31
280
     0
102
RTVSPost2010PropOp31
 70
     1
102
RTVSPost2010Prop32
280
     0
102
RTVSPost2010PropOp32
 70
     1
102
RTVSPost2010Prop33
280
     0
102
RTVSPost2010PropOp33
 70
     1
102
RTVSPost2010Prop34
280
     0
102
RTVSPost2010PropOp34
 70
     1
102
RTVSPost2010Prop35
280
     0
102
RTVSPost2010PropOp35
 70
     1
102
RTVSPost2010Prop36
280
     0
102
RTVSPost2010PropOp36
 70
     1
102
RTVSPost2010Prop37
 90
       50
102
RTVSPost2010PropOp37
 70
     1
102
RTVSPost2010Prop38
140
0.0
102
RTVSPost2010PropOp38
 70
     1
102
RTVSPost2010Prop39
140
1.0
102
RTVSPost2010PropOp39
 70
     1
102
RTVSPost2010Prop40
 90
        0
102
RTVSPost2010PropOp40
 70
     1
102
RTVSPost2010Prop41ColorIndex
 90
       18
102
RTVSPost2010Prop41ColorRGB
 90
        0
102
RTVSPost2010PropOp41
 70
     1
102
RTVSPost2010Prop42
 90
       50
102
RTVSPost2010PropOp42
 70
     1
102
RTVSPost2010Prop43
 90
        3
102
RTVSPost2010PropOp43
 70
     1
102
RTVSPost2010Prop44ColorIndex
 90
        5
102
RTVSPost2010Prop44ColorRGB
 90
      255
102
RTVSPost2010PropOp44
 70
     1
102
RTVSPost2010Prop45
280
     0
102
RTVSPost2010PropOp45
 70
     1
102
RTVSPost2010Prop46
 90
       50
102
RTVSPost2010PropOp46
 70
     1
102
RTVSPost2010Prop47
 90
       50
102
RTVSPost2010PropOp47
 70
     1
102
RTVSPost2010Prop48
 90
       50
102
RTVSPost2010PropOp48
 70
     1
102
RTVSPost2010Prop49
280
     0
102
RTVSPost2010PropOp49
 70
     1
102
RTVSPost2010Prop50
 90
       50
102
RTVSPost2010PropOp50
 70
     1
102
RTVSPost2010Prop51ColorIndex
 90
      256
102
RTVSPost2010Prop51ColorRGB
 90
-16777216
102
RTVSPost2010PropOp51
 70
     0
102
RTVSPost2010Prop52
140
1.0
102
RTVSPost2010PropOp52
 70
     0
102
RTVSPost2010Prop53
 90
        2
102
RTVSPost2010PropOp53
 70
     1
102
RTVSPost2010Prop54
  1
strokes_ogs.tif
102
RTVSPost2010PropOp54
 70
     1
102
RTVSPost2010Prop55
280
     0
102
RTVSPost2010PropOp55
 70
     1
102
RTVSPost2010Prop56
140
1.0
102
RTVSPost2010PropOp56
 70
     1
102
RTVSPost2010Prop57
140
1.0
102
RTVSPost2010PropOp57
 70
     1
  0
XRECORD
  5
3D6
102
{ACAD_REACTORS
330
3D5
102
}
330
3D5
100
AcDbXrecord
280
     1
102
RTVSPropertyOp0
 70
     1
102
RTVSPropertyOp1
 70
     1
102
RTVSPropertyOp2
 70
     1
102
RTVSPropertyOp3
 70
     1
102
RTVSPropertyOp4
 70
     1
102
RTVSPropertyOp5
 70
     1
102
RTVSPropertyOp6
 70
     1
102
RTVSPropertyOp7
 70
     1
102
RTVSPropertyOp8
 70
     1
102
RTVSPropertyOp9
 70
     1
102
RTVSPropertyOp10
 70
     1
102
RTVSPropertyOp11
 70
     1
102
RTVSPropertyOp12
 70
     1
102
RTVSPropertyOp13
 70
     1
102
RTVSPropertyOp14
 70
     1
102
RTVSPropertyOp15
 70
     1
102
RTVSPropertyOp16
 70
     1
102
RTVSPropertyOp17
 70
     1
102
RTVSPropertyOp18
 70
     1
102
RTVSPropertyOp19
 70
     1
102
RTVSPropertyOp20
 70
     1
102
RTVSPropertyOp21
 70
     1
102
RTVSPropertyOp22
 70
     1
102
RTVSPropertyOp23
 70
     1
102
RTVSPropertyOp24
 70
     1
102
RTVSPropertyOp25
 70
     1
102
RTVSPropertyOp26
 70
     1
102
RTVSPropertyOp27
 70
     1
102
RTVSPropertyOp28
 70
     1
102
RTVSPropertyOp29
 70
     1
102
RTVSPropertyOp30
 70
     1
102
RTVSPropertyOp31
 70
     1
102
RTVSPropertyOp32
 70
     1
102
RTVSPropertyOp33
 70
     1
102
RTVSPropertyOp34
 70
     1
102
RTVSPropertyOp35
 70
     1
102
RTVSPropertyOp36
 70
     1
102
RTVSPropertyOp37
 70
     1
102
RTVSPropertyOp38
 70
     1
102
RTVSPropertyOp39
 70
     1
102
RTVSPropertyOp40
 70
     1
102
RTVSPropertyOp41
 70
     1
102
RTVSPropertyOp42
 70
     1
102
RTVSPropertyOp43
 70
     1
102
RTVSPropertyOp44
 70
     1
102
RTVSPropertyOp45
 70
     1
102
RTVSPropertyOp46
 70
     1
102
RTVSPropertyOp47
 70
     1
102
RTVSPropertyOp48
 70
     1
102
RTVSPropertyOp49
 70
     1
102
RTVSPropertyOp50
 70
     1
102
RTVSPropertyOp51
 70
     0
102
RTVSPropertyOp52
 70
     0
102
RTVSPropertyOp53
 70
     1
102
RTVSPropertyOp54
 70
     1
102
RTVSPropertyOp55
 70
     1
102
RTVSPropertyOp56
 70
     1
102
RTVSPropertyOp57
 70
     1
102
RTVSPost2010Prop28
280
     0
102
RTVSPost2010PropOp28
 70
     1
102
RTVSPost2010Prop29
280
     1
102
RTVSPost2010PropOp29
 70
     1
102
RTVSPost2010Prop30
280
     1
102
RTVSPost2010PropOp30
 70
     1
102
RTVSPost2010Prop31
280
     0
102
RTVSPost2010PropOp31
 70
     1
102
RTVSPost2010Prop32
280
     0
102
RTVSPost2010PropOp32
 70
     1
102
RTVSPost2010Prop33
280
     0
102
RTVSPost2010PropOp33
 70
     1
102
RTVSPost2010Prop34
280
     0
102
RTVSPost2010PropOp34
 70
     1
102
RTVSPost2010Prop35
280
     0
102
RTVSPost2010PropOp35
 70
     1
102
RTVSPost2010Prop36
280
     0
102
RTVSPost2010PropOp36
 70
     1
102
RTVSPost2010Prop37
 90
       50
102
RTVSPost2010PropOp37
 70
     1
102
RTVSPost2010Prop38
140
0.0
102
RTVSPost2010PropOp38
 70
     1
102
RTVSPost2010Prop39
140
1.0
102
RTVSPost2010PropOp39
 70
     1
102
RTVSPost2010Prop40
 90
        0
102
RTVSPost2010PropOp40
 70
     1
102
RTVSPost2010Prop41ColorIndex
 90
       18
102
RTVSPost2010Prop41ColorRGB
 90
        0
102
RTVSPost2010PropOp41
 70
     1
102
RTVSPost2010Prop42
 90
       50
102
RTVSPost2010PropOp42
 70
     1
102
RTVSPost2010Prop43
 90
        3
102
RTVSPost2010PropOp43
 70
     1
102
RTVSPost2010Prop44ColorIndex
 90
        5
102
RTVSPost2010Prop44ColorRGB
 90
      255
102
RTVSPost2010PropOp44
 70
     1
102
RTVSPost2010Prop45
280
     0
102
RTVSPost2010PropOp45
 70
     1
102
RTVSPost2010Prop46
 90
       50
102
RTVSPost2010PropOp46
 70
     1
102
RTVSPost2010Prop47
 90
       50
102
RTVSPost2010PropOp47
 70
     1
102
RTVSPost2010Prop48
 90
       50
102
RTVSPost2010PropOp48
 70
     1
102
RTVSPost2010Prop49
280
     0
102
RTVSPost2010PropOp49
 70
     1
102
RTVSPost2010Prop50
 90
       50
102
RTVSPost2010PropOp50
 70
     1
102
RTVSPost2010Prop51ColorIndex
 90
      256
102
RTVSPost2010Prop51ColorRGB
 90
-16777216
102
RTVSPost2010PropOp51
 70
     0
102
RTVSPost2010Prop52
140
1.0
102
RTVSPost2010PropOp52
 70
     0
102
RTVSPost2010Prop53
 90
        2
102
RTVSPost2010PropOp53
 70
     1
102
RTVSPost2010Prop54
  1
strokes_ogs.tif
102
RTVSPost2010PropOp54
 70
     1
102
RTVSPost2010Prop55
280
     0
102
RTVSPost2010PropOp55
 70
     1
102
RTVSPost2010Prop56
140
1.0
102
RTVSPost2010PropOp56
 70
     1
102
RTVSPost2010Prop57
140
1.0
102
RTVSPost2010PropOp57
 70
     1
  0
XRECORD
  5
3C6
102
{ACAD_REACTORS
330
3C5
102
}
330
3C5
100
AcDbXrecord
280
     1
102
RTVSPropertyOp0
 70
     1
102
RTVSPropertyOp1
 70
     1
102
RTVSPropertyOp2
 70
     1
102
RTVSPropertyOp3
 70
     1
102
RTVSPropertyOp4
 70
     1
102
RTVSPropertyOp5
 70
     1
102
RTVSPropertyOp6
 70
     1
102
RTVSPropertyOp7
 70
     1
102
RTVSPropertyOp8
 70
     1
102
RTVSPropertyOp9
 70
     1
102
RTVSPropertyOp10
 70
     1
102
RTVSPropertyOp11
 70
     1
102
RTVSPropertyOp12
 70
     1
102
RTVSPropertyOp13
 70
     1
102
RTVSPropertyOp14
 70
     1
102
RTVSPropertyOp15
 70
     1
102
RTVSPropertyOp16
 70
     1
102
RTVSPropertyOp17
 70
     1
102
RTVSPropertyOp18
 70
     1
102
RTVSPropertyOp19
 70
     1
102
RTVSPropertyOp20
 70
     1
102
RTVSPropertyOp21
 70
     1
102
RTVSPropertyOp22
 70
     1
102
RTVSPropertyOp23
 70
     1
102
RTVSPropertyOp24
 70
     1
102
RTVSPropertyOp25
 70
     1
102
RTVSPropertyOp26
 70
     1
102
RTVSPropertyOp27
 70
     1
102
RTVSPropertyOp28
 70
     1
102
RTVSPropertyOp29
 70
     1
102
RTVSPropertyOp30
 70
     1
102
RTVSPropertyOp31
 70
     1
102
RTVSPropertyOp32
 70
     1
102
RTVSPropertyOp33
 70
     1
102
RTVSPropertyOp34
 70
     1
102
RTVSPropertyOp35
 70
     1
102
RTVSPropertyOp36
 70
     1
102
RTVSPropertyOp37
 70
     1
102
RTVSPropertyOp38
 70
     1
102
RTVSPropertyOp39
 70
     1
102
RTVSPropertyOp40
 70
     1
102
RTVSPropertyOp41
 70
     1
102
RTVSPropertyOp42
 70
     1
102
RTVSPropertyOp43
 70
     1
102
RTVSPropertyOp44
 70
     1
102
RTVSPropertyOp45
 70
     1
102
RTVSPropertyOp46
 70
     1
102
RTVSPropertyOp47
 70
     1
102
RTVSPropertyOp48
 70
     1
102
RTVSPropertyOp49
 70
     1
102
RTVSPropertyOp50
 70
     1
102
RTVSPropertyOp51
 70
     0
102
RTVSPropertyOp52
 70
     0
102
RTVSPropertyOp53
 70
     1
102
RTVSPropertyOp54
 70
     1
102
RTVSPropertyOp55
 70
     1
102
RTVSPropertyOp56
 70
     1
102
RTVSPropertyOp57
 70
     1
102
RTVSPost2010Prop28
280
     0
102
RTVSPost2010PropOp28
 70
     1
102
RTVSPost2010Prop29
280
     1
102
RTVSPost2010PropOp29
 70
     1
102
RTVSPost2010Prop30
280
     1
102
RTVSPost2010PropOp30
 70
     1
102
RTVSPost2010Prop31
280
     0
102
RTVSPost2010PropOp31
 70
     1
102
RTVSPost2010Prop32
280
     0
102
RTVSPost2010PropOp32
 70
     1
102
RTVSPost2010Prop33
280
     0
102
RTVSPost2010PropOp33
 70
     1
102
RTVSPost2010Prop34
280
     0
102
RTVSPost2010PropOp34
 70
     1
102
RTVSPost2010Prop35
280
     0
102
RTVSPost2010PropOp35
 70
     1
102
RTVSPost2010Prop36
280
     0
102
RTVSPost2010PropOp36
 70
     1
102
RTVSPost2010Prop37
 90
       50
102
RTVSPost2010PropOp37
 70
     1
102
RTVSPost2010Prop38
140
0.0
102
RTVSPost2010PropOp38
 70
     1
102
RTVSPost2010Prop39
140
1.0
102
RTVSPost2010PropOp39
 70
     1
102
RTVSPost2010Prop40
 90
        0
102
RTVSPost2010PropOp40
 70
     1
102
RTVSPost2010Prop41ColorIndex
 90
       18
102
RTVSPost2010Prop41ColorRGB
 90
        0
102
RTVSPost2010PropOp41
 70
     1
102
RTVSPost2010Prop42
 90
       50
102
RTVSPost2010PropOp42
 70
     1
102
RTVSPost2010Prop43
 90
        3
102
RTVSPost2010PropOp43
 70
     1
102
RTVSPost2010Prop44ColorIndex
 90
        5
102
RTVSPost2010Prop44ColorRGB
 90
      255
102
RTVSPost2010PropOp44
 70
     1
102
RTVSPost2010Prop45
280
     0
102
RTVSPost2010PropOp45
 70
     1
102
RTVSPost2010Prop46
 90
       50
102
RTVSPost2010PropOp46
 70
     1
102
RTVSPost2010Prop47
 90
       50
102
RTVSPost2010PropOp47
 70
     1
102
RTVSPost2010Prop48
 90
       50
102
RTVSPost2010PropOp48
 70
     1
102
RTVSPost2010Prop49
280
     0
102
RTVSPost2010PropOp49
 70
     1
102
RTVSPost2010Prop50
 90
       50
102
RTVSPost2010PropOp50
 70
     1
102
RTVSPost2010Prop51ColorIndex
 90
      256
102
RTVSPost2010Prop51ColorRGB
 90
-16777216
102
RTVSPost2010PropOp51
 70
     0
102
RTVSPost2010Prop52
140
1.0
102
RTVSPost2010PropOp52
 70
     0
102
RTVSPost2010Prop53
 90
        2
102
RTVSPost2010PropOp53
 70
     1
102
RTVSPost2010Prop54
  1
strokes_ogs.tif
102
RTVSPost2010PropOp54
 70
     1
102
RTVSPost2010Prop55
280
     0
102
RTVSPost2010PropOp55
 70
     1
102
RTVSPost2010Prop56
140
1.0
102
RTVSPost2010PropOp56
 70
     1
102
RTVSPost2010Prop57
140
1.0
102
RTVSPost2010PropOp57
 70
     1
  0
XRECORD
  5
3B8
102
{ACAD_REACTORS
330
3B7
102
}
330
3B7
100
AcDbXrecord
280
     1
102
RTVSPropertyOp0
 70
     1
102
RTVSPropertyOp1
 70
     1
102
RTVSPropertyOp2
 70
     1
102
RTVSPropertyOp3
 70
     1
102
RTVSPropertyOp4
 70
     1
102
RTVSPropertyOp5
 70
     1
102
RTVSPropertyOp6
 70
     1
102
RTVSPropertyOp7
 70
     1
102
RTVSPropertyOp8
 70
     1
102
RTVSPropertyOp9
 70
     1
102
RTVSPropertyOp10
 70
     1
102
RTVSPropertyOp11
 70
     1
102
RTVSPropertyOp12
 70
     1
102
RTVSPropertyOp13
 70
     1
102
RTVSPropertyOp14
 70
     1
102
RTVSPropertyOp15
 70
     1
102
RTVSPropertyOp16
 70
     1
102
RTVSPropertyOp17
 70
     1
102
RTVSPropertyOp18
 70
     1
102
RTVSPropertyOp19
 70
     1
102
RTVSPropertyOp20
 70
     1
102
RTVSPropertyOp21
 70
     1
102
RTVSPropertyOp22
 70
     1
102
RTVSPropertyOp23
 70
     1
102
RTVSPropertyOp24
 70
     1
102
RTVSPropertyOp25
 70
     1
102
RTVSPropertyOp26
 70
     1
102
RTVSPropertyOp27
 70
     1
102
RTVSPropertyOp28
 70
     1
102
RTVSPropertyOp29
 70
     1
102
RTVSPropertyOp30
 70
     1
102
RTVSPropertyOp31
 70
     1
102
RTVSPropertyOp32
 70
     1
102
RTVSPropertyOp33
 70
     1
102
RTVSPropertyOp34
 70
     1
102
RTVSPropertyOp35
 70
     1
102
RTVSPropertyOp36
 70
     1
102
RTVSPropertyOp37
 70
     1
102
RTVSPropertyOp38
 70
     1
102
RTVSPropertyOp39
 70
     1
102
RTVSPropertyOp40
 70
     1
102
RTVSPropertyOp41
 70
     1
102
RTVSPropertyOp42
 70
     1
102
RTVSPropertyOp43
 70
     1
102
RTVSPropertyOp44
 70
     1
102
RTVSPropertyOp45
 70
     1
102
RTVSPropertyOp46
 70
     1
102
RTVSPropertyOp47
 70
     1
102
RTVSPropertyOp48
 70
     1
102
RTVSPropertyOp49
 70
     1
102
RTVSPropertyOp50
 70
     1
102
RTVSPropertyOp51
 70
     0
102
RTVSPropertyOp52
 70
     0
102
RTVSPropertyOp53
 70
     1
102
RTVSPropertyOp54
 70
     1
102
RTVSPropertyOp55
 70
     1
102
RTVSPropertyOp56
 70
     1
102
RTVSPropertyOp57
 70
     1
102
RTVSPost2010Prop28
280
     0
102
RTVSPost2010PropOp28
 70
     1
102
RTVSPost2010Prop29
280
     1
102
RTVSPost2010PropOp29
 70
     1
102
RTVSPost2010Prop30
280
     1
102
RTVSPost2010PropOp30
 70
     1
102
RTVSPost2010Prop31
280
     0
102
RTVSPost2010PropOp31
 70
     1
102
RTVSPost2010Prop32
280
     0
102
RTVSPost2010PropOp32
 70
     1
102
RTVSPost2010Prop33
280
     0
102
RTVSPost2010PropOp33
 70
     1
102
RTVSPost2010Prop34
280
     0
102
RTVSPost2010PropOp34
 70
     1
102
RTVSPost2010Prop35
280
     0
102
RTVSPost2010PropOp35
 70
     1
102
RTVSPost2010Prop36
280
     0
102
RTVSPost2010PropOp36
 70
     1
102
RTVSPost2010Prop37
 90
       50
102
RTVSPost2010PropOp37
 70
     1
102
RTVSPost2010Prop38
140
0.0
102
RTVSPost2010PropOp38
 70
     1
102
RTVSPost2010Prop39
140
1.0
102
RTVSPost2010PropOp39
 70
     1
102
RTVSPost2010Prop40
 90
        0
102
RTVSPost2010PropOp40
 70
     1
102
RTVSPost2010Prop41ColorIndex
 90
       18
102
RTVSPost2010Prop41ColorRGB
 90
        0
102
RTVSPost2010PropOp41
 70
     1
102
RTVSPost2010Prop42
 90
       50
102
RTVSPost2010PropOp42
 70
     1
102
RTVSPost2010Prop43
 90
        3
102
RTVSPost2010PropOp43
 70
     1
102
RTVSPost2010Prop44ColorIndex
 90
        5
102
RTVSPost2010Prop44ColorRGB
 90
      255
102
RTVSPost2010PropOp44
 70
     1
102
RTVSPost2010Prop45
280
     0
102
RTVSPost2010PropOp45
 70
     1
102
RTVSPost2010Prop46
 90
       50
102
RTVSPost2010PropOp46
 70
     1
102
RTVSPost2010Prop47
 90
       50
102
RTVSPost2010PropOp47
 70
     1
102
RTVSPost2010Prop48
 90
       50
102
RTVSPost2010PropOp48
 70
     1
102
RTVSPost2010Prop49
280
     0
102
RTVSPost2010PropOp49
 70
     1
102
RTVSPost2010Prop50
 90
       50
102
RTVSPost2010PropOp50
 70
     1
102
RTVSPost2010Prop51ColorIndex
 90
      256
102
RTVSPost2010Prop51ColorRGB
 90
-16777216
102
RTVSPost2010PropOp51
 70
     0
102
RTVSPost2010Prop52
140
1.0
102
RTVSPost2010PropOp52
 70
     0
102
RTVSPost2010Prop53
 90
        2
102
RTVSPost2010PropOp53
 70
     1
102
RTVSPost2010Prop54
  1
strokes_ogs.tif
102
RTVSPost2010PropOp54
 70
     1
102
RTVSPost2010Prop55
280
     0
102
RTVSPost2010PropOp55
 70
     1
102
RTVSPost2010Prop56
140
1.0
102
RTVSPost2010PropOp56
 70
     1
102
RTVSPost2010Prop57
140
1.0
102
RTVSPost2010PropOp57
 70
     1
  0
XRECORD
  5
3D8
102
{ACAD_REACTORS
330
3D7
102
}
330
3D7
100
AcDbXrecord
280
     1
102
RTVSPropertyOp0
 70
     1
102
RTVSPropertyOp1
 70
     1
102
RTVSPropertyOp2
 70
     1
102
RTVSPropertyOp3
 70
     1
102
RTVSPropertyOp4
 70
     1
102
RTVSPropertyOp5
 70
     1
102
RTVSPropertyOp6
 70
     1
102
RTVSPropertyOp7
 70
     1
102
RTVSPropertyOp8
 70
     1
102
RTVSPropertyOp9
 70
     1
102
RTVSPropertyOp10
 70
     1
102
RTVSPropertyOp11
 70
     1
102
RTVSPropertyOp12
 70
     1
102
RTVSPropertyOp13
 70
     1
102
RTVSPropertyOp14
 70
     1
102
RTVSPropertyOp15
 70
     1
102
RTVSPropertyOp16
 70
     1
102
RTVSPropertyOp17
 70
     1
102
RTVSPropertyOp18
 70
     1
102
RTVSPropertyOp19
 70
     1
102
RTVSPropertyOp20
 70
     1
102
RTVSPropertyOp21
 70
     1
102
RTVSPropertyOp22
 70
     1
102
RTVSPropertyOp23
 70
     1
102
RTVSPropertyOp24
 70
     1
102
RTVSPropertyOp25
 70
     1
102
RTVSPropertyOp26
 70
     1
102
RTVSPropertyOp27
 70
     1
102
RTVSPropertyOp28
 70
     1
102
RTVSPropertyOp29
 70
     1
102
RTVSPropertyOp30
 70
     1
102
RTVSPropertyOp31
 70
     1
102
RTVSPropertyOp32
 70
     1
102
RTVSPropertyOp33
 70
     1
102
RTVSPropertyOp34
 70
     1
102
RTVSPropertyOp35
 70
     1
102
RTVSPropertyOp36
 70
     1
102
RTVSPropertyOp37
 70
     1
102
RTVSPropertyOp38
 70
     1
102
RTVSPropertyOp39
 70
     1
102
RTVSPropertyOp40
 70
     1
102
RTVSPropertyOp41
 70
     1
102
RTVSPropertyOp42
 70
     1
102
RTVSPropertyOp43
 70
     1
102
RTVSPropertyOp44
 70
     1
102
RTVSPropertyOp45
 70
     1
102
RTVSPropertyOp46
 70
     1
102
RTVSPropertyOp47
 70
     1
102
RTVSPropertyOp48
 70
     1
102
RTVSPropertyOp49
 70
     1
102
RTVSPropertyOp50
 70
     1
102
RTVSPropertyOp51
 70
     0
102
RTVSPropertyOp52
 70
     0
102
RTVSPropertyOp53
 70
     1
102
RTVSPropertyOp54
 70
     1
102
RTVSPropertyOp55
 70
     1
102
RTVSPropertyOp56
 70
     1
102
RTVSPropertyOp57
 70
     1
102
RTVSPost2010Prop28
280
     0
102
RTVSPost2010PropOp28
 70
     1
102
RTVSPost2010Prop29
280
     1
102
RTVSPost2010PropOp29
 70
     1
102
RTVSPost2010Prop30
280
     1
102
RTVSPost2010PropOp30
 70
     1
102
RTVSPost2010Prop31
280
     0
102
RTVSPost2010PropOp31
 70
     1
102
RTVSPost2010Prop32
280
     0
102
RTVSPost2010PropOp32
 70
     1
102
RTVSPost2010Prop33
280
     0
102
RTVSPost2010PropOp33
 70
     1
102
RTVSPost2010Prop34
280
     0
102
RTVSPost2010PropOp34
 70
     1
102
RTVSPost2010Prop35
280
     0
102
RTVSPost2010PropOp35
 70
     1
102
RTVSPost2010Prop36
280
     0
102
RTVSPost2010PropOp36
 70
     1
102
RTVSPost2010Prop37
 90
       50
102
RTVSPost2010PropOp37
 70
     1
102
RTVSPost2010Prop38
140
0.0
102
RTVSPost2010PropOp38
 70
     1
102
RTVSPost2010Prop39
140
1.0
102
RTVSPost2010PropOp39
 70
     1
102
RTVSPost2010Prop40
 90
        0
102
RTVSPost2010PropOp40
 70
     1
102
RTVSPost2010Prop41ColorIndex
 90
       18
102
RTVSPost2010Prop41ColorRGB
 90
        0
102
RTVSPost2010PropOp41
 70
     1
102
RTVSPost2010Prop42
 90
       50
102
RTVSPost2010PropOp42
 70
     1
102
RTVSPost2010Prop43
 90
        3
102
RTVSPost2010PropOp43
 70
     1
102
RTVSPost2010Prop44ColorIndex
 90
        5
102
RTVSPost2010Prop44ColorRGB
 90
      255
102
RTVSPost2010PropOp44
 70
     1
102
RTVSPost2010Prop45
280
     0
102
RTVSPost2010PropOp45
 70
     1
102
RTVSPost2010Prop46
 90
       50
102
RTVSPost2010PropOp46
 70
     1
102
RTVSPost2010Prop47
 90
       50
102
RTVSPost2010PropOp47
 70
     1
102
RTVSPost2010Prop48
 90
       50
102
RTVSPost2010PropOp48
 70
     1
102
RTVSPost2010Prop49
280
     0
102
RTVSPost2010PropOp49
 70
     1
102
RTVSPost2010Prop50
 90
       50
102
RTVSPost2010PropOp50
 70
     1
102
RTVSPost2010Prop51ColorIndex
 90
      256
102
RTVSPost2010Prop51ColorRGB
 90
-16777216
102
RTVSPost2010PropOp51
 70
     0
102
RTVSPost2010Prop52
140
1.0
102
RTVSPost2010PropOp52
 70
     0
102
RTVSPost2010Prop53
 90
        2
102
RTVSPost2010PropOp53
 70
     1
102
RTVSPost2010Prop54
  1
strokes_ogs.tif
102
RTVSPost2010PropOp54
 70
     1
102
RTVSPost2010Prop55
280
     0
102
RTVSPost2010PropOp55
 70
     1
102
RTVSPost2010Prop56
140
1.0
102
RTVSPost2010PropOp56
 70
     1
102
RTVSPost2010Prop57
140
1.0
102
RTVSPost2010PropOp57
 70
     1
  0
ENDSEC
  0
EOF
