  0
SECTION
  2
HEADER
  9
$ACADVER
  1
AC1015
  9
$ACADMAINTVER
 70
    20
  9
$DWGCODEPAGE
  3
ANSI_1252
  9
$INSBASE
 10
0.0
 20
0.0
 30
0.0
  9
$EXTMIN
 10
-21.75176719487165
 20
-0.3167335912842417
 30
0.0
  9
$EXTMAX
 10
183.0
 20
339.8004615274711
 30
0.0
  9
$LIMMIN
 10
-10.5
 20
-4.0
  9
$LIMMAX
 10
195.0
 20
285.0
  9
$ORTHOMODE
 70
     0
  9
$REGENMODE
 70
     1
  9
$FILLMODE
 70
     1
  9
$QTEXTMODE
 70
     0
  9
$MIRRTEXT
 70
     0
  9
$LTSCALE
 40
1.0
  9
$ATTMODE
 70
     1
  9
$TEXTSIZE
 40
3.5
  9
$TRACEWID
 40
0.05
  9
$TEXTSTYLE
  7
ARIAL-STANDARD
  9
$CLAYER
  8
BEMASSUNG
  9
$CELTYPE
  6
BYLAYER
  9
$CECOLOR
 62
   256
  9
$CELTSCALE
 40
1.0
  9
$DISPSILH
 70
     0
  9
$DIMSCALE
 40
1.0
  9
$DIMASZ
 40
4.0
  9
$DIMEXO
 40
0.0
  9
$DIMDLI
 40
8.0
  9
$DIMRND
 40
0.0
  9
$DIMDLE
 40
0.0
  9
$DIMEXE
 40
1.0
  9
$DIMTP
 40
0.0
  9
$DIMTM
 40
0.0
  9
$DIMTXT
 40
4.349999999999999
  9
$DIMCEN
 40
1.5
  9
$DIMTSZ
 40
0.0
  9
$DIMTOL
 70
     0
  9
$DIMLIM
 70
     0
  9
$DIMTIH
 70
     0
  9
$DIMTOH
 70
     0
  9
$DIMSE1
 70
     0
  9
$DIMSE2
 70
     0
  9
$DIMTAD
 70
     1
  9
$DIMZIN
 70
     8
  9
$DIMBLK
  1

  9
$DIMASO
 70
     1
  9
$DIMSHO
 70
     1
  9
$DIMPOST
  1

  9
$DIMAPOST
  1

  9
$DIMALT
 70
     0
  9
$DIMALTD
 70
     2
  9
$DIMALTF
 40
25.39999999999999
  9
$DIMLFAC
 40
1.0
  9
$DIMTOFL
 70
     1
  9
$DIMTVP
 40
0.0
  9
$DIMTIX
 70
     1
  9
$DIMSOXD
 70
     0
  9
$DIMSAH
 70
     0
  9
$DIMBLK1
  1

  9
$DIMBLK2
  1

  9
$DIMSTYLE
  2
Katalog 09
  9
$DIMCLRD
 70
     2
  9
$DIMCLRE
 70
     2
  9
$DIMCLRT
 70
     3
  9
$DIMTFAC
 40
0.4285714285714286
  9
$DIMGAP
 40
1.0
  9
$DIMJUST
 70
     0
  9
$DIMSD1
 70
     0
  9
$DIMSD2
 70
     0
  9
$DIMTOLJ
 70
     1
  9
$DIMTZIN
 70
     8
  9
$DIMALTZ
 70
     8
  9
$DIMALTTZ
 70
     8
  9
$DIMUPT
 70
     0
  9
$DIMDEC
 70
     2
  9
$DIMTDEC
 70
     2
  9
$DIMALTU
 70
     2
  9
$DIMALTTD
 70
     2
  9
$DIMTXSTY
  7
ARIAL-STANDARD
  9
$DIMAUNIT
 70
     0
  9
$DIMADEC
 70
     0
  9
$DIMALTRND
 40
0.0
  9
$DIMAZIN
 70
     0
  9
$DIMDSEP
 70
    46
  9
$DIMATFIT
 70
     3
  9
$DIMFRAC
 70
     0
  9
$DIMLDRBLK
  1

  9
$DIMLUNIT
 70
     2
  9
$DIMLWD
 70
    -2
  9
$DIMLWE
 70
    -2
  9
$DIMTMOVE
 70
     0
  9
$LUNITS
 70
     2
  9
$LUPREC
 70
     4
  9
$SKETCHINC
 40
0.1
  9
$FILLETRAD
 40
0.0
  9
$AUNITS
 70
     0
  9
$AUPREC
 70
     0
  9
$MENU
  1
.
  9
$ELEVATION
 40
0.0
  9
$PELEVATION
 40
0.0
  9
$THICKNESS
 40
0.0
  9
$LIMCHECK
 70
     0
  9
$CHAMFERA
 40
0.5
  9
$CHAMFERB
 40
0.5
  9
$CHAMFERC
 40
1.0
  9
$CHAMFERD
 40
0.0
  9
$SKPOLY
 70
     0
  9
$TDCREATE
 40
2451554.363886123
  9
$TDUCREATE
 40
2451554.322219456
  9
$TDUPDATE
 40
2454900.365831886
  9
$TDUUPDATE
 40
2454900.324165220
  9
$TDINDWG
 40
0.2708710648
  9
$TDUSRTIMER
 40
0.2708710648
  9
$USRTIMER
 70
     1
  9
$ANGBASE
 50
0.0
  9
$ANGDIR
 70
     0
  9
$PDMODE
 70
     0
  9
$PDSIZE
 40
0.0
  9
$PLINEWID
 40
0.0
  9
$SPLFRAME
 70
     0
  9
$SPLINETYPE
 70
     6
  9
$SPLINESEGS
 70
     8
  9
$HANDSEED
  5
392
  9
$SURFTAB1
 70
     6
  9
$SURFTAB2
 70
     6
  9
$SURFTYPE
 70
     6
  9
$SURFU
 70
     6
  9
$SURFV
 70
     6
  9
$UCSBASE
  2

  9
$UCSNAME
  2

  9
$UCSORG
 10
0.0
 20
0.0
 30
0.0
  9
$UCSXDIR
 10
1.0
 20
0.0
 30
0.0
  9
$UCSYDIR
 10
0.0
 20
1.0
 30
0.0
  9
$UCSORTHOREF
  2

  9
$UCSORTHOVIEW
 70
     0
  9
$UCSORGTOP
 10
0.0
 20
0.0
 30
0.0
  9
$UCSORGBOTTOM
 10
0.0
 20
0.0
 30
0.0
  9
$UCSORGLEFT
 10
0.0
 20
0.0
 30
0.0
  9
$UCSORGRIGHT
 10
0.0
 20
0.0
 30
0.0
  9
$UCSORGFRONT
 10
0.0
 20
0.0
 30
0.0
  9
$UCSORGBACK
 10
0.0
 20
0.0
 30
0.0
  9
$PUCSBASE
  2

  9
$PUCSNAME
  2

  9
$PUCSORG
 10
0.0
 20
0.0
 30
0.0
  9
$PUCSXDIR
 10
1.0
 20
0.0
 30
0.0
  9
$PUCSYDIR
 10
0.0
 20
1.0
 30
0.0
  9
$PUCSORTHOREF
  2

  9
$PUCSORTHOVIEW
 70
     0
  9
$PUCSORGTOP
 10
0.0
 20
0.0
 30
0.0
  9
$PUCSORGBOTTOM
 10
0.0
 20
0.0
 30
0.0
  9
$PUCSORGLEFT
 10
0.0
 20
0.0
 30
0.0
  9
$PUCSORGRIGHT
 10
0.0
 20
0.0
 30
0.0
  9
$PUCSORGFRONT
 10
0.0
 20
0.0
 30
0.0
  9
$PUCSORGBACK
 10
0.0
 20
0.0
 30
0.0
  9
$USERI1
 70
     0
  9
$USERI2
 70
     0
  9
$USERI3
 70
     0
  9
$USERI4
 70
     0
  9
$USERI5
 70
     0
  9
$USERR1
 40
0.0
  9
$USERR2
 40
0.0
  9
$USERR3
 40
0.0
  9
$USERR4
 40
0.0
  9
$USERR5
 40
0.0
  9
$WORLDVIEW
 70
     1
  9
$SHADEDGE
 70
     3
  9
$SHADEDIF
 70
    70
  9
$TILEMODE
 70
     1
  9
$MAXACTVP
 70
    48
  9
$PINSBASE
 10
0.0
 20
0.0
 30
0.0
  9
$PLIMCHECK
 70
     0
  9
$PEXTMIN
 10
1.000000000000000E+20
 20
1.000000000000000E+20
 30
1.000000000000000E+20
  9
$PEXTMAX
 10
-1.000000000000000E+20
 20
-1.000000000000000E+20
 30
-1.000000000000000E+20
  9
$PLIMMIN
 10
0.0
 20
0.0
  9
$PLIMMAX
 10
12.0
 20
9.0
  9
$UNITMODE
 70
     0
  9
$VISRETAIN
 70
     1
  9
$PLINEGEN
 70
     0
  9
$PSLTSCALE
 70
     1
  9
$TREEDEPTH
 70
  3020
  9
$CMLSTYLE
  2
STANDARD
  9
$CMLJUST
 70
     0
  9
$CMLSCALE
 40
1.0
  9
$PROXYGRAPHICS
 70
     1
  9
$MEASUREMENT
 70
     1
  9
$CELWEIGHT
370
    -1
  9
$ENDCAPS
280
     0
  9
$JOINSTYLE
280
     0
  9
$LWDISPLAY
290
     0
  9
$INSUNITS
 70
     0
  9
$HYPERLINKBASE
  1

  9
$STYLESHEET
  1

  9
$XEDIT
290
     1
  9
$CEPSNTYPE
380
     0
  9
$PSTYLEMODE
290
     1
  9
$FINGERPRINTGUID
  2
{4EEF8265-438C-418B-9ABC-DEBF871081E6}
  9
$VERSIONGUID
  2
{70878780-96FD-45F0-92B6-3A216B2BC023}
  9
$EXTNAMES
290
     1
  9
$PSVPSCALE
 40
0.0
  9
$OLESTARTUP
290
     0
  0
ENDSEC
  0
SECTION
  2
CLASSES
  0
CLASS
  1
DICTIONARYVAR
  2
AcDbDictionaryVar
  3
ObjectDBX Classes
 90
        0
280
     0
281
     0
  0
CLASS
  1
ACDBDICTIONARYWDFLT
  2
AcDbDictionaryWithDefault
  3
ObjectDBX Classes
 90
        0
280
     0
281
     0
  0
CLASS
  1
ACDBPLACEHOLDER
  2
AcDbPlaceHolder
  3
ObjectDBX Classes
 90
        0
280
     0
281
     0
  0
CLASS
  1
LAYOUT
  2
AcDbLayout
  3
ObjectDBX Classes
 90
        0
280
     0
281
     0
  0
CLASS
  1
ACME_DOCUMENT
  2
AcMeDbDoc
  3
AcMeServices
 90
    33792
280
     0
281
     0
  0
CLASS
  1
AMGSETTINGSOBJ
  2
AmgSettingsObj
  3
"AcadM|Product Description: AutoCAD Mechanical|Company: Autodesk, Inc."
 90
     1024
280
     0
281
     0
  0
CLASS
  1
ACMESCOPE
  2
AcMeScope
  3
AcMeServices
 90
     1024
280
     0
281
     0
  0
CLASS
  1
ACMECOMMANDHISTORY
  2
AcMeCommandHistory
  3
AcMeServices
 90
    33792
280
     0
281
     0
  0
CLASS
  1
ACIMSYSVARMAN
  2
AcImSysVarManager
  3
AcMeServices
 90
     1024
280
     0
281
     0
  0
CLASS
  1
ACIMREALSYSVAR
  2
AcImRealSysVar
  3
AcMeServices
 90
     1024
280
     0
281
     0
  0
CLASS
  1
ACIMINTSYSVAR
  2
AcImIntSysVar
  3
AcMeServices
 90
     1024
280
     0
281
     0
  0
CLASS
  1
ACMEDRAWINGMAN
  2
AcMeDrawingMan
  3
AcMeServices
 90
    33792
280
     0
281
     0
  0
CLASS
  1
ACMEVIEW
  2
AcMeView
  3
AcMeServices
 90
    33792
280
     0
281
     0
  0
CLASS
  1
ACDBENTITYCACHE
  2
AcMeEntityCache
  3
AcMeServices
 90
    33792
280
     0
281
     0
  0
CLASS
  1
GSMANAGER
  2
AcMeGSManager
  3
AcMeServices
 90
    33792
280
     1
281
     0
  0
CLASS
  1
AMDTINTERNALREACTOR
  2
AmdtInternalReactor
  3
AcMeServices
 90
     1024
280
     0
281
     0
  0
CLASS
  1
ACMESTATEMGR
  2
AcMeStateMgr
  3
AcMeServices
 90
     1024
280
     0
281
     0
  0
CLASS
  1
ACGREFMASTER
  2
AcGrefMaster
  3
AcAttribServices
 90
     1024
280
     0
281
     0
  0
CLASS
  1
ACME_DATABASE
  2
AcMeDbDatabase
  3
AcMeServices
 90
    33792
280
     0
281
     0
  0
CLASS
  1
ACRFINSADJUSTERMGR
  2
AcRfInsAdjusterMgr
  3
AcMeServices
 90
    33792
280
     0
281
     0
  0
CLASS
  1
ACGREFACADMASTER
  2
AcGrefacadMaster
  3
AcGrefServices
 90
    33792
280
     0
281
     0
  0
CLASS
  1
AMIMASTER
  2
AmiMaster
  3
AmiServices
 90
    33792
280
     0
281
     0
  0
CLASS
  1
ACMDATADICTIONARY
  2
AcmDataDictionary
  3
"AcmSymBB|Product Description: AutoCAD Mechanical|Company: Autodesk, Inc."
 90
     1024
280
     0
281
     0
  0
CLASS
  1
ACMDATAENTRYBLOCK
  2
AcmDataEntryBlock
  3
AcmSymBB|Product Description: AutoCAD Mechanical|Company: Autodesk, Inc.
 90
     1024
280
     0
281
     0
  0
CLASS
  1
ACIMSTRSYSVAR
  2
AcImStrSysVar
  3
AcMeServices
 90
     1024
280
     0
281
     0
  0
CLASS
  1
ACMSTANDARDDIN
  2
AcmStandardDIN
  3
"Amdt_StdImp|Product Description: AutoCAD Mechanical|Company: Autodesk, Inc."
 90
     1024
280
     0
281
     0
  0
CLASS
  1
AMGOBJPROPCFG
  2
AmgObjPropCfg
  3
"AmgLay|Product Description: AutoCAD Mechanical|Company: Autodesk, Inc."
 90
     1024
280
     0
281
     0
  0
CLASS
  1
AMDTEDGESTANDARDDIN
  2
AmdtEdgeStdDIN
  3
"Amdt_StdImp|Product Description: AutoCAD Mechanical|Company: Autodesk, Inc."
 90
     1024
280
     0
281
     0
  0
CLASS
  1
ACMSURFSTANDARDDIN
  2
AcmSurfTextStdDIN
  3
"Amdt_StdImp|Product Description: AutoCAD Mechanical|Company: Autodesk, Inc."
 90
     1024
280
     0
281
     0
  0
CLASS
  1
ACMFCFSTANDARDDIN
  2
AcmFCFStdDIN
  3
"Amdt_StdImp|Product Description: AutoCAD Mechanical|Company: Autodesk, Inc."
 90
     1024
280
     0
281
     0
  0
CLASS
  1
ACMWELDSTANDARDDIN
  2
AcmWeldingStdDIN
  3
"Amdt_StdImp|Product Description: AutoCAD Mechanical|Company: Autodesk, Inc."
 90
     1024
280
     0
281
     0
  0
CLASS
  1
ACMIDSTANDARDDIN
  2
AcmIdStdDIN
  3
"Amdt_StdImp|Product Description: AutoCAD Mechanical|Company: Autodesk, Inc."
 90
     1024
280
     0
281
     0
  0
CLASS
  1
ACMDATUMSTANDARDDIN
  2
AcmDatumStdDIN
  3
"Amdt_StdImp|Product Description: AutoCAD Mechanical|Company: Autodesk, Inc."
 90
     1024
280
     0
281
     0
  0
CLASS
  1
ACMBOMSTANDARDDIN
  2
AcmBOMStdDIN
  3
"Amdt_StdImp|Product Description: AutoCAD Mechanical|Company: Autodesk, Inc."
 90
     1024
280
     0
281
     0
  0
CLASS
  1
ACMDETAILSTANDARDDIN
  2
AmdtDetailSymStdDIN
  3
"Amdt_StdImp|Product Description: AutoCAD Mechanical|Company: Autodesk, Inc."
 90
     1024
280
     0
281
     0
  0
CLASS
  1
ACMSECTIONSTANDARDDIN
  2
AmdtSectionSymStdDIN
  3
"Amdt_StdImp|Product Description: AutoCAD Mechanical|Company: Autodesk, Inc."
 90
     1024
280
     0
281
     0
  0
CLASS
  1
ACMCENTERLINESTANDARDDIN
  2
AmdtCenterLineStdDIN
  3
"Amdt_StdImp|Product Description: AutoCAD Mechanical|Company: Autodesk, Inc."
 90
     1024
280
     0
281
     0
  0
CLASS
  1
ACMNOTESTANDARDDIN
  2
AmdtNoteStdDIN
  3
"Amdt_StdImp|Product Description: AutoCAD Mechanical|Company: Autodesk, Inc."
 90
     1024
280
     0
281
     0
  0
CLASS
  1
ACAMGLAYSTD
  2
AcAmgLayStd
  3
"AmgLay|Product Description: AutoCAD Mechanical|Company: Autodesk, Inc."
 90
     1024
280
     0
281
     0
  0
CLASS
  1
ACAMGDIMSTD
  2
AcAmgDimStd
  3
"AmgDim|Product Description: AutoCAD Mechanical|Company: Autodesk, Inc."
 90
     1024
280
     0
281
     0
  0
CLASS
  1
ACAMGHOLECHARTSTDDIN
  2
AcAmgHoleChartStdDIN
  3
AmgDim|Product Description: AutoCAD Mechanical|Company: Autodesk, Inc.
 90
     1024
280
     0
281
     0
  0
CLASS
  1
ACAMGTITLESTD
  2
AcAmgTitleStd
  3
"AmgTitle|Product Description: AutoCAD Mechanical|Company: Autodesk, Inc."
 90
     1024
280
     0
281
     0
  0
CLASS
  1
LAYER_INDEX
  2
AcDbLayerIndex
  3
ObjectDBX Classes
 90
    32768
280
     0
281
     0
  0
CLASS
  1
IDBUFFER
  2
AcDbIdBuffer
  3
ObjectDBX Classes
 90
    32768
280
     0
281
     0
  0
CLASS
  1
ACAMGFILTERDAT
  2
AcAmgFilterDat
  3
"AcadM|Product Description: AutoCAD Mechanical|Company: Autodesk, Inc."
 90
    33792
280
     0
281
     0
  0
CLASS
  1
TABLESTYLE
  2
AcDbTableStyle
  3
ObjectDBX Classes
 90
     4095
280
     0
281
     0
  0
CLASS
  1
AM_DRAWING_MGR
  2
AcDmDwgMgr
  3
AcMechDwgViewMgmt
 90
     1024
280
     0
281
     0
  0
CLASS
  1
AM_DWG_DOCUMENT
  2
AcDmDwgDocument
  3
AcMechDwgViewMgmt
 90
     1024
280
     0
281
     0
  0
CLASS
  1
AM_DWG_SHEET
  2
AcDmSheet
  3
AcMechDwgViewMgmt
 90
     1024
280
     0
281
     0
  0
CLASS
  1
AM_VIEWDIMPARMAP
  2
AcDmViewDimParMap
  3
AcMechDwgViewMgmt
 90
     1024
280
     0
281
     0
  0
CLASS
  1
AM_DWGMGR_NAME
  2
AcDmDwgMgrName
  3
AcMechDwgViewMgmt
 90
     1024
280
     0
281
     0
  0
CLASS
  1
AMDTMENUSTATEMGR
  2
AmdtMenuStateMgr
  3
McadcomServices
 90
    33792
280
     0
281
     0
  0
CLASS
  1
AMDTMCOMMENUSTATE
  2
AmdtMcomMenuState
  3
McadcomServices
 90
    33792
280
     0
281
     0
  0
CLASS
  1
MAPIAMMOUDLE
  2
MApiAmModule
  3
MApiAmServices
 90
    33792
280
     0
281
     0
  0
CLASS
  1
AMDTADMENUSTATE
  2
AmdtAdMenuState
  3
DesignerServices
 90
    33792
280
     1
281
     0
  0
CLASS
  1
ADAPPL
  2
AcAdAppl
  3
DesignerAssemblies
 90
    33792
280
     0
281
     0
  0
CLASS
  1
DEPMGR
  2
AcAdDepMgr
  3
DesignerAssemblies
 90
    33792
280
     0
281
     0
  0
CLASS
  1
PARAMMGR
  2
AcAdParamMgr
  3
DesignerAssemblies
 90
    33792
280
     0
281
     0
  0
CLASS
  1
PARAMSCOPE
  2
AcAdParamScope
  3
DesignerAssemblies
 90
    33792
280
     0
281
     0
  0
CLASS
  1
NAMEDAPPL
  2
AcAdNamedAppl
  3
DesignerAssemblies
 90
    33792
280
     0
281
     0
  0
CLASS
  1
AMDTDMMENUSTATE
  2
AmdtDmMenuState
  3
AcMechDwgViewMgmt
 90
    33792
280
     1
281
     0
  0
CLASS
  1
AMDTAMMENUSTATE
  2
AmdtAmMenuState
  3
DesignerAssemblies
 90
    33792
280
     0
281
     0
  0
CLASS
  1
ACAMPROJECT
  2
AcAmProject
  3
DesignerAssemblies
 90
    33792
280
     0
281
     0
  0
CLASS
  1
ACAMGRCOMPDEF
  2
AcAmGrCompDef
  3
DesignerAssemblies
 90
    33792
280
     0
281
     0
  0
CLASS
  1
ACCMCONTEXT
  2
AcCmContext
  3
DesignerAssemblies
 90
    33792
280
     0
281
     0
  0
CLASS
  1
ACAMCOMPDEF
  2
AcAmCompDef
  3
DesignerAssemblies
 90
    33792
280
     0
281
     0
  0
CLASS
  1
ACAMCOMPDEFMGR
  2
AcAmCompDefMgr
  3
DesignerAssemblies
 90
    33792
280
     0
281
     0
  0
CLASS
  1
AMCONTEXTMGR
  2
AcAmContextMgr
  3
DesignerAssemblies
 90
    33792
280
     0
281
     0
  0
CLASS
  1
ACAMCONTEXTMODELER
  2
AcAmContextModeler
  3
DesignerAssemblies
 90
    33792
280
     0
281
     0
  0
CLASS
  1
ACRFATTGENMGR
  2
AcRfAttGeneralMgr
  3
AcAttribServices
 90
    33792
280
     0
281
     0
  0
CLASS
  1
ACRFOBJATTMGR
  2
AcRfObjAttGroupMgr
  3
AcAttribServices
 90
    33792
280
     0
281
     0
  0
CLASS
  1
ACRFMCADAPIATTHOLDER
  2
AcRfMCADAPIAttHolder
  3
AcAttribServices
 90
    33792
280
     0
281
     0
  0
CLASS
  1
AMDTSYSATTR
  2
AmdtSystemAttribute
  3
AcAttribServices
 90
    33792
280
     0
281
     0
  0
CLASS
  1
ACMTHREADLINESTANDARDDIN
  2
AmdtThreadLineStdDIN
  3
"Amdt_StdImp|Product Description: AutoCAD Mechanical|Company: Autodesk, Inc."
 90
     1024
280
     0
281
     0
  0
CLASS
  1
CATALOGSTATE
  2
AcAmCatalogState
  3
DesignerAssemblies
 90
    33792
280
     0
281
     0
  0
CLASS
  1
ACAMGRCOMPDEFSET
  2
AcAmGrCompDefSet
  3
DesignerAssemblies
 90
    33792
280
     0
281
     0
  0
CLASS
  1
AMDTBROWSERDBTAB
  2
AmdtBrowserDbTab
  3
McadcomServices
 90
    33792
280
     0
281
     0
  0
CLASS
  1
CBROWSERAPPOBJECT
  2
CBrowserAppObject
  3
McadcomServices
 90
    33792
280
     0
281
     0
  0
CLASS
  1
DM_PLACEHOLDER
  2
AcDmSelsetPlaceholder
  3
McadcomServices
 90
    33792
280
     0
281
     0
  0
CLASS
  1
PLOTSETTINGS
  2
AcDbPlotSettings
  3
ObjectDBX Classes
 90
    32768
280
     0
281
     0
  0
CLASS
  1
MATERIAL
  2
AcDbMaterial
  3
ObjectDBX Classes
 90
     1153
280
     0
281
     0
  0
CLASS
  1
VISUALSTYLE
  2
AcDbVisualStyle
  3
ObjectDBX Classes
 90
     4095
280
     0
281
     0
  0
CLASS
  1
SCALE
  2
AcDbScale
  3
ObjectDBX Classes
 90
     1153
280
     0
281
     0
  0
CLASS
  1
MLEADERSTYLE
  2
AcDbMLeaderStyle
  3
ACDB_MLEADERSTYLE_CLASS
 90
    36863
280
     0
281
     0
  0
CLASS
  1
ACMTAPERSTANDARDDIN
  2
AcmTaperStdDIN
  3
"Amdt_StdImp|Product Description: AutoCAD Mechanical|Company: Autodesk, Inc."
 90
     1024
280
     0
281
     0
  0
CLASS
  1
ACMANOOTATIONVIEWSTANDARDDIN
  2
AmdtAnViewStdDIN
  3
"Amdt_StdImp|Product Description: AutoCAD Mechanical|Company: Autodesk, Inc."
 90
     1024
280
     0
281
     0
  0
CLASS
  1
SORTENTSTABLE
  2
AcDbSortentsTable
  3
ObjectDBX Classes
 90
    32768
280
     0
281
     0
  0
CLASS
  1
CAMSSTRUCTBTNSTATE
  2
StructBtnState
  3
DesignerAssemblies
 90
    33792
280
     0
281
     0
  0
CLASS
  1
CELLSTYLEMAP
  2
AcDbCellStyleMap
  3
ObjectDBX Classes
 90
     1152
280
     0
281
     0
  0
CLASS
  1
ACDBSECTIONVIEWSTYLE
  2
AcDbSectionViewStyle
  3
ObjectDBX Classes
 90
     1025
280
     0
281
     0
  0
CLASS
  1
ACDBDETAILVIEWSTYLE
  2
AcDbDetailViewStyle
  3
ObjectDBX Classes
 90
     1025
280
     0
281
     0
  0
CLASS
  1
ACMSECTIONSTANDARDCUSTOM
  2
AmdtSectionSymStdCustom
  3
"Amdt_StdImp|Product Description: AutoCAD Mechanical|Company: Autodesk, Inc."
 90
     1024
280
     0
281
     0
  0
CLASS
  1
ACMDETAILTANDARDCUSTOM
  2
AmdtDetailSymStdCustom
  3
"Amdt_StdImp|Product Description: AutoCAD Mechanical|Company: Autodesk, Inc."
 90
     1024
280
     0
281
     0
  0
CLASS
  1
FIELD
  2
AcDbField
  3
ObjectDBX Classes
 90
     1152
280
     0
281
     0
  0
CLASS
  1
FIELDLIST
  2
AcDbFieldList
  3
ObjectDBX Classes
 90
     1152
280
     0
281
     0
  0
ENDSEC
  0
SECTION
  2
TABLES
  0
TABLE
  2
VPORT
  5
2B
330
0
100
AcDbSymbolTable
 70
     1
  0
VPORT
  5
2C
330
2B
100
AcDbSymbolTableRecord
100
AcDbViewportTableRecord
  2
*Active
 70
     0
 10
0.0
 20
0.0
 11
1.0
 21
1.0
 12
177.51746545954
 22
205.0959724432278
 13
0.0
 23
0.0
 14
10.0
 24
10.0
 15
10.0
 25
10.0
 16
0.0
 26
0.0
 36
1.0
 17
0.0
 27
0.0
 37
0.0
 40
342.3172445101101
 41
2.033022861981371
 42
50.0
 43
0.0
 44
0.0
 50
0.0
 51
0.0
 71
     0
 72
  5000
 73
     1
 74
     0
 75
     0
 76
     0
 77
     0
 78
     0
281
     0
 65
     1
110
0.0
120
0.0
130
0.0
111
1.0
121
0.0
131
0.0
112
0.0
122
1.0
132
0.0
 79
     0
146
0.0
1001
ACAD_NAV_VCDISPLAY
1070
     3
  0
ENDTAB
  0
TABLE
  2
LTYPE
  5
26
330
0
100
AcDbSymbolTable
 70
    14
  0
LTYPE
  5
27
330
26
100
AcDbSymbolTableRecord
100
AcDbLinetypeTableRecord
  2
BYBLOCK
 70
     0
  3

 72
    65
 73
     0
 40
0.0
  0
LTYPE
  5
28
330
26
100
AcDbSymbolTableRecord
100
AcDbLinetypeTableRecord
  2
BYLAYER
 70
     0
  3

 72
    65
 73
     0
 40
0.0
  0
LTYPE
  5
14
330
26
100
AcDbSymbolTableRecord
100
AcDbLinetypeTableRecord
  2
CONTINUOUS
 70
     0
  3
Solid line
 72
    65
 73
     0
 40
0.0
  0
LTYPE
  5
80
330
26
100
AcDbSymbolTableRecord
100
AcDbLinetypeTableRecord
  2
STRICHPUNKT2
 70
     0
  3
Strichpunkt (.5x) _._._._._._._._._._._._._._._
 72
    65
 73
     4
 40
12.7
 49
6.349999999999999
 74
     0
 49
-3.174999999999999
 74
     0
 49
0.0
 74
     0
 49
-3.174999999999999
 74
     0
  0
LTYPE
  5
298
330
26
100
AcDbSymbolTableRecord
100
AcDbLinetypeTableRecord
  2
VERDECKT
 70
     0
  3
_ _ _ _ _ _ _ _ _ _ _ _ _ _ _ _ _ _ _ _ _ _ _
 72
    65
 73
     2
 40
0.375
 49
0.25
 74
     0
 49
-0.125
 74
     0
  0
LTYPE
  5
308
330
26
100
AcDbSymbolTableRecord
100
AcDbLinetypeTableRecord
  2
AM_ISO02W050
 70
     0
  3
__ __ __ __ __ __ __ __ __ __ __ __ __ __ __
 72
    65
 73
     2
 40
7.5
 49
6.0
 74
     0
 49
-1.5
 74
     0
  0
LTYPE
  5
319
330
26
100
AcDbSymbolTableRecord
100
AcDbLinetypeTableRecord
  2
ACDINWELD
 70
     0
  3
_ _ _ _ _
 72
    65
 73
     2
 40
2.0
 49
2.0
 74
     0
 49
-1.0
 74
     0
  0
LTYPE
  5
31C
330
26
100
AcDbSymbolTableRecord
100
AcDbLinetypeTableRecord
  2
ACDINTGB
 70
     0
  3
__ . . __ . .
 72
    65
 73
     6
 40
9.0
 49
4.0
 74
     0
 49
-1.0
 74
     0
 49
1.0
 74
     0
 49
-1.0
 74
     0
 49
1.0
 74
     0
 49
-1.0
 74
     0
  0
LTYPE
  5
31D
330
26
100
AcDbSymbolTableRecord
100
AcDbLinetypeTableRecord
  2
ACDINTGL
 70
     0
  3
_ _ _ _ _
 72
    65
 73
     2
 40
3.0
 49
2.0
 74
     0
 49
-1.0
 74
     0
  0
LTYPE
  5
335
330
26
100
AcDbSymbolTableRecord
100
AcDbLinetypeTableRecord
  2
CENTER
 70
     0
  3
__ . __
 72
    65
 73
     4
 40
7.0
 49
4.0
 74
     0
 49
-1.0
 74
     0
 49
1.0
 74
     0
 49
-1.0
 74
     0
  0
LTYPE
  5
303
330
26
100
AcDbSymbolTableRecord
100
AcDbLinetypeTableRecord
  2
gen3
 70
     0
  3
-- -- -- -- -- -- -- -- -- -- -- -- -- -- --
 72
    65
 73
     2
 40
6.25
 49
4.75
 74
     0
 49
-1.5
 74
     0
  0
LTYPE
  5
304
330
26
100
AcDbSymbolTableRecord
100
AcDbLinetypeTableRecord
  2
gen7
 70
     0
  3
____ . ____ . ____ . ____ . ____ . ____ . ____
 72
    65
 73
     4
 40
13.75
 49
9.75
 74
     0
 49
-1.5
 74
     0
 49
1.0
 74
     0
 49
-1.5
 74
     0
  0
LTYPE
  5
305
330
26
100
AcDbSymbolTableRecord
100
AcDbLinetypeTableRecord
  2
gen3a
 70
     0
  3
 - - - - -
 72
    65
 73
     2
 40
3.125
 49
2.25
 74
     0
 49
-0.875
 74
     0
  0
LTYPE
  5
306
330
26
100
AcDbSymbolTableRecord
100
AcDbLinetypeTableRecord
  2
gen7a
 70
     0
  3
__ . __ . __
 72
    65
 73
     4
 40
6.875
 49
4.75
 74
     0
 49
-0.875
 74
     0
 49
0.375
 74
     0
 49
-0.875
 74
     0
  0
LTYPE
  5
307
330
26
100
AcDbSymbolTableRecord
100
AcDbLinetypeTableRecord
  2
gen4a
 70
     0
  3
_____ . . _____ . . _____ . . ____ .. ____
 72
    65
 73
     6
 40
16.25
 49
9.75
 74
     0
 49
-1.5
 74
     0
 49
1.0
 74
     0
 49
-1.5
 74
     0
 49
1.0
 74
     0
 49
-1.5
 74
     0
  0
LTYPE
  5
309
330
26
100
AcDbSymbolTableRecord
100
AcDbLinetypeTableRecord
  2
genzigzag
 70
     0
  3
/\/-/\/-/\/-/\/-/\/-/\/
 72
    65
 73
     2
 40
12.0001
 49
0.0001
 74
     4
 75
   135
340
30A
 46
2.0
 50
0.0
 44
0.0
 45
0.0
 49
-12.0
 74
     0
  0
ENDTAB
  0
TABLE
  2
LAYER
  5
1D
102
{ACAD_XDICTIONARY
360
1E
102
}
330
0
100
AcDbSymbolTable
 70
    10
  0
LAYER
  5
5
102
{ACAD_XDICTIONARY
360
6
102
}
330
1D
100
AcDbSymbolTableRecord
100
AcDbLayerTableRecord
  2
0
 70
     0
 62
     7
  6
CONTINUOUS
370
    -3
390
8
  0
LAYER
  5
2D7
102
{ACAD_XDICTIONARY
360
2D8
102
}
330
1D
100
AcDbSymbolTableRecord
100
AcDbLayerTableRecord
  2
UMRISS03
 70
     0
 62
     3
  6
CONTINUOUS
370
    -3
390
8
  0
LAYER
  5
69
102
{ACAD_XDICTIONARY
360
6A
102
}
330
1D
100
AcDbSymbolTableRecord
100
AcDbLayerTableRecord
  2
UMRISS05
 70
     0
 62
     4
  6
CONTINUOUS
370
    -3
390
8
  0
LAYER
  5
88
102
{ACAD_XDICTIONARY
360
89
102
}
330
1D
100
AcDbSymbolTableRecord
100
AcDbLayerTableRecord
  2
UMRISS07
 70
     0
 62
     6
  6
CONTINUOUS
370
    -3
390
8
  0
LAYER
  5
E8
102
{ACAD_XDICTIONARY
360
E9
102
}
330
1D
100
AcDbSymbolTableRecord
100
AcDbLayerTableRecord
  2
TEXT03
 70
     0
 62
     3
  6
CONTINUOUS
370
    -3
390
8
  0
LAYER
  5
4F
102
{ACAD_XDICTIONARY
360
50
102
}
330
1D
100
AcDbSymbolTableRecord
100
AcDbLayerTableRecord
  2
BEMASSUNG
 70
     0
 62
     2
  6
CONTINUOUS
370
    -3
390
8
  0
LAYER
  5
7D
102
{ACAD_XDICTIONARY
360
7E
102
}
330
1D
100
AcDbSymbolTableRecord
100
AcDbLayerTableRecord
  2
ACHSEN
 70
     0
 62
     1
  6
STRICHPUNKT2
370
    -3
390
8
  0
LAYER
  5
6E
102
{ACAD_XDICTIONARY
360
6F
102
}
330
1D
100
AcDbSymbolTableRecord
100
AcDbLayerTableRecord
  2
SCHRAFFUR
 70
     2
 62
     8
  6
CONTINUOUS
370
    -3
390
8
  0
LAYER
  5
9A
330
1D
100
AcDbSymbolTableRecord
100
AcDbLayerTableRecord
  2
DEFPOINTS
 70
     0
 62
     7
  6
CONTINUOUS
290
     0
370
    -3
390
8
  0
LAYER
  5
295
102
{ACAD_XDICTIONARY
360
296
102
}
330
1D
100
AcDbSymbolTableRecord
100
AcDbLayerTableRecord
  2
AVERDECKT
 70
     0
 62
    13
  6
VERDECKT
370
    -3
390
8
  0
ENDTAB
  0
TABLE
  2
STYLE
  5
23
330
0
100
AcDbSymbolTable
 70
     5
  0
STYLE
  5
24
330
23
100
AcDbSymbolTableRecord
100
AcDbTextStyleTableRecord
  2
STANDARD
 70
     0
 40
0.0
 41
1.0
 50
0.0
 71
     0
 42
10.0
  3
txt
  4

  0
STYLE
  5
33
330
23
100
AcDbSymbolTableRecord
100
AcDbTextStyleTableRecord
  2
ARIAL-STANDARD
 70
     0
 40
0.0
 41
1.0
 50
0.0
 71
     0
 42
3.5
  3
arial.ttf
  4

1001
ACAD
1000
Arial
1071
       34
  0
STYLE
  5
341
330
23
100
AcDbSymbolTableRecord
100
AcDbTextStyleTableRecord
  2
ACDINTS
 70
     0
 40
1.0
 41
1.0
 50
0.0
 71
     0
 42
3.5
  3
isocp.shx
  4

  0
STYLE
  5
317
330
23
100
AcDbSymbolTableRecord
100
AcDbTextStyleTableRecord
  2
ACDINGDT
 70
     0
 40
0.0
 41
1.0
 50
0.0
 71
     0
 42
3.5
  3
amgdt.shx
  4

  0
STYLE
  5
30A
330
23
100
AcDbSymbolTableRecord
100
AcDbTextStyleTableRecord
  2

 70
     1
 40
0.0
 41
1.0
 50
0.0
 71
     0
 42
3.5
  3
genltshp.shx
  4

  0
ENDTAB
  0
TABLE
  2
VIEW
  5
29
330
0
100
AcDbSymbolTable
 70
     0
  0
ENDTAB
  0
TABLE
  2
UCS
  5
2A
330
0
100
AcDbSymbolTable
 70
     0
  0
ENDTAB
  0
TABLE
  2
APPID
  5
30
330
0
100
AcDbSymbolTable
 70
    12
  0
APPID
  5
22
330
30
100
AcDbSymbolTableRecord
100
AcDbRegAppTableRecord
  2
ACAD
 70
     0
  0
APPID
  5
18
330
30
100
AcDbSymbolTableRecord
100
AcDbRegAppTableRecord
  2
ACAD_PSEXT
 70
     0
  0
APPID
  5
35
330
30
100
AcDbSymbolTableRecord
100
AcDbRegAppTableRecord
  2
ACAD_DSTYLE_DIMJAG
 70
     0
  0
APPID
  5
34
330
30
100
AcDbSymbolTableRecord
100
AcDbRegAppTableRecord
  2
ACAD_DSTYLE_DIMBREAK
 70
     0
  0
APPID
  5
36
330
30
100
AcDbSymbolTableRecord
100
AcDbRegAppTableRecord
  2
ACAD_DSTYLE_DIMTALN
 70
     0
  0
APPID
  5
AD
330
30
100
AcDbSymbolTableRecord
100
AcDbRegAppTableRecord
  2
ACAD_DSTYLE_DIMINSPECT
 70
     0
  0
APPID
  5
2F
330
30
100
AcDbSymbolTableRecord
100
AcDbRegAppTableRecord
  2
ACAD_NAV_VCDISPLAY
 70
     0
  0
APPID
  5
345
330
30
100
AcDbSymbolTableRecord
100
AcDbRegAppTableRecord
  2
AD_DRAW
 70
     0
  0
APPID
  5
346
330
30
100
AcDbSymbolTableRecord
100
AcDbRegAppTableRecord
  2
MCAD_NO_VIS
 70
     0
  0
APPID
  5
347
330
30
100
AcDbSymbolTableRecord
100
AcDbRegAppTableRecord
  2
ACADM_DIM_EDIT
 70
     0
  0
APPID
  5
348
330
30
100
AcDbSymbolTableRecord
100
AcDbRegAppTableRecord
  2
AMDT_DM_ADJ
 70
     0
  0
APPID
  5
36A
330
30
100
AcDbSymbolTableRecord
100
AcDbRegAppTableRecord
  2
ACATTRIBSERVICES
 70
     0
  0
ENDTAB
  0
TABLE
  2
DIMSTYLE
  5
31
330
0
100
AcDbSymbolTable
 70
     1
100
AcDbDimStyleTable
 71
     1
340
32
  0
DIMSTYLE
105
32
102
{ACAD_REACTORS
330
90
330
2F2
330
14F
330
9E
330
B2
330
CA
102
}
330
31
100
AcDbSymbolTableRecord
100
AcDbDimStyleTableRecord
  2
Katalog 09
 70
     0
 41
4.0
 42
0.0
 43
8.0
 44
1.0
 73
     0
 74
     0
 77
     1
 78
     8
140
4.349999999999999
141
1.5
143
25.39999999999999
146
0.4285714285714286
147
1.0
172
     1
174
     1
176
     2
177
     2
178
     3
271
     2
272
     2
284
     8
285
     8
286
     8
340
33
1001
ACAD_DSTYLE_DIMBREAK
1070
   391
1040
3.75
1001
ACAD_DSTYLE_DIMJAG
1070
   388
1040
1.5
1001
ACAD_DSTYLE_DIMTALN
1070
   392
1070
     0
  0
ENDTAB
  0
TABLE
  2
BLOCK_RECORD
  5
1
330
0
100
AcDbSymbolTable
 70
    11
  0
BLOCK_RECORD
  5
2
102
{ACAD_XDICTIONARY
360
3
102
}
330
1
100
AcDbSymbolTableRecord
100
AcDbBlockTableRecord
  2
*MODEL_SPACE
340
16
  0
BLOCK_RECORD
  5
19
330
1
100
AcDbSymbolTableRecord
100
AcDbBlockTableRecord
  2
*PAPER_SPACE
340
1C
  0
BLOCK_RECORD
  5
2A9
330
1
100
AcDbSymbolTableRecord
100
AcDbBlockTableRecord
  2
*X0
340
0
102
{BLKREFS
331
2A8
102
}
  0
BLOCK_RECORD
  5
2C4
330
1
100
AcDbSymbolTableRecord
100
AcDbBlockTableRecord
  2
*X1
340
0
102
{BLKREFS
331
2C3
102
}
  0
BLOCK_RECORD
  5
20D
330
1
100
AcDbSymbolTableRecord
100
AcDbBlockTableRecord
  2
*X2
340
0
102
{BLKREFS
331
20C
102
}
  0
BLOCK_RECORD
  5
102
330
1
100
AcDbSymbolTableRecord
100
AcDbBlockTableRecord
  2
*X3
340
0
102
{BLKREFS
331
101
102
}
  0
BLOCK_RECORD
  5
91
330
1
100
AcDbSymbolTableRecord
100
AcDbBlockTableRecord
  2
*D4
340
0
  0
BLOCK_RECORD
  5
CB
330
1
100
AcDbSymbolTableRecord
100
AcDbBlockTableRecord
  2
*D5
340
0
  0
BLOCK_RECORD
  5
B3
330
1
100
AcDbSymbolTableRecord
100
AcDbBlockTableRecord
  2
*D6
340
0
  0
BLOCK_RECORD
  5
9F
330
1
100
AcDbSymbolTableRecord
100
AcDbBlockTableRecord
  2
*D7
340
0
  0
BLOCK_RECORD
  5
150
330
1
100
AcDbSymbolTableRecord
100
AcDbBlockTableRecord
  2
*D8
340
0
  0
BLOCK_RECORD
  5
2F3
330
1
100
AcDbSymbolTableRecord
100
AcDbBlockTableRecord
  2
*D9
340
0
  0
BLOCK_RECORD
  5
327
330
1
100
AcDbSymbolTableRecord
100
AcDbBlockTableRecord
  2
_ACMFILLED15
340
0
  0
ENDTAB
  0
ENDSEC
  0
SECTION
  2
BLOCKS
  0
BLOCK
  5
4
330
2
100
AcDbEntity
  8
0
100
AcDbBlockBegin
  2
*MODEL_SPACE
 70
     0
 10
0.0
 20
0.0
 30
0.0
  3
*MODEL_SPACE
  1

  0
ENDBLK
  5
15
330
2
100
AcDbEntity
  8
0
100
AcDbBlockEnd
  0
BLOCK
  5
1A
330
19
100
AcDbEntity
 67
     1
  8
0
100
AcDbBlockBegin
  2
*PAPER_SPACE
 70
     0
 10
0.0
 20
0.0
 30
0.0
  3
*PAPER_SPACE
  1

  0
ENDBLK
  5
1B
330
19
100
AcDbEntity
 67
     1
  8
0
100
AcDbBlockEnd
  0
BLOCK
  5
2AA
330
2A9
100
AcDbEntity
  8
0
100
AcDbBlockBegin
  2
*X0
 70
     1
 10
0.0
 20
0.0
 30
0.0
  3
*X0
  1
ACA_CFG
  0
LINE
  5
2AB
330
2A9
100
AcDbEntity
  8
0
 62
     0
100
AcDbLine
 10
569.8301402704449
 20
1886.816520230389
 30
0.0
 11
573.8301402704447
 21
1890.816520230389
 31
0.0
  0
LINE
  5
2AC
330
2A9
100
AcDbEntity
  8
0
 62
     0
100
AcDbLine
 10
576.1887356390273
 20
1893.175115598972
 30
0.0
 11
578.3301402704446
 21
1895.316520230389
 31
0.0
  0
LINE
  5
2AD
330
2A9
100
AcDbEntity
  8
0
 62
     0
100
AcDbLine
 10
568.0623733174784
 20
1886.816520230389
 30
0.0
 11
572.0623733174782
 21
1890.816520230389
 31
0.0
  0
LINE
  5
2AE
330
2A9
100
AcDbEntity
  8
0
 62
     0
100
AcDbLine
 10
576.1887356390273
 20
1894.942882551939
 30
0.0
 11
576.5623733174783
 21
1895.316520230389
 31
0.0
  0
LINE
  5
2AF
330
2A9
100
AcDbEntity
  8
0
 62
     0
100
AcDbLine
 10
566.294606364512
 20
1886.816520230389
 30
0.0
 11
570.294606364512
 21
1890.816520230389
 31
0.0
  0
LINE
  5
2B0
330
2A9
100
AcDbEntity
  8
0
 62
     0
100
AcDbLine
 10
564.5268394115458
 20
1886.816520230389
 30
0.0
 11
568.5268394115455
 21
1890.816520230389
 31
0.0
  0
LINE
  5
2B1
330
2A9
100
AcDbEntity
  8
0
 62
     0
100
AcDbLine
 10
562.7590724585793
 20
1886.816520230389
 30
0.0
 11
567.1887356390272
 21
1891.246183410838
 31
0.0
  0
LINE
  5
2B2
330
2A9
100
AcDbEntity
  8
0
 62
     0
100
AcDbLine
 10
562.3887356390273
 20
1888.213950363804
 30
0.0
 11
567.1887356390272
 21
1893.013950363804
 31
0.0
  0
LINE
  5
2B3
330
2A9
100
AcDbEntity
  8
0
 62
     0
100
AcDbLine
 10
562.3887356390273
 20
1889.98171731677
 30
0.0
 11
567.1887356390272
 21
1894.78171731677
 31
0.0
  0
LINE
  5
2B4
330
2A9
100
AcDbEntity
  8
0
 62
     0
100
AcDbLine
 10
562.3887356390273
 20
1891.749484269736
 30
0.0
 11
565.95577159968
 21
1895.316520230389
 31
0.0
  0
LINE
  5
2B5
330
2A9
100
AcDbEntity
  8
0
 62
     0
100
AcDbLine
 10
562.3887356390273
 20
1893.517251222703
 30
0.0
 11
564.1880046467138
 21
1895.316520230389
 31
0.0
  0
LINE
  5
2B6
330
2A9
100
AcDbEntity
  8
0
 62
     0
100
AcDbLine
 10
562.3887356390273
 20
1895.285018175669
 30
0.0
 11
562.4202376937474
 21
1895.316520230389
 31
0.0
  0
LINE
  5
2B7
330
2A9
100
AcDbEntity
  8
0
 62
     0
100
AcDbLine
 10
571.5979072234111
 20
1886.816520230389
 30
0.0
 11
573.3887356390274
 21
1888.607348646005
 31
0.0
  0
LINE
  5
2B8
330
2A9
100
AcDbEntity
  8
0
 62
     0
100
AcDbLine
 10
576.1887356390273
 20
1891.407348646006
 30
0.0
 11
580.0979072234111
 21
1895.316520230389
 31
0.0
  0
LINE
  5
2B9
330
2A9
100
AcDbEntity
  8
0
 62
     0
100
AcDbLine
 10
573.5979072234113
 20
1888.816520230389
 30
0.0
 11
575.5979072234111
 21
1890.816520230389
 31
0.0
  0
LINE
  5
2BA
330
2A9
100
AcDbEntity
  8
0
 62
     0
100
AcDbLine
 10
573.3656741763775
 20
1886.816520230389
 30
0.0
 11
573.3887356390274
 21
1886.839581693039
 31
0.0
  0
LINE
  5
2BB
330
2A9
100
AcDbEntity
  8
0
 62
     0
100
AcDbLine
 10
575.3656741763776
 20
1888.816520230389
 30
0.0
 11
581.8656741763773
 21
1895.316520230389
 31
0.0
  0
LINE
  5
2BC
330
2A9
100
AcDbEntity
  8
0
 62
     0
100
AcDbLine
 10
577.1334411293439
 20
1888.816520230389
 30
0.0
 11
582.3887356390273
 21
1894.071814740073
 31
0.0
  0
LINE
  5
2BD
330
2A9
100
AcDbEntity
  8
0
 62
     0
100
AcDbLine
 10
577.3887356390275
 20
1887.304047787107
 30
0.0
 11
582.3887356390273
 21
1892.304047787106
 31
0.0
  0
LINE
  5
2BE
330
2A9
100
AcDbEntity
  8
0
 62
     0
100
AcDbLine
 10
577.3887356390275
 20
1885.536280834141
 30
0.0
 11
582.3887356390273
 21
1890.53628083414
 31
0.0
  0
LINE
  5
2BF
330
2A9
100
AcDbEntity
  8
0
 62
     0
100
AcDbLine
 10
577.9875602910824
 20
1884.367338533229
 30
0.0
 11
582.3887356390273
 21
1888.768513881174
 31
0.0
  0
LINE
  5
2C0
330
2A9
100
AcDbEntity
  8
0
 62
     0
100
AcDbLine
 10
579.8064072526566
 20
1884.418418541837
 30
0.0
 11
582.3887356390273
 21
1887.000746928207
 31
0.0
  0
ENDBLK
  5
2C1
330
2A9
100
AcDbEntity
  8
0
100
AcDbBlockEnd
  0
BLOCK
  5
2C5
330
2C4
100
AcDbEntity
  8
0
100
AcDbBlockBegin
  2
*X1
 70
     1
 10
0.0
 20
0.0
 30
0.0
  3
*X1
  1
ACA_CFG
  0
LINE
  5
2C6
330
2C4
100
AcDbEntity
  8
0
 62
     0
100
AcDbLine
 10
582.8427478284599
 20
1895.566520230389
 30
0.0
 11
580.8427478284592
 21
1897.566520230389
 31
0.0
  0
LINE
  5
2C7
330
2C4
100
AcDbEntity
  8
0
 62
     0
100
AcDbLine
 10
581.0749808754935
 20
1895.566520230389
 30
0.0
 11
579.0749808754927
 21
1897.566520230389
 31
0.0
  0
LINE
  5
2C8
330
2C4
100
AcDbEntity
  8
0
 62
     0
100
AcDbLine
 10
579.3072139225272
 20
1895.566520230389
 30
0.0
 11
577.7387356390273
 21
1897.134998513889
 31
0.0
  0
LINE
  5
2C9
330
2C4
100
AcDbEntity
  8
0
 62
     0
100
AcDbLine
 10
584.6105147814263
 20
1895.566520230389
 30
0.0
 11
582.6105147814255
 21
1897.566520230389
 31
0.0
  0
LINE
  5
2CA
330
2C4
100
AcDbEntity
  8
0
 62
     0
100
AcDbLine
 10
586.3871849440768
 20
1895.557617020705
 30
0.0
 11
584.3782817343919
 21
1897.566520230389
 31
0.0
  0
LINE
  5
2CB
330
2C4
100
AcDbEntity
  8
0
 62
     0
100
AcDbLine
 10
586.5482941858789
 20
1897.164274731869
 30
0.0
 11
586.1460486873583
 21
1897.566520230389
 31
0.0
  0
ENDBLK
  5
2CC
330
2C4
100
AcDbEntity
  8
0
100
AcDbBlockEnd
  0
BLOCK
  5
20E
330
20D
100
AcDbEntity
  8
0
100
AcDbBlockBegin
  2
*X2
 70
     1
 10
0.0
 20
0.0
 30
0.0
  3
*X2
  1
ACA_CFG
  0
LINE
  5
20F
330
20D
100
AcDbEntity
  8
0
 62
     0
100
AcDbLine
 10
606.021788777662
 20
1829.316520230389
 30
0.0
 11
610.0217887776625
 21
1833.31652023039
 31
0.0
  0
LINE
  5
210
330
20D
100
AcDbEntity
  8
0
 62
     0
100
AcDbLine
 10
615.5217887776621
 20
1838.816520230389
 30
0.0
 11
622.1887356390274
 21
1845.483467091754
 31
0.0
  0
LINE
  5
211
330
20D
100
AcDbEntity
  8
0
 62
     0
100
AcDbLine
 10
605.1887356390274
 20
1830.251234044721
 30
0.0
 11
608.2540218246961
 21
1833.31652023039
 31
0.0
  0
LINE
  5
212
330
20D
100
AcDbEntity
  8
0
 62
     0
100
AcDbLine
 10
613.7540218246958
 20
1838.816520230389
 30
0.0
 11
622.1887356390274
 21
1847.251234044721
 31
0.0
  0
LINE
  5
213
330
20D
100
AcDbEntity
  8
0
 62
     0
100
AcDbLine
 10
605.1887356390274
 20
1832.019000997687
 30
0.0
 11
606.4862548717298
 21
1833.31652023039
 31
0.0
  0
LINE
  5
214
330
20D
100
AcDbEntity
  8
0
 62
     0
100
AcDbLine
 10
612.3374952553785
 20
1839.167760614038
 30
0.0
 11
620.1753584339364
 21
1847.005623792597
 31
0.0
  0
LINE
  5
215
330
20D
100
AcDbEntity
  8
0
 62
     0
100
AcDbLine
 10
610.7184879187633
 20
1839.31652023039
 30
0.0
 11
617.649268918223
 21
1846.247301229849
 31
0.0
  0
LINE
  5
216
330
20D
100
AcDbEntity
  8
0
 62
     0
100
AcDbLine
 10
608.950720965797
 20
1839.31652023039
 30
0.0
 11
614.9858727562265
 21
1845.351672020819
 31
0.0
  0
LINE
  5
217
330
20D
100
AcDbEntity
  8
0
 62
     0
100
AcDbLine
 10
607.1829540128306
 20
1839.31652023039
 30
0.0
 11
612.7922259395696
 21
1844.925792157129
 31
0.0
  0
LINE
  5
218
330
20D
100
AcDbEntity
  8
0
 62
     0
100
AcDbLine
 10
605.4151870598643
 20
1839.31652023039
 30
0.0
 11
611.0636504715354
 21
1844.964983642061
 31
0.0
  0
LINE
  5
219
330
20D
100
AcDbEntity
  8
0
 62
     0
100
AcDbLine
 10
605.1887356390273
 20
1840.857835762519
 30
0.0
 11
609.0354626692786
 21
1844.70456279277
 31
0.0
  0
LINE
  5
21A
330
20D
100
AcDbEntity
  8
0
 62
     0
100
AcDbLine
 10
605.1887356390273
 20
1842.625602715485
 30
0.0
 11
607.0433443458669
 21
1844.480211422325
 31
0.0
  0
LINE
  5
21B
330
20D
100
AcDbEntity
  8
0
 62
     0
100
AcDbLine
 10
605.1887356390273
 20
1844.393369668452
 30
0.0
 11
605.632224445272
 21
1844.836858474696
 31
0.0
  0
LINE
  5
21C
330
20D
100
AcDbEntity
  8
0
 62
     0
100
AcDbLine
 10
607.7895557306285
 20
1829.316520230389
 30
0.0
 11
611.7895557306288
 21
1833.31652023039
 31
0.0
  0
LINE
  5
21D
330
20D
100
AcDbEntity
  8
0
 62
     0
100
AcDbLine
 10
616.2890431733778
 20
1837.816007673138
 30
0.0
 11
622.1887356390274
 21
1843.715700138788
 31
0.0
  0
LINE
  5
21E
330
20D
100
AcDbEntity
  8
0
 62
     0
100
AcDbLine
 10
609.5573226835949
 20
1829.316520230389
 30
0.0
 11
614.057322683595
 21
1833.81652023039
 31
0.0
  0
LINE
  5
21F
330
20D
100
AcDbEntity
  8
0
 62
     0
100
AcDbLine
 10
616.9519557807403
 20
1836.711153327535
 30
0.0
 11
621.6983760934566
 21
1841.457573640251
 31
0.0
  0
LINE
  5
220
330
20D
100
AcDbEntity
  8
0
 62
     0
100
AcDbLine
 10
611.3250896365613
 20
1829.316520230389
 30
0.0
 11
618.3250896365612
 21
1836.316520230389
 31
0.0
  0
LINE
  5
221
330
20D
100
AcDbEntity
  8
0
 62
     0
100
AcDbLine
 10
618.3250896365613
 20
1836.316520230389
 30
0.0
 11
619.2835615277338
 21
1837.274992121562
 31
0.0
  0
LINE
  5
222
330
20D
100
AcDbEntity
  8
0
 62
     0
100
AcDbLine
 10
613.0928565895276
 20
1829.316520230389
 30
0.0
 11
616.8687469620112
 21
1833.092410602873
 31
0.0
  0
ENDBLK
  5
223
330
20D
100
AcDbEntity
  8
0
100
AcDbBlockEnd
  0
BLOCK
  5
103
330
102
100
AcDbEntity
  8
0
100
AcDbBlockBegin
  2
*X3
 70
     1
 10
0.0
 20
0.0
 30
0.0
  3
*X3
  1
ACA_CFG
  0
LINE
  5
104
330
102
100
AcDbEntity
  8
0
 62
     0
100
AcDbLine
 10
487.6450934810253
 20
1887.716520230389
 30
0.0
 11
496.4887356390274
 21
1896.560162388391
 31
0.0
  0
LINE
  5
105
330
102
100
AcDbEntity
  8
0
 62
     0
100
AcDbLine
 10
485.877326528059
 20
1887.716520230389
 30
0.0
 11
496.3773265280591
 21
1898.216520230389
 31
0.0
  0
LINE
  5
106
330
102
100
AcDbEntity
  8
0
 62
     0
100
AcDbLine
 10
485.8887356390275
 20
1889.495696294324
 30
0.0
 11
494.6095595750927
 21
1898.216520230389
 31
0.0
  0
LINE
  5
107
330
102
100
AcDbEntity
  8
0
 62
     0
100
AcDbLine
 10
482.3417926221264
 20
1887.716520230389
 30
0.0
 11
482.4887356390274
 21
1887.86346324729
 31
0.0
  0
LINE
  5
108
330
102
100
AcDbEntity
  8
0
 62
     0
100
AcDbLine
 10
485.8887356390275
 20
1891.26346324729
 30
0.0
 11
492.8417926221263
 21
1898.216520230389
 31
0.0
  0
LINE
  5
109
330
102
100
AcDbEntity
  8
0
 62
     0
100
AcDbLine
 10
480.57402566916
 20
1887.716520230389
 30
0.0
 11
482.4887356390274
 21
1889.631230200256
 31
0.0
  0
LINE
  5
10A
330
102
100
AcDbEntity
  8
0
 62
     0
100
AcDbLine
 10
485.8887356390274
 20
1893.031230200256
 30
0.0
 11
491.07402566916
 21
1898.216520230389
 31
0.0
  0
LINE
  5
10B
330
102
100
AcDbEntity
  8
0
 62
     0
100
AcDbLine
 10
480.1887356390274
 20
1889.098997153223
 30
0.0
 11
482.4887356390274
 21
1891.398997153223
 31
0.0
  0
LINE
  5
10C
330
102
100
AcDbEntity
  8
0
 62
     0
100
AcDbLine
 10
485.8887356390274
 20
1894.798997153223
 30
0.0
 11
489.3062587161936
 21
1898.216520230389
 31
0.0
  0
LINE
  5
10D
330
102
100
AcDbEntity
  8
0
 62
     0
100
AcDbLine
 10
480.1887356390274
 20
1890.866764106189
 30
0.0
 11
482.4887356390274
 21
1893.166764106189
 31
0.0
  0
LINE
  5
10E
330
102
100
AcDbEntity
  8
0
 62
     0
100
AcDbLine
 10
485.8887356390273
 20
1896.566764106189
 30
0.0
 11
487.5384917632272
 21
1898.216520230389
 31
0.0
  0
LINE
  5
10F
330
102
100
AcDbEntity
  8
0
 62
     0
100
AcDbLine
 10
480.1887356390274
 20
1892.634531059156
 30
0.0
 11
482.4887356390274
 21
1894.934531059156
 31
0.0
  0
LINE
  5
110
330
102
100
AcDbEntity
  8
0
 62
     0
100
AcDbLine
 10
480.1887356390274
 20
1894.402298012122
 30
0.0
 11
482.4887356390274
 21
1896.702298012122
 31
0.0
  0
LINE
  5
111
330
102
100
AcDbEntity
  8
0
 62
     0
100
AcDbLine
 10
480.1887356390274
 20
1896.170064965088
 30
0.0
 11
482.235190904328
 21
1898.216520230389
 31
0.0
  0
LINE
  5
112
330
102
100
AcDbEntity
  8
0
 62
     0
100
AcDbLine
 10
480.1887356390274
 20
1897.937831918055
 30
0.0
 11
480.4674239513616
 21
1898.216520230389
 31
0.0
  0
LINE
  5
113
330
102
100
AcDbEntity
  8
0
 62
     0
100
AcDbLine
 10
489.4128604339917
 20
1887.716520230389
 30
0.0
 11
496.4887356390274
 21
1894.792395435425
 31
0.0
  0
LINE
  5
114
330
102
100
AcDbEntity
  8
0
 62
     0
100
AcDbLine
 10
499.8887356390274
 20
1898.192395435425
 30
0.0
 11
499.9128604339916
 21
1898.216520230389
 31
0.0
  0
LINE
  5
115
330
102
100
AcDbEntity
  8
0
 62
     0
100
AcDbLine
 10
491.1806273869581
 20
1887.716520230389
 30
0.0
 11
496.4887356390274
 21
1893.024628482459
 31
0.0
  0
LINE
  5
116
330
102
100
AcDbEntity
  8
0
 62
     0
100
AcDbLine
 10
499.8887356390274
 20
1896.424628482458
 30
0.0
 11
501.6806273869581
 21
1898.216520230389
 31
0.0
  0
LINE
  5
117
330
102
100
AcDbEntity
  8
0
 62
     0
100
AcDbLine
 10
492.9483943399245
 20
1887.716520230389
 30
0.0
 11
496.4887356390274
 21
1891.256861529492
 31
0.0
  0
LINE
  5
118
330
102
100
AcDbEntity
  8
0
 62
     0
100
AcDbLine
 10
499.8887356390274
 20
1894.656861529492
 30
0.0
 11
502.1887356390275
 21
1896.956861529492
 31
0.0
  0
LINE
  5
119
330
102
100
AcDbEntity
  8
0
 62
     0
100
AcDbLine
 10
494.7161612928907
 20
1887.716520230389
 30
0.0
 11
496.4887356390274
 21
1889.489094576526
 31
0.0
  0
LINE
  5
11A
330
102
100
AcDbEntity
  8
0
 62
     0
100
AcDbLine
 10
499.8887356390275
 20
1892.889094576526
 30
0.0
 11
502.1887356390275
 21
1895.189094576526
 31
0.0
  0
LINE
  5
11B
330
102
100
AcDbEntity
  8
0
 62
     0
100
AcDbLine
 10
499.8887356390274
 20
1891.121327623559
 30
0.0
 11
502.1887356390275
 21
1893.421327623559
 31
0.0
  0
LINE
  5
11C
330
102
100
AcDbEntity
  8
0
 62
     0
100
AcDbLine
 10
499.8887356390274
 20
1889.353560670593
 30
0.0
 11
502.1887356390275
 21
1891.653560670593
 31
0.0
  0
LINE
  5
11D
330
102
100
AcDbEntity
  8
0
 62
     0
100
AcDbLine
 10
500.01946215179
 20
1887.716520230389
 30
0.0
 11
502.1887356390275
 21
1889.885793717627
 31
0.0
  0
LINE
  5
11E
330
102
100
AcDbEntity
  8
0
 62
     0
100
AcDbLine
 10
501.7872291047565
 20
1887.716520230389
 30
0.0
 11
502.1887356390275
 21
1888.11802676466
 31
0.0
  0
LINE
  5
11F
330
102
100
AcDbEntity
  8
0
 62
     0
100
AcDbLine
 10
495.2333323682757
 20
1887.716520230389
 30
0.0
 11
485.8887356390273
 21
1897.061116959637
 31
0.0
  0
LINE
  5
120
330
102
100
AcDbEntity
  8
0
 62
     0
100
AcDbLine
 10
493.4655654153093
 20
1887.716520230389
 30
0.0
 11
485.8887356390273
 21
1895.293350006671
 31
0.0
  0
LINE
  5
121
330
102
100
AcDbEntity
  8
0
 62
     0
100
AcDbLine
 10
491.697798462343
 20
1887.716520230389
 30
0.0
 11
485.8887356390274
 21
1893.525583053704
 31
0.0
  0
LINE
  5
122
330
102
100
AcDbEntity
  8
0
 62
     0
100
AcDbLine
 10
482.4887356390274
 20
1896.925583053705
 30
0.0
 11
481.1977984623431
 21
1898.216520230389
 31
0.0
  0
LINE
  5
123
330
102
100
AcDbEntity
  8
0
 62
     0
100
AcDbLine
 10
489.9300315093766
 20
1887.716520230389
 30
0.0
 11
485.8887356390275
 21
1891.757816100739
 31
0.0
  0
LINE
  5
124
330
102
100
AcDbEntity
  8
0
 62
     0
100
AcDbLine
 10
482.4887356390274
 20
1895.157816100739
 30
0.0
 11
480.1887356390274
 21
1897.457816100738
 31
0.0
  0
LINE
  5
125
330
102
100
AcDbEntity
  8
0
 62
     0
100
AcDbLine
 10
488.1622645564102
 20
1887.716520230389
 30
0.0
 11
485.8887356390275
 21
1889.990049147772
 31
0.0
  0
LINE
  5
126
330
102
100
AcDbEntity
  8
0
 62
     0
100
AcDbLine
 10
482.4887356390274
 20
1893.390049147772
 30
0.0
 11
480.1887356390274
 21
1895.690049147772
 31
0.0
  0
LINE
  5
127
330
102
100
AcDbEntity
  8
0
 62
     0
100
AcDbLine
 10
486.3944976034439
 20
1887.716520230389
 30
0.0
 11
485.8887356390275
 21
1888.222282194806
 31
0.0
  0
LINE
  5
128
330
102
100
AcDbEntity
  8
0
 62
     0
100
AcDbLine
 10
482.4887356390274
 20
1891.622282194806
 30
0.0
 11
480.1887356390274
 21
1893.922282194806
 31
0.0
  0
LINE
  5
129
330
102
100
AcDbEntity
  8
0
 62
     0
100
AcDbLine
 10
482.4887356390274
 20
1889.85451524184
 30
0.0
 11
480.1887356390274
 21
1892.154515241839
 31
0.0
  0
LINE
  5
12A
330
102
100
AcDbEntity
  8
0
 62
     0
100
AcDbLine
 10
482.4887356390274
 20
1888.086748288873
 30
0.0
 11
480.1887356390274
 21
1890.386748288873
 31
0.0
  0
LINE
  5
12B
330
102
100
AcDbEntity
  8
0
 62
     0
100
AcDbLine
 10
481.0911967445447
 20
1887.716520230389
 30
0.0
 11
480.1887356390274
 21
1888.618981335907
 31
0.0
  0
LINE
  5
12C
330
102
100
AcDbEntity
  8
0
 62
     0
100
AcDbLine
 10
496.4887356390274
 20
1888.228883912604
 30
0.0
 11
486.501099321242
 21
1898.216520230389
 31
0.0
  0
LINE
  5
12D
330
102
100
AcDbEntity
  8
0
 62
     0
100
AcDbLine
 10
496.4887356390274
 20
1889.99665086557
 30
0.0
 11
488.2688662742084
 21
1898.216520230389
 31
0.0
  0
LINE
  5
12E
330
102
100
AcDbEntity
  8
0
 62
     0
100
AcDbLine
 10
500.5366332271747
 20
1887.716520230389
 30
0.0
 11
499.8887356390274
 21
1888.364417818537
 31
0.0
  0
LINE
  5
12F
330
102
100
AcDbEntity
  8
0
 62
     0
100
AcDbLine
 10
496.4887356390274
 20
1891.764417818537
 30
0.0
 11
490.0366332271747
 21
1898.216520230389
 31
0.0
  0
LINE
  5
130
330
102
100
AcDbEntity
  8
0
 62
     0
100
AcDbLine
 10
502.1887356390275
 20
1887.832184771503
 30
0.0
 11
499.8887356390274
 21
1890.132184771503
 31
0.0
  0
LINE
  5
131
330
102
100
AcDbEntity
  8
0
 62
     0
100
AcDbLine
 10
496.4887356390274
 20
1893.532184771503
 30
0.0
 11
491.8044001801411
 21
1898.216520230389
 31
0.0
  0
LINE
  5
132
330
102
100
AcDbEntity
  8
0
 62
     0
100
AcDbLine
 10
502.1887356390275
 20
1889.59995172447
 30
0.0
 11
499.8887356390274
 21
1891.899951724469
 31
0.0
  0
LINE
  5
133
330
102
100
AcDbEntity
  8
0
 62
     0
100
AcDbLine
 10
496.4887356390274
 20
1895.299951724469
 30
0.0
 11
493.5721671331075
 21
1898.216520230389
 31
0.0
  0
LINE
  5
134
330
102
100
AcDbEntity
  8
0
 62
     0
100
AcDbLine
 10
502.1887356390275
 20
1891.367718677436
 30
0.0
 11
499.8887356390275
 21
1893.667718677436
 31
0.0
  0
LINE
  5
135
330
102
100
AcDbEntity
  8
0
 62
     0
100
AcDbLine
 10
496.4887356390274
 20
1897.067718677436
 30
0.0
 11
495.3399340860738
 21
1898.216520230389
 31
0.0
  0
LINE
  5
136
330
102
100
AcDbEntity
  8
0
 62
     0
100
AcDbLine
 10
502.1887356390275
 20
1893.135485630402
 30
0.0
 11
499.8887356390274
 21
1895.435485630402
 31
0.0
  0
LINE
  5
137
330
102
100
AcDbEntity
  8
0
 62
     0
100
AcDbLine
 10
502.1887356390275
 20
1894.903252583368
 30
0.0
 11
499.8887356390274
 21
1897.203252583368
 31
0.0
  0
LINE
  5
138
330
102
100
AcDbEntity
  8
0
 62
     0
100
AcDbLine
 10
502.1887356390275
 20
1896.671019536335
 30
0.0
 11
500.6432349449731
 21
1898.216520230389
 31
0.0
  0
ENDBLK
  5
139
330
102
100
AcDbEntity
  8
0
100
AcDbBlockEnd
  0
BLOCK
  5
92
330
91
100
AcDbEntity
  8
0
100
AcDbBlockBegin
  2
*D4
 70
     1
 10
0.0
 20
0.0
 30
0.0
  3
*D4
  1

  0
LINE
  5
93
330
91
100
AcDbEntity
  8
BEMASSUNG
 62
     2
370
    -2
100
AcDbLine
 10
60.44656581115396
 20
283.0323031830664
 30
0.0
 11
60.44656581115396
 21
334.055850340568
 31
0.0
  0
LINE
  5
94
330
91
100
AcDbEntity
  8
BEMASSUNG
 62
     2
370
    -2
100
AcDbLine
 10
160.4465658111539
 20
283.0323031830655
 30
0.0
 11
160.4465658111539
 21
334.055850340568
 31
0.0
  0
LINE
  5
95
330
91
100
AcDbEntity
  8
BEMASSUNG
 62
     2
370
    -2
100
AcDbLine
 10
64.44656581115395
 20
333.055850340568
 30
0.0
 11
156.4465658111539
 21
333.055850340568
 31
0.0
  0
SOLID
  5
96
330
91
100
AcDbEntity
  8
BEMASSUNG
 62
     2
100
AcDbTrace
 10
64.44656581115395
 20
333.7225170072347
 30
0.0
 11
64.44656581115395
 21
332.3891836739013
 31
0.0
 12
60.44656581115396
 22
333.055850340568
 32
0.0
 13
60.44656581115396
 23
333.055850340568
 33
0.0
  0
SOLID
  5
97
330
91
100
AcDbEntity
  8
BEMASSUNG
 62
     2
100
AcDbTrace
 10
156.4465658111539
 20
333.7225170072347
 30
0.0
 11
156.4465658111539
 21
332.3891836739013
 31
0.0
 12
160.4465658111539
 22
333.055850340568
 32
0.0
 13
160.4465658111539
 23
333.055850340568
 33
0.0
  0
MTEXT
  5
98
102
{ACAD_XDICTIONARY
360
38A
102
}
330
91
100
AcDbEntity
  8
BEMASSUNG
 62
     3
100
AcDbMText
 10
110.4465658111539
 20
336.3569587989581
 30
0.0
 40
4.349999999999999
 41
0.0
 71
     5
 72
     1
  1
\A1;\U+00F8100
  7
ARIAL-STANDARD
 73
     1
 44
1.0
1001
ACAD
1000
MTEXTBEGIN
1070
    73
1070
     1
1070
    44
1040
1.0
1070
    74
1070
     0
1000
MTEXTEND
  0
POINT
  5
99
330
91
100
AcDbEntity
  8
DEFPOINTS
 62
     0
100
AcDbPoint
 10
60.44656581115396
 20
283.0323031830664
 30
0.0
  0
POINT
  5
9B
330
91
100
AcDbEntity
  8
DEFPOINTS
 62
     0
100
AcDbPoint
 10
160.4465658111539
 20
283.0323031830655
 30
0.0
  0
POINT
  5
9C
330
91
100
AcDbEntity
  8
DEFPOINTS
 62
     0
100
AcDbPoint
 10
160.4465658111539
 20
333.055850340568
 30
0.0
  0
ENDBLK
  5
9D
330
91
100
AcDbEntity
  8
0
100
AcDbBlockEnd
  0
BLOCK
  5
CC
330
CB
100
AcDbEntity
  8
0
100
AcDbBlockBegin
  2
*D5
 70
     1
 10
0.0
 20
0.0
 30
0.0
  3
*D5
  1

  0
LINE
  5
CD
330
CB
100
AcDbEntity
  8
BEMASSUNG
 62
     2
370
    -2
100
AcDbLine
 10
77.4369468679206
 20
290.0323031830664
 30
0.0
 11
28.29384697552882
 21
290.0323031830664
 31
0.0
  0
LINE
  5
CE
330
CB
100
AcDbEntity
  8
BEMASSUNG
 62
     2
370
    -2
100
AcDbLine
 10
60.44656581115396
 20
283.0323031830664
 30
0.0
 11
28.29384697552882
 21
283.0323031830664
 31
0.0
  0
LINE
  5
CF
330
CB
100
AcDbEntity
  8
BEMASSUNG
 62
     2
370
    -2
100
AcDbLine
 10
29.29384697552882
 20
294.0323031830664
 30
0.0
 11
29.29384697552883
 21
298.0323031830664
 31
0.0
  0
LINE
  5
D0
330
CB
100
AcDbEntity
  8
BEMASSUNG
 62
     2
370
    -2
100
AcDbLine
 10
29.29384697552882
 20
279.0323031830664
 30
0.0
 11
29.29384697552882
 21
275.0323031830664
 31
0.0
  0
LINE
  5
D1
330
CB
100
AcDbEntity
  8
BEMASSUNG
 62
     2
370
    -2
100
AcDbLine
 10
29.29384697552882
 20
290.0323031830664
 30
0.0
 11
29.29384697552882
 21
283.0323031830664
 31
0.0
  0
SOLID
  5
D2
330
CB
100
AcDbEntity
  8
BEMASSUNG
 62
     2
100
AcDbTrace
 10
28.62718030886215
 20
294.0323031830664
 30
0.0
 11
29.96051364219549
 21
294.0323031830664
 31
0.0
 12
29.29384697552882
 22
290.0323031830664
 32
0.0
 13
29.29384697552882
 23
290.0323031830664
 33
0.0
  0
SOLID
  5
D3
330
CB
100
AcDbEntity
  8
BEMASSUNG
 62
     2
100
AcDbTrace
 10
28.62718030886215
 20
279.0323031830664
 30
0.0
 11
29.96051364219549
 21
279.0323031830664
 31
0.0
 12
29.29384697552882
 22
283.0323031830664
 32
0.0
 13
29.29384697552882
 23
283.0323031830664
 33
0.0
  0
MTEXT
  5
D4
330
CB
100
AcDbEntity
  8
BEMASSUNG
 62
     3
100
AcDbMText
 10
26.11884697552877
 20
286.5323031830664
 30
0.0
 40
4.349999999999999
 41
0.0
 71
     5
 72
     1
  1
\A1;7
  7
ARIAL-STANDARD
 11
0.0000000000000001
 21
1.0
 31
0.0
 73
     1
 44
1.0
1001
ACAD
1000
MTEXTBEGIN
1070
    73
1070
     1
1070
    44
1040
1.0
1070
    74
1070
     0
1000
MTEXTEND
  0
POINT
  5
D5
330
CB
100
AcDbEntity
  8
DEFPOINTS
 62
     0
100
AcDbPoint
 10
77.4369468679206
 20
290.0323031830664
 30
0.0
  0
POINT
  5
D6
330
CB
100
AcDbEntity
  8
DEFPOINTS
 62
     0
100
AcDbPoint
 10
60.44656581115396
 20
283.0323031830664
 30
0.0
  0
POINT
  5
D7
330
CB
100
AcDbEntity
  8
DEFPOINTS
 62
     0
100
AcDbPoint
 10
29.29384697552882
 20
283.0323031830664
 30
0.0
  0
ENDBLK
  5
D8
330
CB
100
AcDbEntity
  8
0
100
AcDbBlockEnd
  0
BLOCK
  5
B4
330
B3
100
AcDbEntity
  8
0
100
AcDbBlockBegin
  2
*D6
 70
     1
 10
0.0
 20
0.0
 30
0.0
  3
*D6
  1

  0
LINE
  5
B5
330
B3
100
AcDbEntity
  8
BEMASSUNG
 62
     2
370
    -2
100
AcDbLine
 10
60.44656581115396
 20
283.0323031830664
 30
0.0
 11
28.45715773445617
 21
283.0323031830664
 31
0.0
  0
LINE
  5
B6
330
B3
100
AcDbEntity
  8
BEMASSUNG
 62
     2
370
    -2
100
AcDbLine
 10
62.43437250233433
 20
135.5323031830664
 30
0.0
 11
28.45715773445613
 21
135.5323031830664
 31
0.0
  0
LINE
  5
B7
330
B3
100
AcDbEntity
  8
BEMASSUNG
 62
     2
370
    -2
100
AcDbLine
 10
29.45715773445617
 20
279.0323031830664
 30
0.0
 11
29.45715773445614
 21
139.5323031830664
 31
0.0
  0
SOLID
  5
B8
330
B3
100
AcDbEntity
  8
BEMASSUNG
 62
     2
100
AcDbTrace
 10
28.7904910677895
 20
279.0323031830664
 30
0.0
 11
30.12382440112283
 21
279.0323031830664
 31
0.0
 12
29.45715773445617
 22
283.0323031830664
 32
0.0
 13
29.45715773445617
 23
283.0323031830664
 33
0.0
  0
SOLID
  5
B9
330
B3
100
AcDbEntity
  8
BEMASSUNG
 62
     2
100
AcDbTrace
 10
28.79049106778947
 20
139.5323031830664
 30
0.0
 11
30.1238244011228
 21
139.5323031830664
 31
0.0
 12
29.45715773445613
 22
135.5323031830664
 32
0.0
 13
29.45715773445613
 23
135.5323031830664
 33
0.0
  0
MTEXT
  5
BA
330
B3
100
AcDbEntity
  8
BEMASSUNG
 62
     3
100
AcDbMText
 10
26.23616523786676
 20
209.2823031830664
 30
0.0
 40
4.349999999999999
 41
0.0
 71
     5
 72
     1
  1
\A1;147.5
  7
ARIAL-STANDARD
 11
0.0000000000000001
 21
1.0
 31
0.0
 73
     1
 44
1.0
1001
ACAD
1000
MTEXTBEGIN
1070
    73
1070
     1
1070
    44
1040
1.0
1070
    74
1070
     0
1000
MTEXTEND
  0
POINT
  5
BB
330
B3
100
AcDbEntity
  8
DEFPOINTS
 62
     0
100
AcDbPoint
 10
60.44656581115396
 20
283.0323031830664
 30
0.0
  0
POINT
  5
BC
330
B3
100
AcDbEntity
  8
DEFPOINTS
 62
     0
100
AcDbPoint
 10
62.43437250233433
 20
135.5323031830664
 30
0.0
  0
POINT
  5
BD
330
B3
100
AcDbEntity
  8
DEFPOINTS
 62
     0
100
AcDbPoint
 10
29.45715773445613
 20
135.5323031830664
 30
0.0
  0
ENDBLK
  5
BE
330
B3
100
AcDbEntity
  8
0
100
AcDbBlockEnd
  0
BLOCK
  5
A0
330
9F
100
AcDbEntity
  8
0
100
AcDbBlockBegin
  2
*D7
 70
     1
 10
0.0
 20
0.0
 30
0.0
  3
*D7
  1

  0
LINE
  5
A1
330
9F
100
AcDbEntity
  8
BEMASSUNG
 62
     2
370
    -2
100
AcDbLine
 10
99.84656581115405
 20
133.2823031830661
 30
0.0
 11
39.86705485607743
 21
133.2823031830662
 31
0.0
  0
LINE
  5
A2
330
9F
100
AcDbEntity
  8
BEMASSUNG
 62
     2
370
    -2
100
AcDbLine
 10
62.43437250233433
 20
135.5323031830664
 30
0.0
 11
39.86705485607743
 21
135.5323031830664
 31
0.0
  0
LINE
  5
A3
330
9F
100
AcDbEntity
  8
BEMASSUNG
 62
     2
370
    -2
100
AcDbLine
 10
40.86705485607742
 20
139.5323031830664
 30
0.0
 11
40.86705485607742
 21
143.5323031830664
 31
0.0
  0
LINE
  5
A4
330
9F
100
AcDbEntity
  8
BEMASSUNG
 62
     2
370
    -2
100
AcDbLine
 10
40.86705485607742
 20
129.2823031830662
 30
0.0
 11
40.86705485607742
 21
113.5823372894782
 31
0.0
  0
LINE
  5
A5
330
9F
100
AcDbEntity
  8
BEMASSUNG
 62
     2
370
    -2
100
AcDbLine
 10
40.86705485607742
 20
135.5323031830664
 30
0.0
 11
40.86705485607742
 21
133.2823031830662
 31
0.0
  0
SOLID
  5
A6
330
9F
100
AcDbEntity
  8
BEMASSUNG
 62
     2
100
AcDbTrace
 10
40.20038818941076
 20
139.5323031830664
 30
0.0
 11
41.53372152274409
 21
139.5323031830664
 31
0.0
 12
40.86705485607742
 22
135.5323031830664
 32
0.0
 13
40.86705485607742
 23
135.5323031830664
 33
0.0
  0
SOLID
  5
A7
330
9F
100
AcDbEntity
  8
BEMASSUNG
 62
     2
100
AcDbTrace
 10
40.20038818941076
 20
129.2823031830662
 30
0.0
 11
41.53372152274409
 21
129.2823031830662
 31
0.0
 12
40.86705485607742
 22
133.2823031830662
 32
0.0
 13
40.86705485607742
 23
133.2823031830662
 33
0.0
  0
MTEXT
  5
A8
330
9F
100
AcDbEntity
  8
BEMASSUNG
 62
     3
100
AcDbMText
 10
37.6445787305658
 20
118.5792336059857
 30
0.0
 40
4.349999999999999
 41
0.0
 71
     5
 72
     1
  1
\A1;2.3
  7
ARIAL-STANDARD
 11
0.0000000000000001
 21
1.0
 31
0.0
 73
     1
 44
1.0
1001
ACAD
1000
MTEXTBEGIN
1070
    73
1070
     1
1070
    44
1040
1.0
1070
    74
1070
     0
1000
MTEXTEND
  0
POINT
  5
A9
330
9F
100
AcDbEntity
  8
DEFPOINTS
 62
     0
100
AcDbPoint
 10
99.84656581115405
 20
133.2823031830661
 30
0.0
  0
POINT
  5
AA
330
9F
100
AcDbEntity
  8
DEFPOINTS
 62
     0
100
AcDbPoint
 10
62.43437250233433
 20
135.5323031830664
 30
0.0
  0
POINT
  5
AB
330
9F
100
AcDbEntity
  8
DEFPOINTS
 62
     0
100
AcDbPoint
 10
40.86705485607742
 20
135.5323031830664
 30
0.0
  0
ENDBLK
  5
AC
330
9F
100
AcDbEntity
  8
0
100
AcDbBlockEnd
  0
BLOCK
  5
151
330
150
100
AcDbEntity
  8
0
100
AcDbBlockBegin
  2
*D8
 70
     1
 10
0.0
 20
0.0
 30
0.0
  3
*D8
  1

  0
LINE
  5
152
330
150
100
AcDbEntity
  8
BEMASSUNG
 62
     2
370
    -2
100
AcDbLine
 10
99.15570359986402
 20
133.8695671861024
 30
0.0
 11
99.15570359986402
 21
109.5753423070309
 31
0.0
  0
LINE
  5
153
330
150
100
AcDbEntity
  8
BEMASSUNG
 62
     2
370
    -2
100
AcDbLine
 10
121.7465658111541
 20
133.9823031830662
 30
0.0
 11
121.7465658111541
 21
109.5753423070309
 31
0.0
  0
LINE
  5
154
330
150
100
AcDbEntity
  8
BEMASSUNG
 62
     2
370
    -2
100
AcDbLine
 10
103.155703599864
 20
110.5753423070309
 30
0.0
 11
117.7465658111541
 21
110.5753423070309
 31
0.0
  0
SOLID
  5
155
330
150
100
AcDbEntity
  8
BEMASSUNG
 62
     2
100
AcDbTrace
 10
103.155703599864
 20
111.2420089736976
 30
0.0
 11
103.155703599864
 21
109.9086756403643
 31
0.0
 12
99.15570359986402
 22
110.5753423070309
 32
0.0
 13
99.15570359986402
 23
110.5753423070309
 33
0.0
  0
SOLID
  5
156
330
150
100
AcDbEntity
  8
BEMASSUNG
 62
     2
100
AcDbTrace
 10
117.7465658111541
 20
111.2420089736976
 30
0.0
 11
117.7465658111541
 21
109.9086756403643
 31
0.0
 12
121.7465658111541
 22
110.5753423070309
 32
0.0
 13
121.7465658111541
 23
110.5753423070309
 33
0.0
  0
MTEXT
  5
157
102
{ACAD_XDICTIONARY
360
38C
102
}
330
150
100
AcDbEntity
  8
BEMASSUNG
 62
     3
100
AcDbMText
 10
110.6545569719933
 20
113.8764507654211
 30
0.0
 40
4.349999999999999
 41
0.0
 71
     5
 72
     1
  1
\A1;\U+00F823
  7
ARIAL-STANDARD
 73
     1
 44
1.0
1001
ACAD
1000
MTEXTBEGIN
1070
    73
1070
     1
1070
    44
1040
1.0
1070
    74
1070
     0
1000
MTEXTEND
  0
POINT
  5
158
330
150
100
AcDbEntity
  8
DEFPOINTS
 62
     0
100
AcDbPoint
 10
99.15570359986402
 20
133.8695671861024
 30
0.0
  0
POINT
  5
159
330
150
100
AcDbEntity
  8
DEFPOINTS
 62
     0
100
AcDbPoint
 10
121.7465658111541
 20
133.9823031830662
 30
0.0
  0
POINT
  5
15A
330
150
100
AcDbEntity
  8
DEFPOINTS
 62
     0
100
AcDbPoint
 10
121.7465658111541
 20
110.5753423070309
 30
0.0
  0
ENDBLK
  5
15B
330
150
100
AcDbEntity
  8
0
100
AcDbBlockEnd
  0
BLOCK
  5
2F4
330
2F3
100
AcDbEntity
  8
0
100
AcDbBlockBegin
  2
*D9
 70
     1
 10
0.0
 20
0.0
 30
0.0
  3
*D9
  1

  0
LINE
  5
2F5
330
2F3
100
AcDbEntity
  8
BEMASSUNG
 62
     2
370
    -2
100
AcDbLine
 10
160.4465658111537
 20
260.0323031830664
 30
0.0
 11
182.9499619288135
 21
260.0323031830664
 31
0.0
  0
LINE
  5
2F6
330
2F3
100
AcDbEntity
  8
BEMASSUNG
 62
     2
370
    -2
100
AcDbLine
 10
160.4465658111542
 20
283.0323031830664
 30
0.0
 11
182.9499619288135
 21
283.0323031830664
 31
0.0
  0
LINE
  5
2F7
330
2F3
100
AcDbEntity
  8
BEMASSUNG
 62
     2
370
    -2
100
AcDbLine
 10
181.9499619288135
 20
264.0323031830664
 30
0.0
 11
181.9499619288135
 21
279.0323031830664
 31
0.0
  0
SOLID
  5
2F8
330
2F3
100
AcDbEntity
  8
BEMASSUNG
 62
     2
100
AcDbTrace
 10
181.2832952621469
 20
264.0323031830664
 30
0.0
 11
182.6166285954802
 21
264.0323031830664
 31
0.0
 12
181.9499619288135
 22
260.0323031830664
 32
0.0
 13
181.9499619288135
 23
260.0323031830664
 33
0.0
  0
SOLID
  5
2F9
330
2F3
100
AcDbEntity
  8
BEMASSUNG
 62
     2
100
AcDbTrace
 10
181.2832952621469
 20
279.0323031830664
 30
0.0
 11
182.6166285954802
 21
279.0323031830664
 31
0.0
 12
181.9499619288135
 22
283.0323031830664
 32
0.0
 13
181.9499619288135
 23
283.0323031830664
 33
0.0
  0
MTEXT
  5
2FA
330
2F3
100
AcDbEntity
  8
BEMASSUNG
 62
     3
100
AcDbMText
 10
178.7274858033019
 20
271.5323031830664
 30
0.0
 40
4.349999999999999
 41
0.0
 71
     5
 72
     1
  1
\A1;23
  7
ARIAL-STANDARD
 11
0.0000000000000001
 21
1.0
 31
0.0
 73
     1
 44
1.0
1001
ACAD
1000
MTEXTBEGIN
1070
    73
1070
     1
1070
    44
1040
1.0
1070
    74
1070
     0
1000
MTEXTEND
  0
POINT
  5
2FB
330
2F3
100
AcDbEntity
  8
DEFPOINTS
 62
     0
100
AcDbPoint
 10
160.4465658111537
 20
260.0323031830664
 30
0.0
  0
POINT
  5
2FC
330
2F3
100
AcDbEntity
  8
DEFPOINTS
 62
     0
100
AcDbPoint
 10
160.4465658111542
 20
283.0323031830664
 30
0.0
  0
POINT
  5
2FD
330
2F3
100
AcDbEntity
  8
DEFPOINTS
 62
     0
100
AcDbPoint
 10
181.9499619288135
 20
283.0323031830664
 30
0.0
  0
ENDBLK
  5
2FE
330
2F3
100
AcDbEntity
  8
0
100
AcDbBlockEnd
  0
BLOCK
  5
328
330
327
100
AcDbEntity
  8
0
100
AcDbBlockBegin
  2
_ACMFILLED15
 70
     0
 10
0.0
 20
0.0
 30
0.0
  3
_ACMFILLED15
  1

  0
TRACE
  5
329
330
327
100
AcDbEntity
  8
BEMASSUNG
 62
     0
100
AcDbTrace
 10
-1.0
 20
-0.131652497
 30
0.0
 11
-1.0
 21
0.131652497
 31
0.0
 12
0.0
 22
0.0
 32
0.0
 13
0.0
 23
0.0
 33
0.0
  0
ENDBLK
  5
32A
330
327
100
AcDbEntity
  8
0
100
AcDbBlockEnd
  0
ENDSEC
  0
SECTION
  2
ENTITIES
  0
LINE
  5
68
330
2
100
AcDbEntity
  8
UMRISS05
100
AcDbLine
 10
77.4369468679206
 20
290.0323031830664
 30
0.0
 11
143.4561847543871
 21
290.0323031830664
 31
0.0
  0
LINE
  5
6C
330
2
100
AcDbEntity
  8
UMRISS05
100
AcDbLine
 10
64.44656581115373
 20
282.5323031830664
 30
0.0
 11
140.4114140207239
 21
282.5323031830664
 31
0.0
  0
HATCH
  5
6D
330
2
100
AcDbEntity
  8
SCHRAFFUR
100
AcDbHatch
 10
0.0
 20
0.0
 30
0.0
210
0.0
220
0.0
230
1.0
  2
ANSI31
 70
     0
 71
     1
 91
        8
 92
        7
 72
     0
 73
     1
 93
        6
 10
87.44451671505613
 20
236.5323031830664
 10
85.94451671505607
 20
236.5323031830664
 10
84.94451671505613
 20
235.9549529138764
 10
84.94451671505613
 20
169.3323031830661
 10
86.54451671505603
 20
167.7323031830662
 10
87.44451671505613
 20
167.7323031830662
 97
        6
330
DF
330
AE
330
B1
330
77
330
FF
330
8D
 92
        7
 72
     0
 73
     1
 93
        6
 10
87.44451671505611
 20
164.3323031830656
 10
86.54451671505558
 20
164.3323031830657
 10
84.94451671505613
 20
162.7323031830662
 10
84.94451671505613
 20
155.3323031830661
 10
86.5445167150561
 20
153.7323031830662
 10
87.44451671505613
 20
153.7323031830661
 97
        6
330
AE
330
C1
330
79
330
16F
330
78
330
C7
 92
        7
 72
     0
 73
     1
 93
        5
 10
87.44451671505613
 20
148.0323031830664
 10
87.44451671505613
 20
150.3323031830657
 10
86.54451671505558
 20
150.3323031830657
 10
84.94451671505613
 20
148.7323031830662
 10
84.94451671505613
 20
148.0323031830664
 97
        5
330
AE
330
72
330
170
330
7B
330
C4
 92
        7
 72
     0
 73
     1
 93
        6
 10
133.4445167150561
 20
153.7323031830662
 10
134.344516715056
 20
153.7323031830662
 10
135.9445167150561
 20
155.3323031830661
 10
135.9445167150561
 20
162.7323031830662
 10
134.344516715056
 20
164.3323031830661
 10
133.4445167150561
 20
164.3323031830661
 97
        6
330
203
330
142
330
200
330
1FC
330
141
330
201
 92
        7
 72
     0
 73
     1
 93
        5
 10
135.9445167150561
 20
148.0323031830664
 10
135.9445167150561
 20
148.7323031830662
 10
134.344516715056
 20
150.3323031830661
 10
133.4445167150561
 20
150.3323031830661
 10
133.4445167150561
 20
148.0323031830664
 97
        5
330
1FF
330
142
330
72
330
141
330
1FD
 92
        7
 72
     0
 73
     1
 93
        8
 10
135.9445167150561
 20
269.032303183066
 10
146.1945167150561
 20
269.032303183066
 10
146.1945167150561
 20
273.0323031830664
 10
134.4445167150561
 20
273.0323031830664
 10
133.4445167150561
 20
272.0323031830665
 10
133.4445167150561
 20
167.7323031830662
 10
134.344516715056
 20
167.7323031830662
 10
135.9445167150561
 20
169.3323031830661
 97
        8
330
2DB
330
142
330
204
330
148
330
141
330
2DA
330
2E4
330
73
 92
        7
 72
     0
 73
     1
 93
        9
 10
84.94451671505613
 20
245.1096534522555
 10
85.94451671505607
 20
244.5323031830664
 10
87.44451671505613
 20
244.5323031830664
 10
87.44451671505613
 20
272.032303183067
 10
86.44451671505663
 20
273.0323031830664
 10
78.64656581115375
 20
273.0323031830664
 10
76.19656581115394
 20
270.5823031830662
 10
76.19656581115399
 20
269.0323031830664
 10
84.94451671505613
 20
269.032303183066
 97
        9
330
E5
330
FC
330
E4
330
AE
330
E3
330
8C
330
2A6
330
8F
330
73
 92
        7
 72
     0
 73
     1
 93
        4
 10
68.44656581115373
 20
272.8323031830664
 10
68.44656581115375
 20
269.0323031830665
 10
70.69656581115395
 20
269.032303183066
 10
70.69656581115395
 20
270.5823031830661
 97
        4
330
DC
330
DB
330
F8
330
DA
 75
     0
 76
     1
 52
180.0
 41
12.0
 77
     0
 78
     1
 53
225.0
 43
461.0130688272415
 44
-686.077044717297
 45
1.060660171779821
 46
-1.060660171779821
 79
     0
 47
0.1369122361983343
 98
        8
 10
86.58203497945123
 20
191.4046326310619
 10
86.30821142178865
 20
157.6961566724046
 10
86.03438589834423
 20
148.6524179855843
 10
134.5013187644849
 20
157.1480534885447
 10
134.5013187644849
 20
148.6524179855843
 10
134.7751442879294
 20
176.8798440290772
 10
85.76056234068209
 20
263.7545348949958
 10
69.60491739670761
 20
270.8799015923666
  0
HATCH
  5
71
330
2
100
AcDbEntity
  8
SCHRAFFUR
100
AcDbHatch
 10
0.0
 20
0.0
 30
0.0
210
0.0
220
0.0
230
1.0
  2
ANSI31
 70
     0
 71
     0
 91
        4
 92
        7
 72
     0
 73
     1
 93
        6
 10
75.94656581115396
 20
269.032303183066
 10
75.94656581115396
 20
260.0323031830664
 10
76.94656581115395
 20
260.0323031830664
 10
76.94656581115395
 20
138.0323031830664
 10
78.94656581115419
 20
138.0323031830664
 10
78.94656581115396
 20
269.032303183066
 97
        0
 92
        7
 72
     0
 73
     1
 93
        8
 10
64.44656581115395
 20
273.0323031830664
 10
64.44656581115395
 20
283.0323031830659
 10
60.44656581115396
 20
283.0323031830664
 10
60.44656581115418
 20
260.0323031830659
 10
70.94656581115396
 20
260.0323031830659
 10
70.94656581115396
 20
269.0323031830664
 10
68.44656581115373
 20
269.032303183066
 10
68.44656581115396
 20
273.0323031830664
 97
        0
 92
        7
 72
     0
 73
     1
 93
        6
 10
141.9465658111539
 20
269.0323031830664
 10
141.9465658111539
 20
138.0323031830659
 10
143.9465658111537
 20
138.0323031830664
 10
143.9465658111539
 20
260.0323031830664
 10
145.4465658111539
 20
260.0323031830664
 10
145.4465658111539
 20
269.032303183066
 97
        0
 92
        7
 72
     0
 73
     1
 93
        6
 10
156.4465658111539
 20
283.0323031830664
 10
156.4465658111539
 20
273.0323031830664
 10
154.4465658111539
 20
273.0323031830664
 10
154.4465658111542
 20
260.0323031830664
 10
160.4465658111537
 20
260.0323031830664
 10
160.4465658111542
 20
283.0323031830659
 97
        0
 75
     0
 76
     1
 52
90.0
 41
12.0
 77
     0
 78
     1
 53
135.0
 43
461.0130688272415
 44
-686.077044717297
 45
-1.060660171779821
 46
-1.060660171779821
 79
     0
 47
0.1259326137864592
 98
        4
 10
77.94657234102169
 20
213.7733675962883
 10
65.35331104129409
 20
267.4653647432694
 10
142.927803085186
 20
236.4601272087672
 10
157.5359866646577
 20
267.2132906407179
  0
LINE
  5
72
102
{ACAD_REACTORS
330
6D
102
}
330
2
100
AcDbEntity
  8
UMRISS05
100
AcDbLine
 10
135.9445167150561
 20
148.0323031830664
 30
0.0
 11
84.94451671505613
 21
148.0323031830664
 31
0.0
  0
LINE
  5
73
102
{ACAD_REACTORS
330
6D
102
}
330
2
100
AcDbEntity
  8
UMRISS05
100
AcDbLine
 10
64.44656581115395
 20
273.0323031830664
 30
0.0
 11
146.4465658111535
 21
273.0323031830664
 31
0.0
  0
LINE
  5
74
330
2
100
AcDbEntity
  8
BEMASSUNG
100
AcDbLine
 10
86.54451671505558
 20
167.3323031830657
 30
0.0
 11
92.94451671505568
 21
167.3323031830657
 31
0.0
  0
LINE
  5
75
330
2
100
AcDbEntity
  8
BEMASSUNG
100
AcDbLine
 10
86.54451671505558
 20
164.7323031830662
 30
0.0
 11
92.94451671505589
 21
164.7323031830662
 31
0.0
  0
LINE
  5
76
330
2
100
AcDbEntity
  8
BEMASSUNG
100
AcDbLine
 10
86.54451671505558
 20
153.3323031830656
 30
0.0
 11
92.94451671505589
 21
153.3323031830656
 31
0.0
  0
LINE
  5
77
102
{ACAD_REACTORS
330
6D
102
}
330
2
100
AcDbEntity
  8
UMRISS05
100
AcDbLine
 10
86.54451671505558
 20
167.7323031830662
 30
0.0
 11
92.94451671505568
 21
167.7323031830662
 31
0.0
  0
LINE
  5
78
102
{ACAD_REACTORS
330
6D
102
}
330
2
100
AcDbEntity
  8
UMRISS05
100
AcDbLine
 10
86.54451671505558
 20
164.3323031830657
 30
0.0
 11
92.94451671505589
 21
164.3323031830657
 31
0.0
  0
LINE
  5
79
102
{ACAD_REACTORS
330
6D
102
}
330
2
100
AcDbEntity
  8
UMRISS05
100
AcDbLine
 10
86.54451671505558
 20
153.7323031830662
 30
0.0
 11
92.94451671505589
 21
153.7323031830662
 31
0.0
  0
LINE
  5
7A
330
2
100
AcDbEntity
  8
BEMASSUNG
100
AcDbLine
 10
86.54451671505558
 20
150.7323031830662
 30
0.0
 11
92.94451671505612
 21
150.7323031830662
 31
0.0
  0
LINE
  5
7B
102
{ACAD_REACTORS
330
6D
102
}
330
2
100
AcDbEntity
  8
UMRISS05
100
AcDbLine
 10
86.54451671505558
 20
150.3323031830657
 30
0.0
 11
92.94451671505612
 21
150.3323031830657
 31
0.0
  0
LINE
  5
7C
330
2
100
AcDbEntity
  8
ACHSEN
100
AcDbLine
 10
89.44451671505612
 20
166.0323031830664
 30
0.0
 11
82.94451671505612
 21
166.0323031830664
 31
0.0
  0
LINE
  5
81
330
2
100
AcDbEntity
  8
ACHSEN
100
AcDbLine
 10
89.44451671505612
 20
152.0323031830664
 30
0.0
 11
82.94451671505612
 21
152.0323031830664
 31
0.0
  0
HATCH
  5
82
330
2
100
AcDbEntity
  8
SCHRAFFUR
100
AcDbHatch
 10
0.0
 20
0.0
 30
0.0
210
0.0
220
0.0
230
1.0
  2
ANSI31
 70
     0
 71
     1
 91
        1
 92
        7
 72
     0
 73
     1
 93
        4
 10
100.9465658111539
 20
135.5323031830664
 10
100.9465658111539
 20
138.0323031830664
 10
62.43437250233434
 20
138.0323031830664
 10
62.43437250233433
 20
135.5323031830664
 97
        4
330
BF
330
83
330
165
330
84
 75
     0
 76
     1
 52
180.0
 41
13.0
 77
     0
 78
     1
 53
225.0
 43
274.3362888852903
 44
103.2907720298287
 45
1.149048519428139
 46
-1.149048519428139
 79
     0
 47
0.2208471458440852
 98
        1
 10
86.11044245824542
 20
136.1291143888463
  0
LINE
  5
83
102
{ACAD_REACTORS
330
82
330
14C
102
}
330
2
100
AcDbEntity
  8
UMRISS05
100
AcDbLine
 10
62.43437250233433
 20
135.5323031830664
 30
0.0
 11
101.4465658111539
 21
135.5323031830664
 31
0.0
  0
LINE
  5
84
102
{ACAD_REACTORS
330
82
330
14C
102
}
330
2
100
AcDbEntity
  8
UMRISS05
100
AcDbLine
 10
62.4343725023341
 20
138.0323031830664
 30
0.0
 11
101.4465658111539
 21
138.0323031830664
 31
0.0
  0
LINE
  5
85
330
2
100
AcDbEntity
  8
UMRISS05
100
AcDbLine
 10
86.54451671505603
 20
150.3323031830661
 30
0.0
 11
87.44451671505613
 21
150.3323031830661
 31
0.0
  0
LINE
  5
86
330
2
100
AcDbEntity
  8
UMRISS05
100
AcDbLine
 10
86.54451671505603
 20
153.7323031830662
 30
0.0
 11
87.44451671505613
 21
153.7323031830662
 31
0.0
  0
LINE
  5
87
330
2
100
AcDbEntity
  8
UMRISS07
100
AcDbLine
 10
86.54451671505603
 20
164.3323031830661
 30
0.0
 11
87.44451671505613
 21
164.3323031830661
 31
0.0
  0
LINE
  5
8B
330
2
100
AcDbEntity
  8
UMRISS07
100
AcDbLine
 10
86.54451671505603
 20
167.7323031830662
 30
0.0
 11
87.44451671505613
 21
167.7323031830662
 31
0.0
  0
LINE
  5
8C
102
{ACAD_REACTORS
330
6D
102
}
330
2
100
AcDbEntity
  8
UMRISS05
100
AcDbLine
 10
94.44451671505612
 20
244.5323031830664
 30
0.0
 11
85.94451671505613
 21
244.5323031830664
 31
0.0
  0
LINE
  5
8D
102
{ACAD_REACTORS
330
6D
102
}
330
2
100
AcDbEntity
  8
UMRISS05
100
AcDbLine
 10
94.44451671505612
 20
236.5323031830664
 30
0.0
 11
85.94451671505613
 21
236.5323031830664
 31
0.0
  0
LINE
  5
8E
330
2
100
AcDbEntity
  8
ACHSEN
100
AcDbLine
 10
96.44451671505613
 20
240.5323031830664
 30
0.0
 11
82.94451671505612
 21
240.5323031830664
 31
0.0
  0
LINE
  5
8F
102
{ACAD_REACTORS
330
6D
102
}
330
2
100
AcDbEntity
  8
UMRISS05
100
AcDbLine
 10
87.44451671505681
 20
272.0323031830664
 30
0.0
 11
86.44451671505612
 21
273.0323031830669
 31
0.0
  0
DIMENSION
  5
90
330
2
100
AcDbEntity
  8
BEMASSUNG
100
AcDbDimension
  2
*D4
 10
160.4465658111539
 20
333.055850340568
 30
0.0
 11
110.4465658111539
 21
336.3569587989581
 31
0.0
  1
ø<>
 71
     5
 42
100.0
  3
Katalog 09
100
AcDbAlignedDimension
 13
60.44656581115396
 23
283.0323031830664
 33
0.0
 14
160.4465658111539
 24
283.0323031830655
 34
0.0
100
AcDbRotatedDimension
  0
DIMENSION
  5
9E
330
2
100
AcDbEntity
  8
BEMASSUNG
100
AcDbDimension
  2
*D7
 10
40.86705485607742
 20
135.5323031830664
 30
0.0
 11
40.8670548560774
 21
118.5792336059857
 31
0.0
 70
   128
 71
     5
 42
2.250000000000198
  3
Katalog 09
100
AcDbAlignedDimension
 13
99.84656581115405
 23
133.2823031830661
 33
0.0
 14
62.43437250233433
 24
135.5323031830664
 34
0.0
 50
90.0
100
AcDbRotatedDimension
1001
ACAD_DSTYLE_DIMINSPECT
1070
   396
1000
100%
1070
   395
1000

1070
   394
1070
    33
1070
   393
1070
     0
1001
ACAD
1000
DSTYLE
1002
{
1070
   271
1070
     1
1002
}
  0
LINE
  5
AE
102
{ACAD_REACTORS
330
6D
102
}
330
2
100
AcDbEntity
  8
UMRISS05
100
AcDbLine
 10
84.94451671505613
 20
269.032303183066
 30
0.0
 11
84.94451671505613
 21
148.0323031830664
 31
0.0
  0
LINE
  5
AF
330
2
100
AcDbEntity
  8
UMRISS05
100
AcDbLine
 10
78.94656581115396
 20
269.0323031830664
 30
0.0
 11
78.94656581115396
 21
138.0323031830664
 31
0.0
  0
LINE
  5
B0
330
2
100
AcDbEntity
  8
UMRISS05
100
AcDbLine
 10
76.94656581115395
 20
260.0323031830664
 30
0.0
 11
76.94656581115395
 21
138.0323031830664
 31
0.0
  0
LINE
  5
B1
102
{ACAD_REACTORS
330
6D
102
}
330
2
100
AcDbEntity
  8
UMRISS05
100
AcDbLine
 10
86.54451671505603
 20
167.7323031830662
 30
0.0
 11
84.94451671505613
 21
169.3323031830661
 31
0.0
  0
DIMENSION
  5
B2
330
2
100
AcDbEntity
  8
BEMASSUNG
100
AcDbDimension
  2
*D6
 10
29.45715773445613
 20
135.5323031830664
 30
0.0
 11
26.23616523786676
 21
209.2823031830664
 31
0.0
 71
     5
 42
147.5
  3
Katalog 09
100
AcDbAlignedDimension
 13
60.44656581115396
 23
283.0323031830664
 33
0.0
 14
62.43437250233433
 24
135.5323031830664
 34
0.0
 50
90.0
100
AcDbRotatedDimension
  0
LINE
  5
BF
102
{ACAD_REACTORS
330
82
102
}
330
2
100
AcDbEntity
  8
UMRISS05
100
AcDbLine
 10
62.43437250233433
 20
135.5323031830664
 30
0.0
 11
62.43437250233433
 21
138.0323031830664
 31
0.0
  0
LINE
  5
C0
330
2
100
AcDbEntity
  8
UMRISS05
100
AcDbLine
 10
62.43437250233433
 20
135.5323031830664
 30
0.0
 11
62.4343725023341
 21
138.0323031830664
 31
0.0
  0
LINE
  5
C1
102
{ACAD_REACTORS
330
6D
102
}
330
2
100
AcDbEntity
  8
UMRISS05
100
AcDbLine
 10
86.54451671505603
 20
153.7323031830662
 30
0.0
 11
84.94451671505613
 21
155.3323031830661
 31
0.0
  0
LINE
  5
C2
330
2
100
AcDbEntity
  8
UMRISS05
100
AcDbLine
 10
86.54451671505581
 20
150.3323031830657
 30
0.0
 11
86.54451671505581
 21
153.7323031830662
 31
0.0
  0
LINE
  5
C3
330
2
100
AcDbEntity
  8
UMRISS05
100
AcDbLine
 10
86.54451671505603
 20
153.7323031830662
 30
0.0
 11
86.54451671505603
 21
150.3323031830661
 31
0.0
  0
LINE
  5
C4
102
{ACAD_REACTORS
330
6D
102
}
330
2
100
AcDbEntity
  8
UMRISS05
100
AcDbLine
 10
86.54451671505603
 20
150.3323031830661
 30
0.0
 11
84.94451671505613
 21
148.7323031830662
 31
0.0
  0
LINE
  5
C5
330
2
100
AcDbEntity
  8
UMRISS05
100
AcDbLine
 10
86.54451671505581
 20
164.3323031830657
 30
0.0
 11
86.54451671505603
 21
167.7323031830662
 31
0.0
  0
LINE
  5
C6
330
2
100
AcDbEntity
  8
UMRISS05
100
AcDbLine
 10
86.54451671505603
 20
167.7323031830662
 30
0.0
 11
86.54451671505603
 21
164.3323031830661
 31
0.0
  0
LINE
  5
C7
102
{ACAD_REACTORS
330
6D
102
}
330
2
100
AcDbEntity
  8
UMRISS05
100
AcDbLine
 10
86.54451671505603
 20
164.3323031830661
 30
0.0
 11
84.94451671505613
 21
162.7323031830662
 31
0.0
  0
LINE
  5
C8
330
2
100
AcDbEntity
  8
UMRISS05
100
AcDbLine
 10
64.44656581115395
 20
273.0323031830664
 30
0.0
 11
64.44656581115395
 21
283.0323031830664
 31
0.0
  0
LINE
  5
C9
330
2
100
AcDbEntity
  8
UMRISS05
100
AcDbLine
 10
60.44656581115418
 20
260.0323031830664
 30
0.0
 11
60.44656581115396
 21
283.0323031830664
 31
0.0
  0
DIMENSION
  5
CA
330
2
100
AcDbEntity
  8
BEMASSUNG
100
AcDbDimension
  2
*D5
 10
29.29384697552882
 20
283.0323031830664
 30
0.0
 11
26.11884697552877
 21
286.5323031830664
 31
0.0
 71
     5
 42
7.0
  3
Katalog 09
100
AcDbAlignedDimension
 13
77.4369468679206
 23
290.0323031830664
 33
0.0
 14
60.44656581115396
 24
283.0323031830664
 34
0.0
 50
90.0
100
AcDbRotatedDimension
  0
LINE
  5
D9
330
2
100
AcDbEntity
  8
UMRISS05
100
AcDbLine
 10
60.44656581115418
 20
260.0323031830664
 30
0.0
 11
76.94656581115395
 21
260.0323031830664
 31
0.0
  0
LINE
  5
DA
102
{ACAD_REACTORS
330
6D
102
}
330
2
100
AcDbEntity
  8
UMRISS05
100
AcDbLine
 10
70.94656581115396
 20
270.3323031830661
 30
0.0
 11
68.44451671505613
 21
272.8343522791639
 31
0.0
  0
LINE
  5
DB
102
{ACAD_REACTORS
330
6D
102
}
330
2
100
AcDbEntity
  8
UMRISS05
100
AcDbLine
 10
68.44656581115373
 20
269.0323031830664
 30
0.0
 11
70.94656581115396
 21
269.032303183066
 31
0.0
  0
LINE
  5
DC
102
{ACAD_REACTORS
330
6D
102
}
330
2
100
AcDbEntity
  8
UMRISS05
100
AcDbLine
 10
68.44656581115373
 20
269.0323031830664
 30
0.0
 11
68.44656581115373
 21
273.0323031830664
 31
0.0
  0
LINE
  5
DD
330
2
100
AcDbEntity
  8
UMRISS05
100
AcDbLine
 10
85.44451671505612
 20
244.0323031830664
 30
0.0
 11
85.44451671505612
 21
237.0323031830664
 31
0.0
  0
LINE
  5
DE
330
2
100
AcDbEntity
  8
UMRISS05
100
AcDbLine
 10
85.94451671505613
 20
236.5323031830664
 30
0.0
 11
84.94451671505613
 21
237.5323031830664
 31
0.0
  0
LINE
  5
DF
102
{ACAD_REACTORS
330
6D
102
}
330
2
100
AcDbEntity
  8
UMRISS05
100
AcDbLine
 10
85.94451671505613
 20
236.5323031830664
 30
0.0
 11
84.94451671505613
 21
235.9549529138764
 31
0.0
  0
SOLID
  5
E0
330
2
100
AcDbEntity
  8
UMRISS05
100
AcDbTrace
 10
84.9445167150559
 20
237.5323031830664
 30
0.0
 11
85.9445167150559
 21
236.5323031830663
 31
0.0
 12
84.9445167150559
 22
235.9549529138764
 32
0.0
 13
84.9445167150559
 23
235.9549529138764
 33
0.0
  0
LINE
  5
E1
330
2
100
AcDbEntity
  8
UMRISS05
100
AcDbLine
 10
85.94451671505613
 20
244.5323031830664
 30
0.0
 11
84.94451671505613
 21
243.5323031830664
 31
0.0
  0
SOLID
  5
E2
330
2
100
AcDbEntity
  8
UMRISS05
100
AcDbTrace
 10
84.9445167150559
 20
245.1096534522554
 30
0.0
 11
85.9445167150559
 21
244.5323031830664
 31
0.0
 12
84.9445167150559
 22
243.5323031830663
 32
0.0
 13
84.9445167150559
 23
243.5323031830663
 33
0.0
  0
LINE
  5
E3
102
{ACAD_REACTORS
330
6D
102
}
330
2
100
AcDbEntity
  8
UMRISS05
100
AcDbLine
 10
85.94451671505613
 20
244.5323031830664
 30
0.0
 11
84.94451671505613
 21
245.1096534522555
 31
0.0
  0
LINE
  5
E4
102
{ACAD_REACTORS
330
6D
102
}
330
2
100
AcDbEntity
  8
UMRISS05
100
AcDbLine
 10
75.94656581115351
 20
269.0323031830664
 30
0.0
 11
84.94451671505613
 21
269.032303183066
 31
0.0
  0
LINE
  5
E5
102
{ACAD_REACTORS
330
6D
102
}
330
2
100
AcDbEntity
  8
UMRISS05
100
AcDbLine
 10
75.94656581115351
 20
270.3323031830657
 30
0.0
 11
78.64656581115378
 21
273.0323031830664
 31
0.0
  0
LINE
  5
E6
330
2
100
AcDbEntity
  8
UMRISS05
100
AcDbLine
 10
71.34656581115359
 20
260.0323031830664
 30
0.0
 11
71.34656581115359
 21
264.9323031830656
 31
0.0
  0
LINE
  5
E7
330
2
100
AcDbEntity
  8
TEXT03
 62
     2
100
AcDbLine
 10
70.94656581115396
 20
260.0323031830664
 30
0.0
 11
70.94656581115396
 21
265.3323031830657
 31
0.0
  0
LINE
  5
EB
330
2
100
AcDbEntity
  8
ACHSEN
100
AcDbLine
 10
73.44656581115373
 20
256.0909473747426
 30
0.0
 11
73.44656581115373
 21
270.3719745405057
 31
0.0
  0
LINE
  5
EC
330
2
100
AcDbEntity
  8
UMRISS05
100
AcDbLine
 10
75.54656581115364
 20
260.0323031830664
 30
0.0
 11
75.54656581115364
 21
264.9323031830656
 31
0.0
  0
LINE
  5
ED
330
2
100
AcDbEntity
  8
TEXT03
 62
     2
100
AcDbLine
 10
75.94656581115396
 20
260.0323031830664
 30
0.0
 11
75.94656581115396
 21
265.3323031830666
 31
0.0
  0
ARC
  5
EE
330
2
100
AcDbEntity
  8
UMRISS05
100
AcDbCircle
 10
73.44656581115373
 20
271.9978663086309
 30
0.0
 40
13.36668721722084
100
AcDbArc
 50
255.9279552861009
 51
284.0720447138991
  0
LINE
  5
EF
330
2
100
AcDbEntity
  8
UMRISS05
100
AcDbLine
 10
70.19656581115373
 20
259.032303183066
 30
0.0
 11
70.19656581115373
 21
260.0323031830664
 31
0.0
  0
LINE
  5
F0
330
2
100
AcDbEntity
  8
UMRISS05
100
AcDbLine
 10
76.69656581115373
 20
259.032303183066
 30
0.0
 11
76.69656581115373
 21
260.0323031830664
 31
0.0
  0
LINE
  5
F1
330
2
100
AcDbEntity
  8
UMRISS05
100
AcDbLine
 10
70.94656581115396
 20
270.3323031830661
 30
0.0
 11
75.94656581115351
 21
270.3323031830657
 31
0.0
  0
LINE
  5
F2
330
2
100
AcDbEntity
  8
UMRISS05
100
AcDbLine
 10
71.34656581115359
 20
264.9323031830661
 30
0.0
 11
75.54656581115387
 21
264.9323031830661
 31
0.0
  0
LINE
  5
F3
330
2
100
AcDbEntity
  8
UMRISS05
100
AcDbLine
 10
70.94656581115396
 20
265.3323031830657
 30
0.0
 11
75.94656581115351
 21
265.3323031830657
 31
0.0
  0
LINE
  5
F4
330
2
100
AcDbEntity
  8
UMRISS05
100
AcDbLine
 10
71.34656581115359
 20
263.5323031830664
 30
0.0
 11
75.54656581115364
 21
263.5323031830664
 31
0.0
  0
LINE
  5
F5
330
2
100
AcDbEntity
  8
BEMASSUNG
100
AcDbLine
 10
71.34656581115359
 20
264.9323031830661
 30
0.0
 11
71.34656581115383
 21
270.3323031830661
 31
0.0
  0
LINE
  5
F6
330
2
100
AcDbEntity
  8
UMRISS05
100
AcDbLine
 10
70.94656581115396
 20
265.3323031830657
 30
0.0
 11
70.94656581115396
 21
270.3323031830661
 31
0.0
  0
LINE
  5
F7
330
2
100
AcDbEntity
  8
UMRISS05
100
AcDbLine
 10
71.34656581115359
 20
264.9323031830661
 30
0.0
 11
70.94656581115396
 21
265.3323031830657
 31
0.0
  0
LINE
  5
F8
102
{ACAD_REACTORS
330
6D
102
}
330
2
100
AcDbEntity
  8
UMRISS05
100
AcDbLine
 10
70.69656581115395
 20
270.5823031830661
 30
0.0
 11
70.69656581115395
 21
269.0323031830664
 31
0.0
  0
LINE
  5
F9
330
2
100
AcDbEntity
  8
BEMASSUNG
100
AcDbLine
 10
75.54656581115364
 20
264.9323031830661
 30
0.0
 11
75.54656581115387
 21
270.3323031830657
 31
0.0
  0
LINE
  5
FA
330
2
100
AcDbEntity
  8
UMRISS05
100
AcDbLine
 10
75.94656581115351
 20
265.3323031830657
 30
0.0
 11
75.94656581115351
 21
270.3323031830657
 31
0.0
  0
LINE
  5
FB
330
2
100
AcDbEntity
  8
UMRISS05
100
AcDbLine
 10
75.54656581115387
 20
264.9323031830661
 30
0.0
 11
75.94656581115351
 21
265.3323031830657
 31
0.0
  0
LINE
  5
FC
102
{ACAD_REACTORS
330
6D
102
}
330
2
100
AcDbEntity
  8
UMRISS05
100
AcDbLine
 10
76.19656581115396
 20
270.5823031830675
 30
0.0
 11
76.19656581115396
 21
269.0323031830664
 31
0.0
  0
LINE
  5
FD
330
2
100
AcDbEntity
  8
UMRISS05
100
AcDbLine
 10
64.44656581115373
 20
282.5323031830664
 30
0.0
 11
77.4369468679206
 21
290.0323031830664
 31
0.0
  0
LINE
  5
FE
330
2
100
AcDbEntity
  8
UMRISS05
100
AcDbLine
 10
60.44656581115396
 20
283.0323031830664
 30
0.0
 11
65.31259121493803
 21
283.0323031830664
 31
0.0
  0
LINE
  5
FF
102
{ACAD_REACTORS
330
6D
102
}
330
2
100
AcDbEntity
  8
UMRISS05
100
AcDbLine
 10
87.44451671505613
 20
236.5323031830664
 30
0.0
 11
87.44451671505613
 21
167.7323031830662
 31
0.0
  0
LINE
  5
100
330
2
100
AcDbEntity
  8
ACHSEN
100
AcDbLine
 10
110.4465658111542
 20
118.6432345467546
 30
0.0
 11
110.4465658111539
 21
285.0323031830664
 31
0.0
  0
INSERT
  5
101
330
2
100
AcDbEntity
  8
SCHRAFFUR
100
AcDbBlockReference
  2
*X3
 10
1985.761036945445
 20
-332.1564324559616
 30
0.0
 50
90.0
1001
ACAD
1000
HATCH
1002
{
1070
    16
1000
ANSI37,I
1040
10.0
1040
0.0
1002
}
  0
LINE
  5
13A
330
2
100
AcDbEntity
  8
UMRISS05
100
AcDbLine
 10
99.54451671505559
 20
154.5323031830664
 30
0.0
 11
99.5445167150558
 21
177.5133391465285
 31
0.0
  0
LINE
  5
13B
330
2
100
AcDbEntity
  8
UMRISS05
100
AcDbLine
 10
103.5445167150556
 20
154.5323031830664
 30
0.0
 11
103.5445167150558
 21
172.7144622798893
 31
0.0
  0
LINE
  5
13C
330
2
100
AcDbEntity
  8
UMRISS05
100
AcDbLine
 10
98.04451671505582
 20
148.0323031830664
 30
0.0
 11
98.04451671505582
 21
170.0323031830664
 31
0.0
  0
LINE
  5
13D
330
2
100
AcDbEntity
  8
UMRISS05
100
AcDbLine
 10
105.044516715056
 20
149.5323031830664
 30
0.0
 11
105.0445167150556
 21
168.5323031830664
 31
0.0
  0
LINE
  5
13E
330
2
100
AcDbEntity
  8
UMRISS05
100
AcDbLine
 10
150.9465658111533
 20
155.0323031830664
 30
0.0
 11
150.9465658111535
 21
228.0323031830664
 31
0.0
  0
LINE
  5
13F
330
2
100
AcDbEntity
  8
UMRISS05
100
AcDbLine
 10
147.9465658111537
 20
155.0323031830664
 30
0.0
 11
147.9465658111537
 21
228.0323031830664
 31
0.0
  0
HATCH
  5
140
330
2
100
AcDbEntity
  8
SCHRAFFUR
100
AcDbHatch
 10
0.0
 20
0.0
 30
0.0
210
0.0
220
0.0
230
1.0
  2
ANSI31
 70
     0
 71
     0
 91
        2
 92
        7
 72
     0
 73
     1
 93
        4
 10
143.9465658111539
 20
260.0323031830664
 10
143.9465658111537
 20
138.0323031830664
 10
145.4465658111537
 20
138.0323031830664
 10
145.4465658111539
 20
260.0323031830659
 97
        0
 92
        7
 72
     0
 73
     1
 93
        4
 10
157.4165658111542
 20
260.0323031830664
 10
157.416565811154
 20
138.0323031830664
 10
158.916565811154
 20
138.0323031830664
 10
158.9165658111542
 20
260.0323031830659
 97
        0
 75
     0
 76
     1
 52
180.0
 41
12.0
 77
     0
 78
     1
 53
225.0
 43
461.0130688272415
 44
-686.077044717297
 45
1.060660171779821
 46
-1.060660171779821
 79
     0
 47
0.1259326137864592
 98
        2
 10
144.9427253649301
 20
194.3635857782334
 10
158.5434478045295
 20
194.6156598807853
  0
LINE
  5
141
102
{ACAD_REACTORS
330
6D
102
}
330
2
100
AcDbEntity
  8
UMRISS05
100
AcDbLine
 10
135.9445167150561
 20
269.032303183066
 30
0.0
 11
135.9445167150561
 21
148.0323031830664
 31
0.0
  0
LINE
  5
142
102
{ACAD_REACTORS
330
6D
102
}
330
2
100
AcDbEntity
  8
UMRISS05
100
AcDbLine
 10
133.4445167150561
 20
272.0323031830664
 30
0.0
 11
133.4445167150561
 21
148.0323031830664
 31
0.0
  0
LINE
  5
143
330
2
100
AcDbEntity
  8
UMRISS05
100
AcDbLine
 10
141.9465658111539
 20
269.0323031830664
 30
0.0
 11
141.9465658111539
 21
138.0323031830664
 31
0.0
  0
LINE
  5
144
330
2
100
AcDbEntity
  8
UMRISS05
100
AcDbLine
 10
157.416565811154
 20
138.0323031830664
 30
0.0
 11
157.4165658111542
 21
260.0323031830664
 31
0.0
  0
LINE
  5
145
330
2
100
AcDbEntity
  8
UMRISS05
100
AcDbLine
 10
145.4465658111537
 20
138.0323031830664
 30
0.0
 11
145.4465658111539
 21
260.0323031830664
 31
0.0
  0
LINE
  5
146
330
2
100
AcDbEntity
  8
UMRISS05
100
AcDbLine
 10
143.9465658111537
 20
138.0323031830664
 30
0.0
 11
143.9465658111539
 21
260.0323031830664
 31
0.0
  0
LINE
  5
147
330
2
100
AcDbEntity
  8
UMRISS05
100
AcDbLine
 10
158.916565811154
 20
138.0323031830664
 30
0.0
 11
158.9165658111542
 21
260.0323031830664
 31
0.0
  0
LINE
  5
148
102
{ACAD_REACTORS
330
6D
102
}
330
2
100
AcDbEntity
  8
UMRISS05
100
AcDbLine
 10
134.344516715056
 20
167.7323031830662
 30
0.0
 11
135.9445167150561
 21
169.3323031830661
 31
0.0
  0
LINE
  5
149
102
{ACAD_REACTORS
330
14C
102
}
330
2
100
AcDbEntity
  8
UMRISS05
100
AcDbLine
 10
158.4587591199738
 20
135.5323031830664
 30
0.0
 11
119.4465658111542
 21
135.5323031830664
 31
0.0
  0
LINE
  5
14A
102
{ACAD_REACTORS
330
14C
102
}
330
2
100
AcDbEntity
  8
UMRISS05
100
AcDbLine
 10
158.916565811154
 20
138.0323031830664
 30
0.0
 11
119.4465658111542
 21
138.0323031830664
 31
0.0
  0
HATCH
  5
14B
330
2
100
AcDbEntity
  8
SCHRAFFUR
100
AcDbHatch
 10
0.0
 20
0.0
 30
0.0
210
0.0
220
0.0
230
1.0
  2
ANSI31
 70
     0
 71
     0
 91
        1
 92
        7
 72
     0
 73
     1
 93
        4
 10
158.4587591199738
 20
135.5323031830664
 10
158.4587591199738
 20
138.0323031830664
 10
119.9465658111542
 20
138.0323031830664
 10
119.9465658111542
 20
135.5323031830664
 97
        0
 75
     0
 76
     1
 52
180.0
 41
13.0
 77
     0
 78
     1
 53
225.0
 43
461.0130688272415
 44
-686.077044717297
 45
1.149048519428139
 46
-1.149048519428139
 79
     0
 47
0.2208471458440852
 98
        1
 10
134.7826891640627
 20
136.1291143888463
  0
HATCH
  5
14C
330
2
100
AcDbEntity
  8
SCHRAFFUR
100
AcDbHatch
 10
0.0
 20
0.0
 30
0.0
210
0.0
220
0.0
230
1.0
  2
ANSI32
 70
     0
 71
     1
 91
        2
 92
        7
 72
     1
 73
     1
 93
       16
 10
104.9465658111539
 20
137.2823031830664
 42
0.0
 10
104.9465658111539
 20
139.5823031830661
 42
0.4142135623732081
 10
104.2465658111539
 20
140.2823031830664
 42
0.0
 10
99.84656581115405
 20
140.2823031830664
 42
0.414213562373232
 10
99.14656581115401
 20
139.5823031830661
 42
0.0
 10
99.14656581115401
 20
138.0323031830664
 42
0.0
 10
101.4465658111539
 20
138.0323031830664
 42
0.0
 10
101.4465658111539
 20
135.5323031830664
 42
0.0
 10
99.14656581115401
 20
135.5323031830664
 42
0.0
 10
99.14656581115401
 20
133.9823031830662
 42
0.4142135623730418
 10
99.84656581115405
 20
133.2823031830664
 42
0.0
 10
104.2465658111541
 20
133.2823031830664
 42
0.4142135623729465
 10
104.9465658111539
 20
133.9823031830662
 42
0.0
 10
104.9465658111539
 20
136.2823031830664
 42
0.0
 10
108.4465658111542
 20
136.2823031830664
 42
0.0
 10
108.4465658111542
 20
137.2823031830664
 42
0.0
 97
       16
330
1A9
330
1AE
330
1AD
330
15C
330
162
330
164
330
84
330
166
330
83
330
163
330
161
330
15D
330
1AC
330
1AB
330
1AA
330
174
 92
        7
 72
     1
 73
     1
 93
       16
 10
115.9465658111541
 20
136.2823031830664
 42
0.0
 10
115.9465658111542
 20
133.9823031830662
 42
0.4142135623730179
 10
116.6465658111542
 20
133.2823031830664
 42
0.0
 10
121.0465658111541
 20
133.2823031830664
 42
0.4142135623730417
 10
121.7465658111541
 20
133.9823031830662
 42
0.0
 10
121.7465658111541
 20
135.5323031830664
 42
0.0
 10
119.4465658111542
 20
135.5323031830664
 42
0.0
 10
119.4465658111542
 20
138.0323031830664
 42
0.0
 10
121.7465658111541
 20
138.0323031830664
 42
0.0
 10
121.7465658111541
 20
139.5823031830661
 42
0.4142135623732319
 10
121.0465658111541
 20
140.2823031830664
 42
0.0
 10
116.646565811154
 20
140.2823031830664
 42
0.4142135623731369
 10
115.9465658111542
 20
139.5823031830661
 42
0.0
 10
115.9465658111542
 20
137.2823031830664
 42
0.0
 10
112.4465658111542
 20
137.2823031830664
 42
0.0
 10
112.4465658111542
 20
136.2823031830664
 42
0.0
 97
       16
330
14A
330
1FB
330
1FA
330
14D
330
1B0
330
1B4
330
1B2
330
175
330
1B3
330
1B1
330
1AF
330
14E
330
1F9
330
1F8
330
149
330
1B5
 75
     0
 76
     1
 52
90.0
 41
0.2
 77
     0
 78
     2
 53
135.0
 43
27.88358230111089
 44
47.03140327561584
 45
-1.347038418160373
 46
-1.347038418160373
 79
     0
 53
135.0
 43
27.88358230111089
 44
47.92942927561584
 45
-1.347038418160373
 46
-1.347038418160373
 79
     0
 47
0.0373197469158802
 98
        2
 10
103.7291208772915
 20
137.2452092349746
 10
116.8392682036067
 20
136.7227330043875
  0
LINE
  5
14D
102
{ACAD_REACTORS
330
14C
102
}
330
2
100
AcDbEntity
  8
UMRISS05
100
AcDbLine
 10
112.4465658111542
 20
140.2823031830664
 30
0.0
 11
121.0465658111541
 21
140.2823031830664
 31
0.0
  0
LINE
  5
14E
102
{ACAD_REACTORS
330
14C
102
}
330
2
100
AcDbEntity
  8
UMRISS05
100
AcDbLine
 10
112.4465658111542
 20
133.2823031830664
 30
0.0
 11
121.0465658111541
 21
133.2823031830664
 31
0.0
  0
DIMENSION
  5
14F
330
2
100
AcDbEntity
  8
BEMASSUNG
100
AcDbDimension
  2
*D8
 10
121.7465658111541
 20
110.5753423070309
 30
0.0
 11
110.6545569719933
 21
110.5753423070309
 31
0.0
 70
   128
  1
ø<>
 71
     5
 42
22.59086221129013
  3
Katalog 09
100
AcDbAlignedDimension
 13
99.15570359986402
 23
133.8695671861024
 33
0.0
 14
121.7465658111541
 24
133.9823031830662
 34
0.0
100
AcDbRotatedDimension
1001
ACAD_DSTYLE_DIMINSPECT
1070
   396
1000
100%
1070
   395
1000

1070
   394
1070
    33
1070
   393
1070
     0
1001
ACAD
1000
DSTYLE
1002
{
1070
   271
1070
     0
1002
}
  0
LINE
  5
15C
102
{ACAD_REACTORS
330
14C
102
}
330
2
100
AcDbEntity
  8
UMRISS05
100
AcDbLine
 10
99.84656581115405
 20
140.2823031830664
 30
0.0
 11
108.4465658111542
 21
140.2823031830664
 31
0.0
  0
LINE
  5
15D
102
{ACAD_REACTORS
330
14C
102
}
330
2
100
AcDbEntity
  8
UMRISS05
100
AcDbLine
 10
99.84656581115405
 20
133.2823031830664
 30
0.0
 11
108.4465658111542
 21
133.2823031830664
 31
0.0
  0
LINE
  5
15E
330
2
100
AcDbEntity
  8
UMRISS05
100
AcDbLine
 10
103.5445167150556
 20
154.5323031830664
 30
0.0
 11
105.044516715056
 21
154.5323031830664
 31
0.0
  0
LINE
  5
15F
330
2
100
AcDbEntity
  8
UMRISS05
100
AcDbLine
 10
98.04451671505558
 20
152.5323031830664
 30
0.0
 11
105.044516715056
 21
152.5323031830664
 31
0.0
  0
LINE
  5
160
330
2
100
AcDbEntity
  8
UMRISS05
100
AcDbLine
 10
98.04451671505558
 20
149.5323031830664
 30
0.0
 11
105.044516715056
 21
149.5323031830664
 31
0.0
  0
ARC
  5
161
102
{ACAD_REACTORS
330
14C
102
}
330
2
100
AcDbEntity
  8
UMRISS05
100
AcDbCircle
 10
99.84656581115405
 20
133.9823031830661
 30
0.0
 40
0.7
100
AcDbArc
 50
180.0
 51
270.0
  0
ARC
  5
162
102
{ACAD_REACTORS
330
14C
102
}
330
2
100
AcDbEntity
  8
UMRISS05
100
AcDbCircle
 10
99.84656581115405
 20
139.5823031830661
 30
0.0
 40
0.7
100
AcDbArc
 50
90.0
 51
180.0
  0
LINE
  5
163
102
{ACAD_REACTORS
330
14C
102
}
330
2
100
AcDbEntity
  8
UMRISS05
100
AcDbLine
 10
99.14656581115401
 20
133.9823031830662
 30
0.0
 11
99.14656581115401
 21
135.5323031830664
 31
0.0
  0
LINE
  5
164
102
{ACAD_REACTORS
330
14C
102
}
330
2
100
AcDbEntity
  8
UMRISS05
100
AcDbLine
 10
99.14656581115401
 20
138.0323031830664
 30
0.0
 11
99.14656581115401
 21
139.5823031830661
 31
0.0
  0
LINE
  5
165
102
{ACAD_REACTORS
330
82
102
}
330
2
100
AcDbEntity
  8
UMRISS05
100
AcDbLine
 10
100.9465658111539
 20
135.5323031830664
 30
0.0
 11
100.9465658111539
 21
138.0323031830664
 31
0.0
  0
LINE
  5
166
102
{ACAD_REACTORS
330
14C
102
}
330
2
100
AcDbEntity
  8
UMRISS05
100
AcDbLine
 10
101.4465658111539
 20
135.5323031830664
 30
0.0
 11
101.4465658111539
 21
138.0323031830664
 31
0.0
  0
LINE
  5
167
330
2
100
AcDbEntity
  8
BEMASSUNG
100
AcDbLine
 10
92.94451671505589
 20
164.3323031830657
 30
0.0
 11
98.04451671505582
 21
164.3323031830657
 31
0.0
  0
LINE
  5
168
330
2
100
AcDbEntity
  8
BEMASSUNG
100
AcDbLine
 10
92.94451671505589
 20
153.7323031830662
 30
0.0
 11
98.04451671505582
 21
153.7323031830662
 31
0.0
  0
LINE
  5
169
330
2
100
AcDbEntity
  8
UMRISS05
100
AcDbLine
 10
92.94451671505589
 20
153.3323031830656
 30
0.0
 11
98.04451671505582
 21
153.3323031830656
 31
0.0
  0
LINE
  5
16A
330
2
100
AcDbEntity
  8
UMRISS05
100
AcDbLine
 10
92.94451671505589
 20
164.7323031830662
 30
0.0
 11
98.04451671505582
 21
164.7323031830662
 31
0.0
  0
LINE
  5
16B
330
2
100
AcDbEntity
  8
BEMASSUNG
100
AcDbLine
 10
92.94451671505612
 20
150.3323031830657
 30
0.0
 11
98.04451671505582
 21
150.3323031830657
 31
0.0
  0
LINE
  5
16C
330
2
100
AcDbEntity
  8
UMRISS05
100
AcDbLine
 10
92.94451671505612
 20
150.7323031830662
 30
0.0
 11
98.04451671505582
 21
150.7323031830662
 31
0.0
  0
LINE
  5
16D
330
2
100
AcDbEntity
  8
BEMASSUNG
100
AcDbLine
 10
92.94451671505568
 20
167.7323031830662
 30
0.0
 11
98.04451671505582
 21
167.7323031830662
 31
0.0
  0
LINE
  5
16E
330
2
100
AcDbEntity
  8
UMRISS05
100
AcDbLine
 10
92.94451671505568
 20
167.3323031830657
 30
0.0
 11
98.04451671505582
 21
167.3323031830657
 31
0.0
  0
LINE
  5
16F
102
{ACAD_REACTORS
330
6D
102
}
330
2
100
AcDbEntity
  8
UMRISS05
100
AcDbLine
 10
87.44451671505613
 20
164.3323031830657
 30
0.0
 11
87.44451671505613
 21
153.7323031830657
 31
0.0
  0
LINE
  5
170
102
{ACAD_REACTORS
330
6D
102
}
330
2
100
AcDbEntity
  8
UMRISS05
100
AcDbLine
 10
87.44451671505613
 20
150.3323031830657
 30
0.0
 11
87.44451671505613
 21
148.0323031830664
 31
0.0
  0
LINE
  5
171
330
2
100
AcDbEntity
  8
UMRISS05
100
AcDbLine
 10
92.94451671505612
 20
150.3323031830657
 30
0.0
 11
92.94451671505589
 21
153.7323031830662
 31
0.0
  0
LINE
  5
172
330
2
100
AcDbEntity
  8
UMRISS05
100
AcDbLine
 10
92.94451671505589
 20
164.3323031830657
 30
0.0
 11
92.94451671505568
 21
167.7323031830662
 31
0.0
  0
LINE
  5
173
330
2
100
AcDbEntity
  8
UMRISS05
100
AcDbLine
 10
98.04451671505558
 20
154.5323031830664
 30
0.0
 11
99.5445167150558
 21
154.5323031830655
 31
0.0
  0
LINE
  5
174
102
{ACAD_REACTORS
330
14C
102
}
330
2
100
AcDbEntity
  8
UMRISS05
100
AcDbLine
 10
108.4465658111542
 20
120.6432345467546
 30
0.0
 11
108.4465658111542
 21
141.3307476957971
 31
0.0
  0
LINE
  5
175
102
{ACAD_REACTORS
330
14C
102
}
330
2
100
AcDbEntity
  8
UMRISS05
100
AcDbLine
 10
112.4465658111542
 20
120.6432345467546
 30
0.0
 11
112.4465658111542
 21
141.3307476957971
 31
0.0
  0
POLYLINE
  5
176
330
2
100
AcDbEntity
  8
BEMASSUNG
100
AcDb2dPolyline
 66
     1
 10
0.0
 20
0.0
 30
0.0
 70
     4
 75
     6
  0
VERTEX
  5
177
330
176
100
AcDbEntity
  8
BEMASSUNG
100
AcDbVertex
100
AcDb2dVertex
 10
108.4465658111542
 20
120.6432345467546
 30
0.0
 70
    16
  0
VERTEX
  5
178
330
176
100
AcDbEntity
  8
BEMASSUNG
100
AcDbVertex
100
AcDb2dVertex
 10
108.4465658111542
 20
120.6432345467546
 30
0.0
 70
     8
  0
VERTEX
  5
179
330
176
100
AcDbEntity
  8
BEMASSUNG
100
AcDbVertex
100
AcDb2dVertex
 10
108.8352203926388
 20
120.8274029869828
 30
0.0
 70
     8
  0
VERTEX
  5
17A
330
176
100
AcDbEntity
  8
BEMASSUNG
100
AcDbVertex
100
AcDb2dVertex
 10
109.139905333822
 20
120.9498710436374
 30
0.0
 70
     8
  0
VERTEX
  5
17B
330
176
100
AcDbEntity
  8
BEMASSUNG
100
AcDbVertex
100
AcDb2dVertex
 10
109.3730261531268
 20
121.0201367506194
 30
0.0
 70
     8
  0
VERTEX
  5
17C
330
176
100
AcDbEntity
  8
BEMASSUNG
100
AcDbVertex
100
AcDb2dVertex
 10
109.5469883689763
 20
121.0476981418299
 30
0.0
 70
     8
  0
VERTEX
  5
17D
330
176
100
AcDbEntity
  8
BEMASSUNG
100
AcDbVertex
100
AcDb2dVertex
 10
109.6741974997933
 20
121.0420532511697
 30
0.0
 70
     8
  0
VERTEX
  5
17E
330
176
100
AcDbEntity
  8
BEMASSUNG
100
AcDbVertex
100
AcDb2dVertex
 10
109.767059064001
 20
121.0127001125399
 30
0.0
 70
     8
  0
VERTEX
  5
17F
330
176
100
AcDbEntity
  8
BEMASSUNG
100
AcDbVertex
100
AcDb2dVertex
 10
109.8379785800222
 20
120.9691367598415
 30
0.0
 70
     8
  0
VERTEX
  5
180
330
176
100
AcDbEntity
  8
BEMASSUNG
100
AcDbVertex
100
AcDb2dVertex
 10
109.89936156628
 20
120.9208612269753
 30
0.0
 70
     8
  0
VERTEX
  5
181
330
176
100
AcDbEntity
  8
BEMASSUNG
100
AcDbVertex
100
AcDb2dVertex
 10
109.9614924439771
 20
120.8758966825923
 30
0.0
 70
     8
  0
VERTEX
  5
182
330
176
100
AcDbEntity
  8
BEMASSUNG
100
AcDbVertex
100
AcDb2dVertex
 10
110.0261712454348
 20
120.8363668343429
 30
0.0
 70
     8
  0
VERTEX
  5
183
330
176
100
AcDbEntity
  8
BEMASSUNG
100
AcDbVertex
100
AcDb2dVertex
 10
110.0930769057544
 20
120.8029205246275
 30
0.0
 70
     8
  0
VERTEX
  5
184
330
176
100
AcDbEntity
  8
BEMASSUNG
100
AcDbVertex
100
AcDb2dVertex
 10
110.1618883600368
 20
120.7762065958463
 30
0.0
 70
     8
  0
VERTEX
  5
185
330
176
100
AcDbEntity
  8
BEMASSUNG
100
AcDbVertex
100
AcDb2dVertex
 10
110.2322845433834
 20
120.7568738903996
 30
0.0
 70
     8
  0
VERTEX
  5
186
330
176
100
AcDbEntity
  8
BEMASSUNG
100
AcDbVertex
100
AcDb2dVertex
 10
110.3039443908951
 20
120.7455712506879
 30
0.0
 70
     8
  0
VERTEX
  5
187
330
176
100
AcDbEntity
  8
BEMASSUNG
100
AcDbVertex
100
AcDb2dVertex
 10
110.376546837673
 20
120.7429475191113
 30
0.0
 70
     8
  0
VERTEX
  5
188
330
176
100
AcDbEntity
  8
BEMASSUNG
100
AcDbVertex
100
AcDb2dVertex
 10
110.4497708188184
 20
120.7496515380703
 30
0.0
 70
     8
  0
VERTEX
  5
189
330
176
100
AcDbEntity
  8
BEMASSUNG
100
AcDbVertex
100
AcDb2dVertex
 10
110.5232588775365
 20
120.7657764888796
 30
0.0
 70
     8
  0
VERTEX
  5
18A
330
176
100
AcDbEntity
  8
BEMASSUNG
100
AcDbVertex
100
AcDb2dVertex
 10
110.5965079894499
 20
120.7891929085121
 30
0.0
 70
     8
  0
VERTEX
  5
18B
330
176
100
AcDbEntity
  8
BEMASSUNG
100
AcDbVertex
100
AcDb2dVertex
 10
110.668978738285
 20
120.8172156728553
 30
0.0
 70
     8
  0
VERTEX
  5
18C
330
176
100
AcDbEntity
  8
BEMASSUNG
100
AcDbVertex
100
AcDb2dVertex
 10
110.7401317077687
 20
120.8471596577963
 30
0.0
 70
     8
  0
VERTEX
  5
18D
330
176
100
AcDbEntity
  8
BEMASSUNG
100
AcDbVertex
100
AcDb2dVertex
 10
110.8094274816275
 20
120.8763397392228
 30
0.0
 70
     8
  0
VERTEX
  5
18E
330
176
100
AcDbEntity
  8
BEMASSUNG
100
AcDbVertex
100
AcDb2dVertex
 10
110.8763266435882
 20
120.902070793022
 30
0.0
 70
     8
  0
VERTEX
  5
18F
330
176
100
AcDbEntity
  8
BEMASSUNG
100
AcDbVertex
100
AcDb2dVertex
 10
110.9402897773773
 20
120.9216676950813
 30
0.0
 70
     8
  0
VERTEX
  5
190
330
176
100
AcDbEntity
  8
BEMASSUNG
100
AcDbVertex
100
AcDb2dVertex
 10
111.0007774667217
 20
120.932445321288
 30
0.0
 70
     8
  0
VERTEX
  5
191
330
176
100
AcDbEntity
  8
BEMASSUNG
100
AcDbVertex
100
AcDb2dVertex
 10
111.0575546745387
 20
120.9326621640705
 30
0.0
 70
     8
  0
VERTEX
  5
192
330
176
100
AcDbEntity
  8
BEMASSUNG
100
AcDbVertex
100
AcDb2dVertex
 10
111.1116038805107
 20
120.9243511820211
 30
0.0
 70
     8
  0
VERTEX
  5
193
330
176
100
AcDbEntity
  8
BEMASSUNG
100
AcDbVertex
100
AcDb2dVertex
 10
111.1642119435104
 20
120.9104889502728
 30
0.0
 70
     8
  0
VERTEX
  5
194
330
176
100
AcDbEntity
  8
BEMASSUNG
100
AcDbVertex
100
AcDb2dVertex
 10
111.2166657224109
 20
120.8940520439587
 30
0.0
 70
     8
  0
VERTEX
  5
195
330
176
100
AcDbEntity
  8
BEMASSUNG
100
AcDbVertex
100
AcDb2dVertex
 10
111.270252076085
 20
120.8780170382119
 30
0.0
 70
     8
  0
VERTEX
  5
196
330
176
100
AcDbEntity
  8
BEMASSUNG
100
AcDbVertex
100
AcDb2dVertex
 10
111.3262578634058
 20
120.8653605081657
 30
0.0
 70
     8
  0
VERTEX
  5
197
330
176
100
AcDbEntity
  8
BEMASSUNG
100
AcDbVertex
100
AcDb2dVertex
 10
111.3859699432463
 20
120.8590590289532
 30
0.0
 70
     8
  0
VERTEX
  5
198
330
176
100
AcDbEntity
  8
BEMASSUNG
100
AcDbVertex
100
AcDb2dVertex
 10
111.4506751744794
 20
120.8620891757074
 30
0.0
 70
     8
  0
VERTEX
  5
199
330
176
100
AcDbEntity
  8
BEMASSUNG
100
AcDbVertex
100
AcDb2dVertex
 10
111.5219418071343
 20
120.8755989623237
 30
0.0
 70
     8
  0
VERTEX
  5
19A
330
176
100
AcDbEntity
  8
BEMASSUNG
100
AcDbVertex
100
AcDb2dVertex
 10
111.6024636558642
 20
120.8934221577461
 30
0.0
 70
     8
  0
VERTEX
  5
19B
330
176
100
AcDbEntity
  8
BEMASSUNG
100
AcDbVertex
100
AcDb2dVertex
 10
111.6952159264789
 20
120.9075639696808
 30
0.0
 70
     8
  0
VERTEX
  5
19C
330
176
100
AcDbEntity
  8
BEMASSUNG
100
AcDbVertex
100
AcDb2dVertex
 10
111.8031738247876
 20
120.9100296058339
 30
0.0
 70
     8
  0
VERTEX
  5
19D
330
176
100
AcDbEntity
  8
BEMASSUNG
100
AcDbVertex
100
AcDb2dVertex
 10
111.9293125566
 20
120.8928242739117
 30
0.0
 70
     8
  0
VERTEX
  5
19E
330
176
100
AcDbEntity
  8
BEMASSUNG
100
AcDbVertex
100
AcDb2dVertex
 10
112.0766073277255
 20
120.8479531816203
 30
0.0
 70
     8
  0
VERTEX
  5
19F
330
176
100
AcDbEntity
  8
BEMASSUNG
100
AcDbVertex
100
AcDb2dVertex
 10
112.2480333439738
 20
120.7674215366658
 30
0.0
 70
     8
  0
VERTEX
  5
1A0
330
176
100
AcDbEntity
  8
BEMASSUNG
100
AcDbVertex
100
AcDb2dVertex
 10
112.4465658111542
 20
120.6432345467546
 30
0.0
 70
     8
  0
VERTEX
  5
1A1
330
176
100
AcDbEntity
  8
BEMASSUNG
100
AcDbVertex
100
AcDb2dVertex
 10
109.6059646763353
 20
121.225060262262
 30
0.0
 70
    16
  0
VERTEX
  5
1A2
330
176
100
AcDbEntity
  8
BEMASSUNG
100
AcDbVertex
100
AcDb2dVertex
 10
109.8687590205779
 20
120.8698121204869
 30
0.0
 70
    16
  0
VERTEX
  5
1A3
330
176
100
AcDbEntity
  8
BEMASSUNG
100
AcDbVertex
100
AcDb2dVertex
 10
110.4465658111542
 20
120.6432345467546
 30
0.0
 70
    16
  0
VERTEX
  5
1A4
330
176
100
AcDbEntity
  8
BEMASSUNG
100
AcDbVertex
100
AcDb2dVertex
 10
111.0436026477157
 20
121.0551589209162
 30
0.0
 70
    16
  0
VERTEX
  5
1A5
330
176
100
AcDbEntity
  8
BEMASSUNG
100
AcDbVertex
100
AcDb2dVertex
 10
111.3836883983128
 20
120.7308016973084
 30
0.0
 70
    16
  0
VERTEX
  5
1A6
330
176
100
AcDbEntity
  8
BEMASSUNG
100
AcDbVertex
100
AcDb2dVertex
 10
111.8783593367107
 20
121.0397134618327
 30
0.0
 70
    16
  0
VERTEX
  5
1A7
330
176
100
AcDbEntity
  8
BEMASSUNG
100
AcDbVertex
100
AcDb2dVertex
 10
112.4465658111542
 20
120.6432345467546
 30
0.0
 70
    16
  0
SEQEND
  5
1A8
330
176
100
AcDbEntity
  8
BEMASSUNG
  0
LINE
  5
1A9
102
{ACAD_REACTORS
330
14C
102
}
330
2
100
AcDbEntity
  8
UMRISS05
100
AcDbLine
 10
108.4465658111542
 20
137.2823031830664
 30
0.0
 11
104.9465658111539
 21
137.2823031830664
 31
0.0
  0
LINE
  5
1AA
102
{ACAD_REACTORS
330
14C
102
}
330
2
100
AcDbEntity
  8
UMRISS05
100
AcDbLine
 10
108.4465658111542
 20
136.2823031830664
 30
0.0
 11
104.9465658111539
 21
136.2823031830664
 31
0.0
  0
LINE
  5
1AB
102
{ACAD_REACTORS
330
14C
102
}
330
2
100
AcDbEntity
  8
UMRISS05
100
AcDbLine
 10
104.9465658111539
 20
133.9823031830662
 30
0.0
 11
104.9465658111539
 21
136.2823031830664
 31
0.0
  0
ARC
  5
1AC
102
{ACAD_REACTORS
330
14C
102
}
330
2
100
AcDbEntity
  8
UMRISS05
100
AcDbCircle
 10
104.2465658111541
 20
133.9823031830661
 30
0.0
 40
0.7
100
AcDbArc
 50
270.0
 51
0.0
  0
ARC
  5
1AD
102
{ACAD_REACTORS
330
14C
102
}
330
2
100
AcDbEntity
  8
UMRISS05
100
AcDbCircle
 10
104.2465658111541
 20
139.5823031830661
 30
0.0
 40
0.7
100
AcDbArc
 50
0.0
 51
90.0
  0
LINE
  5
1AE
102
{ACAD_REACTORS
330
14C
102
}
330
2
100
AcDbEntity
  8
UMRISS05
100
AcDbLine
 10
104.9465658111539
 20
137.2823031830664
 30
0.0
 11
104.9465658111539
 21
139.5823031830661
 31
0.0
  0
ARC
  5
1AF
102
{ACAD_REACTORS
330
14C
102
}
330
2
100
AcDbEntity
  8
UMRISS05
100
AcDbCircle
 10
116.646565811154
 20
133.9823031830661
 30
0.0
 40
0.7
100
AcDbArc
 50
180.0
 51
270.0
  0
ARC
  5
1B0
102
{ACAD_REACTORS
330
14C
102
}
330
2
100
AcDbEntity
  8
UMRISS05
100
AcDbCircle
 10
116.646565811154
 20
139.5823031830661
 30
0.0
 40
0.7
100
AcDbArc
 50
90.0
 51
180.0
  0
LINE
  5
1B1
102
{ACAD_REACTORS
330
14C
102
}
330
2
100
AcDbEntity
  8
UMRISS05
100
AcDbLine
 10
115.9465658111542
 20
133.9823031830662
 30
0.0
 11
115.9465658111542
 21
136.2823031830664
 31
0.0
  0
LINE
  5
1B2
102
{ACAD_REACTORS
330
14C
102
}
330
2
100
AcDbEntity
  8
UMRISS05
100
AcDbLine
 10
115.9465658111542
 20
137.2823031830664
 30
0.0
 11
112.4465658111542
 21
137.2823031830664
 31
0.0
  0
LINE
  5
1B3
102
{ACAD_REACTORS
330
14C
102
}
330
2
100
AcDbEntity
  8
UMRISS05
100
AcDbLine
 10
115.9465658111542
 20
136.2823031830664
 30
0.0
 11
112.4465658111542
 21
136.2823031830664
 31
0.0
  0
LINE
  5
1B4
102
{ACAD_REACTORS
330
14C
102
}
330
2
100
AcDbEntity
  8
UMRISS05
100
AcDbLine
 10
115.9465658111542
 20
137.2823031830664
 30
0.0
 11
115.9465658111542
 21
139.5823031830661
 31
0.0
  0
LINE
  5
1B5
102
{ACAD_REACTORS
330
14C
102
}
330
2
100
AcDbEntity
  8
UMRISS05
100
AcDbLine
 10
119.4465658111542
 20
135.5323031830664
 30
0.0
 11
119.4465658111542
 21
138.0323031830664
 31
0.0
  0
LINE
  5
1B6
330
2
100
AcDbEntity
  8
UMRISS05
100
AcDbLine
 10
119.9465658111542
 20
135.5323031830664
 30
0.0
 11
119.9465658111542
 21
138.0323031830664
 31
0.0
  0
POLYLINE
  5
1B7
330
2
100
AcDbEntity
  8
BEMASSUNG
100
AcDb2dPolyline
 66
     1
 10
0.0
 20
0.0
 30
0.0
 70
     4
 75
     6
  0
VERTEX
  5
1B8
330
1B7
100
AcDbEntity
  8
BEMASSUNG
100
AcDbVertex
100
AcDb2dVertex
 10
108.4465658111542
 20
141.3307476957971
 30
0.0
 70
    16
  0
VERTEX
  5
1B9
330
1B7
100
AcDbEntity
  8
BEMASSUNG
100
AcDbVertex
100
AcDb2dVertex
 10
108.4465658111542
 20
141.3307476957971
 30
0.0
 70
     8
  0
VERTEX
  5
1BA
330
1B7
100
AcDbEntity
  8
BEMASSUNG
100
AcDbVertex
100
AcDb2dVertex
 10
108.8352203926387
 20
141.5149161360253
 30
0.0
 70
     8
  0
VERTEX
  5
1BB
330
1B7
100
AcDbEntity
  8
BEMASSUNG
100
AcDbVertex
100
AcDb2dVertex
 10
109.1399053338219
 20
141.6373841926799
 30
0.0
 70
     8
  0
VERTEX
  5
1BC
330
1B7
100
AcDbEntity
  8
BEMASSUNG
100
AcDbVertex
100
AcDb2dVertex
 10
109.3730261531268
 20
141.7076498996619
 30
0.0
 70
     8
  0
VERTEX
  5
1BD
330
1B7
100
AcDbEntity
  8
BEMASSUNG
100
AcDbVertex
100
AcDb2dVertex
 10
109.5469883689762
 20
141.7352112908724
 30
0.0
 70
     8
  0
VERTEX
  5
1BE
330
1B7
100
AcDbEntity
  8
BEMASSUNG
100
AcDbVertex
100
AcDb2dVertex
 10
109.6741974997933
 20
141.7295664002122
 30
0.0
 70
     8
  0
VERTEX
  5
1BF
330
1B7
100
AcDbEntity
  8
BEMASSUNG
100
AcDbVertex
100
AcDb2dVertex
 10
109.767059064001
 20
141.7002132615824
 30
0.0
 70
     8
  0
VERTEX
  5
1C0
330
1B7
100
AcDbEntity
  8
BEMASSUNG
100
AcDbVertex
100
AcDb2dVertex
 10
109.8379785800222
 20
141.656649908884
 30
0.0
 70
     8
  0
VERTEX
  5
1C1
330
1B7
100
AcDbEntity
  8
BEMASSUNG
100
AcDbVertex
100
AcDb2dVertex
 10
109.89936156628
 20
141.6083743760178
 30
0.0
 70
     8
  0
VERTEX
  5
1C2
330
1B7
100
AcDbEntity
  8
BEMASSUNG
100
AcDbVertex
100
AcDb2dVertex
 10
109.961492443977
 20
141.5634098316348
 30
0.0
 70
     8
  0
VERTEX
  5
1C3
330
1B7
100
AcDbEntity
  8
BEMASSUNG
100
AcDbVertex
100
AcDb2dVertex
 10
110.0261712454348
 20
141.5238799833855
 30
0.0
 70
     8
  0
VERTEX
  5
1C4
330
1B7
100
AcDbEntity
  8
BEMASSUNG
100
AcDbVertex
100
AcDb2dVertex
 10
110.0930769057543
 20
141.49043367367
 30
0.0
 70
     8
  0
VERTEX
  5
1C5
330
1B7
100
AcDbEntity
  8
BEMASSUNG
100
AcDbVertex
100
AcDb2dVertex
 10
110.1618883600368
 20
141.4637197448888
 30
0.0
 70
     8
  0
VERTEX
  5
1C6
330
1B7
100
AcDbEntity
  8
BEMASSUNG
100
AcDbVertex
100
AcDb2dVertex
 10
110.2322845433833
 20
141.4443870394421
 30
0.0
 70
     8
  0
VERTEX
  5
1C7
330
1B7
100
AcDbEntity
  8
BEMASSUNG
100
AcDbVertex
100
AcDb2dVertex
 10
110.303944390895
 20
141.4330843997304
 30
0.0
 70
     8
  0
VERTEX
  5
1C8
330
1B7
100
AcDbEntity
  8
BEMASSUNG
100
AcDbVertex
100
AcDb2dVertex
 10
110.376546837673
 20
141.4304606681538
 30
0.0
 70
     8
  0
VERTEX
  5
1C9
330
1B7
100
AcDbEntity
  8
BEMASSUNG
100
AcDbVertex
100
AcDb2dVertex
 10
110.4497708188183
 20
141.4371646871128
 30
0.0
 70
     8
  0
VERTEX
  5
1CA
330
1B7
100
AcDbEntity
  8
BEMASSUNG
100
AcDbVertex
100
AcDb2dVertex
 10
110.5232588775365
 20
141.4532896379221
 30
0.0
 70
     8
  0
VERTEX
  5
1CB
330
1B7
100
AcDbEntity
  8
BEMASSUNG
100
AcDbVertex
100
AcDb2dVertex
 10
110.5965079894498
 20
141.4767060575547
 30
0.0
 70
     8
  0
VERTEX
  5
1CC
330
1B7
100
AcDbEntity
  8
BEMASSUNG
100
AcDbVertex
100
AcDb2dVertex
 10
110.668978738285
 20
141.5047288218978
 30
0.0
 70
     8
  0
VERTEX
  5
1CD
330
1B7
100
AcDbEntity
  8
BEMASSUNG
100
AcDbVertex
100
AcDb2dVertex
 10
110.7401317077687
 20
141.5346728068389
 30
0.0
 70
     8
  0
VERTEX
  5
1CE
330
1B7
100
AcDbEntity
  8
BEMASSUNG
100
AcDbVertex
100
AcDb2dVertex
 10
110.8094274816275
 20
141.5638528882653
 30
0.0
 70
     8
  0
VERTEX
  5
1CF
330
1B7
100
AcDbEntity
  8
BEMASSUNG
100
AcDbVertex
100
AcDb2dVertex
 10
110.8763266435882
 20
141.5895839420645
 30
0.0
 70
     8
  0
VERTEX
  5
1D0
330
1B7
100
AcDbEntity
  8
BEMASSUNG
100
AcDbVertex
100
AcDb2dVertex
 10
110.9402897773773
 20
141.6091808441238
 30
0.0
 70
     8
  0
VERTEX
  5
1D1
330
1B7
100
AcDbEntity
  8
BEMASSUNG
100
AcDbVertex
100
AcDb2dVertex
 10
111.0007774667216
 20
141.6199584703305
 30
0.0
 70
     8
  0
VERTEX
  5
1D2
330
1B7
100
AcDbEntity
  8
BEMASSUNG
100
AcDbVertex
100
AcDb2dVertex
 10
111.0575546745387
 20
141.6201753131131
 30
0.0
 70
     8
  0
VERTEX
  5
1D3
330
1B7
100
AcDbEntity
  8
BEMASSUNG
100
AcDbVertex
100
AcDb2dVertex
 10
111.1116038805107
 20
141.6118643310636
 30
0.0
 70
     8
  0
VERTEX
  5
1D4
330
1B7
100
AcDbEntity
  8
BEMASSUNG
100
AcDbVertex
100
AcDb2dVertex
 10
111.1642119435104
 20
141.5980020993153
 30
0.0
 70
     8
  0
VERTEX
  5
1D5
330
1B7
100
AcDbEntity
  8
BEMASSUNG
100
AcDbVertex
100
AcDb2dVertex
 10
111.2166657224108
 20
141.5815651930012
 30
0.0
 70
     8
  0
VERTEX
  5
1D6
330
1B7
100
AcDbEntity
  8
BEMASSUNG
100
AcDbVertex
100
AcDb2dVertex
 10
111.2702520760849
 20
141.5655301872544
 30
0.0
 70
     8
  0
VERTEX
  5
1D7
330
1B7
100
AcDbEntity
  8
BEMASSUNG
100
AcDbVertex
100
AcDb2dVertex
 10
111.3262578634057
 20
141.5528736572083
 30
0.0
 70
     8
  0
VERTEX
  5
1D8
330
1B7
100
AcDbEntity
  8
BEMASSUNG
100
AcDbVertex
100
AcDb2dVertex
 10
111.3859699432463
 20
141.5465721779957
 30
0.0
 70
     8
  0
VERTEX
  5
1D9
330
1B7
100
AcDbEntity
  8
BEMASSUNG
100
AcDbVertex
100
AcDb2dVertex
 10
111.4506751744794
 20
141.54960232475
 30
0.0
 70
     8
  0
VERTEX
  5
1DA
330
1B7
100
AcDbEntity
  8
BEMASSUNG
100
AcDbVertex
100
AcDb2dVertex
 10
111.5219418071343
 20
141.5631121113662
 30
0.0
 70
     8
  0
VERTEX
  5
1DB
330
1B7
100
AcDbEntity
  8
BEMASSUNG
100
AcDbVertex
100
AcDb2dVertex
 10
111.6024636558642
 20
141.5809353067886
 30
0.0
 70
     8
  0
VERTEX
  5
1DC
330
1B7
100
AcDbEntity
  8
BEMASSUNG
100
AcDbVertex
100
AcDb2dVertex
 10
111.6952159264788
 20
141.5950771187233
 30
0.0
 70
     8
  0
VERTEX
  5
1DD
330
1B7
100
AcDbEntity
  8
BEMASSUNG
100
AcDbVertex
100
AcDb2dVertex
 10
111.8031738247875
 20
141.5975427548764
 30
0.0
 70
     8
  0
VERTEX
  5
1DE
330
1B7
100
AcDbEntity
  8
BEMASSUNG
100
AcDbVertex
100
AcDb2dVertex
 10
111.9293125566
 20
141.5803374229542
 30
0.0
 70
     8
  0
VERTEX
  5
1DF
330
1B7
100
AcDbEntity
  8
BEMASSUNG
100
AcDbVertex
100
AcDb2dVertex
 10
112.0766073277255
 20
141.5354663306628
 30
0.0
 70
     8
  0
VERTEX
  5
1E0
330
1B7
100
AcDbEntity
  8
BEMASSUNG
100
AcDbVertex
100
AcDb2dVertex
 10
112.2480333439737
 20
141.4549346857084
 30
0.0
 70
     8
  0
VERTEX
  5
1E1
330
1B7
100
AcDbEntity
  8
BEMASSUNG
100
AcDbVertex
100
AcDb2dVertex
 10
112.4465658111542
 20
141.3307476957971
 30
0.0
 70
     8
  0
VERTEX
  5
1E2
330
1B7
100
AcDbEntity
  8
BEMASSUNG
100
AcDbVertex
100
AcDb2dVertex
 10
109.6059646763353
 20
141.9125734113045
 30
0.0
 70
    16
  0
VERTEX
  5
1E3
330
1B7
100
AcDbEntity
  8
BEMASSUNG
100
AcDbVertex
100
AcDb2dVertex
 10
109.8687590205779
 20
141.5573252695294
 30
0.0
 70
    16
  0
VERTEX
  5
1E4
330
1B7
100
AcDbEntity
  8
BEMASSUNG
100
AcDbVertex
100
AcDb2dVertex
 10
110.4465658111542
 20
141.3307476957971
 30
0.0
 70
    16
  0
VERTEX
  5
1E5
330
1B7
100
AcDbEntity
  8
BEMASSUNG
100
AcDbVertex
100
AcDb2dVertex
 10
111.0436026477157
 20
141.7426720699588
 30
0.0
 70
    16
  0
VERTEX
  5
1E6
330
1B7
100
AcDbEntity
  8
BEMASSUNG
100
AcDbVertex
100
AcDb2dVertex
 10
111.3836883983128
 20
141.4183148463509
 30
0.0
 70
    16
  0
VERTEX
  5
1E7
330
1B7
100
AcDbEntity
  8
BEMASSUNG
100
AcDbVertex
100
AcDb2dVertex
 10
111.8783593367107
 20
141.7272266108752
 30
0.0
 70
    16
  0
VERTEX
  5
1E8
330
1B7
100
AcDbEntity
  8
BEMASSUNG
100
AcDbVertex
100
AcDb2dVertex
 10
112.4465658111542
 20
141.3307476957971
 30
0.0
 70
    16
  0
SEQEND
  5
1E9
330
1B7
100
AcDbEntity
  8
BEMASSUNG
  0
LINE
  5
1EA
330
2
100
AcDbEntity
  8
UMRISS05
100
AcDbLine
 10
107.5445167150558
 20
152.0323031830664
 30
0.0
 11
107.5445167150558
 21
157.0323031830664
 31
0.0
  0
LINE
  5
1EB
330
2
100
AcDbEntity
  8
UMRISS05
100
AcDbLine
 10
106.0445167150558
 20
152.0323031830664
 30
0.0
 11
106.0445167150558
 21
157.0323031830664
 31
0.0
  0
LINE
  5
1EC
330
2
100
AcDbEntity
  8
UMRISS05
100
AcDbLine
 10
105.0445167150558
 20
152.0323031830664
 30
0.0
 11
107.5445167150558
 21
152.0323031830664
 31
0.0
  0
LINE
  5
1ED
330
2
100
AcDbEntity
  8
UMRISS05
100
AcDbLine
 10
106.044516715056
 20
153.5323031830664
 30
0.0
 11
107.5445167150558
 21
153.5323031830664
 31
0.0
  0
LINE
  5
1EE
330
2
100
AcDbEntity
  8
UMRISS05
100
AcDbLine
 10
107.5445167150562
 20
161.0323031830664
 30
0.0
 11
107.544516715056
 21
166.0323031830664
 31
0.0
  0
LINE
  5
1EF
330
2
100
AcDbEntity
  8
UMRISS05
100
AcDbLine
 10
106.044516715056
 20
161.0323031830664
 30
0.0
 11
106.044516715056
 21
166.0323031830664
 31
0.0
  0
LINE
  5
1F0
330
2
100
AcDbEntity
  8
UMRISS05
100
AcDbLine
 10
105.0445167150558
 20
157.0323031830664
 30
0.0
 11
107.5445167150558
 21
157.0323031830664
 31
0.0
  0
LINE
  5
1F1
330
2
100
AcDbEntity
  8
UMRISS05
100
AcDbLine
 10
105.0445167150556
 20
161.0323031830664
 30
0.0
 11
107.5445167150562
 21
161.0323031830664
 31
0.0
  0
LINE
  5
1F2
330
2
100
AcDbEntity
  8
UMRISS05
100
AcDbLine
 10
106.044516715056
 20
155.5323031830664
 30
0.0
 11
107.5445167150558
 21
155.5323031830664
 31
0.0
  0
LINE
  5
1F3
330
2
100
AcDbEntity
  8
UMRISS05
100
AcDbLine
 10
105.0445167150556
 20
166.0323031830664
 30
0.0
 11
107.544516715056
 21
166.0323031830664
 31
0.0
  0
LINE
  5
1F4
330
2
100
AcDbEntity
  8
UMRISS05
100
AcDbLine
 10
106.044516715056
 20
162.5323031830664
 30
0.0
 11
107.5445167150562
 21
162.5323031830664
 31
0.0
  0
LINE
  5
1F5
330
2
100
AcDbEntity
  8
UMRISS05
100
AcDbLine
 10
106.044516715056
 20
164.5323031830664
 30
0.0
 11
107.544516715056
 21
164.5323031830664
 31
0.0
  0
LINE
  5
1F6
330
2
100
AcDbEntity
  8
ACHSEN
100
AcDbLine
 10
131.4445167150561
 20
152.0323031830664
 30
0.0
 11
137.9445167150561
 21
152.0323031830664
 31
0.0
  0
LINE
  5
1F7
330
2
100
AcDbEntity
  8
ACHSEN
100
AcDbLine
 10
131.4445167150561
 20
166.0323031830664
 30
0.0
 11
137.9445167150561
 21
166.0323031830664
 31
0.0
  0
LINE
  5
1F8
102
{ACAD_REACTORS
330
14C
102
}
330
2
100
AcDbEntity
  8
UMRISS05
100
AcDbLine
 10
121.7465658111541
 20
133.9823031830662
 30
0.0
 11
121.7465658111541
 21
135.5323031830664
 31
0.0
  0
ARC
  5
1F9
102
{ACAD_REACTORS
330
14C
102
}
330
2
100
AcDbEntity
  8
UMRISS05
100
AcDbCircle
 10
121.0465658111541
 20
133.9823031830661
 30
0.0
 40
0.7
100
AcDbArc
 50
270.0
 51
0.0
  0
ARC
  5
1FA
102
{ACAD_REACTORS
330
14C
102
}
330
2
100
AcDbEntity
  8
UMRISS05
100
AcDbCircle
 10
121.0465658111541
 20
139.5823031830661
 30
0.0
 40
0.7
100
AcDbArc
 50
0.0
 51
90.0
  0
LINE
  5
1FB
102
{ACAD_REACTORS
330
14C
102
}
330
2
100
AcDbEntity
  8
UMRISS05
100
AcDbLine
 10
121.7465658111541
 20
138.0323031830664
 30
0.0
 11
121.7465658111541
 21
139.5823031830661
 31
0.0
  0
LINE
  5
1FC
102
{ACAD_REACTORS
330
6D
102
}
330
2
100
AcDbEntity
  8
UMRISS05
100
AcDbLine
 10
134.344516715056
 20
153.7323031830662
 30
0.0
 11
135.9445167150561
 21
155.3323031830661
 31
0.0
  0
LINE
  5
1FD
102
{ACAD_REACTORS
330
6D
102
}
330
2
100
AcDbEntity
  8
UMRISS05
100
AcDbLine
 10
134.344516715056
 20
150.3323031830661
 30
0.0
 11
135.9445167150561
 21
148.7323031830662
 31
0.0
  0
LINE
  5
1FE
330
2
100
AcDbEntity
  8
UMRISS05
100
AcDbLine
 10
134.344516715056
 20
153.7323031830662
 30
0.0
 11
134.344516715056
 21
150.3323031830661
 31
0.0
  0
LINE
  5
1FF
102
{ACAD_REACTORS
330
6D
102
}
330
2
100
AcDbEntity
  8
UMRISS05
100
AcDbLine
 10
134.344516715056
 20
150.3323031830661
 30
0.0
 11
133.4445167150561
 21
150.3323031830661
 31
0.0
  0
LINE
  5
200
102
{ACAD_REACTORS
330
6D
102
}
330
2
100
AcDbEntity
  8
UMRISS05
100
AcDbLine
 10
134.344516715056
 20
153.7323031830662
 30
0.0
 11
133.4445167150561
 21
153.7323031830662
 31
0.0
  0
LINE
  5
201
102
{ACAD_REACTORS
330
6D
102
}
330
2
100
AcDbEntity
  8
UMRISS05
100
AcDbLine
 10
134.344516715056
 20
164.3323031830661
 30
0.0
 11
135.9445167150561
 21
162.7323031830662
 31
0.0
  0
LINE
  5
202
330
2
100
AcDbEntity
  8
UMRISS05
100
AcDbLine
 10
134.344516715056
 20
167.7323031830662
 30
0.0
 11
134.344516715056
 21
164.3323031830661
 31
0.0
  0
LINE
  5
203
102
{ACAD_REACTORS
330
6D
102
}
330
2
100
AcDbEntity
  8
UMRISS05
100
AcDbLine
 10
134.344516715056
 20
164.3323031830661
 30
0.0
 11
133.4445167150561
 21
164.3323031830661
 31
0.0
  0
LINE
  5
204
102
{ACAD_REACTORS
330
6D
102
}
330
2
100
AcDbEntity
  8
UMRISS05
100
AcDbLine
 10
134.344516715056
 20
167.7323031830662
 30
0.0
 11
133.4445167150561
 21
167.7323031830662
 31
0.0
  0
LINE
  5
205
330
2
100
AcDbEntity
  8
UMRISS05
100
AcDbLine
 10
151.4465658111535
 20
140.0323031830664
 30
0.0
 11
151.4465658111535
 21
155.0323031830664
 31
0.0
  0
LINE
  5
206
330
2
100
AcDbEntity
  8
UMRISS05
100
AcDbLine
 10
147.4465658111535
 20
140.0323031830664
 30
0.0
 11
147.4465658111535
 21
155.0323031830664
 31
0.0
  0
LINE
  5
207
330
2
100
AcDbEntity
  8
UMRISS05
100
AcDbLine
 10
153.4465658111533
 20
140.0323031830664
 30
0.0
 11
153.4465658111533
 21
155.0323031830664
 31
0.0
  0
LINE
  5
208
330
2
100
AcDbEntity
  8
UMRISS05
100
AcDbLine
 10
145.4465658111535
 20
140.0323031830664
 30
0.0
 11
153.4465658111533
 21
140.0323031830664
 31
0.0
  0
LINE
  5
209
330
2
100
AcDbEntity
  8
UMRISS05
100
AcDbLine
 10
145.4465658111537
 20
155.0323031830664
 30
0.0
 11
153.4465658111533
 21
155.0323031830664
 31
0.0
  0
LINE
  5
20A
330
2
100
AcDbEntity
  8
UMRISS05
100
AcDbLine
 10
158.4587591199738
 20
135.5323031830664
 30
0.0
 11
158.458759119974
 21
138.0323031830664
 31
0.0
  0
LINE
  5
20B
330
2
100
AcDbEntity
  8
UMRISS05
100
AcDbLine
 10
158.4587591199738
 20
135.5323031830664
 30
0.0
 11
158.4587591199738
 21
138.0323031830664
 31
0.0
  0
INSERT
  5
20C
330
2
100
AcDbEntity
  8
SCHRAFFUR
100
AcDbBlockReference
  2
*X2
 10
1985.763086041542
 20
-332.1564324559614
 30
0.0
 50
90.0
1001
ACAD
1000
HATCH
1002
{
1070
    16
1000
ANSI31,I
1040
10.0
1040
0.0
1002
}
  0
LINE
  5
224
330
2
100
AcDbEntity
  8
UMRISS05
100
AcDbLine
 10
160.4465658111537
 20
260.0323031830664
 30
0.0
 11
152.4465658111535
 21
260.0323031830664
 31
0.0
  0
LINE
  5
225
330
2
100
AcDbEntity
  8
UMRISS05
100
AcDbLine
 10
152.4465658111535
 20
273.0323031830664
 30
0.0
 11
156.4465658111539
 21
273.0323031830664
 31
0.0
  0
LINE
  5
226
330
2
100
AcDbEntity
  8
UMRISS05
100
AcDbLine
 10
156.4465658111537
 20
282.5323031830664
 30
0.0
 11
143.4561847543871
 21
290.0323031830664
 31
0.0
  0
LINE
  5
227
330
2
100
AcDbEntity
  8
BEMASSUNG
100
AcDbLine
 10
146.9465658111533
 20
265.0323031830664
 30
0.0
 11
146.9465658111537
 21
280.5323031830664
 31
0.0
  0
LINE
  5
228
330
2
100
AcDbEntity
  8
BEMASSUNG
100
AcDbLine
 10
151.9465658111533
 20
265.0323031830664
 30
0.0
 11
151.9465658111533
 21
280.5323031830664
 31
0.0
  0
POLYLINE
  5
229
330
2
100
AcDbEntity
  8
BEMASSUNG
100
AcDb2dPolyline
 66
     1
 10
0.0
 20
0.0
 30
0.0
 70
     4
 75
     6
  0
VERTEX
  5
22A
330
229
100
AcDbEntity
  8
BEMASSUNG
100
AcDbVertex
100
AcDb2dVertex
 10
140.7807404620546
 20
273.0323031830664
 30
0.0
 70
    16
  0
VERTEX
  5
22B
330
229
100
AcDbEntity
  8
BEMASSUNG
100
AcDbVertex
100
AcDb2dVertex
 10
140.7807404620546
 20
273.0323031830664
 30
0.0
 70
     8
  0
VERTEX
  5
22C
330
229
100
AcDbEntity
  8
BEMASSUNG
100
AcDbVertex
100
AcDb2dVertex
 10
140.9521200379693
 20
273.6159427982726
 30
0.0
 70
     8
  0
VERTEX
  5
22D
330
229
100
AcDbEntity
  8
BEMASSUNG
100
AcDbVertex
100
AcDb2dVertex
 10
141.0668416041965
 20
274.1341195342626
 30
0.0
 70
     8
  0
VERTEX
  5
22E
330
229
100
AcDbEntity
  8
BEMASSUNG
100
AcDbVertex
100
AcDb2dVertex
 10
141.134696346741
 20
274.593883644042
 30
0.0
 70
     8
  0
VERTEX
  5
22F
330
229
100
AcDbEntity
  8
BEMASSUNG
100
AcDbVertex
100
AcDb2dVertex
 10
141.165475451608
 20
275.0022853806159
 30
0.0
 70
     8
  0
VERTEX
  5
230
330
229
100
AcDbEntity
  8
BEMASSUNG
100
AcDbVertex
100
AcDb2dVertex
 10
141.1689701048028
 20
275.3663749969907
 30
0.0
 70
     8
  0
VERTEX
  5
231
330
229
100
AcDbEntity
  8
BEMASSUNG
100
AcDbVertex
100
AcDb2dVertex
 10
141.1549714923301
 20
275.6932027461713
 30
0.0
 70
     8
  0
VERTEX
  5
232
330
229
100
AcDbEntity
  8
BEMASSUNG
100
AcDbVertex
100
AcDb2dVertex
 10
141.1332708001953
 20
275.9898188811636
 30
0.0
 70
     8
  0
VERTEX
  5
233
330
229
100
AcDbEntity
  8
BEMASSUNG
100
AcDbVertex
100
AcDb2dVertex
 10
141.1136592144034
 20
276.2632736549737
 30
0.0
 70
     8
  0
VERTEX
  5
234
330
229
100
AcDbEntity
  8
BEMASSUNG
100
AcDbVertex
100
AcDb2dVertex
 10
141.103771676778
 20
276.5196352736376
 30
0.0
 70
     8
  0
VERTEX
  5
235
330
229
100
AcDbEntity
  8
BEMASSUNG
100
AcDbVertex
100
AcDb2dVertex
 10
141.1026181524164
 20
276.7610437553218
 30
0.0
 70
     8
  0
VERTEX
  5
236
330
229
100
AcDbEntity
  8
BEMASSUNG
100
AcDbVertex
100
AcDb2dVertex
 10
141.1070523622354
 20
276.9886570712225
 30
0.0
 70
     8
  0
VERTEX
  5
237
330
229
100
AcDbEntity
  8
BEMASSUNG
100
AcDbVertex
100
AcDb2dVertex
 10
141.1139280271506
 20
277.2036331925366
 30
0.0
 70
     8
  0
VERTEX
  5
238
330
229
100
AcDbEntity
  8
BEMASSUNG
100
AcDbVertex
100
AcDb2dVertex
 10
141.1200988680784
 20
277.4071300904612
 30
0.0
 70
     8
  0
VERTEX
  5
239
330
229
100
AcDbEntity
  8
BEMASSUNG
100
AcDbVertex
100
AcDb2dVertex
 10
141.1224186059348
 20
277.6003057361933
 30
0.0
 70
     8
  0
VERTEX
  5
23A
330
229
100
AcDbEntity
  8
BEMASSUNG
100
AcDbVertex
100
AcDb2dVertex
 10
141.1177409616364
 20
277.7843181009294
 30
0.0
 70
     8
  0
VERTEX
  5
23B
330
229
100
AcDbEntity
  8
BEMASSUNG
100
AcDbVertex
100
AcDb2dVertex
 10
141.1029196560989
 20
277.9603251558666
 30
0.0
 70
     8
  0
VERTEX
  5
23C
330
229
100
AcDbEntity
  8
BEMASSUNG
100
AcDbVertex
100
AcDb2dVertex
 10
141.0758781477411
 20
278.1296443121842
 30
0.0
 70
     8
  0
VERTEX
  5
23D
330
229
100
AcDbEntity
  8
BEMASSUNG
100
AcDbVertex
100
AcDb2dVertex
 10
141.0388188449912
 20
278.29423074099
 30
0.0
 70
     8
  0
VERTEX
  5
23E
330
229
100
AcDbEntity
  8
BEMASSUNG
100
AcDbVertex
100
AcDb2dVertex
 10
140.9950138937804
 20
278.456199053374
 30
0.0
 70
     8
  0
VERTEX
  5
23F
330
229
100
AcDbEntity
  8
BEMASSUNG
100
AcDbVertex
100
AcDb2dVertex
 10
140.9477354400387
 20
278.6176638604262
 30
0.0
 70
     8
  0
VERTEX
  5
240
330
229
100
AcDbEntity
  8
BEMASSUNG
100
AcDbVertex
100
AcDb2dVertex
 10
140.9002556296973
 20
278.7807397732373
 30
0.0
 70
     8
  0
VERTEX
  5
241
330
229
100
AcDbEntity
  8
BEMASSUNG
100
AcDbVertex
100
AcDb2dVertex
 10
140.855846608687
 20
278.9475414028967
 30
0.0
 70
     8
  0
VERTEX
  5
242
330
229
100
AcDbEntity
  8
BEMASSUNG
100
AcDbVertex
100
AcDb2dVertex
 10
140.8177805229381
 20
279.1201833604952
 30
0.0
 70
     8
  0
VERTEX
  5
243
330
229
100
AcDbEntity
  8
BEMASSUNG
100
AcDbVertex
100
AcDb2dVertex
 10
140.7893295183819
 20
279.300780257122
 30
0.0
 70
     8
  0
VERTEX
  5
244
330
229
100
AcDbEntity
  8
BEMASSUNG
100
AcDbVertex
100
AcDb2dVertex
 10
140.7726834154969
 20
279.4906830960646
 30
0.0
 70
     8
  0
VERTEX
  5
245
330
229
100
AcDbEntity
  8
BEMASSUNG
100
AcDbVertex
100
AcDb2dVertex
 10
140.7657027329544
 20
279.6881884493942
 30
0.0
 70
     8
  0
VERTEX
  5
246
330
229
100
AcDbEntity
  8
BEMASSUNG
100
AcDbVertex
100
AcDb2dVertex
 10
140.7651656639734
 20
279.8908292813791
 30
0.0
 70
     8
  0
VERTEX
  5
247
330
229
100
AcDbEntity
  8
BEMASSUNG
100
AcDbVertex
100
AcDb2dVertex
 10
140.7678504017731
 20
280.0961385562879
 30
0.0
 70
     8
  0
VERTEX
  5
248
330
229
100
AcDbEntity
  8
BEMASSUNG
100
AcDbVertex
100
AcDb2dVertex
 10
140.7705351395727
 20
280.3016492383882
 30
0.0
 70
     8
  0
VERTEX
  5
249
330
229
100
AcDbEntity
  8
BEMASSUNG
100
AcDbVertex
100
AcDb2dVertex
 10
140.7699980705918
 20
280.504894291949
 30
0.0
 70
     8
  0
VERTEX
  5
24A
330
229
100
AcDbEntity
  8
BEMASSUNG
100
AcDbVertex
100
AcDb2dVertex
 10
140.7630173880493
 20
280.7034066812377
 30
0.0
 70
     8
  0
VERTEX
  5
24B
330
229
100
AcDbEntity
  8
BEMASSUNG
100
AcDbVertex
100
AcDb2dVertex
 10
140.7463712851643
 20
280.8947193705232
 30
0.0
 70
     8
  0
VERTEX
  5
24C
330
229
100
AcDbEntity
  8
BEMASSUNG
100
AcDbVertex
100
AcDb2dVertex
 10
140.7179286725743
 20
281.0770869741533
 30
0.0
 70
     8
  0
VERTEX
  5
24D
330
229
100
AcDbEntity
  8
BEMASSUNG
100
AcDbVertex
100
AcDb2dVertex
 10
140.6799213305899
 20
281.2516507067964
 30
0.0
 70
     8
  0
VERTEX
  5
24E
330
229
100
AcDbEntity
  8
BEMASSUNG
100
AcDbVertex
100
AcDb2dVertex
 10
140.6356717569397
 20
281.4202734332013
 30
0.0
 70
     8
  0
VERTEX
  5
24F
330
229
100
AcDbEntity
  8
BEMASSUNG
100
AcDbVertex
100
AcDb2dVertex
 10
140.5885024493525
 20
281.5848180181152
 30
0.0
 70
     8
  0
VERTEX
  5
250
330
229
100
AcDbEntity
  8
BEMASSUNG
100
AcDbVertex
100
AcDb2dVertex
 10
140.541735905557
 20
281.7471473262878
 30
0.0
 70
     8
  0
VERTEX
  5
251
330
229
100
AcDbEntity
  8
BEMASSUNG
100
AcDbVertex
100
AcDb2dVertex
 10
140.4986946232818
 20
281.9091242224664
 30
0.0
 70
     8
  0
VERTEX
  5
252
330
229
100
AcDbEntity
  8
BEMASSUNG
100
AcDbVertex
100
AcDb2dVertex
 10
140.4627011002558
 20
282.0726115713998
 30
0.0
 70
     8
  0
VERTEX
  5
253
330
229
100
AcDbEntity
  8
BEMASSUNG
100
AcDbVertex
100
AcDb2dVertex
 10
140.4370778342077
 20
282.2394722378364
 30
0.0
 70
     8
  0
VERTEX
  5
254
330
229
100
AcDbEntity
  8
BEMASSUNG
100
AcDbVertex
100
AcDb2dVertex
 10
140.423855238308
 20
282.411023652981
 30
0.0
 70
     8
  0
VERTEX
  5
255
330
229
100
AcDbEntity
  8
BEMASSUNG
100
AcDbVertex
100
AcDb2dVertex
 10
140.4198953874952
 20
282.586401513866
 30
0.0
 70
     8
  0
VERTEX
  5
256
330
229
100
AcDbEntity
  8
BEMASSUNG
100
AcDbVertex
100
AcDb2dVertex
 10
140.4207682721496
 20
282.7641960839811
 30
0.0
 70
     8
  0
VERTEX
  5
257
330
229
100
AcDbEntity
  8
BEMASSUNG
100
AcDbVertex
100
AcDb2dVertex
 10
140.4220438826516
 20
282.9429976268153
 30
0.0
 70
     8
  0
VERTEX
  5
258
330
229
100
AcDbEntity
  8
BEMASSUNG
100
AcDbVertex
100
AcDb2dVertex
 10
140.4192922093819
 20
283.121396405858
 30
0.0
 70
     8
  0
VERTEX
  5
259
330
229
100
AcDbEntity
  8
BEMASSUNG
100
AcDbVertex
100
AcDb2dVertex
 10
140.40808324272
 20
283.2979826845982
 30
0.0
 70
     8
  0
VERTEX
  5
25A
330
229
100
AcDbEntity
  8
BEMASSUNG
100
AcDbVertex
100
AcDb2dVertex
 10
140.383986973047
 20
283.4713467265252
 30
0.0
 70
     8
  0
VERTEX
  5
25B
330
229
100
AcDbEntity
  8
BEMASSUNG
100
AcDbVertex
100
AcDb2dVertex
 10
140.3425733907431
 20
283.6400787951289
 30
0.0
 70
     8
  0
VERTEX
  5
25C
330
229
100
AcDbEntity
  8
BEMASSUNG
100
AcDbVertex
100
AcDb2dVertex
 10
140.2810066182942
 20
283.803314585333
 30
0.0
 70
     8
  0
VERTEX
  5
25D
330
229
100
AcDbEntity
  8
BEMASSUNG
100
AcDbVertex
100
AcDb2dVertex
 10
140.2028273066096
 20
283.9623715178028
 30
0.0
 70
     8
  0
VERTEX
  5
25E
330
229
100
AcDbEntity
  8
BEMASSUNG
100
AcDbVertex
100
AcDb2dVertex
 10
140.1131702387042
 20
284.1191124446383
 30
0.0
 70
     8
  0
VERTEX
  5
25F
330
229
100
AcDbEntity
  8
BEMASSUNG
100
AcDbVertex
100
AcDb2dVertex
 10
140.017170197593
 20
284.2754002179405
 30
0.0
 70
     8
  0
VERTEX
  5
260
330
229
100
AcDbEntity
  8
BEMASSUNG
100
AcDbVertex
100
AcDb2dVertex
 10
139.9199619662911
 20
284.4330976898096
 30
0.0
 70
     8
  0
VERTEX
  5
261
330
229
100
AcDbEntity
  8
BEMASSUNG
100
AcDbVertex
100
AcDb2dVertex
 10
139.8266803278131
 20
284.5940677123455
 30
0.0
 70
     8
  0
VERTEX
  5
262
330
229
100
AcDbEntity
  8
BEMASSUNG
100
AcDbVertex
100
AcDb2dVertex
 10
139.7424600651745
 20
284.7601731376486
 30
0.0
 70
     8
  0
VERTEX
  5
263
330
229
100
AcDbEntity
  8
BEMASSUNG
100
AcDbVertex
100
AcDb2dVertex
 10
139.6724359613897
 20
284.9332768178189
 30
0.0
 70
     8
  0
VERTEX
  5
264
330
229
100
AcDbEntity
  8
BEMASSUNG
100
AcDbVertex
100
AcDb2dVertex
 10
139.6201151058269
 20
285.1144360478621
 30
0.0
 70
     8
  0
VERTEX
  5
265
330
229
100
AcDbEntity
  8
BEMASSUNG
100
AcDbVertex
100
AcDb2dVertex
 10
139.5824938132657
 20
285.3014858944021
 30
0.0
 70
     8
  0
VERTEX
  5
266
330
229
100
AcDbEntity
  8
BEMASSUNG
100
AcDbVertex
100
AcDb2dVertex
 10
139.5549407048386
 20
285.4914558669672
 30
0.0
 70
     8
  0
VERTEX
  5
267
330
229
100
AcDbEntity
  8
BEMASSUNG
100
AcDbVertex
100
AcDb2dVertex
 10
139.532824401678
 20
285.6813754750861
 30
0.0
 70
     8
  0
VERTEX
  5
268
330
229
100
AcDbEntity
  8
BEMASSUNG
100
AcDbVertex
100
AcDb2dVertex
 10
139.5115135249166
 20
285.8682742282878
 30
0.0
 70
     8
  0
VERTEX
  5
269
330
229
100
AcDbEntity
  8
BEMASSUNG
100
AcDbVertex
100
AcDb2dVertex
 10
139.4863766956869
 20
286.049181636101
 30
0.0
 70
     8
  0
VERTEX
  5
26A
330
229
100
AcDbEntity
  8
BEMASSUNG
100
AcDbVertex
100
AcDb2dVertex
 10
139.4527825351213
 20
286.2211272080545
 30
0.0
 70
     8
  0
VERTEX
  5
26B
330
229
100
AcDbEntity
  8
BEMASSUNG
100
AcDbVertex
100
AcDb2dVertex
 10
139.4060996643527
 20
286.381140453677
 30
0.0
 70
     8
  0
VERTEX
  5
26C
330
229
100
AcDbEntity
  8
BEMASSUNG
100
AcDbVertex
100
AcDb2dVertex
 10
139.3433034256225
 20
286.5274172625242
 30
0.0
 70
     8
  0
VERTEX
  5
26D
330
229
100
AcDbEntity
  8
BEMASSUNG
100
AcDbVertex
100
AcDb2dVertex
 10
139.2677960456096
 20
286.6628190442613
 30
0.0
 70
     8
  0
VERTEX
  5
26E
330
229
100
AcDbEntity
  8
BEMASSUNG
100
AcDbVertex
100
AcDb2dVertex
 10
139.1845864721024
 20
286.7913735885805
 30
0.0
 70
     8
  0
VERTEX
  5
26F
330
229
100
AcDbEntity
  8
BEMASSUNG
100
AcDbVertex
100
AcDb2dVertex
 10
139.0986836528886
 20
286.9171086851744
 30
0.0
 70
     8
  0
VERTEX
  5
270
330
229
100
AcDbEntity
  8
BEMASSUNG
100
AcDbVertex
100
AcDb2dVertex
 10
139.0150965357568
 20
287.0440521237352
 30
0.0
 70
     8
  0
VERTEX
  5
271
330
229
100
AcDbEntity
  8
BEMASSUNG
100
AcDbVertex
100
AcDb2dVertex
 10
138.9388340684947
 20
287.1762316939554
 30
0.0
 70
     8
  0
VERTEX
  5
272
330
229
100
AcDbEntity
  8
BEMASSUNG
100
AcDbVertex
100
AcDb2dVertex
 10
138.8749051988907
 20
287.3176751855268
 30
0.0
 70
     8
  0
VERTEX
  5
273
330
229
100
AcDbEntity
  8
BEMASSUNG
100
AcDbVertex
100
AcDb2dVertex
 10
138.828318874733
 20
287.4724103881428
 30
0.0
 70
     8
  0
VERTEX
  5
274
330
229
100
AcDbEntity
  8
BEMASSUNG
100
AcDbVertex
100
AcDb2dVertex
 10
138.8008454299076
 20
287.6451685579265
 30
0.0
 70
     8
  0
VERTEX
  5
275
330
229
100
AcDbEntity
  8
BEMASSUNG
100
AcDbVertex
100
AcDb2dVertex
 10
138.7813007426959
 20
287.8434948167329
 30
0.0
 70
     8
  0
VERTEX
  5
276
330
229
100
AcDbEntity
  8
BEMASSUNG
100
AcDbVertex
100
AcDb2dVertex
 10
138.7552620774763
 20
288.0756377528479
 30
0.0
 70
     8
  0
VERTEX
  5
277
330
229
100
AcDbEntity
  8
BEMASSUNG
100
AcDbVertex
100
AcDb2dVertex
 10
138.7083066986285
 20
288.3498459545577
 30
0.0
 70
     8
  0
VERTEX
  5
278
330
229
100
AcDbEntity
  8
BEMASSUNG
100
AcDbVertex
100
AcDb2dVertex
 10
138.6260118705311
 20
288.6743680101482
 30
0.0
 70
     8
  0
VERTEX
  5
279
330
229
100
AcDbEntity
  8
BEMASSUNG
100
AcDbVertex
100
AcDb2dVertex
 10
138.4939548575632
 20
289.0574525079056
 30
0.0
 70
     8
  0
VERTEX
  5
27A
330
229
100
AcDbEntity
  8
BEMASSUNG
100
AcDbVertex
100
AcDb2dVertex
 10
138.2977129241044
 20
289.5073480361162
 30
0.0
 70
     8
  0
VERTEX
  5
27B
330
229
100
AcDbEntity
  8
BEMASSUNG
100
AcDbVertex
100
AcDb2dVertex
 10
138.0228633345332
 20
290.0323031830664
 30
0.0
 70
     8
  0
VERTEX
  5
27C
330
229
100
AcDbEntity
  8
BEMASSUNG
100
AcDbVertex
100
AcDb2dVertex
 10
141.3219999538596
 20
274.6822262207985
 30
0.0
 70
    16
  0
VERTEX
  5
27D
330
229
100
AcDbEntity
  8
BEMASSUNG
100
AcDbVertex
100
AcDb2dVertex
 10
140.9869360960256
 20
276.4351254755299
 30
0.0
 70
    16
  0
VERTEX
  5
27E
330
229
100
AcDbEntity
  8
BEMASSUNG
100
AcDbVertex
100
AcDb2dVertex
 10
141.2446790195417
 20
278.0333634342875
 30
0.0
 70
    16
  0
VERTEX
  5
27F
330
229
100
AcDbEntity
  8
BEMASSUNG
100
AcDbVertex
100
AcDb2dVertex
 10
140.6518657624012
 20
279.1933717225198
 30
0.0
 70
    16
  0
VERTEX
  5
280
330
229
100
AcDbEntity
  8
BEMASSUNG
100
AcDbVertex
100
AcDb2dVertex
 10
140.8838350411449
 20
280.9978312183663
 30
0.0
 70
    16
  0
VERTEX
  5
281
330
229
100
AcDbEntity
  8
BEMASSUNG
100
AcDbVertex
100
AcDb2dVertex
 10
140.2910217840044
 20
282.1836196271557
 30
0.0
 70
    16
  0
VERTEX
  5
282
330
229
100
AcDbEntity
  8
BEMASSUNG
100
AcDbVertex
100
AcDb2dVertex
 10
140.5745448280834
 20
283.7045237000308
 30
0.0
 70
    16
  0
VERTEX
  5
283
330
229
100
AcDbEntity
  8
BEMASSUNG
100
AcDbVertex
100
AcDb2dVertex
 10
139.4662392481204
 20
284.8387583434957
 30
0.0
 70
    16
  0
VERTEX
  5
284
330
229
100
AcDbEntity
  8
BEMASSUNG
100
AcDbVertex
100
AcDb2dVertex
 10
139.5951139477736
 20
286.5401038329025
 30
0.0
 70
    16
  0
VERTEX
  5
285
330
229
100
AcDbEntity
  8
BEMASSUNG
100
AcDbVertex
100
AcDb2dVertex
 10
138.589902946901
 20
287.2876690469563
 30
0.0
 70
    16
  0
VERTEX
  5
286
330
229
100
AcDbEntity
  8
BEMASSUNG
100
AcDbVertex
100
AcDb2dVertex
 10
138.8734259909799
 20
288.5250112210703
 30
0.0
 70
    16
  0
VERTEX
  5
287
330
229
100
AcDbEntity
  8
BEMASSUNG
100
AcDbVertex
100
AcDb2dVertex
 10
138.0228633345332
 20
290.0323031830664
 30
0.0
 70
    16
  0
SEQEND
  5
288
330
229
100
AcDbEntity
  8
BEMASSUNG
  0
LINE
  5
289
330
2
100
AcDbEntity
  8
UMRISS05
100
AcDbLine
 10
146.4465658111535
 20
280.0323031830664
 30
0.0
 11
146.4465658111535
 21
255.0323031830664
 31
0.0
  0
LINE
  5
28A
330
2
100
AcDbEntity
  8
UMRISS05
100
AcDbLine
 10
152.4465658111535
 20
280.0323031830664
 30
0.0
 11
152.4465658111535
 21
255.0323031830664
 31
0.0
  0
LINE
  5
28B
330
2
100
AcDbEntity
  8
UMRISS05
100
AcDbLine
 10
87.74451671505586
 20
202.0323031830664
 30
0.0
 11
133.344516715056
 21
202.0323031830664
 31
0.0
  0
LINE
  5
28C
330
2
100
AcDbEntity
  8
UMRISS05
100
AcDbLine
 10
87.74451671505586
 20
200.0323031830664
 30
0.0
 11
133.344516715056
 21
200.0323031830664
 31
0.0
  0
LWPOLYLINE
  5
28D
330
2
100
AcDbEntity
  8
UMRISS05
100
AcDbPolyline
 90
        6
 70
     0
 43
0.0
 10
105.4445167150563
 20
200.0323031830664
 42
0.857367505900363
 10
104.9918317579318
 20
197.1022415306913
 42
-0.6776526010782517
 10
105.1952990135039
 20
194.3233046899569
 42
4.341790110963015
 10
115.6937344166094
 20
194.323304689956
 42
-0.6776526010783074
 10
115.8972016721807
 20
197.1022415306913
 42
0.8573675059003727
 10
115.4445167150561
 20
200.0323031830664
 42
0.8573675059003727
  0
LINE
  5
28E
330
2
100
AcDbEntity
  8
UMRISS05
100
AcDbLine
 10
133.4445167150561
 20
272.0323031830664
 30
0.0
 11
87.44451671505681
 21
272.0323031830664
 31
0.0
  0
LWPOLYLINE
  5
28F
330
2
100
AcDbEntity
  8
BEMASSUNG
100
AcDbPolyline
 90
       35
 70
     0
 43
0.0
 10
87.44451671505613
 20
220.0216696140553
 10
89.73190903736464
 20
221.0475584439484
 42
-0.1259014800343444
 10
91.67993845048318
 20
221.4182799438351
 10
92.21504015386267
 20
221.3848312377956
 42
0.1640723263104284
 10
94.68360028896904
 20
222.0489782415231
 10
94.98343610587836
 20
222.2488961365081
 42
-0.1120019277141535
 10
96.63668106731371
 20
222.880621543665
 10
97.3495479286462
 20
222.9824744663667
 42
0.2229062515764444
 10
98.77004321979553
 20
223.9142730387295
 10
98.9833917846604
 20
224.2610101480033
 42
0.1316003774942718
 10
99.5750445776555
 20
226.2444051554787
 42
-0.1893892217961678
 10
100.7210699458587
 20
228.9358764402379
 42
0.12196742908037
 10
101.7000334265722
 20
230.5908916238233
 10
102.2824920549712
 20
232.5326802624224
 42
0.072984165130822
 10
102.4511445783394
 20
233.681930676086
 10
102.4511445783391
 20
235.8970298237179
 42
-0.1241020599598262
 10
102.9291496567825
 20
237.7932238466307
 10
103.089841153894
 20
238.0916925844946
 42
0.1620858162703676
 10
103.5236032927594
 20
240.5811707542736
 10
103.277324241988
 20
242.2232508588365
 42
0.0840851269202501
 10
102.8613452094153
 20
243.4927526668127
 10
101.8228121304657
 20
245.4662357524587
 42
-0.1217009312451236
 10
101.3625901583148
 20
247.329021707301
 10
101.3625901583148
 20
248.2507566026586
 42
0.1437978683595514
 10
100.7274383863784
 20
250.4135780012245
 10
100.2264170376586
 20
251.1930509612109
 42
0.2313904637143022
 10
98.72368347443103
 20
252.1035517323382
 42
-0.199109663626088
 10
96.01001090736032
 20
253.5268393484031
 10
95.89395439061059
 20
253.6661258097626
 42
0.255474200732931
 10
94.10932266892519
 20
254.3704094732122
 10
93.63424878564932
 20
254.3110166266999
 42
-0.1645896579473843
 10
91.12234341170823
 20
254.8251270567936
 10
91.07460404985886
 20
254.8529789347201
 42
0.1363991472790336
 10
89.00245175093459
 20
255.3975882734314
 10
87.44451671505613
 20
255.3755971152857
  0
LINE
  5
290
330
2
100
AcDbEntity
  8
UMRISS05
100
AcDbLine
 10
90.19451671505612
 20
221.2303614402669
 30
0.0
 11
90.19451671505612
 21
236.4823031830662
 31
0.0
  0
LINE
  5
291
330
2
100
AcDbEntity
  8
UMRISS05
100
AcDbLine
 10
88.19451671505566
 20
220.3580424412769
 30
0.0
 11
88.19451671505566
 21
236.4823031830662
 31
0.0
  0
LINE
  5
292
330
2
100
AcDbEntity
  8
UMRISS05
100
AcDbLine
 10
103.5445167150556
 20
168.5323031830664
 30
0.0
 11
105.0445167150556
 21
168.5323031830664
 31
0.0
  0
LINE
  5
293
330
2
100
AcDbEntity
  8
UMRISS05
100
AcDbLine
 10
87.54451671505581
 20
170.0323031830664
 30
0.0
 11
98.04451671505582
 21
170.0323031830664
 31
0.0
  0
LINE
  5
294
330
2
100
AcDbEntity
  8
AVERDECKT
100
AcDbLine
 10
103.5445167150558
 20
172.7144622798893
 30
0.0
 11
103.544516715056
 21
185.5385972746941
 31
0.0
  0
LINE
  5
299
330
2
100
AcDbEntity
  8
AVERDECKT
100
AcDbLine
 10
99.5445167150558
 20
177.5133391465285
 30
0.0
 11
99.5445167150558
 21
185.5385972746941
 31
0.0
  0
LINE
  5
29A
330
2
100
AcDbEntity
  8
UMRISS05
100
AcDbLine
 10
98.04451671505582
 20
168.5323031830664
 30
0.0
 11
99.5445167150558
 21
168.5323031830664
 31
0.0
  0
LINE
  5
29B
330
2
100
AcDbEntity
  8
AVERDECKT
100
AcDbLine
 10
99.5445167150558
 20
185.5385972746941
 30
0.0
 11
103.544516715056
 21
185.5385972746941
 31
0.0
  0
LINE
  5
29C
330
2
100
AcDbEntity
  8
ACHSEN
100
AcDbLine
 10
98.22992904561012
 20
206.9323031830665
 30
0.0
 11
91.19695081389659
 21
206.9323031830665
 31
0.0
  0
LWPOLYLINE
  5
29D
330
2
100
AcDbEntity
  8
UMRISS05
100
AcDbPolyline
 90
       16
 70
     1
 43
0.0
 10
96.2299290456101
 20
206.9323031830665
 42
-0.0744700841715313
 10
96.10873697097758
 20
206.1231194030203
 42
-0.0850989808357404
 10
95.7857596671713
 20
205.482734281634
 42
-0.1062589771074456
 10
95.26857278356283
 20
205.0271427716709
 42
-0.1283072420646072
 10
94.71343992975334
 20
204.8823031830663
 42
-0.1283072420646018
 10
94.15830707594386
 20
205.0271427716704
 42
-0.1062589771074712
 10
93.64112019233539
 20
205.482734281634
 42
-0.0850989808357497
 10
93.3181428885291
 20
206.1231194030203
 42
-0.0744700841715097
 10
93.19695081389658
 20
206.9323031830665
 42
-0.0744700841715364
 10
93.3181428885291
 20
207.7414869631127
 42
-0.0850989808357584
 10
93.64112019233539
 20
208.381872084499
 42
-0.1062589771074555
 10
94.15830707594386
 20
208.8374635944626
 42
-0.1283072420645775
 10
94.71343992975334
 20
208.9823031830667
 42
-0.1283072420646251
 10
95.26857278356283
 20
208.8374635944621
 42
-0.1062589771074474
 10
95.7857596671713
 20
208.381872084499
 42
-0.0850989808357494
 10
96.10873697097758
 20
207.7414869631127
 42
-0.0744700841715338
  0
LWPOLYLINE
  5
29E
330
2
100
AcDbEntity
  8
UMRISS05
100
AcDbPolyline
 90
        7
 70
     0
 43
0.0
 10
95.49078791839225
 20
205.1766333902694
 42
-0.0650794096067709
 10
95.19581616961318
 20
205.482734281634
 42
-0.0850989808357497
 10
94.87283886580668
 20
206.1231194030203
 42
-0.0744700841715097
 10
94.75164679117416
 20
206.9323031830665
 42
-0.0744700841715364
 10
94.87283886580689
 20
207.7414869631127
 42
-0.0850989808357584
 10
95.19581616961318
 20
208.381872084499
 42
-0.0650794096067595
 10
95.49078791839225
 20
208.6879729758636
 42
-0.1283072420645775
  0
LINE
  5
29F
330
2
100
AcDbEntity
  8
ACHSEN
100
AcDbLine
 10
94.71343992975334
 20
210.9823031830667
 30
0.0
 11
94.71343992975334
 21
202.8823031830663
 31
0.0
  0
LINE
  5
2A0
330
2
100
AcDbEntity
  8
UMRISS05
100
AcDbLine
 10
87.74451671505586
 20
200.0323031830664
 30
0.0
 11
87.74451671505586
 21
202.0323031830664
 31
0.0
  0
CIRCLE
  5
2A1
330
2
100
AcDbEntity
  8
UMRISS05
100
AcDbCircle
 10
110.4445167150559
 20
178.0323031830663
 30
0.0
 40
3.25
  0
LINE
  5
2A2
330
2
100
AcDbEntity
  8
UMRISS05
100
AcDbLine
 10
111.0445167150558
 20
205.0323031830664
 30
0.0
 11
111.0445167150558
 21
211.0323031830664
 31
0.0
  0
LINE
  5
2A3
330
2
100
AcDbEntity
  8
UMRISS05
100
AcDbLine
 10
109.8445167150557
 20
205.0323031830664
 30
0.0
 11
109.8445167150557
 21
211.0323031830664
 31
0.0
  0
LINE
  5
2A4
330
2
100
AcDbEntity
  8
UMRISS05
100
AcDbLine
 10
109.8445167150557
 20
205.0323031830664
 30
0.0
 11
111.0445167150558
 21
205.0323031830664
 31
0.0
  0
LINE
  5
2A5
330
2
100
AcDbEntity
  8
UMRISS05
100
AcDbLine
 10
109.8445167150557
 20
211.0323031830664
 30
0.0
 11
111.0445167150558
 21
211.0323031830664
 31
0.0
  0
LINE
  5
2A6
102
{ACAD_REACTORS
330
6D
102
}
330
2
100
AcDbEntity
  8
UMRISS05
100
AcDbLine
 10
87.44451671505613
 20
272.0323031830664
 30
0.0
 11
87.44451671505613
 21
244.5323031830664
 31
0.0
  0
LWPOLYLINE
  5
2A7
330
2
100
AcDbEntity
  8
UMRISS05
100
AcDbPolyline
 90
        8
 70
     0
 43
0.0
 10
98.9445167150559
 20
231.2323031830662
 10
90.44451671505589
 20
231.2323031830662
 10
90.44451671505612
 20
236.032303183066
 10
94.94451671505567
 20
236.032303183066
 10
94.94451671505567
 20
245.0323031830659
 10
90.44451671505589
 20
245.0323031830659
 10
90.44451671505589
 20
251.2323031830662
 10
100.2005298586768
 20
251.2323031830662
  0
INSERT
  5
2A8
330
2
100
AcDbEntity
  8
SCHRAFFUR
100
AcDbBlockReference
  2
*X0
 10
1985.761036945445
 20
-331.1564324559614
 30
0.0
 50
90.0
1001
ACAD
1000
HATCH
1002
{
1070
    16
1000
ANSI31,I
1040
10.0
1040
0.0
1002
}
  0
LINE
  5
2C2
330
2
100
AcDbEntity
  8
UMRISS05
100
AcDbLine
 10
88.19451671505566
 20
244.5823031830661
 30
0.0
 11
88.19451671505566
 21
255.3861838010136
 31
0.0
  0
INSERT
  5
2C3
330
2
100
AcDbEntity
  8
SCHRAFFUR
100
AcDbBlockReference
  2
*X1
 10
1985.761036945445
 20
-331.1564324559614
 30
0.0
 50
90.0
1001
ACAD
1000
HATCH
1002
{
1070
    16
1000
ANSI31,I
1040
10.0
1040
1.570796326794896
1002
}
  0
LINE
  5
2CD
330
2
100
AcDbEntity
  8
UMRISS05
100
AcDbLine
 10
90.19451671505612
 20
244.5823031830661
 30
0.0
 11
90.19451671505612
 21
255.233399842092
 31
0.0
  0
LINE
  5
2CE
330
2
100
AcDbEntity
  8
UMRISS05
100
AcDbLine
 10
88.19451671505545
 20
246.5823031830661
 30
0.0
 11
90.19451671505612
 21
246.5823031830661
 31
0.0
  0
LINE
  5
2CF
330
2
100
AcDbEntity
  8
UMRISS05
100
AcDbLine
 10
94.44451671505612
 20
244.5323031830664
 30
0.0
 11
94.44451671505612
 21
236.5323031830664
 31
0.0
  0
LWPOLYLINE
  5
2D0
330
2
100
AcDbEntity
  8
UMRISS05
100
AcDbPolyline
 90
        3
 70
     0
 43
0.0
 10
98.9445167150559
 20
224.1978298342949
 10
98.9445167150559
 20
243.2323031830662
 10
102.9866071313588
 20
243.2323031830662
  0
LWPOLYLINE
  5
2D1
330
2
100
AcDbEntity
  8
UMRISS05
100
AcDbPolyline
 90
        4
 70
     0
 43
0.0
 10
101.515876173808
 20
246.2323031830662
 10
96.94451671505568
 20
246.2323031830662
 10
96.94451671505568
 20
242.2323031830662
 10
98.9445167150559
 20
242.2323031830662
  0
LINE
  5
2D2
330
2
100
AcDbEntity
  8
ACHSEN
100
AcDbLine
 10
122.663202576698
 20
206.9323031830665
 30
0.0
 11
129.6961808084118
 21
206.9323031830665
 31
0.0
  0
LINE
  5
2D3
330
2
100
AcDbEntity
  8
ACHSEN
100
AcDbLine
 10
126.1796916925548
 20
210.9823031830667
 30
0.0
 11
126.1796916925548
 21
202.8823031830663
 31
0.0
  0
LWPOLYLINE
  5
2D4
330
2
100
AcDbEntity
  8
UMRISS05
100
AcDbPolyline
 90
        7
 70
     0
 43
0.0
 10
125.4023437039161
 20
205.1766333902694
 42
0.0650794096067709
 10
125.6973154526952
 20
205.482734281634
 42
0.0850989808357497
 10
126.0202927565015
 20
206.1231194030203
 42
0.0744700841715097
 10
126.141484831134
 20
206.9323031830665
 42
0.0744700841715364
 10
126.0202927565015
 20
207.7414869631127
 42
0.0850989808357584
 10
125.6973154526952
 20
208.381872084499
 42
0.0650794096067595
 10
125.4023437039161
 20
208.6879729758636
 42
0.1283072420645775
  0
LWPOLYLINE
  5
2D5
330
2
100
AcDbEntity
  8
UMRISS05
100
AcDbPolyline
 90
       16
 70
     1
 43
0.0
 10
124.663202576698
 20
206.9323031830665
 42
0.0744700841715313
 10
124.7843946513305
 20
206.1231194030203
 42
0.0850989808357404
 10
125.1073719551368
 20
205.482734281634
 42
0.1062589771074456
 10
125.6245588387453
 20
205.0271427716709
 42
0.1283072420646072
 10
126.1796916925548
 20
204.8823031830663
 42
0.1283072420646018
 10
126.7348245463643
 20
205.0271427716704
 42
0.1062589771074712
 10
127.2520114299727
 20
205.482734281634
 42
0.0850989808357497
 10
127.574988733779
 20
206.1231194030203
 42
0.0744700841715097
 10
127.6961808084118
 20
206.9323031830665
 42
0.0744700841715364
 10
127.574988733779
 20
207.7414869631127
 42
0.0850989808357584
 10
127.2520114299727
 20
208.381872084499
 42
0.1062589771074555
 10
126.7348245463643
 20
208.8374635944626
 42
0.1283072420645775
 10
126.1796916925548
 20
208.9823031830667
 42
0.1283072420646251
 10
125.6245588387453
 20
208.8374635944621
 42
0.1062589771074474
 10
125.1073719551368
 20
208.381872084499
 42
0.0850989808357494
 10
124.7843946513305
 20
207.7414869631127
 42
0.0744700841715338
  0
LINE
  5
2D6
330
2
100
AcDbEntity
  8
UMRISS03
100
AcDbLine
 10
133.344516715056
 20
200.0323031830664
 30
0.0
 11
133.344516715056
 21
202.0323031830664
 31
0.0
  0
LINE
  5
2DA
102
{ACAD_REACTORS
330
6D
102
}
330
2
100
AcDbEntity
  8
UMRISS05
100
AcDbLine
 10
135.9445167150561
 20
269.032303183066
 30
0.0
 11
146.4465658111535
 21
269.032303183066
 31
0.0
  0
LINE
  5
2DB
102
{ACAD_REACTORS
330
6D
102
}
330
2
100
AcDbEntity
  8
UMRISS05
100
AcDbLine
 10
133.4445167150561
 20
272.0323031830664
 30
0.0
 11
134.4445167150561
 21
273.0323031830664
 31
0.0
  0
LINE
  5
2DC
330
2
100
AcDbEntity
  8
UMRISS05
100
AcDbLine
 10
146.6965658111535
 20
228.0323031830664
 30
0.0
 11
146.6965658111535
 21
255.0323031830664
 31
0.0
  0
LINE
  5
2DD
330
2
100
AcDbEntity
  8
UMRISS05
100
AcDbLine
 10
149.4465658111535
 20
228.0323031830664
 30
0.0
 11
149.4465658111535
 21
255.0323031830664
 31
0.0
  0
LINE
  5
2DE
330
2
100
AcDbEntity
  8
UMRISS05
100
AcDbLine
 10
152.1965658111535
 20
228.0323031830664
 30
0.0
 11
152.1965658111535
 21
255.0323031830664
 31
0.0
  0
LINE
  5
2DF
330
2
100
AcDbEntity
  8
UMRISS05
100
AcDbLine
 10
146.6965658111535
 20
228.0323031830664
 30
0.0
 11
152.1965658111535
 21
228.0323031830664
 31
0.0
  0
LINE
  5
2E0
330
2
100
AcDbEntity
  8
UMRISS05
100
AcDbLine
 10
146.4465658111535
 20
260.0323031830664
 30
0.0
 11
143.9465658111539
 21
260.0323031830664
 31
0.0
  0
LINE
  5
2E1
330
2
100
AcDbEntity
  8
UMRISS05
100
AcDbLine
 10
145.4465658111539
 20
260.0323031830664
 30
0.0
 11
145.4465658111539
 21
269.0323031830664
 31
0.0
  0
LINE
  5
2E2
330
2
100
AcDbEntity
  8
UMRISS05
100
AcDbLine
 10
146.4465658111535
 20
255.0323031830664
 30
0.0
 11
152.4465658111535
 21
255.0323031830664
 31
0.0
  0
LINE
  5
2E3
330
2
100
AcDbEntity
  8
UMRISS05
100
AcDbLine
 10
146.4465658111535
 20
265.0323031830664
 30
0.0
 11
152.4465658111535
 21
265.0323031830664
 31
0.0
  0
LINE
  5
2E4
102
{ACAD_REACTORS
330
6D
102
}
330
2
100
AcDbEntity
  8
UMRISS05
100
AcDbLine
 10
146.1945167150561
 20
269.0323031830664
 30
0.0
 11
146.1945167150561
 21
273.0323031830664
 31
0.0
  0
LWPOLYLINE
  5
2E5
330
2
100
AcDbEntity
  8
UMRISS05
100
AcDbPolyline
 90
        2
 70
     0
 43
0.0
 10
96.82761577253018
 20
290.0323031830664
 42
-1.290994448735989
 10
120.0655158497773
 20
290.0323031830664
 42
0.6776526010783074
  0
CIRCLE
  5
2E6
330
2
100
AcDbEntity
  8
UMRISS05
100
AcDbCircle
 10
108.4465658111537
 20
298.5323031830663
 30
0.0
 40
3.25
  0
LINE
  5
2E7
330
2
100
AcDbEntity
  8
UMRISS05
100
AcDbLine
 10
146.4465658111535
 20
280.0323031830664
 30
0.0
 11
152.4465658111535
 21
280.0323031830664
 31
0.0
  0
LINE
  5
2E8
330
2
100
AcDbEntity
  8
UMRISS05
100
AcDbLine
 10
146.9465658111535
 20
280.5323031830664
 30
0.0
 11
151.9465658111535
 21
280.5323031830664
 31
0.0
  0
LINE
  5
2E9
330
2
100
AcDbEntity
  8
UMRISS05
100
AcDbLine
 10
146.9465658111537
 20
283.5323031830664
 30
0.0
 11
151.9465658111535
 21
283.5323031830664
 31
0.0
  0
LINE
  5
2EA
330
2
100
AcDbEntity
  8
UMRISS05
100
AcDbLine
 10
151.9465658111535
 20
283.5323031830664
 30
0.0
 11
149.4465658111535
 21
285.0323031830664
 31
0.0
  0
LINE
  5
2EB
330
2
100
AcDbEntity
  8
UMRISS05
100
AcDbLine
 10
146.9465658111535
 20
280.5323031830664
 30
0.0
 11
146.9465658111537
 21
283.5323031830664
 31
0.0
  0
LINE
  5
2EC
330
2
100
AcDbEntity
  8
UMRISS05
100
AcDbLine
 10
146.4465658111535
 20
280.0323031830664
 30
0.0
 11
146.9465658111535
 21
280.5323031830664
 31
0.0
  0
LINE
  5
2ED
330
2
100
AcDbEntity
  8
UMRISS05
100
AcDbLine
 10
149.4465658111535
 20
285.0323031830664
 30
0.0
 11
146.9465658111537
 21
283.5323031830664
 31
0.0
  0
LINE
  5
2EE
330
2
100
AcDbEntity
  8
UMRISS05
100
AcDbLine
 10
151.9465658111535
 20
280.5323031830664
 30
0.0
 11
151.9465658111535
 21
283.5323031830664
 31
0.0
  0
LINE
  5
2EF
330
2
100
AcDbEntity
  8
UMRISS05
100
AcDbLine
 10
151.9465658111535
 20
280.5323031830664
 30
0.0
 11
152.4465658111535
 21
280.0323031830664
 31
0.0
  0
LINE
  5
2F0
330
2
100
AcDbEntity
  8
UMRISS05
100
AcDbLine
 10
160.4465658111537
 20
260.0323031830664
 30
0.0
 11
160.4465658111539
 21
283.0323031830664
 31
0.0
  0
LINE
  5
2F1
330
2
100
AcDbEntity
  8
UMRISS05
100
AcDbLine
 10
156.4465658111539
 20
273.0323031830664
 30
0.0
 11
156.4465658111539
 21
283.0323031830664
 31
0.0
  0
DIMENSION
  5
2F2
330
2
100
AcDbEntity
  8
BEMASSUNG
100
AcDbDimension
  2
*D9
 10
181.9499619288135
 20
283.0323031830664
 30
0.0
 11
178.7274858033019
 21
271.5323031830664
 31
0.0
 71
     5
 42
23.0
  3
Katalog 09
100
AcDbAlignedDimension
 13
160.4465658111537
 23
260.0323031830664
 33
0.0
 14
160.4465658111542
 24
283.0323031830664
 34
0.0
 50
90.0
100
AcDbRotatedDimension
  0
LINE
  5
2FF
330
2
100
AcDbEntity
  8
UMRISS05
100
AcDbLine
 10
154.4465658111542
 20
260.0323031830664
 30
0.0
 11
154.4465658111539
 21
273.0323031830664
 31
0.0
  0
LINE
  5
300
330
2
100
AcDbEntity
  8
UMRISS05
100
AcDbLine
 10
155.5805404073696
 20
283.0323031830664
 30
0.0
 11
160.4465658111542
 21
283.0323031830664
 31
0.0
  0
ENDSEC
  0
SECTION
  2
OBJECTS
  0
DICTIONARY
  5
A
330
0
100
AcDbDictionary
281
     1
  3
ACAD_COLOR
350
4B
  3
ACAD_DETAILVIEWSTYLE
350
321
  3
ACAD_FIELDLIST
350
344
  3
ACAD_GROUP
350
38
  3
ACAD_LAYOUT
350
17
  3
ACAD_MATERIAL
350
C
  3
ACAD_MLEADERSTYLE
350
4E
  3
ACAD_MLINESTYLE
350
39
  3
ACAD_PLOTSETTINGS
350
3A
  3
ACAD_PLOTSTYLENAME
350
9
  3
ACAD_SCALELIST
350
4C
  3
ACAD_SECTIONVIEWSTYLE
350
32F
  3
ACAD_TABLESTYLE
350
4D
  3
ACAD_VISUALSTYLE
350
2E
  3
ACDB_RECOMPOSE_DATA
350
37B
  3
AcDbVariableDictionary
350
36D
  3
AcmDictionary
350
311
  3
AMG
350
302
  0
DICTIONARY
  5
1E
330
1D
100
AcDbDictionary
280
     1
281
     1
  3
ACAD_LAYERFILTERS
360
1F
  3
ACAD_LAYERSTATES
360
20
  3
ACLYDICTIONARY
360
21
  0
DICTIONARY
  5
6
330
5
100
AcDbDictionary
280
     1
281
     1
  3
ADSK_XREC_LAYER_RECONCILED
360
7
  0
DICTIONARY
  5
2D8
330
2D7
100
AcDbDictionary
280
     1
281
     1
  3
ADSK_XREC_LAYER_RECONCILED
360
2D9
  0
DICTIONARY
  5
6A
330
69
100
AcDbDictionary
280
     1
281
     1
  3
ADSK_XREC_LAYER_RECONCILED
360
6B
  0
DICTIONARY
  5
89
330
88
100
AcDbDictionary
280
     1
281
     1
  3
ADSK_XREC_LAYER_RECONCILED
360
8A
  0
DICTIONARY
  5
E9
330
E8
100
AcDbDictionary
280
     1
281
     1
  3
ADSK_XREC_LAYER_RECONCILED
360
EA
  0
DICTIONARY
  5
50
330
4F
100
AcDbDictionary
280
     1
281
     1
  3
ADSK_XREC_LAYER_RECONCILED
360
51
  0
DICTIONARY
  5
7E
330
7D
100
AcDbDictionary
280
     1
281
     1
  3
ADSK_XREC_LAYER_RECONCILED
360
7F
  0
DICTIONARY
  5
6F
330
6E
100
AcDbDictionary
280
     1
281
     1
  3
ADSK_XREC_LAYER_RECONCILED
360
70
  0
DICTIONARY
  5
296
330
295
100
AcDbDictionary
280
     1
281
     1
  3
ADSK_XREC_LAYER_RECONCILED
360
297
  0
DICTIONARY
  5
3
330
2
100
AcDbDictionary
280
     1
281
     1
  0
DICTIONARY
  5
38A
330
98
100
AcDbDictionary
280
     1
281
     1
  3
ACAD_MTEXT_RT
360
38B
  0
DICTIONARY
  5
38C
330
157
100
AcDbDictionary
280
     1
281
     1
  3
ACAD_MTEXT_RT
360
38D
  0
DICTIONARY
  5
4B
102
{ACAD_REACTORS
330
A
102
}
330
A
100
AcDbDictionary
281
     1
  0
DICTIONARY
  5
321
102
{ACAD_REACTORS
330
A
102
}
330
A
100
AcDbDictionary
281
     1
  3
Metric50
350
32C
  0
FIELDLIST
  5
344
102
{ACAD_REACTORS
330
A
102
}
330
A
100
AcDbIdSet
 90
        6
330
324
330
325
330
326
330
332
330
333
330
334
100
AcDbFieldList
  0
DICTIONARY
  5
38
102
{ACAD_REACTORS
330
A
102
}
330
A
100
AcDbDictionary
281
     1
  0
DICTIONARY
  5
17
102
{ACAD_REACTORS
330
A
102
}
330
A
100
AcDbDictionary
281
     1
  3
Layout1
350
1C
  3
Model
350
16
  0
DICTIONARY
  5
C
102
{ACAD_REACTORS
330
A
102
}
330
A
100
AcDbDictionary
281
     1
  3
ByBlock
350
43
  3
ByLayer
350
3B
  3
Global
350
B
  0
DICTIONARY
  5
4E
102
{ACAD_REACTORS
330
A
102
}
330
A
100
AcDbDictionary
281
     1
  0
DICTIONARY
  5
39
102
{ACAD_REACTORS
330
A
102
}
330
A
100
AcDbDictionary
281
     1
  3
STANDARD
350
52
  0
DICTIONARY
  5
3A
102
{ACAD_REACTORS
330
A
102
}
330
A
100
AcDbDictionary
281
     1
  0
ACDBDICTIONARYWDFLT
  5
9
102
{ACAD_REACTORS
330
A
102
}
330
A
100
AcDbDictionary
281
     1
  3
Normal
350
8
100
AcDbDictionaryWithDefault
340
8
  0
DICTIONARY
  5
4C
102
{ACAD_REACTORS
330
A
102
}
330
A
100
AcDbDictionary
281
     1
  3
A0
350
57
  3
A1
350
58
  3
A2
350
59
  3
A3
350
5A
  3
A4
350
5B
  3
A5
350
5C
  3
A6
350
5D
  3
A7
350
5E
  3
A8
350
5F
  3
A9
350
60
  3
B0
350
61
  3
B1
350
62
  3
B2
350
63
  3
B3
350
64
  3
B4
350
65
  3
B5
350
66
  3
B6
350
67
  0
DICTIONARY
  5
32F
102
{ACAD_REACTORS
330
A
102
}
330
A
100
AcDbDictionary
281
     1
  3
Metric50
350
337
  0
DICTIONARY
  5
4D
102
{ACAD_REACTORS
330
A
102
}
330
A
100
AcDbDictionary
281
     1
  3
Standard
350
53
  0
DICTIONARY
  5
2E
102
{ACAD_REACTORS
330
A
102
}
330
A
100
AcDbDictionary
281
     1
  3
2dWireframe
350
2D
  3
Realistic
350
55
  3
Wireframe
350
56
  0
XRECORD
  5
37B
102
{ACAD_REACTORS
330
A
102
}
330
A
100
AcDbXrecord
280
     1
 90
        1
330
53
  0
DICTIONARY
  5
36D
102
{ACAD_REACTORS
330
A
102
}
330
A
100
AcDbDictionary
281
     1
  3
CANNOSCALE
350
372
  3
CMLEADERSTYLE
350
36F
  3
CTABLESTYLE
350
36E
  3
CVIEWDETAILSTYLE
350
370
  3
CVIEWSECTIONSTYLE
350
371
  3
DIMASSOC
350
377
  3
HIDETEXT
350
375
  3
INDEXCTL
350
374
  3
SOLIDHIST
350
378
  3
SORTENTS
350
373
  3
XCLIPFRAME
350
376
  0
DICTIONARY
  5
311
102
{ACAD_REACTORS
330
A
102
}
330
A
100
AcDbDictionary
281
     1
  3
AcmStdDictionary
350
312
  0
DICTIONARY
  5
302
102
{ACAD_REACTORS
330
A
102
}
330
A
100
AcDbDictionary
281
     1
  3
AcMgSettings
350
30C
  0
DICTIONARY
  5
1F
102
{ACAD_REACTORS
330
1E
102
}
330
1E
100
AcDbDictionary
281
     1
  0
DICTIONARY
  5
20
102
{ACAD_REACTORS
330
1E
102
}
330
1E
100
AcDbDictionary
281
     1
  0
DICTIONARY
  5
21
102
{ACAD_REACTORS
330
1E
102
}
330
1E
100
AcDbDictionary
281
     1
1001
ACAD
1000
<All
  0
XRECORD
  5
7
102
{ACAD_REACTORS
330
6
102
}
330
6
100
AcDbXrecord
280
     1
290
     1
  0
XRECORD
  5
2D9
102
{ACAD_REACTORS
330
2D8
102
}
330
2D8
100
AcDbXrecord
280
     1
290
     1
  0
XRECORD
  5
6B
102
{ACAD_REACTORS
330
6A
102
}
330
6A
100
AcDbXrecord
280
     1
290
     1
  0
XRECORD
  5
8A
102
{ACAD_REACTORS
330
89
102
}
330
89
100
AcDbXrecord
280
     1
290
     1
  0
XRECORD
  5
EA
102
{ACAD_REACTORS
330
E9
102
}
330
E9
100
AcDbXrecord
280
     1
290
     1
  0
XRECORD
  5
51
102
{ACAD_REACTORS
330
50
102
}
330
50
100
AcDbXrecord
280
     1
290
     1
  0
XRECORD
  5
7F
102
{ACAD_REACTORS
330
7E
102
}
330
7E
100
AcDbXrecord
280
     1
290
     1
  0
XRECORD
  5
70
102
{ACAD_REACTORS
330
6F
102
}
330
6F
100
AcDbXrecord
280
     1
290
     1
  0
XRECORD
  5
297
102
{ACAD_REACTORS
330
296
102
}
330
296
100
AcDbXrecord
280
     1
290
     1
  0
XRECORD
  5
38B
102
{ACAD_REACTORS
330
38A
102
}
330
38A
100
AcDbXrecord
280
     1
 40
5892.0
  1
\A1;ø100
  0
XRECORD
  5
38D
102
{ACAD_REACTORS
330
38C
102
}
330
38C
100
AcDbXrecord
280
     1
 40
5271.0
  1
\A1;ø23
  0
ACDBDETAILVIEWSTYLE
  5
32C
102
{ACAD_XDICTIONARY
360
38E
102
}
102
{ACAD_REACTORS
330
321
330
32B
102
}
330
321
100
AcDbModelDocViewStyle
 70
     0
  3
Metric50
290
     0
100
AcDbDetailViewStyle
 70
     0
 71
     0
 90
        3
 71
     1
340
24
 40
5.0
340
0
 40
5.0
300

 40
0.0
280
     1
 71
     2
340
14
 90
       25
 71
     3
340
24
 40
5.0
 90
        0
 40
15.0
 90
        1
300
%<\AcVar ViewDetailId>% (%<\AcVar ViewScale \f "%sn">%)
 71
     4
340
14
 90
       25
340
14
 90
       25
280
     0
  0
LAYOUT
  5
1C
102
{ACAD_XDICTIONARY
360
37F
102
}
102
{ACAD_REACTORS
330
17
102
}
330
17
100
AcDbPlotSettings
  1

  2
G:\VORLAGEN\AutoCAD2002\Plotten\A3hoch-MSL.pc3
  4

  6

 40
0.0
 41
0.0
 42
0.0
 43
0.0
 44
0.0
 45
0.0
 46
0.0
 47
0.0
 48
0.0
 49
0.0
140
0.0
141
0.0
142
1.0
143
1.0
 70
   688
 72
     0
 73
     0
 74
     5
  7
monochrome.ctb
 75
    16
147
1.0
148
0.0
149
0.0
100
AcDbLayout
  1
Layout1
 70
     1
 71
     1
 10
0.0
 20
0.0
 11
12.0
 21
9.0
 12
0.0
 22
0.0
 32
0.0
 14
1.000000000000000E+20
 24
1.000000000000000E+20
 34
1.000000000000000E+20
 15
-1.000000000000000E+20
 25
-1.000000000000000E+20
 35
-1.000000000000000E+20
146
0.0
 13
0.0
 23
0.0
 33
0.0
 16
1.0
 26
0.0
 36
0.0
 17
0.0
 27
1.0
 37
0.0
 76
     0
330
19
  0
LAYOUT
  5
16
102
{ACAD_XDICTIONARY
360
37D
102
}
102
{ACAD_REACTORS
330
17
102
}
330
17
100
AcDbPlotSettings
  1

  2
G:\VORLAGEN\AutoCAD2002\Plotten\A3hoch-MSL.pc3
  4
A3
  6

 40
7.0
 41
5.0
 42
6.96832275390625
 43
6.988983154296875
 44
296.9683227539062
 45
419.9889831542968
 46
0.0
 47
0.0
 48
0.0
 49
0.0
140
0.0
141
0.0
142
1.0
143
2.051058610995069
 70
 11952
 72
     1
 73
     1
 74
     0
  7
monochrome.ctb
 75
     0
147
0.4875531077655801
148
247.2212707737283
149
92.22456455048087
100
AcDbLayout
  1
Model
 70
     1
 71
     0
 10
0.0
 20
0.0
 11
12.0
 21
9.0
 12
0.0
 22
0.0
 32
0.0
 14
0.0
 24
0.0
 34
0.0
 15
0.0
 25
0.0
 35
0.0
146
0.0
 13
0.0
 23
0.0
 33
0.0
 16
1.0
 26
0.0
 36
0.0
 17
0.0
 27
1.0
 37
0.0
 76
     0
330
2
331
2C
1001
ACAD_PSEXT
1000
G:\VORLAGEN\AutoCAD2002\Plotten\A3hoch-MSL.pc3
1000
HP LaserJet 5000 Series PCL
1000
CAD
1000
HP LaserJet 5000N
1070
     0
  0
MATERIAL
  5
43
102
{ACAD_XDICTIONARY
360
44
102
}
102
{ACAD_REACTORS
330
C
102
}
330
C
100
AcDbMaterial
  1
ByBlock
 72
     0
 43
0.0208333333333333
 43
0.0
 43
0.0
 43
0.0
 43
0.0
 43
0.0208333333333333
 43
0.0
 43
0.0
 43
0.0
 43
0.0
 43
1.0
 43
0.0
 43
0.0
 43
0.0
 43
0.0
 43
1.0
 77
     0
 47
0.0208333333333333
 47
0.0
 47
0.0
 47
0.0
 47
0.0
 47
0.0208333333333333
 47
0.0
 47
0.0
 47
0.0
 47
0.0
 47
1.0
 47
0.0
 47
0.0
 47
0.0
 47
0.0
 47
1.0
171
     0
 49
0.0208333333333333
 49
0.0
 49
0.0
 49
0.0
 49
0.0
 49
0.0208333333333333
 49
0.0
 49
0.0
 49
0.0
 49
0.0
 49
1.0
 49
0.0
 49
0.0
 49
0.0
 49
0.0
 49
1.0
175
     0
142
0.0208333333333333
142
0.0
142
0.0
142
0.0
142
0.0
142
0.0208333333333333
142
0.0
142
0.0
142
0.0
142
0.0
142
1.0
142
0.0
142
0.0
142
0.0
142
0.0
142
1.0
179
     0
144
0.0208333333333333
144
0.0
144
0.0
144
0.0
144
0.0
144
0.0208333333333333
144
0.0
144
0.0
144
0.0
144
0.0
144
1.0
144
0.0
144
0.0
144
0.0
144
0.0
144
1.0
147
0.0208333333333333
147
0.0
147
0.0
147
0.0
147
0.0
147
0.0208333333333333
147
0.0
147
0.0
147
0.0
147
0.0
147
1.0
147
0.0
147
0.0
147
0.0
147
0.0
147
1.0
  0
MATERIAL
  5
3B
102
{ACAD_XDICTIONARY
360
3C
102
}
102
{ACAD_REACTORS
330
C
102
}
330
C
100
AcDbMaterial
  1
ByLayer
 72
     0
 43
0.0208333333333333
 43
0.0
 43
0.0
 43
0.0
 43
0.0
 43
0.0208333333333333
 43
0.0
 43
0.0
 43
0.0
 43
0.0
 43
1.0
 43
0.0
 43
0.0
 43
0.0
 43
0.0
 43
1.0
 77
     0
 47
0.0208333333333333
 47
0.0
 47
0.0
 47
0.0
 47
0.0
 47
0.0208333333333333
 47
0.0
 47
0.0
 47
0.0
 47
0.0
 47
1.0
 47
0.0
 47
0.0
 47
0.0
 47
0.0
 47
1.0
171
     0
 49
0.0208333333333333
 49
0.0
 49
0.0
 49
0.0
 49
0.0
 49
0.0208333333333333
 49
0.0
 49
0.0
 49
0.0
 49
0.0
 49
1.0
 49
0.0
 49
0.0
 49
0.0
 49
0.0
 49
1.0
175
     0
142
0.0208333333333333
142
0.0
142
0.0
142
0.0
142
0.0
142
0.0208333333333333
142
0.0
142
0.0
142
0.0
142
0.0
142
1.0
142
0.0
142
0.0
142
0.0
142
0.0
142
1.0
179
     0
144
0.0208333333333333
144
0.0
144
0.0
144
0.0
144
0.0
144
0.0208333333333333
144
0.0
144
0.0
144
0.0
144
0.0
144
1.0
144
0.0
144
0.0
144
0.0
144
0.0
144
1.0
147
0.0208333333333333
147
0.0
147
0.0
147
0.0
147
0.0
147
0.0208333333333333
147
0.0
147
0.0
147
0.0
147
0.0
147
1.0
147
0.0
147
0.0
147
0.0
147
0.0
147
1.0
  0
MATERIAL
  5
B
102
{ACAD_XDICTIONARY
360
D
102
}
102
{ACAD_REACTORS
330
C
102
}
330
C
100
AcDbMaterial
  1
Global
 72
     0
 43
0.0208333333333333
 43
0.0
 43
0.0
 43
0.0
 43
0.0
 43
0.0208333333333333
 43
0.0
 43
0.0
 43
0.0
 43
0.0
 43
1.0
 43
0.0
 43
0.0
 43
0.0
 43
0.0
 43
1.0
 77
     0
 47
0.0208333333333333
 47
0.0
 47
0.0
 47
0.0
 47
0.0
 47
0.0208333333333333
 47
0.0
 47
0.0
 47
0.0
 47
0.0
 47
1.0
 47
0.0
 47
0.0
 47
0.0
 47
0.0
 47
1.0
171
     0
 49
0.0208333333333333
 49
0.0
 49
0.0
 49
0.0
 49
0.0
 49
0.0208333333333333
 49
0.0
 49
0.0
 49
0.0
 49
0.0
 49
1.0
 49
0.0
 49
0.0
 49
0.0
 49
0.0
 49
1.0
175
     0
142
0.0208333333333333
142
0.0
142
0.0
142
0.0
142
0.0
142
0.0208333333333333
142
0.0
142
0.0
142
0.0
142
0.0
142
1.0
142
0.0
142
0.0
142
0.0
142
0.0
142
1.0
179
     0
144
0.0208333333333333
144
0.0
144
0.0
144
0.0
144
0.0
144
0.0208333333333333
144
0.0
144
0.0
144
0.0
144
0.0
144
1.0
144
0.0
144
0.0
144
0.0
144
0.0
144
1.0
147
0.0208333333333333
147
0.0
147
0.0
147
0.0
147
0.0
147
0.0208333333333333
147
0.0
147
0.0
147
0.0
147
0.0
147
1.0
147
0.0
147
0.0
147
0.0
147
0.0
147
1.0
  0
MLINESTYLE
  5
52
102
{ACAD_REACTORS
330
39
102
}
330
39
100
AcDbMlineStyle
  2
STANDARD
 70
     0
  3

 62
     0
 51
90.0
 52
90.0
 71
     2
 49
0.5
 62
   256
  6
BYLAYER
 49
-0.5
 62
   256
  6
BYLAYER
  0
ACDBPLACEHOLDER
  5
8
102
{ACAD_REACTORS
330
9
102
}
330
9
  0
SCALE
  5
57
102
{ACAD_REACTORS
330
4C
102
}
330
4C
100
AcDbScale
 70
     0
300
1:1
140
1.0
141
1.0
290
     1
  0
SCALE
  5
58
102
{ACAD_REACTORS
330
4C
102
}
330
4C
100
AcDbScale
 70
     0
300
1:2
140
1.0
141
2.0
290
     0
  0
SCALE
  5
59
102
{ACAD_REACTORS
330
4C
102
}
330
4C
100
AcDbScale
 70
     0
300
1:4
140
1.0
141
4.0
290
     0
  0
SCALE
  5
5A
102
{ACAD_REACTORS
330
4C
102
}
330
4C
100
AcDbScale
 70
     0
300
1:5
140
1.0
141
5.0
290
     0
  0
SCALE
  5
5B
102
{ACAD_REACTORS
330
4C
102
}
330
4C
100
AcDbScale
 70
     0
300
1:8
140
1.0
141
8.0
290
     0
  0
SCALE
  5
5C
102
{ACAD_REACTORS
330
4C
102
}
330
4C
100
AcDbScale
 70
     0
300
1:10
140
1.0
141
10.0
290
     0
  0
SCALE
  5
5D
102
{ACAD_REACTORS
330
4C
102
}
330
4C
100
AcDbScale
 70
     0
300
1:16
140
1.0
141
16.0
290
     0
  0
SCALE
  5
5E
102
{ACAD_REACTORS
330
4C
102
}
330
4C
100
AcDbScale
 70
     0
300
1:20
140
1.0
141
20.0
290
     0
  0
SCALE
  5
5F
102
{ACAD_REACTORS
330
4C
102
}
330
4C
100
AcDbScale
 70
     0
300
1:30
140
1.0
141
30.0
290
     0
  0
SCALE
  5
60
102
{ACAD_REACTORS
330
4C
102
}
330
4C
100
AcDbScale
 70
     0
300
1:40
140
1.0
141
40.0
290
     0
  0
SCALE
  5
61
102
{ACAD_REACTORS
330
4C
102
}
330
4C
100
AcDbScale
 70
     0
300
1:50
140
1.0
141
50.0
290
     0
  0
SCALE
  5
62
102
{ACAD_REACTORS
330
4C
102
}
330
4C
100
AcDbScale
 70
     0
300
1:100
140
1.0
141
100.0
290
     0
  0
SCALE
  5
63
102
{ACAD_REACTORS
330
4C
102
}
330
4C
100
AcDbScale
 70
     0
300
2:1
140
2.0
141
1.0
290
     0
  0
SCALE
  5
64
102
{ACAD_REACTORS
330
4C
102
}
330
4C
100
AcDbScale
 70
     0
300
4:1
140
4.0
141
1.0
290
     0
  0
SCALE
  5
65
102
{ACAD_REACTORS
330
4C
102
}
330
4C
100
AcDbScale
 70
     0
300
8:1
140
8.0
141
1.0
290
     0
  0
SCALE
  5
66
102
{ACAD_REACTORS
330
4C
102
}
330
4C
100
AcDbScale
 70
     0
300
10:1
140
10.0
141
1.0
290
     0
  0
SCALE
  5
67
102
{ACAD_REACTORS
330
4C
102
}
330
4C
100
AcDbScale
 70
     0
300
100:1
140
100.0
141
1.0
290
     0
  0
ACDBSECTIONVIEWSTYLE
  5
337
102
{ACAD_XDICTIONARY
360
390
102
}
102
{ACAD_REACTORS
330
32F
330
336
102
}
330
32F
100
AcDbModelDocViewStyle
 70
     0
  3
Metric50
290
     0
100
AcDbSectionViewStyle
 70
     0
 71
     0
 90
      102
 71
     1
340
24
 40
5.0
340
0
340
0
 40
5.0
300
I, O, Q, S, X, Z
 40
10.0
 90
        0
 40
2.5
 90
        0
 71
     2
340
14
 90
       25
340
14
 90
       50
 40
5.0
 40
2.5
 40
5.0
 71
     3
340
24
 40
5.0
 90
        0
 40
15.0
 90
        1
300
%<\AcVar ViewSectionStartId>%-%<\AcVar ViewSectionEndId>% (%<\AcVar ViewScale \f "%sn">%)
 71
     4
300
ANSI31
 40
1.0
 90
        0
290
     0
290
     0
 90
        6
 40
0.0
 40
1.570796326794896
 40
0.2617993877991494
 40
1.308996938995747
 40
-0.2617993877991494
 40
1.832595714594046
  0
TABLESTYLE
  5
53
102
{ACAD_XDICTIONARY
360
54
102
}
102
{ACAD_REACTORS
330
4D
102
}
330
4D
100
AcDbTableStyle
  3
Standard
 70
     0
 71
     0
 40
1.5
 41
1.5
280
     0
281
     0
  7
STANDARD
140
4.5
170
     2
 62
     0
 63
     7
283
     0
274
    -2
284
     1
 64
     0
275
    -2
285
     1
 65
     0
276
    -2
286
     1
 66
     0
277
    -2
287
     1
 67
     0
278
    -2
288
     1
 68
     0
279
    -2
289
     1
 69
     0
  7
STANDARD
140
6.0
170
     5
 62
     0
 63
     7
283
     0
274
    -2
284
     1
 64
     0
275
    -2
285
     1
 65
     0
276
    -2
286
     1
 66
     0
277
    -2
287
     1
 67
     0
278
    -2
288
     1
 68
     0
279
    -2
289
     1
 69
     0
  7
STANDARD
140
4.5
170
     5
 62
     0
 63
     7
283
     0
274
    -2
284
     1
 64
     0
275
    -2
285
     1
 65
     0
276
    -2
286
     1
 66
     0
277
    -2
287
     1
 67
     0
278
    -2
288
     1
 68
     0
279
    -2
289
     1
 69
     0
  0
VISUALSTYLE
  5
2D
102
{ACAD_XDICTIONARY
360
381
102
}
102
{ACAD_REACTORS
330
2E
102
}
330
2E
100
AcDbVisualStyle
  2
2dWireframe
 70
     4
 71
     0
 72
     2
 73
     0
 90
        0
 40
-0.6
 41
-30.0
 62
     5
 63
     7
 74
     1
 91
        4
 64
     7
 65
   257
 75
     1
175
     1
 42
1.0
 92
        0
 66
   257
 43
1.0
 76
     1
 77
     6
 78
     2
 67
     7
 79
     5
170
     0
171
     0
290
     0
174
     0
 93
        1
 44
0.0
173
     0
291
     0
 45
0.0
1001
ACAD
1000
AcDbSavedByObjectVersion
1070
     0
  0
VISUALSTYLE
  5
55
102
{ACAD_XDICTIONARY
360
386
102
}
102
{ACAD_REACTORS
330
2E
102
}
330
2E
100
AcDbVisualStyle
  2
Realistic
 70
     8
 71
     2
 72
     2
 73
     0
 90
        0
 40
-0.6
 41
-30.0
 62
     5
 63
     7
 74
     1
 91
        0
 64
     7
 65
   257
 75
     1
175
     1
 42
1.0
 92
        8
 66
     8
 43
1.0
 76
     1
 77
     6
 78
     2
 67
     7
 79
     5
170
     0
171
     0
290
     0
174
     0
 93
       13
 44
0.0
173
     0
291
     0
 45
0.0
1001
ACAD
1000
AcDbSavedByObjectVersion
1070
     0
  0
VISUALSTYLE
  5
56
102
{ACAD_XDICTIONARY
360
388
102
}
102
{ACAD_REACTORS
330
2E
102
}
330
2E
100
AcDbVisualStyle
  2
Wireframe
 70
     5
 71
     0
 72
     2
 73
     0
 90
        0
 40
-0.6
 41
-30.0
 62
     5
 63
     7
 74
     1
 91
        4
 64
     7
 65
   257
 75
     1
175
     1
 42
1.0
 92
        0
 66
   257
 43
1.0
 76
     1
 77
     6
 78
     2
 67
     7
 79
     3
170
     0
171
     0
290
     0
174
     0
 93
        1
 44
0.0
173
     0
291
     0
 45
0.0
1001
ACAD
1000
AcDbSavedByObjectVersion
1070
     0
  0
DICTIONARYVAR
  5
372
102
{ACAD_REACTORS
330
36D
102
}
330
36D
100
DictionaryVariables
280
     0
  1
1:1
  0
DICTIONARYVAR
  5
36F
102
{ACAD_REACTORS
330
36D
102
}
330
36D
100
DictionaryVariables
280
     0
  1
STANDARD
  0
DICTIONARYVAR
  5
36E
102
{ACAD_REACTORS
330
36D
102
}
330
36D
100
DictionaryVariables
280
     0
  1
STANDARD
  0
DICTIONARYVAR
  5
370
102
{ACAD_REACTORS
330
36D
102
}
330
36D
100
DictionaryVariables
280
     0
  1

  0
DICTIONARYVAR
  5
371
102
{ACAD_REACTORS
330
36D
102
}
330
36D
100
DictionaryVariables
280
     0
  1

  0
DICTIONARYVAR
  5
377
102
{ACAD_REACTORS
330
36D
102
}
330
36D
100
DictionaryVariables
280
     0
  1
1
  0
DICTIONARYVAR
  5
375
102
{ACAD_REACTORS
330
36D
102
}
330
36D
100
DictionaryVariables
280
     0
  1
1
  0
DICTIONARYVAR
  5
374
102
{ACAD_REACTORS
330
36D
102
}
330
36D
100
DictionaryVariables
280
     0
  1
0
  0
DICTIONARYVAR
  5
378
102
{ACAD_REACTORS
330
36D
102
}
330
36D
100
DictionaryVariables
280
     0
  1
1
  0
DICTIONARYVAR
  5
373
102
{ACAD_REACTORS
330
36D
102
}
330
36D
100
DictionaryVariables
280
     0
  1
127
  0
DICTIONARYVAR
  5
376
102
{ACAD_REACTORS
330
36D
102
}
330
36D
100
DictionaryVariables
280
     0
  1
0
  0
DICTIONARY
  5
312
102
{ACAD_REACTORS
330
311
102
}
330
311
100
AcDbDictionary
281
     1
  0
DICTIONARY
  5
30C
102
{ACAD_REACTORS
330
302
102
}
330
302
100
AcDbDictionary
281
     1
  3
DWGSETTINGS
350
30B
  3
TRANSSETTINGS
350
30D
  0
DICTIONARY
  5
38E
330
32C
100
AcDbDictionary
280
     1
281
     1
  3
ACAD_XREC_ROUNDTRIP
360
38F
  0
DICTIONARY
  5
37F
330
1C
100
AcDbDictionary
280
     1
281
     1
  3
ACAD_XREC_ROUNDTRIP
360
380
  0
DICTIONARY
  5
37D
330
16
100
AcDbDictionary
280
     1
281
     1
  3
ACAD_XREC_ROUNDTRIP
360
37E
  0
DICTIONARY
  5
44
330
43
100
AcDbDictionary
280
     1
281
     1
  3
ACAD_XREC_ROUNDTRIP
360
384
  3
BUMPTILE
360
45
  3
DIFFUSETILE
360
46
  3
OPACITYTILE
360
47
  3
REFLECTIONTILE
360
48
  3
REFRACTIONTILE
360
49
  3
SPECULARTILE
360
4A
  0
DICTIONARY
  5
3C
330
3B
100
AcDbDictionary
280
     1
281
     1
  3
ACAD_XREC_ROUNDTRIP
360
383
  3
BUMPTILE
360
3D
  3
DIFFUSETILE
360
3E
  3
OPACITYTILE
360
3F
  3
REFLECTIONTILE
360
40
  3
REFRACTIONTILE
360
41
  3
SPECULARTILE
360
42
  0
DICTIONARY
  5
D
330
B
100
AcDbDictionary
280
     1
281
     1
  3
ACAD_XREC_ROUNDTRIP
360
37C
  3
BUMPTILE
360
E
  3
DIFFUSETILE
360
F
  3
OPACITYTILE
360
10
  3
REFLECTIONTILE
360
11
  3
REFRACTIONTILE
360
12
  3
SPECULARTILE
360
13
  0
DICTIONARY
  5
390
330
337
100
AcDbDictionary
280
     1
281
     1
  3
ACAD_XREC_ROUNDTRIP
360
391
  0
DICTIONARY
  5
54
330
53
100
AcDbDictionary
280
     1
281
     1
  3
ACAD_ROUNDTRIP_2008_TABLESTYLE_CELLSTYLEMAP
360
379
  3
ACAD_XREC_ROUNDTRIP
360
385
  0
DICTIONARY
  5
381
330
2D
100
AcDbDictionary
280
     1
281
     1
  3
ACAD_XREC_ROUNDTRIP
360
382
  0
DICTIONARY
  5
386
330
55
100
AcDbDictionary
280
     1
281
     1
  3
ACAD_XREC_ROUNDTRIP
360
387
  0
DICTIONARY
  5
388
330
56
100
AcDbDictionary
280
     1
281
     1
  3
ACAD_XREC_ROUNDTRIP
360
389
  0
XRECORD
  5
38F
102
{ACAD_REACTORS
330
38E
102
}
330
38E
100
AcDbXrecord
280
     1
102
DISPLAYNAME
  1
Metric50
102
FLAGS
 90
        0
  0
XRECORD
  5
380
102
{ACAD_REACTORS
330
37F
102
}
330
37F
100
AcDbXrecord
280
     1
102
SHADEPLOT
 70
     0
102
SHADEPLOTRESLEVEL
 70
     2
102
SHADEPLOTCUSTOMDPI
 70
   300
  0
XRECORD
  5
37E
102
{ACAD_REACTORS
330
37D
102
}
330
37D
100
AcDbXrecord
280
     1
102
SHADEPLOT
 70
     0
102
SHADEPLOTRESLEVEL
 70
     2
102
SHADEPLOTCUSTOMDPI
 70
   300
  0
XRECORD
  5
384
102
{ACAD_REACTORS
330
44
102
}
330
44
100
AcDbXrecord
280
     1
102
MATERIAL
148
0.0
149
0.0
149
0.0
 93
        0
 94
      127
282
     0
 72
     0
 77
     0
171
     0
175
     0
179
     0
273
     0
  0
XRECORD
  5
45
102
{ACAD_REACTORS
330
44
102
}
330
44
100
AcDbXrecord
280
     1
270
     1
271
     1
  0
XRECORD
  5
46
102
{ACAD_REACTORS
330
44
102
}
330
44
100
AcDbXrecord
280
     1
270
     1
271
     1
  0
XRECORD
  5
47
102
{ACAD_REACTORS
330
44
102
}
330
44
100
AcDbXrecord
280
     1
270
     1
271
     1
  0
XRECORD
  5
48
102
{ACAD_REACTORS
330
44
102
}
330
44
100
AcDbXrecord
280
     1
270
     1
271
     1
  0
XRECORD
  5
49
102
{ACAD_REACTORS
330
44
102
}
330
44
100
AcDbXrecord
280
     1
270
     1
271
     1
  0
XRECORD
  5
4A
102
{ACAD_REACTORS
330
44
102
}
330
44
100
AcDbXrecord
280
     1
270
     1
271
     1
  0
XRECORD
  5
383
102
{ACAD_REACTORS
330
3C
102
}
330
3C
100
AcDbXrecord
280
     1
102
MATERIAL
148
0.0
149
0.0
149
0.0
 93
        0
 94
      127
282
     0
 72
     0
 77
     0
171
     0
175
     0
179
     0
273
     0
  0
XRECORD
  5
3D
102
{ACAD_REACTORS
330
3C
102
}
330
3C
100
AcDbXrecord
280
     1
270
     1
271
     1
  0
XRECORD
  5
3E
102
{ACAD_REACTORS
330
3C
102
}
330
3C
100
AcDbXrecord
280
     1
270
     1
271
     1
  0
XRECORD
  5
3F
102
{ACAD_REACTORS
330
3C
102
}
330
3C
100
AcDbXrecord
280
     1
270
     1
271
     1
  0
XRECORD
  5
40
102
{ACAD_REACTORS
330
3C
102
}
330
3C
100
AcDbXrecord
280
     1
270
     1
271
     1
  0
XRECORD
  5
41
102
{ACAD_REACTORS
330
3C
102
}
330
3C
100
AcDbXrecord
280
     1
270
     1
271
     1
  0
XRECORD
  5
42
102
{ACAD_REACTORS
330
3C
102
}
330
3C
100
AcDbXrecord
280
     1
270
     1
271
     1
  0
XRECORD
  5
37C
102
{ACAD_REACTORS
330
D
102
}
330
D
100
AcDbXrecord
280
     1
102
MATERIAL
148
0.0
149
0.0
149
0.0
 93
        0
 94
      127
282
     0
 72
     0
 77
     0
171
     0
175
     0
179
     0
273
     0
  0
XRECORD
  5
E
102
{ACAD_REACTORS
330
D
102
}
330
D
100
AcDbXrecord
280
     1
270
     1
271
     1
  0
XRECORD
  5
F
102
{ACAD_REACTORS
330
D
102
}
330
D
100
AcDbXrecord
280
     1
270
     1
271
     1
  0
XRECORD
  5
10
102
{ACAD_REACTORS
330
D
102
}
330
D
100
AcDbXrecord
280
     1
270
     1
271
     1
  0
XRECORD
  5
11
102
{ACAD_REACTORS
330
D
102
}
330
D
100
AcDbXrecord
280
     1
270
     1
271
     1
  0
XRECORD
  5
12
102
{ACAD_REACTORS
330
D
102
}
330
D
100
AcDbXrecord
280
     1
270
     1
271
     1
  0
XRECORD
  5
13
102
{ACAD_REACTORS
330
D
102
}
330
D
100
AcDbXrecord
280
     1
270
     1
271
     1
  0
XRECORD
  5
391
102
{ACAD_REACTORS
330
390
102
}
330
390
100
AcDbXrecord
280
     1
102
DISPLAYNAME
  1
Metric50
102
FLAGS
 90
        0
  0
CELLSTYLEMAP
  5
379
102
{ACAD_REACTORS
330
54
102
}
330
54
100
AcDbCellStyleMap
 90
        3
300
CELLSTYLE
  1
TABLEFORMAT_BEGIN
 90
        5
170
     1
 91
        0
 92
    32768
 62
   257
 93
        1
300
CONTENTFORMAT
  1
CONTENTFORMAT_BEGIN
 90
        0
 91
        0
 92
        4
 93
        0
300

 40
0.0
140
1.0
 94
        5
 62
     0
340
24
144
6.0
309
CONTENTFORMAT_END
171
     1
301
MARGIN
  1
CELLMARGIN_BEGIN
 40
1.5
 40
1.5
 40
1.5
 40
1.5
 40
0.18
 40
0.18
309
CELLMARGIN_END
 94
        6
 95
        1
302
GRIDFORMAT
  1
GRIDFORMAT_BEGIN
 90
        0
 91
        1
 62
     0
 92
       -2
340
0
 93
        0
 40
0.045
309
GRIDFORMAT_END
 95
        2
302
GRIDFORMAT
  1
GRIDFORMAT_BEGIN
 90
        0
 91
        1
 62
     0
 92
       -2
340
0
 93
        0
 40
0.045
309
GRIDFORMAT_END
 95
        4
302
GRIDFORMAT
  1
GRIDFORMAT_BEGIN
 90
        0
 91
        1
 62
     0
 92
       -2
340
0
 93
        0
 40
0.045
309
GRIDFORMAT_END
 95
        8
302
GRIDFORMAT
  1
GRIDFORMAT_BEGIN
 90
        0
 91
        1
 62
     0
 92
       -2
340
0
 93
        0
 40
0.045
309
GRIDFORMAT_END
 95
       16
302
GRIDFORMAT
  1
GRIDFORMAT_BEGIN
 90
        0
 91
        1
 62
     0
 92
       -2
340
0
 93
        0
 40
0.045
309
GRIDFORMAT_END
 95
       32
302
GRIDFORMAT
  1
GRIDFORMAT_BEGIN
 90
        0
 91
        1
 62
     0
 92
       -2
340
0
 93
        0
 40
0.045
309
GRIDFORMAT_END
309
TABLEFORMAT_END
  1
CELLSTYLE_BEGIN
 90
        1
 91
        1
300
_TITLE
309
CELLSTYLE_END
300
CELLSTYLE
  1
TABLEFORMAT_BEGIN
 90
        5
170
     1
 91
        0
 92
        0
 62
   257
 93
        1
300
CONTENTFORMAT
  1
CONTENTFORMAT_BEGIN
 90
        0
 91
        0
 92
        4
 93
        0
300

 40
0.0
140
1.0
 94
        5
 62
     0
340
24
144
4.5
309
CONTENTFORMAT_END
171
     1
301
MARGIN
  1
CELLMARGIN_BEGIN
 40
1.5
 40
1.5
 40
1.5
 40
1.5
 40
0.18
 40
0.18
309
CELLMARGIN_END
 94
        6
 95
        1
302
GRIDFORMAT
  1
GRIDFORMAT_BEGIN
 90
        0
 91
        1
 62
     0
 92
       -2
340
0
 93
        0
 40
0.045
309
GRIDFORMAT_END
 95
        2
302
GRIDFORMAT
  1
GRIDFORMAT_BEGIN
 90
        0
 91
        1
 62
     0
 92
       -2
340
0
 93
        0
 40
0.045
309
GRIDFORMAT_END
 95
        4
302
GRIDFORMAT
  1
GRIDFORMAT_BEGIN
 90
        0
 91
        1
 62
     0
 92
       -2
340
0
 93
        0
 40
0.045
309
GRIDFORMAT_END
 95
        8
302
GRIDFORMAT
  1
GRIDFORMAT_BEGIN
 90
        0
 91
        1
 62
     0
 92
       -2
340
0
 93
        0
 40
0.045
309
GRIDFORMAT_END
 95
       16
302
GRIDFORMAT
  1
GRIDFORMAT_BEGIN
 90
        0
 91
        1
 62
     0
 92
       -2
340
0
 93
        0
 40
0.045
309
GRIDFORMAT_END
 95
       32
302
GRIDFORMAT
  1
GRIDFORMAT_BEGIN
 90
        0
 91
        1
 62
     0
 92
       -2
340
0
 93
        0
 40
0.045
309
GRIDFORMAT_END
309
TABLEFORMAT_END
  1
CELLSTYLE_BEGIN
 90
        2
 91
        1
300
_HEADER
309
CELLSTYLE_END
300
CELLSTYLE
  1
TABLEFORMAT_BEGIN
 90
        5
170
     1
 91
        0
 92
        0
 62
   257
 93
        1
300
CONTENTFORMAT
  1
CONTENTFORMAT_BEGIN
 90
        0
 91
        0
 92
        4
 93
        0
300

 40
0.0
140
1.0
 94
        2
 62
     0
340
24
144
4.5
309
CONTENTFORMAT_END
171
     1
301
MARGIN
  1
CELLMARGIN_BEGIN
 40
1.5
 40
1.5
 40
1.5
 40
1.5
 40
0.18
 40
0.18
309
CELLMARGIN_END
 94
        6
 95
        1
302
GRIDFORMAT
  1
GRIDFORMAT_BEGIN
 90
        0
 91
        1
 62
     0
 92
       -2
340
0
 93
        0
 40
0.045
309
GRIDFORMAT_END
 95
        2
302
GRIDFORMAT
  1
GRIDFORMAT_BEGIN
 90
        0
 91
        1
 62
     0
 92
       -2
340
0
 93
        0
 40
0.045
309
GRIDFORMAT_END
 95
        4
302
GRIDFORMAT
  1
GRIDFORMAT_BEGIN
 90
        0
 91
        1
 62
     0
 92
       -2
340
0
 93
        0
 40
0.045
309
GRIDFORMAT_END
 95
        8
302
GRIDFORMAT
  1
GRIDFORMAT_BEGIN
 90
        0
 91
        1
 62
     0
 92
       -2
340
0
 93
        0
 40
0.045
309
GRIDFORMAT_END
 95
       16
302
GRIDFORMAT
  1
GRIDFORMAT_BEGIN
 90
        0
 91
        1
 62
     0
 92
       -2
340
0
 93
        0
 40
0.045
309
GRIDFORMAT_END
 95
       32
302
GRIDFORMAT
  1
GRIDFORMAT_BEGIN
 90
        0
 91
        1
 62
     0
 92
       -2
340
0
 93
        0
 40
0.045
309
GRIDFORMAT_END
309
TABLEFORMAT_END
  1
CELLSTYLE_BEGIN
 90
        3
 91
        2
300
_DATA
309
CELLSTYLE_END
  0
XRECORD
  5
385
102
{ACAD_REACTORS
330
54
102
}
330
54
100
AcDbXrecord
280
     1
102
ACAD_ROUNDTRIP_PRE2007_TABLESTYLE
 90
        4
 91
        0
  1

 92
        4
 93
        0
  2

 94
        4
 95
        0
  3

  0
XRECORD
  5
382
102
{ACAD_REACTORS
330
381
102
}
330
381
100
AcDbXrecord
280
     1
102
RTVSPost2010Prop28
280
     1
102
RTVSPost2010PropOp28
 70
     1
102
RTVSPost2010Prop29
280
     1
102
RTVSPost2010PropOp29
 70
     1
102
RTVSPost2010Prop30
280
     0
102
RTVSPost2010PropOp30
 70
     1
102
RTVSPost2010Prop31
280
     0
102
RTVSPost2010PropOp31
 70
     1
102
RTVSPost2010Prop32
280
     0
102
RTVSPost2010PropOp32
 70
     1
102
RTVSPost2010Prop33
280
     0
102
RTVSPost2010PropOp33
 70
     1
102
RTVSPost2010Prop34
280
     0
102
RTVSPost2010PropOp34
 70
     1
102
RTVSPost2010Prop35
280
     0
102
RTVSPost2010PropOp35
 70
     1
102
RTVSPost2010Prop36
280
     0
102
RTVSPost2010PropOp36
 70
     1
102
RTVSPost2010Prop37
 90
       50
102
RTVSPost2010PropOp37
 70
     1
102
RTVSPost2010Prop38
140
0.0
102
RTVSPost2010PropOp38
 70
     1
102
RTVSPost2010Prop39
140
1.0
102
RTVSPost2010PropOp39
 70
     1
102
RTVSPost2010Prop40
 90
        0
102
RTVSPost2010PropOp40
 70
     1
102
RTVSPost2010Prop41ColorIndex
 90
       18
102
RTVSPost2010Prop41ColorRGB
 90
        0
102
RTVSPost2010PropOp41
 70
     1
102
RTVSPost2010Prop42
 90
       50
102
RTVSPost2010PropOp42
 70
     1
102
RTVSPost2010Prop43
 90
        3
102
RTVSPost2010PropOp43
 70
     1
102
RTVSPost2010Prop44ColorIndex
 90
        5
102
RTVSPost2010Prop44ColorRGB
 90
      255
102
RTVSPost2010PropOp44
 70
     1
102
RTVSPost2010Prop45
280
     0
102
RTVSPost2010PropOp45
 70
     1
102
RTVSPost2010Prop46
 90
       50
102
RTVSPost2010PropOp46
 70
     1
102
RTVSPost2010Prop47
 90
       50
102
RTVSPost2010PropOp47
 70
     1
102
RTVSPost2010Prop48
 90
       50
102
RTVSPost2010PropOp48
 70
     1
102
RTVSPost2010Prop49
280
     0
102
RTVSPost2010PropOp49
 70
     1
102
RTVSPost2010Prop50
 90
       50
102
RTVSPost2010PropOp50
 70
     1
102
RTVSPost2010Prop51ColorIndex
 90
      256
102
RTVSPost2010Prop51ColorRGB
 90
-16777216
102
RTVSPost2010PropOp51
 70
     0
102
RTVSPost2010Prop52
140
1.0
102
RTVSPost2010PropOp52
 70
     0
102
RTVSPost2010Prop53
 90
        2
102
RTVSPost2010PropOp53
 70
     1
102
RTVSPost2010Prop54
  1
strokes_ogs.tif
102
RTVSPost2010PropOp54
 70
     1
102
RTVSPost2010Prop55
280
     0
102
RTVSPost2010PropOp55
 70
     1
102
RTVSPost2010Prop56
140
1.0
102
RTVSPost2010PropOp56
 70
     1
102
RTVSPost2010Prop57
140
1.0
102
RTVSPost2010PropOp57
 70
     1
102
RTVSPropertyOp0
 70
     1
102
RTVSPropertyOp1
 70
     1
102
RTVSPropertyOp2
 70
     1
102
RTVSPropertyOp3
 70
     1
102
RTVSPropertyOp4
 70
     1
102
RTVSPropertyOp5
 70
     1
102
RTVSPropertyOp6
 70
     1
102
RTVSPropertyOp7
 70
     1
102
RTVSPropertyOp8
 70
     1
102
RTVSPropertyOp9
 70
     1
102
RTVSPropertyOp10
 70
     1
102
RTVSPropertyOp11
 70
     1
102
RTVSPropertyOp12
 70
     1
102
RTVSPropertyOp13
 70
     1
102
RTVSPropertyOp14
 70
     1
102
RTVSPropertyOp15
 70
     1
102
RTVSPropertyOp16
 70
     1
102
RTVSPropertyOp17
 70
     1
102
RTVSPropertyOp18
 70
     1
102
RTVSPropertyOp19
 70
     1
102
RTVSPropertyOp20
 70
     1
102
RTVSPropertyOp21
 70
     1
102
RTVSPropertyOp22
 70
     1
102
RTVSPropertyOp23
 70
     1
102
RTVSPropertyOp24
 70
     1
102
RTVSPropertyOp25
 70
     1
102
RTVSPropertyOp26
 70
     1
102
RTVSPropertyOp27
 70
     1
102
RTVSPropertyOp28
 70
     1
102
RTVSPropertyOp29
 70
     1
102
RTVSPropertyOp30
 70
     1
102
RTVSPropertyOp31
 70
     1
102
RTVSPropertyOp32
 70
     1
102
RTVSPropertyOp33
 70
     1
102
RTVSPropertyOp34
 70
     1
102
RTVSPropertyOp35
 70
     1
102
RTVSPropertyOp36
 70
     1
102
RTVSPropertyOp37
 70
     1
102
RTVSPropertyOp38
 70
     1
102
RTVSPropertyOp39
 70
     1
102
RTVSPropertyOp40
 70
     1
102
RTVSPropertyOp41
 70
     1
102
RTVSPropertyOp42
 70
     1
102
RTVSPropertyOp43
 70
     1
102
RTVSPropertyOp44
 70
     1
102
RTVSPropertyOp45
 70
     1
102
RTVSPropertyOp46
 70
     1
102
RTVSPropertyOp47
 70
     1
102
RTVSPropertyOp48
 70
     1
102
RTVSPropertyOp49
 70
     1
102
RTVSPropertyOp50
 70
     1
102
RTVSPropertyOp51
 70
     0
102
RTVSPropertyOp52
 70
     0
102
RTVSPropertyOp53
 70
     1
102
RTVSPropertyOp54
 70
     1
102
RTVSPropertyOp55
 70
     1
102
RTVSPropertyOp56
 70
     1
102
RTVSPropertyOp57
 70
     1
102
RTVSPropertyOp58
 70
     1
102
RTVSPropertyOp59
 70
     1
102
RTVSPropertyOp60
 70
     1
102
RTVSPropertyOp61
 70
     1
102
RTVSPropertyOp62
 70
     1
  0
XRECORD
  5
387
102
{ACAD_REACTORS
330
386
102
}
330
386
100
AcDbXrecord
280
     1
102
RTVSPost2010Prop28
280
     0
102
RTVSPost2010PropOp28
 70
     1
102
RTVSPost2010Prop29
280
     1
102
RTVSPost2010PropOp29
 70
     1
102
RTVSPost2010Prop30
280
     1
102
RTVSPost2010PropOp30
 70
     1
102
RTVSPost2010Prop31
280
     0
102
RTVSPost2010PropOp31
 70
     1
102
RTVSPost2010Prop32
280
     0
102
RTVSPost2010PropOp32
 70
     1
102
RTVSPost2010Prop33
280
     0
102
RTVSPost2010PropOp33
 70
     1
102
RTVSPost2010Prop34
280
     0
102
RTVSPost2010PropOp34
 70
     1
102
RTVSPost2010Prop35
280
     0
102
RTVSPost2010PropOp35
 70
     1
102
RTVSPost2010Prop36
280
     0
102
RTVSPost2010PropOp36
 70
     1
102
RTVSPost2010Prop37
 90
       50
102
RTVSPost2010PropOp37
 70
     1
102
RTVSPost2010Prop38
140
0.0
102
RTVSPost2010PropOp38
 70
     1
102
RTVSPost2010Prop39
140
1.0
102
RTVSPost2010PropOp39
 70
     1
102
RTVSPost2010Prop40
 90
        0
102
RTVSPost2010PropOp40
 70
     1
102
RTVSPost2010Prop41ColorIndex
 90
       18
102
RTVSPost2010Prop41ColorRGB
 90
        0
102
RTVSPost2010PropOp41
 70
     1
102
RTVSPost2010Prop42
 90
       50
102
RTVSPost2010PropOp42
 70
     1
102
RTVSPost2010Prop43
 90
        3
102
RTVSPost2010PropOp43
 70
     1
102
RTVSPost2010Prop44ColorIndex
 90
        5
102
RTVSPost2010Prop44ColorRGB
 90
      255
102
RTVSPost2010PropOp44
 70
     1
102
RTVSPost2010Prop45
280
     0
102
RTVSPost2010PropOp45
 70
     1
102
RTVSPost2010Prop46
 90
       50
102
RTVSPost2010PropOp46
 70
     1
102
RTVSPost2010Prop47
 90
       50
102
RTVSPost2010PropOp47
 70
     1
102
RTVSPost2010Prop48
 90
       50
102
RTVSPost2010PropOp48
 70
     1
102
RTVSPost2010Prop49
280
     0
102
RTVSPost2010PropOp49
 70
     1
102
RTVSPost2010Prop50
 90
       50
102
RTVSPost2010PropOp50
 70
     1
102
RTVSPost2010Prop51ColorIndex
 90
      256
102
RTVSPost2010Prop51ColorRGB
 90
-16777216
102
RTVSPost2010PropOp51
 70
     0
102
RTVSPost2010Prop52
140
1.0
102
RTVSPost2010PropOp52
 70
     0
102
RTVSPost2010Prop53
 90
        2
102
RTVSPost2010PropOp53
 70
     1
102
RTVSPost2010Prop54
  1
strokes_ogs.tif
102
RTVSPost2010PropOp54
 70
     1
102
RTVSPost2010Prop55
280
     0
102
RTVSPost2010PropOp55
 70
     1
102
RTVSPost2010Prop56
140
1.0
102
RTVSPost2010PropOp56
 70
     1
102
RTVSPost2010Prop57
140
1.0
102
RTVSPost2010PropOp57
 70
     1
102
RTVSPropertyOp0
 70
     1
102
RTVSPropertyOp1
 70
     1
102
RTVSPropertyOp2
 70
     1
102
RTVSPropertyOp3
 70
     1
102
RTVSPropertyOp4
 70
     1
102
RTVSPropertyOp5
 70
     1
102
RTVSPropertyOp6
 70
     1
102
RTVSPropertyOp7
 70
     1
102
RTVSPropertyOp8
 70
     1
102
RTVSPropertyOp9
 70
     1
102
RTVSPropertyOp10
 70
     1
102
RTVSPropertyOp11
 70
     1
102
RTVSPropertyOp12
 70
     1
102
RTVSPropertyOp13
 70
     1
102
RTVSPropertyOp14
 70
     1
102
RTVSPropertyOp15
 70
     1
102
RTVSPropertyOp16
 70
     1
102
RTVSPropertyOp17
 70
     1
102
RTVSPropertyOp18
 70
     1
102
RTVSPropertyOp19
 70
     1
102
RTVSPropertyOp20
 70
     1
102
RTVSPropertyOp21
 70
     1
102
RTVSPropertyOp22
 70
     1
102
RTVSPropertyOp23
 70
     1
102
RTVSPropertyOp24
 70
     1
102
RTVSPropertyOp25
 70
     1
102
RTVSPropertyOp26
 70
     1
102
RTVSPropertyOp27
 70
     1
102
RTVSPropertyOp28
 70
     1
102
RTVSPropertyOp29
 70
     1
102
RTVSPropertyOp30
 70
     1
102
RTVSPropertyOp31
 70
     1
102
RTVSPropertyOp32
 70
     1
102
RTVSPropertyOp33
 70
     1
102
RTVSPropertyOp34
 70
     1
102
RTVSPropertyOp35
 70
     1
102
RTVSPropertyOp36
 70
     1
102
RTVSPropertyOp37
 70
     1
102
RTVSPropertyOp38
 70
     1
102
RTVSPropertyOp39
 70
     1
102
RTVSPropertyOp40
 70
     1
102
RTVSPropertyOp41
 70
     1
102
RTVSPropertyOp42
 70
     1
102
RTVSPropertyOp43
 70
     1
102
RTVSPropertyOp44
 70
     1
102
RTVSPropertyOp45
 70
     1
102
RTVSPropertyOp46
 70
     1
102
RTVSPropertyOp47
 70
     1
102
RTVSPropertyOp48
 70
     1
102
RTVSPropertyOp49
 70
     1
102
RTVSPropertyOp50
 70
     1
102
RTVSPropertyOp51
 70
     0
102
RTVSPropertyOp52
 70
     0
102
RTVSPropertyOp53
 70
     1
102
RTVSPropertyOp54
 70
     1
102
RTVSPropertyOp55
 70
     1
102
RTVSPropertyOp56
 70
     1
102
RTVSPropertyOp57
 70
     1
102
RTVSPropertyOp58
 70
     1
102
RTVSPropertyOp59
 70
     1
102
RTVSPropertyOp60
 70
     1
102
RTVSPropertyOp61
 70
     1
102
RTVSPropertyOp62
 70
     1
  0
XRECORD
  5
389
102
{ACAD_REACTORS
330
388
102
}
330
388
100
AcDbXrecord
280
     1
102
RTVSPost2010Prop28
280
     0
102
RTVSPost2010PropOp28
 70
     1
102
RTVSPost2010Prop29
280
     1
102
RTVSPost2010PropOp29
 70
     1
102
RTVSPost2010Prop30
280
     1
102
RTVSPost2010PropOp30
 70
     1
102
RTVSPost2010Prop31
280
     0
102
RTVSPost2010PropOp31
 70
     1
102
RTVSPost2010Prop32
280
     0
102
RTVSPost2010PropOp32
 70
     1
102
RTVSPost2010Prop33
280
     0
102
RTVSPost2010PropOp33
 70
     1
102
RTVSPost2010Prop34
280
     0
102
RTVSPost2010PropOp34
 70
     1
102
RTVSPost2010Prop35
280
     0
102
RTVSPost2010PropOp35
 70
     1
102
RTVSPost2010Prop36
280
     0
102
RTVSPost2010PropOp36
 70
     1
102
RTVSPost2010Prop37
 90
       50
102
RTVSPost2010PropOp37
 70
     1
102
RTVSPost2010Prop38
140
0.0
102
RTVSPost2010PropOp38
 70
     1
102
RTVSPost2010Prop39
140
1.0
102
RTVSPost2010PropOp39
 70
     1
102
RTVSPost2010Prop40
 90
        0
102
RTVSPost2010PropOp40
 70
     1
102
RTVSPost2010Prop41ColorIndex
 90
       18
102
RTVSPost2010Prop41ColorRGB
 90
        0
102
RTVSPost2010PropOp41
 70
     1
102
RTVSPost2010Prop42
 90
       50
102
RTVSPost2010PropOp42
 70
     1
102
RTVSPost2010Prop43
 90
        3
102
RTVSPost2010PropOp43
 70
     1
102
RTVSPost2010Prop44ColorIndex
 90
        5
102
RTVSPost2010Prop44ColorRGB
 90
      255
102
RTVSPost2010PropOp44
 70
     1
102
RTVSPost2010Prop45
280
     0
102
RTVSPost2010PropOp45
 70
     1
102
RTVSPost2010Prop46
 90
       50
102
RTVSPost2010PropOp46
 70
     1
102
RTVSPost2010Prop47
 90
       50
102
RTVSPost2010PropOp47
 70
     1
102
RTVSPost2010Prop48
 90
       50
102
RTVSPost2010PropOp48
 70
     1
102
RTVSPost2010Prop49
280
     0
102
RTVSPost2010PropOp49
 70
     1
102
RTVSPost2010Prop50
 90
       50
102
RTVSPost2010PropOp50
 70
     1
102
RTVSPost2010Prop51ColorIndex
 90
      256
102
RTVSPost2010Prop51ColorRGB
 90
-16777216
102
RTVSPost2010PropOp51
 70
     0
102
RTVSPost2010Prop52
140
1.0
102
RTVSPost2010PropOp52
 70
     0
102
RTVSPost2010Prop53
 90
        2
102
RTVSPost2010PropOp53
 70
     1
102
RTVSPost2010Prop54
  1
strokes_ogs.tif
102
RTVSPost2010PropOp54
 70
     1
102
RTVSPost2010Prop55
280
     0
102
RTVSPost2010PropOp55
 70
     1
102
RTVSPost2010Prop56
140
1.0
102
RTVSPost2010PropOp56
 70
     1
102
RTVSPost2010Prop57
140
1.0
102
RTVSPost2010PropOp57
 70
     1
102
RTVSPropertyOp0
 70
     1
102
RTVSPropertyOp1
 70
     1
102
RTVSPropertyOp2
 70
     1
102
RTVSPropertyOp3
 70
     1
102
RTVSPropertyOp4
 70
     1
102
RTVSPropertyOp5
 70
     1
102
RTVSPropertyOp6
 70
     1
102
RTVSPropertyOp7
 70
     1
102
RTVSPropertyOp8
 70
     1
102
RTVSPropertyOp9
 70
     1
102
RTVSPropertyOp10
 70
     1
102
RTVSPropertyOp11
 70
     1
102
RTVSPropertyOp12
 70
     1
102
RTVSPropertyOp13
 70
     1
102
RTVSPropertyOp14
 70
     1
102
RTVSPropertyOp15
 70
     1
102
RTVSPropertyOp16
 70
     1
102
RTVSPropertyOp17
 70
     1
102
RTVSPropertyOp18
 70
     1
102
RTVSPropertyOp19
 70
     1
102
RTVSPropertyOp20
 70
     1
102
RTVSPropertyOp21
 70
     1
102
RTVSPropertyOp22
 70
     1
102
RTVSPropertyOp23
 70
     1
102
RTVSPropertyOp24
 70
     1
102
RTVSPropertyOp25
 70
     1
102
RTVSPropertyOp26
 70
     1
102
RTVSPropertyOp27
 70
     1
102
RTVSPropertyOp28
 70
     1
102
RTVSPropertyOp29
 70
     1
102
RTVSPropertyOp30
 70
     1
102
RTVSPropertyOp31
 70
     1
102
RTVSPropertyOp32
 70
     1
102
RTVSPropertyOp33
 70
     1
102
RTVSPropertyOp34
 70
     1
102
RTVSPropertyOp35
 70
     1
102
RTVSPropertyOp36
 70
     1
102
RTVSPropertyOp37
 70
     1
102
RTVSPropertyOp38
 70
     1
102
RTVSPropertyOp39
 70
     1
102
RTVSPropertyOp40
 70
     1
102
RTVSPropertyOp41
 70
     1
102
RTVSPropertyOp42
 70
     1
102
RTVSPropertyOp43
 70
     1
102
RTVSPropertyOp44
 70
     1
102
RTVSPropertyOp45
 70
     1
102
RTVSPropertyOp46
 70
     1
102
RTVSPropertyOp47
 70
     1
102
RTVSPropertyOp48
 70
     1
102
RTVSPropertyOp49
 70
     1
102
RTVSPropertyOp50
 70
     1
102
RTVSPropertyOp51
 70
     0
102
RTVSPropertyOp52
 70
     0
102
RTVSPropertyOp53
 70
     1
102
RTVSPropertyOp54
 70
     1
102
RTVSPropertyOp55
 70
     1
102
RTVSPropertyOp56
 70
     1
102
RTVSPropertyOp57
 70
     1
102
RTVSPropertyOp58
 70
     1
102
RTVSPropertyOp59
 70
     1
102
RTVSPropertyOp60
 70
     1
102
RTVSPropertyOp61
 70
     1
102
RTVSPropertyOp62
 70
     1
  0
ENDSEC
  0
EOF
