  0
SECTION
  2
HEADER
  9
$ACADVER
  1
AC1015
  9
$ACADMAINTVER
 70
    20
  9
$DWGCODEPAGE
  3
ANSI_1252
  9
$INSBASE
 10
0.0
 20
0.0
 30
0.0
  9
$EXTMIN
 10
-13.85151212758778
 20
3.683266408715758
 30
0.0
  9
$EXTMAX
 10
586.0192104094453
 20
475.0487126458473
 30
0.0
  9
$LIMMIN
 10
0.0
 20
0.0
  9
$LIMMAX
 10
600.0
 20
700.0
  9
$ORTHOMODE
 70
     1
  9
$REGENMODE
 70
     1
  9
$FILLMODE
 70
     1
  9
$QTEXTMODE
 70
     0
  9
$MIRRTEXT
 70
     1
  9
$LTSCALE
 40
1.0
  9
$ATTMODE
 70
     1
  9
$TEXTSIZE
 40
10.0
  9
$TRACEWID
 40
0.05
  9
$TEXTSTYLE
  7
ARIAL-STANDARD
  9
$CLAYER
  8
BEMASSUNG
  9
$CELTYPE
  6
BYLAYER
  9
$CECOLOR
 62
   256
  9
$CELTSCALE
 40
1.0
  9
$DISPSILH
 70
     0
  9
$DIMSCALE
 40
1.0
  9
$DIMASZ
 40
3.5
  9
$DIMEXO
 40
1.0
  9
$DIMDLI
 40
0.0
  9
$DIMRND
 40
0.0
  9
$DIMDLE
 40
0.0
  9
$DIMEXE
 40
1.0
  9
$DIMTP
 40
0.0
  9
$DIMTM
 40
0.0
  9
$DIMTXT
 40
3.5
  9
$DIMCEN
 40
1.5
  9
$DIMTSZ
 40
0.0
  9
$DIMTOL
 70
     0
  9
$DIMLIM
 70
     0
  9
$DIMTIH
 70
     0
  9
$DIMTOH
 70
     0
  9
$DIMSE1
 70
     0
  9
$DIMSE2
 70
     0
  9
$DIMTAD
 70
     1
  9
$DIMZIN
 70
     8
  9
$DIMBLK
  1

  9
$DIMASO
 70
     1
  9
$DIMSHO
 70
     1
  9
$DIMPOST
  1

  9
$DIMAPOST
  1

  9
$DIMALT
 70
     0
  9
$DIMALTD
 70
     2
  9
$DIMALTF
 40
25.4
  9
$DIMLFAC
 40
1.0
  9
$DIMTOFL
 70
     1
  9
$DIMTVP
 40
0.0
  9
$DIMTIX
 70
     1
  9
$DIMSOXD
 70
     0
  9
$DIMSAH
 70
     0
  9
$DIMBLK1
  1

  9
$DIMBLK2
  1

  9
$DIMSTYLE
  2
NORMAL
  9
$DIMCLRD
 70
   256
  9
$DIMCLRE
 70
   256
  9
$DIMCLRT
 70
     3
  9
$DIMTFAC
 40
1.0
  9
$DIMGAP
 40
1.0
  9
$DIMJUST
 70
     0
  9
$DIMSD1
 70
     0
  9
$DIMSD2
 70
     0
  9
$DIMTOLJ
 70
     1
  9
$DIMTZIN
 70
     8
  9
$DIMALTZ
 70
     0
  9
$DIMALTTZ
 70
     0
  9
$DIMUPT
 70
     0
  9
$DIMDEC
 70
     2
  9
$DIMTDEC
 70
     2
  9
$DIMALTU
 70
     2
  9
$DIMALTTD
 70
     2
  9
$DIMTXSTY
  7
ARIAL-STANDARD
  9
$DIMAUNIT
 70
     0
  9
$DIMADEC
 70
     0
  9
$DIMALTRND
 40
0.0
  9
$DIMAZIN
 70
     0
  9
$DIMDSEP
 70
    46
  9
$DIMATFIT
 70
     3
  9
$DIMFRAC
 70
     0
  9
$DIMLDRBLK
  1

  9
$DIMLUNIT
 70
     2
  9
$DIMLWD
 70
    -2
  9
$DIMLWE
 70
    -2
  9
$DIMTMOVE
 70
     2
  9
$LUNITS
 70
     2
  9
$LUPREC
 70
     4
  9
$SKETCHINC
 40
0.1
  9
$FILLETRAD
 40
0.0
  9
$AUNITS
 70
     0
  9
$AUPREC
 70
     0
  9
$MENU
  1
.
  9
$ELEVATION
 40
0.0
  9
$PELEVATION
 40
0.0
  9
$THICKNESS
 40
0.0
  9
$LIMCHECK
 70
     0
  9
$CHAMFERA
 40
0.5
  9
$CHAMFERB
 40
0.5
  9
$CHAMFERC
 40
1.0
  9
$CHAMFERD
 40
0.0
  9
$SKPOLY
 70
     0
  9
$TDCREATE
 40
2451247.394468669
  9
$TDUCREATE
 40
2451247.311135336
  9
$TDUPDATE
 40
2455236.468793067
  9
$TDUUPDATE
 40
2455236.385459734
  9
$TDINDWG
 40
0.2226103935
  9
$TDUSRTIMER
 40
0.2226103935
  9
$USRTIMER
 70
     1
  9
$ANGBASE
 50
0.0
  9
$ANGDIR
 70
     0
  9
$PDMODE
 70
     0
  9
$PDSIZE
 40
0.0
  9
$PLINEWID
 40
0.0
  9
$SPLFRAME
 70
     0
  9
$SPLINETYPE
 70
     6
  9
$SPLINESEGS
 70
     8
  9
$HANDSEED
  5
814
  9
$SURFTAB1
 70
     6
  9
$SURFTAB2
 70
     6
  9
$SURFTYPE
 70
     6
  9
$SURFU
 70
     6
  9
$SURFV
 70
     6
  9
$UCSBASE
  2

  9
$UCSNAME
  2

  9
$UCSORG
 10
0.0
 20
0.0
 30
0.0
  9
$UCSXDIR
 10
1.0
 20
0.0
 30
0.0
  9
$UCSYDIR
 10
0.0
 20
1.0
 30
0.0
  9
$UCSORTHOREF
  2

  9
$UCSORTHOVIEW
 70
     0
  9
$UCSORGTOP
 10
0.0
 20
0.0
 30
0.0
  9
$UCSORGBOTTOM
 10
0.0
 20
0.0
 30
0.0
  9
$UCSORGLEFT
 10
0.0
 20
0.0
 30
0.0
  9
$UCSORGRIGHT
 10
0.0
 20
0.0
 30
0.0
  9
$UCSORGFRONT
 10
0.0
 20
0.0
 30
0.0
  9
$UCSORGBACK
 10
0.0
 20
0.0
 30
0.0
  9
$PUCSBASE
  2

  9
$PUCSNAME
  2

  9
$PUCSORG
 10
0.0
 20
0.0
 30
0.0
  9
$PUCSXDIR
 10
1.0
 20
0.0
 30
0.0
  9
$PUCSYDIR
 10
0.0
 20
1.0
 30
0.0
  9
$PUCSORTHOREF
  2

  9
$PUCSORTHOVIEW
 70
     0
  9
$PUCSORGTOP
 10
0.0
 20
0.0
 30
0.0
  9
$PUCSORGBOTTOM
 10
0.0
 20
0.0
 30
0.0
  9
$PUCSORGLEFT
 10
0.0
 20
0.0
 30
0.0
  9
$PUCSORGRIGHT
 10
0.0
 20
0.0
 30
0.0
  9
$PUCSORGFRONT
 10
0.0
 20
0.0
 30
0.0
  9
$PUCSORGBACK
 10
0.0
 20
0.0
 30
0.0
  9
$USERI1
 70
     0
  9
$USERI2
 70
     0
  9
$USERI3
 70
     0
  9
$USERI4
 70
     0
  9
$USERI5
 70
     0
  9
$USERR1
 40
0.0
  9
$USERR2
 40
0.0
  9
$USERR3
 40
0.0
  9
$USERR4
 40
0.0
  9
$USERR5
 40
0.0
  9
$WORLDVIEW
 70
     1
  9
$SHADEDGE
 70
     3
  9
$SHADEDIF
 70
    70
  9
$TILEMODE
 70
     1
  9
$MAXACTVP
 70
    48
  9
$PINSBASE
 10
0.0
 20
0.0
 30
0.0
  9
$PLIMCHECK
 70
     0
  9
$PEXTMIN
 10
1.000000000000000E+20
 20
1.000000000000000E+20
 30
1.000000000000000E+20
  9
$PEXTMAX
 10
-1.000000000000000E+20
 20
-1.000000000000000E+20
 30
-1.000000000000000E+20
  9
$PLIMMIN
 10
0.0
 20
0.0
  9
$PLIMMAX
 10
12.0
 20
9.0
  9
$UNITMODE
 70
     0
  9
$VISRETAIN
 70
     1
  9
$PLINEGEN
 70
     0
  9
$PSLTSCALE
 70
     1
  9
$TREEDEPTH
 70
  3020
  9
$CMLSTYLE
  2
STANDARD
  9
$CMLJUST
 70
     0
  9
$CMLSCALE
 40
1.0
  9
$PROXYGRAPHICS
 70
     1
  9
$MEASUREMENT
 70
     1
  9
$CELWEIGHT
370
    -1
  9
$ENDCAPS
280
     0
  9
$JOINSTYLE
280
     0
  9
$LWDISPLAY
290
     0
  9
$INSUNITS
 70
     0
  9
$HYPERLINKBASE
  1

  9
$STYLESHEET
  1

  9
$XEDIT
290
     1
  9
$CEPSNTYPE
380
     0
  9
$PSTYLEMODE
290
     1
  9
$FINGERPRINTGUID
  2
{BBA0051A-1EB6-4FD0-ACE0-DAAB073ED18C}
  9
$VERSIONGUID
  2
{D8E43784-484E-4271-89D1-96ACCB6CF910}
  9
$EXTNAMES
290
     1
  9
$PSVPSCALE
 40
0.0
  9
$OLESTARTUP
290
     0
  0
ENDSEC
  0
SECTION
  2
CLASSES
  0
CLASS
  1
ACDBDICTIONARYWDFLT
  2
AcDbDictionaryWithDefault
  3
ObjectDBX Classes
 90
        0
280
     0
281
     0
  0
CLASS
  1
TABLESTYLE
  2
AcDbTableStyle
  3
ObjectDBX Classes
 90
     4095
280
     0
281
     0
  0
CLASS
  1
ACME_DOCUMENT
  2
AcMeDbDoc
  3
AcMeServices
 90
    33792
280
     0
281
     0
  0
CLASS
  1
AMGSETTINGSOBJ
  2
AmgSettingsObj
  3
"AcadM|Product Description: AutoCAD Mechanical|Company: Autodesk, Inc."
 90
     1024
280
     0
281
     0
  0
CLASS
  1
ACMESCOPE
  2
AcMeScope
  3
AcMeServices
 90
     1024
280
     0
281
     0
  0
CLASS
  1
ACMECOMMANDHISTORY
  2
AcMeCommandHistory
  3
AcMeServices
 90
    33792
280
     0
281
     0
  0
CLASS
  1
ACIMSYSVARMAN
  2
AcImSysVarManager
  3
AcMeServices
 90
     1024
280
     0
281
     0
  0
CLASS
  1
ACIMINTSYSVAR
  2
AcImIntSysVar
  3
AcMeServices
 90
     1024
280
     0
281
     0
  0
CLASS
  1
ACMEDRAWINGMAN
  2
AcMeDrawingMan
  3
AcMeServices
 90
    33792
280
     0
281
     0
  0
CLASS
  1
ACMEVIEW
  2
AcMeView
  3
AcMeServices
 90
    33792
280
     0
281
     0
  0
CLASS
  1
ACDBENTITYCACHE
  2
AcMeEntityCache
  3
AcMeServices
 90
    33792
280
     0
281
     0
  0
CLASS
  1
GSMANAGER
  2
AcMeGSManager
  3
AcMeServices
 90
    33792
280
     1
281
     0
  0
CLASS
  1
AMDTINTERNALREACTOR
  2
AmdtInternalReactor
  3
AcMeServices
 90
     1024
280
     0
281
     0
  0
CLASS
  1
ACMESTATEMGR
  2
AcMeStateMgr
  3
AcMeServices
 90
     1024
280
     0
281
     0
  0
CLASS
  1
ACGREFMASTER
  2
AcGrefMaster
  3
AcAttribServices
 90
     1024
280
     0
281
     0
  0
CLASS
  1
AM_DRAWING_MGR
  2
AcDmDwgMgr
  3
AcMechDwgViewMgmt
 90
     1024
280
     0
281
     0
  0
CLASS
  1
AM_DWG_DOCUMENT
  2
AcDmDwgDocument
  3
AcMechDwgViewMgmt
 90
     1024
280
     0
281
     0
  0
CLASS
  1
AM_DWG_SHEET
  2
AcDmSheet
  3
AcMechDwgViewMgmt
 90
     1024
280
     0
281
     0
  0
CLASS
  1
AM_VIEWDIMPARMAP
  2
AcDmViewDimParMap
  3
AcMechDwgViewMgmt
 90
     1024
280
     0
281
     0
  0
CLASS
  1
ACIMREALSYSVAR
  2
AcImRealSysVar
  3
AcMeServices
 90
     1024
280
     0
281
     0
  0
CLASS
  1
AM_DWGMGR_NAME
  2
AcDmDwgMgrName
  3
AcMechDwgViewMgmt
 90
     1024
280
     0
281
     0
  0
CLASS
  1
ACME_DATABASE
  2
AcMeDbDatabase
  3
AcMeServices
 90
    33792
280
     0
281
     0
  0
CLASS
  1
ACRFINSADJUSTERMGR
  2
AcRfInsAdjusterMgr
  3
AcMeServices
 90
    33792
280
     0
281
     0
  0
CLASS
  1
ACGREFACADMASTER
  2
AcGrefacadMaster
  3
AcGrefServices
 90
    33792
280
     0
281
     0
  0
CLASS
  1
AMDTMENUSTATEMGR
  2
AmdtMenuStateMgr
  3
McadcomServices
 90
    33792
280
     0
281
     0
  0
CLASS
  1
AMDTMCOMMENUSTATE
  2
AmdtMcomMenuState
  3
McadcomServices
 90
    33792
280
     0
281
     0
  0
CLASS
  1
AMIMASTER
  2
AmiMaster
  3
AmiServices
 90
    33792
280
     0
281
     0
  0
CLASS
  1
MAPIAMMOUDLE
  2
MApiAmModule
  3
MApiAmServices
 90
    33792
280
     0
281
     0
  0
CLASS
  1
ACIMSTRSYSVAR
  2
AcImStrSysVar
  3
AcMeServices
 90
     1024
280
     0
281
     0
  0
CLASS
  1
AMDTADMENUSTATE
  2
AmdtAdMenuState
  3
DesignerServices
 90
    33792
280
     1
281
     0
  0
CLASS
  1
ADAPPL
  2
AcAdAppl
  3
DesignerAssemblies
 90
    33792
280
     0
281
     0
  0
CLASS
  1
DEPMGR
  2
AcAdDepMgr
  3
DesignerAssemblies
 90
    33792
280
     0
281
     0
  0
CLASS
  1
PARAMMGR
  2
AcAdParamMgr
  3
DesignerAssemblies
 90
    33792
280
     0
281
     0
  0
CLASS
  1
PARAMSCOPE
  2
AcAdParamScope
  3
DesignerAssemblies
 90
    33792
280
     0
281
     0
  0
CLASS
  1
NAMEDAPPL
  2
AcAdNamedAppl
  3
DesignerAssemblies
 90
    33792
280
     0
281
     0
  0
CLASS
  1
AMDTDMMENUSTATE
  2
AmdtDmMenuState
  3
AcMechDwgViewMgmt
 90
    33792
280
     0
281
     0
  0
CLASS
  1
AMDTAMMENUSTATE
  2
AmdtAmMenuState
  3
DesignerAssemblies
 90
    33792
280
     0
281
     0
  0
CLASS
  1
ACAMPROJECT
  2
AcAmProject
  3
DesignerAssemblies
 90
    33792
280
     0
281
     0
  0
CLASS
  1
ACAMGRCOMPDEF
  2
AcAmGrCompDef
  3
DesignerAssemblies
 90
    33792
280
     0
281
     0
  0
CLASS
  1
ACCMCONTEXT
  2
AcCmContext
  3
DesignerAssemblies
 90
    33792
280
     0
281
     0
  0
CLASS
  1
ACAMCOMPDEF
  2
AcAmCompDef
  3
DesignerAssemblies
 90
    33792
280
     0
281
     0
  0
CLASS
  1
ACAMCOMPDEFMGR
  2
AcAmCompDefMgr
  3
DesignerAssemblies
 90
    33792
280
     0
281
     0
  0
CLASS
  1
AMCONTEXTMGR
  2
AcAmContextMgr
  3
DesignerAssemblies
 90
    33792
280
     0
281
     0
  0
CLASS
  1
ACAMCONTEXTMODELER
  2
AcAmContextModeler
  3
DesignerAssemblies
 90
    33792
280
     0
281
     0
  0
CLASS
  1
ACMDATADICTIONARY
  2
AcmDataDictionary
  3
"AcmSymBB|Product Description: AutoCAD Mechanical|Company: Autodesk, Inc."
 90
    33792
280
     0
281
     0
  0
CLASS
  1
CATALOGSTATE
  2
AcAmCatalogState
  3
DesignerAssemblies
 90
    33792
280
     0
281
     0
  0
CLASS
  1
ACAMGRCOMPDEFSET
  2
AcAmGrCompDefSet
  3
DesignerAssemblies
 90
    33792
280
     0
281
     0
  0
CLASS
  1
AMDTBROWSERDBTAB
  2
AmdtBrowserDbTab
  3
McadcomServices
 90
    33792
280
     0
281
     0
  0
CLASS
  1
CBROWSERAPPOBJECT
  2
CBrowserAppObject
  3
McadcomServices
 90
    33792
280
     0
281
     0
  0
CLASS
  1
DM_PLACEHOLDER
  2
AcDmSelsetPlaceholder
  3
AcMechDwgViewMgmt
 90
    33792
280
     0
281
     0
  0
CLASS
  1
ACMSTANDARDDIN
  2
AcmStandardDIN
  3
"Amdt_StdImp|Product Description: AutoCAD Mechanical|Company: Autodesk, Inc."
 90
     1024
280
     0
281
     0
  0
CLASS
  1
AMGOBJPROPCFG
  2
AmgObjPropCfg
  3
"AmgLay|Product Description: AutoCAD Mechanical|Company: Autodesk, Inc."
 90
     1025
280
     0
281
     0
  0
CLASS
  1
AMDTEDGESTANDARDDIN13715
  2
AmdtEdgeStdDIN13715
  3
"Amdt_StdImp|Product Description: AutoCAD Mechanical|Company: Autodesk, Inc."
 90
     1024
280
     0
281
     0
  0
CLASS
  1
ACMSURFSTANDARDDIN
  2
AcmSurfTextStdDIN
  3
"Amdt_StdImp|Product Description: AutoCAD Mechanical|Company: Autodesk, Inc."
 90
     1024
280
     0
281
     0
  0
CLASS
  1
ACMFCFSTANDARDDIN
  2
AcmFCFStdDIN
  3
"Amdt_StdImp|Product Description: AutoCAD Mechanical|Company: Autodesk, Inc."
 90
     1024
280
     0
281
     0
  0
CLASS
  1
ACMWELDSTANDARDDIN
  2
AcmWeldingStdDIN
  3
"Amdt_StdImp|Product Description: AutoCAD Mechanical|Company: Autodesk, Inc."
 90
     1024
280
     0
281
     0
  0
CLASS
  1
ACMIDSTANDARDDIN
  2
AcmIdStdDIN
  3
"Amdt_StdImp|Product Description: AutoCAD Mechanical|Company: Autodesk, Inc."
 90
     1024
280
     0
281
     0
  0
CLASS
  1
ACMDATUMSTANDARDDIN
  2
AcmDatumStdDIN
  3
"Amdt_StdImp|Product Description: AutoCAD Mechanical|Company: Autodesk, Inc."
 90
     1024
280
     0
281
     0
  0
CLASS
  1
ACMBOMSTANDARDDIN
  2
AcmBOMStdDIN
  3
"Amdt_StdImp|Product Description: AutoCAD Mechanical|Company: Autodesk, Inc."
 90
     1024
280
     0
281
     0
  0
CLASS
  1
ACMDETAILSTANDARDDIN
  2
AmdtDetailSymStdDIN
  3
"Amdt_StdImp|Product Description: AutoCAD Mechanical|Company: Autodesk, Inc."
 90
     1024
280
     0
281
     0
  0
CLASS
  1
ACMSECTIONSTANDARDDIN
  2
AmdtSectionSymStdDIN
  3
"Amdt_StdImp|Product Description: AutoCAD Mechanical|Company: Autodesk, Inc."
 90
     1024
280
     0
281
     0
  0
CLASS
  1
ACMCENTERLINESTANDARDDIN
  2
AmdtCenterLineStdDIN
  3
"Amdt_StdImp|Product Description: AutoCAD Mechanical|Company: Autodesk, Inc."
 90
     1024
280
     0
281
     0
  0
CLASS
  1
ACMTHREADLINESTANDARDDIN
  2
AmdtThreadLineStdDIN
  3
"Amdt_StdImp|Product Description: AutoCAD Mechanical|Company: Autodesk, Inc."
 90
     1024
280
     0
281
     0
  0
CLASS
  1
ACMNOTESTANDARDDIN
  2
AmdtNoteStdDIN
  3
"Amdt_StdImp|Product Description: AutoCAD Mechanical|Company: Autodesk, Inc."
 90
     1024
280
     0
281
     0
  0
CLASS
  1
AMDTNOTETEMPLATEDB
  2
AmdtNoteTemplateDB
  3
AcmSymBB|Product Description: AutoCAD Mechanical|Company: Autodesk, Inc.
 90
     1024
280
     0
281
     0
  0
CLASS
  1
ACAMGLAYSTD
  2
AcAmgLayStd
  3
"AmgLay|Product Description: AutoCAD Mechanical|Company: Autodesk, Inc."
 90
     1024
280
     0
281
     0
  0
CLASS
  1
ACAMGDIMSTD
  2
AcAmgDimStd
  3
"AmgDim|Product Description: AutoCAD Mechanical|Company: Autodesk, Inc."
 90
     1024
280
     0
281
     0
  0
CLASS
  1
ACAMGHOLECHARTSTDDIN
  2
AcAmgHoleChartStdDIN
  3
AmgDim|Product Description: AutoCAD Mechanical|Company: Autodesk, Inc.
 90
     1024
280
     0
281
     0
  0
CLASS
  1
ACAMGTITLESTD
  2
AcAmgTitleStd
  3
"AmgTitle|Product Description: AutoCAD Mechanical|Company: Autodesk, Inc."
 90
     4095
280
     0
281
     0
  0
CLASS
  1
DICTIONARYVAR
  2
AcDbDictionaryVar
  3
ObjectDBX Classes
 90
        0
280
     0
281
     0
  0
CLASS
  1
ACAMGFILTERDAT
  2
AcAmgFilterDat
  3
"AcadM|Product Description: AutoCAD Mechanical|Company: Autodesk, Inc."
 90
    33792
280
     0
281
     0
  0
CLASS
  1
ACMDATAENTRYBLOCK
  2
AcmDataEntryBlock
  3
AcmSymBB|Product Description: AutoCAD Mechanical|Company: Autodesk, Inc.
 90
    33792
280
     0
281
     0
  0
CLASS
  1
PLOTSETTINGS
  2
AcDbPlotSettings
  3
ObjectDBX Classes
 90
    32768
280
     0
281
     0
  0
CLASS
  1
SORTENTSTABLE
  2
AcDbSortentsTable
  3
ObjectDBX Classes
 90
        0
280
     0
281
     0
  0
CLASS
  1
MATERIAL
  2
AcDbMaterial
  3
ObjectDBX Classes
 90
     1153
280
     0
281
     0
  0
CLASS
  1
VISUALSTYLE
  2
AcDbVisualStyle
  3
ObjectDBX Classes
 90
     4095
280
     0
281
     0
  0
CLASS
  1
SCALE
  2
AcDbScale
  3
ObjectDBX Classes
 90
     1153
280
     0
281
     0
  0
CLASS
  1
MLEADERSTYLE
  2
AcDbMLeaderStyle
  3
ACDB_MLEADERSTYLE_CLASS
 90
    36863
280
     0
281
     0
  0
CLASS
  1
ACMTAPERSTANDARDDIN
  2
AcmTaperStdDIN
  3
"Amdt_StdImp|Product Description: AutoCAD Mechanical|Company: Autodesk, Inc."
 90
     1024
280
     0
281
     0
  0
CLASS
  1
ACMANOOTATIONVIEWSTANDARDDIN
  2
AmdtAnViewStdDIN
  3
"Amdt_StdImp|Product Description: AutoCAD Mechanical|Company: Autodesk, Inc."
 90
     1024
280
     0
281
     0
  0
CLASS
  1
ACRFATTGENMGR
  2
AcRfAttGeneralMgr
  3
AcAttribServices
 90
    33792
280
     0
281
     0
  0
CLASS
  1
ACRFMCADAPIATTHOLDER
  2
AcRfMCADAPIAttHolder
  3
AcAttribServices
 90
    33792
280
     0
281
     0
  0
CLASS
  1
AMDTSYSATTR
  2
AmdtSystemAttribute
  3
AcAttribServices
 90
    33792
280
     0
281
     0
  0
CLASS
  1
CAMSSTRUCTBTNSTATE
  2
StructBtnState
  3
DesignerAssemblies
 90
    33792
280
     0
281
     0
  0
CLASS
  1
CELLSTYLEMAP
  2
AcDbCellStyleMap
  3
ObjectDBX Classes
 90
     1152
280
     0
281
     0
  0
CLASS
  1
AEC_REFEDIT_STATUS_TRACKER
  2
AecDbRefEditStatusTracker
  3
AecArchBase60|Product Desc: Autodesk Architectural Desktop 2007 |Company: Autodesk,Inc. |WEB Address: www.autodesk.com
 90
    32897
280
     0
281
     0
  0
CLASS
  1
NPOCOLLECTION
  2
AcDbImpNonPersistentObjectsCollection
  3
ObjectDBX Classes
 90
    33921
280
     0
281
     0
  0
CLASS
  1
ACDBPLACEHOLDER
  2
AcDbPlaceHolder
  3
ObjectDBX Classes
 90
        0
280
     0
281
     0
  0
CLASS
  1
LAYOUT
  2
AcDbLayout
  3
ObjectDBX Classes
 90
        0
280
     0
281
     0
  0
ENDSEC
  0
SECTION
  2
TABLES
  0
TABLE
  2
VPORT
  5
2C
330
0
100
AcDbSymbolTable
 70
     1
  0
VPORT
  5
2D
330
2C
100
AcDbSymbolTableRecord
100
AcDbViewportTableRecord
  2
*Active
 70
     0
 10
0.0
 20
0.0
 11
1.0
 21
1.0
 12
163.3218533586038
 22
197.4594182752563
 13
0.0
 23
0.0
 14
10.0
 24
10.0
 15
10.0
 25
10.0
 16
0.0
 26
0.0
 36
1.0
 17
0.0
 27
0.0
 37
0.0
 40
1015.603681834951
 41
1.509297520661156
 42
50.0
 43
0.0
 44
0.0
 50
0.0
 51
0.0
 71
     0
 72
  5000
 73
     1
 74
     0
 75
     0
 76
     0
 77
     0
 78
     0
281
     0
 65
     1
110
0.0
120
0.0
130
0.0
111
1.0
121
0.0
131
0.0
112
0.0
122
1.0
132
0.0
 79
     0
146
0.0
  0
ENDTAB
  0
TABLE
  2
LTYPE
  5
27
330
0
100
AcDbSymbolTable
 70
    16
  0
LTYPE
  5
28
330
27
100
AcDbSymbolTableRecord
100
AcDbLinetypeTableRecord
  2
BYBLOCK
 70
     0
  3

 72
    65
 73
     0
 40
0.0
  0
LTYPE
  5
29
330
27
100
AcDbSymbolTableRecord
100
AcDbLinetypeTableRecord
  2
BYLAYER
 70
     0
  3

 72
    65
 73
     0
 40
0.0
  0
LTYPE
  5
15
330
27
100
AcDbSymbolTableRecord
100
AcDbLinetypeTableRecord
  2
CONTINUOUS
 70
     0
  3
Solid line
 72
    65
 73
     0
 40
0.0
  0
LTYPE
  5
B1
330
27
100
AcDbSymbolTableRecord
100
AcDbLinetypeTableRecord
  2
STRICHPUNKT2
 70
     0
  3
Strichpunkt (.5x) _._._._._._._._._._._._._._._
 72
    65
 73
     4
 40
12.7
 49
6.349999999999999
 74
     0
 49
-3.174999999999999
 74
     0
 49
0.0
 74
     0
 49
-3.174999999999999
 74
     0
  0
LTYPE
  5
7A9
330
27
100
AcDbSymbolTableRecord
100
AcDbLinetypeTableRecord
  2
AM_ISO02W050
 70
     0
  3
__ __ __ __ __ __ __ __ __ __ __ __ __ __ __
 72
    65
 73
     2
 40
7.5
 49
6.0
 74
     0
 49
-1.5
 74
     0
  0
LTYPE
  5
7C3
330
27
100
AcDbSymbolTableRecord
100
AcDbLinetypeTableRecord
  2
AM_DIN_G_W050
 70
     0
  3
____ . ____ . ____ . ____ . ____ . ____ . ____
 72
    65
 73
     4
 40
13.75
 49
9.75
 74
     0
 49
-1.5
 74
     0
 49
1.0
 74
     0
 49
-1.5
 74
     0
  0
LTYPE
  5
7BB
330
27
100
AcDbSymbolTableRecord
100
AcDbLinetypeTableRecord
  2
ACDINWELD
 70
     0
  3
_ _ _ _ _
 72
    65
 73
     2
 40
2.0
 49
2.0
 74
     0
 49
-1.0
 74
     0
  0
LTYPE
  5
7BE
330
27
100
AcDbSymbolTableRecord
100
AcDbLinetypeTableRecord
  2
ACDINTGB
 70
     0
  3
__ . . __ . .
 72
    65
 73
     6
 40
9.0
 49
4.0
 74
     0
 49
-1.0
 74
     0
 49
1.0
 74
     0
 49
-1.0
 74
     0
 49
1.0
 74
     0
 49
-1.0
 74
     0
  0
LTYPE
  5
7BF
330
27
100
AcDbSymbolTableRecord
100
AcDbLinetypeTableRecord
  2
ACDINTGL
 70
     0
  3
_ _ _ _ _
 72
    65
 73
     2
 40
3.0
 49
2.0
 74
     0
 49
-1.0
 74
     0
  0
LTYPE
  5
7A4
330
27
100
AcDbSymbolTableRecord
100
AcDbLinetypeTableRecord
  2
gen3
 70
     0
  3
-- -- -- -- -- -- -- -- -- -- -- -- -- -- --
 72
    65
 73
     2
 40
6.25
 49
4.75
 74
     0
 49
-1.5
 74
     0
  0
LTYPE
  5
7A5
330
27
100
AcDbSymbolTableRecord
100
AcDbLinetypeTableRecord
  2
gen7
 70
     0
  3
____ . ____ . ____ . ____ . ____ . ____ . ____
 72
    65
 73
     4
 40
13.75
 49
9.75
 74
     0
 49
-1.5
 74
     0
 49
1.0
 74
     0
 49
-1.5
 74
     0
  0
LTYPE
  5
7A6
330
27
100
AcDbSymbolTableRecord
100
AcDbLinetypeTableRecord
  2
gen3a
 70
     0
  3
 - - - - -
 72
    65
 73
     2
 40
3.125
 49
2.25
 74
     0
 49
-0.875
 74
     0
  0
LTYPE
  5
7A7
330
27
100
AcDbSymbolTableRecord
100
AcDbLinetypeTableRecord
  2
gen7a
 70
     0
  3
__ . __ . __
 72
    65
 73
     4
 40
6.875
 49
4.75
 74
     0
 49
-0.875
 74
     0
 49
0.375
 74
     0
 49
-0.875
 74
     0
  0
LTYPE
  5
7A8
330
27
100
AcDbSymbolTableRecord
100
AcDbLinetypeTableRecord
  2
gen4a
 70
     0
  3
_____ . . _____ . . _____ . . ____ .. ____
 72
    65
 73
     6
 40
16.25
 49
9.75
 74
     0
 49
-1.5
 74
     0
 49
1.0
 74
     0
 49
-1.5
 74
     0
 49
1.0
 74
     0
 49
-1.5
 74
     0
  0
LTYPE
  5
7AA
330
27
100
AcDbSymbolTableRecord
100
AcDbLinetypeTableRecord
  2
genzigzag
 70
     0
  3
/\/-/\/-/\/-/\/-/\/-/\/
 72
    65
 73
     2
 40
12.0001
 49
0.0001
 74
     4
 75
   135
340
7AB
 46
2.0
 50
0.0
 44
0.0
 45
0.0
 49
-12.0
 74
     0
  0
LTYPE
  5
7F3
330
27
100
AcDbSymbolTableRecord
100
AcDbLinetypeTableRecord
  2
HIDDEN
 70
     0
  3
Verdeckt
 72
    65
 73
     2
 40
9.525
 49
6.349999999999999
 74
     0
 49
-3.174999999999999
 74
     0
  0
LTYPE
  5
7F4
330
27
100
AcDbSymbolTableRecord
100
AcDbLinetypeTableRecord
  2
PHANTOM2
 70
     0
  3
Phantom (.5x) ___ _ _ ___ _ _ ___ _ _ ___ _ _
 72
    65
 73
     6
 40
31.75
 49
15.875
 74
     0
 49
-3.174999999999999
 74
     0
 49
3.174999999999999
 74
     0
 49
-3.174999999999999
 74
     0
 49
3.174999999999999
 74
     0
 49
-3.174999999999999
 74
     0
  0
LTYPE
  5
7F5
330
27
100
AcDbSymbolTableRecord
100
AcDbLinetypeTableRecord
  2
CENTER
 70
     0
  3
Mitte ____ _ ____ _ ____ _ ____ _ ____ _ ____
 72
    65
 73
     4
 40
50.8
 49
31.75
 74
     0
 49
-6.349999999999999
 74
     0
 49
6.349999999999999
 74
     0
 49
-6.349999999999999
 74
     0
  0
ENDTAB
  0
TABLE
  2
LAYER
  5
1E
102
{ACAD_XDICTIONARY
360
1F
102
}
330
0
100
AcDbSymbolTable
 70
     5
  0
LAYER
  5
6
102
{ACAD_XDICTIONARY
360
7
102
}
330
1E
100
AcDbSymbolTableRecord
100
AcDbLayerTableRecord
  2
0
 70
     0
 62
     7
  6
CONTINUOUS
370
    -3
390
9
  0
LAYER
  5
51
102
{ACAD_XDICTIONARY
360
52
102
}
330
1E
100
AcDbSymbolTableRecord
100
AcDbLayerTableRecord
  2
BEMASSUNG
 70
     0
 62
     2
  6
CONTINUOUS
370
    -3
390
9
  0
LAYER
  5
AE
102
{ACAD_XDICTIONARY
360
AF
102
}
330
1E
100
AcDbSymbolTableRecord
100
AcDbLayerTableRecord
  2
ACHSEN
 70
     0
 62
     1
  6
STRICHPUNKT2
370
    -3
390
9
  0
LAYER
  5
7B
102
{ACAD_XDICTIONARY
360
7C
102
}
330
1E
100
AcDbSymbolTableRecord
100
AcDbLayerTableRecord
  2
LAYER3
 70
     0
 62
     4
  6
CONTINUOUS
370
    -3
390
9
  0
LAYER
  5
76
330
1E
100
AcDbSymbolTableRecord
100
AcDbLayerTableRecord
  2
DEFPOINTS
 70
     0
 62
     7
  6
CONTINUOUS
290
     0
370
    -3
390
9
  0
ENDTAB
  0
TABLE
  2
STYLE
  5
24
330
0
100
AcDbSymbolTable
 70
     5
  0
STYLE
  5
25
330
24
100
AcDbSymbolTableRecord
100
AcDbTextStyleTableRecord
  2
STANDARD
 70
     0
 40
0.0
 41
1.0
 50
0.0
 71
     0
 42
10.0
  3
txt
  4

  0
STYLE
  5
33
330
24
100
AcDbSymbolTableRecord
100
AcDbTextStyleTableRecord
  2
ARIAL-STANDARD
 70
     0
 40
0.0
 41
1.0
 50
0.0
 71
     0
 42
10.0
  3
arial.ttf
  4

1001
ACAD
1000
Arial
1071
       34
  0
STYLE
  5
7AB
330
24
100
AcDbSymbolTableRecord
100
AcDbTextStyleTableRecord
  2

 70
     1
 40
0.0
 41
1.0
 50
0.0
 71
     0
 42
3.5
  3
genltshp.shx
  4

  0
STYLE
  5
7B5
330
24
100
AcDbSymbolTableRecord
100
AcDbTextStyleTableRecord
  2
ACDINTS
 70
     0
 40
1.0
 41
1.0
 50
0.0
 71
     0
 42
3.5
  3
isocp.shx
  4

  0
STYLE
  5
7B9
330
24
100
AcDbSymbolTableRecord
100
AcDbTextStyleTableRecord
  2
ACDINGDT
 70
     0
 40
0.0
 41
1.0
 50
0.0
 71
     0
 42
3.5
  3
AMGDT
  4

  0
ENDTAB
  0
TABLE
  2
VIEW
  5
2A
330
0
100
AcDbSymbolTable
 70
     0
  0
ENDTAB
  0
TABLE
  2
UCS
  5
2B
330
0
100
AcDbSymbolTable
 70
     0
  0
ENDTAB
  0
TABLE
  2
APPID
  5
30
330
0
100
AcDbSymbolTable
 70
     7
  0
APPID
  5
23
330
30
100
AcDbSymbolTableRecord
100
AcDbRegAppTableRecord
  2
ACAD
 70
     0
  0
APPID
  5
19
330
30
100
AcDbSymbolTableRecord
100
AcDbRegAppTableRecord
  2
ACAD_PSEXT
 70
     0
  0
APPID
  5
36
330
30
100
AcDbSymbolTableRecord
100
AcDbRegAppTableRecord
  2
ACAD_DSTYLE_DIMJAG
 70
     0
  0
APPID
  5
35
330
30
100
AcDbSymbolTableRecord
100
AcDbRegAppTableRecord
  2
ACAD_DSTYLE_DIMBREAK
 70
     0
  0
APPID
  5
37
330
30
100
AcDbSymbolTableRecord
100
AcDbRegAppTableRecord
  2
ACAD_DSTYLE_DIMTALN
 70
     0
  0
APPID
  5
9F
330
30
100
AcDbSymbolTableRecord
100
AcDbRegAppTableRecord
  2
ACAD_DSTYLE_DIMINSPECT
 70
     0
  0
APPID
  5
7F7
330
30
100
AcDbSymbolTableRecord
100
AcDbRegAppTableRecord
  2
ACATTRIBSERVICES
 70
     0
  0
ENDTAB
  0
TABLE
  2
DIMSTYLE
  5
31
330
0
100
AcDbSymbolTable
 70
     3
100
AcDbDimStyleTable
 71
     3
340
32
340
34
340
38
  0
DIMSTYLE
105
32
102
{ACAD_REACTORS
330
6A
102
}
330
31
100
AcDbSymbolTableRecord
100
AcDbDimStyleTableRecord
  2
NORMAL
 70
     0
 41
3.5
 42
1.0
 43
0.0
 44
1.0
 73
     0
 74
     0
 77
     1
 78
     8
140
3.5
141
1.5
147
1.0
172
     1
174
     1
176
   256
177
   256
178
     3
271
     2
272
     2
279
     2
284
     8
340
33
  0
DIMSTYLE
105
38
330
31
100
AcDbSymbolTableRecord
100
AcDbDimStyleTableRecord
  2
STANDARD
 70
     0
340
25
  0
DIMSTYLE
105
34
102
{ACAD_REACTORS
330
17E
330
10C
330
1A2
330
1AF
330
1BC
330
1CA
330
219
330
226
330
194
330
A0
330
1D7
330
7E
330
92
330
11F
330
16F
330
1E4
330
1F1
330
148
330
155
330
1FF
330
20C
330
162
330
12C
330
13B
102
}
330
31
100
AcDbSymbolTableRecord
100
AcDbDimStyleTableRecord
  2
Katalog 09
 70
     0
 41
4.0
 42
0.0
 43
8.0
 44
1.0
 73
     0
 74
     0
 77
     1
 78
     8
140
4.349999999999999
141
1.5
143
25.39999999999999
146
0.4285714285714286
147
1.0
172
     1
174
     1
176
     2
177
     2
178
     3
271
     2
272
     2
284
     8
285
     8
286
     8
340
33
1001
ACAD_DSTYLE_DIMBREAK
1070
   391
1040
3.75
1001
ACAD_DSTYLE_DIMJAG
1070
   388
1040
1.5
1001
ACAD_DSTYLE_DIMTALN
1070
   392
1070
     0
  0
ENDTAB
  0
TABLE
  2
BLOCK_RECORD
  5
1
330
0
100
AcDbSymbolTable
 70
    25
  0
BLOCK_RECORD
  5
2
102
{ACAD_XDICTIONARY
360
3
102
}
330
1
100
AcDbSymbolTableRecord
100
AcDbBlockTableRecord
  2
*MODEL_SPACE
340
17
  0
BLOCK_RECORD
  5
1A
330
1
100
AcDbSymbolTableRecord
100
AcDbBlockTableRecord
  2
*PAPER_SPACE
340
1D
  0
BLOCK_RECORD
  5
227
330
1
100
AcDbSymbolTableRecord
100
AcDbBlockTableRecord
  2
*D0
340
0
  0
BLOCK_RECORD
  5
21A
330
1
100
AcDbSymbolTableRecord
100
AcDbBlockTableRecord
  2
*D1
340
0
  0
BLOCK_RECORD
  5
20D
330
1
100
AcDbSymbolTableRecord
100
AcDbBlockTableRecord
  2
*D2
340
0
  0
BLOCK_RECORD
  5
200
330
1
100
AcDbSymbolTableRecord
100
AcDbBlockTableRecord
  2
*D3
340
0
  0
BLOCK_RECORD
  5
1F2
330
1
100
AcDbSymbolTableRecord
100
AcDbBlockTableRecord
  2
*D4
340
0
  0
BLOCK_RECORD
  5
1E5
330
1
100
AcDbSymbolTableRecord
100
AcDbBlockTableRecord
  2
*D5
340
0
  0
BLOCK_RECORD
  5
1D8
330
1
100
AcDbSymbolTableRecord
100
AcDbBlockTableRecord
  2
*D6
340
0
  0
BLOCK_RECORD
  5
1CB
330
1
100
AcDbSymbolTableRecord
100
AcDbBlockTableRecord
  2
*D7
340
0
  0
BLOCK_RECORD
  5
1BD
330
1
100
AcDbSymbolTableRecord
100
AcDbBlockTableRecord
  2
*D8
340
0
  0
BLOCK_RECORD
  5
1B0
330
1
100
AcDbSymbolTableRecord
100
AcDbBlockTableRecord
  2
*D9
340
0
  0
BLOCK_RECORD
  5
1A3
330
1
100
AcDbSymbolTableRecord
100
AcDbBlockTableRecord
  2
*D10
340
0
  0
BLOCK_RECORD
  5
195
330
1
100
AcDbSymbolTableRecord
100
AcDbBlockTableRecord
  2
*D11
340
0
  0
BLOCK_RECORD
  5
17F
330
1
100
AcDbSymbolTableRecord
100
AcDbBlockTableRecord
  2
*D12
340
0
  0
BLOCK_RECORD
  5
170
330
1
100
AcDbSymbolTableRecord
100
AcDbBlockTableRecord
  2
*D13
340
0
  0
BLOCK_RECORD
  5
163
330
1
100
AcDbSymbolTableRecord
100
AcDbBlockTableRecord
  2
*D14
340
0
  0
BLOCK_RECORD
  5
156
330
1
100
AcDbSymbolTableRecord
100
AcDbBlockTableRecord
  2
*D15
340
0
  0
BLOCK_RECORD
  5
149
330
1
100
AcDbSymbolTableRecord
100
AcDbBlockTableRecord
  2
*D16
340
0
  0
BLOCK_RECORD
  5
13C
330
1
100
AcDbSymbolTableRecord
100
AcDbBlockTableRecord
  2
*D17
340
0
  0
BLOCK_RECORD
  5
12D
330
1
100
AcDbSymbolTableRecord
100
AcDbBlockTableRecord
  2
*D18
340
0
  0
BLOCK_RECORD
  5
120
330
1
100
AcDbSymbolTableRecord
100
AcDbBlockTableRecord
  2
*D19
340
0
  0
BLOCK_RECORD
  5
10D
330
1
100
AcDbSymbolTableRecord
100
AcDbBlockTableRecord
  2
*D20
340
0
  0
BLOCK_RECORD
  5
A1
330
1
100
AcDbSymbolTableRecord
100
AcDbBlockTableRecord
  2
*D21
340
0
  0
BLOCK_RECORD
  5
93
330
1
100
AcDbSymbolTableRecord
100
AcDbBlockTableRecord
  2
*D22
340
0
  0
BLOCK_RECORD
  5
7F
330
1
100
AcDbSymbolTableRecord
100
AcDbBlockTableRecord
  2
*D23
340
0
  0
BLOCK_RECORD
  5
6B
330
1
100
AcDbSymbolTableRecord
100
AcDbBlockTableRecord
  2
*D24
340
0
  0
ENDTAB
  0
ENDSEC
  0
SECTION
  2
BLOCKS
  0
BLOCK
  5
5
330
2
100
AcDbEntity
  8
0
100
AcDbBlockBegin
  2
*MODEL_SPACE
 70
     0
 10
0.0
 20
0.0
 30
0.0
  3
*MODEL_SPACE
  1

  0
ENDBLK
  5
16
330
2
100
AcDbEntity
  8
0
100
AcDbBlockEnd
  0
BLOCK
  5
1B
330
1A
100
AcDbEntity
 67
     1
  8
0
100
AcDbBlockBegin
  2
*PAPER_SPACE
 70
     0
 10
0.0
 20
0.0
 30
0.0
  3
*PAPER_SPACE
  1

  0
ENDBLK
  5
1C
330
1A
100
AcDbEntity
 67
     1
  8
0
100
AcDbBlockEnd
  0
BLOCK
  5
228
330
227
100
AcDbEntity
  8
0
100
AcDbBlockBegin
  2
*D0
 70
     1
 10
0.0
 20
0.0
 30
0.0
  3
*D0
  1

  0
LINE
  5
229
330
227
100
AcDbEntity
  8
BEMASSUNG
  6
Continuous
 62
     2
370
    -2
100
AcDbLine
 10
38.94744493249772
 20
187.7691187916654
 30
0.0
 11
-8.264165606441752
 21
187.7691187916654
 31
0.0
  0
LINE
  5
22A
330
227
100
AcDbEntity
  8
BEMASSUNG
  6
Continuous
 62
     2
370
    -2
100
AcDbLine
 10
19.94744493249781
 20
268.7691187916653
 30
0.0
 11
-8.264165606441736
 21
268.7691187916653
 31
0.0
  0
LINE
  5
22B
330
227
100
AcDbEntity
  8
BEMASSUNG
  6
Continuous
 62
     2
370
    -2
100
AcDbLine
 10
-7.264165606441753
 20
191.7691187916654
 30
0.0
 11
-7.264165606441737
 21
264.7691187916653
 31
0.0
  0
SOLID
  5
22C
330
227
100
AcDbEntity
  8
BEMASSUNG
  6
Continuous
 62
     2
100
AcDbTrace
 10
-7.930832273108419
 20
191.7691187916654
 30
0.0
 11
-6.597498939775086
 21
191.7691187916654
 31
0.0
 12
-7.264165606441753
 22
187.7691187916654
 32
0.0
 13
-7.264165606441753
 23
187.7691187916654
 33
0.0
  0
SOLID
  5
22D
330
227
100
AcDbEntity
  8
BEMASSUNG
  6
Continuous
 62
     2
100
AcDbTrace
 10
-7.930832273108403
 20
264.7691187916653
 30
0.0
 11
-6.59749893977507
 21
264.7691187916653
 31
0.0
 12
-7.264165606441736
 22
268.7691187916653
 32
0.0
 13
-7.264165606441736
 23
268.7691187916653
 33
0.0
  0
MTEXT
  5
22E
330
227
100
AcDbEntity
  8
BEMASSUNG
  6
Continuous
 62
     3
100
AcDbMText
 10
-10.48515810303114
 20
228.2691187916654
 30
0.0
 40
4.349999999999999
 41
0.0
 71
     5
 72
     1
  1
\A1;81
  7
ARIAL-STANDARD
 11
0.0000000000000001
 21
1.0
 31
0.0
 73
     1
 44
1.0
1001
ACAD
1000
MTEXTBEGIN
1070
    73
1070
     1
1070
    44
1040
1.0
1070
    74
1070
     0
1000
MTEXTEND
  0
POINT
  5
22F
330
227
100
AcDbEntity
  8
DEFPOINTS
  6
Continuous
 62
     0
100
AcDbPoint
 10
38.94744493249772
 20
187.7691187916654
 30
0.0
  0
POINT
  5
230
330
227
100
AcDbEntity
  8
DEFPOINTS
  6
Continuous
 62
     0
100
AcDbPoint
 10
19.94744493249781
 20
268.7691187916653
 30
0.0
  0
POINT
  5
231
330
227
100
AcDbEntity
  8
DEFPOINTS
  6
Continuous
 62
     0
100
AcDbPoint
 10
-7.264165606441736
 20
268.7691187916653
 30
0.0
  0
ENDBLK
  5
232
330
227
100
AcDbEntity
  8
0
100
AcDbBlockEnd
  0
BLOCK
  5
21B
330
21A
100
AcDbEntity
  8
0
100
AcDbBlockBegin
  2
*D1
 70
     1
 10
0.0
 20
0.0
 30
0.0
  3
*D1
  1

  0
LINE
  5
21C
330
21A
100
AcDbEntity
  8
BEMASSUNG
  6
Continuous
 62
     2
370
    -2
100
AcDbLine
 10
38.94744493249772
 20
187.7691187916654
 30
0.0
 11
6.827444932497818
 21
187.7691187916654
 31
0.0
  0
LINE
  5
21D
330
21A
100
AcDbEntity
  8
BEMASSUNG
  6
Continuous
 62
     2
370
    -2
100
AcDbLine
 10
42.44744493249771
 20
222.7691187916654
 30
0.0
 11
6.827444932497826
 21
222.7691187916654
 31
0.0
  0
LINE
  5
21E
330
21A
100
AcDbEntity
  8
BEMASSUNG
  6
Continuous
 62
     2
370
    -2
100
AcDbLine
 10
7.827444932497819
 20
191.7691187916654
 30
0.0
 11
7.827444932497825
 21
218.7691187916654
 31
0.0
  0
SOLID
  5
21F
330
21A
100
AcDbEntity
  8
BEMASSUNG
  6
Continuous
 62
     2
100
AcDbTrace
 10
7.160778265831152
 20
191.7691187916654
 30
0.0
 11
8.494111599164485
 21
191.7691187916654
 31
0.0
 12
7.827444932497818
 22
187.7691187916654
 32
0.0
 13
7.827444932497818
 23
187.7691187916654
 33
0.0
  0
SOLID
  5
220
330
21A
100
AcDbEntity
  8
BEMASSUNG
  6
Continuous
 62
     2
100
AcDbTrace
 10
7.160778265831158
 20
218.7691187916654
 30
0.0
 11
8.49411159916449
 21
218.7691187916654
 31
0.0
 12
7.827444932497826
 22
222.7691187916654
 32
0.0
 13
7.827444932497826
 23
222.7691187916654
 33
0.0
  0
MTEXT
  5
221
330
21A
100
AcDbEntity
  8
BEMASSUNG
  6
Continuous
 62
     3
100
AcDbMText
 10
4.604968806986192
 20
205.2691187916654
 30
0.0
 40
4.349999999999999
 41
0.0
 71
     5
 72
     1
  1
\A1;35
  7
ARIAL-STANDARD
 11
0.0000000000000001
 21
1.0
 31
0.0
 73
     1
 44
1.0
1001
ACAD
1000
MTEXTBEGIN
1070
    73
1070
     1
1070
    44
1040
1.0
1070
    74
1070
     0
1000
MTEXTEND
  0
POINT
  5
222
330
21A
100
AcDbEntity
  8
DEFPOINTS
  6
Continuous
 62
     0
100
AcDbPoint
 10
38.94744493249772
 20
187.7691187916654
 30
0.0
  0
POINT
  5
223
330
21A
100
AcDbEntity
  8
DEFPOINTS
  6
Continuous
 62
     0
100
AcDbPoint
 10
42.44744493249771
 20
222.7691187916654
 30
0.0
  0
POINT
  5
224
330
21A
100
AcDbEntity
  8
DEFPOINTS
  6
Continuous
 62
     0
100
AcDbPoint
 10
7.827444932497826
 20
222.7691187916654
 30
0.0
  0
ENDBLK
  5
225
330
21A
100
AcDbEntity
  8
0
100
AcDbBlockEnd
  0
BLOCK
  5
20E
330
20D
100
AcDbEntity
  8
0
100
AcDbBlockBegin
  2
*D2
 70
     1
 10
0.0
 20
0.0
 30
0.0
  3
*D2
  1

  0
LINE
  5
20F
330
20D
100
AcDbEntity
  8
BEMASSUNG
  6
Continuous
 62
     2
370
    -2
100
AcDbLine
 10
68.94744493249771
 20
213.2691187916655
 30
0.0
 11
68.94744493249771
 21
174.7257539463464
 31
0.0
  0
LINE
  5
210
330
20D
100
AcDbEntity
  8
BEMASSUNG
  6
Continuous
 62
     2
370
    -2
100
AcDbLine
 10
84.44744493249771
 20
222.7691187916654
 30
0.0
 11
84.44744493249771
 21
174.7257539463464
 31
0.0
  0
LINE
  5
211
330
20D
100
AcDbEntity
  8
BEMASSUNG
  6
Continuous
 62
     2
370
    -2
100
AcDbLine
 10
72.94744493249772
 20
175.7257539463464
 30
0.0
 11
80.44744493249771
 21
175.7257539463464
 31
0.0
  0
SOLID
  5
212
330
20D
100
AcDbEntity
  8
BEMASSUNG
  6
Continuous
 62
     2
100
AcDbTrace
 10
72.94744493249772
 20
176.392420613013
 30
0.0
 11
72.94744493249772
 21
175.0590872796797
 31
0.0
 12
68.94744493249771
 22
175.7257539463464
 32
0.0
 13
68.94744493249771
 23
175.7257539463464
 33
0.0
  0
SOLID
  5
213
330
20D
100
AcDbEntity
  8
BEMASSUNG
  6
Continuous
 62
     2
100
AcDbTrace
 10
80.44744493249771
 20
176.392420613013
 30
0.0
 11
80.44744493249771
 21
175.0590872796797
 31
0.0
 12
84.44744493249771
 22
175.7257539463464
 32
0.0
 13
84.44744493249771
 23
175.7257539463464
 33
0.0
  0
MTEXT
  5
214
330
20D
100
AcDbEntity
  8
BEMASSUNG
  6
Continuous
 62
     3
100
AcDbMText
 10
76.69744493249772
 20
178.9467464429357
 30
0.0
 40
4.349999999999999
 41
0.0
 71
     5
 72
     1
  1
\A1;15.5
  7
ARIAL-STANDARD
 73
     1
 44
1.0
1001
ACAD
1000
MTEXTBEGIN
1070
    73
1070
     1
1070
    44
1040
1.0
1070
    74
1070
     0
1000
MTEXTEND
  0
POINT
  5
215
330
20D
100
AcDbEntity
  8
DEFPOINTS
  6
Continuous
 62
     0
100
AcDbPoint
 10
68.94744493249771
 20
213.2691187916655
 30
0.0
  0
POINT
  5
216
330
20D
100
AcDbEntity
  8
DEFPOINTS
  6
Continuous
 62
     0
100
AcDbPoint
 10
84.44744493249771
 20
222.7691187916654
 30
0.0
  0
POINT
  5
217
330
20D
100
AcDbEntity
  8
DEFPOINTS
  6
Continuous
 62
     0
100
AcDbPoint
 10
84.44744493249771
 20
175.7257539463464
 30
0.0
  0
ENDBLK
  5
218
330
20D
100
AcDbEntity
  8
0
100
AcDbBlockEnd
  0
BLOCK
  5
201
330
200
100
AcDbEntity
  8
0
100
AcDbBlockBegin
  2
*D3
 70
     1
 10
0.0
 20
0.0
 30
0.0
  3
*D3
  1

  0
LINE
  5
202
330
200
100
AcDbEntity
  8
BEMASSUNG
  6
Continuous
 62
     2
370
    -2
100
AcDbLine
 10
38.94744493249772
 20
186.2691187916655
 30
0.0
 11
38.94744493249772
 21
174.7257539463464
 31
0.0
  0
LINE
  5
203
330
200
100
AcDbEntity
  8
BEMASSUNG
  6
Continuous
 62
     2
370
    -2
100
AcDbLine
 10
68.94744493249771
 20
213.2691187916655
 30
0.0
 11
68.94744493249771
 21
174.7257539463464
 31
0.0
  0
LINE
  5
204
330
200
100
AcDbEntity
  8
BEMASSUNG
  6
Continuous
 62
     2
370
    -2
100
AcDbLine
 10
42.94744493249772
 20
175.7257539463464
 30
0.0
 11
64.94744493249772
 21
175.7257539463464
 31
0.0
  0
SOLID
  5
205
330
200
100
AcDbEntity
  8
BEMASSUNG
  6
Continuous
 62
     2
100
AcDbTrace
 10
42.94744493249772
 20
176.392420613013
 30
0.0
 11
42.94744493249772
 21
175.0590872796797
 31
0.0
 12
38.94744493249772
 22
175.7257539463464
 32
0.0
 13
38.94744493249772
 23
175.7257539463464
 33
0.0
  0
SOLID
  5
206
330
200
100
AcDbEntity
  8
BEMASSUNG
  6
Continuous
 62
     2
100
AcDbTrace
 10
64.94744493249772
 20
176.392420613013
 30
0.0
 11
64.94744493249772
 21
175.0590872796797
 31
0.0
 12
68.94744493249771
 22
175.7257539463464
 32
0.0
 13
68.94744493249771
 23
175.7257539463464
 33
0.0
  0
MTEXT
  5
207
330
200
100
AcDbEntity
  8
BEMASSUNG
  6
Continuous
 62
     3
100
AcDbMText
 10
53.94744493249771
 20
178.9007539463464
 30
0.0
 40
4.349999999999999
 41
0.0
 71
     5
 72
     1
  1
\A1;DM
  7
ARIAL-STANDARD
 73
     1
 44
1.0
1001
ACAD
1000
MTEXTBEGIN
1070
    73
1070
     1
1070
    44
1040
1.0
1070
    74
1070
     0
1000
MTEXTEND
  0
POINT
  5
208
330
200
100
AcDbEntity
  8
DEFPOINTS
  6
Continuous
 62
     0
100
AcDbPoint
 10
38.94744493249772
 20
186.2691187916655
 30
0.0
  0
POINT
  5
209
330
200
100
AcDbEntity
  8
DEFPOINTS
  6
Continuous
 62
     0
100
AcDbPoint
 10
68.94744493249771
 20
213.2691187916655
 30
0.0
  0
POINT
  5
20A
330
200
100
AcDbEntity
  8
DEFPOINTS
  6
Continuous
 62
     0
100
AcDbPoint
 10
68.94744493249771
 20
175.7257539463464
 30
0.0
  0
ENDBLK
  5
20B
330
200
100
AcDbEntity
  8
0
100
AcDbBlockEnd
  0
BLOCK
  5
1F3
330
1F2
100
AcDbEntity
  8
0
100
AcDbBlockBegin
  2
*D4
 70
     1
 10
0.0
 20
0.0
 30
0.0
  3
*D4
  1

  0
LINE
  5
1F4
330
1F2
100
AcDbEntity
  8
BEMASSUNG
  6
Continuous
 62
     2
370
    -2
100
AcDbLine
 10
84.44744493249771
 20
222.7691187916654
 30
0.0
 11
107.9486649312174
 21
222.7691187916654
 31
0.0
  0
LINE
  5
1F5
330
1F2
100
AcDbEntity
  8
BEMASSUNG
  6
Continuous
 62
     2
370
    -2
100
AcDbLine
 10
82.94744493249771
 20
248.2691187916655
 30
0.0
 11
107.9486649312175
 21
248.2691187916655
 31
0.0
  0
LINE
  5
1F6
330
1F2
100
AcDbEntity
  8
BEMASSUNG
  6
Continuous
 62
     2
370
    -2
100
AcDbLine
 10
106.9486649312175
 20
226.7691187916654
 30
0.0
 11
106.9486649312175
 21
244.2691187916655
 31
0.0
  0
SOLID
  5
1F7
330
1F2
100
AcDbEntity
  8
BEMASSUNG
  6
Continuous
 62
     2
100
AcDbTrace
 10
106.2819982645508
 20
226.7691187916654
 30
0.0
 11
107.6153315978841
 21
226.7691187916654
 31
0.0
 12
106.9486649312174
 22
222.7691187916654
 32
0.0
 13
106.9486649312174
 23
222.7691187916654
 33
0.0
  0
SOLID
  5
1F8
330
1F2
100
AcDbEntity
  8
BEMASSUNG
  6
Continuous
 62
     2
100
AcDbTrace
 10
106.2819982645508
 20
244.2691187916655
 30
0.0
 11
107.6153315978841
 21
244.2691187916655
 31
0.0
 12
106.9486649312175
 22
248.2691187916655
 32
0.0
 13
106.9486649312175
 23
248.2691187916655
 33
0.0
  0
MTEXT
  5
1F9
330
1F2
100
AcDbEntity
  8
BEMASSUNG
  6
Continuous
 62
     3
100
AcDbMText
 10
100.0937706610946
 20
235.5191187916655
 30
0.0
 40
4.349999999999999
 41
0.0
 71
     5
 72
     1
  1
\A1;RZ 25.5\PPZ 27.5
  7
ARIAL-STANDARD
 11
0.0000000000000001
 21
1.0
 31
0.0
 73
     1
 44
1.0
1001
ACAD
1000
MTEXTBEGIN
1070
    73
1070
     1
1070
    44
1040
1.0
1070
    74
1070
     0
1000
MTEXTEND
  0
POINT
  5
1FA
330
1F2
100
AcDbEntity
  8
DEFPOINTS
  6
Continuous
 62
     0
100
AcDbPoint
 10
84.44744493249771
 20
222.7691187916654
 30
0.0
  0
POINT
  5
1FB
330
1F2
100
AcDbEntity
  8
DEFPOINTS
  6
Continuous
 62
     0
100
AcDbPoint
 10
82.94744493249771
 20
248.2691187916655
 30
0.0
  0
POINT
  5
1FC
330
1F2
100
AcDbEntity
  8
DEFPOINTS
  6
Continuous
 62
     0
100
AcDbPoint
 10
106.9486649312175
 20
248.2691187916655
 30
0.0
  0
ENDBLK
  5
1FD
330
1F2
100
AcDbEntity
  8
0
100
AcDbBlockEnd
  0
BLOCK
  5
1E6
330
1E5
100
AcDbEntity
  8
0
100
AcDbBlockBegin
  2
*D5
 70
     1
 10
0.0
 20
0.0
 30
0.0
  3
*D5
  1

  0
LINE
  5
1E7
330
1E5
100
AcDbEntity
  8
BEMASSUNG
  6
Continuous
 62
     2
370
    -2
100
AcDbLine
 10
84.44744493249771
 20
222.7691187916654
 30
0.0
 11
119.3540808107537
 21
222.7691187916654
 31
0.0
  0
LINE
  5
1E8
330
1E5
100
AcDbEntity
  8
BEMASSUNG
  6
Continuous
 62
     2
370
    -2
100
AcDbLine
 10
62.44744493249766
 20
422.7691187916654
 30
0.0
 11
119.3540808107537
 21
422.7691187916654
 31
0.0
  0
LINE
  5
1E9
330
1E5
100
AcDbEntity
  8
BEMASSUNG
  6
Continuous
 62
     2
370
    -2
100
AcDbLine
 10
118.3540808107537
 20
226.7691187916654
 30
0.0
 11
118.3540808107537
 21
418.7691187916654
 31
0.0
  0
SOLID
  5
1EA
330
1E5
100
AcDbEntity
  8
BEMASSUNG
  6
Continuous
 62
     2
100
AcDbTrace
 10
117.687414144087
 20
226.7691187916654
 30
0.0
 11
119.0207474774203
 21
226.7691187916654
 31
0.0
 12
118.3540808107537
 22
222.7691187916654
 32
0.0
 13
118.3540808107537
 23
222.7691187916654
 33
0.0
  0
SOLID
  5
1EB
330
1E5
100
AcDbEntity
  8
BEMASSUNG
  6
Continuous
 62
     2
100
AcDbTrace
 10
117.687414144087
 20
418.7691187916654
 30
0.0
 11
119.0207474774204
 21
418.7691187916654
 31
0.0
 12
118.3540808107537
 22
422.7691187916654
 32
0.0
 13
118.3540808107537
 23
422.7691187916654
 33
0.0
  0
MTEXT
  5
1EC
330
1E5
100
AcDbEntity
  8
BEMASSUNG
  6
Continuous
 62
     3
100
AcDbMText
 10
115.1330883141643
 20
322.7691187916655
 30
0.0
 40
4.349999999999999
 41
0.0
 71
     5
 72
     1
  1
\A1;200
  7
ARIAL-STANDARD
 11
0.0000000000000001
 21
1.0
 31
0.0
 73
     1
 44
1.0
1001
ACAD
1000
MTEXTBEGIN
1070
    73
1070
     1
1070
    44
1040
1.0
1070
    74
1070
     0
1000
MTEXTEND
  0
POINT
  5
1ED
330
1E5
100
AcDbEntity
  8
DEFPOINTS
  6
Continuous
 62
     0
100
AcDbPoint
 10
84.44744493249771
 20
222.7691187916654
 30
0.0
  0
POINT
  5
1EE
330
1E5
100
AcDbEntity
  8
DEFPOINTS
  6
Continuous
 62
     0
100
AcDbPoint
 10
62.44744493249766
 20
422.7691187916654
 30
0.0
  0
POINT
  5
1EF
330
1E5
100
AcDbEntity
  8
DEFPOINTS
  6
Continuous
 62
     0
100
AcDbPoint
 10
118.3540808107537
 20
422.7691187916654
 30
0.0
  0
ENDBLK
  5
1F0
330
1E5
100
AcDbEntity
  8
0
100
AcDbBlockEnd
  0
BLOCK
  5
1D9
330
1D8
100
AcDbEntity
  8
0
100
AcDbBlockBegin
  2
*D6
 70
     1
 10
0.0
 20
0.0
 30
0.0
  3
*D6
  1

  0
LINE
  5
1DA
330
1D8
100
AcDbEntity
  8
BEMASSUNG
  6
Continuous
 62
     2
370
    -2
100
AcDbLine
 10
26.94595627214404
 20
401.8691187916067
 30
0.0
 11
26.94595627214404
 21
417.8149604592341
 31
0.0
  0
LINE
  5
1DB
330
1D8
100
AcDbEntity
  8
BEMASSUNG
  6
Continuous
 62
     2
370
    -2
100
AcDbLine
 10
38.94744493249772
 20
407.2239217303142
 30
0.0
 11
38.94744493249772
 21
417.8149604592341
 31
0.0
  0
LINE
  5
1DC
330
1D8
100
AcDbEntity
  8
BEMASSUNG
  6
Continuous
 62
     2
370
    -2
100
AcDbLine
 10
30.94595627214405
 20
416.8149604592342
 30
0.0
 11
34.94744493249772
 21
416.8149604592342
 31
0.0
  0
SOLID
  5
1DD
330
1D8
100
AcDbEntity
  8
BEMASSUNG
  6
Continuous
 62
     2
100
AcDbTrace
 10
30.94595627214405
 20
417.4816271259008
 30
0.0
 11
30.94595627214405
 21
416.1482937925674
 31
0.0
 12
26.94595627214404
 22
416.8149604592342
 32
0.0
 13
26.94595627214404
 23
416.8149604592342
 33
0.0
  0
SOLID
  5
1DE
330
1D8
100
AcDbEntity
  8
BEMASSUNG
  6
Continuous
 62
     2
100
AcDbTrace
 10
34.94744493249772
 20
417.4816271259008
 30
0.0
 11
34.94744493249772
 21
416.1482937925674
 31
0.0
 12
38.94744493249772
 22
416.8149604592342
 32
0.0
 13
38.94744493249772
 23
416.8149604592342
 33
0.0
  0
MTEXT
  5
1DF
330
1D8
100
AcDbEntity
  8
BEMASSUNG
  6
Continuous
 62
     3
100
AcDbMText
 10
32.94670060232088
 20
419.9988622327675
 30
0.0
 40
4.349999999999999
 41
0.0
 71
     5
 72
     1
  1
\A1;12
  7
ARIAL-STANDARD
 73
     1
 44
1.0
1001
ACAD
1000
MTEXTBEGIN
1070
    73
1070
     1
1070
    44
1040
1.0
1070
    74
1070
     0
1000
MTEXTEND
  0
POINT
  5
1E0
330
1D8
100
AcDbEntity
  8
DEFPOINTS
  6
Continuous
 62
     0
100
AcDbPoint
 10
26.94595627214404
 20
401.8691187916067
 30
0.0
  0
POINT
  5
1E1
330
1D8
100
AcDbEntity
  8
DEFPOINTS
  6
Continuous
 62
     0
100
AcDbPoint
 10
38.94744493249772
 20
407.2239217303142
 30
0.0
  0
POINT
  5
1E2
330
1D8
100
AcDbEntity
  8
DEFPOINTS
  6
Continuous
 62
     0
100
AcDbPoint
 10
38.94744493249772
 20
416.8149604592342
 30
0.0
  0
ENDBLK
  5
1E3
330
1D8
100
AcDbEntity
  8
0
100
AcDbBlockEnd
  0
BLOCK
  5
1CC
330
1CB
100
AcDbEntity
  8
0
100
AcDbBlockBegin
  2
*D7
 70
     1
 10
0.0
 20
0.0
 30
0.0
  3
*D7
  1

  0
LINE
  5
1CD
330
1CB
100
AcDbEntity
  8
BEMASSUNG
  6
Continuous
 62
     2
370
    -2
100
AcDbLine
 10
27.97509409195551
 20
370.2691187916092
 30
0.0
 11
-8.264165606441743
 21
370.2691187916092
 31
0.0
  0
LINE
  5
1CE
330
1CB
100
AcDbEntity
  8
BEMASSUNG
  6
Continuous
 62
     2
370
    -2
100
AcDbLine
 10
27.66052518204704
 20
402.269118791608
 30
0.0
 11
-8.264165606441736
 21
402.269118791608
 31
0.0
  0
LINE
  5
1CF
330
1CB
100
AcDbEntity
  8
BEMASSUNG
  6
Continuous
 62
     2
370
    -2
100
AcDbLine
 10
-7.264165606441742
 20
374.2691187916092
 30
0.0
 11
-7.264165606441737
 21
398.269118791608
 31
0.0
  0
SOLID
  5
1D0
330
1CB
100
AcDbEntity
  8
BEMASSUNG
  6
Continuous
 62
     2
100
AcDbTrace
 10
-7.930832273108409
 20
374.2691187916092
 30
0.0
 11
-6.597498939775075
 21
374.2691187916092
 31
0.0
 12
-7.264165606441743
 22
370.2691187916092
 32
0.0
 13
-7.264165606441743
 23
370.2691187916092
 33
0.0
  0
SOLID
  5
1D1
330
1CB
100
AcDbEntity
  8
BEMASSUNG
  6
Continuous
 62
     2
100
AcDbTrace
 10
-7.930832273108403
 20
398.269118791608
 30
0.0
 11
-6.59749893977507
 21
398.269118791608
 31
0.0
 12
-7.264165606441736
 22
402.269118791608
 32
0.0
 13
-7.264165606441736
 23
402.269118791608
 33
0.0
  0
MTEXT
  5
1D2
330
1CB
100
AcDbEntity
  8
BEMASSUNG
  6
Continuous
 62
     3
100
AcDbMText
 10
-10.4866417319534
 20
386.2691187916086
 30
0.0
 40
4.349999999999999
 41
0.0
 71
     5
 72
     1
  1
\A1;32
  7
ARIAL-STANDARD
 11
0.0000000000000001
 21
1.0
 31
0.0
 73
     1
 44
1.0
1001
ACAD
1000
MTEXTBEGIN
1070
    73
1070
     1
1070
    44
1040
1.0
1070
    74
1070
     0
1000
MTEXTEND
  0
POINT
  5
1D3
330
1CB
100
AcDbEntity
  8
DEFPOINTS
  6
Continuous
 62
     0
100
AcDbPoint
 10
27.97509409195551
 20
370.2691187916092
 30
0.0
  0
POINT
  5
1D4
330
1CB
100
AcDbEntity
  8
DEFPOINTS
  6
Continuous
 62
     0
100
AcDbPoint
 10
27.66052518204704
 20
402.269118791608
 30
0.0
  0
POINT
  5
1D5
330
1CB
100
AcDbEntity
  8
DEFPOINTS
  6
Continuous
 62
     0
100
AcDbPoint
 10
-7.264165606441736
 20
402.269118791608
 30
0.0
  0
ENDBLK
  5
1D6
330
1CB
100
AcDbEntity
  8
0
100
AcDbBlockEnd
  0
BLOCK
  5
1BE
330
1BD
100
AcDbEntity
  8
0
100
AcDbBlockBegin
  2
*D8
 70
     1
 10
0.0
 20
0.0
 30
0.0
  3
*D8
  1

  0
LINE
  5
1BF
330
1BD
100
AcDbEntity
  8
BEMASSUNG
  6
Continuous
 62
     2
370
    -2
100
AcDbLine
 10
19.94744493249781
 20
303.7691187916654
 30
0.0
 11
-8.26416560644175
 21
303.7691187916654
 31
0.0
  0
LINE
  5
1C0
330
1BD
100
AcDbEntity
  8
BEMASSUNG
  6
Continuous
 62
     2
370
    -2
100
AcDbLine
 10
27.97509409195551
 20
370.2691187916092
 30
0.0
 11
-8.264165606441736
 21
370.2691187916092
 31
0.0
  0
LINE
  5
1C1
330
1BD
100
AcDbEntity
  8
BEMASSUNG
  6
Continuous
 62
     2
370
    -2
100
AcDbLine
 10
-7.26416560644175
 20
307.7691187916654
 30
0.0
 11
-7.264165606441737
 21
366.2691187916092
 31
0.0
  0
SOLID
  5
1C2
330
1BD
100
AcDbEntity
  8
BEMASSUNG
  6
Continuous
 62
     2
100
AcDbTrace
 10
-7.930832273108417
 20
307.7691187916654
 30
0.0
 11
-6.597498939775083
 21
307.7691187916654
 31
0.0
 12
-7.264165606441751
 22
303.7691187916654
 32
0.0
 13
-7.264165606441751
 23
303.7691187916654
 33
0.0
  0
SOLID
  5
1C3
330
1BD
100
AcDbEntity
  8
BEMASSUNG
  6
Continuous
 62
     2
100
AcDbTrace
 10
-7.930832273108403
 20
366.2691187916092
 30
0.0
 11
-6.59749893977507
 21
366.2691187916092
 31
0.0
 12
-7.264165606441736
 22
370.2691187916092
 32
0.0
 13
-7.264165606441736
 23
370.2691187916092
 33
0.0
  0
MTEXT
  5
1C4
330
1BD
100
AcDbEntity
  8
BEMASSUNG
  6
Continuous
 62
     3
100
AcDbMText
 10
-10.48515810303115
 20
337.0191187916373
 30
0.0
 40
4.349999999999999
 41
0.0
 71
     5
 72
     1
  1
\A1;66.5
  7
ARIAL-STANDARD
 11
0.0000000000000001
 21
1.0
 31
0.0
 73
     1
 44
1.0
1001
ACAD
1000
MTEXTBEGIN
1070
    73
1070
     1
1070
    44
1040
1.0
1070
    74
1070
     0
1000
MTEXTEND
  0
POINT
  5
1C5
330
1BD
100
AcDbEntity
  8
DEFPOINTS
  6
Continuous
 62
     0
100
AcDbPoint
 10
19.94744493249781
 20
303.7691187916654
 30
0.0
  0
POINT
  5
1C6
330
1BD
100
AcDbEntity
  8
DEFPOINTS
  6
Continuous
 62
     0
100
AcDbPoint
 10
27.97509409195551
 20
370.2691187916092
 30
0.0
  0
POINT
  5
1C7
330
1BD
100
AcDbEntity
  8
DEFPOINTS
  6
Continuous
 62
     0
100
AcDbPoint
 10
-7.264165606441736
 20
370.2691187916092
 30
0.0
  0
ENDBLK
  5
1C8
330
1BD
100
AcDbEntity
  8
0
100
AcDbBlockEnd
  0
BLOCK
  5
1B1
330
1B0
100
AcDbEntity
  8
0
100
AcDbBlockBegin
  2
*D9
 70
     1
 10
0.0
 20
0.0
 30
0.0
  3
*D9
  1

  0
LINE
  5
1B2
330
1B0
100
AcDbEntity
  8
BEMASSUNG
  6
Continuous
 62
     2
370
    -2
100
AcDbLine
 10
19.94744493249781
 20
268.7691187916653
 30
0.0
 11
-8.264165606441743
 21
268.7691187916653
 31
0.0
  0
LINE
  5
1B3
330
1B0
100
AcDbEntity
  8
BEMASSUNG
  6
Continuous
 62
     2
370
    -2
100
AcDbLine
 10
19.94744493249781
 20
303.7691187916654
 30
0.0
 11
-8.264165606441736
 21
303.7691187916654
 31
0.0
  0
LINE
  5
1B4
330
1B0
100
AcDbEntity
  8
BEMASSUNG
  6
Continuous
 62
     2
370
    -2
100
AcDbLine
 10
-7.264165606441743
 20
272.7691187916653
 30
0.0
 11
-7.264165606441737
 21
299.7691187916654
 31
0.0
  0
SOLID
  5
1B5
330
1B0
100
AcDbEntity
  8
BEMASSUNG
  6
Continuous
 62
     2
100
AcDbTrace
 10
-7.93083227310841
 20
272.7691187916653
 30
0.0
 11
-6.597498939775076
 21
272.7691187916653
 31
0.0
 12
-7.264165606441744
 22
268.7691187916653
 32
0.0
 13
-7.264165606441744
 23
268.7691187916653
 33
0.0
  0
SOLID
  5
1B6
330
1B0
100
AcDbEntity
  8
BEMASSUNG
  6
Continuous
 62
     2
100
AcDbTrace
 10
-7.930832273108403
 20
299.7691187916654
 30
0.0
 11
-6.59749893977507
 21
299.7691187916654
 31
0.0
 12
-7.264165606441736
 22
303.7691187916654
 32
0.0
 13
-7.264165606441736
 23
303.7691187916654
 33
0.0
  0
MTEXT
  5
1B7
330
1B0
100
AcDbEntity
  8
BEMASSUNG
  6
Continuous
 62
     3
100
AcDbMText
 10
-10.48664173195338
 20
286.2691187916654
 30
0.0
 40
4.349999999999999
 41
0.0
 71
     5
 72
     1
  1
\A1;35
  7
ARIAL-STANDARD
 11
0.0000000000000001
 21
1.0
 31
0.0
 73
     1
 44
1.0
1001
ACAD
1000
MTEXTBEGIN
1070
    73
1070
     1
1070
    44
1040
1.0
1070
    74
1070
     0
1000
MTEXTEND
  0
POINT
  5
1B8
330
1B0
100
AcDbEntity
  8
DEFPOINTS
  6
Continuous
 62
     0
100
AcDbPoint
 10
19.94744493249781
 20
268.7691187916653
 30
0.0
  0
POINT
  5
1B9
330
1B0
100
AcDbEntity
  8
DEFPOINTS
  6
Continuous
 62
     0
100
AcDbPoint
 10
19.94744493249781
 20
303.7691187916654
 30
0.0
  0
POINT
  5
1BA
330
1B0
100
AcDbEntity
  8
DEFPOINTS
  6
Continuous
 62
     0
100
AcDbPoint
 10
-7.264165606441736
 20
303.7691187916654
 30
0.0
  0
ENDBLK
  5
1BB
330
1B0
100
AcDbEntity
  8
0
100
AcDbBlockEnd
  0
BLOCK
  5
1A4
330
1A3
100
AcDbEntity
  8
0
100
AcDbBlockBegin
  2
*D10
 70
     1
 10
0.0
 20
0.0
 30
0.0
  3
*D10
  1

  0
LINE
  5
1A5
330
1A3
100
AcDbEntity
  8
BEMASSUNG
  6
Continuous
 62
     2
370
    -2
100
AcDbLine
 10
41.94744493249771
 20
222.7691187916654
 30
0.0
 11
6.827444932497819
 21
222.7691187916654
 31
0.0
  0
LINE
  5
1A6
330
1A3
100
AcDbEntity
  8
BEMASSUNG
  6
Continuous
 62
     2
370
    -2
100
AcDbLine
 10
19.94744493249781
 20
268.7691187916653
 30
0.0
 11
6.827444932497825
 21
268.7691187916653
 31
0.0
  0
LINE
  5
1A7
330
1A3
100
AcDbEntity
  8
BEMASSUNG
  6
Continuous
 62
     2
370
    -2
100
AcDbLine
 10
7.827444932497817
 20
226.7691187916654
 30
0.0
 11
7.827444932497825
 21
264.7691187916653
 31
0.0
  0
SOLID
  5
1A8
330
1A3
100
AcDbEntity
  8
BEMASSUNG
  6
Continuous
 62
     2
100
AcDbTrace
 10
7.16077826583115
 20
226.7691187916654
 30
0.0
 11
8.494111599164483
 21
226.7691187916654
 31
0.0
 12
7.827444932497816
 22
222.7691187916654
 32
0.0
 13
7.827444932497816
 23
222.7691187916654
 33
0.0
  0
SOLID
  5
1A9
330
1A3
100
AcDbEntity
  8
BEMASSUNG
  6
Continuous
 62
     2
100
AcDbTrace
 10
7.160778265831158
 20
264.7691187916653
 30
0.0
 11
8.494111599164492
 21
264.7691187916653
 31
0.0
 12
7.827444932497826
 22
268.7691187916653
 32
0.0
 13
7.827444932497826
 23
268.7691187916653
 33
0.0
  0
MTEXT
  5
1AA
330
1A3
100
AcDbEntity
  8
BEMASSUNG
  6
Continuous
 62
     3
100
AcDbMText
 10
4.606452435908424
 20
245.7691187916654
 30
0.0
 40
4.349999999999999
 41
0.0
 71
     5
 72
     1
  1
\A1;46
  7
ARIAL-STANDARD
 11
0.0000000000000001
 21
1.0
 31
0.0
 73
     1
 44
1.0
1001
ACAD
1000
MTEXTBEGIN
1070
    73
1070
     1
1070
    44
1040
1.0
1070
    74
1070
     0
1000
MTEXTEND
  0
POINT
  5
1AB
330
1A3
100
AcDbEntity
  8
DEFPOINTS
  6
Continuous
 62
     0
100
AcDbPoint
 10
41.94744493249771
 20
222.7691187916654
 30
0.0
  0
POINT
  5
1AC
330
1A3
100
AcDbEntity
  8
DEFPOINTS
  6
Continuous
 62
     0
100
AcDbPoint
 10
19.94744493249781
 20
268.7691187916653
 30
0.0
  0
POINT
  5
1AD
330
1A3
100
AcDbEntity
  8
DEFPOINTS
  6
Continuous
 62
     0
100
AcDbPoint
 10
7.827444932497826
 20
268.7691187916653
 30
0.0
  0
ENDBLK
  5
1AE
330
1A3
100
AcDbEntity
  8
0
100
AcDbBlockEnd
  0
BLOCK
  5
196
330
195
100
AcDbEntity
  8
0
100
AcDbBlockBegin
  2
*D11
 70
     1
 10
0.0
 20
0.0
 30
0.0
  3
*D11
  1

  0
LINE
  5
197
330
195
100
AcDbEntity
  8
BEMASSUNG
  6
Continuous
 62
     2
370
    -2
100
AcDbLine
 10
18.94744493249781
 20
269.2691187916657
 30
0.0
 11
18.94744493249781
 21
251.4310060857539
 31
0.0
  0
LINE
  5
198
330
195
100
AcDbEntity
  8
BEMASSUNG
  6
Continuous
 62
     2
370
    -2
100
AcDbLine
 10
38.94744493249772
 20
252.8501601608809
 30
0.0
 11
38.94744493249772
 21
251.4310060857539
 31
0.0
  0
LINE
  5
199
330
195
100
AcDbEntity
  8
BEMASSUNG
  6
Continuous
 62
     2
370
    -2
100
AcDbLine
 10
22.94744493249781
 20
252.431006085754
 30
0.0
 11
34.94744493249772
 21
252.431006085754
 31
0.0
  0
SOLID
  5
19A
330
195
100
AcDbEntity
  8
BEMASSUNG
  6
Continuous
 62
     2
100
AcDbTrace
 10
22.94744493249781
 20
253.0976727524206
 30
0.0
 11
22.94744493249781
 21
251.7643394190873
 31
0.0
 12
18.94744493249781
 22
252.431006085754
 32
0.0
 13
18.94744493249781
 23
252.431006085754
 33
0.0
  0
SOLID
  5
19B
330
195
100
AcDbEntity
  8
BEMASSUNG
  6
Continuous
 62
     2
100
AcDbTrace
 10
34.94744493249772
 20
253.0976727524206
 30
0.0
 11
34.94744493249772
 21
251.7643394190873
 31
0.0
 12
38.94744493249772
 22
252.431006085754
 32
0.0
 13
38.94744493249772
 23
252.431006085754
 33
0.0
  0
MTEXT
  5
19C
330
195
100
AcDbEntity
  8
BEMASSUNG
  6
Continuous
 62
     3
100
AcDbMText
 10
28.94744493249776
 20
255.6519985823433
 30
0.0
 40
4.349999999999999
 41
0.0
 71
     5
 72
     1
  1
\A1;20
  7
ARIAL-STANDARD
 73
     1
 44
1.0
1001
ACAD
1000
MTEXTBEGIN
1070
    73
1070
     1
1070
    44
1040
1.0
1070
    74
1070
     0
1000
MTEXTEND
  0
POINT
  5
19D
330
195
100
AcDbEntity
  8
DEFPOINTS
  6
Continuous
 62
     0
100
AcDbPoint
 10
18.94744493249781
 20
269.2691187916657
 30
0.0
  0
POINT
  5
19E
330
195
100
AcDbEntity
  8
DEFPOINTS
  6
Continuous
 62
     0
100
AcDbPoint
 10
38.94744493249772
 20
252.8501601608809
 30
0.0
  0
POINT
  5
19F
330
195
100
AcDbEntity
  8
DEFPOINTS
  6
Continuous
 62
     0
100
AcDbPoint
 10
38.94744493249772
 20
252.431006085754
 30
0.0
  0
ENDBLK
  5
1A0
330
195
100
AcDbEntity
  8
0
100
AcDbBlockEnd
  0
BLOCK
  5
180
330
17F
100
AcDbEntity
  8
0
100
AcDbBlockBegin
  2
*D12
 70
     1
 10
0.0
 20
0.0
 30
0.0
  3
*D12
  1

  0
LINE
  5
181
330
17F
100
AcDbEntity
  8
BEMASSUNG
  6
Continuous
 62
     2
370
    -2
100
AcDbLine
 10
38.94744493249772
 20
457.7691187916654
 30
0.0
 11
38.94744493249772
 21
469.4613661247013
 31
0.0
  0
LINE
  5
182
330
17F
100
AcDbEntity
  8
BEMASSUNG
  6
Continuous
 62
     2
370
    -2
100
AcDbLine
 10
41.94744493249771
 20
457.7691187916654
 30
0.0
 11
41.94744493249771
 21
469.4613661247013
 31
0.0
  0
LINE
  5
183
330
17F
100
AcDbEntity
  8
BEMASSUNG
  6
Continuous
 62
     2
370
    -2
100
AcDbLine
 10
34.94744493249772
 20
468.4613661247014
 30
0.0
 11
30.94744493249772
 21
468.4613661247014
 31
0.0
  0
LINE
  5
184
330
17F
100
AcDbEntity
  8
BEMASSUNG
  6
Continuous
 62
     2
370
    -2
100
AcDbLine
 10
45.94744493249772
 20
468.4613661247014
 30
0.0
 11
49.94744493249772
 21
468.4613661247014
 31
0.0
  0
LINE
  5
185
330
17F
100
AcDbEntity
  8
BEMASSUNG
  6
Continuous
 62
     2
370
    -2
100
AcDbLine
 10
38.94744493249772
 20
468.4613661247014
 30
0.0
 11
41.94744493249771
 21
468.4613661247014
 31
0.0
  0
SOLID
  5
186
330
17F
100
AcDbEntity
  8
BEMASSUNG
  6
Continuous
 62
     2
100
AcDbTrace
 10
34.94744493249772
 20
469.128032791368
 30
0.0
 11
34.94744493249772
 21
467.7946994580347
 31
0.0
 12
38.94744493249772
 22
468.4613661247014
 32
0.0
 13
38.94744493249772
 23
468.4613661247014
 33
0.0
  0
SOLID
  5
187
330
17F
100
AcDbEntity
  8
BEMASSUNG
  6
Continuous
 62
     2
100
AcDbTrace
 10
45.94744493249772
 20
469.128032791368
 30
0.0
 11
45.94744493249772
 21
467.7946994580347
 31
0.0
 12
41.94744493249771
 22
468.4613661247014
 32
0.0
 13
41.94744493249771
 23
468.4613661247014
 33
0.0
  0
MTEXT
  5
188
330
17F
100
AcDbEntity
  8
BEMASSUNG
  6
Continuous
 62
     3
100
AcDbMText
 10
40.44744493249772
 20
471.683842250213
 30
0.0
 40
4.349999999999999
 41
0.0
 71
     5
 72
     1
  1
\A1;3
  7
ARIAL-STANDARD
 73
     1
 44
1.0
1001
ACAD
1000
MTEXTBEGIN
1070
    73
1070
     1
1070
    44
1040
1.0
1070
    74
1070
     0
1000
MTEXTEND
  0
POINT
  5
189
330
17F
100
AcDbEntity
  8
DEFPOINTS
  6
Continuous
 62
     0
100
AcDbPoint
 10
38.94744493249772
 20
457.7691187916654
 30
0.0
  0
POINT
  5
18A
330
17F
100
AcDbEntity
  8
DEFPOINTS
  6
Continuous
 62
     0
100
AcDbPoint
 10
41.94744493249771
 20
457.7691187916654
 30
0.0
  0
POINT
  5
18B
330
17F
100
AcDbEntity
  8
DEFPOINTS
  6
Continuous
 62
     0
100
AcDbPoint
 10
41.94744493249771
 20
468.4613661247014
 30
0.0
  0
ENDBLK
  5
18C
330
17F
100
AcDbEntity
  8
0
100
AcDbBlockEnd
  0
BLOCK
  5
171
330
170
100
AcDbEntity
  8
0
100
AcDbBlockBegin
  2
*D13
 70
     1
 10
0.0
 20
0.0
 30
0.0
  3
*D13
  1

  0
LINE
  5
172
330
170
100
AcDbEntity
  8
BEMASSUNG
  6
Continuous
 62
     2
370
    -2
100
AcDbLine
 10
155.9979577453339
 20
187.7691187916654
 30
0.0
 11
145.4092561657501
 21
187.7691187916654
 31
0.0
  0
LINE
  5
173
330
170
100
AcDbEntity
  8
BEMASSUNG
  6
Continuous
 62
     2
370
    -2
100
AcDbLine
 10
161.2479577453339
 20
200.7691187916655
 30
0.0
 11
145.4092561657501
 21
200.7691187916655
 31
0.0
  0
LINE
  5
174
330
170
100
AcDbEntity
  8
BEMASSUNG
  6
Continuous
 62
     2
370
    -2
100
AcDbLine
 10
146.4092561657501
 20
191.7691187916654
 30
0.0
 11
146.4092561657501
 21
196.7691187916654
 31
0.0
  0
SOLID
  5
175
330
170
100
AcDbEntity
  8
BEMASSUNG
  6
Continuous
 62
     2
100
AcDbTrace
 10
145.7425894990834
 20
191.7691187916654
 30
0.0
 11
147.0759228324167
 21
191.7691187916654
 31
0.0
 12
146.4092561657501
 22
187.7691187916654
 32
0.0
 13
146.4092561657501
 23
187.7691187916654
 33
0.0
  0
SOLID
  5
176
330
170
100
AcDbEntity
  8
BEMASSUNG
  6
Continuous
 62
     2
100
AcDbTrace
 10
145.7425894990835
 20
196.7691187916654
 30
0.0
 11
147.0759228324168
 21
196.7691187916654
 31
0.0
 12
146.4092561657501
 22
200.7691187916655
 32
0.0
 13
146.4092561657501
 23
200.7691187916655
 33
0.0
  0
MTEXT
  5
177
330
170
100
AcDbEntity
  8
BEMASSUNG
  6
Continuous
 62
     3
100
AcDbMText
 10
143.1867800402384
 20
194.2691187916654
 30
0.0
 40
4.349999999999999
 41
0.0
 71
     5
 72
     1
  1
\A1;13
  7
ARIAL-STANDARD
 11
0.0000000000000001
 21
1.0
 31
0.0
 73
     1
 44
1.0
1001
ACAD
1000
MTEXTBEGIN
1070
    73
1070
     1
1070
    44
1040
1.0
1070
    74
1070
     0
1000
MTEXTEND
  0
POINT
  5
178
330
170
100
AcDbEntity
  8
DEFPOINTS
  6
Continuous
 62
     0
100
AcDbPoint
 10
155.9979577453339
 20
187.7691187916654
 30
0.0
  0
POINT
  5
179
330
170
100
AcDbEntity
  8
DEFPOINTS
  6
Continuous
 62
     0
100
AcDbPoint
 10
161.2479577453339
 20
200.7691187916655
 30
0.0
  0
POINT
  5
17A
330
170
100
AcDbEntity
  8
DEFPOINTS
  6
Continuous
 62
     0
100
AcDbPoint
 10
146.4092561657501
 20
200.7691187916655
 30
0.0
  0
ENDBLK
  5
17B
330
170
100
AcDbEntity
  8
0
100
AcDbBlockEnd
  0
BLOCK
  5
164
330
163
100
AcDbEntity
  8
0
100
AcDbBlockBegin
  2
*D14
 70
     1
 10
0.0
 20
0.0
 30
0.0
  3
*D14
  1

  0
LINE
  5
165
330
163
100
AcDbEntity
  8
BEMASSUNG
  6
Continuous
 62
     2
370
    -2
100
AcDbLine
 10
179.9979577453339
 20
187.7691187916654
 30
0.0
 11
198.4569895714982
 21
187.7691187916654
 31
0.0
  0
LINE
  5
166
330
163
100
AcDbEntity
  8
BEMASSUNG
  6
Continuous
 62
     2
370
    -2
100
AcDbLine
 10
179.9979577453343
 20
457.7691187916654
 30
0.0
 11
198.4569895714983
 21
457.7691187916654
 31
0.0
  0
LINE
  5
167
330
163
100
AcDbEntity
  8
BEMASSUNG
  6
Continuous
 62
     2
370
    -2
100
AcDbLine
 10
197.4569895714982
 20
191.7691187916654
 30
0.0
 11
197.4569895714983
 21
453.7691187916654
 31
0.0
  0
SOLID
  5
168
330
163
100
AcDbEntity
  8
BEMASSUNG
  6
Continuous
 62
     2
100
AcDbTrace
 10
196.7903229048316
 20
191.7691187916654
 30
0.0
 11
198.1236562381649
 21
191.7691187916654
 31
0.0
 12
197.4569895714982
 22
187.7691187916654
 32
0.0
 13
197.4569895714982
 23
187.7691187916654
 33
0.0
  0
SOLID
  5
169
330
163
100
AcDbEntity
  8
BEMASSUNG
  6
Continuous
 62
     2
100
AcDbTrace
 10
196.7903229048317
 20
453.7691187916654
 30
0.0
 11
198.123656238165
 21
453.7691187916654
 31
0.0
 12
197.4569895714983
 22
457.7691187916654
 32
0.0
 13
197.4569895714983
 23
457.7691187916654
 33
0.0
  0
MTEXT
  5
16A
330
163
100
AcDbEntity
  8
BEMASSUNG
  6
Continuous
 62
     3
100
AcDbMText
 10
194.2359970749089
 20
322.7691187916655
 30
0.0
 40
4.349999999999999
 41
0.0
 71
     5
 72
     1
  1
\A1;270
  7
ARIAL-STANDARD
 11
0.0000000000000001
 21
1.0
 31
0.0
 73
     1
 44
1.0
1001
ACAD
1000
MTEXTBEGIN
1070
    73
1070
     1
1070
    44
1040
1.0
1070
    74
1070
     0
1000
MTEXTEND
  0
POINT
  5
16B
330
163
100
AcDbEntity
  8
DEFPOINTS
  6
Continuous
 62
     0
100
AcDbPoint
 10
179.9979577453339
 20
187.7691187916654
 30
0.0
  0
POINT
  5
16C
330
163
100
AcDbEntity
  8
DEFPOINTS
  6
Continuous
 62
     0
100
AcDbPoint
 10
179.9979577453343
 20
457.7691187916654
 30
0.0
  0
POINT
  5
16D
330
163
100
AcDbEntity
  8
DEFPOINTS
  6
Continuous
 62
     0
100
AcDbPoint
 10
197.4569895714983
 20
457.7691187916654
 30
0.0
  0
ENDBLK
  5
16E
330
163
100
AcDbEntity
  8
0
100
AcDbBlockEnd
  0
BLOCK
  5
157
330
156
100
AcDbEntity
  8
0
100
AcDbBlockBegin
  2
*D15
 70
     1
 10
0.0
 20
0.0
 30
0.0
  3
*D15
  1

  0
LINE
  5
158
330
156
100
AcDbEntity
  8
BEMASSUNG
  6
Continuous
 62
     2
370
    -2
100
AcDbLine
 10
84.44744493249766
 20
130.1773943588713
 30
0.0
 11
98.10082805797515
 21
130.1773943588713
 31
0.0
  0
LINE
  5
159
330
156
100
AcDbEntity
  8
BEMASSUNG
  6
Continuous
 62
     2
370
    -2
100
AcDbLine
 10
84.44744493249766
 20
147.9773943588708
 30
0.0
 11
98.10082805797515
 21
147.9773943588708
 31
0.0
  0
LINE
  5
15A
330
156
100
AcDbEntity
  8
BEMASSUNG
  6
Continuous
 62
     2
370
    -2
100
AcDbLine
 10
97.10082805797515
 20
134.1773943588713
 30
0.0
 11
97.10082805797515
 21
143.9773943588708
 31
0.0
  0
SOLID
  5
15B
330
156
100
AcDbEntity
  8
BEMASSUNG
  6
Continuous
 62
     2
100
AcDbTrace
 10
96.43416139130849
 20
134.1773943588713
 30
0.0
 11
97.76749472464182
 21
134.1773943588713
 31
0.0
 12
97.10082805797515
 22
130.1773943588713
 32
0.0
 13
97.10082805797515
 23
130.1773943588713
 33
0.0
  0
SOLID
  5
15C
330
156
100
AcDbEntity
  8
BEMASSUNG
  6
Continuous
 62
     2
100
AcDbTrace
 10
96.43416139130849
 20
143.9773943588708
 30
0.0
 11
97.76749472464182
 21
143.9773943588708
 31
0.0
 12
97.10082805797515
 22
147.9773943588708
 32
0.0
 13
97.10082805797515
 23
147.9773943588708
 33
0.0
  0
MTEXT
  5
15D
330
156
100
AcDbEntity
  8
BEMASSUNG
  6
Continuous
 62
     3
100
AcDbMText
 10
93.87983556138577
 20
139.0773943588711
 30
0.0
 40
4.349999999999999
 41
0.0
 71
     5
 72
     1
  1
\A1;17.8
  7
ARIAL-STANDARD
 11
0.0000000000000001
 21
1.0
 31
0.0
 73
     1
 44
1.0
1001
ACAD
1000
MTEXTBEGIN
1070
    73
1070
     1
1070
    44
1040
1.0
1070
    74
1070
     0
1000
MTEXTEND
  0
POINT
  5
15E
330
156
100
AcDbEntity
  8
DEFPOINTS
  6
Continuous
 62
     0
100
AcDbPoint
 10
84.44744493249766
 20
130.1773943588713
 30
0.0
  0
POINT
  5
15F
330
156
100
AcDbEntity
  8
DEFPOINTS
  6
Continuous
 62
     0
100
AcDbPoint
 10
84.44744493249766
 20
147.9773943588708
 30
0.0
  0
POINT
  5
160
330
156
100
AcDbEntity
  8
DEFPOINTS
  6
Continuous
 62
     0
100
AcDbPoint
 10
97.10082805797515
 20
147.9773943588708
 30
0.0
  0
ENDBLK
  5
161
330
156
100
AcDbEntity
  8
0
100
AcDbBlockEnd
  0
BLOCK
  5
14A
330
149
100
AcDbEntity
  8
0
100
AcDbBlockBegin
  2
*D16
 70
     1
 10
0.0
 20
0.0
 30
0.0
  3
*D16
  1

  0
LINE
  5
14B
330
149
100
AcDbEntity
  8
BEMASSUNG
  6
Continuous
 62
     2
370
    -2
100
AcDbLine
 10
155.9979577453339
 20
187.7691187916654
 30
0.0
 11
155.9979577453339
 21
163.21485862502
 31
0.0
  0
LINE
  5
14C
330
149
100
AcDbEntity
  8
BEMASSUNG
  6
Continuous
 62
     2
370
    -2
100
AcDbLine
 10
179.9979577453339
 20
187.7691187916654
 30
0.0
 11
179.9979577453339
 21
163.21485862502
 31
0.0
  0
LINE
  5
14D
330
149
100
AcDbEntity
  8
BEMASSUNG
  6
Continuous
 62
     2
370
    -2
100
AcDbLine
 10
159.9979577453339
 20
164.21485862502
 30
0.0
 11
175.9979577453339
 21
164.21485862502
 31
0.0
  0
SOLID
  5
14E
330
149
100
AcDbEntity
  8
BEMASSUNG
  6
Continuous
 62
     2
100
AcDbTrace
 10
159.9979577453339
 20
164.8815252916866
 30
0.0
 11
159.9979577453339
 21
163.5481919583533
 31
0.0
 12
155.9979577453339
 22
164.21485862502
 32
0.0
 13
155.9979577453339
 23
164.21485862502
 33
0.0
  0
SOLID
  5
14F
330
149
100
AcDbEntity
  8
BEMASSUNG
  6
Continuous
 62
     2
100
AcDbTrace
 10
175.9979577453339
 20
164.8815252916866
 30
0.0
 11
175.9979577453339
 21
163.5481919583533
 31
0.0
 12
179.9979577453339
 22
164.21485862502
 32
0.0
 13
179.9979577453339
 23
164.21485862502
 33
0.0
  0
MTEXT
  5
150
330
149
100
AcDbEntity
  8
BEMASSUNG
  6
Continuous
 62
     3
100
AcDbMText
 10
167.9979577453339
 20
167.3987603985534
 30
0.0
 40
4.349999999999999
 41
0.0
 71
     5
 72
     1
  1
\A1;24
  7
ARIAL-STANDARD
 73
     1
 44
1.0
1001
ACAD
1000
MTEXTBEGIN
1070
    73
1070
     1
1070
    44
1040
1.0
1070
    74
1070
     0
1000
MTEXTEND
  0
POINT
  5
151
330
149
100
AcDbEntity
  8
DEFPOINTS
  6
Continuous
 62
     0
100
AcDbPoint
 10
155.9979577453339
 20
187.7691187916654
 30
0.0
  0
POINT
  5
152
330
149
100
AcDbEntity
  8
DEFPOINTS
  6
Continuous
 62
     0
100
AcDbPoint
 10
179.9979577453339
 20
187.7691187916654
 30
0.0
  0
POINT
  5
153
330
149
100
AcDbEntity
  8
DEFPOINTS
  6
Continuous
 62
     0
100
AcDbPoint
 10
179.9979577453339
 20
164.21485862502
 30
0.0
  0
ENDBLK
  5
154
330
149
100
AcDbEntity
  8
0
100
AcDbBlockEnd
  0
BLOCK
  5
13D
330
13C
100
AcDbEntity
  8
0
100
AcDbBlockBegin
  2
*D17
 70
     1
 10
0.0
 20
0.0
 30
0.0
  3
*D17
  1

  0
LINE
  5
13E
330
13C
100
AcDbEntity
  8
BEMASSUNG
  6
Continuous
 62
     2
370
    -2
100
AcDbLine
 10
160.9979577453664
 20
401.8691187916399
 30
0.0
 11
160.9979577453664
 21
419.2202385388501
 31
0.0
  0
LINE
  5
13F
330
13C
100
AcDbEntity
  8
BEMASSUNG
  6
Continuous
 62
     2
370
    -2
100
AcDbLine
 10
174.9979577453755
 20
399.3691187916893
 30
0.0
 11
174.9979577453755
 21
419.2202385388501
 31
0.0
  0
LINE
  5
140
330
13C
100
AcDbEntity
  8
BEMASSUNG
  6
Continuous
 62
     2
370
    -2
100
AcDbLine
 10
164.9979577453664
 20
418.2202385388501
 30
0.0
 11
170.9979577453755
 21
418.2202385388501
 31
0.0
  0
SOLID
  5
141
330
13C
100
AcDbEntity
  8
BEMASSUNG
  6
Continuous
 62
     2
100
AcDbTrace
 10
164.9979577453664
 20
418.8869052055168
 30
0.0
 11
164.9979577453664
 21
417.5535718721834
 31
0.0
 12
160.9979577453664
 22
418.2202385388501
 32
0.0
 13
160.9979577453664
 23
418.2202385388501
 33
0.0
  0
SOLID
  5
142
330
13C
100
AcDbEntity
  8
BEMASSUNG
  6
Continuous
 62
     2
100
AcDbTrace
 10
170.9979577453755
 20
418.8869052055168
 30
0.0
 11
170.9979577453755
 21
417.5535718721834
 31
0.0
 12
174.9979577453755
 22
418.2202385388501
 32
0.0
 13
174.9979577453755
 23
418.2202385388501
 33
0.0
  0
MTEXT
  5
143
330
13C
100
AcDbEntity
  8
BEMASSUNG
  6
Continuous
 62
     3
100
AcDbMText
 10
167.997957745371
 20
421.4041403123835
 30
0.0
 40
4.349999999999999
 41
0.0
 71
     5
 72
     1
  1
\A1;14
  7
ARIAL-STANDARD
 73
     1
 44
1.0
1001
ACAD
1000
MTEXTBEGIN
1070
    73
1070
     1
1070
    44
1040
1.0
1070
    74
1070
     0
1000
MTEXTEND
  0
POINT
  5
144
330
13C
100
AcDbEntity
  8
DEFPOINTS
  6
Continuous
 62
     0
100
AcDbPoint
 10
160.9979577453664
 20
401.8691187916399
 30
0.0
  0
POINT
  5
145
330
13C
100
AcDbEntity
  8
DEFPOINTS
  6
Continuous
 62
     0
100
AcDbPoint
 10
174.9979577453755
 20
399.3691187916893
 30
0.0
  0
POINT
  5
146
330
13C
100
AcDbEntity
  8
DEFPOINTS
  6
Continuous
 62
     0
100
AcDbPoint
 10
174.9979577453755
 20
418.2202385388501
 30
0.0
  0
ENDBLK
  5
147
330
13C
100
AcDbEntity
  8
0
100
AcDbBlockEnd
  0
BLOCK
  5
12E
330
12D
100
AcDbEntity
  8
0
100
AcDbBlockBegin
  2
*D18
 70
     1
 10
0.0
 20
0.0
 30
0.0
  3
*D18
  1

  0
LINE
  5
12F
330
12D
100
AcDbEntity
  8
BEMASSUNG
  6
Continuous
 62
     2
370
    -2
100
AcDbLine
 10
163.9979577453281
 20
302.7691187916655
 30
0.0
 11
163.9979577453281
 21
320.5145801550949
 31
0.0
  0
LINE
  5
130
330
12D
100
AcDbEntity
  8
BEMASSUNG
  6
Continuous
 62
     2
370
    -2
100
AcDbLine
 10
171.9979577453349
 20
302.7691187916651
 30
0.0
 11
171.9979577453349
 21
320.5145801550949
 31
0.0
  0
LINE
  5
131
330
12D
100
AcDbEntity
  8
BEMASSUNG
  6
Continuous
 62
     2
370
    -2
100
AcDbLine
 10
159.9979577453281
 20
319.5145801550948
 30
0.0
 11
155.9979577453281
 21
319.5145801550948
 31
0.0
  0
LINE
  5
132
330
12D
100
AcDbEntity
  8
BEMASSUNG
  6
Continuous
 62
     2
370
    -2
100
AcDbLine
 10
175.9979577453349
 20
319.5145801550948
 30
0.0
 11
179.9979577453349
 21
319.5145801550948
 31
0.0
  0
LINE
  5
133
330
12D
100
AcDbEntity
  8
BEMASSUNG
  6
Continuous
 62
     2
370
    -2
100
AcDbLine
 10
163.9979577453281
 20
319.5145801550948
 30
0.0
 11
171.9979577453349
 21
319.5145801550948
 31
0.0
  0
SOLID
  5
134
330
12D
100
AcDbEntity
  8
BEMASSUNG
  6
Continuous
 62
     2
100
AcDbTrace
 10
159.9979577453281
 20
320.1812468217615
 30
0.0
 11
159.9979577453281
 21
318.8479134884282
 31
0.0
 12
163.9979577453281
 22
319.5145801550948
 32
0.0
 13
163.9979577453281
 23
319.5145801550948
 33
0.0
  0
SOLID
  5
135
330
12D
100
AcDbEntity
  8
BEMASSUNG
  6
Continuous
 62
     2
100
AcDbTrace
 10
175.9979577453349
 20
320.1812468217615
 30
0.0
 11
175.9979577453349
 21
318.8479134884282
 31
0.0
 12
171.9979577453349
 22
319.5145801550948
 32
0.0
 13
171.9979577453349
 23
319.5145801550948
 33
0.0
  0
MTEXT
  5
136
330
12D
100
AcDbEntity
  8
BEMASSUNG
  6
Continuous
 62
     3
100
AcDbMText
 10
167.9979577453315
 20
322.7355726516842
 30
0.0
 40
4.349999999999999
 41
0.0
 71
     5
 72
     1
  1
\A1;8
  7
ARIAL-STANDARD
 73
     1
 44
1.0
1001
ACAD
1000
MTEXTBEGIN
1070
    73
1070
     1
1070
    44
1040
1.0
1070
    74
1070
     0
1000
MTEXTEND
  0
POINT
  5
137
330
12D
100
AcDbEntity
  8
DEFPOINTS
  6
Continuous
 62
     0
100
AcDbPoint
 10
163.9979577453281
 20
302.7691187916655
 30
0.0
  0
POINT
  5
138
330
12D
100
AcDbEntity
  8
DEFPOINTS
  6
Continuous
 62
     0
100
AcDbPoint
 10
171.9979577453349
 20
302.7691187916651
 30
0.0
  0
POINT
  5
139
330
12D
100
AcDbEntity
  8
DEFPOINTS
  6
Continuous
 62
     0
100
AcDbPoint
 10
171.9979577453349
 20
319.5145801550948
 30
0.0
  0
ENDBLK
  5
13A
330
12D
100
AcDbEntity
  8
0
100
AcDbBlockEnd
  0
BLOCK
  5
121
330
120
100
AcDbEntity
  8
0
100
AcDbBlockBegin
  2
*D19
 70
     1
 10
0.0
 20
0.0
 30
0.0
  3
*D19
  1

  0
LINE
  5
122
330
120
100
AcDbEntity
  8
BEMASSUNG
  6
Continuous
 62
     2
370
    -2
100
AcDbLine
 10
161.2479577453347
 20
444.7691187916655
 30
0.0
 11
145.4092561657501
 21
444.7691187916655
 31
0.0
  0
LINE
  5
123
330
120
100
AcDbEntity
  8
BEMASSUNG
  6
Continuous
 62
     2
370
    -2
100
AcDbLine
 10
155.9979577453339
 20
457.7691187916654
 30
0.0
 11
145.4092561657501
 21
457.7691187916654
 31
0.0
  0
LINE
  5
124
330
120
100
AcDbEntity
  8
BEMASSUNG
  6
Continuous
 62
     2
370
    -2
100
AcDbLine
 10
146.4092561657501
 20
448.7691187916655
 30
0.0
 11
146.4092561657501
 21
453.7691187916654
 31
0.0
  0
SOLID
  5
125
330
120
100
AcDbEntity
  8
BEMASSUNG
  6
Continuous
 62
     2
100
AcDbTrace
 10
145.7425894990835
 20
448.7691187916655
 30
0.0
 11
147.0759228324168
 21
448.7691187916655
 31
0.0
 12
146.4092561657501
 22
444.7691187916655
 32
0.0
 13
146.4092561657501
 23
444.7691187916655
 33
0.0
  0
SOLID
  5
126
330
120
100
AcDbEntity
  8
BEMASSUNG
  6
Continuous
 62
     2
100
AcDbTrace
 10
145.7425894990835
 20
453.7691187916654
 30
0.0
 11
147.0759228324168
 21
453.7691187916654
 31
0.0
 12
146.4092561657501
 22
457.7691187916654
 32
0.0
 13
146.4092561657501
 23
457.7691187916654
 33
0.0
  0
MTEXT
  5
127
330
120
100
AcDbEntity
  8
BEMASSUNG
  6
Continuous
 62
     3
100
AcDbMText
 10
143.1867800402384
 20
451.2691187916654
 30
0.0
 40
4.349999999999999
 41
0.0
 71
     5
 72
     1
  1
\A1;13
  7
ARIAL-STANDARD
 11
0.0000000000000001
 21
1.0
 31
0.0
 73
     1
 44
1.0
1001
ACAD
1000
MTEXTBEGIN
1070
    73
1070
     1
1070
    44
1040
1.0
1070
    74
1070
     0
1000
MTEXTEND
  0
POINT
  5
128
330
120
100
AcDbEntity
  8
DEFPOINTS
  6
Continuous
 62
     0
100
AcDbPoint
 10
161.2479577453347
 20
444.7691187916655
 30
0.0
  0
POINT
  5
129
330
120
100
AcDbEntity
  8
DEFPOINTS
  6
Continuous
 62
     0
100
AcDbPoint
 10
155.9979577453339
 20
457.7691187916654
 30
0.0
  0
POINT
  5
12A
330
120
100
AcDbEntity
  8
DEFPOINTS
  6
Continuous
 62
     0
100
AcDbPoint
 10
146.4092561657501
 20
457.7691187916654
 30
0.0
  0
ENDBLK
  5
12B
330
120
100
AcDbEntity
  8
0
100
AcDbBlockEnd
  0
BLOCK
  5
10E
330
10D
100
AcDbEntity
  8
0
100
AcDbBlockBegin
  2
*D20
 70
     1
 10
0.0
 20
0.0
 30
0.0
  3
*D20
  1

  0
LINE
  5
10F
330
10D
100
AcDbEntity
  8
BEMASSUNG
  6
Continuous
 62
     2
370
    -2
100
AcDbLine
 10
27.66052518204704
 20
402.269118791608
 30
0.0
 11
-8.193321060923388
 21
402.269118791608
 31
0.0
  0
LINE
  5
110
330
10D
100
AcDbEntity
  8
BEMASSUNG
  6
Continuous
 62
     2
370
    -2
100
AcDbLine
 10
38.94744493249766
 20
457.7691187916654
 30
0.0
 11
-8.193321060923372
 21
457.7691187916654
 31
0.0
  0
LINE
  5
111
330
10D
100
AcDbEntity
  8
BEMASSUNG
  6
Continuous
 62
     2
370
    -2
100
AcDbLine
 10
-7.193321060923384
 20
406.269118791608
 30
0.0
 11
-7.193321060923374
 21
453.7691187916654
 31
0.0
  0
SOLID
  5
112
330
10D
100
AcDbEntity
  8
BEMASSUNG
  6
Continuous
 62
     2
100
AcDbTrace
 10
-7.859987727590051
 20
406.269118791608
 30
0.0
 11
-6.526654394256717
 21
406.269118791608
 31
0.0
 12
-7.193321060923385
 22
402.269118791608
 32
0.0
 13
-7.193321060923385
 23
402.269118791608
 33
0.0
  0
SOLID
  5
113
330
10D
100
AcDbEntity
  8
BEMASSUNG
  6
Continuous
 62
     2
100
AcDbTrace
 10
-7.859987727590041
 20
453.7691187916654
 30
0.0
 11
-6.526654394256707
 21
453.7691187916654
 31
0.0
 12
-7.193321060923373
 22
457.7691187916654
 32
0.0
 13
-7.193321060923373
 23
457.7691187916654
 33
0.0
  0
MTEXT
  5
114
330
10D
100
AcDbEntity
  8
BEMASSUNG
  6
Continuous
 62
     3
100
AcDbMText
 10
-10.40541178397938
 20
430.0191187916367
 30
0.0
 40
4.349999999999999
 41
0.0
 71
     5
 72
     1
  1
\A1;55.5
  7
ARIAL-STANDARD
 11
0.0000000000000001
 21
1.0
 31
0.0
 73
     1
 44
1.0
1001
ACAD
1000
MTEXTBEGIN
1070
    73
1070
     1
1070
    44
1040
1.0
1070
    74
1070
     0
1000
MTEXTEND
  0
POINT
  5
115
330
10D
100
AcDbEntity
  8
DEFPOINTS
  6
Continuous
 62
     0
100
AcDbPoint
 10
27.66052518204704
 20
402.269118791608
 30
0.0
  0
POINT
  5
116
330
10D
100
AcDbEntity
  8
DEFPOINTS
  6
Continuous
 62
     0
100
AcDbPoint
 10
38.94744493249766
 20
457.7691187916654
 30
0.0
  0
POINT
  5
117
330
10D
100
AcDbEntity
  8
DEFPOINTS
  6
Continuous
 62
     0
100
AcDbPoint
 10
-7.193321060923373
 20
457.7691187916654
 30
0.0
  0
ENDBLK
  5
118
330
10D
100
AcDbEntity
  8
0
100
AcDbBlockEnd
  0
BLOCK
  5
A2
330
A1
100
AcDbEntity
  8
0
100
AcDbBlockBegin
  2
*D21
 70
     1
 10
0.0
 20
0.0
 30
0.0
  3
*D21
  1

  0
LINE
  5
A3
330
A1
100
AcDbEntity
  8
BEMASSUNG
  6
Continuous
 62
     2
370
    -2
100
AcDbLine
 10
55.27297895151028
 20
342.2691187916591
 30
0.0
 11
30.72004102055076
 21
342.2691187916591
 31
0.0
  0
LINE
  5
A4
330
A1
100
AcDbEntity
  8
BEMASSUNG
  6
Continuous
 62
     2
370
    -2
100
AcDbLine
 10
61.94744493249769
 20
320.7691187916656
 30
0.0
 11
30.72004102055075
 21
320.7691187916656
 31
0.0
  0
LINE
  5
A5
330
A1
100
AcDbEntity
  8
BEMASSUNG
  6
Continuous
 62
     2
370
    -2
100
AcDbLine
 10
31.72004102055076
 20
338.2691187916591
 30
0.0
 11
31.72004102055075
 21
324.7691187916656
 31
0.0
  0
SOLID
  5
A6
330
A1
100
AcDbEntity
  8
BEMASSUNG
  6
Continuous
 62
     2
100
AcDbTrace
 10
31.05337435388409
 20
338.2691187916591
 30
0.0
 11
32.38670768721743
 21
338.2691187916591
 31
0.0
 12
31.72004102055076
 22
342.2691187916591
 32
0.0
 13
31.72004102055076
 23
342.2691187916591
 33
0.0
  0
SOLID
  5
A7
330
A1
100
AcDbEntity
  8
BEMASSUNG
  6
Continuous
 62
     2
100
AcDbTrace
 10
31.05337435388408
 20
324.7691187916656
 30
0.0
 11
32.38670768721742
 21
324.7691187916656
 31
0.0
 12
31.72004102055075
 22
320.7691187916656
 32
0.0
 13
31.72004102055075
 23
320.7691187916656
 33
0.0
  0
MTEXT
  5
A8
330
A1
100
AcDbEntity
  8
BEMASSUNG
  6
Continuous
 62
     3
100
AcDbMText
 10
28.49904852396134
 20
331.5191187916623
 30
0.0
 40
4.349999999999999
 41
0.0
 71
     5
 72
     1
  1
\A1;21.5
  7
ARIAL-STANDARD
 11
0.0000000000000001
 21
1.0
 31
0.0
 73
     1
 44
1.0
1001
ACAD
1000
MTEXTBEGIN
1070
    73
1070
     1
1070
    44
1040
1.0
1070
    74
1070
     0
1000
MTEXTEND
  0
POINT
  5
A9
330
A1
100
AcDbEntity
  8
DEFPOINTS
  6
Continuous
 62
     0
100
AcDbPoint
 10
55.27297895151028
 20
342.2691187916591
 30
0.0
  0
POINT
  5
AA
330
A1
100
AcDbEntity
  8
DEFPOINTS
  6
Continuous
 62
     0
100
AcDbPoint
 10
61.94744493249769
 20
320.7691187916656
 30
0.0
  0
POINT
  5
AB
330
A1
100
AcDbEntity
  8
DEFPOINTS
  6
Continuous
 62
     0
100
AcDbPoint
 10
31.72004102055075
 20
320.7691187916656
 30
0.0
  0
ENDBLK
  5
AC
330
A1
100
AcDbEntity
  8
0
100
AcDbBlockEnd
  0
BLOCK
  5
94
330
93
100
AcDbEntity
  8
0
100
AcDbBlockBegin
  2
*D22
 70
     1
 10
0.0
 20
0.0
 30
0.0
  3
*D22
  1

  0
LINE
  5
95
330
93
100
AcDbEntity
  8
BEMASSUNG
  6
Continuous
 62
     2
370
    -2
100
AcDbLine
 10
83.05595627215771
 20
342.2691187916591
 30
0.0
 11
107.942368704279
 21
342.2691187916591
 31
0.0
  0
LINE
  5
96
330
93
100
AcDbEntity
  8
BEMASSUNG
  6
Continuous
 62
     2
370
    -2
100
AcDbLine
 10
83.05595627215771
 20
248.2691187916655
 30
0.0
 11
107.942368704279
 21
248.2691187916655
 31
0.0
  0
LINE
  5
97
330
93
100
AcDbEntity
  8
BEMASSUNG
  6
Continuous
 62
     2
370
    -2
100
AcDbLine
 10
106.942368704279
 20
338.2691187916591
 30
0.0
 11
106.942368704279
 21
252.2691187916655
 31
0.0
  0
SOLID
  5
98
330
93
100
AcDbEntity
  8
BEMASSUNG
  6
Continuous
 62
     2
100
AcDbTrace
 10
106.2757020376124
 20
338.2691187916591
 30
0.0
 11
107.6090353709457
 21
338.2691187916591
 31
0.0
 12
106.942368704279
 22
342.2691187916591
 32
0.0
 13
106.942368704279
 23
342.2691187916591
 33
0.0
  0
SOLID
  5
99
330
93
100
AcDbEntity
  8
BEMASSUNG
  6
Continuous
 62
     2
100
AcDbTrace
 10
106.2757020376123
 20
252.2691187916655
 30
0.0
 11
107.6090353709457
 21
252.2691187916655
 31
0.0
 12
106.942368704279
 22
248.2691187916655
 32
0.0
 13
106.942368704279
 23
248.2691187916655
 33
0.0
  0
MTEXT
  5
9A
330
93
100
AcDbEntity
  8
BEMASSUNG
  6
Continuous
 62
     3
100
AcDbMText
 10
100.0874744341562
 20
295.2691187916623
 30
0.0
 40
4.349999999999999
 41
0.0
 71
     5
 72
     1
  1
\A1;RZ 94\PPZ 92
  7
ARIAL-STANDARD
 11
0.0000000000000001
 21
1.0
 31
0.0
 73
     1
 44
1.0
1001
ACAD
1000
MTEXTBEGIN
1070
    73
1070
     1
1070
    44
1040
1.0
1070
    74
1070
     0
1000
MTEXTEND
  0
POINT
  5
9B
330
93
100
AcDbEntity
  8
DEFPOINTS
  6
Continuous
 62
     0
100
AcDbPoint
 10
83.05595627215771
 20
342.2691187916591
 30
0.0
  0
POINT
  5
9C
330
93
100
AcDbEntity
  8
DEFPOINTS
  6
Continuous
 62
     0
100
AcDbPoint
 10
83.05595627215771
 20
248.2691187916655
 30
0.0
  0
POINT
  5
9D
330
93
100
AcDbEntity
  8
DEFPOINTS
  6
Continuous
 62
     0
100
AcDbPoint
 10
106.942368704279
 20
248.2691187916655
 30
0.0
  0
ENDBLK
  5
9E
330
93
100
AcDbEntity
  8
0
100
AcDbBlockEnd
  0
BLOCK
  5
80
330
7F
100
AcDbEntity
  8
0
100
AcDbBlockBegin
  2
*D23
 70
     1
 10
0.0
 20
0.0
 30
0.0
  3
*D23
  1

  0
LINE
  5
81
330
7F
100
AcDbEntity
  8
BEMASSUNG
  6
Continuous
 62
     2
370
    -2
100
AcDbLine
 10
60.51653357431328
 20
422.7691187916654
 30
0.0
 11
107.942368704279
 21
422.7691187916654
 31
0.0
  0
LINE
  5
82
330
7F
100
AcDbEntity
  8
BEMASSUNG
  6
Continuous
 62
     2
370
    -2
100
AcDbLine
 10
83.05595627215771
 20
342.2691187916591
 30
0.0
 11
107.942368704279
 21
342.2691187916591
 31
0.0
  0
LINE
  5
83
330
7F
100
AcDbEntity
  8
BEMASSUNG
  6
Continuous
 62
     2
370
    -2
100
AcDbLine
 10
106.942368704279
 20
418.7691187916654
 30
0.0
 11
106.942368704279
 21
346.2691187916591
 31
0.0
  0
SOLID
  5
84
330
7F
100
AcDbEntity
  8
BEMASSUNG
  6
Continuous
 62
     2
100
AcDbTrace
 10
106.2757020376124
 20
418.7691187916654
 30
0.0
 11
107.6090353709457
 21
418.7691187916654
 31
0.0
 12
106.942368704279
 22
422.7691187916654
 32
0.0
 13
106.942368704279
 23
422.7691187916654
 33
0.0
  0
SOLID
  5
85
330
7F
100
AcDbEntity
  8
BEMASSUNG
  6
Continuous
 62
     2
100
AcDbTrace
 10
106.2757020376123
 20
346.2691187916591
 30
0.0
 11
107.6090353709457
 21
346.2691187916591
 31
0.0
 12
106.942368704279
 22
342.2691187916591
 32
0.0
 13
106.942368704279
 23
342.2691187916591
 33
0.0
  0
MTEXT
  5
86
330
7F
100
AcDbEntity
  8
BEMASSUNG
  6
Continuous
 62
     3
100
AcDbMText
 10
103.7213762076896
 20
382.5191187916623
 30
0.0
 40
4.349999999999999
 41
0.0
 71
     5
 72
     1
  1
\A1;80.5
  7
ARIAL-STANDARD
 11
0.0000000000000001
 21
1.0
 31
0.0
 73
     1
 44
1.0
1001
ACAD
1000
MTEXTBEGIN
1070
    73
1070
     1
1070
    44
1040
1.0
1070
    74
1070
     0
1000
MTEXTEND
  0
POINT
  5
87
330
7F
100
AcDbEntity
  8
DEFPOINTS
  6
Continuous
 62
     0
100
AcDbPoint
 10
60.51653357431328
 20
422.7691187916654
 30
0.0
  0
POINT
  5
88
330
7F
100
AcDbEntity
  8
DEFPOINTS
  6
Continuous
 62
     0
100
AcDbPoint
 10
83.05595627215771
 20
342.2691187916591
 30
0.0
  0
POINT
  5
89
330
7F
100
AcDbEntity
  8
DEFPOINTS
  6
Continuous
 62
     0
100
AcDbPoint
 10
106.942368704279
 20
342.2691187916591
 30
0.0
  0
ENDBLK
  5
8A
330
7F
100
AcDbEntity
  8
0
100
AcDbBlockEnd
  0
BLOCK
  5
6C
330
6B
100
AcDbEntity
  8
0
100
AcDbBlockBegin
  2
*D24
 70
     1
 10
0.0
 20
0.0
 30
0.0
  3
*D24
  1

  0
LINE
  5
6D
330
6B
100
AcDbEntity
  8
BEMASSUNG
370
    -2
100
AcDbLine
 10
73.53461183782046
 20
347.785522150393
 30
0.0
 11
73.53461183782046
 21
360.4433688336815
 31
0.0
  0
LINE
  5
6E
330
6B
100
AcDbEntity
  8
BEMASSUNG
370
    -2
100
AcDbLine
 10
64.53471158402422
 20
347.7431497334646
 30
0.0
 11
64.53471158402422
 21
360.4433688336815
 31
0.0
  0
LINE
  5
6F
330
6B
100
AcDbEntity
  8
BEMASSUNG
370
    -2
100
AcDbLine
 10
77.03461183782046
 20
359.4433688336815
 30
0.0
 11
80.53461183782046
 21
359.4433688336815
 31
0.0
  0
LINE
  5
70
330
6B
100
AcDbEntity
  8
BEMASSUNG
370
    -2
100
AcDbLine
 10
61.03471158402422
 20
359.4433688336815
 30
0.0
 11
57.53471158402422
 21
359.4433688336815
 31
0.0
  0
MTEXT
  5
71
330
6B
100
AcDbEntity
  8
BEMASSUNG
 62
     3
100
AcDbMText
 10
58.20384880967367
 20
362.2303742907074
 30
0.0
 40
3.5
 41
0.0
 71
     5
 72
     1
  1
\A1;9
  7
ARIAL-STANDARD
 73
     1
 44
1.0
1001
ACAD
1000
MTEXTBEGIN
1070
    73
1070
     1
1070
    44
1040
1.0
1070
    74
1070
     0
1000
MTEXTEND
  0
LINE
  5
72
330
6B
100
AcDbEntity
  8
BEMASSUNG
370
    -2
100
AcDbLine
 10
73.53461183782046
 20
359.4433688336815
 30
0.0
 11
64.53471158402422
 21
359.4433688336815
 31
0.0
  0
SOLID
  5
73
330
6B
100
AcDbEntity
  8
BEMASSUNG
100
AcDbTrace
 10
77.03461183782046
 20
360.0267021670148
 30
0.0
 11
77.03461183782046
 21
358.8600355003482
 31
0.0
 12
73.53461183782046
 22
359.4433688336815
 32
0.0
 13
73.53461183782046
 23
359.4433688336815
 33
0.0
  0
SOLID
  5
74
330
6B
100
AcDbEntity
  8
BEMASSUNG
100
AcDbTrace
 10
61.03471158402422
 20
360.0267021670148
 30
0.0
 11
61.03471158402422
 21
358.8600355003482
 31
0.0
 12
64.53471158402422
 22
359.4433688336815
 32
0.0
 13
64.53471158402422
 23
359.4433688336815
 33
0.0
  0
POINT
  5
75
330
6B
100
AcDbEntity
  8
DEFPOINTS
 62
     0
100
AcDbPoint
 10
73.53461183782046
 20
346.785522150393
 30
0.0
  0
POINT
  5
77
330
6B
100
AcDbEntity
  8
DEFPOINTS
 62
     0
100
AcDbPoint
 10
64.53471158402422
 20
346.7431497334646
 30
0.0
  0
POINT
  5
78
330
6B
100
AcDbEntity
  8
DEFPOINTS
 62
     0
100
AcDbPoint
 10
64.53471158402422
 20
359.4433688336815
 30
0.0
  0
ENDBLK
  5
79
330
6B
100
AcDbEntity
  8
0
100
AcDbBlockEnd
  0
ENDSEC
  0
SECTION
  2
ENTITIES
  0
DIMENSION
  5
6A
330
2
100
AcDbEntity
  8
BEMASSUNG
100
AcDbDimension
  2
*D24
 10
64.53471158402422
 20
359.4433688336815
 30
0.0
 11
58.20384880967367
 21
362.2303742907074
 31
0.0
 70
   128
 71
     5
 42
8.999900253796241
  3
NORMAL
100
AcDbAlignedDimension
 13
73.53461183782046
 23
346.785522150393
 33
0.0
 14
64.53471158402422
 24
346.7431497334646
 34
0.0
100
AcDbRotatedDimension
  0
ARC
  5
7A
330
2
100
AcDbEntity
  8
LAYER3
100
AcDbCircle
 10
-5.625684215144019
 20
386.269118791031
 30
0.0
 40
170.1922146044488
100
AcDbArc
 50
355.3153004151251
 51
4.684699585292927
  0
DIMENSION
  5
7E
330
2
100
AcDbEntity
  8
BEMASSUNG
  6
Continuous
100
AcDbDimension
  2
*D23
 10
106.942368704279
 20
342.2691187916591
 30
0.0
 11
103.7213762076896
 21
382.5191187916623
 31
0.0
 71
     5
 42
80.50000000000636
  3
Katalog 09
100
AcDbAlignedDimension
 13
60.51653357431328
 23
422.7691187916654
 33
0.0
 14
83.05595627215771
 24
342.2691187916591
 34
0.0
 50
90.0
100
AcDbRotatedDimension
  0
LINE
  5
8B
330
2
100
AcDbEntity
  8
LAYER3
100
AcDbLine
 10
27.23744493249764
 20
370.2691187916592
 30
0.0
 11
38.94744493249769
 21
370.269118791611
 31
0.0
  0
LINE
  5
8C
330
2
100
AcDbEntity
  8
LAYER3
100
AcDbLine
 10
26.8374449324976
 20
370.6691187916592
 30
0.0
 11
26.83744493249764
 21
401.8691187916596
 31
0.0
  0
LINE
  5
8D
330
2
100
AcDbEntity
  8
LAYER3
100
AcDbLine
 10
38.94744493249767
 20
402.2691187916595
 30
0.0
 11
27.23744493249764
 21
402.2691187916596
 31
0.0
  0
ARC
  5
8E
330
2
100
AcDbEntity
  8
LAYER3
100
AcDbCircle
 10
27.23744493249764
 20
401.8691187916596
 30
0.0
 40
0.4000000000000061
100
AcDbArc
 50
89.99999999999674
 51
180.0
  0
ARC
  5
8F
330
2
100
AcDbEntity
  8
LAYER3
100
AcDbCircle
 10
27.23744493249764
 20
370.6691187916592
 30
0.0
 40
0.4000000000000077
100
AcDbArc
 50
180.0
 51
270.0
  0
LINE
  5
90
330
2
100
AcDbEntity
  8
LAYER3
100
AcDbLine
 10
28.41173532185691
 20
372.7691187916592
 30
0.0
 11
38.72173532185684
 21
372.7691187916591
 31
0.0
  0
LINE
  5
91
330
2
100
AcDbEntity
  8
LAYER3
100
AcDbLine
 10
38.72173532185684
 20
399.7691187916595
 30
0.0
 11
28.41173532185694
 21
399.7691187916595
 31
0.0
  0
DIMENSION
  5
92
330
2
100
AcDbEntity
  8
BEMASSUNG
  6
Continuous
100
AcDbDimension
  2
*D22
 10
106.942368704279
 20
248.2691187916655
 30
0.0
 11
100.0874744341562
 21
295.2691187916623
 31
0.0
  1
RZ <>\PPZ 92
 71
     5
 42
93.9999999999936
  3
Katalog 09
100
AcDbAlignedDimension
 13
83.05595627215771
 23
342.2691187916591
 33
0.0
 14
83.05595627215771
 24
248.2691187916655
 34
0.0
 50
90.0
100
AcDbRotatedDimension
1001
ACAD_DSTYLE_DIMINSPECT
1070
   396
1000
100%
1070
   395
1000

1070
   394
1070
    33
1070
   393
1070
     0
  0
DIMENSION
  5
A0
330
2
100
AcDbEntity
  8
BEMASSUNG
  6
Continuous
100
AcDbDimension
  2
*D21
 10
31.72004102055075
 20
320.7691187916656
 30
0.0
 11
28.49904852396134
 21
331.5191187916623
 31
0.0
 71
     5
 42
21.49999999999352
  3
Katalog 09
100
AcDbAlignedDimension
 13
55.27297895151028
 23
342.2691187916591
 33
0.0
 14
61.94744493249769
 24
320.7691187916656
 34
0.0
 50
90.0
100
AcDbRotatedDimension
  0
LINE
  5
AD
330
2
100
AcDbEntity
  8
ACHSEN
100
AcDbLine
 10
83.05595627215771
 20
342.2691187916591
 30
0.0
 11
55.27297895151028
 21
342.2691187916591
 31
0.0
  0
LINE
  5
B2
330
2
100
AcDbEntity
  8
LAYER3
100
AcDbLine
 10
38.94744493249767
 20
399.7691187916516
 30
0.0
 11
28.52024666150412
 21
399.7691187916122
 31
0.0
  0
LINE
  5
B3
330
2
100
AcDbEntity
  8
LAYER3
100
AcDbLine
 10
27.34595627214934
 20
370.2691187916068
 30
0.0
 11
27.97509409195551
 21
370.2691187916092
 31
0.0
  0
LINE
  5
B4
330
2
100
AcDbEntity
  8
LAYER3
100
AcDbLine
 10
28.52024666150864
 20
372.7691187916122
 30
0.0
 11
38.94744493249767
 21
372.7691187916516
 31
0.0
  0
CIRCLE
  5
B5
330
2
100
AcDbEntity
  8
LAYER3
100
AcDbCircle
 10
50.05595627215829
 20
342.2691187916624
 30
0.0
 40
3.25
  0
CIRCLE
  5
B6
330
2
100
AcDbEntity
  8
LAYER3
100
AcDbCircle
 10
69.05595627215771
 20
342.2691187916591
 30
0.0
 40
8.05
  0
LINE
  5
B7
330
2
100
AcDbEntity
  8
LAYER3
100
AcDbLine
 10
64.53471158402422
 20
346.7431497334646
 30
0.0
 11
64.57708400095267
 21
337.7432494796682
 31
0.0
  0
LINE
  5
B8
330
2
100
AcDbEntity
  8
LAYER3
100
AcDbLine
 10
64.57708400095267
 20
337.7432494796682
 30
0.0
 11
73.57698425474893
 21
337.7856218965967
 31
0.0
  0
CIRCLE
  5
B9
330
2
100
AcDbEntity
  8
LAYER3
100
AcDbCircle
 10
69.05595119330434
 20
342.2691187916551
 30
0.0
 40
7.099999999999911
  0
LINE
  5
BA
330
2
100
AcDbEntity
  8
LAYER3
100
AcDbLine
 10
73.57698425474893
 20
337.7856218965967
 30
0.0
 11
73.53461183782046
 21
346.785522150393
 31
0.0
  0
LINE
  5
BB
330
2
100
AcDbEntity
  8
LAYER3
100
AcDbLine
 10
73.53461183782046
 20
346.785522150393
 30
0.0
 11
64.53471158402422
 21
346.7431497334646
 31
0.0
  0
LINE
  5
BC
330
2
100
AcDbEntity
  8
LAYER3
100
AcDbLine
 10
175.024871315572
 20
379.2691182868642
 30
0.0
 11
174.9979577322935
 21
379.2222702281636
 31
0.0
  0
ELLIPSE
  5
BD
330
2
100
AcDbEntity
  8
LAYER3
100
AcDbEllipse
 10
178.0979577454293
 20
384.8417946403987
 30
0.0
 11
9.999306735481766
 21
9.999306735481766
 31
0.0
210
0.0
220
0.0
230
1.0
 40
0.0117749856410747
 41
4.385421504276057
 42
4.395921882763025
  0
ELLIPSE
  5
BE
330
2
100
AcDbEntity
  8
LAYER3
100
AcDbEllipse
 10
175.547744183056
 20
384.8417946403894
 30
0.0
 11
-9.999306848721406
 21
9.999306848721406
 31
0.0
210
0.0
220
0.0
230
1.0
 40
0.0117749855188255
 41
1.527564389929914
 42
1.537576944810237
  0
ELLIPSE
  5
BF
330
2
100
AcDbEntity
  8
LAYER3
100
AcDbEllipse
 10
178.097957745429
 20
384.8417946403987
 30
0.0
 11
-9.999306863723877
 21
9.999306863723878
 31
0.0
210
0.0
220
0.0
230
1.0
 40
0.0117749855058742
 41
1.26737773689018
 42
1.277878115279776
  0
ELLIPSE
  5
C0
330
2
100
AcDbEntity
  8
LAYER3
100
AcDbEllipse
 10
178.0979577454315
 20
384.4415006325141
 30
0.0
 11
-9.999306697398862
 21
9.999306697398864
 31
0.0
210
0.0
220
0.0
230
1.0
 40
0.011774985680822
 41
-1.254329228113293
 42
-1.243828849594003
  0
LINE
  5
C1
330
2
100
AcDbEntity
  8
LAYER3
100
AcDbLine
 10
175.0979577454327
 20
384.0566232586623
 30
0.0
 11
175.0479577454327
 21
384.056623258662
 31
0.0
  0
LINE
  5
C2
330
2
100
AcDbEntity
  8
LAYER3
100
AcDbLine
 10
175.0479577454322
 20
384.1265499962473
 30
0.0
 11
175.0979577454322
 21
384.1265499962474
 31
0.0
  0
LINE
  5
C3
330
2
100
AcDbEntity
  8
LAYER3
100
AcDbLine
 10
175.0479577454327
 20
384.056623258662
 30
0.0
 11
175.0479577454322
 21
384.1265499962473
 31
0.0
  0
ELLIPSE
  5
C4
330
2
100
AcDbEntity
  8
LAYER3
100
AcDbEllipse
 10
175.5981713078023
 20
384.8417946403897
 30
0.0
 11
9.999306836167489
 21
9.999306836167489
 31
0.0
210
0.0
220
0.0
230
0.9999999999999998
 40
0.0117749855337151
 41
4.64055708585947
 42
4.645565383487611
  0
ELLIPSE
  5
C5
330
2
100
AcDbEntity
  8
LAYER3
100
AcDbEllipse
 10
175.5981713078052
 20
384.441500632505
 30
0.0
 11
9.999306970320013
 21
9.999306970320013
 31
0.0
210
0.0
220
0.0
230
1.0
 40
0.0117749853760268
 41
1.614071040360481
 42
1.619079337922142
  0
LINE
  5
C6
330
2
100
AcDbEntity
  8
LAYER3
100
AcDbLine
 10
174.9979577453813
 20
397.7691187916954
 30
0.0
 11
175.0979577453813
 21
397.7691187916957
 31
0.0
  0
LINE
  5
C7
330
2
100
AcDbEntity
  8
LAYER3
100
AcDbLine
 10
175.0979577454487
 20
379.2691187916958
 30
0.0
 11
174.9979577454488
 21
379.2691187916954
 31
0.0
  0
LINE
  5
C8
330
2
100
AcDbEntity
  8
LAYER3
100
AcDbLine
 10
175.0979577454062
 20
390.9191187916957
 30
0.0
 11
174.9979577454063
 21
390.9191187916954
 31
0.0
  0
LINE
  5
C9
330
2
100
AcDbEntity
  8
LAYER3
100
AcDbLine
 10
174.9979577453983
 20
393.1191187916954
 30
0.0
 11
175.0979577453982
 21
393.1191187916957
 31
0.0
  0
LINE
  5
CA
330
2
100
AcDbEntity
  8
LAYER3
100
AcDbLine
 10
160.9979577453664
 20
401.8691187916385
 30
0.0
 11
160.9979577454803
 21
370.6691187916385
 31
0.0
  0
LINE
  5
CB
330
2
100
AcDbEntity
  8
LAYER3
100
AcDbLine
 10
163.9979577454733
 20
372.565542839465
 30
0.0
 11
163.9979577454803
 21
370.6691187916488
 31
0.0
  0
LINE
  5
CC
330
2
100
AcDbEntity
  8
LAYER3
100
AcDbLine
 10
163.9979577453664
 20
401.8691187916488
 30
0.0
 11
163.9979577453726
 21
400.1691187916488
 31
0.0
  0
LINE
  5
CD
330
2
100
AcDbEntity
  8
LAYER3
100
AcDbLine
 10
174.5979577453741
 20
399.7691187916893
 30
0.0
 11
164.3979577453741
 21
399.7691187916504
 31
0.0
  0
LINE
  5
CE
330
2
100
AcDbEntity
  8
LAYER3
100
AcDbLine
 10
174.9979577453755
 20
399.3691187916908
 30
0.0
 11
174.9979577454711
 21
373.1691187916908
 31
0.0
  0
ARC
  5
CF
330
2
100
AcDbEntity
  8
LAYER3
100
AcDbCircle
 10
174.5979577454711
 20
373.1691187916893
 30
0.0
 40
0.4000000000000004
100
AcDbArc
 50
270.0000000002084
 51
0.0
  0
ARC
  5
D0
330
2
100
AcDbEntity
  8
LAYER3
100
AcDbCircle
 10
174.5979577453755
 20
399.3691187916893
 30
0.0
 40
0.4000000000000048
100
AcDbArc
 50
0.0
 51
90.00000000020843
  0
ARC
  5
D1
330
2
100
AcDbEntity
  8
LAYER3
100
AcDbCircle
 10
163.5979577454803
 20
370.6691187916474
 30
0.0
 40
0.4000000000000015
100
AcDbArc
 50
270.0000000002052
 51
0.0
  0
LINE
  5
D2
330
2
100
AcDbEntity
  8
LAYER3
100
AcDbLine
 10
161.3979577454817
 20
370.26911879164
 30
0.0
 11
161.8581193632009
 21
370.269118791641
 31
0.0
  0
LINE
  5
D3
330
2
100
AcDbEntity
  8
LAYER3
100
AcDbLine
 10
161.8581193632009
 20
370.269118791641
 30
0.0
 11
162.9688199256758
 21
370.269118791645
 31
0.0
  0
LINE
  5
D4
330
2
100
AcDbEntity
  8
LAYER3
100
AcDbLine
 10
162.9688199256758
 20
370.269118791645
 30
0.0
 11
163.5979577454818
 21
370.2691187916474
 31
0.0
  0
ARC
  5
D5
330
2
100
AcDbEntity
  8
LAYER3
100
AcDbCircle
 10
161.3979577454803
 20
370.66911879164
 30
0.0
 40
0.4000000000000004
100
AcDbArc
 50
180.0
 51
270.0000000002084
  0
ARC
  5
D6
330
2
100
AcDbEntity
  8
LAYER3
100
AcDbCircle
 10
161.3979577453664
 20
401.8691187916399
 30
0.0
 40
0.4000000000000001
100
AcDbArc
 50
90.00000000020843
 51
180.0
  0
LINE
  5
D7
330
2
100
AcDbEntity
  8
LAYER3
100
AcDbLine
 10
163.597957745365
 20
402.2691187916473
 30
0.0
 11
162.968819925559
 21
402.2691187916449
 31
0.0
  0
LINE
  5
D8
330
2
100
AcDbEntity
  8
LAYER3
100
AcDbLine
 10
162.968819925559
 20
402.2691187916449
 30
0.0
 11
161.8581193630841
 21
402.2691187916408
 31
0.0
  0
LINE
  5
D9
330
2
100
AcDbEntity
  8
LAYER3
100
AcDbLine
 10
161.8581193630841
 20
402.2691187916408
 30
0.0
 11
161.397957745365
 21
402.2691187916399
 31
0.0
  0
ARC
  5
DA
330
2
100
AcDbEntity
  8
LAYER3
100
AcDbCircle
 10
163.5979577453664
 20
401.8691187916473
 30
0.0
 40
0.4000000000000007
100
AcDbArc
 50
0.0
 51
90.00000000020843
  0
LINE
  5
DB
330
2
100
AcDbEntity
  8
LAYER3
100
AcDbLine
 10
164.3979577454726
 20
372.7691187916504
 30
0.0
 11
174.5979577454726
 21
372.7691187916893
 31
0.0
  0
ARC
  5
DC
330
2
100
AcDbEntity
  8
LAYER3
100
AcDbCircle
 10
164.3979577453726
 20
400.1691187916503
 30
0.0
 40
0.3999999999999998
100
AcDbArc
 50
180.0
 51
270.0000000002084
  0
ARC
  5
DD
330
2
100
AcDbEntity
  8
LAYER3
100
AcDbCircle
 10
164.3979577454741
 20
372.3691187916504
 30
0.0
 40
0.4000000000000004
100
AcDbArc
 50
90.00000000020843
 51
180.0
  0
LINE
  5
DE
330
2
100
AcDbEntity
  8
LAYER3
100
AcDbLine
 10
162.0479577454817
 20
370.2691187916416
 30
0.0
 11
162.047957745482
 21
370.1691187916431
 31
0.0
  0
LINE
  5
DF
330
2
100
AcDbEntity
  8
LAYER3
100
AcDbLine
 10
164.0979577453664
 20
401.8691187916506
 30
0.0
 11
164.0979577453719
 21
400.3691187916506
 31
0.0
  0
LINE
  5
E0
330
2
100
AcDbEntity
  8
LAYER3
100
AcDbLine
 10
161.3979577453646
 20
402.3691187916407
 30
0.0
 11
163.5979577453645
 21
402.3691187916488
 31
0.0
  0
LINE
  5
E1
330
2
100
AcDbEntity
  8
LAYER3
100
AcDbLine
 10
160.8979577454803
 20
370.6691187916389
 30
0.0
 11
160.8979577453664
 21
401.8691187916389
 31
0.0
  0
LINE
  5
E2
330
2
100
AcDbEntity
  8
LAYER3
100
AcDbLine
 10
163.5979577454821
 20
370.1691187916488
 30
0.0
 11
161.3979577454821
 21
370.1691187916408
 31
0.0
  0
LINE
  5
E3
330
2
100
AcDbEntity
  8
LAYER3
100
AcDbLine
 10
164.0979577454748
 20
372.1691187916507
 30
0.0
 11
164.0979577454803
 21
370.6691187916506
 31
0.0
  0
LINE
  5
E4
330
2
100
AcDbEntity
  8
LAYER3
100
AcDbLine
 10
171.3979577454729
 20
372.6691187916773
 30
0.0
 11
164.5979577454729
 21
372.6691187916525
 31
0.0
  0
LINE
  5
E5
330
2
100
AcDbEntity
  8
LAYER3
100
AcDbLine
 10
171.8979577454803
 20
370.6691187916791
 30
0.0
 11
171.8979577454748
 21
372.1691187916791
 31
0.0
  0
LINE
  5
E6
330
2
100
AcDbEntity
  8
LAYER3
100
AcDbLine
 10
174.5979577454821
 20
370.1691187916889
 30
0.0
 11
172.3979577454821
 21
370.1691187916809
 31
0.0
  0
LINE
  5
E7
330
2
100
AcDbEntity
  8
LAYER3
100
AcDbLine
 10
175.0979577453664
 20
401.8691187916907
 30
0.0
 11
175.0979577454802
 21
370.6691187916908
 31
0.0
  0
LINE
  5
E8
330
2
100
AcDbEntity
  8
LAYER3
100
AcDbLine
 10
172.3979577453645
 20
402.3691187916808
 30
0.0
 11
174.5979577453645
 21
402.3691187916889
 31
0.0
  0
LINE
  5
E9
330
2
100
AcDbEntity
  8
LAYER3
100
AcDbLine
 10
171.8979577453718
 20
400.369118791679
 30
0.0
 11
171.8979577453664
 21
401.8691187916791
 31
0.0
  0
LINE
  5
EA
330
2
100
AcDbEntity
  8
LAYER3
100
AcDbLine
 10
164.5979577453737
 20
399.8691187916525
 30
0.0
 11
171.3979577453736
 21
399.8691187916772
 31
0.0
  0
ARC
  5
EB
330
2
100
AcDbEntity
  8
LAYER3
100
AcDbCircle
 10
163.5979577453664
 20
401.8691187916487
 30
0.0
 40
0.4999999999999997
100
AcDbArc
 50
0.0
 51
90.00000000020843
  0
ARC
  5
EC
330
2
100
AcDbEntity
  8
LAYER3
100
AcDbCircle
 10
161.3979577453664
 20
401.8691187916407
 30
0.0
 40
0.4999999999999982
100
AcDbArc
 50
90.00000000020843
 51
180.0
  0
ARC
  5
ED
330
2
100
AcDbEntity
  8
LAYER3
100
AcDbCircle
 10
161.3979577454803
 20
370.6691187916407
 30
0.0
 40
0.499999999999988
100
AcDbArc
 50
180.0
 51
270.0000000002084
  0
ARC
  5
EE
330
2
100
AcDbEntity
  8
LAYER3
100
AcDbCircle
 10
163.5979577454802
 20
370.6691187916488
 30
0.0
 40
0.4999999999999982
100
AcDbArc
 50
270.0000000002052
 51
0.0
  0
ARC
  5
EF
330
2
100
AcDbEntity
  8
LAYER3
100
AcDbCircle
 10
164.5979577454748
 20
372.1691187916525
 30
0.0
 40
0.4999999999999936
100
AcDbArc
 50
90.00000000020843
 51
180.0
  0
ARC
  5
F0
330
2
100
AcDbEntity
  8
LAYER3
100
AcDbCircle
 10
171.3979577454747
 20
372.1691187916773
 30
0.0
 40
0.5000000000000071
100
AcDbArc
 50
0.0
 51
90.00000000020843
  0
ARC
  5
F1
330
2
100
AcDbEntity
  8
LAYER3
100
AcDbCircle
 10
172.3979577454802
 20
370.6691187916809
 30
0.0
 40
0.4999999999999825
100
AcDbArc
 50
180.0
 51
270.0000000002084
  0
ARC
  5
F2
330
2
100
AcDbEntity
  8
LAYER3
100
AcDbCircle
 10
174.5979577454803
 20
370.669118791689
 30
0.0
 40
0.4999999999999982
100
AcDbArc
 50
270.0000000002052
 51
0.0
  0
ARC
  5
F3
330
2
100
AcDbEntity
  8
LAYER3
100
AcDbCircle
 10
174.5979577453664
 20
401.8691187916889
 30
0.0
 40
0.5000000000000025
100
AcDbArc
 50
0.0
 51
90.00000000020843
  0
ARC
  5
F4
330
2
100
AcDbEntity
  8
LAYER3
100
AcDbCircle
 10
172.3979577453664
 20
401.8691187916808
 30
0.0
 40
0.499999999999996
100
AcDbArc
 50
90.00000000020843
 51
180.0
  0
ARC
  5
F5
330
2
100
AcDbEntity
  8
LAYER3
100
AcDbCircle
 10
171.3979577453718
 20
400.3691187916772
 30
0.0
 40
0.5000000000000014
100
AcDbArc
 50
270.0000000002052
 51
0.0
  0
ARC
  5
F6
330
2
100
AcDbEntity
  8
LAYER3
100
AcDbCircle
 10
164.5979577453718
 20
400.3691187916524
 30
0.0
 40
0.5000000000000026
100
AcDbArc
 50
180.0
 51
270.0000000002084
  0
LINE
  5
F7
330
2
100
AcDbEntity
  8
LAYER3
100
AcDbLine
 10
163.3679428645267
 20
402.2691187916465
 30
0.0
 11
163.3677523538832
 21
402.369118791648
 31
0.0
  0
LINE
  5
F8
330
2
100
AcDbEntity
  8
LAYER3
100
AcDbLine
 10
160.9979577453665
 20
401.8691187916385
 30
0.0
 11
160.9979577453654
 21
402.1691187916394
 31
0.0
  0
LINE
  5
F9
330
2
100
AcDbEntity
  8
LAYER3
100
AcDbLine
 10
160.9979577454814
 20
370.3691187916391
 30
0.0
 11
160.9979577454803
 21
370.6691187916385
 31
0.0
  0
LINE
  5
FA
330
2
100
AcDbEntity
  8
LAYER3
100
AcDbLine
 10
27.06460222003705
 20
142.9602370710736
 30
0.0
 11
37.94744493245335
 21
132.0773943586639
 31
0.0
  0
ARC
  5
FB
330
2
100
AcDbEntity
  8
LAYER3
100
AcDbCircle
 10
27.34744493251185
 20
143.2430797835485
 30
0.0
 40
0.4000000000003438
100
AcDbArc
 50
180.0
 51
225.000000000003
  0
LINE
  5
FC
330
2
100
AcDbEntity
  8
LAYER3
100
AcDbLine
 10
26.94744493251156
 20
143.2430797835483
 30
0.0
 11
26.94744493251074
 21
143.3213470911002
 31
0.0
  0
ARC
  5
FD
330
2
100
AcDbEntity
  8
LAYER3
100
AcDbCircle
 10
31.72559027133269
 20
145.677394358662
 30
0.0
 40
0.4000000000000295
100
AcDbArc
 50
90.00000000001628
 51
96.00000000001484
  0
LINE
  5
FE
330
2
100
AcDbEntity
  8
LAYER3
100
AcDbLine
 10
38.94744493250187
 20
132.0773943586642
 30
0.0
 11
37.94744493245337
 21
132.0773943586639
 31
0.0
  0
LINE
  5
FF
330
2
100
AcDbEntity
  8
LAYER3
100
AcDbLine
 10
38.94744493249767
 20
146.0773943586642
 30
0.0
 11
31.72559027133255
 21
146.077394358662
 31
0.0
  0
LINE
  5
100
330
2
100
AcDbEntity
  8
LAYER3
100
AcDbLine
 10
26.94744493251036
 20
143.406938051637
 30
0.0
 11
26.94744493250869
 21
144.1065321784666
 31
0.0
  0
LINE
  5
101
330
2
100
AcDbEntity
  8
LAYER3
100
AcDbLine
 10
26.94744493250835
 20
145.2172327409414
 30
0.0
 11
26.94744493250869
 21
144.1065321784666
 31
0.0
  0
LINE
  5
102
330
2
100
AcDbEntity
  8
LAYER3
100
AcDbLine
 10
31.68377888602549
 20
146.0752031168093
 30
0.0
 11
27.30563354720118
 21
145.6150414990888
 31
0.0
  0
ARC
  5
103
330
2
100
AcDbEntity
  8
LAYER3
100
AcDbCircle
 10
27.34744493250835
 20
145.2172327409415
 30
0.0
 40
0.4000000000000036
100
AcDbArc
 50
96.00000000001484
 51
180.0
  0
LINE
  5
104
330
2
100
AcDbEntity
  8
LAYER3
100
AcDbLine
 10
27.97658275231496
 20
143.0773943586609
 30
0.0
 11
38.94744493249766
 21
143.0773943586641
 31
0.0
  0
LINE
  5
105
330
2
100
AcDbEntity
  8
LAYER3
100
AcDbLine
 10
27.97658275231498
 20
143.0773943586609
 30
0.0
 11
27.77917748580958
 21
143.0773943586533
 31
0.0
  0
LINE
  5
106
330
2
100
AcDbEntity
  8
LAYER3
100
AcDbLine
 10
26.94744493251074
 20
143.3213470911002
 30
0.0
 11
26.94744493251074
 21
143.4069380516363
 31
0.0
  0
LINE
  5
107
330
2
100
AcDbEntity
  8
LAYER3
100
AcDbLine
 10
49.94744493250883
 20
131.9273943588741
 30
0.0
 11
49.94744493250568
 21
142.527394358749
 31
0.0
  0
ARC
  5
108
330
2
100
AcDbEntity
  8
LAYER3
100
AcDbCircle
 10
51.44744493250567
 20
142.5273943587495
 30
0.0
 40
1.499999999999994
100
AcDbArc
 50
90.00000000001628
 51
180.0
  0
LINE
  5
109
330
2
100
AcDbEntity
  8
LAYER3
100
AcDbLine
 10
51.44744493250522
 20
144.0273943587495
 30
0.0
 11
54.44744493250522
 21
144.0273943587504
 31
0.0
  0
ARC
  5
10A
330
2
100
AcDbEntity
  8
LAYER3
100
AcDbCircle
 10
54.44744493250567
 20
142.5273943587504
 30
0.0
 40
1.499999999999993
100
AcDbArc
 50
0.0
 51
90.00000000001628
  0
LINE
  5
10B
330
2
100
AcDbEntity
  8
LAYER3
100
AcDbLine
 10
55.94744493250567
 20
142.5273943587509
 30
0.0
 11
55.94744493250883
 21
131.9273943588741
 31
0.0
  0
DIMENSION
  5
10C
330
2
100
AcDbEntity
  8
BEMASSUNG
  6
Continuous
100
AcDbDimension
  2
*D20
 10
-7.193321060923373
 20
457.7691187916654
 30
0.0
 11
-10.40541178397938
 21
430.0191187916367
 31
0.0
 71
     5
 42
55.50000000005747
  3
Katalog 09
100
AcDbAlignedDimension
 13
27.66052518204704
 23
402.269118791608
 33
0.0
 14
38.94744493249766
 24
457.7691187916654
 34
0.0
 50
90.0
100
AcDbRotatedDimension
  0
LINE
  5
119
330
2
100
AcDbEntity
  8
ACHSEN
100
AcDbLine
 10
167.9979577453347
 20
451.5191187916655
 30
0.0
 11
167.9979577453347
 21
438.0191187916655
 31
0.0
  0
LINE
  5
11A
330
2
100
AcDbEntity
  8
ACHSEN
100
AcDbLine
 10
161.2479577453347
 20
444.7691187916655
 30
0.0
 11
174.7479577453347
 21
444.7691187916655
 31
0.0
  0
LINE
  5
11B
330
2
100
AcDbEntity
  8
ACHSEN
100
AcDbLine
 10
167.9979577453339
 20
237.5191187916655
 30
0.0
 11
167.9979577453339
 21
224.0191187916654
 31
0.0
  0
LINE
  5
11C
330
2
100
AcDbEntity
  8
ACHSEN
100
AcDbLine
 10
161.2479577453339
 20
230.7691187916654
 30
0.0
 11
174.7479577453339
 21
230.7691187916654
 31
0.0
  0
LINE
  5
11D
330
2
100
AcDbEntity
  8
ACHSEN
100
AcDbLine
 10
167.9979577453339
 20
207.5191187916654
 30
0.0
 11
167.9979577453339
 21
194.0191187916654
 31
0.0
  0
LINE
  5
11E
330
2
100
AcDbEntity
  8
ACHSEN
100
AcDbLine
 10
161.2479577453339
 20
200.7691187916655
 30
0.0
 11
174.7479577453339
 21
200.7691187916655
 31
0.0
  0
DIMENSION
  5
11F
330
2
100
AcDbEntity
  8
BEMASSUNG
  6
Continuous
100
AcDbDimension
  2
*D19
 10
146.4092561657501
 20
457.7691187916654
 30
0.0
 11
143.1867800402384
 21
451.2691187916654
 31
0.0
 71
     5
 42
12.99999999999994
  3
Katalog 09
100
AcDbAlignedDimension
 13
161.2479577453347
 23
444.7691187916655
 33
0.0
 14
155.9979577453339
 24
457.7691187916654
 34
0.0
 50
90.0
100
AcDbRotatedDimension
  0
DIMENSION
  5
12C
330
2
100
AcDbEntity
  8
BEMASSUNG
  6
Continuous
100
AcDbDimension
  2
*D18
 10
171.9979577453349
 20
319.5145801550948
 30
0.0
 11
167.9979577453315
 21
322.7355726516842
 31
0.0
 71
     5
 42
8.000000000006792
  3
Katalog 09
100
AcDbAlignedDimension
 13
163.9979577453281
 23
302.7691187916655
 33
0.0
 14
171.9979577453349
 24
302.7691187916651
 34
0.0
100
AcDbRotatedDimension
  0
DIMENSION
  5
13B
330
2
100
AcDbEntity
  8
BEMASSUNG
  6
Continuous
100
AcDbDimension
  2
*D17
 10
174.9979577453755
 20
418.2202385388501
 30
0.0
 11
167.997957745371
 21
421.4041403123835
 31
0.0
 71
     5
 42
14.00000000000909
  3
Katalog 09
100
AcDbAlignedDimension
 13
160.9979577453664
 23
401.8691187916399
 33
0.0
 14
174.9979577453755
 24
399.3691187916893
 34
0.0
100
AcDbRotatedDimension
  0
DIMENSION
  5
148
330
2
100
AcDbEntity
  8
BEMASSUNG
  6
Continuous
100
AcDbDimension
  2
*D16
 10
179.9979577453339
 20
164.21485862502
 30
0.0
 11
167.9979577453339
 21
167.3987603985534
 31
0.0
 71
     5
 42
24.0
  3
Katalog 09
100
AcDbAlignedDimension
 13
155.9979577453339
 23
187.7691187916654
 33
0.0
 14
179.9979577453339
 24
187.7691187916654
 34
0.0
100
AcDbRotatedDimension
  0
DIMENSION
  5
155
330
2
100
AcDbEntity
  8
BEMASSUNG
  6
Continuous
100
AcDbDimension
  2
*D15
 10
97.10082805797515
 20
147.9773943588708
 30
0.0
 11
93.87983556138577
 21
139.0773943588711
 31
0.0
 71
     5
 42
17.79999999999947
  3
Katalog 09
100
AcDbAlignedDimension
 13
84.44744493249766
 23
130.1773943588713
 33
0.0
 14
84.44744493249766
 24
147.9773943588708
 34
0.0
 50
90.0
100
AcDbRotatedDimension
  0
DIMENSION
  5
162
330
2
100
AcDbEntity
  8
BEMASSUNG
  6
Continuous
100
AcDbDimension
  2
*D14
 10
197.4569895714983
 20
457.7691187916654
 30
0.0
 11
194.2359970749089
 21
322.7691187916655
 31
0.0
 71
     5
 42
270.0
  3
Katalog 09
100
AcDbAlignedDimension
 13
179.9979577453339
 23
187.7691187916654
 33
0.0
 14
179.9979577453343
 24
457.7691187916654
 34
0.0
 50
90.0
100
AcDbRotatedDimension
  0
DIMENSION
  5
16F
330
2
100
AcDbEntity
  8
BEMASSUNG
  6
Continuous
100
AcDbDimension
  2
*D13
 10
146.4092561657501
 20
200.7691187916655
 30
0.0
 11
143.1867800402384
 21
194.2691187916654
 31
0.0
 71
     5
 42
13.0
  3
Katalog 09
100
AcDbAlignedDimension
 13
155.9979577453339
 23
187.7691187916654
 33
0.0
 14
161.2479577453339
 24
200.7691187916655
 34
0.0
 50
90.0
100
AcDbRotatedDimension
  0
LINE
  5
17C
330
2
100
AcDbEntity
  8
ACHSEN
100
AcDbLine
 10
75.94744493249769
 20
320.7691187916656
 30
0.0
 11
61.94744493249769
 21
320.7691187916656
 31
0.0
  0
LINE
  5
17D
330
2
100
AcDbEntity
  8
ACHSEN
100
AcDbLine
 10
44.94744493249771
 20
444.7691187916653
 30
0.0
 11
35.94744493249772
 21
444.7691187916653
 31
0.0
  0
DIMENSION
  5
17E
330
2
100
AcDbEntity
  8
BEMASSUNG
  6
Continuous
100
AcDbDimension
  2
*D12
 10
41.94744493249771
 20
468.4613661247014
 30
0.0
 11
40.44744493249772
 21
471.683842250213
 31
0.0
 71
     5
 42
3.0
  3
Katalog 09
100
AcDbAlignedDimension
 13
38.94744493249772
 23
457.7691187916654
 33
0.0
 14
41.94744493249771
 24
457.7691187916654
 34
0.0
100
AcDbRotatedDimension
  0
LINE
  5
18D
330
2
100
AcDbEntity
  8
ACHSEN
100
AcDbLine
 10
82.94744493249771
 20
248.2691187916655
 30
0.0
 11
55.16446761185028
 21
248.2691187916655
 31
0.0
  0
LINE
  5
18E
330
2
100
AcDbEntity
  8
ACHSEN
100
AcDbLine
 10
82.94744493249771
 20
250.2691187916655
 30
0.0
 11
55.16446761185028
 21
250.2691187916655
 31
0.0
  0
LINE
  5
18F
330
2
100
AcDbEntity
  8
ACHSEN
100
AcDbLine
 10
74.04744493249774
 20
230.2691187916654
 30
0.0
 11
74.04744493249774
 21
243.3445249407602
 31
0.0
  0
LINE
  5
190
330
2
100
AcDbEntity
  8
ACHSEN
100
AcDbLine
 10
63.8474449324978
 20
230.2691187916654
 30
0.0
 11
63.8474449324978
 21
243.3445249407602
 31
0.0
  0
LINE
  5
191
330
2
100
AcDbEntity
  8
ACHSEN
100
AcDbLine
 10
75.94744493249772
 20
229.0691187916656
 30
0.0
 11
61.94744493249771
 21
229.0691187916656
 31
0.0
  0
ARC
  5
192
330
2
100
AcDbEntity
  8
ACHSEN
100
AcDbCircle
 10
68.94744493249771
 20
230.2691187916654
 30
0.0
 40
5.099999999999999
100
AcDbArc
 50
180.0
 51
0.0
  0
ARC
  5
193
330
2
100
AcDbEntity
  8
ACHSEN
100
AcDbCircle
 10
68.94744493249771
 20
250.2691187916655
 30
0.0
 40
8.599999999999999
100
AcDbArc
 50
306.3718424099361
 51
233.6281575900638
  0
DIMENSION
  5
194
330
2
100
AcDbEntity
  8
BEMASSUNG
  6
Continuous
100
AcDbDimension
  2
*D11
 10
38.94744493249772
 20
252.431006085754
 30
0.0
 11
28.94744493249776
 21
255.6519985823433
 31
0.0
 71
     5
 42
19.99999999999991
  3
Katalog 09
100
AcDbAlignedDimension
 13
18.94744493249781
 23
269.2691187916657
 33
0.0
 14
38.94744493249772
 24
252.8501601608809
 34
0.0
100
AcDbRotatedDimension
  0
LINE
  5
1A1
330
2
100
AcDbEntity
  8
ACHSEN
100
AcDbLine
 10
44.94744493249771
 20
230.7691187916657
 30
0.0
 11
35.94744493249772
 21
230.7691187916657
 31
0.0
  0
DIMENSION
  5
1A2
330
2
100
AcDbEntity
  8
BEMASSUNG
  6
Continuous
100
AcDbDimension
  2
*D10
 10
7.827444932497826
 20
268.7691187916653
 30
0.0
 11
4.606452435908424
 21
245.7691187916654
 31
0.0
 71
     5
 42
45.99999999999988
  3
Katalog 09
100
AcDbAlignedDimension
 13
41.94744493249771
 23
222.7691187916654
 33
0.0
 14
19.94744493249781
 24
268.7691187916653
 34
0.0
 50
90.0
100
AcDbRotatedDimension
  0
DIMENSION
  5
1AF
330
2
100
AcDbEntity
  8
BEMASSUNG
  6
Continuous
100
AcDbDimension
  2
*D9
 10
-7.264165606441736
 20
303.7691187916654
 30
0.0
 11
-10.48664173195338
 21
286.2691187916654
 31
0.0
  1
35
 71
     5
 42
35.00000000000011
  3
Katalog 09
100
AcDbAlignedDimension
 13
19.94744493249781
 23
268.7691187916653
 33
0.0
 14
19.94744493249781
 24
303.7691187916654
 34
0.0
 50
90.0
100
AcDbRotatedDimension
  0
DIMENSION
  5
1BC
330
2
100
AcDbEntity
  8
BEMASSUNG
  6
Continuous
100
AcDbDimension
  2
*D8
 10
-7.264165606441736
 20
370.2691187916092
 30
0.0
 11
-10.48515810303115
 21
337.0191187916373
 31
0.0
 71
     5
 42
66.49999999994372
  3
Katalog 09
100
AcDbAlignedDimension
 13
19.94744493249781
 23
303.7691187916654
 33
0.0
 14
27.97509409195551
 24
370.2691187916092
 34
0.0
 50
90.0
100
AcDbRotatedDimension
  0
LINE
  5
1C9
330
2
100
AcDbEntity
  8
ACHSEN
100
AcDbLine
 10
68.94744493249771
 20
213.2691187916655
 30
0.0
 11
68.94744493249771
 21
419.2691187916654
 31
0.0
  0
DIMENSION
  5
1CA
330
2
100
AcDbEntity
  8
BEMASSUNG
  6
Continuous
100
AcDbDimension
  2
*D7
 10
-7.264165606441736
 20
402.269118791608
 30
0.0
 11
-10.4866417319534
 21
386.2691187916086
 31
0.0
  1
32
 71
     5
 42
31.99999999999881
  3
Katalog 09
100
AcDbAlignedDimension
 13
27.97509409195551
 23
370.2691187916092
 33
0.0
 14
27.66052518204704
 24
402.269118791608
 34
0.0
 50
90.0
100
AcDbRotatedDimension
  0
DIMENSION
  5
1D7
330
2
100
AcDbEntity
  8
BEMASSUNG
  6
Continuous
100
AcDbDimension
  2
*D6
 10
38.94744493249772
 20
416.8149604592342
 30
0.0
 11
32.94670060232088
 21
419.9988622327675
 31
0.0
 71
     5
 42
12.00148866035367
  3
Katalog 09
100
AcDbAlignedDimension
 13
26.94595627214404
 23
401.8691187916067
 33
0.0
 14
38.94744493249772
 24
407.2239217303142
 34
0.0
100
AcDbRotatedDimension
  0
DIMENSION
  5
1E4
330
2
100
AcDbEntity
  8
BEMASSUNG
  6
Continuous
100
AcDbDimension
  2
*D5
 10
118.3540808107537
 20
422.7691187916654
 30
0.0
 11
118.3540808107536
 21
322.7691187916655
 31
0.0
 70
   128
 71
     5
 42
200.0
  3
Katalog 09
100
AcDbAlignedDimension
 13
84.44744493249771
 23
222.7691187916654
 33
0.0
 14
62.44744493249766
 24
422.7691187916654
 34
0.0
 50
90.0
100
AcDbRotatedDimension
  0
DIMENSION
  5
1F1
330
2
100
AcDbEntity
  8
BEMASSUNG
  6
Continuous
100
AcDbDimension
  2
*D4
 10
106.9486649312175
 20
248.2691187916655
 30
0.0
 11
100.0937706610946
 21
235.5191187916655
 31
0.0
  1
RZ <>\PPZ 27.5
 71
     5
 42
25.5
  3
Katalog 09
100
AcDbAlignedDimension
 13
84.44744493249771
 23
222.7691187916654
 33
0.0
 14
82.94744493249771
 24
248.2691187916655
 34
0.0
 50
90.0
100
AcDbRotatedDimension
1001
ACAD_DSTYLE_DIMINSPECT
1070
   396
1000
100%
1070
   395
1000

1070
   394
1070
    33
1070
   393
1070
     0
  0
LINE
  5
1FE
330
2
100
AcDbEntity
  8
ACHSEN
100
AcDbLine
 10
44.94744493249771
 20
200.7691187916574
 30
0.0
 11
35.94744493249772
 21
200.7691187916574
 31
0.0
  0
DIMENSION
  5
1FF
330
2
100
AcDbEntity
  8
BEMASSUNG
  6
Continuous
100
AcDbDimension
  2
*D3
 10
68.94744493249771
 20
175.7257539463464
 30
0.0
 11
53.94744493249771
 21
178.9007539463464
 31
0.0
  1
DM
 71
     5
 42
30.0
  3
Katalog 09
100
AcDbAlignedDimension
 13
38.94744493249772
 23
186.2691187916655
 33
0.0
 14
68.94744493249771
 24
213.2691187916655
 34
0.0
100
AcDbRotatedDimension
  0
DIMENSION
  5
20C
330
2
100
AcDbEntity
  8
BEMASSUNG
  6
Continuous
100
AcDbDimension
  2
*D2
 10
84.44744493249771
 20
175.7257539463464
 30
0.0
 11
76.69744493249772
 21
178.9467464429357
 31
0.0
 71
     5
 42
15.5
  3
Katalog 09
100
AcDbAlignedDimension
 13
68.94744493249771
 23
213.2691187916655
 33
0.0
 14
84.44744493249771
 24
222.7691187916654
 34
0.0
100
AcDbRotatedDimension
  0
DIMENSION
  5
219
330
2
100
AcDbEntity
  8
BEMASSUNG
  6
Continuous
100
AcDbDimension
  2
*D1
 10
7.827444932497826
 20
222.7691187916654
 30
0.0
 11
4.604968806986192
 21
205.2691187916654
 31
0.0
 71
     5
 42
34.99999999999997
  3
Katalog 09
100
AcDbAlignedDimension
 13
38.94744493249772
 23
187.7691187916654
 33
0.0
 14
42.44744493249771
 24
222.7691187916654
 34
0.0
 50
90.0
100
AcDbRotatedDimension
  0
DIMENSION
  5
226
330
2
100
AcDbEntity
  8
BEMASSUNG
  6
Continuous
100
AcDbDimension
  2
*D0
 10
-7.264165606441736
 20
268.7691187916653
 30
0.0
 11
-10.48515810303114
 21
228.2691187916654
 31
0.0
 71
     5
 42
80.99999999999988
  3
Katalog 09
100
AcDbAlignedDimension
 13
38.94744493249772
 23
187.7691187916654
 33
0.0
 14
19.94744493249781
 24
268.7691187916653
 34
0.0
 50
90.0
100
AcDbRotatedDimension
  0
LINE
  5
233
330
2
100
AcDbEntity
  8
LAYER3
100
AcDbLine
 10
18.54744493249781
 20
142.0773943588385
 30
0.0
 11
18.54744493249782
 21
136.0773943588385
 31
0.0
  0
ARC
  5
234
330
2
100
AcDbEntity
  8
LAYER3
100
AcDbCircle
 10
19.54744493249781
 20
136.0773943588385
 30
0.0
 40
0.9999999999999964
100
AcDbArc
 50
180.0
 51
270.0
  0
ARC
  5
235
330
2
100
AcDbEntity
  8
LAYER3
100
AcDbCircle
 10
19.54744493249781
 20
142.0773943588385
 30
0.0
 40
0.9999999999999989
100
AcDbArc
 50
90.0
 51
180.0
  0
LINE
  5
236
330
2
100
AcDbEntity
  8
LAYER3
100
AcDbLine
 10
19.54744493249781
 20
135.0773943588385
 30
0.0
 11
34.94744493227685
 21
135.0773943588385
 31
0.0
  0
LINE
  5
237
330
2
100
AcDbEntity
  8
LAYER3
100
AcDbLine
 10
26.98337304395281
 20
143.0773943588385
 30
0.0
 11
19.54744493249781
 21
143.0773943588385
 31
0.0
  0
LINE
  5
238
330
2
100
AcDbEntity
  8
LAYER3
100
AcDbLine
 10
60.86140630518355
 20
132.1773943588678
 30
0.0
 11
60.44744493249772
 21
132.1773943588678
 31
0.0
  0
LINE
  5
239
330
2
100
AcDbEntity
  8
LAYER3
100
AcDbLine
 10
60.44744493249772
 20
143.977394358867
 30
0.0
 11
60.86140630518357
 21
143.977394358867
 31
0.0
  0
LINE
  5
23A
330
2
100
AcDbEntity
  8
LAYER3
100
AcDbLine
 10
77.34744493249769
 20
130.1773943588713
 30
0.0
 11
77.34744493249769
 21
131.9273943588713
 31
0.0
  0
LINE
  5
23B
330
2
100
AcDbEntity
  8
LAYER3
100
AcDbLine
 10
84.44744493249766
 20
131.9273943588713
 30
0.0
 11
84.44744493249766
 21
130.1773943588713
 31
0.0
  0
LINE
  5
23C
330
2
100
AcDbEntity
  8
LAYER3
100
AcDbLine
 10
81.54744493249769
 20
130.1773943588713
 30
0.0
 11
81.54744493249769
 21
131.9273943588713
 31
0.0
  0
LINE
  5
23D
330
2
100
AcDbEntity
  8
LAYER3
100
AcDbLine
 10
81.54744493249769
 20
131.9273943588713
 30
0.0
 11
84.44744493249766
 21
131.9273943588713
 31
0.0
  0
LINE
  5
23E
330
2
100
AcDbEntity
  8
LAYER3
100
AcDbLine
 10
69.28594739391058
 20
131.9273943588713
 30
0.0
 11
77.34744493249769
 21
131.9273943588713
 31
0.0
  0
LINE
  5
23F
330
2
100
AcDbEntity
  8
LAYER3
100
AcDbLine
 10
69.28594739391058
 20
130.1773943588713
 30
0.0
 11
77.34744493249769
 21
130.1773943588713
 31
0.0
  0
LINE
  5
240
330
2
100
AcDbEntity
  8
LAYER3
100
AcDbLine
 10
81.54744493249769
 20
130.1773943588708
 30
0.0
 11
80.44744493249769
 21
130.1773943588708
 31
0.0
  0
LINE
  5
241
330
2
100
AcDbEntity
  8
LAYER3
100
AcDbLine
 10
84.44744493249766
 20
130.1773943588713
 30
0.0
 11
81.54744493249769
 21
130.1773943588713
 31
0.0
  0
LINE
  5
242
330
2
100
AcDbEntity
  8
LAYER3
100
AcDbLine
 10
62.44744493249766
 20
131.9273943588741
 30
0.0
 11
41.94744493249766
 21
131.9273943588741
 31
0.0
  0
LINE
  5
243
330
2
100
AcDbEntity
  8
LAYER3
100
AcDbLine
 10
41.94744493249766
 20
130.1773943588741
 30
0.0
 11
60.51653357431331
 21
130.1773943588741
 31
0.0
  0
ELLIPSE
  5
244
330
2
100
AcDbEntity
  8
LAYER3
100
AcDbEllipse
 10
60.51653357431328
 20
131.9273943588741
 30
0.0
 11
-1.930911358184373
 21
0.0000000000000014
 31
0.0
210
0.0
220
0.0
230
1.0
 40
0.9063077870366434
 41
1.570796326794897
 42
3.141592653589794
  0
ELLIPSE
  5
245
330
2
100
AcDbEntity
  8
LAYER3
100
AcDbEllipse
 10
64.87627979172017
 20
131.9273943588713
 30
0.0
 11
0.0000000000000934
 21
1.749999999999999
 31
0.0
210
0.0
220
0.0
230
1.0
 40
0.9063077870366507
 41
3.141592653589851
 42
4.712388980384705
  0
LINE
  5
246
330
2
100
AcDbEntity
  8
LAYER3
100
AcDbLine
 10
60.51653357431331
 20
130.1773943588741
 30
0.0
 11
64.87627979172017
 21
130.1773943588713
 31
0.0
  0
LINE
  5
247
330
2
100
AcDbEntity
  8
LAYER3
100
AcDbLine
 10
65.72151631520156
 20
130.1773943588708
 30
0.0
 11
64.87627979172017
 21
130.1773943588708
 31
0.0
  0
LINE
  5
248
330
2
100
AcDbEntity
  8
LAYER3
100
AcDbLine
 10
69.28594739391058
 20
131.9273943588713
 30
0.0
 11
69.28594739391058
 21
130.1773943588713
 31
0.0
  0
LINE
  5
249
330
2
100
AcDbEntity
  8
LAYER3
100
AcDbLine
 10
69.28594739391058
 20
130.1773943588713
 30
0.0
 11
65.72151631520156
 21
130.1773943588708
 31
0.0
  0
LINE
  5
24A
330
2
100
AcDbEntity
  8
LAYER3
100
AcDbLine
 10
60.86140630518352
 20
131.9273943588739
 30
0.0
 11
60.86140630518352
 21
145.9773943588739
 31
0.0
  0
LINE
  5
24B
330
2
100
AcDbEntity
  8
LAYER3
100
AcDbLine
 10
66.46231841903432
 20
131.9273943588716
 30
0.0
 11
66.46231841903432
 21
145.9773943588716
 31
0.0
  0
LINE
  5
24C
330
2
100
AcDbEntity
  8
LAYER3
100
AcDbLine
 10
62.44744493249766
 20
131.9273943588741
 30
0.0
 11
62.44744493249766
 21
145.9773943588741
 31
0.0
  0
LINE
  5
24D
330
2
100
AcDbEntity
  8
LAYER3
100
AcDbLine
 10
65.6170818955529
 20
147.9773943588721
 30
0.0
 11
63.29268145597907
 21
147.9773943588736
 31
0.0
  0
ELLIPSE
  5
24E
330
2
100
AcDbEntity
  8
LAYER3
100
AcDbEllipse
 10
61.70664282866494
 20
145.9773943588734
 30
0.0
 11
-0.0000000000000231
 21
1.999999999999999
 31
0.0
210
0.0
220
0.0
230
1.0
 40
0.422618261740695
 41
0.0000000000029987
 42
1.570796326796128
  0
LINE
  5
24F
330
2
100
AcDbEntity
  8
LAYER3
100
AcDbLine
 10
63.29268145597907
 20
147.9773943588736
 30
0.0
 11
61.70664282866494
 21
147.9773943588734
 31
0.0
  0
ELLIPSE
  5
250
330
2
100
AcDbEntity
  8
LAYER3
100
AcDbEllipse
 10
63.29268145597907
 20
145.9773943588736
 30
0.0
 11
-0.0000000000000375
 21
1.999999999999999
 31
0.0
210
0.0
220
0.0
230
1.0
 40
0.4226182617406949
 41
-0.0000000000000442
 42
1.570796326794348
  0
ELLIPSE
  5
251
330
2
100
AcDbEntity
  8
LAYER3
100
AcDbEllipse
 10
65.6170818955529
 20
145.9773943588721
 30
0.0
 11
-0.0000000000000173
 21
2.0
 31
0.0
210
0.0
220
0.0
230
1.0
 40
0.4226182617406949
 41
-1.570796326793663
 42
0.0000000000030056
  0
ARC
  5
252
330
2
100
AcDbEntity
  8
LAYER3
100
AcDbCircle
 10
40.44744493249766
 20
149.5773943588845
 30
0.0
 40
1.5
100
AcDbArc
 50
0.0
 51
180.0
  0
ARC
  5
253
330
2
100
AcDbEntity
  8
LAYER3
100
AcDbCircle
 10
40.44744493249766
 20
128.5773943588845
 30
0.0
 40
1.5
100
AcDbArc
 50
180.0
 51
0.0
  0
LINE
  5
254
330
2
100
AcDbEntity
  8
LAYER3
100
AcDbLine
 10
38.94744493249766
 20
149.5773943588845
 30
0.0
 11
38.94744493249766
 21
128.5773943588845
 31
0.0
  0
LINE
  5
255
330
2
100
AcDbEntity
  8
LAYER3
100
AcDbLine
 10
41.94744493249766
 20
128.5773943588845
 30
0.0
 11
41.94744493249766
 21
149.5773943588845
 31
0.0
  0
LINE
  5
256
330
2
100
AcDbEntity
  8
LAYER3
100
AcDbLine
 10
43.74744493249764
 20
146.1773943588741
 30
0.0
 11
43.74744493249761
 21
147.9773943588736
 31
0.0
  0
LINE
  5
257
330
2
100
AcDbEntity
  8
LAYER3
100
AcDbLine
 10
60.44744493249766
 20
131.9273943588741
 30
0.0
 11
41.94744493249766
 21
131.9273943588741
 31
0.0
  0
LINE
  5
258
330
2
100
AcDbEntity
  8
LAYER3
100
AcDbLine
 10
41.94744493249766
 20
146.1773943588741
 30
0.0
 11
43.74744493249764
 21
146.1773943588741
 31
0.0
  0
ARC
  5
259
330
2
100
AcDbEntity
  8
LAYER3
100
AcDbCircle
 10
43.74744493249766
 20
146.1773943588735
 30
0.0
 40
0.0499999999999965
100
AcDbArc
 50
90.00000000004071
 51
180.0
  0
ARC
  5
25A
330
2
100
AcDbEntity
  8
LAYER3
100
AcDbCircle
 10
43.7474449324977
 20
146.1773943588734
 30
0.0
 40
1.800000000000011
100
AcDbArc
 50
90.00000000000161
 51
180.0
  0
LINE
  5
25B
330
2
100
AcDbEntity
  8
LAYER3
100
AcDbLine
 10
84.44744493249766
 20
146.1773943588713
 30
0.0
 11
84.44744493249766
 21
131.9273943588713
 31
0.0
  0
LINE
  5
25C
330
2
100
AcDbEntity
  8
LAYER3
100
AcDbLine
 10
84.44744493249766
 20
131.9273943588713
 30
0.0
 11
81.54744493249769
 21
131.9273943588713
 31
0.0
  0
LINE
  5
25D
330
2
100
AcDbEntity
  8
LAYER3
100
AcDbLine
 10
75.94744493249766
 20
131.9273943588713
 30
0.0
 11
66.46231841903428
 21
131.9273943588713
 31
0.0
  0
LINE
  5
25E
330
2
100
AcDbEntity
  8
LAYER3
100
AcDbLine
 10
75.94744493249766
 20
130.1773943588713
 30
0.0
 11
80.44744493249766
 21
130.1773943588713
 31
0.0
  0
LINE
  5
25F
330
2
100
AcDbEntity
  8
LAYER3
100
AcDbLine
 10
84.44744493249766
 20
146.1773943588713
 30
0.0
 11
84.44744493249766
 21
147.9773943588708
 31
0.0
  0
LINE
  5
260
330
2
100
AcDbEntity
  8
LAYER3
100
AcDbLine
 10
65.6170818955529
 20
147.9773943588708
 30
0.0
 11
84.44744493249766
 21
147.9773943588708
 31
0.0
  0
LINE
  5
261
330
2
100
AcDbEntity
  8
LAYER3
100
AcDbLine
 10
43.74744493249764
 20
147.9773943588736
 30
0.0
 11
60.44744493249766
 21
147.9773943588736
 31
0.0
  0
LINE
  5
262
330
2
100
AcDbEntity
  8
LAYER3
100
AcDbLine
 10
42.14744493249767
 20
147.9773943588678
 30
0.0
 11
42.14744493249767
 21
147.0020154839914
 31
0.0
  0
LINE
  5
263
330
2
100
AcDbEntity
  8
LAYER3
100
AcDbLine
 10
43.74744493249766
 20
147.9773943588678
 30
0.0
 11
42.14744493249767
 21
147.9773943588678
 31
0.0
  0
LINE
  5
264
330
2
100
AcDbEntity
  8
LAYER3
100
AcDbLine
 10
60.44744493249766
 20
131.9273943588741
 30
0.0
 11
60.44744493249766
 21
146.1773943588741
 31
0.0
  0
LINE
  5
265
330
2
100
AcDbEntity
  8
LAYER3
100
AcDbLine
 10
60.44744493249766
 20
147.9773943588736
 30
0.0
 11
60.44744493249766
 21
146.1773943588741
 31
0.0
  0
LINE
  5
266
330
2
100
AcDbEntity
  8
LAYER3
100
AcDbLine
 10
60.44744493249766
 20
147.9773943588735
 30
0.0
 11
61.70664282866491
 21
147.9773943588728
 31
0.0
  0
LINE
  5
267
330
2
100
AcDbEntity
  8
LAYER3
100
AcDbLine
 10
60.86803571360471
 20
146.2273943588733
 30
0.0
 11
60.44744493249766
 21
146.2273943588735
 31
0.0
  0
LINE
  5
268
330
2
100
AcDbEntity
  8
LAYER3
100
AcDbLine
 10
164.9979577453281
 20
268.7691187916654
 30
0.0
 11
170.9979577453282
 21
268.7691187916654
 31
0.0
  0
ARC
  5
269
330
2
100
AcDbEntity
  8
LAYER3
100
AcDbCircle
 10
170.9979577453282
 20
269.7691187916654
 30
0.0
 40
0.9999999999999964
100
AcDbArc
 50
270.0
 51
0.0
  0
ARC
  5
26A
330
2
100
AcDbEntity
  8
LAYER3
100
AcDbCircle
 10
164.9979577453281
 20
269.7691187916654
 30
0.0
 40
1.0
100
AcDbArc
 50
180.0
 51
269.9999999999976
  0
ARC
  5
26B
330
2
100
AcDbEntity
  8
LAYER3
100
AcDbCircle
 10
164.9979577453281
 20
302.7691187916655
 30
0.0
 40
0.9999999999999975
100
AcDbArc
 50
90.0
 51
180.0
  0
ARC
  5
26C
330
2
100
AcDbEntity
  8
LAYER3
100
AcDbCircle
 10
170.9979577453282
 20
302.7691187916655
 30
0.0
 40
0.9999999999999953
100
AcDbArc
 50
0.0
 51
90.00000000000161
  0
LINE
  5
26D
330
2
100
AcDbEntity
  8
LAYER3
100
AcDbLine
 10
171.9979577453282
 20
269.7691187916654
 30
0.0
 11
171.9979577453282
 21
302.7691187916655
 31
0.0
  0
LINE
  5
26E
330
2
100
AcDbEntity
  8
LAYER3
100
AcDbLine
 10
170.9979577453282
 20
303.7691187916654
 30
0.0
 11
164.9979577453281
 21
303.7691187916654
 31
0.0
  0
LINE
  5
26F
330
2
100
AcDbEntity
  8
LAYER3
100
AcDbLine
 10
163.9979577453281
 20
302.7691187916655
 30
0.0
 11
163.9979577453281
 21
269.7691187916654
 31
0.0
  0
CIRCLE
  5
270
330
2
100
AcDbEntity
  8
LAYER3
100
AcDbCircle
 10
167.9979577453339
 20
261.2691187916655
 30
0.0
 40
4.199999999999989
  0
LINE
  5
271
330
2
100
AcDbEntity
  8
LAYER3
100
AcDbLine
 10
165.9943921366314
 20
260.092417958138
 30
0.0
 11
167.5341840500128
 21
261.3212144683402
 31
0.0
  0
LINE
  5
272
330
2
100
AcDbEntity
  8
LAYER3
100
AcDbLine
 10
168.0500534220086
 20
261.7328924869866
 30
0.0
 11
169.58984533539
 21
262.9616889971889
 31
0.0
  0
LINE
  5
273
330
2
100
AcDbEntity
  8
LAYER3
100
AcDbLine
 10
169.58984533539
 20
262.9616889971889
 30
0.0
 11
170.0015233540365
 21
262.445819625193
 31
0.0
  0
LINE
  5
274
330
2
100
AcDbEntity
  8
LAYER3
100
AcDbLine
 10
166.4060701552778
 20
259.5765485861421
 30
0.0
 11
165.9943921366314
 21
260.092417958138
 31
0.0
  0
LINE
  5
275
330
2
100
AcDbEntity
  8
LAYER3
100
AcDbLine
 10
167.9458620686592
 20
260.8053450963443
 30
0.0
 11
166.4060701552778
 21
259.5765485861421
 31
0.0
  0
LINE
  5
276
330
2
100
AcDbEntity
  8
LAYER3
100
AcDbLine
 10
170.0015233540365
 20
262.445819625193
 30
0.0
 11
168.4617314406551
 21
261.2170231149908
 31
0.0
  0
LINE
  5
277
330
2
100
AcDbEntity
  8
LAYER3
100
AcDbLine
 10
168.4617314406551
 20
261.2170231149908
 30
0.0
 11
169.6905279508573
 21
259.6772312016094
 31
0.0
  0
LINE
  5
278
330
2
100
AcDbEntity
  8
LAYER3
100
AcDbLine
 10
166.8212569118064
 20
263.272684400368
 30
0.0
 11
168.0500534220086
 21
261.7328924869866
 31
0.0
  0
LINE
  5
279
330
2
100
AcDbEntity
  8
LAYER3
100
AcDbLine
 10
166.3053875398106
 20
262.8610063817216
 30
0.0
 11
166.8212569118064
 21
263.272684400368
 31
0.0
  0
LINE
  5
27A
330
2
100
AcDbEntity
  8
LAYER3
100
AcDbLine
 10
169.6905279508573
 20
259.6772312016094
 30
0.0
 11
169.1746585788615
 21
259.2655531829629
 31
0.0
  0
LINE
  5
27B
330
2
100
AcDbEntity
  8
LAYER3
100
AcDbLine
 10
169.1746585788615
 20
259.2655531829629
 30
0.0
 11
167.9458620686592
 21
260.8053450963443
 31
0.0
  0
LINE
  5
27C
330
2
100
AcDbEntity
  8
LAYER3
100
AcDbLine
 10
167.5341840500128
 20
261.3212144683402
 30
0.0
 11
166.3053875398105
 21
262.8610063817216
 31
0.0
  0
CIRCLE
  5
27D
330
2
100
AcDbEntity
  8
LAYER3
100
AcDbCircle
 10
167.9979577453339
 20
311.2691187916655
 30
0.0
 40
4.19999999999998
  0
LINE
  5
27E
330
2
100
AcDbEntity
  8
LAYER3
100
AcDbLine
 10
166.1873027066695
 20
312.7252878515481
 30
0.0
 11
167.8822282444676
 21
311.7212323643762
 31
0.0
  0
LINE
  5
27F
330
2
100
AcDbEntity
  8
LAYER3
100
AcDbLine
 10
168.4500713180446
 20
311.3848482925318
 30
0.0
 11
170.1449968558427
 21
310.3807928053599
 31
0.0
  0
LINE
  5
280
330
2
100
AcDbEntity
  8
LAYER3
100
AcDbLine
 10
170.1449968558427
 20
310.3807928053599
 30
0.0
 11
169.8086127839983
 21
309.8129497317829
 31
0.0
  0
LINE
  5
281
330
2
100
AcDbEntity
  8
LAYER3
100
AcDbLine
 10
165.8509186348251
 20
312.157444777971
 30
0.0
 11
166.1873027066695
 21
312.7252878515481
 31
0.0
  0
LINE
  5
282
330
2
100
AcDbEntity
  8
LAYER3
100
AcDbLine
 10
167.5458441726233
 20
311.1533892907992
 30
0.0
 11
165.8509186348251
 21
312.157444777971
 31
0.0
  0
LINE
  5
283
330
2
100
AcDbEntity
  8
LAYER3
100
AcDbLine
 10
169.8086127839983
 20
309.8129497317829
 30
0.0
 11
168.1136872462003
 21
310.8170052189548
 31
0.0
  0
LINE
  5
284
330
2
100
AcDbEntity
  8
LAYER3
100
AcDbLine
 10
168.1136872462003
 20
310.8170052189548
 30
0.0
 11
167.1096317590284
 21
309.1220796811567
 31
0.0
  0
LINE
  5
285
330
2
100
AcDbEntity
  8
LAYER3
100
AcDbLine
 10
169.4541268052165
 20
313.0797738303299
 30
0.0
 11
168.4500713180446
 21
311.3848482925318
 31
0.0
  0
LINE
  5
286
330
2
100
AcDbEntity
  8
LAYER3
100
AcDbLine
 10
168.8862837316395
 20
313.4161579021742
 30
0.0
 11
169.4541268052165
 21
313.0797738303299
 31
0.0
  0
LINE
  5
287
330
2
100
AcDbEntity
  8
LAYER3
100
AcDbLine
 10
167.1096317590284
 20
309.1220796811567
 30
0.0
 11
166.5417886854514
 21
309.4584637530011
 31
0.0
  0
LINE
  5
288
330
2
100
AcDbEntity
  8
LAYER3
100
AcDbLine
 10
166.5417886854514
 20
309.4584637530011
 30
0.0
 11
167.5458441726233
 21
311.1533892907992
 31
0.0
  0
LINE
  5
289
330
2
100
AcDbEntity
  8
LAYER3
100
AcDbLine
 10
167.8822282444676
 20
311.7212323643762
 30
0.0
 11
168.8862837316395
 21
313.4161579021742
 31
0.0
  0
CIRCLE
  5
28A
330
2
100
AcDbEntity
  8
LAYER3
100
AcDbCircle
 10
167.9979577453339
 20
353.2691187916654
 30
0.0
 40
4.199999999999989
  0
LINE
  5
28B
330
2
100
AcDbEntity
  8
LAYER3
100
AcDbLine
 10
166.3926863152348
 20
351.5892367613706
 30
0.0
 11
167.537622050641
 21
353.1923656276162
 31
0.0
  0
LINE
  5
28C
330
2
100
AcDbEntity
  8
LAYER3
100
AcDbLine
 10
167.9212045812847
 20
353.7294544863584
 30
0.0
 11
169.0661403166909
 21
355.332583352604
 31
0.0
  0
LINE
  5
28D
330
2
100
AcDbEntity
  8
LAYER3
100
AcDbLine
 10
169.0661403166909
 20
355.332583352604
 30
0.0
 11
169.6032291754331
 21
354.9490008219603
 31
0.0
  0
LINE
  5
28E
330
2
100
AcDbEntity
  8
LAYER3
100
AcDbLine
 10
166.9297751739769
 20
351.2056542307269
 30
0.0
 11
166.3926863152348
 21
351.5892367613706
 31
0.0
  0
LINE
  5
28F
330
2
100
AcDbEntity
  8
LAYER3
100
AcDbLine
 10
168.0747109093832
 20
352.8087830969725
 30
0.0
 11
166.9297751739769
 21
351.2056542307269
 31
0.0
  0
LINE
  5
290
330
2
100
AcDbEntity
  8
LAYER3
100
AcDbLine
 10
169.6032291754331
 20
354.9490008219603
 30
0.0
 11
168.4582934400269
 21
353.3458719557147
 31
0.0
  0
LINE
  5
291
330
2
100
AcDbEntity
  8
LAYER3
100
AcDbLine
 10
168.4582934400269
 20
353.3458719557147
 30
0.0
 11
170.0614223062724
 21
352.2009362203085
 31
0.0
  0
LINE
  5
292
330
2
100
AcDbEntity
  8
LAYER3
100
AcDbLine
 10
166.3180757150391
 20
354.8743902217646
 30
0.0
 11
167.9212045812847
 21
353.7294544863584
 31
0.0
  0
LINE
  5
293
330
2
100
AcDbEntity
  8
LAYER3
100
AcDbLine
 10
165.9344931843954
 20
354.3373013630224
 30
0.0
 11
166.3180757150391
 21
354.8743902217646
 31
0.0
  0
LINE
  5
294
330
2
100
AcDbEntity
  8
LAYER3
100
AcDbLine
 10
170.0614223062724
 20
352.2009362203085
 30
0.0
 11
169.6778397756287
 21
351.6638473615663
 31
0.0
  0
LINE
  5
295
330
2
100
AcDbEntity
  8
LAYER3
100
AcDbLine
 10
169.6778397756287
 20
351.6638473615663
 30
0.0
 11
168.0747109093832
 21
352.8087830969725
 31
0.0
  0
LINE
  5
296
330
2
100
AcDbEntity
  8
LAYER3
100
AcDbLine
 10
167.537622050641
 20
353.1923656276162
 30
0.0
 11
165.9344931843954
 21
354.3373013630224
 31
0.0
  0
CIRCLE
  5
297
330
2
100
AcDbEntity
  8
LAYER3
100
AcDbCircle
 10
167.9979577453339
 20
410.7691187916654
 30
0.0
 40
4.199999999999984
  0
LINE
  5
298
330
2
100
AcDbEntity
  8
LAYER3
100
AcDbLine
 10
166.3252285401142
 20
409.1563953169169
 30
0.0
 11
167.5348646693102
 21
410.711284520347
 31
0.0
  0
LINE
  5
299
330
2
100
AcDbEntity
  8
LAYER3
100
AcDbLine
 10
167.9401234740155
 20
411.2322118676891
 30
0.0
 11
169.1497596032116
 21
412.7871010711192
 31
0.0
  0
LINE
  5
29A
330
2
100
AcDbEntity
  8
LAYER3
100
AcDbLine
 10
169.1497596032116
 20
412.7871010711192
 30
0.0
 11
169.6706869505537
 21
412.381842266414
 31
0.0
  0
LINE
  5
29B
330
2
100
AcDbEntity
  8
LAYER3
100
AcDbLine
 10
166.8461558874562
 20
408.7511365122116
 30
0.0
 11
166.3252285401142
 21
409.1563953169169
 31
0.0
  0
LINE
  5
29C
330
2
100
AcDbEntity
  8
LAYER3
100
AcDbLine
 10
168.0557920166523
 20
410.3060257156418
 30
0.0
 11
166.8461558874562
 21
408.7511365122116
 31
0.0
  0
LINE
  5
29D
330
2
100
AcDbEntity
  8
LAYER3
100
AcDbLine
 10
169.6706869505537
 20
412.381842266414
 30
0.0
 11
168.4610508213576
 21
410.8269530629838
 31
0.0
  0
LINE
  5
29E
330
2
100
AcDbEntity
  8
LAYER3
100
AcDbLine
 10
168.4610508213576
 20
410.8269530629838
 30
0.0
 11
170.0159400247877
 21
409.6173169337878
 31
0.0
  0
LINE
  5
29F
330
2
100
AcDbEntity
  8
LAYER3
100
AcDbLine
 10
166.3852342705854
 20
412.4418479968851
 30
0.0
 11
167.9401234740155
 21
411.2322118676891
 31
0.0
  0
LINE
  5
2A0
330
2
100
AcDbEntity
  8
LAYER3
100
AcDbLine
 10
165.9799754658801
 20
411.9209206495431
 30
0.0
 11
166.3852342705854
 21
412.4418479968851
 31
0.0
  0
LINE
  5
2A1
330
2
100
AcDbEntity
  8
LAYER3
100
AcDbLine
 10
170.0159400247877
 20
409.6173169337878
 30
0.0
 11
169.6106812200824
 21
409.0963895864456
 31
0.0
  0
LINE
  5
2A2
330
2
100
AcDbEntity
  8
LAYER3
100
AcDbLine
 10
169.6106812200824
 20
409.0963895864456
 30
0.0
 11
168.0557920166523
 21
410.3060257156418
 31
0.0
  0
LINE
  5
2A3
330
2
100
AcDbEntity
  8
LAYER3
100
AcDbLine
 10
167.5348646693102
 20
410.711284520347
 30
0.0
 11
165.9799754658801
 21
411.9209206495431
 31
0.0
  0
POLYLINE
  5
2A4
330
2
100
AcDbEntity
  8
LAYER3
100
AcDb2dPolyline
 66
     1
 10
0.0
 20
0.0
 30
0.0
 70
   128
  0
VERTEX
  5
2A5
330
2A4
100
AcDbEntity
  8
LAYER3
100
AcDbVertex
100
AcDb2dVertex
 10
165.0856600891017
 20
203.1067817126479
 30
0.0
  0
VERTEX
  5
2A6
330
2A4
100
AcDbEntity
  8
LAYER3
100
AcDbVertex
100
AcDb2dVertex
 10
165.1153977404498
 20
203.1038062487807
 30
0.0
  0
VERTEX
  5
2A7
330
2A4
100
AcDbEntity
  8
LAYER3
100
AcDbVertex
100
AcDb2dVertex
 10
165.1453076492213
 20
203.1017081652846
 30
0.0
  0
VERTEX
  5
2A8
330
2A4
100
AcDbEntity
  8
LAYER3
100
AcDbVertex
100
AcDb2dVertex
 10
165.1753576289081
 20
203.1005065356459
 30
0.0
  0
VERTEX
  5
2A9
330
2A4
100
AcDbEntity
  8
LAYER3
100
AcDbVertex
100
AcDb2dVertex
 10
165.2055145989322
 20
203.1002013598647
 30
0.0
  0
VERTEX
  5
2AA
330
2A4
100
AcDbEntity
  8
LAYER3
100
AcDbVertex
100
AcDb2dVertex
 10
165.2357460747623
 20
203.1008117114271
 30
0.0
  0
VERTEX
  5
2AB
330
2A4
100
AcDbEntity
  8
LAYER3
100
AcDbVertex
100
AcDb2dVertex
 10
165.2660198698901
 20
203.1023375903334
 30
0.0
  0
VERTEX
  5
2AC
330
2A4
100
AcDbEntity
  8
LAYER3
100
AcDbVertex
100
AcDb2dVertex
 10
165.2963026057147
 20
203.1047980700698
 30
0.0
  0
VERTEX
  5
2AD
330
2A4
100
AcDbEntity
  8
LAYER3
100
AcDbVertex
100
AcDb2dVertex
 10
165.3269608508014
 20
203.1082503710951
 30
0.0
  0
VERTEX
  5
2AE
330
2A4
100
AcDbEntity
  8
LAYER3
100
AcDbVertex
100
AcDb2dVertex
 10
165.3584201823139
 20
203.1128280078139
 30
0.0
  0
VERTEX
  5
2AF
330
2A4
100
AcDbEntity
  8
LAYER3
100
AcDbVertex
100
AcDb2dVertex
 10
165.3905599008465
 20
203.1185500537123
 30
0.0
  0
VERTEX
  5
2B0
330
2A4
100
AcDbEntity
  8
LAYER3
100
AcDbVertex
100
AcDb2dVertex
 10
165.4232575188541
 20
203.1254737292494
 30
0.0
  0
VERTEX
  5
2B1
330
2A4
100
AcDbEntity
  8
LAYER3
100
AcDbVertex
100
AcDb2dVertex
 10
165.4563896547222
 20
203.1336371813979
 30
0.0
  0
VERTEX
  5
2B2
330
2A4
100
AcDbEntity
  8
LAYER3
100
AcDbVertex
100
AcDb2dVertex
 10
165.4898341189289
 20
203.1430976306166
 30
0.0
  0
VERTEX
  5
2B3
330
2A4
100
AcDbEntity
  8
LAYER3
100
AcDbVertex
100
AcDb2dVertex
 10
165.5234675298596
 20
203.153874150392
 30
0.0
  0
VERTEX
  5
2B4
330
2A4
100
AcDbEntity
  8
LAYER3
100
AcDbVertex
100
AcDb2dVertex
 10
165.5571673999691
 20
203.1660048876967
 30
0.0
  0
VERTEX
  5
2B5
330
2A4
100
AcDbEntity
  8
LAYER3
100
AcDbVertex
100
AcDb2dVertex
 10
165.590811837759
 20
203.179566136476
 30
0.0
  0
VERTEX
  5
2B6
330
2A4
100
AcDbEntity
  8
LAYER3
100
AcDbVertex
100
AcDb2dVertex
 10
165.6242843161488
 20
203.1945578967299
 30
0.0
  0
VERTEX
  5
2B7
330
2A4
100
AcDbEntity
  8
LAYER3
100
AcDbVertex
100
AcDb2dVertex
 10
165.657463241663
 20
203.2109229479994
 30
0.0
  0
VERTEX
  5
2B8
330
2A4
100
AcDbEntity
  8
LAYER3
100
AcDbVertex
100
AcDb2dVertex
 10
165.6902255307103
 20
203.2286040698256
 30
0.0
  0
VERTEX
  5
2B9
330
2A4
100
AcDbEntity
  8
LAYER3
100
AcDbVertex
100
AcDb2dVertex
 10
165.7224486957455
 20
203.2475249682631
 30
0.0
  0
VERTEX
  5
2BA
330
2A4
100
AcDbEntity
  8
LAYER3
100
AcDbVertex
100
AcDb2dVertex
 10
165.7540099512005
 20
203.2676284228529
 30
0.0
  0
VERTEX
  5
2BB
330
2A4
100
AcDbEntity
  8
LAYER3
100
AcDbVertex
100
AcDb2dVertex
 10
165.7847865115071
 20
203.2888572131362
 30
0.0
  0
VERTEX
  5
2BC
330
2A4
100
AcDbEntity
  8
LAYER3
100
AcDbVertex
100
AcDb2dVertex
 10
165.8146555910969
 20
203.3111541186537
 30
0.0
  0
VERTEX
  5
2BD
330
2A4
100
AcDbEntity
  8
LAYER3
100
AcDbVertex
100
AcDb2dVertex
 10
165.8434944044018
 20
203.334423771974
 30
0.0
  0
SEQEND
  5
2BE
330
2A4
100
AcDbEntity
  8
LAYER3
  0
ARC
  5
2BF
330
2
100
AcDbEntity
  8
LAYER3
100
AcDbCircle
 10
167.9979577453402
 20
200.7691187916574
 30
0.0
 40
3.350000000009969
100
AcDbArc
 50
121.9748830508348
 51
130.0251169491639
  0
POLYLINE
  5
2C0
330
2
100
AcDbEntity
  8
LAYER3
100
AcDb2dPolyline
 66
     1
 10
0.0
 20
0.0
 30
0.0
 70
   128
  0
VERTEX
  5
2C1
330
2C0
100
AcDbEntity
  8
LAYER3
100
AcDbVertex
100
AcDb2dVertex
 10
166.2239737997914
 20
203.6108558093276
 30
0.0
  0
VERTEX
  5
2C2
330
2C0
100
AcDbEntity
  8
LAYER3
100
AcDbVertex
100
AcDb2dVertex
 10
166.2550245414639
 20
203.6310927783217
 30
0.0
  0
VERTEX
  5
2C3
330
2C0
100
AcDbEntity
  8
LAYER3
100
AcDbVertex
100
AcDb2dVertex
 10
166.2854497323895
 20
203.6526076708998
 30
0.0
  0
VERTEX
  5
2C4
330
2C0
100
AcDbEntity
  8
LAYER3
100
AcDbVertex
100
AcDb2dVertex
 10
166.3151507268811
 20
203.6753241931166
 30
0.0
  0
VERTEX
  5
2C5
330
2C0
100
AcDbEntity
  8
LAYER3
100
AcDbVertex
100
AcDb2dVertex
 10
166.3440285812283
 20
203.6991279040541
 30
0.0
  0
VERTEX
  5
2C6
330
2C0
100
AcDbEntity
  8
LAYER3
100
AcDbVertex
100
AcDb2dVertex
 10
166.3719843517208
 20
203.7239234362807
 30
0.0
  0
VERTEX
  5
2C7
330
2C0
100
AcDbEntity
  8
LAYER3
100
AcDbVertex
100
AcDb2dVertex
 10
166.3989196906948
 20
203.7496154223647
 30
0.0
  0
VERTEX
  5
2C8
330
2C0
100
AcDbEntity
  8
LAYER3
100
AcDbVertex
100
AcDb2dVertex
 10
166.4247359524632
 20
203.7761084948744
 30
0.0
  0
VERTEX
  5
2C9
330
2C0
100
AcDbEntity
  8
LAYER3
100
AcDbVertex
100
AcDb2dVertex
 10
166.4493338952923
 20
203.8033263598646
 30
0.0
  0
VERTEX
  5
2CA
330
2C0
100
AcDbEntity
  8
LAYER3
100
AcDbVertex
100
AcDb2dVertex
 10
166.4726229201222
 20
203.8311355029311
 30
0.0
  0
VERTEX
  5
2CB
330
2C0
100
AcDbEntity
  8
LAYER3
100
AcDbVertex
100
AcDb2dVertex
 10
166.4945869336987
 20
203.8594214831557
 30
0.0
  0
VERTEX
  5
2CC
330
2C0
100
AcDbEntity
  8
LAYER3
100
AcDbVertex
100
AcDb2dVertex
 10
166.5152298103237
 20
203.8880889331069
 30
0.0
  0
VERTEX
  5
2CD
330
2C0
100
AcDbEntity
  8
LAYER3
100
AcDbVertex
100
AcDb2dVertex
 10
166.5345530401134
 20
203.9169661914076
 30
0.0
  0
VERTEX
  5
2CE
330
2C0
100
AcDbEntity
  8
LAYER3
100
AcDbVertex
100
AcDb2dVertex
 10
166.5525596033001
 20
203.9459578906264
 30
0.0
  0
VERTEX
  5
2CF
330
2C0
100
AcDbEntity
  8
LAYER3
100
AcDbVertex
100
AcDb2dVertex
 10
166.5692506919765
 20
203.9749114428725
 30
0.0
  0
VERTEX
  5
2D0
330
2C0
100
AcDbEntity
  8
LAYER3
100
AcDbVertex
100
AcDb2dVertex
 10
166.5846286903286
 20
204.0037124072279
 30
0.0
  0
VERTEX
  5
2D1
330
2C0
100
AcDbEntity
  8
LAYER3
100
AcDbVertex
100
AcDb2dVertex
 10
166.5986947904491
 20
204.0322272692885
 30
0.0
  0
VERTEX
  5
2D2
330
2C0
100
AcDbEntity
  8
LAYER3
100
AcDbVertex
100
AcDb2dVertex
 10
166.6114519725704
 20
204.0603034411635
 30
0.0
  0
VERTEX
  5
2D3
330
2C0
100
AcDbEntity
  8
LAYER3
100
AcDbVertex
100
AcDb2dVertex
 10
166.6231422315502
 20
204.0883605395522
 30
0.0
  0
VERTEX
  5
2D4
330
2C0
100
AcDbEntity
  8
LAYER3
100
AcDbVertex
100
AcDb2dVertex
 10
166.6339497457408
 20
204.1166655932631
 30
0.0
  0
VERTEX
  5
2D5
330
2C0
100
AcDbEntity
  8
LAYER3
100
AcDbVertex
100
AcDb2dVertex
 10
166.6438721309566
 20
204.1452376757826
 30
0.0
  0
VERTEX
  5
2D6
330
2C0
100
AcDbEntity
  8
LAYER3
100
AcDbVertex
100
AcDb2dVertex
 10
166.6529064069652
 20
204.1740004931654
 30
0.0
  0
VERTEX
  5
2D7
330
2C0
100
AcDbEntity
  8
LAYER3
100
AcDbVertex
100
AcDb2dVertex
 10
166.6610495935344
 20
204.2029540454115
 30
0.0
  0
VERTEX
  5
2D8
330
2C0
100
AcDbEntity
  8
LAYER3
100
AcDbVertex
100
AcDb2dVertex
 10
166.6682993064784
 20
204.2320601855482
 30
0.0
  0
VERTEX
  5
2D9
330
2C0
100
AcDbEntity
  8
LAYER3
100
AcDbVertex
100
AcDb2dVertex
 10
166.674652565565
 20
204.2612616931166
 30
0.0
  0
SEQEND
  5
2DA
330
2C0
100
AcDbEntity
  8
LAYER3
  0
POLYLINE
  5
2DB
330
2
100
AcDbEntity
  8
LAYER3
100
AcDb2dPolyline
 66
     1
 10
0.0
 20
0.0
 30
0.0
 70
   128
  0
VERTEX
  5
2DC
330
2DB
100
AcDbEntity
  8
LAYER3
100
AcDbVertex
100
AcDb2dVertex
 10
166.674652565565
 20
204.2612616931166
 30
0.0
  0
VERTEX
  5
2DD
330
2DB
100
AcDbEntity
  8
LAYER3
100
AcDbVertex
100
AcDb2dVertex
 10
166.7075573097132
 20
204.3906371508803
 30
0.0
  0
VERTEX
  5
2DE
330
2DB
100
AcDbEntity
  8
LAYER3
100
AcDbVertex
100
AcDb2dVertex
 10
166.7536370645426
 20
204.517513981935
 30
0.0
  0
VERTEX
  5
2DF
330
2DB
100
AcDbEntity
  8
LAYER3
100
AcDbVertex
100
AcDb2dVertex
 10
166.8127410303019
 20
204.6404044543471
 30
0.0
  0
VERTEX
  5
2E0
330
2DB
100
AcDbEntity
  8
LAYER3
100
AcDbVertex
100
AcDb2dVertex
 10
166.8850933204554
 20
204.7582785998549
 30
0.0
  0
VERTEX
  5
2E1
330
2DB
100
AcDbEntity
  8
LAYER3
100
AcDbVertex
100
AcDb2dVertex
 10
166.9756303916834
 20
204.8755805407729
 30
0.0
  0
VERTEX
  5
2E2
330
2DB
100
AcDbEntity
  8
LAYER3
100
AcDbVertex
100
AcDb2dVertex
 10
167.0846198688409
 20
204.9882476245131
 30
0.0
  0
VERTEX
  5
2E3
330
2DB
100
AcDbEntity
  8
LAYER3
100
AcDbVertex
100
AcDb2dVertex
 10
167.2095607410333
 20
205.0897567187514
 30
0.0
  0
VERTEX
  5
2E4
330
2DB
100
AcDbEntity
  8
LAYER3
100
AcDbVertex
100
AcDb2dVertex
 10
167.3448245416543
 20
205.1755874072279
 30
0.0
  0
VERTEX
  5
2E5
330
2DB
100
AcDbEntity
  8
LAYER3
100
AcDbVertex
100
AcDb2dVertex
 10
167.4910430799386
 20
205.2451865588392
 30
0.0
  0
VERTEX
  5
2E6
330
2DB
100
AcDbEntity
  8
LAYER3
100
AcDbVertex
100
AcDb2dVertex
 10
167.6548479686638
 20
205.2997748767104
 30
0.0
  0
VERTEX
  5
2E7
330
2DB
100
AcDbEntity
  8
LAYER3
100
AcDbVertex
100
AcDb2dVertex
 10
167.8275250087639
 20
205.3331534777846
 30
0.0
  0
VERTEX
  5
2E8
330
2DB
100
AcDbEntity
  8
LAYER3
100
AcDbVertex
100
AcDb2dVertex
 10
167.9979579339882
 20
205.3441207324233
 30
0.0
  0
VERTEX
  5
2E9
330
2DB
100
AcDbEntity
  8
LAYER3
100
AcDbVertex
100
AcDb2dVertex
 10
168.1683902631661
 20
205.3331534777846
 30
0.0
  0
VERTEX
  5
2EA
330
2DB
100
AcDbEntity
  8
LAYER3
100
AcDbVertex
100
AcDb2dVertex
 10
168.3410673032662
 20
205.2997748767104
 30
0.0
  0
VERTEX
  5
2EB
330
2DB
100
AcDbEntity
  8
LAYER3
100
AcDbVertex
100
AcDb2dVertex
 10
168.5048721919915
 20
205.2451865588392
 30
0.0
  0
VERTEX
  5
2EC
330
2DB
100
AcDbEntity
  8
LAYER3
100
AcDbVertex
100
AcDb2dVertex
 10
168.6510907302758
 20
205.1755874072279
 30
0.0
  0
VERTEX
  5
2ED
330
2DB
100
AcDbEntity
  8
LAYER3
100
AcDbVertex
100
AcDb2dVertex
 10
168.7863545308969
 20
205.0897567187514
 30
0.0
  0
VERTEX
  5
2EE
330
2DB
100
AcDbEntity
  8
LAYER3
100
AcDbVertex
100
AcDb2dVertex
 10
168.9112954030893
 20
204.9882476245131
 30
0.0
  0
VERTEX
  5
2EF
330
2DB
100
AcDbEntity
  8
LAYER3
100
AcDbVertex
100
AcDb2dVertex
 10
169.0202848802469
 20
204.8755805407729
 30
0.0
  0
VERTEX
  5
2F0
330
2DB
100
AcDbEntity
  8
LAYER3
100
AcDbVertex
100
AcDb2dVertex
 10
169.110821951475
 20
204.7582785998549
 30
0.0
  0
VERTEX
  5
2F1
330
2DB
100
AcDbEntity
  8
LAYER3
100
AcDbVertex
100
AcDb2dVertex
 10
169.1831742416284
 20
204.6404044543471
 30
0.0
  0
VERTEX
  5
2F2
330
2DB
100
AcDbEntity
  8
LAYER3
100
AcDbVertex
100
AcDb2dVertex
 10
169.2422788034342
 20
204.517513981935
 30
0.0
  0
VERTEX
  5
2F3
330
2DB
100
AcDbEntity
  8
LAYER3
100
AcDbVertex
100
AcDb2dVertex
 10
169.2883585582636
 20
204.3906371508803
 30
0.0
  0
VERTEX
  5
2F4
330
2DB
100
AcDbEntity
  8
LAYER3
100
AcDbVertex
100
AcDb2dVertex
 10
169.3212633024119
 20
204.2612616931166
 30
0.0
  0
SEQEND
  5
2F5
330
2DB
100
AcDbEntity
  8
LAYER3
  0
POLYLINE
  5
2F6
330
2
100
AcDbEntity
  8
LAYER3
100
AcDb2dPolyline
 66
     1
 10
0.0
 20
0.0
 30
0.0
 70
   128
  0
VERTEX
  5
2F7
330
2F6
100
AcDbEntity
  8
LAYER3
100
AcDbVertex
100
AcDb2dVertex
 10
169.3212633024119
 20
204.2612616931166
 30
0.0
  0
VERTEX
  5
2F8
330
2F6
100
AcDbEntity
  8
LAYER3
100
AcDbVertex
100
AcDb2dVertex
 10
169.3276165614986
 20
204.2320601855482
 30
0.0
  0
VERTEX
  5
2F9
330
2F6
100
AcDbEntity
  8
LAYER3
100
AcDbVertex
100
AcDb2dVertex
 10
169.3348656783961
 20
204.2029540454115
 30
0.0
  0
VERTEX
  5
2FA
330
2F6
100
AcDbEntity
  8
LAYER3
100
AcDbVertex
100
AcDb2dVertex
 10
169.3430094610118
 20
204.1740004931654
 30
0.0
  0
VERTEX
  5
2FB
330
2F6
100
AcDbEntity
  8
LAYER3
100
AcDbVertex
100
AcDb2dVertex
 10
169.352043140974
 20
204.1452376757826
 30
0.0
  0
VERTEX
  5
2FC
330
2F6
100
AcDbEntity
  8
LAYER3
100
AcDbVertex
100
AcDb2dVertex
 10
169.3619655261898
 20
204.1166655932631
 30
0.0
  0
VERTEX
  5
2FD
330
2F6
100
AcDbEntity
  8
LAYER3
100
AcDbVertex
100
AcDb2dVertex
 10
169.3727730403804
 20
204.0883605395522
 30
0.0
  0
VERTEX
  5
2FE
330
2F6
100
AcDbEntity
  8
LAYER3
100
AcDbVertex
100
AcDb2dVertex
 10
169.3844632993602
 20
204.0603034411635
 30
0.0
  0
VERTEX
  5
2FF
330
2F6
100
AcDbEntity
  8
LAYER3
100
AcDbVertex
100
AcDb2dVertex
 10
169.397221077528
 20
204.0322272692885
 30
0.0
  0
VERTEX
  5
300
330
2F6
100
AcDbEntity
  8
LAYER3
100
AcDbVertex
100
AcDb2dVertex
 10
169.4112871776485
 20
204.0037124072279
 30
0.0
  0
VERTEX
  5
301
330
2F6
100
AcDbEntity
  8
LAYER3
100
AcDbVertex
100
AcDb2dVertex
 10
169.4266645799541
 20
203.9749114428725
 30
0.0
  0
VERTEX
  5
302
330
2F6
100
AcDbEntity
  8
LAYER3
100
AcDbVertex
100
AcDb2dVertex
 10
169.4433556686306
 20
203.9459578906264
 30
0.0
  0
VERTEX
  5
303
330
2F6
100
AcDbEntity
  8
LAYER3
100
AcDbVertex
100
AcDb2dVertex
 10
169.4613622318172
 20
203.9169661914076
 30
0.0
  0
VERTEX
  5
304
330
2F6
100
AcDbEntity
  8
LAYER3
100
AcDbVertex
100
AcDb2dVertex
 10
169.4806860576534
 20
203.8880889331069
 30
0.0
  0
VERTEX
  5
305
330
2F6
100
AcDbEntity
  8
LAYER3
100
AcDbVertex
100
AcDb2dVertex
 10
169.5013283382321
 20
203.8594214831557
 30
0.0
  0
VERTEX
  5
306
330
2F6
100
AcDbEntity
  8
LAYER3
100
AcDbVertex
100
AcDb2dVertex
 10
169.5232926498318
 20
203.8311355029311
 30
0.0
  0
VERTEX
  5
307
330
2F6
100
AcDbEntity
  8
LAYER3
100
AcDbVertex
100
AcDb2dVertex
 10
169.5465813766384
 20
203.8033263598646
 30
0.0
  0
VERTEX
  5
308
330
2F6
100
AcDbEntity
  8
LAYER3
100
AcDbVertex
100
AcDb2dVertex
 10
169.5711796174908
 20
203.7761084948744
 30
0.0
  0
VERTEX
  5
309
330
2F6
100
AcDbEntity
  8
LAYER3
100
AcDbVertex
100
AcDb2dVertex
 10
169.5969955812359
 20
203.7496154223647
 30
0.0
  0
VERTEX
  5
30A
330
2F6
100
AcDbEntity
  8
LAYER3
100
AcDbVertex
100
AcDb2dVertex
 10
169.6239309202099
 20
203.7239234362807
 30
0.0
  0
VERTEX
  5
30B
330
2F6
100
AcDbEntity
  8
LAYER3
100
AcDbVertex
100
AcDb2dVertex
 10
169.6518872867489
 20
203.6991279040541
 30
0.0
  0
VERTEX
  5
30C
330
2F6
100
AcDbEntity
  8
LAYER3
100
AcDbVertex
100
AcDb2dVertex
 10
169.6807651410962
 20
203.6753241931166
 30
0.0
  0
VERTEX
  5
30D
330
2F6
100
AcDbEntity
  8
LAYER3
100
AcDbVertex
100
AcDb2dVertex
 10
169.7104655395413
 20
203.6526076708998
 30
0.0
  0
VERTEX
  5
30E
330
2F6
100
AcDbEntity
  8
LAYER3
100
AcDbVertex
100
AcDb2dVertex
 10
169.7408907304669
 20
203.6310927783217
 30
0.0
  0
VERTEX
  5
30F
330
2F6
100
AcDbEntity
  8
LAYER3
100
AcDbVertex
100
AcDb2dVertex
 10
169.7719417701626
 20
203.6108558093276
 30
0.0
  0
SEQEND
  5
310
330
2F6
100
AcDbEntity
  8
LAYER3
  0
ARC
  5
311
330
2
100
AcDbEntity
  8
LAYER3
100
AcDbCircle
 10
167.9979577453335
 20
200.7691187916642
 30
0.0
 40
3.3500000000015
100
AcDbArc
 50
49.97488305082852
 51
58.02511694917189
  0
POLYLINE
  5
312
330
2
100
AcDbEntity
  8
LAYER3
100
AcDb2dPolyline
 66
     1
 10
0.0
 20
0.0
 30
0.0
 70
   128
  0
VERTEX
  5
313
330
312
100
AcDbEntity
  8
LAYER3
100
AcDbVertex
100
AcDb2dVertex
 10
170.1524208675289
 20
203.334423771974
 30
0.0
  0
VERTEX
  5
314
330
312
100
AcDbEntity
  8
LAYER3
100
AcDbVertex
100
AcDb2dVertex
 10
170.1812599788571
 20
203.3111541186537
 30
0.0
  0
VERTEX
  5
315
330
312
100
AcDbEntity
  8
LAYER3
100
AcDbVertex
100
AcDb2dVertex
 10
170.2111290584469
 20
203.2888572131362
 30
0.0
  0
VERTEX
  5
316
330
312
100
AcDbEntity
  8
LAYER3
100
AcDbVertex
100
AcDb2dVertex
 10
170.2419053207302
 20
203.2676284228529
 30
0.0
  0
VERTEX
  5
317
330
312
100
AcDbEntity
  8
LAYER3
100
AcDbVertex
100
AcDb2dVertex
 10
170.2734665761853
 20
203.2475249682631
 30
0.0
  0
VERTEX
  5
318
330
312
100
AcDbEntity
  8
LAYER3
100
AcDbVertex
100
AcDb2dVertex
 10
170.3056900392437
 20
203.2286040698256
 30
0.0
  0
VERTEX
  5
319
330
312
100
AcDbEntity
  8
LAYER3
100
AcDbVertex
100
AcDb2dVertex
 10
170.338452328291
 20
203.2109229479994
 30
0.0
  0
VERTEX
  5
31A
330
312
100
AcDbEntity
  8
LAYER3
100
AcDbVertex
100
AcDb2dVertex
 10
170.3716312538052
 20
203.1945578967299
 30
0.0
  0
VERTEX
  5
31B
330
312
100
AcDbEntity
  8
LAYER3
100
AcDbVertex
100
AcDb2dVertex
 10
170.4051034341717
 20
203.179566136476
 30
0.0
  0
VERTEX
  5
31C
330
312
100
AcDbEntity
  8
LAYER3
100
AcDbVertex
100
AcDb2dVertex
 10
170.4387478719616
 20
203.1660048876967
 30
0.0
  0
VERTEX
  5
31D
330
312
100
AcDbEntity
  8
LAYER3
100
AcDbVertex
100
AcDb2dVertex
 10
170.4724477420712
 20
203.153874150392
 30
0.0
  0
VERTEX
  5
31E
330
312
100
AcDbEntity
  8
LAYER3
100
AcDbVertex
100
AcDb2dVertex
 10
170.506081451025
 20
203.1430976306166
 30
0.0
  0
VERTEX
  5
31F
330
312
100
AcDbEntity
  8
LAYER3
100
AcDbVertex
100
AcDb2dVertex
 10
170.5395256172085
 20
203.1336371813979
 30
0.0
  0
VERTEX
  5
320
330
312
100
AcDbEntity
  8
LAYER3
100
AcDbVertex
100
AcDb2dVertex
 10
170.5726580510997
 20
203.1254737292494
 30
0.0
  0
VERTEX
  5
321
330
312
100
AcDbEntity
  8
LAYER3
100
AcDbVertex
100
AcDb2dVertex
 10
170.6053553710842
 20
203.1185500537123
 30
0.0
  0
VERTEX
  5
322
330
312
100
AcDbEntity
  8
LAYER3
100
AcDbVertex
100
AcDb2dVertex
 10
170.63749538764
 20
203.1128280078139
 30
0.0
  0
VERTEX
  5
323
330
312
100
AcDbEntity
  8
LAYER3
100
AcDbVertex
100
AcDb2dVertex
 10
170.6689547191524
 20
203.1082503710951
 30
0.0
  0
VERTEX
  5
324
330
312
100
AcDbEntity
  8
LAYER3
100
AcDbVertex
100
AcDb2dVertex
 10
170.6996129642391
 20
203.1047980700698
 30
0.0
  0
VERTEX
  5
325
330
312
100
AcDbEntity
  8
LAYER3
100
AcDbVertex
100
AcDb2dVertex
 10
170.7298957000637
 20
203.1023375903334
 30
0.0
  0
VERTEX
  5
326
330
312
100
AcDbEntity
  8
LAYER3
100
AcDbVertex
100
AcDb2dVertex
 10
170.7601694951915
 20
203.1008117114271
 30
0.0
  0
VERTEX
  5
327
330
312
100
AcDbEntity
  8
LAYER3
100
AcDbVertex
100
AcDb2dVertex
 10
170.7904009710216
 20
203.1002013598647
 30
0.0
  0
VERTEX
  5
328
330
312
100
AcDbEntity
  8
LAYER3
100
AcDbVertex
100
AcDb2dVertex
 10
170.8205579410457
 20
203.1005065356459
 30
0.0
  0
VERTEX
  5
329
330
312
100
AcDbEntity
  8
LAYER3
100
AcDbVertex
100
AcDb2dVertex
 10
170.8506076227092
 20
203.1017081652846
 30
0.0
  0
VERTEX
  5
32A
330
312
100
AcDbEntity
  8
LAYER3
100
AcDbVertex
100
AcDb2dVertex
 10
170.8805178295039
 20
203.1038062487807
 30
0.0
  0
VERTEX
  5
32B
330
312
100
AcDbEntity
  8
LAYER3
100
AcDbVertex
100
AcDb2dVertex
 10
170.9102551828288
 20
203.1067817126479
 30
0.0
  0
SEQEND
  5
32C
330
312
100
AcDbEntity
  8
LAYER3
  0
POLYLINE
  5
32D
330
2
100
AcDbEntity
  8
LAYER3
100
AcDb2dPolyline
 66
     1
 10
0.0
 20
0.0
 30
0.0
 70
   128
  0
VERTEX
  5
32E
330
32D
100
AcDbEntity
  8
LAYER3
100
AcDbVertex
100
AcDb2dVertex
 10
170.9102551828288
 20
203.1067817126479
 30
0.0
  0
VERTEX
  5
32F
330
32D
100
AcDbEntity
  8
LAYER3
100
AcDbVertex
100
AcDb2dVertex
 10
171.0434667955302
 20
203.1154792224135
 30
0.0
  0
VERTEX
  5
330
330
32D
100
AcDbEntity
  8
LAYER3
100
AcDbVertex
100
AcDb2dVertex
 10
171.1783807168864
 20
203.1108634387221
 30
0.0
  0
VERTEX
  5
331
330
32D
100
AcDbEntity
  8
LAYER3
100
AcDbVertex
100
AcDb2dVertex
 10
171.3135151754282
 20
203.0926101123061
 30
0.0
  0
VERTEX
  5
332
330
32D
100
AcDbEntity
  8
LAYER3
100
AcDbVertex
100
AcDb2dVertex
 10
171.4479856382273
 20
203.0602424060072
 30
0.0
  0
VERTEX
  5
333
330
32D
100
AcDbEntity
  8
LAYER3
100
AcDbVertex
100
AcDb2dVertex
 10
171.5875278602502
 20
203.0103843127455
 30
0.0
  0
VERTEX
  5
334
330
32D
100
AcDbEntity
  8
LAYER3
100
AcDbVertex
100
AcDb2dVertex
 10
171.7283593307397
 20
202.9415481005873
 30
0.0
  0
VERTEX
  5
335
330
32D
100
AcDbEntity
  8
LAYER3
100
AcDbVertex
100
AcDb2dVertex
 10
171.8635033260247
 20
202.8540770922865
 30
0.0
  0
VERTEX
  5
336
330
32D
100
AcDbEntity
  8
LAYER3
100
AcDbVertex
100
AcDb2dVertex
 10
171.986927856054
 20
202.7519576464857
 30
0.0
  0
VERTEX
  5
337
330
32D
100
AcDbEntity
  8
LAYER3
100
AcDbVertex
100
AcDb2dVertex
 10
172.0983050952813
 20
202.6344077502455
 30
0.0
  0
VERTEX
  5
338
330
32D
100
AcDbEntity
  8
LAYER3
100
AcDbVertex
100
AcDb2dVertex
 10
172.2008489261528
 20
202.4954955493178
 30
0.0
  0
VERTEX
  5
339
330
32D
100
AcDbEntity
  8
LAYER3
100
AcDbVertex
100
AcDb2dVertex
 10
172.2859452854057
 20
202.3415725146498
 30
0.0
  0
VERTEX
  5
33A
330
32D
100
AcDbEntity
  8
LAYER3
100
AcDbVertex
100
AcDb2dVertex
 10
172.3490415702721
 20
202.1828620349135
 30
0.0
  0
VERTEX
  5
33B
330
32D
100
AcDbEntity
  8
LAYER3
100
AcDbVertex
100
AcDb2dVertex
 10
172.3912786136528
 20
202.017399541017
 30
0.0
  0
VERTEX
  5
33C
330
32D
100
AcDbEntity
  8
LAYER3
100
AcDbVertex
100
AcDb2dVertex
 10
172.4129031787773
 20
201.8428580676283
 30
0.0
  0
VERTEX
  5
33D
330
32D
100
AcDbEntity
  8
LAYER3
100
AcDbVertex
100
AcDb2dVertex
 10
172.411595452871
 20
201.6701857958998
 30
0.0
  0
VERTEX
  5
33E
330
32D
100
AcDbEntity
  8
LAYER3
100
AcDbVertex
100
AcDb2dVertex
 10
172.3905871997735
 20
201.5096251879897
 30
0.0
  0
VERTEX
  5
33F
330
32D
100
AcDbEntity
  8
LAYER3
100
AcDbVertex
100
AcDb2dVertex
 10
172.3507593761346
 20
201.3544623767104
 30
0.0
  0
VERTEX
  5
340
330
32D
100
AcDbEntity
  8
LAYER3
100
AcDbVertex
100
AcDb2dVertex
 10
172.2928331981561
 20
201.2042586718764
 30
0.0
  0
VERTEX
  5
341
330
32D
100
AcDbEntity
  8
LAYER3
100
AcDbVertex
100
AcDb2dVertex
 10
172.2193597446344
 20
201.0658042346205
 30
0.0
  0
VERTEX
  5
342
330
32D
100
AcDbEntity
  8
LAYER3
100
AcDbVertex
100
AcDb2dVertex
 10
172.1357737670801
 20
200.9434478198256
 30
0.0
  0
VERTEX
  5
343
330
32D
100
AcDbEntity
  8
LAYER3
100
AcDbVertex
100
AcDb2dVertex
 10
172.0460199008844
 20
200.838200322267
 30
0.0
  0
VERTEX
  5
344
330
32D
100
AcDbEntity
  8
LAYER3
100
AcDbVertex
100
AcDb2dVertex
 10
171.9474135528468
 20
200.7440154467787
 30
0.0
  0
VERTEX
  5
345
330
32D
100
AcDbEntity
  8
LAYER3
100
AcDbVertex
100
AcDb2dVertex
 10
171.8409787307642
 20
200.6609885607924
 30
0.0
  0
VERTEX
  5
346
330
32D
100
AcDbEntity
  8
LAYER3
100
AcDbVertex
100
AcDb2dVertex
 10
171.7281030307674
 20
200.5897109423842
 30
0.0
  0
SEQEND
  5
347
330
32D
100
AcDbEntity
  8
LAYER3
  0
POLYLINE
  5
348
330
2
100
AcDbEntity
  8
LAYER3
100
AcDb2dPolyline
 66
     1
 10
0.0
 20
0.0
 30
0.0
 70
   128
  0
VERTEX
  5
349
330
348
100
AcDbEntity
  8
LAYER3
100
AcDbVertex
100
AcDb2dVertex
 10
171.7281030307674
 20
200.5897109423842
 30
0.0
  0
VERTEX
  5
34A
330
348
100
AcDbEntity
  8
LAYER3
100
AcDbVertex
100
AcDb2dVertex
 10
171.7022918353938
 20
200.574642888185
 30
0.0
  0
VERTEX
  5
34B
330
348
100
AcDbEntity
  8
LAYER3
100
AcDbVertex
100
AcDb2dVertex
 10
171.6768621097469
 20
200.5587546740736
 30
0.0
  0
VERTEX
  5
34C
330
348
100
AcDbEntity
  8
LAYER3
100
AcDbVertex
100
AcDb2dVertex
 10
171.6518448482418
 20
200.5420653735365
 30
0.0
  0
VERTEX
  5
34D
330
348
100
AcDbEntity
  8
LAYER3
100
AcDbVertex
100
AcDb2dVertex
 10
171.6272722373867
 20
200.52459406006
 30
0.0
  0
VERTEX
  5
34E
330
348
100
AcDbEntity
  8
LAYER3
100
AcDbVertex
100
AcDb2dVertex
 10
171.6031728874111
 20
200.5063216601576
 30
0.0
  0
VERTEX
  5
34F
330
348
100
AcDbEntity
  8
LAYER3
100
AcDbVertex
100
AcDb2dVertex
 10
171.5795777927303
 20
200.4872863208022
 30
0.0
  0
VERTEX
  5
350
330
348
100
AcDbEntity
  8
LAYER3
100
AcDbVertex
100
AcDb2dVertex
 10
171.5565203319454
 20
200.4675071154799
 30
0.0
  0
VERTEX
  5
351
330
348
100
AcDbEntity
  8
LAYER3
100
AcDbVertex
100
AcDb2dVertex
 10
171.5337465892696
 20
200.4466979418959
 30
0.0
  0
VERTEX
  5
352
330
348
100
AcDbEntity
  8
LAYER3
100
AcDbVertex
100
AcDb2dVertex
 10
171.5109811912441
 20
200.4245154772963
 30
0.0
  0
VERTEX
  5
353
330
348
100
AcDbEntity
  8
LAYER3
100
AcDbVertex
100
AcDb2dVertex
 10
171.4883451352978
 20
200.4009787951674
 30
0.0
  0
VERTEX
  5
354
330
348
100
AcDbEntity
  8
LAYER3
100
AcDbVertex
100
AcDb2dVertex
 10
171.4659629951381
 20
200.3761641894545
 30
0.0
  0
VERTEX
  5
355
330
348
100
AcDbEntity
  8
LAYER3
100
AcDbVertex
100
AcDb2dVertex
 10
171.4439593444729
 20
200.3500716601576
 30
0.0
  0
VERTEX
  5
356
330
348
100
AcDbEntity
  8
LAYER3
100
AcDbVertex
100
AcDb2dVertex
 10
171.4224575649166
 20
200.3227775012221
 30
0.0
  0
VERTEX
  5
357
330
348
100
AcDbEntity
  8
LAYER3
100
AcDbVertex
100
AcDb2dVertex
 10
171.401582230177
 20
200.2942817126478
 30
0.0
  0
VERTEX
  5
358
330
348
100
AcDbEntity
  8
LAYER3
100
AcDbVertex
100
AcDb2dVertex
 10
171.3814567218685
 20
200.2646605883803
 30
0.0
  0
VERTEX
  5
359
330
348
100
AcDbEntity
  8
LAYER3
100
AcDbVertex
100
AcDb2dVertex
 10
171.362205613699
 20
200.2339141284193
 30
0.0
  0
VERTEX
  5
35A
330
348
100
AcDbEntity
  8
LAYER3
100
AcDbVertex
100
AcDb2dVertex
 10
171.3439355979824
 20
200.2021186267104
 30
0.0
  0
VERTEX
  5
35B
330
348
100
AcDbEntity
  8
LAYER3
100
AcDbVertex
100
AcDb2dVertex
 10
171.3267122398282
 20
200.169369450685
 30
0.0
  0
VERTEX
  5
35C
330
348
100
AcDbEntity
  8
LAYER3
100
AcDbVertex
100
AcDb2dVertex
 10
171.3105969320202
 20
200.1358191882338
 30
0.0
  0
VERTEX
  5
35D
330
348
100
AcDbEntity
  8
LAYER3
100
AcDbVertex
100
AcDb2dVertex
 10
171.2956516633892
 20
200.1015632067885
 30
0.0
  0
VERTEX
  5
35E
330
348
100
AcDbEntity
  8
LAYER3
100
AcDbVertex
100
AcDb2dVertex
 10
171.2819378267193
 20
200.0667350207533
 30
0.0
  0
VERTEX
  5
35F
330
348
100
AcDbEntity
  8
LAYER3
100
AcDbVertex
100
AcDb2dVertex
 10
171.269517410841
 20
200.0314681445326
 30
0.0
  0
VERTEX
  5
360
330
348
100
AcDbEntity
  8
LAYER3
100
AcDbVertex
100
AcDb2dVertex
 10
171.2584518085385
 20
199.9958960925306
 30
0.0
  0
VERTEX
  5
361
330
348
100
AcDbEntity
  8
LAYER3
100
AcDbVertex
100
AcDb2dVertex
 10
171.2488036046887
 20
199.9601142321791
 30
0.0
  0
SEQEND
  5
362
330
348
100
AcDbEntity
  8
LAYER3
  0
POLYLINE
  5
363
330
2
100
AcDbEntity
  8
LAYER3
100
AcDb2dPolyline
 66
     1
 10
0.0
 20
0.0
 30
0.0
 70
   128
  0
VERTEX
  5
364
330
363
100
AcDbEntity
  8
LAYER3
100
AcDbVertex
100
AcDb2dVertex
 10
164.2678125391864
 20
200.5897109423842
 30
0.0
  0
VERTEX
  5
365
330
363
100
AcDbEntity
  8
LAYER3
100
AcDbVertex
100
AcDb2dVertex
 10
164.1549371372126
 20
200.6609885607924
 30
0.0
  0
VERTEX
  5
366
330
363
100
AcDbEntity
  8
LAYER3
100
AcDbVertex
100
AcDb2dVertex
 10
164.0485020171069
 20
200.7440154467787
 30
0.0
  0
VERTEX
  5
367
330
363
100
AcDbEntity
  8
LAYER3
100
AcDbVertex
100
AcDb2dVertex
 10
163.9498961161039
 20
200.838200322267
 30
0.0
  0
VERTEX
  5
368
330
363
100
AcDbEntity
  8
LAYER3
100
AcDbVertex
100
AcDb2dVertex
 10
163.8601418028734
 20
200.9434478198256
 30
0.0
  0
VERTEX
  5
369
330
363
100
AcDbEntity
  8
LAYER3
100
AcDbVertex
100
AcDb2dVertex
 10
163.7765552292726
 20
201.0658042346205
 30
0.0
  0
VERTEX
  5
36A
330
363
100
AcDbEntity
  8
LAYER3
100
AcDbVertex
100
AcDb2dVertex
 10
163.7030828188321
 20
201.2042586718764
 30
0.0
  0
VERTEX
  5
36B
330
363
100
AcDbEntity
  8
LAYER3
100
AcDbVertex
100
AcDb2dVertex
 10
163.6451555977723
 20
201.3544623767104
 30
0.0
  0
VERTEX
  5
36C
330
363
100
AcDbEntity
  8
LAYER3
100
AcDbVertex
100
AcDb2dVertex
 10
163.605328668203
 20
201.5096251879897
 30
0.0
  0
VERTEX
  5
36D
330
363
100
AcDbEntity
  8
LAYER3
100
AcDbVertex
100
AcDb2dVertex
 10
163.5843202660939
 20
201.6701857958998
 30
0.0
  0
VERTEX
  5
36E
330
363
100
AcDbEntity
  8
LAYER3
100
AcDbVertex
100
AcDb2dVertex
 10
163.5830126891991
 20
201.8428580676283
 30
0.0
  0
VERTEX
  5
36F
330
363
100
AcDbEntity
  8
LAYER3
100
AcDbVertex
100
AcDb2dVertex
 10
163.6046372543236
 20
202.017399541017
 30
0.0
  0
VERTEX
  5
370
330
363
100
AcDbEntity
  8
LAYER3
100
AcDbVertex
100
AcDb2dVertex
 10
163.6468741486927
 20
202.1828620349135
 30
0.0
  0
VERTEX
  5
371
330
363
100
AcDbEntity
  8
LAYER3
100
AcDbVertex
100
AcDb2dVertex
 10
163.7099702845475
 20
202.3415725146498
 30
0.0
  0
VERTEX
  5
372
330
363
100
AcDbEntity
  8
LAYER3
100
AcDbVertex
100
AcDb2dVertex
 10
163.7950661967655
 20
202.4954955493178
 30
0.0
  0
VERTEX
  5
373
330
363
100
AcDbEntity
  8
LAYER3
100
AcDbVertex
100
AcDb2dVertex
 10
163.8976106236836
 20
202.6344077502455
 30
0.0
  0
VERTEX
  5
374
330
363
100
AcDbEntity
  8
LAYER3
100
AcDbVertex
100
AcDb2dVertex
 10
164.0089871178529
 20
202.7519576464857
 30
0.0
  0
VERTEX
  5
375
330
363
100
AcDbEntity
  8
LAYER3
100
AcDbVertex
100
AcDb2dVertex
 10
164.1324116478822
 20
202.8540770922865
 30
0.0
  0
VERTEX
  5
376
330
363
100
AcDbEntity
  8
LAYER3
100
AcDbVertex
100
AcDb2dVertex
 10
164.2675565372369
 20
202.9415481005873
 30
0.0
  0
VERTEX
  5
377
330
363
100
AcDbEntity
  8
LAYER3
100
AcDbVertex
100
AcDb2dVertex
 10
164.4083880077265
 20
203.0103843127455
 30
0.0
  0
VERTEX
  5
378
330
363
100
AcDbEntity
  8
LAYER3
100
AcDbVertex
100
AcDb2dVertex
 10
164.5479299317263
 20
203.0602424060072
 30
0.0
  0
VERTEX
  5
379
330
363
100
AcDbEntity
  8
LAYER3
100
AcDbVertex
100
AcDb2dVertex
 10
164.6824003945253
 20
203.0926101123061
 30
0.0
  0
VERTEX
  5
37A
330
363
100
AcDbEntity
  8
LAYER3
100
AcDbVertex
100
AcDb2dVertex
 10
164.817534555044
 20
203.1108634387221
 30
0.0
  0
VERTEX
  5
37B
330
363
100
AcDbEntity
  8
LAYER3
100
AcDbVertex
100
AcDb2dVertex
 10
164.9524484764002
 20
203.1154792224135
 30
0.0
  0
VERTEX
  5
37C
330
363
100
AcDbEntity
  8
LAYER3
100
AcDbVertex
100
AcDb2dVertex
 10
165.0856600891017
 20
203.1067817126479
 30
0.0
  0
SEQEND
  5
37D
330
363
100
AcDbEntity
  8
LAYER3
  0
POLYLINE
  5
37E
330
2
100
AcDbEntity
  8
LAYER3
100
AcDb2dPolyline
 66
     1
 10
0.0
 20
0.0
 30
0.0
 70
   128
  0
VERTEX
  5
37F
330
37E
100
AcDbEntity
  8
LAYER3
100
AcDbVertex
100
AcDb2dVertex
 10
164.7471119652653
 20
199.9601142321791
 30
0.0
  0
VERTEX
  5
380
330
37E
100
AcDbEntity
  8
LAYER3
100
AcDbVertex
100
AcDb2dVertex
 10
164.7374637614155
 20
199.9958960925306
 30
0.0
  0
VERTEX
  5
381
330
37E
100
AcDbEntity
  8
LAYER3
100
AcDbVertex
100
AcDb2dVertex
 10
164.726398159113
 20
200.0314681445326
 30
0.0
  0
VERTEX
  5
382
330
37E
100
AcDbEntity
  8
LAYER3
100
AcDbVertex
100
AcDb2dVertex
 10
164.7139780412579
 20
200.0667350207533
 30
0.0
  0
VERTEX
  5
383
330
37E
100
AcDbEntity
  8
LAYER3
100
AcDbVertex
100
AcDb2dVertex
 10
164.700264204588
 20
200.1015632067885
 30
0.0
  0
VERTEX
  5
384
330
37E
100
AcDbEntity
  8
LAYER3
100
AcDbVertex
100
AcDb2dVertex
 10
164.6853186379338
 20
200.1358191882338
 30
0.0
  0
VERTEX
  5
385
330
37E
100
AcDbEntity
  8
LAYER3
100
AcDbVertex
100
AcDb2dVertex
 10
164.6692033301258
 20
200.169369450685
 30
0.0
  0
VERTEX
  5
386
330
37E
100
AcDbEntity
  8
LAYER3
100
AcDbVertex
100
AcDb2dVertex
 10
164.6519796739483
 20
200.2021186267104
 30
0.0
  0
VERTEX
  5
387
330
37E
100
AcDbEntity
  8
LAYER3
100
AcDbVertex
100
AcDb2dVertex
 10
164.6337096582318
 20
200.2339141284193
 30
0.0
  0
VERTEX
  5
388
330
37E
100
AcDbEntity
  8
LAYER3
100
AcDbVertex
100
AcDb2dVertex
 10
164.6144588480854
 20
200.2646605883803
 30
0.0
  0
VERTEX
  5
389
330
37E
100
AcDbEntity
  8
LAYER3
100
AcDbVertex
100
AcDb2dVertex
 10
164.594333339777
 20
200.2942817126478
 30
0.0
  0
VERTEX
  5
38A
330
37E
100
AcDbEntity
  8
LAYER3
100
AcDbVertex
100
AcDb2dVertex
 10
164.5734577070141
 20
200.3227775012221
 30
0.0
  0
VERTEX
  5
38B
330
37E
100
AcDbEntity
  8
LAYER3
100
AcDbVertex
100
AcDb2dVertex
 10
164.5519559274578
 20
200.3500716601576
 30
0.0
  0
VERTEX
  5
38C
330
37E
100
AcDbEntity
  8
LAYER3
100
AcDbVertex
100
AcDb2dVertex
 10
164.5299522767925
 20
200.3761641894545
 30
0.0
  0
VERTEX
  5
38D
330
37E
100
AcDbEntity
  8
LAYER3
100
AcDbVertex
100
AcDb2dVertex
 10
164.5075707326793
 20
200.4009787951674
 30
0.0
  0
VERTEX
  5
38E
330
37E
100
AcDbEntity
  8
LAYER3
100
AcDbVertex
100
AcDb2dVertex
 10
164.484934676733
 20
200.4245154772963
 30
0.0
  0
VERTEX
  5
38F
330
37E
100
AcDbEntity
  8
LAYER3
100
AcDbVertex
100
AcDb2dVertex
 10
164.462168682661
 20
200.4466979418959
 30
0.0
  0
VERTEX
  5
390
330
37E
100
AcDbEntity
  8
LAYER3
100
AcDbVertex
100
AcDb2dVertex
 10
164.4393949399852
 20
200.4675071154799
 30
0.0
  0
VERTEX
  5
391
330
37E
100
AcDbEntity
  8
LAYER3
100
AcDbVertex
100
AcDb2dVertex
 10
164.4163371811771
 20
200.4872863208022
 30
0.0
  0
VERTEX
  5
392
330
37E
100
AcDbEntity
  8
LAYER3
100
AcDbVertex
100
AcDb2dVertex
 10
164.392742980566
 20
200.5063216601576
 30
0.0
  0
VERTEX
  5
393
330
37E
100
AcDbEntity
  8
LAYER3
100
AcDbVertex
100
AcDb2dVertex
 10
164.3686436305904
 20
200.52459406006
 30
0.0
  0
VERTEX
  5
394
330
37E
100
AcDbEntity
  8
LAYER3
100
AcDbVertex
100
AcDb2dVertex
 10
164.3440701256656
 20
200.5420653735365
 30
0.0
  0
VERTEX
  5
395
330
37E
100
AcDbEntity
  8
LAYER3
100
AcDbVertex
100
AcDb2dVertex
 10
164.3190531621837
 20
200.5587546740736
 30
0.0
  0
VERTEX
  5
396
330
37E
100
AcDbEntity
  8
LAYER3
100
AcDbVertex
100
AcDb2dVertex
 10
164.2936234365367
 20
200.574642888185
 30
0.0
  0
VERTEX
  5
397
330
37E
100
AcDbEntity
  8
LAYER3
100
AcDbVertex
100
AcDb2dVertex
 10
164.2678125391864
 20
200.5897109423842
 30
0.0
  0
SEQEND
  5
398
330
37E
100
AcDbEntity
  8
LAYER3
  0
ARC
  5
399
330
2
100
AcDbEntity
  8
LAYER3
100
AcDbCircle
 10
167.9979577453335
 20
200.7691187916652
 30
0.0
 40
3.349999999999185
100
AcDbArc
 50
193.9748830508235
 51
202.0251169491772
  0
POLYLINE
  5
39A
330
2
100
AcDbEntity
  8
LAYER3
100
AcDb2dPolyline
 66
     1
 10
0.0
 20
0.0
 30
0.0
 70
   128
  0
VERTEX
  5
39B
330
39A
100
AcDbEntity
  8
LAYER3
100
AcDbVertex
100
AcDb2dVertex
 10
164.8747535239124
 20
198.7217299853529
 30
0.0
  0
VERTEX
  5
39C
330
39A
100
AcDbEntity
  8
LAYER3
100
AcDbVertex
100
AcDb2dVertex
 10
164.886779059019
 20
198.7491004382338
 30
0.0
  0
VERTEX
  5
39D
330
39A
100
AcDbEntity
  8
LAYER3
100
AcDbVertex
100
AcDb2dVertex
 10
164.8980148325824
 20
198.7768905078139
 30
0.0
  0
VERTEX
  5
39E
330
39A
100
AcDbEntity
  8
LAYER3
100
AcDbVertex
100
AcDb2dVertex
 10
164.9084435592556
 20
198.8051001940931
 30
0.0
  0
VERTEX
  5
39F
330
39A
100
AcDbEntity
  8
LAYER3
100
AcDbVertex
100
AcDb2dVertex
 10
164.918047357645
 20
198.833691350099
 30
0.0
  0
VERTEX
  5
3A0
330
39A
100
AcDbEntity
  8
LAYER3
100
AcDbVertex
100
AcDb2dVertex
 10
164.9268095384502
 20
198.8626258288588
 30
0.0
  0
VERTEX
  5
3A1
330
39A
100
AcDbEntity
  8
LAYER3
100
AcDbVertex
100
AcDb2dVertex
 10
164.9347119222545
 20
198.8919036303725
 30
0.0
  0
VERTEX
  5
3A2
330
39A
100
AcDbEntity
  8
LAYER3
100
AcDbVertex
100
AcDb2dVertex
 10
164.9417375217342
 20
198.9214484606947
 30
0.0
  0
VERTEX
  5
3A3
330
39A
100
AcDbEntity
  8
LAYER3
100
AcDbVertex
100
AcDb2dVertex
 10
164.9479277621174
 20
198.9516799365248
 30
0.0
  0
VERTEX
  5
3A4
330
39A
100
AcDbEntity
  8
LAYER3
100
AcDbVertex
100
AcDb2dVertex
 10
164.9533046971225
 20
198.9830176745619
 30
0.0
  0
VERTEX
  5
3A5
330
39A
100
AcDbEntity
  8
LAYER3
100
AcDbVertex
100
AcDb2dVertex
 10
164.9577905426883
 20
199.0153472338881
 30
0.0
  0
VERTEX
  5
3A6
330
39A
100
AcDbEntity
  8
LAYER3
100
AcDbVertex
100
AcDb2dVertex
 10
164.9613075147533
 20
199.048592320558
 30
0.0
  0
VERTEX
  5
3A7
330
39A
100
AcDbEntity
  8
LAYER3
100
AcDbVertex
100
AcDb2dVertex
 10
164.963777829256
 20
199.0826194201673
 30
0.0
  0
VERTEX
  5
3A8
330
39A
100
AcDbEntity
  8
LAYER3
100
AcDbVertex
100
AcDb2dVertex
 10
164.9651240001583
 20
199.1173522387709
 30
0.0
  0
VERTEX
  5
3A9
330
39A
100
AcDbEntity
  8
LAYER3
100
AcDbVertex
100
AcDb2dVertex
 10
164.9652679453755
 20
199.1526572619642
 30
0.0
  0
VERTEX
  5
3AA
330
39A
100
AcDbEntity
  8
LAYER3
100
AcDbVertex
100
AcDb2dVertex
 10
164.9641318808461
 20
199.1884772692884
 30
0.0
  0
VERTEX
  5
3AB
330
39A
100
AcDbEntity
  8
LAYER3
100
AcDbVertex
100
AcDb2dVertex
 10
164.9616359363461
 20
199.2246596728529
 30
0.0
  0
VERTEX
  5
3AC
330
39A
100
AcDbEntity
  8
LAYER3
100
AcDbVertex
100
AcDb2dVertex
 10
164.9577249775792
 20
199.2611281787123
 30
0.0
  0
VERTEX
  5
3AD
330
39A
100
AcDbEntity
  8
LAYER3
100
AcDbVertex
100
AcDb2dVertex
 10
164.9524145017529
 20
199.297730198976
 30
0.0
  0
VERTEX
  5
3AE
330
39A
100
AcDbEntity
  8
LAYER3
100
AcDbVertex
100
AcDb2dVertex
 10
164.9457274566555
 20
199.334351292726
 30
0.0
  0
VERTEX
  5
3AF
330
39A
100
AcDbEntity
  8
LAYER3
100
AcDbVertex
100
AcDb2dVertex
 10
164.9376864920521
 20
199.370857945558
 30
0.0
  0
VERTEX
  5
3B0
330
39A
100
AcDbEntity
  8
LAYER3
100
AcDbVertex
100
AcDb2dVertex
 10
164.9283145557309
 20
199.4070784960951
 30
0.0
  0
VERTEX
  5
3B1
330
39A
100
AcDbEntity
  8
LAYER3
100
AcDbVertex
100
AcDb2dVertex
 10
164.91763459548
 20
199.4429175769056
 30
0.0
  0
VERTEX
  5
3B2
330
39A
100
AcDbEntity
  8
LAYER3
100
AcDbVertex
100
AcDb2dVertex
 10
164.9056695590878
 20
199.4782035266127
 30
0.0
  0
VERTEX
  5
3B3
330
39A
100
AcDbEntity
  8
LAYER3
100
AcDbVertex
100
AcDb2dVertex
 10
164.8924423943425
 20
199.5128219042982
 30
0.0
  0
SEQEND
  5
3B4
330
39A
100
AcDbEntity
  8
LAYER3
  0
POLYLINE
  5
3B5
330
2
100
AcDbEntity
  8
LAYER3
100
AcDb2dPolyline
 66
     1
 10
0.0
 20
0.0
 30
0.0
 70
   128
  0
VERTEX
  5
3B6
330
3B5
100
AcDbEntity
  8
LAYER3
100
AcDbVertex
100
AcDb2dVertex
 10
167.0159064422511
 20
197.166096440431
 30
0.0
  0
VERTEX
  5
3B7
330
3B5
100
AcDbEntity
  8
LAYER3
100
AcDbVertex
100
AcDb2dVertex
 10
166.9132410179041
 20
197.0807807360854
 30
0.0
  0
VERTEX
  5
3B8
330
3B5
100
AcDbEntity
  8
LAYER3
100
AcDbVertex
100
AcDb2dVertex
 10
166.8013809810541
 20
197.0052115832533
 30
0.0
  0
VERTEX
  5
3B9
330
3B5
100
AcDbEntity
  8
LAYER3
100
AcDbVertex
100
AcDb2dVertex
 10
166.6813348422907
 20
196.9405333911146
 30
0.0
  0
VERTEX
  5
3BA
330
3B5
100
AcDbEntity
  8
LAYER3
100
AcDbVertex
100
AcDb2dVertex
 10
166.5535108934305
 20
196.8876998339857
 30
0.0
  0
VERTEX
  5
3BB
330
3B5
100
AcDbEntity
  8
LAYER3
100
AcDbVertex
100
AcDb2dVertex
 10
166.4113144765756
 20
196.8460051928724
 30
0.0
  0
VERTEX
  5
3BC
330
3B5
100
AcDbEntity
  8
LAYER3
100
AcDbVertex
100
AcDb2dVertex
 10
166.2569169889352
 20
196.8189208422865
 30
0.0
  0
VERTEX
  5
3BD
330
3B5
100
AcDbEntity
  8
LAYER3
100
AcDbVertex
100
AcDb2dVertex
 10
166.0961748848817
 20
196.8102424060072
 30
0.0
  0
VERTEX
  5
3BE
330
3B5
100
AcDbEntity
  8
LAYER3
100
AcDbVertex
100
AcDb2dVertex
 10
165.9362967501542
 20
196.8203132067884
 30
0.0
  0
VERTEX
  5
3BF
330
3B5
100
AcDbEntity
  8
LAYER3
100
AcDbVertex
100
AcDb2dVertex
 10
165.7770942340752
 20
196.8499534045424
 30
0.0
  0
VERTEX
  5
3C0
330
3B5
100
AcDbEntity
  8
LAYER3
100
AcDbVertex
100
AcDb2dVertex
 10
165.61248140439
 20
196.9020621691908
 30
0.0
  0
VERTEX
  5
3C1
330
3B5
100
AcDbEntity
  8
LAYER3
100
AcDbVertex
100
AcDb2dVertex
 10
165.4531689177414
 20
196.9765632067885
 30
0.0
  0
VERTEX
  5
3C2
330
3B5
100
AcDbEntity
  8
LAYER3
100
AcDbVertex
100
AcDb2dVertex
 10
165.3088401447197
 20
197.0678679858412
 30
0.0
  0
VERTEX
  5
3C3
330
3B5
100
AcDbEntity
  8
LAYER3
100
AcDbVertex
100
AcDb2dVertex
 10
165.1774032603165
 20
197.1769111071791
 30
0.0
  0
VERTEX
  5
3C4
330
3B5
100
AcDbEntity
  8
LAYER3
100
AcDbVertex
100
AcDb2dVertex
 10
165.0573180805108
 20
197.3054091845717
 30
0.0
  0
VERTEX
  5
3C5
330
3B5
100
AcDbEntity
  8
LAYER3
100
AcDbVertex
100
AcDb2dVertex
 10
164.9568893204591
 20
197.445866337892
 30
0.0
  0
VERTEX
  5
3C6
330
3B5
100
AcDbEntity
  8
LAYER3
100
AcDbVertex
100
AcDb2dVertex
 10
164.8795052061936
 20
197.5881163989271
 30
0.0
  0
VERTEX
  5
3C7
330
3B5
100
AcDbEntity
  8
LAYER3
100
AcDbVertex
100
AcDb2dVertex
 10
164.8205219398401
 20
197.7370612536635
 30
0.0
  0
VERTEX
  5
3C8
330
3B5
100
AcDbEntity
  8
LAYER3
100
AcDbVertex
100
AcDb2dVertex
 10
164.7791050563714
 20
197.8926055346693
 30
0.0
  0
VERTEX
  5
3C9
330
3B5
100
AcDbEntity
  8
LAYER3
100
AcDbVertex
100
AcDb2dVertex
 10
164.75715445384
 20
198.0478255664076
 30
0.0
  0
VERTEX
  5
3CA
330
3B5
100
AcDbEntity
  8
LAYER3
100
AcDbVertex
100
AcDb2dVertex
 10
164.7528590451143
 20
198.1959502612318
 30
0.0
  0
VERTEX
  5
3CB
330
3B5
100
AcDbEntity
  8
LAYER3
100
AcDbVertex
100
AcDb2dVertex
 10
164.7636138091944
 20
198.3338324938978
 30
0.0
  0
VERTEX
  5
3CC
330
3B5
100
AcDbEntity
  8
LAYER3
100
AcDbVertex
100
AcDb2dVertex
 10
164.788027275648
 20
198.4679953967299
 30
0.0
  0
VERTEX
  5
3CD
330
3B5
100
AcDbEntity
  8
LAYER3
100
AcDbVertex
100
AcDb2dVertex
 10
164.8253290544413
 20
198.5977332507338
 30
0.0
  0
VERTEX
  5
3CE
330
3B5
100
AcDbEntity
  8
LAYER3
100
AcDbVertex
100
AcDb2dVertex
 10
164.8747535239124
 20
198.7217299853529
 30
0.0
  0
SEQEND
  5
3CF
330
3B5
100
AcDbEntity
  8
LAYER3
  0
POLYLINE
  5
3D0
330
2
100
AcDbEntity
  8
LAYER3
100
AcDb2dPolyline
 66
     1
 10
0.0
 20
0.0
 30
0.0
 70
   128
  0
VERTEX
  5
3D1
330
3D0
100
AcDbEntity
  8
LAYER3
100
AcDbVertex
100
AcDb2dVertex
 10
167.762808669653
 20
197.42738412964
 30
0.0
  0
VERTEX
  5
3D2
330
3D0
100
AcDbEntity
  8
LAYER3
100
AcDbVertex
100
AcDb2dVertex
 10
167.7257947812939
 20
197.4292724047865
 30
0.0
  0
VERTEX
  5
3D3
330
3D0
100
AcDbEntity
  8
LAYER3
100
AcDbVertex
100
AcDb2dVertex
 10
167.6885305534268
 20
197.4297301684584
 30
0.0
  0
VERTEX
  5
3D4
330
3D0
100
AcDbEntity
  8
LAYER3
100
AcDbVertex
100
AcDb2dVertex
 10
167.651153672781
 20
197.4288146411146
 30
0.0
  0
VERTEX
  5
3D5
330
3D0
100
AcDbEntity
  8
LAYER3
100
AcDbVertex
100
AcDb2dVertex
 10
167.6138000379467
 20
197.4265448962416
 30
0.0
  0
VERTEX
  5
3D6
330
3D0
100
AcDbEntity
  8
LAYER3
100
AcDbVertex
100
AcDb2dVertex
 10
167.5766073356533
 20
197.4229018603529
 30
0.0
  0
VERTEX
  5
3D7
330
3D0
100
AcDbEntity
  8
LAYER3
100
AcDbVertex
100
AcDb2dVertex
 10
167.5397120605374
 20
197.4179427539076
 30
0.0
  0
VERTEX
  5
3D8
330
3D0
100
AcDbEntity
  8
LAYER3
100
AcDbVertex
100
AcDb2dVertex
 10
167.5032513032818
 20
197.411686650392
 30
0.0
  0
VERTEX
  5
3D9
330
3D0
100
AcDbEntity
  8
LAYER3
100
AcDbVertex
100
AcDb2dVertex
 10
167.4673621545697
 20
197.404133549806
 30
0.0
  0
VERTEX
  5
3DA
330
3D0
100
AcDbEntity
  8
LAYER3
100
AcDbVertex
100
AcDb2dVertex
 10
167.432175148573
 20
197.3953406726088
 30
0.0
  0
VERTEX
  5
3DB
330
3D0
100
AcDbEntity
  8
LAYER3
100
AcDbVertex
100
AcDb2dVertex
 10
167.397773135748
 20
197.3853461657728
 30
0.0
  0
VERTEX
  5
3DC
330
3D0
100
AcDbEntity
  8
LAYER3
100
AcDbVertex
100
AcDb2dVertex
 10
167.3642282377147
 20
197.3743026171888
 30
0.0
  0
VERTEX
  5
3DD
330
3D0
100
AcDbEntity
  8
LAYER3
100
AcDbVertex
100
AcDb2dVertex
 10
167.3316161523723
 20
197.3622863208021
 30
0.0
  0
VERTEX
  5
3DE
330
3D0
100
AcDbEntity
  8
LAYER3
100
AcDbVertex
100
AcDb2dVertex
 10
167.3000107894802
 20
197.3494117175306
 30
0.0
  0
VERTEX
  5
3DF
330
3D0
100
AcDbEntity
  8
LAYER3
100
AcDbVertex
100
AcDb2dVertex
 10
167.2694866548443
 20
197.3358123217787
 30
0.0
  0
VERTEX
  5
3E0
330
3D0
100
AcDbEntity
  8
LAYER3
100
AcDbVertex
100
AcDb2dVertex
 10
167.2401194463634
 20
197.3215453540053
 30
0.0
  0
VERTEX
  5
3E1
330
3D0
100
AcDbEntity
  8
LAYER3
100
AcDbVertex
100
AcDb2dVertex
 10
167.2119830737972
 20
197.3067443286146
 30
0.0
  0
VERTEX
  5
3E2
330
3D0
100
AcDbEntity
  8
LAYER3
100
AcDbVertex
100
AcDb2dVertex
 10
167.1851508508586
 20
197.2915236865248
 30
0.0
  0
VERTEX
  5
3E3
330
3D0
100
AcDbEntity
  8
LAYER3
100
AcDbVertex
100
AcDb2dVertex
 10
167.1592097173595
 20
197.2757117663588
 30
0.0
  0
VERTEX
  5
3E4
330
3D0
100
AcDbEntity
  8
LAYER3
100
AcDbVertex
100
AcDb2dVertex
 10
167.133820522871
 20
197.259155980226
 30
0.0
  0
VERTEX
  5
3E5
330
3D0
100
AcDbEntity
  8
LAYER3
100
AcDbVertex
100
AcDb2dVertex
 10
167.1090041290187
 20
197.2418754016127
 30
0.0
  0
VERTEX
  5
3E6
330
3D0
100
AcDbEntity
  8
LAYER3
100
AcDbVertex
100
AcDb2dVertex
 10
167.0847825895213
 20
197.2239081774916
 30
0.0
  0
VERTEX
  5
3E7
330
3D0
100
AcDbEntity
  8
LAYER3
100
AcDbVertex
100
AcDb2dVertex
 10
167.0611779580974
 20
197.205273381349
 30
0.0
  0
VERTEX
  5
3E8
330
3D0
100
AcDbEntity
  8
LAYER3
100
AcDbVertex
100
AcDb2dVertex
 10
167.038211692419
 20
197.1859900866713
 30
0.0
  0
VERTEX
  5
3E9
330
3D0
100
AcDbEntity
  8
LAYER3
100
AcDbVertex
100
AcDb2dVertex
 10
167.0159064422511
 20
197.166096440431
 30
0.0
  0
SEQEND
  5
3EA
330
3D0
100
AcDbEntity
  8
LAYER3
  0
ARC
  5
3EB
330
2
100
AcDbEntity
  8
LAYER3
100
AcDbCircle
 10
167.9979577453342
 20
200.7691187916742
 30
0.0
 40
3.350000000008677
100
AcDbArc
 50
265.9748830508374
 51
274.0251169491707
  0
POLYLINE
  5
3EC
330
2
100
AcDbEntity
  8
LAYER3
100
AcDb2dPolyline
 66
     1
 10
0.0
 20
0.0
 30
0.0
 70
   128
  0
VERTEX
  5
3ED
330
3EC
100
AcDbEntity
  8
LAYER3
100
AcDbVertex
100
AcDb2dVertex
 10
168.9800088296794
 20
197.166096440431
 30
0.0
  0
VERTEX
  5
3EE
330
3EC
100
AcDbEntity
  8
LAYER3
100
AcDbVertex
100
AcDb2dVertex
 10
168.9577035795116
 20
197.1859900866713
 30
0.0
  0
VERTEX
  5
3EF
330
3EC
100
AcDbEntity
  8
LAYER3
100
AcDbVertex
100
AcDb2dVertex
 10
168.9347379098796
 20
197.205273381349
 30
0.0
  0
VERTEX
  5
3F0
330
3EC
100
AcDbEntity
  8
LAYER3
100
AcDbVertex
100
AcDb2dVertex
 10
168.9111332784557
 20
197.2239081774916
 30
0.0
  0
VERTEX
  5
3F1
330
3EC
100
AcDbEntity
  8
LAYER3
100
AcDbVertex
100
AcDb2dVertex
 10
168.8869117389583
 20
197.2418754016127
 30
0.0
  0
VERTEX
  5
3F2
330
3EC
100
AcDbEntity
  8
LAYER3
100
AcDbVertex
100
AcDb2dVertex
 10
168.8620953451061
 20
197.259155980226
 30
0.0
  0
VERTEX
  5
3F3
330
3EC
100
AcDbEntity
  8
LAYER3
100
AcDbVertex
100
AcDb2dVertex
 10
168.8367055545711
 20
197.2757117663588
 30
0.0
  0
VERTEX
  5
3F4
330
3EC
100
AcDbEntity
  8
LAYER3
100
AcDbVertex
100
AcDb2dVertex
 10
168.810764421072
 20
197.2915236865248
 30
0.0
  0
VERTEX
  5
3F5
330
3EC
100
AcDbEntity
  8
LAYER3
100
AcDbVertex
100
AcDb2dVertex
 10
168.7839321981335
 20
197.3067443286146
 30
0.0
  0
VERTEX
  5
3F6
330
3EC
100
AcDbEntity
  8
LAYER3
100
AcDbVertex
100
AcDb2dVertex
 10
168.7557964216137
 20
197.3215453540053
 30
0.0
  0
VERTEX
  5
3F7
330
3EC
100
AcDbEntity
  8
LAYER3
100
AcDbVertex
100
AcDb2dVertex
 10
168.7264286170864
 20
197.3358123217787
 30
0.0
  0
VERTEX
  5
3F8
330
3EC
100
AcDbEntity
  8
LAYER3
100
AcDbVertex
100
AcDb2dVertex
 10
168.6959050784969
 20
197.3494117175306
 30
0.0
  0
VERTEX
  5
3F9
330
3EC
100
AcDbEntity
  8
LAYER3
100
AcDbVertex
100
AcDb2dVertex
 10
168.6642997156048
 20
197.3622863208021
 30
0.0
  0
VERTEX
  5
3FA
330
3EC
100
AcDbEntity
  8
LAYER3
100
AcDbVertex
100
AcDb2dVertex
 10
168.6316870342159
 20
197.3743026171888
 30
0.0
  0
VERTEX
  5
3FB
330
3EC
100
AcDbEntity
  8
LAYER3
100
AcDbVertex
100
AcDb2dVertex
 10
168.5981427322293
 20
197.3853461657728
 30
0.0
  0
VERTEX
  5
3FC
330
3EC
100
AcDbEntity
  8
LAYER3
100
AcDbVertex
100
AcDb2dVertex
 10
168.5637401233578
 20
197.3953406726088
 30
0.0
  0
VERTEX
  5
3FD
330
3EC
100
AcDbEntity
  8
LAYER3
100
AcDbVertex
100
AcDb2dVertex
 10
168.5285537134076
 20
197.404133549806
 30
0.0
  0
VERTEX
  5
3FE
330
3EC
100
AcDbEntity
  8
LAYER3
100
AcDbVertex
100
AcDb2dVertex
 10
168.4926639686489
 20
197.411686650392
 30
0.0
  0
VERTEX
  5
3FF
330
3EC
100
AcDbEntity
  8
LAYER3
100
AcDbVertex
100
AcDb2dVertex
 10
168.4562032113934
 20
197.4179427539076
 30
0.0
  0
VERTEX
  5
400
330
3EC
100
AcDbEntity
  8
LAYER3
100
AcDbVertex
100
AcDb2dVertex
 10
168.4193079362774
 20
197.4229018603529
 30
0.0
  0
VERTEX
  5
401
330
3EC
100
AcDbEntity
  8
LAYER3
100
AcDbVertex
100
AcDb2dVertex
 10
168.382115233984
 20
197.4265448962416
 30
0.0
  0
VERTEX
  5
402
330
3EC
100
AcDbEntity
  8
LAYER3
100
AcDbVertex
100
AcDb2dVertex
 10
168.3447615991497
 20
197.4288146411146
 30
0.0
  0
VERTEX
  5
403
330
3EC
100
AcDbEntity
  8
LAYER3
100
AcDbVertex
100
AcDb2dVertex
 10
168.307384718504
 20
197.4297301684584
 30
0.0
  0
VERTEX
  5
404
330
3EC
100
AcDbEntity
  8
LAYER3
100
AcDbVertex
100
AcDb2dVertex
 10
168.2701204906369
 20
197.4292724047865
 30
0.0
  0
VERTEX
  5
405
330
3EC
100
AcDbEntity
  8
LAYER3
100
AcDbVertex
100
AcDb2dVertex
 10
168.2331066022778
 20
197.42738412964
 30
0.0
  0
SEQEND
  5
406
330
3EC
100
AcDbEntity
  8
LAYER3
  0
POLYLINE
  5
407
330
2
100
AcDbEntity
  8
LAYER3
100
AcDb2dPolyline
 66
     1
 10
0.0
 20
0.0
 30
0.0
 70
   128
  0
VERTEX
  5
408
330
407
100
AcDbEntity
  8
LAYER3
100
AcDbVertex
100
AcDb2dVertex
 10
171.1211620460414
 20
198.7217299853529
 30
0.0
  0
VERTEX
  5
409
330
407
100
AcDbEntity
  8
LAYER3
100
AcDbVertex
100
AcDb2dVertex
 10
171.1705868135356
 20
198.5977332507338
 30
0.0
  0
VERTEX
  5
40A
330
407
100
AcDbEntity
  8
LAYER3
100
AcDbVertex
100
AcDb2dVertex
 10
171.2078885923289
 20
198.4679953967299
 30
0.0
  0
VERTEX
  5
40B
330
407
100
AcDbEntity
  8
LAYER3
100
AcDbVertex
100
AcDb2dVertex
 10
171.2323014627359
 20
198.3338324938978
 30
0.0
  0
VERTEX
  5
40C
330
407
100
AcDbEntity
  8
LAYER3
100
AcDbVertex
100
AcDb2dVertex
 10
171.2430565248392
 20
198.1959502612318
 30
0.0
  0
VERTEX
  5
40D
330
407
100
AcDbEntity
  8
LAYER3
100
AcDbVertex
100
AcDb2dVertex
 10
171.2387608180902
 20
198.0478255664076
 30
0.0
  0
VERTEX
  5
40E
330
407
100
AcDbEntity
  8
LAYER3
100
AcDbVertex
100
AcDb2dVertex
 10
171.2168102155588
 20
197.8926055346693
 30
0.0
  0
VERTEX
  5
40F
330
407
100
AcDbEntity
  8
LAYER3
100
AcDbVertex
100
AcDb2dVertex
 10
171.1753933320901
 20
197.7370612536635
 30
0.0
  0
VERTEX
  5
410
330
407
100
AcDbEntity
  8
LAYER3
100
AcDbVertex
100
AcDb2dVertex
 10
171.1164103637597
 20
197.5881163989271
 30
0.0
  0
VERTEX
  5
411
330
407
100
AcDbEntity
  8
LAYER3
100
AcDbVertex
100
AcDb2dVertex
 10
171.0390262494942
 20
197.445866337892
 30
0.0
  0
VERTEX
  5
412
330
407
100
AcDbEntity
  8
LAYER3
100
AcDbVertex
100
AcDb2dVertex
 10
170.9385971914192
 20
197.3054091845717
 30
0.0
  0
VERTEX
  5
413
330
407
100
AcDbEntity
  8
LAYER3
100
AcDbVertex
100
AcDb2dVertex
 10
170.8185123096367
 20
197.1769111071791
 30
0.0
  0
VERTEX
  5
414
330
407
100
AcDbEntity
  8
LAYER3
100
AcDbVertex
100
AcDb2dVertex
 10
170.6870751272103
 20
197.0678679858412
 30
0.0
  0
VERTEX
  5
415
330
407
100
AcDbEntity
  8
LAYER3
100
AcDbVertex
100
AcDb2dVertex
 10
170.5427466522118
 20
196.9765632067885
 30
0.0
  0
VERTEX
  5
416
330
407
100
AcDbEntity
  8
LAYER3
100
AcDbVertex
100
AcDb2dVertex
 10
170.3834341655632
 20
196.9020621691908
 30
0.0
  0
VERTEX
  5
417
330
407
100
AcDbEntity
  8
LAYER3
100
AcDbVertex
100
AcDb2dVertex
 10
170.2188210378548
 20
196.8499534045424
 30
0.0
  0
VERTEX
  5
418
330
407
100
AcDbEntity
  8
LAYER3
100
AcDbVertex
100
AcDb2dVertex
 10
170.0596188197991
 20
196.8203132067884
 30
0.0
  0
VERTEX
  5
419
330
407
100
AcDbEntity
  8
LAYER3
100
AcDbVertex
100
AcDb2dVertex
 10
169.8997406850717
 20
196.8102424060072
 30
0.0
  0
VERTEX
  5
41A
330
407
100
AcDbEntity
  8
LAYER3
100
AcDbVertex
100
AcDb2dVertex
 10
169.738998282995
 20
196.8189208422865
 30
0.0
  0
VERTEX
  5
41B
330
407
100
AcDbEntity
  8
LAYER3
100
AcDbVertex
100
AcDb2dVertex
 10
169.5846007953546
 20
196.8460051928724
 30
0.0
  0
VERTEX
  5
41C
330
407
100
AcDbEntity
  8
LAYER3
100
AcDbVertex
100
AcDb2dVertex
 10
169.4424043784998
 20
196.8876998339857
 30
0.0
  0
VERTEX
  5
41D
330
407
100
AcDbEntity
  8
LAYER3
100
AcDbVertex
100
AcDb2dVertex
 10
169.3145810256861
 20
196.9405333911146
 30
0.0
  0
VERTEX
  5
41E
330
407
100
AcDbEntity
  8
LAYER3
100
AcDbVertex
100
AcDb2dVertex
 10
169.1945348869227
 20
197.0052115832533
 30
0.0
  0
VERTEX
  5
41F
330
407
100
AcDbEntity
  8
LAYER3
100
AcDbVertex
100
AcDb2dVertex
 10
169.0826748500727
 20
197.0807807360854
 30
0.0
  0
VERTEX
  5
420
330
407
100
AcDbEntity
  8
LAYER3
100
AcDbVertex
100
AcDb2dVertex
 10
168.9800088296794
 20
197.166096440431
 30
0.0
  0
SEQEND
  5
421
330
407
100
AcDbEntity
  8
LAYER3
  0
POLYLINE
  5
422
330
2
100
AcDbEntity
  8
LAYER3
100
AcDb2dPolyline
 66
     1
 10
0.0
 20
0.0
 30
0.0
 70
   128
  0
VERTEX
  5
423
330
422
100
AcDbEntity
  8
LAYER3
100
AcDbVertex
100
AcDb2dVertex
 10
171.1034731756115
 20
199.5128219042982
 30
0.0
  0
VERTEX
  5
424
330
422
100
AcDbEntity
  8
LAYER3
100
AcDbVertex
100
AcDb2dVertex
 10
171.090245712843
 20
199.4782035266127
 30
0.0
  0
VERTEX
  5
425
330
422
100
AcDbEntity
  8
LAYER3
100
AcDbVertex
100
AcDb2dVertex
 10
171.0782806764508
 20
199.4429175769056
 30
0.0
  0
VERTEX
  5
426
330
422
100
AcDbEntity
  8
LAYER3
100
AcDbVertex
100
AcDb2dVertex
 10
171.0676007161999
 20
199.4070784960951
 30
0.0
  0
VERTEX
  5
427
330
422
100
AcDbEntity
  8
LAYER3
100
AcDbVertex
100
AcDb2dVertex
 10
171.0582290779019
 20
199.370857945558
 30
0.0
  0
VERTEX
  5
428
330
422
100
AcDbEntity
  8
LAYER3
100
AcDbVertex
100
AcDb2dVertex
 10
171.0501878152752
 20
199.334351292726
 30
0.0
  0
VERTEX
  5
429
330
422
100
AcDbEntity
  8
LAYER3
100
AcDbVertex
100
AcDb2dVertex
 10
171.0435007701779
 20
199.297730198976
 30
0.0
  0
VERTEX
  5
42A
330
422
100
AcDbEntity
  8
LAYER3
100
AcDbVertex
100
AcDb2dVertex
 10
171.0381905923748
 20
199.2611281787123
 30
0.0
  0
VERTEX
  5
42B
330
422
100
AcDbEntity
  8
LAYER3
100
AcDbVertex
100
AcDb2dVertex
 10
171.0342793355847
 20
199.2246596728529
 30
0.0
  0
VERTEX
  5
42C
330
422
100
AcDbEntity
  8
LAYER3
100
AcDbVertex
100
AcDb2dVertex
 10
171.0317836891079
 20
199.1884772692884
 30
0.0
  0
VERTEX
  5
42D
330
422
100
AcDbEntity
  8
LAYER3
100
AcDbVertex
100
AcDb2dVertex
 10
171.0306476245785
 20
199.1526572619642
 30
0.0
  0
VERTEX
  5
42E
330
422
100
AcDbEntity
  8
LAYER3
100
AcDbVertex
100
AcDb2dVertex
 10
171.0307912717724
 20
199.1173522387709
 30
0.0
  0
VERTEX
  5
42F
330
422
100
AcDbEntity
  8
LAYER3
100
AcDbVertex
100
AcDb2dVertex
 10
171.0321377406978
 20
199.0826194201673
 30
0.0
  0
VERTEX
  5
430
330
422
100
AcDbEntity
  8
LAYER3
100
AcDbVertex
100
AcDb2dVertex
 10
171.0346077571773
 20
199.048592320558
 30
0.0
  0
VERTEX
  5
431
330
422
100
AcDbEntity
  8
LAYER3
100
AcDbVertex
100
AcDb2dVertex
 10
171.0381250272655
 20
199.0153472338881
 30
0.0
  0
VERTEX
  5
432
330
422
100
AcDbEntity
  8
LAYER3
100
AcDbVertex
100
AcDb2dVertex
 10
171.0426108728313
 20
198.9830176745619
 30
0.0
  0
VERTEX
  5
433
330
422
100
AcDbEntity
  8
LAYER3
100
AcDbVertex
100
AcDb2dVertex
 10
171.0479878078365
 20
198.9516799365248
 30
0.0
  0
VERTEX
  5
434
330
422
100
AcDbEntity
  8
LAYER3
100
AcDbVertex
100
AcDb2dVertex
 10
171.0541783462429
 20
198.9214484606947
 30
0.0
  0
VERTEX
  5
435
330
422
100
AcDbEntity
  8
LAYER3
100
AcDbVertex
100
AcDb2dVertex
 10
171.0612033496761
 20
198.8919036303725
 30
0.0
  0
VERTEX
  5
436
330
422
100
AcDbEntity
  8
LAYER3
100
AcDbVertex
100
AcDb2dVertex
 10
171.0691063295269
 20
198.8626258288588
 30
0.0
  0
VERTEX
  5
437
330
422
100
AcDbEntity
  8
LAYER3
100
AcDbVertex
100
AcDb2dVertex
 10
171.0778682123089
 20
198.833691350099
 30
0.0
  0
VERTEX
  5
438
330
422
100
AcDbEntity
  8
LAYER3
100
AcDbVertex
100
AcDb2dVertex
 10
171.0874723087215
 20
198.8051001940931
 30
0.0
  0
VERTEX
  5
439
330
422
100
AcDbEntity
  8
LAYER3
100
AcDbVertex
100
AcDb2dVertex
 10
171.0979007373714
 20
198.7768905078139
 30
0.0
  0
VERTEX
  5
43A
330
422
100
AcDbEntity
  8
LAYER3
100
AcDbVertex
100
AcDb2dVertex
 10
171.1091362129115
 20
198.7491004382338
 30
0.0
  0
VERTEX
  5
43B
330
422
100
AcDbEntity
  8
LAYER3
100
AcDbVertex
100
AcDb2dVertex
 10
171.1211620460414
 20
198.7217299853529
 30
0.0
  0
SEQEND
  5
43C
330
422
100
AcDbEntity
  8
LAYER3
  0
ARC
  5
43D
330
2
100
AcDbEntity
  8
LAYER3
100
AcDbCircle
 10
167.9979577453303
 20
200.7691187916667
 30
0.0
 40
3.35000000000417
100
AcDbArc
 50
337.9748830508281
 51
346.0251169491698
  0
POLYLINE
  5
43E
330
2
100
AcDbEntity
  8
LAYER3
100
AcDb2dPolyline
 66
     1
 10
0.0
 20
0.0
 30
0.0
 70
   128
  0
VERTEX
  5
43F
330
43E
100
AcDbEntity
  8
LAYER3
100
AcDbVertex
100
AcDb2dVertex
 10
167.0159064422511
 20
234.372135869142
 30
0.0
  0
VERTEX
  5
440
330
43E
100
AcDbEntity
  8
LAYER3
100
AcDbVertex
100
AcDb2dVertex
 10
167.038211692419
 20
234.3522422229018
 30
0.0
  0
VERTEX
  5
441
330
43E
100
AcDbEntity
  8
LAYER3
100
AcDbVertex
100
AcDb2dVertex
 10
167.0611779580974
 20
234.3329780017104
 30
0.0
  0
VERTEX
  5
442
330
43E
100
AcDbEntity
  8
LAYER3
100
AcDbVertex
100
AcDb2dVertex
 10
167.0847825895213
 20
234.3143432055678
 30
0.0
  0
VERTEX
  5
443
330
43E
100
AcDbEntity
  8
LAYER3
100
AcDbVertex
100
AcDb2dVertex
 10
167.1090041290187
 20
234.2963759814467
 30
0.0
  0
VERTEX
  5
444
330
43E
100
AcDbEntity
  8
LAYER3
100
AcDbVertex
100
AcDb2dVertex
 10
167.133820522871
 20
234.2790954028334
 30
0.0
  0
VERTEX
  5
445
330
43E
100
AcDbEntity
  8
LAYER3
100
AcDbVertex
100
AcDb2dVertex
 10
167.1592097173595
 20
234.2625396167006
 30
0.0
  0
VERTEX
  5
446
330
43E
100
AcDbEntity
  8
LAYER3
100
AcDbVertex
100
AcDb2dVertex
 10
167.1851508508586
 20
234.2467086230482
 30
0.0
  0
VERTEX
  5
447
330
43E
100
AcDbEntity
  8
LAYER3
100
AcDbVertex
100
AcDb2dVertex
 10
167.2119830737972
 20
234.2314879809584
 30
0.0
  0
VERTEX
  5
448
330
43E
100
AcDbEntity
  8
LAYER3
100
AcDbVertex
100
AcDb2dVertex
 10
167.2401194463634
 20
234.2166869555678
 30
0.0
  0
VERTEX
  5
449
330
43E
100
AcDbEntity
  8
LAYER3
100
AcDbVertex
100
AcDb2dVertex
 10
167.2694866548443
 20
234.2024390612807
 30
0.0
  0
VERTEX
  5
44A
330
43E
100
AcDbEntity
  8
LAYER3
100
AcDbVertex
100
AcDb2dVertex
 10
167.3000107894802
 20
234.1888205920424
 30
0.0
  0
VERTEX
  5
44B
330
43E
100
AcDbEntity
  8
LAYER3
100
AcDbVertex
100
AcDb2dVertex
 10
167.3316161523723
 20
234.1759459887709
 30
0.0
  0
VERTEX
  5
44C
330
43E
100
AcDbEntity
  8
LAYER3
100
AcDbVertex
100
AcDb2dVertex
 10
167.3642282377147
 20
234.1639487658705
 30
0.0
  0
VERTEX
  5
44D
330
43E
100
AcDbEntity
  8
LAYER3
100
AcDbVertex
100
AcDb2dVertex
 10
167.397773135748
 20
234.1528861438002
 30
0.0
  0
VERTEX
  5
44E
330
43E
100
AcDbEntity
  8
LAYER3
100
AcDbVertex
100
AcDb2dVertex
 10
167.432175148573
 20
234.1429107104506
 30
0.0
  0
VERTEX
  5
44F
330
43E
100
AcDbEntity
  8
LAYER3
100
AcDbVertex
100
AcDb2dVertex
 10
167.4673621545697
 20
234.134098759767
 30
0.0
  0
VERTEX
  5
450
330
43E
100
AcDbEntity
  8
LAYER3
100
AcDbVertex
100
AcDb2dVertex
 10
167.5032513032818
 20
234.126545659181
 30
0.0
  0
VERTEX
  5
451
330
43E
100
AcDbEntity
  8
LAYER3
100
AcDbVertex
100
AcDb2dVertex
 10
167.5397120605374
 20
234.1202895556655
 30
0.0
  0
VERTEX
  5
452
330
43E
100
AcDbEntity
  8
LAYER3
100
AcDbVertex
100
AcDb2dVertex
 10
167.5766073356533
 20
234.1153304492201
 30
0.0
  0
VERTEX
  5
453
330
43E
100
AcDbEntity
  8
LAYER3
100
AcDbVertex
100
AcDb2dVertex
 10
167.6138000379467
 20
234.1117064868178
 30
0.0
  0
VERTEX
  5
454
330
43E
100
AcDbEntity
  8
LAYER3
100
AcDbVertex
100
AcDb2dVertex
 10
167.651153672781
 20
234.1094176684584
 30
0.0
  0
VERTEX
  5
455
330
43E
100
AcDbEntity
  8
LAYER3
100
AcDbVertex
100
AcDb2dVertex
 10
167.6885305534268
 20
234.1085021411147
 30
0.0
  0
VERTEX
  5
456
330
43E
100
AcDbEntity
  8
LAYER3
100
AcDbVertex
100
AcDb2dVertex
 10
167.7257947812939
 20
234.1089789782729
 30
0.0
  0
VERTEX
  5
457
330
43E
100
AcDbEntity
  8
LAYER3
100
AcDbVertex
100
AcDb2dVertex
 10
167.762808669653
 20
234.110848179933
 30
0.0
  0
SEQEND
  5
458
330
43E
100
AcDbEntity
  8
LAYER3
  0
ARC
  5
459
330
2
100
AcDbEntity
  8
LAYER3
100
AcDbCircle
 10
167.9979577453343
 20
230.7691187916672
 30
0.0
 40
3.349999999998267
100
AcDbArc
 50
85.9748830508227
 51
94.02511694917729
  0
POLYLINE
  5
45A
330
2
100
AcDbEntity
  8
LAYER3
100
AcDb2dPolyline
 66
     1
 10
0.0
 20
0.0
 30
0.0
 70
   128
  0
VERTEX
  5
45B
330
45A
100
AcDbEntity
  8
LAYER3
100
AcDbVertex
100
AcDb2dVertex
 10
168.2331066022778
 20
234.110848179933
 30
0.0
  0
VERTEX
  5
45C
330
45A
100
AcDbEntity
  8
LAYER3
100
AcDbVertex
100
AcDb2dVertex
 10
168.2701204906369
 20
234.1089789782729
 30
0.0
  0
VERTEX
  5
45D
330
45A
100
AcDbEntity
  8
LAYER3
100
AcDbVertex
100
AcDb2dVertex
 10
168.307384718504
 20
234.1085021411147
 30
0.0
  0
VERTEX
  5
45E
330
45A
100
AcDbEntity
  8
LAYER3
100
AcDbVertex
100
AcDb2dVertex
 10
168.3447615991497
 20
234.1094176684584
 30
0.0
  0
VERTEX
  5
45F
330
45A
100
AcDbEntity
  8
LAYER3
100
AcDbVertex
100
AcDb2dVertex
 10
168.382115233984
 20
234.1117064868178
 30
0.0
  0
VERTEX
  5
460
330
45A
100
AcDbEntity
  8
LAYER3
100
AcDbVertex
100
AcDb2dVertex
 10
168.4193079362774
 20
234.1153304492201
 30
0.0
  0
VERTEX
  5
461
330
45A
100
AcDbEntity
  8
LAYER3
100
AcDbVertex
100
AcDb2dVertex
 10
168.4562032113934
 20
234.1202895556655
 30
0.0
  0
VERTEX
  5
462
330
45A
100
AcDbEntity
  8
LAYER3
100
AcDbVertex
100
AcDb2dVertex
 10
168.4926639686489
 20
234.126545659181
 30
0.0
  0
VERTEX
  5
463
330
45A
100
AcDbEntity
  8
LAYER3
100
AcDbVertex
100
AcDb2dVertex
 10
168.5285537134076
 20
234.134098759767
 30
0.0
  0
VERTEX
  5
464
330
45A
100
AcDbEntity
  8
LAYER3
100
AcDbVertex
100
AcDb2dVertex
 10
168.5637401233578
 20
234.1429107104506
 30
0.0
  0
VERTEX
  5
465
330
45A
100
AcDbEntity
  8
LAYER3
100
AcDbVertex
100
AcDb2dVertex
 10
168.5981427322293
 20
234.1528861438002
 30
0.0
  0
VERTEX
  5
466
330
45A
100
AcDbEntity
  8
LAYER3
100
AcDbVertex
100
AcDb2dVertex
 10
168.6316870342159
 20
234.1639487658705
 30
0.0
  0
VERTEX
  5
467
330
45A
100
AcDbEntity
  8
LAYER3
100
AcDbVertex
100
AcDb2dVertex
 10
168.6642997156048
 20
234.1759459887709
 30
0.0
  0
VERTEX
  5
468
330
45A
100
AcDbEntity
  8
LAYER3
100
AcDbVertex
100
AcDb2dVertex
 10
168.6959050784969
 20
234.1888205920424
 30
0.0
  0
VERTEX
  5
469
330
45A
100
AcDbEntity
  8
LAYER3
100
AcDbVertex
100
AcDb2dVertex
 10
168.7264286170864
 20
234.2024390612807
 30
0.0
  0
VERTEX
  5
46A
330
45A
100
AcDbEntity
  8
LAYER3
100
AcDbVertex
100
AcDb2dVertex
 10
168.7557964216137
 20
234.2166869555678
 30
0.0
  0
VERTEX
  5
46B
330
45A
100
AcDbEntity
  8
LAYER3
100
AcDbVertex
100
AcDb2dVertex
 10
168.7839321981335
 20
234.2314879809584
 30
0.0
  0
VERTEX
  5
46C
330
45A
100
AcDbEntity
  8
LAYER3
100
AcDbVertex
100
AcDb2dVertex
 10
168.810764421072
 20
234.2467086230482
 30
0.0
  0
VERTEX
  5
46D
330
45A
100
AcDbEntity
  8
LAYER3
100
AcDbVertex
100
AcDb2dVertex
 10
168.8367055545711
 20
234.2625396167006
 30
0.0
  0
VERTEX
  5
46E
330
45A
100
AcDbEntity
  8
LAYER3
100
AcDbVertex
100
AcDb2dVertex
 10
168.8620953451061
 20
234.2790954028334
 30
0.0
  0
VERTEX
  5
46F
330
45A
100
AcDbEntity
  8
LAYER3
100
AcDbVertex
100
AcDb2dVertex
 10
168.8869117389583
 20
234.2963759814467
 30
0.0
  0
VERTEX
  5
470
330
45A
100
AcDbEntity
  8
LAYER3
100
AcDbVertex
100
AcDb2dVertex
 10
168.9111332784557
 20
234.3143432055678
 30
0.0
  0
VERTEX
  5
471
330
45A
100
AcDbEntity
  8
LAYER3
100
AcDbVertex
100
AcDb2dVertex
 10
168.9347379098796
 20
234.3329780017104
 30
0.0
  0
VERTEX
  5
472
330
45A
100
AcDbEntity
  8
LAYER3
100
AcDbVertex
100
AcDb2dVertex
 10
168.9577035795116
 20
234.3522422229018
 30
0.0
  0
VERTEX
  5
473
330
45A
100
AcDbEntity
  8
LAYER3
100
AcDbVertex
100
AcDb2dVertex
 10
168.9800088296794
 20
234.372135869142
 30
0.0
  0
SEQEND
  5
474
330
45A
100
AcDbEntity
  8
LAYER3
  0
POLYLINE
  5
475
330
2
100
AcDbEntity
  8
LAYER3
100
AcDb2dPolyline
 66
     1
 10
0.0
 20
0.0
 30
0.0
 70
   128
  0
VERTEX
  5
476
330
475
100
AcDbEntity
  8
LAYER3
100
AcDbVertex
100
AcDb2dVertex
 10
168.9800088296794
 20
234.372135869142
 30
0.0
  0
VERTEX
  5
477
330
475
100
AcDbEntity
  8
LAYER3
100
AcDbVertex
100
AcDb2dVertex
 10
169.0826748500727
 20
234.457470646974
 30
0.0
  0
VERTEX
  5
478
330
475
100
AcDbEntity
  8
LAYER3
100
AcDbVertex
100
AcDb2dVertex
 10
169.1945348869227
 20
234.5330397998061
 30
0.0
  0
VERTEX
  5
479
330
475
100
AcDbEntity
  8
LAYER3
100
AcDbVertex
100
AcDb2dVertex
 10
169.3145810256861
 20
234.5976989184584
 30
0.0
  0
VERTEX
  5
47A
330
475
100
AcDbEntity
  8
LAYER3
100
AcDbVertex
100
AcDb2dVertex
 10
169.4424043784998
 20
234.6505515490736
 30
0.0
  0
VERTEX
  5
47B
330
475
100
AcDbEntity
  8
LAYER3
100
AcDbVertex
100
AcDb2dVertex
 10
169.5846007953546
 20
234.6922271167006
 30
0.0
  0
VERTEX
  5
47C
330
475
100
AcDbEntity
  8
LAYER3
100
AcDbVertex
100
AcDb2dVertex
 10
169.738998282995
 20
234.7193114672865
 30
0.0
  0
VERTEX
  5
47D
330
475
100
AcDbEntity
  8
LAYER3
100
AcDbVertex
100
AcDb2dVertex
 10
169.8997406850717
 20
234.7279899035658
 30
0.0
  0
VERTEX
  5
47E
330
475
100
AcDbEntity
  8
LAYER3
100
AcDbVertex
100
AcDb2dVertex
 10
170.0596188197991
 20
234.7179191027846
 30
0.0
  0
VERTEX
  5
47F
330
475
100
AcDbEntity
  8
LAYER3
100
AcDbVertex
100
AcDb2dVertex
 10
170.2188210378548
 20
234.688297978517
 30
0.0
  0
VERTEX
  5
480
330
475
100
AcDbEntity
  8
LAYER3
100
AcDbVertex
100
AcDb2dVertex
 10
170.3834341655632
 20
234.6361701403822
 30
0.0
  0
VERTEX
  5
481
330
475
100
AcDbEntity
  8
LAYER3
100
AcDbVertex
100
AcDb2dVertex
 10
170.5427466522118
 20
234.5616691027846
 30
0.0
  0
VERTEX
  5
482
330
475
100
AcDbEntity
  8
LAYER3
100
AcDbVertex
100
AcDb2dVertex
 10
170.6870751272103
 20
234.4703643237318
 30
0.0
  0
VERTEX
  5
483
330
475
100
AcDbEntity
  8
LAYER3
100
AcDbVertex
100
AcDb2dVertex
 10
170.8185123096367
 20
234.361321202394
 30
0.0
  0
VERTEX
  5
484
330
475
100
AcDbEntity
  8
LAYER3
100
AcDbVertex
100
AcDb2dVertex
 10
170.9385971914192
 20
234.2328231250014
 30
0.0
  0
VERTEX
  5
485
330
475
100
AcDbEntity
  8
LAYER3
100
AcDbVertex
100
AcDb2dVertex
 10
171.0390262494942
 20
234.0923850451674
 30
0.0
  0
VERTEX
  5
486
330
475
100
AcDbEntity
  8
LAYER3
100
AcDbVertex
100
AcDb2dVertex
 10
171.1164103637597
 20
233.9501159106459
 30
0.0
  0
VERTEX
  5
487
330
475
100
AcDbEntity
  8
LAYER3
100
AcDbVertex
100
AcDb2dVertex
 10
171.1753933320901
 20
233.8011901293959
 30
0.0
  0
VERTEX
  5
488
330
475
100
AcDbEntity
  8
LAYER3
100
AcDbVertex
100
AcDb2dVertex
 10
171.2168102155588
 20
233.6456267749037
 30
0.0
  0
VERTEX
  5
489
330
475
100
AcDbEntity
  8
LAYER3
100
AcDbVertex
100
AcDb2dVertex
 10
171.2387608180902
 20
233.4904067431654
 30
0.0
  0
VERTEX
  5
48A
330
475
100
AcDbEntity
  8
LAYER3
100
AcDbVertex
100
AcDb2dVertex
 10
171.2430565248392
 20
233.3423011218275
 30
0.0
  0
VERTEX
  5
48B
330
475
100
AcDbEntity
  8
LAYER3
100
AcDbVertex
100
AcDb2dVertex
 10
171.2323014627359
 20
233.2043998156752
 30
0.0
  0
VERTEX
  5
48C
330
475
100
AcDbEntity
  8
LAYER3
100
AcDbVertex
100
AcDb2dVertex
 10
171.2078885923289
 20
233.0702369128432
 30
0.0
  0
VERTEX
  5
48D
330
475
100
AcDbEntity
  8
LAYER3
100
AcDbVertex
100
AcDb2dVertex
 10
171.1705868135356
 20
232.9404990588393
 30
0.0
  0
VERTEX
  5
48E
330
475
100
AcDbEntity
  8
LAYER3
100
AcDbVertex
100
AcDb2dVertex
 10
171.1211620460414
 20
232.8165023242201
 30
0.0
  0
SEQEND
  5
48F
330
475
100
AcDbEntity
  8
LAYER3
  0
POLYLINE
  5
490
330
2
100
AcDbEntity
  8
LAYER3
100
AcDb2dPolyline
 66
     1
 10
0.0
 20
0.0
 30
0.0
 70
   128
  0
VERTEX
  5
491
330
490
100
AcDbEntity
  8
LAYER3
100
AcDbVertex
100
AcDb2dVertex
 10
171.1211620460414
 20
232.8165023242201
 30
0.0
  0
VERTEX
  5
492
330
490
100
AcDbEntity
  8
LAYER3
100
AcDbVertex
100
AcDb2dVertex
 10
171.1091362129115
 20
232.7891318713393
 30
0.0
  0
VERTEX
  5
493
330
490
100
AcDbEntity
  8
LAYER3
100
AcDbVertex
100
AcDb2dVertex
 10
171.0979007373714
 20
232.7613418017592
 30
0.0
  0
VERTEX
  5
494
330
490
100
AcDbEntity
  8
LAYER3
100
AcDbVertex
100
AcDb2dVertex
 10
171.0874723087215
 20
232.7331321154799
 30
0.0
  0
VERTEX
  5
495
330
490
100
AcDbEntity
  8
LAYER3
100
AcDbVertex
100
AcDb2dVertex
 10
171.0778682123089
 20
232.704540959474
 30
0.0
  0
VERTEX
  5
496
330
490
100
AcDbEntity
  8
LAYER3
100
AcDbVertex
100
AcDb2dVertex
 10
171.0691063295269
 20
232.6756064807143
 30
0.0
  0
VERTEX
  5
497
330
490
100
AcDbEntity
  8
LAYER3
100
AcDbVertex
100
AcDb2dVertex
 10
171.0612033496761
 20
232.6463477526869
 30
0.0
  0
VERTEX
  5
498
330
490
100
AcDbEntity
  8
LAYER3
100
AcDbVertex
100
AcDb2dVertex
 10
171.0541783462429
 20
232.6167838488783
 30
0.0
  0
VERTEX
  5
499
330
490
100
AcDbEntity
  8
LAYER3
100
AcDbVertex
100
AcDb2dVertex
 10
171.0479878078365
 20
232.5865523730482
 30
0.0
  0
VERTEX
  5
49A
330
490
100
AcDbEntity
  8
LAYER3
100
AcDbVertex
100
AcDb2dVertex
 10
171.0426108728313
 20
232.5552337084975
 30
0.0
  0
VERTEX
  5
49B
330
490
100
AcDbEntity
  8
LAYER3
100
AcDbVertex
100
AcDb2dVertex
 10
171.0381250272655
 20
232.522885075685
 30
0.0
  0
VERTEX
  5
49C
330
490
100
AcDbEntity
  8
LAYER3
100
AcDbVertex
100
AcDb2dVertex
 10
171.0346077571773
 20
232.4896590625014
 30
0.0
  0
VERTEX
  5
49D
330
490
100
AcDbEntity
  8
LAYER3
100
AcDbVertex
100
AcDb2dVertex
 10
171.0321377406978
 20
232.4556128894057
 30
0.0
  0
VERTEX
  5
49E
330
490
100
AcDbEntity
  8
LAYER3
100
AcDbVertex
100
AcDb2dVertex
 10
171.0307912717724
 20
232.4208800708022
 30
0.0
  0
VERTEX
  5
49F
330
490
100
AcDbEntity
  8
LAYER3
100
AcDbVertex
100
AcDb2dVertex
 10
171.0306476245785
 20
232.3855750476088
 30
0.0
  0
VERTEX
  5
4A0
330
490
100
AcDbEntity
  8
LAYER3
100
AcDbVertex
100
AcDb2dVertex
 10
171.0317836891079
 20
232.3497741137709
 30
0.0
  0
VERTEX
  5
4A1
330
490
100
AcDbEntity
  8
LAYER3
100
AcDbVertex
100
AcDb2dVertex
 10
171.0342793355847
 20
232.3135726367201
 30
0.0
  0
VERTEX
  5
4A2
330
490
100
AcDbEntity
  8
LAYER3
100
AcDbVertex
100
AcDb2dVertex
 10
171.0381905923748
 20
232.2771232043471
 30
0.0
  0
VERTEX
  5
4A3
330
490
100
AcDbEntity
  8
LAYER3
100
AcDbVertex
100
AcDb2dVertex
 10
171.0435007701779
 20
232.2405021105971
 30
0.0
  0
VERTEX
  5
4A4
330
490
100
AcDbEntity
  8
LAYER3
100
AcDbVertex
100
AcDb2dVertex
 10
171.0501878152752
 20
232.2038810168471
 30
0.0
  0
VERTEX
  5
4A5
330
490
100
AcDbEntity
  8
LAYER3
100
AcDbVertex
100
AcDb2dVertex
 10
171.0582290779019
 20
232.1673934375014
 30
0.0
  0
VERTEX
  5
4A6
330
490
100
AcDbEntity
  8
LAYER3
100
AcDbVertex
100
AcDb2dVertex
 10
171.0676007161999
 20
232.1311538134779
 30
0.0
  0
VERTEX
  5
4A7
330
490
100
AcDbEntity
  8
LAYER3
100
AcDbVertex
100
AcDb2dVertex
 10
171.0782806764508
 20
232.0953338061537
 30
0.0
  0
VERTEX
  5
4A8
330
490
100
AcDbEntity
  8
LAYER3
100
AcDbVertex
100
AcDb2dVertex
 10
171.090245712843
 20
232.0600287829603
 30
0.0
  0
VERTEX
  5
4A9
330
490
100
AcDbEntity
  8
LAYER3
100
AcDbVertex
100
AcDb2dVertex
 10
171.1034731756115
 20
232.0254104052748
 30
0.0
  0
SEQEND
  5
4AA
330
490
100
AcDbEntity
  8
LAYER3
  0
ARC
  5
4AB
330
2
100
AcDbEntity
  8
LAYER3
100
AcDbCircle
 10
167.997957745335
 20
230.7691187916657
 30
0.0
 40
3.349999999999319
100
AcDbArc
 50
13.97488305082516
 51
22.02511694917544
  0
POLYLINE
  5
4AC
330
2
100
AcDbEntity
  8
LAYER3
100
AcDb2dPolyline
 66
     1
 10
0.0
 20
0.0
 30
0.0
 70
   128
  0
VERTEX
  5
4AD
330
4AC
100
AcDbEntity
  8
LAYER3
100
AcDbVertex
100
AcDb2dVertex
 10
171.2488036046887
 20
231.5781371508803
 30
0.0
  0
VERTEX
  5
4AE
330
4AC
100
AcDbEntity
  8
LAYER3
100
AcDbVertex
100
AcDb2dVertex
 10
171.2584518085385
 20
231.5423552905287
 30
0.0
  0
VERTEX
  5
4AF
330
4AC
100
AcDbEntity
  8
LAYER3
100
AcDbVertex
100
AcDb2dVertex
 10
171.269517410841
 20
231.5067641650404
 30
0.0
  0
VERTEX
  5
4B0
330
4AC
100
AcDbEntity
  8
LAYER3
100
AcDbVertex
100
AcDb2dVertex
 10
171.2819378267193
 20
231.4714972888197
 30
0.0
  0
VERTEX
  5
4B1
330
4AC
100
AcDbEntity
  8
LAYER3
100
AcDbVertex
100
AcDb2dVertex
 10
171.2956516633892
 20
231.4366691027846
 30
0.0
  0
VERTEX
  5
4B2
330
4AC
100
AcDbEntity
  8
LAYER3
100
AcDbVertex
100
AcDb2dVertex
 10
171.3105969320202
 20
231.4024321948256
 30
0.0
  0
VERTEX
  5
4B3
330
4AC
100
AcDbEntity
  8
LAYER3
100
AcDbVertex
100
AcDb2dVertex
 10
171.3267122398282
 20
231.3688628588881
 30
0.0
  0
VERTEX
  5
4B4
330
4AC
100
AcDbEntity
  8
LAYER3
100
AcDbVertex
100
AcDb2dVertex
 10
171.3439355979824
 20
231.336132756349
 30
0.0
  0
VERTEX
  5
4B5
330
4AC
100
AcDbEntity
  8
LAYER3
100
AcDbVertex
100
AcDb2dVertex
 10
171.362205613699
 20
231.30433725464
 30
0.0
  0
VERTEX
  5
4B6
330
4AC
100
AcDbEntity
  8
LAYER3
100
AcDbVertex
100
AcDb2dVertex
 10
171.3814567218685
 20
231.2735907946791
 30
0.0
  0
VERTEX
  5
4B7
330
4AC
100
AcDbEntity
  8
LAYER3
100
AcDbVertex
100
AcDb2dVertex
 10
171.401582230177
 20
231.2439505969252
 30
0.0
  0
VERTEX
  5
4B8
330
4AC
100
AcDbEntity
  8
LAYER3
100
AcDbVertex
100
AcDb2dVertex
 10
171.4224575649166
 20
231.215454808351
 30
0.0
  0
VERTEX
  5
4B9
330
4AC
100
AcDbEntity
  8
LAYER3
100
AcDbVertex
100
AcDb2dVertex
 10
171.4439593444729
 20
231.1881606494154
 30
0.0
  0
VERTEX
  5
4BA
330
4AC
100
AcDbEntity
  8
LAYER3
100
AcDbVertex
100
AcDb2dVertex
 10
171.4659629951381
 20
231.1620681201186
 30
0.0
  0
VERTEX
  5
4BB
330
4AC
100
AcDbEntity
  8
LAYER3
100
AcDbVertex
100
AcDb2dVertex
 10
171.4883451352978
 20
231.1372535144057
 30
0.0
  0
VERTEX
  5
4BC
330
4AC
100
AcDbEntity
  8
LAYER3
100
AcDbVertex
100
AcDb2dVertex
 10
171.5109811912441
 20
231.1137359057631
 30
0.0
  0
VERTEX
  5
4BD
330
4AC
100
AcDbEntity
  8
LAYER3
100
AcDbVertex
100
AcDb2dVertex
 10
171.5337465892696
 20
231.0915343676771
 30
0.0
  0
VERTEX
  5
4BE
330
4AC
100
AcDbEntity
  8
LAYER3
100
AcDbVertex
100
AcDb2dVertex
 10
171.5565203319454
 20
231.0707251940932
 30
0.0
  0
VERTEX
  5
4BF
330
4AC
100
AcDbEntity
  8
LAYER3
100
AcDbVertex
100
AcDb2dVertex
 10
171.5795777927303
 20
231.0509459887709
 30
0.0
  0
VERTEX
  5
4C0
330
4AC
100
AcDbEntity
  8
LAYER3
100
AcDbVertex
100
AcDb2dVertex
 10
171.6031728874111
 20
231.0319106494155
 30
0.0
  0
VERTEX
  5
4C1
330
4AC
100
AcDbEntity
  8
LAYER3
100
AcDbVertex
100
AcDb2dVertex
 10
171.6272722373867
 20
231.0136573229994
 30
0.0
  0
VERTEX
  5
4C2
330
4AC
100
AcDbEntity
  8
LAYER3
100
AcDbVertex
100
AcDb2dVertex
 10
171.6518448482418
 20
230.9961669360365
 30
0.0
  0
VERTEX
  5
4C3
330
4AC
100
AcDbEntity
  8
LAYER3
100
AcDbVertex
100
AcDb2dVertex
 10
171.6768621097469
 20
230.9794776354994
 30
0.0
  0
VERTEX
  5
4C4
330
4AC
100
AcDbEntity
  8
LAYER3
100
AcDbVertex
100
AcDb2dVertex
 10
171.7022918353938
 20
230.9635894213881
 30
0.0
  0
VERTEX
  5
4C5
330
4AC
100
AcDbEntity
  8
LAYER3
100
AcDbVertex
100
AcDb2dVertex
 10
171.7281030307674
 20
230.9485213671889
 30
0.0
  0
SEQEND
  5
4C6
330
4AC
100
AcDbEntity
  8
LAYER3
  0
POLYLINE
  5
4C7
330
2
100
AcDbEntity
  8
LAYER3
100
AcDb2dPolyline
 66
     1
 10
0.0
 20
0.0
 30
0.0
 70
   128
  0
VERTEX
  5
4C8
330
4C7
100
AcDbEntity
  8
LAYER3
100
AcDbVertex
100
AcDb2dVertex
 10
171.7281030307674
 20
230.9485213671889
 30
0.0
  0
VERTEX
  5
4C9
330
4C7
100
AcDbEntity
  8
LAYER3
100
AcDbVertex
100
AcDb2dVertex
 10
171.8409787307642
 20
230.8772437487807
 30
0.0
  0
VERTEX
  5
4CA
330
4C7
100
AcDbEntity
  8
LAYER3
100
AcDbVertex
100
AcDb2dVertex
 10
171.9474135528468
 20
230.7942168627943
 30
0.0
  0
VERTEX
  5
4CB
330
4C7
100
AcDbEntity
  8
LAYER3
100
AcDbVertex
100
AcDb2dVertex
 10
172.0460199008844
 20
230.7000319873061
 30
0.0
  0
VERTEX
  5
4CC
330
4C7
100
AcDbEntity
  8
LAYER3
100
AcDbVertex
100
AcDb2dVertex
 10
172.1357737670801
 20
230.5948035632338
 30
0.0
  0
VERTEX
  5
4CD
330
4C7
100
AcDbEntity
  8
LAYER3
100
AcDbVertex
100
AcDb2dVertex
 10
172.2193597446344
 20
230.4724471484389
 30
0.0
  0
VERTEX
  5
4CE
330
4C7
100
AcDbEntity
  8
LAYER3
100
AcDbVertex
100
AcDb2dVertex
 10
172.2928331981561
 20
230.3339736376967
 30
0.0
  0
VERTEX
  5
4CF
330
4C7
100
AcDbEntity
  8
LAYER3
100
AcDbVertex
100
AcDb2dVertex
 10
172.3507593761346
 20
230.1837699328627
 30
0.0
  0
VERTEX
  5
4D0
330
4C7
100
AcDbEntity
  8
LAYER3
100
AcDbVertex
100
AcDb2dVertex
 10
172.3905871997735
 20
230.0286071215834
 30
0.0
  0
VERTEX
  5
4D1
330
4C7
100
AcDbEntity
  8
LAYER3
100
AcDbVertex
100
AcDb2dVertex
 10
172.411595452871
 20
229.8680465136733
 30
0.0
  0
VERTEX
  5
4D2
330
4C7
100
AcDbEntity
  8
LAYER3
100
AcDbVertex
100
AcDb2dVertex
 10
172.4129031787773
 20
229.6953742419447
 30
0.0
  0
VERTEX
  5
4D3
330
4C7
100
AcDbEntity
  8
LAYER3
100
AcDbVertex
100
AcDb2dVertex
 10
172.3912786136528
 20
229.5208518420424
 30
0.0
  0
VERTEX
  5
4D4
330
4C7
100
AcDbEntity
  8
LAYER3
100
AcDbVertex
100
AcDb2dVertex
 10
172.3490415702721
 20
229.3553702746596
 30
0.0
  0
VERTEX
  5
4D5
330
4C7
100
AcDbEntity
  8
LAYER3
100
AcDbVertex
100
AcDb2dVertex
 10
172.2859452854057
 20
229.1966597949233
 30
0.0
  0
VERTEX
  5
4D6
330
4C7
100
AcDbEntity
  8
LAYER3
100
AcDbVertex
100
AcDb2dVertex
 10
172.2008489261528
 20
229.0427558337416
 30
0.0
  0
VERTEX
  5
4D7
330
4C7
100
AcDbEntity
  8
LAYER3
100
AcDbVertex
100
AcDb2dVertex
 10
172.0983050952813
 20
228.9038245593276
 30
0.0
  0
VERTEX
  5
4D8
330
4C7
100
AcDbEntity
  8
LAYER3
100
AcDbVertex
100
AcDb2dVertex
 10
171.986927856054
 20
228.7862746630873
 30
0.0
  0
VERTEX
  5
4D9
330
4C7
100
AcDbEntity
  8
LAYER3
100
AcDbVertex
100
AcDb2dVertex
 10
171.8635033260247
 20
228.6841552172865
 30
0.0
  0
VERTEX
  5
4DA
330
4C7
100
AcDbEntity
  8
LAYER3
100
AcDbVertex
100
AcDb2dVertex
 10
171.7283593307397
 20
228.5967032824721
 30
0.0
  0
VERTEX
  5
4DB
330
4C7
100
AcDbEntity
  8
LAYER3
100
AcDbVertex
100
AcDb2dVertex
 10
171.5875278602502
 20
228.5278670703139
 30
0.0
  0
VERTEX
  5
4DC
330
4C7
100
AcDbEntity
  8
LAYER3
100
AcDbVertex
100
AcDb2dVertex
 10
171.4479856382273
 20
228.4780089770522
 30
0.0
  0
VERTEX
  5
4DD
330
4C7
100
AcDbEntity
  8
LAYER3
100
AcDbVertex
100
AcDb2dVertex
 10
171.3135151754282
 20
228.445622197267
 30
0.0
  0
VERTEX
  5
4DE
330
4C7
100
AcDbEntity
  8
LAYER3
100
AcDbVertex
100
AcDb2dVertex
 10
171.1783807168864
 20
228.4273879443373
 30
0.0
  0
VERTEX
  5
4DF
330
4C7
100
AcDbEntity
  8
LAYER3
100
AcDbVertex
100
AcDb2dVertex
 10
171.0434667955302
 20
228.4227721606459
 30
0.0
  0
VERTEX
  5
4E0
330
4C7
100
AcDbEntity
  8
LAYER3
100
AcDbVertex
100
AcDb2dVertex
 10
170.9102551828288
 20
228.4314505969252
 30
0.0
  0
SEQEND
  5
4E1
330
4C7
100
AcDbEntity
  8
LAYER3
  0
POLYLINE
  5
4E2
330
2
100
AcDbEntity
  8
LAYER3
100
AcDb2dPolyline
 66
     1
 10
0.0
 20
0.0
 30
0.0
 70
   128
  0
VERTEX
  5
4E3
330
4E2
100
AcDbEntity
  8
LAYER3
100
AcDbVertex
100
AcDb2dVertex
 10
170.9102551828288
 20
228.4314505969252
 30
0.0
  0
VERTEX
  5
4E4
330
4E2
100
AcDbEntity
  8
LAYER3
100
AcDbVertex
100
AcDb2dVertex
 10
170.8805178295039
 20
228.4344260607924
 30
0.0
  0
VERTEX
  5
4E5
330
4E2
100
AcDbEntity
  8
LAYER3
100
AcDbVertex
100
AcDb2dVertex
 10
170.8506076227092
 20
228.4365241442885
 30
0.0
  0
VERTEX
  5
4E6
330
4E2
100
AcDbEntity
  8
LAYER3
100
AcDbVertex
100
AcDb2dVertex
 10
170.8205579410457
 20
228.4377257739272
 30
0.0
  0
VERTEX
  5
4E7
330
4E2
100
AcDbEntity
  8
LAYER3
100
AcDbVertex
100
AcDb2dVertex
 10
170.7904009710216
 20
228.4380309497084
 30
0.0
  0
VERTEX
  5
4E8
330
4E2
100
AcDbEntity
  8
LAYER3
100
AcDbVertex
100
AcDb2dVertex
 10
170.7601694951915
 20
228.4374205981459
 30
0.0
  0
VERTEX
  5
4E9
330
4E2
100
AcDbEntity
  8
LAYER3
100
AcDbVertex
100
AcDb2dVertex
 10
170.7298957000637
 20
228.4358947192397
 30
0.0
  0
VERTEX
  5
4EA
330
4E2
100
AcDbEntity
  8
LAYER3
100
AcDbVertex
100
AcDb2dVertex
 10
170.6996129642391
 20
228.4334342395033
 30
0.0
  0
VERTEX
  5
4EB
330
4E2
100
AcDbEntity
  8
LAYER3
100
AcDbVertex
100
AcDb2dVertex
 10
170.6689547191524
 20
228.4299819384779
 30
0.0
  0
VERTEX
  5
4EC
330
4E2
100
AcDbEntity
  8
LAYER3
100
AcDbVertex
100
AcDb2dVertex
 10
170.63749538764
 20
228.4254233752455
 30
0.0
  0
VERTEX
  5
4ED
330
4E2
100
AcDbEntity
  8
LAYER3
100
AcDbVertex
100
AcDb2dVertex
 10
170.6053553710842
 20
228.4197013293471
 30
0.0
  0
VERTEX
  5
4EE
330
4E2
100
AcDbEntity
  8
LAYER3
100
AcDbVertex
100
AcDb2dVertex
 10
170.5726580510997
 20
228.4127585803236
 30
0.0
  0
VERTEX
  5
4EF
330
4E2
100
AcDbEntity
  8
LAYER3
100
AcDbVertex
100
AcDb2dVertex
 10
170.5395256172085
 20
228.4045951281752
 30
0.0
  0
VERTEX
  5
4F0
330
4E2
100
AcDbEntity
  8
LAYER3
100
AcDbVertex
100
AcDb2dVertex
 10
170.506081451025
 20
228.3951537524428
 30
0.0
  0
VERTEX
  5
4F1
330
4E2
100
AcDbEntity
  8
LAYER3
100
AcDbVertex
100
AcDb2dVertex
 10
170.4724477420712
 20
228.3843772326674
 30
0.0
  0
VERTEX
  5
4F2
330
4E2
100
AcDbEntity
  8
LAYER3
100
AcDbVertex
100
AcDb2dVertex
 10
170.4387478719616
 20
228.3722274218764
 30
0.0
  0
VERTEX
  5
4F3
330
4E2
100
AcDbEntity
  8
LAYER3
100
AcDbVertex
100
AcDb2dVertex
 10
170.4051034341717
 20
228.3586661730971
 30
0.0
  0
VERTEX
  5
4F4
330
4E2
100
AcDbEntity
  8
LAYER3
100
AcDbVertex
100
AcDb2dVertex
 10
170.3716312538052
 20
228.3436744128432
 30
0.0
  0
VERTEX
  5
4F5
330
4E2
100
AcDbEntity
  8
LAYER3
100
AcDbVertex
100
AcDb2dVertex
 10
170.338452328291
 20
228.3273093615736
 30
0.0
  0
VERTEX
  5
4F6
330
4E2
100
AcDbEntity
  8
LAYER3
100
AcDbVertex
100
AcDb2dVertex
 10
170.3056900392437
 20
228.3096473132338
 30
0.0
  0
VERTEX
  5
4F7
330
4E2
100
AcDbEntity
  8
LAYER3
100
AcDbVertex
100
AcDb2dVertex
 10
170.2734665761853
 20
228.29070734131
 30
0.0
  0
VERTEX
  5
4F8
330
4E2
100
AcDbEntity
  8
LAYER3
100
AcDbVertex
100
AcDb2dVertex
 10
170.2419053207302
 20
228.2706038867201
 30
0.0
  0
VERTEX
  5
4F9
330
4E2
100
AcDbEntity
  8
LAYER3
100
AcDbVertex
100
AcDb2dVertex
 10
170.2111290584469
 20
228.2493750964369
 30
0.0
  0
VERTEX
  5
4FA
330
4E2
100
AcDbEntity
  8
LAYER3
100
AcDbVertex
100
AcDb2dVertex
 10
170.1812599788571
 20
228.2270972644057
 30
0.0
  0
VERTEX
  5
4FB
330
4E2
100
AcDbEntity
  8
LAYER3
100
AcDbVertex
100
AcDb2dVertex
 10
170.1524208675289
 20
228.203808537599
 30
0.0
  0
SEQEND
  5
4FC
330
4E2
100
AcDbEntity
  8
LAYER3
  0
POLYLINE
  5
4FD
330
2
100
AcDbEntity
  8
LAYER3
100
AcDb2dPolyline
 66
     1
 10
0.0
 20
0.0
 30
0.0
 70
   128
  0
VERTEX
  5
4FE
330
4FD
100
AcDbEntity
  8
LAYER3
100
AcDbVertex
100
AcDb2dVertex
 10
164.8747535239124
 20
232.8165023242201
 30
0.0
  0
VERTEX
  5
4FF
330
4FD
100
AcDbEntity
  8
LAYER3
100
AcDbVertex
100
AcDb2dVertex
 10
164.8253290544413
 20
232.9404990588393
 30
0.0
  0
VERTEX
  5
500
330
4FD
100
AcDbEntity
  8
LAYER3
100
AcDbVertex
100
AcDb2dVertex
 10
164.788027275648
 20
233.0702369128432
 30
0.0
  0
VERTEX
  5
501
330
4FD
100
AcDbEntity
  8
LAYER3
100
AcDbVertex
100
AcDb2dVertex
 10
164.7636138091944
 20
233.2043998156752
 30
0.0
  0
VERTEX
  5
502
330
4FD
100
AcDbEntity
  8
LAYER3
100
AcDbVertex
100
AcDb2dVertex
 10
164.7528590451143
 20
233.3423011218275
 30
0.0
  0
VERTEX
  5
503
330
4FD
100
AcDbEntity
  8
LAYER3
100
AcDbVertex
100
AcDb2dVertex
 10
164.75715445384
 20
233.4904067431654
 30
0.0
  0
VERTEX
  5
504
330
4FD
100
AcDbEntity
  8
LAYER3
100
AcDbVertex
100
AcDb2dVertex
 10
164.7791050563714
 20
233.6456267749037
 30
0.0
  0
VERTEX
  5
505
330
4FD
100
AcDbEntity
  8
LAYER3
100
AcDbVertex
100
AcDb2dVertex
 10
164.8205219398401
 20
233.8011901293959
 30
0.0
  0
VERTEX
  5
506
330
4FD
100
AcDbEntity
  8
LAYER3
100
AcDbVertex
100
AcDb2dVertex
 10
164.8795052061936
 20
233.9501159106459
 30
0.0
  0
VERTEX
  5
507
330
4FD
100
AcDbEntity
  8
LAYER3
100
AcDbVertex
100
AcDb2dVertex
 10
164.9568893204591
 20
234.0923850451674
 30
0.0
  0
VERTEX
  5
508
330
4FD
100
AcDbEntity
  8
LAYER3
100
AcDbVertex
100
AcDb2dVertex
 10
165.0573180805108
 20
234.2328231250014
 30
0.0
  0
VERTEX
  5
509
330
4FD
100
AcDbEntity
  8
LAYER3
100
AcDbVertex
100
AcDb2dVertex
 10
165.1774032603165
 20
234.361321202394
 30
0.0
  0
VERTEX
  5
50A
330
4FD
100
AcDbEntity
  8
LAYER3
100
AcDbVertex
100
AcDb2dVertex
 10
165.3088401447197
 20
234.4703643237318
 30
0.0
  0
VERTEX
  5
50B
330
4FD
100
AcDbEntity
  8
LAYER3
100
AcDbVertex
100
AcDb2dVertex
 10
165.4531689177414
 20
234.5616691027846
 30
0.0
  0
VERTEX
  5
50C
330
4FD
100
AcDbEntity
  8
LAYER3
100
AcDbVertex
100
AcDb2dVertex
 10
165.61248140439
 20
234.6361701403822
 30
0.0
  0
VERTEX
  5
50D
330
4FD
100
AcDbEntity
  8
LAYER3
100
AcDbVertex
100
AcDb2dVertex
 10
165.7770942340752
 20
234.688297978517
 30
0.0
  0
VERTEX
  5
50E
330
4FD
100
AcDbEntity
  8
LAYER3
100
AcDbVertex
100
AcDb2dVertex
 10
165.9362967501542
 20
234.7179191027846
 30
0.0
  0
VERTEX
  5
50F
330
4FD
100
AcDbEntity
  8
LAYER3
100
AcDbVertex
100
AcDb2dVertex
 10
166.0961748848817
 20
234.7279899035658
 30
0.0
  0
VERTEX
  5
510
330
4FD
100
AcDbEntity
  8
LAYER3
100
AcDbVertex
100
AcDb2dVertex
 10
166.2569169889352
 20
234.7193114672865
 30
0.0
  0
VERTEX
  5
511
330
4FD
100
AcDbEntity
  8
LAYER3
100
AcDbVertex
100
AcDb2dVertex
 10
166.4113144765756
 20
234.6922271167006
 30
0.0
  0
VERTEX
  5
512
330
4FD
100
AcDbEntity
  8
LAYER3
100
AcDbVertex
100
AcDb2dVertex
 10
166.5535108934305
 20
234.6505515490736
 30
0.0
  0
VERTEX
  5
513
330
4FD
100
AcDbEntity
  8
LAYER3
100
AcDbVertex
100
AcDb2dVertex
 10
166.6813348422907
 20
234.5976989184584
 30
0.0
  0
VERTEX
  5
514
330
4FD
100
AcDbEntity
  8
LAYER3
100
AcDbVertex
100
AcDb2dVertex
 10
166.8013809810541
 20
234.5330397998061
 30
0.0
  0
VERTEX
  5
515
330
4FD
100
AcDbEntity
  8
LAYER3
100
AcDbVertex
100
AcDb2dVertex
 10
166.9132410179041
 20
234.457470646974
 30
0.0
  0
VERTEX
  5
516
330
4FD
100
AcDbEntity
  8
LAYER3
100
AcDbVertex
100
AcDb2dVertex
 10
167.0159064422511
 20
234.372135869142
 30
0.0
  0
SEQEND
  5
517
330
4FD
100
AcDbEntity
  8
LAYER3
  0
POLYLINE
  5
518
330
2
100
AcDbEntity
  8
LAYER3
100
AcDb2dPolyline
 66
     1
 10
0.0
 20
0.0
 30
0.0
 70
   128
  0
VERTEX
  5
519
330
518
100
AcDbEntity
  8
LAYER3
100
AcDbVertex
100
AcDb2dVertex
 10
164.8924423943425
 20
232.0254104052748
 30
0.0
  0
VERTEX
  5
51A
330
518
100
AcDbEntity
  8
LAYER3
100
AcDbVertex
100
AcDb2dVertex
 10
164.9056695590878
 20
232.0600287829603
 30
0.0
  0
VERTEX
  5
51B
330
518
100
AcDbEntity
  8
LAYER3
100
AcDbVertex
100
AcDb2dVertex
 10
164.91763459548
 20
232.0953338061537
 30
0.0
  0
VERTEX
  5
51C
330
518
100
AcDbEntity
  8
LAYER3
100
AcDbVertex
100
AcDb2dVertex
 10
164.9283145557309
 20
232.1311538134779
 30
0.0
  0
VERTEX
  5
51D
330
518
100
AcDbEntity
  8
LAYER3
100
AcDbVertex
100
AcDb2dVertex
 10
164.9376864920521
 20
232.1673934375014
 30
0.0
  0
VERTEX
  5
51E
330
518
100
AcDbEntity
  8
LAYER3
100
AcDbVertex
100
AcDb2dVertex
 10
164.9457274566555
 20
232.2038810168471
 30
0.0
  0
VERTEX
  5
51F
330
518
100
AcDbEntity
  8
LAYER3
100
AcDbVertex
100
AcDb2dVertex
 10
164.9524145017529
 20
232.2405021105971
 30
0.0
  0
VERTEX
  5
520
330
518
100
AcDbEntity
  8
LAYER3
100
AcDbVertex
100
AcDb2dVertex
 10
164.9577249775792
 20
232.2771232043471
 30
0.0
  0
VERTEX
  5
521
330
518
100
AcDbEntity
  8
LAYER3
100
AcDbVertex
100
AcDb2dVertex
 10
164.9616359363461
 20
232.3135726367201
 30
0.0
  0
VERTEX
  5
522
330
518
100
AcDbEntity
  8
LAYER3
100
AcDbVertex
100
AcDb2dVertex
 10
164.9641318808461
 20
232.3497741137709
 30
0.0
  0
VERTEX
  5
523
330
518
100
AcDbEntity
  8
LAYER3
100
AcDbVertex
100
AcDb2dVertex
 10
164.9652679453755
 20
232.3855750476088
 30
0.0
  0
VERTEX
  5
524
330
518
100
AcDbEntity
  8
LAYER3
100
AcDbVertex
100
AcDb2dVertex
 10
164.9651240001583
 20
232.4208800708022
 30
0.0
  0
VERTEX
  5
525
330
518
100
AcDbEntity
  8
LAYER3
100
AcDbVertex
100
AcDb2dVertex
 10
164.963777829256
 20
232.4556128894057
 30
0.0
  0
VERTEX
  5
526
330
518
100
AcDbEntity
  8
LAYER3
100
AcDbVertex
100
AcDb2dVertex
 10
164.9613075147533
 20
232.4896590625014
 30
0.0
  0
VERTEX
  5
527
330
518
100
AcDbEntity
  8
LAYER3
100
AcDbVertex
100
AcDb2dVertex
 10
164.9577905426883
 20
232.522885075685
 30
0.0
  0
VERTEX
  5
528
330
518
100
AcDbEntity
  8
LAYER3
100
AcDbVertex
100
AcDb2dVertex
 10
164.9533046971225
 20
232.5552337084975
 30
0.0
  0
VERTEX
  5
529
330
518
100
AcDbEntity
  8
LAYER3
100
AcDbVertex
100
AcDb2dVertex
 10
164.9479277621174
 20
232.5865523730482
 30
0.0
  0
VERTEX
  5
52A
330
518
100
AcDbEntity
  8
LAYER3
100
AcDbVertex
100
AcDb2dVertex
 10
164.9417375217342
 20
232.6167838488783
 30
0.0
  0
VERTEX
  5
52B
330
518
100
AcDbEntity
  8
LAYER3
100
AcDbVertex
100
AcDb2dVertex
 10
164.9347119222545
 20
232.6463477526869
 30
0.0
  0
VERTEX
  5
52C
330
518
100
AcDbEntity
  8
LAYER3
100
AcDbVertex
100
AcDb2dVertex
 10
164.9268095384502
 20
232.6756064807143
 30
0.0
  0
VERTEX
  5
52D
330
518
100
AcDbEntity
  8
LAYER3
100
AcDbVertex
100
AcDb2dVertex
 10
164.918047357645
 20
232.704540959474
 30
0.0
  0
VERTEX
  5
52E
330
518
100
AcDbEntity
  8
LAYER3
100
AcDbVertex
100
AcDb2dVertex
 10
164.9084435592556
 20
232.7331321154799
 30
0.0
  0
VERTEX
  5
52F
330
518
100
AcDbEntity
  8
LAYER3
100
AcDbVertex
100
AcDb2dVertex
 10
164.8980148325824
 20
232.7613418017592
 30
0.0
  0
VERTEX
  5
530
330
518
100
AcDbEntity
  8
LAYER3
100
AcDbVertex
100
AcDb2dVertex
 10
164.886779059019
 20
232.7891318713393
 30
0.0
  0
VERTEX
  5
531
330
518
100
AcDbEntity
  8
LAYER3
100
AcDbVertex
100
AcDb2dVertex
 10
164.8747535239124
 20
232.8165023242201
 30
0.0
  0
SEQEND
  5
532
330
518
100
AcDbEntity
  8
LAYER3
  0
ARC
  5
533
330
2
100
AcDbEntity
  8
LAYER3
100
AcDbCircle
 10
167.9979577453337
 20
230.7691187916656
 30
0.0
 40
3.349999999999479
100
AcDbArc
 50
157.9748830508228
 51
166.0251169491765
  0
POLYLINE
  5
534
330
2
100
AcDbEntity
  8
LAYER3
100
AcDb2dPolyline
 66
     1
 10
0.0
 20
0.0
 30
0.0
 70
   128
  0
VERTEX
  5
535
330
534
100
AcDbEntity
  8
LAYER3
100
AcDbVertex
100
AcDb2dVertex
 10
164.2678125391864
 20
230.9485213671889
 30
0.0
  0
VERTEX
  5
536
330
534
100
AcDbEntity
  8
LAYER3
100
AcDbVertex
100
AcDb2dVertex
 10
164.2936234365367
 20
230.9635894213881
 30
0.0
  0
VERTEX
  5
537
330
534
100
AcDbEntity
  8
LAYER3
100
AcDbVertex
100
AcDb2dVertex
 10
164.3190531621837
 20
230.9794776354994
 30
0.0
  0
VERTEX
  5
538
330
534
100
AcDbEntity
  8
LAYER3
100
AcDbVertex
100
AcDb2dVertex
 10
164.3440701256656
 20
230.9961669360365
 30
0.0
  0
VERTEX
  5
539
330
534
100
AcDbEntity
  8
LAYER3
100
AcDbVertex
100
AcDb2dVertex
 10
164.3686436305904
 20
231.0136573229994
 30
0.0
  0
VERTEX
  5
53A
330
534
100
AcDbEntity
  8
LAYER3
100
AcDbVertex
100
AcDb2dVertex
 10
164.392742980566
 20
231.0319106494155
 30
0.0
  0
VERTEX
  5
53B
330
534
100
AcDbEntity
  8
LAYER3
100
AcDbVertex
100
AcDb2dVertex
 10
164.4163371811771
 20
231.0509459887709
 30
0.0
  0
VERTEX
  5
53C
330
534
100
AcDbEntity
  8
LAYER3
100
AcDbVertex
100
AcDb2dVertex
 10
164.4393949399852
 20
231.0707251940932
 30
0.0
  0
VERTEX
  5
53D
330
534
100
AcDbEntity
  8
LAYER3
100
AcDbVertex
100
AcDb2dVertex
 10
164.462168682661
 20
231.0915343676771
 30
0.0
  0
VERTEX
  5
53E
330
534
100
AcDbEntity
  8
LAYER3
100
AcDbVertex
100
AcDb2dVertex
 10
164.484934676733
 20
231.1137359057631
 30
0.0
  0
VERTEX
  5
53F
330
534
100
AcDbEntity
  8
LAYER3
100
AcDbVertex
100
AcDb2dVertex
 10
164.5075707326793
 20
231.1372535144057
 30
0.0
  0
VERTEX
  5
540
330
534
100
AcDbEntity
  8
LAYER3
100
AcDbVertex
100
AcDb2dVertex
 10
164.5299522767925
 20
231.1620681201186
 30
0.0
  0
VERTEX
  5
541
330
534
100
AcDbEntity
  8
LAYER3
100
AcDbVertex
100
AcDb2dVertex
 10
164.5519559274578
 20
231.1881606494154
 30
0.0
  0
VERTEX
  5
542
330
534
100
AcDbEntity
  8
LAYER3
100
AcDbVertex
100
AcDb2dVertex
 10
164.5734577070141
 20
231.215454808351
 30
0.0
  0
VERTEX
  5
543
330
534
100
AcDbEntity
  8
LAYER3
100
AcDbVertex
100
AcDb2dVertex
 10
164.594333339777
 20
231.2439505969252
 30
0.0
  0
VERTEX
  5
544
330
534
100
AcDbEntity
  8
LAYER3
100
AcDbVertex
100
AcDb2dVertex
 10
164.6144588480854
 20
231.2735907946791
 30
0.0
  0
VERTEX
  5
545
330
534
100
AcDbEntity
  8
LAYER3
100
AcDbVertex
100
AcDb2dVertex
 10
164.6337096582318
 20
231.30433725464
 30
0.0
  0
VERTEX
  5
546
330
534
100
AcDbEntity
  8
LAYER3
100
AcDbVertex
100
AcDb2dVertex
 10
164.6519796739483
 20
231.336132756349
 30
0.0
  0
VERTEX
  5
547
330
534
100
AcDbEntity
  8
LAYER3
100
AcDbVertex
100
AcDb2dVertex
 10
164.6692033301258
 20
231.3688628588881
 30
0.0
  0
VERTEX
  5
548
330
534
100
AcDbEntity
  8
LAYER3
100
AcDbVertex
100
AcDb2dVertex
 10
164.6853186379338
 20
231.4024321948256
 30
0.0
  0
VERTEX
  5
549
330
534
100
AcDbEntity
  8
LAYER3
100
AcDbVertex
100
AcDb2dVertex
 10
164.700264204588
 20
231.4366691027846
 30
0.0
  0
VERTEX
  5
54A
330
534
100
AcDbEntity
  8
LAYER3
100
AcDbVertex
100
AcDb2dVertex
 10
164.7139780412579
 20
231.4714972888197
 30
0.0
  0
VERTEX
  5
54B
330
534
100
AcDbEntity
  8
LAYER3
100
AcDbVertex
100
AcDb2dVertex
 10
164.726398159113
 20
231.5067641650404
 30
0.0
  0
VERTEX
  5
54C
330
534
100
AcDbEntity
  8
LAYER3
100
AcDbVertex
100
AcDb2dVertex
 10
164.7374637614155
 20
231.5423552905287
 30
0.0
  0
VERTEX
  5
54D
330
534
100
AcDbEntity
  8
LAYER3
100
AcDbVertex
100
AcDb2dVertex
 10
164.7471119652653
 20
231.5781371508803
 30
0.0
  0
SEQEND
  5
54E
330
534
100
AcDbEntity
  8
LAYER3
  0
POLYLINE
  5
54F
330
2
100
AcDbEntity
  8
LAYER3
100
AcDb2dPolyline
 66
     1
 10
0.0
 20
0.0
 30
0.0
 70
   128
  0
VERTEX
  5
550
330
54F
100
AcDbEntity
  8
LAYER3
100
AcDbVertex
100
AcDb2dVertex
 10
165.0856600891017
 20
228.4314505969252
 30
0.0
  0
VERTEX
  5
551
330
54F
100
AcDbEntity
  8
LAYER3
100
AcDbVertex
100
AcDb2dVertex
 10
164.9524484764002
 20
228.4227721606459
 30
0.0
  0
VERTEX
  5
552
330
54F
100
AcDbEntity
  8
LAYER3
100
AcDbVertex
100
AcDb2dVertex
 10
164.817534555044
 20
228.4273879443373
 30
0.0
  0
VERTEX
  5
553
330
54F
100
AcDbEntity
  8
LAYER3
100
AcDbVertex
100
AcDb2dVertex
 10
164.6824003945253
 20
228.445622197267
 30
0.0
  0
VERTEX
  5
554
330
54F
100
AcDbEntity
  8
LAYER3
100
AcDbVertex
100
AcDb2dVertex
 10
164.5479299317263
 20
228.4780089770522
 30
0.0
  0
VERTEX
  5
555
330
54F
100
AcDbEntity
  8
LAYER3
100
AcDbVertex
100
AcDb2dVertex
 10
164.4083880077265
 20
228.5278670703139
 30
0.0
  0
VERTEX
  5
556
330
54F
100
AcDbEntity
  8
LAYER3
100
AcDbVertex
100
AcDb2dVertex
 10
164.2675565372369
 20
228.5967032824721
 30
0.0
  0
VERTEX
  5
557
330
54F
100
AcDbEntity
  8
LAYER3
100
AcDbVertex
100
AcDb2dVertex
 10
164.1324116478822
 20
228.6841552172865
 30
0.0
  0
VERTEX
  5
558
330
54F
100
AcDbEntity
  8
LAYER3
100
AcDbVertex
100
AcDb2dVertex
 10
164.0089871178529
 20
228.7862746630873
 30
0.0
  0
VERTEX
  5
559
330
54F
100
AcDbEntity
  8
LAYER3
100
AcDbVertex
100
AcDb2dVertex
 10
163.8976106236836
 20
228.9038245593276
 30
0.0
  0
VERTEX
  5
55A
330
54F
100
AcDbEntity
  8
LAYER3
100
AcDbVertex
100
AcDb2dVertex
 10
163.7950661967655
 20
229.0427558337416
 30
0.0
  0
VERTEX
  5
55B
330
54F
100
AcDbEntity
  8
LAYER3
100
AcDbVertex
100
AcDb2dVertex
 10
163.7099702845475
 20
229.1966597949233
 30
0.0
  0
VERTEX
  5
55C
330
54F
100
AcDbEntity
  8
LAYER3
100
AcDbVertex
100
AcDb2dVertex
 10
163.6468741486927
 20
229.3553702746596
 30
0.0
  0
VERTEX
  5
55D
330
54F
100
AcDbEntity
  8
LAYER3
100
AcDbVertex
100
AcDb2dVertex
 10
163.6046372543236
 20
229.5208518420424
 30
0.0
  0
VERTEX
  5
55E
330
54F
100
AcDbEntity
  8
LAYER3
100
AcDbVertex
100
AcDb2dVertex
 10
163.5830126891991
 20
229.6953742419447
 30
0.0
  0
VERTEX
  5
55F
330
54F
100
AcDbEntity
  8
LAYER3
100
AcDbVertex
100
AcDb2dVertex
 10
163.5843202660939
 20
229.8680465136733
 30
0.0
  0
VERTEX
  5
560
330
54F
100
AcDbEntity
  8
LAYER3
100
AcDbVertex
100
AcDb2dVertex
 10
163.605328668203
 20
230.0286071215834
 30
0.0
  0
VERTEX
  5
561
330
54F
100
AcDbEntity
  8
LAYER3
100
AcDbVertex
100
AcDb2dVertex
 10
163.6451555977723
 20
230.1837699328627
 30
0.0
  0
VERTEX
  5
562
330
54F
100
AcDbEntity
  8
LAYER3
100
AcDbVertex
100
AcDb2dVertex
 10
163.7030828188321
 20
230.3339736376967
 30
0.0
  0
VERTEX
  5
563
330
54F
100
AcDbEntity
  8
LAYER3
100
AcDbVertex
100
AcDb2dVertex
 10
163.7765552292726
 20
230.4724471484389
 30
0.0
  0
VERTEX
  5
564
330
54F
100
AcDbEntity
  8
LAYER3
100
AcDbVertex
100
AcDb2dVertex
 10
163.8601418028734
 20
230.5948035632338
 30
0.0
  0
VERTEX
  5
565
330
54F
100
AcDbEntity
  8
LAYER3
100
AcDbVertex
100
AcDb2dVertex
 10
163.9498961161039
 20
230.7000319873061
 30
0.0
  0
VERTEX
  5
566
330
54F
100
AcDbEntity
  8
LAYER3
100
AcDbVertex
100
AcDb2dVertex
 10
164.0485020171069
 20
230.7942168627943
 30
0.0
  0
VERTEX
  5
567
330
54F
100
AcDbEntity
  8
LAYER3
100
AcDbVertex
100
AcDb2dVertex
 10
164.1549371372126
 20
230.8772437487807
 30
0.0
  0
VERTEX
  5
568
330
54F
100
AcDbEntity
  8
LAYER3
100
AcDbVertex
100
AcDb2dVertex
 10
164.2678125391864
 20
230.9485213671889
 30
0.0
  0
SEQEND
  5
569
330
54F
100
AcDbEntity
  8
LAYER3
  0
POLYLINE
  5
56A
330
2
100
AcDbEntity
  8
LAYER3
100
AcDb2dPolyline
 66
     1
 10
0.0
 20
0.0
 30
0.0
 70
   128
  0
VERTEX
  5
56B
330
56A
100
AcDbEntity
  8
LAYER3
100
AcDbVertex
100
AcDb2dVertex
 10
165.8434944044018
 20
228.203808537599
 30
0.0
  0
VERTEX
  5
56C
330
56A
100
AcDbEntity
  8
LAYER3
100
AcDbVertex
100
AcDb2dVertex
 10
165.8146555910969
 20
228.2270972644057
 30
0.0
  0
VERTEX
  5
56D
330
56A
100
AcDbEntity
  8
LAYER3
100
AcDbVertex
100
AcDb2dVertex
 10
165.7847865115071
 20
228.2493750964369
 30
0.0
  0
VERTEX
  5
56E
330
56A
100
AcDbEntity
  8
LAYER3
100
AcDbVertex
100
AcDb2dVertex
 10
165.7540099512005
 20
228.2706038867201
 30
0.0
  0
VERTEX
  5
56F
330
56A
100
AcDbEntity
  8
LAYER3
100
AcDbVertex
100
AcDb2dVertex
 10
165.7224486957455
 20
228.29070734131
 30
0.0
  0
VERTEX
  5
570
330
56A
100
AcDbEntity
  8
LAYER3
100
AcDbVertex
100
AcDb2dVertex
 10
165.6902255307103
 20
228.3096473132338
 30
0.0
  0
VERTEX
  5
571
330
56A
100
AcDbEntity
  8
LAYER3
100
AcDbVertex
100
AcDb2dVertex
 10
165.657463241663
 20
228.3273093615736
 30
0.0
  0
VERTEX
  5
572
330
56A
100
AcDbEntity
  8
LAYER3
100
AcDbVertex
100
AcDb2dVertex
 10
165.6242843161488
 20
228.3436744128432
 30
0.0
  0
VERTEX
  5
573
330
56A
100
AcDbEntity
  8
LAYER3
100
AcDbVertex
100
AcDb2dVertex
 10
165.590811837759
 20
228.3586661730971
 30
0.0
  0
VERTEX
  5
574
330
56A
100
AcDbEntity
  8
LAYER3
100
AcDbVertex
100
AcDb2dVertex
 10
165.5571673999691
 20
228.3722274218764
 30
0.0
  0
VERTEX
  5
575
330
56A
100
AcDbEntity
  8
LAYER3
100
AcDbVertex
100
AcDb2dVertex
 10
165.5234675298596
 20
228.3843772326674
 30
0.0
  0
VERTEX
  5
576
330
56A
100
AcDbEntity
  8
LAYER3
100
AcDbVertex
100
AcDb2dVertex
 10
165.4898341189289
 20
228.3951537524428
 30
0.0
  0
VERTEX
  5
577
330
56A
100
AcDbEntity
  8
LAYER3
100
AcDbVertex
100
AcDb2dVertex
 10
165.4563896547222
 20
228.4045951281752
 30
0.0
  0
VERTEX
  5
578
330
56A
100
AcDbEntity
  8
LAYER3
100
AcDbVertex
100
AcDb2dVertex
 10
165.4232575188541
 20
228.4127585803236
 30
0.0
  0
VERTEX
  5
579
330
56A
100
AcDbEntity
  8
LAYER3
100
AcDbVertex
100
AcDb2dVertex
 10
165.3905599008465
 20
228.4197013293471
 30
0.0
  0
VERTEX
  5
57A
330
56A
100
AcDbEntity
  8
LAYER3
100
AcDbVertex
100
AcDb2dVertex
 10
165.3584201823139
 20
228.4254233752455
 30
0.0
  0
VERTEX
  5
57B
330
56A
100
AcDbEntity
  8
LAYER3
100
AcDbVertex
100
AcDb2dVertex
 10
165.3269608508014
 20
228.4299819384779
 30
0.0
  0
VERTEX
  5
57C
330
56A
100
AcDbEntity
  8
LAYER3
100
AcDbVertex
100
AcDb2dVertex
 10
165.2963026057147
 20
228.4334342395033
 30
0.0
  0
VERTEX
  5
57D
330
56A
100
AcDbEntity
  8
LAYER3
100
AcDbVertex
100
AcDb2dVertex
 10
165.2660198698901
 20
228.4358947192397
 30
0.0
  0
VERTEX
  5
57E
330
56A
100
AcDbEntity
  8
LAYER3
100
AcDbVertex
100
AcDb2dVertex
 10
165.2357460747623
 20
228.4374205981459
 30
0.0
  0
VERTEX
  5
57F
330
56A
100
AcDbEntity
  8
LAYER3
100
AcDbVertex
100
AcDb2dVertex
 10
165.2055145989322
 20
228.4380309497084
 30
0.0
  0
VERTEX
  5
580
330
56A
100
AcDbEntity
  8
LAYER3
100
AcDbVertex
100
AcDb2dVertex
 10
165.1753576289081
 20
228.4377257739272
 30
0.0
  0
VERTEX
  5
581
330
56A
100
AcDbEntity
  8
LAYER3
100
AcDbVertex
100
AcDb2dVertex
 10
165.1453076492214
 20
228.4365241442885
 30
0.0
  0
VERTEX
  5
582
330
56A
100
AcDbEntity
  8
LAYER3
100
AcDbVertex
100
AcDb2dVertex
 10
165.1153977404498
 20
228.4344260607924
 30
0.0
  0
VERTEX
  5
583
330
56A
100
AcDbEntity
  8
LAYER3
100
AcDbVertex
100
AcDb2dVertex
 10
165.0856600891017
 20
228.4314505969252
 30
0.0
  0
SEQEND
  5
584
330
56A
100
AcDbEntity
  8
LAYER3
  0
ARC
  5
585
330
2
100
AcDbEntity
  8
LAYER3
100
AcDbCircle
 10
167.997957745337
 20
230.7691187916692
 30
0.0
 40
3.350000000004513
100
AcDbArc
 50
229.9748830508312
 51
238.0251169491719
  0
POLYLINE
  5
586
330
2
100
AcDbEntity
  8
LAYER3
100
AcDb2dPolyline
 66
     1
 10
0.0
 20
0.0
 30
0.0
 70
   128
  0
VERTEX
  5
587
330
586
100
AcDbEntity
  8
LAYER3
100
AcDbVertex
100
AcDb2dVertex
 10
166.674652565565
 20
227.2769706164564
 30
0.0
  0
VERTEX
  5
588
330
586
100
AcDbEntity
  8
LAYER3
100
AcDbVertex
100
AcDb2dVertex
 10
166.6682993064784
 20
227.3061911975112
 30
0.0
  0
VERTEX
  5
589
330
586
100
AcDbEntity
  8
LAYER3
100
AcDbVertex
100
AcDb2dVertex
 10
166.6610495935344
 20
227.3352782641615
 30
0.0
  0
VERTEX
  5
58A
330
586
100
AcDbEntity
  8
LAYER3
100
AcDbVertex
100
AcDb2dVertex
 10
166.6529064069652
 20
227.3642318164076
 30
0.0
  0
VERTEX
  5
58B
330
586
100
AcDbEntity
  8
LAYER3
100
AcDbVertex
100
AcDb2dVertex
 10
166.6438721309566
 20
227.3929946337904
 30
0.0
  0
VERTEX
  5
58C
330
586
100
AcDbEntity
  8
LAYER3
100
AcDbVertex
100
AcDb2dVertex
 10
166.6339497457408
 20
227.42156671631
 30
0.0
  0
VERTEX
  5
58D
330
586
100
AcDbEntity
  8
LAYER3
100
AcDbVertex
100
AcDb2dVertex
 10
166.6231422315502
 20
227.4498908435072
 30
0.0
  0
VERTEX
  5
58E
330
586
100
AcDbEntity
  8
LAYER3
100
AcDbVertex
100
AcDb2dVertex
 10
166.6114519725704
 20
227.4779288684096
 30
0.0
  0
VERTEX
  5
58F
330
586
100
AcDbEntity
  8
LAYER3
100
AcDbVertex
100
AcDb2dVertex
 10
166.5986947904491
 20
227.5060241137709
 30
0.0
  0
VERTEX
  5
590
330
586
100
AcDbEntity
  8
LAYER3
100
AcDbVertex
100
AcDb2dVertex
 10
166.5846286903286
 20
227.5345199023451
 30
0.0
  0
VERTEX
  5
591
330
586
100
AcDbEntity
  8
LAYER3
100
AcDbVertex
100
AcDb2dVertex
 10
166.5692506919765
 20
227.5633208667006
 30
0.0
  0
VERTEX
  5
592
330
586
100
AcDbEntity
  8
LAYER3
100
AcDbVertex
100
AcDb2dVertex
 10
166.5525596033001
 20
227.5922744189467
 30
0.0
  0
VERTEX
  5
593
330
586
100
AcDbEntity
  8
LAYER3
100
AcDbVertex
100
AcDb2dVertex
 10
166.5345530401134
 20
227.6212661181654
 30
0.0
  0
VERTEX
  5
594
330
586
100
AcDbEntity
  8
LAYER3
100
AcDbVertex
100
AcDb2dVertex
 10
166.5152298103237
 20
227.6501624499525
 30
0.0
  0
VERTEX
  5
595
330
586
100
AcDbEntity
  8
LAYER3
100
AcDbVertex
100
AcDb2dVertex
 10
166.4945869336987
 20
227.6788108264174
 30
0.0
  0
VERTEX
  5
596
330
586
100
AcDbEntity
  8
LAYER3
100
AcDbVertex
100
AcDb2dVertex
 10
166.4726229201222
 20
227.7071158801283
 30
0.0
  0
VERTEX
  5
597
330
586
100
AcDbEntity
  8
LAYER3
100
AcDbVertex
100
AcDb2dVertex
 10
166.4493338952923
 20
227.7349250231947
 30
0.0
  0
VERTEX
  5
598
330
586
100
AcDbEntity
  8
LAYER3
100
AcDbVertex
100
AcDb2dVertex
 10
166.4247359524632
 20
227.7621238146986
 30
0.0
  0
VERTEX
  5
599
330
586
100
AcDbEntity
  8
LAYER3
100
AcDbVertex
100
AcDb2dVertex
 10
166.3989196906948
 20
227.7886168872084
 30
0.0
  0
VERTEX
  5
59A
330
586
100
AcDbEntity
  8
LAYER3
100
AcDbVertex
100
AcDb2dVertex
 10
166.3719843517208
 20
227.8143088732924
 30
0.0
  0
VERTEX
  5
59B
330
586
100
AcDbEntity
  8
LAYER3
100
AcDbVertex
100
AcDb2dVertex
 10
166.3440285812283
 20
227.839104405519
 30
0.0
  0
VERTEX
  5
59C
330
586
100
AcDbEntity
  8
LAYER3
100
AcDbVertex
100
AcDb2dVertex
 10
166.3151507268811
 20
227.8629081164564
 30
0.0
  0
VERTEX
  5
59D
330
586
100
AcDbEntity
  8
LAYER3
100
AcDbVertex
100
AcDb2dVertex
 10
166.2854497323895
 20
227.8856246386733
 30
0.0
  0
VERTEX
  5
59E
330
586
100
AcDbEntity
  8
LAYER3
100
AcDbVertex
100
AcDb2dVertex
 10
166.2550245414639
 20
227.9071395312514
 30
0.0
  0
VERTEX
  5
59F
330
586
100
AcDbEntity
  8
LAYER3
100
AcDbVertex
100
AcDb2dVertex
 10
166.2239737997914
 20
227.9273765002455
 30
0.0
  0
SEQEND
  5
5A0
330
586
100
AcDbEntity
  8
LAYER3
  0
POLYLINE
  5
5A1
330
2
100
AcDbEntity
  8
LAYER3
100
AcDb2dPolyline
 66
     1
 10
0.0
 20
0.0
 30
0.0
 70
   128
  0
VERTEX
  5
5A2
330
5A1
100
AcDbEntity
  8
LAYER3
100
AcDbVertex
100
AcDb2dVertex
 10
169.3212633024119
 20
227.2769706164564
 30
0.0
  0
VERTEX
  5
5A3
330
5A1
100
AcDbEntity
  8
LAYER3
100
AcDbVertex
100
AcDb2dVertex
 10
169.2883585582636
 20
227.1475951586928
 30
0.0
  0
VERTEX
  5
5A4
330
5A1
100
AcDbEntity
  8
LAYER3
100
AcDbVertex
100
AcDb2dVertex
 10
169.2422788034342
 20
227.0207183276381
 30
0.0
  0
VERTEX
  5
5A5
330
5A1
100
AcDbEntity
  8
LAYER3
100
AcDbVertex
100
AcDb2dVertex
 10
169.1831742416284
 20
226.897827855226
 30
0.0
  0
VERTEX
  5
5A6
330
5A1
100
AcDbEntity
  8
LAYER3
100
AcDbVertex
100
AcDb2dVertex
 10
169.110821951475
 20
226.7799537097182
 30
0.0
  0
VERTEX
  5
5A7
330
5A1
100
AcDbEntity
  8
LAYER3
100
AcDbVertex
100
AcDb2dVertex
 10
169.0202848802469
 20
226.6626517688002
 30
0.0
  0
VERTEX
  5
5A8
330
5A1
100
AcDbEntity
  8
LAYER3
100
AcDbVertex
100
AcDb2dVertex
 10
168.9112954030893
 20
226.54998468506
 30
0.0
  0
VERTEX
  5
5A9
330
5A1
100
AcDbEntity
  8
LAYER3
100
AcDbVertex
100
AcDb2dVertex
 10
168.7863545308969
 20
226.4484755908217
 30
0.0
  0
VERTEX
  5
5AA
330
5A1
100
AcDbEntity
  8
LAYER3
100
AcDbVertex
100
AcDb2dVertex
 10
168.6510907302758
 20
226.3626449023451
 30
0.0
  0
VERTEX
  5
5AB
330
5A1
100
AcDbEntity
  8
LAYER3
100
AcDbVertex
100
AcDb2dVertex
 10
168.5048721919915
 20
226.2930457507338
 30
0.0
  0
VERTEX
  5
5AC
330
5A1
100
AcDbEntity
  8
LAYER3
100
AcDbVertex
100
AcDb2dVertex
 10
168.3410673032662
 20
226.2384574328627
 30
0.0
  0
VERTEX
  5
5AD
330
5A1
100
AcDbEntity
  8
LAYER3
100
AcDbVertex
100
AcDb2dVertex
 10
168.1683902631661
 20
226.2050788317885
 30
0.0
  0
VERTEX
  5
5AE
330
5A1
100
AcDbEntity
  8
LAYER3
100
AcDbVertex
100
AcDb2dVertex
 10
167.9979579339882
 20
226.1941115771498
 30
0.0
  0
VERTEX
  5
5AF
330
5A1
100
AcDbEntity
  8
LAYER3
100
AcDbVertex
100
AcDb2dVertex
 10
167.8275250087639
 20
226.2050788317885
 30
0.0
  0
VERTEX
  5
5B0
330
5A1
100
AcDbEntity
  8
LAYER3
100
AcDbVertex
100
AcDb2dVertex
 10
167.6548479686638
 20
226.2384574328627
 30
0.0
  0
VERTEX
  5
5B1
330
5A1
100
AcDbEntity
  8
LAYER3
100
AcDbVertex
100
AcDb2dVertex
 10
167.4910430799386
 20
226.2930457507338
 30
0.0
  0
VERTEX
  5
5B2
330
5A1
100
AcDbEntity
  8
LAYER3
100
AcDbVertex
100
AcDb2dVertex
 10
167.3448245416543
 20
226.3626449023451
 30
0.0
  0
VERTEX
  5
5B3
330
5A1
100
AcDbEntity
  8
LAYER3
100
AcDbVertex
100
AcDb2dVertex
 10
167.2095607410333
 20
226.4484755908217
 30
0.0
  0
VERTEX
  5
5B4
330
5A1
100
AcDbEntity
  8
LAYER3
100
AcDbVertex
100
AcDb2dVertex
 10
167.0846198688409
 20
226.54998468506
 30
0.0
  0
VERTEX
  5
5B5
330
5A1
100
AcDbEntity
  8
LAYER3
100
AcDbVertex
100
AcDb2dVertex
 10
166.9756303916834
 20
226.6626517688002
 30
0.0
  0
VERTEX
  5
5B6
330
5A1
100
AcDbEntity
  8
LAYER3
100
AcDbVertex
100
AcDb2dVertex
 10
166.8850933204554
 20
226.7799537097182
 30
0.0
  0
VERTEX
  5
5B7
330
5A1
100
AcDbEntity
  8
LAYER3
100
AcDbVertex
100
AcDb2dVertex
 10
166.8127410303019
 20
226.897827855226
 30
0.0
  0
VERTEX
  5
5B8
330
5A1
100
AcDbEntity
  8
LAYER3
100
AcDbVertex
100
AcDb2dVertex
 10
166.7536370645426
 20
227.0207183276381
 30
0.0
  0
VERTEX
  5
5B9
330
5A1
100
AcDbEntity
  8
LAYER3
100
AcDbVertex
100
AcDb2dVertex
 10
166.7075573097132
 20
227.1475951586928
 30
0.0
  0
VERTEX
  5
5BA
330
5A1
100
AcDbEntity
  8
LAYER3
100
AcDbVertex
100
AcDb2dVertex
 10
166.674652565565
 20
227.2769706164564
 30
0.0
  0
SEQEND
  5
5BB
330
5A1
100
AcDbEntity
  8
LAYER3
  0
POLYLINE
  5
5BC
330
2
100
AcDbEntity
  8
LAYER3
100
AcDb2dPolyline
 66
     1
 10
0.0
 20
0.0
 30
0.0
 70
   128
  0
VERTEX
  5
5BD
330
5BC
100
AcDbEntity
  8
LAYER3
100
AcDbVertex
100
AcDb2dVertex
 10
169.7719417701626
 20
227.9273765002455
 30
0.0
  0
VERTEX
  5
5BE
330
5BC
100
AcDbEntity
  8
LAYER3
100
AcDbVertex
100
AcDb2dVertex
 10
169.7408907304669
 20
227.9071395312514
 30
0.0
  0
VERTEX
  5
5BF
330
5BC
100
AcDbEntity
  8
LAYER3
100
AcDbVertex
100
AcDb2dVertex
 10
169.7104655395413
 20
227.8856246386733
 30
0.0
  0
VERTEX
  5
5C0
330
5BC
100
AcDbEntity
  8
LAYER3
100
AcDbVertex
100
AcDb2dVertex
 10
169.6807651410962
 20
227.8629081164564
 30
0.0
  0
VERTEX
  5
5C1
330
5BC
100
AcDbEntity
  8
LAYER3
100
AcDbVertex
100
AcDb2dVertex
 10
169.6518872867489
 20
227.839104405519
 30
0.0
  0
VERTEX
  5
5C2
330
5BC
100
AcDbEntity
  8
LAYER3
100
AcDbVertex
100
AcDb2dVertex
 10
169.6239309202099
 20
227.8143088732924
 30
0.0
  0
VERTEX
  5
5C3
330
5BC
100
AcDbEntity
  8
LAYER3
100
AcDbVertex
100
AcDb2dVertex
 10
169.5969955812359
 20
227.7886168872084
 30
0.0
  0
VERTEX
  5
5C4
330
5BC
100
AcDbEntity
  8
LAYER3
100
AcDbVertex
100
AcDb2dVertex
 10
169.5711796174908
 20
227.7621238146986
 30
0.0
  0
VERTEX
  5
5C5
330
5BC
100
AcDbEntity
  8
LAYER3
100
AcDbVertex
100
AcDb2dVertex
 10
169.5465813766384
 20
227.7349250231947
 30
0.0
  0
VERTEX
  5
5C6
330
5BC
100
AcDbEntity
  8
LAYER3
100
AcDbVertex
100
AcDb2dVertex
 10
169.5232926498318
 20
227.7071158801283
 30
0.0
  0
VERTEX
  5
5C7
330
5BC
100
AcDbEntity
  8
LAYER3
100
AcDbVertex
100
AcDb2dVertex
 10
169.5013283382321
 20
227.6788108264174
 30
0.0
  0
VERTEX
  5
5C8
330
5BC
100
AcDbEntity
  8
LAYER3
100
AcDbVertex
100
AcDb2dVertex
 10
169.4806860576534
 20
227.6501624499525
 30
0.0
  0
VERTEX
  5
5C9
330
5BC
100
AcDbEntity
  8
LAYER3
100
AcDbVertex
100
AcDb2dVertex
 10
169.4613622318172
 20
227.6212661181654
 30
0.0
  0
VERTEX
  5
5CA
330
5BC
100
AcDbEntity
  8
LAYER3
100
AcDbVertex
100
AcDb2dVertex
 10
169.4433556686306
 20
227.5922744189467
 30
0.0
  0
VERTEX
  5
5CB
330
5BC
100
AcDbEntity
  8
LAYER3
100
AcDbVertex
100
AcDb2dVertex
 10
169.4266645799541
 20
227.5633208667006
 30
0.0
  0
VERTEX
  5
5CC
330
5BC
100
AcDbEntity
  8
LAYER3
100
AcDbVertex
100
AcDb2dVertex
 10
169.4112871776485
 20
227.5345199023451
 30
0.0
  0
VERTEX
  5
5CD
330
5BC
100
AcDbEntity
  8
LAYER3
100
AcDbVertex
100
AcDb2dVertex
 10
169.397221077528
 20
227.5060241137709
 30
0.0
  0
VERTEX
  5
5CE
330
5BC
100
AcDbEntity
  8
LAYER3
100
AcDbVertex
100
AcDb2dVertex
 10
169.3844632993602
 20
227.4779288684096
 30
0.0
  0
VERTEX
  5
5CF
330
5BC
100
AcDbEntity
  8
LAYER3
100
AcDbVertex
100
AcDb2dVertex
 10
169.3727730403804
 20
227.4498908435072
 30
0.0
  0
VERTEX
  5
5D0
330
5BC
100
AcDbEntity
  8
LAYER3
100
AcDbVertex
100
AcDb2dVertex
 10
169.3619655261898
 20
227.42156671631
 30
0.0
  0
VERTEX
  5
5D1
330
5BC
100
AcDbEntity
  8
LAYER3
100
AcDbVertex
100
AcDb2dVertex
 10
169.352043140974
 20
227.3929946337904
 30
0.0
  0
VERTEX
  5
5D2
330
5BC
100
AcDbEntity
  8
LAYER3
100
AcDbVertex
100
AcDb2dVertex
 10
169.3430094610118
 20
227.3642318164076
 30
0.0
  0
VERTEX
  5
5D3
330
5BC
100
AcDbEntity
  8
LAYER3
100
AcDbVertex
100
AcDb2dVertex
 10
169.3348656783962
 20
227.3352782641615
 30
0.0
  0
VERTEX
  5
5D4
330
5BC
100
AcDbEntity
  8
LAYER3
100
AcDbVertex
100
AcDb2dVertex
 10
169.3276165614986
 20
227.3061911975112
 30
0.0
  0
VERTEX
  5
5D5
330
5BC
100
AcDbEntity
  8
LAYER3
100
AcDbVertex
100
AcDb2dVertex
 10
169.3212633024119
 20
227.2769706164564
 30
0.0
  0
SEQEND
  5
5D6
330
5BC
100
AcDbEntity
  8
LAYER3
  0
ARC
  5
5D7
330
2
100
AcDbEntity
  8
LAYER3
100
AcDbCircle
 10
167.9979577453327
 20
230.7691187916681
 30
0.0
 40
3.350000000003067
100
AcDbArc
 50
301.9748830508254
 51
310.025116949169
  0
POLYLINE
  5
5D8
330
2
100
AcDbEntity
  8
LAYER3
100
AcDb2dPolyline
 66
     1
 10
0.0
 20
0.0
 30
0.0
 70
   128
  0
VERTEX
  5
5D9
330
5D8
100
AcDbEntity
  8
LAYER3
100
AcDbVertex
100
AcDb2dVertex
 10
167.0159064422511
 20
448.3721368228162
 30
0.0
  0
VERTEX
  5
5DA
330
5D8
100
AcDbEntity
  8
LAYER3
100
AcDbVertex
100
AcDb2dVertex
 10
167.038211692419
 20
448.3522455607618
 30
0.0
  0
VERTEX
  5
5DB
330
5D8
100
AcDbEntity
  8
LAYER3
100
AcDbVertex
100
AcDb2dVertex
 10
167.0611779580974
 20
448.3329694186415
 30
0.0
  0
VERTEX
  5
5DC
330
5D8
100
AcDbEntity
  8
LAYER3
100
AcDbVertex
100
AcDb2dVertex
 10
167.0847825895213
 20
448.3143346224989
 30
0.0
  0
VERTEX
  5
5DD
330
5D8
100
AcDbEntity
  8
LAYER3
100
AcDbVertex
100
AcDb2dVertex
 10
167.1090041290187
 20
448.2963673983777
 30
0.0
  0
VERTEX
  5
5DE
330
5D8
100
AcDbEntity
  8
LAYER3
100
AcDbVertex
100
AcDb2dVertex
 10
167.133820522871
 20
448.2790915881361
 30
0.0
  0
VERTEX
  5
5DF
330
5D8
100
AcDbEntity
  8
LAYER3
100
AcDbVertex
100
AcDb2dVertex
 10
167.1592097173595
 20
448.2625310336317
 30
0.0
  0
VERTEX
  5
5E0
330
5D8
100
AcDbEntity
  8
LAYER3
100
AcDbVertex
100
AcDb2dVertex
 10
167.1851508508587
 20
448.2467167292798
 30
0.0
  0
VERTEX
  5
5E1
330
5D8
100
AcDbEntity
  8
LAYER3
100
AcDbVertex
100
AcDb2dVertex
 10
167.2119830737972
 20
448.2314889346326
 30
0.0
  0
VERTEX
  5
5E2
330
5D8
100
AcDbEntity
  8
LAYER3
100
AcDbVertex
100
AcDb2dVertex
 10
167.2401194463634
 20
448.2166926776137
 30
0.0
  0
VERTEX
  5
5E3
330
5D8
100
AcDbEntity
  8
LAYER3
100
AcDbVertex
100
AcDb2dVertex
 10
167.2694866548443
 20
448.2024352465834
 30
0.0
  0
VERTEX
  5
5E4
330
5D8
100
AcDbEntity
  8
LAYER3
100
AcDbVertex
100
AcDb2dVertex
 10
167.3000107894802
 20
448.1888191615309
 30
0.0
  0
VERTEX
  5
5E5
330
5D8
100
AcDbEntity
  8
LAYER3
100
AcDbVertex
100
AcDb2dVertex
 10
167.3316161523724
 20
448.1759517108168
 30
0.0
  0
VERTEX
  5
5E6
330
5D8
100
AcDbEntity
  8
LAYER3
100
AcDbVertex
100
AcDb2dVertex
 10
167.3642282377148
 20
448.1639401828016
 30
0.0
  0
VERTEX
  5
5E7
330
5D8
100
AcDbEntity
  8
LAYER3
100
AcDbVertex
100
AcDb2dVertex
 10
167.397773135748
 20
448.1528894816602
 30
0.0
  0
VERTEX
  5
5E8
330
5D8
100
AcDbEntity
  8
LAYER3
100
AcDbVertex
100
AcDb2dVertex
 10
167.432175148573
 20
448.1429068957533
 30
0.0
  0
VERTEX
  5
5E9
330
5D8
100
AcDbEntity
  8
LAYER3
100
AcDbVertex
100
AcDb2dVertex
 10
167.4673621545697
 20
448.1340973292555
 30
0.0
  0
VERTEX
  5
5EA
330
5D8
100
AcDbEntity
  8
LAYER3
100
AcDbVertex
100
AcDb2dVertex
 10
167.5032513032818
 20
448.1265489970411
 30
0.0
  0
VERTEX
  5
5EB
330
5D8
100
AcDbEntity
  8
LAYER3
100
AcDbVertex
100
AcDb2dVertex
 10
167.5397120605374
 20
448.1202857409681
 30
0.0
  0
VERTEX
  5
5EC
330
5D8
100
AcDbEntity
  8
LAYER3
100
AcDbVertex
100
AcDb2dVertex
 10
167.5766073356533
 20
448.1153290187086
 30
0.0
  0
VERTEX
  5
5ED
330
5D8
100
AcDbEntity
  8
LAYER3
100
AcDbVertex
100
AcDb2dVertex
 10
167.6138000379468
 20
448.1116979037489
 30
0.0
  0
VERTEX
  5
5EE
330
5D8
100
AcDbEntity
  8
LAYER3
100
AcDbVertex
100
AcDb2dVertex
 10
167.651153672781
 20
448.1094162379469
 30
0.0
  0
VERTEX
  5
5EF
330
5D8
100
AcDbEntity
  8
LAYER3
100
AcDbVertex
100
AcDb2dVertex
 10
167.6885305534268
 20
448.1085007106031
 30
0.0
  0
VERTEX
  5
5F0
330
5D8
100
AcDbEntity
  8
LAYER3
100
AcDbVertex
100
AcDb2dVertex
 10
167.7257947812939
 20
448.1089751635756
 30
0.0
  0
VERTEX
  5
5F1
330
5D8
100
AcDbEntity
  8
LAYER3
100
AcDbVertex
100
AcDb2dVertex
 10
167.762808669653
 20
448.1108562861646
 30
0.0
  0
SEQEND
  5
5F2
330
5D8
100
AcDbEntity
  8
LAYER3
  0
ARC
  5
5F3
330
2
100
AcDbEntity
  8
LAYER3
100
AcDbCircle
 10
167.9979577453343
 20
444.7691187916653
 30
0.0
 40
3.350000000000092
100
AcDbArc
 50
85.97488305082515
 51
94.02511694917485
  0
POLYLINE
  5
5F4
330
2
100
AcDbEntity
  8
LAYER3
100
AcDb2dPolyline
 66
     1
 10
0.0
 20
0.0
 30
0.0
 70
   128
  0
VERTEX
  5
5F5
330
5F4
100
AcDbEntity
  8
LAYER3
100
AcDbVertex
100
AcDb2dVertex
 10
168.2331066022778
 20
448.1108562861646
 30
0.0
  0
VERTEX
  5
5F6
330
5F4
100
AcDbEntity
  8
LAYER3
100
AcDbVertex
100
AcDb2dVertex
 10
168.2701204906369
 20
448.1089751635756
 30
0.0
  0
VERTEX
  5
5F7
330
5F4
100
AcDbEntity
  8
LAYER3
100
AcDbVertex
100
AcDb2dVertex
 10
168.307384718504
 20
448.1085007106031
 30
0.0
  0
VERTEX
  5
5F8
330
5F4
100
AcDbEntity
  8
LAYER3
100
AcDbVertex
100
AcDb2dVertex
 10
168.3447615991498
 20
448.1094162379469
 30
0.0
  0
VERTEX
  5
5F9
330
5F4
100
AcDbEntity
  8
LAYER3
100
AcDbVertex
100
AcDb2dVertex
 10
168.3821152339841
 20
448.1116979037489
 30
0.0
  0
VERTEX
  5
5FA
330
5F4
100
AcDbEntity
  8
LAYER3
100
AcDbVertex
100
AcDb2dVertex
 10
168.4193079362774
 20
448.1153290187086
 30
0.0
  0
VERTEX
  5
5FB
330
5F4
100
AcDbEntity
  8
LAYER3
100
AcDbVertex
100
AcDb2dVertex
 10
168.4562032113934
 20
448.1202857409681
 30
0.0
  0
VERTEX
  5
5FC
330
5F4
100
AcDbEntity
  8
LAYER3
100
AcDbVertex
100
AcDb2dVertex
 10
168.4926639686489
 20
448.1265489970411
 30
0.0
  0
VERTEX
  5
5FD
330
5F4
100
AcDbEntity
  8
LAYER3
100
AcDbVertex
100
AcDb2dVertex
 10
168.5285537134076
 20
448.1340973292555
 30
0.0
  0
VERTEX
  5
5FE
330
5F4
100
AcDbEntity
  8
LAYER3
100
AcDbVertex
100
AcDb2dVertex
 10
168.5637401233578
 20
448.1429068957533
 30
0.0
  0
VERTEX
  5
5FF
330
5F4
100
AcDbEntity
  8
LAYER3
100
AcDbVertex
100
AcDb2dVertex
 10
168.5981427322293
 20
448.1528894816602
 30
0.0
  0
VERTEX
  5
600
330
5F4
100
AcDbEntity
  8
LAYER3
100
AcDbVertex
100
AcDb2dVertex
 10
168.631687034216
 20
448.1639401828016
 30
0.0
  0
VERTEX
  5
601
330
5F4
100
AcDbEntity
  8
LAYER3
100
AcDbVertex
100
AcDb2dVertex
 10
168.6642997156048
 20
448.1759517108168
 30
0.0
  0
VERTEX
  5
602
330
5F4
100
AcDbEntity
  8
LAYER3
100
AcDbVertex
100
AcDb2dVertex
 10
168.695905078497
 20
448.1888191615309
 30
0.0
  0
VERTEX
  5
603
330
5F4
100
AcDbEntity
  8
LAYER3
100
AcDbVertex
100
AcDb2dVertex
 10
168.7264286170864
 20
448.2024352465834
 30
0.0
  0
VERTEX
  5
604
330
5F4
100
AcDbEntity
  8
LAYER3
100
AcDbVertex
100
AcDb2dVertex
 10
168.7557964216137
 20
448.2166926776137
 30
0.0
  0
VERTEX
  5
605
330
5F4
100
AcDbEntity
  8
LAYER3
100
AcDbVertex
100
AcDb2dVertex
 10
168.7839321981335
 20
448.2314889346326
 30
0.0
  0
VERTEX
  5
606
330
5F4
100
AcDbEntity
  8
LAYER3
100
AcDbVertex
100
AcDb2dVertex
 10
168.810764421072
 20
448.2467167292798
 30
0.0
  0
VERTEX
  5
607
330
5F4
100
AcDbEntity
  8
LAYER3
100
AcDbVertex
100
AcDb2dVertex
 10
168.8367055545711
 20
448.2625310336317
 30
0.0
  0
VERTEX
  5
608
330
5F4
100
AcDbEntity
  8
LAYER3
100
AcDbVertex
100
AcDb2dVertex
 10
168.8620953451061
 20
448.2790915881361
 30
0.0
  0
VERTEX
  5
609
330
5F4
100
AcDbEntity
  8
LAYER3
100
AcDbVertex
100
AcDb2dVertex
 10
168.8869117389583
 20
448.2963673983777
 30
0.0
  0
VERTEX
  5
60A
330
5F4
100
AcDbEntity
  8
LAYER3
100
AcDbVertex
100
AcDb2dVertex
 10
168.9111332784557
 20
448.3143346224989
 30
0.0
  0
VERTEX
  5
60B
330
5F4
100
AcDbEntity
  8
LAYER3
100
AcDbVertex
100
AcDb2dVertex
 10
168.9347379098796
 20
448.3329694186415
 30
0.0
  0
VERTEX
  5
60C
330
5F4
100
AcDbEntity
  8
LAYER3
100
AcDbVertex
100
AcDb2dVertex
 10
168.9577035795116
 20
448.3522455607618
 30
0.0
  0
VERTEX
  5
60D
330
5F4
100
AcDbEntity
  8
LAYER3
100
AcDbVertex
100
AcDb2dVertex
 10
168.9800088296794
 20
448.3721368228162
 30
0.0
  0
SEQEND
  5
60E
330
5F4
100
AcDbEntity
  8
LAYER3
  0
POLYLINE
  5
60F
330
2
100
AcDbEntity
  8
LAYER3
100
AcDb2dPolyline
 66
     1
 10
0.0
 20
0.0
 30
0.0
 70
   128
  0
VERTEX
  5
610
330
60F
100
AcDbEntity
  8
LAYER3
100
AcDbVertex
100
AcDb2dVertex
 10
168.9800088296794
 20
448.3721368228162
 30
0.0
  0
VERTEX
  5
611
330
60F
100
AcDbEntity
  8
LAYER3
100
AcDbVertex
100
AcDb2dVertex
 10
169.0826748500728
 20
448.4574644480909
 30
0.0
  0
VERTEX
  5
612
330
60F
100
AcDbEntity
  8
LAYER3
100
AcDbVertex
100
AcDb2dVertex
 10
169.1945348869227
 20
448.5330312167372
 30
0.0
  0
VERTEX
  5
613
330
60F
100
AcDbEntity
  8
LAYER3
100
AcDbVertex
100
AcDb2dVertex
 10
169.3145810256861
 20
448.59770702469
 30
0.0
  0
VERTEX
  5
614
330
60F
100
AcDbEntity
  8
LAYER3
100
AcDbVertex
100
AcDb2dVertex
 10
169.4424043784998
 20
448.6505477343763
 30
0.0
  0
VERTEX
  5
615
330
60F
100
AcDbEntity
  8
LAYER3
100
AcDbVertex
100
AcDb2dVertex
 10
169.5846007953546
 20
448.6922328387464
 30
0.0
  0
VERTEX
  5
616
330
60F
100
AcDbEntity
  8
LAYER3
100
AcDbVertex
100
AcDb2dVertex
 10
169.738998282995
 20
448.7193195735182
 30
0.0
  0
VERTEX
  5
617
330
60F
100
AcDbEntity
  8
LAYER3
100
AcDbVertex
100
AcDb2dVertex
 10
169.8997406850717
 20
448.7279980097975
 30
0.0
  0
VERTEX
  5
618
330
60F
100
AcDbEntity
  8
LAYER3
100
AcDbVertex
100
AcDb2dVertex
 10
170.0596188197991
 20
448.7179272090162
 30
0.0
  0
VERTEX
  5
619
330
60F
100
AcDbEntity
  8
LAYER3
100
AcDbVertex
100
AcDb2dVertex
 10
170.2188210378548
 20
448.6882893954481
 30
0.0
  0
VERTEX
  5
61A
330
60F
100
AcDbEntity
  8
LAYER3
100
AcDbVertex
100
AcDb2dVertex
 10
170.3834341655633
 20
448.6361782466139
 30
0.0
  0
VERTEX
  5
61B
330
60F
100
AcDbEntity
  8
LAYER3
100
AcDbVertex
100
AcDb2dVertex
 10
170.5427466522118
 20
448.5616772090162
 30
0.0
  0
VERTEX
  5
61C
330
60F
100
AcDbEntity
  8
LAYER3
100
AcDbVertex
100
AcDb2dVertex
 10
170.6870751272103
 20
448.4703724299635
 30
0.0
  0
VERTEX
  5
61D
330
60F
100
AcDbEntity
  8
LAYER3
100
AcDbVertex
100
AcDb2dVertex
 10
170.8185123096368
 20
448.3613221560682
 30
0.0
  0
VERTEX
  5
61E
330
60F
100
AcDbEntity
  8
LAYER3
100
AcDbVertex
100
AcDb2dVertex
 10
170.9385971914193
 20
448.2328288470472
 30
0.0
  0
VERTEX
  5
61F
330
60F
100
AcDbEntity
  8
LAYER3
100
AcDbVertex
100
AcDb2dVertex
 10
171.0390262494942
 20
448.0923764620984
 30
0.0
  0
VERTEX
  5
620
330
60F
100
AcDbEntity
  8
LAYER3
100
AcDbVertex
100
AcDb2dVertex
 10
171.1164103637597
 20
447.9501240168775
 30
0.0
  0
VERTEX
  5
621
330
60F
100
AcDbEntity
  8
LAYER3
100
AcDbVertex
100
AcDb2dVertex
 10
171.1753933320901
 20
447.8011839305128
 30
0.0
  0
VERTEX
  5
622
330
60F
100
AcDbEntity
  8
LAYER3
100
AcDbVertex
100
AcDb2dVertex
 10
171.2168102155588
 20
447.6456253443922
 30
0.0
  0
VERTEX
  5
623
330
60F
100
AcDbEntity
  8
LAYER3
100
AcDbVertex
100
AcDb2dVertex
 10
171.2387608180902
 20
447.4904148493971
 30
0.0
  0
VERTEX
  5
624
330
60F
100
AcDbEntity
  8
LAYER3
100
AcDbVertex
100
AcDb2dVertex
 10
171.2430565248392
 20
447.3422973071302
 30
0.0
  0
VERTEX
  5
625
330
60F
100
AcDbEntity
  8
LAYER3
100
AcDbVertex
100
AcDb2dVertex
 10
171.232301462736
 20
447.2044007693495
 30
0.0
  0
VERTEX
  5
626
330
60F
100
AcDbEntity
  8
LAYER3
100
AcDbVertex
100
AcDb2dVertex
 10
171.2078885923289
 20
447.0702450190748
 30
0.0
  0
VERTEX
  5
627
330
60F
100
AcDbEntity
  8
LAYER3
100
AcDbVertex
100
AcDb2dVertex
 10
171.1705868135356
 20
446.9405071650709
 30
0.0
  0
VERTEX
  5
628
330
60F
100
AcDbEntity
  8
LAYER3
100
AcDbVertex
100
AcDb2dVertex
 10
171.1211620460414
 20
446.8164985095228
 30
0.0
  0
SEQEND
  5
629
330
60F
100
AcDbEntity
  8
LAYER3
  0
POLYLINE
  5
62A
330
2
100
AcDbEntity
  8
LAYER3
100
AcDb2dPolyline
 66
     1
 10
0.0
 20
0.0
 30
0.0
 70
   128
  0
VERTEX
  5
62B
330
62A
100
AcDbEntity
  8
LAYER3
100
AcDbVertex
100
AcDb2dVertex
 10
171.1211620460414
 20
446.8164985095228
 30
0.0
  0
VERTEX
  5
62C
330
62A
100
AcDbEntity
  8
LAYER3
100
AcDbVertex
100
AcDb2dVertex
 10
171.1091362129116
 20
446.7891375933851
 30
0.0
  0
VERTEX
  5
62D
330
62A
100
AcDbEntity
  8
LAYER3
100
AcDbVertex
100
AcDb2dVertex
 10
171.0979007373714
 20
446.7613403712476
 30
0.0
  0
VERTEX
  5
62E
330
62A
100
AcDbEntity
  8
LAYER3
100
AcDbVertex
100
AcDb2dVertex
 10
171.0874723087215
 20
446.7331330691542
 30
0.0
  0
VERTEX
  5
62F
330
62A
100
AcDbEntity
  8
LAYER3
100
AcDbVertex
100
AcDb2dVertex
 10
171.0778682123089
 20
446.7045442973341
 30
0.0
  0
VERTEX
  5
630
330
62A
100
AcDbEntity
  8
LAYER3
100
AcDbVertex
100
AcDb2dVertex
 10
171.0691063295269
 20
446.675602666017
 30
0.0
  0
VERTEX
  5
631
330
62A
100
AcDbEntity
  8
LAYER3
100
AcDbVertex
100
AcDb2dVertex
 10
171.0612033496761
 20
446.646339169618
 30
0.0
  0
VERTEX
  5
632
330
62A
100
AcDbEntity
  8
LAYER3
100
AcDbVertex
100
AcDb2dVertex
 10
171.0541783462429
 20
446.616780034181
 30
0.0
  0
VERTEX
  5
633
330
62A
100
AcDbEntity
  8
LAYER3
100
AcDbVertex
100
AcDb2dVertex
 10
171.0479878078365
 20
446.5865557109083
 30
0.0
  0
VERTEX
  5
634
330
62A
100
AcDbEntity
  8
LAYER3
100
AcDbVertex
100
AcDb2dVertex
 10
171.0426108728313
 20
446.5552251254286
 30
0.0
  0
VERTEX
  5
635
330
62A
100
AcDbEntity
  8
LAYER3
100
AcDbVertex
100
AcDb2dVertex
 10
171.0381250272655
 20
446.522888413545
 30
0.0
  0
VERTEX
  5
636
330
62A
100
AcDbEntity
  8
LAYER3
100
AcDbVertex
100
AcDb2dVertex
 10
171.0346077571774
 20
446.4896504794324
 30
0.0
  0
VERTEX
  5
637
330
62A
100
AcDbEntity
  8
LAYER3
100
AcDbVertex
100
AcDb2dVertex
 10
171.0321377406979
 20
446.4556162272657
 30
0.0
  0
VERTEX
  5
638
330
62A
100
AcDbEntity
  8
LAYER3
100
AcDbVertex
100
AcDb2dVertex
 10
171.0307912717724
 20
446.4208881770338
 30
0.0
  0
VERTEX
  5
639
330
62A
100
AcDbEntity
  8
LAYER3
100
AcDbVertex
100
AcDb2dVertex
 10
171.0306476245785
 20
446.3855712329115
 30
0.0
  0
VERTEX
  5
63A
330
62A
100
AcDbEntity
  8
LAYER3
100
AcDbVertex
100
AcDb2dVertex
 10
171.0317836891079
 20
446.3497679148878
 30
0.0
  0
VERTEX
  5
63B
330
62A
100
AcDbEntity
  8
LAYER3
100
AcDbVertex
100
AcDb2dVertex
 10
171.0342793355847
 20
446.3135807429518
 30
0.0
  0
VERTEX
  5
63C
330
62A
100
AcDbEntity
  8
LAYER3
100
AcDbVertex
100
AcDb2dVertex
 10
171.0381905923748
 20
446.2771146212782
 30
0.0
  0
VERTEX
  5
63D
330
62A
100
AcDbEntity
  8
LAYER3
100
AcDbVertex
100
AcDb2dVertex
 10
171.0435007701779
 20
446.2405030642713
 30
0.0
  0
VERTEX
  5
63E
330
62A
100
AcDbEntity
  8
LAYER3
100
AcDbVertex
100
AcDb2dVertex
 10
171.0501878152752
 20
446.2038819705213
 30
0.0
  0
VERTEX
  5
63F
330
62A
100
AcDbEntity
  8
LAYER3
100
AcDbVertex
100
AcDb2dVertex
 10
171.0582290779019
 20
446.1673872386183
 30
0.0
  0
VERTEX
  5
640
330
62A
100
AcDbEntity
  8
LAYER3
100
AcDbVertex
100
AcDb2dVertex
 10
171.0676007162
 20
446.1311571513379
 30
0.0
  0
VERTEX
  5
641
330
62A
100
AcDbEntity
  8
LAYER3
100
AcDbVertex
100
AcDb2dVertex
 10
171.0782806764508
 20
446.0953276072706
 30
0.0
  0
VERTEX
  5
642
330
62A
100
AcDbEntity
  8
LAYER3
100
AcDbVertex
100
AcDb2dVertex
 10
171.090245712843
 20
446.0600321208204
 30
0.0
  0
VERTEX
  5
643
330
62A
100
AcDbEntity
  8
LAYER3
100
AcDbVertex
100
AcDb2dVertex
 10
171.1034731756116
 20
446.0254113589491
 30
0.0
  0
SEQEND
  5
644
330
62A
100
AcDbEntity
  8
LAYER3
  0
ARC
  5
645
330
2
100
AcDbEntity
  8
LAYER3
100
AcDbCircle
 10
167.9979577453347
 20
444.7691187916655
 30
0.0
 40
3.349999999999622
100
AcDbArc
 50
13.97488305082516
 51
22.02511694917544
  0
POLYLINE
  5
646
330
2
100
AcDbEntity
  8
LAYER3
100
AcDb2dPolyline
 66
     1
 10
0.0
 20
0.0
 30
0.0
 70
   128
  0
VERTEX
  5
647
330
646
100
AcDbEntity
  8
LAYER3
100
AcDbVertex
100
AcDb2dVertex
 10
171.2488036046887
 20
445.5781309519972
 30
0.0
  0
VERTEX
  5
648
330
646
100
AcDbEntity
  8
LAYER3
100
AcDbVertex
100
AcDb2dVertex
 10
171.2584518085385
 20
445.5423490916456
 30
0.0
  0
VERTEX
  5
649
330
646
100
AcDbEntity
  8
LAYER3
100
AcDbVertex
100
AcDb2dVertex
 10
171.2695174108411
 20
445.5067627345289
 30
0.0
  0
VERTEX
  5
64A
330
646
100
AcDbEntity
  8
LAYER3
100
AcDbVertex
100
AcDb2dVertex
 10
171.2819378267194
 20
445.471498242494
 30
0.0
  0
VERTEX
  5
64B
330
646
100
AcDbEntity
  8
LAYER3
100
AcDbVertex
100
AcDb2dVertex
 10
171.2956516633893
 20
445.4366772090162
 30
0.0
  0
VERTEX
  5
64C
330
646
100
AcDbEntity
  8
LAYER3
100
AcDbVertex
100
AcDb2dVertex
 10
171.3105969320202
 20
445.4024259959425
 30
0.0
  0
VERTEX
  5
64D
330
646
100
AcDbEntity
  8
LAYER3
100
AcDbVertex
100
AcDb2dVertex
 10
171.3267122398282
 20
445.3688685809339
 30
0.0
  0
VERTEX
  5
64E
330
646
100
AcDbEntity
  8
LAYER3
100
AcDbVertex
100
AcDb2dVertex
 10
171.3439355979824
 20
445.3361289416517
 30
0.0
  0
VERTEX
  5
64F
330
646
100
AcDbEntity
  8
LAYER3
100
AcDbVertex
100
AcDb2dVertex
 10
171.362205613699
 20
445.3043286715711
 30
0.0
  0
VERTEX
  5
650
330
646
100
AcDbEntity
  8
LAYER3
100
AcDbVertex
100
AcDb2dVertex
 10
171.3814567218685
 20
445.273584595796
 30
0.0
  0
VERTEX
  5
651
330
646
100
AcDbEntity
  8
LAYER3
100
AcDbVertex
100
AcDb2dVertex
 10
171.401582230177
 20
445.2439515505995
 30
0.0
  0
VERTEX
  5
652
330
646
100
AcDbEntity
  8
LAYER3
100
AcDbVertex
100
AcDb2dVertex
 10
171.4224575649167
 20
445.2154629145826
 30
0.0
  0
VERTEX
  5
653
330
646
100
AcDbEntity
  8
LAYER3
100
AcDbVertex
100
AcDb2dVertex
 10
171.4439593444729
 20
445.1881592189039
 30
0.0
  0
VERTEX
  5
654
330
646
100
AcDbEntity
  8
LAYER3
100
AcDbVertex
100
AcDb2dVertex
 10
171.4659629951382
 20
445.1620762263502
 30
0.0
  0
VERTEX
  5
655
330
646
100
AcDbEntity
  8
LAYER3
100
AcDbVertex
100
AcDb2dVertex
 10
171.4883451352978
 20
445.13725446808
 30
0.0
  0
VERTEX
  5
656
330
646
100
AcDbEntity
  8
LAYER3
100
AcDbVertex
100
AcDb2dVertex
 10
171.5109811912441
 20
445.1137297068799
 30
0.0
  0
VERTEX
  5
657
330
646
100
AcDbEntity
  8
LAYER3
100
AcDbVertex
100
AcDb2dVertex
 10
171.5337465892696
 20
445.0915424739088
 30
0.0
  0
VERTEX
  5
658
330
646
100
AcDbEntity
  8
LAYER3
100
AcDbVertex
100
AcDb2dVertex
 10
171.5565203319454
 20
445.070730916139
 30
0.0
  0
VERTEX
  5
659
330
646
100
AcDbEntity
  8
LAYER3
100
AcDbVertex
100
AcDb2dVertex
 10
171.5795777927303
 20
445.0509469424452
 30
0.0
  0
VERTEX
  5
65A
330
646
100
AcDbEntity
  8
LAYER3
100
AcDbVertex
100
AcDb2dVertex
 10
171.6031728874111
 20
445.0319163714612
 30
0.0
  0
VERTEX
  5
65B
330
646
100
AcDbEntity
  8
LAYER3
100
AcDbVertex
100
AcDb2dVertex
 10
171.6272722373867
 20
445.0136535083021
 30
0.0
  0
VERTEX
  5
65C
330
646
100
AcDbEntity
  8
LAYER3
100
AcDbVertex
100
AcDb2dVertex
 10
171.6518448482418
 20
444.9961702738966
 30
0.0
  0
VERTEX
  5
65D
330
646
100
AcDbEntity
  8
LAYER3
100
AcDbVertex
100
AcDb2dVertex
 10
171.6768621097469
 20
444.9794785891737
 30
0.0
  0
VERTEX
  5
65E
330
646
100
AcDbEntity
  8
LAYER3
100
AcDbVertex
100
AcDb2dVertex
 10
171.7022918353939
 20
444.9635927592481
 30
0.0
  0
VERTEX
  5
65F
330
646
100
AcDbEntity
  8
LAYER3
100
AcDbVertex
100
AcDb2dVertex
 10
171.7281030307674
 20
444.9485270892347
 30
0.0
  0
SEQEND
  5
660
330
646
100
AcDbEntity
  8
LAYER3
  0
POLYLINE
  5
661
330
2
100
AcDbEntity
  8
LAYER3
100
AcDb2dPolyline
 66
     1
 10
0.0
 20
0.0
 30
0.0
 70
   128
  0
VERTEX
  5
662
330
661
100
AcDbEntity
  8
LAYER3
100
AcDbVertex
100
AcDb2dVertex
 10
171.7281030307674
 20
444.9485270892347
 30
0.0
  0
VERTEX
  5
663
330
661
100
AcDbEntity
  8
LAYER3
100
AcDbVertex
100
AcDb2dVertex
 10
171.8409787307643
 20
444.8772542391981
 30
0.0
  0
VERTEX
  5
664
330
661
100
AcDbEntity
  8
LAYER3
100
AcDbVertex
100
AcDb2dVertex
 10
171.9474135528468
 20
444.7942202006544
 30
0.0
  0
VERTEX
  5
665
330
661
100
AcDbEntity
  8
LAYER3
100
AcDbVertex
100
AcDb2dVertex
 10
172.0460199008845
 20
444.7000353251661
 30
0.0
  0
VERTEX
  5
666
330
661
100
AcDbEntity
  8
LAYER3
100
AcDbVertex
100
AcDb2dVertex
 10
172.1357737670801
 20
444.5947949801649
 30
0.0
  0
VERTEX
  5
667
330
661
100
AcDbEntity
  8
LAYER3
100
AcDbVertex
100
AcDb2dVertex
 10
172.2193597446344
 20
444.4724409495558
 30
0.0
  0
VERTEX
  5
668
330
661
100
AcDbEntity
  8
LAYER3
100
AcDbVertex
100
AcDb2dVertex
 10
172.2928331981561
 20
444.3339698229993
 30
0.0
  0
VERTEX
  5
669
330
661
100
AcDbEntity
  8
LAYER3
100
AcDbVertex
100
AcDb2dVertex
 10
172.3507593761346
 20
444.1837780390943
 30
0.0
  0
VERTEX
  5
66A
330
661
100
AcDbEntity
  8
LAYER3
100
AcDbVertex
100
AcDb2dVertex
 10
172.3905871997735
 20
444.0286128436293
 30
0.0
  0
VERTEX
  5
66B
330
661
100
AcDbEntity
  8
LAYER3
100
AcDbVertex
100
AcDb2dVertex
 10
172.411595452871
 20
443.8680426989759
 30
0.0
  0
VERTEX
  5
66C
330
661
100
AcDbEntity
  8
LAYER3
100
AcDbVertex
100
AcDb2dVertex
 10
172.4129031787774
 20
443.6953823481764
 30
0.0
  0
VERTEX
  5
66D
330
661
100
AcDbEntity
  8
LAYER3
100
AcDbVertex
100
AcDb2dVertex
 10
172.3912786136528
 20
443.5208456431593
 30
0.0
  0
VERTEX
  5
66E
330
661
100
AcDbEntity
  8
LAYER3
100
AcDbVertex
100
AcDb2dVertex
 10
172.3490415702721
 20
443.3553664599623
 30
0.0
  0
VERTEX
  5
66F
330
661
100
AcDbEntity
  8
LAYER3
100
AcDbVertex
100
AcDb2dVertex
 10
172.2859452854057
 20
443.1966631327833
 30
0.0
  0
VERTEX
  5
670
330
661
100
AcDbEntity
  8
LAYER3
100
AcDbVertex
100
AcDb2dVertex
 10
172.2008489261529
 20
443.0427496348585
 30
0.0
  0
VERTEX
  5
671
330
661
100
AcDbEntity
  8
LAYER3
100
AcDbVertex
100
AcDb2dVertex
 10
172.0983050952813
 20
442.9038326655592
 30
0.0
  0
VERTEX
  5
672
330
661
100
AcDbEntity
  8
LAYER3
100
AcDbVertex
100
AcDb2dVertex
 10
171.986927856054
 20
442.7862780009474
 30
0.0
  0
VERTEX
  5
673
330
661
100
AcDbEntity
  8
LAYER3
100
AcDbVertex
100
AcDb2dVertex
 10
171.8635033260247
 20
442.6841561709608
 30
0.0
  0
VERTEX
  5
674
330
661
100
AcDbEntity
  8
LAYER3
100
AcDbVertex
100
AcDb2dVertex
 10
171.7283593307397
 20
442.5966970835889
 30
0.0
  0
VERTEX
  5
675
330
661
100
AcDbEntity
  8
LAYER3
100
AcDbVertex
100
AcDb2dVertex
 10
171.5875278602502
 20
442.527858487245
 30
0.0
  0
VERTEX
  5
676
330
661
100
AcDbEntity
  8
LAYER3
100
AcDbVertex
100
AcDb2dVertex
 10
171.4479856382273
 20
442.478002778169
 30
0.0
  0
VERTEX
  5
677
330
661
100
AcDbEntity
  8
LAYER3
100
AcDbVertex
100
AcDb2dVertex
 10
171.3135151754283
 20
442.4456183825697
 30
0.0
  0
VERTEX
  5
678
330
661
100
AcDbEntity
  8
LAYER3
100
AcDbVertex
100
AcDb2dVertex
 10
171.1783807168864
 20
442.4273793612684
 30
0.0
  0
VERTEX
  5
679
330
661
100
AcDbEntity
  8
LAYER3
100
AcDbVertex
100
AcDb2dVertex
 10
171.0434667955302
 20
442.4227659617628
 30
0.0
  0
VERTEX
  5
67A
330
661
100
AcDbEntity
  8
LAYER3
100
AcDbVertex
100
AcDb2dVertex
 10
170.9102551828288
 20
442.4314515505995
 30
0.0
  0
SEQEND
  5
67B
330
661
100
AcDbEntity
  8
LAYER3
  0
POLYLINE
  5
67C
330
2
100
AcDbEntity
  8
LAYER3
100
AcDb2dPolyline
 66
     1
 10
0.0
 20
0.0
 30
0.0
 70
   128
  0
VERTEX
  5
67D
330
67C
100
AcDbEntity
  8
LAYER3
100
AcDbVertex
100
AcDb2dVertex
 10
170.9102551828288
 20
442.4314515505995
 30
0.0
  0
VERTEX
  5
67E
330
67C
100
AcDbEntity
  8
LAYER3
100
AcDbVertex
100
AcDb2dVertex
 10
170.880517829504
 20
442.4344317828382
 30
0.0
  0
VERTEX
  5
67F
330
67C
100
AcDbEntity
  8
LAYER3
100
AcDbVertex
100
AcDb2dVertex
 10
170.8506076227092
 20
442.4365274821485
 30
0.0
  0
VERTEX
  5
680
330
67C
100
AcDbEntity
  8
LAYER3
100
AcDbVertex
100
AcDb2dVertex
 10
170.8205579410457
 20
442.4377291117872
 30
0.0
  0
VERTEX
  5
681
330
67C
100
AcDbEntity
  8
LAYER3
100
AcDbVertex
100
AcDb2dVertex
 10
170.7904009710216
 20
442.4380295191968
 30
0.0
  0
VERTEX
  5
682
330
67C
100
AcDbEntity
  8
LAYER3
100
AcDbVertex
100
AcDb2dVertex
 10
170.7601694951915
 20
442.4374191676344
 30
0.0
  0
VERTEX
  5
683
330
67C
100
AcDbEntity
  8
LAYER3
100
AcDbVertex
100
AcDb2dVertex
 10
170.7298957000637
 20
442.4358909045423
 30
0.0
  0
VERTEX
  5
684
330
67C
100
AcDbEntity
  8
LAYER3
100
AcDbVertex
100
AcDb2dVertex
 10
170.6996129642391
 20
442.4334399615491
 30
0.0
  0
VERTEX
  5
685
330
67C
100
AcDbEntity
  8
LAYER3
100
AcDbVertex
100
AcDb2dVertex
 10
170.6689547191524
 20
442.4299876605238
 30
0.0
  0
VERTEX
  5
686
330
67C
100
AcDbEntity
  8
LAYER3
100
AcDbVertex
100
AcDb2dVertex
 10
170.63749538764
 20
442.4254195605482
 30
0.0
  0
VERTEX
  5
687
330
67C
100
AcDbEntity
  8
LAYER3
100
AcDbVertex
100
AcDb2dVertex
 10
170.6053553710842
 20
442.4196927462782
 30
0.0
  0
VERTEX
  5
688
330
67C
100
AcDbEntity
  8
LAYER3
100
AcDbVertex
100
AcDb2dVertex
 10
170.5726580510998
 20
442.4127666865553
 30
0.0
  0
VERTEX
  5
689
330
67C
100
AcDbEntity
  8
LAYER3
100
AcDbVertex
100
AcDb2dVertex
 10
170.5395256172085
 20
442.4045984660352
 30
0.0
  0
VERTEX
  5
68A
330
67C
100
AcDbEntity
  8
LAYER3
100
AcDbVertex
100
AcDb2dVertex
 10
170.506081451025
 20
442.3951475535597
 30
0.0
  0
VERTEX
  5
68B
330
67C
100
AcDbEntity
  8
LAYER3
100
AcDbVertex
100
AcDb2dVertex
 10
170.4724477420712
 20
442.3843710337843
 30
0.0
  0
VERTEX
  5
68C
330
67C
100
AcDbEntity
  8
LAYER3
100
AcDbVertex
100
AcDb2dVertex
 10
170.4387478719616
 20
442.3722259913648
 30
0.0
  0
VERTEX
  5
68D
330
67C
100
AcDbEntity
  8
LAYER3
100
AcDbVertex
100
AcDb2dVertex
 10
170.4051034341717
 20
442.3586695109571
 30
0.0
  0
VERTEX
  5
68E
330
67C
100
AcDbEntity
  8
LAYER3
100
AcDbVertex
100
AcDb2dVertex
 10
170.3716312538052
 20
442.3436825190748
 30
0.0
  0
VERTEX
  5
68F
330
67C
100
AcDbEntity
  8
LAYER3
100
AcDbVertex
100
AcDb2dVertex
 10
170.338452328291
 20
442.3273174678053
 30
0.0
  0
VERTEX
  5
690
330
67C
100
AcDbEntity
  8
LAYER3
100
AcDbVertex
100
AcDb2dVertex
 10
170.3056900392437
 20
442.3096411143506
 30
0.0
  0
VERTEX
  5
691
330
67C
100
AcDbEntity
  8
LAYER3
100
AcDbVertex
100
AcDb2dVertex
 10
170.2734665761853
 20
442.2907178317274
 30
0.0
  0
VERTEX
  5
692
330
67C
100
AcDbEntity
  8
LAYER3
100
AcDbVertex
100
AcDb2dVertex
 10
170.2419053207303
 20
442.2706072245802
 30
0.0
  0
VERTEX
  5
693
330
67C
100
AcDbEntity
  8
LAYER3
100
AcDbVertex
100
AcDb2dVertex
 10
170.211129058447
 20
442.249378434297
 30
0.0
  0
VERTEX
  5
694
330
67C
100
AcDbEntity
  8
LAYER3
100
AcDbVertex
100
AcDb2dVertex
 10
170.1812599788571
 20
442.2270934497084
 30
0.0
  0
VERTEX
  5
695
330
67C
100
AcDbEntity
  8
LAYER3
100
AcDbVertex
100
AcDb2dVertex
 10
170.152420867529
 20
442.2038142596449
 30
0.0
  0
SEQEND
  5
696
330
67C
100
AcDbEntity
  8
LAYER3
  0
POLYLINE
  5
697
330
2
100
AcDbEntity
  8
LAYER3
100
AcDb2dPolyline
 66
     1
 10
0.0
 20
0.0
 30
0.0
 70
   128
  0
VERTEX
  5
698
330
697
100
AcDbEntity
  8
LAYER3
100
AcDbVertex
100
AcDb2dVertex
 10
164.8747535239124
 20
446.8164985095228
 30
0.0
  0
VERTEX
  5
699
330
697
100
AcDbEntity
  8
LAYER3
100
AcDbVertex
100
AcDb2dVertex
 10
164.8253290544414
 20
446.9405071650709
 30
0.0
  0
VERTEX
  5
69A
330
697
100
AcDbEntity
  8
LAYER3
100
AcDbVertex
100
AcDb2dVertex
 10
164.788027275648
 20
447.0702450190748
 30
0.0
  0
VERTEX
  5
69B
330
697
100
AcDbEntity
  8
LAYER3
100
AcDbVertex
100
AcDb2dVertex
 10
164.7636138091944
 20
447.2044007693495
 30
0.0
  0
VERTEX
  5
69C
330
697
100
AcDbEntity
  8
LAYER3
100
AcDbVertex
100
AcDb2dVertex
 10
164.7528590451143
 20
447.3422973071302
 30
0.0
  0
VERTEX
  5
69D
330
697
100
AcDbEntity
  8
LAYER3
100
AcDbVertex
100
AcDb2dVertex
 10
164.75715445384
 20
447.4904148493971
 30
0.0
  0
VERTEX
  5
69E
330
697
100
AcDbEntity
  8
LAYER3
100
AcDbVertex
100
AcDb2dVertex
 10
164.7791050563715
 20
447.6456253443922
 30
0.0
  0
VERTEX
  5
69F
330
697
100
AcDbEntity
  8
LAYER3
100
AcDbVertex
100
AcDb2dVertex
 10
164.8205219398401
 20
447.8011839305128
 30
0.0
  0
VERTEX
  5
6A0
330
697
100
AcDbEntity
  8
LAYER3
100
AcDbVertex
100
AcDb2dVertex
 10
164.8795052061936
 20
447.9501240168775
 30
0.0
  0
VERTEX
  5
6A1
330
697
100
AcDbEntity
  8
LAYER3
100
AcDbVertex
100
AcDb2dVertex
 10
164.9568893204591
 20
448.0923764620984
 30
0.0
  0
VERTEX
  5
6A2
330
697
100
AcDbEntity
  8
LAYER3
100
AcDbVertex
100
AcDb2dVertex
 10
165.0573180805108
 20
448.2328288470472
 30
0.0
  0
VERTEX
  5
6A3
330
697
100
AcDbEntity
  8
LAYER3
100
AcDbVertex
100
AcDb2dVertex
 10
165.1774032603166
 20
448.3613221560682
 30
0.0
  0
VERTEX
  5
6A4
330
697
100
AcDbEntity
  8
LAYER3
100
AcDbVertex
100
AcDb2dVertex
 10
165.3088401447197
 20
448.4703724299635
 30
0.0
  0
VERTEX
  5
6A5
330
697
100
AcDbEntity
  8
LAYER3
100
AcDbVertex
100
AcDb2dVertex
 10
165.4531689177415
 20
448.5616772090162
 30
0.0
  0
VERTEX
  5
6A6
330
697
100
AcDbEntity
  8
LAYER3
100
AcDbVertex
100
AcDb2dVertex
 10
165.61248140439
 20
448.6361782466139
 30
0.0
  0
VERTEX
  5
6A7
330
697
100
AcDbEntity
  8
LAYER3
100
AcDbVertex
100
AcDb2dVertex
 10
165.7770942340752
 20
448.6882893954481
 30
0.0
  0
VERTEX
  5
6A8
330
697
100
AcDbEntity
  8
LAYER3
100
AcDbVertex
100
AcDb2dVertex
 10
165.9362967501542
 20
448.7179272090162
 30
0.0
  0
VERTEX
  5
6A9
330
697
100
AcDbEntity
  8
LAYER3
100
AcDbVertex
100
AcDb2dVertex
 10
166.0961748848817
 20
448.7279980097975
 30
0.0
  0
VERTEX
  5
6AA
330
697
100
AcDbEntity
  8
LAYER3
100
AcDbVertex
100
AcDb2dVertex
 10
166.2569169889352
 20
448.7193195735182
 30
0.0
  0
VERTEX
  5
6AB
330
697
100
AcDbEntity
  8
LAYER3
100
AcDbVertex
100
AcDb2dVertex
 10
166.4113144765756
 20
448.6922328387464
 30
0.0
  0
VERTEX
  5
6AC
330
697
100
AcDbEntity
  8
LAYER3
100
AcDbVertex
100
AcDb2dVertex
 10
166.5535108934305
 20
448.6505477343763
 30
0.0
  0
VERTEX
  5
6AD
330
697
100
AcDbEntity
  8
LAYER3
100
AcDbVertex
100
AcDb2dVertex
 10
166.6813348422907
 20
448.59770702469
 30
0.0
  0
VERTEX
  5
6AE
330
697
100
AcDbEntity
  8
LAYER3
100
AcDbVertex
100
AcDb2dVertex
 10
166.8013809810542
 20
448.5330312167372
 30
0.0
  0
VERTEX
  5
6AF
330
697
100
AcDbEntity
  8
LAYER3
100
AcDbVertex
100
AcDb2dVertex
 10
166.9132410179042
 20
448.4574644480909
 30
0.0
  0
VERTEX
  5
6B0
330
697
100
AcDbEntity
  8
LAYER3
100
AcDbVertex
100
AcDb2dVertex
 10
167.0159064422511
 20
448.3721368228162
 30
0.0
  0
SEQEND
  5
6B1
330
697
100
AcDbEntity
  8
LAYER3
  0
POLYLINE
  5
6B2
330
2
100
AcDbEntity
  8
LAYER3
100
AcDb2dPolyline
 66
     1
 10
0.0
 20
0.0
 30
0.0
 70
   128
  0
VERTEX
  5
6B3
330
6B2
100
AcDbEntity
  8
LAYER3
100
AcDbVertex
100
AcDb2dVertex
 10
164.8924423943425
 20
446.0254113589491
 30
0.0
  0
VERTEX
  5
6B4
330
6B2
100
AcDbEntity
  8
LAYER3
100
AcDbVertex
100
AcDb2dVertex
 10
164.9056695590878
 20
446.0600321208204
 30
0.0
  0
VERTEX
  5
6B5
330
6B2
100
AcDbEntity
  8
LAYER3
100
AcDbVertex
100
AcDb2dVertex
 10
164.91763459548
 20
446.0953276072706
 30
0.0
  0
VERTEX
  5
6B6
330
6B2
100
AcDbEntity
  8
LAYER3
100
AcDbVertex
100
AcDb2dVertex
 10
164.9283145557309
 20
446.1311571513379
 30
0.0
  0
VERTEX
  5
6B7
330
6B2
100
AcDbEntity
  8
LAYER3
100
AcDbVertex
100
AcDb2dVertex
 10
164.9376864920521
 20
446.1673872386183
 30
0.0
  0
VERTEX
  5
6B8
330
6B2
100
AcDbEntity
  8
LAYER3
100
AcDbVertex
100
AcDb2dVertex
 10
164.9457274566555
 20
446.2038819705213
 30
0.0
  0
VERTEX
  5
6B9
330
6B2
100
AcDbEntity
  8
LAYER3
100
AcDbVertex
100
AcDb2dVertex
 10
164.9524145017529
 20
446.2405030642713
 30
0.0
  0
VERTEX
  5
6BA
330
6B2
100
AcDbEntity
  8
LAYER3
100
AcDbVertex
100
AcDb2dVertex
 10
164.9577249775792
 20
446.2771146212782
 30
0.0
  0
VERTEX
  5
6BB
330
6B2
100
AcDbEntity
  8
LAYER3
100
AcDbVertex
100
AcDb2dVertex
 10
164.9616359363461
 20
446.3135807429518
 30
0.0
  0
VERTEX
  5
6BC
330
6B2
100
AcDbEntity
  8
LAYER3
100
AcDbVertex
100
AcDb2dVertex
 10
164.9641318808461
 20
446.3497679148878
 30
0.0
  0
VERTEX
  5
6BD
330
6B2
100
AcDbEntity
  8
LAYER3
100
AcDbVertex
100
AcDb2dVertex
 10
164.9652679453755
 20
446.3855712329115
 30
0.0
  0
VERTEX
  5
6BE
330
6B2
100
AcDbEntity
  8
LAYER3
100
AcDbVertex
100
AcDb2dVertex
 10
164.9651240001583
 20
446.4208881770338
 30
0.0
  0
VERTEX
  5
6BF
330
6B2
100
AcDbEntity
  8
LAYER3
100
AcDbVertex
100
AcDb2dVertex
 10
164.9637778292561
 20
446.4556162272657
 30
0.0
  0
VERTEX
  5
6C0
330
6B2
100
AcDbEntity
  8
LAYER3
100
AcDbVertex
100
AcDb2dVertex
 10
164.9613075147534
 20
446.4896504794324
 30
0.0
  0
VERTEX
  5
6C1
330
6B2
100
AcDbEntity
  8
LAYER3
100
AcDbVertex
100
AcDb2dVertex
 10
164.9577905426883
 20
446.522888413545
 30
0.0
  0
VERTEX
  5
6C2
330
6B2
100
AcDbEntity
  8
LAYER3
100
AcDbVertex
100
AcDb2dVertex
 10
164.9533046971225
 20
446.5552251254286
 30
0.0
  0
VERTEX
  5
6C3
330
6B2
100
AcDbEntity
  8
LAYER3
100
AcDbVertex
100
AcDb2dVertex
 10
164.9479277621174
 20
446.5865557109083
 30
0.0
  0
VERTEX
  5
6C4
330
6B2
100
AcDbEntity
  8
LAYER3
100
AcDbVertex
100
AcDb2dVertex
 10
164.9417375217342
 20
446.616780034181
 30
0.0
  0
VERTEX
  5
6C5
330
6B2
100
AcDbEntity
  8
LAYER3
100
AcDbVertex
100
AcDb2dVertex
 10
164.9347119222545
 20
446.646339169618
 30
0.0
  0
VERTEX
  5
6C6
330
6B2
100
AcDbEntity
  8
LAYER3
100
AcDbVertex
100
AcDb2dVertex
 10
164.9268095384502
 20
446.675602666017
 30
0.0
  0
VERTEX
  5
6C7
330
6B2
100
AcDbEntity
  8
LAYER3
100
AcDbVertex
100
AcDb2dVertex
 10
164.918047357645
 20
446.7045442973341
 30
0.0
  0
VERTEX
  5
6C8
330
6B2
100
AcDbEntity
  8
LAYER3
100
AcDbVertex
100
AcDb2dVertex
 10
164.9084435592556
 20
446.7331330691542
 30
0.0
  0
VERTEX
  5
6C9
330
6B2
100
AcDbEntity
  8
LAYER3
100
AcDbVertex
100
AcDb2dVertex
 10
164.8980148325824
 20
446.7613403712476
 30
0.0
  0
VERTEX
  5
6CA
330
6B2
100
AcDbEntity
  8
LAYER3
100
AcDbVertex
100
AcDb2dVertex
 10
164.886779059019
 20
446.7891375933851
 30
0.0
  0
VERTEX
  5
6CB
330
6B2
100
AcDbEntity
  8
LAYER3
100
AcDbVertex
100
AcDb2dVertex
 10
164.8747535239124
 20
446.8164985095228
 30
0.0
  0
SEQEND
  5
6CC
330
6B2
100
AcDbEntity
  8
LAYER3
  0
ARC
  5
6CD
330
2
100
AcDbEntity
  8
LAYER3
100
AcDbCircle
 10
167.9979577453343
 20
444.7691187916654
 30
0.0
 40
3.349999999999992
100
AcDbArc
 50
157.9748830508246
 51
166.0251169491765
  0
POLYLINE
  5
6CE
330
2
100
AcDbEntity
  8
LAYER3
100
AcDb2dPolyline
 66
     1
 10
0.0
 20
0.0
 30
0.0
 70
   128
  0
VERTEX
  5
6CF
330
6CE
100
AcDbEntity
  8
LAYER3
100
AcDbVertex
100
AcDb2dVertex
 10
164.2678125391864
 20
444.9485270892347
 30
0.0
  0
VERTEX
  5
6D0
330
6CE
100
AcDbEntity
  8
LAYER3
100
AcDbVertex
100
AcDb2dVertex
 10
164.2936234365367
 20
444.9635927592481
 30
0.0
  0
VERTEX
  5
6D1
330
6CE
100
AcDbEntity
  8
LAYER3
100
AcDbVertex
100
AcDb2dVertex
 10
164.3190531621837
 20
444.9794785891737
 30
0.0
  0
VERTEX
  5
6D2
330
6CE
100
AcDbEntity
  8
LAYER3
100
AcDbVertex
100
AcDb2dVertex
 10
164.3440701256656
 20
444.9961702738966
 30
0.0
  0
VERTEX
  5
6D3
330
6CE
100
AcDbEntity
  8
LAYER3
100
AcDbVertex
100
AcDb2dVertex
 10
164.3686436305904
 20
445.0136535083021
 30
0.0
  0
VERTEX
  5
6D4
330
6CE
100
AcDbEntity
  8
LAYER3
100
AcDbVertex
100
AcDb2dVertex
 10
164.392742980566
 20
445.0319163714612
 30
0.0
  0
VERTEX
  5
6D5
330
6CE
100
AcDbEntity
  8
LAYER3
100
AcDbVertex
100
AcDb2dVertex
 10
164.4163371811771
 20
445.0509469424452
 30
0.0
  0
VERTEX
  5
6D6
330
6CE
100
AcDbEntity
  8
LAYER3
100
AcDbVertex
100
AcDb2dVertex
 10
164.4393949399852
 20
445.070730916139
 30
0.0
  0
VERTEX
  5
6D7
330
6CE
100
AcDbEntity
  8
LAYER3
100
AcDbVertex
100
AcDb2dVertex
 10
164.462168682661
 20
445.0915424739088
 30
0.0
  0
VERTEX
  5
6D8
330
6CE
100
AcDbEntity
  8
LAYER3
100
AcDbVertex
100
AcDb2dVertex
 10
164.484934676733
 20
445.1137297068799
 30
0.0
  0
VERTEX
  5
6D9
330
6CE
100
AcDbEntity
  8
LAYER3
100
AcDbVertex
100
AcDb2dVertex
 10
164.5075707326793
 20
445.13725446808
 30
0.0
  0
VERTEX
  5
6DA
330
6CE
100
AcDbEntity
  8
LAYER3
100
AcDbVertex
100
AcDb2dVertex
 10
164.5299522767926
 20
445.1620762263502
 30
0.0
  0
VERTEX
  5
6DB
330
6CE
100
AcDbEntity
  8
LAYER3
100
AcDbVertex
100
AcDb2dVertex
 10
164.5519559274579
 20
445.1881592189039
 30
0.0
  0
VERTEX
  5
6DC
330
6CE
100
AcDbEntity
  8
LAYER3
100
AcDbVertex
100
AcDb2dVertex
 10
164.5734577070141
 20
445.2154629145826
 30
0.0
  0
VERTEX
  5
6DD
330
6CE
100
AcDbEntity
  8
LAYER3
100
AcDbVertex
100
AcDb2dVertex
 10
164.594333339777
 20
445.2439515505995
 30
0.0
  0
VERTEX
  5
6DE
330
6CE
100
AcDbEntity
  8
LAYER3
100
AcDbVertex
100
AcDb2dVertex
 10
164.6144588480854
 20
445.273584595796
 30
0.0
  0
VERTEX
  5
6DF
330
6CE
100
AcDbEntity
  8
LAYER3
100
AcDbVertex
100
AcDb2dVertex
 10
164.6337096582318
 20
445.3043286715711
 30
0.0
  0
VERTEX
  5
6E0
330
6CE
100
AcDbEntity
  8
LAYER3
100
AcDbVertex
100
AcDb2dVertex
 10
164.6519796739483
 20
445.3361289416517
 30
0.0
  0
VERTEX
  5
6E1
330
6CE
100
AcDbEntity
  8
LAYER3
100
AcDbVertex
100
AcDb2dVertex
 10
164.6692033301258
 20
445.3688685809339
 30
0.0
  0
VERTEX
  5
6E2
330
6CE
100
AcDbEntity
  8
LAYER3
100
AcDbVertex
100
AcDb2dVertex
 10
164.6853186379338
 20
445.4024259959425
 30
0.0
  0
VERTEX
  5
6E3
330
6CE
100
AcDbEntity
  8
LAYER3
100
AcDbVertex
100
AcDb2dVertex
 10
164.700264204588
 20
445.4366772090162
 30
0.0
  0
VERTEX
  5
6E4
330
6CE
100
AcDbEntity
  8
LAYER3
100
AcDbVertex
100
AcDb2dVertex
 10
164.7139780412579
 20
445.471498242494
 30
0.0
  0
VERTEX
  5
6E5
330
6CE
100
AcDbEntity
  8
LAYER3
100
AcDbVertex
100
AcDb2dVertex
 10
164.726398159113
 20
445.5067627345289
 30
0.0
  0
VERTEX
  5
6E6
330
6CE
100
AcDbEntity
  8
LAYER3
100
AcDbVertex
100
AcDb2dVertex
 10
164.7374637614156
 20
445.5423490916456
 30
0.0
  0
VERTEX
  5
6E7
330
6CE
100
AcDbEntity
  8
LAYER3
100
AcDbVertex
100
AcDb2dVertex
 10
164.7471119652653
 20
445.5781309519972
 30
0.0
  0
SEQEND
  5
6E8
330
6CE
100
AcDbEntity
  8
LAYER3
  0
POLYLINE
  5
6E9
330
2
100
AcDbEntity
  8
LAYER3
100
AcDb2dPolyline
 66
     1
 10
0.0
 20
0.0
 30
0.0
 70
   128
  0
VERTEX
  5
6EA
330
6E9
100
AcDbEntity
  8
LAYER3
100
AcDbVertex
100
AcDb2dVertex
 10
165.0856600891017
 20
442.4314515505995
 30
0.0
  0
VERTEX
  5
6EB
330
6E9
100
AcDbEntity
  8
LAYER3
100
AcDbVertex
100
AcDb2dVertex
 10
164.9524484764003
 20
442.4227659617628
 30
0.0
  0
VERTEX
  5
6EC
330
6E9
100
AcDbEntity
  8
LAYER3
100
AcDbVertex
100
AcDb2dVertex
 10
164.817534555044
 20
442.4273793612684
 30
0.0
  0
VERTEX
  5
6ED
330
6E9
100
AcDbEntity
  8
LAYER3
100
AcDbVertex
100
AcDb2dVertex
 10
164.6824003945254
 20
442.4456183825697
 30
0.0
  0
VERTEX
  5
6EE
330
6E9
100
AcDbEntity
  8
LAYER3
100
AcDbVertex
100
AcDb2dVertex
 10
164.5479299317263
 20
442.478002778169
 30
0.0
  0
VERTEX
  5
6EF
330
6E9
100
AcDbEntity
  8
LAYER3
100
AcDbVertex
100
AcDb2dVertex
 10
164.4083880077265
 20
442.527858487245
 30
0.0
  0
VERTEX
  5
6F0
330
6E9
100
AcDbEntity
  8
LAYER3
100
AcDbVertex
100
AcDb2dVertex
 10
164.2675565372369
 20
442.5966970835889
 30
0.0
  0
VERTEX
  5
6F1
330
6E9
100
AcDbEntity
  8
LAYER3
100
AcDbVertex
100
AcDb2dVertex
 10
164.1324116478822
 20
442.6841561709608
 30
0.0
  0
VERTEX
  5
6F2
330
6E9
100
AcDbEntity
  8
LAYER3
100
AcDbVertex
100
AcDb2dVertex
 10
164.0089871178529
 20
442.7862780009474
 30
0.0
  0
VERTEX
  5
6F3
330
6E9
100
AcDbEntity
  8
LAYER3
100
AcDbVertex
100
AcDb2dVertex
 10
163.8976106236836
 20
442.9038326655592
 30
0.0
  0
VERTEX
  5
6F4
330
6E9
100
AcDbEntity
  8
LAYER3
100
AcDbVertex
100
AcDb2dVertex
 10
163.7950661967656
 20
443.0427496348585
 30
0.0
  0
VERTEX
  5
6F5
330
6E9
100
AcDbEntity
  8
LAYER3
100
AcDbVertex
100
AcDb2dVertex
 10
163.7099702845475
 20
443.1966631327833
 30
0.0
  0
VERTEX
  5
6F6
330
6E9
100
AcDbEntity
  8
LAYER3
100
AcDbVertex
100
AcDb2dVertex
 10
163.6468741486927
 20
443.3553664599623
 30
0.0
  0
VERTEX
  5
6F7
330
6E9
100
AcDbEntity
  8
LAYER3
100
AcDbVertex
100
AcDb2dVertex
 10
163.6046372543237
 20
443.5208456431593
 30
0.0
  0
VERTEX
  5
6F8
330
6E9
100
AcDbEntity
  8
LAYER3
100
AcDbVertex
100
AcDb2dVertex
 10
163.5830126891991
 20
443.6953823481764
 30
0.0
  0
VERTEX
  5
6F9
330
6E9
100
AcDbEntity
  8
LAYER3
100
AcDbVertex
100
AcDb2dVertex
 10
163.5843202660939
 20
443.8680426989759
 30
0.0
  0
VERTEX
  5
6FA
330
6E9
100
AcDbEntity
  8
LAYER3
100
AcDbVertex
100
AcDb2dVertex
 10
163.605328668203
 20
444.0286128436293
 30
0.0
  0
VERTEX
  5
6FB
330
6E9
100
AcDbEntity
  8
LAYER3
100
AcDbVertex
100
AcDb2dVertex
 10
163.6451555977723
 20
444.1837780390943
 30
0.0
  0
VERTEX
  5
6FC
330
6E9
100
AcDbEntity
  8
LAYER3
100
AcDbVertex
100
AcDb2dVertex
 10
163.7030828188322
 20
444.3339698229993
 30
0.0
  0
VERTEX
  5
6FD
330
6E9
100
AcDbEntity
  8
LAYER3
100
AcDbVertex
100
AcDb2dVertex
 10
163.7765552292726
 20
444.4724409495558
 30
0.0
  0
VERTEX
  5
6FE
330
6E9
100
AcDbEntity
  8
LAYER3
100
AcDbVertex
100
AcDb2dVertex
 10
163.8601418028734
 20
444.5947949801649
 30
0.0
  0
VERTEX
  5
6FF
330
6E9
100
AcDbEntity
  8
LAYER3
100
AcDbVertex
100
AcDb2dVertex
 10
163.949896116104
 20
444.7000353251661
 30
0.0
  0
VERTEX
  5
700
330
6E9
100
AcDbEntity
  8
LAYER3
100
AcDbVertex
100
AcDb2dVertex
 10
164.0485020171069
 20
444.7942202006544
 30
0.0
  0
VERTEX
  5
701
330
6E9
100
AcDbEntity
  8
LAYER3
100
AcDbVertex
100
AcDb2dVertex
 10
164.1549371372127
 20
444.8772542391981
 30
0.0
  0
VERTEX
  5
702
330
6E9
100
AcDbEntity
  8
LAYER3
100
AcDbVertex
100
AcDb2dVertex
 10
164.2678125391864
 20
444.9485270892347
 30
0.0
  0
SEQEND
  5
703
330
6E9
100
AcDbEntity
  8
LAYER3
  0
POLYLINE
  5
704
330
2
100
AcDbEntity
  8
LAYER3
100
AcDb2dPolyline
 66
     1
 10
0.0
 20
0.0
 30
0.0
 70
   128
  0
VERTEX
  5
705
330
704
100
AcDbEntity
  8
LAYER3
100
AcDbVertex
100
AcDb2dVertex
 10
165.8434944044018
 20
442.2038142596449
 30
0.0
  0
VERTEX
  5
706
330
704
100
AcDbEntity
  8
LAYER3
100
AcDbVertex
100
AcDb2dVertex
 10
165.8146555910969
 20
442.2270934497084
 30
0.0
  0
VERTEX
  5
707
330
704
100
AcDbEntity
  8
LAYER3
100
AcDbVertex
100
AcDb2dVertex
 10
165.7847865115071
 20
442.249378434297
 30
0.0
  0
VERTEX
  5
708
330
704
100
AcDbEntity
  8
LAYER3
100
AcDbVertex
100
AcDb2dVertex
 10
165.7540099512005
 20
442.2706072245802
 30
0.0
  0
VERTEX
  5
709
330
704
100
AcDbEntity
  8
LAYER3
100
AcDbVertex
100
AcDb2dVertex
 10
165.7224486957455
 20
442.2907178317274
 30
0.0
  0
VERTEX
  5
70A
330
704
100
AcDbEntity
  8
LAYER3
100
AcDbVertex
100
AcDb2dVertex
 10
165.6902255307103
 20
442.3096411143506
 30
0.0
  0
VERTEX
  5
70B
330
704
100
AcDbEntity
  8
LAYER3
100
AcDbVertex
100
AcDb2dVertex
 10
165.657463241663
 20
442.3273174678053
 30
0.0
  0
VERTEX
  5
70C
330
704
100
AcDbEntity
  8
LAYER3
100
AcDbVertex
100
AcDb2dVertex
 10
165.6242843161488
 20
442.3436825190748
 30
0.0
  0
VERTEX
  5
70D
330
704
100
AcDbEntity
  8
LAYER3
100
AcDbVertex
100
AcDb2dVertex
 10
165.590811837759
 20
442.3586695109571
 30
0.0
  0
VERTEX
  5
70E
330
704
100
AcDbEntity
  8
LAYER3
100
AcDbVertex
100
AcDb2dVertex
 10
165.5571673999691
 20
442.3722259913648
 30
0.0
  0
VERTEX
  5
70F
330
704
100
AcDbEntity
  8
LAYER3
100
AcDbVertex
100
AcDb2dVertex
 10
165.5234675298596
 20
442.3843710337843
 30
0.0
  0
VERTEX
  5
710
330
704
100
AcDbEntity
  8
LAYER3
100
AcDbVertex
100
AcDb2dVertex
 10
165.4898341189289
 20
442.3951475535597
 30
0.0
  0
VERTEX
  5
711
330
704
100
AcDbEntity
  8
LAYER3
100
AcDbVertex
100
AcDb2dVertex
 10
165.4563896547222
 20
442.4045984660352
 30
0.0
  0
VERTEX
  5
712
330
704
100
AcDbEntity
  8
LAYER3
100
AcDbVertex
100
AcDb2dVertex
 10
165.4232575188542
 20
442.4127666865553
 30
0.0
  0
VERTEX
  5
713
330
704
100
AcDbEntity
  8
LAYER3
100
AcDbVertex
100
AcDb2dVertex
 10
165.3905599008465
 20
442.4196927462782
 30
0.0
  0
VERTEX
  5
714
330
704
100
AcDbEntity
  8
LAYER3
100
AcDbVertex
100
AcDb2dVertex
 10
165.3584201823139
 20
442.4254195605482
 30
0.0
  0
VERTEX
  5
715
330
704
100
AcDbEntity
  8
LAYER3
100
AcDbVertex
100
AcDb2dVertex
 10
165.3269608508014
 20
442.4299876605238
 30
0.0
  0
VERTEX
  5
716
330
704
100
AcDbEntity
  8
LAYER3
100
AcDbVertex
100
AcDb2dVertex
 10
165.2963026057148
 20
442.4334399615491
 30
0.0
  0
VERTEX
  5
717
330
704
100
AcDbEntity
  8
LAYER3
100
AcDbVertex
100
AcDb2dVertex
 10
165.2660198698902
 20
442.4358909045423
 30
0.0
  0
VERTEX
  5
718
330
704
100
AcDbEntity
  8
LAYER3
100
AcDbVertex
100
AcDb2dVertex
 10
165.2357460747623
 20
442.4374191676344
 30
0.0
  0
VERTEX
  5
719
330
704
100
AcDbEntity
  8
LAYER3
100
AcDbVertex
100
AcDb2dVertex
 10
165.2055145989322
 20
442.4380295191968
 30
0.0
  0
VERTEX
  5
71A
330
704
100
AcDbEntity
  8
LAYER3
100
AcDbVertex
100
AcDb2dVertex
 10
165.1753576289081
 20
442.4377291117872
 30
0.0
  0
VERTEX
  5
71B
330
704
100
AcDbEntity
  8
LAYER3
100
AcDbVertex
100
AcDb2dVertex
 10
165.1453076492214
 20
442.4365274821485
 30
0.0
  0
VERTEX
  5
71C
330
704
100
AcDbEntity
  8
LAYER3
100
AcDbVertex
100
AcDb2dVertex
 10
165.1153977404498
 20
442.4344317828382
 30
0.0
  0
VERTEX
  5
71D
330
704
100
AcDbEntity
  8
LAYER3
100
AcDbVertex
100
AcDb2dVertex
 10
165.0856600891017
 20
442.4314515505995
 30
0.0
  0
SEQEND
  5
71E
330
704
100
AcDbEntity
  8
LAYER3
  0
ARC
  5
71F
330
2
100
AcDbEntity
  8
LAYER3
100
AcDbCircle
 10
167.9979577453338
 20
444.7691187916647
 30
0.0
 40
3.349999999999126
100
AcDbArc
 50
229.9748830508231
 51
238.0251169491745
  0
POLYLINE
  5
720
330
2
100
AcDbEntity
  8
LAYER3
100
AcDb2dPolyline
 66
     1
 10
0.0
 20
0.0
 30
0.0
 70
   128
  0
VERTEX
  5
721
330
720
100
AcDbEntity
  8
LAYER3
100
AcDbVertex
100
AcDb2dVertex
 10
166.674652565565
 20
441.2769811068739
 30
0.0
  0
VERTEX
  5
722
330
720
100
AcDbEntity
  8
LAYER3
100
AcDbVertex
100
AcDb2dVertex
 10
166.6682993064785
 20
441.3061826144422
 30
0.0
  0
VERTEX
  5
723
330
720
100
AcDbEntity
  8
LAYER3
100
AcDbVertex
100
AcDb2dVertex
 10
166.6610495935344
 20
441.33527683365
 30
0.0
  0
VERTEX
  5
724
330
720
100
AcDbEntity
  8
LAYER3
100
AcDbVertex
100
AcDb2dVertex
 10
166.6529064069652
 20
441.3642280017103
 30
0.0
  0
VERTEX
  5
725
330
720
100
AcDbEntity
  8
LAYER3
100
AcDbVertex
100
AcDb2dVertex
 10
166.6438721309566
 20
441.3930003558363
 30
0.0
  0
VERTEX
  5
726
330
720
100
AcDbEntity
  8
LAYER3
100
AcDbVertex
100
AcDb2dVertex
 10
166.6339497457408
 20
441.4215652857985
 30
0.0
  0
VERTEX
  5
727
330
720
100
AcDbEntity
  8
LAYER3
100
AcDbVertex
100
AcDb2dVertex
 10
166.6231422315502
 20
441.4498846446242
 30
0.0
  0
VERTEX
  5
728
330
720
100
AcDbEntity
  8
LAYER3
100
AcDbVertex
100
AcDb2dVertex
 10
166.6114519725704
 20
441.4779274378981
 30
0.0
  0
VERTEX
  5
729
330
720
100
AcDbEntity
  8
LAYER3
100
AcDbVertex
100
AcDb2dVertex
 10
166.5986947904491
 20
441.5060179148878
 30
0.0
  0
VERTEX
  5
72A
330
720
100
AcDbEntity
  8
LAYER3
100
AcDbVertex
100
AcDb2dVertex
 10
166.5846286903286
 20
441.5345256243909
 30
0.0
  0
VERTEX
  5
72B
330
720
100
AcDbEntity
  8
LAYER3
100
AcDbVertex
100
AcDb2dVertex
 10
166.5692506919765
 20
441.5633242045607
 30
0.0
  0
VERTEX
  5
72C
330
720
100
AcDbEntity
  8
LAYER3
100
AcDbVertex
100
AcDb2dVertex
 10
166.5525596033001
 20
441.5922801409926
 30
0.0
  0
VERTEX
  5
72D
330
720
100
AcDbEntity
  8
LAYER3
100
AcDbVertex
100
AcDb2dVertex
 10
166.5345530401135
 20
441.6212670718397
 30
0.0
  0
VERTEX
  5
72E
330
720
100
AcDbEntity
  8
LAYER3
100
AcDbVertex
100
AcDb2dVertex
 10
166.5152298103238
 20
441.6501538668836
 30
0.0
  0
VERTEX
  5
72F
330
720
100
AcDbEntity
  8
LAYER3
100
AcDbVertex
100
AcDb2dVertex
 10
166.4945869336987
 20
441.6788117800916
 30
0.0
  0
VERTEX
  5
730
330
720
100
AcDbEntity
  8
LAYER3
100
AcDbVertex
100
AcDb2dVertex
 10
166.4726229201222
 20
441.7071096812452
 30
0.0
  0
VERTEX
  5
731
330
720
100
AcDbEntity
  8
LAYER3
100
AcDbVertex
100
AcDb2dVertex
 10
166.4493338952923
 20
441.7349164401258
 30
0.0
  0
VERTEX
  5
732
330
720
100
AcDbEntity
  8
LAYER3
100
AcDbVertex
100
AcDb2dVertex
 10
166.4247359524632
 20
441.7621200000013
 30
0.0
  0
VERTEX
  5
733
330
720
100
AcDbEntity
  8
LAYER3
100
AcDbVertex
100
AcDb2dVertex
 10
166.3989196906948
 20
441.7886178408827
 30
0.0
  0
VERTEX
  5
734
330
720
100
AcDbEntity
  8
LAYER3
100
AcDbVertex
100
AcDb2dVertex
 10
166.3719843517208
 20
441.8143145953382
 30
0.0
  0
VERTEX
  5
735
330
720
100
AcDbEntity
  8
LAYER3
100
AcDbVertex
100
AcDb2dVertex
 10
166.3440285812283
 20
441.8391125117506
 30
0.0
  0
VERTEX
  5
736
330
720
100
AcDbEntity
  8
LAYER3
100
AcDbVertex
100
AcDb2dVertex
 10
166.3151507268811
 20
441.862916222688
 30
0.0
  0
VERTEX
  5
737
330
720
100
AcDbEntity
  8
LAYER3
100
AcDbVertex
100
AcDb2dVertex
 10
166.2854497323895
 20
441.8856255923475
 30
0.0
  0
VERTEX
  5
738
330
720
100
AcDbEntity
  8
LAYER3
100
AcDbVertex
100
AcDb2dVertex
 10
166.2550245414639
 20
441.9071452532972
 30
0.0
  0
VERTEX
  5
739
330
720
100
AcDbEntity
  8
LAYER3
100
AcDbVertex
100
AcDb2dVertex
 10
166.2239737997914
 20
441.9273798381055
 30
0.0
  0
SEQEND
  5
73A
330
720
100
AcDbEntity
  8
LAYER3
  0
POLYLINE
  5
73B
330
2
100
AcDbEntity
  8
LAYER3
100
AcDb2dPolyline
 66
     1
 10
0.0
 20
0.0
 30
0.0
 70
   128
  0
VERTEX
  5
73C
330
73B
100
AcDbEntity
  8
LAYER3
100
AcDbVertex
100
AcDb2dVertex
 10
169.3212633024119
 20
441.2769811068739
 30
0.0
  0
VERTEX
  5
73D
330
73B
100
AcDbEntity
  8
LAYER3
100
AcDbVertex
100
AcDb2dVertex
 10
169.2883585582637
 20
441.1476032649244
 30
0.0
  0
VERTEX
  5
73E
330
73B
100
AcDbEntity
  8
LAYER3
100
AcDbVertex
100
AcDb2dVertex
 10
169.2422788034342
 20
441.0207192813124
 30
0.0
  0
VERTEX
  5
73F
330
73B
100
AcDbEntity
  8
LAYER3
100
AcDbVertex
100
AcDb2dVertex
 10
169.1831742416285
 20
440.8978359614576
 30
0.0
  0
VERTEX
  5
740
330
73B
100
AcDbEntity
  8
LAYER3
100
AcDbVertex
100
AcDb2dVertex
 10
169.110821951475
 20
440.7799522792067
 30
0.0
  0
VERTEX
  5
741
330
73B
100
AcDbEntity
  8
LAYER3
100
AcDbVertex
100
AcDb2dVertex
 10
169.0202848802469
 20
440.6626479541029
 30
0.0
  0
VERTEX
  5
742
330
73B
100
AcDbEntity
  8
LAYER3
100
AcDbVertex
100
AcDb2dVertex
 10
168.9112954030893
 20
440.5499808703626
 30
0.0
  0
VERTEX
  5
743
330
73B
100
AcDbEntity
  8
LAYER3
100
AcDbVertex
100
AcDb2dVertex
 10
168.7863545308969
 20
440.4484765444959
 30
0.0
  0
VERTEX
  5
744
330
73B
100
AcDbEntity
  8
LAYER3
100
AcDbVertex
100
AcDb2dVertex
 10
168.6510907302758
 20
440.3626506243909
 30
0.0
  0
VERTEX
  5
745
330
73B
100
AcDbEntity
  8
LAYER3
100
AcDbVertex
100
AcDb2dVertex
 10
168.5048721919915
 20
440.2930514727796
 30
0.0
  0
VERTEX
  5
746
330
73B
100
AcDbEntity
  8
LAYER3
100
AcDbVertex
100
AcDb2dVertex
 10
168.3410673032662
 20
440.2384536181654
 30
0.0
  0
VERTEX
  5
747
330
73B
100
AcDbEntity
  8
LAYER3
100
AcDbVertex
100
AcDb2dVertex
 10
168.1683902631661
 20
440.2050845538343
 30
0.0
  0
VERTEX
  5
748
330
73B
100
AcDbEntity
  8
LAYER3
100
AcDbVertex
100
AcDb2dVertex
 10
167.9979579339882
 20
440.1941196833814
 30
0.0
  0
VERTEX
  5
749
330
73B
100
AcDbEntity
  8
LAYER3
100
AcDbVertex
100
AcDb2dVertex
 10
167.8275250087639
 20
440.2050845538343
 30
0.0
  0
VERTEX
  5
74A
330
73B
100
AcDbEntity
  8
LAYER3
100
AcDbVertex
100
AcDb2dVertex
 10
167.6548479686639
 20
440.2384536181654
 30
0.0
  0
VERTEX
  5
74B
330
73B
100
AcDbEntity
  8
LAYER3
100
AcDbVertex
100
AcDb2dVertex
 10
167.4910430799386
 20
440.2930514727796
 30
0.0
  0
VERTEX
  5
74C
330
73B
100
AcDbEntity
  8
LAYER3
100
AcDbVertex
100
AcDb2dVertex
 10
167.3448245416543
 20
440.3626506243909
 30
0.0
  0
VERTEX
  5
74D
330
73B
100
AcDbEntity
  8
LAYER3
100
AcDbVertex
100
AcDb2dVertex
 10
167.2095607410333
 20
440.4484765444959
 30
0.0
  0
VERTEX
  5
74E
330
73B
100
AcDbEntity
  8
LAYER3
100
AcDbVertex
100
AcDb2dVertex
 10
167.0846198688409
 20
440.5499808703626
 30
0.0
  0
VERTEX
  5
74F
330
73B
100
AcDbEntity
  8
LAYER3
100
AcDbVertex
100
AcDb2dVertex
 10
166.9756303916834
 20
440.6626479541029
 30
0.0
  0
VERTEX
  5
750
330
73B
100
AcDbEntity
  8
LAYER3
100
AcDbVertex
100
AcDb2dVertex
 10
166.8850933204554
 20
440.7799522792067
 30
0.0
  0
VERTEX
  5
751
330
73B
100
AcDbEntity
  8
LAYER3
100
AcDbVertex
100
AcDb2dVertex
 10
166.8127410303019
 20
440.8978359614576
 30
0.0
  0
VERTEX
  5
752
330
73B
100
AcDbEntity
  8
LAYER3
100
AcDbVertex
100
AcDb2dVertex
 10
166.7536370645426
 20
441.0207192813124
 30
0.0
  0
VERTEX
  5
753
330
73B
100
AcDbEntity
  8
LAYER3
100
AcDbVertex
100
AcDb2dVertex
 10
166.7075573097133
 20
441.1476032649244
 30
0.0
  0
VERTEX
  5
754
330
73B
100
AcDbEntity
  8
LAYER3
100
AcDbVertex
100
AcDb2dVertex
 10
166.674652565565
 20
441.2769811068739
 30
0.0
  0
SEQEND
  5
755
330
73B
100
AcDbEntity
  8
LAYER3
  0
POLYLINE
  5
756
330
2
100
AcDbEntity
  8
LAYER3
100
AcDb2dPolyline
 66
     1
 10
0.0
 20
0.0
 30
0.0
 70
   128
  0
VERTEX
  5
757
330
756
100
AcDbEntity
  8
LAYER3
100
AcDbVertex
100
AcDb2dVertex
 10
169.7719417701627
 20
441.9273798381055
 30
0.0
  0
VERTEX
  5
758
330
756
100
AcDbEntity
  8
LAYER3
100
AcDbVertex
100
AcDb2dVertex
 10
169.7408907304669
 20
441.9071452532972
 30
0.0
  0
VERTEX
  5
759
330
756
100
AcDbEntity
  8
LAYER3
100
AcDbVertex
100
AcDb2dVertex
 10
169.7104655395413
 20
441.8856255923475
 30
0.0
  0
VERTEX
  5
75A
330
756
100
AcDbEntity
  8
LAYER3
100
AcDbVertex
100
AcDb2dVertex
 10
169.6807651410962
 20
441.862916222688
 30
0.0
  0
VERTEX
  5
75B
330
756
100
AcDbEntity
  8
LAYER3
100
AcDbVertex
100
AcDb2dVertex
 10
169.651887286749
 20
441.8391125117506
 30
0.0
  0
VERTEX
  5
75C
330
756
100
AcDbEntity
  8
LAYER3
100
AcDbVertex
100
AcDb2dVertex
 10
169.6239309202099
 20
441.8143145953382
 30
0.0
  0
VERTEX
  5
75D
330
756
100
AcDbEntity
  8
LAYER3
100
AcDbVertex
100
AcDb2dVertex
 10
169.5969955812359
 20
441.7886178408827
 30
0.0
  0
VERTEX
  5
75E
330
756
100
AcDbEntity
  8
LAYER3
100
AcDbVertex
100
AcDb2dVertex
 10
169.5711796174908
 20
441.7621200000013
 30
0.0
  0
VERTEX
  5
75F
330
756
100
AcDbEntity
  8
LAYER3
100
AcDbVertex
100
AcDb2dVertex
 10
169.5465813766384
 20
441.7349164401258
 30
0.0
  0
VERTEX
  5
760
330
756
100
AcDbEntity
  8
LAYER3
100
AcDbVertex
100
AcDb2dVertex
 10
169.5232926498318
 20
441.7071096812452
 30
0.0
  0
VERTEX
  5
761
330
756
100
AcDbEntity
  8
LAYER3
100
AcDbVertex
100
AcDb2dVertex
 10
169.5013283382321
 20
441.6788117800916
 30
0.0
  0
VERTEX
  5
762
330
756
100
AcDbEntity
  8
LAYER3
100
AcDbVertex
100
AcDb2dVertex
 10
169.4806860576535
 20
441.6501538668836
 30
0.0
  0
VERTEX
  5
763
330
756
100
AcDbEntity
  8
LAYER3
100
AcDbVertex
100
AcDb2dVertex
 10
169.4613622318173
 20
441.6212670718397
 30
0.0
  0
VERTEX
  5
764
330
756
100
AcDbEntity
  8
LAYER3
100
AcDbVertex
100
AcDb2dVertex
 10
169.4433556686306
 20
441.5922801409926
 30
0.0
  0
VERTEX
  5
765
330
756
100
AcDbEntity
  8
LAYER3
100
AcDbVertex
100
AcDb2dVertex
 10
169.4266645799541
 20
441.5633242045607
 30
0.0
  0
VERTEX
  5
766
330
756
100
AcDbEntity
  8
LAYER3
100
AcDbVertex
100
AcDb2dVertex
 10
169.4112871776485
 20
441.5345256243909
 30
0.0
  0
VERTEX
  5
767
330
756
100
AcDbEntity
  8
LAYER3
100
AcDbVertex
100
AcDb2dVertex
 10
169.397221077528
 20
441.5060179148878
 30
0.0
  0
VERTEX
  5
768
330
756
100
AcDbEntity
  8
LAYER3
100
AcDbVertex
100
AcDb2dVertex
 10
169.3844632993602
 20
441.4779274378981
 30
0.0
  0
VERTEX
  5
769
330
756
100
AcDbEntity
  8
LAYER3
100
AcDbVertex
100
AcDb2dVertex
 10
169.3727730403804
 20
441.4498846446242
 30
0.0
  0
VERTEX
  5
76A
330
756
100
AcDbEntity
  8
LAYER3
100
AcDbVertex
100
AcDb2dVertex
 10
169.3619655261898
 20
441.4215652857985
 30
0.0
  0
VERTEX
  5
76B
330
756
100
AcDbEntity
  8
LAYER3
100
AcDbVertex
100
AcDb2dVertex
 10
169.352043140974
 20
441.3930003558363
 30
0.0
  0
VERTEX
  5
76C
330
756
100
AcDbEntity
  8
LAYER3
100
AcDbVertex
100
AcDb2dVertex
 10
169.3430094610118
 20
441.3642280017103
 30
0.0
  0
VERTEX
  5
76D
330
756
100
AcDbEntity
  8
LAYER3
100
AcDbVertex
100
AcDb2dVertex
 10
169.3348656783962
 20
441.33527683365
 30
0.0
  0
VERTEX
  5
76E
330
756
100
AcDbEntity
  8
LAYER3
100
AcDbVertex
100
AcDb2dVertex
 10
169.3276165614986
 20
441.3061826144422
 30
0.0
  0
VERTEX
  5
76F
330
756
100
AcDbEntity
  8
LAYER3
100
AcDbVertex
100
AcDb2dVertex
 10
169.3212633024119
 20
441.2769811068739
 30
0.0
  0
SEQEND
  5
770
330
756
100
AcDbEntity
  8
LAYER3
  0
ARC
  5
771
330
2
100
AcDbEntity
  8
LAYER3
100
AcDbCircle
 10
167.9979577453344
 20
444.7691187916653
 30
0.0
 40
3.349999999999836
100
AcDbArc
 50
301.9748830508224
 51
310.0251169491765
  0
CIRCLE
  5
772
330
2
100
AcDbEntity
  8
LAYER3
100
AcDbCircle
 10
167.9979577453339
 20
261.2691187916655
 30
0.0
 40
4.0
  0
CIRCLE
  5
773
330
2
100
AcDbEntity
  8
LAYER3
100
AcDbCircle
 10
167.9979577453339
 20
353.2691187916654
 30
0.0
 40
4.0
  0
CIRCLE
  5
774
330
2
100
AcDbEntity
  8
LAYER3
100
AcDbCircle
 10
167.9979577453339
 20
410.7691187916654
 30
0.0
 40
4.0
  0
CIRCLE
  5
775
330
2
100
AcDbEntity
  8
LAYER3
100
AcDbCircle
 10
167.9979577453339
 20
311.2691187916655
 30
0.0
 40
4.0
  0
CIRCLE
  5
776
330
2
100
AcDbEntity
  8
LAYER3
100
AcDbCircle
 10
167.9979577453339
 20
200.7691187916655
 30
0.0
 40
4.75
  0
CIRCLE
  5
777
330
2
100
AcDbEntity
  8
LAYER3
100
AcDbCircle
 10
167.9979577453339
 20
444.7691187916654
 30
0.0
 40
4.75
  0
CIRCLE
  5
778
330
2
100
AcDbEntity
  8
LAYER3
100
AcDbCircle
 10
167.9979577453339
 20
230.7691187916654
 30
0.0
 40
4.75
  0
LINE
  5
779
330
2
100
AcDbEntity
  8
LAYER3
100
AcDbLine
 10
157.4979577453339
 20
457.7691187916654
 30
0.0
 11
179.9979577453343
 21
457.7691187916654
 31
0.0
  0
LINE
  5
77A
330
2
100
AcDbEntity
  8
LAYER3
100
AcDbLine
 10
178.4979577453339
 20
187.7691187916654
 30
0.0
 11
157.4979577453339
 21
187.7691187916654
 31
0.0
  0
LINE
  5
77B
330
2
100
AcDbEntity
  8
LAYER3
100
AcDbLine
 10
155.9979577453343
 20
187.7691187916654
 30
0.0
 11
155.9979577453343
 21
457.7691187916654
 31
0.0
  0
LINE
  5
77C
330
2
100
AcDbEntity
  8
LAYER3
100
AcDbLine
 10
179.9979577453343
 20
457.7691187916654
 30
0.0
 11
179.9979577453343
 21
187.7691187916654
 31
0.0
  0
LINE
  5
77D
330
2
100
AcDbEntity
  8
LAYER3
100
AcDbLine
 10
155.9979577453343
 20
457.7691187916654
 30
0.0
 11
157.4979577453339
 21
457.7691187916654
 31
0.0
  0
LINE
  5
77E
330
2
100
AcDbEntity
  8
LAYER3
100
AcDbLine
 10
173.4979577453339
 20
457.7691187916654
 30
0.0
 11
174.9979577453343
 21
457.7691187916654
 31
0.0
  0
LINE
  5
77F
330
2
100
AcDbEntity
  8
LAYER3
100
AcDbLine
 10
179.9979577453344
 20
187.7691187916654
 30
0.0
 11
178.497957745334
 21
187.7691187916654
 31
0.0
  0
LINE
  5
780
330
2
100
AcDbEntity
  8
LAYER3
100
AcDbLine
 10
157.4979577453339
 20
187.7691187916654
 30
0.0
 11
155.9979577453343
 21
187.7691187916654
 31
0.0
  0
LINE
  5
781
330
2
100
AcDbEntity
  8
LAYER3
100
AcDbLine
 10
19.94744493249782
 20
268.7691187916654
 30
0.0
 11
38.94744493249772
 21
268.7691187916654
 31
0.0
  0
LINE
  5
782
330
2
100
AcDbEntity
  8
LAYER3
100
AcDbLine
 10
18.94744493249782
 20
302.7691187916655
 30
0.0
 11
18.94744493249781
 21
269.7691187916654
 31
0.0
  0
ARC
  5
783
330
2
100
AcDbEntity
  8
LAYER3
100
AcDbCircle
 10
19.94744493249781
 20
269.7691187916654
 30
0.0
 40
0.9999999999999964
100
AcDbArc
 50
180.0
 51
270.0
  0
ARC
  5
784
330
2
100
AcDbEntity
  8
LAYER3
100
AcDbCircle
 10
19.94744493249782
 20
302.7691187916655
 30
0.0
 40
1.000000000000007
100
AcDbArc
 50
90.00000000000081
 51
180.0
  0
LINE
  5
785
330
2
100
AcDbEntity
  8
LAYER3
100
AcDbLine
 10
38.94744493249772
 20
303.7691187916654
 30
0.0
 11
19.94744493249781
 21
303.7691187916654
 31
0.0
  0
LINE
  5
786
330
2
100
AcDbEntity
  8
LAYER3
100
AcDbLine
 10
84.44744493249766
 20
413.2691187916654
 30
0.0
 11
65.44475236866015
 21
413.2691187916654
 31
0.0
  0
LINE
  5
787
330
2
100
AcDbEntity
  8
LAYER3
100
AcDbLine
 10
84.44744493249766
 20
413.2691187916654
 30
0.0
 11
84.44744493249771
 21
222.7691187916654
 31
0.0
  0
LINE
  5
788
330
2
100
AcDbEntity
  8
LAYER3
100
AcDbLine
 10
84.44744493249771
 20
222.7691187916654
 30
0.0
 11
41.94744493249777
 21
222.7691187916654
 31
0.0
  0
LINE
  5
789
330
2
100
AcDbEntity
  8
LAYER3
100
AcDbLine
 10
41.94744493249766
 20
422.7691187916654
 30
0.0
 11
60.51653357431331
 21
422.7691187916654
 31
0.0
  0
CIRCLE
  5
78A
330
2
100
AcDbEntity
  8
LAYER3
100
AcDbCircle
 10
58.94744493249771
 20
235.2691187916654
 30
0.0
 40
2.6
  0
CIRCLE
  5
78B
330
2
100
AcDbEntity
  8
LAYER3
100
AcDbCircle
 10
78.94744493249771
 20
235.2691187916654
 30
0.0
 40
2.6
  0
LINE
  5
78C
330
2
100
AcDbEntity
  8
LAYER3
100
AcDbLine
 10
74.04744493249774
 20
238.4101127565724
 30
0.0
 11
74.04744493249774
 21
229.0691187916654
 31
0.0
  0
ARC
  5
78D
330
2
100
AcDbEntity
  8
LAYER3
100
AcDbCircle
 10
68.94744493249771
 20
248.2691187916655
 30
0.0
 40
11.10000000000001
100
AcDbArc
 50
297.3522329091274
 51
242.6477670908719
  0
LINE
  5
78E
330
2
100
AcDbEntity
  8
LAYER3
100
AcDbLine
 10
63.84744493249775
 20
229.0691187916654
 30
0.0
 11
63.84744493249773
 21
238.4101127565724
 31
0.0
  0
ARC
  5
78F
330
2
100
AcDbEntity
  8
LAYER3
100
AcDbCircle
 10
68.94744493249771
 20
229.0691187916654
 30
0.0
 40
5.099999999999997
100
AcDbArc
 50
180.0
 51
0.0
  0
ARC
  5
790
330
2
100
AcDbEntity
  8
LAYER3
100
AcDbCircle
 10
65.29889805346087
 20
412.5133050697344
 30
0.0
 40
1.000000000000001
100
AcDbArc
 50
115.0000000000009
 51
295.0000000000009
  0
LINE
  5
791
330
2
100
AcDbEntity
  8
LAYER3
100
AcDbLine
 10
69.28594739391058
 20
413.2691187916654
 30
0.0
 11
65.72151631520156
 21
411.6069972826976
 31
0.0
  0
LINE
  5
792
330
2
100
AcDbEntity
  8
LAYER3
100
AcDbLine
 10
60.51653357431328
 20
422.7691187916654
 30
0.0
 11
62.44744493249766
 21
422.7691187916654
 31
0.0
  0
LINE
  5
793
330
2
100
AcDbEntity
  8
LAYER3
100
AcDbLine
 10
66.46231841903432
 20
414.1591948148173
 30
0.0
 11
64.87627979172017
 21
413.419612856771
 31
0.0
  0
LINE
  5
794
330
2
100
AcDbEntity
  8
LAYER3
100
AcDbLine
 10
66.46231841903432
 20
414.1591948148173
 30
0.0
 11
62.44744493249766
 21
422.7691187916654
 31
0.0
  0
LINE
  5
795
330
2
100
AcDbEntity
  8
LAYER3
100
AcDbLine
 10
72.38230711977536
 20
258.7884555193718
 30
0.0
 11
72.24713422884263
 21
258.8673285719816
 31
0.0
  0
LINE
  5
796
330
2
100
AcDbEntity
  8
LAYER3
100
AcDbLine
 10
72.38230711977536
 20
258.7884555193718
 30
0.0
 11
72.39987372042574
 21
258.818561215997
 31
0.0
  0
ARC
  5
797
330
2
100
AcDbEntity
  8
LAYER3
100
AcDbCircle
 10
79.52182456799533
 20
253.2996971180149
 30
0.0
 40
2.000000000000579
100
AcDbArc
 50
137.9278257205181
 51
140.8865097776453
  0
ARC
  5
798
330
2
100
AcDbEntity
  8
LAYER3
100
AcDbCircle
 10
74.48757248314905
 20
259.7724327024653
 30
0.0
 40
1.999999999999596
100
AcDbArc
 50
269.9845122790364
 51
275.2134808376987
  0
ARC
  5
799
330
2
100
AcDbEntity
  8
LAYER3
100
AcDbCircle
 10
68.94744493249766
 20
250.2694338745946
 30
0.0
 40
9.000000000001366
100
AcDbArc
 50
88.87569012320991
 51
91.12430987694484
  0
CIRCLE
  5
79A
330
2
100
AcDbEntity
  8
LAYER3
100
AcDbCircle
 10
68.94744493249769
 20
320.7691187916654
 30
0.0
 40
4.75
  0
CIRCLE
  5
79B
330
2
100
AcDbEntity
  8
LAYER3
100
AcDbCircle
 10
68.94744493249769
 20
320.7691187916654
 30
0.0
 40
5.099999999999999
  0
LINE
  5
79C
330
2
100
AcDbEntity
  8
LAYER3
100
AcDbLine
 10
38.94744493249766
 20
457.7691187916654
 30
0.0
 11
38.94744493249773
 21
187.7691187916654
 31
0.0
  0
LINE
  5
79D
330
2
100
AcDbEntity
  8
LAYER3
100
AcDbLine
 10
38.94744493249766
 20
457.7691187916654
 30
0.0
 11
41.94744493249766
 21
457.7691187916654
 31
0.0
  0
LINE
  5
79E
330
2
100
AcDbEntity
  8
LAYER3
100
AcDbLine
 10
41.94744493249771
 20
187.7691187916654
 30
0.0
 11
41.94744493249766
 21
457.7691187916654
 31
0.0
  0
LINE
  5
79F
330
2
100
AcDbEntity
  8
LAYER3
100
AcDbLine
 10
41.94744493249774
 20
187.7691187916654
 30
0.0
 11
38.94744493249773
 21
187.7691187916654
 31
0.0
  0
LINE
  5
7A0
330
2
100
AcDbEntity
  8
LAYER3
100
AcDbLine
 10
65.44475236866015
 20
413.2691187916654
 30
0.0
 11
65.44475236866015
 21
411.5239989903344
 31
0.0
  0
ENDSEC
  0
SECTION
  2
OBJECTS
  0
DICTIONARY
  5
B
330
0
100
AcDbDictionary
281
     1
  3
ACAD_COLOR
350
4D
  3
ACAD_GROUP
350
3A
  3
ACAD_LAYOUT
350
18
  3
ACAD_MATERIAL
350
D
  3
ACAD_MLEADERSTYLE
350
50
  3
ACAD_MLINESTYLE
350
3B
  3
ACAD_PLOTSETTINGS
350
3C
  3
ACAD_PLOTSTYLENAME
350
A
  3
ACAD_SCALELIST
350
4E
  3
ACAD_TABLESTYLE
350
4F
  3
ACAD_VISUALSTYLE
350
2F
  3
ACDB_RECOMPOSE_DATA
350
805
  3
AcDbVariableDictionary
350
7FA
  3
AcmDictionary
350
7B2
  3
AMG
350
7A3
  0
DICTIONARY
  5
1F
330
1E
100
AcDbDictionary
280
     1
281
     1
  3
ACAD_LAYERFILTERS
360
20
  3
ACAD_LAYERSTATES
360
21
  3
ACLYDICTIONARY
360
22
  0
DICTIONARY
  5
7
330
6
100
AcDbDictionary
280
     1
281
     1
  3
ADSK_XREC_LAYER_RECONCILED
360
8
  0
DICTIONARY
  5
52
330
51
100
AcDbDictionary
280
     1
281
     1
  3
ADSK_XREC_LAYER_RECONCILED
360
53
  0
DICTIONARY
  5
AF
330
AE
100
AcDbDictionary
280
     1
281
     1
  3
ADSK_XREC_LAYER_RECONCILED
360
B0
  0
DICTIONARY
  5
7C
330
7B
100
AcDbDictionary
280
     1
281
     1
  3
ADSK_XREC_LAYER_RECONCILED
360
7D
  0
DICTIONARY
  5
3
330
2
100
AcDbDictionary
280
     1
281
     1
  3
ACAD_SORTENTS
360
7A1
  0
DICTIONARY
  5
4D
102
{ACAD_REACTORS
330
B
102
}
330
B
100
AcDbDictionary
281
     1
  0
DICTIONARY
  5
3A
102
{ACAD_REACTORS
330
B
102
}
330
B
100
AcDbDictionary
281
     1
  0
DICTIONARY
  5
18
102
{ACAD_REACTORS
330
B
102
}
330
B
100
AcDbDictionary
281
     1
  3
Layout1
350
1D
  3
Model
350
17
  0
DICTIONARY
  5
D
102
{ACAD_REACTORS
330
B
102
}
330
B
100
AcDbDictionary
281
     1
  3
ByBlock
350
45
  3
ByLayer
350
3D
  3
Global
350
C
  0
DICTIONARY
  5
50
102
{ACAD_REACTORS
330
B
102
}
330
B
100
AcDbDictionary
281
     1
  0
DICTIONARY
  5
3B
102
{ACAD_REACTORS
330
B
102
}
330
B
100
AcDbDictionary
281
     1
  3
STANDARD
350
54
  0
DICTIONARY
  5
3C
102
{ACAD_REACTORS
330
B
102
}
330
B
100
AcDbDictionary
281
     1
  0
ACDBDICTIONARYWDFLT
  5
A
102
{ACAD_REACTORS
330
B
102
}
330
B
100
AcDbDictionary
281
     1
  3
Normal
350
9
100
AcDbDictionaryWithDefault
340
9
  0
DICTIONARY
  5
4E
102
{ACAD_REACTORS
330
B
102
}
330
B
100
AcDbDictionary
281
     1
  3
A0
350
59
  3
A1
350
5A
  3
A2
350
5B
  3
A3
350
5C
  3
A4
350
5D
  3
A5
350
5E
  3
A6
350
5F
  3
A7
350
60
  3
A8
350
61
  3
A9
350
62
  3
B0
350
63
  3
B1
350
64
  3
B2
350
65
  3
B3
350
66
  3
B4
350
67
  3
B5
350
68
  3
B6
350
69
  0
DICTIONARY
  5
4F
102
{ACAD_REACTORS
330
B
102
}
330
B
100
AcDbDictionary
281
     1
  3
Standard
350
55
  0
DICTIONARY
  5
2F
102
{ACAD_REACTORS
330
B
102
}
330
B
100
AcDbDictionary
281
     1
  3
2dWireframe
350
2E
  3
Realistic
350
57
  3
Wireframe
350
58
  0
XRECORD
  5
805
102
{ACAD_REACTORS
330
B
102
}
330
B
100
AcDbXrecord
280
     1
 90
        1
330
55
  0
DICTIONARY
  5
7FA
102
{ACAD_REACTORS
330
B
102
}
330
B
100
AcDbDictionary
281
     1
  3
CANNOSCALE
350
7FD
  3
CMLEADERSTYLE
350
7FC
  3
CTABLESTYLE
350
7FB
  3
DIMASSOC
350
802
  3
HIDETEXT
350
800
  3
INDEXCTL
350
7FF
  3
SORTENTS
350
7FE
  3
XCLIPFRAME
350
801
  0
DICTIONARY
  5
7B2
102
{ACAD_REACTORS
330
B
102
}
330
B
100
AcDbDictionary
281
     1
  3
AcmStdDictionary
350
7B3
  0
DICTIONARY
  5
7A3
102
{ACAD_REACTORS
330
B
102
}
330
B
100
AcDbDictionary
281
     1
  3
AcMgSettings
350
7AD
  0
DICTIONARY
  5
20
102
{ACAD_REACTORS
330
1F
102
}
330
1F
100
AcDbDictionary
281
     1
  0
DICTIONARY
  5
21
102
{ACAD_REACTORS
330
1F
102
}
330
1F
100
AcDbDictionary
281
     1
  0
DICTIONARY
  5
22
102
{ACAD_REACTORS
330
1F
102
}
330
1F
100
AcDbDictionary
281
     1
1001
ACAD
1000
<All
  0
XRECORD
  5
8
102
{ACAD_REACTORS
330
7
102
}
330
7
100
AcDbXrecord
280
     1
290
     1
  0
XRECORD
  5
53
102
{ACAD_REACTORS
330
52
102
}
330
52
100
AcDbXrecord
280
     1
290
     1
  0
XRECORD
  5
B0
102
{ACAD_REACTORS
330
AF
102
}
330
AF
100
AcDbXrecord
280
     1
290
     1
  0
XRECORD
  5
7D
102
{ACAD_REACTORS
330
7C
102
}
330
7C
100
AcDbXrecord
280
     1
290
     1
  0
SORTENTSTABLE
  5
7A1
102
{ACAD_REACTORS
330
3
102
}
330
3
100
AcDbSortentsTable
330
2
331
6CE
  5
DB
331
1A1
  5
28E
331
256
  5
25D
331
297
  5
17E
331
293
  5
190
331
252
  5
261
331
28F
  5
194
331
28B
  5
1BC
331
77F
  5
C6
331
B5
  5
790
331
77B
  5
CA
331
EC
  5
585
331
AD
  5
794
331
E8
  5
5D7
331
162
  5
29B
331
518
  5
F1
331
24E
  5
265
331
6B2
  5
DD
331
24A
  5
269
331
191
  5
292
331
246
  5
26D
331
287
  5
1E4
331
18D
  5
296
331
283
  5
20C
331
242
  5
271
331
27F
  5
234
331
54F
  5
EE
331
27B
  5
238
331
777
  5
CE
331
773
  5
D2
331
E4
  5
60F
331
11F
  5
2A0
331
11B
  5
2A4
331
E0
  5
661
331
DC
  5
6CD
331
D8
  5
71F
331
6E9
  5
DA
331
23E
  5
275
331
1FF
  5
284
331
23A
  5
279
331
1BC
  5
28B
331
236
  5
27D
331
586
  5
EB
331
277
  5
23C
331
17D
  5
298
331
273
  5
240
331
26F
  5
244
331
26B
  5
248
331
5F4
  5
E5
331
79E
  5
7E
331
79A
  5
8E
331
720
  5
D7
331
796
  5
92
331
D4
  5
771
331
792
  5
B3
331
10B
  5
2F6
331
91
  5
797
331
D0
  5
775
331
CC
  5
779
331
107
  5
348
331
8D
  5
79B
331
C8
  5
77D
331
103
  5
39A
331
226
  5
281
331
267
  5
24C
331
263
  5
250
331
2A2
  5
11D
331
533
  5
F0
331
25F
  5
254
331
29E
  5
13B
331
56A
  5
ED
331
25B
  5
258
331
29A
  5
16F
331
5A1
  5
EA
331
348
  5
107
331
78E
  5
B7
331
78A
  5
BB
331
786
  5
BF
331
C4
  5
781
331
FF
  5
3EC
331
782
  5
C3
331
C0
  5
785
331
FB
  5
43E
331
BC
  5
789
331
F7
  5
490
331
B8
  5
78D
331
F3
  5
4E2
331
6CD
  5
DC
331
704
  5
D9
331
296
  5
18D
331
255
  5
25E
331
292
  5
191
331
251
  5
262
331
5D8
  5
E7
331
28E
  5
1A1
331
28A
  5
1C9
331
77E
  5
C7
331
73B
  5
D6
331
B4
  5
791
331
77A
  5
CB
331
EF
  5
534
331
EB
  5
586
331
45A
  5
F9
331
1D7
  5
288
331
24D
  5
266
331
194
  5
28F
331
249
  5
26A
331
190
  5
293
331
245
  5
26E
331
60F
  5
E4
331
286
  5
1F1
331
282
  5
219
331
241
  5
272
331
27E
  5
235
331
27A
  5
239
331
776
  5
CF
331
772
  5
D3
331
E7
  5
5D8
331
E3
  5
62A
331
11E
  5
2A1
331
DF
  5
67C
331
11A
  5
2BF
331
A0
  5
795
331
DB
  5
6CE
331
155
  5
29C
331
23D
  5
276
331
1FE
  5
285
331
239
  5
27A
331
235
  5
27E
331
585
  5
EC
331
276
  5
23D
331
17C
  5
299
331
5BC
  5
E9
331
272
  5
241
331
363
  5
106
331
26E
  5
245
331
26A
  5
249
331
5F3
  5
E6
331
39A
  5
103
331
79D
  5
8B
331
799
  5
8F
331
D7
  5
720
331
71F
  5
D8
331
795
  5
A0
331
D3
  5
772
331
791
  5
B4
331
10A
  5
311
331
90
  5
798
331
CF
  5
776
331
CB
  5
77A
331
106
  5
363
331
8C
  5
79C
331
102
  5
3B5
331
43E
  5
FB
331
1AF
  5
28C
331
266
  5
24D
331
262
  5
251
331
2A1
  5
11E
331
25E
  5
255
331
29D
  5
148
331
25A
  5
259
331
299
  5
17C
331
756
  5
D5
331
78D
  5
B8
331
789
  5
BC
331
C7
  5
77E
331
785
  5
C0
331
C3
  5
782
331
FE
  5
407
331
781
  5
C4
331
FA
  5
459
331
BF
  5
786
331
BB
  5
78A
331
F6
  5
4AB
331
F2
  5
4FD
331
475
  5
F8
331
4AC
  5
F5
331
219
  5
282
331
295
  5
18E
331
254
  5
25F
331
250
  5
263
331
291
  5
192
331
5D7
  5
E8
331
28D
  5
1A2
331
37E
  5
105
331
289
  5
1CA
331
B7
  5
78E
331
77D
  5
C8
331
B3
  5
792
331
779
  5
CC
331
EE
  5
54F
331
EA
  5
5A1
331
646
  5
E1
331
459
  5
FA
331
6A
  5
7A0
331
24C
  5
267
331
193
  5
290
331
248
  5
26B
331
18F
  5
294
331
1CA
  5
289
331
285
  5
1FE
331
244
  5
26F
331
281
  5
226
331
3B5
  5
102
331
2C0
  5
119
331
240
  5
273
331
27D
  5
236
331
3EC
  5
FF
331
279
  5
23A
331
775
  5
D0
331
771
  5
D4
331
E6
  5
5F3
331
E2
  5
645
331
11D
  5
2A2
331
DE
  5
697
331
119
  5
2C0
331
7A0
  5
6A
331
DA
  5
6E9
331
490
  5
F7
331
4C7
  5
F4
331
62A
  5
E3
331
23C
  5
277
331
238
  5
27B
331
234
  5
27F
331
275
  5
23E
331
271
  5
242
331
1F1
  5
286
331
26D
  5
246
331
269
  5
24A
331
399
  5
104
331
3D0
  5
101
331
79C
  5
8C
331
798
  5
90
331
D6
  5
73B
331
794
  5
AD
331
D2
  5
773
331
CE
  5
777
331
109
  5
312
331
148
  5
29D
331
8F
  5
799
331
790
  5
B5
331
CA
  5
77B
331
105
  5
37E
331
8B
  5
79D
331
101
  5
3D0
331
661
  5
E0
331
43D
  5
FC
331
16F
  5
29A
331
2A4
  5
11B
331
265
  5
24E
331
261
  5
252
331
2A0
  5
11F
331
2DB
  5
10C
331
25D
  5
256
331
29C
  5
155
331
407
  5
FE
331
312
  5
109
331
259
  5
25A
331
298
  5
17D
331
78C
  5
B9
331
788
  5
BD
331
C6
  5
77F
331
784
  5
C1
331
C2
  5
783
331
FD
  5
422
331
780
  5
C5
331
F9
  5
45A
331
BE
  5
787
331
BA
  5
78B
331
F5
  5
4AC
331
F1
  5
518
331
4AB
  5
F6
331
4E2
  5
F3
331
1A2
  5
28D
331
257
  5
25C
331
294
  5
18F
331
253
  5
260
331
290
  5
193
331
28C
  5
1AF
331
288
  5
1D7
331
B6
  5
78F
331
77C
  5
C9
331
12C
  5
29F
331
B2
  5
793
331
778
  5
CD
331
ED
  5
56A
331
E9
  5
5BC
331
645
  5
E2
331
67C
  5
DF
331
24F
  5
264
331
20C
  5
283
331
24B
  5
268
331
192
  5
291
331
247
  5
26C
331
18E
  5
295
331
1C9
  5
28A
331
284
  5
1FF
331
243
  5
270
331
280
  5
233
331
2BF
  5
11A
331
27C
  5
237
331
3EB
  5
100
331
2F6
  5
10B
331
278
  5
23B
331
422
  5
FD
331
774
  5
D1
331
E5
  5
5F4
331
11C
  5
2A3
331
E1
  5
646
331
DD
  5
6B2
331
D9
  5
704
331
23F
  5
274
331
23B
  5
278
331
237
  5
27C
331
17E
  5
297
331
274
  5
23F
331
32D
  5
108
331
233
  5
280
331
270
  5
243
331
26C
  5
247
331
268
  5
24B
331
79F
  5
7A
331
79B
  5
8D
331
797
  5
91
331
D5
  5
756
331
793
  5
B2
331
92
  5
796
331
D1
  5
774
331
10C
  5
2DB
331
CD
  5
778
331
108
  5
32D
331
8E
  5
79A
331
C9
  5
77C
331
104
  5
399
331
100
  5
3EB
331
4FD
  5
F2
331
697
  5
DE
331
2A3
  5
11C
331
1E4
  5
287
331
534
  5
EF
331
264
  5
24F
331
260
  5
253
331
29F
  5
12C
331
25C
  5
257
331
29B
  5
162
331
311
  5
10A
331
258
  5
25B
331
78F
  5
B6
331
78B
  5
BA
331
787
  5
BE
331
C5
  5
780
331
783
  5
C2
331
13B
  5
29E
331
C1
  5
784
331
FC
  5
43D
331
BD
  5
788
331
F8
  5
475
331
7E
  5
79E
331
B9
  5
78C
331
F4
  5
4C7
331
7A
  5
79F
331
F0
  5
533
  0
LAYOUT
  5
1D
102
{ACAD_XDICTIONARY
360
809
102
}
102
{ACAD_REACTORS
330
18
102
}
330
18
100
AcDbPlotSettings
  1

  2
\\mslklsv1\MSLKLP05
  4

  6

 40
0.0
 41
0.0
 42
0.0
 43
0.0
 44
0.0
 45
0.0
 46
0.0
 47
0.0
 48
0.0
 49
0.0
140
0.0
141
0.0
142
1.0
143
1.0
 70
   688
 72
     0
 73
     0
 74
     5
  7
Katalog 09.ctb
 75
    16
147
1.0
148
0.0
149
0.0
100
AcDbLayout
  1
Layout1
 70
     1
 71
     1
 10
0.0
 20
0.0
 11
12.0
 21
9.0
 12
0.0
 22
0.0
 32
0.0
 14
1.000000000000000E+20
 24
1.000000000000000E+20
 34
1.000000000000000E+20
 15
-1.000000000000000E+20
 25
-1.000000000000000E+20
 35
-1.000000000000000E+20
146
0.0
 13
0.0
 23
0.0
 33
0.0
 16
1.0
 26
0.0
 36
0.0
 17
0.0
 27
1.0
 37
0.0
 76
     0
330
1A
  0
LAYOUT
  5
17
102
{ACAD_XDICTIONARY
360
807
102
}
102
{ACAD_REACTORS
330
18
102
}
330
18
100
AcDbPlotSettings
  1

  2
\\mslklsv1\MSLKLP05
  4
A4
  6

 40
6.805083274841308
 41
5.027085304260253
 42
6.805084228515625
 43
5.027069091796875
 44
209.9733276367187
 45
296.9683227539062
 46
0.0
 47
0.0
 48
0.0
 49
0.0
140
0.0
141
0.0
142
1.0
143
5.211535630019419
 70
 11952
 72
     1
 73
     1
 74
     0
  7
Katalog 09.ctb
 75
     0
147
0.1918820230720122
148
1217.818285113836
149
22.1189732997434
100
AcDbLayout
  1
Model
 70
     1
 71
     0
 10
0.0
 20
0.0
 11
12.0
 21
9.0
 12
0.0
 22
0.0
 32
0.0
 14
0.0
 24
0.0
 34
0.0
 15
0.0
 25
0.0
 35
0.0
146
0.0
 13
0.0
 23
0.0
 33
0.0
 16
1.0
 26
0.0
 36
0.0
 17
0.0
 27
1.0
 37
0.0
 76
     0
330
2
331
2D
1001
ACAD_PSEXT
1000
\\mslklsv1\MSLKLP05
1000
HP LaserJet 5000 Series PCL
1000
CAD
1000
HP LaserJet 5000N
1070
     0
  0
MATERIAL
  5
45
102
{ACAD_XDICTIONARY
360
46
102
}
102
{ACAD_REACTORS
330
D
102
}
330
D
100
AcDbMaterial
  1
ByBlock
 72
     0
 43
0.0208333333333333
 43
0.0
 43
0.0
 43
0.0
 43
0.0
 43
0.0208333333333333
 43
0.0
 43
0.0
 43
0.0
 43
0.0
 43
1.0
 43
0.0
 43
0.0
 43
0.0
 43
0.0
 43
1.0
 77
     0
 47
0.0208333333333333
 47
0.0
 47
0.0
 47
0.0
 47
0.0
 47
0.0208333333333333
 47
0.0
 47
0.0
 47
0.0
 47
0.0
 47
1.0
 47
0.0
 47
0.0
 47
0.0
 47
0.0
 47
1.0
171
     0
 49
0.0208333333333333
 49
0.0
 49
0.0
 49
0.0
 49
0.0
 49
0.0208333333333333
 49
0.0
 49
0.0
 49
0.0
 49
0.0
 49
1.0
 49
0.0
 49
0.0
 49
0.0
 49
0.0
 49
1.0
175
     0
142
0.0208333333333333
142
0.0
142
0.0
142
0.0
142
0.0
142
0.0208333333333333
142
0.0
142
0.0
142
0.0
142
0.0
142
1.0
142
0.0
142
0.0
142
0.0
142
0.0
142
1.0
179
     0
144
0.0208333333333333
144
0.0
144
0.0
144
0.0
144
0.0
144
0.0208333333333333
144
0.0
144
0.0
144
0.0
144
0.0
144
1.0
144
0.0
144
0.0
144
0.0
144
0.0
144
1.0
147
0.0208333333333333
147
0.0
147
0.0
147
0.0
147
0.0
147
0.0208333333333333
147
0.0
147
0.0
147
0.0
147
0.0
147
1.0
147
0.0
147
0.0
147
0.0
147
0.0
147
1.0
  0
MATERIAL
  5
3D
102
{ACAD_XDICTIONARY
360
3E
102
}
102
{ACAD_REACTORS
330
D
102
}
330
D
100
AcDbMaterial
  1
ByLayer
 72
     0
 43
0.0208333333333333
 43
0.0
 43
0.0
 43
0.0
 43
0.0
 43
0.0208333333333333
 43
0.0
 43
0.0
 43
0.0
 43
0.0
 43
1.0
 43
0.0
 43
0.0
 43
0.0
 43
0.0
 43
1.0
 77
     0
 47
0.0208333333333333
 47
0.0
 47
0.0
 47
0.0
 47
0.0
 47
0.0208333333333333
 47
0.0
 47
0.0
 47
0.0
 47
0.0
 47
1.0
 47
0.0
 47
0.0
 47
0.0
 47
0.0
 47
1.0
171
     0
 49
0.0208333333333333
 49
0.0
 49
0.0
 49
0.0
 49
0.0
 49
0.0208333333333333
 49
0.0
 49
0.0
 49
0.0
 49
0.0
 49
1.0
 49
0.0
 49
0.0
 49
0.0
 49
0.0
 49
1.0
175
     0
142
0.0208333333333333
142
0.0
142
0.0
142
0.0
142
0.0
142
0.0208333333333333
142
0.0
142
0.0
142
0.0
142
0.0
142
1.0
142
0.0
142
0.0
142
0.0
142
0.0
142
1.0
179
     0
144
0.0208333333333333
144
0.0
144
0.0
144
0.0
144
0.0
144
0.0208333333333333
144
0.0
144
0.0
144
0.0
144
0.0
144
1.0
144
0.0
144
0.0
144
0.0
144
0.0
144
1.0
147
0.0208333333333333
147
0.0
147
0.0
147
0.0
147
0.0
147
0.0208333333333333
147
0.0
147
0.0
147
0.0
147
0.0
147
1.0
147
0.0
147
0.0
147
0.0
147
0.0
147
1.0
  0
MATERIAL
  5
C
102
{ACAD_XDICTIONARY
360
E
102
}
102
{ACAD_REACTORS
330
D
102
}
330
D
100
AcDbMaterial
  1
Global
 72
     0
 43
0.0208333333333333
 43
0.0
 43
0.0
 43
0.0
 43
0.0
 43
0.0208333333333333
 43
0.0
 43
0.0
 43
0.0
 43
0.0
 43
1.0
 43
0.0
 43
0.0
 43
0.0
 43
0.0
 43
1.0
 77
     0
 47
0.0208333333333333
 47
0.0
 47
0.0
 47
0.0
 47
0.0
 47
0.0208333333333333
 47
0.0
 47
0.0
 47
0.0
 47
0.0
 47
1.0
 47
0.0
 47
0.0
 47
0.0
 47
0.0
 47
1.0
171
     0
 49
0.0208333333333333
 49
0.0
 49
0.0
 49
0.0
 49
0.0
 49
0.0208333333333333
 49
0.0
 49
0.0
 49
0.0
 49
0.0
 49
1.0
 49
0.0
 49
0.0
 49
0.0
 49
0.0
 49
1.0
175
     0
142
0.0208333333333333
142
0.0
142
0.0
142
0.0
142
0.0
142
0.0208333333333333
142
0.0
142
0.0
142
0.0
142
0.0
142
1.0
142
0.0
142
0.0
142
0.0
142
0.0
142
1.0
179
     0
144
0.0208333333333333
144
0.0
144
0.0
144
0.0
144
0.0
144
0.0208333333333333
144
0.0
144
0.0
144
0.0
144
0.0
144
1.0
144
0.0
144
0.0
144
0.0
144
0.0
144
1.0
147
0.0208333333333333
147
0.0
147
0.0
147
0.0
147
0.0
147
0.0208333333333333
147
0.0
147
0.0
147
0.0
147
0.0
147
1.0
147
0.0
147
0.0
147
0.0
147
0.0
147
1.0
  0
MLINESTYLE
  5
54
102
{ACAD_REACTORS
330
3B
102
}
330
3B
100
AcDbMlineStyle
  2
STANDARD
 70
     0
  3

 62
     0
 51
90.0
 52
90.0
 71
     2
 49
0.5
 62
   256
  6
BYLAYER
 49
-0.5
 62
   256
  6
BYLAYER
  0
ACDBPLACEHOLDER
  5
9
102
{ACAD_REACTORS
330
A
102
}
330
A
  0
SCALE
  5
59
102
{ACAD_REACTORS
330
4E
102
}
330
4E
100
AcDbScale
 70
     0
300
1:1
140
1.0
141
1.0
290
     1
  0
SCALE
  5
5A
102
{ACAD_REACTORS
330
4E
102
}
330
4E
100
AcDbScale
 70
     0
300
1:2
140
1.0
141
2.0
290
     0
  0
SCALE
  5
5B
102
{ACAD_REACTORS
330
4E
102
}
330
4E
100
AcDbScale
 70
     0
300
1:4
140
1.0
141
4.0
290
     0
  0
SCALE
  5
5C
102
{ACAD_REACTORS
330
4E
102
}
330
4E
100
AcDbScale
 70
     0
300
1:5
140
1.0
141
5.0
290
     0
  0
SCALE
  5
5D
102
{ACAD_REACTORS
330
4E
102
}
330
4E
100
AcDbScale
 70
     0
300
1:8
140
1.0
141
8.0
290
     0
  0
SCALE
  5
5E
102
{ACAD_REACTORS
330
4E
102
}
330
4E
100
AcDbScale
 70
     0
300
1:10
140
1.0
141
10.0
290
     0
  0
SCALE
  5
5F
102
{ACAD_REACTORS
330
4E
102
}
330
4E
100
AcDbScale
 70
     0
300
1:16
140
1.0
141
16.0
290
     0
  0
SCALE
  5
60
102
{ACAD_REACTORS
330
4E
102
}
330
4E
100
AcDbScale
 70
     0
300
1:20
140
1.0
141
20.0
290
     0
  0
SCALE
  5
61
102
{ACAD_REACTORS
330
4E
102
}
330
4E
100
AcDbScale
 70
     0
300
1:30
140
1.0
141
30.0
290
     0
  0
SCALE
  5
62
102
{ACAD_REACTORS
330
4E
102
}
330
4E
100
AcDbScale
 70
     0
300
1:40
140
1.0
141
40.0
290
     0
  0
SCALE
  5
63
102
{ACAD_REACTORS
330
4E
102
}
330
4E
100
AcDbScale
 70
     0
300
1:50
140
1.0
141
50.0
290
     0
  0
SCALE
  5
64
102
{ACAD_REACTORS
330
4E
102
}
330
4E
100
AcDbScale
 70
     0
300
1:100
140
1.0
141
100.0
290
     0
  0
SCALE
  5
65
102
{ACAD_REACTORS
330
4E
102
}
330
4E
100
AcDbScale
 70
     0
300
2:1
140
2.0
141
1.0
290
     0
  0
SCALE
  5
66
102
{ACAD_REACTORS
330
4E
102
}
330
4E
100
AcDbScale
 70
     0
300
4:1
140
4.0
141
1.0
290
     0
  0
SCALE
  5
67
102
{ACAD_REACTORS
330
4E
102
}
330
4E
100
AcDbScale
 70
     0
300
8:1
140
8.0
141
1.0
290
     0
  0
SCALE
  5
68
102
{ACAD_REACTORS
330
4E
102
}
330
4E
100
AcDbScale
 70
     0
300
10:1
140
10.0
141
1.0
290
     0
  0
SCALE
  5
69
102
{ACAD_REACTORS
330
4E
102
}
330
4E
100
AcDbScale
 70
     0
300
100:1
140
100.0
141
1.0
290
     0
  0
TABLESTYLE
  5
55
102
{ACAD_XDICTIONARY
360
56
102
}
102
{ACAD_REACTORS
330
4F
102
}
330
4F
100
AcDbTableStyle
  3
Standard
 70
     0
 71
     0
 40
1.5
 41
1.5
280
     0
281
     0
  7
STANDARD
140
4.5
170
     2
 62
     0
 63
     7
283
     0
274
    -2
284
     1
 64
     0
275
    -2
285
     1
 65
     0
276
    -2
286
     1
 66
     0
277
    -2
287
     1
 67
     0
278
    -2
288
     1
 68
     0
279
    -2
289
     1
 69
     0
  7
STANDARD
140
6.0
170
     5
 62
     0
 63
     7
283
     0
274
    -2
284
     1
 64
     0
275
    -2
285
     1
 65
     0
276
    -2
286
     1
 66
     0
277
    -2
287
     1
 67
     0
278
    -2
288
     1
 68
     0
279
    -2
289
     1
 69
     0
  7
STANDARD
140
4.5
170
     5
 62
     0
 63
     7
283
     0
274
    -2
284
     1
 64
     0
275
    -2
285
     1
 65
     0
276
    -2
286
     1
 66
     0
277
    -2
287
     1
 67
     0
278
    -2
288
     1
 68
     0
279
    -2
289
     1
 69
     0
  0
VISUALSTYLE
  5
2E
102
{ACAD_XDICTIONARY
360
80B
102
}
102
{ACAD_REACTORS
330
2F
102
}
330
2F
100
AcDbVisualStyle
  2
2dWireframe
 70
     4
 71
     0
 72
     2
 73
     0
 90
        0
 40
-0.6
 41
-30.0
 62
     5
 63
     7
 74
     1
 91
        4
 64
     7
 65
   257
 75
     1
175
     1
 42
1.0
 92
        0
 66
   257
 43
1.0
 76
     1
 77
     6
 78
     2
 67
     7
 79
     5
170
     0
171
     0
290
     0
174
     0
 93
        1
 44
0.0
173
     0
291
     0
 45
0.0
1001
ACAD
1000
AcDbSavedByObjectVersion
1070
     0
  0
VISUALSTYLE
  5
57
102
{ACAD_XDICTIONARY
360
810
102
}
102
{ACAD_REACTORS
330
2F
102
}
330
2F
100
AcDbVisualStyle
  2
Realistic
 70
     8
 71
     2
 72
     2
 73
     0
 90
        0
 40
-0.6
 41
-30.0
 62
     5
 63
     7
 74
     1
 91
        0
 64
     7
 65
   257
 75
     1
175
     1
 42
1.0
 92
        8
 66
     8
 43
1.0
 76
     1
 77
     6
 78
     2
 67
     7
 79
     5
170
     0
171
     0
290
     0
174
     0
 93
       13
 44
0.0
173
     0
291
     0
 45
0.0
1001
ACAD
1000
AcDbSavedByObjectVersion
1070
     0
  0
VISUALSTYLE
  5
58
102
{ACAD_XDICTIONARY
360
812
102
}
102
{ACAD_REACTORS
330
2F
102
}
330
2F
100
AcDbVisualStyle
  2
Wireframe
 70
     5
 71
     0
 72
     2
 73
     0
 90
        0
 40
-0.6
 41
-30.0
 62
     5
 63
     7
 74
     1
 91
        4
 64
     7
 65
   257
 75
     1
175
     1
 42
1.0
 92
        0
 66
   257
 43
1.0
 76
     1
 77
     6
 78
     2
 67
     7
 79
     3
170
     0
171
     0
290
     0
174
     0
 93
        1
 44
0.0
173
     0
291
     0
 45
0.0
1001
ACAD
1000
AcDbSavedByObjectVersion
1070
     0
  0
DICTIONARYVAR
  5
7FD
102
{ACAD_REACTORS
330
7FA
102
}
330
7FA
100
DictionaryVariables
280
     0
  1
1:1
  0
DICTIONARYVAR
  5
7FC
102
{ACAD_REACTORS
330
7FA
102
}
330
7FA
100
DictionaryVariables
280
     0
  1
STANDARD
  0
DICTIONARYVAR
  5
7FB
102
{ACAD_REACTORS
330
7FA
102
}
330
7FA
100
DictionaryVariables
280
     0
  1
STANDARD
  0
DICTIONARYVAR
  5
802
102
{ACAD_REACTORS
330
7FA
102
}
330
7FA
100
DictionaryVariables
280
     0
  1
1
  0
DICTIONARYVAR
  5
800
102
{ACAD_REACTORS
330
7FA
102
}
330
7FA
100
DictionaryVariables
280
     0
  1
1
  0
DICTIONARYVAR
  5
7FF
102
{ACAD_REACTORS
330
7FA
102
}
330
7FA
100
DictionaryVariables
280
     0
  1
0
  0
DICTIONARYVAR
  5
7FE
102
{ACAD_REACTORS
330
7FA
102
}
330
7FA
100
DictionaryVariables
280
     0
  1
127
  0
DICTIONARYVAR
  5
801
102
{ACAD_REACTORS
330
7FA
102
}
330
7FA
100
DictionaryVariables
280
     0
  1
0
  0
DICTIONARY
  5
7B3
102
{ACAD_REACTORS
330
7B2
102
}
330
7B2
100
AcDbDictionary
281
     1
  0
DICTIONARY
  5
7AD
102
{ACAD_REACTORS
330
7A3
102
}
330
7A3
100
AcDbDictionary
281
     1
  3
DWGSETTINGS
350
7AC
  3
TRANSSETTINGS
350
7AE
  0
DICTIONARY
  5
809
330
1D
100
AcDbDictionary
280
     1
281
     1
  3
ACAD_XREC_ROUNDTRIP
360
80A
  0
DICTIONARY
  5
807
330
17
100
AcDbDictionary
280
     1
281
     1
  3
ACAD_XREC_ROUNDTRIP
360
808
  0
DICTIONARY
  5
46
330
45
100
AcDbDictionary
280
     1
281
     1
  3
ACAD_XREC_ROUNDTRIP
360
80E
  3
BUMPTILE
360
47
  3
DIFFUSETILE
360
48
  3
OPACITYTILE
360
49
  3
REFLECTIONTILE
360
4A
  3
REFRACTIONTILE
360
4B
  3
SPECULARTILE
360
4C
  0
DICTIONARY
  5
3E
330
3D
100
AcDbDictionary
280
     1
281
     1
  3
ACAD_XREC_ROUNDTRIP
360
80D
  3
BUMPTILE
360
3F
  3
DIFFUSETILE
360
40
  3
OPACITYTILE
360
41
  3
REFLECTIONTILE
360
42
  3
REFRACTIONTILE
360
43
  3
SPECULARTILE
360
44
  0
DICTIONARY
  5
E
330
C
100
AcDbDictionary
280
     1
281
     1
  3
ACAD_XREC_ROUNDTRIP
360
806
  3
BUMPTILE
360
F
  3
DIFFUSETILE
360
10
  3
OPACITYTILE
360
11
  3
REFLECTIONTILE
360
12
  3
REFRACTIONTILE
360
13
  3
SPECULARTILE
360
14
  0
DICTIONARY
  5
56
330
55
100
AcDbDictionary
280
     1
281
     1
  3
ACAD_ROUNDTRIP_2008_TABLESTYLE_CELLSTYLEMAP
360
803
  3
ACAD_XREC_ROUNDTRIP
360
80F
  0
DICTIONARY
  5
80B
330
2E
100
AcDbDictionary
280
     1
281
     1
  3
ACAD_XREC_ROUNDTRIP
360
80C
  0
DICTIONARY
  5
810
330
57
100
AcDbDictionary
280
     1
281
     1
  3
ACAD_XREC_ROUNDTRIP
360
811
  0
DICTIONARY
  5
812
330
58
100
AcDbDictionary
280
     1
281
     1
  3
ACAD_XREC_ROUNDTRIP
360
813
  0
XRECORD
  5
80A
102
{ACAD_REACTORS
330
809
102
}
330
809
100
AcDbXrecord
280
     1
102
SHADEPLOT
 70
     0
102
SHADEPLOTRESLEVEL
 70
     2
102
SHADEPLOTCUSTOMDPI
 70
   300
  0
XRECORD
  5
808
102
{ACAD_REACTORS
330
807
102
}
330
807
100
AcDbXrecord
280
     1
102
SHADEPLOT
 70
     0
102
SHADEPLOTRESLEVEL
 70
     2
102
SHADEPLOTCUSTOMDPI
 70
   300
  0
XRECORD
  5
80E
102
{ACAD_REACTORS
330
46
102
}
330
46
100
AcDbXrecord
280
     1
102
MATERIAL
148
0.0
149
0.0
149
0.0
 93
        0
 94
      127
282
     0
 72
     0
 77
     0
171
     0
175
     0
179
     0
273
     0
  0
XRECORD
  5
47
102
{ACAD_REACTORS
330
46
102
}
330
46
100
AcDbXrecord
280
     1
270
     1
271
     1
  0
XRECORD
  5
48
102
{ACAD_REACTORS
330
46
102
}
330
46
100
AcDbXrecord
280
     1
270
     1
271
     1
  0
XRECORD
  5
49
102
{ACAD_REACTORS
330
46
102
}
330
46
100
AcDbXrecord
280
     1
270
     1
271
     1
  0
XRECORD
  5
4A
102
{ACAD_REACTORS
330
46
102
}
330
46
100
AcDbXrecord
280
     1
270
     1
271
     1
  0
XRECORD
  5
4B
102
{ACAD_REACTORS
330
46
102
}
330
46
100
AcDbXrecord
280
     1
270
     1
271
     1
  0
XRECORD
  5
4C
102
{ACAD_REACTORS
330
46
102
}
330
46
100
AcDbXrecord
280
     1
270
     1
271
     1
  0
XRECORD
  5
80D
102
{ACAD_REACTORS
330
3E
102
}
330
3E
100
AcDbXrecord
280
     1
102
MATERIAL
148
0.0
149
0.0
149
0.0
 93
        0
 94
      127
282
     0
 72
     0
 77
     0
171
     0
175
     0
179
     0
273
     0
  0
XRECORD
  5
3F
102
{ACAD_REACTORS
330
3E
102
}
330
3E
100
AcDbXrecord
280
     1
270
     1
271
     1
  0
XRECORD
  5
40
102
{ACAD_REACTORS
330
3E
102
}
330
3E
100
AcDbXrecord
280
     1
270
     1
271
     1
  0
XRECORD
  5
41
102
{ACAD_REACTORS
330
3E
102
}
330
3E
100
AcDbXrecord
280
     1
270
     1
271
     1
  0
XRECORD
  5
42
102
{ACAD_REACTORS
330
3E
102
}
330
3E
100
AcDbXrecord
280
     1
270
     1
271
     1
  0
XRECORD
  5
43
102
{ACAD_REACTORS
330
3E
102
}
330
3E
100
AcDbXrecord
280
     1
270
     1
271
     1
  0
XRECORD
  5
44
102
{ACAD_REACTORS
330
3E
102
}
330
3E
100
AcDbXrecord
280
     1
270
     1
271
     1
  0
XRECORD
  5
806
102
{ACAD_REACTORS
330
E
102
}
330
E
100
AcDbXrecord
280
     1
102
MATERIAL
148
0.0
149
0.0
149
0.0
 93
        0
 94
      127
282
     0
 72
     0
 77
     0
171
     0
175
     0
179
     0
273
     0
  0
XRECORD
  5
F
102
{ACAD_REACTORS
330
E
102
}
330
E
100
AcDbXrecord
280
     1
270
     1
271
     1
  0
XRECORD
  5
10
102
{ACAD_REACTORS
330
E
102
}
330
E
100
AcDbXrecord
280
     1
270
     1
271
     1
  0
XRECORD
  5
11
102
{ACAD_REACTORS
330
E
102
}
330
E
100
AcDbXrecord
280
     1
270
     1
271
     1
  0
XRECORD
  5
12
102
{ACAD_REACTORS
330
E
102
}
330
E
100
AcDbXrecord
280
     1
270
     1
271
     1
  0
XRECORD
  5
13
102
{ACAD_REACTORS
330
E
102
}
330
E
100
AcDbXrecord
280
     1
270
     1
271
     1
  0
XRECORD
  5
14
102
{ACAD_REACTORS
330
E
102
}
330
E
100
AcDbXrecord
280
     1
270
     1
271
     1
  0
CELLSTYLEMAP
  5
803
102
{ACAD_REACTORS
330
56
102
}
330
56
100
AcDbCellStyleMap
 90
        3
300
CELLSTYLE
  1
TABLEFORMAT_BEGIN
 90
        5
170
     1
 91
        0
 92
    32768
 62
   257
 93
        1
300
CONTENTFORMAT
  1
CONTENTFORMAT_BEGIN
 90
        0
 91
        0
 92
        4
 93
        0
300

 40
0.0
140
1.0
 94
        5
 62
     0
340
25
144
6.0
309
CONTENTFORMAT_END
171
     1
301
MARGIN
  1
CELLMARGIN_BEGIN
 40
1.5
 40
1.5
 40
1.5
 40
1.5
 40
0.18
 40
0.18
309
CELLMARGIN_END
 94
        6
 95
        1
302
GRIDFORMAT
  1
GRIDFORMAT_BEGIN
 90
        0
 91
        1
 62
     0
 92
       -2
340
0
 93
        0
 40
0.045
309
GRIDFORMAT_END
 95
        2
302
GRIDFORMAT
  1
GRIDFORMAT_BEGIN
 90
        0
 91
        1
 62
     0
 92
       -2
340
0
 93
        0
 40
0.045
309
GRIDFORMAT_END
 95
        4
302
GRIDFORMAT
  1
GRIDFORMAT_BEGIN
 90
        0
 91
        1
 62
     0
 92
       -2
340
0
 93
        0
 40
0.045
309
GRIDFORMAT_END
 95
        8
302
GRIDFORMAT
  1
GRIDFORMAT_BEGIN
 90
        0
 91
        1
 62
     0
 92
       -2
340
0
 93
        0
 40
0.045
309
GRIDFORMAT_END
 95
       16
302
GRIDFORMAT
  1
GRIDFORMAT_BEGIN
 90
        0
 91
        1
 62
     0
 92
       -2
340
0
 93
        0
 40
0.045
309
GRIDFORMAT_END
 95
       32
302
GRIDFORMAT
  1
GRIDFORMAT_BEGIN
 90
        0
 91
        1
 62
     0
 92
       -2
340
0
 93
        0
 40
0.045
309
GRIDFORMAT_END
309
TABLEFORMAT_END
  1
CELLSTYLE_BEGIN
 90
        1
 91
        1
300
_TITLE
309
CELLSTYLE_END
300
CELLSTYLE
  1
TABLEFORMAT_BEGIN
 90
        5
170
     1
 91
        0
 92
        0
 62
   257
 93
        1
300
CONTENTFORMAT
  1
CONTENTFORMAT_BEGIN
 90
        0
 91
        0
 92
        4
 93
        0
300

 40
0.0
140
1.0
 94
        5
 62
     0
340
25
144
4.5
309
CONTENTFORMAT_END
171
     1
301
MARGIN
  1
CELLMARGIN_BEGIN
 40
1.5
 40
1.5
 40
1.5
 40
1.5
 40
0.18
 40
0.18
309
CELLMARGIN_END
 94
        6
 95
        1
302
GRIDFORMAT
  1
GRIDFORMAT_BEGIN
 90
        0
 91
        1
 62
     0
 92
       -2
340
0
 93
        0
 40
0.045
309
GRIDFORMAT_END
 95
        2
302
GRIDFORMAT
  1
GRIDFORMAT_BEGIN
 90
        0
 91
        1
 62
     0
 92
       -2
340
0
 93
        0
 40
0.045
309
GRIDFORMAT_END
 95
        4
302
GRIDFORMAT
  1
GRIDFORMAT_BEGIN
 90
        0
 91
        1
 62
     0
 92
       -2
340
0
 93
        0
 40
0.045
309
GRIDFORMAT_END
 95
        8
302
GRIDFORMAT
  1
GRIDFORMAT_BEGIN
 90
        0
 91
        1
 62
     0
 92
       -2
340
0
 93
        0
 40
0.045
309
GRIDFORMAT_END
 95
       16
302
GRIDFORMAT
  1
GRIDFORMAT_BEGIN
 90
        0
 91
        1
 62
     0
 92
       -2
340
0
 93
        0
 40
0.045
309
GRIDFORMAT_END
 95
       32
302
GRIDFORMAT
  1
GRIDFORMAT_BEGIN
 90
        0
 91
        1
 62
     0
 92
       -2
340
0
 93
        0
 40
0.045
309
GRIDFORMAT_END
309
TABLEFORMAT_END
  1
CELLSTYLE_BEGIN
 90
        2
 91
        1
300
_HEADER
309
CELLSTYLE_END
300
CELLSTYLE
  1
TABLEFORMAT_BEGIN
 90
        5
170
     1
 91
        0
 92
        0
 62
   257
 93
        1
300
CONTENTFORMAT
  1
CONTENTFORMAT_BEGIN
 90
        0
 91
        0
 92
        4
 93
        0
300

 40
0.0
140
1.0
 94
        2
 62
     0
340
25
144
4.5
309
CONTENTFORMAT_END
171
     1
301
MARGIN
  1
CELLMARGIN_BEGIN
 40
1.5
 40
1.5
 40
1.5
 40
1.5
 40
0.18
 40
0.18
309
CELLMARGIN_END
 94
        6
 95
        1
302
GRIDFORMAT
  1
GRIDFORMAT_BEGIN
 90
        0
 91
        1
 62
     0
 92
       -2
340
0
 93
        0
 40
0.045
309
GRIDFORMAT_END
 95
        2
302
GRIDFORMAT
  1
GRIDFORMAT_BEGIN
 90
        0
 91
        1
 62
     0
 92
       -2
340
0
 93
        0
 40
0.045
309
GRIDFORMAT_END
 95
        4
302
GRIDFORMAT
  1
GRIDFORMAT_BEGIN
 90
        0
 91
        1
 62
     0
 92
       -2
340
0
 93
        0
 40
0.045
309
GRIDFORMAT_END
 95
        8
302
GRIDFORMAT
  1
GRIDFORMAT_BEGIN
 90
        0
 91
        1
 62
     0
 92
       -2
340
0
 93
        0
 40
0.045
309
GRIDFORMAT_END
 95
       16
302
GRIDFORMAT
  1
GRIDFORMAT_BEGIN
 90
        0
 91
        1
 62
     0
 92
       -2
340
0
 93
        0
 40
0.045
309
GRIDFORMAT_END
 95
       32
302
GRIDFORMAT
  1
GRIDFORMAT_BEGIN
 90
        0
 91
        1
 62
     0
 92
       -2
340
0
 93
        0
 40
0.045
309
GRIDFORMAT_END
309
TABLEFORMAT_END
  1
CELLSTYLE_BEGIN
 90
        3
 91
        2
300
_DATA
309
CELLSTYLE_END
  0
XRECORD
  5
80F
102
{ACAD_REACTORS
330
56
102
}
330
56
100
AcDbXrecord
280
     1
102
ACAD_ROUNDTRIP_PRE2007_TABLESTYLE
 90
        4
 91
        0
  1

 92
        4
 93
        0
  2

 94
        4
 95
        0
  3

  0
XRECORD
  5
80C
102
{ACAD_REACTORS
330
80B
102
}
330
80B
100
AcDbXrecord
280
     1
102
RTVSPropertyOp0
 70
     1
102
RTVSPropertyOp1
 70
     1
102
RTVSPropertyOp2
 70
     1
102
RTVSPropertyOp3
 70
     1
102
RTVSPropertyOp4
 70
     1
102
RTVSPropertyOp5
 70
     1
102
RTVSPropertyOp6
 70
     1
102
RTVSPropertyOp7
 70
     1
102
RTVSPropertyOp8
 70
     1
102
RTVSPropertyOp9
 70
     1
102
RTVSPropertyOp10
 70
     1
102
RTVSPropertyOp11
 70
     1
102
RTVSPropertyOp12
 70
     1
102
RTVSPropertyOp13
 70
     1
102
RTVSPropertyOp14
 70
     1
102
RTVSPropertyOp15
 70
     1
102
RTVSPropertyOp16
 70
     1
102
RTVSPropertyOp17
 70
     1
102
RTVSPropertyOp18
 70
     1
102
RTVSPropertyOp19
 70
     1
102
RTVSPropertyOp20
 70
     1
102
RTVSPropertyOp21
 70
     1
102
RTVSPropertyOp22
 70
     1
102
RTVSPropertyOp23
 70
     1
102
RTVSPropertyOp24
 70
     1
102
RTVSPropertyOp25
 70
     1
102
RTVSPropertyOp26
 70
     1
102
RTVSPropertyOp27
 70
     1
102
RTVSPropertyOp28
 70
     1
102
RTVSPropertyOp29
 70
     1
102
RTVSPropertyOp30
 70
     1
102
RTVSPropertyOp31
 70
     1
102
RTVSPropertyOp32
 70
     1
  0
XRECORD
  5
811
102
{ACAD_REACTORS
330
810
102
}
330
810
100
AcDbXrecord
280
     1
102
RTVSPropertyOp0
 70
     1
102
RTVSPropertyOp1
 70
     1
102
RTVSPropertyOp2
 70
     1
102
RTVSPropertyOp3
 70
     1
102
RTVSPropertyOp4
 70
     1
102
RTVSPropertyOp5
 70
     1
102
RTVSPropertyOp6
 70
     1
102
RTVSPropertyOp7
 70
     1
102
RTVSPropertyOp8
 70
     1
102
RTVSPropertyOp9
 70
     1
102
RTVSPropertyOp10
 70
     1
102
RTVSPropertyOp11
 70
     1
102
RTVSPropertyOp12
 70
     1
102
RTVSPropertyOp13
 70
     1
102
RTVSPropertyOp14
 70
     1
102
RTVSPropertyOp15
 70
     1
102
RTVSPropertyOp16
 70
     1
102
RTVSPropertyOp17
 70
     1
102
RTVSPropertyOp18
 70
     1
102
RTVSPropertyOp19
 70
     1
102
RTVSPropertyOp20
 70
     1
102
RTVSPropertyOp21
 70
     1
102
RTVSPropertyOp22
 70
     1
102
RTVSPropertyOp23
 70
     1
102
RTVSPropertyOp24
 70
     1
102
RTVSPropertyOp25
 70
     1
102
RTVSPropertyOp26
 70
     1
102
RTVSPropertyOp27
 70
     1
102
RTVSPropertyOp28
 70
     1
102
RTVSPropertyOp29
 70
     1
102
RTVSPropertyOp30
 70
     1
102
RTVSPropertyOp31
 70
     1
102
RTVSPropertyOp32
 70
     1
  0
XRECORD
  5
813
102
{ACAD_REACTORS
330
812
102
}
330
812
100
AcDbXrecord
280
     1
102
RTVSPropertyOp0
 70
     1
102
RTVSPropertyOp1
 70
     1
102
RTVSPropertyOp2
 70
     1
102
RTVSPropertyOp3
 70
     1
102
RTVSPropertyOp4
 70
     1
102
RTVSPropertyOp5
 70
     1
102
RTVSPropertyOp6
 70
     1
102
RTVSPropertyOp7
 70
     1
102
RTVSPropertyOp8
 70
     1
102
RTVSPropertyOp9
 70
     1
102
RTVSPropertyOp10
 70
     1
102
RTVSPropertyOp11
 70
     1
102
RTVSPropertyOp12
 70
     1
102
RTVSPropertyOp13
 70
     1
102
RTVSPropertyOp14
 70
     1
102
RTVSPropertyOp15
 70
     1
102
RTVSPropertyOp16
 70
     1
102
RTVSPropertyOp17
 70
     1
102
RTVSPropertyOp18
 70
     1
102
RTVSPropertyOp19
 70
     1
102
RTVSPropertyOp20
 70
     1
102
RTVSPropertyOp21
 70
     1
102
RTVSPropertyOp22
 70
     1
102
RTVSPropertyOp23
 70
     1
102
RTVSPropertyOp24
 70
     1
102
RTVSPropertyOp25
 70
     1
102
RTVSPropertyOp26
 70
     1
102
RTVSPropertyOp27
 70
     1
102
RTVSPropertyOp28
 70
     1
102
RTVSPropertyOp29
 70
     1
102
RTVSPropertyOp30
 70
     1
102
RTVSPropertyOp31
 70
     1
102
RTVSPropertyOp32
 70
     1
  0
ENDSEC
  0
EOF
