  0
SECTION
  2
HEADER
  9
$ACADVER
  1
AC1024
  9
$ACADMAINTVER
 70
   157
  9
$DWGCODEPAGE
  3
ANSI_1252
  9
$LASTSAVEDBY
  1
phiose
  9
$INSBASE
 10
0.0
 20
0.0
 30
0.0
  9
$EXTMIN
 10
-505.7009319678074
 20
118.0912517612346
 30
-0.0000000000000058
  9
$EXTMAX
 10
-309.2042368887173
 20
1486.072242738253
 30
0.0000000000000104
  9
$LIMMIN
 10
0.0
 20
0.0
  9
$LIMMAX
 10
500.0
 20
600.0
  9
$ORTHOMODE
 70
     1
  9
$REGENMODE
 70
     1
  9
$FILLMODE
 70
     1
  9
$QTEXTMODE
 70
     0
  9
$MIRRTEXT
 70
     1
  9
$LTSCALE
 40
1.0
  9
$ATTMODE
 70
     1
  9
$TEXTSIZE
 40
2.399999999999999
  9
$TRACEWID
 40
0.05
  9
$TEXTSTYLE
  7
NORM
  9
$CLAYER
  8
SCHRAFFUR
  9
$CELTYPE
  6
BYLAYER
  9
$CECOLOR
 62
   256
  9
$CELTSCALE
 40
1.0
  9
$DISPSILH
 70
     0
  9
$DIMSCALE
 40
1.0
  9
$DIMASZ
 40
12.0
  9
$DIMEXO
 40
0.0
  9
$DIMDLI
 40
8.0
  9
$DIMRND
 40
0.0
  9
$DIMDLE
 40
0.0
  9
$DIMEXE
 40
1.0
  9
$DIMTP
 40
0.0
  9
$DIMTM
 40
0.0
  9
$DIMTXT
 40
9.0
  9
$DIMCEN
 40
1.5
  9
$DIMTSZ
 40
0.0
  9
$DIMTOL
 70
     0
  9
$DIMLIM
 70
     0
  9
$DIMTIH
 70
     0
  9
$DIMTOH
 70
     0
  9
$DIMSE1
 70
     0
  9
$DIMSE2
 70
     0
  9
$DIMTAD
 70
     1
  9
$DIMZIN
 70
     8
  9
$DIMBLK
  1

  9
$DIMASO
 70
     1
  9
$DIMSHO
 70
     1
  9
$DIMPOST
  1

  9
$DIMAPOST
  1

  9
$DIMALT
 70
     0
  9
$DIMALTD
 70
     2
  9
$DIMALTF
 40
25.39999999999999
  9
$DIMLFAC
 40
1.0
  9
$DIMTOFL
 70
     1
  9
$DIMTVP
 40
0.0
  9
$DIMTIX
 70
     1
  9
$DIMSOXD
 70
     0
  9
$DIMSAH
 70
     0
  9
$DIMBLK1
  1

  9
$DIMBLK2
  1

  9
$DIMSTYLE
  2
Katalog 09
  9
$DIMCLRD
 70
     2
  9
$DIMCLRE
 70
     2
  9
$DIMCLRT
 70
     3
  9
$DIMTFAC
 40
0.428571428571429
  9
$DIMGAP
 40
2.5
  9
$DIMJUST
 70
     0
  9
$DIMSD1
 70
     0
  9
$DIMSD2
 70
     0
  9
$DIMTOLJ
 70
     1
  9
$DIMTZIN
 70
     8
  9
$DIMALTZ
 70
     8
  9
$DIMALTTZ
 70
     8
  9
$DIMUPT
 70
     0
  9
$DIMDEC
 70
     2
  9
$DIMTDEC
 70
     2
  9
$DIMALTU
 70
     2
  9
$DIMALTTD
 70
     2
  9
$DIMTXSTY
  7
ARIAL-STANDARD
  9
$DIMAUNIT
 70
     0
  9
$DIMADEC
 70
     0
  9
$DIMALTRND
 40
0.0
  9
$DIMAZIN
 70
     0
  9
$DIMDSEP
 70
    46
  9
$DIMATFIT
 70
     3
  9
$DIMFRAC
 70
     0
  9
$DIMLDRBLK
  1

  9
$DIMLUNIT
 70
     2
  9
$DIMLWD
 70
    -2
  9
$DIMLWE
 70
    -2
  9
$DIMTMOVE
 70
     0
  9
$DIMFXL
 40
1.0
  9
$DIMFXLON
 70
     0
  9
$DIMJOGANG
 40
0.7853981633974483
  9
$DIMTFILL
 70
     0
  9
$DIMTFILLCLR
 70
     0
  9
$DIMARCSYM
 70
     0
  9
$DIMLTYPE
  6

  9
$DIMLTEX1
  6

  9
$DIMLTEX2
  6

  9
$DIMTXTDIRECTION
 70
     0
  9
$LUNITS
 70
     2
  9
$LUPREC
 70
     2
  9
$SKETCHINC
 40
0.1
  9
$FILLETRAD
 40
0.3
  9
$AUNITS
 70
     0
  9
$AUPREC
 70
     0
  9
$MENU
  1
.
  9
$ELEVATION
 40
0.0
  9
$PELEVATION
 40
0.0
  9
$THICKNESS
 40
0.0
  9
$LIMCHECK
 70
     0
  9
$CHAMFERA
 40
0.5
  9
$CHAMFERB
 40
0.5
  9
$CHAMFERC
 40
1.0
  9
$CHAMFERD
 40
0.0
  9
$SKPOLY
 70
     0
  9
$TDCREATE
 40
2451305.426412037
  9
$TDUCREATE
 40
2451305.343078704
  9
$TDUPDATE
 40
2457906.622780000
  9
$TDUUPDATE
 40
2457906.539446667
  9
$TDINDWG
 40
9.1246375810
  9
$TDUSRTIMER
 40
9.1246373032
  9
$USRTIMER
 70
     1
  9
$ANGBASE
 50
0.0
  9
$ANGDIR
 70
     0
  9
$PDMODE
 70
     0
  9
$PDSIZE
 40
0.0
  9
$PLINEWID
 40
0.0
  9
$SPLFRAME
 70
     0
  9
$SPLINETYPE
 70
     6
  9
$SPLINESEGS
 70
     8
  9
$HANDSEED
  5
7F0
  9
$SURFTAB1
 70
     6
  9
$SURFTAB2
 70
     6
  9
$SURFTYPE
 70
     6
  9
$SURFU
 70
     6
  9
$SURFV
 70
     6
  9
$UCSBASE
  2

  9
$UCSNAME
  2

  9
$UCSORG
 10
0.0
 20
0.0
 30
0.0
  9
$UCSXDIR
 10
1.0
 20
0.0
 30
0.0
  9
$UCSYDIR
 10
0.0
 20
1.0
 30
0.0
  9
$UCSORTHOREF
  2

  9
$UCSORTHOVIEW
 70
     0
  9
$UCSORGTOP
 10
0.0
 20
0.0
 30
0.0
  9
$UCSORGBOTTOM
 10
0.0
 20
0.0
 30
0.0
  9
$UCSORGLEFT
 10
0.0
 20
0.0
 30
0.0
  9
$UCSORGRIGHT
 10
0.0
 20
0.0
 30
0.0
  9
$UCSORGFRONT
 10
0.0
 20
0.0
 30
0.0
  9
$UCSORGBACK
 10
0.0
 20
0.0
 30
0.0
  9
$PUCSBASE
  2

  9
$PUCSNAME
  2

  9
$PUCSORG
 10
0.0
 20
0.0
 30
0.0
  9
$PUCSXDIR
 10
1.0
 20
0.0
 30
0.0
  9
$PUCSYDIR
 10
0.0
 20
1.0
 30
0.0
  9
$PUCSORTHOREF
  2

  9
$PUCSORTHOVIEW
 70
     0
  9
$PUCSORGTOP
 10
0.0
 20
0.0
 30
0.0
  9
$PUCSORGBOTTOM
 10
0.0
 20
0.0
 30
0.0
  9
$PUCSORGLEFT
 10
0.0
 20
0.0
 30
0.0
  9
$PUCSORGRIGHT
 10
0.0
 20
0.0
 30
0.0
  9
$PUCSORGFRONT
 10
0.0
 20
0.0
 30
0.0
  9
$PUCSORGBACK
 10
0.0
 20
0.0
 30
0.0
  9
$USERI1
 70
     0
  9
$USERI2
 70
     0
  9
$USERI3
 70
     0
  9
$USERI4
 70
     0
  9
$USERI5
 70
     0
  9
$USERR1
 40
0.0
  9
$USERR2
 40
0.0
  9
$USERR3
 40
0.0
  9
$USERR4
 40
0.0
  9
$USERR5
 40
0.0
  9
$WORLDVIEW
 70
     1
  9
$SHADEDGE
 70
     3
  9
$SHADEDIF
 70
    70
  9
$TILEMODE
 70
     1
  9
$MAXACTVP
 70
    48
  9
$PINSBASE
 10
0.0
 20
0.0
 30
0.0
  9
$PLIMCHECK
 70
     0
  9
$PEXTMIN
 10
1.000000000000000E+20
 20
1.000000000000000E+20
 30
1.000000000000000E+20
  9
$PEXTMAX
 10
-1.000000000000000E+20
 20
-1.000000000000000E+20
 30
-1.000000000000000E+20
  9
$PLIMMIN
 10
0.0
 20
0.0
  9
$PLIMMAX
 10
12.0
 20
9.0
  9
$UNITMODE
 70
     0
  9
$VISRETAIN
 70
     1
  9
$PLINEGEN
 70
     0
  9
$PSLTSCALE
 70
     1
  9
$TREEDEPTH
 70
  3020
  9
$CMLSTYLE
  2
STANDARD
  9
$CMLJUST
 70
     0
  9
$CMLSCALE
 40
1.0
  9
$PROXYGRAPHICS
 70
     1
  9
$MEASUREMENT
 70
     1
  9
$CELWEIGHT
370
    -1
  9
$ENDCAPS
280
     0
  9
$JOINSTYLE
280
     0
  9
$LWDISPLAY
290
     0
  9
$INSUNITS
 70
     4
  9
$HYPERLINKBASE
  1

  9
$STYLESHEET
  1

  9
$XEDIT
290
     1
  9
$CEPSNTYPE
380
     0
  9
$PSTYLEMODE
290
     1
  9
$FINGERPRINTGUID
  2
{4D602753-5D51-4328-81BF-4417E1DD7ABA}
  9
$VERSIONGUID
  2
{BC6C601D-0BD5-4FBD-8A6D-C6E043F20060}
  9
$EXTNAMES
290
     1
  9
$PSVPSCALE
 40
0.0
  9
$OLESTARTUP
290
     0
  9
$SORTENTS
280
   127
  9
$INDEXCTL
280
     0
  9
$HIDETEXT
280
     1
  9
$XCLIPFRAME
280
     0
  9
$HALOGAP
280
     0
  9
$OBSCOLOR
 70
   257
  9
$OBSLTYPE
280
     0
  9
$INTERSECTIONDISPLAY
280
     0
  9
$INTERSECTIONCOLOR
 70
   257
  9
$DIMASSOC
280
     1
  9
$PROJECTNAME
  1

  9
$CAMERADISPLAY
290
     0
  9
$LENSLENGTH
 40
50.0
  9
$CAMERAHEIGHT
 40
0.0
  9
$STEPSPERSEC
 40
2.0
  9
$STEPSIZE
 40
6.0
  9
$3DDWFPREC
 40
2.0
  9
$PSOLWIDTH
 40
0.25
  9
$PSOLHEIGHT
 40
4.0
  9
$LOFTANG1
 40
1.570796326794896
  9
$LOFTANG2
 40
1.570796326794896
  9
$LOFTMAG1
 40
0.0
  9
$LOFTMAG2
 40
0.0
  9
$LOFTPARAM
 70
     7
  9
$LOFTNORMALS
280
     1
  9
$LATITUDE
 40
37.795
  9
$LONGITUDE
 40
-122.394
  9
$NORTHDIRECTION
 40
0.0
  9
$TIMEZONE
 70
 -8000
  9
$LIGHTGLYPHDISPLAY
280
     1
  9
$TILEMODELIGHTSYNCH
280
     1
  9
$CMATERIAL
347
4F
  9
$SOLIDHIST
280
     1
  9
$SHOWHIST
280
     1
  9
$DWFFRAME
280
     2
  9
$DGNFRAME
280
     0
  9
$REALWORLDSCALE
290
     1
  9
$INTERFERECOLOR
 62
     1
  9
$INTERFEREOBJVS
345
69
  9
$INTERFEREVPVS
346
6A
  9
$CSHADOW
280
     0
  9
$SHADOWPLANELOCATION
 40
0.0
  0
ENDSEC
  0
SECTION
  2
CLASSES
  0
CLASS
  1
ACDBDICTIONARYWDFLT
  2
AcDbDictionaryWithDefault
  3
ObjectDBX Classes
 90
        0
 91
        1
280
     0
281
     0
  0
CLASS
  1
TABLESTYLE
  2
AcDbTableStyle
  3
ObjectDBX Classes
 90
     4095
 91
        1
280
     0
281
     0
  0
CLASS
  1
ACME_DOCUMENT
  2
AcMeDbDoc
  3
AcMeServices
 90
     1024
 91
        1
280
     0
281
     0
  0
CLASS
  1
AMGSETTINGSOBJ
  2
AmgSettingsObj
  3
"AcadM|Product Description: AutoCAD Mechanical|Company: Autodesk, Inc."
 90
     1024
 91
        2
280
     0
281
     0
  0
CLASS
  1
ACMESCOPE
  2
AcMeScope
  3
AcMeServices
 90
     1024
 91
        1
280
     0
281
     0
  0
CLASS
  1
ACMECOMMANDHISTORY
  2
AcMeCommandHistory
  3
AcMeServices
 90
     1024
 91
        1
280
     0
281
     0
  0
CLASS
  1
ACIMSYSVARMAN
  2
AcImSysVarManager
  3
AcMeServices
 90
     1024
 91
        3
280
     0
281
     0
  0
CLASS
  1
ACIMINTSYSVAR
  2
AcImIntSysVar
  3
AcMeServices
 90
     1024
 91
        2
280
     0
281
     0
  0
CLASS
  1
ACMEDRAWINGMAN
  2
AcMeDrawingMan
  3
AcMeServices
 90
     1024
 91
        0
280
     0
281
     0
  0
CLASS
  1
ACMEVIEW
  2
AcMeView
  3
AcMeServices
 90
     1024
 91
        0
280
     0
281
     0
  0
CLASS
  1
ACDBENTITYCACHE
  2
AcMeEntityCache
  3
AcMeServices
 90
     1024
 91
        1
280
     0
281
     0
  0
CLASS
  1
GSMANAGER
  2
AcMeGSManager
  3
AcMeServices
 90
     1024
 91
        0
280
     1
281
     0
  0
CLASS
  1
AMDTINTERNALREACTOR
  2
AmdtInternalReactor
  3
AcMeServices
 90
     1024
 91
        0
280
     0
281
     0
  0
CLASS
  1
ACMESTATEMGR
  2
AcMeStateMgr
  3
AcMeServices
 90
     1024
 91
        1
280
     0
281
     0
  0
CLASS
  1
ACGREFMASTER
  2
AcGrefMaster
  3
AcAttribServices
 90
     1024
 91
        1
280
     0
281
     0
  0
CLASS
  1
AM_DRAWING_MGR
  2
AcDmDwgMgr
  3
AcMechDwgViewMgmt
 90
     1024
 91
        0
280
     0
281
     0
  0
CLASS
  1
AM_DWG_DOCUMENT
  2
AcDmDwgDocument
  3
AcMechDwgViewMgmt
 90
     1024
 91
        0
280
     0
281
     0
  0
CLASS
  1
AM_DWG_SHEET
  2
AcDmSheet
  3
AcMechDwgViewMgmt
 90
     1024
 91
        0
280
     0
281
     0
  0
CLASS
  1
AM_VIEWDIMPARMAP
  2
AcDmViewDimParMap
  3
AcMechDwgViewMgmt
 90
     1024
 91
        0
280
     0
281
     0
  0
CLASS
  1
ACIMREALSYSVAR
  2
AcImRealSysVar
  3
AcMeServices
 90
     1024
 91
        0
280
     0
281
     0
  0
CLASS
  1
AM_DWGMGR_NAME
  2
AcDmDwgMgrName
  3
AcMechDwgViewMgmt
 90
     1024
 91
        0
280
     0
281
     0
  0
CLASS
  1
ACME_DATABASE
  2
AcMeDbDatabase
  3
AcMeServices
 90
     1024
 91
        1
280
     0
281
     0
  0
CLASS
  1
ACRFINSADJUSTERMGR
  2
AcRfInsAdjusterMgr
  3
AcMeServices
 90
     1024
 91
        1
280
     0
281
     0
  0
CLASS
  1
ACGREFACADMASTER
  2
AcGrefacadMaster
  3
AcGrefServices
 90
     1024
 91
        1
280
     0
281
     0
  0
CLASS
  1
AMDTMENUSTATEMGR
  2
AmdtMenuStateMgr
  3
McadcomServices
 90
     1024
 91
        1
280
     0
281
     0
  0
CLASS
  1
AMDTMCOMMENUSTATE
  2
AmdtMcomMenuState
  3
McadcomServices
 90
     1024
 91
        1
280
     0
281
     0
  0
CLASS
  1
AMIMASTER
  2
AmiMaster
  3
AmiServices
 90
     1024
 91
        1
280
     0
281
     0
  0
CLASS
  1
MAPIAMMOUDLE
  2
MApiAmModule
  3
MApiAmServices
 90
     1024
 91
        1
280
     0
281
     0
  0
CLASS
  1
ACIMSTRSYSVAR
  2
AcImStrSysVar
  3
AcMeServices
 90
     1024
 91
        5
280
     0
281
     0
  0
CLASS
  1
AMDTADMENUSTATE
  2
AmdtAdMenuState
  3
DesignerServices
 90
     1024
 91
        0
280
     1
281
     0
  0
CLASS
  1
ADAPPL
  2
AcAdAppl
  3
DesignerAssemblies
 90
     1024
 91
        0
280
     0
281
     0
  0
CLASS
  1
DEPMGR
  2
AcAdDepMgr
  3
DesignerAssemblies
 90
     1024
 91
        0
280
     0
281
     0
  0
CLASS
  1
PARAMMGR
  2
AcAdParamMgr
  3
DesignerAssemblies
 90
     1024
 91
        0
280
     0
281
     0
  0
CLASS
  1
PARAMSCOPE
  2
AcAdParamScope
  3
DesignerAssemblies
 90
     1024
 91
        0
280
     0
281
     0
  0
CLASS
  1
NAMEDAPPL
  2
AcAdNamedAppl
  3
DesignerAssemblies
 90
     1024
 91
        0
280
     0
281
     0
  0
CLASS
  1
AMDTDMMENUSTATE
  2
AmdtDmMenuState
  3
AcMechDwgViewMgmt
 90
     1024
 91
        0
280
     1
281
     0
  0
CLASS
  1
AMDTAMMENUSTATE
  2
AmdtAmMenuState
  3
DesignerAssemblies
 90
     1024
 91
        1
280
     0
281
     0
  0
CLASS
  1
ACAMPROJECT
  2
AcAmProject
  3
DesignerAssemblies
 90
     1024
 91
        1
280
     0
281
     0
  0
CLASS
  1
ACAMGRCOMPDEF
  2
AcAmGrCompDef
  3
DesignerAssemblies
 90
     1024
 91
        1
280
     0
281
     0
  0
CLASS
  1
ACCMCONTEXT
  2
AcCmContext
  3
DesignerAssemblies
 90
     1024
 91
        0
280
     0
281
     0
  0
CLASS
  1
ACAMCOMPDEF
  2
AcAmCompDef
  3
DesignerAssemblies
 90
     1024
 91
        1
280
     0
281
     0
  0
CLASS
  1
ACAMCOMPDEFMGR
  2
AcAmCompDefMgr
  3
DesignerAssemblies
 90
     1024
 91
        1
280
     0
281
     0
  0
CLASS
  1
AMCONTEXTMGR
  2
AcAmContextMgr
  3
DesignerAssemblies
 90
     1024
 91
        1
280
     0
281
     0
  0
CLASS
  1
ACAMCONTEXTMODELER
  2
AcAmContextModeler
  3
DesignerAssemblies
 90
     1024
 91
        1
280
     0
281
     0
  0
CLASS
  1
ACMDATADICTIONARY
  2
AcmDataDictionary
  3
"AcmSymBB|Product Description: AutoCAD Mechanical|Company: Autodesk, Inc."
 90
     1024
 91
        1
280
     0
281
     0
  0
CLASS
  1
CATALOGSTATE
  2
AcAmCatalogState
  3
DesignerAssemblies
 90
     1024
 91
        0
280
     0
281
     0
  0
CLASS
  1
ACAMGRCOMPDEFSET
  2
AcAmGrCompDefSet
  3
DesignerAssemblies
 90
     1024
 91
        1
280
     0
281
     0
  0
CLASS
  1
AMDTBROWSERDBTAB
  2
AmdtBrowserDbTab
  3
McadcomServices
 90
     1024
 91
        1
280
     0
281
     0
  0
CLASS
  1
CBROWSERAPPOBJECT
  2
CBrowserAppObject
  3
McadcomServices
 90
     1024
 91
        2
280
     0
281
     0
  0
CLASS
  1
DM_PLACEHOLDER
  2
AcDmSelsetPlaceholder
  3
McadcomServices
 90
     1024
 91
        1
280
     0
281
     0
  0
CLASS
  1
ACMSTANDARDANSI
  2
AcmStandardANSI
  3
"Amdt_StdImp|Product Description: AutoCAD Mechanical|Company: Autodesk, Inc."
 90
     1024
 91
        0
280
     0
281
     0
  0
CLASS
  1
AMGOBJPROPCFG
  2
AmgObjPropCfg
  3
"AmgLay|Product Description: AutoCAD Mechanical|Company: Autodesk, Inc."
 90
     1024
 91
        1
280
     0
281
     0
  0
CLASS
  1
ACMSURFSTANDARDANSI
  2
AcmSurfTextStdANSI
  3
"Amdt_StdImp|Product Description: AutoCAD Mechanical|Company: Autodesk, Inc."
 90
     1024
 91
        0
280
     0
281
     0
  0
CLASS
  1
ACMFCFSTANDARDANSI
  2
AcmFCFStdANSI
  3
"Amdt_StdImp|Product Description: AutoCAD Mechanical|Company: Autodesk, Inc."
 90
     1024
 91
        0
280
     0
281
     0
  0
CLASS
  1
ACMWELDSTANDARDANSI
  2
AcmWeldingStdANSI
  3
"Amdt_StdImp|Product Description: AutoCAD Mechanical|Company: Autodesk, Inc."
 90
     1024
 91
        0
280
     0
281
     0
  0
CLASS
  1
ACMIDSTANDARDANSI
  2
AcmIdStdANSI
  3
"Amdt_StdImp|Product Description: AutoCAD Mechanical|Company: Autodesk, Inc."
 90
     1024
 91
        0
280
     0
281
     0
  0
CLASS
  1
ACMDATUMSTANDARDANSI
  2
AcmDatumStdANSI
  3
"Amdt_StdImp|Product Description: AutoCAD Mechanical|Company: Autodesk, Inc."
 90
     1024
 91
        0
280
     0
281
     0
  0
CLASS
  1
ACMBOMSTANDARDANSI
  2
AcmBOMStdANSI
  3
"Amdt_StdImp|Product Description: AutoCAD Mechanical|Company: Autodesk, Inc."
 90
     1024
 91
        0
280
     0
281
     0
  0
CLASS
  1
ACMDETAILSTANDARDANSI
  2
AmdtDetailSymStdANSI
  3
"Amdt_StdImp|Product Description: AutoCAD Mechanical|Company: Autodesk, Inc."
 90
     1024
 91
        0
280
     0
281
     0
  0
CLASS
  1
ACMSECTIONSTANDARDANSI
  2
AmdtSectionSymStdANSI
  3
"Amdt_StdImp|Product Description: AutoCAD Mechanical|Company: Autodesk, Inc."
 90
     1024
 91
        0
280
     0
281
     0
  0
CLASS
  1
ACMCENTERLINESTANDARDANSI
  2
AmdtCenterLineStdANSI
  3
"Amdt_StdImp|Product Description: AutoCAD Mechanical|Company: Autodesk, Inc."
 90
     1024
 91
        0
280
     0
281
     0
  0
CLASS
  1
ACMTHREADLINESTANDARDANSI
  2
AmdtThreadLineStdANSI
  3
"Amdt_StdImp|Product Description: AutoCAD Mechanical|Company: Autodesk, Inc."
 90
     1024
 91
        0
280
     0
281
     0
  0
CLASS
  1
ACMNOTESTANDARDANSI
  2
AmdtNoteStdANSI
  3
"Amdt_StdImp|Product Description: AutoCAD Mechanical|Company: Autodesk, Inc."
 90
     1024
 91
        0
280
     0
281
     0
  0
CLASS
  1
AMDTNOTETEMPLATEDB
  2
AmdtNoteTemplateDB
  3
AcmSymBB|Product Description: AutoCAD Mechanical|Company: Autodesk, Inc.
 90
     1024
 91
        7
280
     0
281
     0
  0
CLASS
  1
ACAMGLAYSTD
  2
AcAmgLayStd
  3
"AmgLay|Product Description: AutoCAD Mechanical|Company: Autodesk, Inc."
 90
     1024
 91
        1
280
     0
281
     0
  0
CLASS
  1
ACAMGDIMSTD
  2
AcAmgDimStd
  3
"AmgDim|Product Description: AutoCAD Mechanical|Company: Autodesk, Inc."
 90
     1024
 91
        1
280
     0
281
     0
  0
CLASS
  1
ACAMGHOLECHARTSTDANSI
  2
AcAmgHoleChartStdANSI
  3
AmgDim|Product Description: AutoCAD Mechanical|Company: Autodesk, Inc.
 90
     1024
 91
        0
280
     0
281
     0
  0
CLASS
  1
ACAMGTITLESTD
  2
AcAmgTitleStd
  3
"AmgTitle|Product Description: AutoCAD Mechanical|Company: Autodesk, Inc."
 90
     1024
 91
        1
280
     0
281
     0
  0
CLASS
  1
ACAMGFILTERDAT
  2
AcAmgFilterDat
  3
"AcadM|Product Description: AutoCAD Mechanical|Company: Autodesk, Inc."
 90
     1024
 91
        0
280
     0
281
     0
  0
CLASS
  1
PLOTSETTINGS
  2
AcDbPlotSettings
  3
ObjectDBX Classes
 90
        0
 91
        0
280
     0
281
     0
  0
CLASS
  1
ACMSTANDARDDIN
  2
AcmStandardDIN
  3
"Amdt_StdImp|Product Description: AutoCAD Mechanical|Company: Autodesk, Inc."
 90
     1024
 91
        1
280
     0
281
     0
  0
CLASS
  1
AMDTEDGESTANDARDDIN
  2
AmdtEdgeStdDIN
  3
"Amdt_StdImp|Product Description: AutoCAD Mechanical|Company: Autodesk, Inc."
 90
     1024
 91
        0
280
     0
281
     0
  0
CLASS
  1
ACMSURFSTANDARDDIN
  2
AcmSurfTextStdDIN
  3
"Amdt_StdImp|Product Description: AutoCAD Mechanical|Company: Autodesk, Inc."
 90
     1024
 91
        0
280
     0
281
     0
  0
CLASS
  1
ACMFCFSTANDARDDIN
  2
AcmFCFStdDIN
  3
"Amdt_StdImp|Product Description: AutoCAD Mechanical|Company: Autodesk, Inc."
 90
     1024
 91
        0
280
     0
281
     0
  0
CLASS
  1
ACMWELDSTANDARDDIN
  2
AcmWeldingStdDIN
  3
"Amdt_StdImp|Product Description: AutoCAD Mechanical|Company: Autodesk, Inc."
 90
     1024
 91
        1
280
     0
281
     0
  0
CLASS
  1
ACMIDSTANDARDDIN
  2
AcmIdStdDIN
  3
"Amdt_StdImp|Product Description: AutoCAD Mechanical|Company: Autodesk, Inc."
 90
     1024
 91
        0
280
     0
281
     0
  0
CLASS
  1
ACMDATUMSTANDARDDIN
  2
AcmDatumStdDIN
  3
"Amdt_StdImp|Product Description: AutoCAD Mechanical|Company: Autodesk, Inc."
 90
     1024
 91
        1
280
     0
281
     0
  0
CLASS
  1
ACMBOMSTANDARDDIN
  2
AcmBOMStdDIN
  3
"Amdt_StdImp|Product Description: AutoCAD Mechanical|Company: Autodesk, Inc."
 90
     1024
 91
        1
280
     0
281
     0
  0
CLASS
  1
ACMDETAILSTANDARDDIN
  2
AmdtDetailSymStdDIN
  3
"Amdt_StdImp|Product Description: AutoCAD Mechanical|Company: Autodesk, Inc."
 90
     1024
 91
        1
280
     0
281
     0
  0
CLASS
  1
ACMSECTIONSTANDARDDIN
  2
AmdtSectionSymStdDIN
  3
"Amdt_StdImp|Product Description: AutoCAD Mechanical|Company: Autodesk, Inc."
 90
     1024
 91
        1
280
     0
281
     0
  0
CLASS
  1
ACMCENTERLINESTANDARDDIN
  2
AmdtCenterLineStdDIN
  3
"Amdt_StdImp|Product Description: AutoCAD Mechanical|Company: Autodesk, Inc."
 90
     1024
 91
        1
280
     0
281
     0
  0
CLASS
  1
ACMNOTESTANDARDDIN
  2
AmdtNoteStdDIN
  3
"Amdt_StdImp|Product Description: AutoCAD Mechanical|Company: Autodesk, Inc."
 90
     1024
 91
        1
280
     0
281
     0
  0
CLASS
  1
ACAMGHOLECHARTSTDDIN
  2
AcAmgHoleChartStdDIN
  3
AmgDim|Product Description: AutoCAD Mechanical|Company: Autodesk, Inc.
 90
     1024
 91
        1
280
     0
281
     0
  0
CLASS
  1
ACMTHREADLINESTANDARDDIN
  2
AmdtThreadLineStdDIN
  3
"Amdt_StdImp|Product Description: AutoCAD Mechanical|Company: Autodesk, Inc."
 90
     1024
 91
        1
280
     0
281
     0
  0
CLASS
  1
ACMDATAENTRYBLOCK
  2
AcmDataEntryBlock
  3
AcmSymBB|Product Description: AutoCAD Mechanical|Company: Autodesk, Inc.
 90
     1024
 91
        0
280
     0
281
     0
  0
CLASS
  1
DICTIONARYVAR
  2
AcDbDictionaryVar
  3
ObjectDBX Classes
 90
        0
 91
        9
280
     0
281
     0
  0
CLASS
  1
SORTENTSTABLE
  2
AcDbSortentsTable
  3
ObjectDBX Classes
 90
        0
 91
        1
280
     0
281
     0
  0
CLASS
  1
MATERIAL
  2
AcDbMaterial
  3
ObjectDBX Classes
 90
     1153
 91
        3
280
     0
281
     0
  0
CLASS
  1
VISUALSTYLE
  2
AcDbVisualStyle
  3
ObjectDBX Classes
 90
     4095
 91
       24
280
     0
281
     0
  0
CLASS
  1
SCALE
  2
AcDbScale
  3
ObjectDBX Classes
 90
     1153
 91
       17
280
     0
281
     0
  0
CLASS
  1
MLEADERSTYLE
  2
AcDbMLeaderStyle
  3
ACDB_MLEADERSTYLE_CLASS
 90
     4095
 91
        1
280
     0
281
     0
  0
CLASS
  1
ACMTAPERSTANDARDANSI
  2
AcmTaperStdANSI
  3
"Amdt_StdImp|Product Description: AutoCAD Mechanical|Company: Autodesk, Inc."
 90
     1024
 91
        0
280
     0
281
     0
  0
CLASS
  1
ACMANOOTATIONVIEWSTANDARDANSI
  2
AmdtAnViewStdANSI
  3
"Amdt_StdImp|Product Description: AutoCAD Mechanical|Company: Autodesk, Inc."
 90
     1024
 91
        0
280
     0
281
     0
  0
CLASS
  1
ACMTAPERSTANDARDDIN
  2
AcmTaperStdDIN
  3
"Amdt_StdImp|Product Description: AutoCAD Mechanical|Company: Autodesk, Inc."
 90
     1024
 91
        1
280
     0
281
     0
  0
CLASS
  1
ACMANOOTATIONVIEWSTANDARDDIN
  2
AmdtAnViewStdDIN
  3
"Amdt_StdImp|Product Description: AutoCAD Mechanical|Company: Autodesk, Inc."
 90
     1024
 91
        1
280
     0
281
     0
  0
CLASS
  1
ACRFATTGENMGR
  2
AcRfAttGeneralMgr
  3
AcAttribServices
 90
     1024
 91
        0
280
     0
281
     0
  0
CLASS
  1
ACRFMCADAPIATTHOLDER
  2
AcRfMCADAPIAttHolder
  3
AcAttribServices
 90
     1024
 91
        0
280
     0
281
     0
  0
CLASS
  1
AMDTSYSATTR
  2
AmdtSystemAttribute
  3
AcAttribServices
 90
     1024
 91
        0
280
     0
281
     0
  0
CLASS
  1
CAMSSTRUCTBTNSTATE
  2
StructBtnState
  3
DesignerAssemblies
 90
     1024
 91
        0
280
     0
281
     0
  0
CLASS
  1
CELLSTYLEMAP
  2
AcDbCellStyleMap
  3
ObjectDBX Classes
 90
     1152
 91
        2
280
     0
281
     0
  0
CLASS
  1
AEC_REFEDIT_STATUS_TRACKER
  2
AecDbRefEditStatusTracker
  3
AecArchBase70|Product Desc: Autodesk Architectural Desktop 2007 |Company: Autodesk,Inc. |WEB Address: www.autodesk.com
 90
      129
 91
        0
280
     1
281
     0
  0
CLASS
  1
NPOCOLLECTION
  2
AcDbImpNonPersistentObjectsCollection
  3
ObjectDBX Classes
 90
     1153
 91
        0
280
     0
281
     0
  0
CLASS
  1
ACDBLINERES
  2
AcDbLineRes
  3
AcGrefServices
 90
     1024
 91
        0
280
     0
281
     0
  0
CLASS
  1
AMDTNOTE
  2
AmdtNote
  3
"AcmSymBB|Product Description: AutoCAD Mechanical|Company: Autodesk, Inc."
 90
     1024
 91
        0
280
     0
281
     1
  0
CLASS
  1
AMDTFORMULAUPDATEDISPATCHER
  2
AmdtFormulaUpdateDispatcher
  3
AcMeServices
 90
     1024
 91
        0
280
     0
281
     0
  0
CLASS
  1
AMDTEDGESTANDARDDIN13715
  2
AmdtEdgeStdDIN13715
  3
"Amdt_StdImp|Product Description: AutoCAD Mechanical|Company: Autodesk, Inc."
 90
     1024
 91
        1
280
     0
281
     0
  0
CLASS
  1
ACMSURFSTANDARDDIN2002
  2
AcmSurfTextStdDIN2002
  3
"Amdt_StdImp|Product Description: AutoCAD Mechanical|Company: Autodesk, Inc."
 90
     1024
 91
        1
280
     0
281
     0
  0
CLASS
  1
ACMDIMBREAKPERSREACTOR
  2
AcmDimBreakPersReactor
  3
AmgDim|Product Description: AutoCAD Mechanical|Company: Autodesk, Inc.
 90
     1024
 91
        0
280
     0
281
     0
  0
CLASS
  1
ACDBASSOCNETWORK
  2
AcDbAssocNetwork
  3
ObjectDBX Classes
 90
     1025
 91
        0
280
     0
281
     0
  0
CLASS
  1
ACDBASSOC2DCONSTRAINTGROUP
  2
AcDbAssoc2dConstraintGroup
  3
ObjectDBX Classes
 90
     1025
 91
        0
280
     0
281
     0
  0
CLASS
  1
ACDBASSOCGEOMDEPENDENCY
  2
AcDbAssocGeomDependency
  3
ObjectDBX Classes
 90
     1025
 91
        0
280
     0
281
     0
  0
CLASS
  1
ACMFCFSTANDARDDIN2008
  2
AcmFCFStdDIN2008
  3
"Amdt_StdImp|Product Description: AutoCAD Mechanical|Company: Autodesk, Inc."
 90
     1024
 91
        1
280
     0
281
     0
  0
CLASS
  1
ACMIDSTANDARDDIN2008
  2
AcmIdStdDIN2008
  3
"Amdt_StdImp|Product Description: AutoCAD Mechanical|Company: Autodesk, Inc."
 90
     1024
 91
        1
280
     0
281
     0
  0
CLASS
  1
ACDB_DYNAMICBLOCKPURGEPREVENTER_VERSION
  2
AcDbDynamicBlockPurgePreventer
  3
ObjectDBX Classes
 90
     1153
 91
        0
280
     0
281
     0
  0
CLASS
  1
ACDBSECTIONVIEWSTYLE
  2
AcDbSectionViewStyle
  3
ObjectDBX Classes
 90
     1025
 91
        3
280
     0
281
     0
  0
CLASS
  1
ACDBDETAILVIEWSTYLE
  2
AcDbDetailViewStyle
  3
ObjectDBX Classes
 90
     1025
 91
        3
280
     0
281
     0
  0
CLASS
  1
ACMSECTIONSTANDARDCUSTOM
  2
AmdtSectionSymStdCustom
  3
"Amdt_StdImp|Product Description: AutoCAD Mechanical|Company: Autodesk, Inc."
 90
     1024
 91
        2
280
     0
281
     0
  0
CLASS
  1
ACMDETAILTANDARDCUSTOM
  2
AmdtDetailSymStdCustom
  3
"Amdt_StdImp|Product Description: AutoCAD Mechanical|Company: Autodesk, Inc."
 90
     1024
 91
        2
280
     0
281
     0
  0
CLASS
  1
FIELD
  2
AcDbField
  3
ObjectDBX Classes
 90
     1152
 91
        6
280
     0
281
     0
  0
CLASS
  1
FIELDLIST
  2
AcDbFieldList
  3
ObjectDBX Classes
 90
     1152
 91
        1
280
     0
281
     0
  0
ENDSEC
  0
SECTION
  2
TABLES
  0
TABLE
  2
VPORT
  5
2F
330
0
100
AcDbSymbolTable
 70
     1
  0
VPORT
  5
30
330
2F
100
AcDbSymbolTableRecord
100
AcDbViewportTableRecord
  2
*Active
 70
     0
 10
0.0
 20
0.0
 11
1.0
 21
1.0
 12
-407.4525844282622
 22
802.0817472497437
 13
0.0
 23
0.0
 14
10.0
 24
10.0
 15
10.0
 25
10.0
 16
0.0
 26
0.0
 36
1.0
 17
0.0
 27
0.0
 37
0.0
 40
1374.948636092351
 41
2.056924384027187
 42
50.0
 43
0.0
 44
0.0
 50
0.0
 51
0.0
 71
     0
 72
  5000
 73
     1
 74
     0
 75
     0
 76
     0
 77
     0
 78
     0
281
     0
 65
     0
110
0.0
120
0.0
130
0.0
111
1.0
121
0.0
131
0.0
112
0.0
122
1.0
132
0.0
 79
     0
146
0.0
348
31
 60
     3
 61
     5
292
     1
282
     1
141
0.0
142
0.0
 63
   250
421
  3355443
1001
ACAD_NAV_VCDISPLAY
1070
     3
  0
ENDTAB
  0
TABLE
  2
LTYPE
  5
2A
330
0
100
AcDbSymbolTable
 70
    23
  0
LTYPE
  5
2B
330
2A
100
AcDbSymbolTableRecord
100
AcDbLinetypeTableRecord
  2
BYBLOCK
 70
     0
  3

 72
    65
 73
     0
 40
0.0
  0
LTYPE
  5
2C
330
2A
100
AcDbSymbolTableRecord
100
AcDbLinetypeTableRecord
  2
BYLAYER
 70
     0
  3

 72
    65
 73
     0
 40
0.0
  0
LTYPE
  5
16
330
2A
100
AcDbSymbolTableRecord
100
AcDbLinetypeTableRecord
  2
CONTINUOUS
 70
     0
  3
Solid line
 72
    65
 73
     0
 40
0.0
  0
LTYPE
  5
BA
330
2A
100
AcDbSymbolTableRecord
100
AcDbLinetypeTableRecord
  2
STRICHPUNKT2
 70
     0
  3
Strichpunkt (.5x) _._._._._._._._._._._._._._._
 72
    65
 73
     4
 40
12.7
 49
6.349999999999997
 74
     0
 49
-3.174999999999998
 74
     0
 49
0.0
 74
     0
 49
-3.174999999999998
 74
     0
  0
LTYPE
  5
426
330
2A
100
AcDbSymbolTableRecord
100
AcDbLinetypeTableRecord
  2
ACDINWELD
 70
     0
  3
_ _ _ _ _
 72
    65
 73
     2
 40
2.0
 49
2.0
 74
     0
 49
-1.0
 74
     0
  0
LTYPE
  5
42A
330
2A
100
AcDbSymbolTableRecord
100
AcDbLinetypeTableRecord
  2
ACDINTGB
 70
     0
  3
__ . . __ . .
 72
    65
 73
     6
 40
9.0
 49
4.0
 74
     0
 49
-1.0
 74
     0
 49
1.0
 74
     0
 49
-1.0
 74
     0
 49
1.0
 74
     0
 49
-1.0
 74
     0
  0
LTYPE
  5
428
330
2A
100
AcDbSymbolTableRecord
100
AcDbLinetypeTableRecord
  2
ACDINTGL
 70
     0
  3
_ _ _ _ _
 72
    65
 73
     2
 40
3.0
 49
2.0
 74
     0
 49
-1.0
 74
     0
  0
LTYPE
  5
93
330
2A
100
AcDbSymbolTableRecord
100
AcDbLinetypeTableRecord
  2
DASHED
 70
     0
  3
Dashed __ __ __ __ __ __ __ __ __ __ __ __ __ _
 72
    65
 73
     2
 40
19.05
 49
12.7
 74
     0
 49
-6.349999999999997
 74
     0
  0
LTYPE
  5
413
330
2A
100
AcDbSymbolTableRecord
100
AcDbLinetypeTableRecord
  2
Amconstr
 70
     0
  3
_______________________
 72
    65
 73
     2
 40
9999.0
 49
9999.0
 74
     0
 49
0.0
 74
     0
  0
LTYPE
  5
416
330
2A
100
AcDbSymbolTableRecord
100
AcDbLinetypeTableRecord
  2
Amzigzag
 70
     0
  3
/\/-/\/-/\/-/\/-/\/-/\/
 72
    65
 73
     2
 40
11.0001
 49
0.0001
 74
     4
 75
   135
340
417
 46
0.04
 50
0.0
 44
0.0
 45
0.0
 49
-11.0
 74
     0
  0
LTYPE
  5
410
330
2A
100
AcDbSymbolTableRecord
100
AcDbLinetypeTableRecord
  2
AM_DIN_F_W050
 70
     0
  3
__ __ __ __ __ __ __ __ __ __ __ __ __ __ __
 72
    65
 73
     2
 40
6.25
 49
4.75
 74
     0
 49
-1.5
 74
     0
  0
LTYPE
  5
411
330
2A
100
AcDbSymbolTableRecord
100
AcDbLinetypeTableRecord
  2
AM_DIN_G_W050
 70
     0
  3
____ . ____ . ____ . ____ . ____ . ____ . ____
 72
    65
 73
     4
 40
13.75
 49
9.75
 74
     0
 49
-1.5
 74
     0
 49
1.0
 74
     0
 49
-1.5
 74
     0
  0
LTYPE
  5
412
330
2A
100
AcDbSymbolTableRecord
100
AcDbLinetypeTableRecord
  2
AM_DIN_K_W050
 70
     0
  3
_____ . . _____ . . _____ . . ____ .. ____
 72
    65
 73
     6
 40
16.25
 49
9.75
 74
     0
 49
-1.5
 74
     0
 49
1.0
 74
     0
 49
-1.5
 74
     0
 49
1.0
 74
     0
 49
-1.5
 74
     0
  0
LTYPE
  5
414
330
2A
100
AcDbSymbolTableRecord
100
AcDbLinetypeTableRecord
  2
AM_DIN_G_W050x2
 70
     0
  3
__ . __ . __ . __ . __ . __
 72
    65
 73
     4
 40
6.875
 49
4.75
 74
     0
 49
-0.875
 74
     0
 49
0.375
 74
     0
 49
-0.875
 74
     0
  0
LTYPE
  5
415
330
2A
100
AcDbSymbolTableRecord
100
AcDbLinetypeTableRecord
  2
AM_DIN_F_W050x2
 70
     0
  3
 _ _ _ _ _ _ _ _ _ _ _ _
 72
    65
 73
     2
 40
3.125
 49
2.25
 74
     0
 49
-0.875
 74
     0
  0
LTYPE
  5
4B6
330
2A
100
AcDbSymbolTableRecord
100
AcDbLinetypeTableRecord
  2
HIDDEN
 70
     0
  3
Hidden __ __ __ __ __ __ __ __ __ __ __ __ __ __
 72
    65
 73
     2
 40
9.525
 49
6.349999999999997
 74
     0
 49
-3.174999999999998
 74
     0
  0
LTYPE
  5
4B7
330
2A
100
AcDbSymbolTableRecord
100
AcDbLinetypeTableRecord
  2
PHANTOM2
 70
     0
  3
Phantom (.5x) ___ _ _ ___ _ _ ___ _ _ ___ _ _
 72
    65
 73
     6
 40
31.75
 49
15.875
 74
     0
 49
-3.174999999999998
 74
     0
 49
3.174999999999998
 74
     0
 49
-3.174999999999998
 74
     0
 49
3.174999999999998
 74
     0
 49
-3.174999999999998
 74
     0
  0
LTYPE
  5
4B8
330
2A
100
AcDbSymbolTableRecord
100
AcDbLinetypeTableRecord
  2
CENTER
 70
     0
  3
Center ____ _ ____ _ ____ _ ____ _ ____ _ ____
 72
    65
 73
     4
 40
50.8
 49
31.75
 74
     0
 49
-6.349999999999997
 74
     0
 49
6.349999999999997
 74
     0
 49
-6.349999999999997
 74
     0
  0
LTYPE
  5
4EE
330
2A
100
AcDbSymbolTableRecord
100
AcDbLinetypeTableRecord
  2
AM_ISO02W050
 70
     0
  3
__ __ __ __ __ __ __ __ __ __ __ __ __ __ __
 72
    65
 73
     2
 40
7.5
 49
6.0
 74
     0
 49
-1.5
 74
     0
  0
LTYPE
  5
4EF
330
2A
100
AcDbSymbolTableRecord
100
AcDbLinetypeTableRecord
  2
AM_ISO08W050
 70
     0
  3
____ . ____ . ____ . ____ . ____ . ____ . ____
 72
    65
 73
     4
 40
18.0
 49
12.0
 74
     0
 49
-1.5
 74
     0
 49
3.0
 74
     0
 49
-1.5
 74
     0
  0
LTYPE
  5
4F0
330
2A
100
AcDbSymbolTableRecord
100
AcDbLinetypeTableRecord
  2
AM_ISO09W050
 70
     0
  3
_____ . . _____ . . _____ . . ____ .. ____
 72
    65
 73
     6
 40
22.5
 49
12.0
 74
     0
 49
-1.5
 74
     0
 49
3.0
 74
     0
 49
-1.5
 74
     0
 49
3.0
 74
     0
 49
-1.5
 74
     0
  0
LTYPE
  5
4F1
330
2A
100
AcDbSymbolTableRecord
100
AcDbLinetypeTableRecord
  2
AM_ISO08W050x2
 70
     0
  3
__ . __ . __ . __ . __ . __
 72
    65
 73
     4
 40
9.0
 49
6.0
 74
     0
 49
-0.75
 74
     0
 49
1.5
 74
     0
 49
-0.75
 74
     0
  0
LTYPE
  5
4F2
330
2A
100
AcDbSymbolTableRecord
100
AcDbLinetypeTableRecord
  2
AM_ISO02W050x2
 70
     0
  3
 _ _ _ _ _ _ _ _ _ _ _ _
 72
    65
 73
     2
 40
3.75
 49
3.0
 74
     0
 49
-0.75
 74
     0
  0
ENDTAB
  0
TABLE
  2
LAYER
  5
20
102
{ACAD_XDICTIONARY
360
21
102
}
330
0
100
AcDbSymbolTable
 70
     7
  0
LAYER
  5
7
102
{ACAD_XDICTIONARY
360
8
102
}
330
20
100
AcDbSymbolTableRecord
100
AcDbLayerTableRecord
  2
0
 70
     0
 62
     7
  6
CONTINUOUS
370
    -3
390
A
347
D
  0
LAYER
  5
B2
102
{ACAD_XDICTIONARY
360
B3
102
}
330
20
100
AcDbSymbolTableRecord
100
AcDbLayerTableRecord
  2
UMRISS05
 70
     0
 62
     4
  6
CONTINUOUS
370
    -3
390
A
347
D
  0
LAYER
  5
7D
102
{ACAD_XDICTIONARY
360
7E
102
}
330
20
100
AcDbSymbolTableRecord
100
AcDbLayerTableRecord
  2
BEMASSUNG
 70
     0
 62
     2
  6
CONTINUOUS
370
    -3
390
A
347
D
  0
LAYER
  5
B7
102
{ACAD_XDICTIONARY
360
B8
102
}
330
20
100
AcDbSymbolTableRecord
100
AcDbLayerTableRecord
  2
ACHSEN
 70
     0
 62
     1
  6
STRICHPUNKT2
370
    -3
390
A
347
D
  0
LAYER
  5
8B
330
20
100
AcDbSymbolTableRecord
100
AcDbLayerTableRecord
  2
DEFPOINTS
 70
     0
 62
     7
  6
CONTINUOUS
290
     0
370
    -3
390
A
347
D
  0
LAYER
  5
92
330
20
100
AcDbSymbolTableRecord
100
AcDbLayerTableRecord
  2
Verdeckte Kanten(MSL)
 70
     0
 62
    11
  6
DASHED
370
    35
390
A
347
D
  0
LAYER
  5
63
102
{ACAD_XDICTIONARY
360
64
102
}
330
20
100
AcDbSymbolTableRecord
100
AcDbLayerTableRecord
  2
SCHRAFFUR
 70
     0
 62
     8
  6
CONTINUOUS
370
    -3
390
A
347
D
  0
ENDTAB
  0
TABLE
  2
STYLE
  5
27
330
0
100
AcDbSymbolTable
 70
     7
  0
STYLE
  5
28
330
27
100
AcDbSymbolTableRecord
100
AcDbTextStyleTableRecord
  2
STANDARD
 70
     0
 40
0.0
 41
1.0
 50
0.0
 71
     0
 42
10.0
  3
txt
  4

  0
STYLE
  5
65
330
27
100
AcDbSymbolTableRecord
100
AcDbTextStyleTableRecord
  2
NORM
 70
     0
 40
0.0
 41
0.8
 50
0.0
 71
     0
 42
2.399999999999999
  3
SIMPLEX.shx
  4

  0
STYLE
  5
424
330
27
100
AcDbSymbolTableRecord
100
AcDbTextStyleTableRecord
  2
ACDINGDT
 70
     0
 40
0.0
 41
1.0
 50
0.0
 71
     0
 42
2.5
  3
amgdt.shx
  4

  0
STYLE
  5
37
330
27
100
AcDbSymbolTableRecord
100
AcDbTextStyleTableRecord
  2
ARIAL-STANDARD
 70
     0
 40
0.0
 41
1.0
 50
0.0
 71
     0
 42
3.5
  3
arial.ttf
  4

1001
ACAD
1000
Arial
1071
       34
  0
STYLE
  5
417
330
27
100
AcDbSymbolTableRecord
100
AcDbTextStyleTableRecord
  2

 70
     1
 40
0.0
 41
1.0
 50
0.0
 71
     0
 42
2.5
  3
ltypeshp.shx
  4

  0
STYLE
  5
3C
330
27
100
AcDbSymbolTableRecord
100
AcDbTextStyleTableRecord
  2
NORMAL-MSL
 70
     0
 40
0.0
 41
1.0
 50
0.0
 71
     0
 42
0.2
  3
arial.ttf
  4

1001
ACAD
1000
Arial
1071
      256
  0
STYLE
  5
4F8
330
27
100
AcDbSymbolTableRecord
100
AcDbTextStyleTableRecord
  2
ACDINTS
 70
     0
 40
0.0
 41
1.0
 50
0.0
 71
     0
 42
2.399999999999999
  3
isocp.shx
  4

  0
ENDTAB
  0
TABLE
  2
VIEW
  5
2D
330
0
100
AcDbSymbolTable
 70
     0
  0
ENDTAB
  0
TABLE
  2
UCS
  5
2E
330
0
100
AcDbSymbolTable
 70
     0
  0
ENDTAB
  0
TABLE
  2
APPID
  5
34
330
0
100
AcDbSymbolTable
 70
    15
  0
APPID
  5
25
330
34
100
AcDbSymbolTableRecord
100
AcDbRegAppTableRecord
  2
ACAD
 70
     0
  0
APPID
  5
3D8
330
34
100
AcDbSymbolTableRecord
100
AcDbRegAppTableRecord
  2
GENIUS_GENODEF_13
 70
     0
  0
APPID
  5
45B
330
34
100
AcDbSymbolTableRecord
100
AcDbRegAppTableRecord
  2
ACAD_DSTYLE_DIMJOGGED_JOGANGLE_SYMBOL
 70
     0
  0
APPID
  5
39
330
34
100
AcDbSymbolTableRecord
100
AcDbRegAppTableRecord
  2
ACAD_DSTYLE_DIMJAG
 70
     0
  0
APPID
  5
38
330
34
100
AcDbSymbolTableRecord
100
AcDbRegAppTableRecord
  2
ACAD_DSTYLE_DIMBREAK
 70
     0
  0
APPID
  5
3A
330
34
100
AcDbSymbolTableRecord
100
AcDbRegAppTableRecord
  2
ACAD_DSTYLE_DIMTALN
 70
     0
  0
APPID
  5
1B
330
34
100
AcDbSymbolTableRecord
100
AcDbRegAppTableRecord
  2
ACAD_PSEXT
 70
     0
  0
APPID
  5
90
330
34
100
AcDbSymbolTableRecord
100
AcDbRegAppTableRecord
  2
ACAD_DSTYLE_DIMINSPECT
 70
     0
  0
APPID
  5
33
330
34
100
AcDbSymbolTableRecord
100
AcDbRegAppTableRecord
  2
ACAD_NAV_VCDISPLAY
 70
     0
  0
APPID
  5
3D7
330
34
100
AcDbSymbolTableRecord
100
AcDbRegAppTableRecord
  2
GENIUS_GENOBJ-N-FIL_13
 70
     0
  0
APPID
  5
46A
330
34
100
AcDbSymbolTableRecord
100
AcDbRegAppTableRecord
  2
ACATTRIBSERVICES
 70
     0
  0
APPID
  5
4AF
330
34
100
AcDbSymbolTableRecord
100
AcDbRegAppTableRecord
  2
MCAD_NO_VIS
 70
     0
  0
APPID
  5
4B0
330
34
100
AcDbSymbolTableRecord
100
AcDbRegAppTableRecord
  2
ACAD_TEMP_GRAPHIC
 70
     0
  0
APPID
  5
4D4
330
34
100
AcDbSymbolTableRecord
100
AcDbRegAppTableRecord
  2
DESIGNERASSEMBLIES
 70
     0
  0
APPID
  5
6F5
330
34
100
AcDbSymbolTableRecord
100
AcDbRegAppTableRecord
  2
ACAD_EXEMPT_FROM_CAD_STANDARDS
 70
     0
  0
ENDTAB
  0
TABLE
  2
DIMSTYLE
  5
35
330
0
100
AcDbSymbolTable
 70
    12
100
AcDbDimStyleTable
 71
     2
340
36
340
3B
  0
DIMSTYLE
105
45A
102
{ACAD_REACTORS
330
784
102
}
330
35
100
AcDbSymbolTableRecord
100
AcDbDimStyleTableRecord
  2
AM_DIN
 70
     0
  4
"
 41
3.5
 42
1.0
 43
10.0
 44
1.0
 47
0.1
 48
0.1
 50
90.0
 73
     0
 74
     0
 77
     1
 78
     8
 79
     2
140
3.5
141
0.0
143
0.0393701
146
0.71
147
1.5
172
     1
176
   256
177
   256
178
     2
271
     2
272
     3
274
     4
283
     0
284
     8
340
28
345
2B
346
2B
347
2B
371
    -1
372
    -1
1001
ACAD_DSTYLE_DIMJOGGED_JOGANGLE_SYMBOL
1070
   384
1040
1.570796326794896
  0
DIMSTYLE
105
45D
330
35
100
AcDbSymbolTableRecord
100
AcDbDimStyleTableRecord
  2
AM_DIN$3
 70
     0
  4
"
 41
3.5
 42
1.0
 43
10.0
 44
1.0
 47
0.1
 48
0.1
 50
90.0
 73
     0
 77
     1
 78
     8
 79
     2
140
3.5
141
0.0
143
0.0393701
146
0.71
147
1.5
176
   256
177
   256
178
     2
271
     2
272
     3
274
     4
283
     0
284
     8
288
     1
289
     0
340
28
345
2B
346
2B
347
2B
371
    -1
372
    -1
1001
ACAD_DSTYLE_DIMJOGGED_JOGANGLE_SYMBOL
1070
   384
1040
1.570796326794896
  0
DIMSTYLE
105
45E
330
35
100
AcDbSymbolTableRecord
100
AcDbDimStyleTableRecord
  2
AM_DIN$4
 70
     0
  4
"
 41
3.5
 42
1.0
 43
10.0
 44
1.0
 47
0.1
 48
0.1
 50
90.0
 73
     0
 74
     0
 77
     1
 78
     8
 79
     2
140
3.5
141
0.0
143
0.0393701
146
0.71
147
1.5
172
     1
176
   256
177
   256
178
     2
271
     2
272
     3
274
     4
283
     0
284
     8
340
28
345
2B
346
2B
347
2B
371
    -1
372
    -1
1001
ACAD_DSTYLE_DIMJOGGED_JOGANGLE_SYMBOL
1070
   384
1040
1.570796326794896
  0
DIMSTYLE
105
45F
330
35
100
AcDbSymbolTableRecord
100
AcDbDimStyleTableRecord
  2
AM_DIN$6
 70
     0
  4
"
 41
3.5
 42
1.0
 43
10.0
 44
1.0
 47
0.1
 48
0.1
 50
90.0
 73
     0
 74
     0
 78
     8
 79
     2
140
3.5
141
0.0
143
0.0393701
146
0.71
147
1.5
172
     1
176
   256
177
   256
178
     2
271
     2
272
     3
274
     4
283
     0
284
     8
340
28
345
2B
346
2B
347
2B
371
    -1
372
    -1
1001
ACAD_DSTYLE_DIMJOGGED_JOGANGLE_SYMBOL
1070
   384
1040
1.570796326794896
  0
DIMSTYLE
105
460
330
35
100
AcDbSymbolTableRecord
100
AcDbDimStyleTableRecord
  2
AM_DIN$7
 70
     0
  4
"
 41
3.5
 42
1.0
 43
10.0
 44
1.0
 47
0.1
 48
0.1
 50
90.0
 73
     0
 74
     0
 77
     1
 78
     8
 79
     2
140
3.5
141
0.0
143
0.0393701
146
0.71
147
1.5
172
     1
176
   256
177
   256
178
     2
271
     2
272
     3
274
     4
283
     0
284
     8
340
28
345
2B
346
2B
347
2B
371
    -1
372
    -1
1001
ACAD_DSTYLE_DIMJOGGED_JOGANGLE_SYMBOL
1070
   384
1040
1.570796326794896
  0
DIMSTYLE
105
461
330
35
100
AcDbSymbolTableRecord
100
AcDbDimStyleTableRecord
  2
AM_DIN$SF
 70
     0
  4
"
 41
3.5
 42
1.0
 43
10.0
 44
1.0
 47
0.1
 48
0.1
 50
90.0
 73
     0
 74
     0
 75
     1
 76
     1
 77
     1
 78
     8
 79
     2
140
3.5
141
0.0
143
0.0393701
146
0.71
147
1.5
172
     1
176
   256
177
   256
178
     2
271
     2
272
     3
274
     4
283
     0
284
     8
340
28
345
2B
346
2B
347
2B
371
    -1
372
    -1
1001
ACAD_DSTYLE_DIMJOGGED_JOGANGLE_SYMBOL
1070
   384
1040
1.570796326794896
  0
DIMSTYLE
105
462
330
35
100
AcDbSymbolTableRecord
100
AcDbDimStyleTableRecord
  2
AM_DIN$SH
 70
     0
  4
"
 41
3.5
 42
1.0
 43
10.0
 44
1.0
 47
0.1
 48
0.1
 50
90.0
 73
     0
 74
     0
 75
     1
 76
     1
 77
     1
 78
     8
 79
     2
140
3.5
141
0.0
143
0.0393701
144
2.0
146
0.71
147
1.5
172
     1
173
     1
176
   256
177
   256
178
     2
271
     2
272
     3
274
     4
283
     0
284
     8
340
28
343
463
345
2B
346
2B
347
2B
371
    -1
372
    -1
1001
ACAD_DSTYLE_DIMJOGGED_JOGANGLE_SYMBOL
1070
   384
1040
1.570796326794896
  0
DIMSTYLE
105
36
102
{ACAD_REACTORS
330
1D3
330
1C4
330
190
330
19F
330
12E
330
121
330
111
330
104
330
F7
330
EA
330
DD
330
D0
330
C1
330
A4
330
97
102
}
330
35
100
AcDbSymbolTableRecord
100
AcDbDimStyleTableRecord
  2
Katalog 09
 70
     0
 41
12.0
 42
0.0
 43
8.0
 44
1.0
 73
     0
 74
     0
 77
     1
 78
     8
140
9.0
141
1.5
143
25.39999999999999
146
0.428571428571429
147
2.5
172
     1
174
     1
176
     2
177
     2
178
     3
271
     2
272
     2
284
     8
285
     8
286
     8
340
37
1001
ACAD_DSTYLE_DIMBREAK
1070
   391
1040
3.75
1001
ACAD_DSTYLE_DIMJAG
1070
   388
1040
1.5
1001
ACAD_DSTYLE_DIMTALN
1070
   392
1070
     0
  0
DIMSTYLE
105
3B
330
35
100
AcDbSymbolTableRecord
100
AcDbDimStyleTableRecord
  2
NORMAL-MSL
 70
     0
 41
3.5
 42
0.0
 43
6.099999999999997
 44
1.0
 45
0.00000001
 46
7.0
 73
     0
 74
     0
 77
     1
 78
     8
 79
     2
140
3.5
143
1.0
146
0.5
147
1.0
172
     1
176
     5
177
     5
178
     7
179
     1
271
     2
272
     2
284
     8
286
     8
340
3C
342
3D
371
     0
372
     0
  0
DIMSTYLE
105
45C
330
35
100
AcDbSymbolTableRecord
100
AcDbDimStyleTableRecord
  2
AM_DIN$0
 70
     0
  4
"
 41
3.5
 42
1.0
 43
10.0
 44
1.0
 47
0.1
 48
0.1
 50
90.0
 73
     0
 74
     0
 77
     1
 78
     8
 79
     2
140
3.5
141
0.0
143
0.0393701
146
0.71
147
1.5
172
     1
176
   256
177
   256
178
     2
271
     2
272
     3
274
     4
283
     0
284
     8
340
28
345
2B
346
2B
347
2B
371
    -1
372
    -1
  0
DIMSTYLE
105
8F
102
{ACAD_REACTORS
330
7C
102
}
330
35
100
AcDbSymbolTableRecord
100
AcDbDimStyleTableRecord
  2
Katalog 09$0
 70
     0
 41
4.0
 42
0.0
 43
8.0
 44
1.0
 73
     0
 74
     0
 77
     1
 78
     8
140
4.349999999999996
141
1.5
143
25.39999999999999
146
0.428571428571429
147
1.0
172
     1
174
     1
176
     2
177
     2
178
     3
271
     2
272
     2
284
     8
285
     8
286
     8
340
37
1001
ACAD_DSTYLE_DIMBREAK
1070
   391
1040
3.75
1001
ACAD_DSTYLE_DIMJAG
1070
   388
1040
1.5
  0
ENDTAB
  0
TABLE
  2
BLOCK_RECORD
  5
1
330
0
100
AcDbSymbolTable
 70
    24
  0
BLOCK_RECORD
  5
2
102
{ACAD_XDICTIONARY
360
3
102
}
330
1
100
AcDbSymbolTableRecord
100
AcDbBlockTableRecord
  2
*MODEL_SPACE
340
18
 70
     0
280
     1
281
     0
  0
BLOCK_RECORD
  5
1C
330
1
100
AcDbSymbolTableRecord
100
AcDbBlockTableRecord
  2
*PAPER_SPACE
340
1F
 70
     0
280
     1
281
     0
  0
BLOCK_RECORD
  5
463
330
1
100
AcDbSymbolTableRecord
100
AcDbBlockTableRecord
  2
GENAXEH
340
0
 70
     0
280
     1
281
     0
  0
BLOCK_RECORD
  5
3D
330
1
100
AcDbSymbolTableRecord
100
AcDbBlockTableRecord
  2
Filled-1
340
0
 70
     0
280
     1
281
     0
  0
BLOCK_RECORD
  5
1D4
330
1
100
AcDbSymbolTableRecord
100
AcDbBlockTableRecord
  2
*D2
340
0
 70
     0
280
     1
281
     0
  0
BLOCK_RECORD
  5
1C5
330
1
100
AcDbSymbolTableRecord
100
AcDbBlockTableRecord
  2
*D3
340
0
 70
     0
280
     1
281
     0
  0
BLOCK_RECORD
  5
1A0
330
1
100
AcDbSymbolTableRecord
100
AcDbBlockTableRecord
  2
*D4
340
0
 70
     0
280
     1
281
     0
  0
BLOCK_RECORD
  5
191
330
1
100
AcDbSymbolTableRecord
100
AcDbBlockTableRecord
  2
*D5
340
0
 70
     0
280
     1
281
     0
  0
BLOCK_RECORD
  5
12F
330
1
100
AcDbSymbolTableRecord
100
AcDbBlockTableRecord
  2
*D6
340
0
 70
     0
280
     1
281
     0
  0
BLOCK_RECORD
  5
122
330
1
100
AcDbSymbolTableRecord
100
AcDbBlockTableRecord
  2
*D7
340
0
 70
     0
280
     1
281
     0
  0
BLOCK_RECORD
  5
112
330
1
100
AcDbSymbolTableRecord
100
AcDbBlockTableRecord
  2
*D8
340
0
 70
     0
280
     1
281
     0
  0
BLOCK_RECORD
  5
105
330
1
100
AcDbSymbolTableRecord
100
AcDbBlockTableRecord
  2
*D9
340
0
 70
     0
280
     1
281
     0
  0
BLOCK_RECORD
  5
F8
330
1
100
AcDbSymbolTableRecord
100
AcDbBlockTableRecord
  2
*D10
340
0
 70
     0
280
     1
281
     0
  0
BLOCK_RECORD
  5
EB
330
1
100
AcDbSymbolTableRecord
100
AcDbBlockTableRecord
  2
*D11
340
0
 70
     0
280
     1
281
     0
  0
BLOCK_RECORD
  5
DE
330
1
100
AcDbSymbolTableRecord
100
AcDbBlockTableRecord
  2
*D12
340
0
 70
     0
280
     1
281
     0
  0
BLOCK_RECORD
  5
D1
330
1
100
AcDbSymbolTableRecord
100
AcDbBlockTableRecord
  2
*D13
340
0
 70
     0
280
     1
281
     0
  0
BLOCK_RECORD
  5
C2
330
1
100
AcDbSymbolTableRecord
100
AcDbBlockTableRecord
  2
*D14
340
0
 70
     0
280
     1
281
     0
  0
BLOCK_RECORD
  5
A5
330
1
100
AcDbSymbolTableRecord
100
AcDbBlockTableRecord
  2
*D15
340
0
 70
     0
280
     1
281
     0
  0
BLOCK_RECORD
  5
98
330
1
100
AcDbSymbolTableRecord
100
AcDbBlockTableRecord
  2
*D16
340
0
 70
     0
280
     1
281
     0
  0
BLOCK_RECORD
  5
442
330
1
100
AcDbSymbolTableRecord
100
AcDbBlockTableRecord
  2
_ACMFILLED30
340
0
 70
     0
280
     1
281
     0
  0
BLOCK_RECORD
  5
80
330
1
100
AcDbSymbolTableRecord
100
AcDbBlockTableRecord
  2
*D18
340
0
 70
     0
280
     1
281
     0
  0
BLOCK_RECORD
  5
63F
330
1
100
AcDbSymbolTableRecord
100
AcDbBlockTableRecord
  2
*D19
340
0
 70
     0
280
     1
281
     0
  0
BLOCK_RECORD
  5
64D
330
1
100
AcDbSymbolTableRecord
100
AcDbBlockTableRecord
  2
*D20
340
0
 70
     0
280
     1
281
     0
  0
BLOCK_RECORD
  5
6FC
330
1
100
AcDbSymbolTableRecord
100
AcDbBlockTableRecord
  2
*D21
340
0
 70
     0
280
     1
281
     0
  0
ENDTAB
  0
ENDSEC
  0
SECTION
  2
BLOCKS
  0
BLOCK
  5
6
330
2
100
AcDbEntity
  8
0
100
AcDbBlockBegin
  2
*MODEL_SPACE
 70
     0
 10
0.0
 20
0.0
 30
0.0
  3
*MODEL_SPACE
  1

  0
ENDBLK
  5
17
330
2
100
AcDbEntity
  8
0
100
AcDbBlockEnd
  0
BLOCK
  5
1D
330
1C
100
AcDbEntity
 67
     1
  8
0
100
AcDbBlockBegin
  2
*PAPER_SPACE
 70
     0
 10
0.0
 20
0.0
 30
0.0
  3
*PAPER_SPACE
  1

  0
ENDBLK
  5
1E
330
1C
100
AcDbEntity
 67
     1
  8
0
100
AcDbBlockEnd
  0
BLOCK
  5
464
330
463
100
AcDbEntity
  8
0
100
AcDbBlockBegin
  2
GENAXEH
 70
     0
 10
0.0
 20
0.0
 30
0.0
  3
GENAXEH
  1

  0
LINE
  5
465
330
463
100
AcDbEntity
  8
0
100
AcDbLine
 10
-1.0
 20
0.0
 30
0.0
 11
1.0
 21
0.0
 31
0.0
  0
ENDBLK
  5
466
330
463
100
AcDbEntity
  8
0
100
AcDbBlockEnd
  0
BLOCK
  5
3E
330
3D
100
AcDbEntity
  8
0
100
AcDbBlockBegin
  2
Filled-1
 70
     0
 10
0.0
 20
0.0
 30
0.0
  3
Filled-1
  1

  0
LINE
  5
3F
330
3D
100
AcDbEntity
  8
0
 62
     0
100
AcDbLine
 10
-1.0
 20
0.0
 30
0.0
 11
0.0
 21
0.0
 31
0.0
  0
POLYLINE
  5
40
330
3D
100
AcDbEntity
  8
0
 62
     0
100
AcDb2dPolyline
 66
     1
 10
0.0
 20
0.0
 30
0.0
 70
   128
  0
VERTEX
  5
41
330
40
100
AcDbEntity
  8
0
 62
     0
100
AcDbVertex
100
AcDb2dVertex
 10
-1.0
 20
-0.1428571428571428
 30
0.0
  0
VERTEX
  5
42
330
40
100
AcDbEntity
  8
0
 62
     0
100
AcDbVertex
100
AcDb2dVertex
 10
0.0
 20
0.0
 30
0.0
  0
VERTEX
  5
43
330
40
100
AcDbEntity
  8
0
 62
     0
100
AcDbVertex
100
AcDb2dVertex
 10
-1.0
 20
0.1428571428571428
 30
0.0
  0
VERTEX
  5
44
330
40
100
AcDbEntity
  8
0
 62
     0
100
AcDbVertex
100
AcDb2dVertex
 10
-1.0
 20
-0.1428571428571428
 30
0.0
  0
SEQEND
  5
45
330
40
100
AcDbEntity
  8
0
 62
     0
  0
SOLID
  5
46
330
3D
100
AcDbEntity
  8
0
 62
     0
100
AcDbTrace
 10
-1.0
 20
-0.1428571428571428
 30
0.0
 11
0.0
 21
0.0
 31
0.0
 12
-1.0
 22
0.1428571428571428
 32
0.0
 13
-1.0
 23
-0.1428571428571428
 33
0.0
  0
LINE
  5
47
330
3D
100
AcDbEntity
  8
0
 62
     0
100
AcDbLine
 10
-1.0
 20
-0.1428571428571428
 30
0.0
 11
0.0
 21
0.0
 31
0.0
  0
LINE
  5
48
330
3D
100
AcDbEntity
  8
0
 62
     0
100
AcDbLine
 10
0.0
 20
0.0
 30
0.0
 11
-1.0
 21
0.1428571428571428
 31
0.0
  0
LINE
  5
49
330
3D
100
AcDbEntity
  8
0
 62
     0
100
AcDbLine
 10
-1.0
 20
0.1428571428571428
 30
0.0
 11
-1.0
 21
-0.1428571428571428
 31
0.0
  0
ENDBLK
  5
4A
330
3D
100
AcDbEntity
  8
0
100
AcDbBlockEnd
  0
BLOCK
  5
1D5
330
1D4
100
AcDbEntity
  8
0
100
AcDbBlockBegin
  2
*D2
 70
     1
 10
0.0
 20
0.0
 30
0.0
  3
*D2
  1

  0
LINE
  5
1D6
330
1D4
100
AcDbEntity
  8
BEMASSUNG
 62
     2
440
 16777216
370
    -2
100
AcDbLine
 10
-454.8206580755275
 20
1382.375013979558
 30
0.0
 11
-492.6010193796724
 21
1382.375013979558
 31
0.0
  0
LINE
  5
1D7
330
1D4
100
AcDbEntity
  8
BEMASSUNG
 62
     2
440
 16777216
370
    -2
100
AcDbLine
 10
-454.8206580755275
 20
295.1072936959189
 30
0.0
 11
-492.6010193796725
 21
295.1072936959189
 31
0.0
  0
LINE
  5
1D8
330
1D4
100
AcDbEntity
  8
BEMASSUNG
 62
     2
440
 16777216
370
    -2
100
AcDbLine
 10
-491.6010193796723
 20
1370.375013979558
 30
0.0
 11
-491.6010193796726
 21
307.1072936959189
 31
0.0
  0
SOLID
  5
1D9
330
1D4
100
AcDbEntity
  8
BEMASSUNG
 62
     2
440
 16777216
100
AcDbTrace
 10
-493.6010193796724
 20
1370.375013979558
 30
0.0
 11
-489.6010193796723
 21
1370.375013979558
 31
0.0
 12
-491.6010193796723
 22
1382.375013979558
 32
0.0
 13
-491.6010193796723
 23
1382.375013979558
 33
0.0
  0
SOLID
  5
1DA
330
1D4
100
AcDbEntity
  8
BEMASSUNG
 62
     2
440
 16777216
100
AcDbTrace
 10
-493.6010193796724
 20
307.1072936959189
 30
0.0
 11
-489.6010193796723
 21
307.1072936959189
 31
0.0
 12
-491.6010193796726
 22
295.1072936959189
 32
0.0
 13
-491.6010193796726
 23
295.1072936959189
 33
0.0
  0
MTEXT
  5
1DB
330
1D4
100
AcDbEntity
  8
BEMASSUNG
 62
     3
440
 16777216
100
AcDbMText
 10
-498.6961762691676
 20
838.7411538377381
 30
0.0
 40
9.0
 41
0.0
 46
0.0
 71
     5
 72
     1
  1
\A1;1950
  7
ARIAL-STANDARD
 11
0.0000000000000001
 21
1.0
 31
0.0
 73
     1
 44
1.0
  0
POINT
  5
1DC
330
1D4
100
AcDbEntity
  8
DEFPOINTS
 62
     0
440
 16777216
100
AcDbPoint
 10
-454.8206580755275
 20
1382.375013979558
 30
0.0
  0
POINT
  5
1DD
330
1D4
100
AcDbEntity
  8
DEFPOINTS
 62
     0
440
 16777216
100
AcDbPoint
 10
-454.8206580755275
 20
295.1072936959189
 30
0.0
  0
POINT
  5
1DE
330
1D4
100
AcDbEntity
  8
DEFPOINTS
 62
     0
440
 16777216
100
AcDbPoint
 10
-491.6010193796726
 20
295.1072936959189
 30
0.0
  0
ENDBLK
  5
1DF
330
1D4
100
AcDbEntity
  8
0
100
AcDbBlockEnd
  0
BLOCK
  5
1C6
330
1C5
100
AcDbEntity
  8
0
100
AcDbBlockBegin
  2
*D3
 70
     1
 10
0.0
 20
0.0
 30
0.0
  3
*D3
  1

  0
LINE
  5
1C7
330
1C5
100
AcDbEntity
  8
BEMASSUNG
 62
     2
440
 16777216
370
    -2
100
AcDbLine
 10
-454.8206580755275
 20
295.107293695919
 30
0.0
 11
-454.8206580755275
 21
269.5631792078825
 31
0.0
  0
LINE
  5
1C8
330
1C5
100
AcDbEntity
  8
BEMASSUNG
 62
     2
440
 16777216
370
    -2
100
AcDbLine
 10
-430.8206580786903
 20
295.1070181780786
 30
0.0
 11
-430.8206580786903
 21
269.5631792078825
 31
0.0
  0
LINE
  5
1C9
330
1C5
100
AcDbEntity
  8
BEMASSUNG
 62
     2
440
 16777216
370
    -2
100
AcDbLine
 10
-466.8206580755273
 20
270.5631792078825
 30
0.0
 11
-478.8206580755272
 21
270.5631792078825
 31
0.0
  0
LINE
  5
1CA
330
1C5
100
AcDbEntity
  8
BEMASSUNG
 62
     2
440
 16777216
370
    -2
100
AcDbLine
 10
-418.8206580786903
 20
270.5631792078825
 30
0.0
 11
-406.8206580786903
 21
270.5631792078825
 31
0.0
  0
LINE
  5
1CB
330
1C5
100
AcDbEntity
  8
BEMASSUNG
 62
     2
440
 16777216
370
    -2
100
AcDbLine
 10
-454.8206580755275
 20
270.5631792078825
 30
0.0
 11
-430.8206580786903
 21
270.5631792078825
 31
0.0
  0
SOLID
  5
1CC
330
1C5
100
AcDbEntity
  8
BEMASSUNG
 62
     2
440
 16777216
100
AcDbTrace
 10
-466.8206580755273
 20
272.5631792078825
 30
0.0
 11
-466.8206580755273
 21
268.5631792078825
 31
0.0
 12
-454.8206580755275
 22
270.5631792078825
 32
0.0
 13
-454.8206580755275
 23
270.5631792078825
 33
0.0
  0
SOLID
  5
1CD
330
1C5
100
AcDbEntity
  8
BEMASSUNG
 62
     2
440
 16777216
100
AcDbTrace
 10
-418.8206580786903
 20
272.5631792078825
 30
0.0
 11
-418.8206580786903
 21
268.5631792078825
 31
0.0
 12
-430.8206580786903
 22
270.5631792078825
 32
0.0
 13
-430.8206580786903
 23
270.5631792078825
 33
0.0
  0
MTEXT
  5
1CE
330
1C5
100
AcDbEntity
  8
BEMASSUNG
 62
     3
440
 16777216
100
AcDbMText
 10
-442.8206580771088
 20
277.5815966703655
 30
0.0
 40
9.0
 41
0.0
 46
0.0
 71
     5
 72
     1
  1
\A1;24
  7
ARIAL-STANDARD
 73
     1
 44
1.0
  0
POINT
  5
1CF
330
1C5
100
AcDbEntity
  8
DEFPOINTS
 62
     0
440
 16777216
100
AcDbPoint
 10
-454.8206580755275
 20
295.107293695919
 30
0.0
  0
POINT
  5
1D0
330
1C5
100
AcDbEntity
  8
DEFPOINTS
 62
     0
440
 16777216
100
AcDbPoint
 10
-430.8206580786903
 20
295.1070181780786
 30
0.0
  0
POINT
  5
1D1
330
1C5
100
AcDbEntity
  8
DEFPOINTS
 62
     0
440
 16777216
100
AcDbPoint
 10
-430.8206580786903
 20
270.5631792078825
 30
0.0
  0
ENDBLK
  5
1D2
330
1C5
100
AcDbEntity
  8
0
100
AcDbBlockEnd
  0
BLOCK
  5
1A1
330
1A0
100
AcDbEntity
  8
0
100
AcDbBlockBegin
  2
*D4
 70
     1
 10
0.0
 20
0.0
 30
0.0
  3
*D4
  1

  0
LINE
  5
1A2
330
1A0
100
AcDbEntity
  8
BEMASSUNG
 62
     2
440
 16777216
370
    -2
100
AcDbLine
 10
-423.9304774234566
 20
143.2181012972728
 30
0.0
 11
-423.9304774234566
 21
119.1595559077104
 31
0.0
  0
LINE
  5
1A3
330
1A0
100
AcDbEntity
  8
BEMASSUNG
 62
     2
440
 16777216
370
    -2
100
AcDbLine
 10
-399.9304774234569
 20
143.2181012972657
 30
0.0
 11
-399.9304774234569
 21
119.1595559077104
 31
0.0
  0
LINE
  5
1A4
330
1A0
100
AcDbEntity
  8
BEMASSUNG
 62
     2
440
 16777216
370
    -2
100
AcDbLine
 10
-435.9304774234566
 20
120.1595559077104
 30
0.0
 11
-447.9304774234566
 21
120.1595559077104
 31
0.0
  0
LINE
  5
1A5
330
1A0
100
AcDbEntity
  8
BEMASSUNG
 62
     2
440
 16777216
370
    -2
100
AcDbLine
 10
-387.9304774234569
 20
120.1595559077104
 30
0.0
 11
-375.9304774234569
 21
120.1595559077104
 31
0.0
  0
LINE
  5
1A6
330
1A0
100
AcDbEntity
  8
BEMASSUNG
 62
     2
440
 16777216
370
    -2
100
AcDbLine
 10
-423.9304774234566
 20
120.1595559077104
 30
0.0
 11
-399.9304774234569
 21
120.1595559077104
 31
0.0
  0
SOLID
  5
1A7
330
1A0
100
AcDbEntity
  8
BEMASSUNG
 62
     2
440
 16777216
100
AcDbTrace
 10
-435.9304774234566
 20
122.1595559077104
 30
0.0
 11
-435.9304774234566
 21
118.1595559077104
 31
0.0
 12
-423.9304774234566
 22
120.1595559077104
 32
0.0
 13
-423.9304774234566
 23
120.1595559077104
 33
0.0
  0
SOLID
  5
1A8
330
1A0
100
AcDbEntity
  8
BEMASSUNG
 62
     2
440
 16777216
100
AcDbTrace
 10
-387.9304774234569
 20
122.1595559077104
 30
0.0
 11
-387.9304774234569
 21
118.1595559077104
 31
0.0
 12
-399.9304774234569
 22
120.1595559077104
 32
0.0
 13
-399.9304774234569
 23
120.1595559077104
 33
0.0
  0
MTEXT
  5
1A9
330
1A0
100
AcDbEntity
  8
BEMASSUNG
 62
     3
440
 16777216
100
AcDbMText
 10
-418.619085881847
 20
131.6963908326763
 30
0.0
 40
9.0
 41
0.0
 46
0.0
 71
     1
 72
     1
  1
\A1;{}24
  7
ARIAL-STANDARD
 73
     1
 44
1.0
  0
POINT
  5
1AA
330
1A0
100
AcDbEntity
  8
DEFPOINTS
 62
     0
440
 16777216
100
AcDbPoint
 10
-423.9304774234566
 20
143.2181012972728
 30
0.0
  0
POINT
  5
1AB
330
1A0
100
AcDbEntity
  8
DEFPOINTS
 62
     0
440
 16777216
100
AcDbPoint
 10
-399.9304774234569
 20
143.2181012972657
 30
0.0
  0
POINT
  5
1AC
330
1A0
100
AcDbEntity
  8
DEFPOINTS
 62
     0
440
 16777216
100
AcDbPoint
 10
-399.9304774234569
 20
120.1595559077104
 30
0.0
  0
ENDBLK
  5
1AD
330
1A0
100
AcDbEntity
  8
0
100
AcDbBlockEnd
  0
BLOCK
  5
192
330
191
100
AcDbEntity
  8
0
100
AcDbBlockBegin
  2
*D5
 70
     1
 10
0.0
 20
0.0
 30
0.0
  3
*D5
  1

  0
LINE
  5
193
330
191
100
AcDbEntity
  8
BEMASSUNG
 62
     2
440
 16777216
370
    -2
100
AcDbLine
 10
-423.9304774234565
 20
146.2181012972728
 30
0.0
 11
-440.3590832740546
 21
146.2181012972728
 31
0.0
  0
LINE
  5
194
330
191
100
AcDbEntity
  8
BEMASSUNG
 62
     2
440
 16777216
370
    -2
100
AcDbLine
 10
-423.9304774234571
 20
143.2181012972728
 30
0.0
 11
-440.3590832740546
 21
143.2181012972728
 31
0.0
  0
LINE
  5
195
330
191
100
AcDbEntity
  8
BEMASSUNG
 62
     2
440
 16777216
370
    -2
100
AcDbLine
 10
-439.3590832740545
 20
158.2181012972728
 30
0.0
 11
-439.3590832740545
 21
170.2181012972728
 31
0.0
  0
LINE
  5
196
330
191
100
AcDbEntity
  8
BEMASSUNG
 62
     2
440
 16777216
370
    -2
100
AcDbLine
 10
-439.3590832740545
 20
131.2181012972728
 30
0.0
 11
-439.3590832740546
 21
119.2181012972728
 31
0.0
  0
LINE
  5
197
330
191
100
AcDbEntity
  8
BEMASSUNG
 62
     2
440
 16777216
370
    -2
100
AcDbLine
 10
-439.3590832740545
 20
146.2181012972728
 30
0.0
 11
-439.3590832740545
 21
143.2181012972728
 31
0.0
  0
SOLID
  5
198
330
191
100
AcDbEntity
  8
BEMASSUNG
 62
     2
440
 16777216
100
AcDbTrace
 10
-441.3590832740545
 20
158.2181012972728
 30
0.0
 11
-437.3590832740545
 21
158.2181012972728
 31
0.0
 12
-439.3590832740545
 22
146.2181012972728
 32
0.0
 13
-439.3590832740545
 23
146.2181012972728
 33
0.0
  0
SOLID
  5
199
330
191
100
AcDbEntity
  8
BEMASSUNG
 62
     2
440
 16777216
100
AcDbTrace
 10
-441.3590832740545
 20
131.2181012972728
 30
0.0
 11
-437.3590832740545
 21
131.2181012972728
 31
0.0
 12
-439.3590832740545
 22
143.2181012972728
 32
0.0
 13
-439.3590832740545
 23
143.2181012972728
 33
0.0
  0
MTEXT
  5
19A
330
191
100
AcDbEntity
  8
BEMASSUNG
 62
     3
440
 16777216
100
AcDbMText
 10
-451.0555362072061
 20
141.7713073000013
 30
0.0
 40
9.0
 41
0.0
 46
0.0
 71
     1
 72
     1
  1
\A1;3
  7
ARIAL-STANDARD
 11
0.0000000000000001
 21
1.0
 31
0.0
 73
     1
 44
1.0
  0
POINT
  5
19B
330
191
100
AcDbEntity
  8
DEFPOINTS
 62
     0
440
 16777216
100
AcDbPoint
 10
-423.9304774234565
 20
146.2181012972728
 30
0.0
  0
POINT
  5
19C
330
191
100
AcDbEntity
  8
DEFPOINTS
 62
     0
440
 16777216
100
AcDbPoint
 10
-423.9304774234571
 20
143.2181012972728
 30
0.0
  0
POINT
  5
19D
330
191
100
AcDbEntity
  8
DEFPOINTS
 62
     0
440
 16777216
100
AcDbPoint
 10
-439.3590832740545
 20
143.2181012972728
 30
0.0
  0
ENDBLK
  5
19E
330
191
100
AcDbEntity
  8
0
100
AcDbBlockEnd
  0
BLOCK
  5
130
330
12F
100
AcDbEntity
  8
0
100
AcDbBlockBegin
  2
*D6
 70
     1
 10
0.0
 20
0.0
 30
0.0
  3
*D6
  1

  0
LINE
  5
131
330
12F
100
AcDbEntity
  8
UMRISS05
 62
     2
440
 16777216
370
    -2
100
AcDbLine
 10
-439.2304396191732
 20
930.4682898374608
 30
0.0
 11
-414.799491128056
 21
930.4682898374608
 31
0.0
  0
LINE
  5
132
330
12F
100
AcDbEntity
  8
UMRISS05
 62
     2
440
 16777216
370
    -2
100
AcDbLine
 10
-439.2304396191743
 20
886.4682898374608
 30
0.0
 11
-414.799491128056
 21
886.4682898374608
 31
0.0
  0
LINE
  5
133
330
12F
100
AcDbEntity
  8
UMRISS05
 62
     2
440
 16777216
370
    -2
100
AcDbLine
 10
-415.799491128056
 20
918.4682898374608
 30
0.0
 11
-415.799491128056
 21
898.4682898374607
 31
0.0
  0
SOLID
  5
134
330
12F
100
AcDbEntity
  8
UMRISS05
 62
     2
440
 16777216
100
AcDbTrace
 10
-417.7994911280561
 20
918.4682898374608
 30
0.0
 11
-413.7994911280561
 21
918.4682898374608
 31
0.0
 12
-415.799491128056
 22
930.4682898374608
 32
0.0
 13
-415.799491128056
 23
930.4682898374608
 33
0.0
  0
SOLID
  5
135
330
12F
100
AcDbEntity
  8
UMRISS05
 62
     2
440
 16777216
100
AcDbTrace
 10
-417.7994911280561
 20
898.4682898374607
 30
0.0
 11
-413.7994911280561
 21
898.4682898374607
 31
0.0
 12
-415.799491128056
 22
886.4682898374608
 32
0.0
 13
-415.799491128056
 23
886.4682898374608
 33
0.0
  0
MTEXT
  5
136
330
12F
100
AcDbEntity
  8
UMRISS05
 62
     3
440
 16777216
100
AcDbMText
 10
-422.7994911280561
 20
908.4682898374607
 30
0.0
 40
9.0
 41
0.0
 46
0.0
 71
     5
 72
     1
  1
\A1;44
  7
ARIAL-STANDARD
 11
0.0000000000000001
 21
1.0
 31
0.0
 73
     1
 44
1.0
  0
POINT
  5
137
330
12F
100
AcDbEntity
  8
DEFPOINTS
 62
     0
440
 16777216
100
AcDbPoint
 10
-439.2304396191732
 20
930.4682898374608
 30
0.0
  0
POINT
  5
138
330
12F
100
AcDbEntity
  8
DEFPOINTS
 62
     0
440
 16777216
100
AcDbPoint
 10
-439.2304396191743
 20
886.4682898374608
 30
0.0
  0
POINT
  5
139
330
12F
100
AcDbEntity
  8
DEFPOINTS
 62
     0
440
 16777216
100
AcDbPoint
 10
-415.799491128056
 20
886.4682898374608
 30
0.0
  0
ENDBLK
  5
13A
330
12F
100
AcDbEntity
  8
0
100
AcDbBlockEnd
  0
BLOCK
  5
123
330
122
100
AcDbEntity
  8
0
100
AcDbBlockBegin
  2
*D7
 70
     1
 10
0.0
 20
0.0
 30
0.0
  3
*D7
  1

  0
LINE
  5
124
330
122
100
AcDbEntity
  8
UMRISS05
 62
     2
440
 16777216
370
    -2
100
AcDbLine
 10
-431.3162260571516
 20
932.4682898374607
 30
0.0
 11
-399.4557516464333
 21
932.4682898374607
 31
0.0
  0
LINE
  5
125
330
122
100
AcDbEntity
  8
UMRISS05
 62
     2
440
 16777216
370
    -2
100
AcDbLine
 10
-431.3162260571516
 20
884.4682898374609
 30
0.0
 11
-399.4557516464333
 21
884.4682898374609
 31
0.0
  0
LINE
  5
126
330
122
100
AcDbEntity
  8
UMRISS05
 62
     2
440
 16777216
370
    -2
100
AcDbLine
 10
-400.4557516464331
 20
920.4682898374608
 30
0.0
 11
-400.4557516464331
 21
896.468289837461
 31
0.0
  0
SOLID
  5
127
330
122
100
AcDbEntity
  8
UMRISS05
 62
     2
440
 16777216
100
AcDbTrace
 10
-402.4557516464331
 20
920.4682898374608
 30
0.0
 11
-398.4557516464333
 21
920.4682898374608
 31
0.0
 12
-400.4557516464331
 22
932.4682898374607
 32
0.0
 13
-400.4557516464331
 23
932.4682898374607
 33
0.0
  0
SOLID
  5
128
330
122
100
AcDbEntity
  8
UMRISS05
 62
     2
440
 16777216
100
AcDbTrace
 10
-402.4557516464331
 20
896.468289837461
 30
0.0
 11
-398.4557516464333
 21
896.468289837461
 31
0.0
 12
-400.4557516464333
 22
884.4682898374609
 32
0.0
 13
-400.4557516464333
 23
884.4682898374609
 33
0.0
  0
MTEXT
  5
129
330
122
100
AcDbEntity
  8
UMRISS05
 62
     3
440
 16777216
100
AcDbMText
 10
-407.5509085359287
 20
908.4682898374607
 30
0.0
 40
9.0
 41
0.0
 46
0.0
 71
     5
 72
     1
  1
\A1;48
  7
ARIAL-STANDARD
 11
0.0000000000000001
 21
1.0
 31
0.0
 73
     1
 44
1.0
  0
POINT
  5
12A
330
122
100
AcDbEntity
  8
DEFPOINTS
 62
     0
440
 16777216
100
AcDbPoint
 10
-431.3162260571516
 20
932.4682898374607
 30
0.0
  0
POINT
  5
12B
330
122
100
AcDbEntity
  8
DEFPOINTS
 62
     0
440
 16777216
100
AcDbPoint
 10
-431.3162260571516
 20
884.4682898374609
 30
0.0
  0
POINT
  5
12C
330
122
100
AcDbEntity
  8
DEFPOINTS
 62
     0
440
 16777216
100
AcDbPoint
 10
-400.4557516464333
 20
884.4682898374609
 30
0.0
  0
ENDBLK
  5
12D
330
122
100
AcDbEntity
  8
0
100
AcDbBlockEnd
  0
BLOCK
  5
113
330
112
100
AcDbEntity
  8
0
100
AcDbBlockBegin
  2
*D8
 70
     1
 10
0.0
 20
0.0
 30
0.0
  3
*D8
  1

  0
LINE
  5
114
330
112
100
AcDbEntity
  8
UMRISS05
 62
     2
440
 16777216
370
    -2
100
AcDbLine
 10
-430.8162260568049
 20
868.4729294499961
 30
0.0
 11
-414.8583618892911
 21
868.4729294499961
 31
0.0
  0
LINE
  5
115
330
112
100
AcDbEntity
  8
UMRISS05
 62
     2
440
 16777216
370
    -2
100
AcDbLine
 10
-437.3162260568001
 20
831.9682898374601
 30
0.0
 11
-414.8583618892911
 21
831.9682898374601
 31
0.0
  0
LINE
  5
116
330
112
100
AcDbEntity
  8
UMRISS05
 62
     2
440
 16777216
370
    -2
100
AcDbLine
 10
-415.8583618892911
 20
856.4729294499962
 30
0.0
 11
-415.8583618892911
 21
843.9682898374604
 31
0.0
  0
SOLID
  5
117
330
112
100
AcDbEntity
  8
UMRISS05
 62
     2
440
 16777216
100
AcDbTrace
 10
-417.8583618892911
 20
856.4729294499962
 30
0.0
 11
-413.8583618892911
 21
856.4729294499962
 31
0.0
 12
-415.8583618892911
 22
868.4729294499961
 32
0.0
 13
-415.8583618892911
 23
868.4729294499961
 33
0.0
  0
SOLID
  5
118
330
112
100
AcDbEntity
  8
UMRISS05
 62
     2
440
 16777216
100
AcDbTrace
 10
-417.8583618892911
 20
843.9682898374604
 30
0.0
 11
-413.8583618892911
 21
843.9682898374604
 31
0.0
 12
-415.8583618892911
 22
831.9682898374601
 32
0.0
 13
-415.8583618892911
 23
831.9682898374601
 33
0.0
  0
MTEXT
  5
119
330
112
100
AcDbEntity
  8
UMRISS05
 62
     3
440
 16777216
100
AcDbMText
 10
-422.9565883558668
 20
850.2206096437282
 30
0.0
 40
9.0
 41
0.0
 46
0.0
 71
     5
 72
     1
  1
\A1;36.5
  7
ARIAL-STANDARD
 11
0.0000000000000001
 21
1.0
 31
0.0
 73
     1
 44
1.0
  0
POINT
  5
11A
330
112
100
AcDbEntity
  8
DEFPOINTS
 62
     0
440
 16777216
100
AcDbPoint
 10
-430.8162260568049
 20
868.4729294499961
 30
0.0
  0
POINT
  5
11B
330
112
100
AcDbEntity
  8
DEFPOINTS
 62
     0
440
 16777216
100
AcDbPoint
 10
-437.3162260568001
 20
831.9682898374601
 30
0.0
  0
POINT
  5
11C
330
112
100
AcDbEntity
  8
DEFPOINTS
 62
     0
440
 16777216
100
AcDbPoint
 10
-415.8583618892911
 20
831.9682898374601
 30
0.0
  0
ENDBLK
  5
11D
330
112
100
AcDbEntity
  8
0
100
AcDbBlockEnd
  0
BLOCK
  5
106
330
105
100
AcDbEntity
  8
0
100
AcDbBlockBegin
  2
*D9
 70
     1
 10
0.0
 20
0.0
 30
0.0
  3
*D9
  1

  0
LINE
  5
107
330
105
100
AcDbEntity
  8
UMRISS05
 62
     2
440
 16777216
370
    -2
100
AcDbLine
 10
-430.8162260568049
 20
868.4729294499961
 30
0.0
 11
-399.4557516464333
 21
868.4729294499961
 31
0.0
  0
LINE
  5
108
330
105
100
AcDbEntity
  8
UMRISS05
 62
     2
440
 16777216
370
    -2
100
AcDbLine
 10
-437.3162260568003
 20
784.9682898374601
 30
0.0
 11
-399.4557516464333
 21
784.9682898374601
 31
0.0
  0
LINE
  5
109
330
105
100
AcDbEntity
  8
UMRISS05
 62
     2
440
 16777216
370
    -2
100
AcDbLine
 10
-400.4557516464333
 20
856.4729294499962
 30
0.0
 11
-400.4557516464333
 21
796.9682898374601
 31
0.0
  0
SOLID
  5
10A
330
105
100
AcDbEntity
  8
UMRISS05
 62
     2
440
 16777216
100
AcDbTrace
 10
-402.4557516464333
 20
856.4729294499962
 30
0.0
 11
-398.4557516464333
 21
856.4729294499962
 31
0.0
 12
-400.4557516464333
 22
868.4729294499961
 32
0.0
 13
-400.4557516464333
 23
868.4729294499961
 33
0.0
  0
SOLID
  5
10B
330
105
100
AcDbEntity
  8
UMRISS05
 62
     2
440
 16777216
100
AcDbTrace
 10
-402.4557516464333
 20
796.9682898374601
 30
0.0
 11
-398.4557516464333
 21
796.9682898374601
 31
0.0
 12
-400.4557516464333
 22
784.9682898374601
 32
0.0
 13
-400.4557516464333
 23
784.9682898374601
 33
0.0
  0
MTEXT
  5
10C
330
105
100
AcDbEntity
  8
UMRISS05
 62
     3
440
 16777216
100
AcDbMText
 10
-407.5539781130092
 20
826.7206096437281
 30
0.0
 40
9.0
 41
0.0
 46
0.0
 71
     5
 72
     1
  1
\A1;83.5
  7
ARIAL-STANDARD
 11
0.0000000000000001
 21
1.0
 31
0.0
 73
     1
 44
1.0
  0
POINT
  5
10D
330
105
100
AcDbEntity
  8
DEFPOINTS
 62
     0
440
 16777216
100
AcDbPoint
 10
-430.8162260568049
 20
868.4729294499961
 30
0.0
  0
POINT
  5
10E
330
105
100
AcDbEntity
  8
DEFPOINTS
 62
     0
440
 16777216
100
AcDbPoint
 10
-437.3162260568003
 20
784.9682898374601
 30
0.0
  0
POINT
  5
10F
330
105
100
AcDbEntity
  8
DEFPOINTS
 62
     0
440
 16777216
100
AcDbPoint
 10
-400.4557516464333
 20
784.9682898374601
 30
0.0
  0
ENDBLK
  5
110
330
105
100
AcDbEntity
  8
0
100
AcDbBlockEnd
  0
BLOCK
  5
F9
330
F8
100
AcDbEntity
  8
0
100
AcDbBlockBegin
  2
*D10
 70
     1
 10
0.0
 20
0.0
 30
0.0
  3
*D10
  1

  0
LINE
  5
FA
330
F8
100
AcDbEntity
  8
UMRISS05
 62
     2
440
 16777216
370
    -2
100
AcDbLine
 10
-390.2483526896444
 20
868.4729294499957
 30
0.0
 11
-385.1584227952476
 21
868.4729294499957
 31
0.0
  0
LINE
  5
FB
330
F8
100
AcDbEntity
  8
UMRISS05
 62
     2
440
 16777216
370
    -2
100
AcDbLine
 10
-437.3206580755279
 20
1214.972929449994
 30
0.0
 11
-385.1584227952476
 21
1214.972929449994
 31
0.0
  0
LINE
  5
FC
330
F8
100
AcDbEntity
  8
UMRISS05
 62
     2
440
 16777216
370
    -2
100
AcDbLine
 10
-386.1584227952477
 20
880.472929449996
 30
0.0
 11
-386.1584227952477
 21
1202.972929449994
 31
0.0
  0
SOLID
  5
FD
330
F8
100
AcDbEntity
  8
UMRISS05
 62
     2
440
 16777216
100
AcDbTrace
 10
-388.1584227952476
 20
880.472929449996
 30
0.0
 11
-384.1584227952477
 21
880.472929449996
 31
0.0
 12
-386.1584227952477
 22
868.4729294499957
 32
0.0
 13
-386.1584227952477
 23
868.4729294499957
 33
0.0
  0
SOLID
  5
FE
330
F8
100
AcDbEntity
  8
UMRISS05
 62
     2
440
 16777216
100
AcDbTrace
 10
-388.1584227952476
 20
1202.972929449994
 30
0.0
 11
-384.1584227952477
 21
1202.972929449994
 31
0.0
 12
-386.1584227952477
 22
1214.972929449994
 32
0.0
 13
-386.1584227952477
 23
1214.972929449994
 33
0.0
  0
MTEXT
  5
FF
330
F8
100
AcDbEntity
  8
UMRISS05
 62
     3
440
 16777216
100
AcDbMText
 10
-393.253579684743
 20
1041.722929449995
 30
0.0
 40
9.0
 41
0.0
 46
0.0
 71
     5
 72
     1
  1
\A1;676.5
  7
ARIAL-STANDARD
 11
0.0000000000000001
 21
1.0
 31
0.0
 73
     1
 44
1.0
  0
POINT
  5
100
330
F8
100
AcDbEntity
  8
DEFPOINTS
 62
     0
440
 16777216
100
AcDbPoint
 10
-390.2483526896444
 20
868.4729294499957
 30
0.0
  0
POINT
  5
101
330
F8
100
AcDbEntity
  8
DEFPOINTS
 62
     0
440
 16777216
100
AcDbPoint
 10
-437.3206580755279
 20
1214.972929449994
 30
0.0
  0
POINT
  5
102
330
F8
100
AcDbEntity
  8
DEFPOINTS
 62
     0
440
 16777216
100
AcDbPoint
 10
-386.1584227952477
 20
1214.972929449994
 30
0.0
  0
ENDBLK
  5
103
330
F8
100
AcDbEntity
  8
0
100
AcDbBlockEnd
  0
BLOCK
  5
EC
330
EB
100
AcDbEntity
  8
0
100
AcDbBlockBegin
  2
*D11
 70
     1
 10
0.0
 20
0.0
 30
0.0
  3
*D11
  1

  0
LINE
  5
ED
330
EB
100
AcDbEntity
  8
UMRISS05
 62
     2
440
 16777216
370
    -2
100
AcDbLine
 10
-375.1189820524519
 20
868.4729294499957
 30
0.0
 11
-369.4903647896731
 21
868.4729294499957
 31
0.0
  0
LINE
  5
EE
330
EB
100
AcDbEntity
  8
UMRISS05
 62
     2
440
 16777216
370
    -2
100
AcDbLine
 10
-437.3206580755279
 20
1261.972929449993
 30
0.0
 11
-369.4903647896731
 21
1261.972929449993
 31
0.0
  0
LINE
  5
EF
330
EB
100
AcDbEntity
  8
UMRISS05
 62
     2
440
 16777216
370
    -2
100
AcDbLine
 10
-370.4903647896732
 20
880.472929449996
 30
0.0
 11
-370.4903647896732
 21
1249.972929449993
 31
0.0
  0
SOLID
  5
F0
330
EB
100
AcDbEntity
  8
UMRISS05
 62
     2
440
 16777216
100
AcDbTrace
 10
-372.4903647896732
 20
880.472929449996
 30
0.0
 11
-368.4903647896732
 21
880.472929449996
 31
0.0
 12
-370.4903647896732
 22
868.4729294499957
 32
0.0
 13
-370.4903647896732
 23
868.4729294499957
 33
0.0
  0
SOLID
  5
F1
330
EB
100
AcDbEntity
  8
UMRISS05
 62
     2
440
 16777216
100
AcDbTrace
 10
-372.4903647896732
 20
1249.972929449993
 30
0.0
 11
-368.4903647896732
 21
1249.972929449993
 31
0.0
 12
-370.4903647896732
 22
1261.972929449993
 32
0.0
 13
-370.4903647896732
 23
1261.972929449993
 33
0.0
  0
MTEXT
  5
F2
330
EB
100
AcDbEntity
  8
UMRISS05
 62
     3
440
 16777216
100
AcDbMText
 10
-377.5885912562492
 20
1065.222929449994
 30
0.0
 40
9.0
 41
0.0
 46
0.0
 71
     5
 72
     1
  1
\A1;723.5
  7
ARIAL-STANDARD
 11
0.0000000000000001
 21
1.0
 31
0.0
 73
     1
 44
1.0
  0
POINT
  5
F3
330
EB
100
AcDbEntity
  8
DEFPOINTS
 62
     0
440
 16777216
100
AcDbPoint
 10
-375.1189820524519
 20
868.4729294499957
 30
0.0
  0
POINT
  5
F4
330
EB
100
AcDbEntity
  8
DEFPOINTS
 62
     0
440
 16777216
100
AcDbPoint
 10
-437.3206580755279
 20
1261.972929449993
 30
0.0
  0
POINT
  5
F5
330
EB
100
AcDbEntity
  8
DEFPOINTS
 62
     0
440
 16777216
100
AcDbPoint
 10
-370.4903647896732
 20
1261.972929449993
 30
0.0
  0
ENDBLK
  5
F6
330
EB
100
AcDbEntity
  8
0
100
AcDbBlockEnd
  0
BLOCK
  5
DF
330
DE
100
AcDbEntity
  8
0
100
AcDbBlockBegin
  2
*D12
 70
     1
 10
0.0
 20
0.0
 30
0.0
  3
*D12
  1

  0
LINE
  5
E0
330
DE
100
AcDbEntity
  8
UMRISS05
 62
     2
440
 16777216
370
    -2
100
AcDbLine
 10
-386.2287103002813
 20
868.4729294499957
 30
0.0
 11
-387.2953898432548
 21
868.4729294499957
 31
0.0
  0
LINE
  5
E1
330
DE
100
AcDbEntity
  8
UMRISS05
 62
     2
440
 16777216
370
    -2
100
AcDbLine
 10
-437.3206580755277
 20
431.9729294499953
 30
0.0
 11
-385.2953898432549
 21
431.9729294499953
 31
0.0
  0
LINE
  5
E2
330
DE
100
AcDbEntity
  8
UMRISS05
 62
     2
440
 16777216
370
    -2
100
AcDbLine
 10
-386.2953898432548
 20
856.472929449996
 30
0.0
 11
-386.2953898432548
 21
443.9729294499953
 31
0.0
  0
SOLID
  5
E3
330
DE
100
AcDbEntity
  8
UMRISS05
 62
     2
440
 16777216
100
AcDbTrace
 10
-388.2953898432548
 20
856.472929449996
 30
0.0
 11
-384.2953898432548
 21
856.472929449996
 31
0.0
 12
-386.2953898432548
 22
868.4729294499957
 32
0.0
 13
-386.2953898432548
 23
868.4729294499957
 33
0.0
  0
SOLID
  5
E4
330
DE
100
AcDbEntity
  8
UMRISS05
 62
     2
440
 16777216
100
AcDbTrace
 10
-388.2953898432548
 20
443.9729294499953
 30
0.0
 11
-384.2953898432548
 21
443.9729294499953
 31
0.0
 12
-386.2953898432548
 22
431.9729294499953
 32
0.0
 13
-386.2953898432548
 23
431.9729294499953
 33
0.0
  0
MTEXT
  5
E5
330
DE
100
AcDbEntity
  8
UMRISS05
 62
     3
440
 16777216
100
AcDbMText
 10
-393.3905467327501
 20
650.2229294499954
 30
0.0
 40
9.0
 41
0.0
 46
0.0
 71
     5
 72
     1
  1
\A1;766.5
  7
ARIAL-STANDARD
 11
0.0000000000000001
 21
1.0
 31
0.0
 73
     1
 44
1.0
  0
POINT
  5
E6
330
DE
100
AcDbEntity
  8
DEFPOINTS
 62
     0
440
 16777216
100
AcDbPoint
 10
-386.2287103002813
 20
868.4729294499957
 30
0.0
  0
POINT
  5
E7
330
DE
100
AcDbEntity
  8
DEFPOINTS
 62
     0
440
 16777216
100
AcDbPoint
 10
-437.3206580755277
 20
431.9729294499953
 30
0.0
  0
POINT
  5
E8
330
DE
100
AcDbEntity
  8
DEFPOINTS
 62
     0
440
 16777216
100
AcDbPoint
 10
-386.2953898432548
 20
431.9729294499953
 30
0.0
  0
ENDBLK
  5
E9
330
DE
100
AcDbEntity
  8
0
100
AcDbBlockEnd
  0
BLOCK
  5
D2
330
D1
100
AcDbEntity
  8
0
100
AcDbBlockBegin
  2
*D13
 70
     1
 10
0.0
 20
0.0
 30
0.0
  3
*D13
  1

  0
LINE
  5
D3
330
D1
100
AcDbEntity
  8
UMRISS05
 62
     2
440
 16777216
370
    -2
100
AcDbLine
 10
-437.3206580755277
 20
384.9729294499955
 30
0.0
 11
-369.5704090371833
 21
384.9729294499953
 31
0.0
  0
LINE
  5
D4
330
D1
100
AcDbEntity
  8
UMRISS05
 62
     2
440
 16777216
370
    -2
100
AcDbLine
 10
-373.7419686073367
 20
868.4729294499957
 30
0.0
 11
-369.5704090371833
 21
868.4729294499957
 31
0.0
  0
LINE
  5
D5
330
D1
100
AcDbEntity
  8
UMRISS05
 62
     2
440
 16777216
370
    -2
100
AcDbLine
 10
-370.5704090371833
 20
396.9729294499953
 30
0.0
 11
-370.5704090371833
 21
856.472929449996
 31
0.0
  0
SOLID
  5
D6
330
D1
100
AcDbEntity
  8
UMRISS05
 62
     2
440
 16777216
100
AcDbTrace
 10
-372.5704090371833
 20
396.9729294499953
 30
0.0
 11
-368.5704090371833
 21
396.9729294499953
 31
0.0
 12
-370.5704090371833
 22
384.9729294499953
 32
0.0
 13
-370.5704090371833
 23
384.9729294499953
 33
0.0
  0
SOLID
  5
D7
330
D1
100
AcDbEntity
  8
UMRISS05
 62
     2
440
 16777216
100
AcDbTrace
 10
-372.5704090371833
 20
856.472929449996
 30
0.0
 11
-368.5704090371832
 21
856.472929449996
 31
0.0
 12
-370.5704090371833
 22
868.4729294499957
 32
0.0
 13
-370.5704090371833
 23
868.4729294499957
 33
0.0
  0
MTEXT
  5
D8
330
D1
100
AcDbEntity
  8
UMRISS05
 62
     3
440
 16777216
100
AcDbMText
 10
-377.6686355037591
 20
626.7229294499956
 30
0.0
 40
9.0
 41
0.0
 46
0.0
 71
     5
 72
     1
  1
\A1;813.5
  7
ARIAL-STANDARD
 11
0.0000000000000001
 21
1.0
 31
0.0
 73
     1
 44
1.0
  0
POINT
  5
D9
330
D1
100
AcDbEntity
  8
DEFPOINTS
 62
     0
440
 16777216
100
AcDbPoint
 10
-437.3206580755277
 20
384.9729294499955
 30
0.0
  0
POINT
  5
DA
330
D1
100
AcDbEntity
  8
DEFPOINTS
 62
     0
440
 16777216
100
AcDbPoint
 10
-373.7419686073367
 20
868.4729294499957
 30
0.0
  0
POINT
  5
DB
330
D1
100
AcDbEntity
  8
DEFPOINTS
 62
     0
440
 16777216
100
AcDbPoint
 10
-370.5704090371833
 20
868.4729294499957
 30
0.0
  0
ENDBLK
  5
DC
330
D1
100
AcDbEntity
  8
0
100
AcDbBlockEnd
  0
BLOCK
  5
C3
330
C2
100
AcDbEntity
  8
0
100
AcDbBlockBegin
  2
*D14
 70
     1
 10
0.0
 20
0.0
 30
0.0
  3
*D14
  1

  0
LINE
  5
C4
330
C2
100
AcDbEntity
  8
UMRISS05
 62
     2
440
 16777216
370
    -2
100
AcDbLine
 10
-430.8162260571516
 20
934.7182898374628
 30
0.0
 11
-430.8162260571516
 21
947.6254304844085
 31
0.0
  0
LINE
  5
C5
330
C2
100
AcDbEntity
  8
UMRISS05
 62
     2
440
 16777216
370
    -2
100
AcDbLine
 10
-442.829819794375
 20
938.7182667386811
 30
0.0
 11
-442.829819794375
 21
947.6254304844085
 31
0.0
  0
LINE
  5
C6
330
C2
100
AcDbEntity
  8
UMRISS05
 62
     2
440
 16777216
370
    -2
100
AcDbLine
 10
-418.8162260571516
 20
946.6254304844083
 30
0.0
 11
-406.8162260571516
 21
946.6254304844083
 31
0.0
  0
LINE
  5
C7
330
C2
100
AcDbEntity
  8
UMRISS05
 62
     2
440
 16777216
370
    -2
100
AcDbLine
 10
-454.829819794375
 20
946.6254304844083
 30
0.0
 11
-466.829819794375
 21
946.6254304844083
 31
0.0
  0
LINE
  5
C8
330
C2
100
AcDbEntity
  8
UMRISS05
 62
     2
440
 16777216
370
    -2
100
AcDbLine
 10
-430.8162260571516
 20
946.6254304844083
 30
0.0
 11
-442.829819794375
 21
946.6254304844083
 31
0.0
  0
SOLID
  5
C9
330
C2
100
AcDbEntity
  8
UMRISS05
 62
     2
440
 16777216
100
AcDbTrace
 10
-418.8162260571516
 20
948.6254304844084
 30
0.0
 11
-418.8162260571516
 21
944.6254304844083
 31
0.0
 12
-430.8162260571516
 22
946.6254304844083
 32
0.0
 13
-430.8162260571516
 23
946.6254304844083
 33
0.0
  0
SOLID
  5
CA
330
C2
100
AcDbEntity
  8
UMRISS05
 62
     2
440
 16777216
100
AcDbTrace
 10
-454.829819794375
 20
948.6254304844084
 30
0.0
 11
-454.829819794375
 21
944.6254304844083
 31
0.0
 12
-442.829819794375
 22
946.6254304844083
 32
0.0
 13
-442.829819794375
 23
946.6254304844083
 33
0.0
  0
MTEXT
  5
CB
330
C2
100
AcDbEntity
  8
UMRISS05
 62
     3
440
 16777216
100
AcDbMText
 10
-436.8230229257632
 20
953.6438479468911
 30
0.0
 40
9.0
 41
0.0
 46
0.0
 71
     5
 72
     1
  1
\A1;12
  7
ARIAL-STANDARD
 73
     1
 44
1.0
  0
POINT
  5
CC
330
C2
100
AcDbEntity
  8
DEFPOINTS
 62
     0
440
 16777216
100
AcDbPoint
 10
-430.8162260571516
 20
934.7182898374628
 30
0.0
  0
POINT
  5
CD
330
C2
100
AcDbEntity
  8
DEFPOINTS
 62
     0
440
 16777216
100
AcDbPoint
 10
-442.829819794375
 20
938.7182667386811
 30
0.0
  0
POINT
  5
CE
330
C2
100
AcDbEntity
  8
DEFPOINTS
 62
     0
440
 16777216
100
AcDbPoint
 10
-442.829819794375
 20
946.6254304844083
 30
0.0
  0
ENDBLK
  5
CF
330
C2
100
AcDbEntity
  8
0
100
AcDbBlockEnd
  0
BLOCK
  5
A6
330
A5
100
AcDbEntity
  8
0
100
AcDbBlockBegin
  2
*D15
 70
     1
 10
0.0
 20
0.0
 30
0.0
  3
*D15
  1

  0
LINE
  5
A7
330
A5
100
AcDbEntity
  8
BEMASSUNG
 62
     2
440
 16777216
370
    -2
100
AcDbLine
 10
-430.8206580755275
 20
1382.375013979558
 30
0.0
 11
-369.5633066232276
 21
1382.375013979558
 31
0.0
  0
LINE
  5
A8
330
A5
100
AcDbEntity
  8
BEMASSUNG
 62
     2
440
 16777216
370
    -2
100
AcDbLine
 10
-406.4304774234555
 20
1261.972929449994
 30
0.0
 11
-369.5633066232276
 21
1261.972929449994
 31
0.0
  0
LINE
  5
A9
330
A5
100
AcDbEntity
  8
BEMASSUNG
 62
     2
440
 16777216
370
    -2
100
AcDbLine
 10
-370.5633066232276
 20
1370.375013979558
 30
0.0
 11
-370.5633066232276
 21
1273.972929449994
 31
0.0
  0
SOLID
  5
AA
330
A5
100
AcDbEntity
  8
BEMASSUNG
 62
     2
440
 16777216
100
AcDbTrace
 10
-372.5633066232276
 20
1370.375013979558
 30
0.0
 11
-368.5633066232276
 21
1370.375013979558
 31
0.0
 12
-370.5633066232276
 22
1382.375013979558
 32
0.0
 13
-370.5633066232276
 23
1382.375013979558
 33
0.0
  0
SOLID
  5
AB
330
A5
100
AcDbEntity
  8
BEMASSUNG
 62
     2
440
 16777216
100
AcDbTrace
 10
-372.5633066232276
 20
1273.972929449994
 30
0.0
 11
-368.5633066232276
 21
1273.972929449994
 31
0.0
 12
-370.5633066232276
 22
1261.972929449994
 32
0.0
 13
-370.5633066232276
 23
1261.972929449994
 33
0.0
  0
MTEXT
  5
AC
330
A5
100
AcDbEntity
  8
BEMASSUNG
 62
     3
440
 16777216
100
AcDbMText
 10
-377.6584635127232
 20
1322.173971714776
 30
0.0
 40
9.0
 41
0.0
 46
0.0
 71
     5
 72
     1
  1
\A1;241.5
  7
ARIAL-STANDARD
 11
0.0000000000000001
 21
1.0
 31
0.0
 73
     1
 44
1.0
  0
POINT
  5
AD
330
A5
100
AcDbEntity
  8
DEFPOINTS
 62
     0
440
 16777216
100
AcDbPoint
 10
-430.8206580755275
 20
1382.375013979558
 30
0.0
  0
POINT
  5
AE
330
A5
100
AcDbEntity
  8
DEFPOINTS
 62
     0
440
 16777216
100
AcDbPoint
 10
-406.4304774234555
 20
1261.972929449994
 30
0.0
  0
POINT
  5
AF
330
A5
100
AcDbEntity
  8
DEFPOINTS
 62
     0
440
 16777216
100
AcDbPoint
 10
-370.5633066232276
 20
1261.972929449994
 30
0.0
  0
ENDBLK
  5
B0
330
A5
100
AcDbEntity
  8
0
100
AcDbBlockEnd
  0
BLOCK
  5
99
330
98
100
AcDbEntity
  8
0
100
AcDbBlockBegin
  2
*D16
 70
     1
 10
0.0
 20
0.0
 30
0.0
  3
*D16
  1

  0
LINE
  5
9A
330
98
100
AcDbEntity
  8
BEMASSUNG
 62
     2
440
 16777216
370
    -2
100
AcDbLine
 10
-437.3206580755277
 20
384.9729294499955
 30
0.0
 11
-369.5569886616531
 21
384.9729294499953
 31
0.0
  0
LINE
  5
9B
330
98
100
AcDbEntity
  8
BEMASSUNG
 62
     2
440
 16777216
370
    -2
100
AcDbLine
 10
-430.8206580755275
 20
295.1072936959191
 30
0.0
 11
-369.5569886616531
 21
295.107293695919
 31
0.0
  0
LINE
  5
9C
330
98
100
AcDbEntity
  8
BEMASSUNG
 62
     2
440
 16777216
370
    -2
100
AcDbLine
 10
-370.5569886616531
 20
372.9729294499953
 30
0.0
 11
-370.5569886616531
 21
307.107293695919
 31
0.0
  0
SOLID
  5
9D
330
98
100
AcDbEntity
  8
BEMASSUNG
 62
     2
440
 16777216
100
AcDbTrace
 10
-372.5569886616531
 20
372.9729294499953
 30
0.0
 11
-368.5569886616531
 21
372.9729294499953
 31
0.0
 12
-370.556988661653
 22
384.9729294499953
 32
0.0
 13
-370.556988661653
 23
384.9729294499953
 33
0.0
  0
SOLID
  5
9E
330
98
100
AcDbEntity
  8
BEMASSUNG
 62
     2
440
 16777216
100
AcDbTrace
 10
-372.5569886616531
 20
307.107293695919
 30
0.0
 11
-368.5569886616531
 21
307.107293695919
 31
0.0
 12
-370.5569886616531
 22
295.107293695919
 32
0.0
 13
-370.5569886616531
 23
295.107293695919
 33
0.0
  0
MTEXT
  5
9F
330
98
100
AcDbEntity
  8
BEMASSUNG
 62
     3
440
 16777216
100
AcDbMText
 10
-377.6521455511483
 20
340.0401115729571
 30
0.0
 40
9.0
 41
0.0
 46
0.0
 71
     5
 72
     1
  1
\A1;171.5
  7
ARIAL-STANDARD
 11
0.0000000000000001
 21
1.0
 31
0.0
 73
     1
 44
1.0
  0
POINT
  5
A0
330
98
100
AcDbEntity
  8
DEFPOINTS
 62
     0
440
 16777216
100
AcDbPoint
 10
-437.3206580755277
 20
384.9729294499955
 30
0.0
  0
POINT
  5
A1
330
98
100
AcDbEntity
  8
DEFPOINTS
 62
     0
440
 16777216
100
AcDbPoint
 10
-430.8206580755275
 20
295.1072936959191
 30
0.0
  0
POINT
  5
A2
330
98
100
AcDbEntity
  8
DEFPOINTS
 62
     0
440
 16777216
100
AcDbPoint
 10
-370.5569886616531
 20
295.107293695919
 30
0.0
  0
ENDBLK
  5
A3
330
98
100
AcDbEntity
  8
0
100
AcDbBlockEnd
  0
BLOCK
  5
443
330
442
100
AcDbEntity
  8
0
100
AcDbBlockBegin
  2
_ACMFILLED30
 70
     0
 10
0.0
 20
0.0
 30
0.0
  3
_ACMFILLED30
  1

  0
TRACE
  5
444
330
442
100
AcDbEntity
  8
BEMASSUNG
 62
     0
100
AcDbTrace
 10
-1.0
 20
-0.26794919
 30
0.0
 11
-1.0
 21
0.26794919
 31
0.0
 12
0.0
 22
0.0
 32
0.0
 13
0.0
 23
0.0
 33
0.0
  0
ENDBLK
  5
445
330
442
100
AcDbEntity
  8
0
100
AcDbBlockEnd
  0
BLOCK
  5
81
330
80
100
AcDbEntity
  8
0
100
AcDbBlockBegin
  2
*D18
 70
     1
 10
0.0
 20
0.0
 30
0.0
  3
*D18
  1

  0
LINE
  5
82
330
80
100
AcDbEntity
  8
BEMASSUNG
 62
     2
440
 16777216
370
    -2
100
AcDbLine
 10
-436.7735369115775
 20
888.4682898374601
 30
0.0
 11
-436.7735369115775
 21
869.27202214044
 31
0.0
  0
LINE
  5
83
330
80
100
AcDbEntity
  8
BEMASSUNG
 62
     2
440
 16777216
370
    -2
100
AcDbLine
 10
-430.816226056805
 20
884.1682898374607
 30
0.0
 11
-430.816226056805
 21
869.27202214044
 31
0.0
  0
LINE
  5
84
330
80
100
AcDbEntity
  8
BEMASSUNG
 62
     2
440
 16777216
370
    -2
100
AcDbLine
 10
-418.8162260568049
 20
870.2720221404401
 30
0.0
 11
-406.8162260568048
 21
870.2720221404401
 31
0.0
  0
LINE
  5
85
330
80
100
AcDbEntity
  8
BEMASSUNG
 62
     2
440
 16777216
370
    -2
100
AcDbLine
 10
-448.7735369115775
 20
870.2720221404401
 30
0.0
 11
-485.7104400493675
 21
870.2720221404401
 31
0.0
  0
LINE
  5
86
330
80
100
AcDbEntity
  8
BEMASSUNG
 62
     2
440
 16777216
370
    -2
100
AcDbLine
 10
-430.816226056805
 20
870.2720221404401
 30
0.0
 11
-436.7735369115775
 21
870.2720221404401
 31
0.0
  0
SOLID
  5
87
330
80
100
AcDbEntity
  8
BEMASSUNG
 62
     2
440
 16777216
100
AcDbTrace
 10
-418.8162260568049
 20
872.2720221404404
 30
0.0
 11
-418.8162260568049
 21
868.2720221404402
 31
0.0
 12
-430.816226056805
 22
870.2720221404401
 32
0.0
 13
-430.816226056805
 23
870.2720221404401
 33
0.0
  0
SOLID
  5
88
330
80
100
AcDbEntity
  8
BEMASSUNG
 62
     2
440
 16777216
100
AcDbTrace
 10
-448.7735369115775
 20
872.2720221404404
 30
0.0
 11
-448.7735369115775
 21
868.2720221404402
 31
0.0
 12
-436.7735369115775
 22
870.2720221404401
 32
0.0
 13
-436.7735369115775
 23
870.2720221404401
 33
0.0
  0
MTEXT
  5
89
330
80
100
AcDbEntity
  8
BEMASSUNG
 62
     3
440
 16777216
100
AcDbMText
 10
-474.9594168570072
 20
877.3671790299356
 30
0.0
 40
9.0
 41
0.0
 46
0.0
 71
     5
 72
     1
  1
\A1;6.5
  7
ARIAL-STANDARD
 73
     1
 44
1.0
  0
POINT
  5
8A
330
80
100
AcDbEntity
  8
DEFPOINTS
 62
     0
440
 16777216
100
AcDbPoint
 10
-436.7735369115775
 20
888.4682898374601
 30
0.0
  0
POINT
  5
8C
330
80
100
AcDbEntity
  8
DEFPOINTS
 62
     0
440
 16777216
100
AcDbPoint
 10
-430.816226056805
 20
884.1682898374607
 30
0.0
  0
POINT
  5
8D
330
80
100
AcDbEntity
  8
DEFPOINTS
 62
     0
440
 16777216
100
AcDbPoint
 10
-430.816226056805
 20
870.2720221404401
 30
0.0
  0
ENDBLK
  5
8E
330
80
100
AcDbEntity
  8
0
100
AcDbBlockEnd
  0
BLOCK
  5
640
330
63F
100
AcDbEntity
  8
0
100
AcDbBlockBegin
  2
*D19
 70
     1
 10
0.0
 20
0.0
 30
0.0
  3
*D19
  1

  0
LINE
  5
642
330
63F
100
AcDbEntity
  8
BEMASSUNG
 62
     2
440
 16777216
370
    -2
100
AcDbLine
 10
-454.8206580755287
 20
143.2181012972724
 30
0.0
 11
-454.8206580755287
 21
119.15955590771
 31
0.0
  0
LINE
  5
643
330
63F
100
AcDbEntity
  8
BEMASSUNG
 62
     2
440
 16777216
370
    -2
100
AcDbLine
 10
-430.8206580755291
 20
143.2181012972653
 30
0.0
 11
-430.8206580755291
 21
119.15955590771
 31
0.0
  0
LINE
  5
644
330
63F
100
AcDbEntity
  8
BEMASSUNG
 62
     2
440
 16777216
370
    -2
100
AcDbLine
 10
-466.8206580755287
 20
120.15955590771
 30
0.0
 11
-478.8206580755288
 21
120.15955590771
 31
0.0
  0
LINE
  5
645
330
63F
100
AcDbEntity
  8
BEMASSUNG
 62
     2
440
 16777216
370
    -2
100
AcDbLine
 10
-418.8206580755291
 20
120.15955590771
 30
0.0
 11
-406.820658075529
 21
120.15955590771
 31
0.0
  0
LINE
  5
646
330
63F
100
AcDbEntity
  8
BEMASSUNG
 62
     2
440
 16777216
370
    -2
100
AcDbLine
 10
-454.8206580755287
 20
120.15955590771
 30
0.0
 11
-430.8206580755291
 21
120.15955590771
 31
0.0
  0
SOLID
  5
647
330
63F
100
AcDbEntity
  8
BEMASSUNG
 62
     2
440
 16777216
100
AcDbTrace
 10
-466.8206580755287
 20
122.15955590771
 30
0.0
 11
-466.8206580755287
 21
118.15955590771
 31
0.0
 12
-454.8206580755287
 22
120.15955590771
 32
0.0
 13
-454.8206580755287
 23
120.15955590771
 33
0.0
  0
SOLID
  5
648
330
63F
100
AcDbEntity
  8
BEMASSUNG
 62
     2
440
 16777216
100
AcDbTrace
 10
-418.8206580755291
 20
122.15955590771
 30
0.0
 11
-418.8206580755291
 21
118.15955590771
 31
0.0
 12
-430.8206580755291
 22
120.15955590771
 32
0.0
 13
-430.8206580755291
 23
120.15955590771
 33
0.0
  0
MTEXT
  5
649
330
63F
100
AcDbEntity
  8
BEMASSUNG
 62
     3
440
 16777216
100
AcDbMText
 10
-442.8206580755287
 20
127.1779733701929
 30
0.0
 40
9.0
 41
0.0
 46
0.0
 71
     5
 72
     1
  1
\A1;{}24
  7
ARIAL-STANDARD
 73
     1
 44
1.0
  0
POINT
  5
64A
330
63F
100
AcDbEntity
  8
DEFPOINTS
 62
     0
440
 16777216
100
AcDbPoint
 10
-454.8206580755287
 20
143.2181012972724
 30
0.0
  0
POINT
  5
64B
330
63F
100
AcDbEntity
  8
DEFPOINTS
 62
     0
440
 16777216
100
AcDbPoint
 10
-430.8206580755291
 20
143.2181012972653
 30
0.0
  0
POINT
  5
64C
330
63F
100
AcDbEntity
  8
DEFPOINTS
 62
     0
440
 16777216
100
AcDbPoint
 10
-430.8206580755291
 20
120.15955590771
 30
0.0
  0
ENDBLK
  5
641
330
63F
100
AcDbEntity
  8
0
100
AcDbBlockEnd
  0
BLOCK
  5
64E
330
64D
100
AcDbEntity
  8
0
100
AcDbBlockBegin
  2
*D20
 70
     1
 10
0.0
 20
0.0
 30
0.0
  3
*D20
  1

  0
LINE
  5
650
330
64D
100
AcDbEntity
  8
BEMASSUNG
 62
     2
440
 16777216
370
    -2
100
AcDbLine
 10
-454.8206580755287
 20
146.2181012972724
 30
0.0
 11
-471.2492639261268
 21
146.2181012972724
 31
0.0
  0
LINE
  5
651
330
64D
100
AcDbEntity
  8
BEMASSUNG
 62
     2
440
 16777216
370
    -2
100
AcDbLine
 10
-454.8206580755293
 20
143.2181012972724
 30
0.0
 11
-471.2492639261268
 21
143.2181012972724
 31
0.0
  0
LINE
  5
652
330
64D
100
AcDbEntity
  8
BEMASSUNG
 62
     2
440
 16777216
370
    -2
100
AcDbLine
 10
-470.2492639261268
 20
158.2181012972724
 30
0.0
 11
-470.2492639261268
 21
170.2181012972724
 31
0.0
  0
LINE
  5
653
330
64D
100
AcDbEntity
  8
BEMASSUNG
 62
     2
440
 16777216
370
    -2
100
AcDbLine
 10
-470.2492639261268
 20
131.2181012972724
 30
0.0
 11
-470.2492639261268
 21
119.2181012972724
 31
0.0
  0
LINE
  5
654
330
64D
100
AcDbEntity
  8
BEMASSUNG
 62
     2
440
 16777216
370
    -2
100
AcDbLine
 10
-470.2492639261268
 20
146.2181012972724
 30
0.0
 11
-470.2492639261268
 21
143.2181012972724
 31
0.0
  0
SOLID
  5
655
330
64D
100
AcDbEntity
  8
BEMASSUNG
 62
     2
440
 16777216
100
AcDbTrace
 10
-472.2492639261267
 20
158.2181012972724
 30
0.0
 11
-468.2492639261267
 21
158.2181012972724
 31
0.0
 12
-470.2492639261268
 22
146.2181012972724
 32
0.0
 13
-470.2492639261268
 23
146.2181012972724
 33
0.0
  0
SOLID
  5
656
330
64D
100
AcDbEntity
  8
BEMASSUNG
 62
     2
440
 16777216
100
AcDbTrace
 10
-472.2492639261267
 20
131.2181012972724
 30
0.0
 11
-468.2492639261267
 21
131.2181012972724
 31
0.0
 12
-470.2492639261268
 22
143.2181012972724
 32
0.0
 13
-470.2492639261268
 23
143.2181012972724
 33
0.0
  0
MTEXT
  5
657
330
64D
100
AcDbEntity
  8
BEMASSUNG
 62
     3
440
 16777216
100
AcDbMText
 10
-477.3474903927025
 20
144.7181012972723
 30
0.0
 40
9.0
 41
0.0
 46
0.0
 71
     5
 72
     1
  1
\A1;3
  7
ARIAL-STANDARD
 11
0.0000000000000001
 21
1.0
 31
0.0
 73
     1
 44
1.0
  0
POINT
  5
658
330
64D
100
AcDbEntity
  8
DEFPOINTS
 62
     0
440
 16777216
100
AcDbPoint
 10
-454.8206580755287
 20
146.2181012972724
 30
0.0
  0
POINT
  5
659
330
64D
100
AcDbEntity
  8
DEFPOINTS
 62
     0
440
 16777216
100
AcDbPoint
 10
-454.8206580755293
 20
143.2181012972724
 30
0.0
  0
POINT
  5
65A
330
64D
100
AcDbEntity
  8
DEFPOINTS
 62
     0
440
 16777216
100
AcDbPoint
 10
-470.2492639261268
 20
143.2181012972724
 30
0.0
  0
ENDBLK
  5
64F
330
64D
100
AcDbEntity
  8
0
100
AcDbBlockEnd
  0
BLOCK
  5
6FD
330
6FC
100
AcDbEntity
  8
0
100
AcDbBlockBegin
  2
*D21
 70
     1
 10
0.0
 20
0.0
 30
0.0
  3
*D21
  1

  0
LINE
  5
6FF
330
6FC
100
AcDbEntity
  8
BEMASSUNG
 62
     2
440
 16777216
370
    -2
100
AcDbLine
 10
-436.7735369115775
 20
888.4682898374601
 30
0.0
 11
-436.7735369115775
 21
872.0832400941471
 31
0.0
  0
LINE
  5
700
330
6FC
100
AcDbEntity
  8
BEMASSUNG
 62
     2
440
 16777216
370
    -2
100
AcDbLine
 10
-430.816226056805
 20
884.1682898374607
 30
0.0
 11
-430.816226056805
 21
872.0832400941471
 31
0.0
  0
LINE
  5
701
330
6FC
100
AcDbEntity
  8
BEMASSUNG
 62
     2
440
 16777216
370
    -2
100
AcDbLine
 10
-418.8162260568049
 20
873.0832400941471
 30
0.0
 11
-406.8162260568048
 21
873.0832400941471
 31
0.0
  0
LINE
  5
702
330
6FC
100
AcDbEntity
  8
BEMASSUNG
 62
     2
440
 16777216
370
    -2
100
AcDbLine
 10
-448.7735369115775
 20
873.0832400941471
 30
0.0
 11
-485.7104400493674
 21
873.0832400941471
 31
0.0
  0
LINE
  5
703
330
6FC
100
AcDbEntity
  8
BEMASSUNG
 62
     2
440
 16777216
370
    -2
100
AcDbLine
 10
-430.816226056805
 20
873.0832400941471
 30
0.0
 11
-436.7735369115775
 21
873.0832400941471
 31
0.0
  0
SOLID
  5
704
330
6FC
100
AcDbEntity
  8
BEMASSUNG
 62
     2
440
 16777216
100
AcDbTrace
 10
-418.8162260568049
 20
875.0832400941472
 30
0.0
 11
-418.8162260568049
 21
871.0832400941471
 31
0.0
 12
-430.816226056805
 22
873.0832400941471
 32
0.0
 13
-430.816226056805
 23
873.0832400941471
 33
0.0
  0
SOLID
  5
705
330
6FC
100
AcDbEntity
  8
BEMASSUNG
 62
     2
440
 16777216
100
AcDbTrace
 10
-448.7735369115775
 20
875.0832400941472
 30
0.0
 11
-448.7735369115775
 21
871.0832400941471
 31
0.0
 12
-436.7735369115775
 22
873.0832400941471
 32
0.0
 13
-436.7735369115775
 23
873.0832400941471
 33
0.0
  0
MTEXT
  5
706
330
6FC
100
AcDbEntity
  8
BEMASSUNG
 62
     3
440
 16777216
100
AcDbMText
 10
-474.9594168570072
 20
880.1783969836424
 30
0.0
 40
9.0
 41
0.0
 46
0.0
 71
     5
 72
     1
  1
\A1;6.5
  7
ARIAL-STANDARD
 73
     1
 44
1.0
  0
POINT
  5
707
330
6FC
100
AcDbEntity
  8
DEFPOINTS
 62
     0
440
 16777216
100
AcDbPoint
 10
-436.7735369115775
 20
888.4682898374601
 30
0.0
  0
POINT
  5
708
330
6FC
100
AcDbEntity
  8
DEFPOINTS
 62
     0
440
 16777216
100
AcDbPoint
 10
-430.816226056805
 20
884.1682898374607
 30
0.0
  0
POINT
  5
709
330
6FC
100
AcDbEntity
  8
DEFPOINTS
 62
     0
440
 16777216
100
AcDbPoint
 10
-430.816226056805
 20
873.0832400941471
 30
0.0
  0
ENDBLK
  5
6FE
330
6FC
100
AcDbEntity
  8
0
100
AcDbBlockEnd
  0
ENDSEC
  0
SECTION
  2
ENTITIES
  0
DIMENSION
  5
7C
330
2
100
AcDbEntity
  8
BEMASSUNG
100
AcDbDimension
280
     0
  2
*D21
 10
-430.816226056805
 20
873.0832400941471
 30
0.0
 11
-474.9594168570072
 21
873.0832400941471
 31
0.0
 70
   160
  1
6.5
 71
     5
 42
5.957310854772572
 73
     0
 74
     0
 75
     0
  3
Katalog 09$0
100
AcDbAlignedDimension
 13
-436.7735369115775
 23
888.4682898374601
 33
0.0
 14
-430.816226056805
 24
884.1682898374607
 34
0.0
100
AcDbRotatedDimension
1001
ACAD_DSTYLE_DIMINSPECT
1070
   396
1000
100%
1070
   395
1000

1070
   394
1070
    33
1070
   393
1070
     0
1001
ACAD
1000
DSTYLE
1002
{
1070
    41
1040
12.0
1070
   140
1040
9.0
1070
   147
1040
2.5
1002
}
  0
LINE
  5
91
330
2
100
AcDbEntity
  8
Verdeckte Kanten(MSL)
100
AcDbLine
 10
-432.7735369115753
 20
888.4682898374599
 30
0.0
 11
-436.7735369115753
 21
888.4682898374601
 31
0.0
  0
LINE
  5
94
330
2
100
AcDbEntity
  8
Verdeckte Kanten(MSL)
100
AcDbLine
 10
-436.7735369115753
 20
928.4682898374599
 30
0.0
 11
-432.7735369115753
 21
928.4682898374599
 31
0.0
  0
LINE
  5
95
330
2
100
AcDbEntity
  8
Verdeckte Kanten(MSL)
100
AcDbLine
 10
-432.7735369115753
 20
928.4682898374599
 30
0.0
 11
-432.7735369115753
 21
888.4682898374599
 31
0.0
  0
LINE
  5
96
330
2
100
AcDbEntity
  8
Verdeckte Kanten(MSL)
100
AcDbLine
 10
-436.7735369115753
 20
928.4682898374599
 30
0.0
 11
-436.7735369115753
 21
888.4682898374601
 31
0.0
  0
DIMENSION
  5
97
330
2
100
AcDbEntity
  8
BEMASSUNG
100
AcDbDimension
280
     0
  2
*D16
 10
-370.5569886616531
 20
295.107293695919
 30
0.0
 11
-377.6521455511483
 21
340.0401115729571
 31
0.0
  1
171.5
 71
     5
 42
89.86563575407636
 73
     0
 74
     0
 75
     0
  3
Katalog 09
100
AcDbAlignedDimension
 13
-437.3206580755277
 23
384.9729294499955
 33
0.0
 14
-430.8206580755275
 24
295.1072936959191
 34
0.0
 50
90.0
100
AcDbRotatedDimension
1001
ACAD_DSTYLE_DIMINSPECT
1070
   396
1000
100%
1070
   395
1000

1070
   394
1070
    33
1070
   393
1070
     0
  0
DIMENSION
  5
A4
330
2
100
AcDbEntity
  8
BEMASSUNG
100
AcDbDimension
280
     0
  2
*D15
 10
-370.5633066232276
 20
1261.972929449994
 30
0.0
 11
-377.6584635127232
 21
1322.173971714776
 31
0.0
  1
241.5
 71
     5
 42
120.4020845295636
 73
     0
 74
     0
 75
     0
  3
Katalog 09
100
AcDbAlignedDimension
 13
-430.8206580755275
 23
1382.375013979558
 33
0.0
 14
-406.4304774234555
 24
1261.972929449994
 34
0.0
 50
90.0
100
AcDbRotatedDimension
1001
ACAD_DSTYLE_DIMINSPECT
1070
   396
1000
100%
1070
   395
1000

1070
   394
1070
    33
1070
   393
1070
     0
  0
CIRCLE
  5
B1
330
2
100
AcDbEntity
  8
UMRISS05
100
AcDbCircle
 10
-442.8162260568001
 20
882.2182898374606
 30
0.0
 40
2.5
  0
CIRCLE
  5
B5
330
2
100
AcDbEntity
  8
UMRISS05
100
AcDbCircle
 10
-442.8162260568001
 20
934.7301173583479
 30
0.0
 40
2.5
  0
LINE
  5
B6
330
2
100
AcDbEntity
  8
ACHSEN
100
AcDbLine
 10
-455.8162260568001
 20
908.4682898374602
 30
0.0
 11
-429.3162260567998
 21
908.4682898374602
 31
0.0
  0
MTEXT
  5
BB
330
2
100
AcDbEntity
  8
UMRISS05
 62
     3
100
AcDbMText
 10
-439.1481886078045
 20
1433.703827831019
 30
0.0
 40
8.0
 41
0.0
 46
0.0
 71
     5
 72
     1
  1
\A1;rechts / links\Pverwendbar
  7
ARIAL-STANDARD
 73
     1
 44
1.0
  0
MTEXT
  5
BC
330
2
100
AcDbEntity
  8
UMRISS05
 62
     3
100
AcDbMText
 10
-442.0874393806299
 20
1469.915075676677
 30
0.0
 40
10.0
 41
0.0
 46
0.0
 71
     5
 72
     1
  1
\A1;B-23421.\PRE5333-24
  7
ARIAL-STANDARD
 73
     1
 44
1.0
  0
LINE
  5
BD
330
2
100
AcDbEntity
  8
ACHSEN
 48
0.5
100
AcDbLine
 10
-451.2336456607836
 20
882.2182898374615
 30
0.0
 11
-434.4259939279663
 21
882.2182898374615
 31
0.0
  0
LINE
  5
BE
330
2
100
AcDbEntity
  8
ACHSEN
 48
0.5
100
AcDbLine
 10
-442.829819794375
 20
889.7097033810522
 30
0.0
 11
-442.829819794375
 21
874.7268762938706
 31
0.0
  0
LINE
  5
BF
330
2
100
AcDbEntity
  8
ACHSEN
 48
0.5
100
AcDbLine
 10
-451.2200519232087
 20
934.7182898374606
 30
0.0
 11
-434.4124001903916
 21
934.7182898374606
 31
0.0
  0
LINE
  5
C0
330
2
100
AcDbEntity
  8
ACHSEN
 48
0.5
100
AcDbLine
 10
-442.8162260568001
 20
942.2097033810514
 30
0.0
 11
-442.8162260568001
 21
927.2268762938699
 31
0.0
  0
DIMENSION
  5
C1
330
2
100
AcDbEntity
  8
UMRISS05
100
AcDbDimension
280
     0
  2
*D14
 10
-442.829819794375
 20
946.6254304844083
 30
0.0
 11
-436.8230229257632
 21
953.6438479468911
 31
0.0
 71
     5
 42
12.01359373722334
 73
     0
 74
     0
 75
     0
  3
Katalog 09
100
AcDbAlignedDimension
 13
-430.8162260571516
 23
934.7182898374628
 33
0.0
 14
-442.829819794375
 24
938.7182667386811
 34
0.0
100
AcDbRotatedDimension
1001
ACAD_DSTYLE_DIMINSPECT
1070
   396
1000
100%
1070
   395
1000

1070
   394
1070
    33
1070
   393
1070
     0
1001
ACAD
1000
DSTYLE
1002
{
1070
   271
1070
     1
1002
}
  0
DIMENSION
  5
D0
330
2
100
AcDbEntity
  8
UMRISS05
100
AcDbDimension
280
     0
  2
*D13
 10
-370.5704090371833
 20
868.4729294499957
 30
0.0
 11
-377.6686355037591
 21
626.7229294499956
 31
0.0
  1
813.5
 71
     5
 42
483.5000000000005
 73
     0
 74
     0
 75
     0
  3
Katalog 09
100
AcDbAlignedDimension
 13
-437.3206580755277
 23
384.9729294499955
 33
0.0
 14
-373.7419686073367
 24
868.4729294499957
 34
0.0
 50
90.0
100
AcDbRotatedDimension
1001
ACAD_DSTYLE_DIMINSPECT
1070
   396
1000
100%
1070
   395
1000

1070
   394
1070
    33
1070
   393
1070
     0
  0
DIMENSION
  5
DD
330
2
100
AcDbEntity
  8
UMRISS05
100
AcDbDimension
280
     0
  2
*D12
 10
-386.2953898432548
 20
431.9729294499953
 30
0.0
 11
-393.3905467327501
 21
650.2229294499954
 31
0.0
  1
766.5
 71
     5
 42
436.5000000000001
 73
     0
 74
     0
 75
     0
  3
Katalog 09
100
AcDbAlignedDimension
 13
-386.2287103002813
 23
868.4729294499957
 33
0.0
 14
-437.3206580755277
 24
431.9729294499953
 34
0.0
 50
90.0
100
AcDbRotatedDimension
1001
ACAD_DSTYLE_DIMINSPECT
1070
   396
1000
100%
1070
   395
1000

1070
   394
1070
    33
1070
   393
1070
     0
  0
DIMENSION
  5
EA
330
2
100
AcDbEntity
  8
UMRISS05
100
AcDbDimension
280
     0
  2
*D11
 10
-370.4903647896732
 20
1261.972929449993
 30
0.0
 11
-377.5885912562492
 21
1065.222929449994
 31
0.0
  1
723.5
 71
     5
 42
393.4999999999976
 73
     0
 74
     0
 75
     0
  3
Katalog 09
100
AcDbAlignedDimension
 13
-375.1189820524519
 23
868.4729294499957
 33
0.0
 14
-437.3206580755279
 24
1261.972929449993
 34
0.0
 50
90.0
100
AcDbRotatedDimension
1001
ACAD_DSTYLE_DIMINSPECT
1070
   396
1000
100%
1070
   395
1000

1070
   394
1070
    33
1070
   393
1070
     0
  0
DIMENSION
  5
F7
330
2
100
AcDbEntity
  8
UMRISS05
100
AcDbDimension
280
     0
  2
*D10
 10
-386.1584227952477
 20
1214.972929449994
 30
0.0
 11
-393.253579684743
 21
1041.722929449995
 31
0.0
  1
676.5
 71
     5
 42
346.4999999999987
 73
     0
 74
     0
 75
     0
  3
Katalog 09
100
AcDbAlignedDimension
 13
-390.2483526896444
 23
868.4729294499957
 33
0.0
 14
-437.3206580755279
 24
1214.972929449994
 34
0.0
 50
90.0
100
AcDbRotatedDimension
1001
ACAD_DSTYLE_DIMINSPECT
1070
   396
1000
100%
1070
   395
1000

1070
   394
1070
    33
1070
   393
1070
     0
  0
DIMENSION
  5
104
330
2
100
AcDbEntity
  8
UMRISS05
100
AcDbDimension
280
     0
  2
*D9
 10
-400.4557516464333
 20
784.9682898374601
 30
0.0
 11
-407.5539781130092
 21
826.7206096437281
 31
0.0
 71
     5
 42
83.50463961253572
 73
     0
 74
     0
 75
     0
  3
Katalog 09
100
AcDbAlignedDimension
 13
-430.8162260568049
 23
868.4729294499961
 33
0.0
 14
-437.3162260568003
 24
784.9682898374601
 34
0.0
 50
90.0
100
AcDbRotatedDimension
  0
DIMENSION
  5
111
330
2
100
AcDbEntity
  8
UMRISS05
100
AcDbDimension
280
     0
  2
*D8
 10
-415.8583618892911
 20
831.9682898374601
 30
0.0
 11
-422.9565883558668
 21
850.2206096437282
 31
0.0
 71
     5
 42
36.50463961253581
 73
     0
 74
     0
 75
     0
  3
Katalog 09
100
AcDbAlignedDimension
 13
-430.8162260568049
 23
868.4729294499961
 33
0.0
 14
-437.3162260568001
 24
831.9682898374601
 34
0.0
 50
90.0
100
AcDbRotatedDimension
  0
LINE
  5
11E
330
2
100
AcDbEntity
  8
ACHSEN
 48
0.5
100
AcDbLine
 10
-451.2200519232087
 20
858.4918224628427
 30
0.0
 11
-434.4124001903914
 21
858.4918224628427
 31
0.0
  0
LINE
  5
11F
330
2
100
AcDbEntity
  8
ACHSEN
 48
0.5
100
AcDbLine
 10
-442.8162260568001
 20
865.9918224628391
 30
0.0
 11
-442.8162260568001
 21
850.9918224628464
 31
0.0
  0
LINE
  5
120
330
2
100
AcDbEntity
  8
ACHSEN
 48
0.5
100
AcDbLine
 10
-442.829819794375
 20
889.7097033810522
 30
0.0
 11
-442.829819794375
 21
874.7268762938706
 31
0.0
  0
DIMENSION
  5
121
330
2
100
AcDbEntity
  8
UMRISS05
100
AcDbDimension
280
     0
  2
*D7
 10
-400.4557516464333
 20
884.4682898374609
 30
0.0
 11
-407.5509085359287
 21
908.4682898374607
 31
0.0
 71
     5
 42
47.99999999999989
 73
     0
 74
     0
 75
     0
  3
Katalog 09
100
AcDbAlignedDimension
 13
-431.3162260571516
 23
932.4682898374607
 33
0.0
 14
-431.3162260571516
 24
884.4682898374609
 34
0.0
 50
90.0
100
AcDbRotatedDimension
  0
DIMENSION
  5
12E
330
2
100
AcDbEntity
  8
UMRISS05
100
AcDbDimension
280
     0
  2
*D6
 10
-415.799491128056
 20
886.4682898374608
 30
0.0
 11
-422.7994911280561
 21
908.4682898374607
 31
0.0
 71
     5
 42
44.0
 73
     0
 74
     0
 75
     0
  3
Katalog 09
100
AcDbAlignedDimension
 13
-439.2304396191732
 23
930.4682898374608
 33
0.0
 14
-439.2304396191743
 24
886.4682898374608
 34
0.0
 50
90.0
100
AcDbRotatedDimension
  0
LINE
  5
13B
330
2
100
AcDbEntity
  8
ACHSEN
 48
0.5
100
AcDbLine
 10
-442.8206580755275
 20
1368.885375755488
 30
0.0
 11
-442.8206580755275
 21
1353.885375755476
 31
0.0
  0
LINE
  5
13C
330
2
100
AcDbEntity
  8
ACHSEN
 48
0.5
100
AcDbLine
 10
-442.8206580755275
 20
327.4329294499947
 30
0.0
 11
-442.8206580755275
 21
312.4329294499947
 31
0.0
  0
LINE
  5
13D
330
2
100
AcDbEntity
  8
ACHSEN
 48
0.5
100
AcDbLine
 10
-451.1463769387794
 20
319.9329294499928
 30
0.0
 11
-434.3387252059648
 21
319.9329294499928
 31
0.0
  0
LINE
  5
13E
330
2
100
AcDbEntity
  8
ACHSEN
 48
0.5
100
AcDbLine
 10
-451.220051923209
 20
498.6982567177298
 30
0.0
 11
-434.4124001903916
 21
498.6982567177298
 31
0.0
  0
LINE
  5
13F
330
2
100
AcDbEntity
  8
ACHSEN
 48
0.5
100
AcDbLine
 10
-442.8162260568003
 20
506.1982567177316
 30
0.0
 11
-442.8162260568003
 21
491.198256717728
 31
0.0
  0
LINE
  5
140
330
2
100
AcDbEntity
  8
ACHSEN
 48
0.5
100
AcDbLine
 10
-451.220051923209
 20
706.4682898374597
 30
0.0
 11
-434.4124001903916
 21
706.4682898374597
 31
0.0
  0
LINE
  5
141
330
2
100
AcDbEntity
  8
ACHSEN
 48
0.5
100
AcDbLine
 10
-442.8162260568003
 20
713.9682898374617
 30
0.0
 11
-442.8162260568003
 21
698.9682898374582
 31
0.0
  0
LINE
  5
142
330
2
100
AcDbEntity
  8
ACHSEN
 48
0.5
100
AcDbLine
 10
-451.220051923209
 20
962.7968780436278
 30
0.0
 11
-434.4124001903913
 21
962.7968780436278
 31
0.0
  0
LINE
  5
143
330
2
100
AcDbEntity
  8
ACHSEN
 48
0.5
100
AcDbLine
 10
-442.8162260568001
 20
970.2968780435924
 30
0.0
 11
-442.8162260568001
 21
955.2968780436636
 31
0.0
  0
LINE
  5
144
330
2
100
AcDbEntity
  8
ACHSEN
 48
0.5
100
AcDbLine
 10
-451.220051923209
 20
1081.071933503172
 30
0.0
 11
-434.4124001903913
 21
1081.071933503172
 31
0.0
  0
LINE
  5
145
330
2
100
AcDbEntity
  8
ACHSEN
 48
0.5
100
AcDbLine
 10
-442.8162260568001
 20
1088.571933503135
 30
0.0
 11
-442.8162260568001
 21
1073.571933503209
 31
0.0
  0
LINE
  5
146
330
2
100
AcDbEntity
  8
ACHSEN
 48
0.5
100
AcDbLine
 10
-451.2244839419363
 20
1196.026389761242
 30
0.0
 11
-434.4168322091186
 21
1196.026389761242
 31
0.0
  0
LINE
  5
147
330
2
100
AcDbEntity
  8
ACHSEN
 48
0.5
100
AcDbLine
 10
-442.8206580755275
 20
1203.526389761206
 30
0.0
 11
-442.8206580755275
 21
1188.526389761278
 31
0.0
  0
POLYLINE
  5
149
330
2
100
AcDbEntity
  8
ACHSEN
100
AcDb2dPolyline
 66
     1
 10
0.0
 20
0.0
 30
0.0
  0
VERTEX
  5
14A
330
149
100
AcDbEntity
  8
ACHSEN
100
AcDbVertex
100
AcDb2dVertex
 10
-454.820658075527
 20
468.0217323272116
 30
0.0
 91
       62
  0
VERTEX
  5
14B
330
149
100
AcDbEntity
  8
ACHSEN
100
AcDbVertex
100
AcDb2dVertex
 10
-451.0188401703397
 20
466.8873104852637
 30
0.0
 91
       63
  0
VERTEX
  5
14C
330
149
100
AcDbEntity
  8
ACHSEN
100
AcDbVertex
100
AcDb2dVertex
 10
-449.4526537579168
 20
466.2446669171776
 30
0.0
  0
VERTEX
  5
14D
330
149
100
AcDbEntity
  8
ACHSEN
100
AcDbVertex
100
AcDb2dVertex
 10
-448.1049067588505
 20
465.8683711694758
 30
0.0
  0
VERTEX
  5
14E
330
149
100
AcDbEntity
  8
ACHSEN
100
AcDbVertex
100
AcDb2dVertex
 10
-446.9481221872452
 20
465.7012604109438
 30
0.0
  0
VERTEX
  5
14F
330
149
100
AcDbEntity
  8
ACHSEN
100
AcDbVertex
100
AcDb2dVertex
 10
-445.9548230572022
 20
465.6861718103662
 30
0.0
  0
VERTEX
  5
150
330
149
100
AcDbEntity
  8
ACHSEN
100
AcDbVertex
100
AcDb2dVertex
 10
-445.0975323828251
 20
465.7659425365276
 30
0.0
  0
VERTEX
  5
151
330
149
100
AcDbEntity
  8
ACHSEN
100
AcDbVertex
100
AcDb2dVertex
 10
-444.3487731782163
 20
465.8834097582126
 30
0.0
  0
VERTEX
  5
152
330
149
100
AcDbEntity
  8
ACHSEN
100
AcDbVertex
100
AcDb2dVertex
 10
-443.6810684574798
 20
465.9814106442068
 30
0.0
  0
VERTEX
  5
153
330
149
100
AcDbEntity
  8
ACHSEN
100
AcDbVertex
100
AcDb2dVertex
 10
-443.0707479810698
 20
466.0148329085362
 30
0.0
  0
VERTEX
  5
154
330
149
100
AcDbEntity
  8
ACHSEN
100
AcDbVertex
100
AcDb2dVertex
 10
-442.5093684948548
 20
465.9867664461948
 30
0.0
  0
VERTEX
  5
155
330
149
100
AcDbEntity
  8
ACHSEN
100
AcDbVertex
100
AcDb2dVertex
 10
-441.992293491056
 20
465.9123516974182
 30
0.0
  0
VERTEX
  5
156
330
149
100
AcDbEntity
  8
ACHSEN
100
AcDbVertex
100
AcDb2dVertex
 10
-441.5148864618926
 20
465.8067291024416
 30
0.0
  0
VERTEX
  5
157
330
149
100
AcDbEntity
  8
ACHSEN
100
AcDbVertex
100
AcDb2dVertex
 10
-441.0725108995857
 20
465.6850391015009
 30
0.0
  0
VERTEX
  5
158
330
149
100
AcDbEntity
  8
ACHSEN
100
AcDbVertex
100
AcDb2dVertex
 10
-440.6605302963551
 20
465.5624221348313
 30
0.0
  0
VERTEX
  5
159
330
149
100
AcDbEntity
  8
ACHSEN
100
AcDbVertex
100
AcDb2dVertex
 10
-440.2743081444226
 20
465.4540186426688
 30
0.0
  0
VERTEX
  5
15A
330
149
100
AcDbEntity
  8
ACHSEN
100
AcDbVertex
100
AcDb2dVertex
 10
-439.9092079360084
 20
465.3749690652487
 30
0.0
  0
VERTEX
  5
15B
330
149
100
AcDbEntity
  8
ACHSEN
100
AcDbVertex
100
AcDb2dVertex
 10
-439.5590528875373
 20
465.3359335151604
 30
0.0
  0
VERTEX
  5
15C
330
149
100
AcDbEntity
  8
ACHSEN
100
AcDbVertex
100
AcDb2dVertex
 10
-439.2115051122564
 20
465.3296507944101
 30
0.0
  0
VERTEX
  5
15D
330
149
100
AcDbEntity
  8
ACHSEN
100
AcDbVertex
100
AcDb2dVertex
 10
-438.8526864476171
 20
465.3443793773576
 30
0.0
  0
VERTEX
  5
15E
330
149
100
AcDbEntity
  8
ACHSEN
100
AcDbVertex
100
AcDb2dVertex
 10
-438.4687187310701
 20
465.3683777383633
 30
0.0
  0
VERTEX
  5
15F
330
149
100
AcDbEntity
  8
ACHSEN
100
AcDbVertex
100
AcDb2dVertex
 10
-438.0457238000674
 20
465.3899043517866
 30
0.0
  0
VERTEX
  5
160
330
149
100
AcDbEntity
  8
ACHSEN
100
AcDbVertex
100
AcDb2dVertex
 10
-437.5698234920608
 20
465.3972176919883
 30
0.0
  0
VERTEX
  5
161
330
149
100
AcDbEntity
  8
ACHSEN
100
AcDbVertex
100
AcDb2dVertex
 10
-437.0271396445013
 20
465.3785762333277
 30
0.0
  0
VERTEX
  5
162
330
149
100
AcDbEntity
  8
ACHSEN
100
AcDbVertex
100
AcDb2dVertex
 10
-436.4037940948406
 20
465.322238450165
 30
0.0
  0
VERTEX
  5
163
330
149
100
AcDbEntity
  8
ACHSEN
100
AcDbVertex
100
AcDb2dVertex
 10
-435.6956371072733
 20
465.2208904348849
 30
0.0
  0
VERTEX
  5
164
330
149
100
AcDbEntity
  8
ACHSEN
100
AcDbVertex
100
AcDb2dVertex
 10
-434.9374326529723
 20
465.0849287519702
 30
0.0
  0
VERTEX
  5
165
330
149
100
AcDbEntity
  8
ACHSEN
100
AcDbVertex
100
AcDb2dVertex
 10
-434.1736731298523
 20
464.9291775839278
 30
0.0
  0
VERTEX
  5
166
330
149
100
AcDbEntity
  8
ACHSEN
100
AcDbVertex
100
AcDb2dVertex
 10
-433.4488509358298
 20
464.7684611132651
 30
0.0
 91
       60
  0
VERTEX
  5
167
330
149
100
AcDbEntity
  8
ACHSEN
100
AcDbVertex
100
AcDb2dVertex
 10
-430.8176342269494
 20
464.0654801508173
 30
0.0
 91
       61
  0
SEQEND
  5
168
330
149
100
AcDbEntity
  8
ACHSEN
  0
POLYLINE
  5
169
330
2
100
AcDbEntity
  8
ACHSEN
100
AcDb2dPolyline
 66
     1
 10
0.0
 20
0.0
 30
0.0
  0
VERTEX
  5
16A
330
169
100
AcDbEntity
  8
ACHSEN
100
AcDbVertex
100
AcDb2dVertex
 10
-454.8206580755275
 20
471.2379301094092
 30
0.0
 91
       64
  0
VERTEX
  5
16B
330
169
100
AcDbEntity
  8
ACHSEN
100
AcDbVertex
100
AcDb2dVertex
 10
-451.0188401703397
 20
470.113253585213
 30
0.0
 91
       65
  0
VERTEX
  5
16C
330
169
100
AcDbEntity
  8
ACHSEN
100
AcDbVertex
100
AcDb2dVertex
 10
-449.4526537579168
 20
469.470610017127
 30
0.0
  0
VERTEX
  5
16D
330
169
100
AcDbEntity
  8
ACHSEN
100
AcDbVertex
100
AcDb2dVertex
 10
-448.1049067588505
 20
469.094314269425
 30
0.0
  0
VERTEX
  5
16E
330
169
100
AcDbEntity
  8
ACHSEN
100
AcDbVertex
100
AcDb2dVertex
 10
-446.9481221872452
 20
468.9272035108934
 30
0.0
  0
VERTEX
  5
16F
330
169
100
AcDbEntity
  8
ACHSEN
100
AcDbVertex
100
AcDb2dVertex
 10
-445.9548230572022
 20
468.9121149103157
 30
0.0
  0
VERTEX
  5
170
330
169
100
AcDbEntity
  8
ACHSEN
100
AcDbVertex
100
AcDb2dVertex
 10
-445.0975323828251
 20
468.9918856364768
 30
0.0
  0
VERTEX
  5
171
330
169
100
AcDbEntity
  8
ACHSEN
100
AcDbVertex
100
AcDb2dVertex
 10
-444.3487731782163
 20
469.1093528581623
 30
0.0
  0
VERTEX
  5
172
330
169
100
AcDbEntity
  8
ACHSEN
100
AcDbVertex
100
AcDb2dVertex
 10
-443.6810684574798
 20
469.2073537441561
 30
0.0
  0
VERTEX
  5
173
330
169
100
AcDbEntity
  8
ACHSEN
100
AcDbVertex
100
AcDb2dVertex
 10
-443.0707479810698
 20
469.2407760084856
 30
0.0
  0
VERTEX
  5
174
330
169
100
AcDbEntity
  8
ACHSEN
100
AcDbVertex
100
AcDb2dVertex
 10
-442.5093684948548
 20
469.2127095461442
 30
0.0
  0
VERTEX
  5
175
330
169
100
AcDbEntity
  8
ACHSEN
100
AcDbVertex
100
AcDb2dVertex
 10
-441.992293491056
 20
469.1382947973673
 30
0.0
  0
VERTEX
  5
176
330
169
100
AcDbEntity
  8
ACHSEN
100
AcDbVertex
100
AcDb2dVertex
 10
-441.5148864618926
 20
469.0326722023909
 30
0.0
  0
VERTEX
  5
177
330
169
100
AcDbEntity
  8
ACHSEN
100
AcDbVertex
100
AcDb2dVertex
 10
-441.0725108995857
 20
468.9109822014501
 30
0.0
  0
VERTEX
  5
178
330
169
100
AcDbEntity
  8
ACHSEN
100
AcDbVertex
100
AcDb2dVertex
 10
-440.6605302963551
 20
468.7883652347806
 30
0.0
  0
VERTEX
  5
179
330
169
100
AcDbEntity
  8
ACHSEN
100
AcDbVertex
100
AcDb2dVertex
 10
-440.2743081444226
 20
468.6799617426181
 30
0.0
  0
VERTEX
  5
17A
330
169
100
AcDbEntity
  8
ACHSEN
100
AcDbVertex
100
AcDb2dVertex
 10
-439.9092079360084
 20
468.600912165198
 30
0.0
  0
VERTEX
  5
17B
330
169
100
AcDbEntity
  8
ACHSEN
100
AcDbVertex
100
AcDb2dVertex
 10
-439.5590528875373
 20
468.5618766151097
 30
0.0
  0
VERTEX
  5
17C
330
169
100
AcDbEntity
  8
ACHSEN
100
AcDbVertex
100
AcDb2dVertex
 10
-439.2115051122564
 20
468.5555938943593
 30
0.0
  0
VERTEX
  5
17D
330
169
100
AcDbEntity
  8
ACHSEN
100
AcDbVertex
100
AcDb2dVertex
 10
-438.8526864476171
 20
468.5703224773068
 30
0.0
  0
VERTEX
  5
17E
330
169
100
AcDbEntity
  8
ACHSEN
100
AcDbVertex
100
AcDb2dVertex
 10
-438.4687187310701
 20
468.5943208383124
 30
0.0
  0
VERTEX
  5
17F
330
169
100
AcDbEntity
  8
ACHSEN
100
AcDbVertex
100
AcDb2dVertex
 10
-438.0457238000674
 20
468.615847451736
 30
0.0
  0
VERTEX
  5
180
330
169
100
AcDbEntity
  8
ACHSEN
100
AcDbVertex
100
AcDb2dVertex
 10
-437.5698234920608
 20
468.6231607919376
 30
0.0
  0
VERTEX
  5
181
330
169
100
AcDbEntity
  8
ACHSEN
100
AcDbVertex
100
AcDb2dVertex
 10
-437.0271396445013
 20
468.604519333277
 30
0.0
  0
VERTEX
  5
182
330
169
100
AcDbEntity
  8
ACHSEN
100
AcDbVertex
100
AcDb2dVertex
 10
-436.4037940948406
 20
468.5481815501143
 30
0.0
  0
VERTEX
  5
183
330
169
100
AcDbEntity
  8
ACHSEN
100
AcDbVertex
100
AcDb2dVertex
 10
-435.6956371072733
 20
468.4468335348342
 30
0.0
  0
VERTEX
  5
184
330
169
100
AcDbEntity
  8
ACHSEN
100
AcDbVertex
100
AcDb2dVertex
 10
-434.9374326529723
 20
468.3108718519195
 30
0.0
  0
VERTEX
  5
185
330
169
100
AcDbEntity
  8
ACHSEN
100
AcDbVertex
100
AcDb2dVertex
 10
-434.1736731298523
 20
468.155120683877
 30
0.0
  0
VERTEX
  5
186
330
169
100
AcDbEntity
  8
ACHSEN
100
AcDbVertex
100
AcDb2dVertex
 10
-433.4488509358298
 20
467.9944042132147
 30
0.0
  0
VERTEX
  5
187
330
169
100
AcDbEntity
  8
ACHSEN
100
AcDbVertex
100
AcDb2dVertex
 10
-430.8175962279371
 20
467.3755245625066
 30
0.0
  0
SEQEND
  5
188
330
169
100
AcDbEntity
  8
ACHSEN
  0
LINE
  5
189
330
2
100
AcDbEntity
  8
ACHSEN
 48
0.5
100
AcDbLine
 10
-451.2244839419363
 20
1361.385375755482
 30
0.0
 11
-434.4168322091186
 21
1361.385375755482
 31
0.0
  0
LINE
  5
18A
330
2
100
AcDbEntity
  8
ACHSEN
 48
0.5
100
AcDbLine
 10
-442.0449673957106
 20
1361.385375755482
 30
0.0
 11
-443.5963487553443
 21
1361.385375755482
 31
0.0
  0
LINE
  5
18B
330
2
100
AcDbEntity
  8
ACHSEN
 48
0.5
100
AcDbLine
 10
-451.220051923209
 20
498.6982567177298
 30
0.0
 11
-434.4124001903916
 21
498.6982567177298
 31
0.0
  0
LINE
  5
18C
330
2
100
AcDbEntity
  8
ACHSEN
 48
0.5
100
AcDbLine
 10
-439.269209826839
 20
498.6982567177298
 30
0.0
 11
-446.3632422867616
 21
498.6982567177298
 31
0.0
  0
LINE
  5
18D
330
2
100
AcDbEntity
  8
ACHSEN
 48
0.5
100
AcDbLine
 10
-451.220051923209
 20
617.0615113213299
 30
0.0
 11
-434.4124001903914
 21
617.0615113213299
 31
0.0
  0
LINE
  5
18E
330
2
100
AcDbEntity
  8
ACHSEN
 48
0.5
100
AcDbLine
 10
-442.8162260568001
 20
623.8115113213106
 30
0.0
 11
-442.8162260568001
 21
610.3115113213492
 31
0.0
  0
LINE
  5
18F
330
2
100
AcDbEntity
  8
ACHSEN
 48
0.5
100
AcDbLine
 10
-442.8206580755303
 20
140.7181012972688
 30
0.0
 11
-442.8206580755303
 21
151.4650669635194
 31
0.0
  0
DIMENSION
  5
190
330
2
100
AcDbEntity
  8
BEMASSUNG
100
AcDbDimension
280
     0
  2
*D20
 10
-470.2492639261268
 20
143.2181012972724
 30
0.0
 11
-470.2492639261268
 21
144.7181012972723
 31
0.0
 70
   160
  1
<>
 71
     5
 42
3.0
 73
     0
 74
     0
 75
     0
  3
Katalog 09
100
AcDbAlignedDimension
 13
-454.8206580755287
 23
146.2181012972724
 33
0.0
 14
-454.8206580755293
 24
143.2181012972724
 34
0.0
 50
90.0
100
AcDbRotatedDimension
1001
ACAD_DSTYLE_DIMINSPECT
1070
   396
1000
100%
1070
   395
1000

1070
   394
1070
    33
1070
   393
1070
     0
  0
DIMENSION
  5
19F
330
2
100
AcDbEntity
  8
BEMASSUNG
100
AcDbDimension
280
     0
  2
*D19
 10
-430.8206580755291
 20
120.15955590771
 30
0.0
 11
-442.8206580755287
 21
120.15955590771
 31
0.0
 70
   160
  1
{}<>
 71
     5
 42
23.99999999999977
 73
     0
 74
     0
 75
     0
  3
Katalog 09
100
AcDbAlignedDimension
 13
-454.8206580755287
 23
143.2181012972724
 33
0.0
 14
-430.8206580755291
 24
143.2181012972653
 34
0.0
 50
180.0
100
AcDbRotatedDimension
1001
ACAD_DSTYLE_DIMINSPECT
1070
   396
1000
100%
1070
   395
1000

1070
   394
1070
    33
1070
   393
1070
     0
  0
LINE
  5
1AE
330
2
100
AcDbEntity
  8
Verdeckte Kanten(MSL)
100
AcDbLine
 10
-440.3206580754761
 20
144.7181012972681
 30
0.0
 11
-438.8206580754753
 21
146.2181012972676
 31
0.0
  0
LINE
  5
1AF
330
2
100
AcDbEntity
  8
Verdeckte Kanten(MSL)
100
AcDbLine
 10
-445.3206580754761
 20
144.7181012972695
 30
0.0
 11
-446.8206580754753
 21
146.2181012972699
 31
0.0
  0
LINE
  5
1B0
330
2
100
AcDbEntity
  8
Verdeckte Kanten(MSL)
100
AcDbLine
 10
-441.0706580752163
 20
143.2181012972683
 30
0.0
 11
-441.0706580752155
 21
146.2181012972683
 31
0.0
  0
LINE
  5
1B1
330
2
100
AcDbEntity
  8
Verdeckte Kanten(MSL)
100
AcDbLine
 10
-444.5706580752164
 20
143.2181012972694
 30
0.0
 11
-444.5706580752155
 21
146.2181012972693
 31
0.0
  0
LINE
  5
1B2
330
2
100
AcDbEntity
  8
Verdeckte Kanten(MSL)
100
AcDbLine
 10
-436.8206580754747
 20
146.218101297267
 30
0.0
 11
-436.8206580754756
 21
143.218101297267
 31
0.0
  0
LINE
  5
1B3
330
2
100
AcDbEntity
  8
Verdeckte Kanten(MSL)
100
AcDbLine
 10
-435.3206580754563
 20
146.2181012972666
 30
0.0
 11
-435.3206580754571
 21
143.2181012972666
 31
0.0
  0
LINE
  5
1B4
330
2
100
AcDbEntity
  8
Verdeckte Kanten(MSL)
100
AcDbLine
 10
-450.3206580754563
 20
146.218101297271
 30
0.0
 11
-450.3206580754572
 21
143.2181012972711
 31
0.0
  0
LINE
  5
1B5
330
2
100
AcDbEntity
  8
Verdeckte Kanten(MSL)
100
AcDbLine
 10
-439.320658075495
 20
144.9681012972678
 30
0.0
 11
-438.0706580754947
 21
146.2181012972674
 31
0.0
  0
LINE
  5
1B6
330
2
100
AcDbEntity
  8
Verdeckte Kanten(MSL)
100
AcDbLine
 10
-446.3206580754948
 20
144.9681012972699
 30
0.0
 11
-447.5706580754946
 21
146.2181012972702
 31
0.0
  0
LINE
  5
1B7
330
2
100
AcDbEntity
  8
Verdeckte Kanten(MSL)
100
AcDbLine
 10
-439.3206580754951
 20
144.4681012972678
 30
0.0
 11
-439.320658075495
 21
144.9681012972679
 31
0.0
  0
LINE
  5
1B8
330
2
100
AcDbEntity
  8
Verdeckte Kanten(MSL)
100
AcDbLine
 10
-446.3206580754952
 20
144.4681012972699
 30
0.0
 11
-446.3206580754948
 21
144.96810129727
 31
0.0
  0
LINE
  5
1B9
330
2
100
AcDbEntity
  8
Verdeckte Kanten(MSL)
100
AcDbLine
 10
-439.320658075495
 20
144.9681012972678
 30
0.0
 11
-446.3206580754948
 21
144.9681012972699
 31
0.0
  0
LINE
  5
1BA
330
2
100
AcDbEntity
  8
Verdeckte Kanten(MSL)
100
AcDbLine
 10
-446.3206580754952
 20
144.4681012972699
 30
0.0
 11
-447.5706580754955
 21
143.2181012972701
 31
0.0
  0
LINE
  5
1BB
330
2
100
AcDbEntity
  8
Verdeckte Kanten(MSL)
100
AcDbLine
 10
-439.3206580754951
 20
144.4681012972678
 30
0.0
 11
-438.0706580754957
 21
143.2181012972674
 31
0.0
  0
LINE
  5
1BC
330
2
100
AcDbEntity
  8
Verdeckte Kanten(MSL)
100
AcDbLine
 10
-439.3206580754951
 20
144.4681012972678
 30
0.0
 11
-446.3206580754952
 21
144.4681012972699
 31
0.0
  0
LINE
  5
1BD
330
2
100
AcDbEntity
  8
Verdeckte Kanten(MSL)
100
AcDbLine
 10
-445.3206580754761
 20
144.7181012972696
 30
0.0
 11
-446.8206580754765
 21
143.21810129727
 31
0.0
  0
LINE
  5
1BE
330
2
100
AcDbEntity
  8
Verdeckte Kanten(MSL)
100
AcDbLine
 10
-440.3206580754761
 20
144.7181012972681
 30
0.0
 11
-438.8206580754765
 21
143.2181012972677
 31
0.0
  0
LINE
  5
1BF
330
2
100
AcDbEntity
  8
Verdeckte Kanten(MSL)
100
AcDbLine
 10
-440.3206580754761
 20
144.718101297268
 30
0.0
 11
-445.3206580754761
 21
144.7181012972695
 31
0.0
  0
LINE
  5
1C0
330
2
100
AcDbEntity
  8
UMRISS05
100
AcDbLine
 10
-430.8206580755294
 20
143.2181012972653
 30
0.0
 11
-430.8206580755288
 21
146.2181012972653
 31
0.0
  0
LINE
  5
1C1
330
2
100
AcDbEntity
  8
UMRISS05
100
AcDbLine
 10
-430.8206580755288
 20
146.2181012972653
 30
0.0
 11
-454.8206580755287
 21
146.2181012972724
 31
0.0
  0
LINE
  5
1C2
330
2
100
AcDbEntity
  8
UMRISS05
100
AcDbLine
 10
-454.8206580755294
 20
143.2181012972724
 30
0.0
 11
-454.8206580755287
 21
146.2181012972724
 31
0.0
  0
LINE
  5
1C3
330
2
100
AcDbEntity
  8
UMRISS05
100
AcDbLine
 10
-454.8206580755294
 20
143.2181012972724
 30
0.0
 11
-430.8206580755294
 21
143.2181012972724
 31
0.0
  0
DIMENSION
  5
1C4
330
2
100
AcDbEntity
  8
BEMASSUNG
100
AcDbDimension
280
     0
  2
*D3
 10
-430.8206580786903
 20
270.5631792078825
 30
0.0
 11
-442.8206580771088
 21
270.5631792078825
 31
0.0
 70
   128
  1
<>
 71
     5
 42
23.99999999683712
 73
     0
 74
     0
 75
     0
  3
Katalog 09
100
AcDbAlignedDimension
 13
-454.8206580755275
 23
295.107293695919
 33
0.0
 14
-430.8206580786903
 24
295.1070181780786
 34
0.0
100
AcDbRotatedDimension
1001
ACAD_DSTYLE_DIMINSPECT
1070
   396
1000
100%
1070
   395
1000

1070
   394
1070
    33
1070
   393
1070
     0
  0
DIMENSION
  5
1D3
330
2
100
AcDbEntity
  8
BEMASSUNG
100
AcDbDimension
280
     0
  2
*D2
 10
-491.6010193796726
 20
295.1072936959189
 30
0.0
 11
-498.6961762691676
 21
838.7411538377381
 31
0.0
  1
1950
 71
     5
 42
1087.267720283639
 73
     0
 74
     0
 75
     0
  3
Katalog 09
100
AcDbAlignedDimension
 13
-454.8206580755275
 23
1382.375013979558
 33
0.0
 14
-454.8206580755275
 24
295.1072936959189
 34
0.0
 50
90.0
100
AcDbRotatedDimension
1001
ACAD_DSTYLE_DIMINSPECT
1070
   396
1000
100%
1070
   395
1000

1070
   394
1070
    33
1070
   393
1070
     0
  0
LINE
  5
1E0
330
2
100
AcDbEntity
  8
UMRISS05
100
AcDbLine
 10
-437.4020124944276
 20
932.4682898374607
 30
0.0
 11
-431.1162260571514
 21
932.4682898374607
 31
0.0
  0
ARC
  5
1E1
330
2
100
AcDbEntity
  8
UMRISS05
100
AcDbCircle
 10
-437.4020124944275
 20
931.4682898374616
 30
0.0
 40
0.9999999999990434
100
AcDbArc
 50
90.00000000001303
 51
135.0000000000096
  0
LINE
  5
1E2
330
2
100
AcDbEntity
  8
UMRISS05
100
AcDbLine
 10
-439.5233328379868
 20
930.7611830562739
 30
0.0
 11
-438.1091192756135
 21
932.1753966186475
 31
0.0
  0
ARC
  5
1E3
330
2
100
AcDbEntity
  8
UMRISS05
100
AcDbCircle
 10
-440.230439619173
 20
931.4682898374606
 30
0.0
 40
0.9999999999997726
100
AcDbArc
 50
269.999999999987
 51
315.0000000000004
  0
LINE
  5
1E4
330
2
100
AcDbEntity
  8
UMRISS05
100
AcDbLine
 10
-449.4162260568002
 20
930.4682898374608
 30
0.0
 11
-440.230439619173
 21
930.4682898374608
 31
0.0
  0
ARC
  5
1E5
330
2
100
AcDbEntity
  8
UMRISS05
100
AcDbCircle
 10
-449.4162260568002
 20
929.9682898374609
 30
0.0
 40
0.5
100
AcDbArc
 50
90.0
 51
180.0
  0
LINE
  5
1E6
330
2
100
AcDbEntity
  8
UMRISS05
100
AcDbLine
 10
-449.9162260568005
 20
920.2707961189075
 30
0.0
 11
-449.9162260568005
 21
929.9682898374609
 31
0.0
  0
ARC
  5
1E7
330
2
100
AcDbEntity
  8
UMRISS05
100
AcDbCircle
 10
-449.6162260567998
 20
920.2707961189078
 30
0.0
 40
0.3000000000006366
100
AcDbArc
 50
180.0000000000911
 51
270.0000000000912
  0
LINE
  5
1E8
330
2
100
AcDbEntity
  8
UMRISS05
100
AcDbLine
 10
-449.1162260568001
 20
919.9707961189076
 30
0.0
 11
-449.6162260567992
 21
919.9707961189076
 31
0.0
  0
ARC
  5
1E9
330
2
100
AcDbEntity
  8
UMRISS05
100
AcDbCircle
 10
-449.1162260568001
 20
919.6707961189073
 30
0.0
 40
0.3000000000001819
100
AcDbArc
 50
0.0
 51
90.0
  0
LINE
  5
1EA
330
2
100
AcDbEntity
  8
UMRISS05
100
AcDbLine
 10
-448.8162260568001
 20
897.2657835560143
 30
0.0
 11
-448.8162260568001
 21
919.6707961189073
 31
0.0
  0
ARC
  5
1EB
330
2
100
AcDbEntity
  8
UMRISS05
100
AcDbCircle
 10
-449.1162260568001
 20
897.2657835560143
 30
0.0
 40
0.3000000000001819
100
AcDbArc
 50
270.0
 51
0.0
  0
LINE
  5
1EC
330
2
100
AcDbEntity
  8
UMRISS05
100
AcDbLine
 10
-449.6162260567992
 20
896.9657835560141
 30
0.0
 11
-449.1162260568001
 21
896.9657835560141
 31
0.0
  0
ARC
  5
1ED
330
2
100
AcDbEntity
  8
UMRISS05
100
AcDbCircle
 10
-449.6162260567998
 20
896.6657835560136
 30
0.0
 40
0.3000000000006366
100
AcDbArc
 50
89.99999999990881
 51
179.9999999999088
  0
LINE
  5
1EE
330
2
100
AcDbEntity
  8
UMRISS05
100
AcDbLine
 10
-449.9162260568012
 20
886.9682898374607
 30
0.0
 11
-449.9162260568005
 21
896.6657835560139
 31
0.0
  0
ARC
  5
1EF
330
2
100
AcDbEntity
  8
UMRISS05
100
AcDbCircle
 10
-449.4162260568012
 20
886.9682898374607
 30
0.0
 40
0.5
100
AcDbArc
 50
180.0
 51
270.0
  0
LINE
  5
1F0
330
2
100
AcDbEntity
  8
UMRISS05
100
AcDbLine
 10
-440.2304396191743
 20
886.4682898374608
 30
0.0
 11
-449.4162260568012
 21
886.4682898374608
 31
0.0
  0
ARC
  5
1F1
330
2
100
AcDbEntity
  8
UMRISS05
100
AcDbCircle
 10
-440.2304396191738
 20
885.4682898374605
 30
0.0
 40
1.000000000000165
100
AcDbArc
 50
45.00000000001795
 51
90.00000000001303
  0
LINE
  5
1F2
330
2
100
AcDbEntity
  8
UMRISS05
100
AcDbLine
 10
-438.1091192756144
 20
884.7611830562739
 30
0.0
 11
-439.5233328379876
 21
886.1753966186475
 31
0.0
  0
ARC
  5
1F3
330
2
100
AcDbEntity
  8
UMRISS05
100
AcDbCircle
 10
-437.4020124944278
 20
885.4682898374608
 30
0.0
 40
1.0
100
AcDbArc
 50
225.0000000000088
 51
270.000000000013
  0
LINE
  5
1F4
330
2
100
AcDbEntity
  8
UMRISS05
100
AcDbLine
 10
-431.1162260568051
 20
884.4682898374609
 30
0.0
 11
-437.4020124944276
 21
884.4682898374609
 31
0.0
  0
POLYLINE
  5
1F5
330
2
100
AcDbEntity
  8
ACHSEN
100
AcDb2dPolyline
 66
     1
 10
0.0
 20
0.0
 30
0.0
  0
VERTEX
  5
1F6
330
1F5
100
AcDbEntity
  8
ACHSEN
100
AcDbVertex
100
AcDb2dVertex
 10
-454.8206580755275
 20
1208.677502825886
 30
0.0
 91
       62
  0
VERTEX
  5
1F7
330
1F5
100
AcDbEntity
  8
ACHSEN
100
AcDbVertex
100
AcDb2dVertex
 10
-451.0188401703397
 20
1207.428173650097
 30
0.0
 91
       63
  0
VERTEX
  5
1F8
330
1F5
100
AcDbEntity
  8
ACHSEN
100
AcDbVertex
100
AcDb2dVertex
 10
-449.4526537579164
 20
1206.785530082011
 30
0.0
  0
VERTEX
  5
1F9
330
1F5
100
AcDbEntity
  8
ACHSEN
100
AcDbVertex
100
AcDb2dVertex
 10
-448.1049067588503
 20
1206.409234334309
 30
0.0
  0
VERTEX
  5
1FA
330
1F5
100
AcDbEntity
  8
ACHSEN
100
AcDbVertex
100
AcDb2dVertex
 10
-446.9481221872448
 20
1206.242123575777
 30
0.0
  0
VERTEX
  5
1FB
330
1F5
100
AcDbEntity
  8
ACHSEN
100
AcDbVertex
100
AcDb2dVertex
 10
-445.9548230572018
 20
1206.2270349752
 30
0.0
  0
VERTEX
  5
1FC
330
1F5
100
AcDbEntity
  8
ACHSEN
100
AcDbVertex
100
AcDb2dVertex
 10
-445.097532382825
 20
1206.306805701361
 30
0.0
  0
VERTEX
  5
1FD
330
1F5
100
AcDbEntity
  8
ACHSEN
100
AcDbVertex
100
AcDb2dVertex
 10
-444.3487731782163
 20
1206.424272923046
 30
0.0
  0
VERTEX
  5
1FE
330
1F5
100
AcDbEntity
  8
ACHSEN
100
AcDbVertex
100
AcDb2dVertex
 10
-443.6810684574793
 20
1206.52227380904
 30
0.0
  0
VERTEX
  5
1FF
330
1F5
100
AcDbEntity
  8
ACHSEN
100
AcDbVertex
100
AcDb2dVertex
 10
-443.0707479810696
 20
1206.55569607337
 30
0.0
  0
VERTEX
  5
200
330
1F5
100
AcDbEntity
  8
ACHSEN
100
AcDbVertex
100
AcDb2dVertex
 10
-442.5093684948548
 20
1206.527629611028
 30
0.0
  0
VERTEX
  5
201
330
1F5
100
AcDbEntity
  8
ACHSEN
100
AcDbVertex
100
AcDb2dVertex
 10
-441.9922934910557
 20
1206.453214862251
 30
0.0
  0
VERTEX
  5
202
330
1F5
100
AcDbEntity
  8
ACHSEN
100
AcDbVertex
100
AcDb2dVertex
 10
-441.5148864618924
 20
1206.347592267275
 30
0.0
  0
VERTEX
  5
203
330
1F5
100
AcDbEntity
  8
ACHSEN
100
AcDbVertex
100
AcDb2dVertex
 10
-441.0725108995855
 20
1206.225902266334
 30
0.0
  0
VERTEX
  5
204
330
1F5
100
AcDbEntity
  8
ACHSEN
100
AcDbVertex
100
AcDb2dVertex
 10
-440.6605302963551
 20
1206.103285299665
 30
0.0
  0
VERTEX
  5
205
330
1F5
100
AcDbEntity
  8
ACHSEN
100
AcDbVertex
100
AcDb2dVertex
 10
-440.2743081444225
 20
1205.994881807502
 30
0.0
  0
VERTEX
  5
206
330
1F5
100
AcDbEntity
  8
ACHSEN
100
AcDbVertex
100
AcDb2dVertex
 10
-439.9092079360082
 20
1205.915832230082
 30
0.0
  0
VERTEX
  5
207
330
1F5
100
AcDbEntity
  8
ACHSEN
100
AcDbVertex
100
AcDb2dVertex
 10
-439.559052887537
 20
1205.876796679994
 30
0.0
  0
VERTEX
  5
208
330
1F5
100
AcDbEntity
  8
ACHSEN
100
AcDbVertex
100
AcDb2dVertex
 10
-439.2115051122558
 20
1205.870513959243
 30
0.0
  0
VERTEX
  5
209
330
1F5
100
AcDbEntity
  8
ACHSEN
100
AcDbVertex
100
AcDb2dVertex
 10
-438.8526864476168
 20
1205.885242542191
 30
0.0
  0
VERTEX
  5
20A
330
1F5
100
AcDbEntity
  8
ACHSEN
100
AcDbVertex
100
AcDb2dVertex
 10
-438.4687187310698
 20
1205.909240903197
 30
0.0
  0
VERTEX
  5
20B
330
1F5
100
AcDbEntity
  8
ACHSEN
100
AcDbVertex
100
AcDb2dVertex
 10
-438.0457238000674
 20
1205.93076751662
 30
0.0
  0
VERTEX
  5
20C
330
1F5
100
AcDbEntity
  8
ACHSEN
100
AcDbVertex
100
AcDb2dVertex
 10
-437.5698234920608
 20
1205.938080856822
 30
0.0
  0
VERTEX
  5
20D
330
1F5
100
AcDbEntity
  8
ACHSEN
100
AcDbVertex
100
AcDb2dVertex
 10
-437.0271396445011
 20
1205.919439398161
 30
0.0
  0
VERTEX
  5
20E
330
1F5
100
AcDbEntity
  8
ACHSEN
100
AcDbVertex
100
AcDb2dVertex
 10
-436.4037940948403
 20
1205.863101614998
 30
0.0
  0
VERTEX
  5
20F
330
1F5
100
AcDbEntity
  8
ACHSEN
100
AcDbVertex
100
AcDb2dVertex
 10
-435.6956371072731
 20
1205.761753599718
 30
0.0
  0
VERTEX
  5
210
330
1F5
100
AcDbEntity
  8
ACHSEN
100
AcDbVertex
100
AcDb2dVertex
 10
-434.9374326529721
 20
1205.625791916803
 30
0.0
  0
VERTEX
  5
211
330
1F5
100
AcDbEntity
  8
ACHSEN
100
AcDbVertex
100
AcDb2dVertex
 10
-434.1736731298522
 20
1205.470040748761
 30
0.0
  0
VERTEX
  5
212
330
1F5
100
AcDbEntity
  8
ACHSEN
100
AcDbVertex
100
AcDb2dVertex
 10
-433.4488509358293
 20
1205.309324278099
 30
0.0
 91
       64
  0
VERTEX
  5
213
330
1F5
100
AcDbEntity
  8
ACHSEN
100
AcDbVertex
100
AcDb2dVertex
 10
-430.8176342269491
 20
1204.606343315651
 30
0.0
 91
       64
  0
SEQEND
  5
214
330
1F5
100
AcDbEntity
  8
ACHSEN
  0
POLYLINE
  5
215
330
2
100
AcDbEntity
  8
ACHSEN
100
AcDb2dPolyline
 66
     1
 10
0.0
 20
0.0
 30
0.0
  0
VERTEX
  5
216
330
215
100
AcDbEntity
  8
ACHSEN
100
AcDbVertex
100
AcDb2dVertex
 10
-454.8288462720801
 20
1211.781281840188
 30
0.0
 91
       64
  0
VERTEX
  5
217
330
215
100
AcDbEntity
  8
ACHSEN
100
AcDbVertex
100
AcDb2dVertex
 10
-451.0258768363264
 20
1210.654150140237
 30
0.0
 91
       65
  0
VERTEX
  5
218
330
215
100
AcDbEntity
  8
ACHSEN
100
AcDbVertex
100
AcDb2dVertex
 10
-449.4526537579164
 20
1210.01147318196
 30
0.0
  0
VERTEX
  5
219
330
215
100
AcDbEntity
  8
ACHSEN
100
AcDbVertex
100
AcDb2dVertex
 10
-448.1049067588503
 20
1209.635177434259
 30
0.0
  0
VERTEX
  5
21A
330
215
100
AcDbEntity
  8
ACHSEN
100
AcDbVertex
100
AcDb2dVertex
 10
-446.9481221872448
 20
1209.468066675727
 30
0.0
  0
VERTEX
  5
21B
330
215
100
AcDbEntity
  8
ACHSEN
100
AcDbVertex
100
AcDb2dVertex
 10
-445.9548230572018
 20
1209.452978075149
 30
0.0
  0
VERTEX
  5
21C
330
215
100
AcDbEntity
  8
ACHSEN
100
AcDbVertex
100
AcDb2dVertex
 10
-445.097532382825
 20
1209.53274880131
 30
0.0
  0
VERTEX
  5
21D
330
215
100
AcDbEntity
  8
ACHSEN
100
AcDbVertex
100
AcDb2dVertex
 10
-444.3487731782163
 20
1209.650216022996
 30
0.0
  0
VERTEX
  5
21E
330
215
100
AcDbEntity
  8
ACHSEN
100
AcDbVertex
100
AcDb2dVertex
 10
-443.6810684574793
 20
1209.748216908989
 30
0.0
  0
VERTEX
  5
21F
330
215
100
AcDbEntity
  8
ACHSEN
100
AcDbVertex
100
AcDb2dVertex
 10
-443.0707479810696
 20
1209.781639173319
 30
0.0
  0
VERTEX
  5
220
330
215
100
AcDbEntity
  8
ACHSEN
100
AcDbVertex
100
AcDb2dVertex
 10
-442.5093684948548
 20
1209.753572710977
 30
0.0
  0
VERTEX
  5
221
330
215
100
AcDbEntity
  8
ACHSEN
100
AcDbVertex
100
AcDb2dVertex
 10
-441.9922934910557
 20
1209.679157962201
 30
0.0
  0
VERTEX
  5
222
330
215
100
AcDbEntity
  8
ACHSEN
100
AcDbVertex
100
AcDb2dVertex
 10
-441.5148864618924
 20
1209.573535367224
 30
0.0
  0
VERTEX
  5
223
330
215
100
AcDbEntity
  8
ACHSEN
100
AcDbVertex
100
AcDb2dVertex
 10
-441.0725108995855
 20
1209.451845366283
 30
0.0
  0
VERTEX
  5
224
330
215
100
AcDbEntity
  8
ACHSEN
100
AcDbVertex
100
AcDb2dVertex
 10
-440.6605302963551
 20
1209.329228399614
 30
0.0
  0
VERTEX
  5
225
330
215
100
AcDbEntity
  8
ACHSEN
100
AcDbVertex
100
AcDb2dVertex
 10
-440.2743081444225
 20
1209.220824907451
 30
0.0
  0
VERTEX
  5
226
330
215
100
AcDbEntity
  8
ACHSEN
100
AcDbVertex
100
AcDb2dVertex
 10
-439.9092079360082
 20
1209.141775330031
 30
0.0
  0
VERTEX
  5
227
330
215
100
AcDbEntity
  8
ACHSEN
100
AcDbVertex
100
AcDb2dVertex
 10
-439.559052887537
 20
1209.102739779943
 30
0.0
  0
VERTEX
  5
228
330
215
100
AcDbEntity
  8
ACHSEN
100
AcDbVertex
100
AcDb2dVertex
 10
-439.2115051122558
 20
1209.096457059193
 30
0.0
  0
VERTEX
  5
229
330
215
100
AcDbEntity
  8
ACHSEN
100
AcDbVertex
100
AcDb2dVertex
 10
-438.8526864476168
 20
1209.11118564214
 30
0.0
  0
VERTEX
  5
22A
330
215
100
AcDbEntity
  8
ACHSEN
100
AcDbVertex
100
AcDb2dVertex
 10
-438.4687187310698
 20
1209.135184003146
 30
0.0
  0
VERTEX
  5
22B
330
215
100
AcDbEntity
  8
ACHSEN
100
AcDbVertex
100
AcDb2dVertex
 10
-438.0457238000674
 20
1209.156710616569
 30
0.0
  0
VERTEX
  5
22C
330
215
100
AcDbEntity
  8
ACHSEN
100
AcDbVertex
100
AcDb2dVertex
 10
-437.5698234920608
 20
1209.164023956771
 30
0.0
  0
VERTEX
  5
22D
330
215
100
AcDbEntity
  8
ACHSEN
100
AcDbVertex
100
AcDb2dVertex
 10
-437.0271396445011
 20
1209.14538249811
 30
0.0
  0
VERTEX
  5
22E
330
215
100
AcDbEntity
  8
ACHSEN
100
AcDbVertex
100
AcDb2dVertex
 10
-436.4037940948403
 20
1209.089044714948
 30
0.0
  0
VERTEX
  5
22F
330
215
100
AcDbEntity
  8
ACHSEN
100
AcDbVertex
100
AcDb2dVertex
 10
-435.6956371072731
 20
1208.987696699667
 30
0.0
  0
VERTEX
  5
230
330
215
100
AcDbEntity
  8
ACHSEN
100
AcDbVertex
100
AcDb2dVertex
 10
-434.9374326529721
 20
1208.851735016753
 30
0.0
  0
VERTEX
  5
231
330
215
100
AcDbEntity
  8
ACHSEN
100
AcDbVertex
100
AcDb2dVertex
 10
-434.1736731298522
 20
1208.69598384871
 30
0.0
  0
VERTEX
  5
232
330
215
100
AcDbEntity
  8
ACHSEN
100
AcDbVertex
100
AcDb2dVertex
 10
-433.4488509358293
 20
1208.535267378048
 30
0.0
  0
VERTEX
  5
233
330
215
100
AcDbEntity
  8
ACHSEN
100
AcDbVertex
100
AcDb2dVertex
 10
-430.8175962279371
 20
1207.91638772734
 30
0.0
  0
SEQEND
  5
234
330
215
100
AcDbEntity
  8
ACHSEN
  0
POLYLINE
  5
235
330
2
100
AcDbEntity
  8
ACHSEN
100
AcDb2dPolyline
 66
     1
 10
0.0
 20
0.0
 30
0.0
  0
VERTEX
  5
236
330
235
100
AcDbEntity
  8
ACHSEN
100
AcDbVertex
100
AcDb2dVertex
 10
-454.8288462720801
 20
1345.009908443946
 30
0.0
 91
       62
  0
VERTEX
  5
237
330
235
100
AcDbEntity
  8
ACHSEN
100
AcDbVertex
100
AcDb2dVertex
 10
-451.0188401703397
 20
1343.801224603366
 30
0.0
 91
       63
  0
VERTEX
  5
238
330
235
100
AcDbEntity
  8
ACHSEN
100
AcDbVertex
100
AcDb2dVertex
 10
-449.4526537579168
 20
1343.15858103528
 30
0.0
  0
VERTEX
  5
239
330
235
100
AcDbEntity
  8
ACHSEN
100
AcDbVertex
100
AcDb2dVertex
 10
-448.1049067588505
 20
1342.782285287579
 30
0.0
  0
VERTEX
  5
23A
330
235
100
AcDbEntity
  8
ACHSEN
100
AcDbVertex
100
AcDb2dVertex
 10
-446.9481221872452
 20
1342.615174529047
 30
0.0
  0
VERTEX
  5
23B
330
235
100
AcDbEntity
  8
ACHSEN
100
AcDbVertex
100
AcDb2dVertex
 10
-445.9548230572022
 20
1342.600085928469
 30
0.0
  0
VERTEX
  5
23C
330
235
100
AcDbEntity
  8
ACHSEN
100
AcDbVertex
100
AcDb2dVertex
 10
-445.0975323828251
 20
1342.67985665463
 30
0.0
  0
VERTEX
  5
23D
330
235
100
AcDbEntity
  8
ACHSEN
100
AcDbVertex
100
AcDb2dVertex
 10
-444.3487731782163
 20
1342.797323876316
 30
0.0
  0
VERTEX
  5
23E
330
235
100
AcDbEntity
  8
ACHSEN
100
AcDbVertex
100
AcDb2dVertex
 10
-443.6810684574798
 20
1342.895324762309
 30
0.0
  0
VERTEX
  5
23F
330
235
100
AcDbEntity
  8
ACHSEN
100
AcDbVertex
100
AcDb2dVertex
 10
-443.0707479810698
 20
1342.928747026639
 30
0.0
  0
VERTEX
  5
240
330
235
100
AcDbEntity
  8
ACHSEN
100
AcDbVertex
100
AcDb2dVertex
 10
-442.5093684948548
 20
1342.900680564297
 30
0.0
  0
VERTEX
  5
241
330
235
100
AcDbEntity
  8
ACHSEN
100
AcDbVertex
100
AcDb2dVertex
 10
-441.992293491056
 20
1342.826265815521
 30
0.0
  0
VERTEX
  5
242
330
235
100
AcDbEntity
  8
ACHSEN
100
AcDbVertex
100
AcDb2dVertex
 10
-441.5148864618926
 20
1342.720643220544
 30
0.0
  0
VERTEX
  5
243
330
235
100
AcDbEntity
  8
ACHSEN
100
AcDbVertex
100
AcDb2dVertex
 10
-441.0725108995857
 20
1342.598953219603
 30
0.0
  0
VERTEX
  5
244
330
235
100
AcDbEntity
  8
ACHSEN
100
AcDbVertex
100
AcDb2dVertex
 10
-440.6605302963551
 20
1342.476336252934
 30
0.0
  0
VERTEX
  5
245
330
235
100
AcDbEntity
  8
ACHSEN
100
AcDbVertex
100
AcDb2dVertex
 10
-440.2743081444226
 20
1342.367932760771
 30
0.0
  0
VERTEX
  5
246
330
235
100
AcDbEntity
  8
ACHSEN
100
AcDbVertex
100
AcDb2dVertex
 10
-439.9092079360084
 20
1342.288883183351
 30
0.0
  0
VERTEX
  5
247
330
235
100
AcDbEntity
  8
ACHSEN
100
AcDbVertex
100
AcDb2dVertex
 10
-439.5590528875373
 20
1342.249847633263
 30
0.0
  0
VERTEX
  5
248
330
235
100
AcDbEntity
  8
ACHSEN
100
AcDbVertex
100
AcDb2dVertex
 10
-439.2115051122564
 20
1342.243564912513
 30
0.0
  0
VERTEX
  5
249
330
235
100
AcDbEntity
  8
ACHSEN
100
AcDbVertex
100
AcDb2dVertex
 10
-438.8526864476171
 20
1342.25829349546
 30
0.0
  0
VERTEX
  5
24A
330
235
100
AcDbEntity
  8
ACHSEN
100
AcDbVertex
100
AcDb2dVertex
 10
-438.4687187310701
 20
1342.282291856466
 30
0.0
  0
VERTEX
  5
24B
330
235
100
AcDbEntity
  8
ACHSEN
100
AcDbVertex
100
AcDb2dVertex
 10
-438.0457238000674
 20
1342.303818469889
 30
0.0
  0
VERTEX
  5
24C
330
235
100
AcDbEntity
  8
ACHSEN
100
AcDbVertex
100
AcDb2dVertex
 10
-437.5698234920608
 20
1342.311131810091
 30
0.0
  0
VERTEX
  5
24D
330
235
100
AcDbEntity
  8
ACHSEN
100
AcDbVertex
100
AcDb2dVertex
 10
-437.0271396445013
 20
1342.29249035143
 30
0.0
  0
VERTEX
  5
24E
330
235
100
AcDbEntity
  8
ACHSEN
100
AcDbVertex
100
AcDb2dVertex
 10
-436.4037940948406
 20
1342.236152568268
 30
0.0
  0
VERTEX
  5
24F
330
235
100
AcDbEntity
  8
ACHSEN
100
AcDbVertex
100
AcDb2dVertex
 10
-435.6956371072733
 20
1342.134804552987
 30
0.0
  0
VERTEX
  5
250
330
235
100
AcDbEntity
  8
ACHSEN
100
AcDbVertex
100
AcDb2dVertex
 10
-434.9374326529723
 20
1341.998842870073
 30
0.0
  0
VERTEX
  5
251
330
235
100
AcDbEntity
  8
ACHSEN
100
AcDbVertex
100
AcDb2dVertex
 10
-434.1736731298523
 20
1341.84309170203
 30
0.0
  0
VERTEX
  5
252
330
235
100
AcDbEntity
  8
ACHSEN
100
AcDbVertex
100
AcDb2dVertex
 10
-433.4488509358298
 20
1341.682375231368
 30
0.0
 91
       60
  0
VERTEX
  5
253
330
235
100
AcDbEntity
  8
ACHSEN
100
AcDbVertex
100
AcDb2dVertex
 10
-430.8176342269494
 20
1340.97939426892
 30
0.0
 91
       61
  0
SEQEND
  5
254
330
235
100
AcDbEntity
  8
ACHSEN
  0
POLYLINE
  5
255
330
2
100
AcDbEntity
  8
ACHSEN
100
AcDb2dPolyline
 66
     1
 10
0.0
 20
0.0
 30
0.0
  0
VERTEX
  5
256
330
255
100
AcDbEntity
  8
ACHSEN
100
AcDbVertex
100
AcDb2dVertex
 10
-454.8206580755275
 20
1348.226911506463
 30
0.0
 91
       64
  0
VERTEX
  5
257
330
255
100
AcDbEntity
  8
ACHSEN
100
AcDbVertex
100
AcDb2dVertex
 10
-451.0188401703401
 20
1347.027167703316
 30
0.0
 91
       65
  0
VERTEX
  5
258
330
255
100
AcDbEntity
  8
ACHSEN
100
AcDbVertex
100
AcDb2dVertex
 10
-449.4526537579168
 20
1346.38452413523
 30
0.0
  0
VERTEX
  5
259
330
255
100
AcDbEntity
  8
ACHSEN
100
AcDbVertex
100
AcDb2dVertex
 10
-448.1049067588505
 20
1346.008228387528
 30
0.0
  0
VERTEX
  5
25A
330
255
100
AcDbEntity
  8
ACHSEN
100
AcDbVertex
100
AcDb2dVertex
 10
-446.9481221872452
 20
1345.841117628996
 30
0.0
  0
VERTEX
  5
25B
330
255
100
AcDbEntity
  8
ACHSEN
100
AcDbVertex
100
AcDb2dVertex
 10
-445.9548230572022
 20
1345.826029028418
 30
0.0
  0
VERTEX
  5
25C
330
255
100
AcDbEntity
  8
ACHSEN
100
AcDbVertex
100
AcDb2dVertex
 10
-445.0975323828251
 20
1345.90579975458
 30
0.0
  0
VERTEX
  5
25D
330
255
100
AcDbEntity
  8
ACHSEN
100
AcDbVertex
100
AcDb2dVertex
 10
-444.3487731782163
 20
1346.023266976265
 30
0.0
  0
VERTEX
  5
25E
330
255
100
AcDbEntity
  8
ACHSEN
100
AcDbVertex
100
AcDb2dVertex
 10
-443.6810684574798
 20
1346.121267862258
 30
0.0
  0
VERTEX
  5
25F
330
255
100
AcDbEntity
  8
ACHSEN
100
AcDbVertex
100
AcDb2dVertex
 10
-443.0707479810698
 20
1346.154690126588
 30
0.0
  0
VERTEX
  5
260
330
255
100
AcDbEntity
  8
ACHSEN
100
AcDbVertex
100
AcDb2dVertex
 10
-442.5093684948548
 20
1346.126623664247
 30
0.0
  0
VERTEX
  5
261
330
255
100
AcDbEntity
  8
ACHSEN
100
AcDbVertex
100
AcDb2dVertex
 10
-441.992293491056
 20
1346.05220891547
 30
0.0
  0
VERTEX
  5
262
330
255
100
AcDbEntity
  8
ACHSEN
100
AcDbVertex
100
AcDb2dVertex
 10
-441.5148864618926
 20
1345.946586320494
 30
0.0
  0
VERTEX
  5
263
330
255
100
AcDbEntity
  8
ACHSEN
100
AcDbVertex
100
AcDb2dVertex
 10
-441.0725108995857
 20
1345.824896319553
 30
0.0
  0
VERTEX
  5
264
330
255
100
AcDbEntity
  8
ACHSEN
100
AcDbVertex
100
AcDb2dVertex
 10
-440.6605302963551
 20
1345.702279352883
 30
0.0
  0
VERTEX
  5
265
330
255
100
AcDbEntity
  8
ACHSEN
100
AcDbVertex
100
AcDb2dVertex
 10
-440.2743081444226
 20
1345.593875860721
 30
0.0
  0
VERTEX
  5
266
330
255
100
AcDbEntity
  8
ACHSEN
100
AcDbVertex
100
AcDb2dVertex
 10
-439.9092079360084
 20
1345.5148262833
 30
0.0
  0
VERTEX
  5
267
330
255
100
AcDbEntity
  8
ACHSEN
100
AcDbVertex
100
AcDb2dVertex
 10
-439.5590528875373
 20
1345.475790733212
 30
0.0
  0
VERTEX
  5
268
330
255
100
AcDbEntity
  8
ACHSEN
100
AcDbVertex
100
AcDb2dVertex
 10
-439.2115051122564
 20
1345.469508012462
 30
0.0
  0
VERTEX
  5
269
330
255
100
AcDbEntity
  8
ACHSEN
100
AcDbVertex
100
AcDb2dVertex
 10
-438.8526864476171
 20
1345.48423659541
 30
0.0
  0
VERTEX
  5
26A
330
255
100
AcDbEntity
  8
ACHSEN
100
AcDbVertex
100
AcDb2dVertex
 10
-438.4687187310701
 20
1345.508234956415
 30
0.0
  0
VERTEX
  5
26B
330
255
100
AcDbEntity
  8
ACHSEN
100
AcDbVertex
100
AcDb2dVertex
 10
-438.0457238000674
 20
1345.529761569838
 30
0.0
  0
VERTEX
  5
26C
330
255
100
AcDbEntity
  8
ACHSEN
100
AcDbVertex
100
AcDb2dVertex
 10
-437.5698234920608
 20
1345.53707491004
 30
0.0
  0
VERTEX
  5
26D
330
255
100
AcDbEntity
  8
ACHSEN
100
AcDbVertex
100
AcDb2dVertex
 10
-437.0271396445013
 20
1345.51843345138
 30
0.0
  0
VERTEX
  5
26E
330
255
100
AcDbEntity
  8
ACHSEN
100
AcDbVertex
100
AcDb2dVertex
 10
-436.4037940948406
 20
1345.462095668217
 30
0.0
  0
VERTEX
  5
26F
330
255
100
AcDbEntity
  8
ACHSEN
100
AcDbVertex
100
AcDb2dVertex
 10
-435.6956371072733
 20
1345.360747652937
 30
0.0
  0
VERTEX
  5
270
330
255
100
AcDbEntity
  8
ACHSEN
100
AcDbVertex
100
AcDb2dVertex
 10
-434.9374326529723
 20
1345.224785970022
 30
0.0
  0
VERTEX
  5
271
330
255
100
AcDbEntity
  8
ACHSEN
100
AcDbVertex
100
AcDb2dVertex
 10
-434.1736731298523
 20
1345.06903480198
 30
0.0
  0
VERTEX
  5
272
330
255
100
AcDbEntity
  8
ACHSEN
100
AcDbVertex
100
AcDb2dVertex
 10
-433.4488509358298
 20
1344.908318331317
 30
0.0
  0
VERTEX
  5
273
330
255
100
AcDbEntity
  8
ACHSEN
100
AcDbVertex
100
AcDb2dVertex
 10
-430.8175962279371
 20
1344.28943868061
 30
0.0
  0
SEQEND
  5
274
330
255
100
AcDbEntity
  8
ACHSEN
  0
POLYLINE
  5
275
330
2
100
AcDbEntity
  8
ACHSEN
100
AcDb2dPolyline
 66
     1
 10
0.0
 20
0.0
 30
0.0
  0
VERTEX
  5
276
330
275
100
AcDbEntity
  8
ACHSEN
100
AcDbVertex
100
AcDb2dVertex
 10
-454.8205930597283
 20
1147.002033438448
 30
0.0
 91
       62
  0
VERTEX
  5
277
330
275
100
AcDbEntity
  8
ACHSEN
100
AcDbVertex
100
AcDb2dVertex
 10
-451.0188401703397
 20
1145.746309510576
 30
0.0
 91
       63
  0
VERTEX
  5
278
330
275
100
AcDbEntity
  8
ACHSEN
100
AcDbVertex
100
AcDb2dVertex
 10
-449.4526537579164
 20
1145.10366594249
 30
0.0
  0
VERTEX
  5
279
330
275
100
AcDbEntity
  8
ACHSEN
100
AcDbVertex
100
AcDb2dVertex
 10
-448.1049067588503
 20
1144.727370194789
 30
0.0
  0
VERTEX
  5
27A
330
275
100
AcDbEntity
  8
ACHSEN
100
AcDbVertex
100
AcDb2dVertex
 10
-446.9481221872448
 20
1144.560259436256
 30
0.0
  0
VERTEX
  5
27B
330
275
100
AcDbEntity
  8
ACHSEN
100
AcDbVertex
100
AcDb2dVertex
 10
-445.9548230572018
 20
1144.545170835679
 30
0.0
  0
VERTEX
  5
27C
330
275
100
AcDbEntity
  8
ACHSEN
100
AcDbVertex
100
AcDb2dVertex
 10
-445.097532382825
 20
1144.62494156184
 30
0.0
  0
VERTEX
  5
27D
330
275
100
AcDbEntity
  8
ACHSEN
100
AcDbVertex
100
AcDb2dVertex
 10
-444.3487731782163
 20
1144.742408783526
 30
0.0
  0
VERTEX
  5
27E
330
275
100
AcDbEntity
  8
ACHSEN
100
AcDbVertex
100
AcDb2dVertex
 10
-443.6810684574793
 20
1144.840409669519
 30
0.0
  0
VERTEX
  5
27F
330
275
100
AcDbEntity
  8
ACHSEN
100
AcDbVertex
100
AcDb2dVertex
 10
-443.0707479810696
 20
1144.873831933849
 30
0.0
  0
VERTEX
  5
280
330
275
100
AcDbEntity
  8
ACHSEN
100
AcDbVertex
100
AcDb2dVertex
 10
-442.5093684948548
 20
1144.845765471507
 30
0.0
  0
VERTEX
  5
281
330
275
100
AcDbEntity
  8
ACHSEN
100
AcDbVertex
100
AcDb2dVertex
 10
-441.9922934910557
 20
1144.771350722731
 30
0.0
  0
VERTEX
  5
282
330
275
100
AcDbEntity
  8
ACHSEN
100
AcDbVertex
100
AcDb2dVertex
 10
-441.5148864618924
 20
1144.665728127754
 30
0.0
  0
VERTEX
  5
283
330
275
100
AcDbEntity
  8
ACHSEN
100
AcDbVertex
100
AcDb2dVertex
 10
-441.0725108995855
 20
1144.544038126813
 30
0.0
  0
VERTEX
  5
284
330
275
100
AcDbEntity
  8
ACHSEN
100
AcDbVertex
100
AcDb2dVertex
 10
-440.6605302963551
 20
1144.421421160144
 30
0.0
  0
VERTEX
  5
285
330
275
100
AcDbEntity
  8
ACHSEN
100
AcDbVertex
100
AcDb2dVertex
 10
-440.2743081444225
 20
1144.313017667981
 30
0.0
  0
VERTEX
  5
286
330
275
100
AcDbEntity
  8
ACHSEN
100
AcDbVertex
100
AcDb2dVertex
 10
-439.9092079360082
 20
1144.233968090561
 30
0.0
  0
VERTEX
  5
287
330
275
100
AcDbEntity
  8
ACHSEN
100
AcDbVertex
100
AcDb2dVertex
 10
-439.559052887537
 20
1144.194932540473
 30
0.0
  0
VERTEX
  5
288
330
275
100
AcDbEntity
  8
ACHSEN
100
AcDbVertex
100
AcDb2dVertex
 10
-439.2115051122558
 20
1144.188649819723
 30
0.0
  0
VERTEX
  5
289
330
275
100
AcDbEntity
  8
ACHSEN
100
AcDbVertex
100
AcDb2dVertex
 10
-438.8526864476168
 20
1144.20337840267
 30
0.0
  0
VERTEX
  5
28A
330
275
100
AcDbEntity
  8
ACHSEN
100
AcDbVertex
100
AcDb2dVertex
 10
-438.4687187310698
 20
1144.227376763676
 30
0.0
  0
VERTEX
  5
28B
330
275
100
AcDbEntity
  8
ACHSEN
100
AcDbVertex
100
AcDb2dVertex
 10
-438.0457238000674
 20
1144.248903377099
 30
0.0
  0
VERTEX
  5
28C
330
275
100
AcDbEntity
  8
ACHSEN
100
AcDbVertex
100
AcDb2dVertex
 10
-437.5698234920608
 20
1144.256216717301
 30
0.0
  0
VERTEX
  5
28D
330
275
100
AcDbEntity
  8
ACHSEN
100
AcDbVertex
100
AcDb2dVertex
 10
-437.0271396445011
 20
1144.23757525864
 30
0.0
  0
VERTEX
  5
28E
330
275
100
AcDbEntity
  8
ACHSEN
100
AcDbVertex
100
AcDb2dVertex
 10
-436.4037940948403
 20
1144.181237475478
 30
0.0
  0
VERTEX
  5
28F
330
275
100
AcDbEntity
  8
ACHSEN
100
AcDbVertex
100
AcDb2dVertex
 10
-435.6956371072731
 20
1144.079889460197
 30
0.0
  0
VERTEX
  5
290
330
275
100
AcDbEntity
  8
ACHSEN
100
AcDbVertex
100
AcDb2dVertex
 10
-434.9374326529721
 20
1143.943927777283
 30
0.0
  0
VERTEX
  5
291
330
275
100
AcDbEntity
  8
ACHSEN
100
AcDbVertex
100
AcDb2dVertex
 10
-434.1736731298522
 20
1143.78817660924
 30
0.0
  0
VERTEX
  5
292
330
275
100
AcDbEntity
  8
ACHSEN
100
AcDbVertex
100
AcDb2dVertex
 10
-433.4488509358293
 20
1143.627460138578
 30
0.0
 91
       64
  0
VERTEX
  5
293
330
275
100
AcDbEntity
  8
ACHSEN
100
AcDbVertex
100
AcDb2dVertex
 10
-430.8176342269491
 20
1142.92447917613
 30
0.0
 91
       64
  0
SEQEND
  5
294
330
275
100
AcDbEntity
  8
ACHSEN
  0
POLYLINE
  5
295
330
2
100
AcDbEntity
  8
ACHSEN
100
AcDb2dPolyline
 66
     1
 10
0.0
 20
0.0
 30
0.0
  0
VERTEX
  5
296
330
295
100
AcDbEntity
  8
ACHSEN
100
AcDbVertex
100
AcDb2dVertex
 10
-454.8206580755276
 20
1150.179085752142
 30
0.0
 91
       64
  0
VERTEX
  5
297
330
295
100
AcDbEntity
  8
ACHSEN
100
AcDbVertex
100
AcDb2dVertex
 10
-451.0188401703397
 20
1148.972252610525
 30
0.0
 91
       65
  0
VERTEX
  5
298
330
295
100
AcDbEntity
  8
ACHSEN
100
AcDbVertex
100
AcDb2dVertex
 10
-449.4526537579164
 20
1148.329609042439
 30
0.0
  0
VERTEX
  5
299
330
295
100
AcDbEntity
  8
ACHSEN
100
AcDbVertex
100
AcDb2dVertex
 10
-448.1049067588503
 20
1147.953313294738
 30
0.0
  0
VERTEX
  5
29A
330
295
100
AcDbEntity
  8
ACHSEN
100
AcDbVertex
100
AcDb2dVertex
 10
-446.9481221872448
 20
1147.786202536206
 30
0.0
  0
VERTEX
  5
29B
330
295
100
AcDbEntity
  8
ACHSEN
100
AcDbVertex
100
AcDb2dVertex
 10
-445.9548230572018
 20
1147.771113935628
 30
0.0
  0
VERTEX
  5
29C
330
295
100
AcDbEntity
  8
ACHSEN
100
AcDbVertex
100
AcDb2dVertex
 10
-445.097532382825
 20
1147.85088466179
 30
0.0
  0
VERTEX
  5
29D
330
295
100
AcDbEntity
  8
ACHSEN
100
AcDbVertex
100
AcDb2dVertex
 10
-444.3487731782163
 20
1147.968351883475
 30
0.0
  0
VERTEX
  5
29E
330
295
100
AcDbEntity
  8
ACHSEN
100
AcDbVertex
100
AcDb2dVertex
 10
-443.6810684574793
 20
1148.066352769469
 30
0.0
  0
VERTEX
  5
29F
330
295
100
AcDbEntity
  8
ACHSEN
100
AcDbVertex
100
AcDb2dVertex
 10
-443.0707479810696
 20
1148.099775033798
 30
0.0
  0
VERTEX
  5
2A0
330
295
100
AcDbEntity
  8
ACHSEN
100
AcDbVertex
100
AcDb2dVertex
 10
-442.5093684948548
 20
1148.071708571457
 30
0.0
  0
VERTEX
  5
2A1
330
295
100
AcDbEntity
  8
ACHSEN
100
AcDbVertex
100
AcDb2dVertex
 10
-441.9922934910557
 20
1147.99729382268
 30
0.0
  0
VERTEX
  5
2A2
330
295
100
AcDbEntity
  8
ACHSEN
100
AcDbVertex
100
AcDb2dVertex
 10
-441.5148864618924
 20
1147.891671227704
 30
0.0
  0
VERTEX
  5
2A3
330
295
100
AcDbEntity
  8
ACHSEN
100
AcDbVertex
100
AcDb2dVertex
 10
-441.0725108995855
 20
1147.769981226763
 30
0.0
  0
VERTEX
  5
2A4
330
295
100
AcDbEntity
  8
ACHSEN
100
AcDbVertex
100
AcDb2dVertex
 10
-440.6605302963551
 20
1147.647364260093
 30
0.0
  0
VERTEX
  5
2A5
330
295
100
AcDbEntity
  8
ACHSEN
100
AcDbVertex
100
AcDb2dVertex
 10
-440.2743081444225
 20
1147.53896076793
 30
0.0
  0
VERTEX
  5
2A6
330
295
100
AcDbEntity
  8
ACHSEN
100
AcDbVertex
100
AcDb2dVertex
 10
-439.9092079360082
 20
1147.459911190511
 30
0.0
  0
VERTEX
  5
2A7
330
295
100
AcDbEntity
  8
ACHSEN
100
AcDbVertex
100
AcDb2dVertex
 10
-439.559052887537
 20
1147.420875640422
 30
0.0
  0
VERTEX
  5
2A8
330
295
100
AcDbEntity
  8
ACHSEN
100
AcDbVertex
100
AcDb2dVertex
 10
-439.2115051122558
 20
1147.414592919672
 30
0.0
  0
VERTEX
  5
2A9
330
295
100
AcDbEntity
  8
ACHSEN
100
AcDbVertex
100
AcDb2dVertex
 10
-438.8526864476168
 20
1147.429321502619
 30
0.0
  0
VERTEX
  5
2AA
330
295
100
AcDbEntity
  8
ACHSEN
100
AcDbVertex
100
AcDb2dVertex
 10
-438.4687187310698
 20
1147.453319863625
 30
0.0
  0
VERTEX
  5
2AB
330
295
100
AcDbEntity
  8
ACHSEN
100
AcDbVertex
100
AcDb2dVertex
 10
-438.0457238000674
 20
1147.474846477049
 30
0.0
  0
VERTEX
  5
2AC
330
295
100
AcDbEntity
  8
ACHSEN
100
AcDbVertex
100
AcDb2dVertex
 10
-437.5698234920608
 20
1147.48215981725
 30
0.0
  0
VERTEX
  5
2AD
330
295
100
AcDbEntity
  8
ACHSEN
100
AcDbVertex
100
AcDb2dVertex
 10
-437.0271396445011
 20
1147.463518358589
 30
0.0
  0
VERTEX
  5
2AE
330
295
100
AcDbEntity
  8
ACHSEN
100
AcDbVertex
100
AcDb2dVertex
 10
-436.4037940948403
 20
1147.407180575427
 30
0.0
  0
VERTEX
  5
2AF
330
295
100
AcDbEntity
  8
ACHSEN
100
AcDbVertex
100
AcDb2dVertex
 10
-435.6956371072731
 20
1147.305832560147
 30
0.0
  0
VERTEX
  5
2B0
330
295
100
AcDbEntity
  8
ACHSEN
100
AcDbVertex
100
AcDb2dVertex
 10
-434.9374326529721
 20
1147.169870877232
 30
0.0
  0
VERTEX
  5
2B1
330
295
100
AcDbEntity
  8
ACHSEN
100
AcDbVertex
100
AcDb2dVertex
 10
-434.1736731298522
 20
1147.01411970919
 30
0.0
  0
VERTEX
  5
2B2
330
295
100
AcDbEntity
  8
ACHSEN
100
AcDbVertex
100
AcDb2dVertex
 10
-433.4488509358293
 20
1146.853403238527
 30
0.0
  0
VERTEX
  5
2B3
330
295
100
AcDbEntity
  8
ACHSEN
100
AcDbVertex
100
AcDb2dVertex
 10
-430.8175962279371
 20
1146.234523587819
 30
0.0
  0
SEQEND
  5
2B4
330
295
100
AcDbEntity
  8
ACHSEN
  0
POLYLINE
  5
2B5
330
2
100
AcDbEntity
  8
ACHSEN
100
AcDb2dPolyline
 66
     1
 10
0.0
 20
0.0
 30
0.0
  0
VERTEX
  5
2B6
330
2B5
100
AcDbEntity
  8
ACHSEN
100
AcDbVertex
100
AcDb2dVertex
 10
-454.8206580755275
 20
305.0001386392818
 30
0.0
 91
       62
  0
VERTEX
  5
2B7
330
2B5
100
AcDbEntity
  8
ACHSEN
100
AcDbVertex
100
AcDb2dVertex
 10
-451.0188401703397
 20
304.0181414682828
 30
0.0
 91
       63
  0
VERTEX
  5
2B8
330
2B5
100
AcDbEntity
  8
ACHSEN
100
AcDbVertex
100
AcDb2dVertex
 10
-449.4526537579168
 20
303.3754979001969
 30
0.0
  0
VERTEX
  5
2B9
330
2B5
100
AcDbEntity
  8
ACHSEN
100
AcDbVertex
100
AcDb2dVertex
 10
-448.1049067588505
 20
302.9992021524954
 30
0.0
  0
VERTEX
  5
2BA
330
2B5
100
AcDbEntity
  8
ACHSEN
100
AcDbVertex
100
AcDb2dVertex
 10
-446.9481221872452
 20
302.8320913939633
 30
0.0
  0
VERTEX
  5
2BB
330
2B5
100
AcDbEntity
  8
ACHSEN
100
AcDbVertex
100
AcDb2dVertex
 10
-445.9548230572022
 20
302.8170027933857
 30
0.0
  0
VERTEX
  5
2BC
330
2B5
100
AcDbEntity
  8
ACHSEN
100
AcDbVertex
100
AcDb2dVertex
 10
-445.0975323828251
 20
302.896773519547
 30
0.0
  0
VERTEX
  5
2BD
330
2B5
100
AcDbEntity
  8
ACHSEN
100
AcDbVertex
100
AcDb2dVertex
 10
-444.3487731782163
 20
303.0142407412323
 30
0.0
  0
VERTEX
  5
2BE
330
2B5
100
AcDbEntity
  8
ACHSEN
100
AcDbVertex
100
AcDb2dVertex
 10
-443.6810684574798
 20
303.112241627226
 30
0.0
  0
VERTEX
  5
2BF
330
2B5
100
AcDbEntity
  8
ACHSEN
100
AcDbVertex
100
AcDb2dVertex
 10
-443.0707479810698
 20
303.1456638915556
 30
0.0
  0
VERTEX
  5
2C0
330
2B5
100
AcDbEntity
  8
ACHSEN
100
AcDbVertex
100
AcDb2dVertex
 10
-442.5093684948548
 20
303.1175974292141
 30
0.0
  0
VERTEX
  5
2C1
330
2B5
100
AcDbEntity
  8
ACHSEN
100
AcDbVertex
100
AcDb2dVertex
 10
-441.992293491056
 20
303.0431826804374
 30
0.0
  0
VERTEX
  5
2C2
330
2B5
100
AcDbEntity
  8
ACHSEN
100
AcDbVertex
100
AcDb2dVertex
 10
-441.5148864618926
 20
302.937560085461
 30
0.0
  0
VERTEX
  5
2C3
330
2B5
100
AcDbEntity
  8
ACHSEN
100
AcDbVertex
100
AcDb2dVertex
 10
-441.0725108995857
 20
302.8158700845202
 30
0.0
  0
VERTEX
  5
2C4
330
2B5
100
AcDbEntity
  8
ACHSEN
100
AcDbVertex
100
AcDb2dVertex
 10
-440.6605302963551
 20
302.6932531178506
 30
0.0
  0
VERTEX
  5
2C5
330
2B5
100
AcDbEntity
  8
ACHSEN
100
AcDbVertex
100
AcDb2dVertex
 10
-440.2743081444226
 20
302.5848496256882
 30
0.0
  0
VERTEX
  5
2C6
330
2B5
100
AcDbEntity
  8
ACHSEN
100
AcDbVertex
100
AcDb2dVertex
 10
-439.9092079360084
 20
302.5058000482679
 30
0.0
  0
VERTEX
  5
2C7
330
2B5
100
AcDbEntity
  8
ACHSEN
100
AcDbVertex
100
AcDb2dVertex
 10
-439.5590528875373
 20
302.4667644981796
 30
0.0
  0
VERTEX
  5
2C8
330
2B5
100
AcDbEntity
  8
ACHSEN
100
AcDbVertex
100
AcDb2dVertex
 10
-439.2115051122564
 20
302.4604817774293
 30
0.0
  0
VERTEX
  5
2C9
330
2B5
100
AcDbEntity
  8
ACHSEN
100
AcDbVertex
100
AcDb2dVertex
 10
-438.8526864476171
 20
302.4752103603769
 30
0.0
  0
VERTEX
  5
2CA
330
2B5
100
AcDbEntity
  8
ACHSEN
100
AcDbVertex
100
AcDb2dVertex
 10
-438.4687187310701
 20
302.4992087213825
 30
0.0
  0
VERTEX
  5
2CB
330
2B5
100
AcDbEntity
  8
ACHSEN
100
AcDbVertex
100
AcDb2dVertex
 10
-438.0457238000674
 20
302.520735334806
 30
0.0
  0
VERTEX
  5
2CC
330
2B5
100
AcDbEntity
  8
ACHSEN
100
AcDbVertex
100
AcDb2dVertex
 10
-437.5698234920608
 20
302.5280486750075
 30
0.0
  0
VERTEX
  5
2CD
330
2B5
100
AcDbEntity
  8
ACHSEN
100
AcDbVertex
100
AcDb2dVertex
 10
-437.0271396445013
 20
302.509407216347
 30
0.0
  0
VERTEX
  5
2CE
330
2B5
100
AcDbEntity
  8
ACHSEN
100
AcDbVertex
100
AcDb2dVertex
 10
-436.4037940948406
 20
302.4530694331843
 30
0.0
  0
VERTEX
  5
2CF
330
2B5
100
AcDbEntity
  8
ACHSEN
100
AcDbVertex
100
AcDb2dVertex
 10
-435.6956371072733
 20
302.3517214179042
 30
0.0
  0
VERTEX
  5
2D0
330
2B5
100
AcDbEntity
  8
ACHSEN
100
AcDbVertex
100
AcDb2dVertex
 10
-434.9374326529723
 20
302.2157597349894
 30
0.0
  0
VERTEX
  5
2D1
330
2B5
100
AcDbEntity
  8
ACHSEN
100
AcDbVertex
100
AcDb2dVertex
 10
-434.1736731298523
 20
302.0600085669471
 30
0.0
  0
VERTEX
  5
2D2
330
2B5
100
AcDbEntity
  8
ACHSEN
100
AcDbVertex
100
AcDb2dVertex
 10
-433.4488509358298
 20
301.8992920962846
 30
0.0
 91
       60
  0
VERTEX
  5
2D3
330
2B5
100
AcDbEntity
  8
ACHSEN
100
AcDbVertex
100
AcDb2dVertex
 10
-430.8176342269494
 20
301.1963111338368
 30
0.0
 91
       61
  0
SEQEND
  5
2D4
330
2B5
100
AcDbEntity
  8
ACHSEN
  0
POLYLINE
  5
2D5
330
2
100
AcDbEntity
  8
ACHSEN
100
AcDb2dPolyline
 66
     1
 10
0.0
 20
0.0
 30
0.0
  0
VERTEX
  5
2D6
330
2D5
100
AcDbEntity
  8
ACHSEN
100
AcDbVertex
100
AcDb2dVertex
 10
-454.820658075527
 20
309.0001538980708
 30
0.0
 91
       64
  0
VERTEX
  5
2D7
330
2D5
100
AcDbEntity
  8
ACHSEN
100
AcDbVertex
100
AcDb2dVertex
 10
-451.0188401703397
 20
307.2440845682322
 30
0.0
 91
       65
  0
VERTEX
  5
2D8
330
2D5
100
AcDbEntity
  8
ACHSEN
100
AcDbVertex
100
AcDb2dVertex
 10
-449.4526537579168
 20
306.6014410001462
 30
0.0
  0
VERTEX
  5
2D9
330
2D5
100
AcDbEntity
  8
ACHSEN
100
AcDbVertex
100
AcDb2dVertex
 10
-448.1049067588505
 20
306.2251452524447
 30
0.0
  0
VERTEX
  5
2DA
330
2D5
100
AcDbEntity
  8
ACHSEN
100
AcDbVertex
100
AcDb2dVertex
 10
-446.9481221872452
 20
306.0580344939126
 30
0.0
  0
VERTEX
  5
2DB
330
2D5
100
AcDbEntity
  8
ACHSEN
100
AcDbVertex
100
AcDb2dVertex
 10
-445.9548230572022
 20
306.042945893335
 30
0.0
  0
VERTEX
  5
2DC
330
2D5
100
AcDbEntity
  8
ACHSEN
100
AcDbVertex
100
AcDb2dVertex
 10
-445.0975323828251
 20
306.1227166194963
 30
0.0
  0
VERTEX
  5
2DD
330
2D5
100
AcDbEntity
  8
ACHSEN
100
AcDbVertex
100
AcDb2dVertex
 10
-444.3487731782163
 20
306.2401838411815
 30
0.0
  0
VERTEX
  5
2DE
330
2D5
100
AcDbEntity
  8
ACHSEN
100
AcDbVertex
100
AcDb2dVertex
 10
-443.6810684574798
 20
306.3381847271753
 30
0.0
  0
VERTEX
  5
2DF
330
2D5
100
AcDbEntity
  8
ACHSEN
100
AcDbVertex
100
AcDb2dVertex
 10
-443.0707479810698
 20
306.3716069915049
 30
0.0
  0
VERTEX
  5
2E0
330
2D5
100
AcDbEntity
  8
ACHSEN
100
AcDbVertex
100
AcDb2dVertex
 10
-442.5093684948548
 20
306.3435405291634
 30
0.0
  0
VERTEX
  5
2E1
330
2D5
100
AcDbEntity
  8
ACHSEN
100
AcDbVertex
100
AcDb2dVertex
 10
-441.992293491056
 20
306.2691257803867
 30
0.0
  0
VERTEX
  5
2E2
330
2D5
100
AcDbEntity
  8
ACHSEN
100
AcDbVertex
100
AcDb2dVertex
 10
-441.5148864618926
 20
306.1635031854103
 30
0.0
  0
VERTEX
  5
2E3
330
2D5
100
AcDbEntity
  8
ACHSEN
100
AcDbVertex
100
AcDb2dVertex
 10
-441.0725108995857
 20
306.0418131844695
 30
0.0
  0
VERTEX
  5
2E4
330
2D5
100
AcDbEntity
  8
ACHSEN
100
AcDbVertex
100
AcDb2dVertex
 10
-440.6605302963551
 20
305.9191962177999
 30
0.0
  0
VERTEX
  5
2E5
330
2D5
100
AcDbEntity
  8
ACHSEN
100
AcDbVertex
100
AcDb2dVertex
 10
-440.2743081444226
 20
305.8107927256374
 30
0.0
  0
VERTEX
  5
2E6
330
2D5
100
AcDbEntity
  8
ACHSEN
100
AcDbVertex
100
AcDb2dVertex
 10
-439.9092079360084
 20
305.7317431482172
 30
0.0
  0
VERTEX
  5
2E7
330
2D5
100
AcDbEntity
  8
ACHSEN
100
AcDbVertex
100
AcDb2dVertex
 10
-439.5590528875373
 20
305.6927075981289
 30
0.0
  0
VERTEX
  5
2E8
330
2D5
100
AcDbEntity
  8
ACHSEN
100
AcDbVertex
100
AcDb2dVertex
 10
-439.2115051122564
 20
305.6864248773786
 30
0.0
  0
VERTEX
  5
2E9
330
2D5
100
AcDbEntity
  8
ACHSEN
100
AcDbVertex
100
AcDb2dVertex
 10
-438.8526864476171
 20
305.7011534603262
 30
0.0
  0
VERTEX
  5
2EA
330
2D5
100
AcDbEntity
  8
ACHSEN
100
AcDbVertex
100
AcDb2dVertex
 10
-438.4687187310701
 20
305.7251518213318
 30
0.0
  0
VERTEX
  5
2EB
330
2D5
100
AcDbEntity
  8
ACHSEN
100
AcDbVertex
100
AcDb2dVertex
 10
-438.0457238000674
 20
305.7466784347553
 30
0.0
  0
VERTEX
  5
2EC
330
2D5
100
AcDbEntity
  8
ACHSEN
100
AcDbVertex
100
AcDb2dVertex
 10
-437.5698234920608
 20
305.7539917749569
 30
0.0
  0
VERTEX
  5
2ED
330
2D5
100
AcDbEntity
  8
ACHSEN
100
AcDbVertex
100
AcDb2dVertex
 10
-437.0271396445013
 20
305.7353503162963
 30
0.0
  0
VERTEX
  5
2EE
330
2D5
100
AcDbEntity
  8
ACHSEN
100
AcDbVertex
100
AcDb2dVertex
 10
-436.4037940948406
 20
305.6790125331336
 30
0.0
  0
VERTEX
  5
2EF
330
2D5
100
AcDbEntity
  8
ACHSEN
100
AcDbVertex
100
AcDb2dVertex
 10
-435.6956371072733
 20
305.5776645178535
 30
0.0
  0
VERTEX
  5
2F0
330
2D5
100
AcDbEntity
  8
ACHSEN
100
AcDbVertex
100
AcDb2dVertex
 10
-434.9374326529723
 20
305.4417028349387
 30
0.0
  0
VERTEX
  5
2F1
330
2D5
100
AcDbEntity
  8
ACHSEN
100
AcDbVertex
100
AcDb2dVertex
 10
-434.1736731298523
 20
305.2859516668964
 30
0.0
  0
VERTEX
  5
2F2
330
2D5
100
AcDbEntity
  8
ACHSEN
100
AcDbVertex
100
AcDb2dVertex
 10
-433.4488509358298
 20
305.1252351962339
 30
0.0
  0
VERTEX
  5
2F3
330
2D5
100
AcDbEntity
  8
ACHSEN
100
AcDbVertex
100
AcDb2dVertex
 10
-430.8175962279371
 20
304.5063555455262
 30
0.0
  0
SEQEND
  5
2F4
330
2D5
100
AcDbEntity
  8
ACHSEN
  0
POLYLINE
  5
2F5
330
2
100
AcDbEntity
  8
ACHSEN
100
AcDb2dPolyline
 66
     1
 10
0.0
 20
0.0
 30
0.0
  0
VERTEX
  5
2F6
330
2F5
100
AcDbEntity
  8
ACHSEN
100
AcDbVertex
100
AcDb2dVertex
 10
-454.8178883011734
 20
1021.741411983826
 30
0.0
 91
       48
  0
VERTEX
  5
2F7
330
2F5
100
AcDbEntity
  8
ACHSEN
100
AcDbVertex
100
AcDb2dVertex
 10
-451.0188399608463
 20
1020.346120398722
 30
0.0
 91
       49
  0
VERTEX
  5
2F8
330
2F5
100
AcDbEntity
  8
ACHSEN
100
AcDbVertex
100
AcDb2dVertex
 10
-449.4526537579162
 20
1019.703476830631
 30
0.0
  0
VERTEX
  5
2F9
330
2F5
100
AcDbEntity
  8
ACHSEN
100
AcDbVertex
100
AcDb2dVertex
 10
-448.1049067588501
 20
1019.32718108293
 30
0.0
  0
VERTEX
  5
2FA
330
2F5
100
AcDbEntity
  8
ACHSEN
100
AcDbVertex
100
AcDb2dVertex
 10
-446.9481221872447
 20
1019.160070324398
 30
0.0
  0
VERTEX
  5
2FB
330
2F5
100
AcDbEntity
  8
ACHSEN
100
AcDbVertex
100
AcDb2dVertex
 10
-445.9548230572018
 20
1019.14498172382
 30
0.0
  0
VERTEX
  5
2FC
330
2F5
100
AcDbEntity
  8
ACHSEN
100
AcDbVertex
100
AcDb2dVertex
 10
-445.0975323828246
 20
1019.224752449981
 30
0.0
  0
VERTEX
  5
2FD
330
2F5
100
AcDbEntity
  8
ACHSEN
100
AcDbVertex
100
AcDb2dVertex
 10
-444.3487731782161
 20
1019.342219671667
 30
0.0
  0
VERTEX
  5
2FE
330
2F5
100
AcDbEntity
  8
ACHSEN
100
AcDbVertex
100
AcDb2dVertex
 10
-443.6810684574793
 20
1019.44022055766
 30
0.0
  0
VERTEX
  5
2FF
330
2F5
100
AcDbEntity
  8
ACHSEN
100
AcDbVertex
100
AcDb2dVertex
 10
-443.0707479810694
 20
1019.47364282199
 30
0.0
  0
VERTEX
  5
300
330
2F5
100
AcDbEntity
  8
ACHSEN
100
AcDbVertex
100
AcDb2dVertex
 10
-442.5093684948546
 20
1019.445576359649
 30
0.0
  0
VERTEX
  5
301
330
2F5
100
AcDbEntity
  8
ACHSEN
100
AcDbVertex
100
AcDb2dVertex
 10
-441.9922934910555
 20
1019.371161610872
 30
0.0
  0
VERTEX
  5
302
330
2F5
100
AcDbEntity
  8
ACHSEN
100
AcDbVertex
100
AcDb2dVertex
 10
-441.5148864618918
 20
1019.265539015895
 30
0.0
  0
VERTEX
  5
303
330
2F5
100
AcDbEntity
  8
ACHSEN
100
AcDbVertex
100
AcDb2dVertex
 10
-441.0725108995852
 20
1019.143849014954
 30
0.0
  0
VERTEX
  5
304
330
2F5
100
AcDbEntity
  8
ACHSEN
100
AcDbVertex
100
AcDb2dVertex
 10
-440.6605302963548
 20
1019.021232048285
 30
0.0
  0
VERTEX
  5
305
330
2F5
100
AcDbEntity
  8
ACHSEN
100
AcDbVertex
100
AcDb2dVertex
 10
-440.2743081444221
 20
1018.912828556122
 30
0.0
  0
VERTEX
  5
306
330
2F5
100
AcDbEntity
  8
ACHSEN
100
AcDbVertex
100
AcDb2dVertex
 10
-439.9092079360078
 20
1018.833778978702
 30
0.0
  0
VERTEX
  5
307
330
2F5
100
AcDbEntity
  8
ACHSEN
100
AcDbVertex
100
AcDb2dVertex
 10
-439.5590528875368
 20
1018.794743428614
 30
0.0
  0
VERTEX
  5
308
330
2F5
100
AcDbEntity
  8
ACHSEN
100
AcDbVertex
100
AcDb2dVertex
 10
-439.2115051122558
 20
1018.788460707864
 30
0.0
  0
VERTEX
  5
309
330
2F5
100
AcDbEntity
  8
ACHSEN
100
AcDbVertex
100
AcDb2dVertex
 10
-438.8526864476166
 20
1018.803189290811
 30
0.0
  0
VERTEX
  5
30A
330
2F5
100
AcDbEntity
  8
ACHSEN
100
AcDbVertex
100
AcDb2dVertex
 10
-438.4687187310696
 20
1018.827187651817
 30
0.0
  0
VERTEX
  5
30B
330
2F5
100
AcDbEntity
  8
ACHSEN
100
AcDbVertex
100
AcDb2dVertex
 10
-438.0457238000672
 20
1018.84871426524
 30
0.0
  0
VERTEX
  5
30C
330
2F5
100
AcDbEntity
  8
ACHSEN
100
AcDbVertex
100
AcDb2dVertex
 10
-437.5698234920603
 20
1018.856027605442
 30
0.0
  0
VERTEX
  5
30D
330
2F5
100
AcDbEntity
  8
ACHSEN
100
AcDbVertex
100
AcDb2dVertex
 10
-437.0271396445009
 20
1018.837386146781
 30
0.0
  0
VERTEX
  5
30E
330
2F5
100
AcDbEntity
  8
ACHSEN
100
AcDbVertex
100
AcDb2dVertex
 10
-436.4037940948398
 20
1018.781048363619
 30
0.0
  0
VERTEX
  5
30F
330
2F5
100
AcDbEntity
  8
ACHSEN
100
AcDbVertex
100
AcDb2dVertex
 10
-435.6956371072729
 20
1018.679700348338
 30
0.0
  0
VERTEX
  5
310
330
2F5
100
AcDbEntity
  8
ACHSEN
100
AcDbVertex
100
AcDb2dVertex
 10
-434.9374326529718
 20
1018.543738665424
 30
0.0
  0
VERTEX
  5
311
330
2F5
100
AcDbEntity
  8
ACHSEN
100
AcDbVertex
100
AcDb2dVertex
 10
-434.1736731298518
 20
1018.387987497381
 30
0.0
  0
VERTEX
  5
312
330
2F5
100
AcDbEntity
  8
ACHSEN
100
AcDbVertex
100
AcDb2dVertex
 10
-433.4488509358293
 20
1018.227271026719
 30
0.0
 91
       50
  0
VERTEX
  5
313
330
2F5
100
AcDbEntity
  8
ACHSEN
100
AcDbVertex
100
AcDb2dVertex
 10
-430.8178008603163
 20
1017.522861244744
 30
0.0
 91
       51
  0
SEQEND
  5
314
330
2F5
100
AcDbEntity
  8
ACHSEN
  0
POLYLINE
  5
315
330
2
100
AcDbEntity
  8
ACHSEN
100
AcDb2dPolyline
 66
     1
 10
0.0
 20
0.0
 30
0.0
  0
VERTEX
  5
316
330
315
100
AcDbEntity
  8
ACHSEN
100
AcDbVertex
100
AcDb2dVertex
 10
-454.8179626785683
 20
1025.185913414009
 30
0.0
 91
       46
  0
VERTEX
  5
317
330
315
100
AcDbEntity
  8
ACHSEN
100
AcDbVertex
100
AcDb2dVertex
 10
-451.0188399608463
 20
1023.572063498672
 30
0.0
 91
       47
  0
VERTEX
  5
318
330
315
100
AcDbEntity
  8
ACHSEN
100
AcDbVertex
100
AcDb2dVertex
 10
-449.4526537579162
 20
1022.929419930581
 30
0.0
  0
VERTEX
  5
319
330
315
100
AcDbEntity
  8
ACHSEN
100
AcDbVertex
100
AcDb2dVertex
 10
-448.1049067588501
 20
1022.553124182879
 30
0.0
  0
VERTEX
  5
31A
330
315
100
AcDbEntity
  8
ACHSEN
100
AcDbVertex
100
AcDb2dVertex
 10
-446.9481221872447
 20
1022.386013424347
 30
0.0
  0
VERTEX
  5
31B
330
315
100
AcDbEntity
  8
ACHSEN
100
AcDbVertex
100
AcDb2dVertex
 10
-445.9548230572018
 20
1022.370924823769
 30
0.0
  0
VERTEX
  5
31C
330
315
100
AcDbEntity
  8
ACHSEN
100
AcDbVertex
100
AcDb2dVertex
 10
-445.0975323828246
 20
1022.450695549931
 30
0.0
  0
VERTEX
  5
31D
330
315
100
AcDbEntity
  8
ACHSEN
100
AcDbVertex
100
AcDb2dVertex
 10
-444.3487731782161
 20
1022.568162771616
 30
0.0
  0
VERTEX
  5
31E
330
315
100
AcDbEntity
  8
ACHSEN
100
AcDbVertex
100
AcDb2dVertex
 10
-443.6810684574793
 20
1022.66616365761
 30
0.0
  0
VERTEX
  5
31F
330
315
100
AcDbEntity
  8
ACHSEN
100
AcDbVertex
100
AcDb2dVertex
 10
-443.0707479810694
 20
1022.699585921939
 30
0.0
  0
VERTEX
  5
320
330
315
100
AcDbEntity
  8
ACHSEN
100
AcDbVertex
100
AcDb2dVertex
 10
-442.5093684948546
 20
1022.671519459598
 30
0.0
  0
VERTEX
  5
321
330
315
100
AcDbEntity
  8
ACHSEN
100
AcDbVertex
100
AcDb2dVertex
 10
-441.9922934910555
 20
1022.597104710821
 30
0.0
  0
VERTEX
  5
322
330
315
100
AcDbEntity
  8
ACHSEN
100
AcDbVertex
100
AcDb2dVertex
 10
-441.5148864618918
 20
1022.491482115845
 30
0.0
  0
VERTEX
  5
323
330
315
100
AcDbEntity
  8
ACHSEN
100
AcDbVertex
100
AcDb2dVertex
 10
-441.0725108995852
 20
1022.369792114904
 30
0.0
  0
VERTEX
  5
324
330
315
100
AcDbEntity
  8
ACHSEN
100
AcDbVertex
100
AcDb2dVertex
 10
-440.6605302963548
 20
1022.247175148234
 30
0.0
  0
VERTEX
  5
325
330
315
100
AcDbEntity
  8
ACHSEN
100
AcDbVertex
100
AcDb2dVertex
 10
-440.2743081444221
 20
1022.138771656072
 30
0.0
  0
VERTEX
  5
326
330
315
100
AcDbEntity
  8
ACHSEN
100
AcDbVertex
100
AcDb2dVertex
 10
-439.9092079360078
 20
1022.059722078652
 30
0.0
  0
VERTEX
  5
327
330
315
100
AcDbEntity
  8
ACHSEN
100
AcDbVertex
100
AcDb2dVertex
 10
-439.5590528875368
 20
1022.020686528563
 30
0.0
  0
VERTEX
  5
328
330
315
100
AcDbEntity
  8
ACHSEN
100
AcDbVertex
100
AcDb2dVertex
 10
-439.2115051122558
 20
1022.014403807813
 30
0.0
  0
VERTEX
  5
329
330
315
100
AcDbEntity
  8
ACHSEN
100
AcDbVertex
100
AcDb2dVertex
 10
-438.8526864476166
 20
1022.02913239076
 30
0.0
  0
VERTEX
  5
32A
330
315
100
AcDbEntity
  8
ACHSEN
100
AcDbVertex
100
AcDb2dVertex
 10
-438.4687187310696
 20
1022.053130751766
 30
0.0
  0
VERTEX
  5
32B
330
315
100
AcDbEntity
  8
ACHSEN
100
AcDbVertex
100
AcDb2dVertex
 10
-438.0457238000672
 20
1022.07465736519
 30
0.0
  0
VERTEX
  5
32C
330
315
100
AcDbEntity
  8
ACHSEN
100
AcDbVertex
100
AcDb2dVertex
 10
-437.5698234920603
 20
1022.081970705391
 30
0.0
  0
VERTEX
  5
32D
330
315
100
AcDbEntity
  8
ACHSEN
100
AcDbVertex
100
AcDb2dVertex
 10
-437.0271396445009
 20
1022.063329246731
 30
0.0
  0
VERTEX
  5
32E
330
315
100
AcDbEntity
  8
ACHSEN
100
AcDbVertex
100
AcDb2dVertex
 10
-436.4037940948398
 20
1022.006991463568
 30
0.0
  0
VERTEX
  5
32F
330
315
100
AcDbEntity
  8
ACHSEN
100
AcDbVertex
100
AcDb2dVertex
 10
-435.6956371072729
 20
1021.905643448288
 30
0.0
  0
VERTEX
  5
330
330
315
100
AcDbEntity
  8
ACHSEN
100
AcDbVertex
100
AcDb2dVertex
 10
-434.9374326529718
 20
1021.769681765373
 30
0.0
  0
VERTEX
  5
331
330
315
100
AcDbEntity
  8
ACHSEN
100
AcDbVertex
100
AcDb2dVertex
 10
-434.1736731298518
 20
1021.613930597331
 30
0.0
  0
VERTEX
  5
332
330
315
100
AcDbEntity
  8
ACHSEN
100
AcDbVertex
100
AcDb2dVertex
 10
-433.4488509358293
 20
1021.453214126668
 30
0.0
  0
VERTEX
  5
333
330
315
100
AcDbEntity
  8
ACHSEN
100
AcDbVertex
100
AcDb2dVertex
 10
-430.8178722752765
 20
1020.834399403191
 30
0.0
  0
SEQEND
  5
334
330
315
100
AcDbEntity
  8
ACHSEN
  0
POLYLINE
  5
335
330
2
100
AcDbEntity
  8
ACHSEN
100
AcDb2dPolyline
 66
     1
 10
0.0
 20
0.0
 30
0.0
  0
VERTEX
  5
336
330
335
100
AcDbEntity
  8
ACHSEN
100
AcDbVertex
100
AcDb2dVertex
 10
-454.8194336672467
 20
562.5879737041612
 30
0.0
 91
       62
  0
VERTEX
  5
337
330
335
100
AcDbEntity
  8
ACHSEN
100
AcDbVertex
100
AcDb2dVertex
 10
-451.01884017034
 20
561.3326327251358
 30
0.0
 91
       63
  0
VERTEX
  5
338
330
335
100
AcDbEntity
  8
ACHSEN
100
AcDbVertex
100
AcDb2dVertex
 10
-449.4526537579168
 20
560.6899891570495
 30
0.0
  0
VERTEX
  5
339
330
335
100
AcDbEntity
  8
ACHSEN
100
AcDbVertex
100
AcDb2dVertex
 10
-448.1049067588505
 20
560.3136934093481
 30
0.0
  0
VERTEX
  5
33A
330
335
100
AcDbEntity
  8
ACHSEN
100
AcDbVertex
100
AcDb2dVertex
 10
-446.9481221872452
 20
560.1465826508158
 30
0.0
  0
VERTEX
  5
33B
330
335
100
AcDbEntity
  8
ACHSEN
100
AcDbVertex
100
AcDb2dVertex
 10
-445.9548230572022
 20
560.1314940502382
 30
0.0
  0
VERTEX
  5
33C
330
335
100
AcDbEntity
  8
ACHSEN
100
AcDbVertex
100
AcDb2dVertex
 10
-445.0975323828251
 20
560.2112647763997
 30
0.0
  0
VERTEX
  5
33D
330
335
100
AcDbEntity
  8
ACHSEN
100
AcDbVertex
100
AcDb2dVertex
 10
-444.3487731782163
 20
560.3287319980847
 30
0.0
  0
VERTEX
  5
33E
330
335
100
AcDbEntity
  8
ACHSEN
100
AcDbVertex
100
AcDb2dVertex
 10
-443.6810684574798
 20
560.4267328840785
 30
0.0
  0
VERTEX
  5
33F
330
335
100
AcDbEntity
  8
ACHSEN
100
AcDbVertex
100
AcDb2dVertex
 10
-443.0707479810698
 20
560.4601551484083
 30
0.0
  0
VERTEX
  5
340
330
335
100
AcDbEntity
  8
ACHSEN
100
AcDbVertex
100
AcDb2dVertex
 10
-442.5093684948548
 20
560.4320886860667
 30
0.0
  0
VERTEX
  5
341
330
335
100
AcDbEntity
  8
ACHSEN
100
AcDbVertex
100
AcDb2dVertex
 10
-441.992293491056
 20
560.3576739372901
 30
0.0
  0
VERTEX
  5
342
330
335
100
AcDbEntity
  8
ACHSEN
100
AcDbVertex
100
AcDb2dVertex
 10
-441.5148864618926
 20
560.2520513423137
 30
0.0
  0
VERTEX
  5
343
330
335
100
AcDbEntity
  8
ACHSEN
100
AcDbVertex
100
AcDb2dVertex
 10
-441.0725108995857
 20
560.1303613413729
 30
0.0
  0
VERTEX
  5
344
330
335
100
AcDbEntity
  8
ACHSEN
100
AcDbVertex
100
AcDb2dVertex
 10
-440.6605302963551
 20
560.0077443747034
 30
0.0
  0
VERTEX
  5
345
330
335
100
AcDbEntity
  8
ACHSEN
100
AcDbVertex
100
AcDb2dVertex
 10
-440.2743081444226
 20
559.8993408825408
 30
0.0
  0
VERTEX
  5
346
330
335
100
AcDbEntity
  8
ACHSEN
100
AcDbVertex
100
AcDb2dVertex
 10
-439.9092079360084
 20
559.8202913051203
 30
0.0
  0
VERTEX
  5
347
330
335
100
AcDbEntity
  8
ACHSEN
100
AcDbVertex
100
AcDb2dVertex
 10
-439.5590528875373
 20
559.7812557550323
 30
0.0
  0
VERTEX
  5
348
330
335
100
AcDbEntity
  8
ACHSEN
100
AcDbVertex
100
AcDb2dVertex
 10
-439.2115051122564
 20
559.7749730342822
 30
0.0
  0
VERTEX
  5
349
330
335
100
AcDbEntity
  8
ACHSEN
100
AcDbVertex
100
AcDb2dVertex
 10
-438.8526864476171
 20
559.7897016172296
 30
0.0
  0
VERTEX
  5
34A
330
335
100
AcDbEntity
  8
ACHSEN
100
AcDbVertex
100
AcDb2dVertex
 10
-438.4687187310701
 20
559.8136999782354
 30
0.0
  0
VERTEX
  5
34B
330
335
100
AcDbEntity
  8
ACHSEN
100
AcDbVertex
100
AcDb2dVertex
 10
-438.0457238000674
 20
559.8352265916587
 30
0.0
  0
VERTEX
  5
34C
330
335
100
AcDbEntity
  8
ACHSEN
100
AcDbVertex
100
AcDb2dVertex
 10
-437.5698234920608
 20
559.8425399318601
 30
0.0
  0
VERTEX
  5
34D
330
335
100
AcDbEntity
  8
ACHSEN
100
AcDbVertex
100
AcDb2dVertex
 10
-437.0271396445013
 20
559.8238984731997
 30
0.0
  0
VERTEX
  5
34E
330
335
100
AcDbEntity
  8
ACHSEN
100
AcDbVertex
100
AcDb2dVertex
 10
-436.4037940948406
 20
559.767560690037
 30
0.0
  0
VERTEX
  5
34F
330
335
100
AcDbEntity
  8
ACHSEN
100
AcDbVertex
100
AcDb2dVertex
 10
-435.6956371072733
 20
559.6662126747568
 30
0.0
  0
VERTEX
  5
350
330
335
100
AcDbEntity
  8
ACHSEN
100
AcDbVertex
100
AcDb2dVertex
 10
-434.9374326529723
 20
559.5302509918422
 30
0.0
  0
VERTEX
  5
351
330
335
100
AcDbEntity
  8
ACHSEN
100
AcDbVertex
100
AcDb2dVertex
 10
-434.1736731298523
 20
559.3744998237998
 30
0.0
  0
VERTEX
  5
352
330
335
100
AcDbEntity
  8
ACHSEN
100
AcDbVertex
100
AcDb2dVertex
 10
-433.4488509358298
 20
559.2137833531372
 30
0.0
 91
       60
  0
VERTEX
  5
353
330
335
100
AcDbEntity
  8
ACHSEN
100
AcDbVertex
100
AcDb2dVertex
 10
-430.8176342269494
 20
558.5108023906895
 30
0.0
 91
       61
  0
SEQEND
  5
354
330
335
100
AcDbEntity
  8
ACHSEN
  0
POLYLINE
  5
355
330
2
100
AcDbEntity
  8
ACHSEN
100
AcDb2dPolyline
 66
     1
 10
0.0
 20
0.0
 30
0.0
  0
VERTEX
  5
356
330
355
100
AcDbEntity
  8
ACHSEN
100
AcDbVertex
100
AcDb2dVertex
 10
-454.8193630309981
 20
565.7649978731932
 30
0.0
 91
       64
  0
VERTEX
  5
357
330
355
100
AcDbEntity
  8
ACHSEN
100
AcDbVertex
100
AcDb2dVertex
 10
-451.0188401703397
 20
564.558575825085
 30
0.0
 91
       65
  0
VERTEX
  5
358
330
355
100
AcDbEntity
  8
ACHSEN
100
AcDbVertex
100
AcDb2dVertex
 10
-449.4526537579168
 20
563.9159322569987
 30
0.0
  0
VERTEX
  5
359
330
355
100
AcDbEntity
  8
ACHSEN
100
AcDbVertex
100
AcDb2dVertex
 10
-448.1049067588505
 20
563.5396365092974
 30
0.0
  0
VERTEX
  5
35A
330
355
100
AcDbEntity
  8
ACHSEN
100
AcDbVertex
100
AcDb2dVertex
 10
-446.9481221872452
 20
563.3725257507652
 30
0.0
  0
VERTEX
  5
35B
330
355
100
AcDbEntity
  8
ACHSEN
100
AcDbVertex
100
AcDb2dVertex
 10
-445.9548230572022
 20
563.3574371501877
 30
0.0
  0
VERTEX
  5
35C
330
355
100
AcDbEntity
  8
ACHSEN
100
AcDbVertex
100
AcDb2dVertex
 10
-445.0975323828251
 20
563.4372078763489
 30
0.0
  0
VERTEX
  5
35D
330
355
100
AcDbEntity
  8
ACHSEN
100
AcDbVertex
100
AcDb2dVertex
 10
-444.3487731782163
 20
563.5546750980343
 30
0.0
  0
VERTEX
  5
35E
330
355
100
AcDbEntity
  8
ACHSEN
100
AcDbVertex
100
AcDb2dVertex
 10
-443.6810684574798
 20
563.652675984028
 30
0.0
  0
VERTEX
  5
35F
330
355
100
AcDbEntity
  8
ACHSEN
100
AcDbVertex
100
AcDb2dVertex
 10
-443.0707479810698
 20
563.6860982483576
 30
0.0
  0
VERTEX
  5
360
330
355
100
AcDbEntity
  8
ACHSEN
100
AcDbVertex
100
AcDb2dVertex
 10
-442.5093684948548
 20
563.6580317860161
 30
0.0
  0
VERTEX
  5
361
330
355
100
AcDbEntity
  8
ACHSEN
100
AcDbVertex
100
AcDb2dVertex
 10
-441.992293491056
 20
563.5836170372392
 30
0.0
  0
VERTEX
  5
362
330
355
100
AcDbEntity
  8
ACHSEN
100
AcDbVertex
100
AcDb2dVertex
 10
-441.5148864618926
 20
563.477994442263
 30
0.0
  0
VERTEX
  5
363
330
355
100
AcDbEntity
  8
ACHSEN
100
AcDbVertex
100
AcDb2dVertex
 10
-441.0725108995857
 20
563.3563044413222
 30
0.0
  0
VERTEX
  5
364
330
355
100
AcDbEntity
  8
ACHSEN
100
AcDbVertex
100
AcDb2dVertex
 10
-440.6605302963551
 20
563.2336874746528
 30
0.0
  0
VERTEX
  5
365
330
355
100
AcDbEntity
  8
ACHSEN
100
AcDbVertex
100
AcDb2dVertex
 10
-440.2743081444226
 20
563.1252839824901
 30
0.0
  0
VERTEX
  5
366
330
355
100
AcDbEntity
  8
ACHSEN
100
AcDbVertex
100
AcDb2dVertex
 10
-439.9092079360084
 20
563.0462344050697
 30
0.0
  0
VERTEX
  5
367
330
355
100
AcDbEntity
  8
ACHSEN
100
AcDbVertex
100
AcDb2dVertex
 10
-439.5590528875373
 20
563.0071988549816
 30
0.0
  0
VERTEX
  5
368
330
355
100
AcDbEntity
  8
ACHSEN
100
AcDbVertex
100
AcDb2dVertex
 10
-439.2115051122564
 20
563.0009161342313
 30
0.0
  0
VERTEX
  5
369
330
355
100
AcDbEntity
  8
ACHSEN
100
AcDbVertex
100
AcDb2dVertex
 10
-438.8526864476171
 20
563.0156447171789
 30
0.0
  0
VERTEX
  5
36A
330
355
100
AcDbEntity
  8
ACHSEN
100
AcDbVertex
100
AcDb2dVertex
 10
-438.4687187310701
 20
563.0396430781845
 30
0.0
  0
VERTEX
  5
36B
330
355
100
AcDbEntity
  8
ACHSEN
100
AcDbVertex
100
AcDb2dVertex
 10
-438.0457238000674
 20
563.0611696916079
 30
0.0
  0
VERTEX
  5
36C
330
355
100
AcDbEntity
  8
ACHSEN
100
AcDbVertex
100
AcDb2dVertex
 10
-437.5698234920608
 20
563.0684830318092
 30
0.0
  0
VERTEX
  5
36D
330
355
100
AcDbEntity
  8
ACHSEN
100
AcDbVertex
100
AcDb2dVertex
 10
-437.0271396445013
 20
563.049841573149
 30
0.0
  0
VERTEX
  5
36E
330
355
100
AcDbEntity
  8
ACHSEN
100
AcDbVertex
100
AcDb2dVertex
 10
-436.4037940948406
 20
562.9935037899862
 30
0.0
  0
VERTEX
  5
36F
330
355
100
AcDbEntity
  8
ACHSEN
100
AcDbVertex
100
AcDb2dVertex
 10
-435.6956371072733
 20
562.8921557747061
 30
0.0
  0
VERTEX
  5
370
330
355
100
AcDbEntity
  8
ACHSEN
100
AcDbVertex
100
AcDb2dVertex
 10
-434.9374326529723
 20
562.7561940917915
 30
0.0
  0
VERTEX
  5
371
330
355
100
AcDbEntity
  8
ACHSEN
100
AcDbVertex
100
AcDb2dVertex
 10
-434.1736731298523
 20
562.6004429237491
 30
0.0
  0
VERTEX
  5
372
330
355
100
AcDbEntity
  8
ACHSEN
100
AcDbVertex
100
AcDb2dVertex
 10
-433.4488509358298
 20
562.4397264530866
 30
0.0
  0
VERTEX
  5
373
330
355
100
AcDbEntity
  8
ACHSEN
100
AcDbVertex
100
AcDb2dVertex
 10
-430.8175962279371
 20
561.8208468023786
 30
0.0
  0
SEQEND
  5
374
330
355
100
AcDbEntity
  8
ACHSEN
  0
POLYLINE
  5
375
330
2
100
AcDbEntity
  8
ACHSEN
100
AcDb2dPolyline
 66
     1
 10
0.0
 20
0.0
 30
0.0
  0
VERTEX
  5
376
330
375
100
AcDbEntity
  8
ACHSEN
100
AcDbVertex
100
AcDb2dVertex
 10
-454.8168277503661
 20
679.7949470709868
 30
0.0
 91
       56
  0
VERTEX
  5
377
330
375
100
AcDbEntity
  8
ACHSEN
100
AcDbVertex
100
AcDb2dVertex
 10
-451.0188401703195
 20
678.235887328729
 30
0.0
 91
       57
  0
VERTEX
  5
378
330
375
100
AcDbEntity
  8
ACHSEN
100
AcDbVertex
100
AcDb2dVertex
 10
-449.4526537579168
 20
677.5932437606496
 30
0.0
  0
VERTEX
  5
379
330
375
100
AcDbEntity
  8
ACHSEN
100
AcDbVertex
100
AcDb2dVertex
 10
-448.1049067588505
 20
677.2169480129482
 30
0.0
  0
VERTEX
  5
37A
330
375
100
AcDbEntity
  8
ACHSEN
100
AcDbVertex
100
AcDb2dVertex
 10
-446.9481221872452
 20
677.0498372544161
 30
0.0
  0
VERTEX
  5
37B
330
375
100
AcDbEntity
  8
ACHSEN
100
AcDbVertex
100
AcDb2dVertex
 10
-445.9548230572022
 20
677.0347486538383
 30
0.0
  0
VERTEX
  5
37C
330
375
100
AcDbEntity
  8
ACHSEN
100
AcDbVertex
100
AcDb2dVertex
 10
-445.0975323828251
 20
677.1145193799998
 30
0.0
  0
VERTEX
  5
37D
330
375
100
AcDbEntity
  8
ACHSEN
100
AcDbVertex
100
AcDb2dVertex
 10
-444.3487731782163
 20
677.2319866016847
 30
0.0
  0
VERTEX
  5
37E
330
375
100
AcDbEntity
  8
ACHSEN
100
AcDbVertex
100
AcDb2dVertex
 10
-443.6810684574798
 20
677.3299874876787
 30
0.0
  0
VERTEX
  5
37F
330
375
100
AcDbEntity
  8
ACHSEN
100
AcDbVertex
100
AcDb2dVertex
 10
-443.0707479810698
 20
677.3634097520082
 30
0.0
  0
VERTEX
  5
380
330
375
100
AcDbEntity
  8
ACHSEN
100
AcDbVertex
100
AcDb2dVertex
 10
-442.5093684948548
 20
677.3353432896668
 30
0.0
  0
VERTEX
  5
381
330
375
100
AcDbEntity
  8
ACHSEN
100
AcDbVertex
100
AcDb2dVertex
 10
-441.992293491056
 20
677.2609285408902
 30
0.0
  0
VERTEX
  5
382
330
375
100
AcDbEntity
  8
ACHSEN
100
AcDbVertex
100
AcDb2dVertex
 10
-441.5148864618926
 20
677.1553059459137
 30
0.0
  0
VERTEX
  5
383
330
375
100
AcDbEntity
  8
ACHSEN
100
AcDbVertex
100
AcDb2dVertex
 10
-441.0725108995857
 20
677.033615944973
 30
0.0
  0
VERTEX
  5
384
330
375
100
AcDbEntity
  8
ACHSEN
100
AcDbVertex
100
AcDb2dVertex
 10
-440.6605302963551
 20
676.9109989783035
 30
0.0
  0
VERTEX
  5
385
330
375
100
AcDbEntity
  8
ACHSEN
100
AcDbVertex
100
AcDb2dVertex
 10
-440.2743081444226
 20
676.8025954861409
 30
0.0
  0
VERTEX
  5
386
330
375
100
AcDbEntity
  8
ACHSEN
100
AcDbVertex
100
AcDb2dVertex
 10
-439.9092079360084
 20
676.7235459087207
 30
0.0
  0
VERTEX
  5
387
330
375
100
AcDbEntity
  8
ACHSEN
100
AcDbVertex
100
AcDb2dVertex
 10
-439.5590528875373
 20
676.6845103586322
 30
0.0
  0
VERTEX
  5
388
330
375
100
AcDbEntity
  8
ACHSEN
100
AcDbVertex
100
AcDb2dVertex
 10
-439.2115051122564
 20
676.6782276378823
 30
0.0
  0
VERTEX
  5
389
330
375
100
AcDbEntity
  8
ACHSEN
100
AcDbVertex
100
AcDb2dVertex
 10
-438.8526864476171
 20
676.6929562208296
 30
0.0
  0
VERTEX
  5
38A
330
375
100
AcDbEntity
  8
ACHSEN
100
AcDbVertex
100
AcDb2dVertex
 10
-438.4687187310701
 20
676.7169545818354
 30
0.0
  0
VERTEX
  5
38B
330
375
100
AcDbEntity
  8
ACHSEN
100
AcDbVertex
100
AcDb2dVertex
 10
-438.0457238000674
 20
676.7384811952587
 30
0.0
  0
VERTEX
  5
38C
330
375
100
AcDbEntity
  8
ACHSEN
100
AcDbVertex
100
AcDb2dVertex
 10
-437.5698234920608
 20
676.7457945354602
 30
0.0
  0
VERTEX
  5
38D
330
375
100
AcDbEntity
  8
ACHSEN
100
AcDbVertex
100
AcDb2dVertex
 10
-437.0271396445013
 20
676.7271530767998
 30
0.0
  0
VERTEX
  5
38E
330
375
100
AcDbEntity
  8
ACHSEN
100
AcDbVertex
100
AcDb2dVertex
 10
-436.4037940948406
 20
676.6708152936371
 30
0.0
  0
VERTEX
  5
38F
330
375
100
AcDbEntity
  8
ACHSEN
100
AcDbVertex
100
AcDb2dVertex
 10
-435.6956371072733
 20
676.569467278357
 30
0.0
  0
VERTEX
  5
390
330
375
100
AcDbEntity
  8
ACHSEN
100
AcDbVertex
100
AcDb2dVertex
 10
-434.9374326529723
 20
676.4335055954423
 30
0.0
  0
VERTEX
  5
391
330
375
100
AcDbEntity
  8
ACHSEN
100
AcDbVertex
100
AcDb2dVertex
 10
-434.1736731298523
 20
676.2777544273999
 30
0.0
  0
VERTEX
  5
392
330
375
100
AcDbEntity
  8
ACHSEN
100
AcDbVertex
100
AcDb2dVertex
 10
-433.4488509358293
 20
676.1170379567372
 30
0.0
 91
       58
  0
VERTEX
  5
393
330
375
100
AcDbEntity
  8
ACHSEN
100
AcDbVertex
100
AcDb2dVertex
 10
-430.8162888853309
 20
675.7017574093952
 30
0.0
 91
       59
  0
SEQEND
  5
394
330
375
100
AcDbEntity
  8
ACHSEN
  0
POLYLINE
  5
395
330
2
100
AcDbEntity
  8
ACHSEN
100
AcDb2dPolyline
 66
     1
 10
0.0
 20
0.0
 30
0.0
  0
VERTEX
  5
396
330
395
100
AcDbEntity
  8
ACHSEN
100
AcDbVertex
100
AcDb2dVertex
 10
-454.8167574277181
 20
682.9578663390122
 30
0.0
 91
       54
  0
VERTEX
  5
397
330
395
100
AcDbEntity
  8
ACHSEN
100
AcDbVertex
100
AcDb2dVertex
 10
-451.0188401703191
 20
681.4618304286782
 30
0.0
 91
       55
  0
VERTEX
  5
398
330
395
100
AcDbEntity
  8
ACHSEN
100
AcDbVertex
100
AcDb2dVertex
 10
-449.4526537579168
 20
680.8191868605989
 30
0.0
  0
VERTEX
  5
399
330
395
100
AcDbEntity
  8
ACHSEN
100
AcDbVertex
100
AcDb2dVertex
 10
-448.1049067588505
 20
680.4428911128975
 30
0.0
  0
VERTEX
  5
39A
330
395
100
AcDbEntity
  8
ACHSEN
100
AcDbVertex
100
AcDb2dVertex
 10
-446.9481221872452
 20
680.2757803543652
 30
0.0
  0
VERTEX
  5
39B
330
395
100
AcDbEntity
  8
ACHSEN
100
AcDbVertex
100
AcDb2dVertex
 10
-445.9548230572022
 20
680.2606917537878
 30
0.0
  0
VERTEX
  5
39C
330
395
100
AcDbEntity
  8
ACHSEN
100
AcDbVertex
100
AcDb2dVertex
 10
-445.0975323828251
 20
680.3404624799489
 30
0.0
  0
VERTEX
  5
39D
330
395
100
AcDbEntity
  8
ACHSEN
100
AcDbVertex
100
AcDb2dVertex
 10
-444.3487731782163
 20
680.4579297016344
 30
0.0
  0
VERTEX
  5
39E
330
395
100
AcDbEntity
  8
ACHSEN
100
AcDbVertex
100
AcDb2dVertex
 10
-443.6810684574798
 20
680.5559305876281
 30
0.0
  0
VERTEX
  5
39F
330
395
100
AcDbEntity
  8
ACHSEN
100
AcDbVertex
100
AcDb2dVertex
 10
-443.0707479810698
 20
680.5893528519577
 30
0.0
  0
VERTEX
  5
3A0
330
395
100
AcDbEntity
  8
ACHSEN
100
AcDbVertex
100
AcDb2dVertex
 10
-442.5093684948548
 20
680.5612863896162
 30
0.0
  0
VERTEX
  5
3A1
330
395
100
AcDbEntity
  8
ACHSEN
100
AcDbVertex
100
AcDb2dVertex
 10
-441.992293491056
 20
680.4868716408392
 30
0.0
  0
VERTEX
  5
3A2
330
395
100
AcDbEntity
  8
ACHSEN
100
AcDbVertex
100
AcDb2dVertex
 10
-441.5148864618926
 20
680.3812490458631
 30
0.0
  0
VERTEX
  5
3A3
330
395
100
AcDbEntity
  8
ACHSEN
100
AcDbVertex
100
AcDb2dVertex
 10
-441.0725108995857
 20
680.2595590449223
 30
0.0
  0
VERTEX
  5
3A4
330
395
100
AcDbEntity
  8
ACHSEN
100
AcDbVertex
100
AcDb2dVertex
 10
-440.6605302963551
 20
680.1369420782527
 30
0.0
  0
VERTEX
  5
3A5
330
395
100
AcDbEntity
  8
ACHSEN
100
AcDbVertex
100
AcDb2dVertex
 10
-440.2743081444226
 20
680.0285385860902
 30
0.0
  0
VERTEX
  5
3A6
330
395
100
AcDbEntity
  8
ACHSEN
100
AcDbVertex
100
AcDb2dVertex
 10
-439.9092079360084
 20
679.94948900867
 30
0.0
  0
VERTEX
  5
3A7
330
395
100
AcDbEntity
  8
ACHSEN
100
AcDbVertex
100
AcDb2dVertex
 10
-439.5590528875373
 20
679.9104534585817
 30
0.0
  0
VERTEX
  5
3A8
330
395
100
AcDbEntity
  8
ACHSEN
100
AcDbVertex
100
AcDb2dVertex
 10
-439.2115051122564
 20
679.9041707378314
 30
0.0
  0
VERTEX
  5
3A9
330
395
100
AcDbEntity
  8
ACHSEN
100
AcDbVertex
100
AcDb2dVertex
 10
-438.8526864476171
 20
679.918899320779
 30
0.0
  0
VERTEX
  5
3AA
330
395
100
AcDbEntity
  8
ACHSEN
100
AcDbVertex
100
AcDb2dVertex
 10
-438.4687187310701
 20
679.9428976817846
 30
0.0
  0
VERTEX
  5
3AB
330
395
100
AcDbEntity
  8
ACHSEN
100
AcDbVertex
100
AcDb2dVertex
 10
-438.0457238000674
 20
679.9644242952081
 30
0.0
  0
VERTEX
  5
3AC
330
395
100
AcDbEntity
  8
ACHSEN
100
AcDbVertex
100
AcDb2dVertex
 10
-437.5698234920608
 20
679.9717376354092
 30
0.0
  0
VERTEX
  5
3AD
330
395
100
AcDbEntity
  8
ACHSEN
100
AcDbVertex
100
AcDb2dVertex
 10
-437.0271396445013
 20
679.9530961767491
 30
0.0
  0
VERTEX
  5
3AE
330
395
100
AcDbEntity
  8
ACHSEN
100
AcDbVertex
100
AcDb2dVertex
 10
-436.4037940948406
 20
679.8967583935863
 30
0.0
  0
VERTEX
  5
3AF
330
395
100
AcDbEntity
  8
ACHSEN
100
AcDbVertex
100
AcDb2dVertex
 10
-435.6956371072733
 20
679.7954103783062
 30
0.0
  0
VERTEX
  5
3B0
330
395
100
AcDbEntity
  8
ACHSEN
100
AcDbVertex
100
AcDb2dVertex
 10
-434.9374326529723
 20
679.6594486953916
 30
0.0
  0
VERTEX
  5
3B1
330
395
100
AcDbEntity
  8
ACHSEN
100
AcDbVertex
100
AcDb2dVertex
 10
-434.1736731298523
 20
679.5036975273492
 30
0.0
  0
VERTEX
  5
3B2
330
395
100
AcDbEntity
  8
ACHSEN
100
AcDbVertex
100
AcDb2dVertex
 10
-433.4488509358298
 20
679.3429810566867
 30
0.0
 91
       52
  0
VERTEX
  5
3B3
330
395
100
AcDbEntity
  8
ACHSEN
100
AcDbVertex
100
AcDb2dVertex
 10
-430.8162519650375
 20
678.9178360563441
 30
0.0
 91
       53
  0
SEQEND
  5
3B4
330
395
100
AcDbEntity
  8
ACHSEN
  0
CIRCLE
  5
3B5
330
2
100
AcDbEntity
  8
UMRISS05
100
AcDbCircle
 10
-442.8162260568003
 20
706.4682898374597
 30
0.0
 40
3.5
  0
CIRCLE
  5
3B6
330
2
100
AcDbEntity
  8
UMRISS05
100
AcDbCircle
 10
-442.8162260568003
 20
706.4682898374597
 30
0.0
 40
4.75
  0
LINE
  5
3B7
330
2
100
AcDbEntity
  8
ACHSEN
100
AcDbLine
 10
-442.8162260568003
 20
832.4682898374597
 30
0.0
 11
-442.8162260568003
 21
784.4682898374599
 31
0.0
  0
LINE
  5
3B8
330
2
100
AcDbEntity
  8
ACHSEN
 48
0.5
100
AcDbLine
 10
-438.5662260567998
 20
767.4682898374601
 30
0.0
 11
-447.0662260567998
 21
767.4682898374601
 31
0.0
  0
LINE
  5
3B9
330
2
100
AcDbEntity
  8
ACHSEN
 48
0.5
100
AcDbLine
 10
-442.8162260568001
 20
763.2182898374597
 30
0.0
 11
-442.8162260568001
 21
771.7182898374597
 31
0.0
  0
LINE
  5
3BA
330
2
100
AcDbEntity
  8
ACHSEN
 48
0.5
100
AcDbLine
 10
-438.5662260567998
 20
778.4682898374601
 30
0.0
 11
-447.0662260567998
 21
778.4682898374601
 31
0.0
  0
LINE
  5
3BB
330
2
100
AcDbEntity
  8
ACHSEN
 48
0.5
100
AcDbLine
 10
-442.8162260568001
 20
774.2182898374599
 30
0.0
 11
-442.8162260568001
 21
782.7182898374599
 31
0.0
  0
LINE
  5
3BC
330
2
100
AcDbEntity
  8
ACHSEN
100
AcDbLine
 10
-450.8162260568001
 20
808.4682898374595
 30
0.0
 11
-434.8162260568001
 21
808.4682898374595
 31
0.0
  0
LINE
  5
3BD
330
2
100
AcDbEntity
  8
UMRISS05
100
AcDbLine
 10
-430.816226056805
 20
758.0080647789557
 30
0.0
 11
-430.816226056805
 21
733.669235037207
 31
0.0
  0
LINE
  5
3BE
330
2
100
AcDbEntity
  8
UMRISS05
100
AcDbLine
 10
-430.8206580755275
 20
1340.980202149159
 30
0.0
 11
-430.8206580755275
 21
1275.932929449994
 31
0.0
  0
LINE
  5
3BF
330
2
100
AcDbEntity
  8
UMRISS05
100
AcDbLine
 10
-430.8206580755275
 20
1375.818940731088
 30
0.0
 11
-430.8206580755275
 21
1344.290158837104
 31
0.0
  0
LINE
  5
3C0
330
2
100
AcDbEntity
  8
UMRISS05
100
AcDbLine
 10
-454.8167574277361
 20
682.9578663390122
 30
0.0
 11
-454.8178883011734
 21
1021.741411983826
 31
0.0
  0
LINE
  5
3C1
330
2
100
AcDbEntity
  8
UMRISS05
100
AcDbLine
 10
-454.8193630309981
 20
565.7649978731932
 30
0.0
 11
-454.8168277503665
 21
679.7949470709868
 31
0.0
  0
LINE
  5
3C2
330
2
100
AcDbEntity
  8
UMRISS05
100
AcDbLine
 10
-454.820658075527
 20
507.5174571733721
 30
0.0
 11
-454.8194336672458
 21
562.5879737559463
 31
0.0
  0
LINE
  5
3C3
330
2
100
AcDbEntity
  8
UMRISS05
100
AcDbLine
 10
-454.8206580755275
 20
1348.226911506463
 30
0.0
 11
-454.8206580755275
 21
1375.818940731088
 31
0.0
  0
LINE
  5
3C4
330
2
100
AcDbEntity
  8
UMRISS05
100
AcDbLine
 10
-454.8288462720801
 20
1211.781281840188
 30
0.0
 11
-454.8288462720801
 21
1345.009908443946
 31
0.0
  0
LINE
  5
3C5
330
2
100
AcDbEntity
  8
UMRISS05
100
AcDbLine
 10
-430.816226056805
 20
706.8574686406241
 30
0.0
 11
-430.816226056805
 21
681.1746689209227
 31
0.0
  0
LINE
  5
3C6
330
2
100
AcDbEntity
  8
UMRISS05
100
AcDbLine
 10
-454.8206580755275
 20
471.2379301094092
 30
0.0
 11
-454.8206580755275
 21
508.6476401074248
 31
0.0
  0
LINE
  5
3C7
330
2
100
AcDbEntity
  8
UMRISS05
100
AcDbLine
 10
-454.820658075527
 20
309.0001538980708
 30
0.0
 11
-454.820658075527
 21
468.0217323272116
 31
0.0
  0
LINE
  5
3C8
330
2
100
AcDbEntity
  8
UMRISS05
100
AcDbLine
 10
-430.8205881650953
 20
301.1971003361377
 30
0.0
 11
-430.8206580755275
 21
295.1072936959189
 31
0.0
  0
LINE
  5
3C9
330
2
100
AcDbEntity
  8
UMRISS05
100
AcDbLine
 10
-430.818718447425
 20
464.0657698215051
 30
0.0
 11
-430.8205501671672
 21
304.5070503216241
 31
0.0
  0
LINE
  5
3CA
330
2
100
AcDbEntity
  8
UMRISS05
100
AcDbLine
 10
-430.8176342269494
 20
558.5108023906895
 30
0.0
 11
-430.8186804488106
 21
467.3757795747767
 31
0.0
  0
LINE
  5
3CB
330
2
100
AcDbEntity
  8
UMRISS05
100
AcDbLine
 10
-430.8162888853309
 20
675.7017574093952
 30
0.0
 11
-430.8175962279371
 21
561.8208468023786
 31
0.0
  0
LINE
  5
3CC
330
2
100
AcDbEntity
  8
UMRISS05
100
AcDbLine
 10
-430.8162260568001
 20
681.1746688210089
 30
0.0
 11
-430.8162519650371
 21
678.9178360563441
 31
0.0
  0
LINE
  5
3CD
330
2
100
AcDbEntity
  8
UMRISS05
100
AcDbLine
 10
-430.816226056805
 20
733.669235037207
 30
0.0
 11
-430.816226056805
 21
706.8574686406241
 31
0.0
  0
LINE
  5
3CE
330
2
100
AcDbEntity
  8
UMRISS05
100
AcDbLine
 10
-454.8206580755276
 20
1375.818940731088
 30
0.0
 11
-454.8206580755276
 21
1382.375013979558
 31
0.0
  0
LINE
  5
3CF
330
2
100
AcDbEntity
  8
UMRISS05
100
AcDbLine
 10
-454.8206580755275
 20
1208.677502825886
 30
0.0
 11
-454.8206580755275
 21
1150.183724453597
 31
0.0
  0
LINE
  5
3D0
330
2
100
AcDbEntity
  8
UMRISS05
100
AcDbLine
 10
-430.8206580755275
 20
1204.60715119589
 30
0.0
 11
-430.8206580755275
 21
1150.01298877677
 31
0.0
  0
LINE
  5
3D1
330
2
100
AcDbEntity
  8
UMRISS05
100
AcDbLine
 10
-430.8206580755275
 20
1211.491164514379
 30
0.0
 11
-430.8206580755275
 21
1207.917107883835
 31
0.0
  0
LINE
  5
3D2
330
2
100
AcDbEntity
  8
UMRISS05
100
AcDbLine
 10
-430.8178008603163
 20
1017.522861244744
 30
0.0
 11
-430.8162260568001
 21
944.4986389583586
 31
0.0
  0
LINE
  5
3D3
330
2
100
AcDbEntity
  8
UMRISS05
100
AcDbLine
 10
-430.820505224849
 20
1142.925246219323
 30
0.0
 11
-430.8178722752765
 21
1020.834399403191
 31
0.0
  0
LINE
  5
3D4
330
2
100
AcDbEntity
  8
UMRISS05
100
AcDbLine
 10
-430.8206580755284
 20
1150.01298877677
 30
0.0
 11
-430.8205766061727
 21
1146.235224582457
 31
0.0
  0
LINE
  5
3D5
330
2
100
AcDbEntity
  8
UMRISS05
100
AcDbLine
 10
-454.817962674523
 20
1025.185913916688
 30
0.0
 11
-454.8205930597283
 21
1147.002033438448
 31
0.0
  0
ARC
  5
3D6
330
2
100
AcDbEntity
  8
UMRISS05
100
AcDbCircle
 10
-431.1162260571514
 20
932.7682898374607
 30
0.0
 40
0.3
100
AcDbArc
 50
270.0
 51
0.0
1001
GENIUS_GENOBJ-N-FIL_13
1002
{
1000
OWNER
1000
GEN
1002
}
1001
GENIUS_GENODEF_13
1002
{
1000
HIER
1070
     0
1002
}
1002
{
1000
MANEDIT
1070
     0
1002
}
1002
{
1000
NOSEL
1070
     0
1002
}
1002
{
1000
BEHIND
1070
     0
1002
}
1002
{
1000
OTHER
1070
     0
1002
}
1002
{
1000
REACTOR
1002
}
  0
LINE
  5
3D9
330
2
100
AcDbEntity
  8
UMRISS05
100
AcDbLine
 10
-430.8162260571516
 20
944.7611792927173
 30
0.0
 11
-430.8162260571516
 21
932.7682898374607
 31
0.0
  0
LINE
  5
3DA
330
2
100
AcDbEntity
  8
UMRISS05
100
AcDbLine
 10
-454.8206580755275
 20
295.1072936959189
 30
0.0
 11
-454.8206580755275
 21
305.0001386392818
 31
0.0
  0
LINE
  5
3DB
330
2
100
AcDbEntity
  8
UMRISS05
100
AcDbLine
 10
-430.8206580755281
 20
295.1072936959191
 30
0.0
 11
-454.8206580755281
 21
295.1072936959191
 31
0.0
  0
LINE
  5
3DC
330
2
100
AcDbEntity
  8
UMRISS05
100
AcDbLine
 10
-430.8206580755275
 20
1275.932929449994
 30
0.0
 11
-430.8206580755275
 21
1211.491164514379
 31
0.0
  0
LINE
  5
3DD
330
2
100
AcDbEntity
  8
UMRISS05
100
AcDbLine
 10
-454.8206580755276
 20
1382.375013979558
 30
0.0
 11
-430.8206580755275
 21
1382.375013979558
 31
0.0
  0
ARC
  5
3DE
330
2
100
AcDbEntity
  8
UMRISS05
100
AcDbCircle
 10
-431.1162260568051
 20
884.1682898374607
 30
0.0
 40
0.3
100
AcDbArc
 50
0.0
 51
90.0
1001
GENIUS_GENOBJ-N-FIL_13
1002
{
1000
OWNER
1000
GEN
1002
}
1001
GENIUS_GENODEF_13
1002
{
1000
HIER
1070
     0
1002
}
1002
{
1000
MANEDIT
1070
     0
1002
}
1002
{
1000
NOSEL
1070
     0
1002
}
1002
{
1000
BEHIND
1070
     0
1002
}
1002
{
1000
OTHER
1070
     0
1002
}
1002
{
1000
REACTOR
1002
}
  0
LINE
  5
3DF
330
2
100
AcDbEntity
  8
UMRISS05
100
AcDbLine
 10
-430.816226056805
 20
884.1682898374607
 30
0.0
 11
-430.816226056805
 21
758.0080647789557
 31
0.0
  0
LINE
  5
3E0
330
2
100
AcDbEntity
  8
UMRISS05
100
AcDbLine
 10
-430.8206580755275
 20
1382.375013979558
 30
0.0
 11
-430.8206580755275
 21
1375.818940731088
 31
0.0
  0
LINE
  5
3E1
330
2
100
AcDbEntity
  8
UMRISS05
100
AcDbLine
 10
-448.3206580755277
 20
431.9729294499953
 30
0.0
 11
-437.3206580755277
 21
431.9729294499953
 31
0.0
  0
ARC
  5
3E2
330
2
100
AcDbEntity
  8
UMRISS05
100
AcDbCircle
 10
-437.3206580755279
 20
1259.972929449993
 30
0.0
 40
2.00000000000017
100
AcDbArc
 50
0.0000000000130276
 51
90.0
  0
LINE
  5
3E3
330
2
100
AcDbEntity
  8
UMRISS05
100
AcDbLine
 10
-435.3206580755268
 20
429.9729294499952
 30
0.0
 11
-435.3206580755268
 21
386.9729294499952
 31
0.0
  0
ARC
  5
3E4
330
2
100
AcDbEntity
  8
UMRISS05
100
AcDbCircle
 10
-448.3206580755272
 20
1259.972929449993
 30
0.0
 40
2.000000000000053
100
AcDbArc
 50
90.0
 51
179.999999999987
  0
LINE
  5
3E5
330
2
100
AcDbEntity
  8
UMRISS05
100
AcDbLine
 10
-437.3206580755277
 20
384.9729294499955
 30
0.0
 11
-448.3206580755277
 21
384.9729294499955
 31
0.0
  0
ARC
  5
3E6
330
2
100
AcDbEntity
  8
UMRISS05
100
AcDbCircle
 10
-448.3206580755275
 20
1216.972929449994
 30
0.0
 40
2.00000000000017
100
AcDbArc
 50
180.000000000013
 51
270.0
  0
LINE
  5
3E7
330
2
100
AcDbEntity
  8
UMRISS05
100
AcDbLine
 10
-450.320658075527
 20
386.9729294499952
 30
0.0
 11
-450.320658075527
 21
429.9729294499952
 31
0.0
  0
ARC
  5
3E8
330
2
100
AcDbEntity
  8
UMRISS05
100
AcDbCircle
 10
-437.3206580755279
 20
1216.972929449994
 30
0.0
 40
1.999999999999844
100
AcDbArc
 50
270.0
 51
0.0
  0
LINE
  5
3E9
330
2
100
AcDbEntity
  8
UMRISS05
100
AcDbLine
 10
-448.3162260568001
 20
831.9682898374601
 30
0.0
 11
-437.3162260568006
 21
831.9682898374601
 31
0.0
  0
LINE
  5
3EA
330
2
100
AcDbEntity
  8
UMRISS05
100
AcDbLine
 10
-435.3162260568001
 20
829.9682898374594
 30
0.0
 11
-435.3162260568001
 21
786.9682898374599
 31
0.0
  0
LINE
  5
3EB
330
2
100
AcDbEntity
  8
UMRISS05
100
AcDbLine
 10
-437.3162260568001
 20
784.9682898374601
 30
0.0
 11
-448.3162260568001
 21
784.9682898374601
 31
0.0
  0
LINE
  5
3EC
330
2
100
AcDbEntity
  8
UMRISS05
100
AcDbLine
 10
-450.3162260568003
 20
786.9682898374599
 30
0.0
 11
-450.3162260568003
 21
829.9682898374594
 31
0.0
  0
ARC
  5
3ED
330
2
100
AcDbEntity
  8
UMRISS05
100
AcDbCircle
 10
-448.3162260568001
 20
829.9682898374594
 30
0.0
 40
1.999999999999849
100
AcDbArc
 50
90.0
 51
179.9999999999935
  0
ARC
  5
3EE
330
2
100
AcDbEntity
  8
UMRISS05
100
AcDbCircle
 10
-448.3162260568001
 20
786.9682898374599
 30
0.0
 40
1.999999999999884
100
AcDbArc
 50
180.0
 51
270.0
  0
ARC
  5
3EF
330
2
100
AcDbEntity
  8
UMRISS05
100
AcDbCircle
 10
-437.3162260568003
 20
786.9682898374599
 30
0.0
 40
1.999999999999428
100
AcDbArc
 50
270.0
 51
0.0
  0
ARC
  5
3F0
330
2
100
AcDbEntity
  8
UMRISS05
100
AcDbCircle
 10
-437.3162260568001
 20
829.9682898374594
 30
0.0
 40
1.999999999999744
100
AcDbArc
 50
0.0
 51
90.0
  0
LINE
  5
3F1
330
2
100
AcDbEntity
  8
UMRISS05
100
AcDbLine
 10
-435.3206580755275
 20
1259.972929449994
 30
0.0
 11
-435.3206580755275
 21
1216.972929449994
 31
0.0
  0
ARC
  5
3F2
330
2
100
AcDbEntity
  8
UMRISS05
100
AcDbCircle
 10
-448.3206580755266
 20
429.9729294499949
 30
0.0
 40
1.999999999999753
100
AcDbArc
 50
90.0
 51
180.0
  0
LINE
  5
3F3
330
2
100
AcDbEntity
  8
UMRISS05
100
AcDbLine
 10
-437.3206580755272
 20
1214.972929449994
 30
0.0
 11
-448.3206580755275
 21
1214.972929449994
 31
0.0
  0
ARC
  5
3F4
330
2
100
AcDbEntity
  8
UMRISS05
100
AcDbCircle
 10
-448.3206580755266
 20
386.972929449995
 30
0.0
 40
1.999999999999884
100
AcDbArc
 50
180.0
 51
270.0
  0
LINE
  5
3F5
330
2
100
AcDbEntity
  8
UMRISS05
100
AcDbLine
 10
-450.3206580755273
 20
1216.972929449994
 30
0.0
 11
-450.3206580755273
 21
1259.972929449994
 31
0.0
  0
ARC
  5
3F6
330
2
100
AcDbEntity
  8
UMRISS05
100
AcDbCircle
 10
-437.320658075527
 20
386.972929449995
 30
0.0
 40
1.999999999999485
100
AcDbArc
 50
270.0
 51
0.0
  0
LINE
  5
3F7
330
2
100
AcDbEntity
  8
UMRISS05
100
AcDbLine
 10
-448.3206580755275
 20
1261.972929449993
 30
0.0
 11
-437.3206580755272
 21
1261.972929449993
 31
0.0
  0
ARC
  5
3F8
330
2
100
AcDbEntity
  8
UMRISS05
100
AcDbCircle
 10
-437.320658075527
 20
429.9729294499949
 30
0.0
 40
1.999999999999795
100
AcDbArc
 50
0.0
 51
90.0
  0
CIRCLE
  5
3F9
330
2
100
AcDbEntity
  8
UMRISS05
100
AcDbCircle
 10
-442.8162260568001
 20
882.2182898374606
 30
0.0
 40
4.0
  0
CIRCLE
  5
3FA
330
2
100
AcDbEntity
  8
UMRISS05
100
AcDbCircle
 10
-442.8162260568001
 20
934.7182898374606
 30
0.0
 40
4.0
  0
CIRCLE
  5
3FB
330
2
100
AcDbEntity
  8
UMRISS05
100
AcDbCircle
 10
-442.8162260568001
 20
767.4682898374599
 30
0.0
 40
1.75
  0
CIRCLE
  5
3FC
330
2
100
AcDbEntity
  8
UMRISS05
100
AcDbCircle
 10
-442.8162260568001
 20
778.4682898374597
 30
0.0
 40
1.75
  0
CIRCLE
  5
3FD
330
2
100
AcDbEntity
  8
UMRISS05
100
AcDbCircle
 10
-442.8162260568001
 20
858.4918224628427
 30
0.0
 40
3.5
  0
CIRCLE
  5
3FE
330
2
100
AcDbEntity
  8
UMRISS05
100
AcDbCircle
 10
-442.8162260568001
 20
858.4682898374602
 30
0.0
 40
4.75
  0
CIRCLE
  5
3FF
330
2
100
AcDbEntity
  8
UMRISS05
100
AcDbCircle
 10
-442.8206580755275
 20
319.9329294499947
 30
0.0
 40
3.5
  0
CIRCLE
  5
400
330
2
100
AcDbEntity
  8
UMRISS05
100
AcDbCircle
 10
-442.8162260568003
 20
498.6982567177298
 30
0.0
 40
3.5
  0
CIRCLE
  5
401
330
2
100
AcDbEntity
  8
UMRISS05
100
AcDbCircle
 10
-442.8162260568001
 20
617.0615113213299
 30
0.0
 40
3.5
  0
CIRCLE
  5
402
330
2
100
AcDbEntity
  8
UMRISS05
100
AcDbCircle
 10
-442.8162260568001
 20
962.7968780436278
 30
0.0
 40
3.5
  0
CIRCLE
  5
403
330
2
100
AcDbEntity
  8
UMRISS05
100
AcDbCircle
 10
-442.8162260568001
 20
1081.071933503172
 30
0.0
 40
3.5
  0
CIRCLE
  5
404
330
2
100
AcDbEntity
  8
UMRISS05
100
AcDbCircle
 10
-442.8206580755275
 20
1196.026389761242
 30
0.0
 40
3.5
  0
CIRCLE
  5
405
330
2
100
AcDbEntity
  8
UMRISS05
100
AcDbCircle
 10
-442.8206580755275
 20
1361.385375755482
 30
0.0
 40
3.5
  0
CIRCLE
  5
406
330
2
100
AcDbEntity
  8
UMRISS05
100
AcDbCircle
 10
-442.8206580755275
 20
319.9329294499947
 30
0.0
 40
4.75
  0
CIRCLE
  5
407
330
2
100
AcDbEntity
  8
UMRISS05
100
AcDbCircle
 10
-442.8162260568003
 20
498.6982567177298
 30
0.0
 40
4.75
  0
CIRCLE
  5
408
330
2
100
AcDbEntity
  8
UMRISS05
100
AcDbCircle
 10
-442.8162260568003
 20
617.0615113213297
 30
0.0
 40
4.75
  0
CIRCLE
  5
409
330
2
100
AcDbEntity
  8
UMRISS05
100
AcDbCircle
 10
-442.8162260568001
 20
962.7968780436278
 30
0.0
 40
4.75
  0
CIRCLE
  5
40A
330
2
100
AcDbEntity
  8
UMRISS05
100
AcDbCircle
 10
-442.8162260568001
 20
1081.07193350317
 30
0.0
 40
4.75
  0
CIRCLE
  5
40B
330
2
100
AcDbEntity
  8
UMRISS05
100
AcDbCircle
 10
-442.8206580755275
 20
1196.026389761242
 30
0.0
 40
4.75
  0
CIRCLE
  5
40C
330
2
100
AcDbEntity
  8
UMRISS05
100
AcDbCircle
 10
-442.8206580755275
 20
1361.385375755488
 30
0.0
 40
4.75
  0
LINE
  5
6F4
330
2
100
AcDbEntity
  8
ACHSEN
 48
0.5
100
AcDbLine
 10
-467.3445660637772
 20
868.4729294499961
 30
0.0
 11
-311.9033762170029
 21
868.4729294499961
 31
0.0
  0
MTEXT
  5
715
330
2
100
AcDbEntity
  8
UMRISS05
 62
     3
100
AcDbMText
 10
-337.6164882046668
 20
873.8269536786607
 30
0.0
 40
8.0
 41
0.0
 46
0.0
 71
     5
 72
     1
  1
\A1;Drückeraxe
  7
ARIAL-STANDARD
 73
     1
 44
1.0
  0
ENDSEC
  0
SECTION
  2
OBJECTS
  0
DICTIONARY
  5
C
330
0
100
AcDbDictionary
281
     1
  3
ACAD_CIP_PREVIOUS_PRODUCT_INFO
350
4AA
  3
ACAD_COLOR
350
5F
  3
ACAD_DETAILVIEWSTYLE
350
42E
  3
ACAD_FIELDLIST
350
469
  3
ACAD_GROUP
350
4C
  3
ACAD_LAYOUT
350
19
  3
ACAD_MATERIAL
350
E
  3
ACAD_MLEADERSTYLE
350
62
  3
ACAD_MLINESTYLE
350
4D
  3
ACAD_PLOTSETTINGS
350
4E
  3
ACAD_PLOTSTYLENAME
350
B
  3
ACAD_SCALELIST
350
60
  3
ACAD_SECTIONVIEWSTYLE
350
43C
  3
ACAD_TABLESTYLE
350
61
  3
ACAD_VISUALSTYLE
350
32
  3
ACDB_RECOMPOSE_DATA
350
7B7
  3
AcDbVariableDictionary
350
46D
  3
AcmDictionary
350
41E
  3
AMG
350
40F
  3
AMGSNAPSETTINGS
350
50C
  0
DICTIONARY
  5
21
330
20
100
AcDbDictionary
280
     1
281
     1
  3
ACAD_LAYERFILTERS
360
22
  3
ACAD_LAYERSTATES
360
23
  3
ACLYDICTIONARY
360
24
  3
AMLAYER_GROUPCOLORS
360
26
  0
DICTIONARY
  5
8
330
7
100
AcDbDictionary
280
     1
281
     1
  3
ADSK_XREC_LAYER_RECONCILED
360
9
  0
DICTIONARY
  5
B3
330
B2
100
AcDbDictionary
280
     1
281
     1
  3
ADSK_XREC_LAYER_RECONCILED
360
B4
  0
DICTIONARY
  5
7E
330
7D
100
AcDbDictionary
280
     1
281
     1
  3
ADSK_XREC_LAYER_RECONCILED
360
7F
  0
DICTIONARY
  5
B8
330
B7
100
AcDbDictionary
280
     1
281
     1
  3
ADSK_XREC_LAYER_RECONCILED
360
B9
  0
DICTIONARY
  5
64
330
63
100
AcDbDictionary
280
     1
281
     1
  0
DICTIONARY
  5
3
330
2
100
AcDbDictionary
280
     1
281
     1
  3
ACAD_ASSOCNETWORK
360
4
  3
ACAD_SORTENTS
360
40D
  0
XRECORD
  5
4AA
102
{ACAD_REACTORS
330
C
102
}
330
C
100
AcDbXrecord
280
     1
300
AMECH_PP
300
2014
300
PDSU_F_S
  0
DICTIONARY
  5
5F
102
{ACAD_REACTORS
330
C
102
}
330
C
100
AcDbDictionary
281
     1
  0
DICTIONARY
  5
42E
102
{ACAD_REACTORS
330
C
102
}
330
C
100
AcDbDictionary
281
     1
  3
Imperial24
350
435
  3
Metric50
350
438
  0
FIELDLIST
  5
469
102
{ACAD_REACTORS
330
C
102
}
330
C
100
AcDbIdSet
 90
        6
330
79F
330
7A0
330
7A1
330
7A5
330
7A6
330
7A7
100
AcDbFieldList
  0
DICTIONARY
  5
4C
102
{ACAD_REACTORS
330
C
102
}
330
C
100
AcDbDictionary
281
     1
  0
DICTIONARY
  5
19
102
{ACAD_REACTORS
330
C
102
}
330
C
100
AcDbDictionary
281
     1
  3
Layout1
350
1F
  3
Model
350
18
  0
DICTIONARY
  5
E
102
{ACAD_REACTORS
330
C
102
}
330
C
100
AcDbDictionary
281
     1
  3
ByBlock
350
57
  3
ByLayer
350
4F
  3
Global
350
D
  0
DICTIONARY
  5
62
102
{ACAD_REACTORS
330
C
102
}
330
C
100
AcDbDictionary
281
     1
  3
Standard
350
4A3
  0
DICTIONARY
  5
4D
102
{ACAD_REACTORS
330
C
102
}
330
C
100
AcDbDictionary
281
     1
  3
STANDARD
350
66
  0
DICTIONARY
  5
4E
102
{ACAD_REACTORS
330
C
102
}
330
C
100
AcDbDictionary
281
     1
  0
ACDBDICTIONARYWDFLT
  5
B
102
{ACAD_REACTORS
330
C
102
}
330
C
100
AcDbDictionary
281
     1
  3
Normal
350
A
100
AcDbDictionaryWithDefault
340
A
  0
DICTIONARY
  5
60
102
{ACAD_REACTORS
330
C
102
}
330
C
100
AcDbDictionary
281
     1
  3
A0
350
6B
  3
A1
350
6C
  3
A2
350
6D
  3
A3
350
6E
  3
A4
350
6F
  3
A5
350
70
  3
A6
350
71
  3
A7
350
72
  3
A8
350
73
  3
A9
350
74
  3
B0
350
75
  3
B1
350
76
  3
B2
350
77
  3
B3
350
78
  3
B4
350
79
  3
B5
350
7A
  3
B6
350
7B
  0
DICTIONARY
  5
43C
102
{ACAD_REACTORS
330
C
102
}
330
C
100
AcDbDictionary
281
     1
  3
Imperial24
350
447
  3
Metric50
350
44A
  0
DICTIONARY
  5
61
102
{ACAD_REACTORS
330
C
102
}
330
C
100
AcDbDictionary
281
     1
  3
Standard
350
67
  0
DICTIONARY
  5
32
102
{ACAD_REACTORS
330
C
102
}
330
C
100
AcDbDictionary
281
     1
  3
2dWireframe
350
31
  3
Basic
350
492
  3
Brighten
350
496
  3
ColorChange
350
49A
  3
Conceptual
350
494
  3
Dim
350
495
  3
EdgeColorOff
350
4A2
  3
Facepattern
350
499
  3
Flat
350
48E
  3
FlatWithEdges
350
48F
  3
Gouraud
350
490
  3
GouraudWithEdges
350
491
  3
Hidden
350
493
  3
JitterOff
350
4A0
  3
Linepattern
350
498
  3
OverhangOff
350
4A1
  3
Realistic
350
69
  3
Shaded
350
49F
  3
Shaded with edges
350
49E
  3
Shades of Gray
350
49B
  3
Sketchy
350
49C
  3
Thicken
350
497
  3
Wireframe
350
6A
  3
X-Ray
350
49D
  0
XRECORD
  5
7B7
102
{ACAD_REACTORS
330
C
102
}
330
C
100
AcDbXrecord
280
     1
 90
        1
330
67
  0
DICTIONARY
  5
46D
102
{ACAD_REACTORS
330
C
102
}
330
C
100
AcDbDictionary
281
     1
  3
CANNOSCALE
350
473
  3
CMLEADERSTYLE
350
46F
  3
CTABLESTYLE
350
46E
  3
CVIEWDETAILSTYLE
350
470
  3
CVIEWSECTIONSTYLE
350
471
  3
LAYEREVAL
350
475
  3
LAYERNOTIFY
350
476
  3
LIGHTINGUNITS
350
474
  3
MSLTSCALE
350
472
  0
DICTIONARY
  5
41E
102
{ACAD_REACTORS
330
C
102
}
330
C
100
AcDbDictionary
281
     1
  3
AcmStdDictionary
350
41F
  0
DICTIONARY
  5
40F
102
{ACAD_REACTORS
330
C
102
}
330
C
100
AcDbDictionary
281
     1
  0
DICTIONARY
  5
50C
102
{ACAD_REACTORS
330
C
102
}
330
C
100
AcDbDictionary
281
     1
  0
DICTIONARY
  5
22
102
{ACAD_REACTORS
330
21
102
}
330
21
100
AcDbDictionary
281
     1
  0
DICTIONARY
  5
23
102
{ACAD_REACTORS
330
21
102
}
330
21
100
AcDbDictionary
281
     1
  0
DICTIONARY
  5
24
102
{ACAD_REACTORS
330
21
102
}
330
21
100
AcDbDictionary
281
     1
1001
ACAD
1000
<All
  0
DICTIONARY
  5
26
102
{ACAD_REACTORS
330
21
102
}
330
21
100
AcDbDictionary
280
     1
281
     1
  0
XRECORD
  5
9
102
{ACAD_REACTORS
330
8
102
}
330
8
100
AcDbXrecord
280
     1
290
     1
  0
XRECORD
  5
B4
102
{ACAD_REACTORS
330
B3
102
}
330
B3
100
AcDbXrecord
280
     1
290
     1
  0
XRECORD
  5
7F
102
{ACAD_REACTORS
330
7E
102
}
330
7E
100
AcDbXrecord
280
     1
290
     1
  0
XRECORD
  5
B9
102
{ACAD_REACTORS
330
B8
102
}
330
B8
100
AcDbXrecord
280
     1
290
     1
  0
DICTIONARY
  5
4
102
{ACAD_REACTORS
330
3
102
}
330
3
100
AcDbDictionary
281
     1
  0
SORTENTSTABLE
  5
40D
102
{ACAD_REACTORS
330
3
102
}
330
3
100
AcDbSortentsTable
330
2
331
3BE
  5
1D3
331
3BA
  5
1E3
331
405
  5
B1
331
3B6
  5
1E7
331
401
  5
BC
331
1BC
  5
3C7
331
1B8
  5
3CB
331
1B4
  5
3CF
331
169
  5
3E1
331
1B0
  5
3D3
331
1C1
  5
3C2
331
3FD
  5
C0
331
3F9
  5
EA
331
3F5
  5
11E
331
3F1
  5
12E
331
18C
  5
3DD
331
3DD
  5
18C
331
3D9
  5
190
331
104
  5
3F7
331
3ED
  5
13E
331
3E9
  5
142
331
3E5
  5
146
331
3E1
  5
169
331
275
  5
1F2
331
11E
  5
3F5
331
BD
  5
400
331
13E
  5
3ED
331
1F3
  5
255
331
3D4
  5
1AF
331
149
  5
3E2
331
3D0
  5
1B3
331
120
  5
3F3
331
3CD
  5
1B6
331
3C9
  5
1BA
331
3C5
  5
1BE
331
3C1
  5
1C2
331
40B
  5
91
331
1EF
  5
2D5
331
1EB
  5
355
331
145
  5
3E6
331
1E7
  5
3B6
331
B5
  5
404
331
94
  5
40A
331
141
  5
3EA
331
1AE
  5
3D5
331
1E3
  5
3BA
331
B1
  5
405
331
3BD
  5
1E0
331
3B9
  5
1E4
331
404
  5
B5
331
3B5
  5
1E8
331
400
  5
BD
331
255
  5
1F3
331
1BF
  5
3C4
331
1BB
  5
3C8
331
1B7
  5
3CC
331
1B3
  5
3D0
331
190
  5
3D9
331
1C4
  5
3BF
331
1C0
  5
3C3
331
3FC
  5
C1
331
3F8
  5
F7
331
3F4
  5
11F
331
3F0
  5
13B
331
18F
  5
3DA
331
18B
  5
3DE
331
3DC
  5
18D
331
F7
  5
3F8
331
3EC
  5
13F
331
3E8
  5
143
331
3E4
  5
147
331
395
  5
1E9
331
3E0
  5
189
331
235
  5
1F4
331
BC
  5
401
331
13D
  5
3EE
331
1F2
  5
275
331
3D3
  5
1B0
331
7C
  5
40C
331
3CC
  5
1B7
331
3C8
  5
1BB
331
3C4
  5
1BF
331
3C0
  5
1C3
331
40A
  5
94
331
1EE
  5
2F5
331
1EA
  5
375
331
97
  5
407
331
144
  5
3E7
331
1E6
  5
3B7
331
140
  5
3EB
331
1E2
  5
3BB
331
19F
  5
3D6
331
C1
  5
3FC
331
3BC
  5
1E1
331
3B8
  5
1E5
331
407
  5
97
331
403
  5
B6
331
1BE
  5
3C5
331
1BA
  5
3C9
331
1B6
  5
3CD
331
215
  5
1F5
331
1B2
  5
3D1
331
DD
  5
3FA
331
1C3
  5
3C0
331
EA
  5
3F9
331
375
  5
1EA
331
3FF
  5
BE
331
3FB
  5
D0
331
3F7
  5
104
331
3F3
  5
120
331
2F5
  5
1EE
331
18E
  5
3DB
331
3DF
  5
18A
331
18A
  5
3DF
331
3DB
  5
18E
331
1D3
  5
3BE
331
3EF
  5
13C
331
3EB
  5
140
331
3E7
  5
144
331
3E3
  5
148
331
BF
  5
3FE
331
1F5
  5
215
331
BB
  5
402
331
3D6
  5
19F
331
13C
  5
3EF
331
1F1
  5
295
331
3D2
  5
1B1
331
3CF
  5
1B4
331
355
  5
1EB
331
3CB
  5
1B8
331
3C7
  5
1BC
331
3C3
  5
1C0
331
409
  5
95
331
2D5
  5
1EF
331
147
  5
3E4
331
1ED
  5
315
331
1E9
  5
395
331
96
  5
408
331
143
  5
3E8
331
1E5
  5
3B8
331
1E1
  5
3BC
331
12E
  5
3F1
331
A4
  5
406
331
C0
  5
3FD
331
3BF
  5
1C4
331
3BB
  5
1E2
331
406
  5
A4
331
3B7
  5
1E6
331
402
  5
BB
331
1BD
  5
3C6
331
1B9
  5
3CA
331
1B5
  5
3CE
331
1B1
  5
3D2
331
D0
  5
3FB
331
1C2
  5
3C1
331
3FE
  5
BF
331
335
  5
1EC
331
3FA
  5
DD
331
3F6
  5
111
331
3F2
  5
121
331
2B5
  5
1F0
331
18D
  5
3DC
331
189
  5
3E0
331
3DE
  5
18B
331
3DA
  5
18F
331
3EE
  5
13D
331
3EA
  5
141
331
3E6
  5
145
331
3E2
  5
149
331
11F
  5
3F4
331
BE
  5
3FF
331
13F
  5
3EC
331
1F4
  5
235
331
3D5
  5
1AE
331
13B
  5
3F0
331
1F0
  5
2B5
331
3D1
  5
1B2
331
111
  5
3F6
331
121
  5
3F2
331
3CE
  5
1B5
331
315
  5
1ED
331
3CA
  5
1B9
331
3C6
  5
1BD
331
3C2
  5
1C1
331
40C
  5
7C
331
408
  5
96
331
295
  5
1F1
331
146
  5
3E5
331
1EC
  5
335
331
1E8
  5
3B5
331
B6
  5
403
331
95
  5
409
331
142
  5
3E9
331
1AF
  5
3D4
331
1E4
  5
3B9
331
91
  5
40B
331
1E0
  5
3BD
  0
ACDBDETAILVIEWSTYLE
  5
435
102
{ACAD_XDICTIONARY
360
7BE
102
}
102
{ACAD_REACTORS
330
42E
330
79A
102
}
330
42E
100
AcDbModelDocViewStyle
 70
     0
  3
Imperial24
290
     0
100
AcDbDetailViewStyle
 70
     0
 71
     0
 90
        3
 71
     1
340
28
 62
   256
 40
0.24
340
0
 62
   256
 40
0.24
300

 40
0.36
280
     3
 71
     2
340
16
 90
       25
 62
   256
 71
     3
340
28
 62
   256
 40
0.24
 90
        1
 40
0.75
 90
        1
300
%<\AcVar ViewType \f "%tc1">% %<\AcVar ViewDetailId>%\PVARIA %<\AcVar ViewScale \f "%sn">%
 71
     4
340
16
 90
       25
 62
   256
340
16
 90
       25
 62
   256
280
     0
  0
ACDBDETAILVIEWSTYLE
  5
438
102
{ACAD_XDICTIONARY
360
7C0
102
}
102
{ACAD_REACTORS
330
42E
330
79B
102
}
330
42E
100
AcDbModelDocViewStyle
 70
     0
  3
Metric50
290
     0
100
AcDbDetailViewStyle
 70
     0
 71
     0
 90
        3
 71
     1
340
28
 62
   256
 40
5.0
340
0
 62
   256
 40
5.0
300

 40
0.0
280
     1
 71
     2
340
16
 90
       25
 62
   256
 71
     3
340
28
 62
   256
 40
5.0
 90
        0
 40
15.0
 90
        1
300
%<\AcVar ViewDetailId>% (%<\AcVar ViewScale \f "%sn">%)
 71
     4
340
16
 90
       25
 62
   256
340
16
 90
       25
 62
   256
280
     0
  0
LAYOUT
  5
1F
102
{ACAD_REACTORS
330
19
102
}
330
19
100
AcDbPlotSettings
  1

  2
\\mslklsv1\MSLKLP05
  4

  6

 40
0.0
 41
0.0
 42
0.0
 43
0.0
 44
0.0
 45
0.0
 46
0.0
 47
0.0
 48
0.0
 49
0.0
140
0.0
141
0.0
142
1.0
143
1.0
 70
   688
 72
     0
 73
     0
 74
     5
  7
monochrome.ctb
 75
    16
147
1.0
 76
     0
 77
     2
 78
   300
148
0.0
149
0.0
100
AcDbLayout
  1
Layout1
 70
     1
 71
     1
 10
0.0
 20
0.0
 11
12.0
 21
9.0
 12
0.0
 22
0.0
 32
0.0
 14
1.000000000000000E+20
 24
1.000000000000000E+20
 34
1.000000000000000E+20
 15
-1.000000000000000E+20
 25
-1.000000000000000E+20
 35
-1.000000000000000E+20
146
0.0
 13
0.0
 23
0.0
 33
0.0
 16
1.0
 26
0.0
 36
0.0
 17
0.0
 27
1.0
 37
0.0
 76
     0
330
1C
  0
LAYOUT
  5
18
102
{ACAD_XDICTIONARY
360
1A
102
}
102
{ACAD_REACTORS
330
19
102
}
330
19
100
AcDbPlotSettings
  1

  2
\\mslklsv1\MSLKLP05
  4
A4
  6

 40
6.720416545867919
 41
6.720392704010007
 42
7.694076538085937
 43
4.011077880859375
 44
209.9733276367186
 45
296.9683227539062
 46
0.0
 47
0.0
 48
0.0
 49
0.0
140
0.0
141
0.0
142
1.0
143
2.49309260033622
 70
 11952
 72
     1
 73
     1
 74
     0
  7
monochrome.ctb
 75
     0
147
0.4011082459853835
 76
     0
 77
     2
 78
   300
148
235.6679059730945
149
-4.095299769500028
100
AcDbLayout
  1
Model
 70
     1
 71
     0
 10
0.0
 20
0.0
 11
12.0
 21
9.0
 12
0.0
 22
0.0
 32
0.0
 14
0.0
 24
0.0
 34
0.0
 15
0.0
 25
0.0
 35
0.0
146
0.0
 13
0.0
 23
0.0
 33
0.0
 16
1.0
 26
0.0
 36
0.0
 17
0.0
 27
1.0
 37
0.0
 76
     0
330
2
331
30
1001
ACAD_PSEXT
1000
\\mslklsv1\MSLKLP05
1000
HP LaserJet 5000 Series PCL
1000
CAD
1000
HP LaserJet 5000N
1070
     0
  0
MATERIAL
  5
57
102
{ACAD_XDICTIONARY
360
58
102
}
102
{ACAD_REACTORS
330
E
102
}
330
E
100
AcDbMaterial
  1
ByBlock
 72
     0
 43
0.0008202099737533
 43
0.0
 43
0.0
 43
0.0
 43
0.0
 43
0.0008202099737533
 43
0.0
 43
0.0
 43
0.0
 43
0.0
 43
1.0
 43
0.0
 43
0.0
 43
0.0
 43
0.0
 43
1.0
 77
     0
 47
0.0008202099737533
 47
0.0
 47
0.0
 47
0.0
 47
0.0
 47
0.0008202099737533
 47
0.0
 47
0.0
 47
0.0
 47
0.0
 47
1.0
 47
0.0
 47
0.0
 47
0.0
 47
0.0
 47
1.0
171
     0
 49
0.0008202099737533
 49
0.0
 49
0.0
 49
0.0
 49
0.0
 49
0.0008202099737533
 49
0.0
 49
0.0
 49
0.0
 49
0.0
 49
1.0
 49
0.0
 49
0.0
 49
0.0
 49
0.0
 49
1.0
175
     0
142
0.0008202099737533
142
0.0
142
0.0
142
0.0
142
0.0
142
0.0008202099737533
142
0.0
142
0.0
142
0.0
142
0.0
142
1.0
142
0.0
142
0.0
142
0.0
142
0.0
142
1.0
179
     0
144
0.0008202099737533
144
0.0
144
0.0
144
0.0
144
0.0
144
0.0008202099737533
144
0.0
144
0.0
144
0.0
144
0.0
144
1.0
144
0.0
144
0.0
144
0.0
144
0.0
144
1.0
147
0.0008202099737533
147
0.0
147
0.0
147
0.0
147
0.0
147
0.0008202099737533
147
0.0
147
0.0
147
0.0
147
0.0
147
1.0
147
0.0
147
0.0
147
0.0
147
0.0
147
1.0
  0
MATERIAL
  5
4F
102
{ACAD_XDICTIONARY
360
50
102
}
102
{ACAD_REACTORS
330
E
102
}
330
E
100
AcDbMaterial
  1
ByLayer
 72
     0
 43
0.0008202099737533
 43
0.0
 43
0.0
 43
0.0
 43
0.0
 43
0.0008202099737533
 43
0.0
 43
0.0
 43
0.0
 43
0.0
 43
1.0
 43
0.0
 43
0.0
 43
0.0
 43
0.0
 43
1.0
 77
     0
 47
0.0008202099737533
 47
0.0
 47
0.0
 47
0.0
 47
0.0
 47
0.0008202099737533
 47
0.0
 47
0.0
 47
0.0
 47
0.0
 47
1.0
 47
0.0
 47
0.0
 47
0.0
 47
0.0
 47
1.0
171
     0
 49
0.0008202099737533
 49
0.0
 49
0.0
 49
0.0
 49
0.0
 49
0.0008202099737533
 49
0.0
 49
0.0
 49
0.0
 49
0.0
 49
1.0
 49
0.0
 49
0.0
 49
0.0
 49
0.0
 49
1.0
175
     0
142
0.0008202099737533
142
0.0
142
0.0
142
0.0
142
0.0
142
0.0008202099737533
142
0.0
142
0.0
142
0.0
142
0.0
142
1.0
142
0.0
142
0.0
142
0.0
142
0.0
142
1.0
179
     0
144
0.0008202099737533
144
0.0
144
0.0
144
0.0
144
0.0
144
0.0008202099737533
144
0.0
144
0.0
144
0.0
144
0.0
144
1.0
144
0.0
144
0.0
144
0.0
144
0.0
144
1.0
147
0.0008202099737533
147
0.0
147
0.0
147
0.0
147
0.0
147
0.0008202099737533
147
0.0
147
0.0
147
0.0
147
0.0
147
1.0
147
0.0
147
0.0
147
0.0
147
0.0
147
1.0
  0
MATERIAL
  5
D
102
{ACAD_XDICTIONARY
360
F
102
}
102
{ACAD_REACTORS
330
E
102
}
330
E
100
AcDbMaterial
  1
Global
 72
     0
 43
0.0008202099737533
 43
0.0
 43
0.0
 43
0.0
 43
0.0
 43
0.0008202099737533
 43
0.0
 43
0.0
 43
0.0
 43
0.0
 43
1.0
 43
0.0
 43
0.0
 43
0.0
 43
0.0
 43
1.0
 77
     0
 47
0.0008202099737533
 47
0.0
 47
0.0
 47
0.0
 47
0.0
 47
0.0008202099737533
 47
0.0
 47
0.0
 47
0.0
 47
0.0
 47
1.0
 47
0.0
 47
0.0
 47
0.0
 47
0.0
 47
1.0
171
     0
 49
0.0008202099737533
 49
0.0
 49
0.0
 49
0.0
 49
0.0
 49
0.0008202099737533
 49
0.0
 49
0.0
 49
0.0
 49
0.0
 49
1.0
 49
0.0
 49
0.0
 49
0.0
 49
0.0
 49
1.0
175
     0
142
0.0008202099737533
142
0.0
142
0.0
142
0.0
142
0.0
142
0.0008202099737533
142
0.0
142
0.0
142
0.0
142
0.0
142
1.0
142
0.0
142
0.0
142
0.0
142
0.0
142
1.0
179
     0
144
0.0008202099737533
144
0.0
144
0.0
144
0.0
144
0.0
144
0.0008202099737533
144
0.0
144
0.0
144
0.0
144
0.0
144
1.0
144
0.0
144
0.0
144
0.0
144
0.0
144
1.0
147
0.0008202099737533
147
0.0
147
0.0
147
0.0
147
0.0
147
0.0008202099737533
147
0.0
147
0.0
147
0.0
147
0.0
147
1.0
147
0.0
147
0.0
147
0.0
147
0.0
147
1.0
  0
MLEADERSTYLE
  5
4A3
102
{ACAD_REACTORS
330
62
102
}
330
62
100
AcDbMLeaderStyle
179
     2
170
     2
171
     1
172
     0
 90
        2
 40
0.0
 41
0.0
173
     1
 91
-1056964608
340
2B
 92
       -2
290
     1
 42
2.0
291
     1
 43
0.36
  3
Standard
 44
4.0
300

342
28
174
     1
178
     6
175
     1
176
     0
 93
-1056964608
 45
4.0
292
     0
297
     0
 46
4.0
 94
-1056964608
 47
1.0
 49
1.0
140
1.0
293
     1
141
0.0
294
     1
177
     0
142
1.0
295
     0
296
     0
143
0.125
271
     0
272
     9
273
     9
  0
MLINESTYLE
  5
66
102
{ACAD_REACTORS
330
4D
102
}
330
4D
100
AcDbMlineStyle
  2
STANDARD
 70
     0
  3

 62
     0
 51
90.0
 52
90.0
 71
     2
 49
0.5
 62
   256
  6
BYLAYER
 49
-0.5
 62
   256
  6
BYLAYER
  0
ACDBPLACEHOLDER
  5
A
102
{ACAD_REACTORS
330
B
102
}
330
B
  0
SCALE
  5
6B
102
{ACAD_REACTORS
330
60
102
}
330
60
100
AcDbScale
 70
     0
300
1:1
140
1.0
141
1.0
290
     1
  0
SCALE
  5
6C
102
{ACAD_REACTORS
330
60
102
}
330
60
100
AcDbScale
 70
     0
300
1:2
140
1.0
141
2.0
290
     0
  0
SCALE
  5
6D
102
{ACAD_REACTORS
330
60
102
}
330
60
100
AcDbScale
 70
     0
300
1:4
140
1.0
141
4.0
290
     0
  0
SCALE
  5
6E
102
{ACAD_REACTORS
330
60
102
}
330
60
100
AcDbScale
 70
     0
300
1:5
140
1.0
141
5.0
290
     0
  0
SCALE
  5
6F
102
{ACAD_REACTORS
330
60
102
}
330
60
100
AcDbScale
 70
     0
300
1:8
140
1.0
141
8.0
290
     0
  0
SCALE
  5
70
102
{ACAD_REACTORS
330
60
102
}
330
60
100
AcDbScale
 70
     0
300
1:10
140
1.0
141
10.0
290
     0
  0
SCALE
  5
71
102
{ACAD_REACTORS
330
60
102
}
330
60
100
AcDbScale
 70
     0
300
1:16
140
1.0
141
16.0
290
     0
  0
SCALE
  5
72
102
{ACAD_REACTORS
330
60
102
}
330
60
100
AcDbScale
 70
     0
300
1:20
140
1.0
141
20.0
290
     0
  0
SCALE
  5
73
102
{ACAD_REACTORS
330
60
102
}
330
60
100
AcDbScale
 70
     0
300
1:30
140
1.0
141
30.0
290
     0
  0
SCALE
  5
74
102
{ACAD_REACTORS
330
60
102
}
330
60
100
AcDbScale
 70
     0
300
1:40
140
1.0
141
40.0
290
     0
  0
SCALE
  5
75
102
{ACAD_REACTORS
330
60
102
}
330
60
100
AcDbScale
 70
     0
300
1:50
140
1.0
141
50.0
290
     0
  0
SCALE
  5
76
102
{ACAD_REACTORS
330
60
102
}
330
60
100
AcDbScale
 70
     0
300
1:100
140
1.0
141
100.0
290
     0
  0
SCALE
  5
77
102
{ACAD_REACTORS
330
60
102
}
330
60
100
AcDbScale
 70
     0
300
2:1
140
2.0
141
1.0
290
     0
  0
SCALE
  5
78
102
{ACAD_REACTORS
330
60
102
}
330
60
100
AcDbScale
 70
     0
300
4:1
140
4.0
141
1.0
290
     0
  0
SCALE
  5
79
102
{ACAD_REACTORS
330
60
102
}
330
60
100
AcDbScale
 70
     0
300
8:1
140
8.0
141
1.0
290
     0
  0
SCALE
  5
7A
102
{ACAD_REACTORS
330
60
102
}
330
60
100
AcDbScale
 70
     0
300
10:1
140
10.0
141
1.0
290
     0
  0
SCALE
  5
7B
102
{ACAD_REACTORS
330
60
102
}
330
60
100
AcDbScale
 70
     0
300
100:1
140
100.0
141
1.0
290
     0
  0
ACDBSECTIONVIEWSTYLE
  5
447
102
{ACAD_XDICTIONARY
360
7C2
102
}
102
{ACAD_REACTORS
330
43C
330
798
102
}
330
43C
100
AcDbModelDocViewStyle
 70
     0
  3
Imperial24
290
     0
100
AcDbSectionViewStyle
 70
     0
 71
     0
 90
       78
 71
     1
340
28
 62
   256
 40
0.24
340
0
340
0
 62
   256
 40
0.24
300
I, O, Q, S, X, Z
 40
0.48
 90
        3
 40
0.18
 90
        1
 71
     2
340
16
 90
       25
 62
   256
340
16
 90
       50
 62
   256
 40
0.24
 40
0.0
 40
0.24
 71
     3
340
28
 62
   256
 40
0.24
 90
        1
 40
0.75
 90
        1
300
%<\AcVar ViewType \f "%tc1">% %<\AcVar ViewSectionStartId>%-%<\AcVar ViewSectionEndId>%\PVARIA %<\AcVar ViewScale \f "%sn">%
 71
     4
 62
   256
 62
   257
300
ANSI31
 40
1.0
 90
        0
290
     0
290
     0
 90
        6
 40
0.0
 40
1.570796326794896
 40
0.2617993877991494
 40
1.308996938995747
 40
-0.2617993877991494
 40
1.832595714594044
  0
ACDBSECTIONVIEWSTYLE
  5
44A
102
{ACAD_XDICTIONARY
360
7C4
102
}
102
{ACAD_REACTORS
330
43C
330
799
102
}
330
43C
100
AcDbModelDocViewStyle
 70
     0
  3
Metric50
290
     0
100
AcDbSectionViewStyle
 70
     0
 71
     0
 90
      102
 71
     1
340
28
 62
   256
 40
5.0
340
0
340
0
 62
   256
 40
5.0
300
I, O, Q, S, X, Z
 40
10.0
 90
        0
 40
2.5
 90
        0
 71
     2
340
16
 90
       25
 62
   256
340
16
 90
       50
 62
   256
 40
5.0
 40
2.5
 40
5.0
 71
     3
340
28
 62
   256
 40
5.0
 90
        0
 40
15.0
 90
        1
300
%<\AcVar ViewSectionStartId>%-%<\AcVar ViewSectionEndId>% (%<\AcVar ViewScale \f "%sn">%)
 71
     4
 62
   256
 62
   257
300
ANSI31
 40
1.0
 90
        0
290
     0
290
     0
 90
        6
 40
0.0
 40
1.570796326794896
 40
0.2617993877991494
 40
1.308996938995747
 40
-0.2617993877991494
 40
1.832595714594044
  0
TABLESTYLE
  5
67
102
{ACAD_XDICTIONARY
360
68
102
}
102
{ACAD_REACTORS
330
61
102
}
330
61
100
AcDbTableStyle
280
     0
  3
Standard
 70
     0
 71
     0
 40
0.06
 41
0.06
280
     0
281
     0
  7
STANDARD
140
0.18
170
     2
 62
     0
 63
     7
283
     0
 90
        4
 91
        0
  1

274
    -2
284
     1
 64
     0
275
    -2
285
     1
 65
     0
276
    -2
286
     1
 66
     0
277
    -2
287
     1
 67
     0
278
    -2
288
     1
 68
     0
279
    -2
289
     1
 69
     0
  7
STANDARD
140
0.25
170
     5
 62
     0
 63
     7
283
     0
 90
        4
 91
        0
  1

274
    -2
284
     1
 64
     0
275
    -2
285
     1
 65
     0
276
    -2
286
     1
 66
     0
277
    -2
287
     1
 67
     0
278
    -2
288
     1
 68
     0
279
    -2
289
     1
 69
     0
  7
STANDARD
140
0.18
170
     5
 62
     0
 63
     7
283
     0
 90
        4
 91
        0
  1

274
    -2
284
     1
 64
     0
275
    -2
285
     1
 65
     0
276
    -2
286
     1
 66
     0
277
    -2
287
     1
 67
     0
278
    -2
288
     1
 68
     0
279
    -2
289
     1
 69
     0
  0
VISUALSTYLE
  5
31
102
{ACAD_XDICTIONARY
360
7B8
102
}
102
{ACAD_REACTORS
330
32
102
}
330
32
100
AcDbVisualStyle
  2
2dWireframe
 70
     4
177
     2
291
     0
 71
     0
176
     1
 72
     2
176
     1
 73
     0
176
     1
 90
        0
176
     1
 40
0.6
176
     1
 41
30.0
176
     1
 63
     7
421
 16777215
176
     1
 74
     1
176
     1
 91
        4
176
     1
 64
     7
176
     1
 65
   257
176
     1
 75
     1
176
     1
175
     1
176
     1
 42
1.0
176
     1
 92
        0
176
     1
 66
   257
176
     1
 43
1.0
176
     1
 76
     1
176
     1
 77
     6
176
     1
 78
     2
176
     1
 67
     7
176
     1
 79
     5
176
     1
170
     0
176
     1
171
     0
176
     1
290
     0
176
     1
 93
        1
176
     1
 44
0.0
176
     1
173
     0
176
     1
1001
ACAD
1000
AcDbSavedByObjectVersion
1070
     0
  0
VISUALSTYLE
  5
492
102
{ACAD_XDICTIONARY
360
7CE
102
}
102
{ACAD_REACTORS
330
32
102
}
330
32
100
AcDbVisualStyle
  2
Basic
 70
     7
177
     2
291
     1
 71
     1
176
     1
 72
     0
176
     1
 73
     1
176
     1
 90
        0
176
     1
 40
0.6
176
     1
 41
30.0
176
     1
 63
     7
421
 16777215
176
     1
 74
     0
176
     1
 91
        4
176
     1
 64
     7
176
     1
 65
   257
176
     1
 75
     1
176
     1
175
     1
176
     1
 42
1.0
176
     1
 92
        8
176
     1
 66
     7
176
     1
 43
1.0
176
     1
 76
     1
176
     1
 77
     6
176
     1
 78
     2
176
     1
 67
     7
176
     1
 79
     5
176
     1
170
     0
176
     1
171
     0
176
     1
290
     0
176
     1
 93
        1
176
     1
 44
0.0
176
     1
173
     0
176
     1
1001
ACAD
1000
AcDbSavedByObjectVersion
1070
     0
  0
VISUALSTYLE
  5
496
102
{ACAD_XDICTIONARY
360
7D6
102
}
102
{ACAD_REACTORS
330
32
102
}
330
32
100
AcDbVisualStyle
  2
Brighten
 70
    12
177
     2
291
     1
 71
     2
176
     1
 72
     2
176
     1
 73
     0
176
     1
 90
        0
176
     1
 40
0.6
176
     1
 41
30.0
176
     1
 63
     7
421
 16777215
176
     1
 74
     1
176
     1
 91
        4
176
     1
 64
     7
176
     1
 65
   257
176
     1
 75
     1
176
     1
175
     1
176
     1
 42
1.0
176
     1
 92
        8
176
     1
 66
     7
176
     1
 43
1.0
176
     1
 76
     1
176
     1
 77
     6
176
     1
 78
     2
176
     1
 67
     7
176
     1
 79
     5
176
     1
170
     0
176
     1
171
     0
176
     1
290
     0
176
     1
 93
        1
176
     1
 44
50.0
176
     1
173
     0
176
     1
1001
ACAD
1000
AcDbSavedByObjectVersion
1070
     0
  0
VISUALSTYLE
  5
49A
102
{ACAD_XDICTIONARY
360
7DE
102
}
102
{ACAD_REACTORS
330
32
102
}
330
32
100
AcDbVisualStyle
  2
ColorChange
 70
    16
177
     2
291
     1
 71
     2
176
     1
 72
     2
176
     1
 73
     3
176
     1
 90
        0
176
     1
 40
0.6
176
     1
 41
30.0
176
     1
 63
     8
421
  8421504
176
     1
 74
     1
176
     1
 91
        4
176
     1
 64
     7
176
     1
 65
   257
176
     1
 75
     1
176
     1
175
     1
176
     1
 42
1.0
176
     1
 92
        8
176
     1
 66
     8
424
  8421504
176
     1
 43
1.0
176
     1
 76
     1
176
     1
 77
     6
176
     1
 78
     2
176
     1
 67
     7
176
     1
 79
     5
176
     1
170
     0
176
     1
171
     0
176
     1
290
     0
176
     1
 93
        1
176
     1
 44
0.0
176
     1
173
     0
176
     1
1001
ACAD
1000
AcDbSavedByObjectVersion
1070
     0
  0
VISUALSTYLE
  5
494
102
{ACAD_XDICTIONARY
360
7D2
102
}
102
{ACAD_REACTORS
330
32
102
}
330
32
100
AcDbVisualStyle
  2
Conceptual
 70
     9
177
     2
291
     0
 71
     3
176
     1
 72
     2
176
     1
 73
     0
176
     1
 90
        0
176
     1
 40
0.6
176
     1
 41
30.0
176
     1
 63
     7
421
 16777215
176
     1
 74
     2
176
     1
 91
        2
176
     1
 64
     7
176
     1
 65
   257
176
     1
 75
     1
176
     1
175
     1
176
     1
 42
179.0
176
     1
 92
        8
176
     1
 66
     7
176
     1
 43
1.0
176
     1
 76
     1
176
     1
 77
     6
176
     1
 78
     2
176
     1
 67
     7
176
     1
 79
     3
176
     1
170
     0
176
     1
171
     0
176
     1
290
     0
176
     1
 93
        1
176
     1
 44
0.0
176
     1
173
     0
176
     1
1001
ACAD
1000
AcDbSavedByObjectVersion
1070
     0
  0
VISUALSTYLE
  5
495
102
{ACAD_XDICTIONARY
360
7D4
102
}
102
{ACAD_REACTORS
330
32
102
}
330
32
100
AcDbVisualStyle
  2
Dim
 70
    11
177
     2
291
     1
 71
     2
176
     1
 72
     2
176
     1
 73
     0
176
     1
 90
        0
176
     1
 40
0.6
176
     1
 41
30.0
176
     1
 63
     7
421
 16777215
176
     1
 74
     1
176
     1
 91
        4
176
     1
 64
     7
176
     1
 65
   257
176
     1
 75
     1
176
     1
175
     1
176
     1
 42
1.0
176
     1
 92
        8
176
     1
 66
     7
176
     1
 43
1.0
176
     1
 76
     1
176
     1
 77
     6
176
     1
 78
     2
176
     1
 67
     7
176
     1
 79
     5
176
     1
170
     0
176
     1
171
     0
176
     1
290
     0
176
     1
 93
        1
176
     1
 44
-50.0
176
     1
173
     0
176
     1
1001
ACAD
1000
AcDbSavedByObjectVersion
1070
     0
  0
VISUALSTYLE
  5
4A2
102
{ACAD_XDICTIONARY
360
7EE
102
}
102
{ACAD_REACTORS
330
32
102
}
330
32
100
AcDbVisualStyle
  2
EdgeColorOff
 70
    22
177
     2
291
     1
 71
     2
176
     0
 72
     2
176
     0
 73
     0
176
     0
 90
        0
176
     0
 40
0.6
176
     0
 41
30.0
176
     0
 63
     7
421
 16777215
176
     0
 74
     1
176
     0
 91
        4
176
     0
 64
     7
176
     0
 65
   257
176
     0
 75
     1
176
     0
175
     1
176
     0
 42
1.0
176
     0
 92
        8
176
     2
 66
     7
176
     0
 43
1.0
176
     0
 76
     1
176
     0
 77
     6
176
     0
 78
     2
176
     0
 67
     7
176
     0
 79
     5
176
     0
170
     0
176
     0
171
     0
176
     0
290
     0
176
     0
 93
        1
176
     0
 44
0.0
176
     0
173
     0
176
     0
1001
ACAD
1000
AcDbSavedByObjectVersion
1070
     0
  0
VISUALSTYLE
  5
499
102
{ACAD_XDICTIONARY
360
7DC
102
}
102
{ACAD_REACTORS
330
32
102
}
330
32
100
AcDbVisualStyle
  2
Facepattern
 70
    15
177
     2
291
     1
 71
     2
176
     1
 72
     2
176
     1
 73
     0
176
     1
 90
        0
176
     1
 40
0.6
176
     1
 41
30.0
176
     1
 63
     7
421
 16777215
176
     1
 74
     1
176
     1
 91
        4
176
     1
 64
     7
176
     1
 65
   257
176
     1
 75
     1
176
     1
175
     1
176
     1
 42
1.0
176
     1
 92
        8
176
     1
 66
     7
176
     1
 43
1.0
176
     1
 76
     1
176
     1
 77
     6
176
     1
 78
     2
176
     1
 67
     7
176
     1
 79
     5
176
     1
170
     0
176
     1
171
     0
176
     1
290
     0
176
     1
 93
        1
176
     1
 44
0.0
176
     1
173
     0
176
     1
1001
ACAD
1000
AcDbSavedByObjectVersion
1070
     0
  0
VISUALSTYLE
  5
48E
102
{ACAD_XDICTIONARY
360
7C6
102
}
102
{ACAD_REACTORS
330
32
102
}
330
32
100
AcDbVisualStyle
  2
Flat
 70
     0
177
     2
291
     1
 71
     2
176
     1
 72
     1
176
     1
 73
     1
176
     1
 90
        2
176
     1
 40
0.6
176
     1
 41
30.0
176
     1
 63
     7
421
 16777215
176
     1
 74
     0
176
     1
 91
        0
176
     1
 64
     7
176
     1
 65
   257
176
     1
 75
     1
176
     1
175
     1
176
     1
 42
1.0
176
     1
 92
        8
176
     1
 66
     7
176
     1
 43
1.0
176
     1
 76
     1
176
     1
 77
     6
176
     1
 78
     2
176
     1
 67
     7
176
     1
 79
     5
176
     1
170
     0
176
     1
171
     0
176
     1
290
     0
176
     1
 93
       13
176
     1
 44
0.0
176
     1
173
     0
176
     1
1001
ACAD
1000
AcDbSavedByObjectVersion
1070
     0
  0
VISUALSTYLE
  5
48F
102
{ACAD_XDICTIONARY
360
7C8
102
}
102
{ACAD_REACTORS
330
32
102
}
330
32
100
AcDbVisualStyle
  2
FlatWithEdges
 70
     1
177
     2
291
     1
 71
     2
176
     1
 72
     1
176
     1
 73
     1
176
     1
 90
        2
176
     1
 40
0.6
176
     1
 41
30.0
176
     1
 63
     7
421
 16777215
176
     1
 74
     1
176
     1
 91
        0
176
     1
 64
     7
176
     1
 65
   257
176
     1
 75
     1
176
     1
175
     1
176
     1
 42
1.0
176
     1
 92
        0
176
     1
 66
   257
176
     1
 43
1.0
176
     1
 76
     1
176
     1
 77
     6
176
     1
 78
     2
176
     1
 67
     7
176
     1
 79
     5
176
     1
170
     0
176
     1
171
     0
176
     1
290
     0
176
     1
 93
       13
176
     1
 44
0.0
176
     1
173
     0
176
     1
1001
ACAD
1000
AcDbSavedByObjectVersion
1070
     0
  0
VISUALSTYLE
  5
490
102
{ACAD_XDICTIONARY
360
7CA
102
}
102
{ACAD_REACTORS
330
32
102
}
330
32
100
AcDbVisualStyle
  2
Gouraud
 70
     2
177
     2
291
     1
 71
     2
176
     1
 72
     2
176
     1
 73
     1
176
     1
 90
        2
176
     1
 40
0.6
176
     1
 41
30.0
176
     1
 63
     7
421
 16777215
176
     1
 74
     0
176
     1
 91
        0
176
     1
 64
     7
176
     1
 65
   257
176
     1
 75
     1
176
     1
175
     1
176
     1
 42
1.0
176
     1
 92
        0
176
     1
 66
     7
176
     1
 43
1.0
176
     1
 76
     1
176
     1
 77
     6
176
     1
 78
     2
176
     1
 67
     7
176
     1
 79
     5
176
     1
170
     0
176
     1
171
     0
176
     1
290
     0
176
     1
 93
       13
176
     1
 44
0.0
176
     1
173
     0
176
     1
1001
ACAD
1000
AcDbSavedByObjectVersion
1070
     0
  0
VISUALSTYLE
  5
491
102
{ACAD_XDICTIONARY
360
7CC
102
}
102
{ACAD_REACTORS
330
32
102
}
330
32
100
AcDbVisualStyle
  2
GouraudWithEdges
 70
     3
177
     2
291
     1
 71
     2
176
     1
 72
     2
176
     1
 73
     1
176
     1
 90
        2
176
     1
 40
0.6
176
     1
 41
30.0
176
     1
 63
     7
421
 16777215
176
     1
 74
     1
176
     1
 91
        0
176
     1
 64
     7
176
     1
 65
   257
176
     1
 75
     1
176
     1
175
     1
176
     1
 42
1.0
176
     1
 92
        0
176
     1
 66
   257
176
     1
 43
1.0
176
     1
 76
     1
176
     1
 77
     6
176
     1
 78
     2
176
     1
 67
     7
176
     1
 79
     5
176
     1
170
     0
176
     1
171
     0
176
     1
290
     0
176
     1
 93
       13
176
     1
 44
0.0
176
     1
173
     0
176
     1
1001
ACAD
1000
AcDbSavedByObjectVersion
1070
     0
  0
VISUALSTYLE
  5
493
102
{ACAD_XDICTIONARY
360
7D0
102
}
102
{ACAD_REACTORS
330
32
102
}
330
32
100
AcDbVisualStyle
  2
Hidden
 70
     6
177
     2
291
     0
 71
     1
176
     1
 72
     2
176
     1
 73
     2
176
     1
 90
        0
176
     1
 40
0.6
176
     1
 41
30.0
176
     1
 63
     7
421
 16777215
176
     1
 74
     2
176
     1
 91
        2
176
     1
 64
     7
176
     1
 65
   257
176
     1
 75
     2
176
     1
175
     1
176
     1
 42
40.0
176
     1
 92
        0
176
     1
 66
   257
176
     1
 43
1.0
176
     1
 76
     1
176
     1
 77
     6
176
     1
 78
     2
176
     1
 67
     7
176
     1
 79
     3
176
     1
170
     0
176
     1
171
     0
176
     1
290
     0
176
     1
 93
        1
176
     1
 44
0.0
176
     1
173
     0
176
     1
1001
ACAD
1000
AcDbSavedByObjectVersion
1070
     0
  0
VISUALSTYLE
  5
4A0
102
{ACAD_XDICTIONARY
360
7EA
102
}
102
{ACAD_REACTORS
330
32
102
}
330
32
100
AcDbVisualStyle
  2
JitterOff
 70
    20
177
     2
291
     1
 71
     2
176
     0
 72
     2
176
     0
 73
     0
176
     0
 90
        0
176
     0
 40
0.6
176
     0
 41
30.0
176
     0
 63
     7
421
 16777215
176
     0
 74
     1
176
     0
 91
        4
176
     0
 64
     7
176
     0
 65
   257
176
     0
 75
     1
176
     0
175
     1
176
     0
 42
1.0
176
     0
 92
       10
176
     2
 66
     7
176
     0
 43
1.0
176
     0
 76
     1
176
     0
 77
     6
176
     0
 78
     2
176
     0
 67
     7
176
     0
 79
     5
176
     0
170
     0
176
     0
171
     0
176
     0
290
     0
176
     0
 93
        1
176
     0
 44
0.0
176
     0
173
     0
176
     0
1001
ACAD
1000
AcDbSavedByObjectVersion
1070
     0
  0
VISUALSTYLE
  5
498
102
{ACAD_XDICTIONARY
360
7DA
102
}
102
{ACAD_REACTORS
330
32
102
}
330
32
100
AcDbVisualStyle
  2
Linepattern
 70
    14
177
     2
291
     1
 71
     2
176
     1
 72
     2
176
     1
 73
     0
176
     1
 90
        0
176
     1
 40
0.6
176
     1
 41
30.0
176
     1
 63
     7
421
 16777215
176
     1
 74
     1
176
     1
 91
        4
176
     1
 64
     7
176
     1
 65
   257
176
     1
 75
     7
176
     1
175
     7
176
     1
 42
1.0
176
     1
 92
        8
176
     1
 66
     7
176
     1
 43
1.0
176
     1
 76
     1
176
     1
 77
     6
176
     1
 78
     2
176
     1
 67
     7
176
     1
 79
     5
176
     1
170
     0
176
     1
171
     0
176
     1
290
     0
176
     1
 93
        1
176
     1
 44
0.0
176
     1
173
     0
176
     1
1001
ACAD
1000
AcDbSavedByObjectVersion
1070
     0
  0
VISUALSTYLE
  5
4A1
102
{ACAD_XDICTIONARY
360
7EC
102
}
102
{ACAD_REACTORS
330
32
102
}
330
32
100
AcDbVisualStyle
  2
OverhangOff
 70
    21
177
     2
291
     1
 71
     2
176
     0
 72
     2
176
     0
 73
     0
176
     0
 90
        0
176
     0
 40
0.6
176
     0
 41
30.0
176
     0
 63
     7
421
 16777215
176
     0
 74
     1
176
     0
 91
        4
176
     0
 64
     7
176
     0
 65
   257
176
     0
 75
     1
176
     0
175
     1
176
     0
 42
1.0
176
     0
 92
        9
176
     2
 66
     7
176
     0
 43
1.0
176
     0
 76
     1
176
     0
 77
     6
176
     0
 78
     2
176
     0
 67
     7
176
     0
 79
     5
176
     0
170
     0
176
     0
171
     0
176
     0
290
     0
176
     0
 93
        1
176
     0
 44
0.0
176
     0
173
     0
176
     0
1001
ACAD
1000
AcDbSavedByObjectVersion
1070
     0
  0
VISUALSTYLE
  5
69
102
{ACAD_XDICTIONARY
360
7BA
102
}
102
{ACAD_REACTORS
330
32
102
}
330
32
100
AcDbVisualStyle
  2
Realistic
 70
     8
177
     2
291
     0
 71
     2
176
     1
 72
     2
176
     1
 73
     0
176
     1
 90
        0
176
     1
 40
0.6
176
     1
 41
30.0
176
     1
 63
     7
421
 16777215
176
     1
 74
     1
176
     1
 91
        0
176
     1
 64
     7
176
     1
 65
   257
176
     1
 75
     1
176
     1
175
     1
176
     1
 42
1.0
176
     1
 92
        8
176
     1
 66
     8
424
  7895160
176
     1
 43
1.0
176
     1
 76
     1
176
     1
 77
     6
176
     1
 78
     2
176
     1
 67
     7
176
     1
 79
     5
176
     1
170
     0
176
     1
171
     0
176
     1
290
     0
176
     1
 93
       13
176
     1
 44
0.0
176
     1
173
     0
176
     1
1001
ACAD
1000
AcDbSavedByObjectVersion
1070
     0
  0
VISUALSTYLE
  5
49F
102
{ACAD_XDICTIONARY
360
7E8
102
}
102
{ACAD_REACTORS
330
32
102
}
330
32
100
AcDbVisualStyle
  2
Shaded
 70
    27
177
     2
291
     0
 71
     2
176
     1
 72
     2
176
     1
 73
     1
176
     1
 90
        2
176
     1
 40
0.6
176
     1
 41
30.0
176
     1
 63
     7
421
 16777215
176
     1
 74
     0
176
     1
 91
        4
176
     1
 64
     7
176
     1
 65
   257
176
     1
 75
     1
176
     1
175
     1
176
     1
 42
1.0
176
     1
 92
        8
176
     1
 66
   257
176
     1
 43
1.0
176
     1
 76
     1
176
     1
 77
     6
176
     1
 78
     2
176
     1
 67
     8
425
  7895160
176
     1
 79
     3
176
     1
170
     0
176
     1
171
     0
176
     1
290
     0
176
     1
 93
        5
176
     1
 44
0.0
176
     1
173
     0
176
     1
1001
ACAD
1000
AcDbSavedByObjectVersion
1070
     0
  0
VISUALSTYLE
  5
49E
102
{ACAD_XDICTIONARY
360
7E6
102
}
102
{ACAD_REACTORS
330
32
102
}
330
32
100
AcDbVisualStyle
  2
Shaded with edges
 70
    26
177
     2
291
     0
 71
     2
176
     1
 72
     2
176
     1
 73
     1
176
     1
 90
        2
176
     1
 40
0.6
176
     1
 41
30.0
176
     1
 63
     7
421
 16777215
176
     1
 74
     1
176
     1
 91
       10
176
     1
 64
     7
176
     1
 65
   257
176
     1
 75
     2
176
     1
175
     1
176
     1
 42
1.0
176
     1
 92
        8
176
     1
 66
   257
176
     1
 43
1.0
176
     1
 76
     1
176
     1
 77
     6
176
     1
 78
     2
176
     1
 67
     7
176
     1
 79
     3
176
     1
170
     0
176
     1
171
     0
176
     1
290
     0
176
     1
 93
        5
176
     1
 44
0.0
176
     1
173
     0
176
     1
1001
ACAD
1000
AcDbSavedByObjectVersion
1070
     0
  0
VISUALSTYLE
  5
49B
102
{ACAD_XDICTIONARY
360
7E0
102
}
102
{ACAD_REACTORS
330
32
102
}
330
32
100
AcDbVisualStyle
  2
Shades of Gray
 70
    23
177
     2
291
     0
 71
     2
176
     1
 72
     2
176
     1
 73
     3
176
     1
 90
        0
176
     1
 40
0.6
176
     1
 41
30.0
176
     1
 63
     7
421
 16777215
176
     1
 74
     2
176
     1
 91
        2
176
     1
 64
     7
176
     1
 65
     7
176
     1
 75
     1
176
     1
175
     1
176
     1
 42
40.0
176
     1
 92
        8
176
     1
 66
     7
176
     1
 43
1.0
176
     1
 76
     1
176
     1
 77
     6
176
     1
 78
     2
176
     1
 67
     7
176
     1
 79
     3
176
     1
170
     0
176
     1
171
     0
176
     1
290
     0
176
     1
 93
        1
176
     1
 44
0.0
176
     1
173
     0
176
     1
1001
ACAD
1000
AcDbSavedByObjectVersion
1070
     0
  0
VISUALSTYLE
  5
49C
102
{ACAD_XDICTIONARY
360
7E2
102
}
102
{ACAD_REACTORS
330
32
102
}
330
32
100
AcDbVisualStyle
  2
Sketchy
 70
    24
177
     2
291
     0
 71
     1
176
     1
 72
     2
176
     1
 73
     2
176
     1
 90
        0
176
     1
 40
0.6
176
     1
 41
30.0
176
     1
 63
     7
421
 16777215
176
     1
 74
     2
176
     1
 91
        2
176
     1
 64
     7
176
     1
 65
     7
176
     1
 75
     1
176
     1
175
     1
176
     1
 42
40.0
176
     1
 92
       11
176
     1
 66
     7
176
     1
 43
1.0
176
     1
 76
     1
176
     1
 77
     6
176
     1
 78
     2
176
     1
 67
     7
176
     1
 79
     6
176
     1
170
     0
176
     1
171
     0
176
     1
290
     0
176
     1
 93
        1
176
     1
 44
0.0
176
     1
173
     0
176
     1
1001
ACAD
1000
AcDbSavedByObjectVersion
1070
     0
  0
VISUALSTYLE
  5
497
102
{ACAD_XDICTIONARY
360
7D8
102
}
102
{ACAD_REACTORS
330
32
102
}
330
32
100
AcDbVisualStyle
  2
Thicken
 70
    13
177
     2
291
     1
 71
     2
176
     1
 72
     2
176
     1
 73
     0
176
     1
 90
        0
176
     1
 40
0.6
176
     1
 41
30.0
176
     1
 63
     7
421
 16777215
176
     1
 74
     1
176
     1
 91
        4
176
     1
 64
     7
176
     1
 65
   257
176
     1
 75
     1
176
     1
175
     1
176
     1
 42
1.0
176
     1
 92
       12
176
     1
 66
     7
176
     1
 43
1.0
176
     1
 76
     1
176
     1
 77
     6
176
     1
 78
     2
176
     1
 67
     7
176
     1
 79
     5
176
     1
170
     0
176
     1
171
     0
176
     1
290
     0
176
     1
 93
        1
176
     1
 44
0.0
176
     1
173
     0
176
     1
1001
ACAD
1000
AcDbSavedByObjectVersion
1070
     0
  0
VISUALSTYLE
  5
6A
102
{ACAD_XDICTIONARY
360
7BC
102
}
102
{ACAD_REACTORS
330
32
102
}
330
32
100
AcDbVisualStyle
  2
Wireframe
 70
     5
177
     2
291
     0
 71
     0
176
     1
 72
     2
176
     1
 73
     0
176
     1
 90
        0
176
     1
 40
0.6
176
     1
 41
30.0
176
     1
 63
     7
421
 16777215
176
     1
 74
     1
176
     1
 91
        4
176
     1
 64
     7
176
     1
 65
   257
176
     1
 75
     1
176
     1
175
     1
176
     1
 42
1.0
176
     1
 92
        0
176
     1
 66
   257
176
     1
 43
1.0
176
     1
 76
     1
176
     1
 77
     6
176
     1
 78
     2
176
     1
 67
     7
176
     1
 79
     3
176
     1
170
     0
176
     1
171
     0
176
     1
290
     0
176
     1
 93
        1
176
     1
 44
0.0
176
     1
173
     0
176
     1
1001
ACAD
1000
AcDbSavedByObjectVersion
1070
     0
  0
VISUALSTYLE
  5
49D
102
{ACAD_XDICTIONARY
360
7E4
102
}
102
{ACAD_REACTORS
330
32
102
}
330
32
100
AcDbVisualStyle
  2
X-Ray
 70
    25
177
     2
291
     0
 71
     2
176
     1
 72
     2
176
     1
 73
     1
176
     1
 90
        1
176
     1
 40
0.5
176
     1
 41
30.0
176
     1
 63
     7
421
 16777215
176
     1
 74
     1
176
     1
 91
        0
176
     1
 64
     7
176
     1
 65
   257
176
     1
 75
     1
176
     1
175
     1
176
     1
 42
1.0
176
     1
 92
        8
176
     1
 66
     7
176
     1
 43
1.0
176
     1
 76
     1
176
     1
 77
     6
176
     1
 78
     2
176
     1
 67
     7
176
     1
 79
     3
176
     1
170
     0
176
     1
171
     0
176
     1
290
     0
176
     1
 93
       13
176
     1
 44
0.0
176
     1
173
     0
176
     1
1001
ACAD
1000
AcDbSavedByObjectVersion
1070
     0
  0
DICTIONARYVAR
  5
473
102
{ACAD_REACTORS
330
46D
102
}
330
46D
100
DictionaryVariables
280
     0
  1
1:1
  0
DICTIONARYVAR
  5
46F
102
{ACAD_REACTORS
330
46D
102
}
330
46D
100
DictionaryVariables
280
     0
  1
STANDARD
  0
DICTIONARYVAR
  5
46E
102
{ACAD_REACTORS
330
46D
102
}
330
46D
100
DictionaryVariables
280
     0
  1
STANDARD
  0
DICTIONARYVAR
  5
470
102
{ACAD_REACTORS
330
46D
102
}
330
46D
100
DictionaryVariables
280
     0
  1
Metric50
  0
DICTIONARYVAR
  5
471
102
{ACAD_REACTORS
330
46D
102
}
330
46D
100
DictionaryVariables
280
     0
  1
Metric50
  0
DICTIONARYVAR
  5
475
102
{ACAD_REACTORS
330
46D
102
}
330
46D
100
DictionaryVariables
280
     0
  1
1
  0
DICTIONARYVAR
  5
476
102
{ACAD_REACTORS
330
46D
102
}
330
46D
100
DictionaryVariables
280
     0
  1
15
  0
DICTIONARYVAR
  5
474
102
{ACAD_REACTORS
330
46D
102
}
330
46D
100
DictionaryVariables
280
     0
  1
0
  0
DICTIONARYVAR
  5
472
102
{ACAD_REACTORS
330
46D
102
}
330
46D
100
DictionaryVariables
280
     0
  1
0
  0
DICTIONARY
  5
41F
102
{ACAD_REACTORS
330
41E
102
}
330
41E
100
AcDbDictionary
281
     1
  0
DICTIONARY
  5
7BE
330
435
100
AcDbDictionary
280
     1
281
     1
  3
ACAD_XREC_ROUNDTRIP
360
7BF
  0
DICTIONARY
  5
7C0
330
438
100
AcDbDictionary
280
     1
281
     1
  3
ACAD_XREC_ROUNDTRIP
360
7C1
  0
DICTIONARY
  5
1A
330
18
100
AcDbDictionary
280
     1
281
     1
  0
DICTIONARY
  5
58
330
57
100
AcDbDictionary
280
     1
281
     1
  3
BUMPTILE
360
59
  3
DIFFUSETILE
360
5A
  3
OPACITYTILE
360
5B
  3
REFLECTIONTILE
360
5C
  3
REFRACTIONTILE
360
5D
  3
SPECULARTILE
360
5E
  0
DICTIONARY
  5
50
330
4F
100
AcDbDictionary
280
     1
281
     1
  3
BUMPTILE
360
51
  3
DIFFUSETILE
360
52
  3
OPACITYTILE
360
53
  3
REFLECTIONTILE
360
54
  3
REFRACTIONTILE
360
55
  3
SPECULARTILE
360
56
  0
DICTIONARY
  5
F
330
D
100
AcDbDictionary
280
     1
281
     1
  3
BUMPTILE
360
10
  3
DIFFUSETILE
360
11
  3
OPACITYTILE
360
12
  3
REFLECTIONTILE
360
13
  3
REFRACTIONTILE
360
14
  3
SPECULARTILE
360
15
  0
DICTIONARY
  5
7C2
330
447
100
AcDbDictionary
280
     1
281
     1
  3
ACAD_XREC_ROUNDTRIP
360
7C3
  0
DICTIONARY
  5
7C4
330
44A
100
AcDbDictionary
280
     1
281
     1
  3
ACAD_XREC_ROUNDTRIP
360
7C5
  0
DICTIONARY
  5
68
330
67
100
AcDbDictionary
280
     1
281
     1
  3
ACAD_ROUNDTRIP_2008_TABLESTYLE_CELLSTYLEMAP
360
7B6
  0
DICTIONARY
  5
7B8
330
31
100
AcDbDictionary
280
     1
281
     1
  3
ACAD_XREC_ROUNDTRIP
360
7B9
  0
DICTIONARY
  5
7CE
330
492
100
AcDbDictionary
280
     1
281
     1
  3
ACAD_XREC_ROUNDTRIP
360
7CF
  0
DICTIONARY
  5
7D6
330
496
100
AcDbDictionary
280
     1
281
     1
  3
ACAD_XREC_ROUNDTRIP
360
7D7
  0
DICTIONARY
  5
7DE
330
49A
100
AcDbDictionary
280
     1
281
     1
  3
ACAD_XREC_ROUNDTRIP
360
7DF
  0
DICTIONARY
  5
7D2
330
494
100
AcDbDictionary
280
     1
281
     1
  3
ACAD_XREC_ROUNDTRIP
360
7D3
  0
DICTIONARY
  5
7D4
330
495
100
AcDbDictionary
280
     1
281
     1
  3
ACAD_XREC_ROUNDTRIP
360
7D5
  0
DICTIONARY
  5
7EE
330
4A2
100
AcDbDictionary
280
     1
281
     1
  3
ACAD_XREC_ROUNDTRIP
360
7EF
  0
DICTIONARY
  5
7DC
330
499
100
AcDbDictionary
280
     1
281
     1
  3
ACAD_XREC_ROUNDTRIP
360
7DD
  0
DICTIONARY
  5
7C6
330
48E
100
AcDbDictionary
280
     1
281
     1
  3
ACAD_XREC_ROUNDTRIP
360
7C7
  0
DICTIONARY
  5
7C8
330
48F
100
AcDbDictionary
280
     1
281
     1
  3
ACAD_XREC_ROUNDTRIP
360
7C9
  0
DICTIONARY
  5
7CA
330
490
100
AcDbDictionary
280
     1
281
     1
  3
ACAD_XREC_ROUNDTRIP
360
7CB
  0
DICTIONARY
  5
7CC
330
491
100
AcDbDictionary
280
     1
281
     1
  3
ACAD_XREC_ROUNDTRIP
360
7CD
  0
DICTIONARY
  5
7D0
330
493
100
AcDbDictionary
280
     1
281
     1
  3
ACAD_XREC_ROUNDTRIP
360
7D1
  0
DICTIONARY
  5
7EA
330
4A0
100
AcDbDictionary
280
     1
281
     1
  3
ACAD_XREC_ROUNDTRIP
360
7EB
  0
DICTIONARY
  5
7DA
330
498
100
AcDbDictionary
280
     1
281
     1
  3
ACAD_XREC_ROUNDTRIP
360
7DB
  0
DICTIONARY
  5
7EC
330
4A1
100
AcDbDictionary
280
     1
281
     1
  3
ACAD_XREC_ROUNDTRIP
360
7ED
  0
DICTIONARY
  5
7BA
330
69
100
AcDbDictionary
280
     1
281
     1
  3
ACAD_XREC_ROUNDTRIP
360
7BB
  0
DICTIONARY
  5
7E8
330
49F
100
AcDbDictionary
280
     1
281
     1
  3
ACAD_XREC_ROUNDTRIP
360
7E9
  0
DICTIONARY
  5
7E6
330
49E
100
AcDbDictionary
280
     1
281
     1
  3
ACAD_XREC_ROUNDTRIP
360
7E7
  0
DICTIONARY
  5
7E0
330
49B
100
AcDbDictionary
280
     1
281
     1
  3
ACAD_XREC_ROUNDTRIP
360
7E1
  0
DICTIONARY
  5
7E2
330
49C
100
AcDbDictionary
280
     1
281
     1
  3
ACAD_XREC_ROUNDTRIP
360
7E3
  0
DICTIONARY
  5
7D8
330
497
100
AcDbDictionary
280
     1
281
     1
  3
ACAD_XREC_ROUNDTRIP
360
7D9
  0
DICTIONARY
  5
7BC
330
6A
100
AcDbDictionary
280
     1
281
     1
  3
ACAD_XREC_ROUNDTRIP
360
7BD
  0
DICTIONARY
  5
7E4
330
49D
100
AcDbDictionary
280
     1
281
     1
  3
ACAD_XREC_ROUNDTRIP
360
7E5
  0
XRECORD
  5
7BF
102
{ACAD_REACTORS
330
7BE
102
}
330
7BE
100
AcDbXrecord
280
     1
102
DISPLAYNAME
  1
Imperial24
102
FLAGS
 90
        0
  0
XRECORD
  5
7C1
102
{ACAD_REACTORS
330
7C0
102
}
330
7C0
100
AcDbXrecord
280
     1
102
DISPLAYNAME
  1
Metric50
102
FLAGS
 90
        0
  0
XRECORD
  5
59
102
{ACAD_REACTORS
330
58
102
}
330
58
100
AcDbXrecord
280
     1
270
     1
271
     1
  0
XRECORD
  5
5A
102
{ACAD_REACTORS
330
58
102
}
330
58
100
AcDbXrecord
280
     1
270
     1
271
     1
  0
XRECORD
  5
5B
102
{ACAD_REACTORS
330
58
102
}
330
58
100
AcDbXrecord
280
     1
270
     1
271
     1
  0
XRECORD
  5
5C
102
{ACAD_REACTORS
330
58
102
}
330
58
100
AcDbXrecord
280
     1
270
     1
271
     1
  0
XRECORD
  5
5D
102
{ACAD_REACTORS
330
58
102
}
330
58
100
AcDbXrecord
280
     1
270
     1
271
     1
  0
XRECORD
  5
5E
102
{ACAD_REACTORS
330
58
102
}
330
58
100
AcDbXrecord
280
     1
270
     1
271
     1
  0
XRECORD
  5
51
102
{ACAD_REACTORS
330
50
102
}
330
50
100
AcDbXrecord
280
     1
270
     1
271
     1
  0
XRECORD
  5
52
102
{ACAD_REACTORS
330
50
102
}
330
50
100
AcDbXrecord
280
     1
270
     1
271
     1
  0
XRECORD
  5
53
102
{ACAD_REACTORS
330
50
102
}
330
50
100
AcDbXrecord
280
     1
270
     1
271
     1
  0
XRECORD
  5
54
102
{ACAD_REACTORS
330
50
102
}
330
50
100
AcDbXrecord
280
     1
270
     1
271
     1
  0
XRECORD
  5
55
102
{ACAD_REACTORS
330
50
102
}
330
50
100
AcDbXrecord
280
     1
270
     1
271
     1
  0
XRECORD
  5
56
102
{ACAD_REACTORS
330
50
102
}
330
50
100
AcDbXrecord
280
     1
270
     1
271
     1
  0
XRECORD
  5
10
102
{ACAD_REACTORS
330
F
102
}
330
F
100
AcDbXrecord
280
     1
270
     1
271
     1
  0
XRECORD
  5
11
102
{ACAD_REACTORS
330
F
102
}
330
F
100
AcDbXrecord
280
     1
270
     1
271
     1
  0
XRECORD
  5
12
102
{ACAD_REACTORS
330
F
102
}
330
F
100
AcDbXrecord
280
     1
270
     1
271
     1
  0
XRECORD
  5
13
102
{ACAD_REACTORS
330
F
102
}
330
F
100
AcDbXrecord
280
     1
270
     1
271
     1
  0
XRECORD
  5
14
102
{ACAD_REACTORS
330
F
102
}
330
F
100
AcDbXrecord
280
     1
270
     1
271
     1
  0
XRECORD
  5
15
102
{ACAD_REACTORS
330
F
102
}
330
F
100
AcDbXrecord
280
     1
270
     1
271
     1
  0
XRECORD
  5
7C3
102
{ACAD_REACTORS
330
7C2
102
}
330
7C2
100
AcDbXrecord
280
     1
102
DISPLAYNAME
  1
Imperial24
102
FLAGS
 90
        0
  0
XRECORD
  5
7C5
102
{ACAD_REACTORS
330
7C4
102
}
330
7C4
100
AcDbXrecord
280
     1
102
DISPLAYNAME
  1
Metric50
102
FLAGS
 90
        0
  0
CELLSTYLEMAP
  5
7B6
102
{ACAD_REACTORS
330
68
102
}
330
68
100
AcDbCellStyleMap
 90
        3
300
CELLSTYLE
  1
TABLEFORMAT_BEGIN
 90
        5
170
     1
 91
        0
 92
    32768
 62
   257
 93
        1
300
CONTENTFORMAT
  1
CONTENTFORMAT_BEGIN
 90
        0
 91
        0
 92
        4
 93
        0
300

 40
0.0
140
1.0
 94
        5
 62
     0
340
28
144
0.25
309
CONTENTFORMAT_END
171
     1
301
MARGIN
  1
CELLMARGIN_BEGIN
 40
0.06
 40
0.06
 40
0.06
 40
0.06
 40
0.18
 40
0.18
309
CELLMARGIN_END
 94
        6
 95
        1
302
GRIDFORMAT
  1
GRIDFORMAT_BEGIN
 90
        0
 91
        1
 62
     0
 92
       -2
340
0
 93
        0
 40
0.045
309
GRIDFORMAT_END
 95
        2
302
GRIDFORMAT
  1
GRIDFORMAT_BEGIN
 90
        0
 91
        1
 62
     0
 92
       -2
340
0
 93
        0
 40
0.045
309
GRIDFORMAT_END
 95
        4
302
GRIDFORMAT
  1
GRIDFORMAT_BEGIN
 90
        0
 91
        1
 62
     0
 92
       -2
340
0
 93
        0
 40
0.045
309
GRIDFORMAT_END
 95
        8
302
GRIDFORMAT
  1
GRIDFORMAT_BEGIN
 90
        0
 91
        1
 62
     0
 92
       -2
340
0
 93
        0
 40
0.045
309
GRIDFORMAT_END
 95
       16
302
GRIDFORMAT
  1
GRIDFORMAT_BEGIN
 90
        0
 91
        1
 62
     0
 92
       -2
340
0
 93
        0
 40
0.045
309
GRIDFORMAT_END
 95
       32
302
GRIDFORMAT
  1
GRIDFORMAT_BEGIN
 90
        0
 91
        1
 62
     0
 92
       -2
340
0
 93
        0
 40
0.045
309
GRIDFORMAT_END
309
TABLEFORMAT_END
  1
CELLSTYLE_BEGIN
 90
        1
 91
        1
300
_TITLE
309
CELLSTYLE_END
300
CELLSTYLE
  1
TABLEFORMAT_BEGIN
 90
        5
170
     1
 91
        0
 92
        0
 62
   257
 93
        1
300
CONTENTFORMAT
  1
CONTENTFORMAT_BEGIN
 90
        0
 91
        0
 92
        4
 93
        0
300

 40
0.0
140
1.0
 94
        5
 62
     0
340
28
144
0.18
309
CONTENTFORMAT_END
171
     1
301
MARGIN
  1
CELLMARGIN_BEGIN
 40
0.06
 40
0.06
 40
0.06
 40
0.06
 40
0.18
 40
0.18
309
CELLMARGIN_END
 94
        6
 95
        1
302
GRIDFORMAT
  1
GRIDFORMAT_BEGIN
 90
        0
 91
        1
 62
     0
 92
       -2
340
0
 93
        0
 40
0.045
309
GRIDFORMAT_END
 95
        2
302
GRIDFORMAT
  1
GRIDFORMAT_BEGIN
 90
        0
 91
        1
 62
     0
 92
       -2
340
0
 93
        0
 40
0.045
309
GRIDFORMAT_END
 95
        4
302
GRIDFORMAT
  1
GRIDFORMAT_BEGIN
 90
        0
 91
        1
 62
     0
 92
       -2
340
0
 93
        0
 40
0.045
309
GRIDFORMAT_END
 95
        8
302
GRIDFORMAT
  1
GRIDFORMAT_BEGIN
 90
        0
 91
        1
 62
     0
 92
       -2
340
0
 93
        0
 40
0.045
309
GRIDFORMAT_END
 95
       16
302
GRIDFORMAT
  1
GRIDFORMAT_BEGIN
 90
        0
 91
        1
 62
     0
 92
       -2
340
0
 93
        0
 40
0.045
309
GRIDFORMAT_END
 95
       32
302
GRIDFORMAT
  1
GRIDFORMAT_BEGIN
 90
        0
 91
        1
 62
     0
 92
       -2
340
0
 93
        0
 40
0.045
309
GRIDFORMAT_END
309
TABLEFORMAT_END
  1
CELLSTYLE_BEGIN
 90
        2
 91
        1
300
_HEADER
309
CELLSTYLE_END
300
CELLSTYLE
  1
TABLEFORMAT_BEGIN
 90
        5
170
     1
 91
        0
 92
        0
 62
   257
 93
        1
300
CONTENTFORMAT
  1
CONTENTFORMAT_BEGIN
 90
        0
 91
        0
 92
        4
 93
        0
300

 40
0.0
140
1.0
 94
        2
 62
     0
340
28
144
0.18
309
CONTENTFORMAT_END
171
     1
301
MARGIN
  1
CELLMARGIN_BEGIN
 40
0.06
 40
0.06
 40
0.06
 40
0.06
 40
0.18
 40
0.18
309
CELLMARGIN_END
 94
        6
 95
        1
302
GRIDFORMAT
  1
GRIDFORMAT_BEGIN
 90
        0
 91
        1
 62
     0
 92
       -2
340
0
 93
        0
 40
0.045
309
GRIDFORMAT_END
 95
        2
302
GRIDFORMAT
  1
GRIDFORMAT_BEGIN
 90
        0
 91
        1
 62
     0
 92
       -2
340
0
 93
        0
 40
0.045
309
GRIDFORMAT_END
 95
        4
302
GRIDFORMAT
  1
GRIDFORMAT_BEGIN
 90
        0
 91
        1
 62
     0
 92
       -2
340
0
 93
        0
 40
0.045
309
GRIDFORMAT_END
 95
        8
302
GRIDFORMAT
  1
GRIDFORMAT_BEGIN
 90
        0
 91
        1
 62
     0
 92
       -2
340
0
 93
        0
 40
0.045
309
GRIDFORMAT_END
 95
       16
302
GRIDFORMAT
  1
GRIDFORMAT_BEGIN
 90
        0
 91
        1
 62
     0
 92
       -2
340
0
 93
        0
 40
0.045
309
GRIDFORMAT_END
 95
       32
302
GRIDFORMAT
  1
GRIDFORMAT_BEGIN
 90
        0
 91
        1
 62
     0
 92
       -2
340
0
 93
        0
 40
0.045
309
GRIDFORMAT_END
309
TABLEFORMAT_END
  1
CELLSTYLE_BEGIN
 90
        3
 91
        2
300
_DATA
309
CELLSTYLE_END
  0
XRECORD
  5
7B9
102
{ACAD_REACTORS
330
7B8
102
}
330
7B8
100
AcDbXrecord
280
     1
102
RTVSPost2010Prop28
280
     1
102
RTVSPost2010PropOp28
 70
     1
102
RTVSPost2010Prop29
280
     1
102
RTVSPost2010PropOp29
 70
     1
102
RTVSPost2010Prop30
280
     0
102
RTVSPost2010PropOp30
 70
     1
102
RTVSPost2010Prop31
280
     0
102
RTVSPost2010PropOp31
 70
     1
102
RTVSPost2010Prop32
280
     0
102
RTVSPost2010PropOp32
 70
     1
102
RTVSPost2010Prop33
280
     0
102
RTVSPost2010PropOp33
 70
     1
102
RTVSPost2010Prop34
280
     0
102
RTVSPost2010PropOp34
 70
     1
102
RTVSPost2010Prop35
280
     0
102
RTVSPost2010PropOp35
 70
     1
102
RTVSPost2010Prop36
280
     0
102
RTVSPost2010PropOp36
 70
     1
102
RTVSPost2010Prop37
 90
       50
102
RTVSPost2010PropOp37
 70
     1
102
RTVSPost2010Prop38
140
0.0
102
RTVSPost2010PropOp38
 70
     1
102
RTVSPost2010Prop39
140
1.0
102
RTVSPost2010PropOp39
 70
     1
102
RTVSPost2010Prop40
 90
        0
102
RTVSPost2010PropOp40
 70
     1
102
RTVSPost2010Prop41ColorIndex
 90
       18
102
RTVSPost2010Prop41ColorRGB
 90
-16777216
102
RTVSPost2010PropOp41
 70
     1
102
RTVSPost2010Prop42
 90
       50
102
RTVSPost2010PropOp42
 70
     1
102
RTVSPost2010Prop43
 90
        3
102
RTVSPost2010PropOp43
 70
     1
102
RTVSPost2010Prop44ColorIndex
 90
        5
102
RTVSPost2010Prop44ColorRGB
 90
      255
102
RTVSPost2010PropOp44
 70
     1
102
RTVSPost2010Prop45
280
     0
102
RTVSPost2010PropOp45
 70
     1
102
RTVSPost2010Prop46
 90
       50
102
RTVSPost2010PropOp46
 70
     1
102
RTVSPost2010Prop47
 90
       50
102
RTVSPost2010PropOp47
 70
     1
102
RTVSPost2010Prop48
 90
       50
102
RTVSPost2010PropOp48
 70
     1
102
RTVSPost2010Prop49
280
     0
102
RTVSPost2010PropOp49
 70
     1
102
RTVSPost2010Prop50
 90
       50
102
RTVSPost2010PropOp50
 70
     1
102
RTVSPost2010Prop51ColorIndex
 90
      256
102
RTVSPost2010Prop51ColorRGB
 90
-16777216
102
RTVSPost2010PropOp51
 70
     0
102
RTVSPost2010Prop52
140
1.0
102
RTVSPost2010PropOp52
 70
     0
102
RTVSPost2010Prop53
 90
        2
102
RTVSPost2010PropOp53
 70
     1
102
RTVSPost2010Prop54
  1
strokes_ogs.tif
102
RTVSPost2010PropOp54
 70
     1
102
RTVSPost2010Prop55
280
     0
102
RTVSPost2010PropOp55
 70
     1
102
RTVSPost2010Prop56
140
1.0
102
RTVSPost2010PropOp56
 70
     1
102
RTVSPost2010Prop57
140
1.0
102
RTVSPost2010PropOp57
 70
     1
  0
XRECORD
  5
7CF
102
{ACAD_REACTORS
330
7CE
102
}
330
7CE
100
AcDbXrecord
280
     1
102
RTVSPost2010Prop28
280
     0
102
RTVSPost2010PropOp28
 70
     1
102
RTVSPost2010Prop29
280
     1
102
RTVSPost2010PropOp29
 70
     1
102
RTVSPost2010Prop30
280
     1
102
RTVSPost2010PropOp30
 70
     1
102
RTVSPost2010Prop31
280
     0
102
RTVSPost2010PropOp31
 70
     1
102
RTVSPost2010Prop32
280
     0
102
RTVSPost2010PropOp32
 70
     1
102
RTVSPost2010Prop33
280
     0
102
RTVSPost2010PropOp33
 70
     1
102
RTVSPost2010Prop34
280
     0
102
RTVSPost2010PropOp34
 70
     1
102
RTVSPost2010Prop35
280
     0
102
RTVSPost2010PropOp35
 70
     1
102
RTVSPost2010Prop36
280
     0
102
RTVSPost2010PropOp36
 70
     1
102
RTVSPost2010Prop37
 90
       50
102
RTVSPost2010PropOp37
 70
     1
102
RTVSPost2010Prop38
140
0.0
102
RTVSPost2010PropOp38
 70
     1
102
RTVSPost2010Prop39
140
1.0
102
RTVSPost2010PropOp39
 70
     1
102
RTVSPost2010Prop40
 90
        0
102
RTVSPost2010PropOp40
 70
     1
102
RTVSPost2010Prop41ColorIndex
 90
       18
102
RTVSPost2010Prop41ColorRGB
 90
        0
102
RTVSPost2010PropOp41
 70
     1
102
RTVSPost2010Prop42
 90
       50
102
RTVSPost2010PropOp42
 70
     1
102
RTVSPost2010Prop43
 90
        3
102
RTVSPost2010PropOp43
 70
     1
102
RTVSPost2010Prop44ColorIndex
 90
        5
102
RTVSPost2010Prop44ColorRGB
 90
      255
102
RTVSPost2010PropOp44
 70
     1
102
RTVSPost2010Prop45
280
     0
102
RTVSPost2010PropOp45
 70
     1
102
RTVSPost2010Prop46
 90
       50
102
RTVSPost2010PropOp46
 70
     1
102
RTVSPost2010Prop47
 90
       50
102
RTVSPost2010PropOp47
 70
     1
102
RTVSPost2010Prop48
 90
       50
102
RTVSPost2010PropOp48
 70
     1
102
RTVSPost2010Prop49
280
     0
102
RTVSPost2010PropOp49
 70
     1
102
RTVSPost2010Prop50
 90
       50
102
RTVSPost2010PropOp50
 70
     1
102
RTVSPost2010Prop51ColorIndex
 90
      256
102
RTVSPost2010Prop51ColorRGB
 90
-16777216
102
RTVSPost2010PropOp51
 70
     0
102
RTVSPost2010Prop52
140
1.0
102
RTVSPost2010PropOp52
 70
     0
102
RTVSPost2010Prop53
 90
        2
102
RTVSPost2010PropOp53
 70
     1
102
RTVSPost2010Prop54
  1
strokes_ogs.tif
102
RTVSPost2010PropOp54
 70
     1
102
RTVSPost2010Prop55
280
     0
102
RTVSPost2010PropOp55
 70
     1
102
RTVSPost2010Prop56
140
1.0
102
RTVSPost2010PropOp56
 70
     1
102
RTVSPost2010Prop57
140
1.0
102
RTVSPost2010PropOp57
 70
     1
  0
XRECORD
  5
7D7
102
{ACAD_REACTORS
330
7D6
102
}
330
7D6
100
AcDbXrecord
280
     1
102
RTVSPost2010Prop28
280
     0
102
RTVSPost2010PropOp28
 70
     1
102
RTVSPost2010Prop29
280
     1
102
RTVSPost2010PropOp29
 70
     1
102
RTVSPost2010Prop30
280
     1
102
RTVSPost2010PropOp30
 70
     1
102
RTVSPost2010Prop31
280
     0
102
RTVSPost2010PropOp31
 70
     1
102
RTVSPost2010Prop32
280
     0
102
RTVSPost2010PropOp32
 70
     1
102
RTVSPost2010Prop33
280
     0
102
RTVSPost2010PropOp33
 70
     1
102
RTVSPost2010Prop34
280
     0
102
RTVSPost2010PropOp34
 70
     1
102
RTVSPost2010Prop35
280
     0
102
RTVSPost2010PropOp35
 70
     1
102
RTVSPost2010Prop36
280
     0
102
RTVSPost2010PropOp36
 70
     1
102
RTVSPost2010Prop37
 90
       50
102
RTVSPost2010PropOp37
 70
     1
102
RTVSPost2010Prop38
140
0.0
102
RTVSPost2010PropOp38
 70
     1
102
RTVSPost2010Prop39
140
1.0
102
RTVSPost2010PropOp39
 70
     1
102
RTVSPost2010Prop40
 90
        0
102
RTVSPost2010PropOp40
 70
     1
102
RTVSPost2010Prop41ColorIndex
 90
       18
102
RTVSPost2010Prop41ColorRGB
 90
        0
102
RTVSPost2010PropOp41
 70
     1
102
RTVSPost2010Prop42
 90
       50
102
RTVSPost2010PropOp42
 70
     1
102
RTVSPost2010Prop43
 90
        3
102
RTVSPost2010PropOp43
 70
     1
102
RTVSPost2010Prop44ColorIndex
 90
        5
102
RTVSPost2010Prop44ColorRGB
 90
      255
102
RTVSPost2010PropOp44
 70
     1
102
RTVSPost2010Prop45
280
     0
102
RTVSPost2010PropOp45
 70
     1
102
RTVSPost2010Prop46
 90
       50
102
RTVSPost2010PropOp46
 70
     1
102
RTVSPost2010Prop47
 90
       50
102
RTVSPost2010PropOp47
 70
     1
102
RTVSPost2010Prop48
 90
       50
102
RTVSPost2010PropOp48
 70
     1
102
RTVSPost2010Prop49
280
     0
102
RTVSPost2010PropOp49
 70
     1
102
RTVSPost2010Prop50
 90
       50
102
RTVSPost2010PropOp50
 70
     1
102
RTVSPost2010Prop51ColorIndex
 90
      256
102
RTVSPost2010Prop51ColorRGB
 90
-16777216
102
RTVSPost2010PropOp51
 70
     0
102
RTVSPost2010Prop52
140
1.0
102
RTVSPost2010PropOp52
 70
     0
102
RTVSPost2010Prop53
 90
        2
102
RTVSPost2010PropOp53
 70
     1
102
RTVSPost2010Prop54
  1
strokes_ogs.tif
102
RTVSPost2010PropOp54
 70
     1
102
RTVSPost2010Prop55
280
     0
102
RTVSPost2010PropOp55
 70
     1
102
RTVSPost2010Prop56
140
1.0
102
RTVSPost2010PropOp56
 70
     1
102
RTVSPost2010Prop57
140
1.0
102
RTVSPost2010PropOp57
 70
     1
  0
XRECORD
  5
7DF
102
{ACAD_REACTORS
330
7DE
102
}
330
7DE
100
AcDbXrecord
280
     1
102
RTVSPost2010Prop28
280
     0
102
RTVSPost2010PropOp28
 70
     1
102
RTVSPost2010Prop29
280
     1
102
RTVSPost2010PropOp29
 70
     1
102
RTVSPost2010Prop30
280
     1
102
RTVSPost2010PropOp30
 70
     1
102
RTVSPost2010Prop31
280
     0
102
RTVSPost2010PropOp31
 70
     1
102
RTVSPost2010Prop32
280
     0
102
RTVSPost2010PropOp32
 70
     1
102
RTVSPost2010Prop33
280
     0
102
RTVSPost2010PropOp33
 70
     1
102
RTVSPost2010Prop34
280
     0
102
RTVSPost2010PropOp34
 70
     1
102
RTVSPost2010Prop35
280
     0
102
RTVSPost2010PropOp35
 70
     1
102
RTVSPost2010Prop36
280
     0
102
RTVSPost2010PropOp36
 70
     1
102
RTVSPost2010Prop37
 90
       50
102
RTVSPost2010PropOp37
 70
     1
102
RTVSPost2010Prop38
140
0.0
102
RTVSPost2010PropOp38
 70
     1
102
RTVSPost2010Prop39
140
1.0
102
RTVSPost2010PropOp39
 70
     1
102
RTVSPost2010Prop40
 90
        0
102
RTVSPost2010PropOp40
 70
     1
102
RTVSPost2010Prop41ColorIndex
 90
       18
102
RTVSPost2010Prop41ColorRGB
 90
        0
102
RTVSPost2010PropOp41
 70
     1
102
RTVSPost2010Prop42
 90
       50
102
RTVSPost2010PropOp42
 70
     1
102
RTVSPost2010Prop43
 90
        3
102
RTVSPost2010PropOp43
 70
     1
102
RTVSPost2010Prop44ColorIndex
 90
        5
102
RTVSPost2010Prop44ColorRGB
 90
      255
102
RTVSPost2010PropOp44
 70
     1
102
RTVSPost2010Prop45
280
     0
102
RTVSPost2010PropOp45
 70
     1
102
RTVSPost2010Prop46
 90
       50
102
RTVSPost2010PropOp46
 70
     1
102
RTVSPost2010Prop47
 90
       50
102
RTVSPost2010PropOp47
 70
     1
102
RTVSPost2010Prop48
 90
       50
102
RTVSPost2010PropOp48
 70
     1
102
RTVSPost2010Prop49
280
     0
102
RTVSPost2010PropOp49
 70
     1
102
RTVSPost2010Prop50
 90
       50
102
RTVSPost2010PropOp50
 70
     1
102
RTVSPost2010Prop51ColorIndex
 90
      256
102
RTVSPost2010Prop51ColorRGB
 90
-16777216
102
RTVSPost2010PropOp51
 70
     0
102
RTVSPost2010Prop52
140
1.0
102
RTVSPost2010PropOp52
 70
     0
102
RTVSPost2010Prop53
 90
        2
102
RTVSPost2010PropOp53
 70
     1
102
RTVSPost2010Prop54
  1
strokes_ogs.tif
102
RTVSPost2010PropOp54
 70
     1
102
RTVSPost2010Prop55
280
     0
102
RTVSPost2010PropOp55
 70
     1
102
RTVSPost2010Prop56
140
1.0
102
RTVSPost2010PropOp56
 70
     1
102
RTVSPost2010Prop57
140
1.0
102
RTVSPost2010PropOp57
 70
     1
  0
XRECORD
  5
7D3
102
{ACAD_REACTORS
330
7D2
102
}
330
7D2
100
AcDbXrecord
280
     1
102
RTVSPost2010Prop28
280
     0
102
RTVSPost2010PropOp28
 70
     1
102
RTVSPost2010Prop29
280
     1
102
RTVSPost2010PropOp29
 70
     1
102
RTVSPost2010Prop30
280
     1
102
RTVSPost2010PropOp30
 70
     1
102
RTVSPost2010Prop31
280
     0
102
RTVSPost2010PropOp31
 70
     1
102
RTVSPost2010Prop32
280
     0
102
RTVSPost2010PropOp32
 70
     1
102
RTVSPost2010Prop33
280
     0
102
RTVSPost2010PropOp33
 70
     1
102
RTVSPost2010Prop34
280
     0
102
RTVSPost2010PropOp34
 70
     1
102
RTVSPost2010Prop35
280
     0
102
RTVSPost2010PropOp35
 70
     1
102
RTVSPost2010Prop36
280
     0
102
RTVSPost2010PropOp36
 70
     1
102
RTVSPost2010Prop37
 90
       50
102
RTVSPost2010PropOp37
 70
     1
102
RTVSPost2010Prop38
140
0.0
102
RTVSPost2010PropOp38
 70
     1
102
RTVSPost2010Prop39
140
1.0
102
RTVSPost2010PropOp39
 70
     1
102
RTVSPost2010Prop40
 90
        0
102
RTVSPost2010PropOp40
 70
     1
102
RTVSPost2010Prop41ColorIndex
 90
       18
102
RTVSPost2010Prop41ColorRGB
 90
        0
102
RTVSPost2010PropOp41
 70
     1
102
RTVSPost2010Prop42
 90
       50
102
RTVSPost2010PropOp42
 70
     1
102
RTVSPost2010Prop43
 90
        3
102
RTVSPost2010PropOp43
 70
     1
102
RTVSPost2010Prop44ColorIndex
 90
        5
102
RTVSPost2010Prop44ColorRGB
 90
      255
102
RTVSPost2010PropOp44
 70
     1
102
RTVSPost2010Prop45
280
     0
102
RTVSPost2010PropOp45
 70
     1
102
RTVSPost2010Prop46
 90
       50
102
RTVSPost2010PropOp46
 70
     1
102
RTVSPost2010Prop47
 90
       50
102
RTVSPost2010PropOp47
 70
     1
102
RTVSPost2010Prop48
 90
       50
102
RTVSPost2010PropOp48
 70
     1
102
RTVSPost2010Prop49
280
     0
102
RTVSPost2010PropOp49
 70
     1
102
RTVSPost2010Prop50
 90
       50
102
RTVSPost2010PropOp50
 70
     1
102
RTVSPost2010Prop51ColorIndex
 90
      256
102
RTVSPost2010Prop51ColorRGB
 90
-16777216
102
RTVSPost2010PropOp51
 70
     0
102
RTVSPost2010Prop52
140
1.0
102
RTVSPost2010PropOp52
 70
     0
102
RTVSPost2010Prop53
 90
        2
102
RTVSPost2010PropOp53
 70
     1
102
RTVSPost2010Prop54
  1
strokes_ogs.tif
102
RTVSPost2010PropOp54
 70
     1
102
RTVSPost2010Prop55
280
     0
102
RTVSPost2010PropOp55
 70
     1
102
RTVSPost2010Prop56
140
1.0
102
RTVSPost2010PropOp56
 70
     1
102
RTVSPost2010Prop57
140
1.0
102
RTVSPost2010PropOp57
 70
     1
  0
XRECORD
  5
7D5
102
{ACAD_REACTORS
330
7D4
102
}
330
7D4
100
AcDbXrecord
280
     1
102
RTVSPost2010Prop28
280
     0
102
RTVSPost2010PropOp28
 70
     1
102
RTVSPost2010Prop29
280
     1
102
RTVSPost2010PropOp29
 70
     1
102
RTVSPost2010Prop30
280
     1
102
RTVSPost2010PropOp30
 70
     1
102
RTVSPost2010Prop31
280
     0
102
RTVSPost2010PropOp31
 70
     1
102
RTVSPost2010Prop32
280
     0
102
RTVSPost2010PropOp32
 70
     1
102
RTVSPost2010Prop33
280
     0
102
RTVSPost2010PropOp33
 70
     1
102
RTVSPost2010Prop34
280
     0
102
RTVSPost2010PropOp34
 70
     1
102
RTVSPost2010Prop35
280
     0
102
RTVSPost2010PropOp35
 70
     1
102
RTVSPost2010Prop36
280
     0
102
RTVSPost2010PropOp36
 70
     1
102
RTVSPost2010Prop37
 90
       50
102
RTVSPost2010PropOp37
 70
     1
102
RTVSPost2010Prop38
140
0.0
102
RTVSPost2010PropOp38
 70
     1
102
RTVSPost2010Prop39
140
1.0
102
RTVSPost2010PropOp39
 70
     1
102
RTVSPost2010Prop40
 90
        0
102
RTVSPost2010PropOp40
 70
     1
102
RTVSPost2010Prop41ColorIndex
 90
       18
102
RTVSPost2010Prop41ColorRGB
 90
        0
102
RTVSPost2010PropOp41
 70
     1
102
RTVSPost2010Prop42
 90
       50
102
RTVSPost2010PropOp42
 70
     1
102
RTVSPost2010Prop43
 90
        3
102
RTVSPost2010PropOp43
 70
     1
102
RTVSPost2010Prop44ColorIndex
 90
        5
102
RTVSPost2010Prop44ColorRGB
 90
      255
102
RTVSPost2010PropOp44
 70
     1
102
RTVSPost2010Prop45
280
     0
102
RTVSPost2010PropOp45
 70
     1
102
RTVSPost2010Prop46
 90
       50
102
RTVSPost2010PropOp46
 70
     1
102
RTVSPost2010Prop47
 90
       50
102
RTVSPost2010PropOp47
 70
     1
102
RTVSPost2010Prop48
 90
       50
102
RTVSPost2010PropOp48
 70
     1
102
RTVSPost2010Prop49
280
     0
102
RTVSPost2010PropOp49
 70
     1
102
RTVSPost2010Prop50
 90
       50
102
RTVSPost2010PropOp50
 70
     1
102
RTVSPost2010Prop51ColorIndex
 90
      256
102
RTVSPost2010Prop51ColorRGB
 90
-16777216
102
RTVSPost2010PropOp51
 70
     0
102
RTVSPost2010Prop52
140
1.0
102
RTVSPost2010PropOp52
 70
     0
102
RTVSPost2010Prop53
 90
        2
102
RTVSPost2010PropOp53
 70
     1
102
RTVSPost2010Prop54
  1
strokes_ogs.tif
102
RTVSPost2010PropOp54
 70
     1
102
RTVSPost2010Prop55
280
     0
102
RTVSPost2010PropOp55
 70
     1
102
RTVSPost2010Prop56
140
1.0
102
RTVSPost2010PropOp56
 70
     1
102
RTVSPost2010Prop57
140
1.0
102
RTVSPost2010PropOp57
 70
     1
  0
XRECORD
  5
7EF
102
{ACAD_REACTORS
330
7EE
102
}
330
7EE
100
AcDbXrecord
280
     1
102
RTVSPost2010Prop28
280
     0
102
RTVSPost2010PropOp28
 70
     1
102
RTVSPost2010Prop29
280
     1
102
RTVSPost2010PropOp29
 70
     1
102
RTVSPost2010Prop30
280
     1
102
RTVSPost2010PropOp30
 70
     1
102
RTVSPost2010Prop31
280
     0
102
RTVSPost2010PropOp31
 70
     1
102
RTVSPost2010Prop32
280
     0
102
RTVSPost2010PropOp32
 70
     1
102
RTVSPost2010Prop33
280
     0
102
RTVSPost2010PropOp33
 70
     1
102
RTVSPost2010Prop34
280
     0
102
RTVSPost2010PropOp34
 70
     1
102
RTVSPost2010Prop35
280
     0
102
RTVSPost2010PropOp35
 70
     1
102
RTVSPost2010Prop36
280
     0
102
RTVSPost2010PropOp36
 70
     1
102
RTVSPost2010Prop37
 90
       50
102
RTVSPost2010PropOp37
 70
     0
102
RTVSPost2010Prop38
140
0.0
102
RTVSPost2010PropOp38
 70
     0
102
RTVSPost2010Prop39
140
1.0
102
RTVSPost2010PropOp39
 70
     0
102
RTVSPost2010Prop40
 90
        0
102
RTVSPost2010PropOp40
 70
     0
102
RTVSPost2010Prop41ColorIndex
 90
       18
102
RTVSPost2010Prop41ColorRGB
 90
        0
102
RTVSPost2010PropOp41
 70
     0
102
RTVSPost2010Prop42
 90
       50
102
RTVSPost2010PropOp42
 70
     0
102
RTVSPost2010Prop43
 90
        3
102
RTVSPost2010PropOp43
 70
     0
102
RTVSPost2010Prop44ColorIndex
 90
        5
102
RTVSPost2010Prop44ColorRGB
 90
      255
102
RTVSPost2010PropOp44
 70
     0
102
RTVSPost2010Prop45
280
     0
102
RTVSPost2010PropOp45
 70
     1
102
RTVSPost2010Prop46
 90
       50
102
RTVSPost2010PropOp46
 70
     0
102
RTVSPost2010Prop47
 90
       50
102
RTVSPost2010PropOp47
 70
     0
102
RTVSPost2010Prop48
 90
       50
102
RTVSPost2010PropOp48
 70
     0
102
RTVSPost2010Prop49
280
     0
102
RTVSPost2010PropOp49
 70
     1
102
RTVSPost2010Prop50
 90
       50
102
RTVSPost2010PropOp50
 70
     0
102
RTVSPost2010Prop51ColorIndex
 90
      256
102
RTVSPost2010Prop51ColorRGB
 90
-16777216
102
RTVSPost2010PropOp51
 70
     0
102
RTVSPost2010Prop52
140
1.0
102
RTVSPost2010PropOp52
 70
     0
102
RTVSPost2010Prop53
 90
        2
102
RTVSPost2010PropOp53
 70
     0
102
RTVSPost2010Prop54
  1
strokes_ogs.tif
102
RTVSPost2010PropOp54
 70
     0
102
RTVSPost2010Prop55
280
     0
102
RTVSPost2010PropOp55
 70
     1
102
RTVSPost2010Prop56
140
1.0
102
RTVSPost2010PropOp56
 70
     0
102
RTVSPost2010Prop57
140
1.0
102
RTVSPost2010PropOp57
 70
     0
  0
XRECORD
  5
7DD
102
{ACAD_REACTORS
330
7DC
102
}
330
7DC
100
AcDbXrecord
280
     1
102
RTVSPost2010Prop28
280
     0
102
RTVSPost2010PropOp28
 70
     1
102
RTVSPost2010Prop29
280
     1
102
RTVSPost2010PropOp29
 70
     1
102
RTVSPost2010Prop30
280
     1
102
RTVSPost2010PropOp30
 70
     1
102
RTVSPost2010Prop31
280
     0
102
RTVSPost2010PropOp31
 70
     1
102
RTVSPost2010Prop32
280
     0
102
RTVSPost2010PropOp32
 70
     1
102
RTVSPost2010Prop33
280
     0
102
RTVSPost2010PropOp33
 70
     1
102
RTVSPost2010Prop34
280
     0
102
RTVSPost2010PropOp34
 70
     1
102
RTVSPost2010Prop35
280
     0
102
RTVSPost2010PropOp35
 70
     1
102
RTVSPost2010Prop36
280
     0
102
RTVSPost2010PropOp36
 70
     1
102
RTVSPost2010Prop37
 90
       50
102
RTVSPost2010PropOp37
 70
     1
102
RTVSPost2010Prop38
140
0.0
102
RTVSPost2010PropOp38
 70
     1
102
RTVSPost2010Prop39
140
1.0
102
RTVSPost2010PropOp39
 70
     1
102
RTVSPost2010Prop40
 90
        0
102
RTVSPost2010PropOp40
 70
     1
102
RTVSPost2010Prop41ColorIndex
 90
       18
102
RTVSPost2010Prop41ColorRGB
 90
        0
102
RTVSPost2010PropOp41
 70
     1
102
RTVSPost2010Prop42
 90
       50
102
RTVSPost2010PropOp42
 70
     1
102
RTVSPost2010Prop43
 90
        3
102
RTVSPost2010PropOp43
 70
     1
102
RTVSPost2010Prop44ColorIndex
 90
        5
102
RTVSPost2010Prop44ColorRGB
 90
      255
102
RTVSPost2010PropOp44
 70
     1
102
RTVSPost2010Prop45
280
     0
102
RTVSPost2010PropOp45
 70
     1
102
RTVSPost2010Prop46
 90
       50
102
RTVSPost2010PropOp46
 70
     1
102
RTVSPost2010Prop47
 90
       50
102
RTVSPost2010PropOp47
 70
     1
102
RTVSPost2010Prop48
 90
       50
102
RTVSPost2010PropOp48
 70
     1
102
RTVSPost2010Prop49
280
     0
102
RTVSPost2010PropOp49
 70
     1
102
RTVSPost2010Prop50
 90
       50
102
RTVSPost2010PropOp50
 70
     1
102
RTVSPost2010Prop51ColorIndex
 90
      256
102
RTVSPost2010Prop51ColorRGB
 90
-16777216
102
RTVSPost2010PropOp51
 70
     0
102
RTVSPost2010Prop52
140
1.0
102
RTVSPost2010PropOp52
 70
     0
102
RTVSPost2010Prop53
 90
        2
102
RTVSPost2010PropOp53
 70
     1
102
RTVSPost2010Prop54
  1
strokes_ogs.tif
102
RTVSPost2010PropOp54
 70
     1
102
RTVSPost2010Prop55
280
     0
102
RTVSPost2010PropOp55
 70
     1
102
RTVSPost2010Prop56
140
1.0
102
RTVSPost2010PropOp56
 70
     1
102
RTVSPost2010Prop57
140
1.0
102
RTVSPost2010PropOp57
 70
     1
  0
XRECORD
  5
7C7
102
{ACAD_REACTORS
330
7C6
102
}
330
7C6
100
AcDbXrecord
280
     1
102
RTVSPost2010Prop28
280
     0
102
RTVSPost2010PropOp28
 70
     1
102
RTVSPost2010Prop29
280
     1
102
RTVSPost2010PropOp29
 70
     1
102
RTVSPost2010Prop30
280
     1
102
RTVSPost2010PropOp30
 70
     1
102
RTVSPost2010Prop31
280
     0
102
RTVSPost2010PropOp31
 70
     1
102
RTVSPost2010Prop32
280
     0
102
RTVSPost2010PropOp32
 70
     1
102
RTVSPost2010Prop33
280
     0
102
RTVSPost2010PropOp33
 70
     1
102
RTVSPost2010Prop34
280
     0
102
RTVSPost2010PropOp34
 70
     1
102
RTVSPost2010Prop35
280
     0
102
RTVSPost2010PropOp35
 70
     1
102
RTVSPost2010Prop36
280
     0
102
RTVSPost2010PropOp36
 70
     1
102
RTVSPost2010Prop37
 90
       50
102
RTVSPost2010PropOp37
 70
     1
102
RTVSPost2010Prop38
140
0.0
102
RTVSPost2010PropOp38
 70
     1
102
RTVSPost2010Prop39
140
1.0
102
RTVSPost2010PropOp39
 70
     1
102
RTVSPost2010Prop40
 90
        0
102
RTVSPost2010PropOp40
 70
     1
102
RTVSPost2010Prop41ColorIndex
 90
       18
102
RTVSPost2010Prop41ColorRGB
 90
        0
102
RTVSPost2010PropOp41
 70
     1
102
RTVSPost2010Prop42
 90
       50
102
RTVSPost2010PropOp42
 70
     1
102
RTVSPost2010Prop43
 90
        3
102
RTVSPost2010PropOp43
 70
     1
102
RTVSPost2010Prop44ColorIndex
 90
        5
102
RTVSPost2010Prop44ColorRGB
 90
      255
102
RTVSPost2010PropOp44
 70
     1
102
RTVSPost2010Prop45
280
     0
102
RTVSPost2010PropOp45
 70
     1
102
RTVSPost2010Prop46
 90
       50
102
RTVSPost2010PropOp46
 70
     1
102
RTVSPost2010Prop47
 90
       50
102
RTVSPost2010PropOp47
 70
     1
102
RTVSPost2010Prop48
 90
       50
102
RTVSPost2010PropOp48
 70
     1
102
RTVSPost2010Prop49
280
     0
102
RTVSPost2010PropOp49
 70
     1
102
RTVSPost2010Prop50
 90
       50
102
RTVSPost2010PropOp50
 70
     1
102
RTVSPost2010Prop51ColorIndex
 90
      256
102
RTVSPost2010Prop51ColorRGB
 90
-16777216
102
RTVSPost2010PropOp51
 70
     0
102
RTVSPost2010Prop52
140
1.0
102
RTVSPost2010PropOp52
 70
     0
102
RTVSPost2010Prop53
 90
        2
102
RTVSPost2010PropOp53
 70
     1
102
RTVSPost2010Prop54
  1
strokes_ogs.tif
102
RTVSPost2010PropOp54
 70
     1
102
RTVSPost2010Prop55
280
     0
102
RTVSPost2010PropOp55
 70
     1
102
RTVSPost2010Prop56
140
1.0
102
RTVSPost2010PropOp56
 70
     1
102
RTVSPost2010Prop57
140
1.0
102
RTVSPost2010PropOp57
 70
     1
  0
XRECORD
  5
7C9
102
{ACAD_REACTORS
330
7C8
102
}
330
7C8
100
AcDbXrecord
280
     1
102
RTVSPost2010Prop28
280
     0
102
RTVSPost2010PropOp28
 70
     1
102
RTVSPost2010Prop29
280
     1
102
RTVSPost2010PropOp29
 70
     1
102
RTVSPost2010Prop30
280
     1
102
RTVSPost2010PropOp30
 70
     1
102
RTVSPost2010Prop31
280
     0
102
RTVSPost2010PropOp31
 70
     1
102
RTVSPost2010Prop32
280
     0
102
RTVSPost2010PropOp32
 70
     1
102
RTVSPost2010Prop33
280
     0
102
RTVSPost2010PropOp33
 70
     1
102
RTVSPost2010Prop34
280
     0
102
RTVSPost2010PropOp34
 70
     1
102
RTVSPost2010Prop35
280
     0
102
RTVSPost2010PropOp35
 70
     1
102
RTVSPost2010Prop36
280
     0
102
RTVSPost2010PropOp36
 70
     1
102
RTVSPost2010Prop37
 90
       50
102
RTVSPost2010PropOp37
 70
     1
102
RTVSPost2010Prop38
140
0.0
102
RTVSPost2010PropOp38
 70
     1
102
RTVSPost2010Prop39
140
1.0
102
RTVSPost2010PropOp39
 70
     1
102
RTVSPost2010Prop40
 90
        0
102
RTVSPost2010PropOp40
 70
     1
102
RTVSPost2010Prop41ColorIndex
 90
       18
102
RTVSPost2010Prop41ColorRGB
 90
        0
102
RTVSPost2010PropOp41
 70
     1
102
RTVSPost2010Prop42
 90
       50
102
RTVSPost2010PropOp42
 70
     1
102
RTVSPost2010Prop43
 90
        3
102
RTVSPost2010PropOp43
 70
     1
102
RTVSPost2010Prop44ColorIndex
 90
        5
102
RTVSPost2010Prop44ColorRGB
 90
      255
102
RTVSPost2010PropOp44
 70
     1
102
RTVSPost2010Prop45
280
     0
102
RTVSPost2010PropOp45
 70
     1
102
RTVSPost2010Prop46
 90
       50
102
RTVSPost2010PropOp46
 70
     1
102
RTVSPost2010Prop47
 90
       50
102
RTVSPost2010PropOp47
 70
     1
102
RTVSPost2010Prop48
 90
       50
102
RTVSPost2010PropOp48
 70
     1
102
RTVSPost2010Prop49
280
     0
102
RTVSPost2010PropOp49
 70
     1
102
RTVSPost2010Prop50
 90
       50
102
RTVSPost2010PropOp50
 70
     1
102
RTVSPost2010Prop51ColorIndex
 90
      256
102
RTVSPost2010Prop51ColorRGB
 90
-16777216
102
RTVSPost2010PropOp51
 70
     0
102
RTVSPost2010Prop52
140
1.0
102
RTVSPost2010PropOp52
 70
     0
102
RTVSPost2010Prop53
 90
        2
102
RTVSPost2010PropOp53
 70
     1
102
RTVSPost2010Prop54
  1
strokes_ogs.tif
102
RTVSPost2010PropOp54
 70
     1
102
RTVSPost2010Prop55
280
     0
102
RTVSPost2010PropOp55
 70
     1
102
RTVSPost2010Prop56
140
1.0
102
RTVSPost2010PropOp56
 70
     1
102
RTVSPost2010Prop57
140
1.0
102
RTVSPost2010PropOp57
 70
     1
  0
XRECORD
  5
7CB
102
{ACAD_REACTORS
330
7CA
102
}
330
7CA
100
AcDbXrecord
280
     1
102
RTVSPost2010Prop28
280
     0
102
RTVSPost2010PropOp28
 70
     1
102
RTVSPost2010Prop29
280
     1
102
RTVSPost2010PropOp29
 70
     1
102
RTVSPost2010Prop30
280
     1
102
RTVSPost2010PropOp30
 70
     1
102
RTVSPost2010Prop31
280
     0
102
RTVSPost2010PropOp31
 70
     1
102
RTVSPost2010Prop32
280
     0
102
RTVSPost2010PropOp32
 70
     1
102
RTVSPost2010Prop33
280
     0
102
RTVSPost2010PropOp33
 70
     1
102
RTVSPost2010Prop34
280
     0
102
RTVSPost2010PropOp34
 70
     1
102
RTVSPost2010Prop35
280
     0
102
RTVSPost2010PropOp35
 70
     1
102
RTVSPost2010Prop36
280
     0
102
RTVSPost2010PropOp36
 70
     1
102
RTVSPost2010Prop37
 90
       50
102
RTVSPost2010PropOp37
 70
     1
102
RTVSPost2010Prop38
140
0.0
102
RTVSPost2010PropOp38
 70
     1
102
RTVSPost2010Prop39
140
1.0
102
RTVSPost2010PropOp39
 70
     1
102
RTVSPost2010Prop40
 90
        0
102
RTVSPost2010PropOp40
 70
     1
102
RTVSPost2010Prop41ColorIndex
 90
       18
102
RTVSPost2010Prop41ColorRGB
 90
        0
102
RTVSPost2010PropOp41
 70
     1
102
RTVSPost2010Prop42
 90
       50
102
RTVSPost2010PropOp42
 70
     1
102
RTVSPost2010Prop43
 90
        3
102
RTVSPost2010PropOp43
 70
     1
102
RTVSPost2010Prop44ColorIndex
 90
        5
102
RTVSPost2010Prop44ColorRGB
 90
      255
102
RTVSPost2010PropOp44
 70
     1
102
RTVSPost2010Prop45
280
     0
102
RTVSPost2010PropOp45
 70
     1
102
RTVSPost2010Prop46
 90
       50
102
RTVSPost2010PropOp46
 70
     1
102
RTVSPost2010Prop47
 90
       50
102
RTVSPost2010PropOp47
 70
     1
102
RTVSPost2010Prop48
 90
       50
102
RTVSPost2010PropOp48
 70
     1
102
RTVSPost2010Prop49
280
     0
102
RTVSPost2010PropOp49
 70
     1
102
RTVSPost2010Prop50
 90
       50
102
RTVSPost2010PropOp50
 70
     1
102
RTVSPost2010Prop51ColorIndex
 90
      256
102
RTVSPost2010Prop51ColorRGB
 90
-16777216
102
RTVSPost2010PropOp51
 70
     0
102
RTVSPost2010Prop52
140
1.0
102
RTVSPost2010PropOp52
 70
     0
102
RTVSPost2010Prop53
 90
        2
102
RTVSPost2010PropOp53
 70
     1
102
RTVSPost2010Prop54
  1
strokes_ogs.tif
102
RTVSPost2010PropOp54
 70
     1
102
RTVSPost2010Prop55
280
     0
102
RTVSPost2010PropOp55
 70
     1
102
RTVSPost2010Prop56
140
1.0
102
RTVSPost2010PropOp56
 70
     1
102
RTVSPost2010Prop57
140
1.0
102
RTVSPost2010PropOp57
 70
     1
  0
XRECORD
  5
7CD
102
{ACAD_REACTORS
330
7CC
102
}
330
7CC
100
AcDbXrecord
280
     1
102
RTVSPost2010Prop28
280
     0
102
RTVSPost2010PropOp28
 70
     1
102
RTVSPost2010Prop29
280
     1
102
RTVSPost2010PropOp29
 70
     1
102
RTVSPost2010Prop30
280
     1
102
RTVSPost2010PropOp30
 70
     1
102
RTVSPost2010Prop31
280
     0
102
RTVSPost2010PropOp31
 70
     1
102
RTVSPost2010Prop32
280
     0
102
RTVSPost2010PropOp32
 70
     1
102
RTVSPost2010Prop33
280
     0
102
RTVSPost2010PropOp33
 70
     1
102
RTVSPost2010Prop34
280
     0
102
RTVSPost2010PropOp34
 70
     1
102
RTVSPost2010Prop35
280
     0
102
RTVSPost2010PropOp35
 70
     1
102
RTVSPost2010Prop36
280
     0
102
RTVSPost2010PropOp36
 70
     1
102
RTVSPost2010Prop37
 90
       50
102
RTVSPost2010PropOp37
 70
     1
102
RTVSPost2010Prop38
140
0.0
102
RTVSPost2010PropOp38
 70
     1
102
RTVSPost2010Prop39
140
1.0
102
RTVSPost2010PropOp39
 70
     1
102
RTVSPost2010Prop40
 90
        0
102
RTVSPost2010PropOp40
 70
     1
102
RTVSPost2010Prop41ColorIndex
 90
       18
102
RTVSPost2010Prop41ColorRGB
 90
        0
102
RTVSPost2010PropOp41
 70
     1
102
RTVSPost2010Prop42
 90
       50
102
RTVSPost2010PropOp42
 70
     1
102
RTVSPost2010Prop43
 90
        3
102
RTVSPost2010PropOp43
 70
     1
102
RTVSPost2010Prop44ColorIndex
 90
        5
102
RTVSPost2010Prop44ColorRGB
 90
      255
102
RTVSPost2010PropOp44
 70
     1
102
RTVSPost2010Prop45
280
     0
102
RTVSPost2010PropOp45
 70
     1
102
RTVSPost2010Prop46
 90
       50
102
RTVSPost2010PropOp46
 70
     1
102
RTVSPost2010Prop47
 90
       50
102
RTVSPost2010PropOp47
 70
     1
102
RTVSPost2010Prop48
 90
       50
102
RTVSPost2010PropOp48
 70
     1
102
RTVSPost2010Prop49
280
     0
102
RTVSPost2010PropOp49
 70
     1
102
RTVSPost2010Prop50
 90
       50
102
RTVSPost2010PropOp50
 70
     1
102
RTVSPost2010Prop51ColorIndex
 90
      256
102
RTVSPost2010Prop51ColorRGB
 90
-16777216
102
RTVSPost2010PropOp51
 70
     0
102
RTVSPost2010Prop52
140
1.0
102
RTVSPost2010PropOp52
 70
     0
102
RTVSPost2010Prop53
 90
        2
102
RTVSPost2010PropOp53
 70
     1
102
RTVSPost2010Prop54
  1
strokes_ogs.tif
102
RTVSPost2010PropOp54
 70
     1
102
RTVSPost2010Prop55
280
     0
102
RTVSPost2010PropOp55
 70
     1
102
RTVSPost2010Prop56
140
1.0
102
RTVSPost2010PropOp56
 70
     1
102
RTVSPost2010Prop57
140
1.0
102
RTVSPost2010PropOp57
 70
     1
  0
XRECORD
  5
7D1
102
{ACAD_REACTORS
330
7D0
102
}
330
7D0
100
AcDbXrecord
280
     1
102
RTVSPost2010Prop28
280
     0
102
RTVSPost2010PropOp28
 70
     1
102
RTVSPost2010Prop29
280
     1
102
RTVSPost2010PropOp29
 70
     1
102
RTVSPost2010Prop30
280
     1
102
RTVSPost2010PropOp30
 70
     1
102
RTVSPost2010Prop31
280
     0
102
RTVSPost2010PropOp31
 70
     1
102
RTVSPost2010Prop32
280
     0
102
RTVSPost2010PropOp32
 70
     1
102
RTVSPost2010Prop33
280
     0
102
RTVSPost2010PropOp33
 70
     1
102
RTVSPost2010Prop34
280
     0
102
RTVSPost2010PropOp34
 70
     1
102
RTVSPost2010Prop35
280
     0
102
RTVSPost2010PropOp35
 70
     1
102
RTVSPost2010Prop36
280
     0
102
RTVSPost2010PropOp36
 70
     1
102
RTVSPost2010Prop37
 90
       50
102
RTVSPost2010PropOp37
 70
     1
102
RTVSPost2010Prop38
140
0.0
102
RTVSPost2010PropOp38
 70
     1
102
RTVSPost2010Prop39
140
1.0
102
RTVSPost2010PropOp39
 70
     1
102
RTVSPost2010Prop40
 90
        0
102
RTVSPost2010PropOp40
 70
     1
102
RTVSPost2010Prop41ColorIndex
 90
       18
102
RTVSPost2010Prop41ColorRGB
 90
        0
102
RTVSPost2010PropOp41
 70
     1
102
RTVSPost2010Prop42
 90
       50
102
RTVSPost2010PropOp42
 70
     1
102
RTVSPost2010Prop43
 90
        3
102
RTVSPost2010PropOp43
 70
     1
102
RTVSPost2010Prop44ColorIndex
 90
        5
102
RTVSPost2010Prop44ColorRGB
 90
      255
102
RTVSPost2010PropOp44
 70
     1
102
RTVSPost2010Prop45
280
     0
102
RTVSPost2010PropOp45
 70
     1
102
RTVSPost2010Prop46
 90
       50
102
RTVSPost2010PropOp46
 70
     1
102
RTVSPost2010Prop47
 90
       50
102
RTVSPost2010PropOp47
 70
     1
102
RTVSPost2010Prop48
 90
       50
102
RTVSPost2010PropOp48
 70
     1
102
RTVSPost2010Prop49
280
     0
102
RTVSPost2010PropOp49
 70
     1
102
RTVSPost2010Prop50
 90
       50
102
RTVSPost2010PropOp50
 70
     1
102
RTVSPost2010Prop51ColorIndex
 90
      256
102
RTVSPost2010Prop51ColorRGB
 90
-16777216
102
RTVSPost2010PropOp51
 70
     0
102
RTVSPost2010Prop52
140
1.0
102
RTVSPost2010PropOp52
 70
     0
102
RTVSPost2010Prop53
 90
        2
102
RTVSPost2010PropOp53
 70
     1
102
RTVSPost2010Prop54
  1
strokes_ogs.tif
102
RTVSPost2010PropOp54
 70
     1
102
RTVSPost2010Prop55
280
     0
102
RTVSPost2010PropOp55
 70
     1
102
RTVSPost2010Prop56
140
1.0
102
RTVSPost2010PropOp56
 70
     1
102
RTVSPost2010Prop57
140
1.0
102
RTVSPost2010PropOp57
 70
     1
  0
XRECORD
  5
7EB
102
{ACAD_REACTORS
330
7EA
102
}
330
7EA
100
AcDbXrecord
280
     1
102
RTVSPost2010Prop28
280
     0
102
RTVSPost2010PropOp28
 70
     1
102
RTVSPost2010Prop29
280
     1
102
RTVSPost2010PropOp29
 70
     1
102
RTVSPost2010Prop30
280
     1
102
RTVSPost2010PropOp30
 70
     1
102
RTVSPost2010Prop31
280
     0
102
RTVSPost2010PropOp31
 70
     1
102
RTVSPost2010Prop32
280
     0
102
RTVSPost2010PropOp32
 70
     1
102
RTVSPost2010Prop33
280
     0
102
RTVSPost2010PropOp33
 70
     1
102
RTVSPost2010Prop34
280
     0
102
RTVSPost2010PropOp34
 70
     1
102
RTVSPost2010Prop35
280
     0
102
RTVSPost2010PropOp35
 70
     1
102
RTVSPost2010Prop36
280
     0
102
RTVSPost2010PropOp36
 70
     1
102
RTVSPost2010Prop37
 90
       50
102
RTVSPost2010PropOp37
 70
     0
102
RTVSPost2010Prop38
140
0.0
102
RTVSPost2010PropOp38
 70
     0
102
RTVSPost2010Prop39
140
1.0
102
RTVSPost2010PropOp39
 70
     0
102
RTVSPost2010Prop40
 90
        0
102
RTVSPost2010PropOp40
 70
     0
102
RTVSPost2010Prop41ColorIndex
 90
       18
102
RTVSPost2010Prop41ColorRGB
 90
        0
102
RTVSPost2010PropOp41
 70
     0
102
RTVSPost2010Prop42
 90
       50
102
RTVSPost2010PropOp42
 70
     0
102
RTVSPost2010Prop43
 90
        3
102
RTVSPost2010PropOp43
 70
     0
102
RTVSPost2010Prop44ColorIndex
 90
        5
102
RTVSPost2010Prop44ColorRGB
 90
      255
102
RTVSPost2010PropOp44
 70
     0
102
RTVSPost2010Prop45
280
     0
102
RTVSPost2010PropOp45
 70
     1
102
RTVSPost2010Prop46
 90
       50
102
RTVSPost2010PropOp46
 70
     0
102
RTVSPost2010Prop47
 90
       50
102
RTVSPost2010PropOp47
 70
     0
102
RTVSPost2010Prop48
 90
       50
102
RTVSPost2010PropOp48
 70
     0
102
RTVSPost2010Prop49
280
     0
102
RTVSPost2010PropOp49
 70
     1
102
RTVSPost2010Prop50
 90
       50
102
RTVSPost2010PropOp50
 70
     0
102
RTVSPost2010Prop51ColorIndex
 90
      256
102
RTVSPost2010Prop51ColorRGB
 90
-16777216
102
RTVSPost2010PropOp51
 70
     0
102
RTVSPost2010Prop52
140
1.0
102
RTVSPost2010PropOp52
 70
     0
102
RTVSPost2010Prop53
 90
        2
102
RTVSPost2010PropOp53
 70
     0
102
RTVSPost2010Prop54
  1
strokes_ogs.tif
102
RTVSPost2010PropOp54
 70
     0
102
RTVSPost2010Prop55
280
     0
102
RTVSPost2010PropOp55
 70
     1
102
RTVSPost2010Prop56
140
1.0
102
RTVSPost2010PropOp56
 70
     0
102
RTVSPost2010Prop57
140
1.0
102
RTVSPost2010PropOp57
 70
     0
  0
XRECORD
  5
7DB
102
{ACAD_REACTORS
330
7DA
102
}
330
7DA
100
AcDbXrecord
280
     1
102
RTVSPost2010Prop28
280
     0
102
RTVSPost2010PropOp28
 70
     1
102
RTVSPost2010Prop29
280
     1
102
RTVSPost2010PropOp29
 70
     1
102
RTVSPost2010Prop30
280
     1
102
RTVSPost2010PropOp30
 70
     1
102
RTVSPost2010Prop31
280
     0
102
RTVSPost2010PropOp31
 70
     1
102
RTVSPost2010Prop32
280
     0
102
RTVSPost2010PropOp32
 70
     1
102
RTVSPost2010Prop33
280
     0
102
RTVSPost2010PropOp33
 70
     1
102
RTVSPost2010Prop34
280
     0
102
RTVSPost2010PropOp34
 70
     1
102
RTVSPost2010Prop35
280
     0
102
RTVSPost2010PropOp35
 70
     1
102
RTVSPost2010Prop36
280
     0
102
RTVSPost2010PropOp36
 70
     1
102
RTVSPost2010Prop37
 90
       50
102
RTVSPost2010PropOp37
 70
     1
102
RTVSPost2010Prop38
140
0.0
102
RTVSPost2010PropOp38
 70
     1
102
RTVSPost2010Prop39
140
1.0
102
RTVSPost2010PropOp39
 70
     1
102
RTVSPost2010Prop40
 90
        0
102
RTVSPost2010PropOp40
 70
     1
102
RTVSPost2010Prop41ColorIndex
 90
       18
102
RTVSPost2010Prop41ColorRGB
 90
        0
102
RTVSPost2010PropOp41
 70
     1
102
RTVSPost2010Prop42
 90
       50
102
RTVSPost2010PropOp42
 70
     1
102
RTVSPost2010Prop43
 90
        3
102
RTVSPost2010PropOp43
 70
     1
102
RTVSPost2010Prop44ColorIndex
 90
        5
102
RTVSPost2010Prop44ColorRGB
 90
      255
102
RTVSPost2010PropOp44
 70
     1
102
RTVSPost2010Prop45
280
     0
102
RTVSPost2010PropOp45
 70
     1
102
RTVSPost2010Prop46
 90
       50
102
RTVSPost2010PropOp46
 70
     1
102
RTVSPost2010Prop47
 90
       50
102
RTVSPost2010PropOp47
 70
     1
102
RTVSPost2010Prop48
 90
       50
102
RTVSPost2010PropOp48
 70
     1
102
RTVSPost2010Prop49
280
     0
102
RTVSPost2010PropOp49
 70
     1
102
RTVSPost2010Prop50
 90
       50
102
RTVSPost2010PropOp50
 70
     1
102
RTVSPost2010Prop51ColorIndex
 90
      256
102
RTVSPost2010Prop51ColorRGB
 90
-16777216
102
RTVSPost2010PropOp51
 70
     0
102
RTVSPost2010Prop52
140
1.0
102
RTVSPost2010PropOp52
 70
     0
102
RTVSPost2010Prop53
 90
        2
102
RTVSPost2010PropOp53
 70
     1
102
RTVSPost2010Prop54
  1
strokes_ogs.tif
102
RTVSPost2010PropOp54
 70
     1
102
RTVSPost2010Prop55
280
     0
102
RTVSPost2010PropOp55
 70
     1
102
RTVSPost2010Prop56
140
1.0
102
RTVSPost2010PropOp56
 70
     1
102
RTVSPost2010Prop57
140
1.0
102
RTVSPost2010PropOp57
 70
     1
  0
XRECORD
  5
7ED
102
{ACAD_REACTORS
330
7EC
102
}
330
7EC
100
AcDbXrecord
280
     1
102
RTVSPost2010Prop28
280
     0
102
RTVSPost2010PropOp28
 70
     1
102
RTVSPost2010Prop29
280
     1
102
RTVSPost2010PropOp29
 70
     1
102
RTVSPost2010Prop30
280
     1
102
RTVSPost2010PropOp30
 70
     1
102
RTVSPost2010Prop31
280
     0
102
RTVSPost2010PropOp31
 70
     1
102
RTVSPost2010Prop32
280
     0
102
RTVSPost2010PropOp32
 70
     1
102
RTVSPost2010Prop33
280
     0
102
RTVSPost2010PropOp33
 70
     1
102
RTVSPost2010Prop34
280
     0
102
RTVSPost2010PropOp34
 70
     1
102
RTVSPost2010Prop35
280
     0
102
RTVSPost2010PropOp35
 70
     1
102
RTVSPost2010Prop36
280
     0
102
RTVSPost2010PropOp36
 70
     1
102
RTVSPost2010Prop37
 90
       50
102
RTVSPost2010PropOp37
 70
     0
102
RTVSPost2010Prop38
140
0.0
102
RTVSPost2010PropOp38
 70
     0
102
RTVSPost2010Prop39
140
1.0
102
RTVSPost2010PropOp39
 70
     0
102
RTVSPost2010Prop40
 90
        0
102
RTVSPost2010PropOp40
 70
     0
102
RTVSPost2010Prop41ColorIndex
 90
       18
102
RTVSPost2010Prop41ColorRGB
 90
        0
102
RTVSPost2010PropOp41
 70
     0
102
RTVSPost2010Prop42
 90
       50
102
RTVSPost2010PropOp42
 70
     0
102
RTVSPost2010Prop43
 90
        3
102
RTVSPost2010PropOp43
 70
     0
102
RTVSPost2010Prop44ColorIndex
 90
        5
102
RTVSPost2010Prop44ColorRGB
 90
      255
102
RTVSPost2010PropOp44
 70
     0
102
RTVSPost2010Prop45
280
     0
102
RTVSPost2010PropOp45
 70
     1
102
RTVSPost2010Prop46
 90
       50
102
RTVSPost2010PropOp46
 70
     0
102
RTVSPost2010Prop47
 90
       50
102
RTVSPost2010PropOp47
 70
     0
102
RTVSPost2010Prop48
 90
       50
102
RTVSPost2010PropOp48
 70
     0
102
RTVSPost2010Prop49
280
     0
102
RTVSPost2010PropOp49
 70
     1
102
RTVSPost2010Prop50
 90
       50
102
RTVSPost2010PropOp50
 70
     0
102
RTVSPost2010Prop51ColorIndex
 90
      256
102
RTVSPost2010Prop51ColorRGB
 90
-16777216
102
RTVSPost2010PropOp51
 70
     0
102
RTVSPost2010Prop52
140
1.0
102
RTVSPost2010PropOp52
 70
     0
102
RTVSPost2010Prop53
 90
        2
102
RTVSPost2010PropOp53
 70
     0
102
RTVSPost2010Prop54
  1
strokes_ogs.tif
102
RTVSPost2010PropOp54
 70
     0
102
RTVSPost2010Prop55
280
     0
102
RTVSPost2010PropOp55
 70
     1
102
RTVSPost2010Prop56
140
1.0
102
RTVSPost2010PropOp56
 70
     0
102
RTVSPost2010Prop57
140
1.0
102
RTVSPost2010PropOp57
 70
     0
  0
XRECORD
  5
7BB
102
{ACAD_REACTORS
330
7BA
102
}
330
7BA
100
AcDbXrecord
280
     1
102
RTVSPost2010Prop28
280
     0
102
RTVSPost2010PropOp28
 70
     1
102
RTVSPost2010Prop29
280
     1
102
RTVSPost2010PropOp29
 70
     1
102
RTVSPost2010Prop30
280
     1
102
RTVSPost2010PropOp30
 70
     1
102
RTVSPost2010Prop31
280
     0
102
RTVSPost2010PropOp31
 70
     1
102
RTVSPost2010Prop32
280
     0
102
RTVSPost2010PropOp32
 70
     1
102
RTVSPost2010Prop33
280
     0
102
RTVSPost2010PropOp33
 70
     1
102
RTVSPost2010Prop34
280
     0
102
RTVSPost2010PropOp34
 70
     1
102
RTVSPost2010Prop35
280
     0
102
RTVSPost2010PropOp35
 70
     1
102
RTVSPost2010Prop36
280
     0
102
RTVSPost2010PropOp36
 70
     1
102
RTVSPost2010Prop37
 90
       50
102
RTVSPost2010PropOp37
 70
     1
102
RTVSPost2010Prop38
140
0.0
102
RTVSPost2010PropOp38
 70
     1
102
RTVSPost2010Prop39
140
1.0
102
RTVSPost2010PropOp39
 70
     1
102
RTVSPost2010Prop40
 90
        0
102
RTVSPost2010PropOp40
 70
     1
102
RTVSPost2010Prop41ColorIndex
 90
       18
102
RTVSPost2010Prop41ColorRGB
 90
-16777216
102
RTVSPost2010PropOp41
 70
     1
102
RTVSPost2010Prop42
 90
       50
102
RTVSPost2010PropOp42
 70
     1
102
RTVSPost2010Prop43
 90
        3
102
RTVSPost2010PropOp43
 70
     1
102
RTVSPost2010Prop44ColorIndex
 90
        5
102
RTVSPost2010Prop44ColorRGB
 90
      255
102
RTVSPost2010PropOp44
 70
     1
102
RTVSPost2010Prop45
280
     0
102
RTVSPost2010PropOp45
 70
     1
102
RTVSPost2010Prop46
 90
       50
102
RTVSPost2010PropOp46
 70
     1
102
RTVSPost2010Prop47
 90
       50
102
RTVSPost2010PropOp47
 70
     1
102
RTVSPost2010Prop48
 90
       50
102
RTVSPost2010PropOp48
 70
     1
102
RTVSPost2010Prop49
280
     0
102
RTVSPost2010PropOp49
 70
     1
102
RTVSPost2010Prop50
 90
       50
102
RTVSPost2010PropOp50
 70
     1
102
RTVSPost2010Prop51ColorIndex
 90
      256
102
RTVSPost2010Prop51ColorRGB
 90
-16777216
102
RTVSPost2010PropOp51
 70
     0
102
RTVSPost2010Prop52
140
1.0
102
RTVSPost2010PropOp52
 70
     0
102
RTVSPost2010Prop53
 90
        2
102
RTVSPost2010PropOp53
 70
     1
102
RTVSPost2010Prop54
  1
strokes_ogs.tif
102
RTVSPost2010PropOp54
 70
     1
102
RTVSPost2010Prop55
280
     0
102
RTVSPost2010PropOp55
 70
     1
102
RTVSPost2010Prop56
140
1.0
102
RTVSPost2010PropOp56
 70
     1
102
RTVSPost2010Prop57
140
1.0
102
RTVSPost2010PropOp57
 70
     1
  0
XRECORD
  5
7E9
102
{ACAD_REACTORS
330
7E8
102
}
330
7E8
100
AcDbXrecord
280
     1
102
RTVSPost2010Prop28
280
     0
102
RTVSPost2010PropOp28
 70
     1
102
RTVSPost2010Prop29
280
     1
102
RTVSPost2010PropOp29
 70
     1
102
RTVSPost2010Prop30
280
     1
102
RTVSPost2010PropOp30
 70
     1
102
RTVSPost2010Prop31
280
     0
102
RTVSPost2010PropOp31
 70
     1
102
RTVSPost2010Prop32
280
     0
102
RTVSPost2010PropOp32
 70
     1
102
RTVSPost2010Prop33
280
     0
102
RTVSPost2010PropOp33
 70
     1
102
RTVSPost2010Prop34
280
     0
102
RTVSPost2010PropOp34
 70
     1
102
RTVSPost2010Prop35
280
     0
102
RTVSPost2010PropOp35
 70
     1
102
RTVSPost2010Prop36
280
     0
102
RTVSPost2010PropOp36
 70
     1
102
RTVSPost2010Prop37
 90
       50
102
RTVSPost2010PropOp37
 70
     1
102
RTVSPost2010Prop38
140
0.0
102
RTVSPost2010PropOp38
 70
     1
102
RTVSPost2010Prop39
140
1.0
102
RTVSPost2010PropOp39
 70
     1
102
RTVSPost2010Prop40
 90
        0
102
RTVSPost2010PropOp40
 70
     1
102
RTVSPost2010Prop41ColorIndex
 90
       18
102
RTVSPost2010Prop41ColorRGB
 90
        0
102
RTVSPost2010PropOp41
 70
     1
102
RTVSPost2010Prop42
 90
       50
102
RTVSPost2010PropOp42
 70
     1
102
RTVSPost2010Prop43
 90
        3
102
RTVSPost2010PropOp43
 70
     1
102
RTVSPost2010Prop44ColorIndex
 90
        5
102
RTVSPost2010Prop44ColorRGB
 90
      255
102
RTVSPost2010PropOp44
 70
     1
102
RTVSPost2010Prop45
280
     0
102
RTVSPost2010PropOp45
 70
     1
102
RTVSPost2010Prop46
 90
       50
102
RTVSPost2010PropOp46
 70
     1
102
RTVSPost2010Prop47
 90
       50
102
RTVSPost2010PropOp47
 70
     1
102
RTVSPost2010Prop48
 90
       50
102
RTVSPost2010PropOp48
 70
     1
102
RTVSPost2010Prop49
280
     0
102
RTVSPost2010PropOp49
 70
     1
102
RTVSPost2010Prop50
 90
       50
102
RTVSPost2010PropOp50
 70
     1
102
RTVSPost2010Prop51ColorIndex
 90
      256
102
RTVSPost2010Prop51ColorRGB
 90
-16777216
102
RTVSPost2010PropOp51
 70
     0
102
RTVSPost2010Prop52
140
1.0
102
RTVSPost2010PropOp52
 70
     0
102
RTVSPost2010Prop53
 90
        2
102
RTVSPost2010PropOp53
 70
     1
102
RTVSPost2010Prop54
  1
strokes_ogs.tif
102
RTVSPost2010PropOp54
 70
     1
102
RTVSPost2010Prop55
280
     0
102
RTVSPost2010PropOp55
 70
     1
102
RTVSPost2010Prop56
140
1.0
102
RTVSPost2010PropOp56
 70
     1
102
RTVSPost2010Prop57
140
1.0
102
RTVSPost2010PropOp57
 70
     1
  0
XRECORD
  5
7E7
102
{ACAD_REACTORS
330
7E6
102
}
330
7E6
100
AcDbXrecord
280
     1
102
RTVSPost2010Prop28
280
     0
102
RTVSPost2010PropOp28
 70
     1
102
RTVSPost2010Prop29
280
     1
102
RTVSPost2010PropOp29
 70
     1
102
RTVSPost2010Prop30
280
     1
102
RTVSPost2010PropOp30
 70
     1
102
RTVSPost2010Prop31
280
     0
102
RTVSPost2010PropOp31
 70
     1
102
RTVSPost2010Prop32
280
     0
102
RTVSPost2010PropOp32
 70
     1
102
RTVSPost2010Prop33
280
     0
102
RTVSPost2010PropOp33
 70
     1
102
RTVSPost2010Prop34
280
     0
102
RTVSPost2010PropOp34
 70
     1
102
RTVSPost2010Prop35
280
     0
102
RTVSPost2010PropOp35
 70
     1
102
RTVSPost2010Prop36
280
     0
102
RTVSPost2010PropOp36
 70
     1
102
RTVSPost2010Prop37
 90
       50
102
RTVSPost2010PropOp37
 70
     1
102
RTVSPost2010Prop38
140
0.0
102
RTVSPost2010PropOp38
 70
     1
102
RTVSPost2010Prop39
140
1.0
102
RTVSPost2010PropOp39
 70
     1
102
RTVSPost2010Prop40
 90
        0
102
RTVSPost2010PropOp40
 70
     1
102
RTVSPost2010Prop41ColorIndex
 90
       18
102
RTVSPost2010Prop41ColorRGB
 90
        0
102
RTVSPost2010PropOp41
 70
     1
102
RTVSPost2010Prop42
 90
       50
102
RTVSPost2010PropOp42
 70
     1
102
RTVSPost2010Prop43
 90
        3
102
RTVSPost2010PropOp43
 70
     1
102
RTVSPost2010Prop44ColorIndex
 90
        5
102
RTVSPost2010Prop44ColorRGB
 90
      255
102
RTVSPost2010PropOp44
 70
     1
102
RTVSPost2010Prop45
280
     0
102
RTVSPost2010PropOp45
 70
     1
102
RTVSPost2010Prop46
 90
       50
102
RTVSPost2010PropOp46
 70
     1
102
RTVSPost2010Prop47
 90
       50
102
RTVSPost2010PropOp47
 70
     1
102
RTVSPost2010Prop48
 90
       50
102
RTVSPost2010PropOp48
 70
     1
102
RTVSPost2010Prop49
280
     0
102
RTVSPost2010PropOp49
 70
     1
102
RTVSPost2010Prop50
 90
       50
102
RTVSPost2010PropOp50
 70
     1
102
RTVSPost2010Prop51ColorIndex
 90
      256
102
RTVSPost2010Prop51ColorRGB
 90
-16777216
102
RTVSPost2010PropOp51
 70
     0
102
RTVSPost2010Prop52
140
1.0
102
RTVSPost2010PropOp52
 70
     0
102
RTVSPost2010Prop53
 90
        2
102
RTVSPost2010PropOp53
 70
     1
102
RTVSPost2010Prop54
  1
strokes_ogs.tif
102
RTVSPost2010PropOp54
 70
     1
102
RTVSPost2010Prop55
280
     0
102
RTVSPost2010PropOp55
 70
     1
102
RTVSPost2010Prop56
140
1.0
102
RTVSPost2010PropOp56
 70
     1
102
RTVSPost2010Prop57
140
1.0
102
RTVSPost2010PropOp57
 70
     1
  0
XRECORD
  5
7E1
102
{ACAD_REACTORS
330
7E0
102
}
330
7E0
100
AcDbXrecord
280
     1
102
RTVSPost2010Prop28
280
     0
102
RTVSPost2010PropOp28
 70
     1
102
RTVSPost2010Prop29
280
     1
102
RTVSPost2010PropOp29
 70
     1
102
RTVSPost2010Prop30
280
     1
102
RTVSPost2010PropOp30
 70
     1
102
RTVSPost2010Prop31
280
     0
102
RTVSPost2010PropOp31
 70
     1
102
RTVSPost2010Prop32
280
     0
102
RTVSPost2010PropOp32
 70
     1
102
RTVSPost2010Prop33
280
     0
102
RTVSPost2010PropOp33
 70
     1
102
RTVSPost2010Prop34
280
     0
102
RTVSPost2010PropOp34
 70
     1
102
RTVSPost2010Prop35
280
     0
102
RTVSPost2010PropOp35
 70
     1
102
RTVSPost2010Prop36
280
     0
102
RTVSPost2010PropOp36
 70
     1
102
RTVSPost2010Prop37
 90
       50
102
RTVSPost2010PropOp37
 70
     1
102
RTVSPost2010Prop38
140
0.0
102
RTVSPost2010PropOp38
 70
     1
102
RTVSPost2010Prop39
140
1.0
102
RTVSPost2010PropOp39
 70
     1
102
RTVSPost2010Prop40
 90
        0
102
RTVSPost2010PropOp40
 70
     1
102
RTVSPost2010Prop41ColorIndex
 90
       18
102
RTVSPost2010Prop41ColorRGB
 90
        0
102
RTVSPost2010PropOp41
 70
     1
102
RTVSPost2010Prop42
 90
       50
102
RTVSPost2010PropOp42
 70
     1
102
RTVSPost2010Prop43
 90
        3
102
RTVSPost2010PropOp43
 70
     1
102
RTVSPost2010Prop44ColorIndex
 90
        5
102
RTVSPost2010Prop44ColorRGB
 90
      255
102
RTVSPost2010PropOp44
 70
     1
102
RTVSPost2010Prop45
280
     0
102
RTVSPost2010PropOp45
 70
     1
102
RTVSPost2010Prop46
 90
       50
102
RTVSPost2010PropOp46
 70
     1
102
RTVSPost2010Prop47
 90
       50
102
RTVSPost2010PropOp47
 70
     1
102
RTVSPost2010Prop48
 90
       50
102
RTVSPost2010PropOp48
 70
     1
102
RTVSPost2010Prop49
280
     0
102
RTVSPost2010PropOp49
 70
     1
102
RTVSPost2010Prop50
 90
       50
102
RTVSPost2010PropOp50
 70
     1
102
RTVSPost2010Prop51ColorIndex
 90
      256
102
RTVSPost2010Prop51ColorRGB
 90
-16777216
102
RTVSPost2010PropOp51
 70
     0
102
RTVSPost2010Prop52
140
1.0
102
RTVSPost2010PropOp52
 70
     0
102
RTVSPost2010Prop53
 90
        2
102
RTVSPost2010PropOp53
 70
     1
102
RTVSPost2010Prop54
  1
strokes_ogs.tif
102
RTVSPost2010PropOp54
 70
     1
102
RTVSPost2010Prop55
280
     0
102
RTVSPost2010PropOp55
 70
     1
102
RTVSPost2010Prop56
140
1.0
102
RTVSPost2010PropOp56
 70
     1
102
RTVSPost2010Prop57
140
1.0
102
RTVSPost2010PropOp57
 70
     1
  0
XRECORD
  5
7E3
102
{ACAD_REACTORS
330
7E2
102
}
330
7E2
100
AcDbXrecord
280
     1
102
RTVSPost2010Prop28
280
     0
102
RTVSPost2010PropOp28
 70
     1
102
RTVSPost2010Prop29
280
     1
102
RTVSPost2010PropOp29
 70
     1
102
RTVSPost2010Prop30
280
     1
102
RTVSPost2010PropOp30
 70
     1
102
RTVSPost2010Prop31
280
     0
102
RTVSPost2010PropOp31
 70
     1
102
RTVSPost2010Prop32
280
     0
102
RTVSPost2010PropOp32
 70
     1
102
RTVSPost2010Prop33
280
     0
102
RTVSPost2010PropOp33
 70
     1
102
RTVSPost2010Prop34
280
     0
102
RTVSPost2010PropOp34
 70
     1
102
RTVSPost2010Prop35
280
     0
102
RTVSPost2010PropOp35
 70
     1
102
RTVSPost2010Prop36
280
     0
102
RTVSPost2010PropOp36
 70
     1
102
RTVSPost2010Prop37
 90
       50
102
RTVSPost2010PropOp37
 70
     1
102
RTVSPost2010Prop38
140
0.0
102
RTVSPost2010PropOp38
 70
     1
102
RTVSPost2010Prop39
140
1.0
102
RTVSPost2010PropOp39
 70
     1
102
RTVSPost2010Prop40
 90
        0
102
RTVSPost2010PropOp40
 70
     1
102
RTVSPost2010Prop41ColorIndex
 90
       18
102
RTVSPost2010Prop41ColorRGB
 90
        0
102
RTVSPost2010PropOp41
 70
     1
102
RTVSPost2010Prop42
 90
       50
102
RTVSPost2010PropOp42
 70
     1
102
RTVSPost2010Prop43
 90
        3
102
RTVSPost2010PropOp43
 70
     1
102
RTVSPost2010Prop44ColorIndex
 90
        5
102
RTVSPost2010Prop44ColorRGB
 90
      255
102
RTVSPost2010PropOp44
 70
     1
102
RTVSPost2010Prop45
280
     0
102
RTVSPost2010PropOp45
 70
     1
102
RTVSPost2010Prop46
 90
       50
102
RTVSPost2010PropOp46
 70
     1
102
RTVSPost2010Prop47
 90
       50
102
RTVSPost2010PropOp47
 70
     1
102
RTVSPost2010Prop48
 90
       50
102
RTVSPost2010PropOp48
 70
     1
102
RTVSPost2010Prop49
280
     0
102
RTVSPost2010PropOp49
 70
     1
102
RTVSPost2010Prop50
 90
       50
102
RTVSPost2010PropOp50
 70
     1
102
RTVSPost2010Prop51ColorIndex
 90
      256
102
RTVSPost2010Prop51ColorRGB
 90
-16777216
102
RTVSPost2010PropOp51
 70
     0
102
RTVSPost2010Prop52
140
1.0
102
RTVSPost2010PropOp52
 70
     0
102
RTVSPost2010Prop53
 90
        2
102
RTVSPost2010PropOp53
 70
     1
102
RTVSPost2010Prop54
  1
strokes_ogs.tif
102
RTVSPost2010PropOp54
 70
     1
102
RTVSPost2010Prop55
280
     0
102
RTVSPost2010PropOp55
 70
     1
102
RTVSPost2010Prop56
140
1.0
102
RTVSPost2010PropOp56
 70
     1
102
RTVSPost2010Prop57
140
1.0
102
RTVSPost2010PropOp57
 70
     1
  0
XRECORD
  5
7D9
102
{ACAD_REACTORS
330
7D8
102
}
330
7D8
100
AcDbXrecord
280
     1
102
RTVSPost2010Prop28
280
     0
102
RTVSPost2010PropOp28
 70
     1
102
RTVSPost2010Prop29
280
     1
102
RTVSPost2010PropOp29
 70
     1
102
RTVSPost2010Prop30
280
     1
102
RTVSPost2010PropOp30
 70
     1
102
RTVSPost2010Prop31
280
     0
102
RTVSPost2010PropOp31
 70
     1
102
RTVSPost2010Prop32
280
     0
102
RTVSPost2010PropOp32
 70
     1
102
RTVSPost2010Prop33
280
     0
102
RTVSPost2010PropOp33
 70
     1
102
RTVSPost2010Prop34
280
     0
102
RTVSPost2010PropOp34
 70
     1
102
RTVSPost2010Prop35
280
     0
102
RTVSPost2010PropOp35
 70
     1
102
RTVSPost2010Prop36
280
     0
102
RTVSPost2010PropOp36
 70
     1
102
RTVSPost2010Prop37
 90
       50
102
RTVSPost2010PropOp37
 70
     1
102
RTVSPost2010Prop38
140
0.0
102
RTVSPost2010PropOp38
 70
     1
102
RTVSPost2010Prop39
140
1.0
102
RTVSPost2010PropOp39
 70
     1
102
RTVSPost2010Prop40
 90
        0
102
RTVSPost2010PropOp40
 70
     1
102
RTVSPost2010Prop41ColorIndex
 90
       18
102
RTVSPost2010Prop41ColorRGB
 90
        0
102
RTVSPost2010PropOp41
 70
     1
102
RTVSPost2010Prop42
 90
       50
102
RTVSPost2010PropOp42
 70
     1
102
RTVSPost2010Prop43
 90
        3
102
RTVSPost2010PropOp43
 70
     1
102
RTVSPost2010Prop44ColorIndex
 90
        5
102
RTVSPost2010Prop44ColorRGB
 90
      255
102
RTVSPost2010PropOp44
 70
     1
102
RTVSPost2010Prop45
280
     0
102
RTVSPost2010PropOp45
 70
     1
102
RTVSPost2010Prop46
 90
       50
102
RTVSPost2010PropOp46
 70
     1
102
RTVSPost2010Prop47
 90
       50
102
RTVSPost2010PropOp47
 70
     1
102
RTVSPost2010Prop48
 90
       50
102
RTVSPost2010PropOp48
 70
     1
102
RTVSPost2010Prop49
280
     0
102
RTVSPost2010PropOp49
 70
     1
102
RTVSPost2010Prop50
 90
       50
102
RTVSPost2010PropOp50
 70
     1
102
RTVSPost2010Prop51ColorIndex
 90
      256
102
RTVSPost2010Prop51ColorRGB
 90
-16777216
102
RTVSPost2010PropOp51
 70
     0
102
RTVSPost2010Prop52
140
1.0
102
RTVSPost2010PropOp52
 70
     0
102
RTVSPost2010Prop53
 90
        2
102
RTVSPost2010PropOp53
 70
     1
102
RTVSPost2010Prop54
  1
strokes_ogs.tif
102
RTVSPost2010PropOp54
 70
     1
102
RTVSPost2010Prop55
280
     0
102
RTVSPost2010PropOp55
 70
     1
102
RTVSPost2010Prop56
140
1.0
102
RTVSPost2010PropOp56
 70
     1
102
RTVSPost2010Prop57
140
1.0
102
RTVSPost2010PropOp57
 70
     1
  0
XRECORD
  5
7BD
102
{ACAD_REACTORS
330
7BC
102
}
330
7BC
100
AcDbXrecord
280
     1
102
RTVSPost2010Prop28
280
     0
102
RTVSPost2010PropOp28
 70
     1
102
RTVSPost2010Prop29
280
     1
102
RTVSPost2010PropOp29
 70
     1
102
RTVSPost2010Prop30
280
     1
102
RTVSPost2010PropOp30
 70
     1
102
RTVSPost2010Prop31
280
     0
102
RTVSPost2010PropOp31
 70
     1
102
RTVSPost2010Prop32
280
     0
102
RTVSPost2010PropOp32
 70
     1
102
RTVSPost2010Prop33
280
     0
102
RTVSPost2010PropOp33
 70
     1
102
RTVSPost2010Prop34
280
     0
102
RTVSPost2010PropOp34
 70
     1
102
RTVSPost2010Prop35
280
     0
102
RTVSPost2010PropOp35
 70
     1
102
RTVSPost2010Prop36
280
     0
102
RTVSPost2010PropOp36
 70
     1
102
RTVSPost2010Prop37
 90
       50
102
RTVSPost2010PropOp37
 70
     1
102
RTVSPost2010Prop38
140
0.0
102
RTVSPost2010PropOp38
 70
     1
102
RTVSPost2010Prop39
140
1.0
102
RTVSPost2010PropOp39
 70
     1
102
RTVSPost2010Prop40
 90
        0
102
RTVSPost2010PropOp40
 70
     1
102
RTVSPost2010Prop41ColorIndex
 90
       18
102
RTVSPost2010Prop41ColorRGB
 90
-16777216
102
RTVSPost2010PropOp41
 70
     1
102
RTVSPost2010Prop42
 90
       50
102
RTVSPost2010PropOp42
 70
     1
102
RTVSPost2010Prop43
 90
        3
102
RTVSPost2010PropOp43
 70
     1
102
RTVSPost2010Prop44ColorIndex
 90
        5
102
RTVSPost2010Prop44ColorRGB
 90
      255
102
RTVSPost2010PropOp44
 70
     1
102
RTVSPost2010Prop45
280
     0
102
RTVSPost2010PropOp45
 70
     1
102
RTVSPost2010Prop46
 90
       50
102
RTVSPost2010PropOp46
 70
     1
102
RTVSPost2010Prop47
 90
       50
102
RTVSPost2010PropOp47
 70
     1
102
RTVSPost2010Prop48
 90
       50
102
RTVSPost2010PropOp48
 70
     1
102
RTVSPost2010Prop49
280
     0
102
RTVSPost2010PropOp49
 70
     1
102
RTVSPost2010Prop50
 90
       50
102
RTVSPost2010PropOp50
 70
     1
102
RTVSPost2010Prop51ColorIndex
 90
      256
102
RTVSPost2010Prop51ColorRGB
 90
-16777216
102
RTVSPost2010PropOp51
 70
     0
102
RTVSPost2010Prop52
140
1.0
102
RTVSPost2010PropOp52
 70
     0
102
RTVSPost2010Prop53
 90
        2
102
RTVSPost2010PropOp53
 70
     1
102
RTVSPost2010Prop54
  1
strokes_ogs.tif
102
RTVSPost2010PropOp54
 70
     1
102
RTVSPost2010Prop55
280
     0
102
RTVSPost2010PropOp55
 70
     1
102
RTVSPost2010Prop56
140
1.0
102
RTVSPost2010PropOp56
 70
     1
102
RTVSPost2010Prop57
140
1.0
102
RTVSPost2010PropOp57
 70
     1
  0
XRECORD
  5
7E5
102
{ACAD_REACTORS
330
7E4
102
}
330
7E4
100
AcDbXrecord
280
     1
102
RTVSPost2010Prop28
280
     0
102
RTVSPost2010PropOp28
 70
     1
102
RTVSPost2010Prop29
280
     1
102
RTVSPost2010PropOp29
 70
     1
102
RTVSPost2010Prop30
280
     1
102
RTVSPost2010PropOp30
 70
     1
102
RTVSPost2010Prop31
280
     0
102
RTVSPost2010PropOp31
 70
     1
102
RTVSPost2010Prop32
280
     0
102
RTVSPost2010PropOp32
 70
     1
102
RTVSPost2010Prop33
280
     0
102
RTVSPost2010PropOp33
 70
     1
102
RTVSPost2010Prop34
280
     0
102
RTVSPost2010PropOp34
 70
     1
102
RTVSPost2010Prop35
280
     0
102
RTVSPost2010PropOp35
 70
     1
102
RTVSPost2010Prop36
280
     0
102
RTVSPost2010PropOp36
 70
     1
102
RTVSPost2010Prop37
 90
       50
102
RTVSPost2010PropOp37
 70
     1
102
RTVSPost2010Prop38
140
0.0
102
RTVSPost2010PropOp38
 70
     1
102
RTVSPost2010Prop39
140
1.0
102
RTVSPost2010PropOp39
 70
     1
102
RTVSPost2010Prop40
 90
        0
102
RTVSPost2010PropOp40
 70
     1
102
RTVSPost2010Prop41ColorIndex
 90
       18
102
RTVSPost2010Prop41ColorRGB
 90
        0
102
RTVSPost2010PropOp41
 70
     1
102
RTVSPost2010Prop42
 90
       50
102
RTVSPost2010PropOp42
 70
     1
102
RTVSPost2010Prop43
 90
        3
102
RTVSPost2010PropOp43
 70
     1
102
RTVSPost2010Prop44ColorIndex
 90
        5
102
RTVSPost2010Prop44ColorRGB
 90
      255
102
RTVSPost2010PropOp44
 70
     1
102
RTVSPost2010Prop45
280
     0
102
RTVSPost2010PropOp45
 70
     1
102
RTVSPost2010Prop46
 90
       50
102
RTVSPost2010PropOp46
 70
     1
102
RTVSPost2010Prop47
 90
       50
102
RTVSPost2010PropOp47
 70
     1
102
RTVSPost2010Prop48
 90
       50
102
RTVSPost2010PropOp48
 70
     1
102
RTVSPost2010Prop49
280
     0
102
RTVSPost2010PropOp49
 70
     1
102
RTVSPost2010Prop50
 90
       50
102
RTVSPost2010PropOp50
 70
     1
102
RTVSPost2010Prop51ColorIndex
 90
      256
102
RTVSPost2010Prop51ColorRGB
 90
-16777216
102
RTVSPost2010PropOp51
 70
     0
102
RTVSPost2010Prop52
140
1.0
102
RTVSPost2010PropOp52
 70
     0
102
RTVSPost2010Prop53
 90
        2
102
RTVSPost2010PropOp53
 70
     1
102
RTVSPost2010Prop54
  1
strokes_ogs.tif
102
RTVSPost2010PropOp54
 70
     1
102
RTVSPost2010Prop55
280
     0
102
RTVSPost2010PropOp55
 70
     1
102
RTVSPost2010Prop56
140
1.0
102
RTVSPost2010PropOp56
 70
     1
102
RTVSPost2010Prop57
140
1.0
102
RTVSPost2010PropOp57
 70
     1
  0
ENDSEC
  0
EOF
