  0
SECTION
  2
HEADER
  9
$ACADVER
  1
AC1018
  9
$ACADMAINTVER
 70
    77
  9
$DWGCODEPAGE
  3
ANSI_1252
  9
$INSBASE
 10
0.0
 20
0.0
 30
0.0
  9
$EXTMIN
 10
37.5
 20
-14.79825648053125
 30
0.0
  9
$EXTMAX
 10
1106.361864523117
 20
652.5
 30
0.0
  9
$LIMMIN
 10
0.0
 20
0.0
  9
$LIMMAX
 10
580.3767898393416
 20
668.3700814132223
  9
$ORTHOMODE
 70
     1
  9
$REGENMODE
 70
     1
  9
$FILLMODE
 70
     1
  9
$QTEXTMODE
 70
     0
  9
$MIRRTEXT
 70
     1
  9
$LTSCALE
 40
15.0
  9
$ATTMODE
 70
     1
  9
$TEXTSIZE
 40
8.5
  9
$TRACEWID
 40
0.05
  9
$TEXTSTYLE
  7
ROMANS
  9
$CLAYER
  8
BEMASSUNG
  9
$CELTYPE
  6
CONTINUOUS
  9
$CECOLOR
 62
   256
  9
$CELTSCALE
 40
1.0
  9
$DISPSILH
 70
     0
  9
$DIMSCALE
 40
1.5
  9
$DIMASZ
 40
3.5
  9
$DIMEXO
 40
0.5
  9
$DIMDLI
 40
8.0
  9
$DIMRND
 40
0.0
  9
$DIMDLE
 40
0.0
  9
$DIMEXE
 40
1.0
  9
$DIMTP
 40
0.0
  9
$DIMTM
 40
0.0
  9
$DIMTXT
 40
3.5
  9
$DIMCEN
 40
1.5
  9
$DIMTSZ
 40
0.0
  9
$DIMTOL
 70
     0
  9
$DIMLIM
 70
     0
  9
$DIMTIH
 70
     0
  9
$DIMTOH
 70
     0
  9
$DIMSE1
 70
     0
  9
$DIMSE2
 70
     0
  9
$DIMTAD
 70
     1
  9
$DIMZIN
 70
     8
  9
$DIMBLK
  1

  9
$DIMASO
 70
     1
  9
$DIMSHO
 70
     1
  9
$DIMPOST
  1

  9
$DIMAPOST
  1

  9
$DIMALT
 70
     0
  9
$DIMALTD
 70
     2
  9
$DIMALTF
 40
25.39999999999999
  9
$DIMLFAC
 40
1.0
  9
$DIMTOFL
 70
     1
  9
$DIMTVP
 40
0.0
  9
$DIMTIX
 70
     1
  9
$DIMSOXD
 70
     0
  9
$DIMSAH
 70
     0
  9
$DIMBLK1
  1

  9
$DIMBLK2
  1

  9
$DIMSTYLE
  2
PROSPEKT
  9
$DIMCLRD
 70
     2
  9
$DIMCLRE
 70
     2
  9
$DIMCLRT
 70
     3
  9
$DIMTFAC
 40
0.5
  9
$DIMGAP
 40
1.0
  9
$DIMJUST
 70
     0
  9
$DIMSD1
 70
     0
  9
$DIMSD2
 70
     0
  9
$DIMTOLJ
 70
     1
  9
$DIMTZIN
 70
     8
  9
$DIMALTZ
 70
     8
  9
$DIMALTTZ
 70
     8
  9
$DIMUPT
 70
     0
  9
$DIMDEC
 70
     2
  9
$DIMTDEC
 70
     2
  9
$DIMALTU
 70
     2
  9
$DIMALTTD
 70
     2
  9
$DIMTXSTY
  7
NORM
  9
$DIMAUNIT
 70
     1
  9
$DIMADEC
 70
     0
  9
$DIMALTRND
 40
0.0
  9
$DIMAZIN
 70
     0
  9
$DIMDSEP
 70
    46
  9
$DIMATFIT
 70
     3
  9
$DIMFRAC
 70
     0
  9
$DIMLDRBLK
  1

  9
$DIMLUNIT
 70
     2
  9
$DIMLWD
 70
    -2
  9
$DIMLWE
 70
    -2
  9
$DIMTMOVE
 70
     2
  9
$LUNITS
 70
     2
  9
$LUPREC
 70
     2
  9
$SKETCHINC
 40
0.1
  9
$FILLETRAD
 40
0.0
  9
$AUNITS
 70
     0
  9
$AUPREC
 70
     0
  9
$MENU
  1
ACAD
  9
$ELEVATION
 40
0.0
  9
$PELEVATION
 40
0.0
  9
$THICKNESS
 40
0.0
  9
$LIMCHECK
 70
     0
  9
$CHAMFERA
 40
0.0
  9
$CHAMFERB
 40
0.0
  9
$CHAMFERC
 40
0.0
  9
$CHAMFERD
 40
0.0
  9
$SKPOLY
 70
     0
  9
$TDCREATE
 40
2449994.578927315
  9
$TDUCREATE
 40
2449994.495593982
  9
$TDUPDATE
 40
2453322.609883241
  9
$TDUUPDATE
 40
2453322.526549908
  9
$TDINDWG
 40
0.0591697454
  9
$TDUSRTIMER
 40
0.0591697454
  9
$USRTIMER
 70
     1
  9
$ANGBASE
 50
0.0
  9
$ANGDIR
 70
     0
  9
$PDMODE
 70
     0
  9
$PDSIZE
 40
0.0
  9
$PLINEWID
 40
0.0
  9
$SPLFRAME
 70
     0
  9
$SPLINETYPE
 70
     6
  9
$SPLINESEGS
 70
     8
  9
$HANDSEED
  5
192
  9
$SURFTAB1
 70
     6
  9
$SURFTAB2
 70
     6
  9
$SURFTYPE
 70
     6
  9
$SURFU
 70
     6
  9
$SURFV
 70
     6
  9
$UCSBASE
  2

  9
$UCSNAME
  2

  9
$UCSORG
 10
0.0
 20
0.0
 30
0.0
  9
$UCSXDIR
 10
1.0
 20
0.0
 30
0.0
  9
$UCSYDIR
 10
0.0
 20
1.0
 30
0.0
  9
$UCSORTHOREF
  2

  9
$UCSORTHOVIEW
 70
     0
  9
$UCSORGTOP
 10
0.0
 20
0.0
 30
0.0
  9
$UCSORGBOTTOM
 10
0.0
 20
0.0
 30
0.0
  9
$UCSORGLEFT
 10
0.0
 20
0.0
 30
0.0
  9
$UCSORGRIGHT
 10
0.0
 20
0.0
 30
0.0
  9
$UCSORGFRONT
 10
0.0
 20
0.0
 30
0.0
  9
$UCSORGBACK
 10
0.0
 20
0.0
 30
0.0
  9
$PUCSBASE
  2

  9
$PUCSNAME
  2

  9
$PUCSORG
 10
0.0
 20
0.0
 30
0.0
  9
$PUCSXDIR
 10
1.0
 20
0.0
 30
0.0
  9
$PUCSYDIR
 10
0.0
 20
1.0
 30
0.0
  9
$PUCSORTHOREF
  2

  9
$PUCSORTHOVIEW
 70
     0
  9
$PUCSORGTOP
 10
0.0
 20
0.0
 30
0.0
  9
$PUCSORGBOTTOM
 10
0.0
 20
0.0
 30
0.0
  9
$PUCSORGLEFT
 10
0.0
 20
0.0
 30
0.0
  9
$PUCSORGRIGHT
 10
0.0
 20
0.0
 30
0.0
  9
$PUCSORGFRONT
 10
0.0
 20
0.0
 30
0.0
  9
$PUCSORGBACK
 10
0.0
 20
0.0
 30
0.0
  9
$USERI1
 70
     0
  9
$USERI2
 70
     0
  9
$USERI3
 70
     0
  9
$USERI4
 70
     0
  9
$USERI5
 70
     0
  9
$USERR1
 40
0.0
  9
$USERR2
 40
0.0
  9
$USERR3
 40
0.0
  9
$USERR4
 40
0.0
  9
$USERR5
 40
0.0
  9
$WORLDVIEW
 70
     1
  9
$SHADEDGE
 70
     3
  9
$SHADEDIF
 70
    70
  9
$TILEMODE
 70
     1
  9
$MAXACTVP
 70
    16
  9
$PINSBASE
 10
0.0
 20
0.0
 30
0.0
  9
$PLIMCHECK
 70
     0
  9
$PEXTMIN
 10
1.000000000000000E+20
 20
1.000000000000000E+20
 30
1.000000000000000E+20
  9
$PEXTMAX
 10
-1.000000000000000E+20
 20
-1.000000000000000E+20
 30
-1.000000000000000E+20
  9
$PLIMMIN
 10
0.0
 20
0.0
  9
$PLIMMAX
 10
12.0
 20
9.0
  9
$UNITMODE
 70
     0
  9
$VISRETAIN
 70
     0
  9
$PLINEGEN
 70
     0
  9
$PSLTSCALE
 70
     1
  9
$TREEDEPTH
 70
  3020
  9
$CMLSTYLE
  2
STANDARD
  9
$CMLJUST
 70
     0
  9
$CMLSCALE
 40
1.0
  9
$PROXYGRAPHICS
 70
     1
  9
$MEASUREMENT
 70
     1
  9
$CELWEIGHT
370
    -1
  9
$ENDCAPS
280
     0
  9
$JOINSTYLE
280
     0
  9
$LWDISPLAY
290
     0
  9
$INSUNITS
 70
     4
  9
$HYPERLINKBASE
  1

  9
$STYLESHEET
  1

  9
$XEDIT
290
     1
  9
$CEPSNTYPE
380
     0
  9
$PSTYLEMODE
290
     1
  9
$FINGERPRINTGUID
  2
{B145D3D2-FCD8-4CEB-8ECF-3969670E72B0}
  9
$VERSIONGUID
  2
{846A235B-920E-4716-997D-10E3BDC3EFC1}
  9
$EXTNAMES
290
     1
  9
$PSVPSCALE
 40
0.0
  9
$OLESTARTUP
290
     0
  9
$SORTENTS
280
   127
  9
$INDEXCTL
280
     0
  9
$HIDETEXT
280
     1
  9
$XCLIPFRAME
290
     0
  9
$HALOGAP
280
     0
  9
$OBSCOLOR
 70
   257
  9
$OBSLTYPE
280
     0
  9
$INTERSECTIONDISPLAY
280
     0
  9
$INTERSECTIONCOLOR
 70
   257
  9
$DIMASSOC
280
     1
  9
$PROJECTNAME
  1

  0
ENDSEC
  0
SECTION
  2
CLASSES
  0
CLASS
  1
DICTIONARYVAR
  2
AcDbDictionaryVar
  3
ObjectDBX Classes
 90
        0
 91
        1
280
     0
281
     0
  0
CLASS
  1
ACDBDICTIONARYWDFLT
  2
AcDbDictionaryWithDefault
  3
ObjectDBX Classes
 90
        0
 91
        1
280
     0
281
     0
  0
CLASS
  1
ACME_DOCUMENT
  2
AcMeDbDoc
  3
AcMeServices
 90
        0
 91
        0
280
     0
281
     0
  0
CLASS
  1
AMGSETTINGSOBJ
  2
AmgSettingsObj
  3
"AcadM|Product Description: AutoCAD Mechanical 2000|Company: Autodesk"
 90
        0
 91
        2
280
     0
281
     0
  0
CLASS
  1
ACMESCOPE
  2
AcMeScope
  3
AcMeServices
 90
        0
 91
        1
280
     0
281
     0
  0
CLASS
  1
ACMECOMMANDHISTORY
  2
AcMeCommandHistory
  3
AcMeServices
 90
        0
 91
        0
280
     0
281
     0
  0
CLASS
  1
ACIMSYSVARMAN
  2
AcImSysVarManager
  3
AcMeServices
 90
        0
 91
        3
280
     0
281
     0
  0
CLASS
  1
ACIMREALSYSVAR
  2
AcImRealSysVar
  3
AcMeServices
 90
        0
 91
        1
280
     0
281
     0
  0
CLASS
  1
ACIMINTSYSVAR
  2
AcImIntSysVar
  3
AcMeServices
 90
        0
 91
       25
280
     0
281
     0
  0
CLASS
  1
ACMEDRAWINGMAN
  2
AcMeDrawingMan
  3
AcMeServices
 90
        0
 91
        0
280
     0
281
     0
  0
CLASS
  1
ACMEVIEW
  2
AcMeView
  3
AcMeServices
 90
        0
 91
        0
280
     0
281
     0
  0
CLASS
  1
ACDBENTITYCACHE
  2
AcMeEntityCache
  3
AcMeServices
 90
        0
 91
        0
280
     0
281
     0
  0
CLASS
  1
GSMANAGER
  2
AcMeGSManager
  3
AcMeServices
 90
        0
 91
        0
280
     0
281
     0
  0
CLASS
  1
AMDTINTERNALREACTOR
  2
AmdtInternalReactor
  3
AcMeServices
 90
        0
 91
        1
280
     0
281
     0
  0
CLASS
  1
ACMESTATEMGR
  2
AcMeStateMgr
  3
AcMeServices
 90
        0
 91
        1
280
     0
281
     0
  0
CLASS
  1
ACGREFMASTER
  2
AcGrefMaster
  3
AcAttribServices
 90
        0
 91
        1
280
     0
281
     0
  0
CLASS
  1
ACME_DATABASE
  2
AcMeDbDatabase
  3
AcMeServices
 90
        0
 91
        0
280
     0
281
     0
  0
CLASS
  1
ACRFINSADJUSTERMGR
  2
AcRfInsAdjusterMgr
  3
AcMeServices
 90
        0
 91
        0
280
     0
281
     0
  0
CLASS
  1
ACGREFACADMASTER
  2
AcGrefacadMaster
  3
AcGrefServices
 90
        0
 91
        0
280
     0
281
     0
  0
CLASS
  1
AMIMASTER
  2
AmiMaster
  3
AmiServices
 90
        0
 91
        0
280
     0
281
     0
  0
CLASS
  1
ACMDATADICTIONARY
  2
AcmDataDictionary
  3
"AcmSymBB|Product Description: AutoCAD Mechanical 2004 DX|Company: Autodesk"
 90
        0
 91
        0
280
     0
281
     0
  0
CLASS
  1
ACMDATAENTRYBLOCK
  2
AcmDataEntryBlock
  3
"AcmSymBB|Product Description: AutoCAD Mechanical 2004 DX|Company: Autodesk"
 90
        0
 91
        0
280
     0
281
     0
  0
CLASS
  1
ACIMSTRSYSVAR
  2
AcImStrSysVar
  3
AcMeServices
 90
        0
 91
        1
280
     0
281
     0
  0
CLASS
  1
ACMSTANDARDDIN
  2
AcmStandardDIN
  3
"Amdt_StdImp|Product Description: AutoCAD Mechanical 2004 DX|Company: Autodesk"
 90
        0
 91
        1
280
     0
281
     0
  0
CLASS
  1
AMGOBJPROPCFG
  2
AmgObjPropCfg
  3
"AmgLay|Product Description: AutoCAD Mechanical 2000|Company: Autodesk"
 90
        1
 91
        1
280
     0
281
     0
  0
CLASS
  1
AMDTEDGESTANDARDDIN
  2
AmdtEdgeStdDIN
  3
"Amdt_StdImp|Product Description: AutoCAD Mechanical 2004 DX|Company: Autodesk"
 90
        0
 91
        1
280
     0
281
     0
  0
CLASS
  1
ACMSURFSTANDARDDIN
  2
AcmSurfTextStdDIN
  3
"Amdt_StdImp|Product Description: AutoCAD Mechanical 2004 DX|Company: Autodesk"
 90
        0
 91
        1
280
     0
281
     0
  0
CLASS
  1
ACMFCFSTANDARDDIN
  2
AcmFCFStdDIN
  3
"Amdt_StdImp|Product Description: AutoCAD Mechanical 2004 DX|Company: Autodesk"
 90
        0
 91
        1
280
     0
281
     0
  0
CLASS
  1
ACMWELDSTANDARDDIN
  2
AcmWeldingStdDIN
  3
"Amdt_StdImp|Product Description: AutoCAD Mechanical 2004 DX|Company: Autodesk"
 90
        0
 91
        1
280
     0
281
     0
  0
CLASS
  1
ACMIDSTANDARDDIN
  2
AcmIdStdDIN
  3
"Amdt_StdImp|Product Description: AutoCAD Mechanical 2004 DX|Company: Autodesk"
 90
        0
 91
        1
280
     0
281
     0
  0
CLASS
  1
ACMDATUMSTANDARDDIN
  2
AcmDatumStdDIN
  3
"Amdt_StdImp|Product Description: AutoCAD Mechanical 2004 DX|Company: Autodesk"
 90
        0
 91
        1
280
     0
281
     0
  0
CLASS
  1
ACMBOMSTANDARDDIN
  2
AcmBOMStdDIN
  3
"Amdt_StdImp|Product Description: AutoCAD Mechanical 2004 DX|Company: Autodesk"
 90
        0
 91
        1
280
     0
281
     0
  0
CLASS
  1
ACMDETAILSTANDARDDIN
  2
AmdtDetailSymStdDIN
  3
"Amdt_StdImp|Product Description: AutoCAD Mechanical 2004 DX|Company: Autodesk"
 90
        0
 91
        1
280
     0
281
     0
  0
CLASS
  1
ACMSECTIONSTANDARDDIN
  2
AmdtSectionSymStdDIN
  3
"Amdt_StdImp|Product Description: AutoCAD Mechanical 2004 DX|Company: Autodesk"
 90
        0
 91
        1
280
     0
281
     0
  0
CLASS
  1
ACMCENTERLINESTANDARDDIN
  2
AmdtCenterLineStdDIN
  3
"Amdt_StdImp|Product Description: AutoCAD Mechanical 2004 DX|Company: Autodesk"
 90
        0
 91
        1
280
     0
281
     0
  0
CLASS
  1
ACMNOTESTANDARDDIN
  2
AmdtNoteStdDIN
  3
"Amdt_StdImp|Product Description: AutoCAD Mechanical 2004 DX|Company: Autodesk"
 90
        0
 91
        1
280
     0
281
     0
  0
CLASS
  1
ACAMGLAYSTD
  2
AcAmgLayStd
  3
"AcAmgLayStd|Product Description: AutoCAD Mechanical 2000|Company: Autodesk"
 90
        0
 91
        1
280
     0
281
     0
  0
CLASS
  1
ACAMGDIMSTD
  2
AcAmgDimStd
  3
"AcAmgDimStd|Product Description: AutoCAD Mechanical 2000|Company: Autodesk"
 90
        0
 91
        1
280
     0
281
     0
  0
CLASS
  1
ACAMGHOLECHARTSTDDIN
  2
AcAmgHoleChartStdDIN
  3
ACMSYMBB_MODULE_NAME
 90
        0
 91
        1
280
     0
281
     0
  0
CLASS
  1
ACAMGTITLESTD
  2
AcAmgTitleStd
  3
"TITLEAPP"
 90
        0
 91
        1
280
     0
281
     0
  0
CLASS
  1
LAYER_INDEX
  2
AcDbLayerIndex
  3
ObjectDBX Classes
 90
        0
 91
        0
280
     0
281
     0
  0
CLASS
  1
IDBUFFER
  2
AcDbIdBuffer
  3
ObjectDBX Classes
 90
        0
 91
        0
280
     0
281
     0
  0
CLASS
  1
PLOTSETTINGS
  2
AcDbPlotSettings
  3
ObjectDBX Classes
 90
        0
 91
        0
280
     0
281
     0
  0
CLASS
  1
ACAMGFILTERDAT
  2
AcAmgFilterDat
  3
"AcadM|Product Description: AutoCAD Mechanical 2000|Company: Autodesk"
 90
        0
 91
        0
280
     0
281
     0
  0
CLASS
  1
TABLESTYLE
  2
AcDbTableStyle
  3
ObjectDBX Classes
 90
     2047
 91
        1
280
     0
281
     0
  0
CLASS
  1
AM_DRAWING_MGR
  2
AcDmDwgMgr
  3
AcMechDwgViewMgmt
 90
        0
 91
        1
280
     0
281
     0
  0
CLASS
  1
AM_DWG_DOCUMENT
  2
AcDmDwgDocument
  3
AcMechDwgViewMgmt
 90
        0
 91
        1
280
     0
281
     0
  0
CLASS
  1
AM_DWG_SHEET
  2
AcDmSheet
  3
AcMechDwgViewMgmt
 90
        0
 91
        1
280
     0
281
     0
  0
CLASS
  1
AM_VIEWDIMPARMAP
  2
AcDmViewDimParMap
  3
AcMechDwgViewMgmt
 90
        0
 91
        1
280
     0
281
     0
  0
CLASS
  1
AM_DWGMGR_NAME
  2
AcDmDwgMgrName
  3
AcMechDwgViewMgmt
 90
        0
 91
        1
280
     0
281
     0
  0
CLASS
  1
AMDTMENUSTATEMGR
  2
AmdtMenuStateMgr
  3
McadcomServices
 90
        0
 91
        0
280
     0
281
     0
  0
CLASS
  1
AMDTMCOMMENUSTATE
  2
AmdtMcomMenuState
  3
McadcomServices
 90
        0
 91
        0
280
     0
281
     0
  0
CLASS
  1
MAPIAMMOUDLE
  2
MApiAmModule
  3
MApiAmServices
 90
        0
 91
        0
280
     0
281
     0
  0
CLASS
  1
AMDTADMENUSTATE
  2
AmdtAdMenuState
  3
DesignerServices
 90
        0
 91
        0
280
     0
281
     0
  0
CLASS
  1
ADAPPL
  2
AcAdAppl
  3
DesignerServices
 90
        0
 91
        1
280
     0
281
     0
  0
CLASS
  1
DEPMGR
  2
AcAdDepMgr
  3
DesignerServices
 90
        0
 91
        1
280
     0
281
     0
  0
CLASS
  1
PARAMMGR
  2
AcAdParamMgr
  3
DesignerServices
 90
        0
 91
        1
280
     0
281
     0
  0
CLASS
  1
PARAMSCOPE
  2
AcAdParamScope
  3
DesignerServices
 90
        0
 91
        1
280
     0
281
     0
  0
CLASS
  1
NAMEDAPPL
  2
AcAdNamedAppl
  3
DesignerServices
 90
        0
 91
        1
280
     0
281
     0
  0
CLASS
  1
AMDTDMMENUSTATE
  2
AmdtDmMenuState
  3
AcMechDwgViewMgmt
 90
        0
 91
        0
280
     0
281
     0
  0
CLASS
  1
AMDTAMMENUSTATE
  2
AmdtAmMenuState
  3
DesignerAssemblies
 90
        0
 91
        0
280
     0
281
     0
  0
CLASS
  1
ACAMPROJECT
  2
AcAmProject
  3
DesignerAssemblies
 90
        0
 91
        0
280
     0
281
     0
  0
CLASS
  1
ACAMGRCOMPDEF
  2
AcAmGrCompDef
  3
DesignerAssemblies
 90
        0
 91
        0
280
     0
281
     0
  0
CLASS
  1
ACCMCONTEXT
  2
AcCmContext
  3
DesignerAssemblies
 90
        0
 91
        0
280
     0
281
     0
  0
CLASS
  1
ACAMCOMPDEF
  2
AcAmCompDef
  3
DesignerAssemblies
 90
        0
 91
        0
280
     0
281
     0
  0
CLASS
  1
ACAMCOMPDEFMGR
  2
AcAmCompDefMgr
  3
DesignerAssemblies
 90
        0
 91
        0
280
     0
281
     0
  0
CLASS
  1
AMCONTEXTMGR
  2
AcAmContextMgr
  3
DesignerAssemblies
 90
        0
 91
        0
280
     0
281
     0
  0
CLASS
  1
ACAMCONTEXTMODELER
  2
AcAmContextModeler
  3
DesignerAssemblies
 90
        0
 91
        0
280
     0
281
     0
  0
CLASS
  1
ACRFATTGENMGR
  2
AcRfAttGeneralMgr
  3
AcAttribServices
 90
        0
 91
        0
280
     0
281
     0
  0
CLASS
  1
ACRFOBJATTMGR
  2
AcRfObjAttGroupMgr
  3
AcAttribServices
 90
        0
 91
        0
280
     0
281
     0
  0
CLASS
  1
ACRFMCADAPIATTHOLDER
  2
AcRfMCADAPIAttHolder
  3
AcAttribServices
 90
        0
 91
        0
280
     0
281
     0
  0
CLASS
  1
AMDTSYSATTR
  2
AmdtSystemAttribute
  3
AcAttribServices
 90
        0
 91
        0
280
     0
281
     0
  0
CLASS
  1
ACMTHREADLINESTANDARDDIN
  2
AmdtThreadLineStdDIN
  3
"Amdt_StdImp|Product Description: AutoCAD Mechanical 2004 DX|Company: Autodesk"
 90
        0
 91
        1
280
     0
281
     0
  0
CLASS
  1
CATALOGSTATE
  2
AcAmCatalogState
  3
DesignerAssemblies
 90
        0
 91
        0
280
     0
281
     0
  0
CLASS
  1
ACAMGRCOMPDEFSET
  2
AcAmGrCompDefSet
  3
DesignerAssemblies
 90
        0
 91
        0
280
     0
281
     0
  0
CLASS
  1
AMDTBROWSERDBTAB
  2
AmdtBrowserDbTab
  3
McadcomServices
 90
        0
 91
        0
280
     0
281
     0
  0
CLASS
  1
CBROWSERAPPOBJECT
  2
CBrowserAppObject
  3
McadcomServices
 90
        0
 91
        0
280
     0
281
     0
  0
CLASS
  1
DM_PLACEHOLDER
  2
AcDmSelsetPlaceholder
  3
AcMechDwgViewMgmt
 90
        0
 91
        0
280
     0
281
     0
  0
CLASS
  1
SORTENTSTABLE
  2
AcDbSortentsTable
  3
ObjectDBX Classes
 90
        0
 91
        2
280
     0
281
     0
  0
ENDSEC
  0
SECTION
  2
TABLES
  0
TABLE
  2
VPORT
  5
1B
330
0
100
AcDbSymbolTable
 70
     1
  0
VPORT
  5
1C
330
1B
100
AcDbSymbolTableRecord
100
AcDbViewportTableRecord
  2
*Active
 70
     0
 10
0.0
 20
0.0
 11
1.0
 21
1.0
 12
817.8376043618536
 22
351.7349329239104
 13
0.0
 23
0.0
 14
2.0
 24
2.0
 15
10.0
 25
10.0
 16
0.0
 26
0.0
 36
1.0
 17
0.0
 27
0.0
 37
0.0
 40
536.2658869306345
 41
1.571127502634351
 42
50.0
 43
0.0
 44
0.0
 50
0.0
 51
0.0
 71
     0
 72
  5000
 73
     1
 74
     0
 75
     0
 76
     0
 77
     0
 78
     0
281
     0
 65
     1
110
0.0
120
0.0
130
0.0
111
1.0
121
0.0
131
0.0
112
0.0
122
1.0
132
0.0
 79
     0
146
0.0
  0
ENDTAB
  0
TABLE
  2
LTYPE
  5
16
330
0
100
AcDbSymbolTable
 70
    15
  0
LTYPE
  5
17
330
16
100
AcDbSymbolTableRecord
100
AcDbLinetypeTableRecord
  2
BYBLOCK
 70
     0
  3

 72
    65
 73
     0
 40
0.0
  0
LTYPE
  5
18
330
16
100
AcDbSymbolTableRecord
100
AcDbLinetypeTableRecord
  2
BYLAYER
 70
     0
  3

 72
    65
 73
     0
 40
0.0
  0
LTYPE
  5
A
330
16
100
AcDbSymbolTableRecord
100
AcDbLinetypeTableRecord
  2
CONTINUOUS
 70
     0
  3
Durchgezogene Linie
 72
    65
 73
     0
 40
0.0
  0
LTYPE
  5
4C
330
16
100
AcDbSymbolTableRecord
100
AcDbLinetypeTableRecord
  2
STRICHPUNKT
 70
     0
  3
__ . __ . __ . __ . __ . __ . __ . __ . __ . __
 72
    65
 73
     4
 40
1.0
 49
0.5
 74
     0
 49
-0.25
 74
     0
 49
0.0
 74
     0
 49
-0.25
 74
     0
  0
LTYPE
  5
143
330
16
100
AcDbSymbolTableRecord
100
AcDbLinetypeTableRecord
  2
AM_ISO02W050
 70
     0
  3
__ __ __ __ __ __ __ __ __ __ __ __ __ __ __
 72
    65
 73
     2
 40
7.5
 49
6.0
 74
     0
 49
-1.5
 74
     0
  0
LTYPE
  5
155
330
16
100
AcDbSymbolTableRecord
100
AcDbLinetypeTableRecord
  2
ACDINWELD
 70
     0
  3
_ _ _ _ _
 72
    65
 73
     2
 40
2.0
 49
2.0
 74
     0
 49
-1.0
 74
     0
  0
LTYPE
  5
158
330
16
100
AcDbSymbolTableRecord
100
AcDbLinetypeTableRecord
  2
ACDINTGB
 70
     0
  3
__ . . __ . .
 72
    65
 73
     6
 40
9.0
 49
4.0
 74
     0
 49
-1.0
 74
     0
 49
1.0
 74
     0
 49
-1.0
 74
     0
 49
1.0
 74
     0
 49
-1.0
 74
     0
  0
LTYPE
  5
159
330
16
100
AcDbSymbolTableRecord
100
AcDbLinetypeTableRecord
  2
ACDINTGL
 70
     0
  3
_ _ _ _ _
 72
    65
 73
     2
 40
3.0
 49
2.0
 74
     0
 49
-1.0
 74
     0
  0
LTYPE
  5
15D
330
16
100
AcDbSymbolTableRecord
100
AcDbLinetypeTableRecord
  2
CENTER
 70
     0
  3
__ . __
 72
    65
 73
     4
 40
7.0
 49
4.0
 74
     0
 49
-1.0
 74
     0
 49
1.0
 74
     0
 49
-1.0
 74
     0
  0
LTYPE
  5
13E
330
16
100
AcDbSymbolTableRecord
100
AcDbLinetypeTableRecord
  2
gen3
 70
     0
  3
-- -- -- -- -- -- -- -- -- -- -- -- -- -- --
 72
    65
 73
     2
 40
6.25
 49
4.75
 74
     0
 49
-1.5
 74
     0
  0
LTYPE
  5
13F
330
16
100
AcDbSymbolTableRecord
100
AcDbLinetypeTableRecord
  2
gen7
 70
     0
  3
____ . ____ . ____ . ____ . ____ . ____ . ____
 72
    65
 73
     4
 40
13.75
 49
9.75
 74
     0
 49
-1.5
 74
     0
 49
1.0
 74
     0
 49
-1.5
 74
     0
  0
LTYPE
  5
140
330
16
100
AcDbSymbolTableRecord
100
AcDbLinetypeTableRecord
  2
gen3a
 70
     0
  3
 - - - - -
 72
    65
 73
     2
 40
3.125
 49
2.25
 74
     0
 49
-0.875
 74
     0
  0
LTYPE
  5
141
330
16
100
AcDbSymbolTableRecord
100
AcDbLinetypeTableRecord
  2
gen7a
 70
     0
  3
__ . __ . __
 72
    65
 73
     4
 40
6.875
 49
4.75
 74
     0
 49
-0.875
 74
     0
 49
0.375
 74
     0
 49
-0.875
 74
     0
  0
LTYPE
  5
142
330
16
100
AcDbSymbolTableRecord
100
AcDbLinetypeTableRecord
  2
gen4a
 70
     0
  3
_____ . . _____ . . _____ . . ____ .. ____
 72
    65
 73
     6
 40
16.25
 49
9.75
 74
     0
 49
-1.5
 74
     0
 49
1.0
 74
     0
 49
-1.5
 74
     0
 49
1.0
 74
     0
 49
-1.5
 74
     0
  0
LTYPE
  5
144
330
16
100
AcDbSymbolTableRecord
100
AcDbLinetypeTableRecord
  2
genzigzag
 70
     0
  3
/\/-/\/-/\/-/\/-/\/-/\/
 72
    65
 73
     2
 40
12.0001
 49
0.0001
 74
     4
 75
   135
340
145
 46
2.0
 50
0.0
 44
0.0
 45
0.0
 49
-12.0
 74
     0
  0
LTYPE
  5
18B
330
16
100
AcDbSymbolTableRecord
100
AcDbLinetypeTableRecord
  2
HIDDEN
 70
     0
  3
Verdeckt
 72
    65
 73
     2
 40
9.525
 49
6.349999999999999
 74
     0
 49
-3.174999999999999
 74
     0
  0
LTYPE
  5
18C
330
16
100
AcDbSymbolTableRecord
100
AcDbLinetypeTableRecord
  2
PHANTOM2
 70
     0
  3
Phantom (.5x) ___ _ _ ___ _ _ ___ _ _ ___ _ _
 72
    65
 73
     6
 40
31.75
 49
15.875
 74
     0
 49
-3.174999999999999
 74
     0
 49
3.174999999999999
 74
     0
 49
-3.174999999999999
 74
     0
 49
3.174999999999999
 74
     0
 49
-3.174999999999999
 74
     0
  0
ENDTAB
  0
TABLE
  2
LAYER
  5
12
330
0
100
AcDbSymbolTable
 70
     8
  0
LAYER
  5
6
330
12
100
AcDbSymbolTableRecord
100
AcDbLayerTableRecord
  2
0
 70
     0
 62
     7
  6
CONTINUOUS
370
    -3
390
7
  0
LAYER
  5
39
330
12
100
AcDbSymbolTableRecord
100
AcDbLayerTableRecord
  2
DEFPOINTS
 70
     0
 62
     7
  6
CONTINUOUS
290
     0
370
    -3
390
7
  0
LAYER
  5
5D
330
12
100
AcDbSymbolTableRecord
100
AcDbLayerTableRecord
  2
UMRISS05
 70
     0
 62
     4
  6
CONTINUOUS
370
    -3
390
7
  0
LAYER
  5
2B
330
12
100
AcDbSymbolTableRecord
100
AcDbLayerTableRecord
  2
BEMASSUNG
 70
     0
 62
     2
  6
CONTINUOUS
370
    -3
390
7
  0
LAYER
  5
4B
330
12
100
AcDbSymbolTableRecord
100
AcDbLayerTableRecord
  2
ACHSEN
 70
     0
 62
    12
  6
STRICHPUNKT
370
    -3
390
7
  0
LAYER
  5
62
330
12
100
AcDbSymbolTableRecord
100
AcDbLayerTableRecord
  2
UMRISS03
 70
     0
 62
     3
  6
CONTINUOUS
370
    -3
390
7
  0
LAYER
  5
6B
330
12
100
AcDbSymbolTableRecord
100
AcDbLayerTableRecord
  2
UMRISS02
 70
     0
 62
     1
  6
CONTINUOUS
370
    -3
390
7
  0
LAYER
  5
60
330
12
100
AcDbSymbolTableRecord
100
AcDbLayerTableRecord
  2
8
 70
     0
 62
     1
  6
CONTINUOUS
370
    -3
390
7
  0
ENDTAB
  0
TABLE
  2
STYLE
  5
13
330
0
100
AcDbSymbolTable
 70
     7
  0
STYLE
  5
14
330
13
100
AcDbSymbolTableRecord
100
AcDbTextStyleTableRecord
  2
STANDARD
 70
     0
 40
0.0
 41
1.0
 50
0.0
 71
     0
 42
0.2
  3
txt
  4

  0
STYLE
  5
2C
330
13
100
AcDbSymbolTableRecord
100
AcDbTextStyleTableRecord
  2
ROMANS
 70
     0
 40
8.5
 41
0.7
 50
0.0
 71
     0
 42
8.5
  3
ROMANS.shx
  4

  0
STYLE
  5
21
330
13
100
AcDbSymbolTableRecord
100
AcDbTextStyleTableRecord
  2
NORM
 70
     0
 40
0.0
 41
0.9
 50
0.0
 71
     0
 42
3.5
  3
SIMPLEX.shx
  4

  0
STYLE
  5
14F
330
13
100
AcDbSymbolTableRecord
100
AcDbTextStyleTableRecord
  2
ACDINTS
 70
     0
 40
1.0
 41
1.0
 50
0.0
 71
     0
 42
8.5
  3
isocp.shx
  4

  0
STYLE
  5
153
330
13
100
AcDbSymbolTableRecord
100
AcDbTextStyleTableRecord
  2
ACDINGDT
 70
     0
 40
0.0
 41
1.0
 50
0.0
 71
     0
 42
8.5
  3
amgdt.shx
  4

  0
STYLE
  5
145
330
13
100
AcDbSymbolTableRecord
100
AcDbTextStyleTableRecord
  2

 70
     1
 40
0.0
 41
1.0
 50
0.0
 71
     0
 42
8.5
  3
genltshp.shx
  4

  0
STYLE
  5
23
330
13
100
AcDbSymbolTableRecord
100
AcDbTextStyleTableRecord
  2
WMF
 70
     0
 40
0.0
 41
1.0
 50
0.0
 71
     0
 42
6.5
  3
ARIAL.TTF
  4

1001
ACAD
1000
Arial
1071
       34
  0
ENDTAB
  0
TABLE
  2
VIEW
  5
19
330
0
100
AcDbSymbolTable
 70
     0
  0
ENDTAB
  0
TABLE
  2
UCS
  5
1A
330
0
100
AcDbSymbolTable
 70
     0
  0
ENDTAB
  0
TABLE
  2
APPID
  5
1D
330
0
100
AcDbSymbolTable
 70
     1
  0
APPID
  5
1E
330
1D
100
AcDbSymbolTableRecord
100
AcDbRegAppTableRecord
  2
ACAD
 70
     0
  0
ENDTAB
  0
TABLE
  2
DIMSTYLE
  5
1F
330
0
100
AcDbSymbolTable
 70
     2
100
AcDbDimStyleTable
 71
     2
340
20
340
22
  0
DIMSTYLE
105
20
102
{ACAD_REACTORS
330
F1
330
E4
330
D5
330
C6
330
B7
330
AA
330
9D
330
90
330
83
330
73
330
4D
330
3D
330
2F
102
}
330
1F
100
AcDbSymbolTableRecord
100
AcDbDimStyleTableRecord
  2
PROSPEKT
 70
     0
 40
1.5
 41
3.5
 42
0.5
 43
8.0
 44
1.0
 73
     0
 74
     0
 77
     1
 78
     8
140
3.5
141
1.5
143
25.39999999999999
146
0.5
147
1.0
172
     1
174
     1
176
     2
177
     2
178
     3
271
     2
272
     2
275
     1
279
     2
284
     8
285
     8
286
     8
340
21
  0
DIMSTYLE
105
22
330
1F
100
AcDbSymbolTableRecord
100
AcDbDimStyleTableRecord
  2
WMF
 70
     0
 40
1.9
 41
2.799999999999999
 42
1.0
 43
0.0
 44
1.0
 73
     0
 74
     0
 77
     1
 78
     8
140
3.399999999999999
141
1.5
146
0.5
147
1.0
172
     1
174
     1
176
   256
177
   256
178
   256
271
     2
272
     2
279
     2
284
     8
285
     8
286
     8
340
23
  0
ENDTAB
  0
TABLE
  2
BLOCK_RECORD
  5
1
330
0
100
AcDbSymbolTable
 70
    13
  0
BLOCK_RECORD
  5
2
102
{ACAD_XDICTIONARY
360
3
102
}
330
1
100
AcDbSymbolTableRecord
100
AcDbBlockTableRecord
  2
*MODEL_SPACE
340
C
  0
BLOCK_RECORD
  5
E
330
1
100
AcDbSymbolTableRecord
100
AcDbBlockTableRecord
  2
*PAPER_SPACE
340
11
  0
BLOCK_RECORD
  5
F2
330
1
100
AcDbSymbolTableRecord
100
AcDbBlockTableRecord
  2
*D0
340
0
  0
BLOCK_RECORD
  5
E5
330
1
100
AcDbSymbolTableRecord
100
AcDbBlockTableRecord
  2
*D1
340
0
  0
BLOCK_RECORD
  5
D6
330
1
100
AcDbSymbolTableRecord
100
AcDbBlockTableRecord
  2
*D2
340
0
  0
BLOCK_RECORD
  5
C7
330
1
100
AcDbSymbolTableRecord
100
AcDbBlockTableRecord
  2
*D3
340
0
  0
BLOCK_RECORD
  5
B8
330
1
100
AcDbSymbolTableRecord
100
AcDbBlockTableRecord
  2
*D4
340
0
  0
BLOCK_RECORD
  5
AB
330
1
100
AcDbSymbolTableRecord
100
AcDbBlockTableRecord
  2
*D5
340
0
  0
BLOCK_RECORD
  5
9E
330
1
100
AcDbSymbolTableRecord
100
AcDbBlockTableRecord
  2
*D6
340
0
  0
BLOCK_RECORD
  5
91
330
1
100
AcDbSymbolTableRecord
100
AcDbBlockTableRecord
  2
*D7
340
0
  0
BLOCK_RECORD
  5
84
330
1
100
AcDbSymbolTableRecord
100
AcDbBlockTableRecord
  2
*D8
340
0
  0
BLOCK_RECORD
  5
74
330
1
100
AcDbSymbolTableRecord
100
AcDbBlockTableRecord
  2
*D9
340
0
  0
BLOCK_RECORD
  5
4E
330
1
100
AcDbSymbolTableRecord
100
AcDbBlockTableRecord
  2
*D10
340
0
  0
BLOCK_RECORD
  5
3E
330
1
100
AcDbSymbolTableRecord
100
AcDbBlockTableRecord
  2
*D11
340
0
  0
BLOCK_RECORD
  5
30
330
1
100
AcDbSymbolTableRecord
100
AcDbBlockTableRecord
  2
*D12
340
0
  0
ENDTAB
  0
ENDSEC
  0
SECTION
  2
BLOCKS
  0
BLOCK
  5
5
330
2
100
AcDbEntity
  8
0
100
AcDbBlockBegin
  2
*MODEL_SPACE
 70
     0
 10
0.0
 20
0.0
 30
0.0
  3
*MODEL_SPACE
  1

  0
ENDBLK
  5
B
330
2
100
AcDbEntity
  8
0
100
AcDbBlockEnd
  0
BLOCK
  5
F
330
E
100
AcDbEntity
 67
     1
  8
0
100
AcDbBlockBegin
  2
*PAPER_SPACE
 70
     0
 10
0.0
 20
0.0
 30
0.0
  3
*PAPER_SPACE
  1

  0
ENDBLK
  5
10
330
E
100
AcDbEntity
 67
     1
  8
0
100
AcDbBlockEnd
  0
BLOCK
  5
F3
330
F2
100
AcDbEntity
  8
0
100
AcDbBlockBegin
  2
*D0
 70
     1
 10
0.0
 20
0.0
 30
0.0
  3
*D0
  1

  0
LINE
  5
F4
330
F2
100
AcDbEntity
  8
BEMASSUNG
 62
     2
370
    -2
100
AcDbLine
 10
730.8033338354196
 20
306.3681027358881
 30
0.0
 11
730.8033338354196
 21
286.5
 31
0.0
  0
LINE
  5
F5
330
F2
100
AcDbEntity
  8
BEMASSUNG
 62
     2
370
    -2
100
AcDbLine
 10
810.8033338354196
 20
306.3681027358881
 30
0.0
 11
810.8033338354196
 21
286.5
 31
0.0
  0
LINE
  5
F6
330
F2
100
AcDbEntity
  8
BEMASSUNG
 62
     2
370
    -2
100
AcDbLine
 10
736.0533338354196
 20
288.0
 30
0.0
 11
805.5533338354196
 21
288.0
 31
0.0
  0
SOLID
  5
F7
330
F2
100
AcDbEntity
  8
BEMASSUNG
 62
     2
100
AcDbTrace
 10
736.0533338354196
 20
288.875
 30
0.0
 11
736.0533338354196
 21
287.125
 31
0.0
 12
730.8033338354196
 22
288.0
 32
0.0
 13
730.8033338354196
 23
288.0
 33
0.0
  0
SOLID
  5
F8
330
F2
100
AcDbEntity
  8
BEMASSUNG
 62
     2
100
AcDbTrace
 10
805.5533338354196
 20
288.875
 30
0.0
 11
805.5533338354196
 21
287.125
 31
0.0
 12
810.8033338354196
 22
288.0
 32
0.0
 13
810.8033338354196
 23
288.0
 33
0.0
  0
MTEXT
  5
F9
330
F2
100
AcDbEntity
  8
BEMASSUNG
 62
     3
100
AcDbMText
 10
770.8033338354196
 20
292.125
 30
0.0
 40
5.25
 41
0.0
 71
     5
 72
     1
  1
\A1;80
  7
NORM
 73
     1
 44
1.0
  0
POINT
  5
FA
330
F2
100
AcDbEntity
  8
DEFPOINTS
 62
     0
100
AcDbPoint
 10
730.8033338354196
 20
307.1181027358881
 30
0.0
  0
POINT
  5
FB
330
F2
100
AcDbEntity
  8
DEFPOINTS
 62
     0
100
AcDbPoint
 10
810.8033338354196
 20
307.1181027358881
 30
0.0
  0
POINT
  5
FC
330
F2
100
AcDbEntity
  8
DEFPOINTS
 62
     0
100
AcDbPoint
 10
810.8033338354196
 20
288.0
 30
0.0
  0
ENDBLK
  5
FD
330
F2
100
AcDbEntity
  8
0
100
AcDbBlockEnd
  0
BLOCK
  5
E6
330
E5
100
AcDbEntity
  8
0
100
AcDbBlockBegin
  2
*D1
 70
     1
 10
0.0
 20
0.0
 30
0.0
  3
*D1
  1

  0
LINE
  5
E7
330
E5
100
AcDbEntity
  8
BEMASSUNG
 62
     2
370
    -2
100
AcDbLine
 10
720.8033338354196
 20
315.3681027358881
 30
0.0
 11
720.8033338354196
 21
272.5
 31
0.0
  0
LINE
  5
E8
330
E5
100
AcDbEntity
  8
BEMASSUNG
 62
     2
370
    -2
100
AcDbLine
 10
820.8033338354196
 20
315.3681027358881
 30
0.0
 11
820.8033338354196
 21
272.5
 31
0.0
  0
LINE
  5
E9
330
E5
100
AcDbEntity
  8
BEMASSUNG
 62
     2
370
    -2
100
AcDbLine
 10
726.0533338354195
 20
274.0
 30
0.0
 11
815.5533338354196
 21
274.0
 31
0.0
  0
SOLID
  5
EA
330
E5
100
AcDbEntity
  8
BEMASSUNG
 62
     2
100
AcDbTrace
 10
726.0533338354195
 20
274.875
 30
0.0
 11
726.0533338354195
 21
273.125
 31
0.0
 12
720.8033338354196
 22
274.0
 32
0.0
 13
720.8033338354196
 23
274.0
 33
0.0
  0
SOLID
  5
EB
330
E5
100
AcDbEntity
  8
BEMASSUNG
 62
     2
100
AcDbTrace
 10
815.5533338354196
 20
274.875
 30
0.0
 11
815.5533338354196
 21
273.125
 31
0.0
 12
820.8033338354196
 22
274.0
 32
0.0
 13
820.8033338354196
 23
274.0
 33
0.0
  0
MTEXT
  5
EC
330
E5
100
AcDbEntity
  8
BEMASSUNG
 62
     3
100
AcDbMText
 10
770.8033338354196
 20
278.125
 30
0.0
 40
5.25
 41
0.0
 71
     5
 72
     1
  1
\A1;100
  7
NORM
 73
     1
 44
1.0
  0
POINT
  5
ED
330
E5
100
AcDbEntity
  8
DEFPOINTS
 62
     0
100
AcDbPoint
 10
720.8033338354196
 20
316.1181027358881
 30
0.0
  0
POINT
  5
EE
330
E5
100
AcDbEntity
  8
DEFPOINTS
 62
     0
100
AcDbPoint
 10
820.8033338354196
 20
316.118102735888
 30
0.0
  0
POINT
  5
EF
330
E5
100
AcDbEntity
  8
DEFPOINTS
 62
     0
100
AcDbPoint
 10
820.8033338354196
 20
274.0
 30
0.0
  0
ENDBLK
  5
F0
330
E5
100
AcDbEntity
  8
0
100
AcDbBlockEnd
  0
BLOCK
  5
D7
330
D6
100
AcDbEntity
  8
0
100
AcDbBlockBegin
  2
*D2
 70
     1
 10
0.0
 20
0.0
 30
0.0
  3
*D2
  1

  0
LINE
  5
D8
330
D6
100
AcDbEntity
  8
BEMASSUNG
 62
     2
370
    -2
100
AcDbLine
 10
720.8033338354196
 20
315.3681027358881
 30
0.0
 11
720.8033338354196
 21
286.5
 31
0.0
  0
LINE
  5
D9
330
D6
100
AcDbEntity
  8
BEMASSUNG
 62
     2
370
    -2
100
AcDbLine
 10
730.8033338354196
 20
305.8681027358881
 30
0.0
 11
730.8033338354196
 21
286.5
 31
0.0
  0
LINE
  5
DA
330
D6
100
AcDbEntity
  8
BEMASSUNG
 62
     2
370
    -2
100
AcDbLine
 10
715.5533338354196
 20
288.0
 30
0.0
 11
710.3033338354196
 21
288.0
 31
0.0
  0
LINE
  5
DB
330
D6
100
AcDbEntity
  8
BEMASSUNG
 62
     2
370
    -2
100
AcDbLine
 10
736.0533338354196
 20
288.0
 30
0.0
 11
741.3033338354196
 21
288.0
 31
0.0
  0
LINE
  5
DC
330
D6
100
AcDbEntity
  8
BEMASSUNG
 62
     2
370
    -2
100
AcDbLine
 10
720.8033338354196
 20
288.0
 30
0.0
 11
730.8033338354196
 21
288.0
 31
0.0
  0
SOLID
  5
DD
330
D6
100
AcDbEntity
  8
BEMASSUNG
 62
     2
100
AcDbTrace
 10
715.5533338354196
 20
288.875
 30
0.0
 11
715.5533338354196
 21
287.125
 31
0.0
 12
720.8033338354196
 22
288.0
 32
0.0
 13
720.8033338354196
 23
288.0
 33
0.0
  0
SOLID
  5
DE
330
D6
100
AcDbEntity
  8
BEMASSUNG
 62
     2
100
AcDbTrace
 10
736.0533338354196
 20
288.875
 30
0.0
 11
736.0533338354196
 21
287.125
 31
0.0
 12
730.8033338354196
 22
288.0
 32
0.0
 13
730.8033338354196
 23
288.0
 33
0.0
  0
MTEXT
  5
DF
330
D6
100
AcDbEntity
  8
BEMASSUNG
 62
     3
100
AcDbMText
 10
725.8033338354196
 20
292.125
 30
0.0
 40
5.25
 41
0.0
 71
     5
 72
     1
  1
\A1;10
  7
NORM
 73
     1
 44
1.0
  0
POINT
  5
E0
330
D6
100
AcDbEntity
  8
DEFPOINTS
 62
     0
100
AcDbPoint
 10
720.8033338354196
 20
316.1181027358881
 30
0.0
  0
POINT
  5
E1
330
D6
100
AcDbEntity
  8
DEFPOINTS
 62
     0
100
AcDbPoint
 10
730.8033338354196
 20
306.6181027358881
 30
0.0
  0
POINT
  5
E2
330
D6
100
AcDbEntity
  8
DEFPOINTS
 62
     0
100
AcDbPoint
 10
730.8033338354196
 20
288.0
 30
0.0
  0
ENDBLK
  5
E3
330
D6
100
AcDbEntity
  8
0
100
AcDbBlockEnd
  0
BLOCK
  5
C8
330
C7
100
AcDbEntity
  8
0
100
AcDbBlockBegin
  2
*D3
 70
     1
 10
0.0
 20
0.0
 30
0.0
  3
*D3
  1

  0
LINE
  5
C9
330
C7
100
AcDbEntity
  8
BEMASSUNG
 62
     2
370
    -2
100
AcDbLine
 10
810.8033338354196
 20
305.8681027358881
 30
0.0
 11
810.8033338354196
 21
286.5
 31
0.0
  0
LINE
  5
CA
330
C7
100
AcDbEntity
  8
BEMASSUNG
 62
     2
370
    -2
100
AcDbLine
 10
820.8033338354196
 20
315.3681027358881
 30
0.0
 11
820.8033338354196
 21
286.5
 31
0.0
  0
LINE
  5
CB
330
C7
100
AcDbEntity
  8
BEMASSUNG
 62
     2
370
    -2
100
AcDbLine
 10
805.5533338354196
 20
288.0
 30
0.0
 11
800.3033338354196
 21
288.0
 31
0.0
  0
LINE
  5
CC
330
C7
100
AcDbEntity
  8
BEMASSUNG
 62
     2
370
    -2
100
AcDbLine
 10
826.0533338354196
 20
288.0
 30
0.0
 11
831.3033338354196
 21
288.0
 31
0.0
  0
LINE
  5
CD
330
C7
100
AcDbEntity
  8
BEMASSUNG
 62
     2
370
    -2
100
AcDbLine
 10
810.8033338354196
 20
288.0
 30
0.0
 11
820.8033338354196
 21
288.0
 31
0.0
  0
SOLID
  5
CE
330
C7
100
AcDbEntity
  8
BEMASSUNG
 62
     2
100
AcDbTrace
 10
805.5533338354196
 20
288.875
 30
0.0
 11
805.5533338354196
 21
287.125
 31
0.0
 12
810.8033338354196
 22
288.0
 32
0.0
 13
810.8033338354196
 23
288.0
 33
0.0
  0
SOLID
  5
CF
330
C7
100
AcDbEntity
  8
BEMASSUNG
 62
     2
100
AcDbTrace
 10
826.0533338354196
 20
288.875
 30
0.0
 11
826.0533338354196
 21
287.125
 31
0.0
 12
820.8033338354196
 22
288.0
 32
0.0
 13
820.8033338354196
 23
288.0
 33
0.0
  0
MTEXT
  5
D0
330
C7
100
AcDbEntity
  8
BEMASSUNG
 62
     3
100
AcDbMText
 10
815.8033338354195
 20
292.125
 30
0.0
 40
5.25
 41
0.0
 71
     5
 72
     1
  1
\A1;10
  7
NORM
 73
     1
 44
1.0
  0
POINT
  5
D1
330
C7
100
AcDbEntity
  8
DEFPOINTS
 62
     0
100
AcDbPoint
 10
810.8033338354196
 20
306.6181027358881
 30
0.0
  0
POINT
  5
D2
330
C7
100
AcDbEntity
  8
DEFPOINTS
 62
     0
100
AcDbPoint
 10
820.8033338354196
 20
316.118102735888
 30
0.0
  0
POINT
  5
D3
330
C7
100
AcDbEntity
  8
DEFPOINTS
 62
     0
100
AcDbPoint
 10
820.8033338354196
 20
288.0
 30
0.0
  0
ENDBLK
  5
D4
330
C7
100
AcDbEntity
  8
0
100
AcDbBlockEnd
  0
BLOCK
  5
B9
330
B8
100
AcDbEntity
  8
0
100
AcDbBlockBegin
  2
*D4
 70
     1
 10
0.0
 20
0.0
 30
0.0
  3
*D4
  1

  0
LINE
  5
BA
330
B8
100
AcDbEntity
  8
BEMASSUNG
 62
     2
370
    -2
100
AcDbLine
 10
720.0533338354196
 20
317.1181027358881
 30
0.0
 11
708.3793584814216
 21
317.1181027358881
 31
0.0
  0
LINE
  5
BB
330
B8
100
AcDbEntity
  8
BEMASSUNG
 62
     2
370
    -2
100
AcDbLine
 10
728.0533338354196
 20
308.1181027358881
 30
0.0
 11
708.3793584814216
 21
308.1181027358881
 31
0.0
  0
LINE
  5
BC
330
B8
100
AcDbEntity
  8
BEMASSUNG
 62
     2
370
    -2
100
AcDbLine
 10
709.8793584814216
 20
322.3681027358881
 30
0.0
 11
709.8793584814216
 21
327.6181027358881
 31
0.0
  0
LINE
  5
BD
330
B8
100
AcDbEntity
  8
BEMASSUNG
 62
     2
370
    -2
100
AcDbLine
 10
709.8793584814216
 20
302.8681027358881
 30
0.0
 11
709.8793584814216
 21
297.6181027358881
 31
0.0
  0
LINE
  5
BE
330
B8
100
AcDbEntity
  8
BEMASSUNG
 62
     2
370
    -2
100
AcDbLine
 10
709.8793584814216
 20
317.1181027358881
 30
0.0
 11
709.8793584814216
 21
308.1181027358881
 31
0.0
  0
SOLID
  5
BF
330
B8
100
AcDbEntity
  8
BEMASSUNG
 62
     2
100
AcDbTrace
 10
709.0043584814216
 20
322.3681027358881
 30
0.0
 11
710.7543584814216
 21
322.3681027358881
 31
0.0
 12
709.8793584814216
 22
317.1181027358881
 32
0.0
 13
709.8793584814216
 23
317.1181027358881
 33
0.0
  0
SOLID
  5
C0
330
B8
100
AcDbEntity
  8
BEMASSUNG
 62
     2
100
AcDbTrace
 10
709.0043584814216
 20
302.8681027358881
 30
0.0
 11
710.7543584814216
 21
302.8681027358881
 31
0.0
 12
709.8793584814216
 22
308.1181027358881
 32
0.0
 13
709.8793584814216
 23
308.1181027358881
 33
0.0
  0
MTEXT
  5
C1
330
B8
100
AcDbEntity
  8
BEMASSUNG
 62
     3
100
AcDbMText
 10
705.7543584814214
 20
312.6181027358882
 30
0.0
 40
5.25
 41
0.0
 71
     5
 72
     1
  1
\A1;9
  7
NORM
 11
0.0000000000000001
 21
1.0
 31
0.0
 73
     1
 44
1.0
  0
POINT
  5
C2
330
B8
100
AcDbEntity
  8
DEFPOINTS
 62
     0
100
AcDbPoint
 10
720.8033338354196
 20
317.1181027358881
 30
0.0
  0
POINT
  5
C3
330
B8
100
AcDbEntity
  8
DEFPOINTS
 62
     0
100
AcDbPoint
 10
728.8033338354196
 20
308.1181027358881
 30
0.0
  0
POINT
  5
C4
330
B8
100
AcDbEntity
  8
DEFPOINTS
 62
     0
100
AcDbPoint
 10
709.8793584814216
 20
308.1181027358881
 30
0.0
  0
ENDBLK
  5
C5
330
B8
100
AcDbEntity
  8
0
100
AcDbBlockEnd
  0
BLOCK
  5
AC
330
AB
100
AcDbEntity
  8
0
100
AcDbBlockBegin
  2
*D5
 70
     1
 10
0.0
 20
0.0
 30
0.0
  3
*D5
  1

  0
LINE
  5
AD
330
AB
100
AcDbEntity
  8
BEMASSUNG
 62
     2
370
    -2
100
AcDbLine
 10
720.0533338354196
 20
317.1181027358881
 30
0.0
 11
708.3793584814216
 21
317.1181027358881
 31
0.0
  0
LINE
  5
AE
330
AB
100
AcDbEntity
  8
BEMASSUNG
 62
     2
370
    -2
100
AcDbLine
 10
720.0533338354196
 20
350.1181027358881
 30
0.0
 11
708.3793584814216
 21
350.1181027358881
 31
0.0
  0
LINE
  5
AF
330
AB
100
AcDbEntity
  8
BEMASSUNG
 62
     2
370
    -2
100
AcDbLine
 10
709.8793584814216
 20
322.3681027358881
 30
0.0
 11
709.8793584814216
 21
344.8681027358881
 31
0.0
  0
SOLID
  5
B0
330
AB
100
AcDbEntity
  8
BEMASSUNG
 62
     2
100
AcDbTrace
 10
709.0043584814216
 20
322.3681027358881
 30
0.0
 11
710.7543584814216
 21
322.3681027358881
 31
0.0
 12
709.8793584814216
 22
317.1181027358881
 32
0.0
 13
709.8793584814216
 23
317.1181027358881
 33
0.0
  0
SOLID
  5
B1
330
AB
100
AcDbEntity
  8
BEMASSUNG
 62
     2
100
AcDbTrace
 10
709.0043584814216
 20
344.8681027358881
 30
0.0
 11
710.7543584814216
 21
344.8681027358881
 31
0.0
 12
709.8793584814216
 22
350.1181027358881
 32
0.0
 13
709.8793584814216
 23
350.1181027358881
 33
0.0
  0
MTEXT
  5
B2
330
AB
100
AcDbEntity
  8
BEMASSUNG
 62
     3
100
AcDbMText
 10
705.7543584814214
 20
333.6181027358882
 30
0.0
 40
5.25
 41
0.0
 71
     5
 72
     1
  1
\A1;33
  7
NORM
 11
0.0000000000000001
 21
1.0
 31
0.0
 73
     1
 44
1.0
  0
POINT
  5
B3
330
AB
100
AcDbEntity
  8
DEFPOINTS
 62
     0
100
AcDbPoint
 10
720.8033338354196
 20
317.1181027358881
 30
0.0
  0
POINT
  5
B4
330
AB
100
AcDbEntity
  8
DEFPOINTS
 62
     0
100
AcDbPoint
 10
720.8033338354196
 20
350.1181027358881
 30
0.0
  0
POINT
  5
B5
330
AB
100
AcDbEntity
  8
DEFPOINTS
 62
     0
100
AcDbPoint
 10
709.8793584814216
 20
350.1181027358881
 30
0.0
  0
ENDBLK
  5
B6
330
AB
100
AcDbEntity
  8
0
100
AcDbBlockEnd
  0
BLOCK
  5
9F
330
9E
100
AcDbEntity
  8
0
100
AcDbBlockBegin
  2
*D6
 70
     1
 10
0.0
 20
0.0
 30
0.0
  3
*D6
  1

  0
LINE
  5
A0
330
9E
100
AcDbEntity
  8
BEMASSUNG
 62
     2
370
    -2
100
AcDbLine
 10
728.0533338354196
 20
364.1181027358881
 30
0.0
 11
708.3793584814216
 21
364.1181027358881
 31
0.0
  0
LINE
  5
A1
330
9E
100
AcDbEntity
  8
BEMASSUNG
 62
     2
370
    -2
100
AcDbLine
 10
720.0533338354196
 20
350.1181027358881
 30
0.0
 11
708.3793584814216
 21
350.1181027358881
 31
0.0
  0
LINE
  5
A2
330
9E
100
AcDbEntity
  8
BEMASSUNG
 62
     2
370
    -2
100
AcDbLine
 10
709.8793584814216
 20
358.8681027358881
 30
0.0
 11
709.8793584814216
 21
355.3681027358881
 31
0.0
  0
SOLID
  5
A3
330
9E
100
AcDbEntity
  8
BEMASSUNG
 62
     2
100
AcDbTrace
 10
709.0043584814216
 20
358.8681027358881
 30
0.0
 11
710.7543584814216
 21
358.8681027358881
 31
0.0
 12
709.8793584814216
 22
364.1181027358881
 32
0.0
 13
709.8793584814216
 23
364.1181027358881
 33
0.0
  0
SOLID
  5
A4
330
9E
100
AcDbEntity
  8
BEMASSUNG
 62
     2
100
AcDbTrace
 10
709.0043584814216
 20
355.3681027358881
 30
0.0
 11
710.7543584814216
 21
355.3681027358881
 31
0.0
 12
709.8793584814216
 22
350.1181027358881
 32
0.0
 13
709.8793584814216
 23
350.1181027358881
 33
0.0
  0
MTEXT
  5
A5
330
9E
100
AcDbEntity
  8
BEMASSUNG
 62
     3
100
AcDbMText
 10
705.7543584814214
 20
357.1181027358882
 30
0.0
 40
5.25
 41
0.0
 71
     5
 72
     1
  1
\A1;14
  7
NORM
 11
0.0000000000000001
 21
1.0
 31
0.0
 73
     1
 44
1.0
  0
POINT
  5
A6
330
9E
100
AcDbEntity
  8
DEFPOINTS
 62
     0
100
AcDbPoint
 10
728.8033338354196
 20
364.1181027358881
 30
0.0
  0
POINT
  5
A7
330
9E
100
AcDbEntity
  8
DEFPOINTS
 62
     0
100
AcDbPoint
 10
720.8033338354196
 20
350.1181027358881
 30
0.0
  0
POINT
  5
A8
330
9E
100
AcDbEntity
  8
DEFPOINTS
 62
     0
100
AcDbPoint
 10
709.8793584814216
 20
350.1181027358881
 30
0.0
  0
ENDBLK
  5
A9
330
9E
100
AcDbEntity
  8
0
100
AcDbBlockEnd
  0
BLOCK
  5
92
330
91
100
AcDbEntity
  8
0
100
AcDbBlockBegin
  2
*D7
 70
     1
 10
0.0
 20
0.0
 30
0.0
  3
*D7
  1

  0
LINE
  5
93
330
91
100
AcDbEntity
  8
BEMASSUNG
 62
     2
370
    -2
100
AcDbLine
 10
728.0533338354196
 20
308.1181027358881
 30
0.0
 11
695.9817878119516
 21
308.1181027358881
 31
0.0
  0
LINE
  5
94
330
91
100
AcDbEntity
  8
BEMASSUNG
 62
     2
370
    -2
100
AcDbLine
 10
728.0533338354196
 20
364.1181027358881
 30
0.0
 11
695.9817878119516
 21
364.1181027358881
 31
0.0
  0
LINE
  5
95
330
91
100
AcDbEntity
  8
BEMASSUNG
 62
     2
370
    -2
100
AcDbLine
 10
697.4817878119516
 20
313.3681027358881
 30
0.0
 11
697.4817878119516
 21
358.8681027358881
 31
0.0
  0
SOLID
  5
96
330
91
100
AcDbEntity
  8
BEMASSUNG
 62
     2
100
AcDbTrace
 10
696.6067878119517
 20
313.3681027358881
 30
0.0
 11
698.3567878119516
 21
313.3681027358881
 31
0.0
 12
697.4817878119516
 22
308.1181027358881
 32
0.0
 13
697.4817878119516
 23
308.1181027358881
 33
0.0
  0
SOLID
  5
97
330
91
100
AcDbEntity
  8
BEMASSUNG
 62
     2
100
AcDbTrace
 10
696.6067878119517
 20
358.8681027358881
 30
0.0
 11
698.3567878119516
 21
358.8681027358881
 31
0.0
 12
697.4817878119516
 22
364.1181027358881
 32
0.0
 13
697.4817878119516
 23
364.1181027358881
 33
0.0
  0
MTEXT
  5
98
330
91
100
AcDbEntity
  8
BEMASSUNG
 62
     3
100
AcDbMText
 10
693.3567878119515
 20
336.1181027358882
 30
0.0
 40
5.25
 41
0.0
 71
     5
 72
     1
  1
\A1;56
  7
NORM
 11
0.0000000000000001
 21
1.0
 31
0.0
 73
     1
 44
1.0
  0
POINT
  5
99
330
91
100
AcDbEntity
  8
DEFPOINTS
 62
     0
100
AcDbPoint
 10
728.8033338354196
 20
308.1181027358881
 30
0.0
  0
POINT
  5
9A
330
91
100
AcDbEntity
  8
DEFPOINTS
 62
     0
100
AcDbPoint
 10
728.8033338354196
 20
364.1181027358881
 30
0.0
  0
POINT
  5
9B
330
91
100
AcDbEntity
  8
DEFPOINTS
 62
     0
100
AcDbPoint
 10
697.4817878119516
 20
364.1181027358881
 30
0.0
  0
ENDBLK
  5
9C
330
91
100
AcDbEntity
  8
0
100
AcDbBlockEnd
  0
BLOCK
  5
85
330
84
100
AcDbEntity
  8
0
100
AcDbBlockBegin
  2
*D8
 70
     1
 10
0.0
 20
0.0
 30
0.0
  3
*D8
  1

  0
LINE
  5
86
330
84
100
AcDbEntity
  8
BEMASSUNG
 62
     2
370
    -2
100
AcDbLine
 10
757.4375949856466
 20
398.1181027358881
 30
0.0
 11
708.3793584814216
 21
398.1181027358881
 31
0.0
  0
LINE
  5
87
330
84
100
AcDbEntity
  8
BEMASSUNG
 62
     2
370
    -2
100
AcDbLine
 10
721.0533338354196
 20
418.118102735888
 30
0.0
 11
708.3793584814216
 21
418.118102735888
 31
0.0
  0
LINE
  5
88
330
84
100
AcDbEntity
  8
BEMASSUNG
 62
     2
370
    -2
100
AcDbLine
 10
709.8793584814216
 20
403.3681027358881
 30
0.0
 11
709.8793584814216
 21
412.868102735888
 31
0.0
  0
SOLID
  5
89
330
84
100
AcDbEntity
  8
BEMASSUNG
 62
     2
100
AcDbTrace
 10
709.0043584814216
 20
403.3681027358881
 30
0.0
 11
710.7543584814216
 21
403.3681027358881
 31
0.0
 12
709.8793584814216
 22
398.1181027358881
 32
0.0
 13
709.8793584814216
 23
398.1181027358881
 33
0.0
  0
SOLID
  5
8A
330
84
100
AcDbEntity
  8
BEMASSUNG
 62
     2
100
AcDbTrace
 10
709.0043584814216
 20
412.868102735888
 30
0.0
 11
710.7543584814216
 21
412.868102735888
 31
0.0
 12
709.8793584814216
 22
418.118102735888
 32
0.0
 13
709.8793584814216
 23
418.118102735888
 33
0.0
  0
MTEXT
  5
8B
330
84
100
AcDbEntity
  8
BEMASSUNG
 62
     3
100
AcDbMText
 10
705.7543584814214
 20
408.1181027358882
 30
0.0
 40
5.25
 41
0.0
 71
     5
 72
     1
  1
\A1;20
  7
NORM
 11
0.0000000000000001
 21
1.0
 31
0.0
 73
     1
 44
1.0
  0
POINT
  5
8C
330
84
100
AcDbEntity
  8
DEFPOINTS
 62
     0
100
AcDbPoint
 10
758.1875949856465
 20
398.1181027358881
 30
0.0
  0
POINT
  5
8D
330
84
100
AcDbEntity
  8
DEFPOINTS
 62
     0
100
AcDbPoint
 10
721.8033338354196
 20
418.118102735888
 30
0.0
  0
POINT
  5
8E
330
84
100
AcDbEntity
  8
DEFPOINTS
 62
     0
100
AcDbPoint
 10
709.8793584814216
 20
418.118102735888
 30
0.0
  0
ENDBLK
  5
8F
330
84
100
AcDbEntity
  8
0
100
AcDbBlockEnd
  0
BLOCK
  5
75
330
74
100
AcDbEntity
  8
0
100
AcDbBlockBegin
  2
*D9
 70
     1
 10
0.0
 20
0.0
 30
0.0
  3
*D9
  1

  0
LINE
  5
76
330
74
100
AcDbEntity
  8
BEMASSUNG
 62
     2
370
    -2
100
AcDbLine
 10
807.8033338354197
 20
413.3681027358879
 30
0.0
 11
807.8033338354197
 21
399.637136984871
 31
0.0
  0
LINE
  5
77
330
74
100
AcDbEntity
  8
BEMASSUNG
 62
     2
370
    -2
100
AcDbLine
 10
813.8033338354196
 20
413.368102735888
 30
0.0
 11
813.8033338354196
 21
399.637136984871
 31
0.0
  0
LINE
  5
78
330
74
100
AcDbEntity
  8
BEMASSUNG
 62
     2
370
    -2
100
AcDbLine
 10
802.5533338354197
 20
401.1371369848709
 30
0.0
 11
797.3033338354197
 21
401.1371369848709
 31
0.0
  0
LINE
  5
79
330
74
100
AcDbEntity
  8
BEMASSUNG
 62
     2
370
    -2
100
AcDbLine
 10
819.0533338354196
 20
401.1371369848709
 30
0.0
 11
824.3033338354196
 21
401.1371369848709
 31
0.0
  0
MTEXT
  5
7A
330
74
100
AcDbEntity
  8
BEMASSUNG
 62
     3
100
AcDbMText
 10
821.0849587920806
 20
404.5400520473424
 30
0.0
 40
5.25
 41
0.0
 71
     5
 72
     1
  1
\A1;%%c6
  7
NORM
 73
     1
 44
1.0
  0
LINE
  5
7B
330
74
100
AcDbEntity
  8
BEMASSUNG
 62
     2
370
    -2
100
AcDbLine
 10
807.8033338354197
 20
401.1371369848709
 30
0.0
 11
813.8033338354196
 21
401.1371369848709
 31
0.0
  0
SOLID
  5
7C
330
74
100
AcDbEntity
  8
BEMASSUNG
 62
     2
100
AcDbTrace
 10
802.5533338354197
 20
402.0121369848709
 30
0.0
 11
802.5533338354197
 21
400.2621369848709
 31
0.0
 12
807.8033338354197
 22
401.1371369848709
 32
0.0
 13
807.8033338354197
 23
401.1371369848709
 33
0.0
  0
SOLID
  5
7D
330
74
100
AcDbEntity
  8
BEMASSUNG
 62
     2
100
AcDbTrace
 10
819.0533338354196
 20
402.0121369848709
 30
0.0
 11
819.0533338354196
 21
400.2621369848709
 31
0.0
 12
813.8033338354196
 22
401.1371369848709
 32
0.0
 13
813.8033338354196
 23
401.1371369848709
 33
0.0
  0
POINT
  5
7E
330
74
100
AcDbEntity
  8
DEFPOINTS
 62
     0
100
AcDbPoint
 10
807.8033338354197
 20
414.118102735888
 30
0.0
  0
POINT
  5
7F
330
74
100
AcDbEntity
  8
DEFPOINTS
 62
     0
100
AcDbPoint
 10
813.8033338354196
 20
414.118102735888
 30
0.0
  0
POINT
  5
80
330
74
100
AcDbEntity
  8
DEFPOINTS
 62
     0
100
AcDbPoint
 10
813.8033338354196
 20
401.1371369848709
 30
0.0
  0
ENDBLK
  5
81
330
74
100
AcDbEntity
  8
0
100
AcDbBlockEnd
  0
BLOCK
  5
4F
330
4E
100
AcDbEntity
  8
0
100
AcDbBlockBegin
  2
*D10
 70
     1
 10
0.0
 20
0.0
 30
0.0
  3
*D10
  1

  0
LINE
  5
50
330
4E
100
AcDbEntity
  8
BEMASSUNG
 62
     2
370
    -2
100
AcDbLine
 10
820.5533338354195
 20
416.6181027358881
 30
0.0
 11
836.6608247327762
 21
416.6181027358881
 31
0.0
  0
LINE
  5
51
330
4E
100
AcDbEntity
  8
BEMASSUNG
 62
     2
370
    -2
100
AcDbLine
 10
820.5533338354197
 20
418.118102735888
 30
0.0
 11
836.6608247327762
 21
418.118102735888
 31
0.0
  0
LINE
  5
52
330
4E
100
AcDbEntity
  8
BEMASSUNG
 62
     2
370
    -2
100
AcDbLine
 10
835.1608247327762
 20
411.3681027358881
 30
0.0
 11
835.1608247327762
 21
406.118102735888
 31
0.0
  0
LINE
  5
53
330
4E
100
AcDbEntity
  8
BEMASSUNG
 62
     2
370
    -2
100
AcDbLine
 10
835.1608247327762
 20
423.368102735888
 30
0.0
 11
835.1608247327762
 21
428.618102735888
 31
0.0
  0
MTEXT
  5
54
330
4E
100
AcDbEntity
  8
BEMASSUNG
 62
     3
100
AcDbMText
 10
829.6226633217962
 20
424.913502725873
 30
0.0
 40
5.25
 41
0.0
 71
     5
 72
     1
  1
\A1;1.5
  7
NORM
 11
0.0000000000000001
 21
1.0
 31
0.0
 73
     1
 44
1.0
  0
LINE
  5
55
330
4E
100
AcDbEntity
  8
BEMASSUNG
 62
     2
370
    -2
100
AcDbLine
 10
835.1608247327762
 20
416.6181027358881
 30
0.0
 11
835.1608247327762
 21
418.118102735888
 31
0.0
  0
SOLID
  5
56
330
4E
100
AcDbEntity
  8
BEMASSUNG
 62
     2
100
AcDbTrace
 10
834.2858247327763
 20
411.3681027358881
 30
0.0
 11
836.0358247327763
 21
411.3681027358881
 31
0.0
 12
835.1608247327762
 22
416.6181027358881
 32
0.0
 13
835.1608247327762
 23
416.6181027358881
 33
0.0
  0
SOLID
  5
57
330
4E
100
AcDbEntity
  8
BEMASSUNG
 62
     2
100
AcDbTrace
 10
834.2858247327763
 20
423.368102735888
 30
0.0
 11
836.0358247327763
 21
423.368102735888
 31
0.0
 12
835.1608247327762
 22
418.118102735888
 32
0.0
 13
835.1608247327762
 23
418.118102735888
 33
0.0
  0
POINT
  5
58
330
4E
100
AcDbEntity
  8
DEFPOINTS
 62
     0
100
AcDbPoint
 10
819.8033338354195
 20
416.6181027358881
 30
0.0
  0
POINT
  5
59
330
4E
100
AcDbEntity
  8
DEFPOINTS
 62
     0
100
AcDbPoint
 10
819.8033338354196
 20
418.118102735888
 30
0.0
  0
POINT
  5
5A
330
4E
100
AcDbEntity
  8
DEFPOINTS
 62
     0
100
AcDbPoint
 10
835.1608247327762
 20
418.118102735888
 30
0.0
  0
ENDBLK
  5
5B
330
4E
100
AcDbEntity
  8
0
100
AcDbBlockEnd
  0
BLOCK
  5
3F
330
3E
100
AcDbEntity
  8
0
100
AcDbBlockBegin
  2
*D11
 70
     1
 10
0.0
 20
0.0
 30
0.0
  3
*D11
  1

  0
LINE
  5
40
330
3E
100
AcDbEntity
  8
BEMASSUNG
  6
Continuous
 62
     2
370
    -2
100
AcDbLine
 10
813.5533338354196
 20
308.118102735888
 30
0.0
 11
837.3793584814215
 21
308.118102735888
 31
0.0
  0
LINE
  5
41
330
3E
100
AcDbEntity
  8
BEMASSUNG
  6
Continuous
 62
     2
370
    -2
100
AcDbLine
 10
805.5582317020981
 20
331.1181027358881
 30
0.0
 11
837.3793584814215
 21
331.1181027358881
 31
0.0
  0
LINE
  5
42
330
3E
100
AcDbEntity
  8
BEMASSUNG
  6
Continuous
 62
     2
370
    -2
100
AcDbLine
 10
835.8793584814216
 20
313.3681027358881
 30
0.0
 11
835.8793584814216
 21
325.8681027358881
 31
0.0
  0
SOLID
  5
43
330
3E
100
AcDbEntity
  8
BEMASSUNG
  6
Continuous
 62
     2
100
AcDbTrace
 10
835.0043584814216
 20
313.3681027358881
 30
0.0
 11
836.7543584814216
 21
313.3681027358881
 31
0.0
 12
835.8793584814216
 22
308.118102735888
 32
0.0
 13
835.8793584814216
 23
308.118102735888
 33
0.0
  0
SOLID
  5
44
330
3E
100
AcDbEntity
  8
BEMASSUNG
  6
Continuous
 62
     2
100
AcDbTrace
 10
835.0043584814216
 20
325.8681027358881
 30
0.0
 11
836.7543584814216
 21
325.8681027358881
 31
0.0
 12
835.8793584814216
 22
331.1181027358881
 32
0.0
 13
835.8793584814216
 23
331.1181027358881
 33
0.0
  0
MTEXT
  5
45
330
3E
100
AcDbEntity
  8
BEMASSUNG
  6
Continuous
 62
     3
100
AcDbMText
 10
831.7543584814215
 20
319.6181027358881
 30
0.0
 40
5.25
 41
0.0
 71
     5
 72
     1
  1
\A1;23
  7
NORM
 11
0.0000000000000001
 21
1.0
 31
0.0
 73
     1
 44
1.0
  0
POINT
  5
46
330
3E
100
AcDbEntity
  8
DEFPOINTS
  6
Continuous
 62
     0
100
AcDbPoint
 10
812.8033338354196
 20
308.118102735888
 30
0.0
  0
POINT
  5
47
330
3E
100
AcDbEntity
  8
DEFPOINTS
  6
Continuous
 62
     0
100
AcDbPoint
 10
804.808231702098
 20
331.1181027358881
 30
0.0
  0
POINT
  5
48
330
3E
100
AcDbEntity
  8
DEFPOINTS
  6
Continuous
 62
     0
100
AcDbPoint
 10
835.8793584814216
 20
331.1181027358881
 30
0.0
  0
ENDBLK
  5
49
330
3E
100
AcDbEntity
  8
0
100
AcDbBlockEnd
  0
BLOCK
  5
31
330
30
100
AcDbEntity
  8
0
100
AcDbBlockBegin
  2
*D12
 70
     1
 10
0.0
 20
0.0
 30
0.0
  3
*D12
  1

  0
LINE
  5
32
330
30
100
AcDbEntity
  8
BEMASSUNG
  6
Continuous
 62
     2
370
    -2
100
AcDbLine
 10
805.5582317020981
 20
331.1181027358881
 30
0.0
 11
837.3793584814215
 21
331.1181027358881
 31
0.0
  0
LINE
  5
33
330
30
100
AcDbEntity
  8
BEMASSUNG
  6
Continuous
 62
     2
370
    -2
100
AcDbLine
 10
813.5533338354196
 20
364.1181027358881
 30
0.0
 11
837.3793584814215
 21
364.1181027358881
 31
0.0
  0
LINE
  5
34
330
30
100
AcDbEntity
  8
BEMASSUNG
  6
Continuous
 62
     2
370
    -2
100
AcDbLine
 10
835.8793584814216
 20
336.3681027358881
 30
0.0
 11
835.8793584814216
 21
358.8681027358881
 31
0.0
  0
SOLID
  5
35
330
30
100
AcDbEntity
  8
BEMASSUNG
  6
Continuous
 62
     2
100
AcDbTrace
 10
835.0043584814216
 20
336.3681027358881
 30
0.0
 11
836.7543584814216
 21
336.3681027358881
 31
0.0
 12
835.8793584814216
 22
331.1181027358881
 32
0.0
 13
835.8793584814216
 23
331.1181027358881
 33
0.0
  0
SOLID
  5
36
330
30
100
AcDbEntity
  8
BEMASSUNG
  6
Continuous
 62
     2
100
AcDbTrace
 10
835.0043584814216
 20
358.8681027358881
 30
0.0
 11
836.7543584814216
 21
358.8681027358881
 31
0.0
 12
835.8793584814216
 22
364.1181027358881
 32
0.0
 13
835.8793584814216
 23
364.1181027358881
 33
0.0
  0
MTEXT
  5
37
330
30
100
AcDbEntity
  8
BEMASSUNG
  6
Continuous
 62
     3
100
AcDbMText
 10
831.7543584814215
 20
347.6181027358882
 30
0.0
 40
5.25
 41
0.0
 71
     5
 72
     1
  1
\A1;33
  7
NORM
 11
0.0000000000000001
 21
1.0
 31
0.0
 73
     1
 44
1.0
  0
POINT
  5
38
330
30
100
AcDbEntity
  8
DEFPOINTS
  6
Continuous
 62
     0
100
AcDbPoint
 10
804.808231702098
 20
331.1181027358881
 30
0.0
  0
POINT
  5
3A
330
30
100
AcDbEntity
  8
DEFPOINTS
  6
Continuous
 62
     0
100
AcDbPoint
 10
812.8033338354196
 20
364.1181027358881
 30
0.0
  0
POINT
  5
3B
330
30
100
AcDbEntity
  8
DEFPOINTS
  6
Continuous
 62
     0
100
AcDbPoint
 10
835.8793584814216
 20
364.1181027358881
 30
0.0
  0
ENDBLK
  5
3C
330
30
100
AcDbEntity
  8
0
100
AcDbBlockEnd
  0
ENDSEC
  0
SECTION
  2
ENTITIES
  0
DIMENSION
  5
2F
330
2
100
AcDbEntity
  8
BEMASSUNG
  6
Continuous
100
AcDbDimension
  2
*D12
 10
835.8793584814216
 20
364.1181027358881
 30
0.0
 11
831.7543584814215
 21
347.6181027358882
 31
0.0
 71
     5
 42
33.0
  3
PROSPEKT
100
AcDbAlignedDimension
 13
804.808231702098
 23
331.1181027358881
 33
0.0
 14
812.8033338354196
 24
364.1181027358881
 34
0.0
 50
90.0
100
AcDbRotatedDimension
  0
DIMENSION
  5
3D
330
2
100
AcDbEntity
  8
BEMASSUNG
  6
Continuous
100
AcDbDimension
  2
*D11
 10
835.8793584814216
 20
331.1181027358881
 30
0.0
 11
831.7543584814215
 21
319.6181027358881
 31
0.0
 71
     5
 42
23.00000000000006
  3
PROSPEKT
100
AcDbAlignedDimension
 13
812.8033338354196
 23
308.118102735888
 33
0.0
 14
804.808231702098
 24
331.1181027358881
 34
0.0
 50
90.0
100
AcDbRotatedDimension
  0
LINE
  5
4A
330
2
100
AcDbEntity
  8
ACHSEN
100
AcDbLine
 10
737.2578827691559
 20
331.1181027358881
 30
0.0
 11
804.808231702098
 21
331.1181027358881
 31
0.0
  0
DIMENSION
  5
4D
330
2
100
AcDbEntity
  8
BEMASSUNG
100
AcDbDimension
  2
*D10
 10
835.1608247327762
 20
418.118102735888
 30
0.0
 11
829.6226633217962
 21
424.913502725873
 31
0.0
 70
   128
 71
     5
 42
1.499999999999943
  3
PROSPEKT
100
AcDbAlignedDimension
 13
819.8033338354195
 23
416.6181027358881
 33
0.0
 14
819.8033338354196
 24
418.118102735888
 34
0.0
 50
90.0
100
AcDbRotatedDimension
  0
ARC
  5
5C
330
2
100
AcDbEntity
  8
UMRISS05
100
AcDbCircle
 10
780.5554670965392
 20
410.1181027358881
 30
0.0
 40
12.0
100
AcDbArc
 50
270.0
 51
325.00797980144
  0
ARC
  5
5E
330
2
100
AcDbEntity
  8
UMRISS05
100
AcDbCircle
 10
761.0512005743
 20
410.118102735888
 30
0.0
 40
12.0
100
AcDbArc
 50
214.99202019856
 51
270.0
  0
HATCH
  5
5F
330
2
100
AcDbEntity
  8
8
100
AcDbHatch
 10
0.0
 20
0.0
 30
0.0
210
0.0
220
0.0
230
1.0
  2
ANSI31
 70
     0
 71
     1
 91
        2
 92
        7
 72
     1
 73
     1
 93
        8
 10
789.7529157116939
 20
418.118102735888
 42
0.0
 10
790.0313599970092
 20
417.3390888155276
 42
0.0
 10
789.5503137831791
 20
416.6181027358881
 42
0.0
 10
803.3891202730464
 20
416.6181027358881
 42
-0.1989123673796528
 10
804.096227054233
 20
416.3252095170746
 42
0.0
 10
806.3033338354198
 20
414.1181027358879
 42
0.0
 10
807.8033338354197
 20
414.1181027358879
 42
0.0
 10
803.8033338354198
 20
418.118102735888
 42
0.0
 97
        8
330
136
330
63
330
61
330
11E
330
65
330
67
330
114
330
117
 92
        7
 72
     1
 73
     1
 93
        9
 10
819.8033338354195
 20
418.118102735888
 42
0.0
 10
817.8033338354197
 20
418.118102735888
 42
0.0
 10
813.8033338354198
 20
414.118102735888
 42
0.0
 10
815.3033338354196
 20
414.118102735888
 42
0.0
 10
817.5104406166063
 20
416.3252095170746
 42
-0.198912367379658
 10
818.2175473977927
 20
416.6181027358881
 42
0.0
 10
819.8033338354196
 20
416.6181027358881
 42
0.0
 10
820.1538147825813
 20
416.4157524666984
 42
0.0
 10
820.8033338354194
 20
417.5407524666984
 42
0.0
 97
        9
330
136
330
118
330
114
330
66
330
64
330
82
330
11D
330
11C
330
120
 75
     0
 76
     1
 52
0.0
 41
10.0
 77
     0
 78
     1
 53
45.0
 43
677.8033338354195
 44
192.1181027358881
 45
-0.8838834764831842
 46
0.8838834764831844
 79
     0
 47
0.059992483871708
 98
        2
 10
798.2373974584857
 20
417.4968959051705
 10
819.9121960721063
 20
417.5568878702251
  0
LINE
  5
61
102
{ACAD_REACTORS
330
5F
102
}
330
2
100
AcDbEntity
  8
UMRISS03
100
AcDbLine
 10
790.0313599970092
 20
417.3390888155276
 30
0.0
 11
789.5503137831792
 21
416.6181027358882
 31
0.0
  0
LINE
  5
63
102
{ACAD_REACTORS
330
5F
102
}
330
2
100
AcDbEntity
  8
UMRISS03
100
AcDbLine
 10
789.7529157116941
 20
418.118102735888
 30
0.0
 11
790.0313599970092
 21
417.3390888155276
 31
0.0
  0
ARC
  5
64
102
{ACAD_REACTORS
330
5F
102
}
330
2
100
AcDbEntity
  8
UMRISS05
100
AcDbCircle
 10
818.2175473977927
 20
415.6181027358881
 30
0.0
 40
1.0
100
AcDbArc
 50
90.0
 51
135.0
  0
ARC
  5
65
102
{ACAD_REACTORS
330
5F
102
}
330
2
100
AcDbEntity
  8
UMRISS05
100
AcDbCircle
 10
803.3891202730464
 20
415.6181027358881
 30
0.0
 40
1.0
100
AcDbArc
 50
45.00000000000115
 51
90.0
  0
LINE
  5
66
102
{ACAD_REACTORS
330
5F
102
}
330
2
100
AcDbEntity
  8
UMRISS05
100
AcDbLine
 10
815.3033338354196
 20
414.118102735888
 30
0.0
 11
817.5104406166063
 21
416.3252095170746
 31
0.0
  0
LINE
  5
67
102
{ACAD_REACTORS
330
5F
102
}
330
2
100
AcDbEntity
  8
UMRISS05
100
AcDbLine
 10
806.3033338354198
 20
414.1181027358879
 30
0.0
 11
804.096227054233
 21
416.3252095170746
 31
0.0
  0
ARC
  5
68
330
2
100
AcDbEntity
  8
UMRISS05
100
AcDbCircle
 10
801.8359560817131
 20
412.6181027358881
 30
0.0
 40
4.0
100
AcDbArc
 50
90.0
 51
145.00797980144
  0
ARC
  5
69
330
2
100
AcDbEntity
  8
UMRISS05
100
AcDbCircle
 10
739.7707115891261
 20
412.618102735888
 30
0.0
 40
4.0
100
AcDbArc
 50
34.99202019856
 51
90.0
  0
LINE
  5
6A
330
2
100
AcDbEntity
  8
UMRISS02
100
AcDbLine
 10
754.8033338354196
 20
334.1181027358881
 30
0.0
 11
743.791781934401
 21
337.404314176579
 31
0.0
  0
LINE
  5
6C
330
2
100
AcDbEntity
  8
UMRISS02
100
AcDbLine
 10
754.8033338354196
 20
328.1181027358881
 30
0.0
 11
743.791781934401
 21
324.8318912951972
 31
0.0
  0
LINE
  5
6D
330
2
100
AcDbEntity
  8
UMRISS02
100
AcDbLine
 10
786.8033338354197
 20
328.1181027358881
 30
0.0
 11
797.8148857364382
 21
324.8318912951972
 31
0.0
  0
LINE
  5
6E
330
2
100
AcDbEntity
  8
UMRISS02
100
AcDbLine
 10
786.8033338354195
 20
334.1181027358881
 30
0.0
 11
797.8148857364381
 21
337.4043141765789
 31
0.0
  0
ARC
  5
6F
330
2
100
AcDbEntity
  8
UMRISS05
100
AcDbCircle
 10
796.8033338354196
 20
335.118102735888
 30
0.0
 40
4.0
100
AcDbArc
 50
0.0
 51
90.0
  0
ARC
  5
70
330
2
100
AcDbEntity
  8
UMRISS05
100
AcDbCircle
 10
796.8033338354196
 20
327.1181027358881
 30
0.0
 40
4.0
100
AcDbArc
 50
270.0
 51
0.0
  0
ARC
  5
71
330
2
100
AcDbEntity
  8
UMRISS05
100
AcDbCircle
 10
744.8033338354195
 20
327.1181027358881
 30
0.0
 40
4.0
100
AcDbArc
 50
180.0
 51
270.0
  0
ARC
  5
72
330
2
100
AcDbEntity
  8
UMRISS05
100
AcDbCircle
 10
744.8033338354195
 20
335.1181027358881
 30
0.0
 40
4.0
100
AcDbArc
 50
90.0
 51
180.0
  0
DIMENSION
  5
73
330
2
100
AcDbEntity
  8
BEMASSUNG
100
AcDbDimension
  2
*D9
 10
813.8033338354196
 20
401.1371369848709
 30
0.0
 11
821.0849587920806
 21
404.5400520473424
 31
0.0
 70
   128
  1
%%c<>
 71
     5
 42
5.999999999999886
  3
PROSPEKT
100
AcDbAlignedDimension
 13
807.8033338354197
 23
414.118102735888
 33
0.0
 14
813.8033338354196
 24
414.118102735888
 34
0.0
100
AcDbRotatedDimension
  0
LINE
  5
82
102
{ACAD_REACTORS
330
5F
102
}
330
2
100
AcDbEntity
  8
UMRISS05
100
AcDbLine
 10
818.2175473977927
 20
416.6181027358881
 30
0.0
 11
819.8033338354196
 21
416.6181027358881
 31
0.0
  0
DIMENSION
  5
83
330
2
100
AcDbEntity
  8
BEMASSUNG
100
AcDbDimension
  2
*D8
 10
709.8793584814216
 20
418.118102735888
 30
0.0
 11
705.7543584814214
 21
408.1181027358882
 31
0.0
 71
     5
 42
20.0
  3
PROSPEKT
100
AcDbAlignedDimension
 13
758.1875949856465
 23
398.1181027358881
 33
0.0
 14
721.8033338354196
 24
418.118102735888
 34
0.0
 50
90.0
100
AcDbRotatedDimension
  0
DIMENSION
  5
90
330
2
100
AcDbEntity
  8
BEMASSUNG
100
AcDbDimension
  2
*D7
 10
697.4817878119516
 20
364.1181027358881
 30
0.0
 11
693.3567878119515
 21
336.1181027358882
 31
0.0
 71
     5
 42
56.0
  3
PROSPEKT
100
AcDbAlignedDimension
 13
728.8033338354196
 23
308.1181027358881
 33
0.0
 14
728.8033338354196
 24
364.1181027358881
 34
0.0
 50
90.0
100
AcDbRotatedDimension
  0
DIMENSION
  5
9D
330
2
100
AcDbEntity
  8
BEMASSUNG
100
AcDbDimension
  2
*D6
 10
709.8793584814216
 20
350.1181027358881
 30
0.0
 11
705.7543584814214
 21
357.1181027358882
 31
0.0
 71
     5
 42
14.0
  3
PROSPEKT
100
AcDbAlignedDimension
 13
728.8033338354196
 23
364.1181027358881
 33
0.0
 14
720.8033338354196
 24
350.1181027358881
 34
0.0
 50
90.0
100
AcDbRotatedDimension
  0
DIMENSION
  5
AA
330
2
100
AcDbEntity
  8
BEMASSUNG
100
AcDbDimension
  2
*D5
 10
709.8793584814216
 20
350.1181027358881
 30
0.0
 11
705.7543584814214
 21
333.6181027358882
 31
0.0
 71
     5
 42
33.0
  3
PROSPEKT
100
AcDbAlignedDimension
 13
720.8033338354196
 23
317.1181027358881
 33
0.0
 14
720.8033338354196
 24
350.1181027358881
 34
0.0
 50
90.0
100
AcDbRotatedDimension
  0
DIMENSION
  5
B7
330
2
100
AcDbEntity
  8
BEMASSUNG
100
AcDbDimension
  2
*D4
 10
709.8793584814216
 20
308.1181027358881
 30
0.0
 11
705.7543584814214
 21
312.6181027358882
 31
0.0
 71
     5
 42
9.0
  3
PROSPEKT
100
AcDbAlignedDimension
 13
720.8033338354196
 23
317.1181027358881
 33
0.0
 14
728.8033338354196
 24
308.1181027358881
 34
0.0
 50
90.0
100
AcDbRotatedDimension
  0
DIMENSION
  5
C6
330
2
100
AcDbEntity
  8
BEMASSUNG
100
AcDbDimension
  2
*D3
 10
820.8033338354196
 20
288.0
 30
0.0
 11
815.8033338354195
 21
292.125
 31
0.0
 71
     5
 42
10.0
  3
PROSPEKT
100
AcDbAlignedDimension
 13
810.8033338354196
 23
306.6181027358881
 33
0.0
 14
820.8033338354196
 24
316.118102735888
 34
0.0
100
AcDbRotatedDimension
  0
DIMENSION
  5
D5
330
2
100
AcDbEntity
  8
BEMASSUNG
100
AcDbDimension
  2
*D2
 10
730.8033338354196
 20
288.0
 30
0.0
 11
725.8033338354196
 21
292.125
 31
0.0
 71
     5
 42
10.0
  3
PROSPEKT
100
AcDbAlignedDimension
 13
720.8033338354196
 23
316.1181027358881
 33
0.0
 14
730.8033338354196
 24
306.6181027358881
 34
0.0
100
AcDbRotatedDimension
  0
DIMENSION
  5
E4
330
2
100
AcDbEntity
  8
BEMASSUNG
100
AcDbDimension
  2
*D1
 10
820.8033338354196
 20
274.0
 30
0.0
 11
770.8033338354196
 21
278.125
 31
0.0
 71
     5
 42
100.0
  3
PROSPEKT
100
AcDbAlignedDimension
 13
720.8033338354196
 23
316.1181027358881
 33
0.0
 14
820.8033338354196
 24
316.118102735888
 34
0.0
100
AcDbRotatedDimension
  0
DIMENSION
  5
F1
330
2
100
AcDbEntity
  8
BEMASSUNG
100
AcDbDimension
  2
*D0
 10
810.8033338354196
 20
288.0
 30
0.0
 11
770.8033338354196
 21
292.125
 31
0.0
 71
     5
 42
80.0
  3
PROSPEKT
100
AcDbAlignedDimension
 13
730.8033338354196
 23
307.1181027358881
 33
0.0
 14
810.8033338354196
 24
307.1181027358881
 34
0.0
100
AcDbRotatedDimension
  0
ARC
  5
FE
330
2
100
AcDbEntity
  8
UMRISS05
100
AcDbCircle
 10
812.8033338354196
 20
356.1181027358881
 30
0.0
 40
7.0
100
AcDbArc
 50
0.0
 51
90.0
  0
LINE
  5
FF
330
2
100
AcDbEntity
  8
UMRISS05
100
AcDbLine
 10
819.8033338354196
 20
356.1181027358881
 30
0.0
 11
819.8033338354196
 21
316.118102735888
 31
0.0
  0
ARC
  5
100
330
2
100
AcDbEntity
  8
UMRISS05
100
AcDbCircle
 10
812.8033338354196
 20
316.118102735888
 30
0.0
 40
7.0
100
AcDbArc
 50
270.0
 51
0.0
  0
LINE
  5
101
330
2
100
AcDbEntity
  8
UMRISS05
100
AcDbLine
 10
728.8033338354196
 20
309.1181027358881
 30
0.0
 11
812.8033338354196
 21
309.1181027358881
 31
0.0
  0
ARC
  5
102
330
2
100
AcDbEntity
  8
UMRISS05
100
AcDbCircle
 10
728.8033338354196
 20
316.1181027358881
 30
0.0
 40
7.0
100
AcDbArc
 50
180.0
 51
270.0
  0
ARC
  5
103
330
2
100
AcDbEntity
  8
UMRISS05
100
AcDbCircle
 10
728.8033338354196
 20
356.1181027358881
 30
0.0
 40
7.0
100
AcDbArc
 50
90.0
 51
180.0
  0
LINE
  5
104
330
2
100
AcDbEntity
  8
UMRISS05
100
AcDbLine
 10
728.8033338354196
 20
363.1181027358881
 30
0.0
 11
812.8033338354196
 21
363.1181027358881
 31
0.0
  0
LINE
  5
105
330
2
100
AcDbEntity
  8
UMRISS05
100
AcDbLine
 10
721.8033338354196
 20
356.1181027358881
 30
0.0
 11
721.8033338354196
 21
316.1181027358881
 31
0.0
  0
LINE
  5
106
330
2
100
AcDbEntity
  8
ACHSEN
100
AcDbLine
 10
810.8033338354196
 20
327.118102735888
 30
0.0
 11
810.8033338354196
 21
307.1181027358881
 31
0.0
  0
LINE
  5
107
330
2
100
AcDbEntity
  8
ACHSEN
100
AcDbLine
 10
800.8033338354195
 20
350.1181027358881
 30
0.0
 11
820.8033338354196
 21
350.1181027358881
 31
0.0
  0
LINE
  5
108
330
2
100
AcDbEntity
  8
ACHSEN
100
AcDbLine
 10
730.8033338354196
 20
327.1181027358881
 30
0.0
 11
730.8033338354196
 21
307.1181027358881
 31
0.0
  0
LINE
  5
109
330
2
100
AcDbEntity
  8
ACHSEN
100
AcDbLine
 10
800.8033338354195
 20
317.118102735888
 30
0.0
 11
820.8033338354196
 21
317.118102735888
 31
0.0
  0
CIRCLE
  5
10A
330
2
100
AcDbEntity
  8
UMRISS05
100
AcDbCircle
 10
730.8033338354196
 20
350.1181027358881
 30
0.0
 40
3.0
  0
CIRCLE
  5
10B
330
2
100
AcDbEntity
  8
UMRISS05
100
AcDbCircle
 10
730.8033338354196
 20
350.1181027358881
 30
0.0
 40
7.0
  0
LINE
  5
10C
330
2
100
AcDbEntity
  8
ACHSEN
100
AcDbLine
 10
720.8033338354196
 20
350.1181027358881
 30
0.0
 11
740.8033338354195
 21
350.1181027358881
 31
0.0
  0
CIRCLE
  5
10D
330
2
100
AcDbEntity
  8
UMRISS05
100
AcDbCircle
 10
810.8033338354196
 20
317.118102735888
 30
0.0
 40
3.0
  0
CIRCLE
  5
10E
330
2
100
AcDbEntity
  8
UMRISS05
100
AcDbCircle
 10
810.8033338354196
 20
317.118102735888
 30
0.0
 40
7.0
  0
CIRCLE
  5
10F
330
2
100
AcDbEntity
  8
UMRISS05
100
AcDbCircle
 10
730.8033338354196
 20
317.1181027358881
 30
0.0
 40
3.0
  0
CIRCLE
  5
110
330
2
100
AcDbEntity
  8
UMRISS05
100
AcDbCircle
 10
730.8033338354196
 20
317.1181027358881
 30
0.0
 40
7.0
  0
CIRCLE
  5
111
330
2
100
AcDbEntity
  8
UMRISS05
100
AcDbCircle
 10
810.8033338354196
 20
350.118102735888
 30
0.0
 40
7.0
  0
CIRCLE
  5
112
330
2
100
AcDbEntity
  8
UMRISS05
100
AcDbCircle
 10
810.8033338354196
 20
350.118102735888
 30
0.0
 40
3.0
  0
LINE
  5
113
330
2
100
AcDbEntity
  8
ACHSEN
100
AcDbLine
 10
720.8033338354196
 20
317.1181027358881
 30
0.0
 11
740.8033338354195
 21
317.1181027358881
 31
0.0
  0
LINE
  5
114
102
{ACAD_REACTORS
330
5F
102
}
330
2
100
AcDbEntity
  8
UMRISS05
100
AcDbLine
 10
806.3033338354198
 20
414.1181027358879
 30
0.0
 11
815.3033338354196
 21
414.118102735888
 31
0.0
  0
LINE
  5
115
330
2
100
AcDbEntity
  8
UMRISS05
100
AcDbLine
 10
733.8033338354196
 20
414.118102735888
 30
0.0
 11
736.3033338354195
 21
416.618102735888
 31
0.0
  0
LINE
  5
116
330
2
100
AcDbEntity
  8
UMRISS05
100
AcDbLine
 10
725.3033338354196
 20
416.618102735888
 30
0.0
 11
727.8033338354195
 21
414.118102735888
 31
0.0
  0
LINE
  5
117
102
{ACAD_REACTORS
330
5F
102
}
330
2
100
AcDbEntity
  8
UMRISS05
100
AcDbLine
 10
807.8033338354195
 20
414.118102735888
 30
0.0
 11
803.8033338354196
 21
418.118102735888
 31
0.0
  0
LINE
  5
118
102
{ACAD_REACTORS
330
5F
102
}
330
2
100
AcDbEntity
  8
UMRISS05
100
AcDbLine
 10
817.8033338354195
 20
418.118102735888
 30
0.0
 11
813.8033338354196
 21
414.118102735888
 31
0.0
  0
LINE
  5
119
330
2
100
AcDbEntity
  8
UMRISS05
100
AcDbLine
 10
798.5590283996371
 20
414.9119521133414
 30
0.0
 11
790.3862501427677
 21
403.2365546035282
 31
0.0
  0
LINE
  5
11A
330
2
100
AcDbEntity
  8
UMRISS05
100
AcDbLine
 10
743.0476392712023
 20
414.9119521133413
 30
0.0
 11
751.2204175280715
 21
403.2365546035282
 31
0.0
  0
LINE
  5
11B
330
2
100
AcDbEntity
  8
UMRISS05
100
AcDbLine
 10
720.8033338354196
 20
417.5407524666984
 30
0.0
 11
721.4528528882579
 21
416.4157524666984
 31
0.0
  0
LINE
  5
11C
102
{ACAD_REACTORS
330
5F
102
}
330
2
100
AcDbEntity
  8
UMRISS05
100
AcDbLine
 10
820.8033338354196
 20
417.5407524666984
 30
0.0
 11
820.1538147825813
 21
416.4157524666984
 31
0.0
  0
LINE
  5
11D
102
{ACAD_REACTORS
330
5F
102
}
330
2
100
AcDbEntity
  8
UMRISS05
100
AcDbLine
 10
819.8033338354196
 20
416.618102735888
 30
0.0
 11
820.1538147825813
 21
416.4157524666984
 31
0.0
  0
LINE
  5
11E
102
{ACAD_REACTORS
330
5F
102
}
330
2
100
AcDbEntity
  8
UMRISS05
100
AcDbLine
 10
721.8033338354196
 20
416.6181027358879
 30
0.0
 11
803.3891202730464
 21
416.6181027358881
 31
0.0
  0
LINE
  5
11F
330
2
100
AcDbEntity
  8
UMRISS05
100
AcDbLine
 10
721.8033338354196
 20
416.6181027358881
 30
0.0
 11
721.4528528882579
 21
416.4157524666984
 31
0.0
  0
LINE
  5
120
102
{ACAD_REACTORS
330
5F
102
}
330
2
100
AcDbEntity
  8
UMRISS05
100
AcDbLine
 10
819.8033338354196
 20
418.118102735888
 30
0.0
 11
820.8033338354196
 21
417.5407524666984
 31
0.0
  0
LINE
  5
121
330
2
100
AcDbEntity
  8
UMRISS05
100
AcDbLine
 10
721.8033338354196
 20
418.118102735888
 30
0.0
 11
720.8033338354196
 21
417.5407524666984
 31
0.0
  0
LINE
  5
122
330
2
100
AcDbEntity
  8
UMRISS05
100
AcDbLine
 10
727.8033338354195
 20
414.118102735888
 30
0.0
 11
733.8033338354196
 21
414.118102735888
 31
0.0
  0
LINE
  5
123
330
2
100
AcDbEntity
  8
ACHSEN
100
AcDbLine
 10
770.8033338354196
 20
369.1181027358881
 30
0.0
 11
770.8033338354196
 21
303.1181027358881
 31
0.0
  0
LINE
  5
124
330
2
100
AcDbEntity
  8
ACHSEN
100
AcDbLine
 10
810.8033338354196
 20
360.118102735888
 30
0.0
 11
810.8033338354196
 21
340.1181027358881
 31
0.0
  0
LINE
  5
125
330
2
100
AcDbEntity
  8
ACHSEN
100
AcDbLine
 10
730.8033338354196
 20
360.1181027358881
 30
0.0
 11
730.8033338354196
 21
340.1181027358881
 31
0.0
  0
LINE
  5
126
330
2
100
AcDbEntity
  8
UMRISS05
100
AcDbLine
 10
740.8033338354195
 20
335.1181027358881
 30
0.0
 11
740.8033338354195
 21
327.1181027358881
 31
0.0
  0
LINE
  5
127
330
2
100
AcDbEntity
  8
UMRISS05
100
AcDbLine
 10
800.8033338354195
 20
335.1181027358881
 30
0.0
 11
800.8033338354195
 21
327.1181027358881
 31
0.0
  0
LINE
  5
128
330
2
100
AcDbEntity
  8
UMRISS02
100
AcDbLine
 10
786.8033338354195
 20
334.1181027358881
 30
0.0
 11
786.8033338354195
 21
328.1181027358881
 31
0.0
  0
LINE
  5
129
330
2
100
AcDbEntity
  8
UMRISS02
100
AcDbLine
 10
754.8033338354196
 20
334.1181027358881
 30
0.0
 11
754.8033338354196
 21
328.1181027358881
 31
0.0
  0
LINE
  5
12A
330
2
100
AcDbEntity
  8
UMRISS02
100
AcDbLine
 10
754.8033338354196
 20
334.1181027358881
 30
0.0
 11
786.8033338354195
 21
334.1181027358881
 31
0.0
  0
LINE
  5
12B
330
2
100
AcDbEntity
  8
UMRISS02
100
AcDbLine
 10
754.8033338354196
 20
328.1181027358881
 30
0.0
 11
786.8033338354195
 21
328.1181027358881
 31
0.0
  0
LINE
  5
12C
330
2
100
AcDbEntity
  8
UMRISS05
100
AcDbLine
 10
744.8033338354195
 20
339.1181027358881
 30
0.0
 11
796.8033338354196
 21
339.118102735888
 31
0.0
  0
LINE
  5
12D
330
2
100
AcDbEntity
  8
UMRISS05
100
AcDbLine
 10
744.8033338354195
 20
323.1181027358881
 30
0.0
 11
796.8033338354196
 21
323.1181027358881
 31
0.0
  0
ARC
  5
12E
330
2
100
AcDbEntity
  8
UMRISS05
100
AcDbCircle
 10
812.8033338354196
 20
316.118102735888
 30
0.0
 40
8.0
100
AcDbArc
 50
270.0
 51
0.0
  0
ARC
  5
12F
330
2
100
AcDbEntity
  8
UMRISS05
100
AcDbCircle
 10
728.8033338354196
 20
316.1181027358881
 30
0.0
 40
8.0
100
AcDbArc
 50
180.0
 51
270.0
  0
LINE
  5
130
330
2
100
AcDbEntity
  8
UMRISS05
100
AcDbLine
 10
728.8033338354196
 20
308.1181027358881
 30
0.0
 11
812.8033338354196
 21
308.118102735888
 31
0.0
  0
ARC
  5
131
330
2
100
AcDbEntity
  8
UMRISS05
100
AcDbCircle
 10
812.8033338354196
 20
356.1181027358881
 30
0.0
 40
8.0
100
AcDbArc
 50
0.0
 51
90.0
  0
LINE
  5
132
330
2
100
AcDbEntity
  8
UMRISS05
100
AcDbLine
 10
820.8033338354196
 20
356.1181027358881
 30
0.0
 11
820.8033338354196
 21
316.118102735888
 31
0.0
  0
ARC
  5
133
330
2
100
AcDbEntity
  8
UMRISS05
100
AcDbCircle
 10
728.8033338354196
 20
356.1181027358881
 30
0.0
 40
8.0
100
AcDbArc
 50
90.0
 51
180.0
  0
LINE
  5
134
330
2
100
AcDbEntity
  8
UMRISS05
100
AcDbLine
 10
728.8033338354196
 20
364.1181027358881
 30
0.0
 11
812.8033338354196
 21
364.1181027358881
 31
0.0
  0
LINE
  5
135
330
2
100
AcDbEntity
  8
UMRISS05
100
AcDbLine
 10
761.0512005743
 20
398.1181027358881
 30
0.0
 11
780.5554670965392
 21
398.1181027358882
 31
0.0
  0
LINE
  5
136
102
{ACAD_REACTORS
330
5F
102
}
330
2
100
AcDbEntity
  8
UMRISS05
100
AcDbLine
 10
721.8033338354196
 20
418.118102735888
 30
0.0
 11
819.8033338354196
 21
418.118102735888
 31
0.0
  0
LINE
  5
137
330
2
100
AcDbEntity
  8
ACHSEN
100
AcDbLine
 10
810.8033338354196
 20
423.1181027358879
 30
0.0
 11
810.8033338354196
 21
409.118102735888
 31
0.0
  0
LINE
  5
138
330
2
100
AcDbEntity
  8
ACHSEN
100
AcDbLine
 10
730.8033338354196
 20
423.118102735888
 30
0.0
 11
730.8033338354196
 21
409.1181027358881
 31
0.0
  0
LINE
  5
139
330
2
100
AcDbEntity
  8
UMRISS05
100
AcDbLine
 10
720.8033338354196
 20
356.1181027358881
 30
0.0
 11
720.8033338354196
 21
316.1181027358881
 31
0.0
  0
LINE
  5
13A
330
2
100
AcDbEntity
  8
ACHSEN
100
AcDbLine
 10
770.8033338354196
 20
423.1181027358879
 30
0.0
 11
770.8033338354196
 21
393.1181027358881
 31
0.0
  0
ENDSEC
  0
SECTION
  2
OBJECTS
  0
DICTIONARY
  5
9
330
0
100
AcDbDictionary
281
     1
  3
ACAD_COLOR
350
29
  3
ACAD_GROUP
350
25
  3
ACAD_LAYOUT
350
D
  3
ACAD_MATERIAL
350
28
  3
ACAD_MLINESTYLE
350
26
  3
ACAD_PLOTSETTINGS
350
27
  3
ACAD_PLOTSTYLENAME
350
8
  3
ACAD_TABLESTYLE
350
2A
  3
AcDbVariableDictionary
350
190
  3
AcmDictionary
350
14C
  3
AMG
350
13D
  0
DICTIONARY
  5
3
330
2
100
AcDbDictionary
280
     1
281
     1
  3
ACAD_SORTENTS
360
13B
  0
DICTIONARY
  5
29
102
{ACAD_REACTORS
330
9
102
}
330
9
100
AcDbDictionary
281
     1
  0
DICTIONARY
  5
25
102
{ACAD_REACTORS
330
9
102
}
330
9
100
AcDbDictionary
281
     1
  0
DICTIONARY
  5
D
102
{ACAD_REACTORS
330
9
102
}
330
9
100
AcDbDictionary
281
     1
  3
Layout1
350
11
  3
Model
350
C
  0
DICTIONARY
  5
28
102
{ACAD_REACTORS
330
9
102
}
330
9
100
AcDbDictionary
281
     1
  0
DICTIONARY
  5
26
102
{ACAD_REACTORS
330
9
102
}
330
9
100
AcDbDictionary
281
     1
  3
STANDARD
350
2D
  0
DICTIONARY
  5
27
102
{ACAD_REACTORS
330
9
102
}
330
9
100
AcDbDictionary
281
     1
  0
ACDBDICTIONARYWDFLT
  5
8
102
{ACAD_REACTORS
330
9
102
}
330
9
100
AcDbDictionary
281
     1
  3
Normal
350
7
100
AcDbDictionaryWithDefault
340
7
  0
DICTIONARY
  5
2A
102
{ACAD_REACTORS
330
9
102
}
330
9
100
AcDbDictionary
281
     1
  3
Standard
350
2E
  0
DICTIONARY
  5
190
102
{ACAD_REACTORS
330
9
102
}
330
9
100
AcDbDictionary
281
     1
  3
CTABLESTYLE
350
191
  0
DICTIONARY
  5
14C
102
{ACAD_REACTORS
330
9
102
}
330
9
100
AcDbDictionary
281
     1
  3
AcmStdDictionary
350
14D
  0
DICTIONARY
  5
13D
102
{ACAD_REACTORS
330
9
102
}
330
9
100
AcDbDictionary
281
     1
  3
AcMgSettings
350
147
  3
AMGLAYCFG
350
13C
  0
SORTENTSTABLE
  5
13B
102
{ACAD_REACTORS
330
3
102
}
330
3
100
AcDbSortentsTable
330
2
331
C6
  5
11C
331
115
  5
101
331
63
  5
132
331
134
  5
5F
331
102
  5
114
331
11B
  5
D5
331
4A
  5
138
331
69
  5
12C
331
108
  5
10E
331
121
  5
83
331
13A
  5
2F
331
6F
  5
127
331
83
  5
121
331
3D
  5
139
331
10E
  5
108
331
127
  5
6F
331
12D
  5
68
331
5C
  5
136
331
F1
  5
119
331
110
  5
106
331
116
  5
100
331
11C
  5
C6
331
135
  5
5E
331
64
  5
131
331
103
  5
113
331
122
  5
82
331
6A
  5
12B
331
109
  5
10D
331
70
  5
126
331
10F
  5
107
331
128
  5
6E
331
9D
  5
11F
331
12E
  5
67
331
90
  5
120
331
111
  5
105
331
FE
  5
118
331
117
  5
FF
331
130
  5
65
331
65
  5
130
331
104
  5
112
331
11D
  5
B7
331
136
  5
5C
331
10A
  5
10C
331
123
  5
73
331
71
  5
125
331
129
  5
6D
331
12F
  5
66
331
5E
  5
135
331
AA
  5
11E
331
112
  5
104
331
131
  5
64
331
D5
  5
11B
331
FF
  5
117
331
118
  5
FE
331
137
  5
4D
331
11E
  5
AA
331
4D
  5
137
331
66
  5
12F
331
105
  5
111
331
124
  5
72
331
6C
  5
12A
331
72
  5
124
331
12A
  5
6C
331
5F
  5
134
331
113
  5
103
331
B7
  5
11D
331
61
  5
133
331
119
  5
F1
331
100
  5
116
331
2F
  5
13A
331
132
  5
63
331
67
  5
12E
331
106
  5
110
331
11F
  5
9D
331
138
  5
4A
331
6D
  5
129
331
10C
  5
10A
331
125
  5
71
331
73
  5
123
331
12B
  5
6A
331
E4
  5
11A
331
114
  5
102
331
133
  5
61
331
101
  5
115
331
11A
  5
E4
331
120
  5
90
331
139
  5
3D
331
68
  5
12D
331
107
  5
10F
331
82
  5
122
331
10D
  5
109
331
126
  5
70
331
6E
  5
128
331
12C
  5
69
  0
LAYOUT
  5
11
102
{ACAD_REACTORS
330
D
102
}
330
D
100
AcDbPlotSettings
  1

  2
G:\VORLAGEN\AutoCAD2002\Plotten\A3hoch-MSL.pc3
  4

  6

 40
0.0
 41
0.0
 42
0.0
 43
0.0
 44
0.0
 45
0.0
 46
0.0
 47
0.0
 48
0.0
 49
0.0
140
0.0
141
0.0
142
1.0
143
1.0
 70
   688
 72
     0
 73
     0
 74
     5
  7
monochrome.ctb
 75
    16
147
1.0
 76
     0
 77
     2
 78
   300
148
0.0
149
0.0
100
AcDbLayout
  1
Layout1
 70
     1
 71
     1
 10
0.0
 20
0.0
 11
12.0
 21
9.0
 12
0.0
 22
0.0
 32
0.0
 14
1.000000000000000E+20
 24
1.000000000000000E+20
 34
1.000000000000000E+20
 15
-1.000000000000000E+20
 25
-1.000000000000000E+20
 35
-1.000000000000000E+20
146
0.0
 13
0.0
 23
0.0
 33
0.0
 16
1.0
 26
0.0
 36
0.0
 17
0.0
 27
1.0
 37
0.0
 76
     0
330
E
  0
LAYOUT
  5
C
102
{ACAD_REACTORS
330
D
102
}
330
D
100
AcDbPlotSettings
  1

  2
G:\VORLAGEN\AutoCAD2002\Plotten\A3hoch-MSL.pc3
  4
A3
  6

 40
6.085416793823242
 41
6.12772798538208
 42
5.662078857421875
 43
5.53509521484375
 44
296.9683227539062
 45
419.9889831542968
 46
0.0
 47
0.0
 48
0.0
 49
0.0
140
0.0
141
0.0
142
1.0
143
1.0
 70
 11952
 72
     1
 73
     1
 74
     0
  7
monochrome.ctb
 75
     0
147
1.0
 76
     0
 77
     2
 78
   300
148
296.6297214794804
149
231.2694884505802
100
AcDbLayout
  1
Model
 70
     1
 71
     0
 10
0.0
 20
0.0
 11
12.0
 21
9.0
 12
0.0
 22
0.0
 32
0.0
 14
0.0
 24
0.0
 34
0.0
 15
0.0
 25
0.0
 35
0.0
146
0.0
 13
0.0
 23
0.0
 33
0.0
 16
1.0
 26
0.0
 36
0.0
 17
0.0
 27
1.0
 37
0.0
 76
     0
330
2
  0
MLINESTYLE
  5
2D
102
{ACAD_REACTORS
330
26
102
}
330
26
100
AcDbMlineStyle
  2
STANDARD
 70
     0
  3

 62
   256
 51
90.0
 52
90.0
 71
     2
 49
0.5
 62
   256
  6
BYLAYER
 49
-0.5
 62
   256
  6
BYLAYER
  0
ACDBPLACEHOLDER
  5
7
102
{ACAD_REACTORS
330
8
102
}
330
8
  0
TABLESTYLE
  5
2E
102
{ACAD_REACTORS
330
2A
102
}
330
2A
100
AcDbTableStyle
  3
Standard
 70
     0
 71
     0
 40
1.5
 41
1.5
280
     0
281
     0
  7
STANDARD
140
4.5
170
     2
 62
     0
 63
     7
283
     0
274
    -2
284
     1
 64
     0
275
    -2
285
     1
 65
     0
276
    -2
286
     1
 66
     0
277
    -2
287
     1
 67
     0
278
    -2
288
     1
 68
     0
279
    -2
289
     1
 69
     0
  7
STANDARD
140
6.0
170
     5
 62
     0
 63
     7
283
     0
274
    -2
284
     1
 64
     0
275
    -2
285
     1
 65
     0
276
    -2
286
     1
 66
     0
277
    -2
287
     1
 67
     0
278
    -2
288
     1
 68
     0
279
    -2
289
     1
 69
     0
  7
STANDARD
140
4.5
170
     5
 62
     0
 63
     7
283
     0
274
    -2
284
     1
 64
     0
275
    -2
285
     1
 65
     0
276
    -2
286
     1
 66
     0
277
    -2
287
     1
 67
     0
278
    -2
288
     1
 68
     0
279
    -2
289
     1
 69
     0
  0
DICTIONARYVAR
  5
191
102
{ACAD_REACTORS
330
190
102
}
330
190
100
DictionaryVariables
280
     0
  1
STANDARD
  0
DICTIONARY
  5
14D
102
{ACAD_REACTORS
330
14C
102
}
330
14C
100
AcDbDictionary
281
     1
  3
DIN
350
14E
  0
DICTIONARY
  5
147
102
{ACAD_REACTORS
330
13D
102
}
330
13D
100
AcDbDictionary
281
     1
  3
DWGSETTINGS
350
146
  3
TRANSSETTINGS
350
148
  0
ENDSEC
  0
EOF
