  0
SECTION
  2
HEADER
  9
$ACADVER
  1
AC1009
  9
$INSBASE
 10
0.0
 20
0.0
 30
0.0
  9
$EXTMIN
 10
609.25805712976091
 20
151.08623643790651
 30
0.0
  9
$EXTMAX
 10
868.76341663485709
 20
491.59816340067658
 30
0.0
  9
$LIMMIN
 10
0.0
 20
0.0
  9
$LIMMAX
 10
566.40699754797015
 20
669.69858977200488
  9
$ORTHOMODE
 70
     1
  9
$REGENMODE
 70
     1
  9
$FILLMODE
 70
     1
  9
$QTEXTMODE
 70
     0
  9
$MIRRTEXT
 70
     0
  9
$DRAGMODE
 70
     2
  9
$LTSCALE
 40
1.0
  9
$OSMODE
 70
   695
  9
$ATTMODE
 70
     1
  9
$TEXTSIZE
 40
3.5
  9
$TRACEWID
 40
0.05
  9
$TEXTSTYLE
  7
ARIAL-STANDARD
  9
$CLAYER
  8
UMRISS07
  9
$CELTYPE
  6
BYLAYER
  9
$CECOLOR
 62
   256
  9
$DIMSCALE
 40
1.8999999999999999
  9
$DIMASZ
 40
2.799999999999998
  9
$DIMEXO
 40
1.0
  9
$DIMDLI
 40
0.0
  9
$DIMRND
 40
0.0
  9
$DIMDLE
 40
0.0
  9
$DIMEXE
 40
1.0
  9
$DIMTP
 40
0.0
  9
$DIMTM
 40
0.0
  9
$DIMTXT
 40
3.399999999999999
  9
$DIMCEN
 40
1.5
  9
$DIMTSZ
 40
0.0
  9
$DIMTOL
 70
     0
  9
$DIMLIM
 70
     0
  9
$DIMTIH
 70
     0
  9
$DIMTOH
 70
     0
  9
$DIMSE1
 70
     0
  9
$DIMSE2
 70
     0
  9
$DIMTAD
 70
     1
  9
$DIMZIN
 70
     8
  9
$DIMBLK
  1

  9
$DIMASO
 70
     1
  9
$DIMSHO
 70
     1
  9
$DIMPOST
  1

  9
$DIMAPOST
  1

  9
$DIMALT
 70
     0
  9
$DIMALTD
 70
     2
  9
$DIMALTF
 40
25.399999999999999
  9
$DIMLFAC
 40
1.0
  9
$DIMTOFL
 70
     1
  9
$DIMTVP
 40
0.0
  9
$DIMTIX
 70
     1
  9
$DIMSOXD
 70
     0
  9
$DIMSAH
 70
     0
  9
$DIMBLK1
  1

  9
$DIMBLK2
  1

  9
$DIMSTYLE
  2
WMF
  9
$DIMCLRD
 70
   256
  9
$DIMCLRE
 70
   256
  9
$DIMCLRT
 70
   256
  9
$DIMTFAC
 40
0.5
  9
$DIMGAP
 40
1.0
  9
$LUNITS
 70
     2
  9
$LUPREC
 70
     4
  9
$SKETCHINC
 40
0.1
  9
$FILLETRAD
 40
0.0
  9
$AUNITS
 70
     0
  9
$AUPREC
 70
     0
  9
$MENU
  1
.
  9
$ELEVATION
 40
0.0
  9
$PELEVATION
 40
0.0
  9
$THICKNESS
 40
0.0
  9
$LIMCHECK
 70
     0
  9
$BLIPMODE
 70
     0
  9
$CHAMFERA
 40
0.0
  9
$CHAMFERB
 40
0.0
  9
$SKPOLY
 70
     0
  9
$TDCREATE
 40
2451554.4472194561
  9
$TDUPDATE
 40
2454630.641165405
  9
$TDINDWG
 40
0.9799659491
  9
$TDUSRTIMER
 40
0.9799657639
  9
$USRTIMER
 70
     1
  9
$ANGBASE
 50
0.0
  9
$ANGDIR
 70
     0
  9
$PDMODE
 70
     0
  9
$PDSIZE
 40
0.0
  9
$PLINEWID
 40
0.0
  9
$COORDS
 70
     0
  9
$SPLFRAME
 70
     0
  9
$SPLINETYPE
 70
     6
  9
$SPLINESEGS
 70
     8
  9
$ATTDIA
 70
     1
  9
$ATTREQ
 70
     1
  9
$HANDLING
 70
     1
  9
$HANDSEED
  5
565
  9
$SURFTAB1
 70
     6
  9
$SURFTAB2
 70
     6
  9
$SURFTYPE
 70
     6
  9
$SURFU
 70
     6
  9
$SURFV
 70
     6
  9
$UCSNAME
  2

  9
$UCSORG
 10
0.0
 20
0.0
 30
0.0
  9
$UCSXDIR
 10
1.0
 20
0.0
 30
0.0
  9
$UCSYDIR
 10
0.0
 20
1.0
 30
0.0
  9
$PUCSNAME
  2

  9
$PUCSORG
 10
0.0
 20
0.0
 30
0.0
  9
$PUCSXDIR
 10
1.0
 20
0.0
 30
0.0
  9
$PUCSYDIR
 10
0.0
 20
1.0
 30
0.0
  9
$USERI1
 70
     0
  9
$USERI2
 70
     0
  9
$USERI3
 70
     0
  9
$USERI4
 70
     0
  9
$USERI5
 70
     0
  9
$USERR1
 40
0.0
  9
$USERR2
 40
0.0
  9
$USERR3
 40
0.0
  9
$USERR4
 40
0.0
  9
$USERR5
 40
0.0
  9
$WORLDVIEW
 70
     1
  9
$SHADEDGE
 70
     3
  9
$SHADEDIF
 70
    70
  9
$TILEMODE
 70
     1
  9
$MAXACTVP
 70
    48
  9
$PLIMCHECK
 70
     0
  9
$PEXTMIN
 10
1.0000000000000000E+020
 20
1.0000000000000000E+020
 30
1.0000000000000000E+020
  9
$PEXTMAX
 10
-1.0000000000000000E+020
 20
-1.0000000000000000E+020
 30
-1.0000000000000000E+020
  9
$PLIMMIN
 10
0.0
 20
0.0
  9
$PLIMMAX
 10
12.0
 20
9.0
  9
$UNITMODE
 70
     0
  9
$VISRETAIN
 70
     1
  9
$PLINEGEN
 70
     0
  9
$PSLTSCALE
 70
     1
  0
ENDSEC
  0
SECTION
  2
TABLES
  0
TABLE
  2
VPORT
 70
     4
  0
VPORT
  2
*ACTIVE
 70
     0
 10
0.0
 20
0.0
 11
1.0
 21
1.0
 12
914.14468901123212
 22
364.19649985706292
 13
0.0
 23
0.0
 14
10.0
 24
10.0
 15
10.0
 25
10.0
 16
0.0
 26
0.0
 36
1.0
 17
0.0
 27
0.0
 37
0.0
 40
636.93333630503002
 41
1.632804232804232
 42
50.0
 43
0.0
 44
0.0
 50
0.0
 51
0.0
 71
     0
 72
  5000
 73
     1
 74
     0
 75
     0
 76
     0
 77
     0
 78
     0
  0
ENDTAB
  0
TABLE
  2
LTYPE
 70
    22
  0
LTYPE
  2
CONTINUOUS
 70
     0
  3
Solid line
 72
    65
 73
     0
 40
0.0
  0
LTYPE
  2
STRICHPUNKT2
 70
     0
  3
Strichpunkt (.5x) _._._._._._._._._._._._._._._
 72
    65
 73
     4
 40
12.699999999999999
 49
6.3499999999999979
 49
-3.174999999999998
 49
0.0
 49
-3.174999999999998
  0
LTYPE
  2
AMCONSTR
 70
     0
  3
_______________________
 72
    65
 73
     2
 40
9999.0
 49
9999.0
 49
0.0
  0
LTYPE
  2
AMZIGZAG
 70
     0
  3
/\/-/\/-/\/-/\/-/\/-/\/
 72
    65
 73
     2
 40
11.0001
 49
0.0001
 49
-11.0
  0
LTYPE
  2
AM_DIN_F_W050
 70
     0
  3
__ __ __ __ __ __ __ __ __ __ __ __ __ __ __
 72
    65
 73
     2
 40
6.25
 49
4.75
 49
-1.5
  0
LTYPE
  2
AM_DIN_G_W050
 70
     0
  3
____ . ____ . ____ . ____ . ____ . ____ . ____
 72
    65
 73
     4
 40
13.75
 49
9.75
 49
-1.5
 49
1.0
 49
-1.5
  0
LTYPE
  2
AM_DIN_K_W050
 70
     0
  3
_____ . . _____ . . _____ . . ____ .. ____
 72
    65
 73
     6
 40
16.25
 49
9.75
 49
-1.5
 49
1.0
 49
-1.5
 49
1.0
 49
-1.5
  0
LTYPE
  2
AM_DIN_G_W050X2
 70
     0
  3
__ . __ . __ . __ . __ . __
 72
    65
 73
     4
 40
6.875
 49
4.75
 49
-0.875
 49
0.375
 49
-0.875
  0
LTYPE
  2
AM_DIN_F_W050X2
 70
     0
  3
 _ _ _ _ _ _ _ _ _ _ _ _
 72
    65
 73
     2
 40
3.125
 49
2.25
 49
-0.875
  0
LTYPE
  2
ACDINWELD
 70
     0
  3
_ _ _ _ _
 72
    65
 73
     2
 40
2.0
 49
2.0
 49
-1.0
  0
LTYPE
  2
ACDINTGB
 70
     0
  3
__ . . __ . .
 72
    65
 73
     6
 40
9.0
 49
4.0
 49
-1.0
 49
1.0
 49
-1.0
 49
1.0
 49
-1.0
  0
LTYPE
  2
ACDINTGL
 70
     0
  3
_ _ _ _ _
 72
    65
 73
     2
 40
3.0
 49
2.0
 49
-1.0
  0
LTYPE
  2
HIDDEN
 70
     0
  3
Verdeckt
 72
    65
 73
     2
 40
9.5250000000000004
 49
6.3499999999999979
 49
-3.174999999999998
  0
LTYPE
  2
PHANTOM2
 70
     0
  3
Phantom (.5x) ___ _ _ ___ _ _ ___ _ _ ___ _ _
 72
    65
 73
     6
 40
31.75
 49
15.875
 49
-3.174999999999998
 49
3.174999999999998
 49
-3.174999999999998
 49
3.174999999999998
 49
-3.174999999999998
  0
LTYPE
  2
CENTER
 70
     0
  3
__ . __
 72
    65
 73
     4
 40
7.0
 49
4.0
 49
-1.0
 49
1.0
 49
-1.0
  0
LTYPE
  2
GEN3
 70
     0
  3
-- -- -- -- -- -- -- -- -- -- -- -- -- -- --
 72
    65
 73
     2
 40
6.25
 49
4.75
 49
-1.5
  0
LTYPE
  2
GEN7
 70
     0
  3
____ . ____ . ____ . ____ . ____ . ____ . ____
 72
    65
 73
     4
 40
13.75
 49
9.75
 49
-1.5
 49
1.0
 49
-1.5
  0
LTYPE
  2
GEN3A
 70
     0
  3
 - - - - -
 72
    65
 73
     2
 40
3.125
 49
2.25
 49
-0.875
  0
LTYPE
  2
GEN7A
 70
     0
  3
__ . __ . __
 72
    65
 73
     4
 40
6.875
 49
4.75
 49
-0.875
 49
0.375
 49
-0.875
  0
LTYPE
  2
GEN4A
 70
     0
  3
_____ . . _____ . . _____ . . ____ .. ____
 72
    65
 73
     6
 40
16.25
 49
9.75
 49
-1.5
 49
1.0
 49
-1.5
 49
1.0
 49
-1.5
  0
LTYPE
  2
AM_ISO02W050
 70
     0
  3
__ __ __ __ __ __ __ __ __ __ __ __ __ __ __
 72
    65
 73
     2
 40
7.5
 49
6.0
 49
-1.5
  0
LTYPE
  2
GENZIGZAG
 70
     0
  3
/\/-/\/-/\/-/\/-/\/-/\/
 72
    65
 73
     2
 40
12.0001
 49
0.0001
 49
-12.0
  0
ENDTAB
  0
TABLE
  2
LAYER
 70
     8
  0
LAYER
  2
0
 70
     0
 62
     7
  6
CONTINUOUS
  0
LAYER
  2
UMRISS03
 70
     0
 62
     3
  6
CONTINUOUS
  0
LAYER
  2
UMRISS05
 70
     0
 62
     4
  6
CONTINUOUS
  0
LAYER
  2
UMRISS07
 70
     0
 62
     6
  6
CONTINUOUS
  0
LAYER
  2
BEMASSUNG
 70
     0
 62
     2
  6
CONTINUOUS
  0
LAYER
  2
ACHSEN
 70
     0
 62
     1
  6
STRICHPUNKT2
  0
LAYER
  2
DEFPOINTS
 70
     0
 62
     7
  6
CONTINUOUS
  0
LAYER
  2
1855
 70
     0
 62
     4
  6
CONTINUOUS
  0
ENDTAB
  0
TABLE
  2
STYLE
 70
     8
  0
STYLE
  2
STANDARD
 70
     0
 40
0.0
 41
1.0
 50
0.0
 71
     0
 42
10.0
  3
txt
  4

  0
STYLE
  2
ARIAL-STANDARD
 70
     0
 40
0.0
 41
1.0
 50
0.0
 71
     0
 42
3.5
  3
txt
  4

  0
STYLE
  2
NORM
 70
     0
 40
0.0
 41
1.0
 50
0.0
 71
     0
 42
2.399999999999999
  3
SIMPLEX
  4

  0
STYLE
  2
WMF
 70
     0
 40
0.0
 41
1.0
 50
0.0
 71
     0
 42
6.5
  3
txt
  4

  0
STYLE
  2

 70
     1
 40
0.0
 41
1.0
 50
0.0
 71
     0
 42
3.5
  3
ltypeshp.shx
  4

  0
STYLE
  2
ACDINTS
 70
     0
 40
1.0
 41
1.0
 50
0.0
 71
     0
 42
3.5
  3
isocp.shx
  4

  0
STYLE
  2
ACDINGDT
 70
     0
 40
0.0
 41
1.0
 50
0.0
 71
     0
 42
3.5
  3
AMGDT
  4

  0
STYLE
  2

 70
     1
 40
0.0
 41
1.0
 50
0.0
 71
     0
 42
3.5
  3
genltshp.shx
  4

  0
ENDTAB
  0
TABLE
  2
VIEW
 70
     0
  0
ENDTAB
  0
TABLE
  2
UCS
 70
     0
  0
ENDTAB
  0
TABLE
  2
APPID
 70
    28
  0
APPID
  2
ACAD
 70
     0
  0
APPID
  2
ACAD_PSEXT
 70
     0
  0
APPID
  2
ACAD_DSTYLE_DIMARC_LENGTH_
 70
     0
  0
APPID
  2
ACAD_DSTYLE_DIMJOGGED_JOGA
 70
     0
  0
APPID
  2
ACA_CADIMENU
 70
     0
  0
APPID
  2
AVE_RENDER
 70
     0
  0
APPID
  2
GENIUS_GENCFG_13
 70
     0
  0
APPID
  2
GENIUS_GENCFG0_13
 70
     0
  0
APPID
  2
GENIUS_GENCFG1_13
 70
     0
  0
APPID
  2
GENIUS_GENCFG2_13
 70
     0
  0
APPID
  2
GENIUS_GENCFG3_13
 70
     0
  0
APPID
  2
GENIUS_GENCFG4_13
 70
     0
  0
APPID
  2
GENIUS_GEVCFG0_13
 70
     0
  0
APPID
  2
GENIUS_GENOENT_13
 70
     0
  0
APPID
  2
GENIUS_GENREC_14
 70
     0
  0
APPID
  2
GENIUS_GENODEF_13
 70
     0
  0
APPID
  2
GENIUS_GENOBJ-N-REC_13
 70
     0
  0
APPID
  2
CCCMM
 70
     0
  0
APPID
  2
MCAD_NO_VIS
 70
     0
  0
APPID
  2
ACAD_TEMP_GRAPHIC
 70
     0
  0
APPID
  2
ACATTRIBSERVICES
 70
     0
  0
APPID
  2
GENIUS_GENSCREG_15
 70
     0
  0
APPID
  2
GENIUS_GENOBJ-N-SDF_13
 70
     0
  0
APPID
  2
AD_DRAW
 70
     0
  0
APPID
  2
DESIGNERASSEMBLIES
 70
     0
  0
APPID
  2
ACADM_DIM_EDIT
 70
     0
  0
APPID
  2
AMDT_DM_ADJ
 70
     0
  0
APPID
  2
GENIUS_GENDIMSH_14
 70
     0
  0
ENDTAB
  0
TABLE
  2
DIMSTYLE
 70
    10
  0
DIMSTYLE
  2
NORMAL
 70
     0
  3

  4

  5

  6

  7

 40
1.0
 41
3.5
 42
0.0
 43
8.0
 44
0.5
 45
0.0
 46
0.0
 47
0.0
 48
0.0
140
3.5
141
1.5
142
0.0
143
25.399999999999999
144
1.0
145
0.0
146
0.5
147
1.0
 71
     0
 72
     0
 73
     0
 74
     0
 75
     0
 76
     0
 77
     1
 78
     8
170
     0
171
     2
172
     1
173
     0
174
     1
175
     0
176
   256
177
   256
178
     3
  0
DIMSTYLE
  2
WMF
 70
     0
  3

  4

  5

  6

  7

 40
1.8999999999999999
 41
2.799999999999998
 42
1.0
 43
0.0
 44
1.0
 45
0.0
 46
0.0
 47
0.0
 48
0.0
140
3.399999999999999
141
1.5
142
0.0
143
25.399999999999999
144
1.0
145
0.0
146
0.5
147
1.0
 71
     0
 72
     0
 73
     0
 74
     0
 75
     0
 76
     0
 77
     1
 78
     8
170
     0
171
     2
172
     1
173
     0
174
     1
175
     0
176
   256
177
   256
178
   256
  0
DIMSTYLE
  2
PROSPEKT
 70
     0
  3

  4

  5

  6

  7

 40
1.6000000000000001
 41
3.5
 42
0.5
 43
0.0
 44
0.5
 45
0.0
 46
0.0
 47
0.0
 48
0.0
140
3.5
141
1.5
142
0.0
143
25.399999999999999
144
1.0
145
0.0
146
1.0
147
1.0
 71
     0
 72
     0
 73
     0
 74
     0
 75
     0
 76
     0
 77
     1
 78
     8
170
     0
171
     2
172
     1
173
     0
174
     1
175
     0
176
   256
177
   256
178
     3
  0
DIMSTYLE
  2
AM_DIN
 70
     0
  3

  4
"
  5

  6

  7

 40
1.0
 41
2.5
 42
1.0
 43
10.0
 44
1.0
 45
0.0
 46
0.0
 47
0.1
 48
0.1
140
3.5
141
0.0
142
0.0
143
0.0393701
144
1.0
145
0.0
146
0.71
147
1.5
 71
     0
 72
     0
 73
     0
 74
     0
 75
     0
 76
     0
 77
     1
 78
     8
170
     0
171
     2
172
     1
173
     0
174
     0
175
     0
176
   256
177
   256
178
     2
  0
DIMSTYLE
  2
AM_DIN$3
 70
     0
  3

  4
"
  5

  6

  7

 40
1.0
 41
2.5
 42
1.0
 43
10.0
 44
1.0
 45
0.0
 46
0.0
 47
0.1
 48
0.1
140
3.5
141
0.0
142
0.0
143
0.0393701
144
1.0
145
0.0
146
0.71
147
1.5
 71
     0
 72
     0
 73
     0
 74
     1
 75
     0
 76
     0
 77
     1
 78
     8
170
     0
171
     2
172
     0
173
     0
174
     0
175
     0
176
   256
177
   256
178
     2
  0
DIMSTYLE
  2
AM_DIN$4
 70
     0
  3

  4
"
  5

  6

  7

 40
1.0
 41
2.5
 42
1.0
 43
10.0
 44
1.0
 45
0.0
 46
0.0
 47
0.1
 48
0.1
140
3.5
141
0.0
142
0.0
143
0.0393701
144
1.0
145
0.0
146
0.71
147
1.5
 71
     0
 72
     0
 73
     0
 74
     1
 75
     0
 76
     0
 77
     1
 78
     8
170
     0
171
     2
172
     0
173
     0
174
     0
175
     0
176
   256
177
   256
178
     2
  0
DIMSTYLE
  2
AM_DIN$6
 70
     0
  3

  4
"
  5

  6

  7

 40
1.0
 41
2.5
 42
1.0
 43
10.0
 44
1.0
 45
0.0
 46
0.0
 47
0.1
 48
0.1
140
3.5
141
0.0
142
0.0
143
0.0393701
144
1.0
145
0.0
146
0.71
147
1.5
 71
     0
 72
     0
 73
     0
 74
     0
 75
     0
 76
     0
 77
     0
 78
     8
170
     0
171
     2
172
     1
173
     0
174
     0
175
     0
176
   256
177
   256
178
     2
  0
DIMSTYLE
  2
AM_DIN$7
 70
     0
  3

  4
"
  5

  6

  7

 40
1.0
 41
2.5
 42
1.0
 43
10.0
 44
1.0
 45
0.0
 46
0.0
 47
0.1
 48
0.1
140
5.0
141
0.0
142
0.0
143
0.0393701
144
1.0
145
0.0
146
0.71
147
1.5
 71
     0
 72
     0
 73
     0
 74
     0
 75
     0
 76
     0
 77
     1
 78
     8
170
     0
171
     2
172
     1
173
     0
174
     0
175
     0
176
   256
177
   256
178
     2
  0
DIMSTYLE
  2
AM_DIN$SF
 70
     0
  3

  4
"
  5

  6

  7

 40
1.0
 41
2.5
 42
1.0
 43
10.0
 44
1.0
 45
0.0
 46
0.0
 47
0.1
 48
0.1
140
3.5
141
0.0
142
0.0
143
0.0393701
144
1.0
145
0.0
146
0.71
147
1.5
 71
     0
 72
     0
 73
     0
 74
     0
 75
     1
 76
     1
 77
     1
 78
     8
170
     0
171
     2
172
     1
173
     0
174
     0
175
     0
176
   256
177
   256
178
     2
  0
DIMSTYLE
  2
AM_DIN$SH
 70
     0
  3

  4
"
  5

  6
GENAXEH
  7

 40
1.0
 41
2.5
 42
1.0
 43
10.0
 44
1.0
 45
0.0
 46
0.0
 47
0.1
 48
0.1
140
3.5
141
0.0
142
0.0
143
0.0393701
144
2.0
145
0.0
146
0.71
147
1.5
 71
     0
 72
     0
 73
     0
 74
     0
 75
     1
 76
     1
 77
     1
 78
     8
170
     0
171
     2
172
     1
173
     1
174
     0
175
     0
176
   256
177
   256
178
     2
  0
ENDTAB
  0
ENDSEC
  0
SECTION
  2
BLOCKS
  0
BLOCK
  8
0
  2
$MODEL_SPACE
 70
     0
 10
0.0
 20
0.0
 30
0.0
  3
$MODEL_SPACE
  1

  0
ENDBLK
  5
A
  8
0
  0
BLOCK
 67
     1
  8
0
  2
$PAPER_SPACE
 70
     0
 10
0.0
 20
0.0
 30
0.0
  3
$PAPER_SPACE
  1

  0
ENDBLK
  5
10
 67
     1
  8
0
  0
BLOCK
  8
0
  2
GENAXEH
 70
     0
 10
0.0
 20
0.0
 30
0.0
  3
GENAXEH
  1

  0
LINE
  5
331
  8
0
 10
-1.0
 20
0.0
 30
0.0
 11
1.0
 21
0.0
 31
0.0
  0
ENDBLK
  5
332
  8
0
  0
BLOCK
  8
0
  2
*D1
 70
     1
 10
0.0
 20
0.0
 30
0.0
  3
*D1
  1

  0
LINE
  5
111
  8
BEMASSUNG
  6
CONTINUOUS
 10
666.36453147652492
 20
467.82570317294892
 30
0.0
 11
616.43697390798218
 21
467.82570317294909
 31
0.0
  0
LINE
  5
112
  8
BEMASSUNG
  6
CONTINUOUS
 10
666.36453147652435
 20
237.8257031729494
 30
0.0
 11
616.43697390798218
 21
237.8257031729494
 31
0.0
  0
LINE
  5
113
  8
BEMASSUNG
  6
CONTINUOUS
 10
617.23697390798225
 20
462.22570317294901
 30
0.0
 11
617.23697390798225
 21
243.4257031729494
 31
0.0
  0
INSERT
  5
114
  8
UMRISS07
  2
*U53
 10
0.0
 20
0.0
 30
0.0
  0
SOLID
  5
115
  8
BEMASSUNG
  6
CONTINUOUS
 10
616.30364057464885
 20
462.22570317294901
 30
0.0
 11
618.17030724131564
 21
462.22570317294901
 31
0.0
 12
617.23697390798225
 22
467.82570317294909
 32
0.0
 13
617.23697390798225
 23
467.82570317294909
 33
0.0
  0
SOLID
  5
116
  8
BEMASSUNG
  6
CONTINUOUS
 10
616.30364057464885
 20
243.4257031729494
 30
0.0
 11
618.17030724131553
 21
243.4257031729494
 31
0.0
 12
617.23697390798225
 22
237.8257031729494
 32
0.0
 13
617.23697390798225
 23
237.8257031729494
 33
0.0
  0
POINT
  5
117
  8
DEFPOINTS
  6
CONTINUOUS
 62
     0
 10
667.16453147652487
 20
467.82570317294892
 30
0.0
  0
POINT
  5
118
  8
DEFPOINTS
  6
CONTINUOUS
 62
     0
 10
667.1645314765243
 20
237.8257031729494
 30
0.0
  0
POINT
  5
119
  8
DEFPOINTS
  6
CONTINUOUS
 62
     0
 10
617.23697390798225
 20
237.8257031729494
 30
0.0
  0
ENDBLK
  5
11A
  8
0
  0
BLOCK
  8
0
  2
*D2
 70
     1
 10
0.0
 20
0.0
 30
0.0
  3
*D2
  1

  0
LINE
  5
104
  8
BEMASSUNG
  6
CONTINUOUS
 10
646.36453147652514
 20
339.825693817841
 30
0.0
 11
628.15242660480624
 21
339.825693817841
 31
0.0
  0
LINE
  5
105
  8
BEMASSUNG
  6
CONTINUOUS
 10
660.38160368832928
 20
387.82569381784128
 30
0.0
 11
628.15242660480624
 21
387.82569381784128
 31
0.0
  0
LINE
  5
106
  8
BEMASSUNG
  6
CONTINUOUS
 10
628.95242660480608
 20
345.42569381784102
 30
0.0
 11
628.95242660480608
 21
382.22569381784132
 31
0.0
  0
SOLID
  5
107
  8
BEMASSUNG
  6
CONTINUOUS
 10
628.01909327147268
 20
345.42569381784102
 30
0.0
 11
629.88575993813947
 21
345.42569381784102
 31
0.0
 12
628.95242660480608
 22
339.825693817841
 32
0.0
 13
628.95242660480608
 23
339.825693817841
 33
0.0
  0
SOLID
  5
108
  8
BEMASSUNG
  6
CONTINUOUS
 10
628.01909327147268
 20
382.22569381784132
 30
0.0
 11
629.88575993813947
 21
382.22569381784132
 31
0.0
 12
628.95242660480608
 22
387.82569381784128
 32
0.0
 13
628.95242660480608
 23
387.82569381784128
 33
0.0
  0
INSERT
  5
109
  8
UMRISS07
  2
*U52
 10
0.0
 20
0.0
 30
0.0
  0
POINT
  5
10A
  8
DEFPOINTS
  6
CONTINUOUS
 62
     0
 10
647.16453147652521
 20
339.825693817841
 30
0.0
  0
POINT
  5
10B
  8
DEFPOINTS
  6
CONTINUOUS
 62
     0
 10
661.18160368832935
 20
387.82569381784128
 30
0.0
  0
POINT
  5
10C
  8
DEFPOINTS
  6
CONTINUOUS
 62
     0
 10
628.95242660480608
 20
387.82569381784128
 30
0.0
  0
ENDBLK
  5
10D
  8
0
  0
BLOCK
  8
0
  2
*D3
 70
     1
 10
0.0
 20
0.0
 30
0.0
  3
*D3
  1

  0
LINE
  5
F7
  8
BEMASSUNG
  6
CONTINUOUS
 10
673.3815862565566
 20
273.32570317294937
 30
0.0
 11
628.11073185828832
 21
273.32570317294937
 31
0.0
  0
LINE
  5
F8
  8
BEMASSUNG
  6
CONTINUOUS
 10
670.3815862565566
 20
237.82570317294929
 30
0.0
 11
628.11073185828832
 21
237.82570317294929
 31
0.0
  0
LINE
  5
F9
  8
BEMASSUNG
  6
CONTINUOUS
 10
628.91073185828839
 20
267.72570317294941
 30
0.0
 11
628.91073185828827
 21
243.42570317294931
 31
0.0
  0
SOLID
  5
FA
  8
BEMASSUNG
  6
CONTINUOUS
 10
627.97739852495488
 20
267.72570317294941
 30
0.0
 11
629.84406519162155
 21
267.72570317294941
 31
0.0
 12
628.91073185828839
 22
273.32570317294937
 32
0.0
 13
628.91073185828839
 23
273.32570317294937
 33
0.0
  0
SOLID
  5
FB
  8
BEMASSUNG
  6
CONTINUOUS
 10
627.97739852495488
 20
243.42570317294931
 30
0.0
 11
629.84406519162144
 21
243.42570317294931
 31
0.0
 12
628.91073185828827
 22
237.82570317294929
 32
0.0
 13
628.91073185828827
 23
237.82570317294929
 33
0.0
  0
INSERT
  5
FC
  8
UMRISS07
  2
*U51
 10
0.0
 20
0.0
 30
0.0
  0
POINT
  5
FD
  8
DEFPOINTS
  6
CONTINUOUS
 62
     0
 10
674.18158625655644
 20
273.32570317294937
 30
0.0
  0
POINT
  5
FE
  8
DEFPOINTS
  6
CONTINUOUS
 62
     0
 10
671.18158625655644
 20
237.82570317294929
 30
0.0
  0
POINT
  5
FF
  8
DEFPOINTS
  6
CONTINUOUS
 62
     0
 10
628.91073185828827
 20
237.82570317294929
 30
0.0
  0
ENDBLK
  5
100
  8
0
  0
BLOCK
  8
0
  2
*D4
 70
     1
 10
0.0
 20
0.0
 30
0.0
  3
*D4
  1

  0
LINE
  5
EA
  8
BEMASSUNG
  6
CONTINUOUS
 10
646.36453147652514
 20
309.82569381784077
 30
0.0
 11
628.20880075730281
 21
309.82569381784089
 31
0.0
  0
LINE
  5
EB
  8
BEMASSUNG
  6
CONTINUOUS
 10
650.38158625655728
 20
339.825693817841
 30
0.0
 11
628.20880075730281
 21
339.825693817841
 31
0.0
  0
LINE
  5
EC
  8
BEMASSUNG
  6
CONTINUOUS
 10
629.00880075730265
 20
315.42569381784091
 30
0.0
 11
629.00880075730265
 21
334.22569381784098
 31
0.0
  0
INSERT
  5
ED
  8
UMRISS07
  2
*U50
 10
0.0
 20
0.0
 30
0.0
  0
SOLID
  5
EE
  8
BEMASSUNG
  6
CONTINUOUS
 10
628.07546742396937
 20
315.42569381784091
 30
0.0
 11
629.94213409063593
 21
315.42569381784091
 31
0.0
 12
629.00880075730265
 22
309.82569381784089
 32
0.0
 13
629.00880075730265
 23
309.82569381784089
 33
0.0
  0
SOLID
  5
EF
  8
BEMASSUNG
  6
CONTINUOUS
 10
628.07546742396937
 20
334.22569381784098
 30
0.0
 11
629.94213409063593
 21
334.22569381784098
 31
0.0
 12
629.00880075730265
 22
339.825693817841
 32
0.0
 13
629.00880075730265
 23
339.825693817841
 33
0.0
  0
POINT
  5
F0
  8
DEFPOINTS
  6
CONTINUOUS
 62
     0
 10
647.16453147652521
 20
309.82569381784077
 30
0.0
  0
POINT
  5
F1
  8
DEFPOINTS
  6
CONTINUOUS
 62
     0
 10
651.18158625655735
 20
339.825693817841
 30
0.0
  0
POINT
  5
F2
  8
DEFPOINTS
  6
CONTINUOUS
 62
     0
 10
629.00880075730265
 20
339.825693817841
 30
0.0
  0
ENDBLK
  5
F3
  8
0
  0
BLOCK
  8
0
  2
*D5
 70
     1
 10
0.0
 20
0.0
 30
0.0
  3
*D5
  1

  0
LINE
  5
DC
  8
BEMASSUNG
  6
CONTINUOUS
 10
673.3815862565566
 20
273.32570317294937
 30
0.0
 11
628.15242660480624
 21
273.32570317294937
 31
0.0
  0
LINE
  5
DD
  8
BEMASSUNG
  6
CONTINUOUS
 10
650.38158625655728
 20
309.82569381784077
 30
0.0
 11
628.15242660480624
 21
309.82569381784089
 31
0.0
  0
LINE
  5
DE
  8
BEMASSUNG
  6
CONTINUOUS
 10
628.95242660480608
 20
278.92570317294951
 30
0.0
 11
628.95242660480608
 21
304.22569381784092
 31
0.0
  0
SOLID
  5
DF
  8
BEMASSUNG
  6
CONTINUOUS
 10
628.01909327147268
 20
278.92570317294951
 30
0.0
 11
629.88575993813947
 21
278.92570317294951
 31
0.0
 12
628.95242660480608
 22
273.32570317294937
 32
0.0
 13
628.95242660480608
 23
273.32570317294937
 33
0.0
  0
SOLID
  5
E0
  8
BEMASSUNG
  6
CONTINUOUS
 10
628.01909327147268
 20
304.22569381784092
 30
0.0
 11
629.88575993813947
 21
304.22569381784092
 31
0.0
 12
628.95242660480608
 22
309.82569381784089
 32
0.0
 13
628.95242660480608
 23
309.82569381784089
 33
0.0
  0
INSERT
  5
E1
  8
UMRISS07
  2
*U49
 10
0.0
 20
0.0
 30
0.0
  0
POINT
  5
E2
  8
DEFPOINTS
  6
CONTINUOUS
 62
     0
 10
674.18158625655644
 20
273.32570317294937
 30
0.0
  0
POINT
  5
E3
  8
DEFPOINTS
  6
CONTINUOUS
 62
     0
 10
651.18158625655735
 20
309.82569381784077
 30
0.0
  0
POINT
  5
E4
  8
DEFPOINTS
  6
CONTINUOUS
 62
     0
 10
628.95242660480608
 20
309.82569381784089
 30
0.0
  0
ENDBLK
  5
E5
  8
0
  0
BLOCK
  8
0
  2
*D6
 70
     1
 10
0.0
 20
0.0
 30
0.0
  3
*D6
  1

  0
LINE
  5
CB
  8
BEMASSUNG
  6
CONTINUOUS
 10
656.36454890829725
 20
417.82569381784151
 30
0.0
 11
628.2143951935526
 21
417.82569381784162
 31
0.0
  0
LINE
  5
CC
  8
BEMASSUNG
  6
CONTINUOUS
 10
669.36453147652287
 20
432.32570317294909
 30
0.0
 11
628.2143951935526
 21
432.32570317294909
 31
0.0
  0
LINE
  5
CD
  8
BEMASSUNG
  6
CONTINUOUS
 10
629.01439519355245
 20
412.22569381784149
 30
0.0
 11
629.01439519355245
 21
406.62569381784152
 31
0.0
  0
LINE
  5
CE
  8
BEMASSUNG
  6
CONTINUOUS
 10
629.01439519355245
 20
437.92570317294923
 30
0.0
 11
629.01439519355245
 21
443.52570317294908
 31
0.0
  0
LINE
  5
CF
  8
BEMASSUNG
  6
CONTINUOUS
 10
629.01439519355245
 20
417.82569381784162
 30
0.0
 11
629.01439519355245
 21
432.32570317294909
 31
0.0
  0
SOLID
  5
D0
  8
BEMASSUNG
  6
CONTINUOUS
 10
628.08106186021928
 20
412.22569381784149
 30
0.0
 11
629.94772852688561
 21
412.22569381784149
 31
0.0
 12
629.01439519355245
 22
417.82569381784162
 32
0.0
 13
629.01439519355245
 23
417.82569381784162
 33
0.0
  0
SOLID
  5
D1
  8
BEMASSUNG
  6
CONTINUOUS
 10
628.08106186021928
 20
437.92570317294923
 30
0.0
 11
629.94772852688561
 21
437.92570317294923
 31
0.0
 12
629.01439519355245
 22
432.32570317294909
 32
0.0
 13
629.01439519355245
 23
432.32570317294909
 33
0.0
  0
INSERT
  5
D2
  8
UMRISS07
  2
*U48
 10
0.0
 20
0.0
 30
0.0
  0
POINT
  5
D3
  8
DEFPOINTS
  6
CONTINUOUS
 62
     0
 10
657.16454890829732
 20
417.82569381784151
 30
0.0
  0
POINT
  5
D4
  8
DEFPOINTS
  6
CONTINUOUS
 62
     0
 10
670.16453147652294
 20
432.32570317294909
 30
0.0
  0
POINT
  5
D5
  8
DEFPOINTS
  6
CONTINUOUS
 62
     0
 10
629.01439519355245
 20
432.32570317294909
 30
0.0
  0
ENDBLK
  5
D6
  8
0
  0
BLOCK
  8
0
  2
*D7
 70
     1
 10
0.0
 20
0.0
 30
0.0
  3
*D7
  1

  0
LINE
  5
BE
  8
BEMASSUNG
  6
CONTINUOUS
 10
660.38160368832928
 20
387.82569381784128
 30
0.0
 11
628.2179883094766
 21
387.82569381784128
 31
0.0
  0
LINE
  5
BF
  8
BEMASSUNG
  6
CONTINUOUS
 10
660.38160368832928
 20
417.82569381784128
 30
0.0
 11
628.2179883094766
 21
417.82569381784151
 31
0.0
  0
LINE
  5
C0
  8
BEMASSUNG
  6
CONTINUOUS
 10
629.01798830947644
 20
393.42569381784142
 30
0.0
 11
629.01798830947644
 21
412.22569381784149
 31
0.0
  0
INSERT
  5
C1
  8
UMRISS07
  2
*U47
 10
0.0
 20
0.0
 30
0.0
  0
SOLID
  5
C2
  8
BEMASSUNG
  6
CONTINUOUS
 10
628.08465497614327
 20
393.42569381784142
 30
0.0
 11
629.9513216428096
 21
393.42569381784142
 31
0.0
 12
629.01798830947644
 22
387.82569381784128
 32
0.0
 13
629.01798830947644
 23
387.82569381784128
 33
0.0
  0
SOLID
  5
C3
  8
BEMASSUNG
  6
CONTINUOUS
 10
628.08465497614327
 20
412.22569381784149
 30
0.0
 11
629.9513216428096
 21
412.22569381784149
 31
0.0
 12
629.01798830947644
 22
417.82569381784151
 32
0.0
 13
629.01798830947644
 23
417.82569381784151
 33
0.0
  0
POINT
  5
C4
  8
DEFPOINTS
  6
CONTINUOUS
 62
     0
 10
661.18160368832935
 20
387.82569381784128
 30
0.0
  0
POINT
  5
C5
  8
DEFPOINTS
  6
CONTINUOUS
 62
     0
 10
661.18160368832935
 20
417.82569381784128
 30
0.0
  0
POINT
  5
C6
  8
DEFPOINTS
  6
CONTINUOUS
 62
     0
 10
629.01798830947644
 20
417.82569381784151
 30
0.0
  0
ENDBLK
  5
C7
  8
0
  0
BLOCK
  8
0
  2
*D8
 70
     1
 10
0.0
 20
0.0
 30
0.0
  3
*D8
  1

  0
LINE
  5
B1
  8
BEMASSUNG
  6
CONTINUOUS
 10
670.38158625655694
 20
467.82570317294892
 30
0.0
 11
628.139044992756
 21
467.82570317294909
 31
0.0
  0
LINE
  5
B2
  8
BEMASSUNG
  6
CONTINUOUS
 10
673.38158625655524
 20
432.32570317294909
 30
0.0
 11
628.139044992756
 21
432.32570317294909
 31
0.0
  0
LINE
  5
B3
  8
BEMASSUNG
  6
CONTINUOUS
 10
628.93904499275584
 20
462.22570317294901
 30
0.0
 11
628.93904499275584
 21
437.92570317294923
 31
0.0
  0
SOLID
  5
B4
  8
BEMASSUNG
  6
CONTINUOUS
 10
628.00571165942256
 20
462.22570317294901
 30
0.0
 11
629.87237832608923
 21
462.22570317294901
 31
0.0
 12
628.93904499275584
 22
467.82570317294909
 32
0.0
 13
628.93904499275584
 23
467.82570317294909
 33
0.0
  0
SOLID
  5
B5
  8
BEMASSUNG
  6
CONTINUOUS
 10
628.00571165942256
 20
437.92570317294923
 30
0.0
 11
629.87237832608923
 21
437.92570317294923
 31
0.0
 12
628.93904499275584
 22
432.32570317294909
 32
0.0
 13
628.93904499275584
 23
432.32570317294909
 33
0.0
  0
INSERT
  5
B6
  8
UMRISS07
  2
*U46
 10
0.0
 20
0.0
 30
0.0
  0
POINT
  5
B7
  8
DEFPOINTS
  6
CONTINUOUS
 62
     0
 10
671.18158625655701
 20
467.82570317294892
 30
0.0
  0
POINT
  5
B8
  8
DEFPOINTS
  6
CONTINUOUS
 62
     0
 10
674.18158625655531
 20
432.32570317294909
 30
0.0
  0
POINT
  5
B9
  8
DEFPOINTS
  6
CONTINUOUS
 62
     0
 10
628.93904499275584
 20
432.32570317294909
 30
0.0
  0
ENDBLK
  5
BA
  8
0
  0
BLOCK
  8
0
  2
*D9
 70
     1
 10
0.0
 20
0.0
 30
0.0
  3
*D9
  1

  0
LINE
  5
A2
  8
BEMASSUNG
  6
CONTINUOUS
 10
646.68158625655735
 20
329.72569381784098
 30
0.0
 11
637.64914004303614
 21
329.72569381784098
 31
0.0
  0
LINE
  5
A3
  8
BEMASSUNG
  6
CONTINUOUS
 10
646.68158625655735
 20
319.92569381784091
 30
0.0
 11
637.64914004303614
 21
319.92569381784102
 31
0.0
  0
LINE
  5
A4
  8
BEMASSUNG
  6
CONTINUOUS
 10
638.4491400430361
 20
335.325693817841
 30
0.0
 11
638.4491400430361
 21
340.92569381784102
 31
0.0
  0
LINE
  5
A5
  8
BEMASSUNG
  6
CONTINUOUS
 10
638.4491400430361
 20
314.325693817841
 30
0.0
 11
638.4491400430361
 21
308.72569381784098
 31
0.0
  0
LINE
  5
A6
  8
BEMASSUNG
  6
CONTINUOUS
 10
638.4491400430361
 20
329.72569381784098
 30
0.0
 11
638.4491400430361
 21
319.92569381784102
 31
0.0
  0
SOLID
  5
A7
  8
BEMASSUNG
  6
CONTINUOUS
 10
637.51580670970282
 20
335.325693817841
 30
0.0
 11
639.38247337636915
 21
335.325693817841
 31
0.0
 12
638.4491400430361
 22
329.72569381784098
 32
0.0
 13
638.4491400430361
 23
329.72569381784098
 33
0.0
  0
SOLID
  5
A8
  8
BEMASSUNG
  6
CONTINUOUS
 10
637.51580670970282
 20
314.325693817841
 30
0.0
 11
639.38247337636915
 21
314.325693817841
 31
0.0
 12
638.4491400430361
 22
319.92569381784102
 32
0.0
 13
638.4491400430361
 23
319.92569381784102
 33
0.0
  0
INSERT
  5
A9
  8
UMRISS07
  2
*U45
 10
0.0
 20
0.0
 30
0.0
  0
POINT
  5
AA
  8
DEFPOINTS
  6
CONTINUOUS
 62
     0
 10
647.48158625655742
 20
329.72569381784098
 30
0.0
  0
POINT
  5
AB
  8
DEFPOINTS
  6
CONTINUOUS
 62
     0
 10
647.48158625655742
 20
319.92569381784091
 30
0.0
  0
POINT
  5
AC
  8
DEFPOINTS
  6
CONTINUOUS
 62
     0
 10
638.4491400430361
 20
319.92569381784102
 30
0.0
  0
ENDBLK
  5
AD
  8
0
  0
BLOCK
  8
0
  2
*D10
 70
     1
 10
0.0
 20
0.0
 30
0.0
  3
*D10
  1

  0
LINE
  5
93
  8
BEMASSUNG
  6
CONTINUOUS
 10
647.48158625655742
 20
319.1256938178409
 30
0.0
 11
647.48158625655742
 21
290.29995152682181
 31
0.0
  0
LINE
  5
94
  8
BEMASSUNG
  6
CONTINUOUS
 10
651.18158625655735
 20
309.02569381784082
 30
0.0
 11
651.18158625655735
 21
290.29995152682181
 31
0.0
  0
LINE
  5
95
  8
BEMASSUNG
  6
CONTINUOUS
 10
641.8815862565574
 20
291.09995152682183
 30
0.0
 11
636.28158625655726
 21
291.09995152682183
 31
0.0
  0
LINE
  5
96
  8
BEMASSUNG
  6
CONTINUOUS
 10
656.78158625655738
 20
291.09995152682183
 30
0.0
 11
662.3815862565574
 21
291.09995152682183
 31
0.0
  0
INSERT
  5
97
  8
UMRISS07
  2
*U44
 10
0.0
 20
0.0
 30
0.0
  0
LINE
  5
98
  8
BEMASSUNG
  6
CONTINUOUS
 10
647.48158625655742
 20
291.09995152682183
 30
0.0
 11
651.18158625655735
 21
291.09995152682183
 31
0.0
  0
SOLID
  5
99
  8
BEMASSUNG
  6
CONTINUOUS
 10
641.8815862565574
 20
292.03328486015522
 30
0.0
 11
641.8815862565574
 21
290.16661819348849
 31
0.0
 12
647.48158625655742
 22
291.09995152682183
 32
0.0
 13
647.48158625655742
 23
291.09995152682183
 33
0.0
  0
SOLID
  5
9A
  8
BEMASSUNG
  6
CONTINUOUS
 10
656.78158625655738
 20
292.03328486015522
 30
0.0
 11
656.78158625655738
 21
290.16661819348849
 31
0.0
 12
651.18158625655735
 22
291.09995152682183
 32
0.0
 13
651.18158625655735
 23
291.09995152682183
 33
0.0
  0
POINT
  5
9B
  8
DEFPOINTS
  6
CONTINUOUS
 62
     0
 10
647.48158625655742
 20
319.92569381784091
 30
0.0
  0
POINT
  5
9C
  8
DEFPOINTS
  6
CONTINUOUS
 62
     0
 10
651.18158625655735
 20
309.82569381784077
 30
0.0
  0
POINT
  5
9D
  8
DEFPOINTS
  6
CONTINUOUS
 62
     0
 10
651.18158625655735
 20
291.09995152682183
 30
0.0
  0
ENDBLK
  5
9E
  8
0
  0
BLOCK
  8
0
  2
*D11
 70
     1
 10
0.0
 20
0.0
 30
0.0
  3
*D11
  1

  0
LINE
  5
81
  8
BEMASSUNG
  6
CONTINUOUS
 10
646.68158625655781
 20
178.9955282659038
 30
0.0
 11
637.77797615396366
 21
178.9955282659038
 31
0.0
  0
LINE
  5
82
  8
BEMASSUNG
  6
CONTINUOUS
 10
646.68158625655781
 20
177.49552826590369
 30
0.0
 11
637.77797615396366
 21
177.49552826590369
 31
0.0
  0
LINE
  5
83
  8
BEMASSUNG
  6
CONTINUOUS
 10
638.57797615396373
 20
184.59552826590379
 30
0.0
 11
638.57797615396373
 21
190.19552826590379
 31
0.0
  0
LINE
  5
84
  8
BEMASSUNG
  6
CONTINUOUS
 10
638.57797615396373
 20
171.89552826590369
 30
0.0
 11
638.57797615396373
 21
166.29552826590361
 31
0.0
  0
INSERT
  5
85
  8
UMRISS07
  2
*U43
 10
0.0
 20
0.0
 30
0.0
  0
LINE
  5
86
  8
BEMASSUNG
  6
CONTINUOUS
 10
638.57797615396373
 20
178.9955282659038
 30
0.0
 11
638.57797615396373
 21
177.49552826590369
 31
0.0
  0
SOLID
  5
87
  8
BEMASSUNG
  6
CONTINUOUS
 10
637.64464282063045
 20
184.59552826590379
 30
0.0
 11
639.51130948729713
 21
184.59552826590379
 31
0.0
 12
638.57797615396373
 22
178.9955282659038
 32
0.0
 13
638.57797615396373
 23
178.9955282659038
 33
0.0
  0
SOLID
  5
88
  8
BEMASSUNG
  6
CONTINUOUS
 10
637.64464282063045
 20
171.89552826590369
 30
0.0
 11
639.51130948729713
 21
171.89552826590369
 31
0.0
 12
638.57797615396373
 22
177.49552826590369
 32
0.0
 13
638.57797615396373
 23
177.49552826590369
 33
0.0
  0
POINT
  5
89
  8
DEFPOINTS
  6
CONTINUOUS
 62
     0
 10
647.48158625655765
 20
178.9955282659038
 30
0.0
  0
POINT
  5
8A
  8
DEFPOINTS
  6
CONTINUOUS
 62
     0
 10
647.48158625655765
 20
177.49552826590369
 30
0.0
  0
POINT
  5
8B
  8
DEFPOINTS
  6
CONTINUOUS
 62
     0
 10
638.57797615396373
 20
177.49552826590369
 30
0.0
  0
ENDBLK
  5
8C
  8
0
  0
BLOCK
  8
0
  2
*D12
 70
     1
 10
0.0
 20
0.0
 30
0.0
  3
*D12
  1

  0
LINE
  5
120
  8
BEMASSUNG
  6
CONTINUOUS
 10
671.18158625655701
 20
468.62570317294887
 30
0.0
 11
671.18158625655701
 21
485.19816340067661
 31
0.0
  0
LINE
  5
121
  8
BEMASSUNG
  6
CONTINUOUS
 10
674.1815862565569
 20
468.62570317294887
 30
0.0
 11
674.1815862565569
 21
485.19816340067661
 31
0.0
  0
LINE
  5
122
  8
BEMASSUNG
  6
CONTINUOUS
 10
665.58158625655676
 20
484.39816340067642
 30
0.0
 11
659.98158625655685
 21
484.39816340067642
 31
0.0
  0
LINE
  5
123
  8
BEMASSUNG
  6
CONTINUOUS
 10
679.78158625655703
 20
484.39816340067642
 30
0.0
 11
685.38158625655694
 21
484.39816340067642
 31
0.0
  0
LINE
  5
124
  8
BEMASSUNG
  6
CONTINUOUS
 10
671.18158625655701
 20
484.39816340067642
 30
0.0
 11
674.1815862565569
 21
484.39816340067642
 31
0.0
  0
SOLID
  5
125
  8
BEMASSUNG
  6
CONTINUOUS
 10
665.58158625655676
 20
485.33149673400982
 30
0.0
 11
665.58158625655676
 21
483.4648300673432
 31
0.0
 12
671.18158625655701
 22
484.39816340067642
 32
0.0
 13
671.18158625655701
 23
484.39816340067642
 33
0.0
  0
SOLID
  5
126
  8
BEMASSUNG
  6
CONTINUOUS
 10
679.78158625655703
 20
485.33149673400982
 30
0.0
 11
679.78158625655703
 21
483.4648300673432
 31
0.0
 12
674.1815862565569
 22
484.39816340067642
 32
0.0
 13
674.1815862565569
 23
484.39816340067642
 33
0.0
  0
INSERT
  5
127
  8
UMRISS07
  2
*U54
 10
0.0
 20
0.0
 30
0.0
  0
POINT
  5
128
  8
DEFPOINTS
  6
CONTINUOUS
 62
     0
 10
671.18158625655701
 20
467.82570317294892
 30
0.0
  0
POINT
  5
129
  8
DEFPOINTS
  6
CONTINUOUS
 62
     0
 10
674.1815862565569
 20
467.82570317294892
 30
0.0
  0
POINT
  5
12A
  8
DEFPOINTS
  6
CONTINUOUS
 62
     0
 10
674.1815862565569
 20
484.39816340067642
 30
0.0
  0
ENDBLK
  5
12B
  8
0
  0
BLOCK
  8
0
  2
*D13
 70
     1
 10
0.0
 20
0.0
 30
0.0
  3
*D13
  1

  0
LINE
  5
2F0
  8
BEMASSUNG
  6
CONTINUOUS
 10
743.18158625655656
 20
432.32570317295011
 30
0.0
 11
798.87513941007523
 21
432.32570317295011
 31
0.0
  0
LINE
  5
2F1
  8
BEMASSUNG
  6
CONTINUOUS
 10
743.18158625655656
 20
273.32570317295023
 30
0.0
 11
798.87513941007523
 21
273.32570317295023
 31
0.0
  0
LINE
  5
2F2
  8
BEMASSUNG
  6
CONTINUOUS
 10
798.07513941007517
 20
426.72570317295009
 30
0.0
 11
798.07513941007517
 21
278.92570317295019
 31
0.0
  0
INSERT
  5
2F3
  8
UMRISS07
  2
*U74
 10
0.0
 20
0.0
 30
0.0
  0
SOLID
  5
2F4
  8
BEMASSUNG
  6
CONTINUOUS
 10
797.141806076742
 20
426.72570317295009
 30
0.0
 11
799.00847274340845
 21
426.72570317295009
 31
0.0
 12
798.07513941007517
 22
432.32570317295011
 32
0.0
 13
798.07513941007517
 23
432.32570317295011
 33
0.0
  0
SOLID
  5
2F5
  8
BEMASSUNG
  6
CONTINUOUS
 10
797.141806076742
 20
278.92570317295019
 30
0.0
 11
799.00847274340845
 21
278.92570317295019
 31
0.0
 12
798.07513941007517
 22
273.32570317295023
 32
0.0
 13
798.07513941007517
 23
273.32570317295023
 33
0.0
  0
POINT
  5
2F6
  8
DEFPOINTS
  6
CONTINUOUS
 62
     0
 10
742.38158625655672
 20
432.32570317295011
 30
0.0
  0
POINT
  5
2F7
  8
DEFPOINTS
  6
CONTINUOUS
 62
     0
 10
742.38158625655672
 20
273.32570317295023
 30
0.0
  0
POINT
  5
2F8
  8
DEFPOINTS
  6
CONTINUOUS
 62
     0
 10
798.07513941007517
 20
273.32570317295023
 30
0.0
  0
ENDBLK
  5
2F9
  8
0
  0
BLOCK
  8
0
  2
*D14
 70
     1
 10
0.0
 20
0.0
 30
0.0
  3
*D14
  1

  0
LINE
  5
2E3
  8
BEMASSUNG
  6
CONTINUOUS
 10
755.58158625655688
 20
380.82570317295
 30
0.0
 11
776.01224002727781
 21
380.82570317295
 31
0.0
  0
LINE
  5
2E4
  8
BEMASSUNG
  6
CONTINUOUS
 10
738.98158625655685
 20
359.32570317295358
 30
0.0
 11
776.01224002727781
 21
359.32570317295358
 31
0.0
  0
LINE
  5
2E5
  8
BEMASSUNG
  6
CONTINUOUS
 10
775.21224002727797
 20
375.22570317294992
 30
0.0
 11
775.21224002727797
 21
364.92570317295372
 31
0.0
  0
SOLID
  5
2E6
  8
BEMASSUNG
  6
CONTINUOUS
 10
774.27890669394469
 20
375.22570317294992
 30
0.0
 11
776.14557336061125
 21
375.22570317294992
 31
0.0
 12
775.21224002727797
 22
380.82570317295
 32
0.0
 13
775.21224002727797
 23
380.82570317295
 33
0.0
  0
SOLID
  5
2E7
  8
BEMASSUNG
  6
CONTINUOUS
 10
774.27890669394469
 20
364.92570317295372
 30
0.0
 11
776.14557336061125
 21
364.92570317295372
 31
0.0
 12
775.21224002727797
 22
359.32570317295358
 32
0.0
 13
775.21224002727797
 23
359.32570317295358
 33
0.0
  0
INSERT
  5
2E8
  8
UMRISS07
  2
*U73
 10
0.0
 20
0.0
 30
0.0
  0
POINT
  5
2E9
  8
DEFPOINTS
  6
CONTINUOUS
 62
     0
 10
754.78158625655681
 20
380.82570317295
 30
0.0
  0
POINT
  5
2EA
  8
DEFPOINTS
  6
CONTINUOUS
 62
     0
 10
738.18158625655701
 20
359.32570317295358
 30
0.0
  0
POINT
  5
2EB
  8
DEFPOINTS
  6
CONTINUOUS
 62
     0
 10
775.21224002727797
 20
359.32570317295358
 30
0.0
  0
ENDBLK
  5
2EC
  8
0
  0
BLOCK
  8
0
  2
*D15
 70
     1
 10
0.0
 20
0.0
 30
0.0
  3
*D15
  1

  0
LINE
  5
2D6
  8
BEMASSUNG
  6
CONTINUOUS
 10
755.58158625655688
 20
380.82570317295
 30
0.0
 11
787.25218905015822
 21
380.82570317295
 31
0.0
  0
LINE
  5
2D7
  8
BEMASSUNG
  6
CONTINUOUS
 10
745.08158625655665
 20
302.82570317294972
 30
0.0
 11
787.25218905015822
 21
302.82570317294972
 31
0.0
  0
LINE
  5
2D8
  8
BEMASSUNG
  6
CONTINUOUS
 10
786.45218905015838
 20
375.22570317294992
 30
0.0
 11
786.45218905015838
 21
308.42570317294968
 31
0.0
  0
SOLID
  5
2D9
  8
BEMASSUNG
  6
CONTINUOUS
 10
785.5188557168251
 20
375.22570317294992
 30
0.0
 11
787.38552238349155
 21
375.22570317294992
 31
0.0
 12
786.45218905015838
 22
380.82570317295
 32
0.0
 13
786.45218905015838
 23
380.82570317295
 33
0.0
  0
SOLID
  5
2DA
  8
BEMASSUNG
  6
CONTINUOUS
 10
785.5188557168251
 20
308.42570317294968
 30
0.0
 11
787.38552238349155
 21
308.42570317294968
 31
0.0
 12
786.45218905015838
 22
302.82570317294972
 32
0.0
 13
786.45218905015838
 23
302.82570317294972
 33
0.0
  0
INSERT
  5
2DB
  8
UMRISS07
  2
*U72
 10
0.0
 20
0.0
 30
0.0
  0
POINT
  5
2DC
  8
DEFPOINTS
  6
CONTINUOUS
 62
     0
 10
754.78158625655681
 20
380.82570317295
 30
0.0
  0
POINT
  5
2DD
  8
DEFPOINTS
  6
CONTINUOUS
 62
     0
 10
744.28158625655669
 20
302.82570317294972
 30
0.0
  0
POINT
  5
2DE
  8
DEFPOINTS
  6
CONTINUOUS
 62
     0
 10
786.45218905015838
 20
302.82570317294972
 30
0.0
  0
ENDBLK
  5
2DF
  8
0
  0
BLOCK
  8
0
  2
*D16
 70
     1
 10
0.0
 20
0.0
 30
0.0
  3
*D16
  1

  0
LINE
  5
2C4
  8
BEMASSUNG
  6
CONTINUOUS
 10
706.78158625655715
 20
380.82570317295023
 30
0.0
 11
702.45482773021183
 21
380.82570317295023
 31
0.0
  0
LINE
  5
2C5
  8
BEMASSUNG
  6
CONTINUOUS
 10
671.98158625655719
 20
324.825693817841
 30
0.0
 11
704.05482773021174
 21
324.825693817841
 31
0.0
  0
LINE
  5
2C6
  8
BEMASSUNG
  6
CONTINUOUS
 10
703.25482773021179
 20
375.22570317295009
 30
0.0
 11
703.25482773021179
 21
330.42569381784102
 31
0.0
  0
SOLID
  5
2C7
  8
BEMASSUNG
  6
CONTINUOUS
 10
702.32149439687851
 20
375.22570317295009
 30
0.0
 11
704.18816106354495
 21
375.22570317295009
 31
0.0
 12
703.25482773021179
 22
380.82570317295023
 32
0.0
 13
703.25482773021179
 23
380.82570317295023
 33
0.0
  0
SOLID
  5
2C8
  8
BEMASSUNG
  6
CONTINUOUS
 10
702.32149439687851
 20
330.42569381784102
 30
0.0
 11
704.18816106354495
 21
330.42569381784102
 31
0.0
 12
703.25482773021179
 22
324.825693817841
 32
0.0
 13
703.25482773021179
 23
324.825693817841
 33
0.0
  0
INSERT
  5
2C9
  8
UMRISS07
  2
*U71
 10
0.0
 20
0.0
 30
0.0
  0
POINT
  5
2CA
  8
DEFPOINTS
  6
CONTINUOUS
 62
     0
 10
707.58158625655722
 20
380.82570317295023
 30
0.0
  0
POINT
  5
2CB
  8
DEFPOINTS
  6
CONTINUOUS
 62
     0
 10
671.18158625655724
 20
324.825693817841
 30
0.0
  0
POINT
  5
2CC
  8
DEFPOINTS
  6
CONTINUOUS
 62
     0
 10
703.25482773021179
 20
324.825693817841
 30
0.0
  0
ENDBLK
  5
2CD
  8
0
  0
BLOCK
  8
0
  2
*D17
 70
     1
 10
0.0
 20
0.0
 30
0.0
  3
*D17
  1

  0
LINE
  5
2B3
  8
BEMASSUNG
  6
CONTINUOUS
 10
674.98158625655219
 20
187.34552826590331
 30
0.0
 11
696.52566892935295
 21
187.34552826590331
 31
0.0
  0
LINE
  5
2B4
  8
BEMASSUNG
  6
CONTINUOUS
 10
692.98887139737792
 20
186.34552826590331
 30
0.0
 11
696.52566892935295
 21
186.34552826590331
 31
0.0
  0
LINE
  5
2B5
  8
BEMASSUNG
  6
CONTINUOUS
 10
695.72566892935288
 20
192.94552826590331
 30
0.0
 11
695.72566892935288
 21
198.5455282659033
 31
0.0
  0
LINE
  5
2B6
  8
BEMASSUNG
  6
CONTINUOUS
 10
695.72566892935288
 20
180.74552826590329
 30
0.0
 11
695.72566892935288
 21
175.14552826590329
 31
0.0
  0
INSERT
  5
2B7
  8
UMRISS07
  2
*U70
 10
0.0
 20
0.0
 30
0.0
  0
LINE
  5
2B8
  8
BEMASSUNG
  6
CONTINUOUS
 10
695.72566892935288
 20
187.34552826590331
 30
0.0
 11
695.72566892935288
 21
186.34552826590331
 31
0.0
  0
SOLID
  5
2B9
  8
BEMASSUNG
  6
CONTINUOUS
 10
694.79233559601971
 20
192.94552826590331
 30
0.0
 11
696.65900226268627
 21
192.94552826590331
 31
0.0
 12
695.72566892935288
 22
187.34552826590331
 32
0.0
 13
695.72566892935288
 23
187.34552826590331
 33
0.0
  0
SOLID
  5
2BA
  8
BEMASSUNG
  6
CONTINUOUS
 10
694.79233559601971
 20
180.74552826590329
 30
0.0
 11
696.65900226268627
 21
180.74552826590329
 31
0.0
 12
695.72566892935288
 22
186.34552826590331
 32
0.0
 13
695.72566892935288
 23
186.34552826590331
 33
0.0
  0
POINT
  5
2BB
  8
DEFPOINTS
  6
CONTINUOUS
 62
     0
 10
674.18158625655235
 20
187.34552826590331
 30
0.0
  0
POINT
  5
2BC
  8
DEFPOINTS
  6
CONTINUOUS
 62
     0
 10
692.18887139737785
 20
186.34552826590331
 30
0.0
  0
POINT
  5
2BD
  8
DEFPOINTS
  6
CONTINUOUS
 62
     0
 10
695.72566892935288
 20
186.34552826590331
 30
0.0
  0
ENDBLK
  5
2BE
  8
0
  0
BLOCK
  8
0
  2
*D18
 70
     1
 10
0.0
 20
0.0
 30
0.0
  3
*D18
  1

  0
LINE
  5
28F
  8
BEMASSUNG
  6
CONTINUOUS
 10
651.18158625655735
 20
340.62569381784101
 30
0.0
 11
651.18158625655735
 21
352.39735501590633
 31
0.0
  0
LINE
  5
290
  8
BEMASSUNG
  6
CONTINUOUS
 10
671.18158625655724
 20
351.46801534184351
 30
0.0
 11
671.18158625655724
 21
350.79735501590619
 31
0.0
  0
LINE
  5
291
  8
BEMASSUNG
  6
CONTINUOUS
 10
656.78158625655738
 20
351.5973550159062
 30
0.0
 11
665.58158625655722
 21
351.5973550159062
 31
0.0
  0
SOLID
  5
292
  8
BEMASSUNG
  6
CONTINUOUS
 10
656.78158625655738
 20
352.53068834923971
 30
0.0
 11
656.78158625655738
 21
350.66402168257292
 31
0.0
 12
651.18158625655735
 22
351.5973550159062
 32
0.0
 13
651.18158625655735
 23
351.5973550159062
 33
0.0
  0
SOLID
  5
293
  8
BEMASSUNG
  6
CONTINUOUS
 10
665.58158625655722
 20
352.53068834923971
 30
0.0
 11
665.58158625655722
 21
350.66402168257292
 31
0.0
 12
671.18158625655724
 22
351.5973550159062
 32
0.0
 13
671.18158625655724
 23
351.5973550159062
 33
0.0
  0
INSERT
  5
294
  8
UMRISS07
  2
*U69
 10
0.0
 20
0.0
 30
0.0
  0
POINT
  5
295
  8
DEFPOINTS
  6
CONTINUOUS
 62
     0
 10
651.18158625655735
 20
339.825693817841
 30
0.0
  0
POINT
  5
296
  8
DEFPOINTS
  6
CONTINUOUS
 62
     0
 10
671.18158625655724
 20
352.26801534184352
 30
0.0
  0
POINT
  5
297
  8
DEFPOINTS
  6
CONTINUOUS
 62
     0
 10
671.18158625655724
 20
351.5973550159062
 30
0.0
  0
ENDBLK
  5
298
  8
0
  0
BLOCK
  8
0
  2
*D19
 70
     1
 10
0.0
 20
0.0
 30
0.0
  3
*D19
  1

  0
LINE
  5
27D
  8
BEMASSUNG
  6
CONTINUOUS
 10
840.01341663485709
 20
246.82570317294949
 30
0.0
 11
822.99001478065668
 21
246.82570317294949
 31
0.0
  0
LINE
  5
27E
  8
BEMASSUNG
  6
CONTINUOUS
 10
846.76341663485698
 20
237.82570317294949
 30
0.0
 11
822.99001478065668
 21
237.82570317294949
 31
0.0
  0
LINE
  5
27F
  8
BEMASSUNG
  6
CONTINUOUS
 10
823.79001478065663
 20
252.42570317294951
 30
0.0
 11
823.79001478065663
 21
258.02570317294948
 31
0.0
  0
LINE
  5
280
  8
BEMASSUNG
  6
CONTINUOUS
 10
823.79001478065663
 20
232.22570317294949
 30
0.0
 11
823.79001478065663
 21
226.6257031729495
 31
0.0
  0
INSERT
  5
281
  8
UMRISS07
  2
*U68
 10
0.0
 20
0.0
 30
0.0
  0
LINE
  5
282
  8
BEMASSUNG
  6
CONTINUOUS
 10
823.79001478065663
 20
246.82570317294949
 30
0.0
 11
823.79001478065663
 21
237.82570317294949
 31
0.0
  0
SOLID
  5
283
  8
BEMASSUNG
  6
CONTINUOUS
 10
822.85668144732335
 20
252.42570317294951
 30
0.0
 11
824.72334811399003
 21
252.42570317294951
 31
0.0
 12
823.79001478065663
 22
246.82570317294949
 32
0.0
 13
823.79001478065663
 23
246.82570317294949
 33
0.0
  0
SOLID
  5
284
  8
BEMASSUNG
  6
CONTINUOUS
 10
822.85668144732335
 20
232.22570317294949
 30
0.0
 11
824.72334811399003
 21
232.22570317294949
 31
0.0
 12
823.79001478065663
 22
237.82570317294949
 32
0.0
 13
823.79001478065663
 23
237.82570317294949
 33
0.0
  0
POINT
  5
285
  8
DEFPOINTS
  6
CONTINUOUS
 62
     0
 10
840.81341663485705
 20
246.82570317294949
 30
0.0
  0
POINT
  5
286
  8
DEFPOINTS
  6
CONTINUOUS
 62
     0
 10
847.56341663485682
 20
237.82570317294949
 30
0.0
  0
POINT
  5
287
  8
DEFPOINTS
  6
CONTINUOUS
 62
     0
 10
823.79001478065663
 20
237.82570317294949
 30
0.0
  0
ENDBLK
  5
288
  8
0
  0
BLOCK
  8
0
  2
*D20
 70
     1
 10
0.0
 20
0.0
 30
0.0
  3
*D20
  1

  0
LINE
  5
268
  8
BEMASSUNG
  6
CONTINUOUS
 10
760.98158625655242
 20
186.3455282659028
 30
0.0
 11
787.94606060967192
 21
186.3455282659028
 31
0.0
  0
LINE
  5
269
  8
BEMASSUNG
  6
CONTINUOUS
 10
760.98158625655242
 20
173.14552826590301
 30
0.0
 11
787.94606060967192
 21
173.14552826590301
 31
0.0
  0
LINE
  5
26A
  8
BEMASSUNG
  6
CONTINUOUS
 10
787.14606060967208
 20
191.94552826590279
 30
0.0
 11
787.14606060967208
 21
197.54552826590279
 31
0.0
  0
LINE
  5
26B
  8
BEMASSUNG
  6
CONTINUOUS
 10
787.14606060967208
 20
167.54552826590299
 30
0.0
 11
787.14606060967208
 21
161.94552826590299
 31
0.0
  0
INSERT
  5
26C
  8
UMRISS07
  2
*U67
 10
0.0
 20
0.0
 30
0.0
  0
LINE
  5
26D
  8
BEMASSUNG
  6
CONTINUOUS
 10
787.14606060967208
 20
186.3455282659028
 30
0.0
 11
787.14606060967208
 21
173.14552826590301
 31
0.0
  0
SOLID
  5
26E
  8
BEMASSUNG
  6
CONTINUOUS
 10
786.21272727633868
 20
191.94552826590279
 30
0.0
 11
788.07939394300524
 21
191.94552826590279
 31
0.0
 12
787.14606060967208
 22
186.3455282659028
 32
0.0
 13
787.14606060967208
 23
186.3455282659028
 33
0.0
  0
SOLID
  5
26F
  8
BEMASSUNG
  6
CONTINUOUS
 10
786.21272727633868
 20
167.54552826590299
 30
0.0
 11
788.07939394300524
 21
167.54552826590299
 31
0.0
 12
787.14606060967208
 22
173.14552826590301
 32
0.0
 13
787.14606060967208
 23
173.14552826590301
 33
0.0
  0
POINT
  5
270
  8
DEFPOINTS
  6
CONTINUOUS
 62
     0
 10
760.18158625655235
 20
186.3455282659028
 30
0.0
  0
POINT
  5
271
  8
DEFPOINTS
  6
CONTINUOUS
 62
     0
 10
760.18158625655235
 20
173.14552826590301
 30
0.0
  0
POINT
  5
272
  8
DEFPOINTS
  6
CONTINUOUS
 62
     0
 10
787.14606060967208
 20
173.14552826590301
 30
0.0
  0
ENDBLK
  5
273
  8
0
  0
BLOCK
  8
0
  2
*D21
 70
     1
 10
0.0
 20
0.0
 30
0.0
  3
*D21
  1

  0
LINE
  5
252
  8
BEMASSUNG
  6
CONTINUOUS
 10
837.56341663485705
 20
323.20498585872218
 30
0.0
 11
837.56341663485705
 21
334.8479787990571
 31
0.0
  0
LINE
  5
253
  8
BEMASSUNG
  6
CONTINUOUS
 10
841.26341663485721
 20
333.71528971669721
 30
0.0
 11
841.26341663485721
 21
333.24797879905719
 31
0.0
  0
LINE
  5
254
  8
BEMASSUNG
  6
CONTINUOUS
 10
831.96341663485714
 20
334.0479787990572
 30
0.0
 11
826.363416634857
 21
334.0479787990572
 31
0.0
  0
LINE
  5
255
  8
BEMASSUNG
  6
CONTINUOUS
 10
846.86341663485723
 20
334.0479787990572
 30
0.0
 11
852.46341663485714
 21
334.0479787990572
 31
0.0
  0
INSERT
  5
256
  8
UMRISS07
  2
*U66
 10
0.0
 20
0.0
 30
0.0
  0
LINE
  5
257
  8
BEMASSUNG
  6
CONTINUOUS
 10
837.56341663485705
 20
334.0479787990572
 30
0.0
 11
841.26341663485721
 21
334.0479787990572
 31
0.0
  0
SOLID
  5
258
  8
BEMASSUNG
  6
CONTINUOUS
 10
831.96341663485714
 20
334.98131213239043
 30
0.0
 11
831.96341663485714
 21
333.11464546572381
 31
0.0
 12
837.56341663485705
 22
334.0479787990572
 32
0.0
 13
837.56341663485705
 23
334.0479787990572
 33
0.0
  0
SOLID
  5
259
  8
BEMASSUNG
  6
CONTINUOUS
 10
846.86341663485723
 20
334.98131213239043
 30
0.0
 11
846.86341663485723
 21
333.11464546572381
 31
0.0
 12
841.26341663485721
 22
334.0479787990572
 32
0.0
 13
841.26341663485721
 23
334.0479787990572
 33
0.0
  0
POINT
  5
25A
  8
DEFPOINTS
  6
CONTINUOUS
 62
     0
 10
837.56341663485705
 20
322.40498585872223
 30
0.0
  0
POINT
  5
25B
  8
DEFPOINTS
  6
CONTINUOUS
 62
     0
 10
841.26341663485721
 20
334.51528971669723
 30
0.0
  0
POINT
  5
25C
  8
DEFPOINTS
  6
CONTINUOUS
 62
     0
 10
841.26341663485721
 20
334.0479787990572
 30
0.0
  0
ENDBLK
  5
25D
  8
0
  0
BLOCK
  8
0
  2
*D22
 70
     1
 10
0.0
 20
0.0
 30
0.0
  3
*D22
  1

  0
LINE
  5
242
  8
BEMASSUNG
  6
CONTINUOUS
 10
744.85681552383619
 20
302.82570317294972
 30
0.0
 11
787.18911462695098
 21
302.82570317294972
 31
0.0
  0
LINE
  5
243
  8
BEMASSUNG
  6
CONTINUOUS
 10
743.18158625655656
 20
273.32570317294937
 30
0.0
 11
787.18911462695098
 21
273.32570317294937
 31
0.0
  0
LINE
  5
244
  8
BEMASSUNG
  6
CONTINUOUS
 10
786.38911462695114
 20
297.22570317294958
 30
0.0
 11
786.38911462695114
 21
278.9257031729494
 31
0.0
  0
SOLID
  5
245
  8
BEMASSUNG
  6
CONTINUOUS
 10
785.45578129361775
 20
297.22570317294958
 30
0.0
 11
787.32244796028442
 21
297.22570317294958
 31
0.0
 12
786.38911462695114
 22
302.82570317294972
 32
0.0
 13
786.38911462695114
 23
302.82570317294972
 33
0.0
  0
SOLID
  5
246
  8
BEMASSUNG
  6
CONTINUOUS
 10
785.45578129361775
 20
278.9257031729494
 30
0.0
 11
787.32244796028442
 21
278.9257031729494
 31
0.0
 12
786.38911462695114
 22
273.32570317294937
 32
0.0
 13
786.38911462695114
 23
273.32570317294937
 33
0.0
  0
INSERT
  5
247
  8
UMRISS07
  2
*U65
 10
0.0
 20
0.0
 30
0.0
  0
POINT
  5
248
  8
DEFPOINTS
  6
CONTINUOUS
 62
     0
 10
744.05681552383624
 20
302.82570317294972
 30
0.0
  0
POINT
  5
249
  8
DEFPOINTS
  6
CONTINUOUS
 62
     0
 10
742.38158625655672
 20
273.32570317294937
 30
0.0
  0
POINT
  5
24A
  8
DEFPOINTS
  6
CONTINUOUS
 62
     0
 10
786.38911462695114
 20
273.32570317294937
 30
0.0
  0
ENDBLK
  5
24B
  8
0
  0
BLOCK
  8
0
  2
*D23
 70
     1
 10
0.0
 20
0.0
 30
0.0
  3
*D23
  1

  0
LINE
  5
1FE
  8
BEMASSUNG
  6
CONTINUOUS
 10
841.26341663485721
 20
308.9257031729498
 30
0.0
 11
841.26341663485721
 21
298.29022327109448
 31
0.0
  0
LINE
  5
1FF
  8
BEMASSUNG
  6
CONTINUOUS
 10
848.76341663485698
 20
308.9257031729498
 30
0.0
 11
848.76341663485698
 21
298.29022327109448
 31
0.0
  0
LINE
  5
200
  8
BEMASSUNG
  6
CONTINUOUS
 10
835.66341663485707
 20
299.09022327109449
 30
0.0
 11
830.06341663485705
 21
299.09022327109449
 31
0.0
  0
LINE
  5
201
  8
BEMASSUNG
  6
CONTINUOUS
 10
854.36341663485734
 20
299.09022327109449
 30
0.0
 11
859.96341663485725
 21
299.09022327109449
 31
0.0
  0
INSERT
  5
202
  8
UMRISS07
  2
*U64
 10
0.0
 20
0.0
 30
0.0
  0
LINE
  5
203
  8
BEMASSUNG
  6
CONTINUOUS
 10
841.26341663485721
 20
299.09022327109449
 30
0.0
 11
848.76341663485698
 21
299.09022327109449
 31
0.0
  0
SOLID
  5
204
  8
BEMASSUNG
  6
CONTINUOUS
 10
835.66341663485707
 20
300.02355660442782
 30
0.0
 11
835.66341663485707
 21
298.15688993776121
 31
0.0
 12
841.26341663485721
 22
299.09022327109449
 32
0.0
 13
841.26341663485721
 23
299.09022327109449
 33
0.0
  0
SOLID
  5
205
  8
BEMASSUNG
  6
CONTINUOUS
 10
854.36341663485734
 20
300.02355660442782
 30
0.0
 11
854.36341663485734
 21
298.15688993776121
 31
0.0
 12
848.76341663485698
 22
299.09022327109449
 32
0.0
 13
848.76341663485698
 23
299.09022327109449
 33
0.0
  0
POINT
  5
206
  8
DEFPOINTS
  6
CONTINUOUS
 62
     0
 10
841.26341663485721
 20
309.72570317294981
 30
0.0
  0
POINT
  5
207
  8
DEFPOINTS
  6
CONTINUOUS
 62
     0
 10
848.76341663485698
 20
309.72570317294981
 30
0.0
  0
POINT
  5
208
  8
DEFPOINTS
  6
CONTINUOUS
 62
     0
 10
848.76341663485698
 20
299.09022327109449
 30
0.0
  0
ENDBLK
  5
209
  8
0
  0
BLOCK
  8
0
  2
*D24
 70
     1
 10
0.0
 20
0.0
 30
0.0
  3
*D24
  1

  0
LINE
  5
1ED
  8
BEMASSUNG
  6
CONTINUOUS
 10
675.98160368832941
 20
402.82569381784128
 30
0.0
 11
704.05482773021174
 21
402.82569381784128
 31
0.0
  0
LINE
  5
1EE
  8
BEMASSUNG
  6
CONTINUOUS
 10
706.78158625655715
 20
380.82570317295023
 30
0.0
 11
702.45482773021183
 21
380.82570317295023
 31
0.0
  0
LINE
  5
1EF
  8
BEMASSUNG
  6
CONTINUOUS
 10
703.25482773021179
 20
397.22569381784132
 30
0.0
 11
703.25482773021179
 21
386.42570317295019
 31
0.0
  0
SOLID
  5
1F0
  8
BEMASSUNG
  6
CONTINUOUS
 10
702.32149439687851
 20
397.22569381784132
 30
0.0
 11
704.18816106354495
 21
397.22569381784132
 31
0.0
 12
703.25482773021179
 22
402.82569381784128
 32
0.0
 13
703.25482773021179
 23
402.82569381784128
 33
0.0
  0
SOLID
  5
1F1
  8
BEMASSUNG
  6
CONTINUOUS
 10
702.32149439687851
 20
386.42570317295019
 30
0.0
 11
704.18816106354495
 21
386.42570317295019
 31
0.0
 12
703.25482773021179
 22
380.82570317295023
 32
0.0
 13
703.25482773021179
 23
380.82570317295023
 33
0.0
  0
INSERT
  5
1F2
  8
UMRISS07
  2
*U63
 10
0.0
 20
0.0
 30
0.0
  0
POINT
  5
1F3
  8
DEFPOINTS
  6
CONTINUOUS
 62
     0
 10
675.18160368832935
 20
402.82569381784128
 30
0.0
  0
POINT
  5
1F4
  8
DEFPOINTS
  6
CONTINUOUS
 62
     0
 10
707.58158625655722
 20
380.82570317295023
 30
0.0
  0
POINT
  5
1F5
  8
DEFPOINTS
  6
CONTINUOUS
 62
     0
 10
703.25482773021179
 20
380.82570317295023
 30
0.0
  0
ENDBLK
  5
1F6
  8
0
  0
BLOCK
  8
0
  2
*D25
 70
     1
 10
0.0
 20
0.0
 30
0.0
  3
*D25
  1

  0
LINE
  5
1DE
  8
BEMASSUNG
  6
CONTINUOUS
 10
661.18160368832935
 20
418.62569381784152
 30
0.0
 11
661.18160368832935
 21
423.70249329983932
 31
0.0
  0
LINE
  5
1DF
  8
BEMASSUNG
  6
CONTINUOUS
 10
671.18158625655747
 20
424.78513460358931
 30
0.0
 11
671.18158625655747
 21
422.1024932998393
 31
0.0
  0
LINE
  5
1E0
  8
BEMASSUNG
  6
CONTINUOUS
 10
655.58160368832944
 20
422.90249329983931
 30
0.0
 11
649.98160368832941
 21
422.90249329983931
 31
0.0
  0
LINE
  5
1E1
  8
BEMASSUNG
  6
CONTINUOUS
 10
676.78158625655749
 20
422.90249329983931
 30
0.0
 11
682.38158625655763
 21
422.90249329983931
 31
0.0
  0
LINE
  5
1E2
  8
BEMASSUNG
  6
CONTINUOUS
 10
661.18160368832935
 20
422.90249329983931
 30
0.0
 11
671.18158625655747
 21
422.90249329983931
 31
0.0
  0
SOLID
  5
1E3
  8
BEMASSUNG
  6
CONTINUOUS
 10
655.58160368832944
 20
423.83582663317259
 30
0.0
 11
655.58160368832944
 21
421.96915996650591
 31
0.0
 12
661.18160368832935
 22
422.90249329983931
 32
0.0
 13
661.18160368832935
 23
422.90249329983931
 33
0.0
  0
SOLID
  5
1E4
  8
BEMASSUNG
  6
CONTINUOUS
 10
676.78158625655749
 20
423.83582663317259
 30
0.0
 11
676.78158625655749
 21
421.96915996650591
 31
0.0
 12
671.18158625655747
 22
422.90249329983931
 32
0.0
 13
671.18158625655747
 23
422.90249329983931
 33
0.0
  0
INSERT
  5
1E5
  8
UMRISS07
  2
*U62
 10
0.0
 20
0.0
 30
0.0
  0
POINT
  5
1E6
  8
DEFPOINTS
  6
CONTINUOUS
 62
     0
 10
661.18160368832935
 20
417.82569381784151
 30
0.0
  0
POINT
  5
1E7
  8
DEFPOINTS
  6
CONTINUOUS
 62
     0
 10
671.18158625655747
 20
425.58513460358932
 30
0.0
  0
POINT
  5
1E8
  8
DEFPOINTS
  6
CONTINUOUS
 62
     0
 10
671.18158625655747
 20
422.90249329983931
 30
0.0
  0
ENDBLK
  5
1E9
  8
0
  0
BLOCK
  8
0
  2
*D26
 70
     1
 10
0.0
 20
0.0
 30
0.0
  3
*D26
  1

  0
LINE
  5
1B2
  8
BEMASSUNG
  6
CONTINUOUS
 10
840.01341663485709
 20
458.82570317294909
 30
0.0
 11
823.00014623292759
 21
458.82570317294909
 31
0.0
  0
LINE
  5
1B3
  8
BEMASSUNG
  6
CONTINUOUS
 10
846.76341663485698
 20
467.82570317294909
 30
0.0
 11
823.00014623292759
 21
467.82570317294909
 31
0.0
  0
LINE
  5
1B4
  8
BEMASSUNG
  6
CONTINUOUS
 10
823.80014623292755
 20
453.22570317294912
 30
0.0
 11
823.80014623292755
 21
447.6257031729491
 31
0.0
  0
LINE
  5
1B5
  8
BEMASSUNG
  6
CONTINUOUS
 10
823.80014623292755
 20
473.42570317294911
 30
0.0
 11
823.80014623292755
 21
479.02570317294908
 31
0.0
  0
INSERT
  5
1B6
  8
UMRISS07
  2
*U61
 10
0.0
 20
0.0
 30
0.0
  0
LINE
  5
1B7
  8
BEMASSUNG
  6
CONTINUOUS
 10
823.80014623292755
 20
458.82570317294909
 30
0.0
 11
823.80014623292755
 21
467.82570317294909
 31
0.0
  0
SOLID
  5
1B8
  8
BEMASSUNG
  6
CONTINUOUS
 10
822.86681289959427
 20
453.22570317294912
 30
0.0
 11
824.73347956626083
 21
453.22570317294912
 31
0.0
 12
823.80014623292755
 22
458.82570317294909
 32
0.0
 13
823.80014623292755
 23
458.82570317294909
 33
0.0
  0
SOLID
  5
1B9
  8
BEMASSUNG
  6
CONTINUOUS
 10
822.86681289959427
 20
473.42570317294911
 30
0.0
 11
824.73347956626083
 21
473.42570317294911
 31
0.0
 12
823.80014623292755
 22
467.82570317294909
 32
0.0
 13
823.80014623292755
 23
467.82570317294909
 33
0.0
  0
POINT
  5
1BA
  8
DEFPOINTS
  6
CONTINUOUS
 62
     0
 10
840.81341663485705
 20
458.82570317294909
 30
0.0
  0
POINT
  5
1BB
  8
DEFPOINTS
  6
CONTINUOUS
 62
     0
 10
847.56341663485682
 20
467.82570317294909
 30
0.0
  0
POINT
  5
1BC
  8
DEFPOINTS
  6
CONTINUOUS
 62
     0
 10
823.80014623292755
 20
467.82570317294909
 30
0.0
  0
ENDBLK
  5
1BD
  8
0
  0
BLOCK
  8
0
  2
*D27
 70
     1
 10
0.0
 20
0.0
 30
0.0
  3
*D27
  1

  0
LINE
  5
1A3
  8
BEMASSUNG
  6
CONTINUOUS
 10
840.96341663485703
 20
404.69309039674789
 30
0.0
 11
840.96341663485703
 21
404.89470777000417
 31
0.0
  0
LINE
  5
1A4
  8
BEMASSUNG
  6
CONTINUOUS
 10
837.56341663485705
 20
403.39551645663181
 30
0.0
 11
837.56341663485705
 21
403.29470777000421
 31
0.0
  0
LINE
  5
1A5
  8
BEMASSUNG
  6
CONTINUOUS
 10
846.56341663485705
 20
404.09470777000422
 30
0.0
 11
852.16341663485719
 21
404.09470777000422
 31
0.0
  0
LINE
  5
1A6
  8
BEMASSUNG
  6
CONTINUOUS
 10
831.96341663485714
 20
404.09470777000422
 30
0.0
 11
826.363416634857
 21
404.09470777000422
 31
0.0
  0
INSERT
  5
1A7
  8
UMRISS07
  2
*U60
 10
0.0
 20
0.0
 30
0.0
  0
LINE
  5
1A8
  8
BEMASSUNG
  6
CONTINUOUS
 10
840.96341663485703
 20
404.09470777000422
 30
0.0
 11
837.56341663485705
 21
404.09470777000422
 31
0.0
  0
SOLID
  5
1A9
  8
BEMASSUNG
  6
CONTINUOUS
 10
846.56341663485705
 20
405.0280411033375
 30
0.0
 11
846.56341663485705
 21
403.16137443667071
 31
0.0
 12
840.96341663485703
 22
404.09470777000422
 32
0.0
 13
840.96341663485703
 23
404.09470777000422
 33
0.0
  0
SOLID
  5
1AA
  8
BEMASSUNG
  6
CONTINUOUS
 10
831.96341663485714
 20
405.0280411033375
 30
0.0
 11
831.96341663485714
 21
403.16137443667071
 31
0.0
 12
837.56341663485705
 22
404.09470777000422
 32
0.0
 13
837.56341663485705
 23
404.09470777000422
 33
0.0
  0
POINT
  5
1AB
  8
DEFPOINTS
  6
CONTINUOUS
 62
     0
 10
840.96341663485703
 20
403.89309039674788
 30
0.0
  0
POINT
  5
1AC
  8
DEFPOINTS
  6
CONTINUOUS
 62
     0
 10
837.56341663485705
 20
404.19551645663182
 30
0.0
  0
POINT
  5
1AD
  8
DEFPOINTS
  6
CONTINUOUS
 62
     0
 10
837.56341663485705
 20
404.09470777000422
 30
0.0
  0
ENDBLK
  5
1AE
  8
0
  0
BLOCK
  8
0
  2
*D28
 70
     1
 10
0.0
 20
0.0
 30
0.0
  3
*D28
  1

  0
LINE
  5
194
  8
BEMASSUNG
  6
CONTINUOUS
 10
726.68158625655701
 20
427.6257031729499
 30
0.0
 11
726.68158625655701
 21
443.78905934621622
 31
0.0
  0
LINE
  5
195
  8
BEMASSUNG
  6
CONTINUOUS
 10
735.68158625655701
 20
427.6257031729499
 30
0.0
 11
735.68158625655701
 21
443.78905934621622
 31
0.0
  0
LINE
  5
196
  8
BEMASSUNG
  6
CONTINUOUS
 10
721.08158625655699
 20
442.98905934621621
 30
0.0
 11
715.48158625655697
 21
442.98905934621621
 31
0.0
  0
LINE
  5
197
  8
BEMASSUNG
  6
CONTINUOUS
 10
741.28158625655703
 20
442.98905934621621
 30
0.0
 11
746.88158625655694
 21
442.98905934621621
 31
0.0
  0
INSERT
  5
198
  8
UMRISS07
  2
*U59
 10
0.0
 20
0.0
 30
0.0
  0
LINE
  5
199
  8
BEMASSUNG
  6
CONTINUOUS
 10
726.68158625655701
 20
442.98905934621621
 30
0.0
 11
735.68158625655701
 21
442.98905934621621
 31
0.0
  0
SOLID
  5
19A
  8
BEMASSUNG
  6
CONTINUOUS
 10
721.08158625655699
 20
443.92239267954938
 30
0.0
 11
721.08158625655699
 21
442.05572601288281
 31
0.0
 12
726.68158625655701
 22
442.98905934621621
 32
0.0
 13
726.68158625655701
 23
442.98905934621621
 33
0.0
  0
SOLID
  5
19B
  8
BEMASSUNG
  6
CONTINUOUS
 10
741.28158625655703
 20
443.92239267954938
 30
0.0
 11
741.28158625655703
 21
442.05572601288281
 31
0.0
 12
735.68158625655701
 22
442.98905934621621
 32
0.0
 13
735.68158625655701
 23
442.98905934621621
 33
0.0
  0
POINT
  5
19C
  8
DEFPOINTS
  6
CONTINUOUS
 62
     0
 10
726.68158625655701
 20
426.82570317294989
 30
0.0
  0
POINT
  5
19D
  8
DEFPOINTS
  6
CONTINUOUS
 62
     0
 10
735.68158625655701
 20
426.82570317294989
 30
0.0
  0
POINT
  5
19E
  8
DEFPOINTS
  6
CONTINUOUS
 62
     0
 10
735.68158625655701
 20
442.98905934621621
 30
0.0
  0
ENDBLK
  5
19F
  8
0
  0
BLOCK
  8
0
  2
*D29
 70
     1
 10
0.0
 20
0.0
 30
0.0
  3
*D29
  1

  0
LINE
  5
187
  8
BEMASSUNG
  6
CONTINUOUS
 10
743.18158625655656
 20
432.32570317295011
 30
0.0
 11
787.25218905015822
 21
432.32570317295011
 31
0.0
  0
LINE
  5
188
  8
BEMASSUNG
  6
CONTINUOUS
 10
755.58158625655688
 20
380.82570317295
 30
0.0
 11
787.25218905015822
 21
380.82570317295
 31
0.0
  0
LINE
  5
189
  8
BEMASSUNG
  6
CONTINUOUS
 10
786.45218905015838
 20
426.72570317295009
 30
0.0
 11
786.45218905015838
 21
386.42570317295002
 31
0.0
  0
SOLID
  5
18A
  8
BEMASSUNG
  6
CONTINUOUS
 10
785.5188557168251
 20
426.72570317295009
 30
0.0
 11
787.38552238349155
 21
426.72570317295009
 31
0.0
 12
786.45218905015838
 22
432.32570317295011
 32
0.0
 13
786.45218905015838
 23
432.32570317295011
 33
0.0
  0
SOLID
  5
18B
  8
BEMASSUNG
  6
CONTINUOUS
 10
785.5188557168251
 20
386.42570317295002
 30
0.0
 11
787.38552238349155
 21
386.42570317295002
 31
0.0
 12
786.45218905015838
 22
380.82570317295
 32
0.0
 13
786.45218905015838
 23
380.82570317295
 33
0.0
  0
INSERT
  5
18C
  8
UMRISS07
  2
*U58
 10
0.0
 20
0.0
 30
0.0
  0
POINT
  5
18D
  8
DEFPOINTS
  6
CONTINUOUS
 62
     0
 10
742.38158625655672
 20
432.32570317295011
 30
0.0
  0
POINT
  5
18E
  8
DEFPOINTS
  6
CONTINUOUS
 62
     0
 10
754.78158625655681
 20
380.82570317295
 30
0.0
  0
POINT
  5
18F
  8
DEFPOINTS
  6
CONTINUOUS
 62
     0
 10
786.45218905015838
 20
380.82570317295
 30
0.0
  0
ENDBLK
  5
190
  8
0
  0
BLOCK
  8
0
  2
*D30
 70
     1
 10
0.0
 20
0.0
 30
0.0
  3
*D30
  1

  0
LINE
  5
177
  8
BEMASSUNG
  6
CONTINUOUS
 10
755.58158625655688
 20
380.82570317295
 30
0.0
 11
776.01224002727781
 21
380.82570317295
 31
0.0
  0
LINE
  5
178
  8
BEMASSUNG
  6
CONTINUOUS
 10
738.98158625655685
 20
426.82570317294989
 30
0.0
 11
776.01224002727781
 21
426.82570317294989
 31
0.0
  0
LINE
  5
179
  8
BEMASSUNG
  6
CONTINUOUS
 10
775.21224002727797
 20
386.42570317295002
 30
0.0
 11
775.21224002727797
 21
421.22570317294992
 31
0.0
  0
SOLID
  5
17A
  8
BEMASSUNG
  6
CONTINUOUS
 10
774.27890669394469
 20
386.42570317295002
 30
0.0
 11
776.14557336061125
 21
386.42570317295002
 31
0.0
 12
775.21224002727797
 22
380.82570317295
 32
0.0
 13
775.21224002727797
 23
380.82570317295
 33
0.0
  0
SOLID
  5
17B
  8
BEMASSUNG
  6
CONTINUOUS
 10
774.27890669394469
 20
421.22570317294992
 30
0.0
 11
776.14557336061125
 21
421.22570317294992
 31
0.0
 12
775.21224002727797
 22
426.82570317294989
 32
0.0
 13
775.21224002727797
 23
426.82570317294989
 33
0.0
  0
INSERT
  5
17C
  8
UMRISS07
  2
*U57
 10
0.0
 20
0.0
 30
0.0
  0
POINT
  5
17D
  8
DEFPOINTS
  6
CONTINUOUS
 62
     0
 10
754.78158625655681
 20
380.82570317295
 30
0.0
  0
POINT
  5
17E
  8
DEFPOINTS
  6
CONTINUOUS
 62
     0
 10
738.18158625655701
 20
426.82570317294989
 30
0.0
  0
POINT
  5
17F
  8
DEFPOINTS
  6
CONTINUOUS
 62
     0
 10
775.21224002727797
 20
426.82570317294989
 30
0.0
  0
ENDBLK
  5
180
  8
0
  0
BLOCK
  8
0
  2
*D31
 70
     1
 10
0.0
 20
0.0
 30
0.0
  3
*D31
  1

  0
LINE
  5
16A
  8
BEMASSUNG
  6
CONTINUOUS
 10
712.18158625655678
 20
386.2257031729502
 30
0.0
 11
712.18158625655678
 21
405.51157687760173
 31
0.0
  0
LINE
  5
16B
  8
BEMASSUNG
  6
CONTINUOUS
 10
750.18158625655701
 20
386.2257031729502
 30
0.0
 11
750.18158625655701
 21
405.51157687760173
 31
0.0
  0
LINE
  5
16C
  8
BEMASSUNG
  6
CONTINUOUS
 10
717.78158625655703
 20
404.71157687760171
 30
0.0
 11
744.58158625655676
 21
404.71157687760171
 31
0.0
  0
SOLID
  5
16D
  8
BEMASSUNG
  6
CONTINUOUS
 10
717.78158625655703
 20
405.644910210935
 30
0.0
 11
717.78158625655703
 21
403.77824354426832
 31
0.0
 12
712.18158625655678
 22
404.71157687760171
 32
0.0
 13
712.18158625655678
 23
404.71157687760171
 33
0.0
  0
SOLID
  5
16E
  8
BEMASSUNG
  6
CONTINUOUS
 10
744.58158625655676
 20
405.644910210935
 30
0.0
 11
744.58158625655676
 21
403.77824354426832
 31
0.0
 12
750.18158625655701
 22
404.71157687760171
 32
0.0
 13
750.18158625655701
 23
404.71157687760171
 33
0.0
  0
INSERT
  5
16F
  8
UMRISS07
  2
*U56
 10
0.0
 20
0.0
 30
0.0
  0
POINT
  5
170
  8
DEFPOINTS
  6
CONTINUOUS
 62
     0
 10
712.18158625655678
 20
385.42570317295008
 30
0.0
  0
POINT
  5
171
  8
DEFPOINTS
  6
CONTINUOUS
 62
     0
 10
750.18158625655701
 20
385.42570317295008
 30
0.0
  0
POINT
  5
172
  8
DEFPOINTS
  6
CONTINUOUS
 62
     0
 10
750.18158625655701
 20
404.71157687760171
 30
0.0
  0
ENDBLK
  5
173
  8
0
  0
BLOCK
  8
0
  2
*D32
 70
     1
 10
0.0
 20
0.0
 30
0.0
  3
*D32
  1

  0
LINE
  5
13A
  8
BEMASSUNG
  6
CONTINUOUS
 10
840.96341663485703
 20
386.92570317294991
 30
0.0
 11
840.96341663485703
 21
372.49183464386391
 31
0.0
  0
LINE
  5
13B
  8
BEMASSUNG
  6
CONTINUOUS
 10
851.96341663485725
 20
389.42570317294991
 30
0.0
 11
851.96341663485725
 21
372.49183464386391
 31
0.0
  0
LINE
  5
13C
  8
BEMASSUNG
  6
CONTINUOUS
 10
835.36341663485712
 20
373.29183464386392
 30
0.0
 11
829.76341663485687
 21
373.29183464386392
 31
0.0
  0
LINE
  5
13D
  8
BEMASSUNG
  6
CONTINUOUS
 10
857.56341663485728
 20
373.29183464386392
 30
0.0
 11
863.16341663485741
 21
373.29183464386392
 31
0.0
  0
INSERT
  5
13E
  8
UMRISS07
  2
*U55
 10
0.0
 20
0.0
 30
0.0
  0
LINE
  5
13F
  8
BEMASSUNG
  6
CONTINUOUS
 10
840.96341663485703
 20
373.29183464386392
 30
0.0
 11
851.96341663485725
 21
373.29183464386392
 31
0.0
  0
SOLID
  5
140
  8
BEMASSUNG
  6
CONTINUOUS
 10
835.36341663485712
 20
374.2251679771972
 30
0.0
 11
835.36341663485712
 21
372.35850131053058
 31
0.0
 12
840.96341663485703
 22
373.29183464386392
 32
0.0
 13
840.96341663485703
 23
373.29183464386392
 33
0.0
  0
SOLID
  5
141
  8
BEMASSUNG
  6
CONTINUOUS
 10
857.56341663485728
 20
374.2251679771972
 30
0.0
 11
857.56341663485728
 21
372.35850131053058
 31
0.0
 12
851.96341663485725
 22
373.29183464386392
 32
0.0
 13
851.96341663485725
 23
373.29183464386392
 33
0.0
  0
POINT
  5
142
  8
DEFPOINTS
  6
CONTINUOUS
 62
     0
 10
840.96341663485703
 20
387.72570317294992
 30
0.0
  0
POINT
  5
143
  8
DEFPOINTS
  6
CONTINUOUS
 62
     0
 10
851.96341663485725
 20
390.22570317294981
 30
0.0
  0
POINT
  5
144
  8
DEFPOINTS
  6
CONTINUOUS
 62
     0
 10
851.96341663485725
 20
373.29183464386392
 30
0.0
  0
ENDBLK
  5
145
  8
0
  0
BLOCK
  8
0
  2
*D33
 70
     1
 10
0.0
 20
0.0
 30
0.0
  3
*D33
  1

  0
LINE
  5
69
  8
BEMASSUNG
  6
CONTINUOUS
 10
735.68158625655735
 20
385.62570317295013
 30
0.0
 11
735.68158625655735
 21
391.41862593068947
 31
0.0
  0
LINE
  5
6A
  8
BEMASSUNG
  6
CONTINUOUS
 10
726.68158625655656
 20
385.62570317294978
 30
0.0
 11
726.68158625655656
 21
391.41862593068947
 31
0.0
  0
LINE
  5
6B
  8
BEMASSUNG
  6
CONTINUOUS
 10
741.28158625655715
 20
390.61862593068952
 30
0.0
 11
746.88158625655717
 21
390.61862593068952
 31
0.0
  0
LINE
  5
6C
  8
BEMASSUNG
  6
CONTINUOUS
 10
721.08158625655665
 20
390.61862593068952
 30
0.0
 11
715.48158625655674
 21
390.61862593068952
 31
0.0
  0
INSERT
  5
6D
  8
UMRISS07
  2
*U42
 10
0.0
 20
0.0
 30
0.0
  0
LINE
  5
6E
  8
BEMASSUNG
  6
CONTINUOUS
 10
735.68158625655735
 20
390.61862593068952
 30
0.0
 11
726.68158625655656
 21
390.61862593068952
 31
0.0
  0
SOLID
  5
6F
  8
BEMASSUNG
  6
CONTINUOUS
 10
741.28158625655715
 20
391.55195926402291
 30
0.0
 11
741.28158625655715
 21
389.68529259735618
 31
0.0
 12
735.68158625655735
 22
390.61862593068952
 32
0.0
 13
735.68158625655735
 23
390.61862593068952
 33
0.0
  0
SOLID
  5
70
  8
BEMASSUNG
  6
CONTINUOUS
 10
721.08158625655665
 20
391.55195926402291
 30
0.0
 11
721.08158625655665
 21
389.68529259735618
 31
0.0
 12
726.68158625655656
 22
390.61862593068952
 32
0.0
 13
726.68158625655656
 23
390.61862593068952
 33
0.0
  0
POINT
  5
71
  8
DEFPOINTS
  6
CONTINUOUS
 62
     0
 10
735.68158625655735
 20
384.82570317295011
 30
0.0
  0
POINT
  5
72
  8
DEFPOINTS
  6
CONTINUOUS
 62
     0
 10
726.68158625655656
 20
384.82570317294977
 30
0.0
  0
POINT
  5
73
  8
DEFPOINTS
  6
CONTINUOUS
 62
     0
 10
726.68158625655656
 20
390.61862593068952
 30
0.0
  0
ENDBLK
  5
74
  8
0
  0
BLOCK
  8
0
  2
*D34
 70
     1
 10
0.0
 20
0.0
 30
0.0
  3
*D34
  1

  0
LINE
  5
4F
  8
BEMASSUNG
  6
CONTINUOUS
 10
837.56341663485705
 20
247.02570317294951
 30
0.0
 11
837.56341663485705
 21
212.3759447106597
 31
0.0
  0
LINE
  5
50
  8
BEMASSUNG
  6
CONTINUOUS
 10
857.56341663485705
 20
247.02570317294951
 30
0.0
 11
857.56341663485705
 21
212.3759447106597
 31
0.0
  0
LINE
  5
51
  8
BEMASSUNG
  6
CONTINUOUS
 10
831.96341663485714
 20
213.17594471065971
 30
0.0
 11
826.363416634857
 21
213.17594471065971
 31
0.0
  0
LINE
  5
52
  8
BEMASSUNG
  6
CONTINUOUS
 10
863.16341663485696
 20
213.17594471065971
 30
0.0
 11
868.76341663485709
 21
213.17594471065971
 31
0.0
  0
LINE
  5
53
  8
BEMASSUNG
  6
CONTINUOUS
 10
837.56341663485705
 20
213.17594471065971
 30
0.0
 11
857.56341663485705
 21
213.17594471065971
 31
0.0
  0
SOLID
  5
54
  8
BEMASSUNG
  6
CONTINUOUS
 10
831.96341663485714
 20
214.10927804399299
 30
0.0
 11
831.96341663485714
 21
212.2426113773264
 31
0.0
 12
837.56341663485705
 22
213.17594471065971
 32
0.0
 13
837.56341663485705
 23
213.17594471065971
 33
0.0
  0
SOLID
  5
55
  8
BEMASSUNG
  6
CONTINUOUS
 10
863.16341663485696
 20
214.10927804399299
 30
0.0
 11
863.16341663485696
 21
212.2426113773264
 31
0.0
 12
857.56341663485705
 22
213.17594471065971
 32
0.0
 13
857.56341663485705
 23
213.17594471065971
 33
0.0
  0
INSERT
  5
56
  8
UMRISS07
  2
*U41
 10
0.0
 20
0.0
 30
0.0
  0
POINT
  5
57
  8
DEFPOINTS
  6
CONTINUOUS
 62
     0
 10
837.56341663485705
 20
247.82570317294949
 30
0.0
  0
POINT
  5
58
  8
DEFPOINTS
  6
CONTINUOUS
 62
     0
 10
857.56341663485705
 20
247.82570317294949
 30
0.0
  0
POINT
  5
59
  8
DEFPOINTS
  6
CONTINUOUS
 62
     0
 10
857.56341663485705
 20
213.17594471065971
 30
0.0
  0
ENDBLK
  5
5A
  8
0
  0
BLOCK
  8
0
  2
*D35
 70
     1
 10
0.0
 20
0.0
 30
0.0
  3
*D35
  1

  0
LINE
  5
42
  8
BEMASSUNG
  6
CONTINUOUS
 10
671.18158625655644
 20
237.02570317294931
 30
0.0
 11
671.18158625655644
 21
212.3984939397798
 31
0.0
  0
LINE
  5
43
  8
BEMASSUNG
  6
CONTINUOUS
 10
731.18158625655701
 20
275.72570317294952
 30
0.0
 11
731.18158625655701
 21
212.3984939397798
 31
0.0
  0
LINE
  5
44
  8
BEMASSUNG
  6
CONTINUOUS
 10
676.78158625655658
 20
213.19849393977981
 30
0.0
 11
725.58158625655699
 21
213.19849393977981
 31
0.0
  0
SOLID
  5
45
  8
BEMASSUNG
  6
CONTINUOUS
 10
676.78158625655658
 20
214.1318272731132
 30
0.0
 11
676.78158625655658
 21
212.2651606064465
 31
0.0
 12
671.18158625655644
 22
213.19849393977981
 32
0.0
 13
671.18158625655644
 23
213.19849393977981
 33
0.0
  0
SOLID
  5
46
  8
BEMASSUNG
  6
CONTINUOUS
 10
725.58158625655699
 20
214.1318272731132
 30
0.0
 11
725.58158625655699
 21
212.2651606064465
 31
0.0
 12
731.18158625655701
 22
213.19849393977981
 32
0.0
 13
731.18158625655701
 23
213.19849393977981
 33
0.0
  0
INSERT
  5
47
  8
UMRISS07
  2
*U40
 10
0.0
 20
0.0
 30
0.0
  0
POINT
  5
48
  8
DEFPOINTS
  6
CONTINUOUS
 62
     0
 10
671.18158625655644
 20
237.82570317294929
 30
0.0
  0
POINT
  5
49
  8
DEFPOINTS
  6
CONTINUOUS
 62
     0
 10
731.18158625655701
 20
276.52570317294948
 30
0.0
  0
POINT
  5
4A
  8
DEFPOINTS
  6
CONTINUOUS
 62
     0
 10
731.18158625655701
 20
213.19849393977981
 30
0.0
  0
ENDBLK
  5
4B
  8
0
  0
BLOCK
  8
0
  2
*D36
 70
     1
 10
0.0
 20
0.0
 30
0.0
  3
*D36
  1

  0
LINE
  5
34
  8
BEMASSUNG
  6
CONTINUOUS
 10
731.18158625655701
 20
275.72570317294952
 30
0.0
 11
731.18158625655701
 21
212.56559046825319
 31
0.0
  0
LINE
  5
35
  8
BEMASSUNG
  6
CONTINUOUS
 10
760.18158625655656
 20
291.64702351650959
 30
0.0
 11
760.18158625655656
 21
212.56559046825319
 31
0.0
  0
LINE
  5
36
  8
BEMASSUNG
  6
CONTINUOUS
 10
736.78158625655703
 20
213.3655904682532
 30
0.0
 11
754.58158625655653
 21
213.3655904682532
 31
0.0
  0
SOLID
  5
37
  8
BEMASSUNG
  6
CONTINUOUS
 10
736.78158625655703
 20
214.2989238015866
 30
0.0
 11
736.78158625655703
 21
212.43225713491989
 31
0.0
 12
731.18158625655701
 22
213.3655904682532
 32
0.0
 13
731.18158625655701
 23
213.3655904682532
 33
0.0
  0
SOLID
  5
38
  8
BEMASSUNG
  6
CONTINUOUS
 10
754.58158625655653
 20
214.2989238015866
 30
0.0
 11
754.58158625655653
 21
212.43225713491989
 31
0.0
 12
760.18158625655656
 22
213.3655904682532
 32
0.0
 13
760.18158625655656
 23
213.3655904682532
 33
0.0
  0
INSERT
  5
39
  8
UMRISS07
  2
*U39
 10
0.0
 20
0.0
 30
0.0
  0
POINT
  5
3A
  8
DEFPOINTS
  6
CONTINUOUS
 62
     0
 10
731.18158625655701
 20
276.52570317294948
 30
0.0
  0
POINT
  5
3C
  8
DEFPOINTS
  6
CONTINUOUS
 62
     0
 10
760.18158625655656
 20
292.44702351650972
 30
0.0
  0
POINT
  5
3D
  8
DEFPOINTS
  6
CONTINUOUS
 62
     0
 10
760.18158625655656
 20
213.3655904682532
 30
0.0
  0
ENDBLK
  5
3E
  8
0
  0
BLOCK
  8
0
  2
*D38
 70
     1
 10
0.0
 20
0.0
 30
0.0
  3
*D38
  1

  0
LINE
  5
433
  8
BEMASSUNG
  6
CONTINUOUS
 10
837.56341663485705
 20
247.02570317294951
 30
0.0
 11
837.56341663485705
 21
212.3759447106597
 31
0.0
  0
LINE
  5
434
  8
BEMASSUNG
  6
CONTINUOUS
 10
857.56341663485705
 20
247.02570317294951
 30
0.0
 11
857.56341663485705
 21
212.3759447106597
 31
0.0
  0
LINE
  5
435
  8
BEMASSUNG
  6
CONTINUOUS
 10
843.16341663485707
 20
213.17594471065971
 30
0.0
 11
851.96341663485725
 21
213.17594471065971
 31
0.0
  0
SOLID
  5
436
  8
BEMASSUNG
  6
CONTINUOUS
 10
843.16341663485707
 20
214.10927804399299
 30
0.0
 11
843.16341663485707
 21
212.2426113773264
 31
0.0
 12
837.56341663485705
 22
213.17594471065971
 32
0.0
 13
837.56341663485705
 23
213.17594471065971
 33
0.0
  0
SOLID
  5
437
  8
BEMASSUNG
  6
CONTINUOUS
 10
851.96341663485725
 20
214.10927804399299
 30
0.0
 11
851.96341663485725
 21
212.2426113773264
 31
0.0
 12
857.56341663485705
 22
213.17594471065971
 32
0.0
 13
857.56341663485705
 23
213.17594471065971
 33
0.0
  0
INSERT
  5
438
  8
UMRISS07
  2
*U75
 10
0.0
 20
0.0
 30
0.0
  0
POINT
  5
439
  8
DEFPOINTS
  6
CONTINUOUS
 62
     0
 10
837.56341663485705
 20
247.82570317294949
 30
0.0
  0
POINT
  5
43A
  8
DEFPOINTS
  6
CONTINUOUS
 62
     0
 10
857.56341663485705
 20
247.82570317294949
 30
0.0
  0
POINT
  5
43B
  8
DEFPOINTS
  6
CONTINUOUS
 62
     0
 10
857.56341663485705
 20
213.17594471065971
 30
0.0
  0
ENDBLK
  5
43D
  8
0
  0
BLOCK
  8
0
  2
*U39
 70
     1
 10
0.0
 20
0.0
 30
0.0
  3
*U39
  1

  0
TEXT
  5
44B
  8
BEMASSUNG
 62
     3
 10
741.28158625655658
 20
214.96559046825331
 30
0.0
 40
5.5999999999999988
  1
29
  7
NORM
  0
ENDBLK
  5
44D
  8
0
  0
BLOCK
  8
0
  2
*U40
 70
     1
 10
0.0
 20
0.0
 30
0.0
  3
*U40
  1

  0
TEXT
  5
44F
  8
BEMASSUNG
 62
     3
 10
696.24825292322328
 20
214.7984939397798
 30
0.0
 40
5.5999999999999988
  1
DM
  7
NORM
  0
ENDBLK
  5
451
  8
0
  0
BLOCK
  8
0
  2
*U41
 70
     1
 10
0.0
 20
0.0
 30
0.0
  3
*U41
  1

  0
TEXT
  5
453
  8
BEMASSUNG
 62
     3
 10
835.29674996819017
 20
217.17594471065971
 30
0.0
 40
5.5999999999999988
  1
18/20
  7
NORM
  0
ENDBLK
  5
455
  8
0
  0
BLOCK
  8
0
  2
*U42
 70
     1
 10
0.0
 20
0.0
 30
0.0
  3
*U42
  1

  0
TEXT
  5
457
  8
BEMASSUNG
 62
     3
 10
717.73274204474683
 20
392.61172125611739
 30
0.0
 40
5.5999999999999988
  1
9
  7
NORM
  0
ENDBLK
  5
459
  8
0
  0
BLOCK
  8
0
  2
*U43
 70
     1
 10
0.0
 20
0.0
 30
0.0
  3
*U43
  1

  0
TEXT
  5
45B
  8
BEMASSUNG
 62
     3
 10
636.9779761539636
 20
173.63629719286581
 30
0.0
 40
5.5999999999999988
  1
1.5
 50
90.0
  7
NORM
  0
ENDBLK
  5
45D
  8
0
  0
BLOCK
  8
0
  2
*U44
 70
     1
 10
0.0
 20
0.0
 30
0.0
  3
*U44
  1

  0
TEXT
  5
45F
  8
BEMASSUNG
 62
     3
 10
654.11976593524889
 20
292.69995152682168
 30
0.0
 40
5.5999999999999988
  1
3.7
  7
NORM
  0
ENDBLK
  5
461
  8
0
  0
BLOCK
  8
0
  2
*U45
 70
     1
 10
0.0
 20
0.0
 30
0.0
  3
*U45
  1

  0
TEXT
  5
463
  8
BEMASSUNG
 62
     3
 10
636.84914004303585
 20
318.95902715117433
 30
0.0
 40
5.5999999999999988
  1
9.8
 50
90.0
  7
NORM
  0
ENDBLK
  5
465
  8
0
  0
BLOCK
  8
0
  2
*U46
 70
     1
 10
0.0
 20
0.0
 30
0.0
  3
*U46
  1

  0
TEXT
  5
467
  8
BEMASSUNG
 62
     3
 10
627.3390449927557
 20
441.54236983961579
 30
0.0
 40
5.5999999999999988
  1
35.5
 50
90.0
  7
NORM
  0
ENDBLK
  5
469
  8
0
  0
BLOCK
  8
0
  2
*U47
 70
     1
 10
0.0
 20
0.0
 30
0.0
  3
*U47
  1

  0
TEXT
  5
46B
  8
BEMASSUNG
 62
     3
 10
626.64064985600783
 20
397.70399968711831
 30
0.0
 40
5.5999999999999988
  1
30
 50
90.0
  7
NORM
  0
ENDBLK
  5
46D
  8
0
  0
BLOCK
  8
0
  2
*U48
 70
     1
 10
0.0
 20
0.0
 30
0.0
  3
*U48
  1

  0
TEXT
  5
46F
  8
BEMASSUNG
 62
     3
 10
627.41439519355242
 20
417.07569849539522
 30
0.0
 40
5.5999999999999988
  1
14.5
 50
90.0
  7
NORM
  0
ENDBLK
  5
471
  8
0
  0
BLOCK
  8
0
  2
*U49
 70
     1
 10
0.0
 20
0.0
 30
0.0
  3
*U49
  1

  0
TEXT
  5
473
  8
BEMASSUNG
 62
     3
 10
627.35242660480606
 20
283.0423651620618
 30
0.0
 40
5.5999999999999988
  1
36.5
 50
90.0
  7
NORM
  0
ENDBLK
  5
475
  8
0
  0
BLOCK
  8
0
  2
*U50
 70
     1
 10
0.0
 20
0.0
 30
0.0
  3
*U50
  1

  0
TEXT
  5
477
  8
BEMASSUNG
 62
     3
 10
626.6322862821977
 20
320.30032996379452
 30
0.0
 40
5.5999999999999988
  1
30
 50
90.0
  7
NORM
  0
ENDBLK
  5
479
  8
0
  0
BLOCK
  8
0
  2
*U51
 70
     1
 10
0.0
 20
0.0
 30
0.0
  3
*U51
  1

  0
TEXT
  5
47B
  8
BEMASSUNG
 62
     3
 10
627.31073185828825
 20
247.04236983961621
 30
0.0
 40
5.5999999999999988
  1
35.5
 50
90.0
  7
NORM
  0
ENDBLK
  5
47D
  8
0
  0
BLOCK
  8
0
  2
*U52
 70
     1
 10
0.0
 20
0.0
 30
0.0
  3
*U52
  1

  0
TEXT
  5
47F
  8
BEMASSUNG
 62
     3
 10
627.35242660480606
 20
359.29236048450781
 30
0.0
 40
5.5999999999999988
  1
48
 50
90.0
  7
NORM
  0
ENDBLK
  5
481
  8
0
  0
BLOCK
  8
0
  2
*U53
 70
     1
 10
0.0
 20
0.0
 30
0.0
  3
*U53
  1

  0
TEXT
  5
483
  8
BEMASSUNG
 62
     3
 10
614.85805712976116
 20
348.3075255216018
 30
0.0
 40
5.5999999999999988
  1
230
 50
90.0
  7
NORM
  0
ENDBLK
  5
485
  8
0
  0
BLOCK
  8
0
  2
*U54
 70
     1
 10
0.0
 20
0.0
 30
0.0
  3
*U54
  1

  0
TEXT
  5
4A0
  8
BEMASSUNG
 62
     3
 10
670.81491958989034
 20
485.99816340067662
 30
0.0
 40
5.5999999999999988
  1
3
  7
NORM
  0
ENDBLK
  5
4A2
  8
0
  0
BLOCK
  8
0
  2
*U55
 70
     1
 10
0.0
 20
0.0
 30
0.0
  3
*U55
  1

  0
TEXT
  5
4A4
  8
BEMASSUNG
 62
     3
 10
842.92933618447626
 20
375.00205648901971
 30
0.0
 40
5.5999999999999988
  1
11
  7
NORM
  0
ENDBLK
  5
4A6
  8
0
  0
BLOCK
  8
0
  2
*U56
 70
     1
 10
0.0
 20
0.0
 30
0.0
  3
*U56
  1

  0
TEXT
  5
4C1
  8
BEMASSUNG
 62
     3
 10
726.64825292322371
 20
406.31157687760168
 30
0.0
 40
5.5999999999999988
  1
38
  7
NORM
  0
ENDBLK
  5
4C3
  8
0
  0
BLOCK
  8
0
  2
*U57
 70
     1
 10
0.0
 20
0.0
 30
0.0
  3
*U57
  1

  0
TEXT
  5
4C5
  8
BEMASSUNG
 62
     3
 10
773.61224002727761
 20
399.42570317295002
 30
0.0
 40
5.5999999999999988
  1
46
 50
90.0
  7
NORM
  0
ENDBLK
  5
4C7
  8
0
  0
BLOCK
  8
0
  2
*U58
 70
     1
 10
0.0
 20
0.0
 30
0.0
  3
*U58
  1

  0
TEXT
  5
4C9
  8
BEMASSUNG
 62
     3
 10
784.85218905015824
 20
398.57570317295028
 30
0.0
 40
5.5999999999999988
  1
51.5
 50
90.0
  7
NORM
  0
ENDBLK
  5
4CB
  8
0
  0
BLOCK
  8
0
  2
*U59
 70
     1
 10
0.0
 20
0.0
 30
0.0
  3
*U59
  1

  0
TEXT
  5
4CD
  8
BEMASSUNG
 62
     3
 10
729.15543430495666
 20
445.1759718193473
 30
0.0
 40
5.5999999999999988
  1
9
  7
NORM
  0
ENDBLK
  5
4CF
  8
0
  0
BLOCK
  8
0
  2
*U60
 70
     1
 10
0.0
 20
0.0
 30
0.0
  3
*U60
  1

  0
TEXT
  5
4D1
  8
BEMASSUNG
 62
     3
 10
820.15255417062258
 20
405.66533949425087
 30
0.0
 40
5.5999999999999988
  1
3.4
  7
NORM
  0
ENDBLK
  5
4D3
  8
0
  0
BLOCK
  8
0
  2
*U61
 70
     1
 10
0.0
 20
0.0
 30
0.0
  3
*U61
  1

  0
TEXT
  5
4D5
  8
BEMASSUNG
 62
     3
 10
822.1627635604342
 20
461.88178556473582
 30
0.0
 40
5.5999999999999988
  1
9
 50
90.0
  7
NORM
  0
ENDBLK
  5
4D7
  8
0
  0
BLOCK
  8
0
  2
*U62
 70
     1
 10
0.0
 20
0.0
 30
0.0
  3
*U62
  1

  0
TEXT
  5
4D9
  8
BEMASSUNG
 62
     3
 10
662.18159497244335
 20
424.5024932998391
 30
0.0
 40
5.5999999999999988
  1
10
  7
NORM
  0
ENDBLK
  5
4DB
  8
0
  0
BLOCK
  8
0
  2
*U63
 70
     1
 10
0.0
 20
0.0
 30
0.0
  3
*U63
  1

  0
TEXT
  5
4DD
  8
BEMASSUNG
 62
     3
 10
701.65482773021165
 20
387.29236516206259
 30
0.0
 40
5.5999999999999988
  1
22
 50
90.0
  7
NORM
  0
ENDBLK
  5
4DF
  8
0
  0
BLOCK
  8
0
  2
*U64
 70
     1
 10
0.0
 20
0.0
 30
0.0
  3
*U64
  1

  0
TEXT
  5
4E1
  8
BEMASSUNG
 62
     3
 10
822.52356902699057
 20
300.4316453556263
 30
0.0
 40
5.5999999999999988
  1
7.5
  7
NORM
  0
ENDBLK
  5
4E3
  8
0
  0
BLOCK
  8
0
  2
*U65
 70
     1
 10
0.0
 20
0.0
 30
0.0
  3
*U65
  1

  0
TEXT
  5
503
  8
BEMASSUNG
 62
     3
 10
784.78911462695089
 20
279.5423698396163
 30
0.0
 40
5.5999999999999988
  1
29.5
 50
90.0
  7
NORM
  0
ENDBLK
  5
505
  8
0
  0
BLOCK
  8
0
  2
*U66
 70
     1
 10
0.0
 20
0.0
 30
0.0
  3
*U66
  1

  0
TEXT
  5
525
  8
BEMASSUNG
 62
     3
 10
821.47390182934578
 20
335.76531596611699
 30
0.0
 40
5.5999999999999988
  1
3.7
  7
NORM
  0
ENDBLK
  5
527
  8
0
  0
BLOCK
  8
0
  2
*U67
 70
     1
 10
0.0
 20
0.0
 30
0.0
  3
*U67
  1

  0
TEXT
  5
529
  8
BEMASSUNG
 62
     3
 10
785.3080991665621
 20
151.08623643790651
 30
0.0
 40
5.5999999999999988
  1
13.2
 50
90.0
  7
NORM
  0
ENDBLK
  5
52B
  8
0
  0
BLOCK
  8
0
  2
*U68
 70
     1
 10
0.0
 20
0.0
 30
0.0
  3
*U68
  1

  0
TEXT
  5
52D
  8
BEMASSUNG
 62
     3
 10
822.03957299244416
 20
240.81788939132881
 30
0.0
 40
5.5999999999999988
  1
9
 50
90.0
  7
NORM
  0
ENDBLK
  5
52F
  8
0
  0
BLOCK
  8
0
  2
*U69
 70
     1
 10
0.0
 20
0.0
 30
0.0
  3
*U69
  1

  0
TEXT
  5
531
  8
BEMASSUNG
 62
     3
 10
656.64825292322405
 20
353.19735501590628
 30
0.0
 40
5.5999999999999988
  1
20
  7
NORM
  0
ENDBLK
  5
533
  8
0
  0
BLOCK
  8
0
  2
*U70
 70
     1
 10
0.0
 20
0.0
 30
0.0
  3
*U70
  1

  0
TEXT
  5
54E
  8
BEMASSUNG
 62
     3
 10
693.52746646683829
 20
194.7761421808118
 30
0.0
 40
5.5999999999999988
  1
1
 50
90.0
  7
NORM
  0
ENDBLK
  5
550
  8
0
  0
BLOCK
  8
0
  2
*U71
 70
     1
 10
0.0
 20
0.0
 30
0.0
  3
*U71
  1

  0
TEXT
  5
552
  8
BEMASSUNG
 62
     3
 10
701.65482773021165
 20
348.42569849539569
 30
0.0
 40
5.5999999999999988
  1
56
 50
90.0
  7
NORM
  0
ENDBLK
  5
554
  8
0
  0
BLOCK
  8
0
  2
*U72
 70
     1
 10
0.0
 20
0.0
 30
0.0
  3
*U72
  1

  0
TEXT
  5
556
  8
BEMASSUNG
 62
     3
 10
784.85218905015824
 20
337.29236983961658
 30
0.0
 40
5.5999999999999988
  1
78
 50
90.0
  7
NORM
  0
ENDBLK
  5
558
  8
0
  0
BLOCK
  8
0
  2
*U73
 70
     1
 10
0.0
 20
0.0
 30
0.0
  3
*U73
  1

  0
TEXT
  5
55A
  8
BEMASSUNG
 62
     3
 10
773.61224002727761
 20
362.07570317295188
 30
0.0
 40
5.5999999999999988
  1
21.5
 50
90.0
  7
NORM
  0
ENDBLK
  5
55C
  8
0
  0
BLOCK
  8
0
  2
*U74
 70
     1
 10
0.0
 20
0.0
 30
0.0
  3
*U74
  1

  0
TEXT
  5
55E
  8
BEMASSUNG
 62
     3
 10
796.10225827973704
 20
345.4287734509719
 30
0.0
 40
5.5999999999999988
  1
159
 50
90.0
  7
NORM
  0
ENDBLK
  5
560
  8
0
  0
BLOCK
  8
0
  2
*U75
 70
     1
 10
0.0
 20
0.0
 30
0.0
  3
*U75
  1

  0
TEXT
  5
562
  8
BEMASSUNG
 62
     3
 10
843.03008330152375
 20
214.7759447106597
 30
0.0
 40
5.5999999999999996
  1
20
  7
NORM
  0
ENDBLK
  5
564
  8
0
  0
ENDSEC
  0
SECTION
  2
ENTITIES
  0
DIMENSION
  5
30
  8
BEMASSUNG
  6
CONTINUOUS
  2
*D36
 10
760.18158625655656
 20
213.3655904682532
 30
0.0
 11
745.68158625655667
 21
217.76559046825329
 31
0.0
 13
731.18158625655701
 23
276.52570317294948
 33
0.0
 14
760.18158625655656
 24
292.44702351650972
 34
0.0
  0
DIMENSION
  5
3F
  8
BEMASSUNG
  6
CONTINUOUS
  2
*D35
 10
731.18158625655701
 20
213.19849393977981
 30
0.0
 11
701.18158625655656
 21
217.59849393977979
 31
0.0
  1
DM
 13
671.18158625655644
 23
237.82570317294929
 33
0.0
 14
731.18158625655701
 24
276.52570317294948
 34
0.0
  0
DIMENSION
  5
4C
  8
BEMASSUNG
  6
CONTINUOUS
  2
*D38
 10
857.56341663485705
 20
213.17594471065971
 30
0.0
 11
847.56341663485694
 21
217.57594471065971
 31
0.0
 70
     0
  1
<>
 13
837.56341663485705
 23
247.82570317294949
 33
0.0
 14
857.56341663485705
 24
247.82570317294949
 34
0.0
  0
LINE
  5
5B
  8
UMRISS03
 10
723.73158625655651
 20
346.3257031729508
 30
0.0
 11
723.73158625655651
 21
352.82570317295091
 31
0.0
  0
ARC
  5
5D
  8
UMRISS03
 10
725.88158625655649
 20
352.82570317295091
 30
0.0
 40
2.1499999999999981
 50
0.0
 51
180.0
  0
LINE
  5
5E
  8
UMRISS03
 10
728.03158625655647
 20
352.82570317295091
 30
0.0
 11
728.03158625655647
 21
346.3257031729508
 31
0.0
  0
ARC
  5
5F
  8
UMRISS03
 10
725.88158625655649
 20
346.3257031729508
 30
0.0
 40
2.1499999999999981
 50
180.0
 51
0.0
  0
CIRCLE
  5
60
  8
UMRISS03
 10
725.88158625655637
 20
346.47725405878867
 30
0.0
 40
1.999999999999996
  0
LINE
  5
61
  8
1855
 10
735.68158625655735
 20
385.32570317294977
 30
0.0
 11
735.68158625655735
 21
376.32570317294977
 31
0.0
  0
LINE
  5
63
  8
1855
 10
735.68158625655735
 20
385.32570317294977
 30
0.0
 11
726.68158625655656
 21
385.32570317294977
 31
0.0
  0
LINE
  5
64
  8
1855
 10
726.68158625655656
 20
385.32570317294977
 30
0.0
 11
726.68158625655701
 21
376.32570317294977
 31
0.0
  0
LINE
  5
65
  8
1855
 10
726.68158625655701
 20
376.32570317294977
 30
0.0
 11
735.68158625655735
 21
376.32570317294977
 31
0.0
  0
DIMENSION
  5
66
  8
BEMASSUNG
  6
CONTINUOUS
  2
*D33
 10
726.68158625655656
 20
390.61862593068952
 30
0.0
 11
719.46607537808018
 21
395.4117212561174
 31
0.0
 70
   128
  1
9
 13
735.68158625655735
 23
384.82570317295011
 33
0.0
 14
726.68158625655656
 24
384.82570317294977
 34
0.0
  0
LINE
  5
75
  8
UMRISS05
 10
846.21341663485669
 20
329.75689470760187
 30
0.0
 11
847.71341663485657
 21
329.75689470760187
 31
0.0
  0
LINE
  5
77
  8
UMRISS05
 10
846.21341663485669
 20
319.75689470759829
 30
0.0
 11
847.71341663485657
 21
319.75689470759829
 31
0.0
  0
LINE
  5
78
  8
UMRISS05
 10
847.71341663485657
 20
329.75689470760187
 30
0.0
 11
847.71341663485657
 21
319.75689470759829
 31
0.0
  0
LINE
  5
79
  8
UMRISS05
 10
846.21341663485669
 20
329.75689470760187
 30
0.0
 11
846.21341663485669
 21
319.75689470759829
 31
0.0
  0
LINE
  5
7A
  8
UMRISS05
 10
846.21341663485669
 20
329.75689470760187
 30
0.0
 11
847.71341663485657
 21
329.75689470760187
 31
0.0
  0
LINE
  5
7B
  8
UMRISS05
 10
846.21341663485669
 20
319.75689470759829
 30
0.0
 11
847.71341663485657
 21
319.75689470759829
 31
0.0
  0
LINE
  5
7C
  8
UMRISS05
 10
847.71341663485657
 20
329.75689470760187
 30
0.0
 11
847.71341663485657
 21
319.75689470759829
 31
0.0
  0
LINE
  5
7D
  8
UMRISS05
 10
846.21341663485669
 20
329.75689470760187
 30
0.0
 11
846.21341663485669
 21
319.75689470759829
 31
0.0
  0
DIMENSION
  5
7E
  8
BEMASSUNG
  6
CONTINUOUS
  2
*D11
 10
638.57797615396373
 20
177.49552826590369
 30
0.0
 11
634.17797615396375
 21
178.9696305261991
 31
0.0
 70
   128
  1
1.5
 13
647.48158625655765
 23
178.9955282659038
 33
0.0
 14
647.48158625655765
 24
177.49552826590369
 34
0.0
 50
90.0
  0
LINE
  5
8D
  8
UMRISS05
 10
647.48158625655765
 20
178.99552826590369
 30
0.0
 11
647.48158625655765
 21
177.49552826590369
 31
0.0
  0
LINE
  5
8E
  8
UMRISS05
 10
647.48158625655765
 20
178.9955282659038
 30
0.0
 11
651.18158625655781
 21
178.9955282659038
 31
0.0
  0
LINE
  5
8F
  8
UMRISS05
 10
647.48158625655765
 20
177.4955282659038
 30
0.0
 11
651.18158625655781
 21
177.4955282659038
 31
0.0
  0
DIMENSION
  5
90
  8
BEMASSUNG
  6
CONTINUOUS
  2
*D10
 10
651.18158625655735
 20
291.09995152682183
 30
0.0
 11
659.98643260191545
 21
295.49995152682169
 31
0.0
 70
   128
 13
647.48158625655742
 23
319.92569381784091
 33
0.0
 14
651.18158625655735
 24
309.82569381784077
 34
0.0
  0
DIMENSION
  5
9F
  8
BEMASSUNG
  6
CONTINUOUS
  2
*D9
 10
638.4491400430361
 20
319.92569381784102
 30
0.0
 11
634.049140043036
 21
324.825693817841
 31
0.0
 13
647.48158625655742
 23
329.72569381784098
 33
0.0
 14
647.48158625655742
 24
319.92569381784091
 34
0.0
 50
90.0
  0
DIMENSION
  5
AE
  8
BEMASSUNG
  6
CONTINUOUS
  2
*D8
 10
628.93904499275584
 20
432.32570317294909
 30
0.0
 11
624.53904499275575
 21
450.0757031729492
 31
0.0
 13
671.18158625655701
 23
467.82570317294892
 33
0.0
 14
674.18158625655531
 24
432.32570317294909
 34
0.0
 50
90.0
  0
DIMENSION
  5
BB
  8
BEMASSUNG
  6
CONTINUOUS
  2
*D7
 10
629.01798830947644
 20
417.82569381784151
 30
0.0
 11
623.84064985600776
 21
402.23733302045167
 31
0.0
 70
   128
 13
661.18160368832935
 23
387.82569381784128
 33
0.0
 14
661.18160368832935
 24
417.82569381784128
 34
0.0
 50
90.0
  0
DIMENSION
  5
C8
  8
BEMASSUNG
  6
CONTINUOUS
  2
*D6
 10
629.01439519355245
 20
432.32570317294909
 30
0.0
 11
624.61439519355247
 21
425.07569849539527
 31
0.0
 13
657.16454890829732
 23
417.82569381784151
 33
0.0
 14
670.16453147652294
 24
432.32570317294909
 34
0.0
 50
90.0
  0
LINE
  5
D7
  8
UMRISS05
 10
651.18158625655735
 20
329.72569381784092
 30
0.0
 11
647.48158625655742
 21
329.72569381784098
 31
0.0
  0
LINE
  5
D8
  8
UMRISS05
 10
651.18158625655735
 20
319.92569381784091
 30
0.0
 11
647.48158625655742
 21
319.92569381784102
 31
0.0
  0
DIMENSION
  5
D9
  8
BEMASSUNG
  6
CONTINUOUS
  2
*D5
 10
628.95242660480608
 20
309.82569381784089
 30
0.0
 11
624.5524266048061
 21
291.57569849539522
 31
0.0
 13
674.18158625655644
 23
273.32570317294937
 33
0.0
 14
651.18158625655735
 24
309.82569381784077
 34
0.0
 50
90.0
  0
LINE
  5
E6
  8
UMRISS05
 10
647.48158625655742
 20
319.92569381784091
 30
0.0
 11
647.48158625655742
 21
329.72569381784098
 31
0.0
  0
DIMENSION
  5
E7
  8
BEMASSUNG
  6
CONTINUOUS
  2
*D4
 10
629.00880075730265
 20
339.825693817841
 30
0.0
 11
623.83228628219774
 21
324.83366329712788
 31
0.0
 70
   128
 13
647.16453147652521
 23
309.82569381784077
 33
0.0
 14
651.18158625655735
 24
339.825693817841
 34
0.0
 50
90.0
  0
DIMENSION
  5
F4
  8
BEMASSUNG
  6
CONTINUOUS
  2
*D3
 10
628.91073185828827
 20
237.82570317294929
 30
0.0
 11
624.51073185828818
 21
255.57570317294949
 31
0.0
 13
674.18158625655644
 23
273.32570317294937
 33
0.0
 14
671.18158625655644
 24
237.82570317294929
 34
0.0
 50
90.0
  0
DIMENSION
  5
101
  8
BEMASSUNG
  6
CONTINUOUS
  2
*D2
 10
628.95242660480608
 20
387.82569381784128
 30
0.0
 11
624.5524266048061
 21
363.82569381784123
 31
0.0
 13
647.16453147652521
 23
339.825693817841
 33
0.0
 14
661.18160368832935
 24
387.82569381784128
 34
0.0
 50
90.0
  0
DIMENSION
  5
10E
  8
BEMASSUNG
  6
CONTINUOUS
  2
*D1
 10
617.23697390798225
 20
237.8257031729494
 30
0.0
 11
612.05805712976132
 21
355.50752552160179
 31
0.0
 70
   128
 13
667.16453147652487
 23
467.82570317294892
 33
0.0
 14
667.1645314765243
 24
237.8257031729494
 34
0.0
 50
90.0
  0
CIRCLE
  5
11B
  8
UMRISS03
 10
685.18158625655644
 20
423.32570317294989
 30
0.0
 40
3.5
  0
POLYLINE
  5
11C
  8
UMRISS03
 66
     1
 10
0.0
 20
0.0
 30
0.0
 70
     1
  0
VERTEX
  5
486
  8
UMRISS03
 10
685.3815862565566
 20
425.3257031729492
 30
0.0
  0
VERTEX
  5
487
  8
UMRISS03
 10
684.98158625655674
 20
425.32570317294949
 30
0.0
 42
0.4142135623733172
  0
VERTEX
  5
488
  8
UMRISS03
 10
684.68158625655644
 20
425.02570317294959
 30
0.0
  0
VERTEX
  5
489
  8
UMRISS03
 10
684.68158625655644
 20
423.92570317294962
 30
0.0
 42
-0.4142135623732059
  0
VERTEX
  5
48A
  8
UMRISS03
 10
684.58158625655665
 20
423.8257031729496
 30
0.0
  0
VERTEX
  5
48B
  8
UMRISS03
 10
683.48158625655674
 20
423.82570317294977
 30
0.0
 42
0.4142135623731427
  0
VERTEX
  5
48C
  8
UMRISS03
 10
683.18158625655644
 20
423.52570317294987
 30
0.0
  0
VERTEX
  5
48D
  8
UMRISS03
 10
683.18158625655644
 20
423.12570317295013
 30
0.0
 42
0.4142135623731427
  0
VERTEX
  5
48E
  8
UMRISS03
 10
683.48158625655674
 20
422.82570317295
 30
0.0
  0
VERTEX
  5
48F
  8
UMRISS03
 10
684.58158625655665
 20
422.82570317295051
 30
0.0
 42
-0.4142135623731298
  0
VERTEX
  5
490
  8
UMRISS03
 10
684.68158625655644
 20
422.72570317295049
 30
0.0
  0
VERTEX
  5
491
  8
UMRISS03
 10
684.68158625655644
 20
421.62570317294939
 30
0.0
 42
0.4142135623730774
  0
VERTEX
  5
492
  8
UMRISS03
 10
684.98158625655674
 20
421.32570317294949
 30
0.0
  0
VERTEX
  5
493
  8
UMRISS03
 10
685.38158625655683
 20
421.32570317294949
 30
0.0
 42
0.4142135623731189
  0
VERTEX
  5
494
  8
UMRISS03
 10
685.68158625655644
 20
421.62570317294961
 30
0.0
  0
VERTEX
  5
495
  8
UMRISS03
 10
685.68158625655644
 20
422.72570317294992
 30
0.0
 42
-0.414213562373123
  0
VERTEX
  5
496
  8
UMRISS03
 10
685.78158625655647
 20
422.82570317294989
 30
0.0
  0
VERTEX
  5
497
  8
UMRISS03
 10
686.8815862565566
 20
422.82570317295
 30
0.0
 42
0.4142135623730951
  0
VERTEX
  5
498
  8
UMRISS03
 10
687.18158625655644
 20
423.12570317295013
 30
0.0
  0
VERTEX
  5
499
  8
UMRISS03
 10
687.18158625655644
 20
423.52570317294948
 30
0.0
 42
0.4142135623730475
  0
VERTEX
  5
49A
  8
UMRISS03
 10
686.8815862565566
 20
423.82570317294932
 30
0.0
  0
VERTEX
  5
49B
  8
UMRISS03
 10
685.78158625655647
 20
423.82570317294977
 30
0.0
 42
-0.4142135623729705
  0
VERTEX
  5
49C
  8
UMRISS03
 10
685.68158625655644
 20
423.9257031729498
 30
0.0
  0
VERTEX
  5
49D
  8
UMRISS03
 10
685.68158625655644
 20
425.02570317294931
 30
0.0
 42
0.4142135623730831
  0
SEQEND
  5
49E
  8
UMRISS03
  0
DIMENSION
  5
11D
  8
BEMASSUNG
  6
CONTINUOUS
  2
*D12
 10
674.1815862565569
 20
484.39816340067642
 30
0.0
 11
672.68158625655701
 21
488.79816340067657
 31
0.0
 13
671.18158625655701
 23
467.82570317294892
 33
0.0
 14
674.1815862565569
 24
467.82570317294892
 34
0.0
  0
LINE
  5
12C
  8
ACHSEN
 10
840.81341663485705
 20
458.82570317294909
 30
0.0
 11
854.31341663485705
 21
458.82570317294909
 31
0.0
  0
ARC
  5
12F
  8
UMRISS05
 10
847.56341663485682
 20
457.82570317294909
 30
0.0
 40
10.0
 50
0.0
 51
180.0
  0
CIRCLE
  5
130
  8
UMRISS05
 10
847.56341663485682
 20
458.82570317294909
 30
0.0
 40
2.549999999999998
  0
CIRCLE
  5
131
  8
UMRISS05
 10
847.56341663485682
 20
458.82570317294909
 30
0.0
 40
4.75
  0
LINE
  5
132
  8
ACHSEN
 10
847.56341663485682
 20
465.57570317294909
 30
0.0
 11
847.56341663485682
 21
452.07570317294909
 31
0.0
  0
LINE
  5
133
  8
UMRISS05
 10
840.96341663485703
 20
417.9257031729498
 30
0.0
 11
844.06341663485705
 21
417.9257031729498
 31
0.0
  0
LINE
  5
134
  8
UMRISS05
 10
844.06341663485705
 20
415.42570317294962
 30
0.0
 11
851.96341663485725
 21
415.4257031729498
 31
0.0
  0
LINE
  5
135
  8
UMRISS05
 10
844.06341663485705
 20
390.22570317294981
 30
0.0
 11
851.96341663485725
 21
390.22570317294981
 31
0.0
  0
LINE
  5
136
  8
UMRISS05
 10
840.96341663485703
 20
387.72570317294992
 30
0.0
 11
844.06341663485705
 21
387.72570317294981
 31
0.0
  0
DIMENSION
  5
137
  8
BEMASSUNG
  6
CONTINUOUS
  2
*D32
 10
851.96341663485725
 20
373.29183464386392
 30
0.0
 11
845.72933618447632
 21
377.80205648901972
 31
0.0
 70
   128
 13
840.96341663485703
 23
387.72570317294992
 33
0.0
 14
851.96341663485725
 24
390.22570317294981
 34
0.0
  0
LINE
  5
146
  8
UMRISS05
 10
851.96341663485725
 20
415.4257031729498
 30
0.0
 11
851.96341663485725
 21
390.22570317294981
 31
0.0
  0
ARC
  5
147
  8
UMRISS05
 10
765.18341663485705
 20
402.82570317294989
 30
0.0
 40
79.880000000000237
 50
350.92445498418653
 51
9.0755450158134803
  0
LINE
  5
148
  8
UMRISS05
 10
844.06341663485705
 20
417.92570317294991
 30
0.0
 11
844.06341663485705
 21
387.72570317294981
 31
0.0
  0
LINE
  5
149
  8
UMRISS05
 10
840.96341663485703
 20
417.9257031729498
 30
0.0
 11
840.96341663485703
 21
387.72570317294992
 31
0.0
  0
LINE
  5
14A
  8
UMRISS05
 10
742.38158625655672
 20
430.8257031729492
 30
0.0
 11
742.68661150972605
 21
430.69935757622068
 31
0.0
  0
LINE
  5
14B
  8
UMRISS05
 10
743.74727168150594
 20
431.76001774800051
 30
0.0
 11
742.68661150972605
 21
430.69935757622068
 31
0.0
  0
LINE
  5
14C
  8
UMRISS05
 10
742.38158625655672
 20
432.32570317294909
 30
0.0
 11
742.38158625655672
 21
430.8257031729492
 31
0.0
  0
ARC
  5
14D
  8
UMRISS05
 10
728.98158625655708
 20
431.5373907687046
 30
0.0
 40
0.2
 50
295.02899948762843
 51
0.0
  0
LINE
  5
14E
  8
UMRISS05
 10
729.18158625655701
 20
431.5373907687046
 30
0.0
 11
729.18158625655701
 21
432.32570317294909
 31
0.0
  0
ARC
  5
14F
  8
UMRISS05
 10
733.38158625655728
 20
431.5373907687046
 30
0.0
 40
0.2
 50
180.0
 51
244.97100051237169
  0
LINE
  5
150
  8
UMRISS05
 10
733.18158625655678
 20
431.5373907687046
 30
0.0
 11
733.18158625655678
 21
432.32570317294909
 31
0.0
  0
LINE
  5
151
  8
UMRISS05
 10
733.18158625655656
 20
432.32570317294909
 30
0.0
 11
742.38158625655672
 21
432.32570317294909
 31
0.0
  0
LINE
  5
152
  8
UMRISS05
 10
760.18158625655701
 20
415.32570317294909
 30
0.0
 11
759.12092608477724
 21
414.26504300116932
 31
0.0
  0
LINE
  5
153
  8
UMRISS05
 10
759.12092608477724
 20
414.26504300116932
 30
0.0
 11
760.18004148083935
 21
413.20592760510709
 31
0.0
  0
LINE
  5
154
  8
UMRISS03
 10
742.62763781516026
 20
419.65815635963952
 30
0.0
 11
747.51403944324647
 21
417.87965161434619
 31
0.0
  0
LINE
  5
155
  8
UMRISS03
 10
740.84913306986687
 20
414.77175473155279
 30
0.0
 11
745.73553469795365
 21
412.99324998625951
 31
0.0
  0
LINE
  5
156
  8
UMRISS03
 10
740.84913306986687
 20
414.77175473155279
 30
0.0
 11
742.62763781516026
 21
419.65815635963952
 31
0.0
  0
LINE
  5
157
  8
UMRISS03
 10
745.73553469795365
 20
412.99324998625951
 30
0.0
 11
747.51403944324647
 21
417.87965161434619
 31
0.0
  0
LINE
  5
158
  8
ACHSEN
 10
745.4536206230963
 20
419.82058887178698
 30
0.0
 11
742.90955189001693
 21
412.8308174741112
 31
0.0
  0
LINE
  5
159
  8
ACHSEN
 10
747.24135483435725
 20
415.2120384868868
 30
0.0
 11
741.12181767875575
 21
417.43936785901161
 31
0.0
  0
LINE
  5
15A
  8
ACHSEN
 10
724.42625329859061
 20
426.8257031729496
 30
0.0
 11
737.93691921452296
 21
426.8257031729496
 31
0.0
  0
LINE
  5
15B
  8
ACHSEN
 10
737.64061286679555
 20
426.8257031729496
 30
0.0
 11
724.72255964631825
 21
426.8257031729496
 31
0.0
  0
POLYLINE
  5
15C
  8
UMRISS03
 66
     1
 10
0.0
 20
0.0
 30
0.0
 70
     1
  0
VERTEX
  5
4A7
  8
UMRISS03
 10
733.88158625655694
 20
400.8257031729496
 30
0.0
  0
VERTEX
  5
4A8
  8
UMRISS03
 10
733.48158625655708
 20
400.82570317295023
 30
0.0
 42
0.4142135623733172
  0
VERTEX
  5
4A9
  8
UMRISS03
 10
733.18158625655678
 20
400.5257031729501
 30
0.0
  0
VERTEX
  5
4AA
  8
UMRISS03
 10
733.18158625655678
 20
399.42570317295008
 30
0.0
 42
-0.4142135623732059
  0
VERTEX
  5
4AB
  8
UMRISS03
 10
733.08158625655722
 20
399.32570317295023
 30
0.0
  0
VERTEX
  5
4AC
  8
UMRISS03
 10
731.98158625655719
 20
399.32570317295028
 30
0.0
 42
0.4142135623731427
  0
VERTEX
  5
4AD
  8
UMRISS03
 10
731.68158625655701
 20
399.02570317295039
 30
0.0
  0
VERTEX
  5
4AE
  8
UMRISS03
 10
731.68158625655701
 20
398.62570317295058
 30
0.0
 42
0.4142135623731427
  0
VERTEX
  5
4AF
  8
UMRISS03
 10
731.98158625655719
 20
398.32570317295063
 30
0.0
  0
VERTEX
  5
4B0
  8
UMRISS03
 10
733.08158625655722
 20
398.32570317295108
 30
0.0
 42
-0.4142135623731298
  0
VERTEX
  5
4B1
  8
UMRISS03
 10
733.18158625655678
 20
398.22570317295123
 30
0.0
  0
VERTEX
  5
4B2
  8
UMRISS03
 10
733.18158625655678
 20
397.1257031729499
 30
0.0
 42
0.4142135623730774
  0
VERTEX
  5
4B3
  8
UMRISS03
 10
733.48158625655708
 20
396.82570317294989
 30
0.0
  0
VERTEX
  5
4B4
  8
UMRISS03
 10
733.88158625655728
 20
396.82570317295023
 30
0.0
 42
0.4142135623731189
  0
VERTEX
  5
4B5
  8
UMRISS03
 10
734.18158625655701
 20
397.12570317295013
 30
0.0
  0
VERTEX
  5
4B6
  8
UMRISS03
 10
734.18158625655701
 20
398.22570317295049
 30
0.0
 42
-0.414213562373123
  0
VERTEX
  5
4B7
  8
UMRISS03
 10
734.28158625655681
 20
398.3257031729504
 30
0.0
  0
VERTEX
  5
4B8
  8
UMRISS03
 10
735.38158625655694
 20
398.32570317295063
 30
0.0
 42
0.4142135623730951
  0
VERTEX
  5
4B9
  8
UMRISS03
 10
735.68158625655701
 20
398.62570317295058
 30
0.0
  0
VERTEX
  5
4BA
  8
UMRISS03
 10
735.68158625655701
 20
399.02570317294999
 30
0.0
 42
0.4142135623730475
  0
VERTEX
  5
4BB
  8
UMRISS03
 10
735.38158625655694
 20
399.32570317294989
 30
0.0
  0
VERTEX
  5
4BC
  8
UMRISS03
 10
734.28158625655681
 20
399.32570317295028
 30
0.0
 42
-0.4142135623729705
  0
VERTEX
  5
4BD
  8
UMRISS03
 10
734.18158625655701
 20
399.42570317295031
 30
0.0
  0
VERTEX
  5
4BE
  8
UMRISS03
 10
734.18158625655701
 20
400.5257031729497
 30
0.0
 42
0.4142135623730831
  0
SEQEND
  5
4BF
  8
UMRISS03
  0
LINE
  5
15D
  8
ACHSEN
 10
750.18158625655587
 20
384.81436970997532
 30
0.0
 11
750.18158625655587
 21
376.83703663592428
 31
0.0
  0
CIRCLE
  5
15E
  8
UMRISS05
 10
750.18158625655587
 20
380.82570317294977
 30
0.0
 40
2.6000000000000001
  0
LINE
  5
15F
  8
ACHSEN
 10
750.18158625655701
 20
385.42570317295008
 30
0.0
 11
750.18158625655701
 21
376.22570317294981
 31
0.0
  0
LINE
  5
160
  8
ACHSEN
 10
712.18158625655599
 20
376.1664979591468
 30
0.0
 11
712.18158625655599
 21
385.48490838675292
 31
0.0
  0
LINE
  5
161
  8
ACHSEN
 10
712.18158625655678
 20
385.42570317295008
 30
0.0
 11
712.18158625655678
 21
376.2257031729502
 31
0.0
  0
CIRCLE
  5
162
  8
UMRISS05
 10
712.18158625655599
 20
380.82570317294977
 30
0.0
 40
2.6000000000000001
  0
LINE
  5
163
  8
ACHSEN
 10
754.39547594267196
 20
380.82570317294977
 30
0.0
 11
707.8528079933028
 21
380.82570317294977
 31
0.0
  0
CIRCLE
  5
164
  8
UMRISS05
 10
731.18158625655701
 20
380.82570317295023
 30
0.0
 40
8.0
  0
LINE
  5
165
  8
ACHSEN
 10
754.78158625655681
 20
380.82570317295
 30
0.0
 11
707.58158625655722
 21
380.82570317295023
 31
0.0
  0
CIRCLE
  5
166
  8
UMRISS03
 10
733.68158625655701
 20
398.82570317295028
 30
0.0
 40
3.5
  0
DIMENSION
  5
167
  8
BEMASSUNG
  6
CONTINUOUS
  2
*D31
 10
750.18158625655701
 20
404.71157687760171
 30
0.0
 11
731.18158625655701
 21
409.11157687760169
 31
0.0
 13
712.18158625655678
 23
385.42570317295008
 33
0.0
 14
750.18158625655701
 24
385.42570317295008
 34
0.0
  0
DIMENSION
  5
174
  8
BEMASSUNG
  6
CONTINUOUS
  2
*D30
 10
775.21224002727797
 20
426.82570317294989
 30
0.0
 11
770.81224002727765
 21
403.82570317294989
 31
0.0
 13
754.78158625655681
 23
380.82570317295
 33
0.0
 14
738.18158625655701
 24
426.82570317294989
 34
0.0
 50
90.0
  0
ARC
  5
181
  8
UMRISS05
 10
731.18158625655701
 20
426.82570317294989
 30
0.0
 40
5.0
 50
115.7192795021853
 51
64.280720497814713
  0
LINE
  5
182
  8
UMRISS05
 10
743.74727168150594
 20
431.76001774800051
 30
0.0
 11
760.18158625655701
 21
415.32570317294909
 31
0.0
  0
CIRCLE
  5
183
  8
UMRISS05
 10
731.18158625655701
 20
426.82570317294989
 30
0.0
 40
4.5
  0
DIMENSION
  5
184
  8
BEMASSUNG
  6
CONTINUOUS
  2
*D29
 10
786.45218905015838
 20
380.82570317295
 30
0.0
 11
782.05218905015818
 21
406.57570317295023
 31
0.0
 13
742.38158625655672
 23
432.32570317295011
 33
0.0
 14
754.78158625655681
 24
380.82570317295
 34
0.0
 50
90.0
  0
DIMENSION
  5
191
  8
BEMASSUNG
  6
CONTINUOUS
  2
*D28
 10
735.68158625655701
 20
442.98905934621621
 30
0.0
 11
730.88876763829012
 21
447.97597181934742
 31
0.0
 70
   128
 13
726.68158625655701
 23
426.82570317294989
 33
0.0
 14
735.68158625655701
 24
426.82570317294989
 34
0.0
  0
DIMENSION
  5
1A0
  8
BEMASSUNG
  6
CONTINUOUS
  2
*D27
 10
837.56341663485705
 20
404.09470777000422
 30
0.0
 11
826.15255417062269
 21
408.465339494251
 31
0.0
 70
   128
 13
840.96341663485703
 23
403.89309039674788
 33
0.0
 14
837.56341663485705
 24
404.19551645663182
 34
0.0
  0
DIMENSION
  5
1AF
  8
BEMASSUNG
  6
CONTINUOUS
  2
*D26
 10
823.80014623292755
 20
467.82570317294909
 30
0.0
 11
819.36276356043413
 21
463.61511889806911
 31
0.0
 70
   128
 13
840.81341663485705
 23
458.82570317294909
 33
0.0
 14
847.56341663485682
 24
467.82570317294909
 34
0.0
 50
90.0
  0
LINE
  5
1BE
  8
UMRISS05
 10
671.18158625655701
 20
467.82570317294892
 30
0.0
 11
674.1815862565569
 21
467.82570317294892
 31
0.0
  0
LINE
  5
1BF
  8
ACHSEN
 10
680.68158625655735
 20
458.82570317294892
 30
0.0
 11
666.18158625655292
 21
458.82570317294892
 31
0.0
  0
LINE
  5
1C0
  8
UMRISS05
 10
685.68158625655724
 20
417.82570317295023
 30
0.0
 11
679.18158625655644
 21
417.82570317295023
 31
0.0
  0
LINE
  5
1C1
  8
UMRISS05
 10
674.18158625655724
 20
417.82569381784162
 30
0.0
 11
679.18158625655644
 21
417.82569381784162
 31
0.0
  0
LINE
  5
1C2
  8
UMRISS05
 10
681.18160368832935
 20
405.82569381784128
 30
0.0
 11
685.68158625655701
 21
405.82569381784128
 31
0.0
  0
LINE
  5
1C3
  8
UMRISS05
 10
675.18160368832935
 20
414.82569381784128
 30
0.0
 11
674.18158625655724
 21
414.82569381784128
 31
0.0
  0
ARC
  5
1C4
  8
UMRISS05
 10
677.79174824039615
 20
412.2663013533446
 30
0.0
 40
2.0
 50
137.50000000000321
 51
227.5000000000006
  0
LINE
  5
1C5
  8
UMRISS05
 10
676.3171935667757
 20
413.6174817685756
 30
0.0
 11
680.1733180267712
 21
417.82570317295023
 31
0.0
  0
LINE
  5
1C6
  8
UMRISS05
 10
675.94855489837073
 20
413.95527687238382
 30
0.0
 11
679.4951471743168
 21
417.82570317295023
 31
0.0
  0
LINE
  5
1C7
  8
ACHSEN
 10
677.18160368832935
 20
402.82569381784128
 30
0.0
 11
659.18160368832935
 21
402.82569381784128
 31
0.0
  0
LINE
  5
1C8
  8
UMRISS05
 10
671.18158625655747
 20
414.82569381784128
 30
0.0
 11
661.18160368832935
 21
414.82569381784128
 31
0.0
  0
LINE
  5
1C9
  8
UMRISS05
 10
661.18160368832935
 20
417.82569381784151
 30
0.0
 11
671.18158625655724
 21
417.82569381784151
 31
0.0
  0
LINE
  5
1CA
  8
UMRISS05
 10
680.18233229691816
 20
393.32583718087648
 30
0.0
 11
685.68158625655701
 21
393.32583718087648
 31
0.0
  0
LINE
  5
1CB
  8
UMRISS05
 10
681.18160368832935
 20
399.8256938178414
 30
0.0
 11
685.68158625655701
 21
399.82569381784123
 31
0.0
  0
LINE
  5
1CC
  8
UMRISS05
 10
678.18233229691828
 20
391.32583718087648
 30
0.0
 11
678.18233229691828
 21
388.82570317294977
 31
0.0
  0
LINE
  5
1CD
  8
UMRISS05
 10
675.18160368832935
 20
390.82569381784128
 30
0.0
 11
674.18158625655724
 21
390.82569381784128
 31
0.0
  0
LINE
  5
1CE
  8
UMRISS05
 10
677.57732739497715
 20
409.07192759608807
 30
0.0
 11
677.91512249878485
 21
409.44056626449299
 31
0.0
  0
LINE
  5
1CF
  8
UMRISS05
 10
676.10277272135693
 20
410.42310801131953
 30
0.0
 11
677.57732739497715
 21
409.07192759608807
 31
0.0
  0
ARC
  5
1D0
  8
UMRISS05
 10
680.18233229691816
 20
391.32583718087648
 30
0.0
 40
2.0
 50
90.0
 51
180.0
  0
LINE
  5
1D1
  8
UMRISS05
 10
674.1815862565569
 20
388.82570317294989
 30
0.0
 11
685.68158625655678
 21
388.82570317294972
 31
0.0
  0
LINE
  5
1D2
  8
UMRISS05
 10
671.18158625655747
 20
390.82569381784128
 30
0.0
 11
661.18160368832935
 21
390.82569381784128
 31
0.0
  0
LINE
  5
1D3
  8
UMRISS05
 10
661.18160368832935
 20
387.82569381784128
 30
0.0
 11
671.18158625655747
 21
387.82569381784128
 31
0.0
  0
LINE
  5
1D4
  8
UMRISS05
 10
661.18160368832935
 20
387.82569381784128
 30
0.0
 11
661.18160368832935
 21
417.82569381784151
 31
0.0
  0
LINE
  5
1D5
  8
UMRISS05
 10
670.18160368832901
 20
390.82569381784128
 30
0.0
 11
670.18160368832901
 21
414.82569381784128
 31
0.0
  0
LINE
  5
1D6
  8
UMRISS05
 10
685.68158625655678
 20
388.82570317294972
 30
0.0
 11
685.68158625655724
 21
417.82570317295023
 31
0.0
  0
LINE
  5
1D7
  8
UMRISS05
 10
675.18160368832935
 20
390.82569381784128
 30
0.0
 11
675.18160368832935
 21
414.82569381784128
 31
0.0
  0
ARC
  5
1D8
  8
UMRISS05
 10
681.18160368832935
 20
402.82569381784128
 30
0.0
 40
3.0
 50
90.0
 51
270.0
  0
ARC
  5
1D9
  8
UMRISS05
 10
677.79174824039615
 20
412.2663013533446
 30
0.0
 40
2.5
 50
137.50000000000259
 51
227.50000000000139
  0
LINE
  5
1DA
  8
UMRISS05
 10
676.44056782516475
 20
410.79174667972433
 30
0.0
 11
677.91512249878485
 21
409.44056626449299
 31
0.0
  0
DIMENSION
  5
1DB
  8
BEMASSUNG
  6
CONTINUOUS
  2
*D25
 10
671.18158625655747
 20
422.90249329983931
 30
0.0
 11
666.18159497244335
 21
427.30249329983911
 31
0.0
 13
661.18160368832935
 23
417.82569381784151
 33
0.0
 14
671.18158625655747
 24
425.58513460358932
 34
0.0
  0
DIMENSION
  5
1EA
  8
BEMASSUNG
  6
CONTINUOUS
  2
*D24
 10
703.25482773021179
 20
380.82570317295023
 30
0.0
 11
698.8548277302117
 21
391.8256984953959
 31
0.0
 13
675.18160368832935
 23
402.82569381784128
 33
0.0
 14
707.58158625655722
 24
380.82570317295023
 34
0.0
 50
90.0
  0
LINE
  5
1F7
  8
UMRISS05
 10
674.18158625655531
 20
432.32570317294909
 30
0.0
 11
729.18158625655656
 21
432.32570317294909
 31
0.0
  0
LINE
  5
1F8
  8
UMRISS05
 10
841.26341663485721
 20
339.92570317294991
 30
0.0
 11
848.76341663485698
 21
339.92570317294991
 31
0.0
  0
LINE
  5
1F9
  8
UMRISS05
 10
841.26341663485721
 20
309.72570317294981
 30
0.0
 11
848.76341663485698
 21
309.72570317294981
 31
0.0
  0
LINE
  5
1FA
  8
ACHSEN
 10
838.81341663485705
 20
284.4257031729498
 30
0.0
 11
852.31341663485705
 21
284.4257031729498
 31
0.0
  0
DIMENSION
  5
1FB
  8
BEMASSUNG
  6
CONTINUOUS
  2
*D23
 10
848.76341663485698
 20
299.09022327109449
 30
0.0
 11
828.39023569365725
 21
303.23164535562631
 31
0.0
 70
   128
 13
841.26341663485721
 23
309.72570317294981
 33
0.0
 14
848.76341663485698
 24
309.72570317294981
 34
0.0
  0
CIRCLE
  5
20A
  8
UMRISS05
 10
845.56341663485705
 20
284.4257031729498
 30
0.0
 40
2.75
  0
CIRCLE
  5
20B
  8
UMRISS05
 10
845.56341663485705
 20
284.4257031729498
 30
0.0
 40
4.75
  0
LINE
  5
20C
  8
ACHSEN
 10
845.56341663485705
 20
291.17570317294991
 30
0.0
 11
845.56341663485705
 21
277.6757031729498
 31
0.0
  0
LINE
  5
20D
  8
UMRISS05
 10
841.26341663485721
 20
339.92570317294991
 30
0.0
 11
841.26341663485721
 21
309.72570317294981
 31
0.0
  0
LINE
  5
20E
  8
UMRISS05
 10
848.76341663485698
 20
339.92570317294991
 30
0.0
 11
848.76341663485698
 21
309.72570317294981
 31
0.0
  0
POLYLINE
  5
20F
  8
UMRISS03
 66
     1
 10
0.0
 20
0.0
 30
0.0
 70
     1
  0
VERTEX
  5
4E4
  8
UMRISS03
 10
713.38158625655694
 20
366.8257031729496
 30
0.0
  0
VERTEX
  5
4E5
  8
UMRISS03
 10
712.98158625655708
 20
366.82570317295
 30
0.0
 42
0.4142135623733172
  0
VERTEX
  5
4E6
  8
UMRISS03
 10
712.68158625655701
 20
366.52570317294999
 30
0.0
  0
VERTEX
  5
4E7
  8
UMRISS03
 10
712.68158625655701
 20
365.4257031729498
 30
0.0
 42
-0.4142135623732059
  0
VERTEX
  5
4E8
  8
UMRISS03
 10
712.58158625655722
 20
365.32570317294989
 30
0.0
  0
VERTEX
  5
4E9
  8
UMRISS03
 10
711.48158625655708
 20
365.32570317295028
 30
0.0
 42
0.4142135623731427
  0
VERTEX
  5
4EA
  8
UMRISS03
 10
711.18158625655701
 20
365.02570317295022
 30
0.0
  0
VERTEX
  5
4EB
  8
UMRISS03
 10
711.18158625655701
 20
364.62570317295041
 30
0.0
 42
0.4142135623731427
  0
VERTEX
  5
4EC
  8
UMRISS03
 10
711.48158625655708
 20
364.3257031729504
 30
0.0
  0
VERTEX
  5
4ED
  8
UMRISS03
 10
712.58158625655722
 20
364.3257031729508
 30
0.0
 42
-0.4142135623731298
  0
VERTEX
  5
4EE
  8
UMRISS03
 10
712.68158625655701
 20
364.22570317295089
 30
0.0
  0
VERTEX
  5
4EF
  8
UMRISS03
 10
712.68158625655701
 20
363.12570317294973
 30
0.0
 42
0.4142135623730774
  0
VERTEX
  5
4F0
  8
UMRISS03
 10
712.98158625655708
 20
362.82570317294972
 30
0.0
  0
VERTEX
  5
4F1
  8
UMRISS03
 10
713.38158625655717
 20
362.82570317294989
 30
0.0
 42
0.4142135623731189
  0
VERTEX
  5
4F2
  8
UMRISS03
 10
713.68158625655701
 20
363.1257031729499
 30
0.0
  0
VERTEX
  5
4F3
  8
UMRISS03
 10
713.68158625655701
 20
364.22570317295032
 30
0.0
 42
-0.414213562373123
  0
VERTEX
  5
4F4
  8
UMRISS03
 10
713.78158625655669
 20
364.32570317295023
 30
0.0
  0
VERTEX
  5
4F5
  8
UMRISS03
 10
714.88158625655694
 20
364.3257031729504
 30
0.0
 42
0.4142135623730951
  0
VERTEX
  5
4F6
  8
UMRISS03
 10
715.18158625655701
 20
364.62570317295041
 30
0.0
  0
VERTEX
  5
4F7
  8
UMRISS03
 10
715.18158625655701
 20
365.02570317294982
 30
0.0
 42
0.4142135623730475
  0
VERTEX
  5
4F8
  8
UMRISS03
 10
714.88158625655694
 20
365.32570317294972
 30
0.0
  0
VERTEX
  5
4F9
  8
UMRISS03
 10
713.78158625655669
 20
365.32570317295028
 30
0.0
 42
-0.4142135623729705
  0
VERTEX
  5
4FA
  8
UMRISS03
 10
713.68158625655701
 20
365.42570317295019
 30
0.0
  0
VERTEX
  5
4FB
  8
UMRISS03
 10
713.68158625655701
 20
366.52570317294948
 30
0.0
 42
0.4142135623730831
  0
SEQEND
  5
4FC
  8
UMRISS03
  0
CIRCLE
  5
210
  8
UMRISS03
 10
713.18158625655701
 20
364.82570317295023
 30
0.0
 40
3.5
  0
LINE
  5
211
  8
ACHSEN
 10
737.54419665649505
 20
359.32570317295341
 30
0.0
 11
724.81897585661875
 21
359.32570317295341
 31
0.0
  0
CIRCLE
  5
212
  8
UMRISS05
 10
731.18158625655701
 20
359.32570317295358
 30
0.0
 40
5.0
  0
LINE
  5
213
  8
ACHSEN
 10
738.18158625655701
 20
359.32570317295358
 30
0.0
 11
724.1815862565569
 21
359.32570317295358
 31
0.0
  0
LINE
  5
214
  8
UMRISS03
 10
726.93156757203485
 20
320.21935744403572
 30
0.0
 11
731.18158625655701
 21
320.2193574440355
 31
0.0
  0
LINE
  5
215
  8
UMRISS03
 10
731.18158625655701
 20
324.2193574440355
 30
0.0
 11
726.93156757203474
 21
324.21935744403532
 31
0.0
  0
ARC
  5
216
  8
UMRISS03
 10
731.18158625655701
 20
322.21935744403538
 30
0.0
 40
2.0
 50
269.99999999999352
 51
90.0
  0
ARC
  5
217
  8
UMRISS03
 10
713.32470986535259
 20
319.82570317294949
 30
0.0
 40
7.0
 50
269.99999999998698
 51
315.00000000000142
  0
ARC
  5
218
  8
UMRISS03
 10
713.3247098653527
 20
319.82570317294972
 30
0.0
 40
3.0
 50
254.32553469970441
 51
315.00000000000142
  0
LINE
  5
219
  8
UMRISS03
 10
718.44628619779633
 20
320.70463881827442
 30
0.0
 11
715.4460302089127
 21
317.70438282939023
 31
0.0
  0
LINE
  5
21A
  8
UMRISS03
 10
718.2744573336588
 20
314.87595570464401
 30
0.0
 11
721.27471332254254
 21
317.87621169352821
 31
0.0
  0
LINE
  5
21B
  8
UMRISS03
 10
709.68158625655701
 20
317.6257031729499
 30
0.0
 11
709.94411172653486
 21
317.62570317295013
 31
0.0
  0
ARC
  5
21C
  8
UMRISS03
 10
709.68158625655701
 20
314.32570317295
 30
0.0
 40
1.5
 50
179.9999999999992
 51
269.99999999998698
  0
ARC
  5
21D
  8
UMRISS03
 10
709.68158625655701
 20
316.1257031729499
 30
0.0
 40
1.5
 50
90.0
 51
180.0
  0
LINE
  5
21E
  8
UMRISS03
 10
708.18158625655678
 20
316.1257031729499
 30
0.0
 11
708.18158625655678
 21
314.32570317295
 31
0.0
  0
CIRCLE
  5
21F
  8
UMRISS03
 10
711.1815862565561
 20
314.8257031729496
 30
0.0
 40
2.0
  0
LINE
  5
220
  8
UMRISS03
 10
712.54825273004519
 20
316.92792569408249
 30
0.0
 11
709.94411172653486
 21
317.62570317295013
 31
0.0
  0
LINE
  5
221
  8
UMRISS03
 10
709.68158625655656
 20
312.82570317294989
 30
0.0
 11
713.32470986535168
 21
312.82570317294949
 31
0.0
  0
ARC
  5
222
  8
UMRISS03
 10
726.93156757203485
 20
312.21935744403572
 30
0.0
 40
8.0
 50
90.0
 51
135.0000000000004
  0
ARC
  5
223
  8
UMRISS03
 10
726.93156757203451
 20
312.21935744403532
 30
0.0
 40
12.0
 50
90.0
 51
134.9999999999994
  0
CIRCLE
  5
224
  8
UMRISS03
 10
751.68158625655701
 20
342.32570317294989
 30
0.0
 40
2.049999999999998
  0
LINE
  5
225
  8
UMRISS05
 10
760.18158625655701
 20
290.32570317295028
 30
0.0
 11
759.12092608477724
 21
291.38636334473011
 31
0.0
  0
LINE
  5
226
  8
UMRISS05
 10
760.18158625655701
 20
290.32570317295028
 30
0.0
 11
759.12092608477724
 21
291.38636334473011
 31
0.0
  0
LINE
  5
227
  8
UMRISS05
 10
759.12092608477724
 20
291.38636334473011
 30
0.0
 11
760.18158625655656
 21
292.44702351650972
 31
0.0
  0
LINE
  5
228
  8
ACHSEN
 10
755.68158625655701
 20
295.42570317295031
 30
0.0
 11
744.68158625655701
 21
295.42570317295031
 31
0.0
  0
LINE
  5
229
  8
ACHSEN
 10
741.1815862565569
 20
292.92570317295019
 30
0.0
 11
741.1815862565569
 21
283.72570317294981
 31
0.0
  0
LINE
  5
22A
  8
ACHSEN
 10
745.78158625655681
 20
288.32570317294989
 30
0.0
 11
736.58158625655722
 21
288.32570317294989
 31
0.0
  0
CIRCLE
  5
22B
  8
UMRISS05
 10
741.1815862565569
 20
288.32570317294989
 30
0.0
 40
2.6000000000000001
  0
LINE
  5
22C
  8
ACHSEN
 10
750.18158625655701
 20
300.92570317295031
 30
0.0
 11
750.18158625655701
 21
289.92570317295031
 31
0.0
  0
CIRCLE
  5
22D
  8
UMRISS05
 10
750.18158625655701
 20
295.42570317295031
 30
0.0
 40
3.5
  0
LINE
  5
22E
  8
ACHSEN
 10
721.18158625655701
 20
292.92570317295019
 30
0.0
 11
721.18158625655701
 21
283.72570317294981
 31
0.0
  0
CIRCLE
  5
22F
  8
UMRISS05
 10
721.18158625655701
 20
288.32570317294989
 30
0.0
 40
2.6000000000000001
  0
LINE
  5
230
  8
ACHSEN
 10
725.78158625655681
 20
288.32570317294989
 30
0.0
 11
716.58158625655722
 21
288.32570317294989
 31
0.0
  0
LINE
  5
231
  8
ACHSEN
 10
717.68158625655701
 20
295.42570317295031
 30
0.0
 11
706.68158625655701
 21
295.42570317295031
 31
0.0
  0
LINE
  5
232
  8
UMRISS03
 10
714.62660898764011
 20
287.25413029769589
 30
0.0
 11
709.73656352547357
 21
287.25413029769589
 31
0.0
  0
CIRCLE
  5
233
  8
UMRISS05
 10
712.18158625655678
 20
295.42570317295031
 30
0.0
 40
3.5
  0
LINE
  5
234
  8
ACHSEN
 10
712.18158625655678
 20
300.92570317295031
 30
0.0
 11
712.18158625655678
 21
289.92570317295031
 31
0.0
  0
LINE
  5
235
  8
ACHSEN
 10
744.05681552383624
 20
302.82570317294972
 30
0.0
 11
718.30635698927779
 21
302.82570317294972
 31
0.0
  0
LINE
  5
236
  8
ACHSEN
 10
725.22845164641069
 20
283.62570317294939
 30
0.0
 11
737.13472086670322
 21
283.62570317294961
 31
0.0
  0
LINE
  5
237
  8
UMRISS05
 10
742.38158625655672
 20
274.8257031729504
 30
0.0
 11
742.68661150972605
 21
274.95204876967881
 31
0.0
  0
LINE
  5
238
  8
UMRISS05
 10
743.74727168150594
 20
273.89138859789898
 30
0.0
 11
742.68661150972605
 21
274.95204876967881
 31
0.0
  0
LINE
  5
239
  8
UMRISS05
 10
742.38158625655672
 20
273.32570317294937
 30
0.0
 11
742.38158625655672
 21
274.8257031729504
 31
0.0
  0
LINE
  5
23A
  8
UMRISS03
 10
714.62660898764011
 20
281.59727604820341
 30
0.0
 11
709.73656352547357
 21
281.59727604820341
 31
0.0
  0
POLYLINE
  5
23B
  8
ACHSEN
 66
     1
 10
0.0
 20
0.0
 30
0.0
 70
     1
  0
VERTEX
  5
4FD
  8
ACHSEN
 10
726.08158625655699
 20
282.82570317294972
 30
0.0
  0
VERTEX
  5
4FE
  8
ACHSEN
 10
726.08158625655699
 20
295.90110932204431
 30
0.0
 42
-3.0440380099814961
  0
VERTEX
  5
4FF
  8
ACHSEN
 10
736.28158625655681
 20
295.90110932204431
 30
0.0
  0
VERTEX
  5
500
  8
ACHSEN
 10
736.28158625655681
 20
282.82570317294972
 30
0.0
 42
-0.9999999999999998
  0
SEQEND
  5
501
  8
ACHSEN
  0
ARC
  5
23C
  8
UMRISS03
 10
707.6815862565569
 20
284.42570317294962
 30
0.0
 40
7.4988893001069856
 50
337.84091813060792
 51
22.159081869392029
  0
ARC
  5
23D
  8
UMRISS03
 10
716.68158625655701
 20
284.42570317294962
 30
0.0
 40
7.4988893001069856
 50
157.8409181306092
 51
202.15908186939069
  0
LINE
  5
23E
  8
UMRISS05
 10
743.74727168150594
 20
273.89138859789898
 30
0.0
 11
760.18158625655701
 21
290.32570317295028
 31
0.0
  0
DIMENSION
  5
23F
  8
BEMASSUNG
  6
CONTINUOUS
  2
*D22
 10
786.38911462695114
 20
273.32570317294937
 30
0.0
 11
781.98911462695094
 21
288.07570317294972
 31
0.0
 13
744.05681552383624
 23
302.82570317294972
 33
0.0
 14
742.38158625655672
 24
273.32570317294937
 34
0.0
 50
90.0
  0
POLYLINE
  5
24C
  8
UMRISS05
 66
     1
 10
0.0
 20
0.0
 30
0.0
 70
     1
  0
VERTEX
  5
506
  8
UMRISS05
 10
736.28158625655681
 20
283.62570317294973
 30
0.0
  0
VERTEX
  5
507
  8
UMRISS05
 10
736.28158625655681
 20
292.96669713785673
 30
0.0
 42
4.1096090264888137
  0
VERTEX
  5
508
  8
UMRISS05
 10
726.08158625655699
 20
292.96669713785673
 30
0.0
  0
VERTEX
  5
509
  8
UMRISS05
 10
726.08158625655699
 20
283.62570317294973
 30
0.0
 42
1.0
  0
SEQEND
  5
50A
  8
UMRISS05
  0
CIRCLE
  5
24D
  8
UMRISS03
 10
752.18158625655701
 20
310.82570317294989
 30
0.0
 40
3.5
  0
POLYLINE
  5
24E
  8
UMRISS03
 66
     1
 10
0.0
 20
0.0
 30
0.0
 70
     1
  0
VERTEX
  5
50B
  8
UMRISS03
 10
752.38158625655694
 20
312.82570317294932
 30
0.0
  0
VERTEX
  5
50C
  8
UMRISS03
 10
751.98158625655731
 20
312.82570317294972
 30
0.0
 42
0.4142135623733172
  0
VERTEX
  5
50D
  8
UMRISS03
 10
751.68158625655701
 20
312.52570317294982
 30
0.0
  0
VERTEX
  5
50E
  8
UMRISS03
 10
751.68158625655701
 20
311.42570317294962
 30
0.0
 42
-0.4142135623732059
  0
VERTEX
  5
50F
  8
UMRISS03
 10
751.58158625655688
 20
311.32570317294972
 30
0.0
  0
VERTEX
  5
510
  8
UMRISS03
 10
750.48158625655708
 20
311.32570317294989
 30
0.0
 42
0.4142135623731427
  0
VERTEX
  5
511
  8
UMRISS03
 10
750.18158625655701
 20
311.02570317294999
 30
0.0
  0
VERTEX
  5
512
  8
UMRISS03
 10
750.18158625655701
 20
310.62570317295013
 30
0.0
 42
0.4142135623731427
  0
VERTEX
  5
513
  8
UMRISS03
 10
750.48158625655708
 20
310.32570317295023
 30
0.0
  0
VERTEX
  5
514
  8
UMRISS03
 10
751.58158625655688
 20
310.32570317295063
 30
0.0
 42
-0.4142135623731298
  0
VERTEX
  5
515
  8
UMRISS03
 10
751.68158625655701
 20
310.22570317295072
 30
0.0
  0
VERTEX
  5
516
  8
UMRISS03
 10
751.68158625655701
 20
309.12570317294939
 30
0.0
 42
0.4142135623730774
  0
VERTEX
  5
517
  8
UMRISS03
 10
751.98158625655731
 20
308.82570317294949
 30
0.0
  0
VERTEX
  5
518
  8
UMRISS03
 10
752.38158625655717
 20
308.82570317294972
 30
0.0
 42
0.4142135623731189
  0
VERTEX
  5
519
  8
UMRISS03
 10
752.68158625655701
 20
309.12570317294973
 30
0.0
  0
VERTEX
  5
51A
  8
UMRISS03
 10
752.68158625655701
 20
310.22570317295009
 30
0.0
 42
-0.414213562373123
  0
VERTEX
  5
51B
  8
UMRISS03
 10
752.78158625655669
 20
310.32570317295
 30
0.0
  0
VERTEX
  5
51C
  8
UMRISS03
 10
753.88158625655694
 20
310.32570317295023
 30
0.0
 42
0.4142135623730951
  0
VERTEX
  5
51D
  8
UMRISS03
 10
754.18158625655701
 20
310.62570317295013
 30
0.0
  0
VERTEX
  5
51E
  8
UMRISS03
 10
754.18158625655701
 20
311.02570317294948
 30
0.0
 42
0.4142135623730475
  0
VERTEX
  5
51F
  8
UMRISS03
 10
753.88158625655694
 20
311.32570317294949
 30
0.0
  0
VERTEX
  5
520
  8
UMRISS03
 10
752.78158625655669
 20
311.32570317294989
 30
0.0
 42
-0.4142135623729705
  0
VERTEX
  5
521
  8
UMRISS03
 10
752.68158625655701
 20
311.4257031729498
 30
0.0
  0
VERTEX
  5
522
  8
UMRISS03
 10
752.68158625655701
 20
312.52570317294931
 30
0.0
 42
0.4142135623730831
  0
SEQEND
  5
523
  8
UMRISS03
  0
DIMENSION
  5
24F
  8
BEMASSUNG
  6
CONTINUOUS
  2
*D21
 10
841.26341663485721
 20
334.0479787990572
 30
0.0
 11
827.34056849601257
 21
338.565315966117
 31
0.0
 70
   128
 13
837.56341663485705
 23
322.40498585872223
 33
0.0
 14
841.26341663485721
 24
334.51528971669723
 34
0.0
  0
LINE
  5
25E
  8
ACHSEN
 10
840.81341663485705
 20
246.82570317294949
 30
0.0
 11
854.31341663485705
 21
246.82570317294949
 31
0.0
  0
CIRCLE
  5
25F
  8
UMRISS05
 10
847.56341663485682
 20
246.82570317294949
 30
0.0
 40
2.549999999999998
  0
CIRCLE
  5
260
  8
UMRISS05
 10
847.56341663485682
 20
246.82570317294949
 30
0.0
 40
4.75
  0
ARC
  5
261
  8
UMRISS05
 10
847.56341663485682
 20
247.82570317294949
 30
0.0
 40
10.0
 50
180.0
 51
0.0
  0
LINE
  5
262
  8
UMRISS05
 10
726.68158625655246
 20
184.845528265903
 30
0.0
 11
735.68158625655235
 21
184.845528265903
 31
0.0
  0
LINE
  5
263
  8
UMRISS05
 10
710.39047185569621
 20
186.34552826590331
 30
0.0
 11
760.18158625655235
 21
186.3455282659028
 31
0.0
  0
LINE
  5
264
  8
UMRISS05
 10
726.68158625655246
 20
174.64552826590301
 30
0.0
 11
735.68158625655235
 21
174.64552826590301
 31
0.0
  0
DIMENSION
  5
265
  8
BEMASSUNG
  6
CONTINUOUS
  2
*D20
 10
787.14606060967208
 20
173.14552826590301
 30
0.0
 11
782.50809916656215
 21
159.08623643790651
 31
0.0
 70
   128
 13
760.18158625655235
 23
186.3455282659028
 33
0.0
 14
760.18158625655235
 24
173.14552826590301
 34
0.0
 50
90.0
  0
LINE
  5
274
  8
UMRISS05
 10
760.18158625655735
 20
185.3455282659032
 30
0.0
 11
760.18158625655701
 21
174.14552826590329
 31
0.0
  0
LINE
  5
275
  8
UMRISS05
 10
726.68158625655246
 20
173.14552826590301
 30
0.0
 11
726.68158625655292
 21
186.345528265903
 31
0.0
  0
LINE
  5
276
  8
UMRISS05
 10
735.68158625655235
 20
173.14552826590301
 30
0.0
 11
735.68158625655292
 21
186.345528265903
 31
0.0
  0
LINE
  5
277
  8
UMRISS05
 10
742.56026591299269
 20
186.345528265903
 30
0.0
 11
742.56026591299269
 21
173.14552826590301
 31
0.0
  0
LINE
  5
278
  8
UMRISS05
 10
743.62092608477292
 20
186.345528265903
 30
0.0
 11
743.62092608477292
 21
173.14552826590301
 31
0.0
  0
LINE
  5
279
  8
UMRISS05
 10
760.18158625655235
 20
186.3455282659028
 30
0.0
 11
760.18158625655235
 21
173.14552826590301
 31
0.0
  0
DIMENSION
  5
27A
  8
BEMASSUNG
  6
CONTINUOUS
  2
*D19
 10
823.79001478065663
 20
237.82570317294949
 30
0.0
 11
819.23957299244432
 21
242.5512227246621
 31
0.0
 70
   128
  1
<>
 13
840.81341663485705
 23
246.82570317294949
 33
0.0
 14
847.56341663485682
 24
237.82570317294949
 34
0.0
 50
90.0
  0
LINE
  5
289
  8
ACHSEN
 10
847.56341663485682
 20
253.57570317294949
 30
0.0
 11
847.56341663485682
 21
240.07570317294949
 31
0.0
  0
LINE
  5
28A
  8
ACHSEN
 10
673.18158625655724
 20
324.825693817841
 30
0.0
 11
646.04912029911202
 21
324.825693817841
 31
0.0
  0
LINE
  5
28B
  8
UMRISS05
 10
651.18158625655735
 20
339.825693817841
 30
0.0
 11
671.18158625655747
 21
339.825693817841
 31
0.0
  0
DIMENSION
  5
28C
  8
BEMASSUNG
  6
CONTINUOUS
  2
*D18
 10
671.18158625655724
 20
351.5973550159062
 30
0.0
 11
661.18158625655735
 21
355.99735501590629
 31
0.0
 13
651.18158625655735
 23
339.825693817841
 33
0.0
 14
671.18158625655724
 24
352.26801534184352
 34
0.0
  0
LINE
  5
299
  8
ACHSEN
 10
680.68158625655701
 20
284.42570317294951
 30
0.0
 11
666.18158625655235
 21
284.42570317294951
 31
0.0
  0
POLYLINE
  5
29A
  8
UMRISS03
 66
     1
 10
0.0
 20
0.0
 30
0.0
 70
     1
  0
VERTEX
  5
534
  8
UMRISS03
 10
687.88158625655694
 20
300.82570317294881
 30
0.0
  0
VERTEX
  5
535
  8
UMRISS03
 10
687.48158625655708
 20
300.82570317294932
 30
0.0
 42
0.4142135623733172
  0
VERTEX
  5
536
  8
UMRISS03
 10
687.18158625655678
 20
300.52570317294931
 30
0.0
  0
VERTEX
  5
537
  8
UMRISS03
 10
687.18158625655678
 20
299.42570317294923
 30
0.0
 42
-0.4142135623732059
  0
VERTEX
  5
538
  8
UMRISS03
 10
687.08158625655722
 20
299.32570317294932
 30
0.0
  0
VERTEX
  5
539
  8
UMRISS03
 10
685.98158625655719
 20
299.32570317294949
 30
0.0
 42
0.4142135623731427
  0
VERTEX
  5
53A
  8
UMRISS03
 10
685.68158625655701
 20
299.02570317294948
 30
0.0
  0
VERTEX
  5
53B
  8
UMRISS03
 10
685.68158625655701
 20
298.62570317294973
 30
0.0
 42
0.4142135623731427
  0
VERTEX
  5
53C
  8
UMRISS03
 10
685.98158625655719
 20
298.32570317294972
 30
0.0
  0
VERTEX
  5
53D
  8
UMRISS03
 10
687.08158625655722
 20
298.32570317295023
 30
0.0
 42
-0.4142135623731298
  0
VERTEX
  5
53E
  8
UMRISS03
 10
687.18158625655678
 20
298.22570317295032
 30
0.0
  0
VERTEX
  5
53F
  8
UMRISS03
 10
687.18158625655678
 20
297.12570317294899
 30
0.0
 42
0.4142135623730774
  0
VERTEX
  5
540
  8
UMRISS03
 10
687.48158625655708
 20
296.82570317294909
 30
0.0
  0
VERTEX
  5
541
  8
UMRISS03
 10
687.88158625655728
 20
296.82570317294932
 30
0.0
 42
0.4142135623731189
  0
VERTEX
  5
542
  8
UMRISS03
 10
688.18158625655701
 20
297.1257031729491
 30
0.0
  0
VERTEX
  5
543
  8
UMRISS03
 10
688.18158625655701
 20
298.22570317294958
 30
0.0
 42
-0.414213562373123
  0
VERTEX
  5
544
  8
UMRISS03
 10
688.28158625655681
 20
298.32570317294949
 30
0.0
  0
VERTEX
  5
545
  8
UMRISS03
 10
689.38158625655694
 20
298.32570317294972
 30
0.0
 42
0.4142135623730951
  0
VERTEX
  5
546
  8
UMRISS03
 10
689.68158625655701
 20
298.62570317294973
 30
0.0
  0
VERTEX
  5
547
  8
UMRISS03
 10
689.68158625655701
 20
299.02570317294908
 30
0.0
 42
0.4142135623730475
  0
VERTEX
  5
548
  8
UMRISS03
 10
689.38158625655694
 20
299.32570317294898
 30
0.0
  0
VERTEX
  5
549
  8
UMRISS03
 10
688.28158625655681
 20
299.32570317294949
 30
0.0
 42
-0.4142135623729705
  0
VERTEX
  5
54A
  8
UMRISS03
 10
688.18158625655701
 20
299.4257031729494
 30
0.0
  0
VERTEX
  5
54B
  8
UMRISS03
 10
688.18158625655701
 20
300.52570317294891
 30
0.0
 42
0.4142135623730831
  0
SEQEND
  5
54C
  8
UMRISS03
  0
CIRCLE
  5
29B
  8
UMRISS03
 10
687.68158625655701
 20
298.82570317294949
 30
0.0
 40
3.5
  0
LINE
  5
29C
  8
UMRISS05
 10
651.18158625655735
 20
309.82569381784077
 30
0.0
 11
671.18158625655747
 21
309.82569381784077
 31
0.0
  0
LINE
  5
29D
  8
UMRISS05
 10
651.18158625655735
 20
309.82569381784077
 30
0.0
 11
651.18158625655735
 21
339.825693817841
 31
0.0
  0
LINE
  5
29E
  8
UMRISS05
 10
671.18158625655644
 20
237.8257031729494
 30
0.0
 11
674.18158625655644
 21
237.8257031729494
 31
0.0
  0
LINE
  5
29F
  8
ACHSEN
 10
680.68158625655701
 20
246.82570317294949
 30
0.0
 11
666.18158625655235
 21
246.82570317294949
 31
0.0
  0
LINE
  5
2A0
  8
UMRISS05
 10
671.18158625655644
 20
187.34552826590331
 30
0.0
 11
674.18158625655235
 21
187.34552826590331
 31
0.0
  0
LINE
  5
2A1
  8
UMRISS05
 10
664.1815862565561
 20
183.9455282659035
 30
0.0
 11
671.18158625655235
 21
183.94552826590339
 31
0.0
  0
LINE
  5
2A2
  8
UMRISS05
 10
661.18158625655701
 20
182.9455282659035
 30
0.0
 11
661.18158625655701
 21
180.84552826590379
 31
0.0
  0
LINE
  5
2A3
  8
UMRISS05
 10
651.18158625655781
 20
183.64552826590369
 30
0.0
 11
651.18158625655781
 21
176.44552826590379
 31
0.0
  0
LINE
  5
2A4
  8
UMRISS05
 10
661.18158625655701
 20
180.84552826590371
 30
0.0
 11
671.18158625655235
 21
180.84552826590371
 31
0.0
  0
LINE
  5
2A5
  8
UMRISS05
 10
664.18158625655644
 20
183.94552826590359
 30
0.0
 11
661.18158625655644
 21
182.94552826590339
 31
0.0
  0
LINE
  5
2A6
  8
UMRISS05
 10
651.18158625655781
 20
176.44552826590379
 30
0.0
 11
665.74454921952008
 21
176.4455282659039
 31
0.0
  0
LINE
  5
2A7
  8
UMRISS05
 10
651.18158625655781
 20
183.64552826590369
 30
0.0
 11
663.28158625655681
 21
183.64552826590369
 31
0.0
  0
LINE
  5
2A8
  8
UMRISS05
 10
671.18158625655644
 20
167.34552826590331
 30
0.0
 11
674.18158625655235
 21
167.34552826590331
 31
0.0
  0
LINE
  5
2A9
  8
UMRISS05
 10
674.18158625655235
 20
173.14552826590321
 30
0.0
 11
674.18158625655235
 21
174.64552826590321
 31
0.0
  0
LINE
  5
2AA
  8
UMRISS05
 10
669.58158625655744
 20
172.74552826590369
 30
0.0
 11
671.18158625655235
 21
172.74552826590369
 31
0.0
  0
LINE
  5
2AB
  8
UMRISS05
 10
671.18158625655644
 20
187.34552826590331
 30
0.0
 11
671.18158625655644
 21
167.34552826590331
 31
0.0
  0
LINE
  5
2AC
  8
UMRISS05
 10
674.18158625655235
 20
187.34552826590331
 30
0.0
 11
674.18158625655235
 21
167.34552826590331
 31
0.0
  0
LINE
  5
2AD
  8
UMRISS05
 10
661.18158625655701
 20
180.84552826590371
 30
0.0
 11
669.58158625655722
 21
172.74552826590369
 31
0.0
  0
LINE
  5
2AE
  8
UMRISS05
 10
674.18158625655235
 20
186.34552826590331
 30
0.0
 11
759.18158625655735
 21
186.3455282659032
 31
0.0
  0
LINE
  5
2AF
  8
UMRISS05
 10
674.18158625655235
 20
173.14552826590321
 30
0.0
 11
760.18158625655235
 21
173.14552826590301
 31
0.0
  0
DIMENSION
  5
2B0
  8
BEMASSUNG
  6
CONTINUOUS
  2
*D17
 10
695.72566892935288
 20
186.34552826590331
 30
0.0
 11
690.72746646683834
 21
195.44280884747849
 31
0.0
 70
   128
 13
674.18158625655235
 23
187.34552826590331
 33
0.0
 14
692.18887139737785
 24
186.34552826590331
 34
0.0
 50
90.0
  0
LINE
  5
2BF
  8
UMRISS05
 10
674.18158625655235
 20
273.32570317294937
 30
0.0
 11
742.38158625655672
 21
273.32570317294937
 31
0.0
  0
LINE
  5
2C0
  8
ACHSEN
 10
731.18158625655701
 20
433.51747064374422
 30
0.0
 11
731.18158625655701
 21
276.52570317294948
 31
0.0
  0
DIMENSION
  5
2C1
  8
BEMASSUNG
  6
CONTINUOUS
  2
*D16
 10
703.25482773021179
 20
324.825693817841
 30
0.0
 11
698.8548277302117
 21
352.82569849539573
 31
0.0
 13
707.58158625655722
 23
380.82570317295023
 33
0.0
 14
671.18158625655724
 24
324.825693817841
 34
0.0
 50
90.0
  0
LINE
  5
2CE
  8
UMRISS05
 10
857.56341663485705
 20
457.82570317294909
 30
0.0
 11
857.56341663485705
 21
247.82570317294949
 31
0.0
  0
LINE
  5
2CF
  8
UMRISS05
 10
837.56341663485705
 20
457.82570317294909
 30
0.0
 11
837.56341663485705
 21
247.82570317294949
 31
0.0
  0
LINE
  5
2D0
  8
UMRISS05
 10
671.18158625655644
 20
237.8257031729494
 30
0.0
 11
671.18158625655701
 21
467.82570317294892
 31
0.0
  0
LINE
  5
2D1
  8
UMRISS05
 10
674.18158625655644
 20
237.8257031729494
 30
0.0
 11
674.1815862565569
 21
467.82570317294892
 31
0.0
  0
LINE
  5
2D2
  8
UMRISS05
 10
760.18004148083935
 20
413.20592760510709
 30
0.0
 11
760.18004148083844
 21
292.44547874079171
 31
0.0
  0
DIMENSION
  5
2D3
  8
BEMASSUNG
  6
CONTINUOUS
  2
*D15
 10
786.45218905015838
 20
302.82570317294972
 30
0.0
 11
782.05218905015818
 21
341.82570317295
 31
0.0
 13
754.78158625655681
 23
380.82570317295
 33
0.0
 14
744.28158625655669
 24
302.82570317294972
 34
0.0
 50
90.0
  0
DIMENSION
  5
2E0
  8
BEMASSUNG
  6
CONTINUOUS
  2
*D14
 10
775.21224002727797
 20
359.32570317295358
 30
0.0
 11
770.81224002727765
 21
370.07570317295188
 31
0.0
 13
754.78158625655681
 23
380.82570317295
 33
0.0
 14
738.18158625655701
 24
359.32570317295358
 34
0.0
 50
90.0
  0
DIMENSION
  5
2ED
  8
BEMASSUNG
  6
CONTINUOUS
  2
*D13
 10
798.07513941007517
 20
273.32570317295023
 30
0.0
 11
793.30225827973709
 21
351.96210678430521
 31
0.0
 70
   128
 13
742.38158625655672
 23
432.32570317295011
 33
0.0
 14
742.38158625655672
 24
273.32570317295023
 34
0.0
 50
90.0
  0
ENDSEC
  0
EOF
