  0
SECTION
  2
HEADER
  9
$ACADVER
  1
AC1015
  9
$ACADMAINTVER
 70
     6
  9
$DWGCODEPAGE
  3
ANSI_1252
  9
$INSBASE
 10
0.0
 20
0.0
 30
0.0
  9
$EXTMIN
 10
0.0
 20
0.0
 30
0.0
  9
$EXTMAX
 10
210.0
 20
297.0
 30
0.0
  9
$LIMMIN
 10
0.0
 20
0.0
  9
$LIMMAX
 10
210.0
 20
297.0
  9
$ORTHOMODE
 70
     0
  9
$REGENMODE
 70
     1
  9
$FILLMODE
 70
     1
  9
$QTEXTMODE
 70
     0
  9
$MIRRTEXT
 70
     1
  9
$LTSCALE
 40
1.0
  9
$ATTMODE
 70
     1
  9
$TEXTSIZE
 40
5.0
  9
$TRACEWID
 40
1.0
  9
$TEXTSTYLE
  7
Standard
  9
$CLAYER
  8
0
  9
$CELTYPE
  6
ByLayer
  9
$CECOLOR
 62
   256
  9
$CELTSCALE
 40
1.0
  9
$DISPSILH
 70
     0
  9
$DIMSCALE
 40
1.0
  9
$DIMASZ
 40
3.5
  9
$DIMEXO
 40
1.0
  9
$DIMDLI
 40
3.75
  9
$DIMRND
 40
0.0
  9
$DIMDLE
 40
0.0
  9
$DIMEXE
 40
1.0
  9
$DIMTP
 40
0.0
  9
$DIMTM
 40
0.0
  9
$DIMTXT
 40
3.5
  9
$DIMCEN
 40
2.5
  9
$DIMTSZ
 40
0.0
  9
$DIMTOL
 70
     0
  9
$DIMLIM
 70
     0
  9
$DIMTIH
 70
     1
  9
$DIMTOH
 70
     1
  9
$DIMSE1
 70
     0
  9
$DIMSE2
 70
     0
  9
$DIMTAD
 70
     1
  9
$DIMZIN
 70
     0
  9
$DIMBLK
  1

  9
$DIMASO
 70
     1
  9
$DIMSHO
 70
     1
  9
$DIMPOST
  1

  9
$DIMAPOST
  1

  9
$DIMALT
 70
     0
  9
$DIMALTD
 70
     3
  9
$DIMALTF
 40
0.0393700787
  9
$DIMLFAC
 40
2.0
  9
$DIMTOFL
 70
     1
  9
$DIMTVP
 40
0.0
  9
$DIMTIX
 70
     0
  9
$DIMSOXD
 70
     0
  9
$DIMSAH
 70
     0
  9
$DIMBLK1
  1

  9
$DIMBLK2
  1

  9
$DIMSTYLE
  2
ISO-25
  9
$DIMCLRD
 70
     0
  9
$DIMCLRE
 70
     0
  9
$DIMCLRT
 70
     0
  9
$DIMTFAC
 40
1.0
  9
$DIMGAP
 40
1.524
  9
$DIMJUST
 70
     0
  9
$DIMSD1
 70
     0
  9
$DIMSD2
 70
     0
  9
$DIMTOLJ
 70
     0
  9
$DIMTZIN
 70
     0
  9
$DIMALTZ
 70
     0
  9
$DIMALTTZ
 70
     0
  9
$DIMUPT
 70
     0
  9
$DIMDEC
 70
     2
  9
$DIMTDEC
 70
     2
  9
$DIMALTU
 70
     2
  9
$DIMALTTD
 70
     3
  9
$DIMTXSTY
  7
Standard
  9
$DIMAUNIT
 70
     0
  9
$DIMADEC
 70
     0
  9
$DIMALTRND
 40
0.0
  9
$DIMAZIN
 70
     0
  9
$DIMDSEP
 70
    44
  9
$DIMATFIT
 70
     3
  9
$DIMFRAC
 70
     0
  9
$DIMLDRBLK
  1

  9
$DIMLUNIT
 70
     2
  9
$DIMLWD
 70
    -2
  9
$DIMLWE
 70
    -2
  9
$DIMTMOVE
 70
     0
  9
$LUNITS
 70
     2
  9
$LUPREC
 70
     2
  9
$SKETCHINC
 40
1.0
  9
$FILLETRAD
 40
10.0
  9
$AUNITS
 70
     0
  9
$AUPREC
 70
     0
  9
$MENU
  1
.
  9
$ELEVATION
 40
0.0
  9
$PELEVATION
 40
0.0
  9
$THICKNESS
 40
0.0
  9
$LIMCHECK
 70
     0
  9
$CHAMFERA
 40
10.0
  9
$CHAMFERB
 40
10.0
  9
$CHAMFERC
 40
20.0
  9
$CHAMFERD
 40
0.0
  9
$SKPOLY
 70
     0
  9
$TDCREATE
 40
2454650.452702025
  9
$TDUCREATE
 40
2454650.327702025
  9
$TDUPDATE
 40
2454650.452702037
  9
$TDUUPDATE
 40
2454650.327702037
  9
$TDINDWG
 40
0.0000000116
  9
$TDUSRTIMER
 40
0.0000000116
  9
$USRTIMER
 70
     1
  9
$ANGBASE
 50
0.0
  9
$ANGDIR
 70
     0
  9
$PDMODE
 70
     0
  9
$PDSIZE
 40
-1.0
  9
$PLINEWID
 40
0.0
  9
$SPLFRAME
 70
     0
  9
$SPLINETYPE
 70
     6
  9
$SPLINESEGS
 70
     8
  9
$HANDSEED
  5
251
  9
$SURFTAB1
 70
     6
  9
$SURFTAB2
 70
     6
  9
$SURFTYPE
 70
     6
  9
$SURFU
 70
     6
  9
$SURFV
 70
     6
  9
$UCSBASE
  2

  9
$UCSNAME
  2

  9
$UCSORG
 10
0.0
 20
0.0
 30
0.0
  9
$UCSXDIR
 10
1.0
 20
0.0
 30
0.0
  9
$UCSYDIR
 10
0.0
 20
1.0
 30
0.0
  9
$UCSORTHOREF
  2

  9
$UCSORTHOVIEW
 70
     0
  9
$UCSORGTOP
 10
0.0
 20
0.0
 30
0.0
  9
$UCSORGBOTTOM
 10
0.0
 20
0.0
 30
0.0
  9
$UCSORGLEFT
 10
0.0
 20
0.0
 30
0.0
  9
$UCSORGRIGHT
 10
0.0
 20
0.0
 30
0.0
  9
$UCSORGFRONT
 10
0.0
 20
0.0
 30
0.0
  9
$UCSORGBACK
 10
0.0
 20
0.0
 30
0.0
  9
$PUCSBASE
  2

  9
$PUCSNAME
  2

  9
$PUCSORG
 10
0.0
 20
0.0
 30
0.0
  9
$PUCSXDIR
 10
1.0
 20
0.0
 30
0.0
  9
$PUCSYDIR
 10
0.0
 20
1.0
 30
0.0
  9
$PUCSORTHOREF
  2

  9
$PUCSORTHOVIEW
 70
     0
  9
$PUCSORGTOP
 10
0.0
 20
0.0
 30
0.0
  9
$PUCSORGBOTTOM
 10
0.0
 20
0.0
 30
0.0
  9
$PUCSORGLEFT
 10
0.0
 20
0.0
 30
0.0
  9
$PUCSORGRIGHT
 10
0.0
 20
0.0
 30
0.0
  9
$PUCSORGFRONT
 10
0.0
 20
0.0
 30
0.0
  9
$PUCSORGBACK
 10
0.0
 20
0.0
 30
0.0
  9
$USERI1
 70
     0
  9
$USERI2
 70
     0
  9
$USERI3
 70
     0
  9
$USERI4
 70
     0
  9
$USERI5
 70
     0
  9
$USERR1
 40
0.0
  9
$USERR2
 40
0.0
  9
$USERR3
 40
0.0
  9
$USERR4
 40
0.0
  9
$USERR5
 40
0.0
  9
$WORLDVIEW
 70
     1
  9
$SHADEDGE
 70
     3
  9
$SHADEDIF
 70
    70
  9
$TILEMODE
 70
     1
  9
$MAXACTVP
 70
    64
  9
$PINSBASE
 10
0.0
 20
0.0
 30
0.0
  9
$PLIMCHECK
 70
     0
  9
$PEXTMIN
 10
1.0000000000E+20
 20
1.0000000000E+20
 30
1.0000000000E+20
  9
$PEXTMAX
 10
-1.0000000000E+20
 20
-1.0000000000E+20
 30
-1.0000000000E+20
  9
$PLIMMIN
 10
0.0
 20
0.0
  9
$PLIMMAX
 10
420.0
 20
297.0
  9
$UNITMODE
 70
     0
  9
$VISRETAIN
 70
     1
  9
$PLINEGEN
 70
     0
  9
$PSLTSCALE
 70
     1
  9
$TREEDEPTH
 70
  3020
  9
$CMLSTYLE
  2
Standard
  9
$CMLJUST
 70
     0
  9
$CMLSCALE
 40
20.0
  9
$PROXYGRAPHICS
 70
     1
  9
$MEASUREMENT
 70
     1
  9
$CELWEIGHT
370
    -1
  9
$ENDCAPS
280
     0
  9
$JOINSTYLE
280
     0
  9
$LWDISPLAY
290
     1
  9
$INSUNITS
 70
     4
  9
$HYPERLINKBASE
  1

  9
$STYLESHEET
  1

  9
$XEDIT
290
     1
  9
$CEPSNTYPE
380
     0
  9
$PSTYLEMODE
290
     1
  9
$FINGERPRINTGUID
  2
{0883B0DB-A2BC-4A8F-B95C-54D46D1D65B7}
  9
$VERSIONGUID
  2
{FAEB1C32-E019-11D5-929B-00C0DF256EC4}
  9
$EXTNAMES
290
     1
  9
$PSVPSCALE
 40
0.0
  9
$OLESTARTUP
290
     0
  0
ENDSEC
  0
SECTION
  2
CLASSES
  0
CLASS
  1
ACDBDICTIONARYWDFLT
  2
AcDbDictionaryWithDefault
  3
ObjectDBX Classes
 90
        0
280
     0
281
     0
  0
CLASS
  1
VISUALSTYLE
  2
AcDbVisualStyle
  3
ObjectDBX Classes
 90
     4095
280
     0
281
     0
  0
CLASS
  1
SCALE
  2
AcDbScale
  3
ObjectDBX Classes
 90
     1153
280
     0
281
     0
  0
CLASS
  1
DICTIONARYVAR
  2
AcDbDictionaryVar
  3
ObjectDBX Classes
 90
        0
280
     0
281
     0
  0
CLASS
  1
ACDBPLACEHOLDER
  2
AcDbPlaceHolder
  3
ObjectDBX Classes
 90
        0
280
     0
281
     0
  0
CLASS
  1
LAYOUT
  2
AcDbLayout
  3
ObjectDBX Classes
 90
        0
280
     0
281
     0
  0
ENDSEC
  0
SECTION
  2
TABLES
  0
TABLE
  2
VPORT
  5
8
330
0
100
AcDbSymbolTable
 70
     1
  0
VPORT
  5
29
330
8
100
AcDbSymbolTableRecord
100
AcDbViewportTableRecord
  2
*Active
 70
     0
 10
0.0
 20
0.0
 11
1.0
 21
1.0
 12
105.0
 22
148.5
 13
0.0
 23
0.0
 14
10.0
 24
10.0
 15
10.0
 25
10.0
 16
0.0
 26
0.0
 36
1.0
 17
0.0
 27
0.0
 37
0.0
 40
297.0
 41
0.7070707071
 42
50.0
 43
0.0
 44
0.0
 50
0.0
 51
0.0
 71
     0
 72
  2000
 73
     1
 74
     3
 75
     0
 76
     0
 77
     0
 78
     0
281
     0
 65
     1
110
0.0
120
0.0
130
0.0
111
1.0
121
0.0
131
0.0
112
0.0
122
1.0
132
0.0
 79
     0
146
0.0
  0
ENDTAB
  0
TABLE
  2
LTYPE
  5
5
330
0
100
AcDbSymbolTable
 70
     6
  0
LTYPE
  5
14
330
5
100
AcDbSymbolTableRecord
100
AcDbLinetypeTableRecord
  2
ByBlock
 70
     0
  3

 72
    65
 73
     0
 40
0.0
  0
LTYPE
  5
15
330
5
100
AcDbSymbolTableRecord
100
AcDbLinetypeTableRecord
  2
ByLayer
 70
     0
  3

 72
    65
 73
     0
 40
0.0
  0
LTYPE
  5
16
330
5
100
AcDbSymbolTableRecord
100
AcDbLinetypeTableRecord
  2
Continuous
 70
     0
  3
Solid line
 72
    65
 73
     0
 40
0.0
  0
LTYPE
  5
5D
330
5
100
AcDbSymbolTableRecord
100
AcDbLinetypeTableRecord
  2
HIDDEN
 70
     0
  3
Hidden __ __ __ __ __ __ __ __ __ __ __ __ __ __
 72
    65
 73
     2
 40
1.905
 49
1.27
 74
     0
 49
-0.635
 74
     0
  0
LTYPE
  5
5E
330
5
100
AcDbSymbolTableRecord
100
AcDbLinetypeTableRecord
  2
PHANTOM
 70
     0
  3
Phantom ______  __  __  ______  __  __  ______
 72
    65
 73
     6
 40
12.7
 49
6.35
 74
     0
 49
-1.27
 74
     0
 49
1.27
 74
     0
 49
-1.27
 74
     0
 49
1.27
 74
     0
 49
-1.27
 74
     0
  0
LTYPE
  5
5F
330
5
100
AcDbSymbolTableRecord
100
AcDbLinetypeTableRecord
  2
CENTER
 70
     0
  3
Center ____ _ ____ _ ____ _ ____ _ ____ _ ____
 72
    65
 73
     4
 40
10.16
 49
6.35
 74
     0
 49
-1.27
 74
     0
 49
1.27
 74
     0
 49
-1.27
 74
     0
  0
LTYPE
  5
60
330
5
100
AcDbSymbolTableRecord
100
AcDbLinetypeTableRecord
  2
CENTERX2
 70
     0
  3
Center (2x) ________  __  ________  __  _____
 72
    65
 73
     4
 40
20.32
 49
12.7
 74
     0
 49
-2.54
 74
     0
 49
2.54
 74
     0
 49
-2.54
 74
     0
  0
LTYPE
  5
61
330
5
100
AcDbSymbolTableRecord
100
AcDbLinetypeTableRecord
  2
DOT2
 70
     0
  3
Dot (.5x) ........................................
 72
    65
 73
     2
 40
0.635
 49
0.0
 74
     0
 49
-0.635
 74
     0
  0
ENDTAB
  0
TABLE
  2
LAYER
  5
2
330
0
100
AcDbSymbolTable
 70
     3
  0
LAYER
  5
10
330
2
100
AcDbSymbolTableRecord
100
AcDbLayerTableRecord
  2
0
 70
     0
 62
     7
  6
Continuous
370
    -3
390
F
  0
LAYER
  5
62
330
2
100
AcDbSymbolTableRecord
100
AcDbLayerTableRecord
  2
SLD-0
 70
     0
 62
    19
  6
Continuous
370
    -3
390
F
  0
LAYER
  5
63
330
2
100
AcDbSymbolTableRecord
100
AcDbLayerTableRecord
  2
1
 70
     0
 62
    19
  6
Continuous
370
    -3
390
F
  0
ENDTAB
  0
TABLE
  2
STYLE
  5
3
330
0
100
AcDbSymbolTable
 70
     3
  0
STYLE
  5
11
330
3
100
AcDbSymbolTableRecord
100
AcDbTextStyleTableRecord
  2
Standard
 70
     0
 40
0.0
 41
1.0
 50
0.0
 71
     0
 42
2.5
  3
txt
  4

  0
STYLE
  5
93
330
3
100
AcDbSymbolTableRecord
100
AcDbTextStyleTableRecord
  2
SLDTEXTSTYLE0
 70
     0
 40
0.0
 41
0.605
 50
0.0
 71
     0
 42
0.2
  3
TXT
  4

  0
STYLE
  5
9F
330
3
100
AcDbSymbolTableRecord
100
AcDbTextStyleTableRecord
  2
SLDTEXTSTYLE1
 70
     0
 40
0.0
 41
0.75
 50
0.0
 71
     0
 42
0.2
  3
TXT
  4

  0
ENDTAB
  0
TABLE
  2
VIEW
  5
6
330
0
100
AcDbSymbolTable
 70
     0
  0
ENDTAB
  0
TABLE
  2
UCS
  5
7
330
0
100
AcDbSymbolTable
 70
     0
  0
ENDTAB
  0
TABLE
  2
APPID
  5
9
330
0
100
AcDbSymbolTable
 70
     1
  0
APPID
  5
12
330
9
100
AcDbSymbolTableRecord
100
AcDbRegAppTableRecord
  2
ACAD
 70
     0
  0
ENDTAB
  0
TABLE
  2
DIMSTYLE
  5
A
330
0
100
AcDbSymbolTable
 70
     6
100
AcDbDimStyleTable
  0
DIMSTYLE
105
27
330
A
100
AcDbSymbolTableRecord
100
AcDbDimStyleTableRecord
  2
ISO-25
 70
     0
 41
2.5
 42
0.625
 43
3.75
 44
1.25
 73
     0
 74
     0
 77
     1
 78
     8
140
2.5
141
2.5
143
0.0393700787
147
0.625
171
     3
172
     1
271
     2
272
     2
274
     3
278
    44
283
     0
284
     8
340
11
  0
DIMSTYLE
105
D8
102
{ACAD_REACTORS
330
D7
330
122
330
159
330
175
102
}
330
A
100
AcDbSymbolTableRecord
100
AcDbDimStyleTableRecord
  2
SLDDIMSTYLE0
 70
     0
 41
0.4333333333
 44
0.0
 45
0.000000001
 78
    12
140
3.5
144
2.0
147
0.875
173
     1
271
     0
272
     0
284
    12
340
93
341
D9
343
D9
344
D9
  0
DIMSTYLE
105
E6
102
{ACAD_REACTORS
330
E5
330
F0
330
FA
330
104
330
10E
330
118
330
129
330
131
330
139
330
141
330
149
330
151
330
161
330
16B
330
17C
330
184
102
}
330
A
100
AcDbSymbolTableRecord
100
AcDbDimStyleTableRecord
  2
SLDDIMSTYLE1
 70
     0
 41
3.5
 44
0.0
 45
0.000000001
 78
    12
140
3.5
144
2.0
147
0.875
173
     1
271
     2
272
     2
284
    12
340
93
  0
DIMSTYLE
105
18D
102
{ACAD_REACTORS
330
18C
330
197
330
1A0
102
}
330
A
100
AcDbSymbolTableRecord
100
AcDbDimStyleTableRecord
  2
SLDDIMSTYLE2
 70
     0
 41
3.5
 44
0.0
 45
0.000000001
 73
     0
 77
     1
 78
    12
140
3.5
144
2.0
147
0.875
173
     1
271
     2
272
     2
284
    12
340
93
  0
DIMSTYLE
105
205
102
{ACAD_REACTORS
330
204
330
21B
102
}
330
A
100
AcDbSymbolTableRecord
100
AcDbDimStyleTableRecord
  2
SLDDIMSTYLE3
 70
     0
 41
3.5
 44
0.0
 45
0.000000001
 73
     0
 77
     1
 78
    12
140
3.5
147
0.875
173
     1
271
     2
272
     2
284
    12
340
93
  0
DIMSTYLE
105
212
102
{ACAD_REACTORS
330
211
330
23B
102
}
330
A
100
AcDbSymbolTableRecord
100
AcDbDimStyleTableRecord
  2
SLDDIMSTYLE4
 70
     0
 41
3.5
 44
0.0
 45
0.000000001
 73
     0
 77
     1
 78
    12
140
3.5
147
0.875
173
     1
271
     2
272
     2
284
    12
340
93
  0
ENDTAB
  0
TABLE
  2
BLOCK_RECORD
  5
1
330
0
100
AcDbSymbolTable
 70
    37
  0
BLOCK_RECORD
  5
1F
330
1
100
AcDbSymbolTableRecord
100
AcDbBlockTableRecord
  2
*Model_Space
340
22
  0
BLOCK_RECORD
  5
1B
330
1
100
AcDbSymbolTableRecord
100
AcDbBlockTableRecord
  2
*Paper_Space
340
1E
  0
BLOCK_RECORD
  5
23
330
1
100
AcDbSymbolTableRecord
100
AcDbBlockTableRecord
  2
*Paper_Space0
340
26
  0
BLOCK_RECORD
  5
AB
330
1
100
AcDbSymbolTableRecord
100
AcDbBlockTableRecord
  2
SW_NOTE_0
340
0
102
{BLKREFS
331
B1
102
}
  0
BLOCK_RECORD
  5
B2
330
1
100
AcDbSymbolTableRecord
100
AcDbBlockTableRecord
  2
SW_NOTE_1
340
0
102
{BLKREFS
331
B9
102
}
  0
BLOCK_RECORD
  5
D9
330
1
100
AcDbSymbolTableRecord
100
AcDbBlockTableRecord
  2
_ORIGIN
340
0
102
{BLKREFS
331
E1
331
126
331
15D
331
179
102
}
  0
BLOCK_RECORD
  5
DE
330
1
100
AcDbSymbolTableRecord
100
AcDbBlockTableRecord
  2
*D4
340
0
  0
BLOCK_RECORD
  5
E7
330
1
100
AcDbSymbolTableRecord
100
AcDbBlockTableRecord
  2
*D5
340
0
  0
BLOCK_RECORD
  5
F1
330
1
100
AcDbSymbolTableRecord
100
AcDbBlockTableRecord
  2
*D6
340
0
  0
BLOCK_RECORD
  5
FB
330
1
100
AcDbSymbolTableRecord
100
AcDbBlockTableRecord
  2
*D7
340
0
  0
BLOCK_RECORD
  5
105
330
1
100
AcDbSymbolTableRecord
100
AcDbBlockTableRecord
  2
*D8
340
0
  0
BLOCK_RECORD
  5
10F
330
1
100
AcDbSymbolTableRecord
100
AcDbBlockTableRecord
  2
*D9
340
0
  0
BLOCK_RECORD
  5
119
330
1
100
AcDbSymbolTableRecord
100
AcDbBlockTableRecord
  2
*D10
340
0
  0
BLOCK_RECORD
  5
123
330
1
100
AcDbSymbolTableRecord
100
AcDbBlockTableRecord
  2
*D11
340
0
  0
BLOCK_RECORD
  5
12A
330
1
100
AcDbSymbolTableRecord
100
AcDbBlockTableRecord
  2
*D12
340
0
  0
BLOCK_RECORD
  5
132
330
1
100
AcDbSymbolTableRecord
100
AcDbBlockTableRecord
  2
*D13
340
0
  0
BLOCK_RECORD
  5
13A
330
1
100
AcDbSymbolTableRecord
100
AcDbBlockTableRecord
  2
*D14
340
0
  0
BLOCK_RECORD
  5
142
330
1
100
AcDbSymbolTableRecord
100
AcDbBlockTableRecord
  2
*D15
340
0
  0
BLOCK_RECORD
  5
14A
330
1
100
AcDbSymbolTableRecord
100
AcDbBlockTableRecord
  2
*D16
340
0
  0
BLOCK_RECORD
  5
152
330
1
100
AcDbSymbolTableRecord
100
AcDbBlockTableRecord
  2
*D17
340
0
  0
BLOCK_RECORD
  5
15A
330
1
100
AcDbSymbolTableRecord
100
AcDbBlockTableRecord
  2
*D18
340
0
  0
BLOCK_RECORD
  5
162
330
1
100
AcDbSymbolTableRecord
100
AcDbBlockTableRecord
  2
*D19
340
0
  0
BLOCK_RECORD
  5
16C
330
1
100
AcDbSymbolTableRecord
100
AcDbBlockTableRecord
  2
*D20
340
0
  0
BLOCK_RECORD
  5
176
330
1
100
AcDbSymbolTableRecord
100
AcDbBlockTableRecord
  2
*D21
340
0
  0
BLOCK_RECORD
  5
17D
330
1
100
AcDbSymbolTableRecord
100
AcDbBlockTableRecord
  2
*D22
340
0
  0
BLOCK_RECORD
  5
185
330
1
100
AcDbSymbolTableRecord
100
AcDbBlockTableRecord
  2
*D23
340
0
  0
BLOCK_RECORD
  5
18E
330
1
100
AcDbSymbolTableRecord
100
AcDbBlockTableRecord
  2
*D24
340
0
  0
BLOCK_RECORD
  5
198
330
1
100
AcDbSymbolTableRecord
100
AcDbBlockTableRecord
  2
*D25
340
0
  0
BLOCK_RECORD
  5
1A1
330
1
100
AcDbSymbolTableRecord
100
AcDbBlockTableRecord
  2
*D26
340
0
  0
BLOCK_RECORD
  5
1A9
330
1
100
AcDbSymbolTableRecord
100
AcDbBlockTableRecord
  2
SW_CENTERMARKSYMBOL_0
340
0
102
{BLKREFS
331
1B4
102
}
  0
BLOCK_RECORD
  5
1B5
330
1
100
AcDbSymbolTableRecord
100
AcDbBlockTableRecord
  2
SW_CENTERMARKSYMBOL_1
340
0
102
{BLKREFS
331
1C0
102
}
  0
BLOCK_RECORD
  5
1C1
330
1
100
AcDbSymbolTableRecord
100
AcDbBlockTableRecord
  2
SW_CENTERMARKSYMBOL_2
340
0
102
{BLKREFS
331
1CC
102
}
  0
BLOCK_RECORD
  5
206
330
1
100
AcDbSymbolTableRecord
100
AcDbBlockTableRecord
  2
*D30
340
0
  0
BLOCK_RECORD
  5
213
330
1
100
AcDbSymbolTableRecord
100
AcDbBlockTableRecord
  2
*D31
340
0
  0
BLOCK_RECORD
  5
21C
330
1
100
AcDbSymbolTableRecord
100
AcDbBlockTableRecord
  2
*D32
340
0
  0
BLOCK_RECORD
  5
227
330
1
100
AcDbSymbolTableRecord
100
AcDbBlockTableRecord
  2
SW_CHAMFER_DIMENSION_0
340
0
102
{BLKREFS
331
230
102
}
  0
BLOCK_RECORD
  5
231
330
1
100
AcDbSymbolTableRecord
100
AcDbBlockTableRecord
  2
SW_CHAMFER_DIMENSION_1
340
0
102
{BLKREFS
331
23A
102
}
  0
BLOCK_RECORD
  5
23C
330
1
100
AcDbSymbolTableRecord
100
AcDbBlockTableRecord
  2
*D35
340
0
  0
BLOCK_RECORD
  5
244
330
1
100
AcDbSymbolTableRecord
100
AcDbBlockTableRecord
  2
SW_NOTE_2
340
0
102
{BLKREFS
331
249
102
}
  0
ENDTAB
  0
ENDSEC
  0
SECTION
  2
BLOCKS
  0
BLOCK
  5
20
330
1F
100
AcDbEntity
  8
0
100
AcDbBlockBegin
  2
*Model_Space
 70
     0
 10
0.0
 20
0.0
 30
0.0
  3
*Model_Space
  1

  0
ENDBLK
  5
21
330
1F
100
AcDbEntity
  8
0
100
AcDbBlockEnd
  0
BLOCK
  5
1C
330
1B
100
AcDbEntity
 67
     1
  8
0
100
AcDbBlockBegin
  2
*Paper_Space
 70
     0
 10
0.0
 20
0.0
 30
0.0
  3
*Paper_Space
  1

  0
ENDBLK
  5
1D
330
1B
100
AcDbEntity
 67
     1
  8
0
100
AcDbBlockEnd
  0
BLOCK
  5
24
330
23
100
AcDbEntity
  8
0
100
AcDbBlockBegin
  2
*Paper_Space0
 70
     0
 10
0.0
 20
0.0
 30
0.0
  3
*Paper_Space0
  1

  0
ENDBLK
  5
25
330
23
100
AcDbEntity
  8
0
100
AcDbBlockEnd
  0
BLOCK
  5
AC
330
AB
100
AcDbEntity
  8
0
100
AcDbBlockBegin
  2
SW_NOTE_0
 70
     0
 10
0.0
 20
0.0
 30
0.0
  3
SW_NOTE_0
  1

  0
MTEXT
  5
AE
330
AB
100
AcDbEntity
  8
1
 62
     0
100
AcDbMText
 10
0.0
 20
2.3874608764
 30
0.0
 40
1.8520833333
 41
0.0
 71
     1
 72
     1
  1
Tämä piirustus on meidän omaisuut-
  7
SLDTEXTSTYLE0
 73
     1
 44
1.0
  0
MTEXT
  5
AF
330
AB
100
AcDbEntity
  8
1
 62
     0
100
AcDbMText
 10
0.0
 20
-0.0819835382
 30
0.0
 40
1.8520833333
 41
0.0
 71
     1
 72
     1
  1
tamme eikä sitä saa ilman meidän eritystä
  7
SLDTEXTSTYLE0
 73
     1
 44
1.0
  0
MTEXT
  5
B0
330
AB
100
AcDbEntity
  8
1
 62
     0
100
AcDbMText
 10
0.0
 20
-2.5514279528
 30
0.0
 40
1.8520833333
 41
0.0
 71
     1
 72
     1
  1
lupaamme jäljentää tai näyttää sivullisille.
  7
SLDTEXTSTYLE0
 73
     1
 44
1.0
  0
ENDBLK
  5
AD
330
AB
100
AcDbEntity
  8
0
100
AcDbBlockEnd
  0
BLOCK
  5
B3
330
B2
100
AcDbEntity
  8
0
100
AcDbBlockBegin
  2
SW_NOTE_1
 70
     0
 10
0.0
 20
0.0
 30
0.0
  3
SW_NOTE_1
  1

  0
MTEXT
  5
B5
330
B2
100
AcDbEntity
  8
1
 62
     0
100
AcDbMText
 10
0.0
 20
2.3874608764
 30
0.0
 40
1.8520833333
 41
0.0
 71
     1
 72
     1
  1
This document is and stays our exclusive
  7
SLDTEXTSTYLE0
 73
     1
 44
1.0
  0
MTEXT
  5
B6
330
B2
100
AcDbEntity
  8
1
 62
     0
100
AcDbMText
 10
0.0
 20
-0.0819835382
 30
0.0
 40
1.8520833333
 41
0.0
 71
     1
 72
     1
  1
property and as such is not to be copied
  7
SLDTEXTSTYLE0
 73
     1
 44
1.0
  0
MTEXT
  5
B7
330
B2
100
AcDbEntity
  8
1
 62
     0
100
AcDbMText
 10
0.0
 20
-2.5514279528
 30
0.0
 40
1.8520833333
 41
0.0
 71
     1
 72
     1
  1
in whole or in part nor made available to
  7
SLDTEXTSTYLE0
 73
     1
 44
1.0
  0
MTEXT
  5
B8
330
B2
100
AcDbEntity
  8
1
 62
     0
100
AcDbMText
 10
0.0
 20
-5.0208723674
 30
0.0
 40
1.8520833333
 41
0.0
 71
     1
 72
     1
  1
any third party without our permission.
  7
SLDTEXTSTYLE0
 73
     1
 44
1.0
  0
ENDBLK
  5
B4
330
B2
100
AcDbEntity
  8
0
100
AcDbBlockEnd
  0
BLOCK
  5
DA
330
D9
100
AcDbEntity
  8
0
100
AcDbBlockBegin
  2
_ORIGIN
 70
     0
 10
0.0
 20
0.0
 30
0.0
  3
_ORIGIN
  1

  0
CIRCLE
  5
DC
330
D9
100
AcDbEntity
  8
0
  6
ByBlock
 62
     0
370
    -2
100
AcDbCircle
 10
0.0
 20
0.0
 30
0.0
 40
0.5
  0
LINE
  5
DD
330
D9
100
AcDbEntity
  8
0
  6
ByBlock
 62
     0
370
    -2
100
AcDbLine
 10
0.0
 20
0.0
 30
0.0
 11
-1.0
 21
0.0
 31
0.0
  0
ENDBLK
  5
DB
330
D9
100
AcDbEntity
  8
0
100
AcDbBlockEnd
  0
BLOCK
  5
DF
330
DE
100
AcDbEntity
  8
0
100
AcDbBlockBegin
  2
*D4
 70
     1
 10
0.0
 20
0.0
 30
0.0
  3
*D4
  1

  0
INSERT
  5
E1
330
DE
100
AcDbEntity
  8
1
100
AcDbBlockReference
  2
_ORIGIN
 10
74.9405934718
 20
251.0884541644
 30
0.05
 41
1.3
 42
1.3
 50
0.0
  0
LINE
  5
E2
330
DE
100
AcDbEntity
  8
1
100
AcDbLine
 10
74.9405934718
 20
247.3884541644
 30
0.0
 11
74.9405934718
 21
252.3884541644
 31
0.0
  0
LINE
  5
E3
330
DE
100
AcDbEntity
  8
1
100
AcDbLine
 10
74.9405934718
 20
247.3884541644
 30
0.0
 11
74.9405934718
 21
246.8585501735
 31
0.0
  0
MTEXT
  5
E4
330
DE
100
AcDbEntity
  8
1
100
AcDbMText
 10
73.1144781574
 20
253.9759541644
 30
0.0
 40
3.5
 41
0.0
 71
     1
 72
     1
  1
0
  7
SLDTEXTSTYLE0
 11
6.123233995736766E-17
 21
1.0
 31
0.0
 73
     1
 44
1.0
  0
ENDBLK
  5
E0
330
DE
100
AcDbEntity
  8
0
100
AcDbBlockEnd
  0
BLOCK
  5
E8
330
E7
100
AcDbEntity
  8
0
100
AcDbBlockBegin
  2
*D5
 70
     1
 10
0.0
 20
0.0
 30
0.0
  3
*D5
  1

  0
SOLID
  5
EA
330
E7
100
AcDbEntity
  8
1
100
AcDbTrace
 10
90.4125474053
 20
251.0884541644
 30
0.0
 11
86.9125474053
 21
251.7384541644
 31
0.0
 12
86.9125474053
 22
250.4384541644
 32
0.0
 13
86.9125474053
 23
250.4384541644
 33
0.0
  0
LINE
  5
EB
330
E7
100
AcDbEntity
  8
1
100
AcDbLine
 10
90.4125474053
 20
247.3884541644
 30
0.0
 11
90.4125474053
 21
252.3884541644
 31
0.0
  0
LINE
  5
EC
330
E7
100
AcDbEntity
  8
1
100
AcDbLine
 10
74.9405934718
 20
251.0884541644
 30
0.0
 11
90.4125474053
 21
251.0884541644
 31
0.0
  0
LINE
  5
ED
330
E7
100
AcDbEntity
  8
1
100
AcDbLine
 10
90.4125474053
 20
247.3884541644
 30
0.0
 11
80.8905934718
 21
242.3884541644
 31
0.0
  0
LINE
  5
EE
330
E7
100
AcDbEntity
  8
1
100
AcDbLine
 10
80.8905934718
 20
242.3884541644
 30
0.0
 11
80.8905934718
 21
237.906735905
 31
0.0
  0
MTEXT
  5
EF
330
E7
100
AcDbEntity
  8
1
100
AcDbMText
 10
88.5864320909
 20
253.9759541644
 30
0.0
 40
3.5
 41
0.0
 71
     1
 72
     1
  1
11,9
  7
SLDTEXTSTYLE0
 11
6.123233995736766E-17
 21
1.0
 31
0.0
 73
     1
 44
1.0
  0
ENDBLK
  5
E9
330
E7
100
AcDbEntity
  8
0
100
AcDbBlockEnd
  0
BLOCK
  5
F2
330
F1
100
AcDbEntity
  8
0
100
AcDbBlockBegin
  2
*D6
 70
     1
 10
0.0
 20
0.0
 30
0.0
  3
*D6
  1

  0
SOLID
  5
F4
330
F1
100
AcDbEntity
  8
1
100
AcDbTrace
 10
64.0922000308
 20
251.0884541644
 30
0.0
 11
67.5922000308
 21
250.4384541644
 31
0.0
 12
67.5922000308
 22
251.7384541644
 32
0.0
 13
67.5922000308
 23
251.7384541644
 33
0.0
  0
LINE
  5
F5
330
F1
100
AcDbEntity
  8
1
100
AcDbLine
 10
64.0922000308
 20
247.3884541644
 30
0.0
 11
64.0922000308
 21
252.3884541644
 31
0.0
  0
LINE
  5
F6
330
F1
100
AcDbEntity
  8
1
100
AcDbLine
 10
74.9405934718
 20
251.0884541644
 30
0.0
 11
64.0922000308
 21
251.0884541644
 31
0.0
  0
LINE
  5
F7
330
F1
100
AcDbEntity
  8
1
100
AcDbLine
 10
64.0922000308
 20
247.3884541644
 30
0.0
 11
68.9905934718
 21
242.3884541644
 31
0.0
  0
LINE
  5
F8
330
F1
100
AcDbEntity
  8
1
100
AcDbLine
 10
68.9905934718
 20
242.3884541644
 30
0.0
 11
68.9905934718
 21
237.906735905
 31
0.0
  0
MTEXT
  5
F9
330
F1
100
AcDbEntity
  8
1
100
AcDbMText
 10
62.2660847164
 20
253.9759541644
 30
0.0
 40
3.5
 41
0.0
 71
     1
 72
     1
  1
11,9
  7
SLDTEXTSTYLE0
 11
6.123233995736766E-17
 21
1.0
 31
0.0
 73
     1
 44
1.0
  0
ENDBLK
  5
F3
330
F1
100
AcDbEntity
  8
0
100
AcDbBlockEnd
  0
BLOCK
  5
FC
330
FB
100
AcDbEntity
  8
0
100
AcDbBlockBegin
  2
*D7
 70
     1
 10
0.0
 20
0.0
 30
0.0
  3
*D7
  1

  0
SOLID
  5
FE
330
FB
100
AcDbEntity
  8
1
100
AcDbTrace
 10
56.0205313258
 20
251.0884541644
 30
0.0
 11
59.5205313258
 21
250.4384541644
 31
0.0
 12
59.5205313258
 22
251.7384541644
 32
0.0
 13
59.5205313258
 23
251.7384541644
 33
0.0
  0
LINE
  5
FF
330
FB
100
AcDbEntity
  8
1
100
AcDbLine
 10
56.0205313258
 20
247.3884541644
 30
0.0
 11
56.0205313258
 21
252.3884541644
 31
0.0
  0
LINE
  5
100
330
FB
100
AcDbEntity
  8
1
100
AcDbLine
 10
74.9405934718
 20
251.0884541644
 30
0.0
 11
56.0205313258
 21
251.0884541644
 31
0.0
  0
LINE
  5
101
330
FB
100
AcDbEntity
  8
1
100
AcDbLine
 10
56.0205313258
 20
247.3884541644
 30
0.0
 11
60.7905934718
 21
242.3884541644
 31
0.0
  0
LINE
  5
102
330
FB
100
AcDbEntity
  8
1
100
AcDbLine
 10
60.7905934718
 20
242.3884541644
 30
0.0
 11
60.7905934718
 21
227.406735905
 31
0.0
  0
MTEXT
  5
103
330
FB
100
AcDbEntity
  8
1
100
AcDbMText
 10
54.1944160114
 20
253.9759541644
 30
0.0
 40
3.5
 41
0.0
 71
     1
 72
     1
  1
28,3
  7
SLDTEXTSTYLE0
 11
6.123233995736766E-17
 21
1.0
 31
0.0
 73
     1
 44
1.0
  0
ENDBLK
  5
FD
330
FB
100
AcDbEntity
  8
0
100
AcDbBlockEnd
  0
BLOCK
  5
106
330
105
100
AcDbEntity
  8
0
100
AcDbBlockBegin
  2
*D8
 70
     1
 10
0.0
 20
0.0
 30
0.0
  3
*D8
  1

  0
SOLID
  5
108
330
105
100
AcDbEntity
  8
1
100
AcDbTrace
 10
86.8312855532
 20
207.6186476828
 30
0.0
 11
83.3312855532
 21
208.2686476828
 31
0.0
 12
83.3312855532
 22
206.9686476828
 32
0.0
 13
83.3312855532
 23
206.9686476828
 33
0.0
  0
LINE
  5
109
330
105
100
AcDbEntity
  8
1
100
AcDbLine
 10
86.8312855532
 20
203.9186476828
 30
0.0
 11
86.8312855532
 21
208.9186476828
 31
0.0
  0
LINE
  5
10A
330
105
100
AcDbEntity
  8
1
100
AcDbLine
 10
74.9405934718
 20
207.6186476828
 30
0.0
 11
86.8312855532
 21
207.6186476828
 31
0.0
  0
LINE
  5
10B
330
105
100
AcDbEntity
  8
1
100
AcDbLine
 10
86.8312855532
 20
203.9186476828
 30
0.0
 11
75.7905934718
 21
198.9186476828
 31
0.0
  0
LINE
  5
10C
330
105
100
AcDbEntity
  8
1
100
AcDbLine
 10
75.7905934718
 20
198.9186476828
 30
0.0
 11
75.7905934718
 21
193.281735905
 31
0.0
  0
MTEXT
  5
10D
330
105
100
AcDbEntity
  8
1
100
AcDbMText
 10
85.0051702388
 20
210.5061476828
 30
0.0
 40
3.5
 41
0.0
 71
     1
 72
     1
  1
1,7
  7
SLDTEXTSTYLE0
 11
6.123233995736766E-17
 21
1.0
 31
0.0
 73
     1
 44
1.0
  0
ENDBLK
  5
107
330
105
100
AcDbEntity
  8
0
100
AcDbBlockEnd
  0
BLOCK
  5
110
330
10F
100
AcDbEntity
  8
0
100
AcDbBlockBegin
  2
*D9
 70
     1
 10
0.0
 20
0.0
 30
0.0
  3
*D9
  1

  0
SOLID
  5
112
330
10F
100
AcDbEntity
  8
1
100
AcDbTrace
 10
83.2431189725
 20
251.0884541644
 30
0.0
 11
79.7431189725
 21
251.7384541644
 31
0.0
 12
79.7431189725
 22
250.4384541644
 32
0.0
 13
79.7431189725
 23
250.4384541644
 33
0.0
  0
LINE
  5
113
330
10F
100
AcDbEntity
  8
1
100
AcDbLine
 10
83.2431189725
 20
247.3884541644
 30
0.0
 11
83.2431189725
 21
252.3884541644
 31
0.0
  0
LINE
  5
114
330
10F
100
AcDbEntity
  8
1
100
AcDbLine
 10
74.9405934718
 20
251.0884541644
 30
0.0
 11
83.2431189725
 21
251.0884541644
 31
0.0
  0
LINE
  5
115
330
10F
100
AcDbEntity
  8
1
100
AcDbLine
 10
83.2431189725
 20
247.3884541644
 30
0.0
 11
78.0155934718
 21
242.3884541644
 31
0.0
  0
LINE
  5
116
330
10F
100
AcDbEntity
  8
1
100
AcDbLine
 10
78.0155934718
 20
242.3884541644
 30
0.0
 11
78.0155934718
 21
219.406735905
 31
0.0
  0
MTEXT
  5
117
330
10F
100
AcDbEntity
  8
1
100
AcDbMText
 10
81.4170036581
 20
253.9759541644
 30
0.0
 40
3.5
 41
0.0
 71
     1
 72
     1
  1
6,15
  7
SLDTEXTSTYLE0
 11
6.123233995736766E-17
 21
1.0
 31
0.0
 73
     1
 44
1.0
  0
ENDBLK
  5
111
330
10F
100
AcDbEntity
  8
0
100
AcDbBlockEnd
  0
BLOCK
  5
11A
330
119
100
AcDbEntity
  8
0
100
AcDbBlockBegin
  2
*D10
 70
     1
 10
0.0
 20
0.0
 30
0.0
  3
*D10
  1

  0
SOLID
  5
11C
330
119
100
AcDbEntity
  8
1
100
AcDbTrace
 10
69.7788376628
 20
251.0884541644
 30
0.0
 11
73.2788376628
 21
250.4384541644
 31
0.0
 12
73.2788376628
 22
251.7384541644
 32
0.0
 13
73.2788376628
 23
251.7384541644
 33
0.0
  0
LINE
  5
11D
330
119
100
AcDbEntity
  8
1
100
AcDbLine
 10
69.7788376628
 20
247.3884541644
 30
0.0
 11
69.7788376628
 21
252.3884541644
 31
0.0
  0
LINE
  5
11E
330
119
100
AcDbEntity
  8
1
100
AcDbLine
 10
74.9405934718
 20
251.0884541644
 30
0.0
 11
69.7788376628
 21
251.0884541644
 31
0.0
  0
LINE
  5
11F
330
119
100
AcDbEntity
  8
1
100
AcDbLine
 10
69.7788376628
 20
247.3884541644
 30
0.0
 11
71.7655934718
 21
242.3884541644
 31
0.0
  0
LINE
  5
120
330
119
100
AcDbEntity
  8
1
100
AcDbLine
 10
71.7655934718
 20
242.3884541644
 30
0.0
 11
71.7655934718
 21
219.406735905
 31
0.0
  0
MTEXT
  5
121
330
119
100
AcDbEntity
  8
1
100
AcDbMText
 10
67.9527223484
 20
253.9759541644
 30
0.0
 40
3.5
 41
0.0
 71
     1
 72
     1
  1
6,35
  7
SLDTEXTSTYLE0
 11
6.123233995736766E-17
 21
1.0
 31
0.0
 73
     1
 44
1.0
  0
ENDBLK
  5
11B
330
119
100
AcDbEntity
  8
0
100
AcDbBlockEnd
  0
BLOCK
  5
124
330
123
100
AcDbEntity
  8
0
100
AcDbBlockBegin
  2
*D11
 70
     1
 10
0.0
 20
0.0
 30
0.0
  3
*D11
  1

  0
INSERT
  5
126
330
123
100
AcDbEntity
  8
1
100
AcDbBlockReference
  2
_ORIGIN
 10
101.1766207759
 20
236.906735905
 30
0.05
 41
1.3
 42
1.3
 50
0.0
  0
LINE
  5
127
330
123
100
AcDbEntity
  8
1
100
AcDbLine
 10
78.8155934718
 20
236.906735905
 30
0.0
 11
102.4766207759
 21
236.906735905
 31
0.0
  0
MTEXT
  5
128
330
123
100
AcDbEntity
  8
1
100
AcDbMText
 10
104.0641207759
 20
238.7328512195
 30
0.0
 40
3.5
 41
0.0
 71
     1
 72
     1
  1
0
  7
SLDTEXTSTYLE0
 73
     1
 44
1.0
  0
ENDBLK
  5
125
330
123
100
AcDbEntity
  8
0
100
AcDbBlockEnd
  0
BLOCK
  5
12B
330
12A
100
AcDbEntity
  8
0
100
AcDbBlockBegin
  2
*D12
 70
     1
 10
0.0
 20
0.0
 30
0.0
  3
*D12
  1

  0
SOLID
  5
12D
330
12A
100
AcDbEntity
  8
1
100
AcDbTrace
 10
101.1766207759
 20
218.406735905
 30
0.0
 11
101.8266207759
 21
221.906735905
 31
0.0
 12
100.5266207759
 22
221.906735905
 32
0.0
 13
100.5266207759
 23
221.906735905
 33
0.0
  0
LINE
  5
12E
330
12A
100
AcDbEntity
  8
1
100
AcDbLine
 10
79.0155934718
 20
218.406735905
 30
0.0
 11
102.4766207759
 21
218.406735905
 31
0.0
  0
LINE
  5
12F
330
12A
100
AcDbEntity
  8
1
100
AcDbLine
 10
101.1766207759
 20
236.906735905
 30
0.0
 11
101.1766207759
 21
218.406735905
 31
0.0
  0
MTEXT
  5
130
330
12A
100
AcDbEntity
  8
1
100
AcDbMText
 10
104.0641207759
 20
220.2328512195
 30
0.0
 40
3.5
 41
0.0
 71
     1
 72
     1
  1
37
  7
SLDTEXTSTYLE0
 73
     1
 44
1.0
  0
ENDBLK
  5
12C
330
12A
100
AcDbEntity
  8
0
100
AcDbBlockEnd
  0
BLOCK
  5
133
330
132
100
AcDbEntity
  8
0
100
AcDbBlockBegin
  2
*D13
 70
     1
 10
0.0
 20
0.0
 30
0.0
  3
*D13
  1

  0
SOLID
  5
135
330
132
100
AcDbEntity
  8
1
100
AcDbTrace
 10
101.1766207759
 20
201.406735905
 30
0.0
 11
101.8266207759
 21
204.906735905
 31
0.0
 12
100.5266207759
 22
204.906735905
 32
0.0
 13
100.5266207759
 23
204.906735905
 33
0.0
  0
LINE
  5
136
330
132
100
AcDbEntity
  8
1
100
AcDbLine
 10
79.0155934718
 20
201.406735905
 30
0.0
 11
102.4766207759
 21
201.406735905
 31
0.0
  0
LINE
  5
137
330
132
100
AcDbEntity
  8
1
100
AcDbLine
 10
101.1766207759
 20
236.906735905
 30
0.0
 11
101.1766207759
 21
201.406735905
 31
0.0
  0
MTEXT
  5
138
330
132
100
AcDbEntity
  8
1
100
AcDbMText
 10
104.0641207759
 20
203.2328512195
 30
0.0
 40
3.5
 41
0.0
 71
     1
 72
     1
  1
71
  7
SLDTEXTSTYLE0
 73
     1
 44
1.0
  0
ENDBLK
  5
134
330
132
100
AcDbEntity
  8
0
100
AcDbBlockEnd
  0
BLOCK
  5
13B
330
13A
100
AcDbEntity
  8
0
100
AcDbBlockBegin
  2
*D14
 70
     1
 10
0.0
 20
0.0
 30
0.0
  3
*D14
  1

  0
SOLID
  5
13D
330
13A
100
AcDbEntity
  8
1
100
AcDbTrace
 10
101.1766207759
 20
189.406735905
 30
0.0
 11
101.8266207759
 21
192.906735905
 31
0.0
 12
100.5266207759
 22
192.906735905
 32
0.0
 13
100.5266207759
 23
192.906735905
 33
0.0
  0
LINE
  5
13E
330
13A
100
AcDbEntity
  8
1
100
AcDbLine
 10
79.6655934718
 20
189.406735905
 30
0.0
 11
102.4766207759
 21
189.406735905
 31
0.0
  0
LINE
  5
13F
330
13A
100
AcDbEntity
  8
1
100
AcDbLine
 10
101.1766207759
 20
236.906735905
 30
0.0
 11
101.1766207759
 21
189.406735905
 31
0.0
  0
MTEXT
  5
140
330
13A
100
AcDbEntity
  8
1
100
AcDbMText
 10
104.0641207759
 20
191.2328512195
 30
0.0
 40
3.5
 41
0.0
 71
     1
 72
     1
  1
95
  7
SLDTEXTSTYLE0
 73
     1
 44
1.0
  0
ENDBLK
  5
13C
330
13A
100
AcDbEntity
  8
0
100
AcDbBlockEnd
  0
BLOCK
  5
143
330
142
100
AcDbEntity
  8
0
100
AcDbBlockBegin
  2
*D15
 70
     1
 10
0.0
 20
0.0
 30
0.0
  3
*D15
  1

  0
SOLID
  5
145
330
142
100
AcDbEntity
  8
1
100
AcDbTrace
 10
101.1766207759
 20
178.406735905
 30
0.0
 11
101.8266207759
 21
181.906735905
 31
0.0
 12
100.5266207759
 22
181.906735905
 32
0.0
 13
100.5266207759
 23
181.906735905
 33
0.0
  0
LINE
  5
146
330
142
100
AcDbEntity
  8
1
100
AcDbLine
 10
79.0155934718
 20
178.406735905
 30
0.0
 11
102.4766207759
 21
178.406735905
 31
0.0
  0
LINE
  5
147
330
142
100
AcDbEntity
  8
1
100
AcDbLine
 10
101.1766207759
 20
236.906735905
 30
0.0
 11
101.1766207759
 21
178.406735905
 31
0.0
  0
MTEXT
  5
148
330
142
100
AcDbEntity
  8
1
100
AcDbMText
 10
104.0641207759
 20
180.2328512195
 30
0.0
 40
3.5
 41
0.0
 71
     1
 72
     1
  1
117
  7
SLDTEXTSTYLE0
 73
     1
 44
1.0
  0
ENDBLK
  5
144
330
142
100
AcDbEntity
  8
0
100
AcDbBlockEnd
  0
BLOCK
  5
14B
330
14A
100
AcDbEntity
  8
0
100
AcDbBlockBegin
  2
*D16
 70
     1
 10
0.0
 20
0.0
 30
0.0
  3
*D16
  1

  0
SOLID
  5
14D
330
14A
100
AcDbEntity
  8
1
100
AcDbTrace
 10
101.1766207759
 20
154.406735905
 30
0.0
 11
101.8266207759
 21
157.906735905
 31
0.0
 12
100.5266207759
 22
157.906735905
 32
0.0
 13
100.5266207759
 23
157.906735905
 33
0.0
  0
LINE
  5
14E
330
14A
100
AcDbEntity
  8
1
100
AcDbLine
 10
79.0155934718
 20
154.406735905
 30
0.0
 11
102.4766207759
 21
154.406735905
 31
0.0
  0
LINE
  5
14F
330
14A
100
AcDbEntity
  8
1
100
AcDbLine
 10
101.1766207759
 20
236.906735905
 30
0.0
 11
101.1766207759
 21
154.406735905
 31
0.0
  0
MTEXT
  5
150
330
14A
100
AcDbEntity
  8
1
100
AcDbMText
 10
104.0641207759
 20
156.2328512195
 30
0.0
 40
3.5
 41
0.0
 71
     1
 72
     1
  1
165
  7
SLDTEXTSTYLE0
 73
     1
 44
1.0
  0
ENDBLK
  5
14C
330
14A
100
AcDbEntity
  8
0
100
AcDbBlockEnd
  0
BLOCK
  5
153
330
152
100
AcDbEntity
  8
0
100
AcDbBlockBegin
  2
*D17
 70
     1
 10
0.0
 20
0.0
 30
0.0
  3
*D17
  1

  0
SOLID
  5
155
330
152
100
AcDbEntity
  8
1
100
AcDbTrace
 10
101.1766207759
 20
132.906735905
 30
0.0
 11
101.8266207759
 21
136.406735905
 31
0.0
 12
100.5266207759
 22
136.406735905
 32
0.0
 13
100.5266207759
 23
136.406735905
 33
0.0
  0
LINE
  5
156
330
152
100
AcDbEntity
  8
1
100
AcDbLine
 10
78.8155934718
 20
132.906735905
 30
0.0
 11
102.4766207759
 21
132.906735905
 31
0.0
  0
LINE
  5
157
330
152
100
AcDbEntity
  8
1
100
AcDbLine
 10
101.1766207759
 20
236.906735905
 30
0.0
 11
101.1766207759
 21
132.906735905
 31
0.0
  0
MTEXT
  5
158
330
152
100
AcDbEntity
  8
1
100
AcDbMText
 10
104.0641207759
 20
134.7328512195
 30
0.0
 40
3.5
 41
0.0
 71
     1
 72
     1
  1
208
  7
SLDTEXTSTYLE0
 73
     1
 44
1.0
  0
ENDBLK
  5
154
330
152
100
AcDbEntity
  8
0
100
AcDbBlockEnd
  0
BLOCK
  5
15B
330
15A
100
AcDbEntity
  8
0
100
AcDbBlockBegin
  2
*D18
 70
     1
 10
0.0
 20
0.0
 30
0.0
  3
*D18
  1

  0
INSERT
  5
15D
330
15A
100
AcDbEntity
  8
1
100
AcDbBlockReference
  2
_ORIGIN
 10
74.9405934718
 20
118.6888721018
 30
0.05
 41
1.3
 42
1.3
 50
0.0
  0
LINE
  5
15E
330
15A
100
AcDbEntity
  8
1
100
AcDbLine
 10
74.9405934718
 20
122.3888721018
 30
0.0
 11
74.9405934718
 21
117.3888721018
 31
0.0
  0
LINE
  5
15F
330
15A
100
AcDbEntity
  8
1
100
AcDbLine
 10
74.9405934718
 20
122.3888721018
 30
0.0
 11
74.9405934718
 21
123.4601965579
 31
0.0
  0
MTEXT
  5
160
330
15A
100
AcDbEntity
  8
1
100
AcDbMText
 10
73.1144781574
 20
113.1288365035
 30
0.0
 40
3.5
 41
0.0
 71
     1
 72
     1
  1
0
  7
SLDTEXTSTYLE0
 11
6.123233995736766E-17
 21
1.0
 31
0.0
 73
     1
 44
1.0
  0
ENDBLK
  5
15C
330
15A
100
AcDbEntity
  8
0
100
AcDbBlockEnd
  0
BLOCK
  5
163
330
162
100
AcDbEntity
  8
0
100
AcDbBlockBegin
  2
*D19
 70
     1
 10
0.0
 20
0.0
 30
0.0
  3
*D19
  1

  0
SOLID
  5
165
330
162
100
AcDbEntity
  8
1
100
AcDbTrace
 10
80.2383806022
 20
118.6888721018
 30
0.0
 11
76.7383806022
 21
119.3388721018
 31
0.0
 12
76.7383806022
 22
118.0388721018
 32
0.0
 13
76.7383806022
 23
118.0388721018
 33
0.0
  0
LINE
  5
166
330
162
100
AcDbEntity
  8
1
100
AcDbLine
 10
80.2383806022
 20
122.3888721018
 30
0.0
 11
80.2383806022
 21
117.3888721018
 31
0.0
  0
LINE
  5
167
330
162
100
AcDbEntity
  8
1
100
AcDbLine
 10
74.9405934718
 20
118.6888721018
 30
0.0
 11
80.2383806022
 21
118.6888721018
 31
0.0
  0
LINE
  5
168
330
162
100
AcDbEntity
  8
1
100
AcDbLine
 10
80.2383806022
 20
122.3888721018
 30
0.0
 11
78.0155934718
 21
127.3888721018
 31
0.0
  0
LINE
  5
169
330
162
100
AcDbEntity
  8
1
100
AcDbLine
 10
78.0155934718
 20
127.3888721018
 30
0.0
 11
78.0155934718
 21
153.406735905
 31
0.0
  0
MTEXT
  5
16A
330
162
100
AcDbEntity
  8
1
100
AcDbMText
 10
78.4122652878
 20
106.4460434624
 30
0.0
 40
3.5
 41
0.0
 71
     1
 72
     1
  1
6,15
  7
SLDTEXTSTYLE0
 11
6.123233995736766E-17
 21
1.0
 31
0.0
 73
     1
 44
1.0
  0
ENDBLK
  5
164
330
162
100
AcDbEntity
  8
0
100
AcDbBlockEnd
  0
BLOCK
  5
16D
330
16C
100
AcDbEntity
  8
0
100
AcDbBlockBegin
  2
*D20
 70
     1
 10
0.0
 20
0.0
 30
0.0
  3
*D20
  1

  0
SOLID
  5
16F
330
16C
100
AcDbEntity
  8
1
100
AcDbTrace
 10
68.3914195652
 20
118.6888721018
 30
0.0
 11
71.8914195652
 21
118.0388721018
 31
0.0
 12
71.8914195652
 22
119.3388721018
 32
0.0
 13
71.8914195652
 23
119.3388721018
 33
0.0
  0
LINE
  5
170
330
16C
100
AcDbEntity
  8
1
100
AcDbLine
 10
68.3914195652
 20
122.3888721018
 30
0.0
 11
68.3914195652
 21
117.3888721018
 31
0.0
  0
LINE
  5
171
330
16C
100
AcDbEntity
  8
1
100
AcDbLine
 10
74.9405934718
 20
118.6888721018
 30
0.0
 11
68.3914195652
 21
118.6888721018
 31
0.0
  0
LINE
  5
172
330
16C
100
AcDbEntity
  8
1
100
AcDbLine
 10
68.3914195652
 20
122.3888721018
 30
0.0
 11
70.7655934718
 21
127.3888721018
 31
0.0
  0
LINE
  5
173
330
16C
100
AcDbEntity
  8
1
100
AcDbLine
 10
70.7655934718
 20
127.3888721018
 30
0.0
 11
70.7655934718
 21
153.406735905
 31
0.0
  0
MTEXT
  5
174
330
16C
100
AcDbEntity
  8
1
100
AcDbMText
 10
66.5653042507
 20
106.4460434624
 30
0.0
 40
3.5
 41
0.0
 71
     1
 72
     1
  1
8,35
  7
SLDTEXTSTYLE0
 11
6.123233995736766E-17
 21
1.0
 31
0.0
 73
     1
 44
1.0
  0
ENDBLK
  5
16E
330
16C
100
AcDbEntity
  8
0
100
AcDbBlockEnd
  0
BLOCK
  5
177
330
176
100
AcDbEntity
  8
0
100
AcDbBlockBegin
  2
*D21
 70
     1
 10
0.0
 20
0.0
 30
0.0
  3
*D21
  1

  0
INSERT
  5
179
330
176
100
AcDbEntity
  8
1
100
AcDbBlockReference
  2
_ORIGIN
 10
48.0575720244
 20
236.906735905
 30
0.05
 41
1.3
 42
1.3
 50
0.0
  0
LINE
  5
17A
330
176
100
AcDbEntity
  8
1
100
AcDbLine
 10
71.0655934718
 20
236.906735905
 30
0.0
 11
46.7575720244
 21
236.906735905
 31
0.0
  0
MTEXT
  5
17B
330
176
100
AcDbEntity
  8
1
100
AcDbMText
 10
42.4975364261
 20
238.7328512195
 30
0.0
 40
3.5
 41
0.0
 71
     1
 72
     1
  1
0
  7
SLDTEXTSTYLE0
 73
     1
 44
1.0
  0
ENDBLK
  5
178
330
176
100
AcDbEntity
  8
0
100
AcDbBlockEnd
  0
BLOCK
  5
17E
330
17D
100
AcDbEntity
  8
0
100
AcDbBlockBegin
  2
*D22
 70
     1
 10
0.0
 20
0.0
 30
0.0
  3
*D22
  1

  0
SOLID
  5
180
330
17D
100
AcDbEntity
  8
1
100
AcDbTrace
 10
48.0575720244
 20
228.906735905
 30
0.0
 11
48.7075720244
 21
232.406735905
 31
0.0
 12
47.4075720244
 22
232.406735905
 32
0.0
 13
47.4075720244
 23
232.406735905
 33
0.0
  0
LINE
  5
181
330
17D
100
AcDbEntity
  8
1
100
AcDbLine
 10
62.2905934718
 20
228.906735905
 30
0.0
 11
46.7575720244
 21
228.906735905
 31
0.0
  0
LINE
  5
182
330
17D
100
AcDbEntity
  8
1
100
AcDbLine
 10
48.0575720244
 20
236.906735905
 30
0.0
 11
48.0575720244
 21
228.906735905
 31
0.0
  0
MTEXT
  5
183
330
17D
100
AcDbEntity
  8
1
100
AcDbMText
 10
39.8250008278
 20
230.7328512195
 30
0.0
 40
3.5
 41
0.0
 71
     1
 72
     1
  1
16
  7
SLDTEXTSTYLE0
 73
     1
 44
1.0
  0
ENDBLK
  5
17F
330
17D
100
AcDbEntity
  8
0
100
AcDbBlockEnd
  0
BLOCK
  5
186
330
185
100
AcDbEntity
  8
0
100
AcDbBlockBegin
  2
*D23
 70
     1
 10
0.0
 20
0.0
 30
0.0
  3
*D23
  1

  0
SOLID
  5
188
330
185
100
AcDbEntity
  8
1
100
AcDbTrace
 10
48.0575720244
 20
140.906735905
 30
0.0
 11
48.7075720244
 21
144.406735905
 31
0.0
 12
47.4075720244
 22
144.406735905
 32
0.0
 13
47.4075720244
 23
144.406735905
 33
0.0
  0
LINE
  5
189
330
185
100
AcDbEntity
  8
1
100
AcDbLine
 10
62.2905934718
 20
140.906735905
 30
0.0
 11
46.7575720244
 21
140.906735905
 31
0.0
  0
LINE
  5
18A
330
185
100
AcDbEntity
  8
1
100
AcDbLine
 10
48.0575720244
 20
236.906735905
 30
0.0
 11
48.0575720244
 21
140.906735905
 31
0.0
  0
MTEXT
  5
18B
330
185
100
AcDbEntity
  8
1
100
AcDbMText
 10
37.1495571386
 20
142.7328512195
 30
0.0
 40
3.5
 41
0.0
 71
     1
 72
     1
  1
192
  7
SLDTEXTSTYLE0
 73
     1
 44
1.0
  0
ENDBLK
  5
187
330
185
100
AcDbEntity
  8
0
100
AcDbBlockEnd
  0
BLOCK
  5
18F
330
18E
100
AcDbEntity
  8
0
100
AcDbBlockBegin
  2
*D24
 70
     1
 10
0.0
 20
0.0
 30
0.0
  3
*D24
  1

  0
ARC
  5
191
330
18E
100
AcDbEntity
  8
1
100
AcDbCircle
 10
63.2905934718
 20
143.406735905
 30
0.0
 40
2.499999999999996
100
AcDbArc
 50
203.1985905136
 51
204.6821954831
  0
SOLID
  5
192
330
18E
100
AcDbEntity
  8
1
100
AcDbTrace
 10
61.5228265188
 20
141.6389689521
 30
0.0
 11
58.5883333769
 21
139.6237146257
 31
0.0
 12
59.5075721925
 22
138.7044758102
 32
0.0
 13
59.5075721925
 23
138.7044758102
 33
0.0
  0
LINE
  5
193
330
18E
100
AcDbEntity
  8
1
100
AcDbLine
 10
61.5228265188
 20
141.6389689521
 30
0.0
 11
46.5713427634
 21
126.6874851966
 31
0.0
  0
LINE
  5
194
330
18E
100
AcDbEntity
  8
1
100
AcDbLine
 10
61.5228265188
 20
141.6389689521
 30
0.0
 11
63.2905934718
 21
143.406735905
 31
0.0
  0
MTEXT
  5
195
330
18E
100
AcDbEntity
  8
1
100
AcDbMText
 10
44.5219576184
 20
130.9819343719
 30
0.0
 40
3.5
 41
0.0
 71
     1
 72
     1
  1
R
  7
SLDTEXTSTYLE0
 11
0.7071067811865469
 21
0.7071067811865481
 31
0.0
 73
     1
 44
1.0
  0
MTEXT
  5
196
330
18E
100
AcDbEntity
  8
1
100
AcDbMText
 10
46.9751603138
 20
133.4351370673
 30
0.0
 40
3.5
 41
0.0
 71
     1
 72
     1
  1
5
  7
SLDTEXTSTYLE0
 11
0.7071067811865469
 21
0.7071067811865481
 31
0.0
 73
     1
 44
1.0
  0
ENDBLK
  5
190
330
18E
100
AcDbEntity
  8
0
100
AcDbBlockEnd
  0
BLOCK
  5
199
330
198
100
AcDbEntity
  8
0
100
AcDbBlockBegin
  2
*D25
 70
     1
 10
0.0
 20
0.0
 30
0.0
  3
*D25
  1

  0
SOLID
  5
19B
330
198
100
AcDbEntity
  8
1
100
AcDbTrace
 10
70.3132334179
 20
129.1664098589
 30
0.0
 11
67.1826498686
 21
127.4717279889
 31
0.0
 12
67.9998639627
 22
126.4607081452
 32
0.0
 13
67.9998639627
 23
126.4607081452
 33
0.0
  0
LINE
  5
19C
330
198
100
AcDbEntity
  8
1
100
AcDbLine
 10
70.3132334179
 20
129.1664098589
 30
0.0
 11
52.8345639074
 21
115.0382845216
 31
0.0
  0
LINE
  5
19D
330
198
100
AcDbEntity
  8
1
100
AcDbLine
 10
70.3132334179
 20
129.1664098589
 30
0.0
 11
74.9405934718
 21
132.906735905
 31
0.0
  0
MTEXT
  5
19E
330
198
100
AcDbEntity
  8
1
100
AcDbMText
 10
51.2471481919
 20
119.5275105579
 30
0.0
 40
3.5
 41
0.0
 71
     1
 72
     1
  1
R
  7
SLDTEXTSTYLE0
 11
0.7777075720842093
 21
0.6286262262448843
 31
0.0
 73
     1
 44
1.0
  0
MTEXT
  5
19F
330
198
100
AcDbEntity
  8
1
100
AcDbMText
 10
53.9452899194
 20
121.708436542
 30
0.0
 40
3.5
 41
0.0
 71
     1
 72
     1
  1
11,9
  7
SLDTEXTSTYLE0
 11
0.7777075720842093
 21
0.6286262262448843
 31
0.0
 73
     1
 44
1.0
  0
ENDBLK
  5
19A
330
198
100
AcDbEntity
  8
0
100
AcDbBlockEnd
  0
BLOCK
  5
1A2
330
1A1
100
AcDbEntity
  8
0
100
AcDbBlockBegin
  2
*D26
 70
     1
 10
0.0
 20
0.0
 30
0.0
  3
*D26
  1

  0
SOLID
  5
1A4
330
1A1
100
AcDbEntity
  8
1
100
AcDbTrace
 10
61.6882063489
 20
228.3256823629
 30
0.0
 11
59.9437904558
 21
231.4288280559
 31
0.0
 12
58.9459382977
 22
230.595586752
 32
0.0
 13
58.9459382977
 23
230.595586752
 33
0.0
  0
LINE
  5
1A5
330
1A1
100
AcDbEntity
  8
1
100
AcDbLine
 10
61.6882063489
 20
228.3256823629
 30
0.0
 11
42.3072869575
 21
251.5353962232
 31
0.0
  0
LINE
  5
1A6
330
1A1
100
AcDbEntity
  8
1
100
AcDbLine
 10
61.6882063489
 20
228.3256823629
 30
0.0
 11
63.2905934718
 21
226.406735905
 31
0.0
  0
MTEXT
  5
1A7
330
1A1
100
AcDbEntity
  8
1
100
AcDbMText
 10
46.7786346084
 20
253.2009350843
 30
0.0
 40
3.5
 41
0.0
 71
     1
 72
     1
  1
R
  7
SLDTEXTSTYLE0
 11
0.6409548491756075
 21
-0.767578583155024
 31
0.0
 73
     1
 44
1.0
  0
MTEXT
  5
1A8
330
1A1
100
AcDbEntity
  8
1
100
AcDbMText
 10
49.0023329316
 20
250.5379343901
 30
0.0
 40
3.5
 41
0.0
 71
     1
 72
     1
  1
5
  7
SLDTEXTSTYLE0
 11
0.6409548491756075
 21
-0.767578583155024
 31
0.0
 73
     1
 44
1.0
  0
ENDBLK
  5
1A3
330
1A1
100
AcDbEntity
  8
0
100
AcDbBlockEnd
  0
BLOCK
  5
1AA
330
1A9
100
AcDbEntity
  8
0
100
AcDbBlockBegin
  2
SW_CENTERMARKSYMBOL_0
 70
     0
 10
0.0
 20
0.0
 30
0.0
  3
SW_CENTERMARKSYMBOL_0
  1

  0
LINE
  5
1AC
330
1A9
100
AcDbEntity
  8
0
  6
Continuous
 62
     0
370
     0
100
AcDbLine
 10
0.0
 20
0.0
 30
0.0
 11
0.0
 21
1.25
 31
0.0
  0
LINE
  5
1AD
330
1A9
100
AcDbEntity
  8
0
  6
Continuous
 62
     0
370
     0
100
AcDbLine
 10
0.0
 20
0.0
 30
0.0
 11
-1.25
 21
0.0
 31
0.0
  0
LINE
  5
1AE
330
1A9
100
AcDbEntity
  8
0
  6
Continuous
 62
     0
370
     0
100
AcDbLine
 10
0.0
 20
0.0
 30
0.0
 11
0.0
 21
-1.25
 31
0.0
  0
LINE
  5
1AF
330
1A9
100
AcDbEntity
  8
0
  6
Continuous
 62
     0
370
     0
100
AcDbLine
 10
0.0
 20
0.0
 30
0.0
 11
1.25
 21
0.0
 31
0.0
  0
LINE
  5
1B0
330
1A9
100
AcDbEntity
  8
0
  6
Continuous
 62
     0
370
     0
100
AcDbLine
 10
0.0
 20
2.5
 30
0.0
 11
0.0
 21
2.875
 31
0.0
  0
LINE
  5
1B1
330
1A9
100
AcDbEntity
  8
0
  6
Continuous
 62
     0
370
     0
100
AcDbLine
 10
-2.5
 20
0.0
 30
0.0
 11
-2.875
 21
0.0
 31
0.0
  0
LINE
  5
1B2
330
1A9
100
AcDbEntity
  8
0
  6
Continuous
 62
     0
370
     0
100
AcDbLine
 10
0.0
 20
-2.5
 30
0.0
 11
0.0
 21
-2.875
 31
0.0
  0
LINE
  5
1B3
330
1A9
100
AcDbEntity
  8
0
  6
Continuous
 62
     0
370
     0
100
AcDbLine
 10
2.5
 20
0.0
 30
0.0
 11
2.875
 21
0.0
 31
0.0
  0
ENDBLK
  5
1AB
330
1A9
100
AcDbEntity
  8
0
100
AcDbBlockEnd
  0
BLOCK
  5
1B6
330
1B5
100
AcDbEntity
  8
0
100
AcDbBlockBegin
  2
SW_CENTERMARKSYMBOL_1
 70
     0
 10
0.0
 20
0.0
 30
0.0
  3
SW_CENTERMARKSYMBOL_1
  1

  0
LINE
  5
1B8
330
1B5
100
AcDbEntity
  8
0
  6
Continuous
 62
     0
370
     0
100
AcDbLine
 10
0.0
 20
0.0
 30
0.0
 11
0.0
 21
1.25
 31
0.0
  0
LINE
  5
1B9
330
1B5
100
AcDbEntity
  8
0
  6
Continuous
 62
     0
370
     0
100
AcDbLine
 10
0.0
 20
0.0
 30
0.0
 11
-1.25
 21
0.0
 31
0.0
  0
LINE
  5
1BA
330
1B5
100
AcDbEntity
  8
0
  6
Continuous
 62
     0
370
     0
100
AcDbLine
 10
0.0
 20
0.0
 30
0.0
 11
0.0
 21
-1.25
 31
0.0
  0
LINE
  5
1BB
330
1B5
100
AcDbEntity
  8
0
  6
Continuous
 62
     0
370
     0
100
AcDbLine
 10
0.0
 20
0.0
 30
0.0
 11
1.25
 21
0.0
 31
0.0
  0
LINE
  5
1BC
330
1B5
100
AcDbEntity
  8
0
  6
Continuous
 62
     0
370
     0
100
AcDbLine
 10
0.0
 20
2.5
 30
0.0
 11
0.0
 21
2.875
 31
0.0
  0
LINE
  5
1BD
330
1B5
100
AcDbEntity
  8
0
  6
Continuous
 62
     0
370
     0
100
AcDbLine
 10
-2.5
 20
0.0
 30
0.0
 11
-2.875
 21
0.0
 31
0.0
  0
LINE
  5
1BE
330
1B5
100
AcDbEntity
  8
0
  6
Continuous
 62
     0
370
     0
100
AcDbLine
 10
0.0
 20
-2.5
 30
0.0
 11
0.0
 21
-2.875
 31
0.0
  0
LINE
  5
1BF
330
1B5
100
AcDbEntity
  8
0
  6
Continuous
 62
     0
370
     0
100
AcDbLine
 10
2.5
 20
0.0
 30
0.0
 11
2.875
 21
0.0
 31
0.0
  0
ENDBLK
  5
1B7
330
1B5
100
AcDbEntity
  8
0
100
AcDbBlockEnd
  0
BLOCK
  5
1C2
330
1C1
100
AcDbEntity
  8
0
100
AcDbBlockBegin
  2
SW_CENTERMARKSYMBOL_2
 70
     0
 10
0.0
 20
0.0
 30
0.0
  3
SW_CENTERMARKSYMBOL_2
  1

  0
LINE
  5
1C4
330
1C1
100
AcDbEntity
  8
0
  6
Continuous
 62
     0
370
     0
100
AcDbLine
 10
0.0
 20
0.0
 30
0.0
 11
0.0
 21
1.25
 31
0.0
  0
LINE
  5
1C5
330
1C1
100
AcDbEntity
  8
0
  6
Continuous
 62
     0
370
     0
100
AcDbLine
 10
0.0
 20
0.0
 30
0.0
 11
-1.25
 21
0.0
 31
0.0
  0
LINE
  5
1C6
330
1C1
100
AcDbEntity
  8
0
  6
Continuous
 62
     0
370
     0
100
AcDbLine
 10
0.0
 20
0.0
 30
0.0
 11
0.0
 21
-1.25
 31
0.0
  0
LINE
  5
1C7
330
1C1
100
AcDbEntity
  8
0
  6
Continuous
 62
     0
370
     0
100
AcDbLine
 10
0.0
 20
0.0
 30
0.0
 11
1.25
 21
0.0
 31
0.0
  0
LINE
  5
1C8
330
1C1
100
AcDbEntity
  8
0
  6
Continuous
 62
     0
370
     0
100
AcDbLine
 10
0.0
 20
2.5
 30
0.0
 11
0.0
 21
2.875
 31
0.0
  0
LINE
  5
1C9
330
1C1
100
AcDbEntity
  8
0
  6
Continuous
 62
     0
370
     0
100
AcDbLine
 10
-2.5
 20
0.0
 30
0.0
 11
-2.875
 21
0.0
 31
0.0
  0
LINE
  5
1CA
330
1C1
100
AcDbEntity
  8
0
  6
Continuous
 62
     0
370
     0
100
AcDbLine
 10
0.0
 20
-2.5
 30
0.0
 11
0.0
 21
-2.875
 31
0.0
  0
LINE
  5
1CB
330
1C1
100
AcDbEntity
  8
0
  6
Continuous
 62
     0
370
     0
100
AcDbLine
 10
2.5
 20
0.0
 30
0.0
 11
2.875
 21
0.0
 31
0.0
  0
ENDBLK
  5
1C3
330
1C1
100
AcDbEntity
  8
0
100
AcDbBlockEnd
  0
BLOCK
  5
207
330
206
100
AcDbEntity
  8
0
100
AcDbBlockBegin
  2
*D30
 70
     1
 10
0.0
 20
0.0
 30
0.0
  3
*D30
  1

  0
SOLID
  5
209
330
206
100
AcDbEntity
  8
1
100
AcDbTrace
 10
142.3623350285
 20
254.1128469867
 30
0.0
 11
143.0123350285
 21
257.6128469867
 31
0.0
 12
141.7123350285
 22
257.6128469867
 32
0.0
 13
141.7123350285
 23
257.6128469867
 33
0.0
  0
SOLID
  5
20A
330
206
100
AcDbEntity
  8
1
100
AcDbTrace
 10
142.3623350285
 20
251.1128469867
 30
0.0
 11
141.7123350285
 21
247.6128469867
 31
0.0
 12
143.0123350285
 22
247.6128469867
 32
0.0
 13
143.0123350285
 23
247.6128469867
 33
0.0
  0
LINE
  5
20B
330
206
100
AcDbEntity
  8
1
100
AcDbLine
 10
151.4066734278
 20
254.1128469867
 30
0.0
 11
141.3623350285
 21
254.1128469867
 31
0.0
  0
LINE
  5
20C
330
206
100
AcDbEntity
  8
1
100
AcDbLine
 10
151.7039929247
 20
251.1128469867
 30
0.0
 11
141.3623350285
 21
251.1128469867
 31
0.0
  0
LINE
  5
20D
330
206
100
AcDbEntity
  8
1
100
AcDbLine
 10
142.3623350285
 20
254.1128469867
 30
0.0
 11
142.3623350285
 21
265.9944603724
 31
0.0
  0
LINE
  5
20E
330
206
100
AcDbEntity
  8
1
100
AcDbLine
 10
142.3623350285
 20
254.1128469867
 30
0.0
 11
142.3623350285
 21
251.1128469867
 31
0.0
  0
LINE
  5
20F
330
206
100
AcDbEntity
  8
1
100
AcDbLine
 10
142.3623350285
 20
251.1128469867
 30
0.0
 11
142.3623350285
 21
246.1128469867
 31
0.0
  0
MTEXT
  5
210
330
206
100
AcDbEntity
  8
1
100
AcDbMText
 10
137.8505977064
 20
261.7344247741
 30
0.0
 40
3.5
 41
0.0
 71
     1
 72
     1
  1
3
  7
SLDTEXTSTYLE0
 11
-7.044195017643634E-15
 21
1.0
 31
0.0
 73
     1
 44
1.0
  0
ENDBLK
  5
208
330
206
100
AcDbEntity
  8
0
100
AcDbBlockEnd
  0
BLOCK
  5
214
330
213
100
AcDbEntity
  8
0
100
AcDbBlockBegin
  2
*D31
 70
     1
 10
0.0
 20
0.0
 30
0.0
  3
*D31
  1

  0
SOLID
  5
216
330
213
100
AcDbEntity
  8
1
100
AcDbTrace
 10
151.4043429023
 20
253.8442733318
 30
0.0
 11
150.2172594148
 21
257.2003622451
 31
0.0
 12
149.0914263899
 22
256.5503622451
 32
0.0
 13
149.0914263899
 23
256.5503622451
 33
0.0
  0
LINE
  5
217
330
213
100
AcDbEntity
  8
1
100
AcDbLine
 10
151.4043429023
 20
253.8442733318
 30
0.0
 11
143.8860560165
 21
266.866328204
 31
0.0
  0
LINE
  5
218
330
213
100
AcDbEntity
  8
1
100
AcDbLine
 10
151.4043429023
 20
253.8442733318
 30
0.0
 11
152.4066734278
 21
252.1081859358
 31
0.0
  0
MTEXT
  5
219
330
213
100
AcDbEntity
  8
1
100
AcDbMText
 10
148.5364433147
 20
267.7181434577
 30
0.0
 40
3.5
 41
0.0
 71
     1
 72
     1
  1
R
  7
SLDTEXTSTYLE0
 11
0.4999999999999976
 21
-0.86602540378444
 31
0.0
 73
     1
 44
1.0
  0
MTEXT
  5
21A
330
213
100
AcDbEntity
  8
1
100
AcDbMText
 10
150.2711195762
 20
264.713596038
 30
0.0
 40
3.5
 41
0.0
 71
     1
 72
     1
  1
2
  7
SLDTEXTSTYLE0
 11
0.4999999999999976
 21
-0.86602540378444
 31
0.0
 73
     1
 44
1.0
  0
ENDBLK
  5
215
330
213
100
AcDbEntity
  8
0
100
AcDbBlockEnd
  0
BLOCK
  5
21D
330
21C
100
AcDbEntity
  8
0
100
AcDbBlockBegin
  2
*D32
 70
     1
 10
0.0
 20
0.0
 30
0.0
  3
*D32
  1

  0
SOLID
  5
21F
330
21C
100
AcDbEntity
  8
1
100
AcDbTrace
 10
184.0994839848
 20
258.59176978
 30
0.0
 11
187.5994839848
 21
257.94176978
 31
0.0
 12
187.5994839848
 22
259.24176978
 32
0.0
 13
187.5994839848
 23
259.24176978
 33
0.0
  0
SOLID
  5
220
330
21C
100
AcDbEntity
  8
1
100
AcDbTrace
 10
177.5994839848
 20
258.59176978
 30
0.0
 11
174.0994839848
 21
259.24176978
 31
0.0
 12
174.0994839848
 22
257.94176978
 32
0.0
 13
174.0994839848
 23
257.94176978
 33
0.0
  0
LINE
  5
221
330
21C
100
AcDbEntity
  8
1
100
AcDbLine
 10
184.0994839848
 20
254.1128469867
 30
0.0
 11
184.0994839848
 21
259.59176978
 31
0.0
  0
LINE
  5
222
330
21C
100
AcDbEntity
  8
1
100
AcDbLine
 10
177.5994839848
 20
254.1128469867
 30
0.0
 11
177.5994839848
 21
259.59176978
 31
0.0
  0
LINE
  5
223
330
21C
100
AcDbEntity
  8
1
100
AcDbLine
 10
184.0994839848
 20
258.59176978
 30
0.0
 11
189.0994839848
 21
258.59176978
 31
0.0
  0
LINE
  5
224
330
21C
100
AcDbEntity
  8
1
100
AcDbLine
 10
184.0994839848
 20
258.59176978
 30
0.0
 11
177.5994839848
 21
258.59176978
 31
0.0
  0
LINE
  5
225
330
21C
100
AcDbEntity
  8
1
100
AcDbLine
 10
177.5994839848
 20
258.59176978
 30
0.0
 11
157.4262962526
 21
258.59176978
 31
0.0
  0
MTEXT
  5
226
330
21C
100
AcDbEntity
  8
1
100
AcDbMText
 10
159.0137962526
 20
263.103507102
 30
0.0
 40
3.5
 41
0.0
 71
     1
 72
     1
  1
6,5
  7
SLDTEXTSTYLE0
 73
     1
 44
1.0
  0
ENDBLK
  5
21E
330
21C
100
AcDbEntity
  8
0
100
AcDbBlockEnd
  0
BLOCK
  5
228
330
227
100
AcDbEntity
  8
0
100
AcDbBlockBegin
  2
SW_CHAMFER_DIMENSION_0
 70
     0
 10
0.0
 20
0.0
 30
0.0
  3
SW_CHAMFER_DIMENSION_0
  1

  0
SOLID
  5
22A
330
227
100
AcDbEntity
  8
1
 62
     0
100
AcDbTrace
 10
20.803154869
 20
12.7080912454
 30
0.0
 11
19.2723602757
 21
9.494188958
 31
0.0
 12
20.5283694956
 22
9.1588669642
 32
0.0
 13
20.5283694956
 23
9.1588669642
 33
0.0
  0
LINE
  5
22B
330
227
100
AcDbEntity
  8
1
 62
     0
100
AcDbLine
 10
20.803154869
 20
12.7080912454
 30
0.0
 11
17.410422949
 21
-0.0000002328
 31
0.0
  0
LINE
  5
22C
330
227
100
AcDbEntity
  8
1
 62
     0
100
AcDbLine
 10
17.410422949
 20
-0.0000002328
 30
0.0
 11
-1.5875
 21
-0.0000002328
 31
0.0
  0
MTEXT
  5
22D
330
227
100
AcDbEntity
  8
1
 62
     0
100
AcDbMText
 10
0.0
 20
4.5117370892
 30
0.0
 40
3.5
 41
0.0
 71
     1
 72
     1
  1
1
  7
SLDTEXTSTYLE0
 73
     1
 44
1.0
  0
MTEXT
  5
22E
330
227
100
AcDbEntity
  8
1
 62
     0
100
AcDbMText
 10
8.5526955326
 20
4.5117370892
 30
0.0
 40
3.5
 41
0.0
 71
     1
 72
     1
  1
45°
  7
SLDTEXTSTYLE0
 73
     1
 44
1.0
  0
MTEXT
  5
22F
330
227
100
AcDbEntity
  8
1
 62
     0
100
AcDbMText
 10
2.6725355983
 20
4.5117370892
 30
0.0
 40
3.5
 41
0.0
 71
     1
 72
     1
  1
 X 
  7
SLDTEXTSTYLE0
 73
     1
 44
1.0
  0
ENDBLK
  5
229
330
227
100
AcDbEntity
  8
0
100
AcDbBlockEnd
  0
BLOCK
  5
232
330
231
100
AcDbEntity
  8
0
100
AcDbBlockBegin
  2
SW_CHAMFER_DIMENSION_1
 70
     0
 10
0.0
 20
0.0
 30
0.0
  3
SW_CHAMFER_DIMENSION_1
  1

  0
SOLID
  5
234
330
231
100
AcDbEntity
  8
1
 62
     0
100
AcDbTrace
 10
20.803154869
 20
-12.683435233
 30
0.0
 11
20.5266502758
 21
-9.1343444748
 31
0.0
 12
19.270803634
 22
-9.4702748429
 32
0.0
 13
19.270803634
 23
-9.4702748429
 33
0.0
  0
LINE
  5
235
330
231
100
AcDbEntity
  8
1
 62
     0
100
AcDbLine
 10
20.803154869
 20
-12.683435233
 30
0.0
 11
17.410422949
 21
-0.0000002328
 31
0.0
  0
LINE
  5
236
330
231
100
AcDbEntity
  8
1
 62
     0
100
AcDbLine
 10
17.410422949
 20
-0.0000002328
 30
0.0
 11
-1.5875
 21
-0.0000002328
 31
0.0
  0
MTEXT
  5
237
330
231
100
AcDbEntity
  8
1
 62
     0
100
AcDbMText
 10
0.0
 20
4.5117370892
 30
0.0
 40
3.5
 41
0.0
 71
     1
 72
     1
  1
1
  7
SLDTEXTSTYLE0
 73
     1
 44
1.0
  0
MTEXT
  5
238
330
231
100
AcDbEntity
  8
1
 62
     0
100
AcDbMText
 10
8.5526955326
 20
4.5117370892
 30
0.0
 40
3.5
 41
0.0
 71
     1
 72
     1
  1
45°
  7
SLDTEXTSTYLE0
 73
     1
 44
1.0
  0
MTEXT
  5
239
330
231
100
AcDbEntity
  8
1
 62
     0
100
AcDbMText
 10
2.6725355983
 20
4.5117370892
 30
0.0
 40
3.5
 41
0.0
 71
     1
 72
     1
  1
 X 
  7
SLDTEXTSTYLE0
 73
     1
 44
1.0
  0
ENDBLK
  5
233
330
231
100
AcDbEntity
  8
0
100
AcDbBlockEnd
  0
BLOCK
  5
23D
330
23C
100
AcDbEntity
  8
0
100
AcDbBlockBegin
  2
*D35
 70
     1
 10
0.0
 20
0.0
 30
0.0
  3
*D35
  1

  0
SOLID
  5
23F
330
23C
100
AcDbEntity
  8
1
100
AcDbTrace
 10
151.703652243
 20
251.3808874645
 30
0.0
 11
149.3907357306
 21
248.6747985512
 31
0.0
 12
150.5165687555
 22
248.0247985512
 32
0.0
 13
150.5165687555
 23
248.0247985512
 33
0.0
  0
LINE
  5
240
330
23C
100
AcDbEntity
  8
1
100
AcDbLine
 10
151.703652243
 20
251.3808874645
 30
0.0
 11
140.1192044545
 21
231.316035317
 31
0.0
  0
LINE
  5
241
330
23C
100
AcDbEntity
  8
1
100
AcDbLine
 10
151.703652243
 20
251.3808874645
 30
0.0
 11
152.7039929247
 21
253.1135283499
 31
0.0
  0
MTEXT
  5
242
330
23C
100
AcDbEntity
  8
1
100
AcDbMText
 10
137.025037104
 20
234.9355407744
 30
0.0
 40
3.5
 41
0.0
 71
     1
 72
     1
  1
R
  7
SLDTEXTSTYLE0
 11
0.4999999999999988
 21
0.8660254037844394
 31
0.0
 73
     1
 44
1.0
  0
MTEXT
  5
243
330
23C
100
AcDbEntity
  8
1
100
AcDbMText
 10
138.7597133655
 20
237.9400881941
 30
0.0
 40
3.5
 41
0.0
 71
     1
 72
     1
  1
2
  7
SLDTEXTSTYLE0
 11
0.4999999999999988
 21
0.8660254037844394
 31
0.0
 73
     1
 44
1.0
  0
ENDBLK
  5
23E
330
23C
100
AcDbEntity
  8
0
100
AcDbBlockEnd
  0
BLOCK
  5
245
330
244
100
AcDbEntity
  8
0
100
AcDbBlockBegin
  2
SW_NOTE_2
 70
     0
 10
0.0
 20
0.0
 30
0.0
  3
SW_NOTE_2
  1

  0
MTEXT
  5
247
330
244
100
AcDbEntity
  8
1
 62
     0
100
AcDbMText
 10
0.0
 20
6.4453386989
 30
0.0
 40
5.0
 41
0.0
 71
     1
 72
     1
  1
SECTION A-A 
  7
SLDTEXTSTYLE0
 73
     1
 44
1.0
  0
MTEXT
  5
248
330
244
100
AcDbEntity
  8
1
 62
     0
100
AcDbMText
 10
3.9965268224
 20
-0.0129945289
 30
0.0
 40
5.0
 41
0.0
 71
     1
 72
     1
  1
SCALE 1 : 1
  7
SLDTEXTSTYLE0
 73
     1
 44
1.0
  0
ENDBLK
  5
246
330
244
100
AcDbEntity
  8
0
100
AcDbBlockEnd
  0
ENDSEC
  0
SECTION
  2
ENTITIES
  0
LINE
  5
64
330
1F
100
AcDbEntity
  8
1
 62
     7
100
AcDbLine
 10
186.0
 20
35.0
 30
0.0
 11
130.0
 21
35.0
 31
0.0
  0
LINE
  5
65
330
1F
100
AcDbEntity
  8
1
 62
     7
100
AcDbLine
 10
186.0
 20
25.0
 30
0.0
 11
205.0
 21
25.0
 31
0.0
  0
LINE
  5
66
330
1F
100
AcDbEntity
  8
1
 62
     7
370
    15
100
AcDbLine
 10
205.0
 20
30.0
 30
0.0
 11
205.0
 21
284.0
 31
0.0
  0
LINE
  5
67
330
1F
100
AcDbEntity
  8
1
 62
     7
100
AcDbLine
 10
168.0
 20
45.0
 30
0.0
 11
168.0
 21
55.0
 31
0.0
  0
LINE
  5
68
330
1F
100
AcDbEntity
  8
1
 62
     7
370
    15
100
AcDbLine
 10
205.0
 20
290.0
 30
0.0
 11
187.0
 21
290.0
 31
0.0
  0
LINE
  5
69
330
1F
100
AcDbEntity
  8
1
 62
     7
370
    15
100
AcDbLine
 10
5.0
 20
290.0
 30
0.0
 11
5.0
 21
284.0
 31
0.0
  0
LINE
  5
6A
330
1F
100
AcDbEntity
  8
1
 62
     7
100
AcDbLine
 10
55.0
 20
25.0
 30
0.0
 11
55.0
 21
5.0
 31
0.0
  0
LINE
  5
6B
330
1F
100
AcDbEntity
  8
1
 62
     7
370
    15
100
AcDbLine
 10
5.0
 20
5.0
 30
0.0
 11
205.0
 21
5.0
 31
0.0
  0
LINE
  5
6C
330
1F
100
AcDbEntity
  8
1
100
AcDbLine
 10
30.1517862562
 20
289.9573552842
 30
0.0
 11
30.1517862562
 21
283.9573552842
 31
0.0
  0
LINE
  5
6D
330
1F
100
AcDbEntity
  8
1
100
AcDbLine
 10
5.1517862562
 20
283.9573552842
 30
0.0
 11
205.1517862562
 21
283.9573552842
 31
0.0
  0
LINE
  5
6E
330
1F
100
AcDbEntity
  8
1
100
AcDbLine
 10
168.1517862562
 20
289.9573552842
 30
0.0
 11
168.1517862562
 21
283.9573552842
 31
0.0
  0
LINE
  5
6F
330
1F
100
AcDbEntity
  8
1
100
AcDbLine
 10
187.1517862562
 20
289.9573552842
 30
0.0
 11
187.1517862562
 21
283.9573552842
 31
0.0
  0
LINE
  5
70
330
1F
100
AcDbEntity
  8
1
 62
     7
100
AcDbLine
 10
5.0
 20
25.0
 30
0.0
 11
186.0
 21
25.0
 31
0.0
  0
LINE
  5
71
330
1F
100
AcDbEntity
  8
1
 62
     7
100
AcDbLine
 10
5.0
 20
55.0
 30
0.0
 11
30.0
 21
55.0
 31
0.0
  0
LINE
  5
72
330
1F
100
AcDbEntity
  8
1
 62
     7
100
AcDbLine
 10
55.0
 20
55.0
 30
0.0
 11
55.0
 21
40.0
 31
0.0
  0
LINE
  5
73
330
1F
100
AcDbEntity
  8
1
 62
     7
100
AcDbLine
 10
55.0
 20
40.0
 30
0.0
 11
130.0
 21
40.0
 31
0.0
  0
LINE
  5
74
330
1F
100
AcDbEntity
  8
1
 62
     7
100
AcDbLine
 10
55.0
 20
40.0
 30
0.0
 11
55.0
 21
25.0
 31
0.0
  0
LINE
  5
75
330
1F
100
AcDbEntity
  8
1
 62
     7
100
AcDbLine
 10
130.0
 20
25.0
 30
0.0
 11
130.0
 21
55.0
 31
0.0
  0
LINE
  5
76
330
1F
100
AcDbEntity
  8
1
 62
     7
370
    15
100
AcDbLine
 10
205.0
 20
290.0
 30
0.0
 11
205.0
 21
284.0
 31
0.0
  0
LINE
  5
77
330
1F
100
AcDbEntity
  8
1
  6
CENTERX2
 62
     7
100
AcDbLine
 10
141.0
 20
30.0
 30
0.0
 11
149.0
 21
30.0
 31
0.0
  0
LINE
  5
78
330
1F
100
AcDbEntity
  8
1
  6
CENTERX2
 62
     4
100
AcDbLine
 10
130.0
 20
30.0
 30
0.0
 11
131.0
 21
30.0
 31
0.0
  0
LINE
  5
79
330
1F
100
AcDbEntity
  8
1
 62
     7
100
AcDbLine
 10
131.0
 20
30.0
 30
0.0
 11
131.0
 21
32.0
 31
0.0
  0
LINE
  5
7A
330
1F
100
AcDbEntity
  8
1
  6
CENTERX2
 62
     7
100
AcDbLine
 10
131.0
 20
30.0
 30
0.0
 11
139.0
 21
30.0
 31
0.0
  0
LINE
  5
7B
330
1F
100
AcDbEntity
  8
1
 62
     7
100
AcDbLine
 10
139.0
 20
30.0
 30
0.0
 11
139.0
 21
33.0
 31
0.0
  0
LINE
  5
7C
330
1F
100
AcDbEntity
  8
1
  6
CENTERX2
 62
     7
100
AcDbLine
 10
139.0
 20
30.0
 30
0.0
 11
140.0
 21
30.0
 31
0.0
  0
LINE
  5
7D
330
1F
100
AcDbEntity
  8
1
 62
     7
100
AcDbLine
 10
131.0
 20
32.0
 30
0.0
 11
139.0
 21
33.0
 31
0.0
  0
LINE
  5
7E
330
1F
100
AcDbEntity
  8
1
 62
     7
100
AcDbLine
 10
131.0
 20
28.0
 30
0.0
 11
131.0
 21
30.0
 31
0.0
  0
LINE
  5
7F
330
1F
100
AcDbEntity
  8
1
 62
     7
100
AcDbLine
 10
139.0
 20
27.0
 30
0.0
 11
131.0
 21
28.0
 31
0.0
  0
LINE
  5
80
330
1F
100
AcDbEntity
  8
1
 62
     7
100
AcDbLine
 10
139.0
 20
27.0
 30
0.0
 11
139.0
 21
30.0
 31
0.0
  0
LINE
  5
81
330
1F
100
AcDbEntity
  8
1
  6
CENTERX2
 62
     7
100
AcDbLine
 10
145.0
 20
34.0
 30
0.0
 11
145.0
 21
25.0
 31
0.0
  0
LINE
  5
82
330
1F
100
AcDbEntity
  8
1
 62
     7
100
AcDbLine
 10
150.0
 20
5.0
 30
0.0
 11
150.0
 21
55.0
 31
0.0
  0
LINE
  5
83
330
1F
100
AcDbEntity
  8
1
 62
     7
100
AcDbLine
 10
150.0
 20
50.0
 30
0.0
 11
205.0
 21
50.0
 31
0.0
  0
LINE
  5
84
330
1F
100
AcDbEntity
  8
1
 62
     7
100
AcDbLine
 10
205.0
 20
35.0
 30
0.0
 11
186.0
 21
35.0
 31
0.0
  0
LINE
  5
85
330
1F
100
AcDbEntity
  8
1
 62
     7
100
AcDbLine
 10
186.0
 20
55.0
 30
0.0
 11
186.0
 21
45.0
 31
0.0
  0
LINE
  5
86
330
1F
100
AcDbEntity
  8
1
 62
     7
100
AcDbLine
 10
150.0
 20
45.0
 30
0.0
 11
205.0
 21
45.0
 31
0.0
  0
LINE
  5
87
330
1F
100
AcDbEntity
  8
1
 62
     7
370
    15
100
AcDbLine
 10
205.0
 20
5.0
 30
0.0
 11
205.0
 21
30.0
 31
0.0
  0
LINE
  5
88
330
1F
100
AcDbEntity
  8
1
 62
     7
370
    15
100
AcDbLine
 10
5.0
 20
284.0
 30
0.0
 11
5.0
 21
5.0
 31
0.0
  0
LINE
  5
89
330
1F
100
AcDbEntity
  8
1
 62
     7
100
AcDbLine
 10
30.0
 20
55.0
 30
0.0
 11
130.0
 21
55.0
 31
0.0
  0
LINE
  5
8A
330
1F
100
AcDbEntity
  8
1
 62
     7
370
    15
100
AcDbLine
 10
30.0
 20
290.0
 30
0.0
 11
5.0
 21
290.0
 31
0.0
  0
LINE
  5
8B
330
1F
100
AcDbEntity
  8
1
 62
     7
370
    15
100
AcDbLine
 10
150.0
 20
290.0
 30
0.0
 11
30.0
 21
290.0
 31
0.0
  0
LINE
  5
8C
330
1F
100
AcDbEntity
  8
1
 62
     7
370
    15
100
AcDbLine
 10
168.0
 20
290.0
 30
0.0
 11
150.0
 21
290.0
 31
0.0
  0
LINE
  5
8D
330
1F
100
AcDbEntity
  8
1
 62
     7
370
    15
100
AcDbLine
 10
187.0
 20
290.0
 30
0.0
 11
168.0
 21
290.0
 31
0.0
  0
LINE
  5
8E
330
1F
100
AcDbEntity
  8
1
 62
     7
100
AcDbLine
 10
130.0
 20
55.0
 30
0.0
 11
186.0
 21
55.0
 31
0.0
  0
LINE
  5
8F
330
1F
100
AcDbEntity
  8
1
 62
     7
100
AcDbLine
 10
186.0
 20
55.0
 30
0.0
 11
205.0
 21
55.0
 31
0.0
  0
LINE
  5
90
330
1F
100
AcDbEntity
  8
1
 62
     7
370
    15
100
AcDbLine
 10
205.0
 20
61.0
 30
0.0
 11
5.0
 21
61.0
 31
0.0
  0
CIRCLE
  5
91
330
1F
100
AcDbEntity
  8
1
 62
     7
100
AcDbCircle
 10
145.0
 20
30.0
 30
0.0
 40
2.0
  0
CIRCLE
  5
92
330
1F
100
AcDbEntity
  8
1
 62
     7
100
AcDbCircle
 10
145.0
 20
30.0
 30
0.0
 40
3.0
  0
MTEXT
  5
94
330
1F
100
AcDbEntity
  8
1
100
AcDbMText
 10
68.9487886614
 20
49.7397058772
 30
0.0
 40
5.0
 41
0.0
 71
     1
 72
     1
  1
EA322
  7
SLDTEXTSTYLE0
 73
     1
 44
1.0
  0
MTEXT
  5
95
330
1F
100
AcDbEntity
  8
1
100
AcDbMText
 10
68.9487886614
 20
17.1322729808
 30
0.0
 40
5.0
 41
0.0
 71
     1
 72
     1
  1
EA322
  7
SLDTEXTSTYLE0
 73
     1
 44
1.0
  0
MTEXT
  5
96
330
1F
100
AcDbEntity
  8
1
100
AcDbMText
 10
168.8747926988
 20
53.8195678941
 30
0.0
 40
3.175
 41
0.0
 71
     1
 72
     1
  1
MATTIT
  7
SLDTEXTSTYLE0
 73
     1
 44
1.0
  0
MTEXT
  5
97
330
1F
100
AcDbEntity
  8
1
100
AcDbMText
 10
163.5723520206
 20
33.1201676935
 30
0.0
 40
5.0
 41
0.0
 71
     1
 72
     1
  1
1:2
  7
SLDTEXTSTYLE0
 73
     1
 44
1.0
  0
MTEXT
  5
98
330
1F
100
AcDbEntity
  8
1
100
AcDbMText
 10
57.0
 20
22.9336015491
 30
0.0
 40
1.5
 41
0.0
 71
     1
 72
     1
  1
TITLE
  7
SLDTEXTSTYLE0
 73
     1
 44
1.0
  0
MTEXT
  5
99
330
1F
100
AcDbEntity
  8
1
100
AcDbMText
 10
152.0
 20
22.9336015491
 30
0.0
 40
1.5
 41
0.0
 71
     1
 72
     1
  1
DRAWING
  7
SLDTEXTSTYLE0
 73
     1
 44
1.0
  0
MTEXT
  5
9A
330
1F
100
AcDbEntity
  8
1
100
AcDbMText
 10
57.0
 20
37.9336015491
 30
0.0
 40
1.5
 41
0.0
 71
     1
 72
     1
  1
ASSEMBLY
  7
SLDTEXTSTYLE0
 73
     1
 44
1.0
  0
MTEXT
  5
9B
330
1F
100
AcDbEntity
  8
1
100
AcDbMText
 10
57.0
 20
52.9336015491
 30
0.0
 40
1.5
 41
0.0
 71
     1
 72
     1
  1
PRODUCT
  7
SLDTEXTSTYLE0
 73
     1
 44
1.0
  0
MTEXT
  5
9C
330
1F
100
AcDbEntity
  8
1
100
AcDbMText
 10
152.0
 20
32.9336015491
 30
0.0
 40
1.5
 41
0.0
 71
     1
 72
     1
  1
SCALE
  7
SLDTEXTSTYLE0
 73
     1
 44
1.0
  0
MTEXT
  5
9D
330
1F
100
AcDbEntity
  8
1
100
AcDbMText
 10
132.0
 20
52.9336015491
 30
0.0
 40
1.5
 41
0.0
 71
     1
 72
     1
  1
SURFACE AREA
  7
SLDTEXTSTYLE0
 73
     1
 44
1.0
  0
MTEXT
  5
9E
330
1F
100
AcDbEntity
  8
1
100
AcDbMText
 10
144.0
 20
47.4336015491
 30
0.0
 40
1.5
 41
0.0
 71
     1
 72
     1
  1
dm
  7
SLDTEXTSTYLE0
 73
     1
 44
1.0
  0
MTEXT
  5
A0
330
1F
100
AcDbEntity
  8
1
100
AcDbMText
 10
146.9391003813
 20
48.3812299688
 30
0.0
 40
1.0
 41
0.0
 71
     1
 72
     1
  1
2
  7
SLDTEXTSTYLE1
 73
     1
 44
1.0
  0
MTEXT
  5
A1
330
1F
100
AcDbEntity
  8
1
100
AcDbMText
 10
144.0
 20
40.4336015491
 30
0.0
 40
1.5
 41
0.0
 71
     1
 72
     1
  1
dm
  7
SLDTEXTSTYLE0
 73
     1
 44
1.0
  0
MTEXT
  5
A2
330
1F
100
AcDbEntity
  8
1
100
AcDbMText
 10
146.9391003813
 20
41.3812299688
 30
0.0
 40
1.0
 41
0.0
 71
     1
 72
     1
  1
2
  7
SLDTEXTSTYLE1
 73
     1
 44
1.0
  0
MTEXT
  5
A3
330
1F
100
AcDbEntity
  8
1
100
AcDbMText
 10
151.5700227822
 20
52.8293127054
 30
0.0
 40
1.5
 41
0.0
 71
     1
 72
     1
  1
DRAWN
  7
SLDTEXTSTYLE0
 73
     1
 44
1.0
  0
MTEXT
  5
A4
330
1F
100
AcDbEntity
  8
1
100
AcDbMText
 10
151.5454806934
 20
47.9336015491
 30
0.0
 40
1.5
 41
0.0
 71
     1
 72
     1
  1
CHECKED
  7
SLDTEXTSTYLE0
 73
     1
 44
1.0
  0
MTEXT
  5
A5
330
1F
100
AcDbEntity
  8
1
100
AcDbMText
 10
173.5559791718
 20
287.7954376275
 30
0.0
 40
1.5
 41
0.0
 71
     1
 72
     1
  1
DRAWN
  7
SLDTEXTSTYLE0
 73
     1
 44
1.0
  0
MTEXT
  5
A6
330
1F
100
AcDbEntity
  8
1
100
AcDbMText
 10
83.1465338493
 20
287.7667174844
 30
0.0
 40
1.5
 41
0.0
 71
     1
 72
     1
  1
DESCRIPTION
  7
SLDTEXTSTYLE0
 73
     1
 44
1.0
  0
MTEXT
  5
A7
330
1F
100
AcDbEntity
  8
1
100
AcDbMText
 10
12.7086682515
 20
287.7702822706
 30
0.0
 40
1.5
 41
0.0
 71
     1
 72
     1
  1
REV
  7
SLDTEXTSTYLE0
 73
     1
 44
1.0
  0
MTEXT
  5
A8
330
1F
100
AcDbEntity
  8
1
100
AcDbMText
 10
191.5950705303
 20
287.7667004614
 30
0.0
 40
1.5
 41
0.0
 71
     1
 72
     1
  1
DATE
  7
SLDTEXTSTYLE0
 73
     1
 44
1.0
  0
MTEXT
  5
A9
330
1F
100
AcDbEntity
  8
1
100
AcDbMText
 10
10.2009728192
 20
8.5482791348
 30
0.0
 40
1.5
 41
0.0
 71
     1
 72
     1
  1
An ASSA ABLOY Group brand
  7
SLDTEXTSTYLE0
 73
     1
 44
1.0
  0
MTEXT
  5
AA
330
1F
100
AcDbEntity
  8
1
100
AcDbMText
 10
10.2860152862
 20
11.5603683027
 30
0.0
 40
1.5
 41
0.0
 71
     1
 72
     1
  1
Abloy Oy
  7
SLDTEXTSTYLE0
 73
     1
 44
1.0
  0
INSERT
  5
B1
330
1F
100
AcDbEntity
  8
1
100
AcDbBlockReference
  2
SW_NOTE_0
 10
8.153755411
 20
35.3910105451
 30
0.0
  0
INSERT
  5
B9
330
1F
100
AcDbEntity
  8
1
100
AcDbBlockReference
  2
SW_NOTE_1
 10
8.0494226461
 20
50.5532587888
 30
0.0
  0
LINE
  5
BA
330
1F
100
AcDbEntity
  8
0
  6
Continuous
 62
     7
370
    15
100
AcDbLine
 10
61.5691882801
 20
228.2196814498
 30
0.0
 11
61.5691882801
 21
141.5937925061
 31
0.0
  0
SPLINE
  5
BB
330
1F
100
AcDbEntity
  8
0
  6
Continuous
 62
     7
370
    15
100
AcDbSpline
210
0.0
220
0.0
230
1.0
 70
     8
 71
     3
 72
    14
 73
    10
 74
     0
 42
0.00000001
 43
0.00000001
 40
0.0
 40
0.0
 40
0.0
 40
0.0
 40
0.25
 40
0.25
 40
0.5
 40
0.5
 40
0.75
 40
0.75
 40
1.0
 40
1.0
 40
1.0
 40
1.0
 10
61.56918819330795
 20
141.5937924786946
 30
0.0
 10
61.44273268350639
 20
141.7138630660634
 30
0.0
 10
61.33167368928219
 20
141.8441511589942
 30
0.0
 10
61.1377595174924
 20
142.124416222553
 30
0.0
 10
61.05795846700947
 20
142.2697655934119
 30
0.0
 10
60.92762335139169
 20
142.5738296893126
 30
0.0
 10
60.87683392748283
 20
142.7344434418241
 30
0.0
 10
60.8085958466737
 20
143.0633700902767
 30
0.0
 10
60.79059347181006
 20
143.2320016411404
 30
0.0
 10
60.79059347181006
 20
143.4067359050445
 30
0.0
  0
LINE
  5
BC
330
1F
100
AcDbEntity
  8
0
  6
Continuous
 62
     7
370
    15
100
AcDbLine
 10
60.7905932945
 20
143.4067357635
 30
0.0
 11
60.7905932945
 21
226.4067391237
 31
0.0
  0
SPLINE
  5
BD
330
1F
100
AcDbEntity
  8
0
  6
Continuous
 62
     7
370
    15
100
AcDbSpline
210
0.0
220
0.0
230
1.0
 70
     8
 71
     3
 72
    14
 73
    10
 74
     0
 42
0.00000001
 43
0.00000001
 40
0.0
 40
0.0
 40
0.0
 40
0.0
 40
0.25
 40
0.25
 40
0.5
 40
0.5
 40
0.75
 40
0.75
 40
1.0
 40
1.0
 40
1.0
 40
1.0
 10
60.79059347181007
 20
226.4067359050445
 30
0.0
 10
60.79059347181007
 20
226.5810359730295
 30
0.0
 10
60.80859169050823
 20
226.7510306170102
 30
0.0
 10
60.87800325619773
 20
227.0836998203343
 30
0.0
 10
60.92814886528512
 20
227.2411208378277
 30
0.0
 10
61.05862537743701
 20
227.545007032964
 30
0.0
 10
61.14026595556718
 20
227.6930166754519
 30
0.0
 10
61.33244802168296
 20
227.9700954425718
 30
0.0
 10
61.44253338453682
 20
228.0994195079506
 30
0.0
 10
61.56918819330792
 20
228.2196793313943
 30
0.0
  0
LINE
  5
BE
330
1F
100
AcDbEntity
  8
0
  6
Continuous
 62
     7
370
    15
100
AcDbLine
 10
68.9905933347
 20
228.9067367395
 30
0.0
 11
68.9905933347
 21
236.9067380508
 31
0.0
  0
ARC
  5
BF
330
1F
100
AcDbEntity
  8
0
  6
Continuous
 62
     7
370
    15
100
AcDbCircle
 10
74.9405934718
 20
236.906735905
 30
0.0
 40
5.950000000000003
100
AcDbArc
 50
0.0
 51
180.0
  0
LINE
  5
C0
330
1F
100
AcDbEntity
  8
0
  6
Continuous
 62
     7
370
    15
100
AcDbLine
 10
80.8905936089
 20
236.9067380508
 30
0.0
 11
80.8905936089
 21
132.906735905
 31
0.0
  0
ARC
  5
C1
330
1F
100
AcDbEntity
  8
0
  6
Continuous
 62
     7
370
    15
100
AcDbCircle
 10
74.9405934718
 20
132.906735905
 30
0.0
 40
5.950000000000003
100
AcDbArc
 50
180.0
 51
0.0
  0
LINE
  5
C2
330
1F
100
AcDbEntity
  8
0
  6
Continuous
 62
     7
370
    15
100
AcDbLine
 10
68.9905933347
 20
132.906735905
 30
0.0
 11
68.9905933347
 21
140.906736285
 31
0.0
  0
LINE
  5
C3
330
1F
100
AcDbEntity
  8
0
  6
Continuous
 62
     7
370
    15
100
AcDbLine
 10
68.9905933347
 20
140.906736285
 30
0.0
 11
63.2905937043
 21
140.906736285
 31
0.0
  0
CIRCLE
  5
C4
330
1F
100
AcDbEntity
  8
0
  6
Continuous
 62
     7
370
    15
100
AcDbCircle
 10
74.9405934718
 20
132.906735905
 30
0.0
 40
2.125
  0
CIRCLE
  5
C5
330
1F
100
AcDbEntity
  8
0
  6
Continuous
 62
     7
370
    15
100
AcDbCircle
 10
75.7905934718
 20
189.406735905
 30
0.0
 40
2.125
  0
CIRCLE
  5
C6
330
1F
100
AcDbEntity
  8
0
  6
Continuous
 62
     7
370
    15
100
AcDbCircle
 10
74.9405934718
 20
236.906735905
 30
0.0
 40
2.125
  0
LINE
  5
C7
330
1F
100
AcDbEntity
  8
0
  6
Continuous
 62
     7
370
    15
100
AcDbLine
 10
78.0155933705
 20
201.4067331632
 30
0.0
 11
71.3905934487
 21
201.4067331632
 31
0.0
  0
LINE
  5
C8
330
1F
100
AcDbEntity
  8
0
  6
Continuous
 62
     7
370
    15
100
AcDbLine
 10
78.0155933705
 20
218.4067378124
 30
0.0
 11
78.0155933705
 21
201.4067331632
 31
0.0
  0
LINE
  5
C9
330
1F
100
AcDbEntity
  8
0
  6
Continuous
 62
     7
370
    15
100
AcDbLine
 10
71.3905934487
 20
218.4067378124
 30
0.0
 11
78.0155933705
 21
218.4067378124
 31
0.0
  0
LINE
  5
CA
330
1F
100
AcDbEntity
  8
0
  6
Continuous
 62
     7
370
    15
100
AcDbLine
 10
71.3905934487
 20
201.4067331632
 30
0.0
 11
71.3905934487
 21
218.4067378124
 31
0.0
  0
LINE
  5
CB
330
1F
100
AcDbEntity
  8
0
  6
Continuous
 62
     7
370
    15
100
AcDbLine
 10
70.7655935791
 20
178.4067349812
 30
0.0
 11
78.0155933705
 21
178.4067349812
 31
0.0
  0
LINE
  5
CC
330
1F
100
AcDbEntity
  8
0
  6
Continuous
 62
     7
370
    15
100
AcDbLine
 10
78.0155933705
 20
154.4067366352
 30
0.0
 11
70.7655935791
 21
154.4067366352
 31
0.0
  0
LINE
  5
CD
330
1F
100
AcDbEntity
  8
0
  6
Continuous
 62
     7
370
    15
100
AcDbLine
 10
78.0155933705
 20
178.4067349812
 30
0.0
 11
78.0155933705
 21
154.4067366352
 31
0.0
  0
LINE
  5
CE
330
1F
100
AcDbEntity
  8
0
  6
Continuous
 62
     7
370
    15
100
AcDbLine
 10
70.7655935791
 20
154.4067366352
 30
0.0
 11
70.7655935791
 21
178.4067349812
 31
0.0
  0
LINE
  5
CF
330
1F
100
AcDbEntity
  8
0
  6
Continuous
 62
     7
370
    15
100
AcDbLine
 10
63.2905937043
 20
228.9067367395
 30
0.0
 11
68.9905933347
 21
228.9067367395
 31
0.0
  0
ARC
  5
D0
330
1F
100
AcDbEntity
  8
0
  6
Continuous
 62
     7
370
    15
100
AcDbCircle
 10
63.2905934718
 20
143.406735905
 30
0.0
 40
2.500000000000015
100
AcDbArc
 50
226.4836049695
 51
270.0
  0
ARC
  5
D1
330
1F
100
AcDbEntity
  8
0
  6
Continuous
 62
     7
370
    15
100
AcDbCircle
 10
63.2905934718
 20
226.406735905
 30
0.0
 40
2.5
100
AcDbArc
 50
90.0
 51
133.5163950305
  0
CIRCLE
  5
D2
330
1F
100
AcDbEntity
  8
0
  6
Continuous
 62
     7
370
    15
100
AcDbCircle
 10
75.7905934718
 20
189.406735905
 30
0.0
 40
1.625
  0
CIRCLE
  5
D3
330
1F
100
AcDbEntity
  8
0
  6
Continuous
 62
     7
370
    15
100
AcDbCircle
 10
74.9405934718
 20
236.906735905
 30
0.0
 40
1.625
  0
LINE
  5
D4
330
1F
100
AcDbEntity
  8
0
  6
Continuous
 62
     7
370
    15
100
AcDbLine
 10
71.7655935102
 20
218.4067378124
 30
0.0
 11
71.7655935102
 21
201.4067331632
 31
0.0
  0
CIRCLE
  5
D5
330
1F
100
AcDbEntity
  8
0
  6
Continuous
 62
     7
370
    15
100
AcDbCircle
 10
74.9405934718
 20
132.906735905
 30
0.0
 40
1.625
  0
LINE
  5
D6
330
1F
100
AcDbEntity
  8
1
100
AcDbLine
 10
74.9405934718
 20
246.8585501735
 30
0.0
 11
74.9405934718
 21
123.4601965579
 31
0.0
  0
DIMENSION
  5
D7
330
1F
100
AcDbEntity
  8
1
100
AcDbDimension
  2
*D4
 10
74.9405934718
 20
246.8585501735
 30
0.05
 11
74.9405934718
 21
255.3122219635
 31
0.0
 70
   102
 71
     5
 42
-1.0
  3
SLDDIMSTYLE0
100
AcDbOrdinateDimension
 13
74.9405934718
 23
246.8585501735
 33
0.05
 14
74.9405934718
 24
252.3884541644
 34
0.05
  0
DIMENSION
  5
E5
330
1F
100
AcDbEntity
  8
1
100
AcDbDimension
  2
*D5
 10
74.9405934718
 20
246.8585501735
 30
0.05
 11
90.4125474053
 21
258.6536184841
 31
0.0
 70
   102
 71
     5
 42
-1.0
  3
SLDDIMSTYLE1
100
AcDbOrdinateDimension
 13
80.8905934718
 23
236.906735905
 33
0.05
 14
90.4125474053
 24
252.3884541644
 34
0.05
  0
DIMENSION
  5
F0
330
1F
100
AcDbEntity
  8
1
100
AcDbDimension
  2
*D6
 10
74.9405934718
 20
246.8585501735
 30
0.05
 11
64.0922000308
 21
258.6536184841
 31
0.0
 70
   102
 71
     5
 42
-1.0
  3
SLDDIMSTYLE1
100
AcDbOrdinateDimension
 13
68.9905934718
 23
236.906735905
 33
0.05
 14
64.0922000308
 24
252.3884541644
 34
0.05
  0
DIMENSION
  5
FA
330
1F
100
AcDbEntity
  8
1
100
AcDbDimension
  2
*D7
 10
74.9405934718
 20
246.8585501735
 30
0.05
 11
56.0205313258
 21
258.6536184841
 31
0.0
 70
   102
 71
     5
 42
-1.0
  3
SLDDIMSTYLE1
100
AcDbOrdinateDimension
 13
60.7905934718
 23
226.406735905
 33
0.05
 14
56.0205313258
 24
252.3884541644
 34
0.05
  0
DIMENSION
  5
104
330
1F
100
AcDbEntity
  8
1
100
AcDbDimension
  2
*D8
 10
74.9405934718
 20
246.8585501735
 30
0.05
 11
86.8312855532
 21
213.8475442034
 31
0.0
 70
   102
 71
     5
 42
-1.0
  3
SLDDIMSTYLE1
100
AcDbOrdinateDimension
 13
75.7905934718
 23
192.281735905
 33
0.05
 14
86.8312855532
 24
208.9186476828
 34
0.05
  0
DIMENSION
  5
10E
330
1F
100
AcDbEntity
  8
1
100
AcDbDimension
  2
*D9
 10
74.9405934718
 20
246.8585501735
 30
0.05
 11
83.2431189725
 21
258.6536184841
 31
0.0
 70
   102
 71
     5
 42
-1.0
  3
SLDDIMSTYLE1
100
AcDbOrdinateDimension
 13
78.0155934718
 23
218.406735905
 33
0.05
 14
83.2431189725
 24
252.3884541644
 34
0.05
  0
DIMENSION
  5
118
330
1F
100
AcDbEntity
  8
1
100
AcDbDimension
  2
*D10
 10
74.9405934718
 20
246.8585501735
 30
0.05
 11
69.7788376628
 21
258.6536184841
 31
0.0
 70
   102
 71
     5
 42
-1.0
  3
SLDDIMSTYLE1
100
AcDbOrdinateDimension
 13
71.7655934718
 23
218.406735905
 33
0.05
 14
69.7788376628
 24
252.3884541644
 34
0.05
  0
DIMENSION
  5
122
330
1F
100
AcDbEntity
  8
1
100
AcDbDimension
  2
*D11
 10
77.8155934718
 20
236.906735905
 30
0.05
 11
105.400388575
 21
236.906735905
 31
0.0
 70
    38
 71
     5
 42
-1.0
  3
SLDDIMSTYLE0
100
AcDbOrdinateDimension
 13
77.8155934718
 23
236.906735905
 33
0.05
 14
102.4766207759
 24
236.906735905
 34
0.05
  0
DIMENSION
  5
129
330
1F
100
AcDbEntity
  8
1
100
AcDbDimension
  2
*D12
 10
77.8155934718
 20
236.906735905
 30
0.05
 11
106.7366563742
 21
218.406735905
 31
0.0
 70
    38
 71
     5
 42
-1.0
  3
SLDDIMSTYLE1
100
AcDbOrdinateDimension
 13
78.0155934718
 23
218.406735905
 33
0.05
 14
102.4766207759
 24
218.406735905
 34
0.05
  0
DIMENSION
  5
131
330
1F
100
AcDbEntity
  8
1
100
AcDbDimension
  2
*D13
 10
77.8155934718
 20
236.906735905
 30
0.05
 11
106.7366563742
 21
201.406735905
 31
0.0
 70
    38
 71
     5
 42
-1.0
  3
SLDDIMSTYLE1
100
AcDbOrdinateDimension
 13
78.0155934718
 23
201.406735905
 33
0.05
 14
102.4766207759
 24
201.406735905
 34
0.05
  0
DIMENSION
  5
139
330
1F
100
AcDbEntity
  8
1
100
AcDbDimension
  2
*D14
 10
77.8155934718
 20
236.906735905
 30
0.05
 11
106.7366563742
 21
189.406735905
 31
0.0
 70
    38
 71
     5
 42
-1.0
  3
SLDDIMSTYLE1
100
AcDbOrdinateDimension
 13
78.6655934718
 23
189.406735905
 33
0.05
 14
102.4766207759
 24
189.406735905
 34
0.05
  0
DIMENSION
  5
141
330
1F
100
AcDbEntity
  8
1
100
AcDbDimension
  2
*D15
 10
77.8155934718
 20
236.906735905
 30
0.05
 11
108.0743782188
 21
178.406735905
 31
0.0
 70
    38
 71
     5
 42
-1.0
  3
SLDDIMSTYLE1
100
AcDbOrdinateDimension
 13
78.0155934718
 23
178.406735905
 33
0.05
 14
102.4766207759
 24
178.406735905
 34
0.05
  0
DIMENSION
  5
149
330
1F
100
AcDbEntity
  8
1
100
AcDbDimension
  2
*D16
 10
77.8155934718
 20
236.906735905
 30
0.05
 11
108.0743782188
 21
154.406735905
 31
0.0
 70
    38
 71
     5
 42
-1.0
  3
SLDDIMSTYLE1
100
AcDbOrdinateDimension
 13
78.0155934718
 23
154.406735905
 33
0.05
 14
102.4766207759
 24
154.406735905
 34
0.05
  0
DIMENSION
  5
151
330
1F
100
AcDbEntity
  8
1
100
AcDbDimension
  2
*D17
 10
77.8155934718
 20
236.906735905
 30
0.05
 11
108.0743782188
 21
132.906735905
 31
0.0
 70
    38
 71
     5
 42
-1.0
  3
SLDDIMSTYLE1
100
AcDbOrdinateDimension
 13
77.8155934718
 23
132.906735905
 33
0.05
 14
102.4766207759
 24
132.906735905
 34
0.05
  0
DIMENSION
  5
159
330
1F
100
AcDbEntity
  8
1
100
AcDbDimension
  2
*D18
 10
74.9405934718
 20
123.4601965579
 30
0.05
 11
74.9405934718
 21
114.4651043027
 31
0.0
 70
   102
 71
     5
 42
-1.0
  3
SLDDIMSTYLE0
100
AcDbOrdinateDimension
 13
74.9405934718
 23
123.4601965579
 33
0.05
 14
74.9405934718
 24
117.3888721018
 34
0.05
  0
DIMENSION
  5
161
330
1F
100
AcDbEntity
  8
1
100
AcDbDimension
  2
*D19
 10
74.9405934718
 20
123.4601965579
 30
0.05
 11
80.2383806022
 21
111.1237077821
 31
0.0
 70
   102
 71
     5
 42
-1.0
  3
SLDDIMSTYLE1
100
AcDbOrdinateDimension
 13
78.0155934718
 23
154.406735905
 33
0.05
 14
80.2383806022
 24
117.3888721018
 34
0.05
  0
DIMENSION
  5
16B
330
1F
100
AcDbEntity
  8
1
100
AcDbDimension
  2
*D20
 10
74.9405934718
 20
123.4601965579
 30
0.05
 11
68.3914195652
 21
111.1237077821
 31
0.0
 70
   102
 71
     5
 42
-1.0
  3
SLDDIMSTYLE1
100
AcDbOrdinateDimension
 13
70.7655934718
 23
154.406735905
 33
0.05
 14
68.3914195652
 24
117.3888721018
 34
0.05
  0
DIMENSION
  5
175
330
1F
100
AcDbEntity
  8
1
100
AcDbDimension
  2
*D21
 10
72.0655934718
 20
236.906735905
 30
0.05
 11
43.8338042252
 21
236.906735905
 31
0.0
 70
    38
 71
     5
 42
-1.0
  3
SLDDIMSTYLE0
100
AcDbOrdinateDimension
 13
72.0655934718
 23
236.906735905
 33
0.05
 14
46.7575720244
 24
236.906735905
 34
0.05
  0
DIMENSION
  5
17C
330
1F
100
AcDbEntity
  8
1
100
AcDbDimension
  2
*D22
 10
72.0655934718
 20
236.906735905
 30
0.05
 11
42.4975364261
 21
228.906735905
 31
0.0
 70
    38
 71
     5
 42
-1.0
  3
SLDDIMSTYLE1
100
AcDbOrdinateDimension
 13
63.2905934718
 23
228.906735905
 33
0.05
 14
46.7575720244
 24
228.906735905
 34
0.05
  0
DIMENSION
  5
184
330
1F
100
AcDbEntity
  8
1
100
AcDbDimension
  2
*D23
 10
72.0655934718
 20
236.906735905
 30
0.05
 11
41.1598145815
 21
140.906735905
 31
0.0
 70
    38
 71
     5
 42
-1.0
  3
SLDDIMSTYLE1
100
AcDbOrdinateDimension
 13
63.2905934718
 23
140.906735905
 33
0.05
 14
46.7575720244
 24
140.906735905
 34
0.05
  0
DIMENSION
  5
18C
330
1F
100
AcDbEntity
  8
1
100
AcDbDimension
  2
*D24
 10
63.2905934718
 20
143.406735905
 30
0.0
 11
49.7342851405
 21
129.8504275738
 31
0.0
 70
   164
  1
<>
 71
     1
 42
-1.0
  3
SLDDIMSTYLE2
100
AcDbRadialDimension
 15
61.5228265188
 25
141.6389689521
 35
0.0
 40
0.0
  0
DIMENSION
  5
197
330
1F
100
AcDbEntity
  8
1
100
AcDbDimension
  2
*D25
 10
74.9405934718
 20
132.906735905
 30
0.0
 11
58.9216595425
 21
119.9585265072
 31
0.0
 70
   164
  1
<>
 71
     1
 42
-1.0
  3
SLDDIMSTYLE2
100
AcDbRadialDimension
 15
70.3132334179
 25
129.1664098589
 35
0.0
 40
0.0
  0
DIMENSION
  5
1A0
330
1F
100
AcDbEntity
  8
1
100
AcDbDimension
  2
*D26
 10
63.2905934718
 20
226.406735905
 30
0.0
 11
45.211753252
 21
248.0571605242
 31
0.0
 70
   164
  1
<>
 71
     1
 42
-1.0
  3
SLDDIMSTYLE2
100
AcDbRadialDimension
 15
61.6882063489
 25
228.3256823629
 35
0.0
 40
0.0
  0
INSERT
  5
1B4
330
1F
100
AcDbEntity
  8
0
  6
Continuous
 62
     7
370
     0
100
AcDbBlockReference
  2
SW_CENTERMARKSYMBOL_0
 10
74.9405934718
 20
236.906735905
 30
0.0
  0
INSERT
  5
1C0
330
1F
100
AcDbEntity
  8
0
  6
Continuous
 62
     7
370
     0
100
AcDbBlockReference
  2
SW_CENTERMARKSYMBOL_1
 10
74.9405934718
 20
132.906735905
 30
0.0
  0
INSERT
  5
1CC
330
1F
100
AcDbEntity
  8
0
  6
Continuous
 62
     7
370
     0
100
AcDbBlockReference
  2
SW_CENTERMARKSYMBOL_2
 10
75.7905934718
 20
189.406735905
 30
0.0
  0
LINE
  5
1CD
330
1F
100
AcDbEntity
  8
0
  6
CENTER
 62
     7
370
     0
100
AcDbLine
 10
87.1445376514
 20
189.406735905
 30
0.0
 11
56.1972435477
 21
189.406735905
 31
0.0
  0
LINE
  5
1CE
330
1F
100
AcDbEntity
  8
0
  6
Continuous
 62
     7
370
     0
100
AcDbLine
 10
85.1445376514
 20
177.406735905
 30
0.0
 11
85.1445376514
 21
189.406735905
 31
0.0
  0
SOLID
  5
1CF
330
1F
100
AcDbEntity
  8
0
  6
Continuous
 62
     7
370
     0
100
AcDbTrace
 10
85.1445376514
 20
189.406735905
 30
0.0
 11
84.3945376514
 21
185.906735905
 31
0.0
 12
85.8945376514
 22
185.906735905
 32
0.0
 13
85.8945376514
 23
185.906735905
 33
0.0
  0
LINE
  5
1D0
330
1F
100
AcDbEntity
  8
0
  6
Continuous
 62
     7
370
     0
100
AcDbLine
 10
58.1972435477
 20
177.406735905
 30
0.0
 11
58.1972435477
 21
189.406735905
 31
0.0
  0
SOLID
  5
1D1
330
1F
100
AcDbEntity
  8
0
  6
Continuous
 62
     7
370
     0
100
AcDbTrace
 10
58.1972435477
 20
189.406735905
 30
0.0
 11
57.4472435477
 21
185.906735905
 31
0.0
 12
58.9472435477
 22
185.906735905
 32
0.0
 13
58.9472435477
 23
185.906735905
 33
0.0
  0
MTEXT
  5
1D2
330
1F
100
AcDbEntity
  8
0
  6
Continuous
 62
     7
100
AcDbMText
 10
86.9766349603
 20
185.0753717838
 30
0.0
 40
5.0
 41
0.0
 71
     1
 72
     1
  1
A
  7
SLDTEXTSTYLE0
 73
     1
 44
1.0
  0
MTEXT
  5
1D3
330
1F
100
AcDbEntity
  8
0
  6
Continuous
 62
     7
100
AcDbMText
 10
51.9429542092
 20
184.9998499006
 30
0.0
 40
5.0
 41
0.0
 71
     1
 72
     1
  1
A
  7
SLDTEXTSTYLE0
 73
     1
 44
1.0
  0
SPLINE
  5
1D4
330
1F
100
AcDbEntity
  8
0
  6
Continuous
 62
     7
370
    15
100
AcDbSpline
210
0.0
220
0.0
230
1.0
 70
    24
 71
     1
 72
     4
 73
     2
 74
     0
 42
0.00000001
 43
0.00000001
 40
0.0
 40
0.0
 40
1.0
 40
1.0
 10
126.6985610497725
 20
126.9567357679538
 30
0.0
 10
128.198561062811
 20
126.9567357679538
 30
0.0
  0
SPLINE
  5
1D5
330
1F
100
AcDbEntity
  8
0
  6
Continuous
 62
     7
370
    15
100
AcDbSpline
210
0.0
220
0.0
230
1.0
 70
    24
 71
     1
 72
     4
 73
     2
 74
     0
 42
0.00000001
 43
0.00000001
 40
0.0
 40
0.0
 40
1.0
 40
1.0
 10
128.198561062811
 20
242.8567344626121
 30
0.0
 10
126.6985610497725
 20
242.8567344626121
 30
0.0
  0
LINE
  5
1D6
330
1F
100
AcDbEntity
  8
0
  6
Continuous
 62
     7
370
    15
100
AcDbLine
 10
126.6985610498
 20
228.9067367395
 30
0.0
 11
128.1985610628
 21
228.9067367395
 31
0.0
  0
LINE
  5
1D7
330
1F
100
AcDbEntity
  8
0
  6
Continuous
 62
     7
370
    15
100
AcDbLine
 10
128.1985610628
 20
228.2196814498
 30
0.0
 11
128.1985610628
 21
228.9067367395
 31
0.0
  0
SPLINE
  5
1D8
330
1F
100
AcDbEntity
  8
0
  6
Continuous
 62
     7
370
    15
100
AcDbSpline
210
0.0
220
0.0
230
1.0
 70
     8
 71
     3
 72
    14
 73
    10
 74
     0
 42
0.00000001
 43
0.00000001
 40
0.0
 40
0.0
 40
0.0
 40
0.0
 40
0.25
 40
0.25
 40
0.5
 40
0.5
 40
0.75
 40
0.75
 40
1.0
 40
1.0
 40
1.0
 40
1.0
 10
127.8274648376755
 20
226.4067359050445
 30
0.0
 10
127.8274648376755
 20
226.5810359730295
 30
0.0
 10
127.8509765848739
 20
226.7510306170102
 30
0.0
 10
127.9238724888172
 20
227.0836998203343
 30
0.0
 10
127.9708836282893
 20
227.2411208378277
 30
0.0
 10
128.0624547822361
 20
227.545007032964
 30
0.0
 10
128.1078609209042
 20
227.6930166754519
 30
0.0
 10
128.1755151402057
 20
227.9700954425718
 30
0.0
 10
128.1985610628111
 20
228.0994195079506
 30
0.0
 10
128.1985610628111
 20
228.2196793313943
 30
0.0
  0
LINE
  5
1D9
330
1F
100
AcDbEntity
  8
0
  6
Continuous
 62
     7
370
    15
100
AcDbLine
 10
127.3235610358
 20
226.4067391237
 30
0.0
 11
127.8274648436
 21
226.4067391237
 31
0.0
  0
SPLINE
  5
1DA
330
1F
100
AcDbEntity
  8
0
  6
Continuous
 62
     7
370
    15
100
AcDbSpline
210
0.0
220
0.0
230
1.0
 70
     8
 71
     3
 72
    20
 73
    16
 74
     0
 42
0.00000001
 43
0.00000001
 40
0.0
 40
0.0
 40
0.0
 40
0.0
 40
0.1249999999999956
 40
0.1249999999999956
 40
0.2499999999999911
 40
0.2499999999999911
 40
0.4999999999999836
 40
0.4999999999999836
 40
0.6249999999999877
 40
0.6249999999999877
 40
0.7499999999999918
 40
0.7499999999999918
 40
0.8749999999999959
 40
0.8749999999999959
 40
1.0
 40
1.0
 40
1.0
 40
1.0
 10
126.6985610628111
 20
228.3500504698292
 30
0.0
 10
126.6985610628111
 20
228.2883684632003
 30
0.0
 10
126.7071282917124
 20
228.2233031871752
 30
0.0
 10
126.7364747375637
 20
228.0865669875075
 30
0.0
 10
126.7575139199664
 20
228.0143453035163
 30
0.0
 10
126.8332700219373
 20
227.7918945990337
 30
0.0
 10
126.899704163288
 20
227.637264978977
 30
0.0
 10
127.0086916613164
 20
227.3935560561439
 30
0.0
 10
127.0467348308517
 20
227.3101661895585
 30
0.0
 10
127.1218129074255
 20
227.1415749876896
 30
0.0
 10
127.1590899915653
 20
227.0560361856313
 30
0.0
 10
127.2281758425325
 20
226.8806553584274
 30
0.0
 10
127.2601457052177
 20
226.7908821264739
 30
0.0
 10
127.3083655763816
 20
226.6029386252285
 30
0.0
 10
127.3235610628103
 20
226.5053151839754
 30
0.0
 10
127.3235610628103
 20
226.4067359050443
 30
0.0
  0
LINE
  5
1DB
330
1F
100
AcDbEntity
  8
0
  6
Continuous
 62
     7
370
    15
100
AcDbLine
 10
126.6985610498
 20
228.350051709
 30
0.0
 11
126.6985610498
 21
228.9067367395
 31
0.0
  0
LINE
  5
1DC
330
1F
100
AcDbEntity
  8
0
  6
Continuous
 62
     7
370
    15
100
AcDbLine
 10
127.3235610358
 20
226.4067391237
 30
0.0
 11
127.3235610358
 21
143.4067357635
 31
0.0
  0
SPLINE
  5
1DD
330
1F
100
AcDbEntity
  8
0
  6
Continuous
 62
     7
370
    15
100
AcDbSpline
210
0.0
220
0.0
230
1.0
 70
     8
 71
     3
 72
    20
 73
    16
 74
     0
 42
0.00000001
 43
0.00000001
 40
0.0
 40
0.0
 40
0.0
 40
0.0
 40
0.1249999999999998
 40
0.1249999999999998
 40
0.2499999999999997
 40
0.2499999999999997
 40
0.4999999999999998
 40
0.4999999999999998
 40
0.6249999999999998
 40
0.6249999999999998
 40
0.7499999999999999
 40
0.7499999999999999
 40
0.8749999999999999
 40
0.8749999999999999
 40
1.0
 40
1.0
 40
1.0
 40
1.0
 10
127.3235610628111
 20
143.4067359050445
 30
0.0
 10
127.3235610628111
 20
143.3082260942613
 30
0.0
 10
127.3087734536451
 20
143.2129698448599
 30
0.0
 10
127.2613941094031
 20
143.0266375413149
 30
0.0
 10
127.2290277112808
 20
142.935110528559
 30
0.0
 10
127.1249407497583
 20
142.6704854838684
 30
0.0
 10
127.0462657477198
 20
142.5038721290982
 30
0.0
 10
126.9370858284406
 20
142.2598277815923
 30
0.0
 10
126.9018254615844
 20
142.179424406835
 30
0.0
 10
126.8374708324977
 20
142.023601953542
 30
0.0
 10
126.808165711831
 20
141.9477956651654
 30
0.0
 10
126.7578413834107
 20
141.8001525485897
 30
0.0
 10
126.7366908479375
 20
141.7277882612498
 30
0.0
 10
126.7071222230142
 20
141.5902629727346
 30
0.0
 10
126.6985610628111
 20
141.5250414427781
 30
0.0
 10
126.6985610628111
 20
141.4634213402597
 30
0.0
  0
LINE
  5
1DE
330
1F
100
AcDbEntity
  8
0
  6
Continuous
 62
     7
370
    15
100
AcDbLine
 10
126.6985610498
 20
228.350051709
 30
0.0
 11
126.6985610498
 21
141.4634213155
 31
0.0
  0
LINE
  5
1DF
330
1F
100
AcDbEntity
  8
0
  6
Continuous
 62
     7
370
    15
100
AcDbLine
 10
127.8274648436
 20
143.4067357635
 30
0.0
 11
127.8274648436
 21
226.4067391237
 31
0.0
  0
LINE
  5
1E0
330
1F
100
AcDbEntity
  8
0
  6
Continuous
 62
     7
370
    15
100
AcDbLine
 10
127.3235610358
 20
143.4067357635
 30
0.0
 11
127.8274648436
 21
143.4067357635
 31
0.0
  0
SPLINE
  5
1E1
330
1F
100
AcDbEntity
  8
0
  6
Continuous
 62
     7
370
    15
100
AcDbSpline
210
0.0
220
0.0
230
1.0
 70
     8
 71
     3
 72
    14
 73
    10
 74
     0
 42
0.00000001
 43
0.00000001
 40
0.0
 40
0.0
 40
0.0
 40
0.0
 40
0.25
 40
0.25
 40
0.5
 40
0.5
 40
0.75
 40
0.75
 40
1.0
 40
1.0
 40
1.0
 40
1.0
 10
128.1985610628111
 20
141.5937924786946
 30
0.0
 10
128.1985610628111
 20
141.7138630660634
 30
0.0
 10
128.1754301932164
 20
141.8441511589942
 30
0.0
 10
128.1067877312439
 20
142.124416222553
 30
0.0
 10
128.0620571442802
 20
142.2697655934119
 30
0.0
 10
127.970443750833
 20
142.5738296893126
 30
0.0
 10
127.9227045009769
 20
142.7344434418241
 30
0.0
 10
127.8509198770156
 20
143.0633700902767
 30
0.0
 10
127.8274648376754
 20
143.2320016411404
 30
0.0
 10
127.8274648376754
 20
143.4067359050445
 30
0.0
  0
LINE
  5
1E2
330
1F
100
AcDbEntity
  8
0
  6
Continuous
 62
     7
370
    15
100
AcDbLine
 10
128.1985610628
 20
140.906736285
 30
0.0
 11
128.1985610628
 21
141.5937925061
 31
0.0
  0
LINE
  5
1E3
330
1F
100
AcDbEntity
  8
0
  6
Continuous
 62
     7
370
    15
100
AcDbLine
 10
126.6985610498
 20
140.906736285
 30
0.0
 11
128.1985610628
 21
140.906736285
 31
0.0
  0
LINE
  5
1E4
330
1F
100
AcDbEntity
  8
0
  6
Continuous
 62
     7
370
    15
100
AcDbLine
 10
126.6985610498
 20
140.906736285
 30
0.0
 11
126.6985610498
 21
141.4634213155
 31
0.0
  0
LINE
  5
1E5
330
1F
100
AcDbEntity
  8
0
  6
Continuous
 62
     7
370
    15
100
AcDbLine
 10
128.1985610628
 20
228.2196814498
 30
0.0
 11
128.1985610628
 21
141.5937925061
 31
0.0
  0
LINE
  5
1E6
330
1F
100
AcDbEntity
  8
0
  6
Continuous
 62
     7
370
    15
100
AcDbLine
 10
126.6985610498
 20
132.906735905
 30
0.0
 11
128.1985610628
 21
132.906735905
 31
0.0
  0
LINE
  5
1E7
330
1F
100
AcDbEntity
  8
0
  6
Continuous
 62
     7
370
    15
100
AcDbLine
 10
126.6985610498
 20
132.906735905
 30
0.0
 11
126.6985610498
 21
140.906736285
 31
0.0
  0
LINE
  5
1E8
330
1F
100
AcDbEntity
  8
0
  6
Continuous
 62
     7
370
    15
100
AcDbLine
 10
128.1985610628
 20
132.906735905
 30
0.0
 11
128.1985610628
 21
140.906736285
 31
0.0
  0
LINE
  5
1E9
330
1F
100
AcDbEntity
  8
0
  6
Continuous
 62
     7
370
    15
100
AcDbLine
 10
126.6985610498
 20
126.956735768
 30
0.0
 11
126.6985610498
 21
132.906735905
 31
0.0
  0
LINE
  5
1EA
330
1F
100
AcDbEntity
  8
0
  6
Continuous
 62
     7
370
    15
100
AcDbLine
 10
128.1985610628
 20
126.956735768
 30
0.0
 11
128.1985610628
 21
132.906735905
 31
0.0
  0
LINE
  5
1EB
330
1F
100
AcDbEntity
  8
0
  6
Continuous
 62
     7
370
    15
100
AcDbLine
 10
126.6985610498
 20
236.9067380508
 30
0.0
 11
128.1985610628
 21
236.9067380508
 31
0.0
  0
LINE
  5
1EC
330
1F
100
AcDbEntity
  8
0
  6
Continuous
 62
     7
370
    15
100
AcDbLine
 10
126.6985610498
 20
228.9067367395
 30
0.0
 11
126.6985610498
 21
236.9067380508
 31
0.0
  0
LINE
  5
1ED
330
1F
100
AcDbEntity
  8
0
  6
Continuous
 62
     7
370
    15
100
AcDbLine
 10
128.1985610628
 20
228.9067367395
 30
0.0
 11
128.1985610628
 21
236.9067380508
 31
0.0
  0
LINE
  5
1EE
330
1F
100
AcDbEntity
  8
0
  6
Continuous
 62
     7
370
    15
100
AcDbLine
 10
126.6985610498
 20
236.9067380508
 30
0.0
 11
126.6985610498
 21
242.8567344626
 31
0.0
  0
LINE
  5
1EF
330
1F
100
AcDbEntity
  8
0
  6
Continuous
 62
     7
370
    15
100
AcDbLine
 10
128.1985610628
 20
236.9067380508
 30
0.0
 11
128.1985610628
 21
242.8567344626
 31
0.0
  0
LINE
  5
1F0
330
1F
100
AcDbEntity
  8
0
  6
Continuous
 62
     7
370
    15
100
AcDbLine
 10
177.5994839848
 20
253.1128469867
 30
0.0
 11
177.5994839848
 21
252.1128469867
 31
0.0
  0
LINE
  5
1F1
330
1F
100
AcDbEntity
  8
0
  6
Continuous
 62
     7
370
    15
100
AcDbLine
 10
184.0994839848
 20
253.1128469867
 30
0.0
 11
177.5994839848
 21
253.1128469867
 31
0.0
  0
LINE
  5
1F2
330
1F
100
AcDbEntity
  8
0
  6
Continuous
 62
     7
370
    15
100
AcDbLine
 10
184.0994839848
 20
252.1128469867
 30
0.0
 11
184.0994839848
 21
253.1128469867
 31
0.0
  0
LINE
  5
1F3
330
1F
100
AcDbEntity
  8
0
  6
Continuous
 62
     7
370
    15
100
AcDbLine
 10
177.5994839848
 20
252.1128469867
 30
0.0
 11
184.0994839848
 21
252.1128469867
 31
0.0
  0
LINE
  5
1F4
330
1F
100
AcDbEntity
  8
0
  6
Continuous
 62
     7
370
    15
100
AcDbLine
 10
177.5994839848
 20
252.1128469867
 30
0.0
 11
176.5994839848
 21
251.1128469867
 31
0.0
  0
LINE
  5
1F5
330
1F
100
AcDbEntity
  8
0
  6
Continuous
 62
     7
370
    15
100
AcDbLine
 10
150.8494839848
 20
253.3706545364
 30
0.0
 11
150.8494839848
 21
252.3628469867
 31
0.0
  0
ARC
  5
1F6
330
1F
100
AcDbEntity
  8
0
  6
Continuous
 62
     7
370
    15
100
AcDbCircle
 10
152.4066734278
 20
252.1081859358
 30
0.0
 40
2.004661050870022
100
AcDbArc
 50
90.0
 51
140.967094221
  0
LINE
  5
1F7
330
1F
100
AcDbEntity
  8
0
  6
Continuous
 62
     7
370
    15
100
AcDbLine
 10
176.5994839848
 20
254.1128469867
 30
0.0
 11
152.4066734278
 21
254.1128469867
 31
0.0
  0
LINE
  5
1F8
330
1F
100
AcDbEntity
  8
0
  6
Continuous
 62
     7
370
    15
100
AcDbLine
 10
176.5994839848
 20
254.1128469867
 30
0.0
 11
177.5994839848
 21
253.1128469867
 31
0.0
  0
ARC
  5
1F9
330
1F
100
AcDbEntity
  8
0
  6
Continuous
 62
     7
370
    15
100
AcDbCircle
 10
152.7039929247
 20
253.1135283499
 30
0.0
 40
2.000681363264554
100
AcDbArc
 50
202.0374690912
 51
270.0
  0
LINE
  5
1FA
330
1F
100
AcDbEntity
  8
0
  6
Continuous
 62
     7
370
    15
100
AcDbLine
 10
176.5994839848
 20
251.1128469867
 30
0.0
 11
152.7039929247
 21
251.1128469867
 31
0.0
  0
LINE
  5
1FB
330
1F
100
AcDbEntity
  8
0
  6
Continuous
 62
     7
370
    15
100
AcDbLine
 10
185.0994839848
 20
251.1128469867
 30
0.0
 11
184.0994839848
 21
252.1128469867
 31
0.0
  0
LINE
  5
1FC
330
1F
100
AcDbEntity
  8
0
  6
Continuous
 62
     7
370
    15
100
AcDbLine
 10
185.0994839848
 20
251.1128469867
 30
0.0
 11
176.5994839848
 21
251.1128469867
 31
0.0
  0
LINE
  5
1FD
330
1F
100
AcDbEntity
  8
0
  6
Continuous
 62
     7
370
    15
100
AcDbLine
 10
184.0994839848
 20
253.1128469867
 30
0.0
 11
185.0994839848
 21
254.1128469867
 31
0.0
  0
LINE
  5
1FE
330
1F
100
AcDbEntity
  8
0
  6
Continuous
 62
     7
370
    15
100
AcDbLine
 10
191.0494839848
 20
254.1128469867
 30
0.0
 11
185.0994839848
 21
254.1128469867
 31
0.0
  0
LINE
  5
1FF
330
1F
100
AcDbEntity
  8
0
  6
Continuous
 62
     7
370
    15
100
AcDbLine
 10
191.0494839848
 20
251.1128469867
 30
0.0
 11
191.0494839848
 21
254.1128469867
 31
0.0
  0
LINE
  5
200
330
1F
100
AcDbEntity
  8
0
  6
Continuous
 62
     7
370
    15
100
AcDbLine
 10
191.0494839848
 20
251.1128469867
 30
0.0
 11
185.0994839848
 21
251.1128469867
 31
0.0
  0
LINE
  5
201
330
1F
100
AcDbEntity
  8
0
  6
Continuous
 62
     7
370
    15
100
AcDbLine
 10
176.5994839848
 20
254.1128469867
 30
0.0
 11
185.0994839848
 21
254.1128469867
 31
0.0
  0
HATCH
  5
202
330
1F
100
AcDbEntity
  8
0
  6
Continuous
 62
     7
370
     0
100
AcDbHatch
 10
0.0
 20
0.0
 30
0.0
210
0.0
220
0.0
230
1.0
  2
ANSI31
 70
     0
 71
     0
 91
        1
 92
        0
 93
        8
 72
     1
 10
177.5994839847746
 20
253.1128469866605
 11
176.5994839847746
 21
254.1128469866605
 72
     1
 10
176.5994839847746
 20
254.1128469866605
 11
152.4066734277703
 21
254.1128469866605
 72
     2
 10
152.4066734277703
 20
252.1081859357905
 40
2.004661050870007
 50
90.0
 51
140.9670942210116
 73
     1
 72
     1
 10
150.8494839847746
 20
253.3706545363894
 11
150.8494839847746
 21
252.3628469866603
 72
     2
 10
152.7039929246725
 20
253.1135283499251
 40
2.000681363264539
 50
202.0374690912014
 51
270.0000000000008
 73
     1
 72
     1
 10
152.7039929246725
 20
251.1128469866605
 11
176.5994839847746
 21
251.1128469866605
 72
     1
 10
176.5994839847746
 20
251.1128469866605
 11
177.5994839847746
 21
252.1128469866605
 72
     1
 10
177.5994839847746
 20
252.1128469866605
 11
177.5994839847746
 21
253.1128469866605
 97
        0
 75
     0
 76
     1
 52
0.0
 41
1.0
 77
     0
 78
     1
 53
45.0
 43
0.0
 44
0.0
 45
-2.245064030267288
 46
2.245064030267288
 79
     0
 98
        1
 10
0.0
 20
0.0
  0
HATCH
  5
203
330
1F
100
AcDbEntity
  8
0
  6
Continuous
 62
     7
370
     0
100
AcDbHatch
 10
0.0
 20
0.0
 30
0.0
210
0.0
220
0.0
230
1.0
  2
ANSI31
 70
     0
 71
     0
 91
        1
 92
        0
 93
        6
 72
     1
 10
185.0994839847746
 20
251.1128469866605
 11
191.0494839847746
 21
251.1128469866605
 72
     1
 10
191.0494839847746
 20
251.1128469866605
 11
191.0494839847746
 21
254.1128469866605
 72
     1
 10
191.0494839847746
 20
254.1128469866605
 11
185.0994839847746
 21
254.1128469866605
 72
     1
 10
185.0994839847746
 20
254.1128469866605
 11
184.0994839847746
 21
253.1128469866605
 72
     1
 10
184.0994839847746
 20
253.1128469866605
 11
184.0994839847746
 21
252.1128469866605
 72
     1
 10
184.0994839847746
 20
252.1128469866605
 11
185.0994839847746
 21
251.1128469866605
 97
        0
 75
     0
 76
     1
 52
0.0
 41
1.0
 77
     0
 78
     1
 53
45.0
 43
0.0
 44
0.0
 45
-2.245064030267288
 46
2.245064030267288
 79
     0
 98
        1
 10
0.0
 20
0.0
  0
DIMENSION
  5
204
330
1F
100
AcDbEntity
  8
1
100
AcDbDimension
  2
*D30
 10
142.3623350285
 20
251.1128469867
 30
0.0
 11
142.3623350285
 21
263.0706925733
 31
0.0
 70
   160
 71
     2
 42
-1.0
  3
SLDDIMSTYLE3
100
AcDbAlignedDimension
 13
152.4066734278
 23
254.1128469867
 33
0.0
 14
152.7039929247
 24
251.1128469867
 34
0.0
 50
90.0
100
AcDbRotatedDimension
  0
DIMENSION
  5
211
330
1F
100
AcDbEntity
  8
1
100
AcDbDimension
  2
*D31
 10
152.4066734278
 20
252.1081859358
 30
0.0
 11
146.0774772696
 21
263.0707025733
 31
0.0
 70
   164
  1
<>
 71
     1
 42
-1.0
  3
SLDDIMSTYLE4
100
AcDbRadialDimension
 15
151.4043429023
 25
253.8442733318
 35
0.0
 40
0.0
  0
DIMENSION
  5
21B
330
1F
100
AcDbEntity
  8
1
100
AcDbDimension
  2
*D32
 10
177.5994839848
 20
258.59176978
 30
0.0
 11
162.3551927732
 21
258.59176978
 31
0.0
 70
   160
 71
     2
 42
-1.0
  3
SLDDIMSTYLE3
100
AcDbAlignedDimension
 13
184.0994839848
 23
253.1128469867
 33
0.0
 14
177.5994839848
 24
253.1128469867
 34
0.0
100
AcDbRotatedDimension
  0
INSERT
  5
230
330
1F
100
AcDbEntity
  8
1
100
AcDbBlockReference
  2
SW_CHAMFER_DIMENSION_0
 10
163.7963291158
 20
238.9047557412
 30
0.0
  0
INSERT
  5
23A
330
1F
100
AcDbEntity
  8
1
100
AcDbBlockReference
  2
SW_CHAMFER_DIMENSION_1
 10
163.7963291158
 20
266.2962822196
 30
0.0
  0
DIMENSION
  5
23B
330
1F
100
AcDbEntity
  8
1
100
AcDbDimension
  2
*D35
 10
152.7039929247
 20
253.1135283499
 30
0.0
 11
142.3623450285
 21
235.2012614392
 31
0.0
 70
   164
  1
<>
 71
     1
 42
-1.0
  3
SLDDIMSTYLE4
100
AcDbRadialDimension
 15
151.703652243
 25
251.3808874645
 35
0.0
 40
0.0
  0
INSERT
  5
249
330
1F
100
AcDbEntity
  8
1
100
AcDbBlockReference
  2
SW_NOTE_2
 10
150.169331119
 20
225.541397809
 30
0.0
  0
OLE2FRAME
  5
24A
330
1F
100
AcDbEntity
  8
0
100
AcDbOle2Frame
 70
     2
  3
Kuva (metatiedosto)
 10
9.9375818569
 20
21.7458086712
 30
0.0
 11
51.1260958156
 21
14.7094375366
 31
0.0
 71
     3
 72
     0
 73
     1
 90
     6272
310
80551416A9BA0AE02340B8CC2B51EDBE35400000000000000000DC1A5EE82390
310
4940B8CC2B51EDBE35400000000000000000DC1A5EE8239049400D2E94653B6B
310
2D4000000000000000001416A9BA0AE023400D2E94653B6B2D40000000000000
310
0000000000000100000000010000010000000100000000000100000000180000
310
D0CF11E0A1B11AE1000000000000000000000000000000003E000300FEFF0900
310
0600000000000000000000000100000001000000000000000010000002000000
310
01000000FEFFFFFF0000000000000000FFFFFFFFFFFFFFFFFFFFFFFFFFFFFFFF
310
FFFFFFFFFFFFFFFFFFFFFFFFFFFFFFFFFFFFFFFFFFFFFFFFFFFFFFFFFFFFFFFF
310
FFFFFFFFFFFFFFFFFFFFFFFFFFFFFFFFFFFFFFFFFFFFFFFFFFFFFFFFFFFFFFFF
310
FFFFFFFFFFFFFFFFFFFFFFFFFFFFFFFFFFFFFFFFFFFFFFFFFFFFFFFFFFFFFFFF
310
FFFFFFFFFFFFFFFFFFFFFFFFFFFFFFFFFFFFFFFFFFFFFFFFFFFFFFFFFFFFFFFF
310
FFFFFFFFFFFFFFFFFFFFFFFFFFFFFFFFFFFFFFFFFFFFFFFFFFFFFFFFFFFFFFFF
310
FFFFFFFFFFFFFFFFFFFFFFFFFFFFFFFFFFFFFFFFFFFFFFFFFFFFFFFFFFFFFFFF
310
FFFFFFFFFFFFFFFFFFFFFFFFFFFFFFFFFFFFFFFFFFFFFFFFFFFFFFFFFFFFFFFF
310
FFFFFFFFFFFFFFFFFFFFFFFFFFFFFFFFFFFFFFFFFFFFFFFFFFFFFFFFFFFFFFFF
310
FFFFFFFFFFFFFFFFFFFFFFFFFFFFFFFFFFFFFFFFFFFFFFFFFFFFFFFFFFFFFFFF
310
FFFFFFFFFFFFFFFFFFFFFFFFFFFFFFFFFFFFFFFFFFFFFFFFFFFFFFFFFFFFFFFF
310
FFFFFFFFFFFFFFFFFFFFFFFFFFFFFFFFFFFFFFFFFFFFFFFFFFFFFFFFFFFFFFFF
310
FFFFFFFFFFFFFFFFFFFFFFFFFFFFFFFFFFFFFFFFFFFFFFFFFFFFFFFFFFFFFFFF
310
FFFFFFFFFFFFFFFFFFFFFFFFFFFFFFFFFFFFFFFFFFFFFFFFFFFFFFFFFFFFFFFF
310
FDFFFFFFFEFFFFFFFEFFFFFF0400000005000000060000000700000008000000
310
090000000A000000FEFFFFFFFFFFFFFFFFFFFFFFFFFFFFFFFFFFFFFFFFFFFFFF
310
FFFFFFFFFFFFFFFFFFFFFFFFFFFFFFFFFFFFFFFFFFFFFFFFFFFFFFFFFFFFFFFF
310
FFFFFFFFFFFFFFFFFFFFFFFFFFFFFFFFFFFFFFFFFFFFFFFFFFFFFFFFFFFFFFFF
310
FFFFFFFFFFFFFFFFFFFFFFFFFFFFFFFFFFFFFFFFFFFFFFFFFFFFFFFFFFFFFFFF
310
FFFFFFFFFFFFFFFFFFFFFFFFFFFFFFFFFFFFFFFFFFFFFFFFFFFFFFFFFFFFFFFF
310
FFFFFFFFFFFFFFFFFFFFFFFFFFFFFFFFFFFFFFFFFFFFFFFFFFFFFFFFFFFFFFFF
310
FFFFFFFFFFFFFFFFFFFFFFFFFFFFFFFFFFFFFFFFFFFFFFFFFFFFFFFFFFFFFFFF
310
FFFFFFFFFFFFFFFFFFFFFFFFFFFFFFFFFFFFFFFFFFFFFFFFFFFFFFFFFFFFFFFF
310
FFFFFFFFFFFFFFFFFFFFFFFFFFFFFFFFFFFFFFFFFFFFFFFFFFFFFFFFFFFFFFFF
310
FFFFFFFFFFFFFFFFFFFFFFFFFFFFFFFFFFFFFFFFFFFFFFFFFFFFFFFFFFFFFFFF
310
FFFFFFFFFFFFFFFFFFFFFFFFFFFFFFFFFFFFFFFFFFFFFFFFFFFFFFFFFFFFFFFF
310
FFFFFFFFFFFFFFFFFFFFFFFFFFFFFFFFFFFFFFFFFFFFFFFFFFFFFFFFFFFFFFFF
310
FFFFFFFFFFFFFFFFFFFFFFFFFFFFFFFFFFFFFFFFFFFFFFFFFFFFFFFFFFFFFFFF
310
FFFFFFFFFFFFFFFFFFFFFFFFFFFFFFFFFFFFFFFFFFFFFFFFFFFFFFFFFFFFFFFF
310
FFFFFFFFFFFFFFFFFFFFFFFFFFFFFFFFFFFFFFFFFFFFFFFFFFFFFFFFFFFFFFFF
310
52006F006F007400200045006E00740072007900000000000000000000000000
310
0000000000000000000000000000000000000000000000000000000000000000
310
16000500FFFFFFFFFFFFFFFF020000001503000000000000C000000000000046
310
000000000000000000000000A0E84D7E18DCC80103000000000F000000000000
310
01004F006C006500000000000000000000000000000000000000000000000000
310
0000000000000000000000000000000000000000000000000000000000000000
310
0A000200FFFFFFFFFFFFFFFFFFFFFFFF00000000000000000000000000000000
310
0000000000000000000000000000000000000000000000001400000000000000
310
010043006F006D0070004F0062006A0000000000000000000000000000000000
310
0000000000000000000000000000000000000000000000000000000000000000
310
120002010100000003000000FFFFFFFF00000000000000000000000000000000
310
0000000000000000000000000000000000000000010000005E00000000000000
310
43004F004E00540045004E005400530000000000000000000000000000000000
310
0000000000000000000000000000000000000000000000000000000000000000
310
12000200FFFFFFFFFFFFFFFFFFFFFFFF00000000000000000000000000000000
310
000000000000000000000000000000000000000003000000040E000000000000
310
FEFFFFFF02000000FEFFFFFF0400000005000000060000000700000008000000
310
090000000A0000000B0000000C0000000D0000000E0000000F00000010000000
310
1100000012000000130000001400000015000000160000001700000018000000
310
190000001A0000001B0000001C0000001D0000001E0000001F00000020000000
310
2100000022000000230000002400000025000000260000002700000028000000
310
290000002A0000002B0000002C0000002D0000002E0000002F00000030000000
310
3100000032000000330000003400000035000000360000003700000038000000
310
390000003A0000003B000000FEFFFFFFFFFFFFFFFFFFFFFFFFFFFFFFFFFFFFFF
310
FFFFFFFFFFFFFFFFFFFFFFFFFFFFFFFFFFFFFFFFFFFFFFFFFFFFFFFFFFFFFFFF
310
FFFFFFFFFFFFFFFFFFFFFFFFFFFFFFFFFFFFFFFFFFFFFFFFFFFFFFFFFFFFFFFF
310
FFFFFFFFFFFFFFFFFFFFFFFFFFFFFFFFFFFFFFFFFFFFFFFFFFFFFFFFFFFFFFFF
310
FFFFFFFFFFFFFFFFFFFFFFFFFFFFFFFFFFFFFFFFFFFFFFFFFFFFFFFFFFFFFFFF
310
FFFFFFFFFFFFFFFFFFFFFFFFFFFFFFFFFFFFFFFFFFFFFFFFFFFFFFFFFFFFFFFF
310
FFFFFFFFFFFFFFFFFFFFFFFFFFFFFFFFFFFFFFFFFFFFFFFFFFFFFFFFFFFFFFFF
310
FFFFFFFFFFFFFFFFFFFFFFFFFFFFFFFFFFFFFFFFFFFFFFFFFFFFFFFFFFFFFFFF
310
FFFFFFFFFFFFFFFFFFFFFFFFFFFFFFFFFFFFFFFFFFFFFFFFFFFFFFFFFFFFFFFF
310
0100000200000000000000000000000000000000780115000000000000000000
310
0000000000000000000000000000000000000000000000000000000000000000
310
0100FEFF030A0000FFFFFFFF1503000000000000C00000000000004613000000
310
5069637475726520284D65746166696C652900FFFFFFFF030000000F00000053
310
74617469634D65746166696C6500F439B2710000000000000000000000000000
310
00000000000000000000000000000000000000000000000000000000004A0000
310
D7CDC69A0000000000009C0394004002000000005956010009000003EE060000
310
05001602000000000400000003010800050000000B0200000000050000000C02
310
A000A80308000000FA0200000100000000000000040000002D01000007000000
310
FC020000000000000000040000002D0101000500000009020000000005000000
310
0102FFFFFF00050000000201020000000500000004010D00000008000000FA02
310
00000100000000000000040000002D01020007000000FC020000000000000000
310
040000002D01030004000000F001000004000000F00101000500000009020000
310
0000050000000102FFFFFF000500000002010200000008000000FA0205000100
310
000000000000040000002D010000050000000601010000000102000038050900
310
090004003100140014000700430040000A000A019C0029019C003B0174007201
310
740082019C00A2019C00610101004A0101000A019C0045015800560129006601
310
580045015800AB019C00D2019C00DD019C00E8019A00EE019900F3019700F801
310
9500FD01920001028F0005028B00080286000B0282000D027D000E0278000F02
310
730010026D000F0267000E0261000C025B000902560007025300050251000102
310
4D00FB014A00F5014800F9014500FD01420000023F0002023B00040237000502
310
330006022F0006022A000602250005021F0003021A0000021600FD011100F901
310
0D00F5010A00F0010700EB010500E6010400E1010300DC010200D2010100C701
310
0100AB010100AB019C00C8018000C8015900D4015900DF015900E4015A00E901
310
5C00ED015F00F0016300F2016700F3016900F3016C00F3017100F1017500EF01
310
7800EB017B00E6017E00E0018000DA018000D4018000C8018000C8013D00C801
310
1D00CD011D00D7011D00DB011D00E0011F00E2012000E4012100E7012400E901
310
2800EA012C00E9013100E7013500E4013800E1013B00DF013B00DC013C00D701
310
3D00CD013D00C8013D001E029C006A029C006A0280003B0280003B0201001E02
310
01001E029C00B202FEFFAA02FFFFA20200009A020200920205008B0208008502
310
0C007E0211007902160073021C006F0222006B02290067023000650237006302
310
3F00610247006102500061025800630260006502680067026F006B0276006F02
310
7D0074028300790289007F028E0082029000850292008C02960093029A009A02
310
9D00A2029F00AA02A000B202A000BA02A000C2029F00CA029D00D1029A00D802
310
9600DF029200E5028E00E8028B00EB028900F0028300F5027D00F9027600FC02
310
6F00FF0268000103600002035800030350000203470001033F00FF023700FC02
310
3000F9022900F5022200F0021C00EB021600E5021100DF020C00D8020800D102
310
0500CA020200C2020000BA02FFFFB202FEFFB2021A00B7021B00BC021B00C102
310
1D00C6021E00CB022100CF022300D3022600D7022A00DA022D00DD023200E002
310
3600E2023A00E3023F00E5024400E6024A00E6024F00E6025400E5025A00E302
310
5F00E2026300DF026800DD026C00DA027100D6027400D3027800CF027B00CA02
310
7E00C6028000C1028200BC028300B7028400B2028400AD028400A7028300A202
310
82009E02800099027E0095027B008D0274008A02710087026C00840268008202
310
630080025F007F025A007E0254007E024F007E024A007F02440080023F008202
310
3A0084023600870232008A022D008D022A009102260095022300990221009D02
310
1E00A2021D00A7021B00AC021B00B2021A0029039C0046039C00460363007903
310
0100590301003803490016030100F60201002903630029039C00040000002D01
310
02000500000006010100000008000000FA0200000100000000336F0004000000
310
2D01010007000000FC02000000336F000000040000002D01040004000000F001
310
020004000000F001030005000000090200336F00050000000102FFFFFF000500
310
0000020102000000040000002D01000005000000060101000000400000002403
310
1E005E000100DF000100E3000200E7000300EB000500EE000800F0000B00F200
310
0E00F4001200F4001700F4008700F4008B00F2008F00F0009300EE009600EB00
310
9900E7009B00E3009C00DF009C0016009C0012009C000E009B000A0099000700
310
96000500930003008F0001008B000100870001005F005E000100040000002D01
310
0100050000000601010000000500000006010200000008000000FA0206000200
310
000000336F00040000002D01020004000000F00101004000000025031E005E00
310
0100DF000100E3000200E7000300EB000500EE000800F0000B00F2000E00F400
310
1200F4001700F4008700F4008B00F2008F00F0009300EE009600EB009900E700
310
9B00E3009C00DF009C0016009C0012009C000E009B000A009900070096000500
310
930003008F0001008B000100870001005F005E00010008000000FA0200000100
310
0000FFFFFF00040000002D01010007000000FC020000FFFFFF00000004000000
310
2D01030004000000F001020004000000F0010400050000000902FFFFFF000500
310
00000102FFFFFF0005000000020102000000040000002D010000050000000601
310
0100000016020000380506004B004000490017000D000E00C0002F00C2003100
310
C4003400C7003A00C8003D00C9004000C9004300C9004600C7004700C4004900
310
C3004B00C2004E00C2005000C2005200C3005400C4005500C7005800CA005A00
310
C9006000C7006600C4006B00C0007000BB007400B6007800B1007B00AC007E00
310
A40080009D00810095008000920080008E007F008A007E0087007D0080007A00
310
7A00760078007300750071009200600096006100990061009E006000A2005F00
310
A6005D00A8005B00A9005900AA005700AB005400AC004F00AC004C00AB004A00
310
AA004700A9004500A8004400A6004300A30040009E003E0098003E0093003D00
310
8E003C008A003A008100350075002F007A002A007F002500850022008B002000
310
92001E0099001D009C001D00A0001E00A7001F00AE002200B5002500BB002A00
310
C0002F00DA003800DD003F00DE004200DE004500DD004600DB004600D9004800
310
D7004B00D6004E00D6005000D6005200D9005500DB005800DE005A00DC006200
310
D9006900D7006C00D5006F00D0007400CA007800C3007C00C0007D00BC007E00
310
B4008000B2008000B7007D00BD007A00C2007600C8007100CA006F00CC006C00
310
CE006900D0006600D3006000D4005900D1005800CF005600CD005300CC005000
310
CC004E00CD004C00CD004B00CF004900D1004700D4004500D4004100D3003E00
310
D0003800CE003500CC003200C8002D00C3002800BD002400B7002100B2001F00
310
B8002000BE002100C4002300C7002500CA002600CF002A00D3002E00D7003300
310
DA003800F0003C00F1004000F2004100F2004300F1004500F0004600EF004700
310
ED004800EB004B00EA004E00EA005000EB005300EE005500EF005600F0005700
310
F1005900F1005C00F1005F00F0006200EE006700EA006C00E6007100E1007600
310
DE007800DB007900D6007C00CF007F00CC007F00C9008000C5008000C2007F00
310
C9007E00D0007B00D3007900D6007700D9007500DB007200DE007000E0006D00
310
E4006700E7006000E9005900E3005600E1005400E0005100E0004D00E2004A00
310
E4004800E6004600E8004400E9004300E9004200E9004100E9003F00E6003B00
310
E4003600E1003200DF002F00DD002D00D9002900D4002600CF002300CA002100
310
C5001F00CC001F00D3002100D6002200D9002400DF002700E4002B00E9003000
310
ED003600F0003C00920043009500430097004400980044009900450099004700
310
9900480098005B0090005C0049007F004700800045007F0041007D003E007900
310
3D0075002D005100360039003C002E00420021004400200046001F004C002000
310
920043005E003B005E0050005E00660055006A0050006C0049006E0045006600
310
41005F003E0058003B004F0049003000540036005E003B00A6004B00A6005000
310
A6005200A5005400A4005600A3005800A10059009F005A009C005A009C004400
310
9F004500A2004600A4004800A6004B00040000002D0101000500000006010100
310
000008000000FA0200000100000000336F00040000002D01020007000000FC02
310
000000336F000000040000002D01040004000000F001010004000000F0010300
310
05000000090200336F00050000000102FFFFFF00050000000201020000000400
310
00002D010000050000000601010000001C00000024030C0001003D0001001700
310
0100120003000E0005000B00070008000A0005000E0003001200020016000100
310
3E00010001003D00040000002D01020005000000060101000000050000000601
310
0200000008000000FA0206000200000000336F00040000002D01010004000000
310
F00102001C00000025030C0001003D00010017000100120003000E0005000B00
310
070008000A0005000E00030012000200160001003E00010001003D0008000000
310
FA0200000100000000000000040000002D01020007000000FC02000000000000
310
0000040000002D01030004000000F001010004000000F0010400050000000902
310
00000000050000000102FFFFFF000500000002010200000008000000FA020000
310
0100000000000000040000002D01010004000000F001020007000000FC020100
310
000000000000040000002D0102000700000018042700A10302007D0304000000
310
2D010300040000002D0100000500000006010100000042000000380502001200
310
0C00920316009403160096031500970313009703110097030F0097030E009503
310
0D0092030C008F030B0088030B0088031F008B031F008B0317008F0317009503
310
1F0099031F00920316008B0315008B030D008F030D0092030D0094030E009503
310
0F0095031100950313009403140092031500900315008B031500040000002D01
310
0100050000000601010000000300000000000000000000000000000000000000
310
000000000000000000000000BC02000000000002010201515700530054005F00
310
4900740061006C00000000000000000000000000000000000000000000000000
310
0000000000000000000000000000000000000000000000005700530054005F00
310
4900740061006C00000000000000000000000000000000000000000000000000
310
0000000000000000000000000000000000000000000000000000000000000000
310
0000000000000000000000000000000000000000000000000000000000000000
310
0000000000000000000000000000000000000000000000000000000000000000
310
0000000000000000000000000000000000000000000000000000000000000000
310
000000000000000000000000000000000000000000000000000000009C839E83
310
0200A103CB000000000000000000000000000000000000000000000058E81200
  1
OLE
  0
ENDSEC
  0
SECTION
  2
OBJECTS
  0
DICTIONARY
  5
C
330
0
100
AcDbDictionary
281
     1
  3
ACAD_GROUP
350
D
  3
ACAD_LAYOUT
350
1A
  3
ACAD_MLEADERSTYLE
350
24E
  3
ACAD_MLINESTYLE
350
17
  3
ACAD_PLOTSETTINGS
350
19
  3
ACAD_PLOTSTYLENAME
350
E
  3
ACAD_SCALELIST
350
3B
  3
ACAD_TABLESTYLE
350
24D
  3
ACAD_VISUALSTYLE
350
2A
  3
AcDbVariableDictionary
350
24B
  0
DICTIONARY
  5
D
102
{ACAD_REACTORS
330
C
102
}
330
C
100
AcDbDictionary
281
     1
  0
DICTIONARY
  5
1A
102
{ACAD_REACTORS
330
C
102
}
330
C
100
AcDbDictionary
281
     1
  3
Layout1
350
1E
  3
Layout2
350
26
  3
Model
350
22
  0
DICTIONARY
  5
24E
102
{ACAD_REACTORS
330
C
102
}
330
C
100
AcDbDictionary
281
     1
  0
DICTIONARY
  5
17
102
{ACAD_REACTORS
330
C
102
}
330
C
100
AcDbDictionary
281
     1
  3
Standard
350
18
  0
DICTIONARY
  5
19
102
{ACAD_REACTORS
330
C
102
}
330
C
100
AcDbDictionary
281
     1
  0
ACDBDICTIONARYWDFLT
  5
E
102
{ACAD_REACTORS
330
C
102
}
330
C
100
AcDbDictionary
281
     1
  3
Normal
350
F
100
AcDbDictionaryWithDefault
340
F
  0
DICTIONARY
  5
3B
102
{ACAD_REACTORS
330
C
102
}
330
C
100
AcDbDictionary
281
     1
  3
A0
350
3C
  3
A1
350
3D
  3
A2
350
3E
  3
A3
350
3F
  3
A4
350
40
  3
A5
350
41
  3
A6
350
42
  3
A7
350
43
  3
A8
350
44
  3
A9
350
45
  3
B0
350
46
  3
B1
350
47
  3
B2
350
48
  3
B3
350
49
  3
B4
350
4A
  3
B5
350
4B
  3
B6
350
4C
  3
B7
350
4D
  3
B8
350
4E
  3
B9
350
4F
  3
C0
350
50
  3
C1
350
51
  3
C2
350
52
  3
C3
350
53
  3
C4
350
54
  3
C5
350
55
  3
C6
350
56
  3
C7
350
57
  3
C8
350
58
  3
C9
350
59
  3
D0
350
5A
  3
D1
350
5B
  3
D2
350
5C
  0
DICTIONARY
  5
24D
102
{ACAD_REACTORS
330
C
102
}
330
C
100
AcDbDictionary
281
     1
  0
DICTIONARY
  5
2A
102
{ACAD_REACTORS
330
C
102
}
330
C
100
AcDbDictionary
281
     1
  3
2dWireframe
350
2F
  3
3D Hidden
350
31
  3
3dWireframe
350
30
  3
Basic
350
32
  3
Brighten
350
36
  3
ColorChange
350
3A
  3
Conceptual
350
34
  3
Dim
350
35
  3
Facepattern
350
39
  3
Flat
350
2B
  3
FlatWithEdges
350
2C
  3
Gouraud
350
2D
  3
GouraudWithEdges
350
2E
  3
Linepattern
350
38
  3
Realistic
350
33
  3
Thicken
350
37
  0
DICTIONARY
  5
24B
102
{ACAD_REACTORS
330
C
102
}
330
C
100
AcDbDictionary
281
     1
  3
CANNOSCALE
350
24C
  3
PSOLHEIGHT
350
250
  3
PSOLWIDTH
350
24F
  0
LAYOUT
  5
1E
102
{ACAD_REACTORS
330
1A
102
}
330
1A
100
AcDbPlotSettings
  1

  2
none_device
  4

  6

 40
0.0
 41
0.0
 42
0.0
 43
0.0
 44
0.0
 45
0.0
 46
0.0
 47
0.0
 48
0.0
 49
0.0
140
0.0
141
0.0
142
1.0
143
1.0
 70
   688
 72
     0
 73
     0
 74
     5
  7

 75
    16
147
1.0
148
0.0
149
0.0
100
AcDbLayout
  1
Layout1
 70
     1
 71
     1
 10
0.0
 20
0.0
 11
420.0
 21
297.0
 12
0.0
 22
0.0
 32
0.0
 14
1.0000000000E+20
 24
1.0000000000E+20
 34
1.0000000000E+20
 15
-1.0000000000E+20
 25
-1.0000000000E+20
 35
-1.0000000000E+20
146
0.0
 13
0.0
 23
0.0
 33
0.0
 16
1.0
 26
0.0
 36
0.0
 17
0.0
 27
1.0
 37
0.0
 76
     0
330
1B
  0
LAYOUT
  5
26
102
{ACAD_REACTORS
330
1A
102
}
330
1A
100
AcDbPlotSettings
  1

  2
none_device
  4

  6

 40
0.0
 41
0.0
 42
0.0
 43
0.0
 44
0.0
 45
0.0
 46
0.0
 47
0.0
 48
0.0
 49
0.0
140
0.0
141
0.0
142
1.0
143
1.0
 70
   688
 72
     0
 73
     0
 74
     5
  7

 75
    16
147
1.0
148
0.0
149
0.0
100
AcDbLayout
  1
Layout2
 70
     1
 71
     2
 10
0.0
 20
0.0
 11
0.0
 21
0.0
 12
0.0
 22
0.0
 32
0.0
 14
0.0
 24
0.0
 34
0.0
 15
0.0
 25
0.0
 35
0.0
146
0.0
 13
0.0
 23
0.0
 33
0.0
 16
1.0
 26
0.0
 36
0.0
 17
0.0
 27
1.0
 37
0.0
 76
     0
330
23
  0
LAYOUT
  5
22
102
{ACAD_REACTORS
330
1A
102
}
330
1A
100
AcDbPlotSettings
  1

  2
none_device
  4

  6

 40
0.0
 41
0.0
 42
0.0
 43
0.0
 44
0.0
 45
0.0
 46
0.0
 47
0.0
 48
0.0
 49
0.0
140
0.0
141
0.0
142
1.0
143
1.0
 70
  1712
 72
     0
 73
     0
 74
     0
  7

 75
     0
147
1.0
148
0.0
149
0.0
100
AcDbLayout
  1
Model
 70
     1
 71
     0
 10
0.0
 20
0.0
 11
210.0
 21
297.0
 12
0.0
 22
0.0
 32
0.0
 14
0.0
 24
0.0
 34
0.0
 15
210.0
 25
297.0
 35
0.0
146
0.0
 13
0.0
 23
0.0
 33
0.0
 16
1.0
 26
0.0
 36
0.0
 17
0.0
 27
1.0
 37
0.0
 76
     0
330
1F
331
29
  0
MLINESTYLE
  5
18
102
{ACAD_REACTORS
330
17
102
}
330
17
100
AcDbMlineStyle
  2
Standard
 70
     0
  3

 62
   256
 51
90.0
 52
90.0
 71
     2
 49
0.5
 62
   256
  6
BYLAYER
 49
-0.5
 62
   256
  6
BYLAYER
  0
ACDBPLACEHOLDER
  5
F
102
{ACAD_REACTORS
330
E
102
}
330
E
  0
SCALE
  5
3C
102
{ACAD_REACTORS
330
3B
102
}
330
3B
100
AcDbScale
 70
     0
300
1:1
140
1.0
141
1.0
290
     1
  0
SCALE
  5
3D
102
{ACAD_REACTORS
330
3B
102
}
330
3B
100
AcDbScale
 70
     0
300
1:2
140
1.0
141
2.0
290
     0
  0
SCALE
  5
3E
102
{ACAD_REACTORS
330
3B
102
}
330
3B
100
AcDbScale
 70
     0
300
1:4
140
1.0
141
4.0
290
     0
  0
SCALE
  5
3F
102
{ACAD_REACTORS
330
3B
102
}
330
3B
100
AcDbScale
 70
     0
300
1:5
140
1.0
141
5.0
290
     0
  0
SCALE
  5
40
102
{ACAD_REACTORS
330
3B
102
}
330
3B
100
AcDbScale
 70
     0
300
1:8
140
1.0
141
8.0
290
     0
  0
SCALE
  5
41
102
{ACAD_REACTORS
330
3B
102
}
330
3B
100
AcDbScale
 70
     0
300
1:10
140
1.0
141
10.0
290
     0
  0
SCALE
  5
42
102
{ACAD_REACTORS
330
3B
102
}
330
3B
100
AcDbScale
 70
     0
300
1:16
140
1.0
141
16.0
290
     0
  0
SCALE
  5
43
102
{ACAD_REACTORS
330
3B
102
}
330
3B
100
AcDbScale
 70
     0
300
1:20
140
1.0
141
20.0
290
     0
  0
SCALE
  5
44
102
{ACAD_REACTORS
330
3B
102
}
330
3B
100
AcDbScale
 70
     0
300
1:30
140
1.0
141
30.0
290
     0
  0
SCALE
  5
45
102
{ACAD_REACTORS
330
3B
102
}
330
3B
100
AcDbScale
 70
     0
300
1:40
140
1.0
141
40.0
290
     0
  0
SCALE
  5
46
102
{ACAD_REACTORS
330
3B
102
}
330
3B
100
AcDbScale
 70
     0
300
1:50
140
1.0
141
50.0
290
     0
  0
SCALE
  5
47
102
{ACAD_REACTORS
330
3B
102
}
330
3B
100
AcDbScale
 70
     0
300
1:100
140
1.0
141
100.0
290
     0
  0
SCALE
  5
48
102
{ACAD_REACTORS
330
3B
102
}
330
3B
100
AcDbScale
 70
     0
300
2:1
140
2.0
141
1.0
290
     0
  0
SCALE
  5
49
102
{ACAD_REACTORS
330
3B
102
}
330
3B
100
AcDbScale
 70
     0
300
4:1
140
4.0
141
1.0
290
     0
  0
SCALE
  5
4A
102
{ACAD_REACTORS
330
3B
102
}
330
3B
100
AcDbScale
 70
     0
300
8:1
140
8.0
141
1.0
290
     0
  0
SCALE
  5
4B
102
{ACAD_REACTORS
330
3B
102
}
330
3B
100
AcDbScale
 70
     0
300
10:1
140
10.0
141
1.0
290
     0
  0
SCALE
  5
4C
102
{ACAD_REACTORS
330
3B
102
}
330
3B
100
AcDbScale
 70
     0
300
100:1
140
100.0
141
1.0
290
     0
  0
SCALE
  5
4D
102
{ACAD_REACTORS
330
3B
102
}
330
3B
100
AcDbScale
 70
     0
300
1/128" = 1'-0"
140
0.0078125
141
12.0
290
     0
  0
SCALE
  5
4E
102
{ACAD_REACTORS
330
3B
102
}
330
3B
100
AcDbScale
 70
     0
300
1/64" = 1'-0"
140
0.015625
141
12.0
290
     0
  0
SCALE
  5
4F
102
{ACAD_REACTORS
330
3B
102
}
330
3B
100
AcDbScale
 70
     0
300
1/32" = 1'-0"
140
0.03125
141
12.0
290
     0
  0
SCALE
  5
50
102
{ACAD_REACTORS
330
3B
102
}
330
3B
100
AcDbScale
 70
     0
300
1/16" = 1'-0"
140
0.0625
141
12.0
290
     0
  0
SCALE
  5
51
102
{ACAD_REACTORS
330
3B
102
}
330
3B
100
AcDbScale
 70
     0
300
3/32" = 1'-0"
140
0.09375
141
12.0
290
     0
  0
SCALE
  5
52
102
{ACAD_REACTORS
330
3B
102
}
330
3B
100
AcDbScale
 70
     0
300
1/8" = 1'-0"
140
0.125
141
12.0
290
     0
  0
SCALE
  5
53
102
{ACAD_REACTORS
330
3B
102
}
330
3B
100
AcDbScale
 70
     0
300
3/16" = 1'-0"
140
0.1875
141
12.0
290
     0
  0
SCALE
  5
54
102
{ACAD_REACTORS
330
3B
102
}
330
3B
100
AcDbScale
 70
     0
300
1/4" = 1'-0"
140
0.25
141
12.0
290
     0
  0
SCALE
  5
55
102
{ACAD_REACTORS
330
3B
102
}
330
3B
100
AcDbScale
 70
     0
300
3/8" = 1'-0"
140
0.375
141
12.0
290
     0
  0
SCALE
  5
56
102
{ACAD_REACTORS
330
3B
102
}
330
3B
100
AcDbScale
 70
     0
300
1/2" = 1'-0"
140
0.5
141
12.0
290
     0
  0
SCALE
  5
57
102
{ACAD_REACTORS
330
3B
102
}
330
3B
100
AcDbScale
 70
     0
300
3/4" = 1'-0"
140
0.75
141
12.0
290
     0
  0
SCALE
  5
58
102
{ACAD_REACTORS
330
3B
102
}
330
3B
100
AcDbScale
 70
     0
300
1" = 1'-0"
140
1.0
141
12.0
290
     0
  0
SCALE
  5
59
102
{ACAD_REACTORS
330
3B
102
}
330
3B
100
AcDbScale
 70
     0
300
1-1/2" = 1'-0"
140
1.5
141
12.0
290
     0
  0
SCALE
  5
5A
102
{ACAD_REACTORS
330
3B
102
}
330
3B
100
AcDbScale
 70
     0
300
3" = 1'-0"
140
3.0
141
12.0
290
     0
  0
SCALE
  5
5B
102
{ACAD_REACTORS
330
3B
102
}
330
3B
100
AcDbScale
 70
     0
300
6" = 1'-0"
140
6.0
141
12.0
290
     0
  0
SCALE
  5
5C
102
{ACAD_REACTORS
330
3B
102
}
330
3B
100
AcDbScale
 70
     0
300
1'-0" = 1'-0"
140
12.0
141
12.0
290
     0
  0
VISUALSTYLE
  5
2F
102
{ACAD_REACTORS
330
2A
102
}
330
2A
100
AcDbVisualStyle
  2
2dWireframe
 70
     4
 71
     0
 72
     2
 73
     0
 90
        0
 40
-0.6
 41
-30.0
 62
     5
 63
     7
 74
     1
 91
        4
 64
     7
 65
   257
 75
     1
175
     1
 42
1.0
 92
        0
 66
   257
 43
1.0
 76
     1
 77
     6
 78
     2
 67
     7
 79
     5
170
     0
171
     0
290
     0
174
     0
 93
        1
 44
0.0
173
     0
291
     0
 45
0.0
1001
ACAD
1000
AcDbSavedByObjectVersion
1070
     0
  0
VISUALSTYLE
  5
31
102
{ACAD_REACTORS
330
2A
102
}
330
2A
100
AcDbVisualStyle
  2
3D Hidden
 70
     6
 71
     1
 72
     2
 73
     2
 90
        0
 40
-0.6
 41
-30.0
 62
     5
 63
     7
 74
     2
 91
        2
 64
     7
 65
   257
 75
     2
175
     1
 42
40.0
 92
        0
 66
   257
 43
1.0
 76
     1
 77
     6
 78
     2
 67
     7
 79
     3
170
     0
171
     0
290
     0
174
     0
 93
        1
 44
0.0
173
     0
291
     0
 45
0.0
1001
ACAD
1000
AcDbSavedByObjectVersion
1070
     0
  0
VISUALSTYLE
  5
30
102
{ACAD_REACTORS
330
2A
102
}
330
2A
100
AcDbVisualStyle
  2
3dWireframe
 70
     5
 71
     0
 72
     2
 73
     0
 90
        0
 40
-0.6
 41
-30.0
 62
     5
 63
     7
 74
     1
 91
        4
 64
     7
 65
   257
 75
     1
175
     1
 42
1.0
 92
        0
 66
   257
 43
1.0
 76
     1
 77
     6
 78
     2
 67
     7
 79
     5
170
     0
171
     0
290
     0
174
     0
 93
        1
 44
0.0
173
     0
291
     0
 45
0.0
1001
ACAD
1000
AcDbSavedByObjectVersion
1070
     0
  0
VISUALSTYLE
  5
32
102
{ACAD_REACTORS
330
2A
102
}
330
2A
100
AcDbVisualStyle
  2
Basic
 70
     7
 71
     1
 72
     0
 73
     1
 90
        0
 40
-0.6
 41
-30.0
 62
     5
 63
     7
 74
     0
 91
        4
 64
     7
 65
   257
 75
     1
175
     1
 42
1.0
 92
        8
 66
     7
 43
1.0
 76
     1
 77
     6
 78
     2
 67
     7
 79
     5
170
     0
171
     0
290
     0
174
     0
 93
        1
 44
0.0
173
     0
291
     1
 45
0.0
1001
ACAD
1000
AcDbSavedByObjectVersion
1070
     0
  0
VISUALSTYLE
  5
36
102
{ACAD_REACTORS
330
2A
102
}
330
2A
100
AcDbVisualStyle
  2
Brighten
 70
    12
 71
     2
 72
     2
 73
     0
 90
        0
 40
-0.6
 41
-30.0
 62
     5
 63
     7
 74
     1
 91
        4
 64
     7
 65
   257
 75
     1
175
     1
 42
1.0
 92
        8
 66
     7
 43
1.0
 76
     1
 77
     6
 78
     2
 67
     7
 79
     5
170
     0
171
     0
290
     0
174
     0
 93
        1
 44
50.0
173
     0
291
     1
 45
0.0
1001
ACAD
1000
AcDbSavedByObjectVersion
1070
     0
  0
VISUALSTYLE
  5
3A
102
{ACAD_REACTORS
330
2A
102
}
330
2A
100
AcDbVisualStyle
  2
ColorChange
 70
    16
 71
     2
 72
     2
 73
     3
 90
        0
 40
-0.6
 41
-30.0
 62
     5
 63
     8
 74
     1
 91
        4
 64
     7
 65
   257
 75
     1
175
     1
 42
1.0
 92
        8
 66
     8
 43
1.0
 76
     1
 77
     6
 78
     2
 67
     7
 79
     5
170
     0
171
     0
290
     0
174
     0
 93
        1
 44
0.0
173
     0
291
     1
 45
0.0
1001
ACAD
1000
AcDbSavedByObjectVersion
1070
     0
  0
VISUALSTYLE
  5
34
102
{ACAD_REACTORS
330
2A
102
}
330
2A
100
AcDbVisualStyle
  2
Conceptual
 70
     9
 71
     3
 72
     2
 73
     0
 90
        0
 40
-0.6
 41
-30.0
 62
     5
 63
     7
 74
     2
 91
        2
 64
     7
 65
   257
 75
     1
175
     1
 42
40.0
 92
        8
 66
     7
 43
1.0
 76
     1
 77
     6
 78
     2
 67
     7
 79
     3
170
     0
171
     0
290
     0
174
     0
 93
        1
 44
0.0
173
     0
291
     0
 45
0.0
1001
ACAD
1000
AcDbSavedByObjectVersion
1070
     0
  0
VISUALSTYLE
  5
35
102
{ACAD_REACTORS
330
2A
102
}
330
2A
100
AcDbVisualStyle
  2
Dim
 70
    11
 71
     2
 72
     2
 73
     0
 90
        0
 40
-0.6
 41
-30.0
 62
     5
 63
     7
 74
     1
 91
        4
 64
     7
 65
   257
 75
     1
175
     1
 42
1.0
 92
        8
 66
     7
 43
1.0
 76
     1
 77
     6
 78
     2
 67
     7
 79
     5
170
     0
171
     0
290
     0
174
     0
 93
        1
 44
-50.0
173
     0
291
     1
 45
0.0
1001
ACAD
1000
AcDbSavedByObjectVersion
1070
     0
  0
VISUALSTYLE
  5
39
102
{ACAD_REACTORS
330
2A
102
}
330
2A
100
AcDbVisualStyle
  2
Facepattern
 70
    15
 71
     2
 72
     2
 73
     0
 90
        0
 40
-0.6
 41
-30.0
 62
     5
 63
     7
 74
     1
 91
        4
 64
     7
 65
   257
 75
     1
175
     1
 42
1.0
 92
        8
 66
     7
 43
1.0
 76
     1
 77
     6
 78
     2
 67
     7
 79
     5
170
     0
171
     0
290
     0
174
     0
 93
        1
 44
0.0
173
     0
291
     1
 45
0.0
1001
ACAD
1000
AcDbSavedByObjectVersion
1070
     0
  0
VISUALSTYLE
  5
2B
102
{ACAD_REACTORS
330
2A
102
}
330
2A
100
AcDbVisualStyle
  2
Flat
 70
     0
 71
     2
 72
     1
 73
     1
 90
        2
 40
-0.6
 41
30.0
 62
     5
 63
     7
 74
     0
 91
        4
 64
     7
 65
   257
 75
     1
175
     1
 42
1.0
 92
        8
 66
     7
 43
1.0
 76
     1
 77
     6
 78
     2
 67
     7
 79
     5
170
     0
171
     0
290
     0
174
     0
 93
       13
 44
0.0
173
     0
291
     1
 45
0.0
1001
ACAD
1000
AcDbSavedByObjectVersion
1070
     0
  0
VISUALSTYLE
  5
2C
102
{ACAD_REACTORS
330
2A
102
}
330
2A
100
AcDbVisualStyle
  2
FlatWithEdges
 70
     1
 71
     2
 72
     1
 73
     1
 90
        2
 40
-0.6
 41
30.0
 62
     5
 63
     7
 74
     1
 91
        4
 64
     7
 65
   257
 75
     1
175
     1
 42
1.0
 92
        0
 66
   257
 43
1.0
 76
     1
 77
     6
 78
     2
 67
     7
 79
     5
170
     0
171
     0
290
     0
174
     0
 93
       13
 44
0.0
173
     0
291
     1
 45
0.0
1001
ACAD
1000
AcDbSavedByObjectVersion
1070
     0
  0
VISUALSTYLE
  5
2D
102
{ACAD_REACTORS
330
2A
102
}
330
2A
100
AcDbVisualStyle
  2
Gouraud
 70
     2
 71
     2
 72
     2
 73
     1
 90
        2
 40
-0.6
 41
30.0
 62
     5
 63
     7
 74
     0
 91
        4
 64
     7
 65
   257
 75
     1
175
     1
 42
1.0
 92
        0
 66
     7
 43
1.0
 76
     1
 77
     6
 78
     2
 67
     7
 79
     5
170
     0
171
     0
290
     0
174
     0
 93
       13
 44
0.0
173
     0
291
     1
 45
0.0
1001
ACAD
1000
AcDbSavedByObjectVersion
1070
     0
  0
VISUALSTYLE
  5
2E
102
{ACAD_REACTORS
330
2A
102
}
330
2A
100
AcDbVisualStyle
  2
GouraudWithEdges
 70
     3
 71
     2
 72
     2
 73
     1
 90
        2
 40
-0.6
 41
30.0
 62
     5
 63
     7
 74
     1
 91
        4
 64
     7
 65
   257
 75
     1
175
     1
 42
1.0
 92
        0
 66
   257
 43
1.0
 76
     1
 77
     6
 78
     2
 67
     7
 79
     5
170
     0
171
     0
290
     0
174
     0
 93
       13
 44
0.0
173
     0
291
     1
 45
0.0
1001
ACAD
1000
AcDbSavedByObjectVersion
1070
     0
  0
VISUALSTYLE
  5
38
102
{ACAD_REACTORS
330
2A
102
}
330
2A
100
AcDbVisualStyle
  2
Linepattern
 70
    14
 71
     2
 72
     2
 73
     0
 90
        0
 40
-0.6
 41
-30.0
 62
     5
 63
     7
 74
     1
 91
        4
 64
     7
 65
   257
 75
     7
175
     7
 42
1.0
 92
        8
 66
     7
 43
1.0
 76
     1
 77
     6
 78
     2
 67
     7
 79
     5
170
     0
171
     0
290
     0
174
     0
 93
        1
 44
0.0
173
     0
291
     1
 45
0.0
1001
ACAD
1000
AcDbSavedByObjectVersion
1070
     0
  0
VISUALSTYLE
  5
33
102
{ACAD_REACTORS
330
2A
102
}
330
2A
100
AcDbVisualStyle
  2
Realistic
 70
     8
 71
     2
 72
     2
 73
     0
 90
        0
 40
-0.6
 41
-30.0
 62
     5
 63
     7
 74
     1
 91
        0
 64
     7
 65
   257
 75
     1
175
     1
 42
1.0
 92
        8
 66
     8
 43
1.0
 76
     1
 77
     6
 78
     2
 67
     7
 79
     5
170
     0
171
     0
290
     0
174
     0
 93
       13
 44
0.0
173
     0
291
     0
 45
0.0
1001
ACAD
1000
AcDbSavedByObjectVersion
1070
     0
  0
VISUALSTYLE
  5
37
102
{ACAD_REACTORS
330
2A
102
}
330
2A
100
AcDbVisualStyle
  2
Thicken
 70
    13
 71
     2
 72
     2
 73
     0
 90
        0
 40
-0.6
 41
-30.0
 62
     5
 63
     7
 74
     1
 91
        4
 64
     7
 65
   257
 75
     1
175
     1
 42
1.0
 92
       12
 66
     7
 43
1.0
 76
     1
 77
     6
 78
     2
 67
     7
 79
     5
170
     0
171
     0
290
     0
174
     0
 93
        1
 44
0.0
173
     0
291
     1
 45
0.0
1001
ACAD
1000
AcDbSavedByObjectVersion
1070
     0
  0
DICTIONARYVAR
  5
24C
102
{ACAD_REACTORS
330
24B
102
}
330
24B
100
DictionaryVariables
280
     0
  1
1:1
  0
DICTIONARYVAR
  5
250
102
{ACAD_REACTORS
330
24B
102
}
330
24B
100
DictionaryVariables
280
     0
  1
80.000000
  0
DICTIONARYVAR
  5
24F
102
{ACAD_REACTORS
330
24B
102
}
330
24B
100
DictionaryVariables
280
     0
  1
5.000000
  0
ENDSEC
  0
EOF
