  0
SECTION
  2
HEADER
  9
$ACADVER
  1
AC1014
999
I-DEAS 10 Not Encode
  9
$EXTMIN
 10
0.0
 20
0.0
  9
$EXTMAX
 10
8.41E+002
 20
5.94E+002
  9
$TEXTSIZE
 40
1.25E-001
  9
$LTSCALE
 40
1.0
  9
$CLAYER
  8
100
  9
$CECOLOR
 62
1
  9
$DIMASZ
 40
1.25E-001
  9
$DIMEXO
 40
6.25E-002
  9
$DIMDLI
 40
2.5E-001
  9
$DIMEXE
 40
1.25E-001
  9
$DIMTP
 40
5.0E-003
  9
$DIMTM
 40
-5.0E-003
  9
$DIMTXT
 40
3.0
  9
$DIMLIM
 70
0
  9
$DIMTIH
 70
1
  9
$DIMTOH
 70
1
  9
$DIMSE1
 70
0
  9
$DIMSE2
 70
0
  9
$DIMTAD
 70
0
  9
$DIMASO
 70
1
  9
$DIMALT
 70
0
  9
$DIMALTD
 70
0
  9
$DIMTOFL
 70
1
  9
$DIMTIX
 70
0
  9
$DIMSAH
 70
0
  9
$DIMTFAC
 40
1.0
  9
$DIMGAP
 40
6.25E-002
  9
$LUNITS
 70
2
  9
$LUPREC
 70
3
  9
$FILLETRAD
 40
1.0E+001
  9
$AUNITS
 70
0
  9
$AUPREC
 70
1
  9
$CHAMFERA
 40
6.0
  9
$CHAMFERB
 40
6.0
  9
$ANGBASE
 50
0.0
  9
$ANGDIR
 70
0
  9
$PEXTMIN
 10
0.0
 20
0.0
 30
0.0
  9
$PEXTMAX
 10
8.41E+002
 20
5.94E+002
 30
0.0
  9
$PLIMMIN
 10
0.0
 20
0.0
  9
$PLIMMAX
 10
8.41E+002
 20
5.94E+002
  9
$PDMODE
 70
2
  9
$PDSIZE
 40
-1.0E-002
  9
$SPLINETYPE
 70
6
  9
$TILEMODE
 70
0
  9
$HANDLING
 70
1
  9
$HANDSEED
  5
f4240
  0
ENDSEC
  0
SECTION
  2
TABLES
  0
TABLE
  2
VPORT
  5
64
100
AcDbSymbolTable
 70
2
  0
VPORT
  5
65
100
AcDbSymbolTableRecord
100
AcDbViewportTableRecord
  2
*Active
 70
0
 10
0.0
 20
0.0
 11
8.41E+002
 21
5.94E+002
 12
4.205E+002
 22
2.97E+002
 13
0.0
 23
0.0
 14
1.0
 24
1.0
 15
0.0
 25
0.0
 16
0.0
 26
0.0
 36
1.0
 17
0.0
 27
0.0
 37
0.0
 40
5.94E+002
 41
1.4158249
 42
5.0E+001
 43
0.0
 44
0.0
 50
0.0
 51
0.0
 71
0
 72
100
 73
1
 74
3
 75
0
 76
0
 77
0
 78
0
  0
ENDTAB
  0
TABLE
  2
LTYPE
  5
66
100
AcDbSymbolTable
 70
7
  0
LTYPE
  5
67
100
AcDbSymbolTableRecord
100
AcDbLinetypeTableRecord
  2
BYBLOCK
 70
0
  3

 72
65
 73
0
 40
0.0
  0
LTYPE
  5
68
100
AcDbSymbolTableRecord
100
AcDbLinetypeTableRecord
  2
BYLAYER
 70
0
  3

 72
65
 73
0
 40
0.0
  0
LTYPE
  5
69
100
AcDbSymbolTableRecord
100
AcDbLinetypeTableRecord
  2
CONTINUOUS
 70
0
  3

 72
65
 73
0
 40
0.0
  0
LTYPE
  5
6a
100
AcDbSymbolTableRecord
100
AcDbLinetypeTableRecord
  2
HIDDENNEW0
  3
_ 
 70
64
 72
65
 73
3
 40
4.5
 49
1.5
 74
0
 49
-1.5
 74
0
 49
1.5
 74
0
  0
LTYPE
  5
6b
100
AcDbSymbolTableRecord
100
AcDbLinetypeTableRecord
  2
HIDDENNEW1
  3
_ 
 70
64
 72
65
 73
3
 40
4.5
 49
1.5
 74
0
 49
-1.5
 74
0
 49
1.5
 74
0
  0
LTYPE
  5
6c
100
AcDbSymbolTableRecord
100
AcDbLinetypeTableRecord
  2
HIDDEN
  3
_ 
 70
64
 72
65
 73
3
 40
4.5
 49
1.5
 74
0
 49
-1.5
 74
0
 49
1.5
 74
0
  0
LTYPE
  5
6d
100
AcDbSymbolTableRecord
100
AcDbLinetypeTableRecord
  2
CENTERLINE
  3
_ 
 70
64
 72
65
 73
5
 40
3.0E+001
 49
1.2E+001
 74
0
 49
-1.5
 74
0
 49
3.0
 74
0
 49
-1.5
 74
0
 49
1.2E+001
 74
0
  0
LTYPE
  5
6e
100
AcDbSymbolTableRecord
100
AcDbLinetypeTableRecord
  2
PHANTOM
  3
_ 
 70
64
 72
65
 73
7
 40
2.95E+001
 49
9.5
 74
0
 49
-1.5
 74
0
 49
3.0
 74
0
 49
-1.5
 74
0
 49
3.0
 74
0
 49
-1.5
 74
0
 49
9.5
 74
0
  0
LTYPE
  5
6f
100
AcDbSymbolTableRecord
100
AcDbLinetypeTableRecord
  2
SHORT_DASH
  3
_ 
 70
64
 72
65
 73
3
 40
3.0
 49
7.5E-001
 74
0
 49
-1.5
 74
0
 49
7.5E-001
 74
0
  0
LTYPE
  5
70
100
AcDbSymbolTableRecord
100
AcDbLinetypeTableRecord
  2
LONG_DASH
  3
_ 
 70
64
 72
65
 73
3
 40
9.0
 49
2.25
 74
0
 49
-4.5
 74
0
 49
2.25
 74
0
  0
ENDTAB
  0
TABLE
  2
LAYER
  5
71
100
AcDbSymbolTable
 70
258
  0
LAYER
  5
72
100
AcDbSymbolTableRecord
100
AcDbLayerTableRecord
  2
0
 70
0
 62
7
  6
CONTINUOUS
  0
LAYER
  5
73
100
AcDbSymbolTableRecord
100
AcDbLayerTableRecord
  2
1
 70
0
 62
7
  6
CONTINUOUS
  0
LAYER
  5
74
100
AcDbSymbolTableRecord
100
AcDbLayerTableRecord
  2
2
 70
0
 62
7
  6
CONTINUOUS
  0
LAYER
  5
75
100
AcDbSymbolTableRecord
100
AcDbLayerTableRecord
  2
3
 70
0
 62
7
  6
CONTINUOUS
  0
LAYER
  5
76
100
AcDbSymbolTableRecord
100
AcDbLayerTableRecord
  2
4
 70
0
 62
7
  6
CONTINUOUS
  0
LAYER
  5
77
100
AcDbSymbolTableRecord
100
AcDbLayerTableRecord
  2
5
 70
0
 62
7
  6
CONTINUOUS
  0
LAYER
  5
78
100
AcDbSymbolTableRecord
100
AcDbLayerTableRecord
  2
Drafting_Hidden_Entities
 70
1
 62
7
  6
CONTINUOUS
  0
ENDTAB
  0
TABLE
  2
STYLE
  5
79
100
AcDbSymbolTable
 70
1
  0
STYLE
  5
7a
100
AcDbSymbolTableRecord
100
AcDbTextStyleTableRecord
  2
STANDARD
 70
64
 40
0.0
 41
1.0
 50
0.0
 71
0
 42
1.0
  3
monotxt.shx
  4

  0
ENDTAB
  0
TABLE
  2
VIEW
  5
7b
100
AcDbSymbolTable
 70
0
  0
ENDTAB
  0
TABLE
  2
UCS
  5
7c
100
AcDbSymbolTable
 70
0
  0
ENDTAB
  0
TABLE
  2
APPID
  5
7d
100
AcDbSymbolTable
 70
1
  0
APPID
  5
7e
100
AcDbSymbolTableRecord
100
AcDbRegAppTableRecord
  2
ACAD
 70
1
  0
ENDTAB
  0
TABLE
  2
DIMSTYLE
  5
7f
100
AcDbSymbolTable
 70
2
  0
DIMSTYLE
105
80
100
AcDbSymbolTableRecord
100
AcDbDimStyleTableRecord
  2
DSTYLE1
 70
0
  3

  4

  5

  6

  7

 40
1.0
 41
3.0
 42
0.0
 43
3.8E-001
 44
3.0
 45
1.0E-002
 46
0.0
 47
1.0E-001
 48
1.0E-001
 71
0
 72
0
 73
0
 74
0
 75
0
 76
0
 77
1
 78
11
140
3.0
141
9.0E-002
142
0.0
143
3.9370079E-002
144
1.0
145
0.0
146
1.0
147
1.5
170
0
171
2
172
0
173
0
174
0
175
0
176
0
177
0
178
0
270
2
271
2
272
4
273
2
274
2
275
0
280
0
281
0
282
0
283
1
284
0
285
0
286
0
287
3
288
0
  0
DIMSTYLE
105
81
100
AcDbSymbolTableRecord
100
AcDbDimStyleTableRecord
  2
DSTYLE2
 70
0
  3

  4

  5

  6

  7

 40
1.0
 41
5.0E-001
 42
0.0
 43
3.8E-001
 44
1.0
 45
0.0
 46
0.0
 47
0.0
 48
0.0
 71
0
 72
0
 73
1
 74
1
 75
1
 76
0
 77
1
 78
3
140
3.5
141
9.0E-002
142
0.0
143
1.0
144
1.0
145
0.0
146
1.0
147
1.5
170
0
171
2
172
0
173
0
174
0
175
0
176
0
177
0
178
0
270
2
271
0
272
4
273
2
274
2
275
0
280
0
281
0
282
0
283
1
284
0
285
0
286
0
287
3
288
0
  0
ENDTAB
  0
TABLE
  2
BLOCK_RECORD
  5
82
100
AcDbSymbolTable
 70
0
  0
BLOCK_RECORD
  5
83
100
AcDbSymbolTableRecord
100
AcDbBlockTableRecord
  2
*MODEL_SPACE
  0
BLOCK_RECORD
  5
84
100
AcDbSymbolTableRecord
100
AcDbBlockTableRecord
  2
*PAPER_SPACE
  0
BLOCK_RECORD
  5
85
100
AcDbSymbolTableRecord
100
AcDbBlockTableRecord
  2
*D97
  0
BLOCK_RECORD
  5
86
100
AcDbSymbolTableRecord
100
AcDbBlockTableRecord
  2
*D98
  0
BLOCK_RECORD
  5
87
100
AcDbSymbolTableRecord
100
AcDbBlockTableRecord
  2
*D99
  0
BLOCK_RECORD
  5
88
100
AcDbSymbolTableRecord
100
AcDbBlockTableRecord
  2
*D101
  0
BLOCK_RECORD
  5
89
100
AcDbSymbolTableRecord
100
AcDbBlockTableRecord
  2
*D268
  0
BLOCK_RECORD
  5
8a
100
AcDbSymbolTableRecord
100
AcDbBlockTableRecord
  2
*D269
  0
BLOCK_RECORD
  5
8b
100
AcDbSymbolTableRecord
100
AcDbBlockTableRecord
  2
*D274
  0
BLOCK_RECORD
  5
8c
100
AcDbSymbolTableRecord
100
AcDbBlockTableRecord
  2
_AH1
  0
BLOCK_RECORD
  5
8d
100
AcDbSymbolTableRecord
100
AcDbBlockTableRecord
  2
_AH2
  0
BLOCK_RECORD
  5
8e
100
AcDbSymbolTableRecord
100
AcDbBlockTableRecord
  2
_AH12
  3
_AH
  0
BLOCK_RECORD
  5
8f
100
AcDbSymbolTableRecord
100
AcDbBlockTableRecord
  2
_AH13
  3
_AH
  0
BLOCK_RECORD
  5
90
100
AcDbSymbolTableRecord
100
AcDbBlockTableRecord
  2
_AH14
  3
_AH
  0
BLOCK_RECORD
  5
91
100
AcDbSymbolTableRecord
100
AcDbBlockTableRecord
  2
_AH15
  3
_AH
  0
BLOCK_RECORD
  5
92
100
AcDbSymbolTableRecord
100
AcDbBlockTableRecord
  2
_AH16
  3
_AH
  0
BLOCK_RECORD
  5
93
100
AcDbSymbolTableRecord
100
AcDbBlockTableRecord
  2
_AH17
  3
_AH
  0
BLOCK_RECORD
  5
94
100
AcDbSymbolTableRecord
100
AcDbBlockTableRecord
  2
_AH18
  3
_AH
  0
BLOCK_RECORD
  5
95
100
AcDbSymbolTableRecord
100
AcDbBlockTableRecord
  2
_AH19
  3
_AH
  0
BLOCK_RECORD
  5
96
100
AcDbSymbolTableRecord
100
AcDbBlockTableRecord
  2
_AH20
  3
_AH
  0
BLOCK_RECORD
  5
97
100
AcDbSymbolTableRecord
100
AcDbBlockTableRecord
  2
_AH21
  3
_AH
  0
BLOCK_RECORD
  5
98
100
AcDbSymbolTableRecord
100
AcDbBlockTableRecord
  2
A1
  0
BLOCK_RECORD
  5
99
100
AcDbSymbolTableRecord
100
AcDbBlockTableRecord
  2
EFFZF_SCHLIETAB
  0
BLOCK_RECORD
  5
9a
100
AcDbSymbolTableRecord
100
AcDbBlockTableRecord
  2
BOM
  0
BLOCK_RECORD
  5
9b
100
AcDbSymbolTableRecord
100
AcDbBlockTableRecord
  2
GALNI_CU_8-12
  0
BLOCK_RECORD
  5
9c
100
AcDbSymbolTableRecord
100
AcDbBlockTableRecord
  2
GALNI15-18B
  0
BLOCK_RECORD
  5
9d
100
AcDbSymbolTableRecord
100
AcDbBlockTableRecord
  2
*FC118
  3
*FC
  0
BLOCK_RECORD
  5
9e
100
AcDbSymbolTableRecord
100
AcDbBlockTableRecord
  2
TOL-F
  0
BLOCK_RECORD
  5
9f
100
AcDbSymbolTableRecord
100
AcDbBlockTableRecord
  2
M12
  0
BLOCK_RECORD
  5
a0
100
AcDbSymbolTableRecord
100
AcDbBlockTableRecord
  2
KLAMMER
  0
BLOCK_RECORD
  5
a1
100
AcDbSymbolTableRecord
100
AcDbBlockTableRecord
  2
M11
  0
BLOCK_RECORD
  5
a2
100
AcDbSymbolTableRecord
100
AcDbBlockTableRecord
  2
WERKST_CKKANTEN2
  0
BLOCK_RECORD
  5
a3
100
AcDbSymbolTableRecord
100
AcDbBlockTableRecord
  2
*TX325
  3
*TX
  0
ENDTAB
  0
ENDSEC
  0
SECTION
  2
BLOCKS
  0
BLOCK
  5
a4
100
AcDbEntity
100
AcDbBlockBegin
  2
*MODEL_SPACE
 70
0
 10
0.0
 20
0.0
 30
0.0
  3
*MODEL_SPACE
  1

  0
ENDBLK
  5
a5
100
AcDbEntity
100
AcDbBlockEnd
  0
BLOCK
  5
a6
100
AcDbEntity
100
AcDbBlockBegin
  2
*PAPER_SPACE
 70
0
 10
0.0
 20
0.0
 30
0.0
  3
*PAPER_SPACE
  1

  0
ENDBLK
  5
a7
100
AcDbEntity
100
AcDbBlockEnd
  0
BLOCK
  5
a8
100
AcDbEntity
100
AcDbBlockBegin
  2
_AH12
  3
_AH
 10
0.0
 20
0.0
 70
64
  0
LINE
  5
a9
100
AcDbEntity
  8
0
100
AcDbLine
  6
CONTINUOUS
 62
0
 10
0.0
 20
0.0
 11
1.0
 21
0.0
  0
LINE
  5
aa
100
AcDbEntity
  8
0
100
AcDbLine
  6
CONTINUOUS
 62
0
 10
0.0
 20
0.0
 11
-1.0
 21
0.0
  0
ENDBLK
  5
ab
100
AcDbEntity
100
AcDbBlockEnd
  0
BLOCK
  5
ac
100
AcDbEntity
100
AcDbBlockBegin
  2
_AH13
  3
_AH
 10
0.0
 20
0.0
 70
64
  0
SOLID
  5
ad
100
AcDbEntity
  8
0
100
AcDbTrace
  6
CONTINUOUS
 62
0
 10
0.0
 20
0.0
 11
-1.0
 21
1.66667E-001
 12
-1.0
 22
-1.66667E-001
 13
0.0
 23
0.0
  0
ENDBLK
  5
ae
100
AcDbEntity
100
AcDbBlockEnd
  0
BLOCK
  5
af
100
AcDbEntity
100
AcDbBlockBegin
  2
_AH14
  3
_AH
 10
0.0
 20
0.0
 70
64
  0
ENDBLK
  5
b0
100
AcDbEntity
100
AcDbBlockEnd
  0
BLOCK
  5
b1
100
AcDbEntity
100
AcDbBlockBegin
  2
_AH15
  3
_AH
 10
0.0
 20
0.0
 70
64
  0
CIRCLE
  5
b2
100
AcDbEntity
  8
0
100
AcDbCircle
  6
CONTINUOUS
 62
0
 10
0.0
 20
0.0
 40
1.66667E-001
  0
LINE
  5
b3
100
AcDbEntity
  8
0
100
AcDbLine
  6
CONTINUOUS
 62
0
 10
0.0
 20
0.0
 11
-1.0
 21
0.0
  0
ENDBLK
  5
b4
100
AcDbEntity
100
AcDbBlockEnd
  0
BLOCK
  5
b5
100
AcDbEntity
100
AcDbBlockBegin
  2
_AH16
  3
_AH
 10
0.0
 20
0.0
 70
64
  0
POLYLINE
  5
b6
100
AcDbEntity
  8
0
100
AcDb2dPolyline
  6
CONTINUOUS
 62
0
 66
1
 40
2.14E+002
 41
2.14E+002
 70
0
  0
VERTEX
  5
b7
100
AcDbEntity
  8
0
100
AcDbVertex
100
AcDb2dVertex
 42
1.0
 10
8.3335E-002
 20
0.0
 70
0
  0
VERTEX
  5
b8
100
AcDbEntity
  8
0
100
AcDbVertex
100
AcDb2dVertex
 42
1.0
 10
-8.3335E-002
 20
0.0
 70
0
  0
VERTEX
  5
b9
100
AcDbEntity
  8
0
100
AcDbVertex
100
AcDb2dVertex
 42
0.0
 10
8.3335E-002
 20
0.0
 70
0
  0
SEQEND
  5
ba
100
AcDbEntity
  0
LINE
  5
bb
100
AcDbEntity
  8
0
100
AcDbLine
  6
CONTINUOUS
 62
0
 10
0.0
 20
0.0
 11
-1.0
 21
0.0
  0
ENDBLK
  5
bc
100
AcDbEntity
100
AcDbBlockEnd
  0
BLOCK
  5
bd
100
AcDbEntity
100
AcDbBlockBegin
  2
_AH17
  3
_AH
 10
0.0
 20
0.0
 70
64
  0
LINE
  5
be
100
AcDbEntity
  8
0
100
AcDbLine
  6
CONTINUOUS
 62
0
 10
-1.66667E-001
 20
-1.66667E-001
 11
1.66667E-001
 21
-1.66667E-001
  0
LINE
  5
bf
100
AcDbEntity
  8
0
100
AcDbLine
  6
CONTINUOUS
 62
0
 10
1.66667E-001
 20
-1.66667E-001
 11
1.66667E-001
 21
1.66667E-001
  0
LINE
  5
c0
100
AcDbEntity
  8
0
100
AcDbLine
  6
CONTINUOUS
 62
0
 10
1.66667E-001
 20
1.66667E-001
 11
-1.66667E-001
 21
1.66667E-001
  0
LINE
  5
c1
100
AcDbEntity
  8
0
100
AcDbLine
  6
CONTINUOUS
 62
0
 10
-1.66667E-001
 20
1.66667E-001
 11
-1.66667E-001
 21
-1.66667E-001
  0
LINE
  5
c2
100
AcDbEntity
  8
0
100
AcDbLine
  6
CONTINUOUS
 62
0
 10
0.0
 20
0.0
 11
-1.0
 21
0.0
  0
ENDBLK
  5
c3
100
AcDbEntity
100
AcDbBlockEnd
  0
BLOCK
  5
c4
100
AcDbEntity
100
AcDbBlockBegin
  2
_AH18
  3
_AH
 10
0.0
 20
0.0
 70
64
  0
SOLID
  5
c5
100
AcDbEntity
  8
0
100
AcDbTrace
  6
CONTINUOUS
 62
0
 10
-1.66667E-001
 20
-1.66667E-001
 11
1.66667E-001
 21
-1.66667E-001
 12
-1.66667E-001
 22
1.66667E-001
 13
1.66667E-001
 23
1.66667E-001
  0
LINE
  5
c6
100
AcDbEntity
  8
0
100
AcDbLine
  6
CONTINUOUS
 62
0
 10
0.0
 20
0.0
 11
-1.0
 21
0.0
  0
ENDBLK
  5
c7
100
AcDbEntity
100
AcDbBlockEnd
  0
BLOCK
  5
c8
100
AcDbEntity
100
AcDbBlockBegin
  2
_AH19
  3
_AH
 10
0.0
 20
0.0
 70
64
  0
LINE
  5
c9
100
AcDbEntity
  8
0
100
AcDbLine
  6
CONTINUOUS
 62
0
 10
-5.0E-001
 20
-5.0E-001
 11
5.0E-001
 21
5.0E-001
  0
LINE
  5
ca
100
AcDbEntity
  8
0
100
AcDbLine
  6
CONTINUOUS
 62
0
 10
0.0
 20
0.0
 11
-1.0
 21
0.0
  0
ENDBLK
  5
cb
100
AcDbEntity
100
AcDbBlockEnd
  0
BLOCK
  5
cc
100
AcDbEntity
100
AcDbBlockBegin
  2
_AH20
  3
_AH
 10
0.0
 20
0.0
 70
64
  0
POLYLINE
  5
cd
100
AcDbEntity
  8
0
100
AcDb2dPolyline
  6
CONTINUOUS
 62
0
 66
1
 40
5.0E-001
 41
5.0E-001
 70
0
  0
VERTEX
  5
ce
100
AcDbEntity
  8
0
100
AcDbVertex
100
AcDb2dVertex
 42
4.1421356E-001
 10
-1.66667E-001
 20
-1.66667E-001
 70
0
  0
VERTEX
  5
cf
100
AcDbEntity
  8
0
100
AcDbVertex
100
AcDb2dVertex
 42
0.0
 10
0.0
 20
0.0
 70
0
  0
SEQEND
  5
d0
100
AcDbEntity
  0
POLYLINE
  5
d1
100
AcDbEntity
  8
0
100
AcDb2dPolyline
  6
CONTINUOUS
 62
0
 66
1
 40
5.0E-001
 41
5.0E-001
 70
0
  0
VERTEX
  5
d2
100
AcDbEntity
  8
0
100
AcDbVertex
100
AcDb2dVertex
 42
4.1421356E-001
 10
1.66667E-001
 20
1.66667E-001
 70
0
  0
VERTEX
  5
d3
100
AcDbEntity
  8
0
100
AcDbVertex
100
AcDb2dVertex
 42
0.0
 10
0.0
 20
0.0
 70
0
  0
SEQEND
  5
d4
100
AcDbEntity
  0
LINE
  5
d5
100
AcDbEntity
  8
0
100
AcDbLine
  6
CONTINUOUS
 62
0
 10
0.0
 20
0.0
 11
-1.0
 21
0.0
  0
ENDBLK
  5
d6
100
AcDbEntity
100
AcDbBlockEnd
  0
BLOCK
  5
d7
100
AcDbEntity
100
AcDbBlockBegin
  2
_AH21
  3
_AH
 10
0.0
 20
0.0
 70
64
  0
LINE
  5
d8
100
AcDbEntity
  8
0
100
AcDbLine
  6
CONTINUOUS
 62
0
 10
0.0
 20
0.0
 11
-1.0
 21
-1.66667E-001
  0
LINE
  5
d9
100
AcDbEntity
  8
0
100
AcDbLine
  6
CONTINUOUS
 62
0
 10
-1.0
 20
-1.66667E-001
 11
-1.0
 21
1.66667E-001
  0
LINE
  5
da
100
AcDbEntity
  8
0
100
AcDbLine
  6
CONTINUOUS
 62
0
 10
-1.0
 20
1.66667E-001
 11
0.0
 21
0.0
  0
ENDBLK
  5
db
100
AcDbEntity
100
AcDbBlockEnd
  0
BLOCK
  5
dc
100
AcDbEntity
100
AcDbBlockBegin
  2
A1
 10
0.0
 20
0.0
 70
0
  0
POLYLINE
  5
dd
100
AcDbEntity
  8
1
100
AcDb2dPolyline
  6
CONTINUOUS
 62
2
 66
1
 40
5.0E-001
 41
5.0E-001
 70
0
  0
VERTEX
  5
de
100
AcDbEntity
  8
1
100
AcDbVertex
100
AcDb2dVertex
 42
0.0
 10
8.3499642E+002
 20
5.2425025
 70
0
  0
VERTEX
  5
df
100
AcDbEntity
  8
1
100
AcDbVertex
100
AcDb2dVertex
 42
0.0
 10
8.3499642E+002
 20
5.8836679E+002
 70
0
  0
SEQEND
  5
e0
100
AcDbEntity
  0
POLYLINE
  5
e1
100
AcDbEntity
  8
1
100
AcDb2dPolyline
  6
CONTINUOUS
 62
2
 66
1
 40
5.0E-001
 41
5.0E-001
 70
0
  0
VERTEX
  5
e2
100
AcDbEntity
  8
1
100
AcDbVertex
100
AcDb2dVertex
 42
0.0
 10
8.3499642E+002
 20
5.8836679E+002
 70
0
  0
VERTEX
  5
e3
100
AcDbEntity
  8
1
100
AcDbVertex
100
AcDb2dVertex
 42
0.0
 10
5.2425025
 20
5.8836679E+002
 70
0
  0
SEQEND
  5
e4
100
AcDbEntity
  0
POLYLINE
  5
e5
100
AcDbEntity
  8
1
100
AcDb2dPolyline
  6
CONTINUOUS
 62
2
 66
1
 40
5.0E-001
 41
5.0E-001
 70
0
  0
VERTEX
  5
e6
100
AcDbEntity
  8
1
100
AcDbVertex
100
AcDb2dVertex
 42
0.0
 10
5.2425025
 20
5.8836679E+002
 70
0
  0
VERTEX
  5
e7
100
AcDbEntity
  8
1
100
AcDbVertex
100
AcDb2dVertex
 42
0.0
 10
5.2425025
 20
5.2425025
 70
0
  0
SEQEND
  5
e8
100
AcDbEntity
  0
POLYLINE
  5
e9
100
AcDbEntity
  8
1
100
AcDb2dPolyline
  6
CONTINUOUS
 62
2
 66
1
 40
5.0E-001
 41
5.0E-001
 70
0
  0
VERTEX
  5
ea
100
AcDbEntity
  8
1
100
AcDbVertex
100
AcDb2dVertex
 42
0.0
 10
5.2425025
 20
5.2425025
 70
0
  0
VERTEX
  5
eb
100
AcDbEntity
  8
1
100
AcDbVertex
100
AcDb2dVertex
 42
0.0
 10
8.3499642E+002
 20
5.2425025
 70
0
  0
SEQEND
  5
ec
100
AcDbEntity
  0
LINE
  5
ed
100
AcDbEntity
  8
1
100
AcDbLine
  6
CONTINUOUS
 62
2
 10
6.5027383E+002
 20
3.4985005E-001
 11
6.5027383E+002
 21
5.2425025
  0
LINE
  5
ee
100
AcDbEntity
  8
1
100
AcDbLine
  6
CONTINUOUS
 62
2
 10
2.099351E+002
 20
5.9325945E+002
 11
2.099351E+002
 21
5.8836679E+002
  0
LINE
  5
ef
100
AcDbEntity
  8
1
100
AcDbLine
  6
CONTINUOUS
 62
2
 10
3.996502E+002
 20
5.9325945E+002
 11
3.996502E+002
 21
5.8836679E+002
  0
LINE
  5
f0
100
AcDbEntity
  8
1
100
AcDbLine
  6
CONTINUOUS
 62
2
 10
5.2496201E+002
 20
5.9325945E+002
 11
5.2496201E+002
 21
5.8836679E+002
  0
LINE
  5
f1
100
AcDbEntity
  8
1
100
AcDbLine
  6
CONTINUOUS
 62
2
 10
8.3988907E+002
 20
3.4985005E-001
 11
8.3988907E+002
 21
5.9325945E+002
  0
LINE
  5
f2
100
AcDbEntity
  8
1
100
AcDbLine
  6
CONTINUOUS
 62
2
 10
8.3988907E+002
 20
5.9325945E+002
 11
3.4985005E-001
 21
5.9325945E+002
  0
LINE
  5
f3
100
AcDbEntity
  8
1
100
AcDbLine
  6
CONTINUOUS
 62
2
 10
3.4985005E-001
 20
5.9325945E+002
 11
3.4985005E-001
 21
3.4985005E-001
  0
LINE
  5
f4
100
AcDbEntity
  8
1
100
AcDbLine
  6
CONTINUOUS
 62
2
 10
3.4985005E-001
 20
3.4985005E-001
 11
8.3988907E+002
 21
3.4985005E-001
  0
LINE
  5
f5
100
AcDbEntity
  8
1
100
AcDbLine
  6
CONTINUOUS
 62
2
 10
4.2011946E+002
 20
5.9325945E+002
 11
4.2011946E+002
 21
5.8836679E+002
  0
LINE
  5
f6
100
AcDbEntity
  8
1
100
AcDbLine
  6
CONTINUOUS
 62
2
 10
3.4985005E-001
 20
2.9680465E+002
 11
5.2425025
 21
3.1065239E+002
  0
LINE
  5
f7
100
AcDbEntity
  8
1
100
AcDbLine
  6
CONTINUOUS
 62
2
 10
6.5027383E+002
 20
5.8836679E+002
 11
6.5027383E+002
 21
5.9325945E+002
  0
LINE
  5
f8
100
AcDbEntity
  8
1
100
AcDbLine
  6
CONTINUOUS
 62
2
 10
5.2496201E+002
 20
5.2425025
 11
5.2496201E+002
 21
3.4985005E-001
  0
LINE
  5
f9
100
AcDbEntity
  8
1
100
AcDbLine
  6
CONTINUOUS
 62
2
 10
3.996502E+002
 20
5.2425025
 11
3.996502E+002
 21
3.4985005E-001
  0
LINE
  5
fa
100
AcDbEntity
  8
1
100
AcDbLine
  6
CONTINUOUS
 62
2
 10
4.2011946E+002
 20
5.2425025
 11
4.2011946E+002
 21
3.4985005E-001
  0
LINE
  5
fb
100
AcDbEntity
  8
1
100
AcDbLine
  6
CONTINUOUS
 62
2
 10
2.099351E+002
 20
5.2425025
 11
2.099351E+002
 21
3.4985005E-001
  0
LINE
  5
fc
100
AcDbEntity
  8
1
100
AcDbLine
  6
CONTINUOUS
 62
2
 10
8.3499642E+002
 20
2.9680465E+002
 11
8.3988907E+002
 21
2.9680465E+002
  0
LINE
  5
fd
100
AcDbEntity
  8
1
100
AcDbLine
  6
CONTINUOUS
 62
2
 10
1.0336389E+002
 20
5.8836679E+002
 11
1.0509255E+002
 21
5.9325945E+002
  0
LINE
  5
fe
100
AcDbEntity
  8
1
100
AcDbLine
  6
CONTINUOUS
 62
2
 10
3.4985005E-001
 20
2.9680465E+002
 11
5.2425025
 21
2.9680465E+002
  0
LINE
  5
ff
100
AcDbEntity
  8
1
100
AcDbLine
  6
CONTINUOUS
 62
2
 10
3.4985005E-001
 20
1.4852732E+002
 11
5.2425025
 21
1.4852732E+002
  0
POINT
  5
100
100
AcDbEntity
  8
1
100
AcDbPoint
  6
CONTINUOUS
 62
2
 10
2.5E-001
 20
2.5E-001
  0
ATTDEF
  5
101
100
AcDbEntity
  8
1
100
AcDbText
  6
CONTINUOUS
 62
6
 10
7.93802E+002
 20
3.3889971E+001
 40
4.0
  1
 
 41
7.0E-001
 72
1
 11
7.92402E+002
 21
3.3889971E+001
100
AcDbAttributeDefinition
  3
1
  2
1
 70
0
  0
ATTDEF
  5
102
100
AcDbEntity
  8
1
100
AcDbText
  6
CONTINUOUS
 62
6
 10
7.93802E+002
 20
2.5889971E+001
 40
4.0
  1
 
 41
7.0E-001
 72
1
 11
7.92402E+002
 21
2.5889971E+001
100
AcDbAttributeDefinition
  3
2
  2
2
 70
0
  0
ATTDEF
  5
103
100
AcDbEntity
  8
1
100
AcDbText
  6
CONTINUOUS
 62
6
 10
7.87452E+002
 20
1.1458917E+001
 40
4.0
  1
 
 41
7.0E-001
 72
1
 11
7.86052E+002
 21
1.1458917E+001
100
AcDbAttributeDefinition
  3
3
  2
3
 70
0
  0
ATTDEF
  5
104
100
AcDbEntity
  8
1
100
AcDbText
  6
CONTINUOUS
 62
6
 10
8.03452E+002
 20
4.96425E+001
 40
3.0
  1
 
 41
7.0E-001
 72
1
 11
8.02402E+002
 21
4.96425E+001
100
AcDbAttributeDefinition
  3
4
  2
4
 70
0
  0
ATTDEF
  5
105
100
AcDbEntity
  8
1
100
AcDbText
  6
CONTINUOUS
 62
6
 10
8.03452E+002
 20
4.4355E+001
 40
3.0
  1
 
 41
7.0E-001
 72
1
 11
8.02402E+002
 21
4.4355E+001
100
AcDbAttributeDefinition
  3
5
  2
5
 70
0
  0
ATTDEF
  5
106
100
AcDbEntity
  8
1
100
AcDbText
  6
CONTINUOUS
 62
6
 10
8.18852E+002
 20
5.51425E+001
 40
3.0
  1
 
 41
7.0E-001
 72
1
 11
8.17802E+002
 21
5.51425E+001
100
AcDbAttributeDefinition
  3
6
  2
6
 70
0
  0
ATTDEF
  5
107
100
AcDbEntity
  8
1
100
AcDbText
  6
CONTINUOUS
 62
6
 10
7.1377652E+002
 20
5.92056
 40
2.5
  1
 
 41
7.0E-001
100
AcDbAttributeDefinition
  3
7
  2
7
 70
0
  0
ATTDEF
  5
108
100
AcDbEntity
  8
1
100
AcDbText
  6
CONTINUOUS
 62
6
 10
7.5695651E+002
 20
5.92056
 40
2.5
  1
 
 41
7.0E-001
100
AcDbAttributeDefinition
  3
8
  2
8
 70
0
  0
ATTDEF
  5
109
100
AcDbEntity
  8
1
100
AcDbText
  6
CONTINUOUS
 62
6
 10
7.0746134E+002
 20
3.9889149E+001
 40
2.0
  1
 
 41
7.0E-001
100
AcDbAttributeDefinition
  3
9
  2
9
 70
0
  0
ATTDEF
  5
10a
100
AcDbEntity
  8
1
100
AcDbText
  6
CONTINUOUS
 62
6
 10
7.17202E+002
 20
3.54075E+001
 40
2.2
  1
 
 41
7.0E-001
100
AcDbAttributeDefinition
  3
10
  2
10
 70
0
  0
ATTDEF
  5
10b
100
AcDbEntity
  8
1
100
AcDbText
  6
CONTINUOUS
 62
6
 10
7.32442E+002
 20
3.54075E+001
 40
2.2
  1
 
 41
7.0E-001
100
AcDbAttributeDefinition
  3
11
  2
11
 70
0
  0
ATTDEF
  5
10c
100
AcDbEntity
  8
1
100
AcDbText
  6
CONTINUOUS
 62
6
 10
7.17202E+002
 20
3.11775E+001
 40
2.2
  1
 
 41
7.0E-001
100
AcDbAttributeDefinition
  3
12
  2
12
 70
0
  0
ATTDEF
  5
10d
100
AcDbEntity
  8
1
100
AcDbText
  6
CONTINUOUS
 62
6
 10
7.32442E+002
 20
3.11775E+001
 40
2.2
  1
 
 41
7.0E-001
100
AcDbAttributeDefinition
  3
13
  2
13
 70
0
  0
ATTDEF
  5
10e
100
AcDbEntity
  8
1
100
AcDbText
  6
CONTINUOUS
 62
6
 10
7.17202E+002
 20
2.69475E+001
 40
2.2
  1
 
 41
7.0E-001
100
AcDbAttributeDefinition
  3
14
  2
14
 70
0
  0
ATTDEF
  5
10f
100
AcDbEntity
  8
1
100
AcDbText
  6
CONTINUOUS
 62
6
 10
7.32442E+002
 20
2.69475E+001
 40
2.2
  1
 
 41
7.0E-001
100
AcDbAttributeDefinition
  3
15
  2
15
 70
0
  0
ATTDEF
  5
110
100
AcDbEntity
  8
1
100
AcDbText
  6
CONTINUOUS
 62
6
 10
7.17202E+002
 20
2.27175E+001
 40
2.2
  1
 
 41
7.0E-001
100
AcDbAttributeDefinition
  3
16
  2
16
 70
0
  0
ATTDEF
  5
111
100
AcDbEntity
  8
1
100
AcDbText
  6
CONTINUOUS
 62
6
 10
8.2845522E+002
 20
4.0035527E+001
 40
1.0
  1
 
100
AcDbAttributeDefinition
  3
17
  2
17
 70
0
  0
ATTDEF
  5
112
100
AcDbEntity
  8
1
100
AcDbText
  6
CONTINUOUS
 62
6
 10
8.2845522E+002
 20
3.8535527E+001
 40
1.0
  1
 
100
AcDbAttributeDefinition
  3
18
  2
18
 70
0
  0
ATTDEF
  5
113
100
AcDbEntity
  8
1
100
AcDbText
  6
CONTINUOUS
 62
6
 10
8.2845522E+002
 20
3.7035527E+001
 40
1.0
  1
 
100
AcDbAttributeDefinition
  3
19
  2
19
 70
0
  0
ATTDEF
  5
114
100
AcDbEntity
  8
1
100
AcDbText
  6
CONTINUOUS
 62
6
 10
8.2845522E+002
 20
3.5535527E+001
 40
1.0
  1
 
100
AcDbAttributeDefinition
  3
20
  2
20
 70
0
  0
ATTDEF
  5
115
100
AcDbEntity
  8
1
100
AcDbText
  6
CONTINUOUS
 62
6
 10
6.53702E+002
 20
3.96375E+001
 40
2.0
  1
 
 41
7.0E-001
100
AcDbAttributeDefinition
  3
21
  2
21
 70
0
  0
ATTDEF
  5
116
100
AcDbEntity
  8
1
100
AcDbText
  6
CONTINUOUS
 62
6
 10
6.61322E+002
 20
3.96375E+001
 40
2.0
  1
 
 41
7.0E-001
100
AcDbAttributeDefinition
  3
22
  2
22
 70
0
  0
ATTDEF
  5
117
100
AcDbEntity
  8
1
100
AcDbText
  6
CONTINUOUS
 62
6
 10
6.86722E+002
 20
3.96375E+001
 40
2.0
  1
 
 41
7.0E-001
100
AcDbAttributeDefinition
  3
23
  2
23
 70
0
  0
ATTDEF
  5
118
100
AcDbEntity
  8
1
100
AcDbText
  6
CONTINUOUS
 62
6
 10
6.98922E+002
 20
3.96375E+001
 40
2.0
  1
 
 41
7.0E-001
100
AcDbAttributeDefinition
  3
24
  2
24
 70
0
  0
ATTDEF
  5
119
100
AcDbEntity
  8
1
100
AcDbText
  6
CONTINUOUS
 62
6
 10
6.53702E+002
 20
3.54075E+001
 40
2.0
  1
 
 41
7.0E-001
100
AcDbAttributeDefinition
  3
25
  2
25
 70
0
  0
ATTDEF
  5
11a
100
AcDbEntity
  8
1
100
AcDbText
  6
CONTINUOUS
 62
6
 10
6.61322E+002
 20
3.54075E+001
 40
2.0
  1
 
 41
7.0E-001
100
AcDbAttributeDefinition
  3
26
  2
26
 70
0
  0
ATTDEF
  5
11b
100
AcDbEntity
  8
1
100
AcDbText
  6
CONTINUOUS
 62
6
 10
6.86722E+002
 20
3.54075E+001
 40
2.0
  1
 
 41
7.0E-001
100
AcDbAttributeDefinition
  3
27
  2
27
 70
0
  0
ATTDEF
  5
11c
100
AcDbEntity
  8
1
100
AcDbText
  6
CONTINUOUS
 62
6
 10
6.98922E+002
 20
3.54075E+001
 40
2.0
  1
 
 41
7.0E-001
100
AcDbAttributeDefinition
  3
28
  2
28
 70
0
  0
ATTDEF
  5
11d
100
AcDbEntity
  8
1
100
AcDbText
  6
CONTINUOUS
 62
6
 10
6.53702E+002
 20
3.11775E+001
 40
2.0
  1
 
 41
7.0E-001
100
AcDbAttributeDefinition
  3
29
  2
29
 70
0
  0
ATTDEF
  5
11e
100
AcDbEntity
  8
1
100
AcDbText
  6
CONTINUOUS
 62
6
 10
6.61322E+002
 20
3.11775E+001
 40
2.0
  1
 
 41
7.0E-001
100
AcDbAttributeDefinition
  3
30
  2
30
 70
0
  0
ATTDEF
  5
11f
100
AcDbEntity
  8
1
100
AcDbText
  6
CONTINUOUS
 62
6
 10
6.86722E+002
 20
3.11775E+001
 40
2.0
  1
 
 41
7.0E-001
100
AcDbAttributeDefinition
  3
31
  2
31
 70
0
  0
ATTDEF
  5
120
100
AcDbEntity
  8
1
100
AcDbText
  6
CONTINUOUS
 62
6
 10
6.98922E+002
 20
3.11775E+001
 40
2.0
  1
 
 41
7.0E-001
100
AcDbAttributeDefinition
  3
32
  2
32
 70
0
  0
ATTDEF
  5
121
100
AcDbEntity
  8
1
100
AcDbText
  6
CONTINUOUS
 62
6
 10
6.53702E+002
 20
2.69475E+001
 40
2.0
  1
 
 41
7.0E-001
100
AcDbAttributeDefinition
  3
33
  2
33
 70
0
  0
ATTDEF
  5
122
100
AcDbEntity
  8
1
100
AcDbText
  6
CONTINUOUS
 62
6
 10
6.61322E+002
 20
2.69475E+001
 40
2.0
  1
 
 41
7.0E-001
100
AcDbAttributeDefinition
  3
34
  2
34
 70
0
  0
ATTDEF
  5
123
100
AcDbEntity
  8
1
100
AcDbText
  6
CONTINUOUS
 62
6
 10
6.86722E+002
 20
2.69475E+001
 40
2.0
  1
 
 41
7.0E-001
100
AcDbAttributeDefinition
  3
35
  2
35
 70
0
  0
ATTDEF
  5
124
100
AcDbEntity
  8
1
100
AcDbText
  6
CONTINUOUS
 62
6
 10
6.98922E+002
 20
2.69475E+001
 40
2.0
  1
 
 41
7.0E-001
100
AcDbAttributeDefinition
  3
36
  2
36
 70
0
  0
ATTDEF
  5
125
100
AcDbEntity
  8
1
100
AcDbText
  6
CONTINUOUS
 62
6
 10
6.53702E+002
 20
2.27175E+001
 40
2.0
  1
 
 41
7.0E-001
100
AcDbAttributeDefinition
  3
37
  2
37
 70
0
  0
ATTDEF
  5
126
100
AcDbEntity
  8
1
100
AcDbText
  6
CONTINUOUS
 62
6
 10
6.61322E+002
 20
2.27175E+001
 40
2.0
  1
 
 41
7.0E-001
100
AcDbAttributeDefinition
  3
38
  2
38
 70
0
  0
ATTDEF
  5
127
100
AcDbEntity
  8
1
100
AcDbText
  6
CONTINUOUS
 62
6
 10
6.86722E+002
 20
2.27175E+001
 40
2.0
  1
 
 41
7.0E-001
100
AcDbAttributeDefinition
  3
39
  2
39
 70
0
  0
ATTDEF
  5
128
100
AcDbEntity
  8
1
100
AcDbText
  6
CONTINUOUS
 62
6
 10
6.98922E+002
 20
2.27175E+001
 40
2.0
  1
 
 41
7.0E-001
100
AcDbAttributeDefinition
  3
40
  2
40
 70
0
  0
ATTDEF
  5
129
100
AcDbEntity
  8
1
100
AcDbText
  6
CONTINUOUS
 62
6
 10
6.53702E+002
 20
1.84875E+001
 40
2.0
  1
 
 41
7.0E-001
100
AcDbAttributeDefinition
  3
41
  2
41
 70
0
  0
ATTDEF
  5
12a
100
AcDbEntity
  8
1
100
AcDbText
  6
CONTINUOUS
 62
6
 10
6.61322E+002
 20
1.84875E+001
 40
2.0
  1
 
 41
7.0E-001
100
AcDbAttributeDefinition
  3
42
  2
42
 70
0
  0
ATTDEF
  5
12b
100
AcDbEntity
  8
1
100
AcDbText
  6
CONTINUOUS
 62
6
 10
6.86722E+002
 20
1.84875E+001
 40
2.0
  1
 
 41
7.0E-001
100
AcDbAttributeDefinition
  3
43
  2
43
 70
0
  0
ATTDEF
  5
12c
100
AcDbEntity
  8
1
100
AcDbText
  6
CONTINUOUS
 62
6
 10
6.98922E+002
 20
1.84875E+001
 40
2.0
  1
 
 41
7.0E-001
100
AcDbAttributeDefinition
  3
44
  2
44
 70
0
  0
ATTDEF
  5
12d
100
AcDbEntity
  8
1
100
AcDbText
  6
CONTINUOUS
 62
6
 10
6.53702E+002
 20
1.42575E+001
 40
2.0
  1
 
 41
7.0E-001
100
AcDbAttributeDefinition
  3
45
  2
45
 70
0
  0
ATTDEF
  5
12e
100
AcDbEntity
  8
1
100
AcDbText
  6
CONTINUOUS
 62
6
 10
6.61322E+002
 20
1.42575E+001
 40
2.0
  1
 
 41
7.0E-001
100
AcDbAttributeDefinition
  3
46
  2
46
 70
0
  0
ATTDEF
  5
12f
100
AcDbEntity
  8
1
100
AcDbText
  6
CONTINUOUS
 62
6
 10
6.86722E+002
 20
1.42575E+001
 40
2.0
  1
 
 41
7.0E-001
100
AcDbAttributeDefinition
  3
47
  2
47
 70
0
  0
ATTDEF
  5
130
100
AcDbEntity
  8
1
100
AcDbText
  6
CONTINUOUS
 62
6
 10
6.98922E+002
 20
1.42575E+001
 40
2.0
  1
 
 41
7.0E-001
100
AcDbAttributeDefinition
  3
48
  2
48
 70
0
  0
ATTDEF
  5
131
100
AcDbEntity
  8
1
100
AcDbText
  6
CONTINUOUS
 62
6
 10
6.53702E+002
 20
1.00275E+001
 40
2.0
  1
 
 41
7.0E-001
100
AcDbAttributeDefinition
  3
49
  2
49
 70
0
  0
ATTDEF
  5
132
100
AcDbEntity
  8
1
100
AcDbText
  6
CONTINUOUS
 62
6
 10
6.61322E+002
 20
1.00275E+001
 40
2.0
  1
 
 41
7.0E-001
100
AcDbAttributeDefinition
  3
50
  2
50
 70
0
  0
ATTDEF
  5
133
100
AcDbEntity
  8
1
100
AcDbText
  6
CONTINUOUS
 62
6
 10
6.86722E+002
 20
1.00275E+001
 40
2.0
  1
 
 41
7.0E-001
100
AcDbAttributeDefinition
  3
51
  2
51
 70
0
  0
ATTDEF
  5
134
100
AcDbEntity
  8
1
100
AcDbText
  6
CONTINUOUS
 62
6
 10
6.98922E+002
 20
1.00275E+001
 40
2.0
  1
 
 41
7.0E-001
100
AcDbAttributeDefinition
  3
52
  2
52
 70
0
  0
POLYLINE
  5
135
100
AcDbEntity
  8
1
100
AcDb2dPolyline
  6
CONTINUOUS
 62
2
 66
1
 40
5.0E-001
 41
5.0E-001
 70
0
  0
VERTEX
  5
136
100
AcDbEntity
  8
1
100
AcDbVertex
100
AcDb2dVertex
 42
0.0
 10
6.5229948E+002
 20
6.0177352E+001
 70
0
  0
VERTEX
  5
137
100
AcDbEntity
  8
1
100
AcDbVertex
100
AcDb2dVertex
 42
0.0
 10
8.3499611E+002
 20
6.0177352E+001
 70
0
  0
SEQEND
  5
138
100
AcDbEntity
  0
POLYLINE
  5
139
100
AcDbEntity
  8
1
100
AcDb2dPolyline
  6
CONTINUOUS
 62
2
 66
1
 40
5.0E-001
 41
5.0E-001
 70
0
  0
VERTEX
  5
13a
100
AcDbEntity
  8
1
100
AcDbVertex
100
AcDb2dVertex
 42
0.0
 10
6.5229948E+002
 20
6.0177352E+001
 70
0
  0
VERTEX
  5
13b
100
AcDbEntity
  8
1
100
AcDbVertex
100
AcDb2dVertex
 42
0.0
 10
6.5229948E+002
 20
5.2427941
 70
0
  0
SEQEND
  5
13c
100
AcDbEntity
  0
POLYLINE
  5
13d
100
AcDbEntity
  8
1
100
AcDb2dPolyline
  6
CONTINUOUS
 62
2
 66
1
 40
5.0E-001
 41
5.0E-001
 70
0
  0
VERTEX
  5
13e
100
AcDbEntity
  8
1
100
AcDbVertex
100
AcDb2dVertex
 42
0.0
 10
8.3499642E+002
 20
4.3274433E+001
 70
0
  0
VERTEX
  5
13f
100
AcDbEntity
  8
1
100
AcDbVertex
100
AcDb2dVertex
 42
0.0
 10
6.522993E+002
 20
4.3274433E+001
 70
0
  0
SEQEND
  5
140
100
AcDbEntity
  0
POLYLINE
  5
141
100
AcDbEntity
  8
1
100
AcDb2dPolyline
  6
CONTINUOUS
 62
2
 66
1
 40
5.0E-001
 41
5.0E-001
 70
0
  0
VERTEX
  5
142
100
AcDbEntity
  8
1
100
AcDbVertex
100
AcDb2dVertex
 42
0.0
 10
7.0558596E+002
 20
2.2145583E+001
 70
0
  0
VERTEX
  5
143
100
AcDbEntity
  8
1
100
AcDbVertex
100
AcDb2dVertex
 42
0.0
 10
8.3499642E+002
 20
2.2145583E+001
 70
0
  0
SEQEND
  5
144
100
AcDbEntity
  0
POLYLINE
  5
145
100
AcDbEntity
  8
1
100
AcDb2dPolyline
  6
CONTINUOUS
 62
2
 66
1
 40
5.0E-001
 41
5.0E-001
 70
0
  0
VERTEX
  5
146
100
AcDbEntity
  8
1
100
AcDbVertex
100
AcDb2dVertex
 42
0.0
 10
8.2230912E+002
 20
2.2145583E+001
 70
0
  0
VERTEX
  5
147
100
AcDbEntity
  8
1
100
AcDbVertex
100
AcDb2dVertex
 42
0.0
 10
8.2230912E+002
 20
9.4682725
 70
0
  0
SEQEND
  5
148
100
AcDbEntity
  0
POLYLINE
  5
149
100
AcDbEntity
  8
1
100
AcDb2dPolyline
  6
CONTINUOUS
 62
2
 66
1
 40
5.0E-001
 41
5.0E-001
 70
0
  0
VERTEX
  5
14a
100
AcDbEntity
  8
1
100
AcDbVertex
100
AcDb2dVertex
 42
0.0
 10
7.4872278E+002
 20
5.2425025
 70
0
  0
VERTEX
  5
14b
100
AcDbEntity
  8
1
100
AcDbVertex
100
AcDb2dVertex
 42
0.0
 10
7.4872278E+002
 20
6.0177512E+001
 70
0
  0
SEQEND
  5
14c
100
AcDbEntity
  0
POLYLINE
  5
14d
100
AcDbEntity
  8
1
100
AcDb2dPolyline
  6
CONTINUOUS
 62
2
 66
1
 40
5.0E-001
 41
5.0E-001
 70
0
  0
VERTEX
  5
14e
100
AcDbEntity
  8
1
100
AcDbVertex
100
AcDb2dVertex
 42
0.0
 10
7.0558596E+002
 20
6.0177512E+001
 70
0
  0
VERTEX
  5
14f
100
AcDbEntity
  8
1
100
AcDbVertex
100
AcDb2dVertex
 42
0.0
 10
7.0558596E+002
 20
5.2425025
 70
0
  0
SEQEND
  5
150
100
AcDbEntity
  0
LINE
  5
151
100
AcDbEntity
  8
1
100
AcDbLine
  6
CONTINUOUS
 62
150
 10
6.522993E+002
 20
9.4682725
 11
8.3499642E+002
 21
9.4682725
  0
LINE
  5
152
100
AcDbEntity
  8
1
100
AcDbLine
  6
CONTINUOUS
 62
150
 10
8.3499642E+002
 20
1.3694043E+001
 11
8.2230912E+002
 21
1.3694043E+001
  0
LINE
  5
153
100
AcDbEntity
  8
1
100
AcDbLine
  6
CONTINUOUS
 62
150
 10
7.0558596E+002
 20
1.3694043E+001
 11
6.522993E+002
 21
1.3694043E+001
  0
LINE
  5
154
100
AcDbEntity
  8
1
100
AcDbLine
  6
CONTINUOUS
 62
150
 10
6.522993E+002
 20
1.7919812E+001
 11
7.0558596E+002
 21
1.7919812E+001
  0
LINE
  5
155
100
AcDbEntity
  8
1
100
AcDbLine
  6
CONTINUOUS
 62
150
 10
7.0558596E+002
 20
2.2145583E+001
 11
6.522993E+002
 21
2.2145583E+001
  0
LINE
  5
156
100
AcDbEntity
  8
1
100
AcDbLine
  6
CONTINUOUS
 62
150
 10
6.522993E+002
 20
2.6371353E+001
 11
7.4872278E+002
 21
2.6371353E+001
  0
LINE
  5
157
100
AcDbEntity
  8
1
100
AcDbLine
  6
CONTINUOUS
 62
150
 10
7.4872278E+002
 20
3.0597123E+001
 11
6.522993E+002
 21
3.0597123E+001
  0
LINE
  5
158
100
AcDbEntity
  8
1
100
AcDbLine
  6
CONTINUOUS
 62
150
 10
6.522993E+002
 20
3.4822893E+001
 11
7.4872278E+002
 21
3.4822893E+001
  0
LINE
  5
159
100
AcDbEntity
  8
1
100
AcDbLine
  6
CONTINUOUS
 62
150
 10
7.4872278E+002
 20
3.9048662E+001
 11
6.522993E+002
 21
3.9048662E+001
  0
LINE
  5
15a
100
AcDbEntity
  8
1
100
AcDbLine
  6
CONTINUOUS
 62
150
 10
7.4872278E+002
 20
5.3838858E+001
 11
8.3499642E+002
 21
5.3838858E+001
  0
LINE
  5
15b
100
AcDbEntity
  8
1
100
AcDbLine
  6
CONTINUOUS
 62
150
 10
7.9947198E+002
 20
6.0177512E+001
 11
7.9947198E+002
 21
5.3838858E+001
  0
LINE
  5
15c
100
AcDbEntity
  8
1
100
AcDbLine
  6
CONTINUOUS
 62
150
 10
7.918596E+002
 20
9.4682725
 11
7.918596E+002
 21
5.2425025
  0
LINE
  5
15d
100
AcDbEntity
  8
1
100
AcDbLine
  6
CONTINUOUS
 62
150
 10
7.3096056E+002
 20
2.2145583E+001
 11
7.3096056E+002
 21
6.0177512E+001
  0
LINE
  5
15e
100
AcDbEntity
  8
1
100
AcDbLine
  6
CONTINUOUS
 62
150
 10
7.157358E+002
 20
4.3274433E+001
 11
7.157358E+002
 21
2.2145583E+001
  0
LINE
  5
15f
100
AcDbEntity
  8
1
100
AcDbLine
  6
CONTINUOUS
 62
150
 10
6.9797358E+002
 20
5.2425025
 11
6.9797358E+002
 21
4.3274433E+001
  0
LINE
  5
160
100
AcDbEntity
  8
1
100
AcDbLine
  6
CONTINUOUS
 62
150
 10
6.8528628E+002
 20
4.3274433E+001
 11
6.8528628E+002
 21
5.2425025
  0
LINE
  5
161
100
AcDbEntity
  8
1
100
AcDbLine
  6
CONTINUOUS
 62
150
 10
6.5991168E+002
 20
5.2425025
 11
6.5991168E+002
 21
4.3274433E+001
  0
TEXT
  5
162
100
AcDbEntity
  8
1
100
AcDbText
  6
CONTINUOUS
 62
1
 10
6.5325135E+002
 20
6.1066375
 40
2.5
  1
Zust
 41
5.714E-001
 51
-2.104591E-004
100
AcDbText
  0
TEXT
  5
163
100
AcDbEntity
  8
1
100
AcDbText
  6
CONTINUOUS
 62
1
 10
6.6590967E+002
 20
6.1066375
 40
2.5
  1
Aenderung
 41
5.9524444E-001
 51
-2.104591E-004
100
AcDbText
  0
TEXT
  5
164
100
AcDbEntity
  8
1
100
AcDbText
  6
CONTINUOUS
 62
1
 10
6.8770486E+002
 20
6.1066375
 40
2.5
  1
Datum
 41
6.2856E-001
 51
-2.104591E-004
100
AcDbText
  0
TEXT
  5
165
100
AcDbEntity
  8
1
100
AcDbText
  6
CONTINUOUS
 62
1
 10
6.9847907E+002
 20
6.1066375
 40
2.5
  1
Name
 41
6.607E-001
 51
-2.104591E-004
100
AcDbText
  0
TEXT
  5
166
100
AcDbEntity
  8
1
100
AcDbText
  6
CONTINUOUS
 62
1
 10
7.0705749E+002
 20
3.5687027E+001
 40
2.5
  1
Bearb.
 41
5.476E-001
 51
-2.104591E-004
100
AcDbText
  0
TEXT
  5
167
100
AcDbEntity
  8
1
100
AcDbText
  6
CONTINUOUS
 62
1
 10
7.0736018E+002
 20
3.1461257E+001
 40
2.5
  1
Gepr.
 41
5.2856E-001
 51
-2.104591E-004
100
AcDbText
  0
TEXT
  5
168
100
AcDbEntity
  8
1
100
AcDbText
  6
CONTINUOUS
 62
1
 10
7.0745009E+002
 20
2.7235488E+001
 40
2.5
  1
Norm
 41
6.429E-001
 51
-2.104591E-004
100
AcDbText
  0
TEXT
  5
169
100
AcDbEntity
  8
1
100
AcDbText
  6
CONTINUOUS
 62
1
 10
7.1942311E+002
 20
3.9912798E+001
 40
2.5
  1
Datum
 41
6.2856E-001
 51
-2.104591E-004
100
AcDbText
  0
TEXT
  5
16a
100
AcDbEntity
  8
1
100
AcDbText
  6
CONTINUOUS
 62
1
 10
7.3654097E+002
 20
3.9912798E+001
 40
2.5
  1
Name
 41
6.607E-001
 51
-2.104591E-004
100
AcDbText
  0
TEXT
  5
16b
100
AcDbEntity
  8
1
100
AcDbText
  6
CONTINUOUS
 62
1
 10
7.5126024E+002
 20
5.5259436E+001
 40
3.5
  1
Maßstab:
 41
6.2244898E-001
 51
-2.104591E-004
100
AcDbText
  0
TEXT
  5
16c
100
AcDbEntity
  8
1
100
AcDbText
  6
CONTINUOUS
 62
6
 10
8.2270372E+002
 20
1.8783948E+001
 40
2.5
  1
Blatt
 41
5.4288E-001
 51
-2.104591E-004
100
AcDbText
  0
TEXT
  5
16d
100
AcDbEntity
  8
1
100
AcDbText
  6
CONTINUOUS
 62
6
 10
8.3089352E+002
 20
1.0332408E+001
 40
2.5
  1
Bl. 
 41
4.107E-001
 51
-2.104591E-004
100
AcDbText
  0
TEXT
  5
16e
100
AcDbEntity
  8
1
100
AcDbText
  6
CONTINUOUS
 62
1
 10
7.0745009E+002
 20
2.3009718E+001
 40
2.2
  1
Freig.
 41
6.0E-001
 51
-2.104591E-004
100
AcDbText
  0
LINE
  5
16f
100
AcDbEntity
  8
1
100
AcDbLine
  6
CONTINUOUS
 62
2
 10
7.0667084E+002
 20
2.1024724E+001
 11
7.0667084E+002
 21
1.1034724E+001
  0
LINE
  5
170
100
AcDbEntity
  8
1
100
AcDbLine
  6
CONTINUOUS
 62
2
 10
7.1666087E+002
 20
2.1024724E+001
 11
7.0667084E+002
 21
2.1024724E+001
  0
LINE
  5
171
100
AcDbEntity
  8
1
100
AcDbLine
  6
CONTINUOUS
 62
2
 10
7.1666087E+002
 20
1.1034724E+001
 11
7.1666087E+002
 21
2.1024724E+001
  0
LINE
  5
172
100
AcDbEntity
  8
1
100
AcDbLine
  6
CONTINUOUS
 62
2
 10
7.161614E+002
 20
1.1534217E+001
 11
7.161614E+002
 21
2.0525232E+001
  0
LINE
  5
173
100
AcDbEntity
  8
1
100
AcDbLine
  6
CONTINUOUS
 62
2
 10
7.161614E+002
 20
2.0525232E+001
 11
7.0717037E+002
 21
2.0525232E+001
  0
LINE
  5
174
100
AcDbEntity
  8
1
100
AcDbLine
  6
CONTINUOUS
 62
1
 10
7.0777295E+002
 20
1.4161591E+001
 11
7.0777295E+002
 21
1.50267E+001
  0
LINE
  5
175
100
AcDbEntity
  8
1
100
AcDbLine
  6
CONTINUOUS
 62
2
 10
7.0717037E+002
 20
2.0525232E+001
 11
7.0717037E+002
 21
1.1534217E+001
  0
LINE
  5
176
100
AcDbEntity
  8
1
100
AcDbLine
  6
CONTINUOUS
 62
2
 10
7.0717037E+002
 20
1.1534217E+001
 11
7.161614E+002
 21
1.1534217E+001
  0
LINE
  5
177
100
AcDbEntity
  8
1
100
AcDbLine
  6
CONTINUOUS
 62
2
 10
7.0667084E+002
 20
1.1034724E+001
 11
7.1666087E+002
 21
1.1034724E+001
  0
LINE
  5
178
100
AcDbEntity
  8
1
100
AcDbLine
  6
CONTINUOUS
 62
1
 10
7.0913099E+002
 20
1.4875842E+001
 11
7.0717037E+002
 21
1.396184E+001
  0
LINE
  5
179
100
AcDbEntity
  8
1
100
AcDbLine
  6
CONTINUOUS
 62
1
 10
7.0797279E+002
 20
1.5426332E+001
 11
7.0797279E+002
 21
1.4336473E+001
  0
LINE
  5
17a
100
AcDbEntity
  8
1
100
AcDbLine
  6
CONTINUOUS
 62
1
 10
7.0817257E+002
 20
1.5531207E+001
 11
7.0817257E+002
 21
1.4429268E+001
  0
ARC
  5
17b
100
AcDbEntity
  8
1
100
AcDbCircle
  6
CONTINUOUS
 62
1
 10
7.0827248E+002
 20
1.50267E+001
 40
4.9949732E-001
100
AcDbArc
 50
1.1500681E+002
 51
1.8E+002
  0
LINE
  5
17c
100
AcDbEntity
  8
1
100
AcDbLine
  6
CONTINUOUS
 62
1
 10
7.0806135E+002
 20
1.5479242E+001
 11
7.0870463E+002
 21
1.5779982E+001
  0
ARC
  5
17d
100
AcDbEntity
  8
1
100
AcDbCircle
  6
CONTINUOUS
 62
1
 10
7.0883131E+002
 20
1.5508281E+001
 40
2.9968781E-001
100
AcDbArc
 50
0.0
 51
1.14997E+002
  0
LINE
  5
17e
100
AcDbEntity
  8
1
100
AcDbLine
  6
CONTINUOUS
 62
1
 10
7.0913099E+002
 20
1.4875842E+001
 11
7.0913099E+002
 21
1.5508281E+001
  0
LINE
  5
17f
100
AcDbEntity
  8
1
100
AcDbLine
  6
CONTINUOUS
 62
1
 10
7.0873143E+002
 20
1.5791925E+001
 11
7.0873143E+002
 21
1.4690123E+001
  0
LINE
  5
180
100
AcDbEntity
  8
1
100
AcDbLine
  6
CONTINUOUS
 62
1
 10
7.0893121E+002
 20
1.4782918E+001
 11
7.0893121E+002
 21
1.5789982E+001
  0
ARC
  5
181
100
AcDbEntity
  8
1
100
AcDbCircle
  6
CONTINUOUS
 62
1
 10
7.0807264E+002
 20
1.4161591E+001
 40
2.9970647E-001
100
AcDbArc
 50
1.8E+002
 51
2.9508511E+002
  0
LINE
  5
182
100
AcDbEntity
  8
1
100
AcDbLine
  6
CONTINUOUS
 62
1
 10
7.1331482E+002
 20
1.627545E+001
 11
7.0819931E+002
 21
1.3890866E+001
  0
LINE
  5
183
100
AcDbEntity
  8
1
100
AcDbLine
  6
CONTINUOUS
 62
1
 10
7.1139761E+002
 20
1.6484233E+001
 11
7.0933084E+002
 21
1.5520232E+001
  0
LINE
  5
184
100
AcDbEntity
  8
1
100
AcDbLine
  6
CONTINUOUS
 62
1
 10
7.0963052E+002
 20
1.6438365E+001
 11
7.0963052E+002
 21
1.3475267E+001
  0
LINE
  5
185
100
AcDbEntity
  8
1
100
AcDbLine
  6
CONTINUOUS
 62
1
 10
7.0983028E+002
 20
1.6885915E+001
 11
7.0983028E+002
 21
1.3262467E+001
  0
LINE
  5
186
100
AcDbEntity
  8
1
100
AcDbLine
  6
CONTINUOUS
 62
1
 10
7.0999271E+002
 20
1.6636165E+001
 11
7.0999271E+002
 21
1.3673074E+001
  0
LINE
  5
187
100
AcDbEntity
  8
1
100
AcDbLine
  6
CONTINUOUS
 62
1
 10
7.1089818E+002
 20
1.7057748E+001
 11
7.1089818E+002
 21
1.4094657E+001
  0
LINE
  5
188
100
AcDbEntity
  8
1
100
AcDbLine
  6
CONTINUOUS
 62
1
 10
7.1069833E+002
 20
1.3648075E+001
 11
7.1069833E+002
 21
1.7271516E+001
  0
ARC
  5
189
100
AcDbEntity
  8
1
100
AcDbCircle
  6
CONTINUOUS
 62
1
 10
7.1129771E+002
 20
1.7057748E+001
 40
3.9959429E-001
100
AcDbArc
 50
9.9286249E+001
 51
1.8E+002
  0
ARC
  5
18a
100
AcDbEntity
  8
1
100
AcDbCircle
  6
CONTINUOUS
 62
1
 10
7.1113537E+002
 20
1.6860916E+001
 40
5.9940806E-001
100
AcDbArc
 50
8.0603552E+001
 51
1.8E+002
  0
LINE
  5
18b
100
AcDbEntity
  8
1
100
AcDbLine
  6
CONTINUOUS
 62
1
 10
7.1053593E+002
 20
1.6860916E+001
 11
7.1053593E+002
 21
1.3897817E+001
  0
ARC
  5
18c
100
AcDbEntity
  8
1
100
AcDbCircle
  6
CONTINUOUS
 62
1
 10
7.1039237E+002
 20
1.6636165E+001
 40
3.9960123E-001
100
AcDbArc
 50
9.9325427E+001
 51
1.8E+002
  0
ARC
  5
18d
100
AcDbEntity
  8
1
100
AcDbCircle
  6
CONTINUOUS
 62
1
 10
7.102299E+002
 20
1.6438365E+001
 40
5.9940806E-001
100
AcDbArc
 50
8.0603552E+001
 51
1.8E+002
  0
ARC
  5
18e
100
AcDbEntity
  8
1
100
AcDbCircle
  6
CONTINUOUS
 62
1
 10
7.092309E+002
 20
1.3475267E+001
 40
3.9960915E-001
100
AcDbArc
 50
2.7E+002
 51
3.6E+002
  0
ARC
  5
18f
100
AcDbEntity
  8
1
100
AcDbCircle
  6
CONTINUOUS
 62
1
 10
7.0939333E+002
 20
1.3673074E+001
 40
5.994055E-001
100
AcDbArc
 50
2.6060319E+002
 51
3.6E+002
  0
ARC
  5
190
100
AcDbEntity
  8
1
100
AcDbCircle
  6
CONTINUOUS
 62
1
 10
7.1013637E+002
 20
1.3897817E+001
 40
3.9959393E-001
100
AcDbArc
 50
2.7E+002
 51
3.6E+002
  0
ARC
  5
191
100
AcDbEntity
  8
1
100
AcDbCircle
  6
CONTINUOUS
 62
1
 10
7.1029874E+002
 20
1.4094657E+001
 40
5.9940312E-001
100
AcDbArc
 50
2.606093E+002
 51
3.6E+002
  0
LINE
  5
192
100
AcDbEntity
  8
1
100
AcDbLine
  6
CONTINUOUS
 62
1
 10
7.1195669E+002
 20
1.5562167E+001
 11
7.1195669E+002
 21
1.6426308E+001
  0
LINE
  5
193
100
AcDbEntity
  8
1
100
AcDbLine
  6
CONTINUOUS
 62
1
 10
7.1215653E+002
 20
1.6825932E+001
 11
7.1215653E+002
 21
1.573608E+001
  0
LINE
  5
194
100
AcDbEntity
  8
1
100
AcDbLine
  6
CONTINUOUS
 62
1
 10
7.1235631E+002
 20
1.6930807E+001
 11
7.1235631E+002
 21
1.5828868E+001
  0
LINE
  5
195
100
AcDbEntity
  8
1
100
AcDbLine
  6
CONTINUOUS
 62
1
 10
7.129152E+002
 20
1.7191533E+001
 11
7.129152E+002
 21
1.608973E+001
  0
LINE
  5
196
100
AcDbEntity
  8
1
100
AcDbLine
  6
CONTINUOUS
 62
1
 10
7.1311504E+002
 20
1.6182518E+001
 11
7.1311504E+002
 21
1.7190557E+001
  0
LINE
  5
197
100
AcDbEntity
  8
1
100
AcDbLine
  6
CONTINUOUS
 62
1
 10
7.1331482E+002
 20
1.627545E+001
 11
7.1331482E+002
 21
1.6907866E+001
  0
ARC
  5
198
100
AcDbEntity
  8
1
100
AcDbCircle
  6
CONTINUOUS
 62
1
 10
7.1301514E+002
 20
1.6907866E+001
 40
2.9968781E-001
100
AcDbArc
 50
0.0
 51
1.1499049E+002
  0
LINE
  5
199
100
AcDbEntity
  8
1
100
AcDbLine
  6
CONTINUOUS
 62
1
 10
7.1224509E+002
 20
1.6878842E+001
 11
7.1288843E+002
 21
1.7179582E+001
  0
ARC
  5
19a
100
AcDbEntity
  8
1
100
AcDbCircle
  6
CONTINUOUS
 62
1
 10
7.1245622E+002
 20
1.6426308E+001
 40
4.9950375E-001
100
AcDbArc
 50
1.1501034E+002
 51
1.8E+002
  0
LINE
  5
19b
100
AcDbEntity
  8
1
100
AcDbLine
  6
CONTINUOUS
 62
1
 10
7.1238305E+002
 20
1.5290466E+001
 11
7.161614E+002
 21
1.705165E+001
  0
ARC
  5
19c
100
AcDbEntity
  8
1
100
AcDbCircle
  6
CONTINUOUS
 62
1
 10
7.1225637E+002
 20
1.5562167E+001
 40
2.9971091E-001
100
AcDbArc
 50
1.8E+002
 51
2.9499577E+002
  0
ARC
  5
19d
100
AcDbEntity
  8
1
100
AcDbCircle
  6
CONTINUOUS
 62
1
 10
7.144137E+002
 20
1.7838941E+001
 40
5.9940294E-001
100
AcDbArc
 50
8.0591814E+001
 51
1.8E+002
  0
ARC
  5
19e
100
AcDbEntity
  8
1
100
AcDbCircle
  6
CONTINUOUS
 62
1
 10
7.1457607E+002
 20
1.8035773E+001
 40
3.9960394E-001
100
AcDbArc
 50
9.9308349E+001
 51
1.8E+002
  0
LINE
  5
19f
100
AcDbEntity
  8
1
100
AcDbLine
  6
CONTINUOUS
 62
1
 10
7.1401414E+002
 20
1.8285515E+001
 11
7.1401414E+002
 21
1.4662075E+001
  0
LINE
  5
1a0
100
AcDbEntity
  8
1
100
AcDbLine
  6
CONTINUOUS
 62
1
 10
7.1417648E+002
 20
1.8035773E+001
 11
7.1417645E+002
 21
1.5072682E+001
  0
LINE
  5
1a1
100
AcDbEntity
  8
1
100
AcDbLine
  6
CONTINUOUS
 62
1
 10
7.1381432E+002
 20
1.7838941E+001
 11
7.1381432E+002
 21
1.4875842E+001
  0
LINE
  5
1a2
100
AcDbEntity
  8
1
100
AcDbLine
  6
CONTINUOUS
 62
1
 10
7.1558135E+002
 20
1.7883833E+001
 11
7.1351464E+002
 21
1.6919832E+001
  0
LINE
  5
1a3
100
AcDbEntity
  8
1
100
AcDbLine
  6
CONTINUOUS
 62
1
 10
7.1471973E+002
 20
1.8260516E+001
 11
7.1471973E+002
 21
1.5297425E+001
  0
LINE
  5
1a4
100
AcDbEntity
  8
1
100
AcDbLine
  6
CONTINUOUS
 62
1
 10
7.1488207E+002
 20
1.5047683E+001
 11
7.1488207E+002
 21
1.8671123E+001
  0
LINE
  5
1a5
100
AcDbEntity
  8
1
100
AcDbLine
  6
CONTINUOUS
 62
1
 10
7.1508185E+002
 20
1.8457355E+001
 11
7.1508185E+002
 21
1.5494257E+001
  0
ARC
  5
1a6
100
AcDbEntity
  8
1
100
AcDbCircle
  6
CONTINUOUS
 62
1
 10
7.1548145E+002
 20
1.8457355E+001
 40
3.9960444E-001
100
AcDbArc
 50
9.9285896E+001
 51
1.8E+002
  0
ARC
  5
1a7
100
AcDbEntity
  8
1
100
AcDbCircle
  6
CONTINUOUS
 62
1
 10
7.1531914E+002
 20
1.8260516E+001
 40
5.9939056E-001
100
AcDbArc
 50
8.0606189E+001
 51
1.8E+002
  0
ARC
  5
1a8
100
AcDbEntity
  8
1
100
AcDbCircle
  6
CONTINUOUS
 62
1
 10
7.1341473E+002
 20
1.4875842E+001
 40
3.9960915E-001
100
AcDbArc
 50
2.7E+002
 51
3.6E+002
  0
ARC
  5
1a9
100
AcDbEntity
  8
1
100
AcDbCircle
  6
CONTINUOUS
 62
1
 10
7.1357707E+002
 20
1.5072682E+001
 40
5.9940562E-001
100
AcDbArc
 50
2.606093E+002
 51
3.6E+002
  0
ARC
  5
1aa
100
AcDbEntity
  8
1
100
AcDbCircle
  6
CONTINUOUS
 62
1
 10
7.143201E+002
 20
1.5297425E+001
 40
3.9960915E-001
100
AcDbArc
 50
2.7E+002
 51
3.6E+002
  0
ARC
  5
1ab
100
AcDbEntity
  8
1
100
AcDbCircle
  6
CONTINUOUS
 62
1
 10
7.1448248E+002
 20
1.5494257E+001
 40
5.9940294E-001
100
AcDbArc
 50
2.6059181E+002
 51
3.6E+002
  0
TEXT
  5
1ac
100
AcDbEntity
  8
1
100
AcDbText
  6
CONTINUOUS
 62
1
 10
7.1831614E+002
 20
1.9218724E+001
 40
2.2
  1
FRITZ FUSS GmbH&Co
 41
7.0E-001
100
AcDbText
  0
TEXT
  5
1ad
100
AcDbEntity
  8
1
100
AcDbText
  6
CONTINUOUS
 62
1
 10
7.1831614E+002
 20
1.3424524E+001
 40
2.2
  1
Sicherheitstechnik
 41
7.0E-001
100
AcDbText
  0
TEXT
  5
1ae
100
AcDbEntity
  8
1
100
AcDbText
  6
CONTINUOUS
 62
1
 10
7.1831614E+002
 20
1.0527424E+001
 40
2.2
  1
D-72458 Albstadt
 41
7.0E-001
100
AcDbText
  0
TEXT
  5
1af
100
AcDbEntity
  8
1
100
AcDbText
  6
CONTINUOUS
 62
1
 10
7.1831614E+002
 20
1.6321624E+001
 40
2.2
  1
Kommanditg. auf Aktien
 41
6.0E-001
100
AcDbText
  0
TEXT
  5
1b0
100
AcDbEntity
  8
1
100
AcDbText
  6
CONTINUOUS
 62
1
 10
7.4972178E+002
 20
4.0277433E+001
 40
2.0
  1
Benennung
 41
7.0E-001
100
AcDbText
  0
TEXT
  5
1b1
100
AcDbEntity
  8
1
100
AcDbText
  6
CONTINUOUS
 62
1
 10
7.4972178E+002
 20
1.9148583E+001
 40
2.0
  1
Zeichnungsnummer
 41
7.0E-001
100
AcDbText
  0
TEXT
  5
1b2
100
AcDbEntity
  8
1
100
AcDbText
  6
CONTINUOUS
 62
1
 10
7.4972178E+002
 20
5.0841858E+001
 40
2.0
  1
Werkstoff
 41
7.0E-001
100
AcDbText
  0
POINT
  5
1b3
100
AcDbEntity
  8
Drafting_Hidden_Entities
100
AcDbPoint
  6
CONTINUOUS
 62
1
 10
0.0
 20
0.0
  0
ENDBLK
  5
1b4
100
AcDbEntity
100
AcDbBlockEnd
  0
BLOCK
  5
1b5
100
AcDbEntity
100
AcDbBlockBegin
  2
EFFZF_SCHLIETAB
 10
0.0
 20
0.0
 70
0
  0
LINE
  5
1b6
100
AcDbEntity
  8
4
100
AcDbLine
  6
CONTINUOUS
 62
2
 10
6.0000188
 20
6.0000087
 11
-6.0000188
 21
6.0000087
  0
LINE
  5
1b7
100
AcDbEntity
  8
4
100
AcDbLine
  6
CONTINUOUS
 62
1
 10
-3.3832389
 20
-1.5400489
 11
-6.0000188
 21
-2.7599379
  0
LINE
  5
1b8
100
AcDbEntity
  8
4
100
AcDbLine
  6
CONTINUOUS
 62
1
 10
9.5717343E-001
 20
-9.8666357E-001
 11
6.0000188
 21
1.363932
  0
LINE
  5
1b9
100
AcDbEntity
  8
4
100
AcDbLine
  6
CONTINUOUS
 62
1
 10
3.3508089
 20
2.6774082
 11
3.3507682
 21
-1.2773333
  0
ARC
  5
1ba
100
AcDbEntity
  8
4
100
AcDbCircle
  6
CONTINUOUS
 62
1
 10
3.884134
 20
2.6774082
 40
5.3333845E-001
100
AcDbArc
 50
9.9308349E+001
 51
1.8E+002
  0
ARC
  5
1bb
100
AcDbEntity
  8
4
100
AcDbCircle
  6
CONTINUOUS
 62
1
 10
3.6674185
 20
2.4147028
 40
8.0000373E-001
100
AcDbArc
 50
8.0591814E+001
 51
1.8E+002
  0
LINE
  5
1bc
100
AcDbEntity
  8
4
100
AcDbLine
  6
CONTINUOUS
 62
1
 10
2.8674513
 20
2.4147028
 11
2.8674513
 21
-1.5400489
  0
ARC
  5
1bd
100
AcDbEntity
  8
4
100
AcDbCircle
  6
CONTINUOUS
 62
1
 10
2.3341262
 20
-1.5400489
 40
5.3334541E-001
100
AcDbArc
 50
2.7E+002
 51
3.6E+002
  0
LINE
  5
1be
100
AcDbEntity
  8
4
100
AcDbLine
  6
CONTINUOUS
 62
1
 10
5.2258491
 20
2.4746189
 11
2.4674676
 21
1.1879982
  0
LINE
  5
1bf
100
AcDbEntity
  8
4
100
AcDbLine
  6
CONTINUOUS
 62
1
 10
4.2925404
 20
-1.3106991
 11
4.2925404
 21
3.5253897
  0
LINE
  5
1c0
100
AcDbEntity
  8
4
100
AcDbLine
  6
CONTINUOUS
 62
2
 10
6.0000188
 20
-6.0000087
 11
6.0000188
 21
6.0000087
  0
LINE
  5
1c1
100
AcDbEntity
  8
4
100
AcDbLine
  6
CONTINUOUS
 62
2
 10
-6.0000188
 20
-6.0000087
 11
6.0000188
 21
-6.0000087
  0
LINE
  5
1c2
100
AcDbEntity
  8
4
100
AcDbLine
  6
CONTINUOUS
 62
1
 10
-4.8108508
 20
-7.3471051E-001
 11
-3.9522899
 21
-3.3332308E-001
  0
LINE
  5
1c3
100
AcDbEntity
  8
4
100
AcDbLine
  6
CONTINUOUS
 62
2
 10
-6.0000188
 20
6.0000087
 11
-6.0000188
 21
-6.0000087
  0
LINE
  5
1c4
100
AcDbEntity
  8
4
100
AcDbLine
  6
CONTINUOUS
 62
1
 10
2.2007848
 20
3.2796216E-001
 11
-4.6267282
 21
-2.8546644
  0
LINE
  5
1c5
100
AcDbEntity
  8
4
100
AcDbLine
  6
CONTINUOUS
 62
1
 10
-2.2331334
 20
8.0939718E-001
 11
-2.2331334
 21
-3.1453443
  0
ARC
  5
1c6
100
AcDbEntity
  8
4
100
AcDbCircle
  6
CONTINUOUS
 62
1
 10
1.0548297
 20
5.2930692E-001
 40
6.6667151E-001
100
AcDbArc
 50
1.1501034E+002
 51
1.8E+002
  0
LINE
  5
1c7
100
AcDbEntity
  8
4
100
AcDbLine
  6
CONTINUOUS
 62
1
 10
7.7305075E-001
 20
1.1332903
 11
1.6316931
 21
1.5346778
  0
LINE
  5
1c8
100
AcDbEntity
  8
4
100
AcDbLine
  6
CONTINUOUS
 62
1
 10
3.1341341
 20
3.0107313
 11
3.1341341
 21
-1.8253576
  0
LINE
  5
1c9
100
AcDbEntity
  8
4
100
AcDbLine
  6
CONTINUOUS
 62
1
 10
4.0758657
 20
2.9773654
 11
4.0758657
 21
-9.7737606E-001
  0
ARC
  5
1ca
100
AcDbEntity
  8
4
100
AcDbCircle
  6
CONTINUOUS
 62
1
 10
5.0925077
 20
3.240081
 40
5.3333913E-001
100
AcDbArc
 50
9.9285896E+001
 51
1.8E+002
  0
ARC
  5
1cb
100
AcDbEntity
  8
4
100
AcDbCircle
  6
CONTINUOUS
 62
1
 10
4.8758736
 20
2.9773654
 40
7.999872E-001
100
AcDbArc
 50
8.0606189E+001
 51
1.8E+002
  0
ARC
  5
1cc
100
AcDbEntity
  8
4
100
AcDbCircle
  6
CONTINUOUS
 62
1
 10
3.5424999
 20
-9.7737606E-001
 40
5.3334541E-001
100
AcDbArc
 50
2.7E+002
 51
3.6E+002
  0
ARC
  5
1cd
100
AcDbEntity
  8
4
100
AcDbCircle
  6
CONTINUOUS
 62
1
 10
2.550801
 20
-1.2773333
 40
8.000073E-001
100
AcDbArc
 50
2.606093E+002
 51
3.6E+002
  0
ARC
  5
1ce
100
AcDbEntity
  8
4
100
AcDbCircle
  6
CONTINUOUS
 62
1
 10
-1.8246862
 20
-2.5826715
 40
8.0000396E-001
100
AcDbArc
 50
2.606093E+002
 51
3.6E+002
  0
ARC
  5
1cf
100
AcDbEntity
  8
4
100
AcDbCircle
  6
CONTINUOUS
 62
1
 10
-3.0331006
 20
-3.1453443
 40
8.0000714E-001
100
AcDbArc
 50
2.6060319E+002
 51
3.6E+002
  0
LINE
  5
1d0
100
AcDbEntity
  8
4
100
AcDbLine
  6
CONTINUOUS
 62
1
 10
-2.7165317
 20
5.4539985E-001
 11
-2.7165317
 21
-3.4093518
  0
ARC
  5
1d1
100
AcDbEntity
  8
4
100
AcDbCircle
  6
CONTINUOUS
 62
1
 10
-1.9165645
 20
5.4539985E-001
 40
8.0001056E-001
100
AcDbArc
 50
8.0603552E+001
 51
1.8E+002
  0
ARC
  5
1d2
100
AcDbEntity
  8
4
100
AcDbCircle
  6
CONTINUOUS
 62
1
 10
-1.699727
 20
8.0939718E-001
 40
5.3333484E-001
100
AcDbArc
 50
9.9325427E+001
 51
1.8E+002
  0
LINE
  5
1d3
100
AcDbEntity
  8
4
100
AcDbLine
  6
CONTINUOUS
 62
1
 10
-5.1957791
 20
-2.4933364
 11
-5.1957791
 21
-1.3387041
  0
LINE
  5
1d4
100
AcDbEntity
  8
4
100
AcDbLine
  6
CONTINUOUS
 62
1
 10
-4.6624134
 20
-6.6535424E-001
 11
-4.6624134
 21
-2.1360773
  0
LINE
  5
1d5
100
AcDbEntity
  8
4
100
AcDbLine
  6
CONTINUOUS
 62
1
 10
-3.9165233
 20
-3.1738273E-001
 11
-3.9165233
 21
-1.7879227
  0
LINE
  5
1d6
100
AcDbEntity
  8
4
100
AcDbLine
  6
CONTINUOUS
 62
1
 10
-3.3832389
 20
-1.5400489
 11
-3.3832389
 21
-6.959532E-001
  0
ARC
  5
1d7
100
AcDbEntity
  8
4
100
AcDbCircle
  6
CONTINUOUS
 62
1
 10
-4.5290719
 20
-1.3387041
 40
6.6666292E-001
100
AcDbArc
 50
1.1500681E+002
 51
1.8E+002
  0
LINE
  5
1d8
100
AcDbEntity
  8
4
100
AcDbLine
  6
CONTINUOUS
 62
1
 10
-3.6498811
 20
-1.6640723
 11
-3.6498811
 21
-3.1997673E-001
  0
ARC
  5
1d9
100
AcDbEntity
  8
4
100
AcDbCircle
  6
CONTINUOUS
 62
1
 10
-3.7832225
 20
-6.959532E-001
 40
3.9998362E-001
100
AcDbArc
 50
0.0
 51
1.14997E+002
  0
LINE
  5
1da
100
AcDbEntity
  8
4
100
AcDbLine
  6
CONTINUOUS
 62
1
 10
-3.5805248E-001
 20
6.0661809E-001
 11
-3.1165153
 21
-6.8000268E-001
  0
LINE
  5
1db
100
AcDbEntity
  8
4
100
AcDbLine
  6
CONTINUOUS
 62
1
 10
-1.2913612
 20
-3.1787101
 11
-1.2913612
 21
1.6573787
  0
ARC
  5
1dc
100
AcDbEntity
  8
4
100
AcDbCircle
  6
CONTINUOUS
 62
1
 10
-7.0806867E-001
 20
1.1093646
 40
8.0001056E-001
100
AcDbArc
 50
8.0603552E+001
 51
1.8E+002
  0
ARC
  5
1dd
100
AcDbEntity
  8
4
100
AcDbCircle
  6
CONTINUOUS
 62
1
 10
-4.9139392E-001
 20
1.37207
 40
5.3332558E-001
100
AcDbArc
 50
9.9286249E+001
 51
1.8E+002
  0
LINE
  5
1de
100
AcDbEntity
  8
4
100
AcDbLine
  6
CONTINUOUS
 62
1
 10
3.8812246E-001
 20
-6.2403345E-001
 11
3.8812246E-001
 21
5.2930692E-001
  0
ARC
  5
1df
100
AcDbEntity
  8
4
100
AcDbCircle
  6
CONTINUOUS
 62
1
 10
7.8810609E-001
 20
-6.2403345E-001
 40
4.0001446E-001
100
AcDbArc
 50
1.8E+002
 51
2.9499577E+002
  0
LINE
  5
1e0
100
AcDbEntity
  8
4
100
AcDbLine
  6
CONTINUOUS
 62
1
 10
9.2148821E-001
 20
1.2026466
 11
9.2148821E-001
 21
-2.6807651E-001
  0
LINE
  5
1e1
100
AcDbEntity
  8
4
100
AcDbLine
  6
CONTINUOUS
 62
1
 10
1.667419
 20
1.5506283
 11
1.667419
 21
8.0088278E-002
  0
LINE
  5
1e2
100
AcDbEntity
  8
4
100
AcDbLine
  6
CONTINUOUS
 62
1
 10
1.9341426
 20
2.0392858E-001
 11
1.9341426
 21
1.5493262
  0
LINE
  5
1e3
100
AcDbEntity
  8
4
100
AcDbLine
  6
CONTINUOUS
 62
1
 10
6.5484603E-001
 20
1.0626727
 11
6.5484603E-001
 21
-3.9191681E-001
  0
ARC
  5
1e4
100
AcDbEntity
  8
4
100
AcDbCircle
  6
CONTINUOUS
 62
1
 10
1.8008011
 20
1.1720273
 40
3.9998362E-001
100
AcDbArc
 50
0.0
 51
1.1499049E+002
  0
LINE
  5
1e5
100
AcDbEntity
  8
4
100
AcDbLine
  6
CONTINUOUS
 62
1
 10
2.2007848
 20
3.2796216E-001
 11
2.2007848
 21
1.1720273
  0
LINE
  5
1e6
100
AcDbEntity
  8
4
100
AcDbLine
  6
CONTINUOUS
 62
1
 10
4.5591826
 20
3.240081
 11
4.5591826
 21
-7.1467064E-001
  0
ARC
  5
1e7
100
AcDbEntity
  8
4
100
AcDbCircle
  6
CONTINUOUS
 62
1
 10
3.7592154
 20
-7.1467064E-001
 40
8.0000373E-001
100
AcDbArc
 50
2.6059181E+002
 51
3.6E+002
  0
ARC
  5
1e8
100
AcDbEntity
  8
4
100
AcDbCircle
  6
CONTINUOUS
 62
1
 10
-2.0414017
 20
-2.8453871
 40
5.333251E-001
100
AcDbArc
 50
2.7E+002
 51
3.6E+002
  0
LINE
  5
1e9
100
AcDbEntity
  8
4
100
AcDbLine
  6
CONTINUOUS
 62
1
 10
-1.5081173
 20
1.1093646
 11
-1.5081173
 21
-2.8453871
  0
LINE
  5
1ea
100
AcDbEntity
  8
4
100
AcDbLine
  6
CONTINUOUS
 62
1
 10
-1.0246376
 20
1.37207
 11
-1.0246376
 21
-2.5826715
  0
LINE
  5
1eb
100
AcDbEntity
  8
4
100
AcDbLine
  6
CONTINUOUS
 62
1
 10
-4.9290556
 20
-8.0532817E-001
 11
-4.9290556
 21
-2.2599278
  0
ARC
  5
1ec
100
AcDbEntity
  8
4
100
AcDbCircle
  6
CONTINUOUS
 62
1
 10
-4.7957955
 20
-2.4933364
 40
4.0000854E-001
100
AcDbArc
 50
1.8E+002
 51
2.9508511E+002
  0
LINE
  5
1ed
100
AcDbEntity
  8
4
100
AcDbLine
  6
CONTINUOUS
 62
1
 10
-2.4499302
 20
1.1427304
 11
-2.4499302
 21
-3.6933686
  0
ARC
  5
1ee
100
AcDbEntity
  8
4
100
AcDbCircle
  6
CONTINUOUS
 62
1
 10
-3.2498975
 20
-3.4093518
 40
5.3334541E-001
100
AcDbArc
 50
2.7E+002
 51
3.6E+002
  0
TEXT
  5
1ef
100
AcDbEntity
  8
4
100
AcDbText
  6
CONTINUOUS
 62
150
 10
-8.6491894
 20
-8.810321
 40
1.5
  1
made in Germany
 41
7.75E-001
100
AcDbText
  0
POINT
  5
1f0
100
AcDbEntity
  8
Drafting_Hidden_Entities
100
AcDbPoint
  6
CONTINUOUS
 62
1
 10
0.0
 20
0.0
  0
ENDBLK
  5
1f1
100
AcDbEntity
100
AcDbBlockEnd
  0
BLOCK
  5
1f2
100
AcDbEntity
100
AcDbBlockBegin
  2
BOM
 10
0.0
 20
0.0
 70
0
  0
POINT
  5
1f3
100
AcDbEntity
  8
1
100
AcDbPoint
  6
CONTINUOUS
 62
5
 10
0.0
 20
0.0
  0
LINE
  5
1f4
100
AcDbEntity
  8
1
100
AcDbLine
  6
CONTINUOUS
 62
5
 10
-1.827E+002
 20
0.0
 11
0.0
 21
0.0
  0
LINE
  5
1f5
100
AcDbEntity
  8
1
100
AcDbLine
  6
CONTINUOUS
 62
5
 10
-1.827E+002
 20
5.0227273
 11
0.0
 21
5.0227273
  0
LINE
  5
1f6
100
AcDbEntity
  8
1
100
AcDbLine
  6
CONTINUOUS
 62
5
 10
-1.827E+002
 20
1.0045455E+001
 11
0.0
 21
1.0045455E+001
  0
LINE
  5
1f7
100
AcDbEntity
  8
1
100
AcDbLine
  6
CONTINUOUS
 62
5
 10
-1.827E+002
 20
0.0
 11
-1.827E+002
 21
1.0045455E+001
  0
LINE
  5
1f8
100
AcDbEntity
  8
1
100
AcDbLine
  6
CONTINUOUS
 62
5
 10
-1.7000899E+002
 20
0.0
 11
-1.7000899E+002
 21
1.0045455E+001
  0
LINE
  5
1f9
100
AcDbEntity
  8
1
100
AcDbLine
  6
CONTINUOUS
 62
5
 10
-1.5731798E+002
 20
0.0
 11
-1.5731798E+002
 21
1.0045455E+001
  0
LINE
  5
1fa
100
AcDbEntity
  8
1
100
AcDbLine
  6
CONTINUOUS
 62
5
 10
-1.4462697E+002
 20
0.0
 11
-1.4462697E+002
 21
1.0045455E+001
  0
LINE
  5
1fb
100
AcDbEntity
  8
1
100
AcDbLine
  6
CONTINUOUS
 62
5
 10
-9.717191E+001
 20
0.0
 11
-9.717191E+001
 21
1.0045455E+001
  0
LINE
  5
1fc
100
AcDbEntity
  8
1
100
AcDbLine
  6
CONTINUOUS
 62
5
 10
-5.4931461E+001
 20
0.0
 11
-5.4931461E+001
 21
1.0045455E+001
  0
LINE
  5
1fd
100
AcDbEntity
  8
1
100
AcDbLine
  6
CONTINUOUS
 62
5
 10
-3.0073034E+001
 20
0.0
 11
-3.0073034E+001
 21
1.0045455E+001
  0
LINE
  5
1fe
100
AcDbEntity
  8
1
100
AcDbLine
  6
CONTINUOUS
 62
5
 10
0.0
 20
0.0
 11
0.0
 21
1.0045455E+001
  0
TEXT
  5
1ff
100
AcDbEntity
  8
1
100
AcDbText
  6
CONTINUOUS
 62
30
 10
-1.807E+002
 20
1.2613636
 40
2.5
  1
Pos
 41
6.952809E-001
 51
1.5E+001
100
AcDbText
  0
TEXT
  5
200
100
AcDbEntity
  8
1
100
AcDbText
  6
CONTINUOUS
 62
30
 10
-1.6800899E+002
 20
1.2613636
 40
2.5
  1
Anz.
 41
6.952809E-001
 51
1.5E+001
100
AcDbText
  0
TEXT
  5
201
100
AcDbEntity
  8
1
100
AcDbText
  6
CONTINUOUS
 62
30
 10
-1.5531798E+002
 20
1.2613636
 40
2.5
  1
Einh.
 41
6.952809E-001
 51
1.5E+001
100
AcDbText
  0
TEXT
  5
202
100
AcDbEntity
  8
1
100
AcDbText
  6
CONTINUOUS
 62
30
 10
-1.4262697E+002
 20
1.2613636
 40
2.5
  1
Benennung
 41
6.952809E-001
 51
1.5E+001
100
AcDbText
  0
TEXT
  5
203
100
AcDbEntity
  8
1
100
AcDbText
  6
CONTINUOUS
 62
30
 10
-9.517191E+001
 20
1.2613636
 40
2.5
  1
ZeichnungsNr.
 41
6.952809E-001
 51
1.5E+001
100
AcDbText
  0
TEXT
  5
204
100
AcDbEntity
  8
1
100
AcDbText
  6
CONTINUOUS
 62
30
 10
-5.2931461E+001
 20
1.2613636
 40
2.5
  1
A-Nr.
 41
6.952809E-001
 51
1.5E+001
100
AcDbText
  0
TEXT
  5
205
100
AcDbEntity
  8
1
100
AcDbText
  6
CONTINUOUS
 62
30
 10
-2.8073034E+001
 20
1.2613636
 40
2.5
  1
TeileNr.
 41
6.952809E-001
 51
1.5E+001
100
AcDbText
  0
TEXT
  5
206
100
AcDbEntity
  8
1
100
AcDbText
  6
CONTINUOUS
 62
3
 10
-1.807E+002
 20
6.2840909
 40
2.5
  1
1
 41
6.952809E-001
100
AcDbText
  0
TEXT
  5
207
100
AcDbEntity
  8
1
100
AcDbText
  6
CONTINUOUS
 62
3
 10
-1.6800899E+002
 20
6.2840909
 40
2.5
  1
  1
 41
6.952809E-001
100
AcDbText
  0
TEXT
  5
208
100
AcDbEntity
  8
1
100
AcDbText
  6
CONTINUOUS
 62
3
 10
-1.5531798E+002
 20
6.2840909
 40
2.5
  1
ST
 41
6.952809E-001
100
AcDbText
  0
TEXT
  5
209
100
AcDbEntity
  8
1
100
AcDbText
  6
CONTINUOUS
 62
3
 10
-1.4262697E+002
 20
6.2840909
 40
2.5
  1
Schliessblech 24x3x1760
 41
6.952809E-001
100
AcDbText
  0
TEXT
  5
20a
100
AcDbEntity
  8
1
100
AcDbText
  6
CONTINUOUS
 62
3
 10
-9.517191E+001
 20
6.2840909
 40
2.5
  1
519.0F35-1204-3-DL
 41
6.952809E-001
100
AcDbText
  0
TEXT
  5
20b
100
AcDbEntity
  8
1
100
AcDbText
  6
CONTINUOUS
 62
3
 10
-5.2931461E+001
 20
6.2840909
 40
2.5
  1
 
 41
6.952809E-001
100
AcDbText
  0
TEXT
  5
20c
100
AcDbEntity
  8
1
100
AcDbText
  6
CONTINUOUS
 62
3
 10
-2.8073034E+001
 20
6.2840909
 40
2.5
  1
 
 41
6.952809E-001
100
AcDbText
  0
ENDBLK
  5
20d
100
AcDbEntity
100
AcDbBlockEnd
  0
BLOCK
  5
20e
100
AcDbEntity
100
AcDbBlockBegin
  2
GALNI_CU_8-12
 10
0.0
 20
0.0
 70
0
  0
LINE
  5
20f
100
AcDbEntity
  8
4
100
AcDbLine
  6
CONTINUOUS
 62
6
 10
0.0
 20
0.0
 11
-3.031
 21
5.25
  0
LINE
  5
210
100
AcDbEntity
  8
4
100
AcDbLine
  6
CONTINUOUS
 62
6
 10
0.0
 20
0.0
 11
6.062
 21
1.05E+001
  0
CIRCLE
  5
211
100
AcDbEntity
  8
4
100
AcDbCircle
  6
CONTINUOUS
 62
6
 10
0.0
 20
3.5
 40
1.75
  0
TEXT
  5
212
100
AcDbEntity
  8
4
100
AcDbText
  6
CONTINUOUS
 62
1
 10
7.866312
 20
1.2060702E+001
 40
3.0
  1
DIN 50968-Cu/Ni 8-12 b
 41
7.0E-001
100
AcDbText
  0
LINE
  5
213
100
AcDbEntity
  8
4
100
AcDbLine
  6
CONTINUOUS
 62
6
 10
5.4829284E+001
 20
1.05E+001
 11
6.062
 21
1.05E+001
  0
POINT
  5
214
100
AcDbEntity
  8
Drafting_Hidden_Entities
100
AcDbPoint
  6
CONTINUOUS
 62
1
 10
0.0
 20
0.0
  0
ENDBLK
  5
215
100
AcDbEntity
100
AcDbBlockEnd
  0
BLOCK
  5
216
100
AcDbEntity
100
AcDbBlockBegin
  2
GALNI15-18B
 10
0.0
 20
0.0
 70
0
  0
LINE
  5
217
100
AcDbEntity
  8
4
100
AcDbLine
  6
CONTINUOUS
 62
6
 10
5.5999999
 20
9.8000002
 11
0.0
 21
0.0
  0
LINE
  5
218
100
AcDbEntity
  8
4
100
AcDbLine
  6
CONTINUOUS
 62
6
 10
0.0
 20
0.0
 11
-2.8000002
 21
4.9000006
  0
LINE
  5
219
100
AcDbEntity
  8
4
100
AcDbLine
  6
CONTINUOUS
 62
6
 10
-1.4000001
 20
3.8500004
 11
-1.4000001
 21
2.8000002
  0
LINE
  5
21a
100
AcDbEntity
  8
4
100
AcDbLine
  6
CONTINUOUS
 62
6
 10
-1.4000001
 20
2.8000002
 11
-1.0500002
 21
2.0999999
  0
LINE
  5
21b
100
AcDbEntity
  8
4
100
AcDbLine
  6
CONTINUOUS
 62
6
 10
-1.0500002
 20
2.0999999
 11
-3.5000038E-001
 21
1.75
  0
LINE
  5
21c
100
AcDbEntity
  8
4
100
AcDbLine
  6
CONTINUOUS
 62
6
 10
-3.5000038E-001
 20
1.75
 11
3.499999E-001
 21
1.75
  0
LINE
  5
21d
100
AcDbEntity
  8
4
100
AcDbLine
  6
CONTINUOUS
 62
6
 10
3.499999E-001
 20
1.75
 11
1.0500002
 21
2.0999999
  0
LINE
  5
21e
100
AcDbEntity
  8
4
100
AcDbLine
  6
CONTINUOUS
 62
6
 10
1.0500002
 20
2.0999999
 11
1.3999996
 21
2.8000002
  0
LINE
  5
21f
100
AcDbEntity
  8
4
100
AcDbLine
  6
CONTINUOUS
 62
6
 10
1.3999996
 20
2.8000002
 11
1.3999996
 21
3.8500004
  0
LINE
  5
220
100
AcDbEntity
  8
4
100
AcDbLine
  6
CONTINUOUS
 62
6
 10
1.3999996
 20
3.8500004
 11
1.0500002
 21
4.5500002
  0
LINE
  5
221
100
AcDbEntity
  8
4
100
AcDbLine
  6
CONTINUOUS
 62
6
 10
1.0500002
 20
4.5500002
 11
3.499999E-001
 21
4.9000006
  0
LINE
  5
222
100
AcDbEntity
  8
4
100
AcDbLine
  6
CONTINUOUS
 62
6
 10
3.499999E-001
 20
4.9000006
 11
-3.5000038E-001
 21
4.9000006
  0
LINE
  5
223
100
AcDbEntity
  8
4
100
AcDbLine
  6
CONTINUOUS
 62
6
 10
-3.5000038E-001
 20
4.9000006
 11
-1.0500002
 21
4.5500002
  0
LINE
  5
224
100
AcDbEntity
  8
4
100
AcDbLine
  6
CONTINUOUS
 62
6
 10
-1.0500002
 20
4.5500002
 11
-1.4000001
 21
3.8500004
  0
LINE
  5
225
100
AcDbEntity
  8
4
100
AcDbLine
  6
CONTINUOUS
 62
6
 10
5.5999999
 20
9.8000002
 11
5.6488394E+001
 21
9.8000002
  0
TEXT
  5
226
100
AcDbEntity
  8
4
100
AcDbText
  6
CONTINUOUS
 62
1
 10
6.26239
 20
1.1552438E+001
 40
3.0
  1
DIN 12540-Fe/Ni 15-18 b
 41
7.0E-001
100
AcDbText
  0
POINT
  5
227
100
AcDbEntity
  8
Drafting_Hidden_Entities
100
AcDbPoint
  6
CONTINUOUS
 62
1
 10
0.0
 20
0.0
  0
ENDBLK
  5
228
100
AcDbEntity
100
AcDbBlockEnd
  0
BLOCK
  5
229
100
AcDbEntity
100
AcDbBlockBegin
  2
*FC118
  3
*FC
 10
0.0
 20
0.0
 70
65
  0
LINE
  5
22a
100
AcDbEntity
  8
5
100
AcDbLine
  6
CONTINUOUS
 62
1
 10
0.0
 20
0.0
 11
-2.598
 21
4.5
  0
LINE
  5
22b
100
AcDbEntity
  8
5
100
AcDbLine
  6
CONTINUOUS
 62
1
 10
0.0
 20
0.0
 11
5.196
 21
9.0
  0
TEXT
  5
22c
100
AcDbEntity
  8
5
100
AcDbText
  6
CONTINUOUS
 62
1
 10
3.75
 20
5.25
 40
3.0
  1
=
 41
7.5E-001
 72
2
 11
1.5
 21
5.25
100
AcDbText
  0
LINE
  5
22d
100
AcDbEntity
  8
5
100
AcDbLine
  6
CONTINUOUS
 62
1
 10
2.598
 20
4.5
 11
-2.598
 21
4.5
  0
TEXT
  5
22e
100
AcDbEntity
  8
5
100
AcDbText
  6
CONTINUOUS
 62
1
 10
7.5
 20
5.25
 40
3.0
  1
Rz10
 41
7.5E-001
100
AcDbText
  0
TEXT
  5
22f
100
AcDbEntity
  8
5
100
AcDbText
  6
CONTINUOUS
 62
1
 10
7.5
 20
9.75
 40
3.0
  1
geschliffen
 41
7.5E-001
100
AcDbText
  0
LINE
  5
230
100
AcDbEntity
  8
5
100
AcDbLine
  6
CONTINUOUS
 62
1
 10
3.2946E+001
 20
9.0
 11
5.196
 21
9.0
  0
ENDBLK
  5
231
100
AcDbEntity
100
AcDbBlockEnd
  0
BLOCK
  5
232
100
AcDbEntity
100
AcDbBlockBegin
  2
TOL-F
 10
0.0
 20
0.0
 70
0
  0
LINE
  5
233
100
AcDbEntity
  8
5
100
AcDbLine
  6
CONTINUOUS
 62
150
 10
5.334E+001
 20
-1.269E+001
 11
0.0
 21
-1.269E+001
  0
LINE
  5
234
100
AcDbEntity
  8
5
100
AcDbLine
  6
CONTINUOUS
 62
150
 10
5.334E+001
 20
-8.46
 11
0.0
 21
-8.46
  0
LINE
  5
235
100
AcDbEntity
  8
5
100
AcDbLine
  6
CONTINUOUS
 62
150
 10
2.334E+001
 20
0.0
 11
2.334E+001
 21
-1.269E+001
  0
LINE
  5
236
100
AcDbEntity
  8
5
100
AcDbLine
  6
CONTINUOUS
 62
150
 10
3.084E+001
 20
0.0
 11
3.084E+001
 21
-1.269E+001
  0
LINE
  5
237
100
AcDbEntity
  8
5
100
AcDbLine
  6
CONTINUOUS
 62
150
 10
3.834E+001
 20
0.0
 11
3.834E+001
 21
-1.269E+001
  0
LINE
  5
238
100
AcDbEntity
  8
5
100
AcDbLine
  6
CONTINUOUS
 62
150
 10
4.584E+001
 20
0.0
 11
4.584E+001
 21
-1.269E+001
  0
LINE
  5
239
100
AcDbEntity
  8
5
100
AcDbLine
  6
CONTINUOUS
 62
150
 10
1.167E+001
 20
0.0
 11
1.167E+001
 21
-1.269E+001
  0
TEXT
  5
23a
100
AcDbEntity
  8
5
100
AcDbText
  6
CONTINUOUS
 62
1
 10
5.19E+001
 20
-3.96
 40
2.2
  1
400
 41
7.0E-001
 72
1
 11
4.959E+001
 21
-3.96
100
AcDbText
  0
TEXT
  5
23b
100
AcDbEntity
  8
5
100
AcDbText
  6
CONTINUOUS
 62
1
 10
5.267E+001
 20
-7.46
 40
2.2
  1
1000
 41
7.0E-001
 72
1
 11
4.959E+001
 21
-7.46
100
AcDbText
  0
TEXT
  5
23c
100
AcDbEntity
  8
5
100
AcDbText
  6
CONTINUOUS
 62
1
 10
4.44E+001
 20
-3.96
 40
2.2
  1
120
 41
7.0E-001
 72
1
 11
4.209E+001
 21
-3.96
100
AcDbText
  0
TEXT
  5
23d
100
AcDbEntity
  8
5
100
AcDbText
  6
CONTINUOUS
 62
1
 10
4.44E+001
 20
-7.46
 40
2.2
  1
400
 41
7.0E-001
 72
1
 11
4.209E+001
 21
-7.46
100
AcDbText
  0
TEXT
  5
23e
100
AcDbEntity
  8
5
100
AcDbText
  6
CONTINUOUS
 62
1
 10
3.613E+001
 20
-3.96
 40
2.2
  1
30
 41
7.0E-001
 72
1
 11
3.459E+001
 21
-3.96
100
AcDbText
  0
TEXT
  5
23f
100
AcDbEntity
  8
5
100
AcDbText
  6
CONTINUOUS
 62
1
 10
3.69E+001
 20
-7.46
 40
2.2
  1
120
 41
7.0E-001
 72
1
 11
3.459E+001
 21
-7.46
100
AcDbText
  0
TEXT
  5
240
100
AcDbEntity
  8
5
100
AcDbText
  6
CONTINUOUS
 62
1
 10
2.786E+001
 20
-3.96
 40
2.2
  1
6
 41
7.0E-001
 72
1
 11
2.709E+001
 21
-3.96
100
AcDbText
  0
TEXT
  5
241
100
AcDbEntity
  8
5
100
AcDbText
  6
CONTINUOUS
 62
1
 10
2.863E+001
 20
-7.46
 40
2.2
  1
30
 41
7.0E-001
 72
1
 11
2.709E+001
 21
-7.46
100
AcDbText
  0
TEXT
  5
242
100
AcDbEntity
  8
5
100
AcDbText
  6
CONTINUOUS
 62
1
 10
2.2125E+001
 20
-3.96
 40
2.2
  1
über 3
 41
7.0E-001
 72
1
 11
1.7505E+001
 21
-3.96
100
AcDbText
  0
TEXT
  5
243
100
AcDbEntity
  8
5
100
AcDbText
  6
CONTINUOUS
 62
1
 10
2.1355E+001
 20
-7.46
 40
2.2
  1
bis 6
 41
7.0E-001
 72
1
 11
1.7505E+001
 21
-7.46
100
AcDbText
  0
TEXT
  5
244
100
AcDbEntity
  8
5
100
AcDbText
  6
CONTINUOUS
 62
1
 10
1.084E+001
 20
-3.96
 40
2.2
  1
von 0.5
 41
6.5E-001
 72
1
 11
5.835
 21
-3.96
100
AcDbText
  0
TEXT
  5
245
100
AcDbEntity
  8
5
100
AcDbText
  6
CONTINUOUS
 62
1
 10
9.685
 20
-7.46
 40
2.2
  1
bis 3
 41
7.0E-001
 72
1
 11
5.835
 21
-7.46
100
AcDbText
  0
TEXT
  5
246
100
AcDbEntity
  8
5
100
AcDbText
  6
CONTINUOUS
 62
1
 10
9.685
 20
-1.169E+001
 40
2.2
  1
%%p0,05
 41
7.0E-001
 72
1
 11
5.835
 21
-1.169E+001
100
AcDbText
  0
TEXT
  5
247
100
AcDbEntity
  8
5
100
AcDbText
  6
CONTINUOUS
 62
1
 10
1.0
 20
-1.592E+001
 40
2.0
  1
unter 0.5mm sind Grenzmaße direkt anzugeben
 41
6.0E-001
100
AcDbText
  0
TEXT
  5
248
100
AcDbEntity
  8
5
100
AcDbText
  6
CONTINUOUS
 62
1
 10
2.1355E+001
 20
-1.169E+001
 40
2.2
  1
%%p0,05
 41
7.0E-001
 72
1
 11
1.7505E+001
 21
-1.169E+001
100
AcDbText
  0
TEXT
  5
249
100
AcDbEntity
  8
5
100
AcDbText
  6
CONTINUOUS
 62
1
 10
3.017E+001
 20
-1.169E+001
 40
2.2
  1
%%p0,1
 41
7.0E-001
 72
1
 11
2.709E+001
 21
-1.169E+001
100
AcDbText
  0
TEXT
  5
24a
100
AcDbEntity
  8
5
100
AcDbText
  6
CONTINUOUS
 62
1
 10
3.844E+001
 20
-1.169E+001
 40
2.2
  1
%%p0,15
 41
7.0E-001
 72
1
 11
3.459E+001
 21
-1.169E+001
100
AcDbText
  0
TEXT
  5
24b
100
AcDbEntity
  8
5
100
AcDbText
  6
CONTINUOUS
 62
1
 10
4.517E+001
 20
-1.169E+001
 40
2.2
  1
%%p0,2
 41
7.0E-001
 72
1
 11
4.209E+001
 21
-1.169E+001
100
AcDbText
  0
TEXT
  5
24c
100
AcDbEntity
  8
5
100
AcDbText
  6
CONTINUOUS
 62
1
 10
5.267E+001
 20
-1.169E+001
 40
2.2
  1
%%p0,3
 41
7.0E-001
 72
1
 11
4.959E+001
 21
-1.169E+001
100
AcDbText
  0
POINT
  5
24d
100
AcDbEntity
  8
Drafting_Hidden_Entities
100
AcDbPoint
  6
CONTINUOUS
 62
1
 10
0.0
 20
0.0
  0
INSERT
  5
24e
100
AcDbEntity
100
AcDbBlockReference
  2
*TX325
  8
5
 10
6.604E+001
 20
-5.0
  0
ENDBLK
  5
24f
100
AcDbEntity
100
AcDbBlockEnd
  0
BLOCK
  5
250
100
AcDbEntity
100
AcDbBlockBegin
  2
M12
 10
0.0
 20
0.0
 70
0
  0
TEXT
  5
251
100
AcDbEntity
  8
4
100
AcDbText
  6
CONTINUOUS
 62
1
 10
-3.6512887
 20
1.522119
 40
3.5
  1
1:2
 41
7.0E-001
100
AcDbText
  0
POINT
  5
252
100
AcDbEntity
  8
Drafting_Hidden_Entities
100
AcDbPoint
  6
CONTINUOUS
 62
1
 10
0.0
 20
0.0
  0
ENDBLK
  5
253
100
AcDbEntity
100
AcDbBlockEnd
  0
BLOCK
  5
254
100
AcDbEntity
100
AcDbBlockBegin
  2
KLAMMER
 10
0.0
 20
0.0
 70
0
  0
TEXT
  5
255
100
AcDbEntity
  8
4
100
AcDbText
  6
CONTINUOUS
 62
1
 10
-7.28457
 20
1.566099
 40
3.5
  1
(    )
 41
7.0E-001
100
AcDbText
  0
POINT
  5
256
100
AcDbEntity
  8
Drafting_Hidden_Entities
100
AcDbPoint
  6
CONTINUOUS
 62
1
 10
0.0
 20
0.0
  0
ENDBLK
  5
257
100
AcDbEntity
100
AcDbBlockEnd
  0
BLOCK
  5
258
100
AcDbEntity
100
AcDbBlockBegin
  2
M11
 10
0.0
 20
0.0
 70
0
  0
TEXT
  5
259
100
AcDbEntity
  8
1
100
AcDbText
  6
CONTINUOUS
 62
1
 10
-3.7549647
 20
1.445907
 40
3.5
  1
1:1
 41
7.0E-001
100
AcDbText
  0
POINT
  5
25a
100
AcDbEntity
  8
Drafting_Hidden_Entities
100
AcDbPoint
  6
CONTINUOUS
 62
1
 10
0.0
 20
0.0
  0
ENDBLK
  5
25b
100
AcDbEntity
100
AcDbBlockEnd
  0
BLOCK
  5
25c
100
AcDbEntity
100
AcDbBlockBegin
  2
WERKST_CKKANTEN2
 10
0.0
 20
0.0
 70
0
  0
POLYLINE
  5
25d
100
AcDbEntity
  8
255
100
AcDb2dPolyline
  6
CONTINUOUS
 62
2
 66
1
 40
5.0E-001
 41
5.0E-001
 70
0
  0
VERTEX
  5
25e
100
AcDbEntity
  8
255
100
AcDbVertex
100
AcDb2dVertex
 42
0.0
 10
5.0
 20
0.0
 70
0
  0
VERTEX
  5
25f
100
AcDbEntity
  8
255
100
AcDbVertex
100
AcDb2dVertex
 42
0.0
 10
5.0
 20
5.0
 70
0
  0
SEQEND
  5
260
100
AcDbEntity
  0
POLYLINE
  5
261
100
AcDbEntity
  8
255
100
AcDb2dPolyline
  6
CONTINUOUS
 62
2
 66
1
 40
5.0E-001
 41
5.0E-001
 70
0
  0
VERTEX
  5
262
100
AcDbEntity
  8
255
100
AcDbVertex
100
AcDb2dVertex
 42
0.0
 10
5.0
 20
5.0
 70
0
  0
VERTEX
  5
263
100
AcDbEntity
  8
255
100
AcDbVertex
100
AcDb2dVertex
 42
0.0
 10
0.0
 20
5.0
 70
0
  0
SEQEND
  5
264
100
AcDbEntity
  0
POLYLINE
  5
265
100
AcDbEntity
  8
255
100
AcDb2dPolyline
  6
CONTINUOUS
 62
2
 66
1
 40
5.0E-001
 41
5.0E-001
 70
0
  0
VERTEX
  5
266
100
AcDbEntity
  8
255
100
AcDbVertex
100
AcDb2dVertex
 42
0.0
 10
2.54E+001
 20
3.8
 70
0
  0
VERTEX
  5
267
100
AcDbEntity
  8
255
100
AcDbVertex
100
AcDb2dVertex
 42
0.0
 10
3.14E+001
 20
3.8
 70
0
  0
SEQEND
  5
268
100
AcDbEntity
  0
POLYLINE
  5
269
100
AcDbEntity
  8
255
100
AcDb2dPolyline
  6
CONTINUOUS
 62
2
 66
1
 40
5.0E-001
 41
5.0E-001
 70
0
  0
VERTEX
  5
26a
100
AcDbEntity
  8
255
100
AcDbVertex
100
AcDb2dVertex
 42
0.0
 10
2.54E+001
 20
9.8
 70
0
  0
VERTEX
  5
26b
100
AcDbEntity
  8
255
100
AcDbVertex
100
AcDb2dVertex
 42
0.0
 10
2.54E+001
 20
3.8
 70
0
  0
SEQEND
  5
26c
100
AcDbEntity
  0
LINE
  5
26d
100
AcDbEntity
  8
255
100
AcDbLine
  6
CONTINUOUS
 62
150
 10
8.6699
 20
8.54
 11
1.21699E+001
 21
8.54
  0
LINE
  5
26e
100
AcDbEntity
  8
255
100
AcDbLine
  6
CONTINUOUS
 62
150
 10
8.6699
 20
1.204E+001
 11
8.6699
 21
8.54
  0
LINE
  5
26f
100
AcDbEntity
  8
255
100
AcDbLine
  6
CONTINUOUS
 62
150
 10
3.0237233E+001
 20
8.54
 11
3.3737233E+001
 21
8.54
  0
LINE
  5
270
100
AcDbEntity
  8
255
100
AcDbLine
  6
CONTINUOUS
 62
150
 10
3.0237233E+001
 20
1.204E+001
 11
3.0237233E+001
 21
8.54
  0
LINE
  5
271
100
AcDbEntity
  8
255
100
AcDbLine
  6
CONTINUOUS
 62
150
 10
5.0
 20
5.0
 11
8.6699
 21
8.54
  0
LINE
  5
272
100
AcDbEntity
  8
255
100
AcDbLine
  6
CONTINUOUS
 62
150
 10
2.54E+001
 20
3.8
 11
3.0237233E+001
 21
8.54
  0
LINE
  5
273
100
AcDbEntity
  8
255
100
AcDbLine
  6
CONTINUOUS
 62
150
 10
5.0
 20
5.0
 11
5.8994
 21
6.1721
  0
LINE
  5
274
100
AcDbEntity
  8
255
100
AcDbLine
  6
CONTINUOUS
 62
150
 10
5.0
 20
5.0
 11
6.1322
 21
5.8688
  0
LINE
  5
275
100
AcDbEntity
  8
255
100
AcDbLine
  6
CONTINUOUS
 62
150
 10
2.54E+001
 20
3.8
 11
2.63131E+001
 21
4.99
  0
LINE
  5
276
100
AcDbEntity
  8
255
100
AcDbLine
  6
CONTINUOUS
 62
150
 10
2.54E+001
 20
3.8
 11
2.659E+001
 21
4.7131
  0
LINE
  5
277
100
AcDbEntity
  8
255
100
AcDbLine
  6
CONTINUOUS
 62
150
 10
5.8994
 20
6.1721
 11
6.1322
 21
5.8688
  0
LINE
  5
278
100
AcDbEntity
  8
255
100
AcDbLine
  6
CONTINUOUS
 62
150
 10
2.63131E+001
 20
4.99
 11
2.659E+001
 21
4.7131
  0
LINE
  5
279
100
AcDbEntity
  8
255
100
AcDbLine
  6
CONTINUOUS
 62
150
 10
0.0
 20
0.0
 11
5.0
 21
5.0
  0
LINE
  5
27a
100
AcDbEntity
  8
255
100
AcDbLine
  6
CONTINUOUS
 62
150
 10
1.0
 20
0.0
 11
5.0
 21
4.0
  0
LINE
  5
27b
100
AcDbEntity
  8
255
100
AcDbLine
  6
CONTINUOUS
 62
150
 10
2.0
 20
0.0
 11
5.0
 21
3.0
  0
LINE
  5
27c
100
AcDbEntity
  8
255
100
AcDbLine
  6
CONTINUOUS
 62
150
 10
3.0
 20
0.0
 11
5.0
 21
2.0
  0
LINE
  5
27d
100
AcDbEntity
  8
255
100
AcDbLine
  6
CONTINUOUS
 62
150
 10
0.0
 20
4.0
 11
1.0
 21
5.0
  0
LINE
  5
27e
100
AcDbEntity
  8
255
100
AcDbLine
  6
CONTINUOUS
 62
150
 10
0.0
 20
3.0
 11
2.0
 21
5.0
  0
LINE
  5
27f
100
AcDbEntity
  8
255
100
AcDbLine
  6
CONTINUOUS
 62
150
 10
0.0
 20
2.0
 11
3.0
 21
5.0
  0
LINE
  5
280
100
AcDbEntity
  8
255
100
AcDbLine
  6
CONTINUOUS
 62
150
 10
0.0
 20
1.0
 11
4.0
 21
5.0
  0
LINE
  5
281
100
AcDbEntity
  8
255
100
AcDbLine
  6
CONTINUOUS
 62
150
 10
5.0
 20
1.0
 11
4.0
 21
0.0
  0
LINE
  5
282
100
AcDbEntity
  8
255
100
AcDbLine
  6
CONTINUOUS
 62
150
 10
2.14E+001
 20
-2.0E-001
 11
2.54E+001
 21
3.8
  0
LINE
  5
283
100
AcDbEntity
  8
255
100
AcDbLine
  6
CONTINUOUS
 62
150
 10
2.24E+001
 20
-2.0E-001
 11
2.64E+001
 21
3.8
  0
LINE
  5
284
100
AcDbEntity
  8
255
100
AcDbLine
  6
CONTINUOUS
 62
150
 10
2.34E+001
 20
-2.0E-001
 11
2.74E+001
 21
3.8
  0
LINE
  5
285
100
AcDbEntity
  8
255
100
AcDbLine
  6
CONTINUOUS
 62
150
 10
2.44E+001
 20
-2.0E-001
 11
2.84E+001
 21
3.8
  0
LINE
  5
286
100
AcDbEntity
  8
255
100
AcDbLine
  6
CONTINUOUS
 62
150
 10
2.54E+001
 20
-2.0E-001
 11
2.94E+001
 21
3.8
  0
LINE
  5
287
100
AcDbEntity
  8
255
100
AcDbLine
  6
CONTINUOUS
 62
150
 10
2.64E+001
 20
-2.0E-001
 11
3.04E+001
 21
3.8
  0
LINE
  5
288
100
AcDbEntity
  8
255
100
AcDbLine
  6
CONTINUOUS
 62
150
 10
2.74E+001
 20
-2.0E-001
 11
3.14E+001
 21
3.8
  0
LINE
  5
289
100
AcDbEntity
  8
255
100
AcDbLine
  6
CONTINUOUS
 62
150
 10
2.84E+001
 20
-2.0E-001
 11
3.14E+001
 21
2.8
  0
LINE
  5
28a
100
AcDbEntity
  8
255
100
AcDbLine
  6
CONTINUOUS
 62
150
 10
2.94E+001
 20
-2.0E-001
 11
3.14E+001
 21
1.8
  0
LINE
  5
28b
100
AcDbEntity
  8
255
100
AcDbLine
  6
CONTINUOUS
 62
150
 10
3.04E+001
 20
-2.0E-001
 11
3.14E+001
 21
8.0E-001
  0
LINE
  5
28c
100
AcDbEntity
  8
255
100
AcDbLine
  6
CONTINUOUS
 62
150
 10
2.14E+001
 20
8.8
 11
2.24E+001
 21
9.8
  0
LINE
  5
28d
100
AcDbEntity
  8
255
100
AcDbLine
  6
CONTINUOUS
 62
150
 10
2.14E+001
 20
7.8
 11
2.34E+001
 21
9.8
  0
LINE
  5
28e
100
AcDbEntity
  8
255
100
AcDbLine
  6
CONTINUOUS
 62
150
 10
2.14E+001
 20
6.8
 11
2.44E+001
 21
9.8
  0
LINE
  5
28f
100
AcDbEntity
  8
255
100
AcDbLine
  6
CONTINUOUS
 62
150
 10
2.14E+001
 20
5.8
 11
2.54E+001
 21
9.8
  0
LINE
  5
290
100
AcDbEntity
  8
255
100
AcDbLine
  6
CONTINUOUS
 62
150
 10
2.14E+001
 20
3.8
 11
2.54E+001
 21
7.8
  0
LINE
  5
291
100
AcDbEntity
  8
255
100
AcDbLine
  6
CONTINUOUS
 62
150
 10
2.14E+001
 20
2.8
 11
2.54E+001
 21
6.8
  0
LINE
  5
292
100
AcDbEntity
  8
255
100
AcDbLine
  6
CONTINUOUS
 62
150
 10
2.14E+001
 20
1.8
 11
2.54E+001
 21
5.8
  0
LINE
  5
293
100
AcDbEntity
  8
255
100
AcDbLine
  6
CONTINUOUS
 62
150
 10
2.14E+001
 20
4.8
 11
2.54E+001
 21
8.8
  0
LINE
  5
294
100
AcDbEntity
  8
255
100
AcDbLine
  6
CONTINUOUS
 62
150
 10
2.14E+001
 20
8.0E-001
 11
2.54E+001
 21
4.8
  0
TEXT
  5
295
100
AcDbEntity
  8
255
100
AcDbText
  6
CONTINUOUS
 62
1
 10
4.09403E+001
 20
-4.67E-001
 40
3.0
  1
Werkstückkanten DIN  6784
 41
5.6285333E-001
 51
-2.104591E-004
100
AcDbText
  0
ATTDEF
  5
296
100
AcDbEntity
  8
100
100
AcDbText
  6
CONTINUOUS
 62
6
 10
9.432699
 20
1.2508972E+001
 40
2.5
  1
-0.05
 41
7.5E-001
100
AcDbAttributeDefinition
  3
außen +Tol
  2
außen+Tol
 70
0
  0
ATTDEF
  5
297
100
AcDbEntity
  8
100
100
AcDbText
  6
CONTINUOUS
 62
6
 10
9.432699
 20
9.008972
 40
2.5
  1
-0.02
 41
7.5E-001
100
AcDbAttributeDefinition
  3
außen -Tol
  2
außen-Tol
 70
0
  0
ATTDEF
  5
298
100
AcDbEntity
  8
100
100
AcDbText
  6
CONTINUOUS
 62
6
 10
3.1305029E+001
 20
1.2401529E+001
 40
2.5
  1
+0.05
 41
7.5E-001
100
AcDbAttributeDefinition
  3
innen +Tol
  2
innen+Tol
 70
0
  0
ATTDEF
  5
299
100
AcDbEntity
  8
100
100
AcDbText
  6
CONTINUOUS
 62
6
 10
3.1305029E+001
 20
8.901529
 40
2.5
  1
+0.02
 41
7.5E-001
100
AcDbAttributeDefinition
  3
innen -Tol
  2
innen-Tol
 70
0
  0
POINT
  5
29a
100
AcDbEntity
  8
Drafting_Hidden_Entities
100
AcDbPoint
  6
CONTINUOUS
 62
1
 10
0.0
 20
0.0
  0
ENDBLK
  5
29b
100
AcDbEntity
100
AcDbBlockEnd
  0
BLOCK
  5
29c
100
AcDbEntity
100
AcDbBlockBegin
  2
*TX325
  3
*TX
 10
0.0
 20
0.0
 70
65
  0
TEXT
  5
29d
100
AcDbEntity
  8
5
100
AcDbText
  6
CONTINUOUS
 62
1
 10
1.254E+001
 20
0.0
 40
2.2
  1
Allgemeintoleranzen
 41
6.0E-001
 72
1
 11
0.0
 21
0.0
100
AcDbText
  0
TEXT
  5
29e
100
AcDbEntity
  8
5
100
AcDbText
  6
CONTINUOUS
 62
1
 10
9.24
 20
-3.3
 40
2.2
  1
DIN ISO 2768-K
 41
6.0E-001
 72
1
 11
0.0
 21
-3.3
100
AcDbText
  0
TEXT
  5
29f
100
AcDbEntity
  8
5
100
AcDbText
  6
CONTINUOUS
 62
1
 10
2.64
 20
-6.6
 40
2.2
  1
fein
 41
6.0E-001
 72
1
 11
0.0
 21
-6.6
100
AcDbText
  0
ENDBLK
  5
2a0
100
AcDbEntity
100
AcDbBlockEnd
  0
BLOCK
  5
2a1
100
AcDbEntity
100
AcDbBlockBegin
  2
_AH1
 70
0
 10
0.0
 20
0.0
  3
_AH1
  0
LINE
  5
2a2
100
AcDbEntity
  8
0
100
AcDbLine
  6
CONTINUOUS
 62
0
 10
-1.0
 20
1.66667E-001
 11
0.0
 21
0.0
  0
LINE
  5
2a3
100
AcDbEntity
  8
0
100
AcDbLine
  6
CONTINUOUS
 62
0
 10
0.0
 20
0.0
 11
-1.0
 21
-1.66667E-001
  0
LINE
  5
2a4
100
AcDbEntity
  8
0
100
AcDbLine
  6
CONTINUOUS
 62
0
 10
-1.0
 20
1.66667E-001
 11
-1.0
 21
-1.66667E-001
  0
LINE
  5
2a5
100
AcDbEntity
  8
0
100
AcDbLine
  6
CONTINUOUS
 62
0
 10
0.0
 20
0.0
 11
-1.0
 21
0.0
  0
ENDBLK
  5
2a6
100
AcDbEntity
100
AcDbBlockEnd
  0
BLOCK
  5
2a7
100
AcDbEntity
100
AcDbBlockBegin
  2
_AH2
 70
0
 10
0.0
 20
0.0
  3
_AH2
  0
LINE
  5
2a8
100
AcDbEntity
  8
0
100
AcDbLine
  6
CONTINUOUS
 62
0
 10
-1.0
 20
1.66667E-001
 11
0.0
 21
0.0
  0
LINE
  5
2a9
100
AcDbEntity
  8
0
100
AcDbLine
  6
CONTINUOUS
 62
0
 10
0.0
 20
0.0
 11
-1.0
 21
-1.66667E-001
  0
LINE
  5
2aa
100
AcDbEntity
  8
0
100
AcDbLine
  6
CONTINUOUS
 62
0
 10
0.0
 20
0.0
 11
-1.0
 21
0.0
  0
ENDBLK
  5
2ab
100
AcDbEntity
100
AcDbBlockEnd
  0
BLOCK
  5
2ac
100
AcDbEntity
100
AcDbBlockBegin
  2
*D97
  3
*D
 10
0.0
 20
0.0
 70
65
  0
LINE
  5
2ad
100
AcDbEntity
  8
4
100
AcDbLine
  6
CONTINUOUS
 62
3
 10
4.8834437E+002
 20
3.9536025E+002
 11
4.8834437E+002
 21
4.0648805E+002
  0
LINE
  5
2ae
100
AcDbEntity
  8
4
100
AcDbLine
  6
CONTINUOUS
 62
3
 10
6.7284437E+002
 20
3.7641605E+002
 11
6.7284437E+002
 21
4.0648805E+002
  0
LINE
  5
2af
100
AcDbEntity
  8
4
100
AcDbLine
  6
CONTINUOUS
 62
3
 10
4.8834437E+002
 20
4.0348805E+002
 11
5.8059437E+002
 21
4.0348805E+002
  0
LINE
  5
2b0
100
AcDbEntity
  8
4
100
AcDbLine
  6
CONTINUOUS
 62
3
 10
6.7284437E+002
 20
4.0348805E+002
 11
5.8059437E+002
 21
4.0348805E+002
  0
INSERT
  5
2b1
100
AcDbEntity
100
AcDbBlockReference
  2
_AH1
  8
4
 62
3
 10
4.8834437E+002
 20
4.0348805E+002
 41
3.0
 42
3.0
 43
3.0
 50
1.8E+002
  0
INSERT
  5
2b2
100
AcDbEntity
100
AcDbBlockReference
  2
_AH1
  8
4
 62
3
 10
6.7284437E+002
 20
4.0348805E+002
 41
3.0
 42
3.0
 43
3.0
 50
0.0
  0
TEXT
  5
2b3
100
AcDbEntity
  8
4
100
AcDbText
  6
CONTINUOUS
 62
3
 10
5.7496937E+002
 20
4.0498905E+002
 40
3.0
  1
184,5
 41
7.5E-001
100
AcDbText
  0
ENDBLK
  5
2b4
100
AcDbEntity
100
AcDbBlockEnd
  0
BLOCK
  5
2b5
100
AcDbEntity
100
AcDbBlockBegin
  2
*D98
  3
*D
 10
0.0
 20
0.0
 70
65
  0
LINE
  5
2b6
100
AcDbEntity
  8
4
100
AcDbLine
  6
CONTINUOUS
 62
3
 10
4.8234437E+002
 20
3.6733304E+002
 11
4.8234437E+002
 21
3.408681E+002
  0
LINE
  5
2b7
100
AcDbEntity
  8
4
100
AcDbLine
  6
CONTINUOUS
 62
3
 10
4.9434438E+002
 20
3.6733304E+002
 11
4.9434438E+002
 21
3.408681E+002
  0
LINE
  5
2b8
100
AcDbEntity
  8
4
100
AcDbLine
  6
CONTINUOUS
 62
3
 10
4.7634437E+002
 20
3.438681E+002
 11
4.8234437E+002
 21
3.438681E+002
  0
LINE
  5
2b9
100
AcDbEntity
  8
4
100
AcDbLine
  6
CONTINUOUS
 62
3
 10
5.0034438E+002
 20
3.438681E+002
 11
4.8234437E+002
 21
3.438681E+002
  0
INSERT
  5
2ba
100
AcDbEntity
100
AcDbBlockReference
  2
_AH1
  8
4
 62
3
 10
4.8234437E+002
 20
3.438681E+002
 41
3.0
 42
3.0
 43
3.0
 50
0.0
  0
INSERT
  5
2bb
100
AcDbEntity
100
AcDbBlockReference
  2
_AH1
  8
4
 62
3
 10
4.9434438E+002
 20
3.438681E+002
 41
3.0
 42
3.0
 43
3.0
 50
1.8E+002
  0
INSERT
  5
2bc
100
AcDbEntity
100
AcDbBlockReference
  2
_AH1
  8
4
 62
3
 10
4.8234437E+002
 20
3.438681E+002
 41
3.0
 42
3.0
 43
3.0
 50
0.0
  0
INSERT
  5
2bd
100
AcDbEntity
100
AcDbBlockReference
  2
_AH1
  8
4
 62
3
 10
4.9434438E+002
 20
3.438681E+002
 41
3.0
 42
3.0
 43
3.0
 50
1.8E+002
  0
TEXT
  5
2be
100
AcDbEntity
  8
4
100
AcDbText
  6
CONTINUOUS
 62
3
 10
4.8721937E+002
 20
3.453691E+002
 40
3.0
  1
12
 41
7.5E-001
100
AcDbText
  0
ENDBLK
  5
2bf
100
AcDbEntity
100
AcDbBlockEnd
  0
BLOCK
  5
2c0
100
AcDbEntity
100
AcDbBlockBegin
  2
*D99
  3
*D
 10
0.0
 20
0.0
 70
65
  0
LINE
  5
2c1
100
AcDbEntity
  8
4
100
AcDbLine
  6
CONTINUOUS
 62
3
 10
4.8545197E+002
 20
3.7541654E+002
 11
4.77603E+002
 21
4.0824846E+002
  0
CIRCLE
  5
2c2
100
AcDbEntity
  8
4
100
AcDbCircle
  6
CONTINUOUS
 62
3
 10
4.8545197E+002
 20
3.7541654E+002
 40
8.33334E-002
  0
LINE
  5
2c3
100
AcDbEntity
  8
4
100
AcDbLine
  6
CONTINUOUS
 62
3
 10
4.21728E+002
 20
4.0824846E+002
 11
4.77603E+002
 21
4.0824846E+002
  0
TEXT
  5
2c4
100
AcDbEntity
  8
4
100
AcDbText
  6
CONTINUOUS
 62
3
 10
4.23228E+002
 20
4.0974846E+002
 40
3.5
  1
Praegetiefe 0,4+0,1
 41
7.5E-001
100
AcDbText
  0
ENDBLK
  5
2c5
100
AcDbEntity
100
AcDbBlockEnd
  0
BLOCK
  5
2c6
100
AcDbEntity
100
AcDbBlockBegin
  2
*D101
  3
*D
 10
0.0
 20
0.0
 70
65
  0
LINE
  5
2c7
100
AcDbEntity
  8
4
100
AcDbLine
  6
CONTINUOUS
 62
3
 10
4.7775982E+002
 20
3.7291605E+002
 11
4.3982485E+002
 21
3.7291605E+002
  0
LINE
  5
2c8
100
AcDbEntity
  8
4
100
AcDbLine
  6
CONTINUOUS
 62
3
 10
-2.4915563E+002
 20
3.6091605E+002
 11
4.4582485E+002
 21
3.6091605E+002
  0
LINE
  5
2c9
100
AcDbEntity
  8
4
100
AcDbLine
  6
CONTINUOUS
 62
3
 10
4.4282485E+002
 20
3.7291605E+002
 11
4.4282485E+002
 21
3.6691605E+002
  0
LINE
  5
2ca
100
AcDbEntity
  8
4
100
AcDbLine
  6
CONTINUOUS
 62
3
 10
4.4282485E+002
 20
3.6091605E+002
 11
4.4282485E+002
 21
3.6691605E+002
  0
INSERT
  5
2cb
100
AcDbEntity
100
AcDbBlockReference
  2
_AH1
  8
4
 62
3
 10
4.4282485E+002
 20
3.7291605E+002
 41
3.0
 42
3.0
 43
3.0
 50
9.0E+001
  0
INSERT
  5
2cc
100
AcDbEntity
100
AcDbBlockReference
  2
_AH1
  8
4
 62
3
 10
4.4282485E+002
 20
3.6091605E+002
 41
3.0
 42
3.0
 43
3.0
 50
2.7E+002
  0
TEXT
  5
2cd
100
AcDbEntity
  8
4
100
AcDbText
  6
CONTINUOUS
 62
3
 10
4.4132385E+002
 20
3.6466605E+002
 40
3.0
  1
12
 41
7.5E-001
 50
9.0E+001
100
AcDbText
  0
ENDBLK
  5
2ce
100
AcDbEntity
100
AcDbBlockEnd
  0
BLOCK
  5
2cf
100
AcDbEntity
100
AcDbBlockBegin
  2
*D268
  3
*D
 10
0.0
 20
0.0
 70
65
  0
LINE
  5
2d0
100
AcDbEntity
  8
4
100
AcDbLine
  6
CONTINUOUS
 62
3
 10
1.5108444E+003
 20
3.8491605E+002
 11
7.8585646E+002
 21
3.8491605E+002
  0
LINE
  5
2d1
100
AcDbEntity
  8
4
100
AcDbLine
  6
CONTINUOUS
 62
3
 10
1.5108444E+003
 20
3.6091605E+002
 11
7.8585646E+002
 21
3.6091605E+002
  0
LINE
  5
2d2
100
AcDbEntity
  8
4
100
AcDbLine
  6
CONTINUOUS
 62
3
 10
7.8885646E+002
 20
3.8491605E+002
 11
7.8885646E+002
 21
3.7291605E+002
  0
LINE
  5
2d3
100
AcDbEntity
  8
4
100
AcDbLine
  6
CONTINUOUS
 62
3
 10
7.8885646E+002
 20
3.6091605E+002
 11
7.8885646E+002
 21
3.7291605E+002
  0
INSERT
  5
2d4
100
AcDbEntity
100
AcDbBlockReference
  2
_AH1
  8
4
 62
3
 10
7.8885646E+002
 20
3.8491605E+002
 41
3.0
 42
3.0
 43
3.0
 50
9.0E+001
  0
INSERT
  5
2d5
100
AcDbEntity
100
AcDbBlockReference
  2
_AH1
  8
4
 62
3
 10
7.8885646E+002
 20
3.6091605E+002
 41
3.0
 42
3.0
 43
3.0
 50
2.7E+002
  0
TEXT
  5
2d6
100
AcDbEntity
  8
4
100
AcDbText
  6
CONTINUOUS
 62
3
 10
7.8735546E+002
 20
3.6616605E+002
 40
3.0
  1
( 
 41
7.5E-001
 50
9.0E+001
100
AcDbText
  0
INSERT
  5
2d7
100
AcDbEntity
100
AcDbBlockReference
  2
_AH1
  8
4
 62
3
 10
7.8885646E+002
 20
3.8491605E+002
 41
3.0
 42
3.0
 43
3.0
 50
9.0E+001
  0
INSERT
  5
2d8
100
AcDbEntity
100
AcDbBlockReference
  2
_AH1
  8
4
 62
3
 10
7.8885646E+002
 20
3.6091605E+002
 41
3.0
 42
3.0
 43
3.0
 50
2.7E+002
  0
TEXT
  5
2d9
100
AcDbEntity
  8
4
100
AcDbText
  6
CONTINUOUS
 62
3
 10
7.8735546E+002
 20
3.7066605E+002
 40
3.0
  1
24
 41
7.5E-001
 50
9.0E+001
100
AcDbText
  0
INSERT
  5
2da
100
AcDbEntity
100
AcDbBlockReference
  2
_AH1
  8
4
 62
3
 10
7.8885646E+002
 20
3.8491605E+002
 41
3.0
 42
3.0
 43
3.0
 50
9.0E+001
  0
INSERT
  5
2db
100
AcDbEntity
100
AcDbBlockReference
  2
_AH1
  8
4
 62
3
 10
7.8885646E+002
 20
3.6091605E+002
 41
3.0
 42
3.0
 43
3.0
 50
2.7E+002
  0
TEXT
  5
2dc
100
AcDbEntity
  8
4
100
AcDbText
  6
CONTINUOUS
 62
3
 10
7.8735546E+002
 20
3.7516605E+002
 40
3.0
  1
 )
 41
7.5E-001
 50
9.0E+001
100
AcDbText
  0
ENDBLK
  5
2dd
100
AcDbEntity
100
AcDbBlockEnd
  0
BLOCK
  5
2de
100
AcDbEntity
100
AcDbBlockBegin
  2
*D269
  3
*D
 10
0.0
 20
0.0
 70
65
  0
LINE
  5
2df
100
AcDbEntity
  8
5
100
AcDbLine
  6
CONTINUOUS
 62
3
 10
1.5108444E+003
 20
2.4989894E+002
 11
7.4368218E+002
 21
2.4989894E+002
  0
LINE
  5
2e0
100
AcDbEntity
  8
5
100
AcDbLine
  6
CONTINUOUS
 62
3
 10
1.5108444E+003
 20
2.4689894E+002
 11
7.4368218E+002
 21
2.4689894E+002
  0
LINE
  5
2e1
100
AcDbEntity
  8
5
100
AcDbLine
  6
CONTINUOUS
 62
3
 10
7.4668218E+002
 20
2.4989894E+002
 11
7.4668218E+002
 21
2.694115E+002
  0
LINE
  5
2e2
100
AcDbEntity
  8
5
100
AcDbLine
  6
CONTINUOUS
 62
3
 10
7.4668218E+002
 20
2.4089894E+002
 11
7.4668218E+002
 21
2.4989894E+002
  0
INSERT
  5
2e3
100
AcDbEntity
100
AcDbBlockReference
  2
_AH1
  8
5
 62
3
 10
7.4668218E+002
 20
2.4989894E+002
 41
3.0
 42
3.0
 43
3.0
 50
2.7E+002
  0
INSERT
  5
2e4
100
AcDbEntity
100
AcDbBlockReference
  2
_AH1
  8
5
 62
3
 10
7.4668218E+002
 20
2.4689894E+002
 41
3.0
 42
3.0
 43
3.0
 50
9.0E+001
  0
TEXT
  5
2e5
100
AcDbEntity
  8
5
100
AcDbText
  6
CONTINUOUS
 62
3
 10
7.4518118E+002
 20
2.561615E+002
 40
3.0
  1
( 
 41
7.5E-001
 50
9.0E+001
100
AcDbText
  0
INSERT
  5
2e6
100
AcDbEntity
100
AcDbBlockReference
  2
_AH1
  8
5
 62
3
 10
7.4668218E+002
 20
2.4989894E+002
 41
3.0
 42
3.0
 43
3.0
 50
2.7E+002
  0
INSERT
  5
2e7
100
AcDbEntity
100
AcDbBlockReference
  2
_AH1
  8
5
 62
3
 10
7.4668218E+002
 20
2.4689894E+002
 41
3.0
 42
3.0
 43
3.0
 50
9.0E+001
  0
TEXT
  5
2e8
100
AcDbEntity
  8
5
100
AcDbText
  6
CONTINUOUS
 62
3
 10
7.4518118E+002
 20
2.606615E+002
 40
3.0
  1
3
 41
7.5E-001
 50
9.0E+001
100
AcDbText
  0
INSERT
  5
2e9
100
AcDbEntity
100
AcDbBlockReference
  2
_AH1
  8
5
 62
3
 10
7.4668218E+002
 20
2.4989894E+002
 41
3.0
 42
3.0
 43
3.0
 50
2.7E+002
  0
INSERT
  5
2ea
100
AcDbEntity
100
AcDbBlockReference
  2
_AH1
  8
5
 62
3
 10
7.4668218E+002
 20
2.4689894E+002
 41
3.0
 42
3.0
 43
3.0
 50
9.0E+001
  0
TEXT
  5
2eb
100
AcDbEntity
  8
5
100
AcDbText
  6
CONTINUOUS
 62
3
 10
7.4518118E+002
 20
2.629115E+002
 40
3.0
  1
 )
 41
7.5E-001
 50
9.0E+001
100
AcDbText
  0
ENDBLK
  5
2ec
100
AcDbEntity
100
AcDbBlockEnd
  0
BLOCK
  5
2ed
100
AcDbEntity
100
AcDbBlockBegin
  2
*D274
  3
*D
 10
0.0
 20
0.0
 70
65
  0
LINE
  5
2ee
100
AcDbEntity
  8
4
100
AcDbLine
  6
CONTINUOUS
 62
3
 10
-2.4915563E+002
 20
3.8491605E+002
 11
-2.4915563E+002
 21
3.2752698E+002
  0
LINE
  5
2ef
100
AcDbEntity
  8
4
100
AcDbLine
  6
CONTINUOUS
 62
3
 10
1.5108444E+003
 20
3.8491605E+002
 11
1.5108444E+003
 21
3.2752698E+002
  0
LINE
  5
2f0
100
AcDbEntity
  8
4
100
AcDbLine
  6
CONTINUOUS
 62
3
 10
-2.4915563E+002
 20
3.3052698E+002
 11
6.3084437E+002
 21
3.3052698E+002
  0
LINE
  5
2f1
100
AcDbEntity
  8
4
100
AcDbLine
  6
CONTINUOUS
 62
3
 10
1.5108444E+003
 20
3.3052698E+002
 11
6.3084437E+002
 21
3.3052698E+002
  0
INSERT
  5
2f2
100
AcDbEntity
100
AcDbBlockReference
  2
_AH1
  8
4
 62
3
 10
-2.4915563E+002
 20
3.3052698E+002
 41
3.0
 42
3.0
 43
3.0
 50
1.8E+002
  0
INSERT
  5
2f3
100
AcDbEntity
100
AcDbBlockReference
  2
_AH1
  8
4
 62
3
 10
1.5108444E+003
 20
3.3052698E+002
 41
3.0
 42
3.0
 43
3.0
 50
0.0
  0
TEXT
  5
2f4
100
AcDbEntity
  8
4
100
AcDbText
  6
CONTINUOUS
 62
3
 10
6.2184437E+002
 20
3.3202798E+002
 40
3.0
  1
( 
 41
7.5E-001
100
AcDbText
  0
INSERT
  5
2f5
100
AcDbEntity
100
AcDbBlockReference
  2
_AH1
  8
4
 62
3
 10
-2.4915563E+002
 20
3.3052698E+002
 41
3.0
 42
3.0
 43
3.0
 50
1.8E+002
  0
INSERT
  5
2f6
100
AcDbEntity
100
AcDbBlockReference
  2
_AH1
  8
4
 62
3
 10
1.5108444E+003
 20
3.3052698E+002
 41
3.0
 42
3.0
 43
3.0
 50
0.0
  0
TEXT
  5
2f7
100
AcDbEntity
  8
4
100
AcDbText
  6
CONTINUOUS
 62
3
 10
6.2634437E+002
 20
3.3202798E+002
 40
3.0
  1
1760
 41
7.5E-001
100
AcDbText
  0
INSERT
  5
2f8
100
AcDbEntity
100
AcDbBlockReference
  2
_AH1
  8
4
 62
3
 10
-2.4915563E+002
 20
3.3052698E+002
 41
3.0
 42
3.0
 43
3.0
 50
1.8E+002
  0
INSERT
  5
2f9
100
AcDbEntity
100
AcDbBlockReference
  2
_AH1
  8
4
 62
3
 10
1.5108444E+003
 20
3.3052698E+002
 41
3.0
 42
3.0
 43
3.0
 50
0.0
  0
TEXT
  5
2fa
100
AcDbEntity
  8
4
100
AcDbText
  6
CONTINUOUS
 62
3
 10
6.3534437E+002
 20
3.3202798E+002
 40
3.0
  1
 )
 41
7.5E-001
100
AcDbText
  0
ENDBLK
  5
2fb
100
AcDbEntity
100
AcDbBlockEnd
  0
ENDSEC
  0
SECTION
  2
ENTITIES
  0
TEXT
  5
2fc
100
AcDbEntity
  8
1
100
AcDbText
  6
CONTINUOUS
 62
7
 10
1.4699742E+001
 20
3.0212706E+002
 40
1.0
  1
4-EXPLICIT
 41
3.0
 50
1.0
100
AcDbText
  0
TEXT
  5
2fd
100
AcDbEntity
  8
1
100
AcDbText
  6
CONTINUOUS
 62
7
 10
1.4699742E+001
 20
1.9407081E+002
 40
1.0
  1
5-EXPLICIT
 41
3.0
 50
1.0
100
AcDbText
  0
INSERT
  5
2fe
100
AcDbEntity
100
AcDbBlockReference
  2
*FC118
  8
5
 10
3.7992192E+002
 20
2.4689894E+002
 50
1.8E+002
  0
INSERT
  5
2ff
100
AcDbEntity
100
AcDbBlockReference
  2
A1
  8
1
 10
0.0
 20
0.0
 66
1
  0
ATTRIB
  5
300
100
AcDbEntity
  8
1
100
AcDbText
  6
CONTINUOUS
 62
6
 10
8.10602E+002
 20
3.3889971E+001
 40
4.0
  1
Schliessblech
 41
7.0E-001
 72
1
 11
7.92402E+002
 21
3.3889971E+001
100
AcDbAttribute
  2
außen +Tol
 70
0
  0
ATTRIB
  5
301
100
AcDbEntity
  8
1
100
AcDbText
  6
CONTINUOUS
 62
6
 10
8.14802E+002
 20
2.5889971E+001
 40
4.0
  1
verchromt effeff
 41
7.0E-001
 72
1
 11
7.92402E+002
 21
2.5889971E+001
100
AcDbAttribute
  2
außen -Tol
 70
0
  0
ATTRIB
  5
302
100
AcDbEntity
  8
1
100
AcDbText
  6
CONTINUOUS
 62
6
 10
8.07052E+002
 20
1.1458917E+001
 40
4.0
  1
-------60848-04
 41
7.0E-001
 72
1
 11
7.86052E+002
 21
1.1458917E+001
100
AcDbAttribute
  2
innen +Tol
 70
0
  0
ATTRIB
  5
303
100
AcDbEntity
  8
1
100
AcDbText
  6
CONTINUOUS
 62
6
 10
8.08702E+002
 20
4.96425E+001
 40
3.0
  1
1.0330
 41
7.0E-001
 72
1
 11
8.02402E+002
 21
4.96425E+001
100
AcDbAttribute
  2
innen -Tol
 70
0
  0
ATTRIB
  5
304
100
AcDbEntity
  8
1
100
AcDbText
  6
CONTINUOUS
 62
6
 10
8.28652E+002
 20
4.4355E+001
 40
3.0
  1
St 2 n.DIN 1624 (St 1203)
 41
7.0E-001
 72
1
 11
8.02402E+002
 21
4.4355E+001
100
AcDbAttribute
  2
5
 70
0
  0
ATTRIB
  5
305
100
AcDbEntity
  8
1
100
AcDbText
  6
CONTINUOUS
 62
6
 10
8.23052E+002
 20
5.51425E+001
 40
3.0
  1
61931
 41
7.0E-001
 72
1
 11
8.17802E+002
 21
5.51425E+001
100
AcDbAttribute
  2
6
 70
0
  0
ATTRIB
  5
306
100
AcDbEntity
  8
1
100
AcDbText
  6
CONTINUOUS
 62
6
 10
7.1377652E+002
 20
5.92056
 40
2.5
  1
 
 41
7.0E-001
100
AcDbAttribute
  2
7
 70
0
  0
ATTRIB
  5
307
100
AcDbEntity
  8
1
100
AcDbText
  6
CONTINUOUS
 62
6
 10
7.5695651E+002
 20
5.92056
 40
2.5
  1
 
 41
7.0E-001
100
AcDbAttribute
  2
8
 70
0
  0
ATTRIB
  5
308
100
AcDbEntity
  8
1
100
AcDbText
  6
CONTINUOUS
 62
6
 10
7.0746134E+002
 20
3.9889149E+001
 40
2.0
  1
 
 41
7.0E-001
100
AcDbAttribute
  2
9
 70
0
  0
ATTRIB
  5
309
100
AcDbEntity
  8
1
100
AcDbText
  6
CONTINUOUS
 62
6
 10
7.17202E+002
 20
3.54075E+001
 40
2.2
  1
27.10.05
 41
7.0E-001
100
AcDbAttribute
  2
10
 70
0
  0
ATTRIB
  5
30a
100
AcDbEntity
  8
1
100
AcDbText
  6
CONTINUOUS
 62
6
 10
7.32442E+002
 20
3.54075E+001
 40
2.2
  1
Gaertn
 41
7.0E-001
100
AcDbAttribute
  2
11
 70
0
  0
ATTRIB
  5
30b
100
AcDbEntity
  8
1
100
AcDbText
  6
CONTINUOUS
 62
6
 10
7.17202E+002
 20
3.11775E+001
 40
2.2
  1
 
 41
7.0E-001
100
AcDbAttribute
  2
12
 70
0
  0
ATTRIB
  5
30c
100
AcDbEntity
  8
1
100
AcDbText
  6
CONTINUOUS
 62
6
 10
7.32442E+002
 20
3.11775E+001
 40
2.2
  1
 
 41
7.0E-001
100
AcDbAttribute
  2
13
 70
0
  0
ATTRIB
  5
30d
100
AcDbEntity
  8
1
100
AcDbText
  6
CONTINUOUS
 62
6
 10
7.17202E+002
 20
2.69475E+001
 40
2.2
  1
 
 41
7.0E-001
100
AcDbAttribute
  2
14
 70
0
  0
ATTRIB
  5
30e
100
AcDbEntity
  8
1
100
AcDbText
  6
CONTINUOUS
 62
6
 10
7.32442E+002
 20
2.69475E+001
 40
2.2
  1
 
 41
7.0E-001
100
AcDbAttribute
  2
15
 70
0
  0
ATTRIB
  5
30f
100
AcDbEntity
  8
1
100
AcDbText
  6
CONTINUOUS
 62
6
 10
7.17202E+002
 20
2.27175E+001
 40
2.2
  1
 
 41
7.0E-001
100
AcDbAttribute
  2
16
 70
0
  0
ATTRIB
  5
310
100
AcDbEntity
  8
1
100
AcDbText
  6
CONTINUOUS
 62
6
 10
8.2845522E+002
 20
4.0035527E+001
 40
1.0
  1
 
100
AcDbAttribute
  2
17
 70
0
  0
ATTRIB
  5
311
100
AcDbEntity
  8
1
100
AcDbText
  6
CONTINUOUS
 62
6
 10
8.2845522E+002
 20
3.8535527E+001
 40
1.0
  1
 
100
AcDbAttribute
  2
18
 70
0
  0
ATTRIB
  5
312
100
AcDbEntity
  8
1
100
AcDbText
  6
CONTINUOUS
 62
6
 10
8.2845522E+002
 20
3.7035527E+001
 40
1.0
  1
 
100
AcDbAttribute
  2
19
 70
0
  0
ATTRIB
  5
313
100
AcDbEntity
  8
1
100
AcDbText
  6
CONTINUOUS
 62
6
 10
8.2845522E+002
 20
3.5535527E+001
 40
1.0
  1
 
100
AcDbAttribute
  2
20
 70
0
  0
ATTRIB
  5
314
100
AcDbEntity
  8
1
100
AcDbText
  6
CONTINUOUS
 62
6
 10
6.53702E+002
 20
3.96375E+001
 40
2.0
  1
 
 41
7.0E-001
100
AcDbAttribute
  2
21
 70
0
  0
ATTRIB
  5
315
100
AcDbEntity
  8
1
100
AcDbText
  6
CONTINUOUS
 62
6
 10
6.61322E+002
 20
3.96375E+001
 40
2.0
  1
 
 41
7.0E-001
100
AcDbAttribute
  2
22
 70
0
  0
ATTRIB
  5
316
100
AcDbEntity
  8
1
100
AcDbText
  6
CONTINUOUS
 62
6
 10
6.86722E+002
 20
3.96375E+001
 40
2.0
  1
 
 41
7.0E-001
100
AcDbAttribute
  2
23
 70
0
  0
ATTRIB
  5
317
100
AcDbEntity
  8
1
100
AcDbText
  6
CONTINUOUS
 62
6
 10
6.98922E+002
 20
3.96375E+001
 40
2.0
  1
 
 41
7.0E-001
100
AcDbAttribute
  2
24
 70
0
  0
ATTRIB
  5
318
100
AcDbEntity
  8
1
100
AcDbText
  6
CONTINUOUS
 62
6
 10
6.53702E+002
 20
3.54075E+001
 40
2.0
  1
 
 41
7.0E-001
100
AcDbAttribute
  2
25
 70
0
  0
ATTRIB
  5
319
100
AcDbEntity
  8
1
100
AcDbText
  6
CONTINUOUS
 62
6
 10
6.61322E+002
 20
3.54075E+001
 40
2.0
  1
 
 41
7.0E-001
100
AcDbAttribute
  2
26
 70
0
  0
ATTRIB
  5
31a
100
AcDbEntity
  8
1
100
AcDbText
  6
CONTINUOUS
 62
6
 10
6.86722E+002
 20
3.54075E+001
 40
2.0
  1
 
 41
7.0E-001
100
AcDbAttribute
  2
27
 70
0
  0
ATTRIB
  5
31b
100
AcDbEntity
  8
1
100
AcDbText
  6
CONTINUOUS
 62
6
 10
6.98922E+002
 20
3.54075E+001
 40
2.0
  1
 
 41
7.0E-001
100
AcDbAttribute
  2
28
 70
0
  0
ATTRIB
  5
31c
100
AcDbEntity
  8
1
100
AcDbText
  6
CONTINUOUS
 62
6
 10
6.53702E+002
 20
3.11775E+001
 40
2.0
  1
 
 41
7.0E-001
100
AcDbAttribute
  2
29
 70
0
  0
ATTRIB
  5
31d
100
AcDbEntity
  8
1
100
AcDbText
  6
CONTINUOUS
 62
6
 10
6.61322E+002
 20
3.11775E+001
 40
2.0
  1
 
 41
7.0E-001
100
AcDbAttribute
  2
30
 70
0
  0
ATTRIB
  5
31e
100
AcDbEntity
  8
1
100
AcDbText
  6
CONTINUOUS
 62
6
 10
6.86722E+002
 20
3.11775E+001
 40
2.0
  1
 
 41
7.0E-001
100
AcDbAttribute
  2
31
 70
0
  0
ATTRIB
  5
31f
100
AcDbEntity
  8
1
100
AcDbText
  6
CONTINUOUS
 62
6
 10
6.98922E+002
 20
3.11775E+001
 40
2.0
  1
 
 41
7.0E-001
100
AcDbAttribute
  2
32
 70
0
  0
ATTRIB
  5
320
100
AcDbEntity
  8
1
100
AcDbText
  6
CONTINUOUS
 62
6
 10
6.53702E+002
 20
2.69475E+001
 40
2.0
  1
 
 41
7.0E-001
100
AcDbAttribute
  2
33
 70
0
  0
ATTRIB
  5
321
100
AcDbEntity
  8
1
100
AcDbText
  6
CONTINUOUS
 62
6
 10
6.61322E+002
 20
2.69475E+001
 40
2.0
  1
 
 41
7.0E-001
100
AcDbAttribute
  2
34
 70
0
  0
ATTRIB
  5
322
100
AcDbEntity
  8
1
100
AcDbText
  6
CONTINUOUS
 62
6
 10
6.86722E+002
 20
2.69475E+001
 40
2.0
  1
 
 41
7.0E-001
100
AcDbAttribute
  2
35
 70
0
  0
ATTRIB
  5
323
100
AcDbEntity
  8
1
100
AcDbText
  6
CONTINUOUS
 62
6
 10
6.98922E+002
 20
2.69475E+001
 40
2.0
  1
 
 41
7.0E-001
100
AcDbAttribute
  2
36
 70
0
  0
ATTRIB
  5
324
100
AcDbEntity
  8
1
100
AcDbText
  6
CONTINUOUS
 62
6
 10
6.53702E+002
 20
2.27175E+001
 40
2.0
  1
 
 41
7.0E-001
100
AcDbAttribute
  2
37
 70
0
  0
ATTRIB
  5
325
100
AcDbEntity
  8
1
100
AcDbText
  6
CONTINUOUS
 62
6
 10
6.61322E+002
 20
2.27175E+001
 40
2.0
  1
 
 41
7.0E-001
100
AcDbAttribute
  2
38
 70
0
  0
ATTRIB
  5
326
100
AcDbEntity
  8
1
100
AcDbText
  6
CONTINUOUS
 62
6
 10
6.86722E+002
 20
2.27175E+001
 40
2.0
  1
 
 41
7.0E-001
100
AcDbAttribute
  2
39
 70
0
  0
ATTRIB
  5
327
100
AcDbEntity
  8
1
100
AcDbText
  6
CONTINUOUS
 62
6
 10
6.98922E+002
 20
2.27175E+001
 40
2.0
  1
 
 41
7.0E-001
100
AcDbAttribute
  2
40
 70
0
  0
ATTRIB
  5
328
100
AcDbEntity
  8
1
100
AcDbText
  6
CONTINUOUS
 62
6
 10
6.53702E+002
 20
1.84875E+001
 40
2.0
  1
 
 41
7.0E-001
100
AcDbAttribute
  2
41
 70
0
  0
ATTRIB
  5
329
100
AcDbEntity
  8
1
100
AcDbText
  6
CONTINUOUS
 62
6
 10
6.61322E+002
 20
1.84875E+001
 40
2.0
  1
 
 41
7.0E-001
100
AcDbAttribute
  2
42
 70
0
  0
ATTRIB
  5
32a
100
AcDbEntity
  8
1
100
AcDbText
  6
CONTINUOUS
 62
6
 10
6.86722E+002
 20
1.84875E+001
 40
2.0
  1
 
 41
7.0E-001
100
AcDbAttribute
  2
43
 70
0
  0
ATTRIB
  5
32b
100
AcDbEntity
  8
1
100
AcDbText
  6
CONTINUOUS
 62
6
 10
6.98922E+002
 20
1.84875E+001
 40
2.0
  1
 
 41
7.0E-001
100
AcDbAttribute
  2
44
 70
0
  0
ATTRIB
  5
32c
100
AcDbEntity
  8
1
100
AcDbText
  6
CONTINUOUS
 62
6
 10
6.53702E+002
 20
1.42575E+001
 40
2.0
  1
 
 41
7.0E-001
100
AcDbAttribute
  2
45
 70
0
  0
ATTRIB
  5
32d
100
AcDbEntity
  8
1
100
AcDbText
  6
CONTINUOUS
 62
6
 10
6.61322E+002
 20
1.42575E+001
 40
2.0
  1
 
 41
7.0E-001
100
AcDbAttribute
  2
46
 70
0
  0
ATTRIB
  5
32e
100
AcDbEntity
  8
1
100
AcDbText
  6
CONTINUOUS
 62
6
 10
6.86722E+002
 20
1.42575E+001
 40
2.0
  1
 
 41
7.0E-001
100
AcDbAttribute
  2
47
 70
0
  0
ATTRIB
  5
32f
100
AcDbEntity
  8
1
100
AcDbText
  6
CONTINUOUS
 62
6
 10
6.98922E+002
 20
1.42575E+001
 40
2.0
  1
 
 41
7.0E-001
100
AcDbAttribute
  2
48
 70
0
  0
ATTRIB
  5
330
100
AcDbEntity
  8
1
100
AcDbText
  6
CONTINUOUS
 62
6
 10
6.53702E+002
 20
1.00275E+001
 40
2.0
  1
 
 41
7.0E-001
100
AcDbAttribute
  2
49
 70
0
  0
ATTRIB
  5
331
100
AcDbEntity
  8
1
100
AcDbText
  6
CONTINUOUS
 62
6
 10
6.61322E+002
 20
1.00275E+001
 40
2.0
  1
 
 41
7.0E-001
100
AcDbAttribute
  2
50
 70
0
  0
ATTRIB
  5
332
100
AcDbEntity
  8
1
100
AcDbText
  6
CONTINUOUS
 62
6
 10
6.86722E+002
 20
1.00275E+001
 40
2.0
  1
 
 41
7.0E-001
100
AcDbAttribute
  2
51
 70
0
  0
ATTRIB
  5
333
100
AcDbEntity
  8
1
100
AcDbText
  6
CONTINUOUS
 62
6
 10
6.98922E+002
 20
1.00275E+001
 40
2.0
  1
 
 41
7.0E-001
100
AcDbAttribute
  2
52
 70
0
  0
SEQEND
  5
334
100
AcDbEntity
  0
LINE
  5
335
100
AcDbEntity
  8
4
100
AcDbLine
  6
CENTERLINE
 62
3
 10
4.8834437E+002
 20
3.7891605E+002
 11
4.8834437E+002
 21
3.9536025E+002
  0
DIMENSION
  5
336
100
AcDbEntity
  8
4
100
AcDbDimension
  6
CONTINUOUS
 62
3
  2
*D97
  3
DSTYLE1
 10
6.7284437E+002
 20
4.0348805E+002
 11
5.8059437E+002
 21
4.0648905E+002
 70
128
100
AcDbAlignedDimension
 13
4.8834437E+002
 23
3.9536025E+002
 14
6.7284437E+002
 24
3.7641605E+002
 40
3.0
 50
0.0
100
AcDbRotatedDimension
1001
ACAD
1000
DSTYLE
1002
{
1070
173
1070
0
1070
5
1000
_AH1
1002
}
  0
DIMENSION
  5
337
100
AcDbEntity
  8
4
100
AcDbDimension
  6
CONTINUOUS
 62
3
  1
$Q<>
  2
*D98
  3
DSTYLE1
 10
4.9434438E+002
 20
3.438681E+002
 11
4.8834437E+002
 21
3.468691E+002
 70
128
100
AcDbAlignedDimension
 13
4.8234437E+002
 23
3.6733304E+002
 14
4.9434438E+002
 24
3.6733304E+002
 40
3.0
 50
0.0
100
AcDbRotatedDimension
1001
ACAD
1000
DSTYLE
1002
{
1070
173
1070
0
1070
5
1000
_AH1
1002
}
  0
INSERT
  5
338
100
AcDbEntity
100
AcDbBlockReference
  2
*D99
  8
4
 62
3
 10
0.0
 20
0.0
  0
LINE
  5
339
100
AcDbEntity
  8
4
100
AcDbLine
  6
CONTINUOUS
 62
3
 10
4.8234437E+002
 20
3.7291605E+002
 11
4.7775982E+002
 21
3.7291605E+002
  0
DIMENSION
  5
33a
100
AcDbEntity
  8
4
100
AcDbDimension
  6
CONTINUOUS
 62
3
  2
*D101
  3
DSTYLE1
 10
4.4282485E+002
 20
3.6091605E+002
 11
4.3982385E+002
 21
3.6691605E+002
 70
128
100
AcDbAlignedDimension
 13
4.7775982E+002
 23
3.7291605E+002
 14
-2.4915563E+002
 24
3.6091605E+002
 40
3.0
 50
9.0E+001
100
AcDbRotatedDimension
1001
ACAD
1000
DSTYLE
1002
{
1070
173
1070
0
1070
5
1000
_AH1
1002
}
  0
LINE
  5
33b
100
AcDbEntity
  8
4
100
AcDbLine
  6
CENTERLINE
 62
3
 10
4.6884437E+002
 20
3.7291605E+002
 11
4.6284437E+002
 21
3.7291605E+002
  0
LINE
  5
33c
100
AcDbEntity
  8
4
100
AcDbLine
  6
CENTERLINE
 62
3
 10
4.6584437E+002
 20
3.7591605E+002
 11
4.6584437E+002
 21
3.6991605E+002
  0
LINE
  5
33d
100
AcDbEntity
  8
4
100
AcDbLine
  6
CENTERLINE
 62
3
 10
4.7034437E+002
 20
3.7291605E+002
 11
4.7384437E+002
 21
3.7291605E+002
  0
LINE
  5
33e
100
AcDbEntity
  8
4
100
AcDbLine
  6
CENTERLINE
 62
3
 10
4.6584437E+002
 20
3.7741605E+002
 11
4.6584437E+002
 21
3.8091605E+002
  0
LINE
  5
33f
100
AcDbEntity
  8
4
100
AcDbLine
  6
CENTERLINE
 62
3
 10
4.6134437E+002
 20
3.7291605E+002
 11
4.5784437E+002
 21
3.7291605E+002
  0
LINE
  5
340
100
AcDbEntity
  8
4
100
AcDbLine
  6
CENTERLINE
 62
3
 10
4.6584437E+002
 20
3.6841605E+002
 11
4.6584437E+002
 21
3.6491605E+002
  0
LINE
  5
341
100
AcDbEntity
  8
4
100
AcDbLine
  6
CENTERLINE
 62
3
 10
5.1384437E+002
 20
3.7291605E+002
 11
5.0784437E+002
 21
3.7291605E+002
  0
LINE
  5
342
100
AcDbEntity
  8
4
100
AcDbLine
  6
CENTERLINE
 62
3
 10
5.1084437E+002
 20
3.7591605E+002
 11
5.1084437E+002
 21
3.6991605E+002
  0
LINE
  5
343
100
AcDbEntity
  8
4
100
AcDbLine
  6
CENTERLINE
 62
3
 10
5.1534437E+002
 20
3.7291605E+002
 11
5.1884437E+002
 21
3.7291605E+002
  0
LINE
  5
344
100
AcDbEntity
  8
4
100
AcDbLine
  6
CENTERLINE
 62
3
 10
5.1084437E+002
 20
3.7741605E+002
 11
5.1084437E+002
 21
3.8091605E+002
  0
LINE
  5
345
100
AcDbEntity
  8
4
100
AcDbLine
  6
CENTERLINE
 62
3
 10
5.0634437E+002
 20
3.7291605E+002
 11
5.0284437E+002
 21
3.7291605E+002
  0
LINE
  5
346
100
AcDbEntity
  8
4
100
AcDbLine
  6
CENTERLINE
 62
3
 10
5.1084437E+002
 20
3.6841605E+002
 11
5.1084437E+002
 21
3.6491605E+002
  0
LINE
  5
347
100
AcDbEntity
  8
4
100
AcDbLine
  6
CENTERLINE
 62
3
 10
6.0384437E+002
 20
3.7291605E+002
 11
5.9784437E+002
 21
3.7291605E+002
  0
LINE
  5
348
100
AcDbEntity
  8
4
100
AcDbLine
  6
CENTERLINE
 62
3
 10
6.0084437E+002
 20
3.7591605E+002
 11
6.0084437E+002
 21
3.6991605E+002
  0
LINE
  5
349
100
AcDbEntity
  8
4
100
AcDbLine
  6
CENTERLINE
 62
3
 10
6.0534437E+002
 20
3.7291605E+002
 11
6.0884437E+002
 21
3.7291605E+002
  0
LINE
  5
34a
100
AcDbEntity
  8
4
100
AcDbLine
  6
CENTERLINE
 62
3
 10
6.0084437E+002
 20
3.7741605E+002
 11
6.0084437E+002
 21
3.8091605E+002
  0
LINE
  5
34b
100
AcDbEntity
  8
4
100
AcDbLine
  6
CENTERLINE
 62
3
 10
5.9634437E+002
 20
3.7291605E+002
 11
5.9284437E+002
 21
3.7291605E+002
  0
LINE
  5
34c
100
AcDbEntity
  8
4
100
AcDbLine
  6
CENTERLINE
 62
3
 10
6.0084437E+002
 20
3.6841605E+002
 11
6.0084437E+002
 21
3.6491605E+002
  0
LINE
  5
34d
100
AcDbEntity
  8
4
100
AcDbLine
  6
CENTERLINE
 62
3
 10
6.9384437E+002
 20
3.7291605E+002
 11
6.8784437E+002
 21
3.7291605E+002
  0
LINE
  5
34e
100
AcDbEntity
  8
4
100
AcDbLine
  6
CENTERLINE
 62
3
 10
6.9084437E+002
 20
3.7591605E+002
 11
6.9084437E+002
 21
3.6991605E+002
  0
LINE
  5
34f
100
AcDbEntity
  8
4
100
AcDbLine
  6
CENTERLINE
 62
3
 10
6.9534437E+002
 20
3.7291605E+002
 11
6.9884437E+002
 21
3.7291605E+002
  0
LINE
  5
350
100
AcDbEntity
  8
4
100
AcDbLine
  6
CENTERLINE
 62
3
 10
6.9084437E+002
 20
3.7741605E+002
 11
6.9084437E+002
 21
3.8091605E+002
  0
LINE
  5
351
100
AcDbEntity
  8
4
100
AcDbLine
  6
CENTERLINE
 62
3
 10
6.8634437E+002
 20
3.7291605E+002
 11
6.8284437E+002
 21
3.7291605E+002
  0
LINE
  5
352
100
AcDbEntity
  8
4
100
AcDbLine
  6
CENTERLINE
 62
3
 10
6.9084437E+002
 20
3.6841605E+002
 11
6.9084437E+002
 21
3.6491605E+002
  0
LINE
  5
353
100
AcDbEntity
  8
4
100
AcDbLine
  6
CENTERLINE
 62
3
 10
7.3884437E+002
 20
3.7291605E+002
 11
7.3284437E+002
 21
3.7291605E+002
  0
LINE
  5
354
100
AcDbEntity
  8
4
100
AcDbLine
  6
CENTERLINE
 62
3
 10
7.3584437E+002
 20
3.7591605E+002
 11
7.3584437E+002
 21
3.6991605E+002
  0
LINE
  5
355
100
AcDbEntity
  8
4
100
AcDbLine
  6
CENTERLINE
 62
3
 10
7.4034437E+002
 20
3.7291605E+002
 11
7.4384437E+002
 21
3.7291605E+002
  0
LINE
  5
356
100
AcDbEntity
  8
4
100
AcDbLine
  6
CENTERLINE
 62
3
 10
7.3584437E+002
 20
3.7741605E+002
 11
7.3584437E+002
 21
3.8091605E+002
  0
LINE
  5
357
100
AcDbEntity
  8
4
100
AcDbLine
  6
CENTERLINE
 62
3
 10
7.3134437E+002
 20
3.7291605E+002
 11
7.2784437E+002
 21
3.7291605E+002
  0
LINE
  5
358
100
AcDbEntity
  8
4
100
AcDbLine
  6
CENTERLINE
 62
3
 10
7.3584437E+002
 20
3.6841605E+002
 11
7.3584437E+002
 21
3.6491605E+002
  0
LINE
  5
359
100
AcDbEntity
  8
4
100
AcDbLine
  6
CENTERLINE
 62
3
 10
2.2884437E+002
 20
3.7291605E+002
 11
2.2284437E+002
 21
3.7291605E+002
  0
LINE
  5
35a
100
AcDbEntity
  8
4
100
AcDbLine
  6
CENTERLINE
 62
3
 10
2.2584437E+002
 20
3.7591605E+002
 11
2.2584437E+002
 21
3.6991605E+002
  0
LINE
  5
35b
100
AcDbEntity
  8
4
100
AcDbLine
  6
CENTERLINE
 62
3
 10
2.3034437E+002
 20
3.7291605E+002
 11
2.3384437E+002
 21
3.7291605E+002
  0
LINE
  5
35c
100
AcDbEntity
  8
4
100
AcDbLine
  6
CENTERLINE
 62
3
 10
2.2584437E+002
 20
3.7741605E+002
 11
2.2584437E+002
 21
3.8091605E+002
  0
LINE
  5
35d
100
AcDbEntity
  8
4
100
AcDbLine
  6
CENTERLINE
 62
3
 10
2.2134437E+002
 20
3.7291605E+002
 11
2.1784437E+002
 21
3.7291605E+002
  0
LINE
  5
35e
100
AcDbEntity
  8
4
100
AcDbLine
  6
CENTERLINE
 62
3
 10
2.2584437E+002
 20
3.6841605E+002
 11
2.2584437E+002
 21
3.6491605E+002
  0
LINE
  5
35f
100
AcDbEntity
  8
4
100
AcDbLine
  6
CENTERLINE
 62
3
 10
1.7784437E+002
 20
3.7391605E+002
 11
1.7184437E+002
 21
3.7391605E+002
  0
LINE
  5
360
100
AcDbEntity
  8
4
100
AcDbLine
  6
CENTERLINE
 62
3
 10
1.7484437E+002
 20
3.7691605E+002
 11
1.7484437E+002
 21
3.7091605E+002
  0
LINE
  5
361
100
AcDbEntity
  8
4
100
AcDbLine
  6
CENTERLINE
 62
3
 10
1.7934437E+002
 20
3.7391605E+002
 11
1.8284437E+002
 21
3.7391605E+002
  0
LINE
  5
362
100
AcDbEntity
  8
4
100
AcDbLine
  6
CENTERLINE
 62
3
 10
1.7484437E+002
 20
3.7841605E+002
 11
1.7484437E+002
 21
3.8191605E+002
  0
LINE
  5
363
100
AcDbEntity
  8
4
100
AcDbLine
  6
CENTERLINE
 62
3
 10
1.7034437E+002
 20
3.7391605E+002
 11
1.6684437E+002
 21
3.7391605E+002
  0
LINE
  5
364
100
AcDbEntity
  8
4
100
AcDbLine
  6
CENTERLINE
 62
3
 10
1.7484437E+002
 20
3.6941605E+002
 11
1.7484437E+002
 21
3.6591605E+002
  0
LINE
  5
365
100
AcDbEntity
  8
4
100
AcDbLine
  6
CENTERLINE
 62
3
 10
1.6584437E+002
 20
3.7391605E+002
 11
1.5984437E+002
 21
3.7391605E+002
  0
LINE
  5
366
100
AcDbEntity
  8
4
100
AcDbLine
  6
CENTERLINE
 62
3
 10
1.6284437E+002
 20
3.7691605E+002
 11
1.6284437E+002
 21
3.7091605E+002
  0
LINE
  5
367
100
AcDbEntity
  8
4
100
AcDbLine
  6
CENTERLINE
 62
3
 10
1.6734437E+002
 20
3.7391605E+002
 11
1.7084437E+002
 21
3.7391605E+002
  0
LINE
  5
368
100
AcDbEntity
  8
4
100
AcDbLine
  6
CENTERLINE
 62
3
 10
1.6284437E+002
 20
3.7841605E+002
 11
1.6284437E+002
 21
3.8191605E+002
  0
LINE
  5
369
100
AcDbEntity
  8
4
100
AcDbLine
  6
CENTERLINE
 62
3
 10
1.5834437E+002
 20
3.7391605E+002
 11
1.5484437E+002
 21
3.7391605E+002
  0
LINE
  5
36a
100
AcDbEntity
  8
4
100
AcDbLine
  6
CENTERLINE
 62
3
 10
1.6284437E+002
 20
3.6941605E+002
 11
1.6284437E+002
 21
3.6591605E+002
  0
LINE
  5
36b
100
AcDbEntity
  8
4
100
AcDbLine
  6
CENTERLINE
 62
3
 10
1.0584437E+002
 20
3.7391605E+002
 11
9.9844375E+001
 21
3.7391605E+002
  0
LINE
  5
36c
100
AcDbEntity
  8
4
100
AcDbLine
  6
CENTERLINE
 62
3
 10
1.0284437E+002
 20
3.7691605E+002
 11
1.0284437E+002
 21
3.7091605E+002
  0
LINE
  5
36d
100
AcDbEntity
  8
4
100
AcDbLine
  6
CENTERLINE
 62
3
 10
1.0734437E+002
 20
3.7391605E+002
 11
1.1084437E+002
 21
3.7391605E+002
  0
LINE
  5
36e
100
AcDbEntity
  8
4
100
AcDbLine
  6
CENTERLINE
 62
3
 10
1.0284437E+002
 20
3.7841605E+002
 11
1.0284437E+002
 21
3.8191605E+002
  0
LINE
  5
36f
100
AcDbEntity
  8
4
100
AcDbLine
  6
CENTERLINE
 62
3
 10
9.8344375E+001
 20
3.7391605E+002
 11
9.4844375E+001
 21
3.7391605E+002
  0
LINE
  5
370
100
AcDbEntity
  8
4
100
AcDbLine
  6
CENTERLINE
 62
3
 10
1.0284437E+002
 20
3.6941605E+002
 11
1.0284437E+002
 21
3.6591605E+002
  0
LINE
  5
371
100
AcDbEntity
  8
4
100
AcDbLine
  6
CENTERLINE
 62
3
 10
5.2844375E+001
 20
3.7391605E+002
 11
4.6844375E+001
 21
3.7391605E+002
  0
LINE
  5
372
100
AcDbEntity
  8
4
100
AcDbLine
  6
CENTERLINE
 62
3
 10
4.9844375E+001
 20
3.7691605E+002
 11
4.9844375E+001
 21
3.7091605E+002
  0
LINE
  5
373
100
AcDbEntity
  8
4
100
AcDbLine
  6
CENTERLINE
 62
3
 10
5.4344375E+001
 20
3.7391605E+002
 11
5.7844375E+001
 21
3.7391605E+002
  0
LINE
  5
374
100
AcDbEntity
  8
4
100
AcDbLine
  6
CENTERLINE
 62
3
 10
4.9844375E+001
 20
3.7841605E+002
 11
4.9844375E+001
 21
3.8191605E+002
  0
LINE
  5
375
100
AcDbEntity
  8
4
100
AcDbLine
  6
CENTERLINE
 62
3
 10
4.5344375E+001
 20
3.7391605E+002
 11
4.1844375E+001
 21
3.7391605E+002
  0
LINE
  5
376
100
AcDbEntity
  8
4
100
AcDbLine
  6
CENTERLINE
 62
3
 10
4.9844375E+001
 20
3.6941605E+002
 11
4.9844375E+001
 21
3.6591605E+002
  0
DIMENSION
  5
377
100
AcDbEntity
  8
4
100
AcDbDimension
  6
CONTINUOUS
 62
3
  1
( <> )
  2
*D268
  3
DSTYLE1
 10
7.8885646E+002
 20
3.6091605E+002
 11
7.8585546E+002
 21
3.7291605E+002
 70
128
100
AcDbAlignedDimension
 13
1.5108444E+003
 23
3.8491605E+002
 14
1.5108444E+003
 24
3.6091605E+002
 40
3.0
 50
9.0E+001
100
AcDbRotatedDimension
1001
ACAD
1000
DSTYLE
1002
{
1070
173
1070
0
1070
5
1000
_AH1
1002
}
  0
DIMENSION
  5
378
100
AcDbEntity
  8
5
100
AcDbDimension
  6
CONTINUOUS
 62
3
  1
( <> )
  2
*D269
  3
DSTYLE1
 10
7.4668218E+002
 20
2.4689894E+002
 11
7.4368118E+002
 21
2.617865E+002
 70
128
100
AcDbAlignedDimension
 13
1.5108444E+003
 23
2.4989894E+002
 14
1.5108444E+003
 24
2.4689894E+002
 40
3.0
 50
9.0E+001
100
AcDbRotatedDimension
1001
ACAD
1000
DSTYLE
1002
{
1070
173
1070
0
1070
5
1000
_AH1
1002
}
  0
SPLINE
  5
379
100
AcDbEntity
  8
5
100
AcDbSpline
  6
CONTINUOUS
 62
3
210
0.0
220
0.0
230
0.0
 70
0
 71
3
 72
11
 73
7
 74
0
 42
1.0E-007
 43
1.0E-007
 44
0.0
 40
0.0
 40
0.0
 40
0.0
 40
0.0
 40
3.3416032E-001
 40
5.6413819E-001
 40
7.0805362E-001
 40
1.0
 40
1.0
 40
1.0
 40
1.0
 10
7.7768296E+002
 20
2.4989894E+002
 30
0.0
 10
7.7715992E+002
 20
2.4972372E+002
 30
0.0
 10
7.7666432E+002
 20
2.4936826E+002
 30
0.0
 10
7.7629399E+002
 20
2.4812338E+002
 30
0.0
 10
7.7732752E+002
 20
2.479018E+002
 30
0.0
 10
7.7752637E+002
 20
2.4733758E+002
 30
0.0
 10
7.7761587E+002
 20
2.4689894E+002
 30
0.0
  0
SPLINE
  5
37a
100
AcDbEntity
  8
5
100
AcDbSpline
  6
CONTINUOUS
 62
3
210
0.0
220
0.0
230
0.0
 70
0
 71
3
 72
10
 73
6
 74
0
 42
1.0E-007
 43
1.0E-007
 44
0.0
 40
0.0
 40
0.0
 40
0.0
 40
0.0
 40
3.8721576E-001
 40
5.824546E-001
 40
1.0
 40
1.0
 40
1.0
 40
1.0
 10
1.355364E+001
 20
2.4989894E+002
 30
0.0
 10
1.3621665E+001
 20
2.4933642E+002
 30
0.0
 10
1.3802575E+001
 20
2.486133E+002
 30
0.0
 10
1.5203707E+001
 20
2.4784336E+002
 30
0.0
 10
1.4486047E+001
 20
2.4728046E+002
 30
0.0
 10
1.3520902E+001
 20
2.4689894E+002
 30
0.0
  0
SPLINE
  5
37b
100
AcDbEntity
  8
4
100
AcDbSpline
  6
CONTINUOUS
 62
3
210
0.0
220
0.0
230
0.0
 70
0
 71
3
 72
13
 73
9
 74
0
 42
1.0E-007
 43
1.0E-007
 44
0.0
 40
0.0
 40
0.0
 40
0.0
 40
0.0
 40
2.5067545E-001
 40
4.4030156E-001
 40
6.1283723E-001
 40
7.1294264E-001
 40
8.674541E-001
 40
1.0
 40
1.0
 40
1.0
 40
1.0
 10
8.1940077E+002
 20
3.8390285E+002
 30
0.0
 10
8.1552253E+002
 20
3.8344076E+002
 30
0.0
 10
8.1055595E+002
 20
3.8166086E+002
 30
0.0
 10
8.168695E+002
 20
3.7553716E+002
 30
0.0
 10
8.118761E+002
 20
3.7129223E+002
 30
0.0
 10
8.1538464E+002
 20
3.6794307E+002
 30
0.0
 10
8.1649801E+002
 20
3.6447658E+002
 30
0.0
 10
8.1790767E+002
 20
3.6204592E+002
 30
0.0
 10
8.1851065E+002
 20
3.6091605E+002
 30
0.0
  0
SPLINE
  5
37c
100
AcDbEntity
  8
4
100
AcDbSpline
  6
CONTINUOUS
 62
3
210
0.0
220
0.0
230
0.0
 70
0
 71
3
 72
13
 73
9
 74
0
 42
1.0E-007
 43
1.0E-007
 44
0.0
 40
0.0
 40
0.0
 40
0.0
 40
0.0
 40
1.8419581E-001
 40
3.6139197E-001
 40
5.3731265E-001
 40
6.4433004E-001
 40
7.4845249E-001
 40
1.0
 40
1.0
 40
1.0
 40
1.0
 10
1.3810271E+001
 20
3.8491605E+002
 30
0.0
 10
1.3936268E+001
 20
3.8300862E+002
 30
0.0
 10
1.4585751E+001
 20
3.7951773E+002
 30
0.0
 10
2.0126183E+001
 20
3.7754041E+002
 30
0.0
 10
2.0048154E+001
 20
3.7222988E+002
 30
0.0
 10
1.6486977E+001
 20
3.6946537E+002
 30
0.0
 10
2.0767844E+001
 20
3.6557464E+002
 30
0.0
 10
1.8061913E+001
 20
3.6283855E+002
 30
0.0
 10
1.5080181E+001
 20
3.6091605E+002
 30
0.0
  0
DIMENSION
  5
37d
100
AcDbEntity
  8
4
100
AcDbDimension
  6
CONTINUOUS
 62
3
  1
( <> )
  2
*D274
  3
DSTYLE1
 10
1.5108444E+003
 20
3.3052698E+002
 11
6.3084437E+002
 21
3.3352798E+002
 70
128
100
AcDbAlignedDimension
 13
-2.4915563E+002
 23
3.8491605E+002
 14
1.5108444E+003
 24
3.8491605E+002
 40
3.0
 50
0.0
100
AcDbRotatedDimension
1001
ACAD
1000
DSTYLE
1002
{
1070
173
1070
0
1070
5
1000
_AH1
1002
}
  0
LINE
  5
37e
100
AcDbEntity
  8
1
100
AcDbLine
  6
CONTINUOUS
 62
6
 10
7.5848333E+002
 20
1.1574112E+002
 11
7.5288333E+002
 21
1.0594112E+002
  0
LINE
  5
37f
100
AcDbEntity
  8
1
100
AcDbLine
  6
CONTINUOUS
 62
6
 10
7.5288333E+002
 20
1.0594112E+002
 11
7.5008333E+002
 21
1.1084112E+002
  0
LINE
  5
380
100
AcDbEntity
  8
1
100
AcDbLine
  6
CONTINUOUS
 62
6
 10
7.5148333E+002
 20
1.0979112E+002
 11
7.5148333E+002
 21
1.0874112E+002
  0
LINE
  5
381
100
AcDbEntity
  8
1
100
AcDbLine
  6
CONTINUOUS
 62
6
 10
7.5148333E+002
 20
1.0874112E+002
 11
7.5183333E+002
 21
1.0804112E+002
  0
LINE
  5
382
100
AcDbEntity
  8
1
100
AcDbLine
  6
CONTINUOUS
 62
6
 10
7.5183333E+002
 20
1.0804112E+002
 11
7.5253333E+002
 21
1.0769112E+002
  0
LINE
  5
383
100
AcDbEntity
  8
1
100
AcDbLine
  6
CONTINUOUS
 62
6
 10
7.5253333E+002
 20
1.0769112E+002
 11
7.5323333E+002
 21
1.0769112E+002
  0
LINE
  5
384
100
AcDbEntity
  8
1
100
AcDbLine
  6
CONTINUOUS
 62
6
 10
7.5323333E+002
 20
1.0769112E+002
 11
7.5393333E+002
 21
1.0804112E+002
  0
LINE
  5
385
100
AcDbEntity
  8
1
100
AcDbLine
  6
CONTINUOUS
 62
6
 10
7.5393333E+002
 20
1.0804112E+002
 11
7.5428333E+002
 21
1.0874112E+002
  0
LINE
  5
386
100
AcDbEntity
  8
1
100
AcDbLine
  6
CONTINUOUS
 62
6
 10
7.5428333E+002
 20
1.0874112E+002
 11
7.5428333E+002
 21
1.0979112E+002
  0
LINE
  5
387
100
AcDbEntity
  8
1
100
AcDbLine
  6
CONTINUOUS
 62
6
 10
7.5428333E+002
 20
1.0979112E+002
 11
7.5393333E+002
 21
1.1049112E+002
  0
LINE
  5
388
100
AcDbEntity
  8
1
100
AcDbLine
  6
CONTINUOUS
 62
6
 10
7.5393333E+002
 20
1.1049112E+002
 11
7.5323333E+002
 21
1.1084112E+002
  0
LINE
  5
389
100
AcDbEntity
  8
1
100
AcDbLine
  6
CONTINUOUS
 62
6
 10
7.5323333E+002
 20
1.1084112E+002
 11
7.5253333E+002
 21
1.1084112E+002
  0
LINE
  5
38a
100
AcDbEntity
  8
1
100
AcDbLine
  6
CONTINUOUS
 62
6
 10
7.5253333E+002
 20
1.1084112E+002
 11
7.5183333E+002
 21
1.1049112E+002
  0
LINE
  5
38b
100
AcDbEntity
  8
1
100
AcDbLine
  6
CONTINUOUS
 62
6
 10
7.5183333E+002
 20
1.1049112E+002
 11
7.5148333E+002
 21
1.0979112E+002
  0
LINE
  5
38c
100
AcDbEntity
  8
1
100
AcDbLine
  6
CONTINUOUS
 62
6
 10
7.5848333E+002
 20
1.1574112E+002
 11
8.1974685E+002
 21
1.1574112E+002
  0
TEXT
  5
38d
100
AcDbEntity
  8
1
100
AcDbText
  6
CONTINUOUS
 62
1
 10
7.5914572E+002
 20
1.1749355E+002
 40
3.0
  1
DIN EN 12540-Fe/Ni 15-18 b/Cr
 41
7.0E-001
100
AcDbText
  0
CIRCLE
  5
38e
100
AcDbEntity
  8
4
100
AcDbCircle
  6
CONTINUOUS
 62
1
 10
4.9844375E+001
 20
3.7391605E+002
 40
5.0
  0
CIRCLE
  5
38f
100
AcDbEntity
  8
4
100
AcDbCircle
  6
CONTINUOUS
 62
1
 10
1.0284437E+002
 20
3.7391605E+002
 40
5.0
  0
CIRCLE
  5
390
100
AcDbEntity
  8
4
100
AcDbCircle
  6
CONTINUOUS
 62
1
 10
1.6284437E+002
 20
3.7391605E+002
 40
5.0
  0
CIRCLE
  5
391
100
AcDbEntity
  8
4
100
AcDbCircle
  6
CONTINUOUS
 62
1
 10
1.7484437E+002
 20
3.7391605E+002
 40
5.0
  0
CIRCLE
  5
392
100
AcDbEntity
  8
4
100
AcDbCircle
  6
CONTINUOUS
 62
1
 10
-2.0415563E+002
 20
3.7291605E+002
 40
5.0
  0
CIRCLE
  5
393
100
AcDbEntity
  8
4
100
AcDbCircle
  6
CONTINUOUS
 62
1
 10
-1.5915563E+002
 20
3.7291605E+002
 40
5.0
  0
CIRCLE
  5
394
100
AcDbEntity
  8
4
100
AcDbCircle
  6
CONTINUOUS
 62
1
 10
-6.4155625E+001
 20
3.7291605E+002
 40
5.0
  0
CIRCLE
  5
395
100
AcDbEntity
  8
4
100
AcDbCircle
  6
CONTINUOUS
 62
1
 10
-1.9155625E+001
 20
3.7291605E+002
 40
5.0
  0
CIRCLE
  5
396
100
AcDbEntity
  8
4
100
AcDbCircle
  6
CONTINUOUS
 62
1
 10
2.2584437E+002
 20
3.7291605E+002
 40
5.0
  0
CIRCLE
  5
397
100
AcDbEntity
  8
4
100
AcDbCircle
  6
CONTINUOUS
 62
1
 10
4.6584437E+002
 20
3.7291605E+002
 40
5.0
  0
CIRCLE
  5
398
100
AcDbEntity
  8
4
100
AcDbCircle
  6
CONTINUOUS
 62
1
 10
5.1084437E+002
 20
3.7291605E+002
 40
5.0
  0
CIRCLE
  5
399
100
AcDbEntity
  8
4
100
AcDbCircle
  6
CONTINUOUS
 62
1
 10
6.0084437E+002
 20
3.7291605E+002
 40
5.0
  0
CIRCLE
  5
39a
100
AcDbEntity
  8
4
100
AcDbCircle
  6
CONTINUOUS
 62
1
 10
6.9084437E+002
 20
3.7291605E+002
 40
5.0
  0
CIRCLE
  5
39b
100
AcDbEntity
  8
4
100
AcDbCircle
  6
CONTINUOUS
 62
1
 10
7.3584437E+002
 20
3.7291605E+002
 40
5.0
  0
CIRCLE
  5
39c
100
AcDbEntity
  8
4
100
AcDbCircle
  6
CONTINUOUS
 62
1
 10
1.0108444E+003
 20
3.7291605E+002
 40
5.0
  0
CIRCLE
  5
39d
100
AcDbEntity
  8
4
100
AcDbCircle
  6
CONTINUOUS
 62
1
 10
1.2858444E+003
 20
3.7291605E+002
 40
5.0
  0
CIRCLE
  5
39e
100
AcDbEntity
  8
4
100
AcDbCircle
  6
CONTINUOUS
 62
1
 10
1.3308444E+003
 20
3.7291605E+002
 40
5.0
  0
CIRCLE
  5
39f
100
AcDbEntity
  8
4
100
AcDbCircle
  6
CONTINUOUS
 62
1
 10
1.4258444E+003
 20
3.7291605E+002
 40
5.0
  0
CIRCLE
  5
3a0
100
AcDbEntity
  8
4
100
AcDbCircle
  6
CONTINUOUS
 62
1
 10
1.4708444E+003
 20
3.7291605E+002
 40
5.0
  0
CIRCLE
  5
3a1
100
AcDbEntity
  8
4
100
AcDbCircle
  6
CONTINUOUS
 62
40
 10
-2.0415563E+002
 20
3.7291605E+002
 40
2.75
  0
CIRCLE
  5
3a2
100
AcDbEntity
  8
4
100
AcDbCircle
  6
CONTINUOUS
 62
40
 10
-1.5915563E+002
 20
3.7291605E+002
 40
2.75
  0
CIRCLE
  5
3a3
100
AcDbEntity
  8
4
100
AcDbCircle
  6
CONTINUOUS
 62
40
 10
-6.4155625E+001
 20
3.7291605E+002
 40
2.75
  0
CIRCLE
  5
3a4
100
AcDbEntity
  8
4
100
AcDbCircle
  6
CONTINUOUS
 62
40
 10
-1.9155625E+001
 20
3.7291605E+002
 40
2.75
  0
CIRCLE
  5
3a5
100
AcDbEntity
  8
4
100
AcDbCircle
  6
CONTINUOUS
 62
40
 10
2.2584437E+002
 20
3.7291605E+002
 40
2.75
  0
CIRCLE
  5
3a6
100
AcDbEntity
  8
4
100
AcDbCircle
  6
CONTINUOUS
 62
40
 10
1.0108444E+003
 20
3.7291605E+002
 40
2.75
  0
CIRCLE
  5
3a7
100
AcDbEntity
  8
4
100
AcDbCircle
  6
CONTINUOUS
 62
40
 10
4.6584437E+002
 20
3.7291605E+002
 40
2.75
  0
CIRCLE
  5
3a8
100
AcDbEntity
  8
4
100
AcDbCircle
  6
CONTINUOUS
 62
40
 10
5.1084437E+002
 20
3.7291605E+002
 40
2.75
  0
CIRCLE
  5
3a9
100
AcDbEntity
  8
4
100
AcDbCircle
  6
CONTINUOUS
 62
40
 10
6.0084437E+002
 20
3.7291605E+002
 40
2.75
  0
CIRCLE
  5
3aa
100
AcDbEntity
  8
4
100
AcDbCircle
  6
CONTINUOUS
 62
40
 10
6.9084437E+002
 20
3.7291605E+002
 40
2.75
  0
CIRCLE
  5
3ab
100
AcDbEntity
  8
4
100
AcDbCircle
  6
CONTINUOUS
 62
40
 10
7.3584437E+002
 20
3.7291605E+002
 40
2.75
  0
CIRCLE
  5
3ac
100
AcDbEntity
  8
4
100
AcDbCircle
  6
CONTINUOUS
 62
40
 10
1.2858444E+003
 20
3.7291605E+002
 40
2.75
  0
CIRCLE
  5
3ad
100
AcDbEntity
  8
4
100
AcDbCircle
  6
CONTINUOUS
 62
40
 10
1.3308444E+003
 20
3.7291605E+002
 40
2.75
  0
CIRCLE
  5
3ae
100
AcDbEntity
  8
4
100
AcDbCircle
  6
CONTINUOUS
 62
40
 10
1.4258444E+003
 20
3.7291605E+002
 40
2.75
  0
CIRCLE
  5
3af
100
AcDbEntity
  8
4
100
AcDbCircle
  6
CONTINUOUS
 62
40
 10
1.4708444E+003
 20
3.7291605E+002
 40
2.75
  0
CIRCLE
  5
3b0
100
AcDbEntity
  8
4
100
AcDbCircle
  6
CONTINUOUS
 62
40
 10
1.7484437E+002
 20
3.7391605E+002
 40
2.75
  0
CIRCLE
  5
3b1
100
AcDbEntity
  8
4
100
AcDbCircle
  6
CONTINUOUS
 62
40
 10
1.6284437E+002
 20
3.7391605E+002
 40
2.75
  0
CIRCLE
  5
3b2
100
AcDbEntity
  8
4
100
AcDbCircle
  6
CONTINUOUS
 62
40
 10
1.0284437E+002
 20
3.7391605E+002
 40
2.75
  0
CIRCLE
  5
3b3
100
AcDbEntity
  8
4
100
AcDbCircle
  6
CONTINUOUS
 62
40
 10
4.9844375E+001
 20
3.7391605E+002
 40
2.75
  0
LINE
  5
3b4
100
AcDbEntity
  8
4
100
AcDbLine
  6
CONTINUOUS
 62
30
 10
-2.4915562E+002
 20
3.6091605E+002
 11
1.5108444E+003
 21
3.6091605E+002
  0
LINE
  5
3b5
100
AcDbEntity
  8
4
100
AcDbLine
  6
CONTINUOUS
 62
30
 10
-2.4915562E+002
 20
3.6091605E+002
 11
-2.4915562E+002
 21
3.8491605E+002
  0
LINE
  5
3b6
100
AcDbEntity
  8
4
100
AcDbLine
  6
CONTINUOUS
 62
30
 10
1.5108444E+003
 20
3.8491605E+002
 11
1.5108444E+003
 21
3.6091605E+002
  0
LINE
  5
3b7
100
AcDbEntity
  8
4
100
AcDbLine
  6
CONTINUOUS
 62
30
 10
-2.4915562E+002
 20
3.8491605E+002
 11
1.0859438E+002
 21
3.8491605E+002
  0
LINE
  5
3b8
100
AcDbEntity
  8
4
100
AcDbLine
  6
CONTINUOUS
 62
30
 10
1.5709437E+002
 20
3.8491605E+002
 11
1.5108444E+003
 21
3.8491605E+002
  0
LINE
  5
3b9
100
AcDbEntity
  8
4
100
AcDbLine
  6
CONTINUOUS
 62
40
 10
-8.4155625E+001
 20
3.7791605E+002
 11
-8.4155625E+001
 21
3.6791605E+002
  0
LINE
  5
3ba
100
AcDbEntity
  8
4
100
AcDbLine
  6
CONTINUOUS
 62
40
 10
-8.6155625E+001
 20
3.6591605E+002
 11
-1.3715563E+002
 21
3.6591605E+002
  0
LINE
  5
3bb
100
AcDbEntity
  8
4
100
AcDbLine
  6
CONTINUOUS
 62
40
 10
-1.3915563E+002
 20
3.6791605E+002
 11
-1.3915563E+002
 21
3.7791605E+002
  0
LINE
  5
3bc
100
AcDbEntity
  8
4
100
AcDbLine
  6
CONTINUOUS
 62
40
 10
-1.3715563E+002
 20
3.7991605E+002
 11
-8.6155625E+001
 21
3.7991605E+002
  0
LINE
  5
3bd
100
AcDbEntity
  8
4
100
AcDbLine
  6
CONTINUOUS
 62
40
 10
5.8584437E+002
 20
3.7691605E+002
 11
5.8584437E+002
 21
3.6891605E+002
  0
LINE
  5
3be
100
AcDbEntity
  8
4
100
AcDbLine
  6
CONTINUOUS
 62
40
 10
5.8384437E+002
 20
3.6691605E+002
 11
5.3784437E+002
 21
3.6691605E+002
  0
LINE
  5
3bf
100
AcDbEntity
  8
4
100
AcDbLine
  6
CONTINUOUS
 62
40
 10
5.3584437E+002
 20
3.6891605E+002
 11
5.3584437E+002
 21
3.7691605E+002
  0
LINE
  5
3c0
100
AcDbEntity
  8
4
100
AcDbLine
  6
CONTINUOUS
 62
40
 10
5.3784437E+002
 20
3.7891605E+002
 11
5.8384437E+002
 21
3.7891605E+002
  0
LINE
  5
3c1
100
AcDbEntity
  8
4
100
AcDbLine
  6
CONTINUOUS
 62
40
 10
6.7284438E+002
 20
3.7641605E+002
 11
6.7284438E+002
 21
3.6941605E+002
  0
LINE
  5
3c2
100
AcDbEntity
  8
4
100
AcDbLine
  6
CONTINUOUS
 62
40
 10
6.7084437E+002
 20
3.6741605E+002
 11
6.1984437E+002
 21
3.6741605E+002
  0
LINE
  5
3c3
100
AcDbEntity
  8
4
100
AcDbLine
  6
CONTINUOUS
 62
40
 10
6.1784437E+002
 20
3.6941605E+002
 11
6.1784437E+002
 21
3.7641605E+002
  0
LINE
  5
3c4
100
AcDbEntity
  8
4
100
AcDbLine
  6
CONTINUOUS
 62
40
 10
6.1984437E+002
 20
3.7841605E+002
 11
6.7084437E+002
 21
3.7841605E+002
  0
LINE
  5
3c5
100
AcDbEntity
  8
4
100
AcDbLine
  6
CONTINUOUS
 62
40
 10
1.4058444E+003
 20
3.7791605E+002
 11
1.4058444E+003
 21
3.6791605E+002
  0
LINE
  5
3c6
100
AcDbEntity
  8
4
100
AcDbLine
  6
CONTINUOUS
 62
40
 10
1.4038444E+003
 20
3.6591605E+002
 11
1.3528444E+003
 21
3.6591605E+002
  0
LINE
  5
3c7
100
AcDbEntity
  8
4
100
AcDbLine
  6
CONTINUOUS
 62
40
 10
1.3508444E+003
 20
3.6791605E+002
 11
1.3508444E+003
 21
3.7791605E+002
  0
LINE
  5
3c8
100
AcDbEntity
  8
4
100
AcDbLine
  6
CONTINUOUS
 62
40
 10
1.3528444E+003
 20
3.7991605E+002
 11
1.4038444E+003
 21
3.7991605E+002
  0
LINE
  5
3c9
100
AcDbEntity
  8
4
100
AcDbLine
  6
CONTINUOUS
 62
40
 10
1.0859438E+002
 20
3.6991605E+002
 11
1.0859438E+002
 21
3.8491605E+002
  0
ARC
  5
3ca
100
AcDbEntity
  8
4
100
AcDbCircle
  6
CONTINUOUS
 62
40
 10
1.1159437E+002
 20
3.6991605E+002
 40
3.0
100
AcDbArc
 50
1.8E+002
 51
2.7E+002
  0
LINE
  5
3cb
100
AcDbEntity
  8
4
100
AcDbLine
  6
CONTINUOUS
 62
40
 10
1.5409438E+002
 20
3.6691605E+002
 11
1.1159437E+002
 21
3.6691605E+002
  0
ARC
  5
3cc
100
AcDbEntity
  8
4
100
AcDbCircle
  6
CONTINUOUS
 62
40
 10
1.5409437E+002
 20
3.6991605E+002
 40
3.0
100
AcDbArc
 50
2.7E+002
 51
3.6E+002
  0
LINE
  5
3cd
100
AcDbEntity
  8
4
100
AcDbLine
  6
CONTINUOUS
 62
40
 10
1.5709437E+002
 20
3.8491605E+002
 11
1.5709437E+002
 21
3.6991605E+002
  0
ARC
  5
3ce
100
AcDbEntity
  8
4
100
AcDbCircle
  6
CONTINUOUS
 62
40
 10
-8.6155625E+001
 20
3.7791605E+002
 40
2.0
100
AcDbArc
 50
0.0
 51
9.0E+001
  0
ARC
  5
3cf
100
AcDbEntity
  8
4
100
AcDbCircle
  6
CONTINUOUS
 62
40
 10
-8.6155625E+001
 20
3.6791605E+002
 40
2.0
100
AcDbArc
 50
2.7E+002
 51
3.6E+002
  0
ARC
  5
3d0
100
AcDbEntity
  8
4
100
AcDbCircle
  6
CONTINUOUS
 62
40
 10
-1.3715563E+002
 20
3.6791605E+002
 40
2.0
100
AcDbArc
 50
1.8E+002
 51
2.7E+002
  0
ARC
  5
3d1
100
AcDbEntity
  8
4
100
AcDbCircle
  6
CONTINUOUS
 62
40
 10
-1.3715563E+002
 20
3.7791605E+002
 40
2.0
100
AcDbArc
 50
9.0E+001
 51
1.8E+002
  0
ARC
  5
3d2
100
AcDbEntity
  8
4
100
AcDbCircle
  6
CONTINUOUS
 62
40
 10
5.8384437E+002
 20
3.7691605E+002
 40
2.0
100
AcDbArc
 50
0.0
 51
9.0E+001
  0
ARC
  5
3d3
100
AcDbEntity
  8
4
100
AcDbCircle
  6
CONTINUOUS
 62
40
 10
5.8384437E+002
 20
3.6891605E+002
 40
2.0
100
AcDbArc
 50
2.7E+002
 51
3.6E+002
  0
ARC
  5
3d4
100
AcDbEntity
  8
4
100
AcDbCircle
  6
CONTINUOUS
 62
40
 10
5.3784437E+002
 20
3.6891605E+002
 40
2.0
100
AcDbArc
 50
1.8E+002
 51
2.7E+002
  0
ARC
  5
3d5
100
AcDbEntity
  8
4
100
AcDbCircle
  6
CONTINUOUS
 62
40
 10
5.3784437E+002
 20
3.7691605E+002
 40
2.0
100
AcDbArc
 50
9.0E+001
 51
1.8E+002
  0
ARC
  5
3d6
100
AcDbEntity
  8
4
100
AcDbCircle
  6
CONTINUOUS
 62
40
 10
6.7084437E+002
 20
3.7641605E+002
 40
2.0
100
AcDbArc
 50
0.0
 51
9.0E+001
  0
ARC
  5
3d7
100
AcDbEntity
  8
4
100
AcDbCircle
  6
CONTINUOUS
 62
40
 10
6.7084437E+002
 20
3.6941605E+002
 40
2.0
100
AcDbArc
 50
2.7E+002
 51
3.6E+002
  0
ARC
  5
3d8
100
AcDbEntity
  8
4
100
AcDbCircle
  6
CONTINUOUS
 62
40
 10
6.1984437E+002
 20
3.6941605E+002
 40
2.0
100
AcDbArc
 50
1.8E+002
 51
2.7E+002
  0
ARC
  5
3d9
100
AcDbEntity
  8
4
100
AcDbCircle
  6
CONTINUOUS
 62
40
 10
6.1984437E+002
 20
3.7641605E+002
 40
2.0
100
AcDbArc
 50
9.0E+001
 51
1.8E+002
  0
ARC
  5
3da
100
AcDbEntity
  8
4
100
AcDbCircle
  6
CONTINUOUS
 62
40
 10
1.4038444E+003
 20
3.7791605E+002
 40
2.0
100
AcDbArc
 50
0.0
 51
9.0E+001
  0
ARC
  5
3db
100
AcDbEntity
  8
4
100
AcDbCircle
  6
CONTINUOUS
 62
40
 10
1.4038444E+003
 20
3.6791605E+002
 40
2.0
100
AcDbArc
 50
2.7E+002
 51
3.6E+002
  0
ARC
  5
3dc
100
AcDbEntity
  8
4
100
AcDbCircle
  6
CONTINUOUS
 62
40
 10
1.3528444E+003
 20
3.6791605E+002
 40
2.0
100
AcDbArc
 50
1.8E+002
 51
2.7E+002
  0
ARC
  5
3dd
100
AcDbEntity
  8
4
100
AcDbCircle
  6
CONTINUOUS
 62
40
 10
1.3528444E+003
 20
3.7791605E+002
 40
2.0
100
AcDbArc
 50
9.0E+001
 51
1.8E+002
  0
ARC
  5
3de
100
AcDbEntity
  8
Drafting_Hidden_Entities
100
AcDbCircle
  6
CONTINUOUS
 62
6
 10
4.8276136E+002
 20
3.7849907E+002
 40
2.4851418E-001
100
AcDbArc
 50
9.0E+001
 51
1.8E+002
  0
LINE
  5
3df
100
AcDbEntity
  8
Drafting_Hidden_Entities
100
AcDbLine
  6
CONTINUOUS
 62
6
 10
4.8276136E+002
 20
3.7874748E+002
 11
4.9392738E+002
 21
3.7874748E+002
  0
ARC
  5
3e0
100
AcDbEntity
  8
Drafting_Hidden_Entities
100
AcDbCircle
  6
CONTINUOUS
 62
6
 10
4.9392739E+002
 20
3.7849907E+002
 40
2.4851418E-001
100
AcDbArc
 50
0.0
 51
9.0E+001
  0
LINE
  5
3e1
100
AcDbEntity
  8
Drafting_Hidden_Entities
100
AcDbLine
  6
CONTINUOUS
 62
6
 10
4.9417602E+002
 20
3.7849928E+002
 11
4.9417602E+002
 21
3.6733326E+002
  0
ARC
  5
3e2
100
AcDbEntity
  8
Drafting_Hidden_Entities
100
AcDbCircle
  6
CONTINUOUS
 62
6
 10
4.9392739E+002
 20
3.6733304E+002
 40
2.4851418E-001
100
AcDbArc
 50
2.7E+002
 51
3.6E+002
  0
LINE
  5
3e3
100
AcDbEntity
  8
Drafting_Hidden_Entities
100
AcDbLine
  6
CONTINUOUS
 62
6
 10
4.9392738E+002
 20
3.6708462E+002
 11
4.8276136E+002
 21
3.6708462E+002
  0
ARC
  5
3e4
100
AcDbEntity
  8
Drafting_Hidden_Entities
100
AcDbCircle
  6
CONTINUOUS
 62
6
 10
4.8276136E+002
 20
3.6733304E+002
 40
2.4851418E-001
100
AcDbArc
 50
1.8E+002
 51
2.7E+002
  0
LINE
  5
3e5
100
AcDbEntity
  8
Drafting_Hidden_Entities
100
AcDbLine
  6
CONTINUOUS
 62
6
 10
4.8251272E+002
 20
3.7849928E+002
 11
4.8251272E+002
 21
3.6733326E+002
  0
LINE
  5
3e6
100
AcDbEntity
  8
Drafting_Hidden_Entities
100
AcDbLine
  6
CONTINUOUS
 62
6
 10
4.9114391E+002
 20
3.7053041E+002
 11
4.8966041E+002
 21
3.7053437E+002
  0
LINE
  5
3e7
100
AcDbEntity
  8
Drafting_Hidden_Entities
100
AcDbLine
  6
CONTINUOUS
 62
6
 10
4.8966041E+002
 20
3.7053437E+002
 11
4.9029368E+002
 21
3.6923615E+002
  0
ARC
  5
3e8
100
AcDbEntity
  8
Drafting_Hidden_Entities
100
AcDbCircle
  6
CONTINUOUS
 62
6
 10
4.8992188E+002
 20
3.6905498E+002
 40
4.1367942E-001
100
AcDbArc
 50
2.6563549E+002
 51
3.8599911E+002
  0
LINE
  5
3e9
100
AcDbEntity
  8
Drafting_Hidden_Entities
100
AcDbLine
  6
CONTINUOUS
 62
6
 10
4.8989057E+002
 20
3.6864248E+002
 11
4.9061142E+002
 21
3.6716471E+002
  0
LINE
  5
3ea
100
AcDbEntity
  8
Drafting_Hidden_Entities
100
AcDbLine
  6
CONTINUOUS
 62
6
 10
4.9061142E+002
 20
3.6716471E+002
 11
4.9409593E+002
 21
3.6716471E+002
  0
LINE
  5
3eb
100
AcDbEntity
  8
Drafting_Hidden_Entities
100
AcDbLine
  6
CONTINUOUS
 62
6
 10
4.9409593E+002
 20
3.6716471E+002
 11
4.9409593E+002
 21
3.7866739E+002
  0
LINE
  5
3ec
100
AcDbEntity
  8
Drafting_Hidden_Entities
100
AcDbLine
  6
CONTINUOUS
 62
6
 10
4.9409593E+002
 20
3.7866739E+002
 11
4.863867E+002
 21
3.7866739E+002
  0
LINE
  5
3ed
100
AcDbEntity
  8
Drafting_Hidden_Entities
100
AcDbLine
  6
CONTINUOUS
 62
6
 10
4.863867E+002
 20
3.7866739E+002
 11
4.8742395E+002
 21
3.7654051E+002
  0
LINE
  5
3ee
100
AcDbEntity
  8
Drafting_Hidden_Entities
100
AcDbLine
  6
CONTINUOUS
 62
6
 10
4.8742395E+002
 20
3.7654051E+002
 11
4.8900778E+002
 21
3.7653699E+002
  0
ARC
  5
3ef
100
AcDbEntity
  8
Drafting_Hidden_Entities
100
AcDbCircle
  6
CONTINUOUS
 62
6
 10
4.8900751E+002
 20
3.7596753E+002
 40
5.6937449E-001
100
AcDbArc
 50
3.2493054E+002
 51
4.4998736E+002
  0
ARC
  5
3f0
100
AcDbEntity
  8
Drafting_Hidden_Entities
100
AcDbCircle
  6
CONTINUOUS
 62
6
 10
4.8930784E+002
 20
3.750957E+002
 40
5.6932687E-001
100
AcDbArc
 50
3.1967573E+002
 51
4.3308136E+002
  0
ARC
  5
3f1
100
AcDbEntity
  8
Drafting_Hidden_Entities
100
AcDbCircle
  6
CONTINUOUS
 62
6
 10
4.8971138E+002
 20
3.7475318E+002
 40
4.0019955E-002
100
AcDbArc
 50
1.3967573E+002
 51
3.1967573E+002
  0
ARC
  5
3f2
100
AcDbEntity
  8
Drafting_Hidden_Entities
100
AcDbCircle
  6
CONTINUOUS
 62
6
 10
4.8931174E+002
 20
3.7509493E+002
 40
4.8582015E-001
100
AcDbArc
 50
3.194465E+002
 51
4.5033428E+002
  0
LINE
  5
3f3
100
AcDbEntity
  8
Drafting_Hidden_Entities
100
AcDbLine
  6
CONTINUOUS
 62
6
 10
4.8930879E+002
 20
3.7558071E+002
 11
4.8789263E+002
 21
3.7557983E+002
  0
LINE
  5
3f4
100
AcDbEntity
  8
Drafting_Hidden_Entities
100
AcDbLine
  6
CONTINUOUS
 62
6
 10
4.8789263E+002
 20
3.7557983E+002
 11
4.8852634E+002
 21
3.7428072E+002
  0
ARC
  5
3f5
100
AcDbEntity
  8
Drafting_Hidden_Entities
100
AcDbCircle
  6
CONTINUOUS
 62
6
 10
4.8815443E+002
 20
3.7409929E+002
 40
4.1367106E-001
100
AcDbArc
 50
2.6564343E+002
 51
3.8599638E+002
  0
LINE
  5
3f6
100
AcDbEntity
  8
Drafting_Hidden_Entities
100
AcDbLine
  6
CONTINUOUS
 62
6
 10
4.8812279E+002
 20
3.7368662E+002
 11
4.8918909E+002
 21
3.7150121E+002
  0
LINE
  5
3f7
100
AcDbEntity
  8
Drafting_Hidden_Entities
100
AcDbLine
  6
CONTINUOUS
 62
6
 10
4.8918909E+002
 20
3.7150121E+002
 11
4.9074432E+002
 21
3.7150121E+002
  0
ARC
  5
3f8
100
AcDbEntity
  8
Drafting_Hidden_Entities
100
AcDbCircle
  6
CONTINUOUS
 62
6
 10
4.9074447E+002
 20
3.7093198E+002
 40
5.6936376E-001
100
AcDbArc
 50
3.2403815E+002
 51
4.5000002E+002
  0
ARC
  5
3f9
100
AcDbEntity
  8
Drafting_Hidden_Entities
100
AcDbCircle
  6
CONTINUOUS
 62
6
 10
4.9104464E+002
 20
3.7005139E+002
 40
5.6937102E-001
100
AcDbArc
 50
3.1967979E+002
 51
4.3360869E+002
  0
ARC
  5
3fa
100
AcDbEntity
  8
Drafting_Hidden_Entities
100
AcDbCircle
  6
CONTINUOUS
 62
6
 10
4.9144824E+002
 20
3.6970887E+002
 40
4.0019955E-002
100
AcDbArc
 50
1.3967979E+002
 51
3.1967979E+002
  0
ARC
  5
3fb
100
AcDbEntity
  8
Drafting_Hidden_Entities
100
AcDbCircle
  6
CONTINUOUS
 62
6
 10
4.9104464E+002
 20
3.7005139E+002
 40
4.8933111E-001
100
AcDbArc
 50
3.1967979E+002
 51
4.3829331E+002
  0
LINE
  5
3fc
100
AcDbEntity
  8
Drafting_Hidden_Entities
100
AcDbLine
  6
CONTINUOUS
 62
6
 10
4.8980212E+002
 20
3.6864116E+002
 11
4.8916885E+002
 21
3.6864116E+002
  0
ARC
  5
3fd
100
AcDbEntity
  8
Drafting_Hidden_Entities
100
AcDbCircle
  6
CONTINUOUS
 62
6
 10
4.8916877E+002
 20
3.6905491E+002
 40
4.1360362E-001
100
AcDbArc
 50
2.1734742E+002
 51
2.7E+002
  0
ARC
  5
3fe
100
AcDbEntity
  8
Drafting_Hidden_Entities
100
AcDbCircle
  6
CONTINUOUS
 62
6
 10
4.8968744E+002
 20
3.6945149E+002
 40
1.0665128
100
AcDbArc
 50
1.9093627E+002
 51
2.1737627E+002
  0
ARC
  5
3ff
100
AcDbEntity
  8
Drafting_Hidden_Entities
100
AcDbCircle
  6
CONTINUOUS
 62
6
 10
4.8892409E+002
 20
3.6930413E+002
 40
2.8907245E-001
100
AcDbArc
 50
8.9991372E+001
 51
1.9095263E+002
  0
LINE
  5
400
100
AcDbEntity
  8
Drafting_Hidden_Entities
100
AcDbLine
  6
CONTINUOUS
 62
6
 10
4.8892417E+002
 20
3.6959305E+002
 11
4.8927139E+002
 21
3.6959305E+002
  0
ARC
  5
401
100
AcDbEntity
  8
Drafting_Hidden_Entities
100
AcDbCircle
  6
CONTINUOUS
 62
6
 10
4.892714E+002
 20
3.6934469E+002
 40
2.4851418E-001
100
AcDbArc
 50
2.6000841E+001
 51
9.0000001E+001
  0
LINE
  5
402
100
AcDbEntity
  8
Drafting_Hidden_Entities
100
AcDbLine
  6
CONTINUOUS
 62
6
 10
4.8949495E+002
 20
3.6945354E+002
 11
4.8984789E+002
 21
3.6872962E+002
  0
ARC
  5
403
100
AcDbEntity
  8
Drafting_Hidden_Entities
100
AcDbCircle
  6
CONTINUOUS
 62
6
 10
4.8992188E+002
 20
3.6905498E+002
 40
3.3364803E-001
100
AcDbArc
 50
2.5718844E+002
 51
3.8599712E+002
  0
LINE
  5
404
100
AcDbEntity
  8
Drafting_Hidden_Entities
100
AcDbLine
  6
CONTINUOUS
 62
6
 10
4.9022195E+002
 20
3.6920138E+002
 11
4.8957152E+002
 21
3.7053437E+002
  0
LINE
  5
405
100
AcDbEntity
  8
Drafting_Hidden_Entities
100
AcDbLine
  6
CONTINUOUS
 62
6
 10
4.8957152E+002
 20
3.7053437E+002
 11
4.8845681E+002
 21
3.7053745E+002
  0
LINE
  5
406
100
AcDbEntity
  8
Drafting_Hidden_Entities
100
AcDbLine
  6
CONTINUOUS
 62
6
 10
4.8845681E+002
 20
3.7053745E+002
 11
4.886522E+002
 21
3.6997107E+002
  0
ARC
  5
407
100
AcDbEntity
  8
Drafting_Hidden_Entities
100
AcDbCircle
  6
CONTINUOUS
 62
6
 10
4.8861421E+002
 20
3.6995797E+002
 40
4.0019955E-002
100
AcDbArc
 50
1.9899928E+002
 51
3.7899928E+002
  0
LINE
  5
408
100
AcDbEntity
  8
Drafting_Hidden_Entities
100
AcDbLine
  6
CONTINUOUS
 62
6
 10
4.8857651E+002
 20
3.6994511E+002
 11
4.8837231E+002
 21
3.7053745E+002
  0
LINE
  5
409
100
AcDbEntity
  8
Drafting_Hidden_Entities
100
AcDbLine
  6
CONTINUOUS
 62
6
 10
4.8837231E+002
 20
3.7053745E+002
 11
4.8718895E+002
 21
3.7054053E+002
  0
ARC
  5
40a
100
AcDbEntity
  8
Drafting_Hidden_Entities
100
AcDbCircle
  6
CONTINUOUS
 62
6
 10
4.8718935E+002
 20
3.7111007E+002
 40
5.6936341E-001
100
AcDbArc
 50
1.4492966E+002
 51
2.6995844E+002
  0
ARC
  5
40b
100
AcDbEntity
  8
Drafting_Hidden_Entities
100
AcDbCircle
  6
CONTINUOUS
 62
6
 10
4.8688912E+002
 20
3.7198192E+002
 40
5.6937102E-001
100
AcDbArc
 50
1.3967979E+002
 51
2.5307418E+002
  0
ARC
  5
40c
100
AcDbEntity
  8
Drafting_Hidden_Entities
100
AcDbCircle
  6
CONTINUOUS
 62
6
 10
4.8648552E+002
 20
3.7232444E+002
 40
4.0019955E-002
100
AcDbArc
 50
3.1967979E+002
 51
4.9967979E+002
  0
ARC
  5
40d
100
AcDbEntity
  8
Drafting_Hidden_Entities
100
AcDbCircle
  6
CONTINUOUS
 62
6
 10
4.868851E+002
 20
3.7198271E+002
 40
4.8575978E-001
100
AcDbArc
 50
1.3944383E+002
 51
2.7047422E+002
  0
LINE
  5
40e
100
AcDbEntity
  8
Drafting_Hidden_Entities
100
AcDbLine
  6
CONTINUOUS
 62
6
 10
4.8688926E+002
 20
3.7149681E+002
 11
4.8804006E+002
 21
3.7150253E+002
  0
LINE
  5
40f
100
AcDbEntity
  8
Drafting_Hidden_Entities
100
AcDbLine
  6
CONTINUOUS
 62
6
 10
4.8804006E+002
 20
3.7150253E+002
 11
4.8776149E+002
 21
3.7231139E+002
  0
ARC
  5
410
100
AcDbEntity
  8
Drafting_Hidden_Entities
100
AcDbCircle
  6
CONTINUOUS
 62
6
 10
4.8779941E+002
 20
3.7232444E+002
 40
4.0019955E-002
100
AcDbArc
 50
1.8999285E+001
 51
1.9899928E+002
  0
LINE
  5
411
100
AcDbEntity
  8
Drafting_Hidden_Entities
100
AcDbLine
  6
CONTINUOUS
 62
6
 10
4.8783718E+002
 20
3.7233735E+002
 11
4.8812499E+002
 21
3.7150121E+002
  0
LINE
  5
412
100
AcDbEntity
  8
Drafting_Hidden_Entities
100
AcDbLine
  6
CONTINUOUS
 62
6
 10
4.8812499E+002
 20
3.7150121E+002
 11
4.8909976E+002
 21
3.7150121E+002
  0
LINE
  5
413
100
AcDbEntity
  8
Drafting_Hidden_Entities
100
AcDbLine
  6
CONTINUOUS
 62
6
 10
4.8909976E+002
 20
3.7150121E+002
 11
4.8803434E+002
 21
3.7368574E+002
  0
LINE
  5
414
100
AcDbEntity
  8
Drafting_Hidden_Entities
100
AcDbLine
  6
CONTINUOUS
 62
6
 10
4.8803434E+002
 20
3.7368574E+002
 11
4.8743848E+002
 21
3.7368574E+002
  0
ARC
  5
415
100
AcDbEntity
  8
Drafting_Hidden_Entities
100
AcDbCircle
  6
CONTINUOUS
 62
6
 10
4.8743174E+002
 20
3.7409906E+002
 40
4.1352588E-001
100
AcDbArc
 50
2.1734476E+002
 51
2.7093746E+002
  0
ARC
  5
416
100
AcDbEntity
  8
Drafting_Hidden_Entities
100
AcDbCircle
  6
CONTINUOUS
 62
6
 10
4.8795178E+002
 20
3.7449611E+002
 40
1.0678095
100
AcDbArc
 50
1.9094616E+002
 51
2.1735362E+002
  0
ARC
  5
417
100
AcDbEntity
  8
Drafting_Hidden_Entities
100
AcDbCircle
  6
CONTINUOUS
 62
6
 10
4.8718723E+002
 20
3.7434839E+002
 40
2.8912422E-001
100
AcDbArc
 50
9.0E+001
 51
1.9096351E+002
  0
LINE
  5
418
100
AcDbEntity
  8
Drafting_Hidden_Entities
100
AcDbLine
  6
CONTINUOUS
 62
6
 10
4.8718719E+002
 20
3.7463762E+002
 11
4.8750405E+002
 21
3.7463762E+002
  0
ARC
  5
419
100
AcDbEntity
  8
Drafting_Hidden_Entities
100
AcDbCircle
  6
CONTINUOUS
 62
6
 10
4.8750403E+002
 20
3.74389E+002
 40
2.4851418E-001
100
AcDbArc
 50
2.6000226E+001
 51
9.0E+001
  0
LINE
  5
41a
100
AcDbEntity
  8
Drafting_Hidden_Entities
100
AcDbLine
  6
CONTINUOUS
 62
6
 10
4.877276E+002
 20
3.7449812E+002
 11
4.8808054E+002
 21
3.7377376E+002
  0
ARC
  5
41b
100
AcDbEntity
  8
Drafting_Hidden_Entities
100
AcDbCircle
  6
CONTINUOUS
 62
6
 10
4.8815444E+002
 20
3.7409928E+002
 40
3.3362486E-001
100
AcDbArc
 50
2.5719791E+002
 51
3.8599552E+002
  0
LINE
  5
41c
100
AcDbEntity
  8
Drafting_Hidden_Entities
100
AcDbLine
  6
CONTINUOUS
 62
6
 10
4.8845417E+002
 20
3.7424552E+002
 11
4.8780374E+002
 21
3.7557983E+002
  0
LINE
  5
41d
100
AcDbEntity
  8
Drafting_Hidden_Entities
100
AcDbLine
  6
CONTINUOUS
 62
6
 10
4.8780374E+002
 20
3.7557983E+002
 11
4.8671983E+002
 21
3.7558203E+002
  0
LINE
  5
41e
100
AcDbEntity
  8
Drafting_Hidden_Entities
100
AcDbLine
  6
CONTINUOUS
 62
6
 10
4.8671983E+002
 20
3.7558203E+002
 11
4.8691523E+002
 21
3.7501521E+002
  0
ARC
  5
41f
100
AcDbEntity
  8
Drafting_Hidden_Entities
100
AcDbCircle
  6
CONTINUOUS
 62
6
 10
4.8687735E+002
 20
3.7500228E+002
 40
4.0019955E-002
100
AcDbArc
 50
1.9900079E+002
 51
3.7900079E+002
  0
LINE
  5
420
100
AcDbEntity
  8
Drafting_Hidden_Entities
100
AcDbLine
  6
CONTINUOUS
 62
6
 10
4.8683953E+002
 20
3.7498924E+002
 11
4.8663534E+002
 21
3.7558247E+002
  0
LINE
  5
421
100
AcDbEntity
  8
Drafting_Hidden_Entities
100
AcDbLine
  6
CONTINUOUS
 62
6
 10
4.8663534E+002
 20
3.7558247E+002
 11
4.8545198E+002
 21
3.7558511E+002
  0
ARC
  5
422
100
AcDbEntity
  8
Drafting_Hidden_Entities
100
AcDbCircle
  6
CONTINUOUS
 62
6
 10
4.8545243E+002
 20
3.7615438E+002
 40
5.6936411E-001
100
AcDbArc
 50
1.4492503E+002
 51
2.6996445E+002
  0
ARC
  5
423
100
AcDbEntity
  8
Drafting_Hidden_Entities
100
AcDbCircle
  6
CONTINUOUS
 62
6
 10
4.851522E+002
 20
3.7702623E+002
 40
5.6932687E-001
100
AcDbArc
 50
1.3967573E+002
 51
2.5307543E+002
  0
ARC
  5
424
100
AcDbEntity
  8
Drafting_Hidden_Entities
100
AcDbCircle
  6
CONTINUOUS
 62
6
 10
4.8474866E+002
 20
3.7736875E+002
 40
4.0019955E-002
100
AcDbArc
 50
3.1967573E+002
 51
4.9967573E+002
  0
ARC
  5
425
100
AcDbEntity
  8
Drafting_Hidden_Entities
100
AcDbCircle
  6
CONTINUOUS
 62
6
 10
4.8514827E+002
 20
3.77027E+002
 40
4.85798E-001
100
AcDbArc
 50
1.3944513E+002
 51
2.7033618E+002
  0
LINE
  5
426
100
AcDbEntity
  8
Drafting_Hidden_Entities
100
AcDbLine
  6
CONTINUOUS
 62
6
 10
4.8515097E+002
 20
3.7654139E+002
 11
4.8630396E+002
 21
3.7654403E+002
  0
LINE
  5
427
100
AcDbEntity
  8
Drafting_Hidden_Entities
100
AcDbLine
  6
CONTINUOUS
 62
6
 10
4.8630396E+002
 20
3.7654403E+002
 11
4.8602452E+002
 21
3.7735553E+002
  0
ARC
  5
428
100
AcDbEntity
  8
Drafting_Hidden_Entities
100
AcDbCircle
  6
CONTINUOUS
 62
6
 10
4.8606247E+002
 20
3.7736875E+002
 40
4.0019955E-002
100
AcDbArc
 50
1.9000789E+001
 51
1.9900079E+002
  0
LINE
  5
429
100
AcDbEntity
  8
Drafting_Hidden_Entities
100
AcDbLine
  6
CONTINUOUS
 62
6
 10
4.8610021E+002
 20
3.7738193E+002
 11
4.8638934E+002
 21
3.7654271E+002
  0
LINE
  5
42a
100
AcDbEntity
  8
Drafting_Hidden_Entities
100
AcDbLine
  6
CONTINUOUS
 62
6
 10
4.8638934E+002
 20
3.7654271E+002
 11
4.8733506E+002
 21
3.7654051E+002
  0
LINE
  5
42b
100
AcDbEntity
  8
Drafting_Hidden_Entities
100
AcDbLine
  6
CONTINUOUS
 62
6
 10
4.8733506E+002
 20
3.7654051E+002
 11
4.8629736E+002
 21
3.7866739E+002
  0
LINE
  5
42c
100
AcDbEntity
  8
Drafting_Hidden_Entities
100
AcDbLine
  6
CONTINUOUS
 62
6
 10
4.8629736E+002
 20
3.7866739E+002
 11
4.8259281E+002
 21
3.7866739E+002
  0
LINE
  5
42d
100
AcDbEntity
  8
Drafting_Hidden_Entities
100
AcDbLine
  6
CONTINUOUS
 62
6
 10
4.8259281E+002
 20
3.7866739E+002
 11
4.8259281E+002
 21
3.6716471E+002
  0
LINE
  5
42e
100
AcDbEntity
  8
Drafting_Hidden_Entities
100
AcDbLine
  6
CONTINUOUS
 62
6
 10
4.8259281E+002
 20
3.6716471E+002
 11
4.9052208E+002
 21
3.6716471E+002
  0
LINE
  5
42f
100
AcDbEntity
  8
Drafting_Hidden_Entities
100
AcDbLine
  6
CONTINUOUS
 62
6
 10
4.9052208E+002
 20
3.6716471E+002
 11
4.8980212E+002
 21
3.6864116E+002
  0
LINE
  5
430
100
AcDbEntity
  8
Drafting_Hidden_Entities
100
AcDbLine
  6
CONTINUOUS
 62
6
 10
4.8976295E+002
 20
3.6872126E+002
 11
4.8937657E+002
 21
3.6951295E+002
  0
LINE
  5
431
100
AcDbEntity
  8
Drafting_Hidden_Entities
100
AcDbLine
  6
CONTINUOUS
 62
6
 10
4.8937657E+002
 20
3.6951295E+002
 11
4.8892417E+002
 21
3.6951295E+002
  0
ARC
  5
432
100
AcDbEntity
  8
Drafting_Hidden_Entities
100
AcDbCircle
  6
CONTINUOUS
 62
6
 10
4.8892386E+002
 20
3.6930432E+002
 40
2.0884059E-001
100
AcDbArc
 50
8.9907261E+001
 51
1.9102968E+002
  0
ARC
  5
433
100
AcDbEntity
  8
Drafting_Hidden_Entities
100
AcDbCircle
  6
CONTINUOUS
 62
6
 10
4.8968717E+002
 20
3.6945137E+002
 40
9.8618349E-001
100
AcDbArc
 50
1.9093097E+002
 51
2.17387E+002
  0
ARC
  5
434
100
AcDbEntity
  8
Drafting_Hidden_Entities
100
AcDbCircle
  6
CONTINUOUS
 62
6
 10
4.8916877E+002
 20
3.690549E+002
 40
3.3355548E-001
100
AcDbArc
 50
2.1734459E+002
 51
2.7000055E+002
  0
LINE
  5
435
100
AcDbEntity
  8
Drafting_Hidden_Entities
100
AcDbLine
  6
CONTINUOUS
 62
6
 10
4.8916885E+002
 20
3.6872126E+002
 11
4.8976295E+002
 21
3.6872126E+002
  0
LINE
  5
436
100
AcDbEntity
  8
Drafting_Hidden_Entities
100
AcDbLine
  6
CONTINUOUS
 62
6
 10
4.8953235E+002
 20
3.706149E+002
 11
4.8913893E+002
 21
3.7142112E+002
  0
LINE
  5
437
100
AcDbEntity
  8
Drafting_Hidden_Entities
100
AcDbLine
  6
CONTINUOUS
 62
6
 10
4.8913893E+002
 20
3.7142112E+002
 11
4.8815272E+002
 21
3.7142112E+002
  0
LINE
  5
438
100
AcDbEntity
  8
Drafting_Hidden_Entities
100
AcDbLine
  6
CONTINUOUS
 62
6
 10
4.8815272E+002
 20
3.7142112E+002
 11
4.8842952E+002
 21
3.7061754E+002
  0
LINE
  5
439
100
AcDbEntity
  8
Drafting_Hidden_Entities
100
AcDbLine
  6
CONTINUOUS
 62
6
 10
4.8842952E+002
 20
3.7061754E+002
 11
4.8953235E+002
 21
3.706149E+002
  0
LINE
  5
43a
100
AcDbEntity
  8
Drafting_Hidden_Entities
100
AcDbLine
  6
CONTINUOUS
 62
6
 10
4.8834459E+002
 20
3.7061798E+002
 11
4.8806822E+002
 21
3.7142112E+002
  0
LINE
  5
43b
100
AcDbEntity
  8
Drafting_Hidden_Entities
100
AcDbLine
  6
CONTINUOUS
 62
6
 10
4.8806822E+002
 20
3.7142112E+002
 11
4.8681181E+002
 21
3.7142112E+002
  0
ARC
  5
43c
100
AcDbEntity
  8
Drafting_Hidden_Entities
100
AcDbCircle
  6
CONTINUOUS
 62
6
 10
4.8718935E+002
 20
3.7111007E+002
 40
4.8932387E-001
100
AcDbArc
 50
1.4050204E+002
 51
2.6994935E+002
  0
LINE
  5
43d
100
AcDbEntity
  8
Drafting_Hidden_Entities
100
AcDbLine
  6
CONTINUOUS
 62
6
 10
4.8718895E+002
 20
3.7062062E+002
 11
4.8834459E+002
 21
3.7061798E+002
  0
LINE
  5
43e
100
AcDbEntity
  8
Drafting_Hidden_Entities
100
AcDbLine
  6
CONTINUOUS
 62
6
 10
4.8962169E+002
 20
3.7061446E+002
 11
4.9111354E+002
 21
3.706105E+002
  0
ARC
  5
43f
100
AcDbEntity
  8
Drafting_Hidden_Entities
100
AcDbCircle
  6
CONTINUOUS
 62
6
 10
4.9074447E+002
 20
3.7093198E+002
 40
4.8932405E-001
100
AcDbArc
 50
3.1895495E+002
 51
4.4999997E+002
  0
LINE
  5
440
100
AcDbEntity
  8
Drafting_Hidden_Entities
100
AcDbLine
  6
CONTINUOUS
 62
6
 10
4.9074432E+002
 20
3.7142112E+002
 11
4.8922782E+002
 21
3.7142112E+002
  0
LINE
  5
441
100
AcDbEntity
  8
Drafting_Hidden_Entities
100
AcDbLine
  6
CONTINUOUS
 62
6
 10
4.8922782E+002
 20
3.7142112E+002
 11
4.8962169E+002
 21
3.7061446E+002
  0
LINE
  5
442
100
AcDbEntity
  8
Drafting_Hidden_Entities
100
AcDbLine
  6
CONTINUOUS
 62
6
 10
4.8746312E+002
 20
3.7646042E+002
 11
4.8785347E+002
 21
3.7565992E+002
  0
LINE
  5
443
100
AcDbEntity
  8
Drafting_Hidden_Entities
100
AcDbLine
  6
CONTINUOUS
 62
6
 10
4.8785347E+002
 20
3.7565992E+002
 11
4.8938537E+002
 21
3.756564E+002
  0
ARC
  5
444
100
AcDbEntity
  8
Drafting_Hidden_Entities
100
AcDbCircle
  6
CONTINUOUS
 62
6
 10
4.8900755E+002
 20
3.7596755E+002
 40
4.8931743E-001
100
AcDbArc
 50
3.20511E+002
 51
4.5E+002
  0
LINE
  5
445
100
AcDbEntity
  8
Drafting_Hidden_Entities
100
AcDbLine
  6
CONTINUOUS
 62
6
 10
4.8900734E+002
 20
3.7645689E+002
 11
4.8746312E+002
 21
3.7646042E+002
  0
LINE
  5
446
100
AcDbEntity
  8
Drafting_Hidden_Entities
100
AcDbLine
  6
CONTINUOUS
 62
6
 10
4.8669255E+002
 20
3.7566212E+002
 11
4.8776457E+002
 21
3.7565992E+002
  0
LINE
  5
447
100
AcDbEntity
  8
Drafting_Hidden_Entities
100
AcDbLine
  6
CONTINUOUS
 62
6
 10
4.8776457E+002
 20
3.7565992E+002
 11
4.8737422E+002
 21
3.7646042E+002
  0
LINE
  5
448
100
AcDbEntity
  8
Drafting_Hidden_Entities
100
AcDbLine
  6
CONTINUOUS
 62
6
 10
4.8737422E+002
 20
3.7646042E+002
 11
4.8641662E+002
 21
3.7646262E+002
  0
LINE
  5
449
100
AcDbEntity
  8
Drafting_Hidden_Entities
100
AcDbLine
  6
CONTINUOUS
 62
6
 10
4.8641662E+002
 20
3.7646262E+002
 11
4.8669255E+002
 21
3.7566212E+002
  0
ARC
  5
44a
100
AcDbEntity
  8
Drafting_Hidden_Entities
100
AcDbCircle
  6
CONTINUOUS
 62
6
 10
4.8545243E+002
 20
3.7615437E+002
 40
4.893259E-001
100
AcDbArc
 50
1.4050319E+002
 51
2.6995655E+002
  0
LINE
  5
44b
100
AcDbEntity
  8
Drafting_Hidden_Entities
100
AcDbLine
  6
CONTINUOUS
 62
6
 10
4.8545198E+002
 20
3.756652E+002
 11
4.8660761E+002
 21
3.7566256E+002
  0
LINE
  5
44c
100
AcDbEntity
  8
Drafting_Hidden_Entities
100
AcDbLine
  6
CONTINUOUS
 62
6
 10
4.8660761E+002
 20
3.7566256E+002
 11
4.8633213E+002
 21
3.7646262E+002
  0
LINE
  5
44d
100
AcDbEntity
  8
Drafting_Hidden_Entities
100
AcDbLine
  6
CONTINUOUS
 62
6
 10
4.8633213E+002
 20
3.7646262E+002
 11
4.8507483E+002
 21
3.764657E+002
  0
LINE
  5
44e
100
AcDbEntity
  8
Drafting_Hidden_Entities
100
AcDbLine
  6
CONTINUOUS
 62
6
 10
4.8799561E+002
 20
3.7376584E+002
 11
4.8760922E+002
 21
3.7455753E+002
  0
LINE
  5
44f
100
AcDbEntity
  8
Drafting_Hidden_Entities
100
AcDbLine
  6
CONTINUOUS
 62
6
 10
4.8760922E+002
 20
3.7455753E+002
 11
4.8718719E+002
 21
3.7455753E+002
  0
ARC
  5
450
100
AcDbEntity
  8
Drafting_Hidden_Entities
100
AcDbCircle
  6
CONTINUOUS
 62
6
 10
4.87187E+002
 20
3.7434858E+002
 40
2.0888696E-001
100
AcDbArc
 50
8.9934543E+001
 51
1.9103357E+002
  0
ARC
  5
451
100
AcDbEntity
  8
Drafting_Hidden_Entities
100
AcDbCircle
  6
CONTINUOUS
 62
6
 10
4.8795134E+002
 20
3.7449591E+002
 40
9.8730015E-001
100
AcDbArc
 50
1.9093622E+002
 51
2.1735537E+002
  0
ARC
  5
452
100
AcDbEntity
  8
Drafting_Hidden_Entities
100
AcDbCircle
  6
CONTINUOUS
 62
6
 10
4.8742976E+002
 20
3.7409493E+002
 40
3.2940632E-001
100
AcDbArc
 50
2.1696212E+002
 51
2.7109149E+002
  0
LINE
  5
453
100
AcDbEntity
  8
Drafting_Hidden_Entities
100
AcDbLine
  6
CONTINUOUS
 62
6
 10
4.8743584E+002
 20
3.737654E+002
 11
4.8799561E+002
 21
3.7376584E+002
  0
LINE
  5
454
100
AcDbEntity
  8
Drafting_Hidden_Entities
100
AcDbLine
  6
CONTINUOUS
 62
6
 10
4.8743584E+002
 20
3.7393395E+002
 11
4.8772584E+002
 21
3.7393395E+002
  0
LINE
  5
455
100
AcDbEntity
  8
Drafting_Hidden_Entities
100
AcDbLine
  6
CONTINUOUS
 62
6
 10
4.8799561E+002
 20
3.7376584E+002
 11
4.8772584E+002
 21
3.7393395E+002
  0
LINE
  5
456
100
AcDbEntity
  8
Drafting_Hidden_Entities
100
AcDbLine
  6
CONTINUOUS
 62
6
 10
4.8743584E+002
 20
3.7393395E+002
 11
4.8743584E+002
 21
3.737654E+002
  0
ARC
  5
457
100
AcDbEntity
  8
Drafting_Hidden_Entities
100
AcDbCircle
  6
CONTINUOUS
 62
6
 10
4.8743184E+002
 20
3.7409914E+002
 40
1.6513915E-001
100
AcDbArc
 50
2.1732506E+002
 51
2.7144669E+002
  0
LINE
  5
458
100
AcDbEntity
  8
Drafting_Hidden_Entities
100
AcDbLine
  6
CONTINUOUS
 62
6
 10
4.8730073E+002
 20
3.7399908E+002
 11
4.8716651E+002
 21
3.7389698E+002
  0
ARC
  5
459
100
AcDbEntity
  8
Drafting_Hidden_Entities
100
AcDbCircle
  6
CONTINUOUS
 62
6
 10
4.8795154E+002
 20
3.74496E+002
 40
8.1903358E-001
100
AcDbArc
 50
1.9093905E+002
 51
2.1735819E+002
  0
LINE
  5
45a
100
AcDbEntity
  8
Drafting_Hidden_Entities
100
AcDbLine
  6
CONTINUOUS
 62
6
 10
4.8714759E+002
 20
3.7434057E+002
 11
4.8698212E+002
 21
3.7430845E+002
  0
ARC
  5
45b
100
AcDbEntity
  8
Drafting_Hidden_Entities
100
AcDbCircle
  6
CONTINUOUS
 62
6
 10
4.8718723E+002
 20
3.7434839E+002
 40
4.0604367E-002
100
AcDbArc
 50
8.9998299E+001
 51
1.9109732E+002
  0
LINE
  5
45c
100
AcDbEntity
  8
Drafting_Hidden_Entities
100
AcDbLine
  6
CONTINUOUS
 62
6
 10
4.8718719E+002
 20
3.7438898E+002
 11
4.8718719E+002
 21
3.7455753E+002
  0
LINE
  5
45d
100
AcDbEntity
  8
Drafting_Hidden_Entities
100
AcDbLine
  6
CONTINUOUS
 62
6
 10
4.8750405E+002
 20
3.7438898E+002
 11
4.8718719E+002
 21
3.7438898E+002
  0
LINE
  5
45e
100
AcDbEntity
  8
Drafting_Hidden_Entities
100
AcDbLine
  6
CONTINUOUS
 62
6
 10
4.8750405E+002
 20
3.7438898E+002
 11
4.8760922E+002
 21
3.7455753E+002
  0
LINE
  5
45f
100
AcDbEntity
  8
Drafting_Hidden_Entities
100
AcDbLine
  6
CONTINUOUS
 62
6
 10
4.8772584E+002
 20
3.7393395E+002
 11
4.8750405E+002
 21
3.7438898E+002
  0
LINE
  5
460
100
AcDbEntity
  8
Drafting_Hidden_Entities
100
AcDbLine
  6
CONTINUOUS
 62
6
 10
4.8621199E+002
 20
3.7629451E+002
 11
4.8516505E+002
 21
3.7629715E+002
  0
POLYLINE
  5
461
100
AcDbEntity
  8
Drafting_Hidden_Entities
100
AcDb2dPolyline
  6
CONTINUOUS
 62
6
 66
1
 40
0.0
 41
0.0
 70
2
  0
VERTEX
  5
462
100
AcDbEntity
  8
Drafting_Hidden_Entities
100
AcDbVertex
100
AcDb2dVertex
 42
0.0
 10
4.8507483E+002
 20
3.764657E+002
 70
0
  0
VERTEX
  5
463
100
AcDbEntity
  8
Drafting_Hidden_Entities
100
AcDbVertex
100
AcDb2dVertex
 42
7.852539E-004
 10
4.8507784E+002
 20
3.7645933E+002
 70
1
  0
VERTEX
  5
464
100
AcDbEntity
  8
Drafting_Hidden_Entities
100
AcDbVertex
100
AcDb2dVertex
 42
7.955211E-004
 10
4.8508084E+002
 20
3.7645302E+002
 70
0
  0
VERTEX
  5
465
100
AcDbEntity
  8
Drafting_Hidden_Entities
100
AcDbVertex
100
AcDb2dVertex
 42
8.064112E-004
 10
4.8508385E+002
 20
3.7644675E+002
 70
1
  0
VERTEX
  5
466
100
AcDbEntity
  8
Drafting_Hidden_Entities
100
AcDbVertex
100
AcDb2dVertex
 42
8.170607E-004
 10
4.8508685E+002
 20
3.7644054E+002
 70
0
  0
VERTEX
  5
467
100
AcDbEntity
  8
Drafting_Hidden_Entities
100
AcDbVertex
100
AcDb2dVertex
 42
8.283657E-004
 10
4.8508985E+002
 20
3.7643438E+002
 70
1
  0
VERTEX
  5
468
100
AcDbEntity
  8
Drafting_Hidden_Entities
100
AcDbVertex
100
AcDb2dVertex
 42
8.394302E-004
 10
4.8509286E+002
 20
3.7642827E+002
 70
0
  0
VERTEX
  5
469
100
AcDbEntity
  8
Drafting_Hidden_Entities
100
AcDbVertex
100
AcDb2dVertex
 42
8.511481E-004
 10
4.8509586E+002
 20
3.7642222E+002
 70
1
  0
VERTEX
  5
46a
100
AcDbEntity
  8
Drafting_Hidden_Entities
100
AcDbVertex
100
AcDb2dVertex
 42
8.625891E-004
 10
4.8509887E+002
 20
3.7641621E+002
 70
0
  0
VERTEX
  5
46b
100
AcDbEntity
  8
Drafting_Hidden_Entities
100
AcDbVertex
100
AcDb2dVertex
 42
8.748164E-004
 10
4.8510188E+002
 20
3.7641026E+002
 70
1
  0
VERTEX
  5
46c
100
AcDbEntity
  8
Drafting_Hidden_Entities
100
AcDbVertex
100
AcDb2dVertex
 42
8.868636E-004
 10
4.8510488E+002
 20
3.7640436E+002
 70
0
  0
VERTEX
  5
46d
100
AcDbEntity
  8
Drafting_Hidden_Entities
100
AcDbVertex
100
AcDb2dVertex
 42
8.993356E-004
 10
4.8510789E+002
 20
3.7639851E+002
 70
1
  0
VERTEX
  5
46e
100
AcDbEntity
  8
Drafting_Hidden_Entities
100
AcDbVertex
100
AcDb2dVertex
 42
9.112413E-004
 10
4.8511089E+002
 20
3.7639271E+002
 70
0
  0
VERTEX
  5
46f
100
AcDbEntity
  8
Drafting_Hidden_Entities
100
AcDbVertex
100
AcDb2dVertex
 42
9.25026E-004
 10
4.851139E+002
 20
3.7638696E+002
 70
1
  0
VERTEX
  5
470
100
AcDbEntity
  8
Drafting_Hidden_Entities
100
AcDbVertex
100
AcDb2dVertex
 42
9.39574E-004
 10
4.8511691E+002
 20
3.7638126E+002
 70
0
  0
VERTEX
  5
471
100
AcDbEntity
  8
Drafting_Hidden_Entities
100
AcDbVertex
100
AcDb2dVertex
 42
9.508998E-004
 10
4.8511992E+002
 20
3.7637562E+002
 70
1
  0
VERTEX
  5
472
100
AcDbEntity
  8
Drafting_Hidden_Entities
100
AcDbVertex
100
AcDb2dVertex
 42
9.583241E-004
 10
4.8512292E+002
 20
3.7637003E+002
 70
0
  0
VERTEX
  5
473
100
AcDbEntity
  8
Drafting_Hidden_Entities
100
AcDbVertex
100
AcDb2dVertex
 42
9.807791E-004
 10
4.8512593E+002
 20
3.7636449E+002
 70
1
  0
VERTEX
  5
474
100
AcDbEntity
  8
Drafting_Hidden_Entities
100
AcDbVertex
100
AcDb2dVertex
 42
1.015024E-003
 10
4.8512894E+002
 20
3.76359E+002
 70
0
  0
VERTEX
  5
475
100
AcDbEntity
  8
Drafting_Hidden_Entities
100
AcDbVertex
100
AcDb2dVertex
 42
1.0010671E-003
 10
4.8513195E+002
 20
3.7635355E+002
 70
1
  0
VERTEX
  5
476
100
AcDbEntity
  8
Drafting_Hidden_Entities
100
AcDbVertex
100
AcDb2dVertex
 42
9.475944E-004
 10
4.8513495E+002
 20
3.7634817E+002
 70
0
  0
VERTEX
  5
477
100
AcDbEntity
  8
Drafting_Hidden_Entities
100
AcDbVertex
100
AcDb2dVertex
 42
1.0607577E-003
 10
4.8513794E+002
 20
3.7634288E+002
 70
1
  0
VERTEX
  5
478
100
AcDbEntity
  8
Drafting_Hidden_Entities
100
AcDbVertex
100
AcDb2dVertex
 42
1.2850492E-003
 10
4.8514097E+002
 20
3.7633755E+002
 70
0
  0
VERTEX
  5
479
100
AcDbEntity
  8
Drafting_Hidden_Entities
100
AcDbVertex
100
AcDb2dVertex
 42
9.923506E-004
 10
4.8514407E+002
 20
3.7633217E+002
 70
1
  0
VERTEX
  5
47a
100
AcDbEntity
  8
Drafting_Hidden_Entities
100
AcDbVertex
100
AcDb2dVertex
 42
3.438542E-004
 10
4.8514699E+002
 20
3.7632714E+002
 70
0
  0
VERTEX
  5
47b
100
AcDbEntity
  8
Drafting_Hidden_Entities
100
AcDbVertex
100
AcDb2dVertex
 42
1.4239066E-003
 10
4.8514962E+002
 20
3.7632263E+002
 70
1
  0
VERTEX
  5
47c
100
AcDbEntity
  8
Drafting_Hidden_Entities
100
AcDbVertex
100
AcDb2dVertex
 42
2.5225668E-003
 10
4.8515301E+002
 20
3.7631694E+002
 70
0
  0
VERTEX
  5
47d
100
AcDbEntity
  8
Drafting_Hidden_Entities
100
AcDbVertex
100
AcDb2dVertex
 42
1.2658273E-003
 10
4.8515822E+002
 20
3.7630833E+002
 70
1
  0
VERTEX
  5
47e
100
AcDbEntity
  8
Drafting_Hidden_Entities
100
AcDbVertex
100
AcDb2dVertex
 42
6.788953E-004
 10
4.8516505E+002
 20
3.7629715E+002
 70
0
  0
SEQEND
  5
47f
100
AcDbEntity
  0
LINE
  5
480
100
AcDbEntity
  8
Drafting_Hidden_Entities
100
AcDbLine
  6
CONTINUOUS
 62
6
 10
4.8621199E+002
 20
3.7629451E+002
 11
4.8633213E+002
 21
3.7646262E+002
  0
LINE
  5
481
100
AcDbEntity
  8
Drafting_Hidden_Entities
100
AcDbLine
  6
CONTINUOUS
 62
6
 10
4.8637129E+002
 20
3.7583155E+002
 11
4.8621199E+002
 21
3.7629451E+002
  0
LINE
  5
482
100
AcDbEntity
  8
Drafting_Hidden_Entities
100
AcDbLine
  6
CONTINUOUS
 62
6
 10
4.8637129E+002
 20
3.7583155E+002
 11
4.8660761E+002
 21
3.7566256E+002
  0
LINE
  5
483
100
AcDbEntity
  8
Drafting_Hidden_Entities
100
AcDbLine
  6
CONTINUOUS
 62
6
 10
4.8545242E+002
 20
3.7583331E+002
 11
4.8637129E+002
 21
3.7583155E+002
  0
LINE
  5
484
100
AcDbEntity
  8
Drafting_Hidden_Entities
100
AcDbLine
  6
CONTINUOUS
 62
6
 10
4.8545242E+002
 20
3.7583331E+002
 11
4.8545198E+002
 21
3.756652E+002
  0
ARC
  5
485
100
AcDbEntity
  8
Drafting_Hidden_Entities
100
AcDbCircle
  6
CONTINUOUS
 62
6
 10
4.8545243E+002
 20
3.7615437E+002
 40
3.2085183E-001
100
AcDbArc
 50
1.5362161E+002
 51
2.7E+002
  0
LINE
  5
486
100
AcDbEntity
  8
Drafting_Hidden_Entities
100
AcDbLine
  6
CONTINUOUS
 62
6
 10
4.8665338E+002
 20
3.7629363E+002
 11
4.8681269E+002
 21
3.7583067E+002
  0
LINE
  5
487
100
AcDbEntity
  8
Drafting_Hidden_Entities
100
AcDbLine
  6
CONTINUOUS
 62
6
 10
4.8669255E+002
 20
3.7566212E+002
 11
4.8681269E+002
 21
3.7583067E+002
  0
LINE
  5
488
100
AcDbEntity
  8
Drafting_Hidden_Entities
100
AcDbLine
  6
CONTINUOUS
 62
6
 10
4.8665338E+002
 20
3.7629363E+002
 11
4.8641662E+002
 21
3.7646262E+002
  0
LINE
  5
489
100
AcDbEntity
  8
Drafting_Hidden_Entities
100
AcDbLine
  6
CONTINUOUS
 62
6
 10
4.8726861E+002
 20
3.7629231E+002
 11
4.8665338E+002
 21
3.7629363E+002
  0
LINE
  5
48a
100
AcDbEntity
  8
Drafting_Hidden_Entities
100
AcDbLine
  6
CONTINUOUS
 62
6
 10
4.8726861E+002
 20
3.7629231E+002
 11
4.8737422E+002
 21
3.7646042E+002
  0
LINE
  5
48b
100
AcDbEntity
  8
Drafting_Hidden_Entities
100
AcDbLine
  6
CONTINUOUS
 62
6
 10
4.8749437E+002
 20
3.7582891E+002
 11
4.8726861E+002
 21
3.7629231E+002
  0
LINE
  5
48c
100
AcDbEntity
  8
Drafting_Hidden_Entities
100
AcDbLine
  6
CONTINUOUS
 62
6
 10
4.8749437E+002
 20
3.7582891E+002
 11
4.8776457E+002
 21
3.7565992E+002
  0
LINE
  5
48d
100
AcDbEntity
  8
Drafting_Hidden_Entities
100
AcDbLine
  6
CONTINUOUS
 62
6
 10
4.8681269E+002
 20
3.7583067E+002
 11
4.8749437E+002
 21
3.7582891E+002
  0
LINE
  5
48e
100
AcDbEntity
  8
Drafting_Hidden_Entities
100
AcDbLine
  6
CONTINUOUS
 62
6
 10
4.8773289E+002
 20
3.7629143E+002
 11
4.8795908E+002
 21
3.7582803E+002
  0
LINE
  5
48f
100
AcDbEntity
  8
Drafting_Hidden_Entities
100
AcDbLine
  6
CONTINUOUS
 62
6
 10
4.8785347E+002
 20
3.7565992E+002
 11
4.8795908E+002
 21
3.7582803E+002
  0
LINE
  5
490
100
AcDbEntity
  8
Drafting_Hidden_Entities
100
AcDbLine
  6
CONTINUOUS
 62
6
 10
4.8773289E+002
 20
3.7629143E+002
 11
4.8746312E+002
 21
3.7646042E+002
  0
LINE
  5
491
100
AcDbEntity
  8
Drafting_Hidden_Entities
100
AcDbLine
  6
CONTINUOUS
 62
6
 10
4.8795908E+002
 20
3.7582803E+002
 11
4.8929515E+002
 21
3.7582495E+002
  0
POLYLINE
  5
492
100
AcDbEntity
  8
Drafting_Hidden_Entities
100
AcDb2dPolyline
  6
CONTINUOUS
 62
6
 66
1
 40
0.0
 41
0.0
 70
2
  0
VERTEX
  5
493
100
AcDbEntity
  8
Drafting_Hidden_Entities
100
AcDbVertex
100
AcDb2dVertex
 42
0.0
 10
4.8938537E+002
 20
3.756564E+002
 70
0
  0
VERTEX
  5
494
100
AcDbEntity
  8
Drafting_Hidden_Entities
100
AcDbVertex
100
AcDb2dVertex
 42
7.538736E-004
 10
4.8938235E+002
 20
3.7566276E+002
 70
1
  0
VERTEX
  5
495
100
AcDbEntity
  8
Drafting_Hidden_Entities
100
AcDbVertex
100
AcDb2dVertex
 42
7.637061E-004
 10
4.8937934E+002
 20
3.7566907E+002
 70
0
  0
VERTEX
  5
496
100
AcDbEntity
  8
Drafting_Hidden_Entities
100
AcDbVertex
100
AcDb2dVertex
 42
7.74136E-004
 10
4.8937632E+002
 20
3.7567532E+002
 70
1
  0
VERTEX
  5
497
100
AcDbEntity
  8
Drafting_Hidden_Entities
100
AcDbVertex
100
AcDb2dVertex
 42
7.84336E-004
 10
4.8937331E+002
 20
3.7568153E+002
 70
0
  0
VERTEX
  5
498
100
AcDbEntity
  8
Drafting_Hidden_Entities
100
AcDbVertex
100
AcDb2dVertex
 42
7.951648E-004
 10
4.8937029E+002
 20
3.7568768E+002
 70
1
  0
VERTEX
  5
499
100
AcDbEntity
  8
Drafting_Hidden_Entities
100
AcDbVertex
100
AcDb2dVertex
 42
8.057641E-004
 10
4.8936728E+002
 20
3.7569379E+002
 70
0
  0
VERTEX
  5
49a
100
AcDbEntity
  8
Drafting_Hidden_Entities
100
AcDbVertex
100
AcDb2dVertex
 42
8.169903E-004
 10
4.8936427E+002
 20
3.7569984E+002
 70
1
  0
VERTEX
  5
49b
100
AcDbEntity
  8
Drafting_Hidden_Entities
100
AcDbVertex
100
AcDb2dVertex
 42
8.279522E-004
 10
4.8936125E+002
 20
3.7570584E+002
 70
0
  0
VERTEX
  5
49c
100
AcDbEntity
  8
Drafting_Hidden_Entities
100
AcDbVertex
100
AcDb2dVertex
 42
8.39669E-004
 10
4.8935824E+002
 20
3.7571179E+002
 70
1
  0
VERTEX
  5
49d
100
AcDbEntity
  8
Drafting_Hidden_Entities
100
AcDbVertex
100
AcDb2dVertex
 42
8.512142E-004
 10
4.8935523E+002
 20
3.7571769E+002
 70
0
  0
VERTEX
  5
49e
100
AcDbEntity
  8
Drafting_Hidden_Entities
100
AcDbVertex
100
AcDb2dVertex
 42
8.631676E-004
 10
4.8935222E+002
 20
3.7572354E+002
 70
1
  0
VERTEX
  5
49f
100
AcDbEntity
  8
Drafting_Hidden_Entities
100
AcDbVertex
100
AcDb2dVertex
 42
8.745792E-004
 10
4.8934921E+002
 20
3.7572933E+002
 70
0
  0
VERTEX
  5
4a0
100
AcDbEntity
  8
Drafting_Hidden_Entities
100
AcDbVertex
100
AcDb2dVertex
 42
8.877949E-004
 10
4.8934621E+002
 20
3.7573508E+002
 70
1
  0
VERTEX
  5
4a1
100
AcDbEntity
  8
Drafting_Hidden_Entities
100
AcDbVertex
100
AcDb2dVertex
 42
9.01745E-004
 10
4.893432E+002
 20
3.7574078E+002
 70
0
  0
VERTEX
  5
4a2
100
AcDbEntity
  8
Drafting_Hidden_Entities
100
AcDbVertex
100
AcDb2dVertex
 42
9.126034E-004
 10
4.8934019E+002
 20
3.7574642E+002
 70
1
  0
VERTEX
  5
4a3
100
AcDbEntity
  8
Drafting_Hidden_Entities
100
AcDbVertex
100
AcDb2dVertex
 42
9.197201E-004
 10
4.8933718E+002
 20
3.7575201E+002
 70
0
  0
VERTEX
  5
4a4
100
AcDbEntity
  8
Drafting_Hidden_Entities
100
AcDbVertex
100
AcDb2dVertex
 42
9.412633E-004
 10
4.8933418E+002
 20
3.7575755E+002
 70
1
  0
VERTEX
  5
4a5
100
AcDbEntity
  8
Drafting_Hidden_Entities
100
AcDbVertex
100
AcDb2dVertex
 42
9.741237E-004
 10
4.8933117E+002
 20
3.7576304E+002
 70
0
  0
VERTEX
  5
4a6
100
AcDbEntity
  8
Drafting_Hidden_Entities
100
AcDbVertex
100
AcDb2dVertex
 42
9.607264E-004
 10
4.8932816E+002
 20
3.7576849E+002
 70
1
  0
VERTEX
  5
4a7
100
AcDbEntity
  8
Drafting_Hidden_Entities
100
AcDbVertex
100
AcDb2dVertex
 42
9.094086E-004
 10
4.8932516E+002
 20
3.7577387E+002
 70
0
  0
VERTEX
  5
4a8
100
AcDbEntity
  8
Drafting_Hidden_Entities
100
AcDbVertex
100
AcDb2dVertex
 42
1.0180139E-003
 10
4.8932218E+002
 20
3.7577917E+002
 70
1
  0
VERTEX
  5
4a9
100
AcDbEntity
  8
Drafting_Hidden_Entities
100
AcDbVertex
100
AcDb2dVertex
 42
1.2332749E-003
 10
4.8931915E+002
 20
3.757845E+002
 70
0
  0
VERTEX
  5
4aa
100
AcDbEntity
  8
Drafting_Hidden_Entities
100
AcDbVertex
100
AcDb2dVertex
 42
9.523786E-004
 10
4.8931606E+002
 20
3.7578989E+002
 70
1
  0
VERTEX
  5
4ab
100
AcDbEntity
  8
Drafting_Hidden_Entities
100
AcDbVertex
100
AcDb2dVertex
 42
3.30006E-004
 10
4.8931315E+002
 20
3.7579492E+002
 70
0
  0
VERTEX
  5
4ac
100
AcDbEntity
  8
Drafting_Hidden_Entities
100
AcDbVertex
100
AcDb2dVertex
 42
1.3665709E-003
 10
4.8931052E+002
 20
3.7579944E+002
 70
1
  0
VERTEX
  5
4ad
100
AcDbEntity
  8
Drafting_Hidden_Entities
100
AcDbVertex
100
AcDb2dVertex
 42
2.4210738E-003
 10
4.8930715E+002
 20
3.7580513E+002
 70
0
  0
VERTEX
  5
4ae
100
AcDbEntity
  8
Drafting_Hidden_Entities
100
AcDbVertex
100
AcDb2dVertex
 42
1.2149478E-003
 10
4.8930195E+002
 20
3.7581375E+002
 70
1
  0
VERTEX
  5
4af
100
AcDbEntity
  8
Drafting_Hidden_Entities
100
AcDbVertex
100
AcDb2dVertex
 42
6.51622E-004
 10
4.8929515E+002
 20
3.7582495E+002
 70
0
  0
SEQEND
  5
4b0
100
AcDbEntity
  0
ARC
  5
4b1
100
AcDbEntity
  8
Drafting_Hidden_Entities
100
AcDbCircle
  6
CONTINUOUS
 62
6
 10
4.8900755E+002
 20
3.7596755E+002
 40
3.2084316E-001
100
AcDbArc
 50
3.3363189E+002
 51
4.5E+002
  0
LINE
  5
4b2
100
AcDbEntity
  8
Drafting_Hidden_Entities
100
AcDbLine
  6
CONTINUOUS
 62
6
 10
4.8900734E+002
 20
3.7645689E+002
 11
4.8900734E+002
 21
3.7628835E+002
  0
LINE
  5
4b3
100
AcDbEntity
  8
Drafting_Hidden_Entities
100
AcDbLine
  6
CONTINUOUS
 62
6
 10
4.8900734E+002
 20
3.7628835E+002
 11
4.8773289E+002
 21
3.7629143E+002
  0
LINE
  5
4b4
100
AcDbEntity
  8
Drafting_Hidden_Entities
100
AcDbLine
  6
CONTINUOUS
 62
6
 10
4.8949759E+002
 20
3.7125301E+002
 11
4.8972687E+002
 21
3.7078257E+002
  0
LINE
  5
4b5
100
AcDbEntity
  8
Drafting_Hidden_Entities
100
AcDbLine
  6
CONTINUOUS
 62
6
 10
4.8962169E+002
 20
3.7061446E+002
 11
4.8972687E+002
 21
3.7078257E+002
  0
LINE
  5
4b6
100
AcDbEntity
  8
Drafting_Hidden_Entities
100
AcDbLine
  6
CONTINUOUS
 62
6
 10
4.8949759E+002
 20
3.7125301E+002
 11
4.8922782E+002
 21
3.7142112E+002
  0
LINE
  5
4b7
100
AcDbEntity
  8
Drafting_Hidden_Entities
100
AcDbLine
  6
CONTINUOUS
 62
6
 10
4.9074432E+002
 20
3.7125301E+002
 11
4.8949759E+002
 21
3.7125301E+002
  0
LINE
  5
4b8
100
AcDbEntity
  8
Drafting_Hidden_Entities
100
AcDbLine
  6
CONTINUOUS
 62
6
 10
4.9074432E+002
 20
3.7125301E+002
 11
4.9074432E+002
 21
3.7142112E+002
  0
ARC
  5
4b9
100
AcDbEntity
  8
Drafting_Hidden_Entities
100
AcDbCircle
  6
CONTINUOUS
 62
6
 10
4.9074447E+002
 20
3.7093198E+002
 40
3.2084978E-001
100
AcDbArc
 50
3.3159721E+002
 51
4.4999997E+002
  0
POLYLINE
  5
4ba
100
AcDbEntity
  8
Drafting_Hidden_Entities
100
AcDb2dPolyline
  6
CONTINUOUS
 62
6
 66
1
 40
0.0
 41
0.0
 70
2
  0
VERTEX
  5
4bb
100
AcDbEntity
  8
Drafting_Hidden_Entities
100
AcDbVertex
100
AcDb2dVertex
 42
0.0
 10
4.9102685E+002
 20
3.7077949E+002
 70
0
  0
VERTEX
  5
4bc
100
AcDbEntity
  8
Drafting_Hidden_Entities
100
AcDbVertex
100
AcDb2dVertex
 42
-1.1001383E-003
 10
4.9102973E+002
 20
3.7077458E+002
 70
1
  0
VERTEX
  5
4bd
100
AcDbEntity
  8
Drafting_Hidden_Entities
100
AcDbVertex
100
AcDb2dVertex
 42
-1.0838868E-003
 10
4.9103262E+002
 20
3.7076963E+002
 70
0
  0
VERTEX
  5
4be
100
AcDbEntity
  8
Drafting_Hidden_Entities
100
AcDbVertex
100
AcDb2dVertex
 42
-1.0672973E-003
 10
4.910355E+002
 20
3.7076462E+002
 70
1
  0
VERTEX
  5
4bf
100
AcDbEntity
  8
Drafting_Hidden_Entities
100
AcDbVertex
100
AcDb2dVertex
 42
-1.0516848E-003
 10
4.9103839E+002
 20
3.7075956E+002
 70
0
  0
VERTEX
  5
4c0
100
AcDbEntity
  8
Drafting_Hidden_Entities
100
AcDbVertex
100
AcDb2dVertex
 42
-1.035756E-003
 10
4.9104128E+002
 20
3.7075446E+002
 70
1
  0
VERTEX
  5
4c1
100
AcDbEntity
  8
Drafting_Hidden_Entities
100
AcDbVertex
100
AcDb2dVertex
 42
-1.0207729E-003
 10
4.9104417E+002
 20
3.707493E+002
 70
0
  0
VERTEX
  5
4c2
100
AcDbEntity
  8
Drafting_Hidden_Entities
100
AcDbVertex
100
AcDb2dVertex
 42
-1.0054496E-003
 10
4.9104705E+002
 20
3.7074409E+002
 70
1
  0
VERTEX
  5
4c3
100
AcDbEntity
  8
Drafting_Hidden_Entities
100
AcDbVertex
100
AcDb2dVertex
 42
-9.910021E-004
 10
4.9104994E+002
 20
3.7073884E+002
 70
0
  0
VERTEX
  5
4c4
100
AcDbEntity
  8
Drafting_Hidden_Entities
100
AcDbVertex
100
AcDb2dVertex
 42
-9.763479E-004
 10
4.9105283E+002
 20
3.7073353E+002
 70
1
  0
VERTEX
  5
4c5
100
AcDbEntity
  8
Drafting_Hidden_Entities
100
AcDbVertex
100
AcDb2dVertex
 42
-9.626398E-004
 10
4.9105572E+002
 20
3.7072817E+002
 70
0
  0
VERTEX
  5
4c6
100
AcDbEntity
  8
Drafting_Hidden_Entities
100
AcDbVertex
100
AcDb2dVertex
 42
-9.483069E-004
 10
4.9105861E+002
 20
3.7072276E+002
 70
1
  0
VERTEX
  5
4c7
100
AcDbEntity
  8
Drafting_Hidden_Entities
100
AcDbVertex
100
AcDb2dVertex
 42
-9.345208E-004
 10
4.9106149E+002
 20
3.7071731E+002
 70
0
  0
VERTEX
  5
4c8
100
AcDbEntity
  8
Drafting_Hidden_Entities
100
AcDbVertex
100
AcDb2dVertex
 42
-9.215948E-004
 10
4.9106438E+002
 20
3.707118E+002
 70
1
  0
VERTEX
  5
4c9
100
AcDbEntity
  8
Drafting_Hidden_Entities
100
AcDbVertex
100
AcDb2dVertex
 42
-9.104003E-004
 10
4.9106727E+002
 20
3.7070624E+002
 70
0
  0
VERTEX
  5
4ca
100
AcDbEntity
  8
Drafting_Hidden_Entities
100
AcDbVertex
100
AcDb2dVertex
 42
-8.950511E-004
 10
4.9107016E+002
 20
3.7070063E+002
 70
1
  0
VERTEX
  5
4cb
100
AcDbEntity
  8
Drafting_Hidden_Entities
100
AcDbVertex
100
AcDb2dVertex
 42
-8.774068E-004
 10
4.9107305E+002
 20
3.7069498E+002
 70
0
  0
VERTEX
  5
4cc
100
AcDbEntity
  8
Drafting_Hidden_Entities
100
AcDbVertex
100
AcDb2dVertex
 42
-8.724663E-004
 10
4.9107594E+002
 20
3.7068927E+002
 70
1
  0
VERTEX
  5
4cd
100
AcDbEntity
  8
Drafting_Hidden_Entities
100
AcDbVertex
100
AcDb2dVertex
 42
-8.77882E-004
 10
4.9107883E+002
 20
3.7068351E+002
 70
0
  0
VERTEX
  5
4ce
100
AcDbEntity
  8
Drafting_Hidden_Entities
100
AcDbVertex
100
AcDb2dVertex
 42
-8.407467E-004
 10
4.9108173E+002
 20
3.7067769E+002
 70
1
  0
VERTEX
  5
4cf
100
AcDbEntity
  8
Drafting_Hidden_Entities
100
AcDbVertex
100
AcDb2dVertex
 42
-7.749109E-004
 10
4.9108462E+002
 20
3.7067184E+002
 70
0
  0
VERTEX
  5
4d0
100
AcDbEntity
  8
Drafting_Hidden_Entities
100
AcDbVertex
100
AcDb2dVertex
 42
-8.438983E-004
 10
4.9108748E+002
 20
3.7066598E+002
 70
1
  0
VERTEX
  5
4d1
100
AcDbEntity
  8
Drafting_Hidden_Entities
100
AcDbVertex
100
AcDb2dVertex
 42
-9.907829E-004
 10
4.910904E+002
 20
3.7065997E+002
 70
0
  0
VERTEX
  5
4d2
100
AcDbEntity
  8
Drafting_Hidden_Entities
100
AcDbVertex
100
AcDb2dVertex
 42
-7.40309E-004
 10
4.9109338E+002
 20
3.7065377E+002
 70
1
  0
VERTEX
  5
4d3
100
AcDbEntity
  8
Drafting_Hidden_Entities
100
AcDbVertex
100
AcDb2dVertex
 42
-2.521647E-004
 10
4.9109618E+002
 20
3.7064791E+002
 70
0
  0
VERTEX
  5
4d4
100
AcDbEntity
  8
Drafting_Hidden_Entities
100
AcDbVertex
100
AcDb2dVertex
 42
-1.027865E-003
 10
4.9109871E+002
 20
3.7064259E+002
 70
1
  0
VERTEX
  5
4d5
100
AcDbEntity
  8
Drafting_Hidden_Entities
100
AcDbVertex
100
AcDb2dVertex
 42
-1.7229814E-003
 10
4.9110197E+002
 20
3.7063564E+002
 70
0
  0
VERTEX
  5
4d6
100
AcDbEntity
  8
Drafting_Hidden_Entities
100
AcDbVertex
100
AcDb2dVertex
 42
-8.23444E-004
 10
4.9110698E+002
 20
3.7062479E+002
 70
1
  0
VERTEX
  5
4d7
100
AcDbEntity
  8
Drafting_Hidden_Entities
100
AcDbVertex
100
AcDb2dVertex
 42
-4.318649E-004
 10
4.9111354E+002
 20
3.706105E+002
 70
0
  0
SEQEND
  5
4d8
100
AcDbEntity
  0
LINE
  5
4d9
100
AcDbEntity
  8
Drafting_Hidden_Entities
100
AcDbLine
  6
CONTINUOUS
 62
6
 10
4.8972687E+002
 20
3.7078257E+002
 11
4.9102685E+002
 21
3.7077949E+002
  0
LINE
  5
4da
100
AcDbEntity
  8
Drafting_Hidden_Entities
100
AcDbLine
  6
CONTINUOUS
 62
6
 10
4.8718939E+002
 20
3.7078917E+002
 11
4.8810827E+002
 21
3.7078697E+002
  0
LINE
  5
4db
100
AcDbEntity
  8
Drafting_Hidden_Entities
100
AcDbLine
  6
CONTINUOUS
 62
6
 10
4.8834459E+002
 20
3.7061798E+002
 11
4.8810827E+002
 21
3.7078697E+002
  0
LINE
  5
4dc
100
AcDbEntity
  8
Drafting_Hidden_Entities
100
AcDbLine
  6
CONTINUOUS
 62
6
 10
4.8718939E+002
 20
3.7078917E+002
 11
4.8718895E+002
 21
3.7062062E+002
  0
ARC
  5
4dd
100
AcDbEntity
  8
Drafting_Hidden_Entities
100
AcDbCircle
  6
CONTINUOUS
 62
6
 10
4.8718935E+002
 20
3.7111006E+002
 40
3.2084987E-001
100
AcDbArc
 50
1.5358013E+002
 51
2.7E+002
  0
POLYLINE
  5
4de
100
AcDbEntity
  8
Drafting_Hidden_Entities
100
AcDb2dPolyline
  6
CONTINUOUS
 62
6
 66
1
 40
0.0
 41
0.0
 70
2
  0
VERTEX
  5
4df
100
AcDbEntity
  8
Drafting_Hidden_Entities
100
AcDbVertex
100
AcDb2dVertex
 42
0.0
 10
4.8690202E+002
 20
3.7125301E+002
 70
0
  0
VERTEX
  5
4e0
100
AcDbEntity
  8
Drafting_Hidden_Entities
100
AcDbVertex
100
AcDb2dVertex
 42
-1.165922E-003
 10
4.8689902E+002
 20
3.7125788E+002
 70
1
  0
VERTEX
  5
4e1
100
AcDbEntity
  8
Drafting_Hidden_Entities
100
AcDbVertex
100
AcDb2dVertex
 42
-1.1488586E-003
 10
4.8689601E+002
 20
3.7126279E+002
 70
0
  0
VERTEX
  5
4e2
100
AcDbEntity
  8
Drafting_Hidden_Entities
100
AcDbVertex
100
AcDb2dVertex
 42
-1.1314307E-003
 10
4.86893E+002
 20
3.7126776E+002
 70
1
  0
VERTEX
  5
4e3
100
AcDbEntity
  8
Drafting_Hidden_Entities
100
AcDbVertex
100
AcDb2dVertex
 42
-1.1150204E-003
 10
4.8688999E+002
 20
3.7127278E+002
 70
0
  0
VERTEX
  5
4e4
100
AcDbEntity
  8
Drafting_Hidden_Entities
100
AcDbVertex
100
AcDb2dVertex
 42
-1.0982694E-003
 10
4.8688698E+002
 20
3.7127785E+002
 70
1
  0
VERTEX
  5
4e5
100
AcDbEntity
  8
Drafting_Hidden_Entities
100
AcDbVertex
100
AcDb2dVertex
 42
-1.0825052E-003
 10
4.8688397E+002
 20
3.7128297E+002
 70
0
  0
VERTEX
  5
4e6
100
AcDbEntity
  8
Drafting_Hidden_Entities
100
AcDbVertex
100
AcDb2dVertex
 42
-1.0663752E-003
 10
4.8688096E+002
 20
3.7128814E+002
 70
1
  0
VERTEX
  5
4e7
100
AcDbEntity
  8
Drafting_Hidden_Entities
100
AcDbVertex
100
AcDb2dVertex
 42
-1.0511601E-003
 10
4.8687796E+002
 20
3.7129337E+002
 70
0
  0
VERTEX
  5
4e8
100
AcDbEntity
  8
Drafting_Hidden_Entities
100
AcDbVertex
100
AcDb2dVertex
 42
-1.0357211E-003
 10
4.8687495E+002
 20
3.7129864E+002
 70
1
  0
VERTEX
  5
4e9
100
AcDbEntity
  8
Drafting_Hidden_Entities
100
AcDbVertex
100
AcDb2dVertex
 42
-1.0212733E-003
 10
4.8687194E+002
 20
3.7130396E+002
 70
0
  0
VERTEX
  5
4ea
100
AcDbEntity
  8
Drafting_Hidden_Entities
100
AcDbVertex
100
AcDb2dVertex
 42
-1.0061588E-003
 10
4.8686893E+002
 20
3.7130934E+002
 70
1
  0
VERTEX
  5
4eb
100
AcDbEntity
  8
Drafting_Hidden_Entities
100
AcDbVertex
100
AcDb2dVertex
 42
-9.916131E-004
 10
4.8686592E+002
 20
3.7131476E+002
 70
0
  0
VERTEX
  5
4ec
100
AcDbEntity
  8
Drafting_Hidden_Entities
100
AcDbVertex
100
AcDb2dVertex
 42
-9.779766E-004
 10
4.8686292E+002
 20
3.7132024E+002
 70
1
  0
VERTEX
  5
4ed
100
AcDbEntity
  8
Drafting_Hidden_Entities
100
AcDbVertex
100
AcDb2dVertex
 42
-9.66168E-004
 10
4.8685991E+002
 20
3.7132577E+002
 70
0
  0
VERTEX
  5
4ee
100
AcDbEntity
  8
Drafting_Hidden_Entities
100
AcDbVertex
100
AcDb2dVertex
 42
-9.499468E-004
 10
4.868569E+002
 20
3.7133135E+002
 70
1
  0
VERTEX
  5
4ef
100
AcDbEntity
  8
Drafting_Hidden_Entities
100
AcDbVertex
100
AcDb2dVertex
 42
-9.312801E-004
 10
4.868539E+002
 20
3.7133698E+002
 70
0
  0
VERTEX
  5
4f0
100
AcDbEntity
  8
Drafting_Hidden_Entities
100
AcDbVertex
100
AcDb2dVertex
 42
-9.260947E-004
 10
4.8685089E+002
 20
3.7134265E+002
 70
1
  0
VERTEX
  5
4f1
100
AcDbEntity
  8
Drafting_Hidden_Entities
100
AcDbVertex
100
AcDb2dVertex
 42
-9.318969E-004
 10
4.8684788E+002
 20
3.7134839E+002
 70
0
  0
VERTEX
  5
4f2
100
AcDbEntity
  8
Drafting_Hidden_Entities
100
AcDbVertex
100
AcDb2dVertex
 42
-8.925267E-004
 10
4.8684487E+002
 20
3.7135418E+002
 70
1
  0
VERTEX
  5
4f3
100
AcDbEntity
  8
Drafting_Hidden_Entities
100
AcDbVertex
100
AcDb2dVertex
 42
-8.226752E-004
 10
4.8684187E+002
 20
3.7136E+002
 70
0
  0
VERTEX
  5
4f4
100
AcDbEntity
  8
Drafting_Hidden_Entities
100
AcDbVertex
100
AcDb2dVertex
 42
-8.959559E-004
 10
4.8683889E+002
 20
3.7136583E+002
 70
1
  0
VERTEX
  5
4f5
100
AcDbEntity
  8
Drafting_Hidden_Entities
100
AcDbVertex
100
AcDb2dVertex
 42
-1.051952E-003
 10
4.8683586E+002
 20
3.7137182E+002
 70
0
  0
VERTEX
  5
4f6
100
AcDbEntity
  8
Drafting_Hidden_Entities
100
AcDbVertex
100
AcDb2dVertex
 42
-7.860508E-004
 10
4.8683275E+002
 20
3.71378E+002
 70
1
  0
VERTEX
  5
4f7
100
AcDbEntity
  8
Drafting_Hidden_Entities
100
AcDbVertex
100
AcDb2dVertex
 42
-2.677512E-004
 10
4.8682984E+002
 20
3.7138384E+002
 70
0
  0
VERTEX
  5
4f8
100
AcDbEntity
  8
Drafting_Hidden_Entities
100
AcDbVertex
100
AcDb2dVertex
 42
-1.09142E-003
 10
4.8682721E+002
 20
3.7138914E+002
 70
1
  0
VERTEX
  5
4f9
100
AcDbEntity
  8
Drafting_Hidden_Entities
100
AcDbVertex
100
AcDb2dVertex
 42
-1.8296293E-003
 10
4.8682383E+002
 20
3.7139606E+002
 70
0
  0
VERTEX
  5
4fa
100
AcDbEntity
  8
Drafting_Hidden_Entities
100
AcDbVertex
100
AcDb2dVertex
 42
-8.744527E-004
 10
4.8681863E+002
 20
3.7140687E+002
 70
1
  0
VERTEX
  5
4fb
100
AcDbEntity
  8
Drafting_Hidden_Entities
100
AcDbVertex
100
AcDb2dVertex
 42
-4.586252E-004
 10
4.8681181E+002
 20
3.7142112E+002
 70
0
  0
SEQEND
  5
4fc
100
AcDbEntity
  0
LINE
  5
4fd
100
AcDbEntity
  8
Drafting_Hidden_Entities
100
AcDbLine
  6
CONTINUOUS
 62
6
 10
4.8794808E+002
 20
3.7125301E+002
 11
4.8690202E+002
 21
3.7125301E+002
  0
LINE
  5
4fe
100
AcDbEntity
  8
Drafting_Hidden_Entities
100
AcDbLine
  6
CONTINUOUS
 62
6
 10
4.8794808E+002
 20
3.7125301E+002
 11
4.8806822E+002
 21
3.7142112E+002
  0
LINE
  5
4ff
100
AcDbEntity
  8
Drafting_Hidden_Entities
100
AcDbLine
  6
CONTINUOUS
 62
6
 10
4.8810827E+002
 20
3.7078697E+002
 11
4.8794808E+002
 21
3.7125301E+002
  0
LINE
  5
500
100
AcDbEntity
  8
Drafting_Hidden_Entities
100
AcDbLine
  6
CONTINUOUS
 62
6
 10
4.8854966E+002
 20
3.7078565E+002
 11
4.8926259E+002
 21
3.7078389E+002
  0
LINE
  5
501
100
AcDbEntity
  8
Drafting_Hidden_Entities
100
AcDbLine
  6
CONTINUOUS
 62
6
 10
4.8953235E+002
 20
3.706149E+002
 11
4.8926259E+002
 21
3.7078389E+002
  0
LINE
  5
502
100
AcDbEntity
  8
Drafting_Hidden_Entities
100
AcDbLine
  6
CONTINUOUS
 62
6
 10
4.8854966E+002
 20
3.7078565E+002
 11
4.8842952E+002
 21
3.7061754E+002
  0
LINE
  5
503
100
AcDbEntity
  8
Drafting_Hidden_Entities
100
AcDbLine
  6
CONTINUOUS
 62
6
 10
4.8838904E+002
 20
3.7125301E+002
 11
4.8854966E+002
 21
3.7078565E+002
  0
LINE
  5
504
100
AcDbEntity
  8
Drafting_Hidden_Entities
100
AcDbLine
  6
CONTINUOUS
 62
6
 10
4.8838904E+002
 20
3.7125301E+002
 11
4.8815272E+002
 21
3.7142112E+002
  0
LINE
  5
505
100
AcDbEntity
  8
Drafting_Hidden_Entities
100
AcDbLine
  6
CONTINUOUS
 62
6
 10
4.8903375E+002
 20
3.7125301E+002
 11
4.8838904E+002
 21
3.7125301E+002
  0
LINE
  5
506
100
AcDbEntity
  8
Drafting_Hidden_Entities
100
AcDbLine
  6
CONTINUOUS
 62
6
 10
4.8903375E+002
 20
3.7125301E+002
 11
4.8913893E+002
 21
3.7142112E+002
  0
LINE
  5
507
100
AcDbEntity
  8
Drafting_Hidden_Entities
100
AcDbLine
  6
CONTINUOUS
 62
6
 10
4.8926259E+002
 20
3.7078389E+002
 11
4.8903375E+002
 21
3.7125301E+002
  0
LINE
  5
508
100
AcDbEntity
  8
Drafting_Hidden_Entities
100
AcDbLine
  6
CONTINUOUS
 62
6
 10
4.8916885E+002
 20
3.6888981E+002
 11
4.8949319E+002
 21
3.6888981E+002
  0
LINE
  5
509
100
AcDbEntity
  8
Drafting_Hidden_Entities
100
AcDbLine
  6
CONTINUOUS
 62
6
 10
4.8976295E+002
 20
3.6872126E+002
 11
4.8949319E+002
 21
3.6888981E+002
  0
LINE
  5
50a
100
AcDbEntity
  8
Drafting_Hidden_Entities
100
AcDbLine
  6
CONTINUOUS
 62
6
 10
4.8916885E+002
 20
3.6888981E+002
 11
4.8916885E+002
 21
3.6872126E+002
  0
ARC
  5
50b
100
AcDbEntity
  8
Drafting_Hidden_Entities
100
AcDbCircle
  6
CONTINUOUS
 62
6
 10
4.8916877E+002
 20
3.690549E+002
 40
1.6508121E-001
100
AcDbArc
 50
2.1734459E+002
 51
2.7000055E+002
  0
LINE
  5
50c
100
AcDbEntity
  8
Drafting_Hidden_Entities
100
AcDbLine
  6
CONTINUOUS
 62
6
 10
4.8903771E+002
 20
3.6895494E+002
 11
4.8890348E+002
 21
3.688524E+002
  0
ARC
  5
50d
100
AcDbEntity
  8
Drafting_Hidden_Entities
100
AcDbCircle
  6
CONTINUOUS
 62
6
 10
4.8968744E+002
 20
3.6945149E+002
 40
8.1799959E-001
100
AcDbArc
 50
1.9093493E+002
 51
2.1739095E+002
  0
LINE
  5
50e
100
AcDbEntity
  8
Drafting_Hidden_Entities
100
AcDbLine
  6
CONTINUOUS
 62
6
 10
4.8888412E+002
 20
3.6929644E+002
 11
4.8871909E+002
 21
3.6926431E+002
  0
ARC
  5
50f
100
AcDbEntity
  8
Drafting_Hidden_Entities
100
AcDbCircle
  6
CONTINUOUS
 62
6
 10
4.8892409E+002
 20
3.6930413E+002
 40
4.0558407E-002
100
AcDbArc
 50
8.9971191E+001
 51
1.910936E+002
  0
LINE
  5
510
100
AcDbEntity
  8
Drafting_Hidden_Entities
100
AcDbLine
  6
CONTINUOUS
 62
6
 10
4.8892417E+002
 20
3.6934484E+002
 11
4.8892417E+002
 21
3.6951295E+002
  0
LINE
  5
511
100
AcDbEntity
  8
Drafting_Hidden_Entities
100
AcDbLine
  6
CONTINUOUS
 62
6
 10
4.8927139E+002
 20
3.6934484E+002
 11
4.8892417E+002
 21
3.6934484E+002
  0
LINE
  5
512
100
AcDbEntity
  8
Drafting_Hidden_Entities
100
AcDbLine
  6
CONTINUOUS
 62
6
 10
4.8927139E+002
 20
3.6934484E+002
 11
4.8937657E+002
 21
3.6951295E+002
  0
LINE
  5
513
100
AcDbEntity
  8
Drafting_Hidden_Entities
100
AcDbLine
  6
CONTINUOUS
 62
6
 10
4.8949319E+002
 20
3.6888981E+002
 11
4.8927139E+002
 21
3.6934484E+002
  0
LINE
  5
514
100
AcDbEntity
  8
Drafting_Hidden_Entities
100
AcDbLine
  6
CONTINUOUS
 62
6
 10
4.9025275E+002
 20
3.6733326E+002
 11
4.896965E+002
 21
3.6847262E+002
  0
LINE
  5
515
100
AcDbEntity
  8
Drafting_Hidden_Entities
100
AcDbLine
  6
CONTINUOUS
 62
6
 10
4.8980212E+002
 20
3.6864116E+002
 11
4.896965E+002
 21
3.6847262E+002
  0
LINE
  5
516
100
AcDbEntity
  8
Drafting_Hidden_Entities
100
AcDbLine
  6
CONTINUOUS
 62
6
 10
4.9025275E+002
 20
3.6733326E+002
 11
4.9052208E+002
 21
3.6716471E+002
  0
LINE
  5
517
100
AcDbEntity
  8
Drafting_Hidden_Entities
100
AcDbLine
  6
CONTINUOUS
 62
6
 10
4.8276136E+002
 20
3.6733326E+002
 11
4.9025275E+002
 21
3.6733326E+002
  0
LINE
  5
518
100
AcDbEntity
  8
Drafting_Hidden_Entities
100
AcDbLine
  6
CONTINUOUS
 62
6
 10
4.8276136E+002
 20
3.6733326E+002
 11
4.8259281E+002
 21
3.6716471E+002
  0
LINE
  5
519
100
AcDbEntity
  8
Drafting_Hidden_Entities
100
AcDbLine
  6
CONTINUOUS
 62
6
 10
4.8276136E+002
 20
3.7849928E+002
 11
4.8276136E+002
 21
3.6733326E+002
  0
LINE
  5
51a
100
AcDbEntity
  8
Drafting_Hidden_Entities
100
AcDbLine
  6
CONTINUOUS
 62
6
 10
4.8276136E+002
 20
3.7849928E+002
 11
4.8259281E+002
 21
3.7866739E+002
  0
LINE
  5
51b
100
AcDbEntity
  8
Drafting_Hidden_Entities
100
AcDbLine
  6
CONTINUOUS
 62
6
 10
4.8619218E+002
 20
3.7849928E+002
 11
4.8276136E+002
 21
3.7849928E+002
  0
LINE
  5
51c
100
AcDbEntity
  8
Drafting_Hidden_Entities
100
AcDbLine
  6
CONTINUOUS
 62
6
 10
4.8619218E+002
 20
3.7849928E+002
 11
4.8629736E+002
 21
3.7866739E+002
  0
LINE
  5
51d
100
AcDbEntity
  8
Drafting_Hidden_Entities
100
AcDbLine
  6
CONTINUOUS
 62
6
 10
4.8706485E+002
 20
3.767095E+002
 11
4.8619218E+002
 21
3.7849928E+002
  0
LINE
  5
51e
100
AcDbEntity
  8
Drafting_Hidden_Entities
100
AcDbLine
  6
CONTINUOUS
 62
6
 10
4.8706485E+002
 20
3.767095E+002
 11
4.8733506E+002
 21
3.7654051E+002
  0
LINE
  5
51f
100
AcDbEntity
  8
Drafting_Hidden_Entities
100
AcDbLine
  6
CONTINUOUS
 62
6
 10
4.8650948E+002
 20
3.7671082E+002
 11
4.8706485E+002
 21
3.767095E+002
  0
LINE
  5
520
100
AcDbEntity
  8
Drafting_Hidden_Entities
100
AcDbLine
  6
CONTINUOUS
 62
6
 10
4.8650948E+002
 20
3.7671082E+002
 11
4.8638934E+002
 21
3.7654271E+002
  0
LINE
  5
521
100
AcDbEntity
  8
Drafting_Hidden_Entities
100
AcDbLine
  6
CONTINUOUS
 62
6
 10
4.8625952E+002
 20
3.774365E+002
 11
4.8650948E+002
 21
3.7671082E+002
  0
LINE
  5
522
100
AcDbEntity
  8
Drafting_Hidden_Entities
100
AcDbLine
  6
CONTINUOUS
 62
6
 10
4.8625952E+002
 20
3.774365E+002
 11
4.8610021E+002
 21
3.7738193E+002
  0
ARC
  5
523
100
AcDbEntity
  8
Drafting_Hidden_Entities
100
AcDbCircle
  6
CONTINUOUS
 62
6
 10
4.8606247E+002
 20
3.7736875E+002
 40
2.0849423E-001
100
AcDbArc
 50
1.9000789E+001
 51
1.9900079E+002
  0
LINE
  5
524
100
AcDbEntity
  8
Drafting_Hidden_Entities
100
AcDbLine
  6
CONTINUOUS
 62
6
 10
4.8586521E+002
 20
3.7730096E+002
 11
4.8602452E+002
 21
3.7735553E+002
  0
LINE
  5
525
100
AcDbEntity
  8
Drafting_Hidden_Entities
100
AcDbLine
  6
CONTINUOUS
 62
6
 10
4.8606808E+002
 20
3.767117E+002
 11
4.8586521E+002
 21
3.7730096E+002
  0
LINE
  5
526
100
AcDbEntity
  8
Drafting_Hidden_Entities
100
AcDbLine
  6
CONTINUOUS
 62
6
 10
4.8606808E+002
 20
3.767117E+002
 11
4.8630396E+002
 21
3.7654403E+002
  0
LINE
  5
527
100
AcDbEntity
  8
Drafting_Hidden_Entities
100
AcDbLine
  6
CONTINUOUS
 62
6
 10
4.8507791E+002
 20
3.767139E+002
 11
4.8606808E+002
 21
3.767117E+002
  0
LINE
  5
528
100
AcDbEntity
  8
Drafting_Hidden_Entities
100
AcDbLine
  6
CONTINUOUS
 62
6
 10
4.8507791E+002
 20
3.767139E+002
 11
4.8515097E+002
 21
3.7654139E+002
  0
ARC
  5
529
100
AcDbEntity
  8
Drafting_Hidden_Entities
100
AcDbCircle
  6
CONTINUOUS
 62
6
 10
4.851522E+002
 20
3.7702623E+002
 40
3.2081269E-001
100
AcDbArc
 50
1.3967573E+002
 51
2.5662945E+002
  0
LINE
  5
52a
100
AcDbEntity
  8
Drafting_Hidden_Entities
100
AcDbLine
  6
CONTINUOUS
 62
6
 10
4.849076E+002
 20
3.7723363E+002
 11
4.847791E+002
 21
3.7734277E+002
  0
ARC
  5
52b
100
AcDbEntity
  8
Drafting_Hidden_Entities
100
AcDbCircle
  6
CONTINUOUS
 62
6
 10
4.8474866E+002
 20
3.7736875E+002
 40
2.0849423E-001
100
AcDbArc
 50
3.1967573E+002
 51
4.9967573E+002
  0
LINE
  5
52c
100
AcDbEntity
  8
Drafting_Hidden_Entities
100
AcDbLine
  6
CONTINUOUS
 62
6
 10
4.8458987E+002
 20
3.7750383E+002
 11
4.8471793E+002
 21
3.7739469E+002
  0
ARC
  5
52d
100
AcDbEntity
  8
Drafting_Hidden_Entities
100
AcDbCircle
  6
CONTINUOUS
 62
6
 10
4.851522E+002
 20
3.7702623E+002
 40
7.3780114E-001
100
AcDbArc
 50
1.3967573E+002
 51
2.3767168E+002
  0
LINE
  5
52e
100
AcDbEntity
  8
Drafting_Hidden_Entities
100
AcDbLine
  6
CONTINUOUS
 62
6
 10
4.8475754E+002
 20
3.7640277E+002
 11
4.8498638E+002
 21
3.7648154E+002
  0
ARC
  5
52f
100
AcDbEntity
  8
Drafting_Hidden_Entities
100
AcDbCircle
  6
CONTINUOUS
 62
6
 10
4.8545243E+002
 20
3.7615438E+002
 40
7.3783838E-001
100
AcDbArc
 50
1.6032605E+002
 51
2.6996445E+002
  0
LINE
  5
530
100
AcDbEntity
  8
Drafting_Hidden_Entities
100
AcDbLine
  6
CONTINUOUS
 62
6
 10
4.8545198E+002
 20
3.7541656E+002
 11
4.8545198E+002
 21
3.7558511E+002
  0
LINE
  5
531
100
AcDbEntity
  8
Drafting_Hidden_Entities
100
AcDbLine
  6
CONTINUOUS
 62
6
 10
4.865152E+002
 20
3.7541436E+002
 11
4.8545198E+002
 21
3.7541656E+002
  0
LINE
  5
532
100
AcDbEntity
  8
Drafting_Hidden_Entities
100
AcDbLine
  6
CONTINUOUS
 62
6
 10
4.865152E+002
 20
3.7541436E+002
 11
4.8663534E+002
 21
3.7558247E+002
  0
LINE
  5
533
100
AcDbEntity
  8
Drafting_Hidden_Entities
100
AcDbLine
  6
CONTINUOUS
 62
6
 10
4.8668023E+002
 20
3.7493424E+002
 11
4.865152E+002
 21
3.7541436E+002
  0
LINE
  5
534
100
AcDbEntity
  8
Drafting_Hidden_Entities
100
AcDbLine
  6
CONTINUOUS
 62
6
 10
4.8668023E+002
 20
3.7493424E+002
 11
4.8683953E+002
 21
3.7498924E+002
  0
ARC
  5
535
100
AcDbEntity
  8
Drafting_Hidden_Entities
100
AcDbCircle
  6
CONTINUOUS
 62
6
 10
4.8687735E+002
 20
3.7500228E+002
 40
2.0849423E-001
100
AcDbArc
 50
1.9900079E+002
 51
3.7900079E+002
  0
LINE
  5
536
100
AcDbEntity
  8
Drafting_Hidden_Entities
100
AcDbLine
  6
CONTINUOUS
 62
6
 10
4.8707453E+002
 20
3.7507022E+002
 11
4.8691523E+002
 21
3.7501521E+002
  0
LINE
  5
537
100
AcDbEntity
  8
Drafting_Hidden_Entities
100
AcDbLine
  6
CONTINUOUS
 62
6
 10
4.8695615E+002
 20
3.7541304E+002
 11
4.8707453E+002
 21
3.7507022E+002
  0
LINE
  5
538
100
AcDbEntity
  8
Drafting_Hidden_Entities
100
AcDbLine
  6
CONTINUOUS
 62
6
 10
4.8695615E+002
 20
3.7541304E+002
 11
4.8671983E+002
 21
3.7558203E+002
  0
LINE
  5
539
100
AcDbEntity
  8
Drafting_Hidden_Entities
100
AcDbLine
  6
CONTINUOUS
 62
6
 10
4.8769812E+002
 20
3.7541172E+002
 11
4.8695615E+002
 21
3.7541304E+002
  0
LINE
  5
53a
100
AcDbEntity
  8
Drafting_Hidden_Entities
100
AcDbLine
  6
CONTINUOUS
 62
6
 10
4.8769812E+002
 20
3.7541172E+002
 11
4.8780374E+002
 21
3.7557983E+002
  0
LINE
  5
53b
100
AcDbEntity
  8
Drafting_Hidden_Entities
100
AcDbLine
  6
CONTINUOUS
 62
6
 10
4.8830278E+002
 20
3.7417159E+002
 11
4.8769812E+002
 21
3.7541172E+002
  0
LINE
  5
53c
100
AcDbEntity
  8
Drafting_Hidden_Entities
100
AcDbLine
  6
CONTINUOUS
 62
6
 10
4.8830278E+002
 20
3.7417159E+002
 11
4.8845417E+002
 21
3.7424552E+002
  0
ARC
  5
53d
100
AcDbEntity
  8
Drafting_Hidden_Entities
100
AcDbCircle
  6
CONTINUOUS
 62
6
 10
4.8815444E+002
 20
3.7409928E+002
 40
1.6515059E-001
100
AcDbArc
 50
2.8177368E+002
 51
3.8599552E+002
  0
LINE
  5
53e
100
AcDbEntity
  8
Drafting_Hidden_Entities
100
AcDbLine
  6
CONTINUOUS
 62
6
 10
4.8818792E+002
 20
3.7393747E+002
 11
4.8808054E+002
 21
3.7377376E+002
  0
LINE
  5
53f
100
AcDbEntity
  8
Drafting_Hidden_Entities
100
AcDbLine
  6
CONTINUOUS
 62
6
 10
4.8787899E+002
 20
3.7457161E+002
 11
4.8818792E+002
 21
3.7393747E+002
  0
LINE
  5
540
100
AcDbEntity
  8
Drafting_Hidden_Entities
100
AcDbLine
  6
CONTINUOUS
 62
6
 10
4.8787899E+002
 20
3.7457161E+002
 11
4.877276E+002
 21
3.7449812E+002
  0
ARC
  5
541
100
AcDbEntity
  8
Drafting_Hidden_Entities
100
AcDbCircle
  6
CONTINUOUS
 62
6
 10
4.8750403E+002
 20
3.74389E+002
 40
4.1698845E-001
100
AcDbArc
 50
2.6000226E+001
 51
9.0E+001
  0
LINE
  5
542
100
AcDbEntity
  8
Drafting_Hidden_Entities
100
AcDbLine
  6
CONTINUOUS
 62
6
 10
4.8750405E+002
 20
3.7480617E+002
 11
4.8750405E+002
 21
3.7463762E+002
  0
LINE
  5
543
100
AcDbEntity
  8
Drafting_Hidden_Entities
100
AcDbLine
  6
CONTINUOUS
 62
6
 10
4.8718719E+002
 20
3.7480617E+002
 11
4.8750405E+002
 21
3.7480617E+002
  0
LINE
  5
544
100
AcDbEntity
  8
Drafting_Hidden_Entities
100
AcDbLine
  6
CONTINUOUS
 62
6
 10
4.8718719E+002
 20
3.7480617E+002
 11
4.8718719E+002
 21
3.7463762E+002
  0
ARC
  5
545
100
AcDbEntity
  8
Drafting_Hidden_Entities
100
AcDbCircle
  6
CONTINUOUS
 62
6
 10
4.8718723E+002
 20
3.7434839E+002
 40
4.5759849E-001
100
AcDbArc
 50
9.0E+001
 51
1.9096351E+002
  0
LINE
  5
546
100
AcDbEntity
  8
Drafting_Hidden_Entities
100
AcDbLine
  6
CONTINUOUS
 62
6
 10
4.8673788E+002
 20
3.7426136E+002
 11
4.8690334E+002
 21
3.7429349E+002
  0
ARC
  5
547
100
AcDbEntity
  8
Drafting_Hidden_Entities
100
AcDbCircle
  6
CONTINUOUS
 62
6
 10
4.8795178E+002
 20
3.7449611E+002
 40
1.2362838
100
AcDbArc
 50
1.9094616E+002
 51
2.1735362E+002
  0
LINE
  5
548
100
AcDbEntity
  8
Drafting_Hidden_Entities
100
AcDbLine
  6
CONTINUOUS
 62
6
 10
4.8696892E+002
 20
3.7374603E+002
 11
4.8710314E+002
 21
3.7384813E+002
  0
ARC
  5
549
100
AcDbEntity
  8
Drafting_Hidden_Entities
100
AcDbCircle
  6
CONTINUOUS
 62
6
 10
4.8743174E+002
 20
3.7409906E+002
 40
5.8200015E-001
100
AcDbArc
 50
2.1734476E+002
 51
2.7093746E+002
  0
LINE
  5
54a
100
AcDbEntity
  8
Drafting_Hidden_Entities
100
AcDbLine
  6
CONTINUOUS
 62
6
 10
4.8744112E+002
 20
3.7351719E+002
 11
4.8743848E+002
 21
3.7368574E+002
  0
LINE
  5
54b
100
AcDbEntity
  8
Drafting_Hidden_Entities
100
AcDbLine
  6
CONTINUOUS
 62
6
 10
4.8792916E+002
 20
3.7351719E+002
 11
4.8744112E+002
 21
3.7351719E+002
  0
LINE
  5
54c
100
AcDbEntity
  8
Drafting_Hidden_Entities
100
AcDbLine
  6
CONTINUOUS
 62
6
 10
4.8792916E+002
 20
3.7351719E+002
 11
4.8803434E+002
 21
3.7368574E+002
  0
LINE
  5
54d
100
AcDbEntity
  8
Drafting_Hidden_Entities
100
AcDbLine
  6
CONTINUOUS
 62
6
 10
4.8883043E+002
 20
3.7166976E+002
 11
4.8792916E+002
 21
3.7351719E+002
  0
LINE
  5
54e
100
AcDbEntity
  8
Drafting_Hidden_Entities
100
AcDbLine
  6
CONTINUOUS
 62
6
 10
4.8883043E+002
 20
3.7166976E+002
 11
4.8909976E+002
 21
3.7150121E+002
  0
LINE
  5
54f
100
AcDbEntity
  8
Drafting_Hidden_Entities
100
AcDbLine
  6
CONTINUOUS
 62
6
 10
4.8824513E+002
 20
3.7166976E+002
 11
4.8883043E+002
 21
3.7166976E+002
  0
LINE
  5
550
100
AcDbEntity
  8
Drafting_Hidden_Entities
100
AcDbLine
  6
CONTINUOUS
 62
6
 10
4.8824513E+002
 20
3.7166976E+002
 11
4.8812499E+002
 21
3.7150121E+002
  0
LINE
  5
551
100
AcDbEntity
  8
Drafting_Hidden_Entities
100
AcDbLine
  6
CONTINUOUS
 62
6
 10
4.8799649E+002
 20
3.7239236E+002
 11
4.8824513E+002
 21
3.7166976E+002
  0
LINE
  5
552
100
AcDbEntity
  8
Drafting_Hidden_Entities
100
AcDbLine
  6
CONTINUOUS
 62
6
 10
4.8799649E+002
 20
3.7239236E+002
 11
4.8783718E+002
 21
3.7233735E+002
  0
ARC
  5
553
100
AcDbEntity
  8
Drafting_Hidden_Entities
100
AcDbCircle
  6
CONTINUOUS
 62
6
 10
4.8779941E+002
 20
3.7232444E+002
 40
2.0849423E-001
100
AcDbArc
 50
1.8999285E+001
 51
1.9899928E+002
  0
LINE
  5
554
100
AcDbEntity
  8
Drafting_Hidden_Entities
100
AcDbLine
  6
CONTINUOUS
 62
6
 10
4.8760218E+002
 20
3.7225638E+002
 11
4.8776149E+002
 21
3.7231139E+002
  0
LINE
  5
555
100
AcDbEntity
  8
Drafting_Hidden_Entities
100
AcDbLine
  6
CONTINUOUS
 62
6
 10
4.8780418E+002
 20
3.7166976E+002
 11
4.8760218E+002
 21
3.7225638E+002
  0
LINE
  5
556
100
AcDbEntity
  8
Drafting_Hidden_Entities
100
AcDbLine
  6
CONTINUOUS
 62
6
 10
4.8780418E+002
 20
3.7166976E+002
 11
4.8804006E+002
 21
3.7150253E+002
  0
LINE
  5
557
100
AcDbEntity
  8
Drafting_Hidden_Entities
100
AcDbLine
  6
CONTINUOUS
 62
6
 10
4.8681489E+002
 20
3.7166976E+002
 11
4.8780418E+002
 21
3.7166976E+002
  0
LINE
  5
558
100
AcDbEntity
  8
Drafting_Hidden_Entities
100
AcDbLine
  6
CONTINUOUS
 62
6
 10
4.8681489E+002
 20
3.7166976E+002
 11
4.8688926E+002
 21
3.7149681E+002
  0
ARC
  5
559
100
AcDbEntity
  8
Drafting_Hidden_Entities
100
AcDbCircle
  6
CONTINUOUS
 62
6
 10
4.8688912E+002
 20
3.7198192E+002
 40
3.2085684E-001
100
AcDbArc
 50
1.3967979E+002
 51
2.565865E+002
  0
LINE
  5
55a
100
AcDbEntity
  8
Drafting_Hidden_Entities
100
AcDbLine
  6
CONTINUOUS
 62
6
 10
4.8664458E+002
 20
3.7218949E+002
 11
4.8651608E+002
 21
3.7229863E+002
  0
ARC
  5
55b
100
AcDbEntity
  8
Drafting_Hidden_Entities
100
AcDbCircle
  6
CONTINUOUS
 62
6
 10
4.8648552E+002
 20
3.7232444E+002
 40
2.0849423E-001
100
AcDbArc
 50
3.1967979E+002
 51
4.9967979E+002
  0
LINE
  5
55c
100
AcDbEntity
  8
Drafting_Hidden_Entities
100
AcDbLine
  6
CONTINUOUS
 62
6
 10
4.8632641E+002
 20
3.7245925E+002
 11
4.8645491E+002
 21
3.7235012E+002
  0
ARC
  5
55d
100
AcDbEntity
  8
Drafting_Hidden_Entities
100
AcDbCircle
  6
CONTINUOUS
 62
6
 10
4.8688912E+002
 20
3.7198192E+002
 40
7.3784529E-001
100
AcDbArc
 50
1.3967979E+002
 51
2.3767411E+002
  0
LINE
  5
55e
100
AcDbEntity
  8
Drafting_Hidden_Entities
100
AcDbLine
  6
CONTINUOUS
 62
6
 10
4.8649452E+002
 20
3.7135863E+002
 11
4.8672335E+002
 21
3.714374E+002
  0
ARC
  5
55f
100
AcDbEntity
  8
Drafting_Hidden_Entities
100
AcDbCircle
  6
CONTINUOUS
 62
6
 10
4.8718935E+002
 20
3.7111007E+002
 40
7.3783768E-001
100
AcDbArc
 50
1.6032992E+002
 51
2.6995844E+002
  0
LINE
  5
560
100
AcDbEntity
  8
Drafting_Hidden_Entities
100
AcDbLine
  6
CONTINUOUS
 62
6
 10
4.8718895E+002
 20
3.7037242E+002
 11
4.8718895E+002
 21
3.7054053E+002
  0
LINE
  5
561
100
AcDbEntity
  8
Drafting_Hidden_Entities
100
AcDbLine
  6
CONTINUOUS
 62
6
 10
4.8825217E+002
 20
3.7036934E+002
 11
4.8718895E+002
 21
3.7037242E+002
  0
LINE
  5
562
100
AcDbEntity
  8
Drafting_Hidden_Entities
100
AcDbLine
  6
CONTINUOUS
 62
6
 10
4.8825217E+002
 20
3.7036934E+002
 11
4.8837231E+002
 21
3.7053745E+002
  0
LINE
  5
563
100
AcDbEntity
  8
Drafting_Hidden_Entities
100
AcDbLine
  6
CONTINUOUS
 62
6
 10
4.884172E+002
 20
3.698901E+002
 11
4.8825217E+002
 21
3.7036934E+002
  0
LINE
  5
564
100
AcDbEntity
  8
Drafting_Hidden_Entities
100
AcDbLine
  6
CONTINUOUS
 62
6
 10
4.884172E+002
 20
3.698901E+002
 11
4.8857651E+002
 21
3.6994511E+002
  0
ARC
  5
565
100
AcDbEntity
  8
Drafting_Hidden_Entities
100
AcDbCircle
  6
CONTINUOUS
 62
6
 10
4.8861421E+002
 20
3.6995797E+002
 40
2.0849423E-001
100
AcDbArc
 50
1.9899928E+002
 51
3.7899928E+002
  0
LINE
  5
566
100
AcDbEntity
  8
Drafting_Hidden_Entities
100
AcDbLine
  6
CONTINUOUS
 62
6
 10
4.8881151E+002
 20
3.7002564E+002
 11
4.886522E+002
 21
3.6997107E+002
  0
LINE
  5
567
100
AcDbEntity
  8
Drafting_Hidden_Entities
100
AcDbLine
  6
CONTINUOUS
 62
6
 10
4.8869357E+002
 20
3.7036846E+002
 11
4.8881151E+002
 21
3.7002564E+002
  0
LINE
  5
568
100
AcDbEntity
  8
Drafting_Hidden_Entities
100
AcDbLine
  6
CONTINUOUS
 62
6
 10
4.8869357E+002
 20
3.7036846E+002
 11
4.8845681E+002
 21
3.7053745E+002
  0
LINE
  5
569
100
AcDbEntity
  8
Drafting_Hidden_Entities
100
AcDbLine
  6
CONTINUOUS
 62
6
 10
4.894659E+002
 20
3.7036626E+002
 11
4.8869357E+002
 21
3.7036846E+002
  0
LINE
  5
56a
100
AcDbEntity
  8
Drafting_Hidden_Entities
100
AcDbLine
  6
CONTINUOUS
 62
6
 10
4.894659E+002
 20
3.7036626E+002
 11
4.8957152E+002
 21
3.7053437E+002
  0
LINE
  5
56b
100
AcDbEntity
  8
Drafting_Hidden_Entities
100
AcDbLine
  6
CONTINUOUS
 62
6
 10
4.9007012E+002
 20
3.6912745E+002
 11
4.894659E+002
 21
3.7036626E+002
  0
LINE
  5
56c
100
AcDbEntity
  8
Drafting_Hidden_Entities
100
AcDbLine
  6
CONTINUOUS
 62
6
 10
4.9007012E+002
 20
3.6912745E+002
 11
4.9022195E+002
 21
3.6920138E+002
  0
ARC
  5
56d
100
AcDbEntity
  8
Drafting_Hidden_Entities
100
AcDbCircle
  6
CONTINUOUS
 62
6
 10
4.8992188E+002
 20
3.6905498E+002
 40
1.6517376E-001
100
AcDbArc
 50
2.8175475E+002
 51
3.8599712E+002
  0
LINE
  5
56e
100
AcDbEntity
  8
Drafting_Hidden_Entities
100
AcDbLine
  6
CONTINUOUS
 62
6
 10
4.899557E+002
 20
3.6889333E+002
 11
4.8984789E+002
 21
3.6872962E+002
  0
LINE
  5
56f
100
AcDbEntity
  8
Drafting_Hidden_Entities
100
AcDbLine
  6
CONTINUOUS
 62
6
 10
4.8964633E+002
 20
3.6952748E+002
 11
4.899557E+002
 21
3.6889333E+002
  0
LINE
  5
570
100
AcDbEntity
  8
Drafting_Hidden_Entities
100
AcDbLine
  6
CONTINUOUS
 62
6
 10
4.8964633E+002
 20
3.6952748E+002
 11
4.8949495E+002
 21
3.6945354E+002
  0
ARC
  5
571
100
AcDbEntity
  8
Drafting_Hidden_Entities
100
AcDbCircle
  6
CONTINUOUS
 62
6
 10
4.892714E+002
 20
3.6934469E+002
 40
4.1698845E-001
100
AcDbArc
 50
2.6000841E+001
 51
9.0000001E+001
  0
LINE
  5
572
100
AcDbEntity
  8
Drafting_Hidden_Entities
100
AcDbLine
  6
CONTINUOUS
 62
6
 10
4.8927139E+002
 20
3.697616E+002
 11
4.8927139E+002
 21
3.6959305E+002
  0
LINE
  5
573
100
AcDbEntity
  8
Drafting_Hidden_Entities
100
AcDbLine
  6
CONTINUOUS
 62
6
 10
4.8892417E+002
 20
3.697616E+002
 11
4.8927139E+002
 21
3.697616E+002
  0
LINE
  5
574
100
AcDbEntity
  8
Drafting_Hidden_Entities
100
AcDbLine
  6
CONTINUOUS
 62
6
 10
4.8892417E+002
 20
3.697616E+002
 11
4.8892417E+002
 21
3.6959305E+002
  0
ARC
  5
575
100
AcDbEntity
  8
Drafting_Hidden_Entities
100
AcDbCircle
  6
CONTINUOUS
 62
6
 10
4.8892409E+002
 20
3.6930413E+002
 40
4.5754672E-001
100
AcDbArc
 50
8.9991372E+001
 51
1.9095263E+002
  0
LINE
  5
576
100
AcDbEntity
  8
Drafting_Hidden_Entities
100
AcDbLine
  6
CONTINUOUS
 62
6
 10
4.8847485E+002
 20
3.6921722E+002
 11
4.8864032E+002
 21
3.6924935E+002
  0
ARC
  5
577
100
AcDbEntity
  8
Drafting_Hidden_Entities
100
AcDbCircle
  6
CONTINUOUS
 62
6
 10
4.8968744E+002
 20
3.6945149E+002
 40
1.2349871
100
AcDbArc
 50
1.9093627E+002
 51
2.1737627E+002
  0
LINE
  5
578
100
AcDbEntity
  8
Drafting_Hidden_Entities
100
AcDbLine
  6
CONTINUOUS
 62
6
 10
4.8870589E+002
 20
3.6870189E+002
 11
4.8884011E+002
 21
3.6880399E+002
  0
ARC
  5
579
100
AcDbEntity
  8
Drafting_Hidden_Entities
100
AcDbCircle
  6
CONTINUOUS
 62
6
 10
4.8916877E+002
 20
3.6905491E+002
 40
5.8207789E-001
100
AcDbArc
 50
2.1734742E+002
 51
2.7E+002
  0
LINE
  5
57a
100
AcDbEntity
  8
Drafting_Hidden_Entities
100
AcDbLine
  6
CONTINUOUS
 62
6
 10
4.8916885E+002
 20
3.6847306E+002
 11
4.8916885E+002
 21
3.6864116E+002
  0
LINE
  5
57b
100
AcDbEntity
  8
Drafting_Hidden_Entities
100
AcDbLine
  6
CONTINUOUS
 62
6
 10
4.896965E+002
 20
3.6847262E+002
 11
4.8916885E+002
 21
3.6847306E+002
  0
LINE
  5
57c
100
AcDbEntity
  8
Drafting_Hidden_Entities
100
AcDbLine
  6
CONTINUOUS
 62
6
 10
4.9112454E+002
 20
3.703623E+002
 11
4.8993062E+002
 21
3.7036538E+002
  0
LINE
  5
57d
100
AcDbEntity
  8
Drafting_Hidden_Entities
100
AcDbLine
  6
CONTINUOUS
 62
6
 10
4.8966041E+002
 20
3.7053437E+002
 11
4.8993062E+002
 21
3.7036538E+002
  0
LINE
  5
57e
100
AcDbEntity
  8
Drafting_Hidden_Entities
100
AcDbLine
  6
CONTINUOUS
 62
6
 10
4.9112454E+002
 20
3.703623E+002
 11
4.9114391E+002
 21
3.7053041E+002
  0
LINE
  5
57f
100
AcDbEntity
  8
Drafting_Hidden_Entities
100
AcDbLine
  6
CONTINUOUS
 62
6
 10
4.8993062E+002
 20
3.7036538E+002
 11
4.9044507E+002
 21
3.6931008E+002
  0
LINE
  5
580
100
AcDbEntity
  8
Drafting_Hidden_Entities
100
AcDbLine
  6
CONTINUOUS
 62
6
 10
4.9029368E+002
 20
3.6923615E+002
 11
4.9044507E+002
 21
3.6931008E+002
  0
ARC
  5
581
100
AcDbEntity
  8
Drafting_Hidden_Entities
100
AcDbCircle
  6
CONTINUOUS
 62
6
 10
4.8992188E+002
 20
3.6905498E+002
 40
5.8215369E-001
100
AcDbArc
 50
2.9199708E+002
 51
3.8599911E+002
  0
LINE
  5
582
100
AcDbEntity
  8
Drafting_Hidden_Entities
100
AcDbLine
  6
CONTINUOUS
 62
6
 10
4.8989057E+002
 20
3.6864248E+002
 11
4.901401E+002
 21
3.685153E+002
  0
LINE
  5
583
100
AcDbEntity
  8
Drafting_Hidden_Entities
100
AcDbLine
  6
CONTINUOUS
 62
6
 10
4.901401E+002
 20
3.685153E+002
 11
4.9071659E+002
 21
3.6733326E+002
  0
LINE
  5
584
100
AcDbEntity
  8
Drafting_Hidden_Entities
100
AcDbLine
  6
CONTINUOUS
 62
6
 10
4.9061142E+002
 20
3.6716471E+002
 11
4.9071659E+002
 21
3.6733326E+002
  0
LINE
  5
585
100
AcDbEntity
  8
Drafting_Hidden_Entities
100
AcDbLine
  6
CONTINUOUS
 62
6
 10
4.9071659E+002
 20
3.6733326E+002
 11
4.9392738E+002
 21
3.6733326E+002
  0
LINE
  5
586
100
AcDbEntity
  8
Drafting_Hidden_Entities
100
AcDbLine
  6
CONTINUOUS
 62
6
 10
4.9409593E+002
 20
3.6716471E+002
 11
4.9392738E+002
 21
3.6733326E+002
  0
LINE
  5
587
100
AcDbEntity
  8
Drafting_Hidden_Entities
100
AcDbLine
  6
CONTINUOUS
 62
6
 10
4.9392738E+002
 20
3.6733326E+002
 11
4.9392738E+002
 21
3.7849928E+002
  0
LINE
  5
588
100
AcDbEntity
  8
Drafting_Hidden_Entities
100
AcDbLine
  6
CONTINUOUS
 62
6
 10
4.9409593E+002
 20
3.7866739E+002
 11
4.9392738E+002
 21
3.7849928E+002
  0
LINE
  5
589
100
AcDbEntity
  8
Drafting_Hidden_Entities
100
AcDbLine
  6
CONTINUOUS
 62
6
 10
4.9392738E+002
 20
3.7849928E+002
 11
4.8665646E+002
 21
3.7849928E+002
  0
LINE
  5
58a
100
AcDbEntity
  8
Drafting_Hidden_Entities
100
AcDbLine
  6
CONTINUOUS
 62
6
 10
4.863867E+002
 20
3.7866739E+002
 11
4.8665646E+002
 21
3.7849928E+002
  0
LINE
  5
58b
100
AcDbEntity
  8
Drafting_Hidden_Entities
100
AcDbLine
  6
CONTINUOUS
 62
6
 10
4.8665646E+002
 20
3.7849928E+002
 11
4.8752957E+002
 21
3.7670862E+002
  0
LINE
  5
58c
100
AcDbEntity
  8
Drafting_Hidden_Entities
100
AcDbLine
  6
CONTINUOUS
 62
6
 10
4.8742395E+002
 20
3.7654051E+002
 11
4.8752957E+002
 21
3.7670862E+002
  0
LINE
  5
58d
100
AcDbEntity
  8
Drafting_Hidden_Entities
100
AcDbLine
  6
CONTINUOUS
 62
6
 10
4.8752957E+002
 20
3.7670862E+002
 11
4.8900822E+002
 21
3.7670554E+002
  0
LINE
  5
58e
100
AcDbEntity
  8
Drafting_Hidden_Entities
100
AcDbLine
  6
CONTINUOUS
 62
6
 10
4.8900778E+002
 20
3.7653699E+002
 11
4.8900822E+002
 21
3.7670554E+002
  0
ARC
  5
58f
100
AcDbEntity
  8
Drafting_Hidden_Entities
100
AcDbCircle
  6
CONTINUOUS
 62
6
 10
4.8900755E+002
 20
3.7596755E+002
 40
7.3782768E-001
100
AcDbArc
 50
3.4032833E+002
 51
4.4996431E+002
  0
LINE
  5
590
100
AcDbEntity
  8
Drafting_Hidden_Entities
100
AcDbLine
  6
CONTINUOUS
 62
6
 10
4.8947338E+002
 20
3.7564056E+002
 11
4.8970222E+002
 21
3.7571933E+002
  0
ARC
  5
591
100
AcDbEntity
  8
Drafting_Hidden_Entities
100
AcDbCircle
  6
CONTINUOUS
 62
6
 10
4.8930784E+002
 20
3.750957E+002
 40
7.3780114E-001
100
AcDbArc
 50
3.1967573E+002
 51
4.1767511E+002
  0
LINE
  5
592
100
AcDbEntity
  8
Drafting_Hidden_Entities
100
AcDbLine
  6
CONTINUOUS
 62
6
 10
4.8974183E+002
 20
3.747274E+002
 11
4.8987033E+002
 21
3.7461826E+002
  0
ARC
  5
593
100
AcDbEntity
  8
Drafting_Hidden_Entities
100
AcDbCircle
  6
CONTINUOUS
 62
6
 10
4.8971138E+002
 20
3.7475318E+002
 40
2.0849423E-001
100
AcDbArc
 50
1.3967573E+002
 51
3.1967573E+002
  0
LINE
  5
594
100
AcDbEntity
  8
Drafting_Hidden_Entities
100
AcDbLine
  6
CONTINUOUS
 62
6
 10
4.8968066E+002
 20
3.7477889E+002
 11
4.895526E+002
 21
3.7488803E+002
  0
ARC
  5
595
100
AcDbEntity
  8
Drafting_Hidden_Entities
100
AcDbCircle
  6
CONTINUOUS
 62
6
 10
4.8930784E+002
 20
3.750957E+002
 40
3.2081269E-001
100
AcDbArc
 50
3.1967573E+002
 51
4.3667384E+002
  0
LINE
  5
596
100
AcDbEntity
  8
Drafting_Hidden_Entities
100
AcDbLine
  6
CONTINUOUS
 62
6
 10
4.8930879E+002
 20
3.7558071E+002
 11
4.8938185E+002
 21
3.7540776E+002
  0
LINE
  5
597
100
AcDbEntity
  8
Drafting_Hidden_Entities
100
AcDbLine
  6
CONTINUOUS
 62
6
 10
4.8938185E+002
 20
3.7540776E+002
 11
4.881624E+002
 21
3.754104E+002
  0
LINE
  5
598
100
AcDbEntity
  8
Drafting_Hidden_Entities
100
AcDbLine
  6
CONTINUOUS
 62
6
 10
4.8789263E+002
 20
3.7557983E+002
 11
4.881624E+002
 21
3.754104E+002
  0
LINE
  5
599
100
AcDbEntity
  8
Drafting_Hidden_Entities
100
AcDbLine
  6
CONTINUOUS
 62
6
 10
4.881624E+002
 20
3.754104E+002
 11
4.8867773E+002
 21
3.7435466E+002
  0
LINE
  5
59a
100
AcDbEntity
  8
Drafting_Hidden_Entities
100
AcDbLine
  6
CONTINUOUS
 62
6
 10
4.8852634E+002
 20
3.7428072E+002
 11
4.8867773E+002
 21
3.7435466E+002
  0
ARC
  5
59b
100
AcDbEntity
  8
Drafting_Hidden_Entities
100
AcDbCircle
  6
CONTINUOUS
 62
6
 10
4.8815443E+002
 20
3.7409929E+002
 40
5.8214533E-001
100
AcDbArc
 50
2.9200244E+002
 51
3.8599638E+002
  0
LINE
  5
59c
100
AcDbEntity
  8
Drafting_Hidden_Entities
100
AcDbLine
  6
CONTINUOUS
 62
6
 10
4.8812279E+002
 20
3.7368662E+002
 11
4.8837231E+002
 21
3.7355944E+002
  0
LINE
  5
59d
100
AcDbEntity
  8
Drafting_Hidden_Entities
100
AcDbLine
  6
CONTINUOUS
 62
6
 10
4.8837231E+002
 20
3.7355944E+002
 11
4.8929427E+002
 21
3.7166976E+002
  0
LINE
  5
59e
100
AcDbEntity
  8
Drafting_Hidden_Entities
100
AcDbLine
  6
CONTINUOUS
 62
6
 10
4.8918909E+002
 20
3.7150121E+002
 11
4.8929427E+002
 21
3.7166976E+002
  0
LINE
  5
59f
100
AcDbEntity
  8
Drafting_Hidden_Entities
100
AcDbLine
  6
CONTINUOUS
 62
6
 10
4.8929427E+002
 20
3.7166976E+002
 11
4.9074432E+002
 21
3.7166976E+002
  0
LINE
  5
5a0
100
AcDbEntity
  8
Drafting_Hidden_Entities
100
AcDbLine
  6
CONTINUOUS
 62
6
 10
4.9074432E+002
 20
3.7150121E+002
 11
4.9074432E+002
 21
3.7166976E+002
  0
ARC
  5
5a1
100
AcDbEntity
  8
Drafting_Hidden_Entities
100
AcDbCircle
  6
CONTINUOUS
 62
6
 10
4.9074447E+002
 20
3.7093198E+002
 40
7.3783803E-001
100
AcDbArc
 50
3.3974028E+002
 51
4.5000002E+002
  0
LINE
  5
5a2
100
AcDbEntity
  8
Drafting_Hidden_Entities
100
AcDbLine
  6
CONTINUOUS
 62
6
 10
4.9120552E+002
 20
3.7059774E+002
 11
4.9143656E+002
 21
3.7067651E+002
  0
ARC
  5
5a3
100
AcDbEntity
  8
Drafting_Hidden_Entities
100
AcDbCircle
  6
CONTINUOUS
 62
6
 10
4.9104464E+002
 20
3.7005139E+002
 40
7.3784529E-001
100
AcDbArc
 50
3.1967979E+002
 51
4.1790673E+002
  0
LINE
  5
5a4
100
AcDbEntity
  8
Drafting_Hidden_Entities
100
AcDbLine
  6
CONTINUOUS
 62
6
 10
4.914788E+002
 20
3.6968282E+002
 11
4.9160731E+002
 21
3.6957412E+002
  0
ARC
  5
5a5
100
AcDbEntity
  8
Drafting_Hidden_Entities
100
AcDbCircle
  6
CONTINUOUS
 62
6
 10
4.9144824E+002
 20
3.6970887E+002
 40
2.0849423E-001
100
AcDbArc
 50
1.3967979E+002
 51
3.1967979E+002
  0
LINE
  5
5a6
100
AcDbEntity
  8
Drafting_Hidden_Entities
100
AcDbLine
  6
CONTINUOUS
 62
6
 10
4.9141763E+002
 20
3.6973475E+002
 11
4.9128913E+002
 21
3.6984389E+002
  0
ARC
  5
5a7
100
AcDbEntity
  8
Drafting_Hidden_Entities
100
AcDbCircle
  6
CONTINUOUS
 62
6
 10
4.9104464E+002
 20
3.7005139E+002
 40
3.2085684E-001
100
AcDbArc
 50
3.1967979E+002
 51
4.3556472E+002
  0
ARC
  5
5a8
100
AcDbEntity
  8
Drafting_Hidden_Entities
100
AcDbCircle
  6
CONTINUOUS
 62
6
 10
4.8276136E+002
 20
3.7849907E+002
 40
4.1698845E-001
100
AcDbArc
 50
9.0E+001
 51
1.8E+002
  0
LINE
  5
5a9
100
AcDbEntity
  8
Drafting_Hidden_Entities
100
AcDbLine
  6
CONTINUOUS
 62
6
 10
4.8276136E+002
 20
3.7874748E+002
 11
4.8276136E+002
 21
3.7891603E+002
  0
LINE
  5
5aa
100
AcDbEntity
  8
Drafting_Hidden_Entities
100
AcDbLine
  6
CONTINUOUS
 62
6
 10
4.8234417E+002
 20
3.7849928E+002
 11
4.8251272E+002
 21
3.7849928E+002
  0
LINE
  5
5ab
100
AcDbEntity
  8
Drafting_Hidden_Entities
100
AcDbLine
  6
CONTINUOUS
 62
6
 10
4.8276136E+002
 20
3.7891603E+002
 11
4.9392738E+002
 21
3.7891603E+002
  0
LINE
  5
5ac
100
AcDbEntity
  8
Drafting_Hidden_Entities
100
AcDbLine
  6
CONTINUOUS
 62
6
 10
4.9392738E+002
 20
3.7874748E+002
 11
4.9392738E+002
 21
3.7891603E+002
  0
ARC
  5
5ad
100
AcDbEntity
  8
Drafting_Hidden_Entities
100
AcDbCircle
  6
CONTINUOUS
 62
6
 10
4.9392739E+002
 20
3.7849907E+002
 40
4.1698845E-001
100
AcDbArc
 50
0.0
 51
9.0E+001
  0
LINE
  5
5ae
100
AcDbEntity
  8
Drafting_Hidden_Entities
100
AcDbLine
  6
CONTINUOUS
 62
6
 10
4.9417602E+002
 20
3.7849928E+002
 11
4.9434457E+002
 21
3.7849928E+002
  0
LINE
  5
5af
100
AcDbEntity
  8
Drafting_Hidden_Entities
100
AcDbLine
  6
CONTINUOUS
 62
6
 10
4.9434457E+002
 20
3.7849928E+002
 11
4.9434457E+002
 21
3.6733326E+002
  0
LINE
  5
5b0
100
AcDbEntity
  8
Drafting_Hidden_Entities
100
AcDbLine
  6
CONTINUOUS
 62
6
 10
4.9417602E+002
 20
3.6733326E+002
 11
4.9434457E+002
 21
3.6733326E+002
  0
ARC
  5
5b1
100
AcDbEntity
  8
Drafting_Hidden_Entities
100
AcDbCircle
  6
CONTINUOUS
 62
6
 10
4.9392739E+002
 20
3.6733304E+002
 40
4.1698845E-001
100
AcDbArc
 50
2.7E+002
 51
3.6E+002
  0
LINE
  5
5b2
100
AcDbEntity
  8
Drafting_Hidden_Entities
100
AcDbLine
  6
CONTINUOUS
 62
6
 10
4.9392738E+002
 20
3.6708462E+002
 11
4.9392738E+002
 21
3.6691607E+002
  0
LINE
  5
5b3
100
AcDbEntity
  8
Drafting_Hidden_Entities
100
AcDbLine
  6
CONTINUOUS
 62
6
 10
4.9392738E+002
 20
3.6691607E+002
 11
4.8276136E+002
 21
3.6691607E+002
  0
LINE
  5
5b4
100
AcDbEntity
  8
Drafting_Hidden_Entities
100
AcDbLine
  6
CONTINUOUS
 62
6
 10
4.8276136E+002
 20
3.6708462E+002
 11
4.8276136E+002
 21
3.6691607E+002
  0
ARC
  5
5b5
100
AcDbEntity
  8
Drafting_Hidden_Entities
100
AcDbCircle
  6
CONTINUOUS
 62
6
 10
4.8276136E+002
 20
3.6733304E+002
 40
4.1698845E-001
100
AcDbArc
 50
1.8E+002
 51
2.7E+002
  0
LINE
  5
5b6
100
AcDbEntity
  8
Drafting_Hidden_Entities
100
AcDbLine
  6
CONTINUOUS
 62
6
 10
4.8251272E+002
 20
3.6733326E+002
 11
4.8234417E+002
 21
3.6733326E+002
  0
LINE
  5
5b7
100
AcDbEntity
  8
Drafting_Hidden_Entities
100
AcDbLine
  6
CONTINUOUS
 62
6
 10
4.8234417E+002
 20
3.6733326E+002
 11
4.8234417E+002
 21
3.7849928E+002
  0
LINE
  5
5b8
100
AcDbEntity
  8
5
100
AcDbLine
  6
CONTINUOUS
 62
30
 10
-2.4915562E+002
 20
2.4689894E+002
 11
-2.4915562E+002
 21
2.4989894E+002
  0
LINE
  5
5b9
100
AcDbEntity
  8
5
100
AcDbLine
  6
CONTINUOUS
 62
30
 10
1.5108444E+003
 20
2.4989894E+002
 11
1.5108444E+003
 21
2.4689894E+002
  0
LINE
  5
5ba
100
AcDbEntity
  8
5
100
AcDbLine
  6
CONTINUOUS
 62
30
 10
1.0859438E+002
 20
2.4989894E+002
 11
1.1159437E+002
 21
2.4989894E+002
  0
LINE
  5
5bb
100
AcDbEntity
  8
5
100
AcDbLine
  6
CONTINUOUS
 62
30
 10
1.1159437E+002
 20
2.4989894E+002
 11
1.5409438E+002
 21
2.4989894E+002
  0
LINE
  5
5bc
100
AcDbEntity
  8
5
100
AcDbLine
  6
CONTINUOUS
 62
30
 10
1.5409438E+002
 20
2.4989894E+002
 11
1.5709437E+002
 21
2.4989894E+002
  0
LINE
  5
5bd
100
AcDbEntity
  8
5
100
AcDbLine
  6
CONTINUOUS
 62
30
 10
1.5709437E+002
 20
2.4989894E+002
 11
1.5108444E+003
 21
2.4989894E+002
  0
LINE
  5
5be
100
AcDbEntity
  8
5
100
AcDbLine
  6
CONTINUOUS
 62
30
 10
-2.4915562E+002
 20
2.4989894E+002
 11
1.0859438E+002
 21
2.4989894E+002
  0
LINE
  5
5bf
100
AcDbEntity
  8
5
100
AcDbLine
  6
HIDDEN
 62
40
 10
-8.4155625E+001
 20
2.4989894E+002
 11
-8.4155625E+001
 21
2.4689894E+002
  0
LINE
  5
5c0
100
AcDbEntity
  8
5
100
AcDbLine
  6
HIDDEN
 62
40
 10
-1.3915563E+002
 20
2.4689894E+002
 11
-1.3915563E+002
 21
2.4989894E+002
  0
LINE
  5
5c1
100
AcDbEntity
  8
5
100
AcDbLine
  6
HIDDEN
 62
40
 10
5.8584437E+002
 20
2.4989894E+002
 11
5.8584437E+002
 21
2.4689894E+002
  0
LINE
  5
5c2
100
AcDbEntity
  8
5
100
AcDbLine
  6
HIDDEN
 62
40
 10
5.3584437E+002
 20
2.4689894E+002
 11
5.3584437E+002
 21
2.4989894E+002
  0
LINE
  5
5c3
100
AcDbEntity
  8
5
100
AcDbLine
  6
HIDDEN
 62
40
 10
6.7284438E+002
 20
2.4989894E+002
 11
6.7284438E+002
 21
2.4689894E+002
  0
LINE
  5
5c4
100
AcDbEntity
  8
5
100
AcDbLine
  6
HIDDEN
 62
40
 10
6.1784437E+002
 20
2.4689894E+002
 11
6.1784437E+002
 21
2.4989894E+002
  0
LINE
  5
5c5
100
AcDbEntity
  8
5
100
AcDbLine
  6
HIDDEN
 62
40
 10
1.4058444E+003
 20
2.4989894E+002
 11
1.4058444E+003
 21
2.4689894E+002
  0
LINE
  5
5c6
100
AcDbEntity
  8
5
100
AcDbLine
  6
HIDDEN
 62
40
 10
1.3508444E+003
 20
2.4689894E+002
 11
1.3508444E+003
 21
2.4989894E+002
  0
LINE
  5
5c7
100
AcDbEntity
  8
5
100
AcDbLine
  6
CONTINUOUS
 62
30
 10
1.0859438E+002
 20
2.4689894E+002
 11
1.0859438E+002
 21
2.4989894E+002
  0
LINE
  5
5c8
100
AcDbEntity
  8
5
100
AcDbLine
  6
CONTINUOUS
 62
30
 10
1.5709437E+002
 20
2.4989894E+002
 11
1.5709437E+002
 21
2.4689894E+002
  0
LINE
  5
5c9
100
AcDbEntity
  8
5
100
AcDbLine
  6
HIDDEN
 62
6
 10
4.8251285E+002
 20
2.4731593E+002
 11
4.8276136E+002
 21
2.4731593E+002
  0
LINE
  5
5ca
100
AcDbEntity
  8
5
100
AcDbLine
  6
HIDDEN
 62
6
 10
4.8276136E+002
 20
2.4731593E+002
 11
4.9392739E+002
 21
2.4731593E+002
  0
LINE
  5
5cb
100
AcDbEntity
  8
5
100
AcDbLine
  6
HIDDEN
 62
6
 10
4.9392739E+002
 20
2.4731593E+002
 11
4.941759E+002
 21
2.4731593E+002
  0
LINE
  5
5cc
100
AcDbEntity
  8
5
100
AcDbLine
  6
HIDDEN
 62
6
 10
4.8276136E+002
 20
2.4689894E+002
 11
4.8259289E+002
 21
2.4731593E+002
  0
LINE
  5
5cd
100
AcDbEntity
  8
5
100
AcDbLine
  6
HIDDEN
 62
6
 10
4.9409586E+002
 20
2.4731593E+002
 11
4.9392739E+002
 21
2.4689894E+002
  0
LINE
  5
5ce
100
AcDbEntity
  8
5
100
AcDbLine
  6
HIDDEN
 62
6
 10
4.941759E+002
 20
2.4731593E+002
 11
4.9434437E+002
 21
2.4689894E+002
  0
LINE
  5
5cf
100
AcDbEntity
  8
5
100
AcDbLine
  6
HIDDEN
 62
6
 10
4.8234437E+002
 20
2.4689894E+002
 11
4.8251285E+002
 21
2.4731593E+002
  0
LINE
  5
5d0
100
AcDbEntity
  8
5
100
AcDbLine
  6
CONTINUOUS
 62
30
 10
-2.4915562E+002
 20
2.4689894E+002
 11
1.0859438E+002
 21
2.4689894E+002
  0
LINE
  5
5d1
100
AcDbEntity
  8
5
100
AcDbLine
  6
CONTINUOUS
 62
30
 10
1.5709437E+002
 20
2.4689894E+002
 11
1.5108444E+003
 21
2.4689894E+002
  0
LINE
  5
5d2
100
AcDbEntity
  8
5
100
AcDbLine
  6
CONTINUOUS
 62
40
 10
1.5709437E+002
 20
2.4689894E+002
 11
1.5409438E+002
 21
2.4689894E+002
  0
LINE
  5
5d3
100
AcDbEntity
  8
5
100
AcDbLine
  6
CONTINUOUS
 62
40
 10
1.5409438E+002
 20
2.4689894E+002
 11
1.1159437E+002
 21
2.4689894E+002
  0
LINE
  5
5d4
100
AcDbEntity
  8
5
100
AcDbLine
  6
CONTINUOUS
 62
40
 10
1.1159437E+002
 20
2.4689894E+002
 11
1.0859438E+002
 21
2.4689894E+002
  0
LINE
  5
5d5
100
AcDbEntity
  8
5
100
AcDbLine
  6
HIDDEN
 62
40
 10
1.4708446E+003
 20
2.4944889E+002
 11
1.4735944E+003
 21
2.4944889E+002
  0
LINE
  5
5d6
100
AcDbEntity
  8
5
100
AcDbLine
  6
HIDDEN
 62
40
 10
1.4680943E+003
 20
2.4944889E+002
 11
1.4708446E+003
 21
2.4944889E+002
  0
LINE
  5
5d7
100
AcDbEntity
  8
5
100
AcDbLine
  6
HIDDEN
 62
40
 10
1.4758444E+003
 20
2.4719893E+002
 11
1.4735944E+003
 21
2.4944889E+002
  0
LINE
  5
5d8
100
AcDbEntity
  8
5
100
AcDbLine
  6
HIDDEN
 62
40
 10
1.4708446E+003
 20
2.4719893E+002
 11
1.4658443E+003
 21
2.4719893E+002
  0
LINE
  5
5d9
100
AcDbEntity
  8
5
100
AcDbLine
  6
HIDDEN
 62
40
 10
1.4758444E+003
 20
2.4719893E+002
 11
1.4708446E+003
 21
2.4719893E+002
  0
LINE
  5
5da
100
AcDbEntity
  8
5
100
AcDbLine
  6
HIDDEN
 62
40
 10
1.4680943E+003
 20
2.4944889E+002
 11
1.4658443E+003
 21
2.4719893E+002
  0
LINE
  5
5db
100
AcDbEntity
  8
5
100
AcDbLine
  6
HIDDEN
 62
40
 10
1.0284437E+002
 20
2.4944889E+002
 11
1.0559421E+002
 21
2.4944889E+002
  0
LINE
  5
5dc
100
AcDbEntity
  8
5
100
AcDbLine
  6
HIDDEN
 62
40
 10
1.0009452E+002
 20
2.4944889E+002
 11
1.0284437E+002
 21
2.4944889E+002
  0
LINE
  5
5dd
100
AcDbEntity
  8
5
100
AcDbLine
  6
HIDDEN
 62
40
 10
1.0784417E+002
 20
2.4719893E+002
 11
1.0559421E+002
 21
2.4944889E+002
  0
LINE
  5
5de
100
AcDbEntity
  8
5
100
AcDbLine
  6
HIDDEN
 62
40
 10
1.0284437E+002
 20
2.4719893E+002
 11
9.7844561E+001
 21
2.4719893E+002
  0
LINE
  5
5df
100
AcDbEntity
  8
5
100
AcDbLine
  6
HIDDEN
 62
40
 10
1.0784417E+002
 20
2.4719893E+002
 11
1.0284437E+002
 21
2.4719893E+002
  0
LINE
  5
5e0
100
AcDbEntity
  8
5
100
AcDbLine
  6
HIDDEN
 62
40
 10
1.0009452E+002
 20
2.4944889E+002
 11
9.7844561E+001
 21
2.4719893E+002
  0
LINE
  5
5e1
100
AcDbEntity
  8
5
100
AcDbLine
  6
HIDDEN
 62
1
 10
5.4844566E+001
 20
2.4689882E+002
 11
5.4844566E+001
 21
2.4719893E+002
  0
LINE
  5
5e2
100
AcDbEntity
  8
5
100
AcDbLine
  6
HIDDEN
 62
40
 10
4.9844322E+001
 20
2.4719893E+002
 11
4.4844517E+001
 21
2.4719893E+002
  0
LINE
  5
5e3
100
AcDbEntity
  8
5
100
AcDbLine
  6
HIDDEN
 62
40
 10
5.4844566E+001
 20
2.4719893E+002
 11
4.9844322E+001
 21
2.4719893E+002
  0
LINE
  5
5e4
100
AcDbEntity
  8
5
100
AcDbLine
  6
HIDDEN
 62
1
 10
4.4844517E+001
 20
2.4719893E+002
 11
4.4844517E+001
 21
2.4689882E+002
  0
LINE
  5
5e5
100
AcDbEntity
  8
5
100
AcDbLine
  6
HIDDEN
 62
40
 10
1.6284423E+002
 20
2.4944889E+002
 11
1.6559451E+002
 21
2.4944889E+002
  0
LINE
  5
5e6
100
AcDbEntity
  8
5
100
AcDbLine
  6
HIDDEN
 62
40
 10
1.6009438E+002
 20
2.4944889E+002
 11
1.6284423E+002
 21
2.4944889E+002
  0
LINE
  5
5e7
100
AcDbEntity
  8
5
100
AcDbLine
  6
HIDDEN
 62
40
 10
1.6784447E+002
 20
2.4719893E+002
 11
1.6559451E+002
 21
2.4944889E+002
  0
LINE
  5
5e8
100
AcDbEntity
  8
5
100
AcDbLine
  6
HIDDEN
 62
40
 10
1.6284423E+002
 20
2.4719893E+002
 11
1.5784442E+002
 21
2.4719893E+002
  0
LINE
  5
5e9
100
AcDbEntity
  8
5
100
AcDbLine
  6
HIDDEN
 62
40
 10
1.6784447E+002
 20
2.4719893E+002
 11
1.6284423E+002
 21
2.4719893E+002
  0
LINE
  5
5ea
100
AcDbEntity
  8
5
100
AcDbLine
  6
HIDDEN
 62
40
 10
1.6009438E+002
 20
2.4944889E+002
 11
1.5784442E+002
 21
2.4719893E+002
  0
LINE
  5
5eb
100
AcDbEntity
  8
5
100
AcDbLine
  6
HIDDEN
 62
1
 10
1.0784417E+002
 20
2.4689882E+002
 11
1.0784417E+002
 21
2.4719893E+002
  0
LINE
  5
5ec
100
AcDbEntity
  8
5
100
AcDbLine
  6
HIDDEN
 62
1
 10
9.7844561E+001
 20
2.4719893E+002
 11
9.7844561E+001
 21
2.4689882E+002
  0
LINE
  5
5ed
100
AcDbEntity
  8
5
100
AcDbLine
  6
HIDDEN
 62
40
 10
1.7484429E+002
 20
2.4944889E+002
 11
1.7759457E+002
 21
2.4944889E+002
  0
LINE
  5
5ee
100
AcDbEntity
  8
5
100
AcDbLine
  6
HIDDEN
 62
40
 10
1.7209444E+002
 20
2.4944889E+002
 11
1.7484429E+002
 21
2.4944889E+002
  0
LINE
  5
5ef
100
AcDbEntity
  8
5
100
AcDbLine
  6
HIDDEN
 62
40
 10
1.7984453E+002
 20
2.4719893E+002
 11
1.7759457E+002
 21
2.4944889E+002
  0
LINE
  5
5f0
100
AcDbEntity
  8
5
100
AcDbLine
  6
HIDDEN
 62
40
 10
1.7484429E+002
 20
2.4719893E+002
 11
1.6984448E+002
 21
2.4719893E+002
  0
LINE
  5
5f1
100
AcDbEntity
  8
5
100
AcDbLine
  6
HIDDEN
 62
40
 10
1.7984453E+002
 20
2.4719893E+002
 11
1.7484429E+002
 21
2.4719893E+002
  0
LINE
  5
5f2
100
AcDbEntity
  8
5
100
AcDbLine
  6
HIDDEN
 62
40
 10
1.7209444E+002
 20
2.4944889E+002
 11
1.6984448E+002
 21
2.4719893E+002
  0
LINE
  5
5f3
100
AcDbEntity
  8
5
100
AcDbLine
  6
HIDDEN
 62
1
 10
1.6784447E+002
 20
2.4689882E+002
 11
1.6784447E+002
 21
2.4719893E+002
  0
LINE
  5
5f4
100
AcDbEntity
  8
5
100
AcDbLine
  6
HIDDEN
 62
1
 10
1.5784442E+002
 20
2.4719893E+002
 11
1.5784442E+002
 21
2.4689882E+002
  0
LINE
  5
5f5
100
AcDbEntity
  8
5
100
AcDbLine
  6
HIDDEN
 62
1
 10
1.7984453E+002
 20
2.4689882E+002
 11
1.7984453E+002
 21
2.4719893E+002
  0
LINE
  5
5f6
100
AcDbEntity
  8
5
100
AcDbLine
  6
HIDDEN
 62
1
 10
1.6984448E+002
 20
2.4719893E+002
 11
1.6984448E+002
 21
2.4689882E+002
  0
LINE
  5
5f7
100
AcDbEntity
  8
5
100
AcDbLine
  6
HIDDEN
 62
40
 10
4.9844322E+001
 20
2.4944889E+002
 11
5.259417E+001
 21
2.4944889E+002
  0
LINE
  5
5f8
100
AcDbEntity
  8
5
100
AcDbLine
  6
HIDDEN
 62
40
 10
4.7094473E+001
 20
2.4944889E+002
 11
4.9844322E+001
 21
2.4944889E+002
  0
LINE
  5
5f9
100
AcDbEntity
  8
5
100
AcDbLine
  6
HIDDEN
 62
40
 10
5.4844566E+001
 20
2.4719893E+002
 11
5.259417E+001
 21
2.4944889E+002
  0
LINE
  5
5fa
100
AcDbEntity
  8
5
100
AcDbLine
  6
HIDDEN
 62
40
 10
4.7094473E+001
 20
2.4944889E+002
 11
4.4844517E+001
 21
2.4719893E+002
  0
LINE
  5
5fb
100
AcDbEntity
  8
5
100
AcDbLine
  6
HIDDEN
 62
1
 10
-1.9915582E+002
 20
2.4689882E+002
 11
-1.9915582E+002
 21
2.4719893E+002
  0
LINE
  5
5fc
100
AcDbEntity
  8
5
100
AcDbLine
  6
HIDDEN
 62
40
 10
-2.0415563E+002
 20
2.4719893E+002
 11
-2.0915543E+002
 21
2.4719893E+002
  0
LINE
  5
5fd
100
AcDbEntity
  8
5
100
AcDbLine
  6
HIDDEN
 62
40
 10
-1.9915582E+002
 20
2.4719893E+002
 11
-2.0415563E+002
 21
2.4719893E+002
  0
LINE
  5
5fe
100
AcDbEntity
  8
5
100
AcDbLine
  6
HIDDEN
 62
1
 10
-2.0915543E+002
 20
2.4719893E+002
 11
-2.0915543E+002
 21
2.4689882E+002
  0
LINE
  5
5ff
100
AcDbEntity
  8
5
100
AcDbLine
  6
HIDDEN
 62
40
 10
-2.0415563E+002
 20
2.4944889E+002
 11
-2.0140578E+002
 21
2.4944889E+002
  0
LINE
  5
600
100
AcDbEntity
  8
5
100
AcDbLine
  6
HIDDEN
 62
40
 10
-2.0690547E+002
 20
2.4944889E+002
 11
-2.0415563E+002
 21
2.4944889E+002
  0
LINE
  5
601
100
AcDbEntity
  8
5
100
AcDbLine
  6
HIDDEN
 62
40
 10
-1.9915582E+002
 20
2.4719893E+002
 11
-2.0140578E+002
 21
2.4944889E+002
  0
LINE
  5
602
100
AcDbEntity
  8
5
100
AcDbLine
  6
HIDDEN
 62
40
 10
-2.0690547E+002
 20
2.4944889E+002
 11
-2.0915543E+002
 21
2.4719893E+002
  0
LINE
  5
603
100
AcDbEntity
  8
5
100
AcDbLine
  6
HIDDEN
 62
1
 10
-1.5415582E+002
 20
2.4689882E+002
 11
-1.5415582E+002
 21
2.4719893E+002
  0
LINE
  5
604
100
AcDbEntity
  8
5
100
AcDbLine
  6
HIDDEN
 62
40
 10
-1.5915562E+002
 20
2.4719893E+002
 11
-1.6415543E+002
 21
2.4719893E+002
  0
LINE
  5
605
100
AcDbEntity
  8
5
100
AcDbLine
  6
HIDDEN
 62
40
 10
-1.5415582E+002
 20
2.4719893E+002
 11
-1.5915562E+002
 21
2.4719893E+002
  0
LINE
  5
606
100
AcDbEntity
  8
5
100
AcDbLine
  6
HIDDEN
 62
1
 10
-1.6415543E+002
 20
2.4719893E+002
 11
-1.6415543E+002
 21
2.4689882E+002
  0
LINE
  5
607
100
AcDbEntity
  8
5
100
AcDbLine
  6
HIDDEN
 62
40
 10
-1.5915562E+002
 20
2.4944889E+002
 11
-1.5640577E+002
 21
2.4944889E+002
  0
LINE
  5
608
100
AcDbEntity
  8
5
100
AcDbLine
  6
HIDDEN
 62
40
 10
-1.6190547E+002
 20
2.4944889E+002
 11
-1.5915562E+002
 21
2.4944889E+002
  0
LINE
  5
609
100
AcDbEntity
  8
5
100
AcDbLine
  6
HIDDEN
 62
40
 10
-1.5415582E+002
 20
2.4719893E+002
 11
-1.5640577E+002
 21
2.4944889E+002
  0
LINE
  5
60a
100
AcDbEntity
  8
5
100
AcDbLine
  6
HIDDEN
 62
40
 10
-1.6190547E+002
 20
2.4944889E+002
 11
-1.6415543E+002
 21
2.4719893E+002
  0
LINE
  5
60b
100
AcDbEntity
  8
5
100
AcDbLine
  6
HIDDEN
 62
1
 10
-5.9155562E+001
 20
2.4689882E+002
 11
-5.9155562E+001
 21
2.4719893E+002
  0
LINE
  5
60c
100
AcDbEntity
  8
5
100
AcDbLine
  6
HIDDEN
 62
40
 10
-6.4155807E+001
 20
2.4719893E+002
 11
-6.9155612E+001
 21
2.4719893E+002
  0
LINE
  5
60d
100
AcDbEntity
  8
5
100
AcDbLine
  6
HIDDEN
 62
40
 10
-5.9155562E+001
 20
2.4719893E+002
 11
-6.4155807E+001
 21
2.4719893E+002
  0
LINE
  5
60e
100
AcDbEntity
  8
5
100
AcDbLine
  6
HIDDEN
 62
1
 10
-6.9155612E+001
 20
2.4719893E+002
 11
-6.9155612E+001
 21
2.4689882E+002
  0
LINE
  5
60f
100
AcDbEntity
  8
5
100
AcDbLine
  6
HIDDEN
 62
40
 10
-6.4155807E+001
 20
2.4944889E+002
 11
-6.1405518E+001
 21
2.4944889E+002
  0
LINE
  5
610
100
AcDbEntity
  8
5
100
AcDbLine
  6
HIDDEN
 62
40
 10
-6.6905656E+001
 20
2.4944889E+002
 11
-6.4155807E+001
 21
2.4944889E+002
  0
LINE
  5
611
100
AcDbEntity
  8
5
100
AcDbLine
  6
HIDDEN
 62
40
 10
-5.9155562E+001
 20
2.4719893E+002
 11
-6.1405518E+001
 21
2.4944889E+002
  0
LINE
  5
612
100
AcDbEntity
  8
5
100
AcDbLine
  6
HIDDEN
 62
40
 10
-6.6905656E+001
 20
2.4944889E+002
 11
-6.9155612E+001
 21
2.4719893E+002
  0
LINE
  5
613
100
AcDbEntity
  8
5
100
AcDbLine
  6
HIDDEN
 62
1
 10
-1.4155558E+001
 20
2.4689882E+002
 11
-1.4155558E+001
 21
2.4719893E+002
  0
LINE
  5
614
100
AcDbEntity
  8
5
100
AcDbLine
  6
HIDDEN
 62
40
 10
-1.9155803E+001
 20
2.4719893E+002
 11
-2.4155608E+001
 21
2.4719893E+002
  0
LINE
  5
615
100
AcDbEntity
  8
5
100
AcDbLine
  6
HIDDEN
 62
40
 10
-1.4155558E+001
 20
2.4719893E+002
 11
-1.9155803E+001
 21
2.4719893E+002
  0
LINE
  5
616
100
AcDbEntity
  8
5
100
AcDbLine
  6
HIDDEN
 62
1
 10
-2.4155608E+001
 20
2.4719893E+002
 11
-2.4155608E+001
 21
2.4689882E+002
  0
LINE
  5
617
100
AcDbEntity
  8
5
100
AcDbLine
  6
HIDDEN
 62
40
 10
-1.9155803E+001
 20
2.4944889E+002
 11
-1.6405514E+001
 21
2.4944889E+002
  0
LINE
  5
618
100
AcDbEntity
  8
5
100
AcDbLine
  6
HIDDEN
 62
40
 10
-2.1905651E+001
 20
2.4944889E+002
 11
-1.9155803E+001
 21
2.4944889E+002
  0
LINE
  5
619
100
AcDbEntity
  8
5
100
AcDbLine
  6
HIDDEN
 62
40
 10
-1.4155558E+001
 20
2.4719893E+002
 11
-1.6405514E+001
 21
2.4944889E+002
  0
LINE
  5
61a
100
AcDbEntity
  8
5
100
AcDbLine
  6
HIDDEN
 62
40
 10
-2.1905651E+001
 20
2.4944889E+002
 11
-2.4155608E+001
 21
2.4719893E+002
  0
LINE
  5
61b
100
AcDbEntity
  8
5
100
AcDbLine
  6
HIDDEN
 62
1
 10
2.3084456E+002
 20
2.4689882E+002
 11
2.3084456E+002
 21
2.4719893E+002
  0
LINE
  5
61c
100
AcDbEntity
  8
5
100
AcDbLine
  6
HIDDEN
 62
40
 10
2.2584432E+002
 20
2.4719893E+002
 11
2.2084451E+002
 21
2.4719893E+002
  0
LINE
  5
61d
100
AcDbEntity
  8
5
100
AcDbLine
  6
HIDDEN
 62
40
 10
2.3084456E+002
 20
2.4719893E+002
 11
2.2584432E+002
 21
2.4719893E+002
  0
LINE
  5
61e
100
AcDbEntity
  8
5
100
AcDbLine
  6
HIDDEN
 62
1
 10
2.2084451E+002
 20
2.4719893E+002
 11
2.2084451E+002
 21
2.4689882E+002
  0
LINE
  5
61f
100
AcDbEntity
  8
5
100
AcDbLine
  6
HIDDEN
 62
40
 10
2.2584432E+002
 20
2.4944889E+002
 11
2.2859417E+002
 21
2.4944889E+002
  0
LINE
  5
620
100
AcDbEntity
  8
5
100
AcDbLine
  6
HIDDEN
 62
40
 10
2.2309447E+002
 20
2.4944889E+002
 11
2.2584432E+002
 21
2.4944889E+002
  0
LINE
  5
621
100
AcDbEntity
  8
5
100
AcDbLine
  6
HIDDEN
 62
40
 10
2.3084456E+002
 20
2.4719893E+002
 11
2.2859417E+002
 21
2.4944889E+002
  0
LINE
  5
622
100
AcDbEntity
  8
5
100
AcDbLine
  6
HIDDEN
 62
40
 10
2.2309447E+002
 20
2.4944889E+002
 11
2.2084451E+002
 21
2.4719893E+002
  0
LINE
  5
623
100
AcDbEntity
  8
5
100
AcDbLine
  6
HIDDEN
 62
1
 10
4.7084444E+002
 20
2.4689882E+002
 11
4.7084444E+002
 21
2.4719893E+002
  0
LINE
  5
624
100
AcDbEntity
  8
5
100
AcDbLine
  6
HIDDEN
 62
40
 10
4.658442E+002
 20
2.4719893E+002
 11
4.6084439E+002
 21
2.4719893E+002
  0
LINE
  5
625
100
AcDbEntity
  8
5
100
AcDbLine
  6
HIDDEN
 62
40
 10
4.7084444E+002
 20
2.4719893E+002
 11
4.658442E+002
 21
2.4719893E+002
  0
LINE
  5
626
100
AcDbEntity
  8
5
100
AcDbLine
  6
HIDDEN
 62
1
 10
4.6084439E+002
 20
2.4719893E+002
 11
4.6084439E+002
 21
2.4689882E+002
  0
LINE
  5
627
100
AcDbEntity
  8
5
100
AcDbLine
  6
HIDDEN
 62
40
 10
4.658442E+002
 20
2.4944889E+002
 11
4.6859449E+002
 21
2.4944889E+002
  0
LINE
  5
628
100
AcDbEntity
  8
5
100
AcDbLine
  6
HIDDEN
 62
40
 10
4.6309435E+002
 20
2.4944889E+002
 11
4.658442E+002
 21
2.4944889E+002
  0
LINE
  5
629
100
AcDbEntity
  8
5
100
AcDbLine
  6
HIDDEN
 62
40
 10
4.7084444E+002
 20
2.4719893E+002
 11
4.6859449E+002
 21
2.4944889E+002
  0
LINE
  5
62a
100
AcDbEntity
  8
5
100
AcDbLine
  6
HIDDEN
 62
40
 10
4.6309435E+002
 20
2.4944889E+002
 11
4.6084439E+002
 21
2.4719893E+002
  0
LINE
  5
62b
100
AcDbEntity
  8
5
100
AcDbLine
  6
HIDDEN
 62
1
 10
5.1584445E+002
 20
2.4689882E+002
 11
5.1584445E+002
 21
2.4719893E+002
  0
LINE
  5
62c
100
AcDbEntity
  8
5
100
AcDbLine
  6
HIDDEN
 62
40
 10
5.108442E+002
 20
2.4719893E+002
 11
5.058444E+002
 21
2.4719893E+002
  0
LINE
  5
62d
100
AcDbEntity
  8
5
100
AcDbLine
  6
HIDDEN
 62
40
 10
5.1584445E+002
 20
2.4719893E+002
 11
5.108442E+002
 21
2.4719893E+002
  0
LINE
  5
62e
100
AcDbEntity
  8
5
100
AcDbLine
  6
HIDDEN
 62
1
 10
5.058444E+002
 20
2.4719893E+002
 11
5.058444E+002
 21
2.4689882E+002
  0
LINE
  5
62f
100
AcDbEntity
  8
5
100
AcDbLine
  6
HIDDEN
 62
40
 10
5.108442E+002
 20
2.4944889E+002
 11
5.1359449E+002
 21
2.4944889E+002
  0
LINE
  5
630
100
AcDbEntity
  8
5
100
AcDbLine
  6
HIDDEN
 62
40
 10
5.0809435E+002
 20
2.4944889E+002
 11
5.108442E+002
 21
2.4944889E+002
  0
LINE
  5
631
100
AcDbEntity
  8
5
100
AcDbLine
  6
HIDDEN
 62
40
 10
5.1584445E+002
 20
2.4719893E+002
 11
5.1359449E+002
 21
2.4944889E+002
  0
LINE
  5
632
100
AcDbEntity
  8
5
100
AcDbLine
  6
HIDDEN
 62
40
 10
5.0809435E+002
 20
2.4944889E+002
 11
5.058444E+002
 21
2.4719893E+002
  0
LINE
  5
633
100
AcDbEntity
  8
5
100
AcDbLine
  6
HIDDEN
 62
1
 10
6.0584446E+002
 20
2.4689882E+002
 11
6.0584446E+002
 21
2.4719893E+002
  0
LINE
  5
634
100
AcDbEntity
  8
5
100
AcDbLine
  6
HIDDEN
 62
40
 10
6.0084421E+002
 20
2.4719893E+002
 11
5.9584441E+002
 21
2.4719893E+002
  0
LINE
  5
635
100
AcDbEntity
  8
5
100
AcDbLine
  6
HIDDEN
 62
40
 10
6.0584446E+002
 20
2.4719893E+002
 11
6.0084421E+002
 21
2.4719893E+002
  0
LINE
  5
636
100
AcDbEntity
  8
5
100
AcDbLine
  6
HIDDEN
 62
1
 10
5.9584441E+002
 20
2.4719893E+002
 11
5.9584441E+002
 21
2.4689882E+002
  0
LINE
  5
637
100
AcDbEntity
  8
5
100
AcDbLine
  6
HIDDEN
 62
40
 10
6.0084421E+002
 20
2.4944889E+002
 11
6.035945E+002
 21
2.4944889E+002
  0
LINE
  5
638
100
AcDbEntity
  8
5
100
AcDbLine
  6
HIDDEN
 62
40
 10
5.9809436E+002
 20
2.4944889E+002
 11
6.0084421E+002
 21
2.4944889E+002
  0
LINE
  5
639
100
AcDbEntity
  8
5
100
AcDbLine
  6
HIDDEN
 62
40
 10
6.0584446E+002
 20
2.4719893E+002
 11
6.035945E+002
 21
2.4944889E+002
  0
LINE
  5
63a
100
AcDbEntity
  8
5
100
AcDbLine
  6
HIDDEN
 62
40
 10
5.9809436E+002
 20
2.4944889E+002
 11
5.9584441E+002
 21
2.4719893E+002
  0
LINE
  5
63b
100
AcDbEntity
  8
5
100
AcDbLine
  6
HIDDEN
 62
1
 10
6.9584446E+002
 20
2.4689882E+002
 11
6.9584446E+002
 21
2.4719893E+002
  0
LINE
  5
63c
100
AcDbEntity
  8
5
100
AcDbLine
  6
HIDDEN
 62
40
 10
6.9084422E+002
 20
2.4719893E+002
 11
6.8584441E+002
 21
2.4719893E+002
  0
LINE
  5
63d
100
AcDbEntity
  8
5
100
AcDbLine
  6
HIDDEN
 62
40
 10
6.9584446E+002
 20
2.4719893E+002
 11
6.9084422E+002
 21
2.4719893E+002
  0
LINE
  5
63e
100
AcDbEntity
  8
5
100
AcDbLine
  6
HIDDEN
 62
1
 10
6.8584441E+002
 20
2.4719893E+002
 11
6.8584441E+002
 21
2.4689882E+002
  0
LINE
  5
63f
100
AcDbEntity
  8
5
100
AcDbLine
  6
HIDDEN
 62
40
 10
1.0108445E+003
 20
2.4944889E+002
 11
1.0135943E+003
 21
2.4944889E+002
  0
LINE
  5
640
100
AcDbEntity
  8
5
100
AcDbLine
  6
HIDDEN
 62
40
 10
1.0080942E+003
 20
2.4944889E+002
 11
1.0108445E+003
 21
2.4944889E+002
  0
LINE
  5
641
100
AcDbEntity
  8
5
100
AcDbLine
  6
HIDDEN
 62
40
 10
1.0158443E+003
 20
2.4719893E+002
 11
1.0135943E+003
 21
2.4944889E+002
  0
LINE
  5
642
100
AcDbEntity
  8
5
100
AcDbLine
  6
HIDDEN
 62
40
 10
1.0108445E+003
 20
2.4719893E+002
 11
1.0058443E+003
 21
2.4719893E+002
  0
LINE
  5
643
100
AcDbEntity
  8
5
100
AcDbLine
  6
HIDDEN
 62
40
 10
1.0158443E+003
 20
2.4719893E+002
 11
1.0108445E+003
 21
2.4719893E+002
  0
LINE
  5
644
100
AcDbEntity
  8
5
100
AcDbLine
  6
HIDDEN
 62
40
 10
1.0080942E+003
 20
2.4944889E+002
 11
1.0058443E+003
 21
2.4719893E+002
  0
LINE
  5
645
100
AcDbEntity
  8
5
100
AcDbLine
  6
HIDDEN
 62
1
 10
7.4084447E+002
 20
2.4689882E+002
 11
7.4084447E+002
 21
2.4719893E+002
  0
LINE
  5
646
100
AcDbEntity
  8
5
100
AcDbLine
  6
HIDDEN
 62
40
 10
7.3584422E+002
 20
2.4719893E+002
 11
7.3084442E+002
 21
2.4719893E+002
  0
LINE
  5
647
100
AcDbEntity
  8
5
100
AcDbLine
  6
HIDDEN
 62
40
 10
7.4084447E+002
 20
2.4719893E+002
 11
7.3584422E+002
 21
2.4719893E+002
  0
LINE
  5
648
100
AcDbEntity
  8
5
100
AcDbLine
  6
HIDDEN
 62
1
 10
7.3084442E+002
 20
2.4719893E+002
 11
7.3084442E+002
 21
2.4689882E+002
  0
LINE
  5
649
100
AcDbEntity
  8
5
100
AcDbLine
  6
HIDDEN
 62
40
 10
6.9084422E+002
 20
2.4944889E+002
 11
6.9359451E+002
 21
2.4944889E+002
  0
LINE
  5
64a
100
AcDbEntity
  8
5
100
AcDbLine
  6
HIDDEN
 62
40
 10
6.8809437E+002
 20
2.4944889E+002
 11
6.9084422E+002
 21
2.4944889E+002
  0
LINE
  5
64b
100
AcDbEntity
  8
5
100
AcDbLine
  6
HIDDEN
 62
40
 10
6.9584446E+002
 20
2.4719893E+002
 11
6.9359451E+002
 21
2.4944889E+002
  0
LINE
  5
64c
100
AcDbEntity
  8
5
100
AcDbLine
  6
HIDDEN
 62
40
 10
6.8809437E+002
 20
2.4944889E+002
 11
6.8584441E+002
 21
2.4719893E+002
  0
LINE
  5
64d
100
AcDbEntity
  8
5
100
AcDbLine
  6
HIDDEN
 62
1
 10
1.0158443E+003
 20
2.4689882E+002
 11
1.0158443E+003
 21
2.4719893E+002
  0
LINE
  5
64e
100
AcDbEntity
  8
5
100
AcDbLine
  6
HIDDEN
 62
1
 10
1.0058443E+003
 20
2.4719893E+002
 11
1.0058443E+003
 21
2.4689882E+002
  0
LINE
  5
64f
100
AcDbEntity
  8
5
100
AcDbLine
  6
HIDDEN
 62
40
 10
7.3584422E+002
 20
2.4944889E+002
 11
7.3859451E+002
 21
2.4944889E+002
  0
LINE
  5
650
100
AcDbEntity
  8
5
100
AcDbLine
  6
HIDDEN
 62
40
 10
7.3309438E+002
 20
2.4944889E+002
 11
7.3584422E+002
 21
2.4944889E+002
  0
LINE
  5
651
100
AcDbEntity
  8
5
100
AcDbLine
  6
HIDDEN
 62
40
 10
7.4084447E+002
 20
2.4719893E+002
 11
7.3859451E+002
 21
2.4944889E+002
  0
LINE
  5
652
100
AcDbEntity
  8
5
100
AcDbLine
  6
HIDDEN
 62
40
 10
7.3309438E+002
 20
2.4944889E+002
 11
7.3084442E+002
 21
2.4719893E+002
  0
LINE
  5
653
100
AcDbEntity
  8
5
100
AcDbLine
  6
HIDDEN
 62
1
 10
1.2908446E+003
 20
2.4689882E+002
 11
1.2908446E+003
 21
2.4719893E+002
  0
LINE
  5
654
100
AcDbEntity
  8
5
100
AcDbLine
  6
HIDDEN
 62
40
 10
1.2858443E+003
 20
2.4719893E+002
 11
1.2808445E+003
 21
2.4719893E+002
  0
LINE
  5
655
100
AcDbEntity
  8
5
100
AcDbLine
  6
HIDDEN
 62
40
 10
1.2908446E+003
 20
2.4719893E+002
 11
1.2858443E+003
 21
2.4719893E+002
  0
LINE
  5
656
100
AcDbEntity
  8
5
100
AcDbLine
  6
HIDDEN
 62
1
 10
1.2808445E+003
 20
2.4719893E+002
 11
1.2808445E+003
 21
2.4689882E+002
  0
LINE
  5
657
100
AcDbEntity
  8
5
100
AcDbLine
  6
HIDDEN
 62
40
 10
1.2858443E+003
 20
2.4944889E+002
 11
1.2885942E+003
 21
2.4944889E+002
  0
LINE
  5
658
100
AcDbEntity
  8
5
100
AcDbLine
  6
HIDDEN
 62
40
 10
1.2830945E+003
 20
2.4944889E+002
 11
1.2858443E+003
 21
2.4944889E+002
  0
LINE
  5
659
100
AcDbEntity
  8
5
100
AcDbLine
  6
HIDDEN
 62
40
 10
1.2908446E+003
 20
2.4719893E+002
 11
1.2885942E+003
 21
2.4944889E+002
  0
LINE
  5
65a
100
AcDbEntity
  8
5
100
AcDbLine
  6
HIDDEN
 62
40
 10
1.2830945E+003
 20
2.4944889E+002
 11
1.2808445E+003
 21
2.4719893E+002
  0
LINE
  5
65b
100
AcDbEntity
  8
5
100
AcDbLine
  6
HIDDEN
 62
1
 10
1.3358446E+003
 20
2.4689882E+002
 11
1.3358446E+003
 21
2.4719893E+002
  0
LINE
  5
65c
100
AcDbEntity
  8
5
100
AcDbLine
  6
HIDDEN
 62
40
 10
1.3308443E+003
 20
2.4719893E+002
 11
1.3258445E+003
 21
2.4719893E+002
  0
LINE
  5
65d
100
AcDbEntity
  8
5
100
AcDbLine
  6
HIDDEN
 62
40
 10
1.3358446E+003
 20
2.4719893E+002
 11
1.3308443E+003
 21
2.4719893E+002
  0
LINE
  5
65e
100
AcDbEntity
  8
5
100
AcDbLine
  6
HIDDEN
 62
1
 10
1.3258445E+003
 20
2.4719893E+002
 11
1.3258445E+003
 21
2.4689882E+002
  0
LINE
  5
65f
100
AcDbEntity
  8
5
100
AcDbLine
  6
HIDDEN
 62
40
 10
1.3308443E+003
 20
2.4944889E+002
 11
1.3335942E+003
 21
2.4944889E+002
  0
LINE
  5
660
100
AcDbEntity
  8
5
100
AcDbLine
  6
HIDDEN
 62
40
 10
1.3280945E+003
 20
2.4944889E+002
 11
1.3308443E+003
 21
2.4944889E+002
  0
LINE
  5
661
100
AcDbEntity
  8
5
100
AcDbLine
  6
HIDDEN
 62
40
 10
1.3358446E+003
 20
2.4719893E+002
 11
1.3335942E+003
 21
2.4944889E+002
  0
LINE
  5
662
100
AcDbEntity
  8
5
100
AcDbLine
  6
HIDDEN
 62
40
 10
1.3280945E+003
 20
2.4944889E+002
 11
1.3258445E+003
 21
2.4719893E+002
  0
LINE
  5
663
100
AcDbEntity
  8
5
100
AcDbLine
  6
HIDDEN
 62
1
 10
1.4308444E+003
 20
2.4689882E+002
 11
1.4308444E+003
 21
2.4719893E+002
  0
LINE
  5
664
100
AcDbEntity
  8
5
100
AcDbLine
  6
HIDDEN
 62
40
 10
1.4258446E+003
 20
2.4719893E+002
 11
1.4208443E+003
 21
2.4719893E+002
  0
LINE
  5
665
100
AcDbEntity
  8
5
100
AcDbLine
  6
HIDDEN
 62
40
 10
1.4308444E+003
 20
2.4719893E+002
 11
1.4258446E+003
 21
2.4719893E+002
  0
LINE
  5
666
100
AcDbEntity
  8
5
100
AcDbLine
  6
HIDDEN
 62
1
 10
1.4208443E+003
 20
2.4719893E+002
 11
1.4208443E+003
 21
2.4689882E+002
  0
LINE
  5
667
100
AcDbEntity
  8
5
100
AcDbLine
  6
HIDDEN
 62
40
 10
1.4258446E+003
 20
2.4944889E+002
 11
1.4285944E+003
 21
2.4944889E+002
  0
LINE
  5
668
100
AcDbEntity
  8
5
100
AcDbLine
  6
HIDDEN
 62
40
 10
1.4230943E+003
 20
2.4944889E+002
 11
1.4258446E+003
 21
2.4944889E+002
  0
LINE
  5
669
100
AcDbEntity
  8
5
100
AcDbLine
  6
HIDDEN
 62
40
 10
1.4308444E+003
 20
2.4719893E+002
 11
1.4285944E+003
 21
2.4944889E+002
  0
LINE
  5
66a
100
AcDbEntity
  8
5
100
AcDbLine
  6
HIDDEN
 62
40
 10
1.4230943E+003
 20
2.4944889E+002
 11
1.4208443E+003
 21
2.4719893E+002
  0
LINE
  5
66b
100
AcDbEntity
  8
5
100
AcDbLine
  6
HIDDEN
 62
1
 10
1.4758444E+003
 20
2.4689882E+002
 11
1.4758444E+003
 21
2.4719893E+002
  0
LINE
  5
66c
100
AcDbEntity
  8
5
100
AcDbLine
  6
HIDDEN
 62
1
 10
1.4658443E+003
 20
2.4719893E+002
 11
1.4658443E+003
 21
2.4689882E+002
  0
LINE
  5
66d
100
AcDbEntity
  8
5
100
AcDbLine
  6
HIDDEN
 62
40
 10
-2.0140578E+002
 20
2.4944889E+002
 11
-2.0140578E+002
 21
2.4989905E+002
  0
LINE
  5
66e
100
AcDbEntity
  8
5
100
AcDbLine
  6
HIDDEN
 62
40
 10
-2.0690547E+002
 20
2.4989905E+002
 11
-2.0690547E+002
 21
2.4944889E+002
  0
LINE
  5
66f
100
AcDbEntity
  8
5
100
AcDbLine
  6
HIDDEN
 62
40
 10
-1.5640577E+002
 20
2.4944889E+002
 11
-1.5640577E+002
 21
2.4989905E+002
  0
LINE
  5
670
100
AcDbEntity
  8
5
100
AcDbLine
  6
HIDDEN
 62
40
 10
-1.6190547E+002
 20
2.4989905E+002
 11
-1.6190547E+002
 21
2.4944889E+002
  0
LINE
  5
671
100
AcDbEntity
  8
5
100
AcDbLine
  6
HIDDEN
 62
40
 10
-6.1405518E+001
 20
2.4944889E+002
 11
-6.1405518E+001
 21
2.4989905E+002
  0
LINE
  5
672
100
AcDbEntity
  8
5
100
AcDbLine
  6
HIDDEN
 62
40
 10
-6.6905656E+001
 20
2.4989905E+002
 11
-6.6905656E+001
 21
2.4944889E+002
  0
LINE
  5
673
100
AcDbEntity
  8
5
100
AcDbLine
  6
HIDDEN
 62
40
 10
-1.6405514E+001
 20
2.4944889E+002
 11
-1.6405514E+001
 21
2.4989905E+002
  0
LINE
  5
674
100
AcDbEntity
  8
5
100
AcDbLine
  6
HIDDEN
 62
40
 10
-2.1905651E+001
 20
2.4989905E+002
 11
-2.1905651E+001
 21
2.4944889E+002
  0
LINE
  5
675
100
AcDbEntity
  8
5
100
AcDbLine
  6
HIDDEN
 62
40
 10
2.2859417E+002
 20
2.4944889E+002
 11
2.2859417E+002
 21
2.4989905E+002
  0
LINE
  5
676
100
AcDbEntity
  8
5
100
AcDbLine
  6
HIDDEN
 62
40
 10
2.2309447E+002
 20
2.4989905E+002
 11
2.2309447E+002
 21
2.4944889E+002
  0
LINE
  5
677
100
AcDbEntity
  8
5
100
AcDbLine
  6
HIDDEN
 62
40
 10
1.0135943E+003
 20
2.4944889E+002
 11
1.0135943E+003
 21
2.4989905E+002
  0
LINE
  5
678
100
AcDbEntity
  8
5
100
AcDbLine
  6
HIDDEN
 62
40
 10
1.0080942E+003
 20
2.4989905E+002
 11
1.0080942E+003
 21
2.4944889E+002
  0
LINE
  5
679
100
AcDbEntity
  8
5
100
AcDbLine
  6
HIDDEN
 62
40
 10
4.6859449E+002
 20
2.4944889E+002
 11
4.6859449E+002
 21
2.4989905E+002
  0
LINE
  5
67a
100
AcDbEntity
  8
5
100
AcDbLine
  6
HIDDEN
 62
40
 10
4.6309435E+002
 20
2.4989905E+002
 11
4.6309435E+002
 21
2.4944889E+002
  0
LINE
  5
67b
100
AcDbEntity
  8
5
100
AcDbLine
  6
HIDDEN
 62
40
 10
5.1359449E+002
 20
2.4944889E+002
 11
5.1359449E+002
 21
2.4989905E+002
  0
LINE
  5
67c
100
AcDbEntity
  8
5
100
AcDbLine
  6
HIDDEN
 62
40
 10
5.0809435E+002
 20
2.4989905E+002
 11
5.0809435E+002
 21
2.4944889E+002
  0
LINE
  5
67d
100
AcDbEntity
  8
5
100
AcDbLine
  6
HIDDEN
 62
40
 10
6.035945E+002
 20
2.4944889E+002
 11
6.035945E+002
 21
2.4989905E+002
  0
LINE
  5
67e
100
AcDbEntity
  8
5
100
AcDbLine
  6
HIDDEN
 62
40
 10
5.9809436E+002
 20
2.4989905E+002
 11
5.9809436E+002
 21
2.4944889E+002
  0
LINE
  5
67f
100
AcDbEntity
  8
5
100
AcDbLine
  6
HIDDEN
 62
40
 10
6.9359451E+002
 20
2.4944889E+002
 11
6.9359451E+002
 21
2.4989905E+002
  0
LINE
  5
680
100
AcDbEntity
  8
5
100
AcDbLine
  6
HIDDEN
 62
40
 10
6.8809437E+002
 20
2.4989905E+002
 11
6.8809437E+002
 21
2.4944889E+002
  0
LINE
  5
681
100
AcDbEntity
  8
5
100
AcDbLine
  6
HIDDEN
 62
40
 10
7.3859451E+002
 20
2.4944889E+002
 11
7.3859451E+002
 21
2.4989905E+002
  0
LINE
  5
682
100
AcDbEntity
  8
5
100
AcDbLine
  6
HIDDEN
 62
40
 10
7.3309438E+002
 20
2.4989905E+002
 11
7.3309438E+002
 21
2.4944889E+002
  0
LINE
  5
683
100
AcDbEntity
  8
5
100
AcDbLine
  6
HIDDEN
 62
40
 10
1.2885942E+003
 20
2.4944889E+002
 11
1.2885942E+003
 21
2.4989905E+002
  0
LINE
  5
684
100
AcDbEntity
  8
5
100
AcDbLine
  6
HIDDEN
 62
40
 10
1.2830945E+003
 20
2.4989905E+002
 11
1.2830945E+003
 21
2.4944889E+002
  0
LINE
  5
685
100
AcDbEntity
  8
5
100
AcDbLine
  6
HIDDEN
 62
40
 10
1.3335942E+003
 20
2.4944889E+002
 11
1.3335942E+003
 21
2.4989905E+002
  0
LINE
  5
686
100
AcDbEntity
  8
5
100
AcDbLine
  6
HIDDEN
 62
40
 10
1.3280945E+003
 20
2.4989905E+002
 11
1.3280945E+003
 21
2.4944889E+002
  0
LINE
  5
687
100
AcDbEntity
  8
5
100
AcDbLine
  6
HIDDEN
 62
40
 10
1.4285944E+003
 20
2.4944889E+002
 11
1.4285944E+003
 21
2.4989905E+002
  0
LINE
  5
688
100
AcDbEntity
  8
5
100
AcDbLine
  6
HIDDEN
 62
40
 10
1.4230943E+003
 20
2.4989905E+002
 11
1.4230943E+003
 21
2.4944889E+002
  0
LINE
  5
689
100
AcDbEntity
  8
5
100
AcDbLine
  6
HIDDEN
 62
40
 10
1.4735944E+003
 20
2.4944889E+002
 11
1.4735944E+003
 21
2.4989905E+002
  0
LINE
  5
68a
100
AcDbEntity
  8
5
100
AcDbLine
  6
HIDDEN
 62
40
 10
1.4680943E+003
 20
2.4989905E+002
 11
1.4680943E+003
 21
2.4944889E+002
  0
LINE
  5
68b
100
AcDbEntity
  8
5
100
AcDbLine
  6
HIDDEN
 62
40
 10
1.7759457E+002
 20
2.4944889E+002
 11
1.7759457E+002
 21
2.4989905E+002
  0
LINE
  5
68c
100
AcDbEntity
  8
5
100
AcDbLine
  6
HIDDEN
 62
40
 10
1.7209444E+002
 20
2.4989905E+002
 11
1.7209444E+002
 21
2.4944889E+002
  0
LINE
  5
68d
100
AcDbEntity
  8
5
100
AcDbLine
  6
HIDDEN
 62
40
 10
1.6559451E+002
 20
2.4944889E+002
 11
1.6559451E+002
 21
2.4989905E+002
  0
LINE
  5
68e
100
AcDbEntity
  8
5
100
AcDbLine
  6
HIDDEN
 62
40
 10
1.6009438E+002
 20
2.4989905E+002
 11
1.6009438E+002
 21
2.4944889E+002
  0
LINE
  5
68f
100
AcDbEntity
  8
5
100
AcDbLine
  6
HIDDEN
 62
40
 10
1.0559421E+002
 20
2.4944889E+002
 11
1.0559421E+002
 21
2.4989905E+002
  0
LINE
  5
690
100
AcDbEntity
  8
5
100
AcDbLine
  6
HIDDEN
 62
40
 10
1.0009452E+002
 20
2.4989905E+002
 11
1.0009452E+002
 21
2.4944889E+002
  0
LINE
  5
691
100
AcDbEntity
  8
5
100
AcDbLine
  6
HIDDEN
 62
40
 10
5.259417E+001
 20
2.4944889E+002
 11
5.259417E+001
 21
2.4989905E+002
  0
LINE
  5
692
100
AcDbEntity
  8
5
100
AcDbLine
  6
HIDDEN
 62
40
 10
4.7094473E+001
 20
2.4989905E+002
 11
4.7094473E+001
 21
2.4944889E+002
  0
LINE
  5
693
100
AcDbEntity
  8
5
100
AcDbLine
  6
HIDDEN
 62
40
 10
-1.3715551E+002
 20
2.4989905E+002
 11
-1.3715551E+002
 21
2.4689882E+002
  0
LINE
  5
694
100
AcDbEntity
  8
5
100
AcDbLine
  6
HIDDEN
 62
40
 10
-8.6155477E+001
 20
2.4689882E+002
 11
-8.6155477E+001
 21
2.4989905E+002
  0
LINE
  5
695
100
AcDbEntity
  8
5
100
AcDbLine
  6
HIDDEN
 62
40
 10
5.3784456E+002
 20
2.4989905E+002
 11
5.3784456E+002
 21
2.4689882E+002
  0
LINE
  5
696
100
AcDbEntity
  8
5
100
AcDbLine
  6
HIDDEN
 62
40
 10
5.8384435E+002
 20
2.4689882E+002
 11
5.8384435E+002
 21
2.4989905E+002
  0
LINE
  5
697
100
AcDbEntity
  8
5
100
AcDbLine
  6
HIDDEN
 62
40
 10
6.1984453E+002
 20
2.4989905E+002
 11
6.1984453E+002
 21
2.4689882E+002
  0
LINE
  5
698
100
AcDbEntity
  8
5
100
AcDbLine
  6
HIDDEN
 62
40
 10
6.7084456E+002
 20
2.4689882E+002
 11
6.7084456E+002
 21
2.4989905E+002
  0
LINE
  5
699
100
AcDbEntity
  8
5
100
AcDbLine
  6
HIDDEN
 62
40
 10
1.3528444E+003
 20
2.4989905E+002
 11
1.3528444E+003
 21
2.4689882E+002
  0
LINE
  5
69a
100
AcDbEntity
  8
5
100
AcDbLine
  6
HIDDEN
 62
40
 10
1.4038445E+003
 20
2.4689882E+002
 11
1.4038445E+003
 21
2.4989905E+002
  0
LINE
  5
69b
100
AcDbEntity
  8
5
100
AcDbLine
  6
CONTINUOUS
 62
40
 10
1.1159424E+002
 20
2.4689882E+002
 11
1.1159424E+002
 21
2.4989905E+002
  0
LINE
  5
69c
100
AcDbEntity
  8
5
100
AcDbLine
  6
CONTINUOUS
 62
40
 10
1.5409435E+002
 20
2.4989905E+002
 11
1.5409435E+002
 21
2.4689882E+002
  0
LINE
  5
69d
100
AcDbEntity
  8
5
100
AcDbLine
  6
HIDDEN
 62
6
 10
4.8799568E+002
 20
2.4731598E+002
 11
4.8772593E+002
 21
2.4689882E+002
  0
LINE
  5
69e
100
AcDbEntity
  8
5
100
AcDbLine
  6
HIDDEN
 62
6
 10
4.8743594E+002
 20
2.4689882E+002
 11
4.8743594E+002
 21
2.4731598E+002
  0
LINE
  5
69f
100
AcDbEntity
  8
5
100
AcDbLine
  6
HIDDEN
 62
6
 10
4.8730041E+002
 20
2.4689882E+002
 11
4.8716664E+002
 21
2.4731598E+002
  0
LINE
  5
6a0
100
AcDbEntity
  8
5
100
AcDbLine
  6
HIDDEN
 62
6
 10
4.8714727E+002
 20
2.4689882E+002
 11
4.8714735E+002
 21
2.4689903E+002
  0
LINE
  5
6a1
100
AcDbEntity
  8
5
100
AcDbLine
  6
HIDDEN
 62
6
 10
4.869783E+002
 20
2.4731598E+002
 11
4.8714683E+002
 21
2.4689882E+002
  0
LINE
  5
6a2
100
AcDbEntity
  8
5
100
AcDbLine
  6
HIDDEN
 62
6
 10
4.8750415E+002
 20
2.4689882E+002
 11
4.8760932E+002
 21
2.4731598E+002
  0
POLYLINE
  5
6a3
100
AcDbEntity
  8
5
100
AcDb2dPolyline
  6
HIDDEN
 62
6
 66
1
 40
0.0
 41
0.0
 70
2
  0
VERTEX
  5
6a4
100
AcDbEntity
  8
5
100
AcDbVertex
100
AcDb2dVertex
 42
0.0
 10
4.8507466E+002
 20
2.4731598E+002
 70
0
  0
VERTEX
  5
6a5
100
AcDbEntity
  8
5
100
AcDbVertex
100
AcDb2dVertex
 42
3.592109E-004
 10
4.8507767E+002
 20
2.4730025E+002
 70
1
  0
VERTEX
  5
6a6
100
AcDbEntity
  8
5
100
AcDbVertex
100
AcDb2dVertex
 42
3.647078E-004
 10
4.8508069E+002
 20
2.4728465E+002
 70
0
  0
VERTEX
  5
6a7
100
AcDbEntity
  8
5
100
AcDbVertex
100
AcDb2dVertex
 42
3.705654E-004
 10
4.850837E+002
 20
2.4726917E+002
 70
1
  0
VERTEX
  5
6a8
100
AcDbEntity
  8
5
100
AcDbVertex
100
AcDb2dVertex
 42
3.76321E-004
 10
4.8508671E+002
 20
2.4725382E+002
 70
0
  0
VERTEX
  5
6a9
100
AcDbEntity
  8
5
100
AcDbVertex
100
AcDb2dVertex
 42
3.824604E-004
 10
4.8508973E+002
 20
2.4723859E+002
 70
1
  0
VERTEX
  5
6aa
100
AcDbEntity
  8
5
100
AcDbVertex
100
AcDb2dVertex
 42
3.884987E-004
 10
4.8509274E+002
 20
2.4722349E+002
 70
0
  0
VERTEX
  5
6ab
100
AcDbEntity
  8
5
100
AcDbVertex
100
AcDb2dVertex
 42
3.94928E-004
 10
4.8509575E+002
 20
2.4720852E+002
 70
1
  0
VERTEX
  5
6ac
100
AcDbEntity
  8
5
100
AcDbVertex
100
AcDb2dVertex
 42
4.0124E-004
 10
4.8509876E+002
 20
2.4719367E+002
 70
0
  0
VERTEX
  5
6ad
100
AcDbEntity
  8
5
100
AcDbVertex
100
AcDb2dVertex
 42
4.080143E-004
 10
4.8510177E+002
 20
2.4717895E+002
 70
1
  0
VERTEX
  5
6ae
100
AcDbEntity
  8
5
100
AcDbVertex
100
AcDb2dVertex
 42
4.147178E-004
 10
4.8510478E+002
 20
2.4716435E+002
 70
0
  0
VERTEX
  5
6af
100
AcDbEntity
  8
5
100
AcDbVertex
100
AcDb2dVertex
 42
4.217249E-004
 10
4.8510779E+002
 20
2.4714988E+002
 70
1
  0
VERTEX
  5
6b0
100
AcDbEntity
  8
5
100
AcDbVertex
100
AcDb2dVertex
 42
4.284799E-004
 10
4.851108E+002
 20
2.4713553E+002
 70
0
  0
VERTEX
  5
6b1
100
AcDbEntity
  8
5
100
AcDbVertex
100
AcDb2dVertex
 42
4.362327E-004
 10
4.8511381E+002
 20
2.4712131E+002
 70
1
  0
VERTEX
  5
6b2
100
AcDbEntity
  8
5
100
AcDbVertex
100
AcDb2dVertex
 42
4.443673E-004
 10
4.8511682E+002
 20
2.4710722E+002
 70
0
  0
VERTEX
  5
6b3
100
AcDbEntity
  8
5
100
AcDbVertex
100
AcDb2dVertex
 42
4.511024E-004
 10
4.8511982E+002
 20
2.4709325E+002
 70
1
  0
VERTEX
  5
6b4
100
AcDbEntity
  8
5
100
AcDbVertex
100
AcDb2dVertex
 42
4.559872E-004
 10
4.8512283E+002
 20
2.4707941E+002
 70
0
  0
VERTEX
  5
6b5
100
AcDbEntity
  8
5
100
AcDbVertex
100
AcDb2dVertex
 42
4.681616E-004
 10
4.8512584E+002
 20
2.470657E+002
 70
1
  0
VERTEX
  5
6b6
100
AcDbEntity
  8
5
100
AcDbVertex
100
AcDb2dVertex
 42
4.860546E-004
 10
4.8512884E+002
 20
2.470521E+002
 70
0
  0
VERTEX
  5
6b7
100
AcDbEntity
  8
5
100
AcDbVertex
100
AcDb2dVertex
 42
4.810079E-004
 10
4.8513185E+002
 20
2.4703861E+002
 70
1
  0
VERTEX
  5
6b8
100
AcDbEntity
  8
5
100
AcDbVertex
100
AcDb2dVertex
 42
4.56758E-004
 10
4.8513485E+002
 20
2.4702529E+002
 70
0
  0
VERTEX
  5
6b9
100
AcDbEntity
  8
5
100
AcDbVertex
100
AcDb2dVertex
 42
5.130182E-004
 10
4.8513783E+002
 20
2.4701218E+002
 70
1
  0
VERTEX
  5
6ba
100
AcDbEntity
  8
5
100
AcDbVertex
100
AcDb2dVertex
 42
6.239261E-004
 10
4.8514086E+002
 20
2.4699899E+002
 70
0
  0
VERTEX
  5
6bb
100
AcDbEntity
  8
5
100
AcDbVertex
100
AcDb2dVertex
 42
4.8385E-004
 10
4.8514396E+002
 20
2.4698565E+002
 70
1
  0
VERTEX
  5
6bc
100
AcDbEntity
  8
5
100
AcDbVertex
100
AcDb2dVertex
 42
1.680321E-004
 10
4.8514686E+002
 20
2.4697319E+002
 70
0
  0
VERTEX
  5
6bd
100
AcDbEntity
  8
5
100
AcDbVertex
100
AcDb2dVertex
 42
6.972852E-004
 10
4.8514949E+002
 20
2.46962E+002
 70
1
  0
VERTEX
  5
6be
100
AcDbEntity
  8
5
100
AcDbVertex
100
AcDb2dVertex
 42
1.244689E-003
 10
4.8515287E+002
 20
2.469479E+002
 70
0
  0
VERTEX
  5
6bf
100
AcDbEntity
  8
5
100
AcDbVertex
100
AcDb2dVertex
 42
6.289578E-004
 10
4.8515806E+002
 20
2.4692655E+002
 70
1
  0
VERTEX
  5
6c0
100
AcDbEntity
  8
5
100
AcDbVertex
100
AcDb2dVertex
 42
3.384417E-004
 10
4.8516487E+002
 20
2.4689882E+002
 70
0
  0
SEQEND
  5
6c1
100
AcDbEntity
  0
LINE
  5
6c2
100
AcDbEntity
  8
5
100
AcDbLine
  6
HIDDEN
 62
6
 10
4.8621174E+002
 20
2.4689882E+002
 11
4.8633231E+002
 21
2.4731598E+002
  0
LINE
  5
6c3
100
AcDbEntity
  8
5
100
AcDbLine
  6
HIDDEN
 62
6
 10
4.8637147E+002
 20
2.4689882E+002
 11
4.8660778E+002
 21
2.4731598E+002
  0
LINE
  5
6c4
100
AcDbEntity
  8
5
100
AcDbLine
  6
HIDDEN
 62
6
 10
4.8545222E+002
 20
2.4689882E+002
 11
4.8545222E+002
 21
2.4731598E+002
  0
LINE
  5
6c5
100
AcDbEntity
  8
5
100
AcDbLine
  6
HIDDEN
 62
6
 10
4.8496332E+002
 20
2.4731598E+002
 11
4.8513142E+002
 21
2.4689882E+002
  0
LINE
  5
6c6
100
AcDbEntity
  8
5
100
AcDbLine
  6
HIDDEN
 62
6
 10
4.8669227E+002
 20
2.4731598E+002
 11
4.8681284E+002
 21
2.4689882E+002
  0
LINE
  5
6c7
100
AcDbEntity
  8
5
100
AcDbLine
  6
HIDDEN
 62
6
 10
4.866531E+002
 20
2.4689882E+002
 11
4.864168E+002
 21
2.4731598E+002
  0
LINE
  5
6c8
100
AcDbEntity
  8
5
100
AcDbLine
  6
HIDDEN
 62
6
 10
4.8726873E+002
 20
2.4689882E+002
 11
4.873739E+002
 21
2.4731598E+002
  0
LINE
  5
6c9
100
AcDbEntity
  8
5
100
AcDbLine
  6
HIDDEN
 62
6
 10
4.8749447E+002
 20
2.4689882E+002
 11
4.8776466E+002
 21
2.4731598E+002
  0
LINE
  5
6ca
100
AcDbEntity
  8
5
100
AcDbLine
  6
HIDDEN
 62
6
 10
4.8785355E+002
 20
2.4731598E+002
 11
4.8795916E+002
 21
2.4689882E+002
  0
LINE
  5
6cb
100
AcDbEntity
  8
5
100
AcDbLine
  6
HIDDEN
 62
6
 10
4.8773298E+002
 20
2.4689882E+002
 11
4.8746323E+002
 21
2.4731598E+002
  0
POLYLINE
  5
6cc
100
AcDbEntity
  8
5
100
AcDb2dPolyline
  6
HIDDEN
 62
6
 66
1
 40
0.0
 41
0.0
 70
2
  0
VERTEX
  5
6cd
100
AcDbEntity
  8
5
100
AcDbVertex
100
AcDb2dVertex
 42
0.0
 10
4.8938535E+002
 20
2.4731598E+002
 70
0
  0
VERTEX
  5
6ce
100
AcDbEntity
  8
5
100
AcDbVertex
100
AcDb2dVertex
 42
-3.594188E-004
 10
4.8938233E+002
 20
2.4730025E+002
 70
1
  0
VERTEX
  5
6cf
100
AcDbEntity
  8
5
100
AcDbVertex
100
AcDb2dVertex
 42
-3.649191E-004
 10
4.8937932E+002
 20
2.4728465E+002
 70
0
  0
VERTEX
  5
6d0
100
AcDbEntity
  8
5
100
AcDbVertex
100
AcDb2dVertex
 42
-3.707806E-004
 10
4.8937631E+002
 20
2.4726917E+002
 70
1
  0
VERTEX
  5
6d1
100
AcDbEntity
  8
5
100
AcDbVertex
100
AcDb2dVertex
 42
-3.7654E-004
 10
4.8937329E+002
 20
2.4725382E+002
 70
0
  0
VERTEX
  5
6d2
100
AcDbEntity
  8
5
100
AcDbVertex
100
AcDb2dVertex
 42
-3.826832E-004
 10
4.8937028E+002
 20
2.4723859E+002
 70
1
  0
VERTEX
  5
6d3
100
AcDbEntity
  8
5
100
AcDbVertex
100
AcDb2dVertex
 42
-3.887254E-004
 10
4.8936727E+002
 20
2.4722349E+002
 70
0
  0
VERTEX
  5
6d4
100
AcDbEntity
  8
5
100
AcDbVertex
100
AcDb2dVertex
 42
-3.951589E-004
 10
4.8936426E+002
 20
2.4720852E+002
 70
1
  0
VERTEX
  5
6d5
100
AcDbEntity
  8
5
100
AcDbVertex
100
AcDb2dVertex
 42
-4.01475E-004
 10
4.8936124E+002
 20
2.4719367E+002
 70
0
  0
VERTEX
  5
6d6
100
AcDbEntity
  8
5
100
AcDbVertex
100
AcDb2dVertex
 42
-4.082538E-004
 10
4.8935823E+002
 20
2.4717895E+002
 70
1
  0
VERTEX
  5
6d7
100
AcDbEntity
  8
5
100
AcDbVertex
100
AcDb2dVertex
 42
-4.149614E-004
 10
4.8935522E+002
 20
2.4716435E+002
 70
0
  0
VERTEX
  5
6d8
100
AcDbEntity
  8
5
100
AcDbVertex
100
AcDb2dVertex
 42
-4.219731E-004
 10
4.8935221E+002
 20
2.4714988E+002
 70
1
  0
VERTEX
  5
6d9
100
AcDbEntity
  8
5
100
AcDbVertex
100
AcDb2dVertex
 42
-4.287326E-004
 10
4.8934921E+002
 20
2.4713553E+002
 70
0
  0
VERTEX
  5
6da
100
AcDbEntity
  8
5
100
AcDbVertex
100
AcDb2dVertex
 42
-4.364904E-004
 10
4.893462E+002
 20
2.4712131E+002
 70
1
  0
VERTEX
  5
6db
100
AcDbEntity
  8
5
100
AcDbVertex
100
AcDb2dVertex
 42
-4.446304E-004
 10
4.8934319E+002
 20
2.4710722E+002
 70
0
  0
VERTEX
  5
6dc
100
AcDbEntity
  8
5
100
AcDbVertex
100
AcDb2dVertex
 42
-4.5137E-004
 10
4.8934018E+002
 20
2.4709325E+002
 70
1
  0
VERTEX
  5
6dd
100
AcDbEntity
  8
5
100
AcDbVertex
100
AcDb2dVertex
 42
-4.562581E-004
 10
4.8933717E+002
 20
2.470794E+002
 70
0
  0
VERTEX
  5
6de
100
AcDbEntity
  8
5
100
AcDbVertex
100
AcDb2dVertex
 42
-4.684402E-004
 10
4.8933417E+002
 20
2.4706569E+002
 70
1
  0
VERTEX
  5
6df
100
AcDbEntity
  8
5
100
AcDbVertex
100
AcDb2dVertex
 42
-4.863444E-004
 10
4.8933116E+002
 20
2.470521E+002
 70
0
  0
VERTEX
  5
6e0
100
AcDbEntity
  8
5
100
AcDbVertex
100
AcDb2dVertex
 42
-4.812952E-004
 10
4.8932815E+002
 20
2.4703861E+002
 70
1
  0
VERTEX
  5
6e1
100
AcDbEntity
  8
5
100
AcDbVertex
100
AcDb2dVertex
 42
-4.570314E-004
 10
4.8932515E+002
 20
2.4702529E+002
 70
0
  0
VERTEX
  5
6e2
100
AcDbEntity
  8
5
100
AcDbVertex
100
AcDb2dVertex
 42
-5.13326E-004
 10
4.8932217E+002
 20
2.4701218E+002
 70
1
  0
VERTEX
  5
6e3
100
AcDbEntity
  8
5
100
AcDbVertex
100
AcDb2dVertex
 42
-6.243012E-004
 10
4.8931915E+002
 20
2.4699899E+002
 70
0
  0
VERTEX
  5
6e4
100
AcDbEntity
  8
5
100
AcDbVertex
100
AcDb2dVertex
 42
-4.841414E-004
 10
4.8931605E+002
 20
2.4698565E+002
 70
1
  0
VERTEX
  5
6e5
100
AcDbEntity
  8
5
100
AcDbVertex
100
AcDb2dVertex
 42
-1.681336E-004
 10
4.8931314E+002
 20
2.4697319E+002
 70
0
  0
VERTEX
  5
6e6
100
AcDbEntity
  8
5
100
AcDbVertex
100
AcDb2dVertex
 42
-6.977062E-004
 10
4.8931051E+002
 20
2.46962E+002
 70
1
  0
VERTEX
  5
6e7
100
AcDbEntity
  8
5
100
AcDbVertex
100
AcDb2dVertex
 42
-1.2454437E-003
 10
4.8930714E+002
 20
2.469479E+002
 70
0
  0
VERTEX
  5
6e8
100
AcDbEntity
  8
5
100
AcDbVertex
100
AcDb2dVertex
 42
-6.293404E-004
 10
4.8930194E+002
 20
2.4692655E+002
 70
1
  0
VERTEX
  5
6e9
100
AcDbEntity
  8
5
100
AcDbVertex
100
AcDb2dVertex
 42
-3.38648E-004
 10
4.8929514E+002
 20
2.4689882E+002
 70
0
  0
SEQEND
  5
6ea
100
AcDbEntity
  0
LINE
  5
6eb
100
AcDbEntity
  8
5
100
AcDbLine
  6
HIDDEN
 62
6
 10
4.8932858E+002
 20
2.4689882E+002
 11
4.8949668E+002
 21
2.4731598E+002
  0
LINE
  5
6ec
100
AcDbEntity
  8
5
100
AcDbLine
  6
HIDDEN
 62
6
 10
4.8962165E+002
 20
2.4731598E+002
 11
4.8972682E+002
 21
2.4689882E+002
  0
LINE
  5
6ed
100
AcDbEntity
  8
5
100
AcDbLine
  6
HIDDEN
 62
6
 10
4.8949756E+002
 20
2.4689882E+002
 11
4.8922781E+002
 21
2.4731598E+002
  0
LINE
  5
6ee
100
AcDbEntity
  8
5
100
AcDbLine
  6
HIDDEN
 62
6
 10
4.9106544E+002
 20
2.4689882E+002
 11
4.9123398E+002
 21
2.4731598E+002
  0
POLYLINE
  5
6ef
100
AcDbEntity
  8
5
100
AcDb2dPolyline
  6
HIDDEN
 62
6
 66
1
 40
0.0
 41
0.0
 70
2
  0
VERTEX
  5
6f0
100
AcDbEntity
  8
5
100
AcDbVertex
100
AcDb2dVertex
 42
0.0
 10
4.9102672E+002
 20
2.4689882E+002
 70
0
  0
VERTEX
  5
6f1
100
AcDbEntity
  8
5
100
AcDbVertex
100
AcDb2dVertex
 42
5.802756E-004
 10
4.9102961E+002
 20
2.4691093E+002
 70
1
  0
VERTEX
  5
6f2
100
AcDbEntity
  8
5
100
AcDbVertex
100
AcDb2dVertex
 42
5.69442E-004
 10
4.9103251E+002
 20
2.4692316E+002
 70
0
  0
VERTEX
  5
6f3
100
AcDbEntity
  8
5
100
AcDbVertex
100
AcDb2dVertex
 42
5.584711E-004
 10
4.910354E+002
 20
2.4693552E+002
 70
1
  0
VERTEX
  5
6f4
100
AcDbEntity
  8
5
100
AcDbVertex
100
AcDb2dVertex
 42
5.482266E-004
 10
4.9103829E+002
 20
2.46948E+002
 70
0
  0
VERTEX
  5
6f5
100
AcDbEntity
  8
5
100
AcDbVertex
100
AcDb2dVertex
 42
5.378523E-004
 10
4.9104119E+002
 20
2.4696061E+002
 70
1
  0
VERTEX
  5
6f6
100
AcDbEntity
  8
5
100
AcDbVertex
100
AcDb2dVertex
 42
5.281651E-004
 10
4.9104408E+002
 20
2.4697334E+002
 70
0
  0
VERTEX
  5
6f7
100
AcDbEntity
  8
5
100
AcDbVertex
100
AcDb2dVertex
 42
5.183329E-004
 10
4.9104697E+002
 20
2.4698619E+002
 70
1
  0
VERTEX
  5
6f8
100
AcDbEntity
  8
5
100
AcDbVertex
100
AcDb2dVertex
 42
5.09131E-004
 10
4.9104986E+002
 20
2.4699917E+002
 70
0
  0
VERTEX
  5
6f9
100
AcDbEntity
  8
5
100
AcDbVertex
100
AcDb2dVertex
 42
4.9985E-004
 10
4.9105276E+002
 20
2.4701227E+002
 70
1
  0
VERTEX
  5
6fa
100
AcDbEntity
  8
5
100
AcDbVertex
100
AcDb2dVertex
 42
4.912162E-004
 10
4.9105565E+002
 20
2.470255E+002
 70
0
  0
VERTEX
  5
6fb
100
AcDbEntity
  8
5
100
AcDbVertex
100
AcDb2dVertex
 42
4.822874E-004
 10
4.9105854E+002
 20
2.4703885E+002
 70
1
  0
VERTEX
  5
6fc
100
AcDbEntity
  8
5
100
AcDbVertex
100
AcDb2dVertex
 42
4.73788E-004
 10
4.9106143E+002
 20
2.4705232E+002
 70
0
  0
VERTEX
  5
6fd
100
AcDbEntity
  8
5
100
AcDbVertex
100
AcDb2dVertex
 42
4.65745E-004
 10
4.9106432E+002
 20
2.4706591E+002
 70
1
  0
VERTEX
  5
6fe
100
AcDbEntity
  8
5
100
AcDbVertex
100
AcDb2dVertex
 42
4.587086E-004
 10
4.9106721E+002
 20
2.4707963E+002
 70
0
  0
VERTEX
  5
6ff
100
AcDbEntity
  8
5
100
AcDbVertex
100
AcDb2dVertex
 42
4.495977E-004
 10
4.910701E+002
 20
2.4709348E+002
 70
1
  0
VERTEX
  5
700
100
AcDbEntity
  8
5
100
AcDbVertex
100
AcDb2dVertex
 42
4.394769E-004
 10
4.9107299E+002
 20
2.4710744E+002
 70
0
  0
VERTEX
  5
701
100
AcDbEntity
  8
5
100
AcDbVertex
100
AcDb2dVertex
 42
4.357329E-004
 10
4.9107588E+002
 20
2.4712153E+002
 70
1
  0
VERTEX
  5
702
100
AcDbEntity
  8
5
100
AcDbVertex
100
AcDb2dVertex
 42
4.372209E-004
 10
4.9107877E+002
 20
2.4713575E+002
 70
0
  0
VERTEX
  5
703
100
AcDbEntity
  8
5
100
AcDbVertex
100
AcDb2dVertex
 42
4.17539E-004
 10
4.9108166E+002
 20
2.4715012E+002
 70
1
  0
VERTEX
  5
704
100
AcDbEntity
  8
5
100
AcDbVertex
100
AcDb2dVertex
 42
3.838741E-004
 10
4.9108454E+002
 20
2.4716455E+002
 70
0
  0
VERTEX
  5
705
100
AcDbEntity
  8
5
100
AcDbVertex
100
AcDb2dVertex
 42
4.169841E-004
 10
4.9108741E+002
 20
2.4717901E+002
 70
1
  0
VERTEX
  5
706
100
AcDbEntity
  8
5
100
AcDbVertex
100
AcDb2dVertex
 42
4.881736E-004
 10
4.9109032E+002
 20
2.4719385E+002
 70
0
  0
VERTEX
  5
707
100
AcDbEntity
  8
5
100
AcDbVertex
100
AcDb2dVertex
 42
3.636992E-004
 10
4.910933E+002
 20
2.4720918E+002
 70
1
  0
VERTEX
  5
708
100
AcDbEntity
  8
5
100
AcDbVertex
100
AcDb2dVertex
 42
1.236993E-004
 10
4.9109609E+002
 20
2.4722364E+002
 70
0
  0
VERTEX
  5
709
100
AcDbEntity
  8
5
100
AcDbVertex
100
AcDb2dVertex
 42
5.03538E-004
 10
4.9109862E+002
 20
2.4723677E+002
 70
1
  0
VERTEX
  5
70a
100
AcDbEntity
  8
5
100
AcDbVertex
100
AcDb2dVertex
 42
8.401788E-004
 10
4.9110187E+002
 20
2.4725393E+002
 70
0
  0
VERTEX
  5
70b
100
AcDbEntity
  8
5
100
AcDbVertex
100
AcDb2dVertex
 42
3.999633E-004
 10
4.9110687E+002
 20
2.472807E+002
 70
1
  0
VERTEX
  5
70c
100
AcDbEntity
  8
5
100
AcDbVertex
100
AcDb2dVertex
 42
2.09398E-004
 10
4.9111341E+002
 20
2.4731598E+002
 70
0
  0
SEQEND
  5
70d
100
AcDbEntity
  0
LINE
  5
70e
100
AcDbEntity
  8
5
100
AcDbLine
  6
HIDDEN
 62
6
 10
4.8834464E+002
 20
2.4731598E+002
 11
4.8810833E+002
 21
2.4689882E+002
  0
LINE
  5
70f
100
AcDbEntity
  8
5
100
AcDbLine
  6
HIDDEN
 62
6
 10
4.8670019E+002
 20
2.4731598E+002
 11
4.8686828E+002
 21
2.4689882E+002
  0
POLYLINE
  5
710
100
AcDbEntity
  8
5
100
AcDb2dPolyline
  6
HIDDEN
 62
6
 66
1
 40
0.0
 41
0.0
 70
2
  0
VERTEX
  5
711
100
AcDbEntity
  8
5
100
AcDbVertex
100
AcDb2dVertex
 42
0.0
 10
4.8690217E+002
 20
2.4689882E+002
 70
0
  0
VERTEX
  5
712
100
AcDbEntity
  8
5
100
AcDbVertex
100
AcDb2dVertex
 42
-6.228103E-004
 10
4.8689915E+002
 20
2.469109E+002
 70
1
  0
VERTEX
  5
713
100
AcDbEntity
  8
5
100
AcDbVertex
100
AcDb2dVertex
 42
-6.110533E-004
 10
4.8689613E+002
 20
2.4692311E+002
 70
0
  0
VERTEX
  5
714
100
AcDbEntity
  8
5
100
AcDbVertex
100
AcDb2dVertex
 42
-5.991503E-004
 10
4.8689312E+002
 20
2.4693545E+002
 70
1
  0
VERTEX
  5
715
100
AcDbEntity
  8
5
100
AcDbVertex
100
AcDb2dVertex
 42
-5.88038E-004
 10
4.868901E+002
 20
2.4694791E+002
 70
0
  0
VERTEX
  5
716
100
AcDbEntity
  8
5
100
AcDbVertex
100
AcDb2dVertex
 42
-5.767878E-004
 10
4.8688708E+002
 20
2.469605E+002
 70
1
  0
VERTEX
  5
717
100
AcDbEntity
  8
5
100
AcDbVertex
100
AcDb2dVertex
 42
-5.66285E-004
 10
4.8688407E+002
 20
2.4697321E+002
 70
0
  0
VERTEX
  5
718
100
AcDbEntity
  8
5
100
AcDbVertex
100
AcDb2dVertex
 42
-5.556277E-004
 10
4.8688106E+002
 20
2.4698605E+002
 70
1
  0
VERTEX
  5
719
100
AcDbEntity
  8
5
100
AcDbVertex
100
AcDb2dVertex
 42
-5.456562E-004
 10
4.8687804E+002
 20
2.4699901E+002
 70
0
  0
VERTEX
  5
71a
100
AcDbEntity
  8
5
100
AcDbVertex
100
AcDb2dVertex
 42
-5.356009E-004
 10
4.8687503E+002
 20
2.470121E+002
 70
1
  0
VERTEX
  5
71b
100
AcDbEntity
  8
5
100
AcDbVertex
100
AcDb2dVertex
 42
-5.262483E-004
 10
4.8687202E+002
 20
2.4702531E+002
 70
0
  0
VERTEX
  5
71c
100
AcDbEntity
  8
5
100
AcDbVertex
100
AcDb2dVertex
 42
-5.165806E-004
 10
4.8686901E+002
 20
2.4703865E+002
 70
1
  0
VERTEX
  5
71d
100
AcDbEntity
  8
5
100
AcDbVertex
100
AcDb2dVertex
 42
-5.073814E-004
 10
4.86866E+002
 20
2.4705212E+002
 70
0
  0
VERTEX
  5
71e
100
AcDbEntity
  8
5
100
AcDbVertex
100
AcDb2dVertex
 42
-4.98672E-004
 10
4.8686299E+002
 20
2.4706571E+002
 70
1
  0
VERTEX
  5
71f
100
AcDbEntity
  8
5
100
AcDbVertex
100
AcDb2dVertex
 42
-4.91048E-004
 10
4.8685998E+002
 20
2.4707942E+002
 70
0
  0
VERTEX
  5
720
100
AcDbEntity
  8
5
100
AcDbVertex
100
AcDb2dVertex
 42
-4.812039E-004
 10
4.8685698E+002
 20
2.4709327E+002
 70
1
  0
VERTEX
  5
721
100
AcDbEntity
  8
5
100
AcDbVertex
100
AcDb2dVertex
 42
-4.702877E-004
 10
4.8685397E+002
 20
2.4710724E+002
 70
0
  0
VERTEX
  5
722
100
AcDbEntity
  8
5
100
AcDbVertex
100
AcDb2dVertex
 42
-4.661959E-004
 10
4.8685097E+002
 20
2.4712132E+002
 70
1
  0
VERTEX
  5
723
100
AcDbEntity
  8
5
100
AcDbVertex
100
AcDb2dVertex
 42
-4.677051E-004
 10
4.8684796E+002
 20
2.4713555E+002
 70
0
  0
VERTEX
  5
724
100
AcDbEntity
  8
5
100
AcDbVertex
100
AcDb2dVertex
 42
-4.465696E-004
 10
4.8684495E+002
 20
2.4714993E+002
 70
1
  0
VERTEX
  5
725
100
AcDbEntity
  8
5
100
AcDbVertex
100
AcDb2dVertex
 42
-4.10497E-004
 10
4.8684195E+002
 20
2.4716437E+002
 70
0
  0
VERTEX
  5
726
100
AcDbEntity
  8
5
100
AcDbVertex
100
AcDb2dVertex
 42
-4.458288E-004
 10
4.8683897E+002
 20
2.4717884E+002
 70
1
  0
VERTEX
  5
727
100
AcDbEntity
  8
5
100
AcDbVertex
100
AcDb2dVertex
 42
-5.218446E-004
 10
4.8683595E+002
 20
2.4719368E+002
 70
0
  0
VERTEX
  5
728
100
AcDbEntity
  8
5
100
AcDbVertex
100
AcDb2dVertex
 42
-3.887091E-004
 10
4.8683285E+002
 20
2.4720903E+002
 70
1
  0
VERTEX
  5
729
100
AcDbEntity
  8
5
100
AcDbVertex
100
AcDb2dVertex
 42
-1.321923E-004
 10
4.8682994E+002
 20
2.472235E+002
 70
0
  0
VERTEX
  5
72a
100
AcDbEntity
  8
5
100
AcDbVertex
100
AcDb2dVertex
 42
-5.380606E-004
 10
4.8682732E+002
 20
2.4723666E+002
 70
1
  0
VERTEX
  5
72b
100
AcDbEntity
  8
5
100
AcDbVertex
100
AcDb2dVertex
 42
-8.974978E-004
 10
4.8682395E+002
 20
2.4725383E+002
 70
0
  0
VERTEX
  5
72c
100
AcDbEntity
  8
5
100
AcDbVertex
100
AcDb2dVertex
 42
-4.27133E-004
 10
4.8681876E+002
 20
2.4728064E+002
 70
1
  0
VERTEX
  5
72d
100
AcDbEntity
  8
5
100
AcDbVertex
100
AcDb2dVertex
 42
-2.235948E-004
 10
4.8681196E+002
 20
2.4731598E+002
 70
0
  0
SEQEND
  5
72e
100
AcDbEntity
  0
LINE
  5
72f
100
AcDbEntity
  8
5
100
AcDbLine
  6
HIDDEN
 62
6
 10
4.8794772E+002
 20
2.4689882E+002
 11
4.8806785E+002
 21
2.4731598E+002
  0
LINE
  5
730
100
AcDbEntity
  8
5
100
AcDbLine
  6
HIDDEN
 62
6
 10
4.8953232E+002
 20
2.4731598E+002
 11
4.8926258E+002
 21
2.4689882E+002
  0
LINE
  5
731
100
AcDbEntity
  8
5
100
AcDbLine
  6
HIDDEN
 62
6
 10
4.885497E+002
 20
2.4689882E+002
 11
4.8842957E+002
 21
2.4731598E+002
  0
LINE
  5
732
100
AcDbEntity
  8
5
100
AcDbLine
  6
HIDDEN
 62
6
 10
4.8838908E+002
 20
2.4689882E+002
 11
4.8815278E+002
 21
2.4731598E+002
  0
LINE
  5
733
100
AcDbEntity
  8
5
100
AcDbLine
  6
HIDDEN
 62
6
 10
4.8903375E+002
 20
2.4689882E+002
 11
4.8913892E+002
 21
2.4731598E+002
  0
LINE
  5
734
100
AcDbEntity
  8
5
100
AcDbLine
  6
HIDDEN
 62
6
 10
4.8976291E+002
 20
2.4731598E+002
 11
4.8949316E+002
 21
2.4689882E+002
  0
LINE
  5
735
100
AcDbEntity
  8
5
100
AcDbLine
  6
HIDDEN
 62
6
 10
4.8916885E+002
 20
2.4689882E+002
 11
4.8916885E+002
 21
2.4731598E+002
  0
LINE
  5
736
100
AcDbEntity
  8
5
100
AcDbLine
  6
HIDDEN
 62
6
 10
4.8903771E+002
 20
2.4689882E+002
 11
4.889035E+002
 21
2.4731598E+002
  0
LINE
  5
737
100
AcDbEntity
  8
5
100
AcDbLine
  6
HIDDEN
 62
6
 10
4.8888414E+002
 20
2.4689882E+002
 11
4.8888425E+002
 21
2.4689904E+002
  0
LINE
  5
738
100
AcDbEntity
  8
5
100
AcDbLine
  6
HIDDEN
 62
6
 10
4.8871516E+002
 20
2.4731598E+002
 11
4.888837E+002
 21
2.4689882E+002
  0
LINE
  5
739
100
AcDbEntity
  8
5
100
AcDbLine
  6
HIDDEN
 62
6
 10
4.8927138E+002
 20
2.4689882E+002
 11
4.8937655E+002
 21
2.4731598E+002
  0
LINE
  5
73a
100
AcDbEntity
  8
5
100
AcDbLine
  6
HIDDEN
 62
6
 10
4.8980207E+002
 20
2.4731598E+002
 11
4.8969646E+002
 21
2.4689882E+002
  0
LINE
  5
73b
100
AcDbEntity
  8
5
100
AcDbLine
  6
HIDDEN
 62
6
 10
4.9025268E+002
 20
2.4689882E+002
 11
4.9052199E+002
 21
2.4731598E+002
  0
LINE
  5
73c
100
AcDbEntity
  8
5
100
AcDbLine
  6
HIDDEN
 62
6
 10
4.8619237E+002
 20
2.4689882E+002
 11
4.8629754E+002
 21
2.4731598E+002
  0
LINE
  5
73d
100
AcDbEntity
  8
5
100
AcDbLine
  6
HIDDEN
 62
6
 10
4.8706498E+002
 20
2.4689882E+002
 11
4.8733473E+002
 21
2.4731598E+002
  0
LINE
  5
73e
100
AcDbEntity
  8
5
100
AcDbLine
  6
HIDDEN
 62
6
 10
4.8650965E+002
 20
2.4689882E+002
 11
4.8638907E+002
 21
2.4731598E+002
  0
LINE
  5
73f
100
AcDbEntity
  8
5
100
AcDbLine
  6
HIDDEN
 62
6
 10
4.862597E+002
 20
2.4689882E+002
 11
4.861004E+002
 21
2.4731598E+002
  0
LINE
  5
740
100
AcDbEntity
  8
5
100
AcDbLine
  6
HIDDEN
 62
6
 10
4.8602252E+002
 20
2.4731598E+002
 11
4.8585398E+002
 21
2.4689882E+002
  0
LINE
  5
741
100
AcDbEntity
  8
5
100
AcDbLine
  6
HIDDEN
 62
6
 10
4.8586542E+002
 20
2.4689882E+002
 11
4.8602472E+002
 21
2.4731598E+002
  0
LINE
  5
742
100
AcDbEntity
  8
5
100
AcDbLine
  6
HIDDEN
 62
6
 10
4.8606828E+002
 20
2.4689882E+002
 11
4.8630415E+002
 21
2.4731598E+002
  0
LINE
  5
743
100
AcDbEntity
  8
5
100
AcDbLine
  6
HIDDEN
 62
6
 10
4.8507818E+002
 20
2.4689882E+002
 11
4.8515122E+002
 21
2.4731598E+002
  0
SPLINE
  5
744
100
AcDbEntity
  8
5
100
AcDbSpline
  6
HIDDEN
 62
6
210
0.0
220
0.0
230
0.0
 70
0
 71
3
 72
8
 73
4
 74
0
 42
1.0E-007
 43
1.0E-007
 44
0.0
 40
0.0
 40
0.0
 40
0.0
 40
0.0
 40
1.0
 40
1.0
 40
1.0
 40
1.0
 10
4.8466233E+002
 20
2.4731598E+002
 30
0.0
 10
4.8471926E+002
 20
2.4717713E+002
 30
0.0
 10
4.8477594E+002
 20
2.4703827E+002
 30
0.0
 10
4.8483131E+002
 20
2.4689882E+002
 30
0.0
  0
LINE
  5
745
100
AcDbEntity
  8
5
100
AcDbLine
  6
HIDDEN
 62
6
 10
4.8490744E+002
 20
2.4689882E+002
 11
4.8477938E+002
 21
2.4731598E+002
  0
LINE
  5
746
100
AcDbEntity
  8
5
100
AcDbLine
  6
HIDDEN
 62
6
 10
4.8495716E+002
 20
2.4689882E+002
 11
4.8478863E+002
 21
2.4731598E+002
  0
LINE
  5
747
100
AcDbEntity
  8
5
100
AcDbLine
  6
HIDDEN
 62
6
 10
4.8458973E+002
 20
2.4689882E+002
 11
4.8471822E+002
 21
2.4731598E+002
  0
SPLINE
  5
748
100
AcDbEntity
  8
5
100
AcDbSpline
  6
HIDDEN
 62
6
210
0.0
220
0.0
230
0.0
 70
0
 71
3
 72
8
 73
4
 74
0
 42
1.0E-007
 43
1.0E-007
 44
0.0
 40
0.0
 40
0.0
 40
0.0
 40
0.0
 40
1.0
 40
1.0
 40
1.0
 40
1.0
 10
4.8458268E+002
 20
2.4731598E+002
 30
0.0
 10
4.8452759E+002
 20
2.4717661E+002
 30
0.0
 10
4.8447147E+002
 20
2.4703753E+002
 30
0.0
 10
4.8441459E+002
 20
2.4689882E+002
 30
0.0
  0
LINE
  5
749
100
AcDbEntity
  8
5
100
AcDbLine
  6
HIDDEN
 62
6
 10
4.8475782E+002
 20
2.4689882E+002
 11
4.8498665E+002
 21
2.4731598E+002
  0
SPLINE
  5
74a
100
AcDbEntity
  8
5
100
AcDbSpline
  6
HIDDEN
 62
6
210
0.0
220
0.0
230
0.0
 70
0
 71
3
 72
8
 73
4
 74
0
 42
1.0E-007
 43
1.0E-007
 44
0.0
 40
0.0
 40
0.0
 40
0.0
 40
0.0
 40
1.0
 40
1.0
 40
1.0
 40
1.0
 10
4.8488324E+002
 20
2.4731598E+002
 30
0.0
 10
4.8482979E+002
 20
2.4717585E+002
 30
0.0
 10
4.8477361E+002
 20
2.4703667E+002
 30
0.0
 10
4.847147E+002
 20
2.4689882E+002
 30
0.0
  0
LINE
  5
74b
100
AcDbEntity
  8
5
100
AcDbLine
  6
HIDDEN
 62
6
 10
4.8651493E+002
 20
2.4689882E+002
 11
4.8663506E+002
 21
2.4731598E+002
  0
LINE
  5
74c
100
AcDbEntity
  8
5
100
AcDbLine
  6
HIDDEN
 62
6
 10
4.8668038E+002
 20
2.4689882E+002
 11
4.8683968E+002
 21
2.4731598E+002
  0
LINE
  5
74d
100
AcDbEntity
  8
5
100
AcDbLine
  6
HIDDEN
 62
6
 10
4.8708567E+002
 20
2.4689882E+002
 11
4.8691757E+002
 21
2.4731598E+002
  0
LINE
  5
74e
100
AcDbEntity
  8
5
100
AcDbLine
  6
HIDDEN
 62
6
 10
4.8707467E+002
 20
2.4689882E+002
 11
4.8691537E+002
 21
2.4731598E+002
  0
LINE
  5
74f
100
AcDbEntity
  8
5
100
AcDbLine
  6
HIDDEN
 62
6
 10
4.8695629E+002
 20
2.4689882E+002
 11
4.8671999E+002
 21
2.4731598E+002
  0
LINE
  5
750
100
AcDbEntity
  8
5
100
AcDbLine
  6
HIDDEN
 62
6
 10
4.8769821E+002
 20
2.4689882E+002
 11
4.8780338E+002
 21
2.4731598E+002
  0
LINE
  5
751
100
AcDbEntity
  8
5
100
AcDbLine
  6
HIDDEN
 62
6
 10
4.8830283E+002
 20
2.4689882E+002
 11
4.8845421E+002
 21
2.4731598E+002
  0
SPLINE
  5
752
100
AcDbEntity
  8
5
100
AcDbSpline
  6
HIDDEN
 62
6
210
0.0
220
0.0
230
0.0
 70
0
 71
3
 72
8
 73
4
 74
0
 42
1.0E-007
 43
1.0E-007
 44
0.0
 40
0.0
 40
0.0
 40
0.0
 40
0.0
 40
1.0
 40
1.0
 40
1.0
 40
1.0
 10
4.8831956E+002
 20
2.4689882E+002
 30
0.0
 10
4.8837441E+002
 20
2.470367E+002
 30
0.0
 10
4.8843212E+002
 20
2.4717803E+002
 30
0.0
 10
4.8848809E+002
 20
2.4731598E+002
 30
0.0
  0
LINE
  5
753
100
AcDbEntity
  8
5
100
AcDbLine
  6
HIDDEN
 62
6
 10
4.8818798E+002
 20
2.4689882E+002
 11
4.8808061E+002
 21
2.4731598E+002
  0
LINE
  5
754
100
AcDbEntity
  8
5
100
AcDbLine
  6
HIDDEN
 62
6
 10
4.8787863E+002
 20
2.4689882E+002
 11
4.8772725E+002
 21
2.4731598E+002
  0
LINE
  5
755
100
AcDbEntity
  8
5
100
AcDbLine
  6
HIDDEN
 62
6
 10
4.8750415E+002
 20
2.4689882E+002
 11
4.8750415E+002
 21
2.4731598E+002
  0
LINE
  5
756
100
AcDbEntity
  8
5
100
AcDbLine
  6
HIDDEN
 62
6
 10
4.8718732E+002
 20
2.4689882E+002
 11
4.8718732E+002
 21
2.4731598E+002
  0
LINE
  5
757
100
AcDbEntity
  8
5
100
AcDbLine
  6
HIDDEN
 62
6
 10
4.8689821E+002
 20
2.4731598E+002
 11
4.8672967E+002
 21
2.4689882E+002
  0
LINE
  5
758
100
AcDbEntity
  8
5
100
AcDbLine
  6
HIDDEN
 62
6
 10
4.8690269E+002
 20
2.4731417E+002
 11
4.8690349E+002
 21
2.4731598E+002
  0
LINE
  5
759
100
AcDbEntity
  8
5
100
AcDbLine
  6
HIDDEN
 62
6
 10
4.8696905E+002
 20
2.4689882E+002
 11
4.8710283E+002
 21
2.4731598E+002
  0
LINE
  5
75a
100
AcDbEntity
  8
5
100
AcDbLine
  6
HIDDEN
 62
6
 10
4.8792924E+002
 20
2.4689882E+002
 11
4.8803441E+002
 21
2.4731598E+002
  0
LINE
  5
75b
100
AcDbEntity
  8
5
100
AcDbLine
  6
HIDDEN
 62
6
 10
4.8883045E+002
 20
2.4689882E+002
 11
4.8909976E+002
 21
2.4731598E+002
  0
LINE
  5
75c
100
AcDbEntity
  8
5
100
AcDbLine
  6
HIDDEN
 62
6
 10
4.8824519E+002
 20
2.4689882E+002
 11
4.8812506E+002
 21
2.4731598E+002
  0
LINE
  5
75d
100
AcDbEntity
  8
5
100
AcDbLine
  6
HIDDEN
 62
6
 10
4.8799656E+002
 20
2.4689882E+002
 11
4.8783727E+002
 21
2.4731598E+002
  0
LINE
  5
75e
100
AcDbEntity
  8
5
100
AcDbLine
  6
HIDDEN
 62
6
 10
4.8775938E+002
 20
2.4731598E+002
 11
4.8759084E+002
 21
2.4689882E+002
  0
LINE
  5
75f
100
AcDbEntity
  8
5
100
AcDbLine
  6
HIDDEN
 62
6
 10
4.8760228E+002
 20
2.4689882E+002
 11
4.8776158E+002
 21
2.4731598E+002
  0
LINE
  5
760
100
AcDbEntity
  8
5
100
AcDbLine
  6
HIDDEN
 62
6
 10
4.8780426E+002
 20
2.4689882E+002
 11
4.8804013E+002
 21
2.4731598E+002
  0
LINE
  5
761
100
AcDbEntity
  8
5
100
AcDbLine
  6
HIDDEN
 62
6
 10
4.868146E+002
 20
2.4689882E+002
 11
4.8688897E+002
 21
2.4731598E+002
  0
SPLINE
  5
762
100
AcDbEntity
  8
5
100
AcDbSpline
  6
HIDDEN
 62
6
210
0.0
220
0.0
230
0.0
 70
0
 71
3
 72
8
 73
4
 74
0
 42
1.0E-007
 43
1.0E-007
 44
0.0
 40
0.0
 40
0.0
 40
0.0
 40
0.0
 40
1.0
 40
1.0
 40
1.0
 40
1.0
 10
4.863992E+002
 20
2.4731598E+002
 30
0.0
 10
4.8645614E+002
 20
2.4717713E+002
 30
0.0
 10
4.8651283E+002
 20
2.4703828E+002
 30
0.0
 10
4.8656817E+002
 20
2.4689882E+002
 30
0.0
  0
LINE
  5
763
100
AcDbEntity
  8
5
100
AcDbLine
  6
HIDDEN
 62
6
 10
4.866443E+002
 20
2.4689882E+002
 11
4.8651625E+002
 21
2.4731598E+002
  0
LINE
  5
764
100
AcDbEntity
  8
5
100
AcDbLine
  6
HIDDEN
 62
6
 10
4.8669403E+002
 20
2.4689882E+002
 11
4.8652549E+002
 21
2.4731598E+002
  0
LINE
  5
765
100
AcDbEntity
  8
5
100
AcDbLine
  6
HIDDEN
 62
6
 10
4.8632659E+002
 20
2.4689882E+002
 11
4.8645508E+002
 21
2.4731598E+002
  0
SPLINE
  5
766
100
AcDbEntity
  8
5
100
AcDbSpline
  6
HIDDEN
 62
6
210
0.0
220
0.0
230
0.0
 70
0
 71
3
 72
8
 73
4
 74
0
 42
1.0E-007
 43
1.0E-007
 44
0.0
 40
0.0
 40
0.0
 40
0.0
 40
0.0
 40
1.0
 40
1.0
 40
1.0
 40
1.0
 10
4.8631955E+002
 20
2.4731598E+002
 30
0.0
 10
4.8626447E+002
 20
2.4717661E+002
 30
0.0
 10
4.8620834E+002
 20
2.4703753E+002
 30
0.0
 10
4.8615145E+002
 20
2.4689882E+002
 30
0.0
  0
LINE
  5
767
100
AcDbEntity
  8
5
100
AcDbLine
  6
HIDDEN
 62
6
 10
4.8649469E+002
 20
2.4689882E+002
 11
4.8672351E+002
 21
2.4731598E+002
  0
SPLINE
  5
768
100
AcDbEntity
  8
5
100
AcDbSpline
  6
HIDDEN
 62
6
210
0.0
220
0.0
230
0.0
 70
0
 71
3
 72
8
 73
4
 74
0
 42
1.0E-007
 43
1.0E-007
 44
0.0
 40
0.0
 40
0.0
 40
0.0
 40
0.0
 40
1.0
 40
1.0
 40
1.0
 40
1.0
 10
4.866201E+002
 20
2.4731598E+002
 30
0.0
 10
4.8656671E+002
 20
2.4717585E+002
 30
0.0
 10
4.8651053E+002
 20
2.4703667E+002
 30
0.0
 10
4.8645156E+002
 20
2.4689882E+002
 30
0.0
  0
LINE
  5
769
100
AcDbEntity
  8
5
100
AcDbLine
  6
HIDDEN
 62
6
 10
4.8825223E+002
 20
2.4689882E+002
 11
4.8837236E+002
 21
2.4731598E+002
  0
LINE
  5
76a
100
AcDbEntity
  8
5
100
AcDbLine
  6
HIDDEN
 62
6
 10
4.8841725E+002
 20
2.4689882E+002
 11
4.8857654E+002
 21
2.4731598E+002
  0
LINE
  5
76b
100
AcDbEntity
  8
5
100
AcDbLine
  6
HIDDEN
 62
6
 10
4.8882253E+002
 20
2.4689882E+002
 11
4.8865443E+002
 21
2.4731598E+002
  0
LINE
  5
76c
100
AcDbEntity
  8
5
100
AcDbLine
  6
HIDDEN
 62
6
 10
4.8881153E+002
 20
2.4689882E+002
 11
4.8865223E+002
 21
2.4731598E+002
  0
LINE
  5
76d
100
AcDbEntity
  8
5
100
AcDbLine
  6
HIDDEN
 62
6
 10
4.886936E+002
 20
2.4689882E+002
 11
4.8845685E+002
 21
2.4731598E+002
  0
LINE
  5
76e
100
AcDbEntity
  8
5
100
AcDbLine
  6
HIDDEN
 62
6
 10
4.8946588E+002
 20
2.4689882E+002
 11
4.8957149E+002
 21
2.4731598E+002
  0
LINE
  5
76f
100
AcDbEntity
  8
5
100
AcDbLine
  6
HIDDEN
 62
6
 10
4.900705E+002
 20
2.4689882E+002
 11
4.9022188E+002
 21
2.4731598E+002
  0
SPLINE
  5
770
100
AcDbEntity
  8
5
100
AcDbSpline
  6
HIDDEN
 62
6
210
0.0
220
0.0
230
0.0
 70
0
 71
3
 72
8
 73
4
 74
0
 42
1.0E-007
 43
1.0E-007
 44
0.0
 40
0.0
 40
0.0
 40
0.0
 40
0.0
 40
1.0
 40
1.0
 40
1.0
 40
1.0
 10
4.9008722E+002
 20
2.4689882E+002
 30
0.0
 10
4.9014188E+002
 20
2.470367E+002
 30
0.0
 10
4.9019958E+002
 20
2.4717803E+002
 30
0.0
 10
4.9025532E+002
 20
2.4731598E+002
 30
0.0
  0
LINE
  5
771
100
AcDbEntity
  8
5
100
AcDbLine
  6
HIDDEN
 62
6
 10
4.8995565E+002
 20
2.4689882E+002
 11
4.8984784E+002
 21
2.4731598E+002
  0
LINE
  5
772
100
AcDbEntity
  8
5
100
AcDbLine
  6
HIDDEN
 62
6
 10
4.896463E+002
 20
2.4689882E+002
 11
4.8949492E+002
 21
2.4731598E+002
  0
LINE
  5
773
100
AcDbEntity
  8
5
100
AcDbLine
  6
HIDDEN
 62
6
 10
4.8927138E+002
 20
2.4689882E+002
 11
4.8927138E+002
 21
2.4731598E+002
  0
LINE
  5
774
100
AcDbEntity
  8
5
100
AcDbLine
  6
HIDDEN
 62
6
 10
4.8892418E+002
 20
2.4689882E+002
 11
4.8892418E+002
 21
2.4731598E+002
  0
LINE
  5
775
100
AcDbEntity
  8
5
100
AcDbLine
  6
HIDDEN
 62
6
 10
4.8863507E+002
 20
2.4731598E+002
 11
4.8846653E+002
 21
2.4689882E+002
  0
LINE
  5
776
100
AcDbEntity
  8
5
100
AcDbLine
  6
HIDDEN
 62
6
 10
4.8863959E+002
 20
2.4731416E+002
 11
4.8864035E+002
 21
2.4731598E+002
  0
LINE
  5
777
100
AcDbEntity
  8
5
100
AcDbLine
  6
HIDDEN
 62
6
 10
4.8870592E+002
 20
2.4689882E+002
 11
4.8884013E+002
 21
2.4731598E+002
  0
LINE
  5
778
100
AcDbEntity
  8
5
100
AcDbLine
  6
HIDDEN
 62
6
 10
4.8966038E+002
 20
2.4731598E+002
 11
4.8993057E+002
 21
2.4689882E+002
  0
LINE
  5
779
100
AcDbEntity
  8
5
100
AcDbLine
  6
HIDDEN
 62
6
 10
4.9112441E+002
 20
2.4689882E+002
 11
4.9114377E+002
 21
2.4731598E+002
  0
LINE
  5
77a
100
AcDbEntity
  8
5
100
AcDbLine
  6
HIDDEN
 62
6
 10
4.902936E+002
 20
2.4731598E+002
 11
4.9044498E+002
 21
2.4689882E+002
  0
SPLINE
  5
77b
100
AcDbEntity
  8
5
100
AcDbSpline
  6
HIDDEN
 62
6
210
0.0
220
0.0
230
0.0
 70
0
 71
3
 72
8
 73
4
 74
0
 42
1.0E-007
 43
1.0E-007
 44
0.0
 40
0.0
 40
0.0
 40
0.0
 40
0.0
 40
1.0
 40
1.0
 40
1.0
 40
1.0
 10
4.9050395E+002
 20
2.4689882E+002
 30
0.0
 10
4.9044656E+002
 20
2.4703732E+002
 30
0.0
 10
4.9039056E+002
 20
2.4717654E+002
 30
0.0
 10
4.9033541E+002
 20
2.4731598E+002
 30
0.0
  0
LINE
  5
77c
100
AcDbEntity
  8
5
100
AcDbLine
  6
HIDDEN
 62
6
 10
4.8989052E+002
 20
2.4731598E+002
 11
4.9014003E+002
 21
2.4689882E+002
  0
LINE
  5
77d
100
AcDbEntity
  8
5
100
AcDbLine
  6
HIDDEN
 62
6
 10
4.9061132E+002
 20
2.4731598E+002
 11
4.9071649E+002
 21
2.4689882E+002
  0
LINE
  5
77e
100
AcDbEntity
  8
5
100
AcDbLine
  6
HIDDEN
 62
6
 10
4.8638643E+002
 20
2.4731598E+002
 11
4.8665618E+002
 21
2.4689882E+002
  0
LINE
  5
77f
100
AcDbEntity
  8
5
100
AcDbLine
  6
HIDDEN
 62
6
 10
4.8742406E+002
 20
2.4731598E+002
 11
4.8752967E+002
 21
2.4689882E+002
  0
LINE
  5
780
100
AcDbEntity
  8
5
100
AcDbLine
  6
HIDDEN
 62
6
 10
4.8900779E+002
 20
2.4731598E+002
 11
4.8900823E+002
 21
2.4689882E+002
  0
SPLINE
  5
781
100
AcDbEntity
  8
5
100
AcDbSpline
  6
HIDDEN
 62
6
210
0.0
220
0.0
230
0.0
 70
0
 71
3
 72
8
 73
4
 74
0
 42
1.0E-007
 43
1.0E-007
 44
0.0
 40
0.0
 40
0.0
 40
0.0
 40
0.0
 40
1.0
 40
1.0
 40
1.0
 40
1.0
 10
4.8974531E+002
 20
2.4689882E+002
 30
0.0
 10
4.8968636E+002
 20
2.4703666E+002
 30
0.0
 10
4.8963018E+002
 20
2.4717586E+002
 30
0.0
 10
4.8957677E+002
 20
2.4731598E+002
 30
0.0
  0
LINE
  5
782
100
AcDbEntity
  8
5
100
AcDbLine
  6
HIDDEN
 62
6
 10
4.8947336E+002
 20
2.4731598E+002
 11
4.8970218E+002
 21
2.4689882E+002
  0
SPLINE
  5
783
100
AcDbEntity
  8
5
100
AcDbSpline
  6
HIDDEN
 62
6
210
0.0
220
0.0
230
0.0
 70
0
 71
3
 72
8
 73
4
 74
0
 42
1.0E-007
 43
1.0E-007
 44
0.0
 40
0.0
 40
0.0
 40
0.0
 40
0.0
 40
1.0
 40
1.0
 40
1.0
 40
1.0
 10
4.9004586E+002
 20
2.4689882E+002
 30
0.0
 10
4.8998857E+002
 20
2.4703753E+002
 30
0.0
 10
4.8993245E+002
 20
2.4717661E+002
 30
0.0
 10
4.8987732E+002
 20
2.4731598E+002
 30
0.0
  0
LINE
  5
784
100
AcDbEntity
  8
5
100
AcDbLine
  6
HIDDEN
 62
6
 10
4.8974179E+002
 20
2.4731598E+002
 11
4.8987028E+002
 21
2.4689882E+002
  0
LINE
  5
785
100
AcDbEntity
  8
5
100
AcDbLine
  6
HIDDEN
 62
6
 10
4.8967138E+002
 20
2.4731598E+002
 11
4.8950284E+002
 21
2.4689882E+002
  0
LINE
  5
786
100
AcDbEntity
  8
5
100
AcDbLine
  6
HIDDEN
 62
6
 10
4.8968106E+002
 20
2.4731598E+002
 11
4.8955257E+002
 21
2.4689882E+002
  0
SPLINE
  5
787
100
AcDbEntity
  8
5
100
AcDbSpline
  6
HIDDEN
 62
6
210
0.0
220
0.0
230
0.0
 70
0
 71
3
 72
8
 73
4
 74
0
 42
1.0E-007
 43
1.0E-007
 44
0.0
 40
0.0
 40
0.0
 40
0.0
 40
0.0
 40
1.0
 40
1.0
 40
1.0
 40
1.0
 10
4.8962869E+002
 20
2.4689882E+002
 30
0.0
 10
4.8968409E+002
 20
2.4703828E+002
 30
0.0
 10
4.8974078E+002
 20
2.4717712E+002
 30
0.0
 10
4.8979767E+002
 20
2.4731598E+002
 30
0.0
  0
LINE
  5
788
100
AcDbEntity
  8
5
100
AcDbLine
  6
HIDDEN
 62
6
 10
4.8930878E+002
 20
2.4731598E+002
 11
4.8938183E+002
 21
2.4689882E+002
  0
LINE
  5
789
100
AcDbEntity
  8
5
100
AcDbLine
  6
HIDDEN
 62
6
 10
4.8789271E+002
 20
2.4731598E+002
 11
4.8816246E+002
 21
2.4689882E+002
  0
LINE
  5
78a
100
AcDbEntity
  8
5
100
AcDbLine
  6
HIDDEN
 62
6
 10
4.8852638E+002
 20
2.4731598E+002
 11
4.8867775E+002
 21
2.4689882E+002
  0
SPLINE
  5
78b
100
AcDbEntity
  8
5
100
AcDbSpline
  6
HIDDEN
 62
6
210
0.0
220
0.0
230
0.0
 70
0
 71
3
 72
8
 73
4
 74
0
 42
1.0E-007
 43
1.0E-007
 44
0.0
 40
0.0
 40
0.0
 40
0.0
 40
0.0
 40
1.0
 40
1.0
 40
1.0
 40
1.0
 10
4.8873672E+002
 20
2.4689882E+002
 30
0.0
 10
4.8867911E+002
 20
2.4703732E+002
 30
0.0
 10
4.886231E+002
 20
2.4717654E+002
 30
0.0
 10
4.8856818E+002
 20
2.4731598E+002
 30
0.0
  0
LINE
  5
78c
100
AcDbEntity
  8
5
100
AcDbLine
  6
HIDDEN
 62
6
 10
4.8812286E+002
 20
2.4731598E+002
 11
4.8837236E+002
 21
2.4689882E+002
  0
LINE
  5
78d
100
AcDbEntity
  8
5
100
AcDbLine
  6
HIDDEN
 62
6
 10
4.8918909E+002
 20
2.4731598E+002
 11
4.8929426E+002
 21
2.4689882E+002
  0
LINE
  5
78e
100
AcDbEntity
  8
5
100
AcDbLine
  6
HIDDEN
 62
6
 10
4.9074465E+002
 20
2.4731598E+002
 11
4.9074465E+002
 21
2.4689882E+002
  0
SPLINE
  5
78f
100
AcDbEntity
  8
5
100
AcDbSpline
  6
HIDDEN
 62
6
210
0.0
220
0.0
230
0.0
 70
0
 71
3
 72
8
 73
4
 74
0
 42
1.0E-007
 43
1.0E-007
 44
0.0
 40
0.0
 40
0.0
 40
0.0
 40
0.0
 40
1.0
 40
1.0
 40
1.0
 40
1.0
 10
4.9148217E+002
 20
2.4689882E+002
 30
0.0
 10
4.9142322E+002
 20
2.4703663E+002
 30
0.0
 10
4.9136704E+002
 20
2.4717583E+002
 30
0.0
 10
4.9131363E+002
 20
2.4731598E+002
 30
0.0
  0
LINE
  5
790
100
AcDbEntity
  8
5
100
AcDbLine
  6
HIDDEN
 62
6
 10
4.9120538E+002
 20
2.4731598E+002
 11
4.9143684E+002
 21
2.4689882E+002
  0
SPLINE
  5
791
100
AcDbEntity
  8
5
100
AcDbSpline
  6
HIDDEN
 62
6
210
0.0
220
0.0
230
0.0
 70
0
 71
3
 72
8
 73
4
 74
0
 42
1.0E-007
 43
1.0E-007
 44
0.0
 40
0.0
 40
0.0
 40
0.0
 40
0.0
 40
1.0
 40
1.0
 40
1.0
 40
1.0
 10
4.9178228E+002
 20
2.4689882E+002
 30
0.0
 10
4.9172539E+002
 20
2.4703752E+002
 30
0.0
 10
4.9166927E+002
 20
2.471766E+002
 30
0.0
 10
4.9161418E+002
 20
2.4731598E+002
 30
0.0
  0
LINE
  5
792
100
AcDbEntity
  8
5
100
AcDbLine
  6
HIDDEN
 62
6
 10
4.9147865E+002
 20
2.4731598E+002
 11
4.9160714E+002
 21
2.4689882E+002
  0
LINE
  5
793
100
AcDbEntity
  8
5
100
AcDbLine
  6
HIDDEN
 62
6
 10
4.9140824E+002
 20
2.4731598E+002
 11
4.912397E+002
 21
2.4689882E+002
  0
LINE
  5
794
100
AcDbEntity
  8
5
100
AcDbLine
  6
HIDDEN
 62
6
 10
4.9141792E+002
 20
2.4731598E+002
 11
4.9128943E+002
 21
2.4689882E+002
  0
SPLINE
  5
795
100
AcDbEntity
  8
5
100
AcDbSpline
  6
HIDDEN
 62
6
210
0.0
220
0.0
230
0.0
 70
0
 71
3
 72
8
 73
4
 74
0
 42
1.0E-007
 43
1.0E-007
 44
0.0
 40
0.0
 40
0.0
 40
0.0
 40
0.0
 40
1.0
 40
1.0
 40
1.0
 40
1.0
 10
4.9136556E+002
 20
2.4689882E+002
 30
0.0
 10
4.9142164E+002
 20
2.4703794E+002
 30
0.0
 10
4.914778E+002
 20
2.4717693E+002
 30
0.0
 10
4.9153409E+002
 20
2.4731598E+002
 30
0.0
  0
LINE
  5
796
100
AcDbEntity
  8
5
100
AcDbLine
  6
HIDDEN
 62
6
 10
4.8276133E+002
 20
2.4731598E+002
 11
4.8276133E+002
 21
2.4689882E+002
  0
LINE
  5
797
100
AcDbEntity
  8
5
100
AcDbLine
  6
HIDDEN
 62
6
 10
4.9392751E+002
 20
2.4731598E+002
 11
4.9392751E+002
 21
2.4689882E+002
  0
INSERT
  5
798
100
AcDbEntity
100
AcDbBlockReference
  2
BOM
  8
1
 10
8.3499642E+002
 20
6.0177352E+001
  0
INSERT
  5
799
100
AcDbEntity
100
AcDbBlockReference
  2
M11
  8
1
 10
7.7640367E+002
 20
5.3838858E+001
  0
INSERT
  5
79a
100
AcDbEntity
100
AcDbBlockReference
  2
EFFZF_SCHLIETAB
  8
4
 10
4.8834437E+002
 20
3.7291605E+002
 50
9.0E+001
  0
VIEWPORT
  5
79b
100
AcDbEntity
 67
1
  8
0
  6
CONTINUOUS
 62
3
100
AcDbViewport
 10
4.205E+002
 20
2.97E+002
 30
0.0
 40
5.94E+002
 41
5.94E+002
 68
1
 69
1
1001
ACAD
1000
MVIEW
1002
{
1070
16
1010
0.0
1020
0.0
1030
0.0
1010
0.0
1020
0.0
1030
1.0
1040
0.0
1040
5.94E+002
1040
2.31275E+002
1040
2.97E+002
1040
5.0E+001
1040
0.0
1040
0.0
1070
0
1070
100
1070
1
1070
0
1070
0
1070
0
1070
0
1070
0
1040
0.0
1040
0.0
1040
0.0
1040
5.0E-001
1040
5.0E-001
1040
5.0E-001
1040
5.0E-001
1070
0
1002
{
1002
}
1002
}
  0
VIEWPORT
  5
79c
100
AcDbEntity
 67
1
  8
0
  6
CONTINUOUS
 62
3
100
AcDbViewport
 10
4.205E+002
 20
2.97E+002
 30
0.0
 40
8.41E+002
 41
5.94E+002
 68
2
 69
2
1001
ACAD
1000
MVIEW
1002
{
1070
16
1010
0.0
1020
0.0
1030
0.0
1010
0.0
1020
0.0
1030
1.0
1040
0.0
1040
5.94E+002
1040
4.205E+002
1040
2.97E+002
1040
5.0E+001
1040
0.0
1040
0.0
1070
0
1070
100
1070
1
1070
0
1070
0
1070
0
1070
0
1070
0
1040
0.0
1040
0.0
1040
0.0
1040
5.0E-001
1040
5.0E-001
1040
5.0E-001
1040
5.0E-001
1070
0
1002
{
1003
5
1003
4
1002
}
1002
}
  0
VIEWPORT
  5
79d
100
AcDbEntity
 67
1
  8
0
  6
CONTINUOUS
 62
3
100
AcDbViewport
 10
4.1651282E+002
 20
3.7948608E+002
 30
0.0
 40
8.0602616E+002
 41
1.5711804E+002
 68
3
 69
3
1001
ACAD
1000
MVIEW
1002
{
1070
16
1010
0.0
1020
0.0
1030
0.0
1010
0.0
1020
0.0
1030
1.0
1040
0.0
1040
1.5711804E+002
1040
4.1651282E+002
1040
3.7948608E+002
1040
5.0E+001
1040
0.0
1040
0.0
1070
0
1070
100
1070
1
1070
0
1070
0
1070
0
1070
0
1070
0
1040
0.0
1040
0.0
1040
0.0
1040
5.0E-001
1040
5.0E-001
1040
5.0E-001
1040
5.0E-001
1070
0
1002
{
1003
5
1003
1
1002
}
1002
}
  0
VIEWPORT
  5
79e
100
AcDbEntity
 67
1
  8
0
  6
CONTINUOUS
 62
3
100
AcDbViewport
 10
3.9567544E+002
 20
2.4689894E+002
 30
0.0
 40
7.643514E+002
 41
1.0805625E+002
 68
4
 69
4
1001
ACAD
1000
MVIEW
1002
{
1070
16
1010
0.0
1020
0.0
1030
0.0
1010
0.0
1020
0.0
1030
1.0
1040
0.0
1040
1.0805625E+002
1040
3.9567544E+002
1040
2.4689894E+002
1040
5.0E+001
1040
0.0
1040
0.0
1070
0
1070
100
1070
1
1070
0
1070
0
1070
0
1070
0
1070
0
1040
0.0
1040
0.0
1040
0.0
1040
5.0E-001
1040
5.0E-001
1040
5.0E-001
1040
5.0E-001
1070
0
1002
{
1003
4
1003
1
1002
}
1002
}
  0
ENDSEC
  0
SECTION
  2
OBJECTS
  0
DICTIONARY
  5
79f
100
AcDbDictionary
  3
ACAD_GROUP
350
7a0
  3
ACAD_MLINESTYLE
350
7a1
  0
DICTIONARY
  5
7a0
102
{ACAD_REACTORS
330
79f
102
}
100
AcDbDictionary
  0
DICTIONARY
  5
7a1
102
{ACAD_REACTORS
330
79f
102
}
100
AcDbDictionary
  3
STANDARD
350
7a2
  0
MLINESTYLE
  5
7a2
102
{ACAD_REACTORS
330
7a1
102
}
100
AcDbMlineStyle
  2
STANDARD
 70
0
  3

 62
256
 51
9.0E+001
 52
9.0E+001
 71
2
 49
5.0E-001
 62
256
  6
BYLAYER
 49
-5.0E-001
 62
256
  6
BYLAYER
  0
ENDSEC
  0
EOF
