  0
SECTION
  2
HEADER
  9
$ACADVER
  1
AC1014
999
I-DEAS 11 NX Not Encoded
  9
$EXTMIN
 10
0.0
 20
0.0
  9
$EXTMAX
 10
4.2E+002
 20
2.97E+002
  9
$TEXTSIZE
 40
1.25E-001
  9
$LTSCALE
 40
1.0
  9
$CLAYER
  8
100
  9
$CECOLOR
 62
3
  9
$DIMASZ
 40
1.25E-001
  9
$DIMEXO
 40
6.25E-002
  9
$DIMDLI
 40
2.5E-001
  9
$DIMEXE
 40
1.25E-001
  9
$DIMTP
 40
5.0E-003
  9
$DIMTM
 40
-5.0E-003
  9
$DIMTXT
 40
3.0
  9
$DIMLIM
 70
0
  9
$DIMTIH
 70
1
  9
$DIMTOH
 70
1
  9
$DIMSE1
 70
0
  9
$DIMSE2
 70
0
  9
$DIMTAD
 70
0
  9
$DIMASO
 70
1
  9
$DIMALT
 70
0
  9
$DIMALTD
 70
0
  9
$DIMTOFL
 70
1
  9
$DIMTIX
 70
0
  9
$DIMSAH
 70
0
  9
$DIMTFAC
 40
1.0
  9
$DIMGAP
 40
6.25E-002
  9
$LUNITS
 70
2
  9
$LUPREC
 70
3
  9
$FILLETRAD
 40
1.0E+001
  9
$AUNITS
 70
0
  9
$AUPREC
 70
1
  9
$CHAMFERA
 40
6.0
  9
$CHAMFERB
 40
6.0
  9
$ANGBASE
 50
0.0
  9
$ANGDIR
 70
0
  9
$PEXTMIN
 10
0.0
 20
0.0
 30
0.0
  9
$PEXTMAX
 10
4.2E+002
 20
2.97E+002
 30
0.0
  9
$PLIMMIN
 10
0.0
 20
0.0
  9
$PLIMMAX
 10
4.2E+002
 20
2.97E+002
  9
$PDMODE
 70
2
  9
$PDSIZE
 40
-1.0E-002
  9
$SPLINETYPE
 70
6
  9
$TILEMODE
 70
0
  9
$HANDLING
 70
1
  9
$HANDSEED
  5
f4240
  0
ENDSEC
  0
SECTION
  2
TABLES
  0
TABLE
  2
VPORT
  5
64
100
AcDbSymbolTable
 70
2
  0
VPORT
  5
65
100
AcDbSymbolTableRecord
100
AcDbViewportTableRecord
  2
*Active
 70
0
 10
0.0
 20
0.0
 11
4.2E+002
 21
2.97E+002
 12
2.1E+002
 22
1.485E+002
 13
0.0
 23
0.0
 14
1.0
 24
1.0
 15
0.0
 25
0.0
 16
0.0
 26
0.0
 36
1.0
 17
0.0
 27
0.0
 37
0.0
 40
2.97E+002
 41
1.4141414
 42
5.0E+001
 43
0.0
 44
0.0
 50
0.0
 51
0.0
 71
0
 72
1000
 73
1
 74
3
 75
0
 76
0
 77
0
 78
0
  0
ENDTAB
  0
TABLE
  2
LTYPE
  5
66
100
AcDbSymbolTable
 70
7
  0
LTYPE
  5
67
100
AcDbSymbolTableRecord
100
AcDbLinetypeTableRecord
  2
BYBLOCK
 70
0
  3

 72
65
 73
0
 40
0.0
  0
LTYPE
  5
68
100
AcDbSymbolTableRecord
100
AcDbLinetypeTableRecord
  2
BYLAYER
 70
0
  3

 72
65
 73
0
 40
0.0
  0
LTYPE
  5
69
100
AcDbSymbolTableRecord
100
AcDbLinetypeTableRecord
  2
CONTINUOUS
 70
0
  3

 72
65
 73
0
 40
0.0
  0
LTYPE
  5
6a
100
AcDbSymbolTableRecord
100
AcDbLinetypeTableRecord
  2
HIDDENNEW0
  3
_ 
 70
64
 72
65
 73
3
 40
4.5
 49
1.5
 74
0
 49
-1.5
 74
0
 49
1.5
 74
0
  0
LTYPE
  5
6b
100
AcDbSymbolTableRecord
100
AcDbLinetypeTableRecord
  2
HIDDENNEW1
  3
_ 
 70
64
 72
65
 73
3
 40
4.5
 49
1.5
 74
0
 49
-1.5
 74
0
 49
1.5
 74
0
  0
LTYPE
  5
6c
100
AcDbSymbolTableRecord
100
AcDbLinetypeTableRecord
  2
HIDDEN
  3
_ 
 70
64
 72
65
 73
3
 40
4.5
 49
1.5
 74
0
 49
-1.5
 74
0
 49
1.5
 74
0
  0
LTYPE
  5
6d
100
AcDbSymbolTableRecord
100
AcDbLinetypeTableRecord
  2
CENTERLINE
  3
_ 
 70
64
 72
65
 73
5
 40
3.0E+001
 49
1.2E+001
 74
0
 49
-1.5
 74
0
 49
3.0
 74
0
 49
-1.5
 74
0
 49
1.2E+001
 74
0
  0
LTYPE
  5
6e
100
AcDbSymbolTableRecord
100
AcDbLinetypeTableRecord
  2
PHANTOM
  3
_ 
 70
64
 72
65
 73
7
 40
2.95E+001
 49
9.5
 74
0
 49
-1.5
 74
0
 49
3.0
 74
0
 49
-1.5
 74
0
 49
3.0
 74
0
 49
-1.5
 74
0
 49
9.5
 74
0
  0
LTYPE
  5
6f
100
AcDbSymbolTableRecord
100
AcDbLinetypeTableRecord
  2
SHORT_DASH
  3
_ 
 70
64
 72
65
 73
3
 40
3.0
 49
7.5E-001
 74
0
 49
-1.5
 74
0
 49
7.5E-001
 74
0
  0
LTYPE
  5
70
100
AcDbSymbolTableRecord
100
AcDbLinetypeTableRecord
  2
LONG_DASH
  3
_ 
 70
64
 72
65
 73
3
 40
9.0
 49
2.25
 74
0
 49
-4.5
 74
0
 49
2.25
 74
0
  0
ENDTAB
  0
TABLE
  2
LAYER
  5
71
100
AcDbSymbolTable
 70
258
  0
LAYER
  5
72
100
AcDbSymbolTableRecord
100
AcDbLayerTableRecord
  2
0
 70
0
 62
-7
  6
CONTINUOUS
  0
LAYER
  5
73
100
AcDbSymbolTableRecord
100
AcDbLayerTableRecord
  2
1
 70
0
 62
7
  6
CONTINUOUS
  0
LAYER
  5
74
100
AcDbSymbolTableRecord
100
AcDbLayerTableRecord
  2
2
 70
0
 62
7
  6
CONTINUOUS
  0
LAYER
  5
75
100
AcDbSymbolTableRecord
100
AcDbLayerTableRecord
  2
3
 70
0
 62
7
  6
CONTINUOUS
  0
LAYER
  5
76
100
AcDbSymbolTableRecord
100
AcDbLayerTableRecord
  2
4
 70
0
 62
7
  6
CONTINUOUS
  0
LAYER
  5
77
100
AcDbSymbolTableRecord
100
AcDbLayerTableRecord
  2
5
 70
0
 62
7
  6
CONTINUOUS
  0
LAYER
  5
78
100
AcDbSymbolTableRecord
100
AcDbLayerTableRecord
  2
Drafting_Hidden_Entities
 70
1
 62
7
  6
CONTINUOUS
  0
ENDTAB
  0
TABLE
  2
STYLE
  5
79
100
AcDbSymbolTable
 70
1
  0
STYLE
  5
7a
100
AcDbSymbolTableRecord
100
AcDbTextStyleTableRecord
  2
STANDARD
 70
64
 40
0.0
 41
1.0
 50
0.0
 71
0
 42
1.0
  3
monotxt.shx
  4

  0
ENDTAB
  0
TABLE
  2
VIEW
  5
7b
100
AcDbSymbolTable
 70
0
  0
ENDTAB
  0
TABLE
  2
UCS
  5
7c
100
AcDbSymbolTable
 70
0
  0
ENDTAB
  0
TABLE
  2
APPID
  5
7d
100
AcDbSymbolTable
 70
1
  0
APPID
  5
7e
100
AcDbSymbolTableRecord
100
AcDbRegAppTableRecord
  2
ACAD
 70
1
  0
ENDTAB
  0
TABLE
  2
DIMSTYLE
  5
7f
100
AcDbSymbolTable
 70
4
  0
DIMSTYLE
105
80
100
AcDbSymbolTableRecord
100
AcDbDimStyleTableRecord
  2
DSTYLE1
 70
0
  3

  4

  5

  6

  7

 40
1.0
 41
3.0
 42
0.0
 43
3.8E-001
 44
3.0
 45
1.0E-002
 46
0.0
 47
1.0E-001
 48
1.0E-001
 71
0
 72
0
 73
0
 74
0
 75
0
 76
0
 77
1
 78
11
140
3.0
141
9.0E-002
142
0.0
143
3.9370079E-002
144
1.0
145
0.0
146
1.0
147
1.5
170
0
171
2
172
0
173
0
174
0
175
0
176
0
177
0
178
0
270
2
271
2
272
4
273
2
274
2
275
0
280
0
281
0
282
0
283
1
284
0
285
0
286
0
287
3
288
0
  0
DIMSTYLE
105
81
100
AcDbSymbolTableRecord
100
AcDbDimStyleTableRecord
  2
DSTYLE2
 70
0
  3

  4

  5

  6

  7

 40
1.0
 41
3.0
 42
0.0
 43
3.8E-001
 44
3.0
 45
1.0E-002
 46
0.0
 47
1.0E-001
 48
1.0E-001
 71
1
 72
0
 73
0
 74
0
 75
0
 76
0
 77
1
 78
11
140
3.0
141
9.0E-002
142
0.0
143
3.9370079E-002
144
1.0
145
0.0
146
1.0
147
1.5
170
0
171
2
172
0
173
0
174
0
175
0
176
0
177
0
178
0
270
2
271
2
272
4
273
2
274
2
275
0
280
0
281
0
282
0
283
1
284
0
285
0
286
0
287
3
288
0
  0
DIMSTYLE
105
82
100
AcDbSymbolTableRecord
100
AcDbDimStyleTableRecord
  2
DSTYLE3
 70
0
  3

  4

  5

  6

  7

 40
1.0
 41
3.0
 42
0.0
 43
3.8E-001
 44
3.0
 45
1.0E-002
 46
0.0
 47
2.0E-001
 48
1.0E-001
 71
1
 72
0
 73
0
 74
0
 75
0
 76
0
 77
1
 78
11
140
3.0
141
9.0E-002
142
0.0
143
3.9370079E-002
144
1.0
145
0.0
146
1.0
147
1.5
170
0
171
2
172
0
173
0
174
0
175
0
176
0
177
0
178
0
270
2
271
2
272
4
273
2
274
2
275
0
280
0
281
0
282
0
283
1
284
0
285
0
286
0
287
3
288
0
  0
DIMSTYLE
105
83
100
AcDbSymbolTableRecord
100
AcDbDimStyleTableRecord
  2
DSTYLE4
 70
0
  3

  4

  5

  6

  7

 40
1.0
 41
3.0
 42
1.5
 43
3.8E-001
 44
5.0
 45
0.0
 46
0.0
 47
1.0
 48
1.0
 71
0
 72
0
 73
1
 74
1
 75
1
 76
0
 77
1
 78
3
140
3.0
141
9.0E-002
142
0.0
143
3.9370079E-002
144
1.0
145
0.0
146
1.0
147
1.5
170
0
171
2
172
0
173
0
174
0
175
0
176
0
177
0
178
0
270
2
271
0
272
4
273
2
274
2
275
0
280
0
281
0
282
0
283
1
284
0
285
0
286
0
287
3
288
0
  0
ENDTAB
  0
TABLE
  2
BLOCK_RECORD
  5
84
100
AcDbSymbolTable
 70
0
  0
BLOCK_RECORD
  5
85
100
AcDbSymbolTableRecord
100
AcDbBlockTableRecord
  2
*MODEL_SPACE
  0
BLOCK_RECORD
  5
86
100
AcDbSymbolTableRecord
100
AcDbBlockTableRecord
  2
*PAPER_SPACE
  0
BLOCK_RECORD
  5
87
100
AcDbSymbolTableRecord
100
AcDbBlockTableRecord
  2
*D178
  0
BLOCK_RECORD
  5
88
100
AcDbSymbolTableRecord
100
AcDbBlockTableRecord
  2
*D179
  0
BLOCK_RECORD
  5
89
100
AcDbSymbolTableRecord
100
AcDbBlockTableRecord
  2
*D181
  0
BLOCK_RECORD
  5
8a
100
AcDbSymbolTableRecord
100
AcDbBlockTableRecord
  2
*D182
  0
BLOCK_RECORD
  5
8b
100
AcDbSymbolTableRecord
100
AcDbBlockTableRecord
  2
*D185
  0
BLOCK_RECORD
  5
8c
100
AcDbSymbolTableRecord
100
AcDbBlockTableRecord
  2
*D186
  0
BLOCK_RECORD
  5
8d
100
AcDbSymbolTableRecord
100
AcDbBlockTableRecord
  2
*D189
  0
BLOCK_RECORD
  5
8e
100
AcDbSymbolTableRecord
100
AcDbBlockTableRecord
  2
*D1294
  0
BLOCK_RECORD
  5
8f
100
AcDbSymbolTableRecord
100
AcDbBlockTableRecord
  2
*D1295
  0
BLOCK_RECORD
  5
90
100
AcDbSymbolTableRecord
100
AcDbBlockTableRecord
  2
*D1296
  0
BLOCK_RECORD
  5
91
100
AcDbSymbolTableRecord
100
AcDbBlockTableRecord
  2
*D1297
  0
BLOCK_RECORD
  5
92
100
AcDbSymbolTableRecord
100
AcDbBlockTableRecord
  2
*D1298
  0
BLOCK_RECORD
  5
93
100
AcDbSymbolTableRecord
100
AcDbBlockTableRecord
  2
_AH1
  0
BLOCK_RECORD
  5
94
100
AcDbSymbolTableRecord
100
AcDbBlockTableRecord
  2
_AH2
  0
BLOCK_RECORD
  5
95
100
AcDbSymbolTableRecord
100
AcDbBlockTableRecord
  2
_AH12
  3
_AH
  0
BLOCK_RECORD
  5
96
100
AcDbSymbolTableRecord
100
AcDbBlockTableRecord
  2
_AH13
  3
_AH
  0
BLOCK_RECORD
  5
97
100
AcDbSymbolTableRecord
100
AcDbBlockTableRecord
  2
_AH14
  3
_AH
  0
BLOCK_RECORD
  5
98
100
AcDbSymbolTableRecord
100
AcDbBlockTableRecord
  2
_AH15
  3
_AH
  0
BLOCK_RECORD
  5
99
100
AcDbSymbolTableRecord
100
AcDbBlockTableRecord
  2
_AH16
  3
_AH
  0
BLOCK_RECORD
  5
9a
100
AcDbSymbolTableRecord
100
AcDbBlockTableRecord
  2
_AH17
  3
_AH
  0
BLOCK_RECORD
  5
9b
100
AcDbSymbolTableRecord
100
AcDbBlockTableRecord
  2
_AH18
  3
_AH
  0
BLOCK_RECORD
  5
9c
100
AcDbSymbolTableRecord
100
AcDbBlockTableRecord
  2
_AH19
  3
_AH
  0
BLOCK_RECORD
  5
9d
100
AcDbSymbolTableRecord
100
AcDbBlockTableRecord
  2
_AH20
  3
_AH
  0
BLOCK_RECORD
  5
9e
100
AcDbSymbolTableRecord
100
AcDbBlockTableRecord
  2
_AH21
  3
_AH
  0
BLOCK_RECORD
  5
9f
100
AcDbSymbolTableRecord
100
AcDbBlockTableRecord
  2
A3
  0
BLOCK_RECORD
  5
a0
100
AcDbSymbolTableRecord
100
AcDbBlockTableRecord
  2
ASSANEW00
  0
BLOCK_RECORD
  5
a1
100
AcDbSymbolTableRecord
100
AcDbBlockTableRecord
  2
M11
  0
BLOCK_RECORD
  5
a2
100
AcDbSymbolTableRecord
100
AcDbBlockTableRecord
  2
ENGL
  0
BLOCK_RECORD
  5
a3
100
AcDbSymbolTableRecord
100
AcDbBlockTableRecord
  2
*TX120
  3
*TX
  0
BLOCK_RECORD
  5
a4
100
AcDbSymbolTableRecord
100
AcDbBlockTableRecord
  2
*TX121
  3
*TX
  0
BLOCK_RECORD
  5
a5
100
AcDbSymbolTableRecord
100
AcDbBlockTableRecord
  2
*TX122
  3
*TX
  0
BLOCK_RECORD
  5
a6
100
AcDbSymbolTableRecord
100
AcDbBlockTableRecord
  2
*TX123
  3
*TX
  0
BLOCK_RECORD
  5
a7
100
AcDbSymbolTableRecord
100
AcDbBlockTableRecord
  2
*TX124
  3
*TX
  0
BLOCK_RECORD
  5
a8
100
AcDbSymbolTableRecord
100
AcDbBlockTableRecord
  2
*TX125
  3
*TX
  0
BLOCK_RECORD
  5
a9
100
AcDbSymbolTableRecord
100
AcDbBlockTableRecord
  2
*TX126
  3
*TX
  0
BLOCK_RECORD
  5
aa
100
AcDbSymbolTableRecord
100
AcDbBlockTableRecord
  2
*TX127
  3
*TX
  0
BLOCK_RECORD
  5
ab
100
AcDbSymbolTableRecord
100
AcDbBlockTableRecord
  2
*TX128
  3
*TX
  0
ENDTAB
  0
ENDSEC
  0
SECTION
  2
BLOCKS
  0
BLOCK
  5
ac
100
AcDbEntity
100
AcDbBlockBegin
  2
*MODEL_SPACE
 70
0
 10
0.0
 20
0.0
 30
0.0
  3
*MODEL_SPACE
  1

  0
ENDBLK
  5
ad
100
AcDbEntity
100
AcDbBlockEnd
  0
BLOCK
  5
ae
100
AcDbEntity
100
AcDbBlockBegin
  2
*PAPER_SPACE
 70
0
 10
0.0
 20
0.0
 30
0.0
  3
*PAPER_SPACE
  1

  0
ENDBLK
  5
af
100
AcDbEntity
100
AcDbBlockEnd
  0
BLOCK
  5
b0
100
AcDbEntity
100
AcDbBlockBegin
  2
_AH12
  3
_AH
 10
0.0
 20
0.0
 70
64
  0
LINE
  5
b1
100
AcDbEntity
  8
0
100
AcDbLine
  6
CONTINUOUS
 62
0
 10
0.0
 20
0.0
 11
1.0
 21
0.0
  0
LINE
  5
b2
100
AcDbEntity
  8
0
100
AcDbLine
  6
CONTINUOUS
 62
0
 10
0.0
 20
0.0
 11
-1.0
 21
0.0
  0
ENDBLK
  5
b3
100
AcDbEntity
100
AcDbBlockEnd
  0
BLOCK
  5
b4
100
AcDbEntity
100
AcDbBlockBegin
  2
_AH13
  3
_AH
 10
0.0
 20
0.0
 70
64
  0
SOLID
  5
b5
100
AcDbEntity
  8
0
100
AcDbTrace
  6
CONTINUOUS
 62
0
 10
0.0
 20
0.0
 11
1.0
 21
-1.66667E-001
 12
1.0
 22
1.66667E-001
 13
0.0
 23
0.0
  0
ENDBLK
  5
b6
100
AcDbEntity
100
AcDbBlockEnd
  0
BLOCK
  5
b7
100
AcDbEntity
100
AcDbBlockBegin
  2
_AH14
  3
_AH
 10
0.0
 20
0.0
 70
64
  0
ENDBLK
  5
b8
100
AcDbEntity
100
AcDbBlockEnd
  0
BLOCK
  5
b9
100
AcDbEntity
100
AcDbBlockBegin
  2
_AH15
  3
_AH
 10
0.0
 20
0.0
 70
64
  0
CIRCLE
  5
ba
100
AcDbEntity
  8
0
100
AcDbCircle
  6
CONTINUOUS
 62
0
 10
0.0
 20
0.0
 40
1.66667E-001
  0
LINE
  5
bb
100
AcDbEntity
  8
0
100
AcDbLine
  6
CONTINUOUS
 62
0
 10
0.0
 20
0.0
 11
-1.0
 21
0.0
  0
ENDBLK
  5
bc
100
AcDbEntity
100
AcDbBlockEnd
  0
BLOCK
  5
bd
100
AcDbEntity
100
AcDbBlockBegin
  2
_AH16
  3
_AH
 10
0.0
 20
0.0
 70
64
  0
POLYLINE
  5
be
100
AcDbEntity
  8
0
100
AcDb2dPolyline
  6
CONTINUOUS
 62
0
 66
1
 40
2.56E+002
 41
2.56E+002
 70
0
  0
VERTEX
  5
bf
100
AcDbEntity
  8
0
100
AcDbVertex
100
AcDb2dVertex
 42
1.0
 10
8.3335E-002
 20
0.0
 70
0
  0
VERTEX
  5
c0
100
AcDbEntity
  8
0
100
AcDbVertex
100
AcDb2dVertex
 42
1.0
 10
-8.3335E-002
 20
0.0
 70
0
  0
VERTEX
  5
c1
100
AcDbEntity
  8
0
100
AcDbVertex
100
AcDb2dVertex
 42
0.0
 10
8.3335E-002
 20
0.0
 70
0
  0
SEQEND
  5
c2
100
AcDbEntity
  0
LINE
  5
c3
100
AcDbEntity
  8
0
100
AcDbLine
  6
CONTINUOUS
 62
0
 10
0.0
 20
0.0
 11
-1.0
 21
0.0
  0
ENDBLK
  5
c4
100
AcDbEntity
100
AcDbBlockEnd
  0
BLOCK
  5
c5
100
AcDbEntity
100
AcDbBlockBegin
  2
_AH17
  3
_AH
 10
0.0
 20
0.0
 70
64
  0
LINE
  5
c6
100
AcDbEntity
  8
0
100
AcDbLine
  6
CONTINUOUS
 62
0
 10
-1.66667E-001
 20
-1.66667E-001
 11
1.66667E-001
 21
-1.66667E-001
  0
LINE
  5
c7
100
AcDbEntity
  8
0
100
AcDbLine
  6
CONTINUOUS
 62
0
 10
1.66667E-001
 20
-1.66667E-001
 11
1.66667E-001
 21
1.66667E-001
  0
LINE
  5
c8
100
AcDbEntity
  8
0
100
AcDbLine
  6
CONTINUOUS
 62
0
 10
1.66667E-001
 20
1.66667E-001
 11
-1.66667E-001
 21
1.66667E-001
  0
LINE
  5
c9
100
AcDbEntity
  8
0
100
AcDbLine
  6
CONTINUOUS
 62
0
 10
-1.66667E-001
 20
1.66667E-001
 11
-1.66667E-001
 21
-1.66667E-001
  0
LINE
  5
ca
100
AcDbEntity
  8
0
100
AcDbLine
  6
CONTINUOUS
 62
0
 10
0.0
 20
0.0
 11
-1.0
 21
0.0
  0
ENDBLK
  5
cb
100
AcDbEntity
100
AcDbBlockEnd
  0
BLOCK
  5
cc
100
AcDbEntity
100
AcDbBlockBegin
  2
_AH18
  3
_AH
 10
0.0
 20
0.0
 70
64
  0
SOLID
  5
cd
100
AcDbEntity
  8
0
100
AcDbTrace
  6
CONTINUOUS
 62
0
 10
-1.66667E-001
 20
-1.66667E-001
 11
1.66667E-001
 21
-1.66667E-001
 12
-1.66667E-001
 22
1.66667E-001
 13
1.66667E-001
 23
1.66667E-001
  0
LINE
  5
ce
100
AcDbEntity
  8
0
100
AcDbLine
  6
CONTINUOUS
 62
0
 10
0.0
 20
0.0
 11
-1.0
 21
0.0
  0
ENDBLK
  5
cf
100
AcDbEntity
100
AcDbBlockEnd
  0
BLOCK
  5
d0
100
AcDbEntity
100
AcDbBlockBegin
  2
_AH19
  3
_AH
 10
0.0
 20
0.0
 70
64
  0
LINE
  5
d1
100
AcDbEntity
  8
0
100
AcDbLine
  6
CONTINUOUS
 62
0
 10
-5.0E-001
 20
-5.0E-001
 11
5.0E-001
 21
5.0E-001
  0
LINE
  5
d2
100
AcDbEntity
  8
0
100
AcDbLine
  6
CONTINUOUS
 62
0
 10
0.0
 20
0.0
 11
-1.0
 21
0.0
  0
ENDBLK
  5
d3
100
AcDbEntity
100
AcDbBlockEnd
  0
BLOCK
  5
d4
100
AcDbEntity
100
AcDbBlockBegin
  2
_AH20
  3
_AH
 10
0.0
 20
0.0
 70
64
  0
POLYLINE
  5
d5
100
AcDbEntity
  8
0
100
AcDb2dPolyline
  6
CONTINUOUS
 62
0
 66
1
 40
5.0E-001
 41
5.0E-001
 70
0
  0
VERTEX
  5
d6
100
AcDbEntity
  8
0
100
AcDbVertex
100
AcDb2dVertex
 42
4.1421356E-001
 10
-1.66667E-001
 20
-1.66667E-001
 70
0
  0
VERTEX
  5
d7
100
AcDbEntity
  8
0
100
AcDbVertex
100
AcDb2dVertex
 42
0.0
 10
0.0
 20
0.0
 70
0
  0
SEQEND
  5
d8
100
AcDbEntity
  0
POLYLINE
  5
d9
100
AcDbEntity
  8
0
100
AcDb2dPolyline
  6
CONTINUOUS
 62
0
 66
1
 40
5.0E-001
 41
5.0E-001
 70
0
  0
VERTEX
  5
da
100
AcDbEntity
  8
0
100
AcDbVertex
100
AcDb2dVertex
 42
4.1421356E-001
 10
1.66667E-001
 20
1.66667E-001
 70
0
  0
VERTEX
  5
db
100
AcDbEntity
  8
0
100
AcDbVertex
100
AcDb2dVertex
 42
0.0
 10
0.0
 20
0.0
 70
0
  0
SEQEND
  5
dc
100
AcDbEntity
  0
LINE
  5
dd
100
AcDbEntity
  8
0
100
AcDbLine
  6
CONTINUOUS
 62
0
 10
0.0
 20
0.0
 11
-1.0
 21
0.0
  0
ENDBLK
  5
de
100
AcDbEntity
100
AcDbBlockEnd
  0
BLOCK
  5
df
100
AcDbEntity
100
AcDbBlockBegin
  2
_AH21
  3
_AH
 10
0.0
 20
0.0
 70
64
  0
LINE
  5
e0
100
AcDbEntity
  8
0
100
AcDbLine
  6
CONTINUOUS
 62
0
 10
0.0
 20
0.0
 11
-1.0
 21
-1.66667E-001
  0
LINE
  5
e1
100
AcDbEntity
  8
0
100
AcDbLine
  6
CONTINUOUS
 62
0
 10
-1.0
 20
-1.66667E-001
 11
-1.0
 21
1.66667E-001
  0
LINE
  5
e2
100
AcDbEntity
  8
0
100
AcDbLine
  6
CONTINUOUS
 62
0
 10
-1.0
 20
1.66667E-001
 11
0.0
 21
0.0
  0
ENDBLK
  5
e3
100
AcDbEntity
100
AcDbBlockEnd
  0
BLOCK
  5
e4
100
AcDbEntity
100
AcDbBlockBegin
  2
A3
 10
0.0
 20
0.0
 70
0
  0
ATTDEF
  5
e5
100
AcDbEntity
  8
1
100
AcDbText
  6
CONTINUOUS
 62
6
 10
3.7285302E+002
 20
3.5139971E+001
 40
4.0
  1
 
 41
7.0E-001
 72
1
 11
3.7145302E+002
 21
3.5139971E+001
100
AcDbAttributeDefinition
  3
1
  2
1
 70
0
  0
ATTDEF
  5
e6
100
AcDbEntity
  8
1
100
AcDbText
  6
CONTINUOUS
 62
6
 10
3.7285302E+002
 20
2.4028525E+001
 40
4.0
  1
 
 41
7.0E-001
 72
1
 11
3.7145302E+002
 21
2.4028525E+001
100
AcDbAttributeDefinition
  3
2
  2
2
 70
0
  0
ATTDEF
  5
e7
100
AcDbEntity
  8
1
100
AcDbText
  6
CONTINUOUS
 62
6
 10
3.6650302E+002
 20
1.0708917E+001
 40
4.0
  1
 
 41
7.0E-001
 72
1
 11
3.6510302E+002
 21
1.0708917E+001
100
AcDbAttributeDefinition
  3
3
  2
3
 70
0
  0
ATTDEF
  5
e8
100
AcDbEntity
  8
1
100
AcDbText
  6
CONTINUOUS
 62
6
 10
3.8250302E+002
 20
4.98925E+001
 40
3.0
  1
 
 41
7.0E-001
 72
1
 11
3.8145302E+002
 21
4.98925E+001
100
AcDbAttributeDefinition
  3
4
  2
4
 70
0
  0
ATTDEF
  5
e9
100
AcDbEntity
  8
1
100
AcDbText
  6
CONTINUOUS
 62
6
 10
3.8250302E+002
 20
4.4605E+001
 40
3.0
  1
 
 41
7.0E-001
 72
1
 11
3.8145302E+002
 21
4.4605E+001
100
AcDbAttributeDefinition
  3
5
  2
5
 70
0
  0
ATTDEF
  5
ea
100
AcDbEntity
  8
1
100
AcDbText
  6
CONTINUOUS
 62
6
 10
3.9790302E+002
 20
5.53925E+001
 40
3.0
  1
 
 41
7.0E-001
 72
1
 11
3.9685302E+002
 21
5.53925E+001
100
AcDbAttributeDefinition
  3
6
  2
6
 70
0
  0
ATTDEF
  5
eb
100
AcDbEntity
  8
1
100
AcDbText
  6
CONTINUOUS
 62
6
 10
2.9282753E+002
 20
6.17056
 40
2.5
  1
 
 41
7.0E-001
100
AcDbAttributeDefinition
  3
7
  2
7
 70
0
  0
ATTDEF
  5
ec
100
AcDbEntity
  8
1
100
AcDbText
  6
CONTINUOUS
 62
6
 10
3.3600753E+002
 20
6.17056
 40
2.5
  1
 
 41
7.0E-001
100
AcDbAttributeDefinition
  3
8
  2
8
 70
0
  0
ATTDEF
  5
ed
100
AcDbEntity
  8
1
100
AcDbText
  6
CONTINUOUS
 62
6
 10
2.8651236E+002
 20
4.0139149E+001
 40
2.0
  1
 
 41
7.0E-001
100
AcDbAttributeDefinition
  3
9
  2
9
 70
0
  0
ATTDEF
  5
ee
100
AcDbEntity
  8
1
100
AcDbText
  6
CONTINUOUS
 62
6
 10
2.9625302E+002
 20
3.56575E+001
 40
2.2
  1
 
 41
7.0E-001
100
AcDbAttributeDefinition
  3
10
  2
10
 70
0
  0
ATTDEF
  5
ef
100
AcDbEntity
  8
1
100
AcDbText
  6
CONTINUOUS
 62
6
 10
3.1149302E+002
 20
3.56575E+001
 40
2.2
  1
 
 41
7.0E-001
100
AcDbAttributeDefinition
  3
11
  2
11
 70
0
  0
ATTDEF
  5
f0
100
AcDbEntity
  8
1
100
AcDbText
  6
CONTINUOUS
 62
6
 10
2.9625302E+002
 20
3.14275E+001
 40
2.2
  1
 
 41
7.0E-001
100
AcDbAttributeDefinition
  3
12
  2
12
 70
0
  0
ATTDEF
  5
f1
100
AcDbEntity
  8
1
100
AcDbText
  6
CONTINUOUS
 62
6
 10
3.1149302E+002
 20
3.14275E+001
 40
2.2
  1
 
 41
7.0E-001
100
AcDbAttributeDefinition
  3
13
  2
13
 70
0
  0
ATTDEF
  5
f2
100
AcDbEntity
  8
1
100
AcDbText
  6
CONTINUOUS
 62
6
 10
2.9625302E+002
 20
2.71975E+001
 40
2.2
  1
 
 41
7.0E-001
100
AcDbAttributeDefinition
  3
14
  2
14
 70
0
  0
ATTDEF
  5
f3
100
AcDbEntity
  8
1
100
AcDbText
  6
CONTINUOUS
 62
6
 10
3.1149302E+002
 20
2.71975E+001
 40
2.2
  1
 
 41
7.0E-001
100
AcDbAttributeDefinition
  3
15
  2
15
 70
0
  0
ATTDEF
  5
f4
100
AcDbEntity
  8
1
100
AcDbText
  6
CONTINUOUS
 62
6
 10
2.9625302E+002
 20
2.29675E+001
 40
2.2
  1
 
 41
7.0E-001
100
AcDbAttributeDefinition
  3
16
  2
16
 70
0
  0
ATTDEF
  5
f5
100
AcDbEntity
  8
1
100
AcDbText
  6
CONTINUOUS
 62
6
 10
3.7441543E+002
 20
2.9750496E+001
 40
4.0
  1
17
 41
7.0E-001
 72
1
 11
3.7161543E+002
 21
2.9750496E+001
100
AcDbAttributeDefinition
  3
17
  2
17
 70
0
  0
ATTDEF
  5
f6
100
AcDbEntity
  8
1
100
AcDbText
  6
CONTINUOUS
 62
6
 10
4.0750623E+002
 20
3.8785527E+001
 40
1.0
  1
 
100
AcDbAttributeDefinition
  3
18
  2
18
 70
0
  0
ATTDEF
  5
f7
100
AcDbEntity
  8
1
100
AcDbText
  6
CONTINUOUS
 62
6
 10
4.0750623E+002
 20
3.7285527E+001
 40
1.0
  1
 
100
AcDbAttributeDefinition
  3
19
  2
19
 70
0
  0
ATTDEF
  5
f8
100
AcDbEntity
  8
1
100
AcDbText
  6
CONTINUOUS
 62
6
 10
4.0750623E+002
 20
3.5785527E+001
 40
1.0
  1
 
100
AcDbAttributeDefinition
  3
20
  2
20
 70
0
  0
ATTDEF
  5
f9
100
AcDbEntity
  8
1
100
AcDbText
  6
CONTINUOUS
 62
6
 10
2.3275302E+002
 20
3.98875E+001
 40
2.0
  1
 
 41
7.0E-001
100
AcDbAttributeDefinition
  3
21
  2
21
 70
0
  0
ATTDEF
  5
fa
100
AcDbEntity
  8
1
100
AcDbText
  6
CONTINUOUS
 62
6
 10
2.4037302E+002
 20
3.98875E+001
 40
2.0
  1
 
 41
7.0E-001
100
AcDbAttributeDefinition
  3
22
  2
22
 70
0
  0
ATTDEF
  5
fb
100
AcDbEntity
  8
1
100
AcDbText
  6
CONTINUOUS
 62
6
 10
2.6577302E+002
 20
3.98875E+001
 40
2.0
  1
 
 41
7.0E-001
100
AcDbAttributeDefinition
  3
23
  2
23
 70
0
  0
ATTDEF
  5
fc
100
AcDbEntity
  8
1
100
AcDbText
  6
CONTINUOUS
 62
6
 10
2.7797302E+002
 20
3.98875E+001
 40
2.0
  1
 
 41
7.0E-001
100
AcDbAttributeDefinition
  3
24
  2
24
 70
0
  0
ATTDEF
  5
fd
100
AcDbEntity
  8
1
100
AcDbText
  6
CONTINUOUS
 62
6
 10
2.3275302E+002
 20
3.56575E+001
 40
2.0
  1
 
 41
7.0E-001
100
AcDbAttributeDefinition
  3
25
  2
25
 70
0
  0
ATTDEF
  5
fe
100
AcDbEntity
  8
1
100
AcDbText
  6
CONTINUOUS
 62
6
 10
2.4037302E+002
 20
3.56575E+001
 40
2.0
  1
 
 41
7.0E-001
100
AcDbAttributeDefinition
  3
26
  2
26
 70
0
  0
ATTDEF
  5
ff
100
AcDbEntity
  8
1
100
AcDbText
  6
CONTINUOUS
 62
6
 10
2.6577302E+002
 20
3.56575E+001
 40
2.0
  1
 
 41
7.0E-001
100
AcDbAttributeDefinition
  3
27
  2
27
 70
0
  0
ATTDEF
  5
100
100
AcDbEntity
  8
1
100
AcDbText
  6
CONTINUOUS
 62
6
 10
2.7797302E+002
 20
3.56575E+001
 40
2.0
  1
 
 41
7.0E-001
100
AcDbAttributeDefinition
  3
28
  2
28
 70
0
  0
ATTDEF
  5
101
100
AcDbEntity
  8
1
100
AcDbText
  6
CONTINUOUS
 62
6
 10
2.3275302E+002
 20
3.14275E+001
 40
2.0
  1
 
 41
7.0E-001
100
AcDbAttributeDefinition
  3
29
  2
29
 70
0
  0
ATTDEF
  5
102
100
AcDbEntity
  8
1
100
AcDbText
  6
CONTINUOUS
 62
6
 10
2.4037302E+002
 20
3.14275E+001
 40
2.0
  1
 
 41
7.0E-001
100
AcDbAttributeDefinition
  3
30
  2
30
 70
0
  0
ATTDEF
  5
103
100
AcDbEntity
  8
1
100
AcDbText
  6
CONTINUOUS
 62
6
 10
2.6577302E+002
 20
3.14275E+001
 40
2.0
  1
 
 41
7.0E-001
100
AcDbAttributeDefinition
  3
31
  2
31
 70
0
  0
ATTDEF
  5
104
100
AcDbEntity
  8
1
100
AcDbText
  6
CONTINUOUS
 62
6
 10
2.7797302E+002
 20
3.14275E+001
 40
2.0
  1
 
 41
7.0E-001
100
AcDbAttributeDefinition
  3
32
  2
32
 70
0
  0
ATTDEF
  5
105
100
AcDbEntity
  8
1
100
AcDbText
  6
CONTINUOUS
 62
6
 10
2.3275302E+002
 20
2.71975E+001
 40
2.0
  1
 
 41
7.0E-001
100
AcDbAttributeDefinition
  3
33
  2
33
 70
0
  0
ATTDEF
  5
106
100
AcDbEntity
  8
1
100
AcDbText
  6
CONTINUOUS
 62
6
 10
2.4037302E+002
 20
2.71975E+001
 40
2.0
  1
 
 41
7.0E-001
100
AcDbAttributeDefinition
  3
34
  2
34
 70
0
  0
ATTDEF
  5
107
100
AcDbEntity
  8
1
100
AcDbText
  6
CONTINUOUS
 62
6
 10
2.6577302E+002
 20
2.71975E+001
 40
2.0
  1
 
 41
7.0E-001
100
AcDbAttributeDefinition
  3
35
  2
35
 70
0
  0
ATTDEF
  5
108
100
AcDbEntity
  8
1
100
AcDbText
  6
CONTINUOUS
 62
6
 10
2.7797302E+002
 20
2.71975E+001
 40
2.0
  1
 
 41
7.0E-001
100
AcDbAttributeDefinition
  3
36
  2
36
 70
0
  0
ATTDEF
  5
109
100
AcDbEntity
  8
1
100
AcDbText
  6
CONTINUOUS
 62
6
 10
2.3275302E+002
 20
2.29675E+001
 40
2.0
  1
 
 41
7.0E-001
100
AcDbAttributeDefinition
  3
37
  2
37
 70
0
  0
ATTDEF
  5
10a
100
AcDbEntity
  8
1
100
AcDbText
  6
CONTINUOUS
 62
6
 10
2.4037302E+002
 20
2.29675E+001
 40
2.0
  1
 
 41
7.0E-001
100
AcDbAttributeDefinition
  3
38
  2
38
 70
0
  0
ATTDEF
  5
10b
100
AcDbEntity
  8
1
100
AcDbText
  6
CONTINUOUS
 62
6
 10
2.6577302E+002
 20
2.29675E+001
 40
2.0
  1
 
 41
7.0E-001
100
AcDbAttributeDefinition
  3
39
  2
39
 70
0
  0
ATTDEF
  5
10c
100
AcDbEntity
  8
1
100
AcDbText
  6
CONTINUOUS
 62
6
 10
2.7797302E+002
 20
2.29675E+001
 40
2.0
  1
 
 41
7.0E-001
100
AcDbAttributeDefinition
  3
40
  2
40
 70
0
  0
ATTDEF
  5
10d
100
AcDbEntity
  8
1
100
AcDbText
  6
CONTINUOUS
 62
6
 10
2.3275302E+002
 20
1.87375E+001
 40
2.0
  1
 
 41
7.0E-001
100
AcDbAttributeDefinition
  3
41
  2
41
 70
0
  0
ATTDEF
  5
10e
100
AcDbEntity
  8
1
100
AcDbText
  6
CONTINUOUS
 62
6
 10
2.4037302E+002
 20
1.87375E+001
 40
2.0
  1
 
 41
7.0E-001
100
AcDbAttributeDefinition
  3
42
  2
42
 70
0
  0
ATTDEF
  5
10f
100
AcDbEntity
  8
1
100
AcDbText
  6
CONTINUOUS
 62
6
 10
2.6577302E+002
 20
1.87375E+001
 40
2.0
  1
 
 41
7.0E-001
100
AcDbAttributeDefinition
  3
43
  2
43
 70
0
  0
ATTDEF
  5
110
100
AcDbEntity
  8
1
100
AcDbText
  6
CONTINUOUS
 62
6
 10
2.7797302E+002
 20
1.87375E+001
 40
2.0
  1
 
 41
7.0E-001
100
AcDbAttributeDefinition
  3
44
  2
44
 70
0
  0
ATTDEF
  5
111
100
AcDbEntity
  8
1
100
AcDbText
  6
CONTINUOUS
 62
6
 10
2.3275302E+002
 20
1.45075E+001
 40
2.0
  1
 
 41
7.0E-001
100
AcDbAttributeDefinition
  3
45
  2
45
 70
0
  0
ATTDEF
  5
112
100
AcDbEntity
  8
1
100
AcDbText
  6
CONTINUOUS
 62
6
 10
2.4037302E+002
 20
1.45075E+001
 40
2.0
  1
 
 41
7.0E-001
100
AcDbAttributeDefinition
  3
46
  2
46
 70
0
  0
ATTDEF
  5
113
100
AcDbEntity
  8
1
100
AcDbText
  6
CONTINUOUS
 62
6
 10
2.6577302E+002
 20
1.45075E+001
 40
2.0
  1
 
 41
7.0E-001
100
AcDbAttributeDefinition
  3
47
  2
47
 70
0
  0
ATTDEF
  5
114
100
AcDbEntity
  8
1
100
AcDbText
  6
CONTINUOUS
 62
6
 10
2.7797302E+002
 20
1.45075E+001
 40
2.0
  1
 
 41
7.0E-001
100
AcDbAttributeDefinition
  3
48
  2
48
 70
0
  0
ATTDEF
  5
115
100
AcDbEntity
  8
1
100
AcDbText
  6
CONTINUOUS
 62
6
 10
2.3275302E+002
 20
1.02775E+001
 40
2.0
  1
 
 41
7.0E-001
100
AcDbAttributeDefinition
  3
49
  2
49
 70
0
  0
ATTDEF
  5
116
100
AcDbEntity
  8
1
100
AcDbText
  6
CONTINUOUS
 62
6
 10
2.4037302E+002
 20
1.02775E+001
 40
2.0
  1
 
 41
7.0E-001
100
AcDbAttributeDefinition
  3
50
  2
50
 70
0
  0
ATTDEF
  5
117
100
AcDbEntity
  8
1
100
AcDbText
  6
CONTINUOUS
 62
6
 10
2.6577302E+002
 20
1.02775E+001
 40
2.0
  1
 
 41
7.0E-001
100
AcDbAttributeDefinition
  3
51
  2
51
 70
0
  0
ATTDEF
  5
118
100
AcDbEntity
  8
1
100
AcDbText
  6
CONTINUOUS
 62
6
 10
2.7797302E+002
 20
1.02775E+001
 40
2.0
  1
 
 41
7.0E-001
100
AcDbAttributeDefinition
  3
52
  2
52
 70
0
  0
POLYLINE
  5
119
100
AcDbEntity
  8
1
100
AcDb2dPolyline
  6
CONTINUOUS
 62
2
 66
1
 40
5.0E-001
 41
5.0E-001
 70
0
  0
VERTEX
  5
11a
100
AcDbEntity
  8
1
100
AcDbVertex
100
AcDb2dVertex
 42
0.0
 10
4.146327E+002
 20
5.2475
 70
0
  0
VERTEX
  5
11b
100
AcDbEntity
  8
1
100
AcDbVertex
100
AcDb2dVertex
 42
0.0
 10
4.146327E+002
 20
2.9181714E+002
 70
0
  0
SEQEND
  5
11c
100
AcDbEntity
  0
POLYLINE
  5
11d
100
AcDbEntity
  8
1
100
AcDb2dPolyline
  6
CONTINUOUS
 62
2
 66
1
 40
5.0E-001
 41
5.0E-001
 70
0
  0
VERTEX
  5
11e
100
AcDbEntity
  8
1
100
AcDbVertex
100
AcDb2dVertex
 42
0.0
 10
4.146327E+002
 20
2.9181714E+002
 70
0
  0
VERTEX
  5
11f
100
AcDbEntity
  8
1
100
AcDbVertex
100
AcDb2dVertex
 42
0.0
 10
5.2475
 20
2.9181714E+002
 70
0
  0
SEQEND
  5
120
100
AcDbEntity
  0
POLYLINE
  5
121
100
AcDbEntity
  8
1
100
AcDb2dPolyline
  6
CONTINUOUS
 62
2
 66
1
 40
5.0E-001
 41
5.0E-001
 70
0
  0
VERTEX
  5
122
100
AcDbEntity
  8
1
100
AcDbVertex
100
AcDb2dVertex
 42
0.0
 10
5.2475
 20
2.9181714E+002
 70
0
  0
VERTEX
  5
123
100
AcDbEntity
  8
1
100
AcDbVertex
100
AcDb2dVertex
 42
0.0
 10
5.2475
 20
5.2475
 70
0
  0
SEQEND
  5
124
100
AcDbEntity
  0
POLYLINE
  5
125
100
AcDbEntity
  8
1
100
AcDb2dPolyline
  6
CONTINUOUS
 62
2
 66
1
 40
5.0E-001
 41
5.0E-001
 70
0
  0
VERTEX
  5
126
100
AcDbEntity
  8
1
100
AcDbVertex
100
AcDb2dVertex
 42
0.0
 10
5.2475
 20
5.2475
 70
0
  0
VERTEX
  5
127
100
AcDbEntity
  8
1
100
AcDbVertex
100
AcDb2dVertex
 42
0.0
 10
4.146327E+002
 20
5.2475
 70
0
  0
SEQEND
  5
128
100
AcDbEntity
  0
LINE
  5
129
100
AcDbEntity
  8
1
100
AcDbLine
  6
CONTINUOUS
 62
2
 10
2.2991011E+002
 20
3.5484755E-001
 11
2.2991011E+002
 21
5.2475
  0
LINE
  5
12a
100
AcDbEntity
  8
1
100
AcDbLine
  6
CONTINUOUS
 62
2
 10
1.2506756E+002
 20
3.5484755E-001
 11
1.2506756E+002
 21
5.2475
  0
LINE
  5
12b
100
AcDbEntity
  8
1
100
AcDbLine
  6
CONTINUOUS
 62
2
 10
2.099401E+002
 20
2.967098E+002
 11
2.099401E+002
 21
2.9181714E+002
  0
LINE
  5
12c
100
AcDbEntity
  8
1
100
AcDbLine
  6
CONTINUOUS
 62
2
 10
3.5484755E-001
 20
1.4853232E+002
 11
5.2475
 21
1.4853232E+002
  0
LINE
  5
12d
100
AcDbEntity
  8
1
100
AcDbLine
  6
CONTINUOUS
 62
2
 10
2.2991011E+002
 20
2.9181714E+002
 11
2.2991011E+002
 21
2.967098E+002
  0
LINE
  5
12e
100
AcDbEntity
  8
1
100
AcDbLine
  6
CONTINUOUS
 62
2
 10
1.2506756E+002
 20
2.9181714E+002
 11
1.2506756E+002
 21
2.967098E+002
  0
LINE
  5
12f
100
AcDbEntity
  8
1
100
AcDbLine
  6
CONTINUOUS
 62
2
 10
2.099401E+002
 20
5.2475
 11
2.099401E+002
 21
3.5484755E-001
  0
LINE
  5
130
100
AcDbEntity
  8
1
100
AcDbLine
  6
CONTINUOUS
 62
2
 10
4.146327E+002
 20
1.4853232E+002
 11
4.1952536E+002
 21
1.4853232E+002
  0
LINE
  5
131
100
AcDbEntity
  8
1
100
AcDbLine
  6
CONTINUOUS
 62
2
 10
4.1952536E+002
 20
3.5484755E-001
 11
4.1952536E+002
 21
2.967098E+002
  0
LINE
  5
132
100
AcDbEntity
  8
1
100
AcDbLine
  6
CONTINUOUS
 62
2
 10
4.1952536E+002
 20
2.967098E+002
 11
3.5484755E-001
 21
2.967098E+002
  0
LINE
  5
133
100
AcDbEntity
  8
1
100
AcDbLine
  6
CONTINUOUS
 62
2
 10
3.5484755E-001
 20
2.967098E+002
 11
3.5484755E-001
 21
3.5484755E-001
  0
LINE
  5
134
100
AcDbEntity
  8
1
100
AcDbLine
  6
CONTINUOUS
 62
2
 10
3.5484755E-001
 20
3.5484755E-001
 11
4.1952536E+002
 21
3.5484755E-001
  0
POINT
  5
135
100
AcDbEntity
  8
1
100
AcDbPoint
  6
CONTINUOUS
 62
2
 10
2.549975E-001
 20
2.549975E-001
  0
POLYLINE
  5
136
100
AcDbEntity
  8
1
100
AcDb2dPolyline
  6
CONTINUOUS
 62
2
 66
1
 40
5.0E-001
 41
5.0E-001
 70
0
  0
VERTEX
  5
137
100
AcDbEntity
  8
1
100
AcDbVertex
100
AcDb2dVertex
 42
0.0
 10
2.3193577E+002
 20
6.018235E+001
 70
0
  0
VERTEX
  5
138
100
AcDbEntity
  8
1
100
AcDbVertex
100
AcDb2dVertex
 42
0.0
 10
4.1463239E+002
 20
6.018235E+001
 70
0
  0
SEQEND
  5
139
100
AcDbEntity
  0
POLYLINE
  5
13a
100
AcDbEntity
  8
1
100
AcDb2dPolyline
  6
CONTINUOUS
 62
2
 66
1
 40
5.0E-001
 41
5.0E-001
 70
0
  0
VERTEX
  5
13b
100
AcDbEntity
  8
1
100
AcDbVertex
100
AcDb2dVertex
 42
0.0
 10
2.3193577E+002
 20
6.018235E+001
 70
0
  0
VERTEX
  5
13c
100
AcDbEntity
  8
1
100
AcDbVertex
100
AcDb2dVertex
 42
0.0
 10
2.3193577E+002
 20
5.2477916
 70
0
  0
SEQEND
  5
13d
100
AcDbEntity
  0
POLYLINE
  5
13e
100
AcDbEntity
  8
1
100
AcDb2dPolyline
  6
CONTINUOUS
 62
2
 66
1
 40
5.0E-001
 41
5.0E-001
 70
0
  0
VERTEX
  5
13f
100
AcDbEntity
  8
1
100
AcDbVertex
100
AcDb2dVertex
 42
0.0
 10
4.146327E+002
 20
4.327943E+001
 70
0
  0
VERTEX
  5
140
100
AcDbEntity
  8
1
100
AcDbVertex
100
AcDb2dVertex
 42
0.0
 10
2.3193559E+002
 20
4.327943E+001
 70
0
  0
SEQEND
  5
141
100
AcDbEntity
  0
POLYLINE
  5
142
100
AcDbEntity
  8
1
100
AcDb2dPolyline
  6
CONTINUOUS
 62
2
 66
1
 40
5.0E-001
 41
5.0E-001
 70
0
  0
VERTEX
  5
143
100
AcDbEntity
  8
1
100
AcDbVertex
100
AcDb2dVertex
 42
0.0
 10
2.8522224E+002
 20
2.215058E+001
 70
0
  0
VERTEX
  5
144
100
AcDbEntity
  8
1
100
AcDbVertex
100
AcDb2dVertex
 42
0.0
 10
4.146327E+002
 20
2.215058E+001
 70
0
  0
SEQEND
  5
145
100
AcDbEntity
  0
POLYLINE
  5
146
100
AcDbEntity
  8
1
100
AcDb2dPolyline
  6
CONTINUOUS
 62
2
 66
1
 40
5.0E-001
 41
5.0E-001
 70
0
  0
VERTEX
  5
147
100
AcDbEntity
  8
1
100
AcDbVertex
100
AcDb2dVertex
 42
0.0
 10
4.019454E+002
 20
2.215058E+001
 70
0
  0
VERTEX
  5
148
100
AcDbEntity
  8
1
100
AcDbVertex
100
AcDb2dVertex
 42
0.0
 10
4.019454E+002
 20
9.47327
 70
0
  0
SEQEND
  5
149
100
AcDbEntity
  0
POLYLINE
  5
14a
100
AcDbEntity
  8
1
100
AcDb2dPolyline
  6
CONTINUOUS
 62
2
 66
1
 40
5.0E-001
 41
5.0E-001
 70
0
  0
VERTEX
  5
14b
100
AcDbEntity
  8
1
100
AcDbVertex
100
AcDb2dVertex
 42
0.0
 10
3.2835906E+002
 20
5.2475
 70
0
  0
VERTEX
  5
14c
100
AcDbEntity
  8
1
100
AcDbVertex
100
AcDb2dVertex
 42
0.0
 10
3.2835906E+002
 20
6.018251E+001
 70
0
  0
SEQEND
  5
14d
100
AcDbEntity
  0
POLYLINE
  5
14e
100
AcDbEntity
  8
1
100
AcDb2dPolyline
  6
CONTINUOUS
 62
2
 66
1
 40
5.0E-001
 41
5.0E-001
 70
0
  0
VERTEX
  5
14f
100
AcDbEntity
  8
1
100
AcDbVertex
100
AcDb2dVertex
 42
0.0
 10
2.8522224E+002
 20
6.018251E+001
 70
0
  0
VERTEX
  5
150
100
AcDbEntity
  8
1
100
AcDbVertex
100
AcDb2dVertex
 42
0.0
 10
2.8522224E+002
 20
5.2475
 70
0
  0
SEQEND
  5
151
100
AcDbEntity
  0
LINE
  5
152
100
AcDbEntity
  8
1
100
AcDbLine
  6
CONTINUOUS
 62
150
 10
2.3193559E+002
 20
9.47327
 11
4.146327E+002
 21
9.47327
  0
LINE
  5
153
100
AcDbEntity
  8
1
100
AcDbLine
  6
CONTINUOUS
 62
150
 10
4.146327E+002
 20
1.369904E+001
 11
4.019454E+002
 21
1.369904E+001
  0
LINE
  5
154
100
AcDbEntity
  8
1
100
AcDbLine
  6
CONTINUOUS
 62
150
 10
2.8522224E+002
 20
1.369904E+001
 11
2.3193559E+002
 21
1.369904E+001
  0
LINE
  5
155
100
AcDbEntity
  8
1
100
AcDbLine
  6
CONTINUOUS
 62
150
 10
2.3193559E+002
 20
1.792481E+001
 11
2.8522224E+002
 21
1.792481E+001
  0
LINE
  5
156
100
AcDbEntity
  8
1
100
AcDbLine
  6
CONTINUOUS
 62
150
 10
2.8522224E+002
 20
2.215058E+001
 11
2.3193559E+002
 21
2.215058E+001
  0
LINE
  5
157
100
AcDbEntity
  8
1
100
AcDbLine
  6
CONTINUOUS
 62
150
 10
2.3193559E+002
 20
2.637635E+001
 11
3.2835906E+002
 21
2.637635E+001
  0
LINE
  5
158
100
AcDbEntity
  8
1
100
AcDbLine
  6
CONTINUOUS
 62
150
 10
3.2835906E+002
 20
3.060212E+001
 11
2.3193559E+002
 21
3.060212E+001
  0
LINE
  5
159
100
AcDbEntity
  8
1
100
AcDbLine
  6
CONTINUOUS
 62
150
 10
2.3193559E+002
 20
3.482789E+001
 11
3.2835906E+002
 21
3.482789E+001
  0
LINE
  5
15a
100
AcDbEntity
  8
1
100
AcDbLine
  6
CONTINUOUS
 62
150
 10
3.2835906E+002
 20
3.905366E+001
 11
2.3193559E+002
 21
3.905366E+001
  0
LINE
  5
15b
100
AcDbEntity
  8
1
100
AcDbLine
  6
CONTINUOUS
 62
150
 10
3.2835906E+002
 20
5.3843855E+001
 11
4.146327E+002
 21
5.3843855E+001
  0
LINE
  5
15c
100
AcDbEntity
  8
1
100
AcDbLine
  6
CONTINUOUS
 62
150
 10
3.7910827E+002
 20
6.018251E+001
 11
3.7910827E+002
 21
5.3843855E+001
  0
LINE
  5
15d
100
AcDbEntity
  8
1
100
AcDbLine
  6
CONTINUOUS
 62
150
 10
3.7149588E+002
 20
9.47327
 11
3.7149588E+002
 21
5.2475
  0
LINE
  5
15e
100
AcDbEntity
  8
1
100
AcDbLine
  6
CONTINUOUS
 62
150
 10
3.1059684E+002
 20
2.215058E+001
 11
3.1059684E+002
 21
6.018251E+001
  0
LINE
  5
15f
100
AcDbEntity
  8
1
100
AcDbLine
  6
CONTINUOUS
 62
150
 10
2.9537209E+002
 20
4.327943E+001
 11
2.9537209E+002
 21
2.215058E+001
  0
LINE
  5
160
100
AcDbEntity
  8
1
100
AcDbLine
  6
CONTINUOUS
 62
150
 10
2.7760987E+002
 20
5.2475
 11
2.7760987E+002
 21
4.327943E+001
  0
LINE
  5
161
100
AcDbEntity
  8
1
100
AcDbLine
  6
CONTINUOUS
 62
150
 10
2.6492257E+002
 20
4.327943E+001
 11
2.6492257E+002
 21
5.2475
  0
LINE
  5
162
100
AcDbEntity
  8
1
100
AcDbLine
  6
CONTINUOUS
 62
150
 10
2.3954797E+002
 20
5.2475
 11
2.3954797E+002
 21
4.327943E+001
  0
LINE
  5
163
100
AcDbEntity
  8
1
100
AcDbLine
  6
CONTINUOUS
 62
150
 10
2.22475E+001
 20
2.9181714E+002
 11
2.22475E+001
 21
5.2475
  0
INSERT
  5
164
100
AcDbEntity
100
AcDbBlockReference
  2
ASSANEW00
  8
1
 10
2.8522224E+002
 20
6.4352411
  0
INSERT
  5
165
100
AcDbEntity
100
AcDbBlockReference
  2
ENGL
  8
1
 10
4.146327E+002
 20
5.2475
  0
POINT
  5
166
100
AcDbEntity
  8
1
100
AcDbPoint
  6
CONTINUOUS
 62
1
 10
4.146327E+002
 20
5.2475
  0
POINT
  5
167
100
AcDbEntity
  8
1
100
AcDbPoint
  6
CONTINUOUS
 62
2
 10
1.1148916E+002
 20
1.1190143E+002
  0
POINT
  5
168
100
AcDbEntity
  8
Drafting_Hidden_Entities
100
AcDbPoint
  6
CONTINUOUS
 62
1
 10
0.0
 20
0.0
  0
ENDBLK
  5
169
100
AcDbEntity
100
AcDbBlockEnd
  0
BLOCK
  5
16a
100
AcDbEntity
100
AcDbBlockBegin
  2
ASSANEW00
 10
0.0
 20
0.0
 70
0
  0
LINE
  5
16b
100
AcDbEntity
  8
100
100
AcDbLine
  6
CONTINUOUS
 62
2
 10
2.3522184
 20
1.5317271E+001
 11
2.3522184
 21
6.1264705
  0
LINE
  5
16c
100
AcDbEntity
  8
100
100
AcDbLine
  6
CONTINUOUS
 62
2
 10
1.1543046E+001
 20
1.5317271E+001
 11
2.3522184
 21
1.5317271E+001
  0
LINE
  5
16d
100
AcDbEntity
  8
100
100
AcDbLine
  6
CONTINUOUS
 62
2
 10
1.1543046E+001
 20
6.1264705
 11
1.1543046E+001
 21
1.5317271E+001
  0
LINE
  5
16e
100
AcDbEntity
  8
100
100
AcDbLine
  6
CONTINUOUS
 62
2
 10
1.1083534E+001
 20
6.5860035
 11
1.1083534E+001
 21
1.4857738E+001
  0
LINE
  5
16f
100
AcDbEntity
  8
100
100
AcDbLine
  6
CONTINUOUS
 62
2
 10
1.1083534E+001
 20
1.4857738E+001
 11
2.8117864
 21
1.4857738E+001
  0
LINE
  5
170
100
AcDbEntity
  8
100
100
AcDbLine
  6
CONTINUOUS
 62
1
 10
3.366157
 20
9.0031884
 11
3.366157
 21
9.7990882
  0
LINE
  5
171
100
AcDbEntity
  8
100
100
AcDbLine
  6
CONTINUOUS
 62
2
 10
2.8117864
 20
1.4857738E+001
 11
2.8117864
 21
6.5860035
  0
LINE
  5
172
100
AcDbEntity
  8
100
100
AcDbLine
  6
CONTINUOUS
 62
2
 10
2.8117864
 20
6.5860035
 11
1.1083534E+001
 21
6.5860035
  0
LINE
  5
173
100
AcDbEntity
  8
100
100
AcDbLine
  6
CONTINUOUS
 62
2
 10
2.3522184
 20
6.1264705
 11
1.1543046E+001
 21
6.1264705
  0
LINE
  5
174
100
AcDbEntity
  8
100
100
AcDbLine
  6
CONTINUOUS
 62
1
 10
4.6155594
 20
9.6602992
 11
2.8117864
 21
8.8194173
  0
LINE
  5
175
100
AcDbEntity
  8
100
100
AcDbLine
  6
CONTINUOUS
 62
1
 10
3.5500123
 20
1.016675E+001
 11
3.5500123
 21
9.1640793
  0
LINE
  5
176
100
AcDbEntity
  8
100
100
AcDbLine
  6
CONTINUOUS
 62
1
 10
3.7338115
 20
1.0263235E+001
 11
3.7338115
 21
9.2494507
  0
ARC
  5
177
100
AcDbEntity
  8
100
100
AcDbCircle
  6
CONTINUOUS
 62
1
 10
3.8257251
 20
9.7990882
 40
4.5953753E-001
100
AcDbArc
 50
1.1500681E+002
 51
1.8E+002
  0
LINE
  5
178
100
AcDbEntity
  8
100
100
AcDbLine
  6
CONTINUOUS
 62
1
 10
3.631492
 20
1.0215427E+001
 11
4.2233068
 21
1.0492108E+001
  0
ARC
  5
179
100
AcDbEntity
  8
100
100
AcDbCircle
  6
CONTINUOUS
 62
1
 10
4.3398467
 20
1.0242143E+001
 40
2.7571278E-001
100
AcDbArc
 50
0.0
 51
1.14997E+002
  0
LINE
  5
17a
100
AcDbEntity
  8
100
100
AcDbLine
  6
CONTINUOUS
 62
1
 10
4.6155594
 20
9.6602992
 11
4.6155594
 21
1.0242143E+001
  0
LINE
  5
17b
100
AcDbEntity
  8
100
100
AcDbLine
  6
CONTINUOUS
 62
1
 10
4.2479611
 20
1.0503095E+001
 11
4.2479611
 21
9.4894372
  0
LINE
  5
17c
100
AcDbEntity
  8
100
100
AcDbLine
  6
CONTINUOUS
 62
1
 10
4.4317603
 20
9.5748086
 11
4.4317603
 21
1.0501307E+001
  0
ARC
  5
17d
100
AcDbEntity
  8
100
100
AcDbCircle
  6
CONTINUOUS
 62
1
 10
3.6418698
 20
9.0031884
 40
2.7572995E-001
100
AcDbArc
 50
1.8E+002
 51
2.9508511E+002
  0
LINE
  5
17e
100
AcDbEntity
  8
100
100
AcDbLine
  6
CONTINUOUS
 62
1
 10
8.4646838
 20
1.0947938E+001
 11
3.7584096
 21
8.7541213
  0
LINE
  5
17f
100
AcDbEntity
  8
100
100
AcDbLine
  6
CONTINUOUS
 62
1
 10
6.7008512
 20
1.1140019E+001
 11
4.7994147
 21
1.0253138E+001
  0
LINE
  5
180
100
AcDbEntity
  8
100
100
AcDbLine
  6
CONTINUOUS
 62
1
 10
5.0751275
 20
1.109782E+001
 11
5.0751275
 21
8.3717697
  0
LINE
  5
181
100
AcDbEntity
  8
100
100
AcDbLine
  6
CONTINUOUS
 62
1
 10
5.2588986
 20
1.1509566E+001
 11
5.2588986
 21
8.175994
  0
LINE
  5
182
100
AcDbEntity
  8
100
100
AcDbLine
  6
CONTINUOUS
 62
1
 10
5.4083389
 20
1.1279796E+001
 11
5.4083389
 21
8.5537527
  0
LINE
  5
183
100
AcDbEntity
  8
100
100
AcDbLine
  6
CONTINUOUS
 62
1
 10
6.2413673
 20
1.1667652E+001
 11
6.2413673
 21
8.9416088
  0
LINE
  5
184
100
AcDbEntity
  8
100
100
AcDbLine
  6
CONTINUOUS
 62
1
 10
6.057512
 20
8.5307533
 11
6.057512
 21
1.1864319E+001
  0
ARC
  5
185
100
AcDbEntity
  8
100
100
AcDbCircle
  6
CONTINUOUS
 62
1
 10
6.6089376
 20
1.1667652E+001
 40
3.6762675E-001
100
AcDbArc
 50
9.9286249E+001
 51
1.8E+002
  0
ARC
  5
186
100
AcDbEntity
  8
100
100
AcDbCircle
  6
CONTINUOUS
 62
1
 10
6.4595815
 20
1.1486567E+001
 40
5.5145542E-001
100
AcDbArc
 50
8.0603552E+001
 51
1.8E+002
  0
LINE
  5
187
100
AcDbEntity
  8
100
100
AcDbLine
  6
CONTINUOUS
 62
1
 10
5.9080998
 20
1.1486567E+001
 11
5.9080998
 21
8.7605163
  0
ARC
  5
188
100
AcDbEntity
  8
100
100
AcDbCircle
  6
CONTINUOUS
 62
1
 10
5.7760214
 20
1.1279796E+001
 40
3.6763313E-001
100
AcDbArc
 50
9.9325427E+001
 51
1.8E+002
  0
ARC
  5
189
100
AcDbEntity
  8
100
100
AcDbCircle
  6
CONTINUOUS
 62
1
 10
5.6265531
 20
1.109782E+001
 40
5.5145542E-001
100
AcDbArc
 50
8.0603552E+001
 51
1.8E+002
  0
ARC
  5
18a
100
AcDbEntity
  8
100
100
AcDbCircle
  6
CONTINUOUS
 62
1
 10
4.7074731
 20
8.3717697
 40
3.6764041E-001
100
AcDbArc
 50
2.7E+002
 51
3.6E+002
  0
ARC
  5
18b
100
AcDbEntity
  8
100
100
AcDbCircle
  6
CONTINUOUS
 62
1
 10
4.8569133
 20
8.5537527
 40
5.5145306E-001
100
AcDbArc
 50
2.6060319E+002
 51
3.6E+002
  0
ARC
  5
18c
100
AcDbEntity
  8
100
100
AcDbCircle
  6
CONTINUOUS
 62
1
 10
5.5405015
 20
8.7605163
 40
3.6762642E-001
100
AcDbArc
 50
2.7E+002
 51
3.6E+002
  0
ARC
  5
18d
100
AcDbEntity
  8
100
100
AcDbCircle
  6
CONTINUOUS
 62
1
 10
5.6898857
 20
8.9416088
 40
5.5145087E-001
100
AcDbArc
 50
2.606093E+002
 51
3.6E+002
  0
LINE
  5
18e
100
AcDbEntity
  8
100
100
AcDbLine
  6
CONTINUOUS
 62
1
 10
7.2151972
 20
1.0291718E+001
 11
7.2151972
 21
1.1086727E+001
  0
LINE
  5
18f
100
AcDbEntity
  8
100
100
AcDbLine
  6
CONTINUOUS
 62
1
 10
7.3990525
 20
1.1454382E+001
 11
7.3990525
 21
1.0451718E+001
  0
LINE
  5
190
100
AcDbEntity
  8
100
100
AcDbLine
  6
CONTINUOUS
 62
1
 10
7.5828516
 20
1.1550867E+001
 11
7.5828516
 21
1.0537083E+001
  0
LINE
  5
191
100
AcDbEntity
  8
100
100
AcDbLine
  6
CONTINUOUS
 62
1
 10
8.0970293
 20
1.1790734E+001
 11
8.0970293
 21
1.0777076E+001
  0
LINE
  5
192
100
AcDbEntity
  8
100
100
AcDbLine
  6
CONTINUOUS
 62
1
 10
8.2808846
 20
1.0862441E+001
 11
8.2808846
 21
1.1789837E+001
  0
LINE
  5
193
100
AcDbEntity
  8
100
100
AcDbLine
  6
CONTINUOUS
 62
1
 10
8.4646838
 20
1.0947938E+001
 11
8.4646838
 21
1.1529761E+001
  0
ARC
  5
194
100
AcDbEntity
  8
100
100
AcDbCircle
  6
CONTINUOUS
 62
1
 10
8.188971
 20
1.1529761E+001
 40
2.7571278E-001
100
AcDbArc
 50
0.0
 51
1.1499049E+002
  0
LINE
  5
195
100
AcDbEntity
  8
100
100
AcDbLine
  6
CONTINUOUS
 62
1
 10
7.4805322
 20
1.1503059E+001
 11
8.0724031
 21
1.177974E+001
  0
ARC
  5
196
100
AcDbEntity
  8
100
100
AcDbCircle
  6
CONTINUOUS
 62
1
 10
7.6747652
 20
1.1086727E+001
 40
4.5954345E-001
100
AcDbArc
 50
1.1501034E+002
 51
1.8E+002
  0
LINE
  5
197
100
AcDbEntity
  8
100
100
AcDbLine
  6
CONTINUOUS
 62
1
 10
7.6074498
 20
1.0041753E+001
 11
1.1083534E+001
 21
1.1662043E+001
  0
ARC
  5
198
100
AcDbEntity
  8
100
100
AcDbCircle
  6
CONTINUOUS
 62
1
 10
7.49091
 20
1.0291718E+001
 40
2.7573404E-001
100
AcDbArc
 50
1.8E+002
 51
2.9499577E+002
  0
ARC
  5
199
100
AcDbEntity
  8
100
100
AcDbCircle
  6
CONTINUOUS
 62
1
 10
9.4756493
 20
1.238635E+001
 40
5.5145071E-001
100
AcDbArc
 50
8.0591814E+001
 51
1.8E+002
  0
ARC
  5
19a
100
AcDbEntity
  8
100
100
AcDbCircle
  6
CONTINUOUS
 62
1
 10
9.6250335
 20
1.2567435E+001
 40
3.6763562E-001
100
AcDbArc
 50
9.9308349E+001
 51
1.8E+002
  0
LINE
  5
19b
100
AcDbEntity
  8
100
100
AcDbLine
  6
CONTINUOUS
 62
1
 10
9.108051
 20
1.2797198E+001
 11
9.108051
 21
9.4636329
  0
LINE
  5
19c
100
AcDbEntity
  8
100
100
AcDbLine
  6
CONTINUOUS
 62
1
 10
9.2574071
 20
1.2567435E+001
 11
9.257379
 21
9.8413917
  0
LINE
  5
19d
100
AcDbEntity
  8
100
100
AcDbLine
  6
CONTINUOUS
 62
1
 10
8.9242238
 20
1.238635E+001
 11
8.9242238
 21
9.6602992
  0
LINE
  5
19e
100
AcDbEntity
  8
100
100
AcDbLine
  6
CONTINUOUS
 62
1
 10
1.0549891E+001
 20
1.2427651E+001
 11
8.648511
 21
1.154077E+001
  0
LINE
  5
19f
100
AcDbEntity
  8
100
100
AcDbLine
  6
CONTINUOUS
 62
1
 10
9.7571961
 20
1.2774199E+001
 11
9.7571961
 21
1.0048155E+001
  0
LINE
  5
1a0
100
AcDbEntity
  8
100
100
AcDbLine
  6
CONTINUOUS
 62
1
 10
9.9065522
 20
9.8183923
 11
9.9065522
 21
1.3151958E+001
  0
LINE
  5
1a1
100
AcDbEntity
  8
100
100
AcDbLine
  6
CONTINUOUS
 62
1
 10
1.0090351E+001
 20
1.2955291E+001
 11
1.0090351E+001
 21
1.0229241E+001
  0
ARC
  5
1a2
100
AcDbEntity
  8
100
100
AcDbCircle
  6
CONTINUOUS
 62
1
 10
1.0457978E+001
 20
1.2955291E+001
 40
3.6763609E-001
100
AcDbArc
 50
9.9285896E+001
 51
1.8E+002
  0
ARC
  5
1a3
100
AcDbEntity
  8
100
100
AcDbCircle
  6
CONTINUOUS
 62
1
 10
1.030865E+001
 20
1.2774199E+001
 40
5.5143931E-001
100
AcDbArc
 50
8.0606189E+001
 51
1.8E+002
  0
ARC
  5
1a4
100
AcDbEntity
  8
100
100
AcDbCircle
  6
CONTINUOUS
 62
1
 10
8.5565974
 20
9.6602992
 40
3.6764041E-001
100
AcDbArc
 50
2.7E+002
 51
3.6E+002
  0
ARC
  5
1a5
100
AcDbEntity
  8
100
100
AcDbCircle
  6
CONTINUOUS
 62
1
 10
8.7059535
 20
9.8413917
 40
5.5145317E-001
100
AcDbArc
 50
2.606093E+002
 51
3.6E+002
  0
ARC
  5
1a6
100
AcDbEntity
  8
100
100
AcDbCircle
  6
CONTINUOUS
 62
1
 10
9.3895417
 20
1.0048155E+001
 40
3.6764041E-001
100
AcDbArc
 50
2.7E+002
 51
3.6E+002
  0
ARC
  5
1a7
100
AcDbEntity
  8
100
100
AcDbCircle
  6
CONTINUOUS
 62
1
 10
9.5389258
 20
1.0229241E+001
 40
5.5145071E-001
100
AcDbArc
 50
2.6059181E+002
 51
3.6E+002
  0
TEXT
  5
1a8
100
AcDbEntity
  8
100
100
AcDbText
  6
CONTINUOUS
 62
1
 10
1.260589E+001
 20
1.268055E+001
 40
2.024
  1
ASSA ABLOY
 41
7.0E-001
100
AcDbText
  0
TEXT
  5
1a9
100
AcDbEntity
  8
100
100
AcDbText
  6
CONTINUOUS
 62
1
 10
1.260589E+001
 20
6.5797544
 40
2.024
  1
D-72458 Albstadt
 41
7.0E-001
100
AcDbText
  0
TEXT
  5
1aa
100
AcDbEntity
  8
100
100
AcDbText
  6
CONTINUOUS
 62
1
 10
1.260589E+001
 20
9.8404184
 40
2.024
  1
Sicherheitstechnik GmbH
 41
6.0E-001
100
AcDbText
  0
TEXT
  5
1ab
100
AcDbEntity
  8
100
100
AcDbText
  6
CONTINUOUS
 62
1
 10
2.4184657
 20
3.7344036
 40
9.2E-001
  1
ASSA ABLOY
100
AcDbText
  0
POLYLINE
  5
1ac
100
AcDbEntity
  8
100
100
AcDb2dPolyline
  6
CONTINUOUS
 62
1
 66
1
 40
5.0E-001
 41
5.0E-001
 70
0
  0
VERTEX
  5
1ad
100
AcDbEntity
  8
100
100
AcDbVertex
100
AcDb2dVertex
 42
0.0
 10
1.9788336
 20
5.8543596
 70
0
  0
VERTEX
  5
1ae
100
AcDbEntity
  8
100
100
AcDbVertex
100
AcDb2dVertex
 42
0.0
 10
1.9788336
 20
5.444576
 70
0
  0
SEQEND
  5
1af
100
AcDbEntity
  0
POLYLINE
  5
1b0
100
AcDbEntity
  8
100
100
AcDb2dPolyline
  6
CONTINUOUS
 62
1
 66
1
 40
5.0E-001
 41
5.0E-001
 70
0
  0
VERTEX
  5
1b1
100
AcDbEntity
  8
100
100
AcDbVertex
100
AcDb2dVertex
 42
0.0
 10
1.9788336
 20
5.444576
 70
0
  0
VERTEX
  5
1b2
100
AcDbEntity
  8
100
100
AcDbVertex
100
AcDb2dVertex
 42
0.0
 10
1.1973716E+001
 20
5.444576
 70
0
  0
SEQEND
  5
1b3
100
AcDbEntity
  0
POLYLINE
  5
1b4
100
AcDbEntity
  8
100
100
AcDb2dPolyline
  6
CONTINUOUS
 62
1
 66
1
 40
5.0E-001
 41
5.0E-001
 70
0
  0
VERTEX
  5
1b5
100
AcDbEntity
  8
100
100
AcDbVertex
100
AcDb2dVertex
 42
0.0
 10
1.1973716E+001
 20
5.444576
 70
0
  0
VERTEX
  5
1b6
100
AcDbEntity
  8
100
100
AcDbVertex
100
AcDb2dVertex
 42
0.0
 10
1.1973716E+001
 20
5.0102458
 70
0
  0
SEQEND
  5
1b7
100
AcDbEntity
  0
POINT
  5
1b8
100
AcDbEntity
  8
Drafting_Hidden_Entities
100
AcDbPoint
  6
CONTINUOUS
 62
1
 10
0.0
 20
0.0
  0
ENDBLK
  5
1b9
100
AcDbEntity
100
AcDbBlockEnd
  0
BLOCK
  5
1ba
100
AcDbEntity
100
AcDbBlockBegin
  2
M11
 10
0.0
 20
0.0
 70
0
  0
TEXT
  5
1bb
100
AcDbEntity
  8
1
100
AcDbText
  6
CONTINUOUS
 62
1
 10
-3.7549647
 20
1.445907
 40
3.5
  1
1:1
 41
7.0E-001
100
AcDbText
  0
POINT
  5
1bc
100
AcDbEntity
  8
Drafting_Hidden_Entities
100
AcDbPoint
  6
CONTINUOUS
 62
1
 10
0.0
 20
0.0
  0
ENDBLK
  5
1bd
100
AcDbEntity
100
AcDbBlockEnd
  0
BLOCK
  5
1be
100
AcDbEntity
100
AcDbBlockBegin
  2
ENGL
 10
0.0
 20
0.0
 70
0
  0
TEXT
  5
1bf
100
AcDbEntity
  8
100
100
AcDbText
  6
CONTINUOUS
 62
1
 10
-8.536E+001
 20
4.5645E+001
 40
2.0
  1
Werkstoff
 41
7.0E-001
100
AcDbText
  0
TEXT
  5
1c0
100
AcDbEntity
  8
100
100
AcDbText
  6
CONTINUOUS
 62
1
 10
-8.5261357E+001
 20
4.2906381E+001
 40
2.0
  1
material
 41
7.5E-001
100
AcDbText
  0
TEXT
  5
1c1
100
AcDbEntity
  8
100
100
AcDbText
  6
CONTINUOUS
 62
1
 10
-8.536E+001
 20
3.507E+001
 40
2.0
  1
Benennung
 41
7.0E-001
100
AcDbText
  0
TEXT
  5
1c2
100
AcDbEntity
  8
100
100
AcDbText
  6
CONTINUOUS
 62
1
 10
-8.5514812E+001
 20
3.276902E+001
 40
2.0
  1
name
 41
7.5E-001
100
AcDbText
  0
TEXT
  5
1c3
100
AcDbEntity
  8
100
100
AcDbText
  6
CONTINUOUS
 62
1
 10
-8.5624253E+001
 20
1.387293E+001
 40
2.0
  1
Zeichnungsnummer
 41
7.0E-001
100
AcDbText
  0
TEXT
  5
1c4
100
AcDbEntity
  8
100
100
AcDbText
  6
CONTINUOUS
 62
1
 10
-8.5799829E+001
 20
1.1151507E+001
 40
2.0
  1
drawing number
 41
7.5E-001
100
AcDbText
  0
TEXT
  5
1c5
100
AcDbEntity
  8
100
100
AcDbText
  6
CONTINUOUS
 62
1
 10
-1.0246863E+002
 20
3.4864044E+001
 40
2.0
  1
Name/name
 41
6.607E-001
 51
-2.104591E-004
100
AcDbText
  0
TEXT
  5
1c6
100
AcDbEntity
  8
100
100
AcDbText
  6
CONTINUOUS
 62
1
 10
-1.184521E+002
 20
3.4864044E+001
 40
2.0
  1
Datum/date
 41
6.2856E-001
 51
-2.104591E-004
100
AcDbText
  0
INSERT
  5
1c7
100
AcDbEntity
100
AcDbBlockReference
  2
*TX120
  8
100
 10
-8.5682805E+001
 20
5.2351367E+001
  0
INSERT
  5
1c8
100
AcDbEntity
100
AcDbBlockReference
  2
*TX121
  8
100
 10
-1.2784696E+002
 20
3.1813764E+001
  0
INSERT
  5
1c9
100
AcDbEntity
100
AcDbBlockReference
  2
*TX122
  8
100
 10
-1.2784696E+002
 20
2.7787394E+001
  0
INSERT
  5
1ca
100
AcDbEntity
100
AcDbBlockReference
  2
*TX123
  8
100
 10
-1.28213E+002
 20
1.9246609E+001
  0
INSERT
  5
1cb
100
AcDbEntity
100
AcDbBlockReference
  2
*TX124
  8
100
 10
-1.3585107E+002
 20
2.105119
  0
INSERT
  5
1cc
100
AcDbEntity
100
AcDbBlockReference
  2
*TX125
  8
100
 10
-1.4663644E+002
 20
2.241643
  0
INSERT
  5
1cd
100
AcDbEntity
100
AcDbBlockReference
  2
*TX126
  8
100
 10
-1.6970893E+002
 20
2.241643
  0
INSERT
  5
1ce
100
AcDbEntity
100
AcDbBlockReference
  2
*TX127
  8
100
 10
-1.8172301E+002
 20
2.105119
  0
INSERT
  5
1cf
100
AcDbEntity
100
AcDbBlockReference
  2
*TX128
  8
100
 10
-1.2169835E+001
 20
1.4485099E+001
  0
POINT
  5
1d0
100
AcDbEntity
  8
Drafting_Hidden_Entities
100
AcDbPoint
  6
CONTINUOUS
 62
1
 10
0.0
 20
0.0
  0
ENDBLK
  5
1d1
100
AcDbEntity
100
AcDbBlockEnd
  0
BLOCK
  5
1d2
100
AcDbEntity
100
AcDbBlockBegin
  2
*TX120
  3
*TX
 10
0.0
 20
0.0
 70
65
  0
TEXT
  5
1d3
100
AcDbEntity
  8
1
100
AcDbText
  6
CONTINUOUS
 62
1
 10
0.0
 20
0.0
 40
2.0
  1
Maßstab:
 41
6.2244898E-001
 51
-2.104591E-004
100
AcDbText
  0
TEXT
  5
1d4
100
AcDbEntity
  8
1
100
AcDbText
  6
CONTINUOUS
 62
1
 10
0.0
 20
-2.8
 40
2.0
  1
scale:
 41
6.2244898E-001
 51
-2.104591E-004
100
AcDbText
  0
ENDBLK
  5
1d5
100
AcDbEntity
100
AcDbBlockEnd
  0
BLOCK
  5
1d6
100
AcDbEntity
100
AcDbBlockBegin
  2
*TX121
  3
*TX
 10
0.0
 20
0.0
 70
65
  0
TEXT
  5
1d7
100
AcDbEntity
  8
1
100
AcDbText
  6
CONTINUOUS
 62
1
 10
0.0
 20
0.0
 40
2.0
  1
Bearb.
 41
5.476E-001
 51
-2.104591E-004
100
AcDbText
  0
TEXT
  5
1d8
100
AcDbEntity
  8
1
100
AcDbText
  6
CONTINUOUS
 62
1
 10
0.0
 20
-2.2
 40
2.0
  1
author
 41
5.476E-001
 51
-2.104591E-004
100
AcDbText
  0
ENDBLK
  5
1d9
100
AcDbEntity
100
AcDbBlockEnd
  0
BLOCK
  5
1da
100
AcDbEntity
100
AcDbBlockBegin
  2
*TX122
  3
*TX
 10
0.0
 20
0.0
 70
65
  0
TEXT
  5
1db
100
AcDbEntity
  8
1
100
AcDbText
  6
CONTINUOUS
 62
1
 10
0.0
 20
0.0
 40
2.0
  1
gepr.
 41
5.2856E-001
 51
-2.104591E-004
100
AcDbText
  0
TEXT
  5
1dc
100
AcDbEntity
  8
1
100
AcDbText
  6
CONTINUOUS
 62
1
 10
0.0
 20
-2.1
 40
2.0
  1
checked
 41
5.2856E-001
 51
-2.104591E-004
100
AcDbText
  0
ENDBLK
  5
1dd
100
AcDbEntity
100
AcDbBlockEnd
  0
BLOCK
  5
1de
100
AcDbEntity
100
AcDbBlockBegin
  2
*TX123
  3
*TX
 10
0.0
 20
0.0
 70
65
  0
TEXT
  5
1df
100
AcDbEntity
  8
1
100
AcDbText
  6
CONTINUOUS
 62
1
 10
0.0
 20
0.0
 40
1.8
  1
freig.
 41
6.0E-001
 51
-2.104591E-004
100
AcDbText
  0
TEXT
  5
1e0
100
AcDbEntity
  8
1
100
AcDbText
  6
CONTINUOUS
 62
1
 10
0.0
 20
-1.89
 40
1.8
  1
approved
 41
6.0E-001
 51
-2.104591E-004
100
AcDbText
  0
ENDBLK
  5
1e1
100
AcDbEntity
100
AcDbBlockEnd
  0
BLOCK
  5
1e2
100
AcDbEntity
100
AcDbBlockBegin
  2
*TX124
  3
*TX
 10
0.0
 20
0.0
 70
65
  0
TEXT
  5
1e3
100
AcDbEntity
  8
1
100
AcDbText
  6
CONTINUOUS
 62
1
 10
0.0
 20
0.0
 40
1.8
  1
Name
 41
6.607E-001
 51
-2.104591E-004
100
AcDbText
  0
TEXT
  5
1e4
100
AcDbEntity
  8
1
100
AcDbText
  6
CONTINUOUS
 62
1
 10
0.0
 20
-1.9
 40
1.8
  1
name
 41
6.607E-001
 51
-2.104591E-004
100
AcDbText
  0
ENDBLK
  5
1e5
100
AcDbEntity
100
AcDbBlockEnd
  0
BLOCK
  5
1e6
100
AcDbEntity
100
AcDbBlockBegin
  2
*TX125
  3
*TX
 10
0.0
 20
0.0
 70
65
  0
TEXT
  5
1e7
100
AcDbEntity
  8
1
100
AcDbText
  6
CONTINUOUS
 62
1
 10
0.0
 20
0.0
 40
1.8
  1
Datum
 41
6.2856E-001
 51
-2.104591E-004
100
AcDbText
  0
TEXT
  5
1e8
100
AcDbEntity
  8
1
100
AcDbText
  6
CONTINUOUS
 62
1
 10
0.0
 20
-1.9
 40
1.8
  1
date
 41
6.2856E-001
 51
-2.104591E-004
100
AcDbText
  0
ENDBLK
  5
1e9
100
AcDbEntity
100
AcDbBlockEnd
  0
BLOCK
  5
1ea
100
AcDbEntity
100
AcDbBlockBegin
  2
*TX126
  3
*TX
 10
0.0
 20
0.0
 70
65
  0
TEXT
  5
1eb
100
AcDbEntity
  8
1
100
AcDbText
  6
CONTINUOUS
 62
1
 10
0.0
 20
0.0
 40
1.8
  1
Aenderung
 41
5.9524444E-001
 51
-2.104591E-004
100
AcDbText
  0
TEXT
  5
1ec
100
AcDbEntity
  8
1
100
AcDbText
  6
CONTINUOUS
 62
1
 10
0.0
 20
-1.89
 40
1.8
  1
description
 41
5.9524444E-001
 51
-2.104591E-004
100
AcDbText
  0
ENDBLK
  5
1ed
100
AcDbEntity
100
AcDbBlockEnd
  0
BLOCK
  5
1ee
100
AcDbEntity
100
AcDbBlockBegin
  2
*TX127
  3
*TX
 10
0.0
 20
0.0
 70
65
  0
TEXT
  5
1ef
100
AcDbEntity
  8
1
100
AcDbText
  6
CONTINUOUS
 62
1
 10
0.0
 20
0.0
 40
1.8
  1
Stand
 41
5.714E-001
 51
-2.104591E-004
100
AcDbText
  0
TEXT
  5
1f0
100
AcDbEntity
  8
1
100
AcDbText
  6
CONTINUOUS
 62
1
 10
0.0
 20
-1.89
 40
1.8
  1
state
 41
5.714E-001
 51
-2.104591E-004
100
AcDbText
  0
ENDBLK
  5
1f1
100
AcDbEntity
100
AcDbBlockEnd
  0
BLOCK
  5
1f2
100
AcDbEntity
100
AcDbBlockBegin
  2
*TX128
  3
*TX
 10
0.0
 20
0.0
 70
65
  0
TEXT
  5
1f3
100
AcDbEntity
  8
1
100
AcDbText
  6
CONTINUOUS
 62
6
 10
0.0
 20
0.0
 40
1.8
  1
Blatt
 41
5.4288E-001
 51
-2.104591E-004
100
AcDbText
  0
TEXT
  5
1f4
100
AcDbEntity
  8
1
100
AcDbText
  6
CONTINUOUS
 62
6
 10
0.0
 20
-1.9
 40
1.8
  1
sheet No.
 41
5.4288E-001
 51
-2.104591E-004
100
AcDbText
  0
ENDBLK
  5
1f5
100
AcDbEntity
100
AcDbBlockEnd
  0
BLOCK
  5
1f6
100
AcDbEntity
100
AcDbBlockBegin
  2
_AH1
 70
0
 10
0.0
 20
0.0
  3
_AH1
  0
LINE
  5
1f7
100
AcDbEntity
  8
0
100
AcDbLine
  6
CONTINUOUS
 62
0
 10
-1.0
 20
1.66667E-001
 11
0.0
 21
0.0
  0
LINE
  5
1f8
100
AcDbEntity
  8
0
100
AcDbLine
  6
CONTINUOUS
 62
0
 10
0.0
 20
0.0
 11
-1.0
 21
-1.66667E-001
  0
LINE
  5
1f9
100
AcDbEntity
  8
0
100
AcDbLine
  6
CONTINUOUS
 62
0
 10
-1.0
 20
1.66667E-001
 11
-1.0
 21
-1.66667E-001
  0
LINE
  5
1fa
100
AcDbEntity
  8
0
100
AcDbLine
  6
CONTINUOUS
 62
0
 10
0.0
 20
0.0
 11
-1.0
 21
0.0
  0
ENDBLK
  5
1fb
100
AcDbEntity
100
AcDbBlockEnd
  0
BLOCK
  5
1fc
100
AcDbEntity
100
AcDbBlockBegin
  2
_AH2
 70
0
 10
0.0
 20
0.0
  3
_AH2
  0
LINE
  5
1fd
100
AcDbEntity
  8
0
100
AcDbLine
  6
CONTINUOUS
 62
0
 10
-1.0
 20
1.66667E-001
 11
0.0
 21
0.0
  0
LINE
  5
1fe
100
AcDbEntity
  8
0
100
AcDbLine
  6
CONTINUOUS
 62
0
 10
0.0
 20
0.0
 11
-1.0
 21
-1.66667E-001
  0
LINE
  5
1ff
100
AcDbEntity
  8
0
100
AcDbLine
  6
CONTINUOUS
 62
0
 10
0.0
 20
0.0
 11
-1.0
 21
0.0
  0
ENDBLK
  5
200
100
AcDbEntity
100
AcDbBlockEnd
  0
BLOCK
  5
201
100
AcDbEntity
100
AcDbBlockBegin
  2
*D178
  3
*D
 10
0.0
 20
0.0
 70
65
  0
LINE
  5
202
100
AcDbEntity
  8
2
100
AcDbLine
  6
CONTINUOUS
 62
3
 10
2.3698265E+002
 20
2.3372435E+002
 11
2.493582E+002
 21
2.3372435E+002
  0
LINE
  5
203
100
AcDbEntity
  8
2
100
AcDbLine
  6
CONTINUOUS
 62
3
 10
2.3963265E+002
 20
2.2172435E+002
 11
2.493582E+002
 21
2.2172435E+002
  0
LINE
  5
204
100
AcDbEntity
  8
2
100
AcDbLine
  6
CONTINUOUS
 62
3
 10
2.463582E+002
 20
2.3972435E+002
 11
2.463582E+002
 21
2.3372435E+002
  0
LINE
  5
205
100
AcDbEntity
  8
2
100
AcDbLine
  6
CONTINUOUS
 62
3
 10
2.463582E+002
 20
2.1572435E+002
 11
2.463582E+002
 21
2.3372435E+002
  0
TEXT
  5
206
100
AcDbEntity
  8
2
100
AcDbText
  6
CONTINUOUS
 62
3
 10
2.448572E+002
 20
2.2524412E+002
 40
3.0
  1
12
 41
7.5E-001
 50
9.0E+001
100
AcDbText
  0
INSERT
  5
207
100
AcDbEntity
100
AcDbBlockReference
  2
_AH1
  8
2
 62
3
 10
2.463582E+002
 20
2.3372435E+002
 41
3.0
 42
3.0
 43
3.0
 50
2.7E+002
  0
INSERT
  5
208
100
AcDbEntity
100
AcDbBlockReference
  2
_AH1
  8
2
 62
3
 10
2.463582E+002
 20
2.2172435E+002
 41
3.0
 42
3.0
 43
3.0
 50
9.0E+001
  0
ENDBLK
  5
209
100
AcDbEntity
100
AcDbBlockEnd
  0
BLOCK
  5
20a
100
AcDbEntity
100
AcDbBlockBegin
  2
*D179
  3
*D
 10
0.0
 20
0.0
 70
65
  0
LINE
  5
20b
100
AcDbEntity
  8
2
100
AcDbLine
  6
CONTINUOUS
 62
3
 10
1.4403265E+002
 20
2.2822435E+002
 11
1.3397341E+002
 21
2.2822435E+002
  0
LINE
  5
20c
100
AcDbEntity
  8
2
100
AcDbLine
  6
CONTINUOUS
 62
3
 10
1.4403265E+002
 20
2.1422435E+002
 11
1.3397341E+002
 21
2.1422435E+002
  0
LINE
  5
20d
100
AcDbEntity
  8
2
100
AcDbLine
  6
CONTINUOUS
 62
3
 10
1.3697341E+002
 20
2.2822435E+002
 11
1.3697341E+002
 21
2.204709E+002
  0
LINE
  5
20e
100
AcDbEntity
  8
2
100
AcDbLine
  6
CONTINUOUS
 62
3
 10
1.3697341E+002
 20
2.1422435E+002
 11
1.3697341E+002
 21
2.204709E+002
  0
TEXT
  5
20f
100
AcDbEntity
  8
2
100
AcDbText
  6
CONTINUOUS
 62
3
 10
1.3547241E+002
 20
2.182209E+002
 40
3.0
  1
14
 41
7.5E-001
 50
9.0E+001
100
AcDbText
  0
INSERT
  5
210
100
AcDbEntity
100
AcDbBlockReference
  2
_AH1
  8
2
 62
3
 10
1.3697341E+002
 20
2.2822435E+002
 41
3.0
 42
3.0
 43
3.0
 50
9.0E+001
  0
INSERT
  5
211
100
AcDbEntity
100
AcDbBlockReference
  2
_AH1
  8
2
 62
3
 10
1.3697341E+002
 20
2.1422435E+002
 41
3.0
 42
3.0
 43
3.0
 50
2.7E+002
  0
ENDBLK
  5
212
100
AcDbEntity
100
AcDbBlockEnd
  0
BLOCK
  5
213
100
AcDbEntity
100
AcDbBlockBegin
  2
*D181
  3
*D
 10
0.0
 20
0.0
 70
65
  0
LINE
  5
214
100
AcDbEntity
  8
2
100
AcDbLine
  6
CONTINUOUS
 62
3
 10
1.4773265E+002
 20
2.2822435E+002
 11
1.3397341E+002
 21
2.2822435E+002
  0
LINE
  5
215
100
AcDbEntity
  8
2
100
AcDbLine
  6
CONTINUOUS
 62
3
 10
1.4523265E+002
 20
2.3372435E+002
 11
1.3397341E+002
 21
2.3372435E+002
  0
LINE
  5
216
100
AcDbEntity
  8
2
100
AcDbLine
  6
CONTINUOUS
 62
3
 10
1.3697341E+002
 20
2.2222435E+002
 11
1.3697341E+002
 21
2.3372435E+002
  0
LINE
  5
217
100
AcDbEntity
  8
2
100
AcDbLine
  6
CONTINUOUS
 62
3
 10
1.3697341E+002
 20
2.3372435E+002
 11
1.3697341E+002
 21
2.4706585E+002
  0
TEXT
  5
218
100
AcDbEntity
  8
2
100
AcDbText
  6
CONTINUOUS
 62
3
 10
1.3547241E+002
 20
2.3881585E+002
 40
3.0
  1
5,5
 41
7.5E-001
 50
9.0E+001
100
AcDbText
  0
INSERT
  5
219
100
AcDbEntity
100
AcDbBlockReference
  2
_AH1
  8
2
 62
3
 10
1.3697341E+002
 20
2.2822435E+002
 41
3.0
 42
3.0
 43
3.0
 50
9.0E+001
  0
INSERT
  5
21a
100
AcDbEntity
100
AcDbBlockReference
  2
_AH1
  8
2
 62
3
 10
1.3697341E+002
 20
2.3372435E+002
 41
3.0
 42
3.0
 43
3.0
 50
2.7E+002
  0
ENDBLK
  5
21b
100
AcDbEntity
100
AcDbBlockEnd
  0
BLOCK
  5
21c
100
AcDbEntity
100
AcDbBlockBegin
  2
*D182
  3
*D
 10
0.0
 20
0.0
 70
65
  0
LINE
  5
21d
100
AcDbEntity
  8
2
100
AcDbLine
  6
CONTINUOUS
 62
3
 10
1.4523265E+002
 20
2.3372435E+002
 11
1.2441482E+002
 21
2.3372435E+002
  0
LINE
  5
21e
100
AcDbEntity
  8
2
100
AcDbLine
  6
CONTINUOUS
 62
3
 10
1.4523265E+002
 20
2.0872435E+002
 11
1.2441482E+002
 21
2.0872435E+002
  0
LINE
  5
21f
100
AcDbEntity
  8
2
100
AcDbLine
  6
CONTINUOUS
 62
3
 10
1.2741482E+002
 20
2.3372435E+002
 11
1.2741482E+002
 21
2.2182169E+002
  0
LINE
  5
220
100
AcDbEntity
  8
2
100
AcDbLine
  6
CONTINUOUS
 62
3
 10
1.2741482E+002
 20
2.0872435E+002
 11
1.2741482E+002
 21
2.2182169E+002
  0
TEXT
  5
221
100
AcDbEntity
  8
2
100
AcDbText
  6
CONTINUOUS
 62
3
 10
1.2478882E+002
 20
2.1604669E+002
 40
3.0
  1
25
 41
7.5E-001
 50
9.0E+001
100
AcDbText
  0
TEXT
  5
222
100
AcDbEntity
  8
2
100
AcDbText
  6
CONTINUOUS
 62
3
 10
1.2591382E+002
 20
2.2129669E+002
 40
2.1
  1
-0,3
 41
7.5E-001
 50
9.0E+001
100
AcDbText
  0
INSERT
  5
223
100
AcDbEntity
100
AcDbBlockReference
  2
_AH1
  8
2
 62
3
 10
1.2741482E+002
 20
2.3372435E+002
 41
3.0
 42
3.0
 43
3.0
 50
9.0E+001
  0
INSERT
  5
224
100
AcDbEntity
100
AcDbBlockReference
  2
_AH1
  8
2
 62
3
 10
1.2741482E+002
 20
2.0872435E+002
 41
3.0
 42
3.0
 43
3.0
 50
2.7E+002
  0
ENDBLK
  5
225
100
AcDbEntity
100
AcDbBlockEnd
  0
BLOCK
  5
226
100
AcDbEntity
100
AcDbBlockBegin
  2
*D185
  3
*D
 10
0.0
 20
0.0
 70
65
  0
LINE
  5
227
100
AcDbEntity
  8
2
100
AcDbLine
  6
CONTINUOUS
 62
3
 10
1.4523265E+002
 20
2.0872435E+002
 11
1.4523265E+002
 21
1.9557447E+002
  0
LINE
  5
228
100
AcDbEntity
  8
2
100
AcDbLine
  6
CONTINUOUS
 62
3
 10
1.5223265E+002
 20
2.0602435E+002
 11
1.5223265E+002
 21
1.9557447E+002
  0
LINE
  5
229
100
AcDbEntity
  8
2
100
AcDbLine
  6
CONTINUOUS
 62
3
 10
1.3923265E+002
 20
1.9857447E+002
 11
1.4523265E+002
 21
1.9857447E+002
  0
LINE
  5
22a
100
AcDbEntity
  8
2
100
AcDbLine
  6
CONTINUOUS
 62
3
 10
1.5823265E+002
 20
1.9857447E+002
 11
1.4523265E+002
 21
1.9857447E+002
  0
TEXT
  5
22b
100
AcDbEntity
  8
2
100
AcDbText
  6
CONTINUOUS
 62
3
 10
1.4775809E+002
 20
2.0007547E+002
 40
3.0
  1
7
 41
7.5E-001
100
AcDbText
  0
INSERT
  5
22c
100
AcDbEntity
100
AcDbBlockReference
  2
_AH1
  8
2
 62
3
 10
1.4523265E+002
 20
1.9857447E+002
 41
3.0
 42
3.0
 43
3.0
 50
0.0
  0
INSERT
  5
22d
100
AcDbEntity
100
AcDbBlockReference
  2
_AH1
  8
2
 62
3
 10
1.5223265E+002
 20
1.9857447E+002
 41
3.0
 42
3.0
 43
3.0
 50
1.8E+002
  0
ENDBLK
  5
22e
100
AcDbEntity
100
AcDbBlockEnd
  0
BLOCK
  5
22f
100
AcDbEntity
100
AcDbBlockBegin
  2
*D186
  3
*D
 10
0.0
 20
0.0
 70
65
  0
LINE
  5
230
100
AcDbEntity
  8
2
100
AcDbLine
  6
CONTINUOUS
 62
3
 10
1.5223265E+002
 20
2.0602435E+002
 11
1.5223265E+002
 21
1.9557447E+002
  0
LINE
  5
231
100
AcDbEntity
  8
2
100
AcDbLine
  6
CONTINUOUS
 62
3
 10
3.3823265E+002
 20
2.0602435E+002
 11
3.3823265E+002
 21
1.9557447E+002
  0
LINE
  5
232
100
AcDbEntity
  8
2
100
AcDbLine
  6
CONTINUOUS
 62
3
 10
1.5223265E+002
 20
1.9857447E+002
 11
2.4523265E+002
 21
1.9857447E+002
  0
LINE
  5
233
100
AcDbEntity
  8
2
100
AcDbLine
  6
CONTINUOUS
 62
3
 10
3.3823265E+002
 20
1.9857447E+002
 11
2.4523265E+002
 21
1.9857447E+002
  0
TEXT
  5
234
100
AcDbEntity
  8
2
100
AcDbText
  6
CONTINUOUS
 62
3
 10
2.3833265E+002
 20
2.0007547E+002
 40
3.0
  1
186
 41
7.5E-001
100
AcDbText
  0
TEXT
  5
235
100
AcDbEntity
  8
2
100
AcDbText
  6
CONTINUOUS
 62
3
 10
2.4583265E+002
 20
2.0052547E+002
 40
2.1
  1
%%p0,2
 41
7.5E-001
100
AcDbText
  0
INSERT
  5
236
100
AcDbEntity
100
AcDbBlockReference
  2
_AH1
  8
2
 62
3
 10
1.5223265E+002
 20
1.9857447E+002
 41
3.0
 42
3.0
 43
3.0
 50
1.8E+002
  0
INSERT
  5
237
100
AcDbEntity
100
AcDbBlockReference
  2
_AH1
  8
2
 62
3
 10
3.3823265E+002
 20
1.9857447E+002
 41
3.0
 42
3.0
 43
3.0
 50
0.0
  0
ENDBLK
  5
238
100
AcDbEntity
100
AcDbBlockEnd
  0
BLOCK
  5
239
100
AcDbEntity
100
AcDbBlockBegin
  2
*D189
  3
*D
 10
0.0
 20
0.0
 70
65
  0
LINE
  5
23a
100
AcDbEntity
  8
3
100
AcDbLine
  6
CONTINUOUS
 62
3
 10
1.4523265E+002
 20
1.3717548E+002
 11
1.3083859E+002
 21
1.3717548E+002
  0
LINE
  5
23b
100
AcDbEntity
  8
3
100
AcDbLine
  6
CONTINUOUS
 62
3
 10
1.4523265E+002
 20
1.4017548E+002
 11
1.3083859E+002
 21
1.4017548E+002
  0
LINE
  5
23c
100
AcDbEntity
  8
3
100
AcDbLine
  6
CONTINUOUS
 62
3
 10
1.3383859E+002
 20
1.3717548E+002
 11
1.3383859E+002
 21
1.2854611E+002
  0
LINE
  5
23d
100
AcDbEntity
  8
3
100
AcDbLine
  6
CONTINUOUS
 62
3
 10
1.3383859E+002
 20
1.4617548E+002
 11
1.3383859E+002
 21
1.3717548E+002
  0
TEXT
  5
23e
100
AcDbEntity
  8
3
100
AcDbText
  6
CONTINUOUS
 62
3
 10
1.3233759E+002
 20
1.3004611E+002
 40
3.0
  1
3
 41
7.5E-001
 50
9.0E+001
100
AcDbText
  0
INSERT
  5
23f
100
AcDbEntity
100
AcDbBlockReference
  2
_AH1
  8
3
 62
3
 10
1.3383859E+002
 20
1.3717548E+002
 41
3.0
 42
3.0
 43
3.0
 50
9.0E+001
  0
INSERT
  5
240
100
AcDbEntity
100
AcDbBlockReference
  2
_AH1
  8
3
 62
3
 10
1.3383859E+002
 20
1.4017548E+002
 41
3.0
 42
3.0
 43
3.0
 50
2.7E+002
  0
ENDBLK
  5
241
100
AcDbEntity
100
AcDbBlockEnd
  0
BLOCK
  5
242
100
AcDbEntity
100
AcDbBlockBegin
  2
*D1294
  3
*D
 10
0.0
 20
0.0
 70
65
  0
LINE
  5
243
100
AcDbEntity
  8
2
100
AcDbLine
  6
CONTINUOUS
 62
3
 10
2.6123265E+002
 20
2.404815E+002
 11
2.6123265E+002
 21
2.4655415E+002
  0
LINE
  5
244
100
AcDbEntity
  8
2
100
AcDbLine
  6
CONTINUOUS
 62
3
 10
3.4523265E+002
 20
2.3372435E+002
 11
3.4523265E+002
 21
2.4655415E+002
  0
LINE
  5
245
100
AcDbEntity
  8
2
100
AcDbLine
  6
CONTINUOUS
 62
3
 10
2.6123265E+002
 20
2.4355415E+002
 11
3.009907E+002
 21
2.4355415E+002
  0
LINE
  5
246
100
AcDbEntity
  8
2
100
AcDbLine
  6
CONTINUOUS
 62
3
 10
3.4523265E+002
 20
2.4355415E+002
 11
3.009907E+002
 21
2.4355415E+002
  0
TEXT
  5
247
100
AcDbEntity
  8
2
100
AcDbText
  6
CONTINUOUS
 62
3
 10
2.952157E+002
 20
2.4505515E+002
 40
3.0
  1
84
 41
7.5E-001
100
AcDbText
  0
TEXT
  5
248
100
AcDbEntity
  8
2
100
AcDbText
  6
CONTINUOUS
 62
3
 10
3.004657E+002
 20
2.4550515E+002
 40
2.1
  1
%%p0,2
 41
7.5E-001
100
AcDbText
  0
INSERT
  5
249
100
AcDbEntity
100
AcDbBlockReference
  2
_AH1
  8
2
 62
3
 10
2.6123265E+002
 20
2.4355415E+002
 41
3.0
 42
3.0
 43
3.0
 50
1.8E+002
  0
INSERT
  5
24a
100
AcDbEntity
100
AcDbBlockReference
  2
_AH1
  8
2
 62
3
 10
3.4523265E+002
 20
2.4355415E+002
 41
3.0
 42
3.0
 43
3.0
 50
0.0
  0
ENDBLK
  5
24b
100
AcDbEntity
100
AcDbBlockEnd
  0
BLOCK
  5
24c
100
AcDbEntity
100
AcDbBlockBegin
  2
*D1295
  3
*D
 10
0.0
 20
0.0
 70
65
  0
LINE
  5
24d
100
AcDbEntity
  8
2
100
AcDbLine
  6
CONTINUOUS
 62
3
 10
3.4523265E+002
 20
2.3372435E+002
 11
3.4523265E+002
 21
2.5526705E+002
  0
LINE
  5
24e
100
AcDbEntity
  8
2
100
AcDbLine
  6
CONTINUOUS
 62
3
 10
1.4523265E+002
 20
2.3372435E+002
 11
1.4523265E+002
 21
2.5526705E+002
  0
LINE
  5
24f
100
AcDbEntity
  8
2
100
AcDbLine
  6
CONTINUOUS
 62
3
 10
3.4523265E+002
 20
2.5226705E+002
 11
2.3941803E+002
 21
2.5226705E+002
  0
LINE
  5
250
100
AcDbEntity
  8
2
100
AcDbLine
  6
CONTINUOUS
 62
3
 10
1.4523265E+002
 20
2.5226705E+002
 11
2.3941803E+002
 21
2.5226705E+002
  0
TEXT
  5
251
100
AcDbEntity
  8
2
100
AcDbText
  6
CONTINUOUS
 62
3
 10
2.3251803E+002
 20
2.5489305E+002
 40
3.0
  1
200
 41
7.5E-001
 50
3.6E+002
100
AcDbText
  0
TEXT
  5
252
100
AcDbEntity
  8
2
100
AcDbText
  6
CONTINUOUS
 62
3
 10
2.4001803E+002
 20
2.5376805E+002
 40
2.1
  1
-0,3
 41
7.5E-001
 50
3.6E+002
100
AcDbText
  0
INSERT
  5
253
100
AcDbEntity
100
AcDbBlockReference
  2
_AH1
  8
2
 62
3
 10
3.4523265E+002
 20
2.5226705E+002
 41
3.0
 42
3.0
 43
3.0
 50
0.0
  0
INSERT
  5
254
100
AcDbEntity
100
AcDbBlockReference
  2
_AH1
  8
2
 62
3
 10
1.4523265E+002
 20
2.5226705E+002
 41
3.0
 42
3.0
 43
3.0
 50
1.8E+002
  0
ENDBLK
  5
255
100
AcDbEntity
100
AcDbBlockEnd
  0
BLOCK
  5
256
100
AcDbEntity
100
AcDbBlockBegin
  2
*D1296
  3
*D
 10
0.0
 20
0.0
 70
65
  0
LINE
  5
257
100
AcDbEntity
  8
2
100
AcDbLine
  6
CONTINUOUS
 62
3
 10
3.3823265E+002
 20
2.3087435E+002
 11
3.5687564E+002
 21
2.3087435E+002
  0
LINE
  5
258
100
AcDbEntity
  8
2
100
AcDbLine
  6
CONTINUOUS
 62
3
 10
3.3823265E+002
 20
2.2557435E+002
 11
3.5687564E+002
 21
2.2557435E+002
  0
LINE
  5
259
100
AcDbEntity
  8
2
100
AcDbLine
  6
CONTINUOUS
 62
3
 10
3.5387564E+002
 20
2.3087435E+002
 11
3.5387564E+002
 21
2.4504799E+002
  0
LINE
  5
25a
100
AcDbEntity
  8
2
100
AcDbLine
  6
CONTINUOUS
 62
3
 10
3.5387564E+002
 20
2.1957435E+002
 11
3.5387564E+002
 21
2.3087435E+002
  0
TEXT
  5
25b
100
AcDbEntity
  8
2
100
AcDbText
  6
CONTINUOUS
 62
3
 10
3.5237464E+002
 20
2.3454799E+002
 40
3.0
  1
%%c5,3
 41
7.5E-001
 50
9.0E+001
100
AcDbText
  0
INSERT
  5
25c
100
AcDbEntity
100
AcDbBlockReference
  2
_AH1
  8
2
 62
3
 10
3.5387564E+002
 20
2.3087435E+002
 41
3.0
 42
3.0
 43
3.0
 50
2.7E+002
  0
INSERT
  5
25d
100
AcDbEntity
100
AcDbBlockReference
  2
_AH1
  8
2
 62
3
 10
3.5387564E+002
 20
2.2557435E+002
 41
3.0
 42
3.0
 43
3.0
 50
9.0E+001
  0
ENDBLK
  5
25e
100
AcDbEntity
100
AcDbBlockEnd
  0
BLOCK
  5
25f
100
AcDbEntity
100
AcDbBlockBegin
  2
*D1297
  3
*D
 10
0.0
 20
0.0
 70
65
  0
LINE
  5
260
100
AcDbEntity
  8
2
100
AcDbLine
  6
CONTINUOUS
 62
3
 10
3.3823265E+002
 20
2.3342435E+002
 11
3.660919E+002
 21
2.3342435E+002
  0
LINE
  5
261
100
AcDbEntity
  8
2
100
AcDbLine
  6
CONTINUOUS
 62
3
 10
3.3823265E+002
 20
2.2302435E+002
 11
3.660919E+002
 21
2.2302435E+002
  0
LINE
  5
262
100
AcDbEntity
  8
2
100
AcDbLine
  6
CONTINUOUS
 62
3
 10
3.630919E+002
 20
2.3342435E+002
 11
3.630919E+002
 21
2.4958374E+002
  0
LINE
  5
263
100
AcDbEntity
  8
2
100
AcDbLine
  6
CONTINUOUS
 62
3
 10
3.630919E+002
 20
2.1702435E+002
 11
3.630919E+002
 21
2.3342435E+002
  0
TEXT
  5
264
100
AcDbEntity
  8
2
100
AcDbText
  6
CONTINUOUS
 62
3
 10
3.615909E+002
 20
2.3683374E+002
 40
3.0
  1
%%c10,4
 41
7.5E-001
 50
9.0E+001
100
AcDbText
  0
INSERT
  5
265
100
AcDbEntity
100
AcDbBlockReference
  2
_AH1
  8
2
 62
3
 10
3.630919E+002
 20
2.3342435E+002
 41
3.0
 42
3.0
 43
3.0
 50
2.7E+002
  0
INSERT
  5
266
100
AcDbEntity
100
AcDbBlockReference
  2
_AH1
  8
2
 62
3
 10
3.630919E+002
 20
2.2302435E+002
 41
3.0
 42
3.0
 43
3.0
 50
9.0E+001
  0
ENDBLK
  5
267
100
AcDbEntity
100
AcDbBlockEnd
  0
BLOCK
  5
268
100
AcDbEntity
100
AcDbBlockBegin
  2
*D1298
  3
*D
 10
0.0
 20
0.0
 70
65
  0
LINE
  5
269
100
AcDbEntity
  8
2
100
AcDbLine
  6
CONTINUOUS
 62
3
 10
3.4137216E+002
 20
2.3236965E+002
 11
3.5045676E+002
 21
2.5542837E+002
  0
LINE
  5
26a
100
AcDbEntity
  8
2
100
AcDbLine
  6
CONTINUOUS
 62
3
 10
3.4137216E+002
 20
2.3236965E+002
 11
3.4293702E+002
 21
2.3497756E+002
  0
LINE
  5
26b
100
AcDbEntity
  8
2
100
AcDbLine
  6
CONTINUOUS
 62
3
 10
3.4137216E+002
 20
2.3236965E+002
 11
3.4200662E+002
 21
2.3534411E+002
  0
LINE
  5
26c
100
AcDbEntity
  8
2
100
AcDbLine
  6
CONTINUOUS
 62
3
 10
3.4293702E+002
 20
2.3497756E+002
 11
3.4200662E+002
 21
2.3534411E+002
  0
LINE
  5
26d
100
AcDbEntity
  8
2
100
AcDbLine
  6
CONTINUOUS
 62
3
 10
3.8120676E+002
 20
2.5542837E+002
 11
3.5045676E+002
 21
2.5542837E+002
  0
TEXT
  5
26e
100
AcDbEntity
  8
2
100
AcDbText
  6
CONTINUOUS
 62
3
 10
3.5495676E+002
 20
2.5692837E+002
 40
3.0
  1
Senkung 90°
 41
7.5E-001
100
AcDbText
  0
ENDBLK
  5
26f
100
AcDbEntity
100
AcDbBlockEnd
  0
ENDSEC
  0
SECTION
  2
ENTITIES
  0
CIRCLE
  5
270
100
AcDbEntity
  8
2
100
AcDbCircle
  6
CONTINUOUS
 62
6
 10
3.3823265E+002
 20
2.2822435E+002
 40
5.2
  0
CIRCLE
  5
271
100
AcDbEntity
  8
2
100
AcDbCircle
  6
CONTINUOUS
 62
6
 10
3.3823265E+002
 20
2.2822435E+002
 40
2.65
  0
CIRCLE
  5
272
100
AcDbEntity
  8
2
100
AcDbCircle
  6
CONTINUOUS
 62
6
 10
2.9123265E+002
 20
2.2172435E+002
 40
5.2
  0
CIRCLE
  5
273
100
AcDbEntity
  8
2
100
AcDbCircle
  6
CONTINUOUS
 62
6
 10
2.9123265E+002
 20
2.2172435E+002
 40
2.65
  0
CIRCLE
  5
274
100
AcDbEntity
  8
2
100
AcDbCircle
  6
CONTINUOUS
 62
6
 10
1.7823265E+002
 20
2.2172435E+002
 40
5.2
  0
CIRCLE
  5
275
100
AcDbEntity
  8
2
100
AcDbCircle
  6
CONTINUOUS
 62
6
 10
1.7823265E+002
 20
2.2172435E+002
 40
2.65
  0
CIRCLE
  5
276
100
AcDbEntity
  8
2
100
AcDbCircle
  6
CONTINUOUS
 62
6
 10
1.5223265E+002
 20
2.2822435E+002
 40
5.2
  0
CIRCLE
  5
277
100
AcDbEntity
  8
2
100
AcDbCircle
  6
CONTINUOUS
 62
6
 10
1.5223265E+002
 20
2.2822435E+002
 40
2.65
  0
POLYLINE
  5
278
100
AcDbEntity
  8
2
100
AcDb2dPolyline
  6
CONTINUOUS
 62
2
 66
1
 40
5.0E-001
 41
5.0E-001
 70
0
  0
VERTEX
  5
279
100
AcDbEntity
  8
2
100
AcDbVertex
100
AcDb2dVertex
 42
0.0
 10
1.4523265E+002
 20
2.3372435E+002
 70
0
  0
VERTEX
  5
27a
100
AcDbEntity
  8
2
100
AcDbVertex
100
AcDb2dVertex
 42
0.0
 10
1.4523265E+002
 20
2.0872435E+002
 70
0
  0
SEQEND
  5
27b
100
AcDbEntity
  0
POLYLINE
  5
27c
100
AcDbEntity
  8
2
100
AcDb2dPolyline
  6
CONTINUOUS
 62
2
 66
1
 40
5.0E-001
 41
5.0E-001
 70
0
  0
VERTEX
  5
27d
100
AcDbEntity
  8
2
100
AcDbVertex
100
AcDb2dVertex
 42
0.0
 10
3.4523265E+002
 20
2.0872435E+002
 70
0
  0
VERTEX
  5
27e
100
AcDbEntity
  8
2
100
AcDbVertex
100
AcDb2dVertex
 42
0.0
 10
3.4523265E+002
 20
2.3372435E+002
 70
0
  0
SEQEND
  5
27f
100
AcDbEntity
  0
LINE
  5
280
100
AcDbEntity
  8
3
100
AcDbLine
  6
CENTERLINE
 62
3
 10
1.5223265E+002
 20
1.4324019E+002
 11
1.5223265E+002
 21
1.3401748E+002
  0
LINE
  5
281
100
AcDbEntity
  8
3
100
AcDbLine
  6
CENTERLINE
 62
3
 10
1.7823265E+002
 20
1.4353633E+002
 11
1.7823265E+002
 21
1.3363673E+002
  0
LINE
  5
282
100
AcDbEntity
  8
3
100
AcDbLine
  6
CENTERLINE
 62
3
 10
2.3123263E+002
 20
1.4450937E+002
 11
2.3123263E+002
 21
1.334252E+002
  0
LINE
  5
283
100
AcDbEntity
  8
3
100
AcDbLine
  6
CENTERLINE
 62
3
 10
2.9123267E+002
 20
1.4404401E+002
 11
2.9123267E+002
 21
1.3334059E+002
  0
LINE
  5
284
100
AcDbEntity
  8
3
100
AcDbLine
  6
CENTERLINE
 62
3
 10
3.0323265E+002
 20
1.4446707E+002
 11
3.0323265E+002
 21
1.3376365E+002
  0
LINE
  5
285
100
AcDbEntity
  8
3
100
AcDbLine
  6
CENTERLINE
 62
3
 10
3.3823266E+002
 20
1.4493243E+002
 11
3.3823266E+002
 21
1.3397518E+002
  0
LINE
  5
286
100
AcDbEntity
  8
2
100
AcDbLine
  6
CONTINUOUS
 62
3
 10
1.5523265E+002
 20
2.2822435E+002
 11
1.4923265E+002
 21
2.2822435E+002
  0
LINE
  5
287
100
AcDbEntity
  8
2
100
AcDbLine
  6
CONTINUOUS
 62
3
 10
1.5223265E+002
 20
2.3122435E+002
 11
1.5223265E+002
 21
2.2522435E+002
  0
LINE
  5
288
100
AcDbEntity
  8
2
100
AcDbLine
  6
CONTINUOUS
 62
3
 10
1.5673265E+002
 20
2.2822435E+002
 11
1.6043265E+002
 21
2.2822435E+002
  0
LINE
  5
289
100
AcDbEntity
  8
2
100
AcDbLine
  6
CONTINUOUS
 62
3
 10
1.5223265E+002
 20
2.3272435E+002
 11
1.5223265E+002
 21
2.3642435E+002
  0
LINE
  5
28a
100
AcDbEntity
  8
2
100
AcDbLine
  6
CONTINUOUS
 62
3
 10
1.4773265E+002
 20
2.2822435E+002
 11
1.4403265E+002
 21
2.2822435E+002
  0
LINE
  5
28b
100
AcDbEntity
  8
2
100
AcDbLine
  6
CONTINUOUS
 62
3
 10
1.5223265E+002
 20
2.2372435E+002
 11
1.5223265E+002
 21
2.2002435E+002
  0
LINE
  5
28c
100
AcDbEntity
  8
2
100
AcDbLine
  6
CONTINUOUS
 62
3
 10
1.5523265E+002
 20
2.1422435E+002
 11
1.4923265E+002
 21
2.1422435E+002
  0
LINE
  5
28d
100
AcDbEntity
  8
2
100
AcDbLine
  6
CONTINUOUS
 62
3
 10
1.5223265E+002
 20
2.1722435E+002
 11
1.5223265E+002
 21
2.1122435E+002
  0
LINE
  5
28e
100
AcDbEntity
  8
2
100
AcDbLine
  6
CONTINUOUS
 62
3
 10
1.5673265E+002
 20
2.1422435E+002
 11
1.6043265E+002
 21
2.1422435E+002
  0
LINE
  5
28f
100
AcDbEntity
  8
2
100
AcDbLine
  6
CONTINUOUS
 62
3
 10
1.5223265E+002
 20
2.1872435E+002
 11
1.5223265E+002
 21
2.2242435E+002
  0
LINE
  5
290
100
AcDbEntity
  8
2
100
AcDbLine
  6
CONTINUOUS
 62
3
 10
1.4773265E+002
 20
2.1422435E+002
 11
1.4403265E+002
 21
2.1422435E+002
  0
LINE
  5
291
100
AcDbEntity
  8
2
100
AcDbLine
  6
CONTINUOUS
 62
3
 10
1.5223265E+002
 20
2.0972435E+002
 11
1.5223265E+002
 21
2.0602435E+002
  0
LINE
  5
292
100
AcDbEntity
  8
2
100
AcDbLine
  6
CONTINUOUS
 62
3
 10
1.8123265E+002
 20
2.2172435E+002
 11
1.7523265E+002
 21
2.2172435E+002
  0
LINE
  5
293
100
AcDbEntity
  8
2
100
AcDbLine
  6
CONTINUOUS
 62
3
 10
1.7823265E+002
 20
2.2472435E+002
 11
1.7823265E+002
 21
2.1872435E+002
  0
LINE
  5
294
100
AcDbEntity
  8
2
100
AcDbLine
  6
CONTINUOUS
 62
3
 10
1.8273265E+002
 20
2.2172435E+002
 11
1.8663265E+002
 21
2.2172435E+002
  0
LINE
  5
295
100
AcDbEntity
  8
2
100
AcDbLine
  6
CONTINUOUS
 62
3
 10
1.7823265E+002
 20
2.2622435E+002
 11
1.7823265E+002
 21
2.3012435E+002
  0
LINE
  5
296
100
AcDbEntity
  8
2
100
AcDbLine
  6
CONTINUOUS
 62
3
 10
1.7373265E+002
 20
2.2172435E+002
 11
1.6983265E+002
 21
2.2172435E+002
  0
LINE
  5
297
100
AcDbEntity
  8
2
100
AcDbLine
  6
CONTINUOUS
 62
3
 10
1.7823265E+002
 20
2.1722435E+002
 11
1.7823265E+002
 21
2.1332435E+002
  0
LINE
  5
298
100
AcDbEntity
  8
2
100
AcDbLine
  6
CONTINUOUS
 62
3
 10
2.3423265E+002
 20
2.2172435E+002
 11
2.2823265E+002
 21
2.2172435E+002
  0
LINE
  5
299
100
AcDbEntity
  8
2
100
AcDbLine
  6
CONTINUOUS
 62
3
 10
2.3123265E+002
 20
2.2472435E+002
 11
2.3123265E+002
 21
2.1872435E+002
  0
LINE
  5
29a
100
AcDbEntity
  8
2
100
AcDbLine
  6
CONTINUOUS
 62
3
 10
2.3573265E+002
 20
2.2172435E+002
 11
2.3963265E+002
 21
2.2172435E+002
  0
LINE
  5
29b
100
AcDbEntity
  8
2
100
AcDbLine
  6
CONTINUOUS
 62
3
 10
2.3123265E+002
 20
2.2622435E+002
 11
2.3123265E+002
 21
2.3012435E+002
  0
LINE
  5
29c
100
AcDbEntity
  8
2
100
AcDbLine
  6
CONTINUOUS
 62
3
 10
2.2673265E+002
 20
2.2172435E+002
 11
2.2283265E+002
 21
2.2172435E+002
  0
LINE
  5
29d
100
AcDbEntity
  8
2
100
AcDbLine
  6
CONTINUOUS
 62
3
 10
2.3123265E+002
 20
2.1722435E+002
 11
2.3123265E+002
 21
2.1332435E+002
  0
LINE
  5
29e
100
AcDbEntity
  8
2
100
AcDbLine
  6
CONTINUOUS
 62
3
 10
2.9423265E+002
 20
2.2172435E+002
 11
2.8823265E+002
 21
2.2172435E+002
  0
LINE
  5
29f
100
AcDbEntity
  8
2
100
AcDbLine
  6
CONTINUOUS
 62
3
 10
2.9123265E+002
 20
2.2472435E+002
 11
2.9123265E+002
 21
2.1872435E+002
  0
LINE
  5
2a0
100
AcDbEntity
  8
2
100
AcDbLine
  6
CONTINUOUS
 62
3
 10
2.9573265E+002
 20
2.2172435E+002
 11
2.9963265E+002
 21
2.2172435E+002
  0
LINE
  5
2a1
100
AcDbEntity
  8
2
100
AcDbLine
  6
CONTINUOUS
 62
3
 10
2.9123265E+002
 20
2.2622435E+002
 11
2.9123265E+002
 21
2.3012435E+002
  0
LINE
  5
2a2
100
AcDbEntity
  8
2
100
AcDbLine
  6
CONTINUOUS
 62
3
 10
2.8673265E+002
 20
2.2172435E+002
 11
2.8283265E+002
 21
2.2172435E+002
  0
LINE
  5
2a3
100
AcDbEntity
  8
2
100
AcDbLine
  6
CONTINUOUS
 62
3
 10
2.9123265E+002
 20
2.1722435E+002
 11
2.9123265E+002
 21
2.1332435E+002
  0
LINE
  5
2a4
100
AcDbEntity
  8
2
100
AcDbLine
  6
CONTINUOUS
 62
3
 10
3.0623265E+002
 20
2.2172435E+002
 11
3.0023265E+002
 21
2.2172435E+002
  0
LINE
  5
2a5
100
AcDbEntity
  8
2
100
AcDbLine
  6
CONTINUOUS
 62
3
 10
3.0323265E+002
 20
2.2472435E+002
 11
3.0323265E+002
 21
2.1872435E+002
  0
LINE
  5
2a6
100
AcDbEntity
  8
2
100
AcDbLine
  6
CONTINUOUS
 62
3
 10
3.0773265E+002
 20
2.2172435E+002
 11
3.1163265E+002
 21
2.2172435E+002
  0
LINE
  5
2a7
100
AcDbEntity
  8
2
100
AcDbLine
  6
CONTINUOUS
 62
3
 10
3.0323265E+002
 20
2.2622435E+002
 11
3.0323265E+002
 21
2.3012435E+002
  0
LINE
  5
2a8
100
AcDbEntity
  8
2
100
AcDbLine
  6
CONTINUOUS
 62
3
 10
2.9873265E+002
 20
2.2172435E+002
 11
2.9483265E+002
 21
2.2172435E+002
  0
LINE
  5
2a9
100
AcDbEntity
  8
2
100
AcDbLine
  6
CONTINUOUS
 62
3
 10
3.0323265E+002
 20
2.1722435E+002
 11
3.0323265E+002
 21
2.1332435E+002
  0
LINE
  5
2aa
100
AcDbEntity
  8
2
100
AcDbLine
  6
CONTINUOUS
 62
3
 10
3.4123265E+002
 20
2.1422435E+002
 11
3.3523265E+002
 21
2.1422435E+002
  0
LINE
  5
2ab
100
AcDbEntity
  8
2
100
AcDbLine
  6
CONTINUOUS
 62
3
 10
3.3823265E+002
 20
2.1722435E+002
 11
3.3823265E+002
 21
2.1122435E+002
  0
LINE
  5
2ac
100
AcDbEntity
  8
2
100
AcDbLine
  6
CONTINUOUS
 62
3
 10
3.4273265E+002
 20
2.1422435E+002
 11
3.4643265E+002
 21
2.1422435E+002
  0
LINE
  5
2ad
100
AcDbEntity
  8
2
100
AcDbLine
  6
CONTINUOUS
 62
3
 10
3.3823265E+002
 20
2.1872435E+002
 11
3.3823265E+002
 21
2.2242435E+002
  0
LINE
  5
2ae
100
AcDbEntity
  8
2
100
AcDbLine
  6
CONTINUOUS
 62
3
 10
3.3373265E+002
 20
2.1422435E+002
 11
3.3003265E+002
 21
2.1422435E+002
  0
LINE
  5
2af
100
AcDbEntity
  8
2
100
AcDbLine
  6
CONTINUOUS
 62
3
 10
3.3823265E+002
 20
2.0972435E+002
 11
3.3823265E+002
 21
2.0602435E+002
  0
LINE
  5
2b0
100
AcDbEntity
  8
2
100
AcDbLine
  6
CONTINUOUS
 62
3
 10
3.4123265E+002
 20
2.2822435E+002
 11
3.3523265E+002
 21
2.2822435E+002
  0
LINE
  5
2b1
100
AcDbEntity
  8
2
100
AcDbLine
  6
CONTINUOUS
 62
3
 10
3.3823265E+002
 20
2.3122435E+002
 11
3.3823265E+002
 21
2.2522435E+002
  0
LINE
  5
2b2
100
AcDbEntity
  8
2
100
AcDbLine
  6
CONTINUOUS
 62
3
 10
3.4273265E+002
 20
2.2822435E+002
 11
3.4643265E+002
 21
2.2822435E+002
  0
LINE
  5
2b3
100
AcDbEntity
  8
2
100
AcDbLine
  6
CONTINUOUS
 62
3
 10
3.3823265E+002
 20
2.3272435E+002
 11
3.3823265E+002
 21
2.3642435E+002
  0
LINE
  5
2b4
100
AcDbEntity
  8
2
100
AcDbLine
  6
CONTINUOUS
 62
3
 10
3.3373265E+002
 20
2.2822435E+002
 11
3.3003265E+002
 21
2.2822435E+002
  0
LINE
  5
2b5
100
AcDbEntity
  8
2
100
AcDbLine
  6
CONTINUOUS
 62
3
 10
3.3823265E+002
 20
2.2372435E+002
 11
3.3823265E+002
 21
2.2002435E+002
  0
LINE
  5
2b6
100
AcDbEntity
  8
2
100
AcDbLine
  6
CENTERLINE
 62
3
 10
2.6123265E+002
 20
2.0304572E+002
 11
2.6123265E+002
 21
2.404815E+002
  0
POLYLINE
  5
2b7
100
AcDbEntity
  8
2
100
AcDb2dPolyline
  6
CONTINUOUS
 62
2
 66
1
 40
5.0E-001
 41
5.0E-001
 70
0
  0
VERTEX
  5
2b8
100
AcDbEntity
  8
2
100
AcDbVertex
100
AcDb2dVertex
 42
0.0
 10
3.4523265E+002
 20
2.0872435E+002
 70
0
  0
VERTEX
  5
2b9
100
AcDbEntity
  8
2
100
AcDbVertex
100
AcDb2dVertex
 42
0.0
 10
1.4523265E+002
 20
2.0872435E+002
 70
0
  0
SEQEND
  5
2ba
100
AcDbEntity
  0
DIMENSION
  5
2bb
100
AcDbEntity
  8
2
100
AcDbDimension
  6
CONTINUOUS
 62
3
  2
*D178
  3
DSTYLE1
 10
2.463582E+002
 20
2.2172435E+002
 11
2.433572E+002
 21
2.2749412E+002
 70
128
100
AcDbAlignedDimension
 13
2.3698265E+002
 23
2.3372435E+002
 14
2.3963265E+002
 24
2.2172435E+002
 40
3.0
 50
2.7E+002
100
AcDbRotatedDimension
1001
ACAD
1000
DSTYLE
1002
{
1070
173
1070
0
1070
5
1000
_AH1
1002
}
  0
DIMENSION
  5
2bc
100
AcDbEntity
  8
2
100
AcDbDimension
  6
CONTINUOUS
 62
3
  2
*D179
  3
DSTYLE1
 10
1.3697341E+002
 20
2.1422435E+002
 11
1.3397241E+002
 21
2.204709E+002
 70
128
100
AcDbAlignedDimension
 13
1.4403265E+002
 23
2.2822435E+002
 14
1.4403265E+002
 24
2.1422435E+002
 40
3.0
 50
9.0E+001
100
AcDbRotatedDimension
1001
ACAD
1000
DSTYLE
1002
{
1070
173
1070
0
1070
5
1000
_AH1
1002
}
  0
POLYLINE
  5
2bd
100
AcDbEntity
  8
2
100
AcDb2dPolyline
  6
CONTINUOUS
 62
2
 66
1
 40
5.0E-001
 41
5.0E-001
 70
0
  0
VERTEX
  5
2be
100
AcDbEntity
  8
2
100
AcDbVertex
100
AcDb2dVertex
 42
0.0
 10
3.4523265E+002
 20
2.3372435E+002
 70
0
  0
VERTEX
  5
2bf
100
AcDbEntity
  8
2
100
AcDbVertex
100
AcDb2dVertex
 42
0.0
 10
2.8548265E+002
 20
2.3372435E+002
 70
0
  0
SEQEND
  5
2c0
100
AcDbEntity
  0
DIMENSION
  5
2c1
100
AcDbEntity
  8
2
100
AcDbDimension
  6
CONTINUOUS
 62
3
  2
*D181
  3
DSTYLE1
 10
1.3697341E+002
 20
2.3372435E+002
 11
1.3397241E+002
 21
2.4219085E+002
 70
128
100
AcDbAlignedDimension
 13
1.4773265E+002
 23
2.2822435E+002
 14
1.4523265E+002
 24
2.3372435E+002
 40
3.0
 50
9.0E+001
100
AcDbRotatedDimension
1001
ACAD
1000
DSTYLE
1002
{
1070
173
1070
0
1070
5
1000
_AH1
1002
}
  0
DIMENSION
  5
2c2
100
AcDbEntity
  8
2
100
AcDbDimension
  6
CONTINUOUS
 62
3
  2
*D182
  3
DSTYLE2
 10
1.2741482E+002
 20
2.0872435E+002
 11
1.2328882E+002
 21
2.2182169E+002
 70
128
100
AcDbAlignedDimension
 13
1.4523265E+002
 23
2.3372435E+002
 14
1.4523265E+002
 24
2.0872435E+002
 40
3.0
 50
2.7E+002
100
AcDbRotatedDimension
1001
ACAD
1000
DSTYLE
1002
{
1070
173
1070
0
1070
5
1000
_AH1
1070
47
1040
1.0E-001
1070
48
1040
-1.0E-001
1002
}
  0
DIMENSION
  5
2c3
100
AcDbEntity
  8
2
100
AcDbDimension
  6
CONTINUOUS
 62
3
  2
*D185
  3
DSTYLE1
 10
1.5223265E+002
 20
1.9857447E+002
 11
1.4888309E+002
 21
2.0157547E+002
 70
128
100
AcDbAlignedDimension
 13
1.4523265E+002
 23
2.0872435E+002
 14
1.5223265E+002
 24
2.0602435E+002
 40
3.0
 50
0.0
100
AcDbRotatedDimension
1001
ACAD
1000
DSTYLE
1002
{
1070
173
1070
0
1070
5
1000
_AH1
1002
}
  0
DIMENSION
  5
2c4
100
AcDbEntity
  8
2
100
AcDbDimension
  6
CONTINUOUS
 62
3
  2
*D186
  3
DSTYLE3
 10
3.3823265E+002
 20
1.9857447E+002
 11
2.4523265E+002
 21
2.0157547E+002
 70
128
100
AcDbAlignedDimension
 13
1.5223265E+002
 23
2.0602435E+002
 14
3.3823265E+002
 24
2.0602435E+002
 40
3.0
 50
0.0
100
AcDbRotatedDimension
1001
ACAD
1000
DSTYLE
1002
{
1070
173
1070
0
1070
5
1000
_AH1
1070
47
1040
2.0E-001
1070
48
1040
2.0E-001
1002
}
  0
DIMENSION
  5
2c5
100
AcDbEntity
  8
3
100
AcDbDimension
  6
CONTINUOUS
 62
3
  2
*D189
  3
DSTYLE1
 10
1.3383859E+002
 20
1.4017548E+002
 11
1.3083759E+002
 21
1.3117111E+002
 70
128
100
AcDbAlignedDimension
 13
1.4523265E+002
 23
1.3717548E+002
 14
1.4523265E+002
 24
1.4017548E+002
 40
3.0
 50
9.0E+001
100
AcDbRotatedDimension
1001
ACAD
1000
DSTYLE
1002
{
1070
173
1070
0
1070
5
1000
_AH1
1002
}
  0
POLYLINE
  5
2c6
100
AcDbEntity
  8
2
100
AcDb2dPolyline
  6
CONTINUOUS
 62
2
 66
1
 40
5.0E-001
 41
5.0E-001
 70
0
  0
VERTEX
  5
2c7
100
AcDbEntity
  8
2
100
AcDbVertex
100
AcDb2dVertex
 42
0.0
 10
2.3698265E+002
 20
2.3372435E+002
 70
0
  0
VERTEX
  5
2c8
100
AcDbEntity
  8
2
100
AcDbVertex
100
AcDb2dVertex
 42
0.0
 10
1.4523265E+002
 20
2.3372435E+002
 70
0
  0
SEQEND
  5
2c9
100
AcDbEntity
  0
POLYLINE
  5
2ca
100
AcDbEntity
  8
2
100
AcDb2dPolyline
  6
CONTINUOUS
 62
2
 66
1
 40
5.0E-001
 41
5.0E-001
 70
0
  0
VERTEX
  5
2cb
100
AcDbEntity
  8
2
100
AcDbVertex
100
AcDb2dVertex
 42
0.0
 10
2.8548265E+002
 20
2.1472435E+002
 70
0
  0
VERTEX
  5
2cc
100
AcDbEntity
  8
2
100
AcDbVertex
100
AcDb2dVertex
 42
0.0
 10
2.3698265E+002
 20
2.1472435E+002
 70
0
  0
SEQEND
  5
2cd
100
AcDbEntity
  0
POLYLINE
  5
2ce
100
AcDbEntity
  8
2
100
AcDb2dPolyline
  6
CONTINUOUS
 62
2
 66
1
 40
5.0E-001
 41
5.0E-001
 70
0
  0
VERTEX
  5
2cf
100
AcDbEntity
  8
2
100
AcDbVertex
100
AcDb2dVertex
 42
0.0
 10
2.8548265E+002
 20
2.3372435E+002
 70
0
  0
VERTEX
  5
2d0
100
AcDbEntity
  8
2
100
AcDbVertex
100
AcDb2dVertex
 42
0.0
 10
2.8548265E+002
 20
2.1472435E+002
 70
0
  0
SEQEND
  5
2d1
100
AcDbEntity
  0
POLYLINE
  5
2d2
100
AcDbEntity
  8
2
100
AcDb2dPolyline
  6
CONTINUOUS
 62
2
 66
1
 40
5.0E-001
 41
5.0E-001
 70
0
  0
VERTEX
  5
2d3
100
AcDbEntity
  8
2
100
AcDbVertex
100
AcDb2dVertex
 42
0.0
 10
2.3698265E+002
 20
2.1472435E+002
 70
0
  0
VERTEX
  5
2d4
100
AcDbEntity
  8
2
100
AcDbVertex
100
AcDb2dVertex
 42
0.0
 10
2.3698265E+002
 20
2.3372435E+002
 70
0
  0
SEQEND
  5
2d5
100
AcDbEntity
  0
CIRCLE
  5
2d6
100
AcDbEntity
  8
2
100
AcDbCircle
  6
CONTINUOUS
 62
6
 10
1.5223265E+002
 20
2.1422435E+002
 40
2.65
  0
CIRCLE
  5
2d7
100
AcDbEntity
  8
2
100
AcDbCircle
  6
CONTINUOUS
 62
6
 10
1.5223265E+002
 20
2.1422435E+002
 40
5.2
  0
CIRCLE
  5
2d8
100
AcDbEntity
  8
2
100
AcDbCircle
  6
CONTINUOUS
 62
6
 10
2.3123265E+002
 20
2.2172435E+002
 40
2.65
  0
CIRCLE
  5
2d9
100
AcDbEntity
  8
2
100
AcDbCircle
  6
CONTINUOUS
 62
6
 10
2.3123265E+002
 20
2.2172435E+002
 40
5.2
  0
CIRCLE
  5
2da
100
AcDbEntity
  8
2
100
AcDbCircle
  6
CONTINUOUS
 62
6
 10
3.0323265E+002
 20
2.2172435E+002
 40
2.65
  0
CIRCLE
  5
2db
100
AcDbEntity
  8
2
100
AcDbCircle
  6
CONTINUOUS
 62
6
 10
3.0323265E+002
 20
2.2172435E+002
 40
5.2
  0
CIRCLE
  5
2dc
100
AcDbEntity
  8
2
100
AcDbCircle
  6
CONTINUOUS
 62
6
 10
3.3823265E+002
 20
2.1422435E+002
 40
2.65
  0
CIRCLE
  5
2dd
100
AcDbEntity
  8
2
100
AcDbCircle
  6
CONTINUOUS
 62
6
 10
3.3823265E+002
 20
2.1422435E+002
 40
5.2
  0
POLYLINE
  5
2de
100
AcDbEntity
  8
3
100
AcDb2dPolyline
  6
CONTINUOUS
 62
2
 66
1
 40
5.0E-001
 41
5.0E-001
 70
0
  0
VERTEX
  5
2df
100
AcDbEntity
  8
3
100
AcDbVertex
100
AcDb2dVertex
 42
0.0
 10
1.4523265E+002
 20
1.4017548E+002
 70
0
  0
VERTEX
  5
2e0
100
AcDbEntity
  8
3
100
AcDbVertex
100
AcDb2dVertex
 42
0.0
 10
1.4523265E+002
 20
1.3717548E+002
 70
0
  0
SEQEND
  5
2e1
100
AcDbEntity
  0
POLYLINE
  5
2e2
100
AcDbEntity
  8
3
100
AcDb2dPolyline
  6
CONTINUOUS
 62
2
 66
1
 40
5.0E-001
 41
5.0E-001
 70
0
  0
VERTEX
  5
2e3
100
AcDbEntity
  8
3
100
AcDbVertex
100
AcDb2dVertex
 42
0.0
 10
3.4523265E+002
 20
1.4017548E+002
 70
0
  0
VERTEX
  5
2e4
100
AcDbEntity
  8
3
100
AcDbVertex
100
AcDb2dVertex
 42
0.0
 10
3.4523265E+002
 20
1.3717548E+002
 70
0
  0
SEQEND
  5
2e5
100
AcDbEntity
  0
POLYLINE
  5
2e6
100
AcDbEntity
  8
3
100
AcDb2dPolyline
  6
CONTINUOUS
 62
2
 66
1
 40
5.0E-001
 41
5.0E-001
 70
0
  0
VERTEX
  5
2e7
100
AcDbEntity
  8
3
100
AcDbVertex
100
AcDb2dVertex
 42
0.0
 10
2.8548265E+002
 20
1.4017548E+002
 70
0
  0
VERTEX
  5
2e8
100
AcDbEntity
  8
3
100
AcDbVertex
100
AcDb2dVertex
 42
0.0
 10
2.8548265E+002
 20
1.3717548E+002
 70
0
  0
SEQEND
  5
2e9
100
AcDbEntity
  0
POLYLINE
  5
2ea
100
AcDbEntity
  8
3
100
AcDb2dPolyline
  6
CONTINUOUS
 62
2
 66
1
 40
5.0E-001
 41
5.0E-001
 70
0
  0
VERTEX
  5
2eb
100
AcDbEntity
  8
3
100
AcDbVertex
100
AcDb2dVertex
 42
0.0
 10
2.3698265E+002
 20
1.3717548E+002
 70
0
  0
VERTEX
  5
2ec
100
AcDbEntity
  8
3
100
AcDbVertex
100
AcDb2dVertex
 42
0.0
 10
2.3698265E+002
 20
1.4017548E+002
 70
0
  0
SEQEND
  5
2ed
100
AcDbEntity
  0
POLYLINE
  5
2ee
100
AcDbEntity
  8
3
100
AcDb2dPolyline
  6
CONTINUOUS
 62
2
 66
1
 40
5.0E-001
 41
5.0E-001
 70
0
  0
VERTEX
  5
2ef
100
AcDbEntity
  8
3
100
AcDbVertex
100
AcDb2dVertex
 42
0.0
 10
2.3698265E+002
 20
1.4017548E+002
 70
0
  0
VERTEX
  5
2f0
100
AcDbEntity
  8
3
100
AcDbVertex
100
AcDb2dVertex
 42
0.0
 10
2.8548265E+002
 20
1.4017548E+002
 70
0
  0
SEQEND
  5
2f1
100
AcDbEntity
  0
POLYLINE
  5
2f2
100
AcDbEntity
  8
3
100
AcDb2dPolyline
  6
CONTINUOUS
 62
2
 66
1
 40
5.0E-001
 41
5.0E-001
 70
0
  0
VERTEX
  5
2f3
100
AcDbEntity
  8
3
100
AcDbVertex
100
AcDb2dVertex
 42
0.0
 10
2.8548265E+002
 20
1.4017548E+002
 70
0
  0
VERTEX
  5
2f4
100
AcDbEntity
  8
3
100
AcDbVertex
100
AcDb2dVertex
 42
0.0
 10
3.4523265E+002
 20
1.4017548E+002
 70
0
  0
SEQEND
  5
2f5
100
AcDbEntity
  0
POLYLINE
  5
2f6
100
AcDbEntity
  8
3
100
AcDb2dPolyline
  6
CONTINUOUS
 62
2
 66
1
 40
5.0E-001
 41
5.0E-001
 70
0
  0
VERTEX
  5
2f7
100
AcDbEntity
  8
3
100
AcDbVertex
100
AcDb2dVertex
 42
0.0
 10
1.4523265E+002
 20
1.4017548E+002
 70
0
  0
VERTEX
  5
2f8
100
AcDbEntity
  8
3
100
AcDbVertex
100
AcDb2dVertex
 42
0.0
 10
2.3698265E+002
 20
1.4017548E+002
 70
0
  0
SEQEND
  5
2f9
100
AcDbEntity
  0
POLYLINE
  5
2fa
100
AcDbEntity
  8
3
100
AcDb2dPolyline
  6
CONTINUOUS
 62
2
 66
1
 40
5.0E-001
 41
5.0E-001
 70
0
  0
VERTEX
  5
2fb
100
AcDbEntity
  8
3
100
AcDbVertex
100
AcDb2dVertex
 42
0.0
 10
2.8548265E+002
 20
1.3717548E+002
 70
0
  0
VERTEX
  5
2fc
100
AcDbEntity
  8
3
100
AcDbVertex
100
AcDb2dVertex
 42
0.0
 10
2.3698265E+002
 20
1.3717548E+002
 70
0
  0
SEQEND
  5
2fd
100
AcDbEntity
  0
POLYLINE
  5
2fe
100
AcDbEntity
  8
3
100
AcDb2dPolyline
  6
CONTINUOUS
 62
2
 66
1
 40
5.0E-001
 41
5.0E-001
 70
0
  0
VERTEX
  5
2ff
100
AcDbEntity
  8
3
100
AcDbVertex
100
AcDb2dVertex
 42
0.0
 10
2.3698265E+002
 20
1.3717548E+002
 70
0
  0
VERTEX
  5
300
100
AcDbEntity
  8
3
100
AcDbVertex
100
AcDb2dVertex
 42
0.0
 10
1.4523265E+002
 20
1.3717548E+002
 70
0
  0
SEQEND
  5
301
100
AcDbEntity
  0
POLYLINE
  5
302
100
AcDbEntity
  8
3
100
AcDb2dPolyline
  6
CONTINUOUS
 62
2
 66
1
 40
5.0E-001
 41
5.0E-001
 70
0
  0
VERTEX
  5
303
100
AcDbEntity
  8
3
100
AcDbVertex
100
AcDb2dVertex
 42
0.0
 10
3.4523265E+002
 20
1.3717548E+002
 70
0
  0
VERTEX
  5
304
100
AcDbEntity
  8
3
100
AcDbVertex
100
AcDb2dVertex
 42
0.0
 10
2.8548265E+002
 20
1.3717548E+002
 70
0
  0
SEQEND
  5
305
100
AcDbEntity
  0
LINE
  5
306
100
AcDbEntity
  8
3
100
AcDbLine
  6
HIDDEN
 62
6
 10
3.4343266E+002
 20
1.3747547E+002
 11
3.4343266E+002
 21
1.3717549E+002
  0
LINE
  5
307
100
AcDbEntity
  8
3
100
AcDbLine
  6
HIDDEN
 62
6
 10
3.3303266E+002
 20
1.3747547E+002
 11
3.3303266E+002
 21
1.3717549E+002
  0
LINE
  5
308
100
AcDbEntity
  8
3
100
AcDbLine
  6
HIDDEN
 62
6
 10
3.4343266E+002
 20
1.3747547E+002
 11
3.3303266E+002
 21
1.3747547E+002
  0
LINE
  5
309
100
AcDbEntity
  8
3
100
AcDbLine
  6
HIDDEN
 62
6
 10
3.3558266E+002
 20
1.4017546E+002
 11
3.3558266E+002
 21
1.4002547E+002
  0
LINE
  5
30a
100
AcDbEntity
  8
3
100
AcDbLine
  6
HIDDEN
 62
6
 10
3.4088265E+002
 20
1.4002547E+002
 11
3.3558266E+002
 21
1.4002547E+002
  0
LINE
  5
30b
100
AcDbEntity
  8
3
100
AcDbLine
  6
HIDDEN
 62
6
 10
3.4088265E+002
 20
1.4017546E+002
 11
3.4088265E+002
 21
1.4002547E+002
  0
LINE
  5
30c
100
AcDbEntity
  8
3
100
AcDbLine
  6
HIDDEN
 62
6
 10
3.4088265E+002
 20
1.4002547E+002
 11
3.4343266E+002
 21
1.3747547E+002
  0
LINE
  5
30d
100
AcDbEntity
  8
3
100
AcDbLine
  6
HIDDEN
 62
6
 10
3.3558266E+002
 20
1.4002547E+002
 11
3.3303266E+002
 21
1.3747547E+002
  0
LINE
  5
30e
100
AcDbEntity
  8
3
100
AcDbLine
  6
HIDDEN
 62
6
 10
2.9643267E+002
 20
1.3747547E+002
 11
2.9643267E+002
 21
1.3717549E+002
  0
LINE
  5
30f
100
AcDbEntity
  8
3
100
AcDbLine
  6
HIDDEN
 62
6
 10
2.8603267E+002
 20
1.3747547E+002
 11
2.8603267E+002
 21
1.3717549E+002
  0
LINE
  5
310
100
AcDbEntity
  8
3
100
AcDbLine
  6
HIDDEN
 62
6
 10
2.9643267E+002
 20
1.3747547E+002
 11
2.8603267E+002
 21
1.3747547E+002
  0
LINE
  5
311
100
AcDbEntity
  8
3
100
AcDbLine
  6
HIDDEN
 62
6
 10
2.8858267E+002
 20
1.4017546E+002
 11
2.8858267E+002
 21
1.4002547E+002
  0
LINE
  5
312
100
AcDbEntity
  8
3
100
AcDbLine
  6
HIDDEN
 62
6
 10
2.9388267E+002
 20
1.4002547E+002
 11
2.8858267E+002
 21
1.4002547E+002
  0
LINE
  5
313
100
AcDbEntity
  8
3
100
AcDbLine
  6
HIDDEN
 62
6
 10
2.9388267E+002
 20
1.4017546E+002
 11
2.9388267E+002
 21
1.4002547E+002
  0
LINE
  5
314
100
AcDbEntity
  8
3
100
AcDbLine
  6
HIDDEN
 62
6
 10
2.9388267E+002
 20
1.4002547E+002
 11
2.9643267E+002
 21
1.3747547E+002
  0
LINE
  5
315
100
AcDbEntity
  8
3
100
AcDbLine
  6
HIDDEN
 62
6
 10
2.8858267E+002
 20
1.4002547E+002
 11
2.8603267E+002
 21
1.3747547E+002
  0
LINE
  5
316
100
AcDbEntity
  8
3
100
AcDbLine
  6
HIDDEN
 62
6
 10
1.8343265E+002
 20
1.3747547E+002
 11
1.8343265E+002
 21
1.3717549E+002
  0
LINE
  5
317
100
AcDbEntity
  8
3
100
AcDbLine
  6
HIDDEN
 62
6
 10
1.7303265E+002
 20
1.3747547E+002
 11
1.7303265E+002
 21
1.3717549E+002
  0
LINE
  5
318
100
AcDbEntity
  8
3
100
AcDbLine
  6
HIDDEN
 62
6
 10
1.8343265E+002
 20
1.3747547E+002
 11
1.7303265E+002
 21
1.3747547E+002
  0
LINE
  5
319
100
AcDbEntity
  8
3
100
AcDbLine
  6
HIDDEN
 62
6
 10
1.7558266E+002
 20
1.4017546E+002
 11
1.7558266E+002
 21
1.4002547E+002
  0
LINE
  5
31a
100
AcDbEntity
  8
3
100
AcDbLine
  6
HIDDEN
 62
6
 10
1.8088265E+002
 20
1.4002547E+002
 11
1.7558266E+002
 21
1.4002547E+002
  0
LINE
  5
31b
100
AcDbEntity
  8
3
100
AcDbLine
  6
HIDDEN
 62
6
 10
1.8088265E+002
 20
1.4017546E+002
 11
1.8088265E+002
 21
1.4002547E+002
  0
LINE
  5
31c
100
AcDbEntity
  8
3
100
AcDbLine
  6
HIDDEN
 62
6
 10
1.8088265E+002
 20
1.4002547E+002
 11
1.8343265E+002
 21
1.3747547E+002
  0
LINE
  5
31d
100
AcDbEntity
  8
3
100
AcDbLine
  6
HIDDEN
 62
6
 10
1.7558266E+002
 20
1.4002547E+002
 11
1.7303265E+002
 21
1.3747547E+002
  0
LINE
  5
31e
100
AcDbEntity
  8
3
100
AcDbLine
  6
HIDDEN
 62
6
 10
1.5743265E+002
 20
1.3747547E+002
 11
1.5743265E+002
 21
1.3717549E+002
  0
LINE
  5
31f
100
AcDbEntity
  8
3
100
AcDbLine
  6
HIDDEN
 62
6
 10
1.4703265E+002
 20
1.3747547E+002
 11
1.4703265E+002
 21
1.3717549E+002
  0
LINE
  5
320
100
AcDbEntity
  8
3
100
AcDbLine
  6
HIDDEN
 62
6
 10
1.5743265E+002
 20
1.3747547E+002
 11
1.4703265E+002
 21
1.3747547E+002
  0
LINE
  5
321
100
AcDbEntity
  8
3
100
AcDbLine
  6
HIDDEN
 62
6
 10
1.4958266E+002
 20
1.4017546E+002
 11
1.4958266E+002
 21
1.4002547E+002
  0
LINE
  5
322
100
AcDbEntity
  8
3
100
AcDbLine
  6
HIDDEN
 62
6
 10
1.5488265E+002
 20
1.4002547E+002
 11
1.4958266E+002
 21
1.4002547E+002
  0
LINE
  5
323
100
AcDbEntity
  8
3
100
AcDbLine
  6
HIDDEN
 62
6
 10
1.5488265E+002
 20
1.4017546E+002
 11
1.5488265E+002
 21
1.4002547E+002
  0
LINE
  5
324
100
AcDbEntity
  8
3
100
AcDbLine
  6
HIDDEN
 62
6
 10
1.5488265E+002
 20
1.4002547E+002
 11
1.5743265E+002
 21
1.3747547E+002
  0
LINE
  5
325
100
AcDbEntity
  8
3
100
AcDbLine
  6
HIDDEN
 62
6
 10
1.4958266E+002
 20
1.4002547E+002
 11
1.4703265E+002
 21
1.3747547E+002
  0
LINE
  5
326
100
AcDbEntity
  8
3
100
AcDbLine
  6
HIDDEN
 62
6
 10
2.3388263E+002
 20
1.4002547E+002
 11
2.3643263E+002
 21
1.3747547E+002
  0
LINE
  5
327
100
AcDbEntity
  8
3
100
AcDbLine
  6
HIDDEN
 62
6
 10
2.3643263E+002
 20
1.3747547E+002
 11
2.2603263E+002
 21
1.3747547E+002
  0
LINE
  5
328
100
AcDbEntity
  8
3
100
AcDbLine
  6
HIDDEN
 62
6
 10
2.2858263E+002
 20
1.4002547E+002
 11
2.2603263E+002
 21
1.3747547E+002
  0
LINE
  5
329
100
AcDbEntity
  8
3
100
AcDbLine
  6
HIDDEN
 62
6
 10
2.3388263E+002
 20
1.4002547E+002
 11
2.2858263E+002
 21
1.4002547E+002
  0
LINE
  5
32a
100
AcDbEntity
  8
3
100
AcDbLine
  6
HIDDEN
 62
6
 10
2.2858263E+002
 20
1.4017546E+002
 11
2.2858263E+002
 21
1.4002547E+002
  0
LINE
  5
32b
100
AcDbEntity
  8
3
100
AcDbLine
  6
HIDDEN
 62
6
 10
2.3388263E+002
 20
1.4017546E+002
 11
2.3388263E+002
 21
1.4002547E+002
  0
LINE
  5
32c
100
AcDbEntity
  8
3
100
AcDbLine
  6
HIDDEN
 62
6
 10
2.3643263E+002
 20
1.3747547E+002
 11
2.3643263E+002
 21
1.3717549E+002
  0
LINE
  5
32d
100
AcDbEntity
  8
3
100
AcDbLine
  6
HIDDEN
 62
6
 10
2.2603263E+002
 20
1.3747547E+002
 11
2.2603263E+002
 21
1.3717549E+002
  0
LINE
  5
32e
100
AcDbEntity
  8
3
100
AcDbLine
  6
HIDDEN
 62
6
 10
3.0588264E+002
 20
1.4002547E+002
 11
3.0843265E+002
 21
1.3747547E+002
  0
LINE
  5
32f
100
AcDbEntity
  8
3
100
AcDbLine
  6
HIDDEN
 62
6
 10
3.0843265E+002
 20
1.3747547E+002
 11
2.9803265E+002
 21
1.3747547E+002
  0
LINE
  5
330
100
AcDbEntity
  8
3
100
AcDbLine
  6
HIDDEN
 62
6
 10
3.0058265E+002
 20
1.4002547E+002
 11
2.9803265E+002
 21
1.3747547E+002
  0
LINE
  5
331
100
AcDbEntity
  8
3
100
AcDbLine
  6
HIDDEN
 62
6
 10
3.0588264E+002
 20
1.4002547E+002
 11
3.0058265E+002
 21
1.4002547E+002
  0
LINE
  5
332
100
AcDbEntity
  8
3
100
AcDbLine
  6
HIDDEN
 62
6
 10
3.0058265E+002
 20
1.4017546E+002
 11
3.0058265E+002
 21
1.4002547E+002
  0
LINE
  5
333
100
AcDbEntity
  8
3
100
AcDbLine
  6
HIDDEN
 62
6
 10
3.0588264E+002
 20
1.4017546E+002
 11
3.0588264E+002
 21
1.4002547E+002
  0
LINE
  5
334
100
AcDbEntity
  8
3
100
AcDbLine
  6
HIDDEN
 62
6
 10
3.0843265E+002
 20
1.3747547E+002
 11
3.0843265E+002
 21
1.3717549E+002
  0
LINE
  5
335
100
AcDbEntity
  8
3
100
AcDbLine
  6
HIDDEN
 62
6
 10
2.9803265E+002
 20
1.3747547E+002
 11
2.9803265E+002
 21
1.3717549E+002
  0
INSERT
  5
336
100
AcDbEntity
100
AcDbBlockReference
  2
M11
  8
1
 10
3.5673446E+002
 20
5.3843855E+001
  0
INSERT
  5
337
100
AcDbEntity
100
AcDbBlockReference
  2
A3
  8
1
 10
0.0
 20
0.0
 66
1
  0
ATTRIB
  5
338
100
AcDbEntity
  8
1
100
AcDbText
  6
CONTINUOUS
 62
6
 10
3.8965302E+002
 20
3.5139971E+001
 40
4.0
  1
Schliessblech
 41
7.0E-001
 72
1
 11
3.7145302E+002
 21
3.5139971E+001
100
AcDbAttribute
  2
1
 70
0
  0
ATTRIB
  5
339
100
AcDbEntity
  8
1
100
AcDbText
  6
CONTINUOUS
 62
6
 10
3.8965302E+002
 20
2.4028525E+001
 40
4.0
  1
Masszeichnung
 41
7.0E-001
 72
1
 11
3.7145302E+002
 21
2.4028525E+001
100
AcDbAttribute
  2
2
 70
0
  0
ATTRIB
  5
33a
100
AcDbEntity
  8
1
100
AcDbText
  6
CONTINUOUS
 62
6
 10
3.8890302E+002
 20
1.0708917E+001
 40
4.0
  1
141.00-00-18-1000
 41
7.0E-001
 72
1
 11
3.6510302E+002
 21
1.0708917E+001
100
AcDbAttribute
  2
3
 70
0
  0
ATTRIB
  5
33b
100
AcDbEntity
  8
1
100
AcDbText
  6
CONTINUOUS
 62
6
 10
3.8250302E+002
 20
4.98925E+001
 40
3.0
  1
 
 41
7.0E-001
 72
1
 11
3.8145302E+002
 21
4.98925E+001
100
AcDbAttribute
  2
4
 70
0
  0
ATTRIB
  5
33c
100
AcDbEntity
  8
1
100
AcDbText
  6
CONTINUOUS
 62
6
 10
3.8250302E+002
 20
4.4605E+001
 40
3.0
  1
 
 41
7.0E-001
 72
1
 11
3.8145302E+002
 21
4.4605E+001
100
AcDbAttribute
  2
5
 70
0
  0
ATTRIB
  5
33d
100
AcDbEntity
  8
1
100
AcDbText
  6
CONTINUOUS
 62
6
 10
4.0315302E+002
 20
5.53925E+001
 40
3.0
  1
055784
 41
7.0E-001
 72
1
 11
3.9685302E+002
 21
5.53925E+001
100
AcDbAttribute
  2
6
 70
0
  0
ATTRIB
  5
33e
100
AcDbEntity
  8
1
100
AcDbText
  6
CONTINUOUS
 62
6
 10
2.9282753E+002
 20
6.17056
 40
2.5
  1
 
 41
7.0E-001
100
AcDbAttribute
  2
7
 70
0
  0
ATTRIB
  5
33f
100
AcDbEntity
  8
1
100
AcDbText
  6
CONTINUOUS
 62
6
 10
3.3600753E+002
 20
6.17056
 40
2.5
  1
-------116..-04
 41
7.0E-001
100
AcDbAttribute
  2
8
 70
0
  0
ATTRIB
  5
340
100
AcDbEntity
  8
1
100
AcDbText
  6
CONTINUOUS
 62
6
 10
2.8651236E+002
 20
4.0139149E+001
 40
2.0
  1
 
 41
7.0E-001
100
AcDbAttribute
  2
9
 70
0
  0
ATTRIB
  5
341
100
AcDbEntity
  8
1
100
AcDbText
  6
CONTINUOUS
 62
6
 10
2.9625302E+002
 20
3.56575E+001
 40
2.2
  1
02.09.04
 41
7.0E-001
100
AcDbAttribute
  2
10
 70
0
  0
ATTRIB
  5
342
100
AcDbEntity
  8
1
100
AcDbText
  6
CONTINUOUS
 62
6
 10
3.1149302E+002
 20
3.56575E+001
 40
2.2
  1
Nolle
 41
7.0E-001
100
AcDbAttribute
  2
11
 70
0
  0
ATTRIB
  5
343
100
AcDbEntity
  8
1
100
AcDbText
  6
CONTINUOUS
 62
6
 10
2.9625302E+002
 20
3.14275E+001
 40
2.2
  1
 
 41
7.0E-001
100
AcDbAttribute
  2
12
 70
0
  0
ATTRIB
  5
344
100
AcDbEntity
  8
1
100
AcDbText
  6
CONTINUOUS
 62
6
 10
3.1149302E+002
 20
3.14275E+001
 40
2.2
  1
 
 41
7.0E-001
100
AcDbAttribute
  2
13
 70
0
  0
ATTRIB
  5
345
100
AcDbEntity
  8
1
100
AcDbText
  6
CONTINUOUS
 62
6
 10
2.9625302E+002
 20
2.71975E+001
 40
2.2
  1
 
 41
7.0E-001
100
AcDbAttribute
  2
14
 70
0
  0
ATTRIB
  5
346
100
AcDbEntity
  8
1
100
AcDbText
  6
CONTINUOUS
 62
6
 10
3.1149302E+002
 20
2.71975E+001
 40
2.2
  1
 
 41
7.0E-001
100
AcDbAttribute
  2
15
 70
0
  0
ATTRIB
  5
347
100
AcDbEntity
  8
1
100
AcDbText
  6
CONTINUOUS
 62
6
 10
2.9625302E+002
 20
2.29675E+001
 40
2.2
  1
 
 41
7.0E-001
100
AcDbAttribute
  2
16
 70
0
  0
ATTRIB
  5
348
100
AcDbEntity
  8
1
100
AcDbText
  6
CONTINUOUS
 62
6
 10
3.8561543E+002
 20
2.9750496E+001
 40
4.0
  1
face plate
 41
7.0E-001
 72
1
 11
3.7161543E+002
 21
2.9750496E+001
100
AcDbAttribute
  2
17
 70
0
  0
ATTRIB
  5
349
100
AcDbEntity
  8
1
100
AcDbText
  6
CONTINUOUS
 62
6
 10
4.0750623E+002
 20
3.8785527E+001
 40
1.0
  1
 
100
AcDbAttribute
  2
18
 70
0
  0
ATTRIB
  5
34a
100
AcDbEntity
  8
1
100
AcDbText
  6
CONTINUOUS
 62
6
 10
4.0750623E+002
 20
3.7285527E+001
 40
1.0
  1
 
100
AcDbAttribute
  2
19
 70
0
  0
ATTRIB
  5
34b
100
AcDbEntity
  8
1
100
AcDbText
  6
CONTINUOUS
 62
6
 10
4.0750623E+002
 20
3.5785527E+001
 40
1.0
  1
 
100
AcDbAttribute
  2
20
 70
0
  0
ATTRIB
  5
34c
100
AcDbEntity
  8
1
100
AcDbText
  6
CONTINUOUS
 62
6
 10
2.3275302E+002
 20
3.98875E+001
 40
2.0
  1
 
 41
7.0E-001
100
AcDbAttribute
  2
21
 70
0
  0
ATTRIB
  5
34d
100
AcDbEntity
  8
1
100
AcDbText
  6
CONTINUOUS
 62
6
 10
2.4037302E+002
 20
3.98875E+001
 40
2.0
  1
 
 41
7.0E-001
100
AcDbAttribute
  2
22
 70
0
  0
ATTRIB
  5
34e
100
AcDbEntity
  8
1
100
AcDbText
  6
CONTINUOUS
 62
6
 10
2.6577302E+002
 20
3.98875E+001
 40
2.0
  1
 
 41
7.0E-001
100
AcDbAttribute
  2
23
 70
0
  0
ATTRIB
  5
34f
100
AcDbEntity
  8
1
100
AcDbText
  6
CONTINUOUS
 62
6
 10
2.7797302E+002
 20
3.98875E+001
 40
2.0
  1
 
 41
7.0E-001
100
AcDbAttribute
  2
24
 70
0
  0
ATTRIB
  5
350
100
AcDbEntity
  8
1
100
AcDbText
  6
CONTINUOUS
 62
6
 10
2.3275302E+002
 20
3.56575E+001
 40
2.0
  1
 
 41
7.0E-001
100
AcDbAttribute
  2
25
 70
0
  0
ATTRIB
  5
351
100
AcDbEntity
  8
1
100
AcDbText
  6
CONTINUOUS
 62
6
 10
2.4037302E+002
 20
3.56575E+001
 40
2.0
  1
 
 41
7.0E-001
100
AcDbAttribute
  2
26
 70
0
  0
ATTRIB
  5
352
100
AcDbEntity
  8
1
100
AcDbText
  6
CONTINUOUS
 62
6
 10
2.6577302E+002
 20
3.56575E+001
 40
2.0
  1
 
 41
7.0E-001
100
AcDbAttribute
  2
27
 70
0
  0
ATTRIB
  5
353
100
AcDbEntity
  8
1
100
AcDbText
  6
CONTINUOUS
 62
6
 10
2.7797302E+002
 20
3.56575E+001
 40
2.0
  1
 
 41
7.0E-001
100
AcDbAttribute
  2
28
 70
0
  0
ATTRIB
  5
354
100
AcDbEntity
  8
1
100
AcDbText
  6
CONTINUOUS
 62
6
 10
2.3275302E+002
 20
3.14275E+001
 40
2.0
  1
 
 41
7.0E-001
100
AcDbAttribute
  2
29
 70
0
  0
ATTRIB
  5
355
100
AcDbEntity
  8
1
100
AcDbText
  6
CONTINUOUS
 62
6
 10
2.4037302E+002
 20
3.14275E+001
 40
2.0
  1
 
 41
7.0E-001
100
AcDbAttribute
  2
30
 70
0
  0
ATTRIB
  5
356
100
AcDbEntity
  8
1
100
AcDbText
  6
CONTINUOUS
 62
6
 10
2.6577302E+002
 20
3.14275E+001
 40
2.0
  1
 
 41
7.0E-001
100
AcDbAttribute
  2
31
 70
0
  0
ATTRIB
  5
357
100
AcDbEntity
  8
1
100
AcDbText
  6
CONTINUOUS
 62
6
 10
2.7797302E+002
 20
3.14275E+001
 40
2.0
  1
 
 41
7.0E-001
100
AcDbAttribute
  2
32
 70
0
  0
ATTRIB
  5
358
100
AcDbEntity
  8
1
100
AcDbText
  6
CONTINUOUS
 62
6
 10
2.3275302E+002
 20
2.71975E+001
 40
2.0
  1
 
 41
7.0E-001
100
AcDbAttribute
  2
33
 70
0
  0
ATTRIB
  5
359
100
AcDbEntity
  8
1
100
AcDbText
  6
CONTINUOUS
 62
6
 10
2.4037302E+002
 20
2.71975E+001
 40
2.0
  1
 
 41
7.0E-001
100
AcDbAttribute
  2
34
 70
0
  0
ATTRIB
  5
35a
100
AcDbEntity
  8
1
100
AcDbText
  6
CONTINUOUS
 62
6
 10
2.6577302E+002
 20
2.71975E+001
 40
2.0
  1
 
 41
7.0E-001
100
AcDbAttribute
  2
35
 70
0
  0
ATTRIB
  5
35b
100
AcDbEntity
  8
1
100
AcDbText
  6
CONTINUOUS
 62
6
 10
2.7797302E+002
 20
2.71975E+001
 40
2.0
  1
 
 41
7.0E-001
100
AcDbAttribute
  2
36
 70
0
  0
ATTRIB
  5
35c
100
AcDbEntity
  8
1
100
AcDbText
  6
CONTINUOUS
 62
6
 10
2.3275302E+002
 20
2.29675E+001
 40
2.0
  1
 
 41
7.0E-001
100
AcDbAttribute
  2
37
 70
0
  0
ATTRIB
  5
35d
100
AcDbEntity
  8
1
100
AcDbText
  6
CONTINUOUS
 62
6
 10
2.4037302E+002
 20
2.29675E+001
 40
2.0
  1
 
 41
7.0E-001
100
AcDbAttribute
  2
38
 70
0
  0
ATTRIB
  5
35e
100
AcDbEntity
  8
1
100
AcDbText
  6
CONTINUOUS
 62
6
 10
2.6577302E+002
 20
2.29675E+001
 40
2.0
  1
 
 41
7.0E-001
100
AcDbAttribute
  2
39
 70
0
  0
ATTRIB
  5
35f
100
AcDbEntity
  8
1
100
AcDbText
  6
CONTINUOUS
 62
6
 10
2.7797302E+002
 20
2.29675E+001
 40
2.0
  1
 
 41
7.0E-001
100
AcDbAttribute
  2
40
 70
0
  0
ATTRIB
  5
360
100
AcDbEntity
  8
1
100
AcDbText
  6
CONTINUOUS
 62
6
 10
2.3275302E+002
 20
1.87375E+001
 40
2.0
  1
 
 41
7.0E-001
100
AcDbAttribute
  2
41
 70
0
  0
ATTRIB
  5
361
100
AcDbEntity
  8
1
100
AcDbText
  6
CONTINUOUS
 62
6
 10
2.4037302E+002
 20
1.87375E+001
 40
2.0
  1
 
 41
7.0E-001
100
AcDbAttribute
  2
42
 70
0
  0
ATTRIB
  5
362
100
AcDbEntity
  8
1
100
AcDbText
  6
CONTINUOUS
 62
6
 10
2.6577302E+002
 20
1.87375E+001
 40
2.0
  1
 
 41
7.0E-001
100
AcDbAttribute
  2
43
 70
0
  0
ATTRIB
  5
363
100
AcDbEntity
  8
1
100
AcDbText
  6
CONTINUOUS
 62
6
 10
2.7797302E+002
 20
1.87375E+001
 40
2.0
  1
 
 41
7.0E-001
100
AcDbAttribute
  2
44
 70
0
  0
ATTRIB
  5
364
100
AcDbEntity
  8
1
100
AcDbText
  6
CONTINUOUS
 62
6
 10
2.3275302E+002
 20
1.45075E+001
 40
2.0
  1
 
 41
7.0E-001
100
AcDbAttribute
  2
45
 70
0
  0
ATTRIB
  5
365
100
AcDbEntity
  8
1
100
AcDbText
  6
CONTINUOUS
 62
6
 10
2.4037302E+002
 20
1.45075E+001
 40
2.0
  1
 
 41
7.0E-001
100
AcDbAttribute
  2
46
 70
0
  0
ATTRIB
  5
366
100
AcDbEntity
  8
1
100
AcDbText
  6
CONTINUOUS
 62
6
 10
2.6577302E+002
 20
1.45075E+001
 40
2.0
  1
 
 41
7.0E-001
100
AcDbAttribute
  2
47
 70
0
  0
ATTRIB
  5
367
100
AcDbEntity
  8
1
100
AcDbText
  6
CONTINUOUS
 62
6
 10
2.7797302E+002
 20
1.45075E+001
 40
2.0
  1
 
 41
7.0E-001
100
AcDbAttribute
  2
48
 70
0
  0
ATTRIB
  5
368
100
AcDbEntity
  8
1
100
AcDbText
  6
CONTINUOUS
 62
6
 10
2.3275302E+002
 20
1.02775E+001
 40
2.0
  1
 
 41
7.0E-001
100
AcDbAttribute
  2
49
 70
0
  0
ATTRIB
  5
369
100
AcDbEntity
  8
1
100
AcDbText
  6
CONTINUOUS
 62
6
 10
2.4037302E+002
 20
1.02775E+001
 40
2.0
  1
 
 41
7.0E-001
100
AcDbAttribute
  2
50
 70
0
  0
ATTRIB
  5
36a
100
AcDbEntity
  8
1
100
AcDbText
  6
CONTINUOUS
 62
6
 10
2.6577302E+002
 20
1.02775E+001
 40
2.0
  1
 
 41
7.0E-001
100
AcDbAttribute
  2
51
 70
0
  0
ATTRIB
  5
36b
100
AcDbEntity
  8
1
100
AcDbText
  6
CONTINUOUS
 62
6
 10
2.7797302E+002
 20
1.02775E+001
 40
2.0
  1
 
 41
7.0E-001
100
AcDbAttribute
  2
52
 70
0
  0
SEQEND
  5
36c
100
AcDbEntity
  0
POLYLINE
  5
36d
100
AcDbEntity
  8
4
100
AcDb2dPolyline
  6
CONTINUOUS
 62
2
 66
1
 40
5.0E-001
 41
5.0E-001
 70
0
  0
VERTEX
  5
36e
100
AcDbEntity
  8
4
100
AcDbVertex
100
AcDb2dVertex
 42
0.0
 10
7.3744851E+001
 20
2.0872435E+002
 70
0
  0
VERTEX
  5
36f
100
AcDbEntity
  8
4
100
AcDbVertex
100
AcDb2dVertex
 42
0.0
 10
7.0744851E+001
 20
2.0872435E+002
 70
0
  0
SEQEND
  5
370
100
AcDbEntity
  0
POLYLINE
  5
371
100
AcDbEntity
  8
4
100
AcDb2dPolyline
  6
CONTINUOUS
 62
2
 66
1
 40
5.0E-001
 41
5.0E-001
 70
0
  0
VERTEX
  5
372
100
AcDbEntity
  8
4
100
AcDbVertex
100
AcDb2dVertex
 42
0.0
 10
7.3744851E+001
 20
2.3372435E+002
 70
0
  0
VERTEX
  5
373
100
AcDbEntity
  8
4
100
AcDbVertex
100
AcDb2dVertex
 42
0.0
 10
7.0744851E+001
 20
2.3372435E+002
 70
0
  0
SEQEND
  5
374
100
AcDbEntity
  0
POLYLINE
  5
375
100
AcDbEntity
  8
4
100
AcDb2dPolyline
  6
CONTINUOUS
 62
2
 66
1
 40
5.0E-001
 41
5.0E-001
 70
0
  0
VERTEX
  5
376
100
AcDbEntity
  8
4
100
AcDbVertex
100
AcDb2dVertex
 42
0.0
 10
7.3744851E+001
 20
2.3372435E+002
 70
0
  0
VERTEX
  5
377
100
AcDbEntity
  8
4
100
AcDbVertex
100
AcDb2dVertex
 42
0.0
 10
7.3744851E+001
 20
2.0872435E+002
 70
0
  0
SEQEND
  5
378
100
AcDbEntity
  0
POLYLINE
  5
379
100
AcDbEntity
  8
4
100
AcDb2dPolyline
  6
CONTINUOUS
 62
2
 66
1
 40
5.0E-001
 41
5.0E-001
 70
0
  0
VERTEX
  5
37a
100
AcDbEntity
  8
4
100
AcDbVertex
100
AcDb2dVertex
 42
0.0
 10
7.0744851E+001
 20
2.0872435E+002
 70
0
  0
VERTEX
  5
37b
100
AcDbEntity
  8
4
100
AcDbVertex
100
AcDb2dVertex
 42
0.0
 10
7.0744851E+001
 20
2.3372435E+002
 70
0
  0
SEQEND
  5
37c
100
AcDbEntity
  0
LINE
  5
37d
100
AcDbEntity
  8
3
100
AcDbLine
  6
HIDDEN
 62
3
 10
2.6123265E+002
 20
1.45348E+002
 11
2.6123265E+002
 21
1.3180911E+002
  0
DIMENSION
  5
37e
100
AcDbEntity
  8
2
100
AcDbDimension
  6
CONTINUOUS
 62
3
  2
*D1294
  3
DSTYLE3
 10
3.4523265E+002
 20
2.4355415E+002
 11
3.009907E+002
 21
2.4655515E+002
 70
128
100
AcDbAlignedDimension
 13
2.6123265E+002
 23
2.404815E+002
 14
3.4523265E+002
 24
2.3372435E+002
 40
3.0
 50
0.0
100
AcDbRotatedDimension
1001
ACAD
1000
DSTYLE
1002
{
1070
173
1070
0
1070
5
1000
_AH1
1070
47
1040
2.0E-001
1070
48
1040
2.0E-001
1002
}
  0
DIMENSION
  5
37f
100
AcDbEntity
  8
2
100
AcDbDimension
  6
CONTINUOUS
 62
3
  2
*D1295
  3
DSTYLE2
 10
1.4523265E+002
 20
2.5226705E+002
 11
2.3941803E+002
 21
2.5639305E+002
 70
128
100
AcDbAlignedDimension
 13
3.4523265E+002
 23
2.3372435E+002
 14
1.4523265E+002
 24
2.3372435E+002
 40
3.0
 50
0.0
100
AcDbRotatedDimension
1001
ACAD
1000
DSTYLE
1002
{
1070
173
1070
0
1070
5
1000
_AH1
1070
47
1040
1.0E-001
1070
48
1040
-1.0E-001
1002
}
  0
DIMENSION
  5
380
100
AcDbEntity
  8
2
100
AcDbDimension
  6
CONTINUOUS
 62
3
  2
*D1296
  3
DSTYLE1
 10
3.5387564E+002
 20
2.2557435E+002
 11
3.5087464E+002
 21
2.3904799E+002
 70
129
100
AcDbAlignedDimension
 13
3.3823265E+002
 23
2.3087435E+002
 14
3.3823265E+002
 24
2.2557435E+002
 40
3.0
1001
ACAD
1000
DSTYLE
1002
{
1070
173
1070
0
1070
5
1000
_AH1
1002
}
  0
DIMENSION
  5
381
100
AcDbEntity
  8
2
100
AcDbDimension
  6
CONTINUOUS
 62
3
  2
*D1297
  3
DSTYLE1
 10
3.630919E+002
 20
2.2302435E+002
 11
3.600909E+002
 21
2.4245874E+002
 70
129
100
AcDbAlignedDimension
 13
3.3823265E+002
 23
2.3342435E+002
 14
3.3823265E+002
 24
2.2302435E+002
 40
3.0
1001
ACAD
1000
DSTYLE
1002
{
1070
173
1070
0
1070
5
1000
_AH1
1002
}
  0
INSERT
  5
382
100
AcDbEntity
100
AcDbBlockReference
  2
*D1298
  8
2
 62
3
 10
0.0
 20
0.0
  0
ELLIPSE
  5
383
100
AcDbEntity
  8
5
100
AcDbEllipse
  6
CONTINUOUS
 10
2.2614003E+002
 20
2.1998358E+001
 11
3.5671708
 21
-3.7835555
 40
7.0710678E-001
 41
0.0
 42
6.2831853
 62
6
  0
POLYLINE
  5
384
100
AcDbEntity
  8
5
100
AcDb2dPolyline
  6
CONTINUOUS
 62
6
 66
1
 40
0.0
 41
0.0
 70
2
  0
VERTEX
  5
385
100
AcDbEntity
  8
5
100
AcDbVertex
100
AcDb2dVertex
 42
0.0
 10
2.2265152E+002
 20
2.58531E+001
 70
0
  0
VERTEX
  5
386
100
AcDbEntity
  8
5
100
AcDbVertex
100
AcDb2dVertex
 42
2.2836503E-002
 10
2.2250116E+002
 20
2.5685669E+001
 70
1
  0
VERTEX
  5
387
100
AcDbEntity
  8
5
100
AcDbVertex
100
AcDb2dVertex
 42
2.1683259E-002
 10
2.2236361E+002
 20
2.5502414E+001
 70
0
  0
VERTEX
  5
388
100
AcDbEntity
  8
5
100
AcDbVertex
100
AcDb2dVertex
 42
2.0941655E-002
 10
2.2223917E+002
 20
2.530259E+001
 70
1
  0
VERTEX
  5
389
100
AcDbEntity
  8
5
100
AcDbVertex
100
AcDb2dVertex
 42
2.1207446E-002
 10
2.2212882E+002
 20
2.5087469E+001
 70
0
  0
VERTEX
  5
38a
100
AcDbEntity
  8
5
100
AcDbVertex
100
AcDb2dVertex
 42
2.0876377E-002
 10
2.220349E+002
 20
2.4857265E+001
 70
1
  0
VERTEX
  5
38b
100
AcDbEntity
  8
5
100
AcDbVertex
100
AcDb2dVertex
 42
2.0268821E-002
 10
2.2195783E+002
 20
2.4613612E+001
 70
0
  0
VERTEX
  5
38c
100
AcDbEntity
  8
5
100
AcDbVertex
100
AcDb2dVertex
 42
1.9502787E-002
 10
2.2189921E+002
 20
2.4357145E+001
 70
1
  0
VERTEX
  5
38d
100
AcDbEntity
  8
5
100
AcDbVertex
100
AcDb2dVertex
 42
1.883732E-002
 10
2.2185901E+002
 20
2.4089828E+001
 70
0
  0
VERTEX
  5
38e
100
AcDbEntity
  8
5
100
AcDbVertex
100
AcDb2dVertex
 42
1.802483E-002
 10
2.2183861E+002
 20
2.3812835E+001
 70
1
  0
VERTEX
  5
38f
100
AcDbEntity
  8
5
100
AcDbVertex
100
AcDb2dVertex
 42
1.7234554E-002
 10
2.2183742E+002
 20
2.3528311E+001
 70
0
  0
VERTEX
  5
390
100
AcDbEntity
  8
5
100
AcDbVertex
100
AcDb2dVertex
 42
1.6418578E-002
 10
2.218563E+002
 20
2.323784E+001
 70
1
  0
VERTEX
  5
391
100
AcDbEntity
  8
5
100
AcDbVertex
100
AcDb2dVertex
 42
1.5644715E-002
 10
2.2189417E+002
 20
2.2943577E+001
 70
0
  0
VERTEX
  5
392
100
AcDbEntity
  8
5
100
AcDbVertex
100
AcDb2dVertex
 42
1.4908142E-002
 10
2.2195135E+002
 20
2.2647378E+001
 70
1
  0
VERTEX
  5
393
100
AcDbEntity
  8
5
100
AcDbVertex
100
AcDb2dVertex
 42
1.4190461E-002
 10
2.2202633E+002
 20
2.235123E+001
 70
0
  0
VERTEX
  5
394
100
AcDbEntity
  8
5
100
AcDbVertex
100
AcDb2dVertex
 42
1.3558509E-002
 10
2.221189E+002
 20
2.2057088E+001
 70
1
  0
VERTEX
  5
395
100
AcDbEntity
  8
5
100
AcDbVertex
100
AcDb2dVertex
 42
1.2922928E-002
 10
2.2222724E+002
 20
2.1766615E+001
 70
0
  0
VERTEX
  5
396
100
AcDbEntity
  8
5
100
AcDbVertex
100
AcDb2dVertex
 42
1.2400378E-002
 10
2.2235073E+002
 20
2.1481702E+001
 70
1
  0
VERTEX
  5
397
100
AcDbEntity
  8
5
100
AcDbVertex
100
AcDb2dVertex
 42
1.184795E-002
 10
2.2248737E+002
 20
2.1203581E+001
 70
0
  0
VERTEX
  5
398
100
AcDbEntity
  8
5
100
AcDbVertex
100
AcDb2dVertex
 42
1.1428294E-002
 10
2.2263624E+002
 20
2.0933943E+001
 70
1
  0
VERTEX
  5
399
100
AcDbEntity
  8
5
100
AcDbVertex
100
AcDb2dVertex
 42
1.0959295E-002
 10
2.2279535E+002
 20
2.0673543E+001
 70
0
  0
VERTEX
  5
39a
100
AcDbEntity
  8
5
100
AcDbVertex
100
AcDb2dVertex
 42
1.0620136E-002
 10
2.2296359E+002
 20
2.0423785E+001
 70
1
  0
VERTEX
  5
39b
100
AcDbEntity
  8
5
100
AcDbVertex
100
AcDb2dVertex
 42
1.0202527E-002
 10
2.2313909E+002
 20
2.018497E+001
 70
0
  0
VERTEX
  5
39c
100
AcDbEntity
  8
5
100
AcDbVertex
100
AcDb2dVertex
 42
9.9590731E-003
 10
2.2332065E+002
 20
1.9958184E+001
 70
1
  0
VERTEX
  5
39d
100
AcDbEntity
  8
5
100
AcDbVertex
100
AcDb2dVertex
 42
9.6600918E-003
 10
2.2350677E+002
 20
1.9743272E+001
 70
0
  0
VERTEX
  5
39e
100
AcDbEntity
  8
5
100
AcDbVertex
100
AcDb2dVertex
 42
9.390413E-003
 10
2.236963E+002
 20
1.9540988E+001
 70
1
  0
VERTEX
  5
39f
100
AcDbEntity
  8
5
100
AcDbVertex
100
AcDb2dVertex
 42
8.924649E-003
 10
2.238876E+002
 20
1.9351031E+001
 70
0
  0
VERTEX
  5
3a0
100
AcDbEntity
  8
5
100
AcDbVertex
100
AcDb2dVertex
 42
9.1246951E-003
 10
2.2408027E+002
 20
1.9173274E+001
 70
1
  0
VERTEX
  5
3a1
100
AcDbEntity
  8
5
100
AcDbVertex
100
AcDb2dVertex
 42
9.2062939E-003
 10
2.2427892E+002
 20
1.9002954E+001
 70
0
  0
VERTEX
  5
3a2
100
AcDbEntity
  8
5
100
AcDbVertex
100
AcDb2dVertex
 42
9.123548E-003
 10
2.2448878E+002
 20
1.88362E+001
 70
1
  0
VERTEX
  5
3a3
100
AcDbEntity
  8
5
100
AcDbVertex
100
AcDb2dVertex
 42
9.727842E-003
 10
2.2470956E+002
 20
1.8673745E+001
 70
0
  0
VERTEX
  5
3a4
100
AcDbEntity
  8
5
100
AcDbVertex
100
AcDb2dVertex
 42
1.015936E-002
 10
2.249409E+002
 20
1.8517673E+001
 70
1
  0
VERTEX
  5
3a5
100
AcDbEntity
  8
5
100
AcDbVertex
100
AcDb2dVertex
 42
1.0594661E-002
 10
2.2518192E+002
 20
1.8369031E+001
 70
0
  0
VERTEX
  5
3a6
100
AcDbEntity
  8
5
100
AcDbVertex
100
AcDb2dVertex
 42
1.1003572E-002
 10
2.2543249E+002
 20
1.8229412E+001
 70
1
  0
VERTEX
  5
3a7
100
AcDbEntity
  8
5
100
AcDbVertex
100
AcDb2dVertex
 42
1.1630402E-002
 10
2.2569138E+002
 20
1.8099906E+001
 70
0
  0
VERTEX
  5
3a8
100
AcDbEntity
  8
5
100
AcDbVertex
100
AcDb2dVertex
 42
1.2139121E-002
 10
2.2595793E+002
 20
1.7982464E+001
 70
1
  0
VERTEX
  5
3a9
100
AcDbEntity
  8
5
100
AcDbVertex
100
AcDb2dVertex
 42
1.2739645E-002
 10
2.2623055E+002
 20
1.7877953E+001
 70
0
  0
VERTEX
  5
3aa
100
AcDbEntity
  8
5
100
AcDbVertex
100
AcDb2dVertex
 42
1.3487494E-002
 10
2.2650814E+002
 20
1.7788308E+001
 70
1
  0
VERTEX
  5
3ab
100
AcDbEntity
  8
5
100
AcDbVertex
100
AcDb2dVertex
 42
1.4563724E-002
 10
2.2678925E+002
 20
1.7714376E+001
 70
0
  0
VERTEX
  5
3ac
100
AcDbEntity
  8
5
100
AcDbVertex
100
AcDb2dVertex
 42
1.4939302E-002
 10
2.2707244E+002
 20
1.7658096E+001
 70
1
  0
VERTEX
  5
3ad
100
AcDbEntity
  8
5
100
AcDbVertex
100
AcDb2dVertex
 42
1.4800729E-002
 10
2.273548E+002
 20
1.7618956E+001
 70
0
  0
VERTEX
  5
3ae
100
AcDbEntity
  8
5
100
AcDbVertex
100
AcDb2dVertex
 42
1.7092033E-002
 10
2.276341E+002
 20
1.7598301E+001
 70
1
  0
VERTEX
  5
3af
100
AcDbEntity
  8
5
100
AcDbVertex
100
AcDb2dVertex
 42
2.1447144E-002
 10
2.2791279E+002
 20
1.7598961E+001
 70
0
  0
VERTEX
  5
3b0
100
AcDbEntity
  8
5
100
AcDbVertex
100
AcDb2dVertex
 42
1.7502961E-002
 10
2.2819022E+002
 20
1.7623199E+001
 70
1
  0
VERTEX
  5
3b1
100
AcDbEntity
  8
5
100
AcDbVertex
100
AcDb2dVertex
 42
6.9855119E-003
 10
2.2844808E+002
 20
1.7658214E+001
 70
0
  0
VERTEX
  5
3b2
100
AcDbEntity
  8
5
100
AcDbVertex
100
AcDb2dVertex
 42
2.551454E-002
 10
2.2867846E+002
 20
1.7700562E+001
 70
1
  0
VERTEX
  5
3b3
100
AcDbEntity
  8
5
100
AcDbVertex
100
AcDb2dVertex
 42
4.7205512E-002
 10
2.2894615E+002
 20
1.7796504E+001
 70
0
  0
VERTEX
  5
3b4
100
AcDbEntity
  8
5
100
AcDbVertex
100
AcDb2dVertex
 42
2.4788281E-002
 10
2.2931866E+002
 20
1.7996236E+001
 70
1
  0
VERTEX
  5
3b5
100
AcDbEntity
  8
5
100
AcDbVertex
100
AcDb2dVertex
 42
1.3347061E-002
 10
2.2978289E+002
 20
1.8289138E+001
 70
0
  0
SEQEND
  5
3b6
100
AcDbEntity
  0
POLYLINE
  5
3b7
100
AcDbEntity
  8
5
100
AcDb2dPolyline
  6
CONTINUOUS
 62
1
 66
1
 40
0.0
 41
0.0
 70
2
  0
VERTEX
  5
3b8
100
AcDbEntity
  8
5
100
AcDbVertex
100
AcDb2dVertex
 42
0.0
 10
2.2582778E+002
 20
2.5344577E+001
 70
0
  0
VERTEX
  5
3b9
100
AcDbEntity
  8
5
100
AcDbVertex
100
AcDb2dVertex
 42
2.2844392E-002
 10
2.2575107E+002
 20
2.5259297E+001
 70
1
  0
VERTEX
  5
3ba
100
AcDbEntity
  8
5
100
AcDbVertex
100
AcDb2dVertex
 42
2.1690664E-002
 10
2.256809E+002
 20
2.5165945E+001
 70
0
  0
VERTEX
  5
3bb
100
AcDbEntity
  8
5
100
AcDbVertex
100
AcDb2dVertex
 42
2.0949625E-002
 10
2.256174E+002
 20
2.5064142E+001
 70
1
  0
VERTEX
  5
3bc
100
AcDbEntity
  8
5
100
AcDbVertex
100
AcDb2dVertex
 42
2.121748E-002
 10
2.2556108E+002
 20
2.4954535E+001
 70
0
  0
VERTEX
  5
3bd
100
AcDbEntity
  8
5
100
AcDbVertex
100
AcDb2dVertex
 42
2.0887413E-002
 10
2.2551314E+002
 20
2.4837233E+001
 70
1
  0
VERTEX
  5
3be
100
AcDbEntity
  8
5
100
AcDbVertex
100
AcDb2dVertex
 42
2.0280347E-002
 10
2.2547379E+002
 20
2.4713068E+001
 70
0
  0
VERTEX
  5
3bf
100
AcDbEntity
  8
5
100
AcDbVertex
100
AcDb2dVertex
 42
1.9514319E-002
 10
2.2544384E+002
 20
2.4582363E+001
 70
1
  0
VERTEX
  5
3c0
100
AcDbEntity
  8
5
100
AcDbVertex
100
AcDb2dVertex
 42
1.8848882E-002
 10
2.2542328E+002
 20
2.444612E+001
 70
0
  0
VERTEX
  5
3c1
100
AcDbEntity
  8
5
100
AcDbVertex
100
AcDb2dVertex
 42
1.8035944E-002
 10
2.2541282E+002
 20
2.4304938E+001
 70
1
  0
VERTEX
  5
3c2
100
AcDbEntity
  8
5
100
AcDbVertex
100
AcDb2dVertex
 42
1.7245211E-002
 10
2.2541216E+002
 20
2.4159909E+001
 70
0
  0
VERTEX
  5
3c3
100
AcDbEntity
  8
5
100
AcDbVertex
100
AcDb2dVertex
 42
1.6428525E-002
 10
2.2542173E+002
 20
2.4011842E+001
 70
1
  0
VERTEX
  5
3c4
100
AcDbEntity
  8
5
100
AcDbVertex
100
AcDb2dVertex
 42
1.5654021E-002
 10
2.2544099E+002
 20
2.3861836E+001
 70
0
  0
VERTEX
  5
3c5
100
AcDbEntity
  8
5
100
AcDbVertex
100
AcDb2dVertex
 42
1.4916703E-002
 10
2.254701E+002
 20
2.3710837E+001
 70
1
  0
VERTEX
  5
3c6
100
AcDbEntity
  8
5
100
AcDbVertex
100
AcDb2dVertex
 42
1.4198352E-002
 10
2.2550828E+002
 20
2.3559861E+001
 70
0
  0
VERTEX
  5
3c7
100
AcDbEntity
  8
5
100
AcDbVertex
100
AcDb2dVertex
 42
1.3565733E-002
 10
2.2555544E+002
 20
2.3409903E+001
 70
1
  0
VERTEX
  5
3c8
100
AcDbEntity
  8
5
100
AcDbVertex
100
AcDb2dVertex
 42
1.2929543E-002
 10
2.2561064E+002
 20
2.3261814E+001
 70
0
  0
VERTEX
  5
3c9
100
AcDbEntity
  8
5
100
AcDbVertex
100
AcDb2dVertex
 42
1.2406449E-002
 10
2.2567357E+002
 20
2.3116556E+001
 70
1
  0
VERTEX
  5
3ca
100
AcDbEntity
  8
5
100
AcDbVertex
100
AcDb2dVertex
 42
1.1853506E-002
 10
2.2574321E+002
 20
2.2974761E+001
 70
0
  0
VERTEX
  5
3cb
100
AcDbEntity
  8
5
100
AcDbVertex
100
AcDb2dVertex
 42
1.1433429E-002
 10
2.2581909E+002
 20
2.283729E+001
 70
1
  0
VERTEX
  5
3cc
100
AcDbEntity
  8
5
100
AcDbVertex
100
AcDb2dVertex
 42
1.0964005E-002
 10
2.2590019E+002
 20
2.2704528E+001
 70
0
  0
VERTEX
  5
3cd
100
AcDbEntity
  8
5
100
AcDbVertex
100
AcDb2dVertex
 42
1.0624541E-002
 10
2.2598595E+002
 20
2.2577193E+001
 70
1
  0
VERTEX
  5
3ce
100
AcDbEntity
  8
5
100
AcDbVertex
100
AcDb2dVertex
 42
1.0206596E-002
 10
2.2607541E+002
 20
2.2455438E+001
 70
0
  0
VERTEX
  5
3cf
100
AcDbEntity
  8
5
100
AcDbVertex
100
AcDb2dVertex
 42
9.962911E-003
 10
2.2616797E+002
 20
2.2339817E+001
 70
1
  0
VERTEX
  5
3d0
100
AcDbEntity
  8
5
100
AcDbVertex
100
AcDb2dVertex
 42
9.66366E-003
 10
2.2626285E+002
 20
2.2230251E+001
 70
0
  0
VERTEX
  5
3d1
100
AcDbEntity
  8
5
100
AcDbVertex
100
AcDb2dVertex
 42
9.3938372E-003
 10
2.2635947E+002
 20
2.2127125E+001
 70
1
  0
VERTEX
  5
3d2
100
AcDbEntity
  8
5
100
AcDbVertex
100
AcDb2dVertex
 42
8.9277656E-003
 10
2.26457E+002
 20
2.2030285E+001
 70
0
  0
VERTEX
  5
3d3
100
AcDbEntity
  8
5
100
AcDbVertex
100
AcDb2dVertex
 42
9.1279474E-003
 10
2.2655522E+002
 20
2.1939667E+001
 70
1
  0
VERTEX
  5
3d4
100
AcDbEntity
  8
5
100
AcDbVertex
100
AcDb2dVertex
 42
9.2097422E-003
 10
2.2665649E+002
 20
2.185284E+001
 70
0
  0
VERTEX
  5
3d5
100
AcDbEntity
  8
5
100
AcDbVertex
100
AcDb2dVertex
 42
9.1269768E-003
 10
2.2676348E+002
 20
2.1767832E+001
 70
1
  0
VERTEX
  5
3d6
100
AcDbEntity
  8
5
100
AcDbVertex
100
AcDb2dVertex
 42
9.7317424E-003
 10
2.2687604E+002
 20
2.1685017E+001
 70
0
  0
VERTEX
  5
3d7
100
AcDbEntity
  8
5
100
AcDbVertex
100
AcDb2dVertex
 42
1.0163656E-002
 10
2.2699399E+002
 20
2.1605459E+001
 70
1
  0
VERTEX
  5
3d8
100
AcDbEntity
  8
5
100
AcDbVertex
100
AcDb2dVertex
 42
1.0599321E-002
 10
2.2711687E+002
 20
2.152969E+001
 70
0
  0
VERTEX
  5
3d9
100
AcDbEntity
  8
5
100
AcDbVertex
100
AcDb2dVertex
 42
1.1008593E-002
 10
2.2724461E+002
 20
2.1458525E+001
 70
1
  0
VERTEX
  5
3da
100
AcDbEntity
  8
5
100
AcDbVertex
100
AcDb2dVertex
 42
1.1635983E-002
 10
2.2737661E+002
 20
2.1392519E+001
 70
0
  0
VERTEX
  5
3db
100
AcDbEntity
  8
5
100
AcDbVertex
100
AcDb2dVertex
 42
1.2145232E-002
 10
2.275125E+002
 20
2.1332668E+001
 70
1
  0
VERTEX
  5
3dc
100
AcDbEntity
  8
5
100
AcDbVertex
100
AcDb2dVertex
 42
1.2746379E-002
 10
2.276515E+002
 20
2.1279413E+001
 70
0
  0
VERTEX
  5
3dd
100
AcDbEntity
  8
5
100
AcDbVertex
100
AcDb2dVertex
 42
1.3494909E-002
 10
2.2779302E+002
 20
2.1233741E+001
 70
1
  0
VERTEX
  5
3de
100
AcDbEntity
  8
5
100
AcDbVertex
100
AcDb2dVertex
 42
1.4571993E-002
 10
2.2793633E+002
 20
2.1196086E+001
 70
0
  0
VERTEX
  5
3df
100
AcDbEntity
  8
5
100
AcDbVertex
100
AcDb2dVertex
 42
1.4948246E-002
 10
2.280807E+002
 20
2.1167435E+001
 70
1
  0
VERTEX
  5
3e0
100
AcDbEntity
  8
5
100
AcDbVertex
100
AcDb2dVertex
 42
1.4810077E-002
 10
2.2822464E+002
 20
2.1147527E+001
 70
0
  0
VERTEX
  5
3e1
100
AcDbEntity
  8
5
100
AcDbVertex
100
AcDb2dVertex
 42
1.7102723E-002
 10
2.2836702E+002
 20
2.1137047E+001
 70
1
  0
VERTEX
  5
3e2
100
AcDbEntity
  8
5
100
AcDbVertex
100
AcDb2dVertex
 42
2.1460117E-002
 10
2.2850908E+002
 20
2.113744E+001
 70
0
  0
VERTEX
  5
3e3
100
AcDbEntity
  8
5
100
AcDbVertex
100
AcDb2dVertex
 42
1.7514483E-002
 10
2.2865049E+002
 20
2.1149858E+001
 70
1
  0
VERTEX
  5
3e4
100
AcDbEntity
  8
5
100
AcDbVertex
100
AcDb2dVertex
 42
6.992011E-003
 10
2.2878192E+002
 20
2.1167769E+001
 70
0
  0
VERTEX
  5
3e5
100
AcDbEntity
  8
5
100
AcDbVertex
100
AcDb2dVertex
 42
2.552944E-002
 10
2.2889934E+002
 20
2.1189416E+001
 70
1
  0
VERTEX
  5
3e6
100
AcDbEntity
  8
5
100
AcDbVertex
100
AcDb2dVertex
 42
4.7229958E-002
 10
2.2903576E+002
 20
2.1238402E+001
 70
0
  0
VERTEX
  5
3e7
100
AcDbEntity
  8
5
100
AcDbVertex
100
AcDb2dVertex
 42
2.4800808E-002
 10
2.2922557E+002
 20
2.1340338E+001
 70
1
  0
VERTEX
  5
3e8
100
AcDbEntity
  8
5
100
AcDbVertex
100
AcDb2dVertex
 42
1.3353792E-002
 10
2.2946209E+002
 20
2.1489806E+001
 70
0
  0
SEQEND
  5
3e9
100
AcDbEntity
  0
POLYLINE
  5
3ea
100
AcDbEntity
  8
5
100
AcDb2dPolyline
  6
CONTINUOUS
 62
6
 66
1
 40
0.0
 41
0.0
 70
2
  0
VERTEX
  5
3eb
100
AcDbEntity
  8
5
100
AcDbVertex
100
AcDb2dVertex
 42
0.0
 10
2.2987872E+002
 20
2.2609565E+001
 70
0
  0
VERTEX
  5
3ec
100
AcDbEntity
  8
5
100
AcDbVertex
100
AcDb2dVertex
 42
2.1656916E-003
 10
2.2987864E+002
 20
2.2627549E+001
 70
1
  0
VERTEX
  5
3ed
100
AcDbEntity
  8
5
100
AcDbVertex
100
AcDb2dVertex
 42
2.1203343E-003
 10
2.2987841E+002
 20
2.2645667E+001
 70
0
  0
VERTEX
  5
3ee
100
AcDbEntity
  8
5
100
AcDbVertex
100
AcDb2dVertex
 42
2.1006678E-003
 10
2.2987802E+002
 20
2.2663923E+001
 70
1
  0
VERTEX
  5
3ef
100
AcDbEntity
  8
5
100
AcDbVertex
100
AcDb2dVertex
 42
2.1119842E-003
 10
2.2987747E+002
 20
2.2682311E+001
 70
0
  0
VERTEX
  5
3f0
100
AcDbEntity
  8
5
100
AcDbVertex
100
AcDb2dVertex
 42
2.1107042E-003
 10
2.2987676E+002
 20
2.2700837E+001
 70
1
  0
VERTEX
  5
3f1
100
AcDbEntity
  8
5
100
AcDbVertex
100
AcDb2dVertex
 42
2.107619E-003
 10
2.2987589E+002
 20
2.2719493E+001
 70
0
  0
VERTEX
  5
3f2
100
AcDbEntity
  8
5
100
AcDbVertex
100
AcDb2dVertex
 42
2.101532E-003
 10
2.2987485E+002
 20
2.2738285E+001
 70
1
  0
VERTEX
  5
3f3
100
AcDbEntity
  8
5
100
AcDbVertex
100
AcDb2dVertex
 42
2.1017211E-003
 10
2.2987364E+002
 20
2.2757207E+001
 70
0
  0
VERTEX
  5
3f4
100
AcDbEntity
  8
5
100
AcDbVertex
100
AcDb2dVertex
 42
2.0968593E-003
 10
2.2987226E+002
 20
2.2776263E+001
 70
1
  0
VERTEX
  5
3f5
100
AcDbEntity
  8
5
100
AcDbVertex
100
AcDb2dVertex
 42
2.0964326E-003
 10
2.2987071E+002
 20
2.2795447E+001
 70
0
  0
VERTEX
  5
3f6
100
AcDbEntity
  8
5
100
AcDbVertex
100
AcDb2dVertex
 42
2.0905776E-003
 10
2.2986899E+002
 20
2.2814763E+001
 70
1
  0
VERTEX
  5
3f7
100
AcDbEntity
  8
5
100
AcDbVertex
100
AcDb2dVertex
 42
2.0886982E-003
 10
2.2986709E+002
 20
2.2834204E+001
 70
0
  0
VERTEX
  5
3f8
100
AcDbEntity
  8
5
100
AcDbVertex
100
AcDb2dVertex
 42
2.0849694E-003
 10
2.2986501E+002
 20
2.2853776E+001
 70
1
  0
VERTEX
  5
3f9
100
AcDbEntity
  8
5
100
AcDbVertex
100
AcDb2dVertex
 42
2.0881473E-003
 10
2.2986275E+002
 20
2.2873472E+001
 70
0
  0
VERTEX
  5
3fa
100
AcDbEntity
  8
5
100
AcDbVertex
100
AcDb2dVertex
 42
2.0769541E-003
 10
2.2986031E+002
 20
2.2893299E+001
 70
1
  0
VERTEX
  5
3fb
100
AcDbEntity
  8
5
100
AcDbVertex
100
AcDb2dVertex
 42
2.062284E-003
 10
2.2985769E+002
 20
2.2913241E+001
 70
0
  0
VERTEX
  5
3fc
100
AcDbEntity
  8
5
100
AcDbVertex
100
AcDb2dVertex
 42
2.0762227E-003
 10
2.2985487E+002
 20
2.29333E+001
 70
1
  0
VERTEX
  5
3fd
100
AcDbEntity
  8
5
100
AcDbVertex
100
AcDb2dVertex
 42
2.1199263E-003
 10
2.2985187E+002
 20
2.2953501E+001
 70
0
  0
VERTEX
  5
3fe
100
AcDbEntity
  8
5
100
AcDbVertex
100
AcDb2dVertex
 42
2.0497758E-003
 10
2.2984867E+002
 20
2.2973856E+001
 70
1
  0
VERTEX
  5
3ff
100
AcDbEntity
  8
5
100
AcDbVertex
100
AcDb2dVertex
 42
1.9054552E-003
 10
2.2984529E+002
 20
2.2994241E+001
 70
0
  0
VERTEX
  5
400
100
AcDbEntity
  8
5
100
AcDbVertex
100
AcDb2dVertex
 42
2.110581E-003
 10
2.2984176E+002
 20
2.3014617E+001
 70
1
  0
VERTEX
  5
401
100
AcDbEntity
  8
5
100
AcDbVertex
100
AcDb2dVertex
 42
2.5295089E-003
 10
2.2983794E+002
 20
2.3035449E+001
 70
0
  0
VERTEX
  5
402
100
AcDbEntity
  8
5
100
AcDbVertex
100
AcDb2dVertex
 42
1.8908823E-003
 10
2.298338E+002
 20
2.3056903E+001
 70
1
  0
VERTEX
  5
403
100
AcDbEntity
  8
5
100
AcDbVertex
100
AcDb2dVertex
 42
6.026168E-004
 10
2.2982979E+002
 20
2.3077113E+001
 70
0
  0
VERTEX
  5
404
100
AcDbEntity
  8
5
100
AcDbVertex
100
AcDb2dVertex
 42
2.7044268E-003
 10
2.2982607E+002
 20
2.3095441E+001
 70
1
  0
VERTEX
  5
405
100
AcDbEntity
  8
5
100
AcDbVertex
100
AcDb2dVertex
 42
4.6363483E-003
 10
2.2982083E+002
 20
2.3119219E+001
 70
0
  0
VERTEX
  5
406
100
AcDbEntity
  8
5
100
AcDbVertex
100
AcDb2dVertex
 42
2.2209997E-003
 10
2.2981216E+002
 20
2.3156149E+001
 70
1
  0
VERTEX
  5
407
100
AcDbEntity
  8
5
100
AcDbVertex
100
AcDb2dVertex
 42
1.1587217E-003
 10
2.2980044E+002
 20
2.3204696E+001
 70
0
  0
SEQEND
  5
408
100
AcDbEntity
  0
POLYLINE
  5
409
100
AcDbEntity
  8
5
100
AcDb2dPolyline
  6
CONTINUOUS
 62
6
 66
1
 40
0.0
 41
0.0
 70
2
  0
VERTEX
  5
40a
100
AcDbEntity
  8
5
100
AcDbVertex
100
AcDb2dVertex
 42
0.0
 10
2.2751896E+002
 20
2.5594126E+001
 70
0
  0
VERTEX
  5
40b
100
AcDbEntity
  8
5
100
AcDbVertex
100
AcDb2dVertex
 42
1.35365E-002
 10
2.2736499E+002
 20
2.5635239E+001
 70
1
  0
VERTEX
  5
40c
100
AcDbEntity
  8
5
100
AcDbVertex
100
AcDb2dVertex
 42
1.5352289E-002
 10
2.2721597E+002
 20
2.566608E+001
 70
0
  0
VERTEX
  5
40d
100
AcDbEntity
  8
5
100
AcDbVertex
100
AcDb2dVertex
 42
1.634693E-002
 10
2.2707203E+002
 20
2.5686132E+001
 70
1
  0
VERTEX
  5
40e
100
AcDbEntity
  8
5
100
AcDbVertex
100
AcDb2dVertex
 42
1.6240542E-002
 10
2.2693349E+002
 20
2.569644E+001
 70
0
  0
VERTEX
  5
40f
100
AcDbEntity
  8
5
100
AcDbVertex
100
AcDb2dVertex
 42
1.6360681E-002
 10
2.2680129E+002
 20
2.5697416E+001
 70
1
  0
VERTEX
  5
410
100
AcDbEntity
  8
5
100
AcDbVertex
100
AcDb2dVertex
 42
1.6295053E-002
 10
2.2667603E+002
 20
2.5690287E+001
 70
0
  0
VERTEX
  5
411
100
AcDbEntity
  8
5
100
AcDbVertex
100
AcDb2dVertex
 42
1.7102943E-002
 10
2.2655838E+002
 20
2.567549E+001
 70
1
  0
VERTEX
  5
412
100
AcDbEntity
  8
5
100
AcDbVertex
100
AcDb2dVertex
 42
1.7221647E-002
 10
2.2644582E+002
 20
2.5653473E+001
 70
0
  0
VERTEX
  5
413
100
AcDbEntity
  8
5
100
AcDbVertex
100
AcDb2dVertex
 42
1.7684399E-002
 10
2.2633606E+002
 20
2.56238E+001
 70
1
  0
VERTEX
  5
414
100
AcDbEntity
  8
5
100
AcDbVertex
100
AcDb2dVertex
 42
1.9103384E-002
 10
2.2622803E+002
 20
2.5585984E+001
 70
0
  0
VERTEX
  5
415
100
AcDbEntity
  8
5
100
AcDbVertex
100
AcDb2dVertex
 42
1.9905506E-002
 10
2.2612144E+002
 20
2.5538807E+001
 70
1
  0
VERTEX
  5
416
100
AcDbEntity
  8
5
100
AcDbVertex
100
AcDb2dVertex
 42
2.1212962E-002
 10
2.2601723E+002
 20
2.5482199E+001
 70
0
  0
VERTEX
  5
417
100
AcDbEntity
  8
5
100
AcDbVertex
100
AcDb2dVertex
 42
2.2148741E-002
 10
2.2591678E+002
 20
2.5415414E+001
 70
1
  0
VERTEX
  5
418
100
AcDbEntity
  8
5
100
AcDbVertex
100
AcDb2dVertex
 42
2.3040795E-002
 10
2.2582092E+002
 20
2.5338574E+001
 70
0
  0
VERTEX
  5
419
100
AcDbEntity
  8
5
100
AcDbVertex
100
AcDb2dVertex
 42
2.3475728E-002
 10
2.2573087E+002
 20
2.5251028E+001
 70
1
  0
VERTEX
  5
41a
100
AcDbEntity
  8
5
100
AcDbVertex
100
AcDb2dVertex
 42
2.39854E-002
 10
2.2564745E+002
 20
2.5153195E+001
 70
0
  0
VERTEX
  5
41b
100
AcDbEntity
  8
5
100
AcDbVertex
100
AcDb2dVertex
 42
2.3957802E-002
 10
2.2557205E+002
 20
2.5044744E+001
 70
1
  0
VERTEX
  5
41c
100
AcDbEntity
  8
5
100
AcDbVertex
100
AcDb2dVertex
 42
2.3882191E-002
 10
2.2550535E+002
 20
2.4926424E+001
 70
0
  0
VERTEX
  5
41d
100
AcDbEntity
  8
5
100
AcDbVertex
100
AcDb2dVertex
 42
2.3340312E-002
 10
2.254487E+002
 20
2.4798276E+001
 70
1
  0
VERTEX
  5
41e
100
AcDbEntity
  8
5
100
AcDbVertex
100
AcDb2dVertex
 42
2.2787303E-002
 10
2.254025E+002
 20
2.4661377E+001
 70
0
  0
VERTEX
  5
41f
100
AcDbEntity
  8
5
100
AcDbVertex
100
AcDb2dVertex
 42
2.1901628E-002
 10
2.2536795E+002
 20
2.451619E+001
 70
1
  0
VERTEX
  5
420
100
AcDbEntity
  8
5
100
AcDbVertex
100
AcDb2dVertex
 42
2.1038794E-002
 10
2.2534509E+002
 20
2.4364061E+001
 70
0
  0
VERTEX
  5
421
100
AcDbEntity
  8
5
100
AcDbVertex
100
AcDb2dVertex
 42
2.0010079E-002
 10
2.2533482E+002
 20
2.4205849E+001
 70
1
  0
VERTEX
  5
422
100
AcDbEntity
  8
5
100
AcDbVertex
100
AcDb2dVertex
 42
1.9032516E-002
 10
2.2533677E+002
 20
2.4043055E+001
 70
0
  0
VERTEX
  5
423
100
AcDbEntity
  8
5
100
AcDbVertex
100
AcDb2dVertex
 42
1.802849E-002
 10
2.2535145E+002
 20
2.3876851E+001
 70
1
  0
VERTEX
  5
424
100
AcDbEntity
  8
5
100
AcDbVertex
100
AcDb2dVertex
 42
1.7071656E-002
 10
2.2537808E+002
 20
2.3708741E+001
 70
0
  0
VERTEX
  5
425
100
AcDbEntity
  8
5
100
AcDbVertex
100
AcDb2dVertex
 42
1.6186126E-002
 10
2.2541675E+002
 20
2.3540074E+001
 70
1
  0
VERTEX
  5
426
100
AcDbEntity
  8
5
100
AcDbVertex
100
AcDb2dVertex
 42
1.532203E-002
 10
2.2546636E+002
 20
2.3372204E+001
 70
0
  0
VERTEX
  5
427
100
AcDbEntity
  8
5
100
AcDbVertex
100
AcDb2dVertex
 42
1.458771E-002
 10
2.2552661E+002
 20
2.3206507E+001
 70
1
  0
VERTEX
  5
428
100
AcDbEntity
  8
5
100
AcDbVertex
100
AcDb2dVertex
 42
1.3838555E-002
 10
2.2559619E+002
 20
2.3044056E+001
 70
0
  0
VERTEX
  5
429
100
AcDbEntity
  8
5
100
AcDbVertex
100
AcDb2dVertex
 42
1.3255359E-002
 10
2.2567449E+002
 20
2.288612E+001
 70
1
  0
VERTEX
  5
42a
100
AcDbEntity
  8
5
100
AcDbVertex
100
AcDb2dVertex
 42
1.2625928E-002
 10
2.2576014E+002
 20
2.2733417E+001
 70
0
  0
VERTEX
  5
42b
100
AcDbEntity
  8
5
100
AcDbVertex
100
AcDb2dVertex
 42
1.2166018E-002
 10
2.2585235E+002
 20
2.2587008E+001
 70
1
  0
VERTEX
  5
42c
100
AcDbEntity
  8
5
100
AcDbVertex
100
AcDb2dVertex
 42
1.1618531E-002
 10
2.2594979E+002
 20
2.2447247E+001
 70
0
  0
VERTEX
  5
42d
100
AcDbEntity
  8
5
100
AcDbVertex
100
AcDb2dVertex
 42
1.1291766E-002
 10
2.2605159E+002
 20
2.2314941E+001
 70
1
  0
VERTEX
  5
42e
100
AcDbEntity
  8
5
100
AcDbVertex
100
AcDb2dVertex
 42
1.0899576E-002
 10
2.2615664E+002
 20
2.2190092E+001
 70
0
  0
VERTEX
  5
42f
100
AcDbEntity
  8
5
100
AcDbVertex
100
AcDb2dVertex
 42
1.0561476E-002
 10
2.2626411E+002
 20
2.2073247E+001
 70
1
  0
VERTEX
  5
430
100
AcDbEntity
  8
5
100
AcDbVertex
100
AcDb2dVertex
 42
9.9774011E-003
 10
2.2637286E+002
 20
2.1964194E+001
 70
0
  0
VERTEX
  5
431
100
AcDbEntity
  8
5
100
AcDbVertex
100
AcDb2dVertex
 42
1.0224014E-002
 10
2.2648261E+002
 20
2.1862829E+001
 70
1
  0
VERTEX
  5
432
100
AcDbEntity
  8
5
100
AcDbVertex
100
AcDb2dVertex
 42
1.034118E-002
 10
2.2659624E+002
 20
2.1766174E+001
 70
0
  0
VERTEX
  5
433
100
AcDbEntity
  8
5
100
AcDbVertex
100
AcDb2dVertex
 42
1.0244839E-002
 10
2.2671703E+002
 20
2.1671852E+001
 70
1
  0
VERTEX
  5
434
100
AcDbEntity
  8
5
100
AcDbVertex
100
AcDb2dVertex
 42
1.101014E-002
 10
2.2684473E+002
 20
2.1580462E+001
 70
0
  0
VERTEX
  5
435
100
AcDbEntity
  8
5
100
AcDbVertex
100
AcDb2dVertex
 42
1.1571699E-002
 10
2.2697903E+002
 20
2.1493482E+001
 70
1
  0
VERTEX
  5
436
100
AcDbEntity
  8
5
100
AcDbVertex
100
AcDb2dVertex
 42
1.2147701E-002
 10
2.2711926E+002
 20
2.1411682E+001
 70
0
  0
VERTEX
  5
437
100
AcDbEntity
  8
5
100
AcDbVertex
100
AcDb2dVertex
 42
1.2681557E-002
 10
2.2726524E+002
 20
2.1336209E+001
 70
1
  0
VERTEX
  5
438
100
AcDbEntity
  8
5
100
AcDbVertex
100
AcDb2dVertex
 42
1.3483943E-002
 10
2.2741605E+002
 20
2.1267834E+001
 70
0
  0
VERTEX
  5
439
100
AcDbEntity
  8
5
100
AcDbVertex
100
AcDb2dVertex
 42
1.4212727E-002
 10
2.2757104E+002
 20
2.1207924E+001
 70
1
  0
VERTEX
  5
43a
100
AcDbEntity
  8
5
100
AcDbVertex
100
AcDb2dVertex
 42
1.5124057E-002
 10
2.277291E+002
 20
2.1157095E+001
 70
0
  0
VERTEX
  5
43b
100
AcDbEntity
  8
5
100
AcDbVertex
100
AcDb2dVertex
 42
1.6005388E-002
 10
2.2788927E+002
 20
2.1116667E+001
 70
1
  0
VERTEX
  5
43c
100
AcDbEntity
  8
5
100
AcDbVertex
100
AcDb2dVertex
 42
1.7069087E-002
 10
2.2805029E+002
 20
2.1086999E+001
 70
0
  0
VERTEX
  5
43d
100
AcDbEntity
  8
5
100
AcDbVertex
100
AcDb2dVertex
 42
1.8113804E-002
 10
2.282109E+002
 20
2.1069266E+001
 70
1
  0
VERTEX
  5
43e
100
AcDbEntity
  8
5
100
AcDbVertex
100
AcDb2dVertex
 42
1.9267023E-002
 10
2.2836981E+002
 20
2.1063471E+001
 70
0
  0
VERTEX
  5
43f
100
AcDbEntity
  8
5
100
AcDbVertex
100
AcDb2dVertex
 42
2.042257E-002
 10
2.2852557E+002
 20
2.1070494E+001
 70
1
  0
VERTEX
  5
440
100
AcDbEntity
  8
5
100
AcDbVertex
100
AcDb2dVertex
 42
2.1596156E-002
 10
2.2867701E+002
 20
2.1089939E+001
 70
0
  0
VERTEX
  5
441
100
AcDbEntity
  8
5
100
AcDbVertex
100
AcDb2dVertex
 42
2.2673828E-002
 10
2.2882261E+002
 20
2.1122302E+001
 70
1
  0
VERTEX
  5
442
100
AcDbEntity
  8
5
100
AcDbVertex
100
AcDb2dVertex
 42
2.3525111E-002
 10
2.2896146E+002
 20
2.1166721E+001
 70
0
  0
VERTEX
  5
443
100
AcDbEntity
  8
5
100
AcDbVertex
100
AcDb2dVertex
 42
2.448676E-002
 10
2.2909216E+002
 20
2.122324E+001
 70
1
  0
VERTEX
  5
444
100
AcDbEntity
  8
5
100
AcDbVertex
100
AcDb2dVertex
 42
2.5308813E-002
 10
2.2921414E+002
 20
2.1290868E+001
 70
0
  0
VERTEX
  5
445
100
AcDbEntity
  8
5
100
AcDbVertex
100
AcDb2dVertex
 42
2.5183169E-002
 10
2.2932626E+002
 20
2.1369316E+001
 70
1
  0
VERTEX
  5
446
100
AcDbEntity
  8
5
100
AcDbVertex
100
AcDb2dVertex
 42
2.3898854E-002
 10
2.2942832E+002
 20
2.1456524E+001
 70
0
  0
VERTEX
  5
447
100
AcDbEntity
  8
5
100
AcDbVertex
100
AcDb2dVertex
 42
2.5252104E-002
 10
2.2951946E+002
 20
2.1551582E+001
 70
1
  0
VERTEX
  5
448
100
AcDbEntity
  8
5
100
AcDbVertex
100
AcDb2dVertex
 42
2.7934234E-002
 10
2.2960012E+002
 20
2.1655713E+001
 70
0
  0
VERTEX
  5
449
100
AcDbEntity
  8
5
100
AcDbVertex
100
AcDb2dVertex
 42
2.1967678E-002
 10
2.2966985E+002
 20
2.1768955E+001
 70
1
  0
VERTEX
  5
44a
100
AcDbEntity
  8
5
100
AcDbVertex
100
AcDb2dVertex
 42
1.0550195E-002
 10
2.2972857E+002
 20
2.1879357E+001
 70
0
  0
VERTEX
  5
44b
100
AcDbEntity
  8
5
100
AcDbVertex
100
AcDb2dVertex
 42
2.6251503E-002
 10
2.2977585E+002
 20
2.1982312E+001
 70
1
  0
VERTEX
  5
44c
100
AcDbEntity
  8
5
100
AcDbVertex
100
AcDb2dVertex
 42
4.0194024E-002
 10
2.2981526E+002
 20
2.2118291E+001
 70
0
  0
VERTEX
  5
44d
100
AcDbEntity
  8
5
100
AcDbVertex
100
AcDb2dVertex
 42
1.9878094E-002
 10
2.2984963E+002
 20
2.2330259E+001
 70
1
  0
VERTEX
  5
44e
100
AcDbEntity
  8
5
100
AcDbVertex
100
AcDb2dVertex
 42
1.0866098E-002
 10
2.2987872E+002
 20
2.2609565E+001
 70
0
  0
SEQEND
  5
44f
100
AcDbEntity
  0
ELLIPSE
  5
450
100
AcDbEntity
  8
5
100
AcDbEllipse
  6
CONTINUOUS
 10
1.8583787E+002
 20
3.0317331E+001
 11
3.5671708
 21
-3.7835555
 40
7.0710678E-001
 41
0.0
 42
6.2831853
 62
6
  0
POLYLINE
  5
451
100
AcDbEntity
  8
5
100
AcDb2dPolyline
  6
CONTINUOUS
 62
6
 66
1
 40
0.0
 41
0.0
 70
2
  0
VERTEX
  5
452
100
AcDbEntity
  8
5
100
AcDbVertex
100
AcDb2dVertex
 42
0.0
 10
1.8234935E+002
 20
3.4172072E+001
 70
0
  0
VERTEX
  5
453
100
AcDbEntity
  8
5
100
AcDbVertex
100
AcDb2dVertex
 42
2.2836503E-002
 10
1.8219899E+002
 20
3.4004641E+001
 70
1
  0
VERTEX
  5
454
100
AcDbEntity
  8
5
100
AcDbVertex
100
AcDb2dVertex
 42
2.1683259E-002
 10
1.8206144E+002
 20
3.3821387E+001
 70
0
  0
VERTEX
  5
455
100
AcDbEntity
  8
5
100
AcDbVertex
100
AcDb2dVertex
 42
2.0941655E-002
 10
1.8193701E+002
 20
3.3621562E+001
 70
1
  0
VERTEX
  5
456
100
AcDbEntity
  8
5
100
AcDbVertex
100
AcDb2dVertex
 42
2.1207446E-002
 10
1.8182665E+002
 20
3.3406442E+001
 70
0
  0
VERTEX
  5
457
100
AcDbEntity
  8
5
100
AcDbVertex
100
AcDb2dVertex
 42
2.0876377E-002
 10
1.8173274E+002
 20
3.3176238E+001
 70
1
  0
VERTEX
  5
458
100
AcDbEntity
  8
5
100
AcDbVertex
100
AcDb2dVertex
 42
2.0268821E-002
 10
1.8165566E+002
 20
3.2932585E+001
 70
0
  0
VERTEX
  5
459
100
AcDbEntity
  8
5
100
AcDbVertex
100
AcDb2dVertex
 42
1.9502787E-002
 10
1.8159704E+002
 20
3.2676118E+001
 70
1
  0
VERTEX
  5
45a
100
AcDbEntity
  8
5
100
AcDbVertex
100
AcDb2dVertex
 42
1.883732E-002
 10
1.8155684E+002
 20
3.24088E+001
 70
0
  0
VERTEX
  5
45b
100
AcDbEntity
  8
5
100
AcDbVertex
100
AcDb2dVertex
 42
1.802483E-002
 10
1.8153644E+002
 20
3.2131808E+001
 70
1
  0
VERTEX
  5
45c
100
AcDbEntity
  8
5
100
AcDbVertex
100
AcDb2dVertex
 42
1.7234554E-002
 10
1.8153525E+002
 20
3.1847284E+001
 70
0
  0
VERTEX
  5
45d
100
AcDbEntity
  8
5
100
AcDbVertex
100
AcDb2dVertex
 42
1.6418578E-002
 10
1.8155413E+002
 20
3.1556813E+001
 70
1
  0
VERTEX
  5
45e
100
AcDbEntity
  8
5
100
AcDbVertex
100
AcDb2dVertex
 42
1.5644715E-002
 10
1.81592E+002
 20
3.1262549E+001
 70
0
  0
VERTEX
  5
45f
100
AcDbEntity
  8
5
100
AcDbVertex
100
AcDb2dVertex
 42
1.4908142E-002
 10
1.8164919E+002
 20
3.096635E+001
 70
1
  0
VERTEX
  5
460
100
AcDbEntity
  8
5
100
AcDbVertex
100
AcDb2dVertex
 42
1.4190461E-002
 10
1.8172416E+002
 20
3.0670202E+001
 70
0
  0
VERTEX
  5
461
100
AcDbEntity
  8
5
100
AcDbVertex
100
AcDb2dVertex
 42
1.3558509E-002
 10
1.8181673E+002
 20
3.037606E+001
 70
1
  0
VERTEX
  5
462
100
AcDbEntity
  8
5
100
AcDbVertex
100
AcDb2dVertex
 42
1.2922928E-002
 10
1.8192507E+002
 20
3.0085588E+001
 70
0
  0
VERTEX
  5
463
100
AcDbEntity
  8
5
100
AcDbVertex
100
AcDb2dVertex
 42
1.2400378E-002
 10
1.8204856E+002
 20
2.9800674E+001
 70
1
  0
VERTEX
  5
464
100
AcDbEntity
  8
5
100
AcDbVertex
100
AcDb2dVertex
 42
1.184795E-002
 10
1.8218521E+002
 20
2.9522553E+001
 70
0
  0
VERTEX
  5
465
100
AcDbEntity
  8
5
100
AcDbVertex
100
AcDb2dVertex
 42
1.1428294E-002
 10
1.8233407E+002
 20
2.9252916E+001
 70
1
  0
VERTEX
  5
466
100
AcDbEntity
  8
5
100
AcDbVertex
100
AcDb2dVertex
 42
1.0959295E-002
 10
1.8249318E+002
 20
2.8992516E+001
 70
0
  0
VERTEX
  5
467
100
AcDbEntity
  8
5
100
AcDbVertex
100
AcDb2dVertex
 42
1.0620136E-002
 10
1.8266142E+002
 20
2.8742758E+001
 70
1
  0
VERTEX
  5
468
100
AcDbEntity
  8
5
100
AcDbVertex
100
AcDb2dVertex
 42
1.0202527E-002
 10
1.8283692E+002
 20
2.8503943E+001
 70
0
  0
VERTEX
  5
469
100
AcDbEntity
  8
5
100
AcDbVertex
100
AcDb2dVertex
 42
9.9590731E-003
 10
1.8301848E+002
 20
2.8277157E+001
 70
1
  0
VERTEX
  5
46a
100
AcDbEntity
  8
5
100
AcDbVertex
100
AcDb2dVertex
 42
9.6600918E-003
 10
1.832046E+002
 20
2.8062245E+001
 70
0
  0
VERTEX
  5
46b
100
AcDbEntity
  8
5
100
AcDbVertex
100
AcDb2dVertex
 42
9.390413E-003
 10
1.8339413E+002
 20
2.7859961E+001
 70
1
  0
VERTEX
  5
46c
100
AcDbEntity
  8
5
100
AcDbVertex
100
AcDb2dVertex
 42
8.924649E-003
 10
1.8358543E+002
 20
2.7670003E+001
 70
0
  0
VERTEX
  5
46d
100
AcDbEntity
  8
5
100
AcDbVertex
100
AcDb2dVertex
 42
9.1246951E-003
 10
1.837781E+002
 20
2.7492247E+001
 70
1
  0
VERTEX
  5
46e
100
AcDbEntity
  8
5
100
AcDbVertex
100
AcDb2dVertex
 42
9.2062939E-003
 10
1.8397675E+002
 20
2.7321926E+001
 70
0
  0
VERTEX
  5
46f
100
AcDbEntity
  8
5
100
AcDbVertex
100
AcDb2dVertex
 42
9.123548E-003
 10
1.8418661E+002
 20
2.7155172E+001
 70
1
  0
VERTEX
  5
470
100
AcDbEntity
  8
5
100
AcDbVertex
100
AcDb2dVertex
 42
9.727842E-003
 10
1.8440739E+002
 20
2.6992717E+001
 70
0
  0
VERTEX
  5
471
100
AcDbEntity
  8
5
100
AcDbVertex
100
AcDb2dVertex
 42
1.015936E-002
 10
1.8463874E+002
 20
2.6836645E+001
 70
1
  0
VERTEX
  5
472
100
AcDbEntity
  8
5
100
AcDbVertex
100
AcDb2dVertex
 42
1.0594661E-002
 10
1.8487975E+002
 20
2.6688003E+001
 70
0
  0
VERTEX
  5
473
100
AcDbEntity
  8
5
100
AcDbVertex
100
AcDb2dVertex
 42
1.1003572E-002
 10
1.8513032E+002
 20
2.6548384E+001
 70
1
  0
VERTEX
  5
474
100
AcDbEntity
  8
5
100
AcDbVertex
100
AcDb2dVertex
 42
1.1630402E-002
 10
1.8538921E+002
 20
2.6418879E+001
 70
0
  0
VERTEX
  5
475
100
AcDbEntity
  8
5
100
AcDbVertex
100
AcDb2dVertex
 42
1.2139121E-002
 10
1.8565576E+002
 20
2.6301437E+001
 70
1
  0
VERTEX
  5
476
100
AcDbEntity
  8
5
100
AcDbVertex
100
AcDb2dVertex
 42
1.2739645E-002
 10
1.8592839E+002
 20
2.6196926E+001
 70
0
  0
VERTEX
  5
477
100
AcDbEntity
  8
5
100
AcDbVertex
100
AcDb2dVertex
 42
1.3487494E-002
 10
1.8620597E+002
 20
2.610728E+001
 70
1
  0
VERTEX
  5
478
100
AcDbEntity
  8
5
100
AcDbVertex
100
AcDb2dVertex
 42
1.4563724E-002
 10
1.8648708E+002
 20
2.6033349E+001
 70
0
  0
VERTEX
  5
479
100
AcDbEntity
  8
5
100
AcDbVertex
100
AcDb2dVertex
 42
1.4939302E-002
 10
1.8677027E+002
 20
2.5977069E+001
 70
1
  0
VERTEX
  5
47a
100
AcDbEntity
  8
5
100
AcDbVertex
100
AcDb2dVertex
 42
1.4800729E-002
 10
1.8705263E+002
 20
2.5937928E+001
 70
0
  0
VERTEX
  5
47b
100
AcDbEntity
  8
5
100
AcDbVertex
100
AcDb2dVertex
 42
1.7092033E-002
 10
1.8733193E+002
 20
2.5917274E+001
 70
1
  0
VERTEX
  5
47c
100
AcDbEntity
  8
5
100
AcDbVertex
100
AcDb2dVertex
 42
2.1447144E-002
 10
1.8761062E+002
 20
2.5917933E+001
 70
0
  0
VERTEX
  5
47d
100
AcDbEntity
  8
5
100
AcDbVertex
100
AcDb2dVertex
 42
1.7502961E-002
 10
1.8788805E+002
 20
2.5942171E+001
 70
1
  0
VERTEX
  5
47e
100
AcDbEntity
  8
5
100
AcDbVertex
100
AcDb2dVertex
 42
6.9855119E-003
 10
1.8814591E+002
 20
2.5977186E+001
 70
0
  0
VERTEX
  5
47f
100
AcDbEntity
  8
5
100
AcDbVertex
100
AcDb2dVertex
 42
2.551454E-002
 10
1.8837629E+002
 20
2.6019534E+001
 70
1
  0
VERTEX
  5
480
100
AcDbEntity
  8
5
100
AcDbVertex
100
AcDb2dVertex
 42
4.7205512E-002
 10
1.8864398E+002
 20
2.6115476E+001
 70
0
  0
VERTEX
  5
481
100
AcDbEntity
  8
5
100
AcDbVertex
100
AcDb2dVertex
 42
2.4788281E-002
 10
1.8901649E+002
 20
2.6315209E+001
 70
1
  0
VERTEX
  5
482
100
AcDbEntity
  8
5
100
AcDbVertex
100
AcDb2dVertex
 42
1.3347061E-002
 10
1.8948073E+002
 20
2.660811E+001
 70
0
  0
SEQEND
  5
483
100
AcDbEntity
  0
POLYLINE
  5
484
100
AcDbEntity
  8
5
100
AcDb2dPolyline
  6
CONTINUOUS
 62
1
 66
1
 40
0.0
 41
0.0
 70
2
  0
VERTEX
  5
485
100
AcDbEntity
  8
5
100
AcDbVertex
100
AcDb2dVertex
 42
0.0
 10
1.8552561E+002
 20
3.366355E+001
 70
0
  0
VERTEX
  5
486
100
AcDbEntity
  8
5
100
AcDbVertex
100
AcDb2dVertex
 42
2.2844392E-002
 10
1.8544891E+002
 20
3.3578269E+001
 70
1
  0
VERTEX
  5
487
100
AcDbEntity
  8
5
100
AcDbVertex
100
AcDb2dVertex
 42
2.1690664E-002
 10
1.8537873E+002
 20
3.3484918E+001
 70
0
  0
VERTEX
  5
488
100
AcDbEntity
  8
5
100
AcDbVertex
100
AcDb2dVertex
 42
2.0949625E-002
 10
1.8531523E+002
 20
3.3383114E+001
 70
1
  0
VERTEX
  5
489
100
AcDbEntity
  8
5
100
AcDbVertex
100
AcDb2dVertex
 42
2.121748E-002
 10
1.8525891E+002
 20
3.3273508E+001
 70
0
  0
VERTEX
  5
48a
100
AcDbEntity
  8
5
100
AcDbVertex
100
AcDb2dVertex
 42
2.0887413E-002
 10
1.8521097E+002
 20
3.3156206E+001
 70
1
  0
VERTEX
  5
48b
100
AcDbEntity
  8
5
100
AcDbVertex
100
AcDb2dVertex
 42
2.0280347E-002
 10
1.8517162E+002
 20
3.303204E+001
 70
0
  0
VERTEX
  5
48c
100
AcDbEntity
  8
5
100
AcDbVertex
100
AcDb2dVertex
 42
1.9514319E-002
 10
1.8514167E+002
 20
3.2901336E+001
 70
1
  0
VERTEX
  5
48d
100
AcDbEntity
  8
5
100
AcDbVertex
100
AcDb2dVertex
 42
1.8848882E-002
 10
1.8512112E+002
 20
3.2765093E+001
 70
0
  0
VERTEX
  5
48e
100
AcDbEntity
  8
5
100
AcDbVertex
100
AcDb2dVertex
 42
1.8035944E-002
 10
1.8511065E+002
 20
3.262391E+001
 70
1
  0
VERTEX
  5
48f
100
AcDbEntity
  8
5
100
AcDbVertex
100
AcDb2dVertex
 42
1.7245211E-002
 10
1.8510999E+002
 20
3.2478882E+001
 70
0
  0
VERTEX
  5
490
100
AcDbEntity
  8
5
100
AcDbVertex
100
AcDb2dVertex
 42
1.6428525E-002
 10
1.8511956E+002
 20
3.2330814E+001
 70
1
  0
VERTEX
  5
491
100
AcDbEntity
  8
5
100
AcDbVertex
100
AcDb2dVertex
 42
1.5654021E-002
 10
1.8513882E+002
 20
3.2180808E+001
 70
0
  0
VERTEX
  5
492
100
AcDbEntity
  8
5
100
AcDbVertex
100
AcDb2dVertex
 42
1.4916703E-002
 10
1.8516793E+002
 20
3.202981E+001
 70
1
  0
VERTEX
  5
493
100
AcDbEntity
  8
5
100
AcDbVertex
100
AcDb2dVertex
 42
1.4198352E-002
 10
1.8520611E+002
 20
3.1878833E+001
 70
0
  0
VERTEX
  5
494
100
AcDbEntity
  8
5
100
AcDbVertex
100
AcDb2dVertex
 42
1.3565733E-002
 10
1.8525327E+002
 20
3.1728876E+001
 70
1
  0
VERTEX
  5
495
100
AcDbEntity
  8
5
100
AcDbVertex
100
AcDb2dVertex
 42
1.2929543E-002
 10
1.8530847E+002
 20
3.1580786E+001
 70
0
  0
VERTEX
  5
496
100
AcDbEntity
  8
5
100
AcDbVertex
100
AcDb2dVertex
 42
1.2406449E-002
 10
1.853714E+002
 20
3.1435529E+001
 70
1
  0
VERTEX
  5
497
100
AcDbEntity
  8
5
100
AcDbVertex
100
AcDb2dVertex
 42
1.1853506E-002
 10
1.8544104E+002
 20
3.1293733E+001
 70
0
  0
VERTEX
  5
498
100
AcDbEntity
  8
5
100
AcDbVertex
100
AcDb2dVertex
 42
1.1433429E-002
 10
1.8551692E+002
 20
3.1156262E+001
 70
1
  0
VERTEX
  5
499
100
AcDbEntity
  8
5
100
AcDbVertex
100
AcDb2dVertex
 42
1.0964005E-002
 10
1.8559802E+002
 20
3.1023501E+001
 70
0
  0
VERTEX
  5
49a
100
AcDbEntity
  8
5
100
AcDbVertex
100
AcDb2dVertex
 42
1.0624541E-002
 10
1.8568378E+002
 20
3.0896166E+001
 70
1
  0
VERTEX
  5
49b
100
AcDbEntity
  8
5
100
AcDbVertex
100
AcDb2dVertex
 42
1.0206596E-002
 10
1.8577325E+002
 20
3.077441E+001
 70
0
  0
VERTEX
  5
49c
100
AcDbEntity
  8
5
100
AcDbVertex
100
AcDb2dVertex
 42
9.962911E-003
 10
1.858658E+002
 20
3.0658789E+001
 70
1
  0
VERTEX
  5
49d
100
AcDbEntity
  8
5
100
AcDbVertex
100
AcDb2dVertex
 42
9.66366E-003
 10
1.8596068E+002
 20
3.0549224E+001
 70
0
  0
VERTEX
  5
49e
100
AcDbEntity
  8
5
100
AcDbVertex
100
AcDb2dVertex
 42
9.3938372E-003
 10
1.860573E+002
 20
3.0446098E+001
 70
1
  0
VERTEX
  5
49f
100
AcDbEntity
  8
5
100
AcDbVertex
100
AcDb2dVertex
 42
8.9277656E-003
 10
1.8615483E+002
 20
3.0349258E+001
 70
0
  0
VERTEX
  5
4a0
100
AcDbEntity
  8
5
100
AcDbVertex
100
AcDb2dVertex
 42
9.1279474E-003
 10
1.8625305E+002
 20
3.025864E+001
 70
1
  0
VERTEX
  5
4a1
100
AcDbEntity
  8
5
100
AcDbVertex
100
AcDb2dVertex
 42
9.2097422E-003
 10
1.8635432E+002
 20
3.0171813E+001
 70
0
  0
VERTEX
  5
4a2
100
AcDbEntity
  8
5
100
AcDbVertex
100
AcDb2dVertex
 42
9.1269768E-003
 10
1.8646131E+002
 20
3.0086805E+001
 70
1
  0
VERTEX
  5
4a3
100
AcDbEntity
  8
5
100
AcDbVertex
100
AcDb2dVertex
 42
9.7317424E-003
 10
1.8657387E+002
 20
3.000399E+001
 70
0
  0
VERTEX
  5
4a4
100
AcDbEntity
  8
5
100
AcDbVertex
100
AcDb2dVertex
 42
1.0163656E-002
 10
1.8669182E+002
 20
2.9924431E+001
 70
1
  0
VERTEX
  5
4a5
100
AcDbEntity
  8
5
100
AcDbVertex
100
AcDb2dVertex
 42
1.0599321E-002
 10
1.868147E+002
 20
2.9848663E+001
 70
0
  0
VERTEX
  5
4a6
100
AcDbEntity
  8
5
100
AcDbVertex
100
AcDb2dVertex
 42
1.1008593E-002
 10
1.8694245E+002
 20
2.9777498E+001
 70
1
  0
VERTEX
  5
4a7
100
AcDbEntity
  8
5
100
AcDbVertex
100
AcDb2dVertex
 42
1.1635983E-002
 10
1.8707444E+002
 20
2.9711492E+001
 70
0
  0
VERTEX
  5
4a8
100
AcDbEntity
  8
5
100
AcDbVertex
100
AcDb2dVertex
 42
1.2145232E-002
 10
1.8721033E+002
 20
2.965164E+001
 70
1
  0
VERTEX
  5
4a9
100
AcDbEntity
  8
5
100
AcDbVertex
100
AcDb2dVertex
 42
1.2746379E-002
 10
1.8734933E+002
 20
2.9598385E+001
 70
0
  0
VERTEX
  5
4aa
100
AcDbEntity
  8
5
100
AcDbVertex
100
AcDb2dVertex
 42
1.3494909E-002
 10
1.8749085E+002
 20
2.9552714E+001
 70
1
  0
VERTEX
  5
4ab
100
AcDbEntity
  8
5
100
AcDbVertex
100
AcDb2dVertex
 42
1.4571993E-002
 10
1.8763416E+002
 20
2.9515059E+001
 70
0
  0
VERTEX
  5
4ac
100
AcDbEntity
  8
5
100
AcDbVertex
100
AcDb2dVertex
 42
1.4948246E-002
 10
1.8777853E+002
 20
2.9486408E+001
 70
1
  0
VERTEX
  5
4ad
100
AcDbEntity
  8
5
100
AcDbVertex
100
AcDb2dVertex
 42
1.4810077E-002
 10
1.8792248E+002
 20
2.9466499E+001
 70
0
  0
VERTEX
  5
4ae
100
AcDbEntity
  8
5
100
AcDbVertex
100
AcDb2dVertex
 42
1.7102723E-002
 10
1.8806485E+002
 20
2.945602E+001
 70
1
  0
VERTEX
  5
4af
100
AcDbEntity
  8
5
100
AcDbVertex
100
AcDb2dVertex
 42
2.1460117E-002
 10
1.8820691E+002
 20
2.9456412E+001
 70
0
  0
VERTEX
  5
4b0
100
AcDbEntity
  8
5
100
AcDbVertex
100
AcDb2dVertex
 42
1.7514483E-002
 10
1.8834832E+002
 20
2.946883E+001
 70
1
  0
VERTEX
  5
4b1
100
AcDbEntity
  8
5
100
AcDbVertex
100
AcDb2dVertex
 42
6.992011E-003
 10
1.8847975E+002
 20
2.9486742E+001
 70
0
  0
VERTEX
  5
4b2
100
AcDbEntity
  8
5
100
AcDbVertex
100
AcDb2dVertex
 42
2.552944E-002
 10
1.8859717E+002
 20
2.9508388E+001
 70
1
  0
VERTEX
  5
4b3
100
AcDbEntity
  8
5
100
AcDbVertex
100
AcDb2dVertex
 42
4.7229958E-002
 10
1.8873359E+002
 20
2.9557374E+001
 70
0
  0
VERTEX
  5
4b4
100
AcDbEntity
  8
5
100
AcDbVertex
100
AcDb2dVertex
 42
2.4800808E-002
 10
1.889234E+002
 20
2.9659311E+001
 70
1
  0
VERTEX
  5
4b5
100
AcDbEntity
  8
5
100
AcDbVertex
100
AcDb2dVertex
 42
1.3353792E-002
 10
1.8915992E+002
 20
2.9808779E+001
 70
0
  0
SEQEND
  5
4b6
100
AcDbEntity
  0
POLYLINE
  5
4b7
100
AcDbEntity
  8
5
100
AcDb2dPolyline
  6
CONTINUOUS
 62
6
 66
1
 40
0.0
 41
0.0
 70
2
  0
VERTEX
  5
4b8
100
AcDbEntity
  8
5
100
AcDbVertex
100
AcDb2dVertex
 42
0.0
 10
1.8957654E+002
 20
3.0928542E+001
 70
0
  0
VERTEX
  5
4b9
100
AcDbEntity
  8
5
100
AcDbVertex
100
AcDb2dVertex
 42
2.1660111E-003
 10
1.8957647E+002
 20
3.0946526E+001
 70
1
  0
VERTEX
  5
4ba
100
AcDbEntity
  8
5
100
AcDbVertex
100
AcDb2dVertex
 42
2.1206461E-003
 10
1.8957623E+002
 20
3.0964643E+001
 70
0
  0
VERTEX
  5
4bb
100
AcDbEntity
  8
5
100
AcDbVertex
100
AcDb2dVertex
 42
2.1009754E-003
 10
1.8957584E+002
 20
3.0982899E+001
 70
1
  0
VERTEX
  5
4bc
100
AcDbEntity
  8
5
100
AcDbVertex
100
AcDb2dVertex
 42
2.1122924E-003
 10
1.895753E+002
 20
3.1001287E+001
 70
0
  0
VERTEX
  5
4bd
100
AcDbEntity
  8
5
100
AcDbVertex
100
AcDb2dVertex
 42
2.111011E-003
 10
1.8957459E+002
 20
3.1019812E+001
 70
1
  0
VERTEX
  5
4be
100
AcDbEntity
  8
5
100
AcDbVertex
100
AcDb2dVertex
 42
2.107924E-003
 10
1.8957371E+002
 20
3.1038469E+001
 70
0
  0
VERTEX
  5
4bf
100
AcDbEntity
  8
5
100
AcDbVertex
100
AcDb2dVertex
 42
2.1018346E-003
 10
1.8957267E+002
 20
3.1057261E+001
 70
1
  0
VERTEX
  5
4c0
100
AcDbEntity
  8
5
100
AcDbVertex
100
AcDb2dVertex
 42
2.102022E-003
 10
1.8957147E+002
 20
3.1076182E+001
 70
0
  0
VERTEX
  5
4c1
100
AcDbEntity
  8
5
100
AcDbVertex
100
AcDb2dVertex
 42
2.097158E-003
 10
1.8957009E+002
 20
3.1095238E+001
 70
1
  0
VERTEX
  5
4c2
100
AcDbEntity
  8
5
100
AcDbVertex
100
AcDb2dVertex
 42
2.0967292E-003
 10
1.8956854E+002
 20
3.1114421E+001
 70
0
  0
VERTEX
  5
4c3
100
AcDbEntity
  8
5
100
AcDbVertex
100
AcDb2dVertex
 42
2.0908717E-003
 10
1.8956682E+002
 20
3.1133737E+001
 70
1
  0
VERTEX
  5
4c4
100
AcDbEntity
  8
5
100
AcDbVertex
100
AcDb2dVertex
 42
2.0889901E-003
 10
1.8956492E+002
 20
3.1153179E+001
 70
0
  0
VERTEX
  5
4c5
100
AcDbEntity
  8
5
100
AcDbVertex
100
AcDb2dVertex
 42
2.0852589E-003
 10
1.8956284E+002
 20
3.117275E+001
 70
1
  0
VERTEX
  5
4c6
100
AcDbEntity
  8
5
100
AcDbVertex
100
AcDb2dVertex
 42
2.0884352E-003
 10
1.8956058E+002
 20
3.1192446E+001
 70
0
  0
VERTEX
  5
4c7
100
AcDbEntity
  8
5
100
AcDbVertex
100
AcDb2dVertex
 42
2.0772383E-003
 10
1.8955814E+002
 20
3.1212272E+001
 70
1
  0
VERTEX
  5
4c8
100
AcDbEntity
  8
5
100
AcDbVertex
100
AcDb2dVertex
 42
2.062564E-003
 10
1.8955551E+002
 20
3.1232215E+001
 70
0
  0
VERTEX
  5
4c9
100
AcDbEntity
  8
5
100
AcDbVertex
100
AcDb2dVertex
 42
2.0765022E-003
 10
1.895527E+002
 20
3.1252274E+001
 70
1
  0
VERTEX
  5
4ca
100
AcDbEntity
  8
5
100
AcDbVertex
100
AcDb2dVertex
 42
2.1202096E-003
 10
1.895497E+002
 20
3.1272474E+001
 70
0
  0
VERTEX
  5
4cb
100
AcDbEntity
  8
5
100
AcDbVertex
100
AcDb2dVertex
 42
2.0500471E-003
 10
1.895465E+002
 20
3.1292829E+001
 70
1
  0
VERTEX
  5
4cc
100
AcDbEntity
  8
5
100
AcDbVertex
100
AcDb2dVertex
 42
1.9057053E-003
 10
1.8954312E+002
 20
3.1313214E+001
 70
0
  0
VERTEX
  5
4cd
100
AcDbEntity
  8
5
100
AcDbVertex
100
AcDb2dVertex
 42
2.1108554E-003
 10
1.8953959E+002
 20
3.133359E+001
 70
1
  0
VERTEX
  5
4ce
100
AcDbEntity
  8
5
100
AcDbVertex
100
AcDb2dVertex
 42
2.5298342E-003
 10
1.8953577E+002
 20
3.1354422E+001
 70
0
  0
VERTEX
  5
4cf
100
AcDbEntity
  8
5
100
AcDbVertex
100
AcDb2dVertex
 42
1.8911228E-003
 10
1.8953163E+002
 20
3.1375876E+001
 70
1
  0
VERTEX
  5
4d0
100
AcDbEntity
  8
5
100
AcDbVertex
100
AcDb2dVertex
 42
6.02693E-004
 10
1.8952762E+002
 20
3.1396086E+001
 70
0
  0
VERTEX
  5
4d1
100
AcDbEntity
  8
5
100
AcDbVertex
100
AcDb2dVertex
 42
2.7047664E-003
 10
1.895239E+002
 20
3.1414414E+001
 70
1
  0
VERTEX
  5
4d2
100
AcDbEntity
  8
5
100
AcDbVertex
100
AcDb2dVertex
 42
4.636918E-003
 10
1.8951866E+002
 20
3.1438192E+001
 70
0
  0
VERTEX
  5
4d3
100
AcDbEntity
  8
5
100
AcDbVertex
100
AcDb2dVertex
 42
2.221267E-003
 10
1.8950999E+002
 20
3.1475121E+001
 70
1
  0
VERTEX
  5
4d4
100
AcDbEntity
  8
5
100
AcDbVertex
100
AcDb2dVertex
 42
1.1588598E-003
 10
1.8949827E+002
 20
3.1523668E+001
 70
0
  0
SEQEND
  5
4d5
100
AcDbEntity
  0
POLYLINE
  5
4d6
100
AcDbEntity
  8
5
100
AcDb2dPolyline
  6
CONTINUOUS
 62
6
 66
1
 40
0.0
 41
0.0
 70
2
  0
VERTEX
  5
4d7
100
AcDbEntity
  8
5
100
AcDbVertex
100
AcDb2dVertex
 42
0.0
 10
1.8721678E+002
 20
3.391306E+001
 70
0
  0
VERTEX
  5
4d8
100
AcDbEntity
  8
5
100
AcDbVertex
100
AcDb2dVertex
 42
1.3538185E-002
 10
1.8706281E+002
 20
3.3954182E+001
 70
1
  0
VERTEX
  5
4d9
100
AcDbEntity
  8
5
100
AcDbVertex
100
AcDb2dVertex
 42
1.5354319E-002
 10
1.869138E+002
 20
3.3985032E+001
 70
0
  0
VERTEX
  5
4da
100
AcDbEntity
  8
5
100
AcDbVertex
100
AcDb2dVertex
 42
1.6349168E-002
 10
1.8676986E+002
 20
3.4005091E+001
 70
1
  0
VERTEX
  5
4db
100
AcDbEntity
  8
5
100
AcDbVertex
100
AcDb2dVertex
 42
1.6242763E-002
 10
1.8663132E+002
 20
3.4015405E+001
 70
0
  0
VERTEX
  5
4dc
100
AcDbEntity
  8
5
100
AcDbVertex
100
AcDb2dVertex
 42
1.6363001E-002
 10
1.8649912E+002
 20
3.4016384E+001
 70
1
  0
VERTEX
  5
4dd
100
AcDbEntity
  8
5
100
AcDbVertex
100
AcDb2dVertex
 42
1.6297568E-002
 10
1.8637386E+002
 20
3.4009257E+001
 70
0
  0
VERTEX
  5
4de
100
AcDbEntity
  8
5
100
AcDbVertex
100
AcDb2dVertex
 42
1.7105191E-002
 10
1.8625621E+002
 20
3.3994462E+001
 70
1
  0
VERTEX
  5
4df
100
AcDbEntity
  8
5
100
AcDbVertex
100
AcDb2dVertex
 42
1.7222838E-002
 10
1.8614365E+002
 20
3.3972446E+001
 70
0
  0
VERTEX
  5
4e0
100
AcDbEntity
  8
5
100
AcDbVertex
100
AcDb2dVertex
 42
1.7684867E-002
 10
1.860339E+002
 20
3.3942772E+001
 70
1
  0
VERTEX
  5
4e1
100
AcDbEntity
  8
5
100
AcDbVertex
100
AcDb2dVertex
 42
1.9103402E-002
 10
1.8592586E+002
 20
3.3904957E+001
 70
0
  0
VERTEX
  5
4e2
100
AcDbEntity
  8
5
100
AcDbVertex
100
AcDb2dVertex
 42
1.9905401E-002
 10
1.8581928E+002
 20
3.3857779E+001
 70
1
  0
VERTEX
  5
4e3
100
AcDbEntity
  8
5
100
AcDbVertex
100
AcDb2dVertex
 42
2.1212958E-002
 10
1.8571507E+002
 20
3.3801172E+001
 70
0
  0
VERTEX
  5
4e4
100
AcDbEntity
  8
5
100
AcDbVertex
100
AcDb2dVertex
 42
2.2148763E-002
 10
1.8561461E+002
 20
3.3734387E+001
 70
1
  0
VERTEX
  5
4e5
100
AcDbEntity
  8
5
100
AcDbVertex
100
AcDb2dVertex
 42
2.3040796E-002
 10
1.8551876E+002
 20
3.3657547E+001
 70
0
  0
VERTEX
  5
4e6
100
AcDbEntity
  8
5
100
AcDbVertex
100
AcDb2dVertex
 42
2.3475724E-002
 10
1.854287E+002
 20
3.3570001E+001
 70
1
  0
VERTEX
  5
4e7
100
AcDbEntity
  8
5
100
AcDbVertex
100
AcDb2dVertex
 42
2.39854E-002
 10
1.8534528E+002
 20
3.3472168E+001
 70
0
  0
VERTEX
  5
4e8
100
AcDbEntity
  8
5
100
AcDbVertex
100
AcDb2dVertex
 42
2.3957803E-002
 10
1.8526988E+002
 20
3.3363717E+001
 70
1
  0
VERTEX
  5
4e9
100
AcDbEntity
  8
5
100
AcDbVertex
100
AcDb2dVertex
 42
2.3882191E-002
 10
1.8520319E+002
 20
3.3245397E+001
 70
0
  0
VERTEX
  5
4ea
100
AcDbEntity
  8
5
100
AcDbVertex
100
AcDb2dVertex
 42
2.3340312E-002
 10
1.8514653E+002
 20
3.3117248E+001
 70
1
  0
VERTEX
  5
4eb
100
AcDbEntity
  8
5
100
AcDbVertex
100
AcDb2dVertex
 42
2.2787303E-002
 10
1.8510033E+002
 20
3.298035E+001
 70
0
  0
VERTEX
  5
4ec
100
AcDbEntity
  8
5
100
AcDbVertex
100
AcDb2dVertex
 42
2.1901628E-002
 10
1.8506578E+002
 20
3.2835163E+001
 70
1
  0
VERTEX
  5
4ed
100
AcDbEntity
  8
5
100
AcDbVertex
100
AcDb2dVertex
 42
2.1038794E-002
 10
1.8504292E+002
 20
3.2683034E+001
 70
0
  0
VERTEX
  5
4ee
100
AcDbEntity
  8
5
100
AcDbVertex
100
AcDb2dVertex
 42
2.0010079E-002
 10
1.8503266E+002
 20
3.2524822E+001
 70
1
  0
VERTEX
  5
4ef
100
AcDbEntity
  8
5
100
AcDbVertex
100
AcDb2dVertex
 42
1.9032516E-002
 10
1.850346E+002
 20
3.2362028E+001
 70
0
  0
VERTEX
  5
4f0
100
AcDbEntity
  8
5
100
AcDbVertex
100
AcDb2dVertex
 42
1.802849E-002
 10
1.8504928E+002
 20
3.2195824E+001
 70
1
  0
VERTEX
  5
4f1
100
AcDbEntity
  8
5
100
AcDbVertex
100
AcDb2dVertex
 42
1.7071656E-002
 10
1.8507591E+002
 20
3.2027713E+001
 70
0
  0
VERTEX
  5
4f2
100
AcDbEntity
  8
5
100
AcDbVertex
100
AcDb2dVertex
 42
1.6186126E-002
 10
1.8511458E+002
 20
3.1859047E+001
 70
1
  0
VERTEX
  5
4f3
100
AcDbEntity
  8
5
100
AcDbVertex
100
AcDb2dVertex
 42
1.5322029E-002
 10
1.8516419E+002
 20
3.1691176E+001
 70
0
  0
VERTEX
  5
4f4
100
AcDbEntity
  8
5
100
AcDbVertex
100
AcDb2dVertex
 42
1.458771E-002
 10
1.8522444E+002
 20
3.1525479E+001
 70
1
  0
VERTEX
  5
4f5
100
AcDbEntity
  8
5
100
AcDbVertex
100
AcDb2dVertex
 42
1.3838555E-002
 10
1.8529402E+002
 20
3.1363028E+001
 70
0
  0
VERTEX
  5
4f6
100
AcDbEntity
  8
5
100
AcDbVertex
100
AcDb2dVertex
 42
1.3255359E-002
 10
1.8537232E+002
 20
3.1205093E+001
 70
1
  0
VERTEX
  5
4f7
100
AcDbEntity
  8
5
100
AcDbVertex
100
AcDb2dVertex
 42
1.2625928E-002
 10
1.8545797E+002
 20
3.1052389E+001
 70
0
  0
VERTEX
  5
4f8
100
AcDbEntity
  8
5
100
AcDbVertex
100
AcDb2dVertex
 42
1.2166018E-002
 10
1.8555018E+002
 20
3.0905981E+001
 70
1
  0
VERTEX
  5
4f9
100
AcDbEntity
  8
5
100
AcDbVertex
100
AcDb2dVertex
 42
1.161853E-002
 10
1.8564762E+002
 20
3.0766219E+001
 70
0
  0
VERTEX
  5
4fa
100
AcDbEntity
  8
5
100
AcDbVertex
100
AcDb2dVertex
 42
1.1291766E-002
 10
1.8574942E+002
 20
3.0633913E+001
 70
1
  0
VERTEX
  5
4fb
100
AcDbEntity
  8
5
100
AcDbVertex
100
AcDb2dVertex
 42
1.0899575E-002
 10
1.8585447E+002
 20
3.0509065E+001
 70
0
  0
VERTEX
  5
4fc
100
AcDbEntity
  8
5
100
AcDbVertex
100
AcDb2dVertex
 42
1.0561476E-002
 10
1.8596194E+002
 20
3.0392219E+001
 70
1
  0
VERTEX
  5
4fd
100
AcDbEntity
  8
5
100
AcDbVertex
100
AcDb2dVertex
 42
9.9774016E-003
 10
1.8607069E+002
 20
3.0283167E+001
 70
0
  0
VERTEX
  5
4fe
100
AcDbEntity
  8
5
100
AcDbVertex
100
AcDb2dVertex
 42
1.0224011E-002
 10
1.8618044E+002
 20
3.0181801E+001
 70
1
  0
VERTEX
  5
4ff
100
AcDbEntity
  8
5
100
AcDbVertex
100
AcDb2dVertex
 42
1.0341172E-002
 10
1.8629408E+002
 20
3.0085147E+001
 70
0
  0
VERTEX
  5
500
100
AcDbEntity
  8
5
100
AcDbVertex
100
AcDb2dVertex
 42
1.0244832E-002
 10
1.8641487E+002
 20
2.9990825E+001
 70
1
  0
VERTEX
  5
501
100
AcDbEntity
  8
5
100
AcDbVertex
100
AcDb2dVertex
 42
1.1010137E-002
 10
1.8654256E+002
 20
2.9899434E+001
 70
0
  0
VERTEX
  5
502
100
AcDbEntity
  8
5
100
AcDbVertex
100
AcDb2dVertex
 42
1.1571699E-002
 10
1.8667686E+002
 20
2.9812455E+001
 70
1
  0
VERTEX
  5
503
100
AcDbEntity
  8
5
100
AcDbVertex
100
AcDb2dVertex
 42
1.2147706E-002
 10
1.8681709E+002
 20
2.9730655E+001
 70
0
  0
VERTEX
  5
504
100
AcDbEntity
  8
5
100
AcDbVertex
100
AcDb2dVertex
 42
1.2681567E-002
 10
1.8696307E+002
 20
2.9655182E+001
 70
1
  0
VERTEX
  5
505
100
AcDbEntity
  8
5
100
AcDbVertex
100
AcDb2dVertex
 42
1.3483958E-002
 10
1.8711388E+002
 20
2.9586806E+001
 70
0
  0
VERTEX
  5
506
100
AcDbEntity
  8
5
100
AcDbVertex
100
AcDb2dVertex
 42
1.421275E-002
 10
1.8726887E+002
 20
2.9526897E+001
 70
1
  0
VERTEX
  5
507
100
AcDbEntity
  8
5
100
AcDbVertex
100
AcDb2dVertex
 42
1.5124086E-002
 10
1.8742693E+002
 20
2.9476069E+001
 70
0
  0
VERTEX
  5
508
100
AcDbEntity
  8
5
100
AcDbVertex
100
AcDb2dVertex
 42
1.6005425E-002
 10
1.875871E+002
 20
2.943564E+001
 70
1
  0
VERTEX
  5
509
100
AcDbEntity
  8
5
100
AcDbVertex
100
AcDb2dVertex
 42
1.7069134E-002
 10
1.8774812E+002
 20
2.9405972E+001
 70
0
  0
VERTEX
  5
50a
100
AcDbEntity
  8
5
100
AcDbVertex
100
AcDb2dVertex
 42
1.811386E-002
 10
1.8790873E+002
 20
2.938824E+001
 70
1
  0
VERTEX
  5
50b
100
AcDbEntity
  8
5
100
AcDbVertex
100
AcDb2dVertex
 42
1.9267089E-002
 10
1.8806764E+002
 20
2.9382444E+001
 70
0
  0
VERTEX
  5
50c
100
AcDbEntity
  8
5
100
AcDbVertex
100
AcDb2dVertex
 42
2.0422644E-002
 10
1.882234E+002
 20
2.9389468E+001
 70
1
  0
VERTEX
  5
50d
100
AcDbEntity
  8
5
100
AcDbVertex
100
AcDb2dVertex
 42
2.1596238E-002
 10
1.8837483E+002
 20
2.9408913E+001
 70
0
  0
VERTEX
  5
50e
100
AcDbEntity
  8
5
100
AcDbVertex
100
AcDb2dVertex
 42
2.2673915E-002
 10
1.8852044E+002
 20
2.9441276E+001
 70
1
  0
VERTEX
  5
50f
100
AcDbEntity
  8
5
100
AcDbVertex
100
AcDb2dVertex
 42
2.3525199E-002
 10
1.8865929E+002
 20
2.9485695E+001
 70
0
  0
VERTEX
  5
510
100
AcDbEntity
  8
5
100
AcDbVertex
100
AcDb2dVertex
 42
2.4486846E-002
 10
1.8878998E+002
 20
2.9542214E+001
 70
1
  0
VERTEX
  5
511
100
AcDbEntity
  8
5
100
AcDbVertex
100
AcDb2dVertex
 42
2.5308892E-002
 10
1.8891197E+002
 20
2.9609843E+001
 70
0
  0
VERTEX
  5
512
100
AcDbEntity
  8
5
100
AcDbVertex
100
AcDb2dVertex
 42
2.5183235E-002
 10
1.8902409E+002
 20
2.9688291E+001
 70
1
  0
VERTEX
  5
513
100
AcDbEntity
  8
5
100
AcDbVertex
100
AcDb2dVertex
 42
2.3898903E-002
 10
1.8912615E+002
 20
2.9775499E+001
 70
0
  0
VERTEX
  5
514
100
AcDbEntity
  8
5
100
AcDbVertex
100
AcDb2dVertex
 42
2.5252139E-002
 10
1.8921728E+002
 20
2.9870557E+001
 70
1
  0
VERTEX
  5
515
100
AcDbEntity
  8
5
100
AcDbVertex
100
AcDb2dVertex
 42
2.7934251E-002
 10
1.8929794E+002
 20
2.9974688E+001
 70
0
  0
VERTEX
  5
516
100
AcDbEntity
  8
5
100
AcDbVertex
100
AcDb2dVertex
 42
2.1967673E-002
 10
1.8936767E+002
 20
3.008793E+001
 70
1
  0
VERTEX
  5
517
100
AcDbEntity
  8
5
100
AcDbVertex
100
AcDb2dVertex
 42
1.0550187E-002
 10
1.8942639E+002
 20
3.0198333E+001
 70
0
  0
VERTEX
  5
518
100
AcDbEntity
  8
5
100
AcDbVertex
100
AcDb2dVertex
 42
2.6251473E-002
 10
1.8947368E+002
 20
3.0301288E+001
 70
1
  0
VERTEX
  5
519
100
AcDbEntity
  8
5
100
AcDbVertex
100
AcDb2dVertex
 42
4.0193939E-002
 10
1.8951309E+002
 20
3.0437267E+001
 70
0
  0
VERTEX
  5
51a
100
AcDbEntity
  8
5
100
AcDbVertex
100
AcDb2dVertex
 42
1.9878037E-002
 10
1.8954745E+002
 20
3.0649235E+001
 70
1
  0
VERTEX
  5
51b
100
AcDbEntity
  8
5
100
AcDbVertex
100
AcDb2dVertex
 42
1.0866064E-002
 10
1.8957654E+002
 20
3.0928542E+001
 70
0
  0
SEQEND
  5
51c
100
AcDbEntity
  0
ELLIPSE
  5
51d
100
AcDbEntity
  8
5
100
AcDbEllipse
  6
CONTINUOUS
 10
8.8941163E+001
 20
6.3205163E+001
 11
3.5671708
 21
-3.7835555
 40
7.0710678E-001
 41
0.0
 42
6.2831853
 62
6
  0
POLYLINE
  5
51e
100
AcDbEntity
  8
5
100
AcDb2dPolyline
  6
CONTINUOUS
 62
6
 66
1
 40
0.0
 41
0.0
 70
2
  0
VERTEX
  5
51f
100
AcDbEntity
  8
5
100
AcDbVertex
100
AcDb2dVertex
 42
0.0
 10
8.545265E+001
 20
6.7059904E+001
 70
0
  0
VERTEX
  5
520
100
AcDbEntity
  8
5
100
AcDbVertex
100
AcDb2dVertex
 42
2.2836503E-002
 10
8.5302292E+001
 20
6.6892473E+001
 70
1
  0
VERTEX
  5
521
100
AcDbEntity
  8
5
100
AcDbVertex
100
AcDb2dVertex
 42
2.1683259E-002
 10
8.5164738E+001
 20
6.6709218E+001
 70
0
  0
VERTEX
  5
522
100
AcDbEntity
  8
5
100
AcDbVertex
100
AcDb2dVertex
 42
2.0941655E-002
 10
8.5040303E+001
 20
6.6509394E+001
 70
1
  0
VERTEX
  5
523
100
AcDbEntity
  8
5
100
AcDbVertex
100
AcDb2dVertex
 42
2.1207446E-002
 10
8.4929946E+001
 20
6.6294273E+001
 70
0
  0
VERTEX
  5
524
100
AcDbEntity
  8
5
100
AcDbVertex
100
AcDb2dVertex
 42
2.0876377E-002
 10
8.4836033E+001
 20
6.606407E+001
 70
1
  0
VERTEX
  5
525
100
AcDbEntity
  8
5
100
AcDbVertex
100
AcDb2dVertex
 42
2.0268821E-002
 10
8.4758961E+001
 20
6.5820416E+001
 70
0
  0
VERTEX
  5
526
100
AcDbEntity
  8
5
100
AcDbVertex
100
AcDb2dVertex
 42
1.9502787E-002
 10
8.4700342E+001
 20
6.556395E+001
 70
1
  0
VERTEX
  5
527
100
AcDbEntity
  8
5
100
AcDbVertex
100
AcDb2dVertex
 42
1.883732E-002
 10
8.4660142E+001
 20
6.5296632E+001
 70
0
  0
VERTEX
  5
528
100
AcDbEntity
  8
5
100
AcDbVertex
100
AcDb2dVertex
 42
1.802483E-002
 10
8.4639734E+001
 20
6.501964E+001
 70
1
  0
VERTEX
  5
529
100
AcDbEntity
  8
5
100
AcDbVertex
100
AcDb2dVertex
 42
1.7234554E-002
 10
8.4638545E+001
 20
6.4735116E+001
 70
0
  0
VERTEX
  5
52a
100
AcDbEntity
  8
5
100
AcDbVertex
100
AcDb2dVertex
 42
1.6418578E-002
 10
8.4657429E+001
 20
6.4444645E+001
 70
1
  0
VERTEX
  5
52b
100
AcDbEntity
  8
5
100
AcDbVertex
100
AcDb2dVertex
 42
1.5644715E-002
 10
8.4695298E+001
 20
6.4150381E+001
 70
0
  0
VERTEX
  5
52c
100
AcDbEntity
  8
5
100
AcDbVertex
100
AcDb2dVertex
 42
1.4908142E-002
 10
8.4752483E+001
 20
6.3854182E+001
 70
1
  0
VERTEX
  5
52d
100
AcDbEntity
  8
5
100
AcDbVertex
100
AcDb2dVertex
 42
1.4190461E-002
 10
8.4827455E+001
 20
6.3558034E+001
 70
0
  0
VERTEX
  5
52e
100
AcDbEntity
  8
5
100
AcDbVertex
100
AcDb2dVertex
 42
1.3558509E-002
 10
8.492003E+001
 20
6.3263892E+001
 70
1
  0
VERTEX
  5
52f
100
AcDbEntity
  8
5
100
AcDbVertex
100
AcDb2dVertex
 42
1.2922928E-002
 10
8.5028371E+001
 20
6.297342E+001
 70
0
  0
VERTEX
  5
530
100
AcDbEntity
  8
5
100
AcDbVertex
100
AcDb2dVertex
 42
1.2400378E-002
 10
8.5151857E+001
 20
6.2688506E+001
 70
1
  0
VERTEX
  5
531
100
AcDbEntity
  8
5
100
AcDbVertex
100
AcDb2dVertex
 42
1.184795E-002
 10
8.5288503E+001
 20
6.2410385E+001
 70
0
  0
VERTEX
  5
532
100
AcDbEntity
  8
5
100
AcDbVertex
100
AcDb2dVertex
 42
1.1428294E-002
 10
8.5437368E+001
 20
6.2140747E+001
 70
1
  0
VERTEX
  5
533
100
AcDbEntity
  8
5
100
AcDbVertex
100
AcDb2dVertex
 42
1.0959295E-002
 10
8.5596481E+001
 20
6.1880348E+001
 70
0
  0
VERTEX
  5
534
100
AcDbEntity
  8
5
100
AcDbVertex
100
AcDb2dVertex
 42
1.0620136E-002
 10
8.5764716E+001
 20
6.163059E+001
 70
1
  0
VERTEX
  5
535
100
AcDbEntity
  8
5
100
AcDbVertex
100
AcDb2dVertex
 42
1.0202527E-002
 10
8.5940217E+001
 20
6.1391774E+001
 70
0
  0
VERTEX
  5
536
100
AcDbEntity
  8
5
100
AcDbVertex
100
AcDb2dVertex
 42
9.9590731E-003
 10
8.6121779E+001
 20
6.1164989E+001
 70
1
  0
VERTEX
  5
537
100
AcDbEntity
  8
5
100
AcDbVertex
100
AcDb2dVertex
 42
9.6600918E-003
 10
8.6307897E+001
 20
6.0950077E+001
 70
0
  0
VERTEX
  5
538
100
AcDbEntity
  8
5
100
AcDbVertex
100
AcDb2dVertex
 42
9.390413E-003
 10
8.6497431E+001
 20
6.0747793E+001
 70
1
  0
VERTEX
  5
539
100
AcDbEntity
  8
5
100
AcDbVertex
100
AcDb2dVertex
 42
8.924649E-003
 10
8.668873E+001
 20
6.0557835E+001
 70
0
  0
VERTEX
  5
53a
100
AcDbEntity
  8
5
100
AcDbVertex
100
AcDb2dVertex
 42
9.1246951E-003
 10
8.68814E+001
 20
6.0380079E+001
 70
1
  0
VERTEX
  5
53b
100
AcDbEntity
  8
5
100
AcDbVertex
100
AcDb2dVertex
 42
9.2062939E-003
 10
8.7080052E+001
 20
6.0209758E+001
 70
0
  0
VERTEX
  5
53c
100
AcDbEntity
  8
5
100
AcDbVertex
100
AcDb2dVertex
 42
9.123548E-003
 10
8.7289906E+001
 20
6.0043004E+001
 70
1
  0
VERTEX
  5
53d
100
AcDbEntity
  8
5
100
AcDbVertex
100
AcDb2dVertex
 42
9.727842E-003
 10
8.7510685E+001
 20
5.9880549E+001
 70
0
  0
VERTEX
  5
53e
100
AcDbEntity
  8
5
100
AcDbVertex
100
AcDb2dVertex
 42
1.015936E-002
 10
8.7742033E+001
 20
5.9724477E+001
 70
1
  0
VERTEX
  5
53f
100
AcDbEntity
  8
5
100
AcDbVertex
100
AcDb2dVertex
 42
1.0594661E-002
 10
8.7983047E+001
 20
5.9575835E+001
 70
0
  0
VERTEX
  5
540
100
AcDbEntity
  8
5
100
AcDbVertex
100
AcDb2dVertex
 42
1.1003572E-002
 10
8.8233614E+001
 20
5.9436216E+001
 70
1
  0
VERTEX
  5
541
100
AcDbEntity
  8
5
100
AcDbVertex
100
AcDb2dVertex
 42
1.1630402E-002
 10
8.849251E+001
 20
5.9306711E+001
 70
0
  0
VERTEX
  5
542
100
AcDbEntity
  8
5
100
AcDbVertex
100
AcDb2dVertex
 42
1.2139121E-002
 10
8.8759056E+001
 20
5.9189269E+001
 70
1
  0
VERTEX
  5
543
100
AcDbEntity
  8
5
100
AcDbVertex
100
AcDb2dVertex
 42
1.2739645E-002
 10
8.9031683E+001
 20
5.9084758E+001
 70
0
  0
VERTEX
  5
544
100
AcDbEntity
  8
5
100
AcDbVertex
100
AcDb2dVertex
 42
1.3487494E-002
 10
8.9309272E+001
 20
5.8995112E+001
 70
1
  0
VERTEX
  5
545
100
AcDbEntity
  8
5
100
AcDbVertex
100
AcDb2dVertex
 42
1.4563724E-002
 10
8.9590378E+001
 20
5.8921181E+001
 70
0
  0
VERTEX
  5
546
100
AcDbEntity
  8
5
100
AcDbVertex
100
AcDb2dVertex
 42
1.4939302E-002
 10
8.9873564E+001
 20
5.8864901E+001
 70
1
  0
VERTEX
  5
547
100
AcDbEntity
  8
5
100
AcDbVertex
100
AcDb2dVertex
 42
1.4800729E-002
 10
9.0155931E+001
 20
5.882576E+001
 70
0
  0
VERTEX
  5
548
100
AcDbEntity
  8
5
100
AcDbVertex
100
AcDb2dVertex
 42
1.7092033E-002
 10
9.0435231E+001
 20
5.8805105E+001
 70
1
  0
VERTEX
  5
549
100
AcDbEntity
  8
5
100
AcDbVertex
100
AcDb2dVertex
 42
2.1447144E-002
 10
9.0713915E+001
 20
5.8805765E+001
 70
0
  0
VERTEX
  5
54a
100
AcDbEntity
  8
5
100
AcDbVertex
100
AcDb2dVertex
 42
1.7502961E-002
 10
9.0991346E+001
 20
5.8830003E+001
 70
1
  0
VERTEX
  5
54b
100
AcDbEntity
  8
5
100
AcDbVertex
100
AcDb2dVertex
 42
6.9855119E-003
 10
9.1249208E+001
 20
5.8865018E+001
 70
0
  0
VERTEX
  5
54c
100
AcDbEntity
  8
5
100
AcDbVertex
100
AcDb2dVertex
 42
2.551454E-002
 10
9.1479586E+001
 20
5.8907366E+001
 70
1
  0
VERTEX
  5
54d
100
AcDbEntity
  8
5
100
AcDbVertex
100
AcDb2dVertex
 42
4.7205512E-002
 10
9.1747279E+001
 20
5.9003308E+001
 70
0
  0
VERTEX
  5
54e
100
AcDbEntity
  8
5
100
AcDbVertex
100
AcDb2dVertex
 42
2.4788281E-002
 10
9.2119789E+001
 20
5.9203041E+001
 70
1
  0
VERTEX
  5
54f
100
AcDbEntity
  8
5
100
AcDbVertex
100
AcDb2dVertex
 42
1.3347061E-002
 10
9.2584023E+001
 20
5.9495942E+001
 70
0
  0
SEQEND
  5
550
100
AcDbEntity
  0
POLYLINE
  5
551
100
AcDbEntity
  8
5
100
AcDb2dPolyline
  6
CONTINUOUS
 62
1
 66
1
 40
0.0
 41
0.0
 70
2
  0
VERTEX
  5
552
100
AcDbEntity
  8
5
100
AcDbVertex
100
AcDb2dVertex
 42
0.0
 10
8.8628906E+001
 20
6.6551382E+001
 70
0
  0
VERTEX
  5
553
100
AcDbEntity
  8
5
100
AcDbVertex
100
AcDb2dVertex
 42
2.2844392E-002
 10
8.8552204E+001
 20
6.6466101E+001
 70
1
  0
VERTEX
  5
554
100
AcDbEntity
  8
5
100
AcDbVertex
100
AcDb2dVertex
 42
2.1690664E-002
 10
8.8482026E+001
 20
6.637275E+001
 70
0
  0
VERTEX
  5
555
100
AcDbEntity
  8
5
100
AcDbVertex
100
AcDb2dVertex
 42
2.0949625E-002
 10
8.8418531E+001
 20
6.6270946E+001
 70
1
  0
VERTEX
  5
556
100
AcDbEntity
  8
5
100
AcDbVertex
100
AcDb2dVertex
 42
2.121748E-002
 10
8.8362211E+001
 20
6.616134E+001
 70
0
  0
VERTEX
  5
557
100
AcDbEntity
  8
5
100
AcDbVertex
100
AcDb2dVertex
 42
2.0887413E-002
 10
8.8314271E+001
 20
6.6044038E+001
 70
1
  0
VERTEX
  5
558
100
AcDbEntity
  8
5
100
AcDbVertex
100
AcDb2dVertex
 42
2.0280347E-002
 10
8.8274917E+001
 20
6.5919872E+001
 70
0
  0
VERTEX
  5
559
100
AcDbEntity
  8
5
100
AcDbVertex
100
AcDb2dVertex
 42
1.9514319E-002
 10
8.824497E+001
 20
6.5789168E+001
 70
1
  0
VERTEX
  5
55a
100
AcDbEntity
  8
5
100
AcDbVertex
100
AcDb2dVertex
 42
1.8848882E-002
 10
8.8224414E+001
 20
6.5652925E+001
 70
0
  0
VERTEX
  5
55b
100
AcDbEntity
  8
5
100
AcDbVertex
100
AcDb2dVertex
 42
1.8035944E-002
 10
8.821395E+001
 20
6.5511742E+001
 70
1
  0
VERTEX
  5
55c
100
AcDbEntity
  8
5
100
AcDbVertex
100
AcDb2dVertex
 42
1.7245211E-002
 10
8.8213286E+001
 20
6.5366713E+001
 70
0
  0
VERTEX
  5
55d
100
AcDbEntity
  8
5
100
AcDbVertex
100
AcDb2dVertex
 42
1.6428525E-002
 10
8.822286E+001
 20
6.5218646E+001
 70
1
  0
VERTEX
  5
55e
100
AcDbEntity
  8
5
100
AcDbVertex
100
AcDb2dVertex
 42
1.5654021E-002
 10
8.8242117E+001
 20
6.506864E+001
 70
0
  0
VERTEX
  5
55f
100
AcDbEntity
  8
5
100
AcDbVertex
100
AcDb2dVertex
 42
1.4916703E-002
 10
8.8271225E+001
 20
6.4917642E+001
 70
1
  0
VERTEX
  5
560
100
AcDbEntity
  8
5
100
AcDbVertex
100
AcDb2dVertex
 42
1.4198352E-002
 10
8.8309407E+001
 20
6.4766665E+001
 70
0
  0
VERTEX
  5
561
100
AcDbEntity
  8
5
100
AcDbVertex
100
AcDb2dVertex
 42
1.3565733E-002
 10
8.8356567E+001
 20
6.4616708E+001
 70
1
  0
VERTEX
  5
562
100
AcDbEntity
  8
5
100
AcDbVertex
100
AcDb2dVertex
 42
1.2929543E-002
 10
8.841177E+001
 20
6.4468618E+001
 70
0
  0
VERTEX
  5
563
100
AcDbEntity
  8
5
100
AcDbVertex
100
AcDb2dVertex
 42
1.2406449E-002
 10
8.8474699E+001
 20
6.4323361E+001
 70
1
  0
VERTEX
  5
564
100
AcDbEntity
  8
5
100
AcDbVertex
100
AcDb2dVertex
 42
1.1853506E-002
 10
8.8544342E+001
 20
6.4181565E+001
 70
0
  0
VERTEX
  5
565
100
AcDbEntity
  8
5
100
AcDbVertex
100
AcDb2dVertex
 42
1.1433429E-002
 10
8.8620218E+001
 20
6.4044094E+001
 70
1
  0
VERTEX
  5
566
100
AcDbEntity
  8
5
100
AcDbVertex
100
AcDb2dVertex
 42
1.0964005E-002
 10
8.8701322E+001
 20
6.3911333E+001
 70
0
  0
VERTEX
  5
567
100
AcDbEntity
  8
5
100
AcDbVertex
100
AcDb2dVertex
 42
1.0624541E-002
 10
8.8787079E+001
 20
6.3783997E+001
 70
1
  0
VERTEX
  5
568
100
AcDbEntity
  8
5
100
AcDbVertex
100
AcDb2dVertex
 42
1.0206596E-002
 10
8.8876543E+001
 20
6.3662242E+001
 70
0
  0
VERTEX
  5
569
100
AcDbEntity
  8
5
100
AcDbVertex
100
AcDb2dVertex
 42
9.962911E-003
 10
8.89691E+001
 20
6.3546621E+001
 70
1
  0
VERTEX
  5
56a
100
AcDbEntity
  8
5
100
AcDbVertex
100
AcDb2dVertex
 42
9.66366E-003
 10
8.9063979E+001
 20
6.3437056E+001
 70
0
  0
VERTEX
  5
56b
100
AcDbEntity
  8
5
100
AcDbVertex
100
AcDb2dVertex
 42
9.3938372E-003
 10
8.9160602E+001
 20
6.333393E+001
 70
1
  0
VERTEX
  5
56c
100
AcDbEntity
  8
5
100
AcDbVertex
100
AcDb2dVertex
 42
8.9277656E-003
 10
8.9258125E+001
 20
6.323709E+001
 70
0
  0
VERTEX
  5
56d
100
AcDbEntity
  8
5
100
AcDbVertex
100
AcDb2dVertex
 42
9.1279474E-003
 10
8.9356348E+001
 20
6.3146471E+001
 70
1
  0
VERTEX
  5
56e
100
AcDbEntity
  8
5
100
AcDbVertex
100
AcDb2dVertex
 42
9.2097422E-003
 10
8.9457622E+001
 20
6.3059645E+001
 70
0
  0
VERTEX
  5
56f
100
AcDbEntity
  8
5
100
AcDbVertex
100
AcDb2dVertex
 42
9.1269768E-003
 10
8.956461E+001
 20
6.2974637E+001
 70
1
  0
VERTEX
  5
570
100
AcDbEntity
  8
5
100
AcDbVertex
100
AcDb2dVertex
 42
9.7317424E-003
 10
8.9677169E+001
 20
6.2891822E+001
 70
0
  0
VERTEX
  5
571
100
AcDbEntity
  8
5
100
AcDbVertex
100
AcDb2dVertex
 42
1.0163656E-002
 10
8.9795118E+001
 20
6.2812263E+001
 70
1
  0
VERTEX
  5
572
100
AcDbEntity
  8
5
100
AcDbVertex
100
AcDb2dVertex
 42
1.0599321E-002
 10
8.9917995E+001
 20
6.2736495E+001
 70
0
  0
VERTEX
  5
573
100
AcDbEntity
  8
5
100
AcDbVertex
100
AcDb2dVertex
 42
1.1008593E-002
 10
9.0045743E+001
 20
6.2665329E+001
 70
1
  0
VERTEX
  5
574
100
AcDbEntity
  8
5
100
AcDbVertex
100
AcDb2dVertex
 42
1.1635983E-002
 10
9.0177738E+001
 20
6.2599324E+001
 70
0
  0
VERTEX
  5
575
100
AcDbEntity
  8
5
100
AcDbVertex
100
AcDb2dVertex
 42
1.2145232E-002
 10
9.0313632E+001
 20
6.2539472E+001
 70
1
  0
VERTEX
  5
576
100
AcDbEntity
  8
5
100
AcDbVertex
100
AcDb2dVertex
 42
1.2746379E-002
 10
9.0452625E+001
 20
6.2486217E+001
 70
0
  0
VERTEX
  5
577
100
AcDbEntity
  8
5
100
AcDbVertex
100
AcDb2dVertex
 42
1.3494909E-002
 10
9.0594146E+001
 20
6.2440546E+001
 70
1
  0
VERTEX
  5
578
100
AcDbEntity
  8
5
100
AcDbVertex
100
AcDb2dVertex
 42
1.4571993E-002
 10
9.0737458E+001
 20
6.2402891E+001
 70
0
  0
VERTEX
  5
579
100
AcDbEntity
  8
5
100
AcDbVertex
100
AcDb2dVertex
 42
1.4948246E-002
 10
9.0881826E+001
 20
6.237424E+001
 70
1
  0
VERTEX
  5
57a
100
AcDbEntity
  8
5
100
AcDbVertex
100
AcDb2dVertex
 42
1.4810077E-002
 10
9.1025773E+001
 20
6.2354331E+001
 70
0
  0
VERTEX
  5
57b
100
AcDbEntity
  8
5
100
AcDbVertex
100
AcDb2dVertex
 42
1.7102723E-002
 10
9.1168151E+001
 20
6.2343852E+001
 70
1
  0
VERTEX
  5
57c
100
AcDbEntity
  8
5
100
AcDbVertex
100
AcDb2dVertex
 42
2.1460117E-002
 10
9.1310209E+001
 20
6.2344244E+001
 70
0
  0
VERTEX
  5
57d
100
AcDbEntity
  8
5
100
AcDbVertex
100
AcDb2dVertex
 42
1.7514483E-002
 10
9.145162E+001
 20
6.2356662E+001
 70
1
  0
VERTEX
  5
57e
100
AcDbEntity
  8
5
100
AcDbVertex
100
AcDb2dVertex
 42
6.992011E-003
 10
9.1583051E+001
 20
6.2374574E+001
 70
0
  0
VERTEX
  5
57f
100
AcDbEntity
  8
5
100
AcDbVertex
100
AcDb2dVertex
 42
2.552944E-002
 10
9.170047E+001
 20
6.239622E+001
 70
1
  0
VERTEX
  5
580
100
AcDbEntity
  8
5
100
AcDbVertex
100
AcDb2dVertex
 42
4.7229958E-002
 10
9.1836889E+001
 20
6.2445206E+001
 70
0
  0
VERTEX
  5
581
100
AcDbEntity
  8
5
100
AcDbVertex
100
AcDb2dVertex
 42
2.4800808E-002
 10
9.2026695E+001
 20
6.2547143E+001
 70
1
  0
VERTEX
  5
582
100
AcDbEntity
  8
5
100
AcDbVertex
100
AcDb2dVertex
 42
1.3353792E-002
 10
9.2263219E+001
 20
6.269661E+001
 70
0
  0
SEQEND
  5
583
100
AcDbEntity
  0
POLYLINE
  5
584
100
AcDbEntity
  8
5
100
AcDb2dPolyline
  6
CONTINUOUS
 62
6
 66
1
 40
0.0
 41
0.0
 70
2
  0
VERTEX
  5
585
100
AcDbEntity
  8
5
100
AcDbVertex
100
AcDb2dVertex
 42
0.0
 10
9.2679836E+001
 20
6.3816343E+001
 70
0
  0
VERTEX
  5
586
100
AcDbEntity
  8
5
100
AcDbVertex
100
AcDb2dVertex
 42
2.1659373E-003
 10
9.2679758E+001
 20
6.3834329E+001
 70
1
  0
VERTEX
  5
587
100
AcDbEntity
  8
5
100
AcDbVertex
100
AcDb2dVertex
 42
2.1205897E-003
 10
9.2679527E+001
 20
6.3852448E+001
 70
0
  0
VERTEX
  5
588
100
AcDbEntity
  8
5
100
AcDbVertex
100
AcDb2dVertex
 42
2.1009356E-003
 10
9.2679136E+001
 20
6.3870705E+001
 70
1
  0
VERTEX
  5
589
100
AcDbEntity
  8
5
100
AcDbVertex
100
AcDb2dVertex
 42
2.1122678E-003
 10
9.267859E+001
 20
6.3889095E+001
 70
0
  0
VERTEX
  5
58a
100
AcDbEntity
  8
5
100
AcDbVertex
100
AcDb2dVertex
 42
2.1110024E-003
 10
9.2677879E+001
 20
6.3907622E+001
 70
1
  0
VERTEX
  5
58b
100
AcDbEntity
  8
5
100
AcDbVertex
100
AcDb2dVertex
 42
2.107931E-003
 10
9.2677007E+001
 20
6.392628E+001
 70
0
  0
VERTEX
  5
58c
100
AcDbEntity
  8
5
100
AcDbVertex
100
AcDb2dVertex
 42
2.1018576E-003
 10
9.2675967E+001
 20
6.3945074E+001
 70
1
  0
VERTEX
  5
58d
100
AcDbEntity
  8
5
100
AcDbVertex
100
AcDb2dVertex
 42
2.1020604E-003
 10
9.2674762E+001
 20
6.3963997E+001
 70
0
  0
VERTEX
  5
58e
100
AcDbEntity
  8
5
100
AcDbVertex
100
AcDb2dVertex
 42
2.0972121E-003
 10
9.2673383E+001
 20
6.3983054E+001
 70
1
  0
VERTEX
  5
58f
100
AcDbEntity
  8
5
100
AcDbVertex
100
AcDb2dVertex
 42
2.0967989E-003
 10
9.2671836E+001
 20
6.4002239E+001
 70
0
  0
VERTEX
  5
590
100
AcDbEntity
  8
5
100
AcDbVertex
100
AcDb2dVertex
 42
2.0909569E-003
 10
9.2670111E+001
 20
6.4021556E+001
 70
1
  0
VERTEX
  5
591
100
AcDbEntity
  8
5
100
AcDbVertex
100
AcDb2dVertex
 42
2.0890904E-003
 10
9.2668214E+001
 20
6.4040999E+001
 70
0
  0
VERTEX
  5
592
100
AcDbEntity
  8
5
100
AcDbVertex
100
AcDb2dVertex
 42
2.0853747E-003
 10
9.2666134E+001
 20
6.4060571E+001
 70
1
  0
VERTEX
  5
593
100
AcDbEntity
  8
5
100
AcDbVertex
100
AcDb2dVertex
 42
2.0885662E-003
 10
9.2663878E+001
 20
6.4080269E+001
 70
0
  0
VERTEX
  5
594
100
AcDbEntity
  8
5
100
AcDbVertex
100
AcDb2dVertex
 42
2.0773841E-003
 10
9.2661434E+001
 20
6.4100096E+001
 70
1
  0
VERTEX
  5
595
100
AcDbEntity
  8
5
100
AcDbVertex
100
AcDb2dVertex
 42
2.0627233E-003
 10
9.2658811E+001
 20
6.4120039E+001
 70
0
  0
VERTEX
  5
596
100
AcDbEntity
  8
5
100
AcDbVertex
100
AcDb2dVertex
 42
2.076678E-003
 10
9.2656E+001
 20
6.4140099E+001
 70
1
  0
VERTEX
  5
597
100
AcDbEntity
  8
5
100
AcDbVertex
100
AcDb2dVertex
 42
2.1204042E-003
 10
9.2652998E+001
 20
6.4160301E+001
 70
0
  0
VERTEX
  5
598
100
AcDbEntity
  8
5
100
AcDbVertex
100
AcDb2dVertex
 42
2.0502506E-003
 10
9.2649793E+001
 20
6.4180657E+001
 70
1
  0
VERTEX
  5
599
100
AcDbEntity
  8
5
100
AcDbVertex
100
AcDb2dVertex
 42
1.9059072E-003
 10
9.2646422E+001
 20
6.4201042E+001
 70
0
  0
VERTEX
  5
59a
100
AcDbEntity
  8
5
100
AcDbVertex
100
AcDb2dVertex
 42
2.1110937E-003
 10
9.2642883E+001
 20
6.4221419E+001
 70
1
  0
VERTEX
  5
59b
100
AcDbEntity
  8
5
100
AcDbVertex
100
AcDb2dVertex
 42
2.5301394E-003
 10
9.2639067E+001
 20
6.4242252E+001
 70
0
  0
VERTEX
  5
59c
100
AcDbEntity
  8
5
100
AcDbVertex
100
AcDb2dVertex
 42
1.8913664E-003
 10
9.2634923E+001
 20
6.4263706E+001
 70
1
  0
VERTEX
  5
59d
100
AcDbEntity
  8
5
100
AcDbVertex
100
AcDb2dVertex
 42
6.02773E-004
 10
9.2630919E+001
 20
6.4283916E+001
 70
0
  0
VERTEX
  5
59e
100
AcDbEntity
  8
5
100
AcDbVertex
100
AcDb2dVertex
 42
2.7051362E-003
 10
9.2627201E+001
 20
6.4302244E+001
 70
1
  0
VERTEX
  5
59f
100
AcDbEntity
  8
5
100
AcDbVertex
100
AcDb2dVertex
 42
4.637615E-003
 10
9.2621962E+001
 20
6.4326023E+001
 70
0
  0
VERTEX
  5
5a0
100
AcDbEntity
  8
5
100
AcDbVertex
100
AcDb2dVertex
 42
2.2216269E-003
 10
9.2613287E+001
 20
6.4362953E+001
 70
1
  0
VERTEX
  5
5a1
100
AcDbEntity
  8
5
100
AcDbVertex
100
AcDb2dVertex
 42
1.1590536E-003
 10
9.2601565E+001
 20
6.44115E+001
 70
0
  0
SEQEND
  5
5a2
100
AcDbEntity
  0
POLYLINE
  5
5a3
100
AcDbEntity
  8
5
100
AcDb2dPolyline
  6
CONTINUOUS
 62
6
 66
1
 40
0.0
 41
0.0
 70
2
  0
VERTEX
  5
5a4
100
AcDbEntity
  8
5
100
AcDbVertex
100
AcDb2dVertex
 42
0.0
 10
9.0320072E+001
 20
6.6800904E+001
 70
0
  0
VERTEX
  5
5a5
100
AcDbEntity
  8
5
100
AcDbVertex
100
AcDb2dVertex
 42
1.3537919E-002
 10
9.0166106E+001
 20
6.6842023E+001
 70
1
  0
VERTEX
  5
5a6
100
AcDbEntity
  8
5
100
AcDbVertex
100
AcDb2dVertex
 42
1.5353942E-002
 10
9.0017091E+001
 20
6.687287E+001
 70
0
  0
VERTEX
  5
5a7
100
AcDbEntity
  8
5
100
AcDbVertex
100
AcDb2dVertex
 42
1.634869E-002
 10
8.9873156E+001
 20
6.6892927E+001
 70
1
  0
VERTEX
  5
5a8
100
AcDbEntity
  8
5
100
AcDbVertex
100
AcDb2dVertex
 42
1.6242233E-002
 10
8.9734618E+001
 20
6.6903239E+001
 70
0
  0
VERTEX
  5
5a9
100
AcDbEntity
  8
5
100
AcDbVertex
100
AcDb2dVertex
 42
1.6362383E-002
 10
8.9602417E+001
 20
6.6904217E+001
 70
1
  0
VERTEX
  5
5aa
100
AcDbEntity
  8
5
100
AcDbVertex
100
AcDb2dVertex
 42
1.6296824E-002
 10
8.9477162E+001
 20
6.689709E+001
 70
0
  0
VERTEX
  5
5ab
100
AcDbEntity
  8
5
100
AcDbVertex
100
AcDb2dVertex
 42
1.7104467E-002
 10
8.9359504E+001
 20
6.6882294E+001
 70
1
  0
VERTEX
  5
5ac
100
AcDbEntity
  8
5
100
AcDbVertex
100
AcDb2dVertex
 42
1.7222429E-002
 10
8.9246952E+001
 20
6.6860278E+001
 70
0
  0
VERTEX
  5
5ad
100
AcDbEntity
  8
5
100
AcDbVertex
100
AcDb2dVertex
 42
1.7684694E-002
 10
8.9137192E+001
 20
6.6830604E+001
 70
1
  0
VERTEX
  5
5ae
100
AcDbEntity
  8
5
100
AcDbVertex
100
AcDb2dVertex
 42
1.9103393E-002
 10
8.9029161E+001
 20
6.6792789E+001
 70
0
  0
VERTEX
  5
5af
100
AcDbEntity
  8
5
100
AcDbVertex
100
AcDb2dVertex
 42
1.9905445E-002
 10
8.8922574E+001
 20
6.6745611E+001
 70
1
  0
VERTEX
  5
5b0
100
AcDbEntity
  8
5
100
AcDbVertex
100
AcDb2dVertex
 42
2.1212961E-002
 10
8.8818363E+001
 20
6.6689003E+001
 70
0
  0
VERTEX
  5
5b1
100
AcDbEntity
  8
5
100
AcDbVertex
100
AcDb2dVertex
 42
2.2148753E-002
 10
8.8717907E+001
 20
6.6622219E+001
 70
1
  0
VERTEX
  5
5b2
100
AcDbEntity
  8
5
100
AcDbVertex
100
AcDb2dVertex
 42
2.3040795E-002
 10
8.8622053E+001
 20
6.6545379E+001
 70
0
  0
VERTEX
  5
5b3
100
AcDbEntity
  8
5
100
AcDbVertex
100
AcDb2dVertex
 42
2.3475726E-002
 10
8.8531998E+001
 20
6.6457832E+001
 70
1
  0
VERTEX
  5
5b4
100
AcDbEntity
  8
5
100
AcDbVertex
100
AcDb2dVertex
 42
2.39854E-002
 10
8.8448577E+001
 20
6.6359999E+001
 70
0
  0
VERTEX
  5
5b5
100
AcDbEntity
  8
5
100
AcDbVertex
100
AcDb2dVertex
 42
2.3957802E-002
 10
8.8373181E+001
 20
6.6251549E+001
 70
1
  0
VERTEX
  5
5b6
100
AcDbEntity
  8
5
100
AcDbVertex
100
AcDb2dVertex
 42
2.3882191E-002
 10
8.8306483E+001
 20
6.6133228E+001
 70
0
  0
VERTEX
  5
5b7
100
AcDbEntity
  8
5
100
AcDbVertex
100
AcDb2dVertex
 42
2.3340312E-002
 10
8.8249831E+001
 20
6.600508E+001
 70
1
  0
VERTEX
  5
5b8
100
AcDbEntity
  8
5
100
AcDbVertex
100
AcDb2dVertex
 42
2.2787303E-002
 10
8.8203632E+001
 20
6.5868182E+001
 70
0
  0
VERTEX
  5
5b9
100
AcDbEntity
  8
5
100
AcDbVertex
100
AcDb2dVertex
 42
2.1901628E-002
 10
8.8169082E+001
 20
6.5722994E+001
 70
1
  0
VERTEX
  5
5ba
100
AcDbEntity
  8
5
100
AcDbVertex
100
AcDb2dVertex
 42
2.1038794E-002
 10
8.8146222E+001
 20
6.5570866E+001
 70
0
  0
VERTEX
  5
5bb
100
AcDbEntity
  8
5
100
AcDbVertex
100
AcDb2dVertex
 42
2.0010078E-002
 10
8.8135953E+001
 20
6.5412654E+001
 70
1
  0
VERTEX
  5
5bc
100
AcDbEntity
  8
5
100
AcDbVertex
100
AcDb2dVertex
 42
1.9032515E-002
 10
8.81379E+001
 20
6.524986E+001
 70
0
  0
VERTEX
  5
5bd
100
AcDbEntity
  8
5
100
AcDbVertex
100
AcDb2dVertex
 42
1.8028489E-002
 10
8.8152578E+001
 20
6.5083655E+001
 70
1
  0
VERTEX
  5
5be
100
AcDbEntity
  8
5
100
AcDbVertex
100
AcDb2dVertex
 42
1.7071656E-002
 10
8.8179207E+001
 20
6.4915545E+001
 70
0
  0
VERTEX
  5
5bf
100
AcDbEntity
  8
5
100
AcDbVertex
100
AcDb2dVertex
 42
1.6186126E-002
 10
8.821788E+001
 20
6.4746879E+001
 70
1
  0
VERTEX
  5
5c0
100
AcDbEntity
  8
5
100
AcDbVertex
100
AcDb2dVertex
 42
1.5322029E-002
 10
8.8267489E+001
 20
6.4579008E+001
 70
0
  0
VERTEX
  5
5c1
100
AcDbEntity
  8
5
100
AcDbVertex
100
AcDb2dVertex
 42
1.458771E-002
 10
8.8327739E+001
 20
6.4413311E+001
 70
1
  0
VERTEX
  5
5c2
100
AcDbEntity
  8
5
100
AcDbVertex
100
AcDb2dVertex
 42
1.3838554E-002
 10
8.8397314E+001
 20
6.425086E+001
 70
0
  0
VERTEX
  5
5c3
100
AcDbEntity
  8
5
100
AcDbVertex
100
AcDb2dVertex
 42
1.3255359E-002
 10
8.8475615E+001
 20
6.4092924E+001
 70
1
  0
VERTEX
  5
5c4
100
AcDbEntity
  8
5
100
AcDbVertex
100
AcDb2dVertex
 42
1.2625927E-002
 10
8.8561265E+001
 20
6.3940221E+001
 70
0
  0
VERTEX
  5
5c5
100
AcDbEntity
  8
5
100
AcDbVertex
100
AcDb2dVertex
 42
1.2166018E-002
 10
8.8653474E+001
 20
6.3793813E+001
 70
1
  0
VERTEX
  5
5c6
100
AcDbEntity
  8
5
100
AcDbVertex
100
AcDb2dVertex
 42
1.1618531E-002
 10
8.8750916E+001
 20
6.3654051E+001
 70
0
  0
VERTEX
  5
5c7
100
AcDbEntity
  8
5
100
AcDbVertex
100
AcDb2dVertex
 42
1.1291766E-002
 10
8.8852718E+001
 20
6.3521745E+001
 70
1
  0
VERTEX
  5
5c8
100
AcDbEntity
  8
5
100
AcDbVertex
100
AcDb2dVertex
 42
1.0899575E-002
 10
8.8957771E+001
 20
6.3396897E+001
 70
0
  0
VERTEX
  5
5c9
100
AcDbEntity
  8
5
100
AcDbVertex
100
AcDb2dVertex
 42
1.0561476E-002
 10
8.9065237E+001
 20
6.3280051E+001
 70
1
  0
VERTEX
  5
5ca
100
AcDbEntity
  8
5
100
AcDbVertex
100
AcDb2dVertex
 42
9.9774048E-003
 10
8.9173992E+001
 20
6.3170999E+001
 70
0
  0
VERTEX
  5
5cb
100
AcDbEntity
  8
5
100
AcDbVertex
100
AcDb2dVertex
 42
1.0223989E-002
 10
8.9283742E+001
 20
6.3069633E+001
 70
1
  0
VERTEX
  5
5cc
100
AcDbEntity
  8
5
100
AcDbVertex
100
AcDb2dVertex
 42
1.0341087E-002
 10
8.9397372E+001
 20
6.2972978E+001
 70
0
  0
VERTEX
  5
5cd
100
AcDbEntity
  8
5
100
AcDbVertex
100
AcDb2dVertex
 42
1.024472E-002
 10
8.9518163E+001
 20
6.2878657E+001
 70
1
  0
VERTEX
  5
5ce
100
AcDbEntity
  8
5
100
AcDbVertex
100
AcDb2dVertex
 42
1.101002E-002
 10
8.9645861E+001
 20
6.2787266E+001
 70
0
  0
VERTEX
  5
5cf
100
AcDbEntity
  8
5
100
AcDbVertex
100
AcDb2dVertex
 42
1.1571576E-002
 10
8.9780156E+001
 20
6.2700286E+001
 70
1
  0
VERTEX
  5
5d0
100
AcDbEntity
  8
5
100
AcDbVertex
100
AcDb2dVertex
 42
1.2147571E-002
 10
8.9920388E+001
 20
6.2618486E+001
 70
0
  0
VERTEX
  5
5d1
100
AcDbEntity
  8
5
100
AcDbVertex
100
AcDb2dVertex
 42
1.2681424E-002
 10
9.0066371E+001
 20
6.2543013E+001
 70
1
  0
VERTEX
  5
5d2
100
AcDbEntity
  8
5
100
AcDbVertex
100
AcDb2dVertex
 42
1.3483807E-002
 10
9.0217174E+001
 20
6.2474636E+001
 70
0
  0
VERTEX
  5
5d3
100
AcDbEntity
  8
5
100
AcDbVertex
100
AcDb2dVertex
 42
1.4212592E-002
 10
9.0372168E+001
 20
6.2414726E+001
 70
1
  0
VERTEX
  5
5d4
100
AcDbEntity
  8
5
100
AcDbVertex
100
AcDb2dVertex
 42
1.5123923E-002
 10
9.0530225E+001
 20
6.2363897E+001
 70
0
  0
VERTEX
  5
5d5
100
AcDbEntity
  8
5
100
AcDbVertex
100
AcDb2dVertex
 42
1.600526E-002
 10
9.0690396E+001
 20
6.2323468E+001
 70
1
  0
VERTEX
  5
5d6
100
AcDbEntity
  8
5
100
AcDbVertex
100
AcDb2dVertex
 42
1.7068969E-002
 10
9.0851413E+001
 20
6.2293799E+001
 70
0
  0
VERTEX
  5
5d7
100
AcDbEntity
  8
5
100
AcDbVertex
100
AcDb2dVertex
 42
1.8113701E-002
 10
9.1012024E+001
 20
6.2276066E+001
 70
1
  0
VERTEX
  5
5d8
100
AcDbEntity
  8
5
100
AcDbVertex
100
AcDb2dVertex
 42
1.9266941E-002
 10
9.1170934E+001
 20
6.2270269E+001
 70
0
  0
VERTEX
  5
5d9
100
AcDbEntity
  8
5
100
AcDbVertex
100
AcDb2dVertex
 42
2.0422518E-002
 10
9.1326695E+001
 20
6.2277291E+001
 70
1
  0
VERTEX
  5
5da
100
AcDbEntity
  8
5
100
AcDbVertex
100
AcDb2dVertex
 42
2.1596139E-002
 10
9.147813E+001
 20
6.2296735E+001
 70
0
  0
VERTEX
  5
5db
100
AcDbEntity
  8
5
100
AcDbVertex
100
AcDb2dVertex
 42
2.2673854E-002
 10
9.1623735E+001
 20
6.2329097E+001
 70
1
  0
VERTEX
  5
5dc
100
AcDbEntity
  8
5
100
AcDbVertex
100
AcDb2dVertex
 42
2.3525184E-002
 10
9.1762587E+001
 20
6.2373515E+001
 70
0
  0
VERTEX
  5
5dd
100
AcDbEntity
  8
5
100
AcDbVertex
100
AcDb2dVertex
 42
2.4486885E-002
 10
9.1893278E+001
 20
6.2430032E+001
 70
1
  0
VERTEX
  5
5de
100
AcDbEntity
  8
5
100
AcDbVertex
100
AcDb2dVertex
 42
2.5308986E-002
 10
9.2015265E+001
 20
6.2497659E+001
 70
0
  0
VERTEX
  5
5df
100
AcDbEntity
  8
5
100
AcDbVertex
100
AcDb2dVertex
 42
2.5183382E-002
 10
9.212738E+001
 20
6.2576106E+001
 70
1
  0
VERTEX
  5
5e0
100
AcDbEntity
  8
5
100
AcDbVertex
100
AcDb2dVertex
 42
2.3899083E-002
 10
9.2229441E+001
 20
6.2663313E+001
 70
0
  0
VERTEX
  5
5e1
100
AcDbEntity
  8
5
100
AcDbVertex
100
AcDb2dVertex
 42
2.5252367E-002
 10
9.2320579E+001
 20
6.2758369E+001
 70
1
  0
VERTEX
  5
5e2
100
AcDbEntity
  8
5
100
AcDbVertex
100
AcDb2dVertex
 42
2.7934537E-002
 10
9.2401236E+001
 20
6.2862499E+001
 70
0
  0
VERTEX
  5
5e3
100
AcDbEntity
  8
5
100
AcDbVertex
100
AcDb2dVertex
 42
2.1967915E-002
 10
9.2470968E+001
 20
6.2975739E+001
 70
1
  0
VERTEX
  5
5e4
100
AcDbEntity
  8
5
100
AcDbVertex
100
AcDb2dVertex
 42
1.0550305E-002
 10
9.2529686E+001
 20
6.3086141E+001
 70
0
  0
VERTEX
  5
5e5
100
AcDbEntity
  8
5
100
AcDbVertex
100
AcDb2dVertex
 42
2.6251768E-002
 10
9.2576969E+001
 20
6.3189095E+001
 70
1
  0
VERTEX
  5
5e6
100
AcDbEntity
  8
5
100
AcDbVertex
100
AcDb2dVertex
 42
4.0194367E-002
 10
9.2616381E+001
 20
6.3325072E+001
 70
0
  0
VERTEX
  5
5e7
100
AcDbEntity
  8
5
100
AcDbVertex
100
AcDb2dVertex
 42
1.9878225E-002
 10
9.2650745E+001
 20
6.3537039E+001
 70
1
  0
VERTEX
  5
5e8
100
AcDbEntity
  8
5
100
AcDbVertex
100
AcDb2dVertex
 42
1.0866159E-002
 10
9.2679836E+001
 20
6.3816343E+001
 70
0
  0
SEQEND
  5
5e9
100
AcDbEntity
  0
ELLIPSE
  5
5ea
100
AcDbEntity
  8
5
100
AcDbEllipse
  6
CONTINUOUS
 10
6.6646346E+001
 20
7.6132312E+001
 11
3.5671708
 21
-3.7835555
 40
7.0710678E-001
 41
0.0
 42
6.2831853
 62
6
  0
POLYLINE
  5
5eb
100
AcDbEntity
  8
5
100
AcDb2dPolyline
  6
CONTINUOUS
 62
6
 66
1
 40
0.0
 41
0.0
 70
2
  0
VERTEX
  5
5ec
100
AcDbEntity
  8
5
100
AcDbVertex
100
AcDb2dVertex
 42
0.0
 10
6.3157834E+001
 20
7.9987053E+001
 70
0
  0
VERTEX
  5
5ed
100
AcDbEntity
  8
5
100
AcDbVertex
100
AcDb2dVertex
 42
2.2836503E-002
 10
6.3007476E+001
 20
7.9819622E+001
 70
1
  0
VERTEX
  5
5ee
100
AcDbEntity
  8
5
100
AcDbVertex
100
AcDb2dVertex
 42
2.1683259E-002
 10
6.2869922E+001
 20
7.9636367E+001
 70
0
  0
VERTEX
  5
5ef
100
AcDbEntity
  8
5
100
AcDbVertex
100
AcDb2dVertex
 42
2.0941655E-002
 10
6.2745487E+001
 20
7.9436543E+001
 70
1
  0
VERTEX
  5
5f0
100
AcDbEntity
  8
5
100
AcDbVertex
100
AcDb2dVertex
 42
2.1207446E-002
 10
6.263513E+001
 20
7.9221422E+001
 70
0
  0
VERTEX
  5
5f1
100
AcDbEntity
  8
5
100
AcDbVertex
100
AcDb2dVertex
 42
2.0876377E-002
 10
6.2541216E+001
 20
7.8991219E+001
 70
1
  0
VERTEX
  5
5f2
100
AcDbEntity
  8
5
100
AcDbVertex
100
AcDb2dVertex
 42
2.0268821E-002
 10
6.2464145E+001
 20
7.8747565E+001
 70
0
  0
VERTEX
  5
5f3
100
AcDbEntity
  8
5
100
AcDbVertex
100
AcDb2dVertex
 42
1.9502787E-002
 10
6.2405525E+001
 20
7.8491099E+001
 70
1
  0
VERTEX
  5
5f4
100
AcDbEntity
  8
5
100
AcDbVertex
100
AcDb2dVertex
 42
1.883732E-002
 10
6.2365325E+001
 20
7.8223781E+001
 70
0
  0
VERTEX
  5
5f5
100
AcDbEntity
  8
5
100
AcDbVertex
100
AcDb2dVertex
 42
1.802483E-002
 10
6.2344918E+001
 20
7.7946789E+001
 70
1
  0
VERTEX
  5
5f6
100
AcDbEntity
  8
5
100
AcDbVertex
100
AcDb2dVertex
 42
1.7234554E-002
 10
6.2343728E+001
 20
7.7662265E+001
 70
0
  0
VERTEX
  5
5f7
100
AcDbEntity
  8
5
100
AcDbVertex
100
AcDb2dVertex
 42
1.6418578E-002
 10
6.2362613E+001
 20
7.7371794E+001
 70
1
  0
VERTEX
  5
5f8
100
AcDbEntity
  8
5
100
AcDbVertex
100
AcDb2dVertex
 42
1.5644715E-002
 10
6.2400482E+001
 20
7.707753E+001
 70
0
  0
VERTEX
  5
5f9
100
AcDbEntity
  8
5
100
AcDbVertex
100
AcDb2dVertex
 42
1.4908142E-002
 10
6.2457667E+001
 20
7.6781331E+001
 70
1
  0
VERTEX
  5
5fa
100
AcDbEntity
  8
5
100
AcDbVertex
100
AcDb2dVertex
 42
1.4190461E-002
 10
6.2532639E+001
 20
7.6485183E+001
 70
0
  0
VERTEX
  5
5fb
100
AcDbEntity
  8
5
100
AcDbVertex
100
AcDb2dVertex
 42
1.3558509E-002
 10
6.2625214E+001
 20
7.6191041E+001
 70
1
  0
VERTEX
  5
5fc
100
AcDbEntity
  8
5
100
AcDbVertex
100
AcDb2dVertex
 42
1.2922928E-002
 10
6.2733554E+001
 20
7.5900569E+001
 70
0
  0
VERTEX
  5
5fd
100
AcDbEntity
  8
5
100
AcDbVertex
100
AcDb2dVertex
 42
1.2400378E-002
 10
6.2857041E+001
 20
7.5615655E+001
 70
1
  0
VERTEX
  5
5fe
100
AcDbEntity
  8
5
100
AcDbVertex
100
AcDb2dVertex
 42
1.184795E-002
 10
6.2993687E+001
 20
7.5337534E+001
 70
0
  0
VERTEX
  5
5ff
100
AcDbEntity
  8
5
100
AcDbVertex
100
AcDb2dVertex
 42
1.1428294E-002
 10
6.3142551E+001
 20
7.5067896E+001
 70
1
  0
VERTEX
  5
600
100
AcDbEntity
  8
5
100
AcDbVertex
100
AcDb2dVertex
 42
1.0959295E-002
 10
6.3301665E+001
 20
7.4807496E+001
 70
0
  0
VERTEX
  5
601
100
AcDbEntity
  8
5
100
AcDbVertex
100
AcDb2dVertex
 42
1.0620136E-002
 10
6.3469899E+001
 20
7.4557738E+001
 70
1
  0
VERTEX
  5
602
100
AcDbEntity
  8
5
100
AcDbVertex
100
AcDb2dVertex
 42
1.0202527E-002
 10
6.3645401E+001
 20
7.4318923E+001
 70
0
  0
VERTEX
  5
603
100
AcDbEntity
  8
5
100
AcDbVertex
100
AcDb2dVertex
 42
9.9590731E-003
 10
6.3826963E+001
 20
7.4092138E+001
 70
1
  0
VERTEX
  5
604
100
AcDbEntity
  8
5
100
AcDbVertex
100
AcDb2dVertex
 42
9.6600918E-003
 10
6.401308E+001
 20
7.3877226E+001
 70
0
  0
VERTEX
  5
605
100
AcDbEntity
  8
5
100
AcDbVertex
100
AcDb2dVertex
 42
9.390413E-003
 10
6.4202614E+001
 20
7.3674942E+001
 70
1
  0
VERTEX
  5
606
100
AcDbEntity
  8
5
100
AcDbVertex
100
AcDb2dVertex
 42
8.924649E-003
 10
6.4393913E+001
 20
7.3484984E+001
 70
0
  0
VERTEX
  5
607
100
AcDbEntity
  8
5
100
AcDbVertex
100
AcDb2dVertex
 42
9.1246951E-003
 10
6.4586583E+001
 20
7.3307228E+001
 70
1
  0
VERTEX
  5
608
100
AcDbEntity
  8
5
100
AcDbVertex
100
AcDb2dVertex
 42
9.2062939E-003
 10
6.4785235E+001
 20
7.3136907E+001
 70
0
  0
VERTEX
  5
609
100
AcDbEntity
  8
5
100
AcDbVertex
100
AcDb2dVertex
 42
9.123548E-003
 10
6.499509E+001
 20
7.2970153E+001
 70
1
  0
VERTEX
  5
60a
100
AcDbEntity
  8
5
100
AcDbVertex
100
AcDb2dVertex
 42
9.727842E-003
 10
6.5215869E+001
 20
7.2807698E+001
 70
0
  0
VERTEX
  5
60b
100
AcDbEntity
  8
5
100
AcDbVertex
100
AcDb2dVertex
 42
1.015936E-002
 10
6.5447217E+001
 20
7.2651626E+001
 70
1
  0
VERTEX
  5
60c
100
AcDbEntity
  8
5
100
AcDbVertex
100
AcDb2dVertex
 42
1.0594661E-002
 10
6.5688231E+001
 20
7.2502984E+001
 70
0
  0
VERTEX
  5
60d
100
AcDbEntity
  8
5
100
AcDbVertex
100
AcDb2dVertex
 42
1.1003572E-002
 10
6.5938798E+001
 20
7.2363365E+001
 70
1
  0
VERTEX
  5
60e
100
AcDbEntity
  8
5
100
AcDbVertex
100
AcDb2dVertex
 42
1.1630402E-002
 10
6.6197693E+001
 20
7.223386E+001
 70
0
  0
VERTEX
  5
60f
100
AcDbEntity
  8
5
100
AcDbVertex
100
AcDb2dVertex
 42
1.2139121E-002
 10
6.646424E+001
 20
7.2116418E+001
 70
1
  0
VERTEX
  5
610
100
AcDbEntity
  8
5
100
AcDbVertex
100
AcDb2dVertex
 42
1.2739645E-002
 10
6.6736866E+001
 20
7.2011907E+001
 70
0
  0
VERTEX
  5
611
100
AcDbEntity
  8
5
100
AcDbVertex
100
AcDb2dVertex
 42
1.3487494E-002
 10
6.7014456E+001
 20
7.1922261E+001
 70
1
  0
VERTEX
  5
612
100
AcDbEntity
  8
5
100
AcDbVertex
100
AcDb2dVertex
 42
1.4563724E-002
 10
6.7295562E+001
 20
7.184833E+001
 70
0
  0
VERTEX
  5
613
100
AcDbEntity
  8
5
100
AcDbVertex
100
AcDb2dVertex
 42
1.4939302E-002
 10
6.7578748E+001
 20
7.179205E+001
 70
1
  0
VERTEX
  5
614
100
AcDbEntity
  8
5
100
AcDbVertex
100
AcDb2dVertex
 42
1.4800729E-002
 10
6.7861115E+001
 20
7.1752909E+001
 70
0
  0
VERTEX
  5
615
100
AcDbEntity
  8
5
100
AcDbVertex
100
AcDb2dVertex
 42
1.7092033E-002
 10
6.8140414E+001
 20
7.1732254E+001
 70
1
  0
VERTEX
  5
616
100
AcDbEntity
  8
5
100
AcDbVertex
100
AcDb2dVertex
 42
2.1447144E-002
 10
6.8419098E+001
 20
7.1732914E+001
 70
0
  0
VERTEX
  5
617
100
AcDbEntity
  8
5
100
AcDbVertex
100
AcDb2dVertex
 42
1.7502961E-002
 10
6.869653E+001
 20
7.1757152E+001
 70
1
  0
VERTEX
  5
618
100
AcDbEntity
  8
5
100
AcDbVertex
100
AcDb2dVertex
 42
6.9855119E-003
 10
6.8954392E+001
 20
7.1792167E+001
 70
0
  0
VERTEX
  5
619
100
AcDbEntity
  8
5
100
AcDbVertex
100
AcDb2dVertex
 42
2.551454E-002
 10
6.9184769E+001
 20
7.1834515E+001
 70
1
  0
VERTEX
  5
61a
100
AcDbEntity
  8
5
100
AcDbVertex
100
AcDb2dVertex
 42
4.7205512E-002
 10
6.9452462E+001
 20
7.1930457E+001
 70
0
  0
VERTEX
  5
61b
100
AcDbEntity
  8
5
100
AcDbVertex
100
AcDb2dVertex
 42
2.4788281E-002
 10
6.9824973E+001
 20
7.213019E+001
 70
1
  0
VERTEX
  5
61c
100
AcDbEntity
  8
5
100
AcDbVertex
100
AcDb2dVertex
 42
1.3347061E-002
 10
7.0289207E+001
 20
7.2423091E+001
 70
0
  0
SEQEND
  5
61d
100
AcDbEntity
  0
POLYLINE
  5
61e
100
AcDbEntity
  8
5
100
AcDb2dPolyline
  6
CONTINUOUS
 62
1
 66
1
 40
0.0
 41
0.0
 70
2
  0
VERTEX
  5
61f
100
AcDbEntity
  8
5
100
AcDbVertex
100
AcDb2dVertex
 42
0.0
 10
6.6334089E+001
 20
7.9478531E+001
 70
0
  0
VERTEX
  5
620
100
AcDbEntity
  8
5
100
AcDbVertex
100
AcDb2dVertex
 42
2.2844392E-002
 10
6.6257387E+001
 20
7.939325E+001
 70
1
  0
VERTEX
  5
621
100
AcDbEntity
  8
5
100
AcDbVertex
100
AcDb2dVertex
 42
2.1690664E-002
 10
6.6187209E+001
 20
7.9299898E+001
 70
0
  0
VERTEX
  5
622
100
AcDbEntity
  8
5
100
AcDbVertex
100
AcDb2dVertex
 42
2.0949625E-002
 10
6.6123715E+001
 20
7.9198095E+001
 70
1
  0
VERTEX
  5
623
100
AcDbEntity
  8
5
100
AcDbVertex
100
AcDb2dVertex
 42
2.121748E-002
 10
6.6067394E+001
 20
7.9088489E+001
 70
0
  0
VERTEX
  5
624
100
AcDbEntity
  8
5
100
AcDbVertex
100
AcDb2dVertex
 42
2.0887413E-002
 10
6.6019455E+001
 20
7.8971186E+001
 70
1
  0
VERTEX
  5
625
100
AcDbEntity
  8
5
100
AcDbVertex
100
AcDb2dVertex
 42
2.0280347E-002
 10
6.5980101E+001
 20
7.8847021E+001
 70
0
  0
VERTEX
  5
626
100
AcDbEntity
  8
5
100
AcDbVertex
100
AcDb2dVertex
 42
1.9514319E-002
 10
6.5950153E+001
 20
7.8716317E+001
 70
1
  0
VERTEX
  5
627
100
AcDbEntity
  8
5
100
AcDbVertex
100
AcDb2dVertex
 42
1.8848882E-002
 10
6.5929597E+001
 20
7.8580074E+001
 70
0
  0
VERTEX
  5
628
100
AcDbEntity
  8
5
100
AcDbVertex
100
AcDb2dVertex
 42
1.8035944E-002
 10
6.5919133E+001
 20
7.8438891E+001
 70
1
  0
VERTEX
  5
629
100
AcDbEntity
  8
5
100
AcDbVertex
100
AcDb2dVertex
 42
1.7245211E-002
 10
6.591847E+001
 20
7.8293862E+001
 70
0
  0
VERTEX
  5
62a
100
AcDbEntity
  8
5
100
AcDbVertex
100
AcDb2dVertex
 42
1.6428525E-002
 10
6.5928044E+001
 20
7.8145795E+001
 70
1
  0
VERTEX
  5
62b
100
AcDbEntity
  8
5
100
AcDbVertex
100
AcDb2dVertex
 42
1.5654021E-002
 10
6.59473E+001
 20
7.7995789E+001
 70
0
  0
VERTEX
  5
62c
100
AcDbEntity
  8
5
100
AcDbVertex
100
AcDb2dVertex
 42
1.4916703E-002
 10
6.5976409E+001
 20
7.7844791E+001
 70
1
  0
VERTEX
  5
62d
100
AcDbEntity
  8
5
100
AcDbVertex
100
AcDb2dVertex
 42
1.4198352E-002
 10
6.601459E+001
 20
7.7693814E+001
 70
0
  0
VERTEX
  5
62e
100
AcDbEntity
  8
5
100
AcDbVertex
100
AcDb2dVertex
 42
1.3565733E-002
 10
6.6061751E+001
 20
7.7543857E+001
 70
1
  0
VERTEX
  5
62f
100
AcDbEntity
  8
5
100
AcDbVertex
100
AcDb2dVertex
 42
1.2929543E-002
 10
6.6116954E+001
 20
7.7395767E+001
 70
0
  0
VERTEX
  5
630
100
AcDbEntity
  8
5
100
AcDbVertex
100
AcDb2dVertex
 42
1.2406449E-002
 10
6.6179883E+001
 20
7.725051E+001
 70
1
  0
VERTEX
  5
631
100
AcDbEntity
  8
5
100
AcDbVertex
100
AcDb2dVertex
 42
1.1853506E-002
 10
6.6249526E+001
 20
7.7108714E+001
 70
0
  0
VERTEX
  5
632
100
AcDbEntity
  8
5
100
AcDbVertex
100
AcDb2dVertex
 42
1.1433429E-002
 10
6.6325401E+001
 20
7.6971243E+001
 70
1
  0
VERTEX
  5
633
100
AcDbEntity
  8
5
100
AcDbVertex
100
AcDb2dVertex
 42
1.0964005E-002
 10
6.6406505E+001
 20
7.6838482E+001
 70
0
  0
VERTEX
  5
634
100
AcDbEntity
  8
5
100
AcDbVertex
100
AcDb2dVertex
 42
1.0624541E-002
 10
6.6492262E+001
 20
7.6711146E+001
 70
1
  0
VERTEX
  5
635
100
AcDbEntity
  8
5
100
AcDbVertex
100
AcDb2dVertex
 42
1.0206596E-002
 10
6.6581727E+001
 20
7.6589391E+001
 70
0
  0
VERTEX
  5
636
100
AcDbEntity
  8
5
100
AcDbVertex
100
AcDb2dVertex
 42
9.962911E-003
 10
6.6674283E+001
 20
7.647377E+001
 70
1
  0
VERTEX
  5
637
100
AcDbEntity
  8
5
100
AcDbVertex
100
AcDb2dVertex
 42
9.66366E-003
 10
6.6769163E+001
 20
7.6364204E+001
 70
0
  0
VERTEX
  5
638
100
AcDbEntity
  8
5
100
AcDbVertex
100
AcDb2dVertex
 42
9.3938372E-003
 10
6.6865786E+001
 20
7.6261079E+001
 70
1
  0
VERTEX
  5
639
100
AcDbEntity
  8
5
100
AcDbVertex
100
AcDb2dVertex
 42
8.9277656E-003
 10
6.6963309E+001
 20
7.6164239E+001
 70
0
  0
VERTEX
  5
63a
100
AcDbEntity
  8
5
100
AcDbVertex
100
AcDb2dVertex
 42
9.1279474E-003
 10
6.7061532E+001
 20
7.607362E+001
 70
1
  0
VERTEX
  5
63b
100
AcDbEntity
  8
5
100
AcDbVertex
100
AcDb2dVertex
 42
9.2097422E-003
 10
6.7162806E+001
 20
7.5986794E+001
 70
0
  0
VERTEX
  5
63c
100
AcDbEntity
  8
5
100
AcDbVertex
100
AcDb2dVertex
 42
9.1269768E-003
 10
6.7269794E+001
 20
7.5901786E+001
 70
1
  0
VERTEX
  5
63d
100
AcDbEntity
  8
5
100
AcDbVertex
100
AcDb2dVertex
 42
9.7317424E-003
 10
6.7382353E+001
 20
7.5818971E+001
 70
0
  0
VERTEX
  5
63e
100
AcDbEntity
  8
5
100
AcDbVertex
100
AcDb2dVertex
 42
1.0163656E-002
 10
6.7500301E+001
 20
7.5739412E+001
 70
1
  0
VERTEX
  5
63f
100
AcDbEntity
  8
5
100
AcDbVertex
100
AcDb2dVertex
 42
1.0599321E-002
 10
6.7623178E+001
 20
7.5663643E+001
 70
0
  0
VERTEX
  5
640
100
AcDbEntity
  8
5
100
AcDbVertex
100
AcDb2dVertex
 42
1.1008593E-002
 10
6.7750927E+001
 20
7.5592478E+001
 70
1
  0
VERTEX
  5
641
100
AcDbEntity
  8
5
100
AcDbVertex
100
AcDb2dVertex
 42
1.1635983E-002
 10
6.7882921E+001
 20
7.5526472E+001
 70
0
  0
VERTEX
  5
642
100
AcDbEntity
  8
5
100
AcDbVertex
100
AcDb2dVertex
 42
1.2145232E-002
 10
6.8018816E+001
 20
7.5466621E+001
 70
1
  0
VERTEX
  5
643
100
AcDbEntity
  8
5
100
AcDbVertex
100
AcDb2dVertex
 42
1.2746379E-002
 10
6.8157808E+001
 20
7.5413366E+001
 70
0
  0
VERTEX
  5
644
100
AcDbEntity
  8
5
100
AcDbVertex
100
AcDb2dVertex
 42
1.3494909E-002
 10
6.829933E+001
 20
7.5367695E+001
 70
1
  0
VERTEX
  5
645
100
AcDbEntity
  8
5
100
AcDbVertex
100
AcDb2dVertex
 42
1.4571993E-002
 10
6.8442641E+001
 20
7.5330039E+001
 70
0
  0
VERTEX
  5
646
100
AcDbEntity
  8
5
100
AcDbVertex
100
AcDb2dVertex
 42
1.4948246E-002
 10
6.858701E+001
 20
7.5301389E+001
 70
1
  0
VERTEX
  5
647
100
AcDbEntity
  8
5
100
AcDbVertex
100
AcDb2dVertex
 42
1.4810077E-002
 10
6.8730956E+001
 20
7.528148E+001
 70
0
  0
VERTEX
  5
648
100
AcDbEntity
  8
5
100
AcDbVertex
100
AcDb2dVertex
 42
1.7102723E-002
 10
6.8873334E+001
 20
7.5271001E+001
 70
1
  0
VERTEX
  5
649
100
AcDbEntity
  8
5
100
AcDbVertex
100
AcDb2dVertex
 42
2.1460117E-002
 10
6.9015392E+001
 20
7.5271393E+001
 70
0
  0
VERTEX
  5
64a
100
AcDbEntity
  8
5
100
AcDbVertex
100
AcDb2dVertex
 42
1.7514483E-002
 10
6.9156803E+001
 20
7.5283811E+001
 70
1
  0
VERTEX
  5
64b
100
AcDbEntity
  8
5
100
AcDbVertex
100
AcDb2dVertex
 42
6.992011E-003
 10
6.9288235E+001
 20
7.5301723E+001
 70
0
  0
VERTEX
  5
64c
100
AcDbEntity
  8
5
100
AcDbVertex
100
AcDb2dVertex
 42
2.552944E-002
 10
6.9405654E+001
 20
7.5323369E+001
 70
1
  0
VERTEX
  5
64d
100
AcDbEntity
  8
5
100
AcDbVertex
100
AcDb2dVertex
 42
4.7229958E-002
 10
6.9542072E+001
 20
7.5372355E+001
 70
0
  0
VERTEX
  5
64e
100
AcDbEntity
  8
5
100
AcDbVertex
100
AcDb2dVertex
 42
2.4800808E-002
 10
6.9731879E+001
 20
7.5474292E+001
 70
1
  0
VERTEX
  5
64f
100
AcDbEntity
  8
5
100
AcDbVertex
100
AcDb2dVertex
 42
1.3353792E-002
 10
6.9968403E+001
 20
7.5623759E+001
 70
0
  0
SEQEND
  5
650
100
AcDbEntity
  0
POLYLINE
  5
651
100
AcDbEntity
  8
5
100
AcDb2dPolyline
  6
CONTINUOUS
 62
6
 66
1
 40
0.0
 41
0.0
 70
2
  0
VERTEX
  5
652
100
AcDbEntity
  8
5
100
AcDbVertex
100
AcDb2dVertex
 42
0.0
 10
7.0385028E+001
 20
7.6743501E+001
 70
0
  0
VERTEX
  5
653
100
AcDbEntity
  8
5
100
AcDbVertex
100
AcDb2dVertex
 42
2.1657587E-003
 10
7.038495E+001
 20
7.6761486E+001
 70
1
  0
VERTEX
  5
654
100
AcDbEntity
  8
5
100
AcDbVertex
100
AcDb2dVertex
 42
2.1204092E-003
 10
7.0384718E+001
 20
7.6779605E+001
 70
0
  0
VERTEX
  5
655
100
AcDbEntity
  8
5
100
AcDbVertex
100
AcDb2dVertex
 42
2.1007513E-003
 10
7.0384327E+001
 20
7.6797862E+001
 70
1
  0
VERTEX
  5
656
100
AcDbEntity
  8
5
100
AcDbVertex
100
AcDb2dVertex
 42
2.1120774E-003
 10
7.038378E+001
 20
7.6816251E+001
 70
0
  0
VERTEX
  5
657
100
AcDbEntity
  8
5
100
AcDbVertex
100
AcDb2dVertex
 42
2.1108069E-003
 10
7.0383068E+001
 20
7.6834777E+001
 70
1
  0
VERTEX
  5
658
100
AcDbEntity
  8
5
100
AcDbVertex
100
AcDb2dVertex
 42
2.1077306E-003
 10
7.0382196E+001
 20
7.6853435E+001
 70
0
  0
VERTEX
  5
659
100
AcDbEntity
  8
5
100
AcDbVertex
100
AcDb2dVertex
 42
2.1016526E-003
 10
7.0381155E+001
 20
7.6872228E+001
 70
1
  0
VERTEX
  5
65a
100
AcDbEntity
  8
5
100
AcDbVertex
100
AcDb2dVertex
 42
2.1018506E-003
 10
7.037995E+001
 20
7.6891151E+001
 70
0
  0
VERTEX
  5
65b
100
AcDbEntity
  8
5
100
AcDbVertex
100
AcDb2dVertex
 42
2.0969977E-003
 10
7.0378571E+001
 20
7.6910207E+001
 70
1
  0
VERTEX
  5
65c
100
AcDbEntity
  8
5
100
AcDbVertex
100
AcDb2dVertex
 42
2.0965796E-003
 10
7.0377024E+001
 20
7.6929392E+001
 70
0
  0
VERTEX
  5
65d
100
AcDbEntity
  8
5
100
AcDbVertex
100
AcDb2dVertex
 42
2.0907332E-003
 10
7.0375298E+001
 20
7.6948709E+001
 70
1
  0
VERTEX
  5
65e
100
AcDbEntity
  8
5
100
AcDbVertex
100
AcDb2dVertex
 42
2.0888623E-003
 10
7.0373401E+001
 20
7.6968151E+001
 70
0
  0
VERTEX
  5
65f
100
AcDbEntity
  8
5
100
AcDbVertex
100
AcDb2dVertex
 42
2.0851422E-003
 10
7.0371321E+001
 20
7.6987723E+001
 70
1
  0
VERTEX
  5
660
100
AcDbEntity
  8
5
100
AcDbVertex
100
AcDb2dVertex
 42
2.088329E-003
 10
7.0369064E+001
 20
7.700742E+001
 70
0
  0
VERTEX
  5
661
100
AcDbEntity
  8
5
100
AcDbVertex
100
AcDb2dVertex
 42
2.0771436E-003
 10
7.036662E+001
 20
7.7027247E+001
 70
1
  0
VERTEX
  5
662
100
AcDbEntity
  8
5
100
AcDbVertex
100
AcDb2dVertex
 42
2.0624802E-003
 10
7.0363997E+001
 20
7.704719E+001
 70
0
  0
VERTEX
  5
663
100
AcDbEntity
  8
5
100
AcDbVertex
100
AcDb2dVertex
 42
2.0764289E-003
 10
7.0361185E+001
 20
7.706725E+001
 70
1
  0
VERTEX
  5
664
100
AcDbEntity
  8
5
100
AcDbVertex
100
AcDb2dVertex
 42
2.1201454E-003
 10
7.0358183E+001
 20
7.7087451E+001
 70
0
  0
VERTEX
  5
665
100
AcDbEntity
  8
5
100
AcDbVertex
100
AcDb2dVertex
 42
2.049996E-003
 10
7.0354978E+001
 20
7.7107807E+001
 70
1
  0
VERTEX
  5
666
100
AcDbEntity
  8
5
100
AcDbVertex
100
AcDb2dVertex
 42
1.9056671E-003
 10
7.0351606E+001
 20
7.7128192E+001
 70
0
  0
VERTEX
  5
667
100
AcDbEntity
  8
5
100
AcDbVertex
100
AcDb2dVertex
 42
2.1108237E-003
 10
7.0348067E+001
 20
7.7148568E+001
 70
1
  0
VERTEX
  5
668
100
AcDbEntity
  8
5
100
AcDbVertex
100
AcDb2dVertex
 42
2.5298107E-003
 10
7.0344251E+001
 20
7.7169401E+001
 70
0
  0
VERTEX
  5
669
100
AcDbEntity
  8
5
100
AcDbVertex
100
AcDb2dVertex
 42
1.8911164E-003
 10
7.0340107E+001
 20
7.7190856E+001
 70
1
  0
VERTEX
  5
66a
100
AcDbEntity
  8
5
100
AcDbVertex
100
AcDb2dVertex
 42
6.026928E-004
 10
7.0336102E+001
 20
7.7211066E+001
 70
0
  0
VERTEX
  5
66b
100
AcDbEntity
  8
5
100
AcDbVertex
100
AcDb2dVertex
 42
2.7047731E-003
 10
7.0332385E+001
 20
7.7229394E+001
 70
1
  0
VERTEX
  5
66c
100
AcDbEntity
  8
5
100
AcDbVertex
100
AcDb2dVertex
 42
4.6369764E-003
 10
7.0327145E+001
 20
7.7253172E+001
 70
0
  0
VERTEX
  5
66d
100
AcDbEntity
  8
5
100
AcDbVertex
100
AcDb2dVertex
 42
2.2213147E-003
 10
7.0318471E+001
 20
7.7290102E+001
 70
1
  0
VERTEX
  5
66e
100
AcDbEntity
  8
5
100
AcDbVertex
100
AcDb2dVertex
 42
1.1588891E-003
 10
7.0306748E+001
 20
7.7338649E+001
 70
0
  0
SEQEND
  5
66f
100
AcDbEntity
  0
POLYLINE
  5
670
100
AcDbEntity
  8
5
100
AcDb2dPolyline
  6
CONTINUOUS
 62
6
 66
1
 40
0.0
 41
0.0
 70
2
  0
VERTEX
  5
671
100
AcDbEntity
  8
5
100
AcDbVertex
100
AcDb2dVertex
 42
0.0
 10
6.8025264E+001
 20
7.9728062E+001
 70
0
  0
VERTEX
  5
672
100
AcDbEntity
  8
5
100
AcDbVertex
100
AcDb2dVertex
 42
1.3537331E-002
 10
6.7871295E+001
 20
7.9769179E+001
 70
1
  0
VERTEX
  5
673
100
AcDbEntity
  8
5
100
AcDbVertex
100
AcDb2dVertex
 42
1.5353275E-002
 10
6.7722279E+001
 20
7.9800024E+001
 70
0
  0
VERTEX
  5
674
100
AcDbEntity
  8
5
100
AcDbVertex
100
AcDb2dVertex
 42
1.6348001E-002
 10
6.7578343E+001
 20
7.9820079E+001
 70
1
  0
VERTEX
  5
675
100
AcDbEntity
  8
5
100
AcDbVertex
100
AcDb2dVertex
 42
1.624159E-002
 10
6.7439804E+001
 20
7.983039E+001
 70
0
  0
VERTEX
  5
676
100
AcDbEntity
  8
5
100
AcDbVertex
100
AcDb2dVertex
 42
1.6361759E-002
 10
6.7307601E+001
 20
7.9831367E+001
 70
1
  0
VERTEX
  5
677
100
AcDbEntity
  8
5
100
AcDbVertex
100
AcDb2dVertex
 42
1.6296202E-002
 10
6.7182346E+001
 20
7.9824239E+001
 70
0
  0
VERTEX
  5
678
100
AcDbEntity
  8
5
100
AcDbVertex
100
AcDb2dVertex
 42
1.7103954E-002
 10
6.7064688E+001
 20
7.9809443E+001
 70
1
  0
VERTEX
  5
679
100
AcDbEntity
  8
5
100
AcDbVertex
100
AcDb2dVertex
 42
1.7222176E-002
 10
6.6952135E+001
 20
7.9787426E+001
 70
0
  0
VERTEX
  5
67a
100
AcDbEntity
  8
5
100
AcDbVertex
100
AcDb2dVertex
 42
1.7684604E-002
 10
6.6842376E+001
 20
7.9757753E+001
 70
1
  0
VERTEX
  5
67b
100
AcDbEntity
  8
5
100
AcDbVertex
100
AcDb2dVertex
 42
1.9103391E-002
 10
6.6734344E+001
 20
7.9719937E+001
 70
0
  0
VERTEX
  5
67c
100
AcDbEntity
  8
5
100
AcDbVertex
100
AcDb2dVertex
 42
1.9905462E-002
 10
6.6627757E+001
 20
7.967276E+001
 70
1
  0
VERTEX
  5
67d
100
AcDbEntity
  8
5
100
AcDbVertex
100
AcDb2dVertex
 42
2.1212961E-002
 10
6.6523546E+001
 20
7.9616152E+001
 70
0
  0
VERTEX
  5
67e
100
AcDbEntity
  8
5
100
AcDbVertex
100
AcDb2dVertex
 42
2.214875E-002
 10
6.642309E+001
 20
7.9549368E+001
 70
1
  0
VERTEX
  5
67f
100
AcDbEntity
  8
5
100
AcDbVertex
100
AcDb2dVertex
 42
2.3040795E-002
 10
6.6327236E+001
 20
7.9472528E+001
 70
0
  0
VERTEX
  5
680
100
AcDbEntity
  8
5
100
AcDbVertex
100
AcDb2dVertex
 42
2.3475726E-002
 10
6.6237181E+001
 20
7.9384981E+001
 70
1
  0
VERTEX
  5
681
100
AcDbEntity
  8
5
100
AcDbVertex
100
AcDb2dVertex
 42
2.39854E-002
 10
6.6153761E+001
 20
7.9287148E+001
 70
0
  0
VERTEX
  5
682
100
AcDbEntity
  8
5
100
AcDbVertex
100
AcDb2dVertex
 42
2.3957802E-002
 10
6.6078364E+001
 20
7.9178697E+001
 70
1
  0
VERTEX
  5
683
100
AcDbEntity
  8
5
100
AcDbVertex
100
AcDb2dVertex
 42
2.3882191E-002
 10
6.6011666E+001
 20
7.9060377E+001
 70
0
  0
VERTEX
  5
684
100
AcDbEntity
  8
5
100
AcDbVertex
100
AcDb2dVertex
 42
2.3340312E-002
 10
6.5955014E+001
 20
7.8932229E+001
 70
1
  0
VERTEX
  5
685
100
AcDbEntity
  8
5
100
AcDbVertex
100
AcDb2dVertex
 42
2.2787303E-002
 10
6.5908816E+001
 20
7.8795331E+001
 70
0
  0
VERTEX
  5
686
100
AcDbEntity
  8
5
100
AcDbVertex
100
AcDb2dVertex
 42
2.1901628E-002
 10
6.5874265E+001
 20
7.8650143E+001
 70
1
  0
VERTEX
  5
687
100
AcDbEntity
  8
5
100
AcDbVertex
100
AcDb2dVertex
 42
2.1038794E-002
 10
6.5851405E+001
 20
7.8498014E+001
 70
0
  0
VERTEX
  5
688
100
AcDbEntity
  8
5
100
AcDbVertex
100
AcDb2dVertex
 42
2.0010079E-002
 10
6.5841136E+001
 20
7.8339802E+001
 70
1
  0
VERTEX
  5
689
100
AcDbEntity
  8
5
100
AcDbVertex
100
AcDb2dVertex
 42
1.9032516E-002
 10
6.5843083E+001
 20
7.8177009E+001
 70
0
  0
VERTEX
  5
68a
100
AcDbEntity
  8
5
100
AcDbVertex
100
AcDb2dVertex
 42
1.8028489E-002
 10
6.5857761E+001
 20
7.8010804E+001
 70
1
  0
VERTEX
  5
68b
100
AcDbEntity
  8
5
100
AcDbVertex
100
AcDb2dVertex
 42
1.7071656E-002
 10
6.588439E+001
 20
7.7842694E+001
 70
0
  0
VERTEX
  5
68c
100
AcDbEntity
  8
5
100
AcDbVertex
100
AcDb2dVertex
 42
1.6186126E-002
 10
6.5923064E+001
 20
7.7674028E+001
 70
1
  0
VERTEX
  5
68d
100
AcDbEntity
  8
5
100
AcDbVertex
100
AcDb2dVertex
 42
1.5322029E-002
 10
6.5972673E+001
 20
7.7506157E+001
 70
0
  0
VERTEX
  5
68e
100
AcDbEntity
  8
5
100
AcDbVertex
100
AcDb2dVertex
 42
1.458771E-002
 10
6.6032923E+001
 20
7.734046E+001
 70
1
  0
VERTEX
  5
68f
100
AcDbEntity
  8
5
100
AcDbVertex
100
AcDb2dVertex
 42
1.3838554E-002
 10
6.6102498E+001
 20
7.7178009E+001
 70
0
  0
VERTEX
  5
690
100
AcDbEntity
  8
5
100
AcDbVertex
100
AcDb2dVertex
 42
1.3255359E-002
 10
6.6180798E+001
 20
7.7020073E+001
 70
1
  0
VERTEX
  5
691
100
AcDbEntity
  8
5
100
AcDbVertex
100
AcDb2dVertex
 42
1.2625927E-002
 10
6.6266448E+001
 20
7.686737E+001
 70
0
  0
VERTEX
  5
692
100
AcDbEntity
  8
5
100
AcDbVertex
100
AcDb2dVertex
 42
1.2166018E-002
 10
6.6358658E+001
 20
7.6720962E+001
 70
1
  0
VERTEX
  5
693
100
AcDbEntity
  8
5
100
AcDbVertex
100
AcDb2dVertex
 42
1.161853E-002
 10
6.64561E+001
 20
7.65812E+001
 70
0
  0
VERTEX
  5
694
100
AcDbEntity
  8
5
100
AcDbVertex
100
AcDb2dVertex
 42
1.1291766E-002
 10
6.6557902E+001
 20
7.6448894E+001
 70
1
  0
VERTEX
  5
695
100
AcDbEntity
  8
5
100
AcDbVertex
100
AcDb2dVertex
 42
1.0899575E-002
 10
6.6662954E+001
 20
7.6324045E+001
 70
0
  0
VERTEX
  5
696
100
AcDbEntity
  8
5
100
AcDbVertex
100
AcDb2dVertex
 42
1.0561476E-002
 10
6.677042E+001
 20
7.62072E+001
 70
1
  0
VERTEX
  5
697
100
AcDbEntity
  8
5
100
AcDbVertex
100
AcDb2dVertex
 42
9.9774032E-003
 10
6.6879176E+001
 20
7.6098148E+001
 70
0
  0
VERTEX
  5
698
100
AcDbEntity
  8
5
100
AcDbVertex
100
AcDb2dVertex
 42
1.0223999E-002
 10
6.6988925E+001
 20
7.5996782E+001
 70
1
  0
VERTEX
  5
699
100
AcDbEntity
  8
5
100
AcDbVertex
100
AcDb2dVertex
 42
1.0341125E-002
 10
6.7102556E+001
 20
7.5900127E+001
 70
0
  0
VERTEX
  5
69a
100
AcDbEntity
  8
5
100
AcDbVertex
100
AcDb2dVertex
 42
1.0244768E-002
 10
6.7223346E+001
 20
7.5805806E+001
 70
1
  0
VERTEX
  5
69b
100
AcDbEntity
  8
5
100
AcDbVertex
100
AcDb2dVertex
 42
1.1010067E-002
 10
6.7351045E+001
 20
7.5714415E+001
 70
0
  0
VERTEX
  5
69c
100
AcDbEntity
  8
5
100
AcDbVertex
100
AcDb2dVertex
 42
1.1571623E-002
 10
6.748534E+001
 20
7.5627435E+001
 70
1
  0
VERTEX
  5
69d
100
AcDbEntity
  8
5
100
AcDbVertex
100
AcDb2dVertex
 42
1.214762E-002
 10
6.7625572E+001
 20
7.5545635E+001
 70
0
  0
VERTEX
  5
69e
100
AcDbEntity
  8
5
100
AcDbVertex
100
AcDb2dVertex
 42
1.2681473E-002
 10
6.7771555E+001
 20
7.5470162E+001
 70
1
  0
VERTEX
  5
69f
100
AcDbEntity
  8
5
100
AcDbVertex
100
AcDb2dVertex
 42
1.3483855E-002
 10
6.7922358E+001
 20
7.5401786E+001
 70
0
  0
VERTEX
  5
6a0
100
AcDbEntity
  8
5
100
AcDbVertex
100
AcDb2dVertex
 42
1.4212638E-002
 10
6.8077353E+001
 20
7.5341876E+001
 70
1
  0
VERTEX
  5
6a1
100
AcDbEntity
  8
5
100
AcDbVertex
100
AcDb2dVertex
 42
1.5123966E-002
 10
6.8235409E+001
 20
7.5291047E+001
 70
0
  0
VERTEX
  5
6a2
100
AcDbEntity
  8
5
100
AcDbVertex
100
AcDb2dVertex
 42
1.6005299E-002
 10
6.8395581E+001
 20
7.5250618E+001
 70
1
  0
VERTEX
  5
6a3
100
AcDbEntity
  8
5
100
AcDbVertex
100
AcDb2dVertex
 42
1.7069002E-002
 10
6.8556598E+001
 20
7.5220949E+001
 70
0
  0
VERTEX
  5
6a4
100
AcDbEntity
  8
5
100
AcDbVertex
100
AcDb2dVertex
 42
1.8113726E-002
 10
6.8717209E+001
 20
7.5203216E+001
 70
1
  0
VERTEX
  5
6a5
100
AcDbEntity
  8
5
100
AcDbVertex
100
AcDb2dVertex
 42
1.9266956E-002
 10
6.8876119E+001
 20
7.519742E+001
 70
0
  0
VERTEX
  5
6a6
100
AcDbEntity
  8
5
100
AcDbVertex
100
AcDb2dVertex
 42
2.0422518E-002
 10
6.903188E+001
 20
7.5204443E+001
 70
1
  0
VERTEX
  5
6a7
100
AcDbEntity
  8
5
100
AcDbVertex
100
AcDb2dVertex
 42
2.1596124E-002
 10
6.9183316E+001
 20
7.5223886E+001
 70
0
  0
VERTEX
  5
6a8
100
AcDbEntity
  8
5
100
AcDbVertex
100
AcDb2dVertex
 42
2.2673822E-002
 10
6.9328921E+001
 20
7.5256249E+001
 70
1
  0
VERTEX
  5
6a9
100
AcDbEntity
  8
5
100
AcDbVertex
100
AcDb2dVertex
 42
2.3525133E-002
 10
6.9467773E+001
 20
7.5300667E+001
 70
0
  0
VERTEX
  5
6aa
100
AcDbEntity
  8
5
100
AcDbVertex
100
AcDb2dVertex
 42
2.4486814E-002
 10
6.9598465E+001
 20
7.5357185E+001
 70
1
  0
VERTEX
  5
6ab
100
AcDbEntity
  8
5
100
AcDbVertex
100
AcDb2dVertex
 42
2.5308898E-002
 10
6.9720453E+001
 20
7.5424813E+001
 70
0
  0
VERTEX
  5
6ac
100
AcDbEntity
  8
5
100
AcDbVertex
100
AcDb2dVertex
 42
2.5183282E-002
 10
6.9832568E+001
 20
7.550326E+001
 70
1
  0
VERTEX
  5
6ad
100
AcDbEntity
  8
5
100
AcDbVertex
100
AcDb2dVertex
 42
2.3898982E-002
 10
6.9934629E+001
 20
7.5590467E+001
 70
0
  0
VERTEX
  5
6ae
100
AcDbEntity
  8
5
100
AcDbVertex
100
AcDb2dVertex
 42
2.5252257E-002
 10
7.0025767E+001
 20
7.5685524E+001
 70
1
  0
VERTEX
  5
6af
100
AcDbEntity
  8
5
100
AcDbVertex
100
AcDb2dVertex
 42
2.7934416E-002
 10
7.0106425E+001
 20
7.5789654E+001
 70
0
  0
VERTEX
  5
6b0
100
AcDbEntity
  8
5
100
AcDbVertex
100
AcDb2dVertex
 42
2.1967825E-002
 10
7.0176158E+001
 20
7.5902895E+001
 70
1
  0
VERTEX
  5
6b1
100
AcDbEntity
  8
5
100
AcDbVertex
100
AcDb2dVertex
 42
1.0550265E-002
 10
7.0234876E+001
 20
7.6013297E+001
 70
0
  0
VERTEX
  5
6b2
100
AcDbEntity
  8
5
100
AcDbVertex
100
AcDb2dVertex
 42
2.6251673E-002
 10
7.0282159E+001
 20
7.6116251E+001
 70
1
  0
VERTEX
  5
6b3
100
AcDbEntity
  8
5
100
AcDbVertex
100
AcDb2dVertex
 42
4.0194257E-002
 10
7.0321571E+001
 20
7.6252229E+001
 70
0
  0
VERTEX
  5
6b4
100
AcDbEntity
  8
5
100
AcDbVertex
100
AcDb2dVertex
 42
1.9878189E-002
 10
7.0355936E+001
 20
7.6464196E+001
 70
1
  0
VERTEX
  5
6b5
100
AcDbEntity
  8
5
100
AcDbVertex
100
AcDb2dVertex
 42
1.0866144E-002
 10
7.0385028E+001
 20
7.6743501E+001
 70
0
  0
SEQEND
  5
6b6
100
AcDbEntity
  0
LINE
  5
6b7
100
AcDbEntity
  8
5
100
AcDbLine
  6
CONTINUOUS
 62
1
 10
6.0643917E+001
 20
8.2705017E+001
 11
6.0643917E+001
 21
6.2089502E+001
  0
LINE
  5
6b8
100
AcDbEntity
  8
5
100
AcDbLine
  6
CONTINUOUS
 62
1
 10
6.2187394E+001
 20
8.4160225E+001
 11
6.0643917E+001
 21
8.2705017E+001
  0
LINE
  5
6b9
100
AcDbEntity
  8
5
100
AcDbLine
  6
CONTINUOUS
 62
1
 10
2.3368596E+002
 20
2.595168E+001
 11
2.3368596E+002
 21
5.3361659
  0
LINE
  5
6ba
100
AcDbEntity
  8
5
100
AcDbLine
  6
CONTINUOUS
 62
1
 10
2.3368596E+002
 20
2.595168E+001
 11
2.3214248E+002
 21
2.4496472E+001
  0
LINE
  5
6bb
100
AcDbEntity
  8
5
100
AcDbLine
  6
CONTINUOUS
 62
1
 10
2.3214248E+002
 20
3.8809578
 11
2.3214248E+002
 21
2.4496472E+001
  0
LINE
  5
6bc
100
AcDbEntity
  8
5
100
AcDbLine
  6
CONTINUOUS
 62
1
 10
2.3368596E+002
 20
5.3361659
 11
2.3214248E+002
 21
3.8809578
  0
LINE
  5
6bd
100
AcDbEntity
  8
5
100
AcDbLine
  6
CONTINUOUS
 62
1
 10
2.3214248E+002
 20
3.8809578
 11
6.0643917E+001
 21
6.2089502E+001
  0
LINE
  5
6be
100
AcDbEntity
  8
5
100
AcDbLine
  6
CONTINUOUS
 62
1
 10
1.8245075E+002
 20
4.3341512E+001
 11
1.8090727E+002
 21
4.188626E+001
  0
LINE
  5
6bf
100
AcDbEntity
  8
5
100
AcDbLine
  6
CONTINUOUS
 62
1
 10
2.3214248E+002
 20
2.4496472E+001
 11
1.8090727E+002
 21
4.188626E+001
  0
LINE
  5
6c0
100
AcDbEntity
  8
5
100
AcDbLine
  6
CONTINUOUS
 62
1
 10
1.8245075E+002
 20
4.3341512E+001
 11
2.3368596E+002
 21
2.595168E+001
  0
LINE
  5
6c1
100
AcDbEntity
  8
5
100
AcDbLine
  6
CONTINUOUS
 62
1
 10
1.3931886E+002
 20
5.6001862E+001
 11
1.4086238E+002
 21
5.745707E+001
  0
LINE
  5
6c2
100
AcDbEntity
  8
5
100
AcDbLine
  6
CONTINUOUS
 62
1
 10
6.2187394E+001
 20
8.4160225E+001
 11
1.4086238E+002
 21
5.745707E+001
  0
LINE
  5
6c3
100
AcDbEntity
  8
5
100
AcDbLine
  6
CONTINUOUS
 62
1
 10
1.3931886E+002
 20
5.6001862E+001
 11
6.0643917E+001
 21
8.2705017E+001
  0
LINE
  5
6c4
100
AcDbEntity
  8
5
100
AcDbLine
  6
CONTINUOUS
 62
1
 10
1.4086234E+002
 20
4.1789255E+001
 11
1.8090728E+002
 21
2.819757E+001
  0
LINE
  5
6c5
100
AcDbEntity
  8
5
100
AcDbLine
  6
CONTINUOUS
 62
6
 10
1.8090727E+002
 20
2.6218488E+001
 11
1.3931886E+002
 21
4.0334047E+001
  0
LINE
  5
6c6
100
AcDbEntity
  8
5
100
AcDbLine
  6
CONTINUOUS
 62
6
 10
1.3931886E+002
 20
4.0334047E+001
 11
1.4086234E+002
 21
4.1789255E+001
  0
LINE
  5
6c7
100
AcDbEntity
  8
5
100
AcDbLine
  6
CONTINUOUS
 62
6
 10
1.8090727E+002
 20
4.188626E+001
 11
1.8090727E+002
 21
2.6218488E+001
  0
LINE
  5
6c8
100
AcDbEntity
  8
5
100
AcDbLine
  6
CONTINUOUS
 62
1
 10
1.4086238E+002
 20
5.745707E+001
 11
1.4086234E+002
 21
4.1789255E+001
  0
LINE
  5
6c9
100
AcDbEntity
  8
5
100
AcDbLine
  6
CONTINUOUS
 62
6
 10
1.3931886E+002
 20
4.0334047E+001
 11
1.3931886E+002
 21
5.6001862E+001
  0
POLYLINE
  5
6ca
100
AcDbEntity
  8
5
100
AcDb2dPolyline
  6
CONTINUOUS
 62
6
 66
1
 40
0.0
 41
0.0
 70
2
  0
VERTEX
  5
6cb
100
AcDbEntity
  8
5
100
AcDbVertex
100
AcDb2dVertex
 42
0.0
 10
6.3157834E+001
 20
6.8442358E+001
 70
0
  0
VERTEX
  5
6cc
100
AcDbEntity
  8
5
100
AcDbVertex
100
AcDb2dVertex
 42
2.2836503E-002
 10
6.3007475E+001
 20
6.8274926E+001
 70
1
  0
VERTEX
  5
6cd
100
AcDbEntity
  8
5
100
AcDbVertex
100
AcDb2dVertex
 42
2.1683259E-002
 10
6.2869922E+001
 20
6.8091672E+001
 70
0
  0
VERTEX
  5
6ce
100
AcDbEntity
  8
5
100
AcDbVertex
100
AcDb2dVertex
 42
2.0941655E-002
 10
6.2745486E+001
 20
6.7891848E+001
 70
1
  0
VERTEX
  5
6cf
100
AcDbEntity
  8
5
100
AcDbVertex
100
AcDb2dVertex
 42
2.1207446E-002
 10
6.263513E+001
 20
6.7676727E+001
 70
0
  0
VERTEX
  5
6d0
100
AcDbEntity
  8
5
100
AcDbVertex
100
AcDb2dVertex
 42
2.0876377E-002
 10
6.2541216E+001
 20
6.7446523E+001
 70
1
  0
VERTEX
  5
6d1
100
AcDbEntity
  8
5
100
AcDbVertex
100
AcDb2dVertex
 42
2.0268821E-002
 10
6.2464145E+001
 20
6.720287E+001
 70
0
  0
VERTEX
  5
6d2
100
AcDbEntity
  8
5
100
AcDbVertex
100
AcDb2dVertex
 42
1.9502787E-002
 10
6.2405525E+001
 20
6.6946403E+001
 70
1
  0
VERTEX
  5
6d3
100
AcDbEntity
  8
5
100
AcDbVertex
100
AcDb2dVertex
 42
1.883732E-002
 10
6.2365325E+001
 20
6.6679086E+001
 70
0
  0
VERTEX
  5
6d4
100
AcDbEntity
  8
5
100
AcDbVertex
100
AcDb2dVertex
 42
1.802483E-002
 10
6.2344918E+001
 20
6.6402093E+001
 70
1
  0
VERTEX
  5
6d5
100
AcDbEntity
  8
5
100
AcDbVertex
100
AcDb2dVertex
 42
1.7234554E-002
 10
6.2343728E+001
 20
6.6117569E+001
 70
0
  0
VERTEX
  5
6d6
100
AcDbEntity
  8
5
100
AcDbVertex
100
AcDb2dVertex
 42
1.6418578E-002
 10
6.2362613E+001
 20
6.5827098E+001
 70
1
  0
VERTEX
  5
6d7
100
AcDbEntity
  8
5
100
AcDbVertex
100
AcDb2dVertex
 42
1.5644715E-002
 10
6.2400481E+001
 20
6.5532835E+001
 70
0
  0
VERTEX
  5
6d8
100
AcDbEntity
  8
5
100
AcDbVertex
100
AcDb2dVertex
 42
1.4908142E-002
 10
6.2457667E+001
 20
6.5236636E+001
 70
1
  0
VERTEX
  5
6d9
100
AcDbEntity
  8
5
100
AcDbVertex
100
AcDb2dVertex
 42
1.4190461E-002
 10
6.2532639E+001
 20
6.4940488E+001
 70
0
  0
VERTEX
  5
6da
100
AcDbEntity
  8
5
100
AcDbVertex
100
AcDb2dVertex
 42
1.3558509E-002
 10
6.2625213E+001
 20
6.4646346E+001
 70
1
  0
VERTEX
  5
6db
100
AcDbEntity
  8
5
100
AcDbVertex
100
AcDb2dVertex
 42
1.2922928E-002
 10
6.2733554E+001
 20
6.4355873E+001
 70
0
  0
VERTEX
  5
6dc
100
AcDbEntity
  8
5
100
AcDbVertex
100
AcDb2dVertex
 42
1.2400378E-002
 10
6.2857041E+001
 20
6.407096E+001
 70
1
  0
VERTEX
  5
6dd
100
AcDbEntity
  8
5
100
AcDbVertex
100
AcDb2dVertex
 42
1.184795E-002
 10
6.2993687E+001
 20
6.3792839E+001
 70
0
  0
VERTEX
  5
6de
100
AcDbEntity
  8
5
100
AcDbVertex
100
AcDb2dVertex
 42
1.1428294E-002
 10
6.3142551E+001
 20
6.3523201E+001
 70
1
  0
VERTEX
  5
6df
100
AcDbEntity
  8
5
100
AcDbVertex
100
AcDb2dVertex
 42
1.0959295E-002
 10
6.3301665E+001
 20
6.3262801E+001
 70
0
  0
VERTEX
  5
6e0
100
AcDbEntity
  8
5
100
AcDbVertex
100
AcDb2dVertex
 42
1.0620136E-002
 10
6.3469899E+001
 20
6.3013043E+001
 70
1
  0
VERTEX
  5
6e1
100
AcDbEntity
  8
5
100
AcDbVertex
100
AcDb2dVertex
 42
1.0202527E-002
 10
6.3645401E+001
 20
6.2774228E+001
 70
0
  0
VERTEX
  5
6e2
100
AcDbEntity
  8
5
100
AcDbVertex
100
AcDb2dVertex
 42
9.9590731E-003
 10
6.3826963E+001
 20
6.2547442E+001
 70
1
  0
VERTEX
  5
6e3
100
AcDbEntity
  8
5
100
AcDbVertex
100
AcDb2dVertex
 42
9.6600918E-003
 10
6.401308E+001
 20
6.233253E+001
 70
0
  0
VERTEX
  5
6e4
100
AcDbEntity
  8
5
100
AcDbVertex
100
AcDb2dVertex
 42
9.390413E-003
 10
6.4202614E+001
 20
6.2130246E+001
 70
1
  0
VERTEX
  5
6e5
100
AcDbEntity
  8
5
100
AcDbVertex
100
AcDb2dVertex
 42
8.924649E-003
 10
6.4393913E+001
 20
6.1940289E+001
 70
0
  0
VERTEX
  5
6e6
100
AcDbEntity
  8
5
100
AcDbVertex
100
AcDb2dVertex
 42
9.1246951E-003
 10
6.4586583E+001
 20
6.1762532E+001
 70
1
  0
VERTEX
  5
6e7
100
AcDbEntity
  8
5
100
AcDbVertex
100
AcDb2dVertex
 42
9.2062939E-003
 10
6.4785235E+001
 20
6.1592212E+001
 70
0
  0
VERTEX
  5
6e8
100
AcDbEntity
  8
5
100
AcDbVertex
100
AcDb2dVertex
 42
9.123548E-003
 10
6.499509E+001
 20
6.1425458E+001
 70
1
  0
VERTEX
  5
6e9
100
AcDbEntity
  8
5
100
AcDbVertex
100
AcDb2dVertex
 42
9.727842E-003
 10
6.5215869E+001
 20
6.1263003E+001
 70
0
  0
VERTEX
  5
6ea
100
AcDbEntity
  8
5
100
AcDbVertex
100
AcDb2dVertex
 42
1.015936E-002
 10
6.5447217E+001
 20
6.1106931E+001
 70
1
  0
VERTEX
  5
6eb
100
AcDbEntity
  8
5
100
AcDbVertex
100
AcDb2dVertex
 42
1.0594661E-002
 10
6.5688231E+001
 20
6.0958289E+001
 70
0
  0
VERTEX
  5
6ec
100
AcDbEntity
  8
5
100
AcDbVertex
100
AcDb2dVertex
 42
1.1003572E-002
 10
6.5938798E+001
 20
6.081867E+001
 70
1
  0
VERTEX
  5
6ed
100
AcDbEntity
  8
5
100
AcDbVertex
100
AcDb2dVertex
 42
1.1630402E-002
 10
6.6197693E+001
 20
6.0689164E+001
 70
0
  0
VERTEX
  5
6ee
100
AcDbEntity
  8
5
100
AcDbVertex
100
AcDb2dVertex
 42
1.2139121E-002
 10
6.646424E+001
 20
6.0571722E+001
 70
1
  0
VERTEX
  5
6ef
100
AcDbEntity
  8
5
100
AcDbVertex
100
AcDb2dVertex
 42
1.2739645E-002
 10
6.6736866E+001
 20
6.0467211E+001
 70
0
  0
VERTEX
  5
6f0
100
AcDbEntity
  8
5
100
AcDbVertex
100
AcDb2dVertex
 42
1.3487494E-002
 10
6.7014455E+001
 20
6.0377566E+001
 70
1
  0
VERTEX
  5
6f1
100
AcDbEntity
  8
5
100
AcDbVertex
100
AcDb2dVertex
 42
1.4563724E-002
 10
6.7295561E+001
 20
6.0303634E+001
 70
0
  0
VERTEX
  5
6f2
100
AcDbEntity
  8
5
100
AcDbVertex
100
AcDb2dVertex
 42
1.4939302E-002
 10
6.7578748E+001
 20
6.0247354E+001
 70
1
  0
VERTEX
  5
6f3
100
AcDbEntity
  8
5
100
AcDbVertex
100
AcDb2dVertex
 42
1.4800729E-002
 10
6.7861115E+001
 20
6.0208214E+001
 70
0
  0
VERTEX
  5
6f4
100
AcDbEntity
  8
5
100
AcDbVertex
100
AcDb2dVertex
 42
1.7092033E-002
 10
6.8140414E+001
 20
6.0187559E+001
 70
1
  0
VERTEX
  5
6f5
100
AcDbEntity
  8
5
100
AcDbVertex
100
AcDb2dVertex
 42
2.1447144E-002
 10
6.8419098E+001
 20
6.0188219E+001
 70
0
  0
VERTEX
  5
6f6
100
AcDbEntity
  8
5
100
AcDbVertex
100
AcDb2dVertex
 42
1.7502961E-002
 10
6.869653E+001
 20
6.0212457E+001
 70
1
  0
VERTEX
  5
6f7
100
AcDbEntity
  8
5
100
AcDbVertex
100
AcDb2dVertex
 42
6.9855119E-003
 10
6.8954391E+001
 20
6.0247472E+001
 70
0
  0
VERTEX
  5
6f8
100
AcDbEntity
  8
5
100
AcDbVertex
100
AcDb2dVertex
 42
2.551454E-002
 10
6.9184769E+001
 20
6.0289819E+001
 70
1
  0
VERTEX
  5
6f9
100
AcDbEntity
  8
5
100
AcDbVertex
100
AcDb2dVertex
 42
4.7205512E-002
 10
6.9452462E+001
 20
6.0385762E+001
 70
0
  0
VERTEX
  5
6fa
100
AcDbEntity
  8
5
100
AcDbVertex
100
AcDb2dVertex
 42
2.4788281E-002
 10
6.9824972E+001
 20
6.0585494E+001
 70
1
  0
VERTEX
  5
6fb
100
AcDbEntity
  8
5
100
AcDbVertex
100
AcDb2dVertex
 42
1.3347061E-002
 10
7.0289207E+001
 20
6.0878396E+001
 70
0
  0
SEQEND
  5
6fc
100
AcDbEntity
  0
POLYLINE
  5
6fd
100
AcDbEntity
  8
5
100
AcDb2dPolyline
  6
CONTINUOUS
 62
6
 66
1
 40
0.0
 41
0.0
 70
2
  0
VERTEX
  5
6fe
100
AcDbEntity
  8
5
100
AcDbVertex
100
AcDb2dVertex
 42
0.0
 10
7.0385028E+001
 20
6.5198797E+001
 70
0
  0
VERTEX
  5
6ff
100
AcDbEntity
  8
5
100
AcDbVertex
100
AcDb2dVertex
 42
2.1656938E-003
 10
7.038495E+001
 20
6.5216783E+001
 70
1
  0
VERTEX
  5
700
100
AcDbEntity
  8
5
100
AcDbVertex
100
AcDb2dVertex
 42
2.1203499E-003
 10
7.0384718E+001
 20
6.5234902E+001
 70
0
  0
VERTEX
  5
701
100
AcDbEntity
  8
5
100
AcDbVertex
100
AcDb2dVertex
 42
2.1006967E-003
 10
7.0384327E+001
 20
6.5253159E+001
 70
1
  0
VERTEX
  5
702
100
AcDbEntity
  8
5
100
AcDbVertex
100
AcDb2dVertex
 42
2.1120263E-003
 10
7.038378E+001
 20
6.5271549E+001
 70
0
  0
VERTEX
  5
703
100
AcDbEntity
  8
5
100
AcDbVertex
100
AcDb2dVertex
 42
2.11076E-003
 10
7.0383068E+001
 20
6.5290076E+001
 70
1
  0
VERTEX
  5
704
100
AcDbEntity
  8
5
100
AcDbVertex
100
AcDb2dVertex
 42
2.1076878E-003
 10
7.0382196E+001
 20
6.5308734E+001
 70
0
  0
VERTEX
  5
705
100
AcDbEntity
  8
5
100
AcDbVertex
100
AcDb2dVertex
 42
2.101614E-003
 10
7.0381155E+001
 20
6.5327528E+001
 70
1
  0
VERTEX
  5
706
100
AcDbEntity
  8
5
100
AcDbVertex
100
AcDb2dVertex
 42
2.101816E-003
 10
7.037995E+001
 20
6.5346451E+001
 70
0
  0
VERTEX
  5
707
100
AcDbEntity
  8
5
100
AcDbVertex
100
AcDb2dVertex
 42
2.0969674E-003
 10
7.0378571E+001
 20
6.5365508E+001
 70
1
  0
VERTEX
  5
708
100
AcDbEntity
  8
5
100
AcDbVertex
100
AcDb2dVertex
 42
2.0965533E-003
 10
7.0377024E+001
 20
6.5384693E+001
 70
0
  0
VERTEX
  5
709
100
AcDbEntity
  8
5
100
AcDbVertex
100
AcDb2dVertex
 42
2.0907113E-003
 10
7.0375298E+001
 20
6.540401E+001
 70
1
  0
VERTEX
  5
70a
100
AcDbEntity
  8
5
100
AcDbVertex
100
AcDb2dVertex
 42
2.0888444E-003
 10
7.03734E+001
 20
6.5423452E+001
 70
0
  0
VERTEX
  5
70b
100
AcDbEntity
  8
5
100
AcDbVertex
100
AcDb2dVertex
 42
2.0851286E-003
 10
7.0371321E+001
 20
6.5443025E+001
 70
1
  0
VERTEX
  5
70c
100
AcDbEntity
  8
5
100
AcDbVertex
100
AcDb2dVertex
 42
2.0883192E-003
 10
7.0369064E+001
 20
6.5462722E+001
 70
0
  0
VERTEX
  5
70d
100
AcDbEntity
  8
5
100
AcDbVertex
100
AcDb2dVertex
 42
2.077138E-003
 10
7.036662E+001
 20
6.548255E+001
 70
1
  0
VERTEX
  5
70e
100
AcDbEntity
  8
5
100
AcDbVertex
100
AcDb2dVertex
 42
2.0624787E-003
 10
7.0363996E+001
 20
6.5502493E+001
 70
0
  0
VERTEX
  5
70f
100
AcDbEntity
  8
5
100
AcDbVertex
100
AcDb2dVertex
 42
2.0764314E-003
 10
7.0361185E+001
 20
6.5522553E+001
 70
1
  0
VERTEX
  5
710
100
AcDbEntity
  8
5
100
AcDbVertex
100
AcDb2dVertex
 42
2.1201521E-003
 10
7.0358183E+001
 20
6.5542754E+001
 70
0
  0
VERTEX
  5
711
100
AcDbEntity
  8
5
100
AcDbVertex
100
AcDb2dVertex
 42
2.0500067E-003
 10
7.0354978E+001
 20
6.556311E+001
 70
1
  0
VERTEX
  5
712
100
AcDbEntity
  8
5
100
AcDbVertex
100
AcDb2dVertex
 42
1.9056804E-003
 10
7.0351606E+001
 20
6.5583496E+001
 70
0
  0
VERTEX
  5
713
100
AcDbEntity
  8
5
100
AcDbVertex
100
AcDb2dVertex
 42
2.1108423E-003
 10
7.0348067E+001
 20
6.5603872E+001
 70
1
  0
VERTEX
  5
714
100
AcDbEntity
  8
5
100
AcDbVertex
100
AcDb2dVertex
 42
2.5298384E-003
 10
7.0344251E+001
 20
6.5624705E+001
 70
0
  0
VERTEX
  5
715
100
AcDbEntity
  8
5
100
AcDbVertex
100
AcDb2dVertex
 42
1.8911414E-003
 10
7.0340107E+001
 20
6.564616E+001
 70
1
  0
VERTEX
  5
716
100
AcDbEntity
  8
5
100
AcDbVertex
100
AcDb2dVertex
 42
6.027013E-004
 10
7.0336102E+001
 20
6.566637E+001
 70
0
  0
VERTEX
  5
717
100
AcDbEntity
  8
5
100
AcDbVertex
100
AcDb2dVertex
 42
2.7048149E-003
 10
7.0332384E+001
 20
6.5684698E+001
 70
1
  0
VERTEX
  5
718
100
AcDbEntity
  8
5
100
AcDbVertex
100
AcDb2dVertex
 42
4.6370652E-003
 10
7.0327145E+001
 20
6.5708476E+001
 70
0
  0
VERTEX
  5
719
100
AcDbEntity
  8
5
100
AcDbVertex
100
AcDb2dVertex
 42
2.2213643E-003
 10
7.0318471E+001
 20
6.5745407E+001
 70
1
  0
VERTEX
  5
71a
100
AcDbEntity
  8
5
100
AcDbVertex
100
AcDb2dVertex
 42
1.1589168E-003
 10
7.0306748E+001
 20
6.5793954E+001
 70
0
  0
SEQEND
  5
71b
100
AcDbEntity
  0
POLYLINE
  5
71c
100
AcDbEntity
  8
5
100
AcDb2dPolyline
  6
CONTINUOUS
 62
6
 66
1
 40
0.0
 41
0.0
 70
2
  0
VERTEX
  5
71d
100
AcDbEntity
  8
5
100
AcDbVertex
100
AcDb2dVertex
 42
0.0
 10
6.8025264E+001
 20
6.8183358E+001
 70
0
  0
VERTEX
  5
71e
100
AcDbEntity
  8
5
100
AcDbVertex
100
AcDb2dVertex
 42
1.3537623E-002
 10
6.7871295E+001
 20
6.8224477E+001
 70
1
  0
VERTEX
  5
71f
100
AcDbEntity
  8
5
100
AcDbVertex
100
AcDb2dVertex
 42
1.5353642E-002
 10
6.7722279E+001
 20
6.8255324E+001
 70
0
  0
VERTEX
  5
720
100
AcDbEntity
  8
5
100
AcDbVertex
100
AcDb2dVertex
 42
1.6348422E-002
 10
6.7578343E+001
 20
6.8275381E+001
 70
1
  0
VERTEX
  5
721
100
AcDbEntity
  8
5
100
AcDbVertex
100
AcDb2dVertex
 42
1.6242023E-002
 10
6.7439804E+001
 20
6.8285693E+001
 70
0
  0
VERTEX
  5
722
100
AcDbEntity
  8
5
100
AcDbVertex
100
AcDb2dVertex
 42
1.6362228E-002
 10
6.7307601E+001
 20
6.8286671E+001
 70
1
  0
VERTEX
  5
723
100
AcDbEntity
  8
5
100
AcDbVertex
100
AcDb2dVertex
 42
1.629673E-002
 10
6.7182346E+001
 20
6.8279543E+001
 70
0
  0
VERTEX
  5
724
100
AcDbEntity
  8
5
100
AcDbVertex
100
AcDb2dVertex
 42
1.7104441E-002
 10
6.7064688E+001
 20
6.8264747E+001
 70
1
  0
VERTEX
  5
725
100
AcDbEntity
  8
5
100
AcDbVertex
100
AcDb2dVertex
 42
1.722244E-002
 10
6.6952135E+001
 20
6.8242731E+001
 70
0
  0
VERTEX
  5
726
100
AcDbEntity
  8
5
100
AcDbVertex
100
AcDb2dVertex
 42
1.7684711E-002
 10
6.6842376E+001
 20
6.8213058E+001
 70
1
  0
VERTEX
  5
727
100
AcDbEntity
  8
5
100
AcDbVertex
100
AcDb2dVertex
 42
1.9103396E-002
 10
6.6734344E+001
 20
6.8175242E+001
 70
0
  0
VERTEX
  5
728
100
AcDbEntity
  8
5
100
AcDbVertex
100
AcDb2dVertex
 42
1.9905436E-002
 10
6.6627757E+001
 20
6.8128065E+001
 70
1
  0
VERTEX
  5
729
100
AcDbEntity
  8
5
100
AcDbVertex
100
AcDb2dVertex
 42
2.1212959E-002
 10
6.6523546E+001
 20
6.8071457E+001
 70
0
  0
VERTEX
  5
72a
100
AcDbEntity
  8
5
100
AcDbVertex
100
AcDb2dVertex
 42
2.2148756E-002
 10
6.642309E+001
 20
6.8004672E+001
 70
1
  0
VERTEX
  5
72b
100
AcDbEntity
  8
5
100
AcDbVertex
100
AcDb2dVertex
 42
2.3040795E-002
 10
6.6327236E+001
 20
6.7927832E+001
 70
0
  0
VERTEX
  5
72c
100
AcDbEntity
  8
5
100
AcDbVertex
100
AcDb2dVertex
 42
2.3475725E-002
 10
6.6237181E+001
 20
6.7840286E+001
 70
1
  0
VERTEX
  5
72d
100
AcDbEntity
  8
5
100
AcDbVertex
100
AcDb2dVertex
 42
2.39854E-002
 10
6.6153761E+001
 20
6.7742453E+001
 70
0
  0
VERTEX
  5
72e
100
AcDbEntity
  8
5
100
AcDbVertex
100
AcDb2dVertex
 42
2.3957802E-002
 10
6.6078364E+001
 20
6.7634002E+001
 70
1
  0
VERTEX
  5
72f
100
AcDbEntity
  8
5
100
AcDbVertex
100
AcDb2dVertex
 42
2.3882191E-002
 10
6.6011666E+001
 20
6.7515682E+001
 70
0
  0
VERTEX
  5
730
100
AcDbEntity
  8
5
100
AcDbVertex
100
AcDb2dVertex
 42
2.3340312E-002
 10
6.5955014E+001
 20
6.7387534E+001
 70
1
  0
VERTEX
  5
731
100
AcDbEntity
  8
5
100
AcDbVertex
100
AcDb2dVertex
 42
2.2787303E-002
 10
6.5908816E+001
 20
6.7250635E+001
 70
0
  0
VERTEX
  5
732
100
AcDbEntity
  8
5
100
AcDbVertex
100
AcDb2dVertex
 42
2.1901628E-002
 10
6.5874265E+001
 20
6.7105448E+001
 70
1
  0
VERTEX
  5
733
100
AcDbEntity
  8
5
100
AcDbVertex
100
AcDb2dVertex
 42
2.1038794E-002
 10
6.5851405E+001
 20
6.6953319E+001
 70
0
  0
VERTEX
  5
734
100
AcDbEntity
  8
5
100
AcDbVertex
100
AcDb2dVertex
 42
2.0010079E-002
 10
6.5841136E+001
 20
6.6795107E+001
 70
1
  0
VERTEX
  5
735
100
AcDbEntity
  8
5
100
AcDbVertex
100
AcDb2dVertex
 42
1.9032516E-002
 10
6.5843083E+001
 20
6.6632313E+001
 70
0
  0
VERTEX
  5
736
100
AcDbEntity
  8
5
100
AcDbVertex
100
AcDb2dVertex
 42
1.802849E-002
 10
6.5857761E+001
 20
6.6466109E+001
 70
1
  0
VERTEX
  5
737
100
AcDbEntity
  8
5
100
AcDbVertex
100
AcDb2dVertex
 42
1.7071656E-002
 10
6.588439E+001
 20
6.6297999E+001
 70
0
  0
VERTEX
  5
738
100
AcDbEntity
  8
5
100
AcDbVertex
100
AcDb2dVertex
 42
1.6186126E-002
 10
6.5923063E+001
 20
6.6129332E+001
 70
1
  0
VERTEX
  5
739
100
AcDbEntity
  8
5
100
AcDbVertex
100
AcDb2dVertex
 42
1.532203E-002
 10
6.5972673E+001
 20
6.5961462E+001
 70
0
  0
VERTEX
  5
73a
100
AcDbEntity
  8
5
100
AcDbVertex
100
AcDb2dVertex
 42
1.458771E-002
 10
6.6032922E+001
 20
6.5795765E+001
 70
1
  0
VERTEX
  5
73b
100
AcDbEntity
  8
5
100
AcDbVertex
100
AcDb2dVertex
 42
1.3838555E-002
 10
6.6102497E+001
 20
6.5633314E+001
 70
0
  0
VERTEX
  5
73c
100
AcDbEntity
  8
5
100
AcDbVertex
100
AcDb2dVertex
 42
1.3255359E-002
 10
6.6180798E+001
 20
6.5475378E+001
 70
1
  0
VERTEX
  5
73d
100
AcDbEntity
  8
5
100
AcDbVertex
100
AcDb2dVertex
 42
1.2625928E-002
 10
6.6266448E+001
 20
6.5322675E+001
 70
0
  0
VERTEX
  5
73e
100
AcDbEntity
  8
5
100
AcDbVertex
100
AcDb2dVertex
 42
1.2166018E-002
 10
6.6358658E+001
 20
6.5176266E+001
 70
1
  0
VERTEX
  5
73f
100
AcDbEntity
  8
5
100
AcDbVertex
100
AcDb2dVertex
 42
1.1618531E-002
 10
6.64561E+001
 20
6.5036505E+001
 70
0
  0
VERTEX
  5
740
100
AcDbEntity
  8
5
100
AcDbVertex
100
AcDb2dVertex
 42
1.1291766E-002
 10
6.6557902E+001
 20
6.4904199E+001
 70
1
  0
VERTEX
  5
741
100
AcDbEntity
  8
5
100
AcDbVertex
100
AcDb2dVertex
 42
1.0899575E-002
 10
6.6662954E+001
 20
6.477935E+001
 70
0
  0
VERTEX
  5
742
100
AcDbEntity
  8
5
100
AcDbVertex
100
AcDb2dVertex
 42
1.0561476E-002
 10
6.677042E+001
 20
6.4662505E+001
 70
1
  0
VERTEX
  5
743
100
AcDbEntity
  8
5
100
AcDbVertex
100
AcDb2dVertex
 42
9.977404E-003
 10
6.6879176E+001
 20
6.4553452E+001
 70
0
  0
VERTEX
  5
744
100
AcDbEntity
  8
5
100
AcDbVertex
100
AcDb2dVertex
 42
1.0223994E-002
 10
6.6988925E+001
 20
6.4452086E+001
 70
1
  0
VERTEX
  5
745
100
AcDbEntity
  8
5
100
AcDbVertex
100
AcDb2dVertex
 42
1.0341105E-002
 10
6.7102556E+001
 20
6.4355432E+001
 70
0
  0
VERTEX
  5
746
100
AcDbEntity
  8
5
100
AcDbVertex
100
AcDb2dVertex
 42
1.0244741E-002
 10
6.7223346E+001
 20
6.426111E+001
 70
1
  0
VERTEX
  5
747
100
AcDbEntity
  8
5
100
AcDbVertex
100
AcDb2dVertex
 42
1.1010039E-002
 10
6.7351045E+001
 20
6.4169719E+001
 70
0
  0
VERTEX
  5
748
100
AcDbEntity
  8
5
100
AcDbVertex
100
AcDb2dVertex
 42
1.1571592E-002
 10
6.7485339E+001
 20
6.4082739E+001
 70
1
  0
VERTEX
  5
749
100
AcDbEntity
  8
5
100
AcDbVertex
100
AcDb2dVertex
 42
1.2147586E-002
 10
6.7625572E+001
 20
6.4000939E+001
 70
0
  0
VERTEX
  5
74a
100
AcDbEntity
  8
5
100
AcDbVertex
100
AcDb2dVertex
 42
1.2681436E-002
 10
6.7771554E+001
 20
6.3925466E+001
 70
1
  0
VERTEX
  5
74b
100
AcDbEntity
  8
5
100
AcDbVertex
100
AcDb2dVertex
 42
1.3483816E-002
 10
6.7922358E+001
 20
6.385709E+001
 70
0
  0
VERTEX
  5
74c
100
AcDbEntity
  8
5
100
AcDbVertex
100
AcDb2dVertex
 42
1.4212596E-002
 10
6.8077353E+001
 20
6.379718E+001
 70
1
  0
VERTEX
  5
74d
100
AcDbEntity
  8
5
100
AcDbVertex
100
AcDb2dVertex
 42
1.5123922E-002
 10
6.8235409E+001
 20
6.3746351E+001
 70
0
  0
VERTEX
  5
74e
100
AcDbEntity
  8
5
100
AcDbVertex
100
AcDb2dVertex
 42
1.6005253E-002
 10
6.8395581E+001
 20
6.3705921E+001
 70
1
  0
VERTEX
  5
74f
100
AcDbEntity
  8
5
100
AcDbVertex
100
AcDb2dVertex
 42
1.7068955E-002
 10
6.8556598E+001
 20
6.3676253E+001
 70
0
  0
VERTEX
  5
750
100
AcDbEntity
  8
5
100
AcDbVertex
100
AcDb2dVertex
 42
1.8113679E-002
 10
6.8717209E+001
 20
6.3658519E+001
 70
1
  0
VERTEX
  5
751
100
AcDbEntity
  8
5
100
AcDbVertex
100
AcDb2dVertex
 42
1.926691E-002
 10
6.8876119E+001
 20
6.3652722E+001
 70
0
  0
VERTEX
  5
752
100
AcDbEntity
  8
5
100
AcDbVertex
100
AcDb2dVertex
 42
2.0422476E-002
 10
6.903188E+001
 20
6.3659745E+001
 70
1
  0
VERTEX
  5
753
100
AcDbEntity
  8
5
100
AcDbVertex
100
AcDb2dVertex
 42
2.1596088E-002
 10
6.9183316E+001
 20
6.3679188E+001
 70
0
  0
VERTEX
  5
754
100
AcDbEntity
  8
5
100
AcDbVertex
100
AcDb2dVertex
 42
2.2673794E-002
 10
6.9328921E+001
 20
6.3711551E+001
 70
1
  0
VERTEX
  5
755
100
AcDbEntity
  8
5
100
AcDbVertex
100
AcDb2dVertex
 42
2.3525116E-002
 10
6.9467773E+001
 20
6.3755968E+001
 70
0
  0
VERTEX
  5
756
100
AcDbEntity
  8
5
100
AcDbVertex
100
AcDb2dVertex
 42
2.4486811E-002
 10
6.9598465E+001
 20
6.3812486E+001
 70
1
  0
VERTEX
  5
757
100
AcDbEntity
  8
5
100
AcDbVertex
100
AcDb2dVertex
 42
2.530891E-002
 10
6.9720453E+001
 20
6.3880113E+001
 70
0
  0
VERTEX
  5
758
100
AcDbEntity
  8
5
100
AcDbVertex
100
AcDb2dVertex
 42
2.5183309E-002
 10
6.9832568E+001
 20
6.395856E+001
 70
1
  0
VERTEX
  5
759
100
AcDbEntity
  8
5
100
AcDbVertex
100
AcDb2dVertex
 42
2.3899019E-002
 10
6.9934629E+001
 20
6.4045767E+001
 70
0
  0
VERTEX
  5
75a
100
AcDbEntity
  8
5
100
AcDbVertex
100
AcDb2dVertex
 42
2.5252308E-002
 10
7.0025767E+001
 20
6.4140823E+001
 70
1
  0
VERTEX
  5
75b
100
AcDbEntity
  8
5
100
AcDbVertex
100
AcDb2dVertex
 42
2.7934484E-002
 10
7.0106425E+001
 20
6.4244953E+001
 70
0
  0
VERTEX
  5
75c
100
AcDbEntity
  8
5
100
AcDbVertex
100
AcDb2dVertex
 42
2.1967885E-002
 10
7.0176158E+001
 20
6.4358194E+001
 70
1
  0
VERTEX
  5
75d
100
AcDbEntity
  8
5
100
AcDbVertex
100
AcDb2dVertex
 42
1.0550295E-002
 10
7.0234876E+001
 20
6.4468595E+001
 70
0
  0
VERTEX
  5
75e
100
AcDbEntity
  8
5
100
AcDbVertex
100
AcDb2dVertex
 42
2.625175E-002
 10
7.0282159E+001
 20
6.4571549E+001
 70
1
  0
VERTEX
  5
75f
100
AcDbEntity
  8
5
100
AcDbVertex
100
AcDb2dVertex
 42
4.0194376E-002
 10
7.0321571E+001
 20
6.4707526E+001
 70
0
  0
VERTEX
  5
760
100
AcDbEntity
  8
5
100
AcDbVertex
100
AcDb2dVertex
 42
1.9878244E-002
 10
7.0355936E+001
 20
6.4919493E+001
 70
1
  0
VERTEX
  5
761
100
AcDbEntity
  8
5
100
AcDbVertex
100
AcDb2dVertex
 42
1.0866172E-002
 10
7.0385028E+001
 20
6.5198797E+001
 70
0
  0
SEQEND
  5
762
100
AcDbEntity
  0
POLYLINE
  5
763
100
AcDbEntity
  8
5
100
AcDb2dPolyline
  6
CONTINUOUS
 62
1
 66
1
 40
0.0
 41
0.0
 70
2
  0
VERTEX
  5
764
100
AcDbEntity
  8
5
100
AcDbVertex
100
AcDb2dVertex
 42
0.0
 10
6.6334089E+001
 20
6.7933835E+001
 70
0
  0
VERTEX
  5
765
100
AcDbEntity
  8
5
100
AcDbVertex
100
AcDb2dVertex
 42
2.2844392E-002
 10
6.6257387E+001
 20
6.7848555E+001
 70
1
  0
VERTEX
  5
766
100
AcDbEntity
  8
5
100
AcDbVertex
100
AcDb2dVertex
 42
2.1690664E-002
 10
6.6187209E+001
 20
6.7755203E+001
 70
0
  0
VERTEX
  5
767
100
AcDbEntity
  8
5
100
AcDbVertex
100
AcDb2dVertex
 42
2.0949625E-002
 10
6.6123715E+001
 20
6.76534E+001
 70
1
  0
VERTEX
  5
768
100
AcDbEntity
  8
5
100
AcDbVertex
100
AcDb2dVertex
 42
2.121748E-002
 10
6.6067394E+001
 20
6.7543793E+001
 70
0
  0
VERTEX
  5
769
100
AcDbEntity
  8
5
100
AcDbVertex
100
AcDb2dVertex
 42
2.0887413E-002
 10
6.6019455E+001
 20
6.7426491E+001
 70
1
  0
VERTEX
  5
76a
100
AcDbEntity
  8
5
100
AcDbVertex
100
AcDb2dVertex
 42
2.0280347E-002
 10
6.5980101E+001
 20
6.7302326E+001
 70
0
  0
VERTEX
  5
76b
100
AcDbEntity
  8
5
100
AcDbVertex
100
AcDb2dVertex
 42
1.9514319E-002
 10
6.5950153E+001
 20
6.7171621E+001
 70
1
  0
VERTEX
  5
76c
100
AcDbEntity
  8
5
100
AcDbVertex
100
AcDb2dVertex
 42
1.8848882E-002
 10
6.5929597E+001
 20
6.7035378E+001
 70
0
  0
VERTEX
  5
76d
100
AcDbEntity
  8
5
100
AcDbVertex
100
AcDb2dVertex
 42
1.8035944E-002
 10
6.5919133E+001
 20
6.6894196E+001
 70
1
  0
VERTEX
  5
76e
100
AcDbEntity
  8
5
100
AcDbVertex
100
AcDb2dVertex
 42
1.7245211E-002
 10
6.591847E+001
 20
6.6749167E+001
 70
0
  0
VERTEX
  5
76f
100
AcDbEntity
  8
5
100
AcDbVertex
100
AcDb2dVertex
 42
1.6428525E-002
 10
6.5928044E+001
 20
6.66011E+001
 70
1
  0
VERTEX
  5
770
100
AcDbEntity
  8
5
100
AcDbVertex
100
AcDb2dVertex
 42
1.5654021E-002
 10
6.59473E+001
 20
6.6451094E+001
 70
0
  0
VERTEX
  5
771
100
AcDbEntity
  8
5
100
AcDbVertex
100
AcDb2dVertex
 42
1.4916703E-002
 10
6.5976409E+001
 20
6.6300095E+001
 70
1
  0
VERTEX
  5
772
100
AcDbEntity
  8
5
100
AcDbVertex
100
AcDb2dVertex
 42
1.4198352E-002
 10
6.601459E+001
 20
6.6149119E+001
 70
0
  0
VERTEX
  5
773
100
AcDbEntity
  8
5
100
AcDbVertex
100
AcDb2dVertex
 42
1.3565733E-002
 10
6.6061751E+001
 20
6.5999161E+001
 70
1
  0
VERTEX
  5
774
100
AcDbEntity
  8
5
100
AcDbVertex
100
AcDb2dVertex
 42
1.2929543E-002
 10
6.6116954E+001
 20
6.5851072E+001
 70
0
  0
VERTEX
  5
775
100
AcDbEntity
  8
5
100
AcDbVertex
100
AcDb2dVertex
 42
1.2406449E-002
 10
6.6179883E+001
 20
6.5705814E+001
 70
1
  0
VERTEX
  5
776
100
AcDbEntity
  8
5
100
AcDbVertex
100
AcDb2dVertex
 42
1.1853506E-002
 10
6.6249525E+001
 20
6.5564019E+001
 70
0
  0
VERTEX
  5
777
100
AcDbEntity
  8
5
100
AcDbVertex
100
AcDb2dVertex
 42
1.1433429E-002
 10
6.6325401E+001
 20
6.5426548E+001
 70
1
  0
VERTEX
  5
778
100
AcDbEntity
  8
5
100
AcDbVertex
100
AcDb2dVertex
 42
1.0964005E-002
 10
6.6406505E+001
 20
6.5293786E+001
 70
0
  0
VERTEX
  5
779
100
AcDbEntity
  8
5
100
AcDbVertex
100
AcDb2dVertex
 42
1.0624541E-002
 10
6.6492262E+001
 20
6.5166451E+001
 70
1
  0
VERTEX
  5
77a
100
AcDbEntity
  8
5
100
AcDbVertex
100
AcDb2dVertex
 42
1.0206596E-002
 10
6.6581727E+001
 20
6.5044696E+001
 70
0
  0
VERTEX
  5
77b
100
AcDbEntity
  8
5
100
AcDbVertex
100
AcDb2dVertex
 42
9.962911E-003
 10
6.6674283E+001
 20
6.4929075E+001
 70
1
  0
VERTEX
  5
77c
100
AcDbEntity
  8
5
100
AcDbVertex
100
AcDb2dVertex
 42
9.66366E-003
 10
6.6769163E+001
 20
6.4819509E+001
 70
0
  0
VERTEX
  5
77d
100
AcDbEntity
  8
5
100
AcDbVertex
100
AcDb2dVertex
 42
9.3938372E-003
 10
6.6865785E+001
 20
6.4716383E+001
 70
1
  0
VERTEX
  5
77e
100
AcDbEntity
  8
5
100
AcDbVertex
100
AcDb2dVertex
 42
8.9277656E-003
 10
6.6963308E+001
 20
6.4619543E+001
 70
0
  0
VERTEX
  5
77f
100
AcDbEntity
  8
5
100
AcDbVertex
100
AcDb2dVertex
 42
9.1279474E-003
 10
6.7061532E+001
 20
6.4528925E+001
 70
1
  0
VERTEX
  5
780
100
AcDbEntity
  8
5
100
AcDbVertex
100
AcDb2dVertex
 42
9.2097422E-003
 10
6.7162806E+001
 20
6.4442098E+001
 70
0
  0
VERTEX
  5
781
100
AcDbEntity
  8
5
100
AcDbVertex
100
AcDb2dVertex
 42
9.1269768E-003
 10
6.7269793E+001
 20
6.435709E+001
 70
1
  0
VERTEX
  5
782
100
AcDbEntity
  8
5
100
AcDbVertex
100
AcDb2dVertex
 42
9.7317424E-003
 10
6.7382353E+001
 20
6.4274275E+001
 70
0
  0
VERTEX
  5
783
100
AcDbEntity
  8
5
100
AcDbVertex
100
AcDb2dVertex
 42
1.0163656E-002
 10
6.7500301E+001
 20
6.4194716E+001
 70
1
  0
VERTEX
  5
784
100
AcDbEntity
  8
5
100
AcDbVertex
100
AcDb2dVertex
 42
1.0599321E-002
 10
6.7623178E+001
 20
6.4118948E+001
 70
0
  0
VERTEX
  5
785
100
AcDbEntity
  8
5
100
AcDbVertex
100
AcDb2dVertex
 42
1.1008593E-002
 10
6.7750927E+001
 20
6.4047783E+001
 70
1
  0
VERTEX
  5
786
100
AcDbEntity
  8
5
100
AcDbVertex
100
AcDb2dVertex
 42
1.1635983E-002
 10
6.7882921E+001
 20
6.3981777E+001
 70
0
  0
VERTEX
  5
787
100
AcDbEntity
  8
5
100
AcDbVertex
100
AcDb2dVertex
 42
1.2145232E-002
 10
6.8018815E+001
 20
6.3921926E+001
 70
1
  0
VERTEX
  5
788
100
AcDbEntity
  8
5
100
AcDbVertex
100
AcDb2dVertex
 42
1.2746379E-002
 10
6.8157808E+001
 20
6.3868671E+001
 70
0
  0
VERTEX
  5
789
100
AcDbEntity
  8
5
100
AcDbVertex
100
AcDb2dVertex
 42
1.3494909E-002
 10
6.829933E+001
 20
6.3822999E+001
 70
1
  0
VERTEX
  5
78a
100
AcDbEntity
  8
5
100
AcDbVertex
100
AcDb2dVertex
 42
1.4571993E-002
 10
6.8442641E+001
 20
6.3785344E+001
 70
0
  0
VERTEX
  5
78b
100
AcDbEntity
  8
5
100
AcDbVertex
100
AcDb2dVertex
 42
1.4948246E-002
 10
6.858701E+001
 20
6.3756693E+001
 70
1
  0
VERTEX
  5
78c
100
AcDbEntity
  8
5
100
AcDbVertex
100
AcDb2dVertex
 42
1.4810077E-002
 10
6.8730956E+001
 20
6.3736785E+001
 70
0
  0
VERTEX
  5
78d
100
AcDbEntity
  8
5
100
AcDbVertex
100
AcDb2dVertex
 42
1.7102723E-002
 10
6.8873334E+001
 20
6.3726305E+001
 70
1
  0
VERTEX
  5
78e
100
AcDbEntity
  8
5
100
AcDbVertex
100
AcDb2dVertex
 42
2.1460117E-002
 10
6.9015392E+001
 20
6.3726698E+001
 70
0
  0
VERTEX
  5
78f
100
AcDbEntity
  8
5
100
AcDbVertex
100
AcDb2dVertex
 42
1.7514483E-002
 10
6.9156803E+001
 20
6.3739116E+001
 70
1
  0
VERTEX
  5
790
100
AcDbEntity
  8
5
100
AcDbVertex
100
AcDb2dVertex
 42
6.992011E-003
 10
6.9288235E+001
 20
6.3757027E+001
 70
0
  0
VERTEX
  5
791
100
AcDbEntity
  8
5
100
AcDbVertex
100
AcDb2dVertex
 42
2.552944E-002
 10
6.9405654E+001
 20
6.3778674E+001
 70
1
  0
VERTEX
  5
792
100
AcDbEntity
  8
5
100
AcDbVertex
100
AcDb2dVertex
 42
4.7229958E-002
 10
6.9542072E+001
 20
6.382766E+001
 70
0
  0
VERTEX
  5
793
100
AcDbEntity
  8
5
100
AcDbVertex
100
AcDb2dVertex
 42
2.4800808E-002
 10
6.9731879E+001
 20
6.3929596E+001
 70
1
  0
VERTEX
  5
794
100
AcDbEntity
  8
5
100
AcDbVertex
100
AcDb2dVertex
 42
1.3353792E-002
 10
6.9968403E+001
 20
6.4079064E+001
 70
0
  0
SEQEND
  5
795
100
AcDbEntity
  0
ELLIPSE
  5
796
100
AcDbEntity
  8
5
100
AcDbEllipse
  6
CONTINUOUS
 10
6.6646346E+001
 20
6.4587616E+001
 11
3.5671708
 21
-3.7835555
 40
7.0710678E-001
 41
0.0
 42
6.2831853
 62
6
  0
POLYLINE
  5
797
100
AcDbEntity
  8
5
100
AcDb2dPolyline
  6
CONTINUOUS
 62
6
 66
1
 40
0.0
 41
0.0
 70
2
  0
VERTEX
  5
798
100
AcDbEntity
  8
5
100
AcDbVertex
100
AcDb2dVertex
 42
0.0
 10
1.3089978E+002
 20
5.1634638E+001
 70
0
  0
VERTEX
  5
799
100
AcDbEntity
  8
5
100
AcDbVertex
100
AcDb2dVertex
 42
2.2836503E-002
 10
1.3074942E+002
 20
5.1467207E+001
 70
1
  0
VERTEX
  5
79a
100
AcDbEntity
  8
5
100
AcDbVertex
100
AcDb2dVertex
 42
2.1683259E-002
 10
1.3061186E+002
 20
5.1283952E+001
 70
0
  0
VERTEX
  5
79b
100
AcDbEntity
  8
5
100
AcDbVertex
100
AcDb2dVertex
 42
2.0941655E-002
 10
1.3048743E+002
 20
5.1084128E+001
 70
1
  0
VERTEX
  5
79c
100
AcDbEntity
  8
5
100
AcDbVertex
100
AcDb2dVertex
 42
2.1207446E-002
 10
1.3037707E+002
 20
5.0869007E+001
 70
0
  0
VERTEX
  5
79d
100
AcDbEntity
  8
5
100
AcDbVertex
100
AcDb2dVertex
 42
2.0876377E-002
 10
1.3028316E+002
 20
5.0638804E+001
 70
1
  0
VERTEX
  5
79e
100
AcDbEntity
  8
5
100
AcDbVertex
100
AcDb2dVertex
 42
2.0268821E-002
 10
1.3020609E+002
 20
5.039515E+001
 70
0
  0
VERTEX
  5
79f
100
AcDbEntity
  8
5
100
AcDbVertex
100
AcDb2dVertex
 42
1.9502787E-002
 10
1.3014747E+002
 20
5.0138684E+001
 70
1
  0
VERTEX
  5
7a0
100
AcDbEntity
  8
5
100
AcDbVertex
100
AcDb2dVertex
 42
1.883732E-002
 10
1.3010727E+002
 20
4.9871366E+001
 70
0
  0
VERTEX
  5
7a1
100
AcDbEntity
  8
5
100
AcDbVertex
100
AcDb2dVertex
 42
1.802483E-002
 10
1.3008686E+002
 20
4.9594374E+001
 70
1
  0
VERTEX
  5
7a2
100
AcDbEntity
  8
5
100
AcDbVertex
100
AcDb2dVertex
 42
1.7234554E-002
 10
1.3008567E+002
 20
4.930985E+001
 70
0
  0
VERTEX
  5
7a3
100
AcDbEntity
  8
5
100
AcDbVertex
100
AcDb2dVertex
 42
1.6418578E-002
 10
1.3010456E+002
 20
4.9019378E+001
 70
1
  0
VERTEX
  5
7a4
100
AcDbEntity
  8
5
100
AcDbVertex
100
AcDb2dVertex
 42
1.5644715E-002
 10
1.3014242E+002
 20
4.8725115E+001
 70
0
  0
VERTEX
  5
7a5
100
AcDbEntity
  8
5
100
AcDbVertex
100
AcDb2dVertex
 42
1.4908142E-002
 10
1.3019961E+002
 20
4.8428916E+001
 70
1
  0
VERTEX
  5
7a6
100
AcDbEntity
  8
5
100
AcDbVertex
100
AcDb2dVertex
 42
1.4190461E-002
 10
1.3027458E+002
 20
4.8132768E+001
 70
0
  0
VERTEX
  5
7a7
100
AcDbEntity
  8
5
100
AcDbVertex
100
AcDb2dVertex
 42
1.3558509E-002
 10
1.3036716E+002
 20
4.7838626E+001
 70
1
  0
VERTEX
  5
7a8
100
AcDbEntity
  8
5
100
AcDbVertex
100
AcDb2dVertex
 42
1.2922928E-002
 10
1.304755E+002
 20
4.7548154E+001
 70
0
  0
VERTEX
  5
7a9
100
AcDbEntity
  8
5
100
AcDbVertex
100
AcDb2dVertex
 42
1.2400378E-002
 10
1.3059898E+002
 20
4.726324E+001
 70
1
  0
VERTEX
  5
7aa
100
AcDbEntity
  8
5
100
AcDbVertex
100
AcDb2dVertex
 42
1.184795E-002
 10
1.3073563E+002
 20
4.6985119E+001
 70
0
  0
VERTEX
  5
7ab
100
AcDbEntity
  8
5
100
AcDbVertex
100
AcDb2dVertex
 42
1.1428294E-002
 10
1.3088449E+002
 20
4.6715481E+001
 70
1
  0
VERTEX
  5
7ac
100
AcDbEntity
  8
5
100
AcDbVertex
100
AcDb2dVertex
 42
1.0959295E-002
 10
1.3104361E+002
 20
4.6455081E+001
 70
0
  0
VERTEX
  5
7ad
100
AcDbEntity
  8
5
100
AcDbVertex
100
AcDb2dVertex
 42
1.0620136E-002
 10
1.3121184E+002
 20
4.6205323E+001
 70
1
  0
VERTEX
  5
7ae
100
AcDbEntity
  8
5
100
AcDbVertex
100
AcDb2dVertex
 42
1.0202527E-002
 10
1.3138734E+002
 20
4.5966508E+001
 70
0
  0
VERTEX
  5
7af
100
AcDbEntity
  8
5
100
AcDbVertex
100
AcDb2dVertex
 42
9.9590731E-003
 10
1.3156891E+002
 20
4.5739722E+001
 70
1
  0
VERTEX
  5
7b0
100
AcDbEntity
  8
5
100
AcDbVertex
100
AcDb2dVertex
 42
9.6600918E-003
 10
1.3175502E+002
 20
4.5524811E+001
 70
0
  0
VERTEX
  5
7b1
100
AcDbEntity
  8
5
100
AcDbVertex
100
AcDb2dVertex
 42
9.390413E-003
 10
1.3194456E+002
 20
4.5322526E+001
 70
1
  0
VERTEX
  5
7b2
100
AcDbEntity
  8
5
100
AcDbVertex
100
AcDb2dVertex
 42
8.924649E-003
 10
1.3213586E+002
 20
4.5132569E+001
 70
0
  0
VERTEX
  5
7b3
100
AcDbEntity
  8
5
100
AcDbVertex
100
AcDb2dVertex
 42
9.1246951E-003
 10
1.3232853E+002
 20
4.4954812E+001
 70
1
  0
VERTEX
  5
7b4
100
AcDbEntity
  8
5
100
AcDbVertex
100
AcDb2dVertex
 42
9.2062939E-003
 10
1.3252718E+002
 20
4.4784492E+001
 70
0
  0
VERTEX
  5
7b5
100
AcDbEntity
  8
5
100
AcDbVertex
100
AcDb2dVertex
 42
9.123548E-003
 10
1.3273703E+002
 20
4.4617738E+001
 70
1
  0
VERTEX
  5
7b6
100
AcDbEntity
  8
5
100
AcDbVertex
100
AcDb2dVertex
 42
9.727842E-003
 10
1.3295781E+002
 20
4.4455283E+001
 70
0
  0
VERTEX
  5
7b7
100
AcDbEntity
  8
5
100
AcDbVertex
100
AcDb2dVertex
 42
1.015936E-002
 10
1.3318916E+002
 20
4.4299211E+001
 70
1
  0
VERTEX
  5
7b8
100
AcDbEntity
  8
5
100
AcDbVertex
100
AcDb2dVertex
 42
1.0594661E-002
 10
1.3343017E+002
 20
4.4150569E+001
 70
0
  0
VERTEX
  5
7b9
100
AcDbEntity
  8
5
100
AcDbVertex
100
AcDb2dVertex
 42
1.1003572E-002
 10
1.3368074E+002
 20
4.401095E+001
 70
1
  0
VERTEX
  5
7ba
100
AcDbEntity
  8
5
100
AcDbVertex
100
AcDb2dVertex
 42
1.1630402E-002
 10
1.3393964E+002
 20
4.3881444E+001
 70
0
  0
VERTEX
  5
7bb
100
AcDbEntity
  8
5
100
AcDbVertex
100
AcDb2dVertex
 42
1.2139121E-002
 10
1.3420618E+002
 20
4.3764003E+001
 70
1
  0
VERTEX
  5
7bc
100
AcDbEntity
  8
5
100
AcDbVertex
100
AcDb2dVertex
 42
1.2739645E-002
 10
1.3447881E+002
 20
4.3659492E+001
 70
0
  0
VERTEX
  5
7bd
100
AcDbEntity
  8
5
100
AcDbVertex
100
AcDb2dVertex
 42
1.3487494E-002
 10
1.347564E+002
 20
4.3569846E+001
 70
1
  0
VERTEX
  5
7be
100
AcDbEntity
  8
5
100
AcDbVertex
100
AcDb2dVertex
 42
1.4563724E-002
 10
1.350375E+002
 20
4.3495915E+001
 70
0
  0
VERTEX
  5
7bf
100
AcDbEntity
  8
5
100
AcDbVertex
100
AcDb2dVertex
 42
1.4939302E-002
 10
1.3532069E+002
 20
4.3439634E+001
 70
1
  0
VERTEX
  5
7c0
100
AcDbEntity
  8
5
100
AcDbVertex
100
AcDb2dVertex
 42
1.4800729E-002
 10
1.3560306E+002
 20
4.3400494E+001
 70
0
  0
VERTEX
  5
7c1
100
AcDbEntity
  8
5
100
AcDbVertex
100
AcDb2dVertex
 42
1.7092033E-002
 10
1.3588236E+002
 20
4.3379839E+001
 70
1
  0
VERTEX
  5
7c2
100
AcDbEntity
  8
5
100
AcDbVertex
100
AcDb2dVertex
 42
2.1447144E-002
 10
1.3616104E+002
 20
4.3380499E+001
 70
0
  0
VERTEX
  5
7c3
100
AcDbEntity
  8
5
100
AcDbVertex
100
AcDb2dVertex
 42
1.7502961E-002
 10
1.3643847E+002
 20
4.3404737E+001
 70
1
  0
VERTEX
  5
7c4
100
AcDbEntity
  8
5
100
AcDbVertex
100
AcDb2dVertex
 42
6.9855119E-003
 10
1.3669633E+002
 20
4.3439752E+001
 70
0
  0
VERTEX
  5
7c5
100
AcDbEntity
  8
5
100
AcDbVertex
100
AcDb2dVertex
 42
2.551454E-002
 10
1.3692671E+002
 20
4.34821E+001
 70
1
  0
VERTEX
  5
7c6
100
AcDbEntity
  8
5
100
AcDbVertex
100
AcDb2dVertex
 42
4.7205512E-002
 10
1.371944E+002
 20
4.3578042E+001
 70
0
  0
VERTEX
  5
7c7
100
AcDbEntity
  8
5
100
AcDbVertex
100
AcDb2dVertex
 42
2.4788281E-002
 10
1.3756692E+002
 20
4.3777775E+001
 70
1
  0
VERTEX
  5
7c8
100
AcDbEntity
  8
5
100
AcDbVertex
100
AcDb2dVertex
 42
1.3347061E-002
 10
1.3803115E+002
 20
4.4070676E+001
 70
0
  0
SEQEND
  5
7c9
100
AcDbEntity
  0
POLYLINE
  5
7ca
100
AcDbEntity
  8
5
100
AcDb2dPolyline
  6
CONTINUOUS
 62
6
 66
1
 40
0.0
 41
0.0
 70
2
  0
VERTEX
  5
7cb
100
AcDbEntity
  8
5
100
AcDbVertex
100
AcDb2dVertex
 42
0.0
 10
1.3812694E+002
 20
4.8391084E+001
 70
0
  0
VERTEX
  5
7cc
100
AcDbEntity
  8
5
100
AcDbVertex
100
AcDb2dVertex
 42
2.166641E-003
 10
1.3812686E+002
 20
4.8409069E+001
 70
1
  0
VERTEX
  5
7cd
100
AcDbEntity
  8
5
100
AcDbVertex
100
AcDb2dVertex
 42
2.1212776E-003
 10
1.3812663E+002
 20
4.8427188E+001
 70
0
  0
VERTEX
  5
7ce
100
AcDbEntity
  8
5
100
AcDbVertex
100
AcDb2dVertex
 42
2.1016159E-003
 10
1.3812624E+002
 20
4.8445445E+001
 70
1
  0
VERTEX
  5
7cf
100
AcDbEntity
  8
5
100
AcDbVertex
100
AcDb2dVertex
 42
2.1129503E-003
 10
1.381257E+002
 20
4.8463834E+001
 70
0
  0
VERTEX
  5
7d0
100
AcDbEntity
  8
5
100
AcDbVertex
100
AcDb2dVertex
 42
2.111683E-003
 10
1.3812499E+002
 20
4.8482361E+001
 70
1
  0
VERTEX
  5
7d1
100
AcDbEntity
  8
5
100
AcDbVertex
100
AcDb2dVertex
 42
2.1086088E-003
 10
1.3812412E+002
 20
4.8501019E+001
 70
0
  0
VERTEX
  5
7d2
100
AcDbEntity
  8
5
100
AcDbVertex
100
AcDb2dVertex
 42
2.1025314E-003
 10
1.3812308E+002
 20
4.8519812E+001
 70
1
  0
VERTEX
  5
7d3
100
AcDbEntity
  8
5
100
AcDbVertex
100
AcDb2dVertex
 42
2.1027322E-003
 10
1.3812188E+002
 20
4.8538735E+001
 70
0
  0
VERTEX
  5
7d4
100
AcDbEntity
  8
5
100
AcDbVertex
100
AcDb2dVertex
 42
2.09788E-003
 10
1.381205E+002
 20
4.8557791E+001
 70
1
  0
VERTEX
  5
7d5
100
AcDbEntity
  8
5
100
AcDbVertex
100
AcDb2dVertex
 42
2.097464E-003
 10
1.3811895E+002
 20
4.8576976E+001
 70
0
  0
VERTEX
  5
7d6
100
AcDbEntity
  8
5
100
AcDbVertex
100
AcDb2dVertex
 42
2.0916174E-003
 10
1.3811723E+002
 20
4.8596293E+001
 70
1
  0
VERTEX
  5
7d7
100
AcDbEntity
  8
5
100
AcDbVertex
100
AcDb2dVertex
 42
2.0897476E-003
 10
1.3811533E+002
 20
4.8615735E+001
 70
0
  0
VERTEX
  5
7d8
100
AcDbEntity
  8
5
100
AcDbVertex
100
AcDb2dVertex
 42
2.0860274E-003
 10
1.3811325E+002
 20
4.8635307E+001
 70
1
  0
VERTEX
  5
7d9
100
AcDbEntity
  8
5
100
AcDbVertex
100
AcDb2dVertex
 42
2.0892169E-003
 10
1.38111E+002
 20
4.8655004E+001
 70
0
  0
VERTEX
  5
7da
100
AcDbEntity
  8
5
100
AcDbVertex
100
AcDb2dVertex
 42
2.0780279E-003
 10
1.3810855E+002
 20
4.8674832E+001
 70
1
  0
VERTEX
  5
7db
100
AcDbEntity
  8
5
100
AcDbVertex
100
AcDb2dVertex
 42
2.063359E-003
 10
1.3810593E+002
 20
4.8694775E+001
 70
0
  0
VERTEX
  5
7dc
100
AcDbEntity
  8
5
100
AcDbVertex
100
AcDb2dVertex
 42
2.0773141E-003
 10
1.3810312E+002
 20
4.8714835E+001
 70
1
  0
VERTEX
  5
7dd
100
AcDbEntity
  8
5
100
AcDbVertex
100
AcDb2dVertex
 42
2.1210498E-003
 10
1.3810012E+002
 20
4.8735036E+001
 70
0
  0
VERTEX
  5
7de
100
AcDbEntity
  8
5
100
AcDbVertex
100
AcDb2dVertex
 42
2.0508706E-003
 10
1.3809692E+002
 20
4.8755392E+001
 70
1
  0
VERTEX
  5
7df
100
AcDbEntity
  8
5
100
AcDbVertex
100
AcDb2dVertex
 42
1.9064799E-003
 10
1.3809354E+002
 20
4.8775777E+001
 70
0
  0
VERTEX
  5
7e0
100
AcDbEntity
  8
5
100
AcDbVertex
100
AcDb2dVertex
 42
2.1117236E-003
 10
1.3809001E+002
 20
4.8796153E+001
 70
1
  0
VERTEX
  5
7e1
100
AcDbEntity
  8
5
100
AcDbVertex
100
AcDb2dVertex
 42
2.5308882E-003
 10
1.3808619E+002
 20
4.8816986E+001
 70
0
  0
VERTEX
  5
7e2
100
AcDbEntity
  8
5
100
AcDbVertex
100
AcDb2dVertex
 42
1.891921E-003
 10
1.3808205E+002
 20
4.883844E+001
 70
1
  0
VERTEX
  5
7e3
100
AcDbEntity
  8
5
100
AcDbVertex
100
AcDb2dVertex
 42
6.02949E-004
 10
1.3807804E+002
 20
4.8858651E+001
 70
0
  0
VERTEX
  5
7e4
100
AcDbEntity
  8
5
100
AcDbVertex
100
AcDb2dVertex
 42
2.7059221E-003
 10
1.3807433E+002
 20
4.8876978E+001
 70
1
  0
VERTEX
  5
7e5
100
AcDbEntity
  8
5
100
AcDbVertex
100
AcDb2dVertex
 42
4.6389393E-003
 10
1.3806909E+002
 20
4.8900757E+001
 70
0
  0
VERTEX
  5
7e6
100
AcDbEntity
  8
5
100
AcDbVertex
100
AcDb2dVertex
 42
2.2222512E-003
 10
1.3806041E+002
 20
4.8937687E+001
 70
1
  0
VERTEX
  5
7e7
100
AcDbEntity
  8
5
100
AcDbVertex
100
AcDb2dVertex
 42
1.1593769E-003
 10
1.3804869E+002
 20
4.8986234E+001
 70
0
  0
SEQEND
  5
7e8
100
AcDbEntity
  0
POLYLINE
  5
7e9
100
AcDbEntity
  8
5
100
AcDb2dPolyline
  6
CONTINUOUS
 62
6
 66
1
 40
0.0
 41
0.0
 70
2
  0
VERTEX
  5
7ea
100
AcDbEntity
  8
5
100
AcDbVertex
100
AcDb2dVertex
 42
0.0
 10
1.3576722E+002
 20
5.1375645E+001
 70
0
  0
VERTEX
  5
7eb
100
AcDbEntity
  8
5
100
AcDbVertex
100
AcDb2dVertex
 42
1.3536982E-002
 10
1.3561325E+002
 20
5.1416762E+001
 70
1
  0
VERTEX
  5
7ec
100
AcDbEntity
  8
5
100
AcDbVertex
100
AcDb2dVertex
 42
1.5352948E-002
 10
1.3546423E+002
 20
5.1447608E+001
 70
0
  0
VERTEX
  5
7ed
100
AcDbEntity
  8
5
100
AcDbVertex
100
AcDb2dVertex
 42
1.6347743E-002
 10
1.3532029E+002
 20
5.1467664E+001
 70
1
  0
VERTEX
  5
7ee
100
AcDbEntity
  8
5
100
AcDbVertex
100
AcDb2dVertex
 42
1.6241424E-002
 10
1.3518175E+002
 20
5.1477974E+001
 70
0
  0
VERTEX
  5
7ef
100
AcDbEntity
  8
5
100
AcDbVertex
100
AcDb2dVertex
 42
1.6361691E-002
 10
1.3504954E+002
 20
5.1478952E+001
 70
1
  0
VERTEX
  5
7f0
100
AcDbEntity
  8
5
100
AcDbVertex
100
AcDb2dVertex
 42
1.6296249E-002
 10
1.3492429E+002
 20
5.1471824E+001
 70
0
  0
VERTEX
  5
7f1
100
AcDbEntity
  8
5
100
AcDbVertex
100
AcDb2dVertex
 42
1.7104092E-002
 10
1.3480663E+002
 20
5.1457028E+001
 70
1
  0
VERTEX
  5
7f2
100
AcDbEntity
  8
5
100
AcDbVertex
100
AcDb2dVertex
 42
1.7222291E-002
 10
1.3469408E+002
 20
5.1435011E+001
 70
0
  0
VERTEX
  5
7f3
100
AcDbEntity
  8
5
100
AcDbVertex
100
AcDb2dVertex
 42
1.7684668E-002
 10
1.3458432E+002
 20
5.1405338E+001
 70
1
  0
VERTEX
  5
7f4
100
AcDbEntity
  8
5
100
AcDbVertex
100
AcDb2dVertex
 42
1.9103399E-002
 10
1.3447629E+002
 20
5.1367522E+001
 70
0
  0
VERTEX
  5
7f5
100
AcDbEntity
  8
5
100
AcDbVertex
100
AcDb2dVertex
 42
1.990544E-002
 10
1.343697E+002
 20
5.1320345E+001
 70
1
  0
VERTEX
  5
7f6
100
AcDbEntity
  8
5
100
AcDbVertex
100
AcDb2dVertex
 42
2.1212959E-002
 10
1.3426549E+002
 20
5.1263737E+001
 70
0
  0
VERTEX
  5
7f7
100
AcDbEntity
  8
5
100
AcDbVertex
100
AcDb2dVertex
 42
2.2148757E-002
 10
1.3416503E+002
 20
5.1196953E+001
 70
1
  0
VERTEX
  5
7f8
100
AcDbEntity
  8
5
100
AcDbVertex
100
AcDb2dVertex
 42
2.3040796E-002
 10
1.3406918E+002
 20
5.1120112E+001
 70
0
  0
VERTEX
  5
7f9
100
AcDbEntity
  8
5
100
AcDbVertex
100
AcDb2dVertex
 42
2.3475724E-002
 10
1.3397912E+002
 20
5.1032566E+001
 70
1
  0
VERTEX
  5
7fa
100
AcDbEntity
  8
5
100
AcDbVertex
100
AcDb2dVertex
 42
2.39854E-002
 10
1.338957E+002
 20
5.0934733E+001
 70
0
  0
VERTEX
  5
7fb
100
AcDbEntity
  8
5
100
AcDbVertex
100
AcDb2dVertex
 42
2.3957802E-002
 10
1.3382031E+002
 20
5.0826282E+001
 70
1
  0
VERTEX
  5
7fc
100
AcDbEntity
  8
5
100
AcDbVertex
100
AcDb2dVertex
 42
2.3882191E-002
 10
1.3375361E+002
 20
5.0707962E+001
 70
0
  0
VERTEX
  5
7fd
100
AcDbEntity
  8
5
100
AcDbVertex
100
AcDb2dVertex
 42
2.3340312E-002
 10
1.3369696E+002
 20
5.0579814E+001
 70
1
  0
VERTEX
  5
7fe
100
AcDbEntity
  8
5
100
AcDbVertex
100
AcDb2dVertex
 42
2.2787303E-002
 10
1.3365076E+002
 20
5.0442915E+001
 70
0
  0
VERTEX
  5
7ff
100
AcDbEntity
  8
5
100
AcDbVertex
100
AcDb2dVertex
 42
2.1901628E-002
 10
1.3361621E+002
 20
5.0297728E+001
 70
1
  0
VERTEX
  5
800
100
AcDbEntity
  8
5
100
AcDbVertex
100
AcDb2dVertex
 42
2.1038794E-002
 10
1.3359335E+002
 20
5.0145599E+001
 70
0
  0
VERTEX
  5
801
100
AcDbEntity
  8
5
100
AcDbVertex
100
AcDb2dVertex
 42
2.0010078E-002
 10
1.3358308E+002
 20
4.9987387E+001
 70
1
  0
VERTEX
  5
802
100
AcDbEntity
  8
5
100
AcDbVertex
100
AcDb2dVertex
 42
1.9032515E-002
 10
1.3358503E+002
 20
4.9824594E+001
 70
0
  0
VERTEX
  5
803
100
AcDbEntity
  8
5
100
AcDbVertex
100
AcDb2dVertex
 42
1.8028489E-002
 10
1.335997E+002
 20
4.9658389E+001
 70
1
  0
VERTEX
  5
804
100
AcDbEntity
  8
5
100
AcDbVertex
100
AcDb2dVertex
 42
1.7071656E-002
 10
1.3362633E+002
 20
4.9490279E+001
 70
0
  0
VERTEX
  5
805
100
AcDbEntity
  8
5
100
AcDbVertex
100
AcDb2dVertex
 42
1.6186126E-002
 10
1.3366501E+002
 20
4.9321612E+001
 70
1
  0
VERTEX
  5
806
100
AcDbEntity
  8
5
100
AcDbVertex
100
AcDb2dVertex
 42
1.5322029E-002
 10
1.3371462E+002
 20
4.9153742E+001
 70
0
  0
VERTEX
  5
807
100
AcDbEntity
  8
5
100
AcDbVertex
100
AcDb2dVertex
 42
1.458771E-002
 10
1.3377487E+002
 20
4.8988045E+001
 70
1
  0
VERTEX
  5
808
100
AcDbEntity
  8
5
100
AcDbVertex
100
AcDb2dVertex
 42
1.3838554E-002
 10
1.3384444E+002
 20
4.8825594E+001
 70
0
  0
VERTEX
  5
809
100
AcDbEntity
  8
5
100
AcDbVertex
100
AcDb2dVertex
 42
1.3255359E-002
 10
1.3392274E+002
 20
4.8667658E+001
 70
1
  0
VERTEX
  5
80a
100
AcDbEntity
  8
5
100
AcDbVertex
100
AcDb2dVertex
 42
1.2625927E-002
 10
1.3400839E+002
 20
4.8514955E+001
 70
0
  0
VERTEX
  5
80b
100
AcDbEntity
  8
5
100
AcDbVertex
100
AcDb2dVertex
 42
1.2166018E-002
 10
1.341006E+002
 20
4.8368547E+001
 70
1
  0
VERTEX
  5
80c
100
AcDbEntity
  8
5
100
AcDbVertex
100
AcDb2dVertex
 42
1.1618531E-002
 10
1.3419804E+002
 20
4.8228785E+001
 70
0
  0
VERTEX
  5
80d
100
AcDbEntity
  8
5
100
AcDbVertex
100
AcDb2dVertex
 42
1.1291766E-002
 10
1.3429984E+002
 20
4.8096479E+001
 70
1
  0
VERTEX
  5
80e
100
AcDbEntity
  8
5
100
AcDbVertex
100
AcDb2dVertex
 42
1.0899574E-002
 10
1.344049E+002
 20
4.797163E+001
 70
0
  0
VERTEX
  5
80f
100
AcDbEntity
  8
5
100
AcDbVertex
100
AcDb2dVertex
 42
1.0561476E-002
 10
1.3451236E+002
 20
4.7854785E+001
 70
1
  0
VERTEX
  5
810
100
AcDbEntity
  8
5
100
AcDbVertex
100
AcDb2dVertex
 42
9.977406E-003
 10
1.3462112E+002
 20
4.7745732E+001
 70
0
  0
VERTEX
  5
811
100
AcDbEntity
  8
5
100
AcDbVertex
100
AcDb2dVertex
 42
1.0223981E-002
 10
1.3473087E+002
 20
4.7644367E+001
 70
1
  0
VERTEX
  5
812
100
AcDbEntity
  8
5
100
AcDbVertex
100
AcDb2dVertex
 42
1.0341061E-002
 10
1.348445E+002
 20
4.7547712E+001
 70
0
  0
VERTEX
  5
813
100
AcDbEntity
  8
5
100
AcDbVertex
100
AcDb2dVertex
 42
1.0244694E-002
 10
1.3496529E+002
 20
4.745339E+001
 70
1
  0
VERTEX
  5
814
100
AcDbEntity
  8
5
100
AcDbVertex
100
AcDb2dVertex
 42
1.1010002E-002
 10
1.3509299E+002
 20
4.7362E+001
 70
0
  0
VERTEX
  5
815
100
AcDbEntity
  8
5
100
AcDbVertex
100
AcDb2dVertex
 42
1.1571567E-002
 10
1.3522728E+002
 20
4.727502E+001
 70
1
  0
VERTEX
  5
816
100
AcDbEntity
  8
5
100
AcDbVertex
100
AcDb2dVertex
 42
1.214757E-002
 10
1.3536751E+002
 20
4.719322E+001
 70
0
  0
VERTEX
  5
817
100
AcDbEntity
  8
5
100
AcDbVertex
100
AcDb2dVertex
 42
1.2681434E-002
 10
1.355135E+002
 20
4.7117747E+001
 70
1
  0
VERTEX
  5
818
100
AcDbEntity
  8
5
100
AcDbVertex
100
AcDb2dVertex
 42
1.3483829E-002
 10
1.356643E+002
 20
4.704937E+001
 70
0
  0
VERTEX
  5
819
100
AcDbEntity
  8
5
100
AcDbVertex
100
AcDb2dVertex
 42
1.4212628E-002
 10
1.3581929E+002
 20
4.6989461E+001
 70
1
  0
VERTEX
  5
81a
100
AcDbEntity
  8
5
100
AcDbVertex
100
AcDb2dVertex
 42
1.5123975E-002
 10
1.3597735E+002
 20
4.6938632E+001
 70
0
  0
VERTEX
  5
81b
100
AcDbEntity
  8
5
100
AcDbVertex
100
AcDb2dVertex
 42
1.600533E-002
 10
1.3613752E+002
 20
4.6898202E+001
 70
1
  0
VERTEX
  5
81c
100
AcDbEntity
  8
5
100
AcDbVertex
100
AcDb2dVertex
 42
1.7069058E-002
 10
1.3629854E+002
 20
4.6868534E+001
 70
0
  0
VERTEX
  5
81d
100
AcDbEntity
  8
5
100
AcDbVertex
100
AcDb2dVertex
 42
1.8113812E-002
 10
1.3645915E+002
 20
4.6850801E+001
 70
1
  0
VERTEX
  5
81e
100
AcDbEntity
  8
5
100
AcDbVertex
100
AcDb2dVertex
 42
1.9267074E-002
 10
1.3661805E+002
 20
4.6845004E+001
 70
0
  0
VERTEX
  5
81f
100
AcDbEntity
  8
5
100
AcDbVertex
100
AcDb2dVertex
 42
2.0422671E-002
 10
1.3677381E+002
 20
4.6852027E+001
 70
1
  0
VERTEX
  5
820
100
AcDbEntity
  8
5
100
AcDbVertex
100
AcDb2dVertex
 42
2.1596311E-002
 10
1.3692525E+002
 20
4.6871471E+001
 70
0
  0
VERTEX
  5
821
100
AcDbEntity
  8
5
100
AcDbVertex
100
AcDb2dVertex
 42
2.2674042E-002
 10
1.3707085E+002
 20
4.6903833E+001
 70
1
  0
VERTEX
  5
822
100
AcDbEntity
  8
5
100
AcDbVertex
100
AcDb2dVertex
 42
2.3525378E-002
 10
1.372097E+002
 20
4.6948251E+001
 70
0
  0
VERTEX
  5
823
100
AcDbEntity
  8
5
100
AcDbVertex
100
AcDb2dVertex
 42
2.4487079E-002
 10
1.3734039E+002
 20
4.7004769E+001
 70
1
  0
VERTEX
  5
824
100
AcDbEntity
  8
5
100
AcDbVertex
100
AcDb2dVertex
 42
2.5309171E-002
 10
1.3746238E+002
 20
4.7072397E+001
 70
0
  0
VERTEX
  5
825
100
AcDbEntity
  8
5
100
AcDbVertex
100
AcDb2dVertex
 42
2.5183541E-002
 10
1.3757449E+002
 20
4.7150844E+001
 70
1
  0
VERTEX
  5
826
100
AcDbEntity
  8
5
100
AcDbVertex
100
AcDb2dVertex
 42
2.3899207E-002
 10
1.3767655E+002
 20
4.7238051E+001
 70
0
  0
VERTEX
  5
827
100
AcDbEntity
  8
5
100
AcDbVertex
100
AcDb2dVertex
 42
2.5252464E-002
 10
1.3776769E+002
 20
4.7333107E+001
 70
1
  0
VERTEX
  5
828
100
AcDbEntity
  8
5
100
AcDbVertex
100
AcDb2dVertex
 42
2.7934598E-002
 10
1.3784835E+002
 20
4.7437238E+001
 70
0
  0
VERTEX
  5
829
100
AcDbEntity
  8
5
100
AcDbVertex
100
AcDb2dVertex
 42
2.1967924E-002
 10
1.3791808E+002
 20
4.7550479E+001
 70
1
  0
VERTEX
  5
82a
100
AcDbEntity
  8
5
100
AcDbVertex
100
AcDb2dVertex
 42
1.0550299E-002
 10
1.3797679E+002
 20
4.766088E+001
 70
0
  0
VERTEX
  5
82b
100
AcDbEntity
  8
5
100
AcDbVertex
100
AcDb2dVertex
 42
2.6251727E-002
 10
1.3802408E+002
 20
4.7763835E+001
 70
1
  0
VERTEX
  5
82c
100
AcDbEntity
  8
5
100
AcDbVertex
100
AcDb2dVertex
 42
4.0194214E-002
 10
1.3806349E+002
 20
4.7899812E+001
 70
0
  0
VERTEX
  5
82d
100
AcDbEntity
  8
5
100
AcDbVertex
100
AcDb2dVertex
 42
1.9878116E-002
 10
1.3809785E+002
 20
4.8111779E+001
 70
1
  0
VERTEX
  5
82e
100
AcDbEntity
  8
5
100
AcDbVertex
100
AcDb2dVertex
 42
1.0866091E-002
 10
1.3812694E+002
 20
4.8391084E+001
 70
0
  0
SEQEND
  5
82f
100
AcDbEntity
  0
POLYLINE
  5
830
100
AcDbEntity
  8
5
100
AcDb2dPolyline
  6
CONTINUOUS
 62
1
 66
1
 40
0.0
 41
0.0
 70
2
  0
VERTEX
  5
831
100
AcDbEntity
  8
5
100
AcDbVertex
100
AcDb2dVertex
 42
0.0
 10
1.3407603E+002
 20
5.1126116E+001
 70
0
  0
VERTEX
  5
832
100
AcDbEntity
  8
5
100
AcDbVertex
100
AcDb2dVertex
 42
2.2844392E-002
 10
1.3399933E+002
 20
5.1040835E+001
 70
1
  0
VERTEX
  5
833
100
AcDbEntity
  8
5
100
AcDbVertex
100
AcDb2dVertex
 42
2.1690664E-002
 10
1.3392915E+002
 20
5.0947483E+001
 70
0
  0
VERTEX
  5
834
100
AcDbEntity
  8
5
100
AcDbVertex
100
AcDb2dVertex
 42
2.0949625E-002
 10
1.3386566E+002
 20
5.084568E+001
 70
1
  0
VERTEX
  5
835
100
AcDbEntity
  8
5
100
AcDbVertex
100
AcDb2dVertex
 42
2.121748E-002
 10
1.3380934E+002
 20
5.0736073E+001
 70
0
  0
VERTEX
  5
836
100
AcDbEntity
  8
5
100
AcDbVertex
100
AcDb2dVertex
 42
2.0887413E-002
 10
1.337614E+002
 20
5.0618771E+001
 70
1
  0
VERTEX
  5
837
100
AcDbEntity
  8
5
100
AcDbVertex
100
AcDb2dVertex
 42
2.0280347E-002
 10
1.3372204E+002
 20
5.0494606E+001
 70
0
  0
VERTEX
  5
838
100
AcDbEntity
  8
5
100
AcDbVertex
100
AcDb2dVertex
 42
1.9514319E-002
 10
1.336921E+002
 20
5.0363902E+001
 70
1
  0
VERTEX
  5
839
100
AcDbEntity
  8
5
100
AcDbVertex
100
AcDb2dVertex
 42
1.8848882E-002
 10
1.3367154E+002
 20
5.0227658E+001
 70
0
  0
VERTEX
  5
83a
100
AcDbEntity
  8
5
100
AcDbVertex
100
AcDb2dVertex
 42
1.8035944E-002
 10
1.3366108E+002
 20
5.0086476E+001
 70
1
  0
VERTEX
  5
83b
100
AcDbEntity
  8
5
100
AcDbVertex
100
AcDb2dVertex
 42
1.7245211E-002
 10
1.3366041E+002
 20
4.9941447E+001
 70
0
  0
VERTEX
  5
83c
100
AcDbEntity
  8
5
100
AcDbVertex
100
AcDb2dVertex
 42
1.6428525E-002
 10
1.3366999E+002
 20
4.979338E+001
 70
1
  0
VERTEX
  5
83d
100
AcDbEntity
  8
5
100
AcDbVertex
100
AcDb2dVertex
 42
1.5654021E-002
 10
1.3368924E+002
 20
4.9643374E+001
 70
0
  0
VERTEX
  5
83e
100
AcDbEntity
  8
5
100
AcDbVertex
100
AcDb2dVertex
 42
1.4916703E-002
 10
1.3371835E+002
 20
4.9492375E+001
 70
1
  0
VERTEX
  5
83f
100
AcDbEntity
  8
5
100
AcDbVertex
100
AcDb2dVertex
 42
1.4198352E-002
 10
1.3375653E+002
 20
4.9341399E+001
 70
0
  0
VERTEX
  5
840
100
AcDbEntity
  8
5
100
AcDbVertex
100
AcDb2dVertex
 42
1.3565733E-002
 10
1.3380369E+002
 20
4.9191441E+001
 70
1
  0
VERTEX
  5
841
100
AcDbEntity
  8
5
100
AcDbVertex
100
AcDb2dVertex
 42
1.2929543E-002
 10
1.338589E+002
 20
4.9043352E+001
 70
0
  0
VERTEX
  5
842
100
AcDbEntity
  8
5
100
AcDbVertex
100
AcDb2dVertex
 42
1.2406449E-002
 10
1.3392183E+002
 20
4.8898094E+001
 70
1
  0
VERTEX
  5
843
100
AcDbEntity
  8
5
100
AcDbVertex
100
AcDb2dVertex
 42
1.1853506E-002
 10
1.3399147E+002
 20
4.8756299E+001
 70
0
  0
VERTEX
  5
844
100
AcDbEntity
  8
5
100
AcDbVertex
100
AcDb2dVertex
 42
1.1433429E-002
 10
1.3406734E+002
 20
4.8618828E+001
 70
1
  0
VERTEX
  5
845
100
AcDbEntity
  8
5
100
AcDbVertex
100
AcDb2dVertex
 42
1.0964005E-002
 10
1.3414845E+002
 20
4.8486066E+001
 70
0
  0
VERTEX
  5
846
100
AcDbEntity
  8
5
100
AcDbVertex
100
AcDb2dVertex
 42
1.0624541E-002
 10
1.3423421E+002
 20
4.8358731E+001
 70
1
  0
VERTEX
  5
847
100
AcDbEntity
  8
5
100
AcDbVertex
100
AcDb2dVertex
 42
1.0206596E-002
 10
1.3432367E+002
 20
4.8236976E+001
 70
0
  0
VERTEX
  5
848
100
AcDbEntity
  8
5
100
AcDbVertex
100
AcDb2dVertex
 42
9.962911E-003
 10
1.3441623E+002
 20
4.8121355E+001
 70
1
  0
VERTEX
  5
849
100
AcDbEntity
  8
5
100
AcDbVertex
100
AcDb2dVertex
 42
9.66366E-003
 10
1.3451111E+002
 20
4.8011789E+001
 70
0
  0
VERTEX
  5
84a
100
AcDbEntity
  8
5
100
AcDbVertex
100
AcDb2dVertex
 42
9.3938372E-003
 10
1.3460773E+002
 20
4.7908663E+001
 70
1
  0
VERTEX
  5
84b
100
AcDbEntity
  8
5
100
AcDbVertex
100
AcDb2dVertex
 42
8.9277656E-003
 10
1.3470525E+002
 20
4.7811824E+001
 70
0
  0
VERTEX
  5
84c
100
AcDbEntity
  8
5
100
AcDbVertex
100
AcDb2dVertex
 42
9.1279474E-003
 10
1.3480347E+002
 20
4.7721205E+001
 70
1
  0
VERTEX
  5
84d
100
AcDbEntity
  8
5
100
AcDbVertex
100
AcDb2dVertex
 42
9.2097422E-003
 10
1.3490475E+002
 20
4.7634379E+001
 70
0
  0
VERTEX
  5
84e
100
AcDbEntity
  8
5
100
AcDbVertex
100
AcDb2dVertex
 42
9.1269768E-003
 10
1.3501174E+002
 20
4.7549371E+001
 70
1
  0
VERTEX
  5
84f
100
AcDbEntity
  8
5
100
AcDbVertex
100
AcDb2dVertex
 42
9.7317424E-003
 10
1.351243E+002
 20
4.7466556E+001
 70
0
  0
VERTEX
  5
850
100
AcDbEntity
  8
5
100
AcDbVertex
100
AcDb2dVertex
 42
1.0163656E-002
 10
1.3524224E+002
 20
4.7386997E+001
 70
1
  0
VERTEX
  5
851
100
AcDbEntity
  8
5
100
AcDbVertex
100
AcDb2dVertex
 42
1.0599321E-002
 10
1.3536512E+002
 20
4.7311228E+001
 70
0
  0
VERTEX
  5
852
100
AcDbEntity
  8
5
100
AcDbVertex
100
AcDb2dVertex
 42
1.1008593E-002
 10
1.3549287E+002
 20
4.7240063E+001
 70
1
  0
VERTEX
  5
853
100
AcDbEntity
  8
5
100
AcDbVertex
100
AcDb2dVertex
 42
1.1635983E-002
 10
1.3562486E+002
 20
4.7174057E+001
 70
0
  0
VERTEX
  5
854
100
AcDbEntity
  8
5
100
AcDbVertex
100
AcDb2dVertex
 42
1.2145232E-002
 10
1.3576076E+002
 20
4.7114206E+001
 70
1
  0
VERTEX
  5
855
100
AcDbEntity
  8
5
100
AcDbVertex
100
AcDb2dVertex
 42
1.2746379E-002
 10
1.3589975E+002
 20
4.7060951E+001
 70
0
  0
VERTEX
  5
856
100
AcDbEntity
  8
5
100
AcDbVertex
100
AcDb2dVertex
 42
1.3494909E-002
 10
1.3604127E+002
 20
4.701528E+001
 70
1
  0
VERTEX
  5
857
100
AcDbEntity
  8
5
100
AcDbVertex
100
AcDb2dVertex
 42
1.4571993E-002
 10
1.3618458E+002
 20
4.6977624E+001
 70
0
  0
VERTEX
  5
858
100
AcDbEntity
  8
5
100
AcDbVertex
100
AcDb2dVertex
 42
1.4948246E-002
 10
1.3632895E+002
 20
4.6948973E+001
 70
1
  0
VERTEX
  5
859
100
AcDbEntity
  8
5
100
AcDbVertex
100
AcDb2dVertex
 42
1.4810077E-002
 10
1.364729E+002
 20
4.6929065E+001
 70
0
  0
VERTEX
  5
85a
100
AcDbEntity
  8
5
100
AcDbVertex
100
AcDb2dVertex
 42
1.7102723E-002
 10
1.3661528E+002
 20
4.6918586E+001
 70
1
  0
VERTEX
  5
85b
100
AcDbEntity
  8
5
100
AcDbVertex
100
AcDb2dVertex
 42
2.1460117E-002
 10
1.3675733E+002
 20
4.6918978E+001
 70
0
  0
VERTEX
  5
85c
100
AcDbEntity
  8
5
100
AcDbVertex
100
AcDb2dVertex
 42
1.7514483E-002
 10
1.3689875E+002
 20
4.6931396E+001
 70
1
  0
VERTEX
  5
85d
100
AcDbEntity
  8
5
100
AcDbVertex
100
AcDb2dVertex
 42
6.992011E-003
 10
1.3703018E+002
 20
4.6949308E+001
 70
0
  0
VERTEX
  5
85e
100
AcDbEntity
  8
5
100
AcDbVertex
100
AcDb2dVertex
 42
2.552944E-002
 10
1.371476E+002
 20
4.6970954E+001
 70
1
  0
VERTEX
  5
85f
100
AcDbEntity
  8
5
100
AcDbVertex
100
AcDb2dVertex
 42
4.7229958E-002
 10
1.3728401E+002
 20
4.701994E+001
 70
0
  0
VERTEX
  5
860
100
AcDbEntity
  8
5
100
AcDbVertex
100
AcDb2dVertex
 42
2.4800808E-002
 10
1.3747382E+002
 20
4.7121876E+001
 70
1
  0
VERTEX
  5
861
100
AcDbEntity
  8
5
100
AcDbVertex
100
AcDb2dVertex
 42
1.3353792E-002
 10
1.3771035E+002
 20
4.7271344E+001
 70
0
  0
SEQEND
  5
862
100
AcDbEntity
  0
ELLIPSE
  5
863
100
AcDbEntity
  8
5
100
AcDbEllipse
  6
CONTINUOUS
 10
1.3438829E+002
 20
4.7779896E+001
 11
3.5671708
 21
-3.7835555
 40
7.0710678E-001
 41
0.0
 42
6.2831853
 62
6
  0
POLYLINE
  5
864
100
AcDbEntity
  8
5
100
AcDb2dPolyline
  6
CONTINUOUS
 62
6
 66
1
 40
0.0
 41
0.0
 70
2
  0
VERTEX
  5
865
100
AcDbEntity
  8
5
100
AcDbVertex
100
AcDb2dVertex
 42
0.0
 10
1.9263927E+002
 20
3.0679559E+001
 70
0
  0
VERTEX
  5
866
100
AcDbEntity
  8
5
100
AcDbVertex
100
AcDb2dVertex
 42
2.2836503E-002
 10
1.9248891E+002
 20
3.0512128E+001
 70
1
  0
VERTEX
  5
867
100
AcDbEntity
  8
5
100
AcDbVertex
100
AcDb2dVertex
 42
2.1683259E-002
 10
1.9235136E+002
 20
3.0328873E+001
 70
0
  0
VERTEX
  5
868
100
AcDbEntity
  8
5
100
AcDbVertex
100
AcDb2dVertex
 42
2.0941655E-002
 10
1.9222692E+002
 20
3.0129049E+001
 70
1
  0
VERTEX
  5
869
100
AcDbEntity
  8
5
100
AcDbVertex
100
AcDb2dVertex
 42
2.1207446E-002
 10
1.9211656E+002
 20
2.9913929E+001
 70
0
  0
VERTEX
  5
86a
100
AcDbEntity
  8
5
100
AcDbVertex
100
AcDb2dVertex
 42
2.0876377E-002
 10
1.9202265E+002
 20
2.9683725E+001
 70
1
  0
VERTEX
  5
86b
100
AcDbEntity
  8
5
100
AcDbVertex
100
AcDb2dVertex
 42
2.0268821E-002
 10
1.9194558E+002
 20
2.9440071E+001
 70
0
  0
VERTEX
  5
86c
100
AcDbEntity
  8
5
100
AcDbVertex
100
AcDb2dVertex
 42
1.9502787E-002
 10
1.9188696E+002
 20
2.9183605E+001
 70
1
  0
VERTEX
  5
86d
100
AcDbEntity
  8
5
100
AcDbVertex
100
AcDb2dVertex
 42
1.883732E-002
 10
1.9184676E+002
 20
2.8916287E+001
 70
0
  0
VERTEX
  5
86e
100
AcDbEntity
  8
5
100
AcDbVertex
100
AcDb2dVertex
 42
1.802483E-002
 10
1.9182635E+002
 20
2.8639295E+001
 70
1
  0
VERTEX
  5
86f
100
AcDbEntity
  8
5
100
AcDbVertex
100
AcDb2dVertex
 42
1.7234554E-002
 10
1.9182516E+002
 20
2.8354771E+001
 70
0
  0
VERTEX
  5
870
100
AcDbEntity
  8
5
100
AcDbVertex
100
AcDb2dVertex
 42
1.6418578E-002
 10
1.9184405E+002
 20
2.80643E+001
 70
1
  0
VERTEX
  5
871
100
AcDbEntity
  8
5
100
AcDbVertex
100
AcDb2dVertex
 42
1.5644715E-002
 10
1.9188192E+002
 20
2.7770036E+001
 70
0
  0
VERTEX
  5
872
100
AcDbEntity
  8
5
100
AcDbVertex
100
AcDb2dVertex
 42
1.4908142E-002
 10
1.919391E+002
 20
2.7473837E+001
 70
1
  0
VERTEX
  5
873
100
AcDbEntity
  8
5
100
AcDbVertex
100
AcDb2dVertex
 42
1.4190461E-002
 10
1.9201407E+002
 20
2.7177689E+001
 70
0
  0
VERTEX
  5
874
100
AcDbEntity
  8
5
100
AcDbVertex
100
AcDb2dVertex
 42
1.3558509E-002
 10
1.9210665E+002
 20
2.6883547E+001
 70
1
  0
VERTEX
  5
875
100
AcDbEntity
  8
5
100
AcDbVertex
100
AcDb2dVertex
 42
1.2922928E-002
 10
1.9221499E+002
 20
2.6593075E+001
 70
0
  0
VERTEX
  5
876
100
AcDbEntity
  8
5
100
AcDbVertex
100
AcDb2dVertex
 42
1.2400378E-002
 10
1.9233848E+002
 20
2.6308161E+001
 70
1
  0
VERTEX
  5
877
100
AcDbEntity
  8
5
100
AcDbVertex
100
AcDb2dVertex
 42
1.184795E-002
 10
1.9247512E+002
 20
2.603004E+001
 70
0
  0
VERTEX
  5
878
100
AcDbEntity
  8
5
100
AcDbVertex
100
AcDb2dVertex
 42
1.1428294E-002
 10
1.9262399E+002
 20
2.5760402E+001
 70
1
  0
VERTEX
  5
879
100
AcDbEntity
  8
5
100
AcDbVertex
100
AcDb2dVertex
 42
1.0959295E-002
 10
1.927831E+002
 20
2.5500003E+001
 70
0
  0
VERTEX
  5
87a
100
AcDbEntity
  8
5
100
AcDbVertex
100
AcDb2dVertex
 42
1.0620136E-002
 10
1.9295133E+002
 20
2.5250245E+001
 70
1
  0
VERTEX
  5
87b
100
AcDbEntity
  8
5
100
AcDbVertex
100
AcDb2dVertex
 42
1.0202527E-002
 10
1.9312684E+002
 20
2.501143E+001
 70
0
  0
VERTEX
  5
87c
100
AcDbEntity
  8
5
100
AcDbVertex
100
AcDb2dVertex
 42
9.9590731E-003
 10
1.933084E+002
 20
2.4784644E+001
 70
1
  0
VERTEX
  5
87d
100
AcDbEntity
  8
5
100
AcDbVertex
100
AcDb2dVertex
 42
9.6600918E-003
 10
1.9349451E+002
 20
2.4569732E+001
 70
0
  0
VERTEX
  5
87e
100
AcDbEntity
  8
5
100
AcDbVertex
100
AcDb2dVertex
 42
9.390413E-003
 10
1.9368405E+002
 20
2.4367448E+001
 70
1
  0
VERTEX
  5
87f
100
AcDbEntity
  8
5
100
AcDbVertex
100
AcDb2dVertex
 42
8.924649E-003
 10
1.9387535E+002
 20
2.417749E+001
 70
0
  0
VERTEX
  5
880
100
AcDbEntity
  8
5
100
AcDbVertex
100
AcDb2dVertex
 42
9.1246951E-003
 10
1.9406802E+002
 20
2.3999734E+001
 70
1
  0
VERTEX
  5
881
100
AcDbEntity
  8
5
100
AcDbVertex
100
AcDb2dVertex
 42
9.2062939E-003
 10
1.9426667E+002
 20
2.3829413E+001
 70
0
  0
VERTEX
  5
882
100
AcDbEntity
  8
5
100
AcDbVertex
100
AcDb2dVertex
 42
9.123548E-003
 10
1.9447652E+002
 20
2.3662659E+001
 70
1
  0
VERTEX
  5
883
100
AcDbEntity
  8
5
100
AcDbVertex
100
AcDb2dVertex
 42
9.727842E-003
 10
1.946973E+002
 20
2.3500204E+001
 70
0
  0
VERTEX
  5
884
100
AcDbEntity
  8
5
100
AcDbVertex
100
AcDb2dVertex
 42
1.015936E-002
 10
1.9492865E+002
 20
2.3344132E+001
 70
1
  0
VERTEX
  5
885
100
AcDbEntity
  8
5
100
AcDbVertex
100
AcDb2dVertex
 42
1.0594661E-002
 10
1.9516967E+002
 20
2.319549E+001
 70
0
  0
VERTEX
  5
886
100
AcDbEntity
  8
5
100
AcDbVertex
100
AcDb2dVertex
 42
1.1003572E-002
 10
1.9542023E+002
 20
2.3055871E+001
 70
1
  0
VERTEX
  5
887
100
AcDbEntity
  8
5
100
AcDbVertex
100
AcDb2dVertex
 42
1.1630402E-002
 10
1.9567913E+002
 20
2.2926366E+001
 70
0
  0
VERTEX
  5
888
100
AcDbEntity
  8
5
100
AcDbVertex
100
AcDb2dVertex
 42
1.2139121E-002
 10
1.9594567E+002
 20
2.2808924E+001
 70
1
  0
VERTEX
  5
889
100
AcDbEntity
  8
5
100
AcDbVertex
100
AcDb2dVertex
 42
1.2739645E-002
 10
1.962183E+002
 20
2.2704413E+001
 70
0
  0
VERTEX
  5
88a
100
AcDbEntity
  8
5
100
AcDbVertex
100
AcDb2dVertex
 42
1.3487494E-002
 10
1.9649589E+002
 20
2.2614767E+001
 70
1
  0
VERTEX
  5
88b
100
AcDbEntity
  8
5
100
AcDbVertex
100
AcDb2dVertex
 42
1.4563724E-002
 10
1.96777E+002
 20
2.2540836E+001
 70
0
  0
VERTEX
  5
88c
100
AcDbEntity
  8
5
100
AcDbVertex
100
AcDb2dVertex
 42
1.4939302E-002
 10
1.9706018E+002
 20
2.2484556E+001
 70
1
  0
VERTEX
  5
88d
100
AcDbEntity
  8
5
100
AcDbVertex
100
AcDb2dVertex
 42
1.4800729E-002
 10
1.9734255E+002
 20
2.2445415E+001
 70
0
  0
VERTEX
  5
88e
100
AcDbEntity
  8
5
100
AcDbVertex
100
AcDb2dVertex
 42
1.7092033E-002
 10
1.9762185E+002
 20
2.242476E+001
 70
1
  0
VERTEX
  5
88f
100
AcDbEntity
  8
5
100
AcDbVertex
100
AcDb2dVertex
 42
2.1447144E-002
 10
1.9790053E+002
 20
2.242542E+001
 70
0
  0
VERTEX
  5
890
100
AcDbEntity
  8
5
100
AcDbVertex
100
AcDb2dVertex
 42
1.7502961E-002
 10
1.9817796E+002
 20
2.2449658E+001
 70
1
  0
VERTEX
  5
891
100
AcDbEntity
  8
5
100
AcDbVertex
100
AcDb2dVertex
 42
6.9855119E-003
 10
1.9843583E+002
 20
2.2484673E+001
 70
0
  0
VERTEX
  5
892
100
AcDbEntity
  8
5
100
AcDbVertex
100
AcDb2dVertex
 42
2.551454E-002
 10
1.986662E+002
 20
2.2527021E+001
 70
1
  0
VERTEX
  5
893
100
AcDbEntity
  8
5
100
AcDbVertex
100
AcDb2dVertex
 42
4.7205512E-002
 10
1.989339E+002
 20
2.2622963E+001
 70
0
  0
VERTEX
  5
894
100
AcDbEntity
  8
5
100
AcDbVertex
100
AcDb2dVertex
 42
2.4788281E-002
 10
1.9930641E+002
 20
2.2822696E+001
 70
1
  0
VERTEX
  5
895
100
AcDbEntity
  8
5
100
AcDbVertex
100
AcDb2dVertex
 42
1.3347061E-002
 10
1.9977064E+002
 20
2.3115597E+001
 70
0
  0
SEQEND
  5
896
100
AcDbEntity
  0
POLYLINE
  5
897
100
AcDbEntity
  8
5
100
AcDb2dPolyline
  6
CONTINUOUS
 62
6
 66
1
 40
0.0
 41
0.0
 70
2
  0
VERTEX
  5
898
100
AcDbEntity
  8
5
100
AcDbVertex
100
AcDb2dVertex
 42
0.0
 10
1.9986644E+002
 20
2.7436008E+001
 70
0
  0
VERTEX
  5
899
100
AcDbEntity
  8
5
100
AcDbVertex
100
AcDb2dVertex
 42
2.1664613E-003
 10
1.9986636E+002
 20
2.7453993E+001
 70
1
  0
VERTEX
  5
89a
100
AcDbEntity
  8
5
100
AcDbVertex
100
AcDb2dVertex
 42
2.1210996E-003
 10
1.9986613E+002
 20
2.7472111E+001
 70
0
  0
VERTEX
  5
89b
100
AcDbEntity
  8
5
100
AcDbVertex
100
AcDb2dVertex
 42
2.1014374E-003
 10
1.9986574E+002
 20
2.7490368E+001
 70
1
  0
VERTEX
  5
89c
100
AcDbEntity
  8
5
100
AcDbVertex
100
AcDb2dVertex
 42
2.1127691E-003
 10
1.998652E+002
 20
2.7508758E+001
 70
0
  0
VERTEX
  5
89d
100
AcDbEntity
  8
5
100
AcDbVertex
100
AcDb2dVertex
 42
2.1115E-003
 10
1.9986449E+002
 20
2.7527284E+001
 70
1
  0
VERTEX
  5
89e
100
AcDbEntity
  8
5
100
AcDbVertex
100
AcDb2dVertex
 42
2.1084241E-003
 10
1.9986362E+002
 20
2.7545942E+001
 70
0
  0
VERTEX
  5
89f
100
AcDbEntity
  8
5
100
AcDbVertex
100
AcDb2dVertex
 42
2.1023456E-003
 10
1.9986258E+002
 20
2.7564735E+001
 70
1
  0
VERTEX
  5
8a0
100
AcDbEntity
  8
5
100
AcDbVertex
100
AcDb2dVertex
 42
2.1025447E-003
 10
1.9986137E+002
 20
2.7583657E+001
 70
0
  0
VERTEX
  5
8a1
100
AcDbEntity
  8
5
100
AcDbVertex
100
AcDb2dVertex
 42
2.0976911E-003
 10
1.9985999E+002
 20
2.7602714E+001
 70
1
  0
VERTEX
  5
8a2
100
AcDbEntity
  8
5
100
AcDbVertex
100
AcDb2dVertex
 42
2.0972737E-003
 10
1.9985845E+002
 20
2.7621898E+001
 70
0
  0
VERTEX
  5
8a3
100
AcDbEntity
  8
5
100
AcDbVertex
100
AcDb2dVertex
 42
2.091426E-003
 10
1.9985672E+002
 20
2.7641215E+001
 70
1
  0
VERTEX
  5
8a4
100
AcDbEntity
  8
5
100
AcDbVertex
100
AcDb2dVertex
 42
2.0895549E-003
 10
1.9985483E+002
 20
2.7660657E+001
 70
0
  0
VERTEX
  5
8a5
100
AcDbEntity
  8
5
100
AcDbVertex
100
AcDb2dVertex
 42
2.0858336E-003
 10
1.9985275E+002
 20
2.7680229E+001
 70
1
  0
VERTEX
  5
8a6
100
AcDbEntity
  8
5
100
AcDbVertex
100
AcDb2dVertex
 42
2.0890213E-003
 10
1.9985049E+002
 20
2.7699927E+001
 70
0
  0
VERTEX
  5
8a7
100
AcDbEntity
  8
5
100
AcDbVertex
100
AcDb2dVertex
 42
2.077832E-003
 10
1.9984805E+002
 20
2.7719754E+001
 70
1
  0
VERTEX
  5
8a8
100
AcDbEntity
  8
5
100
AcDbVertex
100
AcDb2dVertex
 42
2.0631633E-003
 10
1.9984543E+002
 20
2.7739697E+001
 70
0
  0
VERTEX
  5
8a9
100
AcDbEntity
  8
5
100
AcDbVertex
100
AcDb2dVertex
 42
2.077116E-003
 10
1.9984261E+002
 20
2.7759756E+001
 70
1
  0
VERTEX
  5
8aa
100
AcDbEntity
  8
5
100
AcDbVertex
100
AcDb2dVertex
 42
2.1208462E-003
 10
1.9983961E+002
 20
2.7779957E+001
 70
0
  0
VERTEX
  5
8ab
100
AcDbEntity
  8
5
100
AcDbVertex
100
AcDb2dVertex
 42
2.0506727E-003
 10
1.9983641E+002
 20
2.7800313E+001
 70
1
  0
VERTEX
  5
8ac
100
AcDbEntity
  8
5
100
AcDbVertex
100
AcDb2dVertex
 42
1.906295E-003
 10
1.9983304E+002
 20
2.7820698E+001
 70
0
  0
VERTEX
  5
8ad
100
AcDbEntity
  8
5
100
AcDbVertex
100
AcDb2dVertex
 42
2.1115179E-003
 10
1.998295E+002
 20
2.7841075E+001
 70
1
  0
VERTEX
  5
8ae
100
AcDbEntity
  8
5
100
AcDbVertex
100
AcDb2dVertex
 42
2.5306404E-003
 10
1.9982568E+002
 20
2.7861907E+001
 70
0
  0
VERTEX
  5
8af
100
AcDbEntity
  8
5
100
AcDbVertex
100
AcDb2dVertex
 42
1.891735E-003
 10
1.9982154E+002
 20
2.7883362E+001
 70
1
  0
VERTEX
  5
8b0
100
AcDbEntity
  8
5
100
AcDbVertex
100
AcDb2dVertex
 42
6.028896E-004
 10
1.9981754E+002
 20
2.7903572E+001
 70
0
  0
VERTEX
  5
8b1
100
AcDbEntity
  8
5
100
AcDbVertex
100
AcDb2dVertex
 42
2.7056549E-003
 10
1.9981382E+002
 20
2.79219E+001
 70
1
  0
VERTEX
  5
8b2
100
AcDbEntity
  8
5
100
AcDbVertex
100
AcDb2dVertex
 42
4.638478E-003
 10
1.9980858E+002
 20
2.7945678E+001
 70
0
  0
VERTEX
  5
8b3
100
AcDbEntity
  8
5
100
AcDbVertex
100
AcDb2dVertex
 42
2.2220291E-003
 10
1.9979991E+002
 20
2.7982608E+001
 70
1
  0
VERTEX
  5
8b4
100
AcDbEntity
  8
5
100
AcDbVertex
100
AcDb2dVertex
 42
1.1592608E-003
 10
1.9978818E+002
 20
2.8031155E+001
 70
0
  0
SEQEND
  5
8b5
100
AcDbEntity
  0
POLYLINE
  5
8b6
100
AcDbEntity
  8
5
100
AcDb2dPolyline
  6
CONTINUOUS
 62
6
 66
1
 40
0.0
 41
0.0
 70
2
  0
VERTEX
  5
8b7
100
AcDbEntity
  8
5
100
AcDbVertex
100
AcDb2dVertex
 42
0.0
 10
1.9750667E+002
 20
3.0420569E+001
 70
0
  0
VERTEX
  5
8b8
100
AcDbEntity
  8
5
100
AcDbVertex
100
AcDb2dVertex
 42
1.3538059E-002
 10
1.9735271E+002
 20
3.0461686E+001
 70
1
  0
VERTEX
  5
8b9
100
AcDbEntity
  8
5
100
AcDbVertex
100
AcDb2dVertex
 42
1.5353986E-002
 10
1.972037E+002
 20
3.049253E+001
 70
0
  0
VERTEX
  5
8ba
100
AcDbEntity
  8
5
100
AcDbVertex
100
AcDb2dVertex
 42
1.63486E-002
 10
1.9705977E+002
 20
3.0512586E+001
 70
1
  0
VERTEX
  5
8bb
100
AcDbEntity
  8
5
100
AcDbVertex
100
AcDb2dVertex
 42
1.6242024E-002
 10
1.9692123E+002
 20
3.0522896E+001
 70
0
  0
VERTEX
  5
8bc
100
AcDbEntity
  8
5
100
AcDbVertex
100
AcDb2dVertex
 42
1.6362023E-002
 10
1.9678903E+002
 20
3.0523873E+001
 70
1
  0
VERTEX
  5
8bd
100
AcDbEntity
  8
5
100
AcDbVertex
100
AcDb2dVertex
 42
1.6296273E-002
 10
1.9666378E+002
 20
3.0516745E+001
 70
0
  0
VERTEX
  5
8be
100
AcDbEntity
  8
5
100
AcDbVertex
100
AcDb2dVertex
 42
1.7103847E-002
 10
1.9654612E+002
 20
3.0501949E+001
 70
1
  0
VERTEX
  5
8bf
100
AcDbEntity
  8
5
100
AcDbVertex
100
AcDb2dVertex
 42
1.7222045E-002
 10
1.9643357E+002
 20
3.0479933E+001
 70
0
  0
VERTEX
  5
8c0
100
AcDbEntity
  8
5
100
AcDbVertex
100
AcDb2dVertex
 42
1.7684517E-002
 10
1.9632381E+002
 20
3.0450259E+001
 70
1
  0
VERTEX
  5
8c1
100
AcDbEntity
  8
5
100
AcDbVertex
100
AcDb2dVertex
 42
1.9103379E-002
 10
1.9621578E+002
 20
3.0412444E+001
 70
0
  0
VERTEX
  5
8c2
100
AcDbEntity
  8
5
100
AcDbVertex
100
AcDb2dVertex
 42
1.9905494E-002
 10
1.9610919E+002
 20
3.0365266E+001
 70
1
  0
VERTEX
  5
8c3
100
AcDbEntity
  8
5
100
AcDbVertex
100
AcDb2dVertex
 42
2.1212964E-002
 10
1.9600498E+002
 20
3.0308658E+001
 70
0
  0
VERTEX
  5
8c4
100
AcDbEntity
  8
5
100
AcDbVertex
100
AcDb2dVertex
 42
2.2148739E-002
 10
1.9590452E+002
 20
3.0241874E+001
 70
1
  0
VERTEX
  5
8c5
100
AcDbEntity
  8
5
100
AcDbVertex
100
AcDb2dVertex
 42
2.3040794E-002
 10
1.9580867E+002
 20
3.0165034E+001
 70
0
  0
VERTEX
  5
8c6
100
AcDbEntity
  8
5
100
AcDbVertex
100
AcDb2dVertex
 42
2.347573E-002
 10
1.9571862E+002
 20
3.0077487E+001
 70
1
  0
VERTEX
  5
8c7
100
AcDbEntity
  8
5
100
AcDbVertex
100
AcDb2dVertex
 42
2.39854E-002
 10
1.956352E+002
 20
2.9979654E+001
 70
0
  0
VERTEX
  5
8c8
100
AcDbEntity
  8
5
100
AcDbVertex
100
AcDb2dVertex
 42
2.3957801E-002
 10
1.955598E+002
 20
2.9871204E+001
 70
1
  0
VERTEX
  5
8c9
100
AcDbEntity
  8
5
100
AcDbVertex
100
AcDb2dVertex
 42
2.3882191E-002
 10
1.954931E+002
 20
2.9752883E+001
 70
0
  0
VERTEX
  5
8ca
100
AcDbEntity
  8
5
100
AcDbVertex
100
AcDb2dVertex
 42
2.3340312E-002
 10
1.9543645E+002
 20
2.9624735E+001
 70
1
  0
VERTEX
  5
8cb
100
AcDbEntity
  8
5
100
AcDbVertex
100
AcDb2dVertex
 42
2.2787303E-002
 10
1.9539025E+002
 20
2.9487837E+001
 70
0
  0
VERTEX
  5
8cc
100
AcDbEntity
  8
5
100
AcDbVertex
100
AcDb2dVertex
 42
2.1901628E-002
 10
1.953557E+002
 20
2.9342649E+001
 70
1
  0
VERTEX
  5
8cd
100
AcDbEntity
  8
5
100
AcDbVertex
100
AcDb2dVertex
 42
2.1038794E-002
 10
1.9533284E+002
 20
2.9190521E+001
 70
0
  0
VERTEX
  5
8ce
100
AcDbEntity
  8
5
100
AcDbVertex
100
AcDb2dVertex
 42
2.0010079E-002
 10
1.9532257E+002
 20
2.9032309E+001
 70
1
  0
VERTEX
  5
8cf
100
AcDbEntity
  8
5
100
AcDbVertex
100
AcDb2dVertex
 42
1.9032516E-002
 10
1.9532452E+002
 20
2.8869515E+001
 70
0
  0
VERTEX
  5
8d0
100
AcDbEntity
  8
5
100
AcDbVertex
100
AcDb2dVertex
 42
1.8028489E-002
 10
1.953392E+002
 20
2.8703311E+001
 70
1
  0
VERTEX
  5
8d1
100
AcDbEntity
  8
5
100
AcDbVertex
100
AcDb2dVertex
 42
1.7071656E-002
 10
1.9536582E+002
 20
2.85352E+001
 70
0
  0
VERTEX
  5
8d2
100
AcDbEntity
  8
5
100
AcDbVertex
100
AcDb2dVertex
 42
1.6186126E-002
 10
1.954045E+002
 20
2.8366534E+001
 70
1
  0
VERTEX
  5
8d3
100
AcDbEntity
  8
5
100
AcDbVertex
100
AcDb2dVertex
 42
1.5322029E-002
 10
1.9545411E+002
 20
2.8198663E+001
 70
0
  0
VERTEX
  5
8d4
100
AcDbEntity
  8
5
100
AcDbVertex
100
AcDb2dVertex
 42
1.458771E-002
 10
1.9551436E+002
 20
2.8032966E+001
 70
1
  0
VERTEX
  5
8d5
100
AcDbEntity
  8
5
100
AcDbVertex
100
AcDb2dVertex
 42
1.3838554E-002
 10
1.9558393E+002
 20
2.7870515E+001
 70
0
  0
VERTEX
  5
8d6
100
AcDbEntity
  8
5
100
AcDbVertex
100
AcDb2dVertex
 42
1.3255359E-002
 10
1.9566223E+002
 20
2.7712579E+001
 70
1
  0
VERTEX
  5
8d7
100
AcDbEntity
  8
5
100
AcDbVertex
100
AcDb2dVertex
 42
1.2625927E-002
 10
1.9574788E+002
 20
2.7559876E+001
 70
0
  0
VERTEX
  5
8d8
100
AcDbEntity
  8
5
100
AcDbVertex
100
AcDb2dVertex
 42
1.2166018E-002
 10
1.9584009E+002
 20
2.7413468E+001
 70
1
  0
VERTEX
  5
8d9
100
AcDbEntity
  8
5
100
AcDbVertex
100
AcDb2dVertex
 42
1.1618531E-002
 10
1.9593753E+002
 20
2.7273706E+001
 70
0
  0
VERTEX
  5
8da
100
AcDbEntity
  8
5
100
AcDbVertex
100
AcDb2dVertex
 42
1.1291766E-002
 10
1.9603934E+002
 20
2.71414E+001
 70
1
  0
VERTEX
  5
8db
100
AcDbEntity
  8
5
100
AcDbVertex
100
AcDb2dVertex
 42
1.0899574E-002
 10
1.9614439E+002
 20
2.7016552E+001
 70
0
  0
VERTEX
  5
8dc
100
AcDbEntity
  8
5
100
AcDbVertex
100
AcDb2dVertex
 42
1.0561476E-002
 10
1.9625185E+002
 20
2.6899706E+001
 70
1
  0
VERTEX
  5
8dd
100
AcDbEntity
  8
5
100
AcDbVertex
100
AcDb2dVertex
 42
9.9774052E-003
 10
1.9636061E+002
 20
2.6790654E+001
 70
0
  0
VERTEX
  5
8de
100
AcDbEntity
  8
5
100
AcDbVertex
100
AcDb2dVertex
 42
1.0223986E-002
 10
1.9647036E+002
 20
2.6689288E+001
 70
1
  0
VERTEX
  5
8df
100
AcDbEntity
  8
5
100
AcDbVertex
100
AcDb2dVertex
 42
1.0341081E-002
 10
1.9658399E+002
 20
2.6592633E+001
 70
0
  0
VERTEX
  5
8e0
100
AcDbEntity
  8
5
100
AcDbVertex
100
AcDb2dVertex
 42
1.0244718E-002
 10
1.9670478E+002
 20
2.6498312E+001
 70
1
  0
VERTEX
  5
8e1
100
AcDbEntity
  8
5
100
AcDbVertex
100
AcDb2dVertex
 42
1.1010024E-002
 10
1.9683248E+002
 20
2.6406921E+001
 70
0
  0
VERTEX
  5
8e2
100
AcDbEntity
  8
5
100
AcDbVertex
100
AcDb2dVertex
 42
1.1571587E-002
 10
1.9696677E+002
 20
2.6319941E+001
 70
1
  0
VERTEX
  5
8e3
100
AcDbEntity
  8
5
100
AcDbVertex
100
AcDb2dVertex
 42
1.214759E-002
 10
1.9710701E+002
 20
2.6238141E+001
 70
0
  0
VERTEX
  5
8e4
100
AcDbEntity
  8
5
100
AcDbVertex
100
AcDb2dVertex
 42
1.2681452E-002
 10
1.9725299E+002
 20
2.6162668E+001
 70
1
  0
VERTEX
  5
8e5
100
AcDbEntity
  8
5
100
AcDbVertex
100
AcDb2dVertex
 42
1.3483845E-002
 10
1.9740379E+002
 20
2.6094292E+001
 70
0
  0
VERTEX
  5
8e6
100
AcDbEntity
  8
5
100
AcDbVertex
100
AcDb2dVertex
 42
1.4212642E-002
 10
1.9755879E+002
 20
2.6034382E+001
 70
1
  0
VERTEX
  5
8e7
100
AcDbEntity
  8
5
100
AcDbVertex
100
AcDb2dVertex
 42
1.5123985E-002
 10
1.9771684E+002
 20
2.5983553E+001
 70
0
  0
VERTEX
  5
8e8
100
AcDbEntity
  8
5
100
AcDbVertex
100
AcDb2dVertex
 42
1.6005335E-002
 10
1.9787701E+002
 20
2.5943124E+001
 70
1
  0
VERTEX
  5
8e9
100
AcDbEntity
  8
5
100
AcDbVertex
100
AcDb2dVertex
 42
1.7069058E-002
 10
1.9803803E+002
 20
2.5913456E+001
 70
0
  0
VERTEX
  5
8ea
100
AcDbEntity
  8
5
100
AcDbVertex
100
AcDb2dVertex
 42
1.8113805E-002
 10
1.9819864E+002
 20
2.5895723E+001
 70
1
  0
VERTEX
  5
8eb
100
AcDbEntity
  8
5
100
AcDbVertex
100
AcDb2dVertex
 42
1.9267059E-002
 10
1.9835755E+002
 20
2.5889926E+001
 70
0
  0
VERTEX
  5
8ec
100
AcDbEntity
  8
5
100
AcDbVertex
100
AcDb2dVertex
 42
2.0422648E-002
 10
1.9851331E+002
 20
2.5896949E+001
 70
1
  0
VERTEX
  5
8ed
100
AcDbEntity
  8
5
100
AcDbVertex
100
AcDb2dVertex
 42
2.1596279E-002
 10
1.9866474E+002
 20
2.5916393E+001
 70
0
  0
VERTEX
  5
8ee
100
AcDbEntity
  8
5
100
AcDbVertex
100
AcDb2dVertex
 42
2.2674E-002
 10
1.9881035E+002
 20
2.5948756E+001
 70
1
  0
VERTEX
  5
8ef
100
AcDbEntity
  8
5
100
AcDbVertex
100
AcDb2dVertex
 42
2.3525327E-002
 10
1.989492E+002
 20
2.5993174E+001
 70
0
  0
VERTEX
  5
8f0
100
AcDbEntity
  8
5
100
AcDbVertex
100
AcDb2dVertex
 42
2.448702E-002
 10
1.9907989E+002
 20
2.6049691E+001
 70
1
  0
VERTEX
  5
8f1
100
AcDbEntity
  8
5
100
AcDbVertex
100
AcDb2dVertex
 42
2.5309107E-002
 10
1.9920188E+002
 20
2.6117319E+001
 70
0
  0
VERTEX
  5
8f2
100
AcDbEntity
  8
5
100
AcDbVertex
100
AcDb2dVertex
 42
2.5183476E-002
 10
1.9931399E+002
 20
2.6195766E+001
 70
1
  0
VERTEX
  5
8f3
100
AcDbEntity
  8
5
100
AcDbVertex
100
AcDb2dVertex
 42
2.3899147E-002
 10
1.9941605E+002
 20
2.6282973E+001
 70
0
  0
VERTEX
  5
8f4
100
AcDbEntity
  8
5
100
AcDbVertex
100
AcDb2dVertex
 42
2.5252404E-002
 10
1.9950719E+002
 20
2.637803E+001
 70
1
  0
VERTEX
  5
8f5
100
AcDbEntity
  8
5
100
AcDbVertex
100
AcDb2dVertex
 42
2.793454E-002
 10
1.9958784E+002
 20
2.6482161E+001
 70
0
  0
VERTEX
  5
8f6
100
AcDbEntity
  8
5
100
AcDbVertex
100
AcDb2dVertex
 42
2.1967886E-002
 10
1.9965757E+002
 20
2.6595402E+001
 70
1
  0
VERTEX
  5
8f7
100
AcDbEntity
  8
5
100
AcDbVertex
100
AcDb2dVertex
 42
1.0550283E-002
 10
1.9971629E+002
 20
2.6705804E+001
 70
0
  0
VERTEX
  5
8f8
100
AcDbEntity
  8
5
100
AcDbVertex
100
AcDb2dVertex
 42
2.6251694E-002
 10
1.9976357E+002
 20
2.6808758E+001
 70
1
  0
VERTEX
  5
8f9
100
AcDbEntity
  8
5
100
AcDbVertex
100
AcDb2dVertex
 42
4.0194192E-002
 10
1.9980299E+002
 20
2.6944736E+001
 70
0
  0
VERTEX
  5
8fa
100
AcDbEntity
  8
5
100
AcDbVertex
100
AcDb2dVertex
 42
1.9878118E-002
 10
1.9983735E+002
 20
2.7156703E+001
 70
1
  0
VERTEX
  5
8fb
100
AcDbEntity
  8
5
100
AcDbVertex
100
AcDb2dVertex
 42
1.0866096E-002
 10
1.9986644E+002
 20
2.7436008E+001
 70
0
  0
SEQEND
  5
8fc
100
AcDbEntity
  0
POLYLINE
  5
8fd
100
AcDbEntity
  8
5
100
AcDb2dPolyline
  6
CONTINUOUS
 62
1
 66
1
 40
0.0
 41
0.0
 70
2
  0
VERTEX
  5
8fe
100
AcDbEntity
  8
5
100
AcDbVertex
100
AcDb2dVertex
 42
0.0
 10
1.9581552E+002
 20
3.0171037E+001
 70
0
  0
VERTEX
  5
8ff
100
AcDbEntity
  8
5
100
AcDbVertex
100
AcDb2dVertex
 42
2.2844392E-002
 10
1.9573882E+002
 20
3.0085756E+001
 70
1
  0
VERTEX
  5
900
100
AcDbEntity
  8
5
100
AcDbVertex
100
AcDb2dVertex
 42
2.1690664E-002
 10
1.9566864E+002
 20
2.9992405E+001
 70
0
  0
VERTEX
  5
901
100
AcDbEntity
  8
5
100
AcDbVertex
100
AcDb2dVertex
 42
2.0949625E-002
 10
1.9560515E+002
 20
2.9890601E+001
 70
1
  0
VERTEX
  5
902
100
AcDbEntity
  8
5
100
AcDbVertex
100
AcDb2dVertex
 42
2.121748E-002
 10
1.9554883E+002
 20
2.9780995E+001
 70
0
  0
VERTEX
  5
903
100
AcDbEntity
  8
5
100
AcDbVertex
100
AcDb2dVertex
 42
2.0887413E-002
 10
1.9550089E+002
 20
2.9663693E+001
 70
1
  0
VERTEX
  5
904
100
AcDbEntity
  8
5
100
AcDbVertex
100
AcDb2dVertex
 42
2.0280347E-002
 10
1.9546154E+002
 20
2.9539527E+001
 70
0
  0
VERTEX
  5
905
100
AcDbEntity
  8
5
100
AcDbVertex
100
AcDb2dVertex
 42
1.9514319E-002
 10
1.9543159E+002
 20
2.9408823E+001
 70
1
  0
VERTEX
  5
906
100
AcDbEntity
  8
5
100
AcDbVertex
100
AcDb2dVertex
 42
1.8848882E-002
 10
1.9541103E+002
 20
2.927258E+001
 70
0
  0
VERTEX
  5
907
100
AcDbEntity
  8
5
100
AcDbVertex
100
AcDb2dVertex
 42
1.8035944E-002
 10
1.9540057E+002
 20
2.9131397E+001
 70
1
  0
VERTEX
  5
908
100
AcDbEntity
  8
5
100
AcDbVertex
100
AcDb2dVertex
 42
1.7245211E-002
 10
1.953999E+002
 20
2.8986368E+001
 70
0
  0
VERTEX
  5
909
100
AcDbEntity
  8
5
100
AcDbVertex
100
AcDb2dVertex
 42
1.6428525E-002
 10
1.9540948E+002
 20
2.8838301E+001
 70
1
  0
VERTEX
  5
90a
100
AcDbEntity
  8
5
100
AcDbVertex
100
AcDb2dVertex
 42
1.5654021E-002
 10
1.9542873E+002
 20
2.8688295E+001
 70
0
  0
VERTEX
  5
90b
100
AcDbEntity
  8
5
100
AcDbVertex
100
AcDb2dVertex
 42
1.4916703E-002
 10
1.9545784E+002
 20
2.8537297E+001
 70
1
  0
VERTEX
  5
90c
100
AcDbEntity
  8
5
100
AcDbVertex
100
AcDb2dVertex
 42
1.4198352E-002
 10
1.9549602E+002
 20
2.838632E+001
 70
0
  0
VERTEX
  5
90d
100
AcDbEntity
  8
5
100
AcDbVertex
100
AcDb2dVertex
 42
1.3565733E-002
 10
1.9554319E+002
 20
2.8236363E+001
 70
1
  0
VERTEX
  5
90e
100
AcDbEntity
  8
5
100
AcDbVertex
100
AcDb2dVertex
 42
1.2929543E-002
 10
1.9559839E+002
 20
2.8088273E+001
 70
0
  0
VERTEX
  5
90f
100
AcDbEntity
  8
5
100
AcDbVertex
100
AcDb2dVertex
 42
1.2406449E-002
 10
1.9566132E+002
 20
2.7943016E+001
 70
1
  0
VERTEX
  5
910
100
AcDbEntity
  8
5
100
AcDbVertex
100
AcDb2dVertex
 42
1.1853506E-002
 10
1.9573096E+002
 20
2.780122E+001
 70
0
  0
VERTEX
  5
911
100
AcDbEntity
  8
5
100
AcDbVertex
100
AcDb2dVertex
 42
1.1433429E-002
 10
1.9580684E+002
 20
2.7663749E+001
 70
1
  0
VERTEX
  5
912
100
AcDbEntity
  8
5
100
AcDbVertex
100
AcDb2dVertex
 42
1.0964005E-002
 10
1.9588794E+002
 20
2.7530988E+001
 70
0
  0
VERTEX
  5
913
100
AcDbEntity
  8
5
100
AcDbVertex
100
AcDb2dVertex
 42
1.0624541E-002
 10
1.959737E+002
 20
2.7403652E+001
 70
1
  0
VERTEX
  5
914
100
AcDbEntity
  8
5
100
AcDbVertex
100
AcDb2dVertex
 42
1.0206596E-002
 10
1.9606316E+002
 20
2.7281897E+001
 70
0
  0
VERTEX
  5
915
100
AcDbEntity
  8
5
100
AcDbVertex
100
AcDb2dVertex
 42
9.962911E-003
 10
1.9615572E+002
 20
2.7166276E+001
 70
1
  0
VERTEX
  5
916
100
AcDbEntity
  8
5
100
AcDbVertex
100
AcDb2dVertex
 42
9.66366E-003
 10
1.962506E+002
 20
2.7056711E+001
 70
0
  0
VERTEX
  5
917
100
AcDbEntity
  8
5
100
AcDbVertex
100
AcDb2dVertex
 42
9.3938372E-003
 10
1.9634722E+002
 20
2.6953585E+001
 70
1
  0
VERTEX
  5
918
100
AcDbEntity
  8
5
100
AcDbVertex
100
AcDb2dVertex
 42
8.9277656E-003
 10
1.9644474E+002
 20
2.6856745E+001
 70
0
  0
VERTEX
  5
919
100
AcDbEntity
  8
5
100
AcDbVertex
100
AcDb2dVertex
 42
9.1279474E-003
 10
1.9654297E+002
 20
2.6766126E+001
 70
1
  0
VERTEX
  5
91a
100
AcDbEntity
  8
5
100
AcDbVertex
100
AcDb2dVertex
 42
9.2097422E-003
 10
1.9664424E+002
 20
2.66793E+001
 70
0
  0
VERTEX
  5
91b
100
AcDbEntity
  8
5
100
AcDbVertex
100
AcDb2dVertex
 42
9.1269768E-003
 10
1.9675123E+002
 20
2.6594292E+001
 70
1
  0
VERTEX
  5
91c
100
AcDbEntity
  8
5
100
AcDbVertex
100
AcDb2dVertex
 42
9.7317424E-003
 10
1.9686379E+002
 20
2.6511477E+001
 70
0
  0
VERTEX
  5
91d
100
AcDbEntity
  8
5
100
AcDbVertex
100
AcDb2dVertex
 42
1.0163656E-002
 10
1.9698174E+002
 20
2.6431918E+001
 70
1
  0
VERTEX
  5
91e
100
AcDbEntity
  8
5
100
AcDbVertex
100
AcDb2dVertex
 42
1.0599321E-002
 10
1.9710461E+002
 20
2.635615E+001
 70
0
  0
VERTEX
  5
91f
100
AcDbEntity
  8
5
100
AcDbVertex
100
AcDb2dVertex
 42
1.1008593E-002
 10
1.9723236E+002
 20
2.6284984E+001
 70
1
  0
VERTEX
  5
920
100
AcDbEntity
  8
5
100
AcDbVertex
100
AcDb2dVertex
 42
1.1635983E-002
 10
1.9736436E+002
 20
2.6218979E+001
 70
0
  0
VERTEX
  5
921
100
AcDbEntity
  8
5
100
AcDbVertex
100
AcDb2dVertex
 42
1.2145232E-002
 10
1.9750025E+002
 20
2.6159127E+001
 70
1
  0
VERTEX
  5
922
100
AcDbEntity
  8
5
100
AcDbVertex
100
AcDb2dVertex
 42
1.2746379E-002
 10
1.9763924E+002
 20
2.6105872E+001
 70
0
  0
VERTEX
  5
923
100
AcDbEntity
  8
5
100
AcDbVertex
100
AcDb2dVertex
 42
1.3494909E-002
 10
1.9778076E+002
 20
2.6060201E+001
 70
1
  0
VERTEX
  5
924
100
AcDbEntity
  8
5
100
AcDbVertex
100
AcDb2dVertex
 42
1.4571993E-002
 10
1.9792408E+002
 20
2.6022546E+001
 70
0
  0
VERTEX
  5
925
100
AcDbEntity
  8
5
100
AcDbVertex
100
AcDb2dVertex
 42
1.4948246E-002
 10
1.9806844E+002
 20
2.5993895E+001
 70
1
  0
VERTEX
  5
926
100
AcDbEntity
  8
5
100
AcDbVertex
100
AcDb2dVertex
 42
1.4810077E-002
 10
1.9821239E+002
 20
2.5973986E+001
 70
0
  0
VERTEX
  5
927
100
AcDbEntity
  8
5
100
AcDbVertex
100
AcDb2dVertex
 42
1.7102723E-002
 10
1.9835477E+002
 20
2.5963507E+001
 70
1
  0
VERTEX
  5
928
100
AcDbEntity
  8
5
100
AcDbVertex
100
AcDb2dVertex
 42
2.1460117E-002
 10
1.9849683E+002
 20
2.5963899E+001
 70
0
  0
VERTEX
  5
929
100
AcDbEntity
  8
5
100
AcDbVertex
100
AcDb2dVertex
 42
1.7514483E-002
 10
1.9863824E+002
 20
2.5976317E+001
 70
1
  0
VERTEX
  5
92a
100
AcDbEntity
  8
5
100
AcDbVertex
100
AcDb2dVertex
 42
6.992011E-003
 10
1.9876967E+002
 20
2.5994229E+001
 70
0
  0
VERTEX
  5
92b
100
AcDbEntity
  8
5
100
AcDbVertex
100
AcDb2dVertex
 42
2.552944E-002
 10
1.9888709E+002
 20
2.6015875E+001
 70
1
  0
VERTEX
  5
92c
100
AcDbEntity
  8
5
100
AcDbVertex
100
AcDb2dVertex
 42
4.7229958E-002
 10
1.9902351E+002
 20
2.6064861E+001
 70
0
  0
VERTEX
  5
92d
100
AcDbEntity
  8
5
100
AcDbVertex
100
AcDb2dVertex
 42
2.4800808E-002
 10
1.9921331E+002
 20
2.6166798E+001
 70
1
  0
VERTEX
  5
92e
100
AcDbEntity
  8
5
100
AcDbVertex
100
AcDb2dVertex
 42
1.3353792E-002
 10
1.9944984E+002
 20
2.6316265E+001
 70
0
  0
SEQEND
  5
92f
100
AcDbEntity
  0
ELLIPSE
  5
930
100
AcDbEntity
  8
5
100
AcDbEllipse
  6
CONTINUOUS
 10
1.9612778E+002
 20
2.6824818E+001
 11
3.5671708
 21
-3.7835555
 40
7.0710678E-001
 41
0.0
 42
6.2831853
 62
6
  0
POLYLINE
  5
931
100
AcDbEntity
  8
5
100
AcDb2dPolyline
  6
CONTINUOUS
 62
6
 66
1
 40
0.0
 41
0.0
 70
2
  0
VERTEX
  5
932
100
AcDbEntity
  8
5
100
AcDbVertex
100
AcDb2dVertex
 42
0.0
 10
2.2265152E+002
 20
1.4308405E+001
 70
0
  0
VERTEX
  5
933
100
AcDbEntity
  8
5
100
AcDbVertex
100
AcDb2dVertex
 42
2.2836503E-002
 10
2.2250116E+002
 20
1.4140973E+001
 70
1
  0
VERTEX
  5
934
100
AcDbEntity
  8
5
100
AcDbVertex
100
AcDb2dVertex
 42
2.1683259E-002
 10
2.2236361E+002
 20
1.3957719E+001
 70
0
  0
VERTEX
  5
935
100
AcDbEntity
  8
5
100
AcDbVertex
100
AcDb2dVertex
 42
2.0941655E-002
 10
2.2223917E+002
 20
1.3757894E+001
 70
1
  0
VERTEX
  5
936
100
AcDbEntity
  8
5
100
AcDbVertex
100
AcDb2dVertex
 42
2.1207446E-002
 10
2.2212882E+002
 20
1.3542774E+001
 70
0
  0
VERTEX
  5
937
100
AcDbEntity
  8
5
100
AcDbVertex
100
AcDb2dVertex
 42
2.0876377E-002
 10
2.220349E+002
 20
1.331257E+001
 70
1
  0
VERTEX
  5
938
100
AcDbEntity
  8
5
100
AcDbVertex
100
AcDb2dVertex
 42
2.0268821E-002
 10
2.2195783E+002
 20
1.3068917E+001
 70
0
  0
VERTEX
  5
939
100
AcDbEntity
  8
5
100
AcDbVertex
100
AcDb2dVertex
 42
1.9502787E-002
 10
2.2189921E+002
 20
1.281245E+001
 70
1
  0
VERTEX
  5
93a
100
AcDbEntity
  8
5
100
AcDbVertex
100
AcDb2dVertex
 42
1.883732E-002
 10
2.2185901E+002
 20
1.2545132E+001
 70
0
  0
VERTEX
  5
93b
100
AcDbEntity
  8
5
100
AcDbVertex
100
AcDb2dVertex
 42
1.802483E-002
 10
2.2183861E+002
 20
1.226814E+001
 70
1
  0
VERTEX
  5
93c
100
AcDbEntity
  8
5
100
AcDbVertex
100
AcDb2dVertex
 42
1.7234554E-002
 10
2.2183742E+002
 20
1.1983616E+001
 70
0
  0
VERTEX
  5
93d
100
AcDbEntity
  8
5
100
AcDbVertex
100
AcDb2dVertex
 42
1.6418578E-002
 10
2.218563E+002
 20
1.1693145E+001
 70
1
  0
VERTEX
  5
93e
100
AcDbEntity
  8
5
100
AcDbVertex
100
AcDb2dVertex
 42
1.5644715E-002
 10
2.2189417E+002
 20
1.1398881E+001
 70
0
  0
VERTEX
  5
93f
100
AcDbEntity
  8
5
100
AcDbVertex
100
AcDb2dVertex
 42
1.4908142E-002
 10
2.2195135E+002
 20
1.1102682E+001
 70
1
  0
VERTEX
  5
940
100
AcDbEntity
  8
5
100
AcDbVertex
100
AcDb2dVertex
 42
1.4190461E-002
 10
2.2202633E+002
 20
1.0806534E+001
 70
0
  0
VERTEX
  5
941
100
AcDbEntity
  8
5
100
AcDbVertex
100
AcDb2dVertex
 42
1.3558509E-002
 10
2.221189E+002
 20
1.0512392E+001
 70
1
  0
VERTEX
  5
942
100
AcDbEntity
  8
5
100
AcDbVertex
100
AcDb2dVertex
 42
1.2922928E-002
 10
2.2222724E+002
 20
1.022192E+001
 70
0
  0
VERTEX
  5
943
100
AcDbEntity
  8
5
100
AcDbVertex
100
AcDb2dVertex
 42
1.2400378E-002
 10
2.2235073E+002
 20
9.9370063
 70
1
  0
VERTEX
  5
944
100
AcDbEntity
  8
5
100
AcDbVertex
100
AcDb2dVertex
 42
1.184795E-002
 10
2.2248737E+002
 20
9.6588854
 70
0
  0
VERTEX
  5
945
100
AcDbEntity
  8
5
100
AcDbVertex
100
AcDb2dVertex
 42
1.1428294E-002
 10
2.2263624E+002
 20
9.3892476
 70
1
  0
VERTEX
  5
946
100
AcDbEntity
  8
5
100
AcDbVertex
100
AcDb2dVertex
 42
1.0959295E-002
 10
2.2279535E+002
 20
9.1288477
 70
0
  0
VERTEX
  5
947
100
AcDbEntity
  8
5
100
AcDbVertex
100
AcDb2dVertex
 42
1.0620136E-002
 10
2.2296359E+002
 20
8.8790897
 70
1
  0
VERTEX
  5
948
100
AcDbEntity
  8
5
100
AcDbVertex
100
AcDb2dVertex
 42
1.0202527E-002
 10
2.2313909E+002
 20
8.6402747
 70
0
  0
VERTEX
  5
949
100
AcDbEntity
  8
5
100
AcDbVertex
100
AcDb2dVertex
 42
9.9590731E-003
 10
2.2332065E+002
 20
8.4134889
 70
1
  0
VERTEX
  5
94a
100
AcDbEntity
  8
5
100
AcDbVertex
100
AcDb2dVertex
 42
9.6600918E-003
 10
2.2350677E+002
 20
8.198577
 70
0
  0
VERTEX
  5
94b
100
AcDbEntity
  8
5
100
AcDbVertex
100
AcDb2dVertex
 42
9.390413E-003
 10
2.236963E+002
 20
7.9962929
 70
1
  0
VERTEX
  5
94c
100
AcDbEntity
  8
5
100
AcDbVertex
100
AcDb2dVertex
 42
8.924649E-003
 10
2.238876E+002
 20
7.8063354
 70
0
  0
VERTEX
  5
94d
100
AcDbEntity
  8
5
100
AcDbVertex
100
AcDb2dVertex
 42
9.1246951E-003
 10
2.2408027E+002
 20
7.6285789
 70
1
  0
VERTEX
  5
94e
100
AcDbEntity
  8
5
100
AcDbVertex
100
AcDb2dVertex
 42
9.2062939E-003
 10
2.2427892E+002
 20
7.4582584
 70
0
  0
VERTEX
  5
94f
100
AcDbEntity
  8
5
100
AcDbVertex
100
AcDb2dVertex
 42
9.123548E-003
 10
2.2448878E+002
 20
7.2915044
 70
1
  0
VERTEX
  5
950
100
AcDbEntity
  8
5
100
AcDbVertex
100
AcDb2dVertex
 42
9.727842E-003
 10
2.2470956E+002
 20
7.1290494
 70
0
  0
VERTEX
  5
951
100
AcDbEntity
  8
5
100
AcDbVertex
100
AcDb2dVertex
 42
1.015936E-002
 10
2.249409E+002
 20
6.9729772
 70
1
  0
VERTEX
  5
952
100
AcDbEntity
  8
5
100
AcDbVertex
100
AcDb2dVertex
 42
1.0594661E-002
 10
2.2518192E+002
 20
6.8243352
 70
0
  0
VERTEX
  5
953
100
AcDbEntity
  8
5
100
AcDbVertex
100
AcDb2dVertex
 42
1.1003572E-002
 10
2.2543249E+002
 20
6.6847164
 70
1
  0
VERTEX
  5
954
100
AcDbEntity
  8
5
100
AcDbVertex
100
AcDb2dVertex
 42
1.1630402E-002
 10
2.2569138E+002
 20
6.5552108
 70
0
  0
VERTEX
  5
955
100
AcDbEntity
  8
5
100
AcDbVertex
100
AcDb2dVertex
 42
1.2139121E-002
 10
2.2595793E+002
 20
6.437769
 70
1
  0
VERTEX
  5
956
100
AcDbEntity
  8
5
100
AcDbVertex
100
AcDb2dVertex
 42
1.2739645E-002
 10
2.2623055E+002
 20
6.333258
 70
0
  0
VERTEX
  5
957
100
AcDbEntity
  8
5
100
AcDbVertex
100
AcDb2dVertex
 42
1.3487494E-002
 10
2.2650814E+002
 20
6.2436125
 70
1
  0
VERTEX
  5
958
100
AcDbEntity
  8
5
100
AcDbVertex
100
AcDb2dVertex
 42
1.4563724E-002
 10
2.2678925E+002
 20
6.169681
 70
0
  0
VERTEX
  5
959
100
AcDbEntity
  8
5
100
AcDbVertex
100
AcDb2dVertex
 42
1.4939302E-002
 10
2.2707244E+002
 20
6.1134009
 70
1
  0
VERTEX
  5
95a
100
AcDbEntity
  8
5
100
AcDbVertex
100
AcDb2dVertex
 42
1.4800729E-002
 10
2.273548E+002
 20
6.0742603
 70
0
  0
VERTEX
  5
95b
100
AcDbEntity
  8
5
100
AcDbVertex
100
AcDb2dVertex
 42
1.7092033E-002
 10
2.276341E+002
 20
6.0536056
 70
1
  0
VERTEX
  5
95c
100
AcDbEntity
  8
5
100
AcDbVertex
100
AcDb2dVertex
 42
2.1447144E-002
 10
2.2791279E+002
 20
6.0542653
 70
0
  0
VERTEX
  5
95d
100
AcDbEntity
  8
5
100
AcDbVertex
100
AcDb2dVertex
 42
1.7502961E-002
 10
2.2819022E+002
 20
6.0785033
 70
1
  0
VERTEX
  5
95e
100
AcDbEntity
  8
5
100
AcDbVertex
100
AcDb2dVertex
 42
6.9855119E-003
 10
2.2844808E+002
 20
6.1135185
 70
0
  0
VERTEX
  5
95f
100
AcDbEntity
  8
5
100
AcDbVertex
100
AcDb2dVertex
 42
2.551454E-002
 10
2.2867846E+002
 20
6.1558661
 70
1
  0
VERTEX
  5
960
100
AcDbEntity
  8
5
100
AcDbVertex
100
AcDb2dVertex
 42
4.7205512E-002
 10
2.2894615E+002
 20
6.2518085
 70
0
  0
VERTEX
  5
961
100
AcDbEntity
  8
5
100
AcDbVertex
100
AcDb2dVertex
 42
2.4788281E-002
 10
2.2931866E+002
 20
6.451541
 70
1
  0
VERTEX
  5
962
100
AcDbEntity
  8
5
100
AcDbVertex
100
AcDb2dVertex
 42
1.3347061E-002
 10
2.2978289E+002
 20
6.7444425
 70
0
  0
SEQEND
  5
963
100
AcDbEntity
  0
POLYLINE
  5
964
100
AcDbEntity
  8
5
100
AcDb2dPolyline
  6
CONTINUOUS
 62
6
 66
1
 40
0.0
 41
0.0
 70
2
  0
VERTEX
  5
965
100
AcDbEntity
  8
5
100
AcDbVertex
100
AcDb2dVertex
 42
0.0
 10
2.2987872E+002
 20
1.1064861E+001
 70
0
  0
VERTEX
  5
966
100
AcDbEntity
  8
5
100
AcDbVertex
100
AcDb2dVertex
 42
2.1656268E-003
 10
2.2987864E+002
 20
1.1082846E+001
 70
1
  0
VERTEX
  5
967
100
AcDbEntity
  8
5
100
AcDbVertex
100
AcDb2dVertex
 42
2.120275E-003
 10
2.2987841E+002
 20
1.1100964E+001
 70
0
  0
VERTEX
  5
968
100
AcDbEntity
  8
5
100
AcDbVertex
100
AcDb2dVertex
 42
2.100613E-003
 10
2.2987802E+002
 20
1.1119221E+001
 70
1
  0
VERTEX
  5
969
100
AcDbEntity
  8
5
100
AcDbVertex
100
AcDb2dVertex
 42
2.1119331E-003
 10
2.2987747E+002
 20
1.1137609E+001
 70
0
  0
VERTEX
  5
96a
100
AcDbEntity
  8
5
100
AcDbVertex
100
AcDb2dVertex
 42
2.1106574E-003
 10
2.2987676E+002
 20
1.1156135E+001
 70
1
  0
VERTEX
  5
96b
100
AcDbEntity
  8
5
100
AcDbVertex
100
AcDb2dVertex
 42
2.1075763E-003
 10
2.2987589E+002
 20
1.1174792E+001
 70
0
  0
VERTEX
  5
96c
100
AcDbEntity
  8
5
100
AcDbVertex
100
AcDb2dVertex
 42
2.1014937E-003
 10
2.2987485E+002
 20
1.1193585E+001
 70
1
  0
VERTEX
  5
96d
100
AcDbEntity
  8
5
100
AcDbVertex
100
AcDb2dVertex
 42
2.1016868E-003
 10
2.2987364E+002
 20
1.1212507E+001
 70
0
  0
VERTEX
  5
96e
100
AcDbEntity
  8
5
100
AcDbVertex
100
AcDb2dVertex
 42
2.0968291E-003
 10
2.2987226E+002
 20
1.1231563E+001
 70
1
  0
VERTEX
  5
96f
100
AcDbEntity
  8
5
100
AcDbVertex
100
AcDb2dVertex
 42
2.0964063E-003
 10
2.2987071E+002
 20
1.1250747E+001
 70
0
  0
VERTEX
  5
970
100
AcDbEntity
  8
5
100
AcDbVertex
100
AcDb2dVertex
 42
2.0905557E-003
 10
2.2986899E+002
 20
1.1270064E+001
 70
1
  0
VERTEX
  5
971
100
AcDbEntity
  8
5
100
AcDbVertex
100
AcDb2dVertex
 42
2.0886803E-003
 10
2.2986709E+002
 20
1.1289506E+001
 70
0
  0
VERTEX
  5
972
100
AcDbEntity
  8
5
100
AcDbVertex
100
AcDb2dVertex
 42
2.0849558E-003
 10
2.2986501E+002
 20
1.1309077E+001
 70
1
  0
VERTEX
  5
973
100
AcDbEntity
  8
5
100
AcDbVertex
100
AcDb2dVertex
 42
2.0881377E-003
 10
2.2986275E+002
 20
1.1328774E+001
 70
0
  0
VERTEX
  5
974
100
AcDbEntity
  8
5
100
AcDbVertex
100
AcDb2dVertex
 42
2.0769487E-003
 10
2.2986031E+002
 20
1.1348601E+001
 70
1
  0
VERTEX
  5
975
100
AcDbEntity
  8
5
100
AcDbVertex
100
AcDb2dVertex
 42
2.0622823E-003
 10
2.2985769E+002
 20
1.1368544E+001
 70
0
  0
VERTEX
  5
976
100
AcDbEntity
  8
5
100
AcDbVertex
100
AcDb2dVertex
 42
2.0762251E-003
 10
2.2985487E+002
 20
1.1388603E+001
 70
1
  0
VERTEX
  5
977
100
AcDbEntity
  8
5
100
AcDbVertex
100
AcDb2dVertex
 42
2.119933E-003
 10
2.2985187E+002
 20
1.1408804E+001
 70
0
  0
VERTEX
  5
978
100
AcDbEntity
  8
5
100
AcDbVertex
100
AcDb2dVertex
 42
2.0497863E-003
 10
2.2984867E+002
 20
1.142916E+001
 70
1
  0
VERTEX
  5
979
100
AcDbEntity
  8
5
100
AcDbVertex
100
AcDb2dVertex
 42
1.9054686E-003
 10
2.2984529E+002
 20
1.1449544E+001
 70
0
  0
VERTEX
  5
97a
100
AcDbEntity
  8
5
100
AcDbVertex
100
AcDb2dVertex
 42
2.1105997E-003
 10
2.2984176E+002
 20
1.1469921E+001
 70
1
  0
VERTEX
  5
97b
100
AcDbEntity
  8
5
100
AcDbVertex
100
AcDb2dVertex
 42
2.5295367E-003
 10
2.2983794E+002
 20
1.1490753E+001
 70
0
  0
VERTEX
  5
97c
100
AcDbEntity
  8
5
100
AcDbVertex
100
AcDb2dVertex
 42
1.8909073E-003
 10
2.298338E+002
 20
1.1512208E+001
 70
1
  0
VERTEX
  5
97d
100
AcDbEntity
  8
5
100
AcDbVertex
100
AcDb2dVertex
 42
6.026254E-004
 10
2.2982979E+002
 20
1.1532417E+001
 70
0
  0
VERTEX
  5
97e
100
AcDbEntity
  8
5
100
AcDbVertex
100
AcDb2dVertex
 42
2.7044683E-003
 10
2.2982607E+002
 20
1.1550745E+001
 70
1
  0
VERTEX
  5
97f
100
AcDbEntity
  8
5
100
AcDbVertex
100
AcDb2dVertex
 42
4.6364371E-003
 10
2.2982083E+002
 20
1.1574523E+001
 70
0
  0
VERTEX
  5
980
100
AcDbEntity
  8
5
100
AcDbVertex
100
AcDb2dVertex
 42
2.2210494E-003
 10
2.2981216E+002
 20
1.1611453E+001
 70
1
  0
VERTEX
  5
981
100
AcDbEntity
  8
5
100
AcDbVertex
100
AcDb2dVertex
 42
1.1587492E-003
 10
2.2980044E+002
 20
1.166E+001
 70
0
  0
SEQEND
  5
982
100
AcDbEntity
  0
POLYLINE
  5
983
100
AcDbEntity
  8
5
100
AcDb2dPolyline
  6
CONTINUOUS
 62
6
 66
1
 40
0.0
 41
0.0
 70
2
  0
VERTEX
  5
984
100
AcDbEntity
  8
5
100
AcDbVertex
100
AcDb2dVertex
 42
0.0
 10
2.2751896E+002
 20
1.4049422E+001
 70
0
  0
VERTEX
  5
985
100
AcDbEntity
  8
5
100
AcDbVertex
100
AcDb2dVertex
 42
1.3536791E-002
 10
2.2736499E+002
 20
1.4090537E+001
 70
1
  0
VERTEX
  5
986
100
AcDbEntity
  8
5
100
AcDbVertex
100
AcDb2dVertex
 42
1.5352655E-002
 10
2.2721597E+002
 20
1.412138E+001
 70
0
  0
VERTEX
  5
987
100
AcDbEntity
  8
5
100
AcDbVertex
100
AcDb2dVertex
 42
1.6347351E-002
 10
2.2707203E+002
 20
1.4141434E+001
 70
1
  0
VERTEX
  5
988
100
AcDbEntity
  8
5
100
AcDbVertex
100
AcDb2dVertex
 42
1.6240974E-002
 10
2.2693349E+002
 20
1.4151743E+001
 70
0
  0
VERTEX
  5
989
100
AcDbEntity
  8
5
100
AcDbVertex
100
AcDb2dVertex
 42
1.636115E-002
 10
2.2680129E+002
 20
1.4152719E+001
 70
1
  0
VERTEX
  5
98a
100
AcDbEntity
  8
5
100
AcDbVertex
100
AcDb2dVertex
 42
1.6295582E-002
 10
2.2667603E+002
 20
1.4145591E+001
 70
0
  0
VERTEX
  5
98b
100
AcDbEntity
  8
5
100
AcDbVertex
100
AcDb2dVertex
 42
1.7103431E-002
 10
2.2655838E+002
 20
1.4130794E+001
 70
1
  0
VERTEX
  5
98c
100
AcDbEntity
  8
5
100
AcDbVertex
100
AcDb2dVertex
 42
1.7221912E-002
 10
2.2644582E+002
 20
1.4108778E+001
 70
0
  0
VERTEX
  5
98d
100
AcDbEntity
  8
5
100
AcDbVertex
100
AcDb2dVertex
 42
1.7684506E-002
 10
2.2633606E+002
 20
1.4079104E+001
 70
1
  0
VERTEX
  5
98e
100
AcDbEntity
  8
5
100
AcDbVertex
100
AcDb2dVertex
 42
1.9103389E-002
 10
2.2622803E+002
 20
1.4041289E+001
 70
0
  0
VERTEX
  5
98f
100
AcDbEntity
  8
5
100
AcDbVertex
100
AcDb2dVertex
 42
1.9905481E-002
 10
2.2612144E+002
 20
1.3994111E+001
 70
1
  0
VERTEX
  5
990
100
AcDbEntity
  8
5
100
AcDbVertex
100
AcDb2dVertex
 42
2.121296E-002
 10
2.2601723E+002
 20
1.3937504E+001
 70
0
  0
VERTEX
  5
991
100
AcDbEntity
  8
5
100
AcDbVertex
100
AcDb2dVertex
 42
2.2148746E-002
 10
2.2591678E+002
 20
1.3870719E+001
 70
1
  0
VERTEX
  5
992
100
AcDbEntity
  8
5
100
AcDbVertex
100
AcDb2dVertex
 42
2.3040795E-002
 10
2.2582092E+002
 20
1.3793879E+001
 70
0
  0
VERTEX
  5
993
100
AcDbEntity
  8
5
100
AcDbVertex
100
AcDb2dVertex
 42
2.3475727E-002
 10
2.2573087E+002
 20
1.3706333E+001
 70
1
  0
VERTEX
  5
994
100
AcDbEntity
  8
5
100
AcDbVertex
100
AcDb2dVertex
 42
2.39854E-002
 10
2.2564745E+002
 20
1.36085E+001
 70
0
  0
VERTEX
  5
995
100
AcDbEntity
  8
5
100
AcDbVertex
100
AcDb2dVertex
 42
2.3957802E-002
 10
2.2557205E+002
 20
1.3500049E+001
 70
1
  0
VERTEX
  5
996
100
AcDbEntity
  8
5
100
AcDbVertex
100
AcDb2dVertex
 42
2.3882191E-002
 10
2.2550535E+002
 20
1.3381729E+001
 70
0
  0
VERTEX
  5
997
100
AcDbEntity
  8
5
100
AcDbVertex
100
AcDb2dVertex
 42
2.3340312E-002
 10
2.254487E+002
 20
1.325358E+001
 70
1
  0
VERTEX
  5
998
100
AcDbEntity
  8
5
100
AcDbVertex
100
AcDb2dVertex
 42
2.2787303E-002
 10
2.254025E+002
 20
1.3116682E+001
 70
0
  0
VERTEX
  5
999
100
AcDbEntity
  8
5
100
AcDbVertex
100
AcDb2dVertex
 42
2.1901628E-002
 10
2.2536795E+002
 20
1.2971495E+001
 70
1
  0
VERTEX
  5
99a
100
AcDbEntity
  8
5
100
AcDbVertex
100
AcDb2dVertex
 42
2.1038794E-002
 10
2.2534509E+002
 20
1.2819366E+001
 70
0
  0
VERTEX
  5
99b
100
AcDbEntity
  8
5
100
AcDbVertex
100
AcDb2dVertex
 42
2.0010079E-002
 10
2.2533482E+002
 20
1.2661154E+001
 70
1
  0
VERTEX
  5
99c
100
AcDbEntity
  8
5
100
AcDbVertex
100
AcDb2dVertex
 42
1.9032516E-002
 10
2.2533677E+002
 20
1.249836E+001
 70
0
  0
VERTEX
  5
99d
100
AcDbEntity
  8
5
100
AcDbVertex
100
AcDb2dVertex
 42
1.802849E-002
 10
2.2535145E+002
 20
1.2332156E+001
 70
1
  0
VERTEX
  5
99e
100
AcDbEntity
  8
5
100
AcDbVertex
100
AcDb2dVertex
 42
1.7071656E-002
 10
2.2537808E+002
 20
1.2164045E+001
 70
0
  0
VERTEX
  5
99f
100
AcDbEntity
  8
5
100
AcDbVertex
100
AcDb2dVertex
 42
1.6186126E-002
 10
2.2541675E+002
 20
1.1995379E+001
 70
1
  0
VERTEX
  5
9a0
100
AcDbEntity
  8
5
100
AcDbVertex
100
AcDb2dVertex
 42
1.532203E-002
 10
2.2546636E+002
 20
1.1827508E+001
 70
0
  0
VERTEX
  5
9a1
100
AcDbEntity
  8
5
100
AcDbVertex
100
AcDb2dVertex
 42
1.458771E-002
 10
2.2552661E+002
 20
1.1661811E+001
 70
1
  0
VERTEX
  5
9a2
100
AcDbEntity
  8
5
100
AcDbVertex
100
AcDb2dVertex
 42
1.3838555E-002
 10
2.2559618E+002
 20
1.1499361E+001
 70
0
  0
VERTEX
  5
9a3
100
AcDbEntity
  8
5
100
AcDbVertex
100
AcDb2dVertex
 42
1.3255359E-002
 10
2.2567449E+002
 20
1.1341425E+001
 70
1
  0
VERTEX
  5
9a4
100
AcDbEntity
  8
5
100
AcDbVertex
100
AcDb2dVertex
 42
1.2625928E-002
 10
2.2576014E+002
 20
1.1188722E+001
 70
0
  0
VERTEX
  5
9a5
100
AcDbEntity
  8
5
100
AcDbVertex
100
AcDb2dVertex
 42
1.2166018E-002
 10
2.2585235E+002
 20
1.1042313E+001
 70
1
  0
VERTEX
  5
9a6
100
AcDbEntity
  8
5
100
AcDbVertex
100
AcDb2dVertex
 42
1.1618531E-002
 10
2.2594979E+002
 20
1.0902552E+001
 70
0
  0
VERTEX
  5
9a7
100
AcDbEntity
  8
5
100
AcDbVertex
100
AcDb2dVertex
 42
1.1291766E-002
 10
2.2605159E+002
 20
1.0770245E+001
 70
1
  0
VERTEX
  5
9a8
100
AcDbEntity
  8
5
100
AcDbVertex
100
AcDb2dVertex
 42
1.0899576E-002
 10
2.2615664E+002
 20
1.0645397E+001
 70
0
  0
VERTEX
  5
9a9
100
AcDbEntity
  8
5
100
AcDbVertex
100
AcDb2dVertex
 42
1.0561476E-002
 10
2.2626411E+002
 20
1.0528552E+001
 70
1
  0
VERTEX
  5
9aa
100
AcDbEntity
  8
5
100
AcDbVertex
100
AcDb2dVertex
 42
9.9774019E-003
 10
2.2637286E+002
 20
1.0419499E+001
 70
0
  0
VERTEX
  5
9ab
100
AcDbEntity
  8
5
100
AcDbVertex
100
AcDb2dVertex
 42
1.0224009E-002
 10
2.2648261E+002
 20
1.0318133E+001
 70
1
  0
VERTEX
  5
9ac
100
AcDbEntity
  8
5
100
AcDbVertex
100
AcDb2dVertex
 42
1.034116E-002
 10
2.2659624E+002
 20
1.0221479E+001
 70
0
  0
VERTEX
  5
9ad
100
AcDbEntity
  8
5
100
AcDbVertex
100
AcDb2dVertex
 42
1.0244813E-002
 10
2.2671703E+002
 20
1.0127157E+001
 70
1
  0
VERTEX
  5
9ae
100
AcDbEntity
  8
5
100
AcDbVertex
100
AcDb2dVertex
 42
1.1010112E-002
 10
2.2684473E+002
 20
1.0035766E+001
 70
0
  0
VERTEX
  5
9af
100
AcDbEntity
  8
5
100
AcDbVertex
100
AcDb2dVertex
 42
1.1571668E-002
 10
2.2697903E+002
 20
9.9487863
 70
1
  0
VERTEX
  5
9b0
100
AcDbEntity
  8
5
100
AcDbVertex
100
AcDb2dVertex
 42
1.2147667E-002
 10
2.2711926E+002
 20
9.8669866
 70
0
  0
VERTEX
  5
9b1
100
AcDbEntity
  8
5
100
AcDbVertex
100
AcDb2dVertex
 42
1.268152E-002
 10
2.2726524E+002
 20
9.7915137
 70
1
  0
VERTEX
  5
9b2
100
AcDbEntity
  8
5
100
AcDbVertex
100
AcDb2dVertex
 42
1.3483903E-002
 10
2.2741605E+002
 20
9.7231376
 70
0
  0
VERTEX
  5
9b3
100
AcDbEntity
  8
5
100
AcDbVertex
100
AcDb2dVertex
 42
1.4212685E-002
 10
2.2757104E+002
 20
9.6632281
 70
1
  0
VERTEX
  5
9b4
100
AcDbEntity
  8
5
100
AcDbVertex
100
AcDb2dVertex
 42
1.5124012E-002
 10
2.277291E+002
 20
9.6123992
 70
0
  0
VERTEX
  5
9b5
100
AcDbEntity
  8
5
100
AcDbVertex
100
AcDb2dVertex
 42
1.6005341E-002
 10
2.2788927E+002
 20
9.5719702
 70
1
  0
VERTEX
  5
9b6
100
AcDbEntity
  8
5
100
AcDbVertex
100
AcDb2dVertex
 42
1.706904E-002
 10
2.2805029E+002
 20
9.5423023
 70
0
  0
VERTEX
  5
9b7
100
AcDbEntity
  8
5
100
AcDbVertex
100
AcDb2dVertex
 42
1.8113757E-002
 10
2.282109E+002
 20
9.5245694
 70
1
  0
VERTEX
  5
9b8
100
AcDbEntity
  8
5
100
AcDbVertex
100
AcDb2dVertex
 42
1.9266978E-002
 10
2.2836981E+002
 20
9.5187733
 70
0
  0
VERTEX
  5
9b9
100
AcDbEntity
  8
5
100
AcDbVertex
100
AcDb2dVertex
 42
2.0422528E-002
 10
2.2852557E+002
 20
9.5257964
 70
1
  0
VERTEX
  5
9ba
100
AcDbEntity
  8
5
100
AcDbVertex
100
AcDb2dVertex
 42
2.159612E-002
 10
2.2867701E+002
 20
9.5452407
 70
0
  0
VERTEX
  5
9bb
100
AcDbEntity
  8
5
100
AcDbVertex
100
AcDb2dVertex
 42
2.2673801E-002
 10
2.2882261E+002
 20
9.5776039
 70
1
  0
VERTEX
  5
9bc
100
AcDbEntity
  8
5
100
AcDbVertex
100
AcDb2dVertex
 42
2.3525095E-002
 10
2.2896146E+002
 20
9.6220222
 70
0
  0
VERTEX
  5
9bd
100
AcDbEntity
  8
5
100
AcDbVertex
100
AcDb2dVertex
 42
2.4486757E-002
 10
2.2909216E+002
 20
9.6785404
 70
1
  0
VERTEX
  5
9be
100
AcDbEntity
  8
5
100
AcDbVertex
100
AcDb2dVertex
 42
2.5308824E-002
 10
2.2921414E+002
 20
9.7461686
 70
0
  0
VERTEX
  5
9bf
100
AcDbEntity
  8
5
100
AcDbVertex
100
AcDb2dVertex
 42
2.5183196E-002
 10
2.2932626E+002
 20
9.8246161
 70
1
  0
VERTEX
  5
9c0
100
AcDbEntity
  8
5
100
AcDbVertex
100
AcDb2dVertex
 42
2.3898891E-002
 10
2.2942832E+002
 20
9.9118236
 70
0
  0
VERTEX
  5
9c1
100
AcDbEntity
  8
5
100
AcDbVertex
100
AcDb2dVertex
 42
2.5252156E-002
 10
2.2951946E+002
 20
1.0006881E+001
 70
1
  0
VERTEX
  5
9c2
100
AcDbEntity
  8
5
100
AcDbVertex
100
AcDb2dVertex
 42
2.7934303E-002
 10
2.2960012E+002
 20
1.0111012E+001
 70
0
  0
VERTEX
  5
9c3
100
AcDbEntity
  8
5
100
AcDbVertex
100
AcDb2dVertex
 42
2.1967739E-002
 10
2.2966985E+002
 20
1.0224253E+001
 70
1
  0
VERTEX
  5
9c4
100
AcDbEntity
  8
5
100
AcDbVertex
100
AcDb2dVertex
 42
1.0550225E-002
 10
2.2972857E+002
 20
1.0334655E+001
 70
0
  0
VERTEX
  5
9c5
100
AcDbEntity
  8
5
100
AcDbVertex
100
AcDb2dVertex
 42
2.625158E-002
 10
2.2977585E+002
 20
1.043761E+001
 70
1
  0
VERTEX
  5
9c6
100
AcDbEntity
  8
5
100
AcDbVertex
100
AcDb2dVertex
 42
4.0194143E-002
 10
2.2981526E+002
 20
1.0573588E+001
 70
0
  0
VERTEX
  5
9c7
100
AcDbEntity
  8
5
100
AcDbVertex
100
AcDb2dVertex
 42
1.9878148E-002
 10
2.2984963E+002
 20
1.0785556E+001
 70
1
  0
VERTEX
  5
9c8
100
AcDbEntity
  8
5
100
AcDbVertex
100
AcDb2dVertex
 42
1.0866126E-002
 10
2.2987872E+002
 20
1.1064861E+001
 70
0
  0
SEQEND
  5
9c9
100
AcDbEntity
  0
POLYLINE
  5
9ca
100
AcDbEntity
  8
5
100
AcDb2dPolyline
  6
CONTINUOUS
 62
1
 66
1
 40
0.0
 41
0.0
 70
2
  0
VERTEX
  5
9cb
100
AcDbEntity
  8
5
100
AcDbVertex
100
AcDb2dVertex
 42
0.0
 10
2.2582778E+002
 20
1.3799882E+001
 70
0
  0
VERTEX
  5
9cc
100
AcDbEntity
  8
5
100
AcDbVertex
100
AcDb2dVertex
 42
2.2844392E-002
 10
2.2575107E+002
 20
1.3714601E+001
 70
1
  0
VERTEX
  5
9cd
100
AcDbEntity
  8
5
100
AcDbVertex
100
AcDb2dVertex
 42
2.1690664E-002
 10
2.256809E+002
 20
1.362125E+001
 70
0
  0
VERTEX
  5
9ce
100
AcDbEntity
  8
5
100
AcDbVertex
100
AcDb2dVertex
 42
2.0949625E-002
 10
2.256174E+002
 20
1.3519446E+001
 70
1
  0
VERTEX
  5
9cf
100
AcDbEntity
  8
5
100
AcDbVertex
100
AcDb2dVertex
 42
2.121748E-002
 10
2.2556108E+002
 20
1.340984E+001
 70
0
  0
VERTEX
  5
9d0
100
AcDbEntity
  8
5
100
AcDbVertex
100
AcDb2dVertex
 42
2.0887413E-002
 10
2.2551314E+002
 20
1.3292538E+001
 70
1
  0
VERTEX
  5
9d1
100
AcDbEntity
  8
5
100
AcDbVertex
100
AcDb2dVertex
 42
2.0280347E-002
 10
2.2547379E+002
 20
1.3168372E+001
 70
0
  0
VERTEX
  5
9d2
100
AcDbEntity
  8
5
100
AcDbVertex
100
AcDb2dVertex
 42
1.9514319E-002
 10
2.2544384E+002
 20
1.3037668E+001
 70
1
  0
VERTEX
  5
9d3
100
AcDbEntity
  8
5
100
AcDbVertex
100
AcDb2dVertex
 42
1.8848882E-002
 10
2.2542328E+002
 20
1.2901425E+001
 70
0
  0
VERTEX
  5
9d4
100
AcDbEntity
  8
5
100
AcDbVertex
100
AcDb2dVertex
 42
1.8035944E-002
 10
2.2541282E+002
 20
1.2760242E+001
 70
1
  0
VERTEX
  5
9d5
100
AcDbEntity
  8
5
100
AcDbVertex
100
AcDb2dVertex
 42
1.7245211E-002
 10
2.2541216E+002
 20
1.2615214E+001
 70
0
  0
VERTEX
  5
9d6
100
AcDbEntity
  8
5
100
AcDbVertex
100
AcDb2dVertex
 42
1.6428525E-002
 10
2.2542173E+002
 20
1.2467146E+001
 70
1
  0
VERTEX
  5
9d7
100
AcDbEntity
  8
5
100
AcDbVertex
100
AcDb2dVertex
 42
1.5654021E-002
 10
2.2544099E+002
 20
1.231714E+001
 70
0
  0
VERTEX
  5
9d8
100
AcDbEntity
  8
5
100
AcDbVertex
100
AcDb2dVertex
 42
1.4916703E-002
 10
2.254701E+002
 20
1.2166142E+001
 70
1
  0
VERTEX
  5
9d9
100
AcDbEntity
  8
5
100
AcDbVertex
100
AcDb2dVertex
 42
1.4198352E-002
 10
2.2550828E+002
 20
1.2015165E+001
 70
0
  0
VERTEX
  5
9da
100
AcDbEntity
  8
5
100
AcDbVertex
100
AcDb2dVertex
 42
1.3565733E-002
 10
2.2555544E+002
 20
1.1865208E+001
 70
1
  0
VERTEX
  5
9db
100
AcDbEntity
  8
5
100
AcDbVertex
100
AcDb2dVertex
 42
1.2929543E-002
 10
2.2561064E+002
 20
1.1717118E+001
 70
0
  0
VERTEX
  5
9dc
100
AcDbEntity
  8
5
100
AcDbVertex
100
AcDb2dVertex
 42
1.2406449E-002
 10
2.2567357E+002
 20
1.1571861E+001
 70
1
  0
VERTEX
  5
9dd
100
AcDbEntity
  8
5
100
AcDbVertex
100
AcDb2dVertex
 42
1.1853506E-002
 10
2.2574321E+002
 20
1.1430065E+001
 70
0
  0
VERTEX
  5
9de
100
AcDbEntity
  8
5
100
AcDbVertex
100
AcDb2dVertex
 42
1.1433429E-002
 10
2.2581909E+002
 20
1.1292594E+001
 70
1
  0
VERTEX
  5
9df
100
AcDbEntity
  8
5
100
AcDbVertex
100
AcDb2dVertex
 42
1.0964005E-002
 10
2.2590019E+002
 20
1.1159833E+001
 70
0
  0
VERTEX
  5
9e0
100
AcDbEntity
  8
5
100
AcDbVertex
100
AcDb2dVertex
 42
1.0624541E-002
 10
2.2598595E+002
 20
1.1032498E+001
 70
1
  0
VERTEX
  5
9e1
100
AcDbEntity
  8
5
100
AcDbVertex
100
AcDb2dVertex
 42
1.0206596E-002
 10
2.2607541E+002
 20
1.0910742E+001
 70
0
  0
VERTEX
  5
9e2
100
AcDbEntity
  8
5
100
AcDbVertex
100
AcDb2dVertex
 42
9.962911E-003
 10
2.2616797E+002
 20
1.0795121E+001
 70
1
  0
VERTEX
  5
9e3
100
AcDbEntity
  8
5
100
AcDbVertex
100
AcDb2dVertex
 42
9.66366E-003
 10
2.2626285E+002
 20
1.0685556E+001
 70
0
  0
VERTEX
  5
9e4
100
AcDbEntity
  8
5
100
AcDbVertex
100
AcDb2dVertex
 42
9.3938372E-003
 10
2.2635947E+002
 20
1.058243E+001
 70
1
  0
VERTEX
  5
9e5
100
AcDbEntity
  8
5
100
AcDbVertex
100
AcDb2dVertex
 42
8.9277656E-003
 10
2.26457E+002
 20
1.048559E+001
 70
0
  0
VERTEX
  5
9e6
100
AcDbEntity
  8
5
100
AcDbVertex
100
AcDb2dVertex
 42
9.1279474E-003
 10
2.2655522E+002
 20
1.0394972E+001
 70
1
  0
VERTEX
  5
9e7
100
AcDbEntity
  8
5
100
AcDbVertex
100
AcDb2dVertex
 42
9.2097422E-003
 10
2.2665649E+002
 20
1.0308145E+001
 70
0
  0
VERTEX
  5
9e8
100
AcDbEntity
  8
5
100
AcDbVertex
100
AcDb2dVertex
 42
9.1269768E-003
 10
2.2676348E+002
 20
1.0223137E+001
 70
1
  0
VERTEX
  5
9e9
100
AcDbEntity
  8
5
100
AcDbVertex
100
AcDb2dVertex
 42
9.7317424E-003
 10
2.2687604E+002
 20
1.0140322E+001
 70
0
  0
VERTEX
  5
9ea
100
AcDbEntity
  8
5
100
AcDbVertex
100
AcDb2dVertex
 42
1.0163656E-002
 10
2.2699399E+002
 20
1.0060763E+001
 70
1
  0
VERTEX
  5
9eb
100
AcDbEntity
  8
5
100
AcDbVertex
100
AcDb2dVertex
 42
1.0599321E-002
 10
2.2711687E+002
 20
9.9849948
 70
0
  0
VERTEX
  5
9ec
100
AcDbEntity
  8
5
100
AcDbVertex
100
AcDb2dVertex
 42
1.1008593E-002
 10
2.2724461E+002
 20
9.9138296
 70
1
  0
VERTEX
  5
9ed
100
AcDbEntity
  8
5
100
AcDbVertex
100
AcDb2dVertex
 42
1.1635983E-002
 10
2.2737661E+002
 20
9.8478237
 70
0
  0
VERTEX
  5
9ee
100
AcDbEntity
  8
5
100
AcDbVertex
100
AcDb2dVertex
 42
1.2145232E-002
 10
2.275125E+002
 20
9.7879722
 70
1
  0
VERTEX
  5
9ef
100
AcDbEntity
  8
5
100
AcDbVertex
100
AcDb2dVertex
 42
1.2746379E-002
 10
2.276515E+002
 20
9.7347174
 70
0
  0
VERTEX
  5
9f0
100
AcDbEntity
  8
5
100
AcDbVertex
100
AcDb2dVertex
 42
1.3494909E-002
 10
2.2779302E+002
 20
9.689046
 70
1
  0
VERTEX
  5
9f1
100
AcDbEntity
  8
5
100
AcDbVertex
100
AcDb2dVertex
 42
1.4571993E-002
 10
2.2793633E+002
 20
9.6513908
 70
0
  0
VERTEX
  5
9f2
100
AcDbEntity
  8
5
100
AcDbVertex
100
AcDb2dVertex
 42
1.4948246E-002
 10
2.280807E+002
 20
9.6227398
 70
1
  0
VERTEX
  5
9f3
100
AcDbEntity
  8
5
100
AcDbVertex
100
AcDb2dVertex
 42
1.4810077E-002
 10
2.2822464E+002
 20
9.6028315
 70
0
  0
VERTEX
  5
9f4
100
AcDbEntity
  8
5
100
AcDbVertex
100
AcDb2dVertex
 42
1.7102723E-002
 10
2.2836702E+002
 20
9.592352
 70
1
  0
VERTEX
  5
9f5
100
AcDbEntity
  8
5
100
AcDbVertex
100
AcDb2dVertex
 42
2.1460117E-002
 10
2.2850908E+002
 20
9.5927443
 70
0
  0
VERTEX
  5
9f6
100
AcDbEntity
  8
5
100
AcDbVertex
100
AcDb2dVertex
 42
1.7514483E-002
 10
2.2865049E+002
 20
9.6051623
 70
1
  0
VERTEX
  5
9f7
100
AcDbEntity
  8
5
100
AcDbVertex
100
AcDb2dVertex
 42
6.992011E-003
 10
2.2878192E+002
 20
9.623074
 70
0
  0
VERTEX
  5
9f8
100
AcDbEntity
  8
5
100
AcDbVertex
100
AcDb2dVertex
 42
2.552944E-002
 10
2.2889934E+002
 20
9.6447205
 70
1
  0
VERTEX
  5
9f9
100
AcDbEntity
  8
5
100
AcDbVertex
100
AcDb2dVertex
 42
4.7229958E-002
 10
2.2903576E+002
 20
9.6937064
 70
0
  0
VERTEX
  5
9fa
100
AcDbEntity
  8
5
100
AcDbVertex
100
AcDb2dVertex
 42
2.4800808E-002
 10
2.2922557E+002
 20
9.7956428
 70
1
  0
VERTEX
  5
9fb
100
AcDbEntity
  8
5
100
AcDbVertex
100
AcDb2dVertex
 42
1.3353792E-002
 10
2.2946209E+002
 20
9.9451106
 70
0
  0
SEQEND
  5
9fc
100
AcDbEntity
  0
ELLIPSE
  5
9fd
100
AcDbEntity
  8
5
100
AcDbEllipse
  6
CONTINUOUS
 10
2.2614003E+002
 20
1.0453663E+001
 11
3.5671708
 21
-3.7835555
 40
7.0710678E-001
 41
0.0
 42
6.2831853
 62
6
  0
VIEWPORT
  5
9fe
100
AcDbEntity
 67
1
  8
0
  6
CONTINUOUS
 62
3
100
AcDbViewport
 10
2.1E+002
 20
1.485E+002
 30
0.0
 40
2.97E+002
 41
2.97E+002
 68
1
 69
1
1001
ACAD
1000
MVIEW
1002
{
1070
16
1010
0.0
1020
0.0
1030
0.0
1010
0.0
1020
0.0
1030
1.0
1040
0.0
1040
2.97E+002
1040
1.155E+002
1040
1.485E+002
1040
5.0E+001
1040
0.0
1040
0.0
1070
0
1070
1000
1070
1
1070
0
1070
0
1070
0
1070
0
1070
0
1040
0.0
1040
0.0
1040
0.0
1040
5.0E-001
1040
5.0E-001
1040
5.0E-001
1040
5.0E-001
1070
0
1002
{
1002
}
1002
}
  0
VIEWPORT
  5
9ff
100
AcDbEntity
 67
1
  8
0
  6
CONTINUOUS
 62
3
100
AcDbViewport
 10
2.1E+002
 20
1.485E+002
 30
0.0
 40
4.2E+002
 41
2.97E+002
 68
2
 69
2
1001
ACAD
1000
MVIEW
1002
{
1070
16
1010
0.0
1020
0.0
1030
0.0
1010
0.0
1020
0.0
1030
1.0
1040
0.0
1040
2.97E+002
1040
2.1E+002
1040
1.485E+002
1040
5.0E+001
1040
0.0
1040
0.0
1070
0
1070
1000
1070
1
1070
0
1070
0
1070
0
1070
0
1070
0
1040
0.0
1040
0.0
1040
0.0
1040
5.0E-001
1040
5.0E-001
1040
5.0E-001
1040
5.0E-001
1070
0
1002
{
1003
5
1003
4
1003
3
1003
2
1002
}
1002
}
  0
VIEWPORT
  5
a00
100
AcDbEntity
 67
1
  8
0
  6
CONTINUOUS
 62
3
100
AcDbViewport
 10
2.5241204E+002
 20
2.2122435E+002
 30
0.0
 40
2.7054943E+002
 41
1.0217486E+002
 68
3
 69
3
1001
ACAD
1000
MVIEW
1002
{
1070
16
1010
0.0
1020
0.0
1030
0.0
1010
0.0
1020
0.0
1030
1.0
1040
0.0
1040
1.0217486E+002
1040
2.5241204E+002
1040
2.2122435E+002
1040
5.0E+001
1040
0.0
1040
0.0
1070
0
1070
1000
1070
1
1070
0
1070
0
1070
0
1070
0
1070
0
1040
0.0
1040
0.0
1040
0.0
1040
5.0E-001
1040
5.0E-001
1040
5.0E-001
1040
5.0E-001
1070
0
1002
{
1003
5
1003
4
1003
3
1003
1
1002
}
1002
}
  0
VIEWPORT
  5
a01
100
AcDbEntity
 67
1
  8
0
  6
CONTINUOUS
 62
3
100
AcDbViewport
 10
2.5241204E+002
 20
1.398304E+002
 30
0.0
 40
2.7054943E+002
 41
6.0613025E+001
 68
4
 69
4
1001
ACAD
1000
MVIEW
1002
{
1070
16
1010
0.0
1020
0.0
1030
0.0
1010
0.0
1020
0.0
1030
1.0
1040
0.0
1040
6.0613025E+001
1040
2.5241204E+002
1040
1.398304E+002
1040
5.0E+001
1040
0.0
1040
0.0
1070
0
1070
1000
1070
1
1070
0
1070
0
1070
0
1070
0
1070
0
1040
0.0
1040
0.0
1040
0.0
1040
5.0E-001
1040
5.0E-001
1040
5.0E-001
1040
5.0E-001
1070
0
1002
{
1003
5
1003
4
1003
2
1003
1
1002
}
1002
}
  0
VIEWPORT
  5
a02
100
AcDbEntity
 67
1
  8
0
  6
CONTINUOUS
 62
3
100
AcDbViewport
 10
7.2244851E+001
 20
2.2122435E+002
 30
0.0
 40
5.700938E+001
 41
1.0217486E+002
 68
5
 69
5
1001
ACAD
1000
MVIEW
1002
{
1070
16
1010
0.0
1020
0.0
1030
0.0
1010
0.0
1020
0.0
1030
1.0
1040
0.0
1040
1.0217486E+002
1040
7.2244851E+001
1040
2.2122435E+002
1040
5.0E+001
1040
0.0
1040
0.0
1070
0
1070
1000
1070
1
1070
0
1070
0
1070
0
1070
0
1070
0
1040
0.0
1040
0.0
1040
0.0
1040
5.0E-001
1040
5.0E-001
1040
5.0E-001
1040
5.0E-001
1070
0
1002
{
1003
5
1003
3
1003
2
1003
1
1002
}
1002
}
  0
VIEWPORT
  5
a03
100
AcDbEntity
 67
1
  8
0
  6
CONTINUOUS
 62
3
100
AcDbViewport
 10
1.2167167E+002
 20
4.9877828E+001
 30
0.0
 40
1.6739301E+002
 41
8.0484677E+001
 68
6
 69
6
1001
ACAD
1000
MVIEW
1002
{
1070
16
1010
0.0
1020
0.0
1030
0.0
1010
0.0
1020
0.0
1030
1.0
1040
0.0
1040
1.1497811E+002
1040
1.4716494E+002
1040
4.4020592E+001
1040
5.0E+001
1040
0.0
1040
0.0
1070
0
1070
1000
1070
1
1070
0
1070
0
1070
0
1070
0
1070
0
1040
0.0
1040
0.0
1040
0.0
1040
5.0E-001
1040
5.0E-001
1040
5.0E-001
1040
5.0E-001
1070
0
1002
{
1003
4
1003
3
1003
2
1003
1
1002
}
1002
}
  0
ENDSEC
  0
SECTION
  2
OBJECTS
  0
DICTIONARY
  5
a04
100
AcDbDictionary
  3
ACAD_GROUP
350
a05
  3
ACAD_MLINESTYLE
350
a06
  0
DICTIONARY
  5
a05
102
{ACAD_REACTORS
330
a04
102
}
100
AcDbDictionary
  0
DICTIONARY
  5
a06
102
{ACAD_REACTORS
330
a04
102
}
100
AcDbDictionary
  3
STANDARD
350
a07
  0
MLINESTYLE
  5
a07
102
{ACAD_REACTORS
330
a06
102
}
100
AcDbMlineStyle
  2
STANDARD
 70
0
  3

 62
256
 51
9.0E+001
 52
9.0E+001
 71
2
 49
5.0E-001
 62
256
  6
BYLAYER
 49
-5.0E-001
 62
256
  6
BYLAYER
  0
ENDSEC
  0
EOF
