  0
SECTION
  2
HEADER
  9
$ACADVER
  1
AC1018
  9
$ACADMAINTVER
 70
     0
  9
$DWGCODEPAGE
  3
ANSI_1252
  9
$INSBASE
 10
0.0
 20
0.0
 30
0.0
  9
$EXTMIN
 10
-0.5
 20
-0.5
 30
-0.5
  9
$EXTMAX
 10
5.0
 20
5.0
 30
5.0
  9
$LIMMIN
 10
-0.5
 20
-0.5
  9
$LIMMAX
 10
5.0
 20
5.0
  9
$ORTHOMODE
 70
     0
  9
$REGENMODE
 70
     1
  9
$FILLMODE
 70
     1
  9
$QTEXTMODE
 70
     0
  9
$MIRRTEXT
 70
     1
  9
$LTSCALE
 40
1.0
  9
$ATTMODE
 70
     1
  9
$TEXTSIZE
 40
0.2
  9
$TRACEWID
 40
0.05
  9
$TEXTSTYLE
  7
Standard
  9
$CLAYER
  8
0
  9
$CELTYPE
  6
ByLayer
  9
$CECOLOR
 62
   256
  9
$CELTSCALE
 40
1.0
  9
$DISPSILH
 70
     0
  9
$DIMSCALE
 40
1.0
  9
$DIMASZ
 40
0.18
  9
$DIMEXO
 40
0.0625
  9
$DIMDLI
 40
0.38
  9
$DIMRND
 40
0.0
  9
$DIMDLE
 40
0.0
  9
$DIMEXE
 40
0.18
  9
$DIMTP
 40
0.0
  9
$DIMTM
 40
0.0
  9
$DIMTXT
 40
0.18
  9
$DIMCEN
 40
0.09
  9
$DIMTSZ
 40
0.0
  9
$DIMTOL
 70
     0
  9
$DIMLIM
 70
     0
  9
$DIMTIH
 70
     1
  9
$DIMTOH
 70
     1
  9
$DIMSE1
 70
     0
  9
$DIMSE2
 70
     0
  9
$DIMTAD
 70
     0
  9
$DIMZIN
 70
     0
  9
$DIMBLK
  1

  9
$DIMASO
 70
     1
  9
$DIMSHO
 70
     1
  9
$DIMPOST
  1

  9
$DIMAPOST
  1

  9
$DIMALT
 70
     0
  9
$DIMALTD
 70
     2
  9
$DIMALTF
 40
25.4
  9
$DIMLFAC
 40
1.0
  9
$DIMTOFL
 70
     0
  9
$DIMTVP
 40
0.0
  9
$DIMTIX
 70
     0
  9
$DIMSOXD
 70
     0
  9
$DIMSAH
 70
     0
  9
$DIMBLK1
  1

  9
$DIMBLK2
  1

  9
$DIMSTYLE
  2
Standard
  9
$DIMCLRD
 70
     0
  9
$DIMCLRE
 70
     0
  9
$DIMCLRT
 70
     0
  9
$DIMTFAC
 40
1.0
  9
$DIMGAP
 40
0.09
  9
$DIMJUST
 70
     0
  9
$DIMSD1
 70
     0
  9
$DIMSD2
 70
     0
  9
$DIMTOLJ
 70
     1
  9
$DIMTZIN
 70
     0
  9
$DIMALTZ
 70
     0
  9
$DIMALTTZ
 70
     0
  9
$DIMUPT
 70
     0
  9
$DIMDEC
 70
     4
  9
$DIMTDEC
 70
     4
  9
$DIMALTU
 70
     2
  9
$DIMALTTD
 70
     2
  9
$DIMTXSTY
  7
Standard
  9
$DIMAUNIT
 70
     0
  9
$DIMADEC
 70
     0
  9
$DIMALTRND
 40
0.0
  9
$DIMAZIN
 70
     0
  9
$DIMDSEP
 70
    46
  9
$DIMATFIT
 70
     3
  9
$DIMFRAC
 70
     0
  9
$DIMLDRBLK
  1

  9
$DIMLUNIT
 70
     2
  9
$DIMLWD
 70
    -2
  9
$DIMLWE
 70
    -2
  9
$DIMTMOVE
 70
     0
  9
$LUNITS
 70
     2
  9
$LUPREC
 70
     4
  9
$SKETCHINC
 40
0.1
  9
$FILLETRAD
 40
0.5
  9
$AUNITS
 70
     0
  9
$AUPREC
 70
     0
  9
$MENU
  1
.
  9
$ELEVATION
 40
0.0
  9
$PELEVATION
 40
0.0
  9
$THICKNESS
 40
0.0
  9
$LIMCHECK
 70
     0
  9
$CHAMFERA
 40
0.0
  9
$CHAMFERB
 40
0.0
  9
$CHAMFERC
 40
0.0
  9
$CHAMFERD
 40
0.0
  9
$SKPOLY
 70
     0
  9
$TDCREATE
 40
2458561.485134815
  9
$TDUCREATE
 40
2458561.443468148
  9
$TDUPDATE
 40
2458561.485136262
  9
$TDUUPDATE
 40
2458561.443469595
  9
$TDINDWG
 40
0.0000000116
  9
$TDUSRTIMER
 40
0.0000000116
  9
$USRTIMER
 70
     1
  9
$ANGBASE
 50
0.0
  9
$ANGDIR
 70
     0
  9
$PDMODE
 70
     0
  9
$PDSIZE
 40
0.0
  9
$PLINEWID
 40
0.0
  9
$SPLFRAME
 70
     0
  9
$SPLINETYPE
 70
     6
  9
$SPLINESEGS
 70
     8
  9
$HANDSEED
  5
172
  9
$SURFTAB1
 70
     6
  9
$SURFTAB2
 70
     6
  9
$SURFTYPE
 70
     6
  9
$SURFU
 70
     6
  9
$SURFV
 70
     6
  9
$UCSBASE
  2

  9
$UCSNAME
  2

  9
$UCSORG
 10
0.0
 20
0.0
 30
0.0
  9
$UCSXDIR
 10
1.0
 20
0.0
 30
0.0
  9
$UCSYDIR
 10
0.0
 20
1.0
 30
0.0
  9
$UCSORTHOREF
  2

  9
$UCSORTHOVIEW
 70
     0
  9
$UCSORGTOP
 10
0.0
 20
0.0
 30
0.0
  9
$UCSORGBOTTOM
 10
0.0
 20
0.0
 30
0.0
  9
$UCSORGLEFT
 10
0.0
 20
0.0
 30
0.0
  9
$UCSORGRIGHT
 10
0.0
 20
0.0
 30
0.0
  9
$UCSORGFRONT
 10
0.0
 20
0.0
 30
0.0
  9
$UCSORGBACK
 10
0.0
 20
0.0
 30
0.0
  9
$PUCSBASE
  2

  9
$PUCSNAME
  2

  9
$PUCSORG
 10
0.0
 20
0.0
 30
0.0
  9
$PUCSXDIR
 10
1.0
 20
0.0
 30
0.0
  9
$PUCSYDIR
 10
0.0
 20
1.0
 30
0.0
  9
$PUCSORTHOREF
  2

  9
$PUCSORTHOVIEW
 70
     0
  9
$PUCSORGTOP
 10
0.0
 20
0.0
 30
0.0
  9
$PUCSORGBOTTOM
 10
0.0
 20
0.0
 30
0.0
  9
$PUCSORGLEFT
 10
0.0
 20
0.0
 30
0.0
  9
$PUCSORGRIGHT
 10
0.0
 20
0.0
 30
0.0
  9
$PUCSORGFRONT
 10
0.0
 20
0.0
 30
0.0
  9
$PUCSORGBACK
 10
0.0
 20
0.0
 30
0.0
  9
$USERI1
 70
     0
  9
$USERI2
 70
     0
  9
$USERI3
 70
     0
  9
$USERI4
 70
     0
  9
$USERI5
 70
     0
  9
$USERR1
 40
0.0
  9
$USERR2
 40
0.0
  9
$USERR3
 40
0.0
  9
$USERR4
 40
0.0
  9
$USERR5
 40
0.0
  9
$WORLDVIEW
 70
     1
  9
$SHADEDGE
 70
     3
  9
$SHADEDIF
 70
    70
  9
$TILEMODE
 70
     1
  9
$MAXACTVP
 70
    64
  9
$PINSBASE
 10
0.0
 20
0.0
 30
0.0
  9
$PLIMCHECK
 70
     0
  9
$PEXTMIN
 10
-0.5
 20
-0.5
 30
-0.5
  9
$PEXTMAX
 10
5.0
 20
5.0
 30
5.0
  9
$PLIMMIN
 10
-0.5
 20
-0.5
  9
$PLIMMAX
 10
5.0
 20
5.0
  9
$UNITMODE
 70
     0
  9
$VISRETAIN
 70
     1
  9
$PLINEGEN
 70
     0
  9
$PSLTSCALE
 70
     1
  9
$TREEDEPTH
 70
  3020
  9
$CMLSTYLE
  2
Standard
  9
$CMLJUST
 70
     0
  9
$CMLSCALE
 40
1.0
  9
$PROXYGRAPHICS
 70
     1
  9
$MEASUREMENT
 70
     1
  9
$CELWEIGHT
370
    18
  9
$ENDCAPS
280
     0
  9
$JOINSTYLE
280
     0
  9
$LWDISPLAY
290
     1
  9
$INSUNITS
 70
     4
  9
$HYPERLINKBASE
  1

  9
$STYLESHEET
  1

  9
$XEDIT
290
     1
  9
$CEPSNTYPE
380
     0
  9
$PSTYLEMODE
290
     1
  9
$FINGERPRINTGUID
  2
{7B06BCFE-1F36-4F7F-A9EE-F82EECCBAFA8}
  9
$VERSIONGUID
  2
{FAEB1C32-E019-11D5-929B-00C0DF256EC4}
  9
$EXTNAMES
290
     1
  9
$PSVPSCALE
 40
0.0
  9
$OLESTARTUP
290
     0
  9
$SORTENTS
280
   127
  9
$INDEXCTL
280
     0
  9
$HIDETEXT
280
     1
  9
$XCLIPFRAME
290
     0
  9
$HALOGAP
280
     0
  9
$OBSCOLOR
 70
   257
  9
$OBSLTYPE
280
     0
  9
$INTERSECTIONDISPLAY
280
     0
  9
$INTERSECTIONCOLOR
 70
   257
  9
$DIMASSOC
280
     2
  9
$PROJECTNAME
  1

  0
ENDSEC
  0
SECTION
  2
CLASSES
  0
CLASS
  1
ACDBDICTIONARYWDFLT
  2
AcDbDictionaryWithDefault
  3
ObjectDBX Classes
 90
        0
 91
        4
280
     0
281
     0
  0
CLASS
  1
VISUALSTYLE
  2
AcDbVisualStyle
  3
ObjectDBX Classes
 90
     4095
 91
        4
280
     0
281
     0
  0
CLASS
  1
MATERIAL
  2
AcDbMaterial
  3
ObjectDBX Classes
 90
     1153
 91
        4
280
     0
281
     0
  0
CLASS
  1
SCALE
  2
AcDbScale
  3
ObjectDBX Classes
 90
     1153
 91
        4
280
     0
281
     0
  0
CLASS
  1
SUN
  2
AcDbSun
  3
SCENEOE
 90
     1153
 91
        4
280
     0
281
     0
  0
CLASS
  1
DIMASSOC
  2
AcDbDimAssoc
  3
"AcDbDimAssoc|Product Desc:     AcDim ARX App For Dimension|Company:          Autodesk, Inc.|WEB Address:      www.autodesk.com"
 90
        0
 91
        4
280
     0
281
     0
  0
CLASS
  1
DICTIONARYVAR
  2
AcDbDictionaryVar
  3
ObjectDBX Classes
 90
        0
 91
        4
280
     0
281
     0
  0
ENDSEC
  0
SECTION
  2
TABLES
  0
TABLE
  2
VPORT
  5
8
330
0
100
AcDbSymbolTable
 70
    17
  0
VPORT
  5
29
330
8
100
AcDbSymbolTableRecord
100
AcDbViewportTableRecord
  2
DUMMY
 70
     0
 10
0.0
 20
0.0
 11
1.0
 21
1.0
 12
10.429907
 22
4.5
 13
0.0
 23
0.0
 14
0.5
 24
0.5
 15
0.5
 25
0.5
 16
0.0
 26
0.0
 36
1.0
 17
0.0
 27
0.0
 37
0.0
 40
9.0
 41
1.972973
 42
50.0
 43
0.0
 44
0.0
 50
0.0
 51
0.0
 71
     0
 72
   100
 73
     1
 74
     3
 75
     0
 76
     0
 77
     0
 78
     0
281
     0
 65
     1
110
0.0
120
0.0
130
0.0
111
1.0
121
0.0
131
0.0
112
0.0
122
1.0
132
0.0
 79
     0
146
0.0
  0
VPORT
  5
121
330
8
100
AcDbSymbolTableRecord
100
AcDbViewportTableRecord
  2
*ACTIVE
 70
     0
 10
0.0
 20
0.0
 11
1.0
 21
1.0
 12
267.757405
 22
148.5
 13
0.0
 23
0.0
 14
0.5
 24
0.5
 15
0.5
 25
0.5
 16
0.0
 26
0.0
 36
1.0
 17
0.0
 27
0.0
 37
0.0
 40
254.0
 41
0.069908
 42
50.0
 43
964.613032
 44
-964.613032
 50
0.0
 51
0.0
 71
     0
 72
   100
 73
     1
 74
     3
 75
     0
 76
     0
 77
     0
 78
     0
281
     0
 65
     1
110
0.0
120
0.0
130
0.0
111
1.0
121
0.0
131
0.0
112
0.0
122
1.0
132
0.0
 79
     0
146
0.0
  0
VPORT
  5
123
330
8
100
AcDbSymbolTableRecord
100
AcDbViewportTableRecord
  2
L1
 70
     0
 10
0.0
 20
0.0
 11
1.0
 21
1.0
 12
267.757405
 22
148.5
 13
0.0
 23
0.0
 14
0.5
 24
0.5
 15
0.5
 25
0.5
 16
0.0
 26
0.0
 36
1.0
 17
0.0
 27
0.0
 37
0.0
 40
254.0
 41
0.069908
 42
50.0
 43
964.613032
 44
-964.613032
 50
0.0
 51
0.0
 71
     0
 72
   100
 73
     1
 74
     3
 75
     0
 76
     0
 77
     0
 78
     0
281
     0
 65
     1
110
0.0
120
0.0
130
0.0
111
1.0
121
0.0
131
0.0
112
0.0
122
1.0
132
0.0
 79
     0
146
0.0
  0
VPORT
  5
124
330
8
100
AcDbSymbolTableRecord
100
AcDbViewportTableRecord
  2
L2
 70
     0
 10
0.0
 20
0.0
 11
0.5
 21
1.0
 12
0.0
 22
0.0
 13
0.0
 23
0.0
 14
0.5
 24
0.5
 15
0.5
 25
0.5
 16
0.0
 26
-1.0
 36
0.0
 17
0.0
 27
0.0
 37
0.0
 40
1319.822715
 41
0.013454
 42
50.0
 43
672.020833
 44
-672.020833
 50
0.0
 51
0.0
 71
     0
 72
   100
 73
     1
 74
     3
 75
     0
 76
     0
 77
     0
 78
     0
281
     0
 65
     1
110
0.0
120
0.0
130
0.0
111
1.0
121
0.0
131
0.0
112
0.0
122
1.0
132
0.0
 79
     0
146
0.0
  0
VPORT
  5
125
330
8
100
AcDbSymbolTableRecord
100
AcDbViewportTableRecord
  2
L2
 70
     0
 10
0.5
 20
0.0
 11
1.0
 21
1.0
 12
0.0
 22
0.0
 13
0.0
 23
0.0
 14
0.5
 24
0.5
 15
0.5
 25
0.5
 16
1.0
 26
0.0
 36
0.0
 17
0.0
 27
0.0
 37
0.0
 40
1319.822715
 41
0.013454
 42
50.0
 43
672.020833
 44
-672.020833
 50
0.0
 51
0.0
 71
     0
 72
   100
 73
     1
 74
     3
 75
     0
 76
     0
 77
     0
 78
     0
281
     0
 65
     1
110
0.0
120
0.0
130
0.0
111
1.0
121
0.0
131
0.0
112
0.0
122
1.0
132
0.0
 79
     0
146
0.0
  0
VPORT
  5
126
330
8
100
AcDbSymbolTableRecord
100
AcDbViewportTableRecord
  2
L3
 70
     0
 10
0.0
 20
0.5
 11
1.0
 21
1.0
 12
267.757405
 22
148.5
 13
0.0
 23
0.0
 14
0.5
 24
0.5
 15
0.5
 25
0.5
 16
0.0
 26
0.0
 36
1.0
 17
0.0
 27
0.0
 37
0.0
 40
254.0
 41
0.069908
 42
50.0
 43
964.613032
 44
-964.613032
 50
0.0
 51
0.0
 71
     0
 72
   100
 73
     1
 74
     3
 75
     0
 76
     0
 77
     0
 78
     0
281
     0
 65
     1
110
0.0
120
0.0
130
0.0
111
1.0
121
0.0
131
0.0
112
0.0
122
1.0
132
0.0
 79
     0
146
0.0
  0
VPORT
  5
127
330
8
100
AcDbSymbolTableRecord
100
AcDbViewportTableRecord
  2
L3
 70
     0
 10
0.0
 20
0.0
 11
1.0
 21
0.5
 12
0.0
 22
0.0
 13
0.0
 23
0.0
 14
0.5
 24
0.5
 15
0.5
 25
0.5
 16
0.0
 26
-1.0
 36
0.0
 17
0.0
 27
0.0
 37
0.0
 40
1319.822715
 41
0.013454
 42
50.0
 43
672.020833
 44
-672.020833
 50
0.0
 51
0.0
 71
     0
 72
   100
 73
     1
 74
     3
 75
     0
 76
     0
 77
     0
 78
     0
281
     0
 65
     1
110
0.0
120
0.0
130
0.0
111
1.0
121
0.0
131
0.0
112
0.0
122
1.0
132
0.0
 79
     0
146
0.0
  0
VPORT
  5
128
330
8
100
AcDbSymbolTableRecord
100
AcDbViewportTableRecord
  2
L4
 70
     0
 10
0.0
 20
0.5
 11
0.5
 21
1.0
 12
267.757405
 22
148.5
 13
0.0
 23
0.0
 14
0.5
 24
0.5
 15
0.5
 25
0.5
 16
0.0
 26
0.0
 36
1.0
 17
0.0
 27
0.0
 37
0.0
 40
254.0
 41
0.069908
 42
50.0
 43
964.613032
 44
-964.613032
 50
0.0
 51
0.0
 71
     0
 72
   100
 73
     1
 74
     3
 75
     0
 76
     0
 77
     0
 78
     0
281
     0
 65
     1
110
0.0
120
0.0
130
0.0
111
1.0
121
0.0
131
0.0
112
0.0
122
1.0
132
0.0
 79
     0
146
0.0
  0
VPORT
  5
129
330
8
100
AcDbSymbolTableRecord
100
AcDbViewportTableRecord
  2
L4
 70
     0
 10
0.0
 20
0.0
 11
0.5
 21
0.5
 12
0.0
 22
0.0
 13
0.0
 23
0.0
 14
0.5
 24
0.5
 15
0.5
 25
0.5
 16
0.0
 26
-1.0
 36
0.0
 17
0.0
 27
0.0
 37
0.0
 40
1319.822715
 41
0.013454
 42
50.0
 43
672.020833
 44
-672.020833
 50
0.0
 51
0.0
 71
     0
 72
   100
 73
     1
 74
     3
 75
     0
 76
     0
 77
     0
 78
     0
281
     0
 65
     1
110
0.0
120
0.0
130
0.0
111
1.0
121
0.0
131
0.0
112
0.0
122
1.0
132
0.0
 79
     0
146
0.0
  0
VPORT
  5
12A
330
8
100
AcDbSymbolTableRecord
100
AcDbViewportTableRecord
  2
L4
 70
     0
 10
0.5
 20
0.0
 11
1.0
 21
0.5
 12
0.0
 22
0.0
 13
0.0
 23
0.0
 14
0.5
 24
0.5
 15
0.5
 25
0.5
 16
1.0
 26
0.0
 36
0.0
 17
0.0
 27
0.0
 37
0.0
 40
1319.822715
 41
0.013454
 42
50.0
 43
672.020833
 44
-672.020833
 50
0.0
 51
0.0
 71
     0
 72
   100
 73
     1
 74
     3
 75
     0
 76
     0
 77
     0
 78
     0
281
     0
 65
     1
110
0.0
120
0.0
130
0.0
111
1.0
121
0.0
131
0.0
112
0.0
122
1.0
132
0.0
 79
     0
146
0.0
  0
VPORT
  5
12B
330
8
100
AcDbSymbolTableRecord
100
AcDbViewportTableRecord
  2
L4
 70
     0
 10
0.5
 20
0.5
 11
1.0
 21
1.0
 12
0.0
 22
0.0
 13
0.0
 23
0.0
 14
0.5
 24
0.5
 15
0.5
 25
0.5
 16
0.5773502691896258
 26
-0.5773502691896258
 36
0.5773502691896258
 17
0.0
 27
0.0
 37
0.0
 40
1285.020866
 41
0.013818
 42
50.0
 43
667.141407
 44
-667.141407
 50
0.0
 51
0.0
 71
     0
 72
   100
 73
     1
 74
     3
 75
     0
 76
     0
 77
     0
 78
     0
281
     0
 65
     1
110
0.0
120
0.0
130
0.0
111
1.0
121
0.0
131
0.0
112
0.0
122
1.0
132
0.0
 79
     0
146
0.0
  0
VPORT
  5
12C
330
8
100
AcDbSymbolTableRecord
100
AcDbViewportTableRecord
  2
L6
 70
     0
 10
0.0
 20
0.5
 11
0.333333
 21
1.0
 12
0.0
 22
0.0
 13
0.0
 23
0.0
 14
0.5
 24
0.5
 15
0.5
 25
0.5
 16
0.7188730927569433
 26
-0.5850486126764433
 36
0.3754192287502549
 17
0.0
 27
0.0
 37
0.0
 40
1357.434192
 41
0.013081
 42
50.0
 43
701.839477
 44
-701.839477
 50
0.0
 51
0.0
 71
     0
 72
   100
 73
     1
 74
     3
 75
     0
 76
     0
 77
     0
 78
     0
281
     0
 65
     1
110
0.0
120
0.0
130
0.0
111
1.0
121
0.0
131
0.0
112
0.0
122
1.0
132
0.0
 79
     0
146
0.0
  0
VPORT
  5
12D
330
8
100
AcDbSymbolTableRecord
100
AcDbViewportTableRecord
  2
L6
 70
     0
 10
0.0
 20
0.0
 11
0.333333
 21
0.5
 12
0.0
 22
0.0
 13
0.0
 23
0.0
 14
0.5
 24
0.5
 15
0.5
 25
0.5
 16
-1.0
 26
0.0
 36
0.0
 17
0.0
 27
0.0
 37
0.0
 40
1319.822715
 41
0.013454
 42
50.0
 43
672.020833
 44
-672.020833
 50
0.0
 51
0.0
 71
     0
 72
   100
 73
     1
 74
     3
 75
     0
 76
     0
 77
     0
 78
     0
281
     0
 65
     1
110
0.0
120
0.0
130
0.0
111
1.0
121
0.0
131
0.0
112
0.0
122
1.0
132
0.0
 79
     0
146
0.0
  0
VPORT
  5
12E
330
8
100
AcDbSymbolTableRecord
100
AcDbViewportTableRecord
  2
L6
 70
     0
 10
0.333333
 20
0.5
 11
0.666667
 21
1.0
 12
267.757405
 22
148.5
 13
0.0
 23
0.0
 14
0.5
 24
0.5
 15
0.5
 25
0.5
 16
0.0
 26
0.0
 36
1.0
 17
0.0
 27
0.0
 37
0.0
 40
254.0
 41
0.069908
 42
50.0
 43
964.613032
 44
-964.613032
 50
0.0
 51
0.0
 71
     0
 72
   100
 73
     1
 74
     3
 75
     0
 76
     0
 77
     0
 78
     0
281
     0
 65
     1
110
0.0
120
0.0
130
0.0
111
1.0
121
0.0
131
0.0
112
0.0
122
1.0
132
0.0
 79
     0
146
0.0
  0
VPORT
  5
12F
330
8
100
AcDbSymbolTableRecord
100
AcDbViewportTableRecord
  2
L6
 70
     0
 10
0.333333
 20
0.0
 11
0.666667
 21
0.5
 12
0.0
 22
0.0
 13
0.0
 23
0.0
 14
0.5
 24
0.5
 15
0.5
 25
0.5
 16
0.0
 26
-1.0
 36
0.0
 17
0.0
 27
0.0
 37
0.0
 40
1319.822715
 41
0.013454
 42
50.0
 43
672.020833
 44
-672.020833
 50
0.0
 51
0.0
 71
     0
 72
   100
 73
     1
 74
     3
 75
     0
 76
     0
 77
     0
 78
     0
281
     0
 65
     1
110
0.0
120
0.0
130
0.0
111
1.0
121
0.0
131
0.0
112
0.0
122
1.0
132
0.0
 79
     0
146
0.0
  0
VPORT
  5
130
330
8
100
AcDbSymbolTableRecord
100
AcDbViewportTableRecord
  2
L6
 70
     0
 10
0.666667
 20
0.5
 11
1.0
 21
1.0
 12
0.0
 22
0.0
 13
0.0
 23
0.0
 14
0.5
 24
0.5
 15
0.5
 25
0.5
 16
0.5773502691896258
 26
-0.5773502691896258
 36
0.5773502691896258
 17
0.0
 27
0.0
 37
0.0
 40
1285.020866
 41
0.013818
 42
50.0
 43
667.141407
 44
-667.141407
 50
0.0
 51
0.0
 71
     0
 72
   100
 73
     1
 74
     3
 75
     0
 76
     0
 77
     0
 78
     0
281
     0
 65
     1
110
0.0
120
0.0
130
0.0
111
1.0
121
0.0
131
0.0
112
0.0
122
1.0
132
0.0
 79
     0
146
0.0
  0
VPORT
  5
131
330
8
100
AcDbSymbolTableRecord
100
AcDbViewportTableRecord
  2
L6
 70
     0
 10
0.666667
 20
0.0
 11
1.0
 21
0.5
 12
0.0
 22
0.0
 13
0.0
 23
0.0
 14
0.5
 24
0.5
 15
0.5
 25
0.5
 16
1.0
 26
0.0
 36
0.0
 17
0.0
 27
0.0
 37
0.0
 40
1319.822715
 41
0.013454
 42
50.0
 43
672.020833
 44
-672.020833
 50
0.0
 51
0.0
 71
     0
 72
   100
 73
     1
 74
     3
 75
     0
 76
     0
 77
     0
 78
     0
281
     0
 65
     1
110
0.0
120
0.0
130
0.0
111
1.0
121
0.0
131
0.0
112
0.0
122
1.0
132
0.0
 79
     0
146
0.0
  0
ENDTAB
  0
TABLE
  2
LTYPE
  5
5
330
0
100
AcDbSymbolTable
 70
     6
  0
LTYPE
  5
14
330
5
100
AcDbSymbolTableRecord
100
AcDbLinetypeTableRecord
  2
ByBlock
 70
     0
  3

 72
    65
 73
     0
 40
0.0
  0
LTYPE
  5
15
330
5
100
AcDbSymbolTableRecord
100
AcDbLinetypeTableRecord
  2
ByLayer
 70
     0
  3

 72
    65
 73
     0
 40
0.0
  0
LTYPE
  5
16
330
5
100
AcDbSymbolTableRecord
100
AcDbLinetypeTableRecord
  2
Continuous
 70
     0
  3
Solid line
 72
    65
 73
     0
 40
0.0
  0
LTYPE
  5
6A
330
5
100
AcDbSymbolTableRecord
100
AcDbLinetypeTableRecord
  2
CENTER
 70
     0
  3
____ _ ____ _ ____ _ ____
 72
    65
 73
     4
 40
47.4
 49
22.0
 74
     4
 75
     0
340
0
 46
0.0
 50
0.0
 44
0.0
 45
0.0
 49
-8.5
 74
     4
 75
     0
340
0
 46
0.0
 50
0.0
 44
0.0
 45
0.0
 49
8.5
 74
     4
 75
     0
340
0
 46
0.0
 50
0.0
 44
0.0
 45
0.0
 49
-8.5
 74
     4
 75
     0
340
0
 46
0.0
 50
0.0
 44
0.0
 45
0.0
  0
LTYPE
  5
6B
330
5
100
AcDbSymbolTableRecord
100
AcDbLinetypeTableRecord
  2
DASHDOT
 70
     0
  3
_._._._._._._._._._._._._._._._.
 72
    65
 73
     4
 40
70.0
 49
31.0
 74
     4
 75
     0
340
0
 46
0.0
 50
0.0
 44
0.0
 45
0.0
 49
-13.0
 74
     4
 75
     0
340
0
 46
0.0
 50
0.0
 44
0.0
 45
0.0
 49
13.0
 74
     4
 75
     0
340
0
 46
0.0
 50
0.0
 44
0.0
 45
0.0
 49
-13.0
 74
     4
 75
     0
340
0
 46
0.0
 50
0.0
 44
0.0
 45
0.0
  0
LTYPE
  5
6C
330
5
100
AcDbSymbolTableRecord
100
AcDbLinetypeTableRecord
  2
DASHED
 70
     0
  3
__ __ __ __ __ __ __ __ __
 72
    65
 73
     2
 40
25.72
 49
12.86
 74
     4
 75
     0
340
0
 46
0.0
 50
0.0
 44
0.0
 45
0.0
 49
-12.86
 74
     4
 75
     0
340
0
 46
0.0
 50
0.0
 44
0.0
 45
0.0
  0
LTYPE
  5
6D
330
5
100
AcDbSymbolTableRecord
100
AcDbLinetypeTableRecord
  2
DOT
 70
     0
  3
.........................
 72
    65
 73
     2
 40
10.0
 49
0.0
 74
     4
 75
     0
340
0
 46
0.0
 50
0.0
 44
0.0
 45
0.0
 49
-10.0
 74
     4
 75
     0
340
0
 46
0.0
 50
0.0
 44
0.0
 45
0.0
  0
LTYPE
  5
6E
330
5
100
AcDbSymbolTableRecord
100
AcDbLinetypeTableRecord
  2
PHANTOM
 70
     0
  3
____ _ _ ____ _ _ _____ _ _ ____
 72
    65
 73
     6
 40
50.5
 49
18.0
 74
     4
 75
     0
340
0
 46
0.0
 50
0.0
 44
0.0
 45
0.0
 49
-6.5
 74
     4
 75
     0
340
0
 46
0.0
 50
0.0
 44
0.0
 45
0.0
 49
6.5
 74
     4
 75
     0
340
0
 46
0.0
 50
0.0
 44
0.0
 45
0.0
 49
-6.5
 74
     4
 75
     0
340
0
 46
0.0
 50
0.0
 44
0.0
 45
0.0
 49
6.5
 74
     4
 75
     0
340
0
 46
0.0
 50
0.0
 44
0.0
 45
0.0
 49
-6.5
 74
     4
 75
     0
340
0
 46
0.0
 50
0.0
 44
0.0
 45
0.0
  0
ENDTAB
  0
TABLE
  2
LAYER
  5
2
330
0
100
AcDbSymbolTable
 70
     5
  0
LAYER
  5
10
330
2
100
AcDbSymbolTableRecord
100
AcDbLayerTableRecord
  2
0
 70
     0
 62
     7
  6
Continuous
370
    -3
390
F
  0
LAYER
  5
70
330
2
100
AcDbSymbolTableRecord
100
AcDbLayerTableRecord
  2
1
 70
     0
 62
     7
420
 16777215
  6
Continuous
370
    -3
390
F
  0
LAYER
  5
83
330
2
100
AcDbSymbolTableRecord
100
AcDbLayerTableRecord
  2
256
 70
     0
 62
     7
420
 16777215
  6
Continuous
370
    -3
390
F
  0
LAYER
  5
98
330
2
100
AcDbSymbolTableRecord
100
AcDbLayerTableRecord
  2
255
 70
     0
 62
     7
420
 16777215
  6
Continuous
370
    -3
390
F
  0
LAYER
  5
E6
330
2
100
AcDbSymbolTableRecord
100
AcDbLayerTableRecord
  2
Defpoints
 70
     0
 62
     7
  6
Continuous
290
     0
370
    -3
390
F
  0
ENDTAB
  0
TABLE
  2
STYLE
  5
3
330
0
100
AcDbSymbolTable
 70
     4
  0
STYLE
  5
11
330
3
100
AcDbSymbolTableRecord
100
AcDbTextStyleTableRecord
  2
Standard
 70
     0
 40
0.0
 41
1.0
 50
0.0
 71
     0
 42
0.2
  3
txt
  4

  0
STYLE
  5
BA
330
3
100
AcDbSymbolTableRecord
100
AcDbTextStyleTableRecord
  2
ISOCPEUR
 70
     0
 40
0.0
 41
1.0
 50
0.0
 71
     0
 42
0.2
  3
ISOCPEUR
  4

1001
ACAD
1000
ISOCPEUR
1071
        0
  0
STYLE
  5
C7
330
3
100
AcDbSymbolTableRecord
100
AcDbTextStyleTableRecord
  2
ideas_iso
 70
     0
 40
0.0
 41
1.0
 50
0.0
 71
     0
 42
0.2
  3
simplex.shx
  4

  0
STYLE
  5
C8
330
3
100
AcDbSymbolTableRecord
100
AcDbTextStyleTableRecord
  2
DWGDirectTextStyle
 70
     0
 40
0.0
 41
1.0
 50
0.0
 71
     0
 42
0.2
  3
simplex
  4

  0
ENDTAB
  0
TABLE
  2
VIEW
  5
6
330
0
100
AcDbSymbolTable
 70
     8
  0
VIEW
  5
117
330
6
100
AcDbSymbolTableRecord
100
AcDbViewTableRecord
  2
Top
 70
     0
 40
254.0
 10
267.757405
 20
148.5
 41
254.0
 11
0.0
 21
0.0
 31
1.0
 12
0.0
 22
0.0
 32
0.0
 42
50.0
 43
964.613032
 44
-964.613032
 50
0.0
 71
     0
281
     0
 72
     0
  0
VIEW
  5
118
330
6
100
AcDbSymbolTableRecord
100
AcDbViewTableRecord
  2
Front
 70
     0
 40
1319.822715
 10
0.0
 20
0.0
 41
254.0
 11
0.0
 21
-1.0
 31
0.0
 12
0.0
 22
0.0
 32
0.0
 42
50.0
 43
672.020833
 44
-672.020833
 50
0.0
 71
     0
281
     0
 72
     0
  0
VIEW
  5
119
330
6
100
AcDbSymbolTableRecord
100
AcDbViewTableRecord
  2
Right
 70
     0
 40
1319.822715
 10
0.0
 20
0.0
 41
254.0
 11
1.0
 21
0.0
 31
0.0
 12
0.0
 22
0.0
 32
0.0
 42
50.0
 43
672.020833
 44
-672.020833
 50
0.0
 71
     0
281
     0
 72
     0
  0
VIEW
  5
11A
330
6
100
AcDbSymbolTableRecord
100
AcDbViewTableRecord
  2
Back
 70
     0
 40
1319.822715
 10
0.0
 20
0.0
 41
254.0
 11
0.0
 21
1.0
 31
0.0
 12
0.0
 22
0.0
 32
0.0
 42
50.0
 43
672.020833
 44
-672.020833
 50
0.0
 71
     0
281
     0
 72
     0
  0
VIEW
  5
11B
330
6
100
AcDbSymbolTableRecord
100
AcDbViewTableRecord
  2
Bottom
 70
     0
 40
254.0
 10
0.0
 20
0.0
 41
254.0
 11
0.0
 21
0.0
 31
-1.0
 12
0.0
 22
0.0
 32
0.0
 42
50.0
 43
659.911358
 44
-659.911358
 50
180.0
 71
     0
281
     0
 72
     0
  0
VIEW
  5
11C
330
6
100
AcDbSymbolTableRecord
100
AcDbViewTableRecord
  2
Left
 70
     0
 40
1319.822715
 10
0.0
 20
0.0
 41
254.0
 11
-1.0
 21
0.0
 31
0.0
 12
0.0
 22
0.0
 32
0.0
 42
50.0
 43
672.020833
 44
-672.020833
 50
0.0
 71
     0
281
     0
 72
     0
  0
VIEW
  5
11D
330
6
100
AcDbSymbolTableRecord
100
AcDbViewTableRecord
  2
Isometric
 70
     0
 40
1285.020866
 10
0.0
 20
0.0
 41
359.210245
 11
0.5773502691896258
 21
-0.5773502691896258
 31
0.5773502691896258
 12
0.0
 22
0.0
 32
0.0
 42
50.0
 43
667.141407
 44
-667.141407
 50
0.0
 71
     0
281
     0
 72
     0
  0
VIEW
  5
11E
330
6
100
AcDbSymbolTableRecord
100
AcDbViewTableRecord
  2
Trimetric
 70
     0
 40
1357.434192
 10
0.0
 20
0.0
 41
357.33321
 11
0.7188730927569433
 21
-0.5850486126764433
 31
0.3754192287502549
 12
0.0
 22
0.0
 32
0.0
 42
50.0
 43
701.839477
 44
-701.839477
 50
0.0
 71
     0
281
     0
 72
     0
  0
ENDTAB
  0
TABLE
  2
UCS
  5
7
330
0
100
AcDbSymbolTable
 70
     0
  0
ENDTAB
  0
TABLE
  2
APPID
  5
9
330
0
100
AcDbSymbolTable
 70
     4
  0
APPID
  5
12
330
9
100
AcDbSymbolTableRecord
100
AcDbRegAppTableRecord
  2
ACAD
 70
     0
  0
APPID
  5
132
330
9
100
AcDbSymbolTableRecord
100
AcDbRegAppTableRecord
  2
ACAD_DSTYLE_DIM_LINETYPE
 70
     0
  0
APPID
  5
133
330
9
100
AcDbSymbolTableRecord
100
AcDbRegAppTableRecord
  2
ACAD_DSTYLE_DIM_EXT1_LINETYPE
 70
     0
  0
APPID
  5
134
330
9
100
AcDbSymbolTableRecord
100
AcDbRegAppTableRecord
  2
ACAD_DSTYLE_DIM_EXT2_LINETYPE
 70
     0
  0
ENDTAB
  0
TABLE
  2
DIMSTYLE
  5
A
330
0
100
AcDbSymbolTable
 70
     1
100
AcDbDimStyleTable
  0
DIMSTYLE
105
27
102
{ACAD_REACTORS
330
E3
330
FC
102
}
330
A
100
AcDbSymbolTableRecord
100
AcDbDimStyleTableRecord
  2
Standard
 70
     0
178
     0
340
11
  0
ENDTAB
  0
TABLE
  2
BLOCK_RECORD
  5
1
330
0
100
AcDbSymbolTable
 70
     5
  0
BLOCK_RECORD
  5
1F
330
1
100
AcDbSymbolTableRecord
100
AcDbBlockTableRecord
  2
*Model_Space
340
22
  0
BLOCK_RECORD
  5
1B
330
1
100
AcDbSymbolTableRecord
100
AcDbBlockTableRecord
  2
*Paper_Space
340
1E
  0
BLOCK_RECORD
  5
23
330
1
100
AcDbSymbolTableRecord
100
AcDbBlockTableRecord
  2
*Paper_Space0
340
26
  0
BLOCK_RECORD
  5
E7
330
1
100
AcDbSymbolTableRecord
100
AcDbBlockTableRecord
  2
*D1
340
0
  0
BLOCK_RECORD
  5
F3
330
1
100
AcDbSymbolTableRecord
100
AcDbBlockTableRecord
  2
_U0
340
0
  0
BLOCK_RECORD
  5
FF
330
1
100
AcDbSymbolTableRecord
100
AcDbBlockTableRecord
  2
*D3
340
0
  0
BLOCK_RECORD
  5
10D
330
1
100
AcDbSymbolTableRecord
100
AcDbBlockTableRecord
  2
_U1
340
0
  0
ENDTAB
  0
ENDSEC
  0
SECTION
  2
BLOCKS
  0
BLOCK
  5
20
330
1F
100
AcDbEntity
  8
0
100
AcDbBlockBegin
  2
*Model_Space
 70
     0
 10
0.0
 20
0.0
 30
0.0
  3
*Model_Space
  1
*Model_Space
  0
ENDBLK
  5
21
330
1F
100
AcDbEntity
  8
0
100
AcDbBlockEnd
  0
BLOCK
  5
1C
330
1B
100
AcDbEntity
 67
     1
  8
0
100
AcDbBlockBegin
  2
*Paper_Space
 70
     0
 10
0.0
 20
0.0
 30
0.0
  3
*Paper_Space
  1
*Paper_Space
  0
ENDBLK
  5
1D
330
1B
100
AcDbEntity
 67
     1
  8
0
100
AcDbBlockEnd
  0
BLOCK
  5
24
330
23
100
AcDbEntity
  8
0
100
AcDbBlockBegin
  2
*Paper_Space0
 70
     0
 10
0.0
 20
0.0
 30
0.0
  3
*Paper_Space0
  1
*Paper_Space0
  0
ENDBLK
  5
25
330
23
100
AcDbEntity
  8
0
100
AcDbBlockEnd
  0
BLOCK
  5
E8
330
E7
100
AcDbEntity
  8
0
100
AcDbBlockBegin
  2
*D1
 70
     1
 10
0.0
 20
0.0
 30
0.0
  3
*D1
  1
*D1
  0
LINE
  5
EA
330
E7
100
AcDbEntity
  8
0
 62
    35
370
    -2
100
AcDbLine
 10
109.695366
 20
218.077273
 30
0.0
 11
129.695366
 21
218.077273
 31
0.0
  0
LINE
  5
EB
330
E7
100
AcDbEntity
  8
0
 62
    35
370
    -2
100
AcDbLine
 10
109.695366
 20
148.277273
 30
0.0
 11
129.695366
 21
148.277273
 31
0.0
  0
LINE
  5
EC
330
E7
100
AcDbEntity
  8
0
 62
    35
370
    -2
100
AcDbLine
 10
128.695366
 20
210.077273
 30
0.0
 11
128.695366
 21
156.277273
 31
0.0
  0
SOLID
  5
ED
330
E7
100
AcDbEntity
  8
0
 62
    35
100
AcDbTrace
 10
130.028699
 20
210.077273
 30
0.0
 11
127.362032
 21
210.077273
 31
0.0
 12
128.695366
 22
218.077273
 32
0.0
 13
128.695366
 23
218.077273
 33
0.0
  0
SOLID
  5
EE
330
E7
100
AcDbEntity
  8
0
 62
    35
100
AcDbTrace
 10
127.362032
 20
156.277273
 30
0.0
 11
130.028699
 21
156.277273
 31
0.0
 12
128.695366
 22
148.277273
 32
0.0
 13
128.695366
 23
148.277273
 33
0.0
  0
MTEXT
  5
EF
330
E7
100
AcDbEntity
  8
0
 62
    35
370
    18
100
AcDbMText
 10
121.695366
 20
183.177273
 30
0.0
 40
3.5
 41
0.0
 71
     5
 72
     1
  1
\A1;70
  7
ISOCPEUR
 11
0.0
 21
1.0
 31
0.0
 73
     1
 44
1.0
  0
POINT
  5
F0
330
E7
100
AcDbEntity
  8
Defpoints
 62
     0
100
AcDbPoint
 10
109.695366
 20
218.077273
 30
0.0
  0
POINT
  5
F1
330
E7
100
AcDbEntity
  8
Defpoints
 62
     0
100
AcDbPoint
 10
109.695366
 20
148.277273
 30
0.0
  0
POINT
  5
F2
330
E7
100
AcDbEntity
  8
Defpoints
 62
     0
100
AcDbPoint
 10
128.695366
 20
148.277273
 30
0.0
  0
ENDBLK
  5
E9
330
E7
100
AcDbEntity
  8
0
100
AcDbBlockEnd
  0
BLOCK
  5
FA
330
F3
100
AcDbEntity
  8
0
100
AcDbBlockBegin
  2
_U0
 70
     0
 10
0.0
 20
0.0
 30
0.0
  3
_U0
  1
_U0
  0
MTEXT
  5
F4
330
F3
100
AcDbEntity
  8
1
  6
Continuous
 62
    35
370
    13
100
AcDbMText
 10
127.995173
 20
181.777273
 30
0.0
 40
3.5
 41
0.0
 71
     7
 72
     5
  1
\W1.0000;70
  7
ISOCPEUR
 11
6.123233995736766E-17
 21
1.0
 31
0.0
 73
     2
 44
1.115371
  0
LINE
  5
F5
330
F3
100
AcDbEntity
  8
1
 62
    35
370
    13
100
AcDbLine
 10
109.695366
 20
218.077273
 30
0.0
 11
129.695366
 21
218.077273
 31
0.0
  0
LINE
  5
F6
330
F3
100
AcDbEntity
  8
1
 62
    35
370
    13
100
AcDbLine
 10
109.695366
 20
148.277273
 30
0.0
 11
129.695366
 21
148.277273
 31
0.0
  0
LINE
  5
F7
330
F3
100
AcDbEntity
  8
1
 62
    35
370
    13
100
AcDbLine
 10
128.695366
 20
218.077273
 30
0.0
 11
128.695366
 21
148.277273
 31
0.0
  0
SOLID
  5
F8
330
F3
100
AcDbEntity
  8
1
 62
    35
370
    18
100
AcDbTrace
 10
128.695366
 20
218.077273
 30
0.0
 11
129.748586
 21
210.077277
 31
0.0
 12
127.642146
 22
210.07727
 32
0.0
 13
128.695366
 23
218.077273
 33
0.0
  0
SOLID
  5
F9
330
F3
100
AcDbEntity
  8
1
 62
    35
370
    18
100
AcDbTrace
 10
128.695366
 20
148.277273
 30
0.0
 11
127.642146
 21
156.27727
 31
0.0
 12
129.748586
 22
156.277277
 32
0.0
 13
128.695366
 23
148.277273
 33
0.0
  0
ENDBLK
  5
FB
330
F3
100
AcDbEntity
  8
0
100
AcDbBlockEnd
  0
BLOCK
  5
100
330
FF
100
AcDbEntity
  8
0
100
AcDbBlockBegin
  2
*D3
 70
     1
 10
0.0
 20
0.0
 30
0.0
  3
*D3
  1
*D3
  0
LINE
  5
102
330
FF
100
AcDbEntity
  8
0
 62
    35
370
    -2
100
AcDbLine
 10
104.695366
 20
166.744501
 30
0.0
 11
104.695366
 21
131.277273
 31
0.0
  0
LINE
  5
103
330
FF
100
AcDbEntity
  8
0
 62
    35
370
    -2
100
AcDbLine
 10
114.695366
 20
166.744501
 30
0.0
 11
114.695366
 21
131.277273
 31
0.0
  0
LINE
  5
104
330
FF
100
AcDbEntity
  8
0
 62
    35
370
    -2
100
AcDbLine
 10
114.695366
 20
132.277273
 30
0.0
 11
144.695366
 21
132.277273
 31
0.0
  0
LINE
  5
105
330
FF
100
AcDbEntity
  8
0
 62
    35
370
    -2
100
AcDbLine
 10
96.695366
 20
132.277273
 30
0.0
 11
88.695366
 21
132.277273
 31
0.0
  0
LINE
  5
106
330
FF
100
AcDbEntity
  8
0
 62
    35
370
    -2
100
AcDbLine
 10
122.695366
 20
132.277273
 30
0.0
 11
130.695366
 21
132.277273
 31
0.0
  0
SOLID
  5
107
330
FF
100
AcDbEntity
  8
0
 62
    35
100
AcDbTrace
 10
96.695366
 20
130.94394
 30
0.0
 11
96.695366
 21
133.610607
 31
0.0
 12
104.695366
 22
132.277273
 32
0.0
 13
104.695366
 23
132.277273
 33
0.0
  0
SOLID
  5
108
330
FF
100
AcDbEntity
  8
0
 62
    35
100
AcDbTrace
 10
122.695366
 20
133.610607
 30
0.0
 11
122.695366
 21
130.94394
 31
0.0
 12
114.695366
 22
132.277273
 32
0.0
 13
114.695366
 23
132.277273
 33
0.0
  0
MTEXT
  5
109
330
FF
100
AcDbEntity
  8
0
 62
    35
370
    18
100
AcDbMText
 10
137.695366
 20
139.277273
 30
0.0
 40
3.5
 41
0.0
 71
     5
 72
     1
  1
\A1;10
  7
ISOCPEUR
 73
     1
 44
1.0
  0
POINT
  5
10A
330
FF
100
AcDbEntity
  8
Defpoints
 62
     0
100
AcDbPoint
 10
104.695366
 20
166.744501
 30
0.0
  0
POINT
  5
10B
330
FF
100
AcDbEntity
  8
Defpoints
 62
     0
100
AcDbPoint
 10
114.695366
 20
166.744501
 30
0.0
  0
POINT
  5
10C
330
FF
100
AcDbEntity
  8
Defpoints
 62
     0
100
AcDbPoint
 10
114.695366
 20
132.277273
 30
0.0
  0
ENDBLK
  5
101
330
FF
100
AcDbEntity
  8
0
100
AcDbBlockEnd
  0
BLOCK
  5
115
330
10D
100
AcDbEntity
  8
0
100
AcDbBlockBegin
  2
_U1
 70
     0
 10
0.0
 20
0.0
 30
0.0
  3
_U1
  1
_U1
  0
MTEXT
  5
10E
330
10D
100
AcDbEntity
  8
1
  6
Continuous
 62
    35
370
    13
100
AcDbMText
 10
131.024478
 20
133.672255
 30
0.0
 40
3.5
 41
0.0
 71
     7
 72
     5
  1
\W1.0000;10
  7
ISOCPEUR
 73
     2
 44
1.115371
  0
MTEXT
  5
10F
330
10D
100
AcDbEntity
  8
1
  6
Continuous
 62
    35
370
    13
100
AcDbMText
 10
127.488303
 20
133.672255
 30
0.0
 40
3.5
 41
0.0
 71
     7
 72
     5
  1
%%c
  7
ISOCPEUR
 73
     2
 44
1.115371
  0
LINE
  5
110
330
10D
100
AcDbEntity
  8
1
 62
    35
370
    13
100
AcDbLine
 10
104.695366
 20
162.382089
 30
0.0
 11
104.695366
 21
131.277273
 31
0.0
  0
LINE
  5
111
330
10D
100
AcDbEntity
  8
1
 62
    35
370
    13
100
AcDbLine
 10
114.695366
 20
162.382089
 30
0.0
 11
114.695366
 21
131.277273
 31
0.0
  0
LINE
  5
112
330
10D
100
AcDbEntity
  8
1
 62
    35
370
    13
100
AcDbLine
 10
133.999478
 20
132.277273
 30
0.0
 11
94.195366
 21
132.277273
 31
0.0
  0
SOLID
  5
113
330
10D
100
AcDbEntity
  8
1
 62
    35
370
    18
100
AcDbTrace
 10
104.695366
 20
132.277273
 30
0.0
 11
96.695369
 21
131.224053
 31
0.0
 12
96.695362
 22
133.330493
 32
0.0
 13
104.695366
 23
132.277273
 33
0.0
  0
SOLID
  5
114
330
10D
100
AcDbEntity
  8
1
 62
    35
370
    18
100
AcDbTrace
 10
114.695366
 20
132.277273
 30
0.0
 11
122.695362
 21
133.330493
 31
0.0
 12
122.695369
 22
131.224053
 32
0.0
 13
114.695366
 23
132.277273
 33
0.0
  0
ENDBLK
  5
116
330
10D
100
AcDbEntity
  8
0
100
AcDbBlockEnd
  0
ENDSEC
  0
SECTION
  2
ENTITIES
  0
POINT
  5
6F
330
1F
100
AcDbEntity
  8
1
  6
Continuous
 62
   203
 60
     1
370
    13
100
AcDbPoint
 10
109.695366
 20
209.077273
 30
0.0
  0
POINT
  5
71
102
{ACAD_REACTORS
330
E5
102
}
330
1F
100
AcDbEntity
  8
1
  6
Continuous
 62
   163
 60
     1
370
    18
100
AcDbPoint
 10
109.695366
 20
218.077273
 30
0.0
  0
POINT
  5
72
102
{ACAD_REACTORS
330
E5
102
}
330
1F
100
AcDbEntity
  8
1
  6
Continuous
 62
   163
 60
     1
370
    18
100
AcDbPoint
 10
109.695366
 20
148.277273
 30
0.0
  0
LINE
  5
73
330
1F
100
AcDbEntity
  8
1
  6
Continuous
 62
   155
370
    25
100
AcDbLine
 10
107.176836
 20
183.977273
 30
0.0
 11
112.199031
 21
183.977273
 31
0.0
  0
LINE
  5
74
102
{ACAD_REACTORS
330
FE
102
}
330
1F
100
AcDbEntity
  8
1
  6
Continuous
 62
   155
370
    25
100
AcDbLine
 10
114.695366
 20
162.382089
 30
0.0
 11
114.695366
 21
209.077273
 31
0.0
  0
LINE
  5
75
102
{ACAD_REACTORS
330
FE
102
}
330
1F
100
AcDbEntity
  8
1
  6
Continuous
 62
   155
370
    25
100
AcDbLine
 10
104.695366
 20
209.077273
 30
0.0
 11
104.695366
 21
162.382089
 31
0.0
  0
LINE
  5
76
330
1F
100
AcDbEntity
  8
1
  6
Continuous
 62
   155
370
    25
100
AcDbLine
 10
113.695366
 20
218.077273
 30
0.0
 11
105.695366
 21
218.077273
 31
0.0
  0
LINE
  5
77
330
1F
100
AcDbEntity
  8
1
  6
Continuous
 62
   155
370
    25
100
AcDbLine
 10
107.067229
 20
148.277273
 30
0.0
 11
112.323502
 21
148.277273
 31
0.0
  0
LINE
  5
78
330
1F
100
AcDbEntity
  8
1
  6
Continuous
 62
   155
370
    25
100
AcDbLine
 10
114.695366
 20
209.077273
 30
0.0
 11
114.695366
 21
217.077273
 31
0.0
  0
LINE
  5
79
330
1F
100
AcDbEntity
  8
1
  6
Continuous
 62
   155
370
    25
100
AcDbLine
 10
104.695366
 20
217.077273
 30
0.0
 11
104.695366
 21
209.077273
 31
0.0
  0
LINE
  5
7A
330
1F
100
AcDbEntity
  8
1
  6
Continuous
 62
   155
370
    25
100
AcDbLine
 10
114.695366
 20
217.077273
 30
0.0
 11
113.695366
 21
218.077273
 31
0.0
  0
LINE
  5
7B
330
1F
100
AcDbEntity
  8
1
  6
Continuous
 62
   155
370
    25
100
AcDbLine
 10
105.695366
 20
218.077273
 30
0.0
 11
104.695366
 21
217.077273
 31
0.0
  0
LINE
  5
7C
330
1F
100
AcDbEntity
  8
1
  6
Continuous
 62
   155
370
    25
100
AcDbLine
 10
104.706322
 20
162.173032
 30
0.0
 11
106.072707
 21
149.172745
 31
0.0
  0
LINE
  5
7D
330
1F
100
AcDbEntity
  8
1
  6
Continuous
 62
   155
370
    25
100
AcDbLine
 10
113.318024
 20
149.172745
 30
0.0
 11
114.684409
 21
162.173032
 31
0.0
  0
LINE
  5
7E
330
1F
100
AcDbEntity
  8
1
  6
Continuous
 62
   155
370
    25
100
AcDbLine
 10
114.695366
 20
209.077273
 30
0.0
 11
104.695366
 21
209.077273
 31
0.0
  0
LINE
  5
7F
330
1F
100
AcDbEntity
  8
1
  6
Continuous
 62
   155
370
    25
100
AcDbLine
 10
114.695366
 20
217.077273
 30
0.0
 11
104.695366
 21
217.077273
 31
0.0
  0
LINE
  5
80
330
1F
100
AcDbEntity
  8
1
  6
Continuous
 62
   155
370
    25
100
AcDbLine
 10
104.695366
 20
209.077273
 30
0.0
 11
114.695366
 21
209.077273
 31
0.0
  0
LINE
  5
81
330
1F
100
AcDbEntity
  8
1
  6
Continuous
 62
   230
370
    13
100
AcDbLine
 10
113.692542
 20
162.277273
 30
0.0
 11
104.698114
 21
162.277273
 31
0.0
  0
LINE
  5
82
102
{ACAD_REACTORS
330
120
102
}
330
1F
100
AcDbEntity
  8
256
  6
Continuous
 62
     2
370
    13
100
AcDbLine
 10
106.914809
 20
24.5
 30
0.0
 11
205.0
 21
24.5
 31
0.0
  0
LINE
  5
84
102
{ACAD_REACTORS
330
120
102
}
330
1F
100
AcDbEntity
  8
256
  6
Continuous
 62
     2
370
    18
100
AcDbLine
 10
65.932916
 20
5.054708
 30
0.0
 11
65.932916
 21
30.530208
 31
0.0
  0
LINE
  5
85
102
{ACAD_REACTORS
330
120
102
}
330
1F
100
AcDbEntity
  8
256
  6
Continuous
 62
     2
370
    13
100
AcDbLine
 10
20.0
 20
24.5
 30
0.0
 11
106.914809
 21
24.5
 31
0.0
  0
LINE
  5
86
102
{ACAD_REACTORS
330
120
102
}
330
1F
100
AcDbEntity
  8
256
  6
Continuous
 62
     2
370
    18
100
AcDbLine
 10
138.3325
 20
18.5
 30
0.0
 11
138.3325
 21
30.4755
 31
0.0
  0
LINE
  5
87
102
{ACAD_REACTORS
330
120
102
}
330
1F
100
AcDbEntity
  8
256
  6
Continuous
 62
     2
370
    18
100
AcDbLine
 10
138.3325
 20
5.0
 30
0.0
 11
138.3325
 21
18.5
 31
0.0
  0
LINE
  5
88
102
{ACAD_REACTORS
330
120
102
}
330
1F
100
AcDbEntity
  8
256
  6
Continuous
 62
   140
370
    18
100
AcDbLine
 10
209.9
 20
296.9
 30
0.0
 11
0.1
 21
296.9
 31
0.0
  0
LINE
  5
89
102
{ACAD_REACTORS
330
120
102
}
330
1F
100
AcDbEntity
  8
256
  6
Continuous
 62
   140
370
    18
100
AcDbLine
 10
0.1
 20
296.9
 30
0.0
 11
0.1
 21
0.1
 31
0.0
  0
LINE
  5
8A
102
{ACAD_REACTORS
330
120
102
}
330
1F
100
AcDbEntity
  8
256
  6
Continuous
 62
     2
370
    25
100
AcDbLine
 10
205.0
 20
148.5
 30
0.0
 11
209.9
 21
148.5
 31
0.0
  0
LINE
  5
8B
102
{ACAD_REACTORS
330
120
102
}
330
1F
100
AcDbEntity
  8
256
  6
Continuous
 62
     2
370
    25
100
AcDbLine
 10
205.0
 20
292.0
 30
0.0
 11
20.0
 21
292.0
 31
0.0
  0
LINE
  5
8C
102
{ACAD_REACTORS
330
120
102
}
330
1F
100
AcDbEntity
  8
256
  6
Continuous
 62
   140
370
    18
100
AcDbLine
 10
0.1
 20
0.1
 30
0.0
 11
209.9
 21
0.1
 31
0.0
  0
LINE
  5
8D
102
{ACAD_REACTORS
330
120
102
}
330
1F
100
AcDbEntity
  8
256
  6
Continuous
 62
     2
370
    25
100
AcDbLine
 10
105.0
 20
292.0
 30
0.0
 11
105.0
 21
296.9
 31
0.0
  0
LINE
  5
8E
102
{ACAD_REACTORS
330
120
102
}
330
1F
100
AcDbEntity
  8
256
  6
Continuous
 62
     2
370
    25
100
AcDbLine
 10
205.0
 20
5.0
 30
0.0
 11
205.0
 21
292.0
 31
0.0
  0
LINE
  5
8F
102
{ACAD_REACTORS
330
120
102
}
330
1F
100
AcDbEntity
  8
256
  6
Continuous
 62
     2
370
    25
100
AcDbLine
 10
105.0
 20
0.1
 30
0.0
 11
105.0
 21
5.0
 31
0.0
  0
LINE
  5
90
102
{ACAD_REACTORS
330
120
102
}
330
1F
100
AcDbEntity
  8
256
  6
Continuous
 62
   140
370
    18
100
AcDbLine
 10
209.9
 20
0.1
 30
0.0
 11
209.9
 21
296.9
 31
0.0
  0
LINE
  5
91
102
{ACAD_REACTORS
330
120
102
}
330
1F
100
AcDbEntity
  8
256
  6
Continuous
 62
     2
370
    25
100
AcDbLine
 10
20.0
 20
5.0
 30
0.0
 11
205.0
 21
5.0
 31
0.0
  0
LINE
  5
92
102
{ACAD_REACTORS
330
120
102
}
330
1F
100
AcDbEntity
  8
256
  6
Continuous
 62
   140
370
    18
100
AcDbLine
 10
20.0
 20
292.0
 30
0.0
 11
20.0
 21
5.0
 31
0.0
  0
LINE
  5
93
102
{ACAD_REACTORS
330
120
102
}
330
1F
100
AcDbEntity
  8
256
  6
Continuous
 62
     2
370
    25
100
AcDbLine
 10
20.0
 20
5.0
 30
0.0
 11
20.0
 21
30.4755
 31
0.0
  0
LINE
  5
94
102
{ACAD_REACTORS
330
120
102
}
330
1F
100
AcDbEntity
  8
256
  6
Continuous
 62
     2
370
    25
100
AcDbLine
 10
20.0
 20
30.4755
 30
0.0
 11
205.0
 21
30.4755
 31
0.0
  0
LINE
  5
95
102
{ACAD_REACTORS
330
120
102
}
330
1F
100
AcDbEntity
  8
256
  6
Continuous
 62
     2
370
    13
100
AcDbLine
 10
138.322529
 20
14.00233
 30
0.0
 11
205.0
 21
14.0
 31
0.0
  0
LINE
  5
96
102
{ACAD_REACTORS
330
120
102
}
330
1F
100
AcDbEntity
  8
256
  6
Continuous
 62
     2
370
    13
100
AcDbLine
 10
173.356458
 20
18.5
 30
0.0
 11
173.356458
 21
14.0
 31
0.0
  0
LINE
  5
97
102
{ACAD_REACTORS
330
120
102
}
330
1F
100
AcDbEntity
  8
255
  6
Continuous
 62
   163
370
    13
100
AcDbLine
 10
205.0
 20
130.4755
 30
0.0
 11
205.0
 21
120.4755
 31
0.0
  0
LINE
  5
99
102
{ACAD_REACTORS
330
120
102
}
330
1F
100
AcDbEntity
  8
255
  6
Continuous
 62
   163
370
    13
100
AcDbLine
 10
205.0
 20
30.4755
 30
0.0
 11
205.0
 21
20.4755
 31
0.0
  0
LINE
  5
9A
102
{ACAD_REACTORS
330
120
102
}
330
1F
100
AcDbEntity
  8
255
  6
Continuous
 62
   163
370
    13
100
AcDbLine
 10
205.0
 20
45.4755
 30
0.0
 11
205.0
 21
35.4755
 31
0.0
  0
LINE
  5
9B
102
{ACAD_REACTORS
330
120
102
}
330
1F
100
AcDbEntity
  8
255
  6
Continuous
 62
   163
370
    13
100
AcDbLine
 10
205.0
 20
130.4755
 30
0.0
 11
205.0
 21
120.4755
 31
0.0
  0
LINE
  5
9C
102
{ACAD_REACTORS
330
120
102
}
330
1F
100
AcDbEntity
  8
256
  6
Continuous
 62
     2
370
    18
100
AcDbLine
 10
20.0
 20
18.5
 30
0.0
 11
65.932916
 21
18.5
 31
0.0
  0
LINE
  5
9D
102
{ACAD_REACTORS
330
120
102
}
330
1F
100
AcDbEntity
  8
256
  6
Continuous
 62
     2
370
    13
100
AcDbLine
 10
138.3325
 20
18.5
 30
0.0
 11
205.0
 21
18.5
 31
0.0
  0
LINE
  5
9E
102
{ACAD_REACTORS
330
120
102
}
330
1F
100
AcDbEntity
  8
256
  6
Continuous
 62
     2
370
    13
100
AcDbLine
 10
106.914809
 20
24.5
 30
0.0
 11
106.914809
 21
30.4755
 31
0.0
  0
ARC
  5
9F
330
1F
100
AcDbEntity
  8
1
  6
Continuous
 62
   155
370
    25
100
AcDbCircle
 10
112.695366
 20
162.382089
 30
0.0
 40
2.0
100
AcDbArc
 50
354.0
 51
360.0
  0
ARC
  5
A0
330
1F
100
AcDbEntity
  8
1
  6
Continuous
 62
   155
370
    25
100
AcDbCircle
 10
106.695366
 20
162.382089
 30
0.0
 40
2.0
100
AcDbArc
 50
180.0
 51
186.0
  0
ARC
  5
A1
330
1F
100
AcDbEntity
  8
1
  6
Continuous
 62
   155
370
    25
100
AcDbCircle
 10
107.067229
 20
149.277273
 30
0.0
 40
1.0
100
AcDbArc
 50
186.0
 51
270.0
  0
ARC
  5
A2
330
1F
100
AcDbEntity
  8
1
  6
Continuous
 62
   155
370
    25
100
AcDbCircle
 10
112.323502
 20
149.277273
 30
0.0
 40
1.0
100
AcDbArc
 50
270.0
 51
354.0
  0
SPLINE
  5
A3
330
1F
100
AcDbEntity
  8
1
  6
Continuous
 62
   155
370
    25
100
AcDbSpline
210
0.0
220
0.0
230
1.0
 70
    11
 71
     3
 72
   177
 73
   173
 74
     0
 42
0.000000001
 43
0.0000000001
 40
0.0
 40
0.0
 40
0.0
 40
0.0
 40
0.0156250000000013
 40
0.0156250000000013
 40
0.0312500000000026
 40
0.0468750000000039
 40
0.0468750000000039
 40
0.0507812500000043
 40
0.0507812500000043
 40
0.0546875000000047
 40
0.0625000000000055
 40
0.0625000000000055
 40
0.0781250000000074
 40
0.0781250000000074
 40
0.0937500000000092
 40
0.0937500000000092
 40
0.1015625000000103
 40
0.1015625000000103
 40
0.1093750000000114
 40
0.1093750000000114
 40
0.1250000000000133
 40
0.1250000000000133
 40
0.1406250000000151
 40
0.1406250000000151
 40
0.148437500000016
 40
0.148437500000016
 40
0.1523437500000162
 40
0.1523437500000162
 40
0.1562500000000164
 40
0.1718750000000172
 40
0.1718750000000172
 40
0.1875000000000179
 40
0.1875000000000179
 40
0.2031250000000186
 40
0.2031250000000186
 40
0.210937500000019
 40
0.210937500000019
 40
0.2187500000000194
 40
0.2187500000000194
 40
0.2343750000000203
 40
0.2500000000000211
 40
0.2500000000000211
 40
0.2578125000000215
 40
0.2578125000000215
 40
0.2617187500000214
 40
0.2617187500000214
 40
0.2656250000000213
 40
0.2812500000000221
 40
0.2968750000000229
 40
0.2968750000000229
 40
0.304687500000023
 40
0.304687500000023
 40
0.308593750000023
 40
0.308593750000023
 40
0.3125000000000231
 40
0.3281250000000233
 40
0.3281250000000233
 40
0.3437500000000236
 40
0.3437500000000236
 40
0.3515625000000237
 40
0.3515625000000237
 40
0.3593750000000239
 40
0.3593750000000239
 40
0.3750000000000245
 40
0.3750000000000245
 40
0.3906250000000253
 40
0.3906250000000253
 40
0.4062500000000259
 40
0.4062500000000259
 40
0.4101562500000259
 40
0.4101562500000259
 40
0.4140625000000259
 40
0.4218750000000259
 40
0.4218750000000259
 40
0.4375000000000262
 40
0.4375000000000262
 40
0.4531250000000265
 40
0.4531250000000265
 40
0.4609375000000265
 40
0.4609375000000265
 40
0.4687500000000266
 40
0.4687500000000266
 40
0.4843750000000267
 40
0.5000000000000268
 40
0.5000000000000268
 40
0.5156250000000269
 40
0.5156250000000269
 40
0.523437500000027
 40
0.523437500000027
 40
0.531250000000027
 40
0.531250000000027
 40
0.5468750000000271
 40
0.5625000000000272
 40
0.5625000000000272
 40
0.5664062500000272
 40
0.5664062500000272
 40
0.5703125000000272
 40
0.5781250000000271
 40
0.5781250000000271
 40
0.5937500000000272
 40
0.5937500000000272
 40
0.6093750000000274
 40
0.6093750000000274
 40
0.6171875000000278
 40
0.6171875000000278
 40
0.6250000000000281
 40
0.6250000000000281
 40
0.6406250000000285
 40
0.6406250000000285
 40
0.6562500000000291
 40
0.6562500000000291
 40
0.6640625000000293
 40
0.6640625000000293
 40
0.6679687500000292
 40
0.6679687500000292
 40
0.6718750000000291
 40
0.6875000000000274
 40
0.7031250000000256
 40
0.7031250000000256
 40
0.718750000000024
 40
0.718750000000024
 40
0.7265625000000231
 40
0.7265625000000231
 40
0.7343750000000222
 40
0.7343750000000222
 40
0.7500000000000204
 40
0.7656250000000188
 40
0.7656250000000188
 40
0.7734375000000179
 40
0.7734375000000179
 40
0.781250000000017
 40
0.781250000000017
 40
0.7968750000000159
 40
0.8125000000000147
 40
0.8125000000000147
 40
0.8203125000000141
 40
0.8203125000000141
 40
0.8281250000000135
 40
0.8281250000000135
 40
0.8437500000000124
 40
0.8437500000000124
 40
0.8593750000000113
 40
0.8593750000000113
 40
0.8671875000000109
 40
0.8671875000000109
 40
0.8710937500000108
 40
0.8710937500000108
 40
0.8750000000000107
 40
0.8906250000000092
 40
0.8906250000000092
 40
0.9062500000000078
 40
0.9062500000000078
 40
0.9218750000000062
 40
0.9218750000000062
 40
0.9257812500000059
 40
0.9257812500000059
 40
0.9296875000000056
 40
0.9375000000000049
 40
0.9375000000000049
 40
0.9531250000000038
 40
0.9531250000000038
 40
0.9687500000000027
 40
0.9687500000000027
 40
0.976562500000002
 40
0.976562500000002
 40
0.9804687500000017
 40
0.9804687500000017
 40
0.9843750000000013
 40
0.9921875000000008
 40
0.9960937500000004
 40
0.9960937500000004
 40
1.0
 40
1.0
 40
1.0
 40
1.0
 10
109.6953655354232
 20
186.4772734620063
 30
0.0
 10
109.7794143869072
 20
186.4772734620063
 30
0.0
 10
109.8626277056658
 20
186.4730467080054
 30
0.0
 10
110.0274585110545
 20
186.4565021696038
 30
0.0
 10
110.1906930671123
 20
186.4318642614463
 30
0.0
 10
110.3507976336168
 20
186.3912506008868
 30
0.0
 10
110.4498789109546
 20
186.360787542108
 30
0.0
 10
110.4696751404143
 20
186.3544302518284
 30
0.0
 10
110.5089903873878
 20
186.3412626913714
 30
0.0
 10
110.5675516780026
 20
186.3208328767261
 30
0.0
 10
110.6249031358339
 20
186.298400897478
 30
0.0
 10
110.7380444706765
 20
186.2509294445784
 30
0.0
 10
110.8113937417267
 20
186.2158123368114
 30
0.0
 10
110.9541101598096
 20
186.1387861781052
 30
0.0
 10
111.0234770191718
 20
186.096877053281
 30
0.0
 10
111.1245812048305
 20
186.0288563739728
 30
0.0
 10
111.1578711905411
 20
186.0052589405168
 30
0.0
 10
111.2229424400775
 20
185.956706889194
 30
0.0
 10
111.2547437701074
 20
185.931746094113
 30
0.0
 10
111.3480125182416
 20
185.8548391583337
 30
0.0
 10
111.4073505650176
 20
185.8008744640942
 30
0.0
 10
111.5205531253714
 20
185.6875668923481
 30
0.0
 10
111.5744174364832
 20
185.628224289874
 30
0.0
 10
111.6511247334686
 20
185.5350361621597
 30
0.0
 10
111.6760108734158
 20
185.5032761997073
 30
0.0
 10
111.7123041677734
 20
185.4545576699124
 30
0.0
 10
111.7242445342572
 20
185.4381161751946
 30
0.0
 10
111.7476813969009
 20
185.4050039452571
 30
0.0
 10
111.8051691272468
 20
185.3216391524997
 30
0.0
 10
111.857232661294
 20
185.2353753970019
 30
0.0
 10
111.9337458535703
 20
185.0935814392654
 30
0.0
 10
111.9686081571689
 20
185.0207986578027
 30
0.0
 10
112.0314598391506
 20
184.8712758421348
 30
0.0
 10
112.0594504542201
 20
184.7945366285149
 30
0.0
 10
112.0960281971788
 20
184.6762176165036
 30
0.0
 10
112.1073446305253
 20
184.6361172501212
 30
0.0
 10
112.1278612217177
 20
184.5557914206781
 30
0.0
 10
112.1370913298398
 20
184.5154907732088
 30
0.0
 10
112.1617401123394
 20
184.3941771014864
 30
0.0
 10
112.1865079287008
 20
184.2313288961555
 30
0.0
 10
112.1951627578263
 20
184.0662666262726
 30
0.0
 10
112.1954565115193
 20
183.9416140264015
 30
0.0
 10
112.1945196033929
 20
183.8999203247946
 30
0.0
 10
112.1915239845293
 20
183.8371605155032
 30
0.0
 10
112.1902572898566
 20
183.8161671675394
 30
0.0
 10
112.1872029745047
 20
183.7743210566351
 30
0.0
 10
112.1782646412531
 20
183.6700752213263
 30
0.0
 10
112.1507066428539
 20
183.4856843534787
 30
0.0
 10
112.1104924612172
 20
183.3261740620455
 30
0.0
 10
112.0744683381208
 20
183.2081427980244
 30
0.0
 10
112.0614810999365
 20
183.1690663701246
 30
0.0
 10
112.0405173839079
 20
183.1108508171334
 30
0.0
 10
112.0332721623794
 20
183.0914872835974
 30
0.0
 10
112.0183551581385
 20
183.0530724938673
 30
0.0
 10
111.9799734901286
 20
182.9577636326496
 30
0.0
 10
111.9362587096832
 20
182.865991787482
 30
0.0
 10
111.8596964642513
 20
182.7233911672527
 30
0.0
 10
111.8181053726295
 20
182.6542086836037
 30
0.0
 10
111.7507281578179
 20
182.5535053290084
 30
0.0
 10
111.727435507875
 20
182.5204503857725
 30
0.0
 10
111.6791564980421
 20
182.4553617480692
 30
0.0
 10
111.6541481172022
 20
182.4233097422565
 30
0.0
 10
111.5772906036505
 20
182.329581798651
 30
0.0
 10
111.5233904613809
 20
182.2700105513995
 30
0.0
 10
111.4102995732561
 20
182.1564431509288
 30
0.0
 10
111.351108706859
 20
182.1024476318677
 30
0.0
 10
111.2272900924285
 20
181.9999863066454
 30
0.0
 10
111.1626632339736
 20
181.9515200449037
 30
0.0
 10
111.0782724675351
 20
181.8944908563777
 30
0.0
 10
111.0611932142011
 20
181.8832508360635
 30
0.0
 10
111.0268455994907
 20
181.8612447590336
 30
0.0
 10
110.9749932793496
 20
181.8289134663444
 30
0.0
 10
110.9221518450327
 20
181.7985947089662
 30
0.0
 10
110.8151494727053
 20
181.7406092119722
 30
0.0
 10
110.7420583640876
 20
181.7054811254947
 30
0.0
 10
110.5922844984794
 20
181.6422910912977
 30
0.0
 10
110.5156021684695
 20
181.6142286151301
 30
0.0
 10
110.3977463658996
 20
181.5776165199385
 30
0.0
 10
110.3579881841344
 20
181.5663279636865
 30
0.0
 10
110.2774912316441
 20
181.5456368435428
 30
0.0
 10
110.2366569122661
 20
181.5362207890776
 30
0.0
 10
110.1142439873745
 20
181.5112083349728
 30
0.0
 10
109.9503718614436
 20
181.486199387857
 30
0.0
 10
109.7852095677701
 20
181.4775131385604
 30
0.0
 10
109.6193955526936
 20
181.4770530344146
 30
0.0
 10
109.5361627493479
 20
181.4809351441883
 30
0.0
 10
109.410806930967
 20
181.4931661713172
 30
0.0
 10
109.3692326872497
 20
181.4982873367042
 30
0.0
 10
109.2868338991529
 20
181.5105272759822
 30
0.0
 10
109.2459537897263
 20
181.5176514131686
 30
0.0
 10
109.1242486485609
 20
181.5419763331153
 30
0.0
 10
108.9644644909462
 20
181.5822684832298
 30
0.0
 10
108.809522872489
 20
181.6380193720993
 30
0.0
 10
108.7141958674813
 20
181.6777663919477
 30
0.0
 10
108.6952117994073
 20
181.685960171226
 30
0.0
 10
108.6576010777712
 20
181.7027471983083
 30
0.0
 10
108.601642760719
 20
181.7285598947294
 30
0.0
 10
108.5470308620828
 20
181.7562416277562
 30
0.0
 10
108.4395473924241
 20
181.8140488979107
 30
0.0
 10
108.370207785237
 20
181.8558385577116
 30
0.0
 10
108.2359821284574
 20
181.9458382089127
 30
0.0
 10
108.171096284462
 20
181.9940480128145
 30
0.0
 10
108.0770786505941
 20
182.0712848625317
 30
0.0
 10
108.0462696267246
 20
182.097880382713
 30
0.0
 10
107.9863413420242
 20
182.1522058005321
 30
0.0
 10
107.9571453921427
 20
182.1799957257339
 30
0.0
 10
107.8718024461638
 20
182.2652326416064
 30
0.0
 10
107.8178940604248
 20
182.324541207949
 30
0.0
 10
107.7158926785391
 20
182.4481854161787
 30
0.0
 10
107.6677996000062
 20
182.5125205525146
 30
0.0
 10
107.6000555123225
 20
182.612976176157
 30
0.0
 10
107.5782083254555
 20
182.6471216862206
 30
0.0
 10
107.5465583737274
 20
182.6993679954592
 30
0.0
 10
107.5361831783222
 20
182.7169769420906
 30
0.0
 10
107.5159128028937
 20
182.7523633420105
 30
0.0
 10
107.4663959576853
 20
182.8413245990335
 30
0.0
 10
107.3875318654364
 20
183.0058863160702
 30
0.0
 10
107.3318013586164
 20
183.1585912907187
 30
0.0
 10
107.2833885104787
 20
183.3146703027863
 30
0.0
 10
107.2628395766739
 20
183.3943962135928
 30
0.0
 10
107.2378019586899
 20
183.5167157859323
 30
0.0
 10
107.2304113623196
 20
183.5580571451312
 30
0.0
 10
107.2177933361785
 20
183.6405578648556
 30
0.0
 10
107.2125374980126
 20
183.6818285817471
 30
0.0
 10
107.1998786423529
 20
183.8057011895282
 30
0.0
 10
107.1912759046045
 20
183.9710257032779
 30
0.0
 10
107.1990621218222
 20
184.1366707654259
 30
0.0
 10
107.2111717632011
 20
184.2610266299648
 30
0.0
 10
107.2162552294446
 20
184.3024989547399
 30
0.0
 10
107.2285613507882
 20
184.3854849819324
 30
0.0
 10
107.2357250084092
 20
184.4265989707118
 30
0.0
 10
107.2601486186478
 20
184.5487787619485
 30
0.0
 10
107.3005258853652
 20
184.7086528914991
 30
0.0
 10
107.3560129607929
 20
184.8627963951378
 30
0.0
 10
107.4032948585903
 20
184.9763191795717
 30
0.0
 10
107.4200284290651
 20
185.0138673411125
 30
0.0
 10
107.455295340706
 20
185.0880260629533
 30
0.0
 10
107.4737465888395
 20
185.1244718728783
 30
0.0
 10
107.5314989964212
 20
185.231985123024
 30
0.0
 10
107.573191717384
 20
185.3012337711281
 30
0.0
 10
107.6628520270946
 20
185.4351422669963
 30
0.0
 10
107.7108198929006
 20
185.4998015679665
 30
0.0
 10
107.7875671704296
 20
185.5934212611576
 30
0.0
 10
107.8139505690659
 20
185.6240650342808
 30
0.0
 10
107.8547544943844
 20
185.6691842708681
 30
0.0
 10
107.8685590905506
 20
185.6840798820386
 30
0.0
 10
107.89644272979
 20
185.7134445353774
 30
0.0
 10
107.966925313453
 20
185.7858778580368
 30
0.0
 10
108.0412343357136
 20
185.8535190758849
 30
0.0
 10
108.1650451956641
 20
185.955800006476
 30
0.0
 10
108.2294087224812
 20
186.0039675964429
 30
0.0
 10
108.363230669244
 20
186.0943316072353
 30
0.0
 10
108.4326880480101
 20
186.1365288298274
 30
0.0
 10
108.5229151768602
 20
186.1853905995238
 30
0.0
 10
108.5411440878923
 20
186.1949737504935
 30
0.0
 10
108.5777311606895
 20
186.213635629151
 30
0.0
 10
108.6328815617222
 20
186.240913443613
 30
0.0
 10
108.6888382593623
 20
186.2660661615507
 30
0.0
 10
108.8018264808742
 20
186.3135663960719
 30
0.0
 10
108.8785826078778
 20
186.3415002545004
 30
0.0
 10
109.0350138978485
 20
186.3898733857045
 30
0.0
 10
109.114688730988
 20
186.4103132797915
 30
0.0
 10
109.2364953197971
 20
186.4351496187208
 30
0.0
 10
109.2774805791744
 20
186.4424558776974
 30
0.0
 10
109.3395530101942
 20
186.4519119187739
 30
0.0
 10
109.3603688536146
 20
186.4548162359355
 30
0.0
 10
109.4020346433694
 20
186.4600941543227
 30
0.0
 10
109.4646001387357
 20
186.4672189577748
 30
0.0
 10
109.5482875045098
 20
186.4735614353811
 30
0.0
 10
109.6112537177258
 20
186.475946500062
 30
0.0
 10
109.6532759764426
 20
186.4770074914597
 30
0.0
 10
109.6743533225522
 20
186.4772734620063
 30
0.0
 10
109.6953655354232
 20
186.4772734620063
 30
0.0
  0
SPLINE
  5
A4
330
1F
100
AcDbEntity
  8
1
  6
Continuous
 62
   155
370
    25
100
AcDbSpline
210
0.0
220
0.0
230
1.0
 70
     8
 71
     3
 72
    62
 73
    58
 74
     0
 42
0.000000001
 43
0.0000000001
 40
0.0
 40
0.0
 40
0.0
 40
0.0
 40
0.0625
 40
0.0625
 40
0.125
 40
0.125
 40
0.1874999999999999
 40
0.1874999999999999
 40
0.2499999999999999
 40
0.2499999999999999
 40
0.2812499999999996
 40
0.2812499999999996
 40
0.3124999999999993
 40
0.3124999999999993
 40
0.3437499999999989
 40
0.3437499999999989
 40
0.3749999999999986
 40
0.3749999999999986
 40
0.3906249999999983
 40
0.3906249999999983
 40
0.4062499999999981
 40
0.4062499999999981
 40
0.4374999999999977
 40
0.4374999999999977
 40
0.4687499999999973
 40
0.4687499999999973
 40
0.4843749999999973
 40
0.4843749999999973
 40
0.4921874999999972
 40
0.4921874999999972
 40
0.4999999999999972
 40
0.4999999999999972
 40
0.531249999999997
 40
0.531249999999997
 40
0.5624999999999969
 40
0.5624999999999969
 40
0.5781249999999966
 40
0.5781249999999966
 40
0.5937499999999962
 40
0.5937499999999962
 40
0.6249999999999962
 40
0.6249999999999962
 40
0.6562499999999962
 40
0.6562499999999962
 40
0.6874999999999962
 40
0.6874999999999962
 40
0.749999999999997
 40
0.749999999999997
 40
0.7812499999999972
 40
0.7812499999999972
 40
0.8124999999999976
 40
0.8124999999999976
 40
0.8749999999999983
 40
0.8749999999999983
 40
0.9374999999999992
 40
0.9374999999999992
 40
1.0
 40
1.0
 40
1.0
 40
1.0
 10
107.2172661503685
 20
183.6470864880179
 30
0.0
 10
107.3095575270123
 20
183.5938020368688
 30
0.0
 10
107.4025718881657
 20
183.540995623544
 30
0.0
 10
107.590469706021
 20
183.4365241153753
 30
0.0
 10
107.6853509442808
 20
183.3848595284458
 30
0.0
 10
107.8775708158575
 20
183.2828764830991
 30
0.0
 10
107.9749061044111
 20
183.2325590525839
 30
0.0
 10
108.1728724348252
 20
183.1334712396659
 30
0.0
 10
108.2734986195547
 20
183.0847001262741
 30
0.0
 10
108.4278171396419
 20
183.0128366070007
 30
0.0
 10
108.4797245344968
 20
182.9891447433864
 30
0.0
 10
108.5841949773342
 20
182.9425130451727
 30
0.0
 10
108.6368136994616
 20
182.9195456379152
 30
0.0
 10
108.7429249404125
 20
182.8743992327949
 30
0.0
 10
108.7964167163178
 20
182.8522168428311
 30
0.0
 10
108.9044101698572
 20
182.8088323871383
 30
0.0
 10
108.9589100030573
 20
182.7876229161236
 30
0.0
 10
109.04156855555
 20
182.7568799273655
 30
0.0
 10
109.0692735458957
 20
182.7468134637103
 30
0.0
 10
109.1250260751898
 20
182.7271491932646
 30
0.0
 10
109.1531022066715
 20
182.7175421301573
 30
0.0
 10
109.2374863687871
 20
182.6897970285632
 30
0.0
 10
109.2940525858641
 20
182.6726567416236
 30
0.0
 10
109.4082310063864
 20
182.6430306719452
 30
0.0
 10
109.4658464222143
 20
182.6305597344311
 30
0.0
 10
109.5535483871692
 20
182.6175978563687
 30
0.0
 10
109.5829972643252
 20
182.6142425951982
 30
0.0
 10
109.6275522320367
 20
182.6109276395081
 30
0.0
 10
109.6425056329426
 20
182.6101075705863
 30
0.0
 10
109.6723266577868
 20
182.6090784560278
 30
0.0
 10
109.6871885879165
 20
182.6088677239213
 30
0.0
 10
109.7612580660499
 20
182.6093159706091
 30
0.0
 10
109.8197306826982
 20
182.6145700706035
 30
0.0
 10
109.9354638336003
 20
182.6326680386182
 30
0.0
 10
109.9927387184367
 20
182.6454228273161
 30
0.0
 10
110.0781024884998
 20
182.6680076951714
 30
0.0
 10
110.1064649398291
 20
182.6761158721454
 30
0.0
 10
110.1630484601032
 20
182.6932255515098
 30
0.0
 10
110.1912614962821
 20
182.7022262975522
 30
0.0
 10
110.2751966928408
 20
182.7300799729988
 30
0.0
 10
110.3304157718733
 20
182.7498195857926
 30
0.0
 10
110.4397131157065
 20
182.7906606850203
 30
0.0
 10
110.4937876497872
 20
182.811775544591
 30
0.0
 10
110.6009802919049
 20
182.8549592255228
 30
0.0
 10
110.6540966852415
 20
182.8770349261703
 30
0.0
 10
110.812198904719
 20
182.944430974865
 30
0.0
 10
110.9159427861824
 20
182.9909138260428
 30
0.0
 10
111.0696239623504
 20
183.0625557006686
 30
0.0
 10
111.1203486499771
 20
183.0866776961005
 30
0.0
 10
111.2207762702897
 20
183.1352971224348
 30
0.0
 10
111.2705084139512
 20
183.1598083824945
 30
0.0
 10
111.4184667391902
 20
183.2339139496684
 30
0.0
 10
111.5154638361324
 20
183.2840807477898
 30
0.0
 10
111.7070152016213
 20
183.3857453061843
 30
0.0
 10
111.8015661372268
 20
183.4372420506649
 30
0.0
 10
111.9888083135184
 20
183.5413641406934
 30
0.0
 10
112.0814973479014
 20
183.5939889852342
 30
0.0
 10
112.1734649204778
 20
183.6470864880179
 30
0.0
  0
SPLINE
  5
A5
330
1F
100
AcDbEntity
  8
1
  6
CENTER
 62
   203
370
    13
100
AcDbSpline
210
0.0
220
0.0
230
1.0
 70
    24
 71
     1
 72
     5
 73
     3
 74
     0
 42
0.000000001
 43
0.0000000001
 40
0.0
 40
0.0
 40
0.2414378990894935
 40
1.0
 40
1.0
 10
109.6953655354231
 20
143.3820890205724
 30
0.0
 10
109.6953655354231
 20
162.3820890205724
 30
0.0
 10
109.6953655354232
 20
222.0772734620063
 30
0.0
  0
SPLINE
  5
A6
102
{ACAD_REACTORS
330
11F
102
}
330
1F
100
AcDbEntity
  8
256
  6
Continuous
 62
     7
370
    13
100
AcDbSpline
210
0.0
220
0.0
230
1.0
 70
    11
 71
     3
 72
    17
 73
    13
 74
     0
 42
0.000000001
 43
0.0000000001
 40
0.0
 40
0.0
 40
0.0
 40
0.0
 40
0.2500749063670416
 40
0.2500749063670416
 40
0.2500749063670416
 40
0.4999999999999989
 40
0.4999999999999989
 40
0.4999999999999989
 40
0.7500749063670404
 40
0.7500749063670404
 40
0.7500749063670404
 40
1.0
 40
1.0
 40
1.0
 40
1.0
 10
55.95917372413066
 20
11.85614106663957
 30
0.0
 10
54.42564587546997
 20
11.85614106663957
 30
0.0
 10
52.89211802680927
 20
11.85614106663957
 30
0.0
 10
51.35859017814857
 20
11.85614106663957
 30
0.0
 10
51.35859017814857
 20
13.3887502225648
 30
0.0
 10
51.35859017814857
 20
14.92135937849003
 30
0.0
 10
51.35859017814857
 20
16.45396853441526
 30
0.0
 10
52.89211802680927
 20
16.45396853441526
 30
0.0
 10
54.42564587546997
 20
16.45396853441526
 30
0.0
 10
55.95917372413066
 20
16.45396853441526
 30
0.0
 10
55.95917372413066
 20
14.92135937849003
 30
0.0
 10
55.95917372413066
 20
13.3887502225648
 30
0.0
 10
55.95917372413066
 20
11.85614106663957
 30
0.0
  0
SPLINE
  5
A7
102
{ACAD_REACTORS
330
11F
102
}
330
1F
100
AcDbEntity
  8
256
  6
Continuous
 62
     7
370
    13
100
AcDbSpline
210
0.0
220
0.0
230
1.0
 70
    11
 71
     3
 72
    41
 73
    37
 74
     0
 42
0.000000001
 43
0.0000000001
 40
0.0
 40
0.0
 40
0.0
 40
0.0
 40
0.0833333333333333
 40
0.0833333333333333
 40
0.0833333333333333
 40
0.1666666666666667
 40
0.1666666666666667
 40
0.1666666666666667
 40
0.25
 40
0.25
 40
0.25
 40
0.3333333333333333
 40
0.3333333333333333
 40
0.3333333333333333
 40
0.4166666666666667
 40
0.4166666666666667
 40
0.4166666666666667
 40
0.5
 40
0.5
 40
0.5
 40
0.5833333333333334
 40
0.5833333333333334
 40
0.5833333333333334
 40
0.6666666666666666
 40
0.6666666666666666
 40
0.6666666666666666
 40
0.75
 40
0.75
 40
0.75
 40
0.8333333333333334
 40
0.8333333333333334
 40
0.8333333333333334
 40
0.9166666666666666
 40
0.9166666666666666
 40
0.9166666666666666
 40
1.0
 40
1.0
 40
1.0
 40
1.0
 10
44.39623471328623
 20
8.727305110428638
 30
0.0
 10
44.82961316214747
 20
8.429474581683005
 30
0.0
 10
45.53344663409908
 20
8.090993726963271
 30
0.0
 10
46.04814423913854
 20
8.090993726963271
 30
0.0
 10
47.00932651360984
 20
8.090993726963271
 30
0.0
 10
47.55106813604937
 20
8.700259265458792
 30
0.0
 10
47.55106813604937
 20
9.444917145842206
 30
0.0
 10
47.53745999990542
 20
11.31353816976063
 30
0.0
 10
43.70565001861249
 20
10.51461999968931
 30
0.0
 10
43.70565001861249
 20
13.71012042508668
 30
0.0
 10
43.70565001861249
 20
15.24026059428534
 30
0.0
 10
44.95139736789142
 20
16.43174765387639
 30
0.0
 10
46.83345427306585
 20
16.43174765387639
 30
0.0
 10
47.76776478502507
 20
16.43174765387639
 30
0.0
 10
48.67485902469639
 20
16.10670268041273
 30
0.0
 10
49.47361308602012
 20
15.64644135906617
 30
0.0
 10
49.47360162773157
 20
15.64643320030638
 30
0.0
 10
48.74255909224894
 20
14.40068274680042
 30
0.0
 10
48.74255055156664
 20
14.4006934180556
 30
0.0
 10
48.1739418106888
 20
14.71212710798984
 30
0.0
 10
47.64580832439333
 20
15.02356394530955
 30
0.0
 10
46.9688466149538
 20
15.02356394530955
 30
0.0
 10
46.18353658102649
 20
15.02356394530955
 30
0.0
 10
45.43887870064302
 20
14.60377878350193
 30
0.0
 10
45.43887870064302
 20
13.76438071477455
 30
0.0
 10
45.43887870064302
 20
11.92280370825615
 30
0.0
 10
49.36542887027986
 20
12.50502522935168
 30
0.0
 10
49.36542887027986
 20
9.512613316786153
 30
0.0
 10
49.36542887027986
 20
7.914949231531418
 30
0.0
 10
48.079029367457
 20
6.682810018396404
 30
0.0
 10
46.26466863322639
 20
6.682810018396404
 30
0.0
 10
45.3575743935551
 20
6.682810018396404
 30
0.0
 10
44.50456818868381
 20
6.940158820916148
 30
0.0
 10
43.71907888079861
 20
7.400592083519152
 30
0.0
 10
43.71908887943025
 20
7.400600963125905
 30
0.0
 10
44.3962244106452
 20
8.727312190709236
 30
0.0
 10
44.39623471328623
 20
8.727305110428638
 30
0.0
  0
SPLINE
  5
A8
102
{ACAD_REACTORS
330
11F
102
}
330
1F
100
AcDbEntity
  8
256
  6
Continuous
 62
     7
370
    13
100
AcDbSpline
210
0.0
220
0.0
230
1.0
 70
    11
 71
     3
 72
    17
 73
    13
 74
     0
 42
0.000000001
 43
0.0000000001
 40
0.0
 40
0.0
 40
0.0
 40
0.0
 40
0.2499153546639537
 40
0.2499153546639537
 40
0.2499153546639537
 40
0.4999999999999934
 40
0.4999999999999934
 40
0.4999999999999934
 40
0.749915354663955
 40
0.749915354663955
 40
0.749915354663955
 40
1.0
 40
1.0
 40
1.0
 40
1.0
 10
55.69459021631917
 20
11.0089915279568
 30
0.0
 10
55.69459021631917
 20
9.652771377239228
 30
0.0
 10
55.69459021631917
 20
8.296551226521624
 30
0.0
 10
55.69459021631917
 20
6.940331075804048
 30
0.0
 10
54.3374513728661
 20
6.940331075804048
 30
0.0
 10
52.98031252941303
 20
6.940331075804048
 30
0.0
 10
51.62317368596007
 20
6.940331075804048
 30
0.0
 10
51.62317368596007
 20
8.296551226521652
 30
0.0
 10
51.62317368596007
 20
9.652771377239228
 30
0.0
 10
51.62317368596007
 20
11.0089915279568
 30
0.0
 10
52.98031252941303
 20
11.0089915279568
 30
0.0
 10
54.3374513728661
 20
11.0089915279568
 30
0.0
 10
55.69459021631917
 20
11.0089915279568
 30
0.0
  0
SPLINE
  5
A9
330
1F
100
AcDbEntity
  8
1
  6
Continuous
 62
   163
 60
     1
370
    18
100
AcDbSpline
210
0.0
220
0.0
230
1.0
 70
    11
 71
     3
 72
    53
 73
    49
 74
     0
 42
0.000000001
 43
0.0000000001
 40
0.0
 40
0.0
 40
0.0
 40
0.0
 40
0.024233419787787
 40
0.024233419787787
 40
0.024233419787787
 40
0.1280418012427934
 40
0.1280418012427934
 40
0.1280418012427934
 40
0.1284086704647148
 40
0.1284086704647148
 40
0.1284086704647148
 40
0.2309459700568215
 40
0.2309459700568215
 40
0.2309459700568215
 40
0.2557435253627113
 40
0.2557435253627113
 40
0.2557435253627113
 40
0.3573149299809463
 40
0.3573149299809463
 40
0.3573149299809463
 40
0.3576817992028669
 40
0.3576817992028669
 40
0.3576817992028669
 40
0.4624443157722517
 40
0.4624443157722517
 40
0.4624443157722517
 40
0.4860156317106226
 40
0.4860156317106226
 40
0.4860156317106226
 40
0.6156754647053586
 40
0.6156754647053586
 40
0.6156754647053586
 40
0.6406552862488913
 40
0.6406552862488913
 40
0.6406552862488913
 40
0.7430727925756138
 40
0.7430727925756138
 40
0.7430727925756138
 40
0.7434419985441709
 40
0.7434419985441709
 40
0.7434419985441709
 40
0.8467092888241766
 40
0.8467092888241766
 40
0.8467092888241766
 40
0.8713245778924228
 40
0.8713245778924228
 40
0.8713245778924228
 40
1.0
 40
1.0
 40
1.0
 40
1.0
 10
23.1392776780207
 20
15.99852661081272
 30
0.0
 10
23.71696315373489
 20
16.14293362516728
 30
0.0
 10
24.29464862944909
 20
16.28734063952184
 30
0.0
 10
24.87233410516333
 20
16.43174765387639
 30
0.0
 10
25.45909167164015
 20
13.94938246437707
 30
0.0
 10
26.04584923811703
 20
11.46701727487778
 30
0.0
 10
26.63260680459385
 20
8.984652085378494
 30
0.0
 10
26.64162147706051
 20
8.984652085378494
 30
0.0
 10
26.65063614952717
 20
8.984652085378494
 30
0.0
 10
26.65965082199384
 20
8.984652085378494
 30
0.0
 10
27.36377138542528
 20
11.40379973101924
 30
0.0
 10
28.06789194885667
 20
13.82294737665993
 30
0.0
 10
28.77201251228806
 20
16.24209502230062
 30
0.0
 10
29.38133546907952
 20
16.24209502230062
 30
0.0
 10
29.99065842587103
 20
16.24209502230062
 30
0.0
 10
30.59998138266255
 20
16.24209502230062
 30
0.0
 10
31.21378296653936
 20
13.82294737665993
 30
0.0
 10
31.82758455041622
 20
11.40379973101924
 30
0.0
 10
32.44138613429308
 20
8.984652085378494
 30
0.0
 10
32.45040080675975
 20
8.984652085378494
 30
0.0
 10
32.45941547922641
 20
8.984652085378494
 30
0.0
 10
32.46843015169307
 20
8.984652085378494
 30
0.0
 10
33.14992790651385
 20
11.46701727487778
 30
0.0
 10
33.83142566133463
 20
13.9493824643771
 30
0.0
 10
34.51292341615542
 20
16.43174765387639
 30
0.0
 10
35.07263696523225
 20
16.28280459414052
 30
0.0
 10
35.63235051430908
 20
16.13386153440465
 30
0.0
 10
36.19206406338597
 20
15.98491847466878
 30
0.0
 10
35.23070953402672
 20
12.94743319976991
 30
0.0
 10
34.26935500466752
 20
9.909947924871071
 30
0.0
 10
33.30800047530832
 20
6.872462649972229
 30
0.0
 10
32.69419889143145
 20
6.872462649972229
 30
0.0
 10
32.08039730755465
 20
6.872462649972229
 30
0.0
 10
31.46659572367778
 20
6.872462649972229
 30
0.0
 10
30.85727276688633
 20
9.31417568592756
 30
0.0
 10
30.24794981009481
 20
11.75588872188289
 30
0.0
 10
29.63862685330335
 20
14.19760175783825
 30
0.0
 10
29.62955476254072
 20
14.19760175783825
 30
0.0
 10
29.62048267177803
 20
14.19760175783825
 30
0.0
 10
29.61141058101541
 20
14.19760175783825
 30
0.0
 10
28.92089815372796
 20
11.75588872188289
 30
0.0
 10
28.23038572644052
 20
9.31417568592756
 30
0.0
 10
27.53987329915307
 20
6.872462649972229
 30
0.0
 10
26.9350289694469
 20
6.872462649972229
 30
0.0
 10
26.33018463974079
 20
6.872462649972229
 30
0.0
 10
25.72534031003462
 20
6.872462649972229
 30
0.0
 10
24.86331943269667
 20
9.914483970252357
 30
0.0
 10
24.00129855535866
 20
12.95650529053254
 30
0.0
 10
23.1392776780207
 20
15.99852661081272
 30
0.0
  0
SPLINE
  5
AA
330
1F
100
AcDbEntity
  8
1
  6
Continuous
 62
   163
 60
     1
370
    18
100
AcDbSpline
210
0.0
220
0.0
230
1.0
 70
    11
 71
     3
 72
    41
 73
    37
 74
     0
 42
0.000000001
 43
0.0000000001
 40
0.0
 40
0.0
 40
0.0
 40
0.0
 40
0.0833333333333333
 40
0.0833333333333333
 40
0.0833333333333333
 40
0.1666666666666667
 40
0.1666666666666667
 40
0.1666666666666667
 40
0.25
 40
0.25
 40
0.25
 40
0.3333333333333333
 40
0.3333333333333333
 40
0.3333333333333333
 40
0.4166666666666667
 40
0.4166666666666667
 40
0.4166666666666667
 40
0.5
 40
0.5
 40
0.5
 40
0.5833333333333334
 40
0.5833333333333334
 40
0.5833333333333334
 40
0.6666666666666666
 40
0.6666666666666666
 40
0.6666666666666666
 40
0.75
 40
0.75
 40
0.75
 40
0.8333333333333334
 40
0.8333333333333334
 40
0.8333333333333334
 40
0.9166666666666666
 40
0.9166666666666666
 40
0.9166666666666666
 40
1.0
 40
1.0
 40
1.0
 40
1.0
 10
37.62644536308606
 20
8.727305110896895
 30
0.0
 10
38.05982381286489
 20
8.429474581683005
 30
0.0
 10
38.76382953970435
 20
8.090993726963271
 30
0.0
 10
39.27835488985593
 20
8.090993726963271
 30
0.0
 10
40.23970941921513
 20
8.090993726963271
 30
0.0
 10
40.78127878676671
 20
8.700259265458792
 30
0.0
 10
40.78127878676671
 20
9.444917145842206
 30
0.0
 10
40.76767065062276
 20
11.31353816976063
 30
0.0
 10
36.93603292421776
 20
10.51461999968931
 30
0.0
 10
36.93603292421776
 20
13.71012042508668
 30
0.0
 10
36.93603292421776
 20
15.24026059428534
 30
0.0
 10
38.18160801860884
 20
16.43174765387639
 30
0.0
 10
40.06383717867121
 20
16.43174765387639
 30
0.0
 10
40.99814769063042
 20
16.43174765387639
 30
0.0
 10
41.90506967541384
 20
16.10670268041273
 30
0.0
 10
42.70399599466541
 20
15.64644135862842
 30
0.0
 10
42.70398453274984
 20
15.6464332013328
 30
0.0
 10
41.97276974205371
 20
14.4006827459659
 30
0.0
 10
41.97276120276902
 20
14.4006934186719
 30
0.0
 10
41.4043247162941
 20
14.71212710798984
 30
0.0
 10
40.87619122999857
 20
15.02356394530955
 30
0.0
 10
40.1992295205591
 20
15.02356394530955
 30
0.0
 10
39.41374723174383
 20
15.02356394530955
 30
0.0
 10
38.66908935136038
 20
14.60377878350193
 30
0.0
 10
38.66908935136038
 20
13.76438071477455
 30
0.0
 10
38.66908935136038
 20
11.92280370825615
 30
0.0
 10
42.59581177588515
 20
12.50502522935168
 30
0.0
 10
42.59581177588515
 20
9.512613316786153
 30
0.0
 10
42.59581177588515
 20
7.914949231531418
 30
0.0
 10
41.30924001817434
 20
6.682810018396404
 30
0.0
 10
39.49505153883169
 20
6.682810018396404
 30
0.0
 10
38.58778504427252
 20
6.682810018396404
 30
0.0
 10
37.73477883940117
 20
6.940158820916148
 30
0.0
 10
36.94946178950815
 20
7.400592083187442
 30
0.0
 10
36.94947178431599
 20
7.400600964059331
 30
0.0
 10
37.626435060445
 20
8.727312191177512
 30
0.0
 10
37.62644536308606
 20
8.727305110896895
 30
0.0
  0
SPLINE
  5
AB
330
1F
100
AcDbEntity
  8
1
  6
Continuous
 62
   163
 60
     1
370
    18
100
AcDbSpline
210
0.0
220
0.0
230
1.0
 70
    11
 71
     3
 72
    41
 73
    37
 74
     0
 42
0.000000001
 43
0.0000000001
 40
0.0
 40
0.0
 40
0.0
 40
0.0
 40
0.0833333333333333
 40
0.0833333333333333
 40
0.0833333333333333
 40
0.1666666666666667
 40
0.1666666666666667
 40
0.1666666666666667
 40
0.25
 40
0.25
 40
0.25
 40
0.3333333333333333
 40
0.3333333333333333
 40
0.3333333333333333
 40
0.4166666666666667
 40
0.4166666666666667
 40
0.4166666666666667
 40
0.5
 40
0.5
 40
0.5
 40
0.5833333333333334
 40
0.5833333333333334
 40
0.5833333333333334
 40
0.6666666666666666
 40
0.6666666666666666
 40
0.6666666666666666
 40
0.75
 40
0.75
 40
0.75
 40
0.8333333333333334
 40
0.8333333333333334
 40
0.8333333333333334
 40
0.9166666666666666
 40
0.9166666666666666
 40
0.9166666666666666
 40
1.0
 40
1.0
 40
1.0
 40
1.0
 10
44.39623471328623
 20
8.727305110428638
 30
0.0
 10
44.82961316214747
 20
8.429474581683005
 30
0.0
 10
45.53344663409908
 20
8.090993726963271
 30
0.0
 10
46.04814423913854
 20
8.090993726963271
 30
0.0
 10
47.00932651360984
 20
8.090993726963271
 30
0.0
 10
47.55106813604937
 20
8.700259265458792
 30
0.0
 10
47.55106813604937
 20
9.444917145842206
 30
0.0
 10
47.53745999990542
 20
11.31353816976063
 30
0.0
 10
43.70565001861249
 20
10.51461999968931
 30
0.0
 10
43.70565001861249
 20
13.71012042508668
 30
0.0
 10
43.70565001861249
 20
15.24026059428534
 30
0.0
 10
44.95139736789142
 20
16.43174765387639
 30
0.0
 10
46.83345427306585
 20
16.43174765387639
 30
0.0
 10
47.76776478502507
 20
16.43174765387639
 30
0.0
 10
48.67485902469639
 20
16.10670268041273
 30
0.0
 10
49.47361308602012
 20
15.64644135906617
 30
0.0
 10
49.47360162773157
 20
15.64643320030638
 30
0.0
 10
48.74255909224894
 20
14.40068274680042
 30
0.0
 10
48.74255055156664
 20
14.4006934180556
 30
0.0
 10
48.1739418106888
 20
14.71212710798984
 30
0.0
 10
47.64580832439333
 20
15.02356394530955
 30
0.0
 10
46.9688466149538
 20
15.02356394530955
 30
0.0
 10
46.18353658102649
 20
15.02356394530955
 30
0.0
 10
45.43887870064302
 20
14.60377878350193
 30
0.0
 10
45.43887870064302
 20
13.76438071477455
 30
0.0
 10
45.43887870064302
 20
11.92280370825615
 30
0.0
 10
49.36542887027986
 20
12.50502522935168
 30
0.0
 10
49.36542887027986
 20
9.512613316786153
 30
0.0
 10
49.36542887027986
 20
7.914949231531418
 30
0.0
 10
48.079029367457
 20
6.682810018396404
 30
0.0
 10
46.26466863322639
 20
6.682810018396404
 30
0.0
 10
45.3575743935551
 20
6.682810018396404
 30
0.0
 10
44.50456818868381
 20
6.940158820916148
 30
0.0
 10
43.71907888079861
 20
7.400592083519152
 30
0.0
 10
43.71908887943025
 20
7.400600963125905
 30
0.0
 10
44.3962244106452
 20
8.727312190709236
 30
0.0
 10
44.39623471328623
 20
8.727305110428638
 30
0.0
  0
SPLINE
  5
AC
330
1F
100
AcDbEntity
  8
1
  6
Continuous
 62
   163
 60
     1
370
    18
100
AcDbSpline
210
0.0
220
0.0
230
1.0
 70
    11
 71
     3
 72
    17
 73
    13
 74
     0
 42
0.000000001
 43
0.0000000001
 40
0.0
 40
0.0
 40
0.0
 40
0.0
 40
0.2500749063670416
 40
0.2500749063670416
 40
0.2500749063670416
 40
0.4999999999999989
 40
0.4999999999999989
 40
0.4999999999999989
 40
0.7500749063670404
 40
0.7500749063670404
 40
0.7500749063670404
 40
1.0
 40
1.0
 40
1.0
 40
1.0
 10
55.95917372413066
 20
11.85614106663957
 30
0.0
 10
54.42564587546997
 20
11.85614106663957
 30
0.0
 10
52.89211802680927
 20
11.85614106663957
 30
0.0
 10
51.35859017814857
 20
11.85614106663957
 30
0.0
 10
51.35859017814857
 20
13.3887502225648
 30
0.0
 10
51.35859017814857
 20
14.92135937849003
 30
0.0
 10
51.35859017814857
 20
16.45396853441526
 30
0.0
 10
52.89211802680927
 20
16.45396853441526
 30
0.0
 10
54.42564587546997
 20
16.45396853441526
 30
0.0
 10
55.95917372413066
 20
16.45396853441526
 30
0.0
 10
55.95917372413066
 20
14.92135937849003
 30
0.0
 10
55.95917372413066
 20
13.3887502225648
 30
0.0
 10
55.95917372413066
 20
11.85614106663957
 30
0.0
  0
SPLINE
  5
AD
330
1F
100
AcDbEntity
  8
1
  6
Continuous
 62
   163
 60
     1
370
    18
100
AcDbSpline
210
0.0
220
0.0
230
1.0
 70
    11
 71
     3
 72
    17
 73
    13
 74
     0
 42
0.000000001
 43
0.0000000001
 40
0.0
 40
0.0
 40
0.0
 40
0.0
 40
0.2500749063670398
 40
0.2500749063670398
 40
0.2500749063670398
 40
0.5000000000000023
 40
0.5000000000000023
 40
0.5000000000000023
 40
0.7500749063670421
 40
0.7500749063670421
 40
0.7500749063670421
 40
1.0
 40
1.0
 40
1.0
 40
1.0
 10
61.1392227130018
 20
6.675747567992611
 30
0.0
 10
59.6056948643411
 20
6.675747567992611
 30
0.0
 10
58.07216701568041
 20
6.675747567992611
 30
0.0
 10
56.53863916701982
 20
6.675747567992611
 30
0.0
 10
56.53863916701982
 20
8.20835672391784
 30
0.0
 10
56.53863916701982
 20
9.740965879843069
 30
0.0
 10
56.53863916701982
 20
11.2735750357683
 30
0.0
 10
58.07216701568041
 20
11.2735750357683
 30
0.0
 10
59.6056948643411
 20
11.2735750357683
 30
0.0
 10
61.1392227130018
 20
11.2735750357683
 30
0.0
 10
61.1392227130018
 20
9.740965879843069
 30
0.0
 10
61.1392227130018
 20
8.20835672391784
 30
0.0
 10
61.1392227130018
 20
6.675747567992611
 30
0.0
  0
SPLINE
  5
AE
330
1F
100
AcDbEntity
  8
1
  6
Continuous
 62
   163
 60
     1
370
    18
100
AcDbSpline
210
0.0
220
0.0
230
1.0
 70
    11
 71
     3
 72
    17
 73
    13
 74
     0
 42
0.000000001
 43
0.0000000001
 40
0.0
 40
0.0
 40
0.0
 40
0.0
 40
0.2500749063670398
 40
0.2500749063670398
 40
0.2500749063670398
 40
0.5000000000000023
 40
0.5000000000000023
 40
0.5000000000000023
 40
0.7500749063670421
 40
0.7500749063670421
 40
0.7500749063670421
 40
1.0
 40
1.0
 40
1.0
 40
1.0
 10
61.1392227130018
 20
16.45396853441526
 30
0.0
 10
59.6056948643411
 20
16.45396853441526
 30
0.0
 10
58.07216701568041
 20
16.45396853441526
 30
0.0
 10
56.53863916701982
 20
16.45396853441526
 30
0.0
 10
56.53863916701982
 20
14.92135937849003
 30
0.0
 10
56.53863916701982
 20
13.3887502225648
 30
0.0
 10
56.53863916701982
 20
11.85614106663957
 30
0.0
 10
58.07216701568041
 20
11.85614106663957
 30
0.0
 10
59.6056948643411
 20
11.85614106663957
 30
0.0
 10
61.1392227130018
 20
11.85614106663957
 30
0.0
 10
61.1392227130018
 20
13.3887502225648
 30
0.0
 10
61.1392227130018
 20
14.92135937849003
 30
0.0
 10
61.1392227130018
 20
16.45396853441526
 30
0.0
  0
SPLINE
  5
AF
330
1F
100
AcDbEntity
  8
1
  6
Continuous
 62
   163
 60
     1
370
    18
100
AcDbSpline
210
0.0
220
0.0
230
1.0
 70
    11
 71
     3
 72
    17
 73
    13
 74
     0
 42
0.000000001
 43
0.0000000001
 40
0.0
 40
0.0
 40
0.0
 40
0.0
 40
0.2499153546639589
 40
0.2499153546639589
 40
0.2499153546639589
 40
0.4999999999999987
 40
0.4999999999999987
 40
0.4999999999999987
 40
0.7499153546639602
 40
0.7499153546639602
 40
0.7499153546639602
 40
1.0
 40
1.0
 40
1.0
 40
1.0
 10
60.87463920519031
 20
16.18938502660379
 30
0.0
 10
60.87463920519031
 20
14.83316487588619
 30
0.0
 10
60.87463920519031
 20
13.47694472516864
 30
0.0
 10
60.87463920519031
 20
12.12072457445104
 30
0.0
 10
59.51750036173735
 20
12.12072457445104
 30
0.0
 10
58.16036151828428
 20
12.12072457445104
 30
0.0
 10
56.8032226748312
 20
12.12072457445104
 30
0.0
 10
56.8032226748312
 20
13.47694472516864
 30
0.0
 10
56.8032226748312
 20
14.83316487588619
 30
0.0
 10
56.8032226748312
 20
16.18938502660379
 30
0.0
 10
58.16036151828428
 20
16.18938502660379
 30
0.0
 10
59.51750036173735
 20
16.18938502660379
 30
0.0
 10
60.87463920519031
 20
16.18938502660379
 30
0.0
  0
SPLINE
  5
B0
330
1F
100
AcDbEntity
  8
1
  6
Continuous
 62
   163
 60
     1
370
    18
100
AcDbSpline
210
0.0
220
0.0
230
1.0
 70
    11
 71
     3
 72
    17
 73
    13
 74
     0
 42
0.000000001
 43
0.0000000001
 40
0.0
 40
0.0
 40
0.0
 40
0.0
 40
0.2500749063670416
 40
0.2500749063670416
 40
0.2500749063670416
 40
0.4999999999999989
 40
0.4999999999999989
 40
0.4999999999999989
 40
0.7500749063670404
 40
0.7500749063670404
 40
0.7500749063670404
 40
1.0
 40
1.0
 40
1.0
 40
1.0
 10
55.95917372413066
 20
11.2735750357683
 30
0.0
 10
54.42564587546997
 20
11.2735750357683
 30
0.0
 10
52.89211802680927
 20
11.2735750357683
 30
0.0
 10
51.35859017814857
 20
11.2735750357683
 30
0.0
 10
51.35859017814857
 20
9.740965879843069
 30
0.0
 10
51.35859017814857
 20
8.20835672391784
 30
0.0
 10
51.35859017814857
 20
6.675747567992611
 30
0.0
 10
52.89211802680927
 20
6.675747567992611
 30
0.0
 10
54.42564587546997
 20
6.675747567992611
 30
0.0
 10
55.95917372413066
 20
6.675747567992611
 30
0.0
 10
55.95917372413066
 20
8.20835672391784
 30
0.0
 10
55.95917372413066
 20
9.740965879843069
 30
0.0
 10
55.95917372413066
 20
11.2735750357683
 30
0.0
  0
SPLINE
  5
B1
330
1F
100
AcDbEntity
  8
1
  6
Continuous
 62
   163
 60
     1
370
    18
100
AcDbSpline
210
0.0
220
0.0
230
1.0
 70
    11
 71
     3
 72
    17
 73
    13
 74
     0
 42
0.000000001
 43
0.0000000001
 40
0.0
 40
0.0
 40
0.0
 40
0.0
 40
0.2499153546639537
 40
0.2499153546639537
 40
0.2499153546639537
 40
0.4999999999999934
 40
0.4999999999999934
 40
0.4999999999999934
 40
0.749915354663955
 40
0.749915354663955
 40
0.749915354663955
 40
1.0
 40
1.0
 40
1.0
 40
1.0
 10
55.69459021631917
 20
11.0089915279568
 30
0.0
 10
55.69459021631917
 20
9.652771377239228
 30
0.0
 10
55.69459021631917
 20
8.296551226521624
 30
0.0
 10
55.69459021631917
 20
6.940331075804048
 30
0.0
 10
54.3374513728661
 20
6.940331075804048
 30
0.0
 10
52.98031252941303
 20
6.940331075804048
 30
0.0
 10
51.62317368596007
 20
6.940331075804048
 30
0.0
 10
51.62317368596007
 20
8.296551226521652
 30
0.0
 10
51.62317368596007
 20
9.652771377239228
 30
0.0
 10
51.62317368596007
 20
11.0089915279568
 30
0.0
 10
52.98031252941303
 20
11.0089915279568
 30
0.0
 10
54.3374513728661
 20
11.0089915279568
 30
0.0
 10
55.69459021631917
 20
11.0089915279568
 30
0.0
  0
SPLINE
  5
B2
102
{ACAD_REACTORS
330
11F
102
}
330
1F
100
AcDbEntity
  8
256
  6
Continuous
 62
     7
370
    13
100
AcDbSpline
210
0.0
220
0.0
230
1.0
 70
    11
 71
     3
 72
    17
 73
    13
 74
     0
 42
0.000000001
 43
0.0000000001
 40
0.0
 40
0.0
 40
0.0
 40
0.0
 40
0.2500749063670416
 40
0.2500749063670416
 40
0.2500749063670416
 40
0.4999999999999989
 40
0.4999999999999989
 40
0.4999999999999989
 40
0.7500749063670404
 40
0.7500749063670404
 40
0.7500749063670404
 40
1.0
 40
1.0
 40
1.0
 40
1.0
 10
55.95917372413066
 20
11.85614106663957
 30
0.0
 10
54.42564587546997
 20
11.85614106663957
 30
0.0
 10
52.89211802680927
 20
11.85614106663957
 30
0.0
 10
51.35859017814857
 20
11.85614106663957
 30
0.0
 10
51.35859017814857
 20
13.3887502225648
 30
0.0
 10
51.35859017814857
 20
14.92135937849003
 30
0.0
 10
51.35859017814857
 20
16.45396853441526
 30
0.0
 10
52.89211802680927
 20
16.45396853441526
 30
0.0
 10
54.42564587546997
 20
16.45396853441526
 30
0.0
 10
55.95917372413066
 20
16.45396853441526
 30
0.0
 10
55.95917372413066
 20
14.92135937849003
 30
0.0
 10
55.95917372413066
 20
13.3887502225648
 30
0.0
 10
55.95917372413066
 20
11.85614106663957
 30
0.0
  0
SPLINE
  5
B3
102
{ACAD_REACTORS
330
11F
102
}
330
1F
100
AcDbEntity
  8
256
  6
Continuous
 62
     7
370
    13
100
AcDbSpline
210
0.0
220
0.0
230
1.0
 70
    11
 71
     3
 72
    17
 73
    13
 74
     0
 42
0.000000001
 43
0.0000000001
 40
0.0
 40
0.0
 40
0.0
 40
0.0
 40
0.2500749063670398
 40
0.2500749063670398
 40
0.2500749063670398
 40
0.5000000000000023
 40
0.5000000000000023
 40
0.5000000000000023
 40
0.7500749063670421
 40
0.7500749063670421
 40
0.7500749063670421
 40
1.0
 40
1.0
 40
1.0
 40
1.0
 10
61.1392227130018
 20
6.675747567992611
 30
0.0
 10
59.6056948643411
 20
6.675747567992611
 30
0.0
 10
58.07216701568041
 20
6.675747567992611
 30
0.0
 10
56.53863916701982
 20
6.675747567992611
 30
0.0
 10
56.53863916701982
 20
8.20835672391784
 30
0.0
 10
56.53863916701982
 20
9.740965879843069
 30
0.0
 10
56.53863916701982
 20
11.2735750357683
 30
0.0
 10
58.07216701568041
 20
11.2735750357683
 30
0.0
 10
59.6056948643411
 20
11.2735750357683
 30
0.0
 10
61.1392227130018
 20
11.2735750357683
 30
0.0
 10
61.1392227130018
 20
9.740965879843069
 30
0.0
 10
61.1392227130018
 20
8.20835672391784
 30
0.0
 10
61.1392227130018
 20
6.675747567992611
 30
0.0
  0
SPLINE
  5
B4
102
{ACAD_REACTORS
330
11F
102
}
330
1F
100
AcDbEntity
  8
256
  6
Continuous
 62
     7
370
    13
100
AcDbSpline
210
0.0
220
0.0
230
1.0
 70
    11
 71
     3
 72
    17
 73
    13
 74
     0
 42
0.000000001
 43
0.0000000001
 40
0.0
 40
0.0
 40
0.0
 40
0.0
 40
0.2500749063670416
 40
0.2500749063670416
 40
0.2500749063670416
 40
0.4999999999999989
 40
0.4999999999999989
 40
0.4999999999999989
 40
0.7500749063670404
 40
0.7500749063670404
 40
0.7500749063670404
 40
1.0
 40
1.0
 40
1.0
 40
1.0
 10
55.95917372413066
 20
11.2735750357683
 30
0.0
 10
54.42564587546997
 20
11.2735750357683
 30
0.0
 10
52.89211802680927
 20
11.2735750357683
 30
0.0
 10
51.35859017814857
 20
11.2735750357683
 30
0.0
 10
51.35859017814857
 20
9.740965879843069
 30
0.0
 10
51.35859017814857
 20
8.20835672391784
 30
0.0
 10
51.35859017814857
 20
6.675747567992611
 30
0.0
 10
52.89211802680927
 20
6.675747567992611
 30
0.0
 10
54.42564587546997
 20
6.675747567992611
 30
0.0
 10
55.95917372413066
 20
6.675747567992611
 30
0.0
 10
55.95917372413066
 20
8.20835672391784
 30
0.0
 10
55.95917372413066
 20
9.740965879843069
 30
0.0
 10
55.95917372413066
 20
11.2735750357683
 30
0.0
  0
SPLINE
  5
B5
102
{ACAD_REACTORS
330
11F
102
}
330
1F
100
AcDbEntity
  8
256
  6
Continuous
 62
     7
370
    13
100
AcDbSpline
210
0.0
220
0.0
230
1.0
 70
    11
 71
     3
 72
    53
 73
    49
 74
     0
 42
0.000000001
 43
0.0000000001
 40
0.0
 40
0.0
 40
0.0
 40
0.0
 40
0.024233419787787
 40
0.024233419787787
 40
0.024233419787787
 40
0.1280418012427934
 40
0.1280418012427934
 40
0.1280418012427934
 40
0.1284086704647148
 40
0.1284086704647148
 40
0.1284086704647148
 40
0.2309459700568215
 40
0.2309459700568215
 40
0.2309459700568215
 40
0.2557435253627113
 40
0.2557435253627113
 40
0.2557435253627113
 40
0.3573149299809463
 40
0.3573149299809463
 40
0.3573149299809463
 40
0.3576817992028669
 40
0.3576817992028669
 40
0.3576817992028669
 40
0.4624443157722517
 40
0.4624443157722517
 40
0.4624443157722517
 40
0.4860156317106226
 40
0.4860156317106226
 40
0.4860156317106226
 40
0.6156754647053586
 40
0.6156754647053586
 40
0.6156754647053586
 40
0.6406552862488913
 40
0.6406552862488913
 40
0.6406552862488913
 40
0.7430727925756138
 40
0.7430727925756138
 40
0.7430727925756138
 40
0.7434419985441709
 40
0.7434419985441709
 40
0.7434419985441709
 40
0.8467092888241766
 40
0.8467092888241766
 40
0.8467092888241766
 40
0.8713245778924228
 40
0.8713245778924228
 40
0.8713245778924228
 40
1.0
 40
1.0
 40
1.0
 40
1.0
 10
23.1392776780207
 20
15.99852661081272
 30
0.0
 10
23.71696315373489
 20
16.14293362516728
 30
0.0
 10
24.29464862944909
 20
16.28734063952184
 30
0.0
 10
24.87233410516333
 20
16.43174765387639
 30
0.0
 10
25.45909167164015
 20
13.94938246437707
 30
0.0
 10
26.04584923811703
 20
11.46701727487778
 30
0.0
 10
26.63260680459385
 20
8.984652085378494
 30
0.0
 10
26.64162147706051
 20
8.984652085378494
 30
0.0
 10
26.65063614952717
 20
8.984652085378494
 30
0.0
 10
26.65965082199384
 20
8.984652085378494
 30
0.0
 10
27.36377138542528
 20
11.40379973101924
 30
0.0
 10
28.06789194885667
 20
13.82294737665993
 30
0.0
 10
28.77201251228806
 20
16.24209502230062
 30
0.0
 10
29.38133546907952
 20
16.24209502230062
 30
0.0
 10
29.99065842587103
 20
16.24209502230062
 30
0.0
 10
30.59998138266255
 20
16.24209502230062
 30
0.0
 10
31.21378296653936
 20
13.82294737665993
 30
0.0
 10
31.82758455041622
 20
11.40379973101924
 30
0.0
 10
32.44138613429308
 20
8.984652085378494
 30
0.0
 10
32.45040080675975
 20
8.984652085378494
 30
0.0
 10
32.45941547922641
 20
8.984652085378494
 30
0.0
 10
32.46843015169307
 20
8.984652085378494
 30
0.0
 10
33.14992790651385
 20
11.46701727487778
 30
0.0
 10
33.83142566133463
 20
13.9493824643771
 30
0.0
 10
34.51292341615542
 20
16.43174765387639
 30
0.0
 10
35.07263696523225
 20
16.28280459414052
 30
0.0
 10
35.63235051430908
 20
16.13386153440465
 30
0.0
 10
36.19206406338597
 20
15.98491847466878
 30
0.0
 10
35.23070953402672
 20
12.94743319976991
 30
0.0
 10
34.26935500466752
 20
9.909947924871071
 30
0.0
 10
33.30800047530832
 20
6.872462649972229
 30
0.0
 10
32.69419889143145
 20
6.872462649972229
 30
0.0
 10
32.08039730755465
 20
6.872462649972229
 30
0.0
 10
31.46659572367778
 20
6.872462649972229
 30
0.0
 10
30.85727276688633
 20
9.31417568592756
 30
0.0
 10
30.24794981009481
 20
11.75588872188289
 30
0.0
 10
29.63862685330335
 20
14.19760175783825
 30
0.0
 10
29.62955476254072
 20
14.19760175783825
 30
0.0
 10
29.62048267177803
 20
14.19760175783825
 30
0.0
 10
29.61141058101541
 20
14.19760175783825
 30
0.0
 10
28.92089815372796
 20
11.75588872188289
 30
0.0
 10
28.23038572644052
 20
9.31417568592756
 30
0.0
 10
27.53987329915307
 20
6.872462649972229
 30
0.0
 10
26.9350289694469
 20
6.872462649972229
 30
0.0
 10
26.33018463974079
 20
6.872462649972229
 30
0.0
 10
25.72534031003462
 20
6.872462649972229
 30
0.0
 10
24.86331943269667
 20
9.914483970252357
 30
0.0
 10
24.00129855535866
 20
12.95650529053254
 30
0.0
 10
23.1392776780207
 20
15.99852661081272
 30
0.0
  0
SPLINE
  5
B6
102
{ACAD_REACTORS
330
11F
102
}
330
1F
100
AcDbEntity
  8
256
  6
Continuous
 62
     7
370
    13
100
AcDbSpline
210
0.0
220
0.0
230
1.0
 70
    11
 71
     3
 72
    17
 73
    13
 74
     0
 42
0.000000001
 43
0.0000000001
 40
0.0
 40
0.0
 40
0.0
 40
0.0
 40
0.2500749063670398
 40
0.2500749063670398
 40
0.2500749063670398
 40
0.5000000000000023
 40
0.5000000000000023
 40
0.5000000000000023
 40
0.7500749063670421
 40
0.7500749063670421
 40
0.7500749063670421
 40
1.0
 40
1.0
 40
1.0
 40
1.0
 10
61.1392227130018
 20
16.45396853441526
 30
0.0
 10
59.6056948643411
 20
16.45396853441526
 30
0.0
 10
58.07216701568041
 20
16.45396853441526
 30
0.0
 10
56.53863916701982
 20
16.45396853441526
 30
0.0
 10
56.53863916701982
 20
14.92135937849003
 30
0.0
 10
56.53863916701982
 20
13.3887502225648
 30
0.0
 10
56.53863916701982
 20
11.85614106663957
 30
0.0
 10
58.07216701568041
 20
11.85614106663957
 30
0.0
 10
59.6056948643411
 20
11.85614106663957
 30
0.0
 10
61.1392227130018
 20
11.85614106663957
 30
0.0
 10
61.1392227130018
 20
13.3887502225648
 30
0.0
 10
61.1392227130018
 20
14.92135937849003
 30
0.0
 10
61.1392227130018
 20
16.45396853441526
 30
0.0
  0
SPLINE
  5
B7
102
{ACAD_REACTORS
330
11F
102
}
330
1F
100
AcDbEntity
  8
256
  6
Continuous
 62
     7
370
    13
100
AcDbSpline
210
0.0
220
0.0
230
1.0
 70
    11
 71
     3
 72
    41
 73
    37
 74
     0
 42
0.000000001
 43
0.0000000001
 40
0.0
 40
0.0
 40
0.0
 40
0.0
 40
0.0833333333333333
 40
0.0833333333333333
 40
0.0833333333333333
 40
0.1666666666666667
 40
0.1666666666666667
 40
0.1666666666666667
 40
0.25
 40
0.25
 40
0.25
 40
0.3333333333333333
 40
0.3333333333333333
 40
0.3333333333333333
 40
0.4166666666666667
 40
0.4166666666666667
 40
0.4166666666666667
 40
0.5
 40
0.5
 40
0.5
 40
0.5833333333333334
 40
0.5833333333333334
 40
0.5833333333333334
 40
0.6666666666666666
 40
0.6666666666666666
 40
0.6666666666666666
 40
0.75
 40
0.75
 40
0.75
 40
0.8333333333333334
 40
0.8333333333333334
 40
0.8333333333333334
 40
0.9166666666666666
 40
0.9166666666666666
 40
0.9166666666666666
 40
1.0
 40
1.0
 40
1.0
 40
1.0
 10
37.62644536308606
 20
8.727305110896895
 30
0.0
 10
38.05982381286489
 20
8.429474581683005
 30
0.0
 10
38.76382953970435
 20
8.090993726963271
 30
0.0
 10
39.27835488985593
 20
8.090993726963271
 30
0.0
 10
40.23970941921513
 20
8.090993726963271
 30
0.0
 10
40.78127878676671
 20
8.700259265458792
 30
0.0
 10
40.78127878676671
 20
9.444917145842206
 30
0.0
 10
40.76767065062276
 20
11.31353816976063
 30
0.0
 10
36.93603292421776
 20
10.51461999968931
 30
0.0
 10
36.93603292421776
 20
13.71012042508668
 30
0.0
 10
36.93603292421776
 20
15.24026059428534
 30
0.0
 10
38.18160801860884
 20
16.43174765387639
 30
0.0
 10
40.06383717867121
 20
16.43174765387639
 30
0.0
 10
40.99814769063042
 20
16.43174765387639
 30
0.0
 10
41.90506967541384
 20
16.10670268041273
 30
0.0
 10
42.70399599466541
 20
15.64644135862842
 30
0.0
 10
42.70398453274984
 20
15.6464332013328
 30
0.0
 10
41.97276974205371
 20
14.4006827459659
 30
0.0
 10
41.97276120276902
 20
14.4006934186719
 30
0.0
 10
41.4043247162941
 20
14.71212710798984
 30
0.0
 10
40.87619122999857
 20
15.02356394530955
 30
0.0
 10
40.1992295205591
 20
15.02356394530955
 30
0.0
 10
39.41374723174383
 20
15.02356394530955
 30
0.0
 10
38.66908935136038
 20
14.60377878350193
 30
0.0
 10
38.66908935136038
 20
13.76438071477455
 30
0.0
 10
38.66908935136038
 20
11.92280370825615
 30
0.0
 10
42.59581177588515
 20
12.50502522935168
 30
0.0
 10
42.59581177588515
 20
9.512613316786153
 30
0.0
 10
42.59581177588515
 20
7.914949231531418
 30
0.0
 10
41.30924001817434
 20
6.682810018396404
 30
0.0
 10
39.49505153883169
 20
6.682810018396404
 30
0.0
 10
38.58778504427252
 20
6.682810018396404
 30
0.0
 10
37.73477883940117
 20
6.940158820916148
 30
0.0
 10
36.94946178950815
 20
7.400592083187442
 30
0.0
 10
36.94947178431599
 20
7.400600964059331
 30
0.0
 10
37.626435060445
 20
8.727312191177512
 30
0.0
 10
37.62644536308606
 20
8.727305110896895
 30
0.0
  0
SPLINE
  5
B8
102
{ACAD_REACTORS
330
11F
102
}
330
1F
100
AcDbEntity
  8
256
  6
Continuous
 62
     7
370
    13
100
AcDbSpline
210
0.0
220
0.0
230
1.0
 70
    11
 71
     3
 72
    17
 73
    13
 74
     0
 42
0.000000001
 43
0.0000000001
 40
0.0
 40
0.0
 40
0.0
 40
0.0
 40
0.2499153546639589
 40
0.2499153546639589
 40
0.2499153546639589
 40
0.4999999999999987
 40
0.4999999999999987
 40
0.4999999999999987
 40
0.7499153546639602
 40
0.7499153546639602
 40
0.7499153546639602
 40
1.0
 40
1.0
 40
1.0
 40
1.0
 10
60.87463920519031
 20
16.18938502660379
 30
0.0
 10
60.87463920519031
 20
14.83316487588619
 30
0.0
 10
60.87463920519031
 20
13.47694472516864
 30
0.0
 10
60.87463920519031
 20
12.12072457445104
 30
0.0
 10
59.51750036173735
 20
12.12072457445104
 30
0.0
 10
58.16036151828428
 20
12.12072457445104
 30
0.0
 10
56.8032226748312
 20
12.12072457445104
 30
0.0
 10
56.8032226748312
 20
13.47694472516864
 30
0.0
 10
56.8032226748312
 20
14.83316487588619
 30
0.0
 10
56.8032226748312
 20
16.18938502660379
 30
0.0
 10
58.16036151828428
 20
16.18938502660379
 30
0.0
 10
59.51750036173735
 20
16.18938502660379
 30
0.0
 10
60.87463920519031
 20
16.18938502660379
 30
0.0
  0
MTEXT
  5
B9
102
{ACAD_REACTORS
330
120
102
}
330
1F
100
AcDbEntity
  8
256
  6
Continuous
 62
     1
370
    13
100
AcDbMText
 10
140.252831
 20
26.032512
 30
0.0
 40
1.8
 41
0.0
 71
     7
 72
     5
  1
\W1.0000;Kunde:
  7
ISOCPEUR
 73
     2
 44
0.60241
  0
MTEXT
  5
BB
102
{ACAD_REACTORS
330
120
102
}
330
1F
100
AcDbEntity
  8
256
  6
Continuous
 62
     1
370
    13
100
AcDbMText
 10
140.338651
 20
20.025128
 30
0.0
 40
1.8
 41
0.0
 71
     7
 72
     5
  1
\W1.0000;Obj.:
  7
ISOCPEUR
 73
     2
 44
0.60241
  0
MTEXT
  5
BC
102
{ACAD_REACTORS
330
120
102
}
330
1F
100
AcDbEntity
  8
256
  6
Continuous
 62
     1
370
    13
100
AcDbMText
 10
68.475407
 20
25.544246
 30
0.0
 40
1.8
 41
0.0
 71
     7
 72
     5
  1
\W1.0000;Ident- Nr.:
  7
ISOCPEUR
 73
     2
 44
0.60241
  0
MTEXT
  5
BD
102
{ACAD_REACTORS
330
120
102
}
330
1F
100
AcDbEntity
  8
256
  6
Continuous
 62
     1
370
    13
100
AcDbMText
 10
68.034306
 20
5.784298
 30
0.0
 40
1.8
 41
0.0
 71
     7
 72
     5
  1
\W1.0000;unten - Serie 200
  7
ISOCPEUR
 73
     2
 44
0.60241
  0
MTEXT
  5
BE
102
{ACAD_REACTORS
330
120
102
}
330
1F
100
AcDbEntity
  8
256
  6
Continuous
 62
     1
370
    13
100
AcDbMText
 10
140.338651
 20
14.532663
 30
0.0
 40
1.8
 41
0.0
 71
     7
 72
     5
  1
\W1.0000;Bestell- Nr.:
  7
ISOCPEUR
 73
     2
 44
0.60241
  0
MTEXT
  5
BF
102
{ACAD_REACTORS
330
120
102
}
330
1F
100
AcDbEntity
  8
256
  6
Continuous
 62
     1
370
    13
100
AcDbMText
 10
22.312209
 20
20.102235
 30
0.0
 40
1.8
 41
0.0
 71
     7
 72
     5
  1
\W1.0000;Datum:
  7
ISOCPEUR
 73
     2
 44
0.60241
  0
MTEXT
  5
C0
102
{ACAD_REACTORS
330
120
102
}
330
1F
100
AcDbEntity
  8
256
  6
Continuous
 62
     1
370
    13
100
AcDbMText
 10
22.203121
 20
25.836315
 30
0.0
 40
1.8
 41
0.0
 71
     7
 72
     5
  1
\W1.0000;Ersteller:
  7
ISOCPEUR
 73
     2
 44
0.60241
  0
MTEXT
  5
C1
102
{ACAD_REACTORS
330
120
102
}
330
1F
100
AcDbEntity
  8
256
  6
Continuous
 62
     1
370
    13
100
AcDbMText
 10
175.595795
 20
14.566103
 30
0.0
 40
1.8
 41
0.0
 71
     7
 72
     5
  1
\W1.0000;Pos.:
  7
ISOCPEUR
 73
     2
 44
0.60241
  0
MTEXT
  5
C2
102
{ACAD_REACTORS
330
120
102
}
330
1F
100
AcDbEntity
  8
256
  6
Continuous
 62
     1
370
    13
100
AcDbMText
 10
81.289248
 20
25.334284
 30
0.0
 40
2.5
 41
0.0
 71
     7
 72
     5
  1
\W1.0000;110553
  7
ISOCPEUR
 73
     2
 44
0.60241
  0
MTEXT
  5
C3
102
{ACAD_REACTORS
330
120
102
}
330
1F
100
AcDbEntity
  8
256
  6
Continuous
 62
     1
370
    18
100
AcDbMText
 10
103.53529
 20
25.16909
 30
0.0
 40
2.5
 41
0.0
 71
     7
 72
     5
  1
\fISOCPEUR|b1|i0;\W1.0000;03
  7
ISOCPEUR
 73
     2
 44
0.60241
  0
MTEXT
  5
C4
102
{ACAD_REACTORS
330
120
102
}
330
1F
100
AcDbEntity
  8
256
  6
Continuous
 62
     1
370
    13
100
AcDbMText
 10
140.167012
 20
10.241675
 30
0.0
 40
1.8
 41
0.0
 71
     7
 72
     5
  1
\W1.0000;Änderung:
  7
ISOCPEUR
 73
     2
 44
0.60241
  0
MTEXT
  5
C5
102
{ACAD_REACTORS
330
120
102
}
330
1F
100
AcDbEntity
  8
256
  6
Continuous
 62
    87
370
    13
100
AcDbMText
 10
17.685762
 20
5.805962
 30
0.0
 40
1.8
 41
0.0
 71
     7
 72
     5
  3
\W0.9000;Diese Zeichnung entspricht dem Entwicklungsstand des Zeichnungsdatums bzw. der letzten\PAenderungseintragung. Aus der Benutzung der Zeichnung koennen keine Ansprueche, gleich welcher Art,\Peinschliesslich Schadensersatzansprueche, abgeleite
  3
t und gegen WSS geltend gemacht werden. Die\PZeichnung bleibt unser Eigentum und ist Dritten nur fuer die Vertragsdauer zur Benutzung ueberlassen.\PSaemtliche sich aus der Zeichnung ergebenden Ansprueche stehen ausschliesslich WSS zu. Ohne vorherige
  1
\PZustimmung von WSS darf diese Zeichnung weder vervielfaeltigt noch Dritten zugaenglich gemacht werden. 
  7
ISOCPEUR
 11
8.276882722183526E-15
 21
1.0
 31
0.0
 73
     1
 44
0.961482
  0
MTEXT
  5
C6
102
{ACAD_REACTORS
330
120
102
}
330
1F
100
AcDbEntity
  8
256
  6
Continuous
 62
    20
370
    13
100
AcDbMText
 10
535.689809
 20
15.244179
 30
0.0
 40
2.0
 41
0.0
 71
     7
 72
     5
  1
\W0.5852;\Q359.999790;\Q;
  7
ideas_iso
 73
     2
 44
0.60241
  0
MTEXT
  5
C9
102
{ACAD_REACTORS
330
120
102
}
330
1F
100
AcDbEntity
  8
256
  6
Continuous
 62
     1
370
    13
100
AcDbMText
 10
154.841428
 20
14.532663
 30
0.0
 40
1.8
 41
0.0
 71
     7
 72
     5
  1
\W1.0000;
  7
ISOCPEUR
 73
     2
 44
0.60241
  0
MTEXT
  5
CA
102
{ACAD_REACTORS
330
120
102
}
330
1F
100
AcDbEntity
  8
256
  6
Continuous
 62
     1
370
    13
100
AcDbMText
 10
145.807848
 20
20.025128
 30
0.0
 40
1.8
 41
0.0
 71
     7
 72
     5
  1
\W1.0000;
  7
ISOCPEUR
 73
     2
 44
0.60241
  0
MTEXT
  5
CB
102
{ACAD_REACTORS
330
120
102
}
330
1F
100
AcDbEntity
  8
256
  6
Continuous
 62
     1
370
    13
100
AcDbMText
 10
21.388756
 20
0.704258
 30
0.0
 40
1.0
 41
0.0
 71
     7
 72
     5
  1
\W1.0000;18.03.2019
  7
ISOCPEUR
 73
     2
 44
0.60241
  0
MTEXT
  5
CC
102
{ACAD_REACTORS
330
120
102
}
330
1F
100
AcDbEntity
  8
256
  6
Continuous
 62
     1
370
    13
100
AcDbMText
 10
27.712006
 20
0.722997
 30
0.0
 40
1.0
 41
0.0
 71
     7
 72
     5
  1
\W1.0000;/
  7
ISOCPEUR
 73
     2
 44
0.60241
  0
MTEXT
  5
CD
102
{ACAD_REACTORS
330
120
102
}
330
1F
100
AcDbEntity
  8
256
  6
Continuous
 62
     1
370
    13
100
AcDbMText
 10
28.590482
 20
0.704258
 30
0.0
 40
1.0
 41
0.0
 71
     7
 72
     5
  1
\W1.0000;Jung, Thorsten
  7
ISOCPEUR
 73
     2
 44
0.60241
  0
MTEXT
  5
CE
102
{ACAD_REACTORS
330
120
102
}
330
1F
100
AcDbEntity
  8
256
  6
Continuous
 62
    20
370
    13
100
AcDbMText
 10
535.452157
 20
10.519599
 30
0.0
 40
2.0
 41
0.0
 71
     7
 72
     5
  1
\W0.5852;\Q359.999790;\Q;
  7
ideas_iso
 73
     2
 44
0.60241
  0
MTEXT
  5
CF
102
{ACAD_REACTORS
330
120
102
}
330
1F
100
AcDbEntity
  8
256
  6
Continuous
 62
     1
370
    13
100
AcDbMText
 10
181.91213
 20
14.566103
 30
0.0
 40
1.8
 41
0.0
 71
     7
 72
     5
  1
\W1.0000;
  7
ISOCPEUR
 73
     2
 44
0.60241
  0
MTEXT
  5
D0
102
{ACAD_REACTORS
330
120
102
}
330
1F
100
AcDbEntity
  8
256
  6
Continuous
 62
     1
370
    13
100
AcDbMText
 10
148.436109
 20
26.032512
 30
0.0
 40
1.8
 41
0.0
 71
     7
 72
     5
  1
\W0.8000;
  7
ISOCPEUR
 73
     2
 44
0.60241
  0
MTEXT
  5
D1
102
{ACAD_REACTORS
330
120
102
}
330
1F
100
AcDbEntity
  8
256
  6
Continuous
 62
     1
370
    13
100
AcDbMText
 10
109.542744
 20
24.922437
 30
0.0
 40
2.5
 41
0.0
 71
     7
 72
     5
  1
\W1.0000;Serienfreigabe
  7
ISOCPEUR
 73
     2
 44
0.60241
  0
MTEXT
  5
D2
102
{ACAD_REACTORS
330
120
102
}
330
1F
100
AcDbEntity
  8
256
  6
Continuous
 62
     1
370
    13
100
AcDbMText
 10
68.314863
 20
10.031713
 30
0.0
 40
2.5
 41
0.0
 71
     7
 72
     5
  1
\W1.0000;Verriegelungsstk. f. Standflg.
  7
ISOCPEUR
 73
     2
 44
0.60241
  0
MTEXT
  5
D3
102
{ACAD_REACTORS
330
120
102
}
330
1F
100
AcDbEntity
  8
256
  6
Continuous
 62
     1
370
    13
100
AcDbMText
 10
35.917402
 20
20.102235
 30
0.0
 40
1.8
 41
0.0
 71
     7
 72
     5
  1
\W1.0000;07.08.2013
  7
ISOCPEUR
 73
     2
 44
0.60241
  0
MTEXT
  5
D4
102
{ACAD_REACTORS
330
120
102
}
330
1F
100
AcDbEntity
  8
256
  6
Continuous
 62
     1
370
    13
100
AcDbMText
 10
35.997708
 20
25.836315
 30
0.0
 40
1.8
 41
0.0
 71
     7
 72
     5
  1
\W1.0000;S. Mielke
  7
ISOCPEUR
 73
     2
 44
0.60241
  0
MTEXT
  5
D5
102
{ACAD_REACTORS
330
120
102
}
330
1F
100
AcDbEntity
  8
256
  6
Continuous
 62
     1
370
    13
100
AcDbMText
 10
96.761446
 20
25.544246
 30
0.0
 40
1.8
 41
0.0
 71
     7
 72
     5
  1
\W1.0000;Index:
  7
ISOCPEUR
 73
     2
 44
0.60241
  0
MTEXT
  5
D6
102
{ACAD_REACTORS
330
120
102
}
330
1F
100
AcDbEntity
  8
256
  6
Continuous
 62
     1
370
    13
100
AcDbMText
 10
68.600925
 20
14.67194
 30
0.0
 40
3.5
 41
0.0
 71
     7
 72
     5
  1
\W0.9000;VSTK unten 14.324.0000.010
  7
ISOCPEUR
 73
     2
 44
0.60241
  0
MTEXT
  5
D7
102
{ACAD_REACTORS
330
120
102
}
330
1F
100
AcDbEntity
  8
256
  6
Continuous
 62
     1
370
    13
100
AcDbMText
 10
68.318349
 20
20.550442
 30
0.0
 40
1.8
 41
0.0
 71
     7
 72
     5
  1
\W1.0000;Bezeichnung:
  7
ISOCPEUR
 73
     2
 44
0.60241
  0
MTEXT
  5
D8
102
{ACAD_REACTORS
330
120
102
}
330
1F
100
AcDbEntity
  8
256
  6
Continuous
 62
    87
370
    13
100
AcDbMText
 10
18.167109
 20
177.357362
 30
0.0
 40
1.8
 41
0.0
 71
     7
 72
     5
  3
\W0.9000;Zeichnung fuer Sonder- bzw. Objektkonstruktionen sind vom Anwender auf Richtigkeit sowie\PAus- und Durchfuehrbarkeit zu pruefen. Um eine einwandfreie Serienproduktion sicherzustellen ist die \PFertigung eines Musterelementes unbedingt erfor
  3
derlich. Die hierzu benoetigten Mustermengen sind\Prechtzeitig zu bestellen. Alle angegebenen Masse sind theoretisch ermittelt und vom Verarbeiter \Pverantwortlich zu ueberpruefen. Die Haftung WSS ist auf Vorsatz und grobe Fahrlaessigkeit beschraenk
  7
ISOCPEUR
 11
9.165061141883651E-15
 21
1.0
 31
0.0
 73
     1
 44
0.961482
  0
SPLINE
  5
D9
102
{ACAD_REACTORS
330
E2
102
}
330
1F
100
AcDbEntity
  8
1
  6
Continuous
 62
   163
 60
     1
370
    18
100
AcDbSpline
210
0.0
220
0.0
230
1.0
 70
    11
 71
     3
 72
    53
 73
    49
 74
     0
 42
0.000000001
 43
0.0000000001
 40
0.0
 40
0.0
 40
0.0
 40
0.0
 40
0.024233419787787
 40
0.024233419787787
 40
0.024233419787787
 40
0.1280418012427934
 40
0.1280418012427934
 40
0.1280418012427934
 40
0.1284086704647148
 40
0.1284086704647148
 40
0.1284086704647148
 40
0.2309459700568215
 40
0.2309459700568215
 40
0.2309459700568215
 40
0.2557435253627113
 40
0.2557435253627113
 40
0.2557435253627113
 40
0.3573149299809463
 40
0.3573149299809463
 40
0.3573149299809463
 40
0.3576817992028669
 40
0.3576817992028669
 40
0.3576817992028669
 40
0.4624443157722517
 40
0.4624443157722517
 40
0.4624443157722517
 40
0.4860156317106226
 40
0.4860156317106226
 40
0.4860156317106226
 40
0.6156754647053586
 40
0.6156754647053586
 40
0.6156754647053586
 40
0.6406552862488913
 40
0.6406552862488913
 40
0.6406552862488913
 40
0.7430727925756138
 40
0.7430727925756138
 40
0.7430727925756138
 40
0.7434419985441709
 40
0.7434419985441709
 40
0.7434419985441709
 40
0.8467092888241766
 40
0.8467092888241766
 40
0.8467092888241766
 40
0.8713245778924228
 40
0.8713245778924228
 40
0.8713245778924228
 40
1.0
 40
1.0
 40
1.0
 40
1.0
 10
23.1392776780207
 20
15.99852661081272
 30
0.0
 10
23.71696315373489
 20
16.14293362516728
 30
0.0
 10
24.29464862944909
 20
16.28734063952184
 30
0.0
 10
24.87233410516333
 20
16.43174765387639
 30
0.0
 10
25.45909167164015
 20
13.94938246437707
 30
0.0
 10
26.04584923811703
 20
11.46701727487778
 30
0.0
 10
26.63260680459385
 20
8.984652085378494
 30
0.0
 10
26.64162147706051
 20
8.984652085378494
 30
0.0
 10
26.65063614952717
 20
8.984652085378494
 30
0.0
 10
26.65965082199384
 20
8.984652085378494
 30
0.0
 10
27.36377138542528
 20
11.40379973101924
 30
0.0
 10
28.06789194885667
 20
13.82294737665993
 30
0.0
 10
28.77201251228806
 20
16.24209502230062
 30
0.0
 10
29.38133546907952
 20
16.24209502230062
 30
0.0
 10
29.99065842587103
 20
16.24209502230062
 30
0.0
 10
30.59998138266255
 20
16.24209502230062
 30
0.0
 10
31.21378296653936
 20
13.82294737665993
 30
0.0
 10
31.82758455041622
 20
11.40379973101924
 30
0.0
 10
32.44138613429308
 20
8.984652085378494
 30
0.0
 10
32.45040080675975
 20
8.984652085378494
 30
0.0
 10
32.45941547922641
 20
8.984652085378494
 30
0.0
 10
32.46843015169307
 20
8.984652085378494
 30
0.0
 10
33.14992790651385
 20
11.46701727487778
 30
0.0
 10
33.83142566133463
 20
13.9493824643771
 30
0.0
 10
34.51292341615542
 20
16.43174765387639
 30
0.0
 10
35.07263696523225
 20
16.28280459414052
 30
0.0
 10
35.63235051430908
 20
16.13386153440465
 30
0.0
 10
36.19206406338597
 20
15.98491847466878
 30
0.0
 10
35.23070953402672
 20
12.94743319976991
 30
0.0
 10
34.26935500466752
 20
9.909947924871071
 30
0.0
 10
33.30800047530832
 20
6.872462649972229
 30
0.0
 10
32.69419889143145
 20
6.872462649972229
 30
0.0
 10
32.08039730755465
 20
6.872462649972229
 30
0.0
 10
31.46659572367778
 20
6.872462649972229
 30
0.0
 10
30.85727276688633
 20
9.31417568592756
 30
0.0
 10
30.24794981009481
 20
11.75588872188289
 30
0.0
 10
29.63862685330335
 20
14.19760175783825
 30
0.0
 10
29.62955476254072
 20
14.19760175783825
 30
0.0
 10
29.62048267177803
 20
14.19760175783825
 30
0.0
 10
29.61141058101541
 20
14.19760175783825
 30
0.0
 10
28.92089815372796
 20
11.75588872188289
 30
0.0
 10
28.23038572644052
 20
9.31417568592756
 30
0.0
 10
27.53987329915307
 20
6.872462649972229
 30
0.0
 10
26.9350289694469
 20
6.872462649972229
 30
0.0
 10
26.33018463974079
 20
6.872462649972229
 30
0.0
 10
25.72534031003462
 20
6.872462649972229
 30
0.0
 10
24.86331943269667
 20
9.914483970252357
 30
0.0
 10
24.00129855535866
 20
12.95650529053254
 30
0.0
 10
23.1392776780207
 20
15.99852661081272
 30
0.0
  0
SPLINE
  5
DA
102
{ACAD_REACTORS
330
E2
102
}
330
1F
100
AcDbEntity
  8
1
  6
Continuous
 62
   163
 60
     1
370
    18
100
AcDbSpline
210
0.0
220
0.0
230
1.0
 70
    11
 71
     3
 72
    41
 73
    37
 74
     0
 42
0.000000001
 43
0.0000000001
 40
0.0
 40
0.0
 40
0.0
 40
0.0
 40
0.0833333333333333
 40
0.0833333333333333
 40
0.0833333333333333
 40
0.1666666666666667
 40
0.1666666666666667
 40
0.1666666666666667
 40
0.25
 40
0.25
 40
0.25
 40
0.3333333333333333
 40
0.3333333333333333
 40
0.3333333333333333
 40
0.4166666666666667
 40
0.4166666666666667
 40
0.4166666666666667
 40
0.5
 40
0.5
 40
0.5
 40
0.5833333333333334
 40
0.5833333333333334
 40
0.5833333333333334
 40
0.6666666666666666
 40
0.6666666666666666
 40
0.6666666666666666
 40
0.75
 40
0.75
 40
0.75
 40
0.8333333333333334
 40
0.8333333333333334
 40
0.8333333333333334
 40
0.9166666666666666
 40
0.9166666666666666
 40
0.9166666666666666
 40
1.0
 40
1.0
 40
1.0
 40
1.0
 10
37.62644536308606
 20
8.727305110896895
 30
0.0
 10
38.05982381286489
 20
8.429474581683005
 30
0.0
 10
38.76382953970435
 20
8.090993726963271
 30
0.0
 10
39.27835488985593
 20
8.090993726963271
 30
0.0
 10
40.23970941921513
 20
8.090993726963271
 30
0.0
 10
40.78127878676671
 20
8.700259265458792
 30
0.0
 10
40.78127878676671
 20
9.444917145842206
 30
0.0
 10
40.76767065062276
 20
11.31353816976063
 30
0.0
 10
36.93603292421776
 20
10.51461999968931
 30
0.0
 10
36.93603292421776
 20
13.71012042508668
 30
0.0
 10
36.93603292421776
 20
15.24026059428534
 30
0.0
 10
38.18160801860884
 20
16.43174765387639
 30
0.0
 10
40.06383717867121
 20
16.43174765387639
 30
0.0
 10
40.99814769063042
 20
16.43174765387639
 30
0.0
 10
41.90506967541384
 20
16.10670268041273
 30
0.0
 10
42.70399599466541
 20
15.64644135862842
 30
0.0
 10
42.70398453274984
 20
15.6464332013328
 30
0.0
 10
41.97276974205371
 20
14.4006827459659
 30
0.0
 10
41.97276120276902
 20
14.4006934186719
 30
0.0
 10
41.4043247162941
 20
14.71212710798984
 30
0.0
 10
40.87619122999857
 20
15.02356394530955
 30
0.0
 10
40.1992295205591
 20
15.02356394530955
 30
0.0
 10
39.41374723174383
 20
15.02356394530955
 30
0.0
 10
38.66908935136038
 20
14.60377878350193
 30
0.0
 10
38.66908935136038
 20
13.76438071477455
 30
0.0
 10
38.66908935136038
 20
11.92280370825615
 30
0.0
 10
42.59581177588515
 20
12.50502522935168
 30
0.0
 10
42.59581177588515
 20
9.512613316786153
 30
0.0
 10
42.59581177588515
 20
7.914949231531418
 30
0.0
 10
41.30924001817434
 20
6.682810018396404
 30
0.0
 10
39.49505153883169
 20
6.682810018396404
 30
0.0
 10
38.58778504427252
 20
6.682810018396404
 30
0.0
 10
37.73477883940117
 20
6.940158820916148
 30
0.0
 10
36.94946178950815
 20
7.400592083187442
 30
0.0
 10
36.94947178431599
 20
7.400600964059331
 30
0.0
 10
37.626435060445
 20
8.727312191177512
 30
0.0
 10
37.62644536308606
 20
8.727305110896895
 30
0.0
  0
SPLINE
  5
DB
102
{ACAD_REACTORS
330
E2
102
}
330
1F
100
AcDbEntity
  8
1
  6
Continuous
 62
   163
 60
     1
370
    18
100
AcDbSpline
210
0.0
220
0.0
230
1.0
 70
    11
 71
     3
 72
    41
 73
    37
 74
     0
 42
0.000000001
 43
0.0000000001
 40
0.0
 40
0.0
 40
0.0
 40
0.0
 40
0.0833333333333333
 40
0.0833333333333333
 40
0.0833333333333333
 40
0.1666666666666667
 40
0.1666666666666667
 40
0.1666666666666667
 40
0.25
 40
0.25
 40
0.25
 40
0.3333333333333333
 40
0.3333333333333333
 40
0.3333333333333333
 40
0.4166666666666667
 40
0.4166666666666667
 40
0.4166666666666667
 40
0.5
 40
0.5
 40
0.5
 40
0.5833333333333334
 40
0.5833333333333334
 40
0.5833333333333334
 40
0.6666666666666666
 40
0.6666666666666666
 40
0.6666666666666666
 40
0.75
 40
0.75
 40
0.75
 40
0.8333333333333334
 40
0.8333333333333334
 40
0.8333333333333334
 40
0.9166666666666666
 40
0.9166666666666666
 40
0.9166666666666666
 40
1.0
 40
1.0
 40
1.0
 40
1.0
 10
44.39623471328623
 20
8.727305110428638
 30
0.0
 10
44.82961316214747
 20
8.429474581683005
 30
0.0
 10
45.53344663409908
 20
8.090993726963271
 30
0.0
 10
46.04814423913854
 20
8.090993726963271
 30
0.0
 10
47.00932651360984
 20
8.090993726963271
 30
0.0
 10
47.55106813604937
 20
8.700259265458792
 30
0.0
 10
47.55106813604937
 20
9.444917145842206
 30
0.0
 10
47.53745999990542
 20
11.31353816976063
 30
0.0
 10
43.70565001861249
 20
10.51461999968931
 30
0.0
 10
43.70565001861249
 20
13.71012042508668
 30
0.0
 10
43.70565001861249
 20
15.24026059428534
 30
0.0
 10
44.95139736789142
 20
16.43174765387639
 30
0.0
 10
46.83345427306585
 20
16.43174765387639
 30
0.0
 10
47.76776478502507
 20
16.43174765387639
 30
0.0
 10
48.67485902469639
 20
16.10670268041273
 30
0.0
 10
49.47361308602012
 20
15.64644135906617
 30
0.0
 10
49.47360162773157
 20
15.64643320030638
 30
0.0
 10
48.74255909224894
 20
14.40068274680042
 30
0.0
 10
48.74255055156664
 20
14.4006934180556
 30
0.0
 10
48.1739418106888
 20
14.71212710798984
 30
0.0
 10
47.64580832439333
 20
15.02356394530955
 30
0.0
 10
46.9688466149538
 20
15.02356394530955
 30
0.0
 10
46.18353658102649
 20
15.02356394530955
 30
0.0
 10
45.43887870064302
 20
14.60377878350193
 30
0.0
 10
45.43887870064302
 20
13.76438071477455
 30
0.0
 10
45.43887870064302
 20
11.92280370825615
 30
0.0
 10
49.36542887027986
 20
12.50502522935168
 30
0.0
 10
49.36542887027986
 20
9.512613316786153
 30
0.0
 10
49.36542887027986
 20
7.914949231531418
 30
0.0
 10
48.079029367457
 20
6.682810018396404
 30
0.0
 10
46.26466863322639
 20
6.682810018396404
 30
0.0
 10
45.3575743935551
 20
6.682810018396404
 30
0.0
 10
44.50456818868381
 20
6.940158820916148
 30
0.0
 10
43.71907888079861
 20
7.400592083519152
 30
0.0
 10
43.71908887943025
 20
7.400600963125905
 30
0.0
 10
44.3962244106452
 20
8.727312190709236
 30
0.0
 10
44.39623471328623
 20
8.727305110428638
 30
0.0
  0
SPLINE
  5
DC
102
{ACAD_REACTORS
330
E2
102
}
330
1F
100
AcDbEntity
  8
1
  6
Continuous
 62
   163
 60
     1
370
    18
100
AcDbSpline
210
0.0
220
0.0
230
1.0
 70
    11
 71
     3
 72
    17
 73
    13
 74
     0
 42
0.000000001
 43
0.0000000001
 40
0.0
 40
0.0
 40
0.0
 40
0.0
 40
0.2500749063670416
 40
0.2500749063670416
 40
0.2500749063670416
 40
0.4999999999999989
 40
0.4999999999999989
 40
0.4999999999999989
 40
0.7500749063670404
 40
0.7500749063670404
 40
0.7500749063670404
 40
1.0
 40
1.0
 40
1.0
 40
1.0
 10
55.95917372413066
 20
11.85614106663957
 30
0.0
 10
54.42564587546997
 20
11.85614106663957
 30
0.0
 10
52.89211802680927
 20
11.85614106663957
 30
0.0
 10
51.35859017814857
 20
11.85614106663957
 30
0.0
 10
51.35859017814857
 20
13.3887502225648
 30
0.0
 10
51.35859017814857
 20
14.92135937849003
 30
0.0
 10
51.35859017814857
 20
16.45396853441526
 30
0.0
 10
52.89211802680927
 20
16.45396853441526
 30
0.0
 10
54.42564587546997
 20
16.45396853441526
 30
0.0
 10
55.95917372413066
 20
16.45396853441526
 30
0.0
 10
55.95917372413066
 20
14.92135937849003
 30
0.0
 10
55.95917372413066
 20
13.3887502225648
 30
0.0
 10
55.95917372413066
 20
11.85614106663957
 30
0.0
  0
SPLINE
  5
DD
102
{ACAD_REACTORS
330
E2
102
}
330
1F
100
AcDbEntity
  8
1
  6
Continuous
 62
   163
 60
     1
370
    18
100
AcDbSpline
210
0.0
220
0.0
230
1.0
 70
    11
 71
     3
 72
    17
 73
    13
 74
     0
 42
0.000000001
 43
0.0000000001
 40
0.0
 40
0.0
 40
0.0
 40
0.0
 40
0.2500749063670398
 40
0.2500749063670398
 40
0.2500749063670398
 40
0.5000000000000023
 40
0.5000000000000023
 40
0.5000000000000023
 40
0.7500749063670421
 40
0.7500749063670421
 40
0.7500749063670421
 40
1.0
 40
1.0
 40
1.0
 40
1.0
 10
61.1392227130018
 20
6.675747567992611
 30
0.0
 10
59.6056948643411
 20
6.675747567992611
 30
0.0
 10
58.07216701568041
 20
6.675747567992611
 30
0.0
 10
56.53863916701982
 20
6.675747567992611
 30
0.0
 10
56.53863916701982
 20
8.20835672391784
 30
0.0
 10
56.53863916701982
 20
9.740965879843069
 30
0.0
 10
56.53863916701982
 20
11.2735750357683
 30
0.0
 10
58.07216701568041
 20
11.2735750357683
 30
0.0
 10
59.6056948643411
 20
11.2735750357683
 30
0.0
 10
61.1392227130018
 20
11.2735750357683
 30
0.0
 10
61.1392227130018
 20
9.740965879843069
 30
0.0
 10
61.1392227130018
 20
8.20835672391784
 30
0.0
 10
61.1392227130018
 20
6.675747567992611
 30
0.0
  0
SPLINE
  5
DE
102
{ACAD_REACTORS
330
E2
102
}
330
1F
100
AcDbEntity
  8
1
  6
Continuous
 62
   163
 60
     1
370
    18
100
AcDbSpline
210
0.0
220
0.0
230
1.0
 70
    11
 71
     3
 72
    17
 73
    13
 74
     0
 42
0.000000001
 43
0.0000000001
 40
0.0
 40
0.0
 40
0.0
 40
0.0
 40
0.2500749063670398
 40
0.2500749063670398
 40
0.2500749063670398
 40
0.5000000000000023
 40
0.5000000000000023
 40
0.5000000000000023
 40
0.7500749063670421
 40
0.7500749063670421
 40
0.7500749063670421
 40
1.0
 40
1.0
 40
1.0
 40
1.0
 10
61.1392227130018
 20
16.45396853441526
 30
0.0
 10
59.6056948643411
 20
16.45396853441526
 30
0.0
 10
58.07216701568041
 20
16.45396853441526
 30
0.0
 10
56.53863916701982
 20
16.45396853441526
 30
0.0
 10
56.53863916701982
 20
14.92135937849003
 30
0.0
 10
56.53863916701982
 20
13.3887502225648
 30
0.0
 10
56.53863916701982
 20
11.85614106663957
 30
0.0
 10
58.07216701568041
 20
11.85614106663957
 30
0.0
 10
59.6056948643411
 20
11.85614106663957
 30
0.0
 10
61.1392227130018
 20
11.85614106663957
 30
0.0
 10
61.1392227130018
 20
13.3887502225648
 30
0.0
 10
61.1392227130018
 20
14.92135937849003
 30
0.0
 10
61.1392227130018
 20
16.45396853441526
 30
0.0
  0
SPLINE
  5
DF
102
{ACAD_REACTORS
330
E2
102
}
330
1F
100
AcDbEntity
  8
1
  6
Continuous
 62
   163
 60
     1
370
    18
100
AcDbSpline
210
0.0
220
0.0
230
1.0
 70
    11
 71
     3
 72
    17
 73
    13
 74
     0
 42
0.000000001
 43
0.0000000001
 40
0.0
 40
0.0
 40
0.0
 40
0.0
 40
0.2499153546639589
 40
0.2499153546639589
 40
0.2499153546639589
 40
0.4999999999999987
 40
0.4999999999999987
 40
0.4999999999999987
 40
0.7499153546639602
 40
0.7499153546639602
 40
0.7499153546639602
 40
1.0
 40
1.0
 40
1.0
 40
1.0
 10
60.87463920519031
 20
16.18938502660379
 30
0.0
 10
60.87463920519031
 20
14.83316487588619
 30
0.0
 10
60.87463920519031
 20
13.47694472516864
 30
0.0
 10
60.87463920519031
 20
12.12072457445104
 30
0.0
 10
59.51750036173735
 20
12.12072457445104
 30
0.0
 10
58.16036151828428
 20
12.12072457445104
 30
0.0
 10
56.8032226748312
 20
12.12072457445104
 30
0.0
 10
56.8032226748312
 20
13.47694472516864
 30
0.0
 10
56.8032226748312
 20
14.83316487588619
 30
0.0
 10
56.8032226748312
 20
16.18938502660379
 30
0.0
 10
58.16036151828428
 20
16.18938502660379
 30
0.0
 10
59.51750036173735
 20
16.18938502660379
 30
0.0
 10
60.87463920519031
 20
16.18938502660379
 30
0.0
  0
SPLINE
  5
E0
102
{ACAD_REACTORS
330
E2
102
}
330
1F
100
AcDbEntity
  8
1
  6
Continuous
 62
   163
 60
     1
370
    18
100
AcDbSpline
210
0.0
220
0.0
230
1.0
 70
    11
 71
     3
 72
    17
 73
    13
 74
     0
 42
0.000000001
 43
0.0000000001
 40
0.0
 40
0.0
 40
0.0
 40
0.0
 40
0.2500749063670416
 40
0.2500749063670416
 40
0.2500749063670416
 40
0.4999999999999989
 40
0.4999999999999989
 40
0.4999999999999989
 40
0.7500749063670404
 40
0.7500749063670404
 40
0.7500749063670404
 40
1.0
 40
1.0
 40
1.0
 40
1.0
 10
55.95917372413066
 20
11.2735750357683
 30
0.0
 10
54.42564587546997
 20
11.2735750357683
 30
0.0
 10
52.89211802680927
 20
11.2735750357683
 30
0.0
 10
51.35859017814857
 20
11.2735750357683
 30
0.0
 10
51.35859017814857
 20
9.740965879843069
 30
0.0
 10
51.35859017814857
 20
8.20835672391784
 30
0.0
 10
51.35859017814857
 20
6.675747567992611
 30
0.0
 10
52.89211802680927
 20
6.675747567992611
 30
0.0
 10
54.42564587546997
 20
6.675747567992611
 30
0.0
 10
55.95917372413066
 20
6.675747567992611
 30
0.0
 10
55.95917372413066
 20
8.20835672391784
 30
0.0
 10
55.95917372413066
 20
9.740965879843069
 30
0.0
 10
55.95917372413066
 20
11.2735750357683
 30
0.0
  0
SPLINE
  5
E1
102
{ACAD_REACTORS
330
E2
102
}
330
1F
100
AcDbEntity
  8
1
  6
Continuous
 62
   163
 60
     1
370
    18
100
AcDbSpline
210
0.0
220
0.0
230
1.0
 70
    11
 71
     3
 72
    17
 73
    13
 74
     0
 42
0.000000001
 43
0.0000000001
 40
0.0
 40
0.0
 40
0.0
 40
0.0
 40
0.2499153546639537
 40
0.2499153546639537
 40
0.2499153546639537
 40
0.4999999999999934
 40
0.4999999999999934
 40
0.4999999999999934
 40
0.749915354663955
 40
0.749915354663955
 40
0.749915354663955
 40
1.0
 40
1.0
 40
1.0
 40
1.0
 10
55.69459021631917
 20
11.0089915279568
 30
0.0
 10
55.69459021631917
 20
9.652771377239228
 30
0.0
 10
55.69459021631917
 20
8.296551226521624
 30
0.0
 10
55.69459021631917
 20
6.940331075804048
 30
0.0
 10
54.3374513728661
 20
6.940331075804048
 30
0.0
 10
52.98031252941303
 20
6.940331075804048
 30
0.0
 10
51.62317368596007
 20
6.940331075804048
 30
0.0
 10
51.62317368596007
 20
8.296551226521652
 30
0.0
 10
51.62317368596007
 20
9.652771377239228
 30
0.0
 10
51.62317368596007
 20
11.0089915279568
 30
0.0
 10
52.98031252941303
 20
11.0089915279568
 30
0.0
 10
54.3374513728661
 20
11.0089915279568
 30
0.0
 10
55.69459021631917
 20
11.0089915279568
 30
0.0
  0
HATCH
  5
E2
102
{ACAD_REACTORS
330
11F
102
}
330
1F
100
AcDbEntity
  8
256
  6
Continuous
 62
   155
370
    13
100
AcDbHatch
 10
0.0
 20
0.0
 30
0.0
210
0.0
220
0.0
230
1.0
  2
ANSI31
 70
     0
 71
     1
 91
        9
 92
        0
 93
        1
 72
     4
 94
        3
 73
     0
 74
     1
 95
       53
 96
       49
 40
0.0
 40
0.0
 40
0.0
 40
0.0
 40
0.024233419787787
 40
0.024233419787787
 40
0.024233419787787
 40
0.1280418012427934
 40
0.1280418012427934
 40
0.1280418012427934
 40
0.1284086704647148
 40
0.1284086704647148
 40
0.1284086704647148
 40
0.2309459700568215
 40
0.2309459700568215
 40
0.2309459700568215
 40
0.2557435253627113
 40
0.2557435253627113
 40
0.2557435253627113
 40
0.3573149299809463
 40
0.3573149299809463
 40
0.3573149299809463
 40
0.3576817992028669
 40
0.3576817992028669
 40
0.3576817992028669
 40
0.4624443157722517
 40
0.4624443157722517
 40
0.4624443157722517
 40
0.4860156317106226
 40
0.4860156317106226
 40
0.4860156317106226
 40
0.6156754647053586
 40
0.6156754647053586
 40
0.6156754647053586
 40
0.6406552862488913
 40
0.6406552862488913
 40
0.6406552862488913
 40
0.7430727925756138
 40
0.7430727925756138
 40
0.7430727925756138
 40
0.7434419985441709
 40
0.7434419985441709
 40
0.7434419985441709
 40
0.8467092888241766
 40
0.8467092888241766
 40
0.8467092888241766
 40
0.8713245778924228
 40
0.8713245778924228
 40
0.8713245778924228
 40
1.0
 40
1.0
 40
1.0
 40
1.0
 10
23.1392776780207
 20
15.99852661081272
 10
23.71696315373489
 20
16.14293362516728
 10
24.29464862944909
 20
16.28734063952184
 10
24.87233410516333
 20
16.43174765387639
 10
25.45909167164015
 20
13.94938246437707
 10
26.04584923811703
 20
11.46701727487778
 10
26.63260680459385
 20
8.984652085378494
 10
26.64162147706051
 20
8.984652085378494
 10
26.65063614952717
 20
8.984652085378494
 10
26.65965082199384
 20
8.984652085378494
 10
27.36377138542528
 20
11.40379973101924
 10
28.06789194885667
 20
13.82294737665993
 10
28.77201251228806
 20
16.24209502230062
 10
29.38133546907952
 20
16.24209502230062
 10
29.99065842587103
 20
16.24209502230062
 10
30.59998138266255
 20
16.24209502230062
 10
31.21378296653936
 20
13.82294737665993
 10
31.82758455041622
 20
11.40379973101924
 10
32.44138613429308
 20
8.984652085378494
 10
32.45040080675975
 20
8.984652085378494
 10
32.45941547922641
 20
8.984652085378494
 10
32.46843015169307
 20
8.984652085378494
 10
33.14992790651385
 20
11.46701727487778
 10
33.83142566133463
 20
13.9493824643771
 10
34.51292341615542
 20
16.43174765387639
 10
35.07263696523225
 20
16.28280459414052
 10
35.63235051430908
 20
16.13386153440465
 10
36.19206406338597
 20
15.98491847466878
 10
35.23070953402672
 20
12.94743319976991
 10
34.26935500466752
 20
9.909947924871071
 10
33.30800047530832
 20
6.872462649972229
 10
32.69419889143145
 20
6.872462649972229
 10
32.08039730755465
 20
6.872462649972229
 10
31.46659572367778
 20
6.872462649972229
 10
30.85727276688633
 20
9.31417568592756
 10
30.24794981009481
 20
11.75588872188289
 10
29.63862685330335
 20
14.19760175783825
 10
29.62955476254072
 20
14.19760175783825
 10
29.62048267177803
 20
14.19760175783825
 10
29.61141058101541
 20
14.19760175783825
 10
28.92089815372796
 20
11.75588872188289
 10
28.23038572644052
 20
9.31417568592756
 10
27.53987329915307
 20
6.872462649972229
 10
26.9350289694469
 20
6.872462649972229
 10
26.33018463974079
 20
6.872462649972229
 10
25.72534031003462
 20
6.872462649972229
 10
24.86331943269667
 20
9.914483970252357
 10
24.00129855535866
 20
12.95650529053254
 10
23.1392776780207
 20
15.99852661081272
 97
        1
330
D9
 92
        0
 93
        1
 72
     4
 94
        3
 73
     0
 74
     1
 95
       41
 96
       37
 40
0.0
 40
0.0
 40
0.0
 40
0.0
 40
0.0833333333333333
 40
0.0833333333333333
 40
0.0833333333333333
 40
0.1666666666666667
 40
0.1666666666666667
 40
0.1666666666666667
 40
0.25
 40
0.25
 40
0.25
 40
0.3333333333333333
 40
0.3333333333333333
 40
0.3333333333333333
 40
0.4166666666666667
 40
0.4166666666666667
 40
0.4166666666666667
 40
0.5
 40
0.5
 40
0.5
 40
0.5833333333333334
 40
0.5833333333333334
 40
0.5833333333333334
 40
0.6666666666666666
 40
0.6666666666666666
 40
0.6666666666666666
 40
0.75
 40
0.75
 40
0.75
 40
0.8333333333333334
 40
0.8333333333333334
 40
0.8333333333333334
 40
0.9166666666666666
 40
0.9166666666666666
 40
0.9166666666666666
 40
1.0
 40
1.0
 40
1.0
 40
1.0
 10
37.62644536308606
 20
8.727305110896895
 10
38.05982381286489
 20
8.429474581683005
 10
38.76382953970435
 20
8.090993726963271
 10
39.27835488985593
 20
8.090993726963271
 10
40.23970941921513
 20
8.090993726963271
 10
40.78127878676671
 20
8.700259265458792
 10
40.78127878676671
 20
9.444917145842206
 10
40.76767065062276
 20
11.31353816976063
 10
36.93603292421776
 20
10.51461999968931
 10
36.93603292421776
 20
13.71012042508668
 10
36.93603292421776
 20
15.24026059428534
 10
38.18160801860884
 20
16.43174765387639
 10
40.06383717867121
 20
16.43174765387639
 10
40.99814769063042
 20
16.43174765387639
 10
41.90506967541384
 20
16.10670268041273
 10
42.70399599466541
 20
15.64644135862842
 10
42.70398453274984
 20
15.6464332013328
 10
41.97276974205371
 20
14.4006827459659
 10
41.97276120276902
 20
14.4006934186719
 10
41.4043247162941
 20
14.71212710798984
 10
40.87619122999857
 20
15.02356394530955
 10
40.1992295205591
 20
15.02356394530955
 10
39.41374723174383
 20
15.02356394530955
 10
38.66908935136038
 20
14.60377878350193
 10
38.66908935136038
 20
13.76438071477455
 10
38.66908935136038
 20
11.92280370825615
 10
42.59581177588515
 20
12.50502522935168
 10
42.59581177588515
 20
9.512613316786153
 10
42.59581177588515
 20
7.914949231531418
 10
41.30924001817434
 20
6.682810018396404
 10
39.49505153883169
 20
6.682810018396404
 10
38.58778504427252
 20
6.682810018396404
 10
37.73477883940117
 20
6.940158820916148
 10
36.94946178950815
 20
7.400592083187442
 10
36.94947178431599
 20
7.400600964059331
 10
37.626435060445
 20
8.727312191177512
 10
37.62644536308606
 20
8.727305110896895
 97
        1
330
DA
 92
        0
 93
        1
 72
     4
 94
        3
 73
     0
 74
     1
 95
       41
 96
       37
 40
0.0
 40
0.0
 40
0.0
 40
0.0
 40
0.0833333333333333
 40
0.0833333333333333
 40
0.0833333333333333
 40
0.1666666666666667
 40
0.1666666666666667
 40
0.1666666666666667
 40
0.25
 40
0.25
 40
0.25
 40
0.3333333333333333
 40
0.3333333333333333
 40
0.3333333333333333
 40
0.4166666666666667
 40
0.4166666666666667
 40
0.4166666666666667
 40
0.5
 40
0.5
 40
0.5
 40
0.5833333333333334
 40
0.5833333333333334
 40
0.5833333333333334
 40
0.6666666666666666
 40
0.6666666666666666
 40
0.6666666666666666
 40
0.75
 40
0.75
 40
0.75
 40
0.8333333333333334
 40
0.8333333333333334
 40
0.8333333333333334
 40
0.9166666666666666
 40
0.9166666666666666
 40
0.9166666666666666
 40
1.0
 40
1.0
 40
1.0
 40
1.0
 10
44.39623471328623
 20
8.727305110428638
 10
44.82961316214747
 20
8.429474581683005
 10
45.53344663409908
 20
8.090993726963271
 10
46.04814423913854
 20
8.090993726963271
 10
47.00932651360984
 20
8.090993726963271
 10
47.55106813604937
 20
8.700259265458792
 10
47.55106813604937
 20
9.444917145842206
 10
47.53745999990542
 20
11.31353816976063
 10
43.70565001861249
 20
10.51461999968931
 10
43.70565001861249
 20
13.71012042508668
 10
43.70565001861249
 20
15.24026059428534
 10
44.95139736789142
 20
16.43174765387639
 10
46.83345427306585
 20
16.43174765387639
 10
47.76776478502507
 20
16.43174765387639
 10
48.67485902469639
 20
16.10670268041273
 10
49.47361308602012
 20
15.64644135906617
 10
49.47360162773157
 20
15.64643320030638
 10
48.74255909224894
 20
14.40068274680042
 10
48.74255055156664
 20
14.4006934180556
 10
48.1739418106888
 20
14.71212710798984
 10
47.64580832439333
 20
15.02356394530955
 10
46.9688466149538
 20
15.02356394530955
 10
46.18353658102649
 20
15.02356394530955
 10
45.43887870064302
 20
14.60377878350193
 10
45.43887870064302
 20
13.76438071477455
 10
45.43887870064302
 20
11.92280370825615
 10
49.36542887027986
 20
12.50502522935168
 10
49.36542887027986
 20
9.512613316786153
 10
49.36542887027986
 20
7.914949231531418
 10
48.079029367457
 20
6.682810018396404
 10
46.26466863322639
 20
6.682810018396404
 10
45.3575743935551
 20
6.682810018396404
 10
44.50456818868381
 20
6.940158820916148
 10
43.71907888079861
 20
7.400592083519152
 10
43.71908887943025
 20
7.400600963125905
 10
44.3962244106452
 20
8.727312190709236
 10
44.39623471328623
 20
8.727305110428638
 97
        1
330
DB
 92
        0
 93
        1
 72
     4
 94
        3
 73
     0
 74
     1
 95
       17
 96
       13
 40
0.0
 40
0.0
 40
0.0
 40
0.0
 40
0.2500749063670416
 40
0.2500749063670416
 40
0.2500749063670416
 40
0.4999999999999989
 40
0.4999999999999989
 40
0.4999999999999989
 40
0.7500749063670404
 40
0.7500749063670404
 40
0.7500749063670404
 40
1.0
 40
1.0
 40
1.0
 40
1.0
 10
55.95917372413066
 20
11.85614106663957
 10
54.42564587546997
 20
11.85614106663957
 10
52.89211802680927
 20
11.85614106663957
 10
51.35859017814857
 20
11.85614106663957
 10
51.35859017814857
 20
13.3887502225648
 10
51.35859017814857
 20
14.92135937849003
 10
51.35859017814857
 20
16.45396853441526
 10
52.89211802680927
 20
16.45396853441526
 10
54.42564587546997
 20
16.45396853441526
 10
55.95917372413066
 20
16.45396853441526
 10
55.95917372413066
 20
14.92135937849003
 10
55.95917372413066
 20
13.3887502225648
 10
55.95917372413066
 20
11.85614106663957
 97
        1
330
DC
 92
        0
 93
        1
 72
     4
 94
        3
 73
     0
 74
     1
 95
       17
 96
       13
 40
0.0
 40
0.0
 40
0.0
 40
0.0
 40
0.2500749063670398
 40
0.2500749063670398
 40
0.2500749063670398
 40
0.5000000000000023
 40
0.5000000000000023
 40
0.5000000000000023
 40
0.7500749063670421
 40
0.7500749063670421
 40
0.7500749063670421
 40
1.0
 40
1.0
 40
1.0
 40
1.0
 10
61.1392227130018
 20
6.675747567992611
 10
59.6056948643411
 20
6.675747567992611
 10
58.07216701568041
 20
6.675747567992611
 10
56.53863916701982
 20
6.675747567992611
 10
56.53863916701982
 20
8.20835672391784
 10
56.53863916701982
 20
9.740965879843069
 10
56.53863916701982
 20
11.2735750357683
 10
58.07216701568041
 20
11.2735750357683
 10
59.6056948643411
 20
11.2735750357683
 10
61.1392227130018
 20
11.2735750357683
 10
61.1392227130018
 20
9.740965879843069
 10
61.1392227130018
 20
8.20835672391784
 10
61.1392227130018
 20
6.675747567992611
 97
        1
330
DD
 92
        0
 93
        1
 72
     4
 94
        3
 73
     0
 74
     1
 95
       17
 96
       13
 40
0.0
 40
0.0
 40
0.0
 40
0.0
 40
0.2500749063670398
 40
0.2500749063670398
 40
0.2500749063670398
 40
0.5000000000000023
 40
0.5000000000000023
 40
0.5000000000000023
 40
0.7500749063670421
 40
0.7500749063670421
 40
0.7500749063670421
 40
1.0
 40
1.0
 40
1.0
 40
1.0
 10
61.1392227130018
 20
16.45396853441526
 10
59.6056948643411
 20
16.45396853441526
 10
58.07216701568041
 20
16.45396853441526
 10
56.53863916701982
 20
16.45396853441526
 10
56.53863916701982
 20
14.92135937849003
 10
56.53863916701982
 20
13.3887502225648
 10
56.53863916701982
 20
11.85614106663957
 10
58.07216701568041
 20
11.85614106663957
 10
59.6056948643411
 20
11.85614106663957
 10
61.1392227130018
 20
11.85614106663957
 10
61.1392227130018
 20
13.3887502225648
 10
61.1392227130018
 20
14.92135937849003
 10
61.1392227130018
 20
16.45396853441526
 97
        1
330
DE
 92
        0
 93
        1
 72
     4
 94
        3
 73
     0
 74
     1
 95
       17
 96
       13
 40
0.0
 40
0.0
 40
0.0
 40
0.0
 40
0.2499153546639589
 40
0.2499153546639589
 40
0.2499153546639589
 40
0.4999999999999987
 40
0.4999999999999987
 40
0.4999999999999987
 40
0.7499153546639602
 40
0.7499153546639602
 40
0.7499153546639602
 40
1.0
 40
1.0
 40
1.0
 40
1.0
 10
60.87463920519031
 20
16.18938502660379
 10
60.87463920519031
 20
14.83316487588619
 10
60.87463920519031
 20
13.47694472516864
 10
60.87463920519031
 20
12.12072457445104
 10
59.51750036173735
 20
12.12072457445104
 10
58.16036151828428
 20
12.12072457445104
 10
56.8032226748312
 20
12.12072457445104
 10
56.8032226748312
 20
13.47694472516864
 10
56.8032226748312
 20
14.83316487588619
 10
56.8032226748312
 20
16.18938502660379
 10
58.16036151828428
 20
16.18938502660379
 10
59.51750036173735
 20
16.18938502660379
 10
60.87463920519031
 20
16.18938502660379
 97
        1
330
DF
 92
        0
 93
        1
 72
     4
 94
        3
 73
     0
 74
     1
 95
       17
 96
       13
 40
0.0
 40
0.0
 40
0.0
 40
0.0
 40
0.2500749063670416
 40
0.2500749063670416
 40
0.2500749063670416
 40
0.4999999999999989
 40
0.4999999999999989
 40
0.4999999999999989
 40
0.7500749063670404
 40
0.7500749063670404
 40
0.7500749063670404
 40
1.0
 40
1.0
 40
1.0
 40
1.0
 10
55.95917372413066
 20
11.2735750357683
 10
54.42564587546997
 20
11.2735750357683
 10
52.89211802680927
 20
11.2735750357683
 10
51.35859017814857
 20
11.2735750357683
 10
51.35859017814857
 20
9.740965879843069
 10
51.35859017814857
 20
8.20835672391784
 10
51.35859017814857
 20
6.675747567992611
 10
52.89211802680927
 20
6.675747567992611
 10
54.42564587546997
 20
6.675747567992611
 10
55.95917372413066
 20
6.675747567992611
 10
55.95917372413066
 20
8.20835672391784
 10
55.95917372413066
 20
9.740965879843069
 10
55.95917372413066
 20
11.2735750357683
 97
        1
330
E0
 92
        0
 93
        1
 72
     4
 94
        3
 73
     0
 74
     1
 95
       17
 96
       13
 40
0.0
 40
0.0
 40
0.0
 40
0.0
 40
0.2499153546639537
 40
0.2499153546639537
 40
0.2499153546639537
 40
0.4999999999999934
 40
0.4999999999999934
 40
0.4999999999999934
 40
0.749915354663955
 40
0.749915354663955
 40
0.749915354663955
 40
1.0
 40
1.0
 40
1.0
 40
1.0
 10
55.69459021631917
 20
11.0089915279568
 10
55.69459021631917
 20
9.652771377239228
 10
55.69459021631917
 20
8.296551226521624
 10
55.69459021631917
 20
6.940331075804048
 10
54.3374513728661
 20
6.940331075804048
 10
52.98031252941303
 20
6.940331075804048
 10
51.62317368596007
 20
6.940331075804048
 10
51.62317368596007
 20
8.296551226521652
 10
51.62317368596007
 20
9.652771377239228
 10
51.62317368596007
 20
11.0089915279568
 10
52.98031252941303
 20
11.0089915279568
 10
54.3374513728661
 20
11.0089915279568
 10
55.69459021631917
 20
11.0089915279568
 97
        1
330
E1
 75
     0
 76
     1
 52
0.0
 41
0.1
 77
     0
 78
     1
 53
44.99999999999989
 43
0.0
 44
0.0
 45
-0.2245064030267284
 46
0.2245064030267293
 79
     0
 98
        0
  0
DIMENSION
  5
E3
102
{ACAD_REACTORS
330
E5
102
}
102
{ACAD_XDICTIONARY
360
E4
102
}
330
1F
100
AcDbEntity
  8
1
  6
Continuous
 62
    35
370
    13
100
AcDbDimension
  2
_U0
 10
128.695366
 20
148.277273
 30
0.0
 11
128.695366
 21
183.177273
 31
0.0
 70
   160
 71
     1
 42
69.8
 52
90.0
  3
Standard
100
AcDbAlignedDimension
 13
109.695366
 23
218.077273
 33
0.0
 14
109.695366
 24
148.277273
 34
0.0
 50
90.0
100
AcDbRotatedDimension
1001
ACAD
1000
DSTYLE
1002
{
1070
   371
1070
    13
1070
   372
1070
    13
1070
   170
1070
     0
1070
   144
1040
1.0
1070
   277
1070
     2
1070
   284
1070
     8
1070
   278
1070
    46
1070
   146
1040
0.714286
1070
   345
1005
16
1070
   347
1005
16
1070
   346
1005
16
1070
   344
1005
0
1070
   343
1005
0
1070
   172
1070
     1
1070
    76
1070
     0
1070
    75
1070
     0
1070
   282
1070
     0
1070
   281
1070
     0
1070
    71
1070
     0
1070
   289
1070
     2
1070
    74
1070
     0
1070
   279
1070
     0
1070
   173
1070
     1
1070
   340
1005
BA
1070
   271
1070
     0
1070
   272
1070
     1
1070
    77
1070
     1
1070
    73
1070
     0
1070
   171
1070
     3
1070
   274
1070
     4
1070
   177
1070
    35
1070
   176
1070
    35
1070
   178
1070
    35
1070
    78
1070
     8
1070
    48
1040
-0.1
1070
    41
1040
8.0
1070
   147
1040
1.75
1070
    42
1040
0.0
1070
    44
1040
1.0
1070
   140
1040
3.5
1002
}
1001
ACAD_DSTYLE_DIM_LINETYPE
1070
   380
1005
16
1001
ACAD_DSTYLE_DIM_EXT1_LINETYPE
1070
   381
1005
16
1001
ACAD_DSTYLE_DIM_EXT2_LINETYPE
1070
   382
1005
16
  0
DIMENSION
  5
FC
102
{ACAD_REACTORS
330
FE
102
}
102
{ACAD_XDICTIONARY
360
FD
102
}
330
1F
100
AcDbEntity
  8
1
  6
Continuous
 62
    35
370
    13
100
AcDbDimension
  2
_U1
 10
114.695366
 20
132.277273
 30
0.0
 11
137.695366
 21
132.277273
 31
0.0
 70
   160
 71
     1
 42
10.0
 52
90.0
  3
Standard
100
AcDbAlignedDimension
 13
104.695366
 23
166.744501
 33
0.0
 14
114.695366
 24
166.744501
 34
0.0
100
AcDbRotatedDimension
1001
ACAD
1000
DSTYLE
1002
{
1070
   371
1070
    13
1070
   372
1070
    13
1070
     3
1000
%%c<>
1070
   170
1070
     0
1070
   144
1040
1.0
1070
   277
1070
     2
1070
   284
1070
     8
1070
   278
1070
    46
1070
   146
1040
0.714286
1070
   345
1005
16
1070
   347
1005
16
1070
   346
1005
16
1070
   344
1005
0
1070
   343
1005
0
1070
   172
1070
     1
1070
    76
1070
     0
1070
    75
1070
     0
1070
   282
1070
     0
1070
   281
1070
     0
1070
    71
1070
     0
1070
   289
1070
     2
1070
    74
1070
     0
1070
   279
1070
     0
1070
   173
1070
     1
1070
   340
1005
BA
1070
   271
1070
     0
1070
   272
1070
     1
1070
    77
1070
     1
1070
    73
1070
     0
1070
   171
1070
     3
1070
   274
1070
     4
1070
   177
1070
    35
1070
   176
1070
    35
1070
   178
1070
    35
1070
    78
1070
     8
1070
    48
1040
-0.1
1070
    41
1040
8.0
1070
   147
1040
1.75
1070
    42
1040
0.0
1070
    44
1040
1.0
1070
   140
1040
3.5
1002
}
1001
ACAD_DSTYLE_DIM_LINETYPE
1070
   380
1005
16
1001
ACAD_DSTYLE_DIM_EXT1_LINETYPE
1070
   381
1005
16
1001
ACAD_DSTYLE_DIM_EXT2_LINETYPE
1070
   382
1005
16
  0
ENDSEC
  0
SECTION
  2
OBJECTS
  0
DICTIONARY
  5
C
330
0
100
AcDbDictionary
281
     1
  3
ACAD_DETAILVIEWSTYLE
350
170
  3
ACAD_GROUP
350
D
  3
ACAD_LAYOUT
350
1A
  3
ACAD_MATERIAL
350
43
  3
ACAD_MLEADERSTYLE
350
16F
  3
ACAD_MLINESTYLE
350
17
  3
ACAD_PLOTSETTINGS
350
19
  3
ACAD_PLOTSTYLENAME
350
E
  3
ACAD_SCALELIST
350
47
  3
ACAD_SECTIONVIEWSTYLE
350
171
  3
ACAD_TABLESTYLE
350
16E
  3
ACAD_VISUALSTYLE
350
2A
  3
AcDbVariableDictionary
350
135
  0
DICTIONARY
  5
E4
330
E3
100
AcDbDictionary
280
     1
281
     1
  3
ACAD_DIMASSOC
360
E5
  0
DICTIONARY
  5
FD
330
FC
100
AcDbDictionary
280
     1
281
     1
  3
ACAD_DIMASSOC
360
FE
  0
DICTIONARY
  5
170
102
{ACAD_REACTORS
330
C
102
}
330
C
100
AcDbDictionary
281
     1
  0
DICTIONARY
  5
D
102
{ACAD_REACTORS
330
C
102
}
330
C
100
AcDbDictionary
281
     1
  3
Group1
350
11F
  3
NXE_RSD
350
120
  0
DICTIONARY
  5
1A
102
{ACAD_REACTORS
330
C
102
}
330
C
100
AcDbDictionary
281
     1
  3
Layout1
350
1E
  3
Layout2
350
26
  3
Model
350
22
  0
DICTIONARY
  5
43
102
{ACAD_REACTORS
330
C
102
}
330
C
100
AcDbDictionary
281
     1
  3
ByBlock
350
45
  3
ByLayer
350
44
  3
Global
350
46
  0
DICTIONARY
  5
16F
102
{ACAD_REACTORS
330
C
102
}
330
C
100
AcDbDictionary
281
     1
  0
DICTIONARY
  5
17
102
{ACAD_REACTORS
330
C
102
}
330
C
100
AcDbDictionary
281
     1
  3
Standard
350
18
  0
DICTIONARY
  5
19
102
{ACAD_REACTORS
330
C
102
}
330
C
100
AcDbDictionary
281
     1
  0
ACDBDICTIONARYWDFLT
  5
E
102
{ACAD_REACTORS
330
C
102
}
330
C
100
AcDbDictionary
281
     1
  3
Normal
350
F
100
AcDbDictionaryWithDefault
340
F
  0
DICTIONARY
  5
47
102
{ACAD_REACTORS
330
C
102
}
330
C
100
AcDbDictionary
281
     1
  3
A0
350
48
  3
A1
350
49
  3
A2
350
4A
  3
A3
350
4B
  3
A4
350
4C
  3
A5
350
4D
  3
A6
350
4E
  3
A7
350
4F
  3
A8
350
50
  3
A9
350
51
  3
B0
350
52
  3
B1
350
53
  3
B2
350
54
  3
B3
350
55
  3
B4
350
56
  3
B5
350
57
  3
B6
350
58
  3
B7
350
59
  3
B8
350
5A
  3
B9
350
5B
  3
C0
350
5C
  3
C1
350
5D
  3
C2
350
5E
  3
C3
350
5F
  3
C4
350
60
  3
C5
350
61
  3
C6
350
62
  3
C7
350
63
  3
C8
350
64
  3
C9
350
65
  3
D0
350
66
  3
D1
350
67
  3
D2
350
68
  0
DICTIONARY
  5
171
102
{ACAD_REACTORS
330
C
102
}
330
C
100
AcDbDictionary
281
     1
  0
DICTIONARY
  5
16E
102
{ACAD_REACTORS
330
C
102
}
330
C
100
AcDbDictionary
281
     1
  0
DICTIONARY
  5
2A
102
{ACAD_REACTORS
330
C
102
}
330
C
100
AcDbDictionary
281
     1
  3
2dWireframe
350
2F
  3
Basic
350
32
  3
Brighten
350
36
  3
ColorChange
350
3A
  3
Conceptual
350
34
  3
Dim
350
35
  3
EdgeColorOff
350
3D
  3
Facepattern
350
39
  3
Flat
350
2B
  3
FlatWithEdges
350
2C
  3
Gouraud
350
2D
  3
GouraudWithEdges
350
2E
  3
Hidden
350
31
  3
JitterOff
350
3B
  3
Linepattern
350
38
  3
OverhangOff
350
3C
  3
Realistic
350
33
  3
Shaded
350
42
  3
Shaded with edges
350
41
  3
Shades of Gray
350
3E
  3
Sketchy
350
3F
  3
Thicken
350
37
  3
Wireframe
350
30
  3
X-Ray
350
40
  0
DICTIONARY
  5
135
102
{ACAD_REACTORS
330
C
102
}
330
C
100
AcDbDictionary
281
     1
  3
CANNOSCALE
350
136
  3
MSLTSCALE
350
137
  0
DIMASSOC
  5
E5
102
{ACAD_REACTORS
330
E4
102
}
330
E4
100
AcDbDimAssoc
330
E3
 90
        3
 70
     0
 71
     1
  1
AcDbOsnapPointRef
 72
     4
331
71
 73
     3
 91
        1
 40
0.0
 10
109.695366
 20
218.077273
 30
0.0
 75
     0
  1
AcDbOsnapPointRef
 72
     4
331
72
 73
     3
 91
        2
 40
0.0
 10
109.695366
 20
148.277273
 30
0.0
 75
     0
  0
DIMASSOC
  5
FE
102
{ACAD_REACTORS
330
FD
102
}
330
FD
100
AcDbDimAssoc
330
FC
 90
        3
 70
     0
 71
     1
  1
AcDbOsnapPointRef
 72
    10
331
75
 73
     2
 91
        1
 40
42.332772
 10
104.695366
 20
166.744501
 30
0.0
 75
     0
  1
AcDbOsnapPointRef
 72
    10
331
74
 73
     2
 91
        2
 40
4.362412
 10
114.695366
 20
166.744501
 30
0.0
 75
     0
  0
GROUP
  5
11F
102
{ACAD_REACTORS
330
D
102
}
330
D
100
AcDbGroup
300

 70
     0
 71
     1
340
A6
340
A7
340
A8
340
E2
340
B2
340
B3
340
B4
340
B5
340
B6
340
B7
340
B8
  0
GROUP
  5
120
102
{ACAD_REACTORS
330
D
102
}
330
D
100
AcDbGroup
300

 70
     0
 71
     1
340
8A
340
8B
340
8C
340
89
340
8D
340
8E
340
88
340
8F
340
90
340
91
340
92
340
C5
340
D8
340
93
340
87
340
94
340
95
340
82
340
96
340
97
340
99
340
9A
340
9B
340
85
340
84
340
9C
340
86
340
9D
340
9E
340
B9
340
BB
340
C4
340
BC
340
BE
340
C0
340
BF
340
C1
340
D6
340
BD
340
D0
340
CA
340
C2
340
C6
340
CE
340
CF
340
D5
340
C3
340
D1
340
C9
340
D7
340
D2
340
D3
340
D4
340
CB
340
CC
340
CD
  0
LAYOUT
  5
1E
102
{ACAD_REACTORS
330
1A
102
}
330
1A
100
AcDbPlotSettings
  1

  2
none_device
  4

  6

 40
0.0
 41
0.0
 42
0.0
 43
0.0
 44
0.0
 45
0.0
 46
0.0
 47
0.0
 48
0.0
 49
0.0
140
0.0
141
0.0
142
1.0
143
1.0
 70
   688
 72
     0
 73
     0
 74
     5
  7

 75
    16
 76
     0
 77
     2
 78
   300
147
1.0
148
0.0
149
0.0
100
AcDbLayout
  1
Layout1
 70
     1
 71
     1
 10
-0.5
 20
-0.5
 11
5.0
 21
5.0
 12
0.0
 22
0.0
 32
0.0
 14
-0.5
 24
-0.5
 34
-0.5
 15
5.0
 25
5.0
 35
5.0
146
0.0
 13
0.0
 23
0.0
 33
0.0
 16
1.0
 26
0.0
 36
0.0
 17
0.0
 27
1.0
 37
0.0
 76
     0
330
1B
  0
LAYOUT
  5
26
102
{ACAD_REACTORS
330
1A
102
}
330
1A
100
AcDbPlotSettings
  1

  2
none_device
  4

  6

 40
0.0
 41
0.0
 42
0.0
 43
0.0
 44
0.0
 45
0.0
 46
0.0
 47
0.0
 48
0.0
 49
0.0
140
0.0
141
0.0
142
1.0
143
1.0
 70
   688
 72
     0
 73
     0
 74
     5
  7

 75
    16
 76
     0
 77
     2
 78
   300
147
1.0
148
0.0
149
0.0
100
AcDbLayout
  1
Layout2
 70
     1
 71
     2
 10
0.0
 20
0.0
 11
0.0
 21
0.0
 12
0.0
 22
0.0
 32
0.0
 14
0.0
 24
0.0
 34
0.0
 15
0.0
 25
0.0
 35
0.0
146
0.0
 13
0.0
 23
0.0
 33
0.0
 16
1.0
 26
0.0
 36
0.0
 17
0.0
 27
1.0
 37
0.0
 76
     0
330
23
  0
LAYOUT
  5
22
102
{ACAD_REACTORS
330
1A
102
}
330
1A
100
AcDbPlotSettings
  1

  2
none_device
  4
Letter_(8.50_x_11.00_Inches)
  6

 40
6.35
 41
6.35
 42
6.350005
 43
6.350005
 44
215.9
 45
279.4
 46
0.0
 47
0.0
 48
0.0
 49
0.0
140
0.0
141
0.0
142
1.0
143
1.0
 70
  1712
 72
     0
 73
     0
 74
     0
  7

 75
     0
 76
     0
 77
     2
 78
   300
147
1.0
148
0.0
149
0.0
100
AcDbLayout
  1
Model
 70
     1
 71
     0
 10
-0.5
 20
-0.5
 11
5.0
 21
5.0
 12
0.0
 22
0.0
 32
0.0
 14
-0.5
 24
-0.5
 34
-0.5
 15
5.0
 25
5.0
 35
5.0
146
0.0
 13
0.0
 23
0.0
 33
0.0
 16
1.0
 26
0.0
 36
0.0
 17
0.0
 27
1.0
 37
0.0
 76
     0
330
1F
331
121
  0
MATERIAL
  5
45
102
{ACAD_REACTORS
330
43
102
}
102
{ACAD_XDICTIONARY
360
16A
102
}
330
43
100
AcDbMaterial
  1
ByBlock
  0
MATERIAL
  5
44
102
{ACAD_REACTORS
330
43
102
}
102
{ACAD_XDICTIONARY
360
168
102
}
330
43
100
AcDbMaterial
  1
ByLayer
  0
MATERIAL
  5
46
102
{ACAD_REACTORS
330
43
102
}
102
{ACAD_XDICTIONARY
360
16C
102
}
330
43
100
AcDbMaterial
  1
Global
  0
MLINESTYLE
  5
18
102
{ACAD_REACTORS
330
17
102
}
330
17
100
AcDbMlineStyle
  2
Standard
 70
     0
  3

 62
   256
 51
90.0
 52
90.0
 71
     2
 49
0.5
 62
   256
  6
BYLAYER
 49
-0.5
 62
   256
  6
BYLAYER
  0
ACDBPLACEHOLDER
  5
F
102
{ACAD_REACTORS
330
E
102
}
330
E
  0
SCALE
  5
48
102
{ACAD_REACTORS
330
47
102
}
330
47
100
AcDbScale
 70
     0
300
1:1
140
1.0
141
1.0
290
     1
  0
SCALE
  5
49
102
{ACAD_REACTORS
330
47
102
}
330
47
100
AcDbScale
 70
     0
300
1:2
140
1.0
141
2.0
290
     0
  0
SCALE
  5
4A
102
{ACAD_REACTORS
330
47
102
}
330
47
100
AcDbScale
 70
     0
300
1:4
140
1.0
141
4.0
290
     0
  0
SCALE
  5
4B
102
{ACAD_REACTORS
330
47
102
}
330
47
100
AcDbScale
 70
     0
300
1:5
140
1.0
141
5.0
290
     0
  0
SCALE
  5
4C
102
{ACAD_REACTORS
330
47
102
}
330
47
100
AcDbScale
 70
     0
300
1:8
140
1.0
141
8.0
290
     0
  0
SCALE
  5
4D
102
{ACAD_REACTORS
330
47
102
}
330
47
100
AcDbScale
 70
     0
300
1:10
140
1.0
141
10.0
290
     0
  0
SCALE
  5
4E
102
{ACAD_REACTORS
330
47
102
}
330
47
100
AcDbScale
 70
     0
300
1:16
140
1.0
141
16.0
290
     0
  0
SCALE
  5
4F
102
{ACAD_REACTORS
330
47
102
}
330
47
100
AcDbScale
 70
     0
300
1:20
140
1.0
141
20.0
290
     0
  0
SCALE
  5
50
102
{ACAD_REACTORS
330
47
102
}
330
47
100
AcDbScale
 70
     0
300
1:30
140
1.0
141
30.0
290
     0
  0
SCALE
  5
51
102
{ACAD_REACTORS
330
47
102
}
330
47
100
AcDbScale
 70
     0
300
1:40
140
1.0
141
40.0
290
     0
  0
SCALE
  5
52
102
{ACAD_REACTORS
330
47
102
}
330
47
100
AcDbScale
 70
     0
300
1:50
140
1.0
141
50.0
290
     0
  0
SCALE
  5
53
102
{ACAD_REACTORS
330
47
102
}
330
47
100
AcDbScale
 70
     0
300
1:100
140
1.0
141
100.0
290
     0
  0
SCALE
  5
54
102
{ACAD_REACTORS
330
47
102
}
330
47
100
AcDbScale
 70
     0
300
2:1
140
2.0
141
1.0
290
     0
  0
SCALE
  5
55
102
{ACAD_REACTORS
330
47
102
}
330
47
100
AcDbScale
 70
     0
300
4:1
140
4.0
141
1.0
290
     0
  0
SCALE
  5
56
102
{ACAD_REACTORS
330
47
102
}
330
47
100
AcDbScale
 70
     0
300
8:1
140
8.0
141
1.0
290
     0
  0
SCALE
  5
57
102
{ACAD_REACTORS
330
47
102
}
330
47
100
AcDbScale
 70
     0
300
10:1
140
10.0
141
1.0
290
     0
  0
SCALE
  5
58
102
{ACAD_REACTORS
330
47
102
}
330
47
100
AcDbScale
 70
     0
300
100:1
140
100.0
141
1.0
290
     0
  0
SCALE
  5
59
102
{ACAD_REACTORS
330
47
102
}
330
47
100
AcDbScale
 70
     0
300
1/128" = 1'-0"
140
0.007812
141
12.0
290
     0
  0
SCALE
  5
5A
102
{ACAD_REACTORS
330
47
102
}
330
47
100
AcDbScale
 70
     0
300
1/64" = 1'-0"
140
0.015625
141
12.0
290
     0
  0
SCALE
  5
5B
102
{ACAD_REACTORS
330
47
102
}
330
47
100
AcDbScale
 70
     0
300
1/32" = 1'-0"
140
0.03125
141
12.0
290
     0
  0
SCALE
  5
5C
102
{ACAD_REACTORS
330
47
102
}
330
47
100
AcDbScale
 70
     0
300
1/16" = 1'-0"
140
0.0625
141
12.0
290
     0
  0
SCALE
  5
5D
102
{ACAD_REACTORS
330
47
102
}
330
47
100
AcDbScale
 70
     0
300
3/32" = 1'-0"
140
0.09375
141
12.0
290
     0
  0
SCALE
  5
5E
102
{ACAD_REACTORS
330
47
102
}
330
47
100
AcDbScale
 70
     0
300
1/8" = 1'-0"
140
0.125
141
12.0
290
     0
  0
SCALE
  5
5F
102
{ACAD_REACTORS
330
47
102
}
330
47
100
AcDbScale
 70
     0
300
3/16" = 1'-0"
140
0.1875
141
12.0
290
     0
  0
SCALE
  5
60
102
{ACAD_REACTORS
330
47
102
}
330
47
100
AcDbScale
 70
     0
300
1/4" = 1'-0"
140
0.25
141
12.0
290
     0
  0
SCALE
  5
61
102
{ACAD_REACTORS
330
47
102
}
330
47
100
AcDbScale
 70
     0
300
3/8" = 1'-0"
140
0.375
141
12.0
290
     0
  0
SCALE
  5
62
102
{ACAD_REACTORS
330
47
102
}
330
47
100
AcDbScale
 70
     0
300
1/2" = 1'-0"
140
0.5
141
12.0
290
     0
  0
SCALE
  5
63
102
{ACAD_REACTORS
330
47
102
}
330
47
100
AcDbScale
 70
     0
300
3/4" = 1'-0"
140
0.75
141
12.0
290
     0
  0
SCALE
  5
64
102
{ACAD_REACTORS
330
47
102
}
330
47
100
AcDbScale
 70
     0
300
1" = 1'-0"
140
1.0
141
12.0
290
     0
  0
SCALE
  5
65
102
{ACAD_REACTORS
330
47
102
}
330
47
100
AcDbScale
 70
     0
300
1-1/2" = 1'-0"
140
1.5
141
12.0
290
     0
  0
SCALE
  5
66
102
{ACAD_REACTORS
330
47
102
}
330
47
100
AcDbScale
 70
     0
300
3" = 1'-0"
140
3.0
141
12.0
290
     0
  0
SCALE
  5
67
102
{ACAD_REACTORS
330
47
102
}
330
47
100
AcDbScale
 70
     0
300
6" = 1'-0"
140
6.0
141
12.0
290
     0
  0
SCALE
  5
68
102
{ACAD_REACTORS
330
47
102
}
330
47
100
AcDbScale
 70
     0
300
1'-0" = 1'-0"
140
12.0
141
12.0
290
     0
  0
VISUALSTYLE
  5
2F
102
{ACAD_REACTORS
330
2A
102
}
102
{ACAD_XDICTIONARY
360
140
102
}
330
2A
100
AcDbVisualStyle
  2
2dWireframe
 70
     4
 71
     0
 72
     2
 73
     0
 90
        0
 40
0.6
 41
30.0
 62
     5
 63
     7
421
 16777215
 74
     1
 91
        4
 64
     7
 65
   257
 75
     1
175
     1
 42
1.0
 92
        0
 66
   257
 43
1.0
 76
     1
 77
     6
 78
     2
 67
     7
 79
     5
170
     0
171
     0
290
     0
174
     0
 93
        1
 44
0.0
173
     0
291
     0
 45
0.0
1001
ACAD
1000
AcDbSavedByObjectVersion
1070
     0
  0
VISUALSTYLE
  5
32
102
{ACAD_REACTORS
330
2A
102
}
102
{ACAD_XDICTIONARY
360
146
102
}
330
2A
100
AcDbVisualStyle
  2
Basic
 70
     7
 71
     1
 72
     0
 73
     1
 90
        0
 40
0.6
 41
30.0
 62
     5
 63
     7
421
 16777215
 74
     0
 91
        4
 64
     7
 65
   257
 75
     1
175
     1
 42
1.0
 92
        8
 66
     7
 43
1.0
 76
     1
 77
     6
 78
     2
 67
     7
 79
     5
170
     0
171
     0
290
     0
174
     0
 93
        1
 44
0.0
173
     0
291
     1
 45
0.0
1001
ACAD
1000
AcDbSavedByObjectVersion
1070
     0
  0
VISUALSTYLE
  5
36
102
{ACAD_REACTORS
330
2A
102
}
102
{ACAD_XDICTIONARY
360
14E
102
}
330
2A
100
AcDbVisualStyle
  2
Brighten
 70
    12
 71
     2
 72
     2
 73
     0
 90
        0
 40
0.6
 41
30.0
 62
     5
 63
     7
421
 16777215
 74
     1
 91
        4
 64
     7
 65
   257
 75
     1
175
     1
 42
1.0
 92
        8
 66
     7
 43
1.0
 76
     1
 77
     6
 78
     2
 67
     7
 79
     5
170
     0
171
     0
290
     0
174
     0
 93
        1
 44
50.0
173
     0
291
     1
 45
0.0
1001
ACAD
1000
AcDbSavedByObjectVersion
1070
     0
  0
VISUALSTYLE
  5
3A
102
{ACAD_REACTORS
330
2A
102
}
102
{ACAD_XDICTIONARY
360
156
102
}
330
2A
100
AcDbVisualStyle
  2
ColorChange
 70
    16
 71
     2
 72
     2
 73
     3
 90
        0
 40
0.6
 41
30.0
 62
     5
 63
     8
421
  8421504
 74
     1
 91
        4
 64
     7
 65
   257
 75
     1
175
     1
 42
1.0
 92
        8
 66
     8
424
  8421504
 43
1.0
 76
     1
 77
     6
 78
     2
 67
     7
 79
     5
170
     0
171
     0
290
     0
174
     0
 93
        1
 44
0.0
173
     0
291
     1
 45
0.0
1001
ACAD
1000
AcDbSavedByObjectVersion
1070
     0
  0
VISUALSTYLE
  5
34
102
{ACAD_REACTORS
330
2A
102
}
102
{ACAD_XDICTIONARY
360
14A
102
}
330
2A
100
AcDbVisualStyle
  2
Conceptual
 70
     9
 71
     3
 72
     2
 73
     0
 90
        0
 40
0.6
 41
30.0
 62
     5
 63
     7
421
 16777215
 74
     2
 91
        2
 64
     7
 65
   257
 75
     1
175
     1
 42
179.0
 92
        8
 66
     7
 43
1.0
 76
     1
 77
     6
 78
     2
 67
     7
 79
     3
170
     0
171
     0
290
     0
174
     0
 93
        1
 44
0.0
173
     0
291
     0
 45
0.0
1001
ACAD
1000
AcDbSavedByObjectVersion
1070
     0
  0
VISUALSTYLE
  5
35
102
{ACAD_REACTORS
330
2A
102
}
102
{ACAD_XDICTIONARY
360
14C
102
}
330
2A
100
AcDbVisualStyle
  2
Dim
 70
    11
 71
     2
 72
     2
 73
     0
 90
        0
 40
0.6
 41
30.0
 62
     5
 63
     7
421
 16777215
 74
     1
 91
        4
 64
     7
 65
   257
 75
     1
175
     1
 42
1.0
 92
        8
 66
     7
 43
1.0
 76
     1
 77
     6
 78
     2
 67
     7
 79
     5
170
     0
171
     0
290
     0
174
     0
 93
        1
 44
-50.0
173
     0
291
     1
 45
0.0
1001
ACAD
1000
AcDbSavedByObjectVersion
1070
     0
  0
VISUALSTYLE
  5
3D
102
{ACAD_REACTORS
330
2A
102
}
102
{ACAD_XDICTIONARY
360
15C
102
}
330
2A
100
AcDbVisualStyle
  2
EdgeColorOff
 70
    22
 71
     2
 72
     2
 73
     0
 90
        0
 40
0.6
 41
30.0
 62
     5
 63
     7
421
 16777215
 74
     1
 91
        4
 64
     7
 65
   257
 75
     1
175
     1
 42
1.0
 92
        8
 66
     7
 43
1.0
 76
     1
 77
     6
 78
     2
 67
     7
 79
     5
170
     0
171
     0
290
     0
174
     0
 93
        1
 44
0.0
173
     0
291
     1
 45
0.0
1001
ACAD
1000
AcDbSavedByObjectVersion
1070
     0
  0
VISUALSTYLE
  5
39
102
{ACAD_REACTORS
330
2A
102
}
102
{ACAD_XDICTIONARY
360
154
102
}
330
2A
100
AcDbVisualStyle
  2
Facepattern
 70
    15
 71
     2
 72
     2
 73
     0
 90
        0
 40
0.6
 41
30.0
 62
     5
 63
     7
421
 16777215
 74
     1
 91
        4
 64
     7
 65
   257
 75
     1
175
     1
 42
1.0
 92
        8
 66
     7
 43
1.0
 76
     1
 77
     6
 78
     2
 67
     7
 79
     5
170
     0
171
     0
290
     0
174
     0
 93
        1
 44
0.0
173
     0
291
     1
 45
0.0
1001
ACAD
1000
AcDbSavedByObjectVersion
1070
     0
  0
VISUALSTYLE
  5
2B
102
{ACAD_REACTORS
330
2A
102
}
102
{ACAD_XDICTIONARY
360
138
102
}
330
2A
100
AcDbVisualStyle
  2
Flat
 70
     0
 71
     2
 72
     1
 73
     1
 90
        2
 40
0.6
 41
30.0
 62
     5
 63
     7
421
 16777215
 74
     0
 91
        0
 64
     7
 65
   257
 75
     1
175
     1
 42
1.0
 92
        8
 66
     7
 43
1.0
 76
     1
 77
     6
 78
     2
 67
     7
 79
     5
170
     0
171
     0
290
     0
174
     0
 93
       13
 44
0.0
173
     0
291
     1
 45
0.0
1001
ACAD
1000
AcDbSavedByObjectVersion
1070
     0
  0
VISUALSTYLE
  5
2C
102
{ACAD_REACTORS
330
2A
102
}
102
{ACAD_XDICTIONARY
360
13A
102
}
330
2A
100
AcDbVisualStyle
  2
FlatWithEdges
 70
     1
 71
     2
 72
     1
 73
     1
 90
        2
 40
0.6
 41
30.0
 62
     5
 63
     7
421
 16777215
 74
     1
 91
        0
 64
     7
 65
   257
 75
     1
175
     1
 42
1.0
 92
        0
 66
   257
 43
1.0
 76
     1
 77
     6
 78
     2
 67
     7
 79
     5
170
     0
171
     0
290
     0
174
     0
 93
       13
 44
0.0
173
     0
291
     1
 45
0.0
1001
ACAD
1000
AcDbSavedByObjectVersion
1070
     0
  0
VISUALSTYLE
  5
2D
102
{ACAD_REACTORS
330
2A
102
}
102
{ACAD_XDICTIONARY
360
13C
102
}
330
2A
100
AcDbVisualStyle
  2
Gouraud
 70
     2
 71
     2
 72
     2
 73
     1
 90
        2
 40
0.6
 41
30.0
 62
     5
 63
     7
421
 16777215
 74
     0
 91
        0
 64
     7
 65
   257
 75
     1
175
     1
 42
1.0
 92
        0
 66
     7
 43
1.0
 76
     1
 77
     6
 78
     2
 67
     7
 79
     5
170
     0
171
     0
290
     0
174
     0
 93
       13
 44
0.0
173
     0
291
     1
 45
0.0
1001
ACAD
1000
AcDbSavedByObjectVersion
1070
     0
  0
VISUALSTYLE
  5
2E
102
{ACAD_REACTORS
330
2A
102
}
102
{ACAD_XDICTIONARY
360
13E
102
}
330
2A
100
AcDbVisualStyle
  2
GouraudWithEdges
 70
     3
 71
     2
 72
     2
 73
     1
 90
        2
 40
0.6
 41
30.0
 62
     5
 63
     7
421
 16777215
 74
     1
 91
        0
 64
     7
 65
   257
 75
     1
175
     1
 42
1.0
 92
        0
 66
   257
 43
1.0
 76
     1
 77
     6
 78
     2
 67
     7
 79
     5
170
     0
171
     0
290
     0
174
     0
 93
       13
 44
0.0
173
     0
291
     1
 45
0.0
1001
ACAD
1000
AcDbSavedByObjectVersion
1070
     0
  0
VISUALSTYLE
  5
31
102
{ACAD_REACTORS
330
2A
102
}
102
{ACAD_XDICTIONARY
360
144
102
}
330
2A
100
AcDbVisualStyle
  2
Hidden
 70
     6
 71
     1
 72
     2
 73
     2
 90
        0
 40
0.6
 41
30.0
 62
     5
 63
     7
421
 16777215
 74
     2
 91
        2
 64
     7
 65
   257
 75
     2
175
     1
 42
40.0
 92
        0
 66
   257
 43
1.0
 76
     1
 77
     6
 78
     2
 67
     7
 79
     3
170
     0
171
     0
290
     0
174
     0
 93
        1
 44
0.0
173
     0
291
     0
 45
0.0
1001
ACAD
1000
AcDbSavedByObjectVersion
1070
     0
  0
VISUALSTYLE
  5
3B
102
{ACAD_REACTORS
330
2A
102
}
102
{ACAD_XDICTIONARY
360
158
102
}
330
2A
100
AcDbVisualStyle
  2
JitterOff
 70
    20
 71
     2
 72
     2
 73
     0
 90
        0
 40
0.6
 41
30.0
 62
     5
 63
     7
421
 16777215
 74
     1
 91
        4
 64
     7
 65
   257
 75
     1
175
     1
 42
1.0
 92
       10
 66
     7
 43
1.0
 76
     1
 77
     6
 78
     2
 67
     7
 79
     5
170
     0
171
     0
290
     0
174
     0
 93
        1
 44
0.0
173
     0
291
     1
 45
0.0
1001
ACAD
1000
AcDbSavedByObjectVersion
1070
     0
  0
VISUALSTYLE
  5
38
102
{ACAD_REACTORS
330
2A
102
}
102
{ACAD_XDICTIONARY
360
152
102
}
330
2A
100
AcDbVisualStyle
  2
Linepattern
 70
    14
 71
     2
 72
     2
 73
     0
 90
        0
 40
0.6
 41
30.0
 62
     5
 63
     7
421
 16777215
 74
     1
 91
        4
 64
     7
 65
   257
 75
     7
175
     7
 42
1.0
 92
        8
 66
     7
 43
1.0
 76
     1
 77
     6
 78
     2
 67
     7
 79
     5
170
     0
171
     0
290
     0
174
     0
 93
        1
 44
0.0
173
     0
291
     1
 45
0.0
1001
ACAD
1000
AcDbSavedByObjectVersion
1070
     0
  0
VISUALSTYLE
  5
3C
102
{ACAD_REACTORS
330
2A
102
}
102
{ACAD_XDICTIONARY
360
15A
102
}
330
2A
100
AcDbVisualStyle
  2
OverhangOff
 70
    21
 71
     2
 72
     2
 73
     0
 90
        0
 40
0.6
 41
30.0
 62
     5
 63
     7
421
 16777215
 74
     1
 91
        4
 64
     7
 65
   257
 75
     1
175
     1
 42
1.0
 92
        9
 66
     7
 43
1.0
 76
     1
 77
     6
 78
     2
 67
     7
 79
     5
170
     0
171
     0
290
     0
174
     0
 93
        1
 44
0.0
173
     0
291
     1
 45
0.0
1001
ACAD
1000
AcDbSavedByObjectVersion
1070
     0
  0
VISUALSTYLE
  5
33
102
{ACAD_REACTORS
330
2A
102
}
102
{ACAD_XDICTIONARY
360
148
102
}
330
2A
100
AcDbVisualStyle
  2
Realistic
 70
     8
 71
     2
 72
     3
 73
     0
 90
        2
 40
0.6
 41
30.0
 62
     5
 63
     7
421
 16777215
 74
     0
 91
        0
 64
     7
 65
   257
 75
     1
175
     1
 42
1.0
 92
        8
 66
   257
 43
1.0
 76
     1
 77
     6
 78
     2
 67
     7
 79
     3
170
     0
171
     0
290
     0
174
     0
 93
       13
 44
0.0
173
     0
291
     0
 45
0.0
1001
ACAD
1000
AcDbSavedByObjectVersion
1070
     0
  0
VISUALSTYLE
  5
42
102
{ACAD_REACTORS
330
2A
102
}
102
{ACAD_XDICTIONARY
360
166
102
}
330
2A
100
AcDbVisualStyle
  2
Shaded
 70
    27
 71
     2
 72
     2
 73
     1
 90
        2
 40
0.6
 41
30.0
 62
     5
 63
     7
421
 16777215
 74
     0
 91
        4
 64
     7
 65
   257
 75
     1
175
     1
 42
1.0
 92
        8
 66
   257
 43
1.0
 76
     1
 77
     6
 78
     2
 67
     8
425
  7895160
 79
     3
170
     0
171
     0
290
     0
174
     0
 93
        5
 44
0.0
173
     0
291
     0
 45
0.0
1001
ACAD
1000
AcDbSavedByObjectVersion
1070
     0
  0
VISUALSTYLE
  5
41
102
{ACAD_REACTORS
330
2A
102
}
102
{ACAD_XDICTIONARY
360
164
102
}
330
2A
100
AcDbVisualStyle
  2
Shaded with edges
 70
    26
 71
     2
 72
     2
 73
     1
 90
        2
 40
0.6
 41
30.0
 62
     5
 63
     7
421
 16777215
 74
     1
 91
       10
 64
     7
 65
   257
 75
     2
175
     1
 42
1.0
 92
        8
 66
   257
 43
1.0
 76
     1
 77
     6
 78
     2
 67
     7
 79
     3
170
     0
171
     0
290
     0
174
     0
 93
        5
 44
0.0
173
     0
291
     0
 45
0.0
1001
ACAD
1000
AcDbSavedByObjectVersion
1070
     0
  0
VISUALSTYLE
  5
3E
102
{ACAD_REACTORS
330
2A
102
}
102
{ACAD_XDICTIONARY
360
15E
102
}
330
2A
100
AcDbVisualStyle
  2
Shades of Gray
 70
    23
 71
     2
 72
     2
 73
     3
 90
        0
 40
0.6
 41
30.0
 62
     5
 63
     7
421
 16777215
 74
     2
 91
        2
 64
     7
 65
     7
 75
     1
175
     1
 42
40.0
 92
        8
 66
     7
 43
1.0
 76
     1
 77
     6
 78
     2
 67
     7
 79
     3
170
     0
171
     0
290
     0
174
     0
 93
        1
 44
0.0
173
     0
291
     0
 45
0.0
1001
ACAD
1000
AcDbSavedByObjectVersion
1070
     0
  0
VISUALSTYLE
  5
3F
102
{ACAD_REACTORS
330
2A
102
}
102
{ACAD_XDICTIONARY
360
160
102
}
330
2A
100
AcDbVisualStyle
  2
Sketchy
 70
    24
 71
     1
 72
     2
 73
     2
 90
        0
 40
0.6
 41
30.0
 62
     5
 63
     7
421
 16777215
 74
     2
 91
        2
 64
     7
 65
     7
 75
     1
175
     1
 42
40.0
 92
       11
 66
     7
 43
1.0
 76
     1
 77
     6
 78
     2
 67
     7
 79
     6
170
     0
171
     0
290
     0
174
     0
 93
        1
 44
0.0
173
     0
291
     0
 45
0.0
1001
ACAD
1000
AcDbSavedByObjectVersion
1070
     0
  0
VISUALSTYLE
  5
37
102
{ACAD_REACTORS
330
2A
102
}
102
{ACAD_XDICTIONARY
360
150
102
}
330
2A
100
AcDbVisualStyle
  2
Thicken
 70
    13
 71
     2
 72
     2
 73
     0
 90
        0
 40
0.6
 41
30.0
 62
     5
 63
     7
421
 16777215
 74
     1
 91
        4
 64
     7
 65
   257
 75
     1
175
     1
 42
1.0
 92
       12
 66
     7
 43
1.0
 76
     1
 77
     6
 78
     2
 67
     7
 79
     5
170
     0
171
     0
290
     0
174
     0
 93
        1
 44
0.0
173
     0
291
     1
 45
0.0
1001
ACAD
1000
AcDbSavedByObjectVersion
1070
     0
  0
VISUALSTYLE
  5
30
102
{ACAD_REACTORS
330
2A
102
}
102
{ACAD_XDICTIONARY
360
142
102
}
330
2A
100
AcDbVisualStyle
  2
Wireframe
 70
     5
 71
     0
 72
     2
 73
     0
 90
        0
 40
0.6
 41
30.0
 62
     5
 63
     7
421
 16777215
 74
     1
 91
        4
 64
     7
 65
   257
 75
     1
175
     1
 42
1.0
 92
        0
 66
   257
 43
1.0
 76
     1
 77
     6
 78
     2
 67
     7
 79
     3
170
     0
171
     0
290
     0
174
     0
 93
        1
 44
0.0
173
     0
291
     0
 45
0.0
1001
ACAD
1000
AcDbSavedByObjectVersion
1070
     0
  0
VISUALSTYLE
  5
40
102
{ACAD_REACTORS
330
2A
102
}
102
{ACAD_XDICTIONARY
360
162
102
}
330
2A
100
AcDbVisualStyle
  2
X-Ray
 70
    25
 71
     2
 72
     2
 73
     1
 90
        1
 40
0.5
 41
30.0
 62
     5
 63
     7
421
 16777215
 74
     1
 91
        0
 64
     7
 65
   257
 75
     1
175
     1
 42
1.0
 92
        8
 66
     7
 43
1.0
 76
     1
 77
     6
 78
     2
 67
     7
 79
     3
170
     0
171
     0
290
     0
174
     0
 93
       13
 44
0.0
173
     0
291
     0
 45
0.0
1001
ACAD
1000
AcDbSavedByObjectVersion
1070
     0
  0
DICTIONARYVAR
  5
136
102
{ACAD_REACTORS
330
135
102
}
330
135
100
DictionaryVariables
280
     0
  1
1:1
  0
DICTIONARYVAR
  5
137
102
{ACAD_REACTORS
330
135
102
}
330
135
100
DictionaryVariables
280
     0
  1
1
  0
DICTIONARY
  5
16A
330
45
100
AcDbDictionary
280
     1
281
     1
  3
ACAD_XREC_ROUNDTRIP
360
16B
  0
DICTIONARY
  5
168
330
44
100
AcDbDictionary
280
     1
281
     1
  3
ACAD_XREC_ROUNDTRIP
360
169
  0
DICTIONARY
  5
16C
330
46
100
AcDbDictionary
280
     1
281
     1
  3
ACAD_XREC_ROUNDTRIP
360
16D
  0
DICTIONARY
  5
140
330
2F
100
AcDbDictionary
280
     1
281
     1
  3
ACAD_XREC_ROUNDTRIP
360
141
  0
DICTIONARY
  5
146
330
32
100
AcDbDictionary
280
     1
281
     1
  3
ACAD_XREC_ROUNDTRIP
360
147
  0
DICTIONARY
  5
14E
330
36
100
AcDbDictionary
280
     1
281
     1
  3
ACAD_XREC_ROUNDTRIP
360
14F
  0
DICTIONARY
  5
156
330
3A
100
AcDbDictionary
280
     1
281
     1
  3
ACAD_XREC_ROUNDTRIP
360
157
  0
DICTIONARY
  5
14A
330
34
100
AcDbDictionary
280
     1
281
     1
  3
ACAD_XREC_ROUNDTRIP
360
14B
  0
DICTIONARY
  5
14C
330
35
100
AcDbDictionary
280
     1
281
     1
  3
ACAD_XREC_ROUNDTRIP
360
14D
  0
DICTIONARY
  5
15C
330
3D
100
AcDbDictionary
280
     1
281
     1
  3
ACAD_XREC_ROUNDTRIP
360
15D
  0
DICTIONARY
  5
154
330
39
100
AcDbDictionary
280
     1
281
     1
  3
ACAD_XREC_ROUNDTRIP
360
155
  0
DICTIONARY
  5
138
330
2B
100
AcDbDictionary
280
     1
281
     1
  3
ACAD_XREC_ROUNDTRIP
360
139
  0
DICTIONARY
  5
13A
330
2C
100
AcDbDictionary
280
     1
281
     1
  3
ACAD_XREC_ROUNDTRIP
360
13B
  0
DICTIONARY
  5
13C
330
2D
100
AcDbDictionary
280
     1
281
     1
  3
ACAD_XREC_ROUNDTRIP
360
13D
  0
DICTIONARY
  5
13E
330
2E
100
AcDbDictionary
280
     1
281
     1
  3
ACAD_XREC_ROUNDTRIP
360
13F
  0
DICTIONARY
  5
144
330
31
100
AcDbDictionary
280
     1
281
     1
  3
ACAD_XREC_ROUNDTRIP
360
145
  0
DICTIONARY
  5
158
330
3B
100
AcDbDictionary
280
     1
281
     1
  3
ACAD_XREC_ROUNDTRIP
360
159
  0
DICTIONARY
  5
152
330
38
100
AcDbDictionary
280
     1
281
     1
  3
ACAD_XREC_ROUNDTRIP
360
153
  0
DICTIONARY
  5
15A
330
3C
100
AcDbDictionary
280
     1
281
     1
  3
ACAD_XREC_ROUNDTRIP
360
15B
  0
DICTIONARY
  5
148
330
33
100
AcDbDictionary
280
     1
281
     1
  3
ACAD_XREC_ROUNDTRIP
360
149
  0
DICTIONARY
  5
166
330
42
100
AcDbDictionary
280
     1
281
     1
  3
ACAD_XREC_ROUNDTRIP
360
167
  0
DICTIONARY
  5
164
330
41
100
AcDbDictionary
280
     1
281
     1
  3
ACAD_XREC_ROUNDTRIP
360
165
  0
DICTIONARY
  5
15E
330
3E
100
AcDbDictionary
280
     1
281
     1
  3
ACAD_XREC_ROUNDTRIP
360
15F
  0
DICTIONARY
  5
160
330
3F
100
AcDbDictionary
280
     1
281
     1
  3
ACAD_XREC_ROUNDTRIP
360
161
  0
DICTIONARY
  5
150
330
37
100
AcDbDictionary
280
     1
281
     1
  3
ACAD_XREC_ROUNDTRIP
360
151
  0
DICTIONARY
  5
142
330
30
100
AcDbDictionary
280
     1
281
     1
  3
ACAD_XREC_ROUNDTRIP
360
143
  0
DICTIONARY
  5
162
330
40
100
AcDbDictionary
280
     1
281
     1
  3
ACAD_XREC_ROUNDTRIP
360
163
  0
XRECORD
  5
16B
102
{ACAD_REACTORS
330
16A
102
}
330
16A
100
AcDbXrecord
280
     1
102
MATERIAL
148
0.0
149
0.0
149
0.0
 93
        0
 94
      127
282
     0
 72
     1
 77
     1
171
     1
175
     1
179
     1
273
     0
  0
XRECORD
  5
169
102
{ACAD_REACTORS
330
168
102
}
330
168
100
AcDbXrecord
280
     1
102
MATERIAL
148
0.0
149
0.0
149
0.0
 93
        0
 94
      127
282
     0
 72
     1
 77
     1
171
     1
175
     1
179
     1
273
     0
  0
XRECORD
  5
16D
102
{ACAD_REACTORS
330
16C
102
}
330
16C
100
AcDbXrecord
280
     1
102
MATERIAL
148
0.0
149
0.0
149
0.0
 93
        0
 94
      127
282
     0
 72
     1
 77
     1
171
     1
175
     1
179
     1
273
     0
  0
XRECORD
  5
141
102
{ACAD_REACTORS
330
140
102
}
330
140
100
AcDbXrecord
280
     1
102
RTVSPropertyOp0
 70
     1
102
RTVSPropertyOp1
 70
     1
102
RTVSPropertyOp2
 70
     1
102
RTVSPropertyOp3
 70
     1
102
RTVSPropertyOp4
 70
     1
102
RTVSPropertyOp5
 70
     1
102
RTVSPropertyOp6
 70
     1
102
RTVSPropertyOp7
 70
     1
102
RTVSPropertyOp8
 70
     1
102
RTVSPropertyOp9
 70
     1
102
RTVSPropertyOp10
 70
     1
102
RTVSPropertyOp11
 70
     1
102
RTVSPropertyOp12
 70
     1
102
RTVSPropertyOp13
 70
     1
102
RTVSPropertyOp14
 70
     1
102
RTVSPropertyOp15
 70
     1
102
RTVSPropertyOp16
 70
     1
102
RTVSPropertyOp17
 70
     1
102
RTVSPropertyOp18
 70
     1
102
RTVSPropertyOp19
 70
     1
102
RTVSPropertyOp20
 70
     1
102
RTVSPropertyOp21
 70
     1
102
RTVSPropertyOp22
 70
     1
102
RTVSPropertyOp23
 70
     1
102
RTVSPropertyOp24
 70
     1
102
RTVSPropertyOp25
 70
     1
102
RTVSPropertyOp26
 70
     1
102
RTVSPropertyOp27
 70
     1
102
RTVSPropertyOp28
 70
     1
102
RTVSPropertyOp29
 70
     1
102
RTVSPropertyOp30
 70
     1
102
RTVSPropertyOp31
 70
     1
102
RTVSPropertyOp32
 70
     1
102
RTVSPropertyOp33
 70
     1
102
RTVSPropertyOp34
 70
     1
102
RTVSPropertyOp35
 70
     1
102
RTVSPropertyOp36
 70
     1
102
RTVSPropertyOp37
 70
     1
102
RTVSPropertyOp38
 70
     1
102
RTVSPropertyOp39
 70
     1
102
RTVSPropertyOp40
 70
     1
102
RTVSPropertyOp41
 70
     1
102
RTVSPropertyOp42
 70
     1
102
RTVSPropertyOp43
 70
     1
102
RTVSPropertyOp44
 70
     1
102
RTVSPropertyOp45
 70
     1
102
RTVSPropertyOp46
 70
     1
102
RTVSPropertyOp47
 70
     1
102
RTVSPropertyOp48
 70
     1
102
RTVSPropertyOp49
 70
     1
102
RTVSPropertyOp50
 70
     1
102
RTVSPropertyOp51
 70
     0
102
RTVSPropertyOp52
 70
     0
102
RTVSPropertyOp53
 70
     1
102
RTVSPropertyOp54
 70
     1
102
RTVSPropertyOp55
 70
     1
102
RTVSPropertyOp56
 70
     1
102
RTVSPropertyOp57
 70
     1
102
RTVSPost2010Prop28
280
     1
102
RTVSPost2010PropOp28
 70
     1
102
RTVSPost2010Prop29
280
     1
102
RTVSPost2010PropOp29
 70
     1
102
RTVSPost2010Prop30
280
     0
102
RTVSPost2010PropOp30
 70
     1
102
RTVSPost2010Prop31
280
     0
102
RTVSPost2010PropOp31
 70
     1
102
RTVSPost2010Prop32
280
     0
102
RTVSPost2010PropOp32
 70
     1
102
RTVSPost2010Prop33
280
     0
102
RTVSPost2010PropOp33
 70
     1
102
RTVSPost2010Prop34
280
     0
102
RTVSPost2010PropOp34
 70
     1
102
RTVSPost2010Prop35
280
     0
102
RTVSPost2010PropOp35
 70
     1
102
RTVSPost2010Prop36
280
     0
102
RTVSPost2010PropOp36
 70
     1
102
RTVSPost2010Prop37
 90
       50
102
RTVSPost2010PropOp37
 70
     1
102
RTVSPost2010Prop38
140
0.0
102
RTVSPost2010PropOp38
 70
     1
102
RTVSPost2010Prop39
140
1.0
102
RTVSPost2010PropOp39
 70
     1
102
RTVSPost2010Prop40
 90
        0
102
RTVSPost2010PropOp40
 70
     1
102
RTVSPost2010Prop41ColorIndex
 90
       18
102
RTVSPost2010Prop41ColorRGB
 90
        0
102
RTVSPost2010PropOp41
 70
     1
102
RTVSPost2010Prop42
 90
       50
102
RTVSPost2010PropOp42
 70
     1
102
RTVSPost2010Prop43
 90
        3
102
RTVSPost2010PropOp43
 70
     1
102
RTVSPost2010Prop44ColorIndex
 90
        5
102
RTVSPost2010Prop44ColorRGB
 90
      255
102
RTVSPost2010PropOp44
 70
     1
102
RTVSPost2010Prop45
280
     0
102
RTVSPost2010PropOp45
 70
     1
102
RTVSPost2010Prop46
 90
       50
102
RTVSPost2010PropOp46
 70
     1
102
RTVSPost2010Prop47
 90
       50
102
RTVSPost2010PropOp47
 70
     1
102
RTVSPost2010Prop48
 90
       50
102
RTVSPost2010PropOp48
 70
     1
102
RTVSPost2010Prop49
280
     0
102
RTVSPost2010PropOp49
 70
     1
102
RTVSPost2010Prop50
 90
       50
102
RTVSPost2010PropOp50
 70
     1
102
RTVSPost2010Prop51ColorIndex
 90
      256
102
RTVSPost2010Prop51ColorRGB
 90
-16777216
102
RTVSPost2010PropOp51
 70
     0
102
RTVSPost2010Prop52
140
1.0
102
RTVSPost2010PropOp52
 70
     0
102
RTVSPost2010Prop53
 90
        2
102
RTVSPost2010PropOp53
 70
     1
102
RTVSPost2010Prop54
  1
strokes_ogs.tif
102
RTVSPost2010PropOp54
 70
     1
102
RTVSPost2010Prop55
280
     0
102
RTVSPost2010PropOp55
 70
     1
102
RTVSPost2010Prop56
140
1.0
102
RTVSPost2010PropOp56
 70
     1
102
RTVSPost2010Prop57
140
1.0
102
RTVSPost2010PropOp57
 70
     1
  0
XRECORD
  5
147
102
{ACAD_REACTORS
330
146
102
}
330
146
100
AcDbXrecord
280
     1
102
RTVSPropertyOp0
 70
     1
102
RTVSPropertyOp1
 70
     1
102
RTVSPropertyOp2
 70
     1
102
RTVSPropertyOp3
 70
     1
102
RTVSPropertyOp4
 70
     1
102
RTVSPropertyOp5
 70
     1
102
RTVSPropertyOp6
 70
     1
102
RTVSPropertyOp7
 70
     1
102
RTVSPropertyOp8
 70
     1
102
RTVSPropertyOp9
 70
     1
102
RTVSPropertyOp10
 70
     1
102
RTVSPropertyOp11
 70
     1
102
RTVSPropertyOp12
 70
     1
102
RTVSPropertyOp13
 70
     1
102
RTVSPropertyOp14
 70
     1
102
RTVSPropertyOp15
 70
     1
102
RTVSPropertyOp16
 70
     1
102
RTVSPropertyOp17
 70
     1
102
RTVSPropertyOp18
 70
     1
102
RTVSPropertyOp19
 70
     1
102
RTVSPropertyOp20
 70
     1
102
RTVSPropertyOp21
 70
     1
102
RTVSPropertyOp22
 70
     1
102
RTVSPropertyOp23
 70
     1
102
RTVSPropertyOp24
 70
     1
102
RTVSPropertyOp25
 70
     1
102
RTVSPropertyOp26
 70
     1
102
RTVSPropertyOp27
 70
     1
102
RTVSPropertyOp28
 70
     1
102
RTVSPropertyOp29
 70
     1
102
RTVSPropertyOp30
 70
     1
102
RTVSPropertyOp31
 70
     1
102
RTVSPropertyOp32
 70
     1
102
RTVSPropertyOp33
 70
     1
102
RTVSPropertyOp34
 70
     1
102
RTVSPropertyOp35
 70
     1
102
RTVSPropertyOp36
 70
     1
102
RTVSPropertyOp37
 70
     1
102
RTVSPropertyOp38
 70
     1
102
RTVSPropertyOp39
 70
     1
102
RTVSPropertyOp40
 70
     1
102
RTVSPropertyOp41
 70
     1
102
RTVSPropertyOp42
 70
     1
102
RTVSPropertyOp43
 70
     1
102
RTVSPropertyOp44
 70
     1
102
RTVSPropertyOp45
 70
     1
102
RTVSPropertyOp46
 70
     1
102
RTVSPropertyOp47
 70
     1
102
RTVSPropertyOp48
 70
     1
102
RTVSPropertyOp49
 70
     1
102
RTVSPropertyOp50
 70
     1
102
RTVSPropertyOp51
 70
     0
102
RTVSPropertyOp52
 70
     0
102
RTVSPropertyOp53
 70
     1
102
RTVSPropertyOp54
 70
     1
102
RTVSPropertyOp55
 70
     1
102
RTVSPropertyOp56
 70
     1
102
RTVSPropertyOp57
 70
     1
102
RTVSPost2010Prop28
280
     0
102
RTVSPost2010PropOp28
 70
     1
102
RTVSPost2010Prop29
280
     1
102
RTVSPost2010PropOp29
 70
     1
102
RTVSPost2010Prop30
280
     1
102
RTVSPost2010PropOp30
 70
     1
102
RTVSPost2010Prop31
280
     0
102
RTVSPost2010PropOp31
 70
     1
102
RTVSPost2010Prop32
280
     0
102
RTVSPost2010PropOp32
 70
     1
102
RTVSPost2010Prop33
280
     0
102
RTVSPost2010PropOp33
 70
     1
102
RTVSPost2010Prop34
280
     0
102
RTVSPost2010PropOp34
 70
     1
102
RTVSPost2010Prop35
280
     0
102
RTVSPost2010PropOp35
 70
     1
102
RTVSPost2010Prop36
280
     0
102
RTVSPost2010PropOp36
 70
     1
102
RTVSPost2010Prop37
 90
       50
102
RTVSPost2010PropOp37
 70
     1
102
RTVSPost2010Prop38
140
0.0
102
RTVSPost2010PropOp38
 70
     1
102
RTVSPost2010Prop39
140
1.0
102
RTVSPost2010PropOp39
 70
     1
102
RTVSPost2010Prop40
 90
        0
102
RTVSPost2010PropOp40
 70
     1
102
RTVSPost2010Prop41ColorIndex
 90
       18
102
RTVSPost2010Prop41ColorRGB
 90
        0
102
RTVSPost2010PropOp41
 70
     1
102
RTVSPost2010Prop42
 90
       50
102
RTVSPost2010PropOp42
 70
     1
102
RTVSPost2010Prop43
 90
        3
102
RTVSPost2010PropOp43
 70
     1
102
RTVSPost2010Prop44ColorIndex
 90
        5
102
RTVSPost2010Prop44ColorRGB
 90
      255
102
RTVSPost2010PropOp44
 70
     1
102
RTVSPost2010Prop45
280
     0
102
RTVSPost2010PropOp45
 70
     1
102
RTVSPost2010Prop46
 90
       50
102
RTVSPost2010PropOp46
 70
     1
102
RTVSPost2010Prop47
 90
       50
102
RTVSPost2010PropOp47
 70
     1
102
RTVSPost2010Prop48
 90
       50
102
RTVSPost2010PropOp48
 70
     1
102
RTVSPost2010Prop49
280
     0
102
RTVSPost2010PropOp49
 70
     1
102
RTVSPost2010Prop50
 90
       50
102
RTVSPost2010PropOp50
 70
     1
102
RTVSPost2010Prop51ColorIndex
 90
      256
102
RTVSPost2010Prop51ColorRGB
 90
-16777216
102
RTVSPost2010PropOp51
 70
     0
102
RTVSPost2010Prop52
140
1.0
102
RTVSPost2010PropOp52
 70
     0
102
RTVSPost2010Prop53
 90
        2
102
RTVSPost2010PropOp53
 70
     1
102
RTVSPost2010Prop54
  1
strokes_ogs.tif
102
RTVSPost2010PropOp54
 70
     1
102
RTVSPost2010Prop55
280
     0
102
RTVSPost2010PropOp55
 70
     1
102
RTVSPost2010Prop56
140
1.0
102
RTVSPost2010PropOp56
 70
     1
102
RTVSPost2010Prop57
140
1.0
102
RTVSPost2010PropOp57
 70
     1
  0
XRECORD
  5
14F
102
{ACAD_REACTORS
330
14E
102
}
330
14E
100
AcDbXrecord
280
     1
102
RTVSPropertyOp0
 70
     1
102
RTVSPropertyOp1
 70
     1
102
RTVSPropertyOp2
 70
     1
102
RTVSPropertyOp3
 70
     1
102
RTVSPropertyOp4
 70
     1
102
RTVSPropertyOp5
 70
     1
102
RTVSPropertyOp6
 70
     1
102
RTVSPropertyOp7
 70
     1
102
RTVSPropertyOp8
 70
     1
102
RTVSPropertyOp9
 70
     1
102
RTVSPropertyOp10
 70
     1
102
RTVSPropertyOp11
 70
     1
102
RTVSPropertyOp12
 70
     1
102
RTVSPropertyOp13
 70
     1
102
RTVSPropertyOp14
 70
     1
102
RTVSPropertyOp15
 70
     1
102
RTVSPropertyOp16
 70
     1
102
RTVSPropertyOp17
 70
     1
102
RTVSPropertyOp18
 70
     1
102
RTVSPropertyOp19
 70
     1
102
RTVSPropertyOp20
 70
     1
102
RTVSPropertyOp21
 70
     1
102
RTVSPropertyOp22
 70
     1
102
RTVSPropertyOp23
 70
     1
102
RTVSPropertyOp24
 70
     1
102
RTVSPropertyOp25
 70
     1
102
RTVSPropertyOp26
 70
     1
102
RTVSPropertyOp27
 70
     1
102
RTVSPropertyOp28
 70
     1
102
RTVSPropertyOp29
 70
     1
102
RTVSPropertyOp30
 70
     1
102
RTVSPropertyOp31
 70
     1
102
RTVSPropertyOp32
 70
     1
102
RTVSPropertyOp33
 70
     1
102
RTVSPropertyOp34
 70
     1
102
RTVSPropertyOp35
 70
     1
102
RTVSPropertyOp36
 70
     1
102
RTVSPropertyOp37
 70
     1
102
RTVSPropertyOp38
 70
     1
102
RTVSPropertyOp39
 70
     1
102
RTVSPropertyOp40
 70
     1
102
RTVSPropertyOp41
 70
     1
102
RTVSPropertyOp42
 70
     1
102
RTVSPropertyOp43
 70
     1
102
RTVSPropertyOp44
 70
     1
102
RTVSPropertyOp45
 70
     1
102
RTVSPropertyOp46
 70
     1
102
RTVSPropertyOp47
 70
     1
102
RTVSPropertyOp48
 70
     1
102
RTVSPropertyOp49
 70
     1
102
RTVSPropertyOp50
 70
     1
102
RTVSPropertyOp51
 70
     0
102
RTVSPropertyOp52
 70
     0
102
RTVSPropertyOp53
 70
     1
102
RTVSPropertyOp54
 70
     1
102
RTVSPropertyOp55
 70
     1
102
RTVSPropertyOp56
 70
     1
102
RTVSPropertyOp57
 70
     1
102
RTVSPost2010Prop28
280
     0
102
RTVSPost2010PropOp28
 70
     1
102
RTVSPost2010Prop29
280
     1
102
RTVSPost2010PropOp29
 70
     1
102
RTVSPost2010Prop30
280
     1
102
RTVSPost2010PropOp30
 70
     1
102
RTVSPost2010Prop31
280
     0
102
RTVSPost2010PropOp31
 70
     1
102
RTVSPost2010Prop32
280
     0
102
RTVSPost2010PropOp32
 70
     1
102
RTVSPost2010Prop33
280
     0
102
RTVSPost2010PropOp33
 70
     1
102
RTVSPost2010Prop34
280
     0
102
RTVSPost2010PropOp34
 70
     1
102
RTVSPost2010Prop35
280
     0
102
RTVSPost2010PropOp35
 70
     1
102
RTVSPost2010Prop36
280
     0
102
RTVSPost2010PropOp36
 70
     1
102
RTVSPost2010Prop37
 90
       50
102
RTVSPost2010PropOp37
 70
     1
102
RTVSPost2010Prop38
140
0.0
102
RTVSPost2010PropOp38
 70
     1
102
RTVSPost2010Prop39
140
1.0
102
RTVSPost2010PropOp39
 70
     1
102
RTVSPost2010Prop40
 90
        0
102
RTVSPost2010PropOp40
 70
     1
102
RTVSPost2010Prop41ColorIndex
 90
       18
102
RTVSPost2010Prop41ColorRGB
 90
        0
102
RTVSPost2010PropOp41
 70
     1
102
RTVSPost2010Prop42
 90
       50
102
RTVSPost2010PropOp42
 70
     1
102
RTVSPost2010Prop43
 90
        3
102
RTVSPost2010PropOp43
 70
     1
102
RTVSPost2010Prop44ColorIndex
 90
        5
102
RTVSPost2010Prop44ColorRGB
 90
      255
102
RTVSPost2010PropOp44
 70
     1
102
RTVSPost2010Prop45
280
     0
102
RTVSPost2010PropOp45
 70
     1
102
RTVSPost2010Prop46
 90
       50
102
RTVSPost2010PropOp46
 70
     1
102
RTVSPost2010Prop47
 90
       50
102
RTVSPost2010PropOp47
 70
     1
102
RTVSPost2010Prop48
 90
       50
102
RTVSPost2010PropOp48
 70
     1
102
RTVSPost2010Prop49
280
     0
102
RTVSPost2010PropOp49
 70
     1
102
RTVSPost2010Prop50
 90
       50
102
RTVSPost2010PropOp50
 70
     1
102
RTVSPost2010Prop51ColorIndex
 90
      256
102
RTVSPost2010Prop51ColorRGB
 90
-16777216
102
RTVSPost2010PropOp51
 70
     0
102
RTVSPost2010Prop52
140
1.0
102
RTVSPost2010PropOp52
 70
     0
102
RTVSPost2010Prop53
 90
        2
102
RTVSPost2010PropOp53
 70
     1
102
RTVSPost2010Prop54
  1
strokes_ogs.tif
102
RTVSPost2010PropOp54
 70
     1
102
RTVSPost2010Prop55
280
     0
102
RTVSPost2010PropOp55
 70
     1
102
RTVSPost2010Prop56
140
1.0
102
RTVSPost2010PropOp56
 70
     1
102
RTVSPost2010Prop57
140
1.0
102
RTVSPost2010PropOp57
 70
     1
  0
XRECORD
  5
157
102
{ACAD_REACTORS
330
156
102
}
330
156
100
AcDbXrecord
280
     1
102
RTVSPropertyOp0
 70
     1
102
RTVSPropertyOp1
 70
     1
102
RTVSPropertyOp2
 70
     1
102
RTVSPropertyOp3
 70
     1
102
RTVSPropertyOp4
 70
     1
102
RTVSPropertyOp5
 70
     1
102
RTVSPropertyOp6
 70
     1
102
RTVSPropertyOp7
 70
     1
102
RTVSPropertyOp8
 70
     1
102
RTVSPropertyOp9
 70
     1
102
RTVSPropertyOp10
 70
     1
102
RTVSPropertyOp11
 70
     1
102
RTVSPropertyOp12
 70
     1
102
RTVSPropertyOp13
 70
     1
102
RTVSPropertyOp14
 70
     1
102
RTVSPropertyOp15
 70
     1
102
RTVSPropertyOp16
 70
     1
102
RTVSPropertyOp17
 70
     1
102
RTVSPropertyOp18
 70
     1
102
RTVSPropertyOp19
 70
     1
102
RTVSPropertyOp20
 70
     1
102
RTVSPropertyOp21
 70
     1
102
RTVSPropertyOp22
 70
     1
102
RTVSPropertyOp23
 70
     1
102
RTVSPropertyOp24
 70
     1
102
RTVSPropertyOp25
 70
     1
102
RTVSPropertyOp26
 70
     1
102
RTVSPropertyOp27
 70
     1
102
RTVSPropertyOp28
 70
     1
102
RTVSPropertyOp29
 70
     1
102
RTVSPropertyOp30
 70
     1
102
RTVSPropertyOp31
 70
     1
102
RTVSPropertyOp32
 70
     1
102
RTVSPropertyOp33
 70
     1
102
RTVSPropertyOp34
 70
     1
102
RTVSPropertyOp35
 70
     1
102
RTVSPropertyOp36
 70
     1
102
RTVSPropertyOp37
 70
     1
102
RTVSPropertyOp38
 70
     1
102
RTVSPropertyOp39
 70
     1
102
RTVSPropertyOp40
 70
     1
102
RTVSPropertyOp41
 70
     1
102
RTVSPropertyOp42
 70
     1
102
RTVSPropertyOp43
 70
     1
102
RTVSPropertyOp44
 70
     1
102
RTVSPropertyOp45
 70
     1
102
RTVSPropertyOp46
 70
     1
102
RTVSPropertyOp47
 70
     1
102
RTVSPropertyOp48
 70
     1
102
RTVSPropertyOp49
 70
     1
102
RTVSPropertyOp50
 70
     1
102
RTVSPropertyOp51
 70
     0
102
RTVSPropertyOp52
 70
     0
102
RTVSPropertyOp53
 70
     1
102
RTVSPropertyOp54
 70
     1
102
RTVSPropertyOp55
 70
     1
102
RTVSPropertyOp56
 70
     1
102
RTVSPropertyOp57
 70
     1
102
RTVSPost2010Prop28
280
     0
102
RTVSPost2010PropOp28
 70
     1
102
RTVSPost2010Prop29
280
     1
102
RTVSPost2010PropOp29
 70
     1
102
RTVSPost2010Prop30
280
     1
102
RTVSPost2010PropOp30
 70
     1
102
RTVSPost2010Prop31
280
     0
102
RTVSPost2010PropOp31
 70
     1
102
RTVSPost2010Prop32
280
     0
102
RTVSPost2010PropOp32
 70
     1
102
RTVSPost2010Prop33
280
     0
102
RTVSPost2010PropOp33
 70
     1
102
RTVSPost2010Prop34
280
     0
102
RTVSPost2010PropOp34
 70
     1
102
RTVSPost2010Prop35
280
     0
102
RTVSPost2010PropOp35
 70
     1
102
RTVSPost2010Prop36
280
     0
102
RTVSPost2010PropOp36
 70
     1
102
RTVSPost2010Prop37
 90
       50
102
RTVSPost2010PropOp37
 70
     1
102
RTVSPost2010Prop38
140
0.0
102
RTVSPost2010PropOp38
 70
     1
102
RTVSPost2010Prop39
140
1.0
102
RTVSPost2010PropOp39
 70
     1
102
RTVSPost2010Prop40
 90
        0
102
RTVSPost2010PropOp40
 70
     1
102
RTVSPost2010Prop41ColorIndex
 90
       18
102
RTVSPost2010Prop41ColorRGB
 90
        0
102
RTVSPost2010PropOp41
 70
     1
102
RTVSPost2010Prop42
 90
       50
102
RTVSPost2010PropOp42
 70
     1
102
RTVSPost2010Prop43
 90
        3
102
RTVSPost2010PropOp43
 70
     1
102
RTVSPost2010Prop44ColorIndex
 90
        5
102
RTVSPost2010Prop44ColorRGB
 90
      255
102
RTVSPost2010PropOp44
 70
     1
102
RTVSPost2010Prop45
280
     0
102
RTVSPost2010PropOp45
 70
     1
102
RTVSPost2010Prop46
 90
       50
102
RTVSPost2010PropOp46
 70
     1
102
RTVSPost2010Prop47
 90
       50
102
RTVSPost2010PropOp47
 70
     1
102
RTVSPost2010Prop48
 90
       50
102
RTVSPost2010PropOp48
 70
     1
102
RTVSPost2010Prop49
280
     0
102
RTVSPost2010PropOp49
 70
     1
102
RTVSPost2010Prop50
 90
       50
102
RTVSPost2010PropOp50
 70
     1
102
RTVSPost2010Prop51ColorIndex
 90
      256
102
RTVSPost2010Prop51ColorRGB
 90
-16777216
102
RTVSPost2010PropOp51
 70
     0
102
RTVSPost2010Prop52
140
1.0
102
RTVSPost2010PropOp52
 70
     0
102
RTVSPost2010Prop53
 90
        2
102
RTVSPost2010PropOp53
 70
     1
102
RTVSPost2010Prop54
  1
strokes_ogs.tif
102
RTVSPost2010PropOp54
 70
     1
102
RTVSPost2010Prop55
280
     0
102
RTVSPost2010PropOp55
 70
     1
102
RTVSPost2010Prop56
140
1.0
102
RTVSPost2010PropOp56
 70
     1
102
RTVSPost2010Prop57
140
1.0
102
RTVSPost2010PropOp57
 70
     1
  0
XRECORD
  5
14B
102
{ACAD_REACTORS
330
14A
102
}
330
14A
100
AcDbXrecord
280
     1
102
RTVSPropertyOp0
 70
     1
102
RTVSPropertyOp1
 70
     1
102
RTVSPropertyOp2
 70
     1
102
RTVSPropertyOp3
 70
     1
102
RTVSPropertyOp4
 70
     1
102
RTVSPropertyOp5
 70
     1
102
RTVSPropertyOp6
 70
     1
102
RTVSPropertyOp7
 70
     1
102
RTVSPropertyOp8
 70
     1
102
RTVSPropertyOp9
 70
     1
102
RTVSPropertyOp10
 70
     1
102
RTVSPropertyOp11
 70
     1
102
RTVSPropertyOp12
 70
     1
102
RTVSPropertyOp13
 70
     1
102
RTVSPropertyOp14
 70
     1
102
RTVSPropertyOp15
 70
     1
102
RTVSPropertyOp16
 70
     1
102
RTVSPropertyOp17
 70
     1
102
RTVSPropertyOp18
 70
     1
102
RTVSPropertyOp19
 70
     1
102
RTVSPropertyOp20
 70
     1
102
RTVSPropertyOp21
 70
     1
102
RTVSPropertyOp22
 70
     1
102
RTVSPropertyOp23
 70
     1
102
RTVSPropertyOp24
 70
     1
102
RTVSPropertyOp25
 70
     1
102
RTVSPropertyOp26
 70
     1
102
RTVSPropertyOp27
 70
     1
102
RTVSPropertyOp28
 70
     1
102
RTVSPropertyOp29
 70
     1
102
RTVSPropertyOp30
 70
     1
102
RTVSPropertyOp31
 70
     1
102
RTVSPropertyOp32
 70
     1
102
RTVSPropertyOp33
 70
     1
102
RTVSPropertyOp34
 70
     1
102
RTVSPropertyOp35
 70
     1
102
RTVSPropertyOp36
 70
     1
102
RTVSPropertyOp37
 70
     1
102
RTVSPropertyOp38
 70
     1
102
RTVSPropertyOp39
 70
     1
102
RTVSPropertyOp40
 70
     1
102
RTVSPropertyOp41
 70
     1
102
RTVSPropertyOp42
 70
     1
102
RTVSPropertyOp43
 70
     1
102
RTVSPropertyOp44
 70
     1
102
RTVSPropertyOp45
 70
     1
102
RTVSPropertyOp46
 70
     1
102
RTVSPropertyOp47
 70
     1
102
RTVSPropertyOp48
 70
     1
102
RTVSPropertyOp49
 70
     1
102
RTVSPropertyOp50
 70
     1
102
RTVSPropertyOp51
 70
     0
102
RTVSPropertyOp52
 70
     0
102
RTVSPropertyOp53
 70
     1
102
RTVSPropertyOp54
 70
     1
102
RTVSPropertyOp55
 70
     1
102
RTVSPropertyOp56
 70
     1
102
RTVSPropertyOp57
 70
     1
102
RTVSPost2010Prop28
280
     0
102
RTVSPost2010PropOp28
 70
     1
102
RTVSPost2010Prop29
280
     1
102
RTVSPost2010PropOp29
 70
     1
102
RTVSPost2010Prop30
280
     1
102
RTVSPost2010PropOp30
 70
     1
102
RTVSPost2010Prop31
280
     0
102
RTVSPost2010PropOp31
 70
     1
102
RTVSPost2010Prop32
280
     0
102
RTVSPost2010PropOp32
 70
     1
102
RTVSPost2010Prop33
280
     0
102
RTVSPost2010PropOp33
 70
     1
102
RTVSPost2010Prop34
280
     0
102
RTVSPost2010PropOp34
 70
     1
102
RTVSPost2010Prop35
280
     0
102
RTVSPost2010PropOp35
 70
     1
102
RTVSPost2010Prop36
280
     0
102
RTVSPost2010PropOp36
 70
     1
102
RTVSPost2010Prop37
 90
       50
102
RTVSPost2010PropOp37
 70
     1
102
RTVSPost2010Prop38
140
0.0
102
RTVSPost2010PropOp38
 70
     1
102
RTVSPost2010Prop39
140
1.0
102
RTVSPost2010PropOp39
 70
     1
102
RTVSPost2010Prop40
 90
        0
102
RTVSPost2010PropOp40
 70
     1
102
RTVSPost2010Prop41ColorIndex
 90
       18
102
RTVSPost2010Prop41ColorRGB
 90
        0
102
RTVSPost2010PropOp41
 70
     1
102
RTVSPost2010Prop42
 90
       50
102
RTVSPost2010PropOp42
 70
     1
102
RTVSPost2010Prop43
 90
        3
102
RTVSPost2010PropOp43
 70
     1
102
RTVSPost2010Prop44ColorIndex
 90
        5
102
RTVSPost2010Prop44ColorRGB
 90
      255
102
RTVSPost2010PropOp44
 70
     1
102
RTVSPost2010Prop45
280
     0
102
RTVSPost2010PropOp45
 70
     1
102
RTVSPost2010Prop46
 90
       50
102
RTVSPost2010PropOp46
 70
     1
102
RTVSPost2010Prop47
 90
       50
102
RTVSPost2010PropOp47
 70
     1
102
RTVSPost2010Prop48
 90
       50
102
RTVSPost2010PropOp48
 70
     1
102
RTVSPost2010Prop49
280
     0
102
RTVSPost2010PropOp49
 70
     1
102
RTVSPost2010Prop50
 90
       50
102
RTVSPost2010PropOp50
 70
     1
102
RTVSPost2010Prop51ColorIndex
 90
      256
102
RTVSPost2010Prop51ColorRGB
 90
-16777216
102
RTVSPost2010PropOp51
 70
     0
102
RTVSPost2010Prop52
140
1.0
102
RTVSPost2010PropOp52
 70
     0
102
RTVSPost2010Prop53
 90
        2
102
RTVSPost2010PropOp53
 70
     1
102
RTVSPost2010Prop54
  1
strokes_ogs.tif
102
RTVSPost2010PropOp54
 70
     1
102
RTVSPost2010Prop55
280
     0
102
RTVSPost2010PropOp55
 70
     1
102
RTVSPost2010Prop56
140
1.0
102
RTVSPost2010PropOp56
 70
     1
102
RTVSPost2010Prop57
140
1.0
102
RTVSPost2010PropOp57
 70
     1
  0
XRECORD
  5
14D
102
{ACAD_REACTORS
330
14C
102
}
330
14C
100
AcDbXrecord
280
     1
102
RTVSPropertyOp0
 70
     1
102
RTVSPropertyOp1
 70
     1
102
RTVSPropertyOp2
 70
     1
102
RTVSPropertyOp3
 70
     1
102
RTVSPropertyOp4
 70
     1
102
RTVSPropertyOp5
 70
     1
102
RTVSPropertyOp6
 70
     1
102
RTVSPropertyOp7
 70
     1
102
RTVSPropertyOp8
 70
     1
102
RTVSPropertyOp9
 70
     1
102
RTVSPropertyOp10
 70
     1
102
RTVSPropertyOp11
 70
     1
102
RTVSPropertyOp12
 70
     1
102
RTVSPropertyOp13
 70
     1
102
RTVSPropertyOp14
 70
     1
102
RTVSPropertyOp15
 70
     1
102
RTVSPropertyOp16
 70
     1
102
RTVSPropertyOp17
 70
     1
102
RTVSPropertyOp18
 70
     1
102
RTVSPropertyOp19
 70
     1
102
RTVSPropertyOp20
 70
     1
102
RTVSPropertyOp21
 70
     1
102
RTVSPropertyOp22
 70
     1
102
RTVSPropertyOp23
 70
     1
102
RTVSPropertyOp24
 70
     1
102
RTVSPropertyOp25
 70
     1
102
RTVSPropertyOp26
 70
     1
102
RTVSPropertyOp27
 70
     1
102
RTVSPropertyOp28
 70
     1
102
RTVSPropertyOp29
 70
     1
102
RTVSPropertyOp30
 70
     1
102
RTVSPropertyOp31
 70
     1
102
RTVSPropertyOp32
 70
     1
102
RTVSPropertyOp33
 70
     1
102
RTVSPropertyOp34
 70
     1
102
RTVSPropertyOp35
 70
     1
102
RTVSPropertyOp36
 70
     1
102
RTVSPropertyOp37
 70
     1
102
RTVSPropertyOp38
 70
     1
102
RTVSPropertyOp39
 70
     1
102
RTVSPropertyOp40
 70
     1
102
RTVSPropertyOp41
 70
     1
102
RTVSPropertyOp42
 70
     1
102
RTVSPropertyOp43
 70
     1
102
RTVSPropertyOp44
 70
     1
102
RTVSPropertyOp45
 70
     1
102
RTVSPropertyOp46
 70
     1
102
RTVSPropertyOp47
 70
     1
102
RTVSPropertyOp48
 70
     1
102
RTVSPropertyOp49
 70
     1
102
RTVSPropertyOp50
 70
     1
102
RTVSPropertyOp51
 70
     0
102
RTVSPropertyOp52
 70
     0
102
RTVSPropertyOp53
 70
     1
102
RTVSPropertyOp54
 70
     1
102
RTVSPropertyOp55
 70
     1
102
RTVSPropertyOp56
 70
     1
102
RTVSPropertyOp57
 70
     1
102
RTVSPost2010Prop28
280
     0
102
RTVSPost2010PropOp28
 70
     1
102
RTVSPost2010Prop29
280
     1
102
RTVSPost2010PropOp29
 70
     1
102
RTVSPost2010Prop30
280
     1
102
RTVSPost2010PropOp30
 70
     1
102
RTVSPost2010Prop31
280
     0
102
RTVSPost2010PropOp31
 70
     1
102
RTVSPost2010Prop32
280
     0
102
RTVSPost2010PropOp32
 70
     1
102
RTVSPost2010Prop33
280
     0
102
RTVSPost2010PropOp33
 70
     1
102
RTVSPost2010Prop34
280
     0
102
RTVSPost2010PropOp34
 70
     1
102
RTVSPost2010Prop35
280
     0
102
RTVSPost2010PropOp35
 70
     1
102
RTVSPost2010Prop36
280
     0
102
RTVSPost2010PropOp36
 70
     1
102
RTVSPost2010Prop37
 90
       50
102
RTVSPost2010PropOp37
 70
     1
102
RTVSPost2010Prop38
140
0.0
102
RTVSPost2010PropOp38
 70
     1
102
RTVSPost2010Prop39
140
1.0
102
RTVSPost2010PropOp39
 70
     1
102
RTVSPost2010Prop40
 90
        0
102
RTVSPost2010PropOp40
 70
     1
102
RTVSPost2010Prop41ColorIndex
 90
       18
102
RTVSPost2010Prop41ColorRGB
 90
        0
102
RTVSPost2010PropOp41
 70
     1
102
RTVSPost2010Prop42
 90
       50
102
RTVSPost2010PropOp42
 70
     1
102
RTVSPost2010Prop43
 90
        3
102
RTVSPost2010PropOp43
 70
     1
102
RTVSPost2010Prop44ColorIndex
 90
        5
102
RTVSPost2010Prop44ColorRGB
 90
      255
102
RTVSPost2010PropOp44
 70
     1
102
RTVSPost2010Prop45
280
     0
102
RTVSPost2010PropOp45
 70
     1
102
RTVSPost2010Prop46
 90
       50
102
RTVSPost2010PropOp46
 70
     1
102
RTVSPost2010Prop47
 90
       50
102
RTVSPost2010PropOp47
 70
     1
102
RTVSPost2010Prop48
 90
       50
102
RTVSPost2010PropOp48
 70
     1
102
RTVSPost2010Prop49
280
     0
102
RTVSPost2010PropOp49
 70
     1
102
RTVSPost2010Prop50
 90
       50
102
RTVSPost2010PropOp50
 70
     1
102
RTVSPost2010Prop51ColorIndex
 90
      256
102
RTVSPost2010Prop51ColorRGB
 90
-16777216
102
RTVSPost2010PropOp51
 70
     0
102
RTVSPost2010Prop52
140
1.0
102
RTVSPost2010PropOp52
 70
     0
102
RTVSPost2010Prop53
 90
        2
102
RTVSPost2010PropOp53
 70
     1
102
RTVSPost2010Prop54
  1
strokes_ogs.tif
102
RTVSPost2010PropOp54
 70
     1
102
RTVSPost2010Prop55
280
     0
102
RTVSPost2010PropOp55
 70
     1
102
RTVSPost2010Prop56
140
1.0
102
RTVSPost2010PropOp56
 70
     1
102
RTVSPost2010Prop57
140
1.0
102
RTVSPost2010PropOp57
 70
     1
  0
XRECORD
  5
15D
102
{ACAD_REACTORS
330
15C
102
}
330
15C
100
AcDbXrecord
280
     1
102
RTVSPropertyOp0
 70
     0
102
RTVSPropertyOp1
 70
     0
102
RTVSPropertyOp2
 70
     0
102
RTVSPropertyOp3
 70
     0
102
RTVSPropertyOp4
 70
     0
102
RTVSPropertyOp5
 70
     0
102
RTVSPropertyOp6
 70
     0
102
RTVSPropertyOp7
 70
     0
102
RTVSPropertyOp8
 70
     0
102
RTVSPropertyOp9
 70
     0
102
RTVSPropertyOp10
 70
     0
102
RTVSPropertyOp11
 70
     0
102
RTVSPropertyOp12
 70
     0
102
RTVSPropertyOp13
 70
     0
102
RTVSPropertyOp14
 70
     2
102
RTVSPropertyOp15
 70
     0
102
RTVSPropertyOp16
 70
     0
102
RTVSPropertyOp17
 70
     0
102
RTVSPropertyOp18
 70
     0
102
RTVSPropertyOp19
 70
     0
102
RTVSPropertyOp20
 70
     0
102
RTVSPropertyOp21
 70
     0
102
RTVSPropertyOp22
 70
     0
102
RTVSPropertyOp23
 70
     0
102
RTVSPropertyOp24
 70
     0
102
RTVSPropertyOp25
 70
     0
102
RTVSPropertyOp26
 70
     0
102
RTVSPropertyOp27
 70
     0
102
RTVSPropertyOp28
 70
     0
102
RTVSPropertyOp29
 70
     0
102
RTVSPropertyOp30
 70
     0
102
RTVSPropertyOp31
 70
     0
102
RTVSPropertyOp32
 70
     0
102
RTVSPropertyOp33
 70
     0
102
RTVSPropertyOp34
 70
     0
102
RTVSPropertyOp35
 70
     0
102
RTVSPropertyOp36
 70
     0
102
RTVSPropertyOp37
 70
     0
102
RTVSPropertyOp38
 70
     0
102
RTVSPropertyOp39
 70
     0
102
RTVSPropertyOp40
 70
     0
102
RTVSPropertyOp41
 70
     0
102
RTVSPropertyOp42
 70
     0
102
RTVSPropertyOp43
 70
     0
102
RTVSPropertyOp44
 70
     0
102
RTVSPropertyOp45
 70
     0
102
RTVSPropertyOp46
 70
     0
102
RTVSPropertyOp47
 70
     0
102
RTVSPropertyOp48
 70
     0
102
RTVSPropertyOp49
 70
     0
102
RTVSPropertyOp50
 70
     0
102
RTVSPropertyOp51
 70
     0
102
RTVSPropertyOp52
 70
     0
102
RTVSPropertyOp53
 70
     0
102
RTVSPropertyOp54
 70
     0
102
RTVSPropertyOp55
 70
     0
102
RTVSPropertyOp56
 70
     0
102
RTVSPropertyOp57
 70
     0
102
RTVSPost2010Prop28
280
     0
102
RTVSPost2010PropOp28
 70
     0
102
RTVSPost2010Prop29
280
     1
102
RTVSPost2010PropOp29
 70
     0
102
RTVSPost2010Prop30
280
     1
102
RTVSPost2010PropOp30
 70
     0
102
RTVSPost2010Prop31
280
     0
102
RTVSPost2010PropOp31
 70
     0
102
RTVSPost2010Prop32
280
     0
102
RTVSPost2010PropOp32
 70
     0
102
RTVSPost2010Prop33
280
     0
102
RTVSPost2010PropOp33
 70
     0
102
RTVSPost2010Prop34
280
     0
102
RTVSPost2010PropOp34
 70
     0
102
RTVSPost2010Prop35
280
     0
102
RTVSPost2010PropOp35
 70
     0
102
RTVSPost2010Prop36
280
     0
102
RTVSPost2010PropOp36
 70
     0
102
RTVSPost2010Prop37
 90
       50
102
RTVSPost2010PropOp37
 70
     0
102
RTVSPost2010Prop38
140
0.0
102
RTVSPost2010PropOp38
 70
     0
102
RTVSPost2010Prop39
140
1.0
102
RTVSPost2010PropOp39
 70
     0
102
RTVSPost2010Prop40
 90
        0
102
RTVSPost2010PropOp40
 70
     0
102
RTVSPost2010Prop41ColorIndex
 90
       18
102
RTVSPost2010Prop41ColorRGB
 90
        0
102
RTVSPost2010PropOp41
 70
     0
102
RTVSPost2010Prop42
 90
       50
102
RTVSPost2010PropOp42
 70
     0
102
RTVSPost2010Prop43
 90
        3
102
RTVSPost2010PropOp43
 70
     0
102
RTVSPost2010Prop44ColorIndex
 90
        5
102
RTVSPost2010Prop44ColorRGB
 90
      255
102
RTVSPost2010PropOp44
 70
     0
102
RTVSPost2010Prop45
280
     0
102
RTVSPost2010PropOp45
 70
     0
102
RTVSPost2010Prop46
 90
       50
102
RTVSPost2010PropOp46
 70
     0
102
RTVSPost2010Prop47
 90
       50
102
RTVSPost2010PropOp47
 70
     0
102
RTVSPost2010Prop48
 90
       50
102
RTVSPost2010PropOp48
 70
     0
102
RTVSPost2010Prop49
280
     0
102
RTVSPost2010PropOp49
 70
     0
102
RTVSPost2010Prop50
 90
       50
102
RTVSPost2010PropOp50
 70
     0
102
RTVSPost2010Prop51ColorIndex
 90
      256
102
RTVSPost2010Prop51ColorRGB
 90
-16777216
102
RTVSPost2010PropOp51
 70
     0
102
RTVSPost2010Prop52
140
1.0
102
RTVSPost2010PropOp52
 70
     0
102
RTVSPost2010Prop53
 90
        2
102
RTVSPost2010PropOp53
 70
     0
102
RTVSPost2010Prop54
  1
strokes_ogs.tif
102
RTVSPost2010PropOp54
 70
     0
102
RTVSPost2010Prop55
280
     0
102
RTVSPost2010PropOp55
 70
     0
102
RTVSPost2010Prop56
140
1.0
102
RTVSPost2010PropOp56
 70
     0
102
RTVSPost2010Prop57
140
1.0
102
RTVSPost2010PropOp57
 70
     0
  0
XRECORD
  5
155
102
{ACAD_REACTORS
330
154
102
}
330
154
100
AcDbXrecord
280
     1
102
RTVSPropertyOp0
 70
     1
102
RTVSPropertyOp1
 70
     1
102
RTVSPropertyOp2
 70
     1
102
RTVSPropertyOp3
 70
     1
102
RTVSPropertyOp4
 70
     1
102
RTVSPropertyOp5
 70
     1
102
RTVSPropertyOp6
 70
     1
102
RTVSPropertyOp7
 70
     1
102
RTVSPropertyOp8
 70
     1
102
RTVSPropertyOp9
 70
     1
102
RTVSPropertyOp10
 70
     1
102
RTVSPropertyOp11
 70
     1
102
RTVSPropertyOp12
 70
     1
102
RTVSPropertyOp13
 70
     1
102
RTVSPropertyOp14
 70
     1
102
RTVSPropertyOp15
 70
     1
102
RTVSPropertyOp16
 70
     1
102
RTVSPropertyOp17
 70
     1
102
RTVSPropertyOp18
 70
     1
102
RTVSPropertyOp19
 70
     1
102
RTVSPropertyOp20
 70
     1
102
RTVSPropertyOp21
 70
     1
102
RTVSPropertyOp22
 70
     1
102
RTVSPropertyOp23
 70
     1
102
RTVSPropertyOp24
 70
     1
102
RTVSPropertyOp25
 70
     1
102
RTVSPropertyOp26
 70
     1
102
RTVSPropertyOp27
 70
     1
102
RTVSPropertyOp28
 70
     1
102
RTVSPropertyOp29
 70
     1
102
RTVSPropertyOp30
 70
     1
102
RTVSPropertyOp31
 70
     1
102
RTVSPropertyOp32
 70
     1
102
RTVSPropertyOp33
 70
     1
102
RTVSPropertyOp34
 70
     1
102
RTVSPropertyOp35
 70
     1
102
RTVSPropertyOp36
 70
     1
102
RTVSPropertyOp37
 70
     1
102
RTVSPropertyOp38
 70
     1
102
RTVSPropertyOp39
 70
     1
102
RTVSPropertyOp40
 70
     1
102
RTVSPropertyOp41
 70
     1
102
RTVSPropertyOp42
 70
     1
102
RTVSPropertyOp43
 70
     1
102
RTVSPropertyOp44
 70
     1
102
RTVSPropertyOp45
 70
     1
102
RTVSPropertyOp46
 70
     1
102
RTVSPropertyOp47
 70
     1
102
RTVSPropertyOp48
 70
     1
102
RTVSPropertyOp49
 70
     1
102
RTVSPropertyOp50
 70
     1
102
RTVSPropertyOp51
 70
     0
102
RTVSPropertyOp52
 70
     0
102
RTVSPropertyOp53
 70
     1
102
RTVSPropertyOp54
 70
     1
102
RTVSPropertyOp55
 70
     1
102
RTVSPropertyOp56
 70
     1
102
RTVSPropertyOp57
 70
     1
102
RTVSPost2010Prop28
280
     0
102
RTVSPost2010PropOp28
 70
     1
102
RTVSPost2010Prop29
280
     1
102
RTVSPost2010PropOp29
 70
     1
102
RTVSPost2010Prop30
280
     1
102
RTVSPost2010PropOp30
 70
     1
102
RTVSPost2010Prop31
280
     0
102
RTVSPost2010PropOp31
 70
     1
102
RTVSPost2010Prop32
280
     0
102
RTVSPost2010PropOp32
 70
     1
102
RTVSPost2010Prop33
280
     0
102
RTVSPost2010PropOp33
 70
     1
102
RTVSPost2010Prop34
280
     0
102
RTVSPost2010PropOp34
 70
     1
102
RTVSPost2010Prop35
280
     0
102
RTVSPost2010PropOp35
 70
     1
102
RTVSPost2010Prop36
280
     0
102
RTVSPost2010PropOp36
 70
     1
102
RTVSPost2010Prop37
 90
       50
102
RTVSPost2010PropOp37
 70
     1
102
RTVSPost2010Prop38
140
0.0
102
RTVSPost2010PropOp38
 70
     1
102
RTVSPost2010Prop39
140
1.0
102
RTVSPost2010PropOp39
 70
     1
102
RTVSPost2010Prop40
 90
        0
102
RTVSPost2010PropOp40
 70
     1
102
RTVSPost2010Prop41ColorIndex
 90
       18
102
RTVSPost2010Prop41ColorRGB
 90
        0
102
RTVSPost2010PropOp41
 70
     1
102
RTVSPost2010Prop42
 90
       50
102
RTVSPost2010PropOp42
 70
     1
102
RTVSPost2010Prop43
 90
        3
102
RTVSPost2010PropOp43
 70
     1
102
RTVSPost2010Prop44ColorIndex
 90
        5
102
RTVSPost2010Prop44ColorRGB
 90
      255
102
RTVSPost2010PropOp44
 70
     1
102
RTVSPost2010Prop45
280
     0
102
RTVSPost2010PropOp45
 70
     1
102
RTVSPost2010Prop46
 90
       50
102
RTVSPost2010PropOp46
 70
     1
102
RTVSPost2010Prop47
 90
       50
102
RTVSPost2010PropOp47
 70
     1
102
RTVSPost2010Prop48
 90
       50
102
RTVSPost2010PropOp48
 70
     1
102
RTVSPost2010Prop49
280
     0
102
RTVSPost2010PropOp49
 70
     1
102
RTVSPost2010Prop50
 90
       50
102
RTVSPost2010PropOp50
 70
     1
102
RTVSPost2010Prop51ColorIndex
 90
      256
102
RTVSPost2010Prop51ColorRGB
 90
-16777216
102
RTVSPost2010PropOp51
 70
     0
102
RTVSPost2010Prop52
140
1.0
102
RTVSPost2010PropOp52
 70
     0
102
RTVSPost2010Prop53
 90
        2
102
RTVSPost2010PropOp53
 70
     1
102
RTVSPost2010Prop54
  1
strokes_ogs.tif
102
RTVSPost2010PropOp54
 70
     1
102
RTVSPost2010Prop55
280
     0
102
RTVSPost2010PropOp55
 70
     1
102
RTVSPost2010Prop56
140
1.0
102
RTVSPost2010PropOp56
 70
     1
102
RTVSPost2010Prop57
140
1.0
102
RTVSPost2010PropOp57
 70
     1
  0
XRECORD
  5
139
102
{ACAD_REACTORS
330
138
102
}
330
138
100
AcDbXrecord
280
     1
102
RTVSPropertyOp0
 70
     1
102
RTVSPropertyOp1
 70
     1
102
RTVSPropertyOp2
 70
     1
102
RTVSPropertyOp3
 70
     1
102
RTVSPropertyOp4
 70
     1
102
RTVSPropertyOp5
 70
     1
102
RTVSPropertyOp6
 70
     1
102
RTVSPropertyOp7
 70
     1
102
RTVSPropertyOp8
 70
     1
102
RTVSPropertyOp9
 70
     1
102
RTVSPropertyOp10
 70
     1
102
RTVSPropertyOp11
 70
     1
102
RTVSPropertyOp12
 70
     1
102
RTVSPropertyOp13
 70
     1
102
RTVSPropertyOp14
 70
     1
102
RTVSPropertyOp15
 70
     1
102
RTVSPropertyOp16
 70
     1
102
RTVSPropertyOp17
 70
     1
102
RTVSPropertyOp18
 70
     1
102
RTVSPropertyOp19
 70
     1
102
RTVSPropertyOp20
 70
     1
102
RTVSPropertyOp21
 70
     1
102
RTVSPropertyOp22
 70
     1
102
RTVSPropertyOp23
 70
     1
102
RTVSPropertyOp24
 70
     1
102
RTVSPropertyOp25
 70
     1
102
RTVSPropertyOp26
 70
     1
102
RTVSPropertyOp27
 70
     1
102
RTVSPropertyOp28
 70
     1
102
RTVSPropertyOp29
 70
     1
102
RTVSPropertyOp30
 70
     1
102
RTVSPropertyOp31
 70
     1
102
RTVSPropertyOp32
 70
     1
102
RTVSPropertyOp33
 70
     1
102
RTVSPropertyOp34
 70
     1
102
RTVSPropertyOp35
 70
     1
102
RTVSPropertyOp36
 70
     1
102
RTVSPropertyOp37
 70
     1
102
RTVSPropertyOp38
 70
     1
102
RTVSPropertyOp39
 70
     1
102
RTVSPropertyOp40
 70
     1
102
RTVSPropertyOp41
 70
     1
102
RTVSPropertyOp42
 70
     1
102
RTVSPropertyOp43
 70
     1
102
RTVSPropertyOp44
 70
     1
102
RTVSPropertyOp45
 70
     1
102
RTVSPropertyOp46
 70
     1
102
RTVSPropertyOp47
 70
     1
102
RTVSPropertyOp48
 70
     1
102
RTVSPropertyOp49
 70
     1
102
RTVSPropertyOp50
 70
     1
102
RTVSPropertyOp51
 70
     0
102
RTVSPropertyOp52
 70
     0
102
RTVSPropertyOp53
 70
     1
102
RTVSPropertyOp54
 70
     1
102
RTVSPropertyOp55
 70
     1
102
RTVSPropertyOp56
 70
     1
102
RTVSPropertyOp57
 70
     1
102
RTVSPost2010Prop28
280
     0
102
RTVSPost2010PropOp28
 70
     1
102
RTVSPost2010Prop29
280
     1
102
RTVSPost2010PropOp29
 70
     1
102
RTVSPost2010Prop30
280
     1
102
RTVSPost2010PropOp30
 70
     1
102
RTVSPost2010Prop31
280
     0
102
RTVSPost2010PropOp31
 70
     1
102
RTVSPost2010Prop32
280
     0
102
RTVSPost2010PropOp32
 70
     1
102
RTVSPost2010Prop33
280
     0
102
RTVSPost2010PropOp33
 70
     1
102
RTVSPost2010Prop34
280
     0
102
RTVSPost2010PropOp34
 70
     1
102
RTVSPost2010Prop35
280
     0
102
RTVSPost2010PropOp35
 70
     1
102
RTVSPost2010Prop36
280
     0
102
RTVSPost2010PropOp36
 70
     1
102
RTVSPost2010Prop37
 90
       50
102
RTVSPost2010PropOp37
 70
     1
102
RTVSPost2010Prop38
140
0.0
102
RTVSPost2010PropOp38
 70
     1
102
RTVSPost2010Prop39
140
1.0
102
RTVSPost2010PropOp39
 70
     1
102
RTVSPost2010Prop40
 90
        0
102
RTVSPost2010PropOp40
 70
     1
102
RTVSPost2010Prop41ColorIndex
 90
       18
102
RTVSPost2010Prop41ColorRGB
 90
        0
102
RTVSPost2010PropOp41
 70
     1
102
RTVSPost2010Prop42
 90
       50
102
RTVSPost2010PropOp42
 70
     1
102
RTVSPost2010Prop43
 90
        3
102
RTVSPost2010PropOp43
 70
     1
102
RTVSPost2010Prop44ColorIndex
 90
        5
102
RTVSPost2010Prop44ColorRGB
 90
      255
102
RTVSPost2010PropOp44
 70
     1
102
RTVSPost2010Prop45
280
     0
102
RTVSPost2010PropOp45
 70
     1
102
RTVSPost2010Prop46
 90
       50
102
RTVSPost2010PropOp46
 70
     1
102
RTVSPost2010Prop47
 90
       50
102
RTVSPost2010PropOp47
 70
     1
102
RTVSPost2010Prop48
 90
       50
102
RTVSPost2010PropOp48
 70
     1
102
RTVSPost2010Prop49
280
     0
102
RTVSPost2010PropOp49
 70
     1
102
RTVSPost2010Prop50
 90
       50
102
RTVSPost2010PropOp50
 70
     1
102
RTVSPost2010Prop51ColorIndex
 90
      256
102
RTVSPost2010Prop51ColorRGB
 90
-16777216
102
RTVSPost2010PropOp51
 70
     0
102
RTVSPost2010Prop52
140
1.0
102
RTVSPost2010PropOp52
 70
     0
102
RTVSPost2010Prop53
 90
        2
102
RTVSPost2010PropOp53
 70
     1
102
RTVSPost2010Prop54
  1
strokes_ogs.tif
102
RTVSPost2010PropOp54
 70
     1
102
RTVSPost2010Prop55
280
     0
102
RTVSPost2010PropOp55
 70
     1
102
RTVSPost2010Prop56
140
1.0
102
RTVSPost2010PropOp56
 70
     1
102
RTVSPost2010Prop57
140
1.0
102
RTVSPost2010PropOp57
 70
     1
  0
XRECORD
  5
13B
102
{ACAD_REACTORS
330
13A
102
}
330
13A
100
AcDbXrecord
280
     1
102
RTVSPropertyOp0
 70
     1
102
RTVSPropertyOp1
 70
     1
102
RTVSPropertyOp2
 70
     1
102
RTVSPropertyOp3
 70
     1
102
RTVSPropertyOp4
 70
     1
102
RTVSPropertyOp5
 70
     1
102
RTVSPropertyOp6
 70
     1
102
RTVSPropertyOp7
 70
     1
102
RTVSPropertyOp8
 70
     1
102
RTVSPropertyOp9
 70
     1
102
RTVSPropertyOp10
 70
     1
102
RTVSPropertyOp11
 70
     1
102
RTVSPropertyOp12
 70
     1
102
RTVSPropertyOp13
 70
     1
102
RTVSPropertyOp14
 70
     1
102
RTVSPropertyOp15
 70
     1
102
RTVSPropertyOp16
 70
     1
102
RTVSPropertyOp17
 70
     1
102
RTVSPropertyOp18
 70
     1
102
RTVSPropertyOp19
 70
     1
102
RTVSPropertyOp20
 70
     1
102
RTVSPropertyOp21
 70
     1
102
RTVSPropertyOp22
 70
     1
102
RTVSPropertyOp23
 70
     1
102
RTVSPropertyOp24
 70
     1
102
RTVSPropertyOp25
 70
     1
102
RTVSPropertyOp26
 70
     1
102
RTVSPropertyOp27
 70
     1
102
RTVSPropertyOp28
 70
     1
102
RTVSPropertyOp29
 70
     1
102
RTVSPropertyOp30
 70
     1
102
RTVSPropertyOp31
 70
     1
102
RTVSPropertyOp32
 70
     1
102
RTVSPropertyOp33
 70
     1
102
RTVSPropertyOp34
 70
     1
102
RTVSPropertyOp35
 70
     1
102
RTVSPropertyOp36
 70
     1
102
RTVSPropertyOp37
 70
     1
102
RTVSPropertyOp38
 70
     1
102
RTVSPropertyOp39
 70
     1
102
RTVSPropertyOp40
 70
     1
102
RTVSPropertyOp41
 70
     1
102
RTVSPropertyOp42
 70
     1
102
RTVSPropertyOp43
 70
     1
102
RTVSPropertyOp44
 70
     1
102
RTVSPropertyOp45
 70
     1
102
RTVSPropertyOp46
 70
     1
102
RTVSPropertyOp47
 70
     1
102
RTVSPropertyOp48
 70
     1
102
RTVSPropertyOp49
 70
     1
102
RTVSPropertyOp50
 70
     1
102
RTVSPropertyOp51
 70
     0
102
RTVSPropertyOp52
 70
     0
102
RTVSPropertyOp53
 70
     1
102
RTVSPropertyOp54
 70
     1
102
RTVSPropertyOp55
 70
     1
102
RTVSPropertyOp56
 70
     1
102
RTVSPropertyOp57
 70
     1
102
RTVSPost2010Prop28
280
     0
102
RTVSPost2010PropOp28
 70
     1
102
RTVSPost2010Prop29
280
     1
102
RTVSPost2010PropOp29
 70
     1
102
RTVSPost2010Prop30
280
     1
102
RTVSPost2010PropOp30
 70
     1
102
RTVSPost2010Prop31
280
     0
102
RTVSPost2010PropOp31
 70
     1
102
RTVSPost2010Prop32
280
     0
102
RTVSPost2010PropOp32
 70
     1
102
RTVSPost2010Prop33
280
     0
102
RTVSPost2010PropOp33
 70
     1
102
RTVSPost2010Prop34
280
     0
102
RTVSPost2010PropOp34
 70
     1
102
RTVSPost2010Prop35
280
     0
102
RTVSPost2010PropOp35
 70
     1
102
RTVSPost2010Prop36
280
     0
102
RTVSPost2010PropOp36
 70
     1
102
RTVSPost2010Prop37
 90
       50
102
RTVSPost2010PropOp37
 70
     1
102
RTVSPost2010Prop38
140
0.0
102
RTVSPost2010PropOp38
 70
     1
102
RTVSPost2010Prop39
140
1.0
102
RTVSPost2010PropOp39
 70
     1
102
RTVSPost2010Prop40
 90
        0
102
RTVSPost2010PropOp40
 70
     1
102
RTVSPost2010Prop41ColorIndex
 90
       18
102
RTVSPost2010Prop41ColorRGB
 90
        0
102
RTVSPost2010PropOp41
 70
     1
102
RTVSPost2010Prop42
 90
       50
102
RTVSPost2010PropOp42
 70
     1
102
RTVSPost2010Prop43
 90
        3
102
RTVSPost2010PropOp43
 70
     1
102
RTVSPost2010Prop44ColorIndex
 90
        5
102
RTVSPost2010Prop44ColorRGB
 90
      255
102
RTVSPost2010PropOp44
 70
     1
102
RTVSPost2010Prop45
280
     0
102
RTVSPost2010PropOp45
 70
     1
102
RTVSPost2010Prop46
 90
       50
102
RTVSPost2010PropOp46
 70
     1
102
RTVSPost2010Prop47
 90
       50
102
RTVSPost2010PropOp47
 70
     1
102
RTVSPost2010Prop48
 90
       50
102
RTVSPost2010PropOp48
 70
     1
102
RTVSPost2010Prop49
280
     0
102
RTVSPost2010PropOp49
 70
     1
102
RTVSPost2010Prop50
 90
       50
102
RTVSPost2010PropOp50
 70
     1
102
RTVSPost2010Prop51ColorIndex
 90
      256
102
RTVSPost2010Prop51ColorRGB
 90
-16777216
102
RTVSPost2010PropOp51
 70
     0
102
RTVSPost2010Prop52
140
1.0
102
RTVSPost2010PropOp52
 70
     0
102
RTVSPost2010Prop53
 90
        2
102
RTVSPost2010PropOp53
 70
     1
102
RTVSPost2010Prop54
  1
strokes_ogs.tif
102
RTVSPost2010PropOp54
 70
     1
102
RTVSPost2010Prop55
280
     0
102
RTVSPost2010PropOp55
 70
     1
102
RTVSPost2010Prop56
140
1.0
102
RTVSPost2010PropOp56
 70
     1
102
RTVSPost2010Prop57
140
1.0
102
RTVSPost2010PropOp57
 70
     1
  0
XRECORD
  5
13D
102
{ACAD_REACTORS
330
13C
102
}
330
13C
100
AcDbXrecord
280
     1
102
RTVSPropertyOp0
 70
     1
102
RTVSPropertyOp1
 70
     1
102
RTVSPropertyOp2
 70
     1
102
RTVSPropertyOp3
 70
     1
102
RTVSPropertyOp4
 70
     1
102
RTVSPropertyOp5
 70
     1
102
RTVSPropertyOp6
 70
     1
102
RTVSPropertyOp7
 70
     1
102
RTVSPropertyOp8
 70
     1
102
RTVSPropertyOp9
 70
     1
102
RTVSPropertyOp10
 70
     1
102
RTVSPropertyOp11
 70
     1
102
RTVSPropertyOp12
 70
     1
102
RTVSPropertyOp13
 70
     1
102
RTVSPropertyOp14
 70
     1
102
RTVSPropertyOp15
 70
     1
102
RTVSPropertyOp16
 70
     1
102
RTVSPropertyOp17
 70
     1
102
RTVSPropertyOp18
 70
     1
102
RTVSPropertyOp19
 70
     1
102
RTVSPropertyOp20
 70
     1
102
RTVSPropertyOp21
 70
     1
102
RTVSPropertyOp22
 70
     1
102
RTVSPropertyOp23
 70
     1
102
RTVSPropertyOp24
 70
     1
102
RTVSPropertyOp25
 70
     1
102
RTVSPropertyOp26
 70
     1
102
RTVSPropertyOp27
 70
     1
102
RTVSPropertyOp28
 70
     1
102
RTVSPropertyOp29
 70
     1
102
RTVSPropertyOp30
 70
     1
102
RTVSPropertyOp31
 70
     1
102
RTVSPropertyOp32
 70
     1
102
RTVSPropertyOp33
 70
     1
102
RTVSPropertyOp34
 70
     1
102
RTVSPropertyOp35
 70
     1
102
RTVSPropertyOp36
 70
     1
102
RTVSPropertyOp37
 70
     1
102
RTVSPropertyOp38
 70
     1
102
RTVSPropertyOp39
 70
     1
102
RTVSPropertyOp40
 70
     1
102
RTVSPropertyOp41
 70
     1
102
RTVSPropertyOp42
 70
     1
102
RTVSPropertyOp43
 70
     1
102
RTVSPropertyOp44
 70
     1
102
RTVSPropertyOp45
 70
     1
102
RTVSPropertyOp46
 70
     1
102
RTVSPropertyOp47
 70
     1
102
RTVSPropertyOp48
 70
     1
102
RTVSPropertyOp49
 70
     1
102
RTVSPropertyOp50
 70
     1
102
RTVSPropertyOp51
 70
     0
102
RTVSPropertyOp52
 70
     0
102
RTVSPropertyOp53
 70
     1
102
RTVSPropertyOp54
 70
     1
102
RTVSPropertyOp55
 70
     1
102
RTVSPropertyOp56
 70
     1
102
RTVSPropertyOp57
 70
     1
102
RTVSPost2010Prop28
280
     0
102
RTVSPost2010PropOp28
 70
     1
102
RTVSPost2010Prop29
280
     1
102
RTVSPost2010PropOp29
 70
     1
102
RTVSPost2010Prop30
280
     1
102
RTVSPost2010PropOp30
 70
     1
102
RTVSPost2010Prop31
280
     0
102
RTVSPost2010PropOp31
 70
     1
102
RTVSPost2010Prop32
280
     0
102
RTVSPost2010PropOp32
 70
     1
102
RTVSPost2010Prop33
280
     0
102
RTVSPost2010PropOp33
 70
     1
102
RTVSPost2010Prop34
280
     0
102
RTVSPost2010PropOp34
 70
     1
102
RTVSPost2010Prop35
280
     0
102
RTVSPost2010PropOp35
 70
     1
102
RTVSPost2010Prop36
280
     0
102
RTVSPost2010PropOp36
 70
     1
102
RTVSPost2010Prop37
 90
       50
102
RTVSPost2010PropOp37
 70
     1
102
RTVSPost2010Prop38
140
0.0
102
RTVSPost2010PropOp38
 70
     1
102
RTVSPost2010Prop39
140
1.0
102
RTVSPost2010PropOp39
 70
     1
102
RTVSPost2010Prop40
 90
        0
102
RTVSPost2010PropOp40
 70
     1
102
RTVSPost2010Prop41ColorIndex
 90
       18
102
RTVSPost2010Prop41ColorRGB
 90
        0
102
RTVSPost2010PropOp41
 70
     1
102
RTVSPost2010Prop42
 90
       50
102
RTVSPost2010PropOp42
 70
     1
102
RTVSPost2010Prop43
 90
        3
102
RTVSPost2010PropOp43
 70
     1
102
RTVSPost2010Prop44ColorIndex
 90
        5
102
RTVSPost2010Prop44ColorRGB
 90
      255
102
RTVSPost2010PropOp44
 70
     1
102
RTVSPost2010Prop45
280
     0
102
RTVSPost2010PropOp45
 70
     1
102
RTVSPost2010Prop46
 90
       50
102
RTVSPost2010PropOp46
 70
     1
102
RTVSPost2010Prop47
 90
       50
102
RTVSPost2010PropOp47
 70
     1
102
RTVSPost2010Prop48
 90
       50
102
RTVSPost2010PropOp48
 70
     1
102
RTVSPost2010Prop49
280
     0
102
RTVSPost2010PropOp49
 70
     1
102
RTVSPost2010Prop50
 90
       50
102
RTVSPost2010PropOp50
 70
     1
102
RTVSPost2010Prop51ColorIndex
 90
      256
102
RTVSPost2010Prop51ColorRGB
 90
-16777216
102
RTVSPost2010PropOp51
 70
     0
102
RTVSPost2010Prop52
140
1.0
102
RTVSPost2010PropOp52
 70
     0
102
RTVSPost2010Prop53
 90
        2
102
RTVSPost2010PropOp53
 70
     1
102
RTVSPost2010Prop54
  1
strokes_ogs.tif
102
RTVSPost2010PropOp54
 70
     1
102
RTVSPost2010Prop55
280
     0
102
RTVSPost2010PropOp55
 70
     1
102
RTVSPost2010Prop56
140
1.0
102
RTVSPost2010PropOp56
 70
     1
102
RTVSPost2010Prop57
140
1.0
102
RTVSPost2010PropOp57
 70
     1
  0
XRECORD
  5
13F
102
{ACAD_REACTORS
330
13E
102
}
330
13E
100
AcDbXrecord
280
     1
102
RTVSPropertyOp0
 70
     1
102
RTVSPropertyOp1
 70
     1
102
RTVSPropertyOp2
 70
     1
102
RTVSPropertyOp3
 70
     1
102
RTVSPropertyOp4
 70
     1
102
RTVSPropertyOp5
 70
     1
102
RTVSPropertyOp6
 70
     1
102
RTVSPropertyOp7
 70
     1
102
RTVSPropertyOp8
 70
     1
102
RTVSPropertyOp9
 70
     1
102
RTVSPropertyOp10
 70
     1
102
RTVSPropertyOp11
 70
     1
102
RTVSPropertyOp12
 70
     1
102
RTVSPropertyOp13
 70
     1
102
RTVSPropertyOp14
 70
     1
102
RTVSPropertyOp15
 70
     1
102
RTVSPropertyOp16
 70
     1
102
RTVSPropertyOp17
 70
     1
102
RTVSPropertyOp18
 70
     1
102
RTVSPropertyOp19
 70
     1
102
RTVSPropertyOp20
 70
     1
102
RTVSPropertyOp21
 70
     1
102
RTVSPropertyOp22
 70
     1
102
RTVSPropertyOp23
 70
     1
102
RTVSPropertyOp24
 70
     1
102
RTVSPropertyOp25
 70
     1
102
RTVSPropertyOp26
 70
     1
102
RTVSPropertyOp27
 70
     1
102
RTVSPropertyOp28
 70
     1
102
RTVSPropertyOp29
 70
     1
102
RTVSPropertyOp30
 70
     1
102
RTVSPropertyOp31
 70
     1
102
RTVSPropertyOp32
 70
     1
102
RTVSPropertyOp33
 70
     1
102
RTVSPropertyOp34
 70
     1
102
RTVSPropertyOp35
 70
     1
102
RTVSPropertyOp36
 70
     1
102
RTVSPropertyOp37
 70
     1
102
RTVSPropertyOp38
 70
     1
102
RTVSPropertyOp39
 70
     1
102
RTVSPropertyOp40
 70
     1
102
RTVSPropertyOp41
 70
     1
102
RTVSPropertyOp42
 70
     1
102
RTVSPropertyOp43
 70
     1
102
RTVSPropertyOp44
 70
     1
102
RTVSPropertyOp45
 70
     1
102
RTVSPropertyOp46
 70
     1
102
RTVSPropertyOp47
 70
     1
102
RTVSPropertyOp48
 70
     1
102
RTVSPropertyOp49
 70
     1
102
RTVSPropertyOp50
 70
     1
102
RTVSPropertyOp51
 70
     0
102
RTVSPropertyOp52
 70
     0
102
RTVSPropertyOp53
 70
     1
102
RTVSPropertyOp54
 70
     1
102
RTVSPropertyOp55
 70
     1
102
RTVSPropertyOp56
 70
     1
102
RTVSPropertyOp57
 70
     1
102
RTVSPost2010Prop28
280
     0
102
RTVSPost2010PropOp28
 70
     1
102
RTVSPost2010Prop29
280
     1
102
RTVSPost2010PropOp29
 70
     1
102
RTVSPost2010Prop30
280
     1
102
RTVSPost2010PropOp30
 70
     1
102
RTVSPost2010Prop31
280
     0
102
RTVSPost2010PropOp31
 70
     1
102
RTVSPost2010Prop32
280
     0
102
RTVSPost2010PropOp32
 70
     1
102
RTVSPost2010Prop33
280
     0
102
RTVSPost2010PropOp33
 70
     1
102
RTVSPost2010Prop34
280
     0
102
RTVSPost2010PropOp34
 70
     1
102
RTVSPost2010Prop35
280
     0
102
RTVSPost2010PropOp35
 70
     1
102
RTVSPost2010Prop36
280
     0
102
RTVSPost2010PropOp36
 70
     1
102
RTVSPost2010Prop37
 90
       50
102
RTVSPost2010PropOp37
 70
     1
102
RTVSPost2010Prop38
140
0.0
102
RTVSPost2010PropOp38
 70
     1
102
RTVSPost2010Prop39
140
1.0
102
RTVSPost2010PropOp39
 70
     1
102
RTVSPost2010Prop40
 90
        0
102
RTVSPost2010PropOp40
 70
     1
102
RTVSPost2010Prop41ColorIndex
 90
       18
102
RTVSPost2010Prop41ColorRGB
 90
        0
102
RTVSPost2010PropOp41
 70
     1
102
RTVSPost2010Prop42
 90
       50
102
RTVSPost2010PropOp42
 70
     1
102
RTVSPost2010Prop43
 90
        3
102
RTVSPost2010PropOp43
 70
     1
102
RTVSPost2010Prop44ColorIndex
 90
        5
102
RTVSPost2010Prop44ColorRGB
 90
      255
102
RTVSPost2010PropOp44
 70
     1
102
RTVSPost2010Prop45
280
     0
102
RTVSPost2010PropOp45
 70
     1
102
RTVSPost2010Prop46
 90
       50
102
RTVSPost2010PropOp46
 70
     1
102
RTVSPost2010Prop47
 90
       50
102
RTVSPost2010PropOp47
 70
     1
102
RTVSPost2010Prop48
 90
       50
102
RTVSPost2010PropOp48
 70
     1
102
RTVSPost2010Prop49
280
     0
102
RTVSPost2010PropOp49
 70
     1
102
RTVSPost2010Prop50
 90
       50
102
RTVSPost2010PropOp50
 70
     1
102
RTVSPost2010Prop51ColorIndex
 90
      256
102
RTVSPost2010Prop51ColorRGB
 90
-16777216
102
RTVSPost2010PropOp51
 70
     0
102
RTVSPost2010Prop52
140
1.0
102
RTVSPost2010PropOp52
 70
     0
102
RTVSPost2010Prop53
 90
        2
102
RTVSPost2010PropOp53
 70
     1
102
RTVSPost2010Prop54
  1
strokes_ogs.tif
102
RTVSPost2010PropOp54
 70
     1
102
RTVSPost2010Prop55
280
     0
102
RTVSPost2010PropOp55
 70
     1
102
RTVSPost2010Prop56
140
1.0
102
RTVSPost2010PropOp56
 70
     1
102
RTVSPost2010Prop57
140
1.0
102
RTVSPost2010PropOp57
 70
     1
  0
XRECORD
  5
145
102
{ACAD_REACTORS
330
144
102
}
330
144
100
AcDbXrecord
280
     1
102
RTVSPropertyOp0
 70
     1
102
RTVSPropertyOp1
 70
     1
102
RTVSPropertyOp2
 70
     1
102
RTVSPropertyOp3
 70
     1
102
RTVSPropertyOp4
 70
     1
102
RTVSPropertyOp5
 70
     1
102
RTVSPropertyOp6
 70
     1
102
RTVSPropertyOp7
 70
     1
102
RTVSPropertyOp8
 70
     1
102
RTVSPropertyOp9
 70
     1
102
RTVSPropertyOp10
 70
     1
102
RTVSPropertyOp11
 70
     1
102
RTVSPropertyOp12
 70
     1
102
RTVSPropertyOp13
 70
     1
102
RTVSPropertyOp14
 70
     1
102
RTVSPropertyOp15
 70
     1
102
RTVSPropertyOp16
 70
     1
102
RTVSPropertyOp17
 70
     1
102
RTVSPropertyOp18
 70
     1
102
RTVSPropertyOp19
 70
     1
102
RTVSPropertyOp20
 70
     1
102
RTVSPropertyOp21
 70
     1
102
RTVSPropertyOp22
 70
     1
102
RTVSPropertyOp23
 70
     1
102
RTVSPropertyOp24
 70
     1
102
RTVSPropertyOp25
 70
     1
102
RTVSPropertyOp26
 70
     1
102
RTVSPropertyOp27
 70
     1
102
RTVSPropertyOp28
 70
     1
102
RTVSPropertyOp29
 70
     1
102
RTVSPropertyOp30
 70
     1
102
RTVSPropertyOp31
 70
     1
102
RTVSPropertyOp32
 70
     1
102
RTVSPropertyOp33
 70
     1
102
RTVSPropertyOp34
 70
     1
102
RTVSPropertyOp35
 70
     1
102
RTVSPropertyOp36
 70
     1
102
RTVSPropertyOp37
 70
     1
102
RTVSPropertyOp38
 70
     1
102
RTVSPropertyOp39
 70
     1
102
RTVSPropertyOp40
 70
     1
102
RTVSPropertyOp41
 70
     1
102
RTVSPropertyOp42
 70
     1
102
RTVSPropertyOp43
 70
     1
102
RTVSPropertyOp44
 70
     1
102
RTVSPropertyOp45
 70
     1
102
RTVSPropertyOp46
 70
     1
102
RTVSPropertyOp47
 70
     1
102
RTVSPropertyOp48
 70
     1
102
RTVSPropertyOp49
 70
     1
102
RTVSPropertyOp50
 70
     1
102
RTVSPropertyOp51
 70
     0
102
RTVSPropertyOp52
 70
     0
102
RTVSPropertyOp53
 70
     1
102
RTVSPropertyOp54
 70
     1
102
RTVSPropertyOp55
 70
     1
102
RTVSPropertyOp56
 70
     1
102
RTVSPropertyOp57
 70
     1
102
RTVSPost2010Prop28
280
     0
102
RTVSPost2010PropOp28
 70
     1
102
RTVSPost2010Prop29
280
     1
102
RTVSPost2010PropOp29
 70
     1
102
RTVSPost2010Prop30
280
     1
102
RTVSPost2010PropOp30
 70
     1
102
RTVSPost2010Prop31
280
     0
102
RTVSPost2010PropOp31
 70
     1
102
RTVSPost2010Prop32
280
     0
102
RTVSPost2010PropOp32
 70
     1
102
RTVSPost2010Prop33
280
     0
102
RTVSPost2010PropOp33
 70
     1
102
RTVSPost2010Prop34
280
     0
102
RTVSPost2010PropOp34
 70
     1
102
RTVSPost2010Prop35
280
     0
102
RTVSPost2010PropOp35
 70
     1
102
RTVSPost2010Prop36
280
     0
102
RTVSPost2010PropOp36
 70
     1
102
RTVSPost2010Prop37
 90
       50
102
RTVSPost2010PropOp37
 70
     1
102
RTVSPost2010Prop38
140
0.0
102
RTVSPost2010PropOp38
 70
     1
102
RTVSPost2010Prop39
140
1.0
102
RTVSPost2010PropOp39
 70
     1
102
RTVSPost2010Prop40
 90
        0
102
RTVSPost2010PropOp40
 70
     1
102
RTVSPost2010Prop41ColorIndex
 90
       18
102
RTVSPost2010Prop41ColorRGB
 90
        0
102
RTVSPost2010PropOp41
 70
     1
102
RTVSPost2010Prop42
 90
       50
102
RTVSPost2010PropOp42
 70
     1
102
RTVSPost2010Prop43
 90
        3
102
RTVSPost2010PropOp43
 70
     1
102
RTVSPost2010Prop44ColorIndex
 90
        5
102
RTVSPost2010Prop44ColorRGB
 90
      255
102
RTVSPost2010PropOp44
 70
     1
102
RTVSPost2010Prop45
280
     0
102
RTVSPost2010PropOp45
 70
     1
102
RTVSPost2010Prop46
 90
       50
102
RTVSPost2010PropOp46
 70
     1
102
RTVSPost2010Prop47
 90
       50
102
RTVSPost2010PropOp47
 70
     1
102
RTVSPost2010Prop48
 90
       50
102
RTVSPost2010PropOp48
 70
     1
102
RTVSPost2010Prop49
280
     0
102
RTVSPost2010PropOp49
 70
     1
102
RTVSPost2010Prop50
 90
       50
102
RTVSPost2010PropOp50
 70
     1
102
RTVSPost2010Prop51ColorIndex
 90
      256
102
RTVSPost2010Prop51ColorRGB
 90
-16777216
102
RTVSPost2010PropOp51
 70
     0
102
RTVSPost2010Prop52
140
1.0
102
RTVSPost2010PropOp52
 70
     0
102
RTVSPost2010Prop53
 90
        2
102
RTVSPost2010PropOp53
 70
     1
102
RTVSPost2010Prop54
  1
strokes_ogs.tif
102
RTVSPost2010PropOp54
 70
     1
102
RTVSPost2010Prop55
280
     0
102
RTVSPost2010PropOp55
 70
     1
102
RTVSPost2010Prop56
140
1.0
102
RTVSPost2010PropOp56
 70
     1
102
RTVSPost2010Prop57
140
1.0
102
RTVSPost2010PropOp57
 70
     1
  0
XRECORD
  5
159
102
{ACAD_REACTORS
330
158
102
}
330
158
100
AcDbXrecord
280
     1
102
RTVSPropertyOp0
 70
     0
102
RTVSPropertyOp1
 70
     0
102
RTVSPropertyOp2
 70
     0
102
RTVSPropertyOp3
 70
     0
102
RTVSPropertyOp4
 70
     0
102
RTVSPropertyOp5
 70
     0
102
RTVSPropertyOp6
 70
     0
102
RTVSPropertyOp7
 70
     0
102
RTVSPropertyOp8
 70
     0
102
RTVSPropertyOp9
 70
     0
102
RTVSPropertyOp10
 70
     0
102
RTVSPropertyOp11
 70
     0
102
RTVSPropertyOp12
 70
     0
102
RTVSPropertyOp13
 70
     0
102
RTVSPropertyOp14
 70
     2
102
RTVSPropertyOp15
 70
     0
102
RTVSPropertyOp16
 70
     0
102
RTVSPropertyOp17
 70
     0
102
RTVSPropertyOp18
 70
     0
102
RTVSPropertyOp19
 70
     0
102
RTVSPropertyOp20
 70
     0
102
RTVSPropertyOp21
 70
     0
102
RTVSPropertyOp22
 70
     0
102
RTVSPropertyOp23
 70
     0
102
RTVSPropertyOp24
 70
     0
102
RTVSPropertyOp25
 70
     0
102
RTVSPropertyOp26
 70
     0
102
RTVSPropertyOp27
 70
     0
102
RTVSPropertyOp28
 70
     0
102
RTVSPropertyOp29
 70
     0
102
RTVSPropertyOp30
 70
     0
102
RTVSPropertyOp31
 70
     0
102
RTVSPropertyOp32
 70
     0
102
RTVSPropertyOp33
 70
     0
102
RTVSPropertyOp34
 70
     0
102
RTVSPropertyOp35
 70
     0
102
RTVSPropertyOp36
 70
     0
102
RTVSPropertyOp37
 70
     0
102
RTVSPropertyOp38
 70
     0
102
RTVSPropertyOp39
 70
     0
102
RTVSPropertyOp40
 70
     0
102
RTVSPropertyOp41
 70
     0
102
RTVSPropertyOp42
 70
     0
102
RTVSPropertyOp43
 70
     0
102
RTVSPropertyOp44
 70
     0
102
RTVSPropertyOp45
 70
     0
102
RTVSPropertyOp46
 70
     0
102
RTVSPropertyOp47
 70
     0
102
RTVSPropertyOp48
 70
     0
102
RTVSPropertyOp49
 70
     0
102
RTVSPropertyOp50
 70
     0
102
RTVSPropertyOp51
 70
     0
102
RTVSPropertyOp52
 70
     0
102
RTVSPropertyOp53
 70
     0
102
RTVSPropertyOp54
 70
     0
102
RTVSPropertyOp55
 70
     0
102
RTVSPropertyOp56
 70
     0
102
RTVSPropertyOp57
 70
     0
102
RTVSPost2010Prop28
280
     0
102
RTVSPost2010PropOp28
 70
     0
102
RTVSPost2010Prop29
280
     1
102
RTVSPost2010PropOp29
 70
     0
102
RTVSPost2010Prop30
280
     1
102
RTVSPost2010PropOp30
 70
     0
102
RTVSPost2010Prop31
280
     0
102
RTVSPost2010PropOp31
 70
     0
102
RTVSPost2010Prop32
280
     0
102
RTVSPost2010PropOp32
 70
     0
102
RTVSPost2010Prop33
280
     0
102
RTVSPost2010PropOp33
 70
     0
102
RTVSPost2010Prop34
280
     0
102
RTVSPost2010PropOp34
 70
     0
102
RTVSPost2010Prop35
280
     0
102
RTVSPost2010PropOp35
 70
     0
102
RTVSPost2010Prop36
280
     0
102
RTVSPost2010PropOp36
 70
     0
102
RTVSPost2010Prop37
 90
       50
102
RTVSPost2010PropOp37
 70
     0
102
RTVSPost2010Prop38
140
0.0
102
RTVSPost2010PropOp38
 70
     0
102
RTVSPost2010Prop39
140
1.0
102
RTVSPost2010PropOp39
 70
     0
102
RTVSPost2010Prop40
 90
        0
102
RTVSPost2010PropOp40
 70
     0
102
RTVSPost2010Prop41ColorIndex
 90
       18
102
RTVSPost2010Prop41ColorRGB
 90
        0
102
RTVSPost2010PropOp41
 70
     0
102
RTVSPost2010Prop42
 90
       50
102
RTVSPost2010PropOp42
 70
     0
102
RTVSPost2010Prop43
 90
        3
102
RTVSPost2010PropOp43
 70
     0
102
RTVSPost2010Prop44ColorIndex
 90
        5
102
RTVSPost2010Prop44ColorRGB
 90
      255
102
RTVSPost2010PropOp44
 70
     0
102
RTVSPost2010Prop45
280
     0
102
RTVSPost2010PropOp45
 70
     0
102
RTVSPost2010Prop46
 90
       50
102
RTVSPost2010PropOp46
 70
     0
102
RTVSPost2010Prop47
 90
       50
102
RTVSPost2010PropOp47
 70
     0
102
RTVSPost2010Prop48
 90
       50
102
RTVSPost2010PropOp48
 70
     0
102
RTVSPost2010Prop49
280
     0
102
RTVSPost2010PropOp49
 70
     0
102
RTVSPost2010Prop50
 90
       50
102
RTVSPost2010PropOp50
 70
     0
102
RTVSPost2010Prop51ColorIndex
 90
      256
102
RTVSPost2010Prop51ColorRGB
 90
-16777216
102
RTVSPost2010PropOp51
 70
     0
102
RTVSPost2010Prop52
140
1.0
102
RTVSPost2010PropOp52
 70
     0
102
RTVSPost2010Prop53
 90
        2
102
RTVSPost2010PropOp53
 70
     0
102
RTVSPost2010Prop54
  1
strokes_ogs.tif
102
RTVSPost2010PropOp54
 70
     0
102
RTVSPost2010Prop55
280
     0
102
RTVSPost2010PropOp55
 70
     0
102
RTVSPost2010Prop56
140
1.0
102
RTVSPost2010PropOp56
 70
     0
102
RTVSPost2010Prop57
140
1.0
102
RTVSPost2010PropOp57
 70
     0
  0
XRECORD
  5
153
102
{ACAD_REACTORS
330
152
102
}
330
152
100
AcDbXrecord
280
     1
102
RTVSPropertyOp0
 70
     1
102
RTVSPropertyOp1
 70
     1
102
RTVSPropertyOp2
 70
     1
102
RTVSPropertyOp3
 70
     1
102
RTVSPropertyOp4
 70
     1
102
RTVSPropertyOp5
 70
     1
102
RTVSPropertyOp6
 70
     1
102
RTVSPropertyOp7
 70
     1
102
RTVSPropertyOp8
 70
     1
102
RTVSPropertyOp9
 70
     1
102
RTVSPropertyOp10
 70
     1
102
RTVSPropertyOp11
 70
     1
102
RTVSPropertyOp12
 70
     1
102
RTVSPropertyOp13
 70
     1
102
RTVSPropertyOp14
 70
     1
102
RTVSPropertyOp15
 70
     1
102
RTVSPropertyOp16
 70
     1
102
RTVSPropertyOp17
 70
     1
102
RTVSPropertyOp18
 70
     1
102
RTVSPropertyOp19
 70
     1
102
RTVSPropertyOp20
 70
     1
102
RTVSPropertyOp21
 70
     1
102
RTVSPropertyOp22
 70
     1
102
RTVSPropertyOp23
 70
     1
102
RTVSPropertyOp24
 70
     1
102
RTVSPropertyOp25
 70
     1
102
RTVSPropertyOp26
 70
     1
102
RTVSPropertyOp27
 70
     1
102
RTVSPropertyOp28
 70
     1
102
RTVSPropertyOp29
 70
     1
102
RTVSPropertyOp30
 70
     1
102
RTVSPropertyOp31
 70
     1
102
RTVSPropertyOp32
 70
     1
102
RTVSPropertyOp33
 70
     1
102
RTVSPropertyOp34
 70
     1
102
RTVSPropertyOp35
 70
     1
102
RTVSPropertyOp36
 70
     1
102
RTVSPropertyOp37
 70
     1
102
RTVSPropertyOp38
 70
     1
102
RTVSPropertyOp39
 70
     1
102
RTVSPropertyOp40
 70
     1
102
RTVSPropertyOp41
 70
     1
102
RTVSPropertyOp42
 70
     1
102
RTVSPropertyOp43
 70
     1
102
RTVSPropertyOp44
 70
     1
102
RTVSPropertyOp45
 70
     1
102
RTVSPropertyOp46
 70
     1
102
RTVSPropertyOp47
 70
     1
102
RTVSPropertyOp48
 70
     1
102
RTVSPropertyOp49
 70
     1
102
RTVSPropertyOp50
 70
     1
102
RTVSPropertyOp51
 70
     0
102
RTVSPropertyOp52
 70
     0
102
RTVSPropertyOp53
 70
     1
102
RTVSPropertyOp54
 70
     1
102
RTVSPropertyOp55
 70
     1
102
RTVSPropertyOp56
 70
     1
102
RTVSPropertyOp57
 70
     1
102
RTVSPost2010Prop28
280
     0
102
RTVSPost2010PropOp28
 70
     1
102
RTVSPost2010Prop29
280
     1
102
RTVSPost2010PropOp29
 70
     1
102
RTVSPost2010Prop30
280
     1
102
RTVSPost2010PropOp30
 70
     1
102
RTVSPost2010Prop31
280
     0
102
RTVSPost2010PropOp31
 70
     1
102
RTVSPost2010Prop32
280
     0
102
RTVSPost2010PropOp32
 70
     1
102
RTVSPost2010Prop33
280
     0
102
RTVSPost2010PropOp33
 70
     1
102
RTVSPost2010Prop34
280
     0
102
RTVSPost2010PropOp34
 70
     1
102
RTVSPost2010Prop35
280
     0
102
RTVSPost2010PropOp35
 70
     1
102
RTVSPost2010Prop36
280
     0
102
RTVSPost2010PropOp36
 70
     1
102
RTVSPost2010Prop37
 90
       50
102
RTVSPost2010PropOp37
 70
     1
102
RTVSPost2010Prop38
140
0.0
102
RTVSPost2010PropOp38
 70
     1
102
RTVSPost2010Prop39
140
1.0
102
RTVSPost2010PropOp39
 70
     1
102
RTVSPost2010Prop40
 90
        0
102
RTVSPost2010PropOp40
 70
     1
102
RTVSPost2010Prop41ColorIndex
 90
       18
102
RTVSPost2010Prop41ColorRGB
 90
        0
102
RTVSPost2010PropOp41
 70
     1
102
RTVSPost2010Prop42
 90
       50
102
RTVSPost2010PropOp42
 70
     1
102
RTVSPost2010Prop43
 90
        3
102
RTVSPost2010PropOp43
 70
     1
102
RTVSPost2010Prop44ColorIndex
 90
        5
102
RTVSPost2010Prop44ColorRGB
 90
      255
102
RTVSPost2010PropOp44
 70
     1
102
RTVSPost2010Prop45
280
     0
102
RTVSPost2010PropOp45
 70
     1
102
RTVSPost2010Prop46
 90
       50
102
RTVSPost2010PropOp46
 70
     1
102
RTVSPost2010Prop47
 90
       50
102
RTVSPost2010PropOp47
 70
     1
102
RTVSPost2010Prop48
 90
       50
102
RTVSPost2010PropOp48
 70
     1
102
RTVSPost2010Prop49
280
     0
102
RTVSPost2010PropOp49
 70
     1
102
RTVSPost2010Prop50
 90
       50
102
RTVSPost2010PropOp50
 70
     1
102
RTVSPost2010Prop51ColorIndex
 90
      256
102
RTVSPost2010Prop51ColorRGB
 90
-16777216
102
RTVSPost2010PropOp51
 70
     0
102
RTVSPost2010Prop52
140
1.0
102
RTVSPost2010PropOp52
 70
     0
102
RTVSPost2010Prop53
 90
        2
102
RTVSPost2010PropOp53
 70
     1
102
RTVSPost2010Prop54
  1
strokes_ogs.tif
102
RTVSPost2010PropOp54
 70
     1
102
RTVSPost2010Prop55
280
     0
102
RTVSPost2010PropOp55
 70
     1
102
RTVSPost2010Prop56
140
1.0
102
RTVSPost2010PropOp56
 70
     1
102
RTVSPost2010Prop57
140
1.0
102
RTVSPost2010PropOp57
 70
     1
  0
XRECORD
  5
15B
102
{ACAD_REACTORS
330
15A
102
}
330
15A
100
AcDbXrecord
280
     1
102
RTVSPropertyOp0
 70
     0
102
RTVSPropertyOp1
 70
     0
102
RTVSPropertyOp2
 70
     0
102
RTVSPropertyOp3
 70
     0
102
RTVSPropertyOp4
 70
     0
102
RTVSPropertyOp5
 70
     0
102
RTVSPropertyOp6
 70
     0
102
RTVSPropertyOp7
 70
     0
102
RTVSPropertyOp8
 70
     0
102
RTVSPropertyOp9
 70
     0
102
RTVSPropertyOp10
 70
     0
102
RTVSPropertyOp11
 70
     0
102
RTVSPropertyOp12
 70
     0
102
RTVSPropertyOp13
 70
     0
102
RTVSPropertyOp14
 70
     2
102
RTVSPropertyOp15
 70
     0
102
RTVSPropertyOp16
 70
     0
102
RTVSPropertyOp17
 70
     0
102
RTVSPropertyOp18
 70
     0
102
RTVSPropertyOp19
 70
     0
102
RTVSPropertyOp20
 70
     0
102
RTVSPropertyOp21
 70
     0
102
RTVSPropertyOp22
 70
     0
102
RTVSPropertyOp23
 70
     0
102
RTVSPropertyOp24
 70
     0
102
RTVSPropertyOp25
 70
     0
102
RTVSPropertyOp26
 70
     0
102
RTVSPropertyOp27
 70
     0
102
RTVSPropertyOp28
 70
     0
102
RTVSPropertyOp29
 70
     0
102
RTVSPropertyOp30
 70
     0
102
RTVSPropertyOp31
 70
     0
102
RTVSPropertyOp32
 70
     0
102
RTVSPropertyOp33
 70
     0
102
RTVSPropertyOp34
 70
     0
102
RTVSPropertyOp35
 70
     0
102
RTVSPropertyOp36
 70
     0
102
RTVSPropertyOp37
 70
     0
102
RTVSPropertyOp38
 70
     0
102
RTVSPropertyOp39
 70
     0
102
RTVSPropertyOp40
 70
     0
102
RTVSPropertyOp41
 70
     0
102
RTVSPropertyOp42
 70
     0
102
RTVSPropertyOp43
 70
     0
102
RTVSPropertyOp44
 70
     0
102
RTVSPropertyOp45
 70
     0
102
RTVSPropertyOp46
 70
     0
102
RTVSPropertyOp47
 70
     0
102
RTVSPropertyOp48
 70
     0
102
RTVSPropertyOp49
 70
     0
102
RTVSPropertyOp50
 70
     0
102
RTVSPropertyOp51
 70
     0
102
RTVSPropertyOp52
 70
     0
102
RTVSPropertyOp53
 70
     0
102
RTVSPropertyOp54
 70
     0
102
RTVSPropertyOp55
 70
     0
102
RTVSPropertyOp56
 70
     0
102
RTVSPropertyOp57
 70
     0
102
RTVSPost2010Prop28
280
     0
102
RTVSPost2010PropOp28
 70
     0
102
RTVSPost2010Prop29
280
     1
102
RTVSPost2010PropOp29
 70
     0
102
RTVSPost2010Prop30
280
     1
102
RTVSPost2010PropOp30
 70
     0
102
RTVSPost2010Prop31
280
     0
102
RTVSPost2010PropOp31
 70
     0
102
RTVSPost2010Prop32
280
     0
102
RTVSPost2010PropOp32
 70
     0
102
RTVSPost2010Prop33
280
     0
102
RTVSPost2010PropOp33
 70
     0
102
RTVSPost2010Prop34
280
     0
102
RTVSPost2010PropOp34
 70
     0
102
RTVSPost2010Prop35
280
     0
102
RTVSPost2010PropOp35
 70
     0
102
RTVSPost2010Prop36
280
     0
102
RTVSPost2010PropOp36
 70
     0
102
RTVSPost2010Prop37
 90
       50
102
RTVSPost2010PropOp37
 70
     0
102
RTVSPost2010Prop38
140
0.0
102
RTVSPost2010PropOp38
 70
     0
102
RTVSPost2010Prop39
140
1.0
102
RTVSPost2010PropOp39
 70
     0
102
RTVSPost2010Prop40
 90
        0
102
RTVSPost2010PropOp40
 70
     0
102
RTVSPost2010Prop41ColorIndex
 90
       18
102
RTVSPost2010Prop41ColorRGB
 90
        0
102
RTVSPost2010PropOp41
 70
     0
102
RTVSPost2010Prop42
 90
       50
102
RTVSPost2010PropOp42
 70
     0
102
RTVSPost2010Prop43
 90
        3
102
RTVSPost2010PropOp43
 70
     0
102
RTVSPost2010Prop44ColorIndex
 90
        5
102
RTVSPost2010Prop44ColorRGB
 90
      255
102
RTVSPost2010PropOp44
 70
     0
102
RTVSPost2010Prop45
280
     0
102
RTVSPost2010PropOp45
 70
     0
102
RTVSPost2010Prop46
 90
       50
102
RTVSPost2010PropOp46
 70
     0
102
RTVSPost2010Prop47
 90
       50
102
RTVSPost2010PropOp47
 70
     0
102
RTVSPost2010Prop48
 90
       50
102
RTVSPost2010PropOp48
 70
     0
102
RTVSPost2010Prop49
280
     0
102
RTVSPost2010PropOp49
 70
     0
102
RTVSPost2010Prop50
 90
       50
102
RTVSPost2010PropOp50
 70
     0
102
RTVSPost2010Prop51ColorIndex
 90
      256
102
RTVSPost2010Prop51ColorRGB
 90
-16777216
102
RTVSPost2010PropOp51
 70
     0
102
RTVSPost2010Prop52
140
1.0
102
RTVSPost2010PropOp52
 70
     0
102
RTVSPost2010Prop53
 90
        2
102
RTVSPost2010PropOp53
 70
     0
102
RTVSPost2010Prop54
  1
strokes_ogs.tif
102
RTVSPost2010PropOp54
 70
     0
102
RTVSPost2010Prop55
280
     0
102
RTVSPost2010PropOp55
 70
     0
102
RTVSPost2010Prop56
140
1.0
102
RTVSPost2010PropOp56
 70
     0
102
RTVSPost2010Prop57
140
1.0
102
RTVSPost2010PropOp57
 70
     0
  0
XRECORD
  5
149
102
{ACAD_REACTORS
330
148
102
}
330
148
100
AcDbXrecord
280
     1
102
RTVSPropertyOp0
 70
     1
102
RTVSPropertyOp1
 70
     1
102
RTVSPropertyOp2
 70
     1
102
RTVSPropertyOp3
 70
     1
102
RTVSPropertyOp4
 70
     1
102
RTVSPropertyOp5
 70
     1
102
RTVSPropertyOp6
 70
     1
102
RTVSPropertyOp7
 70
     1
102
RTVSPropertyOp8
 70
     1
102
RTVSPropertyOp9
 70
     1
102
RTVSPropertyOp10
 70
     1
102
RTVSPropertyOp11
 70
     1
102
RTVSPropertyOp12
 70
     1
102
RTVSPropertyOp13
 70
     1
102
RTVSPropertyOp14
 70
     1
102
RTVSPropertyOp15
 70
     1
102
RTVSPropertyOp16
 70
     1
102
RTVSPropertyOp17
 70
     1
102
RTVSPropertyOp18
 70
     1
102
RTVSPropertyOp19
 70
     1
102
RTVSPropertyOp20
 70
     1
102
RTVSPropertyOp21
 70
     1
102
RTVSPropertyOp22
 70
     1
102
RTVSPropertyOp23
 70
     1
102
RTVSPropertyOp24
 70
     1
102
RTVSPropertyOp25
 70
     1
102
RTVSPropertyOp26
 70
     1
102
RTVSPropertyOp27
 70
     1
102
RTVSPropertyOp28
 70
     1
102
RTVSPropertyOp29
 70
     1
102
RTVSPropertyOp30
 70
     1
102
RTVSPropertyOp31
 70
     1
102
RTVSPropertyOp32
 70
     1
102
RTVSPropertyOp33
 70
     1
102
RTVSPropertyOp34
 70
     1
102
RTVSPropertyOp35
 70
     1
102
RTVSPropertyOp36
 70
     1
102
RTVSPropertyOp37
 70
     1
102
RTVSPropertyOp38
 70
     1
102
RTVSPropertyOp39
 70
     1
102
RTVSPropertyOp40
 70
     1
102
RTVSPropertyOp41
 70
     1
102
RTVSPropertyOp42
 70
     1
102
RTVSPropertyOp43
 70
     1
102
RTVSPropertyOp44
 70
     1
102
RTVSPropertyOp45
 70
     1
102
RTVSPropertyOp46
 70
     1
102
RTVSPropertyOp47
 70
     1
102
RTVSPropertyOp48
 70
     1
102
RTVSPropertyOp49
 70
     1
102
RTVSPropertyOp50
 70
     1
102
RTVSPropertyOp51
 70
     0
102
RTVSPropertyOp52
 70
     0
102
RTVSPropertyOp53
 70
     1
102
RTVSPropertyOp54
 70
     1
102
RTVSPropertyOp55
 70
     1
102
RTVSPropertyOp56
 70
     1
102
RTVSPropertyOp57
 70
     1
102
RTVSPost2010Prop28
280
     0
102
RTVSPost2010PropOp28
 70
     1
102
RTVSPost2010Prop29
280
     1
102
RTVSPost2010PropOp29
 70
     1
102
RTVSPost2010Prop30
280
     1
102
RTVSPost2010PropOp30
 70
     1
102
RTVSPost2010Prop31
280
     0
102
RTVSPost2010PropOp31
 70
     1
102
RTVSPost2010Prop32
280
     0
102
RTVSPost2010PropOp32
 70
     1
102
RTVSPost2010Prop33
280
     0
102
RTVSPost2010PropOp33
 70
     1
102
RTVSPost2010Prop34
280
     0
102
RTVSPost2010PropOp34
 70
     1
102
RTVSPost2010Prop35
280
     0
102
RTVSPost2010PropOp35
 70
     1
102
RTVSPost2010Prop36
280
     0
102
RTVSPost2010PropOp36
 70
     1
102
RTVSPost2010Prop37
 90
       50
102
RTVSPost2010PropOp37
 70
     1
102
RTVSPost2010Prop38
140
0.0
102
RTVSPost2010PropOp38
 70
     1
102
RTVSPost2010Prop39
140
1.0
102
RTVSPost2010PropOp39
 70
     1
102
RTVSPost2010Prop40
 90
        0
102
RTVSPost2010PropOp40
 70
     1
102
RTVSPost2010Prop41ColorIndex
 90
       18
102
RTVSPost2010Prop41ColorRGB
 90
        0
102
RTVSPost2010PropOp41
 70
     1
102
RTVSPost2010Prop42
 90
       50
102
RTVSPost2010PropOp42
 70
     1
102
RTVSPost2010Prop43
 90
        3
102
RTVSPost2010PropOp43
 70
     1
102
RTVSPost2010Prop44ColorIndex
 90
        5
102
RTVSPost2010Prop44ColorRGB
 90
      255
102
RTVSPost2010PropOp44
 70
     1
102
RTVSPost2010Prop45
280
     0
102
RTVSPost2010PropOp45
 70
     1
102
RTVSPost2010Prop46
 90
       50
102
RTVSPost2010PropOp46
 70
     1
102
RTVSPost2010Prop47
 90
       50
102
RTVSPost2010PropOp47
 70
     1
102
RTVSPost2010Prop48
 90
       50
102
RTVSPost2010PropOp48
 70
     1
102
RTVSPost2010Prop49
280
     0
102
RTVSPost2010PropOp49
 70
     1
102
RTVSPost2010Prop50
 90
       50
102
RTVSPost2010PropOp50
 70
     1
102
RTVSPost2010Prop51ColorIndex
 90
      256
102
RTVSPost2010Prop51ColorRGB
 90
-16777216
102
RTVSPost2010PropOp51
 70
     0
102
RTVSPost2010Prop52
140
1.0
102
RTVSPost2010PropOp52
 70
     0
102
RTVSPost2010Prop53
 90
        2
102
RTVSPost2010PropOp53
 70
     1
102
RTVSPost2010Prop54
  1
strokes_ogs.tif
102
RTVSPost2010PropOp54
 70
     1
102
RTVSPost2010Prop55
280
     0
102
RTVSPost2010PropOp55
 70
     1
102
RTVSPost2010Prop56
140
1.0
102
RTVSPost2010PropOp56
 70
     1
102
RTVSPost2010Prop57
140
1.0
102
RTVSPost2010PropOp57
 70
     1
  0
XRECORD
  5
167
102
{ACAD_REACTORS
330
166
102
}
330
166
100
AcDbXrecord
280
     1
102
RTVSPropertyOp0
 70
     1
102
RTVSPropertyOp1
 70
     1
102
RTVSPropertyOp2
 70
     1
102
RTVSPropertyOp3
 70
     1
102
RTVSPropertyOp4
 70
     1
102
RTVSPropertyOp5
 70
     1
102
RTVSPropertyOp6
 70
     1
102
RTVSPropertyOp7
 70
     1
102
RTVSPropertyOp8
 70
     1
102
RTVSPropertyOp9
 70
     1
102
RTVSPropertyOp10
 70
     1
102
RTVSPropertyOp11
 70
     1
102
RTVSPropertyOp12
 70
     1
102
RTVSPropertyOp13
 70
     1
102
RTVSPropertyOp14
 70
     1
102
RTVSPropertyOp15
 70
     1
102
RTVSPropertyOp16
 70
     1
102
RTVSPropertyOp17
 70
     1
102
RTVSPropertyOp18
 70
     1
102
RTVSPropertyOp19
 70
     1
102
RTVSPropertyOp20
 70
     1
102
RTVSPropertyOp21
 70
     1
102
RTVSPropertyOp22
 70
     1
102
RTVSPropertyOp23
 70
     1
102
RTVSPropertyOp24
 70
     1
102
RTVSPropertyOp25
 70
     1
102
RTVSPropertyOp26
 70
     1
102
RTVSPropertyOp27
 70
     1
102
RTVSPropertyOp28
 70
     1
102
RTVSPropertyOp29
 70
     1
102
RTVSPropertyOp30
 70
     1
102
RTVSPropertyOp31
 70
     1
102
RTVSPropertyOp32
 70
     1
102
RTVSPropertyOp33
 70
     1
102
RTVSPropertyOp34
 70
     1
102
RTVSPropertyOp35
 70
     1
102
RTVSPropertyOp36
 70
     1
102
RTVSPropertyOp37
 70
     1
102
RTVSPropertyOp38
 70
     1
102
RTVSPropertyOp39
 70
     1
102
RTVSPropertyOp40
 70
     1
102
RTVSPropertyOp41
 70
     1
102
RTVSPropertyOp42
 70
     1
102
RTVSPropertyOp43
 70
     1
102
RTVSPropertyOp44
 70
     1
102
RTVSPropertyOp45
 70
     1
102
RTVSPropertyOp46
 70
     1
102
RTVSPropertyOp47
 70
     1
102
RTVSPropertyOp48
 70
     1
102
RTVSPropertyOp49
 70
     1
102
RTVSPropertyOp50
 70
     1
102
RTVSPropertyOp51
 70
     0
102
RTVSPropertyOp52
 70
     0
102
RTVSPropertyOp53
 70
     1
102
RTVSPropertyOp54
 70
     1
102
RTVSPropertyOp55
 70
     1
102
RTVSPropertyOp56
 70
     1
102
RTVSPropertyOp57
 70
     1
102
RTVSPost2010Prop28
280
     0
102
RTVSPost2010PropOp28
 70
     1
102
RTVSPost2010Prop29
280
     1
102
RTVSPost2010PropOp29
 70
     1
102
RTVSPost2010Prop30
280
     1
102
RTVSPost2010PropOp30
 70
     1
102
RTVSPost2010Prop31
280
     0
102
RTVSPost2010PropOp31
 70
     1
102
RTVSPost2010Prop32
280
     0
102
RTVSPost2010PropOp32
 70
     1
102
RTVSPost2010Prop33
280
     0
102
RTVSPost2010PropOp33
 70
     1
102
RTVSPost2010Prop34
280
     0
102
RTVSPost2010PropOp34
 70
     1
102
RTVSPost2010Prop35
280
     0
102
RTVSPost2010PropOp35
 70
     1
102
RTVSPost2010Prop36
280
     0
102
RTVSPost2010PropOp36
 70
     1
102
RTVSPost2010Prop37
 90
       50
102
RTVSPost2010PropOp37
 70
     1
102
RTVSPost2010Prop38
140
0.0
102
RTVSPost2010PropOp38
 70
     1
102
RTVSPost2010Prop39
140
1.0
102
RTVSPost2010PropOp39
 70
     1
102
RTVSPost2010Prop40
 90
        0
102
RTVSPost2010PropOp40
 70
     1
102
RTVSPost2010Prop41ColorIndex
 90
       18
102
RTVSPost2010Prop41ColorRGB
 90
        0
102
RTVSPost2010PropOp41
 70
     1
102
RTVSPost2010Prop42
 90
       50
102
RTVSPost2010PropOp42
 70
     1
102
RTVSPost2010Prop43
 90
        3
102
RTVSPost2010PropOp43
 70
     1
102
RTVSPost2010Prop44ColorIndex
 90
        5
102
RTVSPost2010Prop44ColorRGB
 90
      255
102
RTVSPost2010PropOp44
 70
     1
102
RTVSPost2010Prop45
280
     0
102
RTVSPost2010PropOp45
 70
     1
102
RTVSPost2010Prop46
 90
       50
102
RTVSPost2010PropOp46
 70
     1
102
RTVSPost2010Prop47
 90
       50
102
RTVSPost2010PropOp47
 70
     1
102
RTVSPost2010Prop48
 90
       50
102
RTVSPost2010PropOp48
 70
     1
102
RTVSPost2010Prop49
280
     0
102
RTVSPost2010PropOp49
 70
     1
102
RTVSPost2010Prop50
 90
       50
102
RTVSPost2010PropOp50
 70
     1
102
RTVSPost2010Prop51ColorIndex
 90
      256
102
RTVSPost2010Prop51ColorRGB
 90
-16777216
102
RTVSPost2010PropOp51
 70
     0
102
RTVSPost2010Prop52
140
1.0
102
RTVSPost2010PropOp52
 70
     0
102
RTVSPost2010Prop53
 90
        2
102
RTVSPost2010PropOp53
 70
     1
102
RTVSPost2010Prop54
  1
strokes_ogs.tif
102
RTVSPost2010PropOp54
 70
     1
102
RTVSPost2010Prop55
280
     0
102
RTVSPost2010PropOp55
 70
     1
102
RTVSPost2010Prop56
140
1.0
102
RTVSPost2010PropOp56
 70
     1
102
RTVSPost2010Prop57
140
1.0
102
RTVSPost2010PropOp57
 70
     1
  0
XRECORD
  5
165
102
{ACAD_REACTORS
330
164
102
}
330
164
100
AcDbXrecord
280
     1
102
RTVSPropertyOp0
 70
     1
102
RTVSPropertyOp1
 70
     1
102
RTVSPropertyOp2
 70
     1
102
RTVSPropertyOp3
 70
     1
102
RTVSPropertyOp4
 70
     1
102
RTVSPropertyOp5
 70
     1
102
RTVSPropertyOp6
 70
     1
102
RTVSPropertyOp7
 70
     1
102
RTVSPropertyOp8
 70
     1
102
RTVSPropertyOp9
 70
     1
102
RTVSPropertyOp10
 70
     1
102
RTVSPropertyOp11
 70
     1
102
RTVSPropertyOp12
 70
     1
102
RTVSPropertyOp13
 70
     1
102
RTVSPropertyOp14
 70
     1
102
RTVSPropertyOp15
 70
     1
102
RTVSPropertyOp16
 70
     1
102
RTVSPropertyOp17
 70
     1
102
RTVSPropertyOp18
 70
     1
102
RTVSPropertyOp19
 70
     1
102
RTVSPropertyOp20
 70
     1
102
RTVSPropertyOp21
 70
     1
102
RTVSPropertyOp22
 70
     1
102
RTVSPropertyOp23
 70
     1
102
RTVSPropertyOp24
 70
     1
102
RTVSPropertyOp25
 70
     1
102
RTVSPropertyOp26
 70
     1
102
RTVSPropertyOp27
 70
     1
102
RTVSPropertyOp28
 70
     1
102
RTVSPropertyOp29
 70
     1
102
RTVSPropertyOp30
 70
     1
102
RTVSPropertyOp31
 70
     1
102
RTVSPropertyOp32
 70
     1
102
RTVSPropertyOp33
 70
     1
102
RTVSPropertyOp34
 70
     1
102
RTVSPropertyOp35
 70
     1
102
RTVSPropertyOp36
 70
     1
102
RTVSPropertyOp37
 70
     1
102
RTVSPropertyOp38
 70
     1
102
RTVSPropertyOp39
 70
     1
102
RTVSPropertyOp40
 70
     1
102
RTVSPropertyOp41
 70
     1
102
RTVSPropertyOp42
 70
     1
102
RTVSPropertyOp43
 70
     1
102
RTVSPropertyOp44
 70
     1
102
RTVSPropertyOp45
 70
     1
102
RTVSPropertyOp46
 70
     1
102
RTVSPropertyOp47
 70
     1
102
RTVSPropertyOp48
 70
     1
102
RTVSPropertyOp49
 70
     1
102
RTVSPropertyOp50
 70
     1
102
RTVSPropertyOp51
 70
     0
102
RTVSPropertyOp52
 70
     0
102
RTVSPropertyOp53
 70
     1
102
RTVSPropertyOp54
 70
     1
102
RTVSPropertyOp55
 70
     1
102
RTVSPropertyOp56
 70
     1
102
RTVSPropertyOp57
 70
     1
102
RTVSPost2010Prop28
280
     0
102
RTVSPost2010PropOp28
 70
     1
102
RTVSPost2010Prop29
280
     1
102
RTVSPost2010PropOp29
 70
     1
102
RTVSPost2010Prop30
280
     1
102
RTVSPost2010PropOp30
 70
     1
102
RTVSPost2010Prop31
280
     0
102
RTVSPost2010PropOp31
 70
     1
102
RTVSPost2010Prop32
280
     0
102
RTVSPost2010PropOp32
 70
     1
102
RTVSPost2010Prop33
280
     0
102
RTVSPost2010PropOp33
 70
     1
102
RTVSPost2010Prop34
280
     0
102
RTVSPost2010PropOp34
 70
     1
102
RTVSPost2010Prop35
280
     0
102
RTVSPost2010PropOp35
 70
     1
102
RTVSPost2010Prop36
280
     0
102
RTVSPost2010PropOp36
 70
     1
102
RTVSPost2010Prop37
 90
       50
102
RTVSPost2010PropOp37
 70
     1
102
RTVSPost2010Prop38
140
0.0
102
RTVSPost2010PropOp38
 70
     1
102
RTVSPost2010Prop39
140
1.0
102
RTVSPost2010PropOp39
 70
     1
102
RTVSPost2010Prop40
 90
        0
102
RTVSPost2010PropOp40
 70
     1
102
RTVSPost2010Prop41ColorIndex
 90
       18
102
RTVSPost2010Prop41ColorRGB
 90
        0
102
RTVSPost2010PropOp41
 70
     1
102
RTVSPost2010Prop42
 90
       50
102
RTVSPost2010PropOp42
 70
     1
102
RTVSPost2010Prop43
 90
        3
102
RTVSPost2010PropOp43
 70
     1
102
RTVSPost2010Prop44ColorIndex
 90
        5
102
RTVSPost2010Prop44ColorRGB
 90
      255
102
RTVSPost2010PropOp44
 70
     1
102
RTVSPost2010Prop45
280
     0
102
RTVSPost2010PropOp45
 70
     1
102
RTVSPost2010Prop46
 90
       50
102
RTVSPost2010PropOp46
 70
     1
102
RTVSPost2010Prop47
 90
       50
102
RTVSPost2010PropOp47
 70
     1
102
RTVSPost2010Prop48
 90
       50
102
RTVSPost2010PropOp48
 70
     1
102
RTVSPost2010Prop49
280
     0
102
RTVSPost2010PropOp49
 70
     1
102
RTVSPost2010Prop50
 90
       50
102
RTVSPost2010PropOp50
 70
     1
102
RTVSPost2010Prop51ColorIndex
 90
      256
102
RTVSPost2010Prop51ColorRGB
 90
-16777216
102
RTVSPost2010PropOp51
 70
     0
102
RTVSPost2010Prop52
140
1.0
102
RTVSPost2010PropOp52
 70
     0
102
RTVSPost2010Prop53
 90
        2
102
RTVSPost2010PropOp53
 70
     1
102
RTVSPost2010Prop54
  1
strokes_ogs.tif
102
RTVSPost2010PropOp54
 70
     1
102
RTVSPost2010Prop55
280
     0
102
RTVSPost2010PropOp55
 70
     1
102
RTVSPost2010Prop56
140
1.0
102
RTVSPost2010PropOp56
 70
     1
102
RTVSPost2010Prop57
140
1.0
102
RTVSPost2010PropOp57
 70
     1
  0
XRECORD
  5
15F
102
{ACAD_REACTORS
330
15E
102
}
330
15E
100
AcDbXrecord
280
     1
102
RTVSPropertyOp0
 70
     1
102
RTVSPropertyOp1
 70
     1
102
RTVSPropertyOp2
 70
     1
102
RTVSPropertyOp3
 70
     1
102
RTVSPropertyOp4
 70
     1
102
RTVSPropertyOp5
 70
     1
102
RTVSPropertyOp6
 70
     1
102
RTVSPropertyOp7
 70
     1
102
RTVSPropertyOp8
 70
     1
102
RTVSPropertyOp9
 70
     1
102
RTVSPropertyOp10
 70
     1
102
RTVSPropertyOp11
 70
     1
102
RTVSPropertyOp12
 70
     1
102
RTVSPropertyOp13
 70
     1
102
RTVSPropertyOp14
 70
     1
102
RTVSPropertyOp15
 70
     1
102
RTVSPropertyOp16
 70
     1
102
RTVSPropertyOp17
 70
     1
102
RTVSPropertyOp18
 70
     1
102
RTVSPropertyOp19
 70
     1
102
RTVSPropertyOp20
 70
     1
102
RTVSPropertyOp21
 70
     1
102
RTVSPropertyOp22
 70
     1
102
RTVSPropertyOp23
 70
     1
102
RTVSPropertyOp24
 70
     1
102
RTVSPropertyOp25
 70
     1
102
RTVSPropertyOp26
 70
     1
102
RTVSPropertyOp27
 70
     1
102
RTVSPropertyOp28
 70
     1
102
RTVSPropertyOp29
 70
     1
102
RTVSPropertyOp30
 70
     1
102
RTVSPropertyOp31
 70
     1
102
RTVSPropertyOp32
 70
     1
102
RTVSPropertyOp33
 70
     1
102
RTVSPropertyOp34
 70
     1
102
RTVSPropertyOp35
 70
     1
102
RTVSPropertyOp36
 70
     1
102
RTVSPropertyOp37
 70
     1
102
RTVSPropertyOp38
 70
     1
102
RTVSPropertyOp39
 70
     1
102
RTVSPropertyOp40
 70
     1
102
RTVSPropertyOp41
 70
     1
102
RTVSPropertyOp42
 70
     1
102
RTVSPropertyOp43
 70
     1
102
RTVSPropertyOp44
 70
     1
102
RTVSPropertyOp45
 70
     1
102
RTVSPropertyOp46
 70
     1
102
RTVSPropertyOp47
 70
     1
102
RTVSPropertyOp48
 70
     1
102
RTVSPropertyOp49
 70
     1
102
RTVSPropertyOp50
 70
     1
102
RTVSPropertyOp51
 70
     0
102
RTVSPropertyOp52
 70
     0
102
RTVSPropertyOp53
 70
     1
102
RTVSPropertyOp54
 70
     1
102
RTVSPropertyOp55
 70
     1
102
RTVSPropertyOp56
 70
     1
102
RTVSPropertyOp57
 70
     1
102
RTVSPost2010Prop28
280
     0
102
RTVSPost2010PropOp28
 70
     1
102
RTVSPost2010Prop29
280
     1
102
RTVSPost2010PropOp29
 70
     1
102
RTVSPost2010Prop30
280
     1
102
RTVSPost2010PropOp30
 70
     1
102
RTVSPost2010Prop31
280
     0
102
RTVSPost2010PropOp31
 70
     1
102
RTVSPost2010Prop32
280
     0
102
RTVSPost2010PropOp32
 70
     1
102
RTVSPost2010Prop33
280
     0
102
RTVSPost2010PropOp33
 70
     1
102
RTVSPost2010Prop34
280
     0
102
RTVSPost2010PropOp34
 70
     1
102
RTVSPost2010Prop35
280
     0
102
RTVSPost2010PropOp35
 70
     1
102
RTVSPost2010Prop36
280
     0
102
RTVSPost2010PropOp36
 70
     1
102
RTVSPost2010Prop37
 90
       50
102
RTVSPost2010PropOp37
 70
     1
102
RTVSPost2010Prop38
140
0.0
102
RTVSPost2010PropOp38
 70
     1
102
RTVSPost2010Prop39
140
1.0
102
RTVSPost2010PropOp39
 70
     1
102
RTVSPost2010Prop40
 90
        0
102
RTVSPost2010PropOp40
 70
     1
102
RTVSPost2010Prop41ColorIndex
 90
       18
102
RTVSPost2010Prop41ColorRGB
 90
        0
102
RTVSPost2010PropOp41
 70
     1
102
RTVSPost2010Prop42
 90
       50
102
RTVSPost2010PropOp42
 70
     1
102
RTVSPost2010Prop43
 90
        3
102
RTVSPost2010PropOp43
 70
     1
102
RTVSPost2010Prop44ColorIndex
 90
        5
102
RTVSPost2010Prop44ColorRGB
 90
      255
102
RTVSPost2010PropOp44
 70
     1
102
RTVSPost2010Prop45
280
     0
102
RTVSPost2010PropOp45
 70
     1
102
RTVSPost2010Prop46
 90
       50
102
RTVSPost2010PropOp46
 70
     1
102
RTVSPost2010Prop47
 90
       50
102
RTVSPost2010PropOp47
 70
     1
102
RTVSPost2010Prop48
 90
       50
102
RTVSPost2010PropOp48
 70
     1
102
RTVSPost2010Prop49
280
     0
102
RTVSPost2010PropOp49
 70
     1
102
RTVSPost2010Prop50
 90
       50
102
RTVSPost2010PropOp50
 70
     1
102
RTVSPost2010Prop51ColorIndex
 90
      256
102
RTVSPost2010Prop51ColorRGB
 90
-16777216
102
RTVSPost2010PropOp51
 70
     0
102
RTVSPost2010Prop52
140
1.0
102
RTVSPost2010PropOp52
 70
     0
102
RTVSPost2010Prop53
 90
        2
102
RTVSPost2010PropOp53
 70
     1
102
RTVSPost2010Prop54
  1
strokes_ogs.tif
102
RTVSPost2010PropOp54
 70
     1
102
RTVSPost2010Prop55
280
     0
102
RTVSPost2010PropOp55
 70
     1
102
RTVSPost2010Prop56
140
1.0
102
RTVSPost2010PropOp56
 70
     1
102
RTVSPost2010Prop57
140
1.0
102
RTVSPost2010PropOp57
 70
     1
  0
XRECORD
  5
161
102
{ACAD_REACTORS
330
160
102
}
330
160
100
AcDbXrecord
280
     1
102
RTVSPropertyOp0
 70
     1
102
RTVSPropertyOp1
 70
     1
102
RTVSPropertyOp2
 70
     1
102
RTVSPropertyOp3
 70
     1
102
RTVSPropertyOp4
 70
     1
102
RTVSPropertyOp5
 70
     1
102
RTVSPropertyOp6
 70
     1
102
RTVSPropertyOp7
 70
     1
102
RTVSPropertyOp8
 70
     1
102
RTVSPropertyOp9
 70
     1
102
RTVSPropertyOp10
 70
     1
102
RTVSPropertyOp11
 70
     1
102
RTVSPropertyOp12
 70
     1
102
RTVSPropertyOp13
 70
     1
102
RTVSPropertyOp14
 70
     1
102
RTVSPropertyOp15
 70
     1
102
RTVSPropertyOp16
 70
     1
102
RTVSPropertyOp17
 70
     1
102
RTVSPropertyOp18
 70
     1
102
RTVSPropertyOp19
 70
     1
102
RTVSPropertyOp20
 70
     1
102
RTVSPropertyOp21
 70
     1
102
RTVSPropertyOp22
 70
     1
102
RTVSPropertyOp23
 70
     1
102
RTVSPropertyOp24
 70
     1
102
RTVSPropertyOp25
 70
     1
102
RTVSPropertyOp26
 70
     1
102
RTVSPropertyOp27
 70
     1
102
RTVSPropertyOp28
 70
     1
102
RTVSPropertyOp29
 70
     1
102
RTVSPropertyOp30
 70
     1
102
RTVSPropertyOp31
 70
     1
102
RTVSPropertyOp32
 70
     1
102
RTVSPropertyOp33
 70
     1
102
RTVSPropertyOp34
 70
     1
102
RTVSPropertyOp35
 70
     1
102
RTVSPropertyOp36
 70
     1
102
RTVSPropertyOp37
 70
     1
102
RTVSPropertyOp38
 70
     1
102
RTVSPropertyOp39
 70
     1
102
RTVSPropertyOp40
 70
     1
102
RTVSPropertyOp41
 70
     1
102
RTVSPropertyOp42
 70
     1
102
RTVSPropertyOp43
 70
     1
102
RTVSPropertyOp44
 70
     1
102
RTVSPropertyOp45
 70
     1
102
RTVSPropertyOp46
 70
     1
102
RTVSPropertyOp47
 70
     1
102
RTVSPropertyOp48
 70
     1
102
RTVSPropertyOp49
 70
     1
102
RTVSPropertyOp50
 70
     1
102
RTVSPropertyOp51
 70
     0
102
RTVSPropertyOp52
 70
     0
102
RTVSPropertyOp53
 70
     1
102
RTVSPropertyOp54
 70
     1
102
RTVSPropertyOp55
 70
     1
102
RTVSPropertyOp56
 70
     1
102
RTVSPropertyOp57
 70
     1
102
RTVSPost2010Prop28
280
     0
102
RTVSPost2010PropOp28
 70
     1
102
RTVSPost2010Prop29
280
     1
102
RTVSPost2010PropOp29
 70
     1
102
RTVSPost2010Prop30
280
     1
102
RTVSPost2010PropOp30
 70
     1
102
RTVSPost2010Prop31
280
     0
102
RTVSPost2010PropOp31
 70
     1
102
RTVSPost2010Prop32
280
     0
102
RTVSPost2010PropOp32
 70
     1
102
RTVSPost2010Prop33
280
     0
102
RTVSPost2010PropOp33
 70
     1
102
RTVSPost2010Prop34
280
     0
102
RTVSPost2010PropOp34
 70
     1
102
RTVSPost2010Prop35
280
     0
102
RTVSPost2010PropOp35
 70
     1
102
RTVSPost2010Prop36
280
     0
102
RTVSPost2010PropOp36
 70
     1
102
RTVSPost2010Prop37
 90
       50
102
RTVSPost2010PropOp37
 70
     1
102
RTVSPost2010Prop38
140
0.0
102
RTVSPost2010PropOp38
 70
     1
102
RTVSPost2010Prop39
140
1.0
102
RTVSPost2010PropOp39
 70
     1
102
RTVSPost2010Prop40
 90
        0
102
RTVSPost2010PropOp40
 70
     1
102
RTVSPost2010Prop41ColorIndex
 90
       18
102
RTVSPost2010Prop41ColorRGB
 90
        0
102
RTVSPost2010PropOp41
 70
     1
102
RTVSPost2010Prop42
 90
       50
102
RTVSPost2010PropOp42
 70
     1
102
RTVSPost2010Prop43
 90
        3
102
RTVSPost2010PropOp43
 70
     1
102
RTVSPost2010Prop44ColorIndex
 90
        5
102
RTVSPost2010Prop44ColorRGB
 90
      255
102
RTVSPost2010PropOp44
 70
     1
102
RTVSPost2010Prop45
280
     0
102
RTVSPost2010PropOp45
 70
     1
102
RTVSPost2010Prop46
 90
       50
102
RTVSPost2010PropOp46
 70
     1
102
RTVSPost2010Prop47
 90
       50
102
RTVSPost2010PropOp47
 70
     1
102
RTVSPost2010Prop48
 90
       50
102
RTVSPost2010PropOp48
 70
     1
102
RTVSPost2010Prop49
280
     0
102
RTVSPost2010PropOp49
 70
     1
102
RTVSPost2010Prop50
 90
       50
102
RTVSPost2010PropOp50
 70
     1
102
RTVSPost2010Prop51ColorIndex
 90
      256
102
RTVSPost2010Prop51ColorRGB
 90
-16777216
102
RTVSPost2010PropOp51
 70
     0
102
RTVSPost2010Prop52
140
1.0
102
RTVSPost2010PropOp52
 70
     0
102
RTVSPost2010Prop53
 90
        2
102
RTVSPost2010PropOp53
 70
     1
102
RTVSPost2010Prop54
  1
strokes_ogs.tif
102
RTVSPost2010PropOp54
 70
     1
102
RTVSPost2010Prop55
280
     0
102
RTVSPost2010PropOp55
 70
     1
102
RTVSPost2010Prop56
140
1.0
102
RTVSPost2010PropOp56
 70
     1
102
RTVSPost2010Prop57
140
1.0
102
RTVSPost2010PropOp57
 70
     1
  0
XRECORD
  5
151
102
{ACAD_REACTORS
330
150
102
}
330
150
100
AcDbXrecord
280
     1
102
RTVSPropertyOp0
 70
     1
102
RTVSPropertyOp1
 70
     1
102
RTVSPropertyOp2
 70
     1
102
RTVSPropertyOp3
 70
     1
102
RTVSPropertyOp4
 70
     1
102
RTVSPropertyOp5
 70
     1
102
RTVSPropertyOp6
 70
     1
102
RTVSPropertyOp7
 70
     1
102
RTVSPropertyOp8
 70
     1
102
RTVSPropertyOp9
 70
     1
102
RTVSPropertyOp10
 70
     1
102
RTVSPropertyOp11
 70
     1
102
RTVSPropertyOp12
 70
     1
102
RTVSPropertyOp13
 70
     1
102
RTVSPropertyOp14
 70
     1
102
RTVSPropertyOp15
 70
     1
102
RTVSPropertyOp16
 70
     1
102
RTVSPropertyOp17
 70
     1
102
RTVSPropertyOp18
 70
     1
102
RTVSPropertyOp19
 70
     1
102
RTVSPropertyOp20
 70
     1
102
RTVSPropertyOp21
 70
     1
102
RTVSPropertyOp22
 70
     1
102
RTVSPropertyOp23
 70
     1
102
RTVSPropertyOp24
 70
     1
102
RTVSPropertyOp25
 70
     1
102
RTVSPropertyOp26
 70
     1
102
RTVSPropertyOp27
 70
     1
102
RTVSPropertyOp28
 70
     1
102
RTVSPropertyOp29
 70
     1
102
RTVSPropertyOp30
 70
     1
102
RTVSPropertyOp31
 70
     1
102
RTVSPropertyOp32
 70
     1
102
RTVSPropertyOp33
 70
     1
102
RTVSPropertyOp34
 70
     1
102
RTVSPropertyOp35
 70
     1
102
RTVSPropertyOp36
 70
     1
102
RTVSPropertyOp37
 70
     1
102
RTVSPropertyOp38
 70
     1
102
RTVSPropertyOp39
 70
     1
102
RTVSPropertyOp40
 70
     1
102
RTVSPropertyOp41
 70
     1
102
RTVSPropertyOp42
 70
     1
102
RTVSPropertyOp43
 70
     1
102
RTVSPropertyOp44
 70
     1
102
RTVSPropertyOp45
 70
     1
102
RTVSPropertyOp46
 70
     1
102
RTVSPropertyOp47
 70
     1
102
RTVSPropertyOp48
 70
     1
102
RTVSPropertyOp49
 70
     1
102
RTVSPropertyOp50
 70
     1
102
RTVSPropertyOp51
 70
     0
102
RTVSPropertyOp52
 70
     0
102
RTVSPropertyOp53
 70
     1
102
RTVSPropertyOp54
 70
     1
102
RTVSPropertyOp55
 70
     1
102
RTVSPropertyOp56
 70
     1
102
RTVSPropertyOp57
 70
     1
102
RTVSPost2010Prop28
280
     0
102
RTVSPost2010PropOp28
 70
     1
102
RTVSPost2010Prop29
280
     1
102
RTVSPost2010PropOp29
 70
     1
102
RTVSPost2010Prop30
280
     1
102
RTVSPost2010PropOp30
 70
     1
102
RTVSPost2010Prop31
280
     0
102
RTVSPost2010PropOp31
 70
     1
102
RTVSPost2010Prop32
280
     0
102
RTVSPost2010PropOp32
 70
     1
102
RTVSPost2010Prop33
280
     0
102
RTVSPost2010PropOp33
 70
     1
102
RTVSPost2010Prop34
280
     0
102
RTVSPost2010PropOp34
 70
     1
102
RTVSPost2010Prop35
280
     0
102
RTVSPost2010PropOp35
 70
     1
102
RTVSPost2010Prop36
280
     0
102
RTVSPost2010PropOp36
 70
     1
102
RTVSPost2010Prop37
 90
       50
102
RTVSPost2010PropOp37
 70
     1
102
RTVSPost2010Prop38
140
0.0
102
RTVSPost2010PropOp38
 70
     1
102
RTVSPost2010Prop39
140
1.0
102
RTVSPost2010PropOp39
 70
     1
102
RTVSPost2010Prop40
 90
        0
102
RTVSPost2010PropOp40
 70
     1
102
RTVSPost2010Prop41ColorIndex
 90
       18
102
RTVSPost2010Prop41ColorRGB
 90
        0
102
RTVSPost2010PropOp41
 70
     1
102
RTVSPost2010Prop42
 90
       50
102
RTVSPost2010PropOp42
 70
     1
102
RTVSPost2010Prop43
 90
        3
102
RTVSPost2010PropOp43
 70
     1
102
RTVSPost2010Prop44ColorIndex
 90
        5
102
RTVSPost2010Prop44ColorRGB
 90
      255
102
RTVSPost2010PropOp44
 70
     1
102
RTVSPost2010Prop45
280
     0
102
RTVSPost2010PropOp45
 70
     1
102
RTVSPost2010Prop46
 90
       50
102
RTVSPost2010PropOp46
 70
     1
102
RTVSPost2010Prop47
 90
       50
102
RTVSPost2010PropOp47
 70
     1
102
RTVSPost2010Prop48
 90
       50
102
RTVSPost2010PropOp48
 70
     1
102
RTVSPost2010Prop49
280
     0
102
RTVSPost2010PropOp49
 70
     1
102
RTVSPost2010Prop50
 90
       50
102
RTVSPost2010PropOp50
 70
     1
102
RTVSPost2010Prop51ColorIndex
 90
      256
102
RTVSPost2010Prop51ColorRGB
 90
-16777216
102
RTVSPost2010PropOp51
 70
     0
102
RTVSPost2010Prop52
140
1.0
102
RTVSPost2010PropOp52
 70
     0
102
RTVSPost2010Prop53
 90
        2
102
RTVSPost2010PropOp53
 70
     1
102
RTVSPost2010Prop54
  1
strokes_ogs.tif
102
RTVSPost2010PropOp54
 70
     1
102
RTVSPost2010Prop55
280
     0
102
RTVSPost2010PropOp55
 70
     1
102
RTVSPost2010Prop56
140
1.0
102
RTVSPost2010PropOp56
 70
     1
102
RTVSPost2010Prop57
140
1.0
102
RTVSPost2010PropOp57
 70
     1
  0
XRECORD
  5
143
102
{ACAD_REACTORS
330
142
102
}
330
142
100
AcDbXrecord
280
     1
102
RTVSPropertyOp0
 70
     1
102
RTVSPropertyOp1
 70
     1
102
RTVSPropertyOp2
 70
     1
102
RTVSPropertyOp3
 70
     1
102
RTVSPropertyOp4
 70
     1
102
RTVSPropertyOp5
 70
     1
102
RTVSPropertyOp6
 70
     1
102
RTVSPropertyOp7
 70
     1
102
RTVSPropertyOp8
 70
     1
102
RTVSPropertyOp9
 70
     1
102
RTVSPropertyOp10
 70
     1
102
RTVSPropertyOp11
 70
     1
102
RTVSPropertyOp12
 70
     1
102
RTVSPropertyOp13
 70
     1
102
RTVSPropertyOp14
 70
     1
102
RTVSPropertyOp15
 70
     1
102
RTVSPropertyOp16
 70
     1
102
RTVSPropertyOp17
 70
     1
102
RTVSPropertyOp18
 70
     1
102
RTVSPropertyOp19
 70
     1
102
RTVSPropertyOp20
 70
     1
102
RTVSPropertyOp21
 70
     1
102
RTVSPropertyOp22
 70
     1
102
RTVSPropertyOp23
 70
     1
102
RTVSPropertyOp24
 70
     1
102
RTVSPropertyOp25
 70
     1
102
RTVSPropertyOp26
 70
     1
102
RTVSPropertyOp27
 70
     1
102
RTVSPropertyOp28
 70
     1
102
RTVSPropertyOp29
 70
     1
102
RTVSPropertyOp30
 70
     1
102
RTVSPropertyOp31
 70
     1
102
RTVSPropertyOp32
 70
     1
102
RTVSPropertyOp33
 70
     1
102
RTVSPropertyOp34
 70
     1
102
RTVSPropertyOp35
 70
     1
102
RTVSPropertyOp36
 70
     1
102
RTVSPropertyOp37
 70
     1
102
RTVSPropertyOp38
 70
     1
102
RTVSPropertyOp39
 70
     1
102
RTVSPropertyOp40
 70
     1
102
RTVSPropertyOp41
 70
     1
102
RTVSPropertyOp42
 70
     1
102
RTVSPropertyOp43
 70
     1
102
RTVSPropertyOp44
 70
     1
102
RTVSPropertyOp45
 70
     1
102
RTVSPropertyOp46
 70
     1
102
RTVSPropertyOp47
 70
     1
102
RTVSPropertyOp48
 70
     1
102
RTVSPropertyOp49
 70
     1
102
RTVSPropertyOp50
 70
     1
102
RTVSPropertyOp51
 70
     0
102
RTVSPropertyOp52
 70
     0
102
RTVSPropertyOp53
 70
     1
102
RTVSPropertyOp54
 70
     1
102
RTVSPropertyOp55
 70
     1
102
RTVSPropertyOp56
 70
     1
102
RTVSPropertyOp57
 70
     1
102
RTVSPost2010Prop28
280
     0
102
RTVSPost2010PropOp28
 70
     1
102
RTVSPost2010Prop29
280
     1
102
RTVSPost2010PropOp29
 70
     1
102
RTVSPost2010Prop30
280
     1
102
RTVSPost2010PropOp30
 70
     1
102
RTVSPost2010Prop31
280
     0
102
RTVSPost2010PropOp31
 70
     1
102
RTVSPost2010Prop32
280
     0
102
RTVSPost2010PropOp32
 70
     1
102
RTVSPost2010Prop33
280
     0
102
RTVSPost2010PropOp33
 70
     1
102
RTVSPost2010Prop34
280
     0
102
RTVSPost2010PropOp34
 70
     1
102
RTVSPost2010Prop35
280
     0
102
RTVSPost2010PropOp35
 70
     1
102
RTVSPost2010Prop36
280
     0
102
RTVSPost2010PropOp36
 70
     1
102
RTVSPost2010Prop37
 90
       50
102
RTVSPost2010PropOp37
 70
     1
102
RTVSPost2010Prop38
140
0.0
102
RTVSPost2010PropOp38
 70
     1
102
RTVSPost2010Prop39
140
1.0
102
RTVSPost2010PropOp39
 70
     1
102
RTVSPost2010Prop40
 90
        0
102
RTVSPost2010PropOp40
 70
     1
102
RTVSPost2010Prop41ColorIndex
 90
       18
102
RTVSPost2010Prop41ColorRGB
 90
        0
102
RTVSPost2010PropOp41
 70
     1
102
RTVSPost2010Prop42
 90
       50
102
RTVSPost2010PropOp42
 70
     1
102
RTVSPost2010Prop43
 90
        3
102
RTVSPost2010PropOp43
 70
     1
102
RTVSPost2010Prop44ColorIndex
 90
        5
102
RTVSPost2010Prop44ColorRGB
 90
      255
102
RTVSPost2010PropOp44
 70
     1
102
RTVSPost2010Prop45
280
     0
102
RTVSPost2010PropOp45
 70
     1
102
RTVSPost2010Prop46
 90
       50
102
RTVSPost2010PropOp46
 70
     1
102
RTVSPost2010Prop47
 90
       50
102
RTVSPost2010PropOp47
 70
     1
102
RTVSPost2010Prop48
 90
       50
102
RTVSPost2010PropOp48
 70
     1
102
RTVSPost2010Prop49
280
     0
102
RTVSPost2010PropOp49
 70
     1
102
RTVSPost2010Prop50
 90
       50
102
RTVSPost2010PropOp50
 70
     1
102
RTVSPost2010Prop51ColorIndex
 90
      256
102
RTVSPost2010Prop51ColorRGB
 90
-16777216
102
RTVSPost2010PropOp51
 70
     0
102
RTVSPost2010Prop52
140
1.0
102
RTVSPost2010PropOp52
 70
     0
102
RTVSPost2010Prop53
 90
        2
102
RTVSPost2010PropOp53
 70
     1
102
RTVSPost2010Prop54
  1
strokes_ogs.tif
102
RTVSPost2010PropOp54
 70
     1
102
RTVSPost2010Prop55
280
     0
102
RTVSPost2010PropOp55
 70
     1
102
RTVSPost2010Prop56
140
1.0
102
RTVSPost2010PropOp56
 70
     1
102
RTVSPost2010Prop57
140
1.0
102
RTVSPost2010PropOp57
 70
     1
  0
XRECORD
  5
163
102
{ACAD_REACTORS
330
162
102
}
330
162
100
AcDbXrecord
280
     1
102
RTVSPropertyOp0
 70
     1
102
RTVSPropertyOp1
 70
     1
102
RTVSPropertyOp2
 70
     1
102
RTVSPropertyOp3
 70
     1
102
RTVSPropertyOp4
 70
     1
102
RTVSPropertyOp5
 70
     1
102
RTVSPropertyOp6
 70
     1
102
RTVSPropertyOp7
 70
     1
102
RTVSPropertyOp8
 70
     1
102
RTVSPropertyOp9
 70
     1
102
RTVSPropertyOp10
 70
     1
102
RTVSPropertyOp11
 70
     1
102
RTVSPropertyOp12
 70
     1
102
RTVSPropertyOp13
 70
     1
102
RTVSPropertyOp14
 70
     1
102
RTVSPropertyOp15
 70
     1
102
RTVSPropertyOp16
 70
     1
102
RTVSPropertyOp17
 70
     1
102
RTVSPropertyOp18
 70
     1
102
RTVSPropertyOp19
 70
     1
102
RTVSPropertyOp20
 70
     1
102
RTVSPropertyOp21
 70
     1
102
RTVSPropertyOp22
 70
     1
102
RTVSPropertyOp23
 70
     1
102
RTVSPropertyOp24
 70
     1
102
RTVSPropertyOp25
 70
     1
102
RTVSPropertyOp26
 70
     1
102
RTVSPropertyOp27
 70
     1
102
RTVSPropertyOp28
 70
     1
102
RTVSPropertyOp29
 70
     1
102
RTVSPropertyOp30
 70
     1
102
RTVSPropertyOp31
 70
     1
102
RTVSPropertyOp32
 70
     1
102
RTVSPropertyOp33
 70
     1
102
RTVSPropertyOp34
 70
     1
102
RTVSPropertyOp35
 70
     1
102
RTVSPropertyOp36
 70
     1
102
RTVSPropertyOp37
 70
     1
102
RTVSPropertyOp38
 70
     1
102
RTVSPropertyOp39
 70
     1
102
RTVSPropertyOp40
 70
     1
102
RTVSPropertyOp41
 70
     1
102
RTVSPropertyOp42
 70
     1
102
RTVSPropertyOp43
 70
     1
102
RTVSPropertyOp44
 70
     1
102
RTVSPropertyOp45
 70
     1
102
RTVSPropertyOp46
 70
     1
102
RTVSPropertyOp47
 70
     1
102
RTVSPropertyOp48
 70
     1
102
RTVSPropertyOp49
 70
     1
102
RTVSPropertyOp50
 70
     1
102
RTVSPropertyOp51
 70
     0
102
RTVSPropertyOp52
 70
     0
102
RTVSPropertyOp53
 70
     1
102
RTVSPropertyOp54
 70
     1
102
RTVSPropertyOp55
 70
     1
102
RTVSPropertyOp56
 70
     1
102
RTVSPropertyOp57
 70
     1
102
RTVSPost2010Prop28
280
     0
102
RTVSPost2010PropOp28
 70
     1
102
RTVSPost2010Prop29
280
     1
102
RTVSPost2010PropOp29
 70
     1
102
RTVSPost2010Prop30
280
     1
102
RTVSPost2010PropOp30
 70
     1
102
RTVSPost2010Prop31
280
     0
102
RTVSPost2010PropOp31
 70
     1
102
RTVSPost2010Prop32
280
     0
102
RTVSPost2010PropOp32
 70
     1
102
RTVSPost2010Prop33
280
     0
102
RTVSPost2010PropOp33
 70
     1
102
RTVSPost2010Prop34
280
     0
102
RTVSPost2010PropOp34
 70
     1
102
RTVSPost2010Prop35
280
     0
102
RTVSPost2010PropOp35
 70
     1
102
RTVSPost2010Prop36
280
     0
102
RTVSPost2010PropOp36
 70
     1
102
RTVSPost2010Prop37
 90
       50
102
RTVSPost2010PropOp37
 70
     1
102
RTVSPost2010Prop38
140
0.0
102
RTVSPost2010PropOp38
 70
     1
102
RTVSPost2010Prop39
140
1.0
102
RTVSPost2010PropOp39
 70
     1
102
RTVSPost2010Prop40
 90
        0
102
RTVSPost2010PropOp40
 70
     1
102
RTVSPost2010Prop41ColorIndex
 90
       18
102
RTVSPost2010Prop41ColorRGB
 90
        0
102
RTVSPost2010PropOp41
 70
     1
102
RTVSPost2010Prop42
 90
       50
102
RTVSPost2010PropOp42
 70
     1
102
RTVSPost2010Prop43
 90
        3
102
RTVSPost2010PropOp43
 70
     1
102
RTVSPost2010Prop44ColorIndex
 90
        5
102
RTVSPost2010Prop44ColorRGB
 90
      255
102
RTVSPost2010PropOp44
 70
     1
102
RTVSPost2010Prop45
280
     0
102
RTVSPost2010PropOp45
 70
     1
102
RTVSPost2010Prop46
 90
       50
102
RTVSPost2010PropOp46
 70
     1
102
RTVSPost2010Prop47
 90
       50
102
RTVSPost2010PropOp47
 70
     1
102
RTVSPost2010Prop48
 90
       50
102
RTVSPost2010PropOp48
 70
     1
102
RTVSPost2010Prop49
280
     0
102
RTVSPost2010PropOp49
 70
     1
102
RTVSPost2010Prop50
 90
       50
102
RTVSPost2010PropOp50
 70
     1
102
RTVSPost2010Prop51ColorIndex
 90
      256
102
RTVSPost2010Prop51ColorRGB
 90
-16777216
102
RTVSPost2010PropOp51
 70
     0
102
RTVSPost2010Prop52
140
1.0
102
RTVSPost2010PropOp52
 70
     0
102
RTVSPost2010Prop53
 90
        2
102
RTVSPost2010PropOp53
 70
     1
102
RTVSPost2010Prop54
  1
strokes_ogs.tif
102
RTVSPost2010PropOp54
 70
     1
102
RTVSPost2010Prop55
280
     0
102
RTVSPost2010PropOp55
 70
     1
102
RTVSPost2010Prop56
140
1.0
102
RTVSPost2010PropOp56
 70
     1
102
RTVSPost2010Prop57
140
1.0
102
RTVSPost2010PropOp57
 70
     1
  0
ENDSEC
  0
EOF
