  0
SECTION
  2
HEADER
  9
$ACADVER
  1
AC1012
  9
$DWGCODEPAGE
  3
ansi_1252
  9
$INSBASE
 10
0.0
 20
0.0
 30
0.0
  9
$EXTMIN
 10
0.0
 20
0.0
 30
0.0
  9
$EXTMAX
 10
420.0
 20
297.0
 30
0.0
  9
$LIMMIN
 10
0.0
 20
0.0
  9
$LIMMAX
 10
0.0
 20
0.0
  9
$ORTHOMODE
 70
         0
  9
$REGENMODE
 70
         1
  9
$FILLMODE
 70
         1
  9
$QTEXTMODE
 70
         0
  9
$MIRRTEXT
 70
         1
  9
$DRAGMODE
 70
         2
  9
$LTSCALE
 40
1.0
  9
$OSMODE
 70
         0
  9
$ATTMODE
 70
         1
  9
$TEXTSIZE
 40
3.5
  9
$TRACEWID
 40
0.05
  9
$TEXTSTYLE
  7
STANDARD
  9
$CLAYER
  8
0
  9
$CELTYPE
  6
CONTINUOUS
  9
$CECOLOR
 62
       256
  9
$CELTSCALE
 40
1.0
  9
$DELOBJ
 70
         1
  9
$DISPSILH
 70
         0
  9
$DIMSCALE
 40
1.0
  9
$DIMASZ
 40
0.0
  9
$DIMEXO
 40
0.0
  9
$DIMDLI
 40
0.38
  9
$DIMRND
 40
0.0
  9
$DIMDLE
 40
0.0
  9
$DIMEXE
 40
0.18
  9
$DIMTP
 40
0.0
  9
$DIMTM
 40
0.0
  9
$DIMTXT
 40
3.5
  9
$DIMCEN
 40
0.09
  9
$DIMTSZ
 40
0.0
  9
$DIMTOL
 70
         0
  9
$DIMLIM
 70
         0
  9
$DIMTIH
 70
         1
  9
$DIMTOH
 70
         1
  9
$DIMSE1
 70
         0
  9
$DIMSE2
 70
         0
  9
$DIMTAD
 70
         1
  9
$DIMZIN
 70
         0
  9
$DIMBLK
  1

  9
$DIMASO
 70
         1
  9
$DIMSHO
 70
         1
  9
$DIMPOST
  1

  9
$DIMAPOST
  1

  9
$DIMALT
 70
         0
  9
$DIMALTD
 70
         2
  9
$DIMALTF
 40
0.0394
  9
$DIMLFAC
 40
1.0
  9
$DIMTOFL
 70
         0
  9
$DIMTVP
 40
0.0
  9
$DIMTIX
 70
         0
  9
$DIMSOXD
 70
         0
  9
$DIMSAH
 70
         0
  9
$DIMBLK1
  1

  9
$DIMBLK2
  1

  9
$DIMSTYLE
  2
STANDARD
  9
$DIMCLRD
 70
         0
  9
$DIMCLRE
 70
         0
  9
$DIMCLRT
 70
         0
  9
$DIMTFAC
 40
1.0
  9
$DIMGAP
 40
0.0
  9
$DIMJUST
 70
         0
  9
$DIMSD1
 70
         0
  9
$DIMSD2
 70
         0
  9
$DIMTOLJ
 70
         1
  9
$DIMTZIN
 70
         0
  9
$DIMALTZ
 70
         0
  9
$DIMALTTZ
 70
         0
  9
$DIMFIT
 70
         3
  9
$DIMUPT
 70
         0
  9
$DIMUNIT
 70
         2
  9
$DIMDEC
 70
         4
  9
$DIMTDEC
 70
         4
  9
$DIMALTU
 70
         2
  9
$DIMALTTD
 70
         2
  9
$DIMTXSTY
  7
STANDARD
  9
$DIMAUNIT
 70
         0
  9
$LUNITS
 70
         2
  9
$LUPREC
 70
         2
  9
$SKETCHINC
 40
0.1
  9
$FILLETRAD
 40
0.0
  9
$AUNITS
 70
         0
  9
$AUPREC
 70
         2
  9
$MENU
  1
acad
  9
$ELEVATION
 40
0.0
  9
$PELEVATION
 40
0.0
  9
$THICKNESS
 40
0.0
  9
$LIMCHECK
 70
         0
  9
$BLIPMODE
 70
         1
  9
$CHAMFERA
 40
0.0
  9
$CHAMFERB
 40
0.0
  9
$CHAMFERC
 40
0.0
  9
$CHAMFERD
 40
0.0
  9
$SKPOLY
 70
         0
  9
$TDCREATE
 40
0.000000000
  9
$TDUPDATE
 40
0.000000000
  9
$TDINDWG
 40
0.0000000000
  9
$TDUSRTIMER
 40
0.0000000000
  9
$USRTIMER
 70
         1
  9
$ANGBASE
 50
0.0
  9
$ANGDIR
 70
         0
  9
$PDMODE
 70
         0
  9
$PDSIZE
 40
-1.0
  9
$PLINEWID
 40
0.0
  9
$COORDS
 70
         0
  9
$SPLFRAME
 70
         0
  9
$SPLINETYPE
 70
         6
  9
$SPLINESEGS
 70
         8
  9
$ATTDIA
 70
         0
  9
$ATTREQ
 70
         1
  9
$HANDLING
 70
         1
  9
$HANDSEED
  5
364
  9
$SURFTAB1
 70
         6
  9
$SURFTAB2
 70
         6
  9
$SURFTYPE
 70
         6
  9
$SURFU
 70
         6
  9
$SURFV
 70
         6
  9
$UCSNAME
  2

  9
$UCSORG
 10
0.0
 20
0.0
 30
0.0
  9
$UCSXDIR
 10
1.0
 20
0.0
 30
0.0
  9
$UCSYDIR
 10
0.0
 20
1.0
 30
0.0
  9
$PUCSNAME
  2

  9
$PUCSORG
 10
0.0
 20
0.0
 30
0.0
  9
$PUCSXDIR
 10
1.0
 20
0.0
 30
0.0
  9
$PUCSYDIR
 10
0.0
 20
1.0
 30
0.0
  9
$USERI1
 70
         0
  9
$USERI2
 70
         0
  9
$USERI3
 70
         0
  9
$USERI4
 70
         0
  9
$USERI5
 70
         0
  9
$USERR1
 40
0.0
  9
$USERR2
 40
0.0
  9
$USERR3
 40
0.0
  9
$USERR4
 40
0.0
  9
$USERR5
 40
0.0
  9
$WORLDVIEW
 70
         1
  9
$SHADEDGE
 70
         3
  9
$SHADEDIF
 70
        70
  9
$TILEMODE
 70
         1
  9
$MAXACTVP
 70
        16
  9
$PINSBASE
 10
0.0
 20
0.0
 30
0.0
  9
$PLIMCHECK
 70
         0
  9
$PEXTMIN
 10
1.0000000000E+20
 20
1.0000000000E+20
 30
1.0000000000E+20
  9
$PEXTMAX
 10
-1.0000000000E+20
 20
-1.0000000000E+20
 30
-1.0000000000E+20
  9
$PLIMMIN
 10
0.0
 20
0.0
  9
$PLIMMAX
 10
12.0
 20
9.0
  9
$UNITMODE
 70
         0
  9
$VISRETAIN
 70
         0
  9
$PLINEGEN
 70
         1
  9
$PSLTSCALE
 70
         1
  9
$TREEDEPTH
 70
      3020
  9
$PICKSTYLE
 70
         1
  9
$CMLSTYLE
  2
STANDARD
  9
$CMLJUST
 70
         0
  9
$CMLSCALE
 40
1.0
  9
$SAVEIMAGES
 70
         0
  0
ENDSEC
  0
SECTION
  2
CLASSES
  0
CLASS
  1
LWPOLYLINE
  2
AcDbPolyline
  3
"AutoCAD"
 90
    32768
280
         0
281
         1
  0
CLASS
  1
IMAGE
  2
AcDbRasterImage
  3
ISM
 90
    32895
280
         0
281
         1
  0
CLASS
  1
OLE2FRAME
  2
AcDbOle2Frame
  3
""
 90
    32768
280
         0
281
         1
  0
CLASS
  1
HATCH
  2
AcDbHatch
  3
"ACAD_SEDONA"
 90
    32768
280
         0
281
         1
  0
CLASS
  1
DICTIONARYVAR
  2
AcDbDictionaryVar
  3
"AutoCAD"
 90
    32768
280
         0
281
         0
  0
CLASS
  1
RASTERVARIABLES
  2
AcDbRasterVariables
  3
ISM
 90
    32768
280
         0
281
         0
  0
CLASS
  1
IMAGEDEF
  2
AcDbRasterImageDef
  3
ISM
 90
    32768
280
         0
281
         0
  0
CLASS
  1
IMAGEDEF_REACTOR
  2
AcDbRasterImageDefReactor
  3
ISM
 90
    32769
280
         0
281
         0
  0
CLASS
  1
IDBUFFER
  2
AcDbIdBuffer
  3
"Acad"
 90
    32768
280
         0
281
         0
  0
CLASS
  1
SPATIAL_FILTER
  2
AcDbSpatialFilter
  3
"Acad"
 90
    32768
280
         0
281
         0
  0
CLASS
  1
XRECORD
  2
AcDbXrecord
  3
"<Built In>"
 90
    32768
280
         0
281
         0
  0
CLASS
  1
SORTENTSTABLE
  2
AcDbSortentsTable
  3
"AutoCAD"
 90
    32768
280
         0
281
         0
  0
CLASS
  1
LAYER_INDEX
  2
AcDbLayerIndex
  3
"Acad"
 90
    32768
280
         0
281
         0
  0
CLASS
  1
SPATIAL_INDEX
  2
AcDbSpatialIndex
  3
"Acad"
 90
    32768
280
         0
281
         0
  0
CLASS
  1
OBJECT_PTR
  2
CAseDLPNTableRecord
  3
"ASE-LPNTableRecord"
 90
    32769
280
         0
281
         0
  0
CLASS
  1
LAYOUT
  2
AcDbLayout
  3
"AutoCAD 2000"
 90
    32768
280
         0
281
         0
  0
CLASS
  1
PLOTSETTINGS
  2
AcDbPlotSettings
  3
"AutoCAD 2000"
 90
    32768
280
         0
281
         0
  0
CLASS
  1
ACDBDICTIONARYWDFLT
  2
AcDbDictionaryWithDefault
  3
"AutoCAD 2000"
 90
    32768
280
         0
281
         0
  0
CLASS
  1
ACDBPLACEHOLDER
  2
AcDbPlaceHolder
  3
"AutoCAD 2000"
 90
    32768
280
         0
281
         0
  0
CLASS
  1
VBA_PROJECT
  2
AcDbVbaProject
  3
"acadvba"
 90
    32768
280
         0
281
         0
  0
CLASS
  1
WIPEOUT
  2
AcDbWipeout
  3
WipeOut|AutoCAD Express Tool|expresstools@autodesk.com
 90
    32895
280
         0
281
         1
  0
CLASS
  1
WIPEOUTVARIABLES
  2
AcDbWipeoutVariables
  3
WipeOut|AutoCAD Express Tool|expresstools@autodesk.com
 90
    32768
280
         0
281
         0
  0
CLASS
  1
RTEXT
  2
RText
  3
RText|AutoCAD Express Tool|expresstools@autodesk.com
 90
    32768
280
         0
281
         1
  0
CLASS
  1
ARCALIGNEDTEXT
  2
AcDbArcAlignedText
  3
ATEXT|AutoCAD Express Tool|expresstools@autodesk.com
 90
    32768
280
         0
281
         1
  0
ENDSEC
  0
SECTION
  2
TABLES
  0
TABLE
  2
VPORT
  5
7
100
AcDbSymbolTable
 70
         1
  0
VPORT
  5
15
100
AcDbSymbolTableRecord
100
AcDbViewportTableRecord
  2
*ACTIVE
 70
         0
 10
0.0
 20
0.0
 11
1.0
 21
1.0
 12
210.0
 22
148.5
 13
0.0
 23
0.0
 14
1.0
 24
1.0
 15
0.0
 25
0.0
 16
0.0
 26
0.0
 36
1.0
 17
0.0
 27
0.0
 37
0.0
 40
297.0
 41
0.7071428571
 42
50.0
 43
0.0
 44
0.0
 50
0.0
 51
0.0
 71
         0
 72
      2000
 73
         1
 74
         1
 75
         0
 76
         0
 77
         0
 78
         0
  0
ENDTAB
  0
TABLE
  2
LTYPE
  5
4
100
AcDbSymbolTable
 70
         8
  0
LTYPE
  5
11
100
AcDbSymbolTableRecord
100
AcDbLinetypeTableRecord
  2
BYBLOCK
 70
        64
  3

 72
        65
 73
         0
 40
0.0
  0
LTYPE
  5
12
100
AcDbSymbolTableRecord
100
AcDbLinetypeTableRecord
  2
BYLAYER
 70
        64
  3

 72
        65
 73
         0
 40
0.0
  0
LTYPE
  5
13
100
AcDbSymbolTableRecord
100
AcDbLinetypeTableRecord
  2
CONTINUOUS
 70
        64
  3
Solid line
 72
        65
 73
         0
 40
0.0
  0
LTYPE
  5
1D
100
AcDbSymbolTableRecord
100
AcDbLinetypeTableRecord
  2
HIDDEN
 70
        64
  3
Hidden __ __ __ __ __ __ __ __ __ __ __ __ __ __
 72
        65
 73
         2
 40
1.905
 49
1.27
 74
         0
 49
-0.635
 74
         0
  0
LTYPE
  5
1E
100
AcDbSymbolTableRecord
100
AcDbLinetypeTableRecord
  2
PHANTOM
 70
        64
  3
Phantom ______  __  __  ______  __  __  ______
 72
        65
 73
         6
 40
12.7
 49
6.35
 74
         0
 49
-1.27
 74
         0
 49
1.27
 74
         0
 49
-1.27
 74
         0
 49
1.27
 74
         0
 49
-1.27
 74
         0
  0
LTYPE
  5
1F
100
AcDbSymbolTableRecord
100
AcDbLinetypeTableRecord
  2
CENTER
 70
        64
  3
Center ____ _ ____ _ ____ _ ____ _ ____ _ ____
 72
        65
 73
         4
 40
10.16
 49
6.35
 74
         0
 49
-1.27
 74
         0
 49
1.27
 74
         0
 49
-1.27
 74
         0
  0
LTYPE
  5
20
100
AcDbSymbolTableRecord
100
AcDbLinetypeTableRecord
  2
CENTERX2
 70
        64
  3
Center (2x) ________  __  ________  __  _____
 72
        65
 73
         4
 40
20.32
 49
12.7
 74
         0
 49
-2.54
 74
         0
 49
2.54
 74
         0
 49
-2.54
 74
         0
  0
LTYPE
  5
21
100
AcDbSymbolTableRecord
100
AcDbLinetypeTableRecord
  2
DOT2
 70
        64
  3
Dot (.5x) ........................................
 72
        65
 73
         2
 40
0.635
 49
0.0
 74
         0
 49
-0.635
 74
         0
  0
ENDTAB
  0
TABLE
  2
LAYER
  5
2
100
AcDbSymbolTable
 70
         2
  0
LAYER
  5
14
100
AcDbSymbolTableRecord
100
AcDbLayerTableRecord
  2
0
 70
         0
 62
         7
  6
CONTINUOUS
  0
LAYER
  5
23
100
AcDbSymbolTableRecord
100
AcDbLayerTableRecord
  2
DEFPOINTS
 70
         0
 62
         7
  6
CONTINUOUS
  0
ENDTAB
  0
TABLE
  2
STYLE
  5
3
100
AcDbSymbolTable
 70
         2
  0
STYLE
  5
17
100
AcDbSymbolTableRecord
100
AcDbTextStyleTableRecord
  2
STANDARD
 70
         0
 40
0.0
 41
1.0
 50
0.0
 71
         0
 42
0.0
  3
txt
  4

  0
STYLE
  5
26
100
AcDbSymbolTableRecord
100
AcDbTextStyleTableRecord
  2
SLDTEXTSTYLE0
 70
         0
 40
0.0
 41
0.75
 50
0.0
 71
         0
 42
0.0
  3
TXT
  4

  0
ENDTAB
  0
TABLE
  2
VIEW
  5
5
100
AcDbSymbolTable
 70
         0
  0
ENDTAB
  0
TABLE
  2
UCS
  5
6
100
AcDbSymbolTable
 70
         0
  0
ENDTAB
  0
TABLE
  2
APPID
  5
8
100
AcDbSymbolTable
 70
         1
  0
APPID
  5
16
100
AcDbSymbolTableRecord
100
AcDbRegAppTableRecord
  2
ACAD
 70
         0
  0
ENDTAB
  0
TABLE
  2
DIMSTYLE
  5
9
100
AcDbSymbolTable
 70
         2
  0
DIMSTYLE
105
18
100
AcDbSymbolTableRecord
100
AcDbDimStyleTableRecord
  2
STANDARD
 70
         0
  3

  4

  5

  6

  7

 40
1.0
 41
0.18
 42
0.0625
 43
0.38
 44
0.18
 45
0.0
 46
0.0
 47
0.0
 48
0.0
 71
         0
 72
         0
 73
         1
 74
         1
 75
         0
 76
         0
 77
         0
 78
         0
140
0.18
141
0.09
142
0.0
143
25.4
144
1.0
145
0.0
146
1.0
147
0.09
170
         0
171
         2
172
         0
173
         0
174
         0
175
         0
176
         0
177
         0
178
         0
270
         2
271
         4
272
         4
273
         2
274
         2
275
         0
280
         0
281
         0
282
         0
283
         1
284
         0
285
         0
286
         0
287
         3
288
         0
340
17
  0
DIMSTYLE
105
2FF
100
AcDbSymbolTableRecord
100
AcDbDimStyleTableRecord
  2
SLDDIMSTYLE0
 70
         0
  3

  4

  5

  6

  7

 40
1.0
 41
2.5
 42
0.0625
 43
0.38
 44
1.0
 45
0.0
 46
0.0
 47
0.0
 48
0.0
 71
         1
 72
         0
 73
         0
 74
         0
 75
         0
 76
         0
 77
         2
 78
        12
140
3.5
141
0.09
142
0.0
143
25.4
144
1.0
145
0.0
146
1.0
147
0.875
170
         0
171
         2
172
         0
173
         1
174
         0
175
         0
176
         7
177
         7
178
         7
270
         2
271
         4
272
         2
273
         2
274
         2
275
         0
280
         0
281
         0
282
         0
283
         1
284
        12
285
         0
286
         0
287
         3
288
         0
340
26
  0
ENDTAB
  0
TABLE
  2
BLOCK_RECORD
  5
1
100
AcDbSymbolTable
 70
        12
  0
BLOCK_RECORD
  5
A
100
AcDbSymbolTableRecord
100
AcDbBlockTableRecord
  2
*MODEL_SPACE
  0
BLOCK_RECORD
  5
B
100
AcDbSymbolTableRecord
100
AcDbBlockTableRecord
  2
*PAPER_SPACE
  0
BLOCK_RECORD
  5
24
100
AcDbSymbolTableRecord
100
AcDbBlockTableRecord
  2
DETAILELEMENT79
  0
BLOCK_RECORD
  5
29
100
AcDbSymbolTableRecord
100
AcDbBlockTableRecord
  2
DIN_9830_GüTEGRAT_F
  0
BLOCK_RECORD
  5
36
100
AcDbSymbolTableRecord
100
AcDbBlockTableRecord
  2
FLIETER-FIRMENSYMBOL-NEU
  0
BLOCK_RECORD
  5
1FD
100
AcDbSymbolTableRecord
100
AcDbBlockTableRecord
  2
FEHLENDE_MAßE_SIEHE_WERKN3
  0
BLOCK_RECORD
  5
2F7
100
AcDbSymbolTableRecord
100
AcDbBlockTableRecord
  2
*D4
  0
BLOCK_RECORD
  5
304
100
AcDbSymbolTableRecord
100
AcDbBlockTableRecord
  2
*D5
  0
BLOCK_RECORD
  5
310
100
AcDbSymbolTableRecord
100
AcDbBlockTableRecord
  2
*D6
  0
BLOCK_RECORD
  5
31C
100
AcDbSymbolTableRecord
100
AcDbBlockTableRecord
  2
*D7
  0
BLOCK_RECORD
  5
32E
100
AcDbSymbolTableRecord
100
AcDbBlockTableRecord
  2
CENTERMARK0
  0
BLOCK_RECORD
  5
338
100
AcDbSymbolTableRecord
100
AcDbBlockTableRecord
  2
SW_CENTERMARK0
  0
BLOCK_RECORD
  5
348
100
AcDbSymbolTableRecord
100
AcDbBlockTableRecord
  2
*D10
  0
BLOCK_RECORD
  5
354
100
AcDbSymbolTableRecord
100
AcDbBlockTableRecord
  2
*D11
  0
ENDTAB
  0
ENDSEC
  0
SECTION
  2
BLOCKS
  0
BLOCK
  5
D
100
AcDbEntity
  8
0
100
AcDbBlockBegin
  2
*MODEL_SPACE
 70
         0
 10
0.0
 20
0.0
 30
0.0
  3
*MODEL_SPACE
  1

  0
ENDBLK
  5
E
100
AcDbEntity
  8
0
100
AcDbBlockEnd
  0
BLOCK
  5
F
100
AcDbEntity
 67
         1
  8
0
100
AcDbBlockBegin
  2
*PAPER_SPACE
 70
         0
 10
0.0
 20
0.0
 30
0.0
  3
*PAPER_SPACE
  1

  0
ENDBLK
  5
10
100
AcDbEntity
 67
         1
  8
0
100
AcDbBlockEnd
  0
BLOCK
  5
25
100
AcDbEntity
  8
0
 62
         0
100
AcDbBlockBegin
  2
DETAILELEMENT79
 70
         2
 10
0.0
 20
0.0
 30
0.0
  3
DETAILELEMENT79
  1

  0
MTEXT
  5
27
100
AcDbEntity
  8
0
 62
         8
100
AcDbMText
 10
0.0476782573
 20
4.4629358378
 30
0.0
 40
3.5
 41
0.0
 71
         1
 72
         1
  1
Tolerierung nach ISO 8015
  7
SLDTEXTSTYLE0
  0
ENDBLK
  5
28
100
AcDbEntity
  8
0
100
AcDbBlockEnd
  0
BLOCK
  5
2A
100
AcDbEntity
  8
0
 62
         0
100
AcDbBlockBegin
  2
DIN_9830_GüTEGRAT_F
 70
         2
 10
0.0
 20
0.0
 30
0.0
  3
DIN_9830_GüTEGRAT_F
  1

  0
MTEXT
  5
2B
100
AcDbEntity
  8
0
 62
         8
100
AcDbMText
 10
6.6229103189
 20
14.9633207695
 30
0.0
 40
3.5
 41
0.0
 71
         1
 72
         1
  1
DIN 9830
  7
SLDTEXTSTYLE0
  0
MTEXT
  5
2C
100
AcDbEntity
  8
0
 62
         8
100
AcDbMText
 10
6.6229103189
 20
10.4633209632
 30
0.0
 40
3.5
 41
0.0
 71
         1
 72
         1
  1
Gütegrat f
  7
SLDTEXTSTYLE0
  0
LINE
  5
2D
100
AcDbEntity
  8
0
 62
         8
100
AcDbLine
 10
6.3522084386
 20
6.3627525771
 30
0.0
 11
3.9022084386
 21
3.9127525771
 31
0.0
  0
LINE
  5
2E
100
AcDbEntity
  8
0
  6
CONTINUOUS
 62
         7
100
AcDbLine
 10
2.6022084386
 20
2.6127525771
 30
0.0
 11
4.2972084386
 21
3.5377525771
 31
0.0
  0
LINE
  5
2F
100
AcDbEntity
  8
0
  6
CONTINUOUS
 62
         7
100
AcDbLine
 10
4.2972084386
 20
3.5377525771
 30
0.0
 11
3.3947084386
 21
4.3077525771
 31
0.0
  0
LINE
  5
30
100
AcDbEntity
  8
0
  6
CONTINUOUS
 62
         7
100
AcDbLine
 10
3.3947084386
 20
4.3077525771
 30
0.0
 11
2.6022084386
 21
2.6127525771
 31
0.0
  0
LINE
  5
31
100
AcDbEntity
  8
0
  6
CONTINUOUS
 62
         7
100
AcDbLine
 10
6.1143468591
 20
9.9589740509
 30
0.0
 11
6.1143468591
 21
5.9753844305
 31
0.0
  0
LINE
  5
32
100
AcDbEntity
  8
0
  6
CONTINUOUS
 62
         7
100
AcDbLine
 10
6.1143468591
 20
5.9753844305
 30
0.0
 11
9.9126532413
 21
5.9753844305
 31
0.0
  0
LINE
  5
33
100
AcDbEntity
  8
0
  6
CONTINUOUS
 62
         7
100
AcDbLine
 10
0.0
 20
3.12030812
 30
0.0
 11
3.2479217299
 21
3.12030812
 31
0.0
  0
LINE
  5
34
100
AcDbEntity
  8
0
  6
CONTINUOUS
 62
         7
100
AcDbLine
 10
3.2479217299
 20
3.12030812
 30
0.0
 11
3.2479217299
 21
0.0
 31
0.0
  0
ENDBLK
  5
35
100
AcDbEntity
  8
0
100
AcDbBlockEnd
  0
BLOCK
  5
37
100
AcDbEntity
  8
0
 62
         0
100
AcDbBlockBegin
  2
FLIETER-FIRMENSYMBOL-NEU
 70
         2
 10
0.0
 20
0.0
 30
0.0
  3
FLIETER-FIRMENSYMBOL-NEU
  1

  0
MTEXT
  5
38
100
AcDbEntity
  8
0
 62
         8
100
AcDbMText
 10
0.007020046
 20
6.3212732094
 30
0.0
 40
1.8
 41
0.0
 71
         1
 72
         1
  1
Karl Fliether GmbH & Co
  7
SLDTEXTSTYLE0
  0
MTEXT
  5
39
100
AcDbEntity
  8
0
 62
         8
100
AcDbMText
 10
7.1378922185
 20
2.786689045
 30
0.0
 40
1.8
 41
0.0
 71
         1
 72
         1
  1
42551 Velbert
  7
SLDTEXTSTYLE0
  0
LINE
  5
3A
100
AcDbEntity
  8
0
  6
CONTINUOUS
 62
         7
100
AcDbLine
 10
2.3236781774
 20
13.3993273934
 30
0.0
 11
1.8485573223
 21
12.9242065382
 31
0.0
  0
LINE
  5
3B
100
AcDbEntity
  8
0
  6
CONTINUOUS
 62
         7
100
AcDbLine
 10
2.4913416654
 20
13.4173199461
 30
0.0
 11
1.8270759393
 21
12.75305422
 31
0.0
  0
LINE
  5
3C
100
AcDbEntity
  8
0
  6
CONTINUOUS
 62
         7
100
AcDbLine
 10
2.6410126008
 20
13.4173199461
 30
0.0
 11
1.8276717801
 21
12.6039791254
 31
0.0
  0
LINE
  5
3D
100
AcDbEntity
  8
0
  6
CONTINUOUS
 62
         7
100
AcDbLine
 10
2.7906835361
 20
13.4173199461
 30
0.0
 11
1.8276717801
 21
12.4543081901
 31
0.0
  0
LINE
  5
3E
100
AcDbEntity
  8
0
  6
CONTINUOUS
 62
         7
100
AcDbLine
 10
2.9403544715
 20
13.4173199461
 30
0.0
 11
1.8276717801
 21
12.3046372547
 31
0.0
  0
LINE
  5
3F
100
AcDbEntity
  8
0
  6
CONTINUOUS
 62
         7
100
AcDbLine
 10
3.0900254068
 20
13.4173199461
 30
0.0
 11
1.8276717801
 21
12.1549663194
 31
0.0
  0
LINE
  5
40
100
AcDbEntity
  8
0
  6
CONTINUOUS
 62
         7
100
AcDbLine
 10
3.2396963422
 20
13.4173199461
 30
0.0
 11
1.8276717801
 21
12.005295384
 31
0.0
  0
LINE
  5
41
100
AcDbEntity
  8
0
  6
CONTINUOUS
 62
         7
100
AcDbLine
 10
3.3893672775
 20
13.4173199461
 30
0.0
 11
1.8276717801
 21
11.8556244487
 31
0.0
  0
LINE
  5
42
100
AcDbEntity
  8
0
  6
CONTINUOUS
 62
         7
100
AcDbLine
 10
3.4475675141
 20
13.3258492473
 30
0.0
 11
1.8276717801
 21
11.7059535133
 31
0.0
  0
LINE
  5
43
100
AcDbEntity
  8
0
  6
CONTINUOUS
 62
         7
100
AcDbLine
 10
3.4469287406
 20
13.1755395385
 30
0.0
 11
1.8276717801
 21
11.556282578
 31
0.0
  0
LINE
  5
44
100
AcDbEntity
  8
0
  6
CONTINUOUS
 62
         7
100
AcDbLine
 10
3.4462899671
 20
13.0252298296
 30
0.0
 11
1.8276717801
 21
11.4066116426
 31
0.0
  0
LINE
  5
45
100
AcDbEntity
  8
0
  6
CONTINUOUS
 62
         7
100
AcDbLine
 10
3.4456511937
 20
12.8749201208
 30
0.0
 11
1.8276717801
 21
11.2569407073
 31
0.0
  0
LINE
  5
46
100
AcDbEntity
  8
0
  6
CONTINUOUS
 62
         7
100
AcDbLine
 10
3.4450124202
 20
12.7246104119
 30
0.0
 11
1.8276717801
 21
11.1072697719
 31
0.0
  0
LINE
  5
47
100
AcDbEntity
  8
0
  6
CONTINUOUS
 62
         7
100
AcDbLine
 10
3.4443736467
 20
12.5743007031
 30
0.0
 11
1.8276717801
 21
10.9575988366
 31
0.0
  0
LINE
  5
48
100
AcDbEntity
  8
0
  6
CONTINUOUS
 62
         7
100
AcDbLine
 10
3.4437348732
 20
12.4239909943
 30
0.0
 11
1.8276717801
 21
10.8079279012
 31
0.0
  0
LINE
  5
49
100
AcDbEntity
  8
0
  6
CONTINUOUS
 62
         7
100
AcDbLine
 10
3.4430960997
 20
12.2736812854
 30
0.0
 11
1.8276717801
 21
10.6582569659
 31
0.0
  0
LINE
  5
4A
100
AcDbEntity
  8
0
  6
CONTINUOUS
 62
         7
100
AcDbLine
 10
3.4424573262
 20
12.1233715766
 30
0.0
 11
1.8276717801
 21
10.5085860305
 31
0.0
  0
LINE
  5
4B
100
AcDbEntity
  8
0
  6
CONTINUOUS
 62
         7
100
AcDbLine
 10
3.4418185528
 20
11.9730618678
 30
0.0
 11
1.8276717801
 21
10.3589150951
 31
0.0
  0
LINE
  5
4C
100
AcDbEntity
  8
0
  6
CONTINUOUS
 62
         7
100
AcDbLine
 10
3.4411797793
 20
11.8227521589
 30
0.0
 11
1.8276717801
 21
10.2092441598
 31
0.0
  0
LINE
  5
4D
100
AcDbEntity
  8
0
  6
CONTINUOUS
 62
         7
100
AcDbLine
 10
3.4405410058
 20
11.6724424501
 30
0.0
 11
1.8276717801
 21
10.0595732244
 31
0.0
  0
LINE
  5
4E
100
AcDbEntity
  8
0
  6
CONTINUOUS
 62
         7
100
AcDbLine
 10
3.4399022323
 20
11.5221327413
 30
0.0
 11
1.8276717801
 21
9.9099022891
 31
0.0
  0
LINE
  5
4F
100
AcDbEntity
  8
0
  6
CONTINUOUS
 62
         7
100
AcDbLine
 10
5.3231369698
 20
13.4053674788
 30
0.0
 11
5.2301203527
 21
13.3123508617
 31
0.0
  0
LINE
  5
50
100
AcDbEntity
  8
0
  6
CONTINUOUS
 62
         7
100
AcDbLine
 10
3.4392634588
 20
11.3718230324
 30
0.0
 11
1.8276717801
 21
9.7602313537
 31
0.0
  0
LINE
  5
51
100
AcDbEntity
  8
0
  6
CONTINUOUS
 62
         7
100
AcDbLine
 10
5.472174538
 20
13.4047341116
 30
0.0
 11
4.9733680571
 21
12.9059276307
 31
0.0
  0
LINE
  5
52
100
AcDbEntity
  8
0
  6
CONTINUOUS
 62
         7
100
AcDbLine
 10
3.4998548328
 20
11.2827434711
 30
0.0
 11
1.8276717801
 21
9.6105604184
 31
0.0
  0
LINE
  5
53
100
AcDbEntity
  8
0
  6
CONTINUOUS
 62
         7
100
AcDbLine
 10
5.6212121061
 20
13.4041007443
 30
0.0
 11
4.7166157614
 21
12.4995043996
 31
0.0
  0
LINE
  5
54
100
AcDbEntity
  8
0
  6
CONTINUOUS
 62
         7
100
AcDbLine
 10
3.6488924009
 20
11.2821101038
 30
0.0
 11
1.8276717801
 21
9.460889483
 31
0.0
  0
LINE
  5
55
100
AcDbEntity
  8
0
  6
CONTINUOUS
 62
         7
100
AcDbLine
 10
5.7702496742
 20
13.4034673771
 30
0.0
 11
4.4598634657
 21
12.0930811686
 31
0.0
  0
LINE
  5
56
100
AcDbEntity
  8
0
  6
CONTINUOUS
 62
         7
100
AcDbLine
 10
3.797929969
 20
11.2814767366
 30
0.0
 11
1.8276717801
 21
9.3112185477
 31
0.0
  0
LINE
  5
57
100
AcDbEntity
  8
0
  6
CONTINUOUS
 62
         7
100
AcDbLine
 10
5.9192872423
 20
13.4028340098
 30
0.0
 11
4.20311117
 21
11.6866579376
 31
0.0
  0
LINE
  5
58
100
AcDbEntity
  8
0
  6
CONTINUOUS
 62
         7
100
AcDbLine
 10
6.0683248104
 20
13.4022006426
 30
0.0
 11
1.8276717801
 21
9.1615476123
 31
0.0
  0
LINE
  5
59
100
AcDbEntity
  8
0
  6
CONTINUOUS
 62
         7
100
AcDbLine
 10
6.2173623785
 20
13.4015672753
 30
0.0
 11
1.8276717801
 21
9.011876677
 31
0.0
  0
LINE
  5
5A
100
AcDbEntity
  8
0
  6
CONTINUOUS
 62
         7
100
AcDbLine
 10
6.3663999466
 20
13.4009339081
 30
0.0
 11
1.8276717801
 21
8.8622057416
 31
0.0
  0
LINE
  5
5B
100
AcDbEntity
  8
0
  6
CONTINUOUS
 62
         7
100
AcDbLine
 10
6.5154375147
 20
13.4003005408
 30
0.0
 11
1.8276717801
 21
8.7125348063
 31
0.0
  0
LINE
  5
5C
100
AcDbEntity
  8
0
  6
CONTINUOUS
 62
         7
100
AcDbLine
 10
6.6644750828
 20
13.3996671736
 30
0.0
 11
1.8276717801
 21
8.5628638709
 31
0.0
  0
LINE
  5
5D
100
AcDbEntity
  8
0
  6
CONTINUOUS
 62
         7
100
AcDbLine
 10
6.8135126509
 20
13.3990338063
 30
0.0
 11
1.8258744085
 21
8.411395564
 31
0.0
  0
LINE
  5
5E
100
AcDbEntity
  8
0
  6
CONTINUOUS
 62
         7
100
AcDbLine
 10
3.432875724
 20
9.8687259441
 30
0.0
 11
1.8427641679
 21
8.278614388
 31
0.0
  0
LINE
  5
5F
100
AcDbEntity
  8
0
  6
CONTINUOUS
 62
         7
100
AcDbLine
 10
6.962550219
 20
13.3984004391
 30
0.0
 11
3.5573744231
 21
9.9932246432
 31
0.0
  0
LINE
  5
60
100
AcDbEntity
  8
0
  6
CONTINUOUS
 62
         7
100
AcDbLine
 10
3.4322369505
 20
9.7184162353
 30
0.0
 11
1.8795725798
 21
8.1657518646
 31
0.0
  0
LINE
  5
61
100
AcDbEntity
  8
0
  6
CONTINUOUS
 62
         7
100
AcDbLine
 10
7.1115877871
 20
13.3977670718
 30
0.0
 11
3.7064119912
 21
9.9925912759
 31
0.0
  0
LINE
  5
62
100
AcDbEntity
  8
0
  6
CONTINUOUS
 62
         7
100
AcDbLine
 10
3.431598177
 20
9.5681065264
 30
0.0
 11
1.9313635129
 21
8.0678718623
 31
0.0
  0
LINE
  5
63
100
AcDbEntity
  8
0
  6
CONTINUOUS
 62
         7
100
AcDbLine
 10
7.1600679895
 20
13.2965763389
 30
0.0
 11
3.8554495593
 21
9.9919579087
 31
0.0
  0
LINE
  5
64
100
AcDbEntity
  8
0
  6
CONTINUOUS
 62
         7
100
AcDbLine
 10
3.4309594035
 20
9.4177968176
 30
0.0
 11
1.9959423747
 21
7.9827797888
 31
0.0
  0
LINE
  5
65
100
AcDbEntity
  8
0
  6
CONTINUOUS
 62
         7
100
AcDbLine
 10
6.8238251016
 20
12.8106625156
 30
0.0
 11
3.9612221434
 21
9.9480595574
 31
0.0
  0
LINE
  5
66
100
AcDbEntity
  8
0
  6
CONTINUOUS
 62
         7
100
AcDbLine
 10
3.4303206301
 20
9.2674871088
 30
0.0
 11
2.0724736758
 21
7.9096401545
 31
0.0
  0
LINE
  5
67
100
AcDbEntity
  8
0
  6
CONTINUOUS
 62
         7
100
AcDbLine
 10
6.4875822137
 20
12.3247486924
 30
0.0
 11
4.0198400654
 21
9.8570065441
 31
0.0
  0
LINE
  5
68
100
AcDbEntity
  8
0
  6
CONTINUOUS
 62
         7
100
AcDbLine
 10
3.4296818566
 20
9.1171773999
 30
0.0
 11
2.1610902825
 21
7.8485858258
 31
0.0
  0
LINE
  5
69
100
AcDbEntity
  8
0
  6
CONTINUOUS
 62
         7
100
AcDbLine
 10
6.1513393258
 20
11.8388348691
 30
0.0
 11
4.0784579874
 21
9.7659535307
 31
0.0
  0
LINE
  5
6A
100
AcDbEntity
  8
0
  6
CONTINUOUS
 62
         7
100
AcDbLine
 10
3.4290430831
 20
8.9668676911
 30
0.0
 11
2.2629510649
 21
7.8007756729
 31
0.0
  0
LINE
  5
6B
100
AcDbEntity
  8
0
  6
CONTINUOUS
 62
         7
100
AcDbLine
 10
5.8150964378
 20
11.3529210458
 30
0.0
 11
4.1370759094
 21
9.6749005174
 31
0.0
  0
LINE
  5
6C
100
AcDbEntity
  8
0
  6
CONTINUOUS
 62
         7
100
AcDbLine
 10
3.4284043096
 20
8.8165579823
 30
0.0
 11
2.3808169513
 21
7.768970624
 31
0.0
  0
LINE
  5
6D
100
AcDbEntity
  8
0
  6
CONTINUOUS
 62
         7
100
AcDbLine
 10
5.4788535499
 20
10.8670072225
 30
0.0
 11
4.1956938314
 21
9.583847504
 31
0.0
  0
LINE
  5
6E
100
AcDbEntity
  8
0
  6
CONTINUOUS
 62
         7
100
AcDbLine
 10
3.4277655361
 20
8.6662482734
 30
0.0
 11
2.5205668217
 21
7.759049559
 31
0.0
  0
LINE
  5
6F
100
AcDbEntity
  8
0
  6
CONTINUOUS
 62
         7
100
AcDbLine
 10
5.3542472842
 20
10.5927300214
 30
0.0
 11
4.2543117534
 21
9.4927944907
 31
0.0
  0
LINE
  5
70
100
AcDbEntity
  8
0
  6
CONTINUOUS
 62
         7
100
AcDbLine
 10
3.4271267626
 20
8.5159385646
 30
0.0
 11
2.670237757
 21
7.759049559
 31
0.0
  0
LINE
  5
71
100
AcDbEntity
  8
0
  6
CONTINUOUS
 62
         7
100
AcDbLine
 10
5.416492594
 20
10.505304396
 30
0.0
 11
4.3129296754
 21
9.4017414773
 31
0.0
  0
LINE
  5
72
100
AcDbEntity
  8
0
  6
CONTINUOUS
 62
         7
100
AcDbLine
 10
3.4264879892
 20
8.3656288557
 30
0.0
 11
2.8199086924
 21
7.759049559
 31
0.0
  0
LINE
  5
73
100
AcDbEntity
  8
0
  6
CONTINUOUS
 62
         7
100
AcDbLine
 10
5.4787379039
 20
10.4178787705
 30
0.0
 11
4.3715475974
 21
9.3106884639
 31
0.0
  0
LINE
  5
74
100
AcDbEntity
  8
0
  6
CONTINUOUS
 62
         7
100
AcDbLine
 10
3.4258492157
 20
8.2153191469
 30
0.0
 11
2.9695796277
 21
7.759049559
 31
0.0
  0
LINE
  5
75
100
AcDbEntity
  8
0
  6
CONTINUOUS
 62
         7
100
AcDbLine
 10
5.5409832138
 20
10.330453145
 30
0.0
 11
4.4301655193
 21
9.2196354506
 31
0.0
  0
LINE
  5
76
100
AcDbEntity
  8
0
  6
CONTINUOUS
 62
         7
100
AcDbLine
 10
3.4252104422
 20
8.0650094381
 30
0.0
 11
3.1192505631
 21
7.759049559
 31
0.0
  0
LINE
  5
77
100
AcDbEntity
  8
0
  6
CONTINUOUS
 62
         7
100
AcDbLine
 10
5.6032285237
 20
10.2430275196
 30
0.0
 11
4.4887834413
 21
9.1285824372
 31
0.0
  0
LINE
  5
78
100
AcDbEntity
  8
0
  6
CONTINUOUS
 62
         7
100
AcDbLine
 10
3.4245716687
 20
7.9146997292
 30
0.0
 11
3.2689214984
 21
7.759049559
 31
0.0
  0
LINE
  5
79
100
AcDbEntity
  8
0
  6
CONTINUOUS
 62
         7
100
AcDbLine
 10
5.6654738335
 20
10.1556018941
 30
0.0
 11
4.5474013633
 21
9.0375294239
 31
0.0
  0
LINE
  5
7A
100
AcDbEntity
  8
0
  6
CONTINUOUS
 62
         7
100
AcDbLine
 10
3.4239328952
 20
7.7643900204
 30
0.0
 11
3.4185924338
 21
7.759049559
 31
0.0
  0
LINE
  5
7B
100
AcDbEntity
  8
0
  6
CONTINUOUS
 62
         7
100
AcDbLine
 10
5.7277191434
 20
10.0681762686
 30
0.0
 11
4.6060192853
 21
8.9464764105
 31
0.0
  0
LINE
  5
7C
100
AcDbEntity
  8
0
  6
CONTINUOUS
 62
         7
100
AcDbLine
 10
5.7899644533
 20
9.9807506431
 30
0.0
 11
4.6646372073
 21
8.8554233972
 31
0.0
  0
LINE
  5
7D
100
AcDbEntity
  8
0
  6
CONTINUOUS
 62
         7
100
AcDbLine
 10
5.8522097632
 20
9.8933250177
 30
0.0
 11
4.7232551293
 21
8.7643703838
 31
0.0
  0
LINE
  5
7E
100
AcDbEntity
  8
0
  6
CONTINUOUS
 62
         7
100
AcDbLine
 10
5.9144550731
 20
9.8058993922
 30
0.0
 11
4.7818730513
 21
8.6733173704
 31
0.0
  0
LINE
  5
7F
100
AcDbEntity
  8
0
  6
CONTINUOUS
 62
         7
100
AcDbLine
 10
5.9767003829
 20
9.7184737667
 30
0.0
 11
4.8404909733
 21
8.5822643571
 31
0.0
  0
LINE
  5
80
100
AcDbEntity
  8
0
  6
CONTINUOUS
 62
         7
100
AcDbLine
 10
6.0389456928
 20
9.6310481412
 30
0.0
 11
4.8991088953
 21
8.4912113437
 31
0.0
  0
LINE
  5
81
100
AcDbEntity
  8
0
  6
CONTINUOUS
 62
         7
100
AcDbLine
 10
6.1011910027
 20
9.5436225158
 30
0.0
 11
4.9577268173
 21
8.4001583304
 31
0.0
  0
LINE
  5
82
100
AcDbEntity
  8
0
  6
CONTINUOUS
 62
         7
100
AcDbLine
 10
6.1634363126
 20
9.4561968903
 30
0.0
 11
5.0163447393
 21
8.309105317
 31
0.0
  0
LINE
  5
83
100
AcDbEntity
  8
0
  6
CONTINUOUS
 62
         7
100
AcDbLine
 10
6.2256816225
 20
9.3687712648
 30
0.0
 11
5.0749626613
 21
8.2180523037
 31
0.0
  0
LINE
  5
84
100
AcDbEntity
  8
0
  6
CONTINUOUS
 62
         7
100
AcDbLine
 10
6.2879269323
 20
9.2813456394
 30
0.0
 11
5.1335805833
 21
8.1269992903
 31
0.0
  0
LINE
  5
85
100
AcDbEntity
  8
0
  6
CONTINUOUS
 62
         7
100
AcDbLine
 10
6.3501722422
 20
9.1939200139
 30
0.0
 11
5.1921985053
 21
8.035946277
 31
0.0
  0
LINE
  5
86
100
AcDbEntity
  8
0
  6
CONTINUOUS
 62
         7
100
AcDbLine
 10
6.4124175521
 20
9.1064943884
 30
0.0
 11
5.2508164273
 21
7.9448932636
 31
0.0
  0
LINE
  5
87
100
AcDbEntity
  8
0
  6
CONTINUOUS
 62
         7
100
AcDbLine
 10
6.474662862
 20
9.0190687629
 30
0.0
 11
5.3094343493
 21
7.8538402502
 31
0.0
  0
LINE
  5
88
100
AcDbEntity
  8
0
  6
CONTINUOUS
 62
         7
100
AcDbLine
 10
6.5369081719
 20
8.9316431375
 30
0.0
 11
5.3680522713
 21
7.7627872369
 31
0.0
  0
LINE
  5
89
100
AcDbEntity
  8
0
  6
CONTINUOUS
 62
         7
100
AcDbLine
 10
6.5991534817
 20
8.844217512
 30
0.0
 11
5.5051408906
 21
7.7502049209
 31
0.0
  0
LINE
  5
8A
100
AcDbEntity
  8
0
  6
CONTINUOUS
 62
         7
100
AcDbLine
 10
6.6613987916
 20
8.7567918865
 30
0.0
 11
5.6541784587
 21
7.7495715536
 31
0.0
  0
LINE
  5
8B
100
AcDbEntity
  8
0
  6
CONTINUOUS
 62
         7
100
AcDbLine
 10
6.7236441015
 20
8.6693662611
 30
0.0
 11
5.8032160268
 21
7.7489381864
 31
0.0
  0
LINE
  5
8C
100
AcDbEntity
  8
0
  6
CONTINUOUS
 62
         7
100
AcDbLine
 10
6.7858894114
 20
8.5819406356
 30
0.0
 11
5.9522535949
 21
7.7483048191
 31
0.0
  0
LINE
  5
8D
100
AcDbEntity
  8
0
  6
CONTINUOUS
 62
         7
100
AcDbLine
 10
6.8481347212
 20
8.4945150101
 30
0.0
 11
6.101291163
 21
7.7476714519
 31
0.0
  0
LINE
  5
8E
100
AcDbEntity
  8
0
  6
CONTINUOUS
 62
         7
100
AcDbLine
 10
6.9103800311
 20
8.4070893846
 30
0.0
 11
6.2503287311
 21
7.7470380846
 31
0.0
  0
LINE
  5
8F
100
AcDbEntity
  8
0
  6
CONTINUOUS
 62
         7
100
AcDbLine
 10
6.972625341
 20
8.3196637592
 30
0.0
 11
6.3993662992
 21
7.7464047174
 31
0.0
  0
LINE
  5
90
100
AcDbEntity
  8
0
  6
CONTINUOUS
 62
         7
100
AcDbLine
 10
7.0348706509
 20
8.2322381337
 30
0.0
 11
6.5484038673
 21
7.7457713501
 31
0.0
  0
LINE
  5
91
100
AcDbEntity
  8
0
  6
CONTINUOUS
 62
         7
100
AcDbLine
 10
7.0971159608
 20
8.1448125082
 30
0.0
 11
6.6974414354
 21
7.7451379829
 31
0.0
  0
LINE
  5
92
100
AcDbEntity
  8
0
  6
CONTINUOUS
 62
         7
100
AcDbLine
 10
7.1593612706
 20
8.0573868827
 30
0.0
 11
6.8464790035
 21
7.7445046157
 31
0.0
  0
LINE
  5
93
100
AcDbEntity
  8
0
  6
CONTINUOUS
 62
         7
100
AcDbLine
 10
7.2216065805
 20
7.9699612573
 30
0.0
 11
6.9955165716
 21
7.7438712484
 31
0.0
  0
LINE
  5
94
100
AcDbEntity
  8
0
  6
CONTINUOUS
 62
         7
100
AcDbLine
 10
7.2838518904
 20
7.8825356318
 30
0.0
 11
7.1445541398
 21
7.7432378812
 31
0.0
  0
LINE
  5
95
100
AcDbEntity
  8
0
  6
CONTINUOUS
 62
         7
100
AcDbLine
 10
7.3460972003
 20
7.7951100063
 30
0.0
 11
7.2935917079
 21
7.7426045139
 31
0.0
  0
LINE
  5
96
100
AcDbEntity
  8
0
  6
CONTINUOUS
 62
         7
100
AcDbLine
 10
8.2678357609
 20
13.3566475628
 30
0.0
 11
7.9714284934
 21
13.0602402953
 31
0.0
  0
LINE
  5
97
100
AcDbEntity
  8
0
  6
CONTINUOUS
 62
         7
100
AcDbLine
 10
8.4759351446
 20
13.4150760111
 30
0.0
 11
7.9130000451
 21
12.8521409117
 31
0.0
  0
LINE
  5
98
100
AcDbEntity
  8
0
  6
CONTINUOUS
 62
         7
100
AcDbLine
 10
8.6278500148
 20
13.4173199461
 30
0.0
 11
7.9153497441
 21
12.7048196753
 31
0.0
  0
LINE
  5
99
100
AcDbEntity
  8
0
  6
CONTINUOUS
 62
         7
100
AcDbLine
 10
8.7775209502
 20
13.4173199461
 30
0.0
 11
7.9179034089
 21
12.5577024048
 31
0.0
  0
LINE
  5
9A
100
AcDbEntity
  8
0
  6
CONTINUOUS
 62
         7
100
AcDbLine
 10
8.9271918855
 20
13.4173199461
 30
0.0
 11
7.9179034089
 21
12.4080314695
 31
0.0
  0
LINE
  5
9B
100
AcDbEntity
  8
0
  6
CONTINUOUS
 62
         7
100
AcDbLine
 10
9.0768628209
 20
13.4173199461
 30
0.0
 11
7.9179034089
 21
12.2583605341
 31
0.0
  0
LINE
  5
9C
100
AcDbEntity
  8
0
  6
CONTINUOUS
 62
         7
100
AcDbLine
 10
9.2265337562
 20
13.4173199461
 30
0.0
 11
7.9179034089
 21
12.1086895988
 31
0.0
  0
LINE
  5
9D
100
AcDbEntity
  8
0
  6
CONTINUOUS
 62
         7
100
AcDbLine
 10
9.3762046916
 20
13.4173199461
 30
0.0
 11
7.9179034089
 21
11.9590186634
 31
0.0
  0
LINE
  5
9E
100
AcDbEntity
  8
0
  6
CONTINUOUS
 62
         7
100
AcDbLine
 10
9.5258756269
 20
13.4173199461
 30
0.0
 11
7.9179034089
 21
11.8093477281
 31
0.0
  0
LINE
  5
9F
100
AcDbEntity
  8
0
  6
CONTINUOUS
 62
         7
100
AcDbLine
 10
9.6755465623
 20
13.4173199461
 30
0.0
 11
7.9179034089
 21
11.6596767927
 31
0.0
  0
LINE
  5
A0
100
AcDbEntity
  8
0
  6
CONTINUOUS
 62
         7
100
AcDbLine
 10
9.8252174976
 20
13.4173199461
 30
0.0
 11
7.9179034089
 21
11.5100058574
 31
0.0
  0
LINE
  5
A1
100
AcDbEntity
  8
0
  6
CONTINUOUS
 62
         7
100
AcDbLine
 10
9.974888433
 20
13.4173199461
 30
0.0
 11
7.9179034089
 21
11.360334922
 31
0.0
  0
LINE
  5
A2
100
AcDbEntity
  8
0
  6
CONTINUOUS
 62
         7
100
AcDbLine
 10
10.1245593683
 20
13.4173199461
 30
0.0
 11
7.9179034089
 21
11.2106639867
 31
0.0
  0
LINE
  5
A3
100
AcDbEntity
  8
0
  6
CONTINUOUS
 62
         7
100
AcDbLine
 10
10.2742303037
 20
13.4173199461
 30
0.0
 11
7.9179034089
 21
11.0609930513
 31
0.0
  0
LINE
  5
A4
100
AcDbEntity
  8
0
  6
CONTINUOUS
 62
         7
100
AcDbLine
 10
10.4239012391
 20
13.4173199461
 30
0.0
 11
7.9179034089
 21
10.911322116
 31
0.0
  0
LINE
  5
A5
100
AcDbEntity
  8
0
  6
CONTINUOUS
 62
         7
100
AcDbLine
 10
10.5735721744
 20
13.4173199461
 30
0.0
 11
7.9179034089
 21
10.7616511806
 31
0.0
  0
LINE
  5
A6
100
AcDbEntity
  8
0
  6
CONTINUOUS
 62
         7
100
AcDbLine
 10
9.4957154337
 20
12.1897922701
 30
0.0
 11
7.9179034089
 21
10.6119802453
 31
0.0
  0
LINE
  5
A7
100
AcDbEntity
  8
0
  6
CONTINUOUS
 62
         7
100
AcDbLine
 10
10.7232431098
 20
13.4173199461
 30
0.0
 11
9.513791869
 21
12.2078687053
 31
0.0
  0
LINE
  5
A8
100
AcDbEntity
  8
0
  6
CONTINUOUS
 62
         7
100
AcDbLine
 10
9.4957154337
 20
12.0401213347
 30
0.0
 11
7.9179034089
 21
10.4623093099
 31
0.0
  0
LINE
  5
A9
100
AcDbEntity
  8
0
  6
CONTINUOUS
 62
         7
100
AcDbLine
 10
10.8729140451
 20
13.4173199461
 30
0.0
 11
9.6634628043
 21
12.2078687053
 31
0.0
  0
LINE
  5
AA
100
AcDbEntity
  8
0
  6
CONTINUOUS
 62
         7
100
AcDbLine
 10
9.4957154337
 20
11.8904503994
 30
0.0
 11
7.9179034089
 21
10.3126383746
 31
0.0
  0
LINE
  5
AB
100
AcDbEntity
  8
0
  6
CONTINUOUS
 62
         7
100
AcDbLine
 10
11.0225849805
 20
13.4173199461
 30
0.0
 11
9.8131337397
 21
12.2078687053
 31
0.0
  0
LINE
  5
AC
100
AcDbEntity
  8
0
  6
CONTINUOUS
 62
         7
100
AcDbLine
 10
9.4957154337
 20
11.740779464
 30
0.0
 11
7.9179034089
 21
10.1629674392
 31
0.0
  0
LINE
  5
AD
100
AcDbEntity
  8
0
  6
CONTINUOUS
 62
         7
100
AcDbLine
 10
11.1722559158
 20
13.4173199461
 30
0.0
 11
9.962804675
 21
12.2078687053
 31
0.0
  0
LINE
  5
AE
100
AcDbEntity
  8
0
  6
CONTINUOUS
 62
         7
100
AcDbLine
 10
9.4957154337
 20
11.5911085287
 30
0.0
 11
7.9179034089
 21
10.0132965039
 31
0.0
  0
LINE
  5
AF
100
AcDbEntity
  8
0
  6
CONTINUOUS
 62
         7
100
AcDbLine
 10
11.3219268512
 20
13.4173199461
 30
0.0
 11
10.1124756104
 21
12.2078687053
 31
0.0
  0
LINE
  5
B0
100
AcDbEntity
  8
0
  6
CONTINUOUS
 62
         7
100
AcDbLine
 10
9.4957154337
 20
11.4414375933
 30
0.0
 11
7.9179034089
 21
9.8636255685
 31
0.0
  0
LINE
  5
B1
100
AcDbEntity
  8
0
  6
CONTINUOUS
 62
         7
100
AcDbLine
 10
11.4715977865
 20
13.4173199461
 30
0.0
 11
10.2621465457
 21
12.2078687053
 31
0.0
  0
LINE
  5
B2
100
AcDbEntity
  8
0
  6
CONTINUOUS
 62
         7
100
AcDbLine
 10
9.4957154337
 20
11.2917666579
 30
0.0
 11
7.9179034089
 21
9.7139546331
 31
0.0
  0
LINE
  5
B3
100
AcDbEntity
  8
0
  6
CONTINUOUS
 62
         7
100
AcDbLine
 10
11.6212687219
 20
13.4173199461
 30
0.0
 11
10.4118174811
 21
12.2078687053
 31
0.0
  0
LINE
  5
B4
100
AcDbEntity
  8
0
  6
CONTINUOUS
 62
         7
100
AcDbLine
 10
9.4957154337
 20
11.1420957226
 30
0.0
 11
7.9179034089
 21
9.5642836978
 31
0.0
  0
LINE
  5
B5
100
AcDbEntity
  8
0
  6
CONTINUOUS
 62
         7
100
AcDbLine
 10
11.7709396572
 20
13.4173199461
 30
0.0
 11
10.5614884164
 21
12.2078687053
 31
0.0
  0
LINE
  5
B6
100
AcDbEntity
  8
0
  6
CONTINUOUS
 62
         7
100
AcDbLine
 10
9.563101575
 20
11.0598109285
 30
0.0
 11
7.9179034089
 21
9.4146127624
 31
0.0
  0
LINE
  5
B7
100
AcDbEntity
  8
0
  6
CONTINUOUS
 62
         7
100
AcDbLine
 10
11.9206105926
 20
13.4173199461
 30
0.0
 11
10.7111593518
 21
12.2078687053
 31
0.0
  0
LINE
  5
B8
100
AcDbEntity
  8
0
  6
CONTINUOUS
 62
         7
100
AcDbLine
 10
9.7127725103
 20
11.0598109285
 30
0.0
 11
7.9179034089
 21
9.2649418271
 31
0.0
  0
LINE
  5
B9
100
AcDbEntity
  8
0
  6
CONTINUOUS
 62
         7
100
AcDbLine
 10
12.0702815279
 20
13.4173199461
 30
0.0
 11
10.8608302871
 21
12.2078687053
 31
0.0
  0
LINE
  5
BA
100
AcDbEntity
  8
0
  6
CONTINUOUS
 62
         7
100
AcDbLine
 10
9.8624434457
 20
11.0598109285
 30
0.0
 11
7.9179034089
 21
9.1152708917
 31
0.0
  0
LINE
  5
BB
100
AcDbEntity
  8
0
  6
CONTINUOUS
 62
         7
100
AcDbLine
 10
12.1786098105
 20
13.3759772933
 30
0.0
 11
11.0105012225
 21
12.2078687053
 31
0.0
  0
LINE
  5
BC
100
AcDbEntity
  8
0
  6
CONTINUOUS
 62
         7
100
AcDbLine
 10
10.012114381
 20
11.0598109285
 30
0.0
 11
7.9179034089
 21
8.9655999564
 31
0.0
  0
LINE
  5
BD
100
AcDbEntity
  8
0
  6
CONTINUOUS
 62
         7
100
AcDbLine
 10
12.1786098105
 20
13.226306358
 30
0.0
 11
11.1601721578
 21
12.2078687053
 31
0.0
  0
LINE
  5
BE
100
AcDbEntity
  8
0
  6
CONTINUOUS
 62
         7
100
AcDbLine
 10
10.1617853164
 20
11.0598109285
 30
0.0
 11
7.9179034089
 21
8.815929021
 31
0.0
  0
LINE
  5
BF
100
AcDbEntity
  8
0
  6
CONTINUOUS
 62
         7
100
AcDbLine
 10
12.1786098105
 20
13.0766354226
 30
0.0
 11
11.3098430932
 21
12.2078687053
 31
0.0
  0
LINE
  5
C0
100
AcDbEntity
  8
0
  6
CONTINUOUS
 62
         7
100
AcDbLine
 10
10.3114562517
 20
11.0598109285
 30
0.0
 11
7.9179034089
 21
8.6662580857
 31
0.0
  0
LINE
  5
C1
100
AcDbEntity
  8
0
  6
CONTINUOUS
 62
         7
100
AcDbLine
 10
12.1786098105
 20
12.9269644873
 30
0.0
 11
11.4595140285
 21
12.2078687053
 31
0.0
  0
LINE
  5
C2
100
AcDbEntity
  8
0
  6
CONTINUOUS
 62
         7
100
AcDbLine
 10
10.4611271871
 20
11.0598109285
 30
0.0
 11
7.9179034089
 21
8.5165871503
 31
0.0
  0
LINE
  5
C3
100
AcDbEntity
  8
0
  6
CONTINUOUS
 62
         7
100
AcDbLine
 10
12.1786098105
 20
12.7772935519
 30
0.0
 11
11.6091849639
 21
12.2078687053
 31
0.0
  0
LINE
  5
C4
100
AcDbEntity
  8
0
  6
CONTINUOUS
 62
         7
100
AcDbLine
 10
10.6107981224
 20
11.0598109285
 30
0.0
 11
7.9179034089
 21
8.366916215
 31
0.0
  0
LINE
  5
C5
100
AcDbEntity
  8
0
  6
CONTINUOUS
 62
         7
100
AcDbLine
 10
12.1786098105
 20
12.6276226166
 30
0.0
 11
11.7588558992
 21
12.2078687053
 31
0.0
  0
LINE
  5
C6
100
AcDbEntity
  8
0
  6
CONTINUOUS
 62
         7
100
AcDbLine
 10
9.4957154337
 20
9.7950573044
 30
0.0
 11
7.9179034089
 21
8.2172452796
 31
0.0
  0
LINE
  5
C7
100
AcDbEntity
  8
0
  6
CONTINUOUS
 62
         7
100
AcDbLine
 10
10.7604690578
 20
11.0598109285
 30
0.0
 11
9.551017817
 21
9.8503596877
 31
0.0
  0
LINE
  5
C8
100
AcDbEntity
  8
0
  6
CONTINUOUS
 62
         7
100
AcDbLine
 10
12.1786098105
 20
12.4779516812
 30
0.0
 11
11.9085268346
 21
12.2078687053
 31
0.0
  0
LINE
  5
C9
100
AcDbEntity
  8
0
  6
CONTINUOUS
 62
         7
100
AcDbLine
 10
9.4957154337
 20
9.6453863691
 30
0.0
 11
7.9179034089
 21
8.0675743443
 31
0.0
  0
LINE
  5
CA
100
AcDbEntity
  8
0
  6
CONTINUOUS
 62
         7
100
AcDbLine
 10
10.9101399931
 20
11.0598109285
 30
0.0
 11
9.7006887523
 21
9.8503596877
 31
0.0
  0
LINE
  5
CB
100
AcDbEntity
  8
0
  6
CONTINUOUS
 62
         7
100
AcDbLine
 10
12.1786098105
 20
12.3282807459
 30
0.0
 11
12.0581977699
 21
12.2078687053
 31
0.0
  0
LINE
  5
CC
100
AcDbEntity
  8
0
  6
CONTINUOUS
 62
         7
100
AcDbLine
 10
9.4957154337
 20
9.4957154337
 30
0.0
 11
7.9179034089
 21
7.9179034089
 31
0.0
  0
LINE
  5
CD
100
AcDbEntity
  8
0
  6
CONTINUOUS
 62
         7
100
AcDbLine
 10
11.0598109285
 20
11.0598109285
 30
0.0
 11
9.8503596877
 21
9.8503596877
 31
0.0
  0
LINE
  5
CE
100
AcDbEntity
  8
0
  6
CONTINUOUS
 62
         7
100
AcDbLine
 10
9.4957154337
 20
9.3460444984
 30
0.0
 11
7.9179034089
 21
7.7682324736
 31
0.0
  0
LINE
  5
CF
100
AcDbEntity
  8
0
  6
CONTINUOUS
 62
         7
100
AcDbLine
 10
11.2094818638
 20
11.0598109285
 30
0.0
 11
10.000030623
 21
9.8503596877
 31
0.0
  0
LINE
  5
D0
100
AcDbEntity
  8
0
  6
CONTINUOUS
 62
         7
100
AcDbLine
 10
9.4957154337
 20
9.196373563
 30
0.0
 11
8.0623237824
 21
7.7629819117
 31
0.0
  0
LINE
  5
D1
100
AcDbEntity
  8
0
  6
CONTINUOUS
 62
         7
100
AcDbLine
 10
11.3591527992
 20
11.0598109285
 30
0.0
 11
10.1497015584
 21
9.8503596877
 31
0.0
  0
LINE
  5
D2
100
AcDbEntity
  8
0
  6
CONTINUOUS
 62
         7
100
AcDbLine
 10
9.4957154337
 20
9.0467026277
 30
0.0
 11
8.2119947177
 21
7.7629819117
 31
0.0
  0
LINE
  5
D3
100
AcDbEntity
  8
0
  6
CONTINUOUS
 62
         7
100
AcDbLine
 10
11.5088237345
 20
11.0598109285
 30
0.0
 11
10.2993724937
 21
9.8503596877
 31
0.0
  0
LINE
  5
D4
100
AcDbEntity
  8
0
  6
CONTINUOUS
 62
         7
100
AcDbLine
 10
9.4957154337
 20
8.8970316923
 30
0.0
 11
8.3616656531
 21
7.7629819117
 31
0.0
  0
LINE
  5
D5
100
AcDbEntity
  8
0
  6
CONTINUOUS
 62
         7
100
AcDbLine
 10
11.6584946699
 20
11.0598109285
 30
0.0
 11
10.4490434291
 21
9.8503596877
 31
0.0
  0
LINE
  5
D6
100
AcDbEntity
  8
0
  6
CONTINUOUS
 62
         7
100
AcDbLine
 10
9.4957154337
 20
8.747360757
 30
0.0
 11
8.5113365884
 21
7.7629819117
 31
0.0
  0
LINE
  5
D7
100
AcDbEntity
  8
0
  6
CONTINUOUS
 62
         7
100
AcDbLine
 10
11.8081656052
 20
11.0598109285
 30
0.0
 11
10.5987143644
 21
9.8503596877
 31
0.0
  0
LINE
  5
D8
100
AcDbEntity
  8
0
  6
CONTINUOUS
 62
         7
100
AcDbLine
 10
9.4957154337
 20
8.5976898216
 30
0.0
 11
8.6610075238
 21
7.7629819117
 31
0.0
  0
LINE
  5
D9
100
AcDbEntity
  8
0
  6
CONTINUOUS
 62
         7
100
AcDbLine
 10
11.9578365406
 20
11.0598109285
 30
0.0
 11
10.7483852998
 21
9.8503596877
 31
0.0
  0
LINE
  5
DA
100
AcDbEntity
  8
0
  6
CONTINUOUS
 62
         7
100
AcDbLine
 10
9.4957154337
 20
8.4480188863
 30
0.0
 11
8.8106784591
 21
7.7629819117
 31
0.0
  0
LINE
  5
DB
100
AcDbEntity
  8
0
  6
CONTINUOUS
 62
         7
100
AcDbLine
 10
11.9760113793
 20
10.9283148319
 30
0.0
 11
10.8980562351
 21
9.8503596877
 31
0.0
  0
LINE
  5
DC
100
AcDbEntity
  8
0
  6
CONTINUOUS
 62
         7
100
AcDbLine
 10
9.4957154337
 20
8.2983479509
 30
0.0
 11
8.9603493945
 21
7.7629819117
 31
0.0
  0
LINE
  5
DD
100
AcDbEntity
  8
0
  6
CONTINUOUS
 62
         7
100
AcDbLine
 10
11.9760113793
 20
10.7786438965
 30
0.0
 11
11.0477271705
 21
9.8503596877
 31
0.0
  0
LINE
  5
DE
100
AcDbEntity
  8
0
  6
CONTINUOUS
 62
         7
100
AcDbLine
 10
9.4957154337
 20
8.1486770156
 30
0.0
 11
9.1100203298
 21
7.7629819117
 31
0.0
  0
LINE
  5
DF
100
AcDbEntity
  8
0
  6
CONTINUOUS
 62
         7
100
AcDbLine
 10
11.9760113793
 20
10.6289729612
 30
0.0
 11
11.1973981058
 21
9.8503596877
 31
0.0
  0
LINE
  5
E0
100
AcDbEntity
  8
0
  6
CONTINUOUS
 62
         7
100
AcDbLine
 10
9.4957154337
 20
7.9990060802
 30
0.0
 11
9.2596912652
 21
7.7629819117
 31
0.0
  0
LINE
  5
E1
100
AcDbEntity
  8
0
  6
CONTINUOUS
 62
         7
100
AcDbLine
 10
11.9760113793
 20
10.4793020258
 30
0.0
 11
11.3470690412
 21
9.8503596877
 31
0.0
  0
LINE
  5
E2
100
AcDbEntity
  8
0
  6
CONTINUOUS
 62
         7
100
AcDbLine
 10
9.4957154337
 20
7.8493351449
 30
0.0
 11
9.4093622005
 21
7.7629819117
 31
0.0
  0
LINE
  5
E3
100
AcDbEntity
  8
0
  6
CONTINUOUS
 62
         7
100
AcDbLine
 10
11.9760113793
 20
10.3296310905
 30
0.0
 11
11.4967399765
 21
9.8503596877
 31
0.0
  0
LINE
  5
E4
100
AcDbEntity
  8
0
  6
CONTINUOUS
 62
         7
100
AcDbLine
 10
11.9760113793
 20
10.1799601551
 30
0.0
 11
11.6464109119
 21
9.8503596877
 31
0.0
  0
LINE
  5
E5
100
AcDbEntity
  8
0
  6
CONTINUOUS
 62
         7
100
AcDbLine
 10
11.9760113793
 20
10.0302892198
 30
0.0
 11
11.7960818472
 21
9.8503596877
 31
0.0
  0
LINE
  5
E6
100
AcDbEntity
  8
0
  6
CONTINUOUS
 62
         7
100
AcDbLine
 10
11.9760113793
 20
9.8806182844
 30
0.0
 11
11.9457527826
 21
9.8503596877
 31
0.0
  0
LINE
  5
E7
100
AcDbEntity
  8
0
  6
CONTINUOUS
 62
         7
100
AcDbLine
 10
12.6689652693
 20
13.4173199461
 30
0.0
 11
12.6041994549
 21
13.3525541317
 31
0.0
  0
LINE
  5
E8
100
AcDbEntity
  8
0
  6
CONTINUOUS
 62
         7
100
AcDbLine
 10
12.8186362047
 20
13.4173199461
 30
0.0
 11
12.6388888123
 21
13.2375725537
 31
0.0
  0
LINE
  5
E9
100
AcDbEntity
  8
0
  6
CONTINUOUS
 62
         7
100
AcDbLine
 10
12.96830714
 20
13.4173199461
 30
0.0
 11
12.6735781697
 21
13.1225909758
 31
0.0
  0
LINE
  5
EA
100
AcDbEntity
  8
0
  6
CONTINUOUS
 62
         7
100
AcDbLine
 10
13.1179780754
 20
13.4173199461
 30
0.0
 11
12.7082675272
 21
13.0076093979
 31
0.0
  0
LINE
  5
EB
100
AcDbEntity
  8
0
  6
CONTINUOUS
 62
         7
100
AcDbLine
 10
13.2676490107
 20
13.4173199461
 30
0.0
 11
12.7429568846
 21
12.8926278199
 31
0.0
  0
LINE
  5
EC
100
AcDbEntity
  8
0
  6
CONTINUOUS
 62
         7
100
AcDbLine
 10
13.4173199461
 20
13.4173199461
 30
0.0
 11
12.777646242
 21
12.777646242
 31
0.0
  0
LINE
  5
ED
100
AcDbEntity
  8
0
  6
CONTINUOUS
 62
         7
100
AcDbLine
 10
13.5669908814
 20
13.4173199461
 30
0.0
 11
12.8123355994
 21
12.662664664
 31
0.0
  0
LINE
  5
EE
100
AcDbEntity
  8
0
  6
CONTINUOUS
 62
         7
100
AcDbLine
 10
13.7166618168
 20
13.4173199461
 30
0.0
 11
12.8470249568
 21
12.5476830861
 31
0.0
  0
LINE
  5
EF
100
AcDbEntity
  8
0
  6
CONTINUOUS
 62
         7
100
AcDbLine
 10
13.8663327521
 20
13.4173199461
 30
0.0
 11
12.8817143142
 21
12.4327015082
 31
0.0
  0
LINE
  5
F0
100
AcDbEntity
  8
0
  6
CONTINUOUS
 62
         7
100
AcDbLine
 10
14.0160036875
 20
13.4173199461
 30
0.0
 11
12.9164036716
 21
12.3177199302
 31
0.0
  0
LINE
  5
F1
100
AcDbEntity
  8
0
  6
CONTINUOUS
 62
         7
100
AcDbLine
 10
14.1656746228
 20
13.4173199461
 30
0.0
 11
12.951093029
 21
12.2027383523
 31
0.0
  0
LINE
  5
F2
100
AcDbEntity
  8
0
  6
CONTINUOUS
 62
         7
100
AcDbLine
 10
14.2349646896
 20
13.3369390775
 30
0.0
 11
12.9857823864
 21
12.0877567743
 31
0.0
  0
LINE
  5
F3
100
AcDbEntity
  8
0
  6
CONTINUOUS
 62
         7
100
AcDbLine
 10
14.2696328573
 20
13.2219363099
 30
0.0
 11
13.0204717439
 21
11.9727751964
 31
0.0
  0
LINE
  5
F4
100
AcDbEntity
  8
0
  6
CONTINUOUS
 62
         7
100
AcDbLine
 10
14.3043010251
 20
13.1069335423
 30
0.0
 11
13.0551611013
 21
11.8577936185
 31
0.0
  0
LINE
  5
F5
100
AcDbEntity
  8
0
  6
CONTINUOUS
 62
         7
100
AcDbLine
 10
14.3389691928
 20
12.9919307747
 30
0.0
 11
13.0898504587
 21
11.7428120405
 31
0.0
  0
LINE
  5
F6
100
AcDbEntity
  8
0
  6
CONTINUOUS
 62
         7
100
AcDbLine
 10
14.3736373606
 20
12.8769280071
 30
0.0
 11
13.1245398161
 21
11.6278304626
 31
0.0
  0
LINE
  5
F7
100
AcDbEntity
  8
0
  6
CONTINUOUS
 62
         7
100
AcDbLine
 10
14.4083055283
 20
12.7619252395
 30
0.0
 11
13.1592291735
 21
11.5128488846
 31
0.0
  0
LINE
  5
F8
100
AcDbEntity
  8
0
  6
CONTINUOUS
 62
         7
100
AcDbLine
 10
14.4429736961
 20
12.6469224719
 30
0.0
 11
13.1939185309
 21
11.3978673067
 31
0.0
  0
LINE
  5
F9
100
AcDbEntity
  8
0
  6
CONTINUOUS
 62
         7
100
AcDbLine
 10
14.4776418639
 20
12.5319197043
 30
0.0
 11
13.2286078883
 21
11.2828857288
 31
0.0
  0
LINE
  5
FA
100
AcDbEntity
  8
0
  6
CONTINUOUS
 62
         7
100
AcDbLine
 10
14.5123100316
 20
12.4169169367
 30
0.0
 11
13.2632972457
 21
11.1679041508
 31
0.0
  0
LINE
  5
FB
100
AcDbEntity
  8
0
  6
CONTINUOUS
 62
         7
100
AcDbLine
 10
14.5469781994
 20
12.3019141691
 30
0.0
 11
13.2979866032
 21
11.0529225729
 31
0.0
  0
LINE
  5
FC
100
AcDbEntity
  8
0
  6
CONTINUOUS
 62
         7
100
AcDbLine
 10
14.5816463671
 20
12.1869114015
 30
0.0
 11
13.3326759606
 21
10.937940995
 31
0.0
  0
LINE
  5
FD
100
AcDbEntity
  8
0
  6
CONTINUOUS
 62
         7
100
AcDbLine
 10
14.6163145349
 20
12.0719086339
 30
0.0
 11
13.367365318
 21
10.822959417
 31
0.0
  0
LINE
  5
FE
100
AcDbEntity
  8
0
  6
CONTINUOUS
 62
         7
100
AcDbLine
 10
14.6509827026
 20
11.9569058663
 30
0.0
 11
13.4020546754
 21
10.7079778391
 31
0.0
  0
LINE
  5
FF
100
AcDbEntity
  8
0
  6
CONTINUOUS
 62
         7
100
AcDbLine
 10
14.6856508704
 20
11.8419030987
 30
0.0
 11
13.4367440328
 21
10.5929962611
 31
0.0
  0
LINE
  5
100
100
AcDbEntity
  8
0
  6
CONTINUOUS
 62
         7
100
AcDbLine
 10
14.7203190381
 20
11.7269003311
 30
0.0
 11
13.4714333902
 21
10.4780146832
 31
0.0
  0
LINE
  5
101
100
AcDbEntity
  8
0
  6
CONTINUOUS
 62
         7
100
AcDbLine
 10
14.7549872059
 20
11.6118975635
 30
0.0
 11
13.5061227476
 21
10.3630331053
 31
0.0
  0
LINE
  5
102
100
AcDbEntity
  8
0
  6
CONTINUOUS
 62
         7
100
AcDbLine
 10
14.7896553736
 20
11.4968947959
 30
0.0
 11
13.540812105
 21
10.2480515273
 31
0.0
  0
LINE
  5
103
100
AcDbEntity
  8
0
  6
CONTINUOUS
 62
         7
100
AcDbLine
 10
14.8243235414
 20
11.3818920283
 30
0.0
 11
13.5755014625
 21
10.1330699494
 31
0.0
  0
LINE
  5
104
100
AcDbEntity
  8
0
  6
CONTINUOUS
 62
         7
100
AcDbLine
 10
14.8589917091
 20
11.2668892607
 30
0.0
 11
13.6101908199
 21
10.0180883714
 31
0.0
  0
LINE
  5
105
100
AcDbEntity
  8
0
  6
CONTINUOUS
 62
         7
100
AcDbLine
 10
17.0094223945
 20
13.4173199461
 30
0.0
 11
16.8770642841
 21
13.2849618357
 31
0.0
  0
LINE
  5
106
100
AcDbEntity
  8
0
  6
CONTINUOUS
 62
         7
100
AcDbLine
 10
14.8936598769
 20
11.1518864931
 30
0.0
 11
13.6448801773
 21
9.9031067935
 31
0.0
  0
LINE
  5
107
100
AcDbEntity
  8
0
  6
CONTINUOUS
 62
         7
100
AcDbLine
 10
17.1590933299
 20
13.4173199461
 30
0.0
 11
16.8107543761
 21
13.0689809923
 31
0.0
  0
LINE
  5
108
100
AcDbEntity
  8
0
  6
CONTINUOUS
 62
         7
100
AcDbLine
 10
14.9283280446
 20
11.0368837255
 30
0.0
 11
13.6795695347
 21
9.7881252156
 31
0.0
  0
LINE
  5
109
100
AcDbEntity
  8
0
  6
CONTINUOUS
 62
         7
100
AcDbLine
 10
17.3087642652
 20
13.4173199461
 30
0.0
 11
16.744444468
 21
12.8530001489
 31
0.0
  0
LINE
  5
10A
100
AcDbEntity
  8
0
  6
CONTINUOUS
 62
         7
100
AcDbLine
 10
14.9629962124
 20
10.9218809579
 30
0.0
 11
13.7142588921
 21
9.6731436376
 31
0.0
  0
LINE
  5
10B
100
AcDbEntity
  8
0
  6
CONTINUOUS
 62
         7
100
AcDbLine
 10
17.4584352006
 20
13.4173199461
 30
0.0
 11
16.6781345599
 21
12.6370193055
 31
0.0
  0
LINE
  5
10C
100
AcDbEntity
  8
0
  6
CONTINUOUS
 62
         7
100
AcDbLine
 10
14.9976643802
 20
10.8068781903
 30
0.0
 11
13.7489482495
 21
9.5581620597
 31
0.0
  0
LINE
  5
10D
100
AcDbEntity
  8
0
  6
CONTINUOUS
 62
         7
100
AcDbLine
 10
17.6081061359
 20
13.4173199461
 30
0.0
 11
16.6118246519
 21
12.421038462
 31
0.0
  0
LINE
  5
10E
100
AcDbEntity
  8
0
  6
CONTINUOUS
 62
         7
100
AcDbLine
 10
15.0323325479
 20
10.6918754227
 30
0.0
 11
13.7836376069
 21
9.4431804817
 31
0.0
  0
LINE
  5
10F
100
AcDbEntity
  8
0
  6
CONTINUOUS
 62
         7
100
AcDbLine
 10
17.7577770713
 20
13.4173199461
 30
0.0
 11
16.5455147438
 21
12.2050576186
 31
0.0
  0
LINE
  5
110
100
AcDbEntity
  8
0
  6
CONTINUOUS
 62
         7
100
AcDbLine
 10
15.0670007157
 20
10.5768726551
 30
0.0
 11
13.8183269643
 21
9.3281989038
 31
0.0
  0
LINE
  5
111
100
AcDbEntity
  8
0
  6
CONTINUOUS
 62
         7
100
AcDbLine
 10
17.9074480066
 20
13.4173199461
 30
0.0
 11
16.4792048357
 21
11.9890767752
 31
0.0
  0
LINE
  5
112
100
AcDbEntity
  8
0
  6
CONTINUOUS
 62
         7
100
AcDbLine
 10
15.1016688834
 20
10.4618698875
 30
0.0
 11
13.8530163218
 21
9.2132173259
 31
0.0
  0
LINE
  5
113
100
AcDbEntity
  8
0
  6
CONTINUOUS
 62
         7
100
AcDbLine
 10
18.057118942
 20
13.4173199461
 30
0.0
 11
16.4128949277
 21
11.7730959318
 31
0.0
  0
LINE
  5
114
100
AcDbEntity
  8
0
  6
CONTINUOUS
 62
         7
100
AcDbLine
 10
15.1363370512
 20
10.3468671199
 30
0.0
 11
13.8877056792
 21
9.0982357479
 31
0.0
  0
LINE
  5
115
100
AcDbEntity
  8
0
  6
CONTINUOUS
 62
         7
100
AcDbLine
 10
18.2067898773
 20
13.4173199461
 30
0.0
 11
16.3465850196
 21
11.5571150884
 31
0.0
  0
LINE
  5
116
100
AcDbEntity
  8
0
  6
CONTINUOUS
 62
         7
100
AcDbLine
 10
15.1710052189
 20
10.2318643523
 30
0.0
 11
13.9223950366
 21
8.98325417
 31
0.0
  0
LINE
  5
117
100
AcDbEntity
  8
0
  6
CONTINUOUS
 62
         7
100
AcDbLine
 10
18.3564608127
 20
13.4173199461
 30
0.0
 11
16.2802751115
 21
11.3411342449
 31
0.0
  0
LINE
  5
118
100
AcDbEntity
  8
0
  6
CONTINUOUS
 62
         7
100
AcDbLine
 10
15.2056733867
 20
10.1168615847
 30
0.0
 11
13.957084394
 21
8.868272592
 31
0.0
  0
LINE
  5
119
100
AcDbEntity
  8
0
  6
CONTINUOUS
 62
         7
100
AcDbLine
 10
18.506131748
 20
13.4173199461
 30
0.0
 11
16.2139652035
 21
11.1251534015
 31
0.0
  0
LINE
  5
11A
100
AcDbEntity
  8
0
  6
CONTINUOUS
 62
         7
100
AcDbLine
 10
15.2403415544
 20
10.0018588171
 30
0.0
 11
13.9917737514
 21
8.7532910141
 31
0.0
  0
LINE
  5
11B
100
AcDbEntity
  8
0
  6
CONTINUOUS
 62
         7
100
AcDbLine
 10
18.5396243327
 20
13.3011415954
 30
0.0
 11
16.1476552954
 21
10.9091725581
 31
0.0
  0
LINE
  5
11C
100
AcDbEntity
  8
0
  6
CONTINUOUS
 62
         7
100
AcDbLine
 10
15.2750097222
 20
9.8868560495
 30
0.0
 11
14.0264631088
 21
8.6383094362
 31
0.0
  0
LINE
  5
11D
100
AcDbEntity
  8
0
  6
CONTINUOUS
 62
         7
100
AcDbLine
 10
18.4719222285
 20
13.0837685558
 30
0.0
 11
16.0813453873
 21
10.6931917147
 31
0.0
  0
LINE
  5
11E
100
AcDbEntity
  8
0
  6
CONTINUOUS
 62
         7
100
AcDbLine
 10
15.3096778899
 20
9.7718532819
 30
0.0
 11
14.0611524662
 21
8.5233278582
 31
0.0
  0
LINE
  5
11F
100
AcDbEntity
  8
0
  6
CONTINUOUS
 62
         7
100
AcDbLine
 10
18.4042201243
 20
12.8663955163
 30
0.0
 11
16.0150354793
 21
10.4772108713
 31
0.0
  0
LINE
  5
120
100
AcDbEntity
  8
0
  6
CONTINUOUS
 62
         7
100
AcDbLine
 10
15.3443460577
 20
9.6568505143
 30
0.0
 11
14.0958418236
 21
8.4083462803
 31
0.0
  0
LINE
  5
121
100
AcDbEntity
  8
0
  6
CONTINUOUS
 62
         7
100
AcDbLine
 10
18.3365180201
 20
12.6490224767
 30
0.0
 11
15.9487255712
 21
10.2612300279
 31
0.0
  0
LINE
  5
122
100
AcDbEntity
  8
0
  6
CONTINUOUS
 62
         7
100
AcDbLine
 10
15.3790142254
 20
9.5418477467
 30
0.0
 11
14.130531181
 21
8.2933647024
 31
0.0
  0
LINE
  5
123
100
AcDbEntity
  8
0
  6
CONTINUOUS
 62
         7
100
AcDbLine
 10
18.2688159159
 20
12.4316494372
 30
0.0
 11
15.8824156631
 21
10.0452491844
 31
0.0
  0
LINE
  5
124
100
AcDbEntity
  8
0
  6
CONTINUOUS
 62
         7
100
AcDbLine
 10
15.4136823932
 20
9.4268449791
 30
0.0
 11
14.1652205385
 21
8.1783831244
 31
0.0
  0
LINE
  5
125
100
AcDbEntity
  8
0
  6
CONTINUOUS
 62
         7
100
AcDbLine
 10
18.2011138117
 20
12.2142763976
 30
0.0
 11
15.8161057551
 21
9.829268341
 31
0.0
  0
LINE
  5
126
100
AcDbEntity
  8
0
  6
CONTINUOUS
 62
         7
100
AcDbLine
 10
15.4483505609
 20
9.3118422116
 30
0.0
 11
14.1999098959
 21
8.0634015465
 31
0.0
  0
LINE
  5
127
100
AcDbEntity
  8
0
  6
CONTINUOUS
 62
         7
100
AcDbLine
 10
18.1334117075
 20
11.9969033581
 30
0.0
 11
15.749795847
 21
9.6132874976
 31
0.0
  0
LINE
  5
128
100
AcDbEntity
  8
0
  6
CONTINUOUS
 62
         7
100
AcDbLine
 10
15.4830187287
 20
9.196839444
 30
0.0
 11
14.2345992533
 21
7.9484199685
 31
0.0
  0
LINE
  5
129
100
AcDbEntity
  8
0
  6
CONTINUOUS
 62
         7
100
AcDbLine
 10
18.0657096033
 20
11.7795303185
 30
0.0
 11
15.6834859389
 21
9.3973066542
 31
0.0
  0
LINE
  5
12A
100
AcDbEntity
  8
0
  6
CONTINUOUS
 62
         7
100
AcDbLine
 10
15.5176868965
 20
9.0818366764
 30
0.0
 11
14.2692886107
 21
7.8334383906
 31
0.0
  0
LINE
  5
12B
100
AcDbEntity
  8
0
  6
CONTINUOUS
 62
         7
100
AcDbLine
 10
17.998007499
 20
11.5621572789
 30
0.0
 11
15.6171760309
 21
9.1813258108
 31
0.0
  0
LINE
  5
12C
100
AcDbEntity
  8
0
  6
CONTINUOUS
 62
         7
100
AcDbLine
 10
17.9303053948
 20
11.3447842394
 30
0.0
 11
14.3485030671
 21
7.7629819117
 31
0.0
  0
LINE
  5
12D
100
AcDbEntity
  8
0
  6
CONTINUOUS
 62
         7
100
AcDbLine
 10
17.8626032906
 20
11.1274111998
 30
0.0
 11
14.4981740025
 21
7.7629819117
 31
0.0
  0
LINE
  5
12E
100
AcDbEntity
  8
0
  6
CONTINUOUS
 62
         7
100
AcDbLine
 10
17.7949011864
 20
10.9100381603
 30
0.0
 11
14.6478449378
 21
7.7629819117
 31
0.0
  0
LINE
  5
12F
100
AcDbEntity
  8
0
  6
CONTINUOUS
 62
         7
100
AcDbLine
 10
17.7271990822
 20
10.6926651207
 30
0.0
 11
14.7975158732
 21
7.7629819117
 31
0.0
  0
LINE
  5
130
100
AcDbEntity
  8
0
  6
CONTINUOUS
 62
         7
100
AcDbLine
 10
17.659496978
 20
10.4752920812
 30
0.0
 11
14.9471868085
 21
7.7629819117
 31
0.0
  0
LINE
  5
131
100
AcDbEntity
  8
0
  6
CONTINUOUS
 62
         7
100
AcDbLine
 10
17.5917948738
 20
10.2579190416
 30
0.0
 11
15.0968577439
 21
7.7629819117
 31
0.0
  0
LINE
  5
132
100
AcDbEntity
  8
0
  6
CONTINUOUS
 62
         7
100
AcDbLine
 10
17.5240927696
 20
10.0405460021
 30
0.0
 11
15.2465286792
 21
7.7629819117
 31
0.0
  0
LINE
  5
133
100
AcDbEntity
  8
0
  6
CONTINUOUS
 62
         7
100
AcDbLine
 10
17.4563906654
 20
9.8231729625
 30
0.0
 11
15.3961996146
 21
7.7629819117
 31
0.0
  0
LINE
  5
134
100
AcDbEntity
  8
0
  6
CONTINUOUS
 62
         7
100
AcDbLine
 10
17.3886885612
 20
9.6057999229
 30
0.0
 11
15.5458705499
 21
7.7629819117
 31
0.0
  0
LINE
  5
135
100
AcDbEntity
  8
0
  6
CONTINUOUS
 62
         7
100
AcDbLine
 10
17.320986457
 20
9.3884268834
 30
0.0
 11
15.6955414853
 21
7.7629819117
 31
0.0
  0
LINE
  5
136
100
AcDbEntity
  8
0
  6
CONTINUOUS
 62
         7
100
AcDbLine
 10
17.2532843528
 20
9.1710538438
 30
0.0
 11
15.8452124206
 21
7.7629819117
 31
0.0
  0
LINE
  5
137
100
AcDbEntity
  8
0
  6
CONTINUOUS
 62
         7
100
AcDbLine
 10
17.1855822486
 20
8.9536808043
 30
0.0
 11
15.994883356
 21
7.7629819117
 31
0.0
  0
LINE
  5
138
100
AcDbEntity
  8
0
  6
CONTINUOUS
 62
         7
100
AcDbLine
 10
17.1178801444
 20
8.7363077647
 30
0.0
 11
16.1445542913
 21
7.7629819117
 31
0.0
  0
LINE
  5
139
100
AcDbEntity
  8
0
  6
CONTINUOUS
 62
         7
100
AcDbLine
 10
17.0501780402
 20
8.5189347252
 30
0.0
 11
16.2942252267
 21
7.7629819117
 31
0.0
  0
LINE
  5
13A
100
AcDbEntity
  8
0
  6
CONTINUOUS
 62
         7
100
AcDbLine
 10
16.982475936
 20
8.3015616856
 30
0.0
 11
16.443896162
 21
7.7629819117
 31
0.0
  0
LINE
  5
13B
100
AcDbEntity
  8
0
  6
CONTINUOUS
 62
         7
100
AcDbLine
 10
16.8589319333
 20
8.0283467475
 30
0.0
 11
16.7080745131
 21
7.8774893273
 31
0.0
  0
LINE
  5
13C
100
AcDbEntity
  8
0
  6
CONTINUOUS
 62
         7
100
AcDbLine
 10
23.2319500193
 20
10.0609077084
 30
0.0
 11
23.1680828002
 21
9.9970404893
 31
0.0
  0
LINE
  5
13D
100
AcDbEntity
  8
0
  6
CONTINUOUS
 62
         7
100
AcDbLine
 10
23.3816209547
 20
10.0609077084
 30
0.0
 11
23.1680828002
 21
9.8473695539
 31
0.0
  0
LINE
  5
13E
100
AcDbEntity
  8
0
  6
CONTINUOUS
 62
         7
100
AcDbLine
 10
23.53129189
 20
10.0609077084
 30
0.0
 11
23.1680828002
 21
9.6976986185
 31
0.0
  0
LINE
  5
13F
100
AcDbEntity
  8
0
  6
CONTINUOUS
 62
         7
100
AcDbLine
 10
23.6809628254
 20
10.0609077084
 30
0.0
 11
23.1680828002
 21
9.5480276832
 31
0.0
  0
LINE
  5
140
100
AcDbEntity
  8
0
  6
CONTINUOUS
 62
         7
100
AcDbLine
 10
23.8306337607
 20
10.0609077084
 30
0.0
 11
23.1680828002
 21
9.3983567478
 31
0.0
  0
LINE
  5
141
100
AcDbEntity
  8
0
  6
CONTINUOUS
 62
         7
100
AcDbLine
 10
23.9803046961
 20
10.0609077084
 30
0.0
 11
23.1680828002
 21
9.2486858125
 31
0.0
  0
LINE
  5
142
100
AcDbEntity
  8
0
  6
CONTINUOUS
 62
         7
100
AcDbLine
 10
24.1299756314
 20
10.0609077084
 30
0.0
 11
23.1680828002
 21
9.0990148771
 31
0.0
  0
LINE
  5
143
100
AcDbEntity
  8
0
  6
CONTINUOUS
 62
         7
100
AcDbLine
 10
24.2796465668
 20
10.0609077084
 30
0.0
 11
23.1680828002
 21
8.9493439418
 31
0.0
  0
LINE
  5
144
100
AcDbEntity
  8
0
  6
CONTINUOUS
 62
         7
100
AcDbLine
 10
24.4293175021
 20
10.0609077084
 30
0.0
 11
23.1680828002
 21
8.7996730064
 31
0.0
  0
LINE
  5
145
100
AcDbEntity
  8
0
  6
CONTINUOUS
 62
         7
100
AcDbLine
 10
24.5789884375
 20
10.0609077084
 30
0.0
 11
23.1680828002
 21
8.6500020711
 31
0.0
  0
LINE
  5
146
100
AcDbEntity
  8
0
  6
CONTINUOUS
 62
         7
100
AcDbLine
 10
24.7286593728
 20
10.0609077084
 30
0.0
 11
23.1680828002
 21
8.5003311357
 31
0.0
  0
LINE
  5
147
100
AcDbEntity
  8
0
  6
CONTINUOUS
 62
         7
100
AcDbLine
 10
24.8783303082
 20
10.0609077084
 30
0.0
 11
23.1680828002
 21
8.3506602004
 31
0.0
  0
LINE
  5
148
100
AcDbEntity
  8
0
  6
CONTINUOUS
 62
         7
100
AcDbLine
 10
25.0280012435
 20
10.0609077084
 30
0.0
 11
23.1680828002
 21
8.200989265
 31
0.0
  0
LINE
  5
149
100
AcDbEntity
  8
0
  6
CONTINUOUS
 62
         7
100
AcDbLine
 10
25.1776721789
 20
10.0609077084
 30
0.0
 11
23.1680828002
 21
8.0513183297
 31
0.0
  0
LINE
  5
14A
100
AcDbEntity
  8
0
  6
CONTINUOUS
 62
         7
100
AcDbLine
 10
25.3273431142
 20
10.0609077084
 30
0.0
 11
23.1680828002
 21
7.9016473943
 31
0.0
  0
LINE
  5
14B
100
AcDbEntity
  8
0
  6
CONTINUOUS
 62
         7
100
AcDbLine
 10
25.4770140496
 20
10.0609077084
 30
0.0
 11
23.1680828002
 21
7.751976459
 31
0.0
  0
LINE
  5
14C
100
AcDbEntity
  8
0
  6
CONTINUOUS
 62
         7
100
AcDbLine
 10
25.6266849849
 20
10.0609077084
 30
0.0
 11
23.1680828002
 21
7.6023055236
 31
0.0
  0
LINE
  5
14D
100
AcDbEntity
  8
0
  6
CONTINUOUS
 62
         7
100
AcDbLine
 10
25.7763559203
 20
10.0609077084
 30
0.0
 11
23.1680828002
 21
7.4526345883
 31
0.0
  0
LINE
  5
14E
100
AcDbEntity
  8
0
  6
CONTINUOUS
 62
         7
100
AcDbLine
 10
25.9260268556
 20
10.0609077084
 30
0.0
 11
23.1680828002
 21
7.3029636529
 31
0.0
  0
LINE
  5
14F
100
AcDbEntity
  8
0
  6
CONTINUOUS
 62
         7
100
AcDbLine
 10
26.075697791
 20
10.0609077084
 30
0.0
 11
23.2201880436
 21
7.2053979611
 31
0.0
  0
LINE
  5
150
100
AcDbEntity
  8
0
  6
CONTINUOUS
 62
         7
100
AcDbLine
 10
26.2253687263
 20
10.0609077084
 30
0.0
 11
23.381632095
 21
7.2171710771
 31
0.0
  0
LINE
  5
151
100
AcDbEntity
  8
0
  6
CONTINUOUS
 62
         7
100
AcDbLine
 10
26.3750396617
 20
10.0609077084
 30
0.0
 11
23.5521790326
 21
7.2380470794
 31
0.0
  0
LINE
  5
152
100
AcDbEntity
  8
0
  6
CONTINUOUS
 62
         7
100
AcDbLine
 10
26.3896447016
 20
9.925841813
 30
0.0
 11
23.7337956984
 21
7.2699928098
 31
0.0
  0
LINE
  5
153
100
AcDbEntity
  8
0
  6
CONTINUOUS
 62
         7
100
AcDbLine
 10
26.3436951894
 20
9.7302213654
 30
0.0
 11
23.9294161461
 21
7.3159423221
 31
0.0
  0
LINE
  5
154
100
AcDbEntity
  8
0
  6
CONTINUOUS
 62
         7
100
AcDbLine
 10
26.2789994311
 20
9.5158546717
 30
0.0
 11
24.1437828397
 21
7.3806380804
 31
0.0
  0
LINE
  5
155
100
AcDbEntity
  8
0
  6
CONTINUOUS
 62
         7
100
AcDbLine
 10
26.1868865982
 20
9.2740709035
 30
0.0
 11
24.3855666079
 21
7.4727509132
 31
0.0
  0
LINE
  5
156
100
AcDbEntity
  8
0
  6
CONTINUOUS
 62
         7
100
AcDbLine
 10
26.0476395873
 20
8.9851529573
 30
0.0
 11
24.6744845542
 21
7.6119979241
 31
0.0
  0
LINE
  5
157
100
AcDbEntity
  8
0
  6
CONTINUOUS
 62
         7
100
AcDbLine
 10
25.7828676398
 20
8.5707100744
 30
0.0
 11
25.0889274371
 21
7.8767698717
 31
0.0
  0
LINE
  5
158
100
AcDbEntity
  8
0
  6
CONTINUOUS
 62
         7
100
AcDbLine
 10
20.7082021461
 20
13.0749844432
 30
0.0
 11
20.5846530683
 21
12.9514353654
 31
0.0
  0
LINE
  5
159
100
AcDbEntity
  8
0
  6
CONTINUOUS
 62
         7
100
AcDbLine
 10
21.3199778722
 20
13.537089234
 30
0.0
 11
20.1225482775
 21
12.3396596392
 31
0.0
  0
LINE
  5
15A
100
AcDbEntity
  8
0
  6
CONTINUOUS
 62
         7
100
AcDbLine
 10
21.6338944778
 20
13.7013349042
 30
0.0
 11
19.9583026073
 21
12.0257430337
 31
0.0
  0
LINE
  5
15B
100
AcDbEntity
  8
0
  6
CONTINUOUS
 62
         7
100
AcDbLine
 10
21.8878626976
 20
13.8056321886
 30
0.0
 11
19.8540053228
 21
11.7717748139
 31
0.0
  0
LINE
  5
15C
100
AcDbEntity
  8
0
  6
CONTINUOUS
 62
         7
100
AcDbLine
 10
22.1098936924
 20
13.8779922481
 30
0.0
 11
19.7816452634
 21
11.549743819
 31
0.0
  0
LINE
  5
15D
100
AcDbEntity
  8
0
  6
CONTINUOUS
 62
         7
100
AcDbLine
 10
22.3109637034
 20
13.9293913238
 30
0.0
 11
19.7302461877
 21
11.348673808
 31
0.0
  0
LINE
  5
15E
100
AcDbEntity
  8
0
  6
CONTINUOUS
 62
         7
100
AcDbLine
 10
22.4967489327
 20
13.9655056177
 30
0.0
 11
19.7877005258
 21
11.2564572108
 31
0.0
  0
LINE
  5
15F
100
AcDbEntity
  8
0
  6
CONTINUOUS
 62
         7
100
AcDbLine
 10
22.6706440741
 20
13.9897298237
 30
0.0
 11
19.9373714612
 21
11.2564572108
 31
0.0
  0
LINE
  5
160
100
AcDbEntity
  8
0
  6
CONTINUOUS
 62
         7
100
AcDbLine
 10
22.8348733336
 20
14.0042881478
 30
0.0
 11
20.0870423965
 21
11.2564572108
 31
0.0
  0
LINE
  5
161
100
AcDbEntity
  8
0
  6
CONTINUOUS
 62
         7
100
AcDbLine
 10
22.8549761338
 20
13.8747200127
 30
0.0
 11
20.2367133319
 21
11.2564572108
 31
0.0
  0
LINE
  5
162
100
AcDbEntity
  8
0
  6
CONTINUOUS
 62
         7
100
AcDbLine
 10
22.8549761338
 20
13.7250490773
 30
0.0
 11
20.3863842672
 21
11.2564572108
 31
0.0
  0
LINE
  5
163
100
AcDbEntity
  8
0
  6
CONTINUOUS
 62
         7
100
AcDbLine
 10
22.8549761338
 20
13.575378142
 30
0.0
 11
20.5360552026
 21
11.2564572108
 31
0.0
  0
LINE
  5
164
100
AcDbEntity
  8
0
  6
CONTINUOUS
 62
         7
100
AcDbLine
 10
22.8549761338
 20
13.4257072066
 30
0.0
 11
20.6857261379
 21
11.2564572108
 31
0.0
  0
LINE
  5
165
100
AcDbEntity
  8
0
  6
CONTINUOUS
 62
         7
100
AcDbLine
 10
22.8549761338
 20
13.2760362713
 30
0.0
 11
20.8353970733
 21
11.2564572108
 31
0.0
  0
LINE
  5
166
100
AcDbEntity
  8
0
  6
CONTINUOUS
 62
         7
100
AcDbLine
 10
22.8549761338
 20
13.1263653359
 30
0.0
 11
20.9850680087
 21
11.2564572108
 31
0.0
  0
LINE
  5
167
100
AcDbEntity
  8
0
  6
CONTINUOUS
 62
         7
100
AcDbLine
 10
22.8549761338
 20
12.9766944006
 30
0.0
 11
21.134738944
 21
11.2564572108
 31
0.0
  0
LINE
  5
168
100
AcDbEntity
  8
0
  6
CONTINUOUS
 62
         7
100
AcDbLine
 10
22.8549761338
 20
12.8270234652
 30
0.0
 11
21.2844098794
 21
11.2564572108
 31
0.0
  0
LINE
  5
169
100
AcDbEntity
  8
0
  6
CONTINUOUS
 62
         7
100
AcDbLine
 10
22.8549761338
 20
12.6773525299
 30
0.0
 11
21.4340808147
 21
11.2564572108
 31
0.0
  0
LINE
  5
16A
100
AcDbEntity
  8
0
  6
CONTINUOUS
 62
         7
100
AcDbLine
 10
22.8549761338
 20
12.5276815945
 30
0.0
 11
21.5837517501
 21
11.2564572108
 31
0.0
  0
LINE
  5
16B
100
AcDbEntity
  8
0
  6
CONTINUOUS
 62
         7
100
AcDbLine
 10
22.8549761338
 20
12.3780106592
 30
0.0
 11
21.7334226854
 21
11.2564572108
 31
0.0
  0
LINE
  5
16C
100
AcDbEntity
  8
0
  6
CONTINUOUS
 62
         7
100
AcDbLine
 10
22.8549761338
 20
12.2283397238
 30
0.0
 11
21.8830936208
 21
11.2564572108
 31
0.0
  0
LINE
  5
16D
100
AcDbEntity
  8
0
  6
CONTINUOUS
 62
         7
100
AcDbLine
 10
22.8549761338
 20
12.0786687885
 30
0.0
 11
22.0327645561
 21
11.2564572108
 31
0.0
  0
LINE
  5
16E
100
AcDbEntity
  8
0
  6
CONTINUOUS
 62
         7
100
AcDbLine
 10
22.8549761338
 20
11.9289978531
 30
0.0
 11
22.1824354915
 21
11.2564572108
 31
0.0
  0
LINE
  5
16F
100
AcDbEntity
  8
0
  6
CONTINUOUS
 62
         7
100
AcDbLine
 10
22.8549761338
 20
11.7793269178
 30
0.0
 11
22.3321064268
 21
11.2564572108
 31
0.0
  0
LINE
  5
170
100
AcDbEntity
  8
0
  6
CONTINUOUS
 62
         7
100
AcDbLine
 10
22.8549761338
 20
11.6296559824
 30
0.0
 11
22.4817773622
 21
11.2564572108
 31
0.0
  0
LINE
  5
171
100
AcDbEntity
  8
0
  6
CONTINUOUS
 62
         7
100
AcDbLine
 10
22.8549761338
 20
11.4799850471
 30
0.0
 11
22.6314482975
 21
11.2564572108
 31
0.0
  0
LINE
  5
172
100
AcDbEntity
  8
0
  6
CONTINUOUS
 62
         7
100
AcDbLine
 10
22.8549761338
 20
11.3303141117
 30
0.0
 11
22.7811192329
 21
11.2564572108
 31
0.0
  0
LINE
  5
173
100
AcDbEntity
  8
0
  6
CONTINUOUS
 62
         7
100
AcDbLine
 10
19.6918660765
 20
10.8612808908
 30
0.0
 11
19.6553493636
 21
10.8247641779
 31
0.0
  0
LINE
  5
174
100
AcDbEntity
  8
0
  6
CONTINUOUS
 62
         7
100
AcDbLine
 10
19.8415370119
 20
10.8612808908
 30
0.0
 11
19.6489049471
 21
10.6686488261
 31
0.0
  0
LINE
  5
175
100
AcDbEntity
  8
0
  6
CONTINUOUS
 62
         7
100
AcDbLine
 10
19.9912079472
 20
10.8612808908
 30
0.0
 11
19.6494404855
 21
10.5195134291
 31
0.0
  0
LINE
  5
176
100
AcDbEntity
  8
0
  6
CONTINUOUS
 62
         7
100
AcDbLine
 10
20.1408788826
 20
10.8612808908
 30
0.0
 11
19.6560978692
 21
10.3764998775
 31
0.0
  0
LINE
  5
177
100
AcDbEntity
  8
0
  6
CONTINUOUS
 62
         7
100
AcDbLine
 10
23.283137634
 20
14.0035396422
 30
0.0
 11
23.2562918002
 21
13.9766938084
 31
0.0
  0
LINE
  5
178
100
AcDbEntity
  8
0
  6
CONTINUOUS
 62
         7
100
AcDbLine
 10
20.2905498179
 20
10.8612808908
 30
0.0
 11
19.6682096211
 21
10.2389406939
 31
0.0
  0
LINE
  5
179
100
AcDbEntity
  8
0
  6
CONTINUOUS
 62
         7
100
AcDbLine
 10
23.4206968175
 20
13.9914278904
 30
0.0
 11
23.2562918002
 21
13.827022873
 31
0.0
  0
LINE
  5
17A
100
AcDbEntity
  8
0
  6
CONTINUOUS
 62
         7
100
AcDbLine
 10
20.4402207533
 20
10.8612808908
 30
0.0
 11
19.6852449901
 21
10.1063051276
 31
0.0
  0
LINE
  5
17B
100
AcDbEntity
  8
0
  6
CONTINUOUS
 62
         7
100
AcDbLine
 10
23.5533323839
 20
13.9743925214
 30
0.0
 11
23.2562918002
 21
13.6773519377
 31
0.0
  0
LINE
  5
17C
100
AcDbEntity
  8
0
  6
CONTINUOUS
 62
         7
100
AcDbLine
 10
20.5898916886
 20
10.8612808908
 30
0.0
 11
19.7067743342
 21
9.9781635364
 31
0.0
  0
LINE
  5
17D
100
AcDbEntity
  8
0
  6
CONTINUOUS
 62
         7
100
AcDbLine
 10
23.681473975
 20
13.9528631772
 30
0.0
 11
23.2562918002
 21
13.5276810023
 31
0.0
  0
LINE
  5
17E
100
AcDbEntity
  8
0
  6
CONTINUOUS
 62
         7
100
AcDbLine
 10
20.739562624
 20
10.8612808908
 30
0.0
 11
19.7324447313
 21
9.8541629981
 31
0.0
  0
LINE
  5
17F
100
AcDbEntity
  8
0
  6
CONTINUOUS
 62
         7
100
AcDbLine
 10
23.8054745133
 20
13.9271927802
 30
0.0
 11
23.2562918002
 21
13.378010067
 31
0.0
  0
LINE
  5
180
100
AcDbEntity
  8
0
  6
CONTINUOUS
 62
         7
100
AcDbLine
 10
20.8892335593
 20
10.8612808908
 30
0.0
 11
19.7619627721
 21
9.7340101036
 31
0.0
  0
LINE
  5
181
100
AcDbEntity
  8
0
  6
CONTINUOUS
 62
         7
100
AcDbLine
 10
23.9256274079
 20
13.8976747393
 30
0.0
 11
23.2562918002
 21
13.2283391316
 31
0.0
  0
LINE
  5
182
100
AcDbEntity
  8
0
  6
CONTINUOUS
 62
         7
100
AcDbLine
 10
21.0389044947
 20
10.8612808908
 30
0.0
 11
19.7950821114
 21
9.6174585075
 31
0.0
  0
LINE
  5
183
100
AcDbEntity
  8
0
  6
CONTINUOUS
 62
         7
100
AcDbLine
 10
24.0421790039
 20
13.8645554
 30
0.0
 11
23.2562918002
 21
13.0786681963
 31
0.0
  0
LINE
  5
184
100
AcDbEntity
  8
0
  6
CONTINUOUS
 62
         7
100
AcDbLine
 10
21.18857543
 20
10.8612808908
 30
0.0
 11
19.8315942639
 21
9.5042997246
 31
0.0
  0
LINE
  5
185
100
AcDbEntity
  8
0
  6
CONTINUOUS
 62
         7
100
AcDbLine
 10
24.1553377868
 20
13.8280432476
 30
0.0
 11
23.2562918002
 21
12.9289972609
 31
0.0
  0
LINE
  5
186
100
AcDbEntity
  8
0
  6
CONTINUOUS
 62
         7
100
AcDbLine
 10
21.3382463654
 20
10.8612808908
 30
0.0
 11
19.8713216734
 21
9.3943561988
 31
0.0
  0
LINE
  5
187
100
AcDbEntity
  8
0
  6
CONTINUOUS
 62
         7
100
AcDbLine
 10
24.2652813127
 20
13.7883158381
 30
0.0
 11
23.2562918002
 21
12.7793263256
 31
0.0
  0
LINE
  5
188
100
AcDbEntity
  8
0
  6
CONTINUOUS
 62
         7
100
AcDbLine
 10
21.4879173008
 20
10.8612808908
 30
0.0
 11
19.9141124098
 21
9.2874759999
 31
0.0
  0
LINE
  5
189
100
AcDbEntity
  8
0
  6
CONTINUOUS
 62
         7
100
AcDbLine
 10
24.3721615116
 20
13.7455251016
 30
0.0
 11
23.2562918002
 21
12.6296553902
 31
0.0
  0
LINE
  5
18A
100
AcDbEntity
  8
0
  6
CONTINUOUS
 62
         7
100
AcDbLine
 10
21.6375882361
 20
10.8612808908
 30
0.0
 11
19.9598360564
 21
9.1835287111
 31
0.0
  0
LINE
  5
18B
100
AcDbEntity
  8
0
  6
CONTINUOUS
 62
         7
100
AcDbLine
 10
24.4761088004
 20
13.6998014551
 30
0.0
 11
23.2562918002
 21
12.4799844549
 31
0.0
  0
LINE
  5
18C
100
AcDbEntity
  8
0
  6
CONTINUOUS
 62
         7
100
AcDbLine
 10
21.7872591715
 20
10.8612808908
 30
0.0
 11
20.0083804828
 21
9.0824022022
 31
0.0
  0
LINE
  5
18D
100
AcDbEntity
  8
0
  6
CONTINUOUS
 62
         7
100
AcDbLine
 10
24.5772353092
 20
13.6512570286
 30
0.0
 11
23.2562918002
 21
12.3303135195
 31
0.0
  0
LINE
  5
18E
100
AcDbEntity
  8
0
  6
CONTINUOUS
 62
         7
100
AcDbLine
 10
21.9369301068
 20
10.8612808908
 30
0.0
 11
20.0596492902
 21
8.9840000742
 31
0.0
  0
LINE
  5
18F
100
AcDbEntity
  8
0
  6
CONTINUOUS
 62
         7
100
AcDbLine
 10
24.6756374372
 20
13.5999882212
 30
0.0
 11
23.2562918002
 21
12.1806425842
 31
0.0
  0
LINE
  5
190
100
AcDbEntity
  8
0
  6
CONTINUOUS
 62
         7
100
AcDbLine
 10
22.0866010422
 20
10.8612808908
 30
0.0
 11
20.1135597718
 21
8.8882396205
 31
0.0
  0
LINE
  5
191
100
AcDbEntity
  8
0
  6
CONTINUOUS
 62
         7
100
AcDbLine
 10
24.771397891
 20
13.5460777396
 30
0.0
 11
23.2562918002
 21
12.0309716488
 31
0.0
  0
LINE
  5
192
100
AcDbEntity
  8
0
  6
CONTINUOUS
 62
         7
100
AcDbLine
 10
22.2362719775
 20
10.8612808908
 30
0.0
 11
20.1700412782
 21
8.7950501915
 31
0.0
  0
LINE
  5
193
100
AcDbEntity
  8
0
  6
CONTINUOUS
 62
         7
100
AcDbLine
 10
24.8645873199
 20
13.4895962332
 30
0.0
 11
23.2562918002
 21
11.8813007135
 31
0.0
  0
LINE
  5
194
100
AcDbEntity
  8
0
  6
CONTINUOUS
 62
         7
100
AcDbLine
 10
22.3859429129
 20
10.8612808908
 30
0.0
 11
20.2290339024
 21
8.7043718804
 31
0.0
  0
LINE
  5
195
100
AcDbEntity
  8
0
  6
CONTINUOUS
 62
         7
100
AcDbLine
 10
24.9552656311
 20
13.430603609
 30
0.0
 11
23.2562918002
 21
11.7316297781
 31
0.0
  0
LINE
  5
196
100
AcDbEntity
  8
0
  6
CONTINUOUS
 62
         7
100
AcDbLine
 10
22.5356138482
 20
10.8612808908
 30
0.0
 11
20.290487423
 21
8.6161544656
 31
0.0
  0
LINE
  5
197
100
AcDbEntity
  8
0
  6
CONTINUOUS
 62
         7
100
AcDbLine
 10
25.0434830458
 20
13.3691500884
 30
0.0
 11
23.2562918002
 21
11.5819588428
 31
0.0
  0
LINE
  5
198
100
AcDbEntity
  8
0
  6
CONTINUOUS
 62
         7
100
AcDbLine
 10
22.6852847836
 20
10.8612808908
 30
0.0
 11
20.3543604589
 21
8.5303565662
 31
0.0
  0
LINE
  5
199
100
AcDbEntity
  8
0
  6
CONTINUOUS
 62
         7
100
AcDbLine
 10
25.1292809452
 20
13.3052770525
 30
0.0
 11
23.2562918002
 21
11.4322879074
 31
0.0
  0
LINE
  5
19A
100
AcDbEntity
  8
0
  6
CONTINUOUS
 62
         7
100
AcDbLine
 10
22.8349557189
 20
10.8612808908
 30
0.0
 11
20.4206198004
 21
8.4469449724
 31
0.0
  0
LINE
  5
19B
100
AcDbEntity
  8
0
  6
CONTINUOUS
 62
         7
100
AcDbLine
 10
25.2126925391
 20
13.239017711
 30
0.0
 11
23.2562918002
 21
11.2826169721
 31
0.0
  0
LINE
  5
19C
100
AcDbEntity
  8
0
  6
CONTINUOUS
 62
         7
100
AcDbLine
 10
22.9846266543
 20
10.8612808908
 30
0.0
 11
20.4892398898
 21
8.3658941263
 31
0.0
  0
LINE
  5
19D
100
AcDbEntity
  8
0
  6
CONTINUOUS
 62
         7
100
AcDbLine
 10
25.2937433851
 20
13.1703976217
 30
0.0
 11
23.2562918002
 21
11.1329460367
 31
0.0
  0
LINE
  5
19E
100
AcDbEntity
  8
0
  6
CONTINUOUS
 62
         7
100
AcDbLine
 10
23.1342975896
 20
10.8612808908
 30
0.0
 11
20.5602024324
 21
8.2871857336
 31
0.0
  0
LINE
  5
19F
100
AcDbEntity
  8
0
  6
CONTINUOUS
 62
         7
100
AcDbLine
 10
25.3724517779
 20
13.0994350791
 30
0.0
 11
23.2562918002
 21
10.9832751014
 31
0.0
  0
LINE
  5
1A0
100
AcDbEntity
  8
0
  6
CONTINUOUS
 62
         7
100
AcDbLine
 10
22.7667671338
 20
10.3440794996
 30
0.0
 11
20.6334961241
 21
8.21080849
 31
0.0
  0
LINE
  5
1A1
100
AcDbEntity
  8
0
  6
CONTINUOUS
 62
         7
100
AcDbLine
 10
25.4488290215
 20
13.0261413873
 30
0.0
 11
22.8787716626
 21
10.4560840284
 31
0.0
  0
LINE
  5
1A2
100
AcDbEntity
  8
0
  6
CONTINUOUS
 62
         7
100
AcDbLine
 10
22.7667671338
 20
10.1944085643
 30
0.0
 11
20.7091164853
 21
8.1367579158
 31
0.0
  0
LINE
  5
1A3
100
AcDbEntity
  8
0
  6
CONTINUOUS
 62
         7
100
AcDbLine
 10
25.5228795957
 20
12.9505210262
 30
0.0
 11
23.0284425979
 21
10.4560840284
 31
0.0
  0
LINE
  5
1A4
100
AcDbEntity
  8
0
  6
CONTINUOUS
 62
         7
100
AcDbLine
 10
22.7667671338
 20
10.0447376289
 30
0.0
 11
20.7870657949
 21
8.0650362901
 31
0.0
  0
LINE
  5
1A5
100
AcDbEntity
  8
0
  6
CONTINUOUS
 62
         7
100
AcDbLine
 10
25.5946012213
 20
12.8725717165
 30
0.0
 11
23.1781135333
 21
10.4560840284
 31
0.0
  0
LINE
  5
1A6
100
AcDbEntity
  8
0
  6
CONTINUOUS
 62
         7
100
AcDbLine
 10
22.7667671338
 20
9.8950666936
 30
0.0
 11
20.8673531245
 21
7.9956526843
 31
0.0
  0
LINE
  5
1A7
100
AcDbEntity
  8
0
  6
CONTINUOUS
 62
         7
100
AcDbLine
 10
25.6639848272
 20
12.792284387
 30
0.0
 11
23.3277844686
 21
10.4560840284
 31
0.0
  0
LINE
  5
1A8
100
AcDbEntity
  8
0
  6
CONTINUOUS
 62
         7
100
AcDbLine
 10
22.7667671338
 20
9.7453957582
 30
0.0
 11
20.9499944702
 21
7.9286230947
 31
0.0
  0
LINE
  5
1A9
100
AcDbEntity
  8
0
  6
CONTINUOUS
 62
         7
100
AcDbLine
 10
25.7310144168
 20
12.7096430412
 30
0.0
 11
23.477455404
 21
10.4560840284
 31
0.0
  0
LINE
  5
1AA
100
AcDbEntity
  8
0
  6
CONTINUOUS
 62
         7
100
AcDbLine
 10
22.7667671338
 20
9.5957248229
 30
0.0
 11
21.0350129909
 21
7.86397068
 31
0.0
  0
LINE
  5
1AB
100
AcDbEntity
  8
0
  6
CONTINUOUS
 62
         7
100
AcDbLine
 10
25.7956668314
 20
12.6246245205
 30
0.0
 11
23.6271263393
 21
10.4560840284
 31
0.0
  0
LINE
  5
1AC
100
AcDbEntity
  8
0
  6
CONTINUOUS
 62
         7
100
AcDbLine
 10
22.7667671338
 20
9.4460538875
 30
0.0
 11
21.1224393573
 21
7.801726111
 31
0.0
  0
LINE
  5
1AD
100
AcDbEntity
  8
0
  6
CONTINUOUS
 62
         7
100
AcDbLine
 10
25.8579114004
 20
12.5371981541
 30
0.0
 11
23.7767972747
 21
10.4560840284
 31
0.0
  0
LINE
  5
1AE
100
AcDbEntity
  8
0
  6
CONTINUOUS
 62
         7
100
AcDbLine
 10
22.7667671338
 20
9.2963829522
 30
0.0
 11
21.2123122271
 21
7.7419280455
 31
0.0
  0
LINE
  5
1AF
100
AcDbEntity
  8
0
  6
CONTINUOUS
 62
         7
100
AcDbLine
 10
25.9177094659
 20
12.4473252843
 30
0.0
 11
23.92646821
 21
10.4560840284
 31
0.0
  0
LINE
  5
1B0
100
AcDbEntity
  8
0
  6
CONTINUOUS
 62
         7
100
AcDbLine
 10
22.7667671338
 20
9.1467120168
 30
0.0
 11
21.3046788629
 21
7.684623746
 31
0.0
  0
LINE
  5
1B1
100
AcDbEntity
  8
0
  6
CONTINUOUS
 62
         7
100
AcDbLine
 10
25.9750137655
 20
12.3549586485
 30
0.0
 11
24.0761391454
 21
10.4560840284
 31
0.0
  0
LINE
  5
1B2
100
AcDbEntity
  8
0
  6
CONTINUOUS
 62
         7
100
AcDbLine
 10
22.7667671338
 20
8.9970410814
 30
0.0
 11
21.3995959168
 21
7.6298698645
 31
0.0
  0
LINE
  5
1B3
100
AcDbEntity
  8
0
  6
CONTINUOUS
 62
         7
100
AcDbLine
 10
26.0297676469
 20
12.2600415946
 30
0.0
 11
24.2258100807
 21
10.4560840284
 31
0.0
  0
LINE
  5
1B4
100
AcDbEntity
  8
0
  6
CONTINUOUS
 62
         7
100
AcDbLine
 10
22.7667671338
 20
8.8473701461
 30
0.0
 11
21.4971304136
 21
7.577733426
 31
0.0
  0
LINE
  5
1B5
100
AcDbEntity
  8
0
  6
CONTINUOUS
 62
         7
100
AcDbLine
 10
26.0819040854
 20
12.1625070978
 30
0.0
 11
24.3754810161
 21
10.4560840284
 31
0.0
  0
LINE
  5
1B6
100
AcDbEntity
  8
0
  6
CONTINUOUS
 62
         7
100
AcDbLine
 10
22.7667671338
 20
8.6976992107
 30
0.0
 11
21.5973609762
 21
7.5282930532
 31
0.0
  0
LINE
  5
1B7
100
AcDbEntity
  8
0
  6
CONTINUOUS
 62
         7
100
AcDbLine
 10
26.1313444582
 20
12.0622765352
 30
0.0
 11
24.5251519514
 21
10.4560840284
 31
0.0
  0
LINE
  5
1B8
100
AcDbEntity
  8
0
  6
CONTINUOUS
 62
         7
100
AcDbLine
 10
22.7667671338
 20
8.5480282754
 30
0.0
 11
21.7003793481
 21
7.4816404898
 31
0.0
  0
LINE
  5
1B9
100
AcDbEntity
  8
0
  6
CONTINUOUS
 62
         7
100
AcDbLine
 10
26.1779970217
 20
11.9592581633
 30
0.0
 11
24.6748228868
 21
10.4560840284
 31
0.0
  0
LINE
  5
1BA
100
AcDbEntity
  8
0
  6
CONTINUOUS
 62
         7
100
AcDbLine
 10
22.7667671338
 20
8.39835734
 30
0.0
 11
21.8062922905
 21
7.4378824968
 31
0.0
  0
LINE
  5
1BB
100
AcDbEntity
  8
0
  6
CONTINUOUS
 62
         7
100
AcDbLine
 10
26.2217550146
 20
11.8533452209
 30
0.0
 11
24.8244938221
 21
10.4560840284
 31
0.0
  0
LINE
  5
1BC
100
AcDbEntity
  8
0
  6
CONTINUOUS
 62
         7
100
AcDbLine
 10
22.7667671338
 20
8.2486864047
 30
0.0
 11
21.9152239549
 21
7.3971432259
 31
0.0
  0
LINE
  5
1BD
100
AcDbEntity
  8
0
  6
CONTINUOUS
 62
         7
100
AcDbLine
 10
26.2624942856
 20
11.7444135565
 30
0.0
 11
24.9741647575
 21
10.4560840284
 31
0.0
  0
LINE
  5
1BE
100
AcDbEntity
  8
0
  6
CONTINUOUS
 62
         7
100
AcDbLine
 10
22.7667671338
 20
8.0990154693
 30
0.0
 11
22.0273188713
 21
7.3595672069
 31
0.0
  0
LINE
  5
1BF
100
AcDbEntity
  8
0
  6
CONTINUOUS
 62
         7
100
AcDbLine
 10
26.3000703045
 20
11.6323186401
 30
0.0
 11
25.1238356928
 21
10.4560840284
 31
0.0
  0
LINE
  5
1C0
100
AcDbEntity
  8
0
  6
CONTINUOUS
 62
         7
100
AcDbLine
 10
22.7667671338
 20
7.949344534
 30
0.0
 11
22.1427457445
 21
7.3253231448
 31
0.0
  0
LINE
  5
1C1
100
AcDbEntity
  8
0
  6
CONTINUOUS
 62
         7
100
AcDbLine
 10
26.3343143667
 20
11.5168917669
 30
0.0
 11
25.2735066282
 21
10.4560840284
 31
0.0
  0
LINE
  5
1C2
100
AcDbEntity
  8
0
  6
CONTINUOUS
 62
         7
100
AcDbLine
 10
22.7667671338
 20
7.7996735986
 30
0.0
 11
22.2617023296
 21
7.2946087945
 31
0.0
  0
LINE
  5
1C3
100
AcDbEntity
  8
0
  6
CONTINUOUS
 62
         7
100
AcDbLine
 10
26.3650287169
 20
11.3979351818
 30
0.0
 11
25.4231775635
 21
10.4560840284
 31
0.0
  0
LINE
  5
1C4
100
AcDbEntity
  8
0
  6
CONTINUOUS
 62
         7
100
AcDbLine
 10
22.7667671338
 20
7.6500026633
 30
0.0
 11
22.3844217747
 21
7.2676573043
 31
0.0
  0
LINE
  5
1C5
100
AcDbEntity
  8
0
  6
CONTINUOUS
 62
         7
100
AcDbLine
 10
26.3919802072
 20
11.2752157367
 30
0.0
 11
25.5728484989
 21
10.4560840284
 31
0.0
  0
LINE
  5
1C6
100
AcDbEntity
  8
0
  6
CONTINUOUS
 62
         7
100
AcDbLine
 10
22.7667671338
 20
7.5003317279
 30
0.0
 11
22.5111809978
 21
7.244745592
 31
0.0
  0
LINE
  5
1C7
100
AcDbEntity
  8
0
  6
CONTINUOUS
 62
         7
100
AcDbLine
 10
26.4148919195
 20
11.1484565137
 30
0.0
 11
25.7225194342
 21
10.4560840284
 31
0.0
  0
LINE
  5
1C8
100
AcDbEntity
  8
0
  6
CONTINUOUS
 62
         7
100
AcDbLine
 10
22.7667671338
 20
7.3506607926
 30
0.0
 11
22.6423119462
 21
7.226205605
 31
0.0
  0
LINE
  5
1C9
100
AcDbEntity
  8
0
  6
CONTINUOUS
 62
         7
100
AcDbLine
 10
26.4334319065
 20
11.0173255653
 30
0.0
 11
25.8721903696
 21
10.4560840284
 31
0.0
  0
LINE
  5
1CA
100
AcDbEntity
  8
0
  6
CONTINUOUS
 62
         7
100
AcDbLine
 10
26.4471977434
 20
10.8814204669
 30
0.0
 11
26.0218613049
 21
10.4560840284
 31
0.0
  0
LINE
  5
1CB
100
AcDbEntity
  8
0
  6
CONTINUOUS
 62
         7
100
AcDbLine
 10
26.4556948211
 20
10.7402466092
 30
0.0
 11
26.1715322403
 21
10.4560840284
 31
0.0
  0
LINE
  5
1CC
100
AcDbEntity
  8
0
  6
CONTINUOUS
 62
         7
100
AcDbLine
 10
26.4583049688
 20
10.5931858216
 30
0.0
 11
26.3212031756
 21
10.4560840284
 31
0.0
  0
LINE
  5
1CD
100
AcDbEntity
  8
0
  6
CONTINUOUS
 62
         8
100
AcDbLine
 10
23.2562918002
 20
10.8612808908
 30
0.0
 11
23.2562918002
 21
14.0052491233
 31
0.0
  0
LINE
  5
1CE
100
AcDbEntity
  8
0
  6
CONTINUOUS
 62
         7
100
AcDbLine
 10
19.6578942184
 20
10.8612808908
 30
0.0
 11
23.2562918002
 21
10.8612808908
 31
0.0
  0
LINE
  5
1CF
100
AcDbEntity
  8
0
  6
CONTINUOUS
 62
         7
100
AcDbLine
 10
22.8549761338
 20
11.2564572108
 30
0.0
 11
22.8549761338
 21
13.9984869012
 31
0.0
  0
LINE
  5
1D0
100
AcDbEntity
  8
0
  6
CONTINUOUS
 62
         7
100
AcDbLine
 10
22.8549761338
 20
11.2564572108
 30
0.0
 11
19.7109806119
 21
11.2564572108
 31
0.0
  0
LINE
  5
1D1
100
AcDbEntity
  8
0
  6
CONTINUOUS
 62
         7
100
AcDbLine
 10
22.7667671338
 20
10.4560840284
 30
0.0
 11
22.7667671338
 21
7.2133873728
 31
0.0
  0
LINE
  5
1D2
100
AcDbEntity
  8
0
  6
CONTINUOUS
 62
         7
100
AcDbLine
 10
23.1680828002
 20
10.0609077084
 30
0.0
 11
23.1680828002
 21
7.2032414011
 31
0.0
  0
LINE
  5
1D3
100
AcDbEntity
  8
0
  6
CONTINUOUS
 62
         7
100
AcDbLine
 10
23.1680828002
 20
10.0609077084
 30
0.0
 11
26.4143667335
 21
10.0609077084
 31
0.0
  0
LINE
  5
1D4
100
AcDbEntity
  8
0
  6
CONTINUOUS
 62
         7
100
AcDbLine
 10
7.2297425429
 20
13.3972649478
 30
0.0
 11
5.2889740406
 21
13.4055126615
 31
0.0
  0
LINE
  5
1D5
100
AcDbEntity
  8
0
  6
CONTINUOUS
 62
         7
100
AcDbLine
 10
5.2889740406
 20
13.4055126615
 30
0.0
 11
3.9467439889
 21
11.2808443194
 31
0.0
  0
LINE
  5
1D6
100
AcDbEntity
  8
0
  6
CONTINUOUS
 62
         7
100
AcDbLine
 10
3.9467439889
 20
11.2808443194
 30
0.0
 11
3.4388859971
 21
11.2830025713
 31
0.0
  0
LINE
  5
1D7
100
AcDbEntity
  8
0
  6
CONTINUOUS
 62
         7
100
AcDbLine
 10
3.4388859971
 20
11.2830025713
 30
0.0
 11
3.4479562385
 21
13.4173199461
 31
0.0
  0
LINE
  5
1D8
100
AcDbEntity
  8
0
  6
CONTINUOUS
 62
         7
100
AcDbLine
 10
3.4479562385
 20
13.4173199461
 30
0.0
 11
2.4231883809
 21
13.4173199461
 31
0.0
  0
LINE
  5
1D9
100
AcDbEntity
  8
0
  6
CONTINUOUS
 62
         7
100
AcDbLine
 10
7.2297425429
 20
13.3972649478
 30
0.0
 11
5.3211888719
 21
10.6391616703
 31
0.0
  0
LINE
  5
1DA
100
AcDbEntity
  8
0
  6
CONTINUOUS
 62
         7
100
AcDbLine
 10
5.3211888719
 20
10.6391616703
 30
0.0
 11
7.3837528704
 21
7.7422213546
 31
0.0
  0
LINE
  5
1DB
100
AcDbEntity
  8
0
  6
CONTINUOUS
 62
         7
100
AcDbLine
 10
5.3757986248
 20
7.7507545887
 30
0.0
 11
3.9331739972
 21
9.9916276019
 31
0.0
  0
LINE
  5
1DC
100
AcDbEntity
  8
0
  6
CONTINUOUS
 62
         7
100
AcDbLine
 10
3.9331739972
 20
9.9916276019
 30
0.0
 11
3.4334070469
 21
9.9937514692
 31
0.0
  0
LINE
  5
1DD
100
AcDbEntity
  8
0
  6
CONTINUOUS
 62
         7
100
AcDbLine
 10
3.4334070469
 20
9.9937514692
 30
0.0
 11
3.4239101998
 21
7.759049559
 31
0.0
  0
LINE
  5
1DE
100
AcDbEntity
  8
0
  6
CONTINUOUS
 62
         8
100
AcDbLine
 10
1.8276717801
 20
8.4812854405
 30
0.0
 11
1.8276717801
 21
12.728263352
 31
0.0
  0
LINE
  5
1DF
100
AcDbEntity
  8
0
  6
CONTINUOUS
 62
         7
100
AcDbLine
 10
5.3757986248
 20
7.7507545887
 30
0.0
 11
7.3837528704
 21
7.7422213546
 31
0.0
  0
LINE
  5
1E0
100
AcDbEntity
  8
0
  6
CONTINUOUS
 62
         7
100
AcDbLine
 10
2.4985804204
 20
7.759049559
 30
0.0
 11
3.4239101998
 21
7.759049559
 31
0.0
  0
LINE
  5
1E1
100
AcDbEntity
  8
0
  6
CONTINUOUS
 62
         7
100
AcDbLine
 10
12.1786098105
 20
13.4173199461
 30
0.0
 11
12.1786098105
 21
12.2078687053
 31
0.0
  0
LINE
  5
1E2
100
AcDbEntity
  8
0
  6
CONTINUOUS
 62
         7
100
AcDbLine
 10
12.1786098105
 20
12.2078687053
 30
0.0
 11
9.4957154337
 21
12.2078687053
 31
0.0
  0
LINE
  5
1E3
100
AcDbEntity
  8
0
  6
CONTINUOUS
 62
         7
100
AcDbLine
 10
9.4957154337
 20
7.7629819117
 30
0.0
 11
7.9179034089
 21
7.7629819117
 31
0.0
  0
LINE
  5
1E4
100
AcDbEntity
  8
0
  6
CONTINUOUS
 62
         7
100
AcDbLine
 10
7.9179034089
 20
7.7629819117
 30
0.0
 11
7.9179034089
 21
12.6875755031
 31
0.0
  0
LINE
  5
1E5
100
AcDbEntity
  8
0
  6
CONTINUOUS
 62
         7
100
AcDbLine
 10
9.4957154337
 20
11.0598109285
 30
0.0
 11
11.9760113793
 21
11.0598109285
 31
0.0
  0
LINE
  5
1E6
100
AcDbEntity
  8
0
  6
CONTINUOUS
 62
         7
100
AcDbLine
 10
11.9760113793
 20
11.0598109285
 30
0.0
 11
11.9760113793
 21
9.8503596877
 31
0.0
  0
LINE
  5
1E7
100
AcDbEntity
  8
0
  6
CONTINUOUS
 62
         7
100
AcDbLine
 10
11.9760113793
 20
9.8503596877
 30
0.0
 11
9.4957154337
 21
9.8503596877
 31
0.0
  0
LINE
  5
1E8
100
AcDbEntity
  8
0
  6
CONTINUOUS
 62
         7
100
AcDbLine
 10
12.1786098105
 20
13.4173199461
 30
0.0
 11
8.5044269799
 21
13.4173199461
 31
0.0
  0
LINE
  5
1E9
100
AcDbEntity
  8
0
  6
CONTINUOUS
 62
         7
100
AcDbLine
 10
9.4957154337
 20
9.8503596877
 30
0.0
 11
9.4957154337
 21
7.7629819117
 31
0.0
  0
LINE
  5
1EA
100
AcDbEntity
  8
0
  6
CONTINUOUS
 62
         7
100
AcDbLine
 10
9.4957154337
 20
11.0598109285
 30
0.0
 11
9.4957154337
 21
12.2078687053
 31
0.0
  0
LINE
  5
1EB
100
AcDbEntity
  8
0
  6
CONTINUOUS
 62
         7
100
AcDbLine
 10
14.2107334689
 20
13.4173199461
 30
0.0
 11
12.584659938
 21
13.4173199461
 31
0.0
  0
LINE
  5
1EC
100
AcDbEntity
  8
0
  6
CONTINUOUS
 62
         7
100
AcDbLine
 10
12.584659938
 20
13.4173199461
 30
0.0
 11
14.2905449721
 21
7.7629819117
 31
0.0
  0
LINE
  5
1ED
100
AcDbEntity
  8
0
  6
CONTINUOUS
 62
         7
100
AcDbLine
 10
14.2107334689
 20
13.4173199461
 30
0.0
 11
15.5518438753
 21
8.968529647
 31
0.0
  0
LINE
  5
1EE
100
AcDbEntity
  8
0
  6
CONTINUOUS
 62
         7
100
AcDbLine
 10
15.5518438753
 20
8.968529647
 30
0.0
 11
16.9177005461
 21
13.4173199461
 31
0.0
  0
LINE
  5
1EF
100
AcDbEntity
  8
0
  6
CONTINUOUS
 62
         7
100
AcDbLine
 10
16.9177005461
 20
13.4173199461
 30
0.0
 11
18.5758087593
 21
13.4173199461
 31
0.0
  0
LINE
  5
1F0
100
AcDbEntity
  8
0
  6
CONTINUOUS
 62
         7
100
AcDbLine
 10
18.5758087593
 20
13.4173199461
 30
0.0
 11
16.9734393489
 21
8.2725476629
 31
0.0
  0
LINE
  5
1F1
100
AcDbEntity
  8
0
  6
CONTINUOUS
 62
         7
100
AcDbLine
 10
14.2905449721
 20
7.7629819117
 30
0.0
 11
16.4638735977
 21
7.7629819117
 31
0.0
  0
LINE
  5
1F2
100
AcDbEntity
  8
0
  6
CONTINUOUS
 62
         7
100
AcDbLine
 10
22.8549761338
 20
13.9984869012
 30
0.0
 11
22.8549761338
 21
14.0055208833
 31
0.0
  0
LINE
  5
1F3
100
AcDbEntity
  8
0
  6
CONTINUOUS
 62
         7
100
AcDbLine
 10
22.7667671338
 20
10.4560840284
 30
0.0
 11
26.4550149078
 21
10.4560840284
 31
0.0
  0
ARC
  5
1F4
100
AcDbEntity
  8
0
  6
CONTINUOUS
 62
         8
100
AcDbCircle
 10
23.0533322032
 20
10.6063053083
 30
0.0
 40
3.4049980405
100
AcDbArc
 50
357.4714112077
 51
86.5827806056
  0
ARC
  5
1F5
100
AcDbEntity
  8
0
  6
CONTINUOUS
 62
         7
100
AcDbCircle
 10
23.0533322032
 20
10.6063053083
 30
0.0
 40
3.4049980405
100
AcDbArc
 50
93.3396211374
 51
168.9923263725
  0
ARC
  5
1F6
100
AcDbEntity
  8
0
  6
CONTINUOUS
 62
         7
100
AcDbCircle
 10
23.0533322032
 20
10.6063053083
 30
0.0
 40
3.4049980405
100
AcDbArc
 50
175.7055151515
 51
265.1722693314
  0
ARC
  5
1F7
100
AcDbEntity
  8
0
  6
CONTINUOUS
 62
         7
100
AcDbCircle
 10
23.0533322032
 20
10.6063053083
 30
0.0
 40
3.4049980405
100
AcDbArc
 50
271.931269852
 51
350.7829112568
  0
ARC
  5
1F8
100
AcDbEntity
  8
0
  6
CONTINUOUS
 62
         7
100
AcDbCircle
 10
2.4912694062
 20
12.7566153095
 30
0.0
 40
0.6642030133
100
AcDbArc
 50
95.8831686425
 51
182.4464526394
  0
ARC
  5
1F9
100
AcDbEntity
  8
0
  6
CONTINUOUS
 62
         7
100
AcDbCircle
 10
2.4957327406
 20
8.4291367361
 30
0.0
 40
0.670093228
100
AcDbArc
 50
175.5365540319
 51
270.2434892902
  0
ARC
  5
1FA
100
AcDbEntity
  8
0
  6
CONTINUOUS
 62
         7
100
AcDbCircle
 10
8.5396202268
 20
12.7884558294
 30
0.0
 40
0.6298481102
100
AcDbArc
 50
93.2031139033
 51
189.2165383912
  0
ARC
  5
1FB
100
AcDbEntity
  8
0
  6
CONTINUOUS
 62
         7
100
AcDbCircle
 10
16.2944276371
 20
8.4419936235
 30
0.0
 40
0.6998348651
100
AcDbArc
 50
284.0118622867
 51
345.9881377134
  0
ENDBLK
  5
1FC
100
AcDbEntity
  8
0
100
AcDbBlockEnd
  0
BLOCK
  5
1FE
100
AcDbEntity
  8
0
 62
         0
100
AcDbBlockBegin
  2
FEHLENDE_MAßE_SIEHE_WERKN3
 70
         2
 10
0.0
 20
0.0
 30
0.0
  3
FEHLENDE_MAßE_SIEHE_WERKN3
  1

  0
MTEXT
  5
1FF
100
AcDbEntity
  8
0
 62
         8
100
AcDbMText
 10
0.0075281459
 20
4.3842654469
 30
0.0
 40
3.5
 41
0.0
 71
         1
 72
         1
  1
fehlende Maße siehe Werknorm 25
  7
SLDTEXTSTYLE0
  0
ENDBLK
  5
200
100
AcDbEntity
  8
0
100
AcDbBlockEnd
  0
BLOCK
  5
2F8
100
AcDbEntity
  8
0
 62
         7
100
AcDbBlockBegin
  2
*D4
 70
         1
 10
0.0
 20
0.0
 30
0.0
  3
*D4
  1

  0
MTEXT
  5
2F9
100
AcDbEntity
  8
0
 62
         7
100
AcDbMText
 10
100.5638371338
 20
169.9621896396
 30
0.0
 40
3.5
 41
0.0
 71
         1
 72
         1
  1
11
  7
SLDTEXTSTYLE0
 11
0.0
 21
1.0
 31
0.0
  0
LINE
  5
2FA
100
AcDbEntity
  8
0
 62
         7
100
AcDbLine
 10
110.5060000704
 20
195.1425505923
 30
0.0
 11
104.0769948539
 21
195.1425505923
 31
0.0
  0
LINE
  5
2FB
100
AcDbEntity
  8
0
 62
         7
100
AcDbLine
 10
105.0769948539
 20
195.1425505923
 30
0.0
 11
105.0769948539
 21
184.1425505923
 31
0.0
  0
LINE
  5
2FC
100
AcDbEntity
  8
0
 62
         7
100
AcDbLine
 10
105.0769948539
 20
184.1425505923
 30
0.0
 11
105.0769948539
 21
168.3746896396
 31
0.0
  0
SOLID
  5
2FD
100
AcDbEntity
  8
0
 62
         7
100
AcDbTrace
 10
105.0769948539
 20
195.1425505923
 30
0.0
 11
104.7669948539
 21
192.6425505923
 31
0.0
 12
105.3869948539
 22
192.6425505923
 32
0.0
 13
105.3869948539
 23
192.6425505923
 33
0.0
  0
SOLID
  5
2FE
100
AcDbEntity
  8
0
 62
         7
100
AcDbTrace
 10
105.0769948539
 20
184.1425505923
 30
0.0
 11
105.3869948539
 21
186.6425505923
 31
0.0
 12
104.7669948539
 22
186.6425505923
 32
0.0
 13
104.7669948539
 23
186.6425505923
 33
0.0
  0
POINT
  5
300
100
AcDbEntity
  8
DEFPOINTS
 62
         7
100
AcDbPoint
 10
110.5060000704
 20
195.1425505923
 30
0.0
  0
POINT
  5
301
100
AcDbEntity
  8
DEFPOINTS
 62
         7
100
AcDbPoint
 10
69.3510217464
 20
184.1425505923
 30
0.0
  0
ENDBLK
  5
302
100
AcDbEntity
  8
0
 62
         7
100
AcDbBlockEnd
  0
BLOCK
  5
305
100
AcDbEntity
  8
0
 62
         7
100
AcDbBlockBegin
  2
*D5
 70
         1
 10
0.0
 20
0.0
 30
0.0
  3
*D5
  1

  0
MTEXT
  5
306
100
AcDbEntity
  8
0
 62
         7
100
AcDbMText
 10
157.2132145587
 20
222.6313536294
 30
0.0
 40
3.5
 41
0.0
 71
         1
 72
         1
  1
180
  7
SLDTEXTSTYLE0
 11
1.0
 21
0.0
 31
0.0
  0
LINE
  5
307
100
AcDbEntity
  8
0
 62
         7
100
AcDbLine
 10
249.3510217464
 20
184.1425505923
 30
0.0
 11
249.3510217464
 21
219.1181959093
 31
0.0
  0
LINE
  5
308
100
AcDbEntity
  8
0
 62
         7
100
AcDbLine
 10
69.3510217464
 20
184.1425505923
 30
0.0
 11
69.3510217464
 21
219.1181959093
 31
0.0
  0
LINE
  5
309
100
AcDbEntity
  8
0
 62
         7
100
AcDbLine
 10
249.3510217464
 20
218.1181959093
 30
0.0
 11
69.3510217464
 21
218.1181959093
 31
0.0
  0
SOLID
  5
30A
100
AcDbEntity
  8
0
 62
         7
100
AcDbTrace
 10
249.3510217464
 20
218.1181959093
 30
0.0
 11
246.8510217464
 21
218.4281959093
 31
0.0
 12
246.8510217464
 22
217.8081959093
 32
0.0
 13
246.8510217464
 23
217.8081959093
 33
0.0
  0
SOLID
  5
30B
100
AcDbEntity
  8
0
 62
         7
100
AcDbTrace
 10
69.3510217464
 20
218.1181959093
 30
0.0
 11
71.8510217464
 21
217.8081959093
 31
0.0
 12
71.8510217464
 22
218.4281959093
 32
0.0
 13
71.8510217464
 23
218.4281959093
 33
0.0
  0
POINT
  5
30C
100
AcDbEntity
  8
DEFPOINTS
 62
         7
100
AcDbPoint
 10
249.3510217464
 20
184.1425505923
 30
0.0
  0
POINT
  5
30D
100
AcDbEntity
  8
DEFPOINTS
 62
         7
100
AcDbPoint
 10
69.3510217464
 20
184.1425505923
 30
0.0
  0
ENDBLK
  5
30E
100
AcDbEntity
  8
0
 62
         7
100
AcDbBlockEnd
  0
BLOCK
  5
311
100
AcDbEntity
  8
0
 62
         7
100
AcDbBlockBegin
  2
*D6
 70
         1
 10
0.0
 20
0.0
 30
0.0
  3
*D6
  1

  0
MTEXT
  5
312
100
AcDbEntity
  8
0
 62
         7
100
AcDbMText
 10
256.9044353691
 20
187.5580873154
 30
0.0
 40
3.5
 41
0.0
 71
         1
 72
         1
  1
12
  7
SLDTEXTSTYLE0
 11
0.0
 21
1.0
 31
0.0
  0
LINE
  5
313
100
AcDbEntity
  8
0
 62
         7
100
AcDbLine
 10
237.3510217464
 20
196.1425505923
 30
0.0
 11
262.4175930893
 21
196.1425505923
 31
0.0
  0
LINE
  5
314
100
AcDbEntity
  8
0
 62
         7
100
AcDbLine
 10
231.3841404216
 20
184.1425505923
 30
0.0
 11
262.4175930893
 21
184.1425505923
 31
0.0
  0
LINE
  5
315
100
AcDbEntity
  8
0
 62
         7
100
AcDbLine
 10
261.4175930893
 20
196.1425505923
 30
0.0
 11
261.4175930893
 21
184.1425505923
 31
0.0
  0
SOLID
  5
316
100
AcDbEntity
  8
0
 62
         7
100
AcDbTrace
 10
261.4175930893
 20
196.1425505923
 30
0.0
 11
261.1075930893
 21
193.6425505923
 31
0.0
 12
261.7275930893
 22
193.6425505923
 32
0.0
 13
261.7275930893
 23
193.6425505923
 33
0.0
  0
SOLID
  5
317
100
AcDbEntity
  8
0
 62
         7
100
AcDbTrace
 10
261.4175930893
 20
184.1425505923
 30
0.0
 11
261.7275930893
 21
186.6425505923
 31
0.0
 12
261.1075930893
 22
186.6425505923
 32
0.0
 13
261.1075930893
 23
186.6425505923
 33
0.0
  0
POINT
  5
318
100
AcDbEntity
  8
DEFPOINTS
 62
         7
100
AcDbPoint
 10
237.3510217464
 20
196.1425505923
 30
0.0
  0
POINT
  5
319
100
AcDbEntity
  8
DEFPOINTS
 62
         7
100
AcDbPoint
 10
231.3841404216
 20
184.1425505923
 30
0.0
  0
ENDBLK
  5
31A
100
AcDbEntity
  8
0
 62
         7
100
AcDbBlockEnd
  0
BLOCK
  5
31D
100
AcDbEntity
  8
0
 62
         7
100
AcDbBlockBegin
  2
*D7
 70
         1
 10
0.0
 20
0.0
 30
0.0
  3
*D7
  1

  0
MTEXT
  5
31E
100
AcDbEntity
  8
0
 62
         7
100
AcDbMText
 10
128.057063292
 20
172.868423425
 30
0.0
 40
3.5
 41
0.0
 71
         1
 72
         1
  1
5
  7
SLDTEXTSTYLE0
 11
0.0
 21
1.0
 31
0.0
  0
LINE
  5
31F
100
AcDbEntity
  8
0
 62
         7
100
AcDbLine
 10
132.5702210121
 20
189.1425505923
 30
0.0
 11
132.5702210121
 21
193.6425505923
 31
0.0
  0
LINE
  5
320
100
AcDbEntity
  8
0
 62
         7
100
AcDbLine
 10
132.5702210121
 20
189.1425505923
 30
0.0
 11
132.5702210121
 21
184.1425505923
 31
0.0
  0
LINE
  5
321
100
AcDbEntity
  8
0
 62
         7
100
AcDbLine
 10
132.5702210121
 20
184.1425505923
 30
0.0
 11
132.5702210121
 21
169.693423425
 31
0.0
  0
ARC
  5
322
100
AcDbEntity
  8
0
 62
         7
100
AcDbCircle
 10
129.7939498256
 20
176.8334657979
 30
0.0
 40
6.2079310969
100
AcDbArc
 50
243.4349488229
 51
296.5650511771
  0
ARC
  5
323
100
AcDbEntity
  8
0
 62
         7
100
AcDbCircle
 10
129.7939498256
 20
171.4858669278
 30
0.0
 40
6.2079310969
100
AcDbArc
 50
63.4349488229
 51
116.5650511771
  0
SOLID
  5
324
100
AcDbEntity
  8
0
 62
         7
100
AcDbTrace
 10
132.5702210121
 20
189.1425505923
 30
0.0
 11
132.8802210121
 21
191.6425505923
 31
0.0
 12
132.2602210121
 22
191.6425505923
 32
0.0
 13
132.2602210121
 23
191.6425505923
 33
0.0
  0
SOLID
  5
325
100
AcDbEntity
  8
0
 62
         7
100
AcDbTrace
 10
132.5702210121
 20
184.1425505923
 30
0.0
 11
132.2602210121
 21
181.6425505923
 31
0.0
 12
132.8802210121
 22
181.6425505923
 32
0.0
 13
132.8802210121
 23
181.6425505923
 33
0.0
  0
POINT
  5
326
100
AcDbEntity
  8
DEFPOINTS
 62
         7
100
AcDbPoint
 10
116.6010217464
 20
189.1425505923
 30
0.0
  0
POINT
  5
327
100
AcDbEntity
  8
DEFPOINTS
 62
         7
100
AcDbPoint
 10
69.3510217464
 20
184.1425505923
 30
0.0
  0
ENDBLK
  5
328
100
AcDbEntity
  8
0
 62
         7
100
AcDbBlockEnd
  0
BLOCK
  5
32F
100
AcDbEntity
  8
0
 62
         0
100
AcDbBlockBegin
  2
CENTERMARK0
 70
         0
 10
0.0
 20
0.0
 30
0.0
  3
CENTERMARK0
  1

  0
LINE
  5
330
100
AcDbEntity
  8
0
 62
         7
100
AcDbLine
 10
234.8510217464
 20
196.1425505923
 30
0.0
 11
239.8510217464
 21
196.1425505923
 31
0.0
  0
LINE
  5
331
100
AcDbEntity
  8
0
 62
         7
100
AcDbLine
 10
237.3510217464
 20
193.6425505923
 30
0.0
 11
237.3510217464
 21
198.6425505923
 31
0.0
  0
LINE
  5
332
100
AcDbEntity
  8
0
 62
         7
100
AcDbLine
 10
242.3510217464
 20
196.1425505923
 30
0.0
 11
244.3510217464
 21
196.1425505923
 31
0.0
  0
LINE
  5
333
100
AcDbEntity
  8
0
 62
         7
100
AcDbLine
 10
232.3510217464
 20
196.1425505923
 30
0.0
 11
230.3510217464
 21
196.1425505923
 31
0.0
  0
LINE
  5
334
100
AcDbEntity
  8
0
 62
         7
100
AcDbLine
 10
237.3510217464
 20
201.1425505923
 30
0.0
 11
237.3510217464
 21
203.1425505923
 31
0.0
  0
LINE
  5
335
100
AcDbEntity
  8
0
 62
         7
100
AcDbLine
 10
237.3510217464
 20
191.1425505923
 30
0.0
 11
237.3510217464
 21
189.1425505923
 31
0.0
  0
ENDBLK
  5
336
100
AcDbEntity
  8
0
100
AcDbBlockEnd
  0
BLOCK
  5
339
100
AcDbEntity
  8
0
 62
         0
100
AcDbBlockBegin
  2
SW_CENTERMARK0
 70
         0
 10
0.0
 20
0.0
 30
0.0
  3
SW_CENTERMARK0
  1

  0
LINE
  5
33A
100
AcDbEntity
  8
0
  6
CONTINUOUS
 62
         7
100
AcDbLine
 10
81.3510217464
 20
196.1425505923
 30
0.0
 11
81.3510217464
 21
198.6425505923
 31
0.0
  0
LINE
  5
33B
100
AcDbEntity
  8
0
  6
CONTINUOUS
 62
         7
100
AcDbLine
 10
81.3510217464
 20
196.1425505923
 30
0.0
 11
78.8510217464
 21
196.1425505923
 31
0.0
  0
LINE
  5
33C
100
AcDbEntity
  8
0
  6
CONTINUOUS
 62
         7
100
AcDbLine
 10
81.3510217464
 20
196.1425505923
 30
0.0
 11
81.3510217464
 21
193.6425505923
 31
0.0
  0
LINE
  5
33D
100
AcDbEntity
  8
0
  6
CONTINUOUS
 62
         7
100
AcDbLine
 10
81.3510217464
 20
196.1425505923
 30
0.0
 11
83.8510217464
 21
196.1425505923
 31
0.0
  0
LINE
  5
33E
100
AcDbEntity
  8
0
  6
CONTINUOUS
 62
         7
100
AcDbLine
 10
81.3510217464
 20
201.1425505923
 30
0.0
 11
81.3510217464
 21
203.1425505923
 31
0.0
  0
LINE
  5
33F
100
AcDbEntity
  8
0
  6
CONTINUOUS
 62
         7
100
AcDbLine
 10
76.3510217464
 20
196.1425505923
 30
0.0
 11
74.3510217464
 21
196.1425505923
 31
0.0
  0
LINE
  5
340
100
AcDbEntity
  8
0
  6
CONTINUOUS
 62
         7
100
AcDbLine
 10
81.3510217464
 20
191.1425505923
 30
0.0
 11
81.3510217464
 21
189.1425505923
 31
0.0
  0
LINE
  5
341
100
AcDbEntity
  8
0
  6
CONTINUOUS
 62
         7
100
AcDbLine
 10
86.3510217464
 20
196.1425505923
 30
0.0
 11
88.3510217464
 21
196.1425505923
 31
0.0
  0
ENDBLK
  5
342
100
AcDbEntity
  8
0
100
AcDbBlockEnd
  0
BLOCK
  5
349
100
AcDbEntity
  8
0
 62
         7
100
AcDbBlockBegin
  2
*D10
 70
         1
 10
0.0
 20
0.0
 30
0.0
  3
*D10
  1

  0
MTEXT
  5
34A
100
AcDbEntity
  8
0
 62
         7
100
AcDbMText
 10
315.8004611954
 20
191.6576740556
 30
0.0
 40
3.5
 41
0.0
 71
         1
 72
         1
  1
24
  7
SLDTEXTSTYLE0
 11
0.0
 21
1.0
 31
0.0
  0
LINE
  5
34B
100
AcDbEntity
  8
0
 62
         7
100
AcDbLine
 10
308.1279069767
 20
184.3325581395
 30
0.0
 11
321.3136189155
 21
184.3325581395
 31
0.0
  0
LINE
  5
34C
100
AcDbEntity
  8
0
 62
         7
100
AcDbLine
 10
308.1279069767
 20
208.3325581395
 30
0.0
 11
321.3136189155
 21
208.3325581395
 31
0.0
  0
LINE
  5
34D
100
AcDbEntity
  8
0
 62
         7
100
AcDbLine
 10
320.3136189155
 20
184.3325581395
 30
0.0
 11
320.3136189155
 21
208.3325581395
 31
0.0
  0
SOLID
  5
34E
100
AcDbEntity
  8
0
 62
         7
100
AcDbTrace
 10
320.3136189155
 20
184.3325581395
 30
0.0
 11
320.6236189155
 21
186.8325581395
 31
0.0
 12
320.0036189155
 22
186.8325581395
 32
0.0
 13
320.0036189155
 23
186.8325581395
 33
0.0
  0
SOLID
  5
34F
100
AcDbEntity
  8
0
 62
         7
100
AcDbTrace
 10
320.3136189155
 20
208.3325581395
 30
0.0
 11
320.0036189155
 21
205.8325581395
 31
0.0
 12
320.6236189155
 22
205.8325581395
 32
0.0
 13
320.6236189155
 23
205.8325581395
 33
0.0
  0
POINT
  5
350
100
AcDbEntity
  8
DEFPOINTS
 62
         7
100
AcDbPoint
 10
308.1279069767
 20
184.3325581395
 30
0.0
  0
POINT
  5
351
100
AcDbEntity
  8
DEFPOINTS
 62
         7
100
AcDbPoint
 10
308.1279069767
 20
208.3325581395
 30
0.0
  0
ENDBLK
  5
352
100
AcDbEntity
  8
0
 62
         7
100
AcDbBlockEnd
  0
BLOCK
  5
355
100
AcDbEntity
  8
0
 62
         7
100
AcDbBlockBegin
  2
*D11
 70
         1
 10
0.0
 20
0.0
 30
0.0
  3
*D11
  1

  0
MTEXT
  5
356
100
AcDbEntity
  8
0
 62
         7
100
AcDbMText
 10
321.7942872765
 20
218.7436859756
 30
0.0
 40
3.5
 41
0.0
 71
         1
 72
         1
  1
3
  7
SLDTEXTSTYLE0
  0
LINE
  5
357
100
AcDbEntity
  8
0
 62
         7
100
AcDbLine
 10
308.1279069767
 20
196.3325581395
 30
0.0
 11
308.1279069767
 21
215.2305282555
 31
0.0
  0
LINE
  5
358
100
AcDbEntity
  8
0
 62
         7
100
AcDbLine
 10
311.1279069767
 20
196.3325581395
 30
0.0
 11
311.1279069767
 21
215.2305282555
 31
0.0
  0
LINE
  5
359
100
AcDbEntity
  8
0
 62
         7
100
AcDbLine
 10
308.1279069767
 20
214.2305282555
 30
0.0
 11
303.6279069767
 21
214.2305282555
 31
0.0
  0
LINE
  5
35A
100
AcDbEntity
  8
0
 62
         7
100
AcDbLine
 10
308.1279069767
 20
214.2305282555
 30
0.0
 11
311.1279069767
 21
214.2305282555
 31
0.0
  0
LINE
  5
35B
100
AcDbEntity
  8
0
 62
         7
100
AcDbLine
 10
311.1279069767
 20
214.2305282555
 30
0.0
 11
325.9642731522
 21
214.2305282555
 31
0.0
  0
SOLID
  5
35C
100
AcDbEntity
  8
0
 62
         7
100
AcDbTrace
 10
308.1279069767
 20
214.2305282555
 30
0.0
 11
305.6279069767
 21
214.5405282555
 31
0.0
 12
305.6279069767
 22
213.9205282555
 32
0.0
 13
305.6279069767
 23
213.9205282555
 33
0.0
  0
SOLID
  5
35D
100
AcDbEntity
  8
0
 62
         7
100
AcDbTrace
 10
311.1279069767
 20
214.2305282555
 30
0.0
 11
313.6279069767
 21
213.9205282555
 31
0.0
 12
313.6279069767
 22
214.5405282555
 32
0.0
 13
313.6279069767
 23
214.5405282555
 33
0.0
  0
POINT
  5
35E
100
AcDbEntity
  8
DEFPOINTS
 62
         7
100
AcDbPoint
 10
308.1279069767
 20
196.3325581395
 30
0.0
  0
POINT
  5
35F
100
AcDbEntity
  8
DEFPOINTS
 62
         7
100
AcDbPoint
 10
311.1279069767
 20
196.3325581395
 30
0.0
  0
ENDBLK
  5
360
100
AcDbEntity
  8
0
 62
         7
100
AcDbBlockEnd
  0
ENDSEC
  0
SECTION
  2
ENTITIES
  0
LINE
  5
201
100
AcDbEntity
  8
0
  6
CONTINUOUS
 62
         7
100
AcDbLine
 10
276.5
 20
72.0
 30
0.0
 11
265.0
 21
72.0
 31
0.0
  0
LINE
  5
202
100
AcDbEntity
  8
0
  6
CONTINUOUS
 62
         7
100
AcDbLine
 10
276.5
 20
37.0
 30
0.0
 11
279.0
 21
37.0
 31
0.0
  0
LINE
  5
203
100
AcDbEntity
  8
0
  6
CONTINUOUS
 62
         7
100
AcDbLine
 10
264.0
 20
15.0
 30
0.0
 11
338.0
 21
15.0
 31
0.0
  0
LINE
  5
204
100
AcDbEntity
  8
0
  6
CONTINUOUS
 62
         7
100
AcDbLine
 10
404.0
 20
23.0
 30
0.0
 11
410.0
 21
23.0
 31
0.0
  0
LINE
  5
205
100
AcDbEntity
  8
0
  6
CONTINUOUS
 62
         7
100
AcDbLine
 10
225.0
 20
72.0
 30
0.0
 11
225.0
 21
67.0
 31
0.0
  0
LINE
  5
206
100
AcDbEntity
  8
0
  6
CONTINUOUS
 62
         7
100
AcDbLine
 10
331.3034473583
 20
58.0
 30
0.0
 11
334.6247022163
 21
58.0
 31
0.0
  0
LINE
  5
207
100
AcDbEntity
  8
0
  6
CONTINUOUS
 62
         7
100
AcDbLine
 10
334.6247022163
 20
53.0
 30
0.0
 11
331.3034473583
 21
53.0
 31
0.0
  0
LINE
  5
208
100
AcDbEntity
  8
0
  6
CONTINUOUS
 62
         7
100
AcDbLine
 10
410.0
 20
32.0
 30
0.0
 11
338.0
 21
32.0
 31
0.0
  0
LINE
  5
209
100
AcDbEntity
  8
0
  6
CONTINUOUS
 62
         7
100
AcDbLine
 10
320.5
 20
32.0
 30
0.0
 11
320.5
 21
37.0
 31
0.0
  0
LINE
  5
20A
100
AcDbEntity
  8
0
  6
CONTINUOUS
 62
         7
100
AcDbLine
 10
306.0
 20
32.0
 30
0.0
 11
306.0
 21
37.0
 31
0.0
  0
LINE
  5
20B
100
AcDbEntity
  8
0
  6
CONTINUOUS
 62
         7
100
AcDbLine
 10
410.0
 20
15.0
 30
0.0
 11
404.0
 21
15.0
 31
0.0
  0
LINE
  5
20C
100
AcDbEntity
  8
0
  6
CONTINUOUS
 62
         7
100
AcDbLine
 10
404.0
 20
15.0
 30
0.0
 11
404.0
 21
23.0
 31
0.0
  0
LINE
  5
20D
100
AcDbEntity
  8
0
  6
CONTINUOUS
 62
         7
100
AcDbLine
 10
338.0
 20
65.5
 30
0.0
 11
293.0
 21
65.5
 31
0.0
  0
LINE
  5
20E
100
AcDbEntity
  8
0
  6
CONTINUOUS
 62
         7
100
AcDbLine
 10
293.0
 20
59.0
 30
0.0
 11
338.0
 21
59.0
 31
0.0
  0
LINE
  5
20F
100
AcDbEntity
  8
0
  6
CONTINUOUS
 62
         7
100
AcDbLine
 10
338.0
 20
72.0
 30
0.0
 11
338.0
 21
65.5
 31
0.0
  0
LINE
  5
210
100
AcDbEntity
  8
0
  6
CONTINUOUS
 62
         7
100
AcDbLine
 10
338.0
 20
47.0
 30
0.0
 11
410.0
 21
47.0
 31
0.0
  0
LINE
  5
211
100
AcDbEntity
  8
0
  6
CONTINUOUS
 62
         7
100
AcDbLine
 10
293.0
 20
52.0
 30
0.0
 11
306.0
 21
52.0
 31
0.0
  0
LINE
  5
212
100
AcDbEntity
  8
0
  6
CONTINUOUS
 62
         7
100
AcDbLine
 10
275.5
 20
72.0
 30
0.0
 11
275.5
 21
37.0
 31
0.0
  0
LINE
  5
213
100
AcDbEntity
  8
0
  6
CONTINUOUS
 62
         7
100
AcDbLine
 10
410.0
 20
72.0
 30
0.0
 11
338.0
 21
72.0
 31
0.0
  0
LINE
  5
214
100
AcDbEntity
  8
0
  6
CONTINUOUS
 62
         7
100
AcDbLine
 10
293.0
 20
32.0
 30
0.0
 11
293.0
 21
37.0
 31
0.0
  0
LINE
  5
215
100
AcDbEntity
  8
0
  6
CONTINUOUS
 62
         7
100
AcDbLine
 10
275.5
 20
32.0
 30
0.0
 11
275.5
 21
37.0
 31
0.0
  0
LINE
  5
216
100
AcDbEntity
  8
0
  6
CONTINUOUS
 62
         7
100
AcDbLine
 10
231.0
 20
32.0
 30
0.0
 11
231.0
 21
37.0
 31
0.0
  0
LINE
  5
217
100
AcDbEntity
  8
0
  6
CONTINUOUS
 62
         7
100
AcDbLine
 10
225.0
 20
37.0
 30
0.0
 11
231.0
 21
37.0
 31
0.0
  0
LINE
  5
218
100
AcDbEntity
  8
0
  6
CONTINUOUS
 62
         7
100
AcDbLine
 10
225.0
 20
42.0
 30
0.0
 11
265.0
 21
42.0
 31
0.0
  0
LINE
  5
219
100
AcDbEntity
  8
0
  6
CONTINUOUS
 62
         7
100
AcDbLine
 10
225.0
 20
47.0
 30
0.0
 11
265.0
 21
47.0
 31
0.0
  0
LINE
  5
21A
100
AcDbEntity
  8
0
  6
CONTINUOUS
 62
         7
100
AcDbLine
 10
225.0
 20
52.0
 30
0.0
 11
231.0
 21
52.0
 31
0.0
  0
LINE
  5
21B
100
AcDbEntity
  8
0
  6
CONTINUOUS
 62
         7
100
AcDbLine
 10
225.0
 20
57.0
 30
0.0
 11
231.0
 21
57.0
 31
0.0
  0
LINE
  5
21C
100
AcDbEntity
  8
0
  6
CONTINUOUS
 62
         7
100
AcDbLine
 10
225.0
 20
62.0
 30
0.0
 11
231.0
 21
62.0
 31
0.0
  0
LINE
  5
21D
100
AcDbEntity
  8
0
  6
CONTINUOUS
 62
         7
100
AcDbLine
 10
225.0
 20
67.0
 30
0.0
 11
231.0
 21
67.0
 31
0.0
  0
LINE
  5
21E
100
AcDbEntity
  8
0
  6
CONTINUOUS
 62
         7
100
AcDbLine
 10
404.0
 20
15.0
 30
0.0
 11
338.0
 21
15.0
 31
0.0
  0
LINE
  5
21F
100
AcDbEntity
  8
0
  6
CONTINUOUS
 62
         7
100
AcDbLine
 10
225.0
 20
52.0
 30
0.0
 11
225.0
 21
47.0
 31
0.0
  0
LINE
  5
220
100
AcDbEntity
  8
0
  6
CONTINUOUS
 62
         7
100
AcDbLine
 10
225.0
 20
57.0
 30
0.0
 11
225.0
 21
52.0
 31
0.0
  0
LINE
  5
221
100
AcDbEntity
  8
0
  6
CONTINUOUS
 62
         7
100
AcDbLine
 10
225.0
 20
62.0
 30
0.0
 11
225.0
 21
57.0
 31
0.0
  0
LINE
  5
222
100
AcDbEntity
  8
0
  6
CONTINUOUS
 62
         7
100
AcDbLine
 10
225.0
 20
67.0
 30
0.0
 11
225.0
 21
62.0
 31
0.0
  0
LINE
  5
223
100
AcDbEntity
  8
0
  6
CONTINUOUS
 62
         7
100
AcDbLine
 10
265.0
 20
32.0
 30
0.0
 11
231.0
 21
32.0
 31
0.0
  0
LINE
  5
224
100
AcDbEntity
  8
0
  6
CONTINUOUS
 62
         7
100
AcDbLine
 10
225.0
 20
32.0
 30
0.0
 11
225.0
 21
10.0
 31
0.0
  0
LINE
  5
225
100
AcDbEntity
  8
0
  6
CONTINUOUS
 62
         7
100
AcDbLine
 10
320.5
 20
32.0
 30
0.0
 11
306.0
 21
32.0
 31
0.0
  0
LINE
  5
226
100
AcDbEntity
  8
0
  6
CONTINUOUS
 62
         7
100
AcDbLine
 10
306.0
 20
32.0
 30
0.0
 11
293.0
 21
32.0
 31
0.0
  0
LINE
  5
227
100
AcDbEntity
  8
0
  6
CONTINUOUS
 62
         7
100
AcDbLine
 10
338.0
 20
15.0
 30
0.0
 11
338.0
 21
10.0
 31
0.0
  0
LINE
  5
228
100
AcDbEntity
  8
0
  6
CONTINUOUS
 62
         7
100
AcDbLine
 10
338.0
 20
47.0
 30
0.0
 11
338.0
 21
42.0
 31
0.0
  0
LINE
  5
229
100
AcDbEntity
  8
0
  6
CONTINUOUS
 62
         7
100
AcDbLine
 10
338.0
 20
32.0
 30
0.0
 11
338.0
 21
15.0
 31
0.0
  0
LINE
  5
22A
100
AcDbEntity
  8
0
  6
CONTINUOUS
 62
         7
100
AcDbLine
 10
338.0
 20
32.0
 30
0.0
 11
320.5
 21
32.0
 31
0.0
  0
LINE
  5
22B
100
AcDbEntity
  8
0
  6
CONTINUOUS
 62
         7
100
AcDbLine
 10
338.0
 20
65.5
 30
0.0
 11
338.0
 21
59.0
 31
0.0
  0
LINE
  5
22C
100
AcDbEntity
  8
0
  6
CONTINUOUS
 62
         7
100
AcDbLine
 10
338.0
 20
59.0
 30
0.0
 11
338.0
 21
52.0
 31
0.0
  0
LINE
  5
22D
100
AcDbEntity
  8
0
  6
CONTINUOUS
 62
         7
100
AcDbLine
 10
338.0
 20
59.0
 30
0.0
 11
410.0
 21
59.0
 31
0.0
  0
LINE
  5
22E
100
AcDbEntity
  8
0
  6
CONTINUOUS
 62
         7
100
AcDbLine
 10
320.5
 20
52.0
 30
0.0
 11
338.0
 21
52.0
 31
0.0
  0
LINE
  5
22F
100
AcDbEntity
  8
0
  6
CONTINUOUS
 62
         7
100
AcDbLine
 10
306.0
 20
52.0
 30
0.0
 11
320.5
 21
52.0
 31
0.0
  0
LINE
  5
230
100
AcDbEntity
  8
0
  6
CONTINUOUS
 62
         7
100
AcDbLine
 10
338.0
 20
52.0
 30
0.0
 11
338.0
 21
47.0
 31
0.0
  0
LINE
  5
231
100
AcDbEntity
  8
0
  6
CONTINUOUS
 62
         7
100
AcDbLine
 10
338.0
 20
72.0
 30
0.0
 11
293.0
 21
72.0
 31
0.0
  0
LINE
  5
232
100
AcDbEntity
  8
0
  6
CONTINUOUS
 62
         7
100
AcDbLine
 10
293.0
 20
52.0
 30
0.0
 11
293.0
 21
57.0
 31
0.0
  0
LINE
  5
233
100
AcDbEntity
  8
0
  6
CONTINUOUS
 62
         7
100
AcDbLine
 10
293.0
 20
57.0
 30
0.0
 11
293.0
 21
59.0
 31
0.0
  0
LINE
  5
234
100
AcDbEntity
  8
0
  6
CONTINUOUS
 62
         7
100
AcDbLine
 10
293.0
 20
62.0
 30
0.0
 11
293.0
 21
65.5
 31
0.0
  0
LINE
  5
235
100
AcDbEntity
  8
0
  6
CONTINUOUS
 62
         7
100
AcDbLine
 10
293.0
 20
67.0
 30
0.0
 11
293.0
 21
72.0
 31
0.0
  0
LINE
  5
236
100
AcDbEntity
  8
0
  6
CONTINUOUS
 62
         7
100
AcDbLine
 10
293.0
 20
32.0
 30
0.0
 11
279.0
 21
32.0
 31
0.0
  0
LINE
  5
237
100
AcDbEntity
  8
0
  6
CONTINUOUS
 62
         7
100
AcDbLine
 10
293.0
 20
65.5
 30
0.0
 11
293.0
 21
67.0
 31
0.0
  0
LINE
  5
238
100
AcDbEntity
  8
0
  6
CONTINUOUS
 62
         7
100
AcDbLine
 10
293.0
 20
59.0
 30
0.0
 11
293.0
 21
62.0
 31
0.0
  0
LINE
  5
239
100
AcDbEntity
  8
0
  6
CONTINUOUS
 62
         7
100
AcDbLine
 10
293.0
 20
72.0
 30
0.0
 11
279.0
 21
72.0
 31
0.0
  0
LINE
  5
23A
100
AcDbEntity
  8
0
  6
CONTINUOUS
 62
         7
100
AcDbLine
 10
279.0
 20
52.0
 30
0.0
 11
293.0
 21
52.0
 31
0.0
  0
LINE
  5
23B
100
AcDbEntity
  8
0
  6
CONTINUOUS
 62
         7
100
AcDbLine
 10
279.0
 20
57.0
 30
0.0
 11
293.0
 21
57.0
 31
0.0
  0
LINE
  5
23C
100
AcDbEntity
  8
0
  6
CONTINUOUS
 62
         7
100
AcDbLine
 10
279.0
 20
62.0
 30
0.0
 11
293.0
 21
62.0
 31
0.0
  0
LINE
  5
23D
100
AcDbEntity
  8
0
  6
CONTINUOUS
 62
         7
100
AcDbLine
 10
279.0
 20
67.0
 30
0.0
 11
293.0
 21
67.0
 31
0.0
  0
LINE
  5
23E
100
AcDbEntity
  8
0
  6
CONTINUOUS
 62
         7
100
AcDbLine
 10
279.0
 20
32.0
 30
0.0
 11
265.0
 21
32.0
 31
0.0
  0
LINE
  5
23F
100
AcDbEntity
  8
0
  6
CONTINUOUS
 62
         7
100
AcDbLine
 10
279.0
 20
72.0
 30
0.0
 11
276.5
 21
72.0
 31
0.0
  0
LINE
  5
240
100
AcDbEntity
  8
0
  6
CONTINUOUS
 62
         7
100
AcDbLine
 10
265.0
 20
52.0
 30
0.0
 11
279.0
 21
52.0
 31
0.0
  0
LINE
  5
241
100
AcDbEntity
  8
0
  6
CONTINUOUS
 62
         7
100
AcDbLine
 10
265.0
 20
57.0
 30
0.0
 11
279.0
 21
57.0
 31
0.0
  0
LINE
  5
242
100
AcDbEntity
  8
0
  6
CONTINUOUS
 62
         7
100
AcDbLine
 10
265.0
 20
62.0
 30
0.0
 11
279.0
 21
62.0
 31
0.0
  0
LINE
  5
243
100
AcDbEntity
  8
0
  6
CONTINUOUS
 62
         7
100
AcDbLine
 10
265.0
 20
67.0
 30
0.0
 11
279.0
 21
67.0
 31
0.0
  0
LINE
  5
244
100
AcDbEntity
  8
0
  6
CONTINUOUS
 62
         7
100
AcDbLine
 10
265.0
 20
72.0
 30
0.0
 11
231.0
 21
72.0
 31
0.0
  0
LINE
  5
245
100
AcDbEntity
  8
0
  6
CONTINUOUS
 62
         7
100
AcDbLine
 10
231.0
 20
52.0
 30
0.0
 11
231.0
 21
57.0
 31
0.0
  0
LINE
  5
246
100
AcDbEntity
  8
0
  6
CONTINUOUS
 62
         7
100
AcDbLine
 10
231.0
 20
52.0
 30
0.0
 11
265.0
 21
52.0
 31
0.0
  0
LINE
  5
247
100
AcDbEntity
  8
0
  6
CONTINUOUS
 62
         7
100
AcDbLine
 10
231.0
 20
57.0
 30
0.0
 11
231.0
 21
62.0
 31
0.0
  0
LINE
  5
248
100
AcDbEntity
  8
0
  6
CONTINUOUS
 62
         7
100
AcDbLine
 10
231.0
 20
57.0
 30
0.0
 11
265.0
 21
57.0
 31
0.0
  0
LINE
  5
249
100
AcDbEntity
  8
0
  6
CONTINUOUS
 62
         7
100
AcDbLine
 10
231.0
 20
62.0
 30
0.0
 11
231.0
 21
67.0
 31
0.0
  0
LINE
  5
24A
100
AcDbEntity
  8
0
  6
CONTINUOUS
 62
         7
100
AcDbLine
 10
231.0
 20
62.0
 30
0.0
 11
265.0
 21
62.0
 31
0.0
  0
LINE
  5
24B
100
AcDbEntity
  8
0
  6
CONTINUOUS
 62
         7
100
AcDbLine
 10
231.0
 20
67.0
 30
0.0
 11
231.0
 21
72.0
 31
0.0
  0
LINE
  5
24C
100
AcDbEntity
  8
0
  6
CONTINUOUS
 62
         7
100
AcDbLine
 10
231.0
 20
67.0
 30
0.0
 11
265.0
 21
67.0
 31
0.0
  0
LINE
  5
24D
100
AcDbEntity
  8
0
  6
CONTINUOUS
 62
         7
100
AcDbLine
 10
231.0
 20
32.0
 30
0.0
 11
225.0
 21
32.0
 31
0.0
  0
LINE
  5
24E
100
AcDbEntity
  8
0
  6
CONTINUOUS
 62
         7
100
AcDbLine
 10
231.0
 20
72.0
 30
0.0
 11
225.0
 21
72.0
 31
0.0
  0
LINE
  5
24F
100
AcDbEntity
  8
0
  6
CONTINUOUS
 62
         7
100
AcDbLine
 10
225.0
 20
37.0
 30
0.0
 11
225.0
 21
32.0
 31
0.0
  0
LINE
  5
250
100
AcDbEntity
  8
0
  6
CONTINUOUS
 62
         7
100
AcDbLine
 10
320.5
 20
37.0
 30
0.0
 11
338.0
 21
37.0
 31
0.0
  0
LINE
  5
251
100
AcDbEntity
  8
0
  6
CONTINUOUS
 62
         7
100
AcDbLine
 10
320.5
 20
37.0
 30
0.0
 11
320.5
 21
42.0
 31
0.0
  0
LINE
  5
252
100
AcDbEntity
  8
0
  6
CONTINUOUS
 62
         7
100
AcDbLine
 10
306.0
 20
37.0
 30
0.0
 11
320.5
 21
37.0
 31
0.0
  0
LINE
  5
253
100
AcDbEntity
  8
0
  6
CONTINUOUS
 62
         7
100
AcDbLine
 10
306.0
 20
37.0
 30
0.0
 11
306.0
 21
42.0
 31
0.0
  0
LINE
  5
254
100
AcDbEntity
  8
0
  6
CONTINUOUS
 62
         7
100
AcDbLine
 10
338.0
 20
37.0
 30
0.0
 11
410.0
 21
37.0
 31
0.0
  0
LINE
  5
255
100
AcDbEntity
  8
0
  6
CONTINUOUS
 62
         7
100
AcDbLine
 10
338.0
 20
37.0
 30
0.0
 11
338.0
 21
32.0
 31
0.0
  0
LINE
  5
256
100
AcDbEntity
  8
0
  6
CONTINUOUS
 62
         7
100
AcDbLine
 10
293.0
 20
37.0
 30
0.0
 11
306.0
 21
37.0
 31
0.0
  0
LINE
  5
257
100
AcDbEntity
  8
0
  6
CONTINUOUS
 62
         7
100
AcDbLine
 10
293.0
 20
37.0
 30
0.0
 11
293.0
 21
42.0
 31
0.0
  0
LINE
  5
258
100
AcDbEntity
  8
0
  6
CONTINUOUS
 62
         7
100
AcDbLine
 10
279.0
 20
37.0
 30
0.0
 11
293.0
 21
37.0
 31
0.0
  0
LINE
  5
259
100
AcDbEntity
  8
0
  6
CONTINUOUS
 62
         7
100
AcDbLine
 10
265.0
 20
37.0
 30
0.0
 11
276.5
 21
37.0
 31
0.0
  0
LINE
  5
25A
100
AcDbEntity
  8
0
  6
CONTINUOUS
 62
         7
100
AcDbLine
 10
231.0
 20
37.0
 30
0.0
 11
265.0
 21
37.0
 31
0.0
  0
LINE
  5
25B
100
AcDbEntity
  8
0
  6
CONTINUOUS
 62
         7
100
AcDbLine
 10
231.0
 20
37.0
 30
0.0
 11
231.0
 21
42.0
 31
0.0
  0
LINE
  5
25C
100
AcDbEntity
  8
0
  6
CONTINUOUS
 62
         7
100
AcDbLine
 10
225.0
 20
42.0
 30
0.0
 11
225.0
 21
37.0
 31
0.0
  0
LINE
  5
25D
100
AcDbEntity
  8
0
  6
CONTINUOUS
 62
         7
100
AcDbLine
 10
320.5
 20
42.0
 30
0.0
 11
338.0
 21
42.0
 31
0.0
  0
LINE
  5
25E
100
AcDbEntity
  8
0
  6
CONTINUOUS
 62
         7
100
AcDbLine
 10
320.5
 20
42.0
 30
0.0
 11
320.5
 21
47.0
 31
0.0
  0
LINE
  5
25F
100
AcDbEntity
  8
0
  6
CONTINUOUS
 62
         7
100
AcDbLine
 10
306.0
 20
42.0
 30
0.0
 11
320.5
 21
42.0
 31
0.0
  0
LINE
  5
260
100
AcDbEntity
  8
0
  6
CONTINUOUS
 62
         7
100
AcDbLine
 10
306.0
 20
42.0
 30
0.0
 11
306.0
 21
47.0
 31
0.0
  0
LINE
  5
261
100
AcDbEntity
  8
0
  6
CONTINUOUS
 62
         7
100
AcDbLine
 10
338.0
 20
42.0
 30
0.0
 11
410.0
 21
42.0
 31
0.0
  0
LINE
  5
262
100
AcDbEntity
  8
0
  6
CONTINUOUS
 62
         7
100
AcDbLine
 10
338.0
 20
42.0
 30
0.0
 11
338.0
 21
37.0
 31
0.0
  0
LINE
  5
263
100
AcDbEntity
  8
0
  6
CONTINUOUS
 62
         7
100
AcDbLine
 10
293.0
 20
42.0
 30
0.0
 11
306.0
 21
42.0
 31
0.0
  0
LINE
  5
264
100
AcDbEntity
  8
0
  6
CONTINUOUS
 62
         7
100
AcDbLine
 10
293.0
 20
42.0
 30
0.0
 11
293.0
 21
47.0
 31
0.0
  0
LINE
  5
265
100
AcDbEntity
  8
0
  6
CONTINUOUS
 62
         7
100
AcDbLine
 10
279.0
 20
42.0
 30
0.0
 11
293.0
 21
42.0
 31
0.0
  0
LINE
  5
266
100
AcDbEntity
  8
0
  6
CONTINUOUS
 62
         7
100
AcDbLine
 10
265.0
 20
42.0
 30
0.0
 11
279.0
 21
42.0
 31
0.0
  0
LINE
  5
267
100
AcDbEntity
  8
0
  6
CONTINUOUS
 62
         7
100
AcDbLine
 10
231.0
 20
42.0
 30
0.0
 11
231.0
 21
47.0
 31
0.0
  0
LINE
  5
268
100
AcDbEntity
  8
0
  6
CONTINUOUS
 62
         7
100
AcDbLine
 10
225.0
 20
47.0
 30
0.0
 11
225.0
 21
42.0
 31
0.0
  0
LINE
  5
269
100
AcDbEntity
  8
0
  6
CONTINUOUS
 62
         7
100
AcDbLine
 10
320.5
 20
47.0
 30
0.0
 11
338.0
 21
47.0
 31
0.0
  0
LINE
  5
26A
100
AcDbEntity
  8
0
  6
CONTINUOUS
 62
         7
100
AcDbLine
 10
320.5
 20
47.0
 30
0.0
 11
320.5
 21
52.0
 31
0.0
  0
LINE
  5
26B
100
AcDbEntity
  8
0
  6
CONTINUOUS
 62
         7
100
AcDbLine
 10
306.0
 20
47.0
 30
0.0
 11
320.5
 21
47.0
 31
0.0
  0
LINE
  5
26C
100
AcDbEntity
  8
0
  6
CONTINUOUS
 62
         7
100
AcDbLine
 10
306.0
 20
47.0
 30
0.0
 11
306.0
 21
52.0
 31
0.0
  0
LINE
  5
26D
100
AcDbEntity
  8
0
  6
CONTINUOUS
 62
         7
100
AcDbLine
 10
293.0
 20
47.0
 30
0.0
 11
306.0
 21
47.0
 31
0.0
  0
LINE
  5
26E
100
AcDbEntity
  8
0
  6
CONTINUOUS
 62
         7
100
AcDbLine
 10
293.0
 20
47.0
 30
0.0
 11
293.0
 21
52.0
 31
0.0
  0
LINE
  5
26F
100
AcDbEntity
  8
0
  6
CONTINUOUS
 62
         7
100
AcDbLine
 10
279.0
 20
47.0
 30
0.0
 11
293.0
 21
47.0
 31
0.0
  0
LINE
  5
270
100
AcDbEntity
  8
0
  6
CONTINUOUS
 62
         7
100
AcDbLine
 10
265.0
 20
47.0
 30
0.0
 11
279.0
 21
47.0
 31
0.0
  0
LINE
  5
271
100
AcDbEntity
  8
0
  6
CONTINUOUS
 62
         7
100
AcDbLine
 10
231.0
 20
47.0
 30
0.0
 11
231.0
 21
52.0
 31
0.0
  0
LINE
  5
272
100
AcDbEntity
  8
0
  6
CONTINUOUS
 62
         7
100
AcDbLine
 10
225.0
 20
10.0
 30
0.0
 11
410.0
 21
10.0
 31
0.0
  0
LINE
  5
273
100
AcDbEntity
  8
0
  6
CONTINUOUS
 62
         7
100
AcDbLine
 10
410.0
 20
10.0
 30
0.0
 11
225.0
 21
10.0
 31
0.0
  0
LINE
  5
274
100
AcDbEntity
  8
0
  6
CONTINUOUS
 62
         7
100
AcDbLine
 10
410.0
 20
287.0
 30
0.0
 11
410.0
 21
10.0
 31
0.0
  0
LINE
  5
275
100
AcDbEntity
  8
0
  6
CONTINUOUS
 62
         7
100
AcDbLine
 10
15.0
 20
287.0
 30
0.0
 11
410.0
 21
287.0
 31
0.0
  0
LINE
  5
276
100
AcDbEntity
  8
0
  6
CONTINUOUS
 62
         7
100
AcDbLine
 10
414.0
 20
291.0
 30
0.0
 11
414.0
 21
6.0
 31
0.0
  0
LINE
  5
277
100
AcDbEntity
  8
0
  6
CONTINUOUS
 62
         7
100
AcDbLine
 10
414.0
 20
6.0
 30
0.0
 11
6.0
 21
6.0
 31
0.0
  0
LINE
  5
278
100
AcDbEntity
  8
0
  6
CONTINUOUS
 62
         7
100
AcDbLine
 10
6.0
 20
6.0
 30
0.0
 11
6.0
 21
291.0
 31
0.0
  0
LINE
  5
279
100
AcDbEntity
  8
0
  6
CONTINUOUS
 62
         7
100
AcDbLine
 10
6.0
 20
153.5
 30
0.0
 11
8.5148743017
 21
153.5
 31
0.0
  0
LINE
  5
27A
100
AcDbEntity
  8
0
  6
CONTINUOUS
 62
         7
100
AcDbLine
 10
15.0
 20
10.0
 30
0.0
 11
15.0
 21
287.0
 31
0.0
  0
LINE
  5
27B
100
AcDbEntity
  8
0
  6
CONTINUOUS
 62
         7
100
AcDbLine
 10
15.0
 20
10.0
 30
0.0
 11
225.0
 21
10.0
 31
0.0
  0
LINE
  5
27C
100
AcDbEntity
  8
0
  6
CONTINUOUS
 62
         7
100
AcDbLine
 10
225.0
 20
287.0
 30
0.0
 11
225.0
 21
291.0
 31
0.0
  0
LINE
  5
27D
100
AcDbEntity
  8
0
  6
CONTINUOUS
 62
         7
100
AcDbLine
 10
414.0
 20
291.0
 30
0.0
 11
6.0
 21
291.0
 31
0.0
  0
LINE
  5
27E
100
AcDbEntity
  8
0
  6
CONTINUOUS
 62
         7
100
AcDbLine
 10
225.0
 20
10.0
 30
0.0
 11
225.0
 21
6.0
 31
0.0
  0
LINE
  5
27F
100
AcDbEntity
  8
0
  6
CONTINUOUS
 62
         7
100
AcDbLine
 10
264.0
 20
67.0
 30
0.0
 11
264.0
 21
72.0
 31
0.0
  0
LINE
  5
280
100
AcDbEntity
  8
0
  6
CONTINUOUS
 62
         7
100
AcDbLine
 10
264.0
 20
62.0
 30
0.0
 11
264.0
 21
67.0
 31
0.0
  0
LINE
  5
281
100
AcDbEntity
  8
0
  6
CONTINUOUS
 62
         7
100
AcDbLine
 10
264.0
 20
57.0
 30
0.0
 11
264.0
 21
62.0
 31
0.0
  0
LINE
  5
282
100
AcDbEntity
  8
0
  6
CONTINUOUS
 62
         7
100
AcDbLine
 10
264.0
 20
52.0
 30
0.0
 11
264.0
 21
57.0
 31
0.0
  0
LINE
  5
283
100
AcDbEntity
  8
0
  6
CONTINUOUS
 62
         7
100
AcDbLine
 10
264.0
 20
47.0
 30
0.0
 11
264.0
 21
52.0
 31
0.0
  0
LINE
  5
284
100
AcDbEntity
  8
0
  6
CONTINUOUS
 62
         7
100
AcDbLine
 10
264.0
 20
42.0
 30
0.0
 11
264.0
 21
47.0
 31
0.0
  0
LINE
  5
285
100
AcDbEntity
  8
0
  6
CONTINUOUS
 62
         7
100
AcDbLine
 10
264.0
 20
37.0
 30
0.0
 11
264.0
 21
42.0
 31
0.0
  0
LINE
  5
286
100
AcDbEntity
  8
0
  6
CONTINUOUS
 62
         7
100
AcDbLine
 10
264.0
 20
32.0
 30
0.0
 11
264.0
 21
37.0
 31
0.0
  0
LINE
  5
287
100
AcDbEntity
  8
0
  6
CONTINUOUS
 62
         7
100
AcDbLine
 10
264.0
 20
15.0
 30
0.0
 11
264.0
 21
32.0
 31
0.0
  0
LINE
  5
288
100
AcDbEntity
  8
0
  6
CONTINUOUS
 62
         7
100
AcDbLine
 10
264.0
 20
10.0
 30
0.0
 11
264.0
 21
15.0
 31
0.0
  0
ARC
  5
289
100
AcDbEntity
  8
0
  6
CONTINUOUS
 62
         7
100
AcDbCircle
 10
331.3034473583
 20
55.5
 30
0.0
 40
2.5
100
AcDbArc
 50
90.0
 51
270.0
  0
ARC
  5
28A
100
AcDbEntity
  8
0
  6
CONTINUOUS
 62
         7
100
AcDbCircle
 10
334.6247022163
 20
55.5
 30
0.0
 40
2.5
100
AcDbArc
 50
270.0
 51
90.0
  0
MTEXT
  5
28B
100
AcDbEntity
  8
0
 62
         7
100
AcDbMText
 10
233.1732143035
 20
30.2240695539
 30
0.0
 40
10.0
 41
0.0
 71
         1
 72
         1
  1
 
  7
SLDTEXTSTYLE0
 11
0.9659258263
 21
0.2588190451
 31
0.0
  0
MTEXT
  5
28C
100
AcDbEntity
  8
0
 62
         7
100
AcDbMText
 10
238.1779149697
 20
17.1970983937
 30
0.0
 40
3.5
 41
0.0
 71
         1
 72
         1
  1
 
  7
SLDTEXTSTYLE0
 11
0.9659258263
 21
0.2588190451
 31
0.0
  0
MTEXT
  5
28D
100
AcDbEntity
  8
0
 62
         7
100
AcDbMText
 10
259.4541599772
 20
22.9149938108
 30
0.0
 40
3.5
 41
0.0
 71
         1
 72
         1
  1
 
  7
SLDTEXTSTYLE0
 11
0.9659258263
 21
0.2588190451
 31
0.0
  0
MTEXT
  5
28E
100
AcDbEntity
  8
0
 62
         7
100
AcDbMText
 10
300.3589376686
 20
33.9316799444
 30
0.0
 40
3.5
 41
0.0
 71
         1
 72
         1
  1
 
  7
SLDTEXTSTYLE0
 11
0.9659258263
 21
0.2588190451
 31
0.0
  0
MTEXT
  5
28F
100
AcDbEntity
  8
0
 62
         7
100
AcDbMText
 10
332.412468062
 20
42.5382725547
 30
0.0
 40
3.5
 41
0.0
 71
         1
 72
         1
  1
 
  7
SLDTEXTSTYLE0
 11
0.9659258263
 21
0.2588190451
 31
0.0
  0
MTEXT
  5
290
100
AcDbEntity
  8
0
 62
         7
100
AcDbMText
 10
361.1907293162
 20
45.3479327113
 30
0.0
 40
2.0
 41
0.0
 71
         1
 72
         1
  1
 
  7
SLDTEXTSTYLE0
  0
MTEXT
  5
291
100
AcDbEntity
  8
0
 62
         7
100
AcDbMText
 10
355.1907293162
 20
12.5233917044
 30
0.0
 40
2.0
 41
0.0
 71
         1
 72
         1
  1
 
  7
SLDTEXTSTYLE0
  0
MTEXT
  5
292
100
AcDbEntity
  8
0
 62
         7
100
AcDbMText
 10
278.0441882005
 20
13.2165467736
 30
0.0
 40
2.5
 41
0.0
 71
         1
 72
         1
  1
3630-03-24
  7
SLDTEXTSTYLE0
  0
MTEXT
  5
293
100
AcDbEntity
  8
0
 62
         7
100
AcDbMText
 10
266.0441882005
 20
12.6276227149
 30
0.0
 40
2.0
 41
0.0
 71
         1
 72
         1
  1
Art.-Nr.
  7
SLDTEXTSTYLE0
  0
MTEXT
  5
294
100
AcDbEntity
  8
0
 62
         7
100
AcDbMText
 10
340.1907293162
 20
12.5233917044
 30
0.0
 40
2.0
 41
0.0
 71
         1
 72
         1
  1
EMPB-Nr.
  7
SLDTEXTSTYLE0
  0
MTEXT
  5
295
100
AcDbEntity
  8
0
 62
         7
100
AcDbMText
 10
226.2190518539
 20
35.644152182
 30
0.0
 40
2.0
 41
0.0
 71
         1
 72
         1
  1
Ind.
  7
SLDTEXTSTYLE0
  0
MTEXT
  5
296
100
AcDbEntity
  8
0
 62
         7
100
AcDbMText
 10
238.8556682189
 20
35.515207117
 30
0.0
 40
2.0
 41
0.0
 71
         1
 72
         1
  1
Änderung
  7
SLDTEXTSTYLE0
  0
MTEXT
  5
297
100
AcDbEntity
  8
0
 62
         7
100
AcDbMText
 10
279.6664794368
 20
35.6562591072
 30
0.0
 40
2.0
 41
0.0
 71
         1
 72
         1
  1
Name
  7
SLDTEXTSTYLE0
  0
MTEXT
  5
298
100
AcDbEntity
  8
0
 62
         7
100
AcDbMText
 10
266.4667420326
 20
35.7052582319
 30
0.0
 40
2.0
 41
0.0
 71
         1
 72
         1
  1
Datum
  7
SLDTEXTSTYLE0
  0
MTEXT
  5
299
100
AcDbEntity
  8
0
 62
         7
100
AcDbMText
 10
266.2217464092
 20
30.665358327
 30
0.0
 40
2.0
 41
0.0
 71
         1
 72
         1
  1
Benennung
  7
SLDTEXTSTYLE0
  0
MTEXT
  5
29A
100
AcDbEntity
  8
0
 62
         7
100
AcDbMText
 10
294.9113897955
 20
35.6502828459
 30
0.0
 40
2.0
 41
0.0
 71
         1
 72
         1
  1
Ges.
  7
SLDTEXTSTYLE0
  0
MTEXT
  5
29B
100
AcDbEntity
  8
0
 62
         7
100
AcDbMText
 10
295.3840080987
 20
40.8989501232
 30
0.0
 40
2.0
 41
0.0
 71
         1
 72
         1
  1
Gepr.
  7
SLDTEXTSTYLE0
  0
MTEXT
  5
29C
100
AcDbEntity
  8
0
 62
         7
100
AcDbMText
 10
295.3840080987
 20
45.4934060597
 30
0.0
 40
2.0
 41
0.0
 71
         1
 72
         1
  1
Bearb.
  7
SLDTEXTSTYLE0
  0
MTEXT
  5
29D
100
AcDbEntity
  8
0
 62
         7
100
AcDbMText
 10
295.3840080987
 20
54.9837628399
 30
0.0
 40
2.0
 41
0.0
 71
         1
 72
         1
  1
den besonders geprüft
  7
SLDTEXTSTYLE0
  0
MTEXT
  5
29E
100
AcDbEntity
  8
0
 62
         7
100
AcDbMText
 10
295.3840080987
 20
57.8721322947
 30
0.0
 40
2.0
 41
0.0
 71
         1
 72
         1
  1
Eingerahmte Maße wer-
  7
SLDTEXTSTYLE0
  0
MTEXT
  5
29F
100
AcDbEntity
  8
0
 62
         7
100
AcDbMText
 10
295.3840080987
 20
61.6545208666
 30
0.0
 40
2.0
 41
0.0
 71
         1
 72
         1
  1
toleranz:
  7
SLDTEXTSTYLE0
  0
MTEXT
  5
2A0
100
AcDbEntity
  8
0
 62
         7
100
AcDbMText
 10
295.3840080987
 20
64.3365782175
 30
0.0
 40
2.0
 41
0.0
 71
         1
 72
         1
  1
Freimaß-
  7
SLDTEXTSTYLE0
  0
MTEXT
  5
2A1
100
AcDbEntity
  8
0
 62
         7
100
AcDbMText
 10
295.3823192465
 20
70.972234532
 30
0.0
 40
2.0
 41
0.0
 71
         1
 72
         1
  1
Maßstab:
  7
SLDTEXTSTYLE0
  0
MTEXT
  5
2A2
100
AcDbEntity
  8
0
 62
         7
100
AcDbMText
 10
340.1907293162
 20
30.5611273165
 30
0.0
 40
2.0
 41
0.0
 71
         1
 72
         1
  1
Zeichnungs-Nr.
  7
SLDTEXTSTYLE0
  0
MTEXT
  5
2A3
100
AcDbEntity
  8
0
 62
         7
100
AcDbMText
 10
340.1907293162
 20
35.3479327113
 30
0.0
 40
2.0
 41
0.0
 71
         1
 72
         1
  1
Ersetzt durch:
  7
SLDTEXTSTYLE0
  0
MTEXT
  5
2A4
100
AcDbEntity
  8
0
 62
         7
100
AcDbMText
 10
340.1907293162
 20
40.4881264239
 30
0.0
 40
2.0
 41
0.0
 71
         1
 72
         1
  1
Ersatz für:
  7
SLDTEXTSTYLE0
  0
MTEXT
  5
2A5
100
AcDbEntity
  8
0
 62
         7
100
AcDbMText
 10
340.1907293162
 20
46.0780870864
 30
0.0
 40
2.0
 41
0.0
 71
         1
 72
         1
  1
Ursprung:
  7
SLDTEXTSTYLE0
  0
MTEXT
  5
2A6
100
AcDbEntity
  8
0
 62
         7
100
AcDbMText
 10
340.3340016106
 20
57.6314348402
 30
0.0
 40
2.0
 41
0.0
 71
         1
 72
         1
  1
Oberfläche
  7
SLDTEXTSTYLE0
  0
MTEXT
  5
2A7
100
AcDbEntity
  8
0
 62
         7
100
AcDbMText
 10
340.2623654634
 20
71.063212439
 30
0.0
 40
2.0
 41
0.0
 71
         1
 72
         1
  1
Werkstoff
  7
SLDTEXTSTYLE0
  0
MTEXT
  5
2A8
100
AcDbEntity
  8
0
 62
         7
100
AcDbMText
 10
405.4513553271
 20
21.0237799309
 30
0.0
 40
5.0
 41
0.0
 71
         1
 72
         1
  1
3
  7
SLDTEXTSTYLE0
  0
MTEXT
  5
2A9
100
AcDbEntity
  8
0
 62
         7
100
AcDbMText
 10
266.2217464092
 20
27.6627106208
 30
0.0
 40
5.0
 41
0.0
 71
         1
 72
         1
  1
Flach-
  7
SLDTEXTSTYLE0
  0
MTEXT
  5
2AA
100
AcDbEntity
  8
0
 62
         7
100
AcDbMText
 10
266.2217464092
 20
21.9127106208
 30
0.0
 40
5.0
 41
0.0
 71
         1
 72
         1
  1
Schliessblech
  7
SLDTEXTSTYLE0
  0
MTEXT
  5
2AB
100
AcDbEntity
  8
0
 62
         7
100
AcDbMText
 10
322.0
 20
46.035087673
 30
0.0
 40
3.0
 41
0.0
 71
         1
 72
         1
  1
Buerger
  7
SLDTEXTSTYLE0
  0
MTEXT
  5
2AC
100
AcDbEntity
  8
0
 62
         7
100
AcDbMText
 10
307.0
 20
46.035087673
 30
0.0
 40
3.0
 41
0.0
 71
         1
 72
         1
  1
18.05.94
  7
SLDTEXTSTYLE0
  0
MTEXT
  5
2AD
100
AcDbEntity
  8
0
 62
         7
100
AcDbMText
 10
322.0
 20
41.035087673
 30
0.0
 40
3.0
 41
0.0
 71
         1
 72
         1
  1
Borch
  7
SLDTEXTSTYLE0
  0
MTEXT
  5
2AE
100
AcDbEntity
  8
0
 62
         7
100
AcDbMText
 10
307.0
 20
41.035087673
 30
0.0
 40
3.0
 41
0.0
 71
         1
 72
         1
  1
03.08.94
  7
SLDTEXTSTYLE0
  0
MTEXT
  5
2AF
100
AcDbEntity
  8
0
 62
         7
100
AcDbMText
 10
322.0
 20
36.035087673
 30
0.0
 40
3.0
 41
0.0
 71
         1
 72
         1
  1
Kaufmann
  7
SLDTEXTSTYLE0
  0
MTEXT
  5
2B0
100
AcDbEntity
  8
0
 62
         7
100
AcDbMText
 10
307.0
 20
36.035087673
 30
0.0
 40
3.0
 41
0.0
 71
         1
 72
         1
  1
28.08.00
  7
SLDTEXTSTYLE0
  0
MTEXT
  5
2B1
100
AcDbEntity
  8
0
 62
         7
100
AcDbMText
 10
340.7877757826
 20
64.5409355409
 30
0.0
 40
3.5
 41
0.0
 71
         1
 72
         1
  1
nach Auftrag
  7
SLDTEXTSTYLE0
  0
MTEXT
  5
2B2
100
AcDbEntity
  8
0
 62
         7
100
AcDbMText
 10
340.7877757826
 20
52.5409355409
 30
0.0
 40
3.5
 41
0.0
 71
         1
 72
         1
  1
nach Auftrag
  7
SLDTEXTSTYLE0
  0
MTEXT
  5
2B3
100
AcDbEntity
  8
0
 62
         7
100
AcDbMText
 10
310.0
 20
63.5409355409
 30
0.0
 40
3.5
 41
0.0
 71
         1
 72
         1
  1
ISO2768mK
  7
SLDTEXTSTYLE0
  0
MTEXT
  5
2B4
100
AcDbEntity
  8
0
 62
         7
100
AcDbMText
 10
310.0
 20
70.5409355409
 30
0.0
 40
3.5
 41
0.0
 71
         1
 72
         1
  1
1:1
  7
SLDTEXTSTYLE0
  0
MTEXT
  5
2B5
100
AcDbEntity
  8
0
 62
         7
100
AcDbMText
 10
226.2
 20
41.035087673
 30
0.0
 40
3.0
 41
0.0
 71
         1
 72
         1
  1
a
  7
SLDTEXTSTYLE0
  0
MTEXT
  5
2B6
100
AcDbEntity
  8
0
 62
         7
100
AcDbMText
 10
232.5
 20
41.035087673
 30
0.0
 40
3.0
 41
0.0
 71
         1
 72
         1
  1
5 war 5.5
  7
SLDTEXTSTYLE0
  0
MTEXT
  5
2B7
100
AcDbEntity
  8
0
 62
         7
100
AcDbMText
 10
277.3534588843
 20
41.1393186836
 30
0.0
 40
3.0
 41
0.0
 71
         1
 72
         1
  1
Buerger
  7
SLDTEXTSTYLE0
  0
MTEXT
  5
2B8
100
AcDbEntity
  8
0
 62
         7
100
AcDbMText
 10
264.8534588843
 20
41.1393186836
 30
0.0
 40
3.0
 41
0.0
 71
         1
 72
         1
  1
02.08.94
  7
SLDTEXTSTYLE0
  0
MTEXT
  5
2B9
100
AcDbEntity
  8
0
 62
         7
100
AcDbMText
 10
226.2
 20
46.035087673
 30
0.0
 40
3.0
 41
0.0
 71
         1
 72
         1
  1
b1
  7
SLDTEXTSTYLE0
  0
MTEXT
  5
2BA
100
AcDbEntity
  8
0
 62
         7
100
AcDbMText
 10
232.5
 20
46.035087673
 30
0.0
 40
3.0
 41
0.0
 71
         1
 72
         1
  1
8811-06
  7
SLDTEXTSTYLE0
  0
MTEXT
  5
2BB
100
AcDbEntity
  8
0
 62
         7
100
AcDbMText
 10
277.3534588843
 20
46.1393186836
 30
0.0
 40
3.0
 41
0.0
 71
         1
 72
         1
  1
Velten
  7
SLDTEXTSTYLE0
  0
MTEXT
  5
2BC
100
AcDbEntity
  8
0
 62
         7
100
AcDbMText
 10
264.8534588843
 20
46.1393186836
 30
0.0
 40
3.0
 41
0.0
 71
         1
 72
         1
  1
27.10.06
  7
SLDTEXTSTYLE0
  0
MTEXT
  5
2BD
100
AcDbEntity
  8
0
 62
         7
100
AcDbMText
 10
226.2
 20
51.035087673
 30
0.0
 40
3.0
 41
0.0
 71
         1
 72
         1
  1
b
  7
SLDTEXTSTYLE0
  0
MTEXT
  5
2BE
100
AcDbEntity
  8
0
 62
         7
100
AcDbMText
 10
232.5
 20
51.035087673
 30
0.0
 40
3.0
 41
0.0
 71
         1
 72
         1
  1
8811-06
  7
SLDTEXTSTYLE0
  0
MTEXT
  5
2BF
100
AcDbEntity
  8
0
 62
         7
100
AcDbMText
 10
277.3534588843
 20
51.1393186836
 30
0.0
 40
3.0
 41
0.0
 71
         1
 72
         1
  1
Velten
  7
SLDTEXTSTYLE0
  0
MTEXT
  5
2C0
100
AcDbEntity
  8
0
 62
         7
100
AcDbMText
 10
264.8534588843
 20
51.1393186836
 30
0.0
 40
3.0
 41
0.0
 71
         1
 72
         1
  1
27.10.06
  7
SLDTEXTSTYLE0
  0
MTEXT
  5
2C1
100
AcDbEntity
  8
0
 62
         7
100
AcDbMText
 10
226.2
 20
56.035087673
 30
0.0
 40
3.0
 41
0.0
 71
         1
 72
         1
  1
 
  7
SLDTEXTSTYLE0
  0
MTEXT
  5
2C2
100
AcDbEntity
  8
0
 62
         7
100
AcDbMText
 10
232.5
 20
56.035087673
 30
0.0
 40
3.0
 41
0.0
 71
         1
 72
         1
  1
 
  7
SLDTEXTSTYLE0
  0
MTEXT
  5
2C3
100
AcDbEntity
  8
0
 62
         7
100
AcDbMText
 10
277.3534588843
 20
56.1393186836
 30
0.0
 40
3.0
 41
0.0
 71
         1
 72
         1
  1
 
  7
SLDTEXTSTYLE0
  0
MTEXT
  5
2C4
100
AcDbEntity
  8
0
 62
         7
100
AcDbMText
 10
264.8534588843
 20
56.1393186836
 30
0.0
 40
3.0
 41
0.0
 71
         1
 72
         1
  1
 
  7
SLDTEXTSTYLE0
  0
MTEXT
  5
2C5
100
AcDbEntity
  8
0
 62
         7
100
AcDbMText
 10
226.2
 20
61.035087673
 30
0.0
 40
3.0
 41
0.0
 71
         1
 72
         1
  1
 
  7
SLDTEXTSTYLE0
  0
MTEXT
  5
2C6
100
AcDbEntity
  8
0
 62
         7
100
AcDbMText
 10
232.5
 20
61.035087673
 30
0.0
 40
3.0
 41
0.0
 71
         1
 72
         1
  1
 
  7
SLDTEXTSTYLE0
  0
MTEXT
  5
2C7
100
AcDbEntity
  8
0
 62
         7
100
AcDbMText
 10
277.3534588843
 20
61.1393186836
 30
0.0
 40
3.0
 41
0.0
 71
         1
 72
         1
  1
 
  7
SLDTEXTSTYLE0
  0
MTEXT
  5
2C8
100
AcDbEntity
  8
0
 62
         7
100
AcDbMText
 10
264.8534588843
 20
61.1393186836
 30
0.0
 40
3.0
 41
0.0
 71
         1
 72
         1
  1
 
  7
SLDTEXTSTYLE0
  0
MTEXT
  5
2C9
100
AcDbEntity
  8
0
 62
         7
100
AcDbMText
 10
226.2
 20
66.035087673
 30
0.0
 40
3.0
 41
0.0
 71
         1
 72
         1
  1
 
  7
SLDTEXTSTYLE0
  0
MTEXT
  5
2CA
100
AcDbEntity
  8
0
 62
         7
100
AcDbMText
 10
232.5
 20
66.035087673
 30
0.0
 40
3.0
 41
0.0
 71
         1
 72
         1
  1
 
  7
SLDTEXTSTYLE0
  0
MTEXT
  5
2CB
100
AcDbEntity
  8
0
 62
         7
100
AcDbMText
 10
277.3534588843
 20
66.1393186836
 30
0.0
 40
3.0
 41
0.0
 71
         1
 72
         1
  1
 
  7
SLDTEXTSTYLE0
  0
MTEXT
  5
2CC
100
AcDbEntity
  8
0
 62
         7
100
AcDbMText
 10
264.8534588843
 20
66.1393186836
 30
0.0
 40
3.0
 41
0.0
 71
         1
 72
         1
  1
 
  7
SLDTEXTSTYLE0
  0
MTEXT
  5
2CD
100
AcDbEntity
  8
0
 62
         7
100
AcDbMText
 10
232.5
 20
71.035087673
 30
0.0
 40
3.0
 41
0.0
 71
         1
 72
         1
  1
 
  7
SLDTEXTSTYLE0
  0
MTEXT
  5
2CE
100
AcDbEntity
  8
0
 62
         7
100
AcDbMText
 10
264.8534588843
 20
71.1393186836
 30
0.0
 40
3.0
 41
0.0
 71
         1
 72
         1
  1
 
  7
SLDTEXTSTYLE0
  0
MTEXT
  5
2CF
100
AcDbEntity
  8
0
 62
         7
100
AcDbMText
 10
361.1907293162
 20
35.3479327113
 30
0.0
 40
2.0
 41
0.0
 71
         1
 72
         1
  1
 
  7
SLDTEXTSTYLE0
  0
MTEXT
  5
2D0
100
AcDbEntity
  8
0
 62
         7
100
AcDbMText
 10
361.1907293162
 20
40.4881264239
 30
0.0
 40
2.0
 41
0.0
 71
         1
 72
         1
  1
 
  7
SLDTEXTSTYLE0
  0
MTEXT
  5
2D1
100
AcDbEntity
  8
0
 62
         7
100
AcDbMText
 10
277.3534588843
 20
71.1393186836
 30
0.0
 40
3.0
 41
0.0
 71
         1
 72
         1
  1
 
  7
SLDTEXTSTYLE0
  0
MTEXT
  5
2D2
100
AcDbEntity
  8
0
 62
         7
100
AcDbMText
 10
226.2
 20
71.035087673
 30
0.0
 40
3.0
 41
0.0
 71
         1
 72
         1
  1
 
  7
SLDTEXTSTYLE0
  0
MTEXT
  5
2D3
100
AcDbEntity
  8
0
 62
         7
100
AcDbMText
 10
338.27
 20
20.5584796103
 30
0.0
 40
5.0
 41
0.0
 71
         1
 72
         1
  1
9.848.00003.20
  7
SLDTEXTSTYLE0
  0
MTEXT
  5
2D4
100
AcDbEntity
  8
0
 62
         7
100
AcDbMText
 10
11.2233439937
 20
96.0081005587
 30
0.0
 40
2.5
 41
0.0
 71
         1
 72
         1
  1
Für diese Unterlage behalten wir uns alle Rechte nach DIN 34 vor
  7
SLDTEXTSTYLE0
 11
0.0
 21
1.0
 31
0.0
  0
MTEXT
  5
2D5
100
AcDbEntity
  8
0
 62
         7
100
AcDbMText
 10
321.9106540142
 20
51.1697619862
 30
0.0
 40
3.0
 41
0.0
 71
         1
 72
         1
  1
 
  7
SLDTEXTSTYLE0
  0
MTEXT
  5
2D6
100
AcDbEntity
  8
0
 62
         7
100
AcDbMText
 10
306.9726134962
 20
50.9919281705
 30
0.0
 40
3.0
 41
0.0
 71
         1
 72
         1
  1
 
  7
SLDTEXTSTYLE0
  0
MTEXT
  5
2D7
100
AcDbEntity
  8
0
 62
         7
100
AcDbMText
 10
294.802348216
 20
50.7896714013
 30
0.0
 40
2.0
 41
0.0
 71
         1
 72
         1
  1
WZ Gepr.
  7
SLDTEXTSTYLE0
  0
INSERT
  5
2D8
100
AcDbEntity
  8
0
100
AcDbBlockReference
  2
DETAILELEMENT79
 10
283.5853192157
 20
76.1709409515
 30
0.0
  0
INSERT
  5
2D9
100
AcDbEntity
  8
0
100
AcDbBlockReference
  2
DIN_9830_GüTEGRAT_F
 10
233.7497360084
 20
76.5722280887
 30
0.0
  0
INSERT
  5
2DA
100
AcDbEntity
  8
0
100
AcDbBlockReference
  2
FLIETER-FIRMENSYMBOL-NEU
 10
230.4635806881
 20
15.0598583422
 30
0.0
  0
INSERT
  5
2DB
100
AcDbEntity
  8
0
100
AcDbBlockReference
  2
FEHLENDE_MAßE_SIEHE_WERKN3
 10
135.4505862647
 20
152.3693467337
 30
0.0
  0
LINE
  5
2DC
100
AcDbEntity
  8
0
  6
CENTERX2
 62
         7
100
AcDbLine
 10
159.3510217464
 20
209.2864864865
 30
0.0
 11
159.3510217464
 21
175.3783783784
 31
0.0
  0
LINE
  5
2DD
100
AcDbEntity
  8
0
  6
CENTERX2
 62
         7
100
AcDbLine
 10
110.5060000704
 20
195.1425505923
 30
0.0
 11
154.1642503528
 21
195.1425505923
 31
0.0
  0
LINE
  5
2DE
100
AcDbEntity
  8
0
  6
CENTERX2
 62
         7
100
AcDbLine
 10
165.4746778871
 20
195.1425505923
 30
0.0
 11
208.0018854161
 21
195.1425505923
 31
0.0
  0
CIRCLE
  5
2DF
100
AcDbEntity
  8
0
  6
CONTINUOUS
 62
         7
100
AcDbCircle
 10
237.3510217464
 20
196.1425505923
 30
0.0
 40
4.5
  0
LINE
  5
2E0
100
AcDbEntity
  8
0
  6
CONTINUOUS
 62
         7
100
AcDbLine
 10
69.3510217464
 20
184.1425505923
 30
0.0
 11
249.3510217464
 21
184.1425505923
 31
0.0
  0
LINE
  5
2E1
100
AcDbEntity
  8
0
  6
CONTINUOUS
 62
         7
100
AcDbLine
 10
69.3510217464
 20
184.1425505923
 30
0.0
 11
69.3510217464
 21
208.1425505923
 31
0.0
  0
LINE
  5
2E2
100
AcDbEntity
  8
0
  6
CONTINUOUS
 62
         7
100
AcDbLine
 10
69.3510217464
 20
208.1425505923
 30
0.0
 11
249.3510217464
 21
208.1425505923
 31
0.0
  0
LINE
  5
2E3
100
AcDbEntity
  8
0
  6
CONTINUOUS
 62
         7
100
AcDbLine
 10
249.3510217464
 20
184.1425505923
 30
0.0
 11
249.3510217464
 21
208.1425505923
 31
0.0
  0
ARC
  5
2E4
100
AcDbEntity
  8
0
  6
CONTINUOUS
 62
         7
100
AcDbCircle
 10
170.1010217464
 20
191.1425505923
 30
0.0
 40
2.0
100
AcDbArc
 50
180.0
 51
270.0
  0
LINE
  5
2E5
100
AcDbEntity
  8
0
  6
CONTINUOUS
 62
         7
100
AcDbLine
 10
170.1010217464
 20
189.1425505923
 30
0.0
 11
202.1010217464
 21
189.1425505923
 31
0.0
  0
ARC
  5
2E6
100
AcDbEntity
  8
0
  6
CONTINUOUS
 62
         7
100
AcDbCircle
 10
202.1010217464
 20
191.1425505923
 30
0.0
 40
2.0
100
AcDbArc
 50
270.0
 51
0.0
  0
LINE
  5
2E7
100
AcDbEntity
  8
0
  6
CONTINUOUS
 62
         7
100
AcDbLine
 10
204.1010217464
 20
191.1425505923
 30
0.0
 11
204.1010217464
 21
199.1425505923
 31
0.0
  0
ARC
  5
2E8
100
AcDbEntity
  8
0
  6
CONTINUOUS
 62
         7
100
AcDbCircle
 10
202.1010217464
 20
199.1425505923
 30
0.0
 40
2.0
100
AcDbArc
 50
0.0
 51
90.0
  0
LINE
  5
2E9
100
AcDbEntity
  8
0
  6
CONTINUOUS
 62
         7
100
AcDbLine
 10
202.1010217464
 20
201.1425505923
 30
0.0
 11
170.1010217464
 21
201.1425505923
 31
0.0
  0
ARC
  5
2EA
100
AcDbEntity
  8
0
  6
CONTINUOUS
 62
         7
100
AcDbCircle
 10
170.1010217464
 20
199.1425505923
 30
0.0
 40
2.0
100
AcDbArc
 50
90.0
 51
180.0
  0
LINE
  5
2EB
100
AcDbEntity
  8
0
  6
CONTINUOUS
 62
         7
100
AcDbLine
 10
168.1010217464
 20
199.1425505923
 30
0.0
 11
168.1010217464
 21
191.1425505923
 31
0.0
  0
ARC
  5
2EC
100
AcDbEntity
  8
0
  6
CONTINUOUS
 62
         7
100
AcDbCircle
 10
148.6010217464
 20
199.1425505923
 30
0.0
 40
2.0
100
AcDbArc
 50
0.0
 51
90.0
  0
LINE
  5
2ED
100
AcDbEntity
  8
0
  6
CONTINUOUS
 62
         7
100
AcDbLine
 10
148.6010217464
 20
201.1425505923
 30
0.0
 11
116.6010217464
 21
201.1425505923
 31
0.0
  0
ARC
  5
2EE
100
AcDbEntity
  8
0
  6
CONTINUOUS
 62
         7
100
AcDbCircle
 10
116.6010217464
 20
199.1425505923
 30
0.0
 40
2.0
100
AcDbArc
 50
90.0
 51
180.0
  0
LINE
  5
2EF
100
AcDbEntity
  8
0
  6
CONTINUOUS
 62
         7
100
AcDbLine
 10
114.6010217464
 20
199.1425505923
 30
0.0
 11
114.6010217464
 21
191.1425505923
 31
0.0
  0
ARC
  5
2F0
100
AcDbEntity
  8
0
  6
CONTINUOUS
 62
         7
100
AcDbCircle
 10
116.6010217464
 20
191.1425505923
 30
0.0
 40
2.0
100
AcDbArc
 50
180.0
 51
270.0
  0
LINE
  5
2F1
100
AcDbEntity
  8
0
  6
CONTINUOUS
 62
         7
100
AcDbLine
 10
116.6010217464
 20
189.1425505923
 30
0.0
 11
148.6010217464
 21
189.1425505923
 31
0.0
  0
LINE
  5
2F2
100
AcDbEntity
  8
0
  6
CONTINUOUS
 62
         7
100
AcDbLine
 10
150.6010217464
 20
191.1425505923
 30
0.0
 11
150.6010217464
 21
199.1425505923
 31
0.0
  0
CIRCLE
  5
2F3
100
AcDbEntity
  8
0
  6
CONTINUOUS
 62
         7
100
AcDbCircle
 10
81.3510217464
 20
196.1425505923
 30
0.0
 40
4.5
  0
ARC
  5
2F4
100
AcDbEntity
  8
0
  6
CONTINUOUS
 62
         7
100
AcDbCircle
 10
148.6010217464
 20
191.1425505923
 30
0.0
 40
2.0
100
AcDbArc
 50
270.0
 51
0.0
  0
CIRCLE
  5
2F5
100
AcDbEntity
  8
0
  6
CONTINUOUS
 62
         7
100
AcDbCircle
 10
81.3510217464
 20
196.1425505923
 30
0.0
 40
2.55
  0
CIRCLE
  5
2F6
100
AcDbEntity
  8
0
  6
CONTINUOUS
 62
         7
100
AcDbCircle
 10
237.3510217464
 20
196.1425505923
 30
0.0
 40
2.55
  0
DIMENSION
  5
303
100
AcDbEntity
  8
0
 62
         7
100
AcDbDimension
  2
*D4
 10
105.0769948539
 20
184.1425505923
 30
0.0
 11
105.0769948539
 21
172.5466529165
 31
0.0
 70
       160
 53
90.0
  3
SLDDIMSTYLE0
100
AcDbAlignedDimension
 13
110.5060000704
 23
195.1425505923
 33
0.0
 14
69.3510217464
 24
184.1425505923
 34
0.0
 50
90.0
100
AcDbRotatedDimension
  0
DIMENSION
  5
30F
100
AcDbEntity
  8
0
 62
         7
100
AcDbDimension
  2
*D5
 10
69.3510217464
 20
218.1181959093
 30
0.0
 11
161.0908981746
 21
218.1181959093
 31
0.0
 70
       160
  3
SLDDIMSTYLE0
100
AcDbAlignedDimension
 13
249.3510217464
 23
184.1425505923
 33
0.0
 14
69.3510217464
 24
184.1425505923
 34
0.0
100
AcDbRotatedDimension
  0
DIMENSION
  5
31B
100
AcDbEntity
  8
0
 62
         7
100
AcDbDimension
  2
*D6
 10
258.6413219028
 20
184.1425505923
 30
0.0
 11
258.6413219028
 21
190.1425505923
 31
0.0
 70
       160
 53
90.0
  3
SLDDIMSTYLE0
100
AcDbAlignedDimension
 13
237.3510217464
 23
196.1425505923
 33
0.0
 14
231.3841404216
 24
184.1425505923
 34
0.0
 50
90.0
100
AcDbRotatedDimension
  0
DIMENSION
  5
329
100
AcDbEntity
  8
0
 62
         7
100
AcDbDimension
  2
*D7
 10
132.5702210121
 20
184.1425505923
 30
0.0
 11
132.5702210121
 21
174.1596663629
 31
0.0
 70
       160
 53
90.0
  1
(<>)
  3
SLDDIMSTYLE0
100
AcDbAlignedDimension
 13
116.6010217464
 23
189.1425505923
 33
0.0
 14
69.3510217464
 24
184.1425505923
 34
0.0
 50
90.0
100
AcDbRotatedDimension
  0
MTEXT
  5
32A
100
AcDbEntity
  8
0
 62
         7
100
AcDbMText
 10
225.154593453
 20
85.6072099324
 30
0.0
 40
3.5
 41
0.0
 71
         1
 72
         1
  1
b
  7
SLDTEXTSTYLE0
  0
CIRCLE
  5
32B
100
AcDbEntity
  8
0
  6
CONTINUOUS
 62
         7
100
AcDbCircle
 10
226.7446327684
 20
83.7355051977
 30
0.0
 40
2.7672116256
  0
MTEXT
  5
32C
100
AcDbEntity
  8
0
 62
         7
100
AcDbMText
 10
275.3683210137
 20
84.2195119387
 30
0.0
 40
3.5
 41
0.0
 71
         1
 72
         1
  1
b
  7
SLDTEXTSTYLE0
  0
CIRCLE
  5
32D
100
AcDbEntity
  8
0
  6
CONTINUOUS
 62
         7
100
AcDbCircle
 10
276.956779661
 20
82.3473696045
 30
0.0
 40
2.7660732067
  0
INSERT
  5
337
100
AcDbEntity
  8
0
100
AcDbBlockReference
  2
CENTERMARK0
 10
0.0
 20
0.0
 30
0.0
  0
INSERT
  5
343
100
AcDbEntity
  8
0
100
AcDbBlockReference
  2
SW_CENTERMARK0
 10
0.0
 20
0.0
 30
0.0
  0
LINE
  5
344
100
AcDbEntity
  8
0
  6
CONTINUOUS
 62
         7
100
AcDbLine
 10
308.1279069767
 20
208.3325581395
 30
0.0
 11
311.1279069767
 21
208.3325581395
 31
0.0
  0
LINE
  5
345
100
AcDbEntity
  8
0
  6
CONTINUOUS
 62
         7
100
AcDbLine
 10
311.1279069767
 20
184.3325581395
 30
0.0
 11
308.1279069767
 21
184.3325581395
 31
0.0
  0
LINE
  5
346
100
AcDbEntity
  8
0
  6
CONTINUOUS
 62
         7
100
AcDbLine
 10
308.1279069767
 20
184.3325581395
 30
0.0
 11
308.1279069767
 21
208.3325581395
 31
0.0
  0
LINE
  5
347
100
AcDbEntity
  8
0
  6
CONTINUOUS
 62
         7
100
AcDbLine
 10
311.1279069767
 20
184.3325581395
 30
0.0
 11
311.1279069767
 21
208.3325581395
 31
0.0
  0
DIMENSION
  5
353
100
AcDbEntity
  8
0
 62
         7
100
AcDbDimension
  2
*D10
 10
320.3136189155
 20
208.3325581395
 30
0.0
 11
320.3136189155
 21
194.2421373324
 31
0.0
 70
       160
 53
90.0
  3
SLDDIMSTYLE0
100
AcDbAlignedDimension
 13
308.1279069767
 23
184.3325581395
 33
0.0
 14
308.1279069767
 24
208.3325581395
 34
0.0
 50
90.0
100
AcDbRotatedDimension
  0
DIMENSION
  5
361
100
AcDbEntity
  8
0
 62
         7
100
AcDbDimension
  2
*D11
 10
311.1279069767
 20
214.2305282555
 30
0.0
 11
323.0855302144
 21
214.2305282555
 31
0.0
 70
       160
  3
SLDDIMSTYLE0
100
AcDbAlignedDimension
 13
308.1279069767
 23
196.3325581395
 33
0.0
 14
311.1279069767
 24
196.3325581395
 34
0.0
100
AcDbRotatedDimension
  0
ENDSEC
  0
SECTION
  2
OBJECTS
  0
DICTIONARY
  5
19
100
AcDbDictionary
  3
ACAD_GROUP
350
1A
  3
ACAD_MLINESTYLE
350
1B
  0
DICTIONARY
  5
1A
102
{ACAD_REACTORS
330
19
102
}
100
AcDbDictionary
  0
DICTIONARY
  5
1B
102
{ACAD_REACTORS
330
19
102
}
100
AcDbDictionary
  3
STANDARD
350
1C
  0
MLINESTYLE
  5
1C
102
{ACAD_REACTORS
330
1B
102
}
100
AcDbMlineStyle
  2
STANDARD
 70
         0
  3

 62
         0
 51
90.0
 52
90.0
 71
         2
 49
0.5
 62
       256
  6
BYLAYER
 49
-0.5
 62
       256
  6
BYLAYER
  0
ENDSEC
  0
EOF
